  0
SECTION
  2
HEADER
  9
$ACADVER
  1
AC1015
  9
$ACADMAINTVER
 70
     6
  9
$DWGCODEPAGE
  3
ANSI_932
  9
$INSBASE
 10
0.0
 20
0.0
 30
0.0
  9
$EXTMIN
 10
-0.0000004333560355
 20
0.0000006402971167
 30
0.0
  9
$EXTMAX
 10
797.599999566644
 20
551.6000006402973
 30
0.0
  9
$LIMMIN
 10
0.0
 20
0.0
  9
$LIMMAX
 10
840.0
 20
594.0
  9
$ORTHOMODE
 70
     1
  9
$REGENMODE
 70
     1
  9
$FILLMODE
 70
     1
  9
$QTEXTMODE
 70
     0
  9
$MIRRTEXT
 70
     1
  9
$LTSCALE
 40
2.0
  9
$ATTMODE
 70
     1
  9
$TEXTSIZE
 40
5.0
  9
$TRACEWID
 40
1.0
  9
$TEXTSTYLE
  7
STANDARD
  9
$CLAYER
  8
SEIHIN
  9
$CELTYPE
  6
BYLAYER
  9
$CECOLOR
 62
   256
  9
$CELTSCALE
 40
1.0
  9
$DISPSILH
 70
     0
  9
$DIMSCALE
 40
1.0
  9
$DIMASZ
 40
7.0
  9
$DIMEXO
 40
6.0
  9
$DIMDLI
 40
14.0
  9
$DIMRND
 40
0.0
  9
$DIMDLE
 40
0.0
  9
$DIMEXE
 40
3.0
  9
$DIMTP
 40
0.0
  9
$DIMTM
 40
0.0
  9
$DIMTXT
 40
6.0
  9
$DIMCEN
 40
150.0
  9
$DIMTSZ
 40
0.0
  9
$DIMTOL
 70
     0
  9
$DIMLIM
 70
     0
  9
$DIMTIH
 70
     0
  9
$DIMTOH
 70
     0
  9
$DIMSE1
 70
     0
  9
$DIMSE2
 70
     0
  9
$DIMTAD
 70
     3
  9
$DIMZIN
 70
     0
  9
$DIMBLK
  1

  9
$DIMASO
 70
     1
  9
$DIMSHO
 70
     1
  9
$DIMPOST
  1

  9
$DIMAPOST
  1

  9
$DIMALT
 70
     0
  9
$DIMALTD
 70
     2
  9
$DIMALTF
 40
25.4
  9
$DIMLFAC
 40
1.0
  9
$DIMTOFL
 70
     1
  9
$DIMTVP
 40
0.0
  9
$DIMTIX
 70
     0
  9
$DIMSOXD
 70
     0
  9
$DIMSAH
 70
     1
  9
$DIMBLK1
  1
OPEN
  9
$DIMBLK2
  1
OPEN
  9
$DIMSTYLE
  2
STANDARD
  9
$DIMCLRD
 70
   256
  9
$DIMCLRE
 70
   256
  9
$DIMCLRT
 70
   256
  9
$DIMTFAC
 40
1.0
  9
$DIMGAP
 40
2.0
  9
$DIMJUST
 70
     0
  9
$DIMSD1
 70
     0
  9
$DIMSD2
 70
     0
  9
$DIMTOLJ
 70
     1
  9
$DIMTZIN
 70
     0
  9
$DIMALTZ
 70
     0
  9
$DIMALTTZ
 70
     0
  9
$DIMUPT
 70
     0
  9
$DIMDEC
 70
     0
  9
$DIMTDEC
 70
     0
  9
$DIMALTU
 70
     2
  9
$DIMALTTD
 70
     2
  9
$DIMTXSTY
  7
STANDARD
  9
$DIMAUNIT
 70
     0
  9
$DIMADEC
 70
     0
  9
$DIMALTRND
 40
0.0
  9
$DIMAZIN
 70
     0
  9
$DIMDSEP
 70
    46
  9
$DIMATFIT
 70
     3
  9
$DIMFRAC
 70
     0
  9
$DIMLDRBLK
  1
OPEN
  9
$DIMLUNIT
 70
     2
  9
$DIMLWD
 70
    -1
  9
$DIMLWE
 70
    -1
  9
$DIMTMOVE
 70
     0
  9
$LUNITS
 70
     2
  9
$LUPREC
 70
     4
  9
$SKETCHINC
 40
1.0
  9
$FILLETRAD
 40
20.0
  9
$AUNITS
 70
     0
  9
$AUPREC
 70
     0
  9
$MENU
  1
.
  9
$ELEVATION
 40
0.0
  9
$PELEVATION
 40
0.0
  9
$THICKNESS
 40
0.0
  9
$LIMCHECK
 70
     0
  9
$CHAMFERA
 40
20.0
  9
$CHAMFERB
 40
20.0
  9
$CHAMFERC
 40
40.0
  9
$CHAMFERD
 40
0.0
  9
$SKPOLY
 70
     0
  9
$TDCREATE
 40
2451029.942521991
  9
$TDUCREATE
 40
2451029.567521991
  9
$TDUPDATE
 40
2455609.397841516
  9
$TDUUPDATE
 40
2455609.022841516
  9
$TDINDWG
 40
0.0793304514
  9
$TDUSRTIMER
 40
0.0793304514
  9
$USRTIMER
 70
     1
  9
$ANGBASE
 50
0.0
  9
$ANGDIR
 70
     0
  9
$PDMODE
 70
     0
  9
$PDSIZE
 40
0.0
  9
$PLINEWID
 40
0.0
  9
$SPLFRAME
 70
     0
  9
$SPLINETYPE
 70
     6
  9
$SPLINESEGS
 70
     8
  9
$HANDSEED
  5
1A06
  9
$SURFTAB1
 70
     6
  9
$SURFTAB2
 70
     6
  9
$SURFTYPE
 70
     6
  9
$SURFU
 70
     6
  9
$SURFV
 70
     6
  9
$UCSBASE
  2

  9
$UCSNAME
  2

  9
$UCSORG
 10
0.0
 20
0.0
 30
0.0
  9
$UCSXDIR
 10
1.0
 20
0.0
 30
0.0
  9
$UCSYDIR
 10
0.0
 20
1.0
 30
0.0
  9
$UCSORTHOREF
  2

  9
$UCSORTHOVIEW
 70
     0
  9
$UCSORGTOP
 10
0.0
 20
0.0
 30
0.0
  9
$UCSORGBOTTOM
 10
0.0
 20
0.0
 30
0.0
  9
$UCSORGLEFT
 10
0.0
 20
0.0
 30
0.0
  9
$UCSORGRIGHT
 10
0.0
 20
0.0
 30
0.0
  9
$UCSORGFRONT
 10
0.0
 20
0.0
 30
0.0
  9
$UCSORGBACK
 10
0.0
 20
0.0
 30
0.0
  9
$PUCSBASE
  2

  9
$PUCSNAME
  2

  9
$PUCSORG
 10
0.0
 20
0.0
 30
0.0
  9
$PUCSXDIR
 10
1.0
 20
0.0
 30
0.0
  9
$PUCSYDIR
 10
0.0
 20
1.0
 30
0.0
  9
$PUCSORTHOREF
  2

  9
$PUCSORTHOVIEW
 70
     0
  9
$PUCSORGTOP
 10
0.0
 20
0.0
 30
0.0
  9
$PUCSORGBOTTOM
 10
0.0
 20
0.0
 30
0.0
  9
$PUCSORGLEFT
 10
0.0
 20
0.0
 30
0.0
  9
$PUCSORGRIGHT
 10
0.0
 20
0.0
 30
0.0
  9
$PUCSORGFRONT
 10
0.0
 20
0.0
 30
0.0
  9
$PUCSORGBACK
 10
0.0
 20
0.0
 30
0.0
  9
$USERI1
 70
     0
  9
$USERI2
 70
     0
  9
$USERI3
 70
     0
  9
$USERI4
 70
     0
  9
$USERI5
 70
     0
  9
$USERR1
 40
0.0
  9
$USERR2
 40
0.0
  9
$USERR3
 40
0.0
  9
$USERR4
 40
0.0
  9
$USERR5
 40
0.0
  9
$WORLDVIEW
 70
     1
  9
$SHADEDGE
 70
     3
  9
$SHADEDIF
 70
    70
  9
$TILEMODE
 70
     1
  9
$MAXACTVP
 70
    16
  9
$PINSBASE
 10
0.0
 20
0.0
 30
0.0
  9
$PLIMCHECK
 70
     0
  9
$PEXTMIN
 10
0.0
 20
0.0
 30
0.0
  9
$PEXTMAX
 10
420.0
 20
297.0
 30
0.0
  9
$PLIMMIN
 10
0.0
 20
0.0
  9
$PLIMMAX
 10
420.0
 20
297.0
  9
$UNITMODE
 70
     0
  9
$VISRETAIN
 70
     0
  9
$PLINEGEN
 70
     0
  9
$PSLTSCALE
 70
     1
  9
$TREEDEPTH
 70
  3020
  9
$CMLSTYLE
  2
STANDARD
  9
$CMLJUST
 70
     0
  9
$CMLSCALE
 40
1.0
  9
$PROXYGRAPHICS
 70
     1
  9
$MEASUREMENT
 70
     1
  9
$CELWEIGHT
370
    -1
  9
$ENDCAPS
280
     0
  9
$JOINSTYLE
280
     0
  9
$LWDISPLAY
290
     0
  9
$INSUNITS
 70
     0
  9
$HYPERLINKBASE
  1

  9
$STYLESHEET
  1
print.ctb
  9
$XEDIT
290
     1
  9
$CEPSNTYPE
380
     0
  9
$PSTYLEMODE
290
     1
  9
$FINGERPRINTGUID
  2
{FF3C30AF-89FB-45B1-9067-596B98B489D4}
  9
$VERSIONGUID
  2
{74010855-9F48-4769-8708-ACB9C73B79E7}
  9
$EXTNAMES
290
     1
  9
$PSVPSCALE
 40
0.0
  9
$OLESTARTUP
290
     0
  0
ENDSEC
  0
SECTION
  2
CLASSES
  0
CLASS
  1
ACDBDICTIONARYWDFLT
  2
AcDbDictionaryWithDefault
  3
ObjectDBX Classes
 90
        0
280
     0
281
     0
  0
CLASS
  1
ACDBPLACEHOLDER
  2
AcDbPlaceHolder
  3
ObjectDBX Classes
 90
        0
280
     0
281
     0
  0
CLASS
  1
LAYOUT
  2
AcDbLayout
  3
ObjectDBX Classes
 90
        0
280
     0
281
     0
  0
CLASS
  1
DUMMY
  2
AcDbLongTransaction
  3
DUMMY
 90
        0
280
     0
281
     0
  0
CLASS
  1
LWPOLYLINE
  2
AcDbPolyline
  3
AutoCAD 2000
 90
        0
280
     0
281
     1
  0
CLASS
  1
HATCH
  2
AcDbHatch
  3
AutoCAD 2000
 90
        0
280
     0
281
     1
  0
CLASS
  1
XRECORD
  2
AcDbXrecord
  3
AutoCAD 2000
 90
        0
280
     0
281
     0
  0
CLASS
  1
DUMMY
  2
AcDbLongTransaction
  3
DUMMY
 90
        0
280
     0
281
     0
  0
CLASS
  1
LWPOLYLINE
  2
AcDbPolyline
  3
AutoCAD 2000
 90
        0
280
     0
281
     1
  0
CLASS
  1
HATCH
  2
AcDbHatch
  3
AutoCAD 2000
 90
        0
280
     0
281
     1
  0
CLASS
  1
XRECORD
  2
AcDbXrecord
  3
AutoCAD 2000
 90
        0
280
     0
281
     0
  0
CLASS
  1
DUMMY
  2
AcDbLongTransaction
  3
DUMMY
 90
        0
280
     0
281
     0
  0
CLASS
  1
LWPOLYLINE
  2
AcDbPolyline
  3
AutoCAD 2000
 90
        0
280
     0
281
     1
  0
CLASS
  1
HATCH
  2
AcDbHatch
  3
AutoCAD 2000
 90
        0
280
     0
281
     1
  0
CLASS
  1
XRECORD
  2
AcDbXrecord
  3
AutoCAD 2000
 90
        0
280
     0
281
     0
  0
CLASS
  1
DUMMY
  2
AcDbLongTransaction
  3
DUMMY
 90
        0
280
     0
281
     0
  0
CLASS
  1
LWPOLYLINE
  2
AcDbPolyline
  3
AutoCAD 2000
 90
        0
280
     0
281
     1
  0
CLASS
  1
HATCH
  2
AcDbHatch
  3
AutoCAD 2000
 90
        0
280
     0
281
     1
  0
CLASS
  1
XRECORD
  2
AcDbXrecord
  3
AutoCAD 2000
 90
        0
280
     0
281
     0
  0
CLASS
  1
DUMMY
  2
AcDbLongTransaction
  3
DUMMY
 90
        0
280
     0
281
     0
  0
CLASS
  1
LWPOLYLINE
  2
AcDbPolyline
  3
AutoCAD 2000
 90
        0
280
     0
281
     1
  0
CLASS
  1
HATCH
  2
AcDbHatch
  3
AutoCAD 2000
 90
        0
280
     0
281
     1
  0
CLASS
  1
XRECORD
  2
AcDbXrecord
  3
AutoCAD 2000
 90
        0
280
     0
281
     0
  0
ENDSEC
  0
SECTION
  2
TABLES
  0
TABLE
  2
VPORT
  5
8
330
0
100
AcDbSymbolTable
 70
     2
  0
VPORT
  5
1A05
330
8
100
AcDbSymbolTableRecord
100
AcDbViewportTableRecord
  2
*Active
 70
     0
 10
0.0
 20
0.0
 11
1.0
 21
1.0
 12
407.7820726536925
 22
300.8868607801108
 13
0.0
 23
0.0
 14
5.0
 24
5.0
 15
0.0
 25
0.0
 16
0.0
 26
0.0
 36
1.0
 17
0.0
 27
0.0
 37
0.0
 40
637.231177402679
 41
1.651537335285505
 42
50.0
 43
0.0
 44
0.0
 50
0.0
 51
0.0
 71
     0
 72
   100
 73
     1
 74
     0
 75
     0
 76
     0
 77
     0
 78
     0
281
     0
 65
     1
110
0.0
120
0.0
130
0.0
111
1.0
121
0.0
131
0.0
112
0.0
122
1.0
132
0.0
 79
     0
146
0.0
  0
ENDTAB
  0
TABLE
  2
LTYPE
  5
5
330
0
100
AcDbSymbolTable
 70
     2
  0
LTYPE
  5
14
330
5
100
AcDbSymbolTableRecord
100
AcDbLinetypeTableRecord
  2
BYBLOCK
 70
     0
  3

 72
    65
 73
     0
 40
0.0
  0
LTYPE
  5
15
330
5
100
AcDbSymbolTableRecord
100
AcDbLinetypeTableRecord
  2
BYLAYER
 70
     0
  3

 72
    65
 73
     0
 40
0.0
  0
LTYPE
  5
16
330
5
100
AcDbSymbolTableRecord
100
AcDbLinetypeTableRecord
  2
CONTINUOUS
 70
     0
  3
Solid line
 72
    65
 73
     0
 40
0.0
  0
LTYPE
  5
135
330
5
100
AcDbSymbolTableRecord
100
AcDbLinetypeTableRecord
  2
CENTER
 70
     0
  3
____ _ ____ _ ____ _ ____ _ ____ _ ____ _ ____ 
 72
    65
 73
     4
 40
2.0
 49
1.25
 74
     0
 49
-0.25
 74
     0
 49
0.25
 74
     0
 49
-0.25
 74
     0
  0
ENDTAB
  0
TABLE
  2
LAYER
  5
2
330
0
100
AcDbSymbolTable
 70
     8
  0
LAYER
  5
F
330
2
100
AcDbSymbolTableRecord
100
AcDbLayerTableRecord
  2
0
 70
     0
 62
     7
  6
CONTINUOUS
370
    -3
390
85E
  0
LAYER
  5
62
330
2
100
AcDbSymbolTableRecord
100
AcDbLayerTableRecord
  2
VIEWPORT
 70
     0
 62
     7
  6
CONTINUOUS
370
    -3
390
85E
  0
LAYER
  5
65
330
2
100
AcDbSymbolTableRecord
100
AcDbLayerTableRecord
  2
ZUWAKU
 70
     0
 62
     7
  6
CONTINUOUS
370
    -3
390
85E
  0
LAYER
  5
145
330
2
100
AcDbSymbolTableRecord
100
AcDbLayerTableRecord
  2
SEIHIN
 70
     0
 62
     3
  6
CONTINUOUS
370
    -3
390
85E
  0
LAYER
  5
146
330
2
100
AcDbSymbolTableRecord
100
AcDbLayerTableRecord
  2
SUNPOU
 70
     0
 62
     4
  6
CONTINUOUS
370
    -3
390
85E
  0
LAYER
  5
147
330
2
100
AcDbSymbolTableRecord
100
AcDbLayerTableRecord
  2
CENTER L
 70
     0
 62
     1
  6
CENTER
370
    -3
390
85E
  0
LAYER
  5
381
330
2
100
AcDbSymbolTableRecord
100
AcDbLayerTableRecord
  2
DEFPOINTS
 70
     0
 62
     7
  6
CONTINUOUS
290
     0
370
    -3
390
85E
  0
LAYER
  5
154D
330
2
100
AcDbSymbolTableRecord
100
AcDbLayerTableRecord
  2
MOJI
 70
     0
 62
     2
  6
CONTINUOUS
370
    -3
390
85E
  0
ENDTAB
  0
TABLE
  2
STYLE
  5
3
330
0
100
AcDbSymbolTable
 70
     2
  0
STYLE
  5
10
330
3
100
AcDbSymbolTableRecord
100
AcDbTextStyleTableRecord
  2
STANDARD
 70
     0
 40
0.0
 41
1.0
 50
0.0
 71
     0
 42
5.0
  3
TXT
  4
bigfont.shx
  0
STYLE
  5
154E
330
3
100
AcDbSymbolTableRecord
100
AcDbTextStyleTableRecord
  2
ｽﾀｲﾙ1
 70
     0
 40
0.0
 41
1.0
 50
0.0
 71
     0
 42
2.5
  3
MS PGothic.ttf
  4

1001
ACAD
1000
MS PGothic
1071
    32818
  0
ENDTAB
  0
TABLE
  2
VIEW
  5
6
330
0
100
AcDbSymbolTable
 70
     0
  0
ENDTAB
  0
TABLE
  2
UCS
  5
7
330
0
100
AcDbSymbolTable
 70
     0
  0
ENDTAB
  0
TABLE
  2
APPID
  5
9
330
0
100
AcDbSymbolTable
 70
     1
  0
APPID
  5
11
330
9
100
AcDbSymbolTableRecord
100
AcDbRegAppTableRecord
  2
ACAD
 70
     0
  0
ENDTAB
  0
TABLE
  2
DIMSTYLE
  5
A
330
0
100
AcDbSymbolTable
 70
     1
100
AcDbDimStyleTable
  0
DIMSTYLE
105
1D
102
{ACAD_REACTORS
330
182B
330
182C
330
182D
330
1845
330
1849
330
184D
330
187A
330
1887
330
189D
330
189E
330
189F
330
18A6
330
18BB
102
}
330
A
100
AcDbSymbolTableRecord
100
AcDbDimStyleTableRecord
  2
STANDARD
 70
     0
340
10
  0
ENDTAB
  0
TABLE
  2
BLOCK_RECORD
  5
1
330
0
100
AcDbSymbolTable
 70
    14
  0
BLOCK_RECORD
  5
1A
330
1
100
AcDbSymbolTableRecord
100
AcDbBlockTableRecord
  2
*MODEL_SPACE
340
861
  0
BLOCK_RECORD
  5
17
330
1
100
AcDbSymbolTableRecord
100
AcDbBlockTableRecord
  2
*PAPER_SPACE
340
862
  0
BLOCK_RECORD
  5
6D
330
1
100
AcDbSymbolTableRecord
100
AcDbBlockTableRecord
  2
_OPEN
340
0
102
{BLKREFS
331
1984
331
1985
331
198D
331
198E
331
1996
331
1997
331
199F
331
19A0
331
19AA
331
19AB
331
19B5
331
19B6
331
19C0
331
19C1
331
19C9
331
19CA
331
19D2
331
19D3
331
19DB
331
19DC
331
19E4
331
19E5
331
19EF
331
19F0
331
19F8
331
19F9
102
}
  0
BLOCK_RECORD
  5
18DD
330
1
100
AcDbSymbolTableRecord
100
AcDbBlockTableRecord
  2
*D1
340
0
  0
BLOCK_RECORD
  5
18E9
330
1
100
AcDbSymbolTableRecord
100
AcDbBlockTableRecord
  2
*D2
340
0
  0
BLOCK_RECORD
  5
18F5
330
1
100
AcDbSymbolTableRecord
100
AcDbBlockTableRecord
  2
*D3
340
0
  0
BLOCK_RECORD
  5
1901
330
1
100
AcDbSymbolTableRecord
100
AcDbBlockTableRecord
  2
*D4
340
0
  0
BLOCK_RECORD
  5
190D
330
1
100
AcDbSymbolTableRecord
100
AcDbBlockTableRecord
  2
*D5
340
0
  0
BLOCK_RECORD
  5
191B
330
1
100
AcDbSymbolTableRecord
100
AcDbBlockTableRecord
  2
*D6
340
0
  0
BLOCK_RECORD
  5
1929
330
1
100
AcDbSymbolTableRecord
100
AcDbBlockTableRecord
  2
*D7
340
0
  0
BLOCK_RECORD
  5
1937
330
1
100
AcDbSymbolTableRecord
100
AcDbBlockTableRecord
  2
*D8
340
0
  0
BLOCK_RECORD
  5
1943
330
1
100
AcDbSymbolTableRecord
100
AcDbBlockTableRecord
  2
*D9
340
0
  0
BLOCK_RECORD
  5
194F
330
1
100
AcDbSymbolTableRecord
100
AcDbBlockTableRecord
  2
*D10
340
0
  0
BLOCK_RECORD
  5
195B
330
1
100
AcDbSymbolTableRecord
100
AcDbBlockTableRecord
  2
*D11
340
0
  0
BLOCK_RECORD
  5
1967
330
1
100
AcDbSymbolTableRecord
100
AcDbBlockTableRecord
  2
*D12
340
0
  0
BLOCK_RECORD
  5
1975
330
1
100
AcDbSymbolTableRecord
100
AcDbBlockTableRecord
  2
*D13
340
0
  0
ENDTAB
  0
ENDSEC
  0
SECTION
  2
BLOCKS
  0
BLOCK
  5
1B
330
1A
100
AcDbEntity
  8
0
100
AcDbBlockBegin
  2
*MODEL_SPACE
 70
     0
 71
     0
 10
0.0
 20
0.0
 30
0.0
  3
*MODEL_SPACE
  1

  0
ENDBLK
  5
1C
330
1A
100
AcDbEntity
  8
0
100
AcDbBlockEnd
  0
BLOCK
  5
18
330
17
100
AcDbEntity
 67
     1
  8
0
100
AcDbBlockBegin
  2
*PAPER_SPACE
 70
     0
 71
     0
 10
0.0
 20
0.0
 30
0.0
  3
*PAPER_SPACE
  1

  0
ENDBLK
  5
19
330
17
100
AcDbEntity
 67
     1
  8
0
100
AcDbBlockEnd
  0
BLOCK
  5
6E
330
6D
100
AcDbEntity
  8
0
100
AcDbBlockBegin
  2
_OPEN
 70
     0
 71
     0
 10
0.0
 20
0.0
 30
0.0
  3
_OPEN
  1

  0
LINE
  5
6F
330
6D
100
AcDbEntity
  8
0
  6
ByBlock
 62
     0
100
AcDbLine
 10
-1.0
 20
0.1666666666666667
 30
0.0
 11
0.0
 21
0.0
 31
0.0
  0
LINE
  5
70
330
6D
100
AcDbEntity
  8
0
  6
ByBlock
 62
     0
100
AcDbLine
 10
0.0
 20
0.0
 30
0.0
 11
-1.0
 21
-0.1666666666666667
 31
0.0
  0
LINE
  5
71
330
6D
100
AcDbEntity
  8
0
  6
ByBlock
 62
     0
100
AcDbLine
 10
0.0
 20
0.0
 30
0.0
 11
-1.0
 21
0.0
 31
0.0
  0
ENDBLK
  5
72
330
6D
100
AcDbEntity
  8
0
100
AcDbBlockEnd
  0
BLOCK
  5
18E7
330
18DD
100
AcDbEntity
  8
0
100
AcDbBlockBegin
  2
*D1
 70
     1
 71
     0
 10
0.0
 20
0.0
 30
0.0
  3
*D1
  1

  0
LINE
  5
1981
330
18DD
100
AcDbEntity
  8
SUNPOU
 62
     4
370
    -2
100
AcDbLine
 10
391.847317410024
 20
416.738464721229
 30
0.0
 11
443.0337036561301
 21
416.738464721229
 31
0.0
  0
LINE
  5
1982
330
18DD
100
AcDbEntity
  8
SUNPOU
 62
     4
370
    -2
100
AcDbLine
 10
391.8471174100239
 20
351.7384647212289
 30
0.0
 11
443.03370365613
 21
351.7384647212289
 31
0.0
  0
LINE
  5
1983
330
18DD
100
AcDbEntity
  8
SUNPOU
 62
     4
370
    -2
100
AcDbLine
 10
440.0337036561301
 20
409.738464721229
 30
0.0
 11
440.03370365613
 21
358.7384647212289
 31
0.0
  0
INSERT
  5
1984
330
18DD
100
AcDbEntity
  8
SUNPOU
 62
     4
370
    -2
100
AcDbBlockReference
  2
_OPEN
 10
440.0337036561301
 20
416.738464721229
 30
0.0
 41
7.0
 42
7.0
 43
7.0
 50
90.0
  0
INSERT
  5
1985
330
18DD
100
AcDbEntity
  8
SUNPOU
 62
     4
370
    -2
100
AcDbBlockReference
  2
_OPEN
 10
440.03370365613
 20
351.7384647212289
 30
0.0
 41
7.0
 42
7.0
 43
7.0
 50
270.0
  0
MTEXT
  5
1986
330
18DD
100
AcDbEntity
  8
SUNPOU
 62
     4
100
AcDbMText
 10
435.0337036561299
 20
384.2384647212291
 30
0.0
 40
6.0
 41
0.0
 71
     5
 72
     1
  1
\A1;65
 11
6.123031769111886E-17
 21
1.0
 31
0.0
 73
     1
 44
1.0
  0
POINT
  5
1987
330
18DD
100
AcDbEntity
  8
DEFPOINTS
 62
     0
100
AcDbPoint
 10
385.847317410024
 20
416.738464721229
 30
0.0
  0
POINT
  5
1988
330
18DD
100
AcDbEntity
  8
DEFPOINTS
 62
     0
100
AcDbPoint
 10
385.8471174100239
 20
351.7384647212289
 30
0.0
  0
POINT
  5
1989
330
18DD
100
AcDbEntity
  8
DEFPOINTS
 62
     0
100
AcDbPoint
 10
440.03370365613
 20
351.7384647212289
 30
0.0
  0
ENDBLK
  5
18E8
330
18DD
100
AcDbEntity
  8
0
100
AcDbBlockEnd
  0
BLOCK
  5
18F3
330
18E9
100
AcDbEntity
  8
0
100
AcDbBlockBegin
  2
*D2
 70
     1
 71
     0
 10
0.0
 20
0.0
 30
0.0
  3
*D2
  1

  0
LINE
  5
198A
330
18E9
100
AcDbEntity
  8
SUNPOU
 62
     4
370
    -2
100
AcDbLine
 10
249.347217410024
 20
265.238664721229
 30
0.0
 11
217.5702208275279
 21
265.238664721229
 31
0.0
  0
LINE
  5
198B
330
18E9
100
AcDbEntity
  8
SUNPOU
 62
     4
370
    -2
100
AcDbLine
 10
375.847217410024
 20
198.238464721229
 30
0.0
 11
217.5702208275279
 21
198.2384647212291
 31
0.0
  0
LINE
  5
198C
330
18E9
100
AcDbEntity
  8
SUNPOU
 62
     4
370
    -2
100
AcDbLine
 10
220.5702208275279
 20
258.238664721229
 30
0.0
 11
220.5702208275279
 21
205.2384647212291
 31
0.0
  0
INSERT
  5
198D
330
18E9
100
AcDbEntity
  8
SUNPOU
 62
     4
370
    -2
100
AcDbBlockReference
  2
_OPEN
 10
220.5702208275279
 20
265.238664721229
 30
0.0
 41
7.0
 42
7.0
 43
7.0
 50
90.0
  0
INSERT
  5
198E
330
18E9
100
AcDbEntity
  8
SUNPOU
 62
     4
370
    -2
100
AcDbBlockReference
  2
_OPEN
 10
220.5702208275279
 20
198.2384647212291
 30
0.0
 41
7.0
 42
7.0
 43
7.0
 50
270.0
  0
MTEXT
  5
198F
330
18E9
100
AcDbEntity
  8
SUNPOU
 62
     4
100
AcDbMText
 10
215.5702208275279
 20
231.7385647212291
 30
0.0
 40
6.0
 41
0.0
 71
     5
 72
     1
  1
\A1;67
 11
6.123031769111886E-17
 21
1.0
 31
0.0
 73
     1
 44
1.0
  0
POINT
  5
1990
330
18E9
100
AcDbEntity
  8
DEFPOINTS
 62
     0
100
AcDbPoint
 10
255.347217410024
 20
265.238664721229
 30
0.0
  0
POINT
  5
1991
330
18E9
100
AcDbEntity
  8
DEFPOINTS
 62
     0
100
AcDbPoint
 10
381.847217410024
 20
198.238464721229
 30
0.0
  0
POINT
  5
1992
330
18E9
100
AcDbEntity
  8
DEFPOINTS
 62
     0
100
AcDbPoint
 10
220.5702208275279
 20
198.2384647212291
 30
0.0
  0
ENDBLK
  5
18F4
330
18E9
100
AcDbEntity
  8
0
100
AcDbBlockEnd
  0
BLOCK
  5
18FF
330
18F5
100
AcDbEntity
  8
0
100
AcDbBlockBegin
  2
*D3
 70
     1
 71
     0
 10
0.0
 20
0.0
 30
0.0
  3
*D3
  1

  0
LINE
  5
1993
330
18F5
100
AcDbEntity
  8
SUNPOU
 62
     4
370
    -2
100
AcDbLine
 10
253.847217410024
 20
269.738664721229
 30
0.0
 11
253.847217410024
 21
301.9270077610065
 31
0.0
  0
LINE
  5
1994
330
18F5
100
AcDbEntity
  8
SUNPOU
 62
     4
370
    -2
100
AcDbLine
 10
385.847217410024
 20
270.2384647212291
 30
0.0
 11
385.847217410024
 21
301.9270077610065
 31
0.0
  0
LINE
  5
1995
330
18F5
100
AcDbEntity
  8
SUNPOU
 62
     4
370
    -2
100
AcDbLine
 10
260.847217410024
 20
298.9270077610065
 30
0.0
 11
378.847217410024
 21
298.9270077610065
 31
0.0
  0
INSERT
  5
1996
330
18F5
100
AcDbEntity
  8
SUNPOU
 62
     4
370
    -2
100
AcDbBlockReference
  2
_OPEN
 10
253.847217410024
 20
298.9270077610065
 30
0.0
 41
7.0
 42
7.0
 43
7.0
 50
180.0
  0
INSERT
  5
1997
330
18F5
100
AcDbEntity
  8
SUNPOU
 62
     4
370
    -2
100
AcDbBlockReference
  2
_OPEN
 10
385.847217410024
 20
298.9270077610065
 30
0.0
 41
7.0
 42
7.0
 43
7.0
  0
MTEXT
  5
1998
330
18F5
100
AcDbEntity
  8
SUNPOU
 62
     4
100
AcDbMText
 10
319.847217410024
 20
303.9270077610065
 30
0.0
 40
6.0
 41
0.0
 71
     5
 72
     1
  1
\A1;132
 73
     1
 44
1.0
  0
POINT
  5
1999
330
18F5
100
AcDbEntity
  8
DEFPOINTS
 62
     0
100
AcDbPoint
 10
253.847217410024
 20
263.738664721229
 30
0.0
  0
POINT
  5
199A
330
18F5
100
AcDbEntity
  8
DEFPOINTS
 62
     0
100
AcDbPoint
 10
385.847217410024
 20
264.2384647212291
 30
0.0
  0
POINT
  5
199B
330
18F5
100
AcDbEntity
  8
DEFPOINTS
 62
     0
100
AcDbPoint
 10
385.847217410024
 20
298.9270077610065
 30
0.0
  0
ENDBLK
  5
1900
330
18F5
100
AcDbEntity
  8
0
100
AcDbBlockEnd
  0
BLOCK
  5
190B
330
1901
100
AcDbEntity
  8
0
100
AcDbBlockBegin
  2
*D4
 70
     1
 71
     0
 10
0.0
 20
0.0
 30
0.0
  3
*D4
  1

  0
LINE
  5
199C
330
1901
100
AcDbEntity
  8
SUNPOU
 62
     4
370
    -2
100
AcDbLine
 10
391.847217410024
 20
264.2384647212291
 30
0.0
 11
425.3854749158451
 21
264.2384647212291
 31
0.0
  0
LINE
  5
199D
330
1901
100
AcDbEntity
  8
SUNPOU
 62
     4
370
    -2
100
AcDbLine
 10
391.8471174100239
 20
198.238464721229
 30
0.0
 11
425.3854749158451
 21
198.238464721229
 31
0.0
  0
LINE
  5
199E
330
1901
100
AcDbEntity
  8
SUNPOU
 62
     4
370
    -2
100
AcDbLine
 10
422.3854749158451
 20
257.2384647212291
 30
0.0
 11
422.3854749158451
 21
205.238464721229
 31
0.0
  0
INSERT
  5
199F
330
1901
100
AcDbEntity
  8
SUNPOU
 62
     4
370
    -2
100
AcDbBlockReference
  2
_OPEN
 10
422.3854749158451
 20
264.2384647212291
 30
0.0
 41
7.0
 42
7.0
 43
7.0
 50
90.0
  0
INSERT
  5
19A0
330
1901
100
AcDbEntity
  8
SUNPOU
 62
     4
370
    -2
100
AcDbBlockReference
  2
_OPEN
 10
422.3854749158451
 20
198.238464721229
 30
0.0
 41
7.0
 42
7.0
 43
7.0
 50
270.0
  0
MTEXT
  5
19A1
330
1901
100
AcDbEntity
  8
SUNPOU
 62
     4
100
AcDbMText
 10
417.385474915845
 20
231.2384647212291
 30
0.0
 40
6.0
 41
0.0
 71
     5
 72
     1
  1
\A1;66
 11
6.123031769111886E-17
 21
1.0
 31
0.0
 73
     1
 44
1.0
  0
POINT
  5
19A2
330
1901
100
AcDbEntity
  8
DEFPOINTS
 62
     0
100
AcDbPoint
 10
385.847217410024
 20
264.2384647212291
 30
0.0
  0
POINT
  5
19A3
330
1901
100
AcDbEntity
  8
DEFPOINTS
 62
     0
100
AcDbPoint
 10
385.8471174100239
 20
198.238464721229
 30
0.0
  0
POINT
  5
19A4
330
1901
100
AcDbEntity
  8
DEFPOINTS
 62
     0
100
AcDbPoint
 10
422.3854749158451
 20
198.238464721229
 30
0.0
  0
ENDBLK
  5
190C
330
1901
100
AcDbEntity
  8
0
100
AcDbBlockEnd
  0
BLOCK
  5
1919
330
190D
100
AcDbEntity
  8
0
100
AcDbBlockBegin
  2
*D5
 70
     1
 71
     0
 10
0.0
 20
0.0
 30
0.0
  3
*D5
  1

  0
LINE
  5
19A5
330
190D
100
AcDbEntity
  8
SUNPOU
 62
     4
370
    -2
100
AcDbLine
 10
385.8471174100239
 20
192.238464721229
 30
0.0
 11
385.8471174100239
 21
164.5180844829099
 31
0.0
  0
LINE
  5
19A6
330
190D
100
AcDbEntity
  8
SUNPOU
 62
     4
370
    -2
100
AcDbLine
 10
379.847217410024
 20
194.238464721229
 30
0.0
 11
379.847217410024
 21
164.5180844829099
 31
0.0
  0
LINE
  5
19A7
330
190D
100
AcDbEntity
  8
SUNPOU
 62
     4
370
    -2
100
AcDbLine
 10
372.847217410024
 20
167.5180844829099
 30
0.0
 11
365.847217410024
 21
167.5180844829099
 31
0.0
  0
LINE
  5
19A8
330
190D
100
AcDbEntity
  8
SUNPOU
 62
     4
370
    -2
100
AcDbLine
 10
392.8471174100239
 20
167.5180844829099
 30
0.0
 11
420.8471174100239
 21
167.5180844829099
 31
0.0
  0
LINE
  5
19A9
330
190D
100
AcDbEntity
  8
SUNPOU
 62
     4
370
    -2
100
AcDbLine
 10
379.847217410024
 20
167.5180844829099
 30
0.0
 11
385.8471174100239
 21
167.5180844829099
 31
0.0
  0
INSERT
  5
19AA
330
190D
100
AcDbEntity
  8
SUNPOU
 62
     4
370
    -2
100
AcDbBlockReference
  2
_OPEN
 10
379.847217410024
 20
167.5180844829099
 30
0.0
 41
7.0
 42
7.0
 43
7.0
  0
INSERT
  5
19AB
330
190D
100
AcDbEntity
  8
SUNPOU
 62
     4
370
    -2
100
AcDbBlockReference
  2
_OPEN
 10
385.8471174100239
 20
167.5180844829099
 30
0.0
 41
7.0
 42
7.0
 43
7.0
 50
180.0
  0
MTEXT
  5
19AC
330
190D
100
AcDbEntity
  8
SUNPOU
 62
     4
100
AcDbMText
 10
410.3471174100239
 20
172.5180844829099
 30
0.0
 40
6.0
 41
0.0
 71
     5
 72
     1
  1
\A1;t6.0
 73
     1
 44
1.0
  0
POINT
  5
19AD
330
190D
100
AcDbEntity
  8
DEFPOINTS
 62
     0
100
AcDbPoint
 10
385.8471174100239
 20
198.238464721229
 30
0.0
  0
POINT
  5
19AE
330
190D
100
AcDbEntity
  8
DEFPOINTS
 62
     0
100
AcDbPoint
 10
379.847217410024
 20
200.238464721229
 30
0.0
  0
POINT
  5
19AF
330
190D
100
AcDbEntity
  8
DEFPOINTS
 62
     0
100
AcDbPoint
 10
379.847217410024
 20
167.5180844829099
 30
0.0
  0
ENDBLK
  5
191A
330
190D
100
AcDbEntity
  8
0
100
AcDbBlockEnd
  0
BLOCK
  5
1927
330
191B
100
AcDbEntity
  8
0
100
AcDbBlockBegin
  2
*D6
 70
     1
 71
     0
 10
0.0
 20
0.0
 30
0.0
  3
*D6
  1

  0
LINE
  5
19B0
330
191B
100
AcDbEntity
  8
SUNPOU
 62
     4
370
    -2
100
AcDbLine
 10
375.4972174100241
 20
253.5386647212291
 30
0.0
 11
375.4972174100241
 21
287.4794097635984
 31
0.0
  0
LINE
  5
19B1
330
191B
100
AcDbEntity
  8
SUNPOU
 62
     4
370
    -2
100
AcDbLine
 10
385.847217410024
 20
270.2384647212291
 30
0.0
 11
385.847217410024
 21
287.4794097635984
 31
0.0
  0
LINE
  5
19B2
330
191B
100
AcDbEntity
  8
SUNPOU
 62
     4
370
    -2
100
AcDbLine
 10
392.847217410024
 20
284.4794097635984
 30
0.0
 11
399.847217410024
 21
284.4794097635984
 31
0.0
  0
LINE
  5
19B3
330
191B
100
AcDbEntity
  8
SUNPOU
 62
     4
370
    -2
100
AcDbLine
 10
368.4972174100241
 20
284.4794097635984
 30
0.0
 11
350.4972174100241
 21
284.4794097635984
 31
0.0
  0
LINE
  5
19B4
330
191B
100
AcDbEntity
  8
SUNPOU
 62
     4
370
    -2
100
AcDbLine
 10
385.847217410024
 20
284.4794097635984
 30
0.0
 11
375.4972174100241
 21
284.4794097635984
 31
0.0
  0
INSERT
  5
19B5
330
191B
100
AcDbEntity
  8
SUNPOU
 62
     4
370
    -2
100
AcDbBlockReference
  2
_OPEN
 10
385.847217410024
 20
284.4794097635984
 30
0.0
 41
7.0
 42
7.0
 43
7.0
 50
180.0
  0
INSERT
  5
19B6
330
191B
100
AcDbEntity
  8
SUNPOU
 62
     4
370
    -2
100
AcDbBlockReference
  2
_OPEN
 10
375.4972174100241
 20
284.4794097635984
 30
0.0
 41
7.0
 42
7.0
 43
7.0
  0
MTEXT
  5
19B7
330
191B
100
AcDbEntity
  8
SUNPOU
 62
     4
100
AcDbMText
 10
355.9972174100241
 20
289.4794097635984
 30
0.0
 40
6.0
 41
0.0
 71
     5
 72
     1
  1
\A1;10
 73
     1
 44
1.0
  0
POINT
  5
19B8
330
191B
100
AcDbEntity
  8
DEFPOINTS
 62
     0
100
AcDbPoint
 10
375.4972174100241
 20
247.5386647212291
 30
0.0
  0
POINT
  5
19B9
330
191B
100
AcDbEntity
  8
DEFPOINTS
 62
     0
100
AcDbPoint
 10
385.847217410024
 20
264.2384647212291
 30
0.0
  0
POINT
  5
19BA
330
191B
100
AcDbEntity
  8
DEFPOINTS
 62
     0
100
AcDbPoint
 10
385.847217410024
 20
284.4794097635984
 30
0.0
  0
ENDBLK
  5
1928
330
191B
100
AcDbEntity
  8
0
100
AcDbBlockEnd
  0
BLOCK
  5
1935
330
1929
100
AcDbEntity
  8
0
100
AcDbBlockBegin
  2
*D7
 70
     1
 71
     0
 10
0.0
 20
0.0
 30
0.0
  3
*D7
  1

  0
LINE
  5
19BB
330
1929
100
AcDbEntity
  8
SUNPOU
 62
     4
370
    -2
100
AcDbLine
 10
250.8472174100239
 20
391.7385647212291
 30
0.0
 11
217.5702208275279
 21
391.7385647212291
 31
0.0
  0
LINE
  5
19BC
330
1929
100
AcDbEntity
  8
SUNPOU
 62
     4
370
    -2
100
AcDbLine
 10
250.847217410024
 20
376.7386647212291
 30
0.0
 11
217.5702208275279
 21
376.7386647212291
 31
0.0
  0
LINE
  5
19BD
330
1929
100
AcDbEntity
  8
SUNPOU
 62
     4
370
    -2
100
AcDbLine
 10
220.5702208275279
 20
398.7385647212291
 30
0.0
 11
220.5702208275279
 21
405.7385647212291
 31
0.0
  0
LINE
  5
19BE
330
1929
100
AcDbEntity
  8
SUNPOU
 62
     4
370
    -2
100
AcDbLine
 10
220.5702208275279
 20
369.7386647212291
 30
0.0
 11
220.5702208275279
 21
362.7386647212291
 31
0.0
  0
LINE
  5
19BF
330
1929
100
AcDbEntity
  8
SUNPOU
 62
     4
370
    -2
100
AcDbLine
 10
220.5702208275279
 20
391.7385647212291
 30
0.0
 11
220.5702208275279
 21
376.7386647212291
 31
0.0
  0
INSERT
  5
19C0
330
1929
100
AcDbEntity
  8
SUNPOU
 62
     4
370
    -2
100
AcDbBlockReference
  2
_OPEN
 10
220.5702208275279
 20
391.7385647212291
 30
0.0
 41
7.0
 42
7.0
 43
7.0
 50
270.0
  0
INSERT
  5
19C1
330
1929
100
AcDbEntity
  8
SUNPOU
 62
     4
370
    -2
100
AcDbBlockReference
  2
_OPEN
 10
220.5702208275279
 20
376.7386647212291
 30
0.0
 41
7.0
 42
7.0
 43
7.0
 50
90.0
  0
MTEXT
  5
19C2
330
1929
100
AcDbEntity
  8
SUNPOU
 62
     4
100
AcDbMText
 10
215.5702208275279
 20
384.2386147212292
 30
0.0
 40
6.0
 41
0.0
 71
     5
 72
     1
  1
\A1;15
 11
6.123031769111886E-17
 21
1.0
 31
0.0
 73
     1
 44
1.0
  0
POINT
  5
19C3
330
1929
100
AcDbEntity
  8
DEFPOINTS
 62
     0
100
AcDbPoint
 10
256.847217410024
 20
391.7385647212291
 30
0.0
  0
POINT
  5
19C4
330
1929
100
AcDbEntity
  8
DEFPOINTS
 62
     0
100
AcDbPoint
 10
256.847217410024
 20
376.7386647212291
 30
0.0
  0
POINT
  5
19C5
330
1929
100
AcDbEntity
  8
DEFPOINTS
 62
     0
100
AcDbPoint
 10
220.5702208275279
 20
376.7386647212291
 30
0.0
  0
ENDBLK
  5
1936
330
1929
100
AcDbEntity
  8
0
100
AcDbBlockEnd
  0
BLOCK
  5
1941
330
1937
100
AcDbEntity
  8
0
100
AcDbBlockBegin
  2
*D8
 70
     1
 71
     0
 10
0.0
 20
0.0
 30
0.0
  3
*D8
  1

  0
LINE
  5
19C6
330
1937
100
AcDbEntity
  8
SUNPOU
 62
     4
370
    -2
100
AcDbLine
 10
385.847317410024
 20
396.943555633764
 30
0.0
 11
425.9688082491785
 21
396.943555633764
 31
0.0
  0
LINE
  5
19C7
330
1937
100
AcDbEntity
  8
SUNPOU
 62
     4
370
    -2
100
AcDbLine
 10
385.8472174100241
 20
371.5333740376707
 30
0.0
 11
425.9688082491784
 21
371.5333740376707
 31
0.0
  0
LINE
  5
19C8
330
1937
100
AcDbEntity
  8
SUNPOU
 62
     4
370
    -2
100
AcDbLine
 10
422.9688082491785
 20
389.943555633764
 30
0.0
 11
422.9688082491784
 21
378.5333740376707
 31
0.0
  0
INSERT
  5
19C9
330
1937
100
AcDbEntity
  8
SUNPOU
 62
     4
370
    -2
100
AcDbBlockReference
  2
_OPEN
 10
422.9688082491785
 20
396.943555633764
 30
0.0
 41
7.0
 42
7.0
 43
7.0
 50
90.0
  0
INSERT
  5
19CA
330
1937
100
AcDbEntity
  8
SUNPOU
 62
     4
370
    -2
100
AcDbBlockReference
  2
_OPEN
 10
422.9688082491784
 20
371.5333740376707
 30
0.0
 41
7.0
 42
7.0
 43
7.0
 50
270.0
  0
MTEXT
  5
19CB
330
1937
100
AcDbEntity
  8
SUNPOU
 62
     4
100
AcDbMText
 10
417.9688082491784
 20
384.2384648357174
 30
0.0
 40
6.0
 41
0.0
 71
     5
 72
     1
  1
\A1;25
 11
6.123031769111886E-17
 21
1.0
 31
0.0
 73
     1
 44
1.0
  0
POINT
  5
19CC
330
1937
100
AcDbEntity
  8
DEFPOINTS
 62
     0
100
AcDbPoint
 10
379.847317410024
 20
396.9435556337641
 30
0.0
  0
POINT
  5
19CD
330
1937
100
AcDbEntity
  8
DEFPOINTS
 62
     0
100
AcDbPoint
 10
379.8472174100241
 20
371.5333740376707
 30
0.0
  0
POINT
  5
19CE
330
1937
100
AcDbEntity
  8
DEFPOINTS
 62
     0
100
AcDbPoint
 10
422.9688082491784
 20
371.5333740376707
 30
0.0
  0
ENDBLK
  5
1942
330
1937
100
AcDbEntity
  8
0
100
AcDbBlockEnd
  0
BLOCK
  5
194D
330
1943
100
AcDbEntity
  8
0
100
AcDbBlockBegin
  2
*D9
 70
     1
 71
     0
 10
0.0
 20
0.0
 30
0.0
  3
*D9
  1

  0
LINE
  5
19CF
330
1943
100
AcDbEntity
  8
SUNPOU
 62
     4
370
    -2
100
AcDbLine
 10
508.3472174100241
 20
248.238464721229
 30
0.0
 11
508.3472174100241
 21
305.4996135544313
 31
0.0
  0
LINE
  5
19D0
330
1943
100
AcDbEntity
  8
SUNPOU
 62
     4
370
    -2
100
AcDbLine
 10
573.3472174100714
 20
248.2383856573512
 30
0.0
 11
573.3472174100714
 21
305.4996135544313
 31
0.0
  0
LINE
  5
19D1
330
1943
100
AcDbEntity
  8
SUNPOU
 62
     4
370
    -2
100
AcDbLine
 10
515.3472174100241
 20
302.4996135544313
 30
0.0
 11
566.3472174100714
 21
302.4996135544313
 31
0.0
  0
INSERT
  5
19D2
330
1943
100
AcDbEntity
  8
SUNPOU
 62
     4
370
    -2
100
AcDbBlockReference
  2
_OPEN
 10
508.3472174100241
 20
302.4996135544313
 30
0.0
 41
7.0
 42
7.0
 43
7.0
 50
180.0
  0
INSERT
  5
19D3
330
1943
100
AcDbEntity
  8
SUNPOU
 62
     4
370
    -2
100
AcDbBlockReference
  2
_OPEN
 10
573.3472174100714
 20
302.4996135544313
 30
0.0
 41
7.0
 42
7.0
 43
7.0
  0
MTEXT
  5
19D4
330
1943
100
AcDbEntity
  8
SUNPOU
 62
     4
100
AcDbMText
 10
540.8472174100477
 20
307.4996135544313
 30
0.0
 40
6.0
 41
0.0
 71
     5
 72
     1
  1
\A1;65
 73
     1
 44
1.0
  0
POINT
  5
19D5
330
1943
100
AcDbEntity
  8
DEFPOINTS
 62
     0
100
AcDbPoint
 10
508.3472174100241
 20
242.238464721229
 30
0.0
  0
POINT
  5
19D6
330
1943
100
AcDbEntity
  8
DEFPOINTS
 62
     0
100
AcDbPoint
 10
573.3472174100714
 20
242.2383856573512
 30
0.0
  0
POINT
  5
19D7
330
1943
100
AcDbEntity
  8
DEFPOINTS
 62
     0
100
AcDbPoint
 10
573.3472174100714
 20
302.4996135544313
 30
0.0
  0
ENDBLK
  5
194E
330
1943
100
AcDbEntity
  8
0
100
AcDbBlockEnd
  0
BLOCK
  5
1959
330
194F
100
AcDbEntity
  8
0
100
AcDbBlockBegin
  2
*D10
 70
     1
 71
     0
 10
0.0
 20
0.0
 30
0.0
  3
*D10
  1

  0
LINE
  5
19D8
330
194F
100
AcDbEntity
  8
SUNPOU
 62
     4
370
    -2
100
AcDbLine
 10
517.3472174100241
 20
253.6358647212291
 30
0.0
 11
517.3472174100241
 21
287.8918424531839
 31
0.0
  0
LINE
  5
19D9
330
194F
100
AcDbEntity
  8
SUNPOU
 62
     4
370
    -2
100
AcDbLine
 10
564.3470174100239
 20
253.2770647212291
 30
0.0
 11
564.3470174100239
 21
287.8918424531839
 31
0.0
  0
LINE
  5
19DA
330
194F
100
AcDbEntity
  8
SUNPOU
 62
     4
370
    -2
100
AcDbLine
 10
524.3472174100241
 20
284.8918424531839
 30
0.0
 11
557.3470174100239
 21
284.8918424531839
 31
0.0
  0
INSERT
  5
19DB
330
194F
100
AcDbEntity
  8
SUNPOU
 62
     4
370
    -2
100
AcDbBlockReference
  2
_OPEN
 10
517.3472174100241
 20
284.8918424531839
 30
0.0
 41
7.0
 42
7.0
 43
7.0
 50
180.0
  0
INSERT
  5
19DC
330
194F
100
AcDbEntity
  8
SUNPOU
 62
     4
370
    -2
100
AcDbBlockReference
  2
_OPEN
 10
564.3470174100239
 20
284.8918424531839
 30
0.0
 41
7.0
 42
7.0
 43
7.0
  0
MTEXT
  5
19DD
330
194F
100
AcDbEntity
  8
SUNPOU
 62
     4
100
AcDbMText
 10
540.847117410024
 20
289.8918424531839
 30
0.0
 40
6.0
 41
0.0
 71
     5
 72
     1
  1
\A1;47
 73
     1
 44
1.0
  0
POINT
  5
19DE
330
194F
100
AcDbEntity
  8
DEFPOINTS
 62
     0
100
AcDbPoint
 10
517.3472174100241
 20
247.6358647212291
 30
0.0
  0
POINT
  5
19DF
330
194F
100
AcDbEntity
  8
DEFPOINTS
 62
     0
100
AcDbPoint
 10
564.3470174100239
 20
247.2770647212291
 30
0.0
  0
POINT
  5
19E0
330
194F
100
AcDbEntity
  8
DEFPOINTS
 62
     0
100
AcDbPoint
 10
564.3470174100239
 20
284.8918424531839
 30
0.0
  0
ENDBLK
  5
195A
330
194F
100
AcDbEntity
  8
0
100
AcDbBlockEnd
  0
BLOCK
  5
1965
330
195B
100
AcDbEntity
  8
0
100
AcDbBlockBegin
  2
*D11
 70
     1
 71
     0
 10
0.0
 20
0.0
 30
0.0
  3
*D11
  1

  0
LINE
  5
19E1
330
195B
100
AcDbEntity
  8
SUNPOU
 62
     4
370
    -2
100
AcDbLine
 10
559.657217410024
 20
264.2384647212291
 30
0.0
 11
604.3136206888895
 21
264.2384647212291
 31
0.0
  0
LINE
  5
19E2
330
195B
100
AcDbEntity
  8
SUNPOU
 62
     4
370
    -2
100
AcDbLine
 10
575.496117410024
 20
237.2383647212291
 30
0.0
 11
604.3136206888894
 21
237.2383647212291
 31
0.0
  0
LINE
  5
19E3
330
195B
100
AcDbEntity
  8
SUNPOU
 62
     4
370
    -2
100
AcDbLine
 10
601.3136206888895
 20
257.2384647212291
 30
0.0
 11
601.3136206888894
 21
244.2383647212291
 31
0.0
  0
INSERT
  5
19E4
330
195B
100
AcDbEntity
  8
SUNPOU
 62
     4
370
    -2
100
AcDbBlockReference
  2
_OPEN
 10
601.3136206888895
 20
264.2384647212291
 30
0.0
 41
7.0
 42
7.0
 43
7.0
 50
90.0
  0
INSERT
  5
19E5
330
195B
100
AcDbEntity
  8
SUNPOU
 62
     4
370
    -2
100
AcDbBlockReference
  2
_OPEN
 10
601.3136206888894
 20
237.2383647212291
 30
0.0
 41
7.0
 42
7.0
 43
7.0
 50
270.0
  0
MTEXT
  5
19E6
330
195B
100
AcDbEntity
  8
SUNPOU
 62
     4
100
AcDbMText
 10
596.3136206888894
 20
250.7384147212292
 30
0.0
 40
6.0
 41
0.0
 71
     5
 72
     1
  1
\A1;27
 11
6.123031769111886E-17
 21
1.0
 31
0.0
 73
     1
 44
1.0
  0
POINT
  5
19E7
330
195B
100
AcDbEntity
  8
DEFPOINTS
 62
     0
100
AcDbPoint
 10
553.657217410024
 20
264.2384647212291
 30
0.0
  0
POINT
  5
19E8
330
195B
100
AcDbEntity
  8
DEFPOINTS
 62
     0
100
AcDbPoint
 10
569.496117410024
 20
237.2383647212291
 30
0.0
  0
POINT
  5
19E9
330
195B
100
AcDbEntity
  8
DEFPOINTS
 62
     0
100
AcDbPoint
 10
601.3136206888894
 20
237.2383647212291
 30
0.0
  0
ENDBLK
  5
1966
330
195B
100
AcDbEntity
  8
0
100
AcDbBlockEnd
  0
BLOCK
  5
1973
330
1967
100
AcDbEntity
  8
0
100
AcDbBlockBegin
  2
*D12
 70
     1
 71
     0
 10
0.0
 20
0.0
 30
0.0
  3
*D12
  1

  0
LINE
  5
19EA
330
1967
100
AcDbEntity
  8
SUNPOU
 62
     4
370
    -2
100
AcDbLine
 10
529.9421174100241
 20
208.238464721229
 30
0.0
 11
480.9659890260018
 21
208.238464721229
 31
0.0
  0
LINE
  5
19EB
330
1967
100
AcDbEntity
  8
SUNPOU
 62
     4
370
    -2
100
AcDbLine
 10
534.8470174100241
 20
198.238464721229
 30
0.0
 11
480.9659890260018
 21
198.238464721229
 31
0.0
  0
LINE
  5
19EC
330
1967
100
AcDbEntity
  8
SUNPOU
 62
     4
370
    -2
100
AcDbLine
 10
483.9659890260018
 20
215.238464721229
 30
0.0
 11
483.9659890260018
 21
222.238464721229
 31
0.0
  0
LINE
  5
19ED
330
1967
100
AcDbEntity
  8
SUNPOU
 62
     4
370
    -2
100
AcDbLine
 10
483.9659890260018
 20
191.238464721229
 30
0.0
 11
483.9659890260018
 21
173.238464721229
 31
0.0
  0
LINE
  5
19EE
330
1967
100
AcDbEntity
  8
SUNPOU
 62
     4
370
    -2
100
AcDbLine
 10
483.9659890260018
 20
208.238464721229
 30
0.0
 11
483.9659890260018
 21
198.238464721229
 31
0.0
  0
INSERT
  5
19EF
330
1967
100
AcDbEntity
  8
SUNPOU
 62
     4
370
    -2
100
AcDbBlockReference
  2
_OPEN
 10
483.9659890260018
 20
208.238464721229
 30
0.0
 41
7.0
 42
7.0
 43
7.0
 50
270.0
  0
INSERT
  5
19F0
330
1967
100
AcDbEntity
  8
SUNPOU
 62
     4
370
    -2
100
AcDbBlockReference
  2
_OPEN
 10
483.9659890260018
 20
198.238464721229
 30
0.0
 41
7.0
 42
7.0
 43
7.0
 50
90.0
  0
MTEXT
  5
19F1
330
1967
100
AcDbEntity
  8
SUNPOU
 62
     4
100
AcDbMText
 10
478.9659890260018
 20
178.7384647212291
 30
0.0
 40
6.0
 41
0.0
 71
     5
 72
     1
  1
\A1;10
 11
6.123031769111886E-17
 21
1.0
 31
0.0
 73
     1
 44
1.0
  0
POINT
  5
19F2
330
1967
100
AcDbEntity
  8
DEFPOINTS
 62
     0
100
AcDbPoint
 10
535.9421174100241
 20
208.238464721229
 30
0.0
  0
POINT
  5
19F3
330
1967
100
AcDbEntity
  8
DEFPOINTS
 62
     0
100
AcDbPoint
 10
540.8470174100241
 20
198.238464721229
 30
0.0
  0
POINT
  5
19F4
330
1967
100
AcDbEntity
  8
DEFPOINTS
 62
     0
100
AcDbPoint
 10
483.9659890260018
 20
198.238464721229
 30
0.0
  0
ENDBLK
  5
1974
330
1967
100
AcDbEntity
  8
0
100
AcDbBlockEnd
  0
BLOCK
  5
197F
330
1975
100
AcDbEntity
  8
0
100
AcDbBlockBegin
  2
*D13
 70
     1
 71
     0
 10
0.0
 20
0.0
 30
0.0
  3
*D13
  1

  0
LINE
  5
19F5
330
1975
100
AcDbEntity
  8
SUNPOU
 62
     4
370
    -2
100
AcDbLine
 10
521.9973174100242
 20
264.2384647212291
 30
0.0
 11
480.9659890260018
 21
264.2384647212291
 31
0.0
  0
LINE
  5
19F6
330
1975
100
AcDbEntity
  8
SUNPOU
 62
     4
370
    -2
100
AcDbLine
 10
506.4226174100241
 20
242.238464721229
 30
0.0
 11
480.9659890260018
 21
242.238464721229
 31
0.0
  0
LINE
  5
19F7
330
1975
100
AcDbEntity
  8
SUNPOU
 62
     4
370
    -2
100
AcDbLine
 10
483.9659890260018
 20
257.2384647212291
 30
0.0
 11
483.9659890260018
 21
249.238464721229
 31
0.0
  0
INSERT
  5
19F8
330
1975
100
AcDbEntity
  8
SUNPOU
 62
     4
370
    -2
100
AcDbBlockReference
  2
_OPEN
 10
483.9659890260018
 20
264.2384647212291
 30
0.0
 41
7.0
 42
7.0
 43
7.0
 50
90.0
  0
INSERT
  5
19F9
330
1975
100
AcDbEntity
  8
SUNPOU
 62
     4
370
    -2
100
AcDbBlockReference
  2
_OPEN
 10
483.9659890260018
 20
242.238464721229
 30
0.0
 41
7.0
 42
7.0
 43
7.0
 50
270.0
  0
MTEXT
  5
19FA
330
1975
100
AcDbEntity
  8
SUNPOU
 62
     4
100
AcDbMText
 10
478.9659890260018
 20
253.2384647212292
 30
0.0
 40
6.0
 41
0.0
 71
     5
 72
     1
  1
\A1;22
 11
6.123031769111886E-17
 21
1.0
 31
0.0
 73
     1
 44
1.0
  0
POINT
  5
19FB
330
1975
100
AcDbEntity
  8
DEFPOINTS
 62
     0
100
AcDbPoint
 10
527.9973174100242
 20
264.2384647212291
 30
0.0
  0
POINT
  5
19FC
330
1975
100
AcDbEntity
  8
DEFPOINTS
 62
     0
100
AcDbPoint
 10
512.422617410024
 20
242.238464721229
 30
0.0
  0
POINT
  5
19FD
330
1975
100
AcDbEntity
  8
DEFPOINTS
 62
     0
100
AcDbPoint
 10
483.9659890260018
 20
242.238464721229
 30
0.0
  0
ENDBLK
  5
1980
330
1975
100
AcDbEntity
  8
0
100
AcDbBlockEnd
  0
ENDSEC
  0
SECTION
  2
ENTITIES
  0
LWPOLYLINE
  5
1609
330
1A
100
AcDbEntity
  8
ZUWAKU
100
AcDbPolyline
 90
        4
 70
     1
 43
0.0
 10
0.799999566643919
 20
550.8000006402971
 10
0.799999566643919
 20
0.8000006402971849
 10
796.7999995666438
 20
0.8000006402971849
 10
796.7999995666438
 20
550.8000006402971
  0
LWPOLYLINE
  5
160A
330
1A
100
AcDbEntity
  8
ZUWAKU
100
AcDbPolyline
 90
        4
 70
     1
 43
0.0
 10
0.3999995666439418
 20
551.2000006402971
 10
0.3999995666439418
 20
0.4000006402972076
 10
797.199999566644
 20
0.4000006402971845
 10
797.199999566644
 20
551.2000006402971
  0
LWPOLYLINE
  5
160B
330
1A
100
AcDbEntity
  8
ZUWAKU
100
AcDbPolyline
 90
        4
 70
     1
 43
0.0
 10
-0.0000004333560355
 20
551.6000006402971
 10
-0.0000004333560355
 20
0.0000006402971167
 10
797.599999566644
 20
0.0000006402971842
 10
797.599999566644
 20
551.6000006402973
  0
LWPOLYLINE
  5
160C
330
1A
100
AcDbEntity
  8
ZUWAKU
100
AcDbPolyline
 90
        4
 70
     1
 43
0.0
 10
0.5999995666438736
 20
551.0000006402972
 10
0.5999995666438736
 20
0.6000006402971395
 10
796.9999995666442
 20
0.6000006402971857
 10
796.999999566644
 20
551.0000006402972
  0
LWPOLYLINE
  5
160D
330
1A
100
AcDbEntity
  8
ZUWAKU
100
AcDbPolyline
 90
        4
 70
     1
 43
0.0
 10
0.1999995666438963
 20
551.4000006402971
 10
0.1999995666438963
 20
0.2000006402971622
 10
797.3999995666438
 20
0.2000006402971852
 10
797.3999995666441
 20
551.4000006402971
  0
LINE
  5
160E
330
1A
100
AcDbEntity
  8
ZUWAKU
100
AcDbLine
 10
-0.0000004333560355
 20
30.00000064029711
 30
0.0
 11
797.3999995666438
 21
30.00000064029711
 31
0.0
  0
LINE
  5
160F
330
1A
100
AcDbEntity
  8
ZUWAKU
100
AcDbLine
 10
-0.0000004333560355
 20
30.20000064029711
 30
0.0
 11
797.3999995666438
 21
30.20000064029711
 31
0.0
  0
LINE
  5
1610
330
1A
100
AcDbEntity
  8
ZUWAKU
100
AcDbLine
 10
-0.0000004333560355
 20
30.40000064029713
 30
0.0
 11
797.3999995666438
 21
30.40000064029713
 31
0.0
  0
LINE
  5
1611
330
1A
100
AcDbEntity
  8
ZUWAKU
100
AcDbLine
 10
-0.0000004333560355
 20
30.60000064029713
 30
0.0
 11
797.3999995666438
 21
30.60000064029713
 31
0.0
  0
LINE
  5
1612
330
1A
100
AcDbEntity
  8
ZUWAKU
100
AcDbLine
 10
-0.0000004333560355
 20
30.80000064029713
 30
0.0
 11
797.3999995666438
 21
30.80000064029713
 31
0.0
  0
LINE
  5
1613
330
1A
100
AcDbEntity
  8
ZUWAKU
100
AcDbLine
 10
208.646600856712
 20
15.40000064029714
 30
0.0
 11
447.4243635376353
 21
15.40000064029714
 31
0.0
  0
LINE
  5
1614
330
1A
100
AcDbEntity
  8
ZUWAKU
100
AcDbLine
 10
208.646600856712
 20
15.60000064029715
 30
0.0
 11
447.4243635376353
 21
15.60000064029715
 31
0.0
  0
LINE
  5
1615
330
1A
100
AcDbEntity
  8
ZUWAKU
100
AcDbLine
 10
208.646600856712
 20
15.20000064029715
 30
0.0
 11
447.4243635376353
 21
15.20000064029714
 31
0.0
  0
TEXT
  5
1616
330
1A
100
AcDbEntity
  8
MOJI
100
AcDbText
 10
90.75324551577
 20
12.83491815671096
 30
0.0
 40
5.8
  1
アーバントップΣ９０
 41
0.9
  7
ｽﾀｲﾙ1
100
AcDbText
  0
CIRCLE
  5
1617
330
1A
100
AcDbEntity
  8
ZUWAKU
100
AcDbCircle
 10
25.99221172142506
 20
15.20000064029711
 30
0.0
 40
1.75
  0
LINE
  5
1618
330
1A
100
AcDbEntity
  8
ZUWAKU
100
AcDbLine
 10
26.86721172142507
 20
7.150000640297122
 30
0.0
 11
24.94221172142511
 21
7.150000640297122
 31
0.0
  0
LINE
  5
1619
330
1A
100
AcDbEntity
  8
ZUWAKU
100
AcDbLine
 10
24.94221172142511
 20
9.950000640297118
 30
0.0
 11
26.86721172142507
 21
9.950000640297118
 31
0.0
  0
LINE
  5
161A
330
1A
100
AcDbEntity
  8
ZUWAKU
100
AcDbLine
 10
26.86721172142507
 20
20.45000064029711
 30
0.0
 11
24.94221172142511
 21
20.45000064029711
 31
0.0
  0
LINE
  5
161B
330
1A
100
AcDbEntity
  8
ZUWAKU
100
AcDbLine
 10
24.94221172142511
 20
23.25000064029707
 30
0.0
 11
26.86721172142507
 21
23.25000064029711
 31
0.0
  0
HATCH
  5
161C
330
1A
100
AcDbEntity
  8
ZUWAKU
100
AcDbHatch
 10
0.0
 20
0.0
 30
0.0
210
0.0
220
0.0
230
1.0
  2
ANSI37
 70
     0
 71
     0
 91
        8
 92
        7
 72
     1
 73
     1
 93
       24
 10
14.50226222776382
 20
17.6448491212807
 42
-0.1989123673796348
 10
14.09221172142509
 20
18.63479861494174
 42
0.0
 10
14.09221172142509
 20
19.92500064029712
 42
-0.4142135623730912
 10
14.61721172142506
 20
20.45000064029711
 42
0.0
 10
17.59221172142496
 20
20.45000064029711
 42
0.4142135623731546
 10
18.11721172142507
 20
20.97500064029711
 42
0.0
 10
18.11721172142507
 20
22.72500064029713
 42
0.4142135623731586
 10
17.59221172142496
 20
23.25000064029711
 42
0.0
 10
14.09221172142509
 20
23.25000064029711
 42
0.4142135623730928
 10
11.29221172142513
 20
20.45000064029714
 42
0.0
 10
11.29221172142513
 20
18.63479861494188
 42
0.1989123673796619
 10
12.52236324044156
 20
15.66495013395826
 42
0.0
 10
15.43216121508623
 20
12.75515215931361
 42
-0.1989123673796613
 10
15.84221172142509
 20
11.76520266565242
 42
0.0
 10
15.84221172142509
 20
10.4750006402971
 42
-0.4142135623730911
 10
15.31721172142511
 20
9.950000640297118
 42
0.0
 10
12.3422117214252
 20
9.950000640297118
 42
0.4142135623731526
 10
11.81721172142511
 20
9.42500064029713
 42
0.0
 10
11.81721172142511
 20
7.675000640297109
 42
0.4142135623731526
 10
12.3422117214252
 20
7.150000640297122
 42
0.0
 10
15.84221172142509
 20
7.150000640297122
 42
0.4142135623731044
 10
18.64221172142516
 20
9.950000640297098
 42
0.0
 10
18.64221172142516
 20
11.76520266565236
 42
0.1989123673796604
 10
17.4120602024086
 20
14.73505114663591
 42
0.0
 97
        0
 92
        7
 72
     1
 73
     1
 93
       16
 10
23.54221172142513
 20
19.05000064029712
 42
-0.4142135623730935
 10
24.94221172142511
 20
20.45000064029711
 42
0.0
 10
26.86721172142507
 20
20.45000064029711
 42
0.4142135623731546
 10
27.39221172142516
 20
20.97500064029711
 42
0.0
 10
27.39221172142516
 20
22.72500064029713
 42
0.4142135623730951
 10
26.86721172142518
 20
23.25000064029711
 42
0.0
 10
24.942211721425
 20
23.25000064029707
 42
0.4142135623730892
 10
20.74221172142505
 20
19.05000064029706
 42
0.0
 10
20.74221172142505
 20
11.35000064029715
 42
0.4142135623730969
 10
24.94221172142511
 20
7.150000640297122
 42
0.0
 10
26.86721172142507
 20
7.150000640297122
 42
0.4142135623731526
 10
27.39221172142516
 20
7.675000640297109
 42
0.0
 10
27.39221172142516
 20
9.42500064029713
 42
0.4142135623730891
 10
26.86721172142518
 20
9.950000640297118
 42
0.0
 10
24.94221172142511
 20
9.950000640297118
 42
-0.4142135623730928
 10
23.54221172142513
 20
11.3500006402971
 42
0.0
 97
        0
 92
        7
 72
     1
 73
     1
 93
        2
 10
24.24221172142507
 20
15.20000064029711
 42
1.0
 10
27.74221172142507
 20
15.20000064029711
 42
1.0
 97
        0
 92
        7
 72
     1
 73
     1
 93
       26
 10
37.31485820360308
 20
19.20504783386054
 42
0.0
 10
38.3764978367409
 20
22.56690667213013
 42
0.5069206636600134
 10
37.87586693754554
 20
23.25000064029711
 42
0.0
 10
36.1769775579363
 20
23.25000064029711
 42
0.3272098845218764
 10
35.67634665874095
 20
22.88309460846408
 42
0.0
 10
33.80807678410916
 20
16.96690667213019
 42
-0.3272098845219541
 10
33.3074458849137
 20
16.60000064029712
 42
0.0
 10
33.16721172142525
 20
16.60000064029712
 42
-0.4142135623731526
 10
32.64221172142516
 20
17.1250006402971
 42
0.0
 10
32.64221172142516
 20
22.72500064029713
 42
0.4142135623730951
 10
32.11721172142518
 20
23.25000064029711
 42
0.0
 10
30.36721172142506
 20
23.25000064029711
 42
0.4142135623730871
 10
29.84221172142509
 20
22.72500064029713
 42
0.0
 10
29.84221172142509
 20
7.675000640297109
 42
0.4142135623730891
 10
30.36721172142506
 20
7.150000640297122
 42
0.0
 10
32.11721172142507
 20
7.150000640297122
 42
0.4142135623731526
 10
32.64221172142516
 20
7.675000640297109
 42
0.0
 10
32.64221172142516
 20
13.27500064029712
 42
-0.4142135623731526
 10
33.16721172142525
 20
13.80000064029711
 42
0.0
 10
33.30744588491382
 20
13.80000064029711
 42
-0.3272098845218915
 10
33.80807678410916
 20
13.43309460846404
 42
0.0
 10
35.67634665874095
 20
7.516906672130193
 42
0.3272098845218902
 10
36.1769775579363
 20
7.150000640297122
 42
0.0
 10
37.87586693754554
 20
7.150000640297122
 42
0.5069206636600335
 10
38.3764978367409
 20
7.83309460846413
 42
0.0
 10
36.05010645826724
 20
15.20000064029726
 42
0.0
 97
        0
 92
        7
 72
     1
 73
     1
 93
        8
 10
43.49221172142505
 20
22.72500064029713
 42
0.4142135623731546
 10
42.96721172142497
 20
23.25000064029711
 42
0.0
 10
41.21721172142521
 20
23.25000064029711
 42
0.4142135623731507
 10
40.6922117214251
 20
22.72500064029713
 42
0.0
 10
40.6922117214251
 20
7.675000640297109
 42
0.4142135623731526
 10
41.21721172142521
 20
7.150000640297122
 42
0.0
 10
42.96721172142497
 20
7.150000640297122
 42
0.4142135623731526
 10
43.49221172142505
 20
7.675000640297109
 42
0.0
 97
        0
 92
        7
 72
     1
 73
     1
 93
       24
 10
48.39221172142515
 20
19.92500064029712
 42
-0.4142135623731546
 10
48.91721172142525
 20
20.45000064029711
 42
0.0
 10
51.89221172142516
 20
20.45000064029711
 42
0.4142135623730911
 10
52.41721172142513
 20
20.97500064029711
 42
0.0
 10
52.41721172142513
 20
22.72500064029713
 42
0.4142135623730952
 10
51.89221172142516
 20
23.25000064029711
 42
0.0
 10
48.39221172142515
 20
23.25000064029711
 42
0.4142135623731048
 10
45.59221172142509
 20
20.45000064029714
 42
0.0
 10
45.59221172142509
 20
18.63479861494188
 42
0.1989123673796613
 10
46.82236324044163
 20
15.66495013395833
 42
0.0
 10
49.7321612150863
 20
12.75515215931366
 42
-0.1989123673796402
 10
50.14221172142516
 20
11.76520266565258
 42
0.0
 10
50.14221172142516
 20
10.4750006402971
 42
-0.4142135623730911
 10
49.61721172142518
 20
9.950000640297118
 42
0.0
 10
46.64221172142516
 20
9.950000640297118
 42
0.4142135623731526
 10
46.11721172142507
 20
9.42500064029713
 42
0.0
 10
46.11721172142507
 20
7.675000640297109
 42
0.4142135623730891
 10
46.64221172142504
 20
7.150000640297122
 42
0.0
 10
50.14221172142516
 20
7.150000640297122
 42
0.4142135623730925
 10
52.9422117214251
 20
9.950000640297098
 42
0.0
 10
52.9422117214251
 20
11.76520266565236
 42
0.1989123673796675
 10
51.71206020240857
 20
14.73505114663603
 42
0.0
 10
48.80226222776399
 20
17.64484912128054
 42
-0.1989123673796652
 10
48.39221172142515
 20
18.6347986149417
 42
0.0
 97
        0
 92
        7
 72
     1
 73
     1
 93
       16
 10
57.84221172142509
 20
22.7250006402971
 42
0.414213562373103
 10
57.3172117214251
 20
23.25000064029711
 42
0.0
 10
55.5672117214251
 20
23.25000064029711
 42
0.4142135623730871
 10
55.04221172142513
 20
22.72500064029713
 42
0.0
 10
55.04221172142513
 20
9.950000640297098
 42
0.4142135623730926
 10
57.84221172142509
 20
7.150000640297122
 42
0.0
 10
61.34221172142509
 20
7.150000640297122
 42
0.4142135623731044
 10
64.14221172142516
 20
9.950000640297098
 42
0.0
 10
64.14221172142516
 20
22.72500064029713
 42
0.4142135623730951
 10
63.61721172142518
 20
23.25000064029711
 42
0.0
 10
61.86721172142507
 20
23.25000064029711
 42
0.4142135623730871
 10
61.34221172142509
 20
22.72500064029713
 42
0.0
 10
61.34221172142509
 20
11.00000064029709
 42
-0.4142135623730879
 10
60.29221172142513
 20
9.950000640297118
 42
0.0
 10
58.89221172142516
 20
9.950000640297118
 42
-0.4142135623731197
 10
57.84221172142509
 20
11.00000064029709
 42
0.0
 97
        0
 92
        7
 72
     1
 73
     1
 93
        8
 10
69.04221172142513
 20
22.72500064029713
 42
0.4142135623730871
 10
68.51721172142516
 20
23.25000064029711
 42
0.0
 10
66.76721172142516
 20
23.25000064029711
 42
0.4142135623731507
 10
66.24221172142507
 20
22.72500064029713
 42
0.0
 10
66.24221172142507
 20
7.675000640297109
 42
0.4142135623730891
 10
66.76721172142504
 20
7.150000640297122
 42
0.0
 10
68.51721172142516
 20
7.150000640297122
 42
0.4142135623730891
 10
69.04221172142513
 20
7.675000640297109
 42
0.0
 97
        0
 75
     0
 76
     1
 52
0.0
 41
0.2
 77
     0
 78
     2
 53
45.0
 43
-900.9423047680351
 44
-13.19999935970281
 45
-0.4490128060534576
 46
0.4490128060534577
 79
     0
 53
135.0
 43
-900.9423047680351
 44
-13.19999935970281
 45
-0.4490128060534577
 46
-0.4490128060534576
 79
     0
 47
0.057451373970553
 98
        8
 10
16.07985452966727
 20
15.16717428618266
 10
22.40451457308314
 20
18.84406282274813
 10
25.16436745230362
 20
15.51188228636783
 10
30.9140595482811
 20
16.20129828673861
 10
41.83847158560069
 20
16.66091055428024
 10
46.89820046177351
 20
19.41857695670432
 10
56.55768553904431
 20
18.72915855539213
 10
67.8270791862667
 20
19.18877082293374
  0
ARC
  5
161D
330
1A
100
AcDbEntity
  8
ZUWAKU
100
AcDbCircle
 10
15.49221172142507
 20
18.63479861494181
 30
0.0
 40
4.199999999999998
100
AcDbArc
 50
180.0
 51
225.0
  0
LINE
  5
161E
330
1A
100
AcDbEntity
  8
ZUWAKU
100
AcDbLine
 10
20.74221172142505
 20
11.35000064029712
 30
0.0
 11
20.74221172142505
 21
19.05000064029708
 31
0.0
  0
LINE
  5
161F
330
1A
100
AcDbEntity
  8
ZUWAKU
100
AcDbLine
 10
23.54221172142513
 20
19.05000064029711
 30
0.0
 11
23.54221172142513
 21
11.35000064029712
 31
0.0
  0
ARC
  5
1620
330
1A
100
AcDbEntity
  8
ZUWAKU
100
AcDbCircle
 10
15.49221172142507
 20
18.63479861494181
 30
0.0
 40
1.399999999999999
100
AcDbArc
 50
180.0000000000016
 51
224.9999999999988
  0
ARC
  5
1621
330
1A
100
AcDbEntity
  8
ZUWAKU
100
AcDbCircle
 10
24.94221172142511
 20
11.35000064029712
 30
0.0
 40
4.199999999999998
100
AcDbArc
 50
180.0
 51
270.0
  0
ARC
  5
1622
330
1A
100
AcDbEntity
  8
ZUWAKU
100
AcDbCircle
 10
15.84221172142509
 20
9.950000640297118
 30
0.0
 40
2.799999999999999
100
AcDbArc
 50
270.0
 51
0.0
  0
ARC
  5
1623
330
1A
100
AcDbEntity
  8
ZUWAKU
100
AcDbCircle
 10
14.44221172142511
 20
11.76520266565242
 30
0.0
 40
4.199999999999998
100
AcDbArc
 50
0.0
 51
45.0
  0
LINE
  5
1624
330
1A
100
AcDbEntity
  8
ZUWAKU
100
AcDbLine
 10
12.52236324044156
 20
15.66495013395829
 30
0.0
 11
15.43216121508623
 21
12.75515215931364
 31
0.0
  0
LINE
  5
1625
330
1A
100
AcDbEntity
  8
ZUWAKU
100
AcDbLine
 10
12.34221172142509
 20
9.950000640297118
 30
0.0
 11
15.31721172142511
 21
9.950000640297118
 31
0.0
  0
LINE
  5
1626
330
1A
100
AcDbEntity
  8
ZUWAKU
100
AcDbLine
 10
12.34221172142509
 20
7.150000640297122
 30
0.0
 11
15.84221172142509
 21
7.150000640297122
 31
0.0
  0
ARC
  5
1627
330
1A
100
AcDbEntity
  8
ZUWAKU
100
AcDbCircle
 10
12.34221172142509
 20
9.425000640297119
 30
0.0
 40
0.525
100
AcDbArc
 50
90.0
 51
180.0
  0
ARC
  5
1628
330
1A
100
AcDbEntity
  8
ZUWAKU
100
AcDbCircle
 10
12.34221172142509
 20
7.67500064029712
 30
0.0
 40
0.525
100
AcDbArc
 50
180.0
 51
270.0
  0
LINE
  5
1629
330
1A
100
AcDbEntity
  8
ZUWAKU
100
AcDbLine
 10
11.81721172142511
 20
7.67500064029712
 30
0.0
 11
11.81721172142511
 21
9.425000640297119
 31
0.0
  0
ARC
  5
162A
330
1A
100
AcDbEntity
  8
ZUWAKU
100
AcDbCircle
 10
14.44221172142511
 20
11.76520266565246
 30
0.0
 40
1.399999999999999
100
AcDbArc
 50
0.0
 51
45.0
  0
ARC
  5
162B
330
1A
100
AcDbEntity
  8
ZUWAKU
100
AcDbCircle
 10
15.31721172142511
 20
10.47500064029712
 30
0.0
 40
0.525
100
AcDbArc
 50
270.0
 51
0.0
  0
LINE
  5
162C
330
1A
100
AcDbEntity
  8
ZUWAKU
100
AcDbLine
 10
15.84221172142509
 20
10.47500064029712
 30
0.0
 11
15.84221172142509
 21
11.76520266565246
 31
0.0
  0
LINE
  5
162D
330
1A
100
AcDbEntity
  8
ZUWAKU
100
AcDbLine
 10
17.4120602024086
 20
14.73505114663594
 30
0.0
 11
14.50226222776393
 21
17.64484912128062
 31
0.0
  0
ARC
  5
162E
330
1A
100
AcDbEntity
  8
ZUWAKU
100
AcDbCircle
 10
24.94221172142511
 20
11.35000064029712
 30
0.0
 40
1.399999999999999
100
AcDbArc
 50
180.0
 51
270.0
  0
LINE
  5
162F
330
1A
100
AcDbEntity
  8
ZUWAKU
100
AcDbLine
 10
18.64221172142516
 20
9.950000640297118
 30
0.0
 11
18.64221172142516
 21
11.76520266565246
 31
0.0
  0
ARC
  5
1630
330
1A
100
AcDbEntity
  8
ZUWAKU
100
AcDbCircle
 10
17.59221172142509
 20
20.97500064029712
 30
0.0
 40
0.525
100
AcDbArc
 50
270.0
 51
0.0
  0
ARC
  5
1631
330
1A
100
AcDbEntity
  8
ZUWAKU
100
AcDbCircle
 10
17.59221172142509
 20
22.72500064029712
 30
0.0
 40
0.525
100
AcDbArc
 50
0.0
 51
90.0
  0
ARC
  5
1632
330
1A
100
AcDbEntity
  8
ZUWAKU
100
AcDbCircle
 10
14.09221172142509
 20
20.45000064029711
 30
0.0
 40
2.799999999999999
100
AcDbArc
 50
90.0
 51
180.0
  0
LINE
  5
1633
330
1A
100
AcDbEntity
  8
ZUWAKU
100
AcDbLine
 10
11.29221172142513
 20
20.45000064029711
 30
0.0
 11
11.29221172142513
 21
18.63479861494178
 31
0.0
  0
LINE
  5
1634
330
1A
100
AcDbEntity
  8
ZUWAKU
100
AcDbLine
 10
17.59221172142509
 20
20.45000064029711
 30
0.0
 11
14.61721172142506
 21
20.45000064029711
 31
0.0
  0
LINE
  5
1635
330
1A
100
AcDbEntity
  8
ZUWAKU
100
AcDbLine
 10
14.09221172142509
 20
19.92500064029711
 30
0.0
 11
14.09221172142509
 21
18.63479861494178
 31
0.0
  0
ARC
  5
1636
330
1A
100
AcDbEntity
  8
ZUWAKU
100
AcDbCircle
 10
14.61721172142506
 20
19.92500064029711
 30
0.0
 40
0.525
100
AcDbArc
 50
90.0
 51
180.0
  0
LINE
  5
1637
330
1A
100
AcDbEntity
  8
ZUWAKU
100
AcDbLine
 10
14.09221172142509
 20
23.25000064029711
 30
0.0
 11
17.59221172142509
 21
23.25000064029711
 31
0.0
  0
ARC
  5
1638
330
1A
100
AcDbEntity
  8
ZUWAKU
100
AcDbCircle
 10
24.94221172142511
 20
19.05000064029708
 30
0.0
 40
4.199999999999998
100
AcDbArc
 50
90.0
 51
180.0
  0
ARC
  5
1639
330
1A
100
AcDbEntity
  8
ZUWAKU
100
AcDbCircle
 10
24.94221172142511
 20
19.05000064029711
 30
0.0
 40
1.399999999999999
100
AcDbArc
 50
90.0
 51
180.0
  0
LINE
  5
163A
330
1A
100
AcDbEntity
  8
ZUWAKU
100
AcDbLine
 10
18.11721172142507
 20
22.72500064029712
 30
0.0
 11
18.11721172142507
 21
20.97500064029712
 31
0.0
  0
LINE
  5
163B
330
1A
100
AcDbEntity
  8
ZUWAKU
100
AcDbLine
 10
35.67634665874095
 20
22.88309460846408
 30
0.0
 11
33.80807678410916
 21
16.96690667213014
 31
0.0
  0
LINE
  5
163C
330
1A
100
AcDbEntity
  8
ZUWAKU
100
AcDbLine
 10
29.84221172142509
 20
22.72500064029712
 30
0.0
 11
29.84221172142509
 21
7.67500064029712
 31
0.0
  0
LINE
  5
163D
330
1A
100
AcDbEntity
  8
ZUWAKU
100
AcDbLine
 10
32.64221172142516
 20
17.12500064029712
 30
0.0
 11
32.64221172142516
 21
22.72500064029712
 31
0.0
  0
LINE
  5
163E
330
1A
100
AcDbEntity
  8
ZUWAKU
100
AcDbLine
 10
57.84221172142509
 20
11.00000064029711
 30
0.0
 11
57.84221172142509
 21
22.72500064029712
 31
0.0
  0
LINE
  5
163F
330
1A
100
AcDbEntity
  8
ZUWAKU
100
AcDbLine
 10
55.04221172142513
 20
22.72500064029712
 30
0.0
 11
55.04221172142513
 21
9.950000640297118
 31
0.0
  0
LINE
  5
1640
330
1A
100
AcDbEntity
  8
ZUWAKU
100
AcDbLine
 10
43.49221172142505
 20
7.67500064029712
 30
0.0
 11
43.49221172142505
 21
22.72500064029712
 31
0.0
  0
LINE
  5
1641
330
1A
100
AcDbEntity
  8
ZUWAKU
100
AcDbLine
 10
40.6922117214251
 20
22.72500064029712
 30
0.0
 11
40.6922117214251
 21
7.67500064029712
 31
0.0
  0
LINE
  5
1642
330
1A
100
AcDbEntity
  8
ZUWAKU
100
AcDbLine
 10
37.31485820360308
 20
19.20504783386054
 30
0.0
 11
36.05010645826724
 21
15.20000064029713
 31
0.0
  0
ARC
  5
1643
330
1A
100
AcDbEntity
  8
ZUWAKU
100
AcDbCircle
 10
49.79221172142513
 20
18.63479861494181
 30
0.0
 40
4.199999999999998
100
AcDbArc
 50
180.0
 51
225.0
  0
ARC
  5
1644
330
1A
100
AcDbEntity
  8
ZUWAKU
100
AcDbCircle
 10
49.79221172142513
 20
18.63479861494181
 30
0.0
 40
1.399999999999999
100
AcDbArc
 50
180.0000000000016
 51
224.9999999999988
  0
LINE
  5
1645
330
1A
100
AcDbEntity
  8
ZUWAKU
100
AcDbLine
 10
66.24221172142507
 20
22.72500064029712
 30
0.0
 11
66.24221172142507
 21
7.67500064029712
 31
0.0
  0
LINE
  5
1646
330
1A
100
AcDbEntity
  8
ZUWAKU
100
AcDbLine
 10
69.04221172142513
 20
7.67500064029712
 30
0.0
 11
69.04221172142513
 21
22.72500064029712
 31
0.0
  0
LINE
  5
1647
330
1A
100
AcDbEntity
  8
ZUWAKU
100
AcDbLine
 10
61.34221172142509
 20
22.72500064029712
 30
0.0
 11
61.34221172142509
 21
11.00000064029711
 31
0.0
  0
LINE
  5
1648
330
1A
100
AcDbEntity
  8
ZUWAKU
100
AcDbLine
 10
64.14221172142516
 20
9.950000640297118
 30
0.0
 11
64.14221172142516
 21
22.72500064029712
 31
0.0
  0
LINE
  5
1649
330
1A
100
AcDbEntity
  8
ZUWAKU
100
AcDbLine
 10
79.12662911463235
 20
30.00000064029711
 30
0.0
 11
79.12662911463235
 21
0.8000006402971849
 31
0.0
  0
LINE
  5
164A
330
1A
100
AcDbEntity
  8
ZUWAKU
100
AcDbLine
 10
79.52662911463222
 20
30.00000064029711
 30
0.0
 11
79.52662911463243
 21
0.8000006402971849
 31
0.0
  0
LINE
  5
164B
330
1A
100
AcDbEntity
  8
ZUWAKU
100
AcDbLine
 10
79.32662911463217
 20
30.00000064029711
 30
0.0
 11
79.3266291146324
 21
0.8000006402971849
 31
0.0
  0
LINE
  5
164C
330
1A
100
AcDbEntity
  8
ZUWAKU
100
AcDbLine
 10
57.84221172142509
 20
7.150000640297122
 30
0.0
 11
61.34221172142509
 21
7.150000640297122
 31
0.0
  0
LINE
  5
164D
330
1A
100
AcDbEntity
  8
ZUWAKU
100
AcDbLine
 10
60.29221172142513
 20
9.950000640297118
 30
0.0
 11
58.89221172142516
 21
9.950000640297118
 31
0.0
  0
LINE
  5
164E
330
1A
100
AcDbEntity
  8
ZUWAKU
100
AcDbLine
 10
41.21721172142509
 20
7.150000640297122
 30
0.0
 11
42.96721172142509
 21
7.150000640297122
 31
0.0
  0
LINE
  5
164F
330
1A
100
AcDbEntity
  8
ZUWAKU
100
AcDbLine
 10
35.67634665874095
 20
7.516906672130147
 30
0.0
 11
33.80807678410916
 21
13.43309460846409
 31
0.0
  0
ARC
  5
1650
330
1A
100
AcDbEntity
  8
ZUWAKU
100
AcDbCircle
 10
33.16721172142513
 20
13.27500064029711
 30
0.0
 40
0.525
100
AcDbArc
 50
90.0
 51
180.0
  0
ARC
  5
1651
330
1A
100
AcDbEntity
  8
ZUWAKU
100
AcDbCircle
 10
33.30744588491382
 20
13.27500064029711
 30
0.0
 40
0.525
100
AcDbArc
 50
17.52556837372303
 51
90.0
  0
ARC
  5
1652
330
1A
100
AcDbEntity
  8
ZUWAKU
100
AcDbCircle
 10
30.36721172142506
 20
7.67500064029712
 30
0.0
 40
0.525
100
AcDbArc
 50
180.0
 51
270.0
  0
ARC
  5
1653
330
1A
100
AcDbEntity
  8
ZUWAKU
100
AcDbCircle
 10
26.86721172142507
 20
9.425000640297119
 30
0.0
 40
0.525
100
AcDbArc
 50
0.0
 51
90.0
  0
ARC
  5
1654
330
1A
100
AcDbEntity
  8
ZUWAKU
100
AcDbCircle
 10
26.86721172142507
 20
7.67500064029712
 30
0.0
 40
0.525
100
AcDbArc
 50
270.0
 51
0.0
  0
LINE
  5
1655
330
1A
100
AcDbEntity
  8
ZUWAKU
100
AcDbLine
 10
27.39221172142516
 20
9.425000640297119
 30
0.0
 11
27.39221172142516
 21
7.67500064029712
 31
0.0
  0
LINE
  5
1656
330
1A
100
AcDbEntity
  8
ZUWAKU
100
AcDbLine
 10
32.64221172142516
 20
7.67500064029712
 30
0.0
 11
32.64221172142516
 21
13.27500064029711
 31
0.0
  0
ARC
  5
1657
330
1A
100
AcDbEntity
  8
ZUWAKU
100
AcDbCircle
 10
32.11721172142507
 20
7.67500064029712
 30
0.0
 40
0.525
100
AcDbArc
 50
270.0
 51
0.0
  0
LINE
  5
1658
330
1A
100
AcDbEntity
  8
ZUWAKU
100
AcDbLine
 10
30.36721172142506
 20
7.150000640297122
 30
0.0
 11
32.11721172142507
 21
7.150000640297122
 31
0.0
  0
ARC
  5
1659
330
1A
100
AcDbEntity
  8
ZUWAKU
100
AcDbCircle
 10
33.16721172142513
 20
17.12500064029712
 30
0.0
 40
0.525
100
AcDbArc
 50
180.0
 51
270.0
  0
LINE
  5
165A
330
1A
100
AcDbEntity
  8
ZUWAKU
100
AcDbLine
 10
33.16721172142513
 20
13.80000064029711
 30
0.0
 11
33.30744588491382
 21
13.80000064029711
 31
0.0
  0
LINE
  5
165B
330
1A
100
AcDbEntity
  8
ZUWAKU
100
AcDbLine
 10
33.30744588491382
 20
16.60000064029712
 30
0.0
 11
33.16721172142513
 21
16.60000064029712
 31
0.0
  0
ARC
  5
165C
330
1A
100
AcDbEntity
  8
ZUWAKU
100
AcDbCircle
 10
33.30744588491382
 20
17.12500064029712
 30
0.0
 40
0.525
100
AcDbArc
 50
270.0
 51
342.474431626277
  0
ARC
  5
165D
330
1A
100
AcDbEntity
  8
ZUWAKU
100
AcDbCircle
 10
36.17697755793642
 20
7.67500064029712
 30
0.0
 40
0.525
100
AcDbArc
 50
197.525568373723
 51
270.0
  0
LINE
  5
165E
330
1A
100
AcDbEntity
  8
ZUWAKU
100
AcDbLine
 10
38.3764978367409
 20
7.833094608464094
 30
0.0
 11
36.05010645826724
 21
15.20000064029713
 31
0.0
  0
ARC
  5
165F
330
1A
100
AcDbEntity
  8
ZUWAKU
100
AcDbCircle
 10
37.87586693754543
 20
7.67500064029712
 30
0.0
 40
0.525
100
AcDbArc
 50
270.0
 51
17.52556837372303
  0
LINE
  5
1660
330
1A
100
AcDbEntity
  8
ZUWAKU
100
AcDbLine
 10
36.17697755793642
 20
7.150000640297122
 30
0.0
 11
37.87586693754543
 21
7.150000640297122
 31
0.0
  0
ARC
  5
1661
330
1A
100
AcDbEntity
  8
ZUWAKU
100
AcDbCircle
 10
41.21721172142509
 20
7.67500064029712
 30
0.0
 40
0.525
100
AcDbArc
 50
180.0
 51
270.0
  0
ARC
  5
1662
330
1A
100
AcDbEntity
  8
ZUWAKU
100
AcDbCircle
 10
50.14221172142516
 20
9.950000640297118
 30
0.0
 40
2.799999999999999
100
AcDbArc
 50
270.0
 51
0.0
  0
ARC
  5
1663
330
1A
100
AcDbEntity
  8
ZUWAKU
100
AcDbCircle
 10
57.84221172142509
 20
9.950000640297118
 30
0.0
 40
2.799999999999999
100
AcDbArc
 50
180.0
 51
270.0
  0
LINE
  5
1664
330
1A
100
AcDbEntity
  8
ZUWAKU
100
AcDbLine
 10
51.71206020240867
 20
14.73505114663594
 30
0.0
 11
48.8022622277639
 21
17.64484912128062
 31
0.0
  0
LINE
  5
1665
330
1A
100
AcDbEntity
  8
ZUWAKU
100
AcDbLine
 10
46.82236324044163
 20
15.66495013395829
 30
0.0
 11
49.7321612150863
 21
12.75515215931364
 31
0.0
  0
LINE
  5
1666
330
1A
100
AcDbEntity
  8
ZUWAKU
100
AcDbLine
 10
46.64221172142516
 20
7.150000640297122
 30
0.0
 11
50.14221172142516
 21
7.150000640297122
 31
0.0
  0
LINE
  5
1667
330
1A
100
AcDbEntity
  8
ZUWAKU
100
AcDbLine
 10
46.64221172142516
 20
9.950000640297118
 30
0.0
 11
49.61721172142507
 21
9.950000640297118
 31
0.0
  0
ARC
  5
1668
330
1A
100
AcDbEntity
  8
ZUWAKU
100
AcDbCircle
 10
46.64221172142516
 20
9.425000640297119
 30
0.0
 40
0.525
100
AcDbArc
 50
90.0
 51
180.0
  0
ARC
  5
1669
330
1A
100
AcDbEntity
  8
ZUWAKU
100
AcDbCircle
 10
42.96721172142509
 20
7.67500064029712
 30
0.0
 40
0.525
100
AcDbArc
 50
270.0
 51
0.0
  0
ARC
  5
166A
330
1A
100
AcDbEntity
  8
ZUWAKU
100
AcDbCircle
 10
46.64221172142516
 20
7.67500064029712
 30
0.0
 40
0.525
100
AcDbArc
 50
180.0
 51
270.0
  0
LINE
  5
166B
330
1A
100
AcDbEntity
  8
ZUWAKU
100
AcDbLine
 10
46.11721172142507
 20
7.67500064029712
 30
0.0
 11
46.11721172142507
 21
9.425000640297119
 31
0.0
  0
ARC
  5
166C
330
1A
100
AcDbEntity
  8
ZUWAKU
100
AcDbCircle
 10
49.61721172142507
 20
10.47500064029712
 30
0.0
 40
0.525
100
AcDbArc
 50
270.0
 51
0.0
  0
ARC
  5
166D
330
1A
100
AcDbEntity
  8
ZUWAKU
100
AcDbCircle
 10
48.74221172142507
 20
11.76520266565246
 30
0.0
 40
1.399999999999999
100
AcDbArc
 50
0.0
 51
45.0
  0
LINE
  5
166E
330
1A
100
AcDbEntity
  8
ZUWAKU
100
AcDbLine
 10
50.14221172142516
 20
10.47500064029712
 30
0.0
 11
50.14221172142516
 21
11.76520266565246
 31
0.0
  0
ARC
  5
166F
330
1A
100
AcDbEntity
  8
ZUWAKU
100
AcDbCircle
 10
58.89221172142516
 20
11.00000064029711
 30
0.0
 40
1.049999999999999
100
AcDbArc
 50
180.0
 51
270.0
  0
ARC
  5
1670
330
1A
100
AcDbEntity
  8
ZUWAKU
100
AcDbCircle
 10
48.74221172142507
 20
11.76520266565242
 30
0.0
 40
4.199999999999998
100
AcDbArc
 50
0.0
 51
45.0
  0
LINE
  5
1671
330
1A
100
AcDbEntity
  8
ZUWAKU
100
AcDbLine
 10
52.9422117214251
 20
9.950000640297118
 30
0.0
 11
52.9422117214251
 21
11.76520266565246
 31
0.0
  0
ARC
  5
1672
330
1A
100
AcDbEntity
  8
ZUWAKU
100
AcDbCircle
 10
61.34221172142509
 20
9.950000640297118
 30
0.0
 40
2.799999999999999
100
AcDbArc
 50
270.0
 51
0.0
  0
LINE
  5
1673
330
1A
100
AcDbEntity
  8
ZUWAKU
100
AcDbLine
 10
66.76721172142516
 20
7.150000640297122
 30
0.0
 11
68.51721172142516
 21
7.150000640297122
 31
0.0
  0
ARC
  5
1674
330
1A
100
AcDbEntity
  8
ZUWAKU
100
AcDbCircle
 10
60.29221172142513
 20
11.00000064029711
 30
0.0
 40
1.049999999999999
100
AcDbArc
 50
270.0
 51
0.0
  0
ARC
  5
1675
330
1A
100
AcDbEntity
  8
ZUWAKU
100
AcDbCircle
 10
66.76721172142516
 20
7.67500064029712
 30
0.0
 40
0.525
100
AcDbArc
 50
180.0
 51
270.0
  0
ARC
  5
1676
330
1A
100
AcDbEntity
  8
ZUWAKU
100
AcDbCircle
 10
68.51721172142516
 20
7.67500064029712
 30
0.0
 40
0.525
100
AcDbArc
 50
270.0
 51
0.0
  0
LINE
  5
1677
330
1A
100
AcDbEntity
  8
ZUWAKU
100
AcDbLine
 10
42.96721172142509
 20
23.25000064029711
 30
0.0
 11
41.21721172142509
 21
23.25000064029711
 31
0.0
  0
LINE
  5
1678
330
1A
100
AcDbEntity
  8
ZUWAKU
100
AcDbLine
 10
27.39221172142516
 20
22.72500064029712
 30
0.0
 11
27.39221172142516
 21
20.97500064029712
 31
0.0
  0
ARC
  5
1679
330
1A
100
AcDbEntity
  8
ZUWAKU
100
AcDbCircle
 10
26.86721172142507
 20
20.97500064029712
 30
0.0
 40
0.525
100
AcDbArc
 50
270.0
 51
0.0
  0
ARC
  5
167A
330
1A
100
AcDbEntity
  8
ZUWAKU
100
AcDbCircle
 10
30.36721172142506
 20
22.72500064029712
 30
0.0
 40
0.525
100
AcDbArc
 50
90.0
 51
180.0
  0
ARC
  5
167B
330
1A
100
AcDbEntity
  8
ZUWAKU
100
AcDbCircle
 10
26.86721172142507
 20
22.72500064029712
 30
0.0
 40
0.525
100
AcDbArc
 50
0.0
 51
90.0
  0
LINE
  5
167C
330
1A
100
AcDbEntity
  8
ZUWAKU
100
AcDbLine
 10
32.11721172142507
 20
23.25000064029711
 30
0.0
 11
30.36721172142506
 21
23.25000064029711
 31
0.0
  0
ARC
  5
167D
330
1A
100
AcDbEntity
  8
ZUWAKU
100
AcDbCircle
 10
32.11721172142507
 20
22.72500064029712
 30
0.0
 40
0.525
100
AcDbArc
 50
0.0
 51
90.0
  0
ARC
  5
167E
330
1A
100
AcDbEntity
  8
ZUWAKU
100
AcDbCircle
 10
36.17697755793642
 20
22.72500064029712
 30
0.0
 40
0.525
100
AcDbArc
 50
90.0
 51
162.4744316262769
  0
LINE
  5
167F
330
1A
100
AcDbEntity
  8
ZUWAKU
100
AcDbLine
 10
38.3764978367409
 20
22.56690667213015
 30
0.0
 11
37.31485820360308
 21
19.20504783386054
 31
0.0
  0
ARC
  5
1680
330
1A
100
AcDbEntity
  8
ZUWAKU
100
AcDbCircle
 10
37.87586693754543
 20
22.72500064029712
 30
0.0
 40
0.525
100
AcDbArc
 50
342.474431626277
 51
90.0
  0
LINE
  5
1681
330
1A
100
AcDbEntity
  8
ZUWAKU
100
AcDbLine
 10
36.17697755793642
 20
23.25000064029711
 30
0.0
 11
37.87586693754543
 21
23.25000064029711
 31
0.0
  0
ARC
  5
1682
330
1A
100
AcDbEntity
  8
ZUWAKU
100
AcDbCircle
 10
41.21721172142509
 20
22.72500064029712
 30
0.0
 40
0.525
100
AcDbArc
 50
90.0
 51
180.0
  0
LINE
  5
1683
330
1A
100
AcDbEntity
  8
ZUWAKU
100
AcDbLine
 10
51.89221172142516
 20
20.45000064029711
 30
0.0
 11
48.91721172142513
 21
20.45000064029711
 31
0.0
  0
LINE
  5
1684
330
1A
100
AcDbEntity
  8
ZUWAKU
100
AcDbLine
 10
48.39221172142515
 20
23.25000064029711
 30
0.0
 11
51.89221172142516
 21
23.25000064029711
 31
0.0
  0
ARC
  5
1685
330
1A
100
AcDbEntity
  8
ZUWAKU
100
AcDbCircle
 10
48.39221172142515
 20
20.45000064029711
 30
0.0
 40
2.799999999999999
100
AcDbArc
 50
90.0
 51
180.0
  0
LINE
  5
1686
330
1A
100
AcDbEntity
  8
ZUWAKU
100
AcDbLine
 10
45.59221172142509
 20
20.45000064029711
 30
0.0
 11
45.59221172142509
 21
18.63479861494178
 31
0.0
  0
ARC
  5
1687
330
1A
100
AcDbEntity
  8
ZUWAKU
100
AcDbCircle
 10
42.96721172142509
 20
22.72500064029712
 30
0.0
 40
0.525
100
AcDbArc
 50
0.0
 51
90.0
  0
LINE
  5
1688
330
1A
100
AcDbEntity
  8
ZUWAKU
100
AcDbLine
 10
48.39221172142515
 20
19.92500064029711
 30
0.0
 11
48.39221172142515
 21
18.63479861494178
 31
0.0
  0
ARC
  5
1689
330
1A
100
AcDbEntity
  8
ZUWAKU
100
AcDbCircle
 10
48.91721172142513
 20
19.92500064029711
 30
0.0
 40
0.525
100
AcDbArc
 50
90.0
 51
180.0
  0
LINE
  5
168A
330
1A
100
AcDbEntity
  8
ZUWAKU
100
AcDbLine
 10
52.41721172142513
 20
22.72500064029712
 30
0.0
 11
52.41721172142513
 21
20.97500064029712
 31
0.0
  0
ARC
  5
168B
330
1A
100
AcDbEntity
  8
ZUWAKU
100
AcDbCircle
 10
51.89221172142516
 20
20.97500064029712
 30
0.0
 40
0.525
100
AcDbArc
 50
270.0
 51
0.0
  0
ARC
  5
168C
330
1A
100
AcDbEntity
  8
ZUWAKU
100
AcDbCircle
 10
51.89221172142516
 20
22.72500064029712
 30
0.0
 40
0.525
100
AcDbArc
 50
0.0
 51
90.0
  0
LINE
  5
168D
330
1A
100
AcDbEntity
  8
ZUWAKU
100
AcDbLine
 10
57.3172117214251
 20
23.25000064029711
 30
0.0
 11
55.5672117214251
 21
23.25000064029711
 31
0.0
  0
ARC
  5
168E
330
1A
100
AcDbEntity
  8
ZUWAKU
100
AcDbCircle
 10
55.5672117214251
 20
22.72500064029712
 30
0.0
 40
0.525
100
AcDbArc
 50
90.0
 51
180.0
  0
ARC
  5
168F
330
1A
100
AcDbEntity
  8
ZUWAKU
100
AcDbCircle
 10
57.3172117214251
 20
22.72500064029712
 30
0.0
 40
0.525
100
AcDbArc
 50
0.0
 51
90.0
  0
LINE
  5
1690
330
1A
100
AcDbEntity
  8
ZUWAKU
100
AcDbLine
 10
68.51721172142516
 20
23.25000064029711
 30
0.0
 11
66.76721172142516
 21
23.25000064029711
 31
0.0
  0
ARC
  5
1691
330
1A
100
AcDbEntity
  8
ZUWAKU
100
AcDbCircle
 10
61.86721172142507
 20
22.72500064029712
 30
0.0
 40
0.525
100
AcDbArc
 50
90.0
 51
180.0
  0
LINE
  5
1692
330
1A
100
AcDbEntity
  8
ZUWAKU
100
AcDbLine
 10
63.61721172142507
 20
23.25000064029711
 30
0.0
 11
61.86721172142507
 21
23.25000064029711
 31
0.0
  0
ARC
  5
1693
330
1A
100
AcDbEntity
  8
ZUWAKU
100
AcDbCircle
 10
63.61721172142507
 20
22.72500064029712
 30
0.0
 40
0.525
100
AcDbArc
 50
0.0
 51
90.0
  0
ARC
  5
1694
330
1A
100
AcDbEntity
  8
ZUWAKU
100
AcDbCircle
 10
66.76721172142516
 20
22.72500064029712
 30
0.0
 40
0.525
100
AcDbArc
 50
90.0
 51
180.0
  0
ARC
  5
1695
330
1A
100
AcDbEntity
  8
ZUWAKU
100
AcDbCircle
 10
68.51721172142516
 20
22.72500064029712
 30
0.0
 40
0.525
100
AcDbArc
 50
0.0
 51
90.0
  0
TEXT
  5
1696
330
1A
100
AcDbEntity
  8
MOJI
100
AcDbText
 10
239.8272022474949
 20
3.204921697704538
 30
0.0
 40
5.599999999999999
  1
Σ９０－０－１０
 41
0.9
  7
ｽﾀｲﾙ1
100
AcDbText
  0
TEXT
  5
1697
330
1A
100
AcDbEntity
  8
MOJI
100
AcDbText
 10
239.8272022474949
 20
18.0049216977045
 30
0.0
 40
5.599999999999999
  1
ブラケット正面打（吊）固定式
 41
0.9
  7
ｽﾀｲﾙ1
100
AcDbText
  0
LINE
  5
1698
330
1A
100
AcDbEntity
  8
ZUWAKU
100
AcDbLine
 10
208.4466008567117
 20
30.00000064029711
 30
0.0
 11
208.4466008567119
 21
0.8000006402971849
 31
0.0
  0
LINE
  5
1699
330
1A
100
AcDbEntity
  8
ZUWAKU
100
AcDbLine
 10
208.6466008567118
 20
30.00000064029711
 30
0.0
 11
208.646600856712
 21
0.8000006402971849
 31
0.0
  0
LINE
  5
169A
330
1A
100
AcDbEntity
  8
ZUWAKU
100
AcDbLine
 10
208.2466008567119
 20
30.00000064029711
 30
0.0
 11
208.2466008567119
 21
0.8000006402971849
 31
0.0
  0
TEXT
  5
169B
330
1A
100
AcDbEntity
  8
ZUWAKU
100
AcDbText
 10
209.7240458789215
 20
9.655357178682735
 30
0.0
 40
4.0
  1
サイズ
 41
0.9
  7
ｽﾀｲﾙ1
100
AcDbText
  0
TEXT
  5
169C
330
1A
100
AcDbEntity
  8
ZUWAKU
100
AcDbText
 10
209.7240458789213
 20
24.05535717868269
 30
0.0
 40
4.0
  1
品名
 41
0.9
  7
ｽﾀｲﾙ1
100
AcDbText
  0
TEXT
  5
169D
330
1A
100
AcDbEntity
  8
ZUWAKU
100
AcDbText
 10
654.5120755663309
 20
18.0049216977045
 30
0.0
 40
5.599999999999999
  1
　　．　．　　
 41
0.9
  7
ｽﾀｲﾙ1
100
AcDbText
  0
LINE
  5
169E
330
1A
100
AcDbEntity
  8
ZUWAKU
100
AcDbLine
 10
648.8172020768482
 20
15.60000064029715
 30
0.0
 11
697.2490101151852
 21
15.60000064029715
 31
0.0
  0
LINE
  5
169F
330
1A
100
AcDbEntity
  8
ZUWAKU
100
AcDbLine
 10
648.8172020768483
 20
15.40000064029715
 30
0.0
 11
697.2490101151852
 21
15.40000064029714
 31
0.0
  0
LINE
  5
16A0
330
1A
100
AcDbEntity
  8
ZUWAKU
100
AcDbLine
 10
648.8172020768482
 20
15.20000064029714
 30
0.0
 11
697.2490101151852
 21
15.20000064029714
 31
0.0
  0
LINE
  5
16A1
330
1A
100
AcDbEntity
  8
ZUWAKU
100
AcDbLine
 10
505.1991790647847
 20
15.60000064029715
 30
0.0
 11
552.5269553327564
 21
15.60000064029715
 31
0.0
  0
LINE
  5
16A2
330
1A
100
AcDbEntity
  8
ZUWAKU
100
AcDbLine
 10
505.1991790647847
 20
15.40000064029714
 30
0.0
 11
552.5269553327564
 21
15.40000064029714
 31
0.0
  0
LINE
  5
16A3
330
1A
100
AcDbEntity
  8
ZUWAKU
100
AcDbLine
 10
505.1991790647847
 20
15.20000064029715
 30
0.0
 11
552.5269553327564
 21
15.20000064029715
 31
0.0
  0
LINE
  5
16A4
330
1A
100
AcDbEntity
  8
ZUWAKU
100
AcDbLine
 10
504.7991790647849
 20
30.00000064029711
 30
0.0
 11
504.7991790647849
 21
0.8000006402971849
 31
0.0
  0
LINE
  5
16A5
330
1A
100
AcDbEntity
  8
ZUWAKU
100
AcDbLine
 10
505.1991790647847
 20
30.00000064029711
 30
0.0
 11
505.1991790647851
 21
0.8000006402971849
 31
0.0
  0
LINE
  5
16A6
330
1A
100
AcDbEntity
  8
ZUWAKU
100
AcDbLine
 10
504.9991790647848
 20
30.00000064029711
 30
0.0
 11
504.9991790647849
 21
0.8000006402971849
 31
0.0
  0
TEXT
  5
16A7
330
1A
100
AcDbEntity
  8
MOJI
100
AcDbText
 10
528.0409075389568
 20
18.0049216977045
 30
0.0
 40
5.599999999999999
  1
Ａ３
 41
0.9
  7
ｽﾀｲﾙ1
100
AcDbText
  0
LINE
  5
16A8
330
1A
100
AcDbEntity
  8
ZUWAKU
100
AcDbLine
 10
447.4243635376353
 20
30.00000064029711
 30
0.0
 11
447.4243635376353
 21
0.8000006402971849
 31
0.0
  0
LINE
  5
16A9
330
1A
100
AcDbEntity
  8
ZUWAKU
100
AcDbLine
 10
447.8243635376351
 20
30.00000064029711
 30
0.0
 11
447.8243635376355
 21
0.8000006402971849
 31
0.0
  0
LINE
  5
16AA
330
1A
100
AcDbEntity
  8
ZUWAKU
100
AcDbLine
 10
447.6243635376351
 20
30.00000064029711
 30
0.0
 11
447.6243635376353
 21
0.8000006402971849
 31
0.0
  0
TEXT
  5
16AB
330
1A
100
AcDbEntity
  8
MOJI
100
AcDbText
 10
463.246431557646
 20
11.9426183619571
 30
0.0
 40
5.599999999999999
  1
ＬＦ４１Ｔ
 41
0.9
  7
ｽﾀｲﾙ1
100
AcDbText
  0
TEXT
  5
16AC
330
1A
100
AcDbEntity
  8
ZUWAKU
100
AcDbText
 10
506.6766240869947
 20
9.655357178682735
 30
0.0
 40
4.0
  1
縮尺
 41
0.9
  7
ｽﾀｲﾙ1
100
AcDbText
  0
TEXT
  5
16AD
330
1A
100
AcDbEntity
  8
MOJI
100
AcDbText
 10
528.0409075389568
 20
3.204921697704538
 30
0.0
 40
5.599999999999999
  1
１/２
 41
0.9
  7
ｽﾀｲﾙ1
100
AcDbText
  0
TEXT
  5
16AE
330
1A
100
AcDbEntity
  8
ZUWAKU
100
AcDbText
 10
449.3018085598449
 20
24.05535717868269
 30
0.0
 40
4.0
  1
品番
 41
0.9
  7
ｽﾀｲﾙ1
100
AcDbText
  0
TEXT
  5
16AF
330
1A
100
AcDbEntity
  8
ZUWAKU
100
AcDbText
 10
506.6766240869944
 20
24.05535717868269
 30
0.0
 40
4.0
  1
用紙
 41
0.9
  7
ｽﾀｲﾙ1
100
AcDbText
  0
LINE
  5
16B0
330
1A
100
AcDbEntity
  8
ZUWAKU
100
AcDbLine
 10
552.5269553327564
 20
30.00000064029711
 30
0.0
 11
552.5269553327564
 21
0.8000006402971849
 31
0.0
  0
LINE
  5
16B1
330
1A
100
AcDbEntity
  8
ZUWAKU
100
AcDbLine
 10
552.9269553327563
 20
30.00000064029711
 30
0.0
 11
552.9269553327564
 21
0.8000006402971849
 31
0.0
  0
LINE
  5
16B2
330
1A
100
AcDbEntity
  8
ZUWAKU
100
AcDbLine
 10
552.7269553327564
 20
30.00000064029711
 30
0.0
 11
552.7269553327564
 21
0.8000006402971849
 31
0.0
  0
LINE
  5
16B3
330
1A
100
AcDbEntity
  8
ZUWAKU
100
AcDbLine
 10
648.4172020768485
 20
30.00000064029711
 30
0.0
 11
648.4172020768485
 21
0.8000006402971849
 31
0.0
  0
LINE
  5
16B4
330
1A
100
AcDbEntity
  8
ZUWAKU
100
AcDbLine
 10
648.8172020768483
 20
30.00000064029711
 30
0.0
 11
648.8172020768487
 21
0.8000006402971849
 31
0.0
  0
LINE
  5
16B5
330
1A
100
AcDbEntity
  8
ZUWAKU
100
AcDbLine
 10
648.6172020768481
 20
30.00000064029711
 30
0.0
 11
648.6172020768486
 21
0.8000006402971849
 31
0.0
  0
TEXT
  5
16B6
330
1A
100
AcDbEntity
  8
ZUWAKU
100
AcDbText
 10
650.2946470990579
 20
24.05535717868269
 30
0.0
 40
4.0
  1
DATE
 41
0.9
  7
ｽﾀｲﾙ1
100
AcDbText
  0
TEXT
  5
16B7
330
1A
100
AcDbEntity
  8
ZUWAKU
100
AcDbText
 10
708.5280837588877
 20
17.55383997598391
 30
0.0
 40
6.0
  1
積水化学工業株式会社
 41
0.9
  7
ｽﾀｲﾙ1
100
AcDbText
  0
LINE
  5
16B8
330
1A
100
AcDbEntity
  8
ZUWAKU
100
AcDbLine
 10
697.8490101151853
 20
30.00000064029711
 30
0.0
 11
697.8490101151853
 21
0.8000006402971849
 31
0.0
  0
LINE
  5
16B9
330
1A
100
AcDbEntity
  8
ZUWAKU
100
AcDbLine
 10
697.6490101151851
 20
30.00000064029711
 30
0.0
 11
697.6490101151853
 21
0.8000006402971849
 31
0.0
  0
LINE
  5
16BA
330
1A
100
AcDbEntity
  8
ZUWAKU
100
AcDbLine
 10
697.4490101151853
 20
30.00000064029711
 30
0.0
 11
697.4490101151853
 21
0.8000006402971849
 31
0.0
  0
LINE
  5
16BB
330
1A
100
AcDbEntity
  8
ZUWAKU
100
AcDbLine
 10
697.2490101151852
 20
30.00000064029711
 30
0.0
 11
697.2490101151852
 21
0.8000006402971849
 31
0.0
  0
TEXT
  5
16BC
330
1A
100
AcDbEntity
  8
ZUWAKU
100
AcDbText
 10
708.5280837588877
 20
6.648840954151182
 30
0.0
 40
6.0
  1
建材事業部
 41
0.9
  7
ｽﾀｲﾙ1
100
AcDbText
  0
DIMENSION
  5
182B
330
1A
100
AcDbEntity
  8
SUNPOU
 62
     4
 48
5.0
100
AcDbDimension
  2
*D1
 10
440.03370365613
 20
351.7384647212289
 30
0.0
 11
435.0337036561299
 21
384.2384647212291
 31
0.0
 70
    32
 71
     5
 42
65.00000000000011
  3
STANDARD
100
AcDbAlignedDimension
 13
385.847317410024
 23
416.738464721229
 33
0.0
 14
385.8471174100239
 24
351.7384647212289
 34
0.0
 50
90.0
100
AcDbRotatedDimension
1001
ACAD
1000
DSTYLE
1002
{
1070
   140
1040
6.0
1070
    74
1070
     0
1070
   172
1070
     1
1070
    73
1070
     0
1070
   272
1070
     2
1070
    77
1070
     3
1070
   173
1070
     1
1070
   147
1040
2.0
1070
    42
1040
6.0
1070
    44
1040
3.0
1070
    43
1040
14.0
1070
   271
1070
     0
1070
   178
1070
     4
1070
   177
1070
     4
1070
   176
1070
     4
1070
   141
1040
150.0
1070
     7
1000
_OPEN
1070
     6
1000
_OPEN
1070
    41
1040
7.0
1002
}
  0
DIMENSION
  5
182C
330
1A
100
AcDbEntity
  8
SUNPOU
 62
     4
 48
5.0
100
AcDbDimension
  2
*D2
 10
220.5702208275279
 20
198.2384647212291
 30
0.0
 11
215.5702208275279
 21
231.7385647212291
 31
0.0
 70
    32
 71
     5
 42
67.00019999999998
  3
STANDARD
100
AcDbAlignedDimension
 13
255.347217410024
 23
265.238664721229
 33
0.0
 14
381.847217410024
 24
198.238464721229
 34
0.0
 50
90.0
100
AcDbRotatedDimension
1001
ACAD
1000
DSTYLE
1002
{
1070
   140
1040
6.0
1070
    74
1070
     0
1070
   172
1070
     1
1070
    73
1070
     0
1070
   272
1070
     2
1070
    77
1070
     3
1070
   173
1070
     1
1070
   147
1040
2.0
1070
    42
1040
6.0
1070
    44
1040
3.0
1070
    43
1040
14.0
1070
   271
1070
     0
1070
   178
1070
     4
1070
   177
1070
     4
1070
   176
1070
     4
1070
   141
1040
150.0
1070
     7
1000
_OPEN
1070
     6
1000
_OPEN
1070
    41
1040
7.0
1002
}
  0
DIMENSION
  5
182D
330
1A
100
AcDbEntity
  8
SUNPOU
 62
     4
 48
5.0
100
AcDbDimension
  2
*D3
 10
385.847217410024
 20
298.9270077610065
 30
0.0
 11
319.847217410024
 21
303.9270077610065
 31
0.0
 70
    32
 71
     5
 42
132.0000000000001
  3
STANDARD
100
AcDbAlignedDimension
 13
253.847217410024
 23
263.738664721229
 33
0.0
 14
385.847217410024
 24
264.2384647212291
 34
0.0
100
AcDbRotatedDimension
1001
ACAD
1000
DSTYLE
1002
{
1070
   140
1040
6.0
1070
    74
1070
     0
1070
   172
1070
     1
1070
    73
1070
     0
1070
   272
1070
     2
1070
    77
1070
     3
1070
   173
1070
     1
1070
   147
1040
2.0
1070
    42
1040
6.0
1070
    44
1040
3.0
1070
    43
1040
14.0
1070
   271
1070
     0
1070
   178
1070
     4
1070
   177
1070
     4
1070
   176
1070
     4
1070
   141
1040
150.0
1070
     7
1000
_OPEN
1070
     6
1000
_OPEN
1070
    41
1040
7.0
1002
}
  0
LINE
  5
182E
330
1A
100
AcDbEntity
  8
SEIHIN
  6
Continuous
 62
     3
 48
5.0
100
AcDbLine
 10
340.492517410024
 20
237.2385647212291
 30
0.0
 11
284.250417410024
 21
237.2385647212291
 31
0.0
  0
LINE
  5
182F
330
1A
100
AcDbEntity
  8
SEIHIN
  6
Continuous
 62
     3
 48
5.0
100
AcDbLine
 10
282.075517410024
 20
228.738564721229
 30
0.0
 11
345.620817410024
 21
228.738564721229
 31
0.0
  0
LINE
  5
1830
330
1A
100
AcDbEntity
  8
SEIHIN
  6
Continuous
 62
     3
 48
5.0
100
AcDbLine
 10
281.7366174100239
 20
226.238564721229
 30
0.0
 11
347.315117410024
 21
226.2384647212291
 31
0.0
  0
LINE
  5
1831
330
1A
100
AcDbEntity
  8
SEIHIN
  6
Continuous
 62
     3
 48
5.0
100
AcDbLine
 10
283.6481174100239
 20
234.7385647212291
 30
0.0
 11
347.991117410024
 21
234.7384647212291
 31
0.0
  0
ARC
  5
1832
330
1A
100
AcDbEntity
  8
SEIHIN
  6
Continuous
 62
     3
 48
5.0
100
AcDbCircle
 10
255.347217410024
 20
263.738664721229
 30
0.0
 40
1.5
100
AcDbArc
 50
0.0
 51
180.0
  0
ARC
  5
1833
330
1A
100
AcDbEntity
  8
SEIHIN
  6
Continuous
 62
     3
 48
5.0
100
AcDbCircle
 10
262.9579301810896
 20
250.3385560642441
 30
0.0
 40
5.000008657001272
100
AcDbArc
 50
21.73665473175754
 51
90.00014634537966
  0
LINE
  5
1834
330
1A
100
AcDbEntity
  8
SEIHIN
  6
Continuous
 62
     3
 48
5.0
100
AcDbLine
 10
269.041317410024
 20
259.838564721229
 30
0.0
 11
257.847217410024
 21
259.8386647212291
 31
0.0
  0
LINE
  5
1835
330
1A
100
AcDbEntity
  8
SEIHIN
  6
Continuous
 62
     3
 48
5.0
100
AcDbLine
 10
253.847217410024
 20
261.2385647212291
 30
0.0
 11
256.847217410024
 21
261.2385647212291
 31
0.0
  0
ARC
  5
1836
330
1A
100
AcDbEntity
  8
SEIHIN
  6
Continuous
 62
     3
 48
5.0
100
AcDbCircle
 10
256.847217410024
 20
258.3386647212291
 30
0.0
 40
3.0
100
AcDbArc
 50
180.0
 51
270.0
  0
LINE
  5
1837
330
1A
100
AcDbEntity
  8
SEIHIN
  6
Continuous
 62
     3
 48
5.0
100
AcDbLine
 10
253.847217410024
 20
263.738664721229
 30
0.0
 11
253.847217410024
 21
258.3386647212291
 31
0.0
  0
ARC
  5
1838
330
1A
100
AcDbEntity
  8
SEIHIN
  6
Continuous
 62
     3
 48
5.0
100
AcDbCircle
 10
257.847217410024
 20
260.8386647212291
 30
0.0
 40
1.0
100
AcDbArc
 50
180.0
 51
270.0
  0
LINE
  5
1839
330
1A
100
AcDbEntity
  8
SEIHIN
  6
Continuous
 62
     3
 48
5.0
100
AcDbLine
 10
262.957917410024
 20
255.338564721229
 30
0.0
 11
256.847217410024
 21
255.3386647212291
 31
0.0
  0
LINE
  5
183A
330
1A
100
AcDbEntity
  8
SEIHIN
  6
Continuous
 62
     3
 48
5.0
100
AcDbLine
 10
256.847217410024
 20
263.738664721229
 30
0.0
 11
256.847217410024
 21
260.8386647212291
 31
0.0
  0
LINE
  5
183B
330
1A
100
AcDbEntity
  8
SEIHIN
  6
Continuous
 62
     3
 48
5.0
100
AcDbLine
 10
267.602417410024
 20
252.1902647212291
 30
0.0
 11
277.092017410024
 21
229.3869647212291
 31
0.0
  0
LINE
  5
183C
330
1A
100
AcDbEntity
  8
SEIHIN
  6
Continuous
 62
     3
 48
5.0
100
AcDbLine
 10
279.288817410024
 20
230.6276647212291
 30
0.0
 11
271.758517410024
 21
248.5162647212291
 31
0.0
  0
LINE
  5
183D
330
1A
100
AcDbEntity
  8
SEIHIN
  6
Continuous
 62
     3
 48
5.0
100
AcDbLine
 10
282.939417410024
 20
238.0097647212291
 30
0.0
 11
271.692417410024
 21
258.242764721229
 31
0.0
  0
LINE
  5
183E
330
1A
100
AcDbEntity
  8
SEIHIN
  6
Continuous
 62
     3
 48
5.0
100
AcDbLine
 10
280.9970174100239
 20
236.334464721229
 30
0.0
 11
273.5711174100239
 21
249.3546647212291
 31
0.0
  0
ARC
  5
183F
330
1A
100
AcDbEntity
  8
SEIHIN
  6
Continuous
 62
     3
 48
5.0
100
AcDbCircle
 10
282.0755425249952
 20
231.7385476961324
 30
0.0
 40
2.99998297500853
100
AcDbArc
 50
201.7338998242653
 51
269.9995203366618
  0
ARC
  5
1840
330
1A
100
AcDbEntity
  8
SEIHIN
  6
Continuous
 62
     3
 48
5.0
100
AcDbCircle
 10
283.6481412182484
 20
237.7385503894939
 30
0.0
 40
2.999985668359332
100
AcDbArc
 50
207.906546726284
 51
269.9995452942336
  0
ARC
  5
1841
330
1A
100
AcDbEntity
  8
SEIHIN
  6
Continuous
 62
     3
 48
5.0
100
AcDbCircle
 10
281.7366319556702
 20
231.2385548609187
 30
0.0
 40
4.999990141001728
100
AcDbArc
 50
201.735277261461
 51
269.9986874009952
  0
ARC
  5
1842
330
1A
100
AcDbEntity
  8
SEIHIN
  6
Continuous
 62
     3
 48
5.0
100
AcDbCircle
 10
284.2505211214057
 20
238.7385625378926
 30
0.0
 40
1.499997816668088
100
AcDbArc
 50
209.0648504732125
 51
269.9998582354561
  0
ARC
  5
1843
330
1A
100
AcDbEntity
  8
SEIHIN
  6
Continuous
 62
     3
 48
5.0
100
AcDbCircle
 10
272.6874324073474
 20
248.8865716580748
 30
0.0
 40
1.000005149850979
100
AcDbArc
 50
27.91042787742912
 51
201.7344304884485
  0
ARC
  5
1844
330
1A
100
AcDbEntity
  8
SEIHIN
  6
Continuous
 62
     3
 48
5.0
100
AcDbCircle
 10
269.0413324791681
 20
256.8385556504232
 30
0.0
 40
3.0000090708437
100
AcDbArc
 50
27.90897697922912
 51
90.00028779858134
  0
DIMENSION
  5
1845
330
1A
100
AcDbEntity
  8
SUNPOU
 48
5.0
100
AcDbDimension
  2
*D4
 10
422.3854749158451
 20
198.238464721229
 30
0.0
 11
417.385474915845
 21
231.2384647212291
 31
0.0
 70
    32
 71
     5
 42
66.00000000000009
  3
STANDARD
100
AcDbAlignedDimension
 13
385.847217410024
 23
264.2384647212291
 33
0.0
 14
385.8471174100239
 24
198.238464721229
 34
0.0
 50
90.0
100
AcDbRotatedDimension
1001
ACAD
1000
DSTYLE
1002
{
1070
   140
1040
6.0
1070
    74
1070
     0
1070
   172
1070
     1
1070
    73
1070
     0
1070
   272
1070
     2
1070
    77
1070
     3
1070
   173
1070
     1
1070
   147
1040
2.0
1070
    42
1040
6.0
1070
    44
1040
3.0
1070
    43
1040
14.0
1070
   271
1070
     0
1070
   178
1070
     4
1070
   177
1070
     4
1070
   176
1070
     4
1070
   141
1040
150.0
1070
     7
1000
_OPEN
1070
     6
1000
_OPEN
1070
    41
1040
7.0
1002
}
  0
LINE
  5
1846
330
1A
100
AcDbEntity
  8
SEIHIN
  6
Continuous
 62
     3
 48
5.0
100
AcDbLine
 10
381.847217410024
 20
264.2384647212291
 30
0.0
 11
381.847217410024
 21
198.238464721229
 31
0.0
  0
LINE
  5
1847
330
1A
100
AcDbEntity
  8
SEIHIN
  6
Continuous
 62
     3
 48
5.0
100
AcDbLine
 10
385.847217410024
 20
264.2384647212291
 30
0.0
 11
385.8471174100239
 21
198.238464721229
 31
0.0
  0
LINE
  5
1848
330
1A
100
AcDbEntity
  8
SEIHIN
  6
Continuous
 62
     3
 48
5.0
100
AcDbLine
 10
379.847217410024
 20
262.2384647212291
 30
0.0
 11
379.847217410024
 21
200.238464721229
 31
0.0
  0
DIMENSION
  5
1849
330
1A
100
AcDbEntity
  8
SUNPOU
 62
     4
 48
5.0
100
AcDbDimension
  2
*D5
 10
379.847217410024
 20
167.5180844829099
 30
0.0
 11
410.3471174100239
 21
172.5180844829099
 31
0.0
 70
    32
  1
t<>
 71
     5
 42
5.999899999999855
  3
STANDARD
100
AcDbAlignedDimension
 13
385.8471174100239
 23
198.238464721229
 33
0.0
 14
379.847217410024
 24
200.238464721229
 34
0.0
100
AcDbRotatedDimension
1001
ACAD
1000
DSTYLE
1002
{
1070
   140
1040
6.0
1070
    74
1070
     0
1070
   172
1070
     1
1070
    73
1070
     0
1070
   272
1070
     2
1070
    77
1070
     3
1070
   173
1070
     1
1070
   280
1070
     1
1070
   147
1040
2.0
1070
    42
1040
6.0
1070
    44
1040
3.0
1070
    43
1040
14.0
1070
   271
1070
     1
1070
   178
1070
     4
1070
   177
1070
     4
1070
   176
1070
     4
1070
   141
1040
150.0
1070
     7
1000
_OPEN
1070
     6
1000
_OPEN
1070
    41
1040
7.0
1002
}
  0
LINE
  5
184A
330
1A
100
AcDbEntity
  8
CENTER L
  6
CENTER
 62
     1
 48
5.0
100
AcDbLine
 10
392.8471325615471
 20
208.238464721229
 30
0.0
 11
372.847217410024
 21
208.238464721229
 31
0.0
  0
LINE
  5
184B
330
1A
100
AcDbEntity
  8
SEIHIN
  6
Continuous
 62
     3
 48
5.0
100
AcDbLine
 10
379.847217410024
 20
200.238464721229
 30
0.0
 11
381.847217410024
 21
198.238464721229
 31
0.0
  0
LINE
  5
184C
330
1A
100
AcDbEntity
  8
SEIHIN
  6
Continuous
 62
     3
 48
5.0
100
AcDbLine
 10
381.847217410024
 20
198.238464721229
 30
0.0
 11
385.8471174100239
 21
198.238464721229
 31
0.0
  0
DIMENSION
  5
184D
330
1A
100
AcDbEntity
  8
SUNPOU
100
AcDbDimension
  2
*D6
 10
385.847217410024
 20
284.4794097635984
 30
0.0
 11
355.9972174100241
 21
284.4794097635984
 31
0.0
 70
   160
 71
     5
 42
10.34999999999997
  3
STANDARD
100
AcDbAlignedDimension
 13
375.4972174100241
 23
247.5386647212291
 33
0.0
 14
385.847217410024
 24
264.2384647212291
 34
0.0
100
AcDbRotatedDimension
1001
ACAD
1000
DSTYLE
1002
{
1070
   288
1070
     1
1070
   140
1040
6.0
1070
    74
1070
     0
1070
   172
1070
     1
1070
    73
1070
     0
1070
   272
1070
     2
1070
    77
1070
     3
1070
   173
1070
     1
1070
   147
1040
2.0
1070
    42
1040
6.0
1070
    44
1040
3.0
1070
    43
1040
14.0
1070
   271
1070
     0
1070
   178
1070
     4
1070
   177
1070
     4
1070
   176
1070
     4
1070
   141
1040
150.0
1070
     7
1000
_OPEN
1070
     6
1000
_OPEN
1070
    41
1040
7.0
1002
}
  0
LINE
  5
184E
330
1A
100
AcDbEntity
  8
SEIHIN
  6
Continuous
 62
     3
 48
5.0
100
AcDbLine
 10
378.847217410024
 20
261.7384647212291
 30
0.0
 11
360.4811174100238
 21
261.7385647212291
 31
0.0
  0
LINE
  5
184F
330
1A
100
AcDbEntity
  8
SEIHIN
  6
Continuous
 62
     3
 48
5.0
100
AcDbLine
 10
360.196217410024
 20
264.2385647212291
 30
0.0
 11
385.847217410024
 21
264.2384647212291
 31
0.0
  0
ARC
  5
1850
330
1A
100
AcDbEntity
  8
SEIHIN
  6
Continuous
 62
     3
 48
5.0
100
AcDbCircle
 10
366.4640908002773
 20
248.2384495587749
 30
0.0
 40
5.000015162524942
100
AcDbArc
 50
89.99969507568869
 51
149.3493922354882
  0
LINE
  5
1851
330
1A
100
AcDbEntity
  8
SEIHIN
  6
Continuous
 62
     3
 48
5.0
100
AcDbLine
 10
351.143717410024
 20
228.9368647212291
 30
0.0
 11
365.1226174100239
 21
230.7581647212291
 31
0.0
  0
LINE
  5
1852
330
1A
100
AcDbEntity
  8
SEIHIN
  6
Continuous
 62
     3
 48
5.0
100
AcDbLine
 10
347.315117410024
 20
226.2384647212291
 30
0.0
 11
365.3385174100239
 21
229.476464721229
 31
0.0
  0
LINE
  5
1853
330
1A
100
AcDbEntity
  8
SEIHIN
  6
Continuous
 62
     3
 48
5.0
100
AcDbLine
 10
356.9714174100238
 20
255.7384647212291
 30
0.0
 11
378.847217410024
 21
255.7384647212291
 31
0.0
  0
ARC
  5
1854
330
1A
100
AcDbEntity
  8
SEIHIN
  6
Continuous
 62
     3
 48
5.0
100
AcDbCircle
 10
360.196266290474
 20
259.2384925733842
 30
0.0
 40
4.999972148083793
100
AcDbArc
 50
90.00056013181704
 51
149.349673100884
  0
LINE
  5
1855
330
1A
100
AcDbEntity
  8
SEIHIN
  6
Continuous
 62
     3
 48
5.0
100
AcDbLine
 10
336.492517410024
 20
237.2385647212291
 30
0.0
 11
319.8471174100239
 21
237.2385647212291
 31
0.0
  0
LINE
  5
1856
330
1A
100
AcDbEntity
  8
SEIHIN
  6
Continuous
 62
     3
 48
5.0
100
AcDbLine
 10
351.5181174100239
 20
237.7286647212291
 30
0.0
 11
359.814417410024
 21
251.7286647212291
 31
0.0
  0
LINE
  5
1857
330
1A
100
AcDbEntity
  8
SEIHIN
  6
Continuous
 62
     3
 48
5.0
100
AcDbLine
 10
350.098617410024
 20
230.429464721229
 30
0.0
 11
362.1626174100239
 21
250.7874647212291
 31
0.0
  0
LINE
  5
1858
330
1A
100
AcDbEntity
  8
SEIHIN
  6
Continuous
 62
     3
 48
5.0
100
AcDbLine
 10
343.643217410024
 20
236.209064721229
 30
0.0
 11
357.9003174100238
 21
260.267964721229
 31
0.0
  0
LINE
  5
1859
330
1A
100
AcDbEntity
  8
SEIHIN
  6
Continuous
 62
     3
 48
5.0
100
AcDbLine
 10
355.894817410024
 20
261.7874647212291
 30
0.0
 11
341.783017410024
 21
237.9737647212291
 31
0.0
  0
ARC
  5
185A
330
1A
100
AcDbEntity
  8
SEIHIN
  6
Continuous
 62
     3
 48
5.0
100
AcDbCircle
 10
345.6208227319733
 20
229.7385677537199
 30
0.0
 40
1.000003032504989
100
AcDbArc
 50
269.9996950756936
 51
329.349392235494
  0
LINE
  5
185B
330
1A
100
AcDbEntity
  8
SEIHIN
  6
Continuous
 62
     3
 48
5.0
100
AcDbLine
 10
350.6578174100239
 20
237.2384647212291
 30
0.0
 11
346.008217410024
 21
237.2385647212291
 31
0.0
  0
ARC
  5
185C
330
1A
100
AcDbEntity
  8
SEIHIN
  6
Continuous
 62
     3
 48
5.0
100
AcDbCircle
 10
346.0082401905199
 20
238.2385247396306
 30
0.0
 40
0.9999600186609667
100
AcDbArc
 50
149.345470726634
 51
269.9986947215447
  0
ARC
  5
185D
330
1A
100
AcDbEntity
  8
SEIHIN
  6
Continuous
 62
     3
 48
5.0
100
AcDbCircle
 10
341.062378113051
 20
237.7385993091635
 30
0.0
 40
3.00003458854867
100
AcDbArc
 50
269.9988406709503
 51
329.3468948266299
  0
ARC
  5
185E
330
1A
100
AcDbEntity
  8
SEIHIN
  6
Continuous
 62
     3
 48
5.0
100
AcDbCircle
 10
340.4926078772597
 20
238.738616267791
 30
0.0
 40
1.50005154928998
100
AcDbArc
 50
269.9965445248904
 51
329.3439293999738
  0
LINE
  5
185F
330
1A
100
AcDbEntity
  8
SEIHIN
  6
Continuous
 62
     3
 48
5.0
100
AcDbLine
 10
346.481117410024
 20
229.2286647212291
 30
0.0
 11
348.851417410024
 21
233.2286647212291
 31
0.0
  0
ARC
  5
1860
330
1A
100
AcDbEntity
  8
SEIHIN
  6
Continuous
 62
     3
 48
5.0
100
AcDbCircle
 10
350.9589228793701
 20
229.9196569100363
 30
0.0
 40
1.000014752361149
100
AcDbArc
 50
149.3494718948717
 51
280.6489943943149
  0
ARC
  5
1861
330
1A
100
AcDbEntity
  8
SEIHIN
  6
Continuous
 62
     3
 48
5.0
100
AcDbCircle
 10
350.6578227319733
 20
238.2384677537199
 30
0.0
 40
1.000003032504918
100
AcDbArc
 50
269.9996950756855
 51
329.3493922354846
  0
ARC
  5
1862
330
1A
100
AcDbEntity
  8
SEIHIN
  6
Continuous
 62
     3
 48
5.0
100
AcDbCircle
 10
347.9911191379624
 20
233.7384616887383
 30
0.0
 40
1.000003032492295
100
AcDbArc
 50
329.3497961630761
 51
90.00009900327532
  0
ARC
  5
1863
330
1A
100
AcDbEntity
  8
SEIHIN
  6
Continuous
 62
     3
 48
5.0
100
AcDbCircle
 10
358.9541191379624
 20
252.2384616887383
 30
0.0
 40
1.000003032492267
100
AcDbArc
 50
329.3497961630769
 51
90.00009900327696
  0
LINE
  5
1864
330
1A
100
AcDbEntity
  8
SEIHIN
  6
Continuous
 62
     3
 48
5.0
100
AcDbLine
 10
354.3048174100239
 20
253.238464721229
 30
0.0
 11
358.954117410024
 21
253.238464721229
 31
0.0
  0
ARC
  5
1865
330
1A
100
AcDbEntity
  8
SEIHIN
  6
Continuous
 62
     3
 48
5.0
100
AcDbCircle
 10
354.3048120880745
 20
252.2384616887382
 30
0.0
 40
1.00000303250496
100
AcDbArc
 50
89.99969507569033
 51
149.3493922354904
  0
ARC
  5
1866
330
1A
100
AcDbEntity
  8
SEIHIN
  6
Continuous
 62
     3
 48
5.0
100
AcDbCircle
 10
356.9714156820855
 20
256.7384677537198
 30
0.0
 40
1.000003032492218
100
AcDbArc
 50
149.3497961630724
 51
270.0000990032721
  0
ARC
  5
1867
330
1A
100
AcDbEntity
  8
SEIHIN
  6
Continuous
 62
     3
 48
5.0
100
AcDbCircle
 10
360.481176934817
 20
258.7385986382792
 30
0.0
 40
2.999966083540439
100
AcDbArc
 50
90.0011368526615
 51
149.3498603500711
  0
LINE
  5
1868
330
1A
100
AcDbEntity
  8
SEIHIN
  6
Continuous
 62
     3
 48
5.0
100
AcDbLine
 10
381.847317410024
 20
264.2384647212291
 30
0.0
 11
379.847217410024
 21
262.2384647212291
 31
0.0
  0
LINE
  5
1869
330
1A
100
AcDbEntity
  8
SEIHIN
  6
Continuous
 62
     3
 48
5.0
100
AcDbLine
 10
376.847217410024
 20
251.2384647212291
 30
0.0
 11
376.847217410024
 21
232.0183647212291
 31
0.0
  0
ARC
  5
186A
330
1A
100
AcDbEntity
  8
SEIHIN
  6
Continuous
 62
     3
 48
5.0
100
AcDbCircle
 10
379.5915994163878
 20
229.2383729230754
 30
0.0
 40
5.000008202518847
100
AcDbArc
 50
220.9925252129125
 51
269.9990602778319
  0
LINE
  5
186B
330
1A
100
AcDbEntity
  8
CENTER L
  6
CENTER
 62
     1
 48
5.0
100
AcDbLine
 10
392.8471765009411
 20
237.2384647212291
 30
0.0
 11
372.847217410024
 21
237.2384647212291
 31
0.0
  0
LINE
  5
186C
330
1A
100
AcDbEntity
  8
SEIHIN
  6
Continuous
 62
     3
 48
5.0
100
AcDbLine
 10
375.817617410024
 20
225.9585647212291
 30
0.0
 11
371.226617410024
 21
231.2413647212291
 31
0.0
  0
ARC
  5
186D
330
1A
100
AcDbEntity
  8
SEIHIN
  6
Continuous
 62
     3
 48
5.0
100
AcDbCircle
 10
372.3472034803357
 20
232.2384524850091
 30
0.0
 40
1.499965716160302
100
AcDbArc
 50
40.93151502402131
 51
221.6624103013475
  0
ARC
  5
186E
330
1A
100
AcDbEntity
  8
SEIHIN
  6
Continuous
 62
     3
 48
5.0
100
AcDbCircle
 10
365.2184184972495
 20
230.1152574288206
 30
0.0
 40
0.6500058730085726
100
AcDbArc
 50
278.4841295194091
 51
98.47541122564567
  0
ARC
  5
186F
330
1A
100
AcDbEntity
  8
SEIHIN
  6
Continuous
 62
     3
 48
5.0
100
AcDbCircle
 10
375.8472005878069
 20
232.0183584428439
 30
0.0
 40
1.000016822236803
100
AcDbArc
 50
220.9335046859204
 51
0.0003597189260888
  0
LINE
  5
1870
330
1A
100
AcDbEntity
  8
SEIHIN
  6
Continuous
 62
     3
 48
5.0
100
AcDbLine
 10
375.0917174100239
 20
231.3631647212291
 30
0.0
 11
373.480417410024
 21
233.2211647212291
 31
0.0
  0
LINE
  5
1871
330
1A
100
AcDbEntity
  8
SEIHIN
  6
Continuous
 62
     3
 48
5.0
100
AcDbLine
 10
379.847217410024
 20
224.238364721229
 30
0.0
 11
379.591617410024
 21
224.238364721229
 31
0.0
  0
ARC
  5
1872
330
1A
100
AcDbEntity
  8
SEIHIN
  6
Continuous
 62
     3
 48
5.0
100
AcDbCircle
 10
378.8472174100241
 20
256.7384647212291
 30
0.0
 40
0.9999999999999716
100
AcDbArc
 50
269.9999999999984
 51
359.9999999999984
  0
LINE
  5
1873
330
1A
100
AcDbEntity
  8
CENTER L
  6
CENTER
 62
     1
 48
5.0
100
AcDbLine
 10
392.8471840766987
 20
242.238464721229
 30
0.0
 11
372.847217410024
 21
242.238464721229
 31
0.0
  0
ARC
  5
1874
330
1A
100
AcDbEntity
  8
SEIHIN
  6
Continuous
 62
     3
 48
5.0
100
AcDbCircle
 10
378.847217410024
 20
260.7384647212291
 30
0.0
 40
1.000000000000028
100
AcDbArc
 50
359.9999999999984
 51
89.99999999999837
  0
ARC
  5
1875
330
1A
100
AcDbEntity
  8
SEIHIN
  6
Continuous
 62
     3
 48
5.0
100
AcDbCircle
 10
374.8472174100241
 20
251.2384647212291
 30
0.0
 40
1.999999999999972
100
AcDbArc
 50
0.0
 51
90.0
  0
LINE
  5
1876
330
1A
100
AcDbEntity
  8
SEIHIN
  6
Continuous
 62
     3
 48
5.0
100
AcDbLine
 10
366.464117410024
 20
253.238464721229
 30
0.0
 11
374.847217410024
 21
253.238464721229
 31
0.0
  0
LINE
  5
1877
330
1A
100
AcDbEntity
  8
SEIHIN
  6
Continuous
 62
     3
 48
5.0
100
AcDbLine
 10
283.347217410024
 20
376.7385647212291
 30
0.0
 11
379.9549395026933
 21
371.527563529555
 31
0.0
  0
LINE
  5
1878
330
1A
100
AcDbEntity
  8
SEIHIN
  6
Continuous
 62
     3
 48
5.0
100
AcDbLine
 10
283.347217410024
 20
391.7385647212291
 30
0.0
 11
379.95501719983
 21
396.9493647098917
 31
0.0
  0
LINE
  5
1879
330
1A
100
AcDbEntity
  8
CENTER L
  6
CENTER
 62
     1
 48
5.0
100
AcDbLine
 10
392.4436174100239
 20
384.238464721229
 30
0.0
 11
249.139317410024
 21
384.2385647212291
 31
0.0
  0
DIMENSION
  5
187A
330
1A
100
AcDbEntity
  8
SUNPOU
 62
     4
 48
5.0
100
AcDbDimension
  2
*D7
 10
220.5702208275279
 20
376.7386647212291
 30
0.0
 11
215.5702208275279
 21
384.2386147212292
 31
0.0
 70
    32
 71
     5
 42
14.99990000000003
  3
STANDARD
100
AcDbAlignedDimension
 13
256.847217410024
 23
391.7385647212291
 33
0.0
 14
256.847217410024
 24
376.7386647212291
 34
0.0
 50
90.0
100
AcDbRotatedDimension
1001
ACAD
1000
DSTYLE
1002
{
1070
   140
1040
6.0
1070
    74
1070
     0
1070
   172
1070
     1
1070
    73
1070
     0
1070
   272
1070
     2
1070
    77
1070
     3
1070
   173
1070
     1
1070
   147
1040
2.0
1070
    42
1040
6.0
1070
    44
1040
3.0
1070
    43
1040
14.0
1070
   271
1070
     0
1070
   178
1070
     4
1070
   177
1070
     4
1070
   176
1070
     4
1070
   141
1040
150.0
1070
     7
1000
_OPEN
1070
     6
1000
_OPEN
1070
    41
1040
7.0
1002
}
  0
LINE
  5
187B
330
1A
100
AcDbEntity
  8
SEIHIN
  6
Continuous
 62
     3
 48
5.0
100
AcDbLine
 10
256.847217410024
 20
376.7386647212291
 30
0.0
 11
283.347217410024
 21
376.7385647212291
 31
0.0
  0
LINE
  5
187C
330
1A
100
AcDbEntity
  8
SEIHIN
  6
Continuous
 62
     3
 48
5.0
100
AcDbLine
 10
256.847217410024
 20
391.7385647212291
 30
0.0
 11
283.347217410024
 21
391.7385647212291
 31
0.0
  0
LINE
  5
187D
330
1A
100
AcDbEntity
  8
SEIHIN
  6
Continuous
 62
     3
 48
5.0
100
AcDbLine
 10
256.847217410024
 20
384.2388647212291
 30
0.0
 11
256.847217410024
 21
373.2385647212291
 31
0.0
  0
LINE
  5
187E
330
1A
100
AcDbEntity
  8
SEIHIN
  6
Continuous
 62
     3
 48
5.0
100
AcDbLine
 10
253.847217410024
 20
384.2388647212291
 30
0.0
 11
253.847217410024
 21
373.2385647212291
 31
0.0
  0
LINE
  5
187F
330
1A
100
AcDbEntity
  8
SEIHIN
  6
Continuous
 62
     3
 48
5.0
100
AcDbLine
 10
253.847217410024
 20
373.2385647212291
 30
0.0
 11
256.847217410024
 21
373.2385647212291
 31
0.0
  0
LINE
  5
1880
330
1A
100
AcDbEntity
  8
SEIHIN
  6
Continuous
 62
     3
 48
5.0
100
AcDbLine
 10
256.847217410024
 20
384.238464721229
 30
0.0
 11
256.847217410024
 21
395.2385647212291
 31
0.0
  0
LINE
  5
1881
330
1A
100
AcDbEntity
  8
SEIHIN
  6
Continuous
 62
     3
 48
5.0
100
AcDbLine
 10
253.847217410024
 20
384.238464721229
 30
0.0
 11
253.847217410024
 21
395.2385647212291
 31
0.0
  0
LINE
  5
1882
330
1A
100
AcDbEntity
  8
SEIHIN
  6
Continuous
 62
     3
 48
5.0
100
AcDbLine
 10
253.847317410024
 20
395.2385647212291
 30
0.0
 11
256.847217410024
 21
395.2385647212291
 31
0.0
  0
LINE
  5
1883
330
1A
100
AcDbEntity
  8
SEIHIN
  6
Continuous
 62
     3
 48
5.0
100
AcDbLine
 10
283.347217410024
 20
384.2386647212289
 30
0.0
 11
283.347217410024
 21
376.7385647212291
 31
0.0
  0
LINE
  5
1884
330
1A
100
AcDbEntity
  8
SEIHIN
  6
Continuous
 62
     3
 48
5.0
100
AcDbLine
 10
270.847317410024
 20
384.2386647212289
 30
0.0
 11
270.847217410024
 21
376.7385647212291
 31
0.0
  0
LINE
  5
1885
330
1A
100
AcDbEntity
  8
SEIHIN
  6
Continuous
 62
     3
 48
5.0
100
AcDbLine
 10
270.847317410024
 20
384.2385647212291
 30
0.0
 11
270.847317410024
 21
391.7386647212291
 31
0.0
  0
LINE
  5
1886
330
1A
100
AcDbEntity
  8
SEIHIN
  6
Continuous
 62
     3
 48
5.0
100
AcDbLine
 10
283.347217410024
 20
384.238464721229
 30
0.0
 11
283.347217410024
 21
391.7386647212291
 31
0.0
  0
DIMENSION
  5
1887
330
1A
100
AcDbEntity
  8
SUNPOU
 62
     4
 48
5.0
100
AcDbDimension
  2
*D8
 10
422.9688082491784
 20
371.5333740376707
 30
0.0
 11
417.9688082491784
 21
384.2384648357174
 31
0.0
 70
    32
 71
     5
 42
25.41018159609331
  3
STANDARD
100
AcDbAlignedDimension
 13
379.847317410024
 23
396.9435556337641
 33
0.0
 14
379.8472174100241
 24
371.5333740376707
 34
0.0
 50
90.0
100
AcDbRotatedDimension
1001
ACAD
1000
DSTYLE
1002
{
1070
   140
1040
6.0
1070
    74
1070
     0
1070
   172
1070
     1
1070
    73
1070
     0
1070
   272
1070
     2
1070
    77
1070
     3
1070
   173
1070
     1
1070
   147
1040
2.0
1070
    42
1040
6.0
1070
    44
1040
3.0
1070
    43
1040
14.0
1070
   271
1070
     0
1070
   178
1070
     4
1070
   177
1070
     4
1070
   176
1070
     4
1070
   141
1040
150.0
1070
     7
1000
_OPEN
1070
     6
1000
_OPEN
1070
    41
1040
7.0
1002
}
  0
LINE
  5
1888
330
1A
100
AcDbEntity
  8
SEIHIN
  6
Continuous
 62
     3
 48
5.0
100
AcDbLine
 10
385.847217410024
 20
384.238464721229
 30
0.0
 11
385.847317410024
 21
416.738464721229
 31
0.0
  0
LINE
  5
1889
330
1A
100
AcDbEntity
  8
SEIHIN
  6
Continuous
 62
     3
 48
5.0
100
AcDbLine
 10
379.847317410024
 20
414.7384647212289
 30
0.0
 11
379.847317410024
 21
398.838563705425
 31
0.0
  0
LINE
  5
188A
330
1A
100
AcDbEntity
  8
SEIHIN
  6
Continuous
 62
     3
 48
5.0
100
AcDbLine
 10
381.847217410024
 20
398.9464647212291
 30
0.0
 11
381.847217410024
 21
416.738464721229
 31
0.0
  0
LINE
  5
188B
330
1A
100
AcDbEntity
  8
SEIHIN
  6
Continuous
 62
     3
 48
5.0
100
AcDbLine
 10
357.347217410024
 20
372.7470647212289
 30
0.0
 11
357.347317410024
 21
395.7299647212291
 31
0.0
  0
LINE
  5
188C
330
1A
100
AcDbEntity
  8
SEIHIN
  6
Continuous
 62
     3
 48
5.0
100
AcDbLine
 10
341.347217410024
 20
384.2385647212291
 30
0.0
 11
341.347217410024
 21
373.6088647212291
 31
0.0
  0
LINE
  5
188D
330
1A
100
AcDbEntity
  8
SEIHIN
  6
Continuous
 62
     3
 48
5.0
100
AcDbLine
 10
341.347217410024
 20
384.238464721229
 30
0.0
 11
341.347217410024
 21
394.868264721229
 31
0.0
  0
LINE
  5
188E
330
1A
100
AcDbEntity
  8
SEIHIN
  6
Continuous
 62
     3
 48
5.0
100
AcDbLine
 10
381.847217410024
 20
369.5304647212291
 30
0.0
 11
381.8471174100239
 21
351.7384647212289
 31
0.0
  0
LINE
  5
188F
330
1A
100
AcDbEntity
  8
SEIHIN
  6
Continuous
 62
     3
 48
5.0
100
AcDbLine
 10
379.847217410024
 20
353.7384647212289
 30
0.0
 11
379.847217410024
 21
369.6384685801527
 31
0.0
  0
LINE
  5
1890
330
1A
100
AcDbEntity
  8
SEIHIN
  6
Continuous
 62
     3
 48
5.0
100
AcDbLine
 10
385.847217410024
 20
384.238464721229
 30
0.0
 11
385.8471174100239
 21
351.7384647212289
 31
0.0
  0
LINE
  5
1891
330
1A
100
AcDbEntity
  8
SEIHIN
  6
Continuous
 62
     3
 48
5.0
100
AcDbLine
 10
381.847217410024
 20
351.7384647212289
 30
0.0
 11
385.847217410024
 21
351.7384647212289
 31
0.0
  0
LINE
  5
1892
330
1A
100
AcDbEntity
  8
SEIHIN
  6
Continuous
 62
     3
 48
5.0
100
AcDbLine
 10
381.847217410024
 20
351.7384647212289
 30
0.0
 11
379.847217410024
 21
353.7384647212289
 31
0.0
  0
ARC
  5
1893
330
1A
100
AcDbEntity
  8
SEIHIN
  6
Continuous
 62
     3
 48
5.0
100
AcDbCircle
 10
377.8472137537807
 20
369.6384685801527
 30
0.0
 40
2.000003656247031
100
AcDbArc
 50
359.9998894501839
 51
86.91016095171581
  0
LINE
  5
1894
330
1A
100
AcDbEntity
  8
CENTER L
  6
CENTER
 62
     1
 48
5.0
100
AcDbLine
 10
392.4436010113533
 20
360.7384647212348
 30
0.0
 11
371.1108460666025
 21
360.7384796075675
 31
0.0
  0
ARC
  5
1895
330
1A
100
AcDbEntity
  8
SEIHIN
  6
Continuous
 62
     3
 48
5.0
100
AcDbCircle
 10
379.8472164475244
 20
369.530465737033
 30
0.0
 40
2.000000962499856
100
AcDbArc
 50
359.9999708993752
 51
86.91310302272964
  0
LINE
  5
1896
330
1A
100
AcDbEntity
  8
SEIHIN
  6
Continuous
 62
     3
 48
5.0
100
AcDbLine
 10
381.847217410024
 20
371.4254647212291
 30
0.0
 11
385.847217410024
 21
371.4254647212291
 31
0.0
  0
ARC
  5
1897
330
1A
100
AcDbEntity
  8
SEIHIN
  6
Continuous
 62
     3
 48
5.0
100
AcDbCircle
 10
377.8473164475245
 20
398.838563705425
 30
0.0
 40
2.000000962499729
100
AcDbArc
 50
273.086896977272
 51
0.0000291006247989
  0
LINE
  5
1898
330
1A
100
AcDbEntity
  8
SEIHIN
  6
Continuous
 62
     3
 48
5.0
100
AcDbLine
 10
381.847217410024
 20
397.0513647212291
 30
0.0
 11
385.847217410024
 21
397.0513647212291
 31
0.0
  0
ARC
  5
1899
330
1A
100
AcDbEntity
  8
SEIHIN
  6
Continuous
 62
     3
 48
5.0
100
AcDbCircle
 10
379.8472137537807
 20
398.9464608623054
 30
0.0
 40
2.000003656247031
100
AcDbArc
 50
273.0898390482842
 51
0.0001105498161037
  0
LINE
  5
189A
330
1A
100
AcDbEntity
  8
CENTER L
  6
CENTER
 62
     1
 48
5.0
100
AcDbLine
 10
392.4436338086944
 20
407.7384647212233
 30
0.0
 11
371.1108460666025
 21
407.738479607579
 31
0.0
  0
LINE
  5
189B
330
1A
100
AcDbEntity
  8
SEIHIN
  6
Continuous
 62
     3
 48
5.0
100
AcDbLine
 10
381.847317410024
 20
416.738464721229
 30
0.0
 11
379.847317410024
 21
414.7384647212289
 31
0.0
  0
LINE
  5
189C
330
1A
100
AcDbEntity
  8
SEIHIN
  6
Continuous
 62
     3
 48
5.0
100
AcDbLine
 10
381.847317410024
 20
416.738464721229
 30
0.0
 11
385.847317410024
 21
416.738464721229
 31
0.0
  0
DIMENSION
  5
189D
330
1A
100
AcDbEntity
  8
SUNPOU
 62
     4
 48
5.0
100
AcDbDimension
  2
*D9
 10
573.3472174100714
 20
302.4996135544313
 30
0.0
 11
540.8472174100477
 21
307.4996135544313
 31
0.0
 70
    32
 71
     5
 42
65.00000000004729
  3
STANDARD
100
AcDbAlignedDimension
 13
508.3472174100241
 23
242.238464721229
 33
0.0
 14
573.3472174100714
 24
242.2383856573512
 34
0.0
100
AcDbRotatedDimension
1001
ACAD
1000
DSTYLE
1002
{
1070
   140
1040
6.0
1070
    74
1070
     0
1070
   172
1070
     1
1070
    73
1070
     0
1070
   272
1070
     2
1070
    77
1070
     3
1070
   173
1070
     1
1070
   147
1040
2.0
1070
    42
1040
6.0
1070
    44
1040
3.0
1070
    43
1040
14.0
1070
   271
1070
     0
1070
   178
1070
     4
1070
   177
1070
     4
1070
   176
1070
     4
1070
   141
1040
150.0
1070
     7
1000
_OPEN
1070
     6
1000
_OPEN
1070
    41
1040
7.0
1002
}
  0
DIMENSION
  5
189E
330
1A
100
AcDbEntity
  8
SUNPOU
 62
     4
 48
5.0
100
AcDbDimension
  2
*D10
 10
564.3470174100239
 20
284.8918424531839
 30
0.0
 11
540.847117410024
 21
289.8918424531839
 31
0.0
 70
    32
 71
     5
 42
46.99979999999982
  3
STANDARD
100
AcDbAlignedDimension
 13
517.3472174100241
 23
247.6358647212291
 33
0.0
 14
564.3470174100239
 24
247.2770647212291
 34
0.0
100
AcDbRotatedDimension
1001
ACAD
1000
DSTYLE
1002
{
1070
   140
1040
6.0
1070
    74
1070
     0
1070
   172
1070
     1
1070
    73
1070
     0
1070
   272
1070
     2
1070
    77
1070
     3
1070
   173
1070
     1
1070
   147
1040
2.0
1070
    42
1040
6.0
1070
    44
1040
3.0
1070
    43
1040
14.0
1070
   271
1070
     0
1070
   178
1070
     4
1070
   177
1070
     4
1070
   176
1070
     4
1070
   141
1040
150.0
1070
     7
1000
_OPEN
1070
     6
1000
_OPEN
1070
    41
1040
7.0
1002
}
  0
DIMENSION
  5
189F
330
1A
100
AcDbEntity
  8
SUNPOU
 62
     4
 48
5.0
100
AcDbDimension
  2
*D11
 10
601.3136206888894
 20
237.2383647212291
 30
0.0
 11
596.3136206888894
 21
250.7384147212292
 31
0.0
 70
    32
 71
     5
 42
27.00009999999998
  3
STANDARD
100
AcDbAlignedDimension
 13
553.657217410024
 23
264.2384647212291
 33
0.0
 14
569.496117410024
 24
237.2383647212291
 34
0.0
 50
90.0
100
AcDbRotatedDimension
1001
ACAD
1000
DSTYLE
1002
{
1070
   140
1040
6.0
1070
    74
1070
     0
1070
   172
1070
     1
1070
    73
1070
     0
1070
   272
1070
     2
1070
    77
1070
     3
1070
   173
1070
     1
1070
   147
1040
2.0
1070
    42
1040
6.0
1070
    44
1040
3.0
1070
    43
1040
14.0
1070
   271
1070
     0
1070
   178
1070
     4
1070
   177
1070
     4
1070
   176
1070
     4
1070
   141
1040
150.0
1070
     7
1000
_OPEN
1070
     6
1000
_OPEN
1070
    41
1040
7.0
1002
}
  0
LINE
  5
18A0
330
1A
100
AcDbEntity
  8
CENTER L
  6
CENTER
 62
     1
 48
5.0
100
AcDbLine
 10
559.351917410024
 20
242.238464721229
 30
0.0
 11
569.496117410024
 21
242.2383647212291
 31
0.0
  0
ARC
  5
18A1
330
1A
100
AcDbEntity
  8
SEIHIN
  6
Continuous
 62
     3
 48
5.0
100
AcDbCircle
 10
557.9160306402025
 20
230.2384377114114
 30
0.0
 40
4.000027009839484
100
AcDbArc
 50
322.1940498031723
 51
90.00018950707121
  0
LINE
  5
18A2
330
1A
100
AcDbEntity
  8
CENTER L
  6
CENTER
 62
     1
 48
5.0
100
AcDbLine
 10
559.351917410024
 20
237.2383647212291
 30
0.0
 11
569.496117410024
 21
237.2383647212291
 31
0.0
  0
LINE
  5
18A3
330
1A
100
AcDbEntity
  8
SEIHIN
  6
Continuous
 62
     3
 48
5.0
100
AcDbLine
 10
553.657217410024
 20
264.2384647212291
 30
0.0
 11
570.302317410024
 21
249.4236647212291
 31
0.0
  0
LINE
  5
18A4
330
1A
100
AcDbEntity
  8
SEIHIN
  6
Continuous
 62
     3
 48
5.0
100
AcDbLine
 10
561.0763174100239
 20
227.786364721229
 30
0.0
 11
550.1371174100239
 21
213.686864721229
 31
0.0
  0
LINE
  5
18A5
330
1A
100
AcDbEntity
  8
SEIHIN
  6
Continuous
 62
     3
 48
5.0
100
AcDbLine
 10
571.247917410024
 20
231.108364721229
 30
0.0
 11
548.748017410024
 21
202.108464721229
 31
0.0
  0
DIMENSION
  5
18A6
330
1A
100
AcDbEntity
  8
SUNPOU
 62
     4
 48
5.0
100
AcDbDimension
  2
*D12
 10
483.9659890260018
 20
198.238464721229
 30
0.0
 11
478.9659890260018
 21
178.7384647212291
 31
0.0
 70
    32
 71
     5
 42
10.0
  3
STANDARD
100
AcDbAlignedDimension
 13
535.9421174100241
 23
208.238464721229
 33
0.0
 14
540.8470174100241
 24
198.238464721229
 34
0.0
 50
90.0
100
AcDbRotatedDimension
1001
ACAD
1000
DSTYLE
1002
{
1070
   140
1040
6.0
1070
    74
1070
     0
1070
   172
1070
     1
1070
    73
1070
     0
1070
   272
1070
     2
1070
    77
1070
     3
1070
   173
1070
     1
1070
   147
1040
2.0
1070
    42
1040
6.0
1070
    44
1040
3.0
1070
    43
1040
14.0
1070
   271
1070
     0
1070
   178
1070
     4
1070
   177
1070
     4
1070
   176
1070
     4
1070
   141
1040
150.0
1070
     7
1000
_OPEN
1070
     6
1000
_OPEN
1070
    41
1040
7.0
1002
}
  0
LINE
  5
18A7
330
1A
100
AcDbEntity
  8
SEIHIN
  6
Continuous
 62
     3
 48
5.0
100
AcDbLine
 10
548.3470174100241
 20
233.2383647212291
 30
0.0
 11
548.3470174100241
 21
214.2998647212291
 31
0.0
  0
LINE
  5
18A8
330
1A
100
AcDbEntity
  8
SEIHIN
  6
Continuous
 62
     3
 48
5.0
100
AcDbLine
 10
520.6179174100239
 20
227.786464721229
 30
0.0
 11
531.5572174100241
 21
213.686864721229
 31
0.0
  0
LINE
  5
18A9
330
1A
100
AcDbEntity
  8
SEIHIN
  6
Continuous
 62
     3
 48
5.0
100
AcDbLine
 10
510.446417410024
 20
231.108464721229
 30
0.0
 11
532.946417410024
 21
202.108464721229
 31
0.0
  0
LINE
  5
18AA
330
1A
100
AcDbEntity
  8
CENTER L
  6
CENTER
 62
     1
 48
5.0
100
AcDbLine
 10
540.8472174100239
 20
270.8521647212291
 30
0.0
 11
540.8470174100241
 21
194.831064721229
 31
0.0
  0
LINE
  5
18AB
330
1A
100
AcDbEntity
  8
SEIHIN
  6
Continuous
 62
     3
 48
5.0
100
AcDbLine
 10
533.3473174100241
 20
233.238464721229
 30
0.0
 11
533.3473174100241
 21
214.2998647212291
 31
0.0
  0
LINE
  5
18AC
330
1A
100
AcDbEntity
  8
CENTER L
  6
CENTER
 62
     1
 48
5.0
100
AcDbLine
 10
540.8470174100241
 20
208.238464721229
 30
0.0
 11
545.0944174100239
 21
208.238464721229
 31
0.0
  0
ARC
  5
18AD
330
1A
100
AcDbEntity
  8
SEIHIN
  6
Continuous
 62
     3
 48
5.0
100
AcDbCircle
 10
540.8470746145117
 20
208.2384927414004
 30
0.0
 40
10.00002802033497
100
AcDbArc
 50
269.9996722433471
 51
322.1931813230318
  0
ARC
  5
18AE
330
1A
100
AcDbEntity
  8
SEIHIN
  6
Continuous
 62
     3
 48
5.0
100
AcDbCircle
 10
540.8471602055363
 20
208.2384927414005
 30
0.0
 40
10.00002802033512
100
AcDbArc
 50
217.8068186769682
 51
270.000327756653
  0
ARC
  5
18AF
330
1A
100
AcDbEntity
  8
SEIHIN
  6
Continuous
 62
     3
 48
5.0
100
AcDbCircle
 10
532.3473106575696
 20
214.299862408943
 30
0.0
 40
1.000006752457115
100
AcDbArc
 50
217.8062721872405
 51
0.0001324833413257
  0
ARC
  5
18B0
330
1A
100
AcDbEntity
  8
SEIHIN
  6
Continuous
 62
     3
 48
5.0
100
AcDbCircle
 10
540.8471174100239
 20
208.238464721229
 30
0.0
 40
2.10000000000008
100
AcDbArc
 50
180.0
 51
0.0
  0
ARC
  5
18B1
330
1A
100
AcDbEntity
  8
SEIHIN
  6
Continuous
 62
     3
 48
5.0
100
AcDbCircle
 10
540.8471174100239
 20
208.238464721229
 30
0.0
 40
2.10000000000008
100
AcDbArc
 50
0.0
 51
180.0
  0
ARC
  5
18B2
330
1A
100
AcDbEntity
  8
SEIHIN
  6
Continuous
 62
     3
 48
5.0
100
AcDbCircle
 10
540.8471174100239
 20
208.238464721229
 30
0.0
 40
2.10000000000008
100
AcDbArc
 50
180.0
 51
0.0
  0
ARC
  5
18B3
330
1A
100
AcDbEntity
  8
SEIHIN
  6
Continuous
 62
     3
 48
5.0
100
AcDbCircle
 10
540.8471174100239
 20
208.238464721229
 30
0.0
 40
2.10000000000008
100
AcDbArc
 50
0.0
 51
180.0
  0
ARC
  5
18B4
330
1A
100
AcDbEntity
  8
SEIHIN
  6
Continuous
 62
     3
 48
5.0
100
AcDbCircle
 10
540.8470174100239
 20
208.238464721229
 30
0.0
 40
2.10000000000008
100
AcDbArc
 50
180.0
 51
0.0
  0
ARC
  5
18B5
330
1A
100
AcDbEntity
  8
SEIHIN
  6
Continuous
 62
     3
 48
5.0
100
AcDbCircle
 10
540.8470174100239
 20
208.238464721229
 30
0.0
 40
2.10000000000008
100
AcDbArc
 50
0.0
 51
180.0
  0
ARC
  5
18B6
330
1A
100
AcDbEntity
  8
SEIHIN
  6
Continuous
 62
     3
 48
5.0
100
AcDbCircle
 10
540.8472174100239
 20
208.238464721229
 30
0.0
 40
2.099900000000105
100
AcDbArc
 50
180.0
 51
0.0
  0
ARC
  5
18B7
330
1A
100
AcDbEntity
  8
SEIHIN
  6
Continuous
 62
     3
 48
5.0
100
AcDbCircle
 10
540.8472174100239
 20
208.238464721229
 30
0.0
 40
2.099900000000105
100
AcDbArc
 50
0.0
 51
180.0
  0
LINE
  5
18B8
330
1A
100
AcDbEntity
  8
CENTER L
  6
CENTER
 62
     1
 48
5.0
100
AcDbLine
 10
540.8472174100239
 20
208.238464721229
 30
0.0
 11
535.9421174100241
 21
208.238464721229
 31
0.0
  0
ARC
  5
18B9
330
1A
100
AcDbEntity
  8
SEIHIN
  6
Continuous
 62
     3
 48
5.0
100
AcDbCircle
 10
549.3470241624784
 20
214.299862408943
 30
0.0
 40
1.000006752457013
100
AcDbArc
 50
179.9998675166571
 51
322.1937278127572
  0
LEADER
  5
18BA
330
1A
100
AcDbEntity
  8
SUNPOU
  6
Continuous
 62
     4
100
AcDbLeader
  3
STANDARD
 40
6.0
 41
31.2
 76
     3
 10
515.3409270129403
 20
243.5742102201151
 30
0.0
 10
493.5623419603999
 20
290.8572447455128
 30
0.0
 10
491.9986460969617
 20
290.8572447455128
 30
0.0
1001
ACAD
1000
DSTYLE
1002
{
1070
     6
1000
OPEN
1070
    41
1040
7.0
1070
    42
1040
6.0
1070
    43
1040
14.0
1070
    44
1040
3.0
1070
    73
1070
     0
1070
    74
1070
     0
1070
    77
1070
     3
1070
   140
1040
6.0
1070
   141
1040
150.0
1070
   147
1040
2.0
1070
   172
1070
     1
1070
   173
1070
     1
1070
   176
1070
     4
1070
   177
1070
     4
1070
   178
1070
     4
1070
   271
1070
     0
1070
   272
1070
     2
1070
   288
1070
     1
1070
   341
1005
6D
1070
   343
1005
6D
1070
   344
1005
6D
1002
}
  0
DIMENSION
  5
18BB
330
1A
100
AcDbEntity
  8
SUNPOU
 62
     4
 48
5.0
100
AcDbDimension
  2
*D13
 10
483.9659890260018
 20
242.238464721229
 30
0.0
 11
478.9659890260018
 21
253.2384647212292
 31
0.0
 70
    32
 71
     5
 42
22.00000000000006
  3
STANDARD
100
AcDbAlignedDimension
 13
527.9973174100242
 23
264.2384647212291
 33
0.0
 14
512.422617410024
 24
242.238464721229
 34
0.0
 50
90.0
100
AcDbRotatedDimension
1001
ACAD
1000
DSTYLE
1002
{
1070
   140
1040
6.0
1070
    74
1070
     0
1070
   172
1070
     1
1070
    73
1070
     0
1070
   272
1070
     2
1070
    77
1070
     3
1070
   173
1070
     1
1070
   147
1040
2.0
1070
    42
1040
6.0
1070
    44
1040
3.0
1070
    43
1040
14.0
1070
   271
1070
     0
1070
   178
1070
     4
1070
   177
1070
     4
1070
   176
1070
     4
1070
   141
1040
150.0
1070
     7
1000
_OPEN
1070
     6
1000
_OPEN
1070
    41
1040
7.0
1002
}
  0
MTEXT
  5
18BC
330
1A
100
AcDbEntity
  8
SUNPOU
  6
Continuous
 62
     4
100
AcDbMText
 10
489.9986460969617
 20
292.8572447455128
 30
0.0
 40
6.0
 41
0.0
 71
     9
 72
     5
  1
3-φ4.2
 73
     1
 44
1.0
  0
LINE
  5
18BD
330
1A
100
AcDbEntity
  8
SEIHIN
  6
Continuous
 62
     3
 48
5.0
100
AcDbLine
 10
527.9973174100242
 20
264.2384647212291
 30
0.0
 11
511.3922174100239
 21
249.4236647212291
 31
0.0
  0
LINE
  5
18BE
330
1A
100
AcDbEntity
  8
SEIHIN
  6
Continuous
 62
     3
 48
5.0
100
AcDbLine
 10
532.3473174100238
 20
234.238464721229
 30
0.0
 11
523.7783174100239
 21
234.238464721229
 31
0.0
  0
ARC
  5
18BF
330
1A
100
AcDbEntity
  8
SEIHIN
  6
Continuous
 62
     3
 48
5.0
100
AcDbCircle
 10
517.3472174100241
 20
242.2384647212291
 30
0.0
 40
2.099983704698678
100
AcDbArc
 50
298.4371309133303
 51
61.56286908666974
  0
LINE
  5
18C0
330
1A
100
AcDbEntity
  8
CENTER L
  6
CENTER
 62
     1
 48
5.0
100
AcDbLine
 10
517.3472174100241
 20
247.6358647212291
 30
0.0
 11
517.3472174100241
 21
231.3091647212291
 31
0.0
  0
LINE
  5
18C1
330
1A
100
AcDbEntity
  8
SEIHIN
  6
Continuous
 62
     3
 48
5.0
100
AcDbLine
 10
508.3472174100241
 20
242.238464721229
 30
0.0
 11
508.3472174100241
 21
237.2384647212291
 31
0.0
  0
ARC
  5
18C2
330
1A
100
AcDbEntity
  8
SEIHIN
  6
Continuous
 62
     3
 48
5.0
100
AcDbCircle
 10
517.3472174100241
 20
242.2384647212291
 30
0.0
 40
2.099983704698681
100
AcDbArc
 50
61.56286908666974
 51
241.5628690866697
  0
ARC
  5
18C3
330
1A
100
AcDbEntity
  8
SEIHIN
  6
Continuous
 62
     3
 48
5.0
100
AcDbCircle
 10
518.3472059260109
 20
237.2384982567527
 30
0.0
 40
9.99998851604313
100
AcDbArc
 50
180.0001921446164
 51
217.8070342868992
  0
ARC
  5
18C4
330
1A
100
AcDbEntity
  8
SEIHIN
  6
Continuous
 62
     3
 48
5.0
100
AcDbCircle
 10
523.7783041798452
 20
230.2384377114114
 30
0.0
 40
4.000027009839502
100
AcDbArc
 50
89.99981049292879
 51
217.8059501968276
  0
ARC
  5
18C5
330
1A
100
AcDbEntity
  8
SEIHIN
  6
Continuous
 62
     3
 48
5.0
100
AcDbCircle
 10
517.3472174097874
 20
237.2384147212291
 30
0.0
 40
3.250019772705027
100
AcDbArc
 50
287.920100419658
 51
72.07989958034204
  0
LINE
  5
18C6
330
1A
100
AcDbEntity
  8
CENTER L
  6
CENTER
 62
     1
 48
5.0
100
AcDbLine
 10
522.2863174100241
 20
237.2384647212291
 30
0.0
 11
512.2440174100241
 21
237.2384647212291
 31
0.0
  0
ARC
  5
18C7
330
1A
100
AcDbEntity
  8
SEIHIN
  6
Continuous
 62
     3
 48
5.0
100
AcDbCircle
 10
517.3472320481892
 20
237.2384194548993
 30
0.0
 40
3.250019772668612
100
AcDbArc
 50
107.920371635013
 51
287.9198291963629
  0
ARC
  5
18C8
330
1A
100
AcDbEntity
  8
SEIHIN
  6
Continuous
 62
     3
 48
5.0
100
AcDbCircle
 10
518.3471955109762
 20
242.2384130459246
 30
0.0
 40
9.999978101085604
100
AcDbArc
 50
134.0670209742034
 51
179.9997039216668
  0
LINE
  5
18C9
330
1A
100
AcDbEntity
  8
CENTER L
  6
CENTER
 62
     1
 48
5.0
100
AcDbLine
 10
522.2863174100241
 20
242.238464721229
 30
0.0
 11
512.422617410024
 21
242.238464721229
 31
0.0
  0
ARC
  5
18CA
330
1A
100
AcDbEntity
  8
SEIHIN
  6
Continuous
 62
     3
 48
5.0
100
AcDbCircle
 10
532.3473174100241
 20
233.2384647212289
 30
0.0
 40
1.000000000000114
100
AcDbArc
 50
0.0000000000065138
 51
90.00000000000651
  0
LINE
  5
18CB
330
1A
100
AcDbEntity
  8
SEIHIN
  6
Continuous
 62
     3
 48
5.0
100
AcDbLine
 10
549.3470174100241
 20
234.238464721229
 30
0.0
 11
557.9160174100239
 21
234.238464721229
 31
0.0
  0
ARC
  5
18CC
330
1A
100
AcDbEntity
  8
SEIHIN
  6
Continuous
 62
     3
 48
5.0
100
AcDbCircle
 10
549.3470174100241
 20
233.2383647212291
 30
0.0
 40
1.0
100
AcDbArc
 50
90.0
 51
180.0
  0
LINE
  5
18CD
330
1A
100
AcDbEntity
  8
SEIHIN
  6
Continuous
 62
     3
 48
5.0
100
AcDbLine
 10
540.8471174100239
 20
264.2385647212291
 30
0.0
 11
553.6571174100241
 21
264.2384647212291
 31
0.0
  0
LINE
  5
18CE
330
1A
100
AcDbEntity
  8
SEIHIN
  6
Continuous
 62
     3
 48
5.0
100
AcDbLine
 10
551.8472174100241
 20
265.2386647212291
 30
0.0
 11
540.8472174100239
 21
265.2387647212291
 31
0.0
  0
LINE
  5
18CF
330
1A
100
AcDbEntity
  8
SEIHIN
  6
Continuous
 62
     3
 48
5.0
100
AcDbLine
 10
540.8473174100241
 20
264.2384647212291
 30
0.0
 11
527.9973174100242
 21
264.2384647212291
 31
0.0
  0
LINE
  5
18D0
330
1A
100
AcDbEntity
  8
SEIHIN
  6
Continuous
 62
     3
 48
5.0
100
AcDbLine
 10
529.8472174100241
 20
265.2387647212291
 30
0.0
 11
540.8472174100239
 21
265.2387647212291
 31
0.0
  0
LINE
  5
18D1
330
1A
100
AcDbEntity
  8
SEIHIN
  6
Continuous
 62
     3
 48
5.0
100
AcDbLine
 10
529.8472174100241
 20
265.2386647212291
 30
0.0
 11
529.8472174100241
 21
264.2384647212291
 31
0.0
  0
LINE
  5
18D2
330
1A
100
AcDbEntity
  8
SEIHIN
  6
Continuous
 62
     3
 48
5.0
100
AcDbLine
 10
551.8472174100241
 20
265.2385647212291
 30
0.0
 11
551.8472174100241
 21
264.2384647212291
 31
0.0
  0
MTEXT
  5
18D3
330
1A
100
AcDbEntity
  8
SUNPOU
  6
Continuous
 62
     4
100
AcDbMText
 10
594.6930972819986
 20
292.7940264400064
 30
0.0
 40
6.0
 41
0.0
 71
     7
 72
     5
  1
2-φ6.5
 73
     1
 44
1.0
  0
LEADER
  5
18D4
330
1A
100
AcDbEntity
  8
SUNPOU
  6
Continuous
 62
     4
100
AcDbLeader
  3
STANDARD
 74
     0
 40
6.0
 41
31.2
 76
     3
 10
567.9157341880595
 20
237.9185728677159
 30
0.0
 10
591.420959877822
 20
290.8572418565302
 30
0.0
 10
592.6930972819986
 20
290.7940264400064
 30
0.0
1001
ACAD
1000
DSTYLE
1002
{
1070
     6
1000
OPEN
1070
    41
1040
7.0
1070
    42
1040
6.0
1070
    43
1040
14.0
1070
    44
1040
3.0
1070
    73
1070
     0
1070
    74
1070
     0
1070
    77
1070
     3
1070
   140
1040
6.0
1070
   141
1040
150.0
1070
   147
1040
2.0
1070
   172
1070
     1
1070
   173
1070
     1
1070
   176
1070
     4
1070
   177
1070
     4
1070
   178
1070
     4
1070
   271
1070
     0
1070
   272
1070
     2
1070
   288
1070
     1
1070
   341
1005
6D
1070
   343
1005
6D
1070
   344
1005
6D
1002
}
  0
ARC
  5
18D5
330
1A
100
AcDbEntity
  8
SEIHIN
  6
Continuous
 62
     3
 48
5.0
100
AcDbCircle
 10
564.3470174100241
 20
242.2383647212291
 30
0.0
 40
2.09998370469869
100
AcDbArc
 50
118.4371309133303
 51
241.5628690866697
  0
ARC
  5
18D6
330
1A
100
AcDbEntity
  8
SEIHIN
  6
Continuous
 62
     3
 48
5.0
100
AcDbCircle
 10
564.3470174100241
 20
242.2383647212291
 30
0.0
 40
2.099983704698693
100
AcDbArc
 50
298.4371309133303
 51
118.4371309133303
  0
LINE
  5
18D7
330
1A
100
AcDbEntity
  8
CENTER L
  6
CENTER
 62
     1
 48
5.0
100
AcDbLine
 10
564.3470174100239
 20
247.2770647212291
 30
0.0
 11
564.3470174100239
 21
231.9486647212291
 31
0.0
  0
LINE
  5
18D8
330
1A
100
AcDbEntity
  8
SEIHIN
  6
Continuous
 62
     3
 48
5.0
100
AcDbLine
 10
573.3472174100239
 20
242.2383647212291
 30
0.0
 11
573.3471174100239
 21
237.2383647212291
 31
0.0
  0
ARC
  5
18D9
330
1A
100
AcDbEntity
  8
SEIHIN
  6
Continuous
 62
     3
 48
5.0
100
AcDbCircle
 10
564.3470174100241
 20
237.238364721229
 30
0.0
 40
3.249972198342622
100
AcDbArc
 50
252.0796283610181
 51
72.0796283610181
  0
ARC
  5
18DA
330
1A
100
AcDbEntity
  8
SEIHIN
  6
Continuous
 62
     3
 48
5.0
100
AcDbCircle
 10
564.3470174100241
 20
237.238364721229
 30
0.0
 40
3.249972198342621
100
AcDbArc
 50
107.9203716389819
 51
252.0796283610181
  0
ARC
  5
18DB
330
1A
100
AcDbEntity
  8
SEIHIN
  6
Continuous
 62
     3
 48
5.0
100
AcDbCircle
 10
563.347128894037
 20
237.2383982567525
 30
0.0
 40
9.999988516043077
100
AcDbArc
 50
322.1929657131018
 51
359.9998078553837
  0
ARC
  5
18DC
330
1A
100
AcDbEntity
  8
SEIHIN
  6
Continuous
 62
     3
 48
5.0
100
AcDbCircle
 10
563.3472033827936
 20
242.2383978210418
 30
0.0
 40
10.00001402728513
100
AcDbArc
 50
359.9998103523094
 51
45.93289179254698
  0
VIEWPORT
  5
22
330
17
100
AcDbEntity
 67
     1
  8
0
100
AcDbViewport
 10
313.6808219178083
 20
148.5
 30
0.0
 40
627.3616438356165
 41
297.0
 68
     2
 69
     1
 12
313.6808219178083
 22
148.5
 13
0.0
 23
0.0
 14
1.0
 24
1.0
 15
10.0
 25
10.0
 16
0.0
 26
0.0
 36
1.0
 17
0.0
 27
0.0
 37
0.0
 42
50.0
 43
0.0
 44
0.0
 45
297.0
 50
0.0
 51
0.0
 72
   100
 90
    32768
  1

281
     0
 71
     1
 74
     0
110
0.0
120
0.0
130
0.0
111
1.0
121
0.0
131
0.0
112
0.0
122
1.0
132
0.0
 79
     0
146
0.0
  0
VIEWPORT
  5
64
330
17
100
AcDbEntity
 67
     1
  8
VIEWPORT
100
AcDbViewport
 10
210.0
 20
148.5
 30
0.0
 40
420.0
 41
297.0
 68
     1
 69
     2
 12
420.0
 22
297.0
 13
0.0
 23
0.0
 14
10.0
 24
10.0
 15
0.0
 25
0.0
 16
0.0
 26
0.0
 36
1.0
 17
0.0
 27
0.0
 37
0.0
 42
50.0
 43
0.0
 44
0.0
 45
605.8799999999999
 50
0.0
 51
0.0
 72
   100
 90
    32768
  1

281
     0
 71
     1
 74
     0
110
0.0
120
0.0
130
0.0
111
1.0
121
0.0
131
0.0
112
0.0
122
1.0
132
0.0
 79
     0
146
0.0
  0
ENDSEC
  0
SECTION
  2
OBJECTS
  0
DICTIONARY
  5
C
330
0
100
AcDbDictionary
281
     1
  3
ACAD_GROUP
350
D
  3
ACAD_LAYOUT
350
85F
  3
ACAD_MLINESTYLE
350
E
  3
ACAD_PLOTSETTINGS
350
860
  3
ACAD_PLOTSTYLENAME
350
85D
  0
DICTIONARY
  5
D
102
{ACAD_REACTORS
330
C
102
}
330
C
100
AcDbDictionary
281
     1
  0
DICTIONARY
  5
85F
102
{ACAD_REACTORS
330
C
102
}
330
C
100
AcDbDictionary
281
     1
  3
Model
350
861
  3
ﾚｲｱｳﾄ1
350
862
  0
DICTIONARY
  5
E
102
{ACAD_REACTORS
330
C
102
}
330
C
100
AcDbDictionary
281
     1
  3
STANDARD
350
13
  0
DICTIONARY
  5
860
102
{ACAD_REACTORS
330
C
102
}
330
C
100
AcDbDictionary
281
     1
  0
ACDBDICTIONARYWDFLT
  5
85D
102
{ACAD_REACTORS
330
C
102
}
330
C
100
AcDbDictionary
281
     1
  3
Normal
350
85E
100
AcDbDictionaryWithDefault
340
85E
1001
ACAD
1000
TREAT_AS_HARD
1070
     0
1000
TREAT_AS_HARD
1070
     0
1000
TREAT_AS_HARD
1070
     0
1000
TREAT_AS_HARD
1070
     0
1000
TREAT_AS_HARD
1070
     0
  0
LAYOUT
  5
861
102
{ACAD_REACTORS
330
85F
102
}
330
85F
100
AcDbPlotSettings
  1

  2
Acrobat Distiller
  4
A3
  6

 40
3.174999952316284
 41
3.174999952316284
 42
3.17498779296875
 43
3.17498779296875
 44
297.0318298339844
 45
420.1583251953125
 46
0.0
 47
0.0
 48
0.0
 49
0.0
140
0.0
141
0.0
142
1.0
143
2.0
 70
 28336
 72
     1
 73
     1
 74
     2
  7
print.ctb
 75
    17
147
0.5
148
0.0
149
0.0
100
AcDbLayout
  1
Model
 70
     1
 71
     0
 10
0.0
 20
0.0
 11
12.0
 21
9.0
 12
0.0
 22
0.0
 32
0.0
 14
0.0
 24
0.0
 34
0.0
 15
0.0
 25
0.0
 35
0.0
146
0.0
 13
0.0
 23
0.0
 33
0.0
 16
1.0
 26
0.0
 36
0.0
 17
0.0
 27
1.0
 37
0.0
 76
     0
330
1A
  0
LAYOUT
  5
862
102
{ACAD_REACTORS
330
85F
102
}
330
85F
100
AcDbPlotSettings
  1

  2
C:\PROGRAM FILES\ACAD LT 2000\plotters\DWF ePlot.pc3
  4

  6

 40
0.0
 41
0.0
 42
0.0
 43
0.0
 44
0.0
 45
0.0
 46
0.0
 47
0.0
 48
0.0
 49
0.0
140
0.0
141
0.0
142
1.0
143
1.0
 70
   688
 72
     0
 73
     0
 74
     5
  7
print.ctb
 75
    16
147
1.0
148
0.0
149
0.0
100
AcDbLayout
  1
ﾚｲｱｳﾄ1
 70
     1
 71
     1
 10
0.0
 20
0.0
 11
420.0
 21
297.0
 12
0.0
 22
0.0
 32
0.0
 14
0.0
 24
0.0
 34
0.0
 15
420.0
 25
297.0
 35
0.0
146
0.0
 13
0.0
 23
0.0
 33
0.0
 16
1.0
 26
0.0
 36
0.0
 17
0.0
 27
1.0
 37
0.0
 76
     0
330
17
331
64
  0
MLINESTYLE
  5
13
102
{ACAD_REACTORS
330
E
102
}
330
E
100
AcDbMlineStyle
  2
STANDARD
 70
     0
  3

 62
     0
 51
90.0
 52
90.0
 71
     2
 49
0.5
 62
   256
  6
BYLAYER
 49
-0.5
 62
   256
  6
BYLAYER
  0
ACDBPLACEHOLDER
  5
85E
102
{ACAD_REACTORS
330
85D
102
}
330
85D
  0
ENDSEC
  0
EOF
