  0
SECTION
  2
HEADER
  9
$ACADVER
  1
AC1015
  9
$ACADMAINTVER
 70
     6
  9
$DWGCODEPAGE
  3
ANSI_932
  9
$INSBASE
 10
0.0
 20
0.0
 30
0.0
  9
$EXTMIN
 10
-0.0000004333560355
 20
0.0000006402971167
 30
0.0
  9
$EXTMAX
 10
797.599999566644
 20
551.6000006402973
 30
0.0
  9
$LIMMIN
 10
0.0
 20
0.0
  9
$LIMMAX
 10
840.0
 20
594.0
  9
$ORTHOMODE
 70
     1
  9
$REGENMODE
 70
     1
  9
$FILLMODE
 70
     1
  9
$QTEXTMODE
 70
     0
  9
$MIRRTEXT
 70
     1
  9
$LTSCALE
 40
2.0
  9
$ATTMODE
 70
     1
  9
$TEXTSIZE
 40
5.0
  9
$TRACEWID
 40
1.0
  9
$TEXTSTYLE
  7
STANDARD
  9
$CLAYER
  8
SEIHIN
  9
$CELTYPE
  6
BYLAYER
  9
$CECOLOR
 62
   256
  9
$CELTSCALE
 40
1.0
  9
$DISPSILH
 70
     0
  9
$DIMSCALE
 40
1.0
  9
$DIMASZ
 40
7.0
  9
$DIMEXO
 40
6.0
  9
$DIMDLI
 40
14.0
  9
$DIMRND
 40
0.0
  9
$DIMDLE
 40
0.0
  9
$DIMEXE
 40
3.0
  9
$DIMTP
 40
0.0
  9
$DIMTM
 40
0.0
  9
$DIMTXT
 40
6.0
  9
$DIMCEN
 40
150.0
  9
$DIMTSZ
 40
0.0
  9
$DIMTOL
 70
     0
  9
$DIMLIM
 70
     0
  9
$DIMTIH
 70
     0
  9
$DIMTOH
 70
     0
  9
$DIMSE1
 70
     0
  9
$DIMSE2
 70
     0
  9
$DIMTAD
 70
     3
  9
$DIMZIN
 70
     0
  9
$DIMBLK
  1

  9
$DIMASO
 70
     1
  9
$DIMSHO
 70
     1
  9
$DIMPOST
  1

  9
$DIMAPOST
  1

  9
$DIMALT
 70
     0
  9
$DIMALTD
 70
     2
  9
$DIMALTF
 40
25.4
  9
$DIMLFAC
 40
1.0
  9
$DIMTOFL
 70
     1
  9
$DIMTVP
 40
0.0
  9
$DIMTIX
 70
     0
  9
$DIMSOXD
 70
     0
  9
$DIMSAH
 70
     1
  9
$DIMBLK1
  1
OPEN
  9
$DIMBLK2
  1
OPEN
  9
$DIMSTYLE
  2
STANDARD
  9
$DIMCLRD
 70
   256
  9
$DIMCLRE
 70
   256
  9
$DIMCLRT
 70
   256
  9
$DIMTFAC
 40
1.0
  9
$DIMGAP
 40
2.0
  9
$DIMJUST
 70
     0
  9
$DIMSD1
 70
     0
  9
$DIMSD2
 70
     0
  9
$DIMTOLJ
 70
     1
  9
$DIMTZIN
 70
     0
  9
$DIMALTZ
 70
     0
  9
$DIMALTTZ
 70
     0
  9
$DIMUPT
 70
     0
  9
$DIMDEC
 70
     0
  9
$DIMTDEC
 70
     0
  9
$DIMALTU
 70
     2
  9
$DIMALTTD
 70
     2
  9
$DIMTXSTY
  7
STANDARD
  9
$DIMAUNIT
 70
     0
  9
$DIMADEC
 70
     0
  9
$DIMALTRND
 40
0.0
  9
$DIMAZIN
 70
     0
  9
$DIMDSEP
 70
    46
  9
$DIMATFIT
 70
     3
  9
$DIMFRAC
 70
     0
  9
$DIMLDRBLK
  1
OPEN
  9
$DIMLUNIT
 70
     2
  9
$DIMLWD
 70
    -1
  9
$DIMLWE
 70
    -1
  9
$DIMTMOVE
 70
     0
  9
$LUNITS
 70
     2
  9
$LUPREC
 70
     4
  9
$SKETCHINC
 40
1.0
  9
$FILLETRAD
 40
20.0
  9
$AUNITS
 70
     0
  9
$AUPREC
 70
     0
  9
$MENU
  1
.
  9
$ELEVATION
 40
0.0
  9
$PELEVATION
 40
0.0
  9
$THICKNESS
 40
0.0
  9
$LIMCHECK
 70
     0
  9
$CHAMFERA
 40
20.0
  9
$CHAMFERB
 40
20.0
  9
$CHAMFERC
 40
40.0
  9
$CHAMFERD
 40
0.0
  9
$SKPOLY
 70
     0
  9
$TDCREATE
 40
2451029.942521991
  9
$TDUCREATE
 40
2451029.567521991
  9
$TDUPDATE
 40
2455609.398021296
  9
$TDUUPDATE
 40
2455609.023021296
  9
$TDINDWG
 40
0.0807808218
  9
$TDUSRTIMER
 40
0.0807808218
  9
$USRTIMER
 70
     1
  9
$ANGBASE
 50
0.0
  9
$ANGDIR
 70
     0
  9
$PDMODE
 70
     0
  9
$PDSIZE
 40
0.0
  9
$PLINEWID
 40
0.0
  9
$SPLFRAME
 70
     0
  9
$SPLINETYPE
 70
     6
  9
$SPLINESEGS
 70
     8
  9
$HANDSEED
  5
1E3C
  9
$SURFTAB1
 70
     6
  9
$SURFTAB2
 70
     6
  9
$SURFTYPE
 70
     6
  9
$SURFU
 70
     6
  9
$SURFV
 70
     6
  9
$UCSBASE
  2

  9
$UCSNAME
  2

  9
$UCSORG
 10
0.0
 20
0.0
 30
0.0
  9
$UCSXDIR
 10
1.0
 20
0.0
 30
0.0
  9
$UCSYDIR
 10
0.0
 20
1.0
 30
0.0
  9
$UCSORTHOREF
  2

  9
$UCSORTHOVIEW
 70
     0
  9
$UCSORGTOP
 10
0.0
 20
0.0
 30
0.0
  9
$UCSORGBOTTOM
 10
0.0
 20
0.0
 30
0.0
  9
$UCSORGLEFT
 10
0.0
 20
0.0
 30
0.0
  9
$UCSORGRIGHT
 10
0.0
 20
0.0
 30
0.0
  9
$UCSORGFRONT
 10
0.0
 20
0.0
 30
0.0
  9
$UCSORGBACK
 10
0.0
 20
0.0
 30
0.0
  9
$PUCSBASE
  2

  9
$PUCSNAME
  2

  9
$PUCSORG
 10
0.0
 20
0.0
 30
0.0
  9
$PUCSXDIR
 10
1.0
 20
0.0
 30
0.0
  9
$PUCSYDIR
 10
0.0
 20
1.0
 30
0.0
  9
$PUCSORTHOREF
  2

  9
$PUCSORTHOVIEW
 70
     0
  9
$PUCSORGTOP
 10
0.0
 20
0.0
 30
0.0
  9
$PUCSORGBOTTOM
 10
0.0
 20
0.0
 30
0.0
  9
$PUCSORGLEFT
 10
0.0
 20
0.0
 30
0.0
  9
$PUCSORGRIGHT
 10
0.0
 20
0.0
 30
0.0
  9
$PUCSORGFRONT
 10
0.0
 20
0.0
 30
0.0
  9
$PUCSORGBACK
 10
0.0
 20
0.0
 30
0.0
  9
$USERI1
 70
     0
  9
$USERI2
 70
     0
  9
$USERI3
 70
     0
  9
$USERI4
 70
     0
  9
$USERI5
 70
     0
  9
$USERR1
 40
0.0
  9
$USERR2
 40
0.0
  9
$USERR3
 40
0.0
  9
$USERR4
 40
0.0
  9
$USERR5
 40
0.0
  9
$WORLDVIEW
 70
     1
  9
$SHADEDGE
 70
     3
  9
$SHADEDIF
 70
    70
  9
$TILEMODE
 70
     1
  9
$MAXACTVP
 70
    16
  9
$PINSBASE
 10
0.0
 20
0.0
 30
0.0
  9
$PLIMCHECK
 70
     0
  9
$PEXTMIN
 10
0.0
 20
0.0
 30
0.0
  9
$PEXTMAX
 10
420.0
 20
297.0
 30
0.0
  9
$PLIMMIN
 10
0.0
 20
0.0
  9
$PLIMMAX
 10
420.0
 20
297.0
  9
$UNITMODE
 70
     0
  9
$VISRETAIN
 70
     0
  9
$PLINEGEN
 70
     0
  9
$PSLTSCALE
 70
     1
  9
$TREEDEPTH
 70
  3020
  9
$CMLSTYLE
  2
STANDARD
  9
$CMLJUST
 70
     0
  9
$CMLSCALE
 40
1.0
  9
$PROXYGRAPHICS
 70
     1
  9
$MEASUREMENT
 70
     1
  9
$CELWEIGHT
370
    -1
  9
$ENDCAPS
280
     0
  9
$JOINSTYLE
280
     0
  9
$LWDISPLAY
290
     0
  9
$INSUNITS
 70
     0
  9
$HYPERLINKBASE
  1

  9
$STYLESHEET
  1
print.ctb
  9
$XEDIT
290
     1
  9
$CEPSNTYPE
380
     0
  9
$PSTYLEMODE
290
     1
  9
$FINGERPRINTGUID
  2
{FF3C30AF-89FB-45B1-9067-596B98B489D4}
  9
$VERSIONGUID
  2
{D3CBDC3B-D3FE-4AFE-A776-89ADD40E9EFD}
  9
$EXTNAMES
290
     1
  9
$PSVPSCALE
 40
0.0
  9
$OLESTARTUP
290
     0
  0
ENDSEC
  0
SECTION
  2
CLASSES
  0
CLASS
  1
ACDBDICTIONARYWDFLT
  2
AcDbDictionaryWithDefault
  3
ObjectDBX Classes
 90
        0
280
     0
281
     0
  0
CLASS
  1
ACDBPLACEHOLDER
  2
AcDbPlaceHolder
  3
ObjectDBX Classes
 90
        0
280
     0
281
     0
  0
CLASS
  1
LAYOUT
  2
AcDbLayout
  3
ObjectDBX Classes
 90
        0
280
     0
281
     0
  0
CLASS
  1
DUMMY
  2
AcDbLongTransaction
  3
DUMMY
 90
        0
280
     0
281
     0
  0
CLASS
  1
LWPOLYLINE
  2
AcDbPolyline
  3
AutoCAD 2000
 90
        0
280
     0
281
     1
  0
CLASS
  1
HATCH
  2
AcDbHatch
  3
AutoCAD 2000
 90
        0
280
     0
281
     1
  0
CLASS
  1
XRECORD
  2
AcDbXrecord
  3
AutoCAD 2000
 90
        0
280
     0
281
     0
  0
CLASS
  1
DUMMY
  2
AcDbLongTransaction
  3
DUMMY
 90
        0
280
     0
281
     0
  0
CLASS
  1
LWPOLYLINE
  2
AcDbPolyline
  3
AutoCAD 2000
 90
        0
280
     0
281
     1
  0
CLASS
  1
HATCH
  2
AcDbHatch
  3
AutoCAD 2000
 90
        0
280
     0
281
     1
  0
CLASS
  1
XRECORD
  2
AcDbXrecord
  3
AutoCAD 2000
 90
        0
280
     0
281
     0
  0
CLASS
  1
DUMMY
  2
AcDbLongTransaction
  3
DUMMY
 90
        0
280
     0
281
     0
  0
CLASS
  1
LWPOLYLINE
  2
AcDbPolyline
  3
AutoCAD 2000
 90
        0
280
     0
281
     1
  0
CLASS
  1
HATCH
  2
AcDbHatch
  3
AutoCAD 2000
 90
        0
280
     0
281
     1
  0
CLASS
  1
XRECORD
  2
AcDbXrecord
  3
AutoCAD 2000
 90
        0
280
     0
281
     0
  0
CLASS
  1
DUMMY
  2
AcDbLongTransaction
  3
DUMMY
 90
        0
280
     0
281
     0
  0
CLASS
  1
LWPOLYLINE
  2
AcDbPolyline
  3
AutoCAD 2000
 90
        0
280
     0
281
     1
  0
CLASS
  1
HATCH
  2
AcDbHatch
  3
AutoCAD 2000
 90
        0
280
     0
281
     1
  0
CLASS
  1
XRECORD
  2
AcDbXrecord
  3
AutoCAD 2000
 90
        0
280
     0
281
     0
  0
CLASS
  1
DUMMY
  2
AcDbLongTransaction
  3
DUMMY
 90
        0
280
     0
281
     0
  0
CLASS
  1
LWPOLYLINE
  2
AcDbPolyline
  3
AutoCAD 2000
 90
        0
280
     0
281
     1
  0
CLASS
  1
HATCH
  2
AcDbHatch
  3
AutoCAD 2000
 90
        0
280
     0
281
     1
  0
CLASS
  1
XRECORD
  2
AcDbXrecord
  3
AutoCAD 2000
 90
        0
280
     0
281
     0
  0
ENDSEC
  0
SECTION
  2
TABLES
  0
TABLE
  2
VPORT
  5
8
330
0
100
AcDbSymbolTable
 70
     2
  0
VPORT
  5
1E3B
330
8
100
AcDbSymbolTableRecord
100
AcDbViewportTableRecord
  2
*Active
 70
     0
 10
0.0
 20
0.0
 11
1.0
 21
1.0
 12
407.7820726536925
 22
300.8893747154602
 13
0.0
 23
0.0
 14
5.0
 24
5.0
 15
0.0
 25
0.0
 16
0.0
 26
0.0
 36
1.0
 17
0.0
 27
0.0
 37
0.0
 40
637.3186053173736
 41
1.651537335285505
 42
50.0
 43
0.0
 44
0.0
 50
0.0
 51
0.0
 71
     0
 72
   100
 73
     1
 74
     0
 75
     0
 76
     0
 77
     0
 78
     0
281
     0
 65
     1
110
0.0
120
0.0
130
0.0
111
1.0
121
0.0
131
0.0
112
0.0
122
1.0
132
0.0
 79
     0
146
0.0
  0
ENDTAB
  0
TABLE
  2
LTYPE
  5
5
330
0
100
AcDbSymbolTable
 70
     2
  0
LTYPE
  5
14
330
5
100
AcDbSymbolTableRecord
100
AcDbLinetypeTableRecord
  2
BYBLOCK
 70
     0
  3

 72
    65
 73
     0
 40
0.0
  0
LTYPE
  5
15
330
5
100
AcDbSymbolTableRecord
100
AcDbLinetypeTableRecord
  2
BYLAYER
 70
     0
  3

 72
    65
 73
     0
 40
0.0
  0
LTYPE
  5
16
330
5
100
AcDbSymbolTableRecord
100
AcDbLinetypeTableRecord
  2
CONTINUOUS
 70
     0
  3
Solid line
 72
    65
 73
     0
 40
0.0
  0
LTYPE
  5
135
330
5
100
AcDbSymbolTableRecord
100
AcDbLinetypeTableRecord
  2
CENTER
 70
     0
  3
____ _ ____ _ ____ _ ____ _ ____ _ ____ _ ____ 
 72
    65
 73
     4
 40
2.0
 49
1.25
 74
     0
 49
-0.25
 74
     0
 49
0.25
 74
     0
 49
-0.25
 74
     0
  0
ENDTAB
  0
TABLE
  2
LAYER
  5
2
330
0
100
AcDbSymbolTable
 70
     8
  0
LAYER
  5
F
330
2
100
AcDbSymbolTableRecord
100
AcDbLayerTableRecord
  2
0
 70
     0
 62
     7
  6
CONTINUOUS
370
    -3
390
85E
  0
LAYER
  5
62
330
2
100
AcDbSymbolTableRecord
100
AcDbLayerTableRecord
  2
VIEWPORT
 70
     0
 62
     7
  6
CONTINUOUS
370
    -3
390
85E
  0
LAYER
  5
65
330
2
100
AcDbSymbolTableRecord
100
AcDbLayerTableRecord
  2
ZUWAKU
 70
     0
 62
     7
  6
CONTINUOUS
370
    -3
390
85E
  0
LAYER
  5
145
330
2
100
AcDbSymbolTableRecord
100
AcDbLayerTableRecord
  2
SEIHIN
 70
     0
 62
     3
  6
CONTINUOUS
370
    -3
390
85E
  0
LAYER
  5
146
330
2
100
AcDbSymbolTableRecord
100
AcDbLayerTableRecord
  2
SUNPOU
 70
     0
 62
     4
  6
CONTINUOUS
370
    -3
390
85E
  0
LAYER
  5
147
330
2
100
AcDbSymbolTableRecord
100
AcDbLayerTableRecord
  2
CENTER L
 70
     0
 62
     1
  6
CENTER
370
    -3
390
85E
  0
LAYER
  5
381
330
2
100
AcDbSymbolTableRecord
100
AcDbLayerTableRecord
  2
DEFPOINTS
 70
     0
 62
     7
  6
CONTINUOUS
290
     0
370
    -3
390
85E
  0
LAYER
  5
154D
330
2
100
AcDbSymbolTableRecord
100
AcDbLayerTableRecord
  2
MOJI
 70
     0
 62
     2
  6
CONTINUOUS
370
    -3
390
85E
  0
ENDTAB
  0
TABLE
  2
STYLE
  5
3
330
0
100
AcDbSymbolTable
 70
     2
  0
STYLE
  5
10
330
3
100
AcDbSymbolTableRecord
100
AcDbTextStyleTableRecord
  2
STANDARD
 70
     0
 40
0.0
 41
1.0
 50
0.0
 71
     0
 42
5.0
  3
TXT
  4
bigfont.shx
  0
STYLE
  5
154E
330
3
100
AcDbSymbolTableRecord
100
AcDbTextStyleTableRecord
  2
ｽﾀｲﾙ1
 70
     0
 40
0.0
 41
1.0
 50
0.0
 71
     0
 42
2.5
  3
MS PGothic.ttf
  4

1001
ACAD
1000
MS PGothic
1071
    32818
  0
ENDTAB
  0
TABLE
  2
VIEW
  5
6
330
0
100
AcDbSymbolTable
 70
     0
  0
ENDTAB
  0
TABLE
  2
UCS
  5
7
330
0
100
AcDbSymbolTable
 70
     0
  0
ENDTAB
  0
TABLE
  2
APPID
  5
9
330
0
100
AcDbSymbolTable
 70
     1
  0
APPID
  5
11
330
9
100
AcDbSymbolTableRecord
100
AcDbRegAppTableRecord
  2
ACAD
 70
     0
  0
ENDTAB
  0
TABLE
  2
DIMSTYLE
  5
A
330
0
100
AcDbSymbolTable
 70
     1
100
AcDbDimStyleTable
  0
DIMSTYLE
105
1D
102
{ACAD_REACTORS
330
1B68
330
1B69
330
1B6A
330
1B6B
330
1B6C
330
1B6D
330
1BA0
330
1BC0
330
1BE2
330
1BE3
330
1BF4
330
1BFA
330
1C0D
102
}
330
A
100
AcDbSymbolTableRecord
100
AcDbDimStyleTableRecord
  2
STANDARD
 70
     0
340
10
  0
ENDTAB
  0
TABLE
  2
BLOCK_RECORD
  5
1
330
0
100
AcDbSymbolTable
 70
    14
  0
BLOCK_RECORD
  5
1A
330
1
100
AcDbSymbolTableRecord
100
AcDbBlockTableRecord
  2
*MODEL_SPACE
340
861
  0
BLOCK_RECORD
  5
17
330
1
100
AcDbSymbolTableRecord
100
AcDbBlockTableRecord
  2
*PAPER_SPACE
340
862
  0
BLOCK_RECORD
  5
6D
330
1
100
AcDbSymbolTableRecord
100
AcDbBlockTableRecord
  2
_OPEN
340
0
102
{BLKREFS
331
1DD8
331
1DD9
331
1DE3
331
1DE4
331
1DBD
331
1DBE
331
1E00
331
1E01
331
1DC6
331
1DC7
331
1DCF
331
1DD0
331
1DEC
331
1DED
331
1DF7
331
1DF8
331
1E09
331
1E0A
331
1E12
331
1E13
331
1E26
331
1E27
331
1E2F
331
1E30
331
1E1B
331
1E1C
102
}
  0
BLOCK_RECORD
  5
1C22
330
1
100
AcDbSymbolTableRecord
100
AcDbBlockTableRecord
  2
*D1
340
0
  0
BLOCK_RECORD
  5
1C2E
330
1
100
AcDbSymbolTableRecord
100
AcDbBlockTableRecord
  2
*D2
340
0
  0
BLOCK_RECORD
  5
1C3C
330
1
100
AcDbSymbolTableRecord
100
AcDbBlockTableRecord
  2
*D3
340
0
  0
BLOCK_RECORD
  5
1C48
330
1
100
AcDbSymbolTableRecord
100
AcDbBlockTableRecord
  2
*D4
340
0
  0
BLOCK_RECORD
  5
1C54
330
1
100
AcDbSymbolTableRecord
100
AcDbBlockTableRecord
  2
*D5
340
0
  0
BLOCK_RECORD
  5
1C60
330
1
100
AcDbSymbolTableRecord
100
AcDbBlockTableRecord
  2
*D6
340
0
  0
BLOCK_RECORD
  5
1C6C
330
1
100
AcDbSymbolTableRecord
100
AcDbBlockTableRecord
  2
*D7
340
0
  0
BLOCK_RECORD
  5
1C78
330
1
100
AcDbSymbolTableRecord
100
AcDbBlockTableRecord
  2
*D8
340
0
  0
BLOCK_RECORD
  5
1C86
330
1
100
AcDbSymbolTableRecord
100
AcDbBlockTableRecord
  2
*D9
340
0
  0
BLOCK_RECORD
  5
1C92
330
1
100
AcDbSymbolTableRecord
100
AcDbBlockTableRecord
  2
*D10
340
0
  0
BLOCK_RECORD
  5
1C9E
330
1
100
AcDbSymbolTableRecord
100
AcDbBlockTableRecord
  2
*D11
340
0
  0
BLOCK_RECORD
  5
1CAC
330
1
100
AcDbSymbolTableRecord
100
AcDbBlockTableRecord
  2
*D12
340
0
  0
BLOCK_RECORD
  5
1CB8
330
1
100
AcDbSymbolTableRecord
100
AcDbBlockTableRecord
  2
*D13
340
0
  0
ENDTAB
  0
ENDSEC
  0
SECTION
  2
BLOCKS
  0
BLOCK
  5
1B
330
1A
100
AcDbEntity
  8
0
100
AcDbBlockBegin
  2
*MODEL_SPACE
 70
     0
 71
     0
 10
0.0
 20
0.0
 30
0.0
  3
*MODEL_SPACE
  1

  0
ENDBLK
  5
1C
330
1A
100
AcDbEntity
  8
0
100
AcDbBlockEnd
  0
BLOCK
  5
18
330
17
100
AcDbEntity
 67
     1
  8
0
100
AcDbBlockBegin
  2
*PAPER_SPACE
 70
     0
 71
     0
 10
0.0
 20
0.0
 30
0.0
  3
*PAPER_SPACE
  1

  0
ENDBLK
  5
19
330
17
100
AcDbEntity
 67
     1
  8
0
100
AcDbBlockEnd
  0
BLOCK
  5
6E
330
6D
100
AcDbEntity
  8
0
100
AcDbBlockBegin
  2
_OPEN
 70
     0
 71
     0
 10
0.0
 20
0.0
 30
0.0
  3
_OPEN
  1

  0
LINE
  5
6F
330
6D
100
AcDbEntity
  8
0
  6
ByBlock
 62
     0
100
AcDbLine
 10
-1.0
 20
0.1666666666666667
 30
0.0
 11
0.0
 21
0.0
 31
0.0
  0
LINE
  5
70
330
6D
100
AcDbEntity
  8
0
  6
ByBlock
 62
     0
100
AcDbLine
 10
0.0
 20
0.0
 30
0.0
 11
-1.0
 21
-0.1666666666666667
 31
0.0
  0
LINE
  5
71
330
6D
100
AcDbEntity
  8
0
  6
ByBlock
 62
     0
100
AcDbLine
 10
0.0
 20
0.0
 30
0.0
 11
-1.0
 21
0.0
 31
0.0
  0
ENDBLK
  5
72
330
6D
100
AcDbEntity
  8
0
100
AcDbBlockEnd
  0
BLOCK
  5
1C2C
330
1C22
100
AcDbEntity
  8
0
100
AcDbBlockBegin
  2
*D1
 70
     1
 71
     0
 10
0.0
 20
0.0
 30
0.0
  3
*D1
  1

  0
LINE
  5
1DD5
330
1C22
100
AcDbEntity
  8
SUNPOU
 62
     4
370
    -2
100
AcDbLine
 10
385.9749308008506
 20
256.3702751084347
 30
0.0
 11
415.6345593402916
 21
256.3702751084347
 31
0.0
  0
LINE
  5
1DD6
330
1C22
100
AcDbEntity
  8
SUNPOU
 62
     4
370
    -2
100
AcDbLine
 10
385.9748308008507
 20
190.3702751084347
 30
0.0
 11
415.6345593402916
 21
190.3702751084347
 31
0.0
  0
LINE
  5
1DD7
330
1C22
100
AcDbEntity
  8
SUNPOU
 62
     4
370
    -2
100
AcDbLine
 10
412.6345593402916
 20
249.3702751084347
 30
0.0
 11
412.6345593402916
 21
197.3702751084347
 31
0.0
  0
INSERT
  5
1DD8
330
1C22
100
AcDbEntity
  8
SUNPOU
 62
     4
370
    -2
100
AcDbBlockReference
  2
_OPEN
 10
412.6345593402916
 20
256.3702751084347
 30
0.0
 41
7.0
 42
7.0
 43
7.0
 50
90.0
  0
INSERT
  5
1DD9
330
1C22
100
AcDbEntity
  8
SUNPOU
 62
     4
370
    -2
100
AcDbBlockReference
  2
_OPEN
 10
412.6345593402916
 20
190.3702751084347
 30
0.0
 41
7.0
 42
7.0
 43
7.0
 50
270.0
  0
MTEXT
  5
1DDA
330
1C22
100
AcDbEntity
  8
SUNPOU
 62
     4
100
AcDbMText
 10
407.6345593402916
 20
223.3702751084348
 30
0.0
 40
6.0
 41
0.0
 71
     5
 72
     1
  1
\A1;66
 11
6.123031769111886E-17
 21
1.0
 31
0.0
 73
     1
 44
1.0
  0
POINT
  5
1DDB
330
1C22
100
AcDbEntity
  8
DEFPOINTS
 62
     0
100
AcDbPoint
 10
379.9749308008506
 20
256.3702751084347
 30
0.0
  0
POINT
  5
1DDC
330
1C22
100
AcDbEntity
  8
DEFPOINTS
 62
     0
100
AcDbPoint
 10
379.9748308008507
 20
190.3702751084347
 30
0.0
  0
POINT
  5
1DDD
330
1C22
100
AcDbEntity
  8
DEFPOINTS
 62
     0
100
AcDbPoint
 10
412.6345593402916
 20
190.3702751084347
 30
0.0
  0
ENDBLK
  5
1C2D
330
1C22
100
AcDbEntity
  8
0
100
AcDbBlockEnd
  0
BLOCK
  5
1C3A
330
1C2E
100
AcDbEntity
  8
0
100
AcDbBlockBegin
  2
*D2
 70
     1
 71
     0
 10
0.0
 20
0.0
 30
0.0
  3
*D2
  1

  0
LINE
  5
1DDE
330
1C2E
100
AcDbEntity
  8
SUNPOU
 62
     4
370
    -2
100
AcDbLine
 10
379.9748308008507
 20
184.3702751084347
 30
0.0
 11
379.9748308008507
 21
155.6699570795915
 31
0.0
  0
LINE
  5
1DDF
330
1C2E
100
AcDbEntity
  8
SUNPOU
 62
     4
370
    -2
100
AcDbLine
 10
373.9749308008506
 20
186.3702751084347
 30
0.0
 11
373.9749308008506
 21
155.6699570795915
 31
0.0
  0
LINE
  5
1DE0
330
1C2E
100
AcDbEntity
  8
SUNPOU
 62
     4
370
    -2
100
AcDbLine
 10
366.9749308008506
 20
158.6699570795915
 30
0.0
 11
359.9749308008506
 21
158.6699570795915
 31
0.0
  0
LINE
  5
1DE1
330
1C2E
100
AcDbEntity
  8
SUNPOU
 62
     4
370
    -2
100
AcDbLine
 10
386.9748308008507
 20
158.6699570795915
 30
0.0
 11
414.9748308008507
 21
158.6699570795915
 31
0.0
  0
LINE
  5
1DE2
330
1C2E
100
AcDbEntity
  8
SUNPOU
 62
     4
370
    -2
100
AcDbLine
 10
373.9749308008506
 20
158.6699570795915
 30
0.0
 11
379.9748308008507
 21
158.6699570795915
 31
0.0
  0
INSERT
  5
1DE3
330
1C2E
100
AcDbEntity
  8
SUNPOU
 62
     4
370
    -2
100
AcDbBlockReference
  2
_OPEN
 10
373.9749308008506
 20
158.6699570795915
 30
0.0
 41
7.0
 42
7.0
 43
7.0
  0
INSERT
  5
1DE4
330
1C2E
100
AcDbEntity
  8
SUNPOU
 62
     4
370
    -2
100
AcDbBlockReference
  2
_OPEN
 10
379.9748308008507
 20
158.6699570795915
 30
0.0
 41
7.0
 42
7.0
 43
7.0
 50
180.0
  0
MTEXT
  5
1DE5
330
1C2E
100
AcDbEntity
  8
SUNPOU
 62
     4
100
AcDbMText
 10
404.4748308008507
 20
163.6699570795915
 30
0.0
 40
6.0
 41
0.0
 71
     5
 72
     1
  1
\A1;t6.0
 73
     1
 44
1.0
  0
POINT
  5
1DE6
330
1C2E
100
AcDbEntity
  8
DEFPOINTS
 62
     0
100
AcDbPoint
 10
379.9748308008507
 20
190.3702751084347
 30
0.0
  0
POINT
  5
1DE7
330
1C2E
100
AcDbEntity
  8
DEFPOINTS
 62
     0
100
AcDbPoint
 10
373.9749308008506
 20
192.3702751084347
 30
0.0
  0
POINT
  5
1DE8
330
1C2E
100
AcDbEntity
  8
DEFPOINTS
 62
     0
100
AcDbPoint
 10
373.9749308008506
 20
158.6699570795915
 30
0.0
  0
ENDBLK
  5
1C3B
330
1C2E
100
AcDbEntity
  8
0
100
AcDbBlockEnd
  0
BLOCK
  5
1C46
330
1C3C
100
AcDbEntity
  8
0
100
AcDbBlockBegin
  2
*D3
 70
     1
 71
     0
 10
0.0
 20
0.0
 30
0.0
  3
*D3
  1

  0
LINE
  5
1DBA
330
1C3C
100
AcDbEntity
  8
SUNPOU
 62
     4
370
    -2
100
AcDbLine
 10
385.9750308008506
 20
418.8703751084346
 30
0.0
 11
433.5264095979151
 21
418.8703751084346
 31
0.0
  0
LINE
  5
1DBB
330
1C3C
100
AcDbEntity
  8
SUNPOU
 62
     4
370
    -2
100
AcDbLine
 10
385.9748308008507
 20
353.8703751084345
 30
0.0
 11
433.5264095979151
 21
353.8703751084345
 31
0.0
  0
LINE
  5
1DBC
330
1C3C
100
AcDbEntity
  8
SUNPOU
 62
     4
370
    -2
100
AcDbLine
 10
430.5264095979151
 20
411.8703751084346
 30
0.0
 11
430.5264095979151
 21
360.8703751084345
 31
0.0
  0
INSERT
  5
1DBD
330
1C3C
100
AcDbEntity
  8
SUNPOU
 62
     4
370
    -2
100
AcDbBlockReference
  2
_OPEN
 10
430.5264095979151
 20
418.8703751084346
 30
0.0
 41
7.0
 42
7.0
 43
7.0
 50
90.0
  0
INSERT
  5
1DBE
330
1C3C
100
AcDbEntity
  8
SUNPOU
 62
     4
370
    -2
100
AcDbBlockReference
  2
_OPEN
 10
430.5264095979151
 20
353.8703751084345
 30
0.0
 41
7.0
 42
7.0
 43
7.0
 50
270.0
  0
MTEXT
  5
1DBF
330
1C3C
100
AcDbEntity
  8
SUNPOU
 62
     4
100
AcDbMText
 10
425.526409597915
 20
386.3703751084347
 30
0.0
 40
6.0
 41
0.0
 71
     5
 72
     1
  1
\A1;65
 11
6.123031769111886E-17
 21
1.0
 31
0.0
 73
     1
 44
1.0
  0
POINT
  5
1DC0
330
1C3C
100
AcDbEntity
  8
DEFPOINTS
 62
     0
100
AcDbPoint
 10
379.9750308008506
 20
418.8703751084346
 30
0.0
  0
POINT
  5
1DC1
330
1C3C
100
AcDbEntity
  8
DEFPOINTS
 62
     0
100
AcDbPoint
 10
379.9748308008507
 20
353.8703751084346
 30
0.0
  0
POINT
  5
1DC2
330
1C3C
100
AcDbEntity
  8
DEFPOINTS
 62
     0
100
AcDbPoint
 10
430.5264095979151
 20
353.8703751084345
 30
0.0
  0
ENDBLK
  5
1C47
330
1C3C
100
AcDbEntity
  8
0
100
AcDbBlockEnd
  0
BLOCK
  5
1C52
330
1C48
100
AcDbEntity
  8
0
100
AcDbBlockBegin
  2
*D4
 70
     1
 71
     0
 10
0.0
 20
0.0
 30
0.0
  3
*D4
  1

  0
LINE
  5
1DFD
330
1C48
100
AcDbEntity
  8
SUNPOU
 62
     4
370
    -2
100
AcDbLine
 10
379.9749184639489
 20
399.6148653265929
 30
0.0
 11
415.6345593402917
 21
399.6148653265929
 31
0.0
  0
LINE
  5
1DFE
330
1C48
100
AcDbEntity
  8
SUNPOU
 62
     4
370
    -2
100
AcDbLine
 10
379.9749308008506
 20
373.1258844268985
 30
0.0
 11
415.6345593402916
 21
373.1258844268984
 31
0.0
  0
LINE
  5
1DFF
330
1C48
100
AcDbEntity
  8
SUNPOU
 62
     4
370
    -2
100
AcDbLine
 10
412.6345593402917
 20
392.6148653265929
 30
0.0
 11
412.6345593402916
 21
380.1258844268984
 31
0.0
  0
INSERT
  5
1E00
330
1C48
100
AcDbEntity
  8
SUNPOU
 62
     4
370
    -2
100
AcDbBlockReference
  2
_OPEN
 10
412.6345593402917
 20
399.6148653265929
 30
0.0
 41
7.0
 42
7.0
 43
7.0
 50
90.0
  0
INSERT
  5
1E01
330
1C48
100
AcDbEntity
  8
SUNPOU
 62
     4
370
    -2
100
AcDbBlockReference
  2
_OPEN
 10
412.6345593402916
 20
373.1258844268984
 30
0.0
 41
7.0
 42
7.0
 43
7.0
 50
270.0
  0
MTEXT
  5
1E02
330
1C48
100
AcDbEntity
  8
SUNPOU
 62
     4
100
AcDbMText
 10
407.6345593402916
 20
386.3703748767458
 30
0.0
 40
6.0
 41
0.0
 71
     5
 72
     1
  1
\A1;26
 11
6.123031769111886E-17
 21
1.0
 31
0.0
 73
     1
 44
1.0
  0
POINT
  5
1E03
330
1C48
100
AcDbEntity
  8
DEFPOINTS
 62
     0
100
AcDbPoint
 10
373.9749184639489
 20
399.6148653265929
 30
0.0
  0
POINT
  5
1E04
330
1C48
100
AcDbEntity
  8
DEFPOINTS
 62
     0
100
AcDbPoint
 10
373.9749308008506
 20
373.1258844268985
 30
0.0
  0
POINT
  5
1E05
330
1C48
100
AcDbEntity
  8
DEFPOINTS
 62
     0
100
AcDbPoint
 10
412.6345593402916
 20
373.1258844268984
 30
0.0
  0
ENDBLK
  5
1C53
330
1C48
100
AcDbEntity
  8
0
100
AcDbBlockEnd
  0
BLOCK
  5
1C5E
330
1C54
100
AcDbEntity
  8
0
100
AcDbBlockBegin
  2
*D5
 70
     1
 71
     0
 10
0.0
 20
0.0
 30
0.0
  3
*D5
  1

  0
LINE
  5
1DC3
330
1C54
100
AcDbEntity
  8
SUNPOU
 62
     4
370
    -2
100
AcDbLine
 10
237.9749308008505
 20
261.8704751084347
 30
0.0
 11
237.9749308008505
 21
300.4561992837857
 31
0.0
  0
LINE
  5
1DC4
330
1C54
100
AcDbEntity
  8
SUNPOU
 62
     4
370
    -2
100
AcDbLine
 10
379.9749308008506
 20
262.3702751084347
 30
0.0
 11
379.9749308008506
 21
300.4561992837857
 31
0.0
  0
LINE
  5
1DC5
330
1C54
100
AcDbEntity
  8
SUNPOU
 62
     4
370
    -2
100
AcDbLine
 10
244.9749308008505
 20
297.4561992837857
 30
0.0
 11
372.9749308008506
 21
297.4561992837857
 31
0.0
  0
INSERT
  5
1DC6
330
1C54
100
AcDbEntity
  8
SUNPOU
 62
     4
370
    -2
100
AcDbBlockReference
  2
_OPEN
 10
237.9749308008505
 20
297.4561992837857
 30
0.0
 41
7.0
 42
7.0
 43
7.0
 50
180.0
  0
INSERT
  5
1DC7
330
1C54
100
AcDbEntity
  8
SUNPOU
 62
     4
370
    -2
100
AcDbBlockReference
  2
_OPEN
 10
379.9749308008506
 20
297.4561992837857
 30
0.0
 41
7.0
 42
7.0
 43
7.0
  0
MTEXT
  5
1DC8
330
1C54
100
AcDbEntity
  8
SUNPOU
 62
     4
100
AcDbMText
 10
308.9749308008506
 20
302.4561992837857
 30
0.0
 40
6.0
 41
0.0
 71
     5
 72
     1
  1
\A1;142
 73
     1
 44
1.0
  0
POINT
  5
1DC9
330
1C54
100
AcDbEntity
  8
DEFPOINTS
 62
     0
100
AcDbPoint
 10
237.9749308008505
 20
255.8704751084347
 30
0.0
  0
POINT
  5
1DCA
330
1C54
100
AcDbEntity
  8
DEFPOINTS
 62
     0
100
AcDbPoint
 10
379.9749308008506
 20
256.3702751084347
 30
0.0
  0
POINT
  5
1DCB
330
1C54
100
AcDbEntity
  8
DEFPOINTS
 62
     0
100
AcDbPoint
 10
379.9749308008506
 20
297.4561992837857
 30
0.0
  0
ENDBLK
  5
1C5F
330
1C54
100
AcDbEntity
  8
0
100
AcDbBlockEnd
  0
BLOCK
  5
1C6A
330
1C60
100
AcDbEntity
  8
0
100
AcDbBlockBegin
  2
*D6
 70
     1
 71
     0
 10
0.0
 20
0.0
 30
0.0
  3
*D6
  1

  0
LINE
  5
1DCC
330
1C60
100
AcDbEntity
  8
SUNPOU
 62
     4
370
    -2
100
AcDbLine
 10
233.4749308008506
 20
257.3704751084347
 30
0.0
 11
203.2158226274716
 21
257.3704751084347
 31
0.0
  0
LINE
  5
1DCD
330
1C60
100
AcDbEntity
  8
SUNPOU
 62
     4
370
    -2
100
AcDbLine
 10
369.9748308008507
 20
190.3702751084347
 30
0.0
 11
203.2158226274716
 21
190.3702751084347
 31
0.0
  0
LINE
  5
1DCE
330
1C60
100
AcDbEntity
  8
SUNPOU
 62
     4
370
    -2
100
AcDbLine
 10
206.2158226274716
 20
250.3704751084347
 30
0.0
 11
206.2158226274716
 21
197.3702751084347
 31
0.0
  0
INSERT
  5
1DCF
330
1C60
100
AcDbEntity
  8
SUNPOU
 62
     4
370
    -2
100
AcDbBlockReference
  2
_OPEN
 10
206.2158226274716
 20
257.3704751084347
 30
0.0
 41
7.0
 42
7.0
 43
7.0
 50
90.0
  0
INSERT
  5
1DD0
330
1C60
100
AcDbEntity
  8
SUNPOU
 62
     4
370
    -2
100
AcDbBlockReference
  2
_OPEN
 10
206.2158226274716
 20
190.3702751084347
 30
0.0
 41
7.0
 42
7.0
 43
7.0
 50
270.0
  0
MTEXT
  5
1DD1
330
1C60
100
AcDbEntity
  8
SUNPOU
 62
     4
100
AcDbMText
 10
201.2158226274715
 20
223.8703751084348
 30
0.0
 40
6.0
 41
0.0
 71
     5
 72
     1
  1
\A1;67
 11
6.123031769111886E-17
 21
1.0
 31
0.0
 73
     1
 44
1.0
  0
POINT
  5
1DD2
330
1C60
100
AcDbEntity
  8
DEFPOINTS
 62
     0
100
AcDbPoint
 10
239.4749308008506
 20
257.3704751084347
 30
0.0
  0
POINT
  5
1DD3
330
1C60
100
AcDbEntity
  8
DEFPOINTS
 62
     0
100
AcDbPoint
 10
375.9748308008507
 20
190.3702751084347
 30
0.0
  0
POINT
  5
1DD4
330
1C60
100
AcDbEntity
  8
DEFPOINTS
 62
     0
100
AcDbPoint
 10
206.2158226274716
 20
190.3702751084347
 30
0.0
  0
ENDBLK
  5
1C6B
330
1C60
100
AcDbEntity
  8
0
100
AcDbBlockEnd
  0
BLOCK
  5
1C76
330
1C6C
100
AcDbEntity
  8
0
100
AcDbBlockBegin
  2
*D7
 70
     1
 71
     0
 10
0.0
 20
0.0
 30
0.0
  3
*D7
  1

  0
LINE
  5
1DE9
330
1C6C
100
AcDbEntity
  8
SUNPOU
 62
     4
370
    -2
100
AcDbLine
 10
359.6249308008507
 20
245.6704751084347
 30
0.0
 11
359.6249308008507
 21
284.94380998219
 31
0.0
  0
LINE
  5
1DEA
330
1C6C
100
AcDbEntity
  8
SUNPOU
 62
     4
370
    -2
100
AcDbLine
 10
379.9749308008506
 20
262.3702751084347
 30
0.0
 11
379.9749308008506
 21
284.94380998219
 31
0.0
  0
LINE
  5
1DEB
330
1C6C
100
AcDbEntity
  8
SUNPOU
 62
     4
370
    -2
100
AcDbLine
 10
366.6249308008507
 20
281.94380998219
 30
0.0
 11
372.9749308008506
 21
281.94380998219
 31
0.0
  0
INSERT
  5
1DEC
330
1C6C
100
AcDbEntity
  8
SUNPOU
 62
     4
370
    -2
100
AcDbBlockReference
  2
_OPEN
 10
359.6249308008507
 20
281.94380998219
 30
0.0
 41
7.0
 42
7.0
 43
7.0
 50
180.0
  0
INSERT
  5
1DED
330
1C6C
100
AcDbEntity
  8
SUNPOU
 62
     4
370
    -2
100
AcDbBlockReference
  2
_OPEN
 10
379.9749308008506
 20
281.94380998219
 30
0.0
 41
7.0
 42
7.0
 43
7.0
  0
MTEXT
  5
1DEE
330
1C6C
100
AcDbEntity
  8
SUNPOU
 62
     4
100
AcDbMText
 10
369.7999308008507
 20
286.94380998219
 30
0.0
 40
6.0
 41
0.0
 71
     5
 72
     1
  1
\A1;20
 73
     1
 44
1.0
  0
POINT
  5
1DEF
330
1C6C
100
AcDbEntity
  8
DEFPOINTS
 62
     0
100
AcDbPoint
 10
359.6249308008507
 20
239.6704751084347
 30
0.0
  0
POINT
  5
1DF0
330
1C6C
100
AcDbEntity
  8
DEFPOINTS
 62
     0
100
AcDbPoint
 10
379.9749308008506
 20
256.3702751084347
 30
0.0
  0
POINT
  5
1DF1
330
1C6C
100
AcDbEntity
  8
DEFPOINTS
 62
     0
100
AcDbPoint
 10
379.9749308008506
 20
281.94380998219
 30
0.0
  0
ENDBLK
  5
1C77
330
1C6C
100
AcDbEntity
  8
0
100
AcDbBlockEnd
  0
BLOCK
  5
1C84
330
1C78
100
AcDbEntity
  8
0
100
AcDbBlockBegin
  2
*D8
 70
     1
 71
     0
 10
0.0
 20
0.0
 30
0.0
  3
*D8
  1

  0
LINE
  5
1DF2
330
1C78
100
AcDbEntity
  8
SUNPOU
 62
     4
370
    -2
100
AcDbLine
 10
234.9749308008505
 20
393.8705751084347
 30
0.0
 11
202.0491559608049
 21
393.8705751084347
 31
0.0
  0
LINE
  5
1DF3
330
1C78
100
AcDbEntity
  8
SUNPOU
 62
     4
370
    -2
100
AcDbLine
 10
234.974874197077
 20
378.8705751086483
 30
0.0
 11
202.0491559608049
 21
378.8705751086483
 31
0.0
  0
LINE
  5
1DF4
330
1C78
100
AcDbEntity
  8
SUNPOU
 62
     4
370
    -2
100
AcDbLine
 10
205.0491559608049
 20
400.8705751084347
 30
0.0
 11
205.0491559608049
 21
407.8705751084347
 31
0.0
  0
LINE
  5
1DF5
330
1C78
100
AcDbEntity
  8
SUNPOU
 62
     4
370
    -2
100
AcDbLine
 10
205.0491559608049
 20
371.8705751086483
 30
0.0
 11
205.0491559608049
 21
364.8705751086483
 31
0.0
  0
LINE
  5
1DF6
330
1C78
100
AcDbEntity
  8
SUNPOU
 62
     4
370
    -2
100
AcDbLine
 10
205.0491559608049
 20
393.8705751084347
 30
0.0
 11
205.0491559608049
 21
378.8705751086483
 31
0.0
  0
INSERT
  5
1DF7
330
1C78
100
AcDbEntity
  8
SUNPOU
 62
     4
370
    -2
100
AcDbBlockReference
  2
_OPEN
 10
205.0491559608049
 20
393.8705751084347
 30
0.0
 41
7.0
 42
7.0
 43
7.0
 50
270.0
  0
INSERT
  5
1DF8
330
1C78
100
AcDbEntity
  8
SUNPOU
 62
     4
370
    -2
100
AcDbBlockReference
  2
_OPEN
 10
205.0491559608049
 20
378.8705751086483
 30
0.0
 41
7.0
 42
7.0
 43
7.0
 50
90.0
  0
MTEXT
  5
1DF9
330
1C78
100
AcDbEntity
  8
SUNPOU
 62
     4
100
AcDbMText
 10
200.0491559608049
 20
386.3705751085415
 30
0.0
 40
6.0
 41
0.0
 71
     5
 72
     1
  1
\A1;15
 11
6.123031769111886E-17
 21
1.0
 31
0.0
 73
     1
 44
1.0
  0
POINT
  5
1DFA
330
1C78
100
AcDbEntity
  8
DEFPOINTS
 62
     0
100
AcDbPoint
 10
240.9749308008505
 20
393.8705751084347
 30
0.0
  0
POINT
  5
1DFB
330
1C78
100
AcDbEntity
  8
DEFPOINTS
 62
     0
100
AcDbPoint
 10
240.974874197077
 20
378.8705751086483
 30
0.0
  0
POINT
  5
1DFC
330
1C78
100
AcDbEntity
  8
DEFPOINTS
 62
     0
100
AcDbPoint
 10
205.0491559608049
 20
378.8705751086483
 30
0.0
  0
ENDBLK
  5
1C85
330
1C78
100
AcDbEntity
  8
0
100
AcDbBlockEnd
  0
BLOCK
  5
1C90
330
1C86
100
AcDbEntity
  8
0
100
AcDbBlockBegin
  2
*D9
 70
     1
 71
     0
 10
0.0
 20
0.0
 30
0.0
  3
*D9
  1

  0
LINE
  5
1E06
330
1C86
100
AcDbEntity
  8
SUNPOU
 62
     4
370
    -2
100
AcDbLine
 10
502.4749308008505
 20
240.3702751084346
 30
0.0
 11
502.4749308008505
 21
300.5284802853455
 31
0.0
  0
LINE
  5
1E07
330
1C86
100
AcDbEntity
  8
SUNPOU
 62
     4
370
    -2
100
AcDbLine
 10
567.4749308008508
 20
240.3702751084346
 30
0.0
 11
567.4749308008508
 21
300.5284802853455
 31
0.0
  0
LINE
  5
1E08
330
1C86
100
AcDbEntity
  8
SUNPOU
 62
     4
370
    -2
100
AcDbLine
 10
509.4749308008505
 20
297.5284802853455
 30
0.0
 11
560.4749308008508
 21
297.5284802853455
 31
0.0
  0
INSERT
  5
1E09
330
1C86
100
AcDbEntity
  8
SUNPOU
 62
     4
370
    -2
100
AcDbBlockReference
  2
_OPEN
 10
502.4749308008505
 20
297.5284802853455
 30
0.0
 41
7.0
 42
7.0
 43
7.0
 50
180.0
  0
INSERT
  5
1E0A
330
1C86
100
AcDbEntity
  8
SUNPOU
 62
     4
370
    -2
100
AcDbBlockReference
  2
_OPEN
 10
567.4749308008508
 20
297.5284802853455
 30
0.0
 41
7.0
 42
7.0
 43
7.0
  0
MTEXT
  5
1E0B
330
1C86
100
AcDbEntity
  8
SUNPOU
 62
     4
100
AcDbMText
 10
534.9749308008506
 20
302.5284802853455
 30
0.0
 40
6.0
 41
0.0
 71
     5
 72
     1
  1
\A1;65
 73
     1
 44
1.0
  0
POINT
  5
1E0C
330
1C86
100
AcDbEntity
  8
DEFPOINTS
 62
     0
100
AcDbPoint
 10
502.4749308008505
 20
234.3702751084346
 30
0.0
  0
POINT
  5
1E0D
330
1C86
100
AcDbEntity
  8
DEFPOINTS
 62
     0
100
AcDbPoint
 10
567.4749308008508
 20
234.3702751084346
 30
0.0
  0
POINT
  5
1E0E
330
1C86
100
AcDbEntity
  8
DEFPOINTS
 62
     0
100
AcDbPoint
 10
567.4749308008508
 20
297.5284802853455
 30
0.0
  0
ENDBLK
  5
1C91
330
1C86
100
AcDbEntity
  8
0
100
AcDbBlockEnd
  0
BLOCK
  5
1C9C
330
1C92
100
AcDbEntity
  8
0
100
AcDbBlockBegin
  2
*D10
 70
     1
 71
     0
 10
0.0
 20
0.0
 30
0.0
  3
*D10
  1

  0
LINE
  5
1E0F
330
1C92
100
AcDbEntity
  8
SUNPOU
 62
     4
370
    -2
100
AcDbLine
 10
511.4750308008506
 20
245.4098751084347
 30
0.0
 11
511.4750308008506
 21
284.3485957158171
 31
0.0
  0
LINE
  5
1E10
330
1C92
100
AcDbEntity
  8
SUNPOU
 62
     4
370
    -2
100
AcDbLine
 10
558.4748308008507
 20
245.4095751084347
 30
0.0
 11
558.4748308008507
 21
284.3485957158171
 31
0.0
  0
LINE
  5
1E11
330
1C92
100
AcDbEntity
  8
SUNPOU
 62
     4
370
    -2
100
AcDbLine
 10
518.4750308008506
 20
281.3485957158171
 30
0.0
 11
551.4748308008507
 21
281.3485957158171
 31
0.0
  0
INSERT
  5
1E12
330
1C92
100
AcDbEntity
  8
SUNPOU
 62
     4
370
    -2
100
AcDbBlockReference
  2
_OPEN
 10
511.4750308008506
 20
281.3485957158171
 30
0.0
 41
7.0
 42
7.0
 43
7.0
 50
180.0
  0
INSERT
  5
1E13
330
1C92
100
AcDbEntity
  8
SUNPOU
 62
     4
370
    -2
100
AcDbBlockReference
  2
_OPEN
 10
558.4748308008507
 20
281.3485957158171
 30
0.0
 41
7.0
 42
7.0
 43
7.0
  0
MTEXT
  5
1E14
330
1C92
100
AcDbEntity
  8
SUNPOU
 62
     4
100
AcDbMText
 10
534.9749308008506
 20
286.3485957158171
 30
0.0
 40
6.0
 41
0.0
 71
     5
 72
     1
  1
\A1;47
 73
     1
 44
1.0
  0
POINT
  5
1E15
330
1C92
100
AcDbEntity
  8
DEFPOINTS
 62
     0
100
AcDbPoint
 10
511.4750308008506
 20
239.4098751084347
 30
0.0
  0
POINT
  5
1E16
330
1C92
100
AcDbEntity
  8
DEFPOINTS
 62
     0
100
AcDbPoint
 10
558.4748308008507
 20
239.4095751084347
 30
0.0
  0
POINT
  5
1E17
330
1C92
100
AcDbEntity
  8
DEFPOINTS
 62
     0
100
AcDbPoint
 10
558.4748308008507
 20
281.3485957158171
 30
0.0
  0
ENDBLK
  5
1C9D
330
1C92
100
AcDbEntity
  8
0
100
AcDbBlockEnd
  0
BLOCK
  5
1CAA
330
1C9E
100
AcDbEntity
  8
0
100
AcDbBlockBegin
  2
*D11
 70
     1
 71
     0
 10
0.0
 20
0.0
 30
0.0
  3
*D11
  1

  0
LINE
  5
1E21
330
1C9E
100
AcDbEntity
  8
SUNPOU
 62
     4
370
    -2
100
AcDbLine
 10
524.7776308008506
 20
200.3702751084347
 30
0.0
 11
480.7400286062079
 21
200.3702751084347
 31
0.0
  0
LINE
  5
1E22
330
1C9E
100
AcDbEntity
  8
SUNPOU
 62
     4
370
    -2
100
AcDbLine
 10
528.9749308008506
 20
190.3702751084347
 30
0.0
 11
480.7400286062079
 21
190.3702751084347
 31
0.0
  0
LINE
  5
1E23
330
1C9E
100
AcDbEntity
  8
SUNPOU
 62
     4
370
    -2
100
AcDbLine
 10
483.7400286062079
 20
207.3702751084347
 30
0.0
 11
483.7400286062079
 21
214.3702751084347
 31
0.0
  0
LINE
  5
1E24
330
1C9E
100
AcDbEntity
  8
SUNPOU
 62
     4
370
    -2
100
AcDbLine
 10
483.7400286062079
 20
183.3702751084347
 30
0.0
 11
483.7400286062079
 21
165.3702751084347
 31
0.0
  0
LINE
  5
1E25
330
1C9E
100
AcDbEntity
  8
SUNPOU
 62
     4
370
    -2
100
AcDbLine
 10
483.7400286062079
 20
200.3702751084347
 30
0.0
 11
483.7400286062079
 21
190.3702751084347
 31
0.0
  0
INSERT
  5
1E26
330
1C9E
100
AcDbEntity
  8
SUNPOU
 62
     4
370
    -2
100
AcDbBlockReference
  2
_OPEN
 10
483.7400286062079
 20
200.3702751084347
 30
0.0
 41
7.0
 42
7.0
 43
7.0
 50
270.0
  0
INSERT
  5
1E27
330
1C9E
100
AcDbEntity
  8
SUNPOU
 62
     4
370
    -2
100
AcDbBlockReference
  2
_OPEN
 10
483.7400286062079
 20
190.3702751084347
 30
0.0
 41
7.0
 42
7.0
 43
7.0
 50
90.0
  0
MTEXT
  5
1E28
330
1C9E
100
AcDbEntity
  8
SUNPOU
 62
     4
100
AcDbMText
 10
478.7400286062079
 20
170.8702751084348
 30
0.0
 40
6.0
 41
0.0
 71
     5
 72
     1
  1
\A1;10
 11
6.123031769111886E-17
 21
1.0
 31
0.0
 73
     1
 44
1.0
  0
POINT
  5
1E29
330
1C9E
100
AcDbEntity
  8
DEFPOINTS
 62
     0
100
AcDbPoint
 10
530.7776308008506
 20
200.3702751084347
 30
0.0
  0
POINT
  5
1E2A
330
1C9E
100
AcDbEntity
  8
DEFPOINTS
 62
     0
100
AcDbPoint
 10
534.9749308008506
 20
190.3702751084347
 30
0.0
  0
POINT
  5
1E2B
330
1C9E
100
AcDbEntity
  8
DEFPOINTS
 62
     0
100
AcDbPoint
 10
483.7400286062079
 20
190.3702751084347
 30
0.0
  0
ENDBLK
  5
1CAB
330
1C9E
100
AcDbEntity
  8
0
100
AcDbBlockEnd
  0
BLOCK
  5
1CB6
330
1CAC
100
AcDbEntity
  8
0
100
AcDbBlockBegin
  2
*D12
 70
     1
 71
     0
 10
0.0
 20
0.0
 30
0.0
  3
*D12
  1

  0
LINE
  5
1E2C
330
1CAC
100
AcDbEntity
  8
SUNPOU
 62
     4
370
    -2
100
AcDbLine
 10
515.0251308008507
 20
256.3702751084347
 30
0.0
 11
470.663472661518
 21
256.3702751084347
 31
0.0
  0
LINE
  5
1E2D
330
1CAC
100
AcDbEntity
  8
SUNPOU
 62
     4
370
    -2
100
AcDbLine
 10
500.5403308008505
 20
234.3703751084347
 30
0.0
 11
470.663472661518
 21
234.3703751084347
 31
0.0
  0
LINE
  5
1E2E
330
1CAC
100
AcDbEntity
  8
SUNPOU
 62
     4
370
    -2
100
AcDbLine
 10
473.663472661518
 20
249.3702751084347
 30
0.0
 11
473.663472661518
 21
241.3703751084347
 31
0.0
  0
INSERT
  5
1E2F
330
1CAC
100
AcDbEntity
  8
SUNPOU
 62
     4
370
    -2
100
AcDbBlockReference
  2
_OPEN
 10
473.663472661518
 20
256.3702751084347
 30
0.0
 41
7.0
 42
7.0
 43
7.0
 50
90.0
  0
INSERT
  5
1E30
330
1CAC
100
AcDbEntity
  8
SUNPOU
 62
     4
370
    -2
100
AcDbBlockReference
  2
_OPEN
 10
473.663472661518
 20
234.3703751084347
 30
0.0
 41
7.0
 42
7.0
 43
7.0
 50
270.0
  0
MTEXT
  5
1E31
330
1CAC
100
AcDbEntity
  8
SUNPOU
 62
     4
100
AcDbMText
 10
468.6634726615179
 20
245.3703251084348
 30
0.0
 40
6.0
 41
0.0
 71
     5
 72
     1
  1
\A1;22
 11
6.123031769111886E-17
 21
1.0
 31
0.0
 73
     1
 44
1.0
  0
POINT
  5
1E32
330
1CAC
100
AcDbEntity
  8
DEFPOINTS
 62
     0
100
AcDbPoint
 10
521.0251308008507
 20
256.3702751084347
 30
0.0
  0
POINT
  5
1E33
330
1CAC
100
AcDbEntity
  8
DEFPOINTS
 62
     0
100
AcDbPoint
 10
506.5403308008505
 20
234.3703751084347
 30
0.0
  0
POINT
  5
1E34
330
1CAC
100
AcDbEntity
  8
DEFPOINTS
 62
     0
100
AcDbPoint
 10
473.663472661518
 20
234.3703751084347
 30
0.0
  0
ENDBLK
  5
1CB7
330
1CAC
100
AcDbEntity
  8
0
100
AcDbBlockEnd
  0
BLOCK
  5
1CC2
330
1CB8
100
AcDbEntity
  8
0
100
AcDbBlockBegin
  2
*D13
 70
     1
 71
     0
 10
0.0
 20
0.0
 30
0.0
  3
*D13
  1

  0
LINE
  5
1E18
330
1CB8
100
AcDbEntity
  8
SUNPOU
 62
     4
370
    -2
100
AcDbLine
 10
554.8849308008505
 20
256.3702751084347
 30
0.0
 11
599.5614508371742
 21
256.3702751084347
 31
0.0
  0
LINE
  5
1E19
330
1CB8
100
AcDbEntity
  8
SUNPOU
 62
     4
370
    -2
100
AcDbLine
 10
569.0730308008506
 20
229.3702751084347
 30
0.0
 11
599.5614508371741
 21
229.3702751084347
 31
0.0
  0
LINE
  5
1E1A
330
1CB8
100
AcDbEntity
  8
SUNPOU
 62
     4
370
    -2
100
AcDbLine
 10
596.5614508371741
 20
249.3702751084347
 30
0.0
 11
596.5614508371741
 21
236.3702751084347
 31
0.0
  0
INSERT
  5
1E1B
330
1CB8
100
AcDbEntity
  8
SUNPOU
 62
     4
370
    -2
100
AcDbBlockReference
  2
_OPEN
 10
596.5614508371742
 20
256.3702751084347
 30
0.0
 41
7.0
 42
7.0
 43
7.0
 50
90.0
  0
INSERT
  5
1E1C
330
1CB8
100
AcDbEntity
  8
SUNPOU
 62
     4
370
    -2
100
AcDbBlockReference
  2
_OPEN
 10
596.5614508371741
 20
229.3702751084347
 30
0.0
 41
7.0
 42
7.0
 43
7.0
 50
270.0
  0
MTEXT
  5
1E1D
330
1CB8
100
AcDbEntity
  8
SUNPOU
 62
     4
100
AcDbMText
 10
591.5614508371741
 20
242.8702751084348
 30
0.0
 40
6.0
 41
0.0
 71
     5
 72
     1
  1
\A1;27
 11
6.123031769111886E-17
 21
1.0
 31
0.0
 73
     1
 44
1.0
  0
POINT
  5
1E1E
330
1CB8
100
AcDbEntity
  8
DEFPOINTS
 62
     0
100
AcDbPoint
 10
548.8849308008505
 20
256.3702751084347
 30
0.0
  0
POINT
  5
1E1F
330
1CB8
100
AcDbEntity
  8
DEFPOINTS
 62
     0
100
AcDbPoint
 10
563.0730308008506
 20
229.3702751084347
 30
0.0
  0
POINT
  5
1E20
330
1CB8
100
AcDbEntity
  8
DEFPOINTS
 62
     0
100
AcDbPoint
 10
596.5614508371741
 20
229.3702751084347
 30
0.0
  0
ENDBLK
  5
1CC3
330
1CB8
100
AcDbEntity
  8
0
100
AcDbBlockEnd
  0
ENDSEC
  0
SECTION
  2
ENTITIES
  0
LWPOLYLINE
  5
1609
330
1A
100
AcDbEntity
  8
ZUWAKU
100
AcDbPolyline
 90
        4
 70
     1
 43
0.0
 10
0.799999566643919
 20
550.8000006402971
 10
0.799999566643919
 20
0.8000006402971849
 10
796.7999995666438
 20
0.8000006402971849
 10
796.7999995666438
 20
550.8000006402971
  0
LWPOLYLINE
  5
160A
330
1A
100
AcDbEntity
  8
ZUWAKU
100
AcDbPolyline
 90
        4
 70
     1
 43
0.0
 10
0.3999995666439418
 20
551.2000006402971
 10
0.3999995666439418
 20
0.4000006402972076
 10
797.199999566644
 20
0.4000006402971845
 10
797.199999566644
 20
551.2000006402971
  0
LWPOLYLINE
  5
160B
330
1A
100
AcDbEntity
  8
ZUWAKU
100
AcDbPolyline
 90
        4
 70
     1
 43
0.0
 10
-0.0000004333560355
 20
551.6000006402971
 10
-0.0000004333560355
 20
0.0000006402971167
 10
797.599999566644
 20
0.0000006402971842
 10
797.599999566644
 20
551.6000006402973
  0
LWPOLYLINE
  5
160C
330
1A
100
AcDbEntity
  8
ZUWAKU
100
AcDbPolyline
 90
        4
 70
     1
 43
0.0
 10
0.5999995666438736
 20
551.0000006402972
 10
0.5999995666438736
 20
0.6000006402971395
 10
796.9999995666442
 20
0.6000006402971857
 10
796.999999566644
 20
551.0000006402972
  0
LWPOLYLINE
  5
160D
330
1A
100
AcDbEntity
  8
ZUWAKU
100
AcDbPolyline
 90
        4
 70
     1
 43
0.0
 10
0.1999995666438963
 20
551.4000006402971
 10
0.1999995666438963
 20
0.2000006402971622
 10
797.3999995666438
 20
0.2000006402971852
 10
797.3999995666441
 20
551.4000006402971
  0
LINE
  5
160E
330
1A
100
AcDbEntity
  8
ZUWAKU
100
AcDbLine
 10
-0.0000004333560355
 20
30.00000064029711
 30
0.0
 11
797.3999995666438
 21
30.00000064029711
 31
0.0
  0
LINE
  5
160F
330
1A
100
AcDbEntity
  8
ZUWAKU
100
AcDbLine
 10
-0.0000004333560355
 20
30.20000064029711
 30
0.0
 11
797.3999995666438
 21
30.20000064029711
 31
0.0
  0
LINE
  5
1610
330
1A
100
AcDbEntity
  8
ZUWAKU
100
AcDbLine
 10
-0.0000004333560355
 20
30.40000064029713
 30
0.0
 11
797.3999995666438
 21
30.40000064029713
 31
0.0
  0
LINE
  5
1611
330
1A
100
AcDbEntity
  8
ZUWAKU
100
AcDbLine
 10
-0.0000004333560355
 20
30.60000064029713
 30
0.0
 11
797.3999995666438
 21
30.60000064029713
 31
0.0
  0
LINE
  5
1612
330
1A
100
AcDbEntity
  8
ZUWAKU
100
AcDbLine
 10
-0.0000004333560355
 20
30.80000064029713
 30
0.0
 11
797.3999995666438
 21
30.80000064029713
 31
0.0
  0
LINE
  5
1613
330
1A
100
AcDbEntity
  8
ZUWAKU
100
AcDbLine
 10
208.646600856712
 20
15.40000064029714
 30
0.0
 11
447.4243635376353
 21
15.40000064029714
 31
0.0
  0
LINE
  5
1614
330
1A
100
AcDbEntity
  8
ZUWAKU
100
AcDbLine
 10
208.646600856712
 20
15.60000064029715
 30
0.0
 11
447.4243635376353
 21
15.60000064029715
 31
0.0
  0
LINE
  5
1615
330
1A
100
AcDbEntity
  8
ZUWAKU
100
AcDbLine
 10
208.646600856712
 20
15.20000064029715
 30
0.0
 11
447.4243635376353
 21
15.20000064029714
 31
0.0
  0
TEXT
  5
1616
330
1A
100
AcDbEntity
  8
MOJI
100
AcDbText
 10
90.75324551577
 20
12.83491815671096
 30
0.0
 40
5.8
  1
アーバントップΣ９０
 41
0.9
  7
ｽﾀｲﾙ1
100
AcDbText
  0
CIRCLE
  5
1617
330
1A
100
AcDbEntity
  8
ZUWAKU
100
AcDbCircle
 10
25.99221172142506
 20
15.20000064029711
 30
0.0
 40
1.75
  0
LINE
  5
1618
330
1A
100
AcDbEntity
  8
ZUWAKU
100
AcDbLine
 10
26.86721172142507
 20
7.150000640297122
 30
0.0
 11
24.94221172142511
 21
7.150000640297122
 31
0.0
  0
LINE
  5
1619
330
1A
100
AcDbEntity
  8
ZUWAKU
100
AcDbLine
 10
24.94221172142511
 20
9.950000640297118
 30
0.0
 11
26.86721172142507
 21
9.950000640297118
 31
0.0
  0
LINE
  5
161A
330
1A
100
AcDbEntity
  8
ZUWAKU
100
AcDbLine
 10
26.86721172142507
 20
20.45000064029711
 30
0.0
 11
24.94221172142511
 21
20.45000064029711
 31
0.0
  0
LINE
  5
161B
330
1A
100
AcDbEntity
  8
ZUWAKU
100
AcDbLine
 10
24.94221172142511
 20
23.25000064029707
 30
0.0
 11
26.86721172142507
 21
23.25000064029711
 31
0.0
  0
HATCH
  5
161C
330
1A
100
AcDbEntity
  8
ZUWAKU
100
AcDbHatch
 10
0.0
 20
0.0
 30
0.0
210
0.0
220
0.0
230
1.0
  2
ANSI37
 70
     0
 71
     0
 91
        8
 92
        7
 72
     1
 73
     1
 93
       24
 10
14.50226222776382
 20
17.6448491212807
 42
-0.1989123673796348
 10
14.09221172142509
 20
18.63479861494174
 42
0.0
 10
14.09221172142509
 20
19.92500064029712
 42
-0.4142135623730912
 10
14.61721172142506
 20
20.45000064029711
 42
0.0
 10
17.59221172142496
 20
20.45000064029711
 42
0.4142135623731546
 10
18.11721172142507
 20
20.97500064029711
 42
0.0
 10
18.11721172142507
 20
22.72500064029713
 42
0.4142135623731586
 10
17.59221172142496
 20
23.25000064029711
 42
0.0
 10
14.09221172142509
 20
23.25000064029711
 42
0.4142135623730928
 10
11.29221172142513
 20
20.45000064029714
 42
0.0
 10
11.29221172142513
 20
18.63479861494188
 42
0.1989123673796619
 10
12.52236324044156
 20
15.66495013395826
 42
0.0
 10
15.43216121508623
 20
12.75515215931361
 42
-0.1989123673796613
 10
15.84221172142509
 20
11.76520266565242
 42
0.0
 10
15.84221172142509
 20
10.4750006402971
 42
-0.4142135623730911
 10
15.31721172142511
 20
9.950000640297118
 42
0.0
 10
12.3422117214252
 20
9.950000640297118
 42
0.4142135623731526
 10
11.81721172142511
 20
9.42500064029713
 42
0.0
 10
11.81721172142511
 20
7.675000640297109
 42
0.4142135623731526
 10
12.3422117214252
 20
7.150000640297122
 42
0.0
 10
15.84221172142509
 20
7.150000640297122
 42
0.4142135623731044
 10
18.64221172142516
 20
9.950000640297098
 42
0.0
 10
18.64221172142516
 20
11.76520266565236
 42
0.1989123673796604
 10
17.4120602024086
 20
14.73505114663591
 42
0.0
 97
        0
 92
        7
 72
     1
 73
     1
 93
       16
 10
23.54221172142513
 20
19.05000064029712
 42
-0.4142135623730935
 10
24.94221172142511
 20
20.45000064029711
 42
0.0
 10
26.86721172142507
 20
20.45000064029711
 42
0.4142135623731546
 10
27.39221172142516
 20
20.97500064029711
 42
0.0
 10
27.39221172142516
 20
22.72500064029713
 42
0.4142135623730951
 10
26.86721172142518
 20
23.25000064029711
 42
0.0
 10
24.942211721425
 20
23.25000064029707
 42
0.4142135623730892
 10
20.74221172142505
 20
19.05000064029706
 42
0.0
 10
20.74221172142505
 20
11.35000064029715
 42
0.4142135623730969
 10
24.94221172142511
 20
7.150000640297122
 42
0.0
 10
26.86721172142507
 20
7.150000640297122
 42
0.4142135623731526
 10
27.39221172142516
 20
7.675000640297109
 42
0.0
 10
27.39221172142516
 20
9.42500064029713
 42
0.4142135623730891
 10
26.86721172142518
 20
9.950000640297118
 42
0.0
 10
24.94221172142511
 20
9.950000640297118
 42
-0.4142135623730928
 10
23.54221172142513
 20
11.3500006402971
 42
0.0
 97
        0
 92
        7
 72
     1
 73
     1
 93
        2
 10
24.24221172142507
 20
15.20000064029711
 42
1.0
 10
27.74221172142507
 20
15.20000064029711
 42
1.0
 97
        0
 92
        7
 72
     1
 73
     1
 93
       26
 10
37.31485820360308
 20
19.20504783386054
 42
0.0
 10
38.3764978367409
 20
22.56690667213013
 42
0.5069206636600134
 10
37.87586693754554
 20
23.25000064029711
 42
0.0
 10
36.1769775579363
 20
23.25000064029711
 42
0.3272098845218764
 10
35.67634665874095
 20
22.88309460846408
 42
0.0
 10
33.80807678410916
 20
16.96690667213019
 42
-0.3272098845219541
 10
33.3074458849137
 20
16.60000064029712
 42
0.0
 10
33.16721172142525
 20
16.60000064029712
 42
-0.4142135623731526
 10
32.64221172142516
 20
17.1250006402971
 42
0.0
 10
32.64221172142516
 20
22.72500064029713
 42
0.4142135623730951
 10
32.11721172142518
 20
23.25000064029711
 42
0.0
 10
30.36721172142506
 20
23.25000064029711
 42
0.4142135623730871
 10
29.84221172142509
 20
22.72500064029713
 42
0.0
 10
29.84221172142509
 20
7.675000640297109
 42
0.4142135623730891
 10
30.36721172142506
 20
7.150000640297122
 42
0.0
 10
32.11721172142507
 20
7.150000640297122
 42
0.4142135623731526
 10
32.64221172142516
 20
7.675000640297109
 42
0.0
 10
32.64221172142516
 20
13.27500064029712
 42
-0.4142135623731526
 10
33.16721172142525
 20
13.80000064029711
 42
0.0
 10
33.30744588491382
 20
13.80000064029711
 42
-0.3272098845218915
 10
33.80807678410916
 20
13.43309460846404
 42
0.0
 10
35.67634665874095
 20
7.516906672130193
 42
0.3272098845218902
 10
36.1769775579363
 20
7.150000640297122
 42
0.0
 10
37.87586693754554
 20
7.150000640297122
 42
0.5069206636600335
 10
38.3764978367409
 20
7.83309460846413
 42
0.0
 10
36.05010645826724
 20
15.20000064029726
 42
0.0
 97
        0
 92
        7
 72
     1
 73
     1
 93
        8
 10
43.49221172142505
 20
22.72500064029713
 42
0.4142135623731546
 10
42.96721172142497
 20
23.25000064029711
 42
0.0
 10
41.21721172142521
 20
23.25000064029711
 42
0.4142135623731507
 10
40.6922117214251
 20
22.72500064029713
 42
0.0
 10
40.6922117214251
 20
7.675000640297109
 42
0.4142135623731526
 10
41.21721172142521
 20
7.150000640297122
 42
0.0
 10
42.96721172142497
 20
7.150000640297122
 42
0.4142135623731526
 10
43.49221172142505
 20
7.675000640297109
 42
0.0
 97
        0
 92
        7
 72
     1
 73
     1
 93
       24
 10
48.39221172142515
 20
19.92500064029712
 42
-0.4142135623731546
 10
48.91721172142525
 20
20.45000064029711
 42
0.0
 10
51.89221172142516
 20
20.45000064029711
 42
0.4142135623730911
 10
52.41721172142513
 20
20.97500064029711
 42
0.0
 10
52.41721172142513
 20
22.72500064029713
 42
0.4142135623730952
 10
51.89221172142516
 20
23.25000064029711
 42
0.0
 10
48.39221172142515
 20
23.25000064029711
 42
0.4142135623731048
 10
45.59221172142509
 20
20.45000064029714
 42
0.0
 10
45.59221172142509
 20
18.63479861494188
 42
0.1989123673796613
 10
46.82236324044163
 20
15.66495013395833
 42
0.0
 10
49.7321612150863
 20
12.75515215931366
 42
-0.1989123673796402
 10
50.14221172142516
 20
11.76520266565258
 42
0.0
 10
50.14221172142516
 20
10.4750006402971
 42
-0.4142135623730911
 10
49.61721172142518
 20
9.950000640297118
 42
0.0
 10
46.64221172142516
 20
9.950000640297118
 42
0.4142135623731526
 10
46.11721172142507
 20
9.42500064029713
 42
0.0
 10
46.11721172142507
 20
7.675000640297109
 42
0.4142135623730891
 10
46.64221172142504
 20
7.150000640297122
 42
0.0
 10
50.14221172142516
 20
7.150000640297122
 42
0.4142135623730925
 10
52.9422117214251
 20
9.950000640297098
 42
0.0
 10
52.9422117214251
 20
11.76520266565236
 42
0.1989123673796675
 10
51.71206020240857
 20
14.73505114663603
 42
0.0
 10
48.80226222776399
 20
17.64484912128054
 42
-0.1989123673796652
 10
48.39221172142515
 20
18.6347986149417
 42
0.0
 97
        0
 92
        7
 72
     1
 73
     1
 93
       16
 10
57.84221172142509
 20
22.7250006402971
 42
0.414213562373103
 10
57.3172117214251
 20
23.25000064029711
 42
0.0
 10
55.5672117214251
 20
23.25000064029711
 42
0.4142135623730871
 10
55.04221172142513
 20
22.72500064029713
 42
0.0
 10
55.04221172142513
 20
9.950000640297098
 42
0.4142135623730926
 10
57.84221172142509
 20
7.150000640297122
 42
0.0
 10
61.34221172142509
 20
7.150000640297122
 42
0.4142135623731044
 10
64.14221172142516
 20
9.950000640297098
 42
0.0
 10
64.14221172142516
 20
22.72500064029713
 42
0.4142135623730951
 10
63.61721172142518
 20
23.25000064029711
 42
0.0
 10
61.86721172142507
 20
23.25000064029711
 42
0.4142135623730871
 10
61.34221172142509
 20
22.72500064029713
 42
0.0
 10
61.34221172142509
 20
11.00000064029709
 42
-0.4142135623730879
 10
60.29221172142513
 20
9.950000640297118
 42
0.0
 10
58.89221172142516
 20
9.950000640297118
 42
-0.4142135623731197
 10
57.84221172142509
 20
11.00000064029709
 42
0.0
 97
        0
 92
        7
 72
     1
 73
     1
 93
        8
 10
69.04221172142513
 20
22.72500064029713
 42
0.4142135623730871
 10
68.51721172142516
 20
23.25000064029711
 42
0.0
 10
66.76721172142516
 20
23.25000064029711
 42
0.4142135623731507
 10
66.24221172142507
 20
22.72500064029713
 42
0.0
 10
66.24221172142507
 20
7.675000640297109
 42
0.4142135623730891
 10
66.76721172142504
 20
7.150000640297122
 42
0.0
 10
68.51721172142516
 20
7.150000640297122
 42
0.4142135623730891
 10
69.04221172142513
 20
7.675000640297109
 42
0.0
 97
        0
 75
     0
 76
     1
 52
0.0
 41
0.2
 77
     0
 78
     2
 53
45.0
 43
-900.9423047680351
 44
-13.19999935970281
 45
-0.4490128060534576
 46
0.4490128060534577
 79
     0
 53
135.0
 43
-900.9423047680351
 44
-13.19999935970281
 45
-0.4490128060534577
 46
-0.4490128060534576
 79
     0
 47
0.057451373970553
 98
        8
 10
16.07985452966727
 20
15.16717428618266
 10
22.40451457308314
 20
18.84406282274813
 10
25.16436745230362
 20
15.51188228636783
 10
30.9140595482811
 20
16.20129828673861
 10
41.83847158560069
 20
16.66091055428024
 10
46.89820046177351
 20
19.41857695670432
 10
56.55768553904431
 20
18.72915855539213
 10
67.8270791862667
 20
19.18877082293374
  0
ARC
  5
161D
330
1A
100
AcDbEntity
  8
ZUWAKU
100
AcDbCircle
 10
15.49221172142507
 20
18.63479861494181
 30
0.0
 40
4.199999999999998
100
AcDbArc
 50
180.0
 51
225.0
  0
LINE
  5
161E
330
1A
100
AcDbEntity
  8
ZUWAKU
100
AcDbLine
 10
20.74221172142505
 20
11.35000064029712
 30
0.0
 11
20.74221172142505
 21
19.05000064029708
 31
0.0
  0
LINE
  5
161F
330
1A
100
AcDbEntity
  8
ZUWAKU
100
AcDbLine
 10
23.54221172142513
 20
19.05000064029711
 30
0.0
 11
23.54221172142513
 21
11.35000064029712
 31
0.0
  0
ARC
  5
1620
330
1A
100
AcDbEntity
  8
ZUWAKU
100
AcDbCircle
 10
15.49221172142507
 20
18.63479861494181
 30
0.0
 40
1.399999999999999
100
AcDbArc
 50
180.0000000000016
 51
224.9999999999988
  0
ARC
  5
1621
330
1A
100
AcDbEntity
  8
ZUWAKU
100
AcDbCircle
 10
24.94221172142511
 20
11.35000064029712
 30
0.0
 40
4.199999999999998
100
AcDbArc
 50
180.0
 51
270.0
  0
ARC
  5
1622
330
1A
100
AcDbEntity
  8
ZUWAKU
100
AcDbCircle
 10
15.84221172142509
 20
9.950000640297118
 30
0.0
 40
2.799999999999999
100
AcDbArc
 50
270.0
 51
0.0
  0
ARC
  5
1623
330
1A
100
AcDbEntity
  8
ZUWAKU
100
AcDbCircle
 10
14.44221172142511
 20
11.76520266565242
 30
0.0
 40
4.199999999999998
100
AcDbArc
 50
0.0
 51
45.0
  0
LINE
  5
1624
330
1A
100
AcDbEntity
  8
ZUWAKU
100
AcDbLine
 10
12.52236324044156
 20
15.66495013395829
 30
0.0
 11
15.43216121508623
 21
12.75515215931364
 31
0.0
  0
LINE
  5
1625
330
1A
100
AcDbEntity
  8
ZUWAKU
100
AcDbLine
 10
12.34221172142509
 20
9.950000640297118
 30
0.0
 11
15.31721172142511
 21
9.950000640297118
 31
0.0
  0
LINE
  5
1626
330
1A
100
AcDbEntity
  8
ZUWAKU
100
AcDbLine
 10
12.34221172142509
 20
7.150000640297122
 30
0.0
 11
15.84221172142509
 21
7.150000640297122
 31
0.0
  0
ARC
  5
1627
330
1A
100
AcDbEntity
  8
ZUWAKU
100
AcDbCircle
 10
12.34221172142509
 20
9.425000640297119
 30
0.0
 40
0.525
100
AcDbArc
 50
90.0
 51
180.0
  0
ARC
  5
1628
330
1A
100
AcDbEntity
  8
ZUWAKU
100
AcDbCircle
 10
12.34221172142509
 20
7.67500064029712
 30
0.0
 40
0.525
100
AcDbArc
 50
180.0
 51
270.0
  0
LINE
  5
1629
330
1A
100
AcDbEntity
  8
ZUWAKU
100
AcDbLine
 10
11.81721172142511
 20
7.67500064029712
 30
0.0
 11
11.81721172142511
 21
9.425000640297119
 31
0.0
  0
ARC
  5
162A
330
1A
100
AcDbEntity
  8
ZUWAKU
100
AcDbCircle
 10
14.44221172142511
 20
11.76520266565246
 30
0.0
 40
1.399999999999999
100
AcDbArc
 50
0.0
 51
45.0
  0
ARC
  5
162B
330
1A
100
AcDbEntity
  8
ZUWAKU
100
AcDbCircle
 10
15.31721172142511
 20
10.47500064029712
 30
0.0
 40
0.525
100
AcDbArc
 50
270.0
 51
0.0
  0
LINE
  5
162C
330
1A
100
AcDbEntity
  8
ZUWAKU
100
AcDbLine
 10
15.84221172142509
 20
10.47500064029712
 30
0.0
 11
15.84221172142509
 21
11.76520266565246
 31
0.0
  0
LINE
  5
162D
330
1A
100
AcDbEntity
  8
ZUWAKU
100
AcDbLine
 10
17.4120602024086
 20
14.73505114663594
 30
0.0
 11
14.50226222776393
 21
17.64484912128062
 31
0.0
  0
ARC
  5
162E
330
1A
100
AcDbEntity
  8
ZUWAKU
100
AcDbCircle
 10
24.94221172142511
 20
11.35000064029712
 30
0.0
 40
1.399999999999999
100
AcDbArc
 50
180.0
 51
270.0
  0
LINE
  5
162F
330
1A
100
AcDbEntity
  8
ZUWAKU
100
AcDbLine
 10
18.64221172142516
 20
9.950000640297118
 30
0.0
 11
18.64221172142516
 21
11.76520266565246
 31
0.0
  0
ARC
  5
1630
330
1A
100
AcDbEntity
  8
ZUWAKU
100
AcDbCircle
 10
17.59221172142509
 20
20.97500064029712
 30
0.0
 40
0.525
100
AcDbArc
 50
270.0
 51
0.0
  0
ARC
  5
1631
330
1A
100
AcDbEntity
  8
ZUWAKU
100
AcDbCircle
 10
17.59221172142509
 20
22.72500064029712
 30
0.0
 40
0.525
100
AcDbArc
 50
0.0
 51
90.0
  0
ARC
  5
1632
330
1A
100
AcDbEntity
  8
ZUWAKU
100
AcDbCircle
 10
14.09221172142509
 20
20.45000064029711
 30
0.0
 40
2.799999999999999
100
AcDbArc
 50
90.0
 51
180.0
  0
LINE
  5
1633
330
1A
100
AcDbEntity
  8
ZUWAKU
100
AcDbLine
 10
11.29221172142513
 20
20.45000064029711
 30
0.0
 11
11.29221172142513
 21
18.63479861494178
 31
0.0
  0
LINE
  5
1634
330
1A
100
AcDbEntity
  8
ZUWAKU
100
AcDbLine
 10
17.59221172142509
 20
20.45000064029711
 30
0.0
 11
14.61721172142506
 21
20.45000064029711
 31
0.0
  0
LINE
  5
1635
330
1A
100
AcDbEntity
  8
ZUWAKU
100
AcDbLine
 10
14.09221172142509
 20
19.92500064029711
 30
0.0
 11
14.09221172142509
 21
18.63479861494178
 31
0.0
  0
ARC
  5
1636
330
1A
100
AcDbEntity
  8
ZUWAKU
100
AcDbCircle
 10
14.61721172142506
 20
19.92500064029711
 30
0.0
 40
0.525
100
AcDbArc
 50
90.0
 51
180.0
  0
LINE
  5
1637
330
1A
100
AcDbEntity
  8
ZUWAKU
100
AcDbLine
 10
14.09221172142509
 20
23.25000064029711
 30
0.0
 11
17.59221172142509
 21
23.25000064029711
 31
0.0
  0
ARC
  5
1638
330
1A
100
AcDbEntity
  8
ZUWAKU
100
AcDbCircle
 10
24.94221172142511
 20
19.05000064029708
 30
0.0
 40
4.199999999999998
100
AcDbArc
 50
90.0
 51
180.0
  0
ARC
  5
1639
330
1A
100
AcDbEntity
  8
ZUWAKU
100
AcDbCircle
 10
24.94221172142511
 20
19.05000064029711
 30
0.0
 40
1.399999999999999
100
AcDbArc
 50
90.0
 51
180.0
  0
LINE
  5
163A
330
1A
100
AcDbEntity
  8
ZUWAKU
100
AcDbLine
 10
18.11721172142507
 20
22.72500064029712
 30
0.0
 11
18.11721172142507
 21
20.97500064029712
 31
0.0
  0
LINE
  5
163B
330
1A
100
AcDbEntity
  8
ZUWAKU
100
AcDbLine
 10
35.67634665874095
 20
22.88309460846408
 30
0.0
 11
33.80807678410916
 21
16.96690667213014
 31
0.0
  0
LINE
  5
163C
330
1A
100
AcDbEntity
  8
ZUWAKU
100
AcDbLine
 10
29.84221172142509
 20
22.72500064029712
 30
0.0
 11
29.84221172142509
 21
7.67500064029712
 31
0.0
  0
LINE
  5
163D
330
1A
100
AcDbEntity
  8
ZUWAKU
100
AcDbLine
 10
32.64221172142516
 20
17.12500064029712
 30
0.0
 11
32.64221172142516
 21
22.72500064029712
 31
0.0
  0
LINE
  5
163E
330
1A
100
AcDbEntity
  8
ZUWAKU
100
AcDbLine
 10
57.84221172142509
 20
11.00000064029711
 30
0.0
 11
57.84221172142509
 21
22.72500064029712
 31
0.0
  0
LINE
  5
163F
330
1A
100
AcDbEntity
  8
ZUWAKU
100
AcDbLine
 10
55.04221172142513
 20
22.72500064029712
 30
0.0
 11
55.04221172142513
 21
9.950000640297118
 31
0.0
  0
LINE
  5
1640
330
1A
100
AcDbEntity
  8
ZUWAKU
100
AcDbLine
 10
43.49221172142505
 20
7.67500064029712
 30
0.0
 11
43.49221172142505
 21
22.72500064029712
 31
0.0
  0
LINE
  5
1641
330
1A
100
AcDbEntity
  8
ZUWAKU
100
AcDbLine
 10
40.6922117214251
 20
22.72500064029712
 30
0.0
 11
40.6922117214251
 21
7.67500064029712
 31
0.0
  0
LINE
  5
1642
330
1A
100
AcDbEntity
  8
ZUWAKU
100
AcDbLine
 10
37.31485820360308
 20
19.20504783386054
 30
0.0
 11
36.05010645826724
 21
15.20000064029713
 31
0.0
  0
ARC
  5
1643
330
1A
100
AcDbEntity
  8
ZUWAKU
100
AcDbCircle
 10
49.79221172142513
 20
18.63479861494181
 30
0.0
 40
4.199999999999998
100
AcDbArc
 50
180.0
 51
225.0
  0
ARC
  5
1644
330
1A
100
AcDbEntity
  8
ZUWAKU
100
AcDbCircle
 10
49.79221172142513
 20
18.63479861494181
 30
0.0
 40
1.399999999999999
100
AcDbArc
 50
180.0000000000016
 51
224.9999999999988
  0
LINE
  5
1645
330
1A
100
AcDbEntity
  8
ZUWAKU
100
AcDbLine
 10
66.24221172142507
 20
22.72500064029712
 30
0.0
 11
66.24221172142507
 21
7.67500064029712
 31
0.0
  0
LINE
  5
1646
330
1A
100
AcDbEntity
  8
ZUWAKU
100
AcDbLine
 10
69.04221172142513
 20
7.67500064029712
 30
0.0
 11
69.04221172142513
 21
22.72500064029712
 31
0.0
  0
LINE
  5
1647
330
1A
100
AcDbEntity
  8
ZUWAKU
100
AcDbLine
 10
61.34221172142509
 20
22.72500064029712
 30
0.0
 11
61.34221172142509
 21
11.00000064029711
 31
0.0
  0
LINE
  5
1648
330
1A
100
AcDbEntity
  8
ZUWAKU
100
AcDbLine
 10
64.14221172142516
 20
9.950000640297118
 30
0.0
 11
64.14221172142516
 21
22.72500064029712
 31
0.0
  0
LINE
  5
1649
330
1A
100
AcDbEntity
  8
ZUWAKU
100
AcDbLine
 10
79.12662911463235
 20
30.00000064029711
 30
0.0
 11
79.12662911463235
 21
0.8000006402971849
 31
0.0
  0
LINE
  5
164A
330
1A
100
AcDbEntity
  8
ZUWAKU
100
AcDbLine
 10
79.52662911463222
 20
30.00000064029711
 30
0.0
 11
79.52662911463243
 21
0.8000006402971849
 31
0.0
  0
LINE
  5
164B
330
1A
100
AcDbEntity
  8
ZUWAKU
100
AcDbLine
 10
79.32662911463217
 20
30.00000064029711
 30
0.0
 11
79.3266291146324
 21
0.8000006402971849
 31
0.0
  0
LINE
  5
164C
330
1A
100
AcDbEntity
  8
ZUWAKU
100
AcDbLine
 10
57.84221172142509
 20
7.150000640297122
 30
0.0
 11
61.34221172142509
 21
7.150000640297122
 31
0.0
  0
LINE
  5
164D
330
1A
100
AcDbEntity
  8
ZUWAKU
100
AcDbLine
 10
60.29221172142513
 20
9.950000640297118
 30
0.0
 11
58.89221172142516
 21
9.950000640297118
 31
0.0
  0
LINE
  5
164E
330
1A
100
AcDbEntity
  8
ZUWAKU
100
AcDbLine
 10
41.21721172142509
 20
7.150000640297122
 30
0.0
 11
42.96721172142509
 21
7.150000640297122
 31
0.0
  0
LINE
  5
164F
330
1A
100
AcDbEntity
  8
ZUWAKU
100
AcDbLine
 10
35.67634665874095
 20
7.516906672130147
 30
0.0
 11
33.80807678410916
 21
13.43309460846409
 31
0.0
  0
ARC
  5
1650
330
1A
100
AcDbEntity
  8
ZUWAKU
100
AcDbCircle
 10
33.16721172142513
 20
13.27500064029711
 30
0.0
 40
0.525
100
AcDbArc
 50
90.0
 51
180.0
  0
ARC
  5
1651
330
1A
100
AcDbEntity
  8
ZUWAKU
100
AcDbCircle
 10
33.30744588491382
 20
13.27500064029711
 30
0.0
 40
0.525
100
AcDbArc
 50
17.52556837372303
 51
90.0
  0
ARC
  5
1652
330
1A
100
AcDbEntity
  8
ZUWAKU
100
AcDbCircle
 10
30.36721172142506
 20
7.67500064029712
 30
0.0
 40
0.525
100
AcDbArc
 50
180.0
 51
270.0
  0
ARC
  5
1653
330
1A
100
AcDbEntity
  8
ZUWAKU
100
AcDbCircle
 10
26.86721172142507
 20
9.425000640297119
 30
0.0
 40
0.525
100
AcDbArc
 50
0.0
 51
90.0
  0
ARC
  5
1654
330
1A
100
AcDbEntity
  8
ZUWAKU
100
AcDbCircle
 10
26.86721172142507
 20
7.67500064029712
 30
0.0
 40
0.525
100
AcDbArc
 50
270.0
 51
0.0
  0
LINE
  5
1655
330
1A
100
AcDbEntity
  8
ZUWAKU
100
AcDbLine
 10
27.39221172142516
 20
9.425000640297119
 30
0.0
 11
27.39221172142516
 21
7.67500064029712
 31
0.0
  0
LINE
  5
1656
330
1A
100
AcDbEntity
  8
ZUWAKU
100
AcDbLine
 10
32.64221172142516
 20
7.67500064029712
 30
0.0
 11
32.64221172142516
 21
13.27500064029711
 31
0.0
  0
ARC
  5
1657
330
1A
100
AcDbEntity
  8
ZUWAKU
100
AcDbCircle
 10
32.11721172142507
 20
7.67500064029712
 30
0.0
 40
0.525
100
AcDbArc
 50
270.0
 51
0.0
  0
LINE
  5
1658
330
1A
100
AcDbEntity
  8
ZUWAKU
100
AcDbLine
 10
30.36721172142506
 20
7.150000640297122
 30
0.0
 11
32.11721172142507
 21
7.150000640297122
 31
0.0
  0
ARC
  5
1659
330
1A
100
AcDbEntity
  8
ZUWAKU
100
AcDbCircle
 10
33.16721172142513
 20
17.12500064029712
 30
0.0
 40
0.525
100
AcDbArc
 50
180.0
 51
270.0
  0
LINE
  5
165A
330
1A
100
AcDbEntity
  8
ZUWAKU
100
AcDbLine
 10
33.16721172142513
 20
13.80000064029711
 30
0.0
 11
33.30744588491382
 21
13.80000064029711
 31
0.0
  0
LINE
  5
165B
330
1A
100
AcDbEntity
  8
ZUWAKU
100
AcDbLine
 10
33.30744588491382
 20
16.60000064029712
 30
0.0
 11
33.16721172142513
 21
16.60000064029712
 31
0.0
  0
ARC
  5
165C
330
1A
100
AcDbEntity
  8
ZUWAKU
100
AcDbCircle
 10
33.30744588491382
 20
17.12500064029712
 30
0.0
 40
0.525
100
AcDbArc
 50
270.0
 51
342.474431626277
  0
ARC
  5
165D
330
1A
100
AcDbEntity
  8
ZUWAKU
100
AcDbCircle
 10
36.17697755793642
 20
7.67500064029712
 30
0.0
 40
0.525
100
AcDbArc
 50
197.525568373723
 51
270.0
  0
LINE
  5
165E
330
1A
100
AcDbEntity
  8
ZUWAKU
100
AcDbLine
 10
38.3764978367409
 20
7.833094608464094
 30
0.0
 11
36.05010645826724
 21
15.20000064029713
 31
0.0
  0
ARC
  5
165F
330
1A
100
AcDbEntity
  8
ZUWAKU
100
AcDbCircle
 10
37.87586693754543
 20
7.67500064029712
 30
0.0
 40
0.525
100
AcDbArc
 50
270.0
 51
17.52556837372303
  0
LINE
  5
1660
330
1A
100
AcDbEntity
  8
ZUWAKU
100
AcDbLine
 10
36.17697755793642
 20
7.150000640297122
 30
0.0
 11
37.87586693754543
 21
7.150000640297122
 31
0.0
  0
ARC
  5
1661
330
1A
100
AcDbEntity
  8
ZUWAKU
100
AcDbCircle
 10
41.21721172142509
 20
7.67500064029712
 30
0.0
 40
0.525
100
AcDbArc
 50
180.0
 51
270.0
  0
ARC
  5
1662
330
1A
100
AcDbEntity
  8
ZUWAKU
100
AcDbCircle
 10
50.14221172142516
 20
9.950000640297118
 30
0.0
 40
2.799999999999999
100
AcDbArc
 50
270.0
 51
0.0
  0
ARC
  5
1663
330
1A
100
AcDbEntity
  8
ZUWAKU
100
AcDbCircle
 10
57.84221172142509
 20
9.950000640297118
 30
0.0
 40
2.799999999999999
100
AcDbArc
 50
180.0
 51
270.0
  0
LINE
  5
1664
330
1A
100
AcDbEntity
  8
ZUWAKU
100
AcDbLine
 10
51.71206020240867
 20
14.73505114663594
 30
0.0
 11
48.8022622277639
 21
17.64484912128062
 31
0.0
  0
LINE
  5
1665
330
1A
100
AcDbEntity
  8
ZUWAKU
100
AcDbLine
 10
46.82236324044163
 20
15.66495013395829
 30
0.0
 11
49.7321612150863
 21
12.75515215931364
 31
0.0
  0
LINE
  5
1666
330
1A
100
AcDbEntity
  8
ZUWAKU
100
AcDbLine
 10
46.64221172142516
 20
7.150000640297122
 30
0.0
 11
50.14221172142516
 21
7.150000640297122
 31
0.0
  0
LINE
  5
1667
330
1A
100
AcDbEntity
  8
ZUWAKU
100
AcDbLine
 10
46.64221172142516
 20
9.950000640297118
 30
0.0
 11
49.61721172142507
 21
9.950000640297118
 31
0.0
  0
ARC
  5
1668
330
1A
100
AcDbEntity
  8
ZUWAKU
100
AcDbCircle
 10
46.64221172142516
 20
9.425000640297119
 30
0.0
 40
0.525
100
AcDbArc
 50
90.0
 51
180.0
  0
ARC
  5
1669
330
1A
100
AcDbEntity
  8
ZUWAKU
100
AcDbCircle
 10
42.96721172142509
 20
7.67500064029712
 30
0.0
 40
0.525
100
AcDbArc
 50
270.0
 51
0.0
  0
ARC
  5
166A
330
1A
100
AcDbEntity
  8
ZUWAKU
100
AcDbCircle
 10
46.64221172142516
 20
7.67500064029712
 30
0.0
 40
0.525
100
AcDbArc
 50
180.0
 51
270.0
  0
LINE
  5
166B
330
1A
100
AcDbEntity
  8
ZUWAKU
100
AcDbLine
 10
46.11721172142507
 20
7.67500064029712
 30
0.0
 11
46.11721172142507
 21
9.425000640297119
 31
0.0
  0
ARC
  5
166C
330
1A
100
AcDbEntity
  8
ZUWAKU
100
AcDbCircle
 10
49.61721172142507
 20
10.47500064029712
 30
0.0
 40
0.525
100
AcDbArc
 50
270.0
 51
0.0
  0
ARC
  5
166D
330
1A
100
AcDbEntity
  8
ZUWAKU
100
AcDbCircle
 10
48.74221172142507
 20
11.76520266565246
 30
0.0
 40
1.399999999999999
100
AcDbArc
 50
0.0
 51
45.0
  0
LINE
  5
166E
330
1A
100
AcDbEntity
  8
ZUWAKU
100
AcDbLine
 10
50.14221172142516
 20
10.47500064029712
 30
0.0
 11
50.14221172142516
 21
11.76520266565246
 31
0.0
  0
ARC
  5
166F
330
1A
100
AcDbEntity
  8
ZUWAKU
100
AcDbCircle
 10
58.89221172142516
 20
11.00000064029711
 30
0.0
 40
1.049999999999999
100
AcDbArc
 50
180.0
 51
270.0
  0
ARC
  5
1670
330
1A
100
AcDbEntity
  8
ZUWAKU
100
AcDbCircle
 10
48.74221172142507
 20
11.76520266565242
 30
0.0
 40
4.199999999999998
100
AcDbArc
 50
0.0
 51
45.0
  0
LINE
  5
1671
330
1A
100
AcDbEntity
  8
ZUWAKU
100
AcDbLine
 10
52.9422117214251
 20
9.950000640297118
 30
0.0
 11
52.9422117214251
 21
11.76520266565246
 31
0.0
  0
ARC
  5
1672
330
1A
100
AcDbEntity
  8
ZUWAKU
100
AcDbCircle
 10
61.34221172142509
 20
9.950000640297118
 30
0.0
 40
2.799999999999999
100
AcDbArc
 50
270.0
 51
0.0
  0
LINE
  5
1673
330
1A
100
AcDbEntity
  8
ZUWAKU
100
AcDbLine
 10
66.76721172142516
 20
7.150000640297122
 30
0.0
 11
68.51721172142516
 21
7.150000640297122
 31
0.0
  0
ARC
  5
1674
330
1A
100
AcDbEntity
  8
ZUWAKU
100
AcDbCircle
 10
60.29221172142513
 20
11.00000064029711
 30
0.0
 40
1.049999999999999
100
AcDbArc
 50
270.0
 51
0.0
  0
ARC
  5
1675
330
1A
100
AcDbEntity
  8
ZUWAKU
100
AcDbCircle
 10
66.76721172142516
 20
7.67500064029712
 30
0.0
 40
0.525
100
AcDbArc
 50
180.0
 51
270.0
  0
ARC
  5
1676
330
1A
100
AcDbEntity
  8
ZUWAKU
100
AcDbCircle
 10
68.51721172142516
 20
7.67500064029712
 30
0.0
 40
0.525
100
AcDbArc
 50
270.0
 51
0.0
  0
LINE
  5
1677
330
1A
100
AcDbEntity
  8
ZUWAKU
100
AcDbLine
 10
42.96721172142509
 20
23.25000064029711
 30
0.0
 11
41.21721172142509
 21
23.25000064029711
 31
0.0
  0
LINE
  5
1678
330
1A
100
AcDbEntity
  8
ZUWAKU
100
AcDbLine
 10
27.39221172142516
 20
22.72500064029712
 30
0.0
 11
27.39221172142516
 21
20.97500064029712
 31
0.0
  0
ARC
  5
1679
330
1A
100
AcDbEntity
  8
ZUWAKU
100
AcDbCircle
 10
26.86721172142507
 20
20.97500064029712
 30
0.0
 40
0.525
100
AcDbArc
 50
270.0
 51
0.0
  0
ARC
  5
167A
330
1A
100
AcDbEntity
  8
ZUWAKU
100
AcDbCircle
 10
30.36721172142506
 20
22.72500064029712
 30
0.0
 40
0.525
100
AcDbArc
 50
90.0
 51
180.0
  0
ARC
  5
167B
330
1A
100
AcDbEntity
  8
ZUWAKU
100
AcDbCircle
 10
26.86721172142507
 20
22.72500064029712
 30
0.0
 40
0.525
100
AcDbArc
 50
0.0
 51
90.0
  0
LINE
  5
167C
330
1A
100
AcDbEntity
  8
ZUWAKU
100
AcDbLine
 10
32.11721172142507
 20
23.25000064029711
 30
0.0
 11
30.36721172142506
 21
23.25000064029711
 31
0.0
  0
ARC
  5
167D
330
1A
100
AcDbEntity
  8
ZUWAKU
100
AcDbCircle
 10
32.11721172142507
 20
22.72500064029712
 30
0.0
 40
0.525
100
AcDbArc
 50
0.0
 51
90.0
  0
ARC
  5
167E
330
1A
100
AcDbEntity
  8
ZUWAKU
100
AcDbCircle
 10
36.17697755793642
 20
22.72500064029712
 30
0.0
 40
0.525
100
AcDbArc
 50
90.0
 51
162.4744316262769
  0
LINE
  5
167F
330
1A
100
AcDbEntity
  8
ZUWAKU
100
AcDbLine
 10
38.3764978367409
 20
22.56690667213015
 30
0.0
 11
37.31485820360308
 21
19.20504783386054
 31
0.0
  0
ARC
  5
1680
330
1A
100
AcDbEntity
  8
ZUWAKU
100
AcDbCircle
 10
37.87586693754543
 20
22.72500064029712
 30
0.0
 40
0.525
100
AcDbArc
 50
342.474431626277
 51
90.0
  0
LINE
  5
1681
330
1A
100
AcDbEntity
  8
ZUWAKU
100
AcDbLine
 10
36.17697755793642
 20
23.25000064029711
 30
0.0
 11
37.87586693754543
 21
23.25000064029711
 31
0.0
  0
ARC
  5
1682
330
1A
100
AcDbEntity
  8
ZUWAKU
100
AcDbCircle
 10
41.21721172142509
 20
22.72500064029712
 30
0.0
 40
0.525
100
AcDbArc
 50
90.0
 51
180.0
  0
LINE
  5
1683
330
1A
100
AcDbEntity
  8
ZUWAKU
100
AcDbLine
 10
51.89221172142516
 20
20.45000064029711
 30
0.0
 11
48.91721172142513
 21
20.45000064029711
 31
0.0
  0
LINE
  5
1684
330
1A
100
AcDbEntity
  8
ZUWAKU
100
AcDbLine
 10
48.39221172142515
 20
23.25000064029711
 30
0.0
 11
51.89221172142516
 21
23.25000064029711
 31
0.0
  0
ARC
  5
1685
330
1A
100
AcDbEntity
  8
ZUWAKU
100
AcDbCircle
 10
48.39221172142515
 20
20.45000064029711
 30
0.0
 40
2.799999999999999
100
AcDbArc
 50
90.0
 51
180.0
  0
LINE
  5
1686
330
1A
100
AcDbEntity
  8
ZUWAKU
100
AcDbLine
 10
45.59221172142509
 20
20.45000064029711
 30
0.0
 11
45.59221172142509
 21
18.63479861494178
 31
0.0
  0
ARC
  5
1687
330
1A
100
AcDbEntity
  8
ZUWAKU
100
AcDbCircle
 10
42.96721172142509
 20
22.72500064029712
 30
0.0
 40
0.525
100
AcDbArc
 50
0.0
 51
90.0
  0
LINE
  5
1688
330
1A
100
AcDbEntity
  8
ZUWAKU
100
AcDbLine
 10
48.39221172142515
 20
19.92500064029711
 30
0.0
 11
48.39221172142515
 21
18.63479861494178
 31
0.0
  0
ARC
  5
1689
330
1A
100
AcDbEntity
  8
ZUWAKU
100
AcDbCircle
 10
48.91721172142513
 20
19.92500064029711
 30
0.0
 40
0.525
100
AcDbArc
 50
90.0
 51
180.0
  0
LINE
  5
168A
330
1A
100
AcDbEntity
  8
ZUWAKU
100
AcDbLine
 10
52.41721172142513
 20
22.72500064029712
 30
0.0
 11
52.41721172142513
 21
20.97500064029712
 31
0.0
  0
ARC
  5
168B
330
1A
100
AcDbEntity
  8
ZUWAKU
100
AcDbCircle
 10
51.89221172142516
 20
20.97500064029712
 30
0.0
 40
0.525
100
AcDbArc
 50
270.0
 51
0.0
  0
ARC
  5
168C
330
1A
100
AcDbEntity
  8
ZUWAKU
100
AcDbCircle
 10
51.89221172142516
 20
22.72500064029712
 30
0.0
 40
0.525
100
AcDbArc
 50
0.0
 51
90.0
  0
LINE
  5
168D
330
1A
100
AcDbEntity
  8
ZUWAKU
100
AcDbLine
 10
57.3172117214251
 20
23.25000064029711
 30
0.0
 11
55.5672117214251
 21
23.25000064029711
 31
0.0
  0
ARC
  5
168E
330
1A
100
AcDbEntity
  8
ZUWAKU
100
AcDbCircle
 10
55.5672117214251
 20
22.72500064029712
 30
0.0
 40
0.525
100
AcDbArc
 50
90.0
 51
180.0
  0
ARC
  5
168F
330
1A
100
AcDbEntity
  8
ZUWAKU
100
AcDbCircle
 10
57.3172117214251
 20
22.72500064029712
 30
0.0
 40
0.525
100
AcDbArc
 50
0.0
 51
90.0
  0
LINE
  5
1690
330
1A
100
AcDbEntity
  8
ZUWAKU
100
AcDbLine
 10
68.51721172142516
 20
23.25000064029711
 30
0.0
 11
66.76721172142516
 21
23.25000064029711
 31
0.0
  0
ARC
  5
1691
330
1A
100
AcDbEntity
  8
ZUWAKU
100
AcDbCircle
 10
61.86721172142507
 20
22.72500064029712
 30
0.0
 40
0.525
100
AcDbArc
 50
90.0
 51
180.0
  0
LINE
  5
1692
330
1A
100
AcDbEntity
  8
ZUWAKU
100
AcDbLine
 10
63.61721172142507
 20
23.25000064029711
 30
0.0
 11
61.86721172142507
 21
23.25000064029711
 31
0.0
  0
ARC
  5
1693
330
1A
100
AcDbEntity
  8
ZUWAKU
100
AcDbCircle
 10
63.61721172142507
 20
22.72500064029712
 30
0.0
 40
0.525
100
AcDbArc
 50
0.0
 51
90.0
  0
ARC
  5
1694
330
1A
100
AcDbEntity
  8
ZUWAKU
100
AcDbCircle
 10
66.76721172142516
 20
22.72500064029712
 30
0.0
 40
0.525
100
AcDbArc
 50
90.0
 51
180.0
  0
ARC
  5
1695
330
1A
100
AcDbEntity
  8
ZUWAKU
100
AcDbCircle
 10
68.51721172142516
 20
22.72500064029712
 30
0.0
 40
0.525
100
AcDbArc
 50
0.0
 51
90.0
  0
TEXT
  5
1696
330
1A
100
AcDbEntity
  8
MOJI
100
AcDbText
 10
239.8272022474949
 20
3.204921697704538
 30
0.0
 40
5.599999999999999
  1
Σ９０－０－２０
 41
0.9
  7
ｽﾀｲﾙ1
100
AcDbText
  0
TEXT
  5
1697
330
1A
100
AcDbEntity
  8
MOJI
100
AcDbText
 10
239.8272022474949
 20
18.0049216977045
 30
0.0
 40
5.599999999999999
  1
ブラケット正面打（吊）固定式
 41
0.9
  7
ｽﾀｲﾙ1
100
AcDbText
  0
LINE
  5
1698
330
1A
100
AcDbEntity
  8
ZUWAKU
100
AcDbLine
 10
208.4466008567117
 20
30.00000064029711
 30
0.0
 11
208.4466008567119
 21
0.8000006402971849
 31
0.0
  0
LINE
  5
1699
330
1A
100
AcDbEntity
  8
ZUWAKU
100
AcDbLine
 10
208.6466008567118
 20
30.00000064029711
 30
0.0
 11
208.646600856712
 21
0.8000006402971849
 31
0.0
  0
LINE
  5
169A
330
1A
100
AcDbEntity
  8
ZUWAKU
100
AcDbLine
 10
208.2466008567119
 20
30.00000064029711
 30
0.0
 11
208.2466008567119
 21
0.8000006402971849
 31
0.0
  0
TEXT
  5
169B
330
1A
100
AcDbEntity
  8
ZUWAKU
100
AcDbText
 10
209.7240458789215
 20
9.655357178682735
 30
0.0
 40
4.0
  1
サイズ
 41
0.9
  7
ｽﾀｲﾙ1
100
AcDbText
  0
TEXT
  5
169C
330
1A
100
AcDbEntity
  8
ZUWAKU
100
AcDbText
 10
209.7240458789213
 20
24.05535717868269
 30
0.0
 40
4.0
  1
品名
 41
0.9
  7
ｽﾀｲﾙ1
100
AcDbText
  0
TEXT
  5
169D
330
1A
100
AcDbEntity
  8
ZUWAKU
100
AcDbText
 10
654.5120755663309
 20
18.0049216977045
 30
0.0
 40
5.599999999999999
  1
　　．　．　　
 41
0.9
  7
ｽﾀｲﾙ1
100
AcDbText
  0
LINE
  5
169E
330
1A
100
AcDbEntity
  8
ZUWAKU
100
AcDbLine
 10
648.8172020768482
 20
15.60000064029715
 30
0.0
 11
697.2490101151852
 21
15.60000064029715
 31
0.0
  0
LINE
  5
169F
330
1A
100
AcDbEntity
  8
ZUWAKU
100
AcDbLine
 10
648.8172020768483
 20
15.40000064029715
 30
0.0
 11
697.2490101151852
 21
15.40000064029714
 31
0.0
  0
LINE
  5
16A0
330
1A
100
AcDbEntity
  8
ZUWAKU
100
AcDbLine
 10
648.8172020768482
 20
15.20000064029714
 30
0.0
 11
697.2490101151852
 21
15.20000064029714
 31
0.0
  0
LINE
  5
16A1
330
1A
100
AcDbEntity
  8
ZUWAKU
100
AcDbLine
 10
505.1991790647847
 20
15.60000064029715
 30
0.0
 11
552.5269553327564
 21
15.60000064029715
 31
0.0
  0
LINE
  5
16A2
330
1A
100
AcDbEntity
  8
ZUWAKU
100
AcDbLine
 10
505.1991790647847
 20
15.40000064029714
 30
0.0
 11
552.5269553327564
 21
15.40000064029714
 31
0.0
  0
LINE
  5
16A3
330
1A
100
AcDbEntity
  8
ZUWAKU
100
AcDbLine
 10
505.1991790647847
 20
15.20000064029715
 30
0.0
 11
552.5269553327564
 21
15.20000064029715
 31
0.0
  0
LINE
  5
16A4
330
1A
100
AcDbEntity
  8
ZUWAKU
100
AcDbLine
 10
504.7991790647849
 20
30.00000064029711
 30
0.0
 11
504.7991790647849
 21
0.8000006402971849
 31
0.0
  0
LINE
  5
16A5
330
1A
100
AcDbEntity
  8
ZUWAKU
100
AcDbLine
 10
505.1991790647847
 20
30.00000064029711
 30
0.0
 11
505.1991790647851
 21
0.8000006402971849
 31
0.0
  0
LINE
  5
16A6
330
1A
100
AcDbEntity
  8
ZUWAKU
100
AcDbLine
 10
504.9991790647848
 20
30.00000064029711
 30
0.0
 11
504.9991790647849
 21
0.8000006402971849
 31
0.0
  0
TEXT
  5
16A7
330
1A
100
AcDbEntity
  8
MOJI
100
AcDbText
 10
528.0409075389568
 20
18.0049216977045
 30
0.0
 40
5.599999999999999
  1
Ａ３
 41
0.9
  7
ｽﾀｲﾙ1
100
AcDbText
  0
LINE
  5
16A8
330
1A
100
AcDbEntity
  8
ZUWAKU
100
AcDbLine
 10
447.4243635376353
 20
30.00000064029711
 30
0.0
 11
447.4243635376353
 21
0.8000006402971849
 31
0.0
  0
LINE
  5
16A9
330
1A
100
AcDbEntity
  8
ZUWAKU
100
AcDbLine
 10
447.8243635376351
 20
30.00000064029711
 30
0.0
 11
447.8243635376355
 21
0.8000006402971849
 31
0.0
  0
LINE
  5
16AA
330
1A
100
AcDbEntity
  8
ZUWAKU
100
AcDbLine
 10
447.6243635376351
 20
30.00000064029711
 30
0.0
 11
447.6243635376353
 21
0.8000006402971849
 31
0.0
  0
TEXT
  5
16AB
330
1A
100
AcDbEntity
  8
MOJI
100
AcDbText
 10
463.246431557646
 20
11.9426183619571
 30
0.0
 40
5.599999999999999
  1
ＬＦ４２Ｔ
 41
0.9
  7
ｽﾀｲﾙ1
100
AcDbText
  0
TEXT
  5
16AC
330
1A
100
AcDbEntity
  8
ZUWAKU
100
AcDbText
 10
506.6766240869947
 20
9.655357178682735
 30
0.0
 40
4.0
  1
縮尺
 41
0.9
  7
ｽﾀｲﾙ1
100
AcDbText
  0
TEXT
  5
16AD
330
1A
100
AcDbEntity
  8
MOJI
100
AcDbText
 10
528.0409075389568
 20
3.204921697704538
 30
0.0
 40
5.599999999999999
  1
１/２
 41
0.9
  7
ｽﾀｲﾙ1
100
AcDbText
  0
TEXT
  5
16AE
330
1A
100
AcDbEntity
  8
ZUWAKU
100
AcDbText
 10
449.3018085598449
 20
24.05535717868269
 30
0.0
 40
4.0
  1
品番
 41
0.9
  7
ｽﾀｲﾙ1
100
AcDbText
  0
TEXT
  5
16AF
330
1A
100
AcDbEntity
  8
ZUWAKU
100
AcDbText
 10
506.6766240869944
 20
24.05535717868269
 30
0.0
 40
4.0
  1
用紙
 41
0.9
  7
ｽﾀｲﾙ1
100
AcDbText
  0
LINE
  5
16B0
330
1A
100
AcDbEntity
  8
ZUWAKU
100
AcDbLine
 10
552.5269553327564
 20
30.00000064029711
 30
0.0
 11
552.5269553327564
 21
0.8000006402971849
 31
0.0
  0
LINE
  5
16B1
330
1A
100
AcDbEntity
  8
ZUWAKU
100
AcDbLine
 10
552.9269553327563
 20
30.00000064029711
 30
0.0
 11
552.9269553327564
 21
0.8000006402971849
 31
0.0
  0
LINE
  5
16B2
330
1A
100
AcDbEntity
  8
ZUWAKU
100
AcDbLine
 10
552.7269553327564
 20
30.00000064029711
 30
0.0
 11
552.7269553327564
 21
0.8000006402971849
 31
0.0
  0
LINE
  5
16B3
330
1A
100
AcDbEntity
  8
ZUWAKU
100
AcDbLine
 10
648.4172020768485
 20
30.00000064029711
 30
0.0
 11
648.4172020768485
 21
0.8000006402971849
 31
0.0
  0
LINE
  5
16B4
330
1A
100
AcDbEntity
  8
ZUWAKU
100
AcDbLine
 10
648.8172020768483
 20
30.00000064029711
 30
0.0
 11
648.8172020768487
 21
0.8000006402971849
 31
0.0
  0
LINE
  5
16B5
330
1A
100
AcDbEntity
  8
ZUWAKU
100
AcDbLine
 10
648.6172020768481
 20
30.00000064029711
 30
0.0
 11
648.6172020768486
 21
0.8000006402971849
 31
0.0
  0
TEXT
  5
16B6
330
1A
100
AcDbEntity
  8
ZUWAKU
100
AcDbText
 10
650.2946470990579
 20
24.05535717868269
 30
0.0
 40
4.0
  1
DATE
 41
0.9
  7
ｽﾀｲﾙ1
100
AcDbText
  0
TEXT
  5
16B7
330
1A
100
AcDbEntity
  8
ZUWAKU
100
AcDbText
 10
708.5280837588877
 20
17.55383997598391
 30
0.0
 40
6.0
  1
積水化学工業株式会社
 41
0.9
  7
ｽﾀｲﾙ1
100
AcDbText
  0
LINE
  5
16B8
330
1A
100
AcDbEntity
  8
ZUWAKU
100
AcDbLine
 10
697.8490101151853
 20
30.00000064029711
 30
0.0
 11
697.8490101151853
 21
0.8000006402971849
 31
0.0
  0
LINE
  5
16B9
330
1A
100
AcDbEntity
  8
ZUWAKU
100
AcDbLine
 10
697.6490101151851
 20
30.00000064029711
 30
0.0
 11
697.6490101151853
 21
0.8000006402971849
 31
0.0
  0
LINE
  5
16BA
330
1A
100
AcDbEntity
  8
ZUWAKU
100
AcDbLine
 10
697.4490101151853
 20
30.00000064029711
 30
0.0
 11
697.4490101151853
 21
0.8000006402971849
 31
0.0
  0
LINE
  5
16BB
330
1A
100
AcDbEntity
  8
ZUWAKU
100
AcDbLine
 10
697.2490101151852
 20
30.00000064029711
 30
0.0
 11
697.2490101151852
 21
0.8000006402971849
 31
0.0
  0
TEXT
  5
16BC
330
1A
100
AcDbEntity
  8
ZUWAKU
100
AcDbText
 10
708.5280837588877
 20
6.648840954151182
 30
0.0
 40
6.0
  1
建材事業部
 41
0.9
  7
ｽﾀｲﾙ1
100
AcDbText
  0
DIMENSION
  5
1B68
330
1A
100
AcDbEntity
  8
SUNPOU
 48
5.0
100
AcDbDimension
  2
*D1
 10
412.6345593402916
 20
190.3702751084347
 30
0.0
 11
407.6345593402916
 21
223.3702751084348
 31
0.0
 70
    32
 71
     5
 42
66.0
  3
STANDARD
100
AcDbAlignedDimension
 13
379.9749308008506
 23
256.3702751084347
 33
0.0
 14
379.9748308008507
 24
190.3702751084347
 34
0.0
 50
90.0
100
AcDbRotatedDimension
1001
ACAD
1000
DSTYLE
1002
{
1070
   140
1040
6.0
1070
    74
1070
     0
1070
   172
1070
     1
1070
    73
1070
     0
1070
   272
1070
     2
1070
    77
1070
     3
1070
   173
1070
     1
1070
   147
1040
2.0
1070
    42
1040
6.0
1070
    44
1040
3.0
1070
    43
1040
14.0
1070
   271
1070
     0
1070
   178
1070
     4
1070
   177
1070
     4
1070
   176
1070
     4
1070
   141
1040
150.0
1070
     7
1000
_OPEN
1070
     6
1000
_OPEN
1070
    41
1040
7.0
1002
}
  0
DIMENSION
  5
1B69
330
1A
100
AcDbEntity
  8
SUNPOU
 48
5.0
100
AcDbDimension
  2
*D2
 10
373.9749308008506
 20
158.6699570795915
 30
0.0
 11
404.4748308008507
 21
163.6699570795915
 31
0.0
 70
    32
  1
t<>
 71
     5
 42
5.999900000000025
  3
STANDARD
100
AcDbAlignedDimension
 13
379.9748308008507
 23
190.3702751084347
 33
0.0
 14
373.9749308008506
 24
192.3702751084347
 34
0.0
100
AcDbRotatedDimension
1001
ACAD
1000
DSTYLE
1002
{
1070
   140
1040
6.0
1070
    74
1070
     0
1070
   172
1070
     1
1070
    73
1070
     0
1070
   272
1070
     2
1070
    77
1070
     3
1070
   173
1070
     1
1070
   280
1070
     1
1070
   147
1040
2.0
1070
    42
1040
6.0
1070
    44
1040
3.0
1070
    43
1040
14.0
1070
   271
1070
     1
1070
   178
1070
     4
1070
   177
1070
     4
1070
   176
1070
     4
1070
   141
1040
150.0
1070
     7
1000
_OPEN
1070
     6
1000
_OPEN
1070
    41
1040
7.0
1002
}
  0
DIMENSION
  5
1B6A
330
1A
100
AcDbEntity
  8
SUNPOU
 48
5.0
100
AcDbDimension
  2
*D3
 10
430.5264095979151
 20
353.8703751084345
 30
0.0
 11
425.526409597915
 21
386.3703751084347
 31
0.0
 70
    32
 71
     5
 42
65.00000000000006
  3
STANDARD
100
AcDbAlignedDimension
 13
379.9750308008506
 23
418.8703751084346
 33
0.0
 14
379.9748308008507
 24
353.8703751084346
 34
0.0
 50
90.0
100
AcDbRotatedDimension
1001
ACAD
1000
DSTYLE
1002
{
1070
   140
1040
6.0
1070
    74
1070
     0
1070
   172
1070
     1
1070
    73
1070
     0
1070
   272
1070
     2
1070
    77
1070
     3
1070
   173
1070
     1
1070
   147
1040
2.0
1070
    42
1040
6.0
1070
    44
1040
3.0
1070
    43
1040
14.0
1070
   271
1070
     0
1070
   178
1070
     4
1070
   177
1070
     4
1070
   176
1070
     4
1070
   141
1040
150.0
1070
     7
1000
_OPEN
1070
     6
1000
_OPEN
1070
    41
1040
7.0
1002
}
  0
DIMENSION
  5
1B6B
330
1A
100
AcDbEntity
  8
SUNPOU
 48
5.0
100
AcDbDimension
  2
*D4
 10
412.6345593402916
 20
373.1258844268984
 30
0.0
 11
407.6345593402916
 21
386.3703748767458
 31
0.0
 70
    32
 71
     5
 42
26.48898089969441
  3
STANDARD
100
AcDbAlignedDimension
 13
373.9749184639489
 23
399.6148653265929
 33
0.0
 14
373.9749308008506
 24
373.1258844268985
 34
0.0
 50
90.0
100
AcDbRotatedDimension
1001
ACAD
1000
DSTYLE
1002
{
1070
   140
1040
6.0
1070
    74
1070
     0
1070
   172
1070
     1
1070
    73
1070
     0
1070
   272
1070
     2
1070
    77
1070
     3
1070
   173
1070
     1
1070
   147
1040
2.0
1070
    42
1040
6.0
1070
    44
1040
3.0
1070
    43
1040
14.0
1070
   271
1070
     0
1070
   178
1070
     4
1070
   177
1070
     4
1070
   176
1070
     4
1070
   141
1040
150.0
1070
     7
1000
_OPEN
1070
     6
1000
_OPEN
1070
    41
1040
7.0
1002
}
  0
DIMENSION
  5
1B6C
330
1A
100
AcDbEntity
  8
SUNPOU
100
AcDbDimension
  2
*D5
 10
379.9749308008506
 20
297.4561992837857
 30
0.0
 11
308.9749308008506
 21
302.4561992837857
 31
0.0
 70
    32
 71
     5
 42
142.0000000000001
  3
STANDARD
100
AcDbAlignedDimension
 13
237.9749308008505
 23
255.8704751084347
 33
0.0
 14
379.9749308008506
 24
256.3702751084347
 34
0.0
100
AcDbRotatedDimension
1001
ACAD
1000
DSTYLE
1002
{
1070
   140
1040
6.0
1070
    74
1070
     0
1070
   172
1070
     1
1070
    73
1070
     0
1070
   272
1070
     2
1070
    77
1070
     3
1070
   173
1070
     1
1070
   147
1040
2.0
1070
    42
1040
6.0
1070
    44
1040
3.0
1070
    43
1040
14.0
1070
   271
1070
     0
1070
   178
1070
     4
1070
   177
1070
     4
1070
   176
1070
     4
1070
   141
1040
150.0
1070
     7
1000
_OPEN
1070
     6
1000
_OPEN
1070
    41
1040
7.0
1002
}
  0
DIMENSION
  5
1B6D
330
1A
100
AcDbEntity
  8
SUNPOU
 48
5.0
100
AcDbDimension
  2
*D6
 10
206.2158226274716
 20
190.3702751084347
 30
0.0
 11
201.2158226274715
 21
223.8703751084348
 31
0.0
 70
    32
 71
     5
 42
67.00019999999995
  3
STANDARD
100
AcDbAlignedDimension
 13
239.4749308008506
 23
257.3704751084347
 33
0.0
 14
375.9748308008507
 24
190.3702751084347
 34
0.0
 50
90.0
100
AcDbRotatedDimension
1001
ACAD
1000
DSTYLE
1002
{
1070
   140
1040
6.0
1070
    74
1070
     0
1070
   172
1070
     1
1070
    73
1070
     0
1070
   272
1070
     2
1070
    77
1070
     3
1070
   173
1070
     1
1070
   147
1040
2.0
1070
    42
1040
6.0
1070
    44
1040
3.0
1070
    43
1040
14.0
1070
   271
1070
     0
1070
   178
1070
     4
1070
   177
1070
     4
1070
   176
1070
     4
1070
   141
1040
150.0
1070
     7
1000
_OPEN
1070
     6
1000
_OPEN
1070
    41
1040
7.0
1002
}
  0
LINE
  5
1B6E
330
1A
100
AcDbEntity
  8
SEIHIN
  6
Continuous
 62
     3
 48
5.0
100
AcDbLine
 10
266.2032308008506
 20
220.8704751084347
 30
0.0
 11
329.7484308008507
 21
220.8703751084347
 31
0.0
  0
LINE
  5
1B6F
330
1A
100
AcDbEntity
  8
SEIHIN
  6
Continuous
 62
     3
 48
5.0
100
AcDbLine
 10
265.8642308008507
 20
218.3704751084347
 30
0.0
 11
331.4427308008507
 21
218.3703751084346
 31
0.0
  0
LINE
  5
1B70
330
1A
100
AcDbEntity
  8
SEIHIN
  6
Continuous
 62
     3
 48
5.0
100
AcDbLine
 10
267.7758308008506
 20
226.8704751084347
 30
0.0
 11
332.1188308008507
 21
226.8703751084346
 31
0.0
  0
LINE
  5
1B71
330
1A
100
AcDbEntity
  8
SEIHIN
  6
Continuous
 62
     3
 48
5.0
100
AcDbLine
 10
324.6202308008507
 20
229.3703751084347
 30
0.0
 11
268.3781308008506
 21
229.3704751084347
 31
0.0
  0
ARC
  5
1B72
330
1A
100
AcDbEntity
  8
SEIHIN
  6
Continuous
 62
     3
 48
5.0
100
AcDbCircle
 10
239.4749308008505
 20
255.8704751084347
 30
0.0
 40
1.5
100
AcDbArc
 50
0.0
 51
180.0
  0
LINE
  5
1B73
330
1A
100
AcDbEntity
  8
SEIHIN
  6
Continuous
 62
     3
 48
5.0
100
AcDbLine
 10
237.9749308008505
 20
253.3704751084347
 30
0.0
 11
240.9749308008505
 21
253.3704751084347
 31
0.0
  0
ARC
  5
1B74
330
1A
100
AcDbEntity
  8
SEIHIN
  6
Continuous
 62
     3
 48
5.0
100
AcDbCircle
 10
240.9749308008505
 20
250.4704751084346
 30
0.0
 40
2.999999999999972
100
AcDbArc
 50
180.0
 51
270.0
  0
LINE
  5
1B75
330
1A
100
AcDbEntity
  8
SEIHIN
  6
Continuous
 62
     3
 48
5.0
100
AcDbLine
 10
237.9749308008505
 20
255.8704751084347
 30
0.0
 11
237.9749308008505
 21
250.4704751084346
 31
0.0
  0
LINE
  5
1B76
330
1A
100
AcDbEntity
  8
SEIHIN
  6
Continuous
 62
     3
 48
5.0
100
AcDbLine
 10
267.0670308008506
 20
230.1416751084347
 30
0.0
 11
255.8201308008506
 21
250.3746751084347
 31
0.0
  0
LINE
  5
1B77
330
1A
100
AcDbEntity
  8
SEIHIN
  6
Continuous
 62
     3
 48
5.0
100
AcDbLine
 10
265.1247308008506
 20
228.4662751084347
 30
0.0
 11
257.6988308008506
 21
241.4864751084347
 31
0.0
  0
LINE
  5
1B78
330
1A
100
AcDbEntity
  8
SEIHIN
  6
Continuous
 62
     3
 48
5.0
100
AcDbLine
 10
251.7301308008506
 20
244.3220751084347
 30
0.0
 11
261.2197308008506
 21
221.5188751084346
 31
0.0
  0
LINE
  5
1B79
330
1A
100
AcDbEntity
  8
SEIHIN
  6
Continuous
 62
     3
 48
5.0
100
AcDbLine
 10
263.4165308008506
 20
222.7594751084346
 30
0.0
 11
255.8862308008506
 21
240.6480751084346
 31
0.0
  0
ARC
  5
1B7A
330
1A
100
AcDbEntity
  8
SEIHIN
  6
Continuous
 62
     3
 48
5.0
100
AcDbCircle
 10
266.2032286015406
 20
223.8704765992673
 30
0.0
 40
3.000001490833388
100
AcDbArc
 50
201.7361955780049
 51
270.0000420037083
  0
ARC
  5
1B7B
330
1A
100
AcDbEntity
  8
SEIHIN
  6
Continuous
 62
     3
 48
5.0
100
AcDbCircle
 10
267.7758157317065
 20
229.8704841792407
 30
0.0
 40
3.000009070843807
100
AcDbArc
 50
207.9089769792306
 51
270.000287798583
  0
ARC
  5
1B7C
330
1A
100
AcDbEntity
  8
SEIHIN
  6
Continuous
 62
     3
 48
5.0
100
AcDbCircle
 10
265.8642453456431
 20
223.3704652489153
 30
0.0
 40
4.99999014050173
100
AcDbArc
 50
201.7352772735026
 51
269.9998333286267
  0
ARC
  5
1B7D
330
1A
100
AcDbEntity
  8
SEIHIN
  6
Continuous
 62
     3
 48
5.0
100
AcDbCircle
 10
268.3780932176727
 20
230.8704972164422
 30
0.0
 40
1.500022108478309
100
AcDbArc
 50
209.0697663882928
 51
270.0014355504935
  0
ARC
  5
1B7E
330
1A
100
AcDbEntity
  8
SEIHIN
  6
Continuous
 62
     3
 48
5.0
100
AcDbCircle
 10
256.8151457981741
 20
241.0183820452804
 30
0.0
 40
1.000005149850987
100
AcDbArc
 50
27.91042787742912
 51
201.7344304884515
  0
ARC
  5
1B7F
330
1A
100
AcDbEntity
  8
SEIHIN
  6
Continuous
 62
     3
 48
5.0
100
AcDbCircle
 10
253.1690458699948
 20
248.9704660376288
 30
0.0
 40
3.000009070843673
100
AcDbArc
 50
27.90897697923056
 51
90.00028779858296
  0
ARC
  5
1B80
330
1A
100
AcDbEntity
  8
SEIHIN
  6
Continuous
 62
     3
 48
5.0
100
AcDbCircle
 10
247.0856162560581
 20
242.4704849679542
 30
0.0
 40
4.999990140501685
100
AcDbArc
 50
21.7352772735011
 51
89.99983332862664
  0
LINE
  5
1B81
330
1A
100
AcDbEntity
  8
SEIHIN
  6
Continuous
 62
     3
 48
5.0
100
AcDbLine
 10
247.0856308008506
 20
247.4704751084347
 30
0.0
 11
240.9749308008505
 21
247.4704751084347
 31
0.0
  0
LINE
  5
1B82
330
1A
100
AcDbEntity
  8
SEIHIN
  6
Continuous
 62
     3
 48
5.0
100
AcDbLine
 10
253.1690308008507
 20
251.9704751084346
 30
0.0
 11
241.9749308008505
 21
251.9704751084346
 31
0.0
  0
ARC
  5
1B83
330
1A
100
AcDbEntity
  8
SEIHIN
  6
Continuous
 62
     3
 48
5.0
100
AcDbCircle
 10
241.9749308008505
 20
252.9704751084346
 30
0.0
 40
1.0
100
AcDbArc
 50
180.0
 51
270.0
  0
LINE
  5
1B84
330
1A
100
AcDbEntity
  8
SEIHIN
  6
Continuous
 62
     3
 48
5.0
100
AcDbLine
 10
240.9749308008505
 20
255.8704751084347
 30
0.0
 11
240.9749308008505
 21
252.9704751084346
 31
0.0
  0
ARC
  5
1B85
330
1A
100
AcDbEntity
  8
SEIHIN
  6
Continuous
 62
     3
 48
5.0
100
AcDbCircle
 10
363.2187831525326
 20
221.3702516143245
 30
0.0
 40
4.99997650616382
100
AcDbArc
 50
221.6607273180342
 51
269.999400091095
  0
ARC
  5
1B86
330
1A
100
AcDbEntity
  8
SEIHIN
  6
Continuous
 62
     3
 48
5.0
100
AcDbCircle
 10
370.9749308008505
 20
213.3702751084346
 30
0.0
 40
3.000000000000057
100
AcDbArc
 50
0.0000000000016284
 51
90.00000000000162
  0
LINE
  5
1B87
330
1A
100
AcDbEntity
  8
SEIHIN
  6
Continuous
 62
     3
 48
5.0
100
AcDbLine
 10
373.9749308008506
 20
252.8702751084347
 30
0.0
 11
373.9749308008506
 21
192.3702751084347
 31
0.0
  0
LINE
  5
1B88
330
1A
100
AcDbEntity
  8
SEIHIN
  6
Continuous
 62
     3
 48
5.0
100
AcDbLine
 10
375.9749308008506
 20
256.3702751084347
 30
0.0
 11
375.9748308008507
 21
190.3702751084347
 31
0.0
  0
LINE
  5
1B89
330
1A
100
AcDbEntity
  8
SEIHIN
  6
Continuous
 62
     3
 48
5.0
100
AcDbLine
 10
379.9749308008506
 20
256.3702751084347
 30
0.0
 11
379.9748308008507
 21
190.3702751084347
 31
0.0
  0
LINE
  5
1B8A
330
1A
100
AcDbEntity
  8
CENTER L
  6
CENTER
 62
     1
 48
5.0
100
AcDbLine
 10
386.9748459523738
 20
200.3702751084347
 30
0.0
 11
366.9749308008506
 21
200.3702751084347
 31
0.0
  0
LINE
  5
1B8B
330
1A
100
AcDbEntity
  8
SEIHIN
  6
Continuous
 62
     3
 48
5.0
100
AcDbLine
 10
370.9749308008505
 20
216.3702751084347
 30
0.0
 11
363.2187308008506
 21
216.3702751084347
 31
0.0
  0
LINE
  5
1B8C
330
1A
100
AcDbEntity
  8
SEIHIN
  6
Continuous
 62
     3
 48
5.0
100
AcDbLine
 10
375.9748308008507
 20
190.3702751084347
 30
0.0
 11
379.9748308008507
 21
190.3702751084347
 31
0.0
  0
LINE
  5
1B8D
330
1A
100
AcDbEntity
  8
SEIHIN
  6
Continuous
 62
     3
 48
5.0
100
AcDbLine
 10
373.9748308008507
 20
192.3702751084347
 30
0.0
 11
375.9748308008507
 21
190.3702751084347
 31
0.0
  0
LINE
  5
1B8E
330
1A
100
AcDbEntity
  8
SEIHIN
  6
Continuous
 62
     3
 48
5.0
100
AcDbLine
 10
340.0225308008505
 20
253.9193751084347
 30
0.0
 11
325.9106308008505
 21
230.1056751084347
 31
0.0
  0
LINE
  5
1B8F
330
1A
100
AcDbEntity
  8
SEIHIN
  6
Continuous
 62
     3
 48
5.0
100
AcDbLine
 10
338.4324308008506
 20
245.3703751084347
 30
0.0
 11
343.0818308008505
 21
245.3703751084347
 31
0.0
  0
LINE
  5
1B90
330
1A
100
AcDbEntity
  8
SEIHIN
  6
Continuous
 62
     3
 48
5.0
100
AcDbLine
 10
335.2714308008507
 20
221.0687751084347
 30
0.0
 11
348.7503308008506
 21
222.8900751084347
 31
0.0
  0
LINE
  5
1B91
330
1A
100
AcDbEntity
  8
SEIHIN
  6
Continuous
 62
     3
 48
5.0
100
AcDbLine
 10
331.4427308008507
 20
218.3703751084346
 30
0.0
 11
348.9662308008507
 21
221.6083751084347
 31
0.0
  0
LINE
  5
1B92
330
1A
100
AcDbEntity
  8
SEIHIN
  6
Continuous
 62
     3
 48
5.0
100
AcDbLine
 10
327.7709308008506
 20
228.3409751084346
 30
0.0
 11
342.0279308008506
 21
252.3997751084347
 31
0.0
  0
LINE
  5
1B93
330
1A
100
AcDbEntity
  8
SEIHIN
  6
Continuous
 62
     3
 48
5.0
100
AcDbLine
 10
334.2263308008505
 20
222.5613751084347
 30
0.0
 11
346.2903308008506
 21
242.9193751084346
 31
0.0
  0
LINE
  5
1B94
330
1A
100
AcDbEntity
  8
SEIHIN
  6
Continuous
 62
     3
 48
5.0
100
AcDbLine
 10
335.6457308008505
 20
229.8605751084346
 30
0.0
 11
343.9420308008505
 21
243.8605751084346
 31
0.0
  0
LINE
  5
1B95
330
1A
100
AcDbEntity
  8
SEIHIN
  6
Continuous
 62
     3
 48
5.0
100
AcDbLine
 10
320.6202308008507
 20
229.3703751084347
 30
0.0
 11
307.9748308008507
 21
229.3703751084347
 31
0.0
  0
LINE
  5
1B96
330
1A
100
AcDbEntity
  8
SEIHIN
  6
Continuous
 62
     3
 48
5.0
100
AcDbLine
 10
330.6087308008506
 20
221.3605751084346
 30
0.0
 11
332.9791308008506
 21
225.3605751084346
 31
0.0
  0
ARC
  5
1B97
330
1A
100
AcDbEntity
  8
SEIHIN
  6
Continuous
 62
     3
 48
5.0
100
AcDbCircle
 10
325.1900467666985
 20
229.8703842059071
 30
0.0
 40
3.000009097514992
100
AcDbArc
 50
269.9996950756887
 51
329.3493922354882
  0
ARC
  5
1B98
330
1A
100
AcDbEntity
  8
SEIHIN
  6
Continuous
 62
     3
 48
5.0
100
AcDbCircle
 10
329.7484361228001
 20
221.8703781409255
 30
0.0
 40
1.000003032504929
100
AcDbArc
 50
269.9996950756855
 51
329.3493922354832
  0
ARC
  5
1B99
330
1A
100
AcDbEntity
  8
SEIHIN
  6
Continuous
 62
     3
 48
5.0
100
AcDbCircle
 10
335.0866362701967
 20
222.0515672972419
 30
0.0
 40
1.000014752361212
100
AcDbArc
 50
149.3494718948717
 51
280.6489943943216
  0
ARC
  5
1B9A
330
1A
100
AcDbEntity
  8
SEIHIN
  6
Continuous
 62
     3
 48
5.0
100
AcDbCircle
 10
332.1188325287891
 20
225.8703720759438
 30
0.0
 40
1.000003032492292
100
AcDbArc
 50
329.3497961630746
 51
90.00009900327696
  0
LINE
  5
1B9B
330
1A
100
AcDbEntity
  8
SEIHIN
  6
Continuous
 62
     3
 48
5.0
100
AcDbLine
 10
334.7855308008507
 20
229.3703751084347
 30
0.0
 11
330.1359308008505
 21
229.3703751084347
 31
0.0
  0
ARC
  5
1B9C
330
1A
100
AcDbEntity
  8
SEIHIN
  6
Continuous
 62
     3
 48
5.0
100
AcDbCircle
 10
324.620201038454
 20
230.8703581499095
 30
0.0
 40
1.499983041770101
100
AcDbArc
 50
270.0011368526631
 51
329.3498603500711
  0
ARC
  5
1B9D
330
1A
100
AcDbEntity
  8
SEIHIN
  6
Continuous
 62
     3
 48
5.0
100
AcDbCircle
 10
330.1359290729122
 20
230.3703781409254
 30
0.0
 40
1.000003032492234
100
AcDbArc
 50
149.3497961630746
 51
270.0000990032737
  0
ARC
  5
1B9E
330
1A
100
AcDbEntity
  8
SEIHIN
  6
Continuous
 62
     3
 48
5.0
100
AcDbCircle
 10
334.7854606299364
 20
230.370335126836
 30
0.0
 40
0.9999600208633945
100
AcDbArc
 50
270.0040206579752
 51
329.3507966630619
  0
ARC
  5
1B9F
330
1A
100
AcDbEntity
  8
SEIHIN
  6
Continuous
 62
     3
 48
5.0
100
AcDbCircle
 10
338.4324254789012
 20
244.3703720759438
 30
0.0
 40
1.000003032505085
100
AcDbArc
 50
89.9996950756838
 51
149.3493922354868
  0
DIMENSION
  5
1BA0
330
1A
100
AcDbEntity
  8
SUNPOU
100
AcDbDimension
  2
*D7
 10
379.9749308008506
 20
281.94380998219
 30
0.0
 11
369.7999308008507
 21
286.94380998219
 31
0.0
 70
    32
 71
     5
 42
20.34999999999991
  3
STANDARD
100
AcDbAlignedDimension
 13
359.6249308008507
 23
239.6704751084347
 33
0.0
 14
379.9749308008506
 24
256.3702751084347
 34
0.0
100
AcDbRotatedDimension
1001
ACAD
1000
DSTYLE
1002
{
1070
   140
1040
6.0
1070
    74
1070
     0
1070
   172
1070
     1
1070
    73
1070
     0
1070
   272
1070
     2
1070
    77
1070
     3
1070
   173
1070
     1
1070
   147
1040
2.0
1070
    42
1040
6.0
1070
    44
1040
3.0
1070
    43
1040
14.0
1070
   271
1070
     0
1070
   178
1070
     4
1070
   177
1070
     4
1070
   176
1070
     4
1070
   141
1040
150.0
1070
     7
1000
_OPEN
1070
     6
1000
_OPEN
1070
    41
1040
7.0
1002
}
  0
LINE
  5
1BA1
330
1A
100
AcDbEntity
  8
SEIHIN
  6
Continuous
 62
     3
 48
5.0
100
AcDbLine
 10
372.9749308008505
 20
253.8702751084347
 30
0.0
 11
344.6088308008505
 21
253.8703751084346
 31
0.0
  0
ARC
  5
1BA2
330
1A
100
AcDbEntity
  8
SEIHIN
  6
Continuous
 62
     3
 48
5.0
100
AcDbCircle
 10
370.9749308008505
 20
242.3702751084346
 30
0.0
 40
3.000000000000057
100
AcDbArc
 50
0.0000000000016284
 51
90.00000000000162
  0
LINE
  5
1BA3
330
1A
100
AcDbEntity
  8
CENTER L
  6
CENTER
 62
     1
 48
5.0
100
AcDbLine
 10
386.9748974695214
 20
234.3715924930851
 30
0.0
 11
366.9749308008506
 21
234.3717961276286
 31
0.0
  0
LINE
  5
1BA4
330
1A
100
AcDbEntity
  8
SEIHIN
  6
Continuous
 62
     3
 48
5.0
100
AcDbLine
 10
344.3239308008506
 20
256.3703751084346
 30
0.0
 11
379.9749308008506
 21
256.3702751084347
 31
0.0
  0
LINE
  5
1BA5
330
1A
100
AcDbEntity
  8
SEIHIN
  6
Continuous
 62
     3
 48
5.0
100
AcDbLine
 10
341.0991308008506
 20
247.8703751084346
 30
0.0
 11
372.9749308008505
 21
247.8702751084347
 31
0.0
  0
ARC
  5
1BA6
330
1A
100
AcDbEntity
  8
SEIHIN
  6
Continuous
 62
     3
 48
5.0
100
AcDbCircle
 10
370.9749308008506
 20
221.8702751084347
 30
0.0
 40
3.000000000000014
100
AcDbArc
 50
269.9999999999984
 51
359.9999999999984
  0
LINE
  5
1BA7
330
1A
100
AcDbEntity
  8
CENTER L
  6
CENTER
 62
     1
 48
5.0
100
AcDbLine
 10
386.97488989376
 20
229.3715899672363
 30
0.0
 11
366.9749308008506
 21
229.3717978346073
 31
0.0
  0
LINE
  5
1BA8
330
1A
100
AcDbEntity
  8
SEIHIN
  6
Continuous
 62
     3
 48
5.0
100
AcDbLine
 10
363.9749308008505
 20
221.8702751084346
 30
0.0
 11
363.9749308008505
 21
242.3702751084347
 31
0.0
  0
LINE
  5
1BA9
330
1A
100
AcDbEntity
  8
SEIHIN
  6
Continuous
 62
     3
 48
5.0
100
AcDbLine
 10
360.9749308008506
 20
225.3702751084347
 30
0.0
 11
360.9749308008506
 21
240.3703751084347
 31
0.0
  0
ARC
  5
1BAA
330
1A
100
AcDbEntity
  8
SEIHIN
  6
Continuous
 62
     3
 48
5.0
100
AcDbCircle
 10
355.9749290852002
 20
224.3702730025498
 30
0.0
 40
1.500056283941701
100
AcDbArc
 50
60.00116551694585
 51
221.6598502276956
  0
LINE
  5
1BAB
330
1A
100
AcDbEntity
  8
SEIHIN
  6
Continuous
 62
     3
 48
5.0
100
AcDbLine
 10
359.4833308008505
 20
218.0466751084347
 30
0.0
 11
354.8542308008506
 21
223.3731751084346
 31
0.0
  0
ARC
  5
1BAC
330
1A
100
AcDbEntity
  8
SEIHIN
  6
Continuous
 62
     3
 48
5.0
100
AcDbCircle
 10
348.8461318880762
 20
222.2471678160262
 30
0.0
 40
0.650005873008619
100
AcDbArc
 50
278.4841295194107
 51
98.47541122564407
  0
ARC
  5
1BAD
330
1A
100
AcDbEntity
  8
SEIHIN
  6
Continuous
 62
     3
 48
5.0
100
AcDbCircle
 10
366.9749308008504
 20
221.8702751084347
 30
0.0
 40
2.999999999999957
100
AcDbArc
 50
180.0
 51
270.0
  0
ARC
  5
1BAE
330
1A
100
AcDbEntity
  8
SEIHIN
  6
Continuous
 62
     3
 48
5.0
100
AcDbCircle
 10
359.9749418009716
 20
225.3702814592643
 30
0.0
 40
0.999988999899185
100
AcDbArc
 50
239.9989083394349
 51
359.9996361202627
  0
LINE
  5
1BAF
330
1A
100
AcDbEntity
  8
SEIHIN
  6
Continuous
 62
     3
 48
5.0
100
AcDbLine
 10
356.7249308008506
 20
225.6693751084346
 30
0.0
 11
359.4749308008506
 21
224.5042751084346
 31
0.0
  0
LINE
  5
1BB0
330
1A
100
AcDbEntity
  8
SEIHIN
  6
Continuous
 62
     3
 48
5.0
100
AcDbLine
 10
370.9749308008505
 20
218.8702751084347
 30
0.0
 11
366.9749308008505
 21
218.8702751084347
 31
0.0
  0
LINE
  5
1BB1
330
1A
100
AcDbEntity
  8
SEIHIN
  6
Continuous
 62
     3
 48
5.0
100
AcDbLine
 10
350.5917308008507
 20
245.3703751084347
 30
0.0
 11
355.9749308008505
 21
245.3703751084347
 31
0.0
  0
ARC
  5
1BB2
330
1A
100
AcDbEntity
  8
SEIHIN
  6
Continuous
 62
     3
 48
5.0
100
AcDbCircle
 10
350.5917796813008
 20
240.3704029605898
 30
0.0
 40
4.999972148083807
100
AcDbArc
 50
90.00056013181865
 51
149.349673100884
  0
ARC
  5
1BB3
330
1A
100
AcDbEntity
  8
SEIHIN
  6
Continuous
 62
     3
 48
5.0
100
AcDbCircle
 10
343.0818225469482
 20
244.3703895961446
 30
0.0
 40
0.9999855123242106
100
AcDbArc
 50
329.3413739645466
 51
89.99952707937747
  0
ARC
  5
1BB4
330
1A
100
AcDbEntity
  8
SEIHIN
  6
Continuous
 62
     3
 48
5.0
100
AcDbCircle
 10
341.0991290729123
 20
248.8703781409255
 30
0.0
 40
1.000003032492342
100
AcDbArc
 50
149.3497961630724
 51
270.0000990032753
  0
ARC
  5
1BB5
330
1A
100
AcDbEntity
  8
SEIHIN
  6
Continuous
 62
     3
 48
5.0
100
AcDbCircle
 10
344.6088148350025
 20
250.8703660109623
 30
0.0
 40
3.000009097514765
100
AcDbArc
 50
89.99969507568869
 51
149.3493922354882
  0
ARC
  5
1BB6
330
1A
100
AcDbEntity
  8
SEIHIN
  6
Continuous
 62
     3
 48
5.0
100
AcDbCircle
 10
344.3239796813006
 20
251.3704029605897
 30
0.0
 40
4.999972148083865
100
AcDbArc
 50
90.00056013181539
 51
149.3496731008817
  0
ARC
  5
1BB7
330
1A
100
AcDbEntity
  8
SEIHIN
  6
Continuous
 62
     3
 48
5.0
100
AcDbCircle
 10
366.9749308008505
 20
242.3702751084347
 30
0.0
 40
3.0
100
AcDbArc
 50
90.0
 51
180.0
  0
ARC
  5
1BB8
330
1A
100
AcDbEntity
  8
SEIHIN
  6
Continuous
 62
     3
 48
5.0
100
AcDbCircle
 10
355.9749308008505
 20
240.3703751084346
 30
0.0
 40
5.000000000000057
100
AcDbArc
 50
0.0
 51
90.0
  0
LINE
  5
1BB9
330
1A
100
AcDbEntity
  8
SEIHIN
  6
Continuous
 62
     3
 48
5.0
100
AcDbLine
 10
370.9749308008505
 20
245.3702751084347
 30
0.0
 11
366.9749308008505
 21
245.3702751084347
 31
0.0
  0
ARC
  5
1BBA
330
1A
100
AcDbEntity
  8
SEIHIN
  6
Continuous
 62
     3
 48
5.0
100
AcDbCircle
 10
372.9749308008505
 20
248.8702751084348
 30
0.0
 40
1.000000000000057
100
AcDbArc
 50
269.9999999999968
 51
359.9999999999968
  0
ARC
  5
1BBB
330
1A
100
AcDbEntity
  8
SEIHIN
  6
Continuous
 62
     3
 48
5.0
100
AcDbCircle
 10
372.9749308008505
 20
252.8702751084346
 30
0.0
 40
1.000000000000057
100
AcDbArc
 50
0.0000000000032569
 51
90.00000000000325
  0
LINE
  5
1BBC
330
1A
100
AcDbEntity
  8
SEIHIN
  6
Continuous
 62
     3
 48
5.0
100
AcDbLine
 10
375.9749308008506
 20
256.3702751084347
 30
0.0
 11
373.9749308008506
 21
254.3702751084347
 31
0.0
  0
LINE
  5
1BBD
330
1A
100
AcDbEntity
  8
CENTER L
  6
CENTER
 62
     1
 48
5.0
100
AcDbLine
 10
387.0713308008507
 20
386.3703751084346
 30
0.0
 11
233.2670308008506
 21
386.3705751084346
 31
0.0
  0
LINE
  5
1BBE
330
1A
100
AcDbEntity
  8
SEIHIN
  6
Continuous
 62
     3
 48
5.0
100
AcDbLine
 10
267.4749308008506
 20
378.8704751084347
 30
0.0
 11
374.0826538415512
 21
373.1200738656235
 31
0.0
  0
LINE
  5
1BBF
330
1A
100
AcDbEntity
  8
SEIHIN
  6
Continuous
 62
     3
 48
5.0
100
AcDbLine
 10
267.4749308008506
 20
393.8704751084347
 30
0.0
 11
374.0826501058147
 21
399.6206761497047
 31
0.0
  0
DIMENSION
  5
1BC0
330
1A
100
AcDbEntity
  8
SUNPOU
 48
5.0
100
AcDbDimension
  2
*D8
 10
205.0491559608049
 20
378.8705751086483
 30
0.0
 11
200.0491559608049
 21
386.3705751085415
 31
0.0
 70
    32
 71
     5
 42
14.99999999978644
  3
STANDARD
100
AcDbAlignedDimension
 13
240.9749308008505
 23
393.8705751084347
 33
0.0
 14
240.974874197077
 24
378.8705751086483
 34
0.0
 50
90.0
100
AcDbRotatedDimension
1001
ACAD
1000
DSTYLE
1002
{
1070
   140
1040
6.0
1070
    74
1070
     0
1070
   172
1070
     1
1070
    73
1070
     0
1070
   272
1070
     2
1070
    77
1070
     3
1070
   173
1070
     1
1070
   147
1040
2.0
1070
    42
1040
6.0
1070
    44
1040
3.0
1070
    43
1040
14.0
1070
   271
1070
     0
1070
   178
1070
     4
1070
   177
1070
     4
1070
   176
1070
     4
1070
   141
1040
150.0
1070
     7
1000
_OPEN
1070
     6
1000
_OPEN
1070
    41
1040
7.0
1002
}
  0
LINE
  5
1BC1
330
1A
100
AcDbEntity
  8
SEIHIN
  6
Continuous
 62
     3
 48
5.0
100
AcDbLine
 10
237.9749308008505
 20
397.3705751084346
 30
0.0
 11
240.9749308008505
 21
397.3705751084346
 31
0.0
  0
LINE
  5
1BC2
330
1A
100
AcDbEntity
  8
SEIHIN
  6
Continuous
 62
     3
 48
5.0
100
AcDbLine
 10
237.9749308008505
 20
375.3705751084347
 30
0.0
 11
240.9749308008505
 21
375.3705751084347
 31
0.0
  0
LINE
  5
1BC3
330
1A
100
AcDbEntity
  8
SEIHIN
  6
Continuous
 62
     3
 48
5.0
100
AcDbLine
 10
237.9749308008505
 20
386.3707751084347
 30
0.0
 11
237.9749308008505
 21
375.3705751084347
 31
0.0
  0
LINE
  5
1BC4
330
1A
100
AcDbEntity
  8
SEIHIN
  6
Continuous
 62
     3
 48
5.0
100
AcDbLine
 10
237.9749308008505
 20
386.3703751084346
 30
0.0
 11
237.9749308008505
 21
397.3705751084346
 31
0.0
  0
LINE
  5
1BC5
330
1A
100
AcDbEntity
  8
SEIHIN
  6
Continuous
 62
     3
 48
5.0
100
AcDbLine
 10
240.9749308008505
 20
386.3707751084347
 30
0.0
 11
240.9749308008505
 21
375.3704751084347
 31
0.0
  0
LINE
  5
1BC6
330
1A
100
AcDbEntity
  8
SEIHIN
  6
Continuous
 62
     3
 48
5.0
100
AcDbLine
 10
254.9749308008506
 20
386.3705751084346
 30
0.0
 11
254.9749308008506
 21
378.8704751084347
 31
0.0
  0
LINE
  5
1BC7
330
1A
100
AcDbEntity
  8
SEIHIN
  6
Continuous
 62
     3
 48
5.0
100
AcDbLine
 10
267.4749308008506
 20
386.3705751084346
 30
0.0
 11
267.4748308008506
 21
378.8704751084347
 31
0.0
  0
LINE
  5
1BC8
330
1A
100
AcDbEntity
  8
SEIHIN
  6
Continuous
 62
     3
 48
5.0
100
AcDbLine
 10
240.9749308008505
 20
378.8705751084347
 30
0.0
 11
267.4749308008506
 21
378.8704751084347
 31
0.0
  0
LINE
  5
1BC9
330
1A
100
AcDbEntity
  8
SEIHIN
  6
Continuous
 62
     3
 48
5.0
100
AcDbLine
 10
240.9749308008505
 20
393.8705751084347
 30
0.0
 11
267.4749308008506
 21
393.8704751084347
 31
0.0
  0
LINE
  5
1BCA
330
1A
100
AcDbEntity
  8
SEIHIN
  6
Continuous
 62
     3
 48
5.0
100
AcDbLine
 10
254.9749308008506
 20
386.3704751084347
 30
0.0
 11
254.9749308008506
 21
393.8705751084347
 31
0.0
  0
LINE
  5
1BCB
330
1A
100
AcDbEntity
  8
SEIHIN
  6
Continuous
 62
     3
 48
5.0
100
AcDbLine
 10
240.9749308008505
 20
386.3703751084346
 30
0.0
 11
240.9749308008505
 21
397.3705751084346
 31
0.0
  0
LINE
  5
1BCC
330
1A
100
AcDbEntity
  8
SEIHIN
  6
Continuous
 62
     3
 48
5.0
100
AcDbLine
 10
267.4749308008506
 20
386.3704751084347
 30
0.0
 11
267.4749308008506
 21
393.8705751084347
 31
0.0
  0
LINE
  5
1BCD
330
1A
100
AcDbEntity
  8
SEIHIN
  6
Continuous
 62
     3
 48
5.0
100
AcDbLine
 10
379.9749308008506
 20
386.3703751084346
 30
0.0
 11
379.9749308008506
 21
418.8703751084346
 31
0.0
  0
LINE
  5
1BCE
330
1A
100
AcDbEntity
  8
SEIHIN
  6
Continuous
 62
     3
 48
5.0
100
AcDbLine
 10
375.9749308008506
 20
401.617773180732
 30
0.0
 11
375.9749308008506
 21
418.8703751084346
 31
0.0
  0
LINE
  5
1BCF
330
1A
100
AcDbEntity
  8
SEIHIN
  6
Continuous
 62
     3
 48
5.0
100
AcDbLine
 10
373.9750308008506
 20
416.8703751084345
 30
0.0
 11
373.9749308007407
 21
401.5098582290779
 31
0.0
  0
LINE
  5
1BD0
330
1A
100
AcDbEntity
  8
SEIHIN
  6
Continuous
 62
     3
 48
5.0
100
AcDbLine
 10
325.4749308008506
 20
386.3704751084347
 30
0.0
 11
325.4748308008507
 21
375.7407751084347
 31
0.0
  0
LINE
  5
1BD1
330
1A
100
AcDbEntity
  8
SEIHIN
  6
Continuous
 62
     3
 48
5.0
100
AcDbLine
 10
325.4749308008506
 20
386.3703751084346
 30
0.0
 11
325.4749308008506
 21
397.0001751084347
 31
0.0
  0
LINE
  5
1BD2
330
1A
100
AcDbEntity
  8
SEIHIN
  6
Continuous
 62
     3
 48
5.0
100
AcDbLine
 10
375.9749308007945
 20
371.1229654436432
 30
0.0
 11
375.9748308008507
 21
353.8703751084346
 31
0.0
  0
LINE
  5
1BD3
330
1A
100
AcDbEntity
  8
SEIHIN
  6
Continuous
 62
     3
 48
5.0
100
AcDbLine
 10
373.9749308008506
 20
355.8703751084346
 30
0.0
 11
373.9749308008506
 21
371.2308761242386
 31
0.0
  0
LINE
  5
1BD4
330
1A
100
AcDbEntity
  8
SEIHIN
  6
Continuous
 62
     3
 48
5.0
100
AcDbLine
 10
379.9749308008506
 20
386.3703751084346
 30
0.0
 11
379.9748308008507
 21
353.8703751084346
 31
0.0
  0
LINE
  5
1BD5
330
1A
100
AcDbEntity
  8
SEIHIN
  6
Continuous
 62
     3
 48
5.0
100
AcDbLine
 10
375.9749308008506
 20
353.8703751084346
 30
0.0
 11
379.9749308008506
 21
353.8703751084346
 31
0.0
  0
LINE
  5
1BD6
330
1A
100
AcDbEntity
  8
SEIHIN
  6
Continuous
 62
     3
 48
5.0
100
AcDbLine
 10
375.9749308008506
 20
353.8703751084346
 30
0.0
 11
373.9749308008506
 21
355.8703751084346
 31
0.0
  0
LINE
  5
1BD7
330
1A
100
AcDbEntity
  8
CENTER L
  6
CENTER
 62
     1
 48
5.0
100
AcDbLine
 10
387.0713002425373
 20
362.8703751084545
 30
0.0
 11
367.6313307160401
 21
362.870400387292
 31
0.0
  0
LINE
  5
1BD8
330
1A
100
AcDbEntity
  8
SEIHIN
  6
Continuous
 62
     3
 48
5.0
100
AcDbLine
 10
341.4749308008505
 20
374.8789751084345
 30
0.0
 11
341.4749308008505
 21
397.8618751084347
 31
0.0
  0
ARC
  5
1BD9
330
1A
100
AcDbEntity
  8
SEIHIN
  6
Continuous
 62
     3
 48
5.0
100
AcDbCircle
 10
373.9749308008281
 20
371.1229770360989
 30
0.0
 40
2.0
100
AcDbArc
 50
359.9996679006094
 51
86.91246812193828
  0
LINE
  5
1BDA
330
1A
100
AcDbEntity
  8
SEIHIN
  6
Continuous
 62
     3
 48
5.0
100
AcDbLine
 10
375.9748308008507
 20
373.0180751084347
 30
0.0
 11
379.9748308008507
 21
373.0180751084347
 31
0.0
  0
ARC
  5
1BDB
330
1A
100
AcDbEntity
  8
SEIHIN
  6
Continuous
 62
     3
 48
5.0
100
AcDbCircle
 10
371.9749298383512
 20
371.2308761242386
 30
0.0
 40
2.000000962499728
100
AcDbArc
 50
359.9999708993752
 51
86.91310302272801
  0
ARC
  5
1BDC
330
1A
100
AcDbEntity
  8
SEIHIN
  6
Continuous
 62
     3
 48
5.0
100
AcDbCircle
 10
373.9749308008506
 20
401.617773180732
 30
0.0
 40
2.0
100
AcDbArc
 50
273.0874247008757
 51
0.0
  0
LINE
  5
1BDD
330
1A
100
AcDbEntity
  8
SEIHIN
  6
Continuous
 62
     3
 48
5.0
100
AcDbLine
 10
375.9749308008506
 20
399.7226751084345
 30
0.0
 11
379.9749308008506
 21
399.7226751084345
 31
0.0
  0
ARC
  5
1BDE
330
1A
100
AcDbEntity
  8
SEIHIN
  6
Continuous
 62
     3
 48
5.0
100
AcDbCircle
 10
371.9749271446073
 20
401.5098712495112
 30
0.0
 40
2.000003656247055
100
AcDbArc
 50
273.0898390482809
 51
0.0001105498144752
  0
LINE
  5
1BDF
330
1A
100
AcDbEntity
  8
CENTER L
  6
CENTER
 62
     1
 48
5.0
100
AcDbLine
 10
387.071361359164
 20
409.8703751084148
 30
0.0
 11
367.3594293619414
 21
409.8704007408997
 31
0.0
  0
LINE
  5
1BE0
330
1A
100
AcDbEntity
  8
SEIHIN
  6
Continuous
 62
     3
 48
5.0
100
AcDbLine
 10
375.9750308008506
 20
418.8703751084346
 30
0.0
 11
379.9750308008506
 21
418.8703751084346
 31
0.0
  0
LINE
  5
1BE1
330
1A
100
AcDbEntity
  8
SEIHIN
  6
Continuous
 62
     3
 48
5.0
100
AcDbLine
 10
375.9750308008506
 20
418.8703751084346
 30
0.0
 11
373.9750308008506
 21
416.8703751084345
 31
0.0
  0
DIMENSION
  5
1BE2
330
1A
100
AcDbEntity
  8
SUNPOU
 48
5.0
100
AcDbDimension
  2
*D9
 10
567.4749308008508
 20
297.5284802853455
 30
0.0
 11
534.9749308008506
 21
302.5284802853455
 31
0.0
 70
    32
 71
     5
 42
65.00000000000023
  3
STANDARD
100
AcDbAlignedDimension
 13
502.4749308008505
 23
234.3702751084346
 33
0.0
 14
567.4749308008508
 24
234.3702751084346
 34
0.0
100
AcDbRotatedDimension
1001
ACAD
1000
DSTYLE
1002
{
1070
   140
1040
6.0
1070
    74
1070
     0
1070
   172
1070
     1
1070
    73
1070
     0
1070
   272
1070
     2
1070
    77
1070
     3
1070
   173
1070
     1
1070
   147
1040
2.0
1070
    42
1040
6.0
1070
    44
1040
3.0
1070
    43
1040
14.0
1070
   271
1070
     0
1070
   178
1070
     4
1070
   177
1070
     4
1070
   176
1070
     4
1070
   141
1040
150.0
1070
     7
1000
_OPEN
1070
     6
1000
_OPEN
1070
    41
1040
7.0
1002
}
  0
DIMENSION
  5
1BE3
330
1A
100
AcDbEntity
  8
SUNPOU
 48
5.0
100
AcDbDimension
  2
*D10
 10
558.4748308008507
 20
281.3485957158171
 30
0.0
 11
534.9749308008506
 21
286.3485957158171
 31
0.0
 70
    32
 71
     5
 42
46.99980000000005
  3
STANDARD
100
AcDbAlignedDimension
 13
511.4750308008506
 23
239.4098751084347
 33
0.0
 14
558.4748308008507
 24
239.4095751084347
 34
0.0
100
AcDbRotatedDimension
1001
ACAD
1000
DSTYLE
1002
{
1070
   140
1040
6.0
1070
    74
1070
     0
1070
   172
1070
     1
1070
    73
1070
     0
1070
   272
1070
     2
1070
    77
1070
     3
1070
   173
1070
     1
1070
   147
1040
2.0
1070
    42
1040
6.0
1070
    44
1040
3.0
1070
    43
1040
14.0
1070
   271
1070
     0
1070
   178
1070
     4
1070
   177
1070
     4
1070
   176
1070
     4
1070
   141
1040
150.0
1070
     7
1000
_OPEN
1070
     6
1000
_OPEN
1070
    41
1040
7.0
1002
}
  0
ARC
  5
1BE4
330
1A
100
AcDbEntity
  8
SEIHIN
  6
Continuous
 62
     3
 48
5.0
100
AcDbCircle
 10
534.9749308008506
 20
200.3702751084347
 30
0.0
 40
2.099999999999852
100
AcDbArc
 50
0.0
 51
180.0
  0
ARC
  5
1BE5
330
1A
100
AcDbEntity
  8
SEIHIN
  6
Continuous
 62
     3
 48
5.0
100
AcDbCircle
 10
534.9749308008506
 20
200.3702751084347
 30
0.0
 40
2.099999999999852
100
AcDbArc
 50
0.0
 51
180.0
  0
ARC
  5
1BE6
330
1A
100
AcDbEntity
  8
SEIHIN
  6
Continuous
 62
     3
 48
5.0
100
AcDbCircle
 10
534.9748308008504
 20
200.3702751084347
 30
0.0
 40
2.100000000000023
100
AcDbArc
 50
0.0
 51
180.0
  0
ARC
  5
1BE7
330
1A
100
AcDbEntity
  8
SEIHIN
  6
Continuous
 62
     3
 48
5.0
100
AcDbCircle
 10
534.9749308008506
 20
200.3702751084347
 30
0.0
 40
2.099999999999852
100
AcDbArc
 50
0.0
 51
180.0
  0
ARC
  5
1BE8
330
1A
100
AcDbEntity
  8
SEIHIN
  6
Continuous
 62
     3
 48
5.0
100
AcDbCircle
 10
534.9749308008506
 20
200.3702751084347
 30
0.0
 40
2.099999999999852
100
AcDbArc
 50
180.0
 51
0.0
  0
ARC
  5
1BE9
330
1A
100
AcDbEntity
  8
SEIHIN
  6
Continuous
 62
     3
 48
5.0
100
AcDbCircle
 10
534.9749308008506
 20
200.3702751084347
 30
0.0
 40
2.099999999999852
100
AcDbArc
 50
180.0
 51
0.0
  0
ARC
  5
1BEA
330
1A
100
AcDbEntity
  8
SEIHIN
  6
Continuous
 62
     3
 48
5.0
100
AcDbCircle
 10
534.9748308008504
 20
200.3702751084347
 30
0.0
 40
2.100000000000023
100
AcDbArc
 50
180.0
 51
0.0
  0
ARC
  5
1BEB
330
1A
100
AcDbEntity
  8
SEIHIN
  6
Continuous
 62
     3
 48
5.0
100
AcDbCircle
 10
534.9749308008506
 20
200.3702751084347
 30
0.0
 40
2.099999999999852
100
AcDbArc
 50
180.0
 51
0.0
  0
ARC
  5
1BEC
330
1A
100
AcDbEntity
  8
SEIHIN
  6
Continuous
 62
     3
 48
5.0
100
AcDbCircle
 10
534.974825432656
 20
200.3702724789341
 30
0.0
 40
9.999997370500884
100
AcDbArc
 50
270.0000307574965
 51
322.193992523108
  0
LINE
  5
1BED
330
1A
100
AcDbEntity
  8
CENTER L
  6
CENTER
 62
     1
 48
5.0
100
AcDbLine
 10
534.9748308008504
 20
200.3702751084347
 30
0.0
 11
538.7430308008507
 21
200.3702751084347
 31
0.0
  0
LINE
  5
1BEE
330
1A
100
AcDbEntity
  8
SEIHIN
  6
Continuous
 62
     3
 48
5.0
100
AcDbLine
 10
534.9748308008504
 20
256.3703751084346
 30
0.0
 11
548.8849308008505
 21
256.3702751084347
 31
0.0
  0
LINE
  5
1BEF
330
1A
100
AcDbEntity
  8
SEIHIN
  6
Continuous
 62
     3
 48
5.0
100
AcDbLine
 10
545.9749308008506
 20
257.3705751084347
 30
0.0
 11
534.9749308008506
 21
257.3705751084347
 31
0.0
  0
LINE
  5
1BF0
330
1A
100
AcDbEntity
  8
SEIHIN
  6
Continuous
 62
     3
 48
5.0
100
AcDbLine
 10
527.4750308008505
 20
225.3702751084347
 30
0.0
 11
527.4750308008505
 21
206.4317751084346
 31
0.0
  0
LINE
  5
1BF1
330
1A
100
AcDbEntity
  8
SEIHIN
  6
Continuous
 62
     3
 48
5.0
100
AcDbLine
 10
514.7457308008507
 20
219.9183751084347
 30
0.0
 11
525.6849308008507
 21
205.8187751084347
 31
0.0
  0
LINE
  5
1BF2
330
1A
100
AcDbEntity
  8
SEIHIN
  6
Continuous
 62
     3
 48
5.0
100
AcDbLine
 10
504.5741308008506
 20
223.2403751084346
 30
0.0
 11
527.0741308008505
 21
194.2403751084346
 31
0.0
  0
LINE
  5
1BF3
330
1A
100
AcDbEntity
  8
CENTER L
  6
CENTER
 62
     1
 48
5.0
100
AcDbLine
 10
534.9749308008506
 20
262.9839751084347
 30
0.0
 11
534.9748308008504
 21
186.9628751084347
 31
0.0
  0
DIMENSION
  5
1BF4
330
1A
100
AcDbEntity
  8
SUNPOU
 48
5.0
100
AcDbDimension
  2
*D11
 10
483.7400286062079
 20
190.3702751084347
 30
0.0
 11
478.7400286062079
 21
170.8702751084348
 31
0.0
 70
    32
 71
     5
 42
9.999999999999972
  3
STANDARD
100
AcDbAlignedDimension
 13
530.7776308008506
 23
200.3702751084347
 33
0.0
 14
534.9749308008506
 24
190.3702751084347
 34
0.0
 50
90.0
100
AcDbRotatedDimension
1001
ACAD
1000
DSTYLE
1002
{
1070
   140
1040
6.0
1070
    74
1070
     0
1070
   172
1070
     1
1070
    73
1070
     0
1070
   272
1070
     2
1070
    77
1070
     3
1070
   173
1070
     1
1070
   147
1040
2.0
1070
    42
1040
6.0
1070
    44
1040
3.0
1070
    43
1040
14.0
1070
   271
1070
     0
1070
   178
1070
     4
1070
   177
1070
     4
1070
   176
1070
     4
1070
   141
1040
150.0
1070
     7
1000
_OPEN
1070
     6
1000
_OPEN
1070
    41
1040
7.0
1002
}
  0
ARC
  5
1BF5
330
1A
100
AcDbEntity
  8
SEIHIN
  6
Continuous
 62
     3
 48
5.0
100
AcDbCircle
 10
534.9750168190369
 20
200.3702329745073
 30
0.0
 40
9.999957866442541
100
AcDbArc
 50
217.8058966049543
 51
269.9995071500206
  0
ARC
  5
1BF6
330
1A
100
AcDbEntity
  8
SEIHIN
  6
Continuous
 62
     3
 48
5.0
100
AcDbCircle
 10
526.4750240483962
 20
206.4317727961486
 30
0.0
 40
1.000006752456992
100
AcDbArc
 50
217.806272187236
 51
0.0001324833380688
  0
LINE
  5
1BF7
330
1A
100
AcDbEntity
  8
CENTER L
  6
CENTER
 62
     1
 48
5.0
100
AcDbLine
 10
534.9749308008506
 20
200.3702751084347
 30
0.0
 11
530.7776308008506
 21
200.3702751084347
 31
0.0
  0
MTEXT
  5
1BF8
330
1A
100
AcDbEntity
  8
SUNPOU
  6
Continuous
 62
     4
100
AcDbMText
 10
483.4169186568029
 20
283.3191189516354
 30
0.0
 40
6.0
 41
0.0
 71
     9
 72
     5
  1
3-φ4.2
 73
     1
 44
1.0
  0
LEADER
  5
1BF9
330
1A
100
AcDbEntity
  8
SUNPOU
  6
Continuous
 62
     4
100
AcDbLeader
  3
STANDARD
 40
6.0
 41
31.2
 76
     3
 10
510.2917838493465
 20
236.1052640130136
 30
0.0
 10
486.9796060212011
 20
281.3191189516354
 30
0.0
 10
485.4169186568029
 20
281.3191189516354
 30
0.0
1001
ACAD
1000
DSTYLE
1002
{
1070
     6
1000
OPEN
1070
    41
1040
7.0
1070
    42
1040
6.0
1070
    43
1040
14.0
1070
    44
1040
3.0
1070
    73
1070
     0
1070
    74
1070
     0
1070
    77
1070
     3
1070
   140
1040
6.0
1070
   141
1040
150.0
1070
   147
1040
2.0
1070
   172
1070
     1
1070
   173
1070
     1
1070
   176
1070
     4
1070
   177
1070
     4
1070
   178
1070
     4
1070
   271
1070
     0
1070
   272
1070
     2
1070
   341
1005
6D
1070
   343
1005
6D
1070
   344
1005
6D
1002
}
  0
DIMENSION
  5
1BFA
330
1A
100
AcDbEntity
  8
SUNPOU
 48
5.0
100
AcDbDimension
  2
*D12
 10
473.663472661518
 20
234.3703751084347
 30
0.0
 11
468.6634726615179
 21
245.3703251084348
 31
0.0
 70
    32
 71
     5
 42
21.99990000000003
  3
STANDARD
100
AcDbAlignedDimension
 13
521.0251308008507
 23
256.3702751084347
 33
0.0
 14
506.5403308008505
 24
234.3703751084347
 34
0.0
 50
90.0
100
AcDbRotatedDimension
1001
ACAD
1000
DSTYLE
1002
{
1070
   140
1040
6.0
1070
    74
1070
     0
1070
   172
1070
     1
1070
    73
1070
     0
1070
   272
1070
     2
1070
    77
1070
     3
1070
   173
1070
     1
1070
   147
1040
2.0
1070
    42
1040
6.0
1070
    44
1040
3.0
1070
    43
1040
14.0
1070
   271
1070
     0
1070
   178
1070
     4
1070
   177
1070
     4
1070
   176
1070
     4
1070
   141
1040
150.0
1070
     7
1000
_OPEN
1070
     6
1000
_OPEN
1070
    41
1040
7.0
1002
}
  0
ARC
  5
1BFB
330
1A
100
AcDbEntity
  8
SEIHIN
  6
Continuous
 62
     3
 48
5.0
100
AcDbCircle
 10
512.4749448281617
 20
234.3703082079778
 30
0.0
 40
10.000014027535
100
AcDbArc
 50
134.0671082067125
 51
179.9996166891544
  0
ARC
  5
1BFC
330
1A
100
AcDbEntity
  8
SEIHIN
  6
Continuous
 62
     3
 48
5.0
100
AcDbCircle
 10
512.47502817135
 20
229.3702827872575
 30
0.0
 40
9.999997370502449
100
AcDbArc
 50
180.0000439964254
 51
217.8060822308154
  0
LINE
  5
1BFD
330
1A
100
AcDbEntity
  8
SEIHIN
  6
Continuous
 62
     3
 48
5.0
100
AcDbLine
 10
502.4749308008505
 20
234.3702751084346
 30
0.0
 11
502.4750308008505
 21
229.3702751084347
 31
0.0
  0
LINE
  5
1BFE
330
1A
100
AcDbEntity
  8
SEIHIN
  6
Continuous
 62
     3
 48
5.0
100
AcDbLine
 10
526.4750308008506
 20
226.3702751084346
 30
0.0
 11
517.9060308008507
 21
226.3702751084346
 31
0.0
  0
ARC
  5
1BFF
330
1A
100
AcDbEntity
  8
SEIHIN
  6
Continuous
 62
     3
 48
5.0
100
AcDbCircle
 10
511.4750308008506
 20
229.3702751084347
 30
0.0
 40
3.249972198342621
100
AcDbArc
 50
287.9203716389819
 51
72.0796283610181
  0
LINE
  5
1C00
330
1A
100
AcDbEntity
  8
CENTER L
  6
CENTER
 62
     1
 48
5.0
100
AcDbLine
 10
511.4750308008506
 20
239.4098751084347
 30
0.0
 11
511.4750308008506
 21
223.6067751084347
 31
0.0
  0
ARC
  5
1C01
330
1A
100
AcDbEntity
  8
SEIHIN
  6
Continuous
 62
     3
 48
5.0
100
AcDbCircle
 10
511.4750308008506
 20
229.3702751084347
 30
0.0
 40
3.249972198342647
100
AcDbArc
 50
107.9203716389834
 51
287.9203716389835
  0
ARC
  5
1C02
330
1A
100
AcDbEntity
  8
SEIHIN
  6
Continuous
 62
     3
 48
5.0
100
AcDbCircle
 10
517.9060519342357
 20
222.37031825265
 30
0.0
 40
3.999956855840432
100
AcDbArc
 50
90.00030271670795
 51
217.8061887414962
  0
ARC
  5
1C03
330
1A
100
AcDbEntity
  8
SEIHIN
  6
Continuous
 62
     3
 48
5.0
100
AcDbCircle
 10
511.4749534769394
 20
234.3703169821005
 30
0.0
 40
2.099983706539783
100
AcDbArc
 50
61.56046990234722
 51
241.5652682709861
  0
LINE
  5
1C04
330
1A
100
AcDbEntity
  8
CENTER L
  6
CENTER
 62
     1
 48
5.0
100
AcDbLine
 10
516.3618308008506
 20
234.3702751084346
 30
0.0
 11
506.5403308008505
 21
234.3703751084347
 31
0.0
  0
LINE
  5
1C05
330
1A
100
AcDbEntity
  8
CENTER L
  6
CENTER
 62
     1
 48
5.0
100
AcDbLine
 10
516.1618308008507
 20
229.3702751084347
 30
0.0
 11
506.5403308008505
 21
229.3703751084347
 31
0.0
  0
ARC
  5
1C06
330
1A
100
AcDbEntity
  8
SEIHIN
  6
Continuous
 62
     3
 48
5.0
100
AcDbCircle
 10
511.4749308008506
 20
234.3702751084347
 30
0.0
 40
2.10003132595684
100
AcDbArc
 50
298.4395300432465
 51
61.56046995675349
  0
ARC
  5
1C07
330
1A
100
AcDbEntity
  8
SEIHIN
  6
Continuous
 62
     3
 48
5.0
100
AcDbCircle
 10
526.4750308008506
 20
225.3702751084347
 30
0.0
 40
0.9999999999998863
100
AcDbArc
 50
359.9999999999968
 51
89.99999999999675
  0
LINE
  5
1C08
330
1A
100
AcDbEntity
  8
SEIHIN
  6
Continuous
 62
     3
 48
5.0
100
AcDbLine
 10
521.0251308008507
 20
256.3702751084347
 30
0.0
 11
505.5199308008505
 21
241.5555751084346
 31
0.0
  0
LINE
  5
1C09
330
1A
100
AcDbEntity
  8
SEIHIN
  6
Continuous
 62
     3
 48
5.0
100
AcDbLine
 10
523.9749308008505
 20
257.3705751084347
 30
0.0
 11
534.9749308008506
 21
257.3705751084347
 31
0.0
  0
LINE
  5
1C0A
330
1A
100
AcDbEntity
  8
SEIHIN
  6
Continuous
 62
     3
 48
5.0
100
AcDbLine
 10
534.9750308008506
 20
256.3702751084347
 30
0.0
 11
521.0251308008507
 21
256.3702751084347
 31
0.0
  0
LINE
  5
1C0B
330
1A
100
AcDbEntity
  8
SEIHIN
  6
Continuous
 62
     3
 48
5.0
100
AcDbLine
 10
523.9749308008505
 20
257.3704751084347
 30
0.0
 11
523.9749308008505
 21
256.3702751084347
 31
0.0
  0
LEADER
  5
1C0C
330
1A
100
AcDbEntity
  8
SUNPOU
  6
Continuous
 62
     4
100
AcDbLeader
  3
STANDARD
 74
     0
 40
6.0
 41
31.2
 76
     3
 10
560.4380434393858
 20
226.7801782629357
 30
0.0
 10
580.5060280709486
 20
197.2872318340833
 30
0.0
 10
582.0687154353468
 20
197.2872318340833
 30
0.0
1001
ACAD
1000
DSTYLE
1002
{
1070
     6
1000
OPEN
1070
    41
1040
7.0
1070
    42
1040
6.0
1070
    43
1040
14.0
1070
    44
1040
3.0
1070
    73
1070
     0
1070
    74
1070
     0
1070
    77
1070
     3
1070
   140
1040
6.0
1070
   141
1040
150.0
1070
   147
1040
2.0
1070
   172
1070
     1
1070
   173
1070
     1
1070
   176
1070
     4
1070
   177
1070
     4
1070
   178
1070
     4
1070
   271
1070
     0
1070
   272
1070
     2
1070
   341
1005
6D
1070
   343
1005
6D
1070
   344
1005
6D
1002
}
  0
DIMENSION
  5
1C0D
330
1A
100
AcDbEntity
  8
SUNPOU
 48
5.0
100
AcDbDimension
  2
*D13
 10
596.5614508371741
 20
229.3702751084347
 30
0.0
 11
591.5614508371741
 21
242.8702751084348
 31
0.0
 70
    32
 71
     5
 42
27.00000000000003
  3
STANDARD
100
AcDbAlignedDimension
 13
548.8849308008505
 23
256.3702751084347
 33
0.0
 14
563.0730308008506
 24
229.3702751084347
 34
0.0
 50
90.0
100
AcDbRotatedDimension
1001
ACAD
1000
DSTYLE
1002
{
1070
   140
1040
6.0
1070
    74
1070
     0
1070
   172
1070
     1
1070
    73
1070
     0
1070
   272
1070
     2
1070
    77
1070
     3
1070
   173
1070
     1
1070
   147
1040
2.0
1070
    42
1040
6.0
1070
    44
1040
3.0
1070
    43
1040
14.0
1070
   271
1070
     0
1070
   178
1070
     4
1070
   177
1070
     4
1070
   176
1070
     4
1070
   141
1040
150.0
1070
     7
1000
_OPEN
1070
     6
1000
_OPEN
1070
    41
1040
7.0
1002
}
  0
LINE
  5
1C0E
330
1A
100
AcDbEntity
  8
SEIHIN
  6
Continuous
 62
     3
 48
5.0
100
AcDbLine
 10
565.3756308008506
 20
223.2402751084347
 30
0.0
 11
542.8757308008508
 21
194.2403751084346
 31
0.0
  0
LINE
  5
1C0F
330
1A
100
AcDbEntity
  8
SEIHIN
  6
Continuous
 62
     3
 48
5.0
100
AcDbLine
 10
555.2041308008506
 20
219.9182751084347
 30
0.0
 11
544.2648308008506
 21
205.8187751084347
 31
0.0
  0
LINE
  5
1C10
330
1A
100
AcDbEntity
  8
SEIHIN
  6
Continuous
 62
     3
 48
5.0
100
AcDbLine
 10
542.4748308008504
 20
225.3702751084347
 30
0.0
 11
542.4747308008505
 21
206.4317751084346
 31
0.0
  0
MTEXT
  5
1C11
330
1A
100
AcDbEntity
  8
SUNPOU
  6
Continuous
 62
     4
100
AcDbMText
 10
584.0687154353468
 20
199.2872318340833
 30
0.0
 40
6.0
 41
0.0
 71
     7
 72
     5
  1
2-φ6.5
 73
     1
 44
1.0
  0
ARC
  5
1C12
330
1A
100
AcDbEntity
  8
SEIHIN
  6
Continuous
 62
     3
 48
5.0
100
AcDbCircle
 10
543.474737553305
 20
206.4317727961486
 30
0.0
 40
1.000006752457127
100
AcDbArc
 50
179.9998675166636
 51
322.1937278127676
  0
ARC
  5
1C13
330
1A
100
AcDbEntity
  8
SEIHIN
  6
Continuous
 62
     3
 48
5.0
100
AcDbCircle
 10
557.4749526998987
 20
234.3702234331299
 30
0.0
 40
9.999978101085553
100
AcDbArc
 50
0.000296078334824
 51
45.93297902579889
  0
ARC
  5
1C14
330
1A
100
AcDbEntity
  8
SEIHIN
  6
Continuous
 62
     3
 48
5.0
100
AcDbCircle
 10
552.0438246808492
 20
222.3702876028487
 30
0.0
 40
3.999987505590642
100
AcDbArc
 50
322.1928945818162
 51
89.99991233716145
  0
LINE
  5
1C15
330
1A
100
AcDbEntity
  8
SEIHIN
  6
Continuous
 62
     3
 48
5.0
100
AcDbLine
 10
543.4748308008504
 20
226.3702751084346
 30
0.0
 11
552.0438308008506
 21
226.3702751084346
 31
0.0
  0
ARC
  5
1C16
330
1A
100
AcDbEntity
  8
SEIHIN
  6
Continuous
 62
     3
 48
5.0
100
AcDbCircle
 10
543.4748308008504
 20
225.3702751084347
 30
0.0
 40
0.9999999999999574
100
AcDbArc
 50
89.99999999999675
 51
179.9999999999967
  0
ARC
  5
1C17
330
1A
100
AcDbEntity
  8
SEIHIN
  6
Continuous
 62
     3
 48
5.0
100
AcDbCircle
 10
557.4749422854493
 20
229.3703086451206
 30
0.0
 40
9.999988516293019
100
AcDbArc
 50
322.192965705783
 51
359.9992348902701
  0
LINE
  5
1C18
330
1A
100
AcDbEntity
  8
CENTER L
  6
CENTER
 62
     1
 48
5.0
100
AcDbLine
 10
558.4748308008507
 20
239.4095751084347
 30
0.0
 11
558.4748308008507
 21
223.6534751084346
 31
0.0
  0
ARC
  5
1C19
330
1A
100
AcDbEntity
  8
SEIHIN
  6
Continuous
 62
     3
 48
5.0
100
AcDbCircle
 10
558.4748161626854
 20
229.3702298421049
 30
0.0
 40
3.250019772668619
100
AcDbArc
 50
252.0801708036372
 51
72.07962836498859
  0
ARC
  5
1C1A
330
1A
100
AcDbEntity
  8
SEIHIN
  6
Continuous
 62
     3
 48
5.0
100
AcDbCircle
 10
558.4748308010871
 20
229.3702251084347
 30
0.0
 40
3.250019772705027
100
AcDbArc
 50
107.920100419658
 51
252.079899580342
  0
ARC
  5
1C1B
330
1A
100
AcDbEntity
  8
SEIHIN
  6
Continuous
 62
     3
 48
5.0
100
AcDbCircle
 10
558.4748517373736
 20
234.3702364460044
 30
0.0
 40
2.100027671976459
100
AcDbArc
 50
298.4358317099448
 51
118.43713089973
  0
LINE
  5
1C1C
330
1A
100
AcDbEntity
  8
CENTER L
  6
CENTER
 62
     1
 48
5.0
100
AcDbLine
 10
553.5236308008507
 20
234.3702751084346
 30
0.0
 11
563.0730308008506
 21
234.3702751084346
 31
0.0
  0
LINE
  5
1C1D
330
1A
100
AcDbEntity
  8
CENTER L
  6
CENTER
 62
     1
 48
5.0
100
AcDbLine
 10
553.5236308008507
 20
229.3702751084347
 30
0.0
 11
563.0730308008506
 21
229.3702751084347
 31
0.0
  0
ARC
  5
1C1E
330
1A
100
AcDbEntity
  8
SEIHIN
  6
Continuous
 62
     3
 48
5.0
100
AcDbCircle
 10
558.4748308008504
 20
234.3702751084347
 30
0.0
 40
2.099983704698678
100
AcDbArc
 50
118.4371309133303
 51
241.5628690866697
  0
LINE
  5
1C1F
330
1A
100
AcDbEntity
  8
SEIHIN
  6
Continuous
 62
     3
 48
5.0
100
AcDbLine
 10
567.4749308008506
 20
234.3702751084346
 30
0.0
 11
567.4749308008506
 21
229.3701751084347
 31
0.0
  0
LINE
  5
1C20
330
1A
100
AcDbEntity
  8
SEIHIN
  6
Continuous
 62
     3
 48
5.0
100
AcDbLine
 10
548.8849308008505
 20
256.3702751084347
 30
0.0
 11
564.4300308008506
 21
241.5554751084346
 31
0.0
  0
LINE
  5
1C21
330
1A
100
AcDbEntity
  8
SEIHIN
  6
Continuous
 62
     3
 48
5.0
100
AcDbLine
 10
545.9749308008506
 20
257.3704751084347
 30
0.0
 11
545.9749308008506
 21
256.3702751084347
 31
0.0
  0
VIEWPORT
  5
22
330
17
100
AcDbEntity
 67
     1
  8
0
100
AcDbViewport
 10
313.6808219178083
 20
148.5
 30
0.0
 40
627.3616438356165
 41
297.0
 68
     2
 69
     1
 12
313.6808219178083
 22
148.5
 13
0.0
 23
0.0
 14
1.0
 24
1.0
 15
10.0
 25
10.0
 16
0.0
 26
0.0
 36
1.0
 17
0.0
 27
0.0
 37
0.0
 42
50.0
 43
0.0
 44
0.0
 45
297.0
 50
0.0
 51
0.0
 72
   100
 90
    32768
  1

281
     0
 71
     1
 74
     0
110
0.0
120
0.0
130
0.0
111
1.0
121
0.0
131
0.0
112
0.0
122
1.0
132
0.0
 79
     0
146
0.0
  0
VIEWPORT
  5
64
330
17
100
AcDbEntity
 67
     1
  8
VIEWPORT
100
AcDbViewport
 10
210.0
 20
148.5
 30
0.0
 40
420.0
 41
297.0
 68
     1
 69
     2
 12
420.0
 22
297.0
 13
0.0
 23
0.0
 14
10.0
 24
10.0
 15
0.0
 25
0.0
 16
0.0
 26
0.0
 36
1.0
 17
0.0
 27
0.0
 37
0.0
 42
50.0
 43
0.0
 44
0.0
 45
605.8799999999999
 50
0.0
 51
0.0
 72
   100
 90
    32768
  1

281
     0
 71
     1
 74
     0
110
0.0
120
0.0
130
0.0
111
1.0
121
0.0
131
0.0
112
0.0
122
1.0
132
0.0
 79
     0
146
0.0
  0
ENDSEC
  0
SECTION
  2
OBJECTS
  0
DICTIONARY
  5
C
330
0
100
AcDbDictionary
281
     1
  3
ACAD_GROUP
350
D
  3
ACAD_LAYOUT
350
85F
  3
ACAD_MLINESTYLE
350
E
  3
ACAD_PLOTSETTINGS
350
860
  3
ACAD_PLOTSTYLENAME
350
85D
  0
DICTIONARY
  5
D
102
{ACAD_REACTORS
330
C
102
}
330
C
100
AcDbDictionary
281
     1
  0
DICTIONARY
  5
85F
102
{ACAD_REACTORS
330
C
102
}
330
C
100
AcDbDictionary
281
     1
  3
Model
350
861
  3
ﾚｲｱｳﾄ1
350
862
  0
DICTIONARY
  5
E
102
{ACAD_REACTORS
330
C
102
}
330
C
100
AcDbDictionary
281
     1
  3
STANDARD
350
13
  0
DICTIONARY
  5
860
102
{ACAD_REACTORS
330
C
102
}
330
C
100
AcDbDictionary
281
     1
  0
ACDBDICTIONARYWDFLT
  5
85D
102
{ACAD_REACTORS
330
C
102
}
330
C
100
AcDbDictionary
281
     1
  3
Normal
350
85E
100
AcDbDictionaryWithDefault
340
85E
1001
ACAD
1000
TREAT_AS_HARD
1070
     0
1000
TREAT_AS_HARD
1070
     0
1000
TREAT_AS_HARD
1070
     0
1000
TREAT_AS_HARD
1070
     0
1000
TREAT_AS_HARD
1070
     0
  0
LAYOUT
  5
861
102
{ACAD_REACTORS
330
85F
102
}
330
85F
100
AcDbPlotSettings
  1

  2
Acrobat Distiller
  4
A3
  6

 40
3.174999952316284
 41
3.174999952316284
 42
3.17498779296875
 43
3.17498779296875
 44
297.0318298339844
 45
420.1583251953125
 46
0.0
 47
0.0
 48
0.0
 49
0.0
140
0.0
141
0.0
142
1.0
143
2.0
 70
 28336
 72
     1
 73
     1
 74
     2
  7
print.ctb
 75
    17
147
0.5
148
0.0
149
0.0
100
AcDbLayout
  1
Model
 70
     1
 71
     0
 10
0.0
 20
0.0
 11
12.0
 21
9.0
 12
0.0
 22
0.0
 32
0.0
 14
0.0
 24
0.0
 34
0.0
 15
0.0
 25
0.0
 35
0.0
146
0.0
 13
0.0
 23
0.0
 33
0.0
 16
1.0
 26
0.0
 36
0.0
 17
0.0
 27
1.0
 37
0.0
 76
     0
330
1A
  0
LAYOUT
  5
862
102
{ACAD_REACTORS
330
85F
102
}
330
85F
100
AcDbPlotSettings
  1

  2
C:\PROGRAM FILES\ACAD LT 2000\plotters\DWF ePlot.pc3
  4

  6

 40
0.0
 41
0.0
 42
0.0
 43
0.0
 44
0.0
 45
0.0
 46
0.0
 47
0.0
 48
0.0
 49
0.0
140
0.0
141
0.0
142
1.0
143
1.0
 70
   688
 72
     0
 73
     0
 74
     5
  7
print.ctb
 75
    16
147
1.0
148
0.0
149
0.0
100
AcDbLayout
  1
ﾚｲｱｳﾄ1
 70
     1
 71
     1
 10
0.0
 20
0.0
 11
420.0
 21
297.0
 12
0.0
 22
0.0
 32
0.0
 14
0.0
 24
0.0
 34
0.0
 15
420.0
 25
297.0
 35
0.0
146
0.0
 13
0.0
 23
0.0
 33
0.0
 16
1.0
 26
0.0
 36
0.0
 17
0.0
 27
1.0
 37
0.0
 76
     0
330
17
331
64
  0
MLINESTYLE
  5
13
102
{ACAD_REACTORS
330
E
102
}
330
E
100
AcDbMlineStyle
  2
STANDARD
 70
     0
  3

 62
     0
 51
90.0
 52
90.0
 71
     2
 49
0.5
 62
   256
  6
BYLAYER
 49
-0.5
 62
   256
  6
BYLAYER
  0
ACDBPLACEHOLDER
  5
85E
102
{ACAD_REACTORS
330
85D
102
}
330
85D
  0
ENDSEC
  0
EOF
