  0
SECTION
  2
HEADER
  9
$ACADVER
  1
AC1015
  9
$ACADMAINTVER
 70
     6
  9
$DWGCODEPAGE
  3
ANSI_932
  9
$INSBASE
 10
0.0
 20
0.0
 30
0.0
  9
$EXTMIN
 10
0.0000000135560185
 20
-0.0000001317113174
 30
0.0
  9
$EXTMAX
 10
797.6000000135562
 20
551.5999998682888
 30
0.0
  9
$LIMMIN
 10
0.0
 20
0.0
  9
$LIMMAX
 10
840.0
 20
594.0
  9
$ORTHOMODE
 70
     0
  9
$REGENMODE
 70
     1
  9
$FILLMODE
 70
     1
  9
$QTEXTMODE
 70
     0
  9
$MIRRTEXT
 70
     1
  9
$LTSCALE
 40
2.0
  9
$ATTMODE
 70
     1
  9
$TEXTSIZE
 40
6.0
  9
$TRACEWID
 40
1.0
  9
$TEXTSTYLE
  7
STANDARD
  9
$CLAYER
  8
SEIHIN
  9
$CELTYPE
  6
BYLAYER
  9
$CECOLOR
 62
   256
  9
$CELTSCALE
 40
1.0
  9
$DISPSILH
 70
     0
  9
$DIMSCALE
 40
1.0
  9
$DIMASZ
 40
7.0
  9
$DIMEXO
 40
6.0
  9
$DIMDLI
 40
14.0
  9
$DIMRND
 40
0.0
  9
$DIMDLE
 40
0.0
  9
$DIMEXE
 40
3.0
  9
$DIMTP
 40
0.0
  9
$DIMTM
 40
0.0
  9
$DIMTXT
 40
6.0
  9
$DIMCEN
 40
150.0
  9
$DIMTSZ
 40
0.0
  9
$DIMTOL
 70
     0
  9
$DIMLIM
 70
     0
  9
$DIMTIH
 70
     0
  9
$DIMTOH
 70
     0
  9
$DIMSE1
 70
     0
  9
$DIMSE2
 70
     0
  9
$DIMTAD
 70
     3
  9
$DIMZIN
 70
     0
  9
$DIMBLK
  1

  9
$DIMASO
 70
     1
  9
$DIMSHO
 70
     1
  9
$DIMPOST
  1

  9
$DIMAPOST
  1

  9
$DIMALT
 70
     0
  9
$DIMALTD
 70
     2
  9
$DIMALTF
 40
25.4
  9
$DIMLFAC
 40
1.0
  9
$DIMTOFL
 70
     1
  9
$DIMTVP
 40
0.0
  9
$DIMTIX
 70
     0
  9
$DIMSOXD
 70
     0
  9
$DIMSAH
 70
     1
  9
$DIMBLK1
  1
OPEN
  9
$DIMBLK2
  1
OPEN
  9
$DIMSTYLE
  2
STANDARD
  9
$DIMCLRD
 70
   256
  9
$DIMCLRE
 70
   256
  9
$DIMCLRT
 70
   256
  9
$DIMTFAC
 40
1.0
  9
$DIMGAP
 40
2.0
  9
$DIMJUST
 70
     0
  9
$DIMSD1
 70
     0
  9
$DIMSD2
 70
     0
  9
$DIMTOLJ
 70
     1
  9
$DIMTZIN
 70
     0
  9
$DIMALTZ
 70
     0
  9
$DIMALTTZ
 70
     0
  9
$DIMUPT
 70
     0
  9
$DIMDEC
 70
     0
  9
$DIMTDEC
 70
     0
  9
$DIMALTU
 70
     2
  9
$DIMALTTD
 70
     2
  9
$DIMTXSTY
  7
STANDARD
  9
$DIMAUNIT
 70
     0
  9
$DIMADEC
 70
     0
  9
$DIMALTRND
 40
0.0
  9
$DIMAZIN
 70
     0
  9
$DIMDSEP
 70
    46
  9
$DIMATFIT
 70
     3
  9
$DIMFRAC
 70
     0
  9
$DIMLDRBLK
  1
OPEN
  9
$DIMLUNIT
 70
     2
  9
$DIMLWD
 70
    -1
  9
$DIMLWE
 70
    -1
  9
$DIMTMOVE
 70
     0
  9
$LUNITS
 70
     2
  9
$LUPREC
 70
     4
  9
$SKETCHINC
 40
1.0
  9
$FILLETRAD
 40
10.0
  9
$AUNITS
 70
     0
  9
$AUPREC
 70
     0
  9
$MENU
  1
.
  9
$ELEVATION
 40
0.0
  9
$PELEVATION
 40
0.0
  9
$THICKNESS
 40
0.0
  9
$LIMCHECK
 70
     0
  9
$CHAMFERA
 40
0.0
  9
$CHAMFERB
 40
0.0
  9
$CHAMFERC
 40
40.0
  9
$CHAMFERD
 40
0.0
  9
$SKPOLY
 70
     0
  9
$TDCREATE
 40
2451030.614786227
  9
$TDUCREATE
 40
2451030.239786227
  9
$TDUPDATE
 40
2455609.414572338
  9
$TDUUPDATE
 40
2455609.039572338
  9
$TDINDWG
 40
0.2780510417
  9
$TDUSRTIMER
 40
0.2780510417
  9
$USRTIMER
 70
     1
  9
$ANGBASE
 50
0.0
  9
$ANGDIR
 70
     0
  9
$PDMODE
 70
     0
  9
$PDSIZE
 40
0.0
  9
$PLINEWID
 40
0.0
  9
$SPLFRAME
 70
     0
  9
$SPLINETYPE
 70
     6
  9
$SPLINESEGS
 70
     8
  9
$HANDSEED
  5
4C9E
  9
$SURFTAB1
 70
     6
  9
$SURFTAB2
 70
     6
  9
$SURFTYPE
 70
     6
  9
$SURFU
 70
     6
  9
$SURFV
 70
     6
  9
$UCSBASE
  2

  9
$UCSNAME
  2

  9
$UCSORG
 10
0.0
 20
0.0
 30
0.0
  9
$UCSXDIR
 10
1.0
 20
0.0
 30
0.0
  9
$UCSYDIR
 10
0.0
 20
1.0
 30
0.0
  9
$UCSORTHOREF
  2

  9
$UCSORTHOVIEW
 70
     0
  9
$UCSORGTOP
 10
0.0
 20
0.0
 30
0.0
  9
$UCSORGBOTTOM
 10
0.0
 20
0.0
 30
0.0
  9
$UCSORGLEFT
 10
0.0
 20
0.0
 30
0.0
  9
$UCSORGRIGHT
 10
0.0
 20
0.0
 30
0.0
  9
$UCSORGFRONT
 10
0.0
 20
0.0
 30
0.0
  9
$UCSORGBACK
 10
0.0
 20
0.0
 30
0.0
  9
$PUCSBASE
  2

  9
$PUCSNAME
  2

  9
$PUCSORG
 10
0.0
 20
0.0
 30
0.0
  9
$PUCSXDIR
 10
1.0
 20
0.0
 30
0.0
  9
$PUCSYDIR
 10
0.0
 20
1.0
 30
0.0
  9
$PUCSORTHOREF
  2

  9
$PUCSORTHOVIEW
 70
     0
  9
$PUCSORGTOP
 10
0.0
 20
0.0
 30
0.0
  9
$PUCSORGBOTTOM
 10
0.0
 20
0.0
 30
0.0
  9
$PUCSORGLEFT
 10
0.0
 20
0.0
 30
0.0
  9
$PUCSORGRIGHT
 10
0.0
 20
0.0
 30
0.0
  9
$PUCSORGFRONT
 10
0.0
 20
0.0
 30
0.0
  9
$PUCSORGBACK
 10
0.0
 20
0.0
 30
0.0
  9
$USERI1
 70
     0
  9
$USERI2
 70
     0
  9
$USERI3
 70
     0
  9
$USERI4
 70
     0
  9
$USERI5
 70
     0
  9
$USERR1
 40
0.0
  9
$USERR2
 40
0.0
  9
$USERR3
 40
0.0
  9
$USERR4
 40
0.0
  9
$USERR5
 40
0.0
  9
$WORLDVIEW
 70
     1
  9
$SHADEDGE
 70
     3
  9
$SHADEDIF
 70
    70
  9
$TILEMODE
 70
     1
  9
$MAXACTVP
 70
    16
  9
$PINSBASE
 10
0.0
 20
0.0
 30
0.0
  9
$PLIMCHECK
 70
     0
  9
$PEXTMIN
 10
-0.0128164049386896
 20
-0.0090630292066862
 30
-0.0015258207003583
  9
$PEXTMAX
 10
420.0128183607162
 20
297.0090644122207
 30
0.0000000349246037
  9
$PLIMMIN
 10
-30.66685116754002
 20
-9.990190459854741
  9
$PLIMMAX
 10
450.6668334081172
 20
361.9494725043409
  9
$UNITMODE
 70
     0
  9
$VISRETAIN
 70
     0
  9
$PLINEGEN
 70
     0
  9
$PSLTSCALE
 70
     1
  9
$TREEDEPTH
 70
  3020
  9
$CMLSTYLE
  2
STANDARD
  9
$CMLJUST
 70
     0
  9
$CMLSCALE
 40
1.0
  9
$PROXYGRAPHICS
 70
     1
  9
$MEASUREMENT
 70
     0
  9
$CELWEIGHT
370
    -1
  9
$ENDCAPS
280
     0
  9
$JOINSTYLE
280
     0
  9
$LWDISPLAY
290
     0
  9
$INSUNITS
 70
     0
  9
$HYPERLINKBASE
  1

  9
$STYLESHEET
  1
systemprinter.ctb
  9
$XEDIT
290
     1
  9
$CEPSNTYPE
380
     0
  9
$PSTYLEMODE
290
     1
  9
$FINGERPRINTGUID
  2
{91E25F26-0CBF-4C93-982E-B5F00895E654}
  9
$VERSIONGUID
  2
{F93B5AF3-50A0-4893-BBCE-B0D6AC335778}
  9
$EXTNAMES
290
     1
  9
$PSVPSCALE
 40
0.0
  9
$OLESTARTUP
290
     0
  0
ENDSEC
  0
SECTION
  2
CLASSES
  0
CLASS
  1
ACDBDICTIONARYWDFLT
  2
AcDbDictionaryWithDefault
  3
ObjectDBX Classes
 90
        0
280
     0
281
     0
  0
CLASS
  1
ACDBPLACEHOLDER
  2
AcDbPlaceHolder
  3
ObjectDBX Classes
 90
        0
280
     0
281
     0
  0
CLASS
  1
LAYOUT
  2
AcDbLayout
  3
ObjectDBX Classes
 90
        0
280
     0
281
     0
  0
CLASS
  1
DUMMY
  2
AcDbLongTransaction
  3
DUMMY
 90
        0
280
     0
281
     0
  0
CLASS
  1
LWPOLYLINE
  2
AcDbPolyline
  3
AutoCAD 2000
 90
        0
280
     0
281
     1
  0
CLASS
  1
HATCH
  2
AcDbHatch
  3
AutoCAD 2000
 90
        0
280
     0
281
     1
  0
CLASS
  1
XRECORD
  2
AcDbXrecord
  3
AutoCAD 2000
 90
        0
280
     0
281
     0
  0
CLASS
  1
DUMMY
  2
AcDbLongTransaction
  3
DUMMY
 90
        0
280
     0
281
     0
  0
CLASS
  1
LWPOLYLINE
  2
AcDbPolyline
  3
AutoCAD 2000
 90
        0
280
     0
281
     1
  0
CLASS
  1
HATCH
  2
AcDbHatch
  3
AutoCAD 2000
 90
        0
280
     0
281
     1
  0
CLASS
  1
XRECORD
  2
AcDbXrecord
  3
AutoCAD 2000
 90
        0
280
     0
281
     0
  0
CLASS
  1
DUMMY
  2
AcDbLongTransaction
  3
DUMMY
 90
        0
280
     0
281
     0
  0
CLASS
  1
LWPOLYLINE
  2
AcDbPolyline
  3
AutoCAD 2000
 90
        0
280
     0
281
     1
  0
CLASS
  1
HATCH
  2
AcDbHatch
  3
AutoCAD 2000
 90
        0
280
     0
281
     1
  0
CLASS
  1
XRECORD
  2
AcDbXrecord
  3
AutoCAD 2000
 90
        0
280
     0
281
     0
  0
CLASS
  1
DUMMY
  2
AcDbLongTransaction
  3
DUMMY
 90
        0
280
     0
281
     0
  0
CLASS
  1
LWPOLYLINE
  2
AcDbPolyline
  3
AutoCAD 2000
 90
        0
280
     0
281
     1
  0
CLASS
  1
HATCH
  2
AcDbHatch
  3
AutoCAD 2000
 90
        0
280
     0
281
     1
  0
CLASS
  1
XRECORD
  2
AcDbXrecord
  3
AutoCAD 2000
 90
        0
280
     0
281
     0
  0
ENDSEC
  0
SECTION
  2
TABLES
  0
TABLE
  2
VPORT
  5
8
330
0
100
AcDbSymbolTable
 70
     2
  0
VPORT
  5
4C9D
330
8
100
AcDbSymbolTableRecord
100
AcDbViewportTableRecord
  2
*Active
 70
     0
 10
0.0
 20
0.0
 11
1.0
 21
1.0
 12
412.2160963273176
 22
286.4503676436727
 13
0.0
 23
0.0
 14
5.0
 24
5.0
 15
0.0
 25
0.0
 16
0.0
 26
0.0
 36
1.0
 17
0.0
 27
0.0
 37
0.0
 40
637.2409051030417
 41
1.651537335285505
 42
50.0
 43
0.0
 44
0.0
 50
0.0
 51
0.0
 71
     0
 72
   100
 73
     1
 74
     0
 75
     0
 76
     0
 77
     0
 78
     0
281
     0
 65
     1
110
0.0
120
0.0
130
0.0
111
1.0
121
0.0
131
0.0
112
0.0
122
1.0
132
0.0
 79
     0
146
0.0
  0
ENDTAB
  0
TABLE
  2
LTYPE
  5
5
330
0
100
AcDbSymbolTable
 70
     3
  0
LTYPE
  5
14
330
5
100
AcDbSymbolTableRecord
100
AcDbLinetypeTableRecord
  2
BYBLOCK
 70
     0
  3

 72
    65
 73
     0
 40
0.0
  0
LTYPE
  5
15
330
5
100
AcDbSymbolTableRecord
100
AcDbLinetypeTableRecord
  2
BYLAYER
 70
     0
  3

 72
    65
 73
     0
 40
0.0
  0
LTYPE
  5
16
330
5
100
AcDbSymbolTableRecord
100
AcDbLinetypeTableRecord
  2
CONTINUOUS
 70
     0
  3
Solid line
 72
    65
 73
     0
 40
0.0
  0
LTYPE
  5
115
330
5
100
AcDbSymbolTableRecord
100
AcDbLinetypeTableRecord
  2
PHANTOM
 70
     0
  3
______  __  __  ______  __  __  ______  __  __ 
 72
    65
 73
     6
 40
2.5
 49
1.25
 74
     0
 49
-0.25
 74
     0
 49
0.25
 74
     0
 49
-0.25
 74
     0
 49
0.25
 74
     0
 49
-0.25
 74
     0
  0
LTYPE
  5
135
330
5
100
AcDbSymbolTableRecord
100
AcDbLinetypeTableRecord
  2
CENTER
 70
     0
  3
____ _ ____ _ ____ _ ____ _ ____ _ ____ _ ____ 
 72
    65
 73
     4
 40
2.0
 49
1.25
 74
     0
 49
-0.25
 74
     0
 49
0.25
 74
     0
 49
-0.25
 74
     0
  0
ENDTAB
  0
TABLE
  2
LAYER
  5
2
330
0
100
AcDbSymbolTable
 70
     8
  0
LAYER
  5
F
330
2
100
AcDbSymbolTableRecord
100
AcDbLayerTableRecord
  2
0
 70
     0
 62
     7
  6
CONTINUOUS
370
    -3
390
A97
  0
LAYER
  5
62
330
2
100
AcDbSymbolTableRecord
100
AcDbLayerTableRecord
  2
VIEWPORT
 70
     0
 62
     7
  6
CONTINUOUS
370
    -3
390
A97
  0
LAYER
  5
143
330
2
100
AcDbSymbolTableRecord
100
AcDbLayerTableRecord
  2
SEIHIN
 70
     0
 62
     3
  6
CONTINUOUS
370
    -3
390
A97
  0
LAYER
  5
444
330
2
100
AcDbSymbolTableRecord
100
AcDbLayerTableRecord
  2
DEFPOINTS
 70
     0
 62
     7
  6
CONTINUOUS
290
     0
370
    -3
390
A97
  0
LAYER
  5
482
330
2
100
AcDbSymbolTableRecord
100
AcDbLayerTableRecord
  2
SUNPOU
 70
     0
 62
     4
  6
CONTINUOUS
370
    -3
390
A97
  0
LAYER
  5
5D4
330
2
100
AcDbSymbolTableRecord
100
AcDbLayerTableRecord
  2
CENTER L
 70
     0
 62
     1
  6
CENTER
370
    -3
390
A97
  0
LAYER
  5
3D95
330
2
100
AcDbSymbolTableRecord
100
AcDbLayerTableRecord
  2
ZUWAKU
 70
     0
 62
     7
  6
CONTINUOUS
370
    -3
390
A97
  0
LAYER
  5
3D96
330
2
100
AcDbSymbolTableRecord
100
AcDbLayerTableRecord
  2
moji
 70
     0
 62
     2
  6
CONTINUOUS
370
    -3
390
A97
  0
ENDTAB
  0
TABLE
  2
STYLE
  5
3
330
0
100
AcDbSymbolTable
 70
     2
  0
STYLE
  5
10
330
3
100
AcDbSymbolTableRecord
100
AcDbTextStyleTableRecord
  2
STANDARD
 70
     0
 40
0.0
 41
1.0
 50
0.0
 71
     0
 42
6.0
  3
TXT
  4
bigfont.shx
  0
STYLE
  5
3D97
330
3
100
AcDbSymbolTableRecord
100
AcDbTextStyleTableRecord
  2
ｽﾀｲﾙ1
 70
     0
 40
0.0
 41
1.0
 50
0.0
 71
     0
 42
2.5
  3
MS PGothic.ttf
  4

1001
ACAD
1000
MS PGothic
1071
    32818
  0
ENDTAB
  0
TABLE
  2
VIEW
  5
6
330
0
100
AcDbSymbolTable
 70
     0
  0
ENDTAB
  0
TABLE
  2
UCS
  5
7
330
0
100
AcDbSymbolTable
 70
     0
  0
ENDTAB
  0
TABLE
  2
APPID
  5
9
330
0
100
AcDbSymbolTable
 70
     1
  0
APPID
  5
11
330
9
100
AcDbSymbolTableRecord
100
AcDbRegAppTableRecord
  2
ACAD
 70
     0
  0
ENDTAB
  0
TABLE
  2
DIMSTYLE
  5
A
330
0
100
AcDbSymbolTable
 70
     1
100
AcDbDimStyleTable
  0
DIMSTYLE
105
1D
102
{ACAD_REACTORS
330
4A17
330
4A18
330
4A1C
330
4A1E
330
4A1F
330
4A20
330
4A21
330
4A68
330
4AA8
330
4B08
330
4B09
330
4B0A
330
4B0B
330
4B17
102
}
330
A
100
AcDbSymbolTableRecord
100
AcDbDimStyleTableRecord
  2
STANDARD
 70
     0
340
10
  0
ENDTAB
  0
TABLE
  2
BLOCK_RECORD
  5
1
330
0
100
AcDbSymbolTable
 70
    15
  0
BLOCK_RECORD
  5
1A
330
1
100
AcDbSymbolTableRecord
100
AcDbBlockTableRecord
  2
*MODEL_SPACE
340
A9A
  0
BLOCK_RECORD
  5
17
330
1
100
AcDbSymbolTableRecord
100
AcDbBlockTableRecord
  2
*PAPER_SPACE
340
A9B
  0
BLOCK_RECORD
  5
6D
330
1
100
AcDbSymbolTableRecord
100
AcDbBlockTableRecord
  2
_OPEN
340
0
102
{BLKREFS
331
4C91
331
4C92
331
4C10
331
4C11
331
4C19
331
4C1A
331
4C22
331
4C23
331
4C2B
331
4C2C
331
4C34
331
4C35
331
4C3D
331
4C3E
331
4C48
331
4C49
331
4C53
331
4C54
331
4C5C
331
4C5D
331
4C65
331
4C66
331
4C6E
331
4C6F
331
4C77
331
4C78
331
4C82
331
4C83
102
}
  0
BLOCK_RECORD
  5
4B52
330
1
100
AcDbSymbolTableRecord
100
AcDbBlockTableRecord
  2
*D1
340
0
  0
BLOCK_RECORD
  5
4B5E
330
1
100
AcDbSymbolTableRecord
100
AcDbBlockTableRecord
  2
*D2
340
0
  0
BLOCK_RECORD
  5
4B6C
330
1
100
AcDbSymbolTableRecord
100
AcDbBlockTableRecord
  2
*D3
340
0
  0
BLOCK_RECORD
  5
4B78
330
1
100
AcDbSymbolTableRecord
100
AcDbBlockTableRecord
  2
*D4
340
0
  0
BLOCK_RECORD
  5
4B84
330
1
100
AcDbSymbolTableRecord
100
AcDbBlockTableRecord
  2
*D5
340
0
  0
BLOCK_RECORD
  5
4B90
330
1
100
AcDbSymbolTableRecord
100
AcDbBlockTableRecord
  2
*D6
340
0
  0
BLOCK_RECORD
  5
4B9C
330
1
100
AcDbSymbolTableRecord
100
AcDbBlockTableRecord
  2
*D7
340
0
  0
BLOCK_RECORD
  5
4BA8
330
1
100
AcDbSymbolTableRecord
100
AcDbBlockTableRecord
  2
*D8
340
0
  0
BLOCK_RECORD
  5
4BB6
330
1
100
AcDbSymbolTableRecord
100
AcDbBlockTableRecord
  2
*D9
340
0
  0
BLOCK_RECORD
  5
4BC4
330
1
100
AcDbSymbolTableRecord
100
AcDbBlockTableRecord
  2
*D10
340
0
  0
BLOCK_RECORD
  5
4BD0
330
1
100
AcDbSymbolTableRecord
100
AcDbBlockTableRecord
  2
*D11
340
0
  0
BLOCK_RECORD
  5
4BDC
330
1
100
AcDbSymbolTableRecord
100
AcDbBlockTableRecord
  2
*D12
340
0
  0
BLOCK_RECORD
  5
4BE8
330
1
100
AcDbSymbolTableRecord
100
AcDbBlockTableRecord
  2
*D13
340
0
  0
BLOCK_RECORD
  5
4BF4
330
1
100
AcDbSymbolTableRecord
100
AcDbBlockTableRecord
  2
*D14
340
0
  0
ENDTAB
  0
ENDSEC
  0
SECTION
  2
BLOCKS
  0
BLOCK
  5
1B
330
1A
100
AcDbEntity
  8
0
100
AcDbBlockBegin
  2
*MODEL_SPACE
 70
     0
 71
     0
 10
0.0
 20
0.0
 30
0.0
  3
*MODEL_SPACE
  1

  0
ENDBLK
  5
1C
330
1A
100
AcDbEntity
  8
0
100
AcDbBlockEnd
  0
BLOCK
  5
18
330
17
100
AcDbEntity
 67
     1
  8
0
100
AcDbBlockBegin
  2
*PAPER_SPACE
 70
     0
 71
     0
 10
0.0
 20
0.0
 30
0.0
  3
*PAPER_SPACE
  1

  0
ENDBLK
  5
19
330
17
100
AcDbEntity
 67
     1
  8
0
100
AcDbBlockEnd
  0
BLOCK
  5
6E
330
6D
100
AcDbEntity
  8
0
100
AcDbBlockBegin
  2
_OPEN
 70
     0
 71
     0
 10
0.0
 20
0.0
 30
0.0
  3
_OPEN
  1

  0
LINE
  5
6F
330
6D
100
AcDbEntity
  8
0
  6
ByBlock
 62
     0
100
AcDbLine
 10
-1.0
 20
0.1666666666666667
 30
0.0
 11
0.0
 21
0.0
 31
0.0
  0
LINE
  5
70
330
6D
100
AcDbEntity
  8
0
  6
ByBlock
 62
     0
100
AcDbLine
 10
0.0
 20
0.0
 30
0.0
 11
-1.0
 21
-0.1666666666666667
 31
0.0
  0
LINE
  5
71
330
6D
100
AcDbEntity
  8
0
  6
ByBlock
 62
     0
100
AcDbLine
 10
0.0
 20
0.0
 30
0.0
 11
-1.0
 21
0.0
 31
0.0
  0
ENDBLK
  5
72
330
6D
100
AcDbEntity
  8
0
100
AcDbBlockEnd
  0
BLOCK
  5
4B5C
330
4B52
100
AcDbEntity
  8
0
100
AcDbBlockBegin
  2
*D1
 70
     1
 71
     0
 10
0.0
 20
0.0
 30
0.0
  3
*D1
  1

  0
LINE
  5
4C8E
330
4B52
100
AcDbEntity
  8
SUNPOU
 62
     4
370
    -2
100
AcDbLine
 10
394.8534954600991
 20
258.3722871222416
 30
0.0
 11
406.9354668092992
 21
263.2050756619224
 31
0.0
  0
LINE
  5
4C8F
330
4B52
100
AcDbEntity
  8
SUNPOU
 62
     4
370
    -2
100
AcDbLine
 10
419.5546893443857
 20
196.6193024115352
 30
0.0
 11
431.6366606935858
 21
201.4520909512161
 31
0.0
  0
LINE
  5
4C90
330
4B52
100
AcDbEntity
  8
SUNPOU
 62
     4
370
    -2
100
AcDbLine
 10
406.7497714711225
 20
255.5915667966633
 30
0.0
 11
426.2514958864509
 21
206.8372557583503
 31
0.0
  0
INSERT
  5
4C91
330
4B52
100
AcDbEntity
  8
SUNPOU
 62
     4
370
    -2
100
AcDbBlockReference
  2
_OPEN
 10
404.1500367366434
 20
262.09090363286
 30
0.0
 41
7.0
 42
7.0
 43
7.0
 50
111.8014094863551
  0
INSERT
  5
4C92
330
4B52
100
AcDbEntity
  8
SUNPOU
 62
     4
370
    -2
100
AcDbBlockReference
  2
_OPEN
 10
428.85123062093
 20
200.3379189221536
 30
0.0
 41
7.0
 42
7.0
 43
7.0
 50
291.8014094863551
  0
MTEXT
  5
4C93
330
4B52
100
AcDbEntity
  8
SUNPOU
 62
     4
100
AcDbMText
 10
420.9285977803652
 20
233.6074130413969
 30
0.0
 40
6.0
 41
0.0
 71
     5
 72
     1
  1
\A1;67
 11
0.3713906763541566
 21
-0.9284766908852382
 31
0.0
 73
     1
 44
1.0
  0
POINT
  5
4C94
330
4B52
100
AcDbEntity
  8
DEFPOINTS
 62
     0
100
AcDbPoint
 10
389.2826353147876
 20
256.1439430641167
 30
0.0
  0
POINT
  5
4C95
330
4B52
100
AcDbEntity
  8
DEFPOINTS
 62
     0
100
AcDbPoint
 10
413.9838291990743
 20
194.3909583534103
 30
0.0
  0
POINT
  5
4C96
330
4B52
100
AcDbEntity
  8
DEFPOINTS
 62
     0
100
AcDbPoint
 10
428.85123062093
 20
200.3379189221536
 30
0.0
  0
ENDBLK
  5
4B5D
330
4B52
100
AcDbEntity
  8
0
100
AcDbBlockEnd
  0
BLOCK
  5
4B6A
330
4B5E
100
AcDbEntity
  8
0
100
AcDbBlockBegin
  2
*D2
 70
     1
 71
     0
 10
0.0
 20
0.0
 30
0.0
  3
*D2
  1

  0
LINE
  5
4C0B
330
4B5E
100
AcDbEntity
  8
SUNPOU
 62
     4
370
    -2
100
AcDbLine
 10
416.2083584838973
 20
188.829342628398
 30
0.0
 11
427.3915708964569
 21
160.8712046389505
 31
0.0
  0
LINE
  5
4C0C
330
4B5E
100
AcDbEntity
  8
SUNPOU
 62
     4
370
    -2
100
AcDbLine
 10
415.0941625577877
 20
188.3836659629636
 30
0.0
 11
426.2773749703474
 21
160.4255279735161
 31
0.0
  0
LINE
  5
4C0D
330
4B5E
100
AcDbEntity
  8
SUNPOU
 62
     4
370
    -2
100
AcDbLine
 10
432.776742807644
 20
166.256362342023
 30
0.0
 11
439.2760830733801
 21
168.8560885026372
 31
0.0
  0
LINE
  5
4C0E
330
4B5E
100
AcDbEntity
  8
SUNPOU
 62
     4
370
    -2
100
AcDbLine
 10
418.6638663500623
 20
160.6112333553602
 30
0.0
 11
393.5949824679375
 21
150.5837181644198
 31
0.0
  0
LINE
  5
4C0F
330
4B5E
100
AcDbEntity
  8
SUNPOU
 62
     4
370
    -2
100
AcDbLine
 10
426.277402541908
 20
163.6566361814088
 30
0.0
 11
425.1632066157984
 21
163.2109595159744
 31
0.0
  0
INSERT
  5
4C10
330
4B5E
100
AcDbEntity
  8
SUNPOU
 62
     4
370
    -2
100
AcDbBlockReference
  2
_OPEN
 10
426.277402541908
 20
163.6566361814088
 30
0.0
 41
7.0
 42
7.0
 43
7.0
 50
201.8013339023138
  0
INSERT
  5
4C11
330
4B5E
100
AcDbEntity
  8
SUNPOU
 62
     4
370
    -2
100
AcDbBlockReference
  2
_OPEN
 10
425.1632066157984
 20
163.2109595159744
 30
0.0
 41
7.0
 42
7.0
 43
7.0
 50
21.80133390231382
  0
MTEXT
  5
4C12
330
4B5E
100
AcDbEntity
  8
SUNPOU
 62
     4
100
AcDbMText
 10
401.0228070185503
 20
158.9399985836801
 30
0.0
 40
6.0
 41
0.0
 71
     5
 72
     1
  1
\A1;t1.2
 11
0.9284771808194384
 21
0.371389451516313
 31
0.0
 73
     1
 44
1.0
  0
POINT
  5
4C13
330
4B5E
100
AcDbEntity
  8
DEFPOINTS
 62
     0
100
AcDbPoint
 10
413.9800217747994
 20
194.4002057133146
 30
0.0
  0
POINT
  5
4C14
330
4B5E
100
AcDbEntity
  8
DEFPOINTS
 62
     0
100
AcDbPoint
 10
412.8658258486898
 20
193.9545290478802
 30
0.0
  0
POINT
  5
4C15
330
4B5E
100
AcDbEntity
  8
DEFPOINTS
 62
     0
100
AcDbPoint
 10
425.1632066157984
 20
163.2109595159744
 30
0.0
  0
ENDBLK
  5
4B6B
330
4B5E
100
AcDbEntity
  8
0
100
AcDbBlockEnd
  0
BLOCK
  5
4B76
330
4B6C
100
AcDbEntity
  8
0
100
AcDbBlockBegin
  2
*D3
 70
     1
 71
     0
 10
0.0
 20
0.0
 30
0.0
  3
*D3
  1

  0
LINE
  5
4C16
330
4B6C
100
AcDbEntity
  8
SUNPOU
 62
     4
370
    -2
100
AcDbLine
 10
407.3891360732758
 20
422.0201787150011
 30
0.0
 11
447.5628788147311
 21
422.0201787150011
 31
0.0
  0
LINE
  5
4C17
330
4B6C
100
AcDbEntity
  8
SUNPOU
 62
     4
370
    -2
100
AcDbLine
 10
407.3885665028357
 20
367.0201787198639
 30
0.0
 11
447.562878814731
 21
367.0201787198639
 31
0.0
  0
LINE
  5
4C18
330
4B6C
100
AcDbEntity
  8
SUNPOU
 62
     4
370
    -2
100
AcDbLine
 10
444.5628788147311
 20
415.0201787150011
 30
0.0
 11
444.562878814731
 21
374.0201787198639
 31
0.0
  0
INSERT
  5
4C19
330
4B6C
100
AcDbEntity
  8
SUNPOU
 62
     4
370
    -2
100
AcDbBlockReference
  2
_OPEN
 10
444.5628788147311
 20
422.0201787150011
 30
0.0
 41
7.0
 42
7.0
 43
7.0
 50
90.0
  0
INSERT
  5
4C1A
330
4B6C
100
AcDbEntity
  8
SUNPOU
 62
     4
370
    -2
100
AcDbBlockReference
  2
_OPEN
 10
444.562878814731
 20
367.0201787198639
 30
0.0
 41
7.0
 42
7.0
 43
7.0
 50
270.0
  0
MTEXT
  5
4C1B
330
4B6C
100
AcDbEntity
  8
SUNPOU
 62
     4
100
AcDbMText
 10
439.5628788147309
 20
394.5201787174326
 30
0.0
 40
6.0
 41
0.0
 71
     5
 72
     1
  1
\A1;55
 11
6.123031769111886E-17
 21
1.0
 31
0.0
 73
     1
 44
1.0
  0
POINT
  5
4C1C
330
4B6C
100
AcDbEntity
  8
DEFPOINTS
 62
     0
100
AcDbPoint
 10
401.3891360732758
 20
422.0201787150011
 30
0.0
  0
POINT
  5
4C1D
330
4B6C
100
AcDbEntity
  8
DEFPOINTS
 62
     0
100
AcDbPoint
 10
401.3885665028357
 20
367.0201787198639
 30
0.0
  0
POINT
  5
4C1E
330
4B6C
100
AcDbEntity
  8
DEFPOINTS
 62
     0
100
AcDbPoint
 10
444.562878814731
 20
367.0201787198639
 30
0.0
  0
ENDBLK
  5
4B77
330
4B6C
100
AcDbEntity
  8
0
100
AcDbBlockEnd
  0
BLOCK
  5
4B82
330
4B78
100
AcDbEntity
  8
0
100
AcDbBlockBegin
  2
*D4
 70
     1
 71
     0
 10
0.0
 20
0.0
 30
0.0
  3
*D4
  1

  0
LINE
  5
4C1F
330
4B78
100
AcDbEntity
  8
SUNPOU
 62
     4
370
    -2
100
AcDbLine
 10
290.0280360732759
 20
226.5224699669667
 30
0.0
 11
290.0280360732759
 21
305.6399148051733
 31
0.0
  0
LINE
  5
4C20
330
4B78
100
AcDbEntity
  8
SUNPOU
 62
     4
370
    -2
100
AcDbLine
 10
389.2826353147876
 20
262.1439430641166
 30
0.0
 11
389.2826353147876
 21
305.6399148051733
 31
0.0
  0
LINE
  5
4C21
330
4B78
100
AcDbEntity
  8
SUNPOU
 62
     4
370
    -2
100
AcDbLine
 10
297.0280360732759
 20
302.6399148051733
 30
0.0
 11
382.2826353147876
 21
302.6399148051733
 31
0.0
  0
INSERT
  5
4C22
330
4B78
100
AcDbEntity
  8
SUNPOU
 62
     4
370
    -2
100
AcDbBlockReference
  2
_OPEN
 10
290.0280360732759
 20
302.6399148051733
 30
0.0
 41
7.0
 42
7.0
 43
7.0
 50
180.0
  0
INSERT
  5
4C23
330
4B78
100
AcDbEntity
  8
SUNPOU
 62
     4
370
    -2
100
AcDbBlockReference
  2
_OPEN
 10
389.2826353147876
 20
302.6399148051733
 30
0.0
 41
7.0
 42
7.0
 43
7.0
  0
MTEXT
  5
4C24
330
4B78
100
AcDbEntity
  8
SUNPOU
 62
     4
100
AcDbMText
 10
339.6553356940318
 20
307.6399148051733
 30
0.0
 40
6.0
 41
0.0
 71
     5
 72
     1
  1
\A1;99
 73
     1
 44
1.0
  0
POINT
  5
4C25
330
4B78
100
AcDbEntity
  8
DEFPOINTS
 62
     0
100
AcDbPoint
 10
290.0280360732759
 20
220.5224699669667
 30
0.0
  0
POINT
  5
4C26
330
4B78
100
AcDbEntity
  8
DEFPOINTS
 62
     0
100
AcDbPoint
 10
389.2826353147876
 20
256.1439430641166
 30
0.0
  0
POINT
  5
4C27
330
4B78
100
AcDbEntity
  8
DEFPOINTS
 62
     0
100
AcDbPoint
 10
389.2826353147876
 20
302.6399148051733
 30
0.0
  0
ENDBLK
  5
4B83
330
4B78
100
AcDbEntity
  8
0
100
AcDbBlockEnd
  0
BLOCK
  5
4B8E
330
4B84
100
AcDbEntity
  8
0
100
AcDbBlockBegin
  2
*D5
 70
     1
 71
     0
 10
0.0
 20
0.0
 30
0.0
  3
*D5
  1

  0
LINE
  5
4C28
330
4B84
100
AcDbEntity
  8
SUNPOU
 62
     4
370
    -2
100
AcDbLine
 10
389.2826353147876
 20
262.1439430641166
 30
0.0
 11
389.2826353147876
 21
322.1981209395358
 31
0.0
  0
LINE
  5
4C29
330
4B84
100
AcDbEntity
  8
SUNPOU
 62
     4
370
    -2
100
AcDbLine
 10
424.2826353147874
 20
262.1439430641166
 30
0.0
 11
424.2826353147874
 21
322.1981209395358
 31
0.0
  0
LINE
  5
4C2A
330
4B84
100
AcDbEntity
  8
SUNPOU
 62
     4
370
    -2
100
AcDbLine
 10
396.2826353147876
 20
319.1981209395358
 30
0.0
 11
417.2826353147874
 21
319.1981209395358
 31
0.0
  0
INSERT
  5
4C2B
330
4B84
100
AcDbEntity
  8
SUNPOU
 62
     4
370
    -2
100
AcDbBlockReference
  2
_OPEN
 10
389.2826353147876
 20
319.1981209395358
 30
0.0
 41
7.0
 42
7.0
 43
7.0
 50
180.0
  0
INSERT
  5
4C2C
330
4B84
100
AcDbEntity
  8
SUNPOU
 62
     4
370
    -2
100
AcDbBlockReference
  2
_OPEN
 10
424.2826353147874
 20
319.1981209395358
 30
0.0
 41
7.0
 42
7.0
 43
7.0
  0
MTEXT
  5
4C2D
330
4B84
100
AcDbEntity
  8
SUNPOU
 62
     4
100
AcDbMText
 10
406.7826353147875
 20
324.1981209395358
 30
0.0
 40
6.0
 41
0.0
 71
     5
 72
     1
  1
\A1;35
 73
     1
 44
1.0
  0
POINT
  5
4C2E
330
4B84
100
AcDbEntity
  8
DEFPOINTS
 62
     0
100
AcDbPoint
 10
389.2826353147876
 20
256.1439430641166
 30
0.0
  0
POINT
  5
4C2F
330
4B84
100
AcDbEntity
  8
DEFPOINTS
 62
     0
100
AcDbPoint
 10
424.2826353147874
 20
256.1439430641166
 30
0.0
  0
POINT
  5
4C30
330
4B84
100
AcDbEntity
  8
DEFPOINTS
 62
     0
100
AcDbPoint
 10
424.2826353147874
 20
319.1981209395358
 30
0.0
  0
ENDBLK
  5
4B8F
330
4B84
100
AcDbEntity
  8
0
100
AcDbBlockEnd
  0
BLOCK
  5
4B9A
330
4B90
100
AcDbEntity
  8
0
100
AcDbBlockBegin
  2
*D6
 70
     1
 71
     0
 10
0.0
 20
0.0
 30
0.0
  3
*D6
  1

  0
LINE
  5
4C31
330
4B90
100
AcDbEntity
  8
SUNPOU
 62
     4
370
    -2
100
AcDbLine
 10
256.7779360732758
 20
251.5224699669667
 30
0.0
 11
256.7779360732758
 21
322.1981209395358
 31
0.0
  0
LINE
  5
4C32
330
4B90
100
AcDbEntity
  8
SUNPOU
 62
     4
370
    -2
100
AcDbLine
 10
389.2826353147876
 20
262.1439430641166
 30
0.0
 11
389.2826353147876
 21
322.1981209395358
 31
0.0
  0
LINE
  5
4C33
330
4B90
100
AcDbEntity
  8
SUNPOU
 62
     4
370
    -2
100
AcDbLine
 10
263.7779360732758
 20
319.1981209395358
 30
0.0
 11
382.2826353147876
 21
319.1981209395358
 31
0.0
  0
INSERT
  5
4C34
330
4B90
100
AcDbEntity
  8
SUNPOU
 62
     4
370
    -2
100
AcDbBlockReference
  2
_OPEN
 10
256.7779360732758
 20
319.1981209395358
 30
0.0
 41
7.0
 42
7.0
 43
7.0
 50
180.0
  0
INSERT
  5
4C35
330
4B90
100
AcDbEntity
  8
SUNPOU
 62
     4
370
    -2
100
AcDbBlockReference
  2
_OPEN
 10
389.2826353147876
 20
319.1981209395358
 30
0.0
 41
7.0
 42
7.0
 43
7.0
  0
MTEXT
  5
4C36
330
4B90
100
AcDbEntity
  8
SUNPOU
 62
     4
100
AcDbMText
 10
323.0302856940317
 20
324.1981209395358
 30
0.0
 40
6.0
 41
0.0
 71
     5
 72
     1
  1
\A1;133
 73
     1
 44
1.0
  0
POINT
  5
4C37
330
4B90
100
AcDbEntity
  8
DEFPOINTS
 62
     0
100
AcDbPoint
 10
256.7779360732758
 20
245.5224699669667
 30
0.0
  0
POINT
  5
4C38
330
4B90
100
AcDbEntity
  8
DEFPOINTS
 62
     0
100
AcDbPoint
 10
389.2826353147876
 20
256.1439430641166
 30
0.0
  0
POINT
  5
4C39
330
4B90
100
AcDbEntity
  8
DEFPOINTS
 62
     0
100
AcDbPoint
 10
389.2826353147876
 20
319.1981209395358
 30
0.0
  0
ENDBLK
  5
4B9B
330
4B90
100
AcDbEntity
  8
0
100
AcDbBlockEnd
  0
BLOCK
  5
4BA6
330
4B9C
100
AcDbEntity
  8
0
100
AcDbBlockBegin
  2
*D7
 70
     1
 71
     0
 10
0.0
 20
0.0
 30
0.0
  3
*D7
  1

  0
LINE
  5
4C3A
330
4B9C
100
AcDbEntity
  8
SUNPOU
 62
     4
370
    -2
100
AcDbLine
 10
252.2779360732758
 20
247.5224699669667
 30
0.0
 11
217.5526580586106
 21
247.5224699669667
 31
0.0
  0
LINE
  5
4C3B
330
4B9C
100
AcDbEntity
  8
SUNPOU
 62
     4
370
    -2
100
AcDbLine
 10
406.8658264366222
 20
193.9545275780437
 30
0.0
 11
217.5526580586106
 21
193.9545275780437
 31
0.0
  0
LINE
  5
4C3C
330
4B9C
100
AcDbEntity
  8
SUNPOU
 62
     4
370
    -2
100
AcDbLine
 10
220.5526580586106
 20
240.5224699669667
 30
0.0
 11
220.5526580586106
 21
200.9545275780437
 31
0.0
  0
INSERT
  5
4C3D
330
4B9C
100
AcDbEntity
  8
SUNPOU
 62
     4
370
    -2
100
AcDbBlockReference
  2
_OPEN
 10
220.5526580586106
 20
247.5224699669667
 30
0.0
 41
7.0
 42
7.0
 43
7.0
 50
90.0
  0
INSERT
  5
4C3E
330
4B9C
100
AcDbEntity
  8
SUNPOU
 62
     4
370
    -2
100
AcDbBlockReference
  2
_OPEN
 10
220.5526580586106
 20
193.9545275780437
 30
0.0
 41
7.0
 42
7.0
 43
7.0
 50
270.0
  0
MTEXT
  5
4C3F
330
4B9C
100
AcDbEntity
  8
SUNPOU
 62
     4
100
AcDbMText
 10
215.5526580586106
 20
220.7384987725053
 30
0.0
 40
6.0
 41
0.0
 71
     5
 72
     1
  1
\A1;54
 11
6.123031769111886E-17
 21
1.0
 31
0.0
 73
     1
 44
1.0
  0
POINT
  5
4C40
330
4B9C
100
AcDbEntity
  8
DEFPOINTS
 62
     0
100
AcDbPoint
 10
258.2779360732758
 20
247.5224699669667
 30
0.0
  0
POINT
  5
4C41
330
4B9C
100
AcDbEntity
  8
DEFPOINTS
 62
     0
100
AcDbPoint
 10
412.8658264366222
 20
193.9545275780437
 30
0.0
  0
POINT
  5
4C42
330
4B9C
100
AcDbEntity
  8
DEFPOINTS
 62
     0
100
AcDbPoint
 10
220.5526580586106
 20
193.9545275780437
 30
0.0
  0
ENDBLK
  5
4BA7
330
4B9C
100
AcDbEntity
  8
0
100
AcDbBlockEnd
  0
BLOCK
  5
4BB4
330
4BA8
100
AcDbEntity
  8
0
100
AcDbBlockBegin
  2
*D8
 70
     1
 71
     0
 10
0.0
 20
0.0
 30
0.0
  3
*D8
  1

  0
LINE
  5
4C43
330
4BA8
100
AcDbEntity
  8
SUNPOU
 62
     4
370
    -2
100
AcDbLine
 10
379.2779360732759
 20
235.8224699669667
 30
0.0
 11
379.2779360732759
 21
288.8239796068374
 31
0.0
  0
LINE
  5
4C44
330
4BA8
100
AcDbEntity
  8
SUNPOU
 62
     4
370
    -2
100
AcDbLine
 10
389.2826353147876
 20
262.1439430641166
 30
0.0
 11
389.2826353147876
 21
288.8239796068374
 31
0.0
  0
LINE
  5
4C45
330
4BA8
100
AcDbEntity
  8
SUNPOU
 62
     4
370
    -2
100
AcDbLine
 10
396.2826353147876
 20
285.8239796068374
 30
0.0
 11
403.2826353147876
 21
285.8239796068374
 31
0.0
  0
LINE
  5
4C46
330
4BA8
100
AcDbEntity
  8
SUNPOU
 62
     4
370
    -2
100
AcDbLine
 10
372.2779360732759
 20
285.8239796068374
 30
0.0
 11
354.2779360732759
 21
285.8239796068374
 31
0.0
  0
LINE
  5
4C47
330
4BA8
100
AcDbEntity
  8
SUNPOU
 62
     4
370
    -2
100
AcDbLine
 10
389.2826353147876
 20
285.8239796068374
 30
0.0
 11
379.2779360732759
 21
285.8239796068374
 31
0.0
  0
INSERT
  5
4C48
330
4BA8
100
AcDbEntity
  8
SUNPOU
 62
     4
370
    -2
100
AcDbBlockReference
  2
_OPEN
 10
389.2826353147876
 20
285.8239796068374
 30
0.0
 41
7.0
 42
7.0
 43
7.0
 50
180.0
  0
INSERT
  5
4C49
330
4BA8
100
AcDbEntity
  8
SUNPOU
 62
     4
370
    -2
100
AcDbBlockReference
  2
_OPEN
 10
379.2779360732759
 20
285.8239796068374
 30
0.0
 41
7.0
 42
7.0
 43
7.0
  0
MTEXT
  5
4C4A
330
4BA8
100
AcDbEntity
  8
SUNPOU
 62
     4
100
AcDbMText
 10
359.7779360732759
 20
290.8239796068374
 30
0.0
 40
6.0
 41
0.0
 71
     5
 72
     1
  1
\A1;10
 73
     1
 44
1.0
  0
POINT
  5
4C4B
330
4BA8
100
AcDbEntity
  8
DEFPOINTS
 62
     0
100
AcDbPoint
 10
379.2779360732759
 20
229.8224699669667
 30
0.0
  0
POINT
  5
4C4C
330
4BA8
100
AcDbEntity
  8
DEFPOINTS
 62
     0
100
AcDbPoint
 10
389.2826353147876
 20
256.1439430641166
 30
0.0
  0
POINT
  5
4C4D
330
4BA8
100
AcDbEntity
  8
DEFPOINTS
 62
     0
100
AcDbPoint
 10
389.2826353147876
 20
285.8239796068374
 30
0.0
  0
ENDBLK
  5
4BB5
330
4BA8
100
AcDbEntity
  8
0
100
AcDbBlockEnd
  0
BLOCK
  5
4BC2
330
4BB6
100
AcDbEntity
  8
0
100
AcDbBlockBegin
  2
*D9
 70
     1
 71
     0
 10
0.0
 20
0.0
 30
0.0
  3
*D9
  1

  0
LINE
  5
4C4E
330
4BB6
100
AcDbEntity
  8
SUNPOU
 62
     4
370
    -2
100
AcDbLine
 10
253.7779360732758
 20
402.0203787150011
 30
0.0
 11
217.5526580586106
 21
402.0203787150011
 31
0.0
  0
LINE
  5
4C4F
330
4BB6
100
AcDbEntity
  8
SUNPOU
 62
     4
370
    -2
100
AcDbLine
 10
253.7779360732758
 20
387.0204787150011
 30
0.0
 11
217.5526580586106
 21
387.0204787150011
 31
0.0
  0
LINE
  5
4C50
330
4BB6
100
AcDbEntity
  8
SUNPOU
 62
     4
370
    -2
100
AcDbLine
 10
220.5526580586106
 20
409.0203787150011
 30
0.0
 11
220.5526580586106
 21
416.0203787150011
 31
0.0
  0
LINE
  5
4C51
330
4BB6
100
AcDbEntity
  8
SUNPOU
 62
     4
370
    -2
100
AcDbLine
 10
220.5526580586106
 20
380.0204787150011
 30
0.0
 11
220.5526580586106
 21
373.0204787150011
 31
0.0
  0
LINE
  5
4C52
330
4BB6
100
AcDbEntity
  8
SUNPOU
 62
     4
370
    -2
100
AcDbLine
 10
220.5526580586106
 20
402.0203787150011
 30
0.0
 11
220.5526580586106
 21
387.0204787150011
 31
0.0
  0
INSERT
  5
4C53
330
4BB6
100
AcDbEntity
  8
SUNPOU
 62
     4
370
    -2
100
AcDbBlockReference
  2
_OPEN
 10
220.5526580586106
 20
402.0203787150011
 30
0.0
 41
7.0
 42
7.0
 43
7.0
 50
270.0
  0
INSERT
  5
4C54
330
4BB6
100
AcDbEntity
  8
SUNPOU
 62
     4
370
    -2
100
AcDbBlockReference
  2
_OPEN
 10
220.5526580586106
 20
387.0204787150011
 30
0.0
 41
7.0
 42
7.0
 43
7.0
 50
90.0
  0
MTEXT
  5
4C55
330
4BB6
100
AcDbEntity
  8
SUNPOU
 62
     4
100
AcDbMText
 10
215.5526580586106
 20
394.5204287150012
 30
0.0
 40
6.0
 41
0.0
 71
     5
 72
     1
  1
\A1;15
 11
6.123031769111886E-17
 21
1.0
 31
0.0
 73
     1
 44
1.0
  0
POINT
  5
4C56
330
4BB6
100
AcDbEntity
  8
DEFPOINTS
 62
     0
100
AcDbPoint
 10
259.7779360732758
 20
402.0203787150011
 30
0.0
  0
POINT
  5
4C57
330
4BB6
100
AcDbEntity
  8
DEFPOINTS
 62
     0
100
AcDbPoint
 10
259.7779360732758
 20
387.0204787150011
 30
0.0
  0
POINT
  5
4C58
330
4BB6
100
AcDbEntity
  8
DEFPOINTS
 62
     0
100
AcDbPoint
 10
220.5526580586106
 20
387.0204787150011
 30
0.0
  0
ENDBLK
  5
4BC3
330
4BB6
100
AcDbEntity
  8
0
100
AcDbBlockEnd
  0
BLOCK
  5
4BCE
330
4BC4
100
AcDbEntity
  8
0
100
AcDbBlockBegin
  2
*D10
 70
     1
 71
     0
 10
0.0
 20
0.0
 30
0.0
  3
*D10
  1

  0
LINE
  5
4C59
330
4BC4
100
AcDbEntity
  8
SUNPOU
 62
     4
370
    -2
100
AcDbLine
 10
520.9918739905019
 20
308.8251743948878
 30
0.0
 11
493.3064322753407
 21
297.7517877385177
 31
0.0
  0
LINE
  5
4C5A
330
4BC4
100
AcDbEntity
  8
SUNPOU
 62
     4
370
    -2
100
AcDbLine
 10
523.5920244457826
 20
282.8317916303888
 30
0.0
 11
502.6278019864724
 21
274.446700880149
 31
0.0
  0
LINE
  5
4C5B
330
4BC4
100
AcDbEntity
  8
SUNPOU
 62
     4
370
    -2
100
AcDbLine
 10
498.6914646048351
 20
292.366490457002
 30
0.0
 11
502.8136846182634
 21
282.0602051749661
 31
0.0
  0
INSERT
  5
4C5C
330
4BC4
100
AcDbEntity
  8
SUNPOU
 62
     4
370
    -2
100
AcDbBlockReference
  2
_OPEN
 10
496.0918897559834
 20
298.8658912451684
 30
0.0
 41
7.0
 42
7.0
 43
7.0
 50
111.8000000000005
  0
INSERT
  5
4C5D
330
4BC4
100
AcDbEntity
  8
SUNPOU
 62
     4
370
    -2
100
AcDbBlockReference
  2
_OPEN
 10
505.4132594671151
 20
275.5608043867998
 30
0.0
 41
7.0
 42
7.0
 43
7.0
 50
291.8000000000005
  0
MTEXT
  5
4C5E
330
4BC4
100
AcDbEntity
  8
SUNPOU
 62
     4
100
AcDbMText
 10
505.3950037459538
 20
289.0701869937353
 30
0.0
 40
6.0
 41
0.0
 71
     5
 72
     1
  1
\A1;25
 11
0.3713678355502434
 21
-0.9284858268809101
 31
0.0
 73
     1
 44
1.0
  0
POINT
  5
4C5F
330
4BC4
100
AcDbEntity
  8
DEFPOINTS
 62
     0
100
AcDbPoint
 10
526.5627889517873
 20
311.0533814081892
 30
0.0
  0
POINT
  5
4C60
330
4BC4
100
AcDbEntity
  8
DEFPOINTS
 62
     0
100
AcDbPoint
 10
529.1629394070681
 20
285.0599986436903
 30
0.0
  0
POINT
  5
4C61
330
4BC4
100
AcDbEntity
  8
DEFPOINTS
 62
     0
100
AcDbPoint
 10
505.4132594671151
 20
275.5608043867998
 30
0.0
  0
ENDBLK
  5
4BCF
330
4BC4
100
AcDbEntity
  8
0
100
AcDbBlockEnd
  0
BLOCK
  5
4BDA
330
4BD0
100
AcDbEntity
  8
0
100
AcDbBlockBegin
  2
*D11
 70
     1
 71
     0
 10
0.0
 20
0.0
 30
0.0
  3
*D11
  1

  0
LINE
  5
4C62
330
4BD0
100
AcDbEntity
  8
SUNPOU
 62
     4
370
    -2
100
AcDbLine
 10
564.6308039130727
 20
326.2794884214907
 30
0.0
 11
595.9720946515762
 21
338.8151103641634
 31
0.0
  0
LINE
  5
4C63
330
4BD0
100
AcDbEntity
  8
SUNPOU
 62
     4
370
    -2
100
AcDbLine
 10
582.991491151909
 20
300.0200570743036
 30
0.0
 11
607.5588002756876
 21
309.8462796729191
 31
0.0
  0
LINE
  5
4C64
330
4BD0
100
AcDbEntity
  8
SUNPOU
 62
     4
370
    -2
100
AcDbLine
 10
595.7862120197851
 20
331.2016060693463
 30
0.0
 11
602.1737679461932
 21
315.2315769544347
 31
0.0
  0
INSERT
  5
4C65
330
4BD0
100
AcDbEntity
  8
SUNPOU
 62
     4
370
    -2
100
AcDbBlockReference
  2
_OPEN
 10
593.1866371709334
 20
337.7010068575127
 30
0.0
 41
7.0
 42
7.0
 43
7.0
 50
111.8000000000005
  0
INSERT
  5
4C66
330
4BD0
100
AcDbEntity
  8
SUNPOU
 62
     4
370
    -2
100
AcDbBlockReference
  2
_OPEN
 10
604.7733427950449
 20
308.7321761662684
 30
0.0
 41
7.0
 42
7.0
 43
7.0
 50
291.8000000000005
  0
MTEXT
  5
4C67
330
4BD0
100
AcDbEntity
  8
SUNPOU
 62
     4
100
AcDbMText
 10
603.6224191173936
 20
325.0734306896418
 30
0.0
 40
6.0
 41
0.0
 71
     5
 72
     1
  1
\A1;31
 11
0.3713678355502434
 21
-0.9284858268809101
 31
0.0
 73
     1
 44
1.0
  0
POINT
  5
4C68
330
4BD0
100
AcDbEntity
  8
DEFPOINTS
 62
     0
100
AcDbPoint
 10
559.0598889517871
 20
324.0512814081893
 30
0.0
  0
POINT
  5
4C69
330
4BD0
100
AcDbEntity
  8
DEFPOINTS
 62
     0
100
AcDbPoint
 10
577.4205761906236
 20
297.7918500610022
 30
0.0
  0
POINT
  5
4C6A
330
4BD0
100
AcDbEntity
  8
DEFPOINTS
 62
     0
100
AcDbPoint
 10
604.7733427950449
 20
308.7321761662684
 30
0.0
  0
ENDBLK
  5
4BDB
330
4BD0
100
AcDbEntity
  8
0
100
AcDbBlockEnd
  0
BLOCK
  5
4BE6
330
4BDC
100
AcDbEntity
  8
0
100
AcDbBlockBegin
  2
*D12
 70
     1
 71
     0
 10
0.0
 20
0.0
 30
0.0
  3
*D12
  1

  0
LINE
  5
4C6B
330
4BDC
100
AcDbEntity
  8
SUNPOU
 62
     4
370
    -2
100
AcDbLine
 10
518.7634819384859
 20
303.6257963694748
 30
0.0
 11
500.4161750209153
 21
349.4973361304737
 31
0.0
  0
LINE
  5
4C6C
330
4BDC
100
AcDbEntity
  8
SUNPOU
 62
     4
370
    -2
100
AcDbLine
 10
569.830181938486
 20
324.0509963694747
 30
0.0
 11
551.4828671715046
 21
369.9225557554004
 31
0.0
  0
LINE
  5
4C6D
330
4BDC
100
AcDbEntity
  8
SUNPOU
 62
     4
370
    -2
100
AcDbLine
 10
508.0296793157324
 20
349.3114534986826
 30
0.0
 11
546.097569889989
 21
364.5375234259061
 31
0.0
  0
INSERT
  5
4C6E
330
4BDC
100
AcDbEntity
  8
SUNPOU
 62
     4
370
    -2
100
AcDbBlockReference
  2
_OPEN
 10
501.530278527566
 20
346.711878649831
 30
0.0
 41
7.0
 42
7.0
 43
7.0
 50
201.7999999999997
  0
INSERT
  5
4C6F
330
4BDC
100
AcDbEntity
  8
SUNPOU
 62
     4
370
    -2
100
AcDbBlockReference
  2
_OPEN
 10
552.5969706781553
 20
367.1370982747577
 30
0.0
 41
7.0
 42
7.0
 43
7.0
 50
21.79999999999974
  0
MTEXT
  5
4C70
330
4BDC
100
AcDbEntity
  8
SUNPOU
 62
     4
100
AcDbMText
 10
525.2067854251096
 20
361.566917596699
 30
0.0
 40
6.0
 41
0.0
 71
     5
 72
     1
  1
\A1;55
 11
0.9284858268809153
 21
0.3713678355502306
 31
0.0
 73
     1
 44
1.0
  0
POINT
  5
4C71
330
4BDC
100
AcDbEntity
  8
DEFPOINTS
 62
     0
100
AcDbPoint
 10
520.9916889517873
 20
298.0548814081893
 30
0.0
  0
POINT
  5
4C72
330
4BDC
100
AcDbEntity
  8
DEFPOINTS
 62
     0
100
AcDbPoint
 10
572.0583889517874
 20
318.4800814081892
 30
0.0
  0
POINT
  5
4C73
330
4BDC
100
AcDbEntity
  8
DEFPOINTS
 62
     0
100
AcDbPoint
 10
552.5969706781553
 20
367.1370982747577
 30
0.0
  0
ENDBLK
  5
4BE7
330
4BDC
100
AcDbEntity
  8
0
100
AcDbBlockEnd
  0
BLOCK
  5
4BF2
330
4BE8
100
AcDbEntity
  8
0
100
AcDbBlockBegin
  2
*D13
 70
     1
 71
     0
 10
0.0
 20
0.0
 30
0.0
  3
*D13
  1

  0
LINE
  5
4C74
330
4BE8
100
AcDbEntity
  8
SUNPOU
 62
     4
370
    -2
100
AcDbLine
 10
531.3755677402343
 20
293.6351881401582
 30
0.0
 11
515.6498738607054
 21
332.9522277092342
 31
0.0
  0
LINE
  5
4C75
330
4BE8
100
AcDbEntity
  8
SUNPOU
 62
     4
370
    -2
100
AcDbLine
 10
567.5865677402344
 20
308.1185881401585
 30
0.0
 11
551.8608853478323
 21
347.4355989893686
 31
0.0
  0
LINE
  5
4C76
330
4BE8
100
AcDbEntity
  8
SUNPOU
 62
     4
370
    -2
100
AcDbLine
 10
523.2633781555226
 20
332.7663450774431
 30
0.0
 11
546.4755880663167
 21
342.0505666598742
 31
0.0
  0
INSERT
  5
4C77
330
4BE8
100
AcDbEntity
  8
SUNPOU
 62
     4
370
    -2
100
AcDbBlockReference
  2
_OPEN
 10
516.7639773673561
 20
330.1667702285915
 30
0.0
 41
7.0
 42
7.0
 43
7.0
 50
201.7999999999997
  0
INSERT
  5
4C78
330
4BE8
100
AcDbEntity
  8
SUNPOU
 62
     4
370
    -2
100
AcDbBlockReference
  2
_OPEN
 10
552.9749888544829
 20
344.6501415087258
 30
0.0
 41
7.0
 42
7.0
 43
7.0
 50
21.79999999999974
  0
MTEXT
  5
4C79
330
4BE8
100
AcDbEntity
  8
SUNPOU
 62
     4
100
AcDbMText
 10
533.0126439331684
 20
342.0508850030633
 30
0.0
 40
6.0
 41
0.0
 71
     5
 72
     1
  1
\A1;39
 11
0.9284858268809153
 21
0.3713678355502306
 31
0.0
 73
     1
 44
1.0
  0
POINT
  5
4C7A
330
4BE8
100
AcDbEntity
  8
DEFPOINTS
 62
     0
100
AcDbPoint
 10
533.6037747535356
 20
288.0642731788728
 30
0.0
  0
POINT
  5
4C7B
330
4BE8
100
AcDbEntity
  8
DEFPOINTS
 62
     0
100
AcDbPoint
 10
569.8147747535357
 20
302.547673178873
 30
0.0
  0
POINT
  5
4C7C
330
4BE8
100
AcDbEntity
  8
DEFPOINTS
 62
     0
100
AcDbPoint
 10
552.9749888544829
 20
344.6501415087258
 30
0.0
  0
ENDBLK
  5
4BF3
330
4BE8
100
AcDbEntity
  8
0
100
AcDbBlockEnd
  0
BLOCK
  5
4C00
330
4BF4
100
AcDbEntity
  8
0
100
AcDbBlockBegin
  2
*D14
 70
     1
 71
     0
 10
0.0
 20
0.0
 30
0.0
  3
*D14
  1

  0
LINE
  5
4C7D
330
4BF4
100
AcDbEntity
  8
SUNPOU
 62
     4
370
    -2
100
AcDbLine
 10
554.7960033961242
 20
258.8014465063877
 30
0.0
 11
525.087733185219
 21
246.9189861750027
 31
0.0
  0
LINE
  5
4C7E
330
4BF4
100
AcDbEntity
  8
SUNPOU
 62
     4
370
    -2
100
AcDbLine
 10
561.9366007404778
 20
253.5797531822504
 30
0.0
 11
527.8730129059375
 21
239.9552900844293
 31
0.0
  0
LINE
  5
4C7F
330
4BF4
100
AcDbEntity
  8
SUNPOU
 62
     4
370
    -2
100
AcDbLine
 10
525.27361581701
 20
254.5324904698198
 30
0.0
 11
522.6740409681582
 21
261.0318912579862
 31
0.0
  0
LINE
  5
4C80
330
4BF4
100
AcDbEntity
  8
SUNPOU
 62
     4
370
    -2
100
AcDbLine
 10
533.2580452354318
 20
234.5699928029137
 30
0.0
 11
541.7995054530875
 21
213.2148187846528
 31
0.0
  0
LINE
  5
4C81
330
4BF4
100
AcDbEntity
  8
SUNPOU
 62
     4
370
    -2
100
AcDbLine
 10
527.8731906658617
 20
248.0330896816534
 30
0.0
 11
530.6584703865801
 21
241.0693935910801
 31
0.0
  0
INSERT
  5
4C82
330
4BF4
100
AcDbEntity
  8
SUNPOU
 62
     4
370
    -2
100
AcDbBlockReference
  2
_OPEN
 10
527.8731906658617
 20
248.0330896816534
 30
0.0
 41
7.0
 42
7.0
 43
7.0
 50
291.8000000000005
  0
INSERT
  5
4C83
330
4BF4
100
AcDbEntity
  8
SUNPOU
 62
     4
370
    -2
100
AcDbBlockReference
  2
_OPEN
 10
530.6584703865801
 20
241.0693935910801
 30
0.0
 41
7.0
 42
7.0
 43
7.0
 50
111.8000000000005
  0
MTEXT
  5
4C84
330
4BF4
100
AcDbEntity
  8
SUNPOU
 62
     4
100
AcDbMText
 10
543.4709919030901
 20
222.4995445774513
 30
0.0
 40
6.0
 41
0.0
 71
     5
 72
     1
  1
\A1;7.5
 11
0.3713678355502434
 21
-0.9284858268809101
 31
0.0
 73
     1
 44
1.0
  0
POINT
  5
4C85
330
4BF4
100
AcDbEntity
  8
DEFPOINTS
 62
     0
100
AcDbPoint
 10
560.3669183574097
 20
261.0296535196892
 30
0.0
  0
POINT
  5
4C86
330
4BF4
100
AcDbEntity
  8
DEFPOINTS
 62
     0
100
AcDbPoint
 10
567.5075157017634
 20
255.8079601955519
 30
0.0
  0
POINT
  5
4C87
330
4BF4
100
AcDbEntity
  8
DEFPOINTS
 62
     0
100
AcDbPoint
 10
530.6584703865801
 20
241.0693935910801
 30
0.0
  0
ENDBLK
  5
4C01
330
4BF4
100
AcDbEntity
  8
0
100
AcDbBlockEnd
  0
ENDSEC
  0
SECTION
  2
ENTITIES
  0
LINE
  5
3EF3
330
1A
100
AcDbEntity
  8
ZUWAKU
100
AcDbLine
 10
208.646601303624
 20
15.19999986828872
 30
0.0
 11
447.4243639845474
 21
15.19999986828871
 31
0.0
  0
LINE
  5
3EF4
330
1A
100
AcDbEntity
  8
ZUWAKU
100
AcDbLine
 10
208.646601303624
 20
15.59999986828872
 30
0.0
 11
447.4243639845474
 21
15.59999986828872
 31
0.0
  0
LINE
  5
3EF5
330
1A
100
AcDbEntity
  8
ZUWAKU
100
AcDbLine
 10
208.646601303624
 20
15.39999986828872
 30
0.0
 11
447.4243639845474
 21
15.39999986828872
 31
0.0
  0
LINE
  5
3EF6
330
1A
100
AcDbEntity
  8
ZUWAKU
100
AcDbLine
 10
0.0000000135560185
 20
30.79999986828869
 30
0.0
 11
797.4000000135559
 21
30.79999986828869
 31
0.0
  0
LINE
  5
3EF7
330
1A
100
AcDbEntity
  8
ZUWAKU
100
AcDbLine
 10
0.0000000135560185
 20
30.59999986828869
 30
0.0
 11
797.4000000135559
 21
30.59999986828869
 31
0.0
  0
LINE
  5
3EF8
330
1A
100
AcDbEntity
  8
ZUWAKU
100
AcDbLine
 10
0.0000000135560185
 20
30.39999986828869
 30
0.0
 11
797.4000000135559
 21
30.39999986828869
 31
0.0
  0
LINE
  5
3EF9
330
1A
100
AcDbEntity
  8
ZUWAKU
100
AcDbLine
 10
0.0000000135560185
 20
30.19999986828869
 30
0.0
 11
797.4000000135559
 21
30.19999986828869
 31
0.0
  0
LINE
  5
3EFA
330
1A
100
AcDbEntity
  8
ZUWAKU
100
AcDbLine
 10
0.0000000135560185
 20
29.99999986828868
 30
0.0
 11
797.4000000135559
 21
29.99999986828868
 31
0.0
  0
LWPOLYLINE
  5
3EFB
330
1A
100
AcDbEntity
  8
ZUWAKU
100
AcDbPolyline
 90
        4
 70
     1
 43
0.0
 10
0.2000000135559503
 20
551.3999998682888
 10
0.2000000135559503
 20
0.1999998682887281
 10
797.4000000135559
 20
0.1999998682887512
 10
797.4000000135561
 20
551.3999998682888
  0
LWPOLYLINE
  5
3EFC
330
1A
100
AcDbEntity
  8
ZUWAKU
100
AcDbPolyline
 90
        4
 70
     1
 43
0.0
 10
0.6000000135559276
 20
550.9999998682888
 10
0.6000000135559276
 20
0.5999998682887053
 10
797.0000000135563
 20
0.5999998682887515
 10
797.000000013556
 20
550.9999998682888
  0
LWPOLYLINE
  5
3EFD
330
1A
100
AcDbEntity
  8
ZUWAKU
100
AcDbPolyline
 90
        4
 70
     1
 43
0.0
 10
0.0000000135560185
 20
551.5999998682887
 10
0.0000000135560185
 20
-0.0000001317113174
 10
797.6000000135562
 20
-0.0000001317112499
 10
797.6000000135562
 20
551.5999998682888
  0
LWPOLYLINE
  5
3EFE
330
1A
100
AcDbEntity
  8
ZUWAKU
100
AcDbPolyline
 90
        4
 70
     1
 43
0.0
 10
0.4000000135559958
 20
551.1999998682887
 10
0.4000000135559958
 20
0.3999998682887735
 10
797.2000000135561
 20
0.3999998682887505
 10
797.2000000135561
 20
551.1999998682887
  0
LWPOLYLINE
  5
3EFF
330
1A
100
AcDbEntity
  8
ZUWAKU
100
AcDbPolyline
 90
        4
 70
     1
 43
0.0
 10
0.8000000135559731
 20
550.7999998682888
 10
0.8000000135559731
 20
0.7999998682887508
 10
796.800000013556
 20
0.7999998682887508
 10
796.800000013556
 20
550.7999998682888
  0
TEXT
  5
3F00
330
1A
100
AcDbEntity
  8
moji
100
AcDbText
 10
92.95778960172515
 20
12.74117799856344
 30
0.0
 40
6.0
  1
アーバントップΣ９０
 41
0.9
  7
ｽﾀｲﾙ1
100
AcDbText
  0
HATCH
  5
3F01
330
1A
100
AcDbEntity
  8
ZUWAKU
100
AcDbHatch
 10
0.0
 20
0.0
 30
0.0
210
0.0
220
0.0
230
1.0
  2
ANSI37
 70
     0
 71
     0
 91
        8
 92
        7
 72
     1
 73
     1
 93
       24
 10
14.50226267467588
 20
17.64484834927227
 42
-0.1989123673796348
 10
14.09221216833714
 20
18.63479784293332
 42
0.0
 10
14.09221216833714
 20
19.92499986828869
 42
-0.4142135623730912
 10
14.61721216833712
 20
20.44999986828869
 42
0.0
 10
17.59221216833703
 20
20.44999986828869
 42
0.4142135623731546
 10
18.11721216833712
 20
20.97499986828868
 42
0.0
 10
18.11721216833712
 20
22.72499986828869
 42
0.4142135623731586
 10
17.59221216833703
 20
23.24999986828869
 42
0.0
 10
14.09221216833714
 20
23.24999986828869
 42
0.4142135623730928
 10
11.29221216833719
 20
20.44999986828871
 42
0.0
 10
11.29221216833719
 20
18.63479784293345
 42
0.1989123673796619
 10
12.52236368735362
 20
15.66494936194984
 42
0.0
 10
15.43216166199829
 20
12.75515138730518
 42
-0.1989123673796613
 10
15.84221216833714
 20
11.76520189364399
 42
0.0
 10
15.84221216833714
 20
10.47499986828868
 42
-0.4142135623730911
 10
15.31721216833716
 20
9.949999868288685
 42
0.0
 10
12.34221216833726
 20
9.949999868288685
 42
0.4142135623731526
 10
11.81721216833716
 20
9.424999868288698
 42
0.0
 10
11.81721216833716
 20
7.674999868288676
 42
0.4142135623731526
 10
12.34221216833726
 20
7.149999868288688
 42
0.0
 10
15.84221216833714
 20
7.149999868288688
 42
0.4142135623731044
 10
18.64221216833721
 20
9.949999868288664
 42
0.0
 10
18.64221216833721
 20
11.76520189364394
 42
0.1989123673796604
 10
17.41206064932067
 20
14.73505037462748
 42
0.0
 97
        0
 92
        7
 72
     1
 73
     1
 93
       16
 10
23.54221216833719
 20
19.04999986828869
 42
-0.4142135623730935
 10
24.94221216833716
 20
20.44999986828869
 42
0.0
 10
26.86721216833712
 20
20.44999986828869
 42
0.4142135623731546
 10
27.39221216833721
 20
20.97499986828868
 42
0.0
 10
27.39221216833721
 20
22.72499986828869
 42
0.4142135623730952
 10
26.86721216833723
 20
23.24999986828869
 42
0.0
 10
24.94221216833705
 20
23.24999986828865
 42
0.4142135623730892
 10
20.74221216833712
 20
19.04999986828862
 42
0.0
 10
20.74221216833712
 20
11.34999986828871
 42
0.4142135623730969
 10
24.94221216833716
 20
7.149999868288688
 42
0.0
 10
26.86721216833712
 20
7.149999868288688
 42
0.4142135623731526
 10
27.39221216833721
 20
7.674999868288676
 42
0.0
 10
27.39221216833721
 20
9.424999868288698
 42
0.414213562373089
 10
26.86721216833723
 20
9.949999868288685
 42
0.0
 10
24.94221216833716
 20
9.949999868288685
 42
-0.4142135623730928
 10
23.54221216833719
 20
11.34999986828867
 42
0.0
 97
        0
 92
        7
 72
     1
 73
     1
 93
        2
 10
24.24221216833712
 20
15.19999986828869
 42
1.0
 10
27.74221216833712
 20
15.19999986828869
 42
1.0
 97
        0
 92
        7
 72
     1
 73
     1
 93
       26
 10
37.31485865051513
 20
19.20504706185211
 42
0.0
 10
38.37649828365295
 20
22.5669059001217
 42
0.5069206636600134
 10
37.87586738445759
 20
23.24999986828869
 42
0.0
 10
36.17697800484837
 20
23.24999986828869
 42
0.3272098845218764
 10
35.67634710565301
 20
22.88309383645566
 42
0.0
 10
33.80807723102123
 20
16.96690590012177
 42
-0.3272098845219541
 10
33.30744633182576
 20
16.59999986828868
 42
0.0
 10
33.1672121683373
 20
16.59999986828868
 42
-0.4142135623731526
 10
32.64221216833721
 20
17.12499986828867
 42
0.0
 10
32.64221216833721
 20
22.72499986828869
 42
0.4142135623730952
 10
32.11721216833723
 20
23.24999986828869
 42
0.0
 10
30.36721216833712
 20
23.24999986828869
 42
0.4142135623730872
 10
29.84221216833714
 20
22.72499986828871
 42
0.0
 10
29.84221216833714
 20
7.674999868288676
 42
0.414213562373089
 10
30.36721216833712
 20
7.149999868288688
 42
0.0
 10
32.11721216833712
 20
7.149999868288688
 42
0.4142135623731526
 10
32.64221216833721
 20
7.674999868288676
 42
0.0
 10
32.64221216833721
 20
13.2749998682887
 42
-0.4142135623731526
 10
33.1672121683373
 20
13.79999986828869
 42
0.0
 10
33.30744633182587
 20
13.79999986828869
 42
-0.3272098845218915
 10
33.80807723102123
 20
13.43309383645561
 42
0.0
 10
35.67634710565301
 20
7.51690590012176
 42
0.3272098845218902
 10
36.17697800484837
 20
7.149999868288688
 42
0.0
 10
37.87586738445759
 20
7.149999868288688
 42
0.5069206636600334
 10
38.37649828365295
 20
7.833093836455696
 42
0.0
 10
36.05010690517929
 20
15.19999986828882
 42
0.0
 97
        0
 92
        7
 72
     1
 73
     1
 93
        8
 10
43.49221216833712
 20
22.7249998682887
 42
0.4142135623731546
 10
42.96721216833703
 20
23.24999986828869
 42
0.0
 10
41.21721216833726
 20
23.24999986828869
 42
0.4142135623731506
 10
40.69221216833716
 20
22.72499986828871
 42
0.0
 10
40.69221216833716
 20
7.674999868288676
 42
0.4142135623731526
 10
41.21721216833726
 20
7.149999868288688
 42
0.0
 10
42.96721216833703
 20
7.149999868288688
 42
0.4142135623731526
 10
43.49221216833712
 20
7.674999868288676
 42
0.0
 97
        0
 92
        7
 72
     1
 73
     1
 93
       24
 10
48.39221216833721
 20
19.92499986828869
 42
-0.4142135623731547
 10
48.9172121683373
 20
20.44999986828869
 42
0.0
 10
51.89221216833721
 20
20.44999986828869
 42
0.4142135623730911
 10
52.41721216833719
 20
20.97499986828868
 42
0.0
 10
52.41721216833719
 20
22.72499986828869
 42
0.4142135623730952
 10
51.89221216833721
 20
23.24999986828869
 42
0.0
 10
48.39221216833721
 20
23.24999986828869
 42
0.4142135623731048
 10
45.59221216833714
 20
20.44999986828871
 42
0.0
 10
45.59221216833714
 20
18.63479784293345
 42
0.1989123673796613
 10
46.82236368735369
 20
15.66494936194989
 42
0.0
 10
49.73216166199836
 20
12.75515138730523
 42
-0.1989123673796402
 10
50.14221216833721
 20
11.76520189364415
 42
0.0
 10
50.14221216833721
 20
10.47499986828868
 42
-0.4142135623730911
 10
49.61721216833723
 20
9.949999868288685
 42
0.0
 10
46.64221216833721
 20
9.949999868288685
 42
0.4142135623731526
 10
46.11721216833712
 20
9.424999868288698
 42
0.0
 10
46.11721216833712
 20
7.674999868288676
 42
0.414213562373089
 10
46.6422121683371
 20
7.149999868288688
 42
0.0
 10
50.14221216833721
 20
7.149999868288688
 42
0.4142135623730925
 10
52.94221216833716
 20
9.949999868288664
 42
0.0
 10
52.94221216833716
 20
11.76520189364394
 42
0.1989123673796675
 10
51.71206064932062
 20
14.73505037462759
 42
0.0
 10
48.80226267467606
 20
17.64484834927211
 42
-0.1989123673796653
 10
48.39221216833721
 20
18.63479784293327
 42
0.0
 97
        0
 92
        7
 72
     1
 73
     1
 93
       16
 10
57.84221216833714
 20
22.72499986828868
 42
0.414213562373103
 10
57.31721216833716
 20
23.24999986828869
 42
0.0
 10
55.56721216833716
 20
23.24999986828869
 42
0.4142135623730872
 10
55.04221216833719
 20
22.72499986828871
 42
0.0
 10
55.04221216833719
 20
9.949999868288664
 42
0.4142135623730925
 10
57.84221216833714
 20
7.149999868288688
 42
0.0
 10
61.34221216833714
 20
7.149999868288688
 42
0.4142135623731044
 10
64.14221216833721
 20
9.949999868288664
 42
0.0
 10
64.14221216833721
 20
22.72499986828869
 42
0.4142135623730952
 10
63.61721216833723
 20
23.24999986828869
 42
0.0
 10
61.86721216833712
 20
23.24999986828869
 42
0.4142135623730872
 10
61.34221216833714
 20
22.72499986828871
 42
0.0
 10
61.34221216833714
 20
10.99999986828866
 42
-0.414213562373088
 10
60.29221216833719
 20
9.949999868288685
 42
0.0
 10
58.89221216833721
 20
9.949999868288685
 42
-0.4142135623731197
 10
57.84221216833714
 20
10.99999986828866
 42
0.0
 97
        0
 92
        7
 72
     1
 73
     1
 93
        8
 10
69.04221216833719
 20
22.72499986828871
 42
0.4142135623730872
 10
68.51721216833721
 20
23.24999986828869
 42
0.0
 10
66.76721216833721
 20
23.24999986828869
 42
0.4142135623731506
 10
66.24221216833712
 20
22.72499986828871
 42
0.0
 10
66.24221216833712
 20
7.674999868288676
 42
0.414213562373089
 10
66.7672121683371
 20
7.149999868288688
 42
0.0
 10
68.51721216833721
 20
7.149999868288688
 42
0.414213562373089
 10
69.04221216833719
 20
7.674999868288676
 42
0.0
 97
        0
 75
     0
 76
     1
 52
0.0
 41
0.2
 77
     0
 78
     2
 53
45.0
 43
-900.942304321123
 44
-13.20000013171125
 45
-0.4490128060534576
 46
0.4490128060534577
 79
     0
 53
135.0
 43
-900.942304321123
 44
-13.20000013171125
 45
-0.4490128060534577
 46
-0.4490128060534576
 79
     0
 47
0.057451373970553
 98
        8
 10
16.07985497657933
 20
15.16717351417424
 10
22.40451501999519
 20
18.84406205073969
 10
25.16436789921568
 20
15.5118815143594
 10
30.91405999519316
 20
16.20129751473019
 10
41.83847203251276
 20
16.6609097822718
 10
46.89820090868557
 20
19.41857618469589
 10
56.55768598595637
 20
18.7291577833837
 10
67.82707963317876
 20
19.18877005092531
  0
LINE
  5
3F02
330
1A
100
AcDbEntity
  8
ZUWAKU
100
AcDbLine
 10
24.94221216833716
 20
23.24999986828865
 30
0.0
 11
26.86721216833712
 21
23.24999986828869
 31
0.0
  0
LINE
  5
3F03
330
1A
100
AcDbEntity
  8
ZUWAKU
100
AcDbLine
 10
26.86721216833712
 20
20.44999986828869
 30
0.0
 11
24.94221216833716
 21
20.44999986828869
 31
0.0
  0
LINE
  5
3F04
330
1A
100
AcDbEntity
  8
ZUWAKU
100
AcDbLine
 10
24.94221216833716
 20
9.949999868288685
 30
0.0
 11
26.86721216833712
 21
9.949999868288685
 31
0.0
  0
LINE
  5
3F05
330
1A
100
AcDbEntity
  8
ZUWAKU
100
AcDbLine
 10
26.86721216833712
 20
7.149999868288688
 30
0.0
 11
24.94221216833716
 21
7.149999868288688
 31
0.0
  0
CIRCLE
  5
3F06
330
1A
100
AcDbEntity
  8
ZUWAKU
100
AcDbCircle
 10
25.99221216833712
 20
15.19999986828869
 30
0.0
 40
1.75
  0
ARC
  5
3F07
330
1A
100
AcDbEntity
  8
ZUWAKU
100
AcDbCircle
 10
15.49221216833712
 20
18.63479784293339
 30
0.0
 40
1.4
100
AcDbArc
 50
180.0000000000016
 51
224.9999999999988
  0
LINE
  5
3F08
330
1A
100
AcDbEntity
  8
ZUWAKU
100
AcDbLine
 10
23.54221216833719
 20
19.04999986828869
 30
0.0
 11
23.54221216833719
 21
11.34999986828869
 31
0.0
  0
LINE
  5
3F09
330
1A
100
AcDbEntity
  8
ZUWAKU
100
AcDbLine
 10
20.74221216833712
 20
11.34999986828869
 30
0.0
 11
20.74221216833712
 21
19.04999986828864
 31
0.0
  0
ARC
  5
3F0A
330
1A
100
AcDbEntity
  8
ZUWAKU
100
AcDbCircle
 10
15.49221216833712
 20
18.63479784293339
 30
0.0
 40
4.199999999999999
100
AcDbArc
 50
180.0
 51
225.0
  0
ARC
  5
3F0B
330
1A
100
AcDbEntity
  8
ZUWAKU
100
AcDbCircle
 10
15.84221216833714
 20
9.949999868288685
 30
0.0
 40
2.8
100
AcDbArc
 50
270.0
 51
0.0
  0
ARC
  5
3F0C
330
1A
100
AcDbEntity
  8
ZUWAKU
100
AcDbCircle
 10
24.94221216833716
 20
11.34999986828869
 30
0.0
 40
4.199999999999999
100
AcDbArc
 50
180.0
 51
270.0
  0
ARC
  5
3F0D
330
1A
100
AcDbEntity
  8
ZUWAKU
100
AcDbCircle
 10
14.44221216833716
 20
11.76520189364399
 30
0.0
 40
4.199999999999999
100
AcDbArc
 50
0.0
 51
45.0
  0
LINE
  5
3F0E
330
1A
100
AcDbEntity
  8
ZUWAKU
100
AcDbLine
 10
17.41206064932067
 20
14.73505037462751
 30
0.0
 11
14.50226267467599
 21
17.64484834927219
 31
0.0
  0
LINE
  5
3F0F
330
1A
100
AcDbEntity
  8
ZUWAKU
100
AcDbLine
 10
15.84221216833714
 20
10.47499986828869
 30
0.0
 11
15.84221216833714
 21
11.76520189364403
 31
0.0
  0
ARC
  5
3F10
330
1A
100
AcDbEntity
  8
ZUWAKU
100
AcDbCircle
 10
15.31721216833716
 20
10.47499986828869
 30
0.0
 40
0.5249999999999999
100
AcDbArc
 50
270.0
 51
0.0
  0
ARC
  5
3F11
330
1A
100
AcDbEntity
  8
ZUWAKU
100
AcDbCircle
 10
14.44221216833716
 20
11.76520189364403
 30
0.0
 40
1.4
100
AcDbArc
 50
0.0
 51
45.0
  0
LINE
  5
3F12
330
1A
100
AcDbEntity
  8
ZUWAKU
100
AcDbLine
 10
11.81721216833716
 20
7.674999868288687
 30
0.0
 11
11.81721216833716
 21
9.424999868288687
 31
0.0
  0
ARC
  5
3F13
330
1A
100
AcDbEntity
  8
ZUWAKU
100
AcDbCircle
 10
12.34221216833714
 20
7.674999868288687
 30
0.0
 40
0.5249999999999999
100
AcDbArc
 50
180.0
 51
270.0
  0
ARC
  5
3F14
330
1A
100
AcDbEntity
  8
ZUWAKU
100
AcDbCircle
 10
12.34221216833714
 20
9.424999868288687
 30
0.0
 40
0.5249999999999999
100
AcDbArc
 50
90.0
 51
180.0
  0
LINE
  5
3F15
330
1A
100
AcDbEntity
  8
ZUWAKU
100
AcDbLine
 10
12.34221216833714
 20
7.149999868288688
 30
0.0
 11
15.84221216833714
 21
7.149999868288688
 31
0.0
  0
LINE
  5
3F16
330
1A
100
AcDbEntity
  8
ZUWAKU
100
AcDbLine
 10
12.34221216833714
 20
9.949999868288685
 30
0.0
 11
15.31721216833716
 21
9.949999868288685
 31
0.0
  0
LINE
  5
3F17
330
1A
100
AcDbEntity
  8
ZUWAKU
100
AcDbLine
 10
12.52236368735362
 20
15.66494936194987
 30
0.0
 11
15.43216166199829
 21
12.7551513873052
 31
0.0
  0
LINE
  5
3F18
330
1A
100
AcDbEntity
  8
ZUWAKU
100
AcDbLine
 10
18.64221216833721
 20
9.949999868288685
 30
0.0
 11
18.64221216833721
 21
11.76520189364403
 31
0.0
  0
ARC
  5
3F19
330
1A
100
AcDbEntity
  8
ZUWAKU
100
AcDbCircle
 10
24.94221216833716
 20
11.34999986828869
 30
0.0
 40
1.4
100
AcDbArc
 50
180.0
 51
270.0
  0
ARC
  5
3F1A
330
1A
100
AcDbEntity
  8
ZUWAKU
100
AcDbCircle
 10
17.59221216833714
 20
22.72499986828868
 30
0.0
 40
0.5249999999999999
100
AcDbArc
 50
0.0
 51
90.0
  0
ARC
  5
3F1B
330
1A
100
AcDbEntity
  8
ZUWAKU
100
AcDbCircle
 10
17.59221216833714
 20
20.97499986828868
 30
0.0
 40
0.5249999999999999
100
AcDbArc
 50
270.0
 51
0.0
  0
LINE
  5
3F1C
330
1A
100
AcDbEntity
  8
ZUWAKU
100
AcDbLine
 10
14.09221216833714
 20
23.24999986828869
 30
0.0
 11
17.59221216833714
 21
23.24999986828869
 31
0.0
  0
ARC
  5
3F1D
330
1A
100
AcDbEntity
  8
ZUWAKU
100
AcDbCircle
 10
14.61721216833712
 20
19.92499986828869
 30
0.0
 40
0.5249999999999999
100
AcDbArc
 50
90.0
 51
180.0
  0
LINE
  5
3F1E
330
1A
100
AcDbEntity
  8
ZUWAKU
100
AcDbLine
 10
14.09221216833714
 20
19.92499986828869
 30
0.0
 11
14.09221216833714
 21
18.63479784293335
 31
0.0
  0
LINE
  5
3F1F
330
1A
100
AcDbEntity
  8
ZUWAKU
100
AcDbLine
 10
17.59221216833714
 20
20.44999986828869
 30
0.0
 11
14.61721216833712
 21
20.44999986828869
 31
0.0
  0
LINE
  5
3F20
330
1A
100
AcDbEntity
  8
ZUWAKU
100
AcDbLine
 10
11.29221216833719
 20
20.44999986828869
 30
0.0
 11
11.29221216833719
 21
18.63479784293335
 31
0.0
  0
ARC
  5
3F21
330
1A
100
AcDbEntity
  8
ZUWAKU
100
AcDbCircle
 10
14.09221216833714
 20
20.44999986828869
 30
0.0
 40
2.8
100
AcDbArc
 50
90.0
 51
180.0
  0
LINE
  5
3F22
330
1A
100
AcDbEntity
  8
ZUWAKU
100
AcDbLine
 10
18.11721216833712
 20
22.72499986828868
 30
0.0
 11
18.11721216833712
 21
20.97499986828868
 31
0.0
  0
ARC
  5
3F23
330
1A
100
AcDbEntity
  8
ZUWAKU
100
AcDbCircle
 10
24.94221216833716
 20
19.04999986828869
 30
0.0
 40
1.4
100
AcDbArc
 50
90.0
 51
180.0
  0
ARC
  5
3F24
330
1A
100
AcDbEntity
  8
ZUWAKU
100
AcDbCircle
 10
24.94221216833716
 20
19.04999986828864
 30
0.0
 40
4.199999999999999
100
AcDbArc
 50
90.0
 51
180.0
  0
LINE
  5
3F25
330
1A
100
AcDbEntity
  8
ZUWAKU
100
AcDbLine
 10
79.32662956154422
 20
29.99999986828868
 30
0.0
 11
79.32662956154445
 21
0.7999998682887508
 31
0.0
  0
LINE
  5
3F26
330
1A
100
AcDbEntity
  8
ZUWAKU
100
AcDbLine
 10
79.52662956154427
 20
29.99999986828868
 30
0.0
 11
79.5266295615445
 21
0.7999998682887508
 31
0.0
  0
LINE
  5
3F27
330
1A
100
AcDbEntity
  8
ZUWAKU
100
AcDbLine
 10
79.12662956154441
 20
29.99999986828868
 30
0.0
 11
79.12662956154441
 21
0.7999998682887508
 31
0.0
  0
LINE
  5
3F28
330
1A
100
AcDbEntity
  8
ZUWAKU
100
AcDbLine
 10
64.14221216833721
 20
9.949999868288685
 30
0.0
 11
64.14221216833721
 21
22.72499986828868
 31
0.0
  0
LINE
  5
3F29
330
1A
100
AcDbEntity
  8
ZUWAKU
100
AcDbLine
 10
61.34221216833714
 20
22.72499986828868
 30
0.0
 11
61.34221216833714
 21
10.99999986828868
 31
0.0
  0
LINE
  5
3F2A
330
1A
100
AcDbEntity
  8
ZUWAKU
100
AcDbLine
 10
69.04221216833719
 20
7.674999868288687
 30
0.0
 11
69.04221216833719
 21
22.72499986828868
 31
0.0
  0
LINE
  5
3F2B
330
1A
100
AcDbEntity
  8
ZUWAKU
100
AcDbLine
 10
66.24221216833712
 20
22.72499986828868
 30
0.0
 11
66.24221216833712
 21
7.674999868288687
 31
0.0
  0
ARC
  5
3F2C
330
1A
100
AcDbEntity
  8
ZUWAKU
100
AcDbCircle
 10
49.79221216833719
 20
18.63479784293339
 30
0.0
 40
1.4
100
AcDbArc
 50
180.0000000000016
 51
224.9999999999988
  0
ARC
  5
3F2D
330
1A
100
AcDbEntity
  8
ZUWAKU
100
AcDbCircle
 10
49.79221216833719
 20
18.63479784293339
 30
0.0
 40
4.199999999999999
100
AcDbArc
 50
180.0
 51
225.0
  0
LINE
  5
3F2E
330
1A
100
AcDbEntity
  8
ZUWAKU
100
AcDbLine
 10
37.31485865051513
 20
19.20504706185211
 30
0.0
 11
36.05010690517929
 21
15.19999986828871
 31
0.0
  0
LINE
  5
3F2F
330
1A
100
AcDbEntity
  8
ZUWAKU
100
AcDbLine
 10
40.69221216833716
 20
22.72499986828868
 30
0.0
 11
40.69221216833716
 21
7.674999868288687
 31
0.0
  0
LINE
  5
3F30
330
1A
100
AcDbEntity
  8
ZUWAKU
100
AcDbLine
 10
43.49221216833712
 20
7.674999868288687
 30
0.0
 11
43.49221216833712
 21
22.72499986828868
 31
0.0
  0
LINE
  5
3F31
330
1A
100
AcDbEntity
  8
ZUWAKU
100
AcDbLine
 10
55.04221216833719
 20
22.72499986828868
 30
0.0
 11
55.04221216833719
 21
9.949999868288685
 31
0.0
  0
LINE
  5
3F32
330
1A
100
AcDbEntity
  8
ZUWAKU
100
AcDbLine
 10
57.84221216833714
 20
10.99999986828868
 30
0.0
 11
57.84221216833714
 21
22.72499986828868
 31
0.0
  0
LINE
  5
3F33
330
1A
100
AcDbEntity
  8
ZUWAKU
100
AcDbLine
 10
32.64221216833721
 20
17.12499986828869
 30
0.0
 11
32.64221216833721
 21
22.72499986828868
 31
0.0
  0
LINE
  5
3F34
330
1A
100
AcDbEntity
  8
ZUWAKU
100
AcDbLine
 10
29.84221216833714
 20
22.72499986828868
 30
0.0
 11
29.84221216833714
 21
7.674999868288687
 31
0.0
  0
LINE
  5
3F35
330
1A
100
AcDbEntity
  8
ZUWAKU
100
AcDbLine
 10
35.67634710565301
 20
22.88309383645566
 30
0.0
 11
33.80807723102123
 21
16.96690590012172
 31
0.0
  0
LINE
  5
3F36
330
1A
100
AcDbEntity
  8
ZUWAKU
100
AcDbLine
 10
60.29221216833719
 20
9.949999868288685
 30
0.0
 11
58.89221216833721
 21
9.949999868288685
 31
0.0
  0
LINE
  5
3F37
330
1A
100
AcDbEntity
  8
ZUWAKU
100
AcDbLine
 10
57.84221216833714
 20
7.149999868288688
 30
0.0
 11
61.34221216833714
 21
7.149999868288688
 31
0.0
  0
LINE
  5
3F38
330
1A
100
AcDbEntity
  8
ZUWAKU
100
AcDbLine
 10
41.21721216833714
 20
7.149999868288688
 30
0.0
 11
42.96721216833714
 21
7.149999868288688
 31
0.0
  0
LINE
  5
3F39
330
1A
100
AcDbEntity
  8
ZUWAKU
100
AcDbLine
 10
35.67634710565301
 20
7.516905900121714
 30
0.0
 11
33.80807723102123
 21
13.43309383645565
 31
0.0
  0
ARC
  5
3F3A
330
1A
100
AcDbEntity
  8
ZUWAKU
100
AcDbCircle
 10
33.30744633182587
 20
17.12499986828869
 30
0.0
 40
0.5249999999999999
100
AcDbArc
 50
270.0
 51
342.474431626277
  0
LINE
  5
3F3B
330
1A
100
AcDbEntity
  8
ZUWAKU
100
AcDbLine
 10
33.30744633182587
 20
16.59999986828868
 30
0.0
 11
33.16721216833719
 21
16.59999986828868
 31
0.0
  0
LINE
  5
3F3C
330
1A
100
AcDbEntity
  8
ZUWAKU
100
AcDbLine
 10
33.16721216833719
 20
13.79999986828869
 30
0.0
 11
33.30744633182587
 21
13.79999986828869
 31
0.0
  0
ARC
  5
3F3D
330
1A
100
AcDbEntity
  8
ZUWAKU
100
AcDbCircle
 10
33.16721216833719
 20
17.12499986828869
 30
0.0
 40
0.5249999999999999
100
AcDbArc
 50
180.0
 51
270.0
  0
LINE
  5
3F3E
330
1A
100
AcDbEntity
  8
ZUWAKU
100
AcDbLine
 10
30.36721216833712
 20
7.149999868288688
 30
0.0
 11
32.11721216833712
 21
7.149999868288688
 31
0.0
  0
ARC
  5
3F3F
330
1A
100
AcDbEntity
  8
ZUWAKU
100
AcDbCircle
 10
32.11721216833712
 20
7.674999868288687
 30
0.0
 40
0.5249999999999999
100
AcDbArc
 50
270.0
 51
0.0
  0
LINE
  5
3F40
330
1A
100
AcDbEntity
  8
ZUWAKU
100
AcDbLine
 10
32.64221216833721
 20
7.674999868288687
 30
0.0
 11
32.64221216833721
 21
13.27499986828869
 31
0.0
  0
LINE
  5
3F41
330
1A
100
AcDbEntity
  8
ZUWAKU
100
AcDbLine
 10
27.39221216833721
 20
9.424999868288687
 30
0.0
 11
27.39221216833721
 21
7.674999868288687
 31
0.0
  0
ARC
  5
3F42
330
1A
100
AcDbEntity
  8
ZUWAKU
100
AcDbCircle
 10
26.86721216833712
 20
7.674999868288687
 30
0.0
 40
0.5249999999999999
100
AcDbArc
 50
270.0
 51
0.0
  0
ARC
  5
3F43
330
1A
100
AcDbEntity
  8
ZUWAKU
100
AcDbCircle
 10
26.86721216833712
 20
9.424999868288687
 30
0.0
 40
0.5249999999999999
100
AcDbArc
 50
0.0
 51
90.0
  0
ARC
  5
3F44
330
1A
100
AcDbEntity
  8
ZUWAKU
100
AcDbCircle
 10
30.36721216833712
 20
7.674999868288687
 30
0.0
 40
0.5249999999999999
100
AcDbArc
 50
180.0
 51
270.0
  0
ARC
  5
3F45
330
1A
100
AcDbEntity
  8
ZUWAKU
100
AcDbCircle
 10
33.30744633182587
 20
13.27499986828869
 30
0.0
 40
0.5249999999999999
100
AcDbArc
 50
17.52556837372303
 51
90.0
  0
ARC
  5
3F46
330
1A
100
AcDbEntity
  8
ZUWAKU
100
AcDbCircle
 10
33.16721216833719
 20
13.27499986828869
 30
0.0
 40
0.5249999999999999
100
AcDbArc
 50
90.0
 51
180.0
  0
ARC
  5
3F47
330
1A
100
AcDbEntity
  8
ZUWAKU
100
AcDbCircle
 10
41.21721216833714
 20
7.674999868288687
 30
0.0
 40
0.5249999999999999
100
AcDbArc
 50
180.0
 51
270.0
  0
LINE
  5
3F48
330
1A
100
AcDbEntity
  8
ZUWAKU
100
AcDbLine
 10
36.17697800484848
 20
7.149999868288688
 30
0.0
 11
37.87586738445748
 21
7.149999868288688
 31
0.0
  0
ARC
  5
3F49
330
1A
100
AcDbEntity
  8
ZUWAKU
100
AcDbCircle
 10
37.87586738445748
 20
7.674999868288687
 30
0.0
 40
0.5249999999999999
100
AcDbArc
 50
270.0
 51
17.52556837372303
  0
LINE
  5
3F4A
330
1A
100
AcDbEntity
  8
ZUWAKU
100
AcDbLine
 10
38.37649828365295
 20
7.83309383645566
 30
0.0
 11
36.05010690517929
 21
15.19999986828871
 31
0.0
  0
ARC
  5
3F4B
330
1A
100
AcDbEntity
  8
ZUWAKU
100
AcDbCircle
 10
36.17697800484848
 20
7.674999868288687
 30
0.0
 40
0.5249999999999999
100
AcDbArc
 50
197.525568373723
 51
270.0
  0
ARC
  5
3F4C
330
1A
100
AcDbEntity
  8
ZUWAKU
100
AcDbCircle
 10
57.84221216833714
 20
9.949999868288685
 30
0.0
 40
2.8
100
AcDbArc
 50
180.0
 51
270.0
  0
ARC
  5
3F4D
330
1A
100
AcDbEntity
  8
ZUWAKU
100
AcDbCircle
 10
50.14221216833721
 20
9.949999868288685
 30
0.0
 40
2.8
100
AcDbArc
 50
270.0
 51
0.0
  0
LINE
  5
3F4E
330
1A
100
AcDbEntity
  8
ZUWAKU
100
AcDbLine
 10
51.71206064932073
 20
14.73505037462751
 30
0.0
 11
48.80226267467594
 21
17.64484834927219
 31
0.0
  0
LINE
  5
3F4F
330
1A
100
AcDbEntity
  8
ZUWAKU
100
AcDbLine
 10
50.14221216833721
 20
10.47499986828869
 30
0.0
 11
50.14221216833721
 21
11.76520189364403
 31
0.0
  0
ARC
  5
3F50
330
1A
100
AcDbEntity
  8
ZUWAKU
100
AcDbCircle
 10
48.74221216833712
 20
11.76520189364403
 30
0.0
 40
1.4
100
AcDbArc
 50
0.0
 51
45.0
  0
ARC
  5
3F51
330
1A
100
AcDbEntity
  8
ZUWAKU
100
AcDbCircle
 10
49.61721216833712
 20
10.47499986828869
 30
0.0
 40
0.5249999999999999
100
AcDbArc
 50
270.0
 51
0.0
  0
LINE
  5
3F52
330
1A
100
AcDbEntity
  8
ZUWAKU
100
AcDbLine
 10
46.11721216833712
 20
7.674999868288687
 30
0.0
 11
46.11721216833712
 21
9.424999868288687
 31
0.0
  0
ARC
  5
3F53
330
1A
100
AcDbEntity
  8
ZUWAKU
100
AcDbCircle
 10
46.64221216833721
 20
7.674999868288687
 30
0.0
 40
0.5249999999999999
100
AcDbArc
 50
180.0
 51
270.0
  0
ARC
  5
3F54
330
1A
100
AcDbEntity
  8
ZUWAKU
100
AcDbCircle
 10
42.96721216833714
 20
7.674999868288687
 30
0.0
 40
0.5249999999999999
100
AcDbArc
 50
270.0
 51
0.0
  0
ARC
  5
3F55
330
1A
100
AcDbEntity
  8
ZUWAKU
100
AcDbCircle
 10
46.64221216833721
 20
9.424999868288687
 30
0.0
 40
0.5249999999999999
100
AcDbArc
 50
90.0
 51
180.0
  0
LINE
  5
3F56
330
1A
100
AcDbEntity
  8
ZUWAKU
100
AcDbLine
 10
46.64221216833721
 20
9.949999868288685
 30
0.0
 11
49.61721216833712
 21
9.949999868288685
 31
0.0
  0
LINE
  5
3F57
330
1A
100
AcDbEntity
  8
ZUWAKU
100
AcDbLine
 10
46.64221216833721
 20
7.149999868288688
 30
0.0
 11
50.14221216833721
 21
7.149999868288688
 31
0.0
  0
LINE
  5
3F58
330
1A
100
AcDbEntity
  8
ZUWAKU
100
AcDbLine
 10
46.82236368735369
 20
15.66494936194987
 30
0.0
 11
49.73216166199836
 21
12.7551513873052
 31
0.0
  0
LINE
  5
3F59
330
1A
100
AcDbEntity
  8
ZUWAKU
100
AcDbLine
 10
52.94221216833716
 20
9.949999868288685
 30
0.0
 11
52.94221216833716
 21
11.76520189364403
 31
0.0
  0
ARC
  5
3F5A
330
1A
100
AcDbEntity
  8
ZUWAKU
100
AcDbCircle
 10
48.74221216833712
 20
11.76520189364399
 30
0.0
 40
4.199999999999999
100
AcDbArc
 50
0.0
 51
45.0
  0
ARC
  5
3F5B
330
1A
100
AcDbEntity
  8
ZUWAKU
100
AcDbCircle
 10
58.89221216833721
 20
10.99999986828868
 30
0.0
 40
1.05
100
AcDbArc
 50
180.0
 51
270.0
  0
ARC
  5
3F5C
330
1A
100
AcDbEntity
  8
ZUWAKU
100
AcDbCircle
 10
61.34221216833714
 20
9.949999868288685
 30
0.0
 40
2.8
100
AcDbArc
 50
270.0
 51
0.0
  0
LINE
  5
3F5D
330
1A
100
AcDbEntity
  8
ZUWAKU
100
AcDbLine
 10
66.76721216833721
 20
7.149999868288688
 30
0.0
 11
68.51721216833721
 21
7.149999868288688
 31
0.0
  0
ARC
  5
3F5E
330
1A
100
AcDbEntity
  8
ZUWAKU
100
AcDbCircle
 10
66.76721216833721
 20
7.674999868288687
 30
0.0
 40
0.5249999999999999
100
AcDbArc
 50
180.0
 51
270.0
  0
ARC
  5
3F5F
330
1A
100
AcDbEntity
  8
ZUWAKU
100
AcDbCircle
 10
60.29221216833719
 20
10.99999986828868
 30
0.0
 40
1.05
100
AcDbArc
 50
270.0
 51
0.0
  0
ARC
  5
3F60
330
1A
100
AcDbEntity
  8
ZUWAKU
100
AcDbCircle
 10
68.51721216833721
 20
7.674999868288687
 30
0.0
 40
0.5249999999999999
100
AcDbArc
 50
270.0
 51
0.0
  0
LINE
  5
3F61
330
1A
100
AcDbEntity
  8
ZUWAKU
100
AcDbLine
 10
42.96721216833714
 20
23.24999986828869
 30
0.0
 11
41.21721216833714
 21
23.24999986828869
 31
0.0
  0
ARC
  5
3F62
330
1A
100
AcDbEntity
  8
ZUWAKU
100
AcDbCircle
 10
32.11721216833712
 20
22.72499986828868
 30
0.0
 40
0.5249999999999999
100
AcDbArc
 50
0.0
 51
90.0
  0
LINE
  5
3F63
330
1A
100
AcDbEntity
  8
ZUWAKU
100
AcDbLine
 10
32.11721216833712
 20
23.24999986828869
 30
0.0
 11
30.36721216833712
 21
23.24999986828869
 31
0.0
  0
ARC
  5
3F64
330
1A
100
AcDbEntity
  8
ZUWAKU
100
AcDbCircle
 10
26.86721216833712
 20
22.72499986828868
 30
0.0
 40
0.5249999999999999
100
AcDbArc
 50
0.0
 51
90.0
  0
ARC
  5
3F65
330
1A
100
AcDbEntity
  8
ZUWAKU
100
AcDbCircle
 10
30.36721216833712
 20
22.72499986828868
 30
0.0
 40
0.5249999999999999
100
AcDbArc
 50
90.0
 51
180.0
  0
ARC
  5
3F66
330
1A
100
AcDbEntity
  8
ZUWAKU
100
AcDbCircle
 10
26.86721216833712
 20
20.97499986828868
 30
0.0
 40
0.5249999999999999
100
AcDbArc
 50
270.0
 51
0.0
  0
LINE
  5
3F67
330
1A
100
AcDbEntity
  8
ZUWAKU
100
AcDbLine
 10
27.39221216833721
 20
22.72499986828868
 30
0.0
 11
27.39221216833721
 21
20.97499986828868
 31
0.0
  0
ARC
  5
3F68
330
1A
100
AcDbEntity
  8
ZUWAKU
100
AcDbCircle
 10
41.21721216833714
 20
22.72499986828868
 30
0.0
 40
0.5249999999999999
100
AcDbArc
 50
90.0
 51
180.0
  0
LINE
  5
3F69
330
1A
100
AcDbEntity
  8
ZUWAKU
100
AcDbLine
 10
36.17697800484848
 20
23.24999986828869
 30
0.0
 11
37.87586738445748
 21
23.24999986828869
 31
0.0
  0
ARC
  5
3F6A
330
1A
100
AcDbEntity
  8
ZUWAKU
100
AcDbCircle
 10
37.87586738445748
 20
22.72499986828868
 30
0.0
 40
0.5249999999999999
100
AcDbArc
 50
342.474431626277
 51
90.0
  0
LINE
  5
3F6B
330
1A
100
AcDbEntity
  8
ZUWAKU
100
AcDbLine
 10
38.37649828365295
 20
22.56690590012172
 30
0.0
 11
37.31485865051513
 21
19.20504706185211
 31
0.0
  0
ARC
  5
3F6C
330
1A
100
AcDbEntity
  8
ZUWAKU
100
AcDbCircle
 10
36.17697800484848
 20
22.72499986828868
 30
0.0
 40
0.5249999999999999
100
AcDbArc
 50
90.0
 51
162.474431626277
  0
LINE
  5
3F6D
330
1A
100
AcDbEntity
  8
ZUWAKU
100
AcDbLine
 10
48.39221216833721
 20
23.24999986828869
 30
0.0
 11
51.89221216833721
 21
23.24999986828869
 31
0.0
  0
LINE
  5
3F6E
330
1A
100
AcDbEntity
  8
ZUWAKU
100
AcDbLine
 10
51.89221216833721
 20
20.44999986828869
 30
0.0
 11
48.91721216833719
 21
20.44999986828869
 31
0.0
  0
ARC
  5
3F6F
330
1A
100
AcDbEntity
  8
ZUWAKU
100
AcDbCircle
 10
48.91721216833719
 20
19.92499986828869
 30
0.0
 40
0.5249999999999999
100
AcDbArc
 50
90.0
 51
180.0
  0
LINE
  5
3F70
330
1A
100
AcDbEntity
  8
ZUWAKU
100
AcDbLine
 10
48.39221216833721
 20
19.92499986828869
 30
0.0
 11
48.39221216833721
 21
18.63479784293335
 31
0.0
  0
ARC
  5
3F71
330
1A
100
AcDbEntity
  8
ZUWAKU
100
AcDbCircle
 10
42.96721216833714
 20
22.72499986828868
 30
0.0
 40
0.5249999999999999
100
AcDbArc
 50
0.0
 51
90.0
  0
LINE
  5
3F72
330
1A
100
AcDbEntity
  8
ZUWAKU
100
AcDbLine
 10
45.59221216833714
 20
20.44999986828869
 30
0.0
 11
45.59221216833714
 21
18.63479784293335
 31
0.0
  0
ARC
  5
3F73
330
1A
100
AcDbEntity
  8
ZUWAKU
100
AcDbCircle
 10
48.39221216833721
 20
20.44999986828869
 30
0.0
 40
2.8
100
AcDbArc
 50
90.0
 51
180.0
  0
ARC
  5
3F74
330
1A
100
AcDbEntity
  8
ZUWAKU
100
AcDbCircle
 10
57.31721216833716
 20
22.72499986828868
 30
0.0
 40
0.5249999999999999
100
AcDbArc
 50
0.0
 51
90.0
  0
ARC
  5
3F75
330
1A
100
AcDbEntity
  8
ZUWAKU
100
AcDbCircle
 10
55.56721216833716
 20
22.72499986828868
 30
0.0
 40
0.5249999999999999
100
AcDbArc
 50
90.0
 51
180.0
  0
LINE
  5
3F76
330
1A
100
AcDbEntity
  8
ZUWAKU
100
AcDbLine
 10
57.31721216833716
 20
23.24999986828869
 30
0.0
 11
55.56721216833716
 21
23.24999986828869
 31
0.0
  0
ARC
  5
3F77
330
1A
100
AcDbEntity
  8
ZUWAKU
100
AcDbCircle
 10
51.89221216833721
 20
22.72499986828868
 30
0.0
 40
0.5249999999999999
100
AcDbArc
 50
0.0
 51
90.0
  0
ARC
  5
3F78
330
1A
100
AcDbEntity
  8
ZUWAKU
100
AcDbCircle
 10
51.89221216833721
 20
20.97499986828868
 30
0.0
 40
0.5249999999999999
100
AcDbArc
 50
270.0
 51
0.0
  0
LINE
  5
3F79
330
1A
100
AcDbEntity
  8
ZUWAKU
100
AcDbLine
 10
52.41721216833719
 20
22.72499986828868
 30
0.0
 11
52.41721216833719
 21
20.97499986828868
 31
0.0
  0
LINE
  5
3F7A
330
1A
100
AcDbEntity
  8
ZUWAKU
100
AcDbLine
 10
68.51721216833721
 20
23.24999986828869
 30
0.0
 11
66.76721216833721
 21
23.24999986828869
 31
0.0
  0
ARC
  5
3F7B
330
1A
100
AcDbEntity
  8
ZUWAKU
100
AcDbCircle
 10
66.76721216833721
 20
22.72499986828868
 30
0.0
 40
0.5249999999999999
100
AcDbArc
 50
90.0
 51
180.0
  0
ARC
  5
3F7C
330
1A
100
AcDbEntity
  8
ZUWAKU
100
AcDbCircle
 10
63.61721216833712
 20
22.72499986828868
 30
0.0
 40
0.5249999999999999
100
AcDbArc
 50
0.0
 51
90.0
  0
LINE
  5
3F7D
330
1A
100
AcDbEntity
  8
ZUWAKU
100
AcDbLine
 10
63.61721216833712
 20
23.24999986828869
 30
0.0
 11
61.86721216833712
 21
23.24999986828869
 31
0.0
  0
ARC
  5
3F7E
330
1A
100
AcDbEntity
  8
ZUWAKU
100
AcDbCircle
 10
61.86721216833712
 20
22.72499986828868
 30
0.0
 40
0.5249999999999999
100
AcDbArc
 50
90.0
 51
180.0
  0
ARC
  5
3F7F
330
1A
100
AcDbEntity
  8
ZUWAKU
100
AcDbCircle
 10
68.51721216833721
 20
22.72499986828868
 30
0.0
 40
0.5249999999999999
100
AcDbArc
 50
0.0
 51
90.0
  0
TEXT
  5
3F80
330
1A
100
AcDbEntity
  8
moji
100
AcDbText
 10
239.8272026944071
 20
18.00492092569607
 30
0.0
 40
5.6
  1
ブラケット正面打（吊）自在式
 41
0.9
  7
ｽﾀｲﾙ1
100
AcDbText
  0
TEXT
  5
3F81
330
1A
100
AcDbEntity
  8
moji
100
AcDbText
 10
239.8272026944071
 20
3.204920925696104
 30
0.0
 40
5.6
  1
Σ９０－４－１０～４５
 41
0.9
  7
ｽﾀｲﾙ1
100
AcDbText
  0
LINE
  5
3F82
330
1A
100
AcDbEntity
  8
ZUWAKU
100
AcDbLine
 10
208.246601303624
 20
29.99999986828868
 30
0.0
 11
208.246601303624
 21
0.7999998682887508
 31
0.0
  0
LINE
  5
3F83
330
1A
100
AcDbEntity
  8
ZUWAKU
100
AcDbLine
 10
208.6466013036238
 20
29.99999986828868
 30
0.0
 11
208.646601303624
 21
0.7999998682887508
 31
0.0
  0
LINE
  5
3F84
330
1A
100
AcDbEntity
  8
ZUWAKU
100
AcDbLine
 10
208.4466013036238
 20
29.99999986828868
 30
0.0
 11
208.446601303624
 21
0.7999998682887508
 31
0.0
  0
TEXT
  5
3F85
330
1A
100
AcDbEntity
  8
ZUWAKU
100
AcDbText
 10
209.7240463258336
 20
9.655356406674301
 30
0.0
 40
4.0
  1
サイズ
 41
0.9
  7
ｽﾀｲﾙ1
100
AcDbText
  0
TEXT
  5
3F86
330
1A
100
AcDbEntity
  8
ZUWAKU
100
AcDbText
 10
209.7240463258333
 20
24.05535640667426
 30
0.0
 40
4.0
  1
品名
 41
0.9
  7
ｽﾀｲﾙ1
100
AcDbText
  0
LINE
  5
3F87
330
1A
100
AcDbEntity
  8
ZUWAKU
100
AcDbLine
 10
648.8172025237602
 20
15.19999986828871
 30
0.0
 11
697.2490105620973
 21
15.19999986828872
 31
0.0
  0
LINE
  5
3F88
330
1A
100
AcDbEntity
  8
ZUWAKU
100
AcDbLine
 10
648.8172025237604
 20
15.39999986828872
 30
0.0
 11
697.2490105620973
 21
15.39999986828872
 31
0.0
  0
LINE
  5
3F89
330
1A
100
AcDbEntity
  8
ZUWAKU
100
AcDbLine
 10
648.8172025237602
 20
15.59999986828872
 30
0.0
 11
697.2490105620973
 21
15.59999986828872
 31
0.0
  0
TEXT
  5
3F8A
330
1A
100
AcDbEntity
  8
ZUWAKU
100
AcDbText
 10
658.2039377008584
 20
18.00492092569607
 30
0.0
 40
5.6
  1
　　．　　．　　
 41
0.9
  7
ｽﾀｲﾙ1
100
AcDbText
  0
LINE
  5
3F8B
330
1A
100
AcDbEntity
  8
ZUWAKU
100
AcDbLine
 10
505.1991795116969
 20
15.19999986828872
 30
0.0
 11
552.5269557796685
 21
15.19999986828872
 31
0.0
  0
LINE
  5
3F8C
330
1A
100
AcDbEntity
  8
ZUWAKU
100
AcDbLine
 10
505.1991795116969
 20
15.39999986828872
 30
0.0
 11
552.5269557796685
 21
15.39999986828872
 31
0.0
  0
LINE
  5
3F8D
330
1A
100
AcDbEntity
  8
ZUWAKU
100
AcDbLine
 10
505.1991795116969
 20
15.59999986828872
 30
0.0
 11
552.5269557796685
 21
15.59999986828872
 31
0.0
  0
TEXT
  5
3F8E
330
1A
100
AcDbEntity
  8
moji
100
AcDbText
 10
463.2464320045581
 20
11.94261758994867
 30
0.0
 40
5.6
  1
ＬＦ４５Ｔ
 41
0.9
  7
ｽﾀｲﾙ1
100
AcDbText
  0
LINE
  5
3F8F
330
1A
100
AcDbEntity
  8
ZUWAKU
100
AcDbLine
 10
447.6243639845472
 20
29.99999986828868
 30
0.0
 11
447.6243639845475
 21
0.7999998682887508
 31
0.0
  0
LINE
  5
3F90
330
1A
100
AcDbEntity
  8
ZUWAKU
100
AcDbLine
 10
447.8243639845473
 20
29.99999986828868
 30
0.0
 11
447.8243639845475
 21
0.7999998682887508
 31
0.0
  0
LINE
  5
3F91
330
1A
100
AcDbEntity
  8
ZUWAKU
100
AcDbLine
 10
447.4243639845474
 20
29.99999986828868
 30
0.0
 11
447.4243639845474
 21
0.7999998682887508
 31
0.0
  0
TEXT
  5
3F92
330
1A
100
AcDbEntity
  8
moji
100
AcDbText
 10
528.0409079858689
 20
18.00492092569607
 30
0.0
 40
5.6
  1
Ａ３
 41
0.9
  7
ｽﾀｲﾙ1
100
AcDbText
  0
LINE
  5
3F93
330
1A
100
AcDbEntity
  8
ZUWAKU
100
AcDbLine
 10
504.9991795116969
 20
29.99999986828868
 30
0.0
 11
504.9991795116971
 21
0.7999998682887508
 31
0.0
  0
LINE
  5
3F94
330
1A
100
AcDbEntity
  8
ZUWAKU
100
AcDbLine
 10
505.1991795116969
 20
29.99999986828868
 30
0.0
 11
505.1991795116971
 21
0.7999998682887508
 31
0.0
  0
LINE
  5
3F95
330
1A
100
AcDbEntity
  8
ZUWAKU
100
AcDbLine
 10
504.7991795116971
 20
29.99999986828868
 30
0.0
 11
504.7991795116971
 21
0.7999998682887508
 31
0.0
  0
TEXT
  5
3F97
330
1A
100
AcDbEntity
  8
ZUWAKU
100
AcDbText
 10
506.6766245339068
 20
9.655356406674301
 30
0.0
 40
4.0
  1
縮尺
 41
0.9
  7
ｽﾀｲﾙ1
100
AcDbText
  0
TEXT
  5
3F98
330
1A
100
AcDbEntity
  8
moji
100
AcDbText
 10
528.0409079858689
 20
3.204920925696104
 30
0.0
 40
5.6
  1
１/２
 41
0.9
  7
ｽﾀｲﾙ1
100
AcDbText
  0
TEXT
  5
3F99
330
1A
100
AcDbEntity
  8
ZUWAKU
100
AcDbText
 10
449.3018090067569
 20
24.05535640667426
 30
0.0
 40
4.0
  1
品番
 41
0.9
  7
ｽﾀｲﾙ1
100
AcDbText
  0
TEXT
  5
3F9A
330
1A
100
AcDbEntity
  8
ZUWAKU
100
AcDbText
 10
506.6766245339065
 20
24.05535640667426
 30
0.0
 40
4.0
  1
用紙
 41
0.9
  7
ｽﾀｲﾙ1
100
AcDbText
  0
LINE
  5
3F9B
330
1A
100
AcDbEntity
  8
ZUWAKU
100
AcDbLine
 10
648.6172025237604
 20
29.99999986828868
 30
0.0
 11
648.6172025237606
 21
0.7999998682887508
 31
0.0
  0
LINE
  5
3F9C
330
1A
100
AcDbEntity
  8
ZUWAKU
100
AcDbLine
 10
648.8172025237604
 20
29.99999986828868
 30
0.0
 11
648.8172025237607
 21
0.7999998682887508
 31
0.0
  0
LINE
  5
3F9D
330
1A
100
AcDbEntity
  8
ZUWAKU
100
AcDbLine
 10
648.4172025237606
 20
29.99999986828868
 30
0.0
 11
648.4172025237606
 21
0.7999998682887508
 31
0.0
  0
LINE
  5
3F9E
330
1A
100
AcDbEntity
  8
ZUWAKU
100
AcDbLine
 10
552.7269557796683
 20
29.99999986828868
 30
0.0
 11
552.7269557796685
 21
0.7999998682887508
 31
0.0
  0
LINE
  5
3F9F
330
1A
100
AcDbEntity
  8
ZUWAKU
100
AcDbLine
 10
552.9269557796683
 20
29.99999986828868
 30
0.0
 11
552.9269557796686
 21
0.7999998682887508
 31
0.0
  0
LINE
  5
3FA0
330
1A
100
AcDbEntity
  8
ZUWAKU
100
AcDbLine
 10
552.5269557796685
 20
29.99999986828868
 30
0.0
 11
552.5269557796685
 21
0.7999998682887508
 31
0.0
  0
TEXT
  5
3FA1
330
1A
100
AcDbEntity
  8
ZUWAKU
100
AcDbText
 10
650.2946475459701
 20
24.05535640667426
 30
0.0
 40
4.0
  1
DATE
 41
0.9
  7
ｽﾀｲﾙ1
100
AcDbText
  0
LINE
  5
3FA2
330
1A
100
AcDbEntity
  8
ZUWAKU
100
AcDbLine
 10
697.2490105620973
 20
29.99999986828868
 30
0.0
 11
697.2490105620973
 21
0.7999998682887508
 31
0.0
  0
LINE
  5
3FA3
330
1A
100
AcDbEntity
  8
ZUWAKU
100
AcDbLine
 10
697.4490105620973
 20
29.99999986828868
 30
0.0
 11
697.4490105620973
 21
0.7999998682887508
 31
0.0
  0
LINE
  5
3FA4
330
1A
100
AcDbEntity
  8
ZUWAKU
100
AcDbLine
 10
697.6490105620972
 20
29.99999986828868
 30
0.0
 11
697.6490105620974
 21
0.7999998682887508
 31
0.0
  0
LINE
  5
3FA5
330
1A
100
AcDbEntity
  8
ZUWAKU
100
AcDbLine
 10
697.8490105620972
 20
29.99999986828868
 30
0.0
 11
697.8490105620974
 21
0.7999998682887508
 31
0.0
  0
TEXT
  5
3FA6
330
1A
100
AcDbEntity
  8
ZUWAKU
100
AcDbText
 10
708.5280842057998
 20
17.55383920397549
 30
0.0
 40
6.0
  1
積水化学工業株式会社
 41
0.9
  7
ｽﾀｲﾙ1
100
AcDbText
  0
TEXT
  5
3FA7
330
1A
100
AcDbEntity
  8
ZUWAKU
100
AcDbText
 10
708.5280842057998
 20
6.648840182142749
 30
0.0
 40
6.0
  1
建材事業部
 41
0.9
  7
ｽﾀｲﾙ1
100
AcDbText
  0
DIMENSION
  5
4A17
330
1A
100
AcDbEntity
  8
SUNPOU
 48
5.0
100
AcDbDimension
  2
*D1
 10
428.85123062093
 20
200.3379189221536
 30
0.0
 11
416.2862143259389
 21
231.7504596596261
 31
0.0
 70
   161
 71
     5
 42
66.50999999992368
  3
STANDARD
100
AcDbAlignedDimension
 13
389.2826353147876
 23
256.1439430641166
 33
0.0
 14
413.9838291990743
 24
194.3909583534103
 34
0.0
1001
ACAD
1000
DSTYLE
1002
{
1070
   140
1040
6.0
1070
    74
1070
     0
1070
   172
1070
     1
1070
    73
1070
     0
1070
   272
1070
     2
1070
    77
1070
     3
1070
   173
1070
     1
1070
   280
1070
     2
1070
   147
1040
2.0
1070
    42
1040
6.0
1070
    44
1040
3.0
1070
    43
1040
14.0
1070
   271
1070
     0
1070
   178
1070
     4
1070
   177
1070
     4
1070
   176
1070
     4
1070
   141
1040
150.0
1070
     7
1000
_OPEN
1070
     6
1000
_OPEN
1070
    41
1040
7.0
1002
}
  0
DIMENSION
  5
4A18
330
1A
100
AcDbEntity
  8
SUNPOU
 48
5.0
100
AcDbDimension
  2
*D2
 10
425.1632066157984
 20
163.2109595159744
 30
0.0
 11
401.0228070185503
 21
158.9399985836801
 31
0.0
 70
    33
  1
t<>
 71
     5
 42
1.200025104684016
  3
STANDARD
100
AcDbAlignedDimension
 13
413.9800217747994
 23
194.4002057133146
 33
0.0
 14
412.8658258486898
 24
193.9545290478802
 34
0.0
1001
ACAD
1000
DSTYLE
1002
{
1070
   140
1040
6.0
1070
    74
1070
     0
1070
   172
1070
     1
1070
    73
1070
     0
1070
   272
1070
     2
1070
    77
1070
     3
1070
   173
1070
     1
1070
   147
1040
2.0
1070
    42
1040
6.0
1070
    44
1040
3.0
1070
    43
1040
14.0
1070
   271
1070
     1
1070
   178
1070
     4
1070
   177
1070
     4
1070
   176
1070
     4
1070
   141
1040
150.0
1070
     7
1000
_OPEN
1070
     6
1000
_OPEN
1070
    41
1040
7.0
1002
}
  0
TEXT
  5
4A19
330
1A
100
AcDbEntity
  8
SUNPOU
 48
5.0
100
AcDbText
 10
421.5818780656787
 20
134.145670917691
 30
0.0
 40
6.0
  1
10
100
AcDbText
  0
LINE
  5
4A1A
330
1A
100
AcDbEntity
  8
SUNPOU
  6
Continuous
 62
     4
 48
5.0
100
AcDbLine
 10
439.8016876431524
 20
129.8462430225617
 30
0.0
 11
421.4078496003585
 21
175.8306361492616
 31
0.0
  0
TEXT
  5
4A1B
330
1A
100
AcDbEntity
  8
SUNPOU
 48
5.0
100
AcDbText
 10
408.6236731753115
 20
330.4413681502824
 30
0.0
 40
6.0
  1
スライド巾
100
AcDbText
  0
DIMENSION
  5
4A1C
330
1A
100
AcDbEntity
  8
SUNPOU
 48
5.0
100
AcDbDimension
  2
*D3
 10
444.562878814731
 20
367.0201787198639
 30
0.0
 11
439.5628788147309
 21
394.5201787174326
 31
0.0
 70
    32
 71
     5
 42
54.99999999513722
  3
STANDARD
100
AcDbAlignedDimension
 13
401.3891360732758
 23
422.0201787150011
 33
0.0
 14
401.3885665028357
 24
367.0201787198639
 34
0.0
 50
90.0
100
AcDbRotatedDimension
1001
ACAD
1000
DSTYLE
1002
{
1070
   140
1040
6.0
1070
    74
1070
     0
1070
   172
1070
     1
1070
    73
1070
     0
1070
   272
1070
     2
1070
    77
1070
     3
1070
   173
1070
     1
1070
   147
1040
2.0
1070
    42
1040
6.0
1070
    44
1040
3.0
1070
    43
1040
14.0
1070
   271
1070
     0
1070
   178
1070
     4
1070
   177
1070
     4
1070
   176
1070
     4
1070
   141
1040
150.0
1070
     7
1000
_OPEN
1070
     6
1000
_OPEN
1070
    41
1040
7.0
1002
}
  0
ARC
  5
4A1D
330
1A
100
AcDbEntity
  8
SEIHIN
  6
PHANTOM
 62
     6
 48
5.0
100
AcDbCircle
 10
421.0137842200634
 20
245.4678353264304
 30
0.0
 40
7.000037
100
AcDbArc
 50
21.80095399999977
 51
94.99923800000046
  0
DIMENSION
  5
4A1E
330
1A
100
AcDbEntity
  8
SUNPOU
 62
     4
 48
5.0
100
AcDbDimension
  2
*D4
 10
389.2826353147876
 20
302.6399148051733
 30
0.0
 11
339.6553356940318
 21
307.6399148051733
 31
0.0
 70
    32
 71
     5
 42
99.25459924151176
  3
STANDARD
100
AcDbAlignedDimension
 13
290.0280360732759
 23
220.5224699669667
 33
0.0
 14
389.2826353147876
 24
256.1439430641166
 34
0.0
100
AcDbRotatedDimension
1001
ACAD
1000
DSTYLE
1002
{
1070
   140
1040
6.0
1070
    74
1070
     0
1070
   172
1070
     1
1070
    73
1070
     0
1070
   272
1070
     2
1070
    77
1070
     3
1070
   173
1070
     1
1070
   147
1040
2.0
1070
    42
1040
6.0
1070
    44
1040
3.0
1070
    43
1040
14.0
1070
   271
1070
     0
1070
   178
1070
     4
1070
   177
1070
     4
1070
   176
1070
     4
1070
   141
1040
150.0
1070
     7
1000
_OPEN
1070
     6
1000
_OPEN
1070
    41
1040
7.0
1002
}
  0
DIMENSION
  5
4A1F
330
1A
100
AcDbEntity
  8
SUNPOU
 62
     4
 48
5.0
100
AcDbDimension
  2
*D5
 10
424.2826353147874
 20
319.1981209395358
 30
0.0
 11
406.7826353147875
 21
324.1981209395358
 31
0.0
 70
    32
 71
     5
 42
34.99999999999977
  3
STANDARD
100
AcDbAlignedDimension
 13
389.2826353147876
 23
256.1439430641166
 33
0.0
 14
424.2826353147874
 24
256.1439430641166
 34
0.0
100
AcDbRotatedDimension
1001
ACAD
1000
DSTYLE
1002
{
1070
   140
1040
6.0
1070
    74
1070
     0
1070
   172
1070
     1
1070
    73
1070
     0
1070
   272
1070
     2
1070
    77
1070
     3
1070
   173
1070
     1
1070
   147
1040
2.0
1070
    42
1040
6.0
1070
    44
1040
3.0
1070
    43
1040
14.0
1070
   271
1070
     0
1070
   178
1070
     4
1070
   177
1070
     4
1070
   176
1070
     4
1070
   141
1040
150.0
1070
     7
1000
_OPEN
1070
     6
1000
_OPEN
1070
    41
1040
7.0
1002
}
  0
DIMENSION
  5
4A20
330
1A
100
AcDbEntity
  8
SUNPOU
 62
     4
 48
5.0
100
AcDbDimension
  2
*D6
 10
389.2826353147876
 20
319.1981209395358
 30
0.0
 11
323.0302856940317
 21
324.1981209395358
 31
0.0
 70
    32
 71
     5
 42
132.5046992415118
  3
STANDARD
100
AcDbAlignedDimension
 13
256.7779360732758
 23
245.5224699669667
 33
0.0
 14
389.2826353147876
 24
256.1439430641166
 34
0.0
100
AcDbRotatedDimension
1001
ACAD
1000
DSTYLE
1002
{
1070
   140
1040
6.0
1070
    74
1070
     0
1070
   172
1070
     1
1070
    73
1070
     0
1070
   272
1070
     2
1070
    77
1070
     3
1070
   173
1070
     1
1070
   147
1040
2.0
1070
    42
1040
6.0
1070
    44
1040
3.0
1070
    43
1040
14.0
1070
   271
1070
     0
1070
   178
1070
     4
1070
   177
1070
     4
1070
   176
1070
     4
1070
   141
1040
150.0
1070
     7
1000
_OPEN
1070
     6
1000
_OPEN
1070
    41
1040
7.0
1002
}
  0
DIMENSION
  5
4A21
330
1A
100
AcDbEntity
  8
SUNPOU
 48
5.0
100
AcDbDimension
  2
*D7
 10
220.5526580586106
 20
193.9545275780437
 30
0.0
 11
215.5526580586106
 21
220.7384987725053
 31
0.0
 70
    32
 71
     5
 42
53.56794238892297
  3
STANDARD
100
AcDbAlignedDimension
 13
258.2779360732758
 23
247.5224699669667
 33
0.0
 14
412.8658264366222
 24
193.9545275780437
 34
0.0
 50
90.0
100
AcDbRotatedDimension
1001
ACAD
1000
DSTYLE
1002
{
1070
   140
1040
6.0
1070
    74
1070
     0
1070
   172
1070
     1
1070
    73
1070
     0
1070
   272
1070
     2
1070
    77
1070
     3
1070
   173
1070
     1
1070
   147
1040
2.0
1070
    42
1040
6.0
1070
    44
1040
3.0
1070
    43
1040
14.0
1070
   271
1070
     0
1070
   178
1070
     4
1070
   177
1070
     4
1070
   176
1070
     4
1070
   141
1040
150.0
1070
     7
1000
_OPEN
1070
     6
1000
_OPEN
1070
    41
1040
7.0
1002
}
  0
LINE
  5
4A22
330
1A
100
AcDbEntity
  8
SEIHIN
  6
Continuous
 62
     3
 48
5.0
100
AcDbLine
 10
290.0279360732758
 20
217.5225699669667
 30
0.0
 11
294.0279360732758
 21
213.5225699669667
 31
0.0
  0
ARC
  5
4A23
330
1A
100
AcDbEntity
  8
SEIHIN
  6
Continuous
 62
     3
 48
5.0
100
AcDbCircle
 10
293.4751360732759
 20
203.7140699669667
 30
0.0
 40
0.499973
100
AcDbArc
 50
9.462322000000173
 51
129.4401949999998
  0
LINE
  5
4A24
330
1A
100
AcDbEntity
  8
SEIHIN
  6
Continuous
 62
     3
 48
5.0
100
AcDbLine
 10
294.5278360732758
 20
206.5225699669667
 30
0.0
 11
287.6451360732758
 21
200.8598699669667
 31
0.0
  0
LINE
  5
4A25
330
1A
100
AcDbEntity
  8
SEIHIN
  6
Continuous
 62
     3
 48
5.0
100
AcDbLine
 10
307.4453360732758
 20
220.5224699669667
 30
0.0
 11
290.0280360732759
 21
220.5224699669667
 31
0.0
  0
LINE
  5
4A26
330
1A
100
AcDbEntity
  8
SEIHIN
  6
Continuous
 62
     3
 48
5.0
100
AcDbLine
 10
293.5281360732759
 20
206.5225699669667
 30
0.0
 11
306.5281360732759
 21
206.5225699669667
 31
0.0
  0
LINE
  5
4A27
330
1A
100
AcDbEntity
  8
SEIHIN
  6
Continuous
 62
     3
 48
5.0
100
AcDbLine
 10
285.0061360732758
 20
211.0224699669667
 30
0.0
 11
348.5514360732758
 21
211.0223699669667
 31
0.0
  0
LINE
  5
4A28
330
1A
100
AcDbEntity
  8
SEIHIN
  6
Continuous
 62
     3
 48
5.0
100
AcDbLine
 10
284.6672360732758
 20
208.5224699669667
 30
0.0
 11
350.5457360732759
 21
208.5223699669667
 31
0.0
  0
ARC
  5
4A29
330
1A
100
AcDbEntity
  8
SEIHIN
  6
Continuous
 62
     3
 48
5.0
100
AcDbCircle
 10
293.0724360732759
 20
197.1182699669667
 30
0.0
 40
1.499969
100
AcDbArc
 50
239.9992719999999
 51
345.1392000000001
  0
LINE
  5
4A2A
330
1A
100
AcDbEntity
  8
SEIHIN
  6
Continuous
 62
     3
 48
5.0
100
AcDbLine
 10
293.5557360732759
 20
196.9900699669666
 30
0.0
 11
294.4783360732758
 21
200.4665699669667
 31
0.0
  0
ARC
  5
4A2B
330
1A
100
AcDbEntity
  8
SEIHIN
  6
Continuous
 62
     3
 48
5.0
100
AcDbCircle
 10
293.0724360732759
 20
197.1182699669667
 30
0.0
 40
0.5000020000000001
100
AcDbArc
 50
239.9992719999999
 51
345.1438720000002
  0
ARC
  5
4A2C
330
1A
100
AcDbEntity
  8
SEIHIN
  6
Continuous
 62
     3
 48
5.0
100
AcDbCircle
 10
288.5982360732759
 20
199.7015699669667
 30
0.0
 40
0.500041
100
AcDbArc
 50
129.4490450000006
 51
240.0050010000005
  0
LINE
  5
4A2D
330
1A
100
AcDbEntity
  8
SEIHIN
  6
Continuous
 62
     3
 48
5.0
100
AcDbLine
 10
292.3224360732759
 20
195.8192699669667
 30
0.0
 11
287.8482360732759
 21
198.4024699669667
 31
0.0
  0
LINE
  5
4A2E
330
1A
100
AcDbEntity
  8
SEIHIN
  6
Continuous
 62
     3
 48
5.0
100
AcDbLine
 10
288.3482360732759
 20
199.2684699669667
 30
0.0
 11
292.8224360732759
 21
196.6853699669667
 31
0.0
  0
LINE
  5
4A2F
330
1A
100
AcDbEntity
  8
SEIHIN
  6
Continuous
 62
     3
 48
5.0
100
AcDbLine
 10
288.2805360732758
 20
200.0876699669667
 30
0.0
 11
293.1575360732759
 21
204.1001699669667
 31
0.0
  0
ARC
  5
4A30
330
1A
100
AcDbEntity
  8
SEIHIN
  6
Continuous
 62
     3
 48
5.0
100
AcDbCircle
 10
288.5982360732759
 20
199.7015699669667
 30
0.0
 40
1.500037
100
AcDbArc
 50
129.4490450000006
 51
240.0011820000002
  0
LINE
  5
4A31
330
1A
100
AcDbEntity
  8
SEIHIN
  6
Continuous
 62
     3
 48
5.0
100
AcDbLine
 10
265.8886360732759
 20
237.6224699669667
 30
0.0
 11
259.7778360732758
 21
237.6224699669667
 31
0.0
  0
LINE
  5
4A32
330
1A
100
AcDbEntity
  8
SEIHIN
  6
Continuous
 62
     3
 48
5.0
100
AcDbLine
 10
271.9720360732758
 20
242.1224699669667
 30
0.0
 11
260.7779360732758
 21
242.1224699669667
 31
0.0
  0
ARC
  5
4A33
330
1A
100
AcDbEntity
  8
SEIHIN
  6
Continuous
 62
     3
 48
5.0
100
AcDbCircle
 10
259.7779360732758
 20
240.6224699669667
 30
0.0
 40
3.0
100
AcDbArc
 50
180.0
 51
269.9980899999996
  0
LINE
  5
4A34
330
1A
100
AcDbEntity
  8
SEIHIN
  6
Continuous
 62
     3
 48
5.0
100
AcDbLine
 10
259.7779360732758
 20
246.0224699669667
 30
0.0
 11
259.7779360732758
 21
243.1224699669667
 31
0.0
  0
ARC
  5
4A35
330
1A
100
AcDbEntity
  8
SEIHIN
  6
Continuous
 62
     3
 48
5.0
100
AcDbCircle
 10
260.7779360732758
 20
243.1224699669667
 30
0.0
 40
1.0
100
AcDbArc
 50
180.0
 51
270.0
  0
LINE
  5
4A36
330
1A
100
AcDbEntity
  8
SEIHIN
  6
Continuous
 62
     3
 48
5.0
100
AcDbLine
 10
256.7779360732758
 20
246.0224699669667
 30
0.0
 11
256.7779360732758
 21
240.6224699669667
 31
0.0
  0
LINE
  5
4A37
330
1A
100
AcDbEntity
  8
SEIHIN
  6
Continuous
 62
     3
 48
5.0
100
AcDbLine
 10
256.7779360732758
 20
243.5224699669667
 30
0.0
 11
259.7778360732758
 21
243.5224699669667
 31
0.0
  0
ARC
  5
4A38
330
1A
100
AcDbEntity
  8
SEIHIN
  6
Continuous
 62
     3
 48
5.0
100
AcDbCircle
 10
258.2779360732758
 20
246.0224699669667
 30
0.0
 40
1.5
100
AcDbArc
 50
0.0
 51
180.0
  0
LINE
  5
4A39
330
1A
100
AcDbEntity
  8
SEIHIN
  6
Continuous
 62
     3
 48
5.0
100
AcDbLine
 10
270.5331360732758
 20
234.4741699669667
 30
0.0
 11
280.0227360732758
 21
211.6708699669667
 31
0.0
  0
LINE
  5
4A3A
330
1A
100
AcDbEntity
  8
SEIHIN
  6
Continuous
 62
     3
 48
5.0
100
AcDbLine
 10
282.2194360732758
 20
212.9114699669667
 30
0.0
 11
274.6891360732758
 21
230.8001699669667
 31
0.0
  0
LINE
  5
4A3B
330
1A
100
AcDbEntity
  8
SEIHIN
  6
Continuous
 62
     3
 48
5.0
100
AcDbLine
 10
285.8552360732758
 20
220.3203699669667
 30
0.0
 11
274.6230360732758
 21
240.5266699669667
 31
0.0
  0
LINE
  5
4A3C
330
1A
100
AcDbEntity
  8
SEIHIN
  6
Continuous
 62
     3
 48
5.0
100
AcDbLine
 10
283.9277360732758
 20
218.6182699669667
 30
0.0
 11
276.5017360732759
 21
231.6384699669667
 31
0.0
  0
ARC
  5
4A3D
330
1A
100
AcDbEntity
  8
SEIHIN
  6
Continuous
 62
     3
 48
5.0
100
AcDbCircle
 10
286.5788360732759
 20
220.0224699669667
 30
0.0
 40
3.000009
100
AcDbArc
 50
207.9086889999998
 51
270.0
  0
LINE
  5
4A3E
330
1A
100
AcDbEntity
  8
SEIHIN
  6
Continuous
 62
     3
 48
5.0
100
AcDbLine
 10
285.2777360732758
 20
217.0224699669667
 30
0.0
 11
285.2777360732758
 21
211.0224699669667
 31
0.0
  0
ARC
  5
4A3F
330
1A
100
AcDbEntity
  8
SEIHIN
  6
Continuous
 62
     3
 48
5.0
100
AcDbCircle
 10
285.0061360732758
 20
214.0224699669667
 30
0.0
 40
3.000001
100
AcDbArc
 50
201.7361540000001
 51
270.0
  0
ARC
  5
4A40
330
1A
100
AcDbEntity
  8
SEIHIN
  6
Continuous
 62
     3
 48
5.0
100
AcDbCircle
 10
284.6672360732758
 20
213.5224699669667
 30
0.0
 40
4.99999
100
AcDbArc
 50
201.7354439999998
 51
270.0
  0
LINE
  5
4A41
330
1A
100
AcDbEntity
  8
SEIHIN
  6
Continuous
 62
     3
 48
5.0
100
AcDbLine
 10
286.5788360732759
 20
217.0224699669667
 30
0.0
 11
290.5281360732759
 21
217.0224699669667
 31
0.0
  0
LINE
  5
4A42
330
1A
100
AcDbEntity
  8
SEIHIN
  6
Continuous
 62
     3
 48
5.0
100
AcDbLine
 10
293.5281360732759
 20
206.5225699669667
 30
0.0
 11
293.5281360732759
 21
208.5225699669667
 31
0.0
  0
TEXT
  5
4A43
330
1A
100
AcDbEntity
  8
SEIHIN
  6
Continuous
 62
     3
 48
5.0
100
AcDbText
 10
288.0279360732758
 20
211.9352606646411
 30
0.0
 40
2.5
  1
10
 41
1.714286
100
AcDbText
  0
ARC
  5
4A44
330
1A
100
AcDbEntity
  8
SEIHIN
  6
Continuous
 62
     3
 48
5.0
100
AcDbCircle
 10
287.1808360732758
 20
221.0224699669667
 30
0.0
 40
1.500027
100
AcDbArc
 50
207.9077950000001
 51
270.0
  0
LINE
  5
4A45
330
1A
100
AcDbEntity
  8
SEIHIN
  6
Continuous
 62
     3
 48
5.0
100
AcDbLine
 10
290.0279360732758
 20
217.5225699669667
 30
0.0
 11
290.0279360732758
 21
220.5225699669667
 31
0.0
  0
LINE
  5
4A46
330
1A
100
AcDbEntity
  8
SEIHIN
  6
Continuous
 62
     3
 48
5.0
100
AcDbLine
 10
290.0279360732758
 20
219.5224699669667
 30
0.0
 11
287.1808360732758
 21
219.5224699669667
 31
0.0
  0
ARC
  5
4A47
330
1A
100
AcDbEntity
  8
SEIHIN
  6
Continuous
 62
     3
 48
5.0
100
AcDbCircle
 10
265.8886360732759
 20
232.6224699669667
 30
0.0
 40
5.000009
100
AcDbArc
 50
21.73650799999998
 51
90.0
  0
ARC
  5
4A48
330
1A
100
AcDbEntity
  8
SEIHIN
  6
Continuous
 62
     3
 48
5.0
100
AcDbCircle
 10
275.6180360732758
 20
231.1704699669667
 30
0.0
 40
0.9999819999999999
100
AcDbArc
 50
27.90531399999985
 51
201.734379
  0
ARC
  5
4A49
330
1A
100
AcDbEntity
  8
SEIHIN
  6
Continuous
 62
     3
 48
5.0
100
AcDbCircle
 10
271.9719360732759
 20
239.1224699669667
 30
0.0
 40
3.000009
100
AcDbArc
 50
27.90868899999983
 51
90.0
  0
LINE
  5
4A4A
330
1A
100
AcDbEntity
  8
SEIHIN
  6
Continuous
 62
     3
 48
5.0
100
AcDbLine
 10
412.8695403311374
 20
193.9452428062355
 30
0.0
 11
391.7072865929199
 21
246.8510795509847
 31
0.0
  0
LINE
  5
4A4B
330
1A
100
AcDbEntity
  8
CENTER L
  6
CENTER
 62
     1
 48
5.0
100
AcDbLine
 10
300.0282360732758
 20
226.866093284724
 30
0.0
 11
300.0282360732758
 21
194.0287699669667
 31
0.0
  0
ARC
  5
4A4C
330
1A
100
AcDbEntity
  8
SEIHIN
  6
Continuous
 62
     3
 48
5.0
100
AcDbCircle
 10
380.7778360732758
 20
211.5223699669667
 30
0.0
 40
4.999982
100
AcDbArc
 50
205.2243000000006
 51
0.0
  0
LINE
  5
4A4D
330
1A
100
AcDbEntity
  8
SEIHIN
  6
Continuous
 62
     3
 48
5.0
100
AcDbLine
 10
305.5281360732759
 20
206.5225699669667
 30
0.0
 11
312.4107360732759
 21
200.8598699669667
 31
0.0
  0
LINE
  5
4A4E
330
1A
100
AcDbEntity
  8
SEIHIN
  6
Continuous
 62
     3
 48
5.0
100
AcDbLine
 10
304.5281360732759
 20
200.5225699669667
 30
0.0
 11
305.5281360732759
 21
206.5225699669667
 31
0.0
  0
LINE
  5
4A4F
330
1A
100
AcDbEntity
  8
SEIHIN
  6
Continuous
 62
     3
 48
5.0
100
AcDbLine
 10
294.5281360732759
 20
206.5225699669667
 30
0.0
 11
295.5281360732759
 21
200.5225699669667
 31
0.0
  0
LINE
  5
4A50
330
1A
100
AcDbEntity
  8
SEIHIN
  6
Continuous
 62
     3
 48
5.0
100
AcDbLine
 10
391.2133131576622
 20
251.3172272562522
 30
0.0
 11
413.9837356675002
 21
194.3909209407807
 31
0.0
  0
LINE
  5
4A51
330
1A
100
AcDbEntity
  8
SEIHIN
  6
Continuous
 62
     3
 48
5.0
100
AcDbLine
 10
307.7335360732759
 20
195.8192699669667
 30
0.0
 11
312.2077360732759
 21
198.4024699669667
 31
0.0
  0
LINE
  5
4A52
330
1A
100
AcDbEntity
  8
SEIHIN
  6
Continuous
 62
     3
 48
5.0
100
AcDbLine
 10
311.7077360732759
 20
199.2684699669667
 30
0.0
 11
307.2335360732759
 21
196.6852699669667
 31
0.0
  0
LINE
  5
4A53
330
1A
100
AcDbEntity
  8
SEIHIN
  6
Continuous
 62
     3
 48
5.0
100
AcDbLine
 10
311.7754360732758
 20
200.0875699669667
 30
0.0
 11
306.8984360732759
 21
204.1001699669667
 31
0.0
  0
LINE
  5
4A54
330
1A
100
AcDbEntity
  8
SEIHIN
  6
Continuous
 62
     3
 48
5.0
100
AcDbLine
 10
295.5281360732759
 20
200.5225699669667
 30
0.0
 11
304.5281360732759
 21
200.5225699669667
 31
0.0
  0
LINE
  5
4A55
330
1A
100
AcDbEntity
  8
SEIHIN
  6
Continuous
 62
     3
 48
5.0
100
AcDbLine
 10
297.0281360732759
 20
198.5225699669667
 30
0.0
 11
303.0281360732759
 21
198.5225699669667
 31
0.0
  0
LINE
  5
4A56
330
1A
100
AcDbEntity
  8
SEIHIN
  6
Continuous
 62
     3
 48
5.0
100
AcDbLine
 10
293.9684360732758
 20
203.7962699669667
 30
0.0
 11
294.4882360732759
 21
200.6770699669667
 31
0.0
  0
LINE
  5
4A57
330
1A
100
AcDbEntity
  8
SEIHIN
  6
Continuous
 62
     3
 48
5.0
100
AcDbLine
 10
297.0281360732759
 20
198.5225699669667
 30
0.0
 11
297.0281360732759
 21
200.5225699669667
 31
0.0
  0
LINE
  5
4A58
330
1A
100
AcDbEntity
  8
SEIHIN
  6
Continuous
 62
     3
 48
5.0
100
AcDbLine
 10
297.6281360732759
 20
200.5225699669667
 30
0.0
 11
297.6281360732759
 21
198.5225699669667
 31
0.0
  0
LINE
  5
4A59
330
1A
100
AcDbEntity
  8
SEIHIN
  6
Continuous
 62
     3
 48
5.0
100
AcDbLine
 10
295.5277360732758
 20
200.5225699669667
 30
0.0
 11
294.5222360732759
 21
196.7335699669667
 31
0.0
  0
ARC
  5
4A5A
330
1A
100
AcDbEntity
  8
SEIHIN
  6
Continuous
 62
     3
 48
5.0
100
AcDbCircle
 10
293.9950360732759
 20
200.5948699669667
 30
0.0
 40
0.5000210000000001
100
AcDbArc
 50
345.1327970000004
 51
9.462322000000173
  0
LINE
  5
4A5B
330
1A
100
AcDbEntity
  8
SEIHIN
  6
Continuous
 62
     3
 48
5.0
100
AcDbLine
 10
306.0875360732758
 20
203.7962699669667
 30
0.0
 11
305.5677360732758
 21
200.6770699669667
 31
0.0
  0
ARC
  5
4A5C
330
1A
100
AcDbEntity
  8
SEIHIN
  6
Continuous
 62
     3
 48
5.0
100
AcDbCircle
 10
306.5807360732758
 20
203.7140699669667
 30
0.0
 40
0.499955
100
AcDbArc
 50
50.5509549999994
 51
170.5357940000004
  0
LINE
  5
4A5D
330
1A
100
AcDbEntity
  8
SEIHIN
  6
Continuous
 62
     3
 48
5.0
100
AcDbLine
 10
303.0281360732759
 20
198.5225699669667
 30
0.0
 11
303.0281360732759
 21
200.5225699669667
 31
0.0
  0
LINE
  5
4A5E
330
1A
100
AcDbEntity
  8
SEIHIN
  6
Continuous
 62
     3
 48
5.0
100
AcDbLine
 10
302.4281360732758
 20
200.5225699669667
 30
0.0
 11
302.4281360732758
 21
198.5225699669667
 31
0.0
  0
LINE
  5
4A5F
330
1A
100
AcDbEntity
  8
SEIHIN
  6
Continuous
 62
     3
 48
5.0
100
AcDbLine
 10
304.5281360732759
 20
200.5225699669667
 30
0.0
 11
305.5337360732758
 21
196.7335699669667
 31
0.0
  0
LINE
  5
4A60
330
1A
100
AcDbEntity
  8
SEIHIN
  6
Continuous
 62
     3
 48
5.0
100
AcDbLine
 10
306.5002360732758
 20
196.9900699669666
 30
0.0
 11
305.5776360732758
 21
200.4665699669667
 31
0.0
  0
ARC
  5
4A61
330
1A
100
AcDbEntity
  8
SEIHIN
  6
Continuous
 62
     3
 48
5.0
100
AcDbCircle
 10
306.9835360732759
 20
197.1182699669667
 30
0.0
 40
0.5000020000000001
100
AcDbArc
 50
194.8561279999998
 51
300.0007279999997
  0
ARC
  5
4A62
330
1A
100
AcDbEntity
  8
SEIHIN
  6
Continuous
 62
     3
 48
5.0
100
AcDbCircle
 10
306.9835360732759
 20
197.1182699669667
 30
0.0
 40
1.500018
100
AcDbArc
 50
194.8598199999998
 51
300.0007279999997
  0
ARC
  5
4A63
330
1A
100
AcDbEntity
  8
SEIHIN
  6
Continuous
 62
     3
 48
5.0
100
AcDbCircle
 10
306.0609360732758
 20
200.5947699669667
 30
0.0
 40
0.500009
100
AcDbArc
 50
170.5376779999998
 51
194.8561279999998
  0
ARC
  5
4A64
330
1A
100
AcDbEntity
  8
SEIHIN
  6
Continuous
 62
     3
 48
5.0
100
AcDbCircle
 10
311.4577360732759
 20
199.7014699669667
 30
0.0
 40
0.4999979999999999
100
AcDbArc
 50
300.0007279999997
 51
50.5509549999994
  0
ARC
  5
4A65
330
1A
100
AcDbEntity
  8
SEIHIN
  6
Continuous
 62
     3
 48
5.0
100
AcDbCircle
 10
311.4577360732759
 20
199.7014699669667
 30
0.0
 40
1.5
100
AcDbArc
 50
300.0007279999997
 51
50.55633099999936
  0
LINE
  5
4A66
330
1A
100
AcDbEntity
  8
CENTER L
  6
CENTER
 62
     1
 48
5.0
100
AcDbLine
 10
405.0605217747994
 20
199.0181057133146
 30
0.0
 11
415.6982217747994
 21
203.2727057133147
 31
0.0
  0
LINE
  5
4A67
330
1A
100
AcDbEntity
  8
SEIHIN
  6
Continuous
 62
     3
 48
5.0
100
AcDbLine
 10
412.8695403433858
 20
193.9452428111349
 30
0.0
 11
413.983735681563
 21
194.3909209464058
 31
0.0
  0
DIMENSION
  5
4A68
330
1A
100
AcDbEntity
  8
SUNPOU
 62
     4
 48
5.0
100
AcDbDimension
  2
*D8
 10
389.2826353147876
 20
285.8239796068374
 30
0.0
 11
359.7779360732759
 21
285.8239796068374
 31
0.0
 70
   160
 71
     5
 42
10.00469924151173
  3
STANDARD
100
AcDbAlignedDimension
 13
379.2779360732759
 23
229.8224699669667
 33
0.0
 14
389.2826353147876
 24
256.1439430641166
 34
0.0
100
AcDbRotatedDimension
1001
ACAD
1000
DSTYLE
1002
{
1070
   288
1070
     1
1070
   140
1040
6.0
1070
    74
1070
     0
1070
   172
1070
     1
1070
    73
1070
     0
1070
   272
1070
     2
1070
    77
1070
     3
1070
   173
1070
     1
1070
   147
1040
2.0
1070
    42
1040
6.0
1070
    44
1040
3.0
1070
    43
1040
14.0
1070
   271
1070
     0
1070
   178
1070
     4
1070
   177
1070
     4
1070
   176
1070
     4
1070
   141
1040
150.0
1070
     7
1000
_OPEN
1070
     6
1000
_OPEN
1070
    41
1040
7.0
1002
}
  0
LINE
  5
4A69
330
1A
100
AcDbEntity
  8
SEIHIN
  6
Continuous
 62
     3
 48
5.0
100
AcDbLine
 10
354.0743360732758
 20
211.2207699669667
 30
0.0
 11
367.5533360732759
 21
213.0420699669667
 31
0.0
  0
LINE
  5
4A6A
330
1A
100
AcDbEntity
  8
SEIHIN
  6
Continuous
 62
     3
 48
5.0
100
AcDbLine
 10
350.5457360732759
 20
208.5223699669667
 30
0.0
 11
367.7692360732758
 21
211.7603699669667
 31
0.0
  0
LINE
  5
4A6B
330
1A
100
AcDbEntity
  8
SEIHIN
  6
Continuous
 62
     3
 48
5.0
100
AcDbLine
 10
348.0181360732759
 20
221.0187699669667
 30
0.0
 11
360.2863360732758
 21
242.4738699669667
 31
0.0
  0
LINE
  5
4A6C
330
1A
100
AcDbEntity
  8
SEIHIN
  6
Continuous
 62
     3
 48
5.0
100
AcDbLine
 10
353.0293360732759
 20
212.7133699669667
 30
0.0
 11
364.5933360732759
 21
233.0713699669667
 31
0.0
  0
LINE
  5
4A6D
330
1A
100
AcDbEntity
  8
SEIHIN
  6
Continuous
 62
     3
 48
5.0
100
AcDbLine
 10
354.4487360732759
 20
220.0125699669667
 30
0.0
 11
363.6201360732758
 21
236.4819699669666
 31
0.0
  0
ARC
  5
4A6E
330
1A
100
AcDbEntity
  8
SEIHIN
  6
Continuous
 62
     3
 48
5.0
100
AcDbCircle
 10
362.6276360732759
 20
241.5223699669667
 30
0.0
 40
4.999988
100
AcDbArc
 50
90.0
 51
150.2482960000002
  0
LINE
  5
4A6F
330
1A
100
AcDbEntity
  8
SEIHIN
  6
Continuous
 62
     3
 48
5.0
100
AcDbLine
 10
384.1038880354549
 20
255.6908657642426
 30
0.0
 11
328.6939360732758
 21
250.8431699669667
 31
0.0
  0
LINE
  5
4A70
330
1A
100
AcDbEntity
  8
SEIHIN
  6
Continuous
 62
     3
 48
5.0
100
AcDbLine
 10
386.6688360732759
 20
248.5583699669667
 30
0.0
 11
331.7256360732758
 21
243.7514699669666
 31
0.0
  0
ARC
  5
4A71
330
1A
100
AcDbEntity
  8
SEIHIN
  6
Continuous
 62
     3
 48
5.0
100
AcDbCircle
 10
329.3040360732758
 20
243.8697699669667
 30
0.0
 40
7.000041
100
AcDbArc
 50
95.00005299999961
 51
150.4613130000004
  0
TEXT
  5
4A72
330
1A
100
AcDbEntity
  8
SEIHIN
  6
Continuous
 62
     3
 48
5.0
100
AcDbText
 10
323.0279360732759
 20
211.964330432083
 30
0.0
 40
2.5
  1
45
 41
1.2
100
AcDbText
  0
LINE
  5
4A73
330
1A
100
AcDbEntity
  8
SEIHIN
  6
Continuous
 62
     3
 48
5.0
100
AcDbLine
 10
343.4232360732758
 20
219.5223699669667
 30
0.0
 11
315.5071360732759
 21
219.5224699669667
 31
0.0
  0
LINE
  5
4A74
330
1A
100
AcDbEntity
  8
SEIHIN
  6
Continuous
 62
     3
 48
5.0
100
AcDbLine
 10
327.8112360732758
 20
241.2355699669666
 30
0.0
 11
314.4055360732758
 21
217.5784699669667
 31
0.0
  0
LINE
  5
4A75
330
1A
100
AcDbEntity
  8
SEIHIN
  6
Continuous
 62
     3
 48
5.0
100
AcDbLine
 10
314.0905360732759
 20
217.0224699669667
 30
0.0
 11
350.9218360732758
 21
217.0223699669667
 31
0.0
  0
LINE
  5
4A76
330
1A
100
AcDbEntity
  8
SEIHIN
 48
5.0
100
AcDbLine
 10
323.2138393636462
 20
247.3208680588351
 30
0.0
 11
308.3153469510694
 21
221.0294638080905
 31
0.0
  0
ARC
  5
4A77
330
1A
100
AcDbEntity
  8
SEIHIN
  6
Continuous
 62
     3
 48
5.0
100
AcDbCircle
 10
307.4453360732758
 20
221.5225699669667
 30
0.0
 40
8.000010000000001
100
AcDbArc
 50
270.0
 51
330.4613009999995
  0
LINE
  5
4A78
330
1A
100
AcDbEntity
  8
SEIHIN
  6
Continuous
 62
     3
 48
5.0
100
AcDbLine
 10
294.0279360732758
 20
213.5225699669667
 30
0.0
 11
307.4453360732758
 21
213.5225699669667
 31
0.0
  0
LINE
  5
4A79
330
1A
100
AcDbEntity
  8
SEIHIN
  6
Continuous
 62
     3
 48
5.0
100
AcDbLine
 10
306.5281360732759
 20
206.5225699669667
 30
0.0
 11
306.5281360732759
 21
208.5225699669667
 31
0.0
  0
ARC
  5
4A7A
330
1A
100
AcDbEntity
  8
SEIHIN
  6
Continuous
 62
     3
 48
5.0
100
AcDbCircle
 10
300.0282360732758
 20
213.9391699669667
 30
0.0
 40
9.083361
100
AcDbArc
 50
56.60226999999996
 51
123.3982569999992
  0
LINE
  5
4A7B
330
1A
100
AcDbEntity
  8
SEIHIN
  6
Continuous
 62
     3
 48
5.0
100
AcDbLine
 10
305.0282360732758
 20
221.5225699669667
 30
0.0
 11
295.0281360732759
 21
221.5225699669667
 31
0.0
  0
LINE
  5
4A7C
330
1A
100
AcDbEntity
  8
SEIHIN
  6
Continuous
 62
     3
 48
5.0
100
AcDbLine
 10
295.0281360732759
 20
220.5225699669667
 30
0.0
 11
295.0281360732759
 21
221.5224699669667
 31
0.0
  0
ARC
  5
4A7D
330
1A
100
AcDbEntity
  8
SEIHIN
  6
Continuous
 62
     3
 48
5.0
100
AcDbCircle
 10
307.4453360732758
 20
221.5224699669667
 30
0.0
 40
0.9999870000000001
100
AcDbArc
 50
270.0
 51
330.4612179999998
  0
LINE
  5
4A7E
330
1A
100
AcDbEntity
  8
SEIHIN
  6
Continuous
 62
     3
 48
5.0
100
AcDbLine
 10
305.0281360732759
 20
220.5225699669667
 30
0.0
 11
305.0282360732758
 21
221.5225699669667
 31
0.0
  0
LINE
  5
4A7F
330
1A
100
AcDbEntity
  8
SEIHIN
  6
Continuous
 62
     3
 48
5.0
100
AcDbLine
 10
358.2867360732759
 20
244.0036699669666
 30
0.0
 11
344.7136360732759
 21
220.2577699669667
 31
0.0
  0
ARC
  5
4A80
330
1A
100
AcDbEntity
  8
SEIHIN
  6
Continuous
 62
     3
 48
5.0
100
AcDbCircle
 10
350.9218360732758
 20
216.0223699669667
 30
0.0
 40
1.000003
100
AcDbArc
 50
329.3496969999993
 51
90.0
  0
LINE
  5
4A81
330
1A
100
AcDbEntity
  8
SEIHIN
  6
Continuous
 62
     3
 48
5.0
100
AcDbLine
 10
349.4117360732759
 20
211.5125699669667
 30
0.0
 11
351.7821360732759
 21
215.5125699669667
 31
0.0
  0
ARC
  5
4A82
330
1A
100
AcDbEntity
  8
SEIHIN
  6
Continuous
 62
     3
 48
5.0
100
AcDbCircle
 10
348.5514360732758
 20
212.0223699669667
 30
0.0
 40
1.000003
100
AcDbArc
 50
270.0
 51
329.3496969999993
  0
LINE
  5
4A83
330
1A
100
AcDbEntity
  8
SEIHIN
  6
Continuous
 62
     3
 48
5.0
100
AcDbLine
 10
344.2779360732759
 20
211.0224699669667
 30
0.0
 11
344.2779360732759
 21
217.0224699669667
 31
0.0
  0
ARC
  5
4A84
330
1A
100
AcDbEntity
  8
SEIHIN
  6
Continuous
 62
     3
 48
5.0
100
AcDbCircle
 10
353.8896360732758
 20
212.2035699669667
 30
0.0
 40
1.000006
100
AcDbArc
 50
149.3497109999998
 51
280.6436029999996
  0
LINE
  5
4A85
330
1A
100
AcDbEntity
  8
SEIHIN
  6
Continuous
 62
     3
 48
5.0
100
AcDbLine
 10
353.5884360732758
 20
219.5223699669667
 30
0.0
 11
348.8862360732759
 21
219.5223699669667
 31
0.0
  0
ARC
  5
4A86
330
1A
100
AcDbEntity
  8
SEIHIN
  6
Continuous
 62
     3
 48
5.0
100
AcDbCircle
 10
343.4232360732758
 20
221.0223699669667
 30
0.0
 40
1.499983
100
AcDbArc
 50
270.0
 51
329.3487229999997
  0
ARC
  5
4A87
330
1A
100
AcDbEntity
  8
SEIHIN
  6
Continuous
 62
     3
 48
5.0
100
AcDbCircle
 10
348.8862360732759
 20
220.5223699669667
 30
0.0
 40
1.000003
100
AcDbArc
 50
150.2380629999995
 51
270.0
  0
ARC
  5
4A88
330
1A
100
AcDbEntity
  8
SEIHIN
  6
Continuous
 62
     3
 48
5.0
100
AcDbCircle
 10
353.5884360732758
 20
220.5223699669667
 30
0.0
 40
1.000003
100
AcDbArc
 50
270.0
 51
329.3496969999993
  0
ARC
  5
4A89
330
1A
100
AcDbEntity
  8
SEIHIN
  6
Continuous
 62
     3
 48
5.0
100
AcDbCircle
 10
332.1613360732758
 20
238.7704699669666
 30
0.0
 40
5.000014
100
AcDbArc
 50
94.99907500000073
 51
150.4607859999998
  0
ARC
  5
4A8A
330
1A
100
AcDbEntity
  8
SEIHIN
  6
Continuous
 62
     3
 48
5.0
100
AcDbCircle
 10
384.7139723838937
 20
248.7175023657247
 30
0.0
 40
7.0
100
AcDbArc
 50
21.80132270570034
 51
94.99995192766536
  0
LINE
  5
4A8B
330
1A
100
AcDbEntity
  8
SEIHIN
  6
Continuous
 62
     3
 48
5.0
100
AcDbLine
 10
393.0686360732758
 20
246.6788699669667
 30
0.0
 11
392.1401360732758
 21
246.3074699669667
 31
0.0
  0
LINE
  5
4A8C
330
1A
100
AcDbEntity
  8
CENTER L
  6
CENTER
 62
     1
 48
5.0
100
AcDbLine
 10
391.6093217747994
 20
230.2567057133146
 30
0.0
 11
403.1738217747994
 21
234.8822057133147
 31
0.0
  0
LINE
  5
4A8D
330
1A
100
AcDbEntity
  8
SEIHIN
  6
Continuous
 62
     3
 48
5.0
100
AcDbLine
 10
389.9485360732758
 20
247.2090699669667
 30
0.0
 11
395.3177360732758
 21
233.7861699669667
 31
0.0
  0
LINE
  5
4A8E
330
1A
100
AcDbEntity
  8
SEIHIN
  6
Continuous
 62
     3
 48
5.0
100
AcDbLine
 10
388.6593360732759
 20
247.7394699669667
 30
0.0
 11
399.2173360732759
 21
221.3445699669667
 31
0.0
  0
LINE
  5
4A8F
330
1A
100
AcDbEntity
  8
SEIHIN
  6
Continuous
 62
     3
 48
5.0
100
AcDbLine
 10
385.7779360732759
 20
241.5223699669667
 30
0.0
 11
385.7778360732758
 21
211.5223699669667
 31
0.0
  0
LINE
  5
4A90
330
1A
100
AcDbEntity
  8
SEIHIN
  6
Continuous
 62
     3
 48
5.0
100
AcDbLine
 10
379.7779360732759
 20
230.5223699669667
 30
0.0
 11
379.7779360732759
 21
214.0223699669667
 31
0.0
  0
LINE
  5
4A91
330
1A
100
AcDbEntity
  8
SEIHIN
  6
Continuous
 62
     3
 48
5.0
100
AcDbLine
 10
375.8469360732759
 20
215.5745699669667
 30
0.0
 11
378.0652360732759
 21
213.3208699669667
 31
0.0
  0
LINE
  5
4A92
330
1A
100
AcDbEntity
  8
SEIHIN
  6
Continuous
 62
     3
 48
5.0
100
AcDbLine
 10
376.3336360732759
 20
209.2311699669667
 30
0.0
 11
373.4446360732759
 21
213.8349699669667
 31
0.0
  0
ARC
  5
4A93
330
1A
100
AcDbEntity
  8
SEIHIN
  6
Continuous
 62
     3
 48
5.0
100
AcDbCircle
 10
367.6491360732758
 20
212.3991699669667
 30
0.0
 40
0.6500060000000001
100
AcDbArc
 50
278.4841289999999
 51
98.47541099999991
  0
ARC
  5
4A94
330
1A
100
AcDbEntity
  8
SEIHIN
  6
Continuous
 62
     3
 48
5.0
100
AcDbCircle
 10
374.7779360732759
 20
214.5223699669667
 30
0.0
 40
1.500016
100
AcDbArc
 50
44.54622400000024
 51
207.2739519999998
  0
ARC
  5
4A95
330
1A
100
AcDbEntity
  8
SEIHIN
  6
Continuous
 62
     3
 48
5.0
100
AcDbCircle
 10
378.7779360732759
 20
214.0223699669667
 30
0.0
 40
1.000011
100
AcDbArc
 50
224.5462460000005
 51
0.0
  0
LINE
  5
4A96
330
1A
100
AcDbEntity
  8
SEIHIN
  6
Continuous
 62
     3
 48
5.0
100
AcDbLine
 10
366.2411360732758
 20
238.0223699669667
 30
0.0
 11
376.7779360732759
 21
238.0223699669667
 31
0.0
  0
LINE
  5
4A97
330
1A
100
AcDbEntity
  8
SEIHIN
  6
Continuous
 62
     3
 48
5.0
100
AcDbLine
 10
376.7779360732759
 20
244.0223699669667
 30
0.0
 11
362.9118360732758
 21
244.0223699669667
 31
0.0
  0
ARC
  5
4A98
330
1A
100
AcDbEntity
  8
SEIHIN
  6
Continuous
 62
     3
 48
5.0
100
AcDbCircle
 10
374.7779360732759
 20
230.5223699669667
 30
0.0
 40
5.0
100
AcDbArc
 50
0.0
 51
90.0
  0
LINE
  5
4A99
330
1A
100
AcDbEntity
  8
SEIHIN
  6
Continuous
 62
     3
 48
5.0
100
AcDbLine
 10
380.7778360732758
 20
246.5222699669666
 30
0.0
 11
362.6276360732759
 21
246.5223699669667
 31
0.0
  0
ARC
  5
4A9A
330
1A
100
AcDbEntity
  8
SEIHIN
  6
Continuous
 62
     3
 48
5.0
100
AcDbCircle
 10
368.8947360732758
 20
230.5223699669667
 30
0.0
 40
4.999972000000001
100
AcDbArc
 50
90.0
 51
149.349113
  0
ARC
  5
4A9B
330
1A
100
AcDbEntity
  8
SEIHIN
  6
Continuous
 62
     3
 48
5.0
100
AcDbCircle
 10
366.2411360732758
 20
235.0223699669667
 30
0.0
 40
3.000006
100
AcDbArc
 50
90.0
 51
150.8871489999995
  0
LINE
  5
4A9C
330
1A
100
AcDbEntity
  8
SEIHIN
  6
Continuous
 62
     3
 48
5.0
100
AcDbLine
 10
368.8947360732758
 20
235.5223699669667
 30
0.0
 11
374.7779360732759
 21
235.5223699669667
 31
0.0
  0
ARC
  5
4A9D
330
1A
100
AcDbEntity
  8
SEIHIN
  6
Continuous
 62
     3
 48
5.0
100
AcDbCircle
 10
362.9118360732758
 20
241.0223699669667
 30
0.0
 40
3.000009
100
AcDbArc
 50
90.0
 51
149.3496969999993
  0
ARC
  5
4A9E
330
1A
100
AcDbEntity
  8
SEIHIN
  6
Continuous
 62
     3
 48
5.0
100
AcDbCircle
 10
376.7779360732759
 20
241.0223699669667
 30
0.0
 40
3.0
100
AcDbArc
 50
270.0
 51
0.0
  0
ARC
  5
4A9F
330
1A
100
AcDbEntity
  8
SEIHIN
  6
Continuous
 62
     3
 48
5.0
100
AcDbCircle
 10
380.7778360732758
 20
241.5222699669666
 30
0.0
 40
5.0
100
AcDbArc
 50
0.0
 51
89.99885400000053
  0
ARC
  5
4AA0
330
1A
100
AcDbEntity
  8
SEIHIN
  6
Continuous
 62
     3
 48
5.0
100
AcDbCircle
 10
376.7778360732758
 20
241.0223699669667
 30
0.0
 40
3.0
100
AcDbArc
 50
0.0
 51
90.0
  0
LINE
  5
4AA1
330
1A
100
AcDbEntity
  8
SEIHIN
  6
Continuous
 62
     3
 48
5.0
100
AcDbLine
 10
392.1401360732758
 20
246.3074699669667
 30
0.0
 11
386.6688360732759
 21
248.5583699669667
 31
0.0
  0
LINE
  5
4AA2
330
1A
100
AcDbEntity
  8
CENTER L
  6
CENTER
 62
     1
 48
5.0
100
AcDbLine
 10
405.3840217747994
 20
229.3040057133146
 30
0.0
 11
393.7925217747994
 21
224.6678057133146
 31
0.0
  0
ARC
  5
4AA3
330
1A
100
AcDbEntity
  8
SEIHIN
  6
Continuous
 62
     3
 48
5.0
100
AcDbCircle
 10
402.9312360732758
 20
222.8300699669667
 30
0.0
 40
3.99995
100
AcDbArc
 50
201.8006120000003
 51
265.0567854454423
  0
ARC
  5
4AA4
330
1A
100
AcDbEntity
  8
SEIHIN
  6
Continuous
 62
     3
 48
5.0
100
AcDbCircle
 10
397.1746360732758
 20
234.5289699669667
 30
0.0
 40
1.99999
100
AcDbArc
 50
201.8024730000005
 51
268.2227893302897
  0
LINE
  5
4AA5
330
1A
100
AcDbEntity
  8
SEIHIN
  6
Continuous
 62
     3
 48
5.0
100
AcDbLine
 10
290.0282360732758
 20
403.4703787150011
 30
0.0
 11
308.0282360732758
 21
403.4703787150011
 31
0.0
  0
LINE
  5
4AA6
330
1A
100
AcDbEntity
  8
SEIHIN
  6
Continuous
 62
     3
 48
5.0
100
AcDbLine
 10
290.0281360732759
 20
385.5703787150011
 30
0.0
 11
308.0282360732758
 21
385.5703787150011
 31
0.0
  0
LINE
  5
4AA7
330
1A
100
AcDbEntity
  8
CENTER L
  6
CENTER
 62
     1
 48
5.0
100
AcDbLine
 10
249.3041360732758
 20
394.5203787150011
 30
0.0
 11
418.4365360732759
 21
394.5201787150011
 31
0.0
  0
DIMENSION
  5
4AA8
330
1A
100
AcDbEntity
  8
SUNPOU
 48
5.0
100
AcDbDimension
  2
*D9
 10
220.5526580586106
 20
387.0204787150011
 30
0.0
 11
215.5526580586106
 21
394.5204287150012
 31
0.0
 70
    32
 71
     5
 42
14.99990000000003
  3
STANDARD
100
AcDbAlignedDimension
 13
259.7779360732758
 23
402.0203787150011
 33
0.0
 14
259.7779360732758
 24
387.0204787150011
 34
0.0
 50
90.0
100
AcDbRotatedDimension
1001
ACAD
1000
DSTYLE
1002
{
1070
   140
1040
6.0
1070
    74
1070
     0
1070
   172
1070
     1
1070
    73
1070
     0
1070
   272
1070
     2
1070
    77
1070
     3
1070
   173
1070
     1
1070
   147
1040
2.0
1070
    42
1040
6.0
1070
    44
1040
3.0
1070
    43
1040
14.0
1070
   271
1070
     0
1070
   178
1070
     4
1070
   177
1070
     4
1070
   176
1070
     4
1070
   141
1040
150.0
1070
     7
1000
_OPEN
1070
     6
1000
_OPEN
1070
    41
1040
7.0
1002
}
  0
LINE
  5
4AA9
330
1A
100
AcDbEntity
  8
SEIHIN
  6
Continuous
 62
     3
 48
5.0
100
AcDbLine
 10
290.0281360732759
 20
385.5703787150011
 30
0.0
 11
290.0281360732759
 21
394.5203787150011
 31
0.0
  0
LINE
  5
4AAA
330
1A
100
AcDbEntity
  8
SEIHIN
  6
Continuous
 62
     3
 48
5.0
100
AcDbLine
 10
286.2779360732758
 20
387.0204787150011
 30
0.0
 11
286.2779360732758
 21
402.0204787150011
 31
0.0
  0
LINE
  5
4AAB
330
1A
100
AcDbEntity
  8
SEIHIN
  6
Continuous
 62
     3
 48
5.0
100
AcDbLine
 10
273.7779360732758
 20
394.5204787150011
 30
0.0
 11
273.7779360732758
 21
387.020278715001
 31
0.0
  0
LINE
  5
4AAC
330
1A
100
AcDbEntity
  8
SEIHIN
  6
Continuous
 62
     3
 48
5.0
100
AcDbLine
 10
259.7779360732758
 20
394.5206787150011
 30
0.0
 11
259.7778360732758
 21
383.5203787150011
 31
0.0
  0
LINE
  5
4AAD
330
1A
100
AcDbEntity
  8
SEIHIN
  6
Continuous
 62
     3
 48
5.0
100
AcDbLine
 10
256.7779360732758
 20
394.5206787150011
 30
0.0
 11
256.7778360732758
 21
383.5203787150011
 31
0.0
  0
LINE
  5
4AAE
330
1A
100
AcDbEntity
  8
SEIHIN
  6
Continuous
 62
     3
 48
5.0
100
AcDbLine
 10
259.7779360732758
 20
387.0204787150011
 30
0.0
 11
290.0281360732759
 21
387.0203787150011
 31
0.0
  0
LINE
  5
4AAF
330
1A
100
AcDbEntity
  8
SEIHIN
  6
Continuous
 62
     3
 48
5.0
100
AcDbLine
 10
256.7779360732758
 20
383.5203787150011
 30
0.0
 11
259.7779360732758
 21
383.5203787150011
 31
0.0
  0
LINE
  5
4AB0
330
1A
100
AcDbEntity
  8
SEIHIN
  6
Continuous
 62
     3
 48
5.0
100
AcDbLine
 10
259.7779360732758
 20
402.0203787150011
 30
0.0
 11
290.0281360732759
 21
402.0203787150011
 31
0.0
  0
LINE
  5
4AB1
330
1A
100
AcDbEntity
  8
SEIHIN
  6
Continuous
 62
     3
 48
5.0
100
AcDbLine
 10
259.7779360732758
 20
394.5201787150011
 30
0.0
 11
259.7779360732758
 21
405.5203787150011
 31
0.0
  0
LINE
  5
4AB2
330
1A
100
AcDbEntity
  8
SEIHIN
  6
Continuous
 62
     3
 48
5.0
100
AcDbLine
 10
256.7779360732758
 20
394.5201787150011
 30
0.0
 11
256.7779360732758
 21
405.5203787150011
 31
0.0
  0
LINE
  5
4AB3
330
1A
100
AcDbEntity
  8
SEIHIN
  6
Continuous
 62
     3
 48
5.0
100
AcDbLine
 10
256.7779360732758
 20
405.5203787150011
 30
0.0
 11
259.7779360732758
 21
405.5203787150011
 31
0.0
  0
LINE
  5
4AB4
330
1A
100
AcDbEntity
  8
SEIHIN
  6
Continuous
 62
     3
 48
5.0
100
AcDbLine
 10
273.7779360732758
 20
394.520278715001
 30
0.0
 11
273.7779360732758
 21
402.0204787150011
 31
0.0
  0
LINE
  5
4AB5
330
1A
100
AcDbEntity
  8
SEIHIN
  6
Continuous
 62
     3
 48
5.0
100
AcDbLine
 10
290.0281360732759
 20
403.4703787150011
 30
0.0
 11
290.0281360732759
 21
394.5203787150011
 31
0.0
  0
LINE
  5
4AB6
330
1A
100
AcDbEntity
  8
CENTER L
  6
CENTER
 62
     1
 48
5.0
100
AcDbLine
 10
300.0282360732758
 20
404.8954237724241
 30
0.0
 11
300.0282360732758
 21
384.1453336575778
 31
0.0
  0
LINE
  5
4AB7
330
1A
100
AcDbEntity
  8
SUNPOU
  6
CENTER
 62
     1
 48
5.0
100
AcDbLine
 10
411.1574721555371
 20
399.7210919026409
 30
0.0
 11
411.1574721555371
 21
389.319279668239
 31
0.0
  0
ARC
  5
4AB8
330
1A
100
AcDbEntity
  8
SEIHIN
  6
Continuous
 62
     3
 48
5.0
100
AcDbCircle
 10
402.0672360732758
 20
394.7182787150011
 30
0.0
 40
4.768783
100
AcDbArc
 50
298.3175189999993
 51
357.2235129999997
  0
ARC
  5
4AB9
330
1A
100
AcDbEntity
  8
SEIHIN
  6
Continuous
 62
     3
 48
5.0
100
AcDbCircle
 10
394.7378360732758
 20
394.6759787150011
 30
0.0
 40
7.038500999999999
100
AcDbArc
 50
181.2675500000002
 51
216.187230999999
  0
LINE
  5
4ABA
330
1A
100
AcDbEntity
  8
SEIHIN
  6
Continuous
 62
     3
 48
5.0
100
AcDbLine
 10
379.3782360732758
 20
398.520278715001
 30
0.0
 11
379.3782360732758
 21
390.520278715001
 31
0.0
  0
LINE
  5
4ABB
330
1A
100
AcDbEntity
  8
SEIHIN
  6
Continuous
 62
     3
 48
5.0
100
AcDbLine
 10
374.3782360732758
 20
398.520278715001
 30
0.0
 11
374.3782360732758
 21
390.520278715001
 31
0.0
  0
ARC
  5
4ABC
330
1A
100
AcDbEntity
  8
SEIHIN
  6
Continuous
 62
     3
 48
5.0
100
AcDbCircle
 10
327.4362360732758
 20
397.082778715001
 30
0.0
 40
9.837367
100
AcDbArc
 50
195.0982960000002
 51
221.8428780000008
  0
LINE
  5
4ABD
330
1A
100
AcDbEntity
  8
SEIHIN
  6
Continuous
 62
     3
 48
5.0
100
AcDbLine
 10
308.0282360732758
 20
394.5203787150011
 30
0.0
 11
308.0282360732758
 21
385.5703787150011
 31
0.0
  0
CIRCLE
  5
4ABE
330
1A
100
AcDbEntity
  8
SEIHIN
  6
Continuous
 62
     3
 48
5.0
100
AcDbCircle
 10
300.0282360732758
 20
394.5203787150011
 30
0.0
 40
5.0
  0
ARC
  5
4ABF
330
1A
100
AcDbEntity
  8
SEIHIN
  6
Continuous
 62
     3
 48
5.0
100
AcDbCircle
 10
395.0732540913147
 20
395.2667787150011
 30
0.0
 40
18.921522
100
AcDbArc
 50
333.3179459999997
 51
357.7389570000004
  0
ELLIPSE
  5
4AC0
330
1A
100
AcDbEntity
  8
SEIHIN
  6
Continuous
 62
     3
 48
5.0
100
AcDbEllipse
 10
397.6024351491842
 20
375.0201787150011
 30
0.0
 11
0.0
 21
2.100000000000023
 31
0.0
210
0.0
220
0.0
230
1.0
 40
0.3713892701560805
 41
-2.503995833241616
 42
-2.208358247414099
  0
ELLIPSE
  5
4AC1
330
1A
100
AcDbEntity
  8
SEIHIN
  6
Continuous
 62
     3
 48
5.0
100
AcDbEllipse
 10
397.6024351491842
 20
375.0201787150011
 30
0.0
 11
0.0
 21
2.100000000000023
 31
0.0
210
0.0
220
0.0
230
1.0
 40
0.3713892701560805
 41
-0.9332344061756942
 42
-0.637596820348161
  0
ELLIPSE
  5
4AC2
330
1A
100
AcDbEntity
  8
SEIHIN
  6
Continuous
 62
     3
 48
5.0
100
AcDbEllipse
 10
399.8307856240467
 20
375.0201787150011
 30
0.0
 11
0.0
 21
-3.25
 31
0.0
210
0.0
220
0.0
230
1.0
 40
0.3713892702233771
 41
0.3948107500097483
 42
2.746781903580045
  0
ELLIPSE
  5
4AC3
330
1A
100
AcDbEntity
  8
SEIHIN
  6
Continuous
 62
     3
 48
5.0
100
AcDbEllipse
 10
400.7593025423453
 20
375.0201787150011
 30
0.0
 11
0.0
 21
-3.25
 31
0.0
210
0.0
220
0.0
230
1.0
 40
0.3713892702233771
 41
-1.176005207095142
 42
4.31759786068503
  0
ELLIPSE
  5
4AC4
330
1A
100
AcDbEntity
  8
SEIHIN
  6
Continuous
 62
     3
 48
5.0
100
AcDbEllipse
 10
398.5309520674827
 20
375.0201787150011
 30
0.0
 11
0.0
 21
2.100000000000023
 31
0.0
210
0.0
220
0.0
230
1.0
 40
0.3713892701560805
 41
-0.9332344061756942
 42
4.074827059765502
  0
LINE
  5
4AC5
330
1A
100
AcDbEntity
  8
SEIHIN
  6
Continuous
 62
     3
 48
5.0
100
AcDbLine
 10
374.3782360732758
 20
390.520278715001
 30
0.0
 11
320.1076360732759
 21
390.5203787150011
 31
0.0
  0
LINE
  5
4AC6
330
1A
100
AcDbEntity
  8
SEIHIN
  6
Continuous
 62
     3
 48
5.0
100
AcDbLine
 10
308.0282360732758
 20
385.5703787150011
 30
0.0
 11
384.7541360732758
 21
375.6924787150011
 31
0.0
  0
LINE
  5
4AC7
330
1A
100
AcDbEntity
  8
SEIHIN
  6
Continuous
 62
     3
 48
5.0
100
AcDbLine
 10
325.0282360732758
 20
390.520278715001
 30
0.0
 11
325.0282360732758
 21
384.2734787150012
 31
0.0
  0
LINE
  5
4AC8
330
1A
100
AcDbEntity
  8
SEIHIN
  6
Continuous
 62
     3
 48
5.0
100
AcDbLine
 10
392.9976360732759
 20
383.020278715001
 30
0.0
 11
385.1421360732759
 21
383.020278715001
 31
0.0
  0
LINE
  5
4AC9
330
1A
100
AcDbEntity
  8
SEIHIN
  6
Continuous
 62
     3
 48
5.0
100
AcDbLine
 10
402.0454360732758
 20
386.0201787150011
 30
0.0
 11
385.1438360732758
 21
386.020278715001
 31
0.0
  0
LINE
  5
4ACA
330
1A
100
AcDbEntity
  8
SEIHIN
  6
Continuous
 62
     3
 48
5.0
100
AcDbLine
 10
404.3293360732758
 20
390.5201787150011
 30
0.0
 11
379.3782360732758
 21
390.520278715001
 31
0.0
  0
LINE
  5
4ACB
330
1A
100
AcDbEntity
  8
SEIHIN
  6
Continuous
 62
     3
 48
5.0
100
AcDbLine
 10
401.5387532716516
 20
367.0201771645557
 30
0.0
 11
391.7326360732759
 21
367.020278715001
 31
0.0
  0
ARC
  5
4ACC
330
1A
100
AcDbEntity
  8
SEIHIN
  6
Continuous
 62
     3
 48
5.0
100
AcDbCircle
 10
383.7326360732759
 20
367.7579787150011
 30
0.0
 40
7.999999000000001
100
AcDbArc
 50
359.9992839999999
 51
82.663293
  0
ARC
  5
4ACD
330
1A
100
AcDbEntity
  8
SEIHIN
  6
Continuous
 62
     3
 48
5.0
100
AcDbCircle
 10
384.8467360732758
 20
367.614478715001
 30
0.0
 40
7.999992
100
AcDbArc
 50
0.0
 51
82.66400399999961
  0
LINE
  5
4ACE
330
1A
100
AcDbEntity
  8
SEIHIN
  6
Continuous
 62
     3
 48
5.0
100
AcDbLine
 10
391.7326360732759
 20
367.0201787150011
 30
0.0
 11
391.7326360732759
 21
367.7579787150011
 31
0.0
  0
LINE
  5
4ACF
330
1A
100
AcDbEntity
  8
SEIHIN
  6
Continuous
 62
     3
 48
5.0
100
AcDbLine
 10
389.1328360732758
 20
375.020278715001
 30
0.0
 11
389.1328360732758
 21
383.020278715001
 31
0.0
  0
LINE
  5
4AD0
330
1A
100
AcDbEntity
  8
SEIHIN
  6
Continuous
 62
     3
 48
5.0
100
AcDbLine
 10
389.1328360732758
 20
386.020278715001
 30
0.0
 11
389.1328360732758
 21
390.5201787150011
 31
0.0
  0
ARC
  5
4AD1
330
1A
100
AcDbEntity
  8
SEIHIN
  6
Continuous
 62
     3
 48
5.0
100
AcDbCircle
 10
385.7517360732759
 20
384.5198787150011
 30
0.0
 40
1.618846
100
AcDbArc
 50
112.0748139999999
 51
247.9205760000002
  0
ARC
  5
4AD2
330
1A
100
AcDbEntity
  8
SEIHIN
  6
Continuous
 62
     3
 48
5.0
100
AcDbCircle
 10
389.1328360732758
 20
384.5200787150011
 30
0.0
 40
1.5
100
AcDbArc
 50
90.0
 51
270.0
  0
LINE
  5
4AD3
330
1A
100
AcDbEntity
  8
SEIHIN
  6
Continuous
 62
     3
 48
5.0
100
AcDbLine
 10
411.9799540913147
 20
386.7703787150011
 30
0.0
 11
401.5387540913147
 21
367.0201787150011
 31
0.0
  0
LINE
  5
4AD4
330
1A
100
AcDbEntity
  8
SEIHIN
  6
Continuous
 62
     3
 48
5.0
100
AcDbLine
 10
392.8467360732758
 20
367.0201787150011
 30
0.0
 11
392.8467360732758
 21
367.614478715001
 31
0.0
  0
LINE
  5
4AD5
330
1A
100
AcDbEntity
  8
CENTER L
  6
CENTER
 62
     1
 48
5.0
100
AcDbLine
 10
398.5309520674827
 20
369.7505295844517
 30
0.0
 11
398.5309520674827
 21
380.2898278455505
 31
0.0
  0
LINE
  5
4AD6
330
1A
100
AcDbEntity
  8
CENTER L
  6
CENTER
 62
     1
 48
5.0
100
AcDbLine
 10
400.7593025423453
 20
369.6430456239655
 30
0.0
 11
400.7593025423453
 21
380.3973118060367
 31
0.0
  0
LINE
  5
4AD7
330
1A
100
AcDbEntity
  8
CENTER L
  6
CENTER
 62
     1
 48
5.0
100
AcDbLine
 10
404.1120456985925
 20
375.0201787150011
 30
0.0
 11
396.6845062642576
 21
375.0201787150011
 31
0.0
  0
LINE
  5
4AD8
330
1A
100
AcDbEntity
  8
SEIHIN
  6
Continuous
 62
     3
 48
5.0
100
AcDbLine
 10
399.6451347316751
 20
376.2701787150011
 30
0.0
 11
398.229137348389
 21
376.2701787150011
 31
0.0
  0
LINE
  5
4AD9
330
1A
100
AcDbEntity
  8
SEIHIN
  6
Continuous
 62
     3
 48
5.0
100
AcDbLine
 10
399.6451347316751
 20
373.7701787150011
 30
0.0
 11
398.229137348389
 21
373.7701787150011
 31
0.0
  0
LINE
  5
4ADA
330
1A
100
AcDbEntity
  8
SEIHIN
  6
Continuous
 62
     3
 48
5.0
100
AcDbLine
 10
402.2482360732759
 20
383.0201787150011
 30
0.0
 11
396.5114360732758
 21
383.0200787150011
 31
0.0
  0
ARC
  5
4ADB
330
1A
100
AcDbEntity
  8
SEIHIN
  6
Continuous
 62
     3
 48
5.0
100
AcDbCircle
 10
396.5114360732758
 20
381.0200787150011
 30
0.0
 40
2.000026
100
AcDbArc
 50
90.0
 51
139.0892249999997
  0
ARC
  5
4ADC
330
1A
100
AcDbEntity
  8
SEIHIN
  6
Continuous
 62
     3
 48
5.0
100
AcDbCircle
 10
393.1977360732758
 20
380.5554787150011
 30
0.0
 40
0.20004
100
AcDbArc
 50
180.0
 51
319.0755129999994
  0
LINE
  5
4ADD
330
1A
100
AcDbEntity
  8
SEIHIN
  6
Continuous
 62
     3
 48
5.0
100
AcDbLine
 10
392.9976360732759
 20
383.0200787150011
 30
0.0
 11
392.9976360732759
 21
380.5554787150011
 31
0.0
  0
LINE
  5
4ADE
330
1A
100
AcDbEntity
  8
SEIHIN
  6
Continuous
 62
     3
 48
5.0
100
AcDbLine
 10
393.3487360732759
 20
380.4244787150011
 30
0.0
 11
394.9999360732759
 21
382.3298787150011
 31
0.0
  0
ARC
  5
4ADF
330
1A
100
AcDbEntity
  8
SEIHIN
  6
Continuous
 62
     3
 48
5.0
100
AcDbCircle
 10
401.6668360732758
 20
384.4877787150011
 30
0.0
 40
1.578535
100
AcDbArc
 50
291.6113409999993
 51
76.13366299999936
  0
ELLIPSE
  5
4AE0
330
1A
100
AcDbEntity
  8
SEIHIN
  6
Continuous
 62
     3
 48
5.0
100
AcDbEllipse
 10
399.8307856240621
 20
414.0202536060244
 30
0.0
 11
1.869305082199413E-5
 21
3.249999999946242
 31
0.0
210
0.0
220
0.0
230
-0.9999999999999998
 40
0.3713892702233771
 41
0.3948107500097666
 42
2.746781903580048
  0
ELLIPSE
  5
4AE1
330
1A
100
AcDbEntity
  8
SEIHIN
  6
Continuous
 62
     3
 48
5.0
100
AcDbEllipse
 10
400.7593025423453
 20
414.0202482654663
 30
0.0
 11
1.869305082199413E-5
 21
3.249999999946242
 31
0.0
210
0.0
220
0.0
230
-0.9999999999999998
 40
0.3713892702233771
 41
-1.176005207095129
 42
4.317597860684977
  0
ELLIPSE
  5
4AE2
330
1A
100
AcDbEntity
  8
SEIHIN
  6
Continuous
 62
     3
 48
5.0
100
AcDbEllipse
 10
397.6024351492364
 20
414.0202664228456
 30
0.0
 11
-1.207858668498096E-5
 21
-2.099999999965287
 31
0.0
210
0.0
220
0.0
230
-0.9999999999999999
 40
0.3713892701560806
 41
-0.9332344061757263
 42
-0.6375968203481589
  0
ELLIPSE
  5
4AE3
330
1A
100
AcDbEntity
  8
SEIHIN
  6
Continuous
 62
     3
 48
5.0
100
AcDbEllipse
 10
397.6024351492364
 20
414.0202664228456
 30
0.0
 11
-1.207858668498096E-5
 21
-2.099999999965287
 31
0.0
210
0.0
220
0.0
230
-0.9999999999999999
 40
0.3713892701560806
 41
-2.503995833241604
 42
-2.20835824741411
  0
ELLIPSE
  5
4AE4
330
1A
100
AcDbEntity
  8
SEIHIN
  6
Continuous
 62
     3
 48
5.0
100
AcDbEllipse
 10
398.5309520675197
 20
414.0202610822875
 30
0.0
 11
-1.207858668498096E-5
 21
-2.099999999965287
 31
0.0
210
0.0
220
0.0
230
-0.9999999999999999
 40
0.3713892701560806
 41
-0.9332344061757263
 42
4.074827059765513
  0
ELLIPSE
  5
4AE5
330
1A
100
AcDbEntity
  8
SEIHIN
  6
Continuous
 62
     3
 48
5.0
100
AcDbEllipse
 10
411.1574721555371
 20
394.5201857854399
 30
0.0
 11
0.0
 21
2.100000000001501
 31
0.0
210
0.0
220
0.0
230
1.0
 40
0.3713892703346323
 41
0.0
 42
6.283185307179586
  0
LINE
  5
4AE6
330
1A
100
AcDbEntity
  8
SEIHIN
  6
Continuous
 62
     3
 48
5.0
100
AcDbLine
 10
374.3782360732758
 20
398.520278715001
 30
0.0
 11
320.1077360732759
 21
398.5203787150011
 31
0.0
  0
LINE
  5
4AE7
330
1A
100
AcDbEntity
  8
SEIHIN
  6
Continuous
 62
     3
 48
5.0
100
AcDbLine
 10
308.0282360732758
 20
403.4703787150011
 30
0.0
 11
384.7542360732758
 21
413.3480787150011
 31
0.0
  0
LINE
  5
4AE8
330
1A
100
AcDbEntity
  8
SEIHIN
  6
Continuous
 62
     3
 48
5.0
100
AcDbLine
 10
308.0282360732758
 20
394.5203787150011
 30
0.0
 11
308.0282360732758
 21
403.4703787150011
 31
0.0
  0
LINE
  5
4AE9
330
1A
100
AcDbEntity
  8
SEIHIN
  6
Continuous
 62
     3
 48
5.0
100
AcDbLine
 10
325.0282360732758
 20
398.5204787150011
 30
0.0
 11
325.0282360732758
 21
404.7672787150011
 31
0.0
  0
ARC
  5
4AEA
330
1A
100
AcDbEntity
  8
SEIHIN
  6
Continuous
 62
     3
 48
5.0
100
AcDbCircle
 10
327.4362360732758
 20
391.9578787150011
 30
0.0
 40
9.83738
100
AcDbArc
 50
138.1571219999992
 51
164.9011419999998
  0
LINE
  5
4AEB
330
1A
100
AcDbEntity
  8
SEIHIN
  6
Continuous
 62
     3
 48
5.0
100
AcDbLine
 10
401.538854910983
 20
422.0201771645388
 30
0.0
 11
391.7327360732759
 21
422.020278715001
 31
0.0
  0
LINE
  5
4AEC
330
1A
100
AcDbEntity
  8
SEIHIN
  6
Continuous
 62
     3
 48
5.0
100
AcDbLine
 10
392.9983360732758
 20
406.020278715001
 30
0.0
 11
385.1426360732759
 21
406.020278715001
 31
0.0
  0
LINE
  5
4AED
330
1A
100
AcDbEntity
  8
SEIHIN
  6
Continuous
 62
     3
 48
5.0
100
AcDbLine
 10
402.0455360732758
 20
403.0201787150011
 30
0.0
 11
385.1433360732758
 21
403.020278715001
 31
0.0
  0
LINE
  5
4AEE
330
1A
100
AcDbEntity
  8
SEIHIN
  6
Continuous
 62
     3
 48
5.0
100
AcDbLine
 10
404.3294360732758
 20
398.520278715001
 30
0.0
 11
379.3782360732758
 21
398.520278715001
 31
0.0
  0
ARC
  5
4AEF
330
1A
100
AcDbEntity
  8
SEIHIN
  6
Continuous
 62
     3
 48
5.0
100
AcDbCircle
 10
384.8468360732759
 20
421.426078715001
 30
0.0
 40
7.999992
100
AcDbArc
 50
277.3359960000004
 51
0.0
  0
ARC
  5
4AF0
330
1A
100
AcDbEntity
  8
SEIHIN
  6
Continuous
 62
     3
 48
5.0
100
AcDbCircle
 10
383.7327360732759
 20
421.2825787150011
 30
0.0
 40
7.999992
100
AcDbArc
 50
277.3359960000004
 51
0.0
  0
LINE
  5
4AF1
330
1A
100
AcDbEntity
  8
SEIHIN
  6
Continuous
 62
     3
 48
5.0
100
AcDbLine
 10
389.1328360732758
 20
403.0201787150011
 30
0.0
 11
389.1328360732758
 21
398.520278715001
 31
0.0
  0
ARC
  5
4AF2
330
1A
100
AcDbEntity
  8
SEIHIN
  6
Continuous
 62
     3
 48
5.0
100
AcDbCircle
 10
394.7379360732758
 20
394.3645787150011
 30
0.0
 40
7.038541
100
AcDbArc
 50
143.8132500000003
 51
178.7324499999998
  0
LINE
  5
4AF3
330
1A
100
AcDbEntity
  8
SEIHIN
  6
Continuous
 62
     3
 48
5.0
100
AcDbLine
 10
389.1328360732758
 20
414.020278715001
 30
0.0
 11
389.1328360732758
 21
406.0201787150011
 31
0.0
  0
ARC
  5
4AF4
330
1A
100
AcDbEntity
  8
SEIHIN
  6
Continuous
 62
     3
 48
5.0
100
AcDbCircle
 10
385.7517360732759
 20
404.5204787150011
 30
0.0
 40
1.618846
100
AcDbArc
 50
112.0794239999998
 51
247.9251860000001
  0
ARC
  5
4AF5
330
1A
100
AcDbEntity
  8
SEIHIN
  6
Continuous
 62
     3
 48
5.0
100
AcDbCircle
 10
389.1328360732758
 20
404.520278715001
 30
0.0
 40
1.5
100
AcDbArc
 50
90.0
 51
270.0
  0
LINE
  5
4AF6
330
1A
100
AcDbEntity
  8
SEIHIN
  6
Continuous
 62
     3
 48
5.0
100
AcDbLine
 10
391.7327360732759
 20
422.020278715001
 30
0.0
 11
391.7327360732759
 21
421.2825787150011
 31
0.0
  0
LINE
  5
4AF7
330
1A
100
AcDbEntity
  8
CENTER L
  6
CENTER
 62
     1
 48
5.0
100
AcDbLine
 10
400.7593334700444
 20
419.397381356413
 30
0.0
 11
400.7592716146461
 21
408.6431151745197
 31
0.0
  0
LINE
  5
4AF8
330
1A
100
AcDbEntity
  8
CENTER L
  6
CENTER
 62
     1
 48
5.0
100
AcDbLine
 10
398.5309823770024
 20
419.2899102127497
 30
0.0
 11
398.5309217580368
 21
408.7506119518253
 31
0.0
  0
LINE
  5
4AF9
330
1A
100
AcDbEntity
  8
SEIHIN
  6
Continuous
 62
     3
 48
5.0
100
AcDbLine
 10
411.9799540913147
 20
402.2700787150011
 30
0.0
 11
401.5388540913147
 21
422.0201787150011
 31
0.0
  0
ARC
  5
4AFA
330
1A
100
AcDbEntity
  8
SEIHIN
  6
Continuous
 62
     3
 48
5.0
100
AcDbCircle
 10
402.0672360732758
 20
394.3220787150011
 30
0.0
 40
4.768785
100
AcDbArc
 50
2.777687000000334
 51
61.68248100000072
  0
LINE
  5
4AFB
330
1A
100
AcDbEntity
  8
CENTER L
  6
CENTER
 62
     1
 48
5.0
100
AcDbLine
 10
404.1120456985925
 20
414.0202289814669
 30
0.0
 11
396.6845062642576
 21
414.0202717025045
 31
0.0
  0
LINE
  5
4AFC
330
1A
100
AcDbEntity
  8
SEIHIN
  6
Continuous
 62
     3
 48
5.0
100
AcDbLine
 10
402.2483360732758
 20
406.0201787150011
 30
0.0
 11
396.5113360732759
 21
406.020278715001
 31
0.0
  0
LINE
  5
4AFD
330
1A
100
AcDbEntity
  8
SEIHIN
  6
Continuous
 62
     3
 48
5.0
100
AcDbLine
 10
399.6451275420587
 20
412.7702546738548
 30
0.0
 11
398.229130158796
 21
412.7702628182582
 31
0.0
  0
ARC
  5
4AFE
330
1A
100
AcDbEntity
  8
SEIHIN
  6
Continuous
 62
     3
 48
5.0
100
AcDbCircle
 10
396.5114360732758
 20
408.020278715001
 30
0.0
 40
2.000026
100
AcDbArc
 50
220.9107750000003
 51
269.9971350000003
  0
ARC
  5
4AFF
330
1A
100
AcDbEntity
  8
SEIHIN
  6
Continuous
 62
     3
 48
5.0
100
AcDbCircle
 10
393.1976360732758
 20
408.4848787150011
 30
0.0
 40
0.200028
100
AcDbArc
 50
40.90572600000049
 51
180.0
  0
LINE
  5
4B00
330
1A
100
AcDbEntity
  8
SEIHIN
  6
Continuous
 62
     3
 48
5.0
100
AcDbLine
 10
393.3488360732758
 20
408.6158787150011
 30
0.0
 11
394.9999360732759
 21
406.7104787150011
 31
0.0
  0
LINE
  5
4B01
330
1A
100
AcDbEntity
  8
SEIHIN
  6
Continuous
 62
     3
 48
5.0
100
AcDbLine
 10
392.9976360732759
 20
406.020278715001
 30
0.0
 11
392.9976360732759
 21
408.4848787150011
 31
0.0
  0
ARC
  5
4B02
330
1A
100
AcDbEntity
  8
SEIHIN
  6
Continuous
 62
     3
 48
5.0
100
AcDbCircle
 10
401.6668360732758
 20
404.5526787150011
 30
0.0
 40
1.578567
100
AcDbArc
 50
283.8689899999995
 51
68.38394799999912
  0
CIRCLE
  5
4B03
330
1A
100
AcDbEntity
  8
SEIHIN
  6
Continuous
 62
     3
 48
5.0
100
AcDbCircle
 10
412.457334600801
 20
394.5201857854399
 30
0.0
 40
0.0
  0
ARC
  5
4B04
330
1A
100
AcDbEntity
  8
SEIHIN
  6
Continuous
 62
     3
 48
5.0
100
AcDbCircle
 10
395.0732540913147
 20
393.7736787150011
 30
0.0
 40
18.921499
100
AcDbArc
 50
2.261042999999649
 51
26.68178300000001
  0
LINE
  5
4B05
330
1A
100
AcDbEntity
  8
SEIHIN
  6
Continuous
 62
     3
 48
5.0
100
AcDbLine
 10
399.6451419213286
 20
415.2702546738135
 30
0.0
 11
398.2291445380658
 21
415.2702628182169
 31
0.0
  0
LINE
  5
4B06
330
1A
100
AcDbEntity
  8
SEIHIN
  6
Continuous
 62
     3
 48
5.0
100
AcDbLine
 10
392.8468360732759
 20
422.020278715001
 30
0.0
 11
392.8468360732759
 21
421.426078715001
 31
0.0
  0
LEADER
  5
4B07
330
1A
100
AcDbEntity
  8
SUNPOU
  6
Continuous
 62
     4
100
AcDbLeader
  3
STANDARD
 40
6.0
 41
31.2
 76
     3
 10
531.8263526026502
 20
287.9017813868246
 30
0.0
 10
505.8499035066311
 20
319.1456475347839
 30
0.0
 10
504.9587418351557
 20
319.1456475347839
 30
0.0
1001
ACAD
1000
DSTYLE
1002
{
1070
     6
1000
OPEN
1070
    41
1040
7.0
1070
    42
1040
6.0
1070
    43
1040
14.0
1070
    44
1040
3.0
1070
    73
1070
     0
1070
    74
1070
     0
1070
    77
1070
     3
1070
   140
1040
6.0
1070
   141
1040
150.0
1070
   147
1040
2.0
1070
   172
1070
     1
1070
   173
1070
     1
1070
   176
1070
     4
1070
   177
1070
     4
1070
   178
1070
     4
1070
   271
1070
     0
1070
   272
1070
     2
1070
   288
1070
     1
1070
   341
1005
6D
1070
   343
1005
6D
1070
   344
1005
6D
1002
}
  0
DIMENSION
  5
4B08
330
1A
100
AcDbEntity
  8
SUNPOU
 48
5.0
100
AcDbDimension
  2
*D10
 10
505.4132594671151
 20
275.5608043867998
 30
0.0
 11
505.3950037459538
 21
289.0701869937353
 31
0.0
 70
    32
 71
     5
 42
25.10009973621044
  3
STANDARD
100
AcDbAlignedDimension
 13
526.5627889517873
 23
311.0533814081892
 33
0.0
 14
529.1629394070681
 24
285.0599986436902
 34
0.0
 50
111.8000000000005
100
AcDbRotatedDimension
1001
ACAD
1000
DSTYLE
1002
{
1070
   140
1040
6.0
1070
    74
1070
     0
1070
   172
1070
     1
1070
    73
1070
     0
1070
   272
1070
     2
1070
    77
1070
     3
1070
   173
1070
     1
1070
   147
1040
2.0
1070
    42
1040
6.0
1070
    44
1040
3.0
1070
    43
1040
14.0
1070
   271
1070
     0
1070
   178
1070
     4
1070
   177
1070
     4
1070
   176
1070
     4
1070
   141
1040
150.0
1070
     7
1000
_OPEN
1070
     6
1000
_OPEN
1070
    41
1040
7.0
1002
}
  0
DIMENSION
  5
4B09
330
1A
100
AcDbEntity
  8
SUNPOU
 48
5.0
100
AcDbDimension
  2
*D11
 10
604.7733427950449
 20
308.7321761662684
 30
0.0
 11
603.6224191173936
 21
325.0734306896418
 31
0.0
 70
    32
 71
     5
 42
31.20007850691721
  3
STANDARD
100
AcDbAlignedDimension
 13
559.0598889517871
 23
324.0512814081893
 33
0.0
 14
577.4205761906236
 24
297.7918500610021
 34
0.0
 50
111.8000000000005
100
AcDbRotatedDimension
1001
ACAD
1000
DSTYLE
1002
{
1070
   140
1040
6.0
1070
    74
1070
     0
1070
   172
1070
     1
1070
    73
1070
     0
1070
   272
1070
     2
1070
    77
1070
     3
1070
   173
1070
     1
1070
   147
1040
2.0
1070
    42
1040
6.0
1070
    44
1040
3.0
1070
    43
1040
14.0
1070
   271
1070
     0
1070
   178
1070
     4
1070
   177
1070
     4
1070
   176
1070
     4
1070
   141
1040
150.0
1070
     7
1000
_OPEN
1070
     6
1000
_OPEN
1070
    41
1040
7.0
1002
}
  0
DIMENSION
  5
4B0A
330
1A
100
AcDbEntity
  8
SUNPOU
 48
5.0
100
AcDbDimension
  2
*D12
 10
552.5969706781553
 20
367.1370982747577
 30
0.0
 11
525.2067854251096
 21
361.566917596699
 31
0.0
 70
    32
 71
     5
 42
54.99996949026024
  3
STANDARD
100
AcDbAlignedDimension
 13
520.9916889517873
 23
298.0548814081893
 33
0.0
 14
572.0583889517874
 24
318.4800814081892
 34
0.0
 50
21.79999999999975
100
AcDbRotatedDimension
1001
ACAD
1000
DSTYLE
1002
{
1070
   140
1040
6.0
1070
    74
1070
     0
1070
   172
1070
     1
1070
    73
1070
     0
1070
   272
1070
     2
1070
    77
1070
     3
1070
   173
1070
     1
1070
   147
1040
2.0
1070
    42
1040
6.0
1070
    44
1040
3.0
1070
    43
1040
14.0
1070
   271
1070
     0
1070
   178
1070
     4
1070
   177
1070
     4
1070
   176
1070
     4
1070
   141
1040
150.0
1070
     7
1000
_OPEN
1070
     6
1000
_OPEN
1070
    41
1040
7.0
1002
}
  0
DIMENSION
  5
4B0B
330
1A
100
AcDbEntity
  8
SUNPOU
 48
5.0
100
AcDbDimension
  2
*D13
 10
552.9749888544829
 20
344.6501415087258
 30
0.0
 11
533.0126439331684
 21
342.0508850030633
 31
0.0
 70
    32
 71
     5
 42
39.00006918659324
  3
STANDARD
100
AcDbAlignedDimension
 13
533.6037747535356
 23
288.0642731788727
 33
0.0
 14
569.8147747535357
 24
302.5476731788729
 34
0.0
 50
21.79999999999975
100
AcDbRotatedDimension
1001
ACAD
1000
DSTYLE
1002
{
1070
   140
1040
6.0
1070
    74
1070
     0
1070
   172
1070
     1
1070
    73
1070
     0
1070
   272
1070
     2
1070
    77
1070
     3
1070
   173
1070
     1
1070
   147
1040
2.0
1070
    42
1040
6.0
1070
    44
1040
3.0
1070
    43
1040
14.0
1070
   271
1070
     0
1070
   178
1070
     4
1070
   177
1070
     4
1070
   176
1070
     4
1070
   141
1040
150.0
1070
     7
1000
_OPEN
1070
     6
1000
_OPEN
1070
    41
1040
7.0
1002
}
  0
LINE
  5
4B0C
330
1A
100
AcDbEntity
  8
SEIHIN
  6
Continuous
 62
     3
 48
5.0
100
AcDbLine
 10
570.1916394070679
 20
298.2392986436901
 30
0.0
 11
569.704239407068
 21
299.45799864369
 31
0.0
  0
ARC
  5
4B0D
330
1A
100
AcDbEntity
  8
SEIHIN
  6
Continuous
 62
     3
 48
5.0
100
AcDbCircle
 10
560.8233889517871
 20
299.446581408189
 30
0.0
 40
1.499954
100
AcDbArc
 50
201.7985720000004
 51
21.79857199999966
  0
LINE
  5
4B0E
330
1A
100
AcDbEntity
  8
SEIHIN
  6
Continuous
 62
     3
 48
5.0
100
AcDbLine
 10
572.0583817930449
 20
318.4800826969586
 30
0.0
 11
580.5999010016529
 21
297.1248346721774
 31
0.0
  0
LINE
  5
4B0F
330
1A
100
AcDbEntity
  8
SEIHIN
  6
Continuous
 62
     3
 48
5.0
100
AcDbLine
 10
533.5979889517873
 20
302.3463814081893
 30
0.0
 11
537.7212889517875
 21
298.2229814081892
 31
0.0
  0
LINE
  5
4B10
330
1A
100
AcDbEntity
  8
SEIHIN
  6
Continuous
 62
     3
 48
5.0
100
AcDbLine
 10
526.5626889517873
 20
305.6682814081892
 30
0.0
 11
520.9916889517873
 21
298.0548814081893
 31
0.0
  0
ARC
  5
4B11
330
1A
100
AcDbEntity
  8
SEIHIN
  6
Continuous
 62
     3
 48
5.0
100
AcDbCircle
 10
572.5035761906233
 20
295.8251500610019
 30
0.0
 40
3.250066
100
AcDbArc
 50
134.4203429999999
 51
89.18020999999949
  0
LINE
  5
4B12
330
1A
100
AcDbEntity
  8
SEIHIN
  6
Continuous
 62
     3
 48
5.0
100
AcDbLine
 10
546.5252889517871
 20
319.0377814081892
 30
0.0
 11
559.8944889517874
 21
285.6122814081892
 31
0.0
  0
LINE
  5
4B13
330
1A
100
AcDbEntity
  8
SEIHIN
  6
Continuous
 62
     3
 48
5.0
100
AcDbLine
 10
534.9191889517872
 20
314.3956814081894
 30
0.0
 11
543.6462889517873
 21
292.5762814081891
 31
0.0
  0
LINE
  5
4B14
330
1A
100
AcDbEntity
  8
SEIHIN
  6
Continuous
 62
     3
 48
5.0
100
AcDbLine
 10
539.097388951787
 20
316.0668814081892
 30
0.0
 11
552.4666889517871
 21
282.6413814081892
 31
0.0
  0
LINE
  5
4B15
330
1A
100
AcDbEntity
  8
CENTER L
  6
CENTER
 62
     1
 48
5.0
100
AcDbLine
 10
568.5159394070683
 20
305.79499864369
 30
0.0
 11
574.5892394070684
 21
290.61039864369
 31
0.0
  0
LINE
  5
4B16
330
1A
100
AcDbEntity
  8
CENTER L
  6
CENTER
 62
     1
 48
5.0
100
AcDbLine
 10
540.5947889517877
 20
323.0942814081892
 30
0.0
 11
569.6283889517872
 21
250.5049814081892
 31
0.0
  0
DIMENSION
  5
4B17
330
1A
100
AcDbEntity
  8
SUNPOU
 48
5.0
100
AcDbDimension
  2
*D14
 10
530.6584703865801
 20
241.0693935910801
 30
0.0
 11
543.4709919030901
 21
222.4995445774513
 31
0.0
 70
    32
 71
     5
 42
7.500056424088598
  3
STANDARD
100
AcDbAlignedDimension
 13
560.3669183574095
 23
261.0296535196891
 33
0.0
 14
567.5075157017633
 24
255.8079601955519
 34
0.0
 50
111.8000000000005
100
AcDbRotatedDimension
1001
ACAD
1000
DSTYLE
1002
{
1070
   140
1040
6.0
1070
    74
1070
     0
1070
   172
1070
     1
1070
    73
1070
     0
1070
   272
1070
     2
1070
    77
1070
     3
1070
   173
1070
     1
1070
   147
1040
2.0
1070
    42
1040
6.0
1070
    44
1040
3.0
1070
    43
1040
14.0
1070
   271
1070
     1
1070
   178
1070
     4
1070
   177
1070
     4
1070
   176
1070
     4
1070
   141
1040
150.0
1070
     7
1000
_OPEN
1070
     6
1000
_OPEN
1070
    41
1040
7.0
1002
}
  0
ARC
  5
4B18
330
1A
100
AcDbEntity
  8
SEIHIN
  6
Continuous
 62
     3
 48
5.0
100
AcDbCircle
 10
556.1805889517872
 20
284.126781408189
 30
0.0
 40
3.999952
100
AcDbArc
 50
201.7992819999998
 51
291.8006119999996
  0
ARC
  5
4B19
330
1A
100
AcDbEntity
  8
SEIHIN
  6
Continuous
 62
     3
 48
5.0
100
AcDbCircle
 10
561.9368026235132
 20
269.7352472263783
 30
0.0
 40
14.999998
100
AcDbArc
 50
230.9606699999994
 51
291.7999200000006
  0
LINE
  5
4B1A
330
1A
100
AcDbEntity
  8
SEIHIN
  6
PHANTOM
 62
     6
 48
5.0
100
AcDbLine
 10
427.3425842200634
 20
248.4940353264304
 30
0.0
 11
448.9800217323345
 21
194.4002057133147
 31
0.0
  0
LINE
  5
4B1B
330
1A
100
AcDbEntity
  8
SEIHIN
  6
PHANTOM
 62
     6
 48
5.0
100
AcDbLine
 10
447.5872827884563
 20
193.8431101357634
 30
0.0
 11
427.9757458746203
 21
242.8721399882531
 31
0.0
  0
LINE
  5
4B1C
330
1A
100
AcDbEntity
  8
SUNPOU
 48
5.0
100
AcDbLine
 10
431.8016525042244
 20
149.8462430225616
 30
0.0
 11
431.8016525042245
 21
129.8462430225617
 31
0.0
  0
TEXT
  5
4B1D
330
1A
100
AcDbEntity
  8
SUNPOU
 48
5.0
100
AcDbText
 10
433.8846722257126
 20
119.0650749838974
 30
0.0
 40
6.0
  1
4
100
AcDbText
  0
LINE
  5
4B1E
330
1A
100
AcDbEntity
  8
SUNPOU
 48
5.0
100
AcDbLine
 10
431.8016525042244
 20
129.8462430225617
 30
0.0
 11
439.8016876431524
 21
129.8462430225617
 31
0.0
  0
LINE
  5
4B1F
330
1A
100
AcDbEntity
  8
CENTER L
  6
CENTER
 62
     1
 48
5.0
100
AcDbLine
 10
440.0568078396338
 20
199.0273904858487
 30
0.0
 11
450.6945078396338
 21
203.2819904858487
 31
0.0
  0
LINE
  5
4B20
330
1A
100
AcDbEntity
  8
SEIHIN
  6
PHANTOM
 62
     6
 48
5.0
100
AcDbLine
 10
447.5872833868914
 20
193.8431103751374
 30
0.0
 11
448.9800217323345
 21
194.4002057133147
 31
0.0
  0
LINE
  5
4B21
330
1A
100
AcDbEntity
  8
CENTER L
  6
CENTER
 62
     1
 48
5.0
100
AcDbLine
 10
440.3803078396338
 20
229.3132904858487
 30
0.0
 11
428.7888078396338
 21
224.6770904858487
 31
0.0
  0
LINE
  5
4B22
330
1A
100
AcDbEntity
  8
CENTER L
  6
CENTER
 62
     1
 48
5.0
100
AcDbLine
 10
426.6056078396337
 20
230.2659904858487
 30
0.0
 11
438.1701078396338
 21
234.8914904858487
 31
0.0
  0
LINE
  5
4B23
330
1A
100
AcDbEntity
  8
SEIHIN
  6
Continuous
 62
     3
 48
5.0
100
AcDbLine
 10
520.9916944885345
 20
298.0548889747788
 30
0.0
 11
529.5331152970736
 21
276.6996369492887
 31
0.0
  0
LINE
  5
4B24
330
1A
100
AcDbEntity
  8
SEIHIN
  6
Continuous
 62
     3
 48
5.0
100
AcDbLine
 10
529.5331026235131
 20
276.6996472263784
 30
0.0
 11
552.4891026235132
 21
258.0844472263782
 31
0.0
  0
LINE
  5
4B25
330
1A
100
AcDbEntity
  8
CENTER L
  6
CENTER
 62
     1
 48
5.0
100
AcDbLine
 10
540.9354761906232
 20
283.1989500610022
 30
0.0
 11
531.3754761906232
 21
279.3751500610022
 31
0.0
  0
LINE
  5
4B26
330
1A
100
AcDbEntity
  8
SEIHIN
  6
Continuous
 62
     3
 48
5.0
100
AcDbLine
 10
538.8281889517875
 20
296.5442814081893
 30
0.0
 11
540.8608889517873
 21
291.462181408189
 31
0.0
  0
ARC
  5
4B27
330
1A
100
AcDbEntity
  8
SEIHIN
  6
Continuous
 62
     3
 48
5.0
100
AcDbCircle
 10
534.0272394070681
 20
287.0056986436903
 30
0.0
 40
2.099991
100
AcDbArc
 50
328.3277919999994
 51
255.2689349999997
  0
LINE
  5
4B28
330
1A
100
AcDbEntity
  8
CENTER L
  6
CENTER
 62
     1
 48
5.0
100
AcDbLine
 10
529.1629394070681
 20
285.0599986436902
 30
0.0
 11
538.6701394070681
 21
288.8626986436902
 31
0.0
  0
LINE
  5
4B29
330
1A
100
AcDbEntity
  8
CENTER L
  6
CENTER
 62
     1
 48
5.0
100
AcDbLine
 10
532.3049394070681
 20
291.3115986436901
 30
0.0
 11
538.3783394070684
 21
276.1270986436903
 31
0.0
  0
LINE
  5
4B2A
330
1A
100
AcDbEntity
  8
SEIHIN
  6
Continuous
 62
     3
 48
5.0
100
AcDbLine
 10
533.9807394070684
 20
283.7559986436902
 30
0.0
 11
533.4932394070679
 21
284.9745986436901
 31
0.0
  0
LINE
  5
4B2B
330
1A
100
AcDbEntity
  8
SEIHIN
  6
Continuous
 62
     3
 48
5.0
100
AcDbLine
 10
536.3019394070685
 20
284.6843986436903
 30
0.0
 11
535.8144394070681
 21
285.90309864369
 31
0.0
  0
ARC
  5
4B2C
330
1A
100
AcDbEntity
  8
SEIHIN
  6
Continuous
 62
     3
 48
5.0
100
AcDbCircle
 10
536.2925761906232
 20
281.3418500610021
 30
0.0
 40
3.250031
100
AcDbArc
 50
134.4190839999997
 51
89.18020999999949
  0
ARC
  5
4B2D
330
1A
100
AcDbEntity
  8
SEIHIN
  6
Continuous
 62
     3
 48
5.0
100
AcDbCircle
 10
534.1856889517871
 20
294.6874814081892
 30
0.0
 40
5.000037
100
AcDbArc
 50
21.79928199999982
 51
44.99918999999996
  0
ARC
  5
4B2E
330
1A
100
AcDbEntity
  8
SEIHIN
  6
Continuous
 62
     3
 48
5.0
100
AcDbCircle
 10
542.2535889517872
 20
292.019281408189
 30
0.0
 40
1.500019
100
AcDbArc
 50
201.8021190000003
 51
21.79715400000025
  0
MTEXT
  5
4B2F
330
1A
100
AcDbEntity
  8
SUNPOU
  6
Continuous
 62
     4
100
AcDbMText
 10
595.1509707650062
 20
275.2043661650494
 30
0.0
 40
6.0
 41
0.0
 71
     7
 72
     5
  1
2-φ6.5
 73
     1
 44
1.0
  0
LEADER
  5
4B30
330
1A
100
AcDbEntity
  8
SUNPOU
  6
Continuous
 62
     4
100
AcDbLeader
  3
STANDARD
 74
     0
 40
6.0
 41
31.2
 76
     3
 10
575.6133416035129
 20
294.8805400456245
 30
0.0
 10
591.6922159183068
 20
273.2043661650494
 30
0.0
 10
593.1509707650062
 20
273.2043661650494
 30
0.0
1001
ACAD
1000
DSTYLE
1002
{
1070
     6
1000
OPEN
1070
    41
1040
7.0
1070
    42
1040
6.0
1070
    43
1040
14.0
1070
    44
1040
3.0
1070
    73
1070
     0
1070
    74
1070
     0
1070
    77
1070
     3
1070
   140
1040
6.0
1070
   141
1040
150.0
1070
   147
1040
2.0
1070
   172
1070
     1
1070
   173
1070
     1
1070
   176
1070
     4
1070
   177
1070
     4
1070
   178
1070
     4
1070
   271
1070
     0
1070
   272
1070
     2
1070
   288
1070
     1
1070
   341
1005
6D
1070
   343
1005
6D
1070
   344
1005
6D
1002
}
  0
LINE
  5
4B31
330
1A
100
AcDbEntity
  8
SEIHIN
  6
Continuous
 62
     3
 48
5.0
100
AcDbLine
 10
580.5999026235131
 20
297.1248472263782
 30
0.0
 11
576.8132026235131
 21
267.8134472263781
 31
0.0
  0
ARC
  5
4B32
330
1A
100
AcDbEntity
  8
SEIHIN
  6
Continuous
 62
     3
 48
5.0
100
AcDbCircle
 10
561.9368026235132
 20
269.7352472263783
 30
0.0
 40
14.999963
100
AcDbArc
 50
291.7999200000006
 51
352.6389929999996
  0
CIRCLE
  5
4B33
330
1A
100
AcDbEntity
  8
SEIHIN
  6
Continuous
 62
     3
 48
5.0
100
AcDbCircle
 10
564.7219991547662
 20
262.7715458389847
 30
0.0
 40
2.1
  0
LINE
  5
4B34
330
1A
100
AcDbEntity
  8
CENTER L
  6
CENTER
 62
     1
 48
5.0
100
AcDbLine
 10
569.0772991547661
 20
264.5135458389847
 30
0.0
 11
560.3215855762817
 21
261.0114212399491
 31
0.0
  0
LINE
  5
4B35
330
1A
100
AcDbEntity
  8
CENTER L
  6
CENTER
 62
     1
 48
5.0
100
AcDbLine
 10
567.8606761906232
 20
293.968150061002
 30
0.0
 11
577.4205761906236
 21
297.7918500610021
 31
0.0
  0
ARC
  5
4B36
330
1A
100
AcDbEntity
  8
SEIHIN
  6
Continuous
 62
     3
 48
5.0
100
AcDbCircle
 10
556.1805889517872
 20
284.126781408189
 30
0.0
 40
3.99997
100
AcDbArc
 50
291.8006119999996
 51
21.80061200000031
  0
LINE
  5
4B37
330
1A
100
AcDbEntity
  8
SEIHIN
  6
Continuous
 62
     3
 48
5.0
100
AcDbLine
 10
553.4889889517874
 20
321.822981408189
 30
0.0
 11
557.2025889517875
 21
312.5381814081891
 31
0.0
  0
LINE
  5
4B38
330
1A
100
AcDbEntity
  8
SEIHIN
  6
Continuous
 62
     3
 48
5.0
100
AcDbLine
 10
550.7034889517872
 20
320.7088814081889
 30
0.0
 11
559.4306889517873
 21
298.8894814081889
 31
0.0
  0
LINE
  5
4B39
330
1A
100
AcDbEntity
  8
SEIHIN
  6
Continuous
 62
     3
 48
5.0
100
AcDbLine
 10
559.0598889517871
 20
324.0512814081893
 30
0.0
 11
542.8113889517874
 21
317.5522814081892
 31
0.0
  0
MTEXT
  5
4B3A
330
1A
100
AcDbEntity
  8
SUNPOU
  6
Continuous
 62
     4
100
AcDbMText
 10
502.9587418351557
 20
321.1456475347839
 30
0.0
 40
6.0
 41
0.0
 71
     9
 72
     5
  1
3-φ4.2
 73
     1
 44
1.0
  0
ARC
  5
4B3B
330
1A
100
AcDbEntity
  8
SEIHIN
  6
Continuous
 62
     3
 48
5.0
100
AcDbCircle
 10
552.0962889517875
 20
321.2659814081889
 30
0.0
 40
1.500019
100
AcDbArc
 50
201.7971540000002
 51
21.80211900000034
  0
ARC
  5
4B3C
330
1A
100
AcDbEntity
  8
SEIHIN
  6
Continuous
 62
     3
 48
5.0
100
AcDbCircle
 10
542.2542889517873
 20
318.945081408189
 30
0.0
 40
4.00005
100
AcDbArc
 50
231.8010200000007
 51
291.8000799999998
  0
LINE
  5
4B3D
330
1A
100
AcDbEntity
  8
SEIHIN
  6
Continuous
 62
     3
 48
5.0
100
AcDbLine
 10
526.5627889517873
 20
311.0533814081892
 30
0.0
 11
542.8113889517874
 21
317.5522814081892
 31
0.0
  0
LINE
  5
4B3E
330
1A
100
AcDbEntity
  8
SEIHIN
  6
Continuous
 62
     3
 48
5.0
100
AcDbLine
 10
532.1336889517875
 20
313.2815814081892
 30
0.0
 11
535.8473889517873
 21
303.9966814081892
 31
0.0
  0
ARC
  5
4B3F
330
1A
100
AcDbEntity
  8
SEIHIN
  6
Continuous
 62
     3
 48
5.0
100
AcDbCircle
 10
527.3055889517871
 20
309.1963814081891
 30
0.0
 40
2.000032
100
AcDbArc
 50
111.801408999999
 51
201.7987499999996
  0
LINE
  5
4B40
330
1A
100
AcDbEntity
  8
SEIHIN
  6
Continuous
 62
     3
 48
5.0
100
AcDbLine
 10
525.4484889517873
 20
308.4536814081892
 30
0.0
 11
526.5626889517873
 21
305.6682814081892
 31
0.0
  0
ARC
  5
4B41
330
1A
100
AcDbEntity
  8
SEIHIN
  6
Continuous
 62
     3
 48
5.0
100
AcDbCircle
 10
533.9515889517874
 20
302.6999814081891
 30
0.0
 40
0.499962
100
AcDbArc
 50
111.7928969999991
 51
225.0081029999999
  0
LINE
  5
4B42
330
1A
100
AcDbEntity
  8
SEIHIN
  6
Continuous
 62
     3
 48
5.0
100
AcDbLine
 10
533.7658889517873
 20
303.1641814081891
 30
0.0
 11
535.8473889517873
 21
303.9966814081892
 31
0.0
  0
ARC
  5
4B43
330
1A
100
AcDbEntity
  8
SEIHIN
  6
Continuous
 62
     3
 48
5.0
100
AcDbCircle
 10
539.1622889517872
 20
315.0157814081891
 30
0.0
 40
0.9999879999999999
100
AcDbArc
 50
51.79836200000037
 51
111.801408999999
  0
ARC
  5
4B44
330
1A
100
AcDbEntity
  8
SEIHIN
  6
Continuous
 62
     3
 48
5.0
100
AcDbCircle
 10
533.5263889517872
 20
313.838681408189
 30
0.0
 40
1.499973
100
AcDbArc
 50
201.7985720000004
 51
21.80211900000034
  0
ARC
  5
4B45
330
1A
100
AcDbEntity
  8
SEIHIN
  6
Continuous
 62
     3
 48
5.0
100
AcDbCircle
 10
547.2031889517873
 20
318.2318814081891
 30
0.0
 40
1.000029
100
AcDbArc
 50
111.801408999999
 51
171.7961640000001
  0
ARC
  5
4B46
330
1A
100
AcDbEntity
  8
SEIHIN
  6
Continuous
 62
     3
 48
5.0
100
AcDbCircle
 10
542.2542889517873
 20
318.945081408189
 30
0.0
 40
4.000028
100
AcDbArc
 50
291.8000799999998
 51
351.800213
  0
LINE
  5
4B47
330
1A
100
AcDbEntity
  8
SEIHIN
  6
Continuous
 62
     3
 48
5.0
100
AcDbLine
 10
561.6595889517872
 20
322.9369814081891
 30
0.0
 11
562.7736889517873
 21
320.151581408189
 31
0.0
  0
LINE
  5
4B48
330
1A
100
AcDbEntity
  8
CENTER L
  6
CENTER
 62
     1
 48
5.0
100
AcDbLine
 10
575.1025394070682
 20
303.43449864369
 30
0.0
 11
565.5953394070682
 21
299.6318986436903
 31
0.0
  0
LINE
  5
4B49
330
1A
100
AcDbEntity
  8
SEIHIN
  6
Continuous
 62
     3
 48
5.0
100
AcDbLine
 10
559.9696889517873
 20
312.894181408189
 30
0.0
 11
559.8272889517875
 21
307.0646814081892
 31
0.0
  0
ARC
  5
4B4A
330
1A
100
AcDbEntity
  8
SEIHIN
  6
Continuous
 62
     3
 48
5.0
100
AcDbCircle
 10
564.8257889517874
 20
306.9426814081891
 30
0.0
 40
5.000039
100
AcDbArc
 50
178.601841
 51
201.800346
  0
LINE
  5
4B4B
330
1A
100
AcDbEntity
  8
SEIHIN
  6
Continuous
 62
     3
 48
5.0
100
AcDbLine
 10
560.1833889517873
 20
305.0857814081892
 30
0.0
 11
562.2160889517872
 21
300.0035814081892
 31
0.0
  0
LINE
  5
4B4C
330
1A
100
AcDbEntity
  8
SEIHIN
  6
Continuous
 62
     3
 48
5.0
100
AcDbLine
 10
572.5129394070685
 20
299.1676986436904
 30
0.0
 11
572.0254394070681
 21
300.3863986436901
 31
0.0
  0
ARC
  5
4B4D
330
1A
100
AcDbEntity
  8
SEIHIN
  6
Continuous
 62
     3
 48
5.0
100
AcDbCircle
 10
570.2381394070683
 20
301.4889986436902
 30
0.0
 40
2.100021
100
AcDbArc
 50
328.3292239999996
 51
255.2715739999991
  0
LINE
  5
4B4E
330
1A
100
AcDbEntity
  8
SEIHIN
  6
Continuous
 62
     3
 48
5.0
100
AcDbLine
 10
562.7736889517873
 20
320.151581408189
 30
0.0
 11
572.0583889517874
 21
318.4800814081892
 31
0.0
  0
ARC
  5
4B4F
330
1A
100
AcDbEntity
  8
SEIHIN
  6
Continuous
 62
     3
 48
5.0
100
AcDbCircle
 10
559.4697889517873
 20
312.9063814081891
 30
0.0
 40
0.500054
100
AcDbArc
 50
358.6019810000001
 51
111.7992820000006
  0
LINE
  5
4B50
330
1A
100
AcDbEntity
  8
SEIHIN
  6
Continuous
 62
     3
 48
5.0
100
AcDbLine
 10
559.284088951787
 20
313.3706814081891
 30
0.0
 11
557.2025889517875
 21
312.5381814081891
 31
0.0
  0
ARC
  5
4B51
330
1A
100
AcDbEntity
  8
SEIHIN
  6
Continuous
 62
     3
 48
5.0
100
AcDbCircle
 10
559.8025889517875
 20
322.1942814081892
 30
0.0
 40
2.000032
100
AcDbArc
 50
21.80140900000007
 51
111.7987499999996
  0
VIEWPORT
  5
22
330
17
100
AcDbEntity
 67
     1
  8
0
100
AcDbViewport
 10
313.6808219178082
 20
286.420032064001
 30
0.0
 40
627.3616438356164
 41
572.840064128002
 68
     2
 69
     1
 12
313.6808219178082
 22
286.420032064001
 13
0.0
 23
0.0
 14
1.0
 24
1.0
 15
10.0
 25
10.0
 16
0.0
 26
0.0
 36
1.0
 17
0.0
 27
0.0
 37
0.0
 42
50.0
 43
0.0
 44
0.0
 45
572.840064128002
 50
0.0
 51
0.0
 72
   100
 90
    32768
  1

281
     0
 71
     1
 74
     0
110
0.0
120
0.0
130
0.0
111
1.0
121
0.0
131
0.0
112
0.0
122
1.0
132
0.0
 79
     0
146
0.0
  0
VIEWPORT
  5
64
330
17
100
AcDbEntity
 67
     1
  8
VIEWPORT
100
AcDbViewport
 10
210.0
 20
148.5
 30
0.0
 40
420.0
 41
297.0
 68
     1
 69
     2
 12
420.0
 22
297.0
 13
0.0
 23
0.0
 14
10.0
 24
10.0
 15
0.0
 25
0.0
 16
0.0
 26
0.0
 36
1.0
 17
0.0
 27
0.0
 37
0.0
 42
50.0
 43
0.0
 44
0.0
 45
605.8799999999999
 50
0.0
 51
0.0
 72
   100
 90
    32768
  1

281
     0
 71
     1
 74
     0
110
0.0
120
0.0
130
0.0
111
1.0
121
0.0
131
0.0
112
0.0
122
1.0
132
0.0
 79
     0
146
0.0
  0
ENDSEC
  0
SECTION
  2
OBJECTS
  0
DICTIONARY
  5
C
330
0
100
AcDbDictionary
281
     1
  3
ACAD_GROUP
350
D
  3
ACAD_LAYOUT
350
A98
  3
ACAD_MLINESTYLE
350
E
  3
ACAD_PLOTSETTINGS
350
A99
  3
ACAD_PLOTSTYLENAME
350
A96
  0
DICTIONARY
  5
D
102
{ACAD_REACTORS
330
C
102
}
330
C
100
AcDbDictionary
281
     1
  3
*A1
350
FA3
  3
*A2
350
1597
  3
*A3
350
179D
  3
*A4
350
3390
  3
*A5
350
3A0A
  0
DICTIONARY
  5
A98
102
{ACAD_REACTORS
330
C
102
}
330
C
100
AcDbDictionary
281
     1
  3
Model
350
A9A
  3
ﾚｲｱｳﾄ1
350
A9B
  0
DICTIONARY
  5
E
102
{ACAD_REACTORS
330
C
102
}
330
C
100
AcDbDictionary
281
     1
  3
STANDARD
350
13
  0
DICTIONARY
  5
A99
102
{ACAD_REACTORS
330
C
102
}
330
C
100
AcDbDictionary
281
     1
  0
ACDBDICTIONARYWDFLT
  5
A96
102
{ACAD_REACTORS
330
C
102
}
330
C
100
AcDbDictionary
281
     1
  3
Normal
350
A97
100
AcDbDictionaryWithDefault
340
A97
1001
ACAD
1000
TREAT_AS_HARD
1070
     0
1000
TREAT_AS_HARD
1070
     0
1000
TREAT_AS_HARD
1070
     0
1000
TREAT_AS_HARD
1070
     0
  0
GROUP
  5
FA3
102
{ACAD_REACTORS
330
D
102
}
330
D
100
AcDbGroup
300

 70
     1
 71
     1
  0
GROUP
  5
1597
102
{ACAD_REACTORS
330
D
102
}
330
D
100
AcDbGroup
300

 70
     1
 71
     1
  0
GROUP
  5
179D
102
{ACAD_REACTORS
330
D
102
}
330
D
100
AcDbGroup
300

 70
     1
 71
     1
  0
GROUP
  5
3390
102
{ACAD_REACTORS
330
D
102
}
330
D
100
AcDbGroup
300

 70
     1
 71
     1
  0
GROUP
  5
3A0A
102
{ACAD_REACTORS
330
D
102
}
330
D
100
AcDbGroup
300

 70
     1
 71
     1
  0
LAYOUT
  5
A9A
102
{ACAD_REACTORS
330
A98
102
}
330
A98
100
AcDbPlotSettings
  1

  2
Adobe PDF
  4
A3
  6

 40
3.174999952316284
 41
3.174999952316284
 42
3.17498779296875
 43
3.17498779296875
 44
297.0318298339844
 45
420.1583251953125
 46
2.64
 47
-3.03
 48
-30.37808463137117
 49
-9.508643755999856
140
809.3414212246753
141
561.3143319732021
142
1.0
143
2.0
 70
 28340
 72
     1
 73
     1
 74
     4
  7
systemprinter.ctb
 75
    17
147
0.5
148
30.37808463137117
149
9.508643755999856
100
AcDbLayout
  1
Model
 70
     1
 71
     0
 10
0.0
 20
0.0
 11
12.0
 21
9.0
 12
0.0
 22
0.0
 32
0.0
 14
0.0
 24
0.0
 34
0.0
 15
0.0
 25
0.0
 35
0.0
146
0.0
 13
0.0
 23
0.0
 33
0.0
 16
1.0
 26
0.0
 36
0.0
 17
0.0
 27
1.0
 37
0.0
 76
     0
330
1A
  0
LAYOUT
  5
A9B
102
{ACAD_REACTORS
330
A98
102
}
330
A98
100
AcDbPlotSettings
  1

  2
C:\PROGRAM FILES\ACAD LT 2000\plotters\DWF ePlot.pc3
  4
ANSI_A_(8.50_x_11.00_Inches)
  6

 40
5.793749809265137
 41
17.79375076293945
 42
5.793746948242188
 43
17.79376220703125
 44
215.8999938964844
 45
279.3999938964844
 46
0.0
 47
0.0
 48
0.0
 49
0.0
140
0.0
141
0.0
142
1.0
143
43.75760864458461
 70
   688
 72
     0
 73
     1
 74
     1
  7
systemprinter.ctb
 75
     0
147
0.0228531684197454
148
0.3255366854427166
149
0.2302009418498301
100
AcDbLayout
  1
ﾚｲｱｳﾄ1
 70
     1
 71
     1
 10
-30.66685116754002
 20
-9.990190459854741
 11
450.6668334081172
 21
361.9494725043409
 12
0.0
 22
0.0
 32
0.0
 14
-0.0128164049386896
 24
-0.0090630292066862
 34
-0.0015258207003583
 15
420.0128183607162
 25
297.0090644122207
 35
0.0000000349246037
146
0.0
 13
0.0
 23
0.0
 33
0.0
 16
1.0
 26
0.0
 36
0.0
 17
0.0
 27
1.0
 37
0.0
 76
     0
330
17
331
64
  0
MLINESTYLE
  5
13
102
{ACAD_REACTORS
330
E
102
}
330
E
100
AcDbMlineStyle
  2
STANDARD
 70
     0
  3

 62
     0
 51
90.0
 52
90.0
 71
     2
 49
0.5
 62
   256
  6
BYLAYER
 49
-0.5
 62
   256
  6
BYLAYER
  0
ACDBPLACEHOLDER
  5
A97
102
{ACAD_REACTORS
330
A96
102
}
330
A96
  0
ENDSEC
  0
EOF
