  0
SECTION
  2
HEADER
  9
$ACADVER
  1
AC1014
  9
$ACADMAINTVER
 70
     9
  9
$DWGCODEPAGE
  3
ANSI_932
  9
$INSBASE
 10
0.0
 20
0.0
 30
0.0
  9
$EXTMIN
 10
-0.0128164049386896
 20
-0.0090632934355881
 30
-0.0015258207003583
  9
$EXTMAX
 10
398.8000497813338
 20
275.8226172251617
 30
0.0000000349246037
  9
$LIMMIN
 10
0.0
 20
0.0
  9
$LIMMAX
 10
420.0
 20
297.0
  9
$ORTHOMODE
 70
     1
  9
$REGENMODE
 70
     1
  9
$FILLMODE
 70
     1
  9
$QTEXTMODE
 70
     0
  9
$MIRRTEXT
 70
     1
  9
$DRAGMODE
 70
     2
  9
$LTSCALE
 40
1.0
  9
$OSMODE
 70
    37
  9
$ATTMODE
 70
     1
  9
$TEXTSIZE
 40
2.5
  9
$TRACEWID
 40
1.0
  9
$TEXTSTYLE
  7
STANDARD
  9
$CLAYER
  8
SUNPOU
  9
$CELTYPE
  6
BYLAYER
  9
$CECOLOR
 62
   256
  9
$CELTSCALE
 40
1.0
  9
$DELOBJ
 70
     1
  9
$DISPSILH
 70
     0
  9
$DIMSCALE
 40
1.0
  9
$DIMASZ
 40
3.0
  9
$DIMEXO
 40
3.0
  9
$DIMDLI
 40
7.0
  9
$DIMRND
 40
0.0
  9
$DIMDLE
 40
0.0
  9
$DIMEXE
 40
1.5
  9
$DIMTP
 40
0.0
  9
$DIMTM
 40
0.0
  9
$DIMTXT
 40
3.0
  9
$DIMCEN
 40
150.0
  9
$DIMTSZ
 40
0.0
  9
$DIMTOL
 70
     0
  9
$DIMLIM
 70
     0
  9
$DIMTIH
 70
     0
  9
$DIMTOH
 70
     0
  9
$DIMSE1
 70
     0
  9
$DIMSE2
 70
     0
  9
$DIMTAD
 70
     3
  9
$DIMZIN
 70
     0
  9
$DIMBLK
  1

  9
$DIMASO
 70
     1
  9
$DIMSHO
 70
     1
  9
$DIMPOST
  1

  9
$DIMAPOST
  1

  9
$DIMALT
 70
     0
  9
$DIMALTD
 70
     2
  9
$DIMALTF
 40
25.4
  9
$DIMLFAC
 40
1.0
  9
$DIMTOFL
 70
     1
  9
$DIMTVP
 40
0.0
  9
$DIMTIX
 70
     0
  9
$DIMSOXD
 70
     0
  9
$DIMSAH
 70
     1
  9
$DIMBLK1
  1
OPEN
  9
$DIMBLK2
  1
OPEN
  9
$DIMSTYLE
  2
STANDARD
  9
$DIMCLRD
 70
   256
  9
$DIMCLRE
 70
   256
  9
$DIMCLRT
 70
   256
  9
$DIMTFAC
 40
1.0
  9
$DIMGAP
 40
1.0
  9
$DIMJUST
 70
     0
  9
$DIMSD1
 70
     0
  9
$DIMSD2
 70
     0
  9
$DIMTOLJ
 70
     1
  9
$DIMTZIN
 70
     0
  9
$DIMALTZ
 70
     0
  9
$DIMALTTZ
 70
     0
  9
$DIMFIT
 70
     3
  9
$DIMUPT
 70
     0
  9
$DIMUNIT
 70
     2
  9
$DIMDEC
 70
     0
  9
$DIMTDEC
 70
     0
  9
$DIMALTU
 70
     2
  9
$DIMALTTD
 70
     2
  9
$DIMTXSTY
  7
STANDARD
  9
$DIMAUNIT
 70
     0
  9
$LUNITS
 70
     2
  9
$LUPREC
 70
     4
  9
$SKETCHINC
 40
1.0
  9
$FILLETRAD
 40
10.0
  9
$AUNITS
 70
     0
  9
$AUPREC
 70
     0
  9
$MENU
  1
.
  9
$ELEVATION
 40
0.0
  9
$PELEVATION
 40
0.0
  9
$THICKNESS
 40
0.0
  9
$LIMCHECK
 70
     0
  9
$BLIPMODE
 70
     0
  9
$CHAMFERA
 40
10.0
  9
$CHAMFERB
 40
10.0
  9
$CHAMFERC
 40
20.0
  9
$CHAMFERD
 40
0.0
  9
$SKPOLY
 70
     0
  9
$TDCREATE
 40
2450994.350997107
  9
$TDUPDATE
 40
2454515.381879016
  9
$TDINDWG
 40
0.0271158565
  9
$TDUSRTIMER
 40
0.0271158565
  9
$USRTIMER
 70
     1
  9
$ANGBASE
 50
0.0
  9
$ANGDIR
 70
     0
  9
$PDMODE
 70
     1
  9
$PDSIZE
 40
0.0
  9
$PLINEWID
 40
0.0
  9
$COORDS
 70
     2
  9
$SPLFRAME
 70
     0
  9
$SPLINETYPE
 70
     6
  9
$SPLINESEGS
 70
     8
  9
$ATTDIA
 70
     0
  9
$ATTREQ
 70
     1
  9
$HANDLING
 70
 10241
  9
$HANDSEED
  5
B49
  9
$SURFTAB1
 70
     6
  9
$SURFTAB2
 70
     6
  9
$SURFTYPE
 70
     6
  9
$SURFU
 70
     6
  9
$SURFV
 70
     6
  9
$UCSNAME
  2

  9
$UCSORG
 10
0.0
 20
0.0
 30
0.0
  9
$UCSXDIR
 10
1.0
 20
0.0
 30
0.0
  9
$UCSYDIR
 10
0.0
 20
1.0
 30
0.0
  9
$PUCSNAME
  2

  9
$PUCSORG
 10
0.0
 20
0.0
 30
0.0
  9
$PUCSXDIR
 10
1.0
 20
0.0
 30
0.0
  9
$PUCSYDIR
 10
0.0
 20
1.0
 30
0.0
  9
$USERI1
 70
     0
  9
$USERI2
 70
     0
  9
$USERI3
 70
     0
  9
$USERI4
 70
     0
  9
$USERI5
 70
     0
  9
$USERR1
 40
0.0
  9
$USERR2
 40
0.0
  9
$USERR3
 40
0.0
  9
$USERR4
 40
0.0
  9
$USERR5
 40
0.0
  9
$WORLDVIEW
 70
     1
  9
$SHADEDGE
 70
     3
  9
$SHADEDIF
 70
    70
  9
$TILEMODE
 70
     1
  9
$MAXACTVP
 70
    16
  9
$PINSBASE
 10
0.0
 20
0.0
 30
0.0
  9
$PLIMCHECK
 70
     0
  9
$PEXTMIN
 10
0.0
 20
0.0
 30
0.0
  9
$PEXTMAX
 10
420.0
 20
297.0
 30
0.0
  9
$PLIMMIN
 10
0.0
 20
0.0
  9
$PLIMMAX
 10
420.0
 20
297.0
  9
$UNITMODE
 70
     0
  9
$VISRETAIN
 70
     0
  9
$PLINEGEN
 70
     0
  9
$PSLTSCALE
 70
     1
  9
$TREEDEPTH
 70
  3020
  9
$PICKSTYLE
 70
     1
  9
$CMLSTYLE
  2
STANDARD
  9
$CMLJUST
 70
     0
  9
$CMLSCALE
 40
1.0
  9
$PROXYGRAPHICS
 70
     1
  9
$MEASUREMENT
 70
     1
  0
ENDSEC
  0
SECTION
  2
CLASSES
  0
CLASS
  1
ACDBDICTIONARYWDFLT
  2
AcDbDictionaryWithDefault
  3
AutoCAD 2000
 90
        0
280
     0
281
     0
  0
CLASS
  1
ACDBPLACEHOLDER
  2
AcDbPlaceHolder
  3
AutoCAD 2000
 90
        0
280
     0
281
     0
  0
CLASS
  1
LAYOUT
  2
AcDbLayout
  3
AutoCAD 2000
 90
        0
280
     0
281
     0
  0
CLASS
  1
LONG_TRANSACTION
  2
AcDbLongTransaction
  3
AutoCAD 2000
 90
        0
280
     0
281
     0
  0
CLASS
  1
LWPOLYLINE
  2
AcDbPolyline
  3
AutoCAD 2000
 90
        0
280
     0
281
     1
  0
CLASS
  1
HATCH
  2
AcDbHatch
  3
AutoCAD 2000
 90
        0
280
     0
281
     1
  0
CLASS
  1
XRECORD
  2
AcDbXrecord
  3
AutoCAD 2000
 90
        0
280
     0
281
     0
  0
CLASS
  1
LONG_TRANSACTION
  2
AcDbLongTransaction
  3
AutoCAD 2000
 90
        0
280
     0
281
     0
  0
CLASS
  1
LWPOLYLINE
  2
AcDbPolyline
  3
AutoCAD 2000
 90
        0
280
     0
281
     1
  0
CLASS
  1
HATCH
  2
AcDbHatch
  3
AutoCAD 2000
 90
        0
280
     0
281
     1
  0
CLASS
  1
XRECORD
  2
AcDbXrecord
  3
AutoCAD 2000
 90
        0
280
     0
281
     0
  0
CLASS
  1
LONG_TRANSACTION
  2
AcDbLongTransaction
  3
AutoCAD 2000
 90
        0
280
     0
281
     0
  0
CLASS
  1
LWPOLYLINE
  2
AcDbPolyline
  3
AutoCAD 2000
 90
        0
280
     0
281
     1
  0
CLASS
  1
HATCH
  2
AcDbHatch
  3
AutoCAD 2000
 90
        0
280
     0
281
     1
  0
CLASS
  1
XRECORD
  2
AcDbXrecord
  3
AutoCAD 2000
 90
        0
280
     0
281
     0
  0
ENDSEC
  0
SECTION
  2
TABLES
  0
TABLE
  2
VPORT
  5
8
330
0
100
AcDbSymbolTable
 70
     2
  0
VPORT
  5
B25
330
8
100
AcDbSymbolTableRecord
100
AcDbViewportTableRecord
  2
*ACTIVE
 70
     0
 10
0.0
 20
0.0
 11
1.0
 21
1.0
 12
203.0259757540952
 22
151.3115186352686
 13
0.0
 23
0.0
 14
5.0
 24
5.0
 15
0.0
 25
0.0
 16
0.0
 26
0.0
 36
1.0
 17
0.0
 27
0.0
 37
0.0
 40
341.7271742747256
 41
1.570153061224489
 42
50.0
 43
0.0
 44
0.0
 50
0.0
 51
0.0
 71
     0
 72
   100
 73
     1
 74
     0
 75
     0
 76
     0
 77
     0
 78
     0
  0
ENDTAB
  0
TABLE
  2
LTYPE
  5
5
330
0
100
AcDbSymbolTable
 70
     3
  0
LTYPE
  5
14
330
5
100
AcDbSymbolTableRecord
100
AcDbLinetypeTableRecord
  2
BYBLOCK
 70
     0
  3

 72
    65
 73
     0
 40
0.0
  0
LTYPE
  5
15
330
5
100
AcDbSymbolTableRecord
100
AcDbLinetypeTableRecord
  2
BYLAYER
 70
     0
  3

 72
    65
 73
     0
 40
0.0
  0
LTYPE
  5
16
330
5
100
AcDbSymbolTableRecord
100
AcDbLinetypeTableRecord
  2
CONTINUOUS
 70
     0
  3
Solid line
 72
    65
 73
     0
 40
0.0
  0
LTYPE
  5
120
330
5
100
AcDbSymbolTableRecord
100
AcDbLinetypeTableRecord
  2
CENTER
 70
     0
  3
____ _ ____ _ ____ _ ____ _ ____ _ ____ _ ____ 
 72
    65
 73
     4
 40
2.0
 49
1.25
 74
     0
 49
-0.25
 74
     0
 49
0.25
 74
     0
 49
-0.25
 74
     0
  0
LTYPE
  5
521
330
5
100
AcDbSymbolTableRecord
100
AcDbLinetypeTableRecord
  2
PHANTOM
 70
     0
  3
______  __  __  ______  __  __  ______  __  __ 
 72
    65
 73
     6
 40
2.5
 49
1.25
 74
     0
 49
-0.25
 74
     0
 49
0.25
 74
     0
 49
-0.25
 74
     0
 49
0.25
 74
     0
 49
-0.25
 74
     0
  0
ENDTAB
  0
TABLE
  2
LAYER
  5
2
330
0
100
AcDbSymbolTable
 70
     9
  0
LAYER
  5
F
330
2
100
AcDbSymbolTableRecord
100
AcDbLayerTableRecord
  2
0
 70
     0
 62
     7
  6
CONTINUOUS
  0
LAYER
  5
62
330
2
100
AcDbSymbolTableRecord
100
AcDbLayerTableRecord
  2
VIEWPORT
 70
     0
 62
     7
  6
CONTINUOUS
  0
LAYER
  5
6B
330
2
100
AcDbSymbolTableRecord
100
AcDbLayerTableRecord
  2
ZUWAKU
 70
     0
 62
     7
  6
CONTINUOUS
  0
LAYER
  5
14F
330
2
100
AcDbSymbolTableRecord
100
AcDbLayerTableRecord
  2
SEIHIN
 70
     0
 62
     3
  6
CONTINUOUS
  0
LAYER
  5
150
330
2
100
AcDbSymbolTableRecord
100
AcDbLayerTableRecord
  2
SUNPOU
 70
     0
 62
     4
  6
CONTINUOUS
  0
LAYER
  5
151
330
2
100
AcDbSymbolTableRecord
100
AcDbLayerTableRecord
  2
CENTER_L
 70
     0
 62
     1
  6
CENTER
  0
LAYER
  5
380
330
2
100
AcDbSymbolTableRecord
100
AcDbLayerTableRecord
  2
DEFPOINTS
 70
     0
 62
     7
  6
CONTINUOUS
  0
LAYER
  5
522
330
2
100
AcDbSymbolTableRecord
100
AcDbLayerTableRecord
  2
NOKITOI
 70
     0
 62
     8
  6
PHANTOM
  0
LAYER
  5
9AF
330
2
100
AcDbSymbolTableRecord
100
AcDbLayerTableRecord
  2
MOJI
 70
     0
 62
     2
  6
CONTINUOUS
  0
ENDTAB
  0
TABLE
  2
STYLE
  5
3
330
0
100
AcDbSymbolTable
 70
     2
  0
STYLE
  5
10
330
3
100
AcDbSymbolTableRecord
100
AcDbTextStyleTableRecord
  2
STANDARD
 70
     0
 40
0.0
 41
1.0
 50
0.0
 71
     0
 42
2.5
  3
TXT
  4
bigfont.shx
  0
STYLE
  5
9B0
330
3
100
AcDbSymbolTableRecord
100
AcDbTextStyleTableRecord
  2
ｽﾀｲﾙ1
 70
     0
 40
0.0
 41
1.0
 50
0.0
 71
     0
 42
2.5
  3
MS PGothic.ttf
  4

1001
ACAD
1000
MS PGothic
1071
    32818
  0
ENDTAB
  0
TABLE
  2
VIEW
  5
6
330
0
100
AcDbSymbolTable
 70
     0
  0
ENDTAB
  0
TABLE
  2
UCS
  5
7
330
0
100
AcDbSymbolTable
 70
     0
  0
ENDTAB
  0
TABLE
  2
APPID
  5
9
330
0
100
AcDbSymbolTable
 70
     1
  0
APPID
  5
11
330
9
100
AcDbSymbolTableRecord
100
AcDbRegAppTableRecord
  2
ACAD
 70
     0
  0
ENDTAB
  0
TABLE
  2
DIMSTYLE
  5
A
330
0
100
AcDbSymbolTable
 70
     1
  0
DIMSTYLE
105
1D
102
{ACAD_REACTORS
330
37F
330
38D
330
39C
330
3B6
330
3C3
330
3D2
330
3E9
330
3F7
330
40D
330
41A
330
427
330
436
330
46F
330
47C
330
649
330
660
330
7B0
330
7BD
102
}
330
A
100
AcDbSymbolTableRecord
100
AcDbDimStyleTableRecord
  2
STANDARD
 70
     0
  3

  4

  5

  6

  7

 40
1.0
 41
0.18
 42
0.0625
 43
0.38
 44
0.18
 45
0.0
 46
0.0
 47
0.0
 48
0.0
140
0.18
141
0.09
142
0.0
143
25.4
144
1.0
145
0.0
146
1.0
147
0.09
 71
     0
 72
     0
 73
     1
 74
     1
 75
     0
 76
     0
 77
     0
 78
     0
170
     0
171
     2
172
     0
173
     0
174
     0
175
     0
176
     0
177
     0
178
     0
270
     2
271
     4
272
     4
273
     2
274
     2
340
10
275
     0
280
     0
281
     0
282
     0
283
     1
284
     0
285
     0
286
     0
287
     3
288
     0
  0
ENDTAB
  0
TABLE
  2
BLOCK_RECORD
  5
1
330
0
100
AcDbSymbolTable
 70
    19
  0
BLOCK_RECORD
  5
1A
102
{ACAD_XDICTIONARY
360
8C7
102
}
330
1
100
AcDbSymbolTableRecord
100
AcDbBlockTableRecord
  2
*MODEL_SPACE
  0
BLOCK_RECORD
  5
17
102
{ACAD_XDICTIONARY
360
8C5
102
}
330
1
100
AcDbSymbolTableRecord
100
AcDbBlockTableRecord
  2
*PAPER_SPACE
  0
BLOCK_RECORD
  5
B2
330
1
100
AcDbSymbolTableRecord
100
AcDbBlockTableRecord
  2
_OPEN
  0
BLOCK_RECORD
  5
381
330
1
100
AcDbSymbolTableRecord
100
AcDbBlockTableRecord
  2
*D1
  0
BLOCK_RECORD
  5
38E
330
1
100
AcDbSymbolTableRecord
100
AcDbBlockTableRecord
  2
*D2
  0
BLOCK_RECORD
  5
39D
330
1
100
AcDbSymbolTableRecord
100
AcDbBlockTableRecord
  2
*D3
  0
BLOCK_RECORD
  5
3B7
330
1
100
AcDbSymbolTableRecord
100
AcDbBlockTableRecord
  2
*D4
  0
BLOCK_RECORD
  5
3C4
330
1
100
AcDbSymbolTableRecord
100
AcDbBlockTableRecord
  2
*D5
  0
BLOCK_RECORD
  5
3D3
330
1
100
AcDbSymbolTableRecord
100
AcDbBlockTableRecord
  2
*D6
  0
BLOCK_RECORD
  5
3EA
330
1
100
AcDbSymbolTableRecord
100
AcDbBlockTableRecord
  2
*D7
  0
BLOCK_RECORD
  5
3F8
330
1
100
AcDbSymbolTableRecord
100
AcDbBlockTableRecord
  2
*D8
  0
BLOCK_RECORD
  5
40E
330
1
100
AcDbSymbolTableRecord
100
AcDbBlockTableRecord
  2
*D9
  0
BLOCK_RECORD
  5
41B
330
1
100
AcDbSymbolTableRecord
100
AcDbBlockTableRecord
  2
*D10
  0
BLOCK_RECORD
  5
428
330
1
100
AcDbSymbolTableRecord
100
AcDbBlockTableRecord
  2
*D11
  0
BLOCK_RECORD
  5
437
330
1
100
AcDbSymbolTableRecord
100
AcDbBlockTableRecord
  2
*D12
  0
BLOCK_RECORD
  5
470
330
1
100
AcDbSymbolTableRecord
100
AcDbBlockTableRecord
  2
*D13
  0
BLOCK_RECORD
  5
47D
330
1
100
AcDbSymbolTableRecord
100
AcDbBlockTableRecord
  2
*D14
  0
BLOCK_RECORD
  5
64A
330
1
100
AcDbSymbolTableRecord
100
AcDbBlockTableRecord
  2
*D15
  0
BLOCK_RECORD
  5
661
330
1
100
AcDbSymbolTableRecord
100
AcDbBlockTableRecord
  2
*D16
  0
BLOCK_RECORD
  5
7B1
330
1
100
AcDbSymbolTableRecord
100
AcDbBlockTableRecord
  2
*D17
  0
BLOCK_RECORD
  5
7BE
330
1
100
AcDbSymbolTableRecord
100
AcDbBlockTableRecord
  2
*D18
  0
ENDTAB
  0
ENDSEC
  0
SECTION
  2
BLOCKS
  0
BLOCK
  5
1B
330
1A
100
AcDbEntity
  8
0
100
AcDbBlockBegin
  2
*MODEL_SPACE
 70
     0
 10
0.0
 20
0.0
 30
0.0
  3
*MODEL_SPACE
  1

  0
ENDBLK
  5
1C
330
1A
100
AcDbEntity
  8
0
100
AcDbBlockEnd
  0
BLOCK
  5
18
330
17
100
AcDbEntity
 67
     1
  8
0
100
AcDbBlockBegin
  2
*PAPER_SPACE
 70
     0
 10
0.0
 20
0.0
 30
0.0
  3
*PAPER_SPACE
  1

  0
ENDBLK
  5
19
330
17
100
AcDbEntity
 67
     1
  8
0
100
AcDbBlockEnd
  0
BLOCK
  5
B3
330
B2
100
AcDbEntity
  8
0
100
AcDbBlockBegin
  2
_OPEN
 70
     0
 10
0.0
 20
0.0
 30
0.0
  3
_OPEN
  1

  0
LINE
  5
B4
330
B2
100
AcDbEntity
  8
0
  6
BYBLOCK
 62
     0
100
AcDbLine
 10
-1.0
 20
0.1666666666666666
 30
0.0
 11
0.0
 21
0.0
 31
0.0
  0
LINE
  5
B5
330
B2
100
AcDbEntity
  8
0
  6
BYBLOCK
 62
     0
100
AcDbLine
 10
0.0
 20
0.0
 30
0.0
 11
-1.0
 21
-0.1666666666666666
 31
0.0
  0
LINE
  5
B6
330
B2
100
AcDbEntity
  8
0
  6
BYBLOCK
 62
     0
100
AcDbLine
 10
0.0
 20
0.0
 30
0.0
 11
-1.0
 21
0.0
 31
0.0
  0
ENDBLK
  5
B7
330
B2
100
AcDbEntity
  8
0
100
AcDbBlockEnd
  0
BLOCK
  5
38B
330
381
100
AcDbEntity
  8
0
100
AcDbBlockBegin
  2
*D1
 70
     1
 10
0.0
 20
0.0
 30
0.0
  3
*D1
  1

  0
LINE
  5
8CF
330
381
100
AcDbEntity
  8
SUNPOU
 62
     4
100
AcDbLine
 10
207.5083097259227
 20
117.5470835979407
 30
0.0
 11
228.3749720740461
 21
117.5470835979407
 31
0.0
  0
LINE
  5
8D0
330
381
100
AcDbEntity
  8
SUNPOU
 62
     4
100
AcDbLine
 10
207.5083097259227
 20
70.54708359794071
 30
0.0
 11
228.3749720740461
 21
70.54708359794069
 31
0.0
  0
LINE
  5
8D1
330
381
100
AcDbEntity
  8
SUNPOU
 62
     4
100
AcDbLine
 10
226.8749720740461
 20
114.5470835979407
 30
0.0
 11
226.8749720740461
 21
73.5470835979407
 31
0.0
  0
INSERT
  5
8D2
330
381
100
AcDbEntity
  8
SUNPOU
 62
     4
100
AcDbBlockReference
  2
_OPEN
 10
226.8749720740461
 20
117.5470835979407
 30
0.0
 41
3.0
 42
3.0
 43
3.0
 50
90.0
  0
INSERT
  5
8D3
330
381
100
AcDbEntity
  8
SUNPOU
 62
     4
100
AcDbBlockReference
  2
_OPEN
 10
226.8749720740461
 20
70.54708359794069
 30
0.0
 41
3.0
 42
3.0
 43
3.0
 50
270.0
  0
MTEXT
  5
8D4
330
381
100
AcDbEntity
  8
SUNPOU
 62
     4
100
AcDbMText
 10
224.374972074046
 20
94.04708359794074
 30
0.0
 40
3.0
 41
0.0
 71
     5
 72
     5
  1
\A1;47
 11
0.0000000000000001
 21
1.0
 31
0.0
1001
ACAD
1000
MTEXTBEGIN
1070
    73
1070
     1
1070
    44
1040
1.0
1070
    74
1070
     0
1000
MTEXTEND
1000
MTEXTBEGIN
1070
    73
1070
     1
1070
    44
1040
1.0
1070
    74
1070
     0
1000
MTEXTEND
  0
POINT
  5
8D5
330
381
100
AcDbEntity
  8
DEFPOINTS
 62
     0
100
AcDbPoint
 10
204.5083097259227
 20
117.5470835979407
 30
0.0
  0
POINT
  5
8D6
330
381
100
AcDbEntity
  8
DEFPOINTS
 62
     0
100
AcDbPoint
 10
204.5083097259227
 20
70.54708359794071
 30
0.0
  0
POINT
  5
8D7
330
381
100
AcDbEntity
  8
DEFPOINTS
 62
     0
100
AcDbPoint
 10
226.8749720740461
 20
70.54708359794069
 30
0.0
  0
ENDBLK
  5
38C
330
381
100
AcDbEntity
  8
0
100
AcDbBlockEnd
  0
BLOCK
  5
39A
330
38E
100
AcDbEntity
  8
0
100
AcDbBlockBegin
  2
*D2
 70
     1
 10
0.0
 20
0.0
 30
0.0
  3
*D2
  1

  0
LINE
  5
8D8
330
38E
100
AcDbEntity
  8
SUNPOU
 62
     4
100
AcDbLine
 10
203.5083097259227
 20
67.54708359794071
 30
0.0
 11
203.5083097259227
 21
50.94230905134179
 31
0.0
  0
LINE
  5
8D9
330
38E
100
AcDbEntity
  8
SUNPOU
 62
     4
100
AcDbLine
 10
204.5083097259227
 20
67.54708359794071
 30
0.0
 11
204.5083097259227
 21
50.94230905134179
 31
0.0
  0
LINE
  5
8DA
330
38E
100
AcDbEntity
  8
SUNPOU
 62
     4
100
AcDbLine
 10
200.5083097259227
 20
52.44230905134179
 30
0.0
 11
197.5083097259227
 21
52.44230905134179
 31
0.0
  0
LINE
  5
8DB
330
38E
100
AcDbEntity
  8
SUNPOU
 62
     4
100
AcDbLine
 10
207.5083097259227
 20
52.44230905134179
 30
0.0
 11
220.0083097259227
 21
52.44230905134179
 31
0.0
  0
LINE
  5
8DC
330
38E
100
AcDbEntity
  8
SUNPOU
 62
     4
100
AcDbLine
 10
203.5083097259227
 20
52.44230905134179
 30
0.0
 11
204.5083097259227
 21
52.44230905134179
 31
0.0
  0
INSERT
  5
8DD
330
38E
100
AcDbEntity
  8
SUNPOU
 62
     4
100
AcDbBlockReference
  2
_OPEN
 10
203.5083097259227
 20
52.44230905134179
 30
0.0
 41
3.0
 42
3.0
 43
3.0
  0
INSERT
  5
8DE
330
38E
100
AcDbEntity
  8
SUNPOU
 62
     4
100
AcDbBlockReference
  2
_OPEN
 10
204.5083097259227
 20
52.44230905134179
 30
0.0
 41
3.0
 42
3.0
 43
3.0
 50
180.0
  0
MTEXT
  5
8DF
330
38E
100
AcDbEntity
  8
SUNPOU
 62
     4
100
AcDbMText
 10
215.2583097259227
 20
54.94230905134179
 30
0.0
 40
3.0
 41
0.0
 71
     5
 72
     5
  1
\A1;t1.0
1001
ACAD
1000
MTEXTBEGIN
1070
    73
1070
     1
1070
    44
1040
1.0
1070
    74
1070
     0
1000
MTEXTEND
1000
MTEXTBEGIN
1070
    73
1070
     1
1070
    44
1040
1.0
1070
    74
1070
     0
1000
MTEXTEND
  0
POINT
  5
8E0
330
38E
100
AcDbEntity
  8
DEFPOINTS
 62
     0
100
AcDbPoint
 10
203.5083097259227
 20
70.54708359794071
 30
0.0
  0
POINT
  5
8E1
330
38E
100
AcDbEntity
  8
DEFPOINTS
 62
     0
100
AcDbPoint
 10
204.5083097259227
 20
70.54708359794071
 30
0.0
  0
POINT
  5
8E2
330
38E
100
AcDbEntity
  8
DEFPOINTS
 62
     0
100
AcDbPoint
 10
204.5083097259227
 20
52.44230905134179
 30
0.0
  0
ENDBLK
  5
39B
330
38E
100
AcDbEntity
  8
0
100
AcDbBlockEnd
  0
BLOCK
  5
3A7
330
39D
100
AcDbEntity
  8
0
100
AcDbBlockBegin
  2
*D3
 70
     1
 10
0.0
 20
0.0
 30
0.0
  3
*D3
  1

  0
LINE
  5
8E3
330
39D
100
AcDbEntity
  8
SUNPOU
 62
     4
100
AcDbLine
 10
204.5083097259227
 20
120.5470835979407
 30
0.0
 11
204.5083097259227
 21
148.9949423698603
 31
0.0
  0
LINE
  5
8E4
330
39D
100
AcDbEntity
  8
SUNPOU
 62
     4
100
AcDbLine
 10
83.50830972592275
 20
109.0470835979407
 30
0.0
 11
83.50830972592275
 21
148.9949423698603
 31
0.0
  0
LINE
  5
8E5
330
39D
100
AcDbEntity
  8
SUNPOU
 62
     4
100
AcDbLine
 10
201.5083097259227
 20
147.4949423698603
 30
0.0
 11
86.50830972592274
 21
147.4949423698603
 31
0.0
  0
INSERT
  5
8E6
330
39D
100
AcDbEntity
  8
SUNPOU
 62
     4
100
AcDbBlockReference
  2
_OPEN
 10
204.5083097259227
 20
147.4949423698603
 30
0.0
 41
3.0
 42
3.0
 43
3.0
  0
INSERT
  5
8E7
330
39D
100
AcDbEntity
  8
SUNPOU
 62
     4
100
AcDbBlockReference
  2
_OPEN
 10
83.50830972592275
 20
147.4949423698603
 30
0.0
 41
3.0
 42
3.0
 43
3.0
 50
180.0
  0
MTEXT
  5
8E8
330
39D
100
AcDbEntity
  8
SUNPOU
 62
     4
100
AcDbMText
 10
144.0083097259227
 20
149.9949423698604
 30
0.0
 40
3.0
 41
0.0
 71
     5
 72
     5
  1
\A1;121
1001
ACAD
1000
MTEXTBEGIN
1070
    73
1070
     1
1070
    44
1040
1.0
1070
    74
1070
     0
1000
MTEXTEND
1000
MTEXTBEGIN
1070
    73
1070
     1
1070
    44
1040
1.0
1070
    74
1070
     0
1000
MTEXTEND
  0
POINT
  5
8E9
330
39D
100
AcDbEntity
  8
DEFPOINTS
 62
     0
100
AcDbPoint
 10
204.5083097259227
 20
117.5470835979407
 30
0.0
  0
POINT
  5
8EA
330
39D
100
AcDbEntity
  8
DEFPOINTS
 62
     0
100
AcDbPoint
 10
83.50830972592275
 20
106.0470835979407
 30
0.0
  0
POINT
  5
8EB
330
39D
100
AcDbEntity
  8
DEFPOINTS
 62
     0
100
AcDbPoint
 10
83.50830972592275
 20
147.4949423698603
 30
0.0
  0
ENDBLK
  5
3A8
330
39D
100
AcDbEntity
  8
0
100
AcDbBlockEnd
  0
BLOCK
  5
3C1
330
3B7
100
AcDbEntity
  8
0
100
AcDbBlockBegin
  2
*D4
 70
     1
 10
0.0
 20
0.0
 30
0.0
  3
*D4
  1

  0
LINE
  5
8EC
330
3B7
100
AcDbEntity
  8
SUNPOU
 62
     4
100
AcDbLine
 10
80.50830972592274
 20
106.0470835979407
 30
0.0
 11
56.12861597703363
 21
106.0470835979407
 31
0.0
  0
LINE
  5
8ED
330
3B7
100
AcDbEntity
  8
SUNPOU
 62
     4
100
AcDbLine
 10
200.5083097259227
 20
70.54708359794071
 30
0.0
 11
56.12861597703362
 21
70.54708359794076
 31
0.0
  0
LINE
  5
8EE
330
3B7
100
AcDbEntity
  8
SUNPOU
 62
     4
100
AcDbLine
 10
57.62861597703363
 20
103.0470835979407
 30
0.0
 11
57.62861597703363
 21
73.54708359794075
 31
0.0
  0
INSERT
  5
8EF
330
3B7
100
AcDbEntity
  8
SUNPOU
 62
     4
100
AcDbBlockReference
  2
_OPEN
 10
57.62861597703363
 20
106.0470835979407
 30
0.0
 41
3.0
 42
3.0
 43
3.0
 50
90.0
  0
INSERT
  5
8F0
330
3B7
100
AcDbEntity
  8
SUNPOU
 62
     4
100
AcDbBlockReference
  2
_OPEN
 10
57.62861597703363
 20
70.54708359794076
 30
0.0
 41
3.0
 42
3.0
 43
3.0
 50
270.0
  0
MTEXT
  5
8F1
330
3B7
100
AcDbEntity
  8
SUNPOU
 62
     4
100
AcDbMText
 10
55.12861597703362
 20
88.29708359794073
 30
0.0
 40
3.0
 41
0.0
 71
     5
 72
     5
  1
\A1;36
 11
0.0000000000000001
 21
1.0
 31
0.0
1001
ACAD
1000
MTEXTBEGIN
1070
    73
1070
     1
1070
    44
1040
1.0
1070
    74
1070
     0
1000
MTEXTEND
1000
MTEXTBEGIN
1070
    73
1070
     1
1070
    44
1040
1.0
1070
    74
1070
     0
1000
MTEXTEND
  0
POINT
  5
8F2
330
3B7
100
AcDbEntity
  8
DEFPOINTS
 62
     0
100
AcDbPoint
 10
83.50830972592275
 20
106.0470835979407
 30
0.0
  0
POINT
  5
8F3
330
3B7
100
AcDbEntity
  8
DEFPOINTS
 62
     0
100
AcDbPoint
 10
203.5083097259227
 20
70.54708359794071
 30
0.0
  0
POINT
  5
8F4
330
3B7
100
AcDbEntity
  8
DEFPOINTS
 62
     0
100
AcDbPoint
 10
57.62861597703363
 20
70.54708359794076
 30
0.0
  0
ENDBLK
  5
3C2
330
3B7
100
AcDbEntity
  8
0
100
AcDbBlockEnd
  0
BLOCK
  5
3D0
330
3C4
100
AcDbEntity
  8
0
100
AcDbBlockBegin
  2
*D5
 70
     1
 10
0.0
 20
0.0
 30
0.0
  3
*D5
  1

  0
LINE
  5
8F5
330
3C4
100
AcDbEntity
  8
SUNPOU
 62
     4
100
AcDbLine
 10
80.50830972592274
 20
106.0470835979407
 30
0.0
 11
64.54418114232385
 21
106.0470835979407
 31
0.0
  0
LINE
  5
8F6
330
3C4
100
AcDbEntity
  8
SUNPOU
 62
     4
100
AcDbLine
 10
81.90830972592271
 20
101.0470835979407
 30
0.0
 11
64.54418114232385
 21
101.0470835979407
 31
0.0
  0
LINE
  5
8F7
330
3C4
100
AcDbEntity
  8
SUNPOU
 62
     4
100
AcDbLine
 10
66.04418114232385
 20
109.0470835979407
 30
0.0
 11
66.04418114232385
 21
112.0470835979407
 31
0.0
  0
LINE
  5
8F8
330
3C4
100
AcDbEntity
  8
SUNPOU
 62
     4
100
AcDbLine
 10
66.04418114232385
 20
98.04708359794071
 30
0.0
 11
66.04418114232384
 21
95.0470835979407
 31
0.0
  0
LINE
  5
8F9
330
3C4
100
AcDbEntity
  8
SUNPOU
 62
     4
100
AcDbLine
 10
66.04418114232385
 20
106.0470835979407
 30
0.0
 11
66.04418114232385
 21
101.0470835979407
 31
0.0
  0
INSERT
  5
8FA
330
3C4
100
AcDbEntity
  8
SUNPOU
 62
     4
100
AcDbBlockReference
  2
_OPEN
 10
66.04418114232385
 20
106.0470835979407
 30
0.0
 41
3.0
 42
3.0
 43
3.0
 50
270.0
  0
INSERT
  5
8FB
330
3C4
100
AcDbEntity
  8
SUNPOU
 62
     4
100
AcDbBlockReference
  2
_OPEN
 10
66.04418114232385
 20
101.0470835979407
 30
0.0
 41
3.0
 42
3.0
 43
3.0
 50
90.0
  0
MTEXT
  5
8FC
330
3C4
100
AcDbEntity
  8
SUNPOU
 62
     4
100
AcDbMText
 10
63.54418114232383
 20
103.5470835979407
 30
0.0
 40
3.0
 41
0.0
 71
     5
 72
     5
  1
\A1;5
 11
0.0000000000000001
 21
1.0
 31
0.0
1001
ACAD
1000
MTEXTBEGIN
1070
    73
1070
     1
1070
    44
1040
1.0
1070
    74
1070
     0
1000
MTEXTEND
1000
MTEXTBEGIN
1070
    73
1070
     1
1070
    44
1040
1.0
1070
    74
1070
     0
1000
MTEXTEND
  0
POINT
  5
8FD
330
3C4
100
AcDbEntity
  8
DEFPOINTS
 62
     0
100
AcDbPoint
 10
83.50830972592275
 20
106.0470835979407
 30
0.0
  0
POINT
  5
8FE
330
3C4
100
AcDbEntity
  8
DEFPOINTS
 62
     0
100
AcDbPoint
 10
84.90830972592272
 20
101.0470835979407
 30
0.0
  0
POINT
  5
8FF
330
3C4
100
AcDbEntity
  8
DEFPOINTS
 62
     0
100
AcDbPoint
 10
66.04418114232385
 20
101.0470835979407
 30
0.0
  0
ENDBLK
  5
3D1
330
3C4
100
AcDbEntity
  8
0
100
AcDbBlockEnd
  0
BLOCK
  5
3DD
330
3D3
100
AcDbEntity
  8
0
100
AcDbBlockBegin
  2
*D6
 70
     1
 10
0.0
 20
0.0
 30
0.0
  3
*D6
  1

  0
LINE
  5
900
330
3D3
100
AcDbEntity
  8
SUNPOU
 62
     4
100
AcDbLine
 10
176.5083685494521
 20
117.5470835979407
 30
0.0
 11
158.9855178978396
 21
117.5470835979407
 31
0.0
  0
LINE
  5
901
330
3D3
100
AcDbEntity
  8
SUNPOU
 62
     4
100
AcDbLine
 10
150.9613097259227
 20
97.54708359794072
 30
0.0
 11
161.9855178978395
 21
97.5470835979407
 31
0.0
  0
LINE
  5
902
330
3D3
100
AcDbEntity
  8
SUNPOU
 62
     4
100
AcDbLine
 10
160.4855178978396
 20
114.5470835979407
 30
0.0
 11
160.4855178978396
 21
100.5470835979406
 31
0.0
  0
INSERT
  5
903
330
3D3
100
AcDbEntity
  8
SUNPOU
 62
     4
100
AcDbBlockReference
  2
_OPEN
 10
160.4855178978396
 20
117.5470835979407
 30
0.0
 41
3.0
 42
3.0
 43
3.0
 50
90.0
  0
INSERT
  5
904
330
3D3
100
AcDbEntity
  8
SUNPOU
 62
     4
100
AcDbBlockReference
  2
_OPEN
 10
160.4855178978396
 20
97.5470835979407
 30
0.0
 41
3.0
 42
3.0
 43
3.0
 50
270.0
  0
MTEXT
  5
905
330
3D3
100
AcDbEntity
  8
SUNPOU
 62
     4
100
AcDbMText
 10
157.9855178978395
 20
107.5470835979407
 30
0.0
 40
3.0
 41
0.0
 71
     5
 72
     5
  1
\A1;20
 11
0.0000000000000001
 21
1.0
 31
0.0
1001
ACAD
1000
MTEXTBEGIN
1070
    73
1070
     1
1070
    44
1040
1.0
1070
    74
1070
     0
1000
MTEXTEND
1000
MTEXTBEGIN
1070
    73
1070
     1
1070
    44
1040
1.0
1070
    74
1070
     0
1000
MTEXTEND
  0
POINT
  5
906
330
3D3
100
AcDbEntity
  8
DEFPOINTS
 62
     0
100
AcDbPoint
 10
179.5083685494521
 20
117.5470835979407
 30
0.0
  0
POINT
  5
907
330
3D3
100
AcDbEntity
  8
DEFPOINTS
 62
     0
100
AcDbPoint
 10
147.9613097259227
 20
97.54708359794072
 30
0.0
  0
POINT
  5
908
330
3D3
100
AcDbEntity
  8
DEFPOINTS
 62
     0
100
AcDbPoint
 10
160.4855178978396
 20
97.5470835979407
 30
0.0
  0
ENDBLK
  5
3DE
330
3D3
100
AcDbEntity
  8
0
100
AcDbBlockEnd
  0
BLOCK
  5
3F4
330
3EA
100
AcDbEntity
  8
0
100
AcDbBlockBegin
  2
*D7
 70
     1
 10
0.0
 20
0.0
 30
0.0
  3
*D7
  1

  0
LINE
  5
909
330
3EA
100
AcDbEntity
  8
SUNPOU
 62
     4
100
AcDbLine
 10
289.5083097259227
 20
120.5470835979407
 30
0.0
 11
289.5083097259227
 21
131.0534790803685
 31
0.0
  0
LINE
  5
90A
330
3EA
100
AcDbEntity
  8
SUNPOU
 62
     4
100
AcDbLine
 10
319.5083097259227
 20
120.5470835979407
 30
0.0
 11
319.5083097259227
 21
131.0534790803685
 31
0.0
  0
LINE
  5
90B
330
3EA
100
AcDbEntity
  8
SUNPOU
 62
     4
100
AcDbLine
 10
292.5083097259227
 20
129.5534790803685
 30
0.0
 11
316.5083097259227
 21
129.5534790803685
 31
0.0
  0
INSERT
  5
90C
330
3EA
100
AcDbEntity
  8
SUNPOU
 62
     4
100
AcDbBlockReference
  2
_OPEN
 10
289.5083097259227
 20
129.5534790803685
 30
0.0
 41
3.0
 42
3.0
 43
3.0
 50
180.0
  0
INSERT
  5
90D
330
3EA
100
AcDbEntity
  8
SUNPOU
 62
     4
100
AcDbBlockReference
  2
_OPEN
 10
319.5083097259227
 20
129.5534790803685
 30
0.0
 41
3.0
 42
3.0
 43
3.0
  0
MTEXT
  5
90E
330
3EA
100
AcDbEntity
  8
SUNPOU
 62
     4
100
AcDbMText
 10
304.5083097259227
 20
132.0534790803685
 30
0.0
 40
3.0
 41
0.0
 71
     5
 72
     5
  1
\A1;30
1001
ACAD
1000
MTEXTBEGIN
1070
    73
1070
     1
1070
    44
1040
1.0
1070
    74
1070
     0
1000
MTEXTEND
1000
MTEXTBEGIN
1070
    73
1070
     1
1070
    44
1040
1.0
1070
    74
1070
     0
1000
MTEXTEND
  0
POINT
  5
90F
330
3EA
100
AcDbEntity
  8
DEFPOINTS
 62
     0
100
AcDbPoint
 10
289.5083097259227
 20
117.5470835979407
 30
0.0
  0
POINT
  5
910
330
3EA
100
AcDbEntity
  8
DEFPOINTS
 62
     0
100
AcDbPoint
 10
319.5083097259227
 20
117.5470835979407
 30
0.0
  0
POINT
  5
911
330
3EA
100
AcDbEntity
  8
DEFPOINTS
 62
     0
100
AcDbPoint
 10
319.5083097259227
 20
129.5534790803685
 30
0.0
  0
ENDBLK
  5
3F5
330
3EA
100
AcDbEntity
  8
0
100
AcDbBlockEnd
  0
BLOCK
  5
402
330
3F8
100
AcDbEntity
  8
0
100
AcDbBlockBegin
  2
*D8
 70
     1
 10
0.0
 20
0.0
 30
0.0
  3
*D8
  1

  0
LINE
  5
912
330
3F8
100
AcDbEntity
  8
SUNPOU
 62
     4
100
AcDbLine
 10
282.0083097259227
 20
110.5470835979407
 30
0.0
 11
282.0083097259227
 21
146.7235336421141
 31
0.0
  0
LINE
  5
913
330
3F8
100
AcDbEntity
  8
SUNPOU
 62
     4
100
AcDbLine
 10
327.0083097259227
 20
110.5470835979407
 30
0.0
 11
327.0083097259227
 21
146.7235336421141
 31
0.0
  0
LINE
  5
914
330
3F8
100
AcDbEntity
  8
SUNPOU
 62
     4
100
AcDbLine
 10
285.0083097259227
 20
145.2235336421141
 30
0.0
 11
324.0083097259227
 21
145.2235336421141
 31
0.0
  0
INSERT
  5
915
330
3F8
100
AcDbEntity
  8
SUNPOU
 62
     4
100
AcDbBlockReference
  2
_OPEN
 10
282.0083097259227
 20
145.2235336421141
 30
0.0
 41
3.0
 42
3.0
 43
3.0
 50
180.0
  0
INSERT
  5
916
330
3F8
100
AcDbEntity
  8
SUNPOU
 62
     4
100
AcDbBlockReference
  2
_OPEN
 10
327.0083097259227
 20
145.2235336421141
 30
0.0
 41
3.0
 42
3.0
 43
3.0
  0
MTEXT
  5
917
330
3F8
100
AcDbEntity
  8
SUNPOU
 62
     4
100
AcDbMText
 10
304.5083097259227
 20
147.7235336421141
 30
0.0
 40
3.0
 41
0.0
 71
     5
 72
     5
  1
\A1;45
1001
ACAD
1000
MTEXTBEGIN
1070
    73
1070
     1
1070
    44
1040
1.0
1070
    74
1070
     0
1000
MTEXTEND
1000
MTEXTBEGIN
1070
    73
1070
     1
1070
    44
1040
1.0
1070
    74
1070
     0
1000
MTEXTEND
  0
POINT
  5
918
330
3F8
100
AcDbEntity
  8
DEFPOINTS
 62
     0
100
AcDbPoint
 10
282.0083097259227
 20
107.5470835979407
 30
0.0
  0
POINT
  5
919
330
3F8
100
AcDbEntity
  8
DEFPOINTS
 62
     0
100
AcDbPoint
 10
327.0083097259227
 20
107.5470835979407
 30
0.0
  0
POINT
  5
91A
330
3F8
100
AcDbEntity
  8
DEFPOINTS
 62
     0
100
AcDbPoint
 10
327.0083097259227
 20
145.2235336421141
 30
0.0
  0
ENDBLK
  5
403
330
3F8
100
AcDbEntity
  8
0
100
AcDbBlockEnd
  0
BLOCK
  5
418
330
40E
100
AcDbEntity
  8
0
100
AcDbBlockBegin
  2
*D9
 70
     1
 10
0.0
 20
0.0
 30
0.0
  3
*D9
  1

  0
LINE
  5
91B
330
40E
100
AcDbEntity
  8
SUNPOU
 62
     4
100
AcDbLine
 10
288.0083097259227
 20
108.2395835979407
 30
0.0
 11
288.0083097259227
 21
139.2275385674789
 31
0.0
  0
LINE
  5
91C
330
40E
100
AcDbEntity
  8
SUNPOU
 62
     4
100
AcDbLine
 10
321.0083097259227
 20
108.2395835979407
 30
0.0
 11
321.0083097259227
 21
139.2275385674789
 31
0.0
  0
LINE
  5
91D
330
40E
100
AcDbEntity
  8
SUNPOU
 62
     4
100
AcDbLine
 10
291.0083097259227
 20
137.7275385674789
 30
0.0
 11
318.0083097259227
 21
137.7275385674789
 31
0.0
  0
INSERT
  5
91E
330
40E
100
AcDbEntity
  8
SUNPOU
 62
     4
100
AcDbBlockReference
  2
_OPEN
 10
288.0083097259227
 20
137.7275385674789
 30
0.0
 41
3.0
 42
3.0
 43
3.0
 50
180.0
  0
INSERT
  5
91F
330
40E
100
AcDbEntity
  8
SUNPOU
 62
     4
100
AcDbBlockReference
  2
_OPEN
 10
321.0083097259227
 20
137.7275385674789
 30
0.0
 41
3.0
 42
3.0
 43
3.0
  0
MTEXT
  5
920
330
40E
100
AcDbEntity
  8
SUNPOU
 62
     4
100
AcDbMText
 10
304.5083097259227
 20
140.2275385674789
 30
0.0
 40
3.0
 41
0.0
 71
     5
 72
     5
  1
\A1;33
1001
ACAD
1000
MTEXTBEGIN
1070
    73
1070
     1
1070
    44
1040
1.0
1070
    74
1070
     0
1000
MTEXTEND
1000
MTEXTBEGIN
1070
    73
1070
     1
1070
    44
1040
1.0
1070
    74
1070
     0
1000
MTEXTEND
  0
POINT
  5
921
330
40E
100
AcDbEntity
  8
DEFPOINTS
 62
     0
100
AcDbPoint
 10
288.0083097259227
 20
105.2395835979407
 30
0.0
  0
POINT
  5
922
330
40E
100
AcDbEntity
  8
DEFPOINTS
 62
     0
100
AcDbPoint
 10
321.0083097259227
 20
105.2395835979407
 30
0.0
  0
POINT
  5
923
330
40E
100
AcDbEntity
  8
DEFPOINTS
 62
     0
100
AcDbPoint
 10
321.0083097259227
 20
137.7275385674789
 30
0.0
  0
ENDBLK
  5
419
330
40E
100
AcDbEntity
  8
0
100
AcDbBlockEnd
  0
BLOCK
  5
425
330
41B
100
AcDbEntity
  8
0
100
AcDbBlockBegin
  2
*D10
 70
     1
 10
0.0
 20
0.0
 30
0.0
  3
*D10
  1

  0
LINE
  5
924
330
41B
100
AcDbEntity
  8
SUNPOU
 62
     4
100
AcDbLine
 10
286.5083097259227
 20
117.5470835979407
 30
0.0
 11
264.6829708773937
 21
117.5470835979407
 31
0.0
  0
LINE
  5
925
330
41B
100
AcDbEntity
  8
SUNPOU
 62
     4
100
AcDbLine
 10
280.7190097259227
 20
101.5470835979407
 30
0.0
 11
264.6829708773937
 21
101.5470835979407
 31
0.0
  0
LINE
  5
926
330
41B
100
AcDbEntity
  8
SUNPOU
 62
     4
100
AcDbLine
 10
266.1829708773936
 20
114.5470835979407
 30
0.0
 11
266.1829708773936
 21
104.5470835979407
 31
0.0
  0
INSERT
  5
927
330
41B
100
AcDbEntity
  8
SUNPOU
 62
     4
100
AcDbBlockReference
  2
_OPEN
 10
266.1829708773936
 20
117.5470835979407
 30
0.0
 41
3.0
 42
3.0
 43
3.0
 50
90.0
  0
INSERT
  5
928
330
41B
100
AcDbEntity
  8
SUNPOU
 62
     4
100
AcDbBlockReference
  2
_OPEN
 10
266.1829708773936
 20
101.5470835979407
 30
0.0
 41
3.0
 42
3.0
 43
3.0
 50
270.0
  0
MTEXT
  5
929
330
41B
100
AcDbEntity
  8
SUNPOU
 62
     4
100
AcDbMText
 10
263.6829708773936
 20
109.5470835979407
 30
0.0
 40
3.0
 41
0.0
 71
     5
 72
     5
  1
\A1;16
 11
0.0000000000000001
 21
1.0
 31
0.0
1001
ACAD
1000
MTEXTBEGIN
1070
    73
1070
     1
1070
    44
1040
1.0
1070
    74
1070
     0
1000
MTEXTEND
1000
MTEXTBEGIN
1070
    73
1070
     1
1070
    44
1040
1.0
1070
    74
1070
     0
1000
MTEXTEND
  0
POINT
  5
92A
330
41B
100
AcDbEntity
  8
DEFPOINTS
 62
     0
100
AcDbPoint
 10
289.5083097259227
 20
117.5470835979407
 30
0.0
  0
POINT
  5
92B
330
41B
100
AcDbEntity
  8
DEFPOINTS
 62
     0
100
AcDbPoint
 10
283.7190097259227
 20
101.5470835979407
 30
0.0
  0
POINT
  5
92C
330
41B
100
AcDbEntity
  8
DEFPOINTS
 62
     0
100
AcDbPoint
 10
266.1829708773936
 20
101.5470835979407
 30
0.0
  0
ENDBLK
  5
426
330
41B
100
AcDbEntity
  8
0
100
AcDbBlockEnd
  0
BLOCK
  5
434
330
428
100
AcDbEntity
  8
0
100
AcDbBlockBegin
  2
*D11
 70
     1
 10
0.0
 20
0.0
 30
0.0
  3
*D11
  1

  0
LINE
  5
92D
330
428
100
AcDbEntity
  8
SUNPOU
 62
     4
100
AcDbLine
 10
297.0879097259227
 20
76.54708359794071
 30
0.0
 11
281.1897754877713
 21
76.54708359794073
 31
0.0
  0
LINE
  5
92E
330
428
100
AcDbEntity
  8
SUNPOU
 62
     4
100
AcDbLine
 10
301.5083097259227
 20
70.54707187145445
 30
0.0
 11
281.1897754877713
 21
70.54707187145446
 31
0.0
  0
LINE
  5
92F
330
428
100
AcDbEntity
  8
SUNPOU
 62
     4
100
AcDbLine
 10
282.6897754877713
 20
79.54708359794072
 30
0.0
 11
282.6897754877713
 21
82.54708359794072
 31
0.0
  0
LINE
  5
930
330
428
100
AcDbEntity
  8
SUNPOU
 62
     4
100
AcDbLine
 10
282.6897754877713
 20
67.54707187145446
 30
0.0
 11
282.6897754877713
 21
64.54707187145446
 31
0.0
  0
LINE
  5
931
330
428
100
AcDbEntity
  8
SUNPOU
 62
     4
100
AcDbLine
 10
282.6897754877713
 20
76.54708359794073
 30
0.0
 11
282.6897754877713
 21
70.54707187145446
 31
0.0
  0
INSERT
  5
932
330
428
100
AcDbEntity
  8
SUNPOU
 62
     4
100
AcDbBlockReference
  2
_OPEN
 10
282.6897754877713
 20
76.54708359794073
 30
0.0
 41
3.0
 42
3.0
 43
3.0
 50
270.0
  0
INSERT
  5
933
330
428
100
AcDbEntity
  8
SUNPOU
 62
     4
100
AcDbBlockReference
  2
_OPEN
 10
282.6897754877713
 20
70.54707187145446
 30
0.0
 41
3.0
 42
3.0
 43
3.0
 50
90.0
  0
MTEXT
  5
934
330
428
100
AcDbEntity
  8
SUNPOU
 62
     4
100
AcDbMText
 10
280.1897754877714
 20
73.54707773469764
 30
0.0
 40
3.0
 41
0.0
 71
     5
 72
     5
  1
\A1;6
 11
0.0000000000000001
 21
1.0
 31
0.0
1001
ACAD
1000
MTEXTBEGIN
1070
    73
1070
     1
1070
    44
1040
1.0
1070
    74
1070
     0
1000
MTEXTEND
1000
MTEXTBEGIN
1070
    73
1070
     1
1070
    44
1040
1.0
1070
    74
1070
     0
1000
MTEXTEND
  0
POINT
  5
935
330
428
100
AcDbEntity
  8
DEFPOINTS
 62
     0
100
AcDbPoint
 10
300.0879097259227
 20
76.54708359794071
 30
0.0
  0
POINT
  5
936
330
428
100
AcDbEntity
  8
DEFPOINTS
 62
     0
100
AcDbPoint
 10
304.5083097259227
 20
70.54707187145445
 30
0.0
  0
POINT
  5
937
330
428
100
AcDbEntity
  8
DEFPOINTS
 62
     0
100
AcDbPoint
 10
282.6897754877713
 20
70.54707187145446
 30
0.0
  0
ENDBLK
  5
435
330
428
100
AcDbEntity
  8
0
100
AcDbBlockEnd
  0
BLOCK
  5
441
330
437
100
AcDbEntity
  8
0
100
AcDbBlockBegin
  2
*D12
 70
     1
 10
0.0
 20
0.0
 30
0.0
  3
*D12
  1

  0
LINE
  5
938
330
437
100
AcDbEntity
  8
SUNPOU
 62
     4
100
AcDbLine
 10
301.5083097259227
 20
70.54707187145445
 30
0.0
 11
255.0790122347168
 21
70.54707187145446
 31
0.0
  0
LINE
  5
939
330
437
100
AcDbEntity
  8
SUNPOU
 62
     4
100
AcDbLine
 10
287.5816393162314
 20
117.4851212752961
 30
0.0
 11
255.0790122347168
 21
117.4851212752961
 31
0.0
  0
LINE
  5
93A
330
437
100
AcDbEntity
  8
SUNPOU
 62
     4
100
AcDbLine
 10
256.5790122347168
 20
73.54707187145447
 30
0.0
 11
256.5790122347168
 21
114.4851212752961
 31
0.0
  0
INSERT
  5
93B
330
437
100
AcDbEntity
  8
SUNPOU
 62
     4
100
AcDbBlockReference
  2
_OPEN
 10
256.5790122347168
 20
70.54707187145446
 30
0.0
 41
3.0
 42
3.0
 43
3.0
 50
270.0
  0
INSERT
  5
93C
330
437
100
AcDbEntity
  8
SUNPOU
 62
     4
100
AcDbBlockReference
  2
_OPEN
 10
256.5790122347168
 20
117.4851212752961
 30
0.0
 41
3.0
 42
3.0
 43
3.0
 50
90.0
  0
MTEXT
  5
93D
330
437
100
AcDbEntity
  8
SUNPOU
 62
     4
100
AcDbMText
 10
254.0790122347168
 20
94.01609657337536
 30
0.0
 40
3.0
 41
0.0
 71
     5
 72
     5
  1
\A1;47
 11
0.0000000000000001
 21
1.0
 31
0.0
1001
ACAD
1000
MTEXTBEGIN
1070
    73
1070
     1
1070
    44
1040
1.0
1070
    74
1070
     0
1000
MTEXTEND
1000
MTEXTBEGIN
1070
    73
1070
     1
1070
    44
1040
1.0
1070
    74
1070
     0
1000
MTEXTEND
  0
POINT
  5
93E
330
437
100
AcDbEntity
  8
DEFPOINTS
 62
     0
100
AcDbPoint
 10
304.5083097259227
 20
70.54707187145445
 30
0.0
  0
POINT
  5
93F
330
437
100
AcDbEntity
  8
DEFPOINTS
 62
     0
100
AcDbPoint
 10
290.5816393162314
 20
117.4851212752961
 30
0.0
  0
POINT
  5
940
330
437
100
AcDbEntity
  8
DEFPOINTS
 62
     0
100
AcDbPoint
 10
256.5790122347168
 20
117.4851212752961
 30
0.0
  0
ENDBLK
  5
442
330
437
100
AcDbEntity
  8
0
100
AcDbBlockEnd
  0
BLOCK
  5
47A
330
470
100
AcDbEntity
  8
0
100
AcDbBlockBegin
  2
*D13
 70
     1
 10
0.0
 20
0.0
 30
0.0
  3
*D13
  1

  0
LINE
  5
941
330
470
100
AcDbEntity
  8
SUNPOU
 62
     4
100
AcDbLine
 10
84.90830972592272
 20
217.7157835979407
 30
0.0
 11
64.04418114232386
 21
217.7157835979407
 31
0.0
  0
LINE
  5
942
330
470
100
AcDbEntity
  8
SUNPOU
 62
     4
100
AcDbLine
 10
84.90830972592272
 20
204.7157835979407
 30
0.0
 11
64.04418114232386
 21
204.7157835979407
 31
0.0
  0
LINE
  5
943
330
470
100
AcDbEntity
  8
SUNPOU
 62
     4
100
AcDbLine
 10
65.54418114232387
 20
214.7157835979407
 30
0.0
 11
65.54418114232387
 21
207.7157835979407
 31
0.0
  0
INSERT
  5
944
330
470
100
AcDbEntity
  8
SUNPOU
 62
     4
100
AcDbBlockReference
  2
_OPEN
 10
65.54418114232387
 20
217.7157835979407
 30
0.0
 41
3.0
 42
3.0
 43
3.0
 50
90.0
  0
INSERT
  5
945
330
470
100
AcDbEntity
  8
SUNPOU
 62
     4
100
AcDbBlockReference
  2
_OPEN
 10
65.54418114232387
 20
204.7157835979407
 30
0.0
 41
3.0
 42
3.0
 43
3.0
 50
270.0
  0
MTEXT
  5
946
330
470
100
AcDbEntity
  8
SUNPOU
 62
     4
100
AcDbMText
 10
63.04418114232383
 20
211.2157835979407
 30
0.0
 40
3.0
 41
0.0
 71
     5
 72
     5
  1
\A1;13
 11
0.0000000000000001
 21
1.0
 31
0.0
1001
ACAD
1000
MTEXTBEGIN
1070
    73
1070
     1
1070
    44
1040
1.0
1070
    74
1070
     0
1000
MTEXTEND
1000
MTEXTBEGIN
1070
    73
1070
     1
1070
    44
1040
1.0
1070
    74
1070
     0
1000
MTEXTEND
  0
POINT
  5
947
330
470
100
AcDbEntity
  8
DEFPOINTS
 62
     0
100
AcDbPoint
 10
87.90830972592273
 20
217.7157835979407
 30
0.0
  0
POINT
  5
948
330
470
100
AcDbEntity
  8
DEFPOINTS
 62
     0
100
AcDbPoint
 10
87.90830972592273
 20
204.7157835979407
 30
0.0
  0
POINT
  5
949
330
470
100
AcDbEntity
  8
DEFPOINTS
 62
     0
100
AcDbPoint
 10
65.54418114232387
 20
204.7157835979407
 30
0.0
  0
ENDBLK
  5
47B
330
470
100
AcDbEntity
  8
0
100
AcDbBlockEnd
  0
BLOCK
  5
487
330
47D
100
AcDbEntity
  8
0
100
AcDbBlockBegin
  2
*D14
 70
     1
 10
0.0
 20
0.0
 30
0.0
  3
*D14
  1

  0
LINE
  5
94A
330
47D
100
AcDbEntity
  8
SUNPOU
 62
     4
100
AcDbLine
 10
80.50830972592274
 20
221.2157835979407
 30
0.0
 11
56.12861597703366
 21
221.2157835979407
 31
0.0
  0
LINE
  5
94B
330
47D
100
AcDbEntity
  8
SUNPOU
 62
     4
100
AcDbLine
 10
80.50830972592274
 20
201.2156835979407
 30
0.0
 11
56.12861597703365
 21
201.2156835979407
 31
0.0
  0
LINE
  5
94C
330
47D
100
AcDbEntity
  8
SUNPOU
 62
     4
100
AcDbLine
 10
57.62861597703366
 20
218.2157835979407
 30
0.0
 11
57.62861597703365
 21
204.2156835979407
 31
0.0
  0
INSERT
  5
94D
330
47D
100
AcDbEntity
  8
SUNPOU
 62
     4
100
AcDbBlockReference
  2
_OPEN
 10
57.62861597703366
 20
221.2157835979407
 30
0.0
 41
3.0
 42
3.0
 43
3.0
 50
90.0
  0
INSERT
  5
94E
330
47D
100
AcDbEntity
  8
SUNPOU
 62
     4
100
AcDbBlockReference
  2
_OPEN
 10
57.62861597703365
 20
201.2156835979407
 30
0.0
 41
3.0
 42
3.0
 43
3.0
 50
270.0
  0
MTEXT
  5
94F
330
47D
100
AcDbEntity
  8
SUNPOU
 62
     4
100
AcDbMText
 10
55.12861597703363
 20
211.2157335979407
 30
0.0
 40
3.0
 41
0.0
 71
     5
 72
     5
  1
\A1;20
 11
0.0000000000000001
 21
1.0
 31
0.0
1001
ACAD
1000
MTEXTBEGIN
1070
    73
1070
     1
1070
    44
1040
1.0
1070
    74
1070
     0
1000
MTEXTEND
1000
MTEXTBEGIN
1070
    73
1070
     1
1070
    44
1040
1.0
1070
    74
1070
     0
1000
MTEXTEND
  0
POINT
  5
950
330
47D
100
AcDbEntity
  8
DEFPOINTS
 62
     0
100
AcDbPoint
 10
83.50830972592275
 20
221.2157835979407
 30
0.0
  0
POINT
  5
951
330
47D
100
AcDbEntity
  8
DEFPOINTS
 62
     0
100
AcDbPoint
 10
83.50830972592275
 20
201.2156835979407
 30
0.0
  0
POINT
  5
952
330
47D
100
AcDbEntity
  8
DEFPOINTS
 62
     0
100
AcDbPoint
 10
57.62861597703365
 20
201.2156835979407
 30
0.0
  0
ENDBLK
  5
488
330
47D
100
AcDbEntity
  8
0
100
AcDbBlockEnd
  0
BLOCK
  5
654
330
64A
100
AcDbEntity
  8
0
100
AcDbBlockBegin
  2
*D15
 70
     1
 10
0.0
 20
0.0
 30
0.0
  3
*D15
  1

  0
LINE
  5
953
330
64A
100
AcDbEntity
  8
SUNPOU
 62
     4
100
AcDbLine
 10
207.5083097259227
 20
233.7157835979407
 30
0.0
 11
236.184893886829
 21
233.7157835979407
 31
0.0
  0
LINE
  5
954
330
64A
100
AcDbEntity
  8
SUNPOU
 62
     4
100
AcDbLine
 10
207.5083097259227
 20
188.7157835979407
 30
0.0
 11
236.184893886829
 21
188.7157835979407
 31
0.0
  0
LINE
  5
955
330
64A
100
AcDbEntity
  8
SUNPOU
 62
     4
100
AcDbLine
 10
234.684893886829
 20
230.7157835979407
 30
0.0
 11
234.684893886829
 21
191.7157835979407
 31
0.0
  0
INSERT
  5
956
330
64A
100
AcDbEntity
  8
SUNPOU
 62
     4
100
AcDbBlockReference
  2
_OPEN
 10
234.684893886829
 20
233.7157835979407
 30
0.0
 41
3.0
 42
3.0
 43
3.0
 50
90.0
  0
INSERT
  5
957
330
64A
100
AcDbEntity
  8
SUNPOU
 62
     4
100
AcDbBlockReference
  2
_OPEN
 10
234.684893886829
 20
188.7157835979407
 30
0.0
 41
3.0
 42
3.0
 43
3.0
 50
270.0
  0
MTEXT
  5
958
330
64A
100
AcDbEntity
  8
SUNPOU
 62
     4
100
AcDbMText
 10
232.184893886829
 20
211.2157835979407
 30
0.0
 40
3.0
 41
0.0
 71
     5
 72
     5
  1
\A1;45
 11
0.0000000000000001
 21
1.0
 31
0.0
1001
ACAD
1000
MTEXTBEGIN
1070
    73
1070
     1
1070
    44
1040
1.0
1070
    74
1070
     0
1000
MTEXTEND
1000
MTEXTBEGIN
1070
    73
1070
     1
1070
    44
1040
1.0
1070
    74
1070
     0
1000
MTEXTEND
  0
POINT
  5
959
330
64A
100
AcDbEntity
  8
DEFPOINTS
 62
     0
100
AcDbPoint
 10
204.5083097259227
 20
233.7157835979407
 30
0.0
  0
POINT
  5
95A
330
64A
100
AcDbEntity
  8
DEFPOINTS
 62
     0
100
AcDbPoint
 10
204.5083097259227
 20
188.7157835979407
 30
0.0
  0
POINT
  5
95B
330
64A
100
AcDbEntity
  8
DEFPOINTS
 62
     0
100
AcDbPoint
 10
234.684893886829
 20
188.7157835979407
 30
0.0
  0
ENDBLK
  5
655
330
64A
100
AcDbEntity
  8
0
100
AcDbBlockEnd
  0
BLOCK
  5
66B
330
661
100
AcDbEntity
  8
0
100
AcDbBlockBegin
  2
*D16
 70
     1
 10
0.0
 20
0.0
 30
0.0
  3
*D16
  1

  0
LINE
  5
95C
330
661
100
AcDbEntity
  8
SUNPOU
 62
     4
100
AcDbLine
 10
211.4782097259227
 20
227.7157835979407
 30
0.0
 11
228.3749720740461
 21
227.7157835979407
 31
0.0
  0
LINE
  5
95D
330
661
100
AcDbEntity
  8
SUNPOU
 62
     4
100
AcDbLine
 10
211.4782097259227
 20
194.7157835979407
 30
0.0
 11
228.3749720740461
 21
194.7157835979407
 31
0.0
  0
LINE
  5
95E
330
661
100
AcDbEntity
  8
SUNPOU
 62
     4
100
AcDbLine
 10
226.8749720740461
 20
224.7157835979407
 30
0.0
 11
226.8749720740461
 21
197.7157835979406
 31
0.0
  0
INSERT
  5
95F
330
661
100
AcDbEntity
  8
SUNPOU
 62
     4
100
AcDbBlockReference
  2
_OPEN
 10
226.8749720740461
 20
227.7157835979407
 30
0.0
 41
3.0
 42
3.0
 43
3.0
 50
90.0
  0
INSERT
  5
960
330
661
100
AcDbEntity
  8
SUNPOU
 62
     4
100
AcDbBlockReference
  2
_OPEN
 10
226.8749720740461
 20
194.7157835979407
 30
0.0
 41
3.0
 42
3.0
 43
3.0
 50
270.0
  0
MTEXT
  5
961
330
661
100
AcDbEntity
  8
SUNPOU
 62
     4
100
AcDbMText
 10
224.374972074046
 20
211.2157835979407
 30
0.0
 40
3.0
 41
0.0
 71
     5
 72
     5
  1
\A1;33
 11
0.0000000000000001
 21
1.0
 31
0.0
1001
ACAD
1000
MTEXTBEGIN
1070
    73
1070
     1
1070
    44
1040
1.0
1070
    74
1070
     0
1000
MTEXTEND
1000
MTEXTBEGIN
1070
    73
1070
     1
1070
    44
1040
1.0
1070
    74
1070
     0
1000
MTEXTEND
  0
POINT
  5
962
330
661
100
AcDbEntity
  8
DEFPOINTS
 62
     0
100
AcDbPoint
 10
208.4782097259227
 20
227.7157835979407
 30
0.0
  0
POINT
  5
963
330
661
100
AcDbEntity
  8
DEFPOINTS
 62
     0
100
AcDbPoint
 10
208.4782097259227
 20
194.7157835979407
 30
0.0
  0
POINT
  5
964
330
661
100
AcDbEntity
  8
DEFPOINTS
 62
     0
100
AcDbPoint
 10
226.8749720740461
 20
194.7157835979407
 30
0.0
  0
ENDBLK
  5
66C
330
661
100
AcDbEntity
  8
0
100
AcDbBlockEnd
  0
BLOCK
  5
7BB
330
7B1
100
AcDbEntity
  8
0
100
AcDbBlockBegin
  2
*D17
 70
     1
 10
0.0
 20
0.0
 30
0.0
  3
*D17
  1

  0
LINE
  5
965
330
7B1
100
AcDbEntity
  8
SUNPOU
 62
     4
100
AcDbLine
 10
179.5083685494521
 20
120.5470835979407
 30
0.0
 11
179.5083685494521
 21
140.8208828827499
 31
0.0
  0
LINE
  5
966
330
7B1
100
AcDbEntity
  8
SUNPOU
 62
     4
100
AcDbLine
 10
204.5083097259227
 20
120.5470835979407
 30
0.0
 11
204.5083097259227
 21
140.8208828827499
 31
0.0
  0
LINE
  5
967
330
7B1
100
AcDbEntity
  8
SUNPOU
 62
     4
100
AcDbLine
 10
182.5083685494521
 20
139.3208828827499
 30
0.0
 11
201.5083097259227
 21
139.3208828827499
 31
0.0
  0
INSERT
  5
968
330
7B1
100
AcDbEntity
  8
SUNPOU
 62
     4
100
AcDbBlockReference
  2
_OPEN
 10
179.5083685494521
 20
139.3208828827499
 30
0.0
 41
3.0
 42
3.0
 43
3.0
 50
180.0
  0
INSERT
  5
969
330
7B1
100
AcDbEntity
  8
SUNPOU
 62
     4
100
AcDbBlockReference
  2
_OPEN
 10
204.5083097259227
 20
139.3208828827499
 30
0.0
 41
3.0
 42
3.0
 43
3.0
  0
MTEXT
  5
96A
330
7B1
100
AcDbEntity
  8
SUNPOU
 62
     4
100
AcDbMText
 10
192.0083391376874
 20
141.8208828827499
 30
0.0
 40
3.0
 41
0.0
 71
     5
 72
     5
  1
\A1;25
1001
ACAD
1000
MTEXTBEGIN
1070
    73
1070
     1
1070
    44
1040
1.0
1070
    74
1070
     0
1000
MTEXTEND
1000
MTEXTBEGIN
1070
    73
1070
     1
1070
    44
1040
1.0
1070
    74
1070
     0
1000
MTEXTEND
  0
POINT
  5
96B
330
7B1
100
AcDbEntity
  8
DEFPOINTS
 62
     0
100
AcDbPoint
 10
179.5083685494521
 20
117.5470835979407
 30
0.0
  0
POINT
  5
96C
330
7B1
100
AcDbEntity
  8
DEFPOINTS
 62
     0
100
AcDbPoint
 10
204.5083097259227
 20
117.5470835979407
 30
0.0
  0
POINT
  5
96D
330
7B1
100
AcDbEntity
  8
DEFPOINTS
 62
     0
100
AcDbPoint
 10
204.5083097259227
 20
139.3208828827499
 30
0.0
  0
ENDBLK
  5
7BC
330
7B1
100
AcDbEntity
  8
0
100
AcDbBlockEnd
  0
BLOCK
  5
7C8
330
7BE
100
AcDbEntity
  8
0
100
AcDbBlockBegin
  2
*D18
 70
     1
 10
0.0
 20
0.0
 30
0.0
  3
*D18
  1

  0
LINE
  5
96E
330
7BE
100
AcDbEntity
  8
SUNPOU
 62
     4
100
AcDbLine
 10
194.6773097259227
 20
109.3454835979407
 30
0.0
 11
194.6773097259227
 21
132.2830169877797
 31
0.0
  0
LINE
  5
96F
330
7BE
100
AcDbEntity
  8
SUNPOU
 62
     4
100
AcDbLine
 10
204.5083097259227
 20
120.5470835979407
 30
0.0
 11
204.5083097259227
 21
132.2830169877797
 31
0.0
  0
LINE
  5
970
330
7BE
100
AcDbEntity
  8
SUNPOU
 62
     4
100
AcDbLine
 10
197.6773097259227
 20
130.7830169877797
 30
0.0
 11
201.5083097259227
 21
130.7830169877797
 31
0.0
  0
INSERT
  5
971
330
7BE
100
AcDbEntity
  8
SUNPOU
 62
     4
100
AcDbBlockReference
  2
_OPEN
 10
194.6773097259227
 20
130.7830169877797
 30
0.0
 41
3.0
 42
3.0
 43
3.0
 50
180.0
  0
INSERT
  5
972
330
7BE
100
AcDbEntity
  8
SUNPOU
 62
     4
100
AcDbBlockReference
  2
_OPEN
 10
204.5083097259227
 20
130.7830169877797
 30
0.0
 41
3.0
 42
3.0
 43
3.0
  0
MTEXT
  5
973
330
7BE
100
AcDbEntity
  8
SUNPOU
 62
     4
100
AcDbMText
 10
199.5928097259227
 20
133.2830169877797
 30
0.0
 40
3.0
 41
0.0
 71
     5
 72
     5
  1
\A1;10
1001
ACAD
1000
MTEXTBEGIN
1070
    73
1070
     1
1070
    44
1040
1.0
1070
    74
1070
     0
1000
MTEXTEND
1000
MTEXTBEGIN
1070
    73
1070
     1
1070
    44
1040
1.0
1070
    74
1070
     0
1000
MTEXTEND
  0
POINT
  5
974
330
7BE
100
AcDbEntity
  8
DEFPOINTS
 62
     0
100
AcDbPoint
 10
194.6773097259227
 20
106.3454835979407
 30
0.0
  0
POINT
  5
975
330
7BE
100
AcDbEntity
  8
DEFPOINTS
 62
     0
100
AcDbPoint
 10
204.5083097259227
 20
117.5470835979407
 30
0.0
  0
POINT
  5
976
330
7BE
100
AcDbEntity
  8
DEFPOINTS
 62
     0
100
AcDbPoint
 10
204.5083097259227
 20
130.7830169877797
 30
0.0
  0
ENDBLK
  5
7C9
330
7BE
100
AcDbEntity
  8
0
100
AcDbBlockEnd
  0
ENDSEC
  0
SECTION
  2
ENTITIES
  0
LINE
  5
26F
330
1A
100
AcDbEntity
  8
CENTER_L
  6
CENTER
 62
     1
 48
5.0
100
AcDbLine
 10
213.5195097259227
 20
211.2157835979407
 30
0.0
 11
76.86610972592274
 21
211.2157835979407
 31
0.0
  0
LINE
  5
270
330
1A
100
AcDbEntity
  8
SEIHIN
  6
CONTINUOUS
 62
     3
 48
5.0
100
AcDbLine
 10
87.90830972592273
 20
217.7157835979407
 30
0.0
 11
147.9613097259227
 21
217.7157835979407
 31
0.0
  0
LINE
  5
271
330
1A
100
AcDbEntity
  8
SEIHIN
  6
CONTINUOUS
 62
     3
 48
5.0
100
AcDbLine
 10
87.90830972592273
 20
204.7157835979407
 30
0.0
 11
147.9613097259227
 21
204.7157835979407
 31
0.0
  0
LINE
  5
272
330
1A
100
AcDbEntity
  8
SEIHIN
  6
CONTINUOUS
 62
     3
 48
5.0
100
AcDbLine
 10
97.10830972592271
 20
95.54708359794071
 30
0.0
 11
102.0355097259227
 21
95.54708359794071
 31
0.0
  0
LINE
  5
273
330
1A
100
AcDbEntity
  8
SEIHIN
  6
CONTINUOUS
 62
     3
 48
5.0
100
AcDbLine
 10
84.90830972592272
 20
101.0470835979407
 30
0.0
 11
103.5083097259227
 21
101.0470835979407
 31
0.0
  0
ARC
  5
27C
330
1A
100
AcDbEntity
  8
SEIHIN
  6
CONTINUOUS
 62
     3
 48
5.0
100
AcDbCircle
 10
97.10830972592271
 20
100.1470835979407
 30
0.0
 40
4.59999999999998
100
AcDbArc
 50
180.0
 51
270.0
  0
LINE
  5
27D
330
1A
100
AcDbEntity
  8
SEIHIN
  6
CONTINUOUS
 62
     3
 48
5.0
100
AcDbLine
 10
84.90830972592272
 20
100.1470835979407
 30
0.0
 11
92.58240972592274
 21
100.1470835979407
 31
0.0
  0
LINE
  5
27E
330
1A
100
AcDbEntity
  8
SEIHIN
  6
CONTINUOUS
 62
     3
 48
5.0
100
AcDbLine
 10
84.40830972592271
 20
101.5470835979407
 30
0.0
 11
84.40830972592271
 21
106.0470835979407
 31
0.0
  0
LINE
  5
27F
330
1A
100
AcDbEntity
  8
SEIHIN
  6
CONTINUOUS
 62
     3
 48
5.0
100
AcDbLine
 10
83.50830972592275
 20
106.0470835979407
 30
0.0
 11
83.50830972592275
 21
101.5470835979407
 31
0.0
  0
ARC
  5
280
330
1A
100
AcDbEntity
  8
SEIHIN
  6
CONTINUOUS
 62
     3
 48
5.0
100
AcDbCircle
 10
84.90830972592272
 20
101.5470835979407
 30
0.0
 40
1.399999999999991
100
AcDbArc
 50
180.0
 51
270.0
  0
ARC
  5
281
330
1A
100
AcDbEntity
  8
SEIHIN
  6
CONTINUOUS
 62
     3
 48
5.0
100
AcDbCircle
 10
84.90830972592272
 20
101.5470835979407
 30
0.0
 40
0.5
100
AcDbArc
 50
180.0
 51
270.0
  0
LINE
  5
282
330
1A
100
AcDbEntity
  8
SEIHIN
  6
CONTINUOUS
 62
     3
 48
5.0
100
AcDbLine
 10
83.50830972592275
 20
106.0470835979407
 30
0.0
 11
84.40830972592271
 21
106.0470835979407
 31
0.0
  0
LINE
  5
283
330
1A
100
AcDbEntity
  8
SEIHIN
  6
CONTINUOUS
 62
     3
 48
5.0
100
AcDbLine
 10
91.00830972592275
 20
98.64708359794072
 30
0.0
 11
92.75970972592274
 21
98.64708359794072
 31
0.0
  0
ARC
  5
284
330
1A
100
AcDbEntity
  8
SEIHIN
  6
CONTINUOUS
 62
     3
 48
5.0
100
AcDbCircle
 10
91.00830972592275
 20
100.1470835979407
 30
0.0
 40
1.5
100
AcDbArc
 50
180.0
 51
270.0
  0
LINE
  5
297
330
1A
100
AcDbEntity
  8
SEIHIN
  6
CONTINUOUS
 62
     3
 48
5.0
100
AcDbLine
 10
84.40830972592271
 20
201.2157835979407
 30
0.0
 11
84.40830972592271
 21
211.2157835979407
 31
0.0
  0
LINE
  5
298
330
1A
100
AcDbEntity
  8
SEIHIN
  6
CONTINUOUS
 62
     3
 48
5.0
100
AcDbLine
 10
83.50830972592275
 20
201.2156835979407
 30
0.0
 11
83.50830972592275
 21
211.2156835979407
 31
0.0
  0
ARC
  5
299
330
1A
100
AcDbEntity
  8
SEIHIN
  6
CONTINUOUS
 62
     3
 48
5.0
100
AcDbCircle
 10
87.90830972592273
 20
201.2157835979407
 30
0.0
 40
3.5
100
AcDbArc
 50
90.0
 51
180.0
  0
LINE
  5
29A
330
1A
100
AcDbEntity
  8
SEIHIN
  6
CONTINUOUS
 62
     3
 48
5.0
100
AcDbLine
 10
83.50830972592275
 20
201.2157835979407
 30
0.0
 11
84.40830972592271
 21
201.2157835979407
 31
0.0
  0
ARC
  5
29B
330
1A
100
AcDbEntity
  8
SEIHIN
  6
CONTINUOUS
 62
     3
 48
5.0
100
AcDbCircle
 10
87.90830972592273
 20
221.2157835979407
 30
0.0
 40
3.5
100
AcDbArc
 50
180.0
 51
270.0
  0
LINE
  5
29C
330
1A
100
AcDbEntity
  8
SEIHIN
  6
CONTINUOUS
 62
     3
 48
5.0
100
AcDbLine
 10
83.50830972592275
 20
221.2157835979407
 30
0.0
 11
83.50830972592275
 21
211.2157835979407
 31
0.0
  0
LINE
  5
29D
330
1A
100
AcDbEntity
  8
SEIHIN
  6
CONTINUOUS
 62
     3
 48
5.0
100
AcDbLine
 10
84.40830972592271
 20
221.2157835979407
 30
0.0
 11
84.40830972592271
 21
211.2157835979407
 31
0.0
  0
LINE
  5
29E
330
1A
100
AcDbEntity
  8
SEIHIN
  6
CONTINUOUS
 62
     3
 48
5.0
100
AcDbLine
 10
83.50830972592275
 20
221.2157835979407
 30
0.0
 11
84.40830972592271
 21
221.2157835979407
 31
0.0
  0
LINE
  5
29F
330
1A
100
AcDbEntity
  8
SEIHIN
  6
CONTINUOUS
 62
     3
 48
5.0
100
AcDbLine
 10
91.25830972592273
 20
212.9657835979407
 30
0.0
 11
93.75830972592273
 21
212.9657835979407
 31
0.0
  0
LINE
  5
2A0
330
1A
100
AcDbEntity
  8
SEIHIN
  6
CONTINUOUS
 62
     3
 48
5.0
100
AcDbLine
 10
91.25830972592273
 20
209.4657835979407
 30
0.0
 11
93.75830972592273
 21
209.4657835979407
 31
0.0
  0
ARC
  5
2A1
330
1A
100
AcDbEntity
  8
SEIHIN
  6
CONTINUOUS
 62
     3
 48
5.0
100
AcDbCircle
 10
91.25830972592273
 20
211.2157835979407
 30
0.0
 40
1.75
100
AcDbArc
 50
90.0
 51
180.0
  0
ARC
  5
2A2
330
1A
100
AcDbEntity
  8
SEIHIN
  6
CONTINUOUS
 62
     3
 48
5.0
100
AcDbCircle
 10
91.25830972592273
 20
211.2157835979407
 30
0.0
 40
1.75
100
AcDbArc
 50
180.0
 51
270.0
  0
ARC
  5
2A3
330
1A
100
AcDbEntity
  8
SEIHIN
  6
CONTINUOUS
 62
     3
 48
5.0
100
AcDbCircle
 10
93.75830972592273
 20
211.2157835979407
 30
0.0
 40
1.75
100
AcDbArc
 50
0.0
 51
90.0
  0
ARC
  5
2A4
330
1A
100
AcDbEntity
  8
SEIHIN
  6
CONTINUOUS
 62
     3
 48
5.0
100
AcDbCircle
 10
93.75830972592273
 20
211.2157835979407
 30
0.0
 40
1.75
100
AcDbArc
 50
270.0
 51
0.0
  0
ARC
  5
2B6
330
1A
100
AcDbEntity
  8
SEIHIN
  6
CONTINUOUS
 62
     3
 48
5.0
100
AcDbCircle
 10
186.1478097259227
 20
106.0470835979407
 30
0.0
 40
5.999977300330799
100
AcDbArc
 50
90.0
 51
149.9997496981193
  0
LINE
  5
2B7
330
1A
100
AcDbEntity
  8
SEIHIN
  6
CONTINUOUS
 62
     3
 48
5.0
100
AcDbLine
 10
182.9724097259227
 20
117.5470835979407
 30
0.0
 11
201.5083097259227
 21
117.5470835979407
 31
0.0
  0
LINE
  5
2BA
330
1A
100
AcDbEntity
  8
SEIHIN
  6
CONTINUOUS
 62
     3
 48
5.0
100
AcDbLine
 10
167.9613097259227
 20
97.54708359794072
 30
0.0
 11
177.7763097259227
 21
114.5470835979407
 31
0.0
  0
LINE
  5
2BB
330
1A
100
AcDbEntity
  8
SEIHIN
  6
CONTINUOUS
 62
     3
 48
5.0
100
AcDbLine
 10
109.8355097259227
 20
91.04708359794072
 30
0.0
 11
178.5083097259227
 21
91.04708359794072
 31
0.0
  0
LINE
  5
2BC
330
1A
100
AcDbEntity
  8
SEIHIN
  6
CONTINUOUS
 62
     3
 48
5.0
100
AcDbLine
 10
111.3083097259226
 20
96.54708359794071
 30
0.0
 11
147.9613097259227
 21
96.54708359794071
 31
0.0
  0
LINE
  5
2BD
330
1A
100
AcDbEntity
  8
SEIHIN
  6
CONTINUOUS
 62
     3
 48
5.0
100
AcDbLine
 10
103.5083097259227
 20
101.0470835979407
 30
0.0
 11
111.3083097259226
 21
96.54708359794071
 31
0.0
  0
LINE
  5
2BE
330
1A
100
AcDbEntity
  8
SEIHIN
  6
CONTINUOUS
 62
     3
 48
5.0
100
AcDbLine
 10
102.0355097259227
 20
95.54708359794071
 30
0.0
 11
109.8355097259227
 21
91.04708359794072
 31
0.0
  0
LINE
  5
2BF
330
1A
100
AcDbEntity
  8
SEIHIN
  6
CONTINUOUS
 62
     3
 48
5.0
100
AcDbLine
 10
150.9613097259227
 20
92.04708359794071
 30
0.0
 11
167.6726097259227
 21
92.04708359794071
 31
0.0
  0
LINE
  5
2C0
330
1A
100
AcDbEntity
  8
SEIHIN
  6
CONTINUOUS
 62
     3
 48
5.0
100
AcDbLine
 10
147.9613097259227
 20
97.54708359794072
 30
0.0
 11
167.9613097259227
 21
97.54708359794072
 31
0.0
  0
LINE
  5
2C1
330
1A
100
AcDbEntity
  8
SEIHIN
  6
CONTINUOUS
 62
     3
 48
5.0
100
AcDbLine
 10
147.9613097259227
 20
95.0470835979407
 30
0.0
 11
147.9613097259227
 21
97.54708359794072
 31
0.0
  0
LINE
  5
2C2
330
1A
100
AcDbEntity
  8
SEIHIN
  6
CONTINUOUS
 62
     3
 48
5.0
100
AcDbLine
 10
147.9613097259227
 20
95.0470835979407
 30
0.0
 11
150.9613097259227
 21
92.04708359794071
 31
0.0
  0
LINE
  5
2C6
330
1A
100
AcDbEntity
  8
SEIHIN
  6
CONTINUOUS
 62
     3
 48
5.0
100
AcDbLine
 10
172.8688097259227
 20
95.0470835979407
 30
0.0
 11
180.9516097259226
 21
109.0470835979407
 31
0.0
  0
LINE
  5
2C7
330
1A
100
AcDbEntity
  8
SEIHIN
  6
CONTINUOUS
 62
     3
 48
5.0
100
AcDbLine
 10
173.7348097259227
 20
96.54708359794071
 30
0.0
 11
182.5083097259227
 21
96.54708359794071
 31
0.0
  0
ARC
  5
2C8
330
1A
100
AcDbEntity
  8
SEIHIN
  6
CONTINUOUS
 62
     3
 48
5.0
100
AcDbCircle
 10
167.6726097259227
 20
98.04708359794071
 30
0.0
 40
5.999977300330799
100
AcDbArc
 50
270.0
 51
329.9997496981193
  0
LINE
  5
2C9
330
1A
100
AcDbEntity
  8
SEIHIN
  6
CONTINUOUS
 62
     3
 48
5.0
100
AcDbLine
 10
178.5083097259227
 20
91.04708359794072
 30
0.0
 11
183.8734097259227
 21
93.5502835979407
 31
0.0
  0
ARC
  5
2CA
330
1A
100
AcDbEntity
  8
SEIHIN
  6
CONTINUOUS
 62
     3
 48
5.0
100
AcDbCircle
 10
183.4083097259227
 20
94.54708359794071
 30
0.0
 40
1.099983692940071
100
AcDbArc
 50
295.0134320108427
 51
90.0
  0
LINE
  5
2CB
330
1A
100
AcDbEntity
  8
SEIHIN
  6
CONTINUOUS
 62
     3
 48
5.0
100
AcDbLine
 10
183.4083097259227
 20
95.64708359794071
 30
0.0
 11
182.5083097259227
 21
95.64708359794071
 31
0.0
  0
LINE
  5
2CC
330
1A
100
AcDbEntity
  8
SEIHIN
  6
CONTINUOUS
 62
     3
 48
5.0
100
AcDbLine
 10
182.5083097259227
 20
96.54708359794071
 30
0.0
 11
182.5083097259227
 21
95.64708359794071
 31
0.0
  0
ARC
  5
2D2
330
1A
100
AcDbEntity
  8
SEIHIN
  6
CONTINUOUS
 62
     3
 48
5.0
100
AcDbCircle
 10
182.9724097259227
 20
111.5470835979407
 30
0.0
 40
5.999977300330799
100
AcDbArc
 50
90.0
 51
149.9997496981193
  0
LINE
  5
2D6
330
1A
100
AcDbEntity
  8
SEIHIN
  6
CONTINUOUS
 62
     3
 48
5.0
100
AcDbLine
 10
198.5083097259227
 20
112.0470835979407
 30
0.0
 11
203.5083097259227
 21
107.5470835979407
 31
0.0
  0
LINE
  5
2D7
330
1A
100
AcDbEntity
  8
SEIHIN
  6
CONTINUOUS
 62
     3
 48
5.0
100
AcDbLine
 10
204.5083097259227
 20
114.5470835979407
 30
0.0
 11
204.5083097259227
 21
70.54708359794071
 31
0.0
  0
LINE
  5
2D8
330
1A
100
AcDbEntity
  8
SEIHIN
  6
CONTINUOUS
 62
     3
 48
5.0
100
AcDbLine
 10
197.8373097259227
 20
95.22708359794071
 30
0.0
 11
197.8373097259227
 21
112.0470835979407
 31
0.0
  0
LINE
  5
2D9
330
1A
100
AcDbEntity
  8
SEIHIN
  6
CONTINUOUS
 62
     3
 48
5.0
100
AcDbLine
 10
194.9573097259227
 20
90.0470835979407
 30
0.0
 11
194.9573097259227
 21
112.0470835979407
 31
0.0
  0
LINE
  5
2DA
330
1A
100
AcDbEntity
  8
SEIHIN
  6
CONTINUOUS
 62
     3
 48
5.0
100
AcDbLine
 10
198.2373097259227
 20
95.22708359794071
 30
0.0
 11
198.2373097259227
 21
112.0470835979407
 31
0.0
  0
LINE
  5
2DD
330
1A
100
AcDbEntity
  8
SEIHIN
  6
CONTINUOUS
 62
     3
 48
5.0
100
AcDbLine
 10
203.5083097259227
 20
107.5470835979407
 30
0.0
 11
203.5083097259227
 21
70.54708359794071
 31
0.0
  0
LINE
  5
2DE
330
1A
100
AcDbEntity
  8
CENTER_L
  6
CENTER
 62
     1
 48
5.0
100
AcDbLine
 10
200.0879097259227
 20
76.54708359794071
 30
0.0
 11
208.1662097259227
 21
76.54708359794071
 31
0.0
  0
LINE
  5
2DF
330
1A
100
AcDbEntity
  8
SEIHIN
  6
CONTINUOUS
 62
     3
 48
5.0
100
AcDbLine
 10
203.5083097259227
 20
70.54708359794071
 30
0.0
 11
204.5083097259227
 21
70.54708359794071
 31
0.0
  0
LINE
  5
2E0
330
1A
100
AcDbEntity
  8
CENTER_L
  6
CENTER
 62
     1
 48
5.0
100
AcDbLine
 10
199.4409097259227
 20
101.5470835979407
 30
0.0
 11
207.8537097259227
 21
101.5470835979407
 31
0.0
  0
LINE
  5
2E1
330
1A
100
AcDbEntity
  8
SEIHIN
  6
CONTINUOUS
 62
     3
 48
5.0
100
AcDbLine
 10
201.0083097259227
 20
109.7970835979407
 30
0.0
 11
201.0083097259227
 21
95.0470835979407
 31
0.0
  0
ARC
  5
2E2
330
1A
100
AcDbEntity
  8
SEIHIN
  6
CONTINUOUS
 62
     3
 48
5.0
100
AcDbCircle
 10
195.9573097259227
 20
91.97158359794071
 30
0.0
 40
1.000028591682515
100
AcDbArc
 50
97.00136732117771
 51
180.0
  0
ARC
  5
2E3
330
1A
100
AcDbEntity
  8
SEIHIN
  6
CONTINUOUS
 62
     3
 48
5.0
100
AcDbCircle
 10
196.0573097259227
 20
92.08668359794073
 30
0.0
 40
0.5000081998655269
100
AcDbArc
 50
99.04411226652698
 51
180.0
  0
ARC
  5
2E4
330
1A
100
AcDbEntity
  8
SEIHIN
  6
CONTINUOUS
 62
     3
 48
5.0
100
AcDbCircle
 10
194.0573097259227
 20
90.0470835979407
 30
0.0
 40
1.499983499818478
100
AcDbArc
 50
210.0007277808278
 51
0.0
  0
LINE
  5
2E5
330
1A
100
AcDbEntity
  8
SEIHIN
  6
CONTINUOUS
 62
     3
 48
5.0
100
AcDbLine
 10
189.0279097259227
 20
96.95838359794073
 30
0.0
 11
193.2779097259227
 21
89.59708359794072
 31
0.0
  0
LINE
  5
2E6
330
1A
100
AcDbEntity
  8
SEIHIN
  6
CONTINUOUS
 62
     3
 48
5.0
100
AcDbLine
 10
192.7583097259227
 20
89.29708359794071
 30
0.0
 11
188.5083097259227
 21
96.65838359794072
 31
0.0
  0
LINE
  5
2E7
330
1A
100
AcDbEntity
  8
SEIHIN
  6
CONTINUOUS
 62
     3
 48
5.0
100
AcDbLine
 10
195.5573097259227
 20
92.08668359794073
 30
0.0
 11
195.5573097259227
 21
90.0470835979407
 31
0.0
  0
ARC
  5
2E8
330
1A
100
AcDbEntity
  8
SEIHIN
  6
CONTINUOUS
 62
     3
 48
5.0
100
AcDbCircle
 10
194.0573097259227
 20
90.0470835979407
 30
0.0
 40
0.8999900998910979
100
AcDbArc
 50
210.0007277808262
 51
0.0
  0
LINE
  5
2E9
330
1A
100
AcDbEntity
  8
SEIHIN
  6
CONTINUOUS
 62
     3
 48
5.0
100
AcDbLine
 10
189.0279097259227
 20
96.95838359794073
 30
0.0
 11
188.5083097259227
 21
96.65838359794072
 31
0.0
  0
ARC
  5
2EA
330
1A
100
AcDbEntity
  8
SEIHIN
  6
CONTINUOUS
 62
     3
 48
5.0
100
AcDbCircle
 10
203.5083097259227
 20
95.0470835979407
 30
0.0
 40
2.5
100
AcDbArc
 50
180.0
 51
270.0
  0
ARC
  5
2EB
330
1A
100
AcDbEntity
  8
SEIHIN
  6
CONTINUOUS
 62
     3
 48
5.0
100
AcDbCircle
 10
195.5573097259227
 20
95.22708359794071
 30
0.0
 40
2.28001190892901
100
AcDbArc
 50
277.0059496684494
 51
0.0
  0
ARC
  5
2EC
330
1A
100
AcDbEntity
  8
SEIHIN
  6
CONTINUOUS
 62
     3
 48
5.0
100
AcDbCircle
 10
195.5573097259227
 20
95.22708359794071
 30
0.0
 40
2.679969171287158
100
AcDbArc
 50
279.0468726988462
 51
0.0
  0
ARC
  5
2ED
330
1A
100
AcDbEntity
  8
SEIHIN
  6
CONTINUOUS
 62
     3
 48
5.0
100
AcDbCircle
 10
203.5083097259227
 20
104.5970835979407
 30
0.0
 40
1.0
100
AcDbArc
 50
180.0
 51
270.0
  0
LINE
  5
2EE
330
1A
100
AcDbEntity
  8
SEIHIN
  6
CONTINUOUS
 62
     3
 48
5.0
100
AcDbLine
 10
203.5083097259227
 20
97.54708359794072
 30
0.0
 11
204.5083097259227
 21
97.54708359794072
 31
0.0
  0
LINE
  5
2EF
330
1A
100
AcDbEntity
  8
SEIHIN
  6
CONTINUOUS
 62
     3
 48
5.0
100
AcDbLine
 10
203.5083097259227
 20
107.5470835979407
 30
0.0
 11
204.5083097259227
 21
107.5470835979407
 31
0.0
  0
LINE
  5
2F0
330
1A
100
AcDbEntity
  8
SEIHIN
  6
CONTINUOUS
 62
     3
 48
5.0
100
AcDbLine
 10
202.5083097259227
 20
104.5970835979407
 30
0.0
 11
202.5083097259227
 21
108.4470835979407
 31
0.0
  0
LINE
  5
305
330
1A
100
AcDbEntity
  8
SEIHIN
  6
CONTINUOUS
 62
     3
 48
5.0
100
AcDbLine
 10
186.1478097259227
 20
112.0470835979407
 30
0.0
 11
198.5083097259227
 21
112.0470835979407
 31
0.0
  0
ARC
  5
306
330
1A
100
AcDbEntity
  8
SEIHIN
  6
CONTINUOUS
 62
     3
 48
5.0
100
AcDbCircle
 10
201.5083097259227
 20
114.5470835979407
 30
0.0
 40
3.0
100
AcDbArc
 50
0.0
 51
90.0
  0
LINE
  5
30F
330
1A
100
AcDbEntity
  8
SEIHIN
  6
CONTINUOUS
 62
     3
 48
5.0
100
AcDbLine
 10
204.5083097259227
 20
215.2157835979407
 30
0.0
 11
178.5083097259227
 21
215.2157835979407
 31
0.0
  0
LINE
  5
310
330
1A
100
AcDbEntity
  8
SEIHIN
  6
CONTINUOUS
 62
     3
 48
5.0
100
AcDbLine
 10
167.9613097259227
 20
218.9657835979406
 30
0.0
 11
204.5083097259227
 21
226.4196835979407
 31
0.0
  0
LINE
  5
311
330
1A
100
AcDbEntity
  8
SEIHIN
  6
CONTINUOUS
 62
     3
 48
5.0
100
AcDbLine
 10
167.9613097259227
 20
203.4657835979407
 30
0.0
 11
204.5083097259227
 21
196.0117835979407
 31
0.0
  0
LINE
  5
312
330
1A
100
AcDbEntity
  8
SEIHIN
  6
CONTINUOUS
 62
     3
 48
5.0
100
AcDbLine
 10
204.5083097259227
 20
207.2157835979407
 30
0.0
 11
178.5083097259227
 21
207.2157835979407
 31
0.0
  0
LINE
  5
313
330
1A
100
AcDbEntity
  8
SEIHIN
  6
CONTINUOUS
 62
     3
 48
5.0
100
AcDbLine
 10
111.3083097259226
 20
204.7157835979407
 30
0.0
 11
111.3083097259226
 21
211.2157835979407
 31
0.0
  0
LINE
  5
314
330
1A
100
AcDbEntity
  8
SEIHIN
  6
CONTINUOUS
 62
     3
 48
5.0
100
AcDbLine
 10
103.5083097259227
 20
204.7157835979407
 30
0.0
 11
103.5083097259227
 21
211.2157835979407
 31
0.0
  0
LINE
  5
315
330
1A
100
AcDbEntity
  8
SEIHIN
  6
CONTINUOUS
 62
     3
 48
5.0
100
AcDbLine
 10
103.5083097259227
 20
217.7157835979407
 30
0.0
 11
103.5083097259227
 21
211.2157835979407
 31
0.0
  0
LINE
  5
316
330
1A
100
AcDbEntity
  8
SEIHIN
  6
CONTINUOUS
 62
     3
 48
5.0
100
AcDbLine
 10
111.3083097259226
 20
217.7157835979407
 30
0.0
 11
111.3083097259226
 21
211.2157835979407
 31
0.0
  0
LINE
  5
317
330
1A
100
AcDbEntity
  8
SEIHIN
  6
CONTINUOUS
 62
     3
 48
5.0
100
AcDbLine
 10
147.9613097259227
 20
218.9657835979406
 30
0.0
 11
167.9613097259227
 21
218.9657835979406
 31
0.0
  0
LINE
  5
318
330
1A
100
AcDbEntity
  8
SEIHIN
  6
CONTINUOUS
 62
     3
 48
5.0
100
AcDbLine
 10
147.9613097259227
 20
203.4657835979407
 30
0.0
 11
167.9613097259227
 21
203.4657835979407
 31
0.0
  0
LINE
  5
319
330
1A
100
AcDbEntity
  8
SEIHIN
  6
CONTINUOUS
 62
     3
 48
5.0
100
AcDbLine
 10
147.9613097259227
 20
203.4656835979407
 30
0.0
 11
147.9613097259227
 21
211.2157835979407
 31
0.0
  0
LINE
  5
31A
330
1A
100
AcDbEntity
  8
SEIHIN
  6
CONTINUOUS
 62
     3
 48
5.0
100
AcDbLine
 10
147.9613097259227
 20
218.9657835979406
 30
0.0
 11
147.9613097259227
 21
211.2156835979407
 31
0.0
  0
ARC
  5
31C
330
1A
100
AcDbEntity
  8
SEIHIN
  6
CONTINUOUS
 62
     3
 48
5.0
100
AcDbCircle
 10
178.5083097259227
 20
211.2157835979407
 30
0.0
 40
4.0
100
AcDbArc
 50
180.0
 51
270.0
  0
LINE
  5
31D
330
1A
100
AcDbEntity
  8
SEIHIN
  6
CONTINUOUS
 62
     3
 48
5.0
100
AcDbLine
 10
167.9613097259227
 20
203.4657835979407
 30
0.0
 11
167.9613097259227
 21
211.2156835979407
 31
0.0
  0
ARC
  5
31E
330
1A
100
AcDbEntity
  8
SEIHIN
  6
CONTINUOUS
 62
     3
 48
5.0
100
AcDbCircle
 10
180.5083097259227
 20
206.6334835979407
 30
0.0
 40
0.9999605184411958
100
AcDbArc
 50
122.7682775533438
 51
180.0
  0
LINE
  5
31F
330
1A
100
AcDbEntity
  8
SEIHIN
  6
CONTINUOUS
 62
     3
 48
5.0
100
AcDbLine
 10
179.5083097259227
 20
202.3592835979407
 30
0.0
 11
179.5083097259227
 21
206.6334835979407
 31
0.0
  0
ARC
  5
320
330
1A
100
AcDbEntity
  8
SEIHIN
  6
CONTINUOUS
 62
     3
 48
5.0
100
AcDbCircle
 10
178.5083097259227
 20
211.2157835979407
 30
0.0
 40
4.0
100
AcDbArc
 50
90.0
 51
180.0
  0
LINE
  5
321
330
1A
100
AcDbEntity
  8
SEIHIN
  6
CONTINUOUS
 62
     3
 48
5.0
100
AcDbLine
 10
167.9613097259227
 20
218.9657835979406
 30
0.0
 11
167.9613097259227
 21
211.2157835979407
 31
0.0
  0
ARC
  5
322
330
1A
100
AcDbEntity
  8
SEIHIN
  6
CONTINUOUS
 62
     3
 48
5.0
100
AcDbCircle
 10
180.5083097259227
 20
215.7979835979407
 30
0.0
 40
0.9999605184411958
100
AcDbArc
 50
180.0
 51
237.2317224466561
  0
LINE
  5
324
330
1A
100
AcDbEntity
  8
SEIHIN
  6
CONTINUOUS
 62
     3
 48
5.0
100
AcDbLine
 10
179.5083097259227
 20
220.0721835979407
 30
0.0
 11
179.5083097259227
 21
215.7979835979407
 31
0.0
  0
LINE
  5
326
330
1A
100
AcDbEntity
  8
SEIHIN
  6
CONTINUOUS
 62
     3
 48
5.0
100
AcDbLine
 10
204.5083097259227
 20
233.7157835979407
 30
0.0
 11
204.5083097259227
 21
211.2157835979407
 31
0.0
  0
LINE
  5
329
330
1A
100
AcDbEntity
  8
SEIHIN
  6
CONTINUOUS
 62
     3
 48
5.0
100
AcDbLine
 10
203.5083097259227
 20
188.7157835979407
 30
0.0
 11
199.6368097259227
 21
195.3126835979407
 31
0.0
  0
LINE
  5
32A
330
1A
100
AcDbEntity
  8
SEIHIN
  6
CONTINUOUS
 62
     3
 48
5.0
100
AcDbLine
 10
204.5083097259227
 20
188.7156835979407
 30
0.0
 11
204.5083097259227
 21
211.2156835979407
 31
0.0
  0
LINE
  5
32B
330
1A
100
AcDbEntity
  8
SEIHIN
  6
CONTINUOUS
 62
     3
 48
5.0
100
AcDbLine
 10
204.5083097259227
 20
188.7157835979407
 30
0.0
 11
203.5083097259227
 21
188.7157835979407
 31
0.0
  0
LINE
  5
32C
330
1A
100
AcDbEntity
  8
CENTER_L
  6
CENTER
 62
     1
 48
5.0
100
AcDbLine
 10
208.4782097259227
 20
194.7157835979407
 30
0.0
 11
196.9101097259227
 21
194.7157835979407
 31
0.0
  0
ARC
  5
32D
330
1A
100
AcDbEntity
  8
SEIHIN
  6
CONTINUOUS
 62
     3
 48
5.0
100
AcDbCircle
 10
206.4580097259226
 20
211.2158835979407
 30
0.0
 40
4.449717421892793
100
AcDbArc
 50
180.0012876324128
 51
244.0148318304971
  0
ARC
  5
32E
330
1A
100
AcDbEntity
  8
SEIHIN
  6
CONTINUOUS
 62
     3
 48
5.0
100
AcDbCircle
 10
195.3245097259227
 20
192.7819835979406
 30
0.0
 40
4.999997761342557
100
AcDbArc
 50
30.40680601902275
 51
78.47229935061456
  0
ARC
  5
32F
330
1A
100
AcDbEntity
  8
SEIHIN
  6
CONTINUOUS
 62
     3
 48
5.0
100
AcDbCircle
 10
206.4580097259226
 20
211.2155835979407
 30
0.0
 40
4.449717423578287
100
AcDbArc
 50
115.9851681695025
 51
179.9974247351738
  0
LINE
  5
333
330
1A
100
AcDbEntity
  8
CENTER_L
  6
CENTER
 62
     1
 48
5.0
100
AcDbLine
 10
208.4782097259227
 20
227.7157835979407
 30
0.0
 11
196.9101097259227
 21
227.7157835979407
 31
0.0
  0
LINE
  5
334
330
1A
100
AcDbEntity
  8
SEIHIN
  6
CONTINUOUS
 62
     3
 48
5.0
100
AcDbLine
 10
203.5083097259227
 20
233.7157835979407
 30
0.0
 11
199.6368097259227
 21
227.1187835979407
 31
0.0
  0
ARC
  5
335
330
1A
100
AcDbEntity
  8
SEIHIN
  6
CONTINUOUS
 62
     3
 48
5.0
100
AcDbCircle
 10
195.3245097259227
 20
229.6495835979407
 30
0.0
 40
5.000072059955342
100
AcDbArc
 50
281.5274716502679
 51
329.5922056993977
  0
LINE
  5
336
330
1A
100
AcDbEntity
  8
SEIHIN
  6
CONTINUOUS
 62
     3
 48
5.0
100
AcDbLine
 10
204.5083097259227
 20
233.7157835979407
 30
0.0
 11
203.5083097259227
 21
233.7157835979407
 31
0.0
  0
LINE
  5
33B
330
1A
100
AcDbEntity
  8
SEIHIN
  6
CONTINUOUS
 62
     3
 48
5.0
100
AcDbLine
 10
315.5083097259227
 20
112.0970835979407
 30
0.0
 11
315.5083097259227
 21
105.0970835979407
 31
0.0
  0
LINE
  5
33C
330
1A
100
AcDbEntity
  8
SEIHIN
  6
CONTINUOUS
 62
     3
 48
5.0
100
AcDbLine
 10
312.5083097259227
 20
112.0970835979407
 30
0.0
 11
312.5083097259227
 21
105.0970835979407
 31
0.0
  0
LINE
  5
33D
330
1A
100
AcDbEntity
  8
SEIHIN
  6
CONTINUOUS
 62
     3
 48
5.0
100
AcDbLine
 10
308.5083097259227
 20
96.54708359794071
 30
0.0
 11
308.5083097259227
 21
117.5470835979407
 31
0.0
  0
LINE
  5
33E
330
1A
100
AcDbEntity
  8
SEIHIN
  6
CONTINUOUS
 62
     3
 48
5.0
100
AcDbLine
 10
327.0083097259227
 20
107.5470835979407
 30
0.0
 11
319.5083097259227
 21
112.0470835979407
 31
0.0
  0
LINE
  5
33F
330
1A
100
AcDbEntity
  8
SEIHIN
  6
CONTINUOUS
 62
     3
 48
5.0
100
AcDbLine
 10
300.5083097259227
 20
96.54708359794071
 30
0.0
 11
300.5083097259227
 21
117.5470835979407
 31
0.0
  0
LINE
  5
340
330
1A
100
AcDbEntity
  8
SEIHIN
  6
CONTINUOUS
 62
     3
 48
5.0
100
AcDbLine
 10
296.5083097259227
 20
112.0970835979407
 30
0.0
 11
296.5083097259227
 21
105.0970835979407
 31
0.0
  0
LINE
  5
341
330
1A
100
AcDbEntity
  8
SEIHIN
  6
CONTINUOUS
 62
     3
 48
5.0
100
AcDbLine
 10
293.5083097259227
 20
112.0970835979407
 30
0.0
 11
293.5083097259227
 21
105.0970835979407
 31
0.0
  0
LINE
  5
342
330
1A
100
AcDbEntity
  8
SEIHIN
  6
CONTINUOUS
 62
     3
 48
5.0
100
AcDbLine
 10
282.0083097259227
 20
107.5470835979407
 30
0.0
 11
289.5083097259227
 21
112.0470835979407
 31
0.0
  0
LINE
  5
343
330
1A
100
AcDbEntity
  8
CENTER_L
  6
CENTER
 62
     1
 48
5.0
100
AcDbLine
 10
304.5083097259227
 20
66.9312835979407
 30
0.0
 11
304.5083097259227
 21
121.4081835979406
 31
0.0
  0
ARC
  5
344
330
1A
100
AcDbEntity
  8
SEIHIN
  6
CONTINUOUS
 62
     3
 48
5.0
100
AcDbCircle
 10
314.0083097259227
 20
105.0970835979407
 30
0.0
 40
1.5
100
AcDbArc
 50
180.0
 51
0.0
  0
LINE
  5
345
330
1A
100
AcDbEntity
  8
SEIHIN
  6
CONTINUOUS
 62
     3
 48
5.0
100
AcDbLine
 10
327.0083097259227
 20
97.54708359794072
 30
0.0
 11
312.9742097259227
 21
75.22458359794072
 31
0.0
  0
LINE
  5
346
330
1A
100
AcDbEntity
  8
SEIHIN
  6
CONTINUOUS
 62
     3
 48
5.0
100
AcDbLine
 10
282.0083097259227
 20
97.54708359794072
 30
0.0
 11
296.0424097259227
 21
75.22458359794072
 31
0.0
  0
ARC
  5
347
330
1A
100
AcDbEntity
  8
SEIHIN
  6
CONTINUOUS
 62
     3
 48
5.0
100
AcDbCircle
 10
304.5083097259227
 20
80.54708359794071
 30
0.0
 40
10.00001172648625
100
AcDbArc
 50
212.1575202091197
 51
270.0
  0
CIRCLE
  5
348
330
1A
100
AcDbEntity
  8
SEIHIN
  6
CONTINUOUS
 62
     3
 48
5.0
100
AcDbCircle
 10
304.5083097259227
 20
76.54708359794071
 30
0.0
 40
2.049999999999954
  0
LINE
  5
349
330
1A
100
AcDbEntity
  8
CENTER_L
  6
CENTER
 62
     1
 48
5.0
100
AcDbLine
 10
300.0879097259227
 20
76.54708359794071
 30
0.0
 11
304.5083097259227
 21
76.54708359794071
 31
0.0
  0
ARC
  5
34A
330
1A
100
AcDbEntity
  8
SEIHIN
  6
CONTINUOUS
 62
     3
 48
5.0
100
AcDbCircle
 10
304.5083097259227
 20
80.54708359794071
 30
0.0
 40
10.00001172648624
100
AcDbArc
 50
270.0
 51
327.8424797908801
  0
LINE
  5
34B
330
1A
100
AcDbEntity
  8
CENTER_L
  6
CENTER
 62
     1
 48
5.0
100
AcDbLine
 10
308.9287097259227
 20
76.54708359794071
 30
0.0
 11
304.5083097259227
 21
76.54708359794071
 31
0.0
  0
ARC
  5
34C
330
1A
100
AcDbEntity
  8
SEIHIN
  6
CONTINUOUS
 62
     3
 48
5.0
100
AcDbCircle
 10
295.0083097259227
 20
105.0970835979407
 30
0.0
 40
1.5
100
AcDbArc
 50
180.0
 51
0.0
  0
LINE
  5
34D
330
1A
100
AcDbEntity
  8
SEIHIN
  6
CONTINUOUS
 62
     3
 48
5.0
100
AcDbLine
 10
282.0083097259227
 20
97.54708359794072
 30
0.0
 11
282.0083097259227
 21
107.5470835979407
 31
0.0
  0
LINE
  5
34E
330
1A
100
AcDbEntity
  8
CENTER_L
  6
CENTER
 62
     1
 48
5.0
100
AcDbLine
 10
288.0083097259227
 20
97.57728359794072
 30
0.0
 11
288.0083097259227
 21
105.2395835979407
 31
0.0
  0
CIRCLE
  5
34F
330
1A
100
AcDbEntity
  8
SEIHIN
  6
CONTINUOUS
 62
     3
 48
5.0
100
AcDbCircle
 10
288.0083097259227
 20
101.5470835979407
 30
0.0
 40
2.049999999999954
  0
LINE
  5
350
330
1A
100
AcDbEntity
  8
CENTER_L
  6
CENTER
 62
     1
 48
5.0
100
AcDbLine
 10
283.7190097259227
 20
101.5470835979407
 30
0.0
 11
292.9087097259227
 21
101.5470835979407
 31
0.0
  0
ARC
  5
351
330
1A
100
AcDbEntity
  8
SEIHIN
  6
CONTINUOUS
 62
     3
 48
5.0
100
AcDbCircle
 10
304.5083097259227
 20
96.54708359794071
 30
0.0
 40
4.0
100
AcDbArc
 50
180.0
 51
270.0
  0
ARC
  5
352
330
1A
100
AcDbEntity
  8
SEIHIN
  6
CONTINUOUS
 62
     3
 48
5.0
100
AcDbCircle
 10
304.5083097259227
 20
96.54708359794071
 30
0.0
 40
4.0
100
AcDbArc
 50
270.0
 51
0.0
  0
LINE
  5
356
330
1A
100
AcDbEntity
  8
CENTER_L
  6
CENTER
 62
     1
 48
5.0
100
AcDbLine
 10
321.0083097259227
 20
97.57728359794072
 30
0.0
 11
321.0083097259227
 21
105.2395835979407
 31
0.0
  0
CIRCLE
  5
357
330
1A
100
AcDbEntity
  8
SEIHIN
  6
CONTINUOUS
 62
     3
 48
5.0
100
AcDbCircle
 10
321.0083097259227
 20
101.5470835979407
 30
0.0
 40
2.049999999999954
  0
LINE
  5
358
330
1A
100
AcDbEntity
  8
CENTER_L
  6
CENTER
 62
     1
 48
5.0
100
AcDbLine
 10
325.2975097259227
 20
101.5470835979407
 30
0.0
 11
316.1079097259226
 21
101.5470835979407
 31
0.0
  0
LINE
  5
359
330
1A
100
AcDbEntity
  8
SEIHIN
  6
CONTINUOUS
 62
     3
 48
5.0
100
AcDbLine
 10
327.0083097259227
 20
97.54708359794072
 30
0.0
 11
327.0083097259227
 21
107.5470835979407
 31
0.0
  0
ARC
  5
35E
330
1A
100
AcDbEntity
  8
SEIHIN
  6
CONTINUOUS
 62
     3
 48
5.0
100
AcDbCircle
 10
314.0083097259227
 20
112.0970835979407
 30
0.0
 40
1.5
100
AcDbArc
 50
0.0
 51
180.0
  0
LINE
  5
35F
330
1A
100
AcDbEntity
  8
SEIHIN
  6
CONTINUOUS
 62
     3
 48
5.0
100
AcDbLine
 10
318.0083097259227
 20
117.5470835979407
 30
0.0
 11
308.5083097259226
 21
117.5470835979407
 31
0.0
  0
ARC
  5
364
330
1A
100
AcDbEntity
  8
SEIHIN
  6
CONTINUOUS
 62
     3
 48
5.0
100
AcDbCircle
 10
295.0083097259227
 20
112.0970835979407
 30
0.0
 40
1.5
100
AcDbArc
 50
0.0
 51
180.0
  0
LINE
  5
365
330
1A
100
AcDbEntity
  8
SEIHIN
  6
CONTINUOUS
 62
     3
 48
5.0
100
AcDbLine
 10
291.0083097259227
 20
117.5470835979407
 30
0.0
 11
300.5083097259226
 21
117.5470835979407
 31
0.0
  0
ARC
  5
367
330
1A
100
AcDbEntity
  8
SEIHIN
  6
CONTINUOUS
 62
     3
 48
5.0
100
AcDbCircle
 10
291.0083097259227
 20
116.0470835979407
 30
0.0
 40
1.5
100
AcDbArc
 50
90.0
 51
180.0
  0
LINE
  5
368
330
1A
100
AcDbEntity
  8
SEIHIN
  6
CONTINUOUS
 62
     3
 48
5.0
100
AcDbLine
 10
289.5083097259227
 20
112.0470835979407
 30
0.0
 11
289.5083097259227
 21
116.0470835979407
 31
0.0
  0
ARC
  5
369
330
1A
100
AcDbEntity
  8
SEIHIN
  6
CONTINUOUS
 62
     3
 48
5.0
100
AcDbCircle
 10
304.5083097259227
 20
119.4970835979407
 30
0.0
 40
4.450000000000011
100
AcDbArc
 50
205.9892335838331
 51
270.0
  0
ARC
  5
36A
330
1A
100
AcDbEntity
  8
SEIHIN
  6
CONTINUOUS
 62
     3
 48
5.0
100
AcDbCircle
 10
304.5083097259227
 20
119.4970835979407
 30
0.0
 40
4.450000000000011
100
AcDbArc
 50
270.0
 51
334.0107664161668
  0
ARC
  5
370
330
1A
100
AcDbEntity
  8
SEIHIN
  6
CONTINUOUS
 62
     3
 48
5.0
100
AcDbCircle
 10
318.0083097259227
 20
116.0470835979407
 30
0.0
 40
1.5
100
AcDbArc
 50
0.0
 51
90.0
  0
LINE
  5
371
330
1A
100
AcDbEntity
  8
SEIHIN
  6
CONTINUOUS
 62
     3
 48
5.0
100
AcDbLine
 10
319.5083097259227
 20
112.0470835979407
 30
0.0
 11
319.5083097259227
 21
116.0470835979407
 31
0.0
  0
DIMENSION
  5
37F
330
1A
100
AcDbEntity
  8
SUNPOU
 48
5.0
100
AcDbDimension
  2
*D1
 10
226.8749720740461
 20
70.54708359794069
 30
0.0
 11
224.374972074046
 21
94.04708359794074
 31
0.0
 70
    32
  3
STANDARD
100
AcDbAlignedDimension
 13
204.5083097259227
 23
117.5470835979407
 33
0.0
 14
204.5083097259227
 24
70.54708359794071
 34
0.0
 50
90.0
100
AcDbRotatedDimension
1001
ACAD
1000
DSTYLE
1002
{
1070
    41
1040
3.0
1070
    42
1040
3.0
1070
    43
1040
7.0
1070
    44
1040
1.5
1070
    73
1070
     0
1070
    74
1070
     0
1070
    77
1070
     3
1070
   140
1040
3.0
1070
   141
1040
150.0
1070
   147
1040
1.0
1070
   172
1070
     1
1070
   173
1070
     1
1070
   176
1070
     4
1070
   177
1070
     4
1070
   178
1070
     4
1070
   271
1070
     0
1070
   272
1070
     2
1070
   341
1005
B2
1070
     6
1000
OPEN
1070
     7
1000
OPEN
1002
}
  0
DIMENSION
  5
38D
330
1A
100
AcDbEntity
  8
SUNPOU
 48
5.0
100
AcDbDimension
  2
*D2
 10
204.5083097259227
 20
52.44230905134179
 30
0.0
 11
215.2583097259227
 21
54.94230905134179
 31
0.0
 70
    32
  1
t<>
  3
STANDARD
100
AcDbAlignedDimension
 13
203.5083097259227
 23
70.54708359794071
 33
0.0
 14
204.5083097259227
 24
70.54708359794071
 34
0.0
100
AcDbRotatedDimension
1001
ACAD
1000
DSTYLE
1002
{
1070
    41
1040
3.0
1070
    42
1040
3.0
1070
    43
1040
7.0
1070
    44
1040
1.5
1070
    73
1070
     0
1070
    74
1070
     0
1070
    77
1070
     3
1070
   140
1040
3.0
1070
   141
1040
150.0
1070
   147
1040
1.0
1070
   172
1070
     1
1070
   173
1070
     1
1070
   176
1070
     4
1070
   177
1070
     4
1070
   178
1070
     4
1070
   271
1070
     1
1070
   272
1070
     2
1070
   341
1005
B2
1070
     6
1000
OPEN
1070
     7
1000
OPEN
1002
}
  0
DIMENSION
  5
39C
330
1A
100
AcDbEntity
  8
SUNPOU
 48
5.0
100
AcDbDimension
  2
*D3
 10
83.50830972592275
 20
147.4949423698603
 30
0.0
 11
144.0083097259227
 21
149.9949423698604
 31
0.0
 70
    32
  3
STANDARD
100
AcDbAlignedDimension
 13
204.5083097259227
 23
117.5470835979407
 33
0.0
 14
83.50830972592275
 24
106.0470835979407
 34
0.0
100
AcDbRotatedDimension
1001
ACAD
1000
DSTYLE
1002
{
1070
    41
1040
3.0
1070
    42
1040
3.0
1070
    43
1040
7.0
1070
    44
1040
1.5
1070
    73
1070
     0
1070
    74
1070
     0
1070
    77
1070
     3
1070
   140
1040
3.0
1070
   141
1040
150.0
1070
   147
1040
1.0
1070
   172
1070
     1
1070
   173
1070
     1
1070
   176
1070
     4
1070
   177
1070
     4
1070
   178
1070
     4
1070
   271
1070
     0
1070
   272
1070
     2
1070
   341
1005
B2
1070
     6
1000
OPEN
1070
     7
1000
OPEN
1002
}
  0
DIMENSION
  5
3B6
330
1A
100
AcDbEntity
  8
SUNPOU
 48
5.0
100
AcDbDimension
  2
*D4
 10
57.62861597703363
 20
70.54708359794076
 30
0.0
 11
55.12861597703362
 21
88.29708359794073
 31
0.0
 70
    32
  3
STANDARD
100
AcDbAlignedDimension
 13
83.50830972592275
 23
106.0470835979407
 33
0.0
 14
203.5083097259227
 24
70.54708359794071
 34
0.0
 50
90.0
100
AcDbRotatedDimension
1001
ACAD
1000
DSTYLE
1002
{
1070
    41
1040
3.0
1070
    42
1040
3.0
1070
    43
1040
7.0
1070
    44
1040
1.5
1070
    73
1070
     0
1070
    74
1070
     0
1070
    77
1070
     3
1070
   140
1040
3.0
1070
   141
1040
150.0
1070
   147
1040
1.0
1070
   172
1070
     1
1070
   173
1070
     1
1070
   176
1070
     4
1070
   177
1070
     4
1070
   178
1070
     4
1070
   271
1070
     0
1070
   272
1070
     2
1070
   341
1005
B2
1070
     6
1000
OPEN
1070
     7
1000
OPEN
1002
}
  0
DIMENSION
  5
3C3
330
1A
100
AcDbEntity
  8
SUNPOU
 48
5.0
100
AcDbDimension
  2
*D5
 10
66.04418114232385
 20
101.0470835979407
 30
0.0
 11
63.54418114232383
 21
103.5470835979407
 31
0.0
 70
    32
  3
STANDARD
100
AcDbAlignedDimension
 13
83.50830972592275
 23
106.0470835979407
 33
0.0
 14
84.90830972592272
 24
101.0470835979407
 34
0.0
 50
90.0
100
AcDbRotatedDimension
1001
ACAD
1000
DSTYLE
1002
{
1070
    41
1040
3.0
1070
    42
1040
3.0
1070
    43
1040
7.0
1070
    44
1040
1.5
1070
    73
1070
     0
1070
    74
1070
     0
1070
    77
1070
     3
1070
   140
1040
3.0
1070
   141
1040
150.0
1070
   147
1040
1.0
1070
   172
1070
     1
1070
   173
1070
     1
1070
   176
1070
     4
1070
   177
1070
     4
1070
   178
1070
     4
1070
   271
1070
     0
1070
   272
1070
     2
1070
   341
1005
B2
1070
     6
1000
OPEN
1070
     7
1000
OPEN
1002
}
  0
DIMENSION
  5
3D2
330
1A
100
AcDbEntity
  8
SUNPOU
 48
5.0
100
AcDbDimension
  2
*D6
 10
160.4855178978396
 20
97.5470835979407
 30
0.0
 11
157.9855178978395
 21
107.5470835979407
 31
0.0
 70
    32
  3
STANDARD
100
AcDbAlignedDimension
 13
179.5083685494521
 23
117.5470835979407
 33
0.0
 14
147.9613097259227
 24
97.54708359794072
 34
0.0
 50
90.0
100
AcDbRotatedDimension
1001
ACAD
1000
DSTYLE
1002
{
1070
    41
1040
3.0
1070
    42
1040
3.0
1070
    43
1040
7.0
1070
    44
1040
1.5
1070
    73
1070
     0
1070
    74
1070
     0
1070
    77
1070
     3
1070
   140
1040
3.0
1070
   141
1040
150.0
1070
   147
1040
1.0
1070
   172
1070
     1
1070
   173
1070
     1
1070
   176
1070
     4
1070
   177
1070
     4
1070
   178
1070
     4
1070
   271
1070
     0
1070
   272
1070
     2
1070
   341
1005
B2
1070
     6
1000
OPEN
1070
     7
1000
OPEN
1002
}
  0
LEADER
  5
3DF
330
1A
100
AcDbEntity
  8
SUNPOU
 48
5.0
100
AcDbLeader
  3
STANDARD
 40
3.0
 41
14.59999999999999
 76
     3
 10
322.4717097259227
 20
100.1114835979407
 30
0.0
 10
337.5964480930444
 20
77.27979025062484
 30
0.0
 10
356.7415495936259
 20
77.27979025062484
 30
0.0
213
0.0
223
-1.5
233
0.0
1001
ACAD
1000
DSTYLE
1002
{
1070
     6
1000
OPEN
1070
    41
1040
3.0
1070
    42
1040
3.0
1070
    43
1040
7.0
1070
    44
1040
1.5
1070
    73
1070
     0
1070
    74
1070
     0
1070
    77
1070
     0
1070
   140
1040
3.0
1070
   141
1040
150.0
1070
   147
1040
1.0
1070
   172
1070
     1
1070
   173
1070
     1
1070
   176
1070
     4
1070
   177
1070
     4
1070
   178
1070
     4
1070
   271
1070
     0
1070
   272
1070
     2
1070
   341
1005
B2
1070
   343
1005
B2
1070
   344
1005
B2
1002
}
  0
MTEXT
  5
3E8
330
1A
100
AcDbEntity
  8
SUNPOU
 62
     4
 48
5.0
100
AcDbMText
 10
338.9408197937163
 20
81.62526962038748
 30
0.0
 40
3.0
 41
0.0
 71
     1
 72
     5
  1
\A1;3-φ4.1
1001
ACAD
1000
MTEXTBEGIN
1070
    73
1070
     1
1070
    44
1040
1.0
1070
    74
1070
     0
1000
MTEXTEND
1000
MTEXTBEGIN
1070
    73
1070
     1
1070
    44
1040
1.0
1070
    74
1070
     0
1000
MTEXTEND
1000
MTEXTBEGIN
1070
    73
1070
     1
1070
    44
1040
1.0
1070
    74
1070
     0
1000
MTEXTEND
  0
DIMENSION
  5
3E9
330
1A
100
AcDbEntity
  8
SUNPOU
 48
5.0
100
AcDbDimension
  2
*D7
 10
319.5083097259227
 20
129.5534790803685
 30
0.0
 11
304.5083097259227
 21
132.0534790803685
 31
0.0
 70
    32
  3
STANDARD
100
AcDbAlignedDimension
 13
289.5083097259227
 23
117.5470835979407
 33
0.0
 14
319.5083097259227
 24
117.5470835979407
 34
0.0
100
AcDbRotatedDimension
1001
ACAD
1000
DSTYLE
1002
{
1070
    41
1040
3.0
1070
    42
1040
3.0
1070
    43
1040
7.0
1070
    44
1040
1.5
1070
    73
1070
     0
1070
    74
1070
     0
1070
    77
1070
     3
1070
   140
1040
3.0
1070
   141
1040
150.0
1070
   147
1040
1.0
1070
   172
1070
     1
1070
   173
1070
     1
1070
   176
1070
     4
1070
   177
1070
     4
1070
   178
1070
     4
1070
   271
1070
     0
1070
   272
1070
     2
1070
   341
1005
B2
1070
     6
1000
OPEN
1070
     7
1000
OPEN
1002
}
  0
DIMENSION
  5
3F7
330
1A
100
AcDbEntity
  8
SUNPOU
 48
5.0
100
AcDbDimension
  2
*D8
 10
327.0083097259227
 20
145.2235336421141
 30
0.0
 11
304.5083097259227
 21
147.7235336421141
 31
0.0
 70
    32
  3
STANDARD
100
AcDbAlignedDimension
 13
282.0083097259227
 23
107.5470835979407
 33
0.0
 14
327.0083097259227
 24
107.5470835979407
 34
0.0
100
AcDbRotatedDimension
1001
ACAD
1000
DSTYLE
1002
{
1070
    41
1040
3.0
1070
    42
1040
3.0
1070
    43
1040
7.0
1070
    44
1040
1.5
1070
    73
1070
     0
1070
    74
1070
     0
1070
    77
1070
     3
1070
   140
1040
3.0
1070
   141
1040
150.0
1070
   147
1040
1.0
1070
   172
1070
     1
1070
   173
1070
     1
1070
   176
1070
     4
1070
   177
1070
     4
1070
   178
1070
     4
1070
   271
1070
     0
1070
   272
1070
     2
1070
   341
1005
B2
1070
     6
1000
OPEN
1070
     7
1000
OPEN
1002
}
  0
DIMENSION
  5
40D
330
1A
100
AcDbEntity
  8
SUNPOU
 48
5.0
100
AcDbDimension
  2
*D9
 10
321.0083097259227
 20
137.7275385674789
 30
0.0
 11
304.5083097259227
 21
140.2275385674789
 31
0.0
 70
    32
  3
STANDARD
100
AcDbAlignedDimension
 13
288.0083097259227
 23
105.2395835979407
 33
0.0
 14
321.0083097259227
 24
105.2395835979407
 34
0.0
100
AcDbRotatedDimension
1001
ACAD
1000
DSTYLE
1002
{
1070
    41
1040
3.0
1070
    42
1040
3.0
1070
    43
1040
7.0
1070
    44
1040
1.5
1070
    73
1070
     0
1070
    74
1070
     0
1070
    77
1070
     3
1070
   140
1040
3.0
1070
   141
1040
150.0
1070
   147
1040
1.0
1070
   172
1070
     1
1070
   173
1070
     1
1070
   176
1070
     4
1070
   177
1070
     4
1070
   178
1070
     4
1070
   271
1070
     0
1070
   272
1070
     2
1070
   341
1005
B2
1070
     6
1000
OPEN
1070
     7
1000
OPEN
1002
}
  0
DIMENSION
  5
41A
330
1A
100
AcDbEntity
  8
SUNPOU
 48
5.0
100
AcDbDimension
  2
*D10
 10
266.1829708773936
 20
101.5470835979407
 30
0.0
 11
263.6829708773936
 21
109.5470835979407
 31
0.0
 70
    32
  3
STANDARD
100
AcDbAlignedDimension
 13
289.5083097259227
 23
117.5470835979407
 33
0.0
 14
283.7190097259227
 24
101.5470835979407
 34
0.0
 50
90.0
100
AcDbRotatedDimension
1001
ACAD
1000
DSTYLE
1002
{
1070
    41
1040
3.0
1070
    42
1040
3.0
1070
    43
1040
7.0
1070
    44
1040
1.5
1070
    73
1070
     0
1070
    74
1070
     0
1070
    77
1070
     3
1070
   140
1040
3.0
1070
   141
1040
150.0
1070
   147
1040
1.0
1070
   172
1070
     1
1070
   173
1070
     1
1070
   176
1070
     4
1070
   177
1070
     4
1070
   178
1070
     4
1070
   271
1070
     0
1070
   272
1070
     2
1070
   341
1005
B2
1070
     6
1000
OPEN
1070
     7
1000
OPEN
1002
}
  0
DIMENSION
  5
427
330
1A
100
AcDbEntity
  8
SUNPOU
 48
5.0
100
AcDbDimension
  2
*D11
 10
282.6897754877713
 20
70.54707187145446
 30
0.0
 11
280.1897754877714
 21
73.54707773469764
 31
0.0
 70
    32
  3
STANDARD
100
AcDbAlignedDimension
 13
300.0879097259227
 23
76.54708359794071
 33
0.0
 14
304.5083097259227
 24
70.54707187145445
 34
0.0
 50
90.0
100
AcDbRotatedDimension
1001
ACAD
1000
DSTYLE
1002
{
1070
    41
1040
3.0
1070
    42
1040
3.0
1070
    43
1040
7.0
1070
    44
1040
1.5
1070
    73
1070
     0
1070
    74
1070
     0
1070
    77
1070
     3
1070
   140
1040
3.0
1070
   141
1040
150.0
1070
   147
1040
1.0
1070
   172
1070
     1
1070
   173
1070
     1
1070
   176
1070
     4
1070
   177
1070
     4
1070
   178
1070
     4
1070
   271
1070
     0
1070
   272
1070
     2
1070
   341
1005
B2
1070
     6
1000
OPEN
1070
     7
1000
OPEN
1002
}
  0
DIMENSION
  5
436
330
1A
100
AcDbEntity
  8
SUNPOU
 48
5.0
100
AcDbDimension
  2
*D12
 10
256.5790122347168
 20
117.4851212752961
 30
0.0
 11
254.0790122347168
 21
94.01609657337536
 31
0.0
 70
    32
  3
STANDARD
100
AcDbAlignedDimension
 13
304.5083097259227
 23
70.54707187145445
 33
0.0
 14
290.5816393162314
 24
117.4851212752961
 34
0.0
 50
90.0
100
AcDbRotatedDimension
1001
ACAD
1000
DSTYLE
1002
{
1070
    41
1040
3.0
1070
    42
1040
3.0
1070
    43
1040
7.0
1070
    44
1040
1.5
1070
    73
1070
     0
1070
    74
1070
     0
1070
    77
1070
     3
1070
   140
1040
3.0
1070
   141
1040
150.0
1070
   147
1040
1.0
1070
   172
1070
     1
1070
   173
1070
     1
1070
   176
1070
     4
1070
   177
1070
     4
1070
   178
1070
     4
1070
   271
1070
     0
1070
   272
1070
     2
1070
   341
1005
B2
1070
     6
1000
OPEN
1070
     7
1000
OPEN
1002
}
  0
DIMENSION
  5
46F
330
1A
100
AcDbEntity
  8
SUNPOU
 48
5.0
100
AcDbDimension
  2
*D13
 10
65.54418114232387
 20
204.7157835979407
 30
0.0
 11
63.04418114232383
 21
211.2157835979407
 31
0.0
 70
    32
  3
STANDARD
100
AcDbAlignedDimension
 13
87.90830972592273
 23
217.7157835979407
 33
0.0
 14
87.90830972592273
 24
204.7157835979407
 34
0.0
 50
90.0
100
AcDbRotatedDimension
1001
ACAD
1000
DSTYLE
1002
{
1070
    41
1040
3.0
1070
    42
1040
3.0
1070
    43
1040
7.0
1070
    44
1040
1.5
1070
    73
1070
     0
1070
    74
1070
     0
1070
    77
1070
     3
1070
   140
1040
3.0
1070
   141
1040
150.0
1070
   147
1040
1.0
1070
   172
1070
     1
1070
   173
1070
     1
1070
   176
1070
     4
1070
   177
1070
     4
1070
   178
1070
     4
1070
   271
1070
     0
1070
   272
1070
     2
1070
   341
1005
B2
1070
     6
1000
OPEN
1070
     7
1000
OPEN
1002
}
  0
DIMENSION
  5
47C
330
1A
100
AcDbEntity
  8
SUNPOU
 48
5.0
100
AcDbDimension
  2
*D14
 10
57.62861597703365
 20
201.2156835979407
 30
0.0
 11
55.12861597703363
 21
211.2157335979407
 31
0.0
 70
    32
  3
STANDARD
100
AcDbAlignedDimension
 13
83.50830972592275
 23
221.2157835979407
 33
0.0
 14
83.50830972592275
 24
201.2156835979407
 34
0.0
 50
90.0
100
AcDbRotatedDimension
1001
ACAD
1000
DSTYLE
1002
{
1070
    41
1040
3.0
1070
    42
1040
3.0
1070
    43
1040
7.0
1070
    44
1040
1.5
1070
    73
1070
     0
1070
    74
1070
     0
1070
    77
1070
     3
1070
   140
1040
3.0
1070
   141
1040
150.0
1070
   147
1040
1.0
1070
   172
1070
     1
1070
   173
1070
     1
1070
   176
1070
     4
1070
   177
1070
     4
1070
   178
1070
     4
1070
   271
1070
     0
1070
   272
1070
     2
1070
   341
1005
B2
1070
     6
1000
OPEN
1070
     7
1000
OPEN
1002
}
  0
LINE
  5
56F
330
1A
100
AcDbEntity
  8
NOKITOI
  6
PHANTOM
 62
     8
 48
5.0
100
AcDbLine
 10
104.5598097259228
 20
57.3430835979407
 30
0.0
 11
170.7904097259228
 21
57.34298359794085
 31
0.0
  0
LINE
  5
570
330
1A
100
AcDbEntity
  8
NOKITOI
  6
PHANTOM
 62
     8
 48
5.0
100
AcDbLine
 10
170.7904097259228
 20
57.34298359794085
 30
0.0
 11
104.5598097259228
 21
57.3430835979407
 31
0.0
  0
LINE
  5
571
330
1A
100
AcDbEntity
  8
NOKITOI
  6
PHANTOM
 62
     8
 48
5.0
100
AcDbLine
 10
109.8755097259228
 20
58.63648359794073
 30
0.0
 11
165.4747097259228
 21
58.63638359794069
 31
0.0
  0
LINE
  5
572
330
1A
100
AcDbEntity
  8
NOKITOI
  6
PHANTOM
 62
     8
 48
5.0
100
AcDbLine
 10
94.6582097259227
 20
70.4646835979407
 30
0.0
 11
88.72720972592277
 21
98.63458359794087
 31
0.0
  0
LINE
  5
573
330
1A
100
AcDbEntity
  8
NOKITOI
  6
PHANTOM
 62
     8
 48
5.0
100
AcDbLine
 10
93.54960972592278
 20
69.4517835979407
 30
0.0
 11
87.71100972592263
 21
97.18308359794086
 31
0.0
  0
LINE
  5
574
330
1A
100
AcDbEntity
  8
NOKITOI
  6
PHANTOM
 62
     8
 48
5.0
100
AcDbLine
 10
105.2347097259227
 20
58.64308359794072
 30
0.0
 11
107.8765097259227
 21
58.64308359794072
 31
0.0
  0
LINE
  5
575
330
1A
100
AcDbEntity
  8
NOKITOI
  6
PHANTOM
 62
     8
 48
5.0
100
AcDbLine
 10
108.0142097259227
 20
66.03278359794083
 30
0.0
 11
101.7933097259227
 21
66.03278359794083
 31
0.0
  0
LINE
  5
576
330
1A
100
AcDbEntity
  8
NOKITOI
  6
PHANTOM
 62
     8
 48
5.0
100
AcDbLine
 10
109.6766097259228
 20
67.33278359794084
 30
0.0
 11
99.76590972592283
 21
67.33278359794084
 31
0.0
  0
ARC
  5
577
330
1A
100
AcDbEntity
  8
NOKITOI
  6
PHANTOM
 62
     8
 48
5.0
100
AcDbCircle
 10
90.78958356471368
 20
56.23674348845682
 30
0.0
 40
14.22848866365036
100
AcDbArc
 50
51.52529185494234
 51
71.45345265407179
  0
ARC
  5
578
330
1A
100
AcDbEntity
  8
NOKITOI
  6
PHANTOM
 62
     8
 48
5.0
100
AcDbCircle
 10
90.78951679570959
 20
56.23677562504702
 30
0.0
 40
12.93471022655885
100
AcDbArc
 50
8.676219579622188
 51
74.45245455808946
  0
ARC
  5
579
330
1A
100
AcDbEntity
  8
NOKITOI
  6
PHANTOM
 62
     8
 48
5.0
100
AcDbCircle
 10
90.78951492293608
 20
56.23677298217271
 30
0.0
 40
14.23472333170272
100
AcDbArc
 50
11.37541821407346
 51
40.79334907830746
  0
ARC
  5
57A
330
1A
100
AcDbEntity
  8
NOKITOI
  6
PHANTOM
 62
     8
 48
5.0
100
AcDbCircle
 10
105.2347866847946
 20
59.14310246222905
 30
0.0
 40
0.5000188648192144
100
AcDbArc
 50
191.386728855441
 51
270.0026402191978
  0
ARC
  5
57B
330
1A
100
AcDbEntity
  8
NOKITOI
  6
PHANTOM
 62
     8
 48
5.0
100
AcDbCircle
 10
104.5598173399404
 20
58.33807705769681
 30
0.0
 40
0.9949934597852239
100
AcDbArc
 50
188.6761125650601
 51
269.9995615538234
  0
ARC
  5
57C
330
1A
100
AcDbEntity
  8
NOKITOI
  6
PHANTOM
 62
     8
 48
5.0
100
AcDbCircle
 10
101.7933133852259
 20
65.73279158982041
 30
0.0
 40
0.2999920081427447
100
AcDbArc
 50
90.00069889403132
 51
220.79672841758
  0
ARC
  5
57D
330
1A
100
AcDbEntity
  8
NOKITOI
  6
PHANTOM
 62
     8
 48
5.0
100
AcDbCircle
 10
99.76591303828186
 20
67.53178244215539
 30
0.0
 40
0.1989988442421132
100
AcDbArc
 50
231.5280949042402
 51
269.9990463050545
  0
ARC
  5
57E
330
1A
100
AcDbEntity
  8
NOKITOI
  6
PHANTOM
 62
     8
 48
5.0
100
AcDbCircle
 10
95.63182960769417
 20
70.66966126086075
 30
0.0
 40
0.995060928010462
100
AcDbArc
 50
191.8877567214141
 51
251.4524867922931
  0
ARC
  5
57F
330
1A
100
AcDbEntity
  8
NOKITOI
  6
PHANTOM
 62
     8
 48
5.0
100
AcDbCircle
 10
94.52324975031025
 20
69.6567409337149
 30
0.0
 40
0.9949785960395137
100
AcDbArc
 50
191.8875585738771
 51
254.4495841050101
  0
LINE
  5
580
330
1A
100
AcDbEntity
  8
NOKITOI
  6
PHANTOM
 62
     8
 48
5.0
100
AcDbLine
 10
109.6765097259227
 20
58.83548359794085
 30
0.0
 11
109.6766097259228
 21
67.33278359794084
 31
0.0
  0
LINE
  5
581
330
1A
100
AcDbEntity
  8
NOKITOI
  6
PHANTOM
 62
     8
 48
5.0
100
AcDbLine
 10
108.3765097259226
 20
59.14308359794083
 30
0.0
 11
108.3765097259226
 21
65.67038359794086
 31
0.0
  0
ARC
  5
582
330
1A
100
AcDbEntity
  8
NOKITOI
  6
PHANTOM
 62
     8
 48
5.0
100
AcDbCircle
 10
107.8765097259225
 20
59.14308359794077
 30
0.0
 40
0.5000000000000569
100
AcDbArc
 50
270.0000000000065
 51
0.0000000000065138
  0
ARC
  5
583
330
1A
100
AcDbEntity
  8
NOKITOI
  6
PHANTOM
 62
     8
 48
5.0
100
AcDbCircle
 10
109.8755097259228
 20
58.8354835979408
 30
0.0
 40
0.1990000000000691
100
AcDbArc
 50
179.9999999999837
 51
269.9999999999837
  0
LINE
  5
584
330
1A
100
AcDbEntity
  8
NOKITOI
  6
PHANTOM
 62
     8
 48
5.0
100
AcDbLine
 10
108.8715097259226
 20
66.5276835979407
 30
0.0
 11
108.0142097259227
 21
66.03278359794083
 31
0.0
  0
LINE
  5
585
330
1A
100
AcDbEntity
  8
NOKITOI
  6
PHANTOM
 62
     8
 48
5.0
100
AcDbLine
 10
108.8715097259226
 20
66.5276835979407
 30
0.0
 11
108.3765097259226
 21
65.67038359794086
 31
0.0
  0
LINE
  5
586
330
1A
100
AcDbEntity
  8
NOKITOI
  6
PHANTOM
 62
     8
 48
5.0
100
AcDbLine
 10
85.60080972592279
 20
102.1407835979408
 30
0.0
 11
85.60080972592279
 21
104.5546835979408
 31
0.0
  0
LINE
  5
587
330
1A
100
AcDbEntity
  8
NOKITOI
  6
PHANTOM
 62
     8
 48
5.0
100
AcDbLine
 10
81.96660972592271
 20
104.5546835979408
 30
0.0
 11
81.96660972592271
 21
100.6244835979408
 31
0.0
  0
LINE
  5
588
330
1A
100
AcDbEntity
  8
NOKITOI
  6
PHANTOM
 62
     8
 48
5.0
100
AcDbLine
 10
86.89420972592269
 20
106.3455835979407
 30
0.0
 11
86.89420972592269
 21
102.1407835979408
 31
0.0
  0
LINE
  5
589
330
1A
100
AcDbEntity
  8
NOKITOI
  6
PHANTOM
 62
     8
 48
5.0
100
AcDbLine
 10
80.67310972592283
 20
98.33608359794069
 30
0.0
 11
80.67310972592283
 21
106.3455835979407
 31
0.0
  0
LINE
  5
58A
330
1A
100
AcDbEntity
  8
NOKITOI
  6
PHANTOM
 62
     8
 48
5.0
100
AcDbLine
 10
87.51630972592286
 20
97.3410835979407
 30
0.0
 11
81.66810972592283
 21
97.3410835979407
 31
0.0
  0
ARC
  5
58B
330
1A
100
AcDbEntity
  8
NOKITOI
  6
PHANTOM
 62
     8
 48
5.0
100
AcDbCircle
 10
83.95655972592273
 20
100.6245335979409
 30
0.0
 40
1.989950000628206
100
AcDbArc
 50
180.0014396286237
 51
270.0014396286237
  0
ARC
  5
58C
330
1A
100
AcDbEntity
  8
NOKITOI
  6
PHANTOM
 62
     8
 48
5.0
100
AcDbCircle
 10
81.66810972592283
 20
98.33608359794069
 30
0.0
 40
0.9950000000000045
100
AcDbArc
 50
180.0
 51
270.0
  0
LINE
  5
58D
330
1A
100
AcDbEntity
  8
NOKITOI
  6
PHANTOM
 62
     8
 48
5.0
100
AcDbLine
 10
86.89420972592269
 20
102.1407835979408
 30
0.0
 11
85.60080972592279
 21
102.1407835979408
 31
0.0
  0
LINE
  5
58E
330
1A
100
AcDbEntity
  8
NOKITOI
  6
PHANTOM
 62
     8
 48
5.0
100
AcDbLine
 10
83.95660972592283
 20
98.63458359794087
 30
0.0
 11
88.72720972592277
 21
98.63458359794087
 31
0.0
  0
ARC
  5
58F
330
1A
100
AcDbEntity
  8
NOKITOI
  6
PHANTOM
 62
     8
 48
5.0
100
AcDbCircle
 10
87.51629128330854
 20
97.14209856137756
 30
0.0
 40
0.1989850374177657
100
AcDbArc
 50
11.88631382809341
 51
89.9946896310665
  0
LINE
  5
590
330
1A
100
AcDbEntity
  8
NOKITOI
  6
PHANTOM
 62
     8
 48
5.0
100
AcDbLine
 10
81.66810972592283
 20
107.3405835979408
 30
0.0
 11
85.89930972592277
 21
107.3405835979408
 31
0.0
  0
ARC
  5
591
330
1A
100
AcDbEntity
  8
NOKITOI
  6
PHANTOM
 62
     8
 48
5.0
100
AcDbCircle
 10
83.45905972592268
 20
104.5546335979407
 30
0.0
 40
1.49245000083754
100
AcDbArc
 50
89.99808047909004
 51
179.99808047909
  0
ARC
  5
592
330
1A
100
AcDbEntity
  8
NOKITOI
  6
PHANTOM
 62
     8
 48
5.0
100
AcDbCircle
 10
81.66810972592283
 20
106.3455835979407
 30
0.0
 40
0.9950000000000613
100
AcDbArc
 50
90.00000000000325
 51
180.0000000000032
  0
ARC
  5
593
330
1A
100
AcDbEntity
  8
NOKITOI
  6
PHANTOM
 62
     8
 48
5.0
100
AcDbCircle
 10
85.89925972592267
 20
106.3456335979408
 30
0.0
 40
0.9949500012563332
100
AcDbArc
 50
359.9971206704047
 51
89.99712067040476
  0
ARC
  5
594
330
1A
100
AcDbEntity
  8
NOKITOI
  6
PHANTOM
 62
     8
 48
5.0
100
AcDbCircle
 10
84.10830972592272
 20
104.5546835979408
 30
0.0
 40
1.492399999999918
100
AcDbArc
 50
0.0000000000024427
 51
90.00000000000161
  0
LINE
  5
595
330
1A
100
AcDbEntity
  8
NOKITOI
  6
PHANTOM
 62
     8
 48
5.0
100
AcDbLine
 10
84.10830972592272
 20
106.0470835979407
 30
0.0
 11
83.45910972592276
 21
106.0470835979407
 31
0.0
  0
LINE
  5
596
330
1A
100
AcDbEntity
  8
NOKITOI
  6
PHANTOM
 62
     8
 48
5.0
100
AcDbLine
 10
181.8007097259228
 20
69.4515835979407
 30
0.0
 11
187.6394097259226
 21
97.1829835979407
 31
0.0
  0
LINE
  5
597
330
1A
100
AcDbEntity
  8
NOKITOI
  6
PHANTOM
 62
     8
 48
5.0
100
AcDbLine
 10
180.6920097259228
 20
70.46408359794085
 30
0.0
 11
186.1470097259226
 21
96.37298359794071
 31
0.0
  0
ARC
  5
598
330
1A
100
AcDbEntity
  8
NOKITOI
  6
PHANTOM
 62
     8
 48
5.0
100
AcDbCircle
 10
184.5605985696018
 20
56.23677101646666
 30
0.0
 40
12.93449408578155
100
AcDbArc
 50
105.547333235354
 51
171.3240617643018
  0
ARC
  5
599
330
1A
100
AcDbEntity
  8
NOKITOI
  6
PHANTOM
 62
     8
 48
5.0
100
AcDbCircle
 10
184.5607041925109
 20
56.2366773576754
 30
0.0
 40
12.93461262833301
100
AcDbArc
 50
105.5476727870196
 51
171.3237222126367
  0
ARC
  5
59A
330
1A
100
AcDbEntity
  8
NOKITOI
  6
PHANTOM
 62
     8
 48
5.0
100
AcDbCircle
 10
184.5606681806135
 20
56.23659873338448
 30
0.0
 40
14.23462403148678
100
AcDbArc
 50
139.2075062368998
 51
168.623785948384
  0
LINE
  5
59B
330
1A
100
AcDbEntity
  8
NOKITOI
  6
PHANTOM
 62
     8
 48
5.0
100
AcDbLine
 10
173.5567097259225
 20
66.03238359794071
 30
0.0
 11
167.3361097259228
 21
66.03238359794071
 31
0.0
  0
LINE
  5
59C
330
1A
100
AcDbEntity
  8
NOKITOI
  6
PHANTOM
 62
     8
 48
5.0
100
AcDbLine
 10
165.6738097259226
 20
67.33248359794069
 30
0.0
 11
175.6543097259226
 21
67.33238359794083
 31
0.0
  0
LINE
  5
59D
330
1A
100
AcDbEntity
  8
NOKITOI
  6
PHANTOM
 62
     8
 48
5.0
100
AcDbLine
 10
161.4747097259228
 20
58.63638359794069
 30
0.0
 11
146.7203097259226
 21
58.63638359794069
 31
0.0
  0
LINE
  5
59E
330
1A
100
AcDbEntity
  8
NOKITOI
  6
PHANTOM
 62
     8
 48
5.0
100
AcDbLine
 10
165.6737097259227
 20
58.83548359794085
 30
0.0
 11
165.6738097259226
 21
67.33248359794069
 31
0.0
  0
LINE
  5
59F
330
1A
100
AcDbEntity
  8
NOKITOI
  6
PHANTOM
 62
     8
 48
5.0
100
AcDbLine
 10
166.9738097259228
 20
65.6700835979407
 30
0.0
 11
166.9738097259228
 21
59.14298359794074
 31
0.0
  0
LINE
  5
5A0
330
1A
100
AcDbEntity
  8
NOKITOI
  6
PHANTOM
 62
     8
 48
5.0
100
AcDbLine
 10
170.1155097259228
 20
58.64298359794085
 30
0.0
 11
167.4738097259228
 21
58.64298359794085
 31
0.0
  0
ARC
  5
5A1
330
1A
100
AcDbEntity
  8
NOKITOI
  6
PHANTOM
 62
     8
 48
5.0
100
AcDbCircle
 10
167.4738097259227
 20
59.1429835979408
 30
0.0
 40
0.4999999999999432
100
AcDbArc
 50
180.0000000000065
 51
270.0000000000065
  0
ARC
  5
5A2
330
1A
100
AcDbEntity
  8
NOKITOI
  6
PHANTOM
 62
     8
 48
5.0
100
AcDbCircle
 10
165.4746597259227
 20
58.83543359794078
 30
0.0
 40
0.1990500062799141
100
AcDbArc
 50
270.0143923080609
 51
0.0143923080609163
  0
ARC
  5
5A3
330
1A
100
AcDbEntity
  8
NOKITOI
  6
PHANTOM
 62
     8
 48
5.0
100
AcDbCircle
 10
170.115532767051
 20
59.14300246222905
 30
0.0
 40
0.5000188648190603
100
AcDbArc
 50
269.9973597808037
 51
348.6132711445605
  0
ARC
  5
5A4
330
1A
100
AcDbEntity
  8
NOKITOI
  6
PHANTOM
 62
     8
 48
5.0
100
AcDbCircle
 10
170.7904596540187
 20
58.33802648553945
 30
0.0
 40
0.9950428888512103
100
AcDbArc
 50
269.9971250795227
 51
351.3214426795066
  0
LINE
  5
5A5
330
1A
100
AcDbEntity
  8
NOKITOI
  6
PHANTOM
 62
     8
 48
5.0
100
AcDbLine
 10
166.4788097259225
 20
66.52738359794071
 30
0.0
 11
167.3361097259228
 21
66.03238359794071
 31
0.0
  0
LINE
  5
5A6
330
1A
100
AcDbEntity
  8
NOKITOI
  6
PHANTOM
 62
     8
 48
5.0
100
AcDbLine
 10
166.4788097259225
 20
66.52738359794071
 30
0.0
 11
166.9738097259228
 21
65.6700835979407
 31
0.0
  0
ARC
  5
5A7
330
1A
100
AcDbEntity
  8
NOKITOI
  6
PHANTOM
 62
     8
 48
5.0
100
AcDbCircle
 10
184.5607242294713
 20
56.23669152212923
 30
0.0
 40
14.22809199964113
100
AcDbArc
 50
108.5474584936546
 51
128.7537062451649
  0
ARC
  5
5A8
330
1A
100
AcDbEntity
  8
NOKITOI
  6
PHANTOM
 62
     8
 48
5.0
100
AcDbCircle
 10
173.556723403774
 20
65.73235373424688
 30
0.0
 40
0.3000298640056128
100
AcDbArc
 50
319.2190584222774
 51
90.00261201720057
  0
ARC
  5
5A9
330
1A
100
AcDbEntity
  8
NOKITOI
  6
PHANTOM
 62
     8
 48
5.0
100
AcDbCircle
 10
179.7184532954738
 20
70.6691325497097
 30
0.0
 40
0.9950135261271753
100
AcDbArc
 50
288.5445751594485
 51
348.1074736523475
  0
ARC
  5
5AA
330
1A
100
AcDbEntity
  8
NOKITOI
  6
PHANTOM
 62
     8
 48
5.0
100
AcDbCircle
 10
180.8270840627749
 20
69.65666284932826
 30
0.0
 40
0.9949690575286499
100
AcDbArc
 50
285.5437330810334
 51
348.1110361155297
  0
LINE
  5
5AB
330
1A
100
AcDbEntity
  8
NOKITOI
  6
PHANTOM
 62
     8
 48
5.0
100
AcDbLine
 10
193.6823097259227
 20
107.3404835979408
 30
0.0
 11
188.4786097259227
 21
107.3403835979407
 31
0.0
  0
LINE
  5
5AC
330
1A
100
AcDbEntity
  8
NOKITOI
  6
PHANTOM
 62
     8
 48
5.0
100
AcDbLine
 10
187.8341097259226
 20
97.34088359794085
 30
0.0
 11
193.6823097259227
 21
97.34088359794085
 31
0.0
  0
LINE
  5
5AD
330
1A
100
AcDbEntity
  8
NOKITOI
  6
PHANTOM
 62
     8
 48
5.0
100
AcDbLine
 10
193.3773097259228
 20
98.6408835979407
 30
0.0
 11
187.9530097259228
 21
98.64098359794073
 31
0.0
  0
LINE
  5
5AE
330
1A
100
AcDbEntity
  8
NOKITOI
  6
PHANTOM
 62
     8
 48
5.0
100
AcDbLine
 10
189.5109097259226
 20
106.0403835979408
 30
0.0
 11
187.9530097259228
 21
98.64098359794073
 31
0.0
  0
LINE
  5
5AF
330
1A
100
AcDbEntity
  8
NOKITOI
  6
PHANTOM
 62
     8
 48
5.0
100
AcDbLine
 10
186.1470097259226
 20
96.37298359794071
 30
0.0
 11
188.4561097259226
 21
107.3403835979407
 31
0.0
  0
ARC
  5
5B0
330
1A
100
AcDbEntity
  8
NOKITOI
  6
PHANTOM
 62
     8
 48
5.0
100
AcDbCircle
 10
187.8341281685369
 20
97.14199856137751
 30
0.0
 40
0.1989850374179911
100
AcDbArc
 50
90.00531036897097
 51
168.1136861719429
  0
LINE
  5
5B1
330
1A
100
AcDbEntity
  8
NOKITOI
  6
PHANTOM
 62
     8
 48
5.0
100
AcDbLine
 10
193.3773097259228
 20
98.6408835979407
 30
0.0
 11
193.3773097259228
 21
106.0403835979408
 31
0.0
  0
LINE
  5
5B2
330
1A
100
AcDbEntity
  8
NOKITOI
  6
PHANTOM
 62
     8
 48
5.0
100
AcDbLine
 10
194.6773097259227
 20
98.3358835979407
 30
0.0
 11
194.6773097259227
 21
106.3454835979407
 31
0.0
  0
ARC
  5
5B3
330
1A
100
AcDbEntity
  8
NOKITOI
  6
PHANTOM
 62
     8
 48
5.0
100
AcDbCircle
 10
193.6823097259228
 20
98.33588359794077
 30
0.0
 40
0.9949999999999192
100
AcDbArc
 50
269.9999999999951
 51
359.9999999999951
  0
LINE
  5
5B4
330
1A
100
AcDbEntity
  8
NOKITOI
  6
PHANTOM
 62
     8
 48
5.0
100
AcDbLine
 10
193.3773097259228
 20
106.0403835979408
 30
0.0
 11
189.5109097259226
 21
106.0403835979408
 31
0.0
  0
ARC
  5
5B5
330
1A
100
AcDbEntity
  8
NOKITOI
  6
PHANTOM
 62
     8
 48
5.0
100
AcDbCircle
 10
193.6823097259227
 20
106.3454835979407
 30
0.0
 40
0.9950000000000613
100
AcDbArc
 50
359.9999999999967
 51
89.99999999999674
  0
DIMENSION
  5
649
330
1A
100
AcDbEntity
  8
SUNPOU
 48
5.0
100
AcDbDimension
  2
*D15
 10
234.684893886829
 20
188.7157835979407
 30
0.0
 11
232.184893886829
 21
211.2157835979407
 31
0.0
 70
    32
  3
STANDARD
100
AcDbAlignedDimension
 13
204.5083097259227
 23
233.7157835979407
 33
0.0
 14
204.5083097259227
 24
188.7157835979407
 34
0.0
 50
90.0
100
AcDbRotatedDimension
1001
ACAD
1000
DSTYLE
1002
{
1070
    41
1040
3.0
1070
    42
1040
3.0
1070
    43
1040
7.0
1070
    44
1040
1.5
1070
    73
1070
     0
1070
    74
1070
     0
1070
    77
1070
     3
1070
   140
1040
3.0
1070
   141
1040
150.0
1070
   147
1040
1.0
1070
   172
1070
     1
1070
   173
1070
     1
1070
   176
1070
     4
1070
   177
1070
     4
1070
   178
1070
     4
1070
   271
1070
     0
1070
   272
1070
     2
1070
   341
1005
B2
1070
     6
1000
OPEN
1070
     7
1000
OPEN
1002
}
  0
LINE
  5
656
330
1A
100
AcDbEntity
  8
SEIHIN
 48
5.0
100
AcDbLine
 10
204.5083097259227
 20
112.0470835979407
 30
0.0
 11
198.5083097259227
 21
112.0470835979407
 31
0.0
  0
DIMENSION
  5
660
330
1A
100
AcDbEntity
  8
SUNPOU
 48
5.0
100
AcDbDimension
  2
*D16
 10
226.8749720740461
 20
194.7157835979407
 30
0.0
 11
224.374972074046
 21
211.2157835979407
 31
0.0
 70
    32
  3
STANDARD
100
AcDbAlignedDimension
 13
208.4782097259227
 23
227.7157835979407
 33
0.0
 14
208.4782097259227
 24
194.7157835979407
 34
0.0
 50
90.0
100
AcDbRotatedDimension
1001
ACAD
1000
DSTYLE
1002
{
1070
    41
1040
3.0
1070
    42
1040
3.0
1070
    43
1040
7.0
1070
    44
1040
1.5
1070
    73
1070
     0
1070
    74
1070
     0
1070
    77
1070
     3
1070
   140
1040
3.0
1070
   141
1040
150.0
1070
   147
1040
1.0
1070
   172
1070
     1
1070
   173
1070
     1
1070
   176
1070
     4
1070
   177
1070
     4
1070
   178
1070
     4
1070
   271
1070
     0
1070
   272
1070
     2
1070
   341
1005
B2
1070
     6
1000
OPEN
1070
     7
1000
OPEN
1002
}
  0
DIMENSION
  5
7B0
330
1A
100
AcDbEntity
  8
SUNPOU
100
AcDbDimension
  2
*D17
 10
204.5083097259227
 20
139.3208828827499
 30
0.0
 11
192.0083391376874
 21
141.8208828827499
 31
0.0
 70
    32
  3
STANDARD
100
AcDbAlignedDimension
 13
179.5083685494521
 23
117.5470835979407
 33
0.0
 14
204.5083097259227
 24
117.5470835979407
 34
0.0
100
AcDbRotatedDimension
1001
ACAD
1000
DSTYLE
1002
{
1070
    41
1040
3.0
1070
    42
1040
3.0
1070
    43
1040
7.0
1070
    44
1040
1.5
1070
    73
1070
     0
1070
    74
1070
     0
1070
    77
1070
     3
1070
   140
1040
3.0
1070
   141
1040
150.0
1070
   147
1040
1.0
1070
   172
1070
     1
1070
   173
1070
     1
1070
   176
1070
     4
1070
   177
1070
     4
1070
   178
1070
     4
1070
   271
1070
     0
1070
   272
1070
     2
1070
   341
1005
B2
1070
     6
1000
OPEN
1070
     7
1000
OPEN
1002
}
  0
DIMENSION
  5
7BD
330
1A
100
AcDbEntity
  8
SUNPOU
100
AcDbDimension
  2
*D18
 10
204.5083097259227
 20
130.7830169877797
 30
0.0
 11
199.5928097259227
 21
133.2830169877797
 31
0.0
 70
    32
  3
STANDARD
100
AcDbAlignedDimension
 13
194.6773097259227
 23
106.3454835979407
 33
0.0
 14
204.5083097259227
 24
117.5470835979407
 34
0.0
100
AcDbRotatedDimension
1001
ACAD
1000
DSTYLE
1002
{
1070
    41
1040
3.0
1070
    42
1040
3.0
1070
    43
1040
7.0
1070
    44
1040
1.5
1070
    73
1070
     0
1070
    74
1070
     0
1070
    77
1070
     3
1070
   140
1040
3.0
1070
   141
1040
150.0
1070
   147
1040
1.0
1070
   172
1070
     1
1070
   173
1070
     1
1070
   176
1070
     4
1070
   177
1070
     4
1070
   178
1070
     4
1070
   271
1070
     0
1070
   272
1070
     2
1070
   341
1005
B2
1070
     6
1000
OPEN
1070
     7
1000
OPEN
1002
}
  0
LINE
  5
A6A
330
1A
100
AcDbEntity
  8
ZUWAKU
100
AcDbLine
 10
104.3233010818522
 20
7.599999735779075
 30
0.0
 11
223.7121824223139
 21
7.599999735779071
 31
0.0
  0
LINE
  5
A6B
330
1A
100
AcDbEntity
  8
ZUWAKU
100
AcDbLine
 10
104.3233010818522
 20
7.799999735779072
 30
0.0
 11
223.7121824223139
 21
7.799999735779076
 31
0.0
  0
LINE
  5
A6C
330
1A
100
AcDbEntity
  8
ZUWAKU
100
AcDbLine
 10
104.3233010818522
 20
7.699999735779073
 30
0.0
 11
223.7121824223139
 21
7.699999735779073
 31
0.0
  0
LINE
  5
A6D
330
1A
100
AcDbEntity
  8
ZUWAKU
100
AcDbLine
 10
0.0000004368182545
 20
15.39999973577906
 30
0.0
 11
398.7000004368182
 21
15.39999973577906
 31
0.0
  0
LINE
  5
A6E
330
1A
100
AcDbEntity
  8
ZUWAKU
100
AcDbLine
 10
0.0000004368182545
 20
15.29999973577906
 30
0.0
 11
398.7000004368182
 21
15.29999973577906
 31
0.0
  0
LINE
  5
A6F
330
1A
100
AcDbEntity
  8
ZUWAKU
100
AcDbLine
 10
0.0000004368182545
 20
15.19999973577905
 30
0.0
 11
398.7000004368182
 21
15.19999973577905
 31
0.0
  0
LINE
  5
A70
330
1A
100
AcDbEntity
  8
ZUWAKU
100
AcDbLine
 10
0.0000004368182545
 20
15.09999973577905
 30
0.0
 11
398.7000004368182
 21
15.09999973577905
 31
0.0
  0
LINE
  5
A71
330
1A
100
AcDbEntity
  8
ZUWAKU
100
AcDbLine
 10
0.0000004368182545
 20
14.99999973577905
 30
0.0
 11
398.7000004368182
 21
14.99999973577905
 31
0.0
  0
LWPOLYLINE
  5
A72
330
1A
100
AcDbEntity
  8
ZUWAKU
100
AcDbPolyline
 90
        4
 70
     1
 43
0.0
 10
0.1000004368182203
 20
275.699999735779
 10
0.1000004368182203
 20
0.099999735779079
 10
398.7000004368182
 20
0.0999997357790905
 10
398.7000004368183
 20
275.699999735779
  0
LWPOLYLINE
  5
A73
330
1A
100
AcDbEntity
  8
ZUWAKU
100
AcDbPolyline
 90
        4
 70
     1
 43
0.0
 10
0.300000436818209
 20
275.4999997357791
 10
0.300000436818209
 20
0.2999997357790676
 10
398.5000004368183
 20
0.2999997357790907
 10
398.5000004368182
 20
275.4999997357791
  0
LWPOLYLINE
  5
A74
330
1A
100
AcDbEntity
  8
ZUWAKU
100
AcDbPolyline
 90
        4
 70
     1
 43
0.0
 10
0.0000004368182545
 20
275.799999735779
 10
0.0000004368182545
 20
-0.0000002642209438
 10
398.8000004368183
 20
-0.00000026422091
 10
398.8000004368183
 20
275.7999997357791
  0
LWPOLYLINE
  5
A75
330
1A
100
AcDbEntity
  8
ZUWAKU
100
AcDbPolyline
 90
        4
 70
     1
 43
0.0
 10
0.2000004368182431
 20
275.599999735779
 10
0.2000004368182431
 20
0.1999997357791017
 10
398.6000004368182
 20
0.1999997357790901
 10
398.6000004368182
 20
275.599999735779
  0
LWPOLYLINE
  5
A76
330
1A
100
AcDbEntity
  8
ZUWAKU
100
AcDbPolyline
 90
        4
 70
     1
 43
0.0
 10
0.4000004368182318
 20
275.399999735779
 10
0.4000004368182318
 20
0.3999997357790903
 10
398.4000004368182
 20
0.3999997357790903
 10
398.4000004368182
 20
275.399999735779
  0
HATCH
  5
A77
330
1A
100
AcDbEntity
  8
ZUWAKU
100
AcDbHatch
 10
0.0
 20
0.0
 30
0.0
210
0.0
220
0.0
230
1.0
  2
ANSI37
 70
     0
 71
     0
 91
        8
 92
        7
 72
     1
 73
     1
 93
       24
 10
7.251131767378183
 20
8.822423976270847
 42
-0.1989123673796348
 10
7.046106514208815
 20
9.317398723101373
 42
0.0
 10
7.046106514208815
 20
9.962499735779061
 42
-0.4142135623730912
 10
7.308606514208804
 20
10.22499973577905
 42
0.0
 10
8.796106514208759
 20
10.22499973577905
 42
0.4142135623731546
 10
9.058606514208804
 20
10.48749973577905
 42
0.0
 10
9.058606514208804
 20
11.36249973577906
 42
0.4142135623731586
 10
8.796106514208759
 20
11.62499973577906
 42
0.0
 10
7.046106514208815
 20
11.62499973577906
 42
0.4142135623730928
 10
5.646106514208838
 20
10.22499973577907
 42
0.0
 10
5.646106514208838
 20
9.317398723101437
 42
0.1989123673796619
 10
6.261182273717054
 20
7.832474482609633
 42
0.0
 10
7.716081261039391
 20
6.377575495287304
 42
-0.1989123673796613
 10
7.921106514208815
 20
5.882600748456711
 42
0.0
 10
7.921106514208815
 20
5.237499735779053
 42
-0.4142135623730911
 10
7.658606514208827
 20
4.974999735779057
 42
0.0
 10
6.171106514208872
 20
4.974999735779057
 42
0.4142135623731526
 10
5.908606514208827
 20
4.712499735779063
 42
0.0
 10
5.908606514208827
 20
3.837499735779053
 42
0.4142135623731526
 10
6.171106514208872
 20
3.574999735779059
 42
0.0
 10
7.921106514208815
 20
3.574999735779059
 42
0.4142135623731044
 10
9.32110651420885
 20
4.974999735779046
 42
0.0
 10
9.32110651420885
 20
5.882600748456683
 42
0.1989123673796604
 10
8.706030754700577
 20
7.367524988948453
 42
0.0
 97
        0
 92
        7
 72
     1
 73
     1
 93
       16
 10
11.77110651420884
 20
9.524999735779061
 42
-0.4142135623730935
 10
12.47110651420882
 20
10.22499973577905
 42
0.0
 10
13.4336065142088
 20
10.22499973577905
 42
0.4142135623731546
 10
13.69610651420885
 20
10.48749973577905
 42
0.0
 10
13.69610651420885
 20
11.36249973577906
 42
0.4142135623730951
 10
13.43360651420886
 20
11.62499973577906
 42
0.0
 10
12.47110651420877
 20
11.62499973577903
 42
0.4142135623730892
 10
10.3711065142088
 20
9.524999735779026
 42
0.0
 10
10.3711065142088
 20
5.674999735779071
 42
0.4142135623730969
 10
12.47110651420882
 20
3.574999735779059
 42
0.0
 10
13.4336065142088
 20
3.574999735779059
 42
0.4142135623731526
 10
13.69610651420885
 20
3.837499735779053
 42
0.0
 10
13.69610651420885
 20
4.712499735779063
 42
0.4142135623730891
 10
13.43360651420886
 20
4.974999735779057
 42
0.0
 10
12.47110651420882
 20
4.974999735779057
 42
-0.4142135623730928
 10
11.77110651420884
 20
5.674999735779051
 42
0.0
 97
        0
 92
        7
 72
     1
 73
     1
 93
        2
 10
12.1211065142088
 20
7.599999735779057
 42
1.0
 10
13.8711065142088
 20
7.599999735779057
 42
1.0
 97
        0
 92
        7
 72
     1
 73
     1
 93
       26
 10
18.65742975529781
 20
9.602523332560771
 42
0.0
 10
19.18824957186672
 20
11.28345275169556
 42
0.5069206636600134
 10
18.93793412226904
 20
11.62499973577906
 42
0.0
 10
18.08848943246442
 20
11.62499973577906
 42
0.3272098845218764
 10
17.83817398286674
 20
11.44154671986254
 42
0.0
 10
16.90403904555086
 20
8.483452751695597
 42
-0.3272098845219541
 10
16.65372359595312
 20
8.299999735779056
 42
0.0
 10
16.58360651420889
 20
8.299999735779056
 42
-0.4142135623731526
 10
16.32110651420885
 20
8.56249973577905
 42
0.0
 10
16.32110651420885
 20
11.36249973577906
 42
0.4142135623730951
 10
16.05860651420886
 20
11.62499973577906
 42
0.0
 10
15.1836065142088
 20
11.62499973577906
 42
0.4142135623730871
 10
14.92110651420881
 20
11.36249973577906
 42
0.0
 10
14.92110651420881
 20
3.837499735779053
 42
0.4142135623730891
 10
15.1836065142088
 20
3.574999735779059
 42
0.0
 10
16.0586065142088
 20
3.574999735779059
 42
0.4142135623731526
 10
16.32110651420885
 20
3.837499735779053
 42
0.0
 10
16.32110651420885
 20
6.637499735779064
 42
-0.4142135623731526
 10
16.58360651420889
 20
6.899999735779058
 42
0.0
 10
16.65372359595318
 20
6.899999735779058
 42
-0.3272098845218915
 10
16.90403904555086
 20
6.71654671986252
 42
0.0
 10
17.83817398286674
 20
3.758452751695594
 42
0.3272098845218902
 10
18.08848943246442
 20
3.574999735779059
 42
0.0
 10
18.93793412226904
 20
3.574999735779059
 42
0.5069206636600335
 10
19.18824957186672
 20
3.916546719862562
 42
0.0
 10
18.02505388262989
 20
7.599999735779126
 42
0.0
 97
        0
 92
        7
 72
     1
 73
     1
 93
        8
 10
21.7461065142088
 20
11.36249973577906
 42
0.4142135623731546
 10
21.48360651420876
 20
11.62499973577906
 42
0.0
 10
20.60860651420887
 20
11.62499973577906
 42
0.4142135623731507
 10
20.34610651420882
 20
11.36249973577906
 42
0.0
 10
20.34610651420882
 20
3.837499735779053
 42
0.4142135623731526
 10
20.60860651420887
 20
3.574999735779059
 42
0.0
 10
21.48360651420876
 20
3.574999735779059
 42
0.4142135623731526
 10
21.7461065142088
 20
3.837499735779053
 42
0.0
 97
        0
 92
        7
 72
     1
 73
     1
 93
       24
 10
24.19610651420885
 20
9.962499735779061
 42
-0.4142135623731546
 10
24.45860651420889
 20
10.22499973577905
 42
0.0
 10
25.94610651420885
 20
10.22499973577905
 42
0.4142135623730911
 10
26.20860651420883
 20
10.48749973577905
 42
0.0
 10
26.20860651420883
 20
11.36249973577906
 42
0.4142135623730952
 10
25.94610651420885
 20
11.62499973577906
 42
0.0
 10
24.19610651420885
 20
11.62499973577906
 42
0.4142135623731048
 10
22.79610651420881
 20
10.22499973577907
 42
0.0
 10
22.79610651420881
 20
9.317398723101437
 42
0.1989123673796613
 10
23.41118227371708
 20
7.832474482609661
 42
0.0
 10
24.86608126103942
 20
6.377575495287327
 42
-0.1989123673796402
 10
25.07110651420885
 20
5.882600748456791
 42
0.0
 10
25.07110651420885
 20
5.237499735779053
 42
-0.4142135623730911
 10
24.80860651420886
 20
4.974999735779057
 42
0.0
 10
23.32110651420884
 20
4.974999735779057
 42
0.4142135623731526
 10
23.0586065142088
 20
4.712499735779063
 42
0.0
 10
23.0586065142088
 20
3.837499735779053
 42
0.4142135623730891
 10
23.32110651420879
 20
3.574999735779059
 42
0.0
 10
25.07110651420885
 20
3.574999735779059
 42
0.4142135623730925
 10
26.47110651420883
 20
4.974999735779046
 42
0.0
 10
26.47110651420883
 20
5.882600748456683
 42
0.1989123673796675
 10
25.85603075470055
 20
7.36752498894851
 42
0.0
 10
24.40113176737827
 20
8.822423976270767
 42
-0.1989123673796652
 10
24.19610651420885
 20
9.317398723101351
 42
0.0
 97
        0
 92
        7
 72
     1
 73
     1
 93
       16
 10
28.92110651420881
 20
11.36249973577905
 42
0.414213562373103
 10
28.65860651420883
 20
11.62499973577906
 42
0.0
 10
27.78360651420882
 20
11.62499973577906
 42
0.4142135623730871
 10
27.52110651420883
 20
11.36249973577906
 42
0.0
 10
27.52110651420883
 20
4.974999735779046
 42
0.4142135623730926
 10
28.92110651420881
 20
3.574999735779059
 42
0.0
 10
30.67110651420881
 20
3.574999735779059
 42
0.4142135623731044
 10
32.07110651420885
 20
4.974999735779046
 42
0.0
 10
32.07110651420885
 20
11.36249973577906
 42
0.4142135623730951
 10
31.80860651420886
 20
11.62499973577906
 42
0.0
 10
30.9336065142088
 20
11.62499973577906
 42
0.4142135623730871
 10
30.67110651420881
 20
11.36249973577906
 42
0.0
 10
30.67110651420881
 20
5.499999735779045
 42
-0.414213562373088
 10
30.14610651420884
 20
4.974999735779057
 42
0.0
 10
29.44610651420885
 20
4.974999735779057
 42
-0.4142135623731197
 10
28.92110651420881
 20
5.499999735779045
 42
0.0
 97
        0
 92
        7
 72
     1
 73
     1
 93
        8
 10
34.52110651420884
 20
11.36249973577906
 42
0.4142135623730871
 10
34.25860651420885
 20
11.62499973577906
 42
0.0
 10
33.38360651420885
 20
11.62499973577906
 42
0.4142135623731507
 10
33.1211065142088
 20
11.36249973577906
 42
0.0
 10
33.1211065142088
 20
3.837499735779053
 42
0.4142135623730891
 10
33.38360651420879
 20
3.574999735779059
 42
0.0
 10
34.25860651420885
 20
3.574999735779059
 42
0.4142135623730891
 10
34.52110651420884
 20
3.837499735779053
 42
0.0
 97
        0
 75
     0
 76
     1
 52
0.0
 41
0.1
 77
     0
 78
     2
 53
45.0
 43
-450.4711517305212
 44
-6.600000264220909
 45
-0.2245064030267288
 46
0.2245064030267288
 79
     0
 53
135.0
 43
-450.4711517305212
 44
-6.600000264220909
 45
-0.2245064030267288
 46
-0.2245064030267288
 79
     0
 47
0.057451373970553
 98
        8
 10
8.039927918329908
 20
7.583586558721833
 10
11.20225794003783
 20
9.422030827004562
 10
12.58218437964808
 20
7.755940558814415
 10
15.45703042763682
 20
8.100648558999807
 10
20.91923644629662
 20
8.330454692770615
 10
23.44910088438302
 20
9.709287893982661
 10
28.27884342301842
 20
9.364578693326564
 10
33.91354024662962
 20
9.594384827097371
  0
LINE
  5
A78
330
1A
100
AcDbEntity
  8
ZUWAKU
100
AcDbLine
 10
12.47110651420882
 20
11.62499973577903
 30
0.0
 11
13.4336065142088
 21
11.62499973577906
 31
0.0
  0
LINE
  5
A79
330
1A
100
AcDbEntity
  8
ZUWAKU
100
AcDbLine
 10
13.4336065142088
 20
10.22499973577905
 30
0.0
 11
12.47110651420882
 21
10.22499973577905
 31
0.0
  0
LINE
  5
A7A
330
1A
100
AcDbEntity
  8
ZUWAKU
100
AcDbLine
 10
12.47110651420882
 20
4.974999735779057
 30
0.0
 11
13.4336065142088
 21
4.974999735779057
 31
0.0
  0
LINE
  5
A7B
330
1A
100
AcDbEntity
  8
ZUWAKU
100
AcDbLine
 10
13.4336065142088
 20
3.574999735779059
 30
0.0
 11
12.47110651420882
 21
3.574999735779059
 31
0.0
  0
CIRCLE
  5
A7C
330
1A
100
AcDbEntity
  8
ZUWAKU
100
AcDbCircle
 10
12.9961065142088
 20
7.599999735779057
 30
0.0
 40
0.875
  0
ARC
  5
A7D
330
1A
100
AcDbEntity
  8
ZUWAKU
100
AcDbCircle
 10
7.746106514208804
 20
9.317398723101408
 30
0.0
 40
0.7
100
AcDbArc
 50
180.0000000000016
 51
224.9999999999988
  0
LINE
  5
A7E
330
1A
100
AcDbEntity
  8
ZUWAKU
100
AcDbLine
 10
11.77110651420884
 20
9.524999735779058
 30
0.0
 11
11.77110651420884
 21
5.67499973577906
 31
0.0
  0
LINE
  5
A7F
330
1A
100
AcDbEntity
  8
ZUWAKU
100
AcDbLine
 10
10.3711065142088
 20
5.67499973577906
 30
0.0
 11
10.3711065142088
 21
9.524999735779037
 31
0.0
  0
ARC
  5
A80
330
1A
100
AcDbEntity
  8
ZUWAKU
100
AcDbCircle
 10
7.746106514208804
 20
9.317398723101408
 30
0.0
 40
2.099999999999999
100
AcDbArc
 50
180.0
 51
225.0
  0
ARC
  5
A81
330
1A
100
AcDbEntity
  8
ZUWAKU
100
AcDbCircle
 10
7.921106514208815
 20
4.974999735779057
 30
0.0
 40
1.399999999999999
100
AcDbArc
 50
270.0
 51
0.0
  0
ARC
  5
A82
330
1A
100
AcDbEntity
  8
ZUWAKU
100
AcDbCircle
 10
12.47110651420882
 20
5.67499973577906
 30
0.0
 40
2.099999999999999
100
AcDbArc
 50
180.0
 51
270.0
  0
ARC
  5
A83
330
1A
100
AcDbEntity
  8
ZUWAKU
100
AcDbCircle
 10
7.221106514208827
 20
5.882600748456709
 30
0.0
 40
2.099999999999999
100
AcDbArc
 50
0.0
 51
45.0
  0
LINE
  5
A84
330
1A
100
AcDbEntity
  8
ZUWAKU
100
AcDbLine
 10
8.706030754700577
 20
7.367524988948471
 30
0.0
 11
7.25113176737824
 21
8.822423976270808
 31
0.0
  0
LINE
  5
A85
330
1A
100
AcDbEntity
  8
ZUWAKU
100
AcDbLine
 10
7.921106514208815
 20
5.23749973577906
 30
0.0
 11
7.921106514208815
 21
5.882600748456731
 31
0.0
  0
ARC
  5
A86
330
1A
100
AcDbEntity
  8
ZUWAKU
100
AcDbCircle
 10
7.658606514208827
 20
5.23749973577906
 30
0.0
 40
0.2625
100
AcDbArc
 50
270.0
 51
0.0
  0
ARC
  5
A87
330
1A
100
AcDbEntity
  8
ZUWAKU
100
AcDbCircle
 10
7.221106514208827
 20
5.882600748456731
 30
0.0
 40
0.7
100
AcDbArc
 50
0.0
 51
45.0
  0
LINE
  5
A88
330
1A
100
AcDbEntity
  8
ZUWAKU
100
AcDbLine
 10
5.908606514208827
 20
3.837499735779058
 30
0.0
 11
5.908606514208827
 21
4.712499735779058
 31
0.0
  0
ARC
  5
A89
330
1A
100
AcDbEntity
  8
ZUWAKU
100
AcDbCircle
 10
6.171106514208815
 20
3.837499735779058
 30
0.0
 40
0.2625
100
AcDbArc
 50
180.0
 51
270.0
  0
ARC
  5
A8A
330
1A
100
AcDbEntity
  8
ZUWAKU
100
AcDbCircle
 10
6.171106514208815
 20
4.712499735779058
 30
0.0
 40
0.2625
100
AcDbArc
 50
90.0
 51
180.0
  0
LINE
  5
A8B
330
1A
100
AcDbEntity
  8
ZUWAKU
100
AcDbLine
 10
6.171106514208815
 20
3.574999735779059
 30
0.0
 11
7.921106514208815
 21
3.574999735779059
 31
0.0
  0
LINE
  5
A8C
330
1A
100
AcDbEntity
  8
ZUWAKU
100
AcDbLine
 10
6.171106514208815
 20
4.974999735779057
 30
0.0
 11
7.658606514208827
 21
4.974999735779057
 31
0.0
  0
LINE
  5
A8D
330
1A
100
AcDbEntity
  8
ZUWAKU
100
AcDbLine
 10
6.261182273717054
 20
7.832474482609647
 30
0.0
 11
7.716081261039391
 21
6.377575495287317
 31
0.0
  0
LINE
  5
A8E
330
1A
100
AcDbEntity
  8
ZUWAKU
100
AcDbLine
 10
9.32110651420885
 20
4.974999735779057
 30
0.0
 11
9.32110651420885
 21
5.882600748456731
 31
0.0
  0
ARC
  5
A8F
330
1A
100
AcDbEntity
  8
ZUWAKU
100
AcDbCircle
 10
12.47110651420882
 20
5.67499973577906
 30
0.0
 40
0.7
100
AcDbArc
 50
180.0
 51
270.0
  0
ARC
  5
A90
330
1A
100
AcDbEntity
  8
ZUWAKU
100
AcDbCircle
 10
8.796106514208815
 20
11.36249973577905
 30
0.0
 40
0.2625
100
AcDbArc
 50
0.0
 51
90.0
  0
ARC
  5
A91
330
1A
100
AcDbEntity
  8
ZUWAKU
100
AcDbCircle
 10
8.796106514208815
 20
10.48749973577905
 30
0.0
 40
0.2625
100
AcDbArc
 50
270.0
 51
0.0
  0
LINE
  5
A92
330
1A
100
AcDbEntity
  8
ZUWAKU
100
AcDbLine
 10
7.046106514208815
 20
11.62499973577906
 30
0.0
 11
8.796106514208815
 21
11.62499973577906
 31
0.0
  0
ARC
  5
A93
330
1A
100
AcDbEntity
  8
ZUWAKU
100
AcDbCircle
 10
7.308606514208804
 20
9.962499735779058
 30
0.0
 40
0.2625
100
AcDbArc
 50
90.0
 51
180.0
  0
LINE
  5
A94
330
1A
100
AcDbEntity
  8
ZUWAKU
100
AcDbLine
 10
7.046106514208815
 20
9.962499735779058
 30
0.0
 11
7.046106514208815
 21
9.317398723101387
 31
0.0
  0
LINE
  5
A95
330
1A
100
AcDbEntity
  8
ZUWAKU
100
AcDbLine
 10
8.796106514208815
 20
10.22499973577905
 30
0.0
 11
7.308606514208804
 21
10.22499973577905
 31
0.0
  0
LINE
  5
A96
330
1A
100
AcDbEntity
  8
ZUWAKU
100
AcDbLine
 10
5.646106514208838
 20
10.22499973577905
 30
0.0
 11
5.646106514208838
 21
9.317398723101387
 31
0.0
  0
ARC
  5
A97
330
1A
100
AcDbEntity
  8
ZUWAKU
100
AcDbCircle
 10
7.046106514208815
 20
10.22499973577905
 30
0.0
 40
1.399999999999999
100
AcDbArc
 50
90.0
 51
180.0
  0
LINE
  5
A98
330
1A
100
AcDbEntity
  8
ZUWAKU
100
AcDbLine
 10
9.058606514208804
 20
11.36249973577905
 30
0.0
 11
9.058606514208804
 21
10.48749973577905
 31
0.0
  0
ARC
  5
A99
330
1A
100
AcDbEntity
  8
ZUWAKU
100
AcDbCircle
 10
12.47110651420882
 20
9.524999735779058
 30
0.0
 40
0.7
100
AcDbArc
 50
90.0
 51
180.0
  0
ARC
  5
A9A
330
1A
100
AcDbEntity
  8
ZUWAKU
100
AcDbCircle
 10
12.47110651420882
 20
9.524999735779037
 30
0.0
 40
2.099999999999999
100
AcDbArc
 50
90.0
 51
180.0
  0
LINE
  5
A9B
330
1A
100
AcDbEntity
  8
ZUWAKU
100
AcDbLine
 10
39.66331521081235
 20
14.99999973577905
 30
0.0
 11
39.66331521081247
 21
0.3999997357790903
 31
0.0
  0
LINE
  5
A9C
330
1A
100
AcDbEntity
  8
ZUWAKU
100
AcDbLine
 10
39.76331521081238
 20
14.99999973577905
 30
0.0
 11
39.76331521081249
 21
0.3999997357790903
 31
0.0
  0
LINE
  5
A9D
330
1A
100
AcDbEntity
  8
ZUWAKU
100
AcDbLine
 10
39.56331521081244
 20
14.99999973577905
 30
0.0
 11
39.56331521081244
 21
0.3999997357790903
 31
0.0
  0
LINE
  5
A9E
330
1A
100
AcDbEntity
  8
ZUWAKU
100
AcDbLine
 10
32.07110651420885
 20
4.974999735779057
 30
0.0
 11
32.07110651420885
 21
11.36249973577905
 31
0.0
  0
LINE
  5
A9F
330
1A
100
AcDbEntity
  8
ZUWAKU
100
AcDbLine
 10
30.67110651420881
 20
11.36249973577905
 30
0.0
 11
30.67110651420881
 21
5.499999735779056
 31
0.0
  0
LINE
  5
AA0
330
1A
100
AcDbEntity
  8
ZUWAKU
100
AcDbLine
 10
34.52110651420884
 20
3.837499735779058
 30
0.0
 11
34.52110651420884
 21
11.36249973577905
 31
0.0
  0
LINE
  5
AA1
330
1A
100
AcDbEntity
  8
ZUWAKU
100
AcDbLine
 10
33.1211065142088
 20
11.36249973577905
 30
0.0
 11
33.1211065142088
 21
3.837499735779058
 31
0.0
  0
ARC
  5
AA2
330
1A
100
AcDbEntity
  8
ZUWAKU
100
AcDbCircle
 10
24.89610651420884
 20
9.317398723101408
 30
0.0
 40
0.7
100
AcDbArc
 50
180.0000000000016
 51
224.9999999999988
  0
ARC
  5
AA3
330
1A
100
AcDbEntity
  8
ZUWAKU
100
AcDbCircle
 10
24.89610651420884
 20
9.317398723101408
 30
0.0
 40
2.099999999999999
100
AcDbArc
 50
180.0
 51
225.0
  0
LINE
  5
AA4
330
1A
100
AcDbEntity
  8
ZUWAKU
100
AcDbLine
 10
18.65742975529781
 20
9.602523332560771
 30
0.0
 11
18.02505388262989
 21
7.599999735779068
 31
0.0
  0
LINE
  5
AA5
330
1A
100
AcDbEntity
  8
ZUWAKU
100
AcDbLine
 10
20.34610651420882
 20
11.36249973577905
 30
0.0
 11
20.34610651420882
 21
3.837499735779058
 31
0.0
  0
LINE
  5
AA6
330
1A
100
AcDbEntity
  8
ZUWAKU
100
AcDbLine
 10
21.7461065142088
 20
3.837499735779058
 30
0.0
 11
21.7461065142088
 21
11.36249973577905
 31
0.0
  0
LINE
  5
AA7
330
1A
100
AcDbEntity
  8
ZUWAKU
100
AcDbLine
 10
27.52110651420883
 20
11.36249973577905
 30
0.0
 11
27.52110651420883
 21
4.974999735779057
 31
0.0
  0
LINE
  5
AA8
330
1A
100
AcDbEntity
  8
ZUWAKU
100
AcDbLine
 10
28.92110651420881
 20
5.499999735779056
 30
0.0
 11
28.92110651420881
 21
11.36249973577905
 31
0.0
  0
LINE
  5
AA9
330
1A
100
AcDbEntity
  8
ZUWAKU
100
AcDbLine
 10
16.32110651420885
 20
8.562499735779059
 30
0.0
 11
16.32110651420885
 21
11.36249973577905
 31
0.0
  0
LINE
  5
AAA
330
1A
100
AcDbEntity
  8
ZUWAKU
100
AcDbLine
 10
14.92110651420881
 20
11.36249973577905
 30
0.0
 11
14.92110651420881
 21
3.837499735779058
 31
0.0
  0
LINE
  5
AAB
330
1A
100
AcDbEntity
  8
ZUWAKU
100
AcDbLine
 10
17.83817398286674
 20
11.44154671986254
 30
0.0
 11
16.90403904555086
 21
8.483452751695573
 31
0.0
  0
TEXT
  5
AAC
330
1A
100
AcDbEntity
  8
MOJI
100
AcDbText
 10
46.47889523090282
 20
6.370588800916436
 30
0.0
 40
3.0
  1
ライナートップ
 41
0.9
  7
ｽﾀｲﾙ1
100
AcDbText
  0
LINE
  5
AAD
330
1A
100
AcDbEntity
  8
ZUWAKU
100
AcDbLine
 10
30.14610651420884
 20
4.974999735779057
 30
0.0
 11
29.44610651420885
 21
4.974999735779057
 31
0.0
  0
LINE
  5
AAE
330
1A
100
AcDbEntity
  8
ZUWAKU
100
AcDbLine
 10
28.92110651420881
 20
3.574999735779059
 30
0.0
 11
30.67110651420881
 21
3.574999735779059
 31
0.0
  0
LINE
  5
AAF
330
1A
100
AcDbEntity
  8
ZUWAKU
100
AcDbLine
 10
20.60860651420881
 20
3.574999735779059
 30
0.0
 11
21.48360651420881
 21
3.574999735779059
 31
0.0
  0
LINE
  5
AB0
330
1A
100
AcDbEntity
  8
ZUWAKU
100
AcDbLine
 10
17.83817398286674
 20
3.758452751695571
 30
0.0
 11
16.90403904555086
 21
6.716546719862542
 31
0.0
  0
ARC
  5
AB1
330
1A
100
AcDbEntity
  8
ZUWAKU
100
AcDbCircle
 10
16.65372359595318
 20
8.562499735779059
 30
0.0
 40
0.2625
100
AcDbArc
 50
270.0
 51
342.4744316262769
  0
LINE
  5
AB2
330
1A
100
AcDbEntity
  8
ZUWAKU
100
AcDbLine
 10
16.65372359595318
 20
8.299999735779056
 30
0.0
 11
16.58360651420883
 21
8.299999735779056
 31
0.0
  0
LINE
  5
AB3
330
1A
100
AcDbEntity
  8
ZUWAKU
100
AcDbLine
 10
16.58360651420883
 20
6.899999735779058
 30
0.0
 11
16.65372359595318
 21
6.899999735779058
 31
0.0
  0
ARC
  5
AB4
330
1A
100
AcDbEntity
  8
ZUWAKU
100
AcDbCircle
 10
16.58360651420883
 20
8.562499735779059
 30
0.0
 40
0.2625
100
AcDbArc
 50
180.0
 51
270.0
  0
LINE
  5
AB5
330
1A
100
AcDbEntity
  8
ZUWAKU
100
AcDbLine
 10
15.1836065142088
 20
3.574999735779059
 30
0.0
 11
16.0586065142088
 21
3.574999735779059
 31
0.0
  0
ARC
  5
AB6
330
1A
100
AcDbEntity
  8
ZUWAKU
100
AcDbCircle
 10
16.0586065142088
 20
3.837499735779058
 30
0.0
 40
0.2625
100
AcDbArc
 50
270.0
 51
0.0
  0
LINE
  5
AB7
330
1A
100
AcDbEntity
  8
ZUWAKU
100
AcDbLine
 10
16.32110651420885
 20
3.837499735779058
 30
0.0
 11
16.32110651420885
 21
6.637499735779059
 31
0.0
  0
LINE
  5
AB8
330
1A
100
AcDbEntity
  8
ZUWAKU
100
AcDbLine
 10
13.69610651420885
 20
4.712499735779058
 30
0.0
 11
13.69610651420885
 21
3.837499735779058
 31
0.0
  0
ARC
  5
AB9
330
1A
100
AcDbEntity
  8
ZUWAKU
100
AcDbCircle
 10
13.4336065142088
 20
3.837499735779058
 30
0.0
 40
0.2625
100
AcDbArc
 50
270.0
 51
0.0
  0
ARC
  5
ABA
330
1A
100
AcDbEntity
  8
ZUWAKU
100
AcDbCircle
 10
13.4336065142088
 20
4.712499735779058
 30
0.0
 40
0.2625
100
AcDbArc
 50
0.0
 51
90.0
  0
ARC
  5
ABB
330
1A
100
AcDbEntity
  8
ZUWAKU
100
AcDbCircle
 10
15.1836065142088
 20
3.837499735779058
 30
0.0
 40
0.2625
100
AcDbArc
 50
180.0
 51
270.0
  0
ARC
  5
ABC
330
1A
100
AcDbEntity
  8
ZUWAKU
100
AcDbCircle
 10
16.65372359595318
 20
6.637499735779059
 30
0.0
 40
0.2625
100
AcDbArc
 50
17.52556837372303
 51
90.0
  0
ARC
  5
ABD
330
1A
100
AcDbEntity
  8
ZUWAKU
100
AcDbCircle
 10
16.58360651420883
 20
6.637499735779059
 30
0.0
 40
0.2625
100
AcDbArc
 50
90.0
 51
180.0
  0
ARC
  5
ABE
330
1A
100
AcDbEntity
  8
ZUWAKU
100
AcDbCircle
 10
20.60860651420881
 20
3.837499735779058
 30
0.0
 40
0.2625
100
AcDbArc
 50
180.0
 51
270.0
  0
LINE
  5
ABF
330
1A
100
AcDbEntity
  8
ZUWAKU
100
AcDbLine
 10
18.08848943246448
 20
3.574999735779059
 30
0.0
 11
18.93793412226898
 21
3.574999735779059
 31
0.0
  0
ARC
  5
AC0
330
1A
100
AcDbEntity
  8
ZUWAKU
100
AcDbCircle
 10
18.93793412226898
 20
3.837499735779058
 30
0.0
 40
0.2625
100
AcDbArc
 50
270.0
 51
17.52556837372303
  0
LINE
  5
AC1
330
1A
100
AcDbEntity
  8
ZUWAKU
100
AcDbLine
 10
19.18824957186672
 20
3.916546719862544
 30
0.0
 11
18.02505388262989
 21
7.599999735779068
 31
0.0
  0
ARC
  5
AC2
330
1A
100
AcDbEntity
  8
ZUWAKU
100
AcDbCircle
 10
18.08848943246448
 20
3.837499735779058
 30
0.0
 40
0.2625
100
AcDbArc
 50
197.525568373723
 51
270.0
  0
ARC
  5
AC3
330
1A
100
AcDbEntity
  8
ZUWAKU
100
AcDbCircle
 10
28.92110651420881
 20
4.974999735779057
 30
0.0
 40
1.399999999999999
100
AcDbArc
 50
180.0
 51
270.0
  0
ARC
  5
AC4
330
1A
100
AcDbEntity
  8
ZUWAKU
100
AcDbCircle
 10
25.07110651420885
 20
4.974999735779057
 30
0.0
 40
1.399999999999999
100
AcDbArc
 50
270.0
 51
0.0
  0
LINE
  5
AC5
330
1A
100
AcDbEntity
  8
ZUWAKU
100
AcDbLine
 10
25.85603075470061
 20
7.367524988948471
 30
0.0
 11
24.40113176737821
 21
8.822423976270808
 31
0.0
  0
LINE
  5
AC6
330
1A
100
AcDbEntity
  8
ZUWAKU
100
AcDbLine
 10
25.07110651420885
 20
5.23749973577906
 30
0.0
 11
25.07110651420885
 21
5.882600748456731
 31
0.0
  0
ARC
  5
AC7
330
1A
100
AcDbEntity
  8
ZUWAKU
100
AcDbCircle
 10
24.3711065142088
 20
5.882600748456731
 30
0.0
 40
0.7
100
AcDbArc
 50
0.0
 51
45.0
  0
ARC
  5
AC8
330
1A
100
AcDbEntity
  8
ZUWAKU
100
AcDbCircle
 10
24.8086065142088
 20
5.23749973577906
 30
0.0
 40
0.2625
100
AcDbArc
 50
270.0
 51
0.0
  0
LINE
  5
AC9
330
1A
100
AcDbEntity
  8
ZUWAKU
100
AcDbLine
 10
23.0586065142088
 20
3.837499735779058
 30
0.0
 11
23.0586065142088
 21
4.712499735779058
 31
0.0
  0
ARC
  5
ACA
330
1A
100
AcDbEntity
  8
ZUWAKU
100
AcDbCircle
 10
23.32110651420884
 20
3.837499735779058
 30
0.0
 40
0.2625
100
AcDbArc
 50
180.0
 51
270.0
  0
ARC
  5
ACB
330
1A
100
AcDbEntity
  8
ZUWAKU
100
AcDbCircle
 10
21.48360651420881
 20
3.837499735779058
 30
0.0
 40
0.2625
100
AcDbArc
 50
270.0
 51
0.0
  0
ARC
  5
ACC
330
1A
100
AcDbEntity
  8
ZUWAKU
100
AcDbCircle
 10
23.32110651420884
 20
4.712499735779058
 30
0.0
 40
0.2625
100
AcDbArc
 50
90.0
 51
180.0
  0
LINE
  5
ACD
330
1A
100
AcDbEntity
  8
ZUWAKU
100
AcDbLine
 10
23.32110651420884
 20
4.974999735779057
 30
0.0
 11
24.8086065142088
 21
4.974999735779057
 31
0.0
  0
LINE
  5
ACE
330
1A
100
AcDbEntity
  8
ZUWAKU
100
AcDbLine
 10
23.32110651420884
 20
3.574999735779059
 30
0.0
 11
25.07110651420885
 21
3.574999735779059
 31
0.0
  0
LINE
  5
ACF
330
1A
100
AcDbEntity
  8
ZUWAKU
100
AcDbLine
 10
23.41118227371708
 20
7.832474482609647
 30
0.0
 11
24.86608126103942
 21
6.377575495287317
 31
0.0
  0
LINE
  5
AD0
330
1A
100
AcDbEntity
  8
ZUWAKU
100
AcDbLine
 10
26.47110651420883
 20
4.974999735779057
 30
0.0
 11
26.47110651420883
 21
5.882600748456731
 31
0.0
  0
ARC
  5
AD1
330
1A
100
AcDbEntity
  8
ZUWAKU
100
AcDbCircle
 10
24.3711065142088
 20
5.882600748456709
 30
0.0
 40
2.099999999999999
100
AcDbArc
 50
0.0
 51
45.0
  0
ARC
  5
AD2
330
1A
100
AcDbEntity
  8
ZUWAKU
100
AcDbCircle
 10
29.44610651420885
 20
5.499999735779056
 30
0.0
 40
0.525
100
AcDbArc
 50
180.0
 51
270.0
  0
ARC
  5
AD3
330
1A
100
AcDbEntity
  8
ZUWAKU
100
AcDbCircle
 10
30.67110651420881
 20
4.974999735779057
 30
0.0
 40
1.399999999999999
100
AcDbArc
 50
270.0
 51
0.0
  0
LINE
  5
AD4
330
1A
100
AcDbEntity
  8
ZUWAKU
100
AcDbLine
 10
33.38360651420885
 20
3.574999735779059
 30
0.0
 11
34.25860651420885
 21
3.574999735779059
 31
0.0
  0
ARC
  5
AD5
330
1A
100
AcDbEntity
  8
ZUWAKU
100
AcDbCircle
 10
33.38360651420885
 20
3.837499735779058
 30
0.0
 40
0.2625
100
AcDbArc
 50
180.0
 51
270.0
  0
ARC
  5
AD6
330
1A
100
AcDbEntity
  8
ZUWAKU
100
AcDbCircle
 10
30.14610651420884
 20
5.499999735779056
 30
0.0
 40
0.525
100
AcDbArc
 50
270.0
 51
0.0
  0
ARC
  5
AD7
330
1A
100
AcDbEntity
  8
ZUWAKU
100
AcDbCircle
 10
34.25860651420885
 20
3.837499735779058
 30
0.0
 40
0.2625
100
AcDbArc
 50
270.0
 51
0.0
  0
LINE
  5
AD8
330
1A
100
AcDbEntity
  8
ZUWAKU
100
AcDbLine
 10
21.48360651420881
 20
11.62499973577906
 30
0.0
 11
20.60860651420881
 21
11.62499973577906
 31
0.0
  0
ARC
  5
AD9
330
1A
100
AcDbEntity
  8
ZUWAKU
100
AcDbCircle
 10
16.0586065142088
 20
11.36249973577905
 30
0.0
 40
0.2625
100
AcDbArc
 50
0.0
 51
90.0
  0
LINE
  5
ADA
330
1A
100
AcDbEntity
  8
ZUWAKU
100
AcDbLine
 10
16.0586065142088
 20
11.62499973577906
 30
0.0
 11
15.1836065142088
 21
11.62499973577906
 31
0.0
  0
ARC
  5
ADB
330
1A
100
AcDbEntity
  8
ZUWAKU
100
AcDbCircle
 10
13.4336065142088
 20
11.36249973577905
 30
0.0
 40
0.2625
100
AcDbArc
 50
0.0
 51
90.0
  0
ARC
  5
ADC
330
1A
100
AcDbEntity
  8
ZUWAKU
100
AcDbCircle
 10
15.1836065142088
 20
11.36249973577905
 30
0.0
 40
0.2625
100
AcDbArc
 50
90.0
 51
180.0
  0
ARC
  5
ADD
330
1A
100
AcDbEntity
  8
ZUWAKU
100
AcDbCircle
 10
13.4336065142088
 20
10.48749973577905
 30
0.0
 40
0.2625
100
AcDbArc
 50
270.0
 51
0.0
  0
LINE
  5
ADE
330
1A
100
AcDbEntity
  8
ZUWAKU
100
AcDbLine
 10
13.69610651420885
 20
11.36249973577905
 30
0.0
 11
13.69610651420885
 21
10.48749973577905
 31
0.0
  0
ARC
  5
ADF
330
1A
100
AcDbEntity
  8
ZUWAKU
100
AcDbCircle
 10
20.60860651420881
 20
11.36249973577905
 30
0.0
 40
0.2625
100
AcDbArc
 50
90.0
 51
180.0
  0
LINE
  5
AE0
330
1A
100
AcDbEntity
  8
ZUWAKU
100
AcDbLine
 10
18.08848943246448
 20
11.62499973577906
 30
0.0
 11
18.93793412226898
 21
11.62499973577906
 31
0.0
  0
ARC
  5
AE1
330
1A
100
AcDbEntity
  8
ZUWAKU
100
AcDbCircle
 10
18.93793412226898
 20
11.36249973577905
 30
0.0
 40
0.2625
100
AcDbArc
 50
342.4744316262769
 51
90.0
  0
LINE
  5
AE2
330
1A
100
AcDbEntity
  8
ZUWAKU
100
AcDbLine
 10
19.18824957186672
 20
11.28345275169557
 30
0.0
 11
18.65742975529781
 21
9.602523332560771
 31
0.0
  0
ARC
  5
AE3
330
1A
100
AcDbEntity
  8
ZUWAKU
100
AcDbCircle
 10
18.08848943246448
 20
11.36249973577905
 30
0.0
 40
0.2625
100
AcDbArc
 50
90.0
 51
162.4744316262769
  0
LINE
  5
AE4
330
1A
100
AcDbEntity
  8
ZUWAKU
100
AcDbLine
 10
24.19610651420885
 20
11.62499973577906
 30
0.0
 11
25.94610651420885
 21
11.62499973577906
 31
0.0
  0
LINE
  5
AE5
330
1A
100
AcDbEntity
  8
ZUWAKU
100
AcDbLine
 10
25.94610651420885
 20
10.22499973577905
 30
0.0
 11
24.45860651420884
 21
10.22499973577905
 31
0.0
  0
ARC
  5
AE6
330
1A
100
AcDbEntity
  8
ZUWAKU
100
AcDbCircle
 10
24.45860651420884
 20
9.962499735779058
 30
0.0
 40
0.2625
100
AcDbArc
 50
90.0
 51
180.0
  0
LINE
  5
AE7
330
1A
100
AcDbEntity
  8
ZUWAKU
100
AcDbLine
 10
24.19610651420885
 20
9.962499735779058
 30
0.0
 11
24.19610651420885
 21
9.317398723101387
 31
0.0
  0
ARC
  5
AE8
330
1A
100
AcDbEntity
  8
ZUWAKU
100
AcDbCircle
 10
21.48360651420881
 20
11.36249973577905
 30
0.0
 40
0.2625
100
AcDbArc
 50
0.0
 51
90.0
  0
LINE
  5
AE9
330
1A
100
AcDbEntity
  8
ZUWAKU
100
AcDbLine
 10
22.79610651420881
 20
10.22499973577905
 30
0.0
 11
22.79610651420881
 21
9.317398723101387
 31
0.0
  0
ARC
  5
AEA
330
1A
100
AcDbEntity
  8
ZUWAKU
100
AcDbCircle
 10
24.19610651420885
 20
10.22499973577905
 30
0.0
 40
1.399999999999999
100
AcDbArc
 50
90.0
 51
180.0
  0
ARC
  5
AEB
330
1A
100
AcDbEntity
  8
ZUWAKU
100
AcDbCircle
 10
28.65860651420883
 20
11.36249973577905
 30
0.0
 40
0.2625
100
AcDbArc
 50
0.0
 51
90.0
  0
ARC
  5
AEC
330
1A
100
AcDbEntity
  8
ZUWAKU
100
AcDbCircle
 10
27.78360651420882
 20
11.36249973577905
 30
0.0
 40
0.2625
100
AcDbArc
 50
90.0
 51
180.0
  0
LINE
  5
AED
330
1A
100
AcDbEntity
  8
ZUWAKU
100
AcDbLine
 10
28.65860651420883
 20
11.62499973577906
 30
0.0
 11
27.78360651420882
 21
11.62499973577906
 31
0.0
  0
ARC
  5
AEE
330
1A
100
AcDbEntity
  8
ZUWAKU
100
AcDbCircle
 10
25.94610651420885
 20
11.36249973577905
 30
0.0
 40
0.2625
100
AcDbArc
 50
0.0
 51
90.0
  0
ARC
  5
AEF
330
1A
100
AcDbEntity
  8
ZUWAKU
100
AcDbCircle
 10
25.94610651420885
 20
10.48749973577905
 30
0.0
 40
0.2625
100
AcDbArc
 50
270.0
 51
0.0
  0
LINE
  5
AF0
330
1A
100
AcDbEntity
  8
ZUWAKU
100
AcDbLine
 10
26.20860651420883
 20
11.36249973577905
 30
0.0
 11
26.20860651420883
 21
10.48749973577905
 31
0.0
  0
LINE
  5
AF1
330
1A
100
AcDbEntity
  8
ZUWAKU
100
AcDbLine
 10
34.25860651420885
 20
11.62499973577906
 30
0.0
 11
33.38360651420885
 21
11.62499973577906
 31
0.0
  0
ARC
  5
AF2
330
1A
100
AcDbEntity
  8
ZUWAKU
100
AcDbCircle
 10
33.38360651420885
 20
11.36249973577905
 30
0.0
 40
0.2625
100
AcDbArc
 50
90.0
 51
180.0
  0
ARC
  5
AF3
330
1A
100
AcDbEntity
  8
ZUWAKU
100
AcDbCircle
 10
31.8086065142088
 20
11.36249973577905
 30
0.0
 40
0.2625
100
AcDbArc
 50
0.0
 51
90.0
  0
LINE
  5
AF4
330
1A
100
AcDbEntity
  8
ZUWAKU
100
AcDbLine
 10
31.8086065142088
 20
11.62499973577906
 30
0.0
 11
30.9336065142088
 21
11.62499973577906
 31
0.0
  0
ARC
  5
AF5
330
1A
100
AcDbEntity
  8
ZUWAKU
100
AcDbCircle
 10
30.9336065142088
 20
11.36249973577905
 30
0.0
 40
0.2625
100
AcDbArc
 50
90.0
 51
180.0
  0
ARC
  5
AF6
330
1A
100
AcDbEntity
  8
ZUWAKU
100
AcDbCircle
 10
34.25860651420885
 20
11.36249973577905
 30
0.0
 40
0.2625
100
AcDbArc
 50
0.0
 51
90.0
  0
TEXT
  5
AF7
330
1A
100
AcDbEntity
  8
MOJI
100
AcDbText
 10
119.9136017772437
 20
9.002460264482749
 30
0.0
 40
2.799999999999999
  1
ステンレス金具正面打（吊）固定式（内吊り）
 41
0.9
  7
ｽﾀｲﾙ1
100
AcDbText
  0
TEXT
  5
AF8
330
1A
100
AcDbEntity
  8
MOJI
100
AcDbText
 10
119.9136017772437
 20
1.602460264482767
 30
0.0
 40
2.799999999999999
  1
Ｘ７０Ｕ－０－１０
 41
0.9
  7
ｽﾀｲﾙ1
100
AcDbText
  0
LINE
  5
AF9
330
1A
100
AcDbEntity
  8
ZUWAKU
100
AcDbLine
 10
104.1233010818522
 20
14.99999973577905
 30
0.0
 11
104.1233010818522
 21
0.3999997357790903
 31
0.0
  0
LINE
  5
AFA
330
1A
100
AcDbEntity
  8
ZUWAKU
100
AcDbLine
 10
104.3233010818521
 20
14.99999973577905
 30
0.0
 11
104.3233010818522
 21
0.3999997357790903
 31
0.0
  0
LINE
  5
AFB
330
1A
100
AcDbEntity
  8
ZUWAKU
100
AcDbLine
 10
104.2233010818521
 20
14.99999973577905
 30
0.0
 11
104.2233010818522
 21
0.3999997357790903
 31
0.0
  0
TEXT
  5
AFC
330
1A
100
AcDbEntity
  8
ZUWAKU
100
AcDbText
 10
104.862023592957
 20
4.827678004971865
 30
0.0
 40
2.0
  1
サイズ
 41
0.9
  7
ｽﾀｲﾙ1
100
AcDbText
  0
TEXT
  5
AFD
330
1A
100
AcDbEntity
  8
ZUWAKU
100
AcDbText
 10
104.8620235929569
 20
12.02767800497184
 30
0.0
 40
2.0
  1
品名
 41
0.9
  7
ｽﾀｲﾙ1
100
AcDbText
  0
LINE
  5
AFE
330
1A
100
AcDbEntity
  8
ZUWAKU
100
AcDbLine
 10
324.4086016919203
 20
7.599999735779071
 30
0.0
 11
348.6245057110888
 21
7.599999735779073
 31
0.0
  0
LINE
  5
AFF
330
1A
100
AcDbEntity
  8
ZUWAKU
100
AcDbLine
 10
324.4086016919204
 20
7.699999735779075
 30
0.0
 11
348.6245057110888
 21
7.699999735779073
 31
0.0
  0
LINE
  5
B00
330
1A
100
AcDbEntity
  8
ZUWAKU
100
AcDbLine
 10
324.4086016919203
 20
7.799999735779072
 30
0.0
 11
348.6245057110888
 21
7.799999735779072
 31
0.0
  0
TEXT
  5
B01
330
1A
100
AcDbEntity
  8
ZUWAKU
100
AcDbText
 10
329.1019692804694
 20
9.002460264482749
 30
0.0
 40
2.799999999999999
  1
　　．　　．　　
 41
0.9
  7
ｽﾀｲﾙ1
100
AcDbText
  0
LINE
  5
B02
330
1A
100
AcDbEntity
  8
ZUWAKU
100
AcDbLine
 10
252.5995901858887
 20
7.599999735779075
 30
0.0
 11
276.2634783198744
 21
7.599999735779075
 31
0.0
  0
LINE
  5
B03
330
1A
100
AcDbEntity
  8
ZUWAKU
100
AcDbLine
 10
252.5995901858887
 20
7.699999735779073
 30
0.0
 11
276.2634783198744
 21
7.699999735779073
 31
0.0
  0
LINE
  5
B04
330
1A
100
AcDbEntity
  8
ZUWAKU
100
AcDbLine
 10
252.5995901858887
 20
7.799999735779072
 30
0.0
 11
276.2634783198744
 21
7.799999735779072
 31
0.0
  0
TEXT
  5
B05
330
1A
100
AcDbEntity
  8
MOJI
100
AcDbText
 10
231.2836395978125
 20
5.971308596609048
 30
0.0
 40
2.799999999999999
  1
ＬＦ６５Ｇ
 41
0.9
  7
ｽﾀｲﾙ1
100
AcDbText
  0
LINE
  5
B06
330
1A
100
AcDbEntity
  8
ZUWAKU
100
AcDbLine
 10
223.8121824223138
 20
14.99999973577905
 30
0.0
 11
223.8121824223139
 21
0.3999997357790903
 31
0.0
  0
LINE
  5
B07
330
1A
100
AcDbEntity
  8
ZUWAKU
100
AcDbLine
 10
223.9121824223138
 20
14.99999973577905
 30
0.0
 11
223.9121824223139
 21
0.3999997357790903
 31
0.0
  0
LINE
  5
B08
330
1A
100
AcDbEntity
  8
ZUWAKU
100
AcDbLine
 10
223.7121824223139
 20
14.99999973577905
 30
0.0
 11
223.7121824223139
 21
0.3999997357790903
 31
0.0
  0
TEXT
  5
B09
330
1A
100
AcDbEntity
  8
MOJI
100
AcDbText
 10
264.0204544229746
 20
9.002460264482749
 30
0.0
 40
2.799999999999999
  1
Ａ３
 41
0.9
  7
ｽﾀｲﾙ1
100
AcDbText
  0
LINE
  5
B0A
330
1A
100
AcDbEntity
  8
ZUWAKU
100
AcDbLine
 10
252.4995901858886
 20
14.99999973577905
 30
0.0
 11
252.4995901858888
 21
0.3999997357790903
 31
0.0
  0
LINE
  5
B0B
330
1A
100
AcDbEntity
  8
ZUWAKU
100
AcDbLine
 10
252.5995901858887
 20
14.99999973577905
 30
0.0
 11
252.5995901858888
 21
0.3999997357790903
 31
0.0
  0
LINE
  5
B0C
330
1A
100
AcDbEntity
  8
ZUWAKU
100
AcDbLine
 10
252.3995901858887
 20
14.99999973577905
 30
0.0
 11
252.3995901858887
 21
0.3999997357790903
 31
0.0
  0
TEXT
  5
B0D
330
1A
100
AcDbEntity
  8
ZUWAKU
100
AcDbText
 10
253.3383126969936
 20
4.827678004971865
 30
0.0
 40
2.0
  1
縮尺
 41
0.9
  7
ｽﾀｲﾙ1
100
AcDbText
  0
TEXT
  5
B0E
330
1A
100
AcDbEntity
  8
MOJI
100
AcDbText
 10
264.0204544229746
 20
1.602460264482767
 30
0.0
 40
2.799999999999999
  1
１/１
 41
0.9
  7
ｽﾀｲﾙ1
100
AcDbText
  0
TEXT
  5
B0F
330
1A
100
AcDbEntity
  8
ZUWAKU
100
AcDbText
 10
224.6509049334187
 20
12.02767800497184
 30
0.0
 40
2.0
  1
品番
 41
0.9
  7
ｽﾀｲﾙ1
100
AcDbText
  0
TEXT
  5
B10
330
1A
100
AcDbEntity
  8
ZUWAKU
100
AcDbText
 10
253.3383126969935
 20
12.02767800497184
 30
0.0
 40
2.0
  1
用紙
 41
0.9
  7
ｽﾀｲﾙ1
100
AcDbText
  0
LINE
  5
B11
330
1A
100
AcDbEntity
  8
ZUWAKU
100
AcDbLine
 10
324.3086016919204
 20
14.99999973577905
 30
0.0
 11
324.3086016919205
 21
0.3999997357790903
 31
0.0
  0
LINE
  5
B12
330
1A
100
AcDbEntity
  8
ZUWAKU
100
AcDbLine
 10
324.4086016919204
 20
14.99999973577905
 30
0.0
 11
324.4086016919205
 21
0.3999997357790903
 31
0.0
  0
LINE
  5
B13
330
1A
100
AcDbEntity
  8
ZUWAKU
100
AcDbLine
 10
324.2086016919205
 20
14.99999973577905
 30
0.0
 11
324.2086016919205
 21
0.3999997357790903
 31
0.0
  0
LINE
  5
B14
330
1A
100
AcDbEntity
  8
ZUWAKU
100
AcDbLine
 10
276.3634783198743
 20
14.99999973577905
 30
0.0
 11
276.3634783198745
 21
0.3999997357790903
 31
0.0
  0
LINE
  5
B15
330
1A
100
AcDbEntity
  8
ZUWAKU
100
AcDbLine
 10
276.4634783198744
 20
14.99999973577905
 30
0.0
 11
276.4634783198745
 21
0.3999997357790903
 31
0.0
  0
LINE
  5
B16
330
1A
100
AcDbEntity
  8
ZUWAKU
100
AcDbLine
 10
276.2634783198744
 20
14.99999973577905
 30
0.0
 11
276.2634783198744
 21
0.3999997357790903
 31
0.0
  0
TEXT
  5
B17
330
1A
100
AcDbEntity
  8
ZUWAKU
100
AcDbText
 10
325.1473242030253
 20
12.02767800497184
 30
0.0
 40
2.0
  1
DATE
 41
0.9
  7
ｽﾀｲﾙ1
100
AcDbText
  0
LINE
  5
B18
330
1A
100
AcDbEntity
  8
ZUWAKU
100
AcDbLine
 10
348.6245057110888
 20
14.99999973577905
 30
0.0
 11
348.6245057110888
 21
0.3999997357790903
 31
0.0
  0
LINE
  5
B19
330
1A
100
AcDbEntity
  8
ZUWAKU
100
AcDbLine
 10
348.7245057110889
 20
14.99999973577905
 30
0.0
 11
348.7245057110889
 21
0.3999997357790903
 31
0.0
  0
LINE
  5
B1A
330
1A
100
AcDbEntity
  8
ZUWAKU
100
AcDbLine
 10
348.8245057110888
 20
14.99999973577905
 30
0.0
 11
348.8245057110889
 21
0.3999997357790903
 31
0.0
  0
LINE
  5
B1B
330
1A
100
AcDbEntity
  8
ZUWAKU
100
AcDbLine
 10
348.9245057110888
 20
14.99999973577905
 30
0.0
 11
348.9245057110889
 21
0.3999997357790903
 31
0.0
  0
TEXT
  5
B1C
330
1A
100
AcDbEntity
  8
ZUWAKU
100
AcDbText
 10
354.2640425329401
 20
8.776919403622457
 30
0.0
 40
3.0
  1
積水化学工業株式会社
 41
0.9
  7
ｽﾀｲﾙ1
100
AcDbText
  0
TEXT
  5
B1D
330
1A
100
AcDbEntity
  8
ZUWAKU
100
AcDbText
 10
354.2640425329401
 20
3.324419892706089
 30
0.0
 40
3.0
  1
建材事業部
 41
0.9
  7
ｽﾀｲﾙ1
100
AcDbText
  0
VIEWPORT
  5
22
330
17
100
AcDbEntity
 67
     1
  8
0
100
AcDbViewport
 10
313.6808219178082
 20
148.5
 30
0.0
 40
627.3616438356165
 41
297.0
 68
     2
 69
     1
1001
ACAD
1000
MVIEW
1002
{
1070
    16
1010
0.0
1020
0.0
1030
0.0
1010
0.0
1020
0.0
1030
1.0
1040
0.0
1040
297.0
1040
313.6808219178082
1040
148.5
1040
50.0
1040
0.0
1040
0.0
1070
     0
1070
   100
1070
     1
1070
     0
1070
     0
1070
     0
1070
     0
1070
     0
1040
0.0
1040
0.0
1040
0.0
1040
1.0
1040
1.0
1040
10.0
1040
10.0
1070
     0
1002
{
1002
}
1002
}
  0
VIEWPORT
  5
64
330
17
100
AcDbEntity
 67
     1
  8
VIEWPORT
100
AcDbViewport
 10
210.0
 20
148.5
 30
0.0
 40
420.0
 41
297.0
 68
     1
 69
     2
1001
ACAD
1000
MVIEW
1002
{
1070
    16
1010
0.0
1020
0.0
1030
0.0
1010
0.0
1020
0.0
1030
1.0
1040
0.0
1040
302.9399999999998
1040
210.0
1040
148.5
1040
50.0
1040
0.0
1040
0.0
1070
     0
1070
   100
1070
     1
1070
     0
1070
     0
1070
     0
1070
     0
1070
     0
1040
0.0
1040
0.0
1040
0.0
1040
5.0
1040
5.0
1040
0.0
1040
0.0
1070
     0
1002
{
1002
}
1002
}
  0
ENDSEC
  0
SECTION
  2
OBJECTS
  0
DICTIONARY
  5
C
330
0
100
AcDbDictionary
  3
ACAD_GROUP
350
D
  3
ACAD_LAYOUT
350
378
  3
ACAD_MLINESTYLE
350
E
  3
ACAD_PLOTSETTINGS
350
379
  3
ACAD_PLOTSTYLENAME
350
376
  3
ACDBHEADERROUNDTRIPXREC
350
B26
  0
DICTIONARY
  5
8C7
330
1A
100
AcDbDictionary
280
     1
  3
ACAD_LAYOUTSELFREF
360
B48
  0
DICTIONARY
  5
8C5
330
17
100
AcDbDictionary
280
     1
  3
ACAD_LAYOUTSELFREF
360
B47
  0
DICTIONARY
  5
D
102
{ACAD_REACTORS
330
C
102
}
330
C
100
AcDbDictionary
  0
DICTIONARY
  5
378
102
{ACAD_REACTORS
330
C
102
}
330
C
100
AcDbDictionary
  0
DICTIONARY
  5
E
102
{ACAD_REACTORS
330
C
102
}
330
C
100
AcDbDictionary
  3
STANDARD
350
13
  0
DICTIONARY
  5
379
102
{ACAD_REACTORS
330
C
102
}
330
C
100
AcDbDictionary
  0
ACDBDICTIONARYWDFLT
  5
376
102
{ACAD_REACTORS
330
C
102
}
330
C
100
AcDbDictionary
281
     1
  3
Normal
350
377
100
AcDbDictionaryWithDefault
340
377
1001
ACAD
1000
TREAT_AS_HARD
1070
     0
1000
TREAT_AS_HARD
1070
     0
  0
DICTIONARY
  5
B26
102
{ACAD_REACTORS
330
C
102
}
330
C
100
AcDbDictionary
  3
TSTACKALIGN
350
B27
  3
TSTACKSIZE
350
B28
  3
HYPERLINKBASE
350
B29
  3
STYLESHEET
350
B2A
  3
LAYOUTDICT
350
B2B
  3
PLOTSETDICT
350
B2C
  3
PLOTSTYLNAMDICT
350
B2D
  3
LWETCUNION
350
B2E
  3
INSUNITS
350
B2F
  3
CEPSNTYPE
350
B30
  3
FINGERPRINTGUID
350
B31
  3
VERSIONGUID
350
B32
  3
PSVPSCALE
350
B33
  3
DIMSTYLEDATA
350
B34
  3
PUCSORTHOREF
350
B35
  3
PUCSORTHOVIEW
350
B36
  3
PUCSBASE
350
B37
  3
PUCSORGTOP
350
B38
  3
PUCSORGBOTTOM
350
B39
  3
PUCSORGLEFT
350
B3A
  3
PUCSORGRIGHT
350
B3B
  3
PUCSORGFRONT
350
B3C
  3
PUCSORGBACK
350
B3D
  3
UCSORTHOREF
350
B3E
  3
UCSORTHOVIEW
350
B3F
  3
UCSBASE
350
B40
  3
UCSORGTOP
350
B41
  3
UCSORGBOTTOM
350
B42
  3
UCSORGLEFT
350
B43
  3
UCSORGRIGHT
350
B44
  3
UCSORGFRONT
350
B45
  3
UCSORGBACK
350
B46
  0
XRECORD
  5
B48
102
{ACAD_REACTORS
330
8C7
102
}
330
8C7
100
AcDbXrecord
340
1A
  0
XRECORD
  5
B47
102
{ACAD_REACTORS
330
8C5
102
}
330
8C5
100
AcDbXrecord
340
17
  0
MLINESTYLE
  5
13
102
{ACAD_REACTORS
330
E
102
}
330
E
100
AcDbMlineStyle
  2
STANDARD
 70
     0
  3

 62
     0
 51
90.0
 52
90.0
 71
     2
 49
0.5
 62
   256
  6
BYLAYER
 49
-0.5
 62
   256
  6
BYLAYER
  0
ACDBPLACEHOLDER
  5
377
102
{ACAD_REACTORS
330
376
102
}
330
376
100
AcDbPlaceHolder
280
     0
  0
XRECORD
  5
B27
102
{ACAD_REACTORS
330
B26
102
}
330
B26
100
AcDbXrecord
 90
        1
  0
XRECORD
  5
B28
102
{ACAD_REACTORS
330
B26
102
}
330
B26
100
AcDbXrecord
 90
       70
  0
XRECORD
  5
B29
102
{ACAD_REACTORS
330
B26
102
}
330
B26
100
AcDbXrecord
  1

  0
XRECORD
  5
B2A
102
{ACAD_REACTORS
330
B26
102
}
330
B26
100
AcDbXrecord
  1
systemprinter.ctb
  0
XRECORD
  5
B2B
102
{ACAD_REACTORS
330
B26
102
}
330
B26
100
AcDbXrecord
340
378
  0
XRECORD
  5
B2C
102
{ACAD_REACTORS
330
B26
102
}
330
B26
100
AcDbXrecord
340
379
  0
XRECORD
  5
B2D
102
{ACAD_REACTORS
330
B26
102
}
330
B26
100
AcDbXrecord
340
376
  0
XRECORD
  5
B2E
102
{ACAD_REACTORS
330
B26
102
}
330
B26
100
AcDbXrecord
 90
    10781
  0
XRECORD
  5
B2F
102
{ACAD_REACTORS
330
B26
102
}
330
B26
100
AcDbXrecord
 90
        0
  0
XRECORD
  5
B30
102
{ACAD_REACTORS
330
B26
102
}
330
B26
100
AcDbXrecord
 90
        0
  0
XRECORD
  5
B31
102
{ACAD_REACTORS
330
B26
102
}
330
B26
100
AcDbXrecord
  1
{06FABC6D-5F21-4A0E-BC4D-456177574FD5}
  0
XRECORD
  5
B32
102
{ACAD_REACTORS
330
B26
102
}
330
B26
100
AcDbXrecord
  1
{91D87F30-FB41-46F9-B8BB-A1A18CBEA320}
  0
XRECORD
  5
B33
102
{ACAD_REACTORS
330
B26
102
}
330
B26
100
AcDbXrecord
 40
0.0
  0
XRECORD
  5
B34
102
{ACAD_REACTORS
330
B26
102
}
330
B26
100
AcDbXrecord
1000
DSTYLE
1002
{
1070
   341
340
B2
1070
   343
340
B2
1070
   344
340
B2
1070
   371
 70
    -1
1070
   372
 70
    -1
1002
}
  0
XRECORD
  5
B35
102
{ACAD_REACTORS
330
B26
102
}
330
B26
100
AcDbXrecord
340
0
  0
XRECORD
  5
B36
102
{ACAD_REACTORS
330
B26
102
}
330
B26
100
AcDbXrecord
 70
     0
  0
XRECORD
  5
B37
102
{ACAD_REACTORS
330
B26
102
}
330
B26
100
AcDbXrecord
340
0
  0
XRECORD
  5
B38
102
{ACAD_REACTORS
330
B26
102
}
330
B26
100
AcDbXrecord
 10
0.0
 20
0.0
 30
0.0
  0
XRECORD
  5
B39
102
{ACAD_REACTORS
330
B26
102
}
330
B26
100
AcDbXrecord
 10
0.0
 20
0.0
 30
0.0
  0
XRECORD
  5
B3A
102
{ACAD_REACTORS
330
B26
102
}
330
B26
100
AcDbXrecord
 10
0.0
 20
0.0
 30
0.0
  0
XRECORD
  5
B3B
102
{ACAD_REACTORS
330
B26
102
}
330
B26
100
AcDbXrecord
 10
0.0
 20
0.0
 30
0.0
  0
XRECORD
  5
B3C
102
{ACAD_REACTORS
330
B26
102
}
330
B26
100
AcDbXrecord
 10
0.0
 20
0.0
 30
0.0
  0
XRECORD
  5
B3D
102
{ACAD_REACTORS
330
B26
102
}
330
B26
100
AcDbXrecord
 10
0.0
 20
0.0
 30
0.0
  0
XRECORD
  5
B3E
102
{ACAD_REACTORS
330
B26
102
}
330
B26
100
AcDbXrecord
340
0
  0
XRECORD
  5
B3F
102
{ACAD_REACTORS
330
B26
102
}
330
B26
100
AcDbXrecord
 70
     0
  0
XRECORD
  5
B40
102
{ACAD_REACTORS
330
B26
102
}
330
B26
100
AcDbXrecord
340
0
  0
XRECORD
  5
B41
102
{ACAD_REACTORS
330
B26
102
}
330
B26
100
AcDbXrecord
 10
0.0
 20
0.0
 30
0.0
  0
XRECORD
  5
B42
102
{ACAD_REACTORS
330
B26
102
}
330
B26
100
AcDbXrecord
 10
0.0
 20
0.0
 30
0.0
  0
XRECORD
  5
B43
102
{ACAD_REACTORS
330
B26
102
}
330
B26
100
AcDbXrecord
 10
0.0
 20
0.0
 30
0.0
  0
XRECORD
  5
B44
102
{ACAD_REACTORS
330
B26
102
}
330
B26
100
AcDbXrecord
 10
0.0
 20
0.0
 30
0.0
  0
XRECORD
  5
B45
102
{ACAD_REACTORS
330
B26
102
}
330
B26
100
AcDbXrecord
 10
0.0
 20
0.0
 30
0.0
  0
XRECORD
  5
B46
102
{ACAD_REACTORS
330
B26
102
}
330
B26
100
AcDbXrecord
 10
0.0
 20
0.0
 30
0.0
  0
ENDSEC
  0
EOF
