  0
SECTION
  2
HEADER
  9
$ACADVER
  1
AC1014
  9
$ACADMAINTVER
 70
     9
  9
$DWGCODEPAGE
  3
ANSI_932
  9
$INSBASE
 10
0.0
 20
0.0
 30
0.0
  9
$EXTMIN
 10
-0.0256335853011933
 20
-0.0181260584133725
 30
-0.0000000100021362
  9
$EXTMAX
 10
797.6000995235279
 20
551.6452344880035
 30
0.0000000100021363
  9
$LIMMIN
 10
0.0
 20
0.0
  9
$LIMMAX
 10
840.0
 20
594.0
  9
$ORTHOMODE
 70
     0
  9
$REGENMODE
 70
     1
  9
$FILLMODE
 70
     1
  9
$QTEXTMODE
 70
     0
  9
$MIRRTEXT
 70
     1
  9
$DRAGMODE
 70
     2
  9
$LTSCALE
 40
2.0
  9
$OSMODE
 70
    35
  9
$ATTMODE
 70
     1
  9
$TEXTSIZE
 40
6.0
  9
$TRACEWID
 40
1.0
  9
$TEXTSTYLE
  7
STANDARD
  9
$CLAYER
  8
CENTER_L
  9
$CELTYPE
  6
BYLAYER
  9
$CECOLOR
 62
   256
  9
$CELTSCALE
 40
1.0
  9
$DELOBJ
 70
     1
  9
$DISPSILH
 70
     0
  9
$DIMSCALE
 40
1.0
  9
$DIMASZ
 40
7.0
  9
$DIMEXO
 40
6.0
  9
$DIMDLI
 40
14.0
  9
$DIMRND
 40
0.0
  9
$DIMDLE
 40
0.0
  9
$DIMEXE
 40
3.0
  9
$DIMTP
 40
0.0
  9
$DIMTM
 40
0.0
  9
$DIMTXT
 40
6.0
  9
$DIMCEN
 40
150.0
  9
$DIMTSZ
 40
0.0
  9
$DIMTOL
 70
     0
  9
$DIMLIM
 70
     0
  9
$DIMTIH
 70
     0
  9
$DIMTOH
 70
     0
  9
$DIMSE1
 70
     0
  9
$DIMSE2
 70
     0
  9
$DIMTAD
 70
     3
  9
$DIMZIN
 70
     0
  9
$DIMBLK
  1

  9
$DIMASO
 70
     1
  9
$DIMSHO
 70
     1
  9
$DIMPOST
  1

  9
$DIMAPOST
  1

  9
$DIMALT
 70
     0
  9
$DIMALTD
 70
     2
  9
$DIMALTF
 40
25.4
  9
$DIMLFAC
 40
1.0
  9
$DIMTOFL
 70
     1
  9
$DIMTVP
 40
0.0
  9
$DIMTIX
 70
     0
  9
$DIMSOXD
 70
     0
  9
$DIMSAH
 70
     1
  9
$DIMBLK1
  1
OPEN
  9
$DIMBLK2
  1
OPEN
  9
$DIMSTYLE
  2
STANDARD
  9
$DIMCLRD
 70
   256
  9
$DIMCLRE
 70
   256
  9
$DIMCLRT
 70
   256
  9
$DIMTFAC
 40
1.0
  9
$DIMGAP
 40
2.0
  9
$DIMJUST
 70
     0
  9
$DIMSD1
 70
     0
  9
$DIMSD2
 70
     0
  9
$DIMTOLJ
 70
     1
  9
$DIMTZIN
 70
     0
  9
$DIMALTZ
 70
     0
  9
$DIMALTTZ
 70
     0
  9
$DIMFIT
 70
     3
  9
$DIMUPT
 70
     0
  9
$DIMUNIT
 70
     2
  9
$DIMDEC
 70
     0
  9
$DIMTDEC
 70
     0
  9
$DIMALTU
 70
     2
  9
$DIMALTTD
 70
     2
  9
$DIMTXSTY
  7
STANDARD
  9
$DIMAUNIT
 70
     0
  9
$LUNITS
 70
     2
  9
$LUPREC
 70
     4
  9
$SKETCHINC
 40
1.0
  9
$FILLETRAD
 40
1.0
  9
$AUNITS
 70
     0
  9
$AUPREC
 70
     0
  9
$MENU
  1
.
  9
$ELEVATION
 40
0.0
  9
$PELEVATION
 40
0.0
  9
$THICKNESS
 40
0.0
  9
$LIMCHECK
 70
     0
  9
$BLIPMODE
 70
     0
  9
$CHAMFERA
 40
1.0
  9
$CHAMFERB
 40
1.0
  9
$CHAMFERC
 40
40.0
  9
$CHAMFERD
 40
0.0
  9
$SKPOLY
 70
     0
  9
$TDCREATE
 40
2451199.484270833
  9
$TDUPDATE
 40
2453802.430500034
  9
$TDINDWG
 40
0.2482404977
  9
$TDUSRTIMER
 40
0.2482404977
  9
$USRTIMER
 70
     1
  9
$ANGBASE
 50
0.0
  9
$ANGDIR
 70
     0
  9
$PDMODE
 70
     0
  9
$PDSIZE
 40
0.0
  9
$PLINEWID
 40
0.0
  9
$COORDS
 70
     1
  9
$SPLFRAME
 70
     0
  9
$SPLINETYPE
 70
     6
  9
$SPLINESEGS
 70
     8
  9
$ATTDIA
 70
     0
  9
$ATTREQ
 70
     1
  9
$HANDLING
 70
 10241
  9
$HANDSEED
  5
B25
  9
$SURFTAB1
 70
     6
  9
$SURFTAB2
 70
     6
  9
$SURFTYPE
 70
     6
  9
$SURFU
 70
     6
  9
$SURFV
 70
     6
  9
$UCSNAME
  2

  9
$UCSORG
 10
0.0
 20
0.0
 30
0.0
  9
$UCSXDIR
 10
1.0
 20
0.0
 30
0.0
  9
$UCSYDIR
 10
0.0
 20
1.0
 30
0.0
  9
$PUCSNAME
  2

  9
$PUCSORG
 10
0.0
 20
0.0
 30
0.0
  9
$PUCSXDIR
 10
1.0
 20
0.0
 30
0.0
  9
$PUCSYDIR
 10
0.0
 20
1.0
 30
0.0
  9
$USERI1
 70
     0
  9
$USERI2
 70
     0
  9
$USERI3
 70
     0
  9
$USERI4
 70
     0
  9
$USERI5
 70
     0
  9
$USERR1
 40
0.0
  9
$USERR2
 40
0.0
  9
$USERR3
 40
0.0
  9
$USERR4
 40
0.0
  9
$USERR5
 40
0.0
  9
$WORLDVIEW
 70
     1
  9
$SHADEDGE
 70
     3
  9
$SHADEDIF
 70
    70
  9
$TILEMODE
 70
     1
  9
$MAXACTVP
 70
    16
  9
$PINSBASE
 10
0.0
 20
0.0
 30
0.0
  9
$PLIMCHECK
 70
     0
  9
$PEXTMIN
 10
0.0
 20
0.0
 30
0.0
  9
$PEXTMAX
 10
420.0
 20
297.0
 30
0.0
  9
$PLIMMIN
 10
0.0
 20
0.0
  9
$PLIMMAX
 10
420.0
 20
297.0
  9
$UNITMODE
 70
     0
  9
$VISRETAIN
 70
     0
  9
$PLINEGEN
 70
     0
  9
$PSLTSCALE
 70
     1
  9
$TREEDEPTH
 70
  3020
  9
$PICKSTYLE
 70
     1
  9
$CMLSTYLE
  2
STANDARD
  9
$CMLJUST
 70
     0
  9
$CMLSCALE
 40
1.0
  9
$PROXYGRAPHICS
 70
     1
  9
$MEASUREMENT
 70
     1
  0
ENDSEC
  0
SECTION
  2
CLASSES
  0
CLASS
  1
ACDBDICTIONARYWDFLT
  2
AcDbDictionaryWithDefault
  3
AutoCAD 2000
 90
        0
280
     0
281
     0
  0
CLASS
  1
ACDBPLACEHOLDER
  2
AcDbPlaceHolder
  3
AutoCAD 2000
 90
        0
280
     0
281
     0
  0
CLASS
  1
LAYOUT
  2
AcDbLayout
  3
AutoCAD 2000
 90
        0
280
     0
281
     0
  0
CLASS
  1
LONG_TRANSACTION
  2
AcDbLongTransaction
  3
AutoCAD 2000
 90
        0
280
     0
281
     0
  0
CLASS
  1
LWPOLYLINE
  2
AcDbPolyline
  3
AutoCAD 2000
 90
        0
280
     0
281
     1
  0
CLASS
  1
HATCH
  2
AcDbHatch
  3
AutoCAD 2000
 90
        0
280
     0
281
     1
  0
CLASS
  1
XRECORD
  2
AcDbXrecord
  3
AutoCAD 2000
 90
        0
280
     0
281
     0
  0
CLASS
  1
LONG_TRANSACTION
  2
AcDbLongTransaction
  3
AutoCAD 2000
 90
        0
280
     0
281
     0
  0
CLASS
  1
LWPOLYLINE
  2
AcDbPolyline
  3
AutoCAD 2000
 90
        0
280
     0
281
     1
  0
CLASS
  1
HATCH
  2
AcDbHatch
  3
AutoCAD 2000
 90
        0
280
     0
281
     1
  0
CLASS
  1
XRECORD
  2
AcDbXrecord
  3
AutoCAD 2000
 90
        0
280
     0
281
     0
  0
CLASS
  1
LONG_TRANSACTION
  2
AcDbLongTransaction
  3
AutoCAD 2000
 90
        0
280
     0
281
     0
  0
CLASS
  1
LWPOLYLINE
  2
AcDbPolyline
  3
AutoCAD 2000
 90
        0
280
     0
281
     1
  0
CLASS
  1
HATCH
  2
AcDbHatch
  3
AutoCAD 2000
 90
        0
280
     0
281
     1
  0
CLASS
  1
XRECORD
  2
AcDbXrecord
  3
AutoCAD 2000
 90
        0
280
     0
281
     0
  0
ENDSEC
  0
SECTION
  2
TABLES
  0
TABLE
  2
VPORT
  5
8
330
0
100
AcDbSymbolTable
 70
     2
  0
VPORT
  5
B01
330
8
100
AcDbSymbolTableRecord
100
AcDbViewportTableRecord
  2
*ACTIVE
 70
     0
 10
0.0
 20
0.0
 11
1.0
 21
1.0
 12
447.6541413651664
 22
289.580298528196
 13
0.0
 23
0.0
 14
5.0
 24
5.0
 15
0.0
 25
0.0
 16
0.0
 26
0.0
 36
1.0
 17
0.0
 27
0.0
 37
0.0
 40
727.3820754535346
 41
1.795454545454545
 42
50.0
 43
0.0
 44
0.0
 50
0.0
 51
0.0
 71
     0
 72
   100
 73
     1
 74
     0
 75
     0
 76
     0
 77
     0
 78
     0
  0
ENDTAB
  0
TABLE
  2
LTYPE
  5
5
330
0
100
AcDbSymbolTable
 70
     3
  0
LTYPE
  5
14
330
5
100
AcDbSymbolTableRecord
100
AcDbLinetypeTableRecord
  2
BYBLOCK
 70
     0
  3

 72
    65
 73
     0
 40
0.0
  0
LTYPE
  5
15
330
5
100
AcDbSymbolTableRecord
100
AcDbLinetypeTableRecord
  2
BYLAYER
 70
     0
  3

 72
    65
 73
     0
 40
0.0
  0
LTYPE
  5
16
330
5
100
AcDbSymbolTableRecord
100
AcDbLinetypeTableRecord
  2
CONTINUOUS
 70
     0
  3
Solid line
 72
    65
 73
     0
 40
0.0
  0
LTYPE
  5
115
330
5
100
AcDbSymbolTableRecord
100
AcDbLinetypeTableRecord
  2
PHANTOM
 70
     0
  3
______  __  __  ______  __  __  ______  __  __ 
 72
    65
 73
     6
 40
2.5
 49
1.25
 74
     0
 49
-0.25
 74
     0
 49
0.25
 74
     0
 49
-0.25
 74
     0
 49
0.25
 74
     0
 49
-0.25
 74
     0
  0
LTYPE
  5
135
330
5
100
AcDbSymbolTableRecord
100
AcDbLinetypeTableRecord
  2
CENTER
 70
     0
  3
____ _ ____ _ ____ _ ____ _ ____ _ ____ _ ____ 
 72
    65
 73
     4
 40
2.0
 49
1.25
 74
     0
 49
-0.25
 74
     0
 49
0.25
 74
     0
 49
-0.25
 74
     0
  0
ENDTAB
  0
TABLE
  2
LAYER
  5
2
330
0
100
AcDbSymbolTable
 70
     9
  0
LAYER
  5
F
330
2
100
AcDbSymbolTableRecord
100
AcDbLayerTableRecord
  2
0
 70
     0
 62
     7
  6
CONTINUOUS
  0
LAYER
  5
62
330
2
100
AcDbSymbolTableRecord
100
AcDbLayerTableRecord
  2
VIEWPORT
 70
     0
 62
     7
  6
CONTINUOUS
  0
LAYER
  5
65
330
2
100
AcDbSymbolTableRecord
100
AcDbLayerTableRecord
  2
ZUWAKU
 70
     0
 62
     7
  6
CONTINUOUS
  0
LAYER
  5
143
330
2
100
AcDbSymbolTableRecord
100
AcDbLayerTableRecord
  2
SEIHIN
 70
     0
 62
     3
  6
CONTINUOUS
  0
LAYER
  5
144
330
2
100
AcDbSymbolTableRecord
100
AcDbLayerTableRecord
  2
SUNPOU
 70
     0
 62
     4
  6
CONTINUOUS
  0
LAYER
  5
145
330
2
100
AcDbSymbolTableRecord
100
AcDbLayerTableRecord
  2
CENTER_L
 70
     0
 62
     1
  6
CENTER
  0
LAYER
  5
146
330
2
100
AcDbSymbolTableRecord
100
AcDbLayerTableRecord
  2
NOKITOI
 70
     0
 62
     8
  6
PHANTOM
  0
LAYER
  5
532
330
2
100
AcDbSymbolTableRecord
100
AcDbLayerTableRecord
  2
DEFPOINTS
 70
     0
 62
     7
  6
CONTINUOUS
  0
LAYER
  5
98C
330
2
100
AcDbSymbolTableRecord
100
AcDbLayerTableRecord
  2
MOJI
 70
     0
 62
     2
  6
CONTINUOUS
  0
ENDTAB
  0
TABLE
  2
STYLE
  5
3
330
0
100
AcDbSymbolTable
 70
     2
  0
STYLE
  5
10
330
3
100
AcDbSymbolTableRecord
100
AcDbTextStyleTableRecord
  2
STANDARD
 70
     0
 40
0.0
 41
1.0
 50
0.0
 71
     0
 42
6.0
  3
TXT
  4
bigfont.shx
  0
STYLE
  5
98D
330
3
100
AcDbSymbolTableRecord
100
AcDbTextStyleTableRecord
  2
ｽﾀｲﾙ1
 70
     0
 40
0.0
 41
1.0
 50
0.0
 71
     0
 42
2.5
  3
MS PGothic.ttf
  4

1001
ACAD
1000
MS PGothic
1071
    32818
  0
ENDTAB
  0
TABLE
  2
VIEW
  5
6
330
0
100
AcDbSymbolTable
 70
     0
  0
ENDTAB
  0
TABLE
  2
UCS
  5
7
330
0
100
AcDbSymbolTable
 70
     0
  0
ENDTAB
  0
TABLE
  2
APPID
  5
9
330
0
100
AcDbSymbolTable
 70
     1
  0
APPID
  5
11
330
9
100
AcDbSymbolTableRecord
100
AcDbRegAppTableRecord
  2
ACAD
 70
     0
  0
ENDTAB
  0
TABLE
  2
DIMSTYLE
  5
A
330
0
100
AcDbSymbolTable
 70
     1
  0
DIMSTYLE
105
1D
102
{ACAD_REACTORS
330
537
330
555
330
59A
330
5C3
330
60B
330
618
330
625
330
63F
330
64E
330
65D
330
66A
330
677
330
7D4
330
89D
330
8BD
330
8DC
102
}
330
A
100
AcDbSymbolTableRecord
100
AcDbDimStyleTableRecord
  2
STANDARD
 70
     0
  3

  4

  5

  6

  7

 40
1.0
 41
0.18
 42
0.0625
 43
0.38
 44
0.18
 45
0.0
 46
0.0
 47
0.0
 48
0.0
140
0.18
141
0.09
142
0.0
143
25.4
144
1.0
145
0.0
146
1.0
147
0.09
 71
     0
 72
     0
 73
     1
 74
     1
 75
     0
 76
     0
 77
     0
 78
     0
170
     0
171
     2
172
     0
173
     0
174
     0
175
     0
176
     0
177
     0
178
     0
270
     2
271
     4
272
     4
273
     2
274
     2
340
10
275
     0
280
     0
281
     0
282
     0
283
     1
284
     0
285
     0
286
     0
287
     3
288
     0
  0
ENDTAB
  0
TABLE
  2
BLOCK_RECORD
  5
1
330
0
100
AcDbSymbolTable
 70
    17
  0
BLOCK_RECORD
  5
1A
102
{ACAD_XDICTIONARY
360
94A
102
}
330
1
100
AcDbSymbolTableRecord
100
AcDbBlockTableRecord
  2
*MODEL_SPACE
  0
BLOCK_RECORD
  5
17
102
{ACAD_XDICTIONARY
360
948
102
}
330
1
100
AcDbSymbolTableRecord
100
AcDbBlockTableRecord
  2
*PAPER_SPACE
  0
BLOCK_RECORD
  5
6D
330
1
100
AcDbSymbolTableRecord
100
AcDbBlockTableRecord
  2
_OPEN
  0
BLOCK_RECORD
  5
52A
330
1
100
AcDbSymbolTableRecord
100
AcDbBlockTableRecord
  2
*D1
  0
BLOCK_RECORD
  5
547
330
1
100
AcDbSymbolTableRecord
100
AcDbBlockTableRecord
  2
*D2
  0
BLOCK_RECORD
  5
58E
330
1
100
AcDbSymbolTableRecord
100
AcDbBlockTableRecord
  2
*D3
  0
BLOCK_RECORD
  5
5B7
330
1
100
AcDbSymbolTableRecord
100
AcDbBlockTableRecord
  2
*D4
  0
BLOCK_RECORD
  5
5FF
330
1
100
AcDbSymbolTableRecord
100
AcDbBlockTableRecord
  2
*D5
  0
BLOCK_RECORD
  5
60C
330
1
100
AcDbSymbolTableRecord
100
AcDbBlockTableRecord
  2
*D6
  0
BLOCK_RECORD
  5
619
330
1
100
AcDbSymbolTableRecord
100
AcDbBlockTableRecord
  2
*D7
  0
BLOCK_RECORD
  5
631
330
1
100
AcDbSymbolTableRecord
100
AcDbBlockTableRecord
  2
*D8
  0
BLOCK_RECORD
  5
640
330
1
100
AcDbSymbolTableRecord
100
AcDbBlockTableRecord
  2
*D9
  0
BLOCK_RECORD
  5
64F
330
1
100
AcDbSymbolTableRecord
100
AcDbBlockTableRecord
  2
*D10
  0
BLOCK_RECORD
  5
65E
330
1
100
AcDbSymbolTableRecord
100
AcDbBlockTableRecord
  2
*D11
  0
BLOCK_RECORD
  5
66B
330
1
100
AcDbSymbolTableRecord
100
AcDbBlockTableRecord
  2
*D12
  0
BLOCK_RECORD
  5
7C6
330
1
100
AcDbSymbolTableRecord
100
AcDbBlockTableRecord
  2
*D13
  0
BLOCK_RECORD
  5
88F
330
1
100
AcDbSymbolTableRecord
100
AcDbBlockTableRecord
  2
*D14
  0
BLOCK_RECORD
  5
8B1
330
1
100
AcDbSymbolTableRecord
100
AcDbBlockTableRecord
  2
*D15
  0
BLOCK_RECORD
  5
8CE
330
1
100
AcDbSymbolTableRecord
100
AcDbBlockTableRecord
  2
*D16
  0
ENDTAB
  0
ENDSEC
  0
SECTION
  2
BLOCKS
  0
BLOCK
  5
1B
330
1A
100
AcDbEntity
  8
0
100
AcDbBlockBegin
  2
*MODEL_SPACE
 70
     0
 10
0.0
 20
0.0
 30
0.0
  3
*MODEL_SPACE
  1

  0
ENDBLK
  5
1C
330
1A
100
AcDbEntity
  8
0
100
AcDbBlockEnd
  0
BLOCK
  5
18
330
17
100
AcDbEntity
 67
     1
  8
0
100
AcDbBlockBegin
  2
*PAPER_SPACE
 70
     0
 10
0.0
 20
0.0
 30
0.0
  3
*PAPER_SPACE
  1

  0
ENDBLK
  5
19
330
17
100
AcDbEntity
 67
     1
  8
0
100
AcDbBlockEnd
  0
BLOCK
  5
6E
330
6D
100
AcDbEntity
  8
0
100
AcDbBlockBegin
  2
_OPEN
 70
     0
 10
0.0
 20
0.0
 30
0.0
  3
_OPEN
  1

  0
LINE
  5
6F
330
6D
100
AcDbEntity
  8
0
  6
BYBLOCK
 62
     0
100
AcDbLine
 10
-1.0
 20
0.1666666666666666
 30
0.0
 11
0.0
 21
0.0
 31
0.0
  0
LINE
  5
70
330
6D
100
AcDbEntity
  8
0
  6
BYBLOCK
 62
     0
100
AcDbLine
 10
0.0
 20
0.0
 30
0.0
 11
-1.0
 21
-0.1666666666666666
 31
0.0
  0
LINE
  5
71
330
6D
100
AcDbEntity
  8
0
  6
BYBLOCK
 62
     0
100
AcDbLine
 10
0.0
 20
0.0
 30
0.0
 11
-1.0
 21
0.0
 31
0.0
  0
ENDBLK
  5
72
330
6D
100
AcDbEntity
  8
0
100
AcDbBlockEnd
  0
BLOCK
  5
52B
330
52A
100
AcDbEntity
  8
0
100
AcDbBlockBegin
  2
*D1
 70
     1
 10
0.0
 20
0.0
 30
0.0
  3
*D1
  1

  0
LINE
  5
52C
330
52A
100
AcDbEntity
  8
0
  6
BYBLOCK
 62
     4
100
AcDbLine
 10
393.1229334925053
 20
383.445949757644
 30
0.0
 11
431.4833554942929
 21
383.445949757644
 31
0.0
  0
LINE
  5
52D
330
52A
100
AcDbEntity
  8
0
  6
BYBLOCK
 62
     4
100
AcDbLine
 10
393.1229334925053
 20
336.445949757644
 30
0.0
 11
431.4833554942929
 21
336.445949757644
 31
0.0
  0
LINE
  5
52E
330
52A
100
AcDbEntity
  8
0
  6
BYBLOCK
 62
     4
100
AcDbLine
 10
428.4833554942929
 20
376.445949757644
 30
0.0
 11
428.4833554942929
 21
343.445949757644
 31
0.0
  0
INSERT
  5
52F
330
52A
100
AcDbEntity
  8
0
  6
BYBLOCK
 62
     4
100
AcDbBlockReference
  2
_OPEN
 10
428.4833554942929
 20
383.445949757644
 30
0.0
 41
7.0
 42
7.0
 43
7.0
 50
90.0
  0
INSERT
  5
530
330
52A
100
AcDbEntity
  8
0
  6
BYBLOCK
 62
     4
100
AcDbBlockReference
  2
_OPEN
 10
428.4833554942929
 20
336.445949757644
 30
0.0
 41
7.0
 42
7.0
 43
7.0
 50
270.0
  0
MTEXT
  5
531
330
52A
100
AcDbEntity
  8
0
  6
BYBLOCK
 62
     4
100
AcDbMText
 10
423.4833554942929
 20
359.945949757644
 30
0.0
 40
6.0
 41
0.0
 71
     5
 72
     5
  1
\A1;47
 11
0.0
 21
1.0
 31
0.0
1001
ACAD
1000
MTEXTBEGIN
1070
    73
1070
     1
1070
    44
1040
1.0
1070
    74
1070
     0
1000
MTEXTEND
1000
MTEXTBEGIN
1070
    73
1070
     1
1070
    44
1040
1.0
1070
    74
1070
     0
1000
MTEXTEND
1000
MTEXTBEGIN
1070
    73
1070
     1
1070
    44
1040
1.0
1070
    74
1070
     0
1000
MTEXTEND
  0
POINT
  5
533
330
52A
100
AcDbEntity
  8
DEFPOINTS
  6
BYBLOCK
 62
     0
100
AcDbPoint
 10
387.1229334925053
 20
383.445949757644
 30
0.0
  0
POINT
  5
534
330
52A
100
AcDbEntity
  8
DEFPOINTS
  6
BYBLOCK
 62
     0
100
AcDbPoint
 10
387.1229334925053
 20
336.445949757644
 30
0.0
  0
POINT
  5
535
330
52A
100
AcDbEntity
  8
DEFPOINTS
  6
BYBLOCK
 62
     0
100
AcDbPoint
 10
428.4833554942929
 20
336.445949757644
 30
0.0
  0
ENDBLK
  5
536
330
52A
100
AcDbEntity
  8
0
100
AcDbBlockEnd
  0
BLOCK
  5
570
330
547
100
AcDbEntity
  8
0
100
AcDbBlockBegin
  2
*D2
 70
     1
 10
0.0
 20
0.0
 30
0.0
  3
*D2
  1

  0
LINE
  5
571
330
547
100
AcDbEntity
  8
0
  6
BYBLOCK
 62
     4
100
AcDbLine
 10
386.1229334925053
 20
186.4083497576439
 30
0.0
 11
386.1229334925053
 21
161.3124521902282
 31
0.0
  0
LINE
  5
572
330
547
100
AcDbEntity
  8
0
  6
BYBLOCK
 62
     4
100
AcDbLine
 10
387.1229334925053
 20
186.4083497576439
 30
0.0
 11
387.1229334925053
 21
161.3124521902282
 31
0.0
  0
LINE
  5
573
330
547
100
AcDbEntity
  8
0
  6
BYBLOCK
 62
     4
100
AcDbLine
 10
379.1229334925053
 20
164.3124521902282
 30
0.0
 11
372.1229334925053
 21
164.3124521902282
 31
0.0
  0
LINE
  5
574
330
547
100
AcDbEntity
  8
0
  6
BYBLOCK
 62
     4
100
AcDbLine
 10
394.1229334925053
 20
164.3124521902282
 30
0.0
 11
420.1229334925053
 21
164.3124521902282
 31
0.0
  0
LINE
  5
575
330
547
100
AcDbEntity
  8
0
  6
BYBLOCK
 62
     4
100
AcDbLine
 10
386.1229334925053
 20
164.3124521902282
 30
0.0
 11
387.1229334925053
 21
164.3124521902282
 31
0.0
  0
INSERT
  5
576
330
547
100
AcDbEntity
  8
0
  6
BYBLOCK
 62
     4
100
AcDbBlockReference
  2
_OPEN
 10
386.1229334925053
 20
164.3124521902282
 30
0.0
 41
7.0
 42
7.0
 43
7.0
  0
INSERT
  5
577
330
547
100
AcDbEntity
  8
0
  6
BYBLOCK
 62
     4
100
AcDbBlockReference
  2
_OPEN
 10
387.1229334925053
 20
164.3124521902282
 30
0.0
 41
7.0
 42
7.0
 43
7.0
 50
180.0
  0
MTEXT
  5
578
330
547
100
AcDbEntity
  8
0
  6
BYBLOCK
 62
     4
100
AcDbMText
 10
410.6229334925053
 20
169.3124521902282
 30
0.0
 40
6.0
 41
0.0
 71
     5
 72
     5
  1
\A1;t1.0
1001
ACAD
1000
MTEXTBEGIN
1070
    73
1070
     1
1070
    44
1040
1.0
1070
    74
1070
     0
1000
MTEXTEND
1000
MTEXTBEGIN
1070
    73
1070
     1
1070
    44
1040
1.0
1070
    74
1070
     0
1000
MTEXTEND
1000
MTEXTBEGIN
1070
    73
1070
     1
1070
    44
1040
1.0
1070
    74
1070
     0
1000
MTEXTEND
  0
POINT
  5
579
330
547
100
AcDbEntity
  8
DEFPOINTS
  6
BYBLOCK
 62
     0
100
AcDbPoint
 10
386.1229334925053
 20
192.408349757644
 30
0.0
  0
POINT
  5
57A
330
547
100
AcDbEntity
  8
DEFPOINTS
  6
BYBLOCK
 62
     0
100
AcDbPoint
 10
387.1229334925053
 20
192.408349757644
 30
0.0
  0
POINT
  5
57B
330
547
100
AcDbEntity
  8
DEFPOINTS
  6
BYBLOCK
 62
     0
100
AcDbPoint
 10
387.1229334925053
 20
164.3124521902282
 30
0.0
  0
ENDBLK
  5
57C
330
547
100
AcDbEntity
  8
0
100
AcDbBlockEnd
  0
BLOCK
  5
5E7
330
58E
100
AcDbEntity
  8
0
100
AcDbBlockBegin
  2
*D3
 70
     1
 10
0.0
 20
0.0
 30
0.0
  3
*D3
  1

  0
LINE
  5
5E8
330
58E
100
AcDbEntity
  8
0
  6
BYBLOCK
 62
     4
100
AcDbLine
 10
277.1229334925056
 20
297.7258497029025
 30
0.0
 11
277.1229334925056
 21
364.4218291026618
 31
0.0
  0
LINE
  5
5E9
330
58E
100
AcDbEntity
  8
0
  6
BYBLOCK
 62
     4
100
AcDbLine
 10
387.1229334925053
 20
323.4808497029026
 30
0.0
 11
387.1229334925053
 21
364.4218291026618
 31
0.0
  0
LINE
  5
5EA
330
58E
100
AcDbEntity
  8
0
  6
BYBLOCK
 62
     4
100
AcDbLine
 10
284.1229334925055
 20
361.4218291026618
 30
0.0
 11
380.1229334925053
 21
361.4218291026618
 31
0.0
  0
INSERT
  5
5EB
330
58E
100
AcDbEntity
  8
0
  6
BYBLOCK
 62
     4
100
AcDbBlockReference
  2
_OPEN
 10
277.1229334925056
 20
361.4218291026618
 30
0.0
 41
7.0
 42
7.0
 43
7.0
 50
180.0
  0
INSERT
  5
5EC
330
58E
100
AcDbEntity
  8
0
  6
BYBLOCK
 62
     4
100
AcDbBlockReference
  2
_OPEN
 10
387.1229334925053
 20
361.4218291026618
 30
0.0
 41
7.0
 42
7.0
 43
7.0
  0
MTEXT
  5
5ED
330
58E
100
AcDbEntity
  8
0
  6
BYBLOCK
 62
     4
100
AcDbMText
 10
332.1229334925054
 20
366.4218291026618
 30
0.0
 40
6.0
 41
0.0
 71
     5
 72
     5
  1
\A1;110
1001
ACAD
1000
MTEXTBEGIN
1070
    73
1070
     1
1070
    44
1040
1.0
1070
    74
1070
     0
1000
MTEXTEND
1000
MTEXTBEGIN
1070
    73
1070
     1
1070
    44
1040
1.0
1070
    74
1070
     0
1000
MTEXTEND
1000
MTEXTBEGIN
1070
    73
1070
     1
1070
    44
1040
1.0
1070
    74
1070
     0
1000
MTEXTEND
  0
POINT
  5
5EE
330
58E
100
AcDbEntity
  8
DEFPOINTS
  6
BYBLOCK
 62
     0
100
AcDbPoint
 10
277.1229334925056
 20
291.7258497029025
 30
0.0
  0
POINT
  5
5EF
330
58E
100
AcDbEntity
  8
DEFPOINTS
  6
BYBLOCK
 62
     0
100
AcDbPoint
 10
387.1229334925053
 20
317.4808497029026
 30
0.0
  0
POINT
  5
5F0
330
58E
100
AcDbEntity
  8
DEFPOINTS
  6
BYBLOCK
 62
     0
100
AcDbPoint
 10
387.1229334925053
 20
361.4218291026618
 30
0.0
  0
ENDBLK
  5
5F1
330
58E
100
AcDbEntity
  8
0
100
AcDbBlockEnd
  0
BLOCK
  5
5C4
330
5B7
100
AcDbEntity
  8
0
100
AcDbBlockBegin
  2
*D4
 70
     1
 10
0.0
 20
0.0
 30
0.0
  3
*D4
  1

  0
LINE
  5
5C5
330
5B7
100
AcDbEntity
  8
0
  6
BYBLOCK
 62
     4
100
AcDbLine
 10
387.1229334925053
 20
323.4808497029026
 30
0.0
 11
387.1229334925053
 21
364.4218291026618
 31
0.0
  0
LINE
  5
5C6
330
5B7
100
AcDbEntity
  8
0
  6
BYBLOCK
 62
     4
100
AcDbLine
 10
422.1229334925054
 20
323.4808497029026
 30
0.0
 11
422.1229334925054
 21
364.4218291026618
 31
0.0
  0
LINE
  5
5C7
330
5B7
100
AcDbEntity
  8
0
  6
BYBLOCK
 62
     4
100
AcDbLine
 10
394.1229334925053
 20
361.4218291026618
 30
0.0
 11
415.1229334925053
 21
361.4218291026618
 31
0.0
  0
INSERT
  5
5C8
330
5B7
100
AcDbEntity
  8
0
  6
BYBLOCK
 62
     4
100
AcDbBlockReference
  2
_OPEN
 10
387.1229334925053
 20
361.4218291026618
 30
0.0
 41
7.0
 42
7.0
 43
7.0
 50
180.0
  0
INSERT
  5
5C9
330
5B7
100
AcDbEntity
  8
0
  6
BYBLOCK
 62
     4
100
AcDbBlockReference
  2
_OPEN
 10
422.1229334925054
 20
361.4218291026618
 30
0.0
 41
7.0
 42
7.0
 43
7.0
  0
MTEXT
  5
5CA
330
5B7
100
AcDbEntity
  8
0
  6
BYBLOCK
 62
     4
100
AcDbMText
 10
404.6229334925053
 20
366.4218291026618
 30
0.0
 40
6.0
 41
0.0
 71
     5
 72
     5
  1
\A1;35
1001
ACAD
1000
MTEXTBEGIN
1070
    73
1070
     1
1070
    44
1040
1.0
1070
    74
1070
     0
1000
MTEXTEND
1000
MTEXTBEGIN
1070
    73
1070
     1
1070
    44
1040
1.0
1070
    74
1070
     0
1000
MTEXTEND
1000
MTEXTBEGIN
1070
    73
1070
     1
1070
    44
1040
1.0
1070
    74
1070
     0
1000
MTEXTEND
  0
POINT
  5
5CB
330
5B7
100
AcDbEntity
  8
DEFPOINTS
  6
BYBLOCK
 62
     0
100
AcDbPoint
 10
387.1229334925053
 20
317.4808497029026
 30
0.0
  0
POINT
  5
5CC
330
5B7
100
AcDbEntity
  8
DEFPOINTS
  6
BYBLOCK
 62
     0
100
AcDbPoint
 10
422.1229334925054
 20
317.4808497029026
 30
0.0
  0
POINT
  5
5CD
330
5B7
100
AcDbEntity
  8
DEFPOINTS
  6
BYBLOCK
 62
     0
100
AcDbPoint
 10
422.1229334925054
 20
361.4218291026618
 30
0.0
  0
ENDBLK
  5
5CE
330
5B7
100
AcDbEntity
  8
0
100
AcDbBlockEnd
  0
BLOCK
  5
600
330
5FF
100
AcDbEntity
  8
0
100
AcDbBlockBegin
  2
*D5
 70
     1
 10
0.0
 20
0.0
 30
0.0
  3
*D5
  1

  0
LINE
  5
601
330
5FF
100
AcDbEntity
  8
0
  6
BYBLOCK
 62
     4
100
AcDbLine
 10
393.1229334925053
 20
307.9374497029026
 30
0.0
 11
409.5819102103128
 21
307.9374497029026
 31
0.0
  0
LINE
  5
602
330
5FF
100
AcDbEntity
  8
0
  6
BYBLOCK
 62
     4
100
AcDbLine
 10
393.1229334925053
 20
272.9374497029026
 30
0.0
 11
409.5819102103128
 21
272.9374497029026
 31
0.0
  0
LINE
  5
603
330
5FF
100
AcDbEntity
  8
0
  6
BYBLOCK
 62
     4
100
AcDbLine
 10
406.5819102103128
 20
300.9374497029026
 30
0.0
 11
406.5819102103128
 21
279.9374497029026
 31
0.0
  0
INSERT
  5
604
330
5FF
100
AcDbEntity
  8
0
  6
BYBLOCK
 62
     4
100
AcDbBlockReference
  2
_OPEN
 10
406.5819102103128
 20
307.9374497029026
 30
0.0
 41
7.0
 42
7.0
 43
7.0
 50
90.0
  0
INSERT
  5
605
330
5FF
100
AcDbEntity
  8
0
  6
BYBLOCK
 62
     4
100
AcDbBlockReference
  2
_OPEN
 10
406.5819102103128
 20
272.9374497029026
 30
0.0
 41
7.0
 42
7.0
 43
7.0
 50
270.0
  0
MTEXT
  5
606
330
5FF
100
AcDbEntity
  8
0
  6
BYBLOCK
 62
     4
100
AcDbMText
 10
401.5819102103128
 20
290.4374497029026
 30
0.0
 40
6.0
 41
0.0
 71
     5
 72
     5
  1
\A1;35
 11
0.0
 21
1.0
 31
0.0
1001
ACAD
1000
MTEXTBEGIN
1070
    73
1070
     1
1070
    44
1040
1.0
1070
    74
1070
     0
1000
MTEXTEND
1000
MTEXTBEGIN
1070
    73
1070
     1
1070
    44
1040
1.0
1070
    74
1070
     0
1000
MTEXTEND
1000
MTEXTBEGIN
1070
    73
1070
     1
1070
    44
1040
1.0
1070
    74
1070
     0
1000
MTEXTEND
  0
POINT
  5
607
330
5FF
100
AcDbEntity
  8
DEFPOINTS
  6
BYBLOCK
 62
     0
100
AcDbPoint
 10
387.1229334925053
 20
307.9374497029026
 30
0.0
  0
POINT
  5
608
330
5FF
100
AcDbEntity
  8
DEFPOINTS
  6
BYBLOCK
 62
     0
100
AcDbPoint
 10
387.1229334925053
 20
272.9374497029026
 30
0.0
  0
POINT
  5
609
330
5FF
100
AcDbEntity
  8
DEFPOINTS
  6
BYBLOCK
 62
     0
100
AcDbPoint
 10
406.5819102103128
 20
272.9374497029026
 30
0.0
  0
ENDBLK
  5
60A
330
5FF
100
AcDbEntity
  8
0
100
AcDbBlockEnd
  0
BLOCK
  5
60D
330
60C
100
AcDbEntity
  8
0
100
AcDbBlockBegin
  2
*D6
 70
     1
 10
0.0
 20
0.0
 30
0.0
  3
*D6
  1

  0
LINE
  5
60E
330
60C
100
AcDbEntity
  8
0
  6
BYBLOCK
 62
     4
100
AcDbLine
 10
388.1229237180244
 20
322.4808684341982
 30
0.0
 11
444.5251801747676
 21
322.4808684341982
 31
0.0
  0
LINE
  5
60F
330
60C
100
AcDbEntity
  8
0
  6
BYBLOCK
 62
     4
100
AcDbLine
 10
393.1229334925053
 20
272.9374497029026
 30
0.0
 11
444.5251801747676
 21
272.9374497029026
 31
0.0
  0
LINE
  5
610
330
60C
100
AcDbEntity
  8
0
  6
BYBLOCK
 62
     4
100
AcDbLine
 10
441.5251801747676
 20
315.4808684341982
 30
0.0
 11
441.5251801747676
 21
279.9374497029026
 31
0.0
  0
INSERT
  5
611
330
60C
100
AcDbEntity
  8
0
  6
BYBLOCK
 62
     4
100
AcDbBlockReference
  2
_OPEN
 10
441.5251801747676
 20
322.4808684341982
 30
0.0
 41
7.0
 42
7.0
 43
7.0
 50
90.0
  0
INSERT
  5
612
330
60C
100
AcDbEntity
  8
0
  6
BYBLOCK
 62
     4
100
AcDbBlockReference
  2
_OPEN
 10
441.5251801747676
 20
272.9374497029026
 30
0.0
 41
7.0
 42
7.0
 43
7.0
 50
270.0
  0
MTEXT
  5
613
330
60C
100
AcDbEntity
  8
0
  6
BYBLOCK
 62
     4
100
AcDbMText
 10
436.5251801747676
 20
297.7091590685504
 30
0.0
 40
6.0
 41
0.0
 71
     5
 72
     5
  1
\A1;50
 11
0.0
 21
1.0
 31
0.0
1001
ACAD
1000
MTEXTBEGIN
1070
    73
1070
     1
1070
    44
1040
1.0
1070
    74
1070
     0
1000
MTEXTEND
1000
MTEXTBEGIN
1070
    73
1070
     1
1070
    44
1040
1.0
1070
    74
1070
     0
1000
MTEXTEND
1000
MTEXTBEGIN
1070
    73
1070
     1
1070
    44
1040
1.0
1070
    74
1070
     0
1000
MTEXTEND
  0
POINT
  5
614
330
60C
100
AcDbEntity
  8
DEFPOINTS
  6
BYBLOCK
 62
     0
100
AcDbPoint
 10
382.1229237180244
 20
322.4808684341982
 30
0.0
  0
POINT
  5
615
330
60C
100
AcDbEntity
  8
DEFPOINTS
  6
BYBLOCK
 62
     0
100
AcDbPoint
 10
387.1229334925053
 20
272.9374497029026
 30
0.0
  0
POINT
  5
616
330
60C
100
AcDbEntity
  8
DEFPOINTS
  6
BYBLOCK
 62
     0
100
AcDbPoint
 10
441.5251801747676
 20
272.9374497029026
 30
0.0
  0
ENDBLK
  5
617
330
60C
100
AcDbEntity
  8
0
100
AcDbBlockEnd
  0
BLOCK
  5
85D
330
619
100
AcDbEntity
  8
0
100
AcDbBlockBegin
  2
*D7
 70
     1
 10
0.0
 20
0.0
 30
0.0
  3
*D7
  1

  0
LINE
  5
85E
330
619
100
AcDbEntity
  8
0
  6
BYBLOCK
 62
     4
100
AcDbLine
 10
570.2750913644922
 20
307.9374497029026
 30
0.0
 11
489.5133020213839
 21
307.9374497029026
 31
0.0
  0
LINE
  5
85F
330
619
100
AcDbEntity
  8
0
  6
BYBLOCK
 62
     4
100
AcDbLine
 10
570.2750913644922
 20
272.9374497029026
 30
0.0
 11
489.5133020213839
 21
272.9374497029026
 31
0.0
  0
LINE
  5
860
330
619
100
AcDbEntity
  8
0
  6
BYBLOCK
 62
     4
100
AcDbLine
 10
492.5133020213839
 20
300.9374497029026
 30
0.0
 11
492.5133020213839
 21
279.9374497029026
 31
0.0
  0
INSERT
  5
861
330
619
100
AcDbEntity
  8
0
  6
BYBLOCK
 62
     4
100
AcDbBlockReference
  2
_OPEN
 10
492.5133020213839
 20
307.9374497029026
 30
0.0
 41
7.0
 42
7.0
 43
7.0
 50
90.0
  0
INSERT
  5
862
330
619
100
AcDbEntity
  8
0
  6
BYBLOCK
 62
     4
100
AcDbBlockReference
  2
_OPEN
 10
492.5133020213839
 20
272.9374497029026
 30
0.0
 41
7.0
 42
7.0
 43
7.0
 50
270.0
  0
MTEXT
  5
863
330
619
100
AcDbEntity
  8
0
  6
BYBLOCK
 62
     4
100
AcDbMText
 10
487.5133020213838
 20
290.4374497029026
 30
0.0
 40
6.0
 41
0.0
 71
     5
 72
     5
  1
\A1;35
 11
0.0
 21
1.0
 31
0.0
1001
ACAD
1000
MTEXTBEGIN
1070
    73
1070
     1
1070
    44
1040
1.0
1070
    74
1070
     0
1000
MTEXTEND
1000
MTEXTBEGIN
1070
    73
1070
     1
1070
    44
1040
1.0
1070
    74
1070
     0
1000
MTEXTEND
1000
MTEXTBEGIN
1070
    73
1070
     1
1070
    44
1040
1.0
1070
    74
1070
     0
1000
MTEXTEND
  0
POINT
  5
864
330
619
100
AcDbEntity
  8
DEFPOINTS
  6
BYBLOCK
 62
     0
100
AcDbPoint
 10
576.2750913644922
 20
307.9374497029026
 30
0.0
  0
POINT
  5
865
330
619
100
AcDbEntity
  8
DEFPOINTS
  6
BYBLOCK
 62
     0
100
AcDbPoint
 10
576.2750913644922
 20
272.9374497029026
 30
0.0
  0
POINT
  5
866
330
619
100
AcDbEntity
  8
DEFPOINTS
  6
BYBLOCK
 62
     0
100
AcDbPoint
 10
492.5133020213839
 20
272.9374497029026
 30
0.0
  0
ENDBLK
  5
867
330
619
100
AcDbEntity
  8
0
100
AcDbBlockEnd
  0
BLOCK
  5
868
330
631
100
AcDbEntity
  8
0
100
AcDbBlockBegin
  2
*D8
 70
     1
 10
0.0
 20
0.0
 30
0.0
  3
*D8
  1

  0
LINE
  5
869
330
631
100
AcDbEntity
  8
0
  6
BYBLOCK
 62
     4
100
AcDbLine
 10
572.147391364492
 20
300.9374497029026
 30
0.0
 11
519.8893404157019
 21
300.9374497029026
 31
0.0
  0
LINE
  5
86A
330
631
100
AcDbEntity
  8
0
  6
BYBLOCK
 62
     4
100
AcDbLine
 10
570.2750913644922
 20
307.9374497029026
 30
0.0
 11
519.8893404157019
 21
307.9374497029026
 31
0.0
  0
LINE
  5
86B
330
631
100
AcDbEntity
  8
0
  6
BYBLOCK
 62
     4
100
AcDbLine
 10
522.889340415702
 20
293.9374497029026
 30
0.0
 11
522.889340415702
 21
286.9374497029026
 31
0.0
  0
LINE
  5
86C
330
631
100
AcDbEntity
  8
0
  6
BYBLOCK
 62
     4
100
AcDbLine
 10
522.889340415702
 20
314.9374497029026
 30
0.0
 11
522.889340415702
 21
329.9374497029026
 31
0.0
  0
LINE
  5
86D
330
631
100
AcDbEntity
  8
0
  6
BYBLOCK
 62
     4
100
AcDbLine
 10
522.889340415702
 20
300.9374497029026
 30
0.0
 11
522.889340415702
 21
307.9374497029026
 31
0.0
  0
INSERT
  5
86E
330
631
100
AcDbEntity
  8
0
  6
BYBLOCK
 62
     4
100
AcDbBlockReference
  2
_OPEN
 10
522.889340415702
 20
300.9374497029026
 30
0.0
 41
7.0
 42
7.0
 43
7.0
 50
90.0
  0
INSERT
  5
86F
330
631
100
AcDbEntity
  8
0
  6
BYBLOCK
 62
     4
100
AcDbBlockReference
  2
_OPEN
 10
522.889340415702
 20
307.9374497029026
 30
0.0
 41
7.0
 42
7.0
 43
7.0
 50
270.0
  0
MTEXT
  5
870
330
631
100
AcDbEntity
  8
0
  6
BYBLOCK
 62
     4
100
AcDbMText
 10
517.889340415702
 20
325.9374497029026
 30
0.0
 40
6.0
 41
0.0
 71
     5
 72
     5
  1
\A1;7
 11
0.0
 21
1.0
 31
0.0
1001
ACAD
1000
MTEXTBEGIN
1070
    73
1070
     1
1070
    44
1040
1.0
1070
    74
1070
     0
1000
MTEXTEND
1000
MTEXTBEGIN
1070
    73
1070
     1
1070
    44
1040
1.0
1070
    74
1070
     0
1000
MTEXTEND
1000
MTEXTBEGIN
1070
    73
1070
     1
1070
    44
1040
1.0
1070
    74
1070
     0
1000
MTEXTEND
  0
POINT
  5
871
330
631
100
AcDbEntity
  8
DEFPOINTS
  6
BYBLOCK
 62
     0
100
AcDbPoint
 10
578.147391364492
 20
300.9374497029026
 30
0.0
  0
POINT
  5
872
330
631
100
AcDbEntity
  8
DEFPOINTS
  6
BYBLOCK
 62
     0
100
AcDbPoint
 10
576.2750913644922
 20
307.9374497029026
 30
0.0
  0
POINT
  5
873
330
631
100
AcDbEntity
  8
DEFPOINTS
  6
BYBLOCK
 62
     0
100
AcDbPoint
 10
522.889340415702
 20
307.9374497029026
 30
0.0
  0
ENDBLK
  5
874
330
631
100
AcDbEntity
  8
0
100
AcDbBlockEnd
  0
BLOCK
  5
875
330
640
100
AcDbEntity
  8
0
100
AcDbBlockBegin
  2
*D9
 70
     1
 10
0.0
 20
0.0
 30
0.0
  3
*D9
  1

  0
LINE
  5
876
330
640
100
AcDbEntity
  8
0
  6
BYBLOCK
 62
     4
100
AcDbLine
 10
570.2750913644922
 20
307.9374497029026
 30
0.0
 11
504.3629317853929
 21
307.9374497029026
 31
0.0
  0
LINE
  5
877
330
640
100
AcDbEntity
  8
0
  6
BYBLOCK
 62
     4
100
AcDbLine
 10
570.987091364492
 20
294.9374497029025
 30
0.0
 11
504.3629317853929
 21
294.9374497029025
 31
0.0
  0
LINE
  5
878
330
640
100
AcDbEntity
  8
0
  6
BYBLOCK
 62
     4
100
AcDbLine
 10
507.3629317853929
 20
314.9374497029026
 30
0.0
 11
507.3629317853929
 21
321.9374497029026
 31
0.0
  0
LINE
  5
879
330
640
100
AcDbEntity
  8
0
  6
BYBLOCK
 62
     4
100
AcDbLine
 10
507.3629317853929
 20
287.9374497029025
 30
0.0
 11
507.3629317853929
 21
280.9374497029025
 31
0.0
  0
LINE
  5
87A
330
640
100
AcDbEntity
  8
0
  6
BYBLOCK
 62
     4
100
AcDbLine
 10
507.3629317853929
 20
307.9374497029026
 30
0.0
 11
507.3629317853929
 21
294.9374497029025
 31
0.0
  0
INSERT
  5
87B
330
640
100
AcDbEntity
  8
0
  6
BYBLOCK
 62
     4
100
AcDbBlockReference
  2
_OPEN
 10
507.3629317853929
 20
307.9374497029026
 30
0.0
 41
7.0
 42
7.0
 43
7.0
 50
270.0
  0
INSERT
  5
87C
330
640
100
AcDbEntity
  8
0
  6
BYBLOCK
 62
     4
100
AcDbBlockReference
  2
_OPEN
 10
507.3629317853929
 20
294.9374497029025
 30
0.0
 41
7.0
 42
7.0
 43
7.0
 50
90.0
  0
MTEXT
  5
87D
330
640
100
AcDbEntity
  8
0
  6
BYBLOCK
 62
     4
100
AcDbMText
 10
502.3629317853929
 20
301.4374497029026
 30
0.0
 40
6.0
 41
0.0
 71
     5
 72
     5
  1
\A1;13
 11
0.0
 21
1.0
 31
0.0
1001
ACAD
1000
MTEXTBEGIN
1070
    73
1070
     1
1070
    44
1040
1.0
1070
    74
1070
     0
1000
MTEXTEND
1000
MTEXTBEGIN
1070
    73
1070
     1
1070
    44
1040
1.0
1070
    74
1070
     0
1000
MTEXTEND
1000
MTEXTBEGIN
1070
    73
1070
     1
1070
    44
1040
1.0
1070
    74
1070
     0
1000
MTEXTEND
  0
POINT
  5
87E
330
640
100
AcDbEntity
  8
DEFPOINTS
  6
BYBLOCK
 62
     0
100
AcDbPoint
 10
576.2750913644922
 20
307.9374497029026
 30
0.0
  0
POINT
  5
87F
330
640
100
AcDbEntity
  8
DEFPOINTS
  6
BYBLOCK
 62
     0
100
AcDbPoint
 10
576.987091364492
 20
294.9374497029025
 30
0.0
  0
POINT
  5
880
330
640
100
AcDbEntity
  8
DEFPOINTS
  6
BYBLOCK
 62
     0
100
AcDbPoint
 10
507.3629317853929
 20
294.9374497029025
 30
0.0
  0
ENDBLK
  5
881
330
640
100
AcDbEntity
  8
0
100
AcDbBlockEnd
  0
BLOCK
  5
882
330
64F
100
AcDbEntity
  8
0
100
AcDbBlockBegin
  2
*D10
 70
     1
 10
0.0
 20
0.0
 30
0.0
  3
*D10
  1

  0
LINE
  5
883
330
64F
100
AcDbEntity
  8
0
  6
BYBLOCK
 62
     4
100
AcDbLine
 10
571.9256913644922
 20
279.9374497029026
 30
0.0
 11
519.8893404157019
 21
279.9374497029026
 31
0.0
  0
LINE
  5
884
330
64F
100
AcDbEntity
  8
0
  6
BYBLOCK
 62
     4
100
AcDbLine
 10
570.2750913644922
 20
272.9374497029026
 30
0.0
 11
519.8893404157019
 21
272.9374497029026
 31
0.0
  0
LINE
  5
885
330
64F
100
AcDbEntity
  8
0
  6
BYBLOCK
 62
     4
100
AcDbLine
 10
522.889340415702
 20
286.9374497029026
 30
0.0
 11
522.889340415702
 21
293.9374497029026
 31
0.0
  0
LINE
  5
886
330
64F
100
AcDbEntity
  8
0
  6
BYBLOCK
 62
     4
100
AcDbLine
 10
522.889340415702
 20
265.9374497029026
 30
0.0
 11
522.889340415702
 21
250.9374497029026
 31
0.0
  0
LINE
  5
887
330
64F
100
AcDbEntity
  8
0
  6
BYBLOCK
 62
     4
100
AcDbLine
 10
522.889340415702
 20
279.9374497029026
 30
0.0
 11
522.889340415702
 21
272.9374497029026
 31
0.0
  0
INSERT
  5
888
330
64F
100
AcDbEntity
  8
0
  6
BYBLOCK
 62
     4
100
AcDbBlockReference
  2
_OPEN
 10
522.889340415702
 20
279.9374497029026
 30
0.0
 41
7.0
 42
7.0
 43
7.0
 50
270.0
  0
INSERT
  5
889
330
64F
100
AcDbEntity
  8
0
  6
BYBLOCK
 62
     4
100
AcDbBlockReference
  2
_OPEN
 10
522.889340415702
 20
272.9374497029026
 30
0.0
 41
7.0
 42
7.0
 43
7.0
 50
90.0
  0
MTEXT
  5
88A
330
64F
100
AcDbEntity
  8
0
  6
BYBLOCK
 62
     4
100
AcDbMText
 10
517.889340415702
 20
254.9374497029026
 30
0.0
 40
6.0
 41
0.0
 71
     5
 72
     5
  1
\A1;7
 11
0.0
 21
1.0
 31
0.0
1001
ACAD
1000
MTEXTBEGIN
1070
    73
1070
     1
1070
    44
1040
1.0
1070
    74
1070
     0
1000
MTEXTEND
1000
MTEXTBEGIN
1070
    73
1070
     1
1070
    44
1040
1.0
1070
    74
1070
     0
1000
MTEXTEND
1000
MTEXTBEGIN
1070
    73
1070
     1
1070
    44
1040
1.0
1070
    74
1070
     0
1000
MTEXTEND
  0
POINT
  5
88B
330
64F
100
AcDbEntity
  8
DEFPOINTS
  6
BYBLOCK
 62
     0
100
AcDbPoint
 10
577.9256913644921
 20
279.9374497029026
 30
0.0
  0
POINT
  5
88C
330
64F
100
AcDbEntity
  8
DEFPOINTS
  6
BYBLOCK
 62
     0
100
AcDbPoint
 10
576.2750913644922
 20
272.9374497029026
 30
0.0
  0
POINT
  5
88D
330
64F
100
AcDbEntity
  8
DEFPOINTS
  6
BYBLOCK
 62
     0
100
AcDbPoint
 10
522.889340415702
 20
272.9374497029026
 30
0.0
  0
ENDBLK
  5
88E
330
64F
100
AcDbEntity
  8
0
100
AcDbBlockEnd
  0
BLOCK
  5
65F
330
65E
100
AcDbEntity
  8
0
100
AcDbBlockBegin
  2
*D11
 70
     1
 10
0.0
 20
0.0
 30
0.0
  3
*D11
  1

  0
LINE
  5
660
330
65E
100
AcDbEntity
  8
0
  6
BYBLOCK
 62
     4
100
AcDbLine
 10
523.1229334925053
 20
310.6230497029026
 30
0.0
 11
523.1229334925053
 21
348.3499873175378
 31
0.0
  0
LINE
  5
661
330
65E
100
AcDbEntity
  8
0
  6
BYBLOCK
 62
     4
100
AcDbLine
 10
559.1230334925056
 20
310.6230497029026
 30
0.0
 11
559.1230334925056
 21
348.3499873175378
 31
0.0
  0
LINE
  5
662
330
65E
100
AcDbEntity
  8
0
  6
BYBLOCK
 62
     4
100
AcDbLine
 10
530.1229334925053
 20
345.3499873175378
 30
0.0
 11
552.1230334925055
 21
345.3499873175378
 31
0.0
  0
INSERT
  5
663
330
65E
100
AcDbEntity
  8
0
  6
BYBLOCK
 62
     4
100
AcDbBlockReference
  2
_OPEN
 10
523.1229334925053
 20
345.3499873175378
 30
0.0
 41
7.0
 42
7.0
 43
7.0
 50
180.0
  0
INSERT
  5
664
330
65E
100
AcDbEntity
  8
0
  6
BYBLOCK
 62
     4
100
AcDbBlockReference
  2
_OPEN
 10
559.1230334925056
 20
345.3499873175378
 30
0.0
 41
7.0
 42
7.0
 43
7.0
  0
MTEXT
  5
665
330
65E
100
AcDbEntity
  8
0
  6
BYBLOCK
 62
     4
100
AcDbMText
 10
541.1229834925054
 20
350.3499873175378
 30
0.0
 40
6.0
 41
0.0
 71
     5
 72
     5
  1
\A1;36
1001
ACAD
1000
MTEXTBEGIN
1070
    73
1070
     1
1070
    44
1040
1.0
1070
    74
1070
     0
1000
MTEXTEND
1000
MTEXTBEGIN
1070
    73
1070
     1
1070
    44
1040
1.0
1070
    74
1070
     0
1000
MTEXTEND
1000
MTEXTBEGIN
1070
    73
1070
     1
1070
    44
1040
1.0
1070
    74
1070
     0
1000
MTEXTEND
  0
POINT
  5
666
330
65E
100
AcDbEntity
  8
DEFPOINTS
  6
BYBLOCK
 62
     0
100
AcDbPoint
 10
523.1229334925053
 20
304.6230497029026
 30
0.0
  0
POINT
  5
667
330
65E
100
AcDbEntity
  8
DEFPOINTS
  6
BYBLOCK
 62
     0
100
AcDbPoint
 10
559.1230334925056
 20
304.6230497029026
 30
0.0
  0
POINT
  5
668
330
65E
100
AcDbEntity
  8
DEFPOINTS
  6
BYBLOCK
 62
     0
100
AcDbPoint
 10
559.1230334925056
 20
345.3499873175378
 30
0.0
  0
ENDBLK
  5
669
330
65E
100
AcDbEntity
  8
0
100
AcDbBlockEnd
  0
BLOCK
  5
66C
330
66B
100
AcDbEntity
  8
0
100
AcDbBlockBegin
  2
*D12
 70
     1
 10
0.0
 20
0.0
 30
0.0
  3
*D12
  1

  0
LINE
  5
66D
330
66B
100
AcDbEntity
  8
0
  6
BYBLOCK
 62
     4
100
AcDbLine
 10
517.8729334925056
 20
313.9374497029026
 30
0.0
 11
517.8729334925056
 21
364.4218291026618
 31
0.0
  0
LINE
  5
66E
330
66B
100
AcDbEntity
  8
0
  6
BYBLOCK
 62
     4
100
AcDbLine
 10
564.3730334925055
 20
313.9374497029026
 30
0.0
 11
564.3730334925055
 21
364.4218291026618
 31
0.0
  0
LINE
  5
66F
330
66B
100
AcDbEntity
  8
0
  6
BYBLOCK
 62
     4
100
AcDbLine
 10
524.8729334925055
 20
361.4218291026618
 30
0.0
 11
557.3730334925055
 21
361.4218291026618
 31
0.0
  0
INSERT
  5
670
330
66B
100
AcDbEntity
  8
0
  6
BYBLOCK
 62
     4
100
AcDbBlockReference
  2
_OPEN
 10
517.8729334925056
 20
361.4218291026618
 30
0.0
 41
7.0
 42
7.0
 43
7.0
 50
180.0
  0
INSERT
  5
671
330
66B
100
AcDbEntity
  8
0
  6
BYBLOCK
 62
     4
100
AcDbBlockReference
  2
_OPEN
 10
564.3730334925055
 20
361.4218291026618
 30
0.0
 41
7.0
 42
7.0
 43
7.0
  0
MTEXT
  5
672
330
66B
100
AcDbEntity
  8
0
  6
BYBLOCK
 62
     4
100
AcDbMText
 10
541.1229834925055
 20
366.4218291026618
 30
0.0
 40
6.0
 41
0.0
 71
     5
 72
     5
  1
\A1;47
1001
ACAD
1000
MTEXTBEGIN
1070
    73
1070
     1
1070
    44
1040
1.0
1070
    74
1070
     0
1000
MTEXTEND
1000
MTEXTBEGIN
1070
    73
1070
     1
1070
    44
1040
1.0
1070
    74
1070
     0
1000
MTEXTEND
1000
MTEXTBEGIN
1070
    73
1070
     1
1070
    44
1040
1.0
1070
    74
1070
     0
1000
MTEXTEND
  0
POINT
  5
673
330
66B
100
AcDbEntity
  8
DEFPOINTS
  6
BYBLOCK
 62
     0
100
AcDbPoint
 10
517.8729334925056
 20
307.9374497029026
 30
0.0
  0
POINT
  5
674
330
66B
100
AcDbEntity
  8
DEFPOINTS
  6
BYBLOCK
 62
     0
100
AcDbPoint
 10
564.3730334925055
 20
307.9374497029026
 30
0.0
  0
POINT
  5
675
330
66B
100
AcDbEntity
  8
DEFPOINTS
  6
BYBLOCK
 62
     0
100
AcDbPoint
 10
564.3730334925055
 20
361.4218291026618
 30
0.0
  0
ENDBLK
  5
676
330
66B
100
AcDbEntity
  8
0
100
AcDbBlockEnd
  0
BLOCK
  5
8F8
330
7C6
100
AcDbEntity
  8
0
100
AcDbBlockBegin
  2
*D13
 70
     1
 10
0.0
 20
0.0
 30
0.0
  3
*D13
  1

  0
LINE
  5
919
330
7C6
100
AcDbEntity
  8
SUNPOU
 62
     4
100
AcDbLine
 10
252.2986334925054
 20
446.7750497029026
 30
0.0
 11
228.516102562854
 21
446.7750497029026
 31
0.0
  0
LINE
  5
91A
330
7C6
100
AcDbEntity
  8
SUNPOU
 62
     4
100
AcDbLine
 10
252.2986334925054
 20
434.1750497029024
 30
0.0
 11
228.516102562854
 21
434.1750497029024
 31
0.0
  0
LINE
  5
91B
330
7C6
100
AcDbEntity
  8
SUNPOU
 62
     4
100
AcDbLine
 10
231.516102562854
 20
453.7750497029025
 30
0.0
 11
231.516102562854
 21
460.7750497029026
 31
0.0
  0
LINE
  5
91C
330
7C6
100
AcDbEntity
  8
SUNPOU
 62
     4
100
AcDbLine
 10
231.516102562854
 20
427.1750497029024
 30
0.0
 11
231.516102562854
 21
420.1750497029024
 31
0.0
  0
LINE
  5
91D
330
7C6
100
AcDbEntity
  8
SUNPOU
 62
     4
100
AcDbLine
 10
231.516102562854
 20
446.7750497029026
 30
0.0
 11
231.516102562854
 21
434.1750497029024
 31
0.0
  0
INSERT
  5
91E
330
7C6
100
AcDbEntity
  8
SUNPOU
 62
     4
100
AcDbBlockReference
  2
_OPEN
 10
231.516102562854
 20
446.7750497029026
 30
0.0
 41
7.0
 42
7.0
 43
7.0
 50
270.0
  0
INSERT
  5
91F
330
7C6
100
AcDbEntity
  8
SUNPOU
 62
     4
100
AcDbBlockReference
  2
_OPEN
 10
231.516102562854
 20
434.1750497029024
 30
0.0
 41
7.0
 42
7.0
 43
7.0
 50
90.0
  0
MTEXT
  5
920
330
7C6
100
AcDbEntity
  8
SUNPOU
 62
     4
100
AcDbMText
 10
226.5161025628539
 20
440.4750497029025
 30
0.0
 40
6.0
 41
0.0
 71
     5
 72
     5
  1
\A1;13
 11
0.0000000000000001
 21
1.0
 31
0.0
1001
ACAD
1000
MTEXTBEGIN
1070
    73
1070
     1
1070
    44
1040
1.0
1070
    74
1070
     0
1000
MTEXTEND
1000
MTEXTBEGIN
1070
    73
1070
     1
1070
    44
1040
1.0
1070
    74
1070
     0
1000
MTEXTEND
1000
MTEXTBEGIN
1070
    73
1070
     1
1070
    44
1040
1.0
1070
    74
1070
     0
1000
MTEXTEND
  0
POINT
  5
921
330
7C6
100
AcDbEntity
  8
DEFPOINTS
 62
     0
100
AcDbPoint
 10
258.2986334925054
 20
446.7750497029026
 30
0.0
  0
POINT
  5
922
330
7C6
100
AcDbEntity
  8
DEFPOINTS
 62
     0
100
AcDbPoint
 10
258.2986334925054
 20
434.1750497029024
 30
0.0
  0
POINT
  5
923
330
7C6
100
AcDbEntity
  8
DEFPOINTS
 62
     0
100
AcDbPoint
 10
231.516102562854
 20
434.1750497029024
 30
0.0
  0
ENDBLK
  5
904
330
7C6
100
AcDbEntity
  8
0
100
AcDbBlockEnd
  0
BLOCK
  5
8EB
330
88F
100
AcDbEntity
  8
0
100
AcDbBlockBegin
  2
*D14
 70
     1
 10
0.0
 20
0.0
 30
0.0
  3
*D14
  1

  0
LINE
  5
8EC
330
88F
100
AcDbEntity
  8
0
  6
BYBLOCK
 62
     4
100
AcDbLine
 10
251.9219334925054
 20
295.5258497029025
 30
0.0
 11
226.789402562854
 21
295.5258497029025
 31
0.0
  0
LINE
  5
8ED
330
88F
100
AcDbEntity
  8
0
  6
BYBLOCK
 62
     4
100
AcDbLine
 10
373.3962334925053
 20
272.9374497029026
 30
0.0
 11
226.789402562854
 21
272.9374497029026
 31
0.0
  0
LINE
  5
8EE
330
88F
100
AcDbEntity
  8
0
  6
BYBLOCK
 62
     4
100
AcDbLine
 10
229.789402562854
 20
302.5258497029025
 30
0.0
 11
229.789402562854
 21
309.5258497029025
 31
0.0
  0
LINE
  5
8EF
330
88F
100
AcDbEntity
  8
0
  6
BYBLOCK
 62
     4
100
AcDbLine
 10
229.789402562854
 20
265.9374497029026
 30
0.0
 11
229.789402562854
 21
258.9374497029026
 31
0.0
  0
LINE
  5
8F0
330
88F
100
AcDbEntity
  8
0
  6
BYBLOCK
 62
     4
100
AcDbLine
 10
229.789402562854
 20
295.5258497029025
 30
0.0
 11
229.789402562854
 21
272.9374497029026
 31
0.0
  0
INSERT
  5
8F1
330
88F
100
AcDbEntity
  8
0
  6
BYBLOCK
 62
     4
100
AcDbBlockReference
  2
_OPEN
 10
229.789402562854
 20
295.5258497029025
 30
0.0
 41
7.0
 42
7.0
 43
7.0
 50
270.0
  0
INSERT
  5
8F2
330
88F
100
AcDbEntity
  8
0
  6
BYBLOCK
 62
     4
100
AcDbBlockReference
  2
_OPEN
 10
229.789402562854
 20
272.9374497029026
 30
0.0
 41
7.0
 42
7.0
 43
7.0
 50
90.0
  0
MTEXT
  5
8F3
330
88F
100
AcDbEntity
  8
0
  6
BYBLOCK
 62
     4
100
AcDbMText
 10
224.789402562854
 20
284.2316497029025
 30
0.0
 40
6.0
 41
0.0
 71
     5
 72
     5
  1
\A1;23
 11
0.0
 21
1.0
 31
0.0
1001
ACAD
1000
MTEXTBEGIN
1070
    73
1070
     1
1070
    44
1040
1.0
1070
    74
1070
     0
1000
MTEXTEND
1000
MTEXTBEGIN
1070
    73
1070
     1
1070
    44
1040
1.0
1070
    74
1070
     0
1000
MTEXTEND
1000
MTEXTBEGIN
1070
    73
1070
     1
1070
    44
1040
1.0
1070
    74
1070
     0
1000
MTEXTEND
  0
POINT
  5
8F4
330
88F
100
AcDbEntity
  8
DEFPOINTS
  6
BYBLOCK
 62
     0
100
AcDbPoint
 10
257.9219334925054
 20
295.5258497029025
 30
0.0
  0
POINT
  5
8F5
330
88F
100
AcDbEntity
  8
DEFPOINTS
  6
BYBLOCK
 62
     0
100
AcDbPoint
 10
379.3962334925053
 20
272.9374497029026
 30
0.0
  0
POINT
  5
8F6
330
88F
100
AcDbEntity
  8
DEFPOINTS
  6
BYBLOCK
 62
     0
100
AcDbPoint
 10
229.789402562854
 20
272.9374497029026
 30
0.0
  0
ENDBLK
  5
8F7
330
88F
100
AcDbEntity
  8
0
100
AcDbBlockEnd
  0
BLOCK
  5
8B2
330
8B1
100
AcDbEntity
  8
0
100
AcDbBlockBegin
  2
*D15
 70
     1
 10
0.0
 20
0.0
 30
0.0
  3
*D15
  1

  0
LINE
  5
8B3
330
8B1
100
AcDbEntity
  8
0
  6
BYBLOCK
 62
     4
100
AcDbLine
 10
258.2986374783279
 20
296.8258474162324
 30
0.0
 11
258.2986374783279
 21
377.3504887477779
 31
0.0
  0
LINE
  5
8B4
330
8B1
100
AcDbEntity
  8
0
  6
BYBLOCK
 62
     4
100
AcDbLine
 10
385.3962334925053
 20
323.4808497029026
 30
0.0
 11
385.3962334925053
 21
377.3504887477779
 31
0.0
  0
LINE
  5
8B5
330
8B1
100
AcDbEntity
  8
0
  6
BYBLOCK
 62
     4
100
AcDbLine
 10
265.2986374783279
 20
374.3504887477779
 30
0.0
 11
378.3962334925053
 21
374.3504887477779
 31
0.0
  0
INSERT
  5
8B6
330
8B1
100
AcDbEntity
  8
0
  6
BYBLOCK
 62
     4
100
AcDbBlockReference
  2
_OPEN
 10
258.2986374783279
 20
374.3504887477779
 30
0.0
 41
7.0
 42
7.0
 43
7.0
 50
180.0
  0
INSERT
  5
8B7
330
8B1
100
AcDbEntity
  8
0
  6
BYBLOCK
 62
     4
100
AcDbBlockReference
  2
_OPEN
 10
385.3962334925053
 20
374.3504887477779
 30
0.0
 41
7.0
 42
7.0
 43
7.0
  0
MTEXT
  5
8B8
330
8B1
100
AcDbEntity
  8
0
  6
BYBLOCK
 62
     4
100
AcDbMText
 10
321.8474354854166
 20
379.3504887477779
 30
0.0
 40
6.0
 41
0.0
 71
     5
 72
     5
  1
\A1;127
1001
ACAD
1000
MTEXTBEGIN
1070
    73
1070
     1
1070
    44
1040
1.0
1070
    74
1070
     0
1000
MTEXTEND
1000
MTEXTBEGIN
1070
    73
1070
     1
1070
    44
1040
1.0
1070
    74
1070
     0
1000
MTEXTEND
1000
MTEXTBEGIN
1070
    73
1070
     1
1070
    44
1040
1.0
1070
    74
1070
     0
1000
MTEXTEND
  0
POINT
  5
8B9
330
8B1
100
AcDbEntity
  8
DEFPOINTS
  6
BYBLOCK
 62
     0
100
AcDbPoint
 10
258.2986374783279
 20
290.8258474162323
 30
0.0
  0
POINT
  5
8BA
330
8B1
100
AcDbEntity
  8
DEFPOINTS
  6
BYBLOCK
 62
     0
100
AcDbPoint
 10
385.3962334925053
 20
317.4808497029026
 30
0.0
  0
POINT
  5
8BB
330
8B1
100
AcDbEntity
  8
DEFPOINTS
  6
BYBLOCK
 62
     0
100
AcDbPoint
 10
385.3962334925053
 20
374.3504887477779
 30
0.0
  0
ENDBLK
  5
8BC
330
8B1
100
AcDbEntity
  8
0
100
AcDbBlockEnd
  0
BLOCK
  5
8CF
330
8CE
100
AcDbEntity
  8
0
100
AcDbBlockBegin
  2
*D16
 70
     1
 10
0.0
 20
0.0
 30
0.0
  3
*D16
  1

  0
LINE
  5
8D0
330
8CE
100
AcDbEntity
  8
0
  6
BYBLOCK
 62
     4
100
AcDbLine
 10
385.3962334925053
 20
323.4808497029026
 30
0.0
 11
385.3962334925053
 21
349.9404996528851
 31
0.0
  0
LINE
  5
8D1
330
8CE
100
AcDbEntity
  8
0
  6
BYBLOCK
 62
     4
100
AcDbLine
 10
375.3962708047532
 20
305.6501125150393
 30
0.0
 11
375.3962708047532
 21
349.9404996528851
 31
0.0
  0
LINE
  5
8D2
330
8CE
100
AcDbEntity
  8
0
  6
BYBLOCK
 62
     4
100
AcDbLine
 10
392.3962334925053
 20
346.9404996528851
 30
0.0
 11
399.3962334925053
 21
346.9404996528851
 31
0.0
  0
LINE
  5
8D3
330
8CE
100
AcDbEntity
  8
0
  6
BYBLOCK
 62
     4
100
AcDbLine
 10
368.3962708047532
 20
346.9404996528851
 30
0.0
 11
350.3962708047532
 21
346.9404996528851
 31
0.0
  0
LINE
  5
8D4
330
8CE
100
AcDbEntity
  8
0
  6
BYBLOCK
 62
     4
100
AcDbLine
 10
385.3962334925053
 20
346.9404996528851
 30
0.0
 11
375.3962708047532
 21
346.9404996528851
 31
0.0
  0
INSERT
  5
8D5
330
8CE
100
AcDbEntity
  8
0
  6
BYBLOCK
 62
     4
100
AcDbBlockReference
  2
_OPEN
 10
385.3962334925053
 20
346.9404996528851
 30
0.0
 41
7.0
 42
7.0
 43
7.0
 50
180.0
  0
INSERT
  5
8D6
330
8CE
100
AcDbEntity
  8
0
  6
BYBLOCK
 62
     4
100
AcDbBlockReference
  2
_OPEN
 10
375.3962708047532
 20
346.9404996528851
 30
0.0
 41
7.0
 42
7.0
 43
7.0
  0
MTEXT
  5
8D7
330
8CE
100
AcDbEntity
  8
0
  6
BYBLOCK
 62
     4
100
AcDbMText
 10
355.8962708047532
 20
351.9404996528851
 30
0.0
 40
6.0
 41
0.0
 71
     5
 72
     5
  1
\A1;10
1001
ACAD
1000
MTEXTBEGIN
1070
    73
1070
     1
1070
    44
1040
1.0
1070
    74
1070
     0
1000
MTEXTEND
1000
MTEXTBEGIN
1070
    73
1070
     1
1070
    44
1040
1.0
1070
    74
1070
     0
1000
MTEXTEND
1000
MTEXTBEGIN
1070
    73
1070
     1
1070
    44
1040
1.0
1070
    74
1070
     0
1000
MTEXTEND
  0
POINT
  5
8D8
330
8CE
100
AcDbEntity
  8
DEFPOINTS
  6
BYBLOCK
 62
     0
100
AcDbPoint
 10
385.3962334925053
 20
317.4808497029026
 30
0.0
  0
POINT
  5
8D9
330
8CE
100
AcDbEntity
  8
DEFPOINTS
  6
BYBLOCK
 62
     0
100
AcDbPoint
 10
375.3962708047532
 20
299.6501125150393
 30
0.0
  0
POINT
  5
8DA
330
8CE
100
AcDbEntity
  8
DEFPOINTS
  6
BYBLOCK
 62
     0
100
AcDbPoint
 10
375.3962708047532
 20
346.9404996528851
 30
0.0
  0
ENDBLK
  5
8DB
330
8CE
100
AcDbEntity
  8
0
100
AcDbBlockEnd
  0
ENDSEC
  0
SECTION
  2
ENTITIES
  0
LINE
  5
33A
330
1A
100
AcDbEntity
  8
SEIHIN
  6
PHANTOM
 62
     6
 48
5.0
100
AcDbLine
 10
420.3962334925053
 20
272.9374497029026
 30
0.0
 11
414.3962334925054
 21
272.9374497029026
 31
0.0
  0
LINE
  5
33B
330
1A
100
AcDbEntity
  8
SEIHIN
  6
PHANTOM
 62
     6
 48
5.0
100
AcDbLine
 10
420.3962334925053
 20
307.9374497029026
 30
0.0
 11
414.3962334925054
 21
307.9374497029026
 31
0.0
  0
ARC
  5
33C
330
1A
100
AcDbEntity
  8
SEIHIN
  6
PHANTOM
 62
     6
 48
5.0
100
AcDbCircle
 10
415.3962237180245
 20
317.4808586597093
 30
0.0
 40
5.000009774488908
100
AcDbArc
 50
359.9998973627561
 51
94.99897232982265
  0
LINE
  5
346
330
1A
100
AcDbEntity
  8
SEIHIN
  6
CONTINUOUS
 62
     3
100
AcDbLine
 10
282.3962334925056
 20
280.7256497029026
 30
0.0
 11
295.3961334925054
 21
280.7256497029026
 31
0.0
  0
LINE
  5
347
330
1A
100
AcDbEntity
  8
SEIHIN
  6
CONTINUOUS
 62
     3
100
AcDbLine
 10
295.3962334925055
 20
291.7258497029025
 30
0.0
 11
275.3962334925055
 21
291.7258497029025
 31
0.0
  0
ARC
  5
348
330
1A
100
AcDbEntity
  8
SEIHIN
  6
CONTINUOUS
 62
     3
100
AcDbCircle
 10
285.3964334925054
 20
288.3732497029026
 30
0.0
 40
9.747010259561649
100
AcDbArc
 50
235.6479976531776
 51
304.3520023468222
  0
LINE
  5
349
330
1A
100
AcDbEntity
  8
SEIHIN
  6
CONTINUOUS
 62
     3
100
AcDbLine
 10
279.8965334925055
 20
280.3262497029026
 30
0.0
 11
290.8964334925054
 21
280.3262497029026
 31
0.0
  0
LINE
  5
34A
330
1A
100
AcDbEntity
  8
SEIHIN
  6
CONTINUOUS
 62
     3
100
AcDbLine
 10
290.8964334925054
 20
293.2262497029025
 30
0.0
 11
285.3964334925055
 21
293.2262497029025
 31
0.0
  0
LINE
  5
34B
330
1A
100
AcDbEntity
  8
SEIHIN
  6
CONTINUOUS
 62
     3
100
AcDbLine
 10
289.8964334925054
 20
294.4262497029026
 30
0.0
 11
285.3964334925055
 21
294.4262497029026
 31
0.0
  0
LINE
  5
34C
330
1A
100
AcDbEntity
  8
SEIHIN
  6
CONTINUOUS
 62
     3
100
AcDbLine
 10
285.3964334925055
 20
297.4262497029026
 30
0.0
 11
288.6464334925054
 21
297.4262497029026
 31
0.0
  0
ARC
  5
351
330
1A
100
AcDbEntity
  8
NOKITOI
  6
PHANTOM
 62
     8
 48
3.5
100
AcDbCircle
 10
307.2743545782955
 20
289.7126269914094
 30
0.0
 40
43.00001447645168
100
AcDbArc
 50
186.524910707118
 51
269.999888375144
  0
ARC
  5
352
330
1A
100
AcDbEntity
  8
NOKITOI
  6
PHANTOM
 62
     8
 48
3.5
100
AcDbCircle
 10
307.2743768867208
 20
289.712606890383
 30
0.0
 40
41.79999437547816
100
AcDbArc
 50
184.474295212525
 51
269.9998545921086
  0
ARC
  5
357
330
1A
100
AcDbEntity
  8
NOKITOI
  6
PHANTOM
 62
     8
 48
3.5
100
AcDbCircle
 10
257.5242752995509
 20
299.7126171525662
 30
0.0
 40
0.7999953624857498
100
AcDbArc
 50
90.00032191805336
 51
181.7911273464199
  0
ARC
  5
358
330
1A
100
AcDbEntity
  8
NOKITOI
  6
PHANTOM
 62
     8
 48
3.5
100
AcDbCircle
 10
260.975991017422
 20
291.7126712434194
 30
0.0
 40
5.2000412730095
100
AcDbArc
 50
90.00132454306161
 51
142.0757990790561
  0
ARC
  5
359
330
1A
100
AcDbEntity
  8
NOKITOI
  6
PHANTOM
 62
     8
 48
3.5
100
AcDbCircle
 10
257.5242835556027
 20
299.7126256701258
 30
0.0
 40
1.999986844954076
100
AcDbArc
 50
90.00036528735526
 51
181.7883072882699
  0
ARC
  5
35A
330
1A
100
AcDbEntity
  8
NOKITOI
  6
PHANTOM
 62
     8
 48
3.5
100
AcDbCircle
 10
259.0623843768912
 20
288.912599359953
 30
0.0
 40
1.999986844959662
100
AcDbArc
 50
181.7875531852363
 51
269.9996111843223
  0
ARC
  5
35B
330
1A
100
AcDbEntity
  8
NOKITOI
  6
PHANTOM
 62
     8
 48
3.5
100
AcDbCircle
 10
257.4147067639037
 20
287.2125776608961
 30
0.0
 40
1.499965146287778
100
AcDbArc
 50
181.7866280217767
 51
269.9986264296976
  0
ARC
  5
35C
330
1A
100
AcDbEntity
  8
NOKITOI
  6
PHANTOM
 62
     8
 48
3.5
100
AcDbCircle
 10
260.9759086861995
 20
291.7126562975647
 30
0.0
 40
3.999989731271038
100
AcDbArc
 50
96.47731142013144
 51
181.7899836067308
  0
LINE
  5
360
330
1A
100
AcDbEntity
  8
NOKITOI
  6
PHANTOM
 62
     8
 48
3.5
100
AcDbLine
 10
256.7246708047532
 20
299.6876125150393
 30
0.0
 11
256.8740708047525
 21
294.9087125150395
 31
0.0
  0
LINE
  5
361
330
1A
100
AcDbEntity
  8
NOKITOI
  6
PHANTOM
 62
     8
 48
3.5
100
AcDbLine
 10
255.5252708047528
 20
299.6501125150393
 30
0.0
 11
255.9154708047526
 21
287.1658125150393
 31
0.0
  0
LINE
  5
362
330
1A
100
AcDbEntity
  8
NOKITOI
  6
PHANTOM
 62
     8
 48
3.5
100
AcDbLine
 10
257.0633708047525
 20
288.8502125150393
 30
0.0
 11
256.9778708047528
 21
291.5877125150393
 31
0.0
  0
LINE
  5
363
330
1A
100
AcDbEntity
  8
CENTER_L
  6
CENTER
 62
     1
 48
5.0
100
AcDbLine
 10
285.3963334925055
 20
301.3580497029025
 30
0.0
 11
285.3961334925055
 21
274.3237497029025
 31
0.0
  0
ARC
  5
364
330
1A
100
AcDbEntity
  8
SEIHIN
  6
CONTINUOUS
 62
     3
100
AcDbCircle
 10
261.7986334925054
 20
289.3258497029025
 30
0.0
 40
2.000000000000042
100
AcDbArc
 50
179.9999999999987
 51
269.9999999999987
  0
LINE
  5
365
330
1A
100
AcDbEntity
  8
SEIHIN
  6
CONTINUOUS
 62
     3
100
AcDbLine
 10
273.5636334925055
 20
282.9209497029025
 30
0.0
 11
268.3742334925054
 21
289.6671497029025
 31
0.0
  0
LINE
  5
366
330
1A
100
AcDbEntity
  8
SEIHIN
  6
CONTINUOUS
 62
     3
100
AcDbLine
 10
272.6124334925054
 20
282.1893497029025
 30
0.0
 11
267.4230334925054
 21
288.9355497029026
 31
0.0
  0
LINE
  5
367
330
1A
100
AcDbEntity
  8
SEIHIN
  6
CONTINUOUS
 62
     3
100
AcDbLine
 10
273.9599334925055
 20
281.5258497029025
 30
0.0
 11
273.9599334925055
 21
288.5258497029025
 31
0.0
  0
LINE
  5
368
330
1A
100
AcDbEntity
  8
SEIHIN
  6
CONTINUOUS
 62
     3
100
AcDbLine
 10
282.3962334925056
 20
280.7256497029026
 30
0.0
 11
275.3962334925055
 21
287.7256497029026
 31
0.0
  0
ARC
  5
369
330
1A
100
AcDbEntity
  8
SEIHIN
  6
CONTINUOUS
 62
     3
100
AcDbCircle
 10
265.6456075223124
 20
286.3258624905661
 30
0.0
 40
0.999987212673645
100
AcDbArc
 50
37.56745337481763
 51
89.99851199852182
  0
ARC
  5
36A
330
1A
100
AcDbEntity
  8
NOKITOI
  6
PHANTOM
 62
     8
 48
3.5
100
AcDbCircle
 10
265.1032833744611
 20
286.4126008903097
 30
0.0
 40
0.5000116248877111
100
AcDbArc
 50
4.474846808342897
 51
90.00144034898337
  0
ARC
  5
36B
330
1A
100
AcDbEntity
  8
SEIHIN
  6
CONTINUOUS
 62
     3
100
AcDbCircle
 10
273.9599070622207
 20
283.2258627175087
 30
0.0
 40
1.700013014811712
100
AcDbArc
 50
217.5684553619183
 51
270.000890783633
  0
ARC
  5
36C
330
1A
100
AcDbEntity
  8
SEIHIN
  6
CONTINUOUS
 62
     3
100
AcDbCircle
 10
273.95991551775
 20
283.2258585527459
 30
0.0
 40
0.5000088501664058
100
AcDbArc
 50
217.5755423139714
 51
270.0020597187954
  0
ARC
  5
36D
330
1A
100
AcDbEntity
  8
NOKITOI
  6
PHANTOM
 62
     8
 48
3.5
100
AcDbCircle
 10
263.5593623805903
 20
284.7126200300958
 30
0.0
 40
0.9999924849789756
100
AcDbArc
 50
6.528264606674428
 51
89.99951732740891
  0
LINE
  5
36E
330
1A
100
AcDbEntity
  8
NOKITOI
  6
PHANTOM
 62
     8
 48
3.5
100
AcDbLine
 10
257.4146708047528
 20
285.7126125150393
 30
0.0
 11
263.5593708047526
 21
285.7126125150393
 31
0.0
  0
LINE
  5
36F
330
1A
100
AcDbEntity
  8
NOKITOI
  6
PHANTOM
 62
     8
 48
3.5
100
AcDbLine
 10
265.1032708047532
 20
286.9126125150394
 30
0.0
 11
259.0623708047528
 21
286.9126125150394
 31
0.0
  0
LINE
  5
370
330
1A
100
AcDbEntity
  8
SEIHIN
  6
CONTINUOUS
 62
     3
100
AcDbLine
 10
266.4382334925054
 20
286.9355497029025
 30
0.0
 11
270.3180334925054
 21
281.8918497029026
 31
0.0
  0
ARC
  5
371
330
1A
100
AcDbEntity
  8
SEIHIN
  6
CONTINUOUS
 62
     3
100
AcDbCircle
 10
271.90326529986
 20
283.1112472762323
 30
0.0
 40
1.999972581034806
100
AcDbArc
 50
217.5683306846338
 51
313.7048469991666
  0
LINE
  5
372
330
1A
100
AcDbEntity
  8
SEIHIN
  6
CONTINUOUS
 62
     3
100
AcDbLine
 10
273.9599334925055
 20
281.5260497029025
 30
0.0
 11
281.595915049979
 21
281.5259681454292
 31
0.0
  0
LINE
  5
373
330
1A
100
AcDbEntity
  8
SEIHIN
  6
CONTINUOUS
 62
     3
100
AcDbLine
 10
281.9959114954867
 20
281.1259716999214
 30
0.0
 11
275.8728334925054
 21
281.1260497029025
 31
0.0
  0
LINE
  5
374
330
1A
100
AcDbEntity
  8
SEIHIN
  6
CONTINUOUS
 62
     3
100
AcDbLine
 10
275.8728334925054
 20
281.1258497029026
 30
0.0
 11
275.8728334925054
 21
281.5258497029025
 31
0.0
  0
LINE
  5
375
330
1A
100
AcDbEntity
  8
SEIHIN
  6
CONTINUOUS
 62
     3
100
AcDbLine
 10
279.8965334925055
 20
280.3262497029026
 30
0.0
 11
279.8965334925055
 21
281.1261497029025
 31
0.0
  0
ARC
  5
376
330
1A
100
AcDbEntity
  8
SEIHIN
  6
CONTINUOUS
 62
     3
100
AcDbCircle
 10
275.9599334925054
 20
288.5258497029025
 30
0.0
 40
1.999999999999957
100
AcDbArc
 50
106.3706495658613
 51
180.0000000000012
  0
LINE
  5
377
330
1A
100
AcDbEntity
  8
NOKITOI
  6
PHANTOM
 62
     8
 48
3.5
100
AcDbLine
 10
259.9970708047531
 20
300.5126125150395
 30
0.0
 11
259.497070804753
 21
298.0126125150395
 31
0.0
  0
LINE
  5
378
330
1A
100
AcDbEntity
  8
NOKITOI
  6
PHANTOM
 62
     8
 48
3.5
100
AcDbLine
 10
263.9857708047529
 20
292.6864125150393
 30
0.0
 11
264.3015708047528
 21
298.6863125150394
 31
0.0
  0
LINE
  5
379
330
1A
100
AcDbEntity
  8
SEIHIN
  6
CONTINUOUS
 62
     3
100
AcDbLine
 10
265.6456334925055
 20
287.3258497029025
 30
0.0
 11
261.7986334925054
 21
287.3258497029025
 31
0.0
  0
LINE
  5
37A
330
1A
100
AcDbEntity
  8
SEIHIN
  6
CONTINUOUS
 62
     3
100
AcDbLine
 10
259.7986334925054
 20
290.5258497029025
 30
0.0
 11
266.6304334925054
 21
290.5258497029025
 31
0.0
  0
LINE
  5
37B
330
1A
100
AcDbEntity
  8
SEIHIN
  6
CONTINUOUS
 62
     3
100
AcDbLine
 10
259.7986334925054
 20
289.3258497029025
 30
0.0
 11
266.6304334925054
 21
289.3258497029025
 31
0.0
  0
ARC
  5
37C
330
1A
100
AcDbEntity
  8
SEIHIN
  6
CONTINUOUS
 62
     3
100
AcDbCircle
 10
259.7986351916587
 20
290.8258474162323
 30
0.0
 40
1.499997713330774
100
AcDbArc
 50
163.2297132664215
 51
269.9999350970257
  0
ARC
  5
37D
330
1A
100
AcDbEntity
  8
SEIHIN
  6
CONTINUOUS
 62
     3
100
AcDbCircle
 10
259.7986189131319
 20
290.8258693182866
 30
0.0
 40
0.3000196157383683
100
AcDbArc
 50
163.2468387276208
 51
270.00278427319
  0
LINE
  5
37E
330
1A
100
AcDbEntity
  8
SEIHIN
  6
CONTINUOUS
 62
     3
100
AcDbLine
 10
259.6486334925054
 20
295.5258497029025
 30
0.0
 11
260.7975334925055
 21
295.1795497029026
 31
0.0
  0
LINE
  5
37F
330
1A
100
AcDbEntity
  8
SEIHIN
  6
CONTINUOUS
 62
     3
100
AcDbLine
 10
260.7975334925055
 20
295.1794497029026
 30
0.0
 11
259.5113334925055
 21
290.9123497029026
 31
0.0
  0
LINE
  5
380
330
1A
100
AcDbEntity
  8
SEIHIN
  6
CONTINUOUS
 62
     3
100
AcDbLine
 10
259.6486334925054
 20
295.5258497029025
 30
0.0
 11
258.3624334925054
 21
291.2586497029026
 31
0.0
  0
LINE
  5
381
330
1A
100
AcDbEntity
  8
NOKITOI
  6
PHANTOM
 62
     8
 48
3.5
100
AcDbLine
 10
262.8222708047528
 20
293.4126125150394
 30
0.0
 11
263.0034708047528
 21
296.8541125150395
 31
0.0
  0
LINE
  5
382
330
1A
100
AcDbEntity
  8
NOKITOI
  6
PHANTOM
 62
     8
 48
3.5
100
AcDbLine
 10
259.497070804753
 20
298.0126125150395
 30
0.0
 11
262.4335708047528
 21
298.0126125150395
 31
0.0
  0
LINE
  5
383
330
1A
100
AcDbEntity
  8
NOKITOI
  6
PHANTOM
 62
     8
 48
3.5
100
AcDbLine
 10
261.4377708047531
 20
296.9126125150394
 30
0.0
 11
260.9758708047529
 21
296.9126125150394
 31
0.0
  0
ARC
  5
384
330
1A
100
AcDbEntity
  8
NOKITOI
  6
PHANTOM
 62
     8
 48
3.5
100
AcDbCircle
 10
260.5810850231682
 20
295.1902978807384
 30
0.0
 40
0.5000073448410256
100
AcDbArc
 50
351.8729478641243
 51
96.47829282996843
  0
LINE
  5
385
330
1A
100
AcDbEntity
  8
NOKITOI
  6
PHANTOM
 62
     8
 48
3.5
100
AcDbLine
 10
262.0443708047532
 20
293.4126125150394
 30
0.0
 11
262.448470804753
 21
296.2410125150393
 31
0.0
  0
LINE
  5
386
330
1A
100
AcDbEntity
  8
NOKITOI
  6
PHANTOM
 62
     8
 48
3.5
100
AcDbLine
 10
261.4377708047531
 20
296.9126125150394
 30
0.0
 11
262.4335708047528
 21
298.0126125150395
 31
0.0
  0
LINE
  5
387
330
1A
100
AcDbEntity
  8
NOKITOI
  6
PHANTOM
 62
     8
 48
3.5
100
AcDbLine
 10
262.448470804753
 20
296.2410125150393
 30
0.0
 11
263.0034708047528
 21
296.8541125150395
 31
0.0
  0
LINE
  5
388
330
1A
100
AcDbEntity
  8
NOKITOI
  6
PHANTOM
 62
     8
 48
3.5
100
AcDbLine
 10
262.8222708047528
 20
293.4126125150394
 30
0.0
 11
262.0443708047532
 21
293.4126125150394
 31
0.0
  0
ARC
  5
389
330
1A
100
AcDbEntity
  8
NOKITOI
  6
PHANTOM
 62
     8
 48
3.5
100
AcDbCircle
 10
263.4863639177579
 20
292.7126059799538
 30
0.0
 40
0.499993464961963
100
AcDbArc
 50
270.0007892017873
 51
356.9970361317427
  0
ARC
  5
38A
330
1A
100
AcDbEntity
  8
NOKITOI
  6
PHANTOM
 62
     8
 48
3.5
100
AcDbCircle
 10
261.2372974053505
 20
292.7125818381573
 30
0.0
 40
0.4999693238254178
100
AcDbArc
 50
171.8555038770532
 51
269.9969516090348
  0
LINE
  5
38B
330
1A
100
AcDbEntity
  8
NOKITOI
  6
PHANTOM
 62
     8
 48
3.5
100
AcDbLine
 10
263.4863708047528
 20
292.2126125150393
 30
0.0
 11
261.2372708047528
 21
292.2126125150393
 31
0.0
  0
LINE
  5
38C
330
1A
100
AcDbEntity
  8
NOKITOI
  6
PHANTOM
 62
     8
 48
3.5
100
AcDbLine
 10
260.7423708047526
 20
292.7834125150395
 30
0.0
 11
261.0760708047528
 21
295.1196125150395
 31
0.0
  0
ARC
  5
38D
330
1A
100
AcDbEntity
  8
SEIHIN
  6
CONTINUOUS
 62
     3
100
AcDbCircle
 10
266.6302747410486
 20
288.3258792942097
 30
0.0
 40
2.199970414420663
100
AcDbArc
 50
68.87832412633525
 51
89.9958654950924
  0
ARC
  5
38E
330
1A
100
AcDbEntity
  8
SEIHIN
  6
CONTINUOUS
 62
     3
100
AcDbCircle
 10
266.6304957267354
 20
288.3258031874989
 30
0.0
 40
2.199961788340452
100
AcDbArc
 50
37.56879376349828
 51
68.88440707227046
  0
ARC
  5
38F
330
1A
100
AcDbEntity
  8
SEIHIN
  6
CONTINUOUS
 62
     3
100
AcDbCircle
 10
266.6304075223124
 20
288.3258624905661
 30
0.0
 40
0.9999872126737022
100
AcDbArc
 50
37.56745337481921
 51
89.99851199852345
  0
ARC
  5
393
330
1A
100
AcDbEntity
  8
NOKITOI
  6
PHANTOM
 62
     8
 48
3.5
100
AcDbCircle
 10
263.8021646035949
 20
298.7126190501246
 30
0.0
 40
0.4999934649531607
100
AcDbArc
 50
356.9955363203384
 51
89.99928939038005
  0
ARC
  5
394
330
1A
100
AcDbEntity
  8
NOKITOI
  6
PHANTOM
 62
     8
 48
3.5
100
AcDbCircle
 10
260.8508700217444
 20
301.2126134700411
 30
0.0
 40
0.4999990449987349
100
AcDbArc
 50
348.6967198015448
 51
89.99991027369452
  0
LINE
  5
395
330
1A
100
AcDbEntity
  8
NOKITOI
  6
PHANTOM
 62
     8
 48
3.5
100
AcDbLine
 10
257.5242708047526
 20
301.7126125150393
 30
0.0
 11
260.8508708047529
 21
301.7126125150393
 31
0.0
  0
ARC
  5
396
330
1A
100
AcDbEntity
  8
NOKITOI
  6
PHANTOM
 62
     8
 48
3.5
100
AcDbCircle
 10
261.5706635501974
 20
299.7126213648828
 30
0.0
 40
0.5000088498959383
100
AcDbArc
 50
168.6864043304884
 51
270.0008312961434
  0
LINE
  5
397
330
1A
100
AcDbEntity
  8
NOKITOI
  6
PHANTOM
 62
     8
 48
3.5
100
AcDbLine
 10
257.5242708047526
 20
300.5126125150395
 30
0.0
 11
259.9970708047531
 21
300.5126125150395
 31
0.0
  0
LINE
  5
398
330
1A
100
AcDbEntity
  8
NOKITOI
  6
PHANTOM
 62
     8
 48
3.5
100
AcDbLine
 10
261.0803708047528
 20
299.8107125150393
 30
0.0
 11
261.3411708047528
 21
301.1146125150394
 31
0.0
  0
LINE
  5
399
330
1A
100
AcDbEntity
  8
NOKITOI
  6
PHANTOM
 62
     8
 48
3.5
100
AcDbLine
 10
263.8021708047527
 20
299.2126125150393
 30
0.0
 11
261.5706708047528
 21
299.2126125150393
 31
0.0
  0
LINE
  5
39A
330
1A
100
AcDbEntity
  8
SEIHIN
  6
CONTINUOUS
 62
     3
100
AcDbLine
 10
276.1519334925054
 20
301.2856497029025
 30
0.0
 11
277.4693334925055
 21
298.4606497029025
 31
0.0
  0
ARC
  5
39B
330
1A
100
AcDbEntity
  8
SEIHIN
  6
CONTINUOUS
 62
     3
100
AcDbCircle
 10
286.5325786036557
 20
302.6865340661804
 30
0.0
 40
9.000040305147104
100
AcDbArc
 50
204.997913620229
 51
222.8754030020624
  0
LINE
  5
39C
330
1A
100
AcDbEntity
  8
SEIHIN
  6
CONTINUOUS
 62
     3
100
AcDbLine
 10
282.1464334925054
 20
297.4262497029026
 30
0.0
 11
280.7126334925054
 21
302.7773497029025
 31
0.0
  0
LINE
  5
39D
330
1A
100
AcDbEntity
  8
SEIHIN
  6
CONTINUOUS
 62
     3
100
AcDbLine
 10
282.8964334925055
 20
298.7262497029025
 30
0.0
 11
282.8964334925055
 21
297.4262497029026
 31
0.0
  0
LINE
  5
39E
330
1A
100
AcDbEntity
  8
SEIHIN
  6
CONTINUOUS
 62
     3
100
AcDbLine
 10
287.8964334925054
 20
298.7262497029025
 30
0.0
 11
287.8964334925054
 21
297.4262497029026
 31
0.0
  0
LINE
  5
39F
330
1A
100
AcDbEntity
  8
SEIHIN
  6
CONTINUOUS
 62
     3
100
AcDbLine
 10
279.7467334925054
 20
302.5185497029026
 30
0.0
 11
281.0483334925054
 21
297.6609497029025
 31
0.0
  0
ARC
  5
3A0
330
1A
100
AcDbEntity
  8
SEIHIN
  6
CONTINUOUS
 62
     3
100
AcDbCircle
 10
286.5324217633369
 20
302.6867635102462
 30
0.0
 40
10.00002260748757
100
AcDbArc
 50
205.0001367776394
 51
235.6950405441923
  0
LINE
  5
3A1
330
1A
100
AcDbEntity
  8
SEIHIN
  6
CONTINUOUS
 62
     3
100
AcDbLine
 10
279.8964334925054
 20
293.2262497029025
 30
0.0
 11
285.3964334925055
 21
293.2262497029025
 31
0.0
  0
ARC
  5
3A2
330
1A
100
AcDbEntity
  8
SEIHIN
  6
CONTINUOUS
 62
     3
100
AcDbCircle
 10
280.3034799370651
 20
296.903140132288
 30
0.0
 40
0.5000072937197249
100
AcDbArc
 50
222.888273729228
 51
337.3826262764481
  0
LINE
  5
3A4
330
1A
100
AcDbEntity
  8
SEIHIN
  6
CONTINUOUS
 62
     3
100
AcDbLine
 10
275.3962334925055
 20
287.7256497029026
 30
0.0
 11
275.3962334925055
 21
291.7256497029025
 31
0.0
  0
LINE
  5
3A5
330
1A
100
AcDbEntity
  8
SEIHIN
  6
CONTINUOUS
 62
     3
100
AcDbLine
 10
279.8964334925054
 20
293.2262497029025
 30
0.0
 11
279.8964334925054
 21
291.7262497029025
 31
0.0
  0
ARC
  5
3A6
330
1A
100
AcDbEntity
  8
SEIHIN
  6
CONTINUOUS
 62
     3
100
AcDbCircle
 10
280.5653408961211
 20
297.5316608338392
 30
0.0
 40
0.4999974598192515
100
AcDbArc
 50
337.3671721304062
 51
14.98576480168426
  0
LINE
  5
3A7
330
1A
100
AcDbEntity
  8
SEIHIN
  6
CONTINUOUS
 62
     3
100
AcDbLine
 10
285.3964334925055
 20
297.4262497029026
 30
0.0
 11
282.1464334925054
 21
297.4262497029026
 31
0.0
  0
LINE
  5
3A8
330
1A
100
AcDbEntity
  8
SEIHIN
  6
CONTINUOUS
 62
     3
100
AcDbLine
 10
280.8964334925055
 20
294.4262497029026
 30
0.0
 11
285.3964334925055
 21
294.4262497029026
 31
0.0
  0
LINE
  5
3A9
330
1A
100
AcDbEntity
  8
SEIHIN
  6
CONTINUOUS
 62
     3
100
AcDbLine
 10
281.0268334925054
 20
297.3392497029026
 30
0.0
 11
280.7650334925055
 21
296.7108497029025
 31
0.0
  0
LINE
  5
3AA
330
1A
100
AcDbEntity
  8
SEIHIN
  6
CONTINUOUS
 62
     3
100
AcDbLine
 10
280.8964334925055
 20
294.4262497029026
 30
0.0
 11
282.1464334925054
 21
297.4262497029026
 31
0.0
  0
LINE
  5
3AB
330
1A
100
AcDbEntity
  8
SEIHIN
  6
CONTINUOUS
 62
     3
100
AcDbLine
 10
280.8964334925055
 20
294.4262497029026
 30
0.0
 11
281.3964334925055
 21
293.2262497029025
 31
0.0
  0
ARC
  5
3AC
330
1A
100
AcDbEntity
  8
SEIHIN
  6
CONTINUOUS
 62
     3
100
AcDbCircle
 10
279.2637334925054
 20
302.3891497029026
 30
0.0
 40
1.500003483329275
100
AcDbArc
 50
14.99883465682989
 51
104.9988346568288
  0
ARC
  5
3AD
330
1A
100
AcDbEntity
  8
SEIHIN
  6
CONTINUOUS
 62
     3
100
AcDbCircle
 10
277.5111897663848
 20
301.9194559282632
 30
0.0
 40
1.499986154316325
100
AcDbArc
 50
104.9972828703589
 51
204.999354496576
  0
ARC
  5
3AE
330
1A
100
AcDbEntity
  8
SEIHIN
  6
CONTINUOUS
 62
     3
100
AcDbCircle
 10
277.5114322318507
 20
301.9195469997483
 30
0.0
 40
0.5000356437280149
100
AcDbArc
 50
104.9976264979378
 51
204.9965994016828
  0
ARC
  5
3AF
330
1A
100
AcDbEntity
  8
SEIHIN
  6
CONTINUOUS
 62
     3
100
AcDbCircle
 10
279.2637926413954
 20
302.3891155523515
 30
0.0
 40
0.4999850647766187
100
AcDbArc
 50
15.00338042543092
 51
105.0063462322125
  0
LINE
  5
3B0
330
1A
100
AcDbEntity
  8
SEIHIN
  6
CONTINUOUS
 62
     3
100
AcDbLine
 10
278.8755334925055
 20
303.8380497029026
 30
0.0
 11
277.1231334925055
 21
303.3684497029025
 31
0.0
  0
LINE
  5
3B1
330
1A
100
AcDbEntity
  8
SEIHIN
  6
CONTINUOUS
 62
     3
100
AcDbLine
 10
277.3819334925055
 20
302.4025497029025
 30
0.0
 11
279.1343334925055
 21
302.8720497029025
 31
0.0
  0
LINE
  5
3B2
330
1A
100
AcDbEntity
  8
SEIHIN
  6
CONTINUOUS
 62
     3
100
AcDbLine
 10
278.3756334925054
 20
298.8832497029026
 30
0.0
 11
277.0582334925055
 21
301.7082497029025
 31
0.0
  0
LINE
  5
3B3
330
1A
100
AcDbEntity
  8
SEIHIN
  6
CONTINUOUS
 62
     3
100
AcDbLine
 10
285.3964334925055
 20
298.7262497029025
 30
0.0
 11
282.8965334925054
 21
298.7262497029025
 31
0.0
  0
LINE
  5
3B4
330
1A
100
AcDbEntity
  8
SEIHIN
  6
CONTINUOUS
 62
     3
100
AcDbLine
 10
285.3965334925055
 20
298.7262497029025
 30
0.0
 11
287.8964334925054
 21
298.7262497029025
 31
0.0
  0
ARC
  5
3BB
330
1A
100
AcDbEntity
  8
SEIHIN
  6
PHANTOM
 62
     6
 48
5.0
100
AcDbCircle
 10
409.3962632397264
 20
303.8188345467488
 30
0.0
 40
6.999955898110139
100
AcDbArc
 50
36.04194089801497
 51
95.0003565250825
  0
LINE
  5
3BC
330
1A
100
AcDbEntity
  8
SEIHIN
  6
CONTINUOUS
 62
     3
100
AcDbLine
 10
372.7861334925053
 20
310.7921497029025
 30
0.0
 11
325.0589334925055
 21
306.6165497029025
 31
0.0
  0
LINE
  5
3BD
330
1A
100
AcDbEntity
  8
SEIHIN
  6
CONTINUOUS
 62
     3
100
AcDbLine
 10
295.3962334925055
 20
291.7258497029025
 30
0.0
 11
311.7171334925055
 21
313.2005497029026
 31
0.0
  0
ARC
  5
3BE
330
1A
100
AcDbEntity
  8
SEIHIN
  6
CONTINUOUS
 62
     3
100
AcDbCircle
 10
374.3962632397263
 20
303.8188345467486
 30
0.0
 40
6.999955898110282
100
AcDbArc
 50
36.04194089801583
 51
95.00035652508309
  0
LINE
  5
3BF
330
1A
100
AcDbEntity
  8
SEIHIN
  6
CONTINUOUS
 62
     3
100
AcDbLine
 10
375.1221334925055
 20
306.9274497029025
 30
0.0
 11
371.2608334925055
 21
310.5076497029026
 31
0.0
  0
LINE
  5
3C0
330
1A
100
AcDbEntity
  8
SEIHIN
  6
CONTINUOUS
 62
     3
100
AcDbLine
 10
385.3962334925053
 20
317.4808497029026
 30
0.0
 11
385.3962334925053
 21
272.9374497029026
 31
0.0
  0
ARC
  5
3C1
330
1A
100
AcDbEntity
  8
SEIHIN
  6
CONTINUOUS
 62
     3
100
AcDbCircle
 10
364.3101722757796
 20
293.525869820693
 30
0.0
 40
9.999979882284733
100
AcDbArc
 50
90.00022221223941
 51
144.8338713373223
  0
LINE
  5
3C2
330
1A
100
AcDbEntity
  8
SEIHIN
  6
CONTINUOUS
 62
     3
100
AcDbLine
 10
299.5150585882632
 20
281.5259556691745
 30
0.0
 11
359.1229334925053
 21
281.5257497029026
 31
0.0
  0
LINE
  5
3C3
330
1A
100
AcDbEntity
  8
SEIHIN
  6
CONTINUOUS
 62
     3
100
AcDbLine
 10
360.7229334925053
 20
281.1257497029026
 30
0.0
 11
298.3365408878775
 21
281.1259553959494
 31
0.0
  0
LINE
  5
3C4
330
1A
100
AcDbEntity
  8
SEIHIN
  6
CONTINUOUS
 62
     3
100
AcDbLine
 10
356.1353334925055
 20
299.2853497029025
 30
0.0
 11
345.1167334925055
 21
283.6460497029026
 31
0.0
  0
LINE
  5
3C5
330
1A
100
AcDbEntity
  8
NOKITOI
  6
PHANTOM
 62
     8
 48
3.5
100
AcDbLine
 10
363.1401708047528
 20
255.4502125150395
 30
0.0
 11
352.7370708047528
 21
246.9385125150395
 31
0.0
  0
LINE
  5
3C6
330
1A
100
AcDbEntity
  8
NOKITOI
  6
PHANTOM
 62
     8
 48
3.5
100
AcDbLine
 10
362.1558708047532
 20
256.1953125150393
 30
0.0
 11
352.1705708047529
 21
248.0255125150392
 31
0.0
  0
LINE
  5
3C7
330
1A
100
AcDbEntity
  8
NOKITOI
  6
PHANTOM
 62
     8
 48
3.5
100
AcDbLine
 10
352.1037708047529
 20
246.7125125150394
 30
0.0
 11
307.2743708047528
 21
246.7126125150393
 31
0.0
  0
LINE
  5
3C8
330
1A
100
AcDbEntity
  8
NOKITOI
  6
PHANTOM
 62
     8
 48
3.5
100
AcDbLine
 10
307.2743708047528
 20
247.9126125150394
 30
0.0
 11
351.8539708047528
 21
247.9125125150394
 31
0.0
  0
LINE
  5
3C9
330
1A
100
AcDbEntity
  8
NOKITOI
  6
PHANTOM
 62
     8
 48
3.5
100
AcDbLine
 10
348.1037708047529
 20
246.7125125150394
 30
0.0
 11
327.9458708047532
 21
246.7125125150394
 31
0.0
  0
LINE
  5
3CA
330
1A
100
AcDbEntity
  8
NOKITOI
  6
PHANTOM
 62
     8
 48
3.5
100
AcDbLine
 10
347.8539708047528
 20
247.9125125150394
 30
0.0
 11
327.9458708047532
 21
247.9125125150394
 31
0.0
  0
ARC
  5
3CB
330
1A
100
AcDbEntity
  8
NOKITOI
  6
PHANTOM
 62
     8
 48
3.5
100
AcDbCircle
 10
352.1037638721754
 20
247.7125100400332
 30
0.0
 40
0.9999975250179316
100
AcDbArc
 50
270.0003972084043
 51
309.2946416752298
  0
ARC
  5
3CC
330
1A
100
AcDbEntity
  8
NOKITOI
  6
PHANTOM
 62
     8
 48
3.5
100
AcDbCircle
 10
351.8539771925015
 20
248.4125147950289
 30
0.0
 40
0.5000022800304047
100
AcDbArc
 50
269.9992680212786
 51
309.2854498596058
  0
ARC
  5
3CD
330
1A
100
AcDbEntity
  8
SEIHIN
  6
CONTINUOUS
 62
     3
100
AcDbCircle
 10
326.0176841257875
 20
295.6584224705493
 30
0.0
 40
10.99998015803363
100
AcDbArc
 50
94.99968206066078
 51
142.7650136123995
  0
LINE
  5
3CE
330
1A
100
AcDbEntity
  8
SEIHIN
  6
CONTINUOUS
 62
     3
100
AcDbLine
 10
308.3006023975539
 20
290.5258497029025
 30
0.0
 11
333.7672334925053
 21
290.5258497029025
 31
0.0
  0
LINE
  5
3CF
330
1A
100
AcDbEntity
  8
SEIHIN
  6
CONTINUOUS
 62
     3
100
AcDbLine
 10
304.1539334925055
 20
285.0697497029025
 30
0.0
 11
317.2599334925054
 21
302.3143497029025
 31
0.0
  0
ARC
  5
3D0
330
1A
100
AcDbEntity
  8
SEIHIN
  6
CONTINUOUS
 62
     3
100
AcDbCircle
 10
295.3960562460506
 20
291.7256113868599
 30
0.0
 40
10.99996168422862
100
AcDbArc
 50
270.0004023555699
 51
322.7653693177713
  0
LINE
  5
3D1
330
1A
100
AcDbEntity
  8
SEIHIN
  6
CONTINUOUS
 62
     3
100
AcDbLine
 10
290.8964334925054
 20
280.3262497029026
 30
0.0
 11
290.8964334925054
 21
280.7257497029025
 31
0.0
  0
ARC
  5
3D2
330
1A
100
AcDbEntity
  8
SEIHIN
  6
CONTINUOUS
 62
     3
100
AcDbCircle
 10
284.2606647937895
 20
302.6867962154415
 30
0.0
 40
8.999942836094085
100
AcDbArc
 50
317.1217434871954
 51
334.9992531995052
  0
LINE
  5
3D3
330
1A
100
AcDbEntity
  8
SEIHIN
  6
CONTINUOUS
 62
     3
100
AcDbLine
 10
288.6464334925054
 20
297.4262497029026
 30
0.0
 11
290.0802334925055
 21
302.7773497029025
 31
0.0
  0
LINE
  5
3D4
330
1A
100
AcDbEntity
  8
SEIHIN
  6
CONTINUOUS
 62
     3
100
AcDbLine
 10
291.0462334925055
 20
302.5185497029026
 30
0.0
 11
289.7446334925055
 21
297.6609497029025
 31
0.0
  0
LINE
  5
3D5
330
1A
100
AcDbEntity
  8
SEIHIN
  6
CONTINUOUS
 62
     3
100
AcDbLine
 10
294.6410334925054
 20
301.2856497029025
 30
0.0
 11
293.3236334925055
 21
298.4605497029026
 31
0.0
  0
ARC
  5
3D6
330
1A
100
AcDbEntity
  8
SEIHIN
  6
CONTINUOUS
 62
     3
100
AcDbCircle
 10
284.2606033058828
 20
302.6867141682558
 30
0.0
 40
9.999949112463006
100
AcDbArc
 50
304.3048438815693
 51
334.9999787965993
  0
ARC
  5
3D7
330
1A
100
AcDbEntity
  8
SEIHIN
  6
CONTINUOUS
 62
     3
100
AcDbCircle
 10
290.2276260888897
 20
297.531660833839
 30
0.0
 40
0.4999974598192433
100
AcDbArc
 50
165.0142351983003
 51
202.6328278695783
  0
ARC
  5
3D8
330
1A
100
AcDbEntity
  8
SEIHIN
  6
CONTINUOUS
 62
     3
100
AcDbCircle
 10
290.4894870479458
 20
296.903140132288
 30
0.0
 40
0.5000072937197095
100
AcDbArc
 50
202.6173737235518
 51
317.1117262707714
  0
LINE
  5
3D9
330
1A
100
AcDbEntity
  8
SEIHIN
  6
CONTINUOUS
 62
     3
100
AcDbLine
 10
289.7660334925054
 20
297.3392497029026
 30
0.0
 11
290.0279334925055
 21
296.7108497029025
 31
0.0
  0
LINE
  5
3DA
330
1A
100
AcDbEntity
  8
SEIHIN
  6
CONTINUOUS
 62
     3
100
AcDbLine
 10
290.8964334925054
 20
293.2262497029025
 30
0.0
 11
290.8964334925054
 21
291.7258497029025
 31
0.0
  0
LINE
  5
3DB
330
1A
100
AcDbEntity
  8
SEIHIN
  6
CONTINUOUS
 62
     3
100
AcDbLine
 10
289.8964334925054
 20
294.4262497029026
 30
0.0
 11
289.3964334925055
 21
293.2262497029025
 31
0.0
  0
LINE
  5
3DC
330
1A
100
AcDbEntity
  8
SEIHIN
  6
CONTINUOUS
 62
     3
100
AcDbLine
 10
289.8964334925054
 20
294.4262497029026
 30
0.0
 11
288.6464334925054
 21
297.4262497029026
 31
0.0
  0
LINE
  5
3DD
330
1A
100
AcDbEntity
  8
SEIHIN
  6
CONTINUOUS
 62
     3
100
AcDbLine
 10
292.4173334925054
 20
298.8831497029025
 30
0.0
 11
293.7347334925055
 21
301.7082497029025
 31
0.0
  0
LINE
  5
3DE
330
1A
100
AcDbEntity
  8
SEIHIN
  6
CONTINUOUS
 62
     3
100
AcDbLine
 10
293.4109334925054
 20
302.4025497029025
 30
0.0
 11
291.6586334925055
 21
302.8720497029025
 31
0.0
  0
LINE
  5
3DF
330
1A
100
AcDbEntity
  8
SEIHIN
  6
CONTINUOUS
 62
     3
100
AcDbLine
 10
291.9174334925055
 20
303.8379497029026
 30
0.0
 11
293.6697334925055
 21
303.3684497029025
 31
0.0
  0
ARC
  5
3E0
330
1A
100
AcDbEntity
  8
SEIHIN
  6
CONTINUOUS
 62
     3
100
AcDbCircle
 10
291.5291493479049
 20
302.38915885468
 30
0.0
 40
0.4999497124710582
100
AcDbArc
 50
74.98960193149142
 51
165.0006714108604
  0
ARC
  5
3E1
330
1A
100
AcDbEntity
  8
SEIHIN
  6
CONTINUOUS
 62
     3
100
AcDbCircle
 10
291.5291493433485
 20
302.3891588537757
 30
0.0
 40
1.49991983285781
100
AcDbArc
 50
74.99698136388461
 51
165.0006710971759
  0
ARC
  5
3E2
330
1A
100
AcDbEntity
  8
SEIHIN
  6
CONTINUOUS
 62
     3
100
AcDbCircle
 10
293.281509753315
 20
301.9196006111901
 30
0.0
 40
0.4999903293584294
100
AcDbArc
 50
334.9942007564508
 51
74.99801644262437
  0
ARC
  5
3E3
330
1A
100
AcDbEntity
  8
SEIHIN
  6
CONTINUOUS
 62
     3
100
AcDbCircle
 10
293.2815139179279
 20
301.9195916796503
 30
0.0
 40
1.499968002867949
100
AcDbArc
 50
334.9988153855737
 51
75.00002814091931
  0
LINE
  5
3E4
330
1A
100
AcDbEntity
  8
SEIHIN
  6
CONTINUOUS
 62
     3
100
AcDbLine
 10
335.6729334925055
 20
280.5258497029025
 30
0.0
 11
331.5229334925055
 21
280.5258497029025
 31
0.0
  0
LINE
  5
3E5
330
1A
100
AcDbEntity
  8
SEIHIN
  6
CONTINUOUS
 62
     3
100
AcDbLine
 10
331.5229334925055
 20
280.5258497029025
 30
0.0
 11
331.5229334925055
 21
281.1257497029026
 31
0.0
  0
LINE
  5
3E6
330
1A
100
AcDbEntity
  8
SEIHIN
  6
CONTINUOUS
 62
     3
100
AcDbLine
 10
335.6729334925055
 20
280.5258497029025
 30
0.0
 11
335.6729334925055
 21
281.1257497029026
 31
0.0
  0
ARC
  5
3E7
330
1A
100
AcDbEntity
  8
SEIHIN
  6
CONTINUOUS
 62
     3
100
AcDbCircle
 10
341.0292630606536
 20
286.5258131691356
 30
0.0
 40
4.999963466729137
100
AcDbArc
 50
270.0008070954669
 51
324.8333278278973
  0
ARC
  5
3E8
330
1A
100
AcDbEntity
  8
SEIHIN
  6
CONTINUOUS
 62
     3
100
AcDbCircle
 10
333.7672502260474
 20
300.525858382895
 30
0.0
 40
10.00000868000649
100
AcDbArc
 50
269.9999041239497
 51
324.8330848664229
  0
LINE
  5
3E9
330
1A
100
AcDbEntity
  8
SEIHIN
  6
CONTINUOUS
 62
     3
100
AcDbLine
 10
348.7779334925055
 20
304.4689497029025
 30
0.0
 11
341.9420334925054
 21
294.7662497029026
 31
0.0
  0
ARC
  5
3EA
330
1A
100
AcDbEntity
  8
SEIHIN
  6
CONTINUOUS
 62
     3
100
AcDbCircle
 10
364.309966082818
 20
293.5256802781785
 30
0.0
 40
18.99997847600438
100
AcDbArc
 50
125.8511371730364
 51
144.8329563885987
  0
LINE
  5
3EB
330
1A
100
AcDbEntity
  8
NOKITOI
  6
PHANTOM
 62
     8
 48
3.5
100
AcDbLine
 10
366.3707708047532
 20
284.8121125150394
 30
0.0
 11
363.501970804753
 21
256.1247125150393
 31
0.0
  0
LINE
  5
3EC
330
1A
100
AcDbEntity
  8
NOKITOI
  6
PHANTOM
 62
     8
 48
3.5
100
AcDbLine
 10
365.329770804753
 20
286.4624125150394
 30
0.0
 11
362.3367708047526
 21
256.5326125150393
 31
0.0
  0
ARC
  5
3ED
330
1A
100
AcDbEntity
  8
NOKITOI
  6
PHANTOM
 62
     8
 48
3.5
100
AcDbCircle
 10
362.506948231884
 20
256.2241704433668
 30
0.0
 40
0.9999908507640039
100
AcDbArc
 50
309.2887092230696
 51
354.2862329477531
  0
ARC
  5
3EE
330
1A
100
AcDbEntity
  8
NOKITOI
  6
PHANTOM
 62
     8
 48
3.5
100
AcDbCircle
 10
361.8392533788746
 20
256.5822800286514
 30
0.0
 40
0.4999904508696396
100
AcDbArc
 50
309.2900846377958
 51
354.2990110749245
  0
LINE
  5
3EF
330
1A
100
AcDbEntity
  8
CENTER_L
  6
CENTER
 62
     1
 48
5.0
100
AcDbLine
 10
389.5186334925055
 20
294.9374497029025
 30
0.0
 11
376.0041334925055
 21
294.9374497029025
 31
0.0
  0
LINE
  5
3F0
330
1A
100
AcDbEntity
  8
CENTER_L
  6
CENTER
 62
     1
 48
5.0
100
AcDbLine
 10
389.5186334925055
 20
300.9374497029026
 30
0.0
 11
375.9309334925053
 21
300.9374497029026
 31
0.0
  0
LINE
  5
3F1
330
1A
100
AcDbEntity
  8
CENTER_L
  6
CENTER
 62
     1
 48
5.0
100
AcDbLine
 10
376.1870334925053
 20
279.9374497029026
 30
0.0
 11
389.5186334925055
 21
279.9374497029026
 31
0.0
  0
LINE
  5
3F2
330
1A
100
AcDbEntity
  8
SEIHIN
  6
CONTINUOUS
 62
     3
100
AcDbLine
 10
379.1229334925054
 20
298.5258497029026
 30
0.0
 11
379.1229334925054
 21
285.5258497029025
 31
0.0
  0
LINE
  5
3F3
330
1A
100
AcDbEntity
  8
SEIHIN
  6
CONTINUOUS
 62
     3
100
AcDbLine
 10
384.3962334925053
 20
272.9374497029026
 30
0.0
 11
384.3962334925053
 21
307.9374497029026
 31
0.0
  0
LINE
  5
3F4
330
1A
100
AcDbEntity
  8
SEIHIN
  6
CONTINUOUS
 62
     3
100
AcDbLine
 10
359.6229334925053
 20
282.0257497029026
 30
0.0
 11
359.6229334925053
 21
289.5257497029026
 31
0.0
  0
LINE
  5
3F5
330
1A
100
AcDbEntity
  8
SEIHIN
  6
CONTINUOUS
 62
     3
100
AcDbLine
 10
360.0229334925055
 20
282.0257497029026
 30
0.0
 11
360.0229334925055
 21
289.5257497029026
 31
0.0
  0
LINE
  5
3F6
330
1A
100
AcDbEntity
  8
SEIHIN
  6
CONTINUOUS
 62
     3
100
AcDbLine
 10
361.6229334925053
 20
289.5257497029026
 30
0.0
 11
361.6229334925053
 21
282.0257497029026
 31
0.0
  0
LINE
  5
3F7
330
1A
100
AcDbEntity
  8
SEIHIN
  6
CONTINUOUS
 62
     3
100
AcDbLine
 10
377.1229334925054
 20
298.5258497029026
 30
0.0
 11
377.1229334925054
 21
279.4757497029025
 31
0.0
  0
LINE
  5
3F8
330
1A
100
AcDbEntity
  8
SEIHIN
  6
CONTINUOUS
 62
     3
100
AcDbLine
 10
378.3229334925053
 20
299.5945497029025
 30
0.0
 11
378.3229334925053
 21
279.4757497029025
 31
0.0
  0
LINE
  5
3F9
330
1A
100
AcDbEntity
  8
SEIHIN
  6
CONTINUOUS
 62
     3
100
AcDbLine
 10
379.3962334925053
 20
272.9374497029026
 30
0.0
 11
379.3962334925053
 21
307.9374497029026
 31
0.0
  0
ARC
  5
3FA
330
1A
100
AcDbEntity
  8
NOKITOI
  6
PHANTOM
 62
     8
 48
3.5
100
AcDbCircle
 10
373.506888017931
 20
287.2126291981871
 30
0.0
 40
1.500016683246579
100
AcDbArc
 50
269.9993425123348
 51
358.207642324411
  0
ARC
  5
3FB
330
1A
100
AcDbEntity
  8
NOKITOI
  6
PHANTOM
 62
     8
 48
3.5
100
AcDbCircle
 10
371.8592087925772
 20
288.9125493356116
 30
0.0
 40
2.000036820932882
100
AcDbArc
 50
269.9989117490339
 51
358.2110591274196
  0
ARC
  5
3FC
330
1A
100
AcDbEntity
  8
NOKITOI
  6
PHANTOM
 62
     8
 48
3.5
100
AcDbCircle
 10
365.8272838757575
 20
286.4126243453192
 30
0.0
 40
0.499988169890889
100
AcDbArc
 50
90.00149786226627
 51
174.2966061377156
  0
LINE
  5
3FD
330
1A
100
AcDbEntity
  8
SEIHIN
  6
CONTINUOUS
 62
     3
100
AcDbLine
 10
376.6604334925054
 20
279.2235497029025
 30
0.0
 11
367.7728334925053
 21
284.9508497029026
 31
0.0
  0
LINE
  5
3FE
330
1A
100
AcDbEntity
  8
SEIHIN
  6
CONTINUOUS
 62
     3
100
AcDbLine
 10
367.1228334925054
 20
283.9421497029026
 30
0.0
 11
376.0104334925054
 21
278.2148497029026
 31
0.0
  0
LINE
  5
3FF
330
1A
100
AcDbEntity
  8
NOKITOI
  6
PHANTOM
 62
     8
 48
3.5
100
AcDbLine
 10
373.5068708047529
 20
285.7126125150393
 30
0.0
 11
367.365770804753
 21
285.7126125150393
 31
0.0
  0
ARC
  5
400
330
1A
100
AcDbEntity
  8
SEIHIN
  6
CONTINUOUS
 62
     3
100
AcDbCircle
 10
359.1229334925054
 20
282.0257497029027
 30
0.0
 40
0.9000000000000767
100
AcDbArc
 50
269.9999999999954
 51
359.9999999999954
  0
ARC
  5
401
330
1A
100
AcDbEntity
  8
SEIHIN
  6
CONTINUOUS
 62
     3
100
AcDbCircle
 10
360.7229334925053
 20
282.0257497029026
 30
0.0
 40
0.8999999999999914
100
AcDbArc
 50
270.0000000000009
 51
0.0000000000009047
  0
ARC
  5
402
330
1A
100
AcDbEntity
  8
SEIHIN
  6
CONTINUOUS
 62
     3
100
AcDbCircle
 10
359.1229334925053
 20
282.0257497029026
 30
0.0
 40
0.5
100
AcDbArc
 50
270.0
 51
0.0
  0
LINE
  5
403
330
1A
100
AcDbEntity
  8
SEIHIN
  6
CONTINUOUS
 62
     3
100
AcDbLine
 10
367.7728334925053
 20
284.9508497029026
 30
0.0
 11
367.1228334925054
 21
283.9421497029026
 31
0.0
  0
ARC
  5
404
330
1A
100
AcDbEntity
  8
NOKITOI
  6
PHANTOM
 62
     8
 48
3.5
100
AcDbCircle
 10
367.3657914545938
 20
284.7126312028886
 30
0.0
 40
0.9999813123640345
100
AcDbArc
 50
90.00118317084957
 51
174.290590033351
  0
LINE
  5
405
330
1A
100
AcDbEntity
  8
NOKITOI
  6
PHANTOM
 62
     8
 48
3.5
100
AcDbLine
 10
365.8272708047525
 20
286.9126125150394
 30
0.0
 11
371.8591708047529
 21
286.9126125150394
 31
0.0
  0
LINE
  5
406
330
1A
100
AcDbEntity
  8
SEIHIN
  6
CONTINUOUS
 62
     3
100
AcDbLine
 10
385.3962334925053
 20
272.9374497029026
 30
0.0
 11
379.3962334925053
 21
272.9374497029026
 31
0.0
  0
ARC
  5
407
330
1A
100
AcDbEntity
  8
SEIHIN
  6
CONTINUOUS
 62
     3
100
AcDbCircle
 10
376.8229242511234
 20
279.4757446638033
 30
0.0
 40
0.3000092414243032
100
AcDbArc
 50
237.2060685516539
 51
0.0009623674157058
  0
ARC
  5
408
330
1A
100
AcDbEntity
  8
SEIHIN
  6
CONTINUOUS
 62
     3
100
AcDbCircle
 10
378.3229334925055
 20
285.5258497029026
 30
0.0
 40
0.8000000000000255
100
AcDbArc
 50
269.9999999999929
 51
359.9999999999929
  0
ARC
  5
409
330
1A
100
AcDbEntity
  8
SEIHIN
  6
CONTINUOUS
 62
     3
100
AcDbCircle
 10
376.8229293158503
 20
279.4757474255727
 30
0.0
 40
1.500004176656739
100
AcDbArc
 50
237.2031242963036
 51
0.0000869873492797
  0
ARC
  5
40A
330
1A
100
AcDbEntity
  8
SEIHIN
  6
CONTINUOUS
 62
     3
100
AcDbCircle
 10
372.1229334930054
 20
298.5258497024025
 30
0.0
 40
5.000000000500024
100
AcDbArc
 50
359.9988540901406
 51
90.0000000057305
  0
ARC
  5
40B
330
1A
100
AcDbEntity
  8
NOKITOI
  6
PHANTOM
 62
     8
 48
3.5
100
AcDbCircle
 10
369.9457398778168
 20
291.7126482597032
 30
0.0
 40
3.99998565374706
100
AcDbArc
 50
358.2086966591014
 51
83.52422380468325
  0
LINE
  5
40C
330
1A
100
AcDbEntity
  8
NOKITOI
  6
PHANTOM
 62
     8
 48
3.5
100
AcDbLine
 10
373.3972708047531
 20
301.7125125150394
 30
0.0
 11
370.0706708047527
 21
301.7126125150393
 31
0.0
  0
LINE
  5
40D
330
1A
100
AcDbEntity
  8
NOKITOI
  6
PHANTOM
 62
     8
 48
3.5
100
AcDbLine
 10
373.3972708047531
 20
300.5125125150393
 30
0.0
 11
370.9245708047528
 21
300.5126125150395
 31
0.0
  0
ARC
  5
40E
330
1A
100
AcDbEntity
  8
NOKITOI
  6
PHANTOM
 62
     8
 48
3.5
100
AcDbCircle
 10
369.9457529384017
 20
291.7126212434193
 30
0.0
 40
5.199991271650611
100
AcDbArc
 50
37.92532860473096
 51
89.99980314072548
  0
LINE
  5
40F
330
1A
100
AcDbEntity
  8
NOKITOI
  6
PHANTOM
 62
     8
 48
3.5
100
AcDbLine
 10
366.9358708047529
 20
292.6863125150394
 30
0.0
 11
366.6200708047526
 21
298.6863125150394
 31
0.0
  0
LINE
  5
410
330
1A
100
AcDbEntity
  8
NOKITOI
  6
PHANTOM
 62
     8
 48
3.5
100
AcDbLine
 10
370.9245708047528
 20
300.5126125150395
 30
0.0
 11
371.4245708047528
 21
298.0126125150395
 31
0.0
  0
LINE
  5
411
330
1A
100
AcDbEntity
  8
SEIHIN
  6
CONTINUOUS
 62
     3
100
AcDbLine
 10
361.6229334925053
 20
289.5257497029026
 30
0.0
 11
359.6229334925053
 21
289.5257497029026
 31
0.0
  0
LINE
  5
412
330
1A
100
AcDbEntity
  8
NOKITOI
  6
PHANTOM
 62
     8
 48
3.5
100
AcDbLine
 10
369.483770804753
 20
296.9126125150394
 30
0.0
 11
368.4879708047528
 21
298.0126125150395
 31
0.0
  0
LINE
  5
413
330
1A
100
AcDbEntity
  8
NOKITOI
  6
PHANTOM
 62
     8
 48
3.5
100
AcDbLine
 10
368.8771708047525
 20
293.4126125150394
 30
0.0
 11
368.4731708047529
 21
296.2410125150393
 31
0.0
  0
LINE
  5
414
330
1A
100
AcDbEntity
  8
NOKITOI
  6
PHANTOM
 62
     8
 48
3.5
100
AcDbLine
 10
368.0992708047529
 20
293.4126125150394
 30
0.0
 11
367.9181708047526
 21
296.8540125150393
 31
0.0
  0
LINE
  5
415
330
1A
100
AcDbEntity
  8
NOKITOI
  6
PHANTOM
 62
     8
 48
3.5
100
AcDbLine
 10
368.0992708047529
 20
293.4126125150394
 30
0.0
 11
368.8771708047525
 21
293.4126125150394
 31
0.0
  0
LINE
  5
416
330
1A
100
AcDbEntity
  8
NOKITOI
  6
PHANTOM
 62
     8
 48
3.5
100
AcDbLine
 10
368.4731708047529
 20
296.2410125150393
 30
0.0
 11
367.9181708047526
 21
296.8540125150393
 31
0.0
  0
LINE
  5
417
330
1A
100
AcDbEntity
  8
NOKITOI
  6
PHANTOM
 62
     8
 48
3.5
100
AcDbLine
 10
369.483770804753
 20
296.9126125150394
 30
0.0
 11
369.945770804753
 21
296.9126125150394
 31
0.0
  0
ARC
  5
418
330
1A
100
AcDbEntity
  8
NOKITOI
  6
PHANTOM
 62
     8
 48
3.5
100
AcDbCircle
 10
370.3405001772525
 20
295.1902427475342
 30
0.0
 40
0.4999578477751074
100
AcDbArc
 50
83.52609071220776
 51
188.1330561712924
  0
LINE
  5
419
330
1A
100
AcDbEntity
  8
NOKITOI
  6
PHANTOM
 62
     8
 48
3.5
100
AcDbLine
 10
367.4351708047529
 20
292.2126125150393
 30
0.0
 11
369.6842708047524
 21
292.2126125150393
 31
0.0
  0
ARC
  5
41A
330
1A
100
AcDbEntity
  8
NOKITOI
  6
PHANTOM
 62
     8
 48
3.5
100
AcDbCircle
 10
367.4351749261595
 20
292.7126086050088
 30
0.0
 40
0.4999960899864752
100
AcDbArc
 50
183.0147243791737
 51
269.9995277178594
  0
ARC
  5
41B
330
1A
100
AcDbEntity
  8
NOKITOI
  6
PHANTOM
 62
     8
 48
3.5
100
AcDbCircle
 10
369.6842809911891
 20
292.7126242597635
 30
0.0
 40
0.5000117448278309
100
AcDbArc
 50
269.9988327478018
 51
8.127314608715803
  0
LINE
  5
41C
330
1A
100
AcDbEntity
  8
NOKITOI
  6
PHANTOM
 62
     8
 48
3.5
100
AcDbLine
 10
370.1792708047528
 20
292.7833125150393
 30
0.0
 11
369.8454708047529
 21
295.1195125150395
 31
0.0
  0
LINE
  5
41D
330
1A
100
AcDbEntity
  8
NOKITOI
  6
PHANTOM
 62
     8
 48
3.5
100
AcDbLine
 10
371.4245708047528
 20
298.0126125150395
 30
0.0
 11
368.4879708047528
 21
298.0126125150395
 31
0.0
  0
LINE
  5
41E
330
1A
100
AcDbEntity
  8
SEIHIN
  6
CONTINUOUS
 62
     3
100
AcDbLine
 10
372.1229334925053
 20
303.5258497029025
 30
0.0
 11
364.3101334925055
 21
303.5258497029025
 31
0.0
  0
LINE
  5
41F
330
1A
100
AcDbEntity
  8
NOKITOI
  6
PHANTOM
 62
     8
 48
3.5
100
AcDbLine
 10
367.119370804753
 20
299.2126125150393
 30
0.0
 11
369.3508708047529
 21
299.2126125150393
 31
0.0
  0
ARC
  5
420
330
1A
100
AcDbEntity
  8
NOKITOI
  6
PHANTOM
 62
     8
 48
3.5
100
AcDbCircle
 10
367.1193745142482
 20
298.71261642507
 30
0.0
 40
0.4999960899831856
100
AcDbArc
 50
90.00042508015132
 51
183.0156217414654
  0
ARC
  5
421
330
1A
100
AcDbEntity
  8
NOKITOI
  6
PHANTOM
 62
     8
 48
3.5
100
AcDbCircle
 10
370.0706635501974
 20
301.2126036651959
 30
0.0
 40
0.500008849895925
100
AcDbArc
 50
89.99916870385492
 51
191.3135956695117
  0
ARC
  5
422
330
1A
100
AcDbEntity
  8
NOKITOI
  6
PHANTOM
 62
     8
 48
3.5
100
AcDbCircle
 10
369.3508700217444
 20
299.7126115600376
 30
0.0
 40
0.4999990449987399
100
AcDbArc
 50
270.0000897263054
 51
11.30328019845509
  0
LINE
  5
423
330
1A
100
AcDbEntity
  8
NOKITOI
  6
PHANTOM
 62
     8
 48
3.5
100
AcDbLine
 10
369.8411708047529
 20
299.8106125150395
 30
0.0
 11
369.5803708047528
 21
301.1146125150394
 31
0.0
  0
ARC
  5
424
330
1A
100
AcDbEntity
  8
SEIHIN
  6
CONTINUOUS
 62
     3
100
AcDbCircle
 10
372.1229385690608
 20
298.525833319545
 30
0.0
 40
6.999994923944155
100
AcDbArc
 50
359.999315587974
 51
34.43324082298369
  0
LINE
  5
425
330
1A
100
AcDbEntity
  8
NOKITOI
  6
PHANTOM
 62
     8
 48
3.5
100
AcDbLine
 10
374.1968708047525
 20
299.6876125150393
 30
0.0
 11
374.0475708047529
 21
294.9086125150395
 31
0.0
  0
LINE
  5
426
330
1A
100
AcDbEntity
  8
NOKITOI
  6
PHANTOM
 62
     8
 48
3.5
100
AcDbLine
 10
375.3962708047529
 20
299.6501125150393
 30
0.0
 11
375.0061708047528
 21
287.1657125150393
 31
0.0
  0
LINE
  5
427
330
1A
100
AcDbEntity
  8
NOKITOI
  6
PHANTOM
 62
     8
 48
3.5
100
AcDbLine
 10
373.8582708047529
 20
288.8500125150394
 30
0.0
 11
373.9437708047526
 21
291.5876125150393
 31
0.0
  0
ARC
  5
428
330
1A
100
AcDbEntity
  8
SEIHIN
  6
CONTINUOUS
 62
     3
100
AcDbCircle
 10
368.3229199162738
 20
299.5945808052221
 30
0.0
 40
10.00001357627999
100
AcDbArc
 50
359.9998217970772
 51
47.1625741688286
  0
ARC
  5
429
330
1A
100
AcDbEntity
  8
NOKITOI
  6
PHANTOM
 62
     8
 48
3.5
100
AcDbCircle
 10
373.3973147711058
 20
299.7125671525664
 30
0.0
 40
0.7999453636812564
100
AcDbArc
 50
358.212343644788
 51
90.00314907315372
  0
ARC
  5
42A
330
1A
100
AcDbEntity
  8
NOKITOI
  6
PHANTOM
 62
     8
 48
3.5
100
AcDbCircle
 10
373.3972595677587
 20
299.7126241088565
 30
0.0
 40
1.999988406214315
100
AcDbArc
 50
358.2088726535929
 51
89.99967808195611
  0
LINE
  5
42B
330
1A
100
AcDbEntity
  8
SEIHIN
  6
CONTINUOUS
 62
     3
100
AcDbLine
 10
385.3962334925053
 20
307.9374497029026
 30
0.0
 11
379.3962334925053
 21
307.9374497029026
 31
0.0
  0
LINE
  5
42C
330
1A
100
AcDbEntity
  8
SEIHIN
  6
PHANTOM
 62
     6
 48
5.0
100
AcDbLine
 10
419.3962334925054
 20
272.9374497029026
 30
0.0
 11
419.3962334925054
 21
307.9374497029026
 31
0.0
  0
LINE
  5
42D
330
1A
100
AcDbEntity
  8
SEIHIN
  6
PHANTOM
 62
     6
 48
5.0
100
AcDbLine
 10
414.3962334925054
 20
272.9374497029026
 30
0.0
 11
414.3962334925054
 21
307.9374497029026
 31
0.0
  0
LINE
  5
42E
330
1A
100
AcDbEntity
  8
SEIHIN
  6
CONTINUOUS
 62
     3
100
AcDbLine
 10
318.8072334925055
 20
317.1116497029025
 30
0.0
 11
379.9605334925053
 21
322.4618497029026
 31
0.0
  0
ARC
  5
430
330
1A
100
AcDbEntity
  8
SEIHIN
  6
CONTINUOUS
 62
     3
100
AcDbCircle
 10
319.6787600335623
 20
307.1496643436054
 30
0.0
 40
10.00003554046772
100
AcDbArc
 50
94.99980454311128
 51
142.7649416392053
  0
ARC
  5
435
330
1A
100
AcDbEntity
  8
SEIHIN
  6
CONTINUOUS
 62
     3
100
AcDbCircle
 10
380.3962237180245
 20
317.4808586597093
 30
0.0
 40
5.000009774488908
100
AcDbArc
 50
359.9998973627561
 51
94.99897232982265
  0
LINE
  5
438
330
1A
100
AcDbEntity
  8
SEIHIN
  6
PHANTOM
 62
     6
 48
5.0
100
AcDbLine
 10
403.1526334925056
 20
321.4288497029026
 30
0.0
 11
414.9605334925054
 21
322.4618497029026
 31
0.0
  0
LINE
  5
439
330
1A
100
AcDbEntity
  8
SEIHIN
  6
PHANTOM
 62
     6
 48
5.0
100
AcDbLine
 10
407.7861334925055
 20
310.7921497029025
 30
0.0
 11
403.1526334925056
 21
310.3867497029026
 31
0.0
  0
LINE
  5
43B
330
1A
100
AcDbEntity
  8
CENTER_L
  6
CENTER
 62
     1
 48
5.0
100
AcDbLine
 10
392.1801334925053
 20
440.4750497029026
 30
0.0
 11
251.2986334925054
 21
440.4750497029026
 31
0.0
  0
LINE
  5
43C
330
1A
100
AcDbEntity
  8
SEIHIN
  6
CONTINUOUS
 62
     3
100
AcDbLine
 10
288.3962334925054
 20
441.7250497029026
 30
0.0
 11
294.8966334925054
 21
441.7250497029026
 31
0.0
  0
LINE
  5
43D
330
1A
100
AcDbEntity
  8
SEIHIN
  6
CONTINUOUS
 62
     3
100
AcDbLine
 10
288.3962334925054
 20
439.2250497029026
 30
0.0
 11
294.8966334925054
 21
439.2250497029026
 31
0.0
  0
LINE
  5
43E
330
1A
100
AcDbEntity
  8
SEIHIN
  6
CONTINUOUS
 62
     3
100
AcDbLine
 10
384.3964334924267
 20
449.4250497029026
 30
0.0
 11
275.3962334925055
 21
449.4250497029026
 31
0.0
  0
LINE
  5
43F
330
1A
100
AcDbEntity
  8
SEIHIN
  6
CONTINUOUS
 62
     3
100
AcDbLine
 10
384.3962334925053
 20
431.5250497029025
 30
0.0
 11
275.3962334925055
 21
431.5250497029025
 31
0.0
  0
ARC
  5
440
330
1A
100
AcDbEntity
  8
SEIHIN
  6
CONTINUOUS
 62
     3
100
AcDbCircle
 10
285.3962334925054
 20
440.4750497029026
 30
0.0
 40
3.249999999999957
100
AcDbArc
 50
0.0
 51
180.0
  0
ARC
  5
441
330
1A
100
AcDbEntity
  8
SEIHIN
  6
CONTINUOUS
 62
     3
100
AcDbCircle
 10
285.3962334925054
 20
440.4750497029026
 30
0.0
 40
3.249999999999957
100
AcDbArc
 50
180.0
 51
0.0
  0
ARC
  5
442
330
1A
100
AcDbEntity
  8
SEIHIN
  6
CONTINUOUS
 62
     3
100
AcDbCircle
 10
285.3962334925054
 20
440.4750497029026
 30
0.0
 40
5.500027928110863
100
AcDbArc
 50
193.1364908880196
 51
346.8635091119803
  0
ARC
  5
443
330
1A
100
AcDbEntity
  8
SEIHIN
  6
CONTINUOUS
 62
     3
100
AcDbCircle
 10
285.3962334925054
 20
440.4750497029026
 30
0.0
 40
4.49999604555378
100
AcDbArc
 50
196.127634772129
 51
343.8723652278709
  0
ARC
  5
444
330
1A
100
AcDbEntity
  8
SEIHIN
  6
CONTINUOUS
 62
     3
100
AcDbCircle
 10
285.3962334925054
 20
440.4750497029026
 30
0.0
 40
5.500027928110863
100
AcDbArc
 50
13.13649088801962
 51
166.8635091119803
  0
ARC
  5
445
330
1A
100
AcDbEntity
  8
SEIHIN
  6
CONTINUOUS
 62
     3
100
AcDbCircle
 10
285.3962334925054
 20
440.4750497029026
 30
0.0
 40
4.49999604555378
100
AcDbArc
 50
16.12763477212904
 51
163.8723652278709
  0
ARC
  5
457
330
1A
100
AcDbEntity
  8
SEIHIN
  6
CONTINUOUS
 62
     3
100
AcDbCircle
 10
271.7137334925054
 20
440.4750497029026
 30
0.0
 40
2.0
100
AcDbArc
 50
0.0
 51
90.0
  0
LINE
  5
458
330
1A
100
AcDbEntity
  8
SEIHIN
  6
CONTINUOUS
 62
     3
100
AcDbLine
 10
258.2986334925054
 20
434.1750497029024
 30
0.0
 11
275.3962334925055
 21
434.1750497029024
 31
0.0
  0
ARC
  5
459
330
1A
100
AcDbEntity
  8
SEIHIN
  6
CONTINUOUS
 62
     3
100
AcDbCircle
 10
271.7137334925054
 20
440.4750497029026
 30
0.0
 40
2.0
100
AcDbArc
 50
270.0
 51
0.0
  0
LINE
  5
45A
330
1A
100
AcDbEntity
  8
SEIHIN
  6
CONTINUOUS
 62
     3
100
AcDbLine
 10
258.2986334925054
 20
446.7750497029026
 30
0.0
 11
275.3962334925055
 21
446.7750497029026
 31
0.0
  0
LINE
  5
45B
330
1A
100
AcDbEntity
  8
SEIHIN
  6
CONTINUOUS
 62
     3
100
AcDbLine
 10
260.7976334925055
 20
434.1750497029024
 30
0.0
 11
260.7976334925055
 21
446.7750497029026
 31
0.0
  0
LINE
  5
45C
330
1A
100
AcDbEntity
  8
SEIHIN
  6
CONTINUOUS
 62
     3
100
AcDbLine
 10
259.6486334925054
 20
434.1750497029024
 30
0.0
 11
259.6486334925054
 21
446.7750497029026
 31
0.0
  0
LINE
  5
45E
330
1A
100
AcDbEntity
  8
SEIHIN
  6
CONTINUOUS
 62
     3
100
AcDbLine
 10
267.7137334925054
 20
435.1750497029025
 30
0.0
 11
267.7137334925054
 21
438.4750497029026
 31
0.0
  0
LINE
  5
45F
330
1A
100
AcDbEntity
  8
SEIHIN
  6
CONTINUOUS
 62
     3
100
AcDbLine
 10
273.7137334925054
 20
435.1750497029025
 30
0.0
 11
273.7137334925054
 21
445.7750497029025
 31
0.0
  0
LINE
  5
460
330
1A
100
AcDbEntity
  8
SEIHIN
  6
CONTINUOUS
 62
     3
100
AcDbLine
 10
260.7976334925055
 20
438.4750497029026
 30
0.0
 11
271.7137334925054
 21
438.4750497029026
 31
0.0
  0
LINE
  5
461
330
1A
100
AcDbEntity
  8
SEIHIN
  6
CONTINUOUS
 62
     3
100
AcDbLine
 10
260.7976334925055
 20
442.4750497029026
 30
0.0
 11
271.7137334925054
 21
442.4750497029026
 31
0.0
  0
LINE
  5
462
330
1A
100
AcDbEntity
  8
SEIHIN
  6
CONTINUOUS
 62
     3
100
AcDbLine
 10
258.2986334925054
 20
446.7750497029026
 30
0.0
 11
258.2986334925054
 21
434.1750497029024
 31
0.0
  0
ARC
  5
463
330
1A
100
AcDbEntity
  8
SEIHIN
  6
CONTINUOUS
 62
     3
100
AcDbCircle
 10
268.7289334925054
 20
440.4750497029026
 30
0.0
 40
2.0
100
AcDbArc
 50
90.0
 51
180.0
  0
ARC
  5
465
330
1A
100
AcDbEntity
  8
SEIHIN
  6
CONTINUOUS
 62
     3
100
AcDbCircle
 10
268.7289334925054
 20
440.4750497029026
 30
0.0
 40
2.0
100
AcDbArc
 50
180.0
 51
270.0
  0
LINE
  5
466
330
1A
100
AcDbEntity
  8
SEIHIN
  6
CONTINUOUS
 62
     3
100
AcDbLine
 10
267.7137334925054
 20
445.7750497029025
 30
0.0
 11
267.7137334925054
 21
442.4750497029026
 31
0.0
  0
LINE
  5
467
330
1A
100
AcDbEntity
  8
CENTER_L
  6
CENTER
 62
     1
 48
5.0
100
AcDbLine
 10
285.3962334925054
 20
433.0101497029025
 30
0.0
 11
285.3962334925054
 21
447.8816497029024
 31
0.0
  0
LINE
  5
468
330
1A
100
AcDbEntity
  8
SEIHIN
  6
CONTINUOUS
 62
     3
100
AcDbLine
 10
275.3962334925055
 20
431.5250497029025
 30
0.0
 11
275.3962334925055
 21
449.4250497029026
 31
0.0
  0
LINE
  5
469
330
1A
100
AcDbEntity
  8
SEIHIN
  6
CONTINUOUS
 62
     3
100
AcDbLine
 10
273.9599334925055
 20
432.9750497029026
 30
0.0
 11
273.9599334925055
 21
434.1750497029024
 31
0.0
  0
LINE
  5
46A
330
1A
100
AcDbEntity
  8
SEIHIN
  6
CONTINUOUS
 62
     3
100
AcDbLine
 10
273.9599334925055
 20
432.9750497029026
 30
0.0
 11
275.3962334925055
 21
432.9750497029026
 31
0.0
  0
LINE
  5
46B
330
1A
100
AcDbEntity
  8
SEIHIN
  6
CONTINUOUS
 62
     3
100
AcDbLine
 10
282.3962334925056
 20
439.2250497029026
 30
0.0
 11
275.8958334925054
 21
439.2250497029026
 31
0.0
  0
ARC
  5
46C
330
1A
100
AcDbEntity
  8
SEIHIN
  6
CONTINUOUS
 62
     3
100
AcDbCircle
 10
280.8238334925054
 20
439.7250497029026
 30
0.0
 40
0.5
100
AcDbArc
 50
180.0
 51
270.0
  0
LINE
  5
46D
330
1A
100
AcDbEntity
  8
SEIHIN
  6
CONTINUOUS
 62
     3
100
AcDbLine
 10
282.3962334925056
 20
441.7250497029026
 30
0.0
 11
275.8958334925054
 21
441.7250497029026
 31
0.0
  0
ARC
  5
46E
330
1A
100
AcDbEntity
  8
SEIHIN
  6
CONTINUOUS
 62
     3
100
AcDbCircle
 10
280.8238334925054
 20
441.2250497029027
 30
0.0
 40
0.5
100
AcDbArc
 50
90.0
 51
180.0
  0
LINE
  5
46F
330
1A
100
AcDbEntity
  8
SEIHIN
  6
CONTINUOUS
 62
     3
100
AcDbLine
 10
275.3958334925055
 20
439.7250497029026
 30
0.0
 11
275.3958334925055
 21
441.2250497029027
 31
0.0
  0
ARC
  5
470
330
1A
100
AcDbEntity
  8
SEIHIN
  6
CONTINUOUS
 62
     3
100
AcDbCircle
 10
275.8958334925054
 20
439.7250497029026
 30
0.0
 40
0.4999999999999574
100
AcDbArc
 50
179.9999999999951
 51
269.9999999999951
  0
ARC
  5
471
330
1A
100
AcDbEntity
  8
SEIHIN
  6
CONTINUOUS
 62
     3
100
AcDbCircle
 10
275.8958334925054
 20
441.2250497029027
 30
0.0
 40
0.4999999999999574
100
AcDbArc
 50
90.00000000000488
 51
180.0000000000048
  0
LINE
  5
472
330
1A
100
AcDbEntity
  8
SEIHIN
  6
CONTINUOUS
 62
     3
100
AcDbLine
 10
273.9599334925055
 20
447.9750497029026
 30
0.0
 11
275.3962334925055
 21
447.9750497029026
 31
0.0
  0
LINE
  5
473
330
1A
100
AcDbEntity
  8
SEIHIN
  6
CONTINUOUS
 62
     3
100
AcDbLine
 10
273.9599334925055
 20
447.9750497029026
 30
0.0
 11
273.9599334925055
 21
446.7750497029026
 31
0.0
  0
ARC
  5
474
330
1A
100
AcDbEntity
  8
SEIHIN
  6
CONTINUOUS
 62
     3
100
AcDbCircle
 10
285.3962334925054
 20
440.4750497029026
 30
0.0
 40
2.500000000000028
100
AcDbArc
 50
0.0
 51
180.0
  0
LINE
  5
475
330
1A
100
AcDbEntity
  8
SEIHIN
  6
CONTINUOUS
 62
     3
100
AcDbLine
 10
280.3238334925054
 20
439.7250497029026
 30
0.0
 11
280.3238334925054
 21
441.2250497029027
 31
0.0
  0
ARC
  5
476
330
1A
100
AcDbEntity
  8
SEIHIN
  6
CONTINUOUS
 62
     3
100
AcDbCircle
 10
285.3962334925054
 20
440.4750497029026
 30
0.0
 40
2.500000000000028
100
AcDbArc
 50
180.0
 51
0.0
  0
LINE
  5
477
330
1A
100
AcDbEntity
  8
SEIHIN
  6
CONTINUOUS
 62
     3
100
AcDbLine
 10
367.5579334925054
 20
436.4751497029025
 30
0.0
 11
314.3907051104924
 21
436.4751497029025
 31
0.0
  0
LINE
  5
478
330
1A
100
AcDbEntity
  8
SEIHIN
  6
CONTINUOUS
 62
     3
100
AcDbLine
 10
367.5579334925069
 20
444.4750479415222
 30
0.0
 11
314.3963287141314
 21
444.4749554688668
 31
0.0
  0
LINE
  5
479
330
1A
100
AcDbEntity
  8
SEIHIN
  6
CONTINUOUS
 62
     3
100
AcDbLine
 10
295.3962334925055
 20
432.1372497029025
 30
0.0
 11
295.3962334925055
 21
440.4750497029026
 31
0.0
  0
LINE
  5
47A
330
1A
100
AcDbEntity
  8
SEIHIN
  6
CONTINUOUS
 62
     3
100
AcDbLine
 10
295.3962334925055
 20
432.4006497029024
 30
0.0
 11
295.3962334925055
 21
448.4250497029026
 31
0.0
  0
LINE
  5
47B
330
1A
100
AcDbEntity
  8
SEIHIN
  6
CONTINUOUS
 62
     3
100
AcDbLine
 10
290.4686334925055
 20
441.2250497029027
 30
0.0
 11
290.4686334925055
 21
439.7250497029026
 31
0.0
  0
ARC
  5
47C
330
1A
100
AcDbEntity
  8
SEIHIN
  6
CONTINUOUS
 62
     3
100
AcDbCircle
 10
289.9686334925054
 20
439.7250497029026
 30
0.0
 40
0.4999999999999716
100
AcDbArc
 50
270.0000000000032
 51
0.0000000000032569
  0
ARC
  5
47D
330
1A
100
AcDbEntity
  8
SEIHIN
  6
CONTINUOUS
 62
     3
100
AcDbCircle
 10
289.9686334925054
 20
441.2250497029027
 30
0.0
 40
0.4999999999999716
100
AcDbArc
 50
359.9999999999967
 51
89.99999999999674
  0
LINE
  5
47E
330
1A
100
AcDbEntity
  8
SEIHIN
  6
CONTINUOUS
 62
     3
100
AcDbLine
 10
295.3966334925055
 20
441.2250497029027
 30
0.0
 11
295.3966334925055
 21
439.7250497029026
 31
0.0
  0
ARC
  5
481
330
1A
100
AcDbEntity
  8
SEIHIN
  6
CONTINUOUS
 62
     3
100
AcDbCircle
 10
294.8966334925054
 20
439.7250497029026
 30
0.0
 40
0.4999999999999716
100
AcDbArc
 50
270.0000000000032
 51
0.0000000000032569
  0
ARC
  5
482
330
1A
100
AcDbEntity
  8
SEIHIN
  6
CONTINUOUS
 62
     3
100
AcDbCircle
 10
294.8966334925054
 20
441.2250497029027
 30
0.0
 40
0.4999999999999716
100
AcDbArc
 50
359.9999999999967
 51
89.99999999999674
  0
LINE
  5
483
330
1A
100
AcDbEntity
  8
SEIHIN
  6
CONTINUOUS
 62
     3
100
AcDbLine
 10
314.3963334925055
 20
432.1062497029025
 30
0.0
 11
314.3963334925055
 21
435.7255497029025
 31
0.0
  0
LINE
  5
484
330
1A
100
AcDbEntity
  8
SEIHIN
  6
CONTINUOUS
 62
     3
100
AcDbLine
 10
314.3963334925055
 20
445.1612497029026
 30
0.0
 11
314.3963334925055
 21
448.8479497029025
 31
0.0
  0
LINE
  5
487
330
1A
100
AcDbEntity
  8
CENTER_L
  6
CENTER
 62
     1
 48
5.0
100
AcDbLine
 10
392.1801334925053
 20
422.4750497029026
 30
0.0
 11
376.5337334925054
 21
422.4750497029026
 31
0.0
  0
LINE
  5
488
330
1A
100
AcDbEntity
  8
SEIHIN
  6
CONTINUOUS
 62
     3
100
AcDbLine
 10
384.3962334925053
 20
416.9750497029026
 30
0.0
 11
384.3962334925053
 21
429.6750497029026
 31
0.0
  0
LINE
  5
489
330
1A
100
AcDbEntity
  8
SEIHIN
  6
CONTINUOUS
 62
     3
100
AcDbLine
 10
385.3962334925053
 20
416.9750497029026
 30
0.0
 11
385.3962334925053
 21
429.7700497029024
 31
0.0
  0
LINE
  5
48A
330
1A
100
AcDbEntity
  8
SEIHIN
  6
CONTINUOUS
 62
     3
100
AcDbLine
 10
385.3962334925053
 20
416.9750497029026
 30
0.0
 11
384.3962334925053
 21
416.9750497029026
 31
0.0
  0
LINE
  5
48B
330
1A
100
AcDbEntity
  8
SEIHIN
  6
CONTINUOUS
 62
     3
100
AcDbLine
 10
368.5579334925053
 20
443.4750496809855
 30
0.0
 11
368.5579334925054
 21
437.4751497029024
 31
0.0
  0
LINE
  5
48D
330
1A
100
AcDbEntity
  8
SEIHIN
  6
CONTINUOUS
 62
     3
100
AcDbLine
 10
372.5579334925054
 20
443.4750497029026
 30
0.0
 11
372.5579334925053
 21
437.4750497029026
 31
0.0
  0
ARC
  5
48E
330
1A
100
AcDbEntity
  8
SEIHIN
  6
CONTINUOUS
 62
     3
100
AcDbCircle
 10
385.6016560504951
 20
440.4749199487879
 30
0.0
 40
4.005322560091306
100
AcDbArc
 50
179.9981438790408
 51
254.3359490641729
  0
LINE
  5
48F
330
1A
100
AcDbEntity
  8
SEIHIN
  6
CONTINUOUS
 62
     3
100
AcDbLine
 10
385.3962334925053
 20
432.5250497029026
 30
0.0
 11
385.3964334923476
 21
448.4250371242862
 31
0.0
  0
LINE
  5
490
330
1A
100
AcDbEntity
  8
SEIHIN
  6
CONTINUOUS
 62
     3
100
AcDbLine
 10
383.9570334925055
 20
436.4750497029026
 30
0.0
 11
373.5579334925053
 21
436.4750497029026
 31
0.0
  0
ARC
  5
491
330
1A
100
AcDbEntity
  8
SEIHIN
  6
CONTINUOUS
 62
     3
100
AcDbCircle
 10
380.3962645565404
 20
431.0800153778735
 30
0.0
 40
1.000031064624155
100
AcDbArc
 50
179.9980333817973
 51
264.2880103231952
  0
ARC
  5
492
330
1A
100
AcDbEntity
  8
SEIHIN
  6
CONTINUOUS
 62
     3
100
AcDbCircle
 10
384.3962472026934
 20
429.7700345518002
 30
0.0
 40
0.999986289926751
100
AcDbArc
 50
0.0008681061122756
 51
84.28457366912589
  0
LINE
  5
493
330
1A
100
AcDbEntity
  8
SEIHIN
  6
CONTINUOUS
 62
     3
100
AcDbLine
 10
384.3962334925053
 20
429.6750497029026
 30
0.0
 11
380.2967334925055
 21
430.0849497029025
 31
0.0
  0
ARC
  5
494
330
1A
100
AcDbEntity
  8
SEIHIN
  6
CONTINUOUS
 62
     3
100
AcDbCircle
 10
384.196362582794
 20
435.4629113361047
 30
0.0
 40
1.199970910324863
100
AcDbArc
 50
0.0018319240632883
 51
74.34174508128868
  0
ARC
  5
495
330
1A
100
AcDbEntity
  8
SEIHIN
  6
CONTINUOUS
 62
     3
100
AcDbCircle
 10
384.3962334925053
 20
432.5250497029026
 30
0.0
 40
0.9999999999999857
100
AcDbArc
 50
269.9999999999992
 51
359.9999999999992
  0
LINE
  5
496
330
1A
100
AcDbEntity
  8
SEIHIN
  6
CONTINUOUS
 62
     3
100
AcDbLine
 10
380.3962334925053
 20
431.1750497029025
 30
0.0
 11
384.4958334925054
 21
430.7650497029024
 31
0.0
  0
LINE
  5
497
330
1A
100
AcDbEntity
  8
SEIHIN
  6
CONTINUOUS
 62
     3
100
AcDbLine
 10
380.3962334925053
 20
431.1750497029025
 30
0.0
 11
380.3962334925053
 21
431.5250497029025
 31
0.0
  0
LINE
  5
498
330
1A
100
AcDbEntity
  8
SEIHIN
  6
CONTINUOUS
 62
     3
100
AcDbLine
 10
379.3962334925053
 20
431.0800497029025
 30
0.0
 11
379.3962334925053
 21
431.5250497029025
 31
0.0
  0
LINE
  5
499
330
1A
100
AcDbEntity
  8
SEIHIN
  6
CONTINUOUS
 62
     3
100
AcDbLine
 10
383.9223334925055
 20
444.4750497029026
 30
0.0
 11
373.5579334925054
 21
444.4750497029025
 31
0.0
  0
ARC
  5
49B
330
1A
100
AcDbEntity
  8
SEIHIN
  6
CONTINUOUS
 62
     3
100
AcDbCircle
 10
385.6016560518621
 20
440.4750794580489
 30
0.0
 40
4.005322559467109
100
AcDbArc
 50
105.6640509586399
 51
180.0004256446952
  0
ARC
  5
49D
330
1A
100
AcDbEntity
  8
SEIHIN
  6
CONTINUOUS
 62
     3
100
AcDbCircle
 10
384.196362582794
 20
445.4870880697004
 30
0.0
 40
1.199970910324805
100
AcDbArc
 50
285.6582549187093
 51
359.9981680759333
  0
LINE
  5
4A2
330
1A
100
AcDbEntity
  8
CENTER_L
  6
CENTER
 62
     1
 48
5.0
100
AcDbLine
 10
392.1801334925053
 20
458.4750497029026
 30
0.0
 11
375.7337334925055
 21
458.4750497029026
 31
0.0
  0
LINE
  5
4A3
330
1A
100
AcDbEntity
  8
SEIHIN
  6
CONTINUOUS
 62
     3
100
AcDbLine
 10
384.3962334925053
 20
463.9750497029026
 30
0.0
 11
384.3962334925053
 21
451.2750497029026
 31
0.0
  0
LINE
  5
4A4
330
1A
100
AcDbEntity
  8
SEIHIN
  6
CONTINUOUS
 62
     3
100
AcDbLine
 10
385.3962334925053
 20
463.9750497029026
 30
0.0
 11
385.3962334925053
 21
451.1800497029025
 31
0.0
  0
ARC
  5
4A5
330
1A
100
AcDbEntity
  8
SEIHIN
  6
CONTINUOUS
 62
     3
100
AcDbCircle
 10
384.3962024284705
 20
451.1800153778734
 30
0.0
 40
1.000031064623976
100
AcDbArc
 50
275.7119896768123
 51
0.001966618207527
  0
ARC
  5
4A6
330
1A
100
AcDbEntity
  8
SEIHIN
  6
CONTINUOUS
 62
     3
100
AcDbCircle
 10
380.3962148046562
 20
449.8700290530615
 30
0.0
 40
0.9999813123640862
100
AcDbArc
 50
95.70940996665198
 51
179.9988168291544
  0
LINE
  5
4A7
330
1A
100
AcDbEntity
  8
SEIHIN
  6
CONTINUOUS
 62
     3
100
AcDbLine
 10
384.3962334925053
 20
451.2750497029026
 30
0.0
 11
380.2967334925055
 21
450.8650497029026
 31
0.0
  0
LINE
  5
4A8
330
1A
100
AcDbEntity
  8
SEIHIN
  6
CONTINUOUS
 62
     3
100
AcDbLine
 10
380.3962334925053
 20
449.7750497029026
 30
0.0
 11
384.4958334925054
 21
450.1849497029026
 31
0.0
  0
LINE
  5
4A9
330
1A
100
AcDbEntity
  8
SEIHIN
  6
CONTINUOUS
 62
     3
100
AcDbLine
 10
379.3962334925053
 20
449.8700497029024
 30
0.0
 11
379.3962334925053
 21
449.4250497029026
 31
0.0
  0
LINE
  5
4AA
330
1A
100
AcDbEntity
  8
SEIHIN
  6
CONTINUOUS
 62
     3
100
AcDbLine
 10
380.3962334925053
 20
449.7750497029026
 30
0.0
 11
380.3962334925053
 21
449.4250497029026
 31
0.0
  0
LINE
  5
4AB
330
1A
100
AcDbEntity
  8
SEIHIN
  6
CONTINUOUS
 62
     3
100
AcDbLine
 10
385.3962334925053
 20
463.9750497029026
 30
0.0
 11
384.3962334925053
 21
463.9750497029026
 31
0.0
  0
LINE
  5
4B3
330
1A
100
AcDbEntity
  8
SEIHIN
  6
CONTINUOUS
 62
     3
100
AcDbLine
 10
620.7751913644919
 20
272.9374497029026
 30
0.0
 11
599.5250913644922
 21
272.9374497029026
 31
0.0
  0
LINE
  5
4B4
330
1A
100
AcDbEntity
  8
SEIHIN
  6
CONTINUOUS
 62
     3
100
AcDbLine
 10
620.7751913644919
 20
307.9374497029026
 30
0.0
 11
609.5251913644922
 21
307.9374497029026
 31
0.0
  0
LINE
  5
4B7
330
1A
100
AcDbEntity
  8
CENTER_L
  6
CENTER
 62
     1
 48
5.0
100
AcDbLine
 10
599.5250913644922
 20
268.7498497029025
 30
0.0
 11
599.5250913644922
 21
329.6424497029025
 31
0.0
  0
LINE
  5
4B8
330
1A
100
AcDbEntity
  8
SEIHIN
  6
PHANTOM
 62
     6
 48
5.0
100
AcDbLine
 10
420.3962334925053
 20
317.4808497029026
 30
0.0
 11
420.3962334925053
 21
272.9374497029026
 31
0.0
  0
LINE
  5
4B9
330
1A
100
AcDbEntity
  8
SEIHIN
  6
CONTINUOUS
 62
     3
100
AcDbLine
 10
595.5250913644922
 20
321.4676497029025
 30
0.0
 11
595.5250913644922
 21
281.9374497029026
 31
0.0
  0
LINE
  5
4BA
330
1A
100
AcDbEntity
  8
SEIHIN
  6
CONTINUOUS
 62
     3
100
AcDbLine
 10
589.8750913644922
 20
272.9374497029026
 30
0.0
 11
589.8750913644922
 21
321.9374497029026
 31
0.0
  0
LINE
  5
4BB
330
1A
100
AcDbEntity
  8
SEIHIN
  6
CONTINUOUS
 62
     3
100
AcDbLine
 10
603.5250913644922
 20
321.4676497029025
 30
0.0
 11
603.5251913644922
 21
281.9374497029026
 31
0.0
  0
LINE
  5
4BC
330
1A
100
AcDbEntity
  8
SEIHIN
  6
CONTINUOUS
 62
     3
100
AcDbLine
 10
609.1750913644921
 20
272.9374497029026
 30
0.0
 11
609.1750913644921
 21
321.9374497029026
 31
0.0
  0
LINE
  5
4C4
330
1A
100
AcDbEntity
  8
CENTER_L
  6
CENTER
 62
     1
 48
5.0
100
AcDbLine
 10
577.9256913644921
 20
279.9374497029026
 30
0.0
 11
585.0968913644919
 21
279.9374497029026
 31
0.0
  0
LINE
  5
4C5
330
1A
100
AcDbEntity
  8
CENTER_L
  6
CENTER
 62
     1
 48
5.0
100
AcDbLine
 10
586.301891364492
 20
294.9374497029025
 30
0.0
 11
576.987091364492
 21
294.9374497029025
 31
0.0
  0
LINE
  5
4C6
330
1A
100
AcDbEntity
  8
CENTER_L
  6
CENTER
 62
     1
 48
5.0
100
AcDbLine
 10
585.3519913644922
 20
300.9374497029026
 30
0.0
 11
578.147391364492
 21
300.9374497029026
 31
0.0
  0
LINE
  5
4C7
330
1A
100
AcDbEntity
  8
SEIHIN
  6
CONTINUOUS
 62
     3
100
AcDbLine
 10
578.275091364492
 20
272.9374497029026
 30
0.0
 11
599.5250913644922
 21
272.9374497029026
 31
0.0
  0
LINE
  5
4C8
330
1A
100
AcDbEntity
  8
SEIHIN
  6
CONTINUOUS
 62
     3
100
AcDbLine
 10
578.275091364492
 20
307.9374497029026
 30
0.0
 11
589.525091364492
 21
307.9374497029026
 31
0.0
  0
ARC
  5
4C9
330
1A
100
AcDbEntity
  8
SEIHIN
  6
CONTINUOUS
 62
     3
100
AcDbCircle
 10
581.525091364492
 20
294.9374497029027
 30
0.0
 40
3.249999999999853
100
AcDbArc
 50
112.6198649480404
 51
67.38013505195958
  0
LINE
  5
4CA
330
1A
100
AcDbEntity
  8
SEIHIN
  6
CONTINUOUS
 62
     3
100
AcDbLine
 10
576.2750913644922
 20
305.9374497029026
 30
0.0
 11
576.2750913644922
 21
274.9374497029026
 31
0.0
  0
ARC
  5
4D8
330
1A
100
AcDbEntity
  8
SEIHIN
  6
CONTINUOUS
 62
     3
100
AcDbCircle
 10
578.275091364492
 20
274.9374497029025
 30
0.0
 40
1.999999999999943
100
AcDbArc
 50
179.9999999999983
 51
269.9999999999983
  0
ARC
  5
4EC
330
1A
100
AcDbEntity
  8
SEIHIN
  6
CONTINUOUS
 62
     3
100
AcDbCircle
 10
578.275091364492
 20
305.9374497029026
 30
0.0
 40
1.999999999999943
100
AcDbArc
 50
90.00000000000161
 51
180.0000000000016
  0
LINE
  5
4ED
330
1A
100
AcDbEntity
  8
SEIHIN
  6
CONTINUOUS
 62
     3
100
AcDbLine
 10
589.525091364492
 20
307.9374497029026
 30
0.0
 11
589.525091364492
 21
272.9374497029026
 31
0.0
  0
LINE
  5
4EE
330
1A
100
AcDbEntity
  8
SEIHIN
  6
CONTINUOUS
 62
     3
100
AcDbLine
 10
609.5251913644922
 20
307.9374497029026
 30
0.0
 11
609.5251913644922
 21
272.9374497029026
 31
0.0
  0
LINE
  5
4EF
330
1A
100
AcDbEntity
  8
CENTER_L
  6
CENTER
 62
     1
 48
5.0
100
AcDbLine
 10
581.525091364492
 20
276.0755497029025
 30
0.0
 11
581.525091364492
 21
283.8491497029026
 31
0.0
  0
ARC
  5
4F0
330
1A
100
AcDbEntity
  8
SEIHIN
  6
CONTINUOUS
 62
     3
100
AcDbCircle
 10
581.525091364492
 20
279.9374497029026
 30
0.0
 40
2.100000000000079
100
AcDbArc
 50
180.0
 51
0.0
  0
ARC
  5
4F1
330
1A
100
AcDbEntity
  8
SEIHIN
  6
CONTINUOUS
 62
     3
100
AcDbCircle
 10
581.525091364492
 20
279.9374497029026
 30
0.0
 40
2.100000000000079
100
AcDbArc
 50
0.0
 51
180.0
  0
ARC
  5
4F2
330
1A
100
AcDbEntity
  8
SEIHIN
  6
CONTINUOUS
 62
     3
100
AcDbCircle
 10
599.5251413644921
 20
281.9374497029026
 30
0.0
 40
4.000050000000015
100
AcDbArc
 50
180.0
 51
0.0
  0
LINE
  5
4F3
330
1A
100
AcDbEntity
  8
CENTER_L
  6
CENTER
 62
     1
 48
5.0
100
AcDbLine
 10
581.525091364492
 20
289.7580497029025
 30
0.0
 11
581.525091364492
 21
304.6230497029026
 31
0.0
  0
LINE
  5
4F4
330
1A
100
AcDbEntity
  8
SEIHIN
  6
CONTINUOUS
 62
     3
100
AcDbLine
 10
582.775091364492
 20
297.9374497029026
 30
0.0
 11
582.775091364492
 21
299.2499497029026
 31
0.0
  0
LINE
  5
4F5
330
1A
100
AcDbEntity
  8
SEIHIN
  6
CONTINUOUS
 62
     3
100
AcDbLine
 10
580.2750913644922
 20
297.9374497029026
 30
0.0
 11
580.2750913644922
 21
299.2499497029026
 31
0.0
  0
ARC
  5
4F6
330
1A
100
AcDbEntity
  8
SEIHIN
  6
CONTINUOUS
 62
     3
100
AcDbCircle
 10
581.525091364492
 20
300.9374497029025
 30
0.0
 40
2.100037202051333
100
AcDbArc
 50
306.5288553669852
 51
233.4711446330147
  0
LINE
  5
4F7
330
1A
100
AcDbEntity
  8
SEIHIN
  6
CONTINUOUS
 62
     3
100
AcDbLine
 10
589.8750913644922
 20
302.9374497029026
 30
0.0
 11
589.525091364492
 21
302.9374497029026
 31
0.0
  0
LINE
  5
4F8
330
1A
100
AcDbEntity
  8
SEIHIN
  6
CONTINUOUS
 62
     3
100
AcDbLine
 10
609.1750913644921
 20
302.9374497029026
 30
0.0
 11
609.5251913644922
 21
302.9374497029026
 31
0.0
  0
ARC
  5
4FF
330
1A
100
AcDbEntity
  8
SEIHIN
  6
CONTINUOUS
 62
     3
100
AcDbCircle
 10
594.6261938262223
 20
321.9374476929066
 30
0.0
 40
1.000002009998991
100
AcDbArc
 50
11.5370530638516
 51
90.00014104646671
  0
ARC
  5
500
330
1A
100
AcDbEntity
  8
SEIHIN
  6
CONTINUOUS
 62
     3
100
AcDbCircle
 10
590.8750913644919
 20
321.9374497029027
 30
0.0
 40
0.9999999999999147
100
AcDbArc
 50
90.00000000000488
 51
180.0000000000048
  0
LINE
  5
501
330
1A
100
AcDbEntity
  8
SEIHIN
  6
CONTINUOUS
 62
     3
100
AcDbLine
 10
590.8750913644919
 20
322.9374497029026
 30
0.0
 11
594.6261913644921
 21
322.9374497029026
 31
0.0
  0
ARC
  5
502
330
1A
100
AcDbEntity
  8
SEIHIN
  6
CONTINUOUS
 62
     3
100
AcDbCircle
 10
599.5251669456149
 20
322.9376297666652
 30
0.0
 40
3.9998800644767
100
AcDbArc
 50
269.9989173477007
 51
348.4600577779739
  0
ARC
  5
503
330
1A
100
AcDbEntity
  8
SEIHIN
  6
CONTINUOUS
 62
     3
100
AcDbCircle
 10
599.5250157833693
 20
322.9376297666652
 30
0.0
 40
3.999880064476755
100
AcDbArc
 50
191.5399422220268
 51
270.0010826522992
  0
ARC
  5
504
330
1A
100
AcDbEntity
  8
SEIHIN
  6
CONTINUOUS
 62
     3
100
AcDbCircle
 10
608.1750913644921
 20
321.9374497029026
 30
0.0
 40
1.0
100
AcDbArc
 50
0.0
 51
90.0
  0
ARC
  5
505
330
1A
100
AcDbEntity
  8
SEIHIN
  6
CONTINUOUS
 62
     3
100
AcDbCircle
 10
604.4240889027619
 20
321.9374476929066
 30
0.0
 40
1.000002009999022
100
AcDbArc
 50
89.99985895353168
 51
168.4629469361471
  0
LINE
  5
506
330
1A
100
AcDbEntity
  8
SEIHIN
  6
CONTINUOUS
 62
     3
100
AcDbLine
 10
608.1750913644921
 20
322.9374497029026
 30
0.0
 11
604.4240913644921
 21
322.9374497029026
 31
0.0
  0
LINE
  5
510
330
1A
100
AcDbEntity
  8
SEIHIN
  6
CONTINUOUS
 62
     3
100
AcDbLine
 10
622.7751913644922
 20
305.9374497029026
 30
0.0
 11
622.7751913644922
 21
274.9374497029026
 31
0.0
  0
ARC
  5
512
330
1A
100
AcDbEntity
  8
SEIHIN
  6
CONTINUOUS
 62
     3
100
AcDbCircle
 10
620.7751913644922
 20
274.9374497029026
 30
0.0
 40
2.000000000000056
100
AcDbArc
 50
269.9999999999983
 51
359.9999999999983
  0
LINE
  5
513
330
1A
100
AcDbEntity
  8
CENTER_L
  6
CENTER
 62
     1
 48
5.0
100
AcDbLine
 10
620.7751913644919
 20
279.9374497029026
 30
0.0
 11
613.953391364492
 21
279.9374497029026
 31
0.0
  0
ARC
  5
514
330
1A
100
AcDbEntity
  8
SEIHIN
  6
CONTINUOUS
 62
     3
100
AcDbCircle
 10
617.5251913644922
 20
279.9374497029026
 30
0.0
 40
2.100000000000022
100
AcDbArc
 50
180.0
 51
0.0
  0
ARC
  5
515
330
1A
100
AcDbEntity
  8
SEIHIN
  6
CONTINUOUS
 62
     3
100
AcDbCircle
 10
617.5251913644922
 20
279.9374497029026
 30
0.0
 40
2.100000000000022
100
AcDbArc
 50
0.0
 51
180.0
  0
LINE
  5
516
330
1A
100
AcDbEntity
  8
CENTER_L
  6
CENTER
 62
     1
 48
5.0
100
AcDbLine
 10
617.5251913644922
 20
276.0755497029025
 30
0.0
 11
617.5251913644922
 21
283.8491497029026
 31
0.0
  0
LINE
  5
517
330
1A
100
AcDbEntity
  8
CENTER_L
  6
CENTER
 62
     1
 48
5.0
100
AcDbLine
 10
617.5251913644922
 20
289.7580497029025
 30
0.0
 11
617.5251913644922
 21
304.6230497029026
 31
0.0
  0
LINE
  5
518
330
1A
100
AcDbEntity
  8
SEIHIN
  6
CONTINUOUS
 62
     3
100
AcDbLine
 10
616.2751913644919
 20
297.9374497029026
 30
0.0
 11
616.2751913644919
 21
299.2499497029026
 31
0.0
  0
LINE
  5
519
330
1A
100
AcDbEntity
  8
SEIHIN
  6
CONTINUOUS
 62
     3
100
AcDbLine
 10
618.7751913644922
 20
297.9374497029026
 30
0.0
 11
618.7751913644922
 21
299.2499497029026
 31
0.0
  0
LINE
  5
51A
330
1A
100
AcDbEntity
  8
CENTER_L
  6
CENTER
 62
     1
 48
5.0
100
AcDbLine
 10
612.7483913644921
 20
294.9374497029025
 30
0.0
 11
621.9341913644921
 21
294.9374497029025
 31
0.0
  0
ARC
  5
51B
330
1A
100
AcDbEntity
  8
SEIHIN
  6
CONTINUOUS
 62
     3
100
AcDbCircle
 10
617.5251913644922
 20
294.9374497029024
 30
0.0
 40
3.250000000000153
100
AcDbArc
 50
112.6198649480403
 51
67.38013505195961
  0
LINE
  5
51E
330
1A
100
AcDbEntity
  8
CENTER_L
  6
CENTER
 62
     1
 48
5.0
100
AcDbLine
 10
613.6982913644922
 20
300.9374497029026
 30
0.0
 11
620.7751913644919
 21
300.9374497029026
 31
0.0
  0
ARC
  5
51F
330
1A
100
AcDbEntity
  8
SEIHIN
  6
CONTINUOUS
 62
     3
100
AcDbCircle
 10
617.5251913644922
 20
300.9374497029027
 30
0.0
 40
2.100037202051526
100
AcDbArc
 50
306.5288553669851
 51
233.4711446330148
  0
ARC
  5
522
330
1A
100
AcDbEntity
  8
SEIHIN
  6
CONTINUOUS
 62
     3
100
AcDbCircle
 10
620.7751913644922
 20
305.9374497029025
 30
0.0
 40
2.000000000000056
100
AcDbArc
 50
0.0000000000016284
 51
90.00000000000161
  0
DIMENSION
  5
537
330
1A
100
AcDbEntity
  8
SUNPOU
100
AcDbDimension
  2
*D1
 10
426.7566554942929
 20
416.9750497029026
 30
0.0
 11
423.4833554942929
 21
440.4750497029026
 31
0.0
 12
-1.726699999999999
 22
80.52909994525862
 32
0.0
 70
    32
  3
STANDARD
100
AcDbAlignedDimension
 13
385.3962334925053
 23
463.9750497029026
 33
0.0
 14
385.3962334925053
 24
416.9750497029026
 34
0.0
 50
90.0
100
AcDbRotatedDimension
1001
ACAD
1000
DSTYLE
1002
{
1070
   140
1040
6.0
1070
    74
1070
     0
1070
   172
1070
     1
1070
    73
1070
     0
1070
   272
1070
     2
1070
    77
1070
     3
1070
   173
1070
     1
1070
   147
1040
2.0
1070
    42
1040
6.0
1070
    44
1040
3.0
1070
    43
1040
14.0
1070
   271
1070
     0
1070
   178
1070
     4
1070
   177
1070
     4
1070
   176
1070
     4
1070
   141
1040
150.0
1070
     7
1000
_OPEN
1070
     6
1000
_OPEN
1070
    41
1040
7.0
1002
}
  0
ELLIPSE
  5
53E
330
1A
100
AcDbEntity
  8
SEIHIN
 62
     3
100
AcDbEllipse
 10
314.3963334925055
 20
440.4750497029026
 30
0.0
 11
0.0000000000000686
 21
-3.999905765972414
 31
0.0
210
0.0
220
0.0
230
1.0
 40
0.8287195233945977
 41
3.141592653589772
 42
6.28318530717958
  0
ARC
  5
546
330
1A
100
AcDbEntity
  8
SEIHIN
  6
CONTINUOUS
 62
     3
100
AcDbCircle
 10
384.3964334924267
 20
448.4250497029026
 30
0.0
 40
1.0
100
AcDbArc
 50
359.9992792983694
 51
90.0
  0
DIMENSION
  5
555
330
1A
100
AcDbEntity
  8
SUNPOU
100
AcDbDimension
  2
*D2
 10
385.3962334925053
 20
244.8415521354868
 30
0.0
 11
408.8962334925053
 21
249.8415521354868
 31
0.0
 12
-1.726699999999999
 22
80.52909994525862
 32
0.0
 70
    32
  1
t<>
  3
STANDARD
100
AcDbAlignedDimension
 13
384.3962334925053
 23
272.9374497029026
 33
0.0
 14
385.3962334925053
 24
272.9374497029026
 34
0.0
100
AcDbRotatedDimension
1001
ACAD
1000
DSTYLE
1002
{
1070
   140
1040
6.0
1070
    74
1070
     0
1070
   172
1070
     1
1070
    73
1070
     0
1070
   272
1070
     2
1070
    77
1070
     3
1070
   173
1070
     1
1070
   147
1040
2.0
1070
    42
1040
6.0
1070
    44
1040
3.0
1070
    43
1040
14.0
1070
   271
1070
     1
1070
   178
1070
     4
1070
   177
1070
     4
1070
   176
1070
     4
1070
   141
1040
150.0
1070
     7
1000
_OPEN
1070
     6
1000
_OPEN
1070
    41
1040
7.0
1002
}
  0
LINE
  5
57D
330
1A
100
AcDbEntity
  8
SEIHIN
100
AcDbLine
 10
374.5128334925053
 20
310.7921497029025
 30
0.0
 11
375.5128334925053
 21
310.7921497029025
 31
0.0
  0
LINE
  5
57E
330
1A
100
AcDbEntity
  8
SEIHIN
 62
     6
100
AcDbLine
 10
407.7861334925055
 20
310.7921497029025
 30
0.0
 11
408.7861334925055
 21
310.7921497029025
 31
0.0
  0
DIMENSION
  5
59A
330
1A
100
AcDbEntity
  8
SUNPOU
100
AcDbDimension
  2
*D3
 10
385.3962334925053
 20
361.4218291026618
 30
0.0
 11
330.3962334925054
 21
366.4218291026618
 31
0.0
 12
-1.726699999999999
 22
0.0
 32
0.0
 70
    32
  3
STANDARD
100
AcDbAlignedDimension
 13
275.3962334925055
 23
291.7258497029025
 33
0.0
 14
385.3962334925053
 24
317.4808497029026
 34
0.0
100
AcDbRotatedDimension
1001
ACAD
1000
DSTYLE
1002
{
1070
   140
1040
6.0
1070
    74
1070
     0
1070
   172
1070
     1
1070
    73
1070
     0
1070
   272
1070
     2
1070
    77
1070
     3
1070
   173
1070
     1
1070
   147
1040
2.0
1070
    42
1040
6.0
1070
    44
1040
3.0
1070
    43
1040
14.0
1070
   271
1070
     0
1070
   178
1070
     4
1070
   177
1070
     4
1070
   176
1070
     4
1070
   141
1040
150.0
1070
     7
1000
_OPEN
1070
     6
1000
_OPEN
1070
    41
1040
7.0
1002
}
  0
DIMENSION
  5
5C3
330
1A
100
AcDbEntity
  8
SUNPOU
100
AcDbDimension
  2
*D4
 10
420.3962334925053
 20
361.4218291026618
 30
0.0
 11
402.8962334925053
 21
366.4218291026618
 31
0.0
 12
-1.726699999999999
 22
0.0
 32
0.0
 70
    32
  3
STANDARD
100
AcDbAlignedDimension
 13
385.3962334925053
 23
317.4808497029026
 33
0.0
 14
420.3962334925053
 24
317.4808497029026
 34
0.0
100
AcDbRotatedDimension
1001
ACAD
1000
DSTYLE
1002
{
1070
   140
1040
6.0
1070
    74
1070
     0
1070
   172
1070
     1
1070
    73
1070
     0
1070
   272
1070
     2
1070
    77
1070
     3
1070
   173
1070
     1
1070
   147
1040
2.0
1070
    42
1040
6.0
1070
    44
1040
3.0
1070
    43
1040
14.0
1070
   271
1070
     0
1070
   178
1070
     4
1070
   177
1070
     4
1070
   176
1070
     4
1070
   141
1040
150.0
1070
     7
1000
_OPEN
1070
     6
1000
_OPEN
1070
    41
1040
7.0
1002
}
  0
DIMENSION
  5
60B
330
1A
100
AcDbEntity
  8
SUNPOU
100
AcDbDimension
  2
*D5
 10
404.8552102103128
 20
272.9374497029026
 30
0.0
 11
399.8552102103128
 21
290.4374497029026
 31
0.0
 12
-1.726699999999999
 22
0.0
 32
0.0
 70
    32
  3
STANDARD
100
AcDbAlignedDimension
 13
385.3962334925053
 23
307.9374497029026
 33
0.0
 14
385.3962334925053
 24
272.9374497029026
 34
0.0
 50
90.0
100
AcDbRotatedDimension
1001
ACAD
1000
DSTYLE
1002
{
1070
   140
1040
6.0
1070
    74
1070
     0
1070
   172
1070
     1
1070
    73
1070
     0
1070
   272
1070
     2
1070
    77
1070
     3
1070
   173
1070
     1
1070
   147
1040
2.0
1070
    42
1040
6.0
1070
    44
1040
3.0
1070
    43
1040
14.0
1070
   271
1070
     0
1070
   178
1070
     4
1070
   177
1070
     4
1070
   176
1070
     4
1070
   141
1040
150.0
1070
     7
1000
_OPEN
1070
     6
1000
_OPEN
1070
    41
1040
7.0
1002
}
  0
DIMENSION
  5
618
330
1A
100
AcDbEntity
  8
SUNPOU
100
AcDbDimension
  2
*D6
 10
439.7984801747677
 20
272.9374497029026
 30
0.0
 11
434.7984801747677
 21
297.7091590685504
 31
0.0
 12
-1.726699999999999
 22
0.0
 32
0.0
 70
    32
  3
STANDARD
100
AcDbAlignedDimension
 13
380.3962237180245
 23
322.4808684341982
 33
0.0
 14
385.3962334925053
 24
272.9374497029026
 34
0.0
 50
90.0
100
AcDbRotatedDimension
1001
ACAD
1000
DSTYLE
1002
{
1070
   140
1040
6.0
1070
    74
1070
     0
1070
   172
1070
     1
1070
    73
1070
     0
1070
   272
1070
     2
1070
    77
1070
     3
1070
   173
1070
     1
1070
   147
1040
2.0
1070
    42
1040
6.0
1070
    44
1040
3.0
1070
    43
1040
14.0
1070
   271
1070
     0
1070
   178
1070
     4
1070
   177
1070
     4
1070
   176
1070
     4
1070
   141
1040
150.0
1070
     7
1000
_OPEN
1070
     6
1000
_OPEN
1070
    41
1040
7.0
1002
}
  0
DIMENSION
  5
625
330
1A
100
AcDbEntity
  8
SUNPOU
100
AcDbDimension
  2
*D7
 10
492.5133020213839
 20
272.9374497029026
 30
0.0
 11
487.5133020213838
 21
290.4374497029026
 31
0.0
 70
    32
  3
STANDARD
100
AcDbAlignedDimension
 13
576.2750913644922
 23
307.9374497029026
 33
0.0
 14
576.2750913644922
 24
272.9374497029026
 34
0.0
 50
90.0
100
AcDbRotatedDimension
1001
ACAD
1000
DSTYLE
1002
{
1070
   140
1040
6.0
1070
    74
1070
     0
1070
   172
1070
     1
1070
    73
1070
     0
1070
   272
1070
     2
1070
    77
1070
     3
1070
   173
1070
     1
1070
   147
1040
2.0
1070
    42
1040
6.0
1070
    44
1040
3.0
1070
    43
1040
14.0
1070
   271
1070
     0
1070
   178
1070
     4
1070
   177
1070
     4
1070
   176
1070
     4
1070
   141
1040
150.0
1070
     7
1000
_OPEN
1070
     6
1000
_OPEN
1070
    41
1040
7.0
1002
}
  0
DIMENSION
  5
63F
330
1A
100
AcDbEntity
  8
SUNPOU
100
AcDbDimension
  2
*D8
 10
522.889340415702
 20
307.9374497029026
 30
0.0
 11
517.889340415702
 21
325.9374497029026
 31
0.0
 70
    32
  3
STANDARD
100
AcDbAlignedDimension
 13
578.147391364492
 23
300.9374497029026
 33
0.0
 14
576.2750913644922
 24
307.9374497029026
 34
0.0
 50
90.0
100
AcDbRotatedDimension
1001
ACAD
1000
DSTYLE
1002
{
1070
   140
1040
6.0
1070
    74
1070
     0
1070
   172
1070
     1
1070
    73
1070
     0
1070
   272
1070
     2
1070
    77
1070
     3
1070
   173
1070
     1
1070
   147
1040
2.0
1070
    42
1040
6.0
1070
    44
1040
3.0
1070
    43
1040
14.0
1070
   271
1070
     0
1070
   178
1070
     4
1070
   177
1070
     4
1070
   176
1070
     4
1070
   141
1040
150.0
1070
     7
1000
_OPEN
1070
     6
1000
_OPEN
1070
    41
1040
7.0
1002
}
  0
DIMENSION
  5
64E
330
1A
100
AcDbEntity
  8
SUNPOU
100
AcDbDimension
  2
*D9
 10
507.3629317853929
 20
294.9374497029025
 30
0.0
 11
502.3629317853929
 21
301.4374497029026
 31
0.0
 70
    32
  3
STANDARD
100
AcDbAlignedDimension
 13
576.2750913644922
 23
307.9374497029026
 33
0.0
 14
576.987091364492
 24
294.9374497029025
 34
0.0
 50
90.0
100
AcDbRotatedDimension
1001
ACAD
1000
DSTYLE
1002
{
1070
   140
1040
6.0
1070
    74
1070
     0
1070
   172
1070
     1
1070
    73
1070
     0
1070
   272
1070
     2
1070
    77
1070
     3
1070
   173
1070
     1
1070
   147
1040
2.0
1070
    42
1040
6.0
1070
    44
1040
3.0
1070
    43
1040
14.0
1070
   271
1070
     0
1070
   178
1070
     4
1070
   177
1070
     4
1070
   176
1070
     4
1070
   141
1040
150.0
1070
     7
1000
_OPEN
1070
     6
1000
_OPEN
1070
    41
1040
7.0
1002
}
  0
DIMENSION
  5
65D
330
1A
100
AcDbEntity
  8
SUNPOU
100
AcDbDimension
  2
*D10
 10
522.889340415702
 20
272.9374497029026
 30
0.0
 11
517.889340415702
 21
254.9374497029026
 31
0.0
 70
    32
  3
STANDARD
100
AcDbAlignedDimension
 13
577.9256913644921
 23
279.9374497029026
 33
0.0
 14
576.2750913644922
 24
272.9374497029026
 34
0.0
 50
90.0
100
AcDbRotatedDimension
1001
ACAD
1000
DSTYLE
1002
{
1070
   140
1040
6.0
1070
    74
1070
     0
1070
   172
1070
     1
1070
    73
1070
     0
1070
   272
1070
     2
1070
    77
1070
     3
1070
   173
1070
     1
1070
   147
1040
2.0
1070
    42
1040
6.0
1070
    44
1040
3.0
1070
    43
1040
14.0
1070
   271
1070
     0
1070
   178
1070
     4
1070
   177
1070
     4
1070
   176
1070
     4
1070
   141
1040
150.0
1070
     7
1000
_OPEN
1070
     6
1000
_OPEN
1070
    41
1040
7.0
1002
}
  0
DIMENSION
  5
66A
330
1A
100
AcDbEntity
  8
SUNPOU
100
AcDbDimension
  2
*D11
 10
617.5251913644922
 20
345.3499873175378
 30
0.0
 11
563.2743362119242
 21
350.3499873175378
 31
0.0
 12
58.40215787198667
 22
0.0
 32
0.0
 70
    32
  3
STANDARD
100
AcDbAlignedDimension
 13
581.525091364492
 23
304.6230497029026
 33
0.0
 14
617.5251913644922
 24
304.6230497029026
 34
0.0
100
AcDbRotatedDimension
1001
ACAD
1000
DSTYLE
1002
{
1070
   140
1040
6.0
1070
    74
1070
     0
1070
   172
1070
     1
1070
    73
1070
     0
1070
   272
1070
     2
1070
    77
1070
     3
1070
   173
1070
     1
1070
   147
1040
2.0
1070
    42
1040
6.0
1070
    44
1040
3.0
1070
    43
1040
14.0
1070
   271
1070
     0
1070
   178
1070
     4
1070
   177
1070
     4
1070
   176
1070
     4
1070
   141
1040
150.0
1070
     7
1000
_OPEN
1070
     6
1000
_OPEN
1070
    41
1040
7.0
1002
}
  0
DIMENSION
  5
677
330
1A
100
AcDbEntity
  8
SUNPOU
100
AcDbDimension
  2
*D12
 10
622.7751913644922
 20
361.4218291026618
 30
0.0
 11
563.2743362119243
 21
366.4218291026618
 31
0.0
 12
58.40215787198667
 22
0.0
 32
0.0
 70
    32
  3
STANDARD
100
AcDbAlignedDimension
 13
576.2750913644922
 23
307.9374497029026
 33
0.0
 14
622.7751913644922
 24
307.9374497029026
 34
0.0
100
AcDbRotatedDimension
1001
ACAD
1000
DSTYLE
1002
{
1070
   140
1040
6.0
1070
    74
1070
     0
1070
   172
1070
     1
1070
    73
1070
     0
1070
   272
1070
     2
1070
    77
1070
     3
1070
   173
1070
     1
1070
   147
1040
2.0
1070
    42
1040
6.0
1070
    44
1040
3.0
1070
    43
1040
14.0
1070
   271
1070
     0
1070
   178
1070
     4
1070
   177
1070
     4
1070
   176
1070
     4
1070
   141
1040
150.0
1070
     7
1000
_OPEN
1070
     6
1000
_OPEN
1070
    41
1040
7.0
1002
}
  0
LINE
  5
67A
330
1A
100
AcDbEntity
  8
SEIHIN
  6
PHANTOM
 62
     6
 48
5.0
100
AcDbLine
 10
420.3962334925053
 20
124.0534023993722
 30
0.0
 11
414.3962334925054
 21
124.0534023993722
 31
0.0
  0
LINE
  5
67B
330
1A
100
AcDbEntity
  8
SEIHIN
  6
PHANTOM
 62
     6
 48
5.0
100
AcDbLine
 10
420.3962334925053
 20
159.0534023993722
 30
0.0
 11
414.3962334925054
 21
159.0534023993722
 31
0.0
  0
ARC
  5
67C
330
1A
100
AcDbEntity
  8
SEIHIN
  6
PHANTOM
 62
     6
 48
5.0
100
AcDbCircle
 10
415.3962237180245
 20
168.5968113561788
 30
0.0
 40
5.000009774488908
100
AcDbArc
 50
359.9998973627561
 51
94.99897232982265
  0
LINE
  5
682
330
1A
100
AcDbEntity
  8
SEIHIN
  6
CONTINUOUS
 62
     3
100
AcDbLine
 10
379.1229334925054
 20
149.6418023993721
 30
0.0
 11
379.1229334925054
 21
136.641802399372
 31
0.0
  0
LINE
  5
683
330
1A
100
AcDbEntity
  8
NOKITOI
  6
PHANTOM
 62
     8
 48
3.5
100
AcDbLine
 10
256.7246708047528
 20
150.8035652115088
 30
0.0
 11
256.8739708047524
 21
146.024565211509
 31
0.0
  0
LINE
  5
684
330
1A
100
AcDbEntity
  8
NOKITOI
  6
PHANTOM
 62
     8
 48
3.5
100
AcDbLine
 10
255.5252708047524
 20
150.7660652115089
 30
0.0
 11
255.9153708047524
 21
138.2816652115088
 31
0.0
  0
LINE
  5
685
330
1A
100
AcDbEntity
  8
NOKITOI
  6
PHANTOM
 62
     8
 48
3.5
100
AcDbLine
 10
261.4377708047523
 20
148.0285652115089
 30
0.0
 11
262.4335708047524
 21
149.1285652115091
 31
0.0
  0
LINE
  5
686
330
1A
100
AcDbEntity
  8
NOKITOI
  6
PHANTOM
 62
     8
 48
3.5
100
AcDbLine
 10
263.9856708047523
 20
143.8022652115089
 30
0.0
 11
264.3014708047526
 21
149.8022652115089
 31
0.0
  0
ARC
  5
687
330
1A
100
AcDbEntity
  8
NOKITOI
  6
PHANTOM
 62
     8
 48
3.5
100
AcDbCircle
 10
260.9757886711036
 20
142.8285739398888
 30
0.0
 40
5.199991271650611
100
AcDbArc
 50
90.00019685927453
 51
142.074671395269
  0
LINE
  5
688
330
1A
100
AcDbEntity
  8
SEIHIN
  6
CONTINUOUS
 62
     3
100
AcDbLine
 10
348.7779334925055
 20
155.5849023993721
 30
0.0
 11
341.9420334925054
 21
145.8822023993722
 31
0.0
  0
LINE
  5
689
330
1A
100
AcDbEntity
  8
SEIHIN
  6
CONTINUOUS
 62
     3
100
AcDbLine
 10
304.1539334925055
 20
136.185702399372
 30
0.0
 11
317.2599334925054
 21
153.430302399372
 31
0.0
  0
ARC
  5
68A
330
1A
100
AcDbEntity
  8
SEIHIN
  6
CONTINUOUS
 62
     3
100
AcDbCircle
 10
284.2606647937895
 20
153.802748911911
 30
0.0
 40
8.999942836094085
100
AcDbArc
 50
317.1217434871954
 51
334.9992531995052
  0
LINE
  5
68B
330
1A
100
AcDbEntity
  8
SEIHIN
  6
CONTINUOUS
 62
     3
100
AcDbLine
 10
289.7660334925054
 20
148.4552023993721
 30
0.0
 11
290.0279334925055
 21
147.8268023993721
 31
0.0
  0
ARC
  5
68C
330
1A
100
AcDbEntity
  8
SEIHIN
  6
CONTINUOUS
 62
     3
100
AcDbCircle
 10
284.2606033058828
 20
153.8026668647254
 30
0.0
 40
9.999949112463006
100
AcDbArc
 50
304.3048438815693
 51
334.9999787965993
  0
LINE
  5
68D
330
1A
100
AcDbEntity
  8
SEIHIN
  6
CONTINUOUS
 62
     3
100
AcDbLine
 10
289.8964334925054
 20
145.5422023993721
 30
0.0
 11
288.6464334925054
 21
148.5422023993721
 31
0.0
  0
LINE
  5
68E
330
1A
100
AcDbEntity
  8
SEIHIN
  6
CONTINUOUS
 62
     3
100
AcDbLine
 10
295.3962334925055
 20
142.8418023993721
 30
0.0
 11
311.7171334925055
 21
164.3165023993721
 31
0.0
  0
LINE
  5
68F
330
1A
100
AcDbEntity
  8
SEIHIN
  6
CONTINUOUS
 62
     3
100
AcDbLine
 10
385.3962334925053
 20
168.5968023993721
 30
0.0
 11
385.3962334925053
 21
124.0534023993722
 31
0.0
  0
LINE
  5
690
330
1A
100
AcDbEntity
  8
SEIHIN
  6
CONTINUOUS
 62
     3
100
AcDbLine
 10
356.1353334925055
 20
150.401302399372
 30
0.0
 11
345.1167334925055
 21
134.7620023993721
 31
0.0
  0
LINE
  5
691
330
1A
100
AcDbEntity
  8
SEIHIN
  6
CONTINUOUS
 62
     3
100
AcDbLine
 10
384.3962334925053
 20
124.0534023993722
 30
0.0
 11
384.3962334925053
 21
159.0534023993722
 31
0.0
  0
LINE
  5
692
330
1A
100
AcDbEntity
  8
SEIHIN
  6
CONTINUOUS
 62
     3
100
AcDbLine
 10
377.1229334925054
 20
149.6418023993721
 30
0.0
 11
377.1229334925054
 21
130.591702399372
 31
0.0
  0
LINE
  5
693
330
1A
100
AcDbEntity
  8
SEIHIN
  6
CONTINUOUS
 62
     3
100
AcDbLine
 10
378.3229334925053
 20
150.7105023993721
 30
0.0
 11
378.3229334925053
 21
130.591702399372
 31
0.0
  0
LINE
  5
694
330
1A
100
AcDbEntity
  8
SEIHIN
  6
CONTINUOUS
 62
     3
100
AcDbLine
 10
379.3962334925053
 20
124.0534023993722
 30
0.0
 11
379.3962334925053
 21
159.0534023993722
 31
0.0
  0
LINE
  5
695
330
1A
100
AcDbEntity
  8
SEIHIN
  6
PHANTOM
 62
     6
 48
5.0
100
AcDbLine
 10
414.3962334925054
 20
124.0534023993722
 30
0.0
 11
414.3962334925054
 21
159.0534023993722
 31
0.0
  0
LINE
  5
696
330
1A
100
AcDbEntity
  8
SEIHIN
  6
CONTINUOUS
 62
     3
100
AcDbLine
 10
281.0268334925054
 20
148.4552023993721
 30
0.0
 11
280.7650334925055
 21
147.8268023993721
 31
0.0
  0
ARC
  5
697
330
1A
100
AcDbEntity
  8
SEIHIN
  6
CONTINUOUS
 62
     3
100
AcDbCircle
 10
286.5325786036557
 20
153.80248676265
 30
0.0
 40
9.000040305147104
100
AcDbArc
 50
204.997913620229
 51
222.8754030020624
  0
ARC
  5
698
330
1A
100
AcDbEntity
  8
SEIHIN
  6
CONTINUOUS
 62
     3
100
AcDbCircle
 10
286.5324217633369
 20
153.8027162067157
 30
0.0
 40
10.00002260748757
100
AcDbArc
 50
205.0001367776394
 51
235.6950405441923
  0
LINE
  5
699
330
1A
100
AcDbEntity
  8
SEIHIN
  6
CONTINUOUS
 62
     3
100
AcDbLine
 10
280.8964334925055
 20
145.5422023993721
 30
0.0
 11
282.1464334925054
 21
148.5422023993721
 31
0.0
  0
LINE
  5
69A
330
1A
100
AcDbEntity
  8
NOKITOI
  6
PHANTOM
 62
     8
 48
3.5
100
AcDbLine
 10
369.4837708047521
 20
148.0285652115089
 30
0.0
 11
368.4879708047524
 21
149.1285652115091
 31
0.0
  0
ARC
  5
69B
330
1A
100
AcDbEntity
  8
NOKITOI
  6
PHANTOM
 62
     8
 48
3.5
100
AcDbCircle
 10
369.9455505920832
 20
142.8286239398889
 30
0.0
 40
5.2000412730095
100
AcDbArc
 50
37.92420092094385
 51
89.99867545693838
  0
LINE
  5
69C
330
1A
100
AcDbEntity
  8
NOKITOI
  6
PHANTOM
 62
     8
 48
3.5
100
AcDbLine
 10
374.196870804752
 20
150.8035652115088
 30
0.0
 11
374.0474708047527
 21
146.024665211509
 31
0.0
  0
LINE
  5
69D
330
1A
100
AcDbEntity
  8
NOKITOI
  6
PHANTOM
 62
     8
 48
3.5
100
AcDbLine
 10
366.9357708047523
 20
143.8023652115089
 30
0.0
 11
366.6199708047524
 21
149.8022652115089
 31
0.0
  0
LINE
  5
69E
330
1A
100
AcDbEntity
  8
NOKITOI
  6
PHANTOM
 62
     8
 48
3.5
100
AcDbLine
 10
375.3962708047524
 20
150.7660652115089
 30
0.0
 11
375.0060708047526
 21
138.2817652115088
 31
0.0
  0
LINE
  5
69F
330
1A
100
AcDbEntity
  8
CENTER_L
  6
CENTER
 62
     1
 48
5.0
100
AcDbLine
 10
285.3963334925055
 20
152.4740023993721
 30
0.0
 11
285.3961334925055
 21
125.439702399372
 31
0.0
  0
LINE
  5
6A0
330
1A
100
AcDbEntity
  8
SEIHIN
  6
CONTINUOUS
 62
     3
100
AcDbLine
 10
282.3962334925056
 20
131.8416023993721
 30
0.0
 11
295.3961334925054
 21
131.8416023993721
 31
0.0
  0
LINE
  5
6A1
330
1A
100
AcDbEntity
  8
SEIHIN
  6
CONTINUOUS
 62
     3
100
AcDbLine
 10
295.3962334925055
 20
142.8418023993721
 30
0.0
 11
275.3962334925055
 21
142.8418023993721
 31
0.0
  0
ARC
  5
6A2
330
1A
100
AcDbEntity
  8
SEIHIN
  6
CONTINUOUS
 62
     3
100
AcDbCircle
 10
285.3964334925054
 20
139.4892023993721
 30
0.0
 40
9.747010259561649
100
AcDbArc
 50
235.6479976531776
 51
304.3520023468222
  0
LINE
  5
6A3
330
1A
100
AcDbEntity
  8
SEIHIN
  6
CONTINUOUS
 62
     3
100
AcDbLine
 10
279.8965334925055
 20
131.4422023993721
 30
0.0
 11
290.8964334925054
 21
131.4422023993721
 31
0.0
  0
LINE
  5
6A4
330
1A
100
AcDbEntity
  8
SEIHIN
  6
CONTINUOUS
 62
     3
100
AcDbLine
 10
290.8964334925054
 20
144.3422023993721
 30
0.0
 11
285.3964334925055
 21
144.3422023993721
 31
0.0
  0
LINE
  5
6A5
330
1A
100
AcDbEntity
  8
SEIHIN
  6
CONTINUOUS
 62
     3
100
AcDbLine
 10
289.8964334925054
 20
145.5422023993721
 30
0.0
 11
285.3964334925055
 21
145.5422023993721
 31
0.0
  0
ARC
  5
6A6
330
1A
100
AcDbEntity
  8
NOKITOI
  6
PHANTOM
 62
     8
 48
3.5
100
AcDbCircle
 10
323.6471870312097
 20
140.828579687879
 30
0.0
 40
43.00001447645168
100
AcDbArc
 50
270.0001116248559
 51
353.4750892928819
  0
ARC
  5
6A7
330
1A
100
AcDbEntity
  8
NOKITOI
  6
PHANTOM
 62
     8
 48
3.5
100
AcDbCircle
 10
323.6471647227844
 20
140.8285595868526
 30
0.0
 40
41.79999437547816
100
AcDbArc
 50
270.0001454078912
 51
355.525704787475
  0
ARC
  5
6A8
330
1A
100
AcDbEntity
  8
NOKITOI
  6
PHANTOM
 62
     8
 48
3.5
100
AcDbCircle
 10
373.5068348456016
 20
138.3285303573657
 30
0.0
 40
1.499965146287778
100
AcDbArc
 50
270.0013735703023
 51
358.2133719782232
  0
ARC
  5
6A9
330
1A
100
AcDbEntity
  8
SEIHIN
  6
CONTINUOUS
 62
     3
100
AcDbCircle
 10
271.90326529986
 20
134.2271999727018
 30
0.0
 40
1.999972581034806
100
AcDbArc
 50
217.5683306846338
 51
313.7048469991666
  0
LINE
  5
6AA
330
1A
100
AcDbEntity
  8
SEIHIN
  6
CONTINUOUS
 62
     3
100
AcDbLine
 10
273.5636334925055
 20
134.036902399372
 30
0.0
 11
268.3742334925054
 21
140.783102399372
 31
0.0
  0
LINE
  5
6AB
330
1A
100
AcDbEntity
  8
SEIHIN
  6
CONTINUOUS
 62
     3
100
AcDbLine
 10
272.6124334925054
 20
133.305302399372
 30
0.0
 11
267.4230334925054
 21
140.0515023993721
 31
0.0
  0
ARC
  5
6AC
330
1A
100
AcDbEntity
  8
NOKITOI
  6
PHANTOM
 62
     8
 48
3.5
100
AcDbCircle
 10
367.362179228915
 20
135.8285727265654
 30
0.0
 40
0.9999924849789756
100
AcDbArc
 50
90.00048267259112
 51
173.4717353933255
  0
LINE
  5
6AD
330
1A
100
AcDbEntity
  8
SEIHIN
  6
CONTINUOUS
 62
     3
100
AcDbLine
 10
266.4382334925054
 20
138.0515023993721
 30
0.0
 11
270.3180334925054
 21
133.0078023993721
 31
0.0
  0
LINE
  5
6AE
330
1A
100
AcDbEntity
  8
NOKITOI
  6
PHANTOM
 62
     8
 48
3.5
100
AcDbLine
 10
365.818270804752
 20
138.0285652115089
 30
0.0
 11
371.8591708047524
 21
138.0285652115089
 31
0.0
  0
LINE
  5
6AF
330
1A
100
AcDbEntity
  8
SEIHIN
  6
CONTINUOUS
 62
     3
100
AcDbLine
 10
265.6456334925055
 20
138.441802399372
 30
0.0
 11
261.7986334925054
 21
138.441802399372
 31
0.0
  0
LINE
  5
6B0
330
1A
100
AcDbEntity
  8
SEIHIN
  6
CONTINUOUS
 62
     3
100
AcDbLine
 10
259.7986334925054
 20
141.641802399372
 30
0.0
 11
266.6304334925054
 21
141.641802399372
 31
0.0
  0
LINE
  5
6B1
330
1A
100
AcDbEntity
  8
SEIHIN
  6
CONTINUOUS
 62
     3
100
AcDbLine
 10
259.7986334925054
 20
140.4418023993721
 30
0.0
 11
266.6304334925054
 21
140.4418023993721
 31
0.0
  0
LINE
  5
6B2
330
1A
100
AcDbEntity
  8
NOKITOI
  6
PHANTOM
 62
     8
 48
3.5
100
AcDbLine
 10
369.4837708047521
 20
148.0285652115089
 30
0.0
 11
369.9456708047523
 21
148.0285652115089
 31
0.0
  0
ARC
  5
6B3
330
1A
100
AcDbEntity
  8
NOKITOI
  6
PHANTOM
 62
     8
 48
3.5
100
AcDbCircle
 10
371.859157232614
 20
140.0285520564225
 30
0.0
 40
1.999986844959662
100
AcDbArc
 50
270.0003888156776
 51
358.2124468147636
  0
LINE
  5
6B4
330
1A
100
AcDbEntity
  8
NOKITOI
  6
PHANTOM
 62
     8
 48
3.5
100
AcDbLine
 10
373.8581708047527
 20
139.9661652115089
 30
0.0
 11
373.9436708047524
 21
142.7036652115089
 31
0.0
  0
ARC
  5
6B5
330
1A
100
AcDbEntity
  8
SEIHIN
  6
CONTINUOUS
 62
     3
100
AcDbCircle
 10
261.7986334925054
 20
140.4418023993721
 30
0.0
 40
2.000000000000042
100
AcDbArc
 50
179.9999999999987
 51
269.9999999999987
  0
LINE
  5
6B6
330
1A
100
AcDbEntity
  8
NOKITOI
  6
PHANTOM
 62
     8
 48
3.5
100
AcDbLine
 10
373.5068708047524
 20
136.8285652115089
 30
0.0
 11
367.3621708047526
 21
136.8285652115089
 31
0.0
  0
ARC
  5
6B7
330
1A
100
AcDbEntity
  8
SEIHIN
  6
CONTINUOUS
 62
     3
100
AcDbCircle
 10
259.7986351916587
 20
141.9418001127019
 30
0.0
 40
1.499997713330774
100
AcDbArc
 50
163.2297132664215
 51
269.9999350970257
  0
ARC
  5
6B8
330
1A
100
AcDbEntity
  8
SEIHIN
  6
CONTINUOUS
 62
     3
100
AcDbCircle
 10
259.7986189131319
 20
141.9418220147562
 30
0.0
 40
0.3000196157383683
100
AcDbArc
 50
163.2468387276208
 51
270.00278427319
  0
LINE
  5
6B9
330
1A
100
AcDbEntity
  8
SEIHIN
  6
CONTINUOUS
 62
     3
100
AcDbLine
 10
259.6486334925054
 20
146.641802399372
 30
0.0
 11
260.7975334925055
 21
146.2955023993721
 31
0.0
  0
LINE
  5
6BA
330
1A
100
AcDbEntity
  8
SEIHIN
  6
CONTINUOUS
 62
     3
100
AcDbLine
 10
260.7975334925055
 20
146.2954023993721
 30
0.0
 11
259.5113334925055
 21
142.0283023993721
 31
0.0
  0
LINE
  5
6BB
330
1A
100
AcDbEntity
  8
SEIHIN
  6
CONTINUOUS
 62
     3
100
AcDbLine
 10
259.6486334925054
 20
146.641802399372
 30
0.0
 11
258.3624334925054
 21
142.3746023993721
 31
0.0
  0
ARC
  5
6BC
330
1A
100
AcDbEntity
  8
NOKITOI
  6
PHANTOM
 62
     8
 48
3.5
100
AcDbCircle
 10
370.340456586337
 20
146.3062505772079
 30
0.0
 40
0.5000073448410256
100
AcDbArc
 50
83.5217071700316
 51
188.1270521358757
  0
LINE
  5
6BD
330
1A
100
AcDbEntity
  8
NOKITOI
  6
PHANTOM
 62
     8
 48
3.5
100
AcDbLine
 10
368.877170804752
 20
144.5285652115089
 30
0.0
 11
368.4730708047522
 21
147.3569652115088
 31
0.0
  0
LINE
  5
6BE
330
1A
100
AcDbEntity
  8
NOKITOI
  6
PHANTOM
 62
     8
 48
3.5
100
AcDbLine
 10
368.0992708047524
 20
144.5285652115089
 30
0.0
 11
368.877170804752
 21
144.5285652115089
 31
0.0
  0
ARC
  5
6BF
330
1A
100
AcDbEntity
  8
NOKITOI
  6
PHANTOM
 62
     8
 48
3.5
100
AcDbCircle
 10
367.4351776917474
 20
143.8285586764234
 30
0.0
 40
0.499993464961963
100
AcDbArc
 50
183.0029638682573
 51
269.9992107982126
  0
ARC
  5
6C0
330
1A
100
AcDbEntity
  8
NOKITOI
  6
PHANTOM
 62
     8
 48
3.5
100
AcDbCircle
 10
369.6842442041547
 20
143.8285345346268
 30
0.0
 40
0.4999693238254178
100
AcDbArc
 50
270.0030483909652
 51
8.144496122946778
  0
LINE
  5
6C1
330
1A
100
AcDbEntity
  8
NOKITOI
  6
PHANTOM
 62
     8
 48
3.5
100
AcDbLine
 10
367.4351708047524
 20
143.3285652115089
 30
0.0
 11
369.6842708047524
 21
143.3285652115089
 31
0.0
  0
LINE
  5
6C2
330
1A
100
AcDbEntity
  8
NOKITOI
  6
PHANTOM
 62
     8
 48
3.5
100
AcDbLine
 10
370.1791708047526
 20
143.8993652115091
 30
0.0
 11
369.8454708047524
 21
146.235565211509
 31
0.0
  0
ARC
  5
6C3
330
1A
100
AcDbEntity
  8
NOKITOI
  6
PHANTOM
 62
     8
 48
3.5
100
AcDbCircle
 10
369.9456329233057
 20
142.8286089940343
 30
0.0
 40
3.999989731271038
100
AcDbArc
 50
358.2100163932691
 51
83.52268857986855
  0
LINE
  5
6C4
330
1A
100
AcDbEntity
  8
NOKITOI
  6
PHANTOM
 62
     8
 48
3.5
100
AcDbLine
 10
368.0992708047524
 20
144.5285652115089
 30
0.0
 11
367.9180708047524
 21
147.9700652115091
 31
0.0
  0
LINE
  5
6C5
330
1A
100
AcDbEntity
  8
NOKITOI
  6
PHANTOM
 62
     8
 48
3.5
100
AcDbLine
 10
368.4730708047522
 20
147.3569652115088
 30
0.0
 11
367.9180708047524
 21
147.9700652115091
 31
0.0
  0
ARC
  5
6C6
330
1A
100
AcDbEntity
  8
SEIHIN
  6
CONTINUOUS
 62
     3
100
AcDbCircle
 10
265.6456075223124
 20
137.4418151870356
 30
0.0
 40
0.999987212673645
100
AcDbArc
 50
37.56745337481763
 51
89.99851199852182
  0
ARC
  5
6C7
330
1A
100
AcDbEntity
  8
NOKITOI
  6
PHANTOM
 62
     8
 48
3.5
100
AcDbCircle
 10
365.8182582350441
 20
137.5285535867792
 30
0.0
 40
0.5000116248877111
100
AcDbArc
 50
89.99855965101662
 51
175.5251531916571
  0
ARC
  5
6C8
330
1A
100
AcDbEntity
  8
SEIHIN
  6
CONTINUOUS
 62
     3
100
AcDbCircle
 10
266.6302747410486
 20
139.4418319906792
 30
0.0
 40
2.199970414420663
100
AcDbArc
 50
68.87832412633525
 51
89.9958654950924
  0
ARC
  5
6C9
330
1A
100
AcDbEntity
  8
SEIHIN
  6
CONTINUOUS
 62
     3
100
AcDbCircle
 10
266.6304957267354
 20
139.4417558839685
 30
0.0
 40
2.199961788340452
100
AcDbArc
 50
37.56879376349828
 51
68.88440707227046
  0
ARC
  5
6CA
330
1A
100
AcDbEntity
  8
SEIHIN
  6
CONTINUOUS
 62
     3
100
AcDbCircle
 10
266.6304075223124
 20
139.4418151870356
 30
0.0
 40
0.9999872126737022
100
AcDbArc
 50
37.56745337481921
 51
89.99851199852345
  0
LINE
  5
6CB
330
1A
100
AcDbEntity
  8
SEIHIN
  6
CONTINUOUS
 62
     3
100
AcDbLine
 10
273.9599334925055
 20
132.641802399372
 30
0.0
 11
273.9599334925055
 21
139.641802399372
 31
0.0
  0
LINE
  5
6CC
330
1A
100
AcDbEntity
  8
SEIHIN
  6
CONTINUOUS
 62
     3
100
AcDbLine
 10
282.3962334925056
 20
131.8416023993721
 30
0.0
 11
275.3962334925055
 21
138.8416023993721
 31
0.0
  0
LINE
  5
6CD
330
1A
100
AcDbEntity
  8
SEIHIN
  6
CONTINUOUS
 62
     3
100
AcDbLine
 10
273.9599334925055
 20
132.642002399372
 30
0.0
 11
281.5959150499789
 21
132.6419208418988
 31
0.0
  0
LINE
  5
6CE
330
1A
100
AcDbEntity
  8
SEIHIN
  6
CONTINUOUS
 62
     3
100
AcDbLine
 10
281.9959334925054
 20
132.241902399372
 30
0.0
 11
274.1461334925054
 21
132.242002399372
 31
0.0
  0
ARC
  5
6CF
330
1A
100
AcDbEntity
  8
SEIHIN
  6
CONTINUOUS
 62
     3
100
AcDbCircle
 10
273.9599070622207
 20
134.3418154139783
 30
0.0
 40
1.700013014811712
100
AcDbArc
 50
217.5684553619183
 51
270.000890783633
  0
ARC
  5
6D0
330
1A
100
AcDbEntity
  8
SEIHIN
  6
CONTINUOUS
 62
     3
100
AcDbCircle
 10
273.95991551775
 20
134.3418112492154
 30
0.0
 40
0.5000088501664058
100
AcDbArc
 50
217.5755423139714
 51
270.0020597187954
  0
LINE
  5
6D1
330
1A
100
AcDbEntity
  8
SEIHIN
  6
CONTINUOUS
 62
     3
100
AcDbLine
 10
274.1461334925054
 20
132.2418023993721
 30
0.0
 11
274.1461334925054
 21
132.641802399372
 31
0.0
  0
LINE
  5
6D2
330
1A
100
AcDbEntity
  8
SEIHIN
  6
CONTINUOUS
 62
     3
100
AcDbLine
 10
279.8965334925055
 20
131.4422023993721
 30
0.0
 11
279.8965334925055
 21
132.2421023993721
 31
0.0
  0
ARC
  5
6D3
330
1A
100
AcDbEntity
  8
SEIHIN
  6
CONTINUOUS
 62
     3
100
AcDbCircle
 10
275.9599334925054
 20
139.6418023993721
 30
0.0
 40
1.999999999999957
100
AcDbArc
 50
106.3706495658613
 51
180.0000000000012
  0
LINE
  5
6D5
330
1A
100
AcDbEntity
  8
SEIHIN
  6
CONTINUOUS
 62
     3
100
AcDbLine
 10
275.3962334925055
 20
138.8416023993721
 30
0.0
 11
275.3962334925055
 21
142.841602399372
 31
0.0
  0
ARC
  5
6D6
330
1A
100
AcDbEntity
  8
SEIHIN
  6
CONTINUOUS
 62
     3
100
AcDbCircle
 10
280.3034799370651
 20
148.0190928287576
 30
0.0
 40
0.5000072937197249
100
AcDbArc
 50
222.888273729228
 51
337.3826262764481
  0
LINE
  5
6D7
330
1A
100
AcDbEntity
  8
SEIHIN
  6
CONTINUOUS
 62
     3
100
AcDbLine
 10
279.8964334925054
 20
144.3422023993721
 30
0.0
 11
285.3964334925055
 21
144.3422023993721
 31
0.0
  0
LINE
  5
6D8
330
1A
100
AcDbEntity
  8
SEIHIN
  6
CONTINUOUS
 62
     3
100
AcDbLine
 10
279.8964334925054
 20
144.3422023993721
 30
0.0
 11
279.8964334925054
 21
142.8422023993721
 31
0.0
  0
LINE
  5
6D9
330
1A
100
AcDbEntity
  8
SEIHIN
  6
CONTINUOUS
 62
     3
100
AcDbLine
 10
280.8964334925055
 20
145.5422023993721
 30
0.0
 11
285.3964334925055
 21
145.5422023993721
 31
0.0
  0
LINE
  5
6DA
330
1A
100
AcDbEntity
  8
SEIHIN
  6
CONTINUOUS
 62
     3
100
AcDbLine
 10
280.8964334925055
 20
145.5422023993721
 30
0.0
 11
281.3964334925055
 21
144.3422023993721
 31
0.0
  0
LINE
  5
6DB
330
1A
100
AcDbEntity
  8
SEIHIN
  6
CONTINUOUS
 62
     3
100
AcDbLine
 10
299.5150585882667
 20
132.6419083656441
 30
0.0
 11
359.1229334925053
 21
132.6417023993722
 31
0.0
  0
LINE
  5
6DC
330
1A
100
AcDbEntity
  8
SEIHIN
  6
CONTINUOUS
 62
     3
100
AcDbLine
 10
360.7229334925053
 20
132.2417023993721
 30
0.0
 11
298.3365408878826
 21
132.241908092419
 31
0.0
  0
LINE
  5
6DD
330
1A
100
AcDbEntity
  8
NOKITOI
  6
PHANTOM
 62
     8
 48
3.5
100
AcDbLine
 10
267.7813708047524
 20
106.566165211509
 30
0.0
 11
278.1844708047524
 21
98.05446521150907
 31
0.0
  0
LINE
  5
6DE
330
1A
100
AcDbEntity
  8
NOKITOI
  6
PHANTOM
 62
     8
 48
3.5
100
AcDbLine
 10
268.765670804752
 20
107.3112652115089
 30
0.0
 11
278.7509708047523
 21
99.14146521150883
 31
0.0
  0
LINE
  5
6DF
330
1A
100
AcDbEntity
  8
NOKITOI
  6
PHANTOM
 62
     8
 48
3.5
100
AcDbLine
 10
278.8177708047523
 20
97.82846521150895
 30
0.0
 11
323.6471708047524
 21
97.82856521150893
 31
0.0
  0
LINE
  5
6E0
330
1A
100
AcDbEntity
  8
NOKITOI
  6
PHANTOM
 62
     8
 48
3.5
100
AcDbLine
 10
323.6471708047524
 20
99.02856521150898
 30
0.0
 11
279.0675708047524
 21
99.028465211509
 31
0.0
  0
LINE
  5
6E1
330
1A
100
AcDbEntity
  8
NOKITOI
  6
PHANTOM
 62
     8
 48
3.5
100
AcDbLine
 10
282.8177708047523
 20
97.82846521150895
 30
0.0
 11
302.975670804752
 21
97.82846521150895
 31
0.0
  0
LINE
  5
6E2
330
1A
100
AcDbEntity
  8
NOKITOI
  6
PHANTOM
 62
     8
 48
3.5
100
AcDbLine
 10
283.0675708047524
 20
99.028465211509
 30
0.0
 11
302.975670804752
 21
99.028465211509
 31
0.0
  0
ARC
  5
6E3
330
1A
100
AcDbEntity
  8
NOKITOI
  6
PHANTOM
 62
     8
 48
3.5
100
AcDbCircle
 10
278.8177777373298
 20
98.82846273650285
 30
0.0
 40
0.9999975250179316
100
AcDbArc
 50
230.7053583247701
 51
269.9996027915957
  0
ARC
  5
6E4
330
1A
100
AcDbEntity
  8
NOKITOI
  6
PHANTOM
 62
     8
 48
3.5
100
AcDbCircle
 10
279.0675644170037
 20
99.52846749149854
 30
0.0
 40
0.5000022800304047
100
AcDbArc
 50
230.7145501403941
 51
270.0007319787213
  0
LINE
  5
6E5
330
1A
100
AcDbEntity
  8
SEIHIN
  6
CONTINUOUS
 62
     3
100
AcDbLine
 10
308.300602397554
 20
141.641802399372
 30
0.0
 11
333.7672334925053
 21
141.641802399372
 31
0.0
  0
ARC
  5
6E6
330
1A
100
AcDbEntity
  8
SEIHIN
  6
CONTINUOUS
 62
     3
100
AcDbCircle
 10
295.3960562460506
 20
142.8415640833295
 30
0.0
 40
10.99996168422862
100
AcDbArc
 50
270.0004023555699
 51
322.7653693177713
  0
LINE
  5
6E7
330
1A
100
AcDbEntity
  8
SEIHIN
  6
CONTINUOUS
 62
     3
100
AcDbLine
 10
290.8964334925054
 20
131.4422023993721
 30
0.0
 11
290.8964334925054
 21
131.841702399372
 31
0.0
  0
ARC
  5
6E8
330
1A
100
AcDbEntity
  8
SEIHIN
  6
CONTINUOUS
 62
     3
100
AcDbCircle
 10
290.4894870479458
 20
148.0190928287576
 30
0.0
 40
0.5000072937197095
100
AcDbArc
 50
202.6173737235518
 51
317.1117262707714
  0
LINE
  5
6E9
330
1A
100
AcDbEntity
  8
SEIHIN
  6
CONTINUOUS
 62
     3
100
AcDbLine
 10
290.8964334925054
 20
144.3422023993721
 30
0.0
 11
290.8964334925054
 21
142.8418023993721
 31
0.0
  0
LINE
  5
6EA
330
1A
100
AcDbEntity
  8
SEIHIN
  6
CONTINUOUS
 62
     3
100
AcDbLine
 10
289.8964334925054
 20
145.5422023993721
 30
0.0
 11
289.3964334925055
 21
144.3422023993721
 31
0.0
  0
ARC
  5
6EB
330
1A
100
AcDbEntity
  8
SEIHIN
  6
CONTINUOUS
 62
     3
100
AcDbCircle
 10
333.7672502260474
 20
151.6418110793646
 30
0.0
 40
10.00000868000649
100
AcDbArc
 50
269.9999041239497
 51
324.8330848664229
  0
LINE
  5
6EC
330
1A
100
AcDbEntity
  8
SEIHIN
  6
CONTINUOUS
 62
     3
100
AcDbLine
 10
335.6729334925055
 20
131.641802399372
 30
0.0
 11
331.5229334925055
 21
131.641802399372
 31
0.0
  0
LINE
  5
6ED
330
1A
100
AcDbEntity
  8
SEIHIN
  6
CONTINUOUS
 62
     3
100
AcDbLine
 10
331.5229334925055
 20
131.641802399372
 30
0.0
 11
331.5229334925055
 21
132.2417023993721
 31
0.0
  0
LINE
  5
6EE
330
1A
100
AcDbEntity
  8
SEIHIN
  6
CONTINUOUS
 62
     3
100
AcDbLine
 10
335.6729334925055
 20
131.641802399372
 30
0.0
 11
335.6729334925055
 21
132.2417023993721
 31
0.0
  0
ARC
  5
6EF
330
1A
100
AcDbEntity
  8
SEIHIN
  6
CONTINUOUS
 62
     3
100
AcDbCircle
 10
341.0292630606536
 20
137.6417658656051
 30
0.0
 40
4.999963466729137
100
AcDbArc
 50
270.0008070954669
 51
324.8333278278973
  0
LINE
  5
6F0
330
1A
100
AcDbEntity
  8
CENTER_L
  6
CENTER
 62
     1
 48
5.0
100
AcDbLine
 10
389.5186334925055
 20
146.053402399372
 30
0.0
 11
376.0041334925055
 21
146.053402399372
 31
0.0
  0
LINE
  5
6F1
330
1A
100
AcDbEntity
  8
CENTER_L
  6
CENTER
 62
     1
 48
5.0
100
AcDbLine
 10
376.1870334925053
 20
131.0534023993721
 30
0.0
 11
389.5186334925055
 21
131.0534023993721
 31
0.0
  0
LINE
  5
6F2
330
1A
100
AcDbEntity
  8
NOKITOI
  6
PHANTOM
 62
     8
 48
3.5
100
AcDbLine
 10
264.5507708047521
 20
135.9280652115089
 30
0.0
 11
267.4195708047523
 21
107.2406652115089
 31
0.0
  0
LINE
  5
6F3
330
1A
100
AcDbEntity
  8
NOKITOI
  6
PHANTOM
 62
     8
 48
3.5
100
AcDbLine
 10
265.5917708047522
 20
137.5783652115089
 30
0.0
 11
268.5847708047526
 21
107.6485652115088
 31
0.0
  0
ARC
  5
6F4
330
1A
100
AcDbEntity
  8
NOKITOI
  6
PHANTOM
 62
     8
 48
3.5
100
AcDbCircle
 10
269.0822882306306
 20
107.698232725121
 30
0.0
 40
0.4999904508696396
100
AcDbArc
 50
185.7009889250754
 51
230.7099153622041
  0
ARC
  5
6F5
330
1A
100
AcDbEntity
  8
NOKITOI
  6
PHANTOM
 62
     8
 48
3.5
100
AcDbCircle
 10
268.4145933776212
 20
107.3401231398363
 30
0.0
 40
0.9999908507640039
100
AcDbArc
 50
185.7137670522468
 51
230.7112907769303
  0
LINE
  5
6F6
330
1A
100
AcDbEntity
  8
SEIHIN
  6
CONTINUOUS
 62
     3
100
AcDbLine
 10
385.3962334925053
 20
124.0534023993722
 30
0.0
 11
379.3962334925053
 21
124.0534023993722
 31
0.0
  0
LINE
  5
6F7
330
1A
100
AcDbEntity
  8
NOKITOI
  6
PHANTOM
 62
     8
 48
3.5
100
AcDbLine
 10
257.4146708047523
 20
136.8285652115089
 30
0.0
 11
263.5557708047522
 21
136.8285652115089
 31
0.0
  0
LINE
  5
6F8
330
1A
100
AcDbEntity
  8
NOKITOI
  6
PHANTOM
 62
     8
 48
3.5
100
AcDbLine
 10
265.0942708047527
 20
138.0285652115089
 30
0.0
 11
259.0623708047524
 21
138.0285652115089
 31
0.0
  0
ARC
  5
6F9
330
1A
100
AcDbEntity
  8
NOKITOI
  6
PHANTOM
 62
     8
 48
3.5
100
AcDbCircle
 10
260.9758017316885
 20
142.8286009561727
 30
0.0
 40
3.99998565374706
100
AcDbArc
 50
96.47577619531674
 51
181.7913033408985
  0
LINE
  5
6FA
330
1A
100
AcDbEntity
  8
SEIHIN
  6
CONTINUOUS
 62
     3
100
AcDbLine
 10
367.1228334925054
 20
135.0581023993721
 30
0.0
 11
376.0104334925054
 21
129.3308023993721
 31
0.0
  0
LINE
  5
6FB
330
1A
100
AcDbEntity
  8
SEIHIN
  6
CONTINUOUS
 62
     3
100
AcDbLine
 10
376.6604334925054
 20
130.3395023993721
 30
0.0
 11
367.7728334925053
 21
136.0668023993721
 31
0.0
  0
ARC
  5
6FC
330
1A
100
AcDbEntity
  8
NOKITOI
  6
PHANTOM
 62
     8
 48
3.5
100
AcDbCircle
 10
263.5557501549115
 20
135.8285838993581
 30
0.0
 40
0.9999813123640345
100
AcDbArc
 50
5.709409966648967
 51
89.99881682915043
  0
LINE
  5
6FD
330
1A
100
AcDbEntity
  8
SEIHIN
  6
CONTINUOUS
 62
     3
100
AcDbLine
 10
359.6229334925053
 20
133.1417023993722
 30
0.0
 11
359.6229334925053
 21
140.6417023993722
 31
0.0
  0
LINE
  5
6FE
330
1A
100
AcDbEntity
  8
SEIHIN
  6
CONTINUOUS
 62
     3
100
AcDbLine
 10
360.0229334925055
 20
133.1417023993722
 30
0.0
 11
360.0229334925055
 21
140.6417023993722
 31
0.0
  0
LINE
  5
6FF
330
1A
100
AcDbEntity
  8
SEIHIN
  6
CONTINUOUS
 62
     3
100
AcDbLine
 10
361.6229334925053
 20
140.6417023993722
 30
0.0
 11
361.6229334925053
 21
133.1417023993722
 31
0.0
  0
ARC
  5
700
330
1A
100
AcDbEntity
  8
SEIHIN
  6
CONTINUOUS
 62
     3
100
AcDbCircle
 10
359.1229334925054
 20
133.1417023993722
 30
0.0
 40
0.9000000000000767
100
AcDbArc
 50
269.9999999999954
 51
359.9999999999954
  0
ARC
  5
701
330
1A
100
AcDbEntity
  8
SEIHIN
  6
CONTINUOUS
 62
     3
100
AcDbCircle
 10
360.7229334925053
 20
133.1417023993721
 30
0.0
 40
0.8999999999999914
100
AcDbArc
 50
270.0000000000009
 51
0.0000000000009047
  0
ARC
  5
702
330
1A
100
AcDbEntity
  8
SEIHIN
  6
CONTINUOUS
 62
     3
100
AcDbCircle
 10
359.1229334925053
 20
133.1417023993722
 30
0.0
 40
0.5
100
AcDbArc
 50
270.0
 51
0.0
  0
LINE
  5
703
330
1A
100
AcDbEntity
  8
SEIHIN
  6
CONTINUOUS
 62
     3
100
AcDbLine
 10
367.7728334925053
 20
136.0668023993721
 30
0.0
 11
367.1228334925054
 21
135.0581023993721
 31
0.0
  0
LINE
  5
704
330
1A
100
AcDbEntity
  8
SEIHIN
  6
CONTINUOUS
 62
     3
100
AcDbLine
 10
361.6229334925053
 20
140.6417023993722
 30
0.0
 11
359.6229334925053
 21
140.6417023993722
 31
0.0
  0
LINE
  5
705
330
1A
100
AcDbEntity
  8
NOKITOI
  6
PHANTOM
 62
     8
 48
3.5
100
AcDbLine
 10
261.4377708047523
 20
148.0285652115089
 30
0.0
 11
260.9757708047522
 21
148.0285652115089
 31
0.0
  0
ARC
  5
706
330
1A
100
AcDbEntity
  8
NOKITOI
  6
PHANTOM
 62
     8
 48
3.5
100
AcDbCircle
 10
265.0942577337477
 20
137.5285770417888
 30
0.0
 40
0.499988169890889
100
AcDbArc
 50
5.703393862284335
 51
89.99850213773372
  0
LINE
  5
707
330
1A
100
AcDbEntity
  8
NOKITOI
  6
PHANTOM
 62
     8
 48
3.5
100
AcDbLine
 10
262.0443708047528
 20
144.5285652115089
 30
0.0
 11
262.4483708047523
 21
147.3569652115088
 31
0.0
  0
LINE
  5
708
330
1A
100
AcDbEntity
  8
NOKITOI
  6
PHANTOM
 62
     8
 48
3.5
100
AcDbLine
 10
262.8222708047524
 20
144.5285652115089
 30
0.0
 11
262.0443708047528
 21
144.5285652115089
 31
0.0
  0
ARC
  5
709
330
1A
100
AcDbEntity
  8
NOKITOI
  6
PHANTOM
 62
     8
 48
3.5
100
AcDbCircle
 10
260.5810414322527
 20
146.3061954440038
 30
0.0
 40
0.4999578477751074
100
AcDbArc
 50
351.8669438287075
 51
96.47390928779223
  0
LINE
  5
70A
330
1A
100
AcDbEntity
  8
NOKITOI
  6
PHANTOM
 62
     8
 48
3.5
100
AcDbLine
 10
263.4863708047523
 20
143.3285652115089
 30
0.0
 11
261.2372708047528
 21
143.3285652115089
 31
0.0
  0
ARC
  5
70B
330
1A
100
AcDbEntity
  8
NOKITOI
  6
PHANTOM
 62
     8
 48
3.5
100
AcDbCircle
 10
263.4863666833457
 20
143.8285613014784
 30
0.0
 40
0.4999960899864752
100
AcDbArc
 50
270.0004722821405
 51
356.9852756208263
  0
ARC
  5
70C
330
1A
100
AcDbEntity
  8
NOKITOI
  6
PHANTOM
 62
     8
 48
3.5
100
AcDbCircle
 10
261.2372606183162
 20
143.828576956233
 30
0.0
 40
0.5000117448278309
100
AcDbArc
 50
171.8726853912841
 51
270.0011672521981
  0
LINE
  5
70D
330
1A
100
AcDbEntity
  8
NOKITOI
  6
PHANTOM
 62
     8
 48
3.5
100
AcDbLine
 10
260.7422708047524
 20
143.8992652115089
 30
0.0
 11
261.0760708047523
 21
146.2354652115091
 31
0.0
  0
LINE
  5
70E
330
1A
100
AcDbEntity
  8
NOKITOI
  6
PHANTOM
 62
     8
 48
3.5
100
AcDbLine
 10
262.8222708047524
 20
144.5285652115089
 30
0.0
 11
263.0033708047526
 21
147.9699652115089
 31
0.0
  0
LINE
  5
70F
330
1A
100
AcDbEntity
  8
NOKITOI
  6
PHANTOM
 62
     8
 48
3.5
100
AcDbLine
 10
262.4483708047523
 20
147.3569652115088
 30
0.0
 11
263.0033708047526
 21
147.9699652115089
 31
0.0
  0
ARC
  5
710
330
1A
100
AcDbEntity
  8
SEIHIN
  6
CONTINUOUS
 62
     3
100
AcDbCircle
 10
378.3229334925055
 20
136.6418023993721
 30
0.0
 40
0.8000000000000255
100
AcDbArc
 50
269.9999999999929
 51
359.9999999999929
  0
ARC
  5
711
330
1A
100
AcDbEntity
  8
SEIHIN
  6
CONTINUOUS
 62
     3
100
AcDbCircle
 10
376.8229242511234
 20
130.5916973602728
 30
0.0
 40
0.3000092414243032
100
AcDbArc
 50
237.2060685516539
 51
0.0009623674157058
  0
ARC
  5
712
330
1A
100
AcDbEntity
  8
SEIHIN
  6
CONTINUOUS
 62
     3
100
AcDbCircle
 10
376.8229293158503
 20
130.5917001220422
 30
0.0
 40
1.500004176656739
100
AcDbArc
 50
237.2031242963036
 51
0.0000869873492797
  0
ARC
  5
713
330
1A
100
AcDbEntity
  8
NOKITOI
  6
PHANTOM
 62
     8
 48
3.5
100
AcDbCircle
 10
257.4146535915742
 20
138.3285818946567
 30
0.0
 40
1.500016683246579
100
AcDbArc
 50
181.7923576755889
 51
270.0006574876651
  0
ARC
  5
714
330
1A
100
AcDbEntity
  8
NOKITOI
  6
PHANTOM
 62
     8
 48
3.5
100
AcDbCircle
 10
259.0623328169281
 20
140.0285020320811
 30
0.0
 40
2.000036820932882
100
AcDbArc
 50
181.7889408725803
 51
270.001088250966
  0
LINE
  5
715
330
1A
100
AcDbEntity
  8
NOKITOI
  6
PHANTOM
 62
     8
 48
3.5
100
AcDbLine
 10
257.0632708047523
 20
139.965965211509
 30
0.0
 11
256.9777708047527
 21
142.7035652115089
 31
0.0
  0
LINE
  5
716
330
1A
100
AcDbEntity
  8
SEIHIN
  6
CONTINUOUS
 62
     3
100
AcDbLine
 10
285.3964334925055
 20
148.5422023993721
 30
0.0
 11
288.6464334925054
 21
148.5422023993721
 31
0.0
  0
LINE
  5
717
330
1A
100
AcDbEntity
  8
SEIHIN
  6
CONTINUOUS
 62
     3
100
AcDbLine
 10
285.3965334925055
 20
149.8422023993721
 30
0.0
 11
287.8964334925054
 21
149.8422023993721
 31
0.0
  0
ARC
  5
718
330
1A
100
AcDbEntity
  8
NOKITOI
  6
PHANTOM
 62
     8
 48
3.5
100
AcDbCircle
 10
373.3972580539025
 20
150.8285783665953
 30
0.0
 40
1.999986844954076
100
AcDbArc
 50
358.21169271173
 51
89.99963471264475
  0
ARC
  5
719
330
1A
100
AcDbEntity
  8
NOKITOI
  6
PHANTOM
 62
     8
 48
3.5
100
AcDbCircle
 10
367.1193770059103
 20
149.8285717465942
 30
0.0
 40
0.4999934649531607
100
AcDbArc
 50
90.00071060961996
 51
183.0044636796616
  0
ARC
  5
71A
330
1A
100
AcDbEntity
  8
NOKITOI
  6
PHANTOM
 62
     8
 48
3.5
100
AcDbCircle
 10
373.3972663099543
 20
150.8285698490358
 30
0.0
 40
0.7999953624857498
100
AcDbArc
 50
358.20887265358
 51
89.99967808194661
  0
LINE
  5
71B
330
1A
100
AcDbEntity
  8
NOKITOI
  6
PHANTOM
 62
     8
 48
3.5
100
AcDbLine
 10
370.9244708047522
 20
151.6285652115091
 30
0.0
 11
371.4244708047522
 21
149.1285652115091
 31
0.0
  0
LINE
  5
71C
330
1A
100
AcDbEntity
  8
NOKITOI
  6
PHANTOM
 62
     8
 48
3.5
100
AcDbLine
 10
371.4244708047522
 20
149.1285652115091
 30
0.0
 11
368.4879708047524
 21
149.1285652115091
 31
0.0
  0
ARC
  5
71D
330
1A
100
AcDbEntity
  8
NOKITOI
  6
PHANTOM
 62
     8
 48
3.5
100
AcDbCircle
 10
370.0706715877609
 20
152.3285661665106
 30
0.0
 40
0.4999990449987349
100
AcDbArc
 50
90.00008972630549
 51
191.3032801984551
  0
LINE
  5
71E
330
1A
100
AcDbEntity
  8
NOKITOI
  6
PHANTOM
 62
     8
 48
3.5
100
AcDbLine
 10
373.3972708047526
 20
152.8285652115089
 30
0.0
 11
370.0706708047523
 21
152.8285652115089
 31
0.0
  0
ARC
  5
71F
330
1A
100
AcDbEntity
  8
NOKITOI
  6
PHANTOM
 62
     8
 48
3.5
100
AcDbCircle
 10
369.3508780593079
 20
150.8285740613523
 30
0.0
 40
0.5000088498959383
100
AcDbArc
 50
269.9991687038565
 51
11.31359566951149
  0
LINE
  5
720
330
1A
100
AcDbEntity
  8
NOKITOI
  6
PHANTOM
 62
     8
 48
3.5
100
AcDbLine
 10
373.3972708047526
 20
151.6285652115091
 30
0.0
 11
370.9244708047522
 21
151.6285652115091
 31
0.0
  0
LINE
  5
721
330
1A
100
AcDbEntity
  8
NOKITOI
  6
PHANTOM
 62
     8
 48
3.5
100
AcDbLine
 10
369.8411708047524
 20
150.9266652115088
 30
0.0
 11
369.5803708047524
 21
152.2305652115089
 31
0.0
  0
LINE
  5
722
330
1A
100
AcDbEntity
  8
NOKITOI
  6
PHANTOM
 62
     8
 48
3.5
100
AcDbLine
 10
367.1193708047526
 20
150.3285652115089
 30
0.0
 11
369.3508708047525
 21
150.3285652115089
 31
0.0
  0
LINE
  5
723
330
1A
100
AcDbEntity
  8
SEIHIN
  6
CONTINUOUS
 62
     3
100
AcDbLine
 10
278.8755334925055
 20
154.9540023993721
 30
0.0
 11
277.1231334925055
 21
154.4844023993721
 31
0.0
  0
LINE
  5
724
330
1A
100
AcDbEntity
  8
SEIHIN
  6
CONTINUOUS
 62
     3
100
AcDbLine
 10
277.3819334925055
 20
153.5185023993721
 30
0.0
 11
279.1343334925055
 21
153.988002399372
 31
0.0
  0
LINE
  5
725
330
1A
100
AcDbEntity
  8
SEIHIN
  6
CONTINUOUS
 62
     3
100
AcDbLine
 10
276.1519334925054
 20
152.4016023993721
 30
0.0
 11
277.4693334925055
 21
149.576602399372
 31
0.0
  0
ARC
  5
726
330
1A
100
AcDbEntity
  8
SEIHIN
  6
CONTINUOUS
 62
     3
100
AcDbCircle
 10
277.5111897663848
 20
153.0354086247327
 30
0.0
 40
1.499986154316325
100
AcDbArc
 50
104.9972828703589
 51
204.999354496576
  0
ARC
  5
727
330
1A
100
AcDbEntity
  8
SEIHIN
  6
CONTINUOUS
 62
     3
100
AcDbCircle
 10
277.5114322318507
 20
153.0354996962178
 30
0.0
 40
0.5000356437280149
100
AcDbArc
 50
104.9976264979378
 51
204.9965994016828
  0
LINE
  5
728
330
1A
100
AcDbEntity
  8
SEIHIN
  6
CONTINUOUS
 62
     3
100
AcDbLine
 10
278.3756334925054
 20
149.9992023993721
 30
0.0
 11
277.0582334925055
 21
152.8242023993721
 31
0.0
  0
LINE
  5
729
330
1A
100
AcDbEntity
  8
SEIHIN
  6
CONTINUOUS
 62
     3
100
AcDbLine
 10
282.1464334925054
 20
148.5422023993721
 30
0.0
 11
280.7126334925054
 21
153.893302399372
 31
0.0
  0
LINE
  5
72A
330
1A
100
AcDbEntity
  8
SEIHIN
  6
CONTINUOUS
 62
     3
100
AcDbLine
 10
282.8964334925055
 20
149.8422023993721
 30
0.0
 11
282.8964334925055
 21
148.5422023993721
 31
0.0
  0
LINE
  5
72B
330
1A
100
AcDbEntity
  8
SEIHIN
  6
CONTINUOUS
 62
     3
100
AcDbLine
 10
279.7467334925054
 20
153.6345023993721
 30
0.0
 11
281.0483334925054
 21
148.776902399372
 31
0.0
  0
ARC
  5
72C
330
1A
100
AcDbEntity
  8
SEIHIN
  6
CONTINUOUS
 62
     3
100
AcDbCircle
 10
280.5653408961211
 20
148.6476135303087
 30
0.0
 40
0.4999974598192515
100
AcDbArc
 50
337.3671721304062
 51
14.98576480168426
  0
LINE
  5
72D
330
1A
100
AcDbEntity
  8
SEIHIN
  6
CONTINUOUS
 62
     3
100
AcDbLine
 10
285.3964334925055
 20
148.5422023993721
 30
0.0
 11
282.1464334925054
 21
148.5422023993721
 31
0.0
  0
ARC
  5
72E
330
1A
100
AcDbEntity
  8
SEIHIN
  6
CONTINUOUS
 62
     3
100
AcDbCircle
 10
279.2637334925054
 20
153.5051023993721
 30
0.0
 40
1.500003483329275
100
AcDbArc
 50
14.99883465682989
 51
104.9988346568288
  0
ARC
  5
72F
330
1A
100
AcDbEntity
  8
SEIHIN
  6
CONTINUOUS
 62
     3
100
AcDbCircle
 10
279.2637926413954
 20
153.505068248821
 30
0.0
 40
0.4999850647766187
100
AcDbArc
 50
15.00338042543092
 51
105.0063462322125
  0
LINE
  5
730
330
1A
100
AcDbEntity
  8
SEIHIN
  6
CONTINUOUS
 62
     3
100
AcDbLine
 10
285.3964334925055
 20
149.8422023993721
 30
0.0
 11
282.8965334925054
 21
149.8422023993721
 31
0.0
  0
LINE
  5
731
330
1A
100
AcDbEntity
  8
SEIHIN
  6
CONTINUOUS
 62
     3
100
AcDbLine
 10
372.7861334925053
 20
161.908102399372
 30
0.0
 11
325.0589334925055
 21
157.732502399372
 31
0.0
  0
LINE
  5
732
330
1A
100
AcDbEntity
  8
SEIHIN
  6
CONTINUOUS
 62
     3
100
AcDbLine
 10
318.8072334925055
 20
168.2276023993721
 30
0.0
 11
379.9605334925053
 21
173.5778023993721
 31
0.0
  0
ARC
  5
733
330
1A
100
AcDbEntity
  8
SEIHIN
  6
CONTINUOUS
 62
     3
100
AcDbCircle
 10
326.0176841257875
 20
146.7743751670188
 30
0.0
 40
10.99998015803363
100
AcDbArc
 50
94.99968206066078
 51
142.7650136123995
  0
LINE
  5
734
330
1A
100
AcDbEntity
  8
SEIHIN
  6
CONTINUOUS
 62
     3
100
AcDbLine
 10
287.8964334925054
 20
149.8422023993721
 30
0.0
 11
287.8964334925054
 21
148.5422023993721
 31
0.0
  0
LINE
  5
735
330
1A
100
AcDbEntity
  8
SEIHIN
  6
CONTINUOUS
 62
     3
100
AcDbLine
 10
288.6464334925054
 20
148.5422023993721
 30
0.0
 11
290.0802334925055
 21
153.893302399372
 31
0.0
  0
LINE
  5
736
330
1A
100
AcDbEntity
  8
SEIHIN
  6
CONTINUOUS
 62
     3
100
AcDbLine
 10
291.0462334925055
 20
153.6345023993721
 30
0.0
 11
289.7446334925055
 21
148.776902399372
 31
0.0
  0
LINE
  5
737
330
1A
100
AcDbEntity
  8
SEIHIN
  6
CONTINUOUS
 62
     3
100
AcDbLine
 10
294.6410334925054
 20
152.4016023993721
 30
0.0
 11
293.3236334925055
 21
149.5765023993722
 31
0.0
  0
ARC
  5
738
330
1A
100
AcDbEntity
  8
SEIHIN
  6
CONTINUOUS
 62
     3
100
AcDbCircle
 10
290.2276260888897
 20
148.6476135303085
 30
0.0
 40
0.4999974598192433
100
AcDbArc
 50
165.0142351983003
 51
202.6328278695783
  0
LINE
  5
739
330
1A
100
AcDbEntity
  8
SEIHIN
  6
CONTINUOUS
 62
     3
100
AcDbLine
 10
292.4173334925054
 20
149.999102399372
 30
0.0
 11
293.7347334925055
 21
152.8242023993721
 31
0.0
  0
LINE
  5
73A
330
1A
100
AcDbEntity
  8
SEIHIN
  6
CONTINUOUS
 62
     3
100
AcDbLine
 10
293.4109334925054
 20
153.5185023993721
 30
0.0
 11
291.6586334925055
 21
153.988002399372
 31
0.0
  0
LINE
  5
73B
330
1A
100
AcDbEntity
  8
SEIHIN
  6
CONTINUOUS
 62
     3
100
AcDbLine
 10
291.9174334925055
 20
154.9539023993721
 30
0.0
 11
293.6697334925055
 21
154.4844023993721
 31
0.0
  0
ARC
  5
73C
330
1A
100
AcDbEntity
  8
SEIHIN
  6
CONTINUOUS
 62
     3
100
AcDbCircle
 10
291.5291493479049
 20
153.5051115511496
 30
0.0
 40
0.4999497124710582
100
AcDbArc
 50
74.98960193149142
 51
165.0006714108604
  0
ARC
  5
73D
330
1A
100
AcDbEntity
  8
SEIHIN
  6
CONTINUOUS
 62
     3
100
AcDbCircle
 10
291.5291493433485
 20
153.5051115502453
 30
0.0
 40
1.49991983285781
100
AcDbArc
 50
74.99698136388461
 51
165.0006710971759
  0
ARC
  5
73E
330
1A
100
AcDbEntity
  8
SEIHIN
  6
CONTINUOUS
 62
     3
100
AcDbCircle
 10
293.281509753315
 20
153.0355533076596
 30
0.0
 40
0.4999903293584294
100
AcDbArc
 50
334.9942007564508
 51
74.99801644262437
  0
ARC
  5
73F
330
1A
100
AcDbEntity
  8
SEIHIN
  6
CONTINUOUS
 62
     3
100
AcDbCircle
 10
293.2815139179279
 20
153.0355443761199
 30
0.0
 40
1.499968002867949
100
AcDbArc
 50
334.9988153855737
 51
75.00002814091931
  0
ARC
  5
740
330
1A
100
AcDbEntity
  8
SEIHIN
  6
CONTINUOUS
 62
     3
100
AcDbCircle
 10
319.6787600335623
 20
158.2656170400749
 30
0.0
 40
10.00003554046772
100
AcDbArc
 50
94.99980454311128
 51
142.7649416392053
  0
ARC
  5
741
330
1A
100
AcDbEntity
  8
SEIHIN
  6
CONTINUOUS
 62
     3
100
AcDbCircle
 10
364.309966082818
 20
144.6416329746481
 30
0.0
 40
18.99997847600438
100
AcDbArc
 50
125.8511371730364
 51
144.8329563885987
  0
LINE
  5
742
330
1A
100
AcDbEntity
  8
CENTER_L
  6
CENTER
 62
     1
 48
5.0
100
AcDbLine
 10
389.5186334925055
 20
152.0534023993722
 30
0.0
 11
375.9309334925053
 21
152.0534023993722
 31
0.0
  0
ARC
  5
743
330
1A
100
AcDbEntity
  8
SEIHIN
  6
CONTINUOUS
 62
     3
100
AcDbCircle
 10
380.3962237180245
 20
168.5968113561788
 30
0.0
 40
5.000009774488908
100
AcDbArc
 50
359.9998973627561
 51
94.99897232982265
  0
LINE
  5
744
330
1A
100
AcDbEntity
  8
NOKITOI
  6
PHANTOM
 62
     8
 48
3.5
100
AcDbLine
 10
257.5242708047521
 20
152.8284652115089
 30
0.0
 11
260.8508708047525
 21
152.8285652115089
 31
0.0
  0
LINE
  5
745
330
1A
100
AcDbEntity
  8
NOKITOI
  6
PHANTOM
 62
     8
 48
3.5
100
AcDbLine
 10
259.4969708047524
 20
149.1285652115091
 30
0.0
 11
262.4335708047524
 21
149.1285652115091
 31
0.0
  0
LINE
  5
746
330
1A
100
AcDbEntity
  8
SEIHIN
  6
CONTINUOUS
 62
     3
100
AcDbLine
 10
372.1229334925053
 20
154.641802399372
 30
0.0
 11
364.3101334925055
 21
154.641802399372
 31
0.0
  0
ARC
  5
747
330
1A
100
AcDbEntity
  8
SEIHIN
  6
CONTINUOUS
 62
     3
100
AcDbCircle
 10
364.3101722757796
 20
144.6418225171625
 30
0.0
 40
9.999979882284733
100
AcDbArc
 50
90.00022221223941
 51
144.8338713373223
  0
LINE
  5
748
330
1A
100
AcDbEntity
  8
NOKITOI
  6
PHANTOM
 62
     8
 48
3.5
100
AcDbLine
 10
263.8021708047522
 20
150.3285652115089
 30
0.0
 11
261.5706708047523
 21
150.3285652115089
 31
0.0
  0
ARC
  5
749
330
1A
100
AcDbEntity
  8
NOKITOI
  6
PHANTOM
 62
     8
 48
3.5
100
AcDbCircle
 10
263.8021670952571
 20
149.8285691215396
 30
0.0
 40
0.4999960899831856
100
AcDbArc
 50
356.9843782585345
 51
89.99957491984867
  0
ARC
  5
74A
330
1A
100
AcDbEntity
  8
NOKITOI
  6
PHANTOM
 62
     8
 48
3.5
100
AcDbCircle
 10
260.8508780593079
 20
152.3285563616655
 30
0.0
 40
0.500008849895925
100
AcDbArc
 50
348.6864043304882
 51
90.00083129614507
  0
ARC
  5
74B
330
1A
100
AcDbEntity
  8
NOKITOI
  6
PHANTOM
 62
     8
 48
3.5
100
AcDbCircle
 10
261.5706715877609
 20
150.8285642565072
 30
0.0
 40
0.4999990449987399
100
AcDbArc
 50
168.6967198015449
 51
269.9999102736945
  0
LINE
  5
74C
330
1A
100
AcDbEntity
  8
NOKITOI
  6
PHANTOM
 62
     8
 48
3.5
100
AcDbLine
 10
261.0803708047524
 20
150.9265652115091
 30
0.0
 11
261.3411708047524
 21
152.2305652115089
 31
0.0
  0
ARC
  5
74D
330
1A
100
AcDbEntity
  8
SEIHIN
  6
CONTINUOUS
 62
     3
100
AcDbCircle
 10
374.3962632397263
 20
154.9347872432182
 30
0.0
 40
6.999955898110282
100
AcDbArc
 50
36.04194089801583
 51
95.00035652508309
  0
LINE
  5
74E
330
1A
100
AcDbEntity
  8
SEIHIN
  6
CONTINUOUS
 62
     3
100
AcDbLine
 10
375.1221334925055
 20
158.0434023993721
 30
0.0
 11
371.2608334925055
 21
161.6236023993722
 31
0.0
  0
ARC
  5
74F
330
1A
100
AcDbEntity
  8
SEIHIN
  6
CONTINUOUS
 62
     3
100
AcDbCircle
 10
372.1229385690608
 20
149.6417860160145
 30
0.0
 40
6.999994923944155
100
AcDbArc
 50
359.999315587974
 51
34.43324082298369
  0
ARC
  5
750
330
1A
100
AcDbEntity
  8
SEIHIN
  6
CONTINUOUS
 62
     3
100
AcDbCircle
 10
368.3229199162738
 20
150.7105335016916
 30
0.0
 40
10.00001357627999
100
AcDbArc
 50
359.9998217970772
 51
47.1625741688286
  0
ARC
  5
751
330
1A
100
AcDbEntity
  8
SEIHIN
  6
CONTINUOUS
 62
     3
100
AcDbCircle
 10
372.1229334930054
 20
149.641802398872
 30
0.0
 40
5.000000000500024
100
AcDbArc
 50
359.9988540901406
 51
90.0000000057305
  0
LINE
  5
752
330
1A
100
AcDbEntity
  8
NOKITOI
  6
PHANTOM
 62
     8
 48
3.5
100
AcDbLine
 10
257.5242708047521
 20
151.6284652115089
 30
0.0
 11
259.9969708047524
 21
151.6285652115091
 31
0.0
  0
LINE
  5
753
330
1A
100
AcDbEntity
  8
NOKITOI
  6
PHANTOM
 62
     8
 48
3.5
100
AcDbLine
 10
259.9969708047524
 20
151.6285652115091
 30
0.0
 11
259.4969708047524
 21
149.1285652115091
 31
0.0
  0
ARC
  5
754
330
1A
100
AcDbEntity
  8
NOKITOI
  6
PHANTOM
 62
     8
 48
3.5
100
AcDbCircle
 10
257.5242268383994
 20
150.8285198490359
 30
0.0
 40
0.7999453636812564
100
AcDbArc
 50
89.99685092684627
 51
181.7876563552118
  0
ARC
  5
755
330
1A
100
AcDbEntity
  8
NOKITOI
  6
PHANTOM
 62
     8
 48
3.5
100
AcDbCircle
 10
257.5242820417465
 20
150.828576805326
 30
0.0
 40
1.999988406214315
100
AcDbArc
 50
90.0003219180439
 51
181.791127346407
  0
LINE
  5
756
330
1A
100
AcDbEntity
  8
SEIHIN
  6
CONTINUOUS
 62
     3
100
AcDbLine
 10
385.3962334925053
 20
159.0534023993722
 30
0.0
 11
379.3962334925053
 21
159.0534023993722
 31
0.0
  0
LINE
  5
757
330
1A
100
AcDbEntity
  8
SEIHIN
100
AcDbLine
 10
374.5128334925053
 20
161.908102399372
 30
0.0
 11
375.5128334925053
 21
161.908102399372
 31
0.0
  0
ARC
  5
758
330
1A
100
AcDbEntity
  8
SEIHIN
  6
PHANTOM
 62
     6
 48
5.0
100
AcDbCircle
 10
409.3962632397264
 20
154.9347872432183
 30
0.0
 40
6.999955898110139
100
AcDbArc
 50
36.04194089801497
 51
95.0003565250825
  0
LINE
  5
759
330
1A
100
AcDbEntity
  8
SEIHIN
  6
PHANTOM
 62
     6
 48
5.0
100
AcDbLine
 10
407.7861334925055
 20
161.908102399372
 30
0.0
 11
403.1526334925056
 21
161.5027023993722
 31
0.0
  0
LINE
  5
75A
330
1A
100
AcDbEntity
  8
SEIHIN
 62
     6
100
AcDbLine
 10
407.7861334925055
 20
161.908102399372
 30
0.0
 11
408.7861334925055
 21
161.908102399372
 31
0.0
  0
LINE
  5
75B
330
1A
100
AcDbEntity
  8
SEIHIN
  6
PHANTOM
 62
     6
 48
5.0
100
AcDbLine
 10
403.1526334925056
 20
172.5448023993721
 30
0.0
 11
414.9605334925054
 21
173.5778023993721
 31
0.0
  0
LINE
  5
75C
330
1A
100
AcDbEntity
  8
SEIHIN
  6
PHANTOM
 62
     6
 48
5.0
100
AcDbLine
 10
419.3962334925054
 20
124.0534023993722
 30
0.0
 11
419.3962334925054
 21
159.0534023993722
 31
0.0
  0
LINE
  5
75D
330
1A
100
AcDbEntity
  8
SEIHIN
  6
PHANTOM
 62
     6
 48
5.0
100
AcDbLine
 10
420.3962334925053
 20
168.5968023993721
 30
0.0
 11
420.3962334925053
 21
124.0534023993722
 31
0.0
  0
DIMENSION
  5
7D4
330
1A
100
AcDbEntity
  8
SUNPOU
100
AcDbDimension
  2
*D13
 10
231.516102562854
 20
434.1750497029024
 30
0.0
 11
226.5161025628539
 21
440.4750497029025
 31
0.0
 70
    32
  3
STANDARD
100
AcDbAlignedDimension
 13
258.2986334925054
 23
446.7750497029026
 33
0.0
 14
258.2986334925054
 24
434.1750497029024
 34
0.0
 50
90.0
100
AcDbRotatedDimension
1001
ACAD
1000
DSTYLE
1002
{
1070
   140
1040
6.0
1070
    74
1070
     0
1070
   172
1070
     1
1070
    73
1070
     0
1070
   272
1070
     2
1070
    77
1070
     3
1070
   173
1070
     1
1070
   147
1040
2.0
1070
    42
1040
6.0
1070
    44
1040
3.0
1070
    43
1040
14.0
1070
   271
1070
     0
1070
   178
1070
     4
1070
   177
1070
     4
1070
   176
1070
     4
1070
   141
1040
150.0
1070
     7
1000
_OPEN
1070
     6
1000
_OPEN
1070
    41
1040
7.0
1002
}
  0
TEXT
  5
7D6
330
1A
100
AcDbEntity
  8
SUNPOU
100
AcDbText
 10
414.6740592787248
 20
367.8844962470886
 30
0.0
 40
6.0
  1
スライド巾　
100
AcDbText
  0
TEXT
  5
7D7
330
1A
100
AcDbEntity
  8
SUNPOU
 62
     4
100
AcDbText
 10
284.2440700201341
 20
75.63707715071086
 30
0.0
 40
8.0
  1
軒樋の差し替え
100
AcDbText
  0
LEADER
  5
859
330
1A
100
AcDbEntity
  8
SUNPOU
 62
     4
100
AcDbLeader
  3
STANDARD
 73
     0
 40
6.0
 41
31.19999999999999
 76
     3
 10
579.7632753022865
 20
292.2064234923083
 30
0.0
 10
569.6750477388413
 20
283.1744117922401
 30
0.0
 10
567.8468745944537
 20
283.1744117922401
 30
0.0
1001
ACAD
1000
DSTYLE
1002
{
1070
     6
1000
OPEN
1070
    41
1040
7.0
1070
    42
1040
6.0
1070
    43
1040
14.0
1070
    44
1040
3.0
1070
    73
1070
     0
1070
    74
1070
     0
1070
    77
1070
     3
1070
   140
1040
6.0
1070
   141
1040
150.0
1070
   147
1040
2.0
1070
   172
1070
     1
1070
   173
1070
     1
1070
   176
1070
     4
1070
   177
1070
     4
1070
   178
1070
     4
1070
   271
1070
     0
1070
   272
1070
     2
1070
   341
1005
6D
1070
   343
1005
6D
1070
   344
1005
6D
1002
}
  0
MTEXT
  5
85A
330
1A
100
AcDbEntity
  8
SUNPOU
 62
     4
100
AcDbMText
 10
565.8468745944538
 20
285.1744117922401
 30
0.0
 40
6.0
 41
0.0
 71
     9
 72
     5
  1
2-φ6.5
1001
ACAD
1000
MTEXTBEGIN
1070
    73
1070
     1
1070
    44
1040
1.0
1070
    74
1070
     0
1000
MTEXTEND
1000
MTEXTBEGIN
1070
    73
1070
     1
1070
    44
1040
1.0
1070
    74
1070
     0
1000
MTEXTEND
1000
MTEXTBEGIN
1070
    73
1070
     1
1070
    44
1040
1.0
1070
    74
1070
     0
1000
MTEXTEND
  0
LEADER
  5
85B
330
1A
100
AcDbEntity
  8
SUNPOU
 62
     4
100
AcDbLeader
  3
STANDARD
 73
     0
 40
6.0
 41
31.19999999999999
 76
     3
 10
580.2355889966257
 20
302.5949598516699
 30
0.0
 10
569.5226978444548
 20
316.9651582490723
 30
0.0
 10
567.6945272588922
 20
316.9651582490723
 30
0.0
1001
ACAD
1000
DSTYLE
1002
{
1070
     6
1000
OPEN
1070
    41
1040
7.0
1070
    42
1040
6.0
1070
    43
1040
14.0
1070
    44
1040
3.0
1070
    73
1070
     0
1070
    74
1070
     0
1070
    77
1070
     3
1070
   140
1040
6.0
1070
   141
1040
150.0
1070
   147
1040
2.0
1070
   172
1070
     1
1070
   173
1070
     1
1070
   176
1070
     4
1070
   177
1070
     4
1070
   178
1070
     4
1070
   271
1070
     0
1070
   272
1070
     2
1070
   341
1005
6D
1070
   343
1005
6D
1070
   344
1005
6D
1002
}
  0
MTEXT
  5
85C
330
1A
100
AcDbEntity
  8
SUNPOU
 62
     4
100
AcDbMText
 10
565.6945272588923
 20
318.9651582490723
 30
0.0
 40
6.0
 41
0.0
 71
     9
 72
     5
  1
4-φ4.2
1001
ACAD
1000
MTEXTBEGIN
1070
    73
1070
     1
1070
    44
1040
1.0
1070
    74
1070
     0
1000
MTEXTEND
1000
MTEXTBEGIN
1070
    73
1070
     1
1070
    44
1040
1.0
1070
    74
1070
     0
1000
MTEXTEND
1000
MTEXTBEGIN
1070
    73
1070
     1
1070
    44
1040
1.0
1070
    74
1070
     0
1000
MTEXTEND
  0
DIMENSION
  5
89D
330
1A
100
AcDbEntity
  8
SUNPOU
100
AcDbDimension
  2
*D14
 10
229.789402562854
 20
272.9374497029026
 30
0.0
 11
224.789402562854
 21
284.2316497029025
 31
0.0
 70
    32
  3
STANDARD
100
AcDbAlignedDimension
 13
257.9219334925054
 23
295.5258497029025
 33
0.0
 14
379.3962334925053
 24
272.9374497029026
 34
0.0
 50
90.0
100
AcDbRotatedDimension
1001
ACAD
1000
DSTYLE
1002
{
1070
   140
1040
6.0
1070
    74
1070
     0
1070
   172
1070
     1
1070
    73
1070
     0
1070
   272
1070
     2
1070
    77
1070
     3
1070
   173
1070
     1
1070
   147
1040
2.0
1070
    42
1040
6.0
1070
    44
1040
3.0
1070
    43
1040
14.0
1070
   271
1070
     0
1070
   178
1070
     4
1070
   177
1070
     4
1070
   176
1070
     4
1070
   141
1040
150.0
1070
     7
1000
_OPEN
1070
     6
1000
_OPEN
1070
    41
1040
7.0
1002
}
  0
DIMENSION
  5
8BD
330
1A
100
AcDbEntity
  8
SUNPOU
100
AcDbDimension
  2
*D15
 10
385.3962334925053
 20
374.3504887477779
 30
0.0
 11
321.8474354854166
 21
379.3504887477779
 31
0.0
 70
    32
  3
STANDARD
100
AcDbAlignedDimension
 13
258.2986374783279
 23
290.8258474162323
 33
0.0
 14
385.3962334925053
 24
317.4808497029026
 34
0.0
100
AcDbRotatedDimension
1001
ACAD
1000
DSTYLE
1002
{
1070
   140
1040
6.0
1070
    74
1070
     0
1070
   172
1070
     1
1070
    73
1070
     0
1070
   272
1070
     2
1070
    77
1070
     3
1070
   173
1070
     1
1070
   147
1040
2.0
1070
    42
1040
6.0
1070
    44
1040
3.0
1070
    43
1040
14.0
1070
   271
1070
     0
1070
   178
1070
     4
1070
   177
1070
     4
1070
   176
1070
     4
1070
   141
1040
150.0
1070
     7
1000
_OPEN
1070
     6
1000
_OPEN
1070
    41
1040
7.0
1002
}
  0
DIMENSION
  5
8DC
330
1A
100
AcDbEntity
  8
SUNPOU
100
AcDbDimension
  2
*D16
 10
375.3962708047532
 20
346.9404996528851
 30
0.0
 11
355.8962708047532
 21
351.9404996528851
 31
0.0
 70
    32
  3
STANDARD
100
AcDbAlignedDimension
 13
385.3962334925053
 23
317.4808497029026
 33
0.0
 14
375.3962708047532
 24
299.6501125150393
 34
0.0
100
AcDbRotatedDimension
1001
ACAD
1000
DSTYLE
1002
{
1070
   140
1040
6.0
1070
    74
1070
     0
1070
   172
1070
     1
1070
    73
1070
     0
1070
   272
1070
     2
1070
    77
1070
     3
1070
   173
1070
     1
1070
   147
1040
2.0
1070
    42
1040
6.0
1070
    44
1040
3.0
1070
    43
1040
14.0
1070
   271
1070
     0
1070
   178
1070
     4
1070
   177
1070
     4
1070
   176
1070
     4
1070
   141
1040
150.0
1070
     7
1000
_OPEN
1070
     6
1000
_OPEN
1070
    41
1040
7.0
1002
}
  0
LINE
  5
8E5
330
1A
100
AcDbEntity
  8
CENTER_L
  6
CENTER
 62
     1
 48
5.0
100
AcDbLine
 10
411.1870334925053
 20
279.9374497029026
 30
0.0
 11
424.5186334925056
 21
279.9374497029026
 31
0.0
  0
LINE
  5
8E6
330
1A
100
AcDbEntity
  8
CENTER_L
  6
CENTER
 62
     1
 48
5.0
100
AcDbLine
 10
424.5186334925056
 20
294.9374497029025
 30
0.0
 11
411.0041334925055
 21
294.9374497029025
 31
0.0
  0
LINE
  5
8E7
330
1A
100
AcDbEntity
  8
CENTER_L
  6
CENTER
 62
     1
 48
5.0
100
AcDbLine
 10
424.5186334925056
 20
300.9374497029026
 30
0.0
 11
410.9309334925054
 21
300.9374497029026
 31
0.0
  0
LINE
  5
8E8
330
1A
100
AcDbEntity
  8
CENTER_L
  6
CENTER
 62
     1
 48
5.0
100
AcDbLine
 10
424.5186334925056
 20
152.0534023993722
 30
0.0
 11
410.9309334925054
 21
152.0534023993722
 31
0.0
  0
LINE
  5
8E9
330
1A
100
AcDbEntity
  8
CENTER_L
  6
CENTER
 62
     1
 48
5.0
100
AcDbLine
 10
424.5186334925056
 20
146.053402399372
 30
0.0
 11
411.0041334925055
 21
146.053402399372
 31
0.0
  0
LINE
  5
8EA
330
1A
100
AcDbEntity
  8
CENTER_L
  6
CENTER
 62
     1
 48
5.0
100
AcDbLine
 10
411.1870334925053
 20
131.0534023993721
 30
0.0
 11
424.5186334925056
 21
131.0534023993721
 31
0.0
  0
LWPOLYLINE
  5
A47
330
1A
100
AcDbEntity
  8
ZUWAKU
100
AcDbPolyline
 90
        4
 70
     1
 43
0.0
 10
0.7999992246000148
 20
550.8000001839607
 10
0.7999992246000148
 20
0.8000001839607193
 10
796.7999992246
 20
0.8000001839607193
 10
796.7999992246
 20
550.8000001839607
  0
LWPOLYLINE
  5
A48
330
1A
100
AcDbEntity
  8
ZUWAKU
100
AcDbPolyline
 90
        4
 70
     1
 43
0.0
 10
0.3999992246000374
 20
551.2000001839607
 10
0.3999992246000374
 20
0.4000001839607421
 10
797.1999992246001
 20
0.4000001839607191
 10
797.1999992246001
 20
551.2000001839607
  0
LWPOLYLINE
  5
A49
330
1A
100
AcDbEntity
  8
ZUWAKU
100
AcDbPolyline
 90
        4
 70
     1
 43
0.0
 10
-0.0000007753999398
 20
551.6000001839606
 10
-0.0000007753999398
 20
0.0000001839606512
 10
797.5999992246002
 20
0.0000001839607187
 10
797.5999992246002
 20
551.6000001839607
  0
LWPOLYLINE
  5
A4A
330
1A
100
AcDbEntity
  8
ZUWAKU
100
AcDbPolyline
 90
        4
 70
     1
 43
0.0
 10
0.5999992245999693
 20
551.0000001839607
 10
0.5999992245999693
 20
0.6000001839606739
 10
796.9999992246003
 20
0.6000001839607201
 10
796.9999992246
 20
551.0000001839607
  0
LWPOLYLINE
  5
A4B
330
1A
100
AcDbEntity
  8
ZUWAKU
100
AcDbPolyline
 90
        4
 70
     1
 43
0.0
 10
0.199999224599992
 20
551.4000001839607
 10
0.199999224599992
 20
0.2000001839606966
 10
797.3999992245999
 20
0.2000001839607197
 10
797.3999992246001
 20
551.4000001839607
  0
LINE
  5
A4C
330
1A
100
AcDbEntity
  8
ZUWAKU
100
AcDbLine
 10
-0.0000007753999398
 20
30.00000018396065
 30
0.0
 11
797.3999992245999
 21
30.00000018396065
 31
0.0
  0
LINE
  5
A4D
330
1A
100
AcDbEntity
  8
ZUWAKU
100
AcDbLine
 10
-0.0000007753999398
 20
30.20000018396065
 30
0.0
 11
797.3999992245999
 21
30.20000018396065
 31
0.0
  0
LINE
  5
A4E
330
1A
100
AcDbEntity
  8
ZUWAKU
100
AcDbLine
 10
-0.0000007753999398
 20
30.40000018396066
 30
0.0
 11
797.3999992245999
 21
30.40000018396066
 31
0.0
  0
LINE
  5
A4F
330
1A
100
AcDbEntity
  8
ZUWAKU
100
AcDbLine
 10
-0.0000007753999398
 20
30.60000018396066
 30
0.0
 11
797.3999992245999
 21
30.60000018396066
 31
0.0
  0
LINE
  5
A50
330
1A
100
AcDbEntity
  8
ZUWAKU
100
AcDbLine
 10
-0.0000007753999398
 20
30.80000018396066
 30
0.0
 11
797.3999992245999
 21
30.80000018396066
 31
0.0
  0
LINE
  5
A51
330
1A
100
AcDbEntity
  8
ZUWAKU
100
AcDbLine
 10
208.6466005146681
 20
15.40000018396068
 30
0.0
 11
447.4243631955914
 21
15.40000018396068
 31
0.0
  0
LINE
  5
A52
330
1A
100
AcDbEntity
  8
ZUWAKU
100
AcDbLine
 10
208.6466005146681
 20
15.60000018396068
 30
0.0
 11
447.4243631955914
 21
15.60000018396069
 31
0.0
  0
LINE
  5
A53
330
1A
100
AcDbEntity
  8
ZUWAKU
100
AcDbLine
 10
208.6466005146681
 20
15.20000018396069
 30
0.0
 11
447.4243631955914
 21
15.20000018396068
 31
0.0
  0
TEXT
  5
A54
330
1A
100
AcDbEntity
  8
MOJI
100
AcDbText
 10
92.9577888127692
 20
12.74117831423541
 30
0.0
 40
6.0
  1
新・丸トップＲＶ１０５
 41
0.9
  7
ｽﾀｲﾙ1
100
AcDbText
  0
CIRCLE
  5
A55
330
1A
100
AcDbEntity
  8
ZUWAKU
100
AcDbCircle
 10
25.99221137938116
 20
15.20000018396065
 30
0.0
 40
1.75
  0
LINE
  5
A56
330
1A
100
AcDbEntity
  8
ZUWAKU
100
AcDbLine
 10
26.86721137938116
 20
7.150000183960656
 30
0.0
 11
24.9422113793812
 21
7.150000183960656
 31
0.0
  0
LINE
  5
A57
330
1A
100
AcDbEntity
  8
ZUWAKU
100
AcDbLine
 10
24.9422113793812
 20
9.950000183960653
 30
0.0
 11
26.86721137938116
 21
9.950000183960653
 31
0.0
  0
LINE
  5
A58
330
1A
100
AcDbEntity
  8
ZUWAKU
100
AcDbLine
 10
26.86721137938116
 20
20.45000018396065
 30
0.0
 11
24.9422113793812
 21
20.45000018396065
 31
0.0
  0
LINE
  5
A59
330
1A
100
AcDbEntity
  8
ZUWAKU
100
AcDbLine
 10
24.9422113793812
 20
23.25000018396061
 30
0.0
 11
26.86721137938116
 21
23.25000018396065
 31
0.0
  0
HATCH
  5
A5A
330
1A
100
AcDbEntity
  8
ZUWAKU
100
AcDbHatch
 10
0.0
 20
0.0
 30
0.0
210
0.0
220
0.0
230
1.0
  2
ANSI37
 70
     0
 71
     0
 91
        8
 92
        7
 72
     1
 73
     1
 93
       24
 10
14.50226188571991
 20
17.64484866494423
 42
-0.1989123673796348
 10
14.09221137938118
 20
18.63479815860528
 42
0.0
 10
14.09221137938118
 20
19.92500018396066
 42
-0.4142135623730912
 10
14.61721137938116
 20
20.45000018396065
 42
0.0
 10
17.59221137938107
 20
20.45000018396065
 42
0.4142135623731546
 10
18.11721137938116
 20
20.97500018396064
 42
0.0
 10
18.11721137938116
 20
22.72500018396065
 42
0.4142135623731586
 10
17.59221137938107
 20
23.25000018396065
 42
0.0
 10
14.09221137938118
 20
23.25000018396065
 42
0.4142135623730928
 10
11.29221137938122
 20
20.45000018396068
 42
0.0
 10
11.29221137938122
 20
18.63479815860541
 42
0.1989123673796619
 10
12.52236289839766
 20
15.6649496776218
 42
0.0
 10
15.43216087304233
 20
12.75515170297714
 42
-0.1989123673796613
 10
15.84221137938118
 20
11.76520220931596
 42
0.0
 10
15.84221137938118
 20
10.47500018396064
 42
-0.4142135623730911
 10
15.3172113793812
 20
9.950000183960653
 42
0.0
 10
12.34221137938129
 20
9.950000183960653
 42
0.4142135623731526
 10
11.8172113793812
 20
9.425000183960666
 42
0.0
 10
11.8172113793812
 20
7.675000183960644
 42
0.4142135623731526
 10
12.34221137938129
 20
7.150000183960656
 42
0.0
 10
15.84221137938118
 20
7.150000183960656
 42
0.4142135623731044
 10
18.64221137938125
 20
9.950000183960632
 42
0.0
 10
18.64221137938125
 20
11.7652022093159
 42
0.1989123673796604
 10
17.4120598603647
 20
14.73505069029944
 42
0.0
 97
        0
 92
        7
 72
     1
 73
     1
 93
       16
 10
23.54221137938123
 20
19.05000018396066
 42
-0.4142135623730935
 10
24.9422113793812
 20
20.45000018396065
 42
0.0
 10
26.86721137938116
 20
20.45000018396065
 42
0.4142135623731546
 10
27.39221137938125
 20
20.97500018396064
 42
0.0
 10
27.39221137938125
 20
22.72500018396065
 42
0.4142135623730951
 10
26.86721137938127
 20
23.25000018396065
 42
0.0
 10
24.94221137938109
 20
23.25000018396061
 42
0.4142135623730892
 10
20.74221137938116
 20
19.05000018396059
 42
0.0
 10
20.74221137938116
 20
11.35000018396068
 42
0.4142135623730969
 10
24.9422113793812
 20
7.150000183960656
 42
0.0
 10
26.86721137938116
 20
7.150000183960656
 42
0.4142135623731526
 10
27.39221137938125
 20
7.675000183960644
 42
0.0
 10
27.39221137938125
 20
9.425000183960666
 42
0.4142135623730891
 10
26.86721137938127
 20
9.950000183960653
 42
0.0
 10
24.9422113793812
 20
9.950000183960653
 42
-0.4142135623730928
 10
23.54221137938123
 20
11.35000018396064
 42
0.0
 97
        0
 92
        7
 72
     1
 73
     1
 93
        2
 10
24.24221137938116
 20
15.20000018396065
 42
1.0
 10
27.74221137938116
 20
15.20000018396065
 42
1.0
 97
        0
 92
        7
 72
     1
 73
     1
 93
       26
 10
37.31485786155917
 20
19.20504737752408
 42
0.0
 10
38.37649749469699
 20
22.56690621579367
 42
0.5069206636600134
 10
37.87586659550163
 20
23.25000018396065
 42
0.0
 10
36.1769772158924
 20
23.25000018396065
 42
0.3272098845218764
 10
35.67634631669704
 20
22.88309415212762
 42
0.0
 10
33.80807644206527
 20
16.96690621579373
 42
-0.3272098845219541
 10
33.3074455428698
 20
16.60000018396065
 42
0.0
 10
33.16721137938134
 20
16.60000018396065
 42
-0.4142135623731526
 10
32.64221137938125
 20
17.12500018396064
 42
0.0
 10
32.64221137938125
 20
22.72500018396065
 42
0.4142135623730951
 10
32.11721137938127
 20
23.25000018396065
 42
0.0
 10
30.36721137938116
 20
23.25000018396065
 42
0.4142135623730871
 10
29.84221137938118
 20
22.72500018396067
 42
0.0
 10
29.84221137938118
 20
7.675000183960644
 42
0.4142135623730891
 10
30.36721137938116
 20
7.150000183960656
 42
0.0
 10
32.11721137938116
 20
7.150000183960656
 42
0.4142135623731526
 10
32.64221137938125
 20
7.675000183960644
 42
0.0
 10
32.64221137938125
 20
13.27500018396066
 42
-0.4142135623731526
 10
33.16721137938134
 20
13.80000018396065
 42
0.0
 10
33.30744554286991
 20
13.80000018396065
 42
-0.3272098845218915
 10
33.80807644206527
 20
13.43309415212758
 42
0.0
 10
35.67634631669704
 20
7.516906215793728
 42
0.3272098845218902
 10
36.1769772158924
 20
7.150000183960656
 42
0.0
 10
37.87586659550163
 20
7.150000183960656
 42
0.5069206636600335
 10
38.37649749469699
 20
7.833094152127664
 42
0.0
 10
36.05010611622333
 20
15.20000018396079
 42
0.0
 97
        0
 92
        7
 72
     1
 73
     1
 93
        8
 10
43.49221137938116
 20
22.72500018396066
 42
0.4142135623731546
 10
42.96721137938106
 20
23.25000018396065
 42
0.0
 10
41.2172113793813
 20
23.25000018396065
 42
0.4142135623731507
 10
40.69221137938121
 20
22.72500018396067
 42
0.0
 10
40.69221137938121
 20
7.675000183960644
 42
0.4142135623731526
 10
41.2172113793813
 20
7.150000183960656
 42
0.0
 10
42.96721137938106
 20
7.150000183960656
 42
0.4142135623731526
 10
43.49221137938116
 20
7.675000183960644
 42
0.0
 97
        0
 92
        7
 72
     1
 73
     1
 93
       24
 10
48.39221137938125
 20
19.92500018396066
 42
-0.4142135623731546
 10
48.91721137938134
 20
20.45000018396065
 42
0.0
 10
51.89221137938125
 20
20.45000018396065
 42
0.4142135623730911
 10
52.41721137938123
 20
20.97500018396064
 42
0.0
 10
52.41721137938123
 20
22.72500018396065
 42
0.4142135623730952
 10
51.89221137938125
 20
23.25000018396065
 42
0.0
 10
48.39221137938125
 20
23.25000018396065
 42
0.4142135623731048
 10
45.59221137938118
 20
20.45000018396068
 42
0.0
 10
45.59221137938118
 20
18.63479815860541
 42
0.1989123673796613
 10
46.82236289839773
 20
15.66494967762186
 42
0.0
 10
49.73216087304241
 20
12.75515170297719
 42
-0.1989123673796402
 10
50.14221137938125
 20
11.76520220931612
 42
0.0
 10
50.14221137938125
 20
10.47500018396064
 42
-0.4142135623730911
 10
49.61721137938127
 20
9.950000183960653
 42
0.0
 10
46.64221137938125
 20
9.950000183960653
 42
0.4142135623731526
 10
46.11721137938116
 20
9.425000183960666
 42
0.0
 10
46.11721137938116
 20
7.675000183960644
 42
0.4142135623730891
 10
46.64221137938113
 20
7.150000183960656
 42
0.0
 10
50.14221137938125
 20
7.150000183960656
 42
0.4142135623730925
 10
52.9422113793812
 20
9.950000183960632
 42
0.0
 10
52.9422113793812
 20
11.7652022093159
 42
0.1989123673796675
 10
51.71205986036466
 20
14.73505069029956
 42
0.0
 10
48.80226188572009
 20
17.64484866494407
 42
-0.1989123673796652
 10
48.39221137938125
 20
18.63479815860524
 42
0.0
 97
        0
 92
        7
 72
     1
 73
     1
 93
       16
 10
57.84221137938118
 20
22.72500018396064
 42
0.414213562373103
 10
57.3172113793812
 20
23.25000018396065
 42
0.0
 10
55.5672113793812
 20
23.25000018396065
 42
0.4142135623730871
 10
55.04221137938123
 20
22.72500018396067
 42
0.0
 10
55.04221137938123
 20
9.950000183960632
 42
0.4142135623730926
 10
57.84221137938118
 20
7.150000183960656
 42
0.0
 10
61.34221137938118
 20
7.150000183960656
 42
0.4142135623731044
 10
64.14221137938125
 20
9.950000183960632
 42
0.0
 10
64.14221137938125
 20
22.72500018396065
 42
0.4142135623730951
 10
63.61721137938127
 20
23.25000018396065
 42
0.0
 10
61.86721137938116
 20
23.25000018396065
 42
0.4142135623730871
 10
61.34221137938118
 20
22.72500018396067
 42
0.0
 10
61.34221137938118
 20
11.00000018396062
 42
-0.414213562373088
 10
60.29221137938122
 20
9.950000183960653
 42
0.0
 10
58.89221137938125
 20
9.950000183960653
 42
-0.4142135623731197
 10
57.84221137938118
 20
11.00000018396062
 42
0.0
 97
        0
 92
        7
 72
     1
 73
     1
 93
        8
 10
69.04221137938122
 20
22.72500018396067
 42
0.4142135623730871
 10
68.51721137938125
 20
23.25000018396065
 42
0.0
 10
66.76721137938125
 20
23.25000018396065
 42
0.4142135623731507
 10
66.24221137938116
 20
22.72500018396067
 42
0.0
 10
66.24221137938116
 20
7.675000183960644
 42
0.4142135623730891
 10
66.76721137938113
 20
7.150000183960656
 42
0.0
 10
68.51721137938125
 20
7.150000183960656
 42
0.4142135623730891
 10
69.04221137938122
 20
7.675000183960644
 42
0.0
 97
        0
 75
     0
 76
     1
 52
0.0
 41
0.2
 77
     0
 78
     2
 53
45.0
 43
-900.9423051100789
 44
-13.19999981603928
 45
-0.4490128060534576
 46
0.4490128060534577
 79
     0
 53
135.0
 43
-900.9423051100789
 44
-13.19999981603928
 45
-0.4490128060534577
 46
-0.4490128060534576
 79
     0
 47
0.057451373970553
 98
        8
 10
16.07985418762337
 20
15.1671738298462
 10
22.40451423103923
 20
18.84406236641166
 10
25.16436711025971
 20
15.51188183003137
 10
30.91405920623719
 20
16.20129783040215
 10
41.83847124355679
 20
16.66091009794377
 10
46.89820011972961
 20
19.41857650036786
 10
56.55768519700041
 20
18.72915809905566
 10
67.82707884422279
 20
19.18877036659728
  0
ARC
  5
A5B
330
1A
100
AcDbEntity
  8
ZUWAKU
100
AcDbCircle
 10
15.49221137938116
 20
18.63479815860535
 30
0.0
 40
4.199999999999999
100
AcDbArc
 50
180.0
 51
225.0
  0
LINE
  5
A5C
330
1A
100
AcDbEntity
  8
ZUWAKU
100
AcDbLine
 10
20.74221137938116
 20
11.35000018396066
 30
0.0
 11
20.74221137938116
 21
19.05000018396061
 31
0.0
  0
LINE
  5
A5D
330
1A
100
AcDbEntity
  8
ZUWAKU
100
AcDbLine
 10
23.54221137938123
 20
19.05000018396065
 30
0.0
 11
23.54221137938123
 21
11.35000018396066
 31
0.0
  0
ARC
  5
A5E
330
1A
100
AcDbEntity
  8
ZUWAKU
100
AcDbCircle
 10
15.49221137938116
 20
18.63479815860535
 30
0.0
 40
1.399999999999999
100
AcDbArc
 50
180.0000000000016
 51
224.9999999999988
  0
ARC
  5
A5F
330
1A
100
AcDbEntity
  8
ZUWAKU
100
AcDbCircle
 10
24.9422113793812
 20
11.35000018396066
 30
0.0
 40
4.199999999999999
100
AcDbArc
 50
180.0
 51
270.0
  0
ARC
  5
A60
330
1A
100
AcDbEntity
  8
ZUWAKU
100
AcDbCircle
 10
15.84221137938118
 20
9.950000183960653
 30
0.0
 40
2.799999999999999
100
AcDbArc
 50
270.0
 51
0.0
  0
ARC
  5
A61
330
1A
100
AcDbEntity
  8
ZUWAKU
100
AcDbCircle
 10
14.4422113793812
 20
11.76520220931595
 30
0.0
 40
4.199999999999999
100
AcDbArc
 50
0.0
 51
45.0
  0
LINE
  5
A62
330
1A
100
AcDbEntity
  8
ZUWAKU
100
AcDbLine
 10
12.52236289839766
 20
15.66494967762183
 30
0.0
 11
15.43216087304233
 21
12.75515170297717
 31
0.0
  0
LINE
  5
A63
330
1A
100
AcDbEntity
  8
ZUWAKU
100
AcDbLine
 10
12.34221137938118
 20
9.950000183960653
 30
0.0
 11
15.3172113793812
 21
9.950000183960653
 31
0.0
  0
LINE
  5
A64
330
1A
100
AcDbEntity
  8
ZUWAKU
100
AcDbLine
 10
12.34221137938118
 20
7.150000183960656
 30
0.0
 11
15.84221137938118
 21
7.150000183960656
 31
0.0
  0
ARC
  5
A65
330
1A
100
AcDbEntity
  8
ZUWAKU
100
AcDbCircle
 10
12.34221137938118
 20
9.425000183960655
 30
0.0
 40
0.525
100
AcDbArc
 50
90.0
 51
180.0
  0
ARC
  5
A66
330
1A
100
AcDbEntity
  8
ZUWAKU
100
AcDbCircle
 10
12.34221137938118
 20
7.675000183960655
 30
0.0
 40
0.525
100
AcDbArc
 50
180.0
 51
270.0
  0
LINE
  5
A67
330
1A
100
AcDbEntity
  8
ZUWAKU
100
AcDbLine
 10
11.8172113793812
 20
7.675000183960655
 30
0.0
 11
11.8172113793812
 21
9.425000183960655
 31
0.0
  0
ARC
  5
A68
330
1A
100
AcDbEntity
  8
ZUWAKU
100
AcDbCircle
 10
14.4422113793812
 20
11.765202209316
 30
0.0
 40
1.399999999999999
100
AcDbArc
 50
0.0
 51
45.0
  0
ARC
  5
A69
330
1A
100
AcDbEntity
  8
ZUWAKU
100
AcDbCircle
 10
15.3172113793812
 20
10.47500018396066
 30
0.0
 40
0.525
100
AcDbArc
 50
270.0
 51
0.0
  0
LINE
  5
A6A
330
1A
100
AcDbEntity
  8
ZUWAKU
100
AcDbLine
 10
15.84221137938118
 20
10.47500018396066
 30
0.0
 11
15.84221137938118
 21
11.765202209316
 31
0.0
  0
LINE
  5
A6B
330
1A
100
AcDbEntity
  8
ZUWAKU
100
AcDbLine
 10
17.4120598603647
 20
14.73505069029948
 30
0.0
 11
14.50226188572003
 21
17.64484866494415
 31
0.0
  0
ARC
  5
A6C
330
1A
100
AcDbEntity
  8
ZUWAKU
100
AcDbCircle
 10
24.9422113793812
 20
11.35000018396066
 30
0.0
 40
1.399999999999999
100
AcDbArc
 50
180.0
 51
270.0
  0
LINE
  5
A6D
330
1A
100
AcDbEntity
  8
ZUWAKU
100
AcDbLine
 10
18.64221137938125
 20
9.950000183960653
 30
0.0
 11
18.64221137938125
 21
11.765202209316
 31
0.0
  0
ARC
  5
A6E
330
1A
100
AcDbEntity
  8
ZUWAKU
100
AcDbCircle
 10
17.59221137938118
 20
20.97500018396065
 30
0.0
 40
0.525
100
AcDbArc
 50
270.0
 51
0.0
  0
ARC
  5
A6F
330
1A
100
AcDbEntity
  8
ZUWAKU
100
AcDbCircle
 10
17.59221137938118
 20
22.72500018396065
 30
0.0
 40
0.525
100
AcDbArc
 50
0.0
 51
90.0
  0
ARC
  5
A70
330
1A
100
AcDbEntity
  8
ZUWAKU
100
AcDbCircle
 10
14.09221137938118
 20
20.45000018396065
 30
0.0
 40
2.799999999999999
100
AcDbArc
 50
90.0
 51
180.0
  0
LINE
  5
A71
330
1A
100
AcDbEntity
  8
ZUWAKU
100
AcDbLine
 10
11.29221137938122
 20
20.45000018396065
 30
0.0
 11
11.29221137938122
 21
18.63479815860531
 31
0.0
  0
LINE
  5
A72
330
1A
100
AcDbEntity
  8
ZUWAKU
100
AcDbLine
 10
17.59221137938118
 20
20.45000018396065
 30
0.0
 11
14.61721137938116
 21
20.45000018396065
 31
0.0
  0
LINE
  5
A73
330
1A
100
AcDbEntity
  8
ZUWAKU
100
AcDbLine
 10
14.09221137938118
 20
19.92500018396065
 30
0.0
 11
14.09221137938118
 21
18.63479815860531
 31
0.0
  0
ARC
  5
A74
330
1A
100
AcDbEntity
  8
ZUWAKU
100
AcDbCircle
 10
14.61721137938116
 20
19.92500018396065
 30
0.0
 40
0.525
100
AcDbArc
 50
90.0
 51
180.0
  0
LINE
  5
A75
330
1A
100
AcDbEntity
  8
ZUWAKU
100
AcDbLine
 10
14.09221137938118
 20
23.25000018396065
 30
0.0
 11
17.59221137938118
 21
23.25000018396065
 31
0.0
  0
ARC
  5
A76
330
1A
100
AcDbEntity
  8
ZUWAKU
100
AcDbCircle
 10
24.9422113793812
 20
19.05000018396061
 30
0.0
 40
4.199999999999999
100
AcDbArc
 50
90.0
 51
180.0
  0
ARC
  5
A77
330
1A
100
AcDbEntity
  8
ZUWAKU
100
AcDbCircle
 10
24.9422113793812
 20
19.05000018396065
 30
0.0
 40
1.399999999999999
100
AcDbArc
 50
90.0
 51
180.0
  0
LINE
  5
A78
330
1A
100
AcDbEntity
  8
ZUWAKU
100
AcDbLine
 10
18.11721137938116
 20
22.72500018396065
 30
0.0
 11
18.11721137938116
 21
20.97500018396065
 31
0.0
  0
LINE
  5
A79
330
1A
100
AcDbEntity
  8
ZUWAKU
100
AcDbLine
 10
35.67634631669704
 20
22.88309415212762
 30
0.0
 11
33.80807644206527
 21
16.96690621579368
 31
0.0
  0
LINE
  5
A7A
330
1A
100
AcDbEntity
  8
ZUWAKU
100
AcDbLine
 10
29.84221137938118
 20
22.72500018396065
 30
0.0
 11
29.84221137938118
 21
7.675000183960655
 31
0.0
  0
LINE
  5
A7B
330
1A
100
AcDbEntity
  8
ZUWAKU
100
AcDbLine
 10
32.64221137938125
 20
17.12500018396065
 30
0.0
 11
32.64221137938125
 21
22.72500018396065
 31
0.0
  0
LINE
  5
A7C
330
1A
100
AcDbEntity
  8
ZUWAKU
100
AcDbLine
 10
57.84221137938118
 20
11.00000018396065
 30
0.0
 11
57.84221137938118
 21
22.72500018396065
 31
0.0
  0
LINE
  5
A7D
330
1A
100
AcDbEntity
  8
ZUWAKU
100
AcDbLine
 10
55.04221137938123
 20
22.72500018396065
 30
0.0
 11
55.04221137938123
 21
9.950000183960653
 31
0.0
  0
LINE
  5
A7E
330
1A
100
AcDbEntity
  8
ZUWAKU
100
AcDbLine
 10
43.49221137938116
 20
7.675000183960655
 30
0.0
 11
43.49221137938116
 21
22.72500018396065
 31
0.0
  0
LINE
  5
A7F
330
1A
100
AcDbEntity
  8
ZUWAKU
100
AcDbLine
 10
40.69221137938121
 20
22.72500018396065
 30
0.0
 11
40.69221137938121
 21
7.675000183960655
 31
0.0
  0
LINE
  5
A80
330
1A
100
AcDbEntity
  8
ZUWAKU
100
AcDbLine
 10
37.31485786155917
 20
19.20504737752408
 30
0.0
 11
36.05010611622333
 21
15.20000018396067
 31
0.0
  0
ARC
  5
A81
330
1A
100
AcDbEntity
  8
ZUWAKU
100
AcDbCircle
 10
49.79221137938123
 20
18.63479815860535
 30
0.0
 40
4.199999999999999
100
AcDbArc
 50
180.0
 51
225.0
  0
ARC
  5
A82
330
1A
100
AcDbEntity
  8
ZUWAKU
100
AcDbCircle
 10
49.79221137938123
 20
18.63479815860535
 30
0.0
 40
1.399999999999999
100
AcDbArc
 50
180.0000000000016
 51
224.9999999999988
  0
LINE
  5
A83
330
1A
100
AcDbEntity
  8
ZUWAKU
100
AcDbLine
 10
66.24221137938116
 20
22.72500018396065
 30
0.0
 11
66.24221137938116
 21
7.675000183960655
 31
0.0
  0
LINE
  5
A84
330
1A
100
AcDbEntity
  8
ZUWAKU
100
AcDbLine
 10
69.04221137938122
 20
7.675000183960655
 30
0.0
 11
69.04221137938122
 21
22.72500018396065
 31
0.0
  0
LINE
  5
A85
330
1A
100
AcDbEntity
  8
ZUWAKU
100
AcDbLine
 10
61.34221137938118
 20
22.72500018396065
 30
0.0
 11
61.34221137938118
 21
11.00000018396065
 31
0.0
  0
LINE
  5
A86
330
1A
100
AcDbEntity
  8
ZUWAKU
100
AcDbLine
 10
64.14221137938125
 20
9.950000183960653
 30
0.0
 11
64.14221137938125
 21
22.72500018396065
 31
0.0
  0
LINE
  5
A87
330
1A
100
AcDbEntity
  8
ZUWAKU
100
AcDbLine
 10
79.12662877258845
 20
30.00000018396065
 30
0.0
 11
79.12662877258845
 21
0.8000001839607193
 31
0.0
  0
LINE
  5
A88
330
1A
100
AcDbEntity
  8
ZUWAKU
100
AcDbLine
 10
79.52662877258831
 20
30.00000018396065
 30
0.0
 11
79.52662877258854
 21
0.8000001839607193
 31
0.0
  0
LINE
  5
A89
330
1A
100
AcDbEntity
  8
ZUWAKU
100
AcDbLine
 10
79.32662877258827
 20
30.00000018396065
 30
0.0
 11
79.32662877258849
 21
0.8000001839607193
 31
0.0
  0
LINE
  5
A8A
330
1A
100
AcDbEntity
  8
ZUWAKU
100
AcDbLine
 10
57.84221137938118
 20
7.150000183960656
 30
0.0
 11
61.34221137938118
 21
7.150000183960656
 31
0.0
  0
LINE
  5
A8B
330
1A
100
AcDbEntity
  8
ZUWAKU
100
AcDbLine
 10
60.29221137938122
 20
9.950000183960653
 30
0.0
 11
58.89221137938125
 21
9.950000183960653
 31
0.0
  0
LINE
  5
A8C
330
1A
100
AcDbEntity
  8
ZUWAKU
100
AcDbLine
 10
41.21721137938118
 20
7.150000183960656
 30
0.0
 11
42.96721137938118
 21
7.150000183960656
 31
0.0
  0
LINE
  5
A8D
330
1A
100
AcDbEntity
  8
ZUWAKU
100
AcDbLine
 10
35.67634631669704
 20
7.516906215793682
 30
0.0
 11
33.80807644206527
 21
13.43309415212762
 31
0.0
  0
ARC
  5
A8E
330
1A
100
AcDbEntity
  8
ZUWAKU
100
AcDbCircle
 10
33.16721137938122
 20
13.27500018396065
 30
0.0
 40
0.525
100
AcDbArc
 50
90.0
 51
180.0
  0
ARC
  5
A8F
330
1A
100
AcDbEntity
  8
ZUWAKU
100
AcDbCircle
 10
33.30744554286991
 20
13.27500018396065
 30
0.0
 40
0.525
100
AcDbArc
 50
17.52556837372303
 51
90.0
  0
ARC
  5
A90
330
1A
100
AcDbEntity
  8
ZUWAKU
100
AcDbCircle
 10
30.36721137938116
 20
7.675000183960655
 30
0.0
 40
0.525
100
AcDbArc
 50
180.0
 51
270.0
  0
ARC
  5
A91
330
1A
100
AcDbEntity
  8
ZUWAKU
100
AcDbCircle
 10
26.86721137938116
 20
9.425000183960655
 30
0.0
 40
0.525
100
AcDbArc
 50
0.0
 51
90.0
  0
ARC
  5
A92
330
1A
100
AcDbEntity
  8
ZUWAKU
100
AcDbCircle
 10
26.86721137938116
 20
7.675000183960655
 30
0.0
 40
0.525
100
AcDbArc
 50
270.0
 51
0.0
  0
LINE
  5
A93
330
1A
100
AcDbEntity
  8
ZUWAKU
100
AcDbLine
 10
27.39221137938125
 20
9.425000183960655
 30
0.0
 11
27.39221137938125
 21
7.675000183960655
 31
0.0
  0
LINE
  5
A94
330
1A
100
AcDbEntity
  8
ZUWAKU
100
AcDbLine
 10
32.64221137938125
 20
7.675000183960655
 30
0.0
 11
32.64221137938125
 21
13.27500018396065
 31
0.0
  0
ARC
  5
A95
330
1A
100
AcDbEntity
  8
ZUWAKU
100
AcDbCircle
 10
32.11721137938116
 20
7.675000183960655
 30
0.0
 40
0.525
100
AcDbArc
 50
270.0
 51
0.0
  0
LINE
  5
A96
330
1A
100
AcDbEntity
  8
ZUWAKU
100
AcDbLine
 10
30.36721137938116
 20
7.150000183960656
 30
0.0
 11
32.11721137938116
 21
7.150000183960656
 31
0.0
  0
ARC
  5
A97
330
1A
100
AcDbEntity
  8
ZUWAKU
100
AcDbCircle
 10
33.16721137938122
 20
17.12500018396065
 30
0.0
 40
0.525
100
AcDbArc
 50
180.0
 51
270.0
  0
LINE
  5
A98
330
1A
100
AcDbEntity
  8
ZUWAKU
100
AcDbLine
 10
33.16721137938122
 20
13.80000018396065
 30
0.0
 11
33.30744554286991
 21
13.80000018396065
 31
0.0
  0
LINE
  5
A99
330
1A
100
AcDbEntity
  8
ZUWAKU
100
AcDbLine
 10
33.30744554286991
 20
16.60000018396065
 30
0.0
 11
33.16721137938122
 21
16.60000018396065
 31
0.0
  0
ARC
  5
A9A
330
1A
100
AcDbEntity
  8
ZUWAKU
100
AcDbCircle
 10
33.30744554286991
 20
17.12500018396065
 30
0.0
 40
0.525
100
AcDbArc
 50
270.0
 51
342.4744316262769
  0
ARC
  5
A9B
330
1A
100
AcDbEntity
  8
ZUWAKU
100
AcDbCircle
 10
36.17697721589252
 20
7.675000183960655
 30
0.0
 40
0.525
100
AcDbArc
 50
197.525568373723
 51
270.0
  0
LINE
  5
A9C
330
1A
100
AcDbEntity
  8
ZUWAKU
100
AcDbLine
 10
38.37649749469699
 20
7.833094152127628
 30
0.0
 11
36.05010611622333
 21
15.20000018396067
 31
0.0
  0
ARC
  5
A9D
330
1A
100
AcDbEntity
  8
ZUWAKU
100
AcDbCircle
 10
37.87586659550152
 20
7.675000183960655
 30
0.0
 40
0.525
100
AcDbArc
 50
270.0
 51
17.52556837372303
  0
LINE
  5
A9E
330
1A
100
AcDbEntity
  8
ZUWAKU
100
AcDbLine
 10
36.17697721589252
 20
7.150000183960656
 30
0.0
 11
37.87586659550152
 21
7.150000183960656
 31
0.0
  0
ARC
  5
A9F
330
1A
100
AcDbEntity
  8
ZUWAKU
100
AcDbCircle
 10
41.21721137938118
 20
7.675000183960655
 30
0.0
 40
0.525
100
AcDbArc
 50
180.0
 51
270.0
  0
ARC
  5
AA0
330
1A
100
AcDbEntity
  8
ZUWAKU
100
AcDbCircle
 10
50.14221137938125
 20
9.950000183960653
 30
0.0
 40
2.799999999999999
100
AcDbArc
 50
270.0
 51
0.0
  0
ARC
  5
AA1
330
1A
100
AcDbEntity
  8
ZUWAKU
100
AcDbCircle
 10
57.84221137938118
 20
9.950000183960653
 30
0.0
 40
2.799999999999999
100
AcDbArc
 50
180.0
 51
270.0
  0
LINE
  5
AA2
330
1A
100
AcDbEntity
  8
ZUWAKU
100
AcDbLine
 10
51.71205986036477
 20
14.73505069029948
 30
0.0
 11
48.80226188571999
 21
17.64484866494415
 31
0.0
  0
LINE
  5
AA3
330
1A
100
AcDbEntity
  8
ZUWAKU
100
AcDbLine
 10
46.82236289839773
 20
15.66494967762183
 30
0.0
 11
49.73216087304241
 21
12.75515170297717
 31
0.0
  0
LINE
  5
AA4
330
1A
100
AcDbEntity
  8
ZUWAKU
100
AcDbLine
 10
46.64221137938125
 20
7.150000183960656
 30
0.0
 11
50.14221137938125
 21
7.150000183960656
 31
0.0
  0
LINE
  5
AA5
330
1A
100
AcDbEntity
  8
ZUWAKU
100
AcDbLine
 10
46.64221137938125
 20
9.950000183960653
 30
0.0
 11
49.61721137938116
 21
9.950000183960653
 31
0.0
  0
ARC
  5
AA6
330
1A
100
AcDbEntity
  8
ZUWAKU
100
AcDbCircle
 10
46.64221137938125
 20
9.425000183960655
 30
0.0
 40
0.525
100
AcDbArc
 50
90.0
 51
180.0
  0
ARC
  5
AA7
330
1A
100
AcDbEntity
  8
ZUWAKU
100
AcDbCircle
 10
42.96721137938118
 20
7.675000183960655
 30
0.0
 40
0.525
100
AcDbArc
 50
270.0
 51
0.0
  0
ARC
  5
AA8
330
1A
100
AcDbEntity
  8
ZUWAKU
100
AcDbCircle
 10
46.64221137938125
 20
7.675000183960655
 30
0.0
 40
0.525
100
AcDbArc
 50
180.0
 51
270.0
  0
LINE
  5
AA9
330
1A
100
AcDbEntity
  8
ZUWAKU
100
AcDbLine
 10
46.11721137938116
 20
7.675000183960655
 30
0.0
 11
46.11721137938116
 21
9.425000183960655
 31
0.0
  0
ARC
  5
AAA
330
1A
100
AcDbEntity
  8
ZUWAKU
100
AcDbCircle
 10
49.61721137938116
 20
10.47500018396066
 30
0.0
 40
0.525
100
AcDbArc
 50
270.0
 51
0.0
  0
ARC
  5
AAB
330
1A
100
AcDbEntity
  8
ZUWAKU
100
AcDbCircle
 10
48.74221137938116
 20
11.765202209316
 30
0.0
 40
1.399999999999999
100
AcDbArc
 50
0.0
 51
45.0
  0
LINE
  5
AAC
330
1A
100
AcDbEntity
  8
ZUWAKU
100
AcDbLine
 10
50.14221137938125
 20
10.47500018396066
 30
0.0
 11
50.14221137938125
 21
11.765202209316
 31
0.0
  0
ARC
  5
AAD
330
1A
100
AcDbEntity
  8
ZUWAKU
100
AcDbCircle
 10
58.89221137938125
 20
11.00000018396065
 30
0.0
 40
1.049999999999999
100
AcDbArc
 50
180.0
 51
270.0
  0
ARC
  5
AAE
330
1A
100
AcDbEntity
  8
ZUWAKU
100
AcDbCircle
 10
48.74221137938116
 20
11.76520220931595
 30
0.0
 40
4.199999999999999
100
AcDbArc
 50
0.0
 51
45.0
  0
LINE
  5
AAF
330
1A
100
AcDbEntity
  8
ZUWAKU
100
AcDbLine
 10
52.9422113793812
 20
9.950000183960653
 30
0.0
 11
52.9422113793812
 21
11.765202209316
 31
0.0
  0
ARC
  5
AB0
330
1A
100
AcDbEntity
  8
ZUWAKU
100
AcDbCircle
 10
61.34221137938118
 20
9.950000183960653
 30
0.0
 40
2.799999999999999
100
AcDbArc
 50
270.0
 51
0.0
  0
LINE
  5
AB1
330
1A
100
AcDbEntity
  8
ZUWAKU
100
AcDbLine
 10
66.76721137938125
 20
7.150000183960656
 30
0.0
 11
68.51721137938125
 21
7.150000183960656
 31
0.0
  0
ARC
  5
AB2
330
1A
100
AcDbEntity
  8
ZUWAKU
100
AcDbCircle
 10
60.29221137938122
 20
11.00000018396065
 30
0.0
 40
1.049999999999999
100
AcDbArc
 50
270.0
 51
0.0
  0
ARC
  5
AB3
330
1A
100
AcDbEntity
  8
ZUWAKU
100
AcDbCircle
 10
66.76721137938125
 20
7.675000183960655
 30
0.0
 40
0.525
100
AcDbArc
 50
180.0
 51
270.0
  0
ARC
  5
AB4
330
1A
100
AcDbEntity
  8
ZUWAKU
100
AcDbCircle
 10
68.51721137938125
 20
7.675000183960655
 30
0.0
 40
0.525
100
AcDbArc
 50
270.0
 51
0.0
  0
LINE
  5
AB5
330
1A
100
AcDbEntity
  8
ZUWAKU
100
AcDbLine
 10
42.96721137938118
 20
23.25000018396065
 30
0.0
 11
41.21721137938118
 21
23.25000018396065
 31
0.0
  0
LINE
  5
AB6
330
1A
100
AcDbEntity
  8
ZUWAKU
100
AcDbLine
 10
27.39221137938125
 20
22.72500018396065
 30
0.0
 11
27.39221137938125
 21
20.97500018396065
 31
0.0
  0
ARC
  5
AB7
330
1A
100
AcDbEntity
  8
ZUWAKU
100
AcDbCircle
 10
26.86721137938116
 20
20.97500018396065
 30
0.0
 40
0.525
100
AcDbArc
 50
270.0
 51
0.0
  0
ARC
  5
AB8
330
1A
100
AcDbEntity
  8
ZUWAKU
100
AcDbCircle
 10
30.36721137938116
 20
22.72500018396065
 30
0.0
 40
0.525
100
AcDbArc
 50
90.0
 51
180.0
  0
ARC
  5
AB9
330
1A
100
AcDbEntity
  8
ZUWAKU
100
AcDbCircle
 10
26.86721137938116
 20
22.72500018396065
 30
0.0
 40
0.525
100
AcDbArc
 50
0.0
 51
90.0
  0
LINE
  5
ABA
330
1A
100
AcDbEntity
  8
ZUWAKU
100
AcDbLine
 10
32.11721137938116
 20
23.25000018396065
 30
0.0
 11
30.36721137938116
 21
23.25000018396065
 31
0.0
  0
ARC
  5
ABB
330
1A
100
AcDbEntity
  8
ZUWAKU
100
AcDbCircle
 10
32.11721137938116
 20
22.72500018396065
 30
0.0
 40
0.525
100
AcDbArc
 50
0.0
 51
90.0
  0
ARC
  5
ABC
330
1A
100
AcDbEntity
  8
ZUWAKU
100
AcDbCircle
 10
36.17697721589252
 20
22.72500018396065
 30
0.0
 40
0.525
100
AcDbArc
 50
90.0
 51
162.4744316262769
  0
LINE
  5
ABD
330
1A
100
AcDbEntity
  8
ZUWAKU
100
AcDbLine
 10
38.37649749469699
 20
22.56690621579368
 30
0.0
 11
37.31485786155917
 21
19.20504737752408
 31
0.0
  0
ARC
  5
ABE
330
1A
100
AcDbEntity
  8
ZUWAKU
100
AcDbCircle
 10
37.87586659550152
 20
22.72500018396065
 30
0.0
 40
0.525
100
AcDbArc
 50
342.4744316262769
 51
90.0
  0
LINE
  5
ABF
330
1A
100
AcDbEntity
  8
ZUWAKU
100
AcDbLine
 10
36.17697721589252
 20
23.25000018396065
 30
0.0
 11
37.87586659550152
 21
23.25000018396065
 31
0.0
  0
ARC
  5
AC0
330
1A
100
AcDbEntity
  8
ZUWAKU
100
AcDbCircle
 10
41.21721137938118
 20
22.72500018396065
 30
0.0
 40
0.525
100
AcDbArc
 50
90.0
 51
180.0
  0
LINE
  5
AC1
330
1A
100
AcDbEntity
  8
ZUWAKU
100
AcDbLine
 10
51.89221137938125
 20
20.45000018396065
 30
0.0
 11
48.91721137938123
 21
20.45000018396065
 31
0.0
  0
LINE
  5
AC2
330
1A
100
AcDbEntity
  8
ZUWAKU
100
AcDbLine
 10
48.39221137938125
 20
23.25000018396065
 30
0.0
 11
51.89221137938125
 21
23.25000018396065
 31
0.0
  0
ARC
  5
AC3
330
1A
100
AcDbEntity
  8
ZUWAKU
100
AcDbCircle
 10
48.39221137938125
 20
20.45000018396065
 30
0.0
 40
2.799999999999999
100
AcDbArc
 50
90.0
 51
180.0
  0
LINE
  5
AC4
330
1A
100
AcDbEntity
  8
ZUWAKU
100
AcDbLine
 10
45.59221137938118
 20
20.45000018396065
 30
0.0
 11
45.59221137938118
 21
18.63479815860531
 31
0.0
  0
ARC
  5
AC5
330
1A
100
AcDbEntity
  8
ZUWAKU
100
AcDbCircle
 10
42.96721137938118
 20
22.72500018396065
 30
0.0
 40
0.525
100
AcDbArc
 50
0.0
 51
90.0
  0
LINE
  5
AC6
330
1A
100
AcDbEntity
  8
ZUWAKU
100
AcDbLine
 10
48.39221137938125
 20
19.92500018396065
 30
0.0
 11
48.39221137938125
 21
18.63479815860531
 31
0.0
  0
ARC
  5
AC7
330
1A
100
AcDbEntity
  8
ZUWAKU
100
AcDbCircle
 10
48.91721137938123
 20
19.92500018396065
 30
0.0
 40
0.525
100
AcDbArc
 50
90.0
 51
180.0
  0
LINE
  5
AC8
330
1A
100
AcDbEntity
  8
ZUWAKU
100
AcDbLine
 10
52.41721137938123
 20
22.72500018396065
 30
0.0
 11
52.41721137938123
 21
20.97500018396065
 31
0.0
  0
ARC
  5
AC9
330
1A
100
AcDbEntity
  8
ZUWAKU
100
AcDbCircle
 10
51.89221137938125
 20
20.97500018396065
 30
0.0
 40
0.525
100
AcDbArc
 50
270.0
 51
0.0
  0
ARC
  5
ACA
330
1A
100
AcDbEntity
  8
ZUWAKU
100
AcDbCircle
 10
51.89221137938125
 20
22.72500018396065
 30
0.0
 40
0.525
100
AcDbArc
 50
0.0
 51
90.0
  0
LINE
  5
ACB
330
1A
100
AcDbEntity
  8
ZUWAKU
100
AcDbLine
 10
57.3172113793812
 20
23.25000018396065
 30
0.0
 11
55.5672113793812
 21
23.25000018396065
 31
0.0
  0
ARC
  5
ACC
330
1A
100
AcDbEntity
  8
ZUWAKU
100
AcDbCircle
 10
55.5672113793812
 20
22.72500018396065
 30
0.0
 40
0.525
100
AcDbArc
 50
90.0
 51
180.0
  0
ARC
  5
ACD
330
1A
100
AcDbEntity
  8
ZUWAKU
100
AcDbCircle
 10
57.3172113793812
 20
22.72500018396065
 30
0.0
 40
0.525
100
AcDbArc
 50
0.0
 51
90.0
  0
LINE
  5
ACE
330
1A
100
AcDbEntity
  8
ZUWAKU
100
AcDbLine
 10
68.51721137938125
 20
23.25000018396065
 30
0.0
 11
66.76721137938125
 21
23.25000018396065
 31
0.0
  0
ARC
  5
ACF
330
1A
100
AcDbEntity
  8
ZUWAKU
100
AcDbCircle
 10
61.86721137938116
 20
22.72500018396065
 30
0.0
 40
0.525
100
AcDbArc
 50
90.0
 51
180.0
  0
LINE
  5
AD0
330
1A
100
AcDbEntity
  8
ZUWAKU
100
AcDbLine
 10
63.61721137938116
 20
23.25000018396065
 30
0.0
 11
61.86721137938116
 21
23.25000018396065
 31
0.0
  0
ARC
  5
AD1
330
1A
100
AcDbEntity
  8
ZUWAKU
100
AcDbCircle
 10
63.61721137938116
 20
22.72500018396065
 30
0.0
 40
0.525
100
AcDbArc
 50
0.0
 51
90.0
  0
ARC
  5
AD2
330
1A
100
AcDbEntity
  8
ZUWAKU
100
AcDbCircle
 10
66.76721137938125
 20
22.72500018396065
 30
0.0
 40
0.525
100
AcDbArc
 50
90.0
 51
180.0
  0
ARC
  5
AD3
330
1A
100
AcDbEntity
  8
ZUWAKU
100
AcDbCircle
 10
68.51721137938125
 20
22.72500018396065
 30
0.0
 40
0.525
100
AcDbArc
 50
0.0
 51
90.0
  0
TEXT
  5
AD4
330
1A
100
AcDbEntity
  8
MOJI
100
AcDbText
 10
239.8272019054511
 20
18.00492124136803
 30
0.0
 40
5.599999999999999
  1
ステンレス金具正面打（吊）自在式
 41
0.9
  7
ｽﾀｲﾙ1
100
AcDbText
  0
TEXT
  5
AD5
330
1A
100
AcDbEntity
  8
MOJI
100
AcDbText
 10
239.8272019054511
 20
3.204921241368072
 30
0.0
 40
5.599999999999999
  1
ＲＶ１０５－０－１０～４５
 41
0.9
  7
ｽﾀｲﾙ1
100
AcDbText
  0
LINE
  5
AD6
330
1A
100
AcDbEntity
  8
ZUWAKU
100
AcDbLine
 10
208.4466005146678
 20
30.00000018396065
 30
0.0
 11
208.446600514668
 21
0.8000001839607193
 31
0.0
  0
LINE
  5
AD7
330
1A
100
AcDbEntity
  8
ZUWAKU
100
AcDbLine
 10
208.6466005146678
 20
30.00000018396065
 30
0.0
 11
208.6466005146681
 21
0.8000001839607193
 31
0.0
  0
LINE
  5
AD8
330
1A
100
AcDbEntity
  8
ZUWAKU
100
AcDbLine
 10
208.246600514668
 20
30.00000018396065
 30
0.0
 11
208.246600514668
 21
0.8000001839607193
 31
0.0
  0
TEXT
  5
AD9
330
1A
100
AcDbEntity
  8
ZUWAKU
100
AcDbText
 10
209.7240455368776
 20
9.655356722346269
 30
0.0
 40
4.0
  1
サイズ
 41
0.9
  7
ｽﾀｲﾙ1
100
AcDbText
  0
TEXT
  5
ADA
330
1A
100
AcDbEntity
  8
ZUWAKU
100
AcDbText
 10
209.7240455368774
 20
24.05535672234623
 30
0.0
 40
4.0
  1
品名
 41
0.9
  7
ｽﾀｲﾙ1
100
AcDbText
  0
TEXT
  5
ADB
330
1A
100
AcDbEntity
  8
ZUWAKU
100
AcDbText
 10
658.2039369119025
 20
18.00492124136803
 30
0.0
 40
5.599999999999999
  1
　　．　　．　　
 41
0.9
  7
ｽﾀｲﾙ1
100
AcDbText
  0
LINE
  5
ADC
330
1A
100
AcDbEntity
  8
ZUWAKU
100
AcDbLine
 10
648.8172017348042
 20
15.60000018396068
 30
0.0
 11
697.2490097731413
 21
15.60000018396068
 31
0.0
  0
LINE
  5
ADD
330
1A
100
AcDbEntity
  8
ZUWAKU
100
AcDbLine
 10
648.8172017348045
 20
15.40000018396068
 30
0.0
 11
697.2490097731413
 21
15.40000018396068
 31
0.0
  0
LINE
  5
ADE
330
1A
100
AcDbEntity
  8
ZUWAKU
100
AcDbLine
 10
648.8172017348042
 20
15.20000018396068
 30
0.0
 11
697.2490097731413
 21
15.20000018396068
 31
0.0
  0
LINE
  5
ADF
330
1A
100
AcDbEntity
  8
ZUWAKU
100
AcDbLine
 10
505.1991787227409
 20
15.60000018396068
 30
0.0
 11
552.5269549907124
 21
15.60000018396068
 31
0.0
  0
LINE
  5
AE0
330
1A
100
AcDbEntity
  8
ZUWAKU
100
AcDbLine
 10
505.1991787227409
 20
15.40000018396068
 30
0.0
 11
552.5269549907124
 21
15.40000018396068
 31
0.0
  0
LINE
  5
AE1
330
1A
100
AcDbEntity
  8
ZUWAKU
100
AcDbLine
 10
505.1991787227409
 20
15.20000018396069
 30
0.0
 11
552.5269549907124
 21
15.20000018396069
 31
0.0
  0
LINE
  5
AE2
330
1A
100
AcDbEntity
  8
ZUWAKU
100
AcDbLine
 10
504.799178722741
 20
30.00000018396065
 30
0.0
 11
504.799178722741
 21
0.8000001839607193
 31
0.0
  0
LINE
  5
AE3
330
1A
100
AcDbEntity
  8
ZUWAKU
100
AcDbLine
 10
505.1991787227409
 20
30.00000018396065
 30
0.0
 11
505.1991787227412
 21
0.8000001839607193
 31
0.0
  0
LINE
  5
AE4
330
1A
100
AcDbEntity
  8
ZUWAKU
100
AcDbLine
 10
504.9991787227408
 20
30.00000018396065
 30
0.0
 11
504.9991787227411
 21
0.8000001839607193
 31
0.0
  0
TEXT
  5
AE5
330
1A
100
AcDbEntity
  8
MOJI
100
AcDbText
 10
528.0409071969129
 20
18.00492124136803
 30
0.0
 40
5.599999999999999
  1
Ａ３
 41
0.9
  7
ｽﾀｲﾙ1
100
AcDbText
  0
LINE
  5
AE6
330
1A
100
AcDbEntity
  8
ZUWAKU
100
AcDbLine
 10
447.4243631955914
 20
30.00000018396065
 30
0.0
 11
447.4243631955914
 21
0.8000001839607193
 31
0.0
  0
LINE
  5
AE7
330
1A
100
AcDbEntity
  8
ZUWAKU
100
AcDbLine
 10
447.8243631955913
 20
30.00000018396065
 30
0.0
 11
447.8243631955916
 21
0.8000001839607193
 31
0.0
  0
LINE
  5
AE8
330
1A
100
AcDbEntity
  8
ZUWAKU
100
AcDbLine
 10
447.6243631955912
 20
30.00000018396065
 30
0.0
 11
447.6243631955915
 21
0.8000001839607193
 31
0.0
  0
TEXT
  5
AE9
330
1A
100
AcDbEntity
  8
MOJI
100
AcDbText
 10
464.594625227839
 20
11.94261790562063
 30
0.0
 40
5.599999999999999
  1
ＬＧ５３Ｇ
 41
0.9
  7
ｽﾀｲﾙ1
100
AcDbText
  0
TEXT
  5
AEA
330
1A
100
AcDbEntity
  8
ZUWAKU
100
AcDbText
 10
506.6766237449508
 20
9.655356722346269
 30
0.0
 40
4.0
  1
縮尺
 41
0.9
  7
ｽﾀｲﾙ1
100
AcDbText
  0
TEXT
  5
AEB
330
1A
100
AcDbEntity
  8
MOJI
100
AcDbText
 10
528.0409071969129
 20
3.204921241368072
 30
0.0
 40
5.599999999999999
  1
１/２
 41
0.9
  7
ｽﾀｲﾙ1
100
AcDbText
  0
TEXT
  5
AEC
330
1A
100
AcDbEntity
  8
ZUWAKU
100
AcDbText
 10
449.3018082178009
 20
24.05535672234623
 30
0.0
 40
4.0
  1
品番
 41
0.9
  7
ｽﾀｲﾙ1
100
AcDbText
  0
TEXT
  5
AED
330
1A
100
AcDbEntity
  8
ZUWAKU
100
AcDbText
 10
506.6766237449505
 20
24.05535672234623
 30
0.0
 40
4.0
  1
用紙
 41
0.9
  7
ｽﾀｲﾙ1
100
AcDbText
  0
LINE
  5
AEE
330
1A
100
AcDbEntity
  8
ZUWAKU
100
AcDbLine
 10
552.5269549907124
 20
30.00000018396065
 30
0.0
 11
552.5269549907124
 21
0.8000001839607193
 31
0.0
  0
LINE
  5
AEF
330
1A
100
AcDbEntity
  8
ZUWAKU
100
AcDbLine
 10
552.9269549907123
 20
30.00000018396065
 30
0.0
 11
552.9269549907126
 21
0.8000001839607193
 31
0.0
  0
LINE
  5
AF0
330
1A
100
AcDbEntity
  8
ZUWAKU
100
AcDbLine
 10
552.7269549907123
 20
30.00000018396065
 30
0.0
 11
552.7269549907125
 21
0.8000001839607193
 31
0.0
  0
LINE
  5
AF1
330
1A
100
AcDbEntity
  8
ZUWAKU
100
AcDbLine
 10
648.4172017348046
 20
30.00000018396065
 30
0.0
 11
648.4172017348046
 21
0.8000001839607193
 31
0.0
  0
LINE
  5
AF2
330
1A
100
AcDbEntity
  8
ZUWAKU
100
AcDbLine
 10
648.8172017348045
 20
30.00000018396065
 30
0.0
 11
648.8172017348047
 21
0.8000001839607193
 31
0.0
  0
LINE
  5
AF3
330
1A
100
AcDbEntity
  8
ZUWAKU
100
AcDbLine
 10
648.6172017348044
 20
30.00000018396065
 30
0.0
 11
648.6172017348046
 21
0.8000001839607193
 31
0.0
  0
TEXT
  5
AF4
330
1A
100
AcDbEntity
  8
ZUWAKU
100
AcDbText
 10
650.2946467570141
 20
24.05535672234623
 30
0.0
 40
4.0
  1
DATE
 41
0.9
  7
ｽﾀｲﾙ1
100
AcDbText
  0
TEXT
  5
AF5
330
1A
100
AcDbEntity
  8
ZUWAKU
100
AcDbText
 10
708.5280834168438
 20
17.55383951964745
 30
0.0
 40
6.0
  1
積水化学工業株式会社
 41
0.9
  7
ｽﾀｲﾙ1
100
AcDbText
  0
LINE
  5
AF6
330
1A
100
AcDbEntity
  8
ZUWAKU
100
AcDbLine
 10
697.8490097731412
 20
30.00000018396065
 30
0.0
 11
697.8490097731414
 21
0.8000001839607193
 31
0.0
  0
LINE
  5
AF7
330
1A
100
AcDbEntity
  8
ZUWAKU
100
AcDbLine
 10
697.6490097731412
 20
30.00000018396065
 30
0.0
 11
697.6490097731414
 21
0.8000001839607193
 31
0.0
  0
LINE
  5
AF8
330
1A
100
AcDbEntity
  8
ZUWAKU
100
AcDbLine
 10
697.4490097731413
 20
30.00000018396065
 30
0.0
 11
697.4490097731413
 21
0.8000001839607193
 31
0.0
  0
LINE
  5
AF9
330
1A
100
AcDbEntity
  8
ZUWAKU
100
AcDbLine
 10
697.2490097731413
 20
30.00000018396065
 30
0.0
 11
697.2490097731413
 21
0.8000001839607193
 31
0.0
  0
TEXT
  5
AFA
330
1A
100
AcDbEntity
  8
ZUWAKU
100
AcDbText
 10
708.5280834168438
 20
6.648840497814717
 30
0.0
 40
6.0
  1
建材事業部
 41
0.9
  7
ｽﾀｲﾙ1
100
AcDbText
  0
VIEWPORT
  5
22
330
17
100
AcDbEntity
 67
     1
  8
0
100
AcDbViewport
 10
313.6808219178082
 20
148.5
 30
0.0
 40
627.3616438356165
 41
297.0
 68
     2
 69
     1
1001
ACAD
1000
MVIEW
1002
{
1070
    16
1010
0.0
1020
0.0
1030
0.0
1010
0.0
1020
0.0
1030
1.0
1040
0.0
1040
297.0
1040
313.6808219178082
1040
148.5
1040
50.0
1040
0.0
1040
0.0
1070
     0
1070
   100
1070
     1
1070
     0
1070
     0
1070
     0
1070
     0
1070
     0
1040
0.0
1040
0.0
1040
0.0
1040
1.0
1040
1.0
1040
10.0
1040
10.0
1070
     0
1002
{
1002
}
1002
}
  0
VIEWPORT
  5
64
330
17
100
AcDbEntity
 67
     1
  8
VIEWPORT
100
AcDbViewport
 10
210.0
 20
148.5
 30
0.0
 40
420.0
 41
297.0
 68
     1
 69
     2
1001
ACAD
1000
MVIEW
1002
{
1070
    16
1010
0.0
1020
0.0
1030
0.0
1010
0.0
1020
0.0
1030
1.0
1040
0.0
1040
605.8799999999998
1040
420.0
1040
297.0
1040
50.0
1040
0.0
1040
0.0
1070
     0
1070
   100
1070
     1
1070
     0
1070
     0
1070
     0
1070
     0
1070
     0
1040
0.0
1040
0.0
1040
0.0
1040
10.0
1040
10.0
1040
0.0
1040
0.0
1070
     0
1002
{
1002
}
1002
}
  0
ENDSEC
  0
SECTION
  2
OBJECTS
  0
DICTIONARY
  5
C
330
0
100
AcDbDictionary
  3
ACAD_GROUP
350
D
  3
ACAD_LAYOUT
350
911
  3
ACAD_MLINESTYLE
350
E
  3
ACAD_PLOTSETTINGS
350
912
  3
ACAD_PLOTSTYLENAME
350
90F
  3
ACDBHEADERROUNDTRIPXREC
350
B02
  0
DICTIONARY
  5
94A
330
1A
100
AcDbDictionary
280
     1
  3
ACAD_LAYOUTSELFREF
360
B24
  0
DICTIONARY
  5
948
330
17
100
AcDbDictionary
280
     1
  3
ACAD_LAYOUTSELFREF
360
B23
  0
DICTIONARY
  5
D
102
{ACAD_REACTORS
330
C
102
}
330
C
100
AcDbDictionary
  0
DICTIONARY
  5
911
102
{ACAD_REACTORS
330
C
102
}
330
C
100
AcDbDictionary
  0
DICTIONARY
  5
E
102
{ACAD_REACTORS
330
C
102
}
330
C
100
AcDbDictionary
  3
STANDARD
350
13
  0
DICTIONARY
  5
912
102
{ACAD_REACTORS
330
C
102
}
330
C
100
AcDbDictionary
  0
ACDBDICTIONARYWDFLT
  5
90F
102
{ACAD_REACTORS
330
C
102
}
330
C
100
AcDbDictionary
281
     1
  3
Normal
350
910
100
AcDbDictionaryWithDefault
340
910
1001
ACAD
1000
TREAT_AS_HARD
1070
     0
1000
TREAT_AS_HARD
1070
     0
  0
DICTIONARY
  5
B02
102
{ACAD_REACTORS
330
C
102
}
330
C
100
AcDbDictionary
  3
TSTACKALIGN
350
B03
  3
TSTACKSIZE
350
B04
  3
HYPERLINKBASE
350
B05
  3
STYLESHEET
350
B06
  3
LAYOUTDICT
350
B07
  3
PLOTSETDICT
350
B08
  3
PLOTSTYLNAMDICT
350
B09
  3
LWETCUNION
350
B0A
  3
INSUNITS
350
B0B
  3
CEPSNTYPE
350
B0C
  3
FINGERPRINTGUID
350
B0D
  3
VERSIONGUID
350
B0E
  3
PSVPSCALE
350
B0F
  3
DIMSTYLEDATA
350
B10
  3
PUCSORTHOREF
350
B11
  3
PUCSORTHOVIEW
350
B12
  3
PUCSBASE
350
B13
  3
PUCSORGTOP
350
B14
  3
PUCSORGBOTTOM
350
B15
  3
PUCSORGLEFT
350
B16
  3
PUCSORGRIGHT
350
B17
  3
PUCSORGFRONT
350
B18
  3
PUCSORGBACK
350
B19
  3
UCSORTHOREF
350
B1A
  3
UCSORTHOVIEW
350
B1B
  3
UCSBASE
350
B1C
  3
UCSORGTOP
350
B1D
  3
UCSORGBOTTOM
350
B1E
  3
UCSORGLEFT
350
B1F
  3
UCSORGRIGHT
350
B20
  3
UCSORGFRONT
350
B21
  3
UCSORGBACK
350
B22
  0
XRECORD
  5
B24
102
{ACAD_REACTORS
330
94A
102
}
330
94A
100
AcDbXrecord
340
1A
  0
XRECORD
  5
B23
102
{ACAD_REACTORS
330
948
102
}
330
948
100
AcDbXrecord
340
17
  0
MLINESTYLE
  5
13
102
{ACAD_REACTORS
330
E
102
}
330
E
100
AcDbMlineStyle
  2
STANDARD
 70
     0
  3

 62
     0
 51
90.0
 52
90.0
 71
     2
 49
0.5
 62
   256
  6
BYLAYER
 49
-0.5
 62
   256
  6
BYLAYER
  0
ACDBPLACEHOLDER
  5
910
102
{ACAD_REACTORS
330
90F
102
}
330
90F
100
AcDbPlaceHolder
280
     0
  0
XRECORD
  5
B03
102
{ACAD_REACTORS
330
B02
102
}
330
B02
100
AcDbXrecord
 90
        1
  0
XRECORD
  5
B04
102
{ACAD_REACTORS
330
B02
102
}
330
B02
100
AcDbXrecord
 90
       70
  0
XRECORD
  5
B05
102
{ACAD_REACTORS
330
B02
102
}
330
B02
100
AcDbXrecord
  1

  0
XRECORD
  5
B06
102
{ACAD_REACTORS
330
B02
102
}
330
B02
100
AcDbXrecord
  1
systemprinter.ctb
  0
XRECORD
  5
B07
102
{ACAD_REACTORS
330
B02
102
}
330
B02
100
AcDbXrecord
340
911
  0
XRECORD
  5
B08
102
{ACAD_REACTORS
330
B02
102
}
330
B02
100
AcDbXrecord
340
912
  0
XRECORD
  5
B09
102
{ACAD_REACTORS
330
B02
102
}
330
B02
100
AcDbXrecord
340
90F
  0
XRECORD
  5
B0A
102
{ACAD_REACTORS
330
B02
102
}
330
B02
100
AcDbXrecord
 90
    10781
  0
XRECORD
  5
B0B
102
{ACAD_REACTORS
330
B02
102
}
330
B02
100
AcDbXrecord
 90
        0
  0
XRECORD
  5
B0C
102
{ACAD_REACTORS
330
B02
102
}
330
B02
100
AcDbXrecord
 90
        0
  0
XRECORD
  5
B0D
102
{ACAD_REACTORS
330
B02
102
}
330
B02
100
AcDbXrecord
  1
{E41105DB-D30E-11D3-932C-444553540000}
  0
XRECORD
  5
B0E
102
{ACAD_REACTORS
330
B02
102
}
330
B02
100
AcDbXrecord
  1
{469D51F3-E68B-4142-AA99-743E33BC55BA}
  0
XRECORD
  5
B0F
102
{ACAD_REACTORS
330
B02
102
}
330
B02
100
AcDbXrecord
 40
0.0
  0
XRECORD
  5
B10
102
{ACAD_REACTORS
330
B02
102
}
330
B02
100
AcDbXrecord
1000
DSTYLE
1002
{
1070
   341
340
6D
1070
   343
340
6D
1070
   344
340
6D
1070
   371
 70
    -1
1070
   372
 70
    -1
1002
}
  0
XRECORD
  5
B11
102
{ACAD_REACTORS
330
B02
102
}
330
B02
100
AcDbXrecord
340
0
  0
XRECORD
  5
B12
102
{ACAD_REACTORS
330
B02
102
}
330
B02
100
AcDbXrecord
 70
     0
  0
XRECORD
  5
B13
102
{ACAD_REACTORS
330
B02
102
}
330
B02
100
AcDbXrecord
340
0
  0
XRECORD
  5
B14
102
{ACAD_REACTORS
330
B02
102
}
330
B02
100
AcDbXrecord
 10
0.0
 20
0.0
 30
0.0
  0
XRECORD
  5
B15
102
{ACAD_REACTORS
330
B02
102
}
330
B02
100
AcDbXrecord
 10
0.0
 20
0.0
 30
0.0
  0
XRECORD
  5
B16
102
{ACAD_REACTORS
330
B02
102
}
330
B02
100
AcDbXrecord
 10
0.0
 20
0.0
 30
0.0
  0
XRECORD
  5
B17
102
{ACAD_REACTORS
330
B02
102
}
330
B02
100
AcDbXrecord
 10
0.0
 20
0.0
 30
0.0
  0
XRECORD
  5
B18
102
{ACAD_REACTORS
330
B02
102
}
330
B02
100
AcDbXrecord
 10
0.0
 20
0.0
 30
0.0
  0
XRECORD
  5
B19
102
{ACAD_REACTORS
330
B02
102
}
330
B02
100
AcDbXrecord
 10
0.0
 20
0.0
 30
0.0
  0
XRECORD
  5
B1A
102
{ACAD_REACTORS
330
B02
102
}
330
B02
100
AcDbXrecord
340
0
  0
XRECORD
  5
B1B
102
{ACAD_REACTORS
330
B02
102
}
330
B02
100
AcDbXrecord
 70
     0
  0
XRECORD
  5
B1C
102
{ACAD_REACTORS
330
B02
102
}
330
B02
100
AcDbXrecord
340
0
  0
XRECORD
  5
B1D
102
{ACAD_REACTORS
330
B02
102
}
330
B02
100
AcDbXrecord
 10
0.0
 20
0.0
 30
0.0
  0
XRECORD
  5
B1E
102
{ACAD_REACTORS
330
B02
102
}
330
B02
100
AcDbXrecord
 10
0.0
 20
0.0
 30
0.0
  0
XRECORD
  5
B1F
102
{ACAD_REACTORS
330
B02
102
}
330
B02
100
AcDbXrecord
 10
0.0
 20
0.0
 30
0.0
  0
XRECORD
  5
B20
102
{ACAD_REACTORS
330
B02
102
}
330
B02
100
AcDbXrecord
 10
0.0
 20
0.0
 30
0.0
  0
XRECORD
  5
B21
102
{ACAD_REACTORS
330
B02
102
}
330
B02
100
AcDbXrecord
 10
0.0
 20
0.0
 30
0.0
  0
XRECORD
  5
B22
102
{ACAD_REACTORS
330
B02
102
}
330
B02
100
AcDbXrecord
 10
0.0
 20
0.0
 30
0.0
  0
ENDSEC
  0
EOF
