  0
SECTION
  2
HEADER
  9
$ACADVER
  1
AC1015
  9
$ACADMAINTVER
 70
     6
  9
$DWGCODEPAGE
  3
ANSI_932
  9
$INSBASE
 10
0.0
 20
0.0
 30
0.0
  9
$EXTMIN
 10
10.05047808566086
 20
13.78258628282265
 30
0.0
  9
$EXTMAX
 10
807.6504780856607
 20
565.3825862828227
 30
0.0
  9
$LIMMIN
 10
0.0
 20
0.0
  9
$LIMMAX
 10
840.0
 20
594.0
  9
$ORTHOMODE
 70
     0
  9
$REGENMODE
 70
     1
  9
$FILLMODE
 70
     1
  9
$QTEXTMODE
 70
     0
  9
$MIRRTEXT
 70
     1
  9
$LTSCALE
 40
2.0
  9
$ATTMODE
 70
     1
  9
$TEXTSIZE
 40
5.0
  9
$TRACEWID
 40
1.0
  9
$TEXTSTYLE
  7
STANDARD
  9
$CLAYER
  8
0
  9
$CELTYPE
  6
BYLAYER
  9
$CECOLOR
 62
   256
  9
$CELTSCALE
 40
1.0
  9
$DISPSILH
 70
     0
  9
$DIMSCALE
 40
1.0
  9
$DIMASZ
 40
7.0
  9
$DIMEXO
 40
6.0
  9
$DIMDLI
 40
14.0
  9
$DIMRND
 40
0.0
  9
$DIMDLE
 40
0.0
  9
$DIMEXE
 40
3.0
  9
$DIMTP
 40
0.0
  9
$DIMTM
 40
0.0
  9
$DIMTXT
 40
6.0
  9
$DIMCEN
 40
150.0
  9
$DIMTSZ
 40
0.0
  9
$DIMTOL
 70
     0
  9
$DIMLIM
 70
     0
  9
$DIMTIH
 70
     0
  9
$DIMTOH
 70
     0
  9
$DIMSE1
 70
     0
  9
$DIMSE2
 70
     0
  9
$DIMTAD
 70
     3
  9
$DIMZIN
 70
     0
  9
$DIMBLK
  1

  9
$DIMASO
 70
     1
  9
$DIMSHO
 70
     1
  9
$DIMPOST
  1

  9
$DIMAPOST
  1

  9
$DIMALT
 70
     0
  9
$DIMALTD
 70
     2
  9
$DIMALTF
 40
25.4
  9
$DIMLFAC
 40
1.0
  9
$DIMTOFL
 70
     1
  9
$DIMTVP
 40
0.0
  9
$DIMTIX
 70
     0
  9
$DIMSOXD
 70
     0
  9
$DIMSAH
 70
     1
  9
$DIMBLK1
  1
OPEN
  9
$DIMBLK2
  1
OPEN
  9
$DIMSTYLE
  2
STANDARD
  9
$DIMCLRD
 70
   256
  9
$DIMCLRE
 70
   256
  9
$DIMCLRT
 70
   256
  9
$DIMTFAC
 40
1.0
  9
$DIMGAP
 40
2.0
  9
$DIMJUST
 70
     0
  9
$DIMSD1
 70
     0
  9
$DIMSD2
 70
     0
  9
$DIMTOLJ
 70
     1
  9
$DIMTZIN
 70
     0
  9
$DIMALTZ
 70
     0
  9
$DIMALTTZ
 70
     0
  9
$DIMUPT
 70
     0
  9
$DIMDEC
 70
     0
  9
$DIMTDEC
 70
     0
  9
$DIMALTU
 70
     2
  9
$DIMALTTD
 70
     2
  9
$DIMTXSTY
  7
STANDARD
  9
$DIMAUNIT
 70
     0
  9
$DIMADEC
 70
     0
  9
$DIMALTRND
 40
0.0
  9
$DIMAZIN
 70
     0
  9
$DIMDSEP
 70
    46
  9
$DIMATFIT
 70
     3
  9
$DIMFRAC
 70
     0
  9
$DIMLDRBLK
  1
OPEN
  9
$DIMLUNIT
 70
     2
  9
$DIMLWD
 70
    -1
  9
$DIMLWE
 70
    -1
  9
$DIMTMOVE
 70
     0
  9
$LUNITS
 70
     2
  9
$LUPREC
 70
     4
  9
$SKETCHINC
 40
1.0
  9
$FILLETRAD
 40
0.5
  9
$AUNITS
 70
     0
  9
$AUPREC
 70
     0
  9
$MENU
  1
.
  9
$ELEVATION
 40
0.0
  9
$PELEVATION
 40
0.0
  9
$THICKNESS
 40
0.0
  9
$LIMCHECK
 70
     0
  9
$CHAMFERA
 40
20.0
  9
$CHAMFERB
 40
20.0
  9
$CHAMFERC
 40
40.0
  9
$CHAMFERD
 40
0.0
  9
$SKPOLY
 70
     0
  9
$TDCREATE
 40
2454866.469916053
  9
$TDUCREATE
 40
2454866.094916053
  9
$TDUPDATE
 40
2456216.593429629
  9
$TDUUPDATE
 40
2456216.218429629
  9
$TDINDWG
 40
0.0533880787
  9
$TDUSRTIMER
 40
0.0533880787
  9
$USRTIMER
 70
     1
  9
$ANGBASE
 50
0.0
  9
$ANGDIR
 70
     0
  9
$PDMODE
 70
     0
  9
$PDSIZE
 40
0.0
  9
$PLINEWID
 40
0.0
  9
$SPLFRAME
 70
     0
  9
$SPLINETYPE
 70
     6
  9
$SPLINESEGS
 70
     8
  9
$HANDSEED
  5
89DB
  9
$SURFTAB1
 70
     6
  9
$SURFTAB2
 70
     6
  9
$SURFTYPE
 70
     6
  9
$SURFU
 70
     6
  9
$SURFV
 70
     6
  9
$UCSBASE
  2

  9
$UCSNAME
  2

  9
$UCSORG
 10
0.0
 20
0.0
 30
0.0
  9
$UCSXDIR
 10
1.0
 20
0.0
 30
0.0
  9
$UCSYDIR
 10
0.0
 20
1.0
 30
0.0
  9
$UCSORTHOREF
  2

  9
$UCSORTHOVIEW
 70
     0
  9
$UCSORGTOP
 10
0.0
 20
0.0
 30
0.0
  9
$UCSORGBOTTOM
 10
0.0
 20
0.0
 30
0.0
  9
$UCSORGLEFT
 10
0.0
 20
0.0
 30
0.0
  9
$UCSORGRIGHT
 10
0.0
 20
0.0
 30
0.0
  9
$UCSORGFRONT
 10
0.0
 20
0.0
 30
0.0
  9
$UCSORGBACK
 10
0.0
 20
0.0
 30
0.0
  9
$PUCSBASE
  2

  9
$PUCSNAME
  2

  9
$PUCSORG
 10
0.0
 20
0.0
 30
0.0
  9
$PUCSXDIR
 10
1.0
 20
0.0
 30
0.0
  9
$PUCSYDIR
 10
0.0
 20
1.0
 30
0.0
  9
$PUCSORTHOREF
  2

  9
$PUCSORTHOVIEW
 70
     0
  9
$PUCSORGTOP
 10
0.0
 20
0.0
 30
0.0
  9
$PUCSORGBOTTOM
 10
0.0
 20
0.0
 30
0.0
  9
$PUCSORGLEFT
 10
0.0
 20
0.0
 30
0.0
  9
$PUCSORGRIGHT
 10
0.0
 20
0.0
 30
0.0
  9
$PUCSORGFRONT
 10
0.0
 20
0.0
 30
0.0
  9
$PUCSORGBACK
 10
0.0
 20
0.0
 30
0.0
  9
$USERI1
 70
     0
  9
$USERI2
 70
     0
  9
$USERI3
 70
     0
  9
$USERI4
 70
     0
  9
$USERI5
 70
     0
  9
$USERR1
 40
0.0
  9
$USERR2
 40
0.0
  9
$USERR3
 40
0.0
  9
$USERR4
 40
0.0
  9
$USERR5
 40
0.0
  9
$WORLDVIEW
 70
     1
  9
$SHADEDGE
 70
     3
  9
$SHADEDIF
 70
    70
  9
$TILEMODE
 70
     1
  9
$MAXACTVP
 70
    16
  9
$PINSBASE
 10
0.0
 20
0.0
 30
0.0
  9
$PLIMCHECK
 70
     0
  9
$PEXTMIN
 10
0.0
 20
0.0
 30
0.0
  9
$PEXTMAX
 10
420.0
 20
297.0
 30
0.0
  9
$PLIMMIN
 10
0.0
 20
0.0
  9
$PLIMMAX
 10
420.0
 20
297.0
  9
$UNITMODE
 70
     0
  9
$VISRETAIN
 70
     0
  9
$PLINEGEN
 70
     0
  9
$PSLTSCALE
 70
     1
  9
$TREEDEPTH
 70
  3020
  9
$CMLSTYLE
  2
STANDARD
  9
$CMLJUST
 70
     0
  9
$CMLSCALE
 40
1.0
  9
$PROXYGRAPHICS
 70
     1
  9
$MEASUREMENT
 70
     1
  9
$CELWEIGHT
370
    -1
  9
$ENDCAPS
280
     0
  9
$JOINSTYLE
280
     0
  9
$LWDISPLAY
290
     0
  9
$INSUNITS
 70
     0
  9
$HYPERLINKBASE
  1

  9
$STYLESHEET
  1
print.ctb
  9
$XEDIT
290
     1
  9
$CEPSNTYPE
380
     0
  9
$PSTYLEMODE
290
     1
  9
$FINGERPRINTGUID
  2
{8D6CB018-5425-46D7-BA3D-129D74F567FA}
  9
$VERSIONGUID
  2
{AAF46DC1-C689-4191-A668-A519D86FDCFC}
  9
$EXTNAMES
290
     1
  9
$PSVPSCALE
 40
0.0
  9
$OLESTARTUP
290
     0
  0
ENDSEC
  0
SECTION
  2
CLASSES
  0
CLASS
  1
ACDBDICTIONARYWDFLT
  2
AcDbDictionaryWithDefault
  3
AutoCAD 2000
 90
        0
280
     0
281
     0
  0
CLASS
  1
ACDBPLACEHOLDER
  2
AcDbPlaceHolder
  3
AutoCAD 2000
 90
        0
280
     0
281
     0
  0
CLASS
  1
LAYOUT
  2
AcDbLayout
  3
AutoCAD 2000
 90
        0
280
     0
281
     0
  0
CLASS
  1
LONG_TRANSACTION
  2
AcDbLongTransaction
  3
AutoCAD 2000
 90
    32768
280
     0
281
     0
  0
CLASS
  1
LWPOLYLINE
  2
AcDbPolyline
  3
AutoCAD 2000
 90
    32768
280
     0
281
     1
  0
CLASS
  1
HATCH
  2
AcDbHatch
  3
AutoCAD 2000
 90
    32768
280
     0
281
     1
  0
CLASS
  1
XRECORD
  2
AcDbXrecord
  3
AutoCAD 2000
 90
    32768
280
     0
281
     0
  0
CLASS
  1
LONG_TRANSACTION
  2
AcDbLongTransaction
  3
AutoCAD 2000
 90
    32768
280
     0
281
     0
  0
CLASS
  1
LWPOLYLINE
  2
AcDbPolyline
  3
AutoCAD 2000
 90
    32768
280
     0
281
     1
  0
CLASS
  1
HATCH
  2
AcDbHatch
  3
AutoCAD 2000
 90
    32768
280
     0
281
     1
  0
CLASS
  1
XRECORD
  2
AcDbXrecord
  3
AutoCAD 2000
 90
    32768
280
     0
281
     0
  0
CLASS
  1
LONG_TRANSACTION
  2
AcDbLongTransaction
  3
AutoCAD 2000
 90
    32768
280
     0
281
     0
  0
CLASS
  1
LWPOLYLINE
  2
AcDbPolyline
  3
AutoCAD 2000
 90
    32768
280
     0
281
     1
  0
CLASS
  1
HATCH
  2
AcDbHatch
  3
AutoCAD 2000
 90
    32768
280
     0
281
     1
  0
CLASS
  1
XRECORD
  2
AcDbXrecord
  3
AutoCAD 2000
 90
    32768
280
     0
281
     0
  0
CLASS
  1
LONG_TRANSACTION
  2
AcDbLongTransaction
  3
AutoCAD 2000
 90
    32768
280
     0
281
     0
  0
CLASS
  1
LWPOLYLINE
  2
AcDbPolyline
  3
AutoCAD 2000
 90
    32768
280
     0
281
     1
  0
CLASS
  1
HATCH
  2
AcDbHatch
  3
AutoCAD 2000
 90
    32768
280
     0
281
     1
  0
CLASS
  1
XRECORD
  2
AcDbXrecord
  3
AutoCAD 2000
 90
    32768
280
     0
281
     0
  0
CLASS
  1
DICTIONARYVAR
  2
AcDbDictionaryVar
  3
AutoCAD 2000
 90
        0
280
     0
281
     0
  0
CLASS
  1
LONG_TRANSACTION
  2
AcDbLongTransaction
  3
AutoCAD 2000
 90
    32768
280
     0
281
     0
  0
CLASS
  1
LWPOLYLINE
  2
AcDbPolyline
  3
AutoCAD 2000
 90
    32768
280
     0
281
     1
  0
CLASS
  1
HATCH
  2
AcDbHatch
  3
AutoCAD 2000
 90
    32768
280
     0
281
     1
  0
CLASS
  1
XRECORD
  2
AcDbXrecord
  3
AutoCAD 2000
 90
    32768
280
     0
281
     0
  0
CLASS
  1
LONG_TRANSACTION
  2
AcDbLongTransaction
  3
AutoCAD 2000
 90
    32768
280
     0
281
     0
  0
CLASS
  1
LWPOLYLINE
  2
AcDbPolyline
  3
AutoCAD 2000
 90
    32768
280
     0
281
     1
  0
CLASS
  1
HATCH
  2
AcDbHatch
  3
AutoCAD 2000
 90
    32768
280
     0
281
     1
  0
CLASS
  1
XRECORD
  2
AcDbXrecord
  3
AutoCAD 2000
 90
    32768
280
     0
281
     0
  0
CLASS
  1
LONG_TRANSACTION
  2
AcDbLongTransaction
  3
AutoCAD 2000
 90
    32768
280
     0
281
     0
  0
CLASS
  1
LWPOLYLINE
  2
AcDbPolyline
  3
AutoCAD 2000
 90
    32768
280
     0
281
     1
  0
CLASS
  1
HATCH
  2
AcDbHatch
  3
AutoCAD 2000
 90
    32768
280
     0
281
     1
  0
CLASS
  1
XRECORD
  2
AcDbXrecord
  3
AutoCAD 2000
 90
    32768
280
     0
281
     0
  0
CLASS
  1
LONG_TRANSACTION
  2
AcDbLongTransaction
  3
AutoCAD 2000
 90
    32768
280
     0
281
     0
  0
CLASS
  1
LWPOLYLINE
  2
AcDbPolyline
  3
AutoCAD 2000
 90
    32768
280
     0
281
     1
  0
CLASS
  1
HATCH
  2
AcDbHatch
  3
AutoCAD 2000
 90
    32768
280
     0
281
     1
  0
CLASS
  1
XRECORD
  2
AcDbXrecord
  3
AutoCAD 2000
 90
    32768
280
     0
281
     0
  0
CLASS
  1
LONG_TRANSACTION
  2
AcDbLongTransaction
  3
AutoCAD 2000
 90
    32768
280
     0
281
     0
  0
CLASS
  1
LWPOLYLINE
  2
AcDbPolyline
  3
AutoCAD 2000
 90
    32768
280
     0
281
     1
  0
CLASS
  1
HATCH
  2
AcDbHatch
  3
AutoCAD 2000
 90
    32768
280
     0
281
     1
  0
CLASS
  1
XRECORD
  2
AcDbXrecord
  3
AutoCAD 2000
 90
    32768
280
     0
281
     0
  0
CLASS
  1
LONG_TRANSACTION
  2
AcDbLongTransaction
  3
AutoCAD 2000
 90
    32768
280
     0
281
     0
  0
CLASS
  1
LWPOLYLINE
  2
AcDbPolyline
  3
AutoCAD 2000
 90
    32768
280
     0
281
     1
  0
CLASS
  1
HATCH
  2
AcDbHatch
  3
AutoCAD 2000
 90
    32768
280
     0
281
     1
  0
CLASS
  1
XRECORD
  2
AcDbXrecord
  3
AutoCAD 2000
 90
    32768
280
     0
281
     0
  0
CLASS
  1
LONG_TRANSACTION
  2
AcDbLongTransaction
  3
AutoCAD 2000
 90
    32768
280
     0
281
     0
  0
CLASS
  1
LWPOLYLINE
  2
AcDbPolyline
  3
AutoCAD 2000
 90
    32768
280
     0
281
     1
  0
CLASS
  1
HATCH
  2
AcDbHatch
  3
AutoCAD 2000
 90
    32768
280
     0
281
     1
  0
CLASS
  1
XRECORD
  2
AcDbXrecord
  3
AutoCAD 2000
 90
    32768
280
     0
281
     0
  0
CLASS
  1
LONG_TRANSACTION
  2
AcDbLongTransaction
  3
AutoCAD 2000
 90
    32768
280
     0
281
     0
  0
CLASS
  1
LWPOLYLINE
  2
AcDbPolyline
  3
AutoCAD 2000
 90
    32768
280
     0
281
     1
  0
CLASS
  1
HATCH
  2
AcDbHatch
  3
AutoCAD 2000
 90
    32768
280
     0
281
     1
  0
CLASS
  1
XRECORD
  2
AcDbXrecord
  3
AutoCAD 2000
 90
    32768
280
     0
281
     0
  0
CLASS
  1
LONG_TRANSACTION
  2
AcDbLongTransaction
  3
AutoCAD 2000
 90
    32768
280
     0
281
     0
  0
CLASS
  1
LWPOLYLINE
  2
AcDbPolyline
  3
AutoCAD 2000
 90
    32768
280
     0
281
     1
  0
CLASS
  1
HATCH
  2
AcDbHatch
  3
AutoCAD 2000
 90
    32768
280
     0
281
     1
  0
CLASS
  1
XRECORD
  2
AcDbXrecord
  3
AutoCAD 2000
 90
    32768
280
     0
281
     0
  0
CLASS
  1
LONG_TRANSACTION
  2
AcDbLongTransaction
  3
AutoCAD 2000
 90
    32768
280
     0
281
     0
  0
CLASS
  1
LWPOLYLINE
  2
AcDbPolyline
  3
AutoCAD 2000
 90
    32768
280
     0
281
     1
  0
CLASS
  1
HATCH
  2
AcDbHatch
  3
AutoCAD 2000
 90
    32768
280
     0
281
     1
  0
CLASS
  1
XRECORD
  2
AcDbXrecord
  3
AutoCAD 2000
 90
    32768
280
     0
281
     0
  0
CLASS
  1
LONG_TRANSACTION
  2
AcDbLongTransaction
  3
AutoCAD 2000
 90
    32768
280
     0
281
     0
  0
CLASS
  1
LWPOLYLINE
  2
AcDbPolyline
  3
AutoCAD 2000
 90
    32768
280
     0
281
     1
  0
CLASS
  1
HATCH
  2
AcDbHatch
  3
AutoCAD 2000
 90
    32768
280
     0
281
     1
  0
CLASS
  1
XRECORD
  2
AcDbXrecord
  3
AutoCAD 2000
 90
    32768
280
     0
281
     0
  0
CLASS
  1
LONG_TRANSACTION
  2
AcDbLongTransaction
  3
AutoCAD 2000
 90
    32768
280
     0
281
     0
  0
CLASS
  1
LWPOLYLINE
  2
AcDbPolyline
  3
AutoCAD 2000
 90
    32768
280
     0
281
     1
  0
CLASS
  1
HATCH
  2
AcDbHatch
  3
AutoCAD 2000
 90
    32768
280
     0
281
     1
  0
CLASS
  1
XRECORD
  2
AcDbXrecord
  3
AutoCAD 2000
 90
    32768
280
     0
281
     0
  0
ENDSEC
  0
SECTION
  2
TABLES
  0
TABLE
  2
VPORT
  5
8
330
0
100
AcDbSymbolTable
 70
     2
  0
VPORT
  5
89DA
330
8
100
AcDbSymbolTableRecord
100
AcDbViewportTableRecord
  2
*Active
 70
     0
 10
0.0
 20
0.0
 11
1.0
 21
1.0
 12
426.4892743403094
 22
297.0
 13
0.0
 23
0.0
 14
5.0
 24
5.0
 15
0.0
 25
0.0
 16
0.0
 26
0.0
 36
1.0
 17
0.0
 27
0.0
 37
0.0
 40
598.540127388535
 41
1.557397959183673
 42
50.0
 43
0.0
 44
0.0
 50
0.0
 51
0.0
 71
     0
 72
   100
 73
     1
 74
     0
 75
     0
 76
     0
 77
     0
 78
     0
281
     0
 65
     1
110
0.0
120
0.0
130
0.0
111
1.0
121
0.0
131
0.0
112
0.0
122
1.0
132
0.0
 79
     0
146
0.0
  0
ENDTAB
  0
TABLE
  2
LTYPE
  5
5
330
0
100
AcDbSymbolTable
 70
     4
  0
LTYPE
  5
14
330
5
100
AcDbSymbolTableRecord
100
AcDbLinetypeTableRecord
  2
BYBLOCK
 70
     0
  3

 72
    65
 73
     0
 40
0.0
  0
LTYPE
  5
15
330
5
100
AcDbSymbolTableRecord
100
AcDbLinetypeTableRecord
  2
BYLAYER
 70
     0
  3

 72
    65
 73
     0
 40
0.0
  0
LTYPE
  5
16
330
5
100
AcDbSymbolTableRecord
100
AcDbLinetypeTableRecord
  2
CONTINUOUS
 70
     0
  3
Solid line
 72
    65
 73
     0
 40
0.0
  0
LTYPE
  5
135
330
5
100
AcDbSymbolTableRecord
100
AcDbLinetypeTableRecord
  2
CENTER
 70
     0
  3
____ _ ____ _ ____ _ ____ _ ____ _ ____ _ ____ 
 72
    65
 73
     4
 40
2.0
 49
1.25
 74
     0
 49
-0.25
 74
     0
 49
0.25
 74
     0
 49
-0.25
 74
     0
  0
LTYPE
  5
1527
330
5
100
AcDbSymbolTableRecord
100
AcDbLinetypeTableRecord
  2
SLDSECTION0
 70
     0
  3

 72
    65
 73
     4
 40
10.16
 49
6.349999999999999
 74
     0
 49
-1.27
 74
     0
 49
1.27
 74
     0
 49
-1.27
 74
     0
  0
LTYPE
  5
3D66
330
5
100
AcDbSymbolTableRecord
100
AcDbLinetypeTableRecord
  2
PHANTOM
 70
     0
  3
______  __  __  ______  __  __  ______  __  __ 
 72
    65
 73
     6
 40
2.5
 49
1.25
 74
     0
 49
-0.25
 74
     0
 49
0.25
 74
     0
 49
-0.25
 74
     0
 49
0.25
 74
     0
 49
-0.25
 74
     0
  0
ENDTAB
  0
TABLE
  2
LAYER
  5
2
330
0
100
AcDbSymbolTable
 70
     9
  0
LAYER
  5
F
330
2
100
AcDbSymbolTableRecord
100
AcDbLayerTableRecord
  2
0
 70
     0
 62
     7
  6
CONTINUOUS
370
    -3
390
33F
  0
LAYER
  5
62
330
2
100
AcDbSymbolTableRecord
100
AcDbLayerTableRecord
  2
VIEWPORT
 70
     0
 62
     7
  6
CONTINUOUS
370
    -3
390
33F
  0
LAYER
  5
65
330
2
100
AcDbSymbolTableRecord
100
AcDbLayerTableRecord
  2
ZUWAKU
 70
     0
 62
     7
  6
CONTINUOUS
370
    -3
390
33F
  0
LAYER
  5
153
330
2
100
AcDbSymbolTableRecord
100
AcDbLayerTableRecord
  2
SEIHIN
 70
     0
 62
     3
  6
CONTINUOUS
370
    -3
390
33F
  0
LAYER
  5
154
330
2
100
AcDbSymbolTableRecord
100
AcDbLayerTableRecord
  2
SUNPOU
 70
     0
 62
     4
  6
CONTINUOUS
370
    -3
390
33F
  0
LAYER
  5
155
330
2
100
AcDbSymbolTableRecord
100
AcDbLayerTableRecord
  2
CENTER L
 70
     0
 62
     1
  6
CENTER
370
    -3
390
33F
  0
LAYER
  5
24D
330
2
100
AcDbSymbolTableRecord
100
AcDbLayerTableRecord
  2
DEFPOINTS
 70
     0
 62
     7
  6
CONTINUOUS
290
     0
370
    -3
390
33F
  0
LAYER
  5
59A
330
2
100
AcDbSymbolTableRecord
100
AcDbLayerTableRecord
  2
moji
 70
     0
 62
     2
  6
CONTINUOUS
370
    -3
390
33F
  0
LAYER
  5
1528
330
2
100
AcDbSymbolTableRecord
100
AcDbLayerTableRecord
  2
NOKITOI
 70
     0
 62
     9
  6
SLDSECTION0
370
    -3
390
33F
  0
ENDTAB
  0
TABLE
  2
STYLE
  5
3
330
0
100
AcDbSymbolTable
 70
     2
  0
STYLE
  5
10
330
3
100
AcDbSymbolTableRecord
100
AcDbTextStyleTableRecord
  2
STANDARD
 70
     0
 40
0.0
 41
1.0
 50
0.0
 71
     0
 42
5.0
  3
TXT
  4
bigfont.shx
  0
STYLE
  5
59B
330
3
100
AcDbSymbolTableRecord
100
AcDbTextStyleTableRecord
  2
ｽﾀｲﾙ1
 70
     0
 40
0.0
 41
1.0
 50
0.0
 71
     0
 42
2.5
  3
MS PGothic.ttf
  4

1001
ACAD
1000
MS PGothic
1071
    32818
  0
ENDTAB
  0
TABLE
  2
VIEW
  5
6
330
0
100
AcDbSymbolTable
 70
     0
  0
ENDTAB
  0
TABLE
  2
UCS
  5
7
330
0
100
AcDbSymbolTable
 70
     0
  0
ENDTAB
  0
TABLE
  2
APPID
  5
9
330
0
100
AcDbSymbolTable
 70
     1
  0
APPID
  5
11
330
9
100
AcDbSymbolTableRecord
100
AcDbRegAppTableRecord
  2
ACAD
 70
     0
  0
ENDTAB
  0
TABLE
  2
DIMSTYLE
  5
A
330
0
100
AcDbSymbolTable
 70
     1
100
AcDbDimStyleTable
 71
     0
  0
DIMSTYLE
105
1D
102
{ACAD_REACTORS
330
7ED1
330
7EE1
330
7EE5
330
7EE6
330
7EE7
330
7EF6
330
7EFA
330
7F54
330
7F55
330
7FB9
330
7FBE
330
7FC4
330
7FD7
330
7FEB
330
8022
330
8343
102
}
330
A
100
AcDbSymbolTableRecord
100
AcDbDimStyleTableRecord
  2
STANDARD
 70
     0
340
10
  0
ENDTAB
  0
TABLE
  2
BLOCK_RECORD
  5
1
330
0
100
AcDbSymbolTable
 70
    18
  0
BLOCK_RECORD
  5
1A
102
{ACAD_XDICTIONARY
360
385
102
}
330
1
100
AcDbSymbolTableRecord
100
AcDbBlockTableRecord
  2
*MODEL_SPACE
340
342
  0
BLOCK_RECORD
  5
17
102
{ACAD_XDICTIONARY
360
383
102
}
330
1
100
AcDbSymbolTableRecord
100
AcDbBlockTableRecord
  2
*PAPER_SPACE
340
343
  0
BLOCK_RECORD
  5
6D
330
1
100
AcDbSymbolTableRecord
100
AcDbBlockTableRecord
  2
_OPEN
340
0
102
{BLKREFS
331
8658
331
8659
331
84AE
331
84AF
331
8661
331
8662
331
84DB
331
84DC
331
84C0
331
84C1
331
84C9
331
84CA
331
84D2
331
84D3
331
84ED
331
84EE
331
84E4
331
84E5
331
8511
331
8512
331
851A
331
851B
331
8508
331
8509
331
84FF
331
8500
331
84F6
331
84F7
331
852C
331
852D
331
85D8
331
85D9
102
}
  0
BLOCK_RECORD
  5
3A4
330
1
100
AcDbSymbolTableRecord
100
AcDbBlockTableRecord
  2
*X1
340
0
102
{BLKREFS
331
6D8
102
}
  0
BLOCK_RECORD
  5
805F
330
1
100
AcDbSymbolTableRecord
100
AcDbBlockTableRecord
  2
*D2
340
0
  0
BLOCK_RECORD
  5
806B
330
1
100
AcDbSymbolTableRecord
100
AcDbBlockTableRecord
  2
*D3
340
0
  0
BLOCK_RECORD
  5
8077
330
1
100
AcDbSymbolTableRecord
100
AcDbBlockTableRecord
  2
*D4
340
0
  0
BLOCK_RECORD
  5
8083
330
1
100
AcDbSymbolTableRecord
100
AcDbBlockTableRecord
  2
*D5
340
0
  0
BLOCK_RECORD
  5
808F
330
1
100
AcDbSymbolTableRecord
100
AcDbBlockTableRecord
  2
*D6
340
0
  0
BLOCK_RECORD
  5
809B
330
1
100
AcDbSymbolTableRecord
100
AcDbBlockTableRecord
  2
*D7
340
0
  0
BLOCK_RECORD
  5
80A7
330
1
100
AcDbSymbolTableRecord
100
AcDbBlockTableRecord
  2
*D8
340
0
  0
BLOCK_RECORD
  5
80B3
330
1
100
AcDbSymbolTableRecord
100
AcDbBlockTableRecord
  2
*D9
340
0
  0
BLOCK_RECORD
  5
80BF
330
1
100
AcDbSymbolTableRecord
100
AcDbBlockTableRecord
  2
*D10
340
0
  0
BLOCK_RECORD
  5
80CB
330
1
100
AcDbSymbolTableRecord
100
AcDbBlockTableRecord
  2
*D11
340
0
  0
BLOCK_RECORD
  5
80D7
330
1
100
AcDbSymbolTableRecord
100
AcDbBlockTableRecord
  2
*D12
340
0
  0
BLOCK_RECORD
  5
80E3
330
1
100
AcDbSymbolTableRecord
100
AcDbBlockTableRecord
  2
*D13
340
0
  0
BLOCK_RECORD
  5
80EF
330
1
100
AcDbSymbolTableRecord
100
AcDbBlockTableRecord
  2
*D14
340
0
  0
BLOCK_RECORD
  5
80FB
330
1
100
AcDbSymbolTableRecord
100
AcDbBlockTableRecord
  2
*D15
340
0
  0
BLOCK_RECORD
  5
8107
330
1
100
AcDbSymbolTableRecord
100
AcDbBlockTableRecord
  2
*D16
340
0
  0
BLOCK_RECORD
  5
8344
330
1
100
AcDbSymbolTableRecord
100
AcDbBlockTableRecord
  2
*D17
340
0
  0
ENDTAB
  0
ENDSEC
  0
SECTION
  2
BLOCKS
  0
BLOCK
  5
1B
330
1A
100
AcDbEntity
  8
0
100
AcDbBlockBegin
  2
*MODEL_SPACE
 70
     0
 10
0.0
 20
0.0
 30
0.0
  3
*MODEL_SPACE
  1

  0
ENDBLK
  5
1C
330
1A
100
AcDbEntity
  8
0
100
AcDbBlockEnd
  0
BLOCK
  5
18
330
17
100
AcDbEntity
 67
     1
  8
0
100
AcDbBlockBegin
  2
*PAPER_SPACE
 70
     0
 10
0.0
 20
0.0
 30
0.0
  3
*PAPER_SPACE
  1

  0
ENDBLK
  5
19
330
17
100
AcDbEntity
 67
     1
  8
0
100
AcDbBlockEnd
  0
BLOCK
  5
6E
330
6D
100
AcDbEntity
  8
0
100
AcDbBlockBegin
  2
_OPEN
 70
     0
 10
0.0
 20
0.0
 30
0.0
  3
_OPEN
  1

  0
LINE
  5
6F
330
6D
100
AcDbEntity
  8
0
  6
ByBlock
 62
     0
100
AcDbLine
 10
-1.0
 20
0.1666666666666666
 30
0.0
 11
0.0
 21
0.0
 31
0.0
  0
LINE
  5
70
330
6D
100
AcDbEntity
  8
0
  6
ByBlock
 62
     0
100
AcDbLine
 10
0.0
 20
0.0
 30
0.0
 11
-1.0
 21
-0.1666666666666666
 31
0.0
  0
LINE
  5
71
330
6D
100
AcDbEntity
  8
0
  6
ByBlock
 62
     0
100
AcDbLine
 10
0.0
 20
0.0
 30
0.0
 11
-1.0
 21
0.0
 31
0.0
  0
ENDBLK
  5
72
330
6D
100
AcDbEntity
  8
0
100
AcDbBlockEnd
  0
BLOCK
  5
538
330
3A4
100
AcDbEntity
  8
0
100
AcDbBlockBegin
  2
*X1
 70
     1
 10
0.0
 20
0.0
 30
0.0
  3
*X1
  1

  0
LINE
  5
3A5
330
3A4
100
AcDbEntity
  8
0
 62
     0
100
AcDbLine
 10
66.75047808566091
 20
28.71175535310772
 30
0.0
 11
66.10464715594599
 21
29.35758628282269
 31
0.0
  0
LINE
  5
3A6
330
3A4
100
AcDbEntity
  8
0
 62
     0
100
AcDbLine
 10
66.75047808566091
 20
27.81372974100082
 30
0.0
 11
65.20662154383905
 21
29.35758628282269
 31
0.0
  0
LINE
  5
3A7
330
3A4
100
AcDbEntity
  8
0
 62
     0
100
AcDbLine
 10
66.75047808566086
 20
26.91570412889388
 30
0.0
 11
64.32934413964591
 21
29.33683807490882
 31
0.0
  0
LINE
  5
3A8
330
3A4
100
AcDbEntity
  8
0
 62
     0
100
AcDbLine
 10
66.75047808566091
 20
26.01767851678704
 30
0.0
 11
63.95047808566085
 21
28.81767851678705
 31
0.0
  0
LINE
  5
3A9
330
3A4
100
AcDbEntity
  8
0
 62
     0
100
AcDbLine
 10
66.75047808566091
 20
25.11965290468009
 30
0.0
 11
63.95047808566085
 21
27.91965290468016
 31
0.0
  0
LINE
  5
3AA
330
3A4
100
AcDbEntity
  8
0
 62
     0
100
AcDbLine
 10
66.75047808566086
 20
24.22162729257314
 30
0.0
 11
63.95047808566079
 21
27.02162729257321
 31
0.0
  0
LINE
  5
3AB
330
3A4
100
AcDbEntity
  8
0
 62
     0
100
AcDbLine
 10
61.85047808566082
 20
28.22360168046634
 30
0.0
 11
60.71649348330453
 21
29.35758628282269
 31
0.0
  0
LINE
  5
3AC
330
3A4
100
AcDbEntity
  8
0
 62
     0
100
AcDbLine
 10
66.75047808566091
 20
23.32360168046631
 30
0.0
 11
63.95047808566085
 21
26.12360168046638
 31
0.0
  0
LINE
  5
3AD
330
3A4
100
AcDbEntity
  8
0
 62
     0
100
AcDbLine
 10
61.85047808566082
 20
27.32557606835945
 30
0.0
 11
59.81846787119758
 21
29.35758628282263
 31
0.0
  0
LINE
  5
3AE
330
3A4
100
AcDbEntity
  8
0
 62
     0
100
AcDbLine
 10
66.75047808566086
 20
22.42557606835936
 30
0.0
 11
63.95047808566085
 21
25.22557606835943
 31
0.0
  0
LINE
  5
3AF
330
3A4
100
AcDbEntity
  8
0
 62
     0
100
AcDbLine
 10
61.85047808566082
 20
26.4275504562525
 30
0.0
 11
59.14496712052375
 21
29.13306142138958
 31
0.0
  0
LINE
  5
3B0
330
3A4
100
AcDbEntity
  8
0
 62
     0
100
AcDbLine
 10
66.75047808566086
 20
21.52755045625247
 30
0.0
 11
63.95047808566079
 21
24.32755045625248
 31
0.0
  0
LINE
  5
3B1
330
3A4
100
AcDbEntity
  8
0
 62
     0
100
AcDbLine
 10
61.85047808566094
 20
25.5295248441455
 30
0.0
 11
59.05047808566076
 21
28.32952484414562
 31
0.0
  0
LINE
  5
3B2
330
3A4
100
AcDbEntity
  8
0
 62
     0
100
AcDbLine
 10
66.75047808566091
 20
20.62952484414552
 30
0.0
 11
63.95047808566085
 21
23.42952484414559
 31
0.0
  0
LINE
  5
3B3
330
3A4
100
AcDbEntity
  8
0
 62
     0
100
AcDbLine
 10
61.85047808566088
 20
24.6314992320386
 30
0.0
 11
59.05047808566076
 21
27.43149923203878
 31
0.0
  0
LINE
  5
3B4
330
3A4
100
AcDbEntity
  8
0
 62
     0
100
AcDbLine
 10
66.75047808566086
 20
19.73149923203862
 30
0.0
 11
63.95047808566079
 21
22.53149923203869
 31
0.0
  0
LINE
  5
3B5
330
3A4
100
AcDbEntity
  8
0
 62
     0
100
AcDbLine
 10
61.85047808566088
 20
23.73347361993171
 30
0.0
 11
59.05047808566076
 21
26.53347361993183
 31
0.0
  0
LINE
  5
3B6
330
3A4
100
AcDbEntity
  8
0
 62
     0
100
AcDbLine
 10
66.75047808566086
 20
18.83347361993173
 30
0.0
 11
63.95047808566079
 21
21.6334736199318
 31
0.0
  0
LINE
  5
3B7
330
3A4
100
AcDbEntity
  8
0
 62
     0
100
AcDbLine
 10
61.85047808566082
 20
22.83544800782476
 30
0.0
 11
59.0504780856607
 21
25.63544800782489
 31
0.0
  0
LINE
  5
3B8
330
3A4
100
AcDbEntity
  8
0
 62
     0
100
AcDbLine
 10
66.7504780856608
 20
17.93544800782479
 30
0.0
 11
63.95047808566079
 21
20.73544800782485
 31
0.0
  0
LINE
  5
3B9
330
3A4
100
AcDbEntity
  8
0
 62
     0
100
AcDbLine
 10
61.85047808566088
 20
21.93742239571793
 30
0.0
 11
59.05047808566076
 21
24.73742239571805
 31
0.0
  0
LINE
  5
3BA
330
3A4
100
AcDbEntity
  8
0
 62
     0
100
AcDbLine
 10
55.55047808566081
 20
28.23742239571799
 30
0.0
 11
54.43031419855618
 21
29.35758628282263
 31
0.0
  0
LINE
  5
3BB
330
3A4
100
AcDbEntity
  8
0
 62
     0
100
AcDbLine
 10
66.75047808566086
 20
17.03742239571795
 30
0.0
 11
63.95047808566079
 21
19.83742239571796
 31
0.0
  0
LINE
  5
3BC
330
3A4
100
AcDbEntity
  8
0
 62
     0
100
AcDbLine
 10
61.85047808566088
 20
21.03939678361098
 30
0.0
 11
59.0504780856607
 21
23.8393967836111
 31
0.0
  0
LINE
  5
3BD
330
3A4
100
AcDbEntity
  8
0
 62
     0
100
AcDbLine
 10
55.55047808566076
 20
27.33939678361105
 30
0.0
 11
53.53228858644922
 21
29.35758628282263
 31
0.0
  0
LINE
  5
3BE
330
3A4
100
AcDbEntity
  8
0
 62
     0
100
AcDbLine
 10
66.75047808566086
 20
16.139396783611
 30
0.0
 11
63.95047808566079
 21
18.93939678361107
 31
0.0
  0
LINE
  5
3BF
330
3A4
100
AcDbEntity
  8
0
 62
     0
100
AcDbLine
 10
61.85047808566082
 20
20.14137117150409
 30
0.0
 11
59.05047808566076
 21
22.9413711715041
 31
0.0
  0
LINE
  5
3C0
330
3A4
100
AcDbEntity
  8
0
 62
     0
100
AcDbLine
 10
55.55047808566076
 20
26.44137117150416
 30
0.0
 11
52.85071536233676
 21
29.14113389482816
 31
0.0
  0
LINE
  5
3C1
330
3A4
100
AcDbEntity
  8
0
 62
     0
100
AcDbLine
 10
66.7504780856608
 20
15.24137117150411
 30
0.0
 11
63.95047808566073
 21
18.04137117150412
 31
0.0
  0
LINE
  5
3C2
330
3A4
100
AcDbEntity
  8
0
 62
     0
100
AcDbLine
 10
61.85047808566088
 20
19.24334555939714
 30
0.0
 11
59.05047808566081
 21
22.04334555939721
 31
0.0
  0
LINE
  5
3C3
330
3A4
100
AcDbEntity
  8
0
 62
     0
100
AcDbLine
 10
55.55047808566081
 20
25.54334555939721
 30
0.0
 11
52.7504780856608
 21
28.34334555939722
 31
0.0
  0
LINE
  5
3C4
330
3A4
100
AcDbEntity
  8
0
 62
     0
100
AcDbLine
 10
66.75047808566086
 20
14.34334555939716
 30
0.0
 11
63.95047808566079
 21
17.14334555939723
 31
0.0
  0
LINE
  5
3C5
330
3A4
100
AcDbEntity
  8
0
 62
     0
100
AcDbLine
 10
61.85047808566082
 20
18.34531994729024
 30
0.0
 11
59.05047808566081
 21
21.14531994729031
 31
0.0
  0
LINE
  5
3C6
330
3A4
100
AcDbEntity
  8
0
 62
     0
100
AcDbLine
 10
55.55047808566087
 20
24.64531994729026
 30
0.0
 11
52.7504780856608
 21
27.44531994729033
 31
0.0
  0
LINE
  5
3C7
330
3A4
100
AcDbEntity
  8
0
 62
     0
100
AcDbLine
 10
66.67851273077104
 20
13.51728530218008
 30
0.0
 11
63.95047808566079
 21
16.24531994729034
 31
0.0
  0
LINE
  5
3C8
330
3A4
100
AcDbEntity
  8
0
 62
     0
100
AcDbLine
 10
61.85047808566088
 20
17.44729433518324
 30
0.0
 11
59.05047808566076
 21
20.24729433518337
 31
0.0
  0
LINE
  5
3C9
330
3A4
100
AcDbEntity
  8
0
 62
     0
100
AcDbLine
 10
55.55047808566081
 20
23.74729433518337
 30
0.0
 11
52.75047808566075
 21
26.54729433518338
 31
0.0
  0
LINE
  5
3CA
330
3A4
100
AcDbEntity
  8
0
 62
     0
100
AcDbLine
 10
66.04018613802157
 20
13.25758628282261
 30
0.0
 11
63.95047808566073
 21
15.34729433518345
 31
0.0
  0
LINE
  5
3CB
330
3A4
100
AcDbEntity
  8
0
 62
     0
100
AcDbLine
 10
55.55047808566081
 20
22.84926872307642
 30
0.0
 11
52.75047808566075
 21
25.64926872307649
 31
0.0
  0
LINE
  5
3CC
330
3A4
100
AcDbEntity
  8
0
 62
     0
100
AcDbLine
 10
61.85047808566088
 20
16.54926872307635
 30
0.0
 11
59.05047808566076
 21
19.34926872307647
 31
0.0
  0
LINE
  5
3CD
330
3A4
100
AcDbEntity
  8
0
 62
     0
100
AcDbLine
 10
50.1254780856608
 20
28.27426872307643
 30
0.0
 11
49.04216052591465
 21
29.35758628282252
 31
0.0
  0
LINE
  5
3CE
330
3A4
100
AcDbEntity
  8
0
 62
     0
100
AcDbLine
 10
65.14216052591468
 20
13.2575862828225
 30
0.0
 11
63.95047808566073
 21
14.4492687230765
 31
0.0
  0
LINE
  5
3CF
330
3A4
100
AcDbEntity
  8
0
 62
     0
100
AcDbLine
 10
55.55047808566081
 20
21.95124311096952
 30
0.0
 11
52.75047808566085
 21
24.75124311096954
 31
0.0
  0
LINE
  5
3D0
330
3A4
100
AcDbEntity
  8
0
 62
     0
100
AcDbLine
 10
50.1254780856608
 20
27.37624311096954
 30
0.0
 11
48.14413491380782
 21
29.35758628282258
 31
0.0
  0
LINE
  5
3D1
330
3A4
100
AcDbEntity
  8
0
 62
     0
100
AcDbLine
 10
61.82451978501529
 20
15.6772014116151
 30
0.0
 11
59.05047808566076
 21
18.45124311096958
 31
0.0
  0
LINE
  5
3D2
330
3A4
100
AcDbEntity
  8
0
 62
     0
100
AcDbLine
 10
55.55047808566081
 20
21.05321749886263
 30
0.0
 11
52.75047808566085
 21
23.85321749886259
 31
0.0
  0
LINE
  5
3D3
330
3A4
100
AcDbEntity
  8
0
 62
     0
100
AcDbLine
 10
49.92989753954697
 20
26.67379804497647
 30
0.0
 11
47.24610930170081
 21
29.35758628282263
 31
0.0
  0
LINE
  5
3D4
330
3A4
100
AcDbEntity
  8
0
 62
     0
100
AcDbLine
 10
61.63153448975805
 20
14.97216109476534
 30
0.0
 11
59.05047808566076
 21
17.55321749886269
 31
0.0
  0
LINE
  5
3D5
330
3A4
100
AcDbEntity
  8
0
 62
     0
100
AcDbLine
 10
55.55047808566081
 20
20.15519188675568
 30
0.0
 11
52.7504780856608
 21
22.95519188675569
 31
0.0
  0
LINE
  5
3D6
330
3A4
100
AcDbEntity
  8
0
 62
     0
100
AcDbLine
 10
49.14808368959382
 20
26.55758628282262
 30
0.0
 11
46.34808368959392
 21
29.35758628282252
 31
0.0
  0
LINE
  5
3D7
330
3A4
100
AcDbEntity
  8
0
 62
     0
100
AcDbLine
 10
61.30650261383448
 20
14.39916735858196
 30
0.0
 11
58.97896234650125
 21
16.72670762591525
 31
0.0
  0
LINE
  5
3D8
330
3A4
100
AcDbEntity
  8
0
 62
     0
100
AcDbLine
 10
55.55047808566081
 20
19.25716627464885
 30
0.0
 11
52.75047808566085
 21
22.0571662746488
 31
0.0
  0
LINE
  5
3D9
330
3A4
100
AcDbEntity
  8
0
 62
     0
100
AcDbLine
 10
48.25005807748704
 20
26.55758628282256
 30
0.0
 11
45.5124913483096
 21
29.29515301200007
 31
0.0
  0
LINE
  5
3DA
330
3A4
100
AcDbEntity
  8
0
 62
     0
100
AcDbLine
 10
60.87446081650944
 20
13.93318354380016
 30
0.0
 11
58.57737670803373
 21
16.23026765227587
 31
0.0
  0
LINE
  5
3DB
330
3A4
100
AcDbEntity
  8
0
 62
     0
100
AcDbLine
 10
55.55047808566081
 20
18.3591406625419
 30
0.0
 11
52.7504780856608
 21
21.15914066254185
 31
0.0
  0
LINE
  5
3DC
330
3A4
100
AcDbEntity
  8
0
 62
     0
100
AcDbLine
 10
47.35203246538015
 20
26.55758628282256
 30
0.0
 11
44.8478509237762
 21
29.06176782442645
 31
0.0
  0
LINE
  5
3DD
330
3A4
100
AcDbEntity
  8
0
 62
     0
100
AcDbLine
 10
60.33829847158341
 20
13.5713202766193
 30
0.0
 11
57.85203246538014
 21
16.05758628282257
 31
0.0
  0
LINE
  5
3DE
330
3A4
100
AcDbEntity
  8
0
 62
     0
100
AcDbLine
 10
55.55047808566076
 20
17.46111505043495
 30
0.0
 11
52.7504780856608
 21
20.26111505043496
 31
0.0
  0
LINE
  5
3DF
330
3A4
100
AcDbEntity
  8
0
 62
     0
100
AcDbLine
 10
46.47579668129123
 20
26.53579645480448
 30
0.0
 11
44.30524998656602
 21
28.70634314952969
 31
0.0
  0
LINE
  5
3E0
330
3A4
100
AcDbEntity
  8
0
 62
     0
100
AcDbLine
 10
59.68188591167211
 20
13.32970722442365
 30
0.0
 11
56.95400685327314
 21
16.05758628282262
 31
0.0
  0
LINE
  5
3E1
330
3A4
100
AcDbEntity
  8
0
 62
     0
100
AcDbLine
 10
46.10047808566088
 20
26.01308943832788
 30
0.0
 11
43.86713792752146
 21
28.24642959646729
 31
0.0
  0
LINE
  5
3E2
330
3A4
100
AcDbEntity
  8
0
 62
     0
100
AcDbLine
 10
58.85598124116626
 20
13.25758628282255
 30
0.0
 11
52.7504780856608
 21
19.36308943832801
 31
0.0
  0
LINE
  5
3E3
330
3A4
100
AcDbEntity
  8
0
 62
     0
100
AcDbLine
 10
46.10047808566088
 20
25.1150638262211
 30
0.0
 11
43.53536701516844
 21
27.68017489671354
 31
0.0
  0
LINE
  5
3E4
330
3A4
100
AcDbEntity
  8
0
 62
     0
100
AcDbLine
 10
57.95795562905937
 20
13.25758628282255
 30
0.0
 11
52.7504780856608
 21
18.46506382622118
 31
0.0
  0
LINE
  5
3E5
330
3A4
100
AcDbEntity
  8
0
 62
     0
100
AcDbLine
 10
46.30702236676467
 20
24.01049393301036
 30
0.0
 11
43.33318849580433
 21
26.98432780397064
 31
0.0
  0
LINE
  5
3E6
330
3A4
100
AcDbEntity
  8
0
 62
     0
100
AcDbLine
 10
57.05993001695247
 20
13.25758628282255
 30
0.0
 11
52.7504780856608
 21
17.56703821411423
 31
0.0
  0
LINE
  5
3E7
330
3A4
100
AcDbEntity
  8
0
 62
     0
100
AcDbLine
 10
50.52408178835225
 20
18.89540889931583
 30
0.0
 11
43.30047808566075
 21
26.11901260200733
 31
0.0
  0
LINE
  5
3E8
330
3A4
100
AcDbEntity
  8
0
 62
     0
100
AcDbLine
 10
41.20047808566073
 20
28.21901260200729
 30
0.0
 11
40.06190440484544
 21
29.35758628282263
 31
0.0
  0
LINE
  5
3E9
330
3A4
100
AcDbEntity
  8
0
 62
     0
100
AcDbLine
 10
56.16190440484553
 20
13.25758628282255
 30
0.0
 11
52.75047808566075
 21
16.66901260200728
 31
0.0
  0
LINE
  5
3EA
330
3A4
100
AcDbEntity
  8
0
 62
     0
100
AcDbLine
 10
50.65047808566089
 20
17.87098698990035
 30
0.0
 11
43.30047808566081
 21
25.22098698990044
 31
0.0
  0
LINE
  5
3EB
330
3A4
100
AcDbEntity
  8
0
 62
     0
100
AcDbLine
 10
41.20047808566084
 20
27.32098698990034
 30
0.0
 11
39.16387879273855
 21
29.35758628282269
 31
0.0
  0
LINE
  5
3EC
330
3A4
100
AcDbEntity
  8
0
 62
     0
100
AcDbLine
 10
55.24743091399376
 20
13.2740341615675
 30
0.0
 11
52.76692596440574
 21
15.7545391111555
 31
0.0
  0
LINE
  5
3ED
330
3A4
100
AcDbEntity
  8
0
 62
     0
100
AcDbLine
 10
41.20047808566084
 20
26.42296137779345
 30
0.0
 11
38.49308819788552
 21
29.13035126556872
 31
0.0
  0
LINE
  5
3EE
330
3A4
100
AcDbEntity
  8
0
 62
     0
100
AcDbLine
 10
50.65047808566084
 20
16.97296137779341
 30
0.0
 11
43.3238887535432
 21
24.2995507099111
 31
0.0
  0
LINE
  5
3EF
330
3A4
100
AcDbEntity
  8
0
 62
     0
100
AcDbLine
 10
41.20047808566084
 20
25.5249357656865
 30
0.0
 11
38.40047808566078
 21
28.32493576568657
 31
0.0
  0
LINE
  5
3F0
330
3A4
100
AcDbEntity
  8
0
 62
     0
100
AcDbLine
 10
50.65047808566072
 20
16.07493576568657
 30
0.0
 11
43.64200817138322
 21
23.08340567996413
 31
0.0
  0
LINE
  5
3F1
330
3A4
100
AcDbEntity
  8
0
 62
     0
100
AcDbLine
 10
41.20047808566084
 20
24.62691015357961
 30
0.0
 11
38.40047808566078
 21
27.42691015357962
 31
0.0
  0
LINE
  5
3F2
330
3A4
100
AcDbEntity
  8
0
 62
     0
100
AcDbLine
 10
50.54191626807176
 20
15.2854719711687
 30
0.0
 11
47.84628147903345
 21
17.98110676020701
 31
0.0
  0
LINE
  5
3F3
330
3A4
100
AcDbEntity
  8
0
 62
     0
100
AcDbLine
 10
41.20047808566084
 20
23.72888454147272
 30
0.0
 11
38.40047808566078
 21
26.52888454147279
 31
0.0
  0
LINE
  5
3F4
330
3A4
100
AcDbEntity
  8
0
 62
     0
100
AcDbLine
 10
36.10899118508382
 20
28.82037144204969
 30
0.0
 11
35.57177634431093
 21
29.35758628282263
 31
0.0
  0
LINE
  5
3F5
330
3A4
100
AcDbEntity
  8
0
 62
     0
100
AcDbLine
 10
50.2740405603102
 20
14.65532206682337
 30
0.0
 11
47.85047808566088
 21
17.07888454147268
 31
0.0
  0
LINE
  5
3F6
330
3A4
100
AcDbEntity
  8
0
 62
     0
100
AcDbLine
 10
41.20047808566079
 20
22.83085892936577
 30
0.0
 11
38.40047808566078
 21
25.63085892936584
 31
0.0
  0
LINE
  5
3F7
330
3A4
100
AcDbEntity
  8
0
 62
     0
100
AcDbLine
 10
35.91006352083121
 20
28.12127349419535
 30
0.0
 11
34.67375073220398
 21
29.35758628282263
 31
0.0
  0
LINE
  5
3F8
330
3A4
100
AcDbEntity
  8
0
 62
     0
100
AcDbLine
 10
49.8910537621349
 20
14.14028325289172
 30
0.0
 11
47.75319290277439
 21
16.27814411225222
 31
0.0
  0
LINE
  5
3F9
330
3A4
100
AcDbEntity
  8
0
 62
     0
100
AcDbLine
 10
41.20047808566079
 20
21.93283331725888
 30
0.0
 11
38.40047808566072
 21
24.73283331725889
 31
0.0
  0
LINE
  5
3FA
330
3A4
100
AcDbEntity
  8
0
 62
     0
100
AcDbLine
 10
35.69453737392553
 20
27.43877402899409
 30
0.0
 11
33.78532181045494
 21
29.34798959246473
 31
0.0
  0
LINE
  5
3FB
330
3A4
100
AcDbEntity
  8
0
 62
     0
100
AcDbLine
 10
49.40473479701927
 20
13.72857660590034
 30
0.0
 11
47.07572512009704
 21
16.05758628282262
 31
0.0
  0
LINE
  5
3FC
330
3A4
100
AcDbEntity
  8
0
 62
     0
100
AcDbLine
 10
41.20047808566084
 20
21.03480770515198
 30
0.0
 11
38.40047808566078
 21
23.83480770515205
 31
0.0
  0
LINE
  5
3FD
330
3A4
100
AcDbEntity
  8
0
 62
     0
100
AcDbLine
 10
35.47901122702
 20
26.75627456379283
 30
0.0
 11
33.35101122701996
 21
28.88427456379287
 31
0.0
  0
LINE
  5
3FE
330
3A4
100
AcDbEntity
  8
0
 62
     0
100
AcDbLine
 10
48.8086508485589
 20
13.42663494225388
 30
0.0
 11
46.17769950799015
 21
16.05758628282268
 31
0.0
  0
LINE
  5
3FF
330
3A4
100
AcDbEntity
  8
0
 62
     0
100
AcDbLine
 10
41.20047808566079
 20
20.13678209304509
 30
0.0
 11
38.40047808566072
 21
22.9367820930451
 31
0.0
  0
LINE
  5
400
330
3A4
100
AcDbEntity
  8
0
 62
     0
100
AcDbLine
 10
35.26348508011415
 20
26.07377509859174
 30
0.0
 11
33.13548508011416
 21
28.20177509859172
 31
0.0
  0
LINE
  5
401
330
3A4
100
AcDbEntity
  8
0
 62
     0
100
AcDbLine
 10
48.07097819691143
 20
13.26628198179446
 30
0.0
 11
45.27967389588326
 21
16.05758628282262
 31
0.0
  0
LINE
  5
402
330
3A4
100
AcDbEntity
  8
0
 62
     0
100
AcDbLine
 10
41.20047808566079
 20
19.23875648093815
 30
0.0
 11
38.40047808566078
 21
22.0387564809381
 31
0.0
  0
LINE
  5
403
330
3A4
100
AcDbEntity
  8
0
 62
     0
100
AcDbLine
 10
35.04795893320857
 20
25.39127563339036
 30
0.0
 11
32.91995893320847
 21
27.5192756333904
 31
0.0
  0
LINE
  5
404
330
3A4
100
AcDbEntity
  8
0
 62
     0
100
AcDbLine
 10
47.18164828377638
 20
13.25758628282255
 30
0.0
 11
44.38164828377631
 21
16.05758628282262
 31
0.0
  0
LINE
  5
405
330
3A4
100
AcDbEntity
  8
0
 62
     0
100
AcDbLine
 10
41.20047808566079
 20
18.34073086883125
 30
0.0
 11
38.40047808566083
 21
21.14073086883127
 31
0.0
  0
LINE
  5
406
330
3A4
100
AcDbEntity
  8
0
 62
     0
100
AcDbLine
 10
34.83243278630294
 20
24.70877616818916
 30
0.0
 11
32.70443278630284
 21
26.8367761681892
 31
0.0
  0
LINE
  5
407
330
3A4
100
AcDbEntity
  8
0
 62
     0
100
AcDbLine
 10
46.28362267166949
 20
13.25758628282261
 30
0.0
 11
43.8500109743731
 21
15.691197980119
 31
0.0
  0
LINE
  5
408
330
3A4
100
AcDbEntity
  8
0
 62
     0
100
AcDbLine
 10
34.61690663939731
 20
24.02627670298778
 30
0.0
 11
32.48890663939721
 21
26.15427670298794
 31
0.0
  0
LINE
  5
409
330
3A4
100
AcDbEntity
  8
0
 62
     0
100
AcDbLine
 10
41.20047808566079
 20
17.44270525672436
 30
0.0
 11
38.40047808566083
 21
20.24270525672432
 31
0.0
  0
LINE
  5
40A
330
3A4
100
AcDbEntity
  8
0
 62
     0
100
AcDbLine
 10
30.35047808566082
 20
28.29270525672433
 30
0.0
 11
29.28559705956251
 21
29.35758628282258
 31
0.0
  0
LINE
  5
40B
330
3A4
100
AcDbEntity
  8
0
 62
     0
100
AcDbLine
 10
45.38559705956259
 20
13.25758628282255
 30
0.0
 11
43.82547808566084
 21
14.8177052567243
 31
0.0
  0
LINE
  5
40C
330
3A4
100
AcDbEntity
  8
0
 62
     0
100
AcDbLine
 10
34.40138049249151
 20
23.34377723778669
 30
0.0
 11
32.27338049249158
 21
25.47177723778662
 31
0.0
  0
LINE
  5
40D
330
3A4
100
AcDbEntity
  8
0
 62
     0
100
AcDbLine
 10
41.20047808566079
 20
16.54467964461741
 30
0.0
 11
38.40047808566078
 21
19.34467964461743
 31
0.0
  0
LINE
  5
40E
330
3A4
100
AcDbEntity
  8
0
 62
     0
100
AcDbLine
 10
30.35047808566082
 20
27.39467964461738
 30
0.0
 11
28.38757144745562
 21
29.35758628282258
 31
0.0
  0
LINE
  5
40F
330
3A4
100
AcDbEntity
  8
0
 62
     0
100
AcDbLine
 10
44.48757144745559
 20
13.25758628282261
 30
0.0
 11
43.82547808566079
 21
13.91967964461736
 31
0.0
  0
LINE
  5
410
330
3A4
100
AcDbEntity
  8
0
 62
     0
100
AcDbLine
 10
34.18585434558588
 20
22.66127777258537
 30
0.0
 11
32.05785434558583
 21
24.78927777258542
 31
0.0
  0
LINE
  5
411
330
3A4
100
AcDbEntity
  8
0
 62
     0
100
AcDbLine
 10
30.35047808566076
 20
26.49665403251043
 30
0.0
 11
27.67503315676316
 21
29.17209896140809
 31
0.0
  0
LINE
  5
412
330
3A4
100
AcDbEntity
  8
0
 62
     0
100
AcDbLine
 10
41.20047808566073
 20
15.64665403251052
 30
0.0
 11
38.40047808566078
 21
18.44665403251048
 31
0.0
  0
LINE
  5
413
330
3A4
100
AcDbEntity
  8
0
 62
     0
100
AcDbLine
 10
33.97032819868025
 20
21.97877830738417
 30
0.0
 11
31.84232819868026
 21
24.10677830738416
 31
0.0
  0
LINE
  5
414
330
3A4
100
AcDbEntity
  8
0
 62
     0
100
AcDbLine
 10
30.35047808566082
 20
25.59862842040359
 30
0.0
 11
27.55047808566075
 21
28.39862842040361
 31
0.0
  0
LINE
  5
415
330
3A4
100
AcDbEntity
  8
0
 62
     0
100
AcDbLine
 10
41.20047808566079
 20
14.74862842040363
 30
0.0
 11
38.40047808566078
 21
17.54862842040358
 31
0.0
  0
LINE
  5
416
330
3A4
100
AcDbEntity
  8
0
 62
     0
100
AcDbLine
 10
33.76523968928819
 20
21.28584120466928
 30
0.0
 11
31.62680205177451
 21
23.42427884218295
 31
0.0
  0
LINE
  5
417
330
3A4
100
AcDbEntity
  8
0
 62
     0
100
AcDbLine
 10
30.35047808566082
 20
24.70060280829665
 30
0.0
 11
27.55047808566075
 21
27.50060280829671
 31
0.0
  0
LINE
  5
418
330
3A4
100
AcDbEntity
  8
0
 62
     0
100
AcDbLine
 10
41.20047808566073
 20
13.85060280829668
 30
0.0
 11
38.40047808566078
 21
16.65060280829669
 31
0.0
  0
LINE
  5
419
330
3A4
100
AcDbEntity
  8
0
 62
     0
100
AcDbLine
 10
34.17971304872219
 20
19.97334223312833
 30
0.0
 11
31.33625455608989
 21
22.81680072576063
 31
0.0
  0
LINE
  5
41A
330
3A4
100
AcDbEntity
  8
0
 62
     0
100
AcDbLine
 10
30.35047808566088
 20
23.80257719618964
 30
0.0
 11
27.5504780856607
 21
26.60257719618977
 31
0.0
  0
LINE
  5
41B
330
3A4
100
AcDbEntity
  8
0
 62
     0
100
AcDbLine
 10
40.8614330883284
 20
13.29162219352207
 30
0.0
 11
38.40047808566078
 21
15.75257719618974
 31
0.0
  0
LINE
  5
41C
330
3A4
100
AcDbEntity
  8
0
 62
     0
100
AcDbLine
 10
34.59418640815619
 20
18.6608432615875
 30
0.0
 11
27.55047808566075
 21
25.70455158408293
 31
0.0
  0
LINE
  5
41D
330
3A4
100
AcDbEntity
  8
0
 62
     0
100
AcDbLine
 10
25.10047808566088
 20
28.15455158408281
 30
0.0
 11
23.89744338692111
 21
29.35758628282258
 31
0.0
  0
LINE
  5
41E
330
3A4
100
AcDbEntity
  8
0
 62
     0
100
AcDbLine
 10
39.99744338692113
 20
13.25758628282255
 30
0.0
 11
38.40047808566089
 21
14.8545515840828
 31
0.0
  0
LINE
  5
41F
330
3A4
100
AcDbEntity
  8
0
 62
     0
100
AcDbLine
 10
35.00865976759024
 20
17.34834429004649
 30
0.0
 11
27.55047808566075
 21
24.80652597197599
 31
0.0
  0
LINE
  5
420
330
3A4
100
AcDbEntity
  8
0
 62
     0
100
AcDbLine
 10
25.10047808566088
 20
27.25652597197586
 30
0.0
 11
22.9994177748141
 21
29.35758628282263
 31
0.0
  0
LINE
  5
421
330
3A4
100
AcDbEntity
  8
0
 62
     0
100
AcDbLine
 10
39.09941777481418
 20
13.2575862828225
 30
0.0
 11
38.40047808566083
 21
13.9565259719759
 31
0.0
  0
LINE
  5
422
330
3A4
100
AcDbEntity
  8
0
 62
     0
100
AcDbLine
 10
24.83357139027077
 20
26.62540705525902
 30
0.0
 11
22.13334967205935
 21
29.32562877347038
 31
0.0
  0
LINE
  5
423
330
3A4
100
AcDbEntity
  8
0
 62
     0
100
AcDbLine
 10
35.42313312702418
 20
16.0358453185056
 30
0.0
 11
27.55047808566081
 21
23.90850035986898
 31
0.0
  0
LINE
  5
424
330
3A4
100
AcDbEntity
  8
0
 62
     0
100
AcDbLine
 10
30.68798700800243
 20
19.87296582542046
 30
0.0
 11
27.55047808566081
 21
23.01047474776209
 31
0.0
  0
LINE
  5
425
330
3A4
100
AcDbEntity
  8
0
 62
     0
100
AcDbLine
 10
24.00336655060033
 20
26.55758628282251
 30
0.0
 11
21.39530660247209
 21
29.16564623095081
 31
0.0
  0
LINE
  5
426
330
3A4
100
AcDbEntity
  8
0
 62
     0
100
AcDbLine
 10
35.83760648645824
 20
14.72334634696466
 30
0.0
 11
31.74529879415013
 21
18.81565403927277
 31
0.0
  0
LINE
  5
427
330
3A4
100
AcDbEntity
  8
0
 62
     0
100
AcDbLine
 10
30.35047808566088
 20
19.31244913565512
 30
0.0
 11
27.55047808566081
 21
22.11244913565519
 31
0.0
  0
LINE
  5
428
330
3A4
100
AcDbEntity
  8
0
 62
     0
100
AcDbLine
 10
23.10534093849332
 20
26.55758628282262
 30
0.0
 11
20.75658518664135
 21
28.90634203467459
 31
0.0
  0
LINE
  5
429
330
3A4
100
AcDbEntity
  8
0
 62
     0
100
AcDbLine
 10
36.07264534416884
 20
13.5902818771471
 30
0.0
 11
32.15977215358407
 21
17.50315506773193
 31
0.0
  0
LINE
  5
42A
330
3A4
100
AcDbEntity
  8
0
 62
     0
100
AcDbLine
 10
30.35047808566082
 20
18.41442352354823
 30
0.0
 11
27.55047808566075
 21
21.21442352354824
 31
0.0
  0
LINE
  5
42B
330
3A4
100
AcDbEntity
  8
0
 62
     0
100
AcDbLine
 10
22.26222743594979
 20
26.50267417325926
 30
0.0
 11
20.19783621130682
 21
28.56706539790224
 31
0.0
  0
LINE
  5
42C
330
3A4
100
AcDbEntity
  8
0
 62
     0
100
AcDbLine
 10
35.5073153263865
 20
13.25758628282255
 30
0.0
 11
32.57424551301812
 21
16.19065609619087
 31
0.0
  0
LINE
  5
42D
330
3A4
100
AcDbEntity
  8
0
 62
     0
100
AcDbLine
 10
30.35047808566082
 20
17.51639791144128
 30
0.0
 11
27.55047808566075
 21
20.31639791144135
 31
0.0
  0
LINE
  5
42E
330
3A4
100
AcDbEntity
  8
0
 62
     0
100
AcDbLine
 10
21.6903712431108
 20
26.1765047539913
 30
0.0
 11
19.71018100269503
 21
28.15669499440707
 31
0.0
  0
LINE
  5
42F
330
3A4
100
AcDbEntity
  8
0
 62
     0
100
AcDbLine
 10
34.60928971427955
 20
13.25758628282255
 30
0.0
 11
32.98871887245207
 21
14.87815712465004
 31
0.0
  0
LINE
  5
430
330
3A4
100
AcDbEntity
  8
0
 62
     0
100
AcDbLine
 10
25.43590721845856
 20
21.53294316653671
 30
0.0
 11
23.92583496937481
 21
23.04301541562046
 31
0.0
  0
LINE
  5
431
330
3A4
100
AcDbEntity
  8
0
 62
     0
100
AcDbLine
 10
30.35047808566094
 20
16.61837229933434
 30
0.0
 11
27.55047808566081
 21
19.41837229933446
 31
0.0
  0
LINE
  5
432
330
3A4
100
AcDbEntity
  8
0
 62
     0
100
AcDbLine
 10
21.33424967298185
 20
25.63460071201342
 30
0.0
 11
19.2908149766838
 21
27.67803540831147
 31
0.0
  0
LINE
  5
433
330
3A4
100
AcDbEntity
  8
0
 62
     0
100
AcDbLine
 10
33.66093109796804
 20
13.30791928702723
 30
0.0
 11
33.41057692637673
 21
13.55827345861854
 31
0.0
  0
LINE
  5
434
330
3A4
100
AcDbEntity
  8
0
 62
     0
100
AcDbLine
 10
25.34939355831665
 20
20.72143121457167
 30
0.0
 11
23.11432301740978
 21
22.95650175547854
 31
0.0
  0
LINE
  5
435
330
3A4
100
AcDbEntity
  8
0
 62
     0
100
AcDbLine
 10
21.25047808566091
 20
24.82034668722741
 30
0.0
 11
18.94187595572214
 21
27.12894881716619
 31
0.0
  0
LINE
  5
436
330
3A4
100
AcDbEntity
  8
0
 62
     0
100
AcDbLine
 10
30.35047808566088
 20
15.72034668722739
 30
0.0
 11
27.55047808566075
 21
18.52034668722757
 31
0.0
  0
LINE
  5
437
330
3A4
100
AcDbEntity
  8
0
 62
     0
100
AcDbLine
 10
25.0175379990186
 20
20.15526116176272
 30
0.0
 11
22.54815296460083
 21
22.62464619618049
 31
0.0
  0
LINE
  5
438
330
3A4
100
AcDbEntity
  8
0
 62
     0
100
AcDbLine
 10
21.25047808566091
 20
23.92232107512046
 30
0.0
 11
18.67129624851196
 21
26.50150291226941
 31
0.0
  0
LINE
  5
439
330
3A4
100
AcDbEntity
  8
0
 62
     0
100
AcDbLine
 10
30.35047808566088
 20
14.82232107512049
 30
0.0
 11
27.55047808566081
 21
17.62232107512056
 31
0.0
  0
LINE
  5
43A
330
3A4
100
AcDbEntity
  8
0
 62
     0
100
AcDbLine
 10
21.25047808566091
 20
23.02429546301357
 30
0.0
 11
18.49658237558611
 21
25.77819117308843
 31
0.0
  0
LINE
  5
43B
330
3A4
100
AcDbEntity
  8
0
 62
     0
100
AcDbLine
 10
24.51570455688215
 20
19.75906899179238
 30
0.0
 11
22.15196079463049
 21
22.12281275404405
 31
0.0
  0
LINE
  5
43C
330
3A4
100
AcDbEntity
  8
0
 62
     0
100
AcDbLine
 10
15.82547808566073
 20
28.44929546301375
 30
0.0
 11
14.91718726585185
 21
29.35758628282269
 31
0.0
  0
LINE
  5
43D
330
3A4
100
AcDbEntity
  8
0
 62
     0
100
AcDbLine
 10
30.35047808566094
 20
13.9242954630136
 30
0.0
 11
27.55047808566087
 21
16.72429546301367
 31
0.0
  0
LINE
  5
43E
330
3A4
100
AcDbEntity
  8
0
 62
     0
100
AcDbLine
 10
21.25047808566091
 20
22.12626985090668
 30
0.0
 11
18.45047808566084
 21
24.92626985090675
 31
0.0
  0
LINE
  5
43F
330
3A4
100
AcDbEntity
  8
0
 62
     0
100
AcDbLine
 10
23.81538511445473
 20
19.56136282211287
 30
0.0
 11
21.95425462495097
 21
21.42249331161662
 31
0.0
  0
LINE
  5
440
330
3A4
100
AcDbEntity
  8
0
 62
     0
100
AcDbLine
 10
15.82547808566073
 20
27.55126985090686
 30
0.0
 11
14.0191616537449
 21
29.35758628282263
 31
0.0
  0
LINE
  5
441
330
3A4
100
AcDbEntity
  8
0
 62
     0
100
AcDbLine
 10
30.06257428439022
 20
13.31417365217737
 30
0.0
 11
27.55047808566081
 21
15.82626985090672
 31
0.0
  0
LINE
  5
442
330
3A4
100
AcDbEntity
  8
0
 62
     0
100
AcDbLine
 10
21.25047808566091
 20
21.22824423879973
 30
0.0
 11
18.45047808566084
 21
24.0282442387998
 31
0.0
  0
LINE
  5
443
330
3A4
100
AcDbEntity
  8
0
 62
     0
100
AcDbLine
 10
15.71644411539045
 20
26.76227820907019
 30
0.0
 11
13.12113604163789
 21
29.35758628282269
 31
0.0
  0
LINE
  5
444
330
3A4
100
AcDbEntity
  8
0
 62
     0
100
AcDbLine
 10
29.22113604163809
 20
13.2575862828225
 30
0.0
 11
27.55047808566081
 21
14.92824423879983
 31
0.0
  0
LINE
  5
445
330
3A4
100
AcDbEntity
  8
0
 62
     0
100
AcDbLine
 10
21.25047808566085
 20
20.33021862669284
 30
0.0
 11
18.45047808566079
 21
23.13021862669285
 31
0.0
  0
LINE
  5
446
330
3A4
100
AcDbEntity
  8
0
 62
     0
100
AcDbLine
 10
15.02311042953112
 20
26.55758628282256
 30
0.0
 11
12.223110429531
 21
29.35758628282269
 31
0.0
  0
LINE
  5
447
330
3A4
100
AcDbEntity
  8
0
 62
     0
100
AcDbLine
 10
28.32311042953108
 20
13.25758628282255
 30
0.0
 11
27.55047808566081
 21
14.03021862669288
 31
0.0
  0
LINE
  5
448
330
3A4
100
AcDbEntity
  8
0
 62
     0
100
AcDbLine
 10
21.25047808566091
 20
19.43219301458595
 30
0.0
 11
18.45047808566084
 21
22.23219301458601
 31
0.0
  0
LINE
  5
449
330
3A4
100
AcDbEntity
  8
0
 62
     0
100
AcDbLine
 10
14.12508481742423
 20
26.55758628282256
 30
0.0
 11
11.35995554531933
 21
29.32271555492752
 31
0.0
  0
LINE
  5
44A
330
3A4
100
AcDbEntity
  8
0
 62
     0
100
AcDbLine
 10
25.09787563682391
 20
15.58479546342289
 30
0.0
 11
24.6276872662612
 21
16.05498383398566
 31
0.0
  0
LINE
  5
44B
330
3A4
100
AcDbEntity
  8
0
 62
     0
100
AcDbLine
 10
21.25047808566085
 20
18.53416740247899
 30
0.0
 11
18.45047808566084
 21
21.33416740247906
 31
0.0
  0
LINE
  5
44C
330
3A4
100
AcDbEntity
  8
0
 62
     0
100
AcDbLine
 10
13.22705920531734
 20
26.55758628282256
 30
0.0
 11
10.66682073684086
 21
29.11782475129905
 31
0.0
  0
LINE
  5
44D
330
3A4
100
AcDbEntity
  8
0
 62
     0
100
AcDbLine
 10
25.10047808566082
 20
14.68416740247903
 30
0.0
 11
23.72705920531728
 21
16.05758628282262
 31
0.0
  0
LINE
  5
44E
330
3A4
100
AcDbEntity
  8
0
 62
     0
100
AcDbLine
 10
21.25047808566085
 20
17.6361417903721
 30
0.0
 11
18.4504780856609
 21
20.43614179037206
 31
0.0
  0
LINE
  5
44F
330
3A4
100
AcDbEntity
  8
0
 62
     0
100
AcDbLine
 10
12.32903359321039
 20
26.55758628282251
 30
0.0
 11
10.10257407699362
 21
28.78404579903929
 31
0.0
  0
LINE
  5
450
330
3A4
100
AcDbEntity
  8
0
 62
     0
100
AcDbLine
 10
25.10047808566082
 20
13.78614179037214
 30
0.0
 11
22.82903359321039
 21
16.05758628282251
 31
0.0
  0
LINE
  5
451
330
3A4
100
AcDbEntity
  8
0
 62
     0
100
AcDbLine
 10
11.8187407655958
 20
26.16985349833032
 30
0.0
 11
9.644481264752869
 21
28.34411299917326
 31
0.0
  0
LINE
  5
452
330
3A4
100
AcDbEntity
  8
0
 62
     0
100
AcDbLine
 10
24.71274530116852
 20
13.2758489627576
 30
0.0
 11
18.4504780856609
 21
19.53811617826522
 31
0.0
  0
LINE
  5
453
330
3A4
100
AcDbEntity
  8
0
 62
     0
100
AcDbLine
 10
11.80047808566087
 20
25.29009056615831
 30
0.0
 11
9.291000062283785
 21
27.79956858953539
 31
0.0
  0
LINE
  5
454
330
3A4
100
AcDbEntity
  8
0
 62
     0
100
AcDbLine
 10
23.83298236899662
 20
13.25758628282255
 30
0.0
 11
18.4504780856609
 21
18.64009056615827
 31
0.0
  0
LINE
  5
455
330
3A4
100
AcDbEntity
  8
0
 62
     0
100
AcDbLine
 10
11.86261379379629
 20
24.32992924591587
 30
0.0
 11
9.060119959990061
 21
27.13242307972217
 31
0.0
  0
LINE
  5
456
330
3A4
100
AcDbEntity
  8
0
 62
     0
100
AcDbLine
 10
22.93495675688962
 20
13.25758628282261
 30
0.0
 11
18.45047808566084
 21
17.74206495405133
 31
0.0
  0
LINE
  5
457
330
3A4
100
AcDbEntity
  8
0
 62
     0
100
AcDbLine
 10
16.15485417688353
 20
19.13966325072181
 30
0.0
 11
9.000478085660915
 21
26.29403934194442
 31
0.0
  0
LINE
  5
458
330
3A4
100
AcDbEntity
  8
0
 62
     0
100
AcDbLine
 10
21.98365905772607
 20
13.31085836987927
 30
0.0
 11
18.5037501727175
 21
16.79076725488783
 31
0.0
  0
LINE
  5
459
330
3A4
100
AcDbEntity
  8
0
 62
     0
100
AcDbLine
 10
16.34674869096875
 20
18.04974312452969
 30
0.0
 11
9.000478085660802
 21
25.39601372983764
 31
0.0
  0
LINE
  5
45A
330
3A4
100
AcDbEntity
  8
0
 62
     0
100
AcDbLine
 10
20.60985114512448
 20
13.78664067037391
 30
0.0
 11
18.97953247321209
 21
15.41695934228636
 31
0.0
  0
LINE
  5
45B
330
3A4
100
AcDbEntity
  8
0
 62
     0
100
AcDbLine
 10
16.35047808566088
 20
17.14798811773062
 30
0.0
 11
9.008042533083198
 21
24.49042367030824
 31
0.0
  0
LINE
  5
45C
330
3A4
100
AcDbEntity
  8
0
 62
     0
100
AcDbLine
 10
16.35047808566082
 20
16.24996250562372
 30
0.0
 11
9.231333291407054
 21
23.36910729987744
 31
0.0
  0
LINE
  5
45D
330
3A4
100
AcDbEntity
  8
0
 62
     0
100
AcDbLine
 10
16.27795808952891
 20
15.4244568896488
 30
0.0
 11
13.51456644590985
 21
18.18784853326786
 31
0.0
  0
LINE
  5
45E
330
3A4
100
AcDbEntity
  8
0
 62
     0
100
AcDbLine
 10
16.03602015050006
 20
14.7683692165707
 30
0.0
 11
13.55047808566081
 21
17.25391128140995
 31
0.0
  0
LINE
  5
45F
330
3A4
100
AcDbEntity
  8
0
 62
     0
100
AcDbLine
 10
15.67390090311829
 20
14.23246285184552
 30
0.0
 11
13.51457905336013
 21
16.39178470160368
 31
0.0
  0
LINE
  5
460
330
3A4
100
AcDbEntity
  8
0
 62
     0
100
AcDbLine
 10
15.20767453085142
 20
13.8006636120055
 30
0.0
 11
12.9507518600343
 21
16.05758628282268
 31
0.0
  0
LINE
  5
461
330
3A4
100
AcDbEntity
  8
0
 62
     0
100
AcDbLine
 10
14.6344100831186
 20
13.47590244763142
 30
0.0
 11
12.05272624792735
 21
16.05758628282262
 31
0.0
  0
LINE
  5
462
330
3A4
100
AcDbEntity
  8
0
 62
     0
100
AcDbLine
 10
13.92899749403267
 20
13.28328942461041
 30
0.0
 11
11.15470063582046
 21
16.05758628282262
 31
0.0
  0
LINE
  5
463
330
3A4
100
AcDbEntity
  8
0
 62
     0
100
AcDbLine
 10
13.05667502371363
 20
13.25758628282244
 30
0.0
 11
10.25667502371351
 21
16.05758628282262
 31
0.0
  0
LINE
  5
464
330
3A4
100
AcDbEntity
  8
0
 62
     0
100
AcDbLine
 10
12.15864941160669
 20
13.25758628282255
 30
0.0
 11
9.605325516788809
 21
15.81091017764049
 31
0.0
  0
LINE
  5
465
330
3A4
100
AcDbEntity
  8
0
 62
     0
100
AcDbLine
 10
11.26062379949979
 20
13.25758628282255
 30
0.0
 11
9.525478085660836
 21
14.99273199666151
 31
0.0
  0
LINE
  5
466
330
3A4
100
AcDbEntity
  8
0
 62
     0
100
AcDbLine
 10
10.36259818739284
 20
13.25758628282255
 30
0.0
 11
9.525478085660836
 21
14.09470638455457
 31
0.0
  0
LINE
  5
467
330
3A4
100
AcDbEntity
  8
0
 62
     0
100
AcDbLine
 10
66.34216537032779
 20
13.27071805994012
 30
0.0
 11
66.73734630854358
 21
13.66589899815591
 31
0.0
  0
LINE
  5
468
330
3A4
100
AcDbEntity
  8
0
 62
     0
100
AcDbLine
 10
65.43100798110334
 20
13.2575862828225
 30
0.0
 11
66.75047808566103
 21
14.57705638738019
 31
0.0
  0
LINE
  5
469
330
3A4
100
AcDbEntity
  8
0
 62
     0
100
AcDbLine
 10
64.53298236899644
 20
13.2575862828225
 30
0.0
 11
66.75047808566103
 21
15.47508199948708
 31
0.0
  0
LINE
  5
46A
330
3A4
100
AcDbEntity
  8
0
 62
     0
100
AcDbLine
 10
63.9816756489127
 20
13.6043051748457
 30
0.0
 11
66.75047808566097
 21
16.37310761159403
 31
0.0
  0
LINE
  5
46B
330
3A4
100
AcDbEntity
  8
0
 62
     0
100
AcDbLine
 10
63.9504780856609
 20
14.47113322370086
 30
0.0
 11
66.75047808566097
 21
17.27113322370087
 31
0.0
  0
LINE
  5
46C
330
3A4
100
AcDbEntity
  8
0
 62
     0
100
AcDbLine
 10
63.95047808566096
 20
15.36915883580775
 30
0.0
 11
66.75047808566097
 21
18.16915883580782
 31
0.0
  0
LINE
  5
46D
330
3A4
100
AcDbEntity
  8
0
 62
     0
100
AcDbLine
 10
63.9504780856609
 20
16.2671844479147
 30
0.0
 11
66.75047808566097
 21
19.06718444791477
 31
0.0
  0
LINE
  5
46E
330
3A4
100
AcDbEntity
  8
0
 62
     0
100
AcDbLine
 10
63.9504780856609
 20
17.16521006002159
 30
0.0
 11
66.75047808566097
 21
19.96521006002166
 31
0.0
  0
LINE
  5
46F
330
3A4
100
AcDbEntity
  8
0
 62
     0
100
AcDbLine
 10
60.37704294772618
 20
13.59177492208686
 30
0.0
 11
61.51628944639674
 21
14.73102142075748
 31
0.0
  0
LINE
  5
470
330
3A4
100
AcDbEntity
  8
0
 62
     0
100
AcDbLine
 10
63.9504780856609
 20
18.06323567212848
 30
0.0
 11
66.75047808566097
 21
20.86323567212855
 31
0.0
  0
LINE
  5
471
330
3A4
100
AcDbEntity
  8
0
 62
     0
100
AcDbLine
 10
59.14647478120338
 20
13.25923236767096
 30
0.0
 11
61.8488320008127
 21
15.96158958728023
 31
0.0
  0
LINE
  5
472
330
3A4
100
AcDbEntity
  8
0
 62
     0
100
AcDbLine
 10
63.9504780856609
 20
18.96126128423543
 30
0.0
 11
66.75047808566097
 21
21.76126128423544
 31
0.0
  0
LINE
  5
473
330
3A4
100
AcDbEntity
  8
0
 62
     0
100
AcDbLine
 10
58.24680308424797
 20
13.2575862828225
 30
0.0
 11
61.850478085661
 21
16.86126128423546
 31
0.0
  0
LINE
  5
474
330
3A4
100
AcDbEntity
  8
0
 62
     0
100
AcDbLine
 10
63.9504780856609
 20
19.85928689634232
 30
0.0
 11
66.75047808566091
 21
22.65928689634239
 31
0.0
  0
LINE
  5
475
330
3A4
100
AcDbEntity
  8
0
 62
     0
100
AcDbLine
 10
57.34877747214108
 20
13.2575862828225
 30
0.0
 11
61.85047808566094
 21
17.75928689634241
 31
0.0
  0
LINE
  5
476
330
3A4
100
AcDbEntity
  8
0
 62
     0
100
AcDbLine
 10
63.9504780856609
 20
20.75731250844921
 30
0.0
 11
66.75047808566097
 21
23.55731250844928
 31
0.0
  0
LINE
  5
477
330
3A4
100
AcDbEntity
  8
0
 62
     0
100
AcDbLine
 10
56.45075186003424
 20
13.25758628282255
 30
0.0
 11
61.850478085661
 21
18.6573125084493
 31
0.0
  0
LINE
  5
478
330
3A4
100
AcDbEntity
  8
0
 62
     0
100
AcDbLine
 10
58.94588688357988
 20
16.65074691847513
 30
0.0
 11
61.850478085661
 21
19.5553381205562
 31
0.0
  0
LINE
  5
479
330
3A4
100
AcDbEntity
  8
0
 62
     0
100
AcDbLine
 10
63.9504780856609
 20
21.65533812055611
 30
0.0
 11
66.75047808566097
 21
24.45533812055618
 31
0.0
  0
LINE
  5
47A
330
3A4
100
AcDbEntity
  8
0
 62
     0
100
AcDbLine
 10
55.55272624792724
 20
13.2575862828225
 30
0.0
 11
58.45731745000836
 21
16.16217748490356
 31
0.0
  0
LINE
  5
47B
330
3A4
100
AcDbEntity
  8
0
 62
     0
100
AcDbLine
 10
59.05047808566087
 20
17.65336373266308
 30
0.0
 11
61.85047808566094
 21
20.45336373266315
 31
0.0
  0
LINE
  5
47C
330
3A4
100
AcDbEntity
  8
0
 62
     0
100
AcDbLine
 10
63.95047808566085
 20
22.55336373266306
 30
0.0
 11
66.75047808566091
 21
25.35336373266313
 31
0.0
  0
LINE
  5
47D
330
3A4
100
AcDbEntity
  8
0
 62
     0
100
AcDbLine
 10
54.76665038719755
 20
13.36953603419971
 30
0.0
 11
57.45470063582041
 21
16.05758628282257
 31
0.0
  0
LINE
  5
47E
330
3A4
100
AcDbEntity
  8
0
 62
     0
100
AcDbLine
 10
59.05047808566092
 20
18.55138934477008
 30
0.0
 11
61.85047808566094
 21
21.35138934477004
 31
0.0
  0
LINE
  5
47F
330
3A4
100
AcDbEntity
  8
0
 62
     0
100
AcDbLine
 10
63.95047808566085
 20
23.45138934477
 30
0.0
 11
66.75047808566091
 21
26.25138934477002
 31
0.0
  0
LINE
  5
480
330
3A4
100
AcDbEntity
  8
0
 62
     0
100
AcDbLine
 10
54.1386635199874
 20
13.63957477909656
 30
0.0
 11
56.55755280935784
 21
16.058464068467
 31
0.0
  0
LINE
  5
481
330
3A4
100
AcDbEntity
  8
0
 62
     0
100
AcDbLine
 10
59.05047808566099
 20
19.44941495687698
 30
0.0
 11
61.85047808566094
 21
22.24941495687693
 31
0.0
  0
LINE
  5
482
330
3A4
100
AcDbEntity
  8
0
 62
     0
100
AcDbLine
 10
63.9504780856609
 20
24.34941495687684
 30
0.0
 11
66.75047808566091
 21
27.14941495687691
 31
0.0
  0
LINE
  5
483
330
3A4
100
AcDbEntity
  8
0
 62
     0
100
AcDbLine
 10
53.62540363862234
 20
14.02434050983828
 30
0.0
 11
55.91407422064515
 21
16.31301109186114
 31
0.0
  0
LINE
  5
484
330
3A4
100
AcDbEntity
  8
0
 62
     0
100
AcDbLine
 10
59.05047808566099
 20
20.34744056898387
 30
0.0
 11
61.85047808566094
 21
23.14744056898388
 31
0.0
  0
LINE
  5
485
330
3A4
100
AcDbEntity
  8
0
 62
     0
100
AcDbLine
 10
63.95047808566085
 20
25.24744056898379
 30
0.0
 11
66.75047808566091
 21
28.04744056898385
 31
0.0
  0
LINE
  5
486
330
3A4
100
AcDbEntity
  8
0
 62
     0
100
AcDbLine
 10
53.21543946339722
 20
14.5124019467201
 30
0.0
 11
55.57683594223573
 21
16.87379842555867
 31
0.0
  0
LINE
  5
487
330
3A4
100
AcDbEntity
  8
0
 62
     0
100
AcDbLine
 10
59.05047808566092
 20
21.24546618109082
 30
0.0
 11
61.850478085661
 21
24.04546618109089
 31
0.0
  0
LINE
  5
488
330
3A4
100
AcDbEntity
  8
0
 62
     0
100
AcDbLine
 10
63.95047808566085
 20
26.14546618109068
 30
0.0
 11
66.74032893211045
 21
28.93531702754035
 31
0.0
  0
LINE
  5
489
330
3A4
100
AcDbEntity
  8
0
 62
     0
100
AcDbLine
 10
52.91551458496321
 20
15.11050268039309
 30
0.0
 11
55.55047808566093
 21
17.74546618109076
 31
0.0
  0
LINE
  5
48A
330
3A4
100
AcDbEntity
  8
0
 62
     0
100
AcDbLine
 10
59.05047808566099
 20
22.14349179319765
 30
0.0
 11
61.85047808566105
 21
24.94349179319772
 31
0.0
  0
LINE
  5
48B
330
3A4
100
AcDbEntity
  8
0
 62
     0
100
AcDbLine
 10
63.95047808566085
 20
27.04349179319757
 30
0.0
 11
66.26321458703097
 21
29.3562282945677
 31
0.0
  0
LINE
  5
48C
330
3A4
100
AcDbEntity
  8
0
 62
     0
100
AcDbLine
 10
52.75810105000676
 20
15.85111475754348
 30
0.0
 11
55.55047808566093
 21
18.64349179319765
 31
0.0
  0
LINE
  5
48D
330
3A4
100
AcDbEntity
  8
0
 62
     0
100
AcDbLine
 10
59.05047808566092
 20
23.0415174053046
 30
0.0
 11
61.850478085661
 21
25.84151740530467
 31
0.0
  0
LINE
  5
48E
330
3A4
100
AcDbEntity
  8
0
 62
     0
100
AcDbLine
 10
63.9504780856609
 20
27.94151740530458
 30
0.0
 11
65.3665469631789
 21
29.35758628282258
 31
0.0
  0
LINE
  5
48F
330
3A4
100
AcDbEntity
  8
0
 62
     0
100
AcDbLine
 10
52.75047808566097
 20
16.74151740530459
 30
0.0
 11
55.55047808566098
 21
19.54151740530465
 31
0.0
  0
LINE
  5
490
330
3A4
100
AcDbEntity
  8
0
 62
     0
100
AcDbLine
 10
59.05047808566092
 20
23.93954301741155
 30
0.0
 11
61.850478085661
 21
26.73954301741156
 31
0.0
  0
LINE
  5
491
330
3A4
100
AcDbEntity
  8
0
 62
     0
100
AcDbLine
 10
52.75047808566092
 20
17.63954301741154
 30
0.0
 11
55.55047808566098
 21
20.4395430174116
 31
0.0
  0
LINE
  5
492
330
3A4
100
AcDbEntity
  8
0
 62
     0
100
AcDbLine
 10
63.95052480040835
 20
28.83958973215897
 30
0.0
 11
64.46847463632463
 21
29.3575395680752
 31
0.0
  0
LINE
  5
493
330
3A4
100
AcDbEntity
  8
0
 62
     0
100
AcDbLine
 10
48.42892245494891
 20
13.31798738669948
 30
0.0
 11
50.59007698178408
 21
15.4791419135347
 31
0.0
  0
LINE
  5
494
330
3A4
100
AcDbEntity
  8
0
 62
     0
100
AcDbLine
 10
52.75047808566092
 20
18.53756862951843
 30
0.0
 11
55.55047808566098
 21
21.33756862951849
 31
0.0
  0
LINE
  5
495
330
3A4
100
AcDbEntity
  8
0
 62
     0
100
AcDbLine
 10
59.05047808566092
 20
24.83756862951844
 30
0.0
 11
61.85047808566094
 21
27.63756862951851
 31
0.0
  0
LINE
  5
496
330
3A4
100
AcDbEntity
  8
0
 62
     0
100
AcDbLine
 10
47.47049573896504
 20
13.25758628282261
 30
0.0
 11
50.65047808566089
 21
16.43756862951846
 31
0.0
  0
LINE
  5
497
330
3A4
100
AcDbEntity
  8
0
 62
     0
100
AcDbLine
 10
52.75047808566092
 20
19.43559424162532
 30
0.0
 11
55.55047808566098
 21
22.23559424162539
 31
0.0
  0
LINE
  5
498
330
3A4
100
AcDbEntity
  8
0
 62
     0
100
AcDbLine
 10
59.05047808566092
 20
25.73559424162533
 30
0.0
 11
61.850478085661
 21
28.5355942416254
 31
0.0
  0
LINE
  5
499
330
3A4
100
AcDbEntity
  8
0
 62
     0
100
AcDbLine
 10
46.57247012685814
 20
13.25758628282255
 30
0.0
 11
50.65047808566095
 21
17.3355942416253
 31
0.0
  0
LINE
  5
49A
330
3A4
100
AcDbEntity
  8
0
 62
     0
100
AcDbLine
 10
52.75047808566092
 20
20.33361985373227
 30
0.0
 11
55.55047808566098
 21
23.13361985373228
 31
0.0
  0
LINE
  5
49B
330
3A4
100
AcDbEntity
  8
0
 62
     0
100
AcDbLine
 10
59.05047808566092
 20
26.63361985373223
 30
0.0
 11
61.65674063082684
 21
29.2398823988982
 31
0.0
  0
LINE
  5
49C
330
3A4
100
AcDbEntity
  8
0
 62
     0
100
AcDbLine
 10
45.67444451475125
 20
13.25758628282261
 30
0.0
 11
50.63615948524807
 21
18.21930125331937
 31
0.0
  0
LINE
  5
49D
330
3A4
100
AcDbEntity
  8
0
 62
     0
100
AcDbLine
 10
52.75047808566092
 20
21.23164546583916
 30
0.0
 11
55.55047808566093
 21
24.03164546583923
 31
0.0
  0
LINE
  5
49E
330
3A4
100
AcDbEntity
  8
0
 62
     0
100
AcDbLine
 10
59.05047808566087
 20
27.53164546583917
 30
0.0
 11
60.87641890264433
 21
29.35758628282263
 31
0.0
  0
LINE
  5
49F
330
3A4
100
AcDbEntity
  8
0
 62
     0
100
AcDbLine
 10
44.77641890264431
 20
13.25758628282261
 30
0.0
 11
50.50124711461927
 21
18.98241449479758
 31
0.0
  0
LINE
  5
4A0
330
3A4
100
AcDbEntity
  8
0
 62
     0
100
AcDbLine
 10
52.75047808566092
 20
22.12967107794605
 30
0.0
 11
55.55047808566098
 21
24.92967107794612
 31
0.0
  0
LINE
  5
4A1
330
3A4
100
AcDbEntity
  8
0
 62
     0
100
AcDbLine
 10
47.85047808566105
 20
17.22967107794613
 30
0.0
 11
50.26065965770072
 21
19.63985264998586
 31
0.0
  0
LINE
  5
4A2
330
3A4
100
AcDbEntity
  8
0
 62
     0
100
AcDbLine
 10
59.05047808566092
 20
28.42967107794606
 30
0.0
 11
59.9783932905375
 21
29.35758628282263
 31
0.0
  0
LINE
  5
4A3
330
3A4
100
AcDbEntity
  8
0
 62
     0
100
AcDbLine
 10
44.00664864366854
 20
13.38584163595368
 30
0.0
 11
46.67839329053743
 21
16.05758628282257
 31
0.0
  0
LINE
  5
4A4
330
3A4
100
AcDbEntity
  8
0
 62
     0
100
AcDbLine
 10
47.83060751053364
 20
18.10782611492567
 30
0.0
 11
49.93716035284013
 21
20.21437895723215
 31
0.0
  0
LINE
  5
4A5
330
3A4
100
AcDbEntity
  8
0
 62
     0
100
AcDbLine
 10
52.75047808566092
 20
23.02769669005294
 30
0.0
 11
55.55047808566093
 21
25.82769669005301
 31
0.0
  0
LINE
  5
4A6
330
3A4
100
AcDbEntity
  8
0
 62
     0
100
AcDbLine
 10
43.82547808566096
 20
14.10269669005299
 30
0.0
 11
45.78036767843047
 21
16.05758628282257
 31
0.0
  0
LINE
  5
4A7
330
3A4
100
AcDbEntity
  8
0
 62
     0
100
AcDbLine
 10
47.55622267339475
 20
18.73146688989379
 30
0.0
 11
49.54128923491231
 21
20.71653345141135
 31
0.0
  0
LINE
  5
4A8
330
3A4
100
AcDbEntity
  8
0
 62
     0
100
AcDbLine
 10
52.75047808566085
 20
23.92572230215989
 30
0.0
 11
55.55047808566093
 21
26.72572230215996
 31
0.0
  0
LINE
  5
4A9
330
3A4
100
AcDbEntity
  8
0
 62
     0
100
AcDbLine
 10
43.8254780856609
 20
15.00072230215994
 30
0.0
 11
44.88234206632358
 21
16.05758628282262
 31
0.0
  0
LINE
  5
4AA
330
3A4
100
AcDbEntity
  8
0
 62
     0
100
AcDbLine
 10
52.75047808566092
 20
24.82374791426678
 30
0.0
 11
55.55047808566098
 21
27.6237479142668
 31
0.0
  0
LINE
  5
4AB
330
3A4
100
AcDbEntity
  8
0
 62
     0
100
AcDbLine
 10
47.11494777627769
 20
19.1882176048835
 30
0.0
 11
49.09484676360006
 21
21.16811659220593
 31
0.0
  0
LINE
  5
4AC
330
3A4
100
AcDbEntity
  8
0
 62
     0
100
AcDbLine
 10
46.66593497022421
 20
19.63723041093698
 30
0.0
 11
48.64583395754658
 21
21.6171293982594
 31
0.0
  0
LINE
  5
4AD
330
3A4
100
AcDbEntity
  8
0
 62
     0
100
AcDbLine
 10
52.75047808566085
 20
25.72177352637368
 30
0.0
 11
55.55047808566093
 21
28.52177352637374
 31
0.0
  0
LINE
  5
4AE
330
3A4
100
AcDbEntity
  8
0
 62
     0
100
AcDbLine
 10
40.28629084210973
 20
13.25758628282255
 30
0.0
 11
41.2004780856609
 21
14.17177352637366
 31
0.0
  0
LINE
  5
4AF
330
3A4
100
AcDbEntity
  8
0
 62
     0
100
AcDbLine
 10
46.21692216417073
 20
20.08624321699045
 30
0.0
 11
48.19682115149311
 21
22.06614220431288
 31
0.0
  0
LINE
  5
4B0
330
3A4
100
AcDbEntity
  8
0
 62
     0
100
AcDbLine
 10
52.75047808566085
 20
26.61979913848063
 30
0.0
 11
55.36429717756226
 21
29.23361823038197
 31
0.0
  0
LINE
  5
4B1
330
3A4
100
AcDbEntity
  8
0
 62
     0
100
AcDbLine
 10
39.38826523000278
 20
13.25758628282255
 30
0.0
 11
41.20047808566096
 21
15.06979913848067
 31
0.0
  0
LINE
  5
4B2
330
3A4
100
AcDbEntity
  8
0
 62
     0
100
AcDbLine
 10
45.76790935811726
 20
20.53525602304393
 30
0.0
 11
47.74780834543963
 21
22.51515501036635
 31
0.0
  0
LINE
  5
4B3
330
3A4
100
AcDbEntity
  8
0
 62
     0
100
AcDbLine
 10
52.75047808566085
 20
27.51782475058752
 30
0.0
 11
54.59023961789597
 21
29.35758628282269
 31
0.0
  0
LINE
  5
4B4
330
3A4
100
AcDbEntity
  8
0
 62
     0
100
AcDbLine
 10
38.60185075575788
 20
13.36919742068454
 30
0.0
 11
41.2004780856609
 21
15.96782475058762
 31
0.0
  0
LINE
  5
4B5
330
3A4
100
AcDbEntity
  8
0
 62
     0
100
AcDbLine
 10
45.31889655206384
 20
20.98426882909734
 30
0.0
 11
47.29879553938622
 21
22.96416781641977
 31
0.0
  0
LINE
  5
4B6
330
3A4
100
AcDbEntity
  8
0
 62
     0
100
AcDbLine
 10
52.75047808566085
 20
28.41585036269441
 30
0.0
 11
53.69221400578914
 21
29.35758628282263
 31
0.0
  0
LINE
  5
4B7
330
3A4
100
AcDbEntity
  8
0
 62
     0
100
AcDbLine
 10
38.40047808566095
 20
14.0658503626945
 30
0.0
 11
41.20047808566096
 21
16.86585036269446
 31
0.0
  0
LINE
  5
4B8
330
3A4
100
AcDbEntity
  8
0
 62
     0
100
AcDbLine
 10
44.86988374601037
 20
21.43328163515082
 30
0.0
 11
46.84978273333274
 21
23.41318062247324
 31
0.0
  0
LINE
  5
4B9
330
3A4
100
AcDbEntity
  8
0
 62
     0
100
AcDbLine
 10
38.40047808566095
 20
14.96387597480145
 30
0.0
 11
41.2004780856609
 21
17.7638759748014
 31
0.0
  0
LINE
  5
4BA
330
3A4
100
AcDbEntity
  8
0
 62
     0
100
AcDbLine
 10
44.42289984496904
 20
21.88432334621649
 30
0.0
 11
46.40687337835106
 21
23.86829687959846
 31
0.0
  0
LINE
  5
4BB
330
3A4
100
AcDbEntity
  8
0
 62
     0
100
AcDbLine
 10
38.40047808566095
 20
15.86190158690834
 30
0.0
 11
41.2004780856609
 21
18.66190158690835
 31
0.0
  0
LINE
  5
4BC
330
3A4
100
AcDbEntity
  8
0
 62
     0
100
AcDbLine
 10
49.09616278157511
 20
26.55758628282256
 30
0.0
 11
50.12547808566097
 21
27.58690158690837
 31
0.0
  0
LINE
  5
4BD
330
3A4
100
AcDbEntity
  8
0
 62
     0
100
AcDbLine
 10
35.90782186095072
 20
13.36924536219811
 30
0.0
 11
35.99747422240574
 21
13.45889772365319
 31
0.0
  0
LINE
  5
4BE
330
3A4
100
AcDbEntity
  8
0
 62
     0
100
AcDbLine
 10
44.02489766614706
 20
22.38434677950135
 30
0.0
 11
46.12453194356567
 21
24.48398105691996
 31
0.0
  0
LINE
  5
4BF
330
3A4
100
AcDbEntity
  8
0
 62
     0
100
AcDbLine
 10
38.40047808566095
 20
16.75992719901523
 30
0.0
 11
41.20047808566096
 21
19.55992719901519
 31
0.0
  0
LINE
  5
4C0
330
3A4
100
AcDbEntity
  8
0
 62
     0
100
AcDbLine
 10
48.19813716946834
 20
26.55758628282262
 30
0.0
 11
50.12547808566097
 21
28.48492719901526
 31
0.0
  0
LINE
  5
4C1
330
3A4
100
AcDbEntity
  8
0
 62
     0
100
AcDbLine
 10
34.89813716946827
 20
13.25758628282255
 30
0.0
 11
35.9639162657748
 21
14.32336537912908
 31
0.0
  0
LINE
  5
4C2
330
3A4
100
AcDbEntity
  8
0
 62
     0
100
AcDbLine
 10
43.69906340175037
 20
22.95653812721161
 30
0.0
 11
46.10047808566105
 21
25.35795281112228
 31
0.0
  0
LINE
  5
4C3
330
3A4
100
AcDbEntity
  8
0
 62
     0
100
AcDbLine
 10
38.40047808566095
 20
17.65795281112213
 30
0.0
 11
41.2004780856609
 21
20.45795281112213
 31
0.0
  0
LINE
  5
4C4
330
3A4
100
AcDbEntity
  8
0
 62
     0
100
AcDbLine
 10
47.30011155736133
 20
26.55758628282256
 30
0.0
 11
49.95880915386305
 21
29.21628387932429
 31
0.0
  0
LINE
  5
4C5
330
3A4
100
AcDbEntity
  8
0
 62
     0
100
AcDbLine
 10
34.00011155736126
 20
13.2575862828225
 30
0.0
 11
35.74839011886911
 21
15.00586484433034
 31
0.0
  0
LINE
  5
4C6
330
3A4
100
AcDbEntity
  8
0
 62
     0
100
AcDbLine
 10
38.40047808566089
 20
18.55597842322907
 30
0.0
 11
41.2004780856609
 21
21.35597842322903
 31
0.0
  0
LINE
  5
4C7
330
3A4
100
AcDbEntity
  8
0
 62
     0
100
AcDbLine
 10
43.45568133908028
 20
23.61118167664847
 30
0.0
 11
49.20208594525445
 21
29.35758628282263
 31
0.0
  0
LINE
  5
4C8
330
3A4
100
AcDbEntity
  8
0
 62
     0
100
AcDbLine
 10
33.40809724670629
 20
13.56359758427447
 30
0.0
 11
35.53286397196342
 21
15.6883643095316
 31
0.0
  0
LINE
  5
4C9
330
3A4
100
AcDbEntity
  8
0
 62
     0
100
AcDbLine
 10
38.40047808566089
 20
19.45400403533602
 30
0.0
 11
41.20047808566084
 21
22.25400403533598
 31
0.0
  0
LINE
  5
4CA
330
3A4
100
AcDbEntity
  8
0
 62
     0
100
AcDbLine
 10
43.31697447999459
 20
24.37050042966973
 30
0.0
 11
48.30406033314756
 21
29.35758628282263
 31
0.0
  0
LINE
  5
4CB
330
3A4
100
AcDbEntity
  8
0
 62
     0
100
AcDbLine
 10
33.18933782505769
 20
14.24286377473282
 30
0.0
 11
35.31733782505773
 21
16.37086377473286
 31
0.0
  0
LINE
  5
4CC
330
3A4
100
AcDbEntity
  8
0
 62
     0
100
AcDbLine
 10
38.40047808566095
 20
20.35202964744286
 30
0.0
 11
41.2004780856609
 21
23.15202964744287
 31
0.0
  0
LINE
  5
4CD
330
3A4
100
AcDbEntity
  8
0
 62
     0
100
AcDbLine
 10
43.30047808566092
 20
25.25202964744284
 30
0.0
 11
47.40603472104067
 21
29.35758628282263
 31
0.0
  0
LINE
  5
4CE
330
3A4
100
AcDbEntity
  8
0
 62
     0
100
AcDbLine
 10
32.97381167815206
 20
14.92536323993403
 30
0.0
 11
35.10181167815216
 21
17.05336323993407
 31
0.0
  0
LINE
  5
4CF
330
3A4
100
AcDbEntity
  8
0
 62
     0
100
AcDbLine
 10
38.40047808566089
 20
21.25005525954981
 30
0.0
 11
41.2004780856609
 21
24.05005525954976
 31
0.0
  0
LINE
  5
4D0
330
3A4
100
AcDbEntity
  8
0
 62
     0
100
AcDbLine
 10
43.30047808566098
 20
26.15005525954984
 30
0.0
 11
46.50800910893377
 21
29.35758628282263
 31
0.0
  0
LINE
  5
4D1
330
3A4
100
AcDbEntity
  8
0
 62
     0
100
AcDbLine
 10
32.75828553124631
 20
15.60786270513523
 30
0.0
 11
34.88628553124653
 21
17.73586270513544
 31
0.0
  0
LINE
  5
4D2
330
3A4
100
AcDbEntity
  8
0
 62
     0
100
AcDbLine
 10
38.40047808566089
 20
22.1480808716567
 30
0.0
 11
41.20047808566096
 21
24.94808087165677
 31
0.0
  0
LINE
  5
4D3
330
3A4
100
AcDbEntity
  8
0
 62
     0
100
AcDbLine
 10
32.54275938434068
 20
16.29036217033655
 30
0.0
 11
34.67075938434078
 21
18.41836217033659
 31
0.0
  0
LINE
  5
4D4
330
3A4
100
AcDbEntity
  8
0
 62
     0
100
AcDbLine
 10
43.35379475578213
 20
27.101397541778
 30
0.0
 11
45.55666682670545
 21
29.30426961270132
 31
0.0
  0
LINE
  5
4D5
330
3A4
100
AcDbEntity
  8
0
 62
     0
100
AcDbLine
 10
29.50998349682669
 20
13.25758628282255
 30
0.0
 11
30.35047808566088
 21
14.09808087165674
 31
0.0
  0
LINE
  5
4D6
330
3A4
100
AcDbEntity
  8
0
 62
     0
100
AcDbLine
 10
32.32723323743511
 20
16.97286163553775
 30
0.0
 11
34.45523323743515
 21
19.10086163553785
 31
0.0
  0
LINE
  5
4D7
330
3A4
100
AcDbEntity
  8
0
 62
     0
100
AcDbLine
 10
38.40047808566089
 20
23.04610648376359
 30
0.0
 11
41.20047808566096
 21
25.84610648376366
 31
0.0
  0
LINE
  5
4D8
330
3A4
100
AcDbEntity
  8
0
 62
     0
100
AcDbLine
 10
28.61195788471985
 20
13.2575862828225
 30
0.0
 11
30.35047808566094
 21
14.99610648376363
 31
0.0
  0
LINE
  5
4D9
330
3A4
100
AcDbEntity
  8
0
 62
     0
100
AcDbLine
 10
32.11170709052942
 20
17.65536110073901
 30
0.0
 11
34.23970709052946
 21
19.78336110073911
 31
0.0
  0
LINE
  5
4DA
330
3A4
100
AcDbEntity
  8
0
 62
     0
100
AcDbLine
 10
38.40047808566089
 20
23.94413209587054
 30
0.0
 11
41.20047808566096
 21
26.74413209587055
 31
0.0
  0
LINE
  5
4DB
330
3A4
100
AcDbEntity
  8
0
 62
     0
100
AcDbLine
 10
27.7950820202642
 20
13.33873603047385
 30
0.0
 11
30.35047808566094
 21
15.89413209587053
 31
0.0
  0
LINE
  5
4DC
330
3A4
100
AcDbEntity
  8
0
 62
     0
100
AcDbLine
 10
31.89618094362373
 20
18.33786056594027
 30
0.0
 11
34.02418094362377
 21
20.46586056594037
 31
0.0
  0
LINE
  5
4DD
330
3A4
100
AcDbEntity
  8
0
 62
     0
100
AcDbLine
 10
38.40047808566089
 20
24.84215770797743
 30
0.0
 11
41.2004780856609
 21
27.6421577079775
 31
0.0
  0
LINE
  5
4DE
330
3A4
100
AcDbEntity
  8
0
 62
     0
100
AcDbLine
 10
27.55047808566092
 20
13.99215770797747
 30
0.0
 11
30.35047808566099
 21
16.79215770797753
 31
0.0
  0
LINE
  5
4DF
330
3A4
100
AcDbEntity
  8
0
 62
     0
100
AcDbLine
 10
31.6806547967181
 20
19.02036003114147
 30
0.0
 11
33.80865479671825
 21
21.14836003114163
 31
0.0
  0
LINE
  5
4E0
330
3A4
100
AcDbEntity
  8
0
 62
     0
100
AcDbLine
 10
38.40047808566089
 20
25.74018332008432
 30
0.0
 11
41.20047808566096
 21
28.54018332008439
 31
0.0
  0
LINE
  5
4E1
330
3A4
100
AcDbEntity
  8
0
 62
     0
100
AcDbLine
 10
27.55047808566092
 20
14.89018332008436
 30
0.0
 11
30.35047808566099
 21
17.69018332008442
 31
0.0
  0
LINE
  5
4E2
330
3A4
100
AcDbEntity
  8
0
 62
     0
100
AcDbLine
 10
31.44585600974636
 20
19.68358685627674
 30
0.0
 11
34.07615007767736
 21
22.31388092420769
 31
0.0
  0
LINE
  5
4E3
330
3A4
100
AcDbEntity
  8
0
 62
     0
100
AcDbLine
 10
38.40047808566095
 20
26.63820893219133
 30
0.0
 11
41.00420266316251
 21
29.24193350969284
 31
0.0
  0
LINE
  5
4E4
330
3A4
100
AcDbEntity
  8
0
 62
     0
100
AcDbLine
 10
27.55047808566092
 20
15.7882089321913
 30
0.0
 11
30.35047808566099
 21
18.58820893219132
 31
0.0
  0
LINE
  5
4E5
330
3A4
100
AcDbEntity
  8
0
 62
     0
100
AcDbLine
 10
30.75867063987897
 20
19.8944270985163
 30
0.0
 11
34.49062343711125
 21
23.62637989574858
 31
0.0
  0
LINE
  5
4E6
330
3A4
100
AcDbEntity
  8
0
 62
     0
100
AcDbLine
 10
27.55047808566092
 20
16.6862345442982
 30
0.0
 11
30.36363726996722
 21
19.4993937286045
 31
0.0
  0
LINE
  5
4E7
330
3A4
100
AcDbEntity
  8
0
 62
     0
100
AcDbLine
 10
38.40047808566095
 20
27.53623454429822
 30
0.0
 11
40.2218298241853
 21
29.35758628282263
 31
0.0
  0
LINE
  5
4E8
330
3A4
100
AcDbEntity
  8
0
 62
     0
100
AcDbLine
 10
24.12182982418528
 20
13.25758628282255
 30
0.0
 11
25.10047808566094
 21
14.23623454429827
 31
0.0
  0
LINE
  5
4E9
330
3A4
100
AcDbEntity
  8
0
 62
     0
100
AcDbLine
 10
27.55047808566087
 20
17.58426015640515
 30
0.0
 11
34.90509679654519
 21
24.93887886728947
 31
0.0
  0
LINE
  5
4EA
330
3A4
100
AcDbEntity
  8
0
 62
     0
100
AcDbLine
 10
38.40047808566089
 20
28.43426015640517
 30
0.0
 11
39.3238042120783
 21
29.35758628282258
 31
0.0
  0
LINE
  5
4EB
330
3A4
100
AcDbEntity
  8
0
 62
     0
100
AcDbLine
 10
23.22380421207833
 20
13.25758628282261
 30
0.0
 11
25.10047808566099
 21
15.13426015640527
 31
0.0
  0
LINE
  5
4EC
330
3A4
100
AcDbEntity
  8
0
 62
     0
100
AcDbLine
 10
27.55047808566092
 20
18.48228576851198
 30
0.0
 11
35.3195701559793
 21
26.25137783883042
 31
0.0
  0
LINE
  5
4ED
330
3A4
100
AcDbEntity
  8
0
 62
     0
100
AcDbLine
 10
22.33745922432154
 20
13.26926690717266
 30
0.0
 11
24.95914380205476
 21
15.89095148490582
 31
0.0
  0
LINE
  5
4EE
330
3A4
100
AcDbEntity
  8
0
 62
     0
100
AcDbLine
 10
27.55047808566087
 20
19.38031138061893
 30
0.0
 11
30.87775298786453
 21
22.7075862828226
 31
0.0
  0
LINE
  5
4EF
330
3A4
100
AcDbEntity
  8
0
 62
     0
100
AcDbLine
 10
31.64173582310542
 20
23.47156911806348
 30
0.0
 11
35.73404351541324
 21
27.56387681037131
 31
0.0
  0
LINE
  5
4F0
330
3A4
100
AcDbEntity
  8
0
 62
     0
100
AcDbLine
 10
21.56929870687457
 20
13.39913200183258
 30
0.0
 11
24.2277529878645
 21
16.05758628282257
 31
0.0
  0
LINE
  5
4F1
330
3A4
100
AcDbEntity
  8
0
 62
     0
100
AcDbLine
 10
27.55047808566087
 20
20.27833699272588
 30
0.0
 11
30.3684686563692
 21
23.09632756343416
 31
0.0
  0
LINE
  5
4F2
330
3A4
100
AcDbEntity
  8
0
 62
     0
100
AcDbLine
 10
32.05620918253936
 20
24.78406808960432
 30
0.0
 11
36.10911496721456
 21
28.83697387427957
 31
0.0
  0
LINE
  5
4F3
330
3A4
100
AcDbEntity
  8
0
 62
     0
100
AcDbLine
 10
20.90816445004816
 20
13.63602335711317
 30
0.0
 11
23.32972737575761
 21
16.05758628282257
 31
0.0
  0
LINE
  5
4F4
330
3A4
100
AcDbEntity
  8
0
 62
     0
100
AcDbLine
 10
27.55047808566092
 20
21.17636260483271
 30
0.0
 11
30.35047808566094
 21
23.97636260483278
 31
0.0
  0
LINE
  5
4F5
330
3A4
100
AcDbEntity
  8
0
 62
     0
100
AcDbLine
 10
32.4706825419733
 20
26.09656706114515
 30
0.0
 11
35.71510309464537
 21
29.34098761381722
 31
0.0
  0
LINE
  5
4F6
330
3A4
100
AcDbEntity
  8
0
 62
     0
100
AcDbLine
 10
20.33056116588386
 20
13.95644568505565
 30
0.0
 11
22.44662302437672
 21
16.07250754354856
 31
0.0
  0
LINE
  5
4F7
330
3A4
100
AcDbEntity
  8
0
 62
     0
100
AcDbLine
 10
27.55047808566087
 20
22.07438821693966
 30
0.0
 11
30.35047808566094
 21
24.87438821693973
 31
0.0
  0
LINE
  5
4F8
330
3A4
100
AcDbEntity
  8
0
 62
     0
100
AcDbLine
 10
32.88515590140724
 20
27.40906603268598
 30
0.0
 11
34.83367615154378
 21
29.35758628282258
 31
0.0
  0
LINE
  5
4F9
330
3A4
100
AcDbEntity
  8
0
 62
     0
100
AcDbLine
 10
19.8256061995018
 20
14.34951633078054
 30
0.0
 11
21.81230688335841
 21
16.33621701463715
 31
0.0
  0
LINE
  5
4FA
330
3A4
100
AcDbEntity
  8
0
 62
     0
100
AcDbLine
 10
27.55047808566087
 20
22.97241382904656
 30
0.0
 11
30.35047808566094
 21
25.77241382904662
 31
0.0
  0
LINE
  5
4FB
330
3A4
100
AcDbEntity
  8
0
 62
     0
100
AcDbLine
 10
24.21211221743738
 20
19.63404796082312
 30
0.0
 11
25.37401640766046
 21
20.79595215104621
 31
0.0
  0
LINE
  5
4FC
330
3A4
100
AcDbEntity
  8
0
 62
     0
100
AcDbLine
 10
33.29962926084113
 20
28.72156500422687
 30
0.0
 11
33.93565053943683
 21
29.35758628282258
 31
0.0
  0
LINE
  5
4FD
330
3A4
100
AcDbEntity
  8
0
 62
     0
100
AcDbLine
 10
19.38916912617196
 20
14.8111048695577
 30
0.0
 11
21.40205593208623
 21
16.82399167547197
 31
0.0
  0
LINE
  5
4FE
330
3A4
100
AcDbEntity
  8
0
 62
     0
100
AcDbLine
 10
23.28713937580755
 20
19.60710073130025
 30
0.0
 11
25.40096363718333
 21
21.72092499267597
 31
0.0
  0
LINE
  5
4FF
330
3A4
100
AcDbEntity
  8
0
 62
     0
100
AcDbLine
 10
27.55047808566092
 20
23.87043944115356
 30
0.0
 11
30.35047808566099
 21
26.67043944115363
 31
0.0
  0
LINE
  5
500
330
3A4
100
AcDbEntity
  8
0
 62
     0
100
AcDbLine
 10
19.02214990122899
 20
15.34211125672163
 30
0.0
 11
21.25047808566091
 21
17.57043944115361
 31
0.0
  0
LINE
  5
501
330
3A4
100
AcDbEntity
  8
0
 62
     0
100
AcDbLine
 10
22.67299280638735
 20
19.89097977398682
 30
0.0
 11
25.1170845944967
 21
22.33507156209623
 31
0.0
  0
LINE
  5
502
330
3A4
100
AcDbEntity
  8
0
 62
     0
100
AcDbLine
 10
27.55047808566092
 20
24.76846505326045
 30
0.0
 11
30.35047808566099
 21
27.56846505326052
 31
0.0
  0
LINE
  5
503
330
3A4
100
AcDbEntity
  8
0
 62
     0
100
AcDbLine
 10
18.73083239130426
 20
15.94881935890379
 30
0.0
 11
21.25047808566091
 21
18.46846505326044
 31
0.0
  0
LINE
  5
504
330
3A4
100
AcDbEntity
  8
0
 62
     0
100
AcDbLine
 10
22.23503287939763
 20
20.35104545910411
 30
0.0
 11
24.65701890937947
 21
22.77303148908589
 31
0.0
  0
LINE
  5
505
330
3A4
100
AcDbEntity
  8
0
 62
     0
100
AcDbLine
 10
27.55047808566092
 20
25.6664906653674
 30
0.0
 11
30.35047808566099
 21
28.46649066536741
 31
0.0
  0
LINE
  5
506
330
3A4
100
AcDbEntity
  8
0
 62
     0
100
AcDbLine
 10
18.5296950271296
 20
16.64570760683608
 30
0.0
 11
21.25047808566091
 21
19.36649066536739
 31
0.0
  0
LINE
  5
507
330
3A4
100
AcDbEntity
  8
0
 62
     0
100
AcDbLine
 10
21.97898214698926
 20
20.99302033880263
 30
0.0
 11
24.01504402968089
 21
23.02908222149432
 31
0.0
  0
LINE
  5
508
330
3A4
100
AcDbEntity
  8
0
 62
     0
100
AcDbLine
 10
18.45047808566084
 20
17.46451627747427
 30
0.0
 11
21.25047808566091
 21
20.26451627747428
 31
0.0
  0
LINE
  5
509
330
3A4
100
AcDbEntity
  8
0
 62
     0
100
AcDbLine
 10
27.55047808566092
 20
26.56451627747429
 30
0.0
 11
30.1932279773058
 21
29.20726616911924
 31
0.0
  0
LINE
  5
50A
330
3A4
100
AcDbEntity
  8
0
 62
     0
100
AcDbLine
 10
14.36448132778525
 20
13.37851951959868
 30
0.0
 11
16.22954484888498
 21
15.24358304069841
 31
0.0
  0
LINE
  5
50B
330
3A4
100
AcDbEntity
  8
0
 62
     0
100
AcDbLine
 10
22.09739523047005
 20
22.00945903439031
 30
0.0
 11
22.99860533409327
 21
22.91066913801353
 31
0.0
  0
LINE
  5
50C
330
3A4
100
AcDbEntity
  8
0
 62
     0
100
AcDbLine
 10
18.45047808566084
 20
18.3625418895811
 30
0.0
 11
21.25047808566091
 21
21.16254188958117
 31
0.0
  0
LINE
  5
50D
330
3A4
100
AcDbEntity
  8
0
 62
     0
100
AcDbLine
 10
27.55047808566092
 20
27.46254188958118
 30
0.0
 11
29.44552247890232
 21
29.35758628282258
 31
0.0
  0
LINE
  5
50E
330
3A4
100
AcDbEntity
  8
0
 62
     0
100
AcDbLine
 10
13.34552247890229
 20
13.25758628282255
 30
0.0
 11
16.35047808566105
 21
16.26254188958125
 31
0.0
  0
LINE
  5
50F
330
3A4
100
AcDbEntity
  8
0
 62
     0
100
AcDbLine
 10
18.45047808566084
 20
19.26056750168805
 30
0.0
 11
21.25047808566091
 21
22.06056750168812
 31
0.0
  0
LINE
  5
510
330
3A4
100
AcDbEntity
  8
0
 62
     0
100
AcDbLine
 10
27.55047808566092
 20
28.36056750168808
 30
0.0
 11
28.54749686679543
 21
29.35758628282263
 31
0.0
  0
LINE
  5
511
330
3A4
100
AcDbEntity
  8
0
 62
     0
100
AcDbLine
 10
12.44749686679529
 20
13.2575862828225
 30
0.0
 11
16.35047808566099
 21
17.1605675016882
 31
0.0
  0
LINE
  5
512
330
3A4
100
AcDbEntity
  8
0
 62
     0
100
AcDbLine
 10
18.45047808566084
 20
20.15859311379494
 30
0.0
 11
21.25047808566085
 21
22.95859311379501
 31
0.0
  0
LINE
  5
513
330
3A4
100
AcDbEntity
  8
0
 62
     0
100
AcDbLine
 10
11.54947125468845
 20
13.25758628282261
 30
0.0
 11
16.34653873309974
 21
18.0546537612339
 31
0.0
  0
LINE
  5
514
330
3A4
100
AcDbEntity
  8
0
 62
     0
100
AcDbLine
 10
18.45047808566084
 20
21.05661872590189
 30
0.0
 11
21.25047808566091
 21
23.85661872590196
 31
0.0
  0
LINE
  5
515
330
3A4
100
AcDbEntity
  8
0
 62
     0
100
AcDbLine
 10
23.95144564258163
 20
26.55758628282268
 30
0.0
 11
25.10047808566105
 21
27.7066187259021
 31
0.0
  0
LINE
  5
516
330
3A4
100
AcDbEntity
  8
0
 62
     0
100
AcDbLine
 10
10.6514456425815
 20
13.25758628282255
 30
0.0
 11
16.23687689677842
 21
18.84301753701947
 31
0.0
  0
LINE
  5
517
330
3A4
100
AcDbEntity
  8
0
 62
     0
100
AcDbLine
 10
18.45047808566084
 20
21.95464433800879
 30
0.0
 11
21.25047808566091
 21
24.7546443380088
 31
0.0
  0
LINE
  5
518
330
3A4
100
AcDbEntity
  8
0
 62
     0
100
AcDbLine
 10
13.55047808566092
 20
17.05464433800887
 30
0.0
 11
16.0145381527343
 21
19.51870440508224
 31
0.0
  0
LINE
  5
519
330
3A4
100
AcDbEntity
  8
0
 62
     0
100
AcDbLine
 10
23.05342003047462
 20
26.55758628282256
 30
0.0
 11
25.10047808566105
 21
28.60464433800894
 31
0.0
  0
LINE
  5
51A
330
3A4
100
AcDbEntity
  8
0
 62
     0
100
AcDbLine
 10
9.811145905734576
 20
13.31531215808252
 30
0.0
 11
12.55342003047462
 21
16.05758628282257
 31
0.0
  0
LINE
  5
51B
330
3A4
100
AcDbEntity
  8
0
 62
     0
100
AcDbLine
 10
18.45047808566079
 20
22.85266995011568
 30
0.0
 11
21.41629279144058
 21
25.81848465589547
 31
0.0
  0
LINE
  5
51C
330
3A4
100
AcDbEntity
  8
0
 62
     0
100
AcDbLine
 10
13.54831899405167
 20
17.9505108585065
 30
0.0
 11
15.70610661806227
 21
20.10829848251717
 31
0.0
  0
LINE
  5
51D
330
3A4
100
AcDbEntity
  8
0
 62
     0
100
AcDbLine
 10
21.98957971258812
 20
26.39177157704301
 30
0.0
 11
24.86701067074113
 21
29.26920253519597
 31
0.0
  0
LINE
  5
51E
330
3A4
100
AcDbEntity
  8
0
 62
     0
100
AcDbLine
 10
9.52547808566095
 20
13.92766995011578
 30
0.0
 11
11.65539441836773
 21
16.05758628282257
 31
0.0
  0
LINE
  5
51F
330
3A4
100
AcDbEntity
  8
0
 62
     0
100
AcDbLine
 10
13.32871597455095
 20
18.6289334511128
 30
0.0
 11
15.32386465322338
 21
20.62408212978522
 31
0.0
  0
LINE
  5
520
330
3A4
100
AcDbEntity
  8
0
 62
     0
100
AcDbLine
 10
18.45047808566079
 20
23.75069556222263
 30
0.0
 11
24.05736880626085
 21
29.35758628282269
 31
0.0
  0
LINE
  5
521
330
3A4
100
AcDbEntity
  8
0
 62
     0
100
AcDbLine
 10
9.525478085660893
 20
14.82569556222273
 30
0.0
 11
10.75736880626078
 21
16.05758628282262
 31
0.0
  0
LINE
  5
522
330
3A4
100
AcDbEntity
  8
0
 62
     0
100
AcDbLine
 10
12.90246114624625
 20
19.10070423491492
 30
0.0
 11
14.88236013356862
 21
21.08060322223729
 31
0.0
  0
LINE
  5
523
330
3A4
100
AcDbEntity
  8
0
 62
     0
100
AcDbLine
 10
18.45047808566084
 20
24.64872117432946
 30
0.0
 11
23.15934319415379
 21
29.35758628282247
 31
0.0
  0
LINE
  5
524
330
3A4
100
AcDbEntity
  8
0
 62
     0
100
AcDbLine
 10
9.594430007680671
 20
15.79267309634934
 30
0.0
 11
9.790391272134286
 21
15.98863436080296
 31
0.0
  0
LINE
  5
525
330
3A4
100
AcDbEntity
  8
0
 62
     0
100
AcDbLine
 10
18.47045319981742
 20
25.56672190059299
 30
0.0
 11
22.24134246789043
 21
29.33761116866605
 31
0.0
  0
LINE
  5
526
330
3A4
100
AcDbEntity
  8
0
 62
     0
100
AcDbLine
 10
12.45344834019277
 20
19.5497170409684
 30
0.0
 11
14.43334732751515
 21
21.52961602829077
 31
0.0
  0
LINE
  5
527
330
3A4
100
AcDbEntity
  8
0
 62
     0
100
AcDbLine
 10
18.7699166320832
 20
26.76421094496578
 30
0.0
 11
21.0438534235177
 21
29.03814773640027
 31
0.0
  0
LINE
  5
528
330
3A4
100
AcDbEntity
  8
0
 62
     0
100
AcDbLine
 10
12.0044355341393
 20
19.99872984702187
 30
0.0
 11
13.98433452146167
 21
21.97862883434424
 31
0.0
  0
LINE
  5
529
330
3A4
100
AcDbEntity
  8
0
 62
     0
100
AcDbLine
 10
11.55542272808588
 20
20.44774265307529
 30
0.0
 11
13.5353217154082
 21
22.42764164039755
 31
0.0
  0
LINE
  5
52A
330
3A4
100
AcDbEntity
  8
0
 62
     0
100
AcDbLine
 10
11.10640992203241
 20
20.89675545912876
 30
0.0
 11
13.08630890935472
 21
22.87665444645103
 31
0.0
  0
LINE
  5
52B
330
3A4
100
AcDbEntity
  8
0
 62
     0
100
AcDbLine
 10
10.65739711597893
 20
21.34576826518224
 30
0.0
 11
12.63729610330125
 21
23.3256672525045
 31
0.0
  0
LINE
  5
52C
330
3A4
100
AcDbEntity
  8
0
 62
     0
100
AcDbLine
 10
14.97118952151237
 20
26.55758628282256
 30
0.0
 11
15.82547808566084
 21
27.4118748469711
 31
0.0
  0
LINE
  5
52D
330
3A4
100
AcDbEntity
  8
0
 62
     0
100
AcDbLine
 10
10.20846762395359
 20
21.79486438526385
 30
0.0
 11
12.18853326738605
 21
23.7749300286963
 31
0.0
  0
LINE
  5
52E
330
3A4
100
AcDbEntity
  8
0
 62
     0
100
AcDbLine
 10
14.07316390940548
 20
26.55758628282256
 30
0.0
 11
15.8254780856609
 21
28.30990045907799
 31
0.0
  0
LINE
  5
52F
330
3A4
100
AcDbEntity
  8
0
 62
     0
100
AcDbLine
 10
9.796999699402022
 20
22.28142207281905
 30
0.0
 11
11.85863638609811
 21
24.3430587595152
 31
0.0
  0
LINE
  5
530
330
3A4
100
AcDbEntity
  8
0
 62
     0
100
AcDbLine
 10
13.17513829729853
 20
26.55758628282256
 30
0.0
 11
15.73891918589976
 21
29.12136717142379
 31
0.0
  0
LINE
  5
531
330
3A4
100
AcDbEntity
  8
0
 62
     0
100
AcDbLine
 10
9.456539093139554
 20
22.83898707866353
 30
0.0
 11
11.80047808566098
 21
25.18292607118496
 31
0.0
  0
LINE
  5
532
330
3A4
100
AcDbEntity
  8
0
 62
     0
100
AcDbLine
 10
12.27464603602152
 20
26.55511963365245
 30
0.0
 11
15.0771126851917
 21
29.35758628282263
 31
0.0
  0
LINE
  5
533
330
3A4
100
AcDbEntity
  8
0
 62
     0
100
AcDbLine
 10
9.195845797407457
 20
23.47631939503838
 30
0.0
 11
11.80294473483104
 21
26.08341833246203
 31
0.0
  0
LINE
  5
534
330
3A4
100
AcDbEntity
  8
0
 62
     0
100
AcDbLine
 10
9.034033835159391
 20
24.21253304489721
 30
0.0
 11
14.17908707308481
 21
29.35758628282263
 31
0.0
  0
LINE
  5
535
330
3A4
100
AcDbEntity
  8
0
 62
     0
100
AcDbLine
 10
9.000478085660972
 20
25.07700290750574
 30
0.0
 11
13.2810614609778
 21
29.35758628282258
 31
0.0
  0
LINE
  5
536
330
3A4
100
AcDbEntity
  8
0
 62
     0
100
AcDbLine
 10
9.000478085660972
 20
25.97502851961263
 30
0.0
 11
12.38303584887086
 21
29.35758628282258
 31
0.0
  0
LINE
  5
537
330
3A4
100
AcDbEntity
  8
0
 62
     0
100
AcDbLine
 10
9.020670096099195
 20
26.8932461421578
 30
0.0
 11
11.4648182263258
 21
29.33739427238441
 31
0.0
  0
ENDBLK
  5
539
330
3A4
100
AcDbEntity
  8
0
100
AcDbBlockEnd
  0
BLOCK
  5
8069
330
805F
100
AcDbEntity
  8
0
100
AcDbBlockBegin
  2
*D2
 70
     1
 10
0.0
 20
0.0
 30
0.0
  3
*D2
  1

  0
LINE
  5
8655
330
805F
100
AcDbEntity
  8
SUNPOU
 62
     4
370
    -2
100
AcDbLine
 10
369.8001272538174
 20
447.039640855251
 30
0.0
 11
369.8001272538174
 21
465.3931219613665
 31
0.0
  0
LINE
  5
8656
330
805F
100
AcDbEntity
  8
SUNPOU
 62
     4
370
    -2
100
AcDbLine
 10
499.8585702538175
 20
207.990892855251
 30
0.0
 11
499.8585702538175
 21
465.3931219613665
 31
0.0
  0
LINE
  5
8657
330
805F
100
AcDbEntity
  8
SUNPOU
 62
     4
370
    -2
100
AcDbLine
 10
376.8001272538174
 20
462.3931219613665
 30
0.0
 11
492.8585702538176
 21
462.3931219613665
 31
0.0
  0
INSERT
  5
8658
330
805F
100
AcDbEntity
  8
SUNPOU
 62
     4
370
    -2
100
AcDbBlockReference
  2
_OPEN
 10
369.8001272538174
 20
462.3931219613665
 30
0.0
 41
7.0
 42
7.0
 43
7.0
 50
180.0
  0
INSERT
  5
8659
330
805F
100
AcDbEntity
  8
SUNPOU
 62
     4
370
    -2
100
AcDbBlockReference
  2
_OPEN
 10
499.8585702538175
 20
462.3931219613665
 30
0.0
 41
7.0
 42
7.0
 43
7.0
  0
MTEXT
  5
865A
330
805F
100
AcDbEntity
  8
SUNPOU
 62
     4
100
AcDbMText
 10
434.8293487538175
 20
467.3931219613665
 30
0.0
 40
6.0
 41
0.0
 71
     5
 72
     5
  1
\A1;130
 73
     1
 44
1.0
1001
ACAD
1000
MTEXTBEGIN
1070
    73
1070
     1
1070
    44
1040
1.0
1070
    74
1070
     0
1000
MTEXTEND
1000
MTEXTBEGIN
1070
    73
1070
     1
1070
    44
1040
1.0
1070
    74
1070
     0
1000
MTEXTEND
1000
MTEXTBEGIN
1070
    73
1070
     1
1070
    44
1040
1.0
1070
    74
1070
     0
1000
MTEXTEND
1000
MTEXTBEGIN
1070
    73
1070
     1
1070
    44
1040
1.0
1070
    74
1070
     0
1000
MTEXTEND
  0
POINT
  5
865B
330
805F
100
AcDbEntity
  8
DEFPOINTS
 62
     0
100
AcDbPoint
 10
369.8001272538174
 20
441.0396408552511
 30
0.0
  0
POINT
  5
865C
330
805F
100
AcDbEntity
  8
DEFPOINTS
 62
     0
100
AcDbPoint
 10
499.8585702538175
 20
201.990892855251
 30
0.0
  0
POINT
  5
865D
330
805F
100
AcDbEntity
  8
DEFPOINTS
 62
     0
100
AcDbPoint
 10
499.8585702538175
 20
462.3931219613665
 30
0.0
  0
ENDBLK
  5
806A
330
805F
100
AcDbEntity
  8
0
100
AcDbBlockEnd
  0
BLOCK
  5
8075
330
806B
100
AcDbEntity
  8
0
100
AcDbBlockBegin
  2
*D3
 70
     1
 10
0.0
 20
0.0
 30
0.0
  3
*D3
  1

  0
LINE
  5
84AB
330
806B
100
AcDbEntity
  8
SUNPOU
 62
     4
370
    -2
100
AcDbLine
 10
499.8585702538175
 20
170.3818028552511
 30
0.0
 11
499.8585702538175
 21
95.84679990388224
 31
0.0
  0
LINE
  5
84AC
330
806B
100
AcDbEntity
  8
SUNPOU
 62
     4
370
    -2
100
AcDbLine
 10
233.8585702538175
 20
195.3818028552513
 30
0.0
 11
233.8585702538175
 21
95.84679990388224
 31
0.0
  0
LINE
  5
84AD
330
806B
100
AcDbEntity
  8
SUNPOU
 62
     4
370
    -2
100
AcDbLine
 10
492.8585702538176
 20
98.84679990388224
 30
0.0
 11
240.8585702538175
 21
98.84679990388224
 31
0.0
  0
INSERT
  5
84AE
330
806B
100
AcDbEntity
  8
SUNPOU
 62
     4
370
    -2
100
AcDbBlockReference
  2
_OPEN
 10
499.8585702538175
 20
98.84679990388224
 30
0.0
 41
7.0
 42
7.0
 43
7.0
  0
INSERT
  5
84AF
330
806B
100
AcDbEntity
  8
SUNPOU
 62
     4
370
    -2
100
AcDbBlockReference
  2
_OPEN
 10
233.8585702538175
 20
98.84679990388224
 30
0.0
 41
7.0
 42
7.0
 43
7.0
 50
180.0
  0
MTEXT
  5
84B0
330
806B
100
AcDbEntity
  8
SUNPOU
 62
     4
100
AcDbMText
 10
366.8585702538175
 20
103.8467999038822
 30
0.0
 40
6.0
 41
0.0
 71
     5
 72
     5
  1
\A1;266
 73
     1
 44
1.0
1001
ACAD
1000
MTEXTBEGIN
1070
    73
1070
     1
1070
    44
1040
1.0
1070
    74
1070
     0
1000
MTEXTEND
1000
MTEXTBEGIN
1070
    73
1070
     1
1070
    44
1040
1.0
1070
    74
1070
     0
1000
MTEXTEND
1000
MTEXTBEGIN
1070
    73
1070
     1
1070
    44
1040
1.0
1070
    74
1070
     0
1000
MTEXTEND
1000
MTEXTBEGIN
1070
    73
1070
     1
1070
    44
1040
1.0
1070
    74
1070
     0
1000
MTEXTEND
1000
MTEXTBEGIN
1070
    73
1070
     1
1070
    44
1040
1.0
1070
    74
1070
     0
1000
MTEXTEND
  0
POINT
  5
84B1
330
806B
100
AcDbEntity
  8
DEFPOINTS
 62
     0
100
AcDbPoint
 10
499.8585702538175
 20
176.3818028552511
 30
0.0
  0
POINT
  5
84B2
330
806B
100
AcDbEntity
  8
DEFPOINTS
 62
     0
100
AcDbPoint
 10
233.8585702538175
 20
201.3818028552513
 30
0.0
  0
POINT
  5
84B3
330
806B
100
AcDbEntity
  8
DEFPOINTS
 62
     0
100
AcDbPoint
 10
233.8585702538175
 20
98.84679990388224
 30
0.0
  0
ENDBLK
  5
8076
330
806B
100
AcDbEntity
  8
0
100
AcDbBlockEnd
  0
BLOCK
  5
8081
330
8077
100
AcDbEntity
  8
0
100
AcDbBlockBegin
  2
*D4
 70
     1
 10
0.0
 20
0.0
 30
0.0
  3
*D4
  1

  0
LINE
  5
865E
330
8077
100
AcDbEntity
  8
SUNPOU
 62
     4
370
    -2
100
AcDbLine
 10
369.8001272538174
 20
447.039640855251
 30
0.0
 11
369.8001272538174
 21
465.3931219613665
 31
0.0
  0
LINE
  5
865F
330
8077
100
AcDbEntity
  8
SUNPOU
 62
     4
370
    -2
100
AcDbLine
 10
233.8585701531434
 20
232.9908925495062
 30
0.0
 11
233.8585701531434
 21
465.3931219613665
 31
0.0
  0
LINE
  5
8660
330
8077
100
AcDbEntity
  8
SUNPOU
 62
     4
370
    -2
100
AcDbLine
 10
362.8001272538174
 20
462.3931219613665
 30
0.0
 11
240.8585701531434
 21
462.3931219613665
 31
0.0
  0
INSERT
  5
8661
330
8077
100
AcDbEntity
  8
SUNPOU
 62
     4
370
    -2
100
AcDbBlockReference
  2
_OPEN
 10
369.8001272538174
 20
462.3931219613665
 30
0.0
 41
7.0
 42
7.0
 43
7.0
  0
INSERT
  5
8662
330
8077
100
AcDbEntity
  8
SUNPOU
 62
     4
370
    -2
100
AcDbBlockReference
  2
_OPEN
 10
233.8585701531434
 20
462.3931219613665
 30
0.0
 41
7.0
 42
7.0
 43
7.0
 50
180.0
  0
MTEXT
  5
8663
330
8077
100
AcDbEntity
  8
SUNPOU
 62
     4
100
AcDbMText
 10
301.8293487034804
 20
467.3931219613665
 30
0.0
 40
6.0
 41
0.0
 71
     5
 72
     5
  1
\A1;136
 73
     1
 44
1.0
1001
ACAD
1000
MTEXTBEGIN
1070
    73
1070
     1
1070
    44
1040
1.0
1070
    74
1070
     0
1000
MTEXTEND
1000
MTEXTBEGIN
1070
    73
1070
     1
1070
    44
1040
1.0
1070
    74
1070
     0
1000
MTEXTEND
1000
MTEXTBEGIN
1070
    73
1070
     1
1070
    44
1040
1.0
1070
    74
1070
     0
1000
MTEXTEND
1000
MTEXTBEGIN
1070
    73
1070
     1
1070
    44
1040
1.0
1070
    74
1070
     0
1000
MTEXTEND
  0
POINT
  5
8664
330
8077
100
AcDbEntity
  8
DEFPOINTS
 62
     0
100
AcDbPoint
 10
369.8001272538174
 20
441.0396408552511
 30
0.0
  0
POINT
  5
8665
330
8077
100
AcDbEntity
  8
DEFPOINTS
 62
     0
100
AcDbPoint
 10
233.8585701531434
 20
226.9908925495062
 30
0.0
  0
POINT
  5
8666
330
8077
100
AcDbEntity
  8
DEFPOINTS
 62
     0
100
AcDbPoint
 10
233.8585701531434
 20
462.3931219613665
 30
0.0
  0
ENDBLK
  5
8082
330
8077
100
AcDbEntity
  8
0
100
AcDbBlockEnd
  0
BLOCK
  5
808D
330
8083
100
AcDbEntity
  8
0
100
AcDbBlockBegin
  2
*D5
 70
     1
 10
0.0
 20
0.0
 30
0.0
  3
*D5
  1

  0
LINE
  5
84D8
330
8083
100
AcDbEntity
  8
SUNPOU
 62
     4
370
    -2
100
AcDbLine
 10
233.8585701531434
 20
232.9908925495062
 30
0.0
 11
233.8585701531434
 21
262.6567854549761
 31
0.0
  0
LINE
  5
84D9
330
8083
100
AcDbEntity
  8
SUNPOU
 62
     4
370
    -2
100
AcDbLine
 10
278.7693365570159
 20
233.3512329442306
 30
0.0
 11
278.7693365570159
 21
262.6567854549761
 31
0.0
  0
LINE
  5
84DA
330
8083
100
AcDbEntity
  8
SUNPOU
 62
     4
370
    -2
100
AcDbLine
 10
240.8585701531434
 20
259.6567854549761
 30
0.0
 11
271.7693365570159
 21
259.6567854549761
 31
0.0
  0
INSERT
  5
84DB
330
8083
100
AcDbEntity
  8
SUNPOU
 62
     4
370
    -2
100
AcDbBlockReference
  2
_OPEN
 10
233.8585701531434
 20
259.6567854549761
 30
0.0
 41
7.0
 42
7.0
 43
7.0
 50
180.0
  0
INSERT
  5
84DC
330
8083
100
AcDbEntity
  8
SUNPOU
 62
     4
370
    -2
100
AcDbBlockReference
  2
_OPEN
 10
278.7693365570159
 20
259.6567854549761
 30
0.0
 41
7.0
 42
7.0
 43
7.0
  0
MTEXT
  5
84DD
330
8083
100
AcDbEntity
  8
SUNPOU
 62
     4
100
AcDbMText
 10
256.3139533550796
 20
264.6567854549761
 30
0.0
 40
6.0
 41
0.0
 71
     5
 72
     5
  1
\A1;45
 73
     1
 44
1.0
1001
ACAD
1000
MTEXTBEGIN
1070
    73
1070
     1
1070
    44
1040
1.0
1070
    74
1070
     0
1000
MTEXTEND
1000
MTEXTBEGIN
1070
    73
1070
     1
1070
    44
1040
1.0
1070
    74
1070
     0
1000
MTEXTEND
1000
MTEXTBEGIN
1070
    73
1070
     1
1070
    44
1040
1.0
1070
    74
1070
     0
1000
MTEXTEND
1000
MTEXTBEGIN
1070
    73
1070
     1
1070
    44
1040
1.0
1070
    74
1070
     0
1000
MTEXTEND
1000
MTEXTBEGIN
1070
    73
1070
     1
1070
    44
1040
1.0
1070
    74
1070
     0
1000
MTEXTEND
  0
POINT
  5
84DE
330
8083
100
AcDbEntity
  8
DEFPOINTS
 62
     0
100
AcDbPoint
 10
233.8585701531434
 20
226.9908925495062
 30
0.0
  0
POINT
  5
84DF
330
8083
100
AcDbEntity
  8
DEFPOINTS
 62
     0
100
AcDbPoint
 10
278.7693365570159
 20
227.3512329442306
 30
0.0
  0
POINT
  5
84E0
330
8083
100
AcDbEntity
  8
DEFPOINTS
 62
     0
100
AcDbPoint
 10
278.7693365570159
 20
259.6567854549761
 30
0.0
  0
ENDBLK
  5
808E
330
8083
100
AcDbEntity
  8
0
100
AcDbBlockEnd
  0
BLOCK
  5
8099
330
808F
100
AcDbEntity
  8
0
100
AcDbBlockBegin
  2
*D6
 70
     1
 10
0.0
 20
0.0
 30
0.0
  3
*D6
  1

  0
LINE
  5
84BD
330
808F
100
AcDbEntity
  8
SUNPOU
 62
     4
370
    -2
100
AcDbLine
 10
358.8202362538174
 20
155.0819028552511
 30
0.0
 11
195.9637716562944
 21
155.0819028552511
 31
0.0
  0
LINE
  5
84BE
330
808F
100
AcDbEntity
  8
SUNPOU
 62
     4
370
    -2
100
AcDbLine
 10
359.8001272538174
 20
425.0819028552511
 30
0.0
 11
195.9637716562945
 21
425.0819028552511
 31
0.0
  0
LINE
  5
84BF
330
808F
100
AcDbEntity
  8
SUNPOU
 62
     4
370
    -2
100
AcDbLine
 10
198.9637716562944
 20
162.0819028552511
 30
0.0
 11
198.9637716562945
 21
418.0819028552511
 31
0.0
  0
INSERT
  5
84C0
330
808F
100
AcDbEntity
  8
SUNPOU
 62
     4
370
    -2
100
AcDbBlockReference
  2
_OPEN
 10
198.9637716562944
 20
155.0819028552511
 30
0.0
 41
7.0
 42
7.0
 43
7.0
 50
270.0
  0
INSERT
  5
84C1
330
808F
100
AcDbEntity
  8
SUNPOU
 62
     4
370
    -2
100
AcDbBlockReference
  2
_OPEN
 10
198.9637716562945
 20
425.0819028552511
 30
0.0
 41
7.0
 42
7.0
 43
7.0
 50
90.0
  0
MTEXT
  5
84C2
330
808F
100
AcDbEntity
  8
SUNPOU
 62
     4
100
AcDbMText
 10
193.9637716562944
 20
290.0819028552511
 30
0.0
 40
6.0
 41
0.0
 71
     5
 72
     5
  1
\A1;270
 11
0.0000000000000001
 21
1.0
 31
0.0
 73
     1
 44
1.0
1001
ACAD
1000
MTEXTBEGIN
1070
    73
1070
     1
1070
    44
1040
1.0
1070
    74
1070
     0
1000
MTEXTEND
1000
MTEXTBEGIN
1070
    73
1070
     1
1070
    44
1040
1.0
1070
    74
1070
     0
1000
MTEXTEND
1000
MTEXTBEGIN
1070
    73
1070
     1
1070
    44
1040
1.0
1070
    74
1070
     0
1000
MTEXTEND
1000
MTEXTBEGIN
1070
    73
1070
     1
1070
    44
1040
1.0
1070
    74
1070
     0
1000
MTEXTEND
1000
MTEXTBEGIN
1070
    73
1070
     1
1070
    44
1040
1.0
1070
    74
1070
     0
1000
MTEXTEND
  0
POINT
  5
84C3
330
808F
100
AcDbEntity
  8
DEFPOINTS
 62
     0
100
AcDbPoint
 10
364.8202362538174
 20
155.0819028552511
 30
0.0
  0
POINT
  5
84C4
330
808F
100
AcDbEntity
  8
DEFPOINTS
 62
     0
100
AcDbPoint
 10
365.8001272538174
 20
425.0819028552511
 30
0.0
  0
POINT
  5
84C5
330
808F
100
AcDbEntity
  8
DEFPOINTS
 62
     0
100
AcDbPoint
 10
198.9637716562945
 20
425.0819028552511
 30
0.0
  0
ENDBLK
  5
809A
330
808F
100
AcDbEntity
  8
0
100
AcDbBlockEnd
  0
BLOCK
  5
80A5
330
809B
100
AcDbEntity
  8
0
100
AcDbBlockBegin
  2
*D7
 70
     1
 10
0.0
 20
0.0
 30
0.0
  3
*D7
  1

  0
LINE
  5
84C6
330
809B
100
AcDbEntity
  8
SUNPOU
 62
     4
370
    -2
100
AcDbLine
 10
246.4657742538175
 20
232.734447855251
 30
0.0
 11
312.224983020457
 21
232.734447855251
 31
0.0
  0
LINE
  5
84C7
330
809B
100
AcDbEntity
  8
SUNPOU
 62
     4
370
    -2
100
AcDbLine
 10
293.1251532538175
 20
174.0818028552511
 30
0.0
 11
312.224983020457
 21
174.0818028552511
 31
0.0
  0
LINE
  5
84C8
330
809B
100
AcDbEntity
  8
SUNPOU
 62
     4
370
    -2
100
AcDbLine
 10
309.2249830204571
 20
225.734447855251
 30
0.0
 11
309.2249830204571
 21
181.0818028552511
 31
0.0
  0
INSERT
  5
84C9
330
809B
100
AcDbEntity
  8
SUNPOU
 62
     4
370
    -2
100
AcDbBlockReference
  2
_OPEN
 10
309.2249830204571
 20
232.734447855251
 30
0.0
 41
7.0
 42
7.0
 43
7.0
 50
90.0
  0
INSERT
  5
84CA
330
809B
100
AcDbEntity
  8
SUNPOU
 62
     4
370
    -2
100
AcDbBlockReference
  2
_OPEN
 10
309.2249830204571
 20
174.0818028552511
 30
0.0
 41
7.0
 42
7.0
 43
7.0
 50
270.0
  0
MTEXT
  5
84CB
330
809B
100
AcDbEntity
  8
SUNPOU
 62
     4
100
AcDbMText
 10
304.224983020457
 20
203.4081253552511
 30
0.0
 40
6.0
 41
0.0
 71
     5
 72
     5
  1
\A1;59
 11
0.0000000000000001
 21
1.0
 31
0.0
 73
     1
 44
1.0
1001
ACAD
1000
MTEXTBEGIN
1070
    73
1070
     1
1070
    44
1040
1.0
1070
    74
1070
     0
1000
MTEXTEND
1000
MTEXTBEGIN
1070
    73
1070
     1
1070
    44
1040
1.0
1070
    74
1070
     0
1000
MTEXTEND
1000
MTEXTBEGIN
1070
    73
1070
     1
1070
    44
1040
1.0
1070
    74
1070
     0
1000
MTEXTEND
1000
MTEXTBEGIN
1070
    73
1070
     1
1070
    44
1040
1.0
1070
    74
1070
     0
1000
MTEXTEND
1000
MTEXTBEGIN
1070
    73
1070
     1
1070
    44
1040
1.0
1070
    74
1070
     0
1000
MTEXTEND
  0
POINT
  5
84CC
330
809B
100
AcDbEntity
  8
DEFPOINTS
 62
     0
100
AcDbPoint
 10
240.4657742538176
 20
232.734447855251
 30
0.0
  0
POINT
  5
84CD
330
809B
100
AcDbEntity
  8
DEFPOINTS
 62
     0
100
AcDbPoint
 10
287.1251532538175
 20
174.0818028552511
 30
0.0
  0
POINT
  5
84CE
330
809B
100
AcDbEntity
  8
DEFPOINTS
 62
     0
100
AcDbPoint
 10
309.2249830204571
 20
174.0818028552511
 30
0.0
  0
ENDBLK
  5
80A6
330
809B
100
AcDbEntity
  8
0
100
AcDbBlockEnd
  0
BLOCK
  5
80B1
330
80A7
100
AcDbEntity
  8
0
100
AcDbBlockBegin
  2
*D8
 70
     1
 10
0.0
 20
0.0
 30
0.0
  3
*D8
  1

  0
LINE
  5
84CF
330
80A7
100
AcDbEntity
  8
SUNPOU
 62
     4
370
    -2
100
AcDbLine
 10
234.465773937037
 20
232.7344477981081
 30
0.0
 11
210.7434598811134
 21
232.7344477981081
 31
0.0
  0
LINE
  5
84D0
330
80A7
100
AcDbEntity
  8
SUNPOU
 62
     4
370
    -2
100
AcDbLine
 10
232.6585702538173
 20
196.581802855251
 30
0.0
 11
210.7434598811134
 21
196.581802855251
 31
0.0
  0
LINE
  5
84D1
330
80A7
100
AcDbEntity
  8
SUNPOU
 62
     4
370
    -2
100
AcDbLine
 10
213.7434598811135
 20
225.7344477981081
 30
0.0
 11
213.7434598811135
 21
203.581802855251
 31
0.0
  0
INSERT
  5
84D2
330
80A7
100
AcDbEntity
  8
SUNPOU
 62
     4
370
    -2
100
AcDbBlockReference
  2
_OPEN
 10
213.7434598811135
 20
232.7344477981081
 30
0.0
 41
7.0
 42
7.0
 43
7.0
 50
90.0
  0
INSERT
  5
84D3
330
80A7
100
AcDbEntity
  8
SUNPOU
 62
     4
370
    -2
100
AcDbBlockReference
  2
_OPEN
 10
213.7434598811135
 20
196.581802855251
 30
0.0
 41
7.0
 42
7.0
 43
7.0
 50
270.0
  0
MTEXT
  5
84D4
330
80A7
100
AcDbEntity
  8
SUNPOU
 62
     4
100
AcDbMText
 10
208.7434598811134
 20
214.6581253266796
 30
0.0
 40
6.0
 41
0.0
 71
     5
 72
     5
  1
\A1;36
 11
0.0000000000000001
 21
1.0
 31
0.0
 73
     1
 44
1.0
1001
ACAD
1000
MTEXTBEGIN
1070
    73
1070
     1
1070
    44
1040
1.0
1070
    74
1070
     0
1000
MTEXTEND
1000
MTEXTBEGIN
1070
    73
1070
     1
1070
    44
1040
1.0
1070
    74
1070
     0
1000
MTEXTEND
1000
MTEXTBEGIN
1070
    73
1070
     1
1070
    44
1040
1.0
1070
    74
1070
     0
1000
MTEXTEND
1000
MTEXTBEGIN
1070
    73
1070
     1
1070
    44
1040
1.0
1070
    74
1070
     0
1000
MTEXTEND
1000
MTEXTBEGIN
1070
    73
1070
     1
1070
    44
1040
1.0
1070
    74
1070
     0
1000
MTEXTEND
  0
POINT
  5
84D5
330
80A7
100
AcDbEntity
  8
DEFPOINTS
 62
     0
100
AcDbPoint
 10
240.465773937037
 20
232.7344477981081
 30
0.0
  0
POINT
  5
84D6
330
80A7
100
AcDbEntity
  8
DEFPOINTS
 62
     0
100
AcDbPoint
 10
238.6585702538173
 20
196.581802855251
 30
0.0
  0
POINT
  5
84D7
330
80A7
100
AcDbEntity
  8
DEFPOINTS
 62
     0
100
AcDbPoint
 10
213.7434598811135
 20
196.581802855251
 30
0.0
  0
ENDBLK
  5
80B2
330
80A7
100
AcDbEntity
  8
0
100
AcDbBlockEnd
  0
BLOCK
  5
80BD
330
80B3
100
AcDbEntity
  8
0
100
AcDbBlockBegin
  2
*D9
 70
     1
 10
0.0
 20
0.0
 30
0.0
  3
*D9
  1

  0
LINE
  5
84EA
330
80B3
100
AcDbEntity
  8
SUNPOU
 62
     4
370
    -2
100
AcDbLine
 10
334.8585702538175
 20
447.039640855251
 30
0.0
 11
334.8585702538175
 21
489.1142151127325
 31
0.0
  0
LINE
  5
84EB
330
80B3
100
AcDbEntity
  8
SUNPOU
 62
     4
370
    -2
100
AcDbLine
 10
398.8585702538175
 20
447.039640855251
 30
0.0
 11
398.8585702538175
 21
489.1142151127325
 31
0.0
  0
LINE
  5
84EC
330
80B3
100
AcDbEntity
  8
SUNPOU
 62
     4
370
    -2
100
AcDbLine
 10
341.8585702538175
 20
486.1142151127324
 30
0.0
 11
391.8585702538175
 21
486.1142151127324
 31
0.0
  0
INSERT
  5
84ED
330
80B3
100
AcDbEntity
  8
SUNPOU
 62
     4
370
    -2
100
AcDbBlockReference
  2
_OPEN
 10
334.8585702538175
 20
486.1142151127324
 30
0.0
 41
7.0
 42
7.0
 43
7.0
 50
180.0
  0
INSERT
  5
84EE
330
80B3
100
AcDbEntity
  8
SUNPOU
 62
     4
370
    -2
100
AcDbBlockReference
  2
_OPEN
 10
398.8585702538175
 20
486.1142151127324
 30
0.0
 41
7.0
 42
7.0
 43
7.0
  0
MTEXT
  5
84EF
330
80B3
100
AcDbEntity
  8
SUNPOU
 62
     4
100
AcDbMText
 10
366.8585702538175
 20
491.1142151127324
 30
0.0
 40
6.0
 41
0.0
 71
     5
 72
     5
  1
\A1;64
 73
     1
 44
1.0
1001
ACAD
1000
MTEXTBEGIN
1070
    73
1070
     1
1070
    44
1040
1.0
1070
    74
1070
     0
1000
MTEXTEND
1000
MTEXTBEGIN
1070
    73
1070
     1
1070
    44
1040
1.0
1070
    74
1070
     0
1000
MTEXTEND
1000
MTEXTBEGIN
1070
    73
1070
     1
1070
    44
1040
1.0
1070
    74
1070
     0
1000
MTEXTEND
1000
MTEXTBEGIN
1070
    73
1070
     1
1070
    44
1040
1.0
1070
    74
1070
     0
1000
MTEXTEND
1000
MTEXTBEGIN
1070
    73
1070
     1
1070
    44
1040
1.0
1070
    74
1070
     0
1000
MTEXTEND
  0
POINT
  5
84F0
330
80B3
100
AcDbEntity
  8
DEFPOINTS
 62
     0
100
AcDbPoint
 10
334.8585702538175
 20
441.0396408552511
 30
0.0
  0
POINT
  5
84F1
330
80B3
100
AcDbEntity
  8
DEFPOINTS
 62
     0
100
AcDbPoint
 10
398.8585702538175
 20
441.0396408552511
 30
0.0
  0
POINT
  5
84F2
330
80B3
100
AcDbEntity
  8
DEFPOINTS
 62
     0
100
AcDbPoint
 10
398.8585702538175
 20
486.1142151127324
 30
0.0
  0
ENDBLK
  5
80BE
330
80B3
100
AcDbEntity
  8
0
100
AcDbBlockEnd
  0
BLOCK
  5
80C9
330
80BF
100
AcDbEntity
  8
0
100
AcDbBlockBegin
  2
*D10
 70
     1
 10
0.0
 20
0.0
 30
0.0
  3
*D10
  1

  0
LINE
  5
84E1
330
80BF
100
AcDbEntity
  8
SUNPOU
 62
     4
370
    -2
100
AcDbLine
 10
353.3001252538176
 20
416.8608488552511
 30
0.0
 11
353.3001252538176
 21
476.9991540035733
 31
0.0
  0
LINE
  5
84E2
330
80BF
100
AcDbEntity
  8
SUNPOU
 62
     4
370
    -2
100
AcDbLine
 10
386.3001252538176
 20
416.8608488552511
 30
0.0
 11
386.3001252538176
 21
476.9991540035733
 31
0.0
  0
LINE
  5
84E3
330
80BF
100
AcDbEntity
  8
SUNPOU
 62
     4
370
    -2
100
AcDbLine
 10
360.3001252538176
 20
473.9991540035734
 30
0.0
 11
379.3001252538176
 21
473.9991540035734
 31
0.0
  0
INSERT
  5
84E4
330
80BF
100
AcDbEntity
  8
SUNPOU
 62
     4
370
    -2
100
AcDbBlockReference
  2
_OPEN
 10
353.3001252538176
 20
473.9991540035734
 30
0.0
 41
7.0
 42
7.0
 43
7.0
 50
180.0
  0
INSERT
  5
84E5
330
80BF
100
AcDbEntity
  8
SUNPOU
 62
     4
370
    -2
100
AcDbBlockReference
  2
_OPEN
 10
386.3001252538176
 20
473.9991540035734
 30
0.0
 41
7.0
 42
7.0
 43
7.0
  0
MTEXT
  5
84E6
330
80BF
100
AcDbEntity
  8
SUNPOU
 62
     4
100
AcDbMText
 10
369.8001252538176
 20
478.9991540035734
 30
0.0
 40
6.0
 41
0.0
 71
     5
 72
     5
  1
\A1;33
 73
     1
 44
1.0
1001
ACAD
1000
MTEXTBEGIN
1070
    73
1070
     1
1070
    44
1040
1.0
1070
    74
1070
     0
1000
MTEXTEND
1000
MTEXTBEGIN
1070
    73
1070
     1
1070
    44
1040
1.0
1070
    74
1070
     0
1000
MTEXTEND
1000
MTEXTBEGIN
1070
    73
1070
     1
1070
    44
1040
1.0
1070
    74
1070
     0
1000
MTEXTEND
1000
MTEXTBEGIN
1070
    73
1070
     1
1070
    44
1040
1.0
1070
    74
1070
     0
1000
MTEXTEND
1000
MTEXTBEGIN
1070
    73
1070
     1
1070
    44
1040
1.0
1070
    74
1070
     0
1000
MTEXTEND
  0
POINT
  5
84E7
330
80BF
100
AcDbEntity
  8
DEFPOINTS
 62
     0
100
AcDbPoint
 10
353.3001252538176
 20
410.860848855251
 30
0.0
  0
POINT
  5
84E8
330
80BF
100
AcDbEntity
  8
DEFPOINTS
 62
     0
100
AcDbPoint
 10
386.3001252538176
 20
410.860848855251
 30
0.0
  0
POINT
  5
84E9
330
80BF
100
AcDbEntity
  8
DEFPOINTS
 62
     0
100
AcDbPoint
 10
386.3001252538176
 20
473.9991540035734
 30
0.0
  0
ENDBLK
  5
80CA
330
80BF
100
AcDbEntity
  8
0
100
AcDbBlockEnd
  0
BLOCK
  5
80D5
330
80CB
100
AcDbEntity
  8
0
100
AcDbBlockBegin
  2
*D11
 70
     1
 10
0.0
 20
0.0
 30
0.0
  3
*D11
  1

  0
LINE
  5
850E
330
80CB
100
AcDbEntity
  8
SUNPOU
 62
     4
370
    -2
100
AcDbLine
 10
492.2585702538174
 20
116.581802855251
 30
0.0
 11
527.6996682116339
 21
116.581802855251
 31
0.0
  0
LINE
  5
850F
330
80CB
100
AcDbEntity
  8
SUNPOU
 62
     4
370
    -2
100
AcDbLine
 10
492.2585702538174
 20
171.5818028552511
 30
0.0
 11
527.6996682116339
 21
171.5818028552511
 31
0.0
  0
LINE
  5
8510
330
80CB
100
AcDbEntity
  8
SUNPOU
 62
     4
370
    -2
100
AcDbLine
 10
524.6996682116339
 20
123.581802855251
 30
0.0
 11
524.6996682116339
 21
164.5818028552511
 31
0.0
  0
INSERT
  5
8511
330
80CB
100
AcDbEntity
  8
SUNPOU
 62
     4
370
    -2
100
AcDbBlockReference
  2
_OPEN
 10
524.6996682116339
 20
116.581802855251
 30
0.0
 41
7.0
 42
7.0
 43
7.0
 50
270.0
  0
INSERT
  5
8512
330
80CB
100
AcDbEntity
  8
SUNPOU
 62
     4
370
    -2
100
AcDbBlockReference
  2
_OPEN
 10
524.6996682116339
 20
171.5818028552511
 30
0.0
 41
7.0
 42
7.0
 43
7.0
 50
90.0
  0
MTEXT
  5
8513
330
80CB
100
AcDbEntity
  8
SUNPOU
 62
     4
100
AcDbMText
 10
519.6996682116339
 20
144.0818028552512
 30
0.0
 40
6.0
 41
0.0
 71
     5
 72
     5
  1
\A1;55
 11
0.0000000000000001
 21
1.0
 31
0.0
 73
     1
 44
1.0
1001
ACAD
1000
MTEXTBEGIN
1070
    73
1070
     1
1070
    44
1040
1.0
1070
    74
1070
     0
1000
MTEXTEND
1000
MTEXTBEGIN
1070
    73
1070
     1
1070
    44
1040
1.0
1070
    74
1070
     0
1000
MTEXTEND
1000
MTEXTBEGIN
1070
    73
1070
     1
1070
    44
1040
1.0
1070
    74
1070
     0
1000
MTEXTEND
1000
MTEXTBEGIN
1070
    73
1070
     1
1070
    44
1040
1.0
1070
    74
1070
     0
1000
MTEXTEND
1000
MTEXTBEGIN
1070
    73
1070
     1
1070
    44
1040
1.0
1070
    74
1070
     0
1000
MTEXTEND
  0
POINT
  5
8514
330
80CB
100
AcDbEntity
  8
DEFPOINTS
 62
     0
100
AcDbPoint
 10
486.2585702538174
 20
116.581802855251
 30
0.0
  0
POINT
  5
8515
330
80CB
100
AcDbEntity
  8
DEFPOINTS
 62
     0
100
AcDbPoint
 10
486.2585702538174
 20
171.5818028552511
 30
0.0
  0
POINT
  5
8516
330
80CB
100
AcDbEntity
  8
DEFPOINTS
 62
     0
100
AcDbPoint
 10
524.6996682116339
 20
171.5818028552511
 30
0.0
  0
ENDBLK
  5
80D6
330
80CB
100
AcDbEntity
  8
0
100
AcDbBlockEnd
  0
BLOCK
  5
80E1
330
80D7
100
AcDbEntity
  8
0
100
AcDbBlockBegin
  2
*D12
 70
     1
 10
0.0
 20
0.0
 30
0.0
  3
*D12
  1

  0
LINE
  5
8517
330
80D7
100
AcDbEntity
  8
SUNPOU
 62
     4
370
    -2
100
AcDbLine
 10
499.8585702538175
 20
207.990892855251
 30
0.0
 11
499.8585702538175
 21
235.2496527204487
 31
0.0
  0
LINE
  5
8518
330
80D7
100
AcDbEntity
  8
SUNPOU
 62
     4
370
    -2
100
AcDbLine
 10
463.6952576798166
 20
209.5806078303489
 30
0.0
 11
463.6952576798166
 21
235.2496527204487
 31
0.0
  0
LINE
  5
8519
330
80D7
100
AcDbEntity
  8
SUNPOU
 62
     4
370
    -2
100
AcDbLine
 10
492.8585702538176
 20
232.2496527204488
 30
0.0
 11
470.6952576798166
 21
232.2496527204488
 31
0.0
  0
INSERT
  5
851A
330
80D7
100
AcDbEntity
  8
SUNPOU
 62
     4
370
    -2
100
AcDbBlockReference
  2
_OPEN
 10
499.8585702538175
 20
232.2496527204488
 30
0.0
 41
7.0
 42
7.0
 43
7.0
  0
INSERT
  5
851B
330
80D7
100
AcDbEntity
  8
SUNPOU
 62
     4
370
    -2
100
AcDbBlockReference
  2
_OPEN
 10
463.6952576798166
 20
232.2496527204488
 30
0.0
 41
7.0
 42
7.0
 43
7.0
 50
180.0
  0
MTEXT
  5
851C
330
80D7
100
AcDbEntity
  8
SUNPOU
 62
     4
100
AcDbMText
 10
481.7769139668171
 20
237.2496527204488
 30
0.0
 40
6.0
 41
0.0
 71
     5
 72
     5
  1
\A1;36
 73
     1
 44
1.0
1001
ACAD
1000
MTEXTBEGIN
1070
    73
1070
     1
1070
    44
1040
1.0
1070
    74
1070
     0
1000
MTEXTEND
1000
MTEXTBEGIN
1070
    73
1070
     1
1070
    44
1040
1.0
1070
    74
1070
     0
1000
MTEXTEND
1000
MTEXTBEGIN
1070
    73
1070
     1
1070
    44
1040
1.0
1070
    74
1070
     0
1000
MTEXTEND
1000
MTEXTBEGIN
1070
    73
1070
     1
1070
    44
1040
1.0
1070
    74
1070
     0
1000
MTEXTEND
1000
MTEXTBEGIN
1070
    73
1070
     1
1070
    44
1040
1.0
1070
    74
1070
     0
1000
MTEXTEND
  0
POINT
  5
851D
330
80D7
100
AcDbEntity
  8
DEFPOINTS
 62
     0
100
AcDbPoint
 10
499.8585702538175
 20
201.990892855251
 30
0.0
  0
POINT
  5
851E
330
80D7
100
AcDbEntity
  8
DEFPOINTS
 62
     0
100
AcDbPoint
 10
463.6952576798166
 20
203.5806078303489
 30
0.0
  0
POINT
  5
851F
330
80D7
100
AcDbEntity
  8
DEFPOINTS
 62
     0
100
AcDbPoint
 10
463.6952576798166
 20
232.2496527204488
 30
0.0
  0
ENDBLK
  5
80E2
330
80D7
100
AcDbEntity
  8
0
100
AcDbBlockEnd
  0
BLOCK
  5
80ED
330
80E3
100
AcDbEntity
  8
0
100
AcDbBlockBegin
  2
*D13
 70
     1
 10
0.0
 20
0.0
 30
0.0
  3
*D13
  1

  0
LINE
  5
8505
330
80E3
100
AcDbEntity
  8
SUNPOU
 62
     4
370
    -2
100
AcDbLine
 10
487.2513665705985
 20
207.7344477981081
 30
0.0
 11
435.7250199848701
 21
207.7344477981082
 31
0.0
  0
LINE
  5
8506
330
80E3
100
AcDbEntity
  8
SUNPOU
 62
     4
370
    -2
100
AcDbLine
 10
446.2583632538176
 20
174.0818028552511
 30
0.0
 11
435.7250199848701
 21
174.0818028552511
 31
0.0
  0
LINE
  5
8507
330
80E3
100
AcDbEntity
  8
SUNPOU
 62
     4
370
    -2
100
AcDbLine
 10
438.7250199848701
 20
200.7344477981082
 30
0.0
 11
438.7250199848701
 21
181.0818028552511
 31
0.0
  0
INSERT
  5
8508
330
80E3
100
AcDbEntity
  8
SUNPOU
 62
     4
370
    -2
100
AcDbBlockReference
  2
_OPEN
 10
438.7250199848701
 20
207.7344477981082
 30
0.0
 41
7.0
 42
7.0
 43
7.0
 50
90.0
  0
INSERT
  5
8509
330
80E3
100
AcDbEntity
  8
SUNPOU
 62
     4
370
    -2
100
AcDbBlockReference
  2
_OPEN
 10
438.7250199848701
 20
174.0818028552511
 30
0.0
 41
7.0
 42
7.0
 43
7.0
 50
270.0
  0
MTEXT
  5
850A
330
80E3
100
AcDbEntity
  8
SUNPOU
 62
     4
100
AcDbMText
 10
433.7250199848701
 20
190.9081253266797
 30
0.0
 40
6.0
 41
0.0
 71
     5
 72
     5
  1
\A1;34
 11
0.0000000000000001
 21
1.0
 31
0.0
 73
     1
 44
1.0
1001
ACAD
1000
MTEXTBEGIN
1070
    73
1070
     1
1070
    44
1040
1.0
1070
    74
1070
     0
1000
MTEXTEND
1000
MTEXTBEGIN
1070
    73
1070
     1
1070
    44
1040
1.0
1070
    74
1070
     0
1000
MTEXTEND
1000
MTEXTBEGIN
1070
    73
1070
     1
1070
    44
1040
1.0
1070
    74
1070
     0
1000
MTEXTEND
1000
MTEXTBEGIN
1070
    73
1070
     1
1070
    44
1040
1.0
1070
    74
1070
     0
1000
MTEXTEND
1000
MTEXTBEGIN
1070
    73
1070
     1
1070
    44
1040
1.0
1070
    74
1070
     0
1000
MTEXTEND
  0
POINT
  5
850B
330
80E3
100
AcDbEntity
  8
DEFPOINTS
 62
     0
100
AcDbPoint
 10
493.2513665705985
 20
207.7344477981081
 30
0.0
  0
POINT
  5
850C
330
80E3
100
AcDbEntity
  8
DEFPOINTS
 62
     0
100
AcDbPoint
 10
452.2583632538176
 20
174.0818028552511
 30
0.0
  0
POINT
  5
850D
330
80E3
100
AcDbEntity
  8
DEFPOINTS
 62
     0
100
AcDbPoint
 10
438.7250199848701
 20
174.0818028552511
 30
0.0
  0
ENDBLK
  5
80EE
330
80E3
100
AcDbEntity
  8
0
100
AcDbBlockEnd
  0
BLOCK
  5
80F9
330
80EF
100
AcDbEntity
  8
0
100
AcDbBlockBegin
  2
*D14
 70
     1
 10
0.0
 20
0.0
 30
0.0
  3
*D14
  1

  0
LINE
  5
84FC
330
80EF
100
AcDbEntity
  8
SUNPOU
 62
     4
370
    -2
100
AcDbLine
 10
499.2513662538174
 20
207.734447855251
 30
0.0
 11
527.6996682116339
 21
207.734447855251
 31
0.0
  0
LINE
  5
84FD
330
80EF
100
AcDbEntity
  8
SUNPOU
 62
     4
370
    -2
100
AcDbLine
 10
501.0585702538175
 20
171.581802855251
 30
0.0
 11
527.6996682116339
 21
171.581802855251
 31
0.0
  0
LINE
  5
84FE
330
80EF
100
AcDbEntity
  8
SUNPOU
 62
     4
370
    -2
100
AcDbLine
 10
524.6996682116339
 20
200.734447855251
 30
0.0
 11
524.6996682116339
 21
178.581802855251
 31
0.0
  0
INSERT
  5
84FF
330
80EF
100
AcDbEntity
  8
SUNPOU
 62
     4
370
    -2
100
AcDbBlockReference
  2
_OPEN
 10
524.6996682116339
 20
207.734447855251
 30
0.0
 41
7.0
 42
7.0
 43
7.0
 50
90.0
  0
INSERT
  5
8500
330
80EF
100
AcDbEntity
  8
SUNPOU
 62
     4
370
    -2
100
AcDbBlockReference
  2
_OPEN
 10
524.6996682116339
 20
171.581802855251
 30
0.0
 41
7.0
 42
7.0
 43
7.0
 50
270.0
  0
MTEXT
  5
8501
330
80EF
100
AcDbEntity
  8
SUNPOU
 62
     4
100
AcDbMText
 10
519.6996682116339
 20
189.6581253552511
 30
0.0
 40
6.0
 41
0.0
 71
     5
 72
     5
  1
\A1;36
 11
0.0000000000000001
 21
1.0
 31
0.0
 73
     1
 44
1.0
1001
ACAD
1000
MTEXTBEGIN
1070
    73
1070
     1
1070
    44
1040
1.0
1070
    74
1070
     0
1000
MTEXTEND
1000
MTEXTBEGIN
1070
    73
1070
     1
1070
    44
1040
1.0
1070
    74
1070
     0
1000
MTEXTEND
1000
MTEXTBEGIN
1070
    73
1070
     1
1070
    44
1040
1.0
1070
    74
1070
     0
1000
MTEXTEND
1000
MTEXTBEGIN
1070
    73
1070
     1
1070
    44
1040
1.0
1070
    74
1070
     0
1000
MTEXTEND
1000
MTEXTBEGIN
1070
    73
1070
     1
1070
    44
1040
1.0
1070
    74
1070
     0
1000
MTEXTEND
  0
POINT
  5
8502
330
80EF
100
AcDbEntity
  8
DEFPOINTS
 62
     0
100
AcDbPoint
 10
493.2513662538174
 20
207.734447855251
 30
0.0
  0
POINT
  5
8503
330
80EF
100
AcDbEntity
  8
DEFPOINTS
 62
     0
100
AcDbPoint
 10
495.0585702538176
 20
171.581802855251
 30
0.0
  0
POINT
  5
8504
330
80EF
100
AcDbEntity
  8
DEFPOINTS
 62
     0
100
AcDbPoint
 10
524.6996682116339
 20
171.581802855251
 30
0.0
  0
ENDBLK
  5
80FA
330
80EF
100
AcDbEntity
  8
0
100
AcDbBlockEnd
  0
BLOCK
  5
8105
330
80FB
100
AcDbEntity
  8
0
100
AcDbBlockBegin
  2
*D15
 70
     1
 10
0.0
 20
0.0
 30
0.0
  3
*D15
  1

  0
LINE
  5
84F3
330
80FB
100
AcDbEntity
  8
SUNPOU
 62
     4
370
    -2
100
AcDbLine
 10
575.6780842538176
 20
165.5818028552511
 30
0.0
 11
575.6780842538176
 21
86.33331063590469
 31
0.0
  0
LINE
  5
84F4
330
80FB
100
AcDbEntity
  8
SUNPOU
 62
     4
370
    -2
100
AcDbLine
 10
615.6780842538175
 20
165.5818028552511
 30
0.0
 11
615.6780842538175
 21
86.33331063590469
 31
0.0
  0
LINE
  5
84F5
330
80FB
100
AcDbEntity
  8
SUNPOU
 62
     4
370
    -2
100
AcDbLine
 10
582.6780842538176
 20
89.3333106359047
 30
0.0
 11
608.6780842538176
 21
89.3333106359047
 31
0.0
  0
INSERT
  5
84F6
330
80FB
100
AcDbEntity
  8
SUNPOU
 62
     4
370
    -2
100
AcDbBlockReference
  2
_OPEN
 10
575.6780842538176
 20
89.3333106359047
 30
0.0
 41
7.0
 42
7.0
 43
7.0
 50
180.0
  0
INSERT
  5
84F7
330
80FB
100
AcDbEntity
  8
SUNPOU
 62
     4
370
    -2
100
AcDbBlockReference
  2
_OPEN
 10
615.6780842538175
 20
89.3333106359047
 30
0.0
 41
7.0
 42
7.0
 43
7.0
  0
MTEXT
  5
84F8
330
80FB
100
AcDbEntity
  8
SUNPOU
 62
     4
100
AcDbMText
 10
595.6780842538176
 20
94.3333106359047
 30
0.0
 40
6.0
 41
0.0
 71
     5
 72
     5
  1
\A1;40
 73
     1
 44
1.0
1001
ACAD
1000
MTEXTBEGIN
1070
    73
1070
     1
1070
    44
1040
1.0
1070
    74
1070
     0
1000
MTEXTEND
1000
MTEXTBEGIN
1070
    73
1070
     1
1070
    44
1040
1.0
1070
    74
1070
     0
1000
MTEXTEND
1000
MTEXTBEGIN
1070
    73
1070
     1
1070
    44
1040
1.0
1070
    74
1070
     0
1000
MTEXTEND
1000
MTEXTBEGIN
1070
    73
1070
     1
1070
    44
1040
1.0
1070
    74
1070
     0
1000
MTEXTEND
1000
MTEXTBEGIN
1070
    73
1070
     1
1070
    44
1040
1.0
1070
    74
1070
     0
1000
MTEXTEND
  0
POINT
  5
84F9
330
80FB
100
AcDbEntity
  8
DEFPOINTS
 62
     0
100
AcDbPoint
 10
575.6780842538176
 20
171.5818028552511
 30
0.0
  0
POINT
  5
84FA
330
80FB
100
AcDbEntity
  8
DEFPOINTS
 62
     0
100
AcDbPoint
 10
615.6780842538175
 20
171.5818028552511
 30
0.0
  0
POINT
  5
84FB
330
80FB
100
AcDbEntity
  8
DEFPOINTS
 62
     0
100
AcDbPoint
 10
615.6780842538175
 20
89.3333106359047
 30
0.0
  0
ENDBLK
  5
8106
330
80FB
100
AcDbEntity
  8
0
100
AcDbBlockEnd
  0
BLOCK
  5
8111
330
8107
100
AcDbEntity
  8
0
100
AcDbBlockBegin
  2
*D16
 70
     1
 10
0.0
 20
0.0
 30
0.0
  3
*D16
  1

  0
LINE
  5
8529
330
8107
100
AcDbEntity
  8
SUNPOU
100
AcDbLine
 10
504.0585702538176
 20
549.9089070896185
 30
0.0
 11
544.4963780725741
 21
549.9089070896185
 31
0.0
  0
LINE
  5
852A
330
8107
100
AcDbEntity
  8
SUNPOU
100
AcDbLine
 10
504.0585702538176
 20
509.9089070896185
 30
0.0
 11
544.4963780725741
 21
509.9089070896185
 31
0.0
  0
LINE
  5
852B
330
8107
100
AcDbEntity
  8
SUNPOU
100
AcDbLine
 10
541.4963780725741
 20
542.9089070896185
 30
0.0
 11
541.4963780725741
 21
516.9089070896185
 31
0.0
  0
INSERT
  5
852C
330
8107
100
AcDbEntity
  8
SUNPOU
100
AcDbBlockReference
  2
_OPEN
 10
541.4963780725741
 20
549.9089070896185
 30
0.0
 41
7.0
 42
7.0
 43
7.0
 50
90.0
  0
INSERT
  5
852D
330
8107
100
AcDbEntity
  8
SUNPOU
100
AcDbBlockReference
  2
_OPEN
 10
541.4963780725741
 20
509.9089070896185
 30
0.0
 41
7.0
 42
7.0
 43
7.0
 50
270.0
  0
MTEXT
  5
852E
330
8107
100
AcDbEntity
  8
SUNPOU
100
AcDbMText
 10
536.4963780725739
 20
529.9089070896186
 30
0.0
 40
6.0
 41
0.0
 71
     5
 72
     5
  1
\A1;40
 11
0.0000000000000001
 21
1.0
 31
0.0
 73
     1
 44
1.0
1001
ACAD
1000
MTEXTBEGIN
1070
    73
1070
     1
1070
    44
1040
1.0
1070
    74
1070
     0
1000
MTEXTEND
1000
MTEXTBEGIN
1070
    73
1070
     1
1070
    44
1040
1.0
1070
    74
1070
     0
1000
MTEXTEND
1000
MTEXTBEGIN
1070
    73
1070
     1
1070
    44
1040
1.0
1070
    74
1070
     0
1000
MTEXTEND
1000
MTEXTBEGIN
1070
    73
1070
     1
1070
    44
1040
1.0
1070
    74
1070
     0
1000
MTEXTEND
1000
MTEXTBEGIN
1070
    73
1070
     1
1070
    44
1040
1.0
1070
    74
1070
     0
1000
MTEXTEND
  0
POINT
  5
852F
330
8107
100
AcDbEntity
  8
DEFPOINTS
 62
     0
100
AcDbPoint
 10
498.0585702538176
 20
549.9089070896185
 30
0.0
  0
POINT
  5
8530
330
8107
100
AcDbEntity
  8
DEFPOINTS
 62
     0
100
AcDbPoint
 10
498.0585702538176
 20
509.9089070896185
 30
0.0
  0
POINT
  5
8531
330
8107
100
AcDbEntity
  8
DEFPOINTS
 62
     0
100
AcDbPoint
 10
541.4963780725741
 20
509.9089070896185
 30
0.0
  0
ENDBLK
  5
8112
330
8107
100
AcDbEntity
  8
0
100
AcDbBlockEnd
  0
BLOCK
  5
834E
330
8344
100
AcDbEntity
  8
0
100
AcDbBlockBegin
  2
*D17
 70
     1
 10
0.0
 20
0.0
 30
0.0
  3
*D17
  1

  0
LINE
  5
85D5
330
8344
100
AcDbEntity
  8
SUNPOU
100
AcDbLine
 10
584.6768982538176
 20
416.8607488552511
 30
0.0
 11
584.6768982538176
 21
450.4116647155251
 31
0.0
  0
LINE
  5
85D6
330
8344
100
AcDbEntity
  8
SUNPOU
100
AcDbLine
 10
606.6771872538176
 20
416.8603865994195
 30
0.0
 11
606.6771872538176
 21
450.4116647155251
 31
0.0
  0
LINE
  5
85D7
330
8344
100
AcDbEntity
  8
SUNPOU
100
AcDbLine
 10
591.6768982538176
 20
447.4116647155251
 30
0.0
 11
599.6771872538176
 21
447.4116647155251
 31
0.0
  0
INSERT
  5
85D8
330
8344
100
AcDbEntity
  8
SUNPOU
100
AcDbBlockReference
  2
_OPEN
 10
584.6768982538176
 20
447.4116647155251
 30
0.0
 41
7.0
 42
7.0
 43
7.0
 50
180.0
  0
INSERT
  5
85D9
330
8344
100
AcDbEntity
  8
SUNPOU
100
AcDbBlockReference
  2
_OPEN
 10
606.6771872538176
 20
447.4116647155251
 30
0.0
 41
7.0
 42
7.0
 43
7.0
  0
MTEXT
  5
85DA
330
8344
100
AcDbEntity
  8
SUNPOU
100
AcDbMText
 10
595.6770427538176
 20
452.4116647155251
 30
0.0
 40
6.0
 41
0.0
 71
     5
 72
     5
  1
\A1;22
 73
     1
 44
1.0
1001
ACAD
1000
MTEXTBEGIN
1070
    73
1070
     1
1070
    44
1040
1.0
1070
    74
1070
     0
1000
MTEXTEND
1000
MTEXTBEGIN
1070
    73
1070
     1
1070
    44
1040
1.0
1070
    74
1070
     0
1000
MTEXTEND
1000
MTEXTBEGIN
1070
    73
1070
     1
1070
    44
1040
1.0
1070
    74
1070
     0
1000
MTEXTEND
1000
MTEXTBEGIN
1070
    73
1070
     1
1070
    44
1040
1.0
1070
    74
1070
     0
1000
MTEXTEND
  0
POINT
  5
85DB
330
8344
100
AcDbEntity
  8
DEFPOINTS
 62
     0
100
AcDbPoint
 10
584.6768982538176
 20
410.8607488552511
 30
0.0
  0
POINT
  5
85DC
330
8344
100
AcDbEntity
  8
DEFPOINTS
 62
     0
100
AcDbPoint
 10
606.6771872538176
 20
410.8603865994195
 30
0.0
  0
POINT
  5
85DD
330
8344
100
AcDbEntity
  8
DEFPOINTS
 62
     0
100
AcDbPoint
 10
606.6771872538176
 20
447.4116647155251
 30
0.0
  0
ENDBLK
  5
834F
330
8344
100
AcDbEntity
  8
0
100
AcDbBlockEnd
  0
ENDSEC
  0
SECTION
  2
ENTITIES
  0
LWPOLYLINE
  5
6C0
330
1A
100
AcDbEntity
  8
ZUWAKU
100
AcDbPolyline
 90
        4
 70
     1
 43
0.0
 10
10.85047808566059
 20
564.5825862828226
 10
10.85047808566059
 20
14.58258628282271
 10
806.8504780856606
 20
14.58258628282271
 10
806.8504780856606
 20
564.5825862828226
  0
LWPOLYLINE
  5
6C1
330
1A
100
AcDbEntity
  8
ZUWAKU
100
AcDbPolyline
 90
        4
 70
     1
 43
0.0
 10
10.45047808566073
 20
564.9825862828227
 10
10.45047808566073
 20
14.18258628282274
 10
807.2504780856606
 20
14.18258628282272
 10
807.2504780856606
 20
564.9825862828227
  0
LWPOLYLINE
  5
6C2
330
1A
100
AcDbEntity
  8
ZUWAKU
100
AcDbPolyline
 90
        4
 70
     1
 43
0.0
 10
10.05047808566086
 20
565.3825862828226
 10
10.05047808566086
 20
13.78258628282265
 10
807.6504780856607
 20
13.78258628282271
 10
807.6504780856607
 20
565.3825862828227
  0
LWPOLYLINE
  5
6C3
330
1A
100
AcDbEntity
  8
ZUWAKU
100
AcDbPolyline
 90
        4
 70
     1
 43
0.0
 10
10.65047808566077
 20
564.7825862828227
 10
10.65047808566077
 20
14.38258628282267
 10
807.0504780856609
 20
14.38258628282271
 10
807.0504780856609
 20
564.7825862828227
  0
LWPOLYLINE
  5
6C4
330
1A
100
AcDbEntity
  8
ZUWAKU
100
AcDbPolyline
 90
        4
 70
     1
 43
0.0
 10
10.25047808566068
 20
565.1825862828227
 10
10.25047808566068
 20
13.98258628282269
 10
807.4504780856605
 20
13.98258628282271
 10
807.450478085661
 20
565.1825862828227
  0
LINE
  5
6C5
330
1A
100
AcDbEntity
  8
ZUWAKU
100
AcDbLine
 10
10.05047808566086
 20
43.78258628282265
 30
0.0
 11
807.4504780856605
 21
43.78258628282265
 31
0.0
  0
LINE
  5
6C6
330
1A
100
AcDbEntity
  8
ZUWAKU
100
AcDbLine
 10
10.05047808566086
 20
43.98258628282265
 30
0.0
 11
807.4504780856605
 21
43.98258628282265
 31
0.0
  0
LINE
  5
6C7
330
1A
100
AcDbEntity
  8
ZUWAKU
100
AcDbLine
 10
10.05047808566086
 20
44.18258628282266
 30
0.0
 11
807.4504780856605
 21
44.18258628282266
 31
0.0
  0
LINE
  5
6C8
330
1A
100
AcDbEntity
  8
ZUWAKU
100
AcDbLine
 10
10.05047808566086
 20
44.38258628282265
 30
0.0
 11
807.4504780856605
 21
44.38258628282265
 31
0.0
  0
LINE
  5
6C9
330
1A
100
AcDbEntity
  8
ZUWAKU
100
AcDbLine
 10
10.05047808566086
 20
44.58258628282266
 30
0.0
 11
807.4504780856605
 21
44.58258628282266
 31
0.0
  0
LINE
  5
6CA
330
1A
100
AcDbEntity
  8
ZUWAKU
100
AcDbLine
 10
218.6970793757286
 20
29.18258628282268
 30
0.0
 11
457.474842056652
 21
29.18258628282268
 31
0.0
  0
LINE
  5
6CB
330
1A
100
AcDbEntity
  8
ZUWAKU
100
AcDbLine
 10
218.6970793757286
 20
29.38258628282268
 30
0.0
 11
457.474842056652
 21
29.38258628282268
 31
0.0
  0
LINE
  5
6CC
330
1A
100
AcDbEntity
  8
ZUWAKU
100
AcDbLine
 10
218.6970793757286
 20
28.98258628282269
 30
0.0
 11
457.474842056652
 21
28.98258628282268
 31
0.0
  0
LINE
  5
6D2
330
1A
100
AcDbEntity
  8
ZUWAKU
100
AcDbLine
 10
22.57284175945824
 20
29.44753577648383
 30
0.0
 11
25.48263973410303
 21
26.53773780183917
 31
0.0
  0
LINE
  5
6D3
330
1A
100
AcDbEntity
  8
ZUWAKU
100
AcDbLine
 10
27.46253872142551
 20
28.51763678916148
 30
0.0
 11
24.55274074678072
 21
31.42743476380615
 31
0.0
  0
ARC
  5
6D4
330
1A
100
AcDbEntity
  8
ZUWAKU
100
AcDbCircle
 10
24.66769024044197
 20
33.70758628282265
 30
0.0
 40
0.525
100
AcDbArc
 50
90.0
 51
180.0
  0
LINE
  5
6D5
330
1A
100
AcDbEntity
  8
ZUWAKU
100
AcDbLine
 10
24.14269024044187
 20
37.03258628282265
 30
0.0
 11
27.64269024044188
 21
37.03258628282265
 31
0.0
  0
LINE
  5
6D6
330
1A
100
AcDbEntity
  8
ZUWAKU
100
AcDbLine
 10
22.39269024044188
 20
23.73258628282265
 30
0.0
 11
25.36769024044179
 21
23.73258628282265
 31
0.0
  0
LINE
  5
6D7
330
1A
100
AcDbEntity
  8
ZUWAKU
100
AcDbLine
 10
22.39269024044188
 20
20.93258628282265
 30
0.0
 11
25.89269024044188
 21
20.93258628282265
 31
0.0
  0
INSERT
  5
6D8
330
1A
100
AcDbEntity
  8
ZUWAKU
  6
Continuous
100
AcDbBlockReference
  2
*X1
 10
12.342212154781
 20
7.675000000000004
 30
0.0
1001
ACAD
1000
HATCH
1002
{
1070
    19
1000
ANSI37
1040
0.2
1040
0.0
1000
R14_HATCH_DATA
1000
4E4
1011
13.34221215478101
1021
7.675000000000004
1031
0.0
1011
12.342212154781
1021
8.675000000000004
1031
0.0
1011
12.342212154781
1021
7.675000000000004
1031
1.0
1040
0.0
1010
0.0
1020
0.0
1030
1.0
1000
ANSI37
1070
     0
1070
     0
1071
        8
1071
        7
1070
     1
1070
     1
1071
       24
1040
12.2105285919996
1040
23.75243476380622
1040
-0.1989123673796348
1040
11.80047808566087
1040
24.74238425746728
1040
0.0
1040
11.80047808566087
1040
26.03258628282265
1040
-0.4142135623730912
1040
12.32547808566084
1040
26.55758628282264
1040
0.0
1040
15.30047808566075
1040
26.55758628282264
1040
0.4142135623731546
1040
15.82547808566084
1040
27.08258628282264
1040
0.0
1040
15.82547808566084
1040
28.83258628282265
1040
0.4142135623731586
1040
15.30047808566075
1040
29.35758628282265
1040
0.0
1040
11.80047808566087
1040
29.35758628282265
1040
0.4142135623730928
1040
9.000478085660915
1040
26.55758628282267
1040
0.0
1040
9.000478085660915
1040
24.7423842574674
1040
0.1989123673796619
1040
10.23062960467734
1040
21.7725357764838
1040
0.0
1040
13.14042757932202
1040
18.86273780183914
1040
-0.1989123673796613
1040
13.55047808566087
1040
17.87278830817795
1040
0.0
1040
13.55047808566087
1040
16.58258628282264
1040
-0.4142135623730911
1040
13.02547808566089
1040
16.05758628282264
1040
0.0
1040
10.05047808566098
1040
16.05758628282264
1040
0.4142135623731526
1040
9.525478085660893
1040
15.53258628282265
1040
0.0
1040
9.525478085660893
1040
13.78258628282263
1040
0.4142135623731526
1040
10.05047808566098
1040
13.25758628282265
1040
0.0
1040
13.55047808566087
1040
13.25758628282265
1040
0.4142135623731044
1040
16.35047808566094
1040
16.05758628282262
1040
0.0
1040
16.35047808566094
1040
17.87278830817789
1040
0.1989123673796604
1040
15.12032656664439
1040
20.84263678916144
1040
0.0
1071
        0
1071
        7
1070
     1
1070
     1
1071
       16
1040
21.25047808566091
1040
25.15758628282265
1040
-0.4142135623730935
1040
22.65047808566089
1040
26.55758628282264
1040
0.0
1040
24.57547808566085
1040
26.55758628282264
1040
0.4142135623731546
1040
25.10047808566094
1040
27.08258628282264
1040
0.0
1040
25.10047808566094
1040
28.83258628282265
1040
0.4142135623730951
1040
24.57547808566096
1040
29.35758628282265
1040
0.0
1040
22.65047808566078
1040
29.35758628282261
1040
0.4142135623730892
1040
18.45047808566084
1040
25.15758628282258
1040
0.0
1040
18.45047808566084
1040
17.45758628282267
1040
0.4142135623730969
1040
22.65047808566089
1040
13.25758628282265
1040
0.0
1040
24.57547808566085
1040
13.25758628282265
1040
0.4142135623731526
1040
25.10047808566094
1040
13.78258628282263
1040
0.0
1040
25.10047808566094
1040
15.53258628282265
1040
0.4142135623730891
1040
24.57547808566096
1040
16.05758628282264
1040
0.0
1040
22.65047808566089
1040
16.05758628282264
1040
-0.4142135623730928
1040
21.25047808566091
1040
17.45758628282263
1040
0.0
1071
        0
1071
        7
1070
     1
1070
     1
1071
        2
1040
21.95047808566084
1040
21.30758628282265
1040
1.0
1040
25.45047808566085
1040
21.30758628282265
1040
1.0
1071
        0
1071
        7
1070
     1
1070
     1
1071
       26
1040
35.02312456783886
1040
25.31263347638607
1040
0.0
1040
36.08476420097668
1040
28.67449231465566
1040
0.5069206636600134
1040
35.58413330178132
1040
29.35758628282265
1040
0.0
1040
33.88524392217209
1040
29.35758628282265
1040
0.3272098845218764
1040
33.38461302297673
1040
28.99068025098962
1040
0.0
1040
31.51634314834495
1040
23.07449231465573
1040
-0.3272098845219541
1040
31.01571224914948
1040
22.70758628282264
1040
0.0
1040
30.87547808566103
1040
22.70758628282264
1040
-0.4142135623731526
1040
30.35047808566094
1040
23.23258628282263
1040
0.0
1040
30.35047808566094
1040
28.83258628282265
1040
0.4142135623730951
1040
29.82547808566096
1040
29.35758628282265
1040
0.0
1040
28.07547808566084
1040
29.35758628282265
1040
0.4142135623730871
1040
27.55047808566087
1040
28.83258628282266
1040
0.0
1040
27.55047808566087
1040
13.78258628282263
1040
0.4142135623730891
1040
28.07547808566084
1040
13.25758628282265
1040
0.0
1040
29.82547808566085
1040
13.25758628282265
1040
0.4142135623731526
1040
30.35047808566094
1040
13.78258628282263
1040
0.0
1040
30.35047808566094
1040
19.38258628282266
1040
-0.4142135623731526
1040
30.87547808566103
1040
19.90758628282264
1040
0.0
1040
31.0157122491496
1040
19.90758628282264
1040
-0.3272098845218915
1040
31.51634314834495
1040
19.54068025098957
1040
0.0
1040
33.38461302297673
1040
13.62449231465572
1040
0.3272098845218902
1040
33.88524392217209
1040
13.25758628282265
1040
0.0
1040
35.58413330178132
1040
13.25758628282265
1040
0.5069206636600335
1040
36.08476420097668
1040
13.94068025098965
1040
0.0
1040
33.75837282250301
1040
21.30758628282279
1040
0.0
1071
        0
1071
        7
1070
     1
1070
     1
1071
        8
1040
41.20047808566084
1040
28.83258628282266
1040
0.4142135623731546
1040
40.67547808566075
1040
29.35758628282265
1040
0.0
1040
38.92547808566098
1040
29.35758628282265
1040
0.4142135623731507
1040
38.40047808566089
1040
28.83258628282266
1040
0.0
1040
38.40047808566089
1040
13.78258628282263
1040
0.4142135623731526
1040
38.92547808566098
1040
13.25758628282265
1040
0.0
1040
40.67547808566075
1040
13.25758628282265
1040
0.4142135623731526
1040
41.20047808566084
1040
13.78258628282263
1040
0.0
1071
        0
1071
        7
1070
     1
1070
     1
1071
       24
1040
46.10047808566093
1040
26.03258628282265
1040
-0.4142135623731546
1040
46.62547808566102
1040
26.55758628282264
1040
0.0
1040
49.60047808566094
1040
26.55758628282264
1040
0.4142135623730911
1040
50.12547808566091
1040
27.08258628282264
1040
0.0
1040
50.12547808566091
1040
28.83258628282265
1040
0.4142135623730952
1040
49.60047808566094
1040
29.35758628282265
1040
0.0
1040
46.10047808566093
1040
29.35758628282265
1040
0.4142135623731048
1040
43.30047808566087
1040
26.55758628282267
1040
0.0
1040
43.30047808566087
1040
24.7423842574674
1040
0.1989123673796613
1040
44.53062960467741
1040
21.77253577648385
1040
0.0
1040
47.44042757932208
1040
18.86273780183918
1040
-0.1989123673796402
1040
47.85047808566093
1040
17.87278830817811
1040
0.0
1040
47.85047808566093
1040
16.58258628282264
1040
-0.4142135623730911
1040
47.32547808566096
1040
16.05758628282264
1040
0.0
1040
44.35047808566094
1040
16.05758628282264
1040
0.4142135623731526
1040
43.82547808566084
1040
15.53258628282265
1040
0.0
1040
43.82547808566084
1040
13.78258628282263
1040
0.4142135623730891
1040
44.35047808566082
1040
13.25758628282265
1040
0.0
1040
47.85047808566093
1040
13.25758628282265
1040
0.4142135623730925
1040
50.65047808566089
1040
16.05758628282262
1040
0.0
1040
50.65047808566089
1040
17.87278830817789
1040
0.1989123673796675
1040
49.42032656664435
1040
20.84263678916155
1040
0.0
1040
46.51052859199978
1040
23.75243476380607
1040
-0.1989123673796652
1040
46.10047808566093
1040
24.74238425746723
1040
0.0
1071
        0
1071
        7
1070
     1
1070
     1
1071
       16
1040
55.55047808566087
1040
28.83258628282264
1040
0.414213562373103
1040
55.02547808566089
1040
29.35758628282265
1040
0.0
1040
53.27547808566089
1040
29.35758628282265
1040
0.4142135623730871
1040
52.75047808566092
1040
28.83258628282266
1040
0.0
1040
52.75047808566092
1040
16.05758628282262
1040
0.4142135623730926
1040
55.55047808566087
1040
13.25758628282265
1040
0.0
1040
59.05047808566087
1040
13.25758628282265
1040
0.4142135623731044
1040
61.85047808566094
1040
16.05758628282262
1040
0.0
1040
61.85047808566094
1040
28.83258628282265
1040
0.4142135623730951
1040
61.32547808566096
1040
29.35758628282265
1040
0.0
1040
59.57547808566085
1040
29.35758628282265
1040
0.4142135623730871
1040
59.05047808566087
1040
28.83258628282266
1040
0.0
1040
59.05047808566087
1040
17.10758628282262
1040
-0.414213562373088
1040
58.00047808566091
1040
16.05758628282264
1040
0.0
1040
56.60047808566094
1040
16.05758628282264
1040
-0.4142135623731197
1040
55.55047808566087
1040
17.10758628282262
1040
0.0
1071
        0
1071
        7
1070
     1
1070
     1
1071
        8
1040
66.75047808566091
1040
28.83258628282266
1040
0.4142135623730871
1040
66.22547808566094
1040
29.35758628282265
1040
0.0
1040
64.47547808566094
1040
29.35758628282265
1040
0.4142135623731507
1040
63.95047808566085
1040
28.83258628282266
1040
0.0
1040
63.95047808566085
1040
13.78258628282263
1040
0.4142135623730891
1040
64.47547808566082
1040
13.25758628282265
1040
0.0
1040
66.22547808566094
1040
13.25758628282265
1040
0.4142135623730891
1040
66.75047808566091
1040
13.78258628282263
1040
0.0
1071
        0
1070
     0
1070
     1
1040
0.0
1040
0.2
1070
     0
1070
     2
1040
0.7853981633974483
1040
-903.2340384037992
1040
-7.092413717177286
1040
-0.4490128060534576
1040
0.4490128060534577
1070
     0
1040
2.356194490192344
1040
-903.2340384037992
1040
-7.092413717177286
1040
-0.4490128060534577
1040
-0.4490128060534576
1070
     0
1040
0.057451373970553
1071
        8
1040
13.78812089390305
1040
21.2747599287082
1040
0.0
1040
20.11278093731891
1040
24.95164846527365
1040
0.0
1040
22.8726338165394
1040
21.61946792889336
1040
0.0
1040
28.62232591251688
1040
22.30888392926414
1040
0.0
1040
39.54673794983648
1040
22.76849619680576
1040
0.0
1040
44.6064668260093
1040
25.52616259922985
1040
0.0
1040
54.2659519032801
1040
24.83674419791766
1040
0.0
1040
65.53534555050248
1040
25.29635646545927
1040
0.0
1002
}
  0
ARC
  5
6D9
330
1A
100
AcDbEntity
  8
ZUWAKU
100
AcDbCircle
 10
22.39269024044188
 20
23.20758628282265
 30
0.0
 40
0.525
100
AcDbArc
 50
90.0
 51
180.0
  0
ARC
  5
6DA
330
1A
100
AcDbEntity
  8
ZUWAKU
100
AcDbCircle
 10
22.39269024044188
 20
21.45758628282265
 30
0.0
 40
0.525
100
AcDbArc
 50
180.0
 51
270.0
  0
LINE
  5
6DB
330
1A
100
AcDbEntity
  8
ZUWAKU
100
AcDbLine
 10
21.86769024044179
 20
21.45758628282265
 30
0.0
 11
21.86769024044179
 21
23.20758628282265
 31
0.0
  0
ARC
  5
6DC
330
1A
100
AcDbEntity
  8
ZUWAKU
100
AcDbCircle
 10
25.54269024044197
 20
32.41738425746735
 30
0.0
 40
4.199999999999999
100
AcDbArc
 50
180.0
 51
224.9999999999996
  0
ARC
  5
6DD
330
1A
100
AcDbEntity
  8
ZUWAKU
100
AcDbCircle
 10
25.54269024044197
 20
32.41738425746735
 30
0.0
 40
1.399999999999999
100
AcDbArc
 50
180.0000000000016
 51
224.9999999999993
  0
ARC
  5
6DE
330
1A
100
AcDbEntity
  8
ZUWAKU
100
AcDbCircle
 10
24.14269024044187
 20
34.23258628282265
 30
0.0
 40
2.799999999999999
100
AcDbArc
 50
90.0
 51
180.0
  0
LINE
  5
6DF
330
1A
100
AcDbEntity
  8
ZUWAKU
100
AcDbLine
 10
21.34269024044192
 20
34.23258628282265
 30
0.0
 11
21.34269024044192
 21
32.41738425746731
 31
0.0
  0
LINE
  5
6E0
330
1A
100
AcDbEntity
  8
ZUWAKU
100
AcDbLine
 10
24.14269024044187
 20
33.70758628282265
 30
0.0
 11
24.14269024044187
 21
32.41738425746731
 31
0.0
  0
LINE
  5
6E1
330
1A
100
AcDbEntity
  8
ZUWAKU
100
AcDbLine
 10
89.17710763364903
 20
43.78258628282265
 30
0.0
 11
89.17710763364903
 21
14.58258628282271
 31
0.0
  0
LINE
  5
6E2
330
1A
100
AcDbEntity
  8
ZUWAKU
100
AcDbLine
 10
89.57710763364913
 20
43.78258628282265
 30
0.0
 11
89.57710763364913
 21
14.58258628282271
 31
0.0
  0
LINE
  5
6E3
330
1A
100
AcDbEntity
  8
ZUWAKU
100
AcDbLine
 10
89.37710763364885
 20
43.78258628282265
 30
0.0
 11
89.37710763364931
 21
14.58258628282271
 31
0.0
  0
LINE
  5
6E4
330
1A
100
AcDbEntity
  8
ZUWAKU
100
AcDbLine
 10
56.87284175945842
 20
29.44753577648383
 30
0.0
 11
59.78263973410321
 21
26.53773780183917
 31
0.0
  0
ARC
  5
6E5
330
1A
100
AcDbEntity
  8
ZUWAKU
100
AcDbCircle
 10
58.44269024044206
 20
34.23258628282265
 30
0.0
 40
2.799999999999999
100
AcDbArc
 50
90.0
 51
180.0
  0
LINE
  5
6E6
330
1A
100
AcDbEntity
  8
ZUWAKU
100
AcDbLine
 10
56.69269024044206
 20
20.93258628282265
 30
0.0
 11
60.19269024044206
 21
20.93258628282265
 31
0.0
  0
LINE
  5
6E7
330
1A
100
AcDbEntity
  8
ZUWAKU
100
AcDbLine
 10
56.69269024044206
 20
23.73258628282265
 30
0.0
 11
59.66769024044197
 21
23.73258628282265
 31
0.0
  0
LINE
  5
6E8
330
1A
100
AcDbEntity
  8
ZUWAKU
100
AcDbLine
 10
42.16769024044197
 20
37.03258628282265
 30
0.0
 11
40.41769024044197
 21
37.03258628282265
 31
0.0
  0
LINE
  5
6E9
330
1A
100
AcDbEntity
  8
ZUWAKU
100
AcDbLine
 10
40.41769024044197
 20
20.93258628282265
 30
0.0
 11
42.16769024044197
 21
20.93258628282265
 31
0.0
  0
LINE
  5
6EA
330
1A
100
AcDbEntity
  8
ZUWAKU
100
AcDbLine
 10
39.89269024044188
 20
36.50758628282265
 30
0.0
 11
39.89269024044188
 21
21.45758628282265
 31
0.0
  0
LINE
  5
6EB
330
1A
100
AcDbEntity
  8
ZUWAKU
100
AcDbLine
 10
30.79269024044197
 20
25.13258628282265
 30
0.0
 11
30.79269024044197
 21
32.83258628282261
 31
0.0
  0
LINE
  5
6EC
330
1A
100
AcDbEntity
  8
ZUWAKU
100
AcDbLine
 10
33.59269024044192
 20
32.83258628282265
 30
0.0
 11
33.59269024044192
 21
25.13258628282265
 31
0.0
  0
ARC
  5
6ED
330
1A
100
AcDbEntity
  8
ZUWAKU
100
AcDbCircle
 10
24.49269024044179
 20
25.54778830817795
 30
0.0
 40
4.199999999999999
100
AcDbArc
 50
0.0
 51
44.9999999999996
  0
CIRCLE
  5
6EE
330
1A
100
AcDbEntity
  8
ZUWAKU
100
AcDbCircle
 10
36.04269024044197
 20
28.98258628282265
 30
0.0
 40
1.75
  0
ARC
  5
6EF
330
1A
100
AcDbEntity
  8
ZUWAKU
100
AcDbCircle
 10
34.99269024044179
 20
25.13258628282265
 30
0.0
 40
4.199999999999999
100
AcDbArc
 50
180.0
 51
270.0
  0
LINE
  5
6F0
330
1A
100
AcDbEntity
  8
ZUWAKU
100
AcDbLine
 10
28.69269024044206
 20
23.73258628282265
 30
0.0
 11
28.69269024044206
 21
25.547788308178
 31
0.0
  0
ARC
  5
6F1
330
1A
100
AcDbEntity
  8
ZUWAKU
100
AcDbCircle
 10
25.36769024044179
 20
24.25758628282265
 30
0.0
 40
0.525
100
AcDbArc
 50
270.0
 51
0.0
  0
LINE
  5
6F2
330
1A
100
AcDbEntity
  8
ZUWAKU
100
AcDbLine
 10
25.89269024044188
 20
24.25758628282265
 30
0.0
 11
25.89269024044188
 21
25.547788308178
 31
0.0
  0
ARC
  5
6F3
330
1A
100
AcDbEntity
  8
ZUWAKU
100
AcDbCircle
 10
25.89269024044188
 20
23.73258628282265
 30
0.0
 40
2.799999999999999
100
AcDbArc
 50
270.0
 51
0.0
  0
ARC
  5
6F4
330
1A
100
AcDbEntity
  8
ZUWAKU
100
AcDbCircle
 10
24.49269024044179
 20
25.547788308178
 30
0.0
 40
1.399999999999999
100
AcDbArc
 50
0.0
 51
44.9999999999996
  0
ARC
  5
6F5
330
1A
100
AcDbEntity
  8
ZUWAKU
100
AcDbCircle
 10
40.41769024044197
 20
21.45758628282265
 30
0.0
 40
0.525
100
AcDbArc
 50
180.0
 51
270.0
  0
ARC
  5
6F6
330
1A
100
AcDbEntity
  8
ZUWAKU
100
AcDbCircle
 10
36.91769024044197
 20
23.20758628282265
 30
0.0
 40
0.525
100
AcDbArc
 50
0.0
 51
90.0
  0
ARC
  5
6F7
330
1A
100
AcDbEntity
  8
ZUWAKU
100
AcDbCircle
 10
36.91769024044197
 20
21.45758628282265
 30
0.0
 40
0.525
100
AcDbArc
 50
270.0
 51
0.0
  0
LINE
  5
6F8
330
1A
100
AcDbEntity
  8
ZUWAKU
100
AcDbLine
 10
37.44269024044206
 20
23.20758628282265
 30
0.0
 11
37.44269024044206
 21
21.45758628282265
 31
0.0
  0
ARC
  5
6F9
330
1A
100
AcDbEntity
  8
ZUWAKU
100
AcDbCircle
 10
34.99269024044179
 20
25.13258628282265
 30
0.0
 40
1.399999999999999
100
AcDbArc
 50
180.0
 51
270.0
  0
LINE
  5
6FA
330
1A
100
AcDbEntity
  8
ZUWAKU
100
AcDbLine
 10
36.91769024044197
 20
20.93258628282265
 30
0.0
 11
34.99269024044179
 21
20.93258628282265
 31
0.0
  0
LINE
  5
6FB
330
1A
100
AcDbEntity
  8
ZUWAKU
100
AcDbLine
 10
34.99269024044179
 20
23.73258628282265
 30
0.0
 11
36.91769024044197
 21
23.73258628282265
 31
0.0
  0
ARC
  5
6FC
330
1A
100
AcDbEntity
  8
ZUWAKU
100
AcDbCircle
 10
34.99269024044179
 20
32.83258628282261
 30
0.0
 40
4.199999999999999
100
AcDbArc
 50
90.0
 51
180.0
  0
LINE
  5
6FD
330
1A
100
AcDbEntity
  8
ZUWAKU
100
AcDbLine
 10
28.16769024044197
 20
36.50758628282265
 30
0.0
 11
28.16769024044197
 21
34.75758628282265
 31
0.0
  0
LINE
  5
6FE
330
1A
100
AcDbEntity
  8
ZUWAKU
100
AcDbLine
 10
27.64269024044188
 20
34.23258628282265
 30
0.0
 11
24.66769024044197
 21
34.23258628282265
 31
0.0
  0
ARC
  5
6FF
330
1A
100
AcDbEntity
  8
ZUWAKU
100
AcDbCircle
 10
27.64269024044188
 20
34.75758628282265
 30
0.0
 40
0.525
100
AcDbArc
 50
270.0
 51
0.0
  0
ARC
  5
700
330
1A
100
AcDbEntity
  8
ZUWAKU
100
AcDbCircle
 10
27.64269024044188
 20
36.50758628282265
 30
0.0
 40
0.525
100
AcDbArc
 50
0.0
 51
90.0
  0
LINE
  5
701
330
1A
100
AcDbEntity
  8
ZUWAKU
100
AcDbLine
 10
37.44269024044206
 20
36.50758628282265
 30
0.0
 11
37.44269024044206
 21
34.75758628282265
 31
0.0
  0
ARC
  5
702
330
1A
100
AcDbEntity
  8
ZUWAKU
100
AcDbCircle
 10
36.91769024044197
 20
34.75758628282265
 30
0.0
 40
0.525
100
AcDbArc
 50
270.0
 51
0.0
  0
ARC
  5
703
330
1A
100
AcDbEntity
  8
ZUWAKU
100
AcDbCircle
 10
40.41769024044197
 20
36.50758628282265
 30
0.0
 40
0.525
100
AcDbArc
 50
90.0
 51
180.0
  0
ARC
  5
704
330
1A
100
AcDbEntity
  8
ZUWAKU
100
AcDbCircle
 10
36.91769024044197
 20
36.50758628282265
 30
0.0
 40
0.525
100
AcDbArc
 50
0.0
 51
90.0
  0
ARC
  5
705
330
1A
100
AcDbEntity
  8
ZUWAKU
100
AcDbCircle
 10
34.99269024044179
 20
32.83258628282265
 30
0.0
 40
1.399999999999999
100
AcDbArc
 50
90.0
 51
180.0
  0
LINE
  5
706
330
1A
100
AcDbEntity
  8
ZUWAKU
100
AcDbLine
 10
36.91769024044197
 20
34.23258628282265
 30
0.0
 11
34.99269024044179
 21
34.23258628282265
 31
0.0
  0
LINE
  5
707
330
1A
100
AcDbEntity
  8
ZUWAKU
100
AcDbLine
 10
34.99269024044179
 20
37.03258628282261
 30
0.0
 11
36.91769024044197
 21
37.03258628282265
 31
0.0
  0
ARC
  5
708
330
1A
100
AcDbEntity
  8
ZUWAKU
100
AcDbCircle
 10
43.21769024044215
 20
27.05758628282265
 30
0.0
 40
0.525
100
AcDbArc
 50
90.0
 51
180.0
  0
ARC
  5
709
330
1A
100
AcDbEntity
  8
ZUWAKU
100
AcDbCircle
 10
43.35792440393061
 20
27.05758628282265
 30
0.0
 40
0.525
100
AcDbArc
 50
17.52556837372255
 51
90.0
  0
LINE
  5
70A
330
1A
100
AcDbEntity
  8
ZUWAKU
100
AcDbLine
 10
53.54269024044197
 20
21.45758628282265
 30
0.0
 11
53.54269024044197
 21
36.50758628282265
 31
0.0
  0
LINE
  5
70B
330
1A
100
AcDbEntity
  8
ZUWAKU
100
AcDbLine
 10
50.74269024044179
 20
36.50758628282265
 30
0.0
 11
50.74269024044179
 21
21.45758628282265
 31
0.0
  0
LINE
  5
70C
330
1A
100
AcDbEntity
  8
ZUWAKU
100
AcDbLine
 10
48.42697635575769
 20
21.61568025098962
 30
0.0
 11
46.10058497728414
 21
28.98258628282267
 31
0.0
  0
LINE
  5
70D
330
1A
100
AcDbEntity
  8
ZUWAKU
100
AcDbLine
 10
43.21769024044215
 20
27.58258628282265
 30
0.0
 11
43.35792440393061
 21
27.58258628282265
 31
0.0
  0
ARC
  5
70E
330
1A
100
AcDbEntity
  8
ZUWAKU
100
AcDbCircle
 10
46.22745607695333
 20
21.45758628282265
 30
0.0
 40
0.525
100
AcDbArc
 50
197.5255683737225
 51
270.0
  0
ARC
  5
70F
330
1A
100
AcDbEntity
  8
ZUWAKU
100
AcDbCircle
 10
47.9263454565621
 20
21.45758628282265
 30
0.0
 40
0.525
100
AcDbArc
 50
270.0
 51
17.52556837372255
  0
LINE
  5
710
330
1A
100
AcDbEntity
  8
ZUWAKU
100
AcDbLine
 10
46.22745607695333
 20
20.93258628282265
 30
0.0
 11
47.9263454565621
 21
20.93258628282265
 31
0.0
  0
ARC
  5
711
330
1A
100
AcDbEntity
  8
ZUWAKU
100
AcDbCircle
 10
42.16769024044197
 20
21.45758628282265
 30
0.0
 40
0.525
100
AcDbArc
 50
270.0
 51
0.0
  0
LINE
  5
712
330
1A
100
AcDbEntity
  8
ZUWAKU
100
AcDbLine
 10
45.72682517775774
 20
21.29949231465567
 30
0.0
 11
43.85855530312574
 21
27.21568025098962
 31
0.0
  0
LINE
  5
713
330
1A
100
AcDbEntity
  8
ZUWAKU
100
AcDbLine
 10
42.69269024044206
 20
21.45758628282265
 30
0.0
 11
42.69269024044206
 21
27.05758628282265
 31
0.0
  0
ARC
  5
714
330
1A
100
AcDbEntity
  8
ZUWAKU
100
AcDbCircle
 10
56.69269024044206
 20
23.20758628282265
 30
0.0
 40
0.525
100
AcDbArc
 50
90.0
 51
180.0
  0
ARC
  5
715
330
1A
100
AcDbEntity
  8
ZUWAKU
100
AcDbCircle
 10
53.01769024044188
 20
21.45758628282265
 30
0.0
 40
0.525
100
AcDbArc
 50
270.0
 51
0.0
  0
ARC
  5
716
330
1A
100
AcDbEntity
  8
ZUWAKU
100
AcDbCircle
 10
56.69269024044206
 20
21.45758628282265
 30
0.0
 40
0.525
100
AcDbArc
 50
180.0
 51
270.0
  0
LINE
  5
717
330
1A
100
AcDbEntity
  8
ZUWAKU
100
AcDbLine
 10
56.16769024044197
 20
21.45758628282265
 30
0.0
 11
56.16769024044197
 21
23.20758628282265
 31
0.0
  0
ARC
  5
718
330
1A
100
AcDbEntity
  8
ZUWAKU
100
AcDbCircle
 10
51.26769024044188
 20
21.45758628282265
 30
0.0
 40
0.525
100
AcDbArc
 50
180.0
 51
270.0
  0
LINE
  5
719
330
1A
100
AcDbEntity
  8
ZUWAKU
100
AcDbLine
 10
51.26769024044188
 20
20.93258628282265
 30
0.0
 11
53.01769024044188
 21
20.93258628282265
 31
0.0
  0
LINE
  5
71A
330
1A
100
AcDbEntity
  8
ZUWAKU
100
AcDbLine
 10
47.36533672261976
 20
32.98763347638608
 30
0.0
 11
46.10058497728414
 21
28.98258628282267
 31
0.0
  0
ARC
  5
71B
330
1A
100
AcDbEntity
  8
ZUWAKU
100
AcDbCircle
 10
46.22745607695333
 20
36.50758628282265
 30
0.0
 40
0.525
100
AcDbArc
 50
90.0
 51
162.4744316262773
  0
LINE
  5
71C
330
1A
100
AcDbEntity
  8
ZUWAKU
100
AcDbLine
 10
48.42697635575769
 20
36.34949231465568
 30
0.0
 11
47.36533672261976
 21
32.98763347638608
 31
0.0
  0
ARC
  5
71D
330
1A
100
AcDbEntity
  8
ZUWAKU
100
AcDbCircle
 10
47.9263454565621
 20
36.50758628282265
 30
0.0
 40
0.525
100
AcDbArc
 50
342.4744316262774
 51
90.0
  0
LINE
  5
71E
330
1A
100
AcDbEntity
  8
ZUWAKU
100
AcDbLine
 10
46.22745607695333
 20
37.03258628282265
 30
0.0
 11
47.9263454565621
 21
37.03258628282265
 31
0.0
  0
LINE
  5
71F
330
1A
100
AcDbEntity
  8
ZUWAKU
100
AcDbLine
 10
42.69269024044206
 20
30.90758628282265
 30
0.0
 11
42.69269024044206
 21
36.50758628282265
 31
0.0
  0
ARC
  5
720
330
1A
100
AcDbEntity
  8
ZUWAKU
100
AcDbCircle
 10
43.21769024044215
 20
30.90758628282265
 30
0.0
 40
0.525
100
AcDbArc
 50
180.0
 51
270.0
  0
LINE
  5
721
330
1A
100
AcDbEntity
  8
ZUWAKU
100
AcDbLine
 10
43.35792440393061
 20
30.38258628282265
 30
0.0
 11
43.21769024044215
 21
30.38258628282265
 31
0.0
  0
ARC
  5
722
330
1A
100
AcDbEntity
  8
ZUWAKU
100
AcDbCircle
 10
43.35792440393061
 20
30.90758628282265
 30
0.0
 40
0.525
100
AcDbArc
 50
270.0
 51
342.4744316262774
  0
ARC
  5
723
330
1A
100
AcDbEntity
  8
ZUWAKU
100
AcDbCircle
 10
42.16769024044197
 20
36.50758628282265
 30
0.0
 40
0.525
100
AcDbArc
 50
0.0
 51
90.0
  0
LINE
  5
724
330
1A
100
AcDbEntity
  8
ZUWAKU
100
AcDbLine
 10
45.72682517775774
 20
36.66568025098962
 30
0.0
 11
43.85855530312574
 21
30.74949231465568
 31
0.0
  0
ARC
  5
725
330
1A
100
AcDbEntity
  8
ZUWAKU
100
AcDbCircle
 10
59.84269024044215
 20
32.41738425746735
 30
0.0
 40
4.199999999999999
100
AcDbArc
 50
180.0
 51
224.9999999999996
  0
LINE
  5
726
330
1A
100
AcDbEntity
  8
ZUWAKU
100
AcDbLine
 10
55.64269024044188
 20
34.23258628282265
 30
0.0
 11
55.64269024044188
 21
32.41738425746731
 31
0.0
  0
ARC
  5
727
330
1A
100
AcDbEntity
  8
ZUWAKU
100
AcDbCircle
 10
53.01769024044188
 20
36.50758628282265
 30
0.0
 40
0.525
100
AcDbArc
 50
0.0
 51
90.0
  0
ARC
  5
728
330
1A
100
AcDbEntity
  8
ZUWAKU
100
AcDbCircle
 10
51.26769024044188
 20
36.50758628282265
 30
0.0
 40
0.525
100
AcDbArc
 50
90.0
 51
180.0
  0
LINE
  5
729
330
1A
100
AcDbEntity
  8
ZUWAKU
100
AcDbLine
 10
53.01769024044188
 20
37.03258628282265
 30
0.0
 11
51.26769024044188
 21
37.03258628282265
 31
0.0
  0
ARC
  5
72A
330
1A
100
AcDbEntity
  8
ZUWAKU
100
AcDbCircle
 10
73.66769024044197
 20
36.50758628282265
 30
0.0
 40
0.525
100
AcDbArc
 50
0.0
 51
90.0
  0
ARC
  5
72B
330
1A
100
AcDbEntity
  8
ZUWAKU
100
AcDbCircle
 10
71.39269024044188
 20
23.73258628282265
 30
0.0
 40
2.799999999999999
100
AcDbArc
 50
270.0
 51
0.0
  0
LINE
  5
72C
330
1A
100
AcDbEntity
  8
ZUWAKU
100
AcDbLine
 10
67.89269024044187
 20
24.78258628282265
 30
0.0
 11
67.89269024044187
 21
36.50758628282265
 31
0.0
  0
LINE
  5
72D
330
1A
100
AcDbEntity
  8
ZUWAKU
100
AcDbLine
 10
65.09269024044215
 20
36.50758628282265
 30
0.0
 11
65.09269024044215
 21
23.73258628282265
 31
0.0
  0
LINE
  5
72E
330
1A
100
AcDbEntity
  8
ZUWAKU
100
AcDbLine
 10
71.39269024044188
 20
36.50758628282265
 30
0.0
 11
71.39269024044188
 21
24.78258628282265
 31
0.0
  0
ARC
  5
72F
330
1A
100
AcDbEntity
  8
ZUWAKU
100
AcDbCircle
 10
58.79269024044197
 20
25.54778830817795
 30
0.0
 40
4.199999999999999
100
AcDbArc
 50
0.0
 51
44.9999999999996
  0
ARC
  5
730
330
1A
100
AcDbEntity
  8
ZUWAKU
100
AcDbCircle
 10
67.89269024044187
 20
23.73258628282265
 30
0.0
 40
2.799999999999999
100
AcDbArc
 50
180.0
 51
270.0
  0
LINE
  5
731
330
1A
100
AcDbEntity
  8
ZUWAKU
100
AcDbLine
 10
62.99269024044178
 20
23.73258628282265
 30
0.0
 11
62.99269024044178
 21
25.547788308178
 31
0.0
  0
ARC
  5
732
330
1A
100
AcDbEntity
  8
ZUWAKU
100
AcDbCircle
 10
59.66769024044197
 20
24.25758628282265
 30
0.0
 40
0.525
100
AcDbArc
 50
270.0
 51
0.0
  0
LINE
  5
733
330
1A
100
AcDbEntity
  8
ZUWAKU
100
AcDbLine
 10
60.19269024044206
 20
24.25758628282265
 30
0.0
 11
60.19269024044206
 21
25.547788308178
 31
0.0
  0
ARC
  5
734
330
1A
100
AcDbEntity
  8
ZUWAKU
100
AcDbCircle
 10
60.19269024044206
 20
23.73258628282265
 30
0.0
 40
2.799999999999999
100
AcDbArc
 50
270.0
 51
0.0
  0
ARC
  5
735
330
1A
100
AcDbEntity
  8
ZUWAKU
100
AcDbCircle
 10
58.79269024044197
 20
25.547788308178
 30
0.0
 40
1.399999999999999
100
AcDbArc
 50
0.0
 51
44.9999999999996
  0
ARC
  5
736
330
1A
100
AcDbEntity
  8
ZUWAKU
100
AcDbCircle
 10
70.34269024044215
 20
24.78258628282265
 30
0.0
 40
1.049999999999999
100
AcDbArc
 50
270.0
 51
0.0
  0
ARC
  5
737
330
1A
100
AcDbEntity
  8
ZUWAKU
100
AcDbCircle
 10
68.94269024044206
 20
24.78258628282265
 30
0.0
 40
1.049999999999999
100
AcDbArc
 50
180.0
 51
270.0
  0
LINE
  5
738
330
1A
100
AcDbEntity
  8
ZUWAKU
100
AcDbLine
 10
67.89269024044187
 20
20.93258628282265
 30
0.0
 11
71.39269024044188
 21
20.93258628282265
 31
0.0
  0
LINE
  5
739
330
1A
100
AcDbEntity
  8
ZUWAKU
100
AcDbLine
 10
70.34269024044215
 20
23.73258628282265
 30
0.0
 11
68.94269024044206
 21
23.73258628282265
 31
0.0
  0
LINE
  5
73A
330
1A
100
AcDbEntity
  8
ZUWAKU
100
AcDbLine
 10
67.36769024044178
 20
37.03258628282265
 30
0.0
 11
65.61769024044179
 21
37.03258628282265
 31
0.0
  0
LINE
  5
73B
330
1A
100
AcDbEntity
  8
ZUWAKU
100
AcDbLine
 10
62.46769024044215
 20
36.50758628282265
 30
0.0
 11
62.46769024044215
 21
34.75758628282265
 31
0.0
  0
ARC
  5
73C
330
1A
100
AcDbEntity
  8
ZUWAKU
100
AcDbCircle
 10
61.94269024044206
 20
34.75758628282265
 30
0.0
 40
0.525
100
AcDbArc
 50
270.0
 51
0.0
  0
ARC
  5
73D
330
1A
100
AcDbEntity
  8
ZUWAKU
100
AcDbCircle
 10
61.94269024044206
 20
36.50758628282265
 30
0.0
 40
0.525
100
AcDbArc
 50
0.0
 51
90.0
  0
ARC
  5
73E
330
1A
100
AcDbEntity
  8
ZUWAKU
100
AcDbCircle
 10
65.61769024044179
 20
36.50758628282265
 30
0.0
 40
0.525
100
AcDbArc
 50
90.0
 51
180.0
  0
ARC
  5
73F
330
1A
100
AcDbEntity
  8
ZUWAKU
100
AcDbCircle
 10
59.84269024044215
 20
32.41738425746735
 30
0.0
 40
1.399999999999999
100
AcDbArc
 50
180.0000000000016
 51
224.9999999999993
  0
LINE
  5
740
330
1A
100
AcDbEntity
  8
ZUWAKU
100
AcDbLine
 10
58.44269024044206
 20
33.70758628282265
 30
0.0
 11
58.44269024044206
 21
32.41738425746731
 31
0.0
  0
ARC
  5
741
330
1A
100
AcDbEntity
  8
ZUWAKU
100
AcDbCircle
 10
58.96769024044215
 20
33.70758628282265
 30
0.0
 40
0.525
100
AcDbArc
 50
90.0
 51
180.0
  0
LINE
  5
742
330
1A
100
AcDbEntity
  8
ZUWAKU
100
AcDbLine
 10
61.76253872142524
 20
28.51763678916148
 30
0.0
 11
58.85274074678045
 21
31.42743476380615
 31
0.0
  0
LINE
  5
743
330
1A
100
AcDbEntity
  8
ZUWAKU
100
AcDbLine
 10
61.94269024044206
 20
34.23258628282265
 30
0.0
 11
58.96769024044215
 21
34.23258628282265
 31
0.0
  0
LINE
  5
744
330
1A
100
AcDbEntity
  8
ZUWAKU
100
AcDbLine
 10
58.44269024044206
 20
37.03258628282265
 30
0.0
 11
61.94269024044206
 21
37.03258628282265
 31
0.0
  0
ARC
  5
745
330
1A
100
AcDbEntity
  8
ZUWAKU
100
AcDbCircle
 10
71.91769024044197
 20
36.50758628282265
 30
0.0
 40
0.525
100
AcDbArc
 50
90.0
 51
180.0
  0
LINE
  5
746
330
1A
100
AcDbEntity
  8
ZUWAKU
100
AcDbLine
 10
73.66769024044197
 20
37.03258628282265
 30
0.0
 11
71.91769024044197
 21
37.03258628282265
 31
0.0
  0
ARC
  5
747
330
1A
100
AcDbEntity
  8
ZUWAKU
100
AcDbCircle
 10
67.36769024044178
 20
36.50758628282265
 30
0.0
 40
0.525
100
AcDbArc
 50
0.0
 51
90.0
  0
LINE
  5
748
330
1A
100
AcDbEntity
  8
ZUWAKU
100
AcDbLine
 10
76.29269024044197
 20
36.50758628282265
 30
0.0
 11
76.29269024044197
 21
21.45758628282265
 31
0.0
  0
LINE
  5
749
330
1A
100
AcDbEntity
  8
ZUWAKU
100
AcDbLine
 10
79.09269024044215
 20
21.45758628282265
 30
0.0
 11
79.09269024044215
 21
36.50758628282265
 31
0.0
  0
LINE
  5
74A
330
1A
100
AcDbEntity
  8
ZUWAKU
100
AcDbLine
 10
74.19269024044206
 20
23.73258628282265
 30
0.0
 11
74.19269024044206
 21
36.50758628282265
 31
0.0
  0
ARC
  5
74B
330
1A
100
AcDbEntity
  8
ZUWAKU
100
AcDbCircle
 10
78.56769024044206
 20
21.45758628282265
 30
0.0
 40
0.525
100
AcDbArc
 50
270.0
 51
0.0
  0
ARC
  5
74C
330
1A
100
AcDbEntity
  8
ZUWAKU
100
AcDbCircle
 10
76.81769024044206
 20
21.45758628282265
 30
0.0
 40
0.525
100
AcDbArc
 50
180.0
 51
270.0
  0
LINE
  5
74D
330
1A
100
AcDbEntity
  8
ZUWAKU
100
AcDbLine
 10
76.81769024044206
 20
20.93258628282265
 30
0.0
 11
78.56769024044206
 21
20.93258628282265
 31
0.0
  0
ARC
  5
74E
330
1A
100
AcDbEntity
  8
ZUWAKU
100
AcDbCircle
 10
78.56769024044206
 20
36.50758628282265
 30
0.0
 40
0.525
100
AcDbArc
 50
0.0
 51
90.0
  0
ARC
  5
74F
330
1A
100
AcDbEntity
  8
ZUWAKU
100
AcDbCircle
 10
76.81769024044206
 20
36.50758628282265
 30
0.0
 40
0.525
100
AcDbArc
 50
90.0
 51
180.0
  0
LINE
  5
750
330
1A
100
AcDbEntity
  8
ZUWAKU
100
AcDbLine
 10
78.56769024044206
 20
37.03258628282265
 30
0.0
 11
76.81769024044206
 21
37.03258628282265
 31
0.0
  0
TEXT
  5
751
330
1A
100
AcDbEntity
  8
moji
100
AcDbText
 10
103.0082676738297
 20
26.52376441309741
 30
0.0
 40
6.0
  1
大型　のきとい
 41
0.9
  7
ｽﾀｲﾙ1
100
AcDbText
  0
LINE
  5
757
330
1A
100
AcDbEntity
  8
ZUWAKU
100
AcDbLine
 10
218.4970793757283
 20
43.78258628282265
 30
0.0
 11
218.4970793757288
 21
14.58258628282271
 31
0.0
  0
LINE
  5
758
330
1A
100
AcDbEntity
  8
ZUWAKU
100
AcDbLine
 10
218.6970793757286
 20
43.78258628282265
 30
0.0
 11
218.6970793757286
 21
14.58258628282271
 31
0.0
  0
LINE
  5
759
330
1A
100
AcDbEntity
  8
ZUWAKU
100
AcDbLine
 10
218.2970793757285
 20
43.78258628282265
 30
0.0
 11
218.2970793757285
 21
14.58258628282271
 31
0.0
  0
TEXT
  5
75A
330
1A
100
AcDbEntity
  8
ZUWAKU
100
AcDbText
 10
219.7745243979379
 20
37.83794282120823
 30
0.0
 40
4.0
  1
品名
 41
0.9
  7
ｽﾀｲﾙ1
100
AcDbText
  0
TEXT
  5
75B
330
1A
100
AcDbEntity
  8
ZUWAKU
100
AcDbText
 10
219.7745243979384
 20
23.43794282120826
 30
0.0
 40
4.0
  1
サイズ
 41
0.9
  7
ｽﾀｲﾙ1
100
AcDbText
  0
TEXT
  5
792
330
1A
100
AcDbEntity
  8
ZUWAKU
100
AcDbText
 10
668.254415772963
 20
31.78750734023003
 30
0.0
 40
5.599999999999999
  1
　　．　　．　　
 41
0.9
  7
ｽﾀｲﾙ1
100
AcDbText
  0
LINE
  5
793
330
1A
100
AcDbEntity
  8
ZUWAKU
100
AcDbLine
 10
658.8676805958648
 20
29.38258628282268
 30
0.0
 11
707.2994886342021
 21
29.38258628282268
 31
0.0
  0
LINE
  5
794
330
1A
100
AcDbEntity
  8
ZUWAKU
100
AcDbLine
 10
658.8676805958653
 20
29.18258628282268
 30
0.0
 11
707.2994886342021
 21
29.18258628282268
 31
0.0
  0
LINE
  5
795
330
1A
100
AcDbEntity
  8
ZUWAKU
100
AcDbLine
 10
658.8676805958648
 20
28.98258628282268
 30
0.0
 11
707.2994886342021
 21
28.98258628282268
 31
0.0
  0
LINE
  5
79A
330
1A
100
AcDbEntity
  8
ZUWAKU
100
AcDbLine
 10
515.2496575838017
 20
29.38258628282268
 30
0.0
 11
562.5774338517731
 21
29.38258628282268
 31
0.0
  0
LINE
  5
79B
330
1A
100
AcDbEntity
  8
ZUWAKU
100
AcDbLine
 10
515.2496575838017
 20
29.18258628282268
 30
0.0
 11
562.5774338517731
 21
29.18258628282268
 31
0.0
  0
LINE
  5
79C
330
1A
100
AcDbEntity
  8
ZUWAKU
100
AcDbLine
 10
515.2496575838017
 20
28.98258628282269
 30
0.0
 11
562.5774338517731
 21
28.98258628282269
 31
0.0
  0
TEXT
  5
79D
330
1A
100
AcDbEntity
  8
moji
100
AcDbText
 10
538.0913860579735
 20
16.98750734023007
 30
0.0
 40
5.599999999999999
  1
１/２
 41
0.9
  7
ｽﾀｲﾙ1
100
AcDbText
  0
LINE
  5
79E
330
1A
100
AcDbEntity
  8
ZUWAKU
100
AcDbLine
 10
514.8496575838017
 20
43.78258628282265
 30
0.0
 11
514.8496575838017
 21
14.58258628282271
 31
0.0
  0
LINE
  5
79F
330
1A
100
AcDbEntity
  8
ZUWAKU
100
AcDbLine
 10
515.2496575838017
 20
43.78258628282265
 30
0.0
 11
515.2496575838017
 21
14.58258628282271
 31
0.0
  0
LINE
  5
7A0
330
1A
100
AcDbEntity
  8
ZUWAKU
100
AcDbLine
 10
515.0496575838015
 20
43.78258628282265
 30
0.0
 11
515.0496575838019
 21
14.58258628282271
 31
0.0
  0
LINE
  5
7A1
330
1A
100
AcDbEntity
  8
ZUWAKU
100
AcDbLine
 10
457.474842056652
 20
43.78258628282265
 30
0.0
 11
457.474842056652
 21
14.58258628282271
 31
0.0
  0
LINE
  5
7A2
330
1A
100
AcDbEntity
  8
ZUWAKU
100
AcDbLine
 10
457.8748420566521
 20
43.78258628282265
 30
0.0
 11
457.8748420566521
 21
14.58258628282271
 31
0.0
  0
LINE
  5
7A3
330
1A
100
AcDbEntity
  8
ZUWAKU
100
AcDbLine
 10
457.6748420566518
 20
43.78258628282265
 30
0.0
 11
457.6748420566523
 21
14.58258628282271
 31
0.0
  0
TEXT
  5
7A5
330
1A
100
AcDbEntity
  8
ZUWAKU
100
AcDbText
 10
459.3522870788615
 20
37.83794282120823
 30
0.0
 40
4.0
  1
品番
 41
0.9
  7
ｽﾀｲﾙ1
100
AcDbText
  0
TEXT
  5
7A6
330
1A
100
AcDbEntity
  8
ZUWAKU
100
AcDbText
 10
516.7271026060111
 20
37.83794282120823
 30
0.0
 40
4.0
  1
用紙
 41
0.9
  7
ｽﾀｲﾙ1
100
AcDbText
  0
TEXT
  5
7A7
330
1A
100
AcDbEntity
  8
ZUWAKU
100
AcDbText
 10
516.7271026060116
 20
23.43794282120826
 30
0.0
 40
4.0
  1
縮尺
 41
0.9
  7
ｽﾀｲﾙ1
100
AcDbText
  0
TEXT
  5
7A8
330
1A
100
AcDbEntity
  8
moji
100
AcDbText
 10
538.0913860579735
 20
31.78750734023003
 30
0.0
 40
5.599999999999999
  1
Ａ３
 41
0.9
  7
ｽﾀｲﾙ1
100
AcDbText
  0
LINE
  5
7A9
330
1A
100
AcDbEntity
  8
ZUWAKU
100
AcDbLine
 10
562.9774338517732
 20
43.78258628282265
 30
0.0
 11
562.9774338517732
 21
14.58258628282271
 31
0.0
  0
LINE
  5
7AA
330
1A
100
AcDbEntity
  8
ZUWAKU
100
AcDbLine
 10
658.4676805958651
 20
43.78258628282265
 30
0.0
 11
658.4676805958651
 21
14.58258628282271
 31
0.0
  0
LINE
  5
7AB
330
1A
100
AcDbEntity
  8
ZUWAKU
100
AcDbLine
 10
658.8676805958653
 20
43.78258628282265
 30
0.0
 11
658.8676805958653
 21
14.58258628282271
 31
0.0
  0
LINE
  5
7AC
330
1A
100
AcDbEntity
  8
ZUWAKU
100
AcDbLine
 10
658.667680595865
 20
43.78258628282265
 30
0.0
 11
658.6676805958655
 21
14.58258628282271
 31
0.0
  0
LINE
  5
7AD
330
1A
100
AcDbEntity
  8
ZUWAKU
100
AcDbLine
 10
562.5774338517731
 20
43.78258628282265
 30
0.0
 11
562.5774338517731
 21
14.58258628282271
 31
0.0
  0
LINE
  5
7AE
330
1A
100
AcDbEntity
  8
ZUWAKU
100
AcDbLine
 10
562.7774338517729
 20
43.78258628282265
 30
0.0
 11
562.7774338517733
 21
14.58258628282271
 31
0.0
  0
TEXT
  5
7AF
330
1A
100
AcDbEntity
  8
ZUWAKU
100
AcDbText
 10
660.3451256180747
 20
37.83794282120823
 30
0.0
 40
4.0
  1
DATE
 41
0.9
  7
ｽﾀｲﾙ1
100
AcDbText
  0
LINE
  5
7BB
330
1A
100
AcDbEntity
  8
ZUWAKU
100
AcDbLine
 10
707.899488634202
 20
43.78258628282265
 30
0.0
 11
707.899488634202
 21
14.58258628282271
 31
0.0
  0
LINE
  5
7BC
330
1A
100
AcDbEntity
  8
ZUWAKU
100
AcDbLine
 10
707.6994886342017
 20
43.78258628282265
 30
0.0
 11
707.6994886342022
 21
14.58258628282271
 31
0.0
  0
LINE
  5
7BD
330
1A
100
AcDbEntity
  8
ZUWAKU
100
AcDbLine
 10
707.4994886342019
 20
43.78258628282265
 30
0.0
 11
707.4994886342019
 21
14.58258628282271
 31
0.0
  0
LINE
  5
7BE
330
1A
100
AcDbEntity
  8
ZUWAKU
100
AcDbLine
 10
707.2994886342021
 20
43.78258628282265
 30
0.0
 11
707.2994886342021
 21
14.58258628282271
 31
0.0
  0
TEXT
  5
7BF
330
1A
100
AcDbEntity
  8
ZUWAKU
100
AcDbText
 10
717.00971652845
 20
25.98627119947753
 30
0.0
 40
6.0
  1
積水化学工業株式会社
 41
0.9
  7
ｽﾀｲﾙ1
100
AcDbText
  0
TEXT
  5
625F
330
1A
100
AcDbEntity
  8
moji
100
AcDbText
 10
249.8685504416682
 20
17.03882846809165
 30
0.0
 40
5.599999999999999
  1
Ｖ５００－Ｌ２７０（３／８インチネジ）
 41
0.9
  7
ｽﾀｲﾙ1
100
AcDbText
  0
DIMENSION
  5
7ED1
330
1A
100
AcDbEntity
  8
SUNPOU
100
AcDbDimension
  2
*D2
 10
499.8585702538175
 20
462.3931219613665
 30
0.0
 11
434.8293487538175
 21
467.3931219613665
 31
0.0
 70
    32
 71
     5
 42
-1.0
  3
STANDARD
100
AcDbAlignedDimension
 13
369.8001272538174
 23
441.0396408552511
 33
0.0
 14
499.8585702538175
 24
201.990892855251
 34
0.0
100
AcDbRotatedDimension
1001
ACAD
1000
DSTYLE
1002
{
1070
    41
1040
7.0
1070
    42
1040
6.0
1070
    43
1040
14.0
1070
    44
1040
3.0
1070
    73
1070
     0
1070
    74
1070
     0
1070
    77
1070
     3
1070
   140
1040
6.0
1070
   141
1040
150.0
1070
   147
1040
2.0
1070
   172
1070
     1
1070
   173
1070
     1
1070
   176
1070
     4
1070
   177
1070
     4
1070
   178
1070
     4
1070
   271
1070
     0
1070
   272
1070
     2
1070
   341
1005
6D
1070
     6
1000
OPEN
1070
     7
1000
OPEN
1002
}
  0
TEXT
  5
7ED2
330
1A
100
AcDbEntity
  8
SUNPOU
100
AcDbText
 10
401.7241820319866
 20
443.1301492176584
 30
0.0
 40
5.0
  1
Ｗ３／８－Ｌ２７０
100
AcDbText
  0
TEXT
  5
7ED3
330
1A
100
AcDbEntity
  8
SUNPOU
100
AcDbText
 10
414.125796979094
 20
431.4219796338831
 30
0.0
 40
5.0
  1
山座
100
AcDbText
  0
LEADER
  5
7ED4
330
1A
100
AcDbEntity
  8
SUNPOU
100
AcDbLeader
  3
STANDARD
 76
     3
 10
374.8001272538174
 20
425.0819028552511
 30
0.0
 10
399.2089825534847
 20
441.4549237129448
 30
0.0
 10
449.288359512552
 20
441.4549237129448
 30
0.0
1001
ACAD
1000
DSTYLE
1002
{
1070
     6
1000
OPEN
1070
    41
1040
7.0
1070
    42
1040
6.0
1070
    43
1040
14.0
1070
    44
1040
3.0
1070
    73
1070
     0
1070
    74
1070
     0
1070
    77
1070
     3
1070
   140
1040
6.0
1070
   141
1040
150.0
1070
   147
1040
2.0
1070
   172
1070
     1
1070
   173
1070
     1
1070
   176
1070
     4
1070
   177
1070
     4
1070
   178
1070
     4
1070
   271
1070
     0
1070
   272
1070
     2
1070
   341
1005
6D
1070
   343
1005
6D
1070
   344
1005
6D
1002
}
  0
LEADER
  5
7ED5
330
1A
100
AcDbEntity
  8
SUNPOU
100
AcDbLeader
  3
STANDARD
 76
     3
 10
386.3001252538176
 20
410.860848855251
 30
0.0
 10
411.6105975005921
 20
429.7467541291696
 30
0.0
 10
427.9892087949192
 20
429.7467541291696
 30
0.0
1001
ACAD
1000
DSTYLE
1002
{
1070
     6
1000
OPEN
1070
    41
1040
7.0
1070
    42
1040
6.0
1070
    43
1040
14.0
1070
    44
1040
3.0
1070
    73
1070
     0
1070
    74
1070
     0
1070
    77
1070
     3
1070
   140
1040
6.0
1070
   141
1040
150.0
1070
   147
1040
2.0
1070
   172
1070
     1
1070
   173
1070
     1
1070
   176
1070
     4
1070
   177
1070
     4
1070
   178
1070
     4
1070
   271
1070
     0
1070
   272
1070
     2
1070
   341
1005
6D
1070
   343
1005
6D
1070
   344
1005
6D
1002
}
  0
TEXT
  5
7ED6
330
1A
100
AcDbEntity
  8
SUNPOU
100
AcDbText
 10
412.1750005055402
 20
417.6652141578434
 30
0.0
 40
5.0
  1
パッキン（アスファルト含浸）
100
AcDbText
  0
LEADER
  5
7ED7
330
1A
100
AcDbEntity
  8
SUNPOU
100
AcDbLeader
  3
STANDARD
 76
     3
 10
384.8001372538176
 20
404.660848855251
 30
0.0
 10
409.6598010270383
 20
415.9899886531297
 30
0.0
 10
493.3279124175453
 20
415.9899886531297
 30
0.0
1001
ACAD
1000
DSTYLE
1002
{
1070
     6
1000
OPEN
1070
    41
1040
7.0
1070
    42
1040
6.0
1070
    43
1040
14.0
1070
    44
1040
3.0
1070
    73
1070
     0
1070
    74
1070
     0
1070
    77
1070
     3
1070
   140
1040
6.0
1070
   141
1040
150.0
1070
   147
1040
2.0
1070
   172
1070
     1
1070
   173
1070
     1
1070
   176
1070
     4
1070
   177
1070
     4
1070
   178
1070
     4
1070
   271
1070
     0
1070
   272
1070
     2
1070
   341
1005
6D
1070
   343
1005
6D
1070
   344
1005
6D
1002
}
  0
LINE
  5
7ED8
330
1A
100
AcDbEntity
  8
SEIHIN
 48
5.0
100
AcDbLine
 10
369.8001272538174
 20
509.9089070896184
 30
0.0
 11
498.0585702538176
 21
509.9089070896185
 31
0.0
  0
LINE
  5
7ED9
330
1A
100
AcDbEntity
  8
SEIHIN
 48
5.0
100
AcDbLine
 10
369.8001272538174
 20
549.9089070896182
 30
0.0
 11
498.0585702538176
 21
549.9089070896182
 31
0.0
  0
LINE
  5
7EDA
330
1A
100
AcDbEntity
  8
CENTER L
 48
5.0
100
AcDbLine
 10
214.9782176136619
 20
529.9089070896185
 30
0.0
 11
518.2585573770027
 21
529.9089070896185
 31
0.0
  0
LINE
  5
7EDB
330
1A
100
AcDbEntity
  8
SEIHIN
100
AcDbLine
 10
369.8001272538174
 20
543.2089070896185
 30
0.0
 11
498.0585702538176
 21
543.2089070896185
 31
0.0
  0
LINE
  5
7EDC
330
1A
100
AcDbEntity
  8
SEIHIN
 48
5.0
100
AcDbLine
 10
369.8001272538176
 20
516.6089070896186
 30
0.0
 11
498.0585702538176
 21
516.6089070896186
 31
0.0
  0
TEXT
  5
7EDD
330
1A
100
AcDbEntity
  8
SUNPOU
100
AcDbText
 10
392.3674396961276
 20
493.2733367710985
 30
0.0
 40
5.0
  1
スライド幅　
100
AcDbText
  0
LINE
  5
7EDE
330
1A
100
AcDbEntity
  8
NOKITOI
  6
PHANTOM
 48
5.0
100
AcDbLine
 10
274.649142481245
 20
61.74720714740733
 30
0.0
 11
462.0773820812451
 21
61.74720714740733
 31
0.0
  0
LINE
  5
7EDF
330
1A
100
AcDbEntity
  8
NOKITOI
  6
PHANTOM
 48
5.0
100
AcDbLine
 10
270.1326741812449
 20
59.6472071474073
 30
0.0
 11
466.5935259812449
 21
59.6472071474073
 31
0.0
  0
LINE
  5
7EE0
330
1A
100
AcDbEntity
  8
NOKITOI
  6
PHANTOM
 48
5.0
100
AcDbLine
 10
272.390908397906
 20
60.69720714740731
 30
0.0
 11
464.3343576589959
 21
60.69720714740731
 31
0.0
  0
DIMENSION
  5
7EE1
330
1A
100
AcDbEntity
  8
SUNPOU
100
AcDbDimension
  2
*D3
 10
233.8585702538175
 20
98.84679990388224
 30
0.0
 11
366.8585702538175
 21
103.8467999038822
 31
0.0
 70
    32
 71
     5
 42
-1.0
  3
STANDARD
100
AcDbAlignedDimension
 13
499.8585702538175
 23
176.3818028552511
 33
0.0
 14
233.8585702538175
 24
201.3818028552513
 34
0.0
100
AcDbRotatedDimension
1001
ACAD
1000
DSTYLE
1002
{
1070
   140
1040
6.0
1070
    74
1070
     0
1070
   172
1070
     1
1070
    73
1070
     0
1070
   272
1070
     2
1070
    77
1070
     3
1070
   173
1070
     1
1070
   147
1040
2.0
1070
    42
1040
6.0
1070
    44
1040
3.0
1070
    43
1040
14.0
1070
   271
1070
     0
1070
   178
1070
     4
1070
   177
1070
     4
1070
   176
1070
     4
1070
   141
1040
150.0
1070
     7
1000
_OPEN
1070
     6
1000
_OPEN
1070
    41
1040
7.0
1002
}
  0
LINE
  5
7EE2
330
1A
100
AcDbEntity
  8
SEIHIN
100
AcDbLine
 10
451.1941852538175
 20
168.281802855251
 30
0.0
 11
288.1349802538175
 21
168.281802855251
 31
0.0
  0
LINE
  5
7EE3
330
1A
100
AcDbEntity
  8
SEIHIN
100
AcDbLine
 10
451.1941852538175
 20
170.2818028552511
 30
0.0
 11
288.1349802538175
 21
170.2818028552511
 31
0.0
  0
LINE
  5
7EE4
330
1A
100
AcDbEntity
  8
SEIHIN
100
AcDbLine
 10
452.2583632538176
 20
174.0818028552511
 30
0.0
 11
287.1251532538175
 21
174.0818028552511
 31
0.0
  0
DIMENSION
  5
7EE5
330
1A
100
AcDbEntity
  8
SUNPOU
100
AcDbDimension
  2
*D4
 10
233.8585701531434
 20
462.3931219613665
 30
0.0
 11
301.8293487034804
 21
467.3931219613665
 31
0.0
 70
    32
 71
     5
 42
-1.0
  3
STANDARD
100
AcDbAlignedDimension
 13
369.8001272538174
 23
441.0396408552511
 33
0.0
 14
233.8585701531434
 24
226.9908925495062
 34
0.0
100
AcDbRotatedDimension
1001
ACAD
1000
DSTYLE
1002
{
1070
    41
1040
7.0
1070
    42
1040
6.0
1070
    43
1040
14.0
1070
    44
1040
3.0
1070
    73
1070
     0
1070
    74
1070
     0
1070
    77
1070
     3
1070
   140
1040
6.0
1070
   141
1040
150.0
1070
   147
1040
2.0
1070
   172
1070
     1
1070
   173
1070
     1
1070
   176
1070
     4
1070
   177
1070
     4
1070
   178
1070
     4
1070
   271
1070
     0
1070
   272
1070
     2
1070
   341
1005
6D
1070
     6
1000
OPEN
1070
     7
1000
OPEN
1002
}
  0
DIMENSION
  5
7EE6
330
1A
100
AcDbEntity
  8
SUNPOU
100
AcDbDimension
  2
*D5
 10
278.7693365570159
 20
259.6567854549761
 30
0.0
 11
256.3139533550796
 21
264.6567854549761
 31
0.0
 70
    32
 71
     5
 42
-1.0
  3
STANDARD
100
AcDbAlignedDimension
 13
233.8585701531434
 23
226.9908925495062
 33
0.0
 14
278.7693365570159
 24
227.3512329442306
 34
0.0
100
AcDbRotatedDimension
1001
ACAD
1000
DSTYLE
1002
{
1070
    41
1040
7.0
1070
    42
1040
6.0
1070
    43
1040
14.0
1070
    44
1040
3.0
1070
    73
1070
     0
1070
    74
1070
     0
1070
    77
1070
     3
1070
   140
1040
6.0
1070
   141
1040
150.0
1070
   147
1040
2.0
1070
   172
1070
     1
1070
   173
1070
     1
1070
   176
1070
     4
1070
   177
1070
     4
1070
   178
1070
     4
1070
   271
1070
     0
1070
   272
1070
     2
1070
   341
1005
6D
1070
     6
1000
OPEN
1070
     7
1000
OPEN
1002
}
  0
DIMENSION
  5
7EE7
330
1A
100
AcDbEntity
  8
SUNPOU
100
AcDbDimension
  2
*D6
 10
198.9637716562945
 20
425.0819028552511
 30
0.0
 11
193.9637716562944
 21
290.0819028552511
 31
0.0
 70
    32
 71
     5
 42
-1.0
  3
STANDARD
100
AcDbAlignedDimension
 13
364.8202362538174
 23
155.0819028552511
 33
0.0
 14
365.8001272538174
 24
425.0819028552511
 34
0.0
 50
90.0
100
AcDbRotatedDimension
1001
ACAD
1000
DSTYLE
1002
{
1070
   140
1040
6.0
1070
    74
1070
     0
1070
   172
1070
     1
1070
    73
1070
     0
1070
   272
1070
     2
1070
    77
1070
     3
1070
   173
1070
     1
1070
   147
1040
2.0
1070
    42
1040
6.0
1070
    44
1040
3.0
1070
    43
1040
14.0
1070
   271
1070
     0
1070
   178
1070
     4
1070
   177
1070
     4
1070
   176
1070
     4
1070
   141
1040
150.0
1070
     7
1000
_OPEN
1070
     6
1000
_OPEN
1070
    41
1040
7.0
1002
}
  0
LINE
  5
7EE8
330
1A
100
AcDbEntity
  8
CENTER L
 48
5.0
100
AcDbLine
 10
369.8001272538174
 20
441.0396408552511
 30
0.0
 11
369.8001272538174
 21
138.9306387985766
 31
0.0
  0
LINE
  5
7EE9
330
1A
100
AcDbEntity
  8
CENTER L
 48
5.0
100
AcDbLine
 10
398.8585702538175
 20
441.0396408552511
 30
0.0
 11
398.8585702538175
 21
138.9306387985766
 31
0.0
  0
LINE
  5
7EEA
330
1A
100
AcDbEntity
  8
SEIHIN
100
AcDbLine
 10
374.8202362538175
 20
383.960848855251
 30
0.0
 11
374.8202362538175
 21
182.0817028552511
 31
0.0
  0
LINE
  5
7EEB
330
1A
100
AcDbEntity
  8
SEIHIN
100
AcDbLine
 10
364.8202362538174
 20
383.960848855251
 30
0.0
 11
364.8202362538174
 21
182.0817028552511
 31
0.0
  0
LINE
  5
7EEC
330
1A
100
AcDbEntity
  8
SEIHIN
 62
     2
100
AcDbLine
 10
365.8202362538174
 20
383.960848855251
 30
0.0
 11
365.8202362538174
 21
182.0817028552511
 31
0.0
  0
LINE
  5
7EED
330
1A
100
AcDbEntity
  8
SEIHIN
 62
     2
100
AcDbLine
 10
373.8202362538174
 20
383.960848855251
 30
0.0
 11
373.8202362538174
 21
182.0817028552511
 31
0.0
  0
LINE
  5
7EEE
330
1A
100
AcDbEntity
  8
CENTER L
 48
5.0
100
AcDbLine
 10
334.8585702538175
 20
441.0396408552511
 30
0.0
 11
334.8585702538175
 21
138.9306387985766
 31
0.0
  0
LINE
  5
7EEF
330
1A
100
AcDbEntity
  8
CENTER L
 48
5.0
100
AcDbLine
 10
368.3632622812451
 20
49.7505190533177
 30
0.0
 11
368.3632622812451
 21
76.74720714740733
 31
0.0
  0
LINE
  5
7EF0
330
1A
100
AcDbEntity
  8
NOKITOI
  6
PHANTOM
 48
5.0
100
AcDbLine
 10
251.2772591812449
 20
199.9011301474072
 30
0.0
 11
268.1473486812451
 21
61.4053758474073
 31
0.0
  0
LINE
  5
7EF1
330
1A
100
AcDbEntity
  8
NOKITOI
  6
PHANTOM
 48
5.0
100
AcDbLine
 10
252.1157632242907
 20
201.7011301474072
 30
0.0
 11
268.9165886667242
 21
63.77400222597924
 31
0.0
  0
LINE
  5
7EF2
330
1A
100
AcDbEntity
  8
NOKITOI
  6
PHANTOM
 48
5.0
100
AcDbLine
 10
250.347545381245
 20
224.9011301474073
 30
0.0
 11
269.6858285812449
 21
66.14262874740731
 31
0.0
  0
ARC
  5
7EF3
330
1A
100
AcDbEntity
  8
NOKITOI
  6
PHANTOM
 48
5.0
100
AcDbCircle
 10
272.390908397906
 20
64.19720714740731
 30
0.0
 40
3.5
100
AcDbArc
 50
186.9449526899439
 51
270.0
  0
ARC
  5
7EF4
330
1A
100
AcDbEntity
  8
NOKITOI
  6
PHANTOM
 48
5.0
100
AcDbCircle
 10
270.1326741812449
 20
61.6472071474073
 30
0.0
 40
1.999999964826235
100
AcDbArc
 50
186.944950520651
 51
270.0
  0
ARC
  5
7EF5
330
1A
100
AcDbEntity
  8
NOKITOI
  6
PHANTOM
 48
5.0
100
AcDbCircle
 10
274.649142481245
 20
66.74720714740733
 30
0.0
 40
4.99999999558399
100
AcDbArc
 50
186.9449520190735
 51
270.0
  0
DIMENSION
  5
7EF6
330
1A
100
AcDbEntity
  8
SUNPOU
100
AcDbDimension
  2
*D7
 10
309.2249830204571
 20
174.0818028552511
 30
0.0
 11
304.224983020457
 21
203.4081253552511
 31
0.0
 70
    32
 71
     5
 42
-1.0
  3
STANDARD
100
AcDbAlignedDimension
 13
240.4657742538176
 23
232.734447855251
 33
0.0
 14
287.1251532538175
 24
174.0818028552511
 34
0.0
 50
90.0
100
AcDbRotatedDimension
1001
ACAD
1000
DSTYLE
1002
{
1070
   140
1040
6.0
1070
    74
1070
     0
1070
   172
1070
     1
1070
    73
1070
     0
1070
   272
1070
     2
1070
    77
1070
     3
1070
   173
1070
     1
1070
   147
1040
2.0
1070
    42
1040
6.0
1070
    44
1040
3.0
1070
    43
1040
14.0
1070
   271
1070
     0
1070
   178
1070
     4
1070
   177
1070
     4
1070
   176
1070
     4
1070
   141
1040
150.0
1070
     7
1000
_OPEN
1070
     6
1000
_OPEN
1070
    41
1040
7.0
1002
}
  0
ARC
  5
7EF7
330
1A
100
AcDbEntity
  8
SEIHIN
100
AcDbCircle
 10
288.1349802538175
 20
175.0818028552511
 30
0.0
 40
4.800000141735933
100
AcDbArc
 50
187.9999948198565
 51
269.9999939044801
  0
ARC
  5
7EF8
330
1A
100
AcDbEntity
  8
SEIHIN
100
AcDbCircle
 10
287.1251532538175
 20
175.0818028552511
 30
0.0
 40
0.9999999589382483
100
AcDbArc
 50
187.9999948198565
 51
270.0
  0
ARC
  5
7EF9
330
1A
100
AcDbEntity
  8
SEIHIN
100
AcDbCircle
 10
288.1349802538175
 20
175.0818028552511
 30
0.0
 40
6.800000059612425
100
AcDbArc
 50
187.9999948198565
 51
269.9999956972797
  0
DIMENSION
  5
7EFA
330
1A
100
AcDbEntity
  8
SUNPOU
100
AcDbDimension
  2
*D8
 10
213.7434598811135
 20
196.581802855251
 30
0.0
 11
208.7434598811134
 21
214.6581253266796
 31
0.0
 70
    32
 71
     5
 42
-1.0
  3
STANDARD
100
AcDbAlignedDimension
 13
240.465773937037
 23
232.7344477981081
 33
0.0
 14
238.6585702538173
 24
196.581802855251
 34
0.0
 50
90.0
100
AcDbRotatedDimension
1001
ACAD
1000
DSTYLE
1002
{
1070
    41
1040
7.0
1070
    42
1040
6.0
1070
    43
1040
14.0
1070
    44
1040
3.0
1070
    73
1070
     0
1070
    74
1070
     0
1070
    77
1070
     3
1070
   140
1040
6.0
1070
   141
1040
150.0
1070
   147
1040
2.0
1070
   172
1070
     1
1070
   173
1070
     1
1070
   176
1070
     4
1070
   177
1070
     4
1070
   178
1070
     4
1070
   271
1070
     0
1070
   272
1070
     2
1070
   341
1005
6D
1070
     6
1000
OPEN
1070
     7
1000
OPEN
1002
}
  0
LINE
  5
7EFB
330
1A
100
AcDbEntity
  8
NOKITOI
  6
PHANTOM
 48
5.0
100
AcDbLine
 10
240.4475453812451
 20
220.8011301474073
 30
0.0
 11
240.4475453812451
 21
202.0011301474073
 31
0.0
  0
LINE
  5
7EFC
330
1A
100
AcDbEntity
  8
NOKITOI
  6
PHANTOM
 48
5.0
100
AcDbLine
 10
248.4878231812451
 20
222.8011301474073
 30
0.0
 11
251.0214593812449
 21
202.0011301474073
 31
0.0
  0
LINE
  5
7EFD
330
1A
100
AcDbEntity
  8
NOKITOI
  6
PHANTOM
 48
5.0
100
AcDbLine
 10
240.1475453812449
 20
220.8011301474073
 30
0.0
 11
240.1475453812449
 21
201.7011301474072
 31
0.0
  0
LINE
  5
7EFE
330
1A
100
AcDbEntity
  8
NOKITOI
  6
PHANTOM
 48
5.0
100
AcDbLine
 10
238.347545381245
 20
222.9011301474073
 30
0.0
 11
238.347545381245
 21
199.9011301474072
 31
0.0
  0
LINE
  5
7EFF
330
1A
100
AcDbEntity
  8
SEIHIN
100
AcDbLine
 10
237.6585702538175
 20
199.5818028552511
 30
0.0
 11
237.6585702538175
 21
227.131433855251
 31
0.0
  0
LINE
  5
7F00
330
1A
100
AcDbEntity
  8
SEIHIN
100
AcDbLine
 10
233.8585702538175
 20
201.381802855251
 30
0.0
 11
233.8585702538175
 21
226.990892855251
 31
0.0
  0
LINE
  5
7F01
330
1A
100
AcDbEntity
  8
SEIHIN
100
AcDbLine
 10
235.6585702538175
 20
199.5818028552511
 30
0.0
 11
235.6585702538175
 21
227.131433855251
 31
0.0
  0
LINE
  5
7F02
330
1A
100
AcDbEntity
  8
SEIHIN
100
AcDbLine
 10
281.4011572538175
 20
174.135425855251
 30
0.0
 11
274.6243212538175
 21
222.355123855251
 31
0.0
  0
LINE
  5
7F03
330
1A
100
AcDbEntity
  8
SEIHIN
100
AcDbLine
 10
283.3816942538176
 20
174.413771855251
 30
0.0
 11
276.6048572538175
 21
222.633469855251
 31
0.0
  0
LINE
  5
7F04
330
1A
100
AcDbEntity
  8
SEIHIN
100
AcDbLine
 10
286.1348852538176
 20
174.942629855251
 30
0.0
 11
279.3776082538176
 21
223.023154855251
 31
0.0
  0
ARC
  5
7F05
330
1A
100
AcDbEntity
  8
SEIHIN
100
AcDbCircle
 10
238.6585702538175
 20
199.5818028552511
 30
0.0
 40
3.0
100
AcDbArc
 50
180.0
 51
270.0
  0
ARC
  5
7F06
330
1A
100
AcDbEntity
  8
SEIHIN
100
AcDbCircle
 10
238.6585702538175
 20
201.381802855251
 30
0.0
 40
4.799999999999999
100
AcDbArc
 50
179.9999999999967
 51
269.9999999999934
  0
LINE
  5
7F07
330
1A
100
AcDbEntity
  8
NOKITOI
  6
PHANTOM
 48
5.0
100
AcDbLine
 10
240.4475453812451
 20
202.0011301474073
 30
0.0
 11
251.0214593812449
 21
202.0011301474073
 31
0.0
  0
LINE
  5
7F08
330
1A
100
AcDbEntity
  8
NOKITOI
  6
PHANTOM
 48
5.0
100
AcDbLine
 10
240.1475453812449
 20
201.7011301474072
 30
0.0
 11
252.1157632242907
 21
201.7011301474072
 31
0.0
  0
LINE
  5
7F09
330
1A
100
AcDbEntity
  8
NOKITOI
  6
PHANTOM
 48
5.0
100
AcDbLine
 10
238.347545381245
 20
199.9011301474072
 30
0.0
 11
251.2772591812449
 21
199.9011301474072
 31
0.0
  0
LINE
  5
7F0A
330
1A
100
AcDbEntity
  8
SEIHIN
100
AcDbLine
 10
238.6585702538175
 20
196.5818028552511
 30
0.0
 11
249.4585702538175
 21
196.5818028552511
 31
0.0
  0
LINE
  5
7F0B
330
1A
100
AcDbEntity
  8
SEIHIN
100
AcDbLine
 10
238.6585702538175
 20
198.5818028552511
 30
0.0
 11
249.4585702538175
 21
198.5818028552511
 31
0.0
  0
LINE
  5
7F0C
330
1A
100
AcDbEntity
  8
SEIHIN
100
AcDbLine
 10
242.6585702538175
 20
198.5818028552511
 30
0.0
 11
242.6585702538175
 21
198.5818028552511
 31
0.0
  0
ARC
  5
7F0D
330
1A
100
AcDbEntity
  8
SEIHIN
100
AcDbCircle
 10
238.6585702538175
 20
199.5818028552511
 30
0.0
 40
1.0
100
AcDbArc
 50
180.0000000000016
 51
270.0
  0
LINE
  5
7F0E
330
1A
100
AcDbEntity
  8
SEIHIN
100
AcDbLine
 10
249.4585702538175
 20
198.5818028552511
 30
0.0
 11
249.4585702538175
 21
196.5818028552511
 31
0.0
  0
LINE
  5
7F19
330
1A
100
AcDbEntity
  8
SEIHIN
100
AcDbLine
 10
238.7977432538175
 20
228.121701855251
 30
0.0
 11
273.7732262538175
 21
223.206218855251
 31
0.0
  0
LINE
  5
7F1A
330
1A
100
AcDbEntity
  8
SEIHIN
100
AcDbLine
 10
239.0760892538176
 20
230.102237855251
 30
0.0
 11
274.0515722538175
 21
225.186754855251
 31
0.0
  0
LINE
  5
7F1B
330
1A
100
AcDbEntity
  8
SEIHIN
100
AcDbLine
 10
240.4657742538176
 20
232.734447855251
 30
0.0
 11
274.4412572538175
 21
227.9595048552511
 31
0.0
  0
ARC
  5
7F1C
330
1A
100
AcDbEntity
  8
SEIHIN
100
AcDbCircle
 10
239.6585702538175
 20
226.990892855251
 30
0.0
 40
5.800000100674179
100
AcDbArc
 50
82.00000315590468
 51
180.0000030203263
  0
ARC
  5
7F1D
330
1A
100
AcDbEntity
  8
SEIHIN
100
AcDbCircle
 10
238.6585702538175
 20
227.131433855251
 30
0.0
 40
2.999999946401332
100
AcDbArc
 50
81.9999935137385
 51
180.0000072463233
  0
LINE
  5
7F1E
330
1A
100
AcDbEntity
  8
NOKITOI
  6
PHANTOM
 48
5.0
100
AcDbLine
 10
240.347545381245
 20
224.9011301474073
 30
0.0
 11
250.347545381245
 21
224.9011301474073
 31
0.0
  0
LINE
  5
7F1F
330
1A
100
AcDbEntity
  8
NOKITOI
  6
PHANTOM
 48
5.0
100
AcDbLine
 10
242.4475453812451
 20
223.1011301474073
 30
0.0
 11
248.4878231812451
 21
223.1011301474073
 31
0.0
  0
LINE
  5
7F20
330
1A
100
AcDbEntity
  8
NOKITOI
  6
PHANTOM
 48
5.0
100
AcDbLine
 10
242.4475453812451
 20
222.8011301474073
 30
0.0
 11
248.4878231812451
 21
222.8011301474073
 31
0.0
  0
ARC
  5
7F21
330
1A
100
AcDbEntity
  8
NOKITOI
  6
PHANTOM
 48
5.0
100
AcDbCircle
 10
242.4475453812451
 20
220.8011301474073
 30
0.0
 40
2.0
100
AcDbArc
 50
90.0
 51
180.0
  0
ARC
  5
7F22
330
1A
100
AcDbEntity
  8
NOKITOI
  6
PHANTOM
 48
5.0
100
AcDbCircle
 10
242.4475453812451
 20
220.8011301474073
 30
0.0
 40
2.299999999999999
100
AcDbArc
 50
90.0
 51
180.0
  0
ARC
  5
7F23
330
1A
100
AcDbEntity
  8
NOKITOI
  6
PHANTOM
 48
5.0
100
AcDbCircle
 10
240.347545381245
 20
222.9011301474073
 30
0.0
 40
2.0
100
AcDbArc
 50
90.0
 51
180.0
  0
ARC
  5
7F24
330
1A
100
AcDbEntity
  8
SEIHIN
100
AcDbCircle
 10
238.6585702538175
 20
227.131433855251
 30
0.0
 40
0.9999999589382483
100
AcDbArc
 50
82.00000878673678
 51
180.0000036065926
  0
ARC
  5
7F25
330
1A
100
AcDbEntity
  8
SEIHIN
100
AcDbCircle
 10
273.6340532538175
 20
222.2159508552511
 30
0.0
 40
5.800000124954006
100
AcDbArc
 50
8.000007927896435
 51
82.00000518014091
  0
ARC
  5
7F26
330
1A
100
AcDbEntity
  8
SEIHIN
100
AcDbCircle
 10
273.6340532538175
 20
222.2159508552511
 30
0.0
 40
2.999999948497415
100
AcDbArc
 50
8.000004404110773
 51
82.00000518014091
  0
ARC
  5
7F27
330
1A
100
AcDbEntity
  8
SEIHIN
100
AcDbCircle
 10
273.6340532538175
 20
222.2159508552511
 30
0.0
 40
1.00000009710324
100
AcDbArc
 50
7.999980781084066
 51
82.00000518014091
  0
ARC
  5
7F28
330
1A
100
AcDbEntity
  8
SEIHIN
100
AcDbCircle
 10
369.8202092538174
 20
167.331473855251
 30
0.0
 40
7.249670882495079
100
AcDbArc
 50
226.3950018128616
 51
270.0002225484002
  0
LINE
  5
7F29
330
1A
100
AcDbEntity
  8
SEIHIN
100
AcDbLine
 10
364.8202362538174
 20
155.0819028552511
 30
0.0
 11
374.8202362538175
 21
155.0819028552511
 31
0.0
  0
LINE
  5
7F2A
330
1A
100
AcDbEntity
  8
SEIHIN
100
AcDbLine
 10
362.3202362538175
 20
160.0819028552511
 30
0.0
 11
369.8203362538176
 21
160.0819028552511
 31
0.0
  0
LINE
  5
7F2B
330
1A
100
AcDbEntity
  8
SEIHIN
100
AcDbLine
 10
379.8202362538174
 20
168.0818028552511
 30
0.0
 11
359.8202362538174
 21
168.0818028552511
 31
0.0
  0
LINE
  5
7F2C
330
1A
100
AcDbEntity
  8
SEIHIN
100
AcDbLine
 10
364.8202362538174
 20
160.0818028552511
 30
0.0
 11
364.8202362538174
 21
155.0819028552511
 31
0.0
  0
LINE
  5
7F2D
330
1A
100
AcDbEntity
  8
SEIHIN
 62
     2
100
AcDbLine
 10
365.8202362538174
 20
160.0818028552511
 30
0.0
 11
365.8202362538174
 21
155.0819028552511
 31
0.0
  0
ARC
  5
7F2E
330
1A
100
AcDbEntity
  8
SEIHIN
100
AcDbCircle
 10
362.3200752538175
 20
162.6443028552511
 30
0.0
 40
2.562635081136893
100
AcDbArc
 50
192.6797294812836
 51
347.3226210809191
  0
LINE
  5
7F2F
330
1A
100
AcDbEntity
  8
SEIHIN
100
AcDbLine
 10
359.8202362538174
 20
162.0818028552511
 30
0.0
 11
359.8202362538174
 21
168.0818028552511
 31
0.0
  0
LINE
  5
7F30
330
1A
100
AcDbEntity
  8
SEIHIN
100
AcDbLine
 10
364.8202362538174
 20
162.081902855251
 30
0.0
 11
364.8202362538174
 21
168.0818028552511
 31
0.0
  0
LINE
  5
7F31
330
1A
100
AcDbEntity
  8
SEIHIN
100
AcDbLine
 10
374.8202362538175
 20
160.0818028552511
 30
0.0
 11
374.8202362538175
 21
155.0819028552511
 31
0.0
  0
LINE
  5
7F32
330
1A
100
AcDbEntity
  8
SEIHIN
 62
     2
100
AcDbLine
 10
373.8202362538174
 20
160.0818028552511
 30
0.0
 11
373.8202362538174
 21
155.0819028552511
 31
0.0
  0
ARC
  5
7F33
330
1A
100
AcDbEntity
  8
SEIHIN
100
AcDbCircle
 10
377.3203972538174
 20
162.6443028552511
 30
0.0
 40
2.562656995934785
100
AcDbArc
 50
192.6796051079023
 51
347.3181259813775
  0
LINE
  5
7F34
330
1A
100
AcDbEntity
  8
SEIHIN
100
AcDbLine
 10
377.3202362538174
 20
160.0818028552511
 30
0.0
 11
369.8200362538175
 21
160.0818028552511
 31
0.0
  0
ARC
  5
7F35
330
1A
100
AcDbEntity
  8
SEIHIN
100
AcDbCircle
 10
369.8202632538175
 20
167.331373855251
 30
0.0
 40
7.249670882495079
100
AcDbArc
 50
269.9997887398042
 51
313.6050094753453
  0
LINE
  5
7F36
330
1A
100
AcDbEntity
  8
SEIHIN
100
AcDbLine
 10
374.8202362538175
 20
162.0818028552511
 30
0.0
 11
374.8202362538175
 21
168.0818028552511
 31
0.0
  0
LINE
  5
7F37
330
1A
100
AcDbEntity
  8
SEIHIN
100
AcDbLine
 10
379.8202362538174
 20
162.0818028552511
 30
0.0
 11
379.8202362538174
 21
168.0818028552511
 31
0.0
  0
ARC
  5
7F38
330
1A
100
AcDbEntity
  8
SEIHIN
100
AcDbCircle
 10
369.8202092538174
 20
174.832232855251
 30
0.0
 40
7.249670882495079
100
AcDbArc
 50
89.9997887397456
 51
133.6050094752894
  0
LINE
  5
7F39
330
1A
100
AcDbEntity
  8
SEIHIN
100
AcDbLine
 10
362.3202362538175
 20
182.0817028552511
 30
0.0
 11
369.8203362538176
 21
182.0817028552511
 31
0.0
  0
LINE
  5
7F3A
330
1A
100
AcDbEntity
  8
SEIHIN
100
AcDbLine
 10
359.8202362538174
 20
174.0818028552511
 30
0.0
 11
379.8202362538174
 21
174.0818028552511
 31
0.0
  0
LINE
  5
7F3B
330
1A
100
AcDbEntity
  8
SEIHIN
100
AcDbLine
 10
359.8202362538174
 20
174.0818028552511
 30
0.0
 11
379.8202362538174
 21
174.0818028552511
 31
0.0
  0
ARC
  5
7F3C
330
1A
100
AcDbEntity
  8
SEIHIN
100
AcDbCircle
 10
362.3200252538174
 20
179.5193028552511
 30
0.0
 40
2.562684194030247
100
AcDbArc
 50
12.67714418354154
 51
167.3205326235311
  0
LINE
  5
7F3D
330
1A
100
AcDbEntity
  8
SEIHIN
100
AcDbLine
 10
359.8202362538174
 20
180.0818028552511
 30
0.0
 11
359.8202362538174
 21
174.0818028552511
 31
0.0
  0
LINE
  5
7F3E
330
1A
100
AcDbEntity
  8
SEIHIN
100
AcDbLine
 10
364.8202362538174
 20
180.0818028552511
 30
0.0
 11
364.8202362538174
 21
174.0818028552511
 31
0.0
  0
ARC
  5
7F3F
330
1A
100
AcDbEntity
  8
SEIHIN
100
AcDbCircle
 10
369.8202492538175
 20
174.832197855251
 30
0.0
 40
7.249704847449203
100
AcDbArc
 50
46.39512430588962
 51
90.00012237830244
  0
ARC
  5
7F40
330
1A
100
AcDbEntity
  8
SEIHIN
100
AcDbCircle
 10
377.3203972538174
 20
179.519402855251
 30
0.0
 40
2.562635081136893
100
AcDbArc
 50
12.67972948128359
 51
167.3226210809191
  0
LINE
  5
7F41
330
1A
100
AcDbEntity
  8
SEIHIN
100
AcDbLine
 10
374.8202362538175
 20
180.0818028552511
 30
0.0
 11
374.8202362538175
 21
174.0818028552511
 31
0.0
  0
LINE
  5
7F42
330
1A
100
AcDbEntity
  8
SEIHIN
100
AcDbLine
 10
379.8202362538174
 20
180.0818028552511
 30
0.0
 11
379.8202362538174
 21
174.0818028552511
 31
0.0
  0
LINE
  5
7F43
330
1A
100
AcDbEntity
  8
SEIHIN
100
AcDbLine
 10
377.3202362538174
 20
182.081802855251
 30
0.0
 11
369.8200362538175
 21
182.081802855251
 31
0.0
  0
LINE
  5
7F44
330
1A
100
AcDbEntity
  8
CENTER L
 48
5.0
100
AcDbLine
 10
369.8001272538174
 20
498.935234305343
 30
0.0
 11
369.8001272538174
 21
560.8825798738938
 31
0.0
  0
LINE
  5
7F45
330
1A
100
AcDbEntity
  8
CENTER L
 48
5.0
100
AcDbLine
 10
369.8001272538174
 20
560.8825798738938
 30
0.0
 11
369.8001272538174
 21
498.935234305343
 31
0.0
  0
ARC
  5
7F46
330
1A
100
AcDbEntity
  8
SEIHIN
100
AcDbCircle
 10
283.6974274698089
 20
519.9746755365321
 30
0.0
 40
2.597710857760671
100
AcDbArc
 50
291.806445312116
 51
9.975389327825704
  0
ARC
  5
7F47
330
1A
100
AcDbEntity
  8
SEIHIN
100
AcDbCircle
 10
283.6974274698089
 20
519.9746755365321
 30
0.0
 40
2.597710857760671
100
AcDbArc
 50
291.806445312116
 51
9.975389327825704
  0
ARC
  5
7F48
330
1A
100
AcDbEntity
  8
SEIHIN
100
AcDbCircle
 10
276.05299983788
 20
520.1294107726769
 30
0.0
 40
2.732336160781798
100
AcDbArc
 50
290.0607144337499
 51
6.203439671692727
  0
ARC
  5
7F49
330
1A
100
AcDbEntity
  8
SEIHIN
100
AcDbCircle
 10
276.05299983788
 20
520.1294107726769
 30
0.0
 40
2.732336160781798
100
AcDbArc
 50
290.0607144337499
 51
6.203439671692727
  0
ARC
  5
7F4A
330
1A
100
AcDbEntity
  8
SEIHIN
100
AcDbCircle
 10
236.0239423385464
 20
519.6146577332384
 30
0.0
 40
2.311914329332959
100
AcDbArc
 50
200.5094644027934
 51
242.5600825501392
  0
ARC
  5
7F4B
330
1A
100
AcDbEntity
  8
SEIHIN
100
AcDbCircle
 10
236.0239423385464
 20
519.6146577332384
 30
0.0
 40
2.311914329332959
100
AcDbArc
 50
200.5094644027934
 51
242.5600825501392
  0
LINE
  5
7F4C
330
1A
100
AcDbEntity
  8
SEIHIN
 48
5.0
100
AcDbLine
 10
235.6585703544917
 20
509.9089070896184
 30
0.0
 11
369.8001272538174
 21
509.9089070896184
 31
0.0
  0
LINE
  5
7F4D
330
1A
100
AcDbEntity
  8
SEIHIN
 48
5.0
100
AcDbLine
 10
235.6585703544917
 20
516.6089070896184
 30
0.0
 11
369.8001272538174
 21
516.6089070896186
 31
0.0
  0
ARC
  5
7F4E
330
1A
100
AcDbEntity
  8
SEIHIN
100
AcDbCircle
 10
234.6585703544917
 20
516.6089070896183
 30
0.0
 40
0.9999999039302407
100
AcDbArc
 50
0.0000000000130276
 51
72.54239341417918
  0
LINE
  5
7F4F
330
1A
100
AcDbEntity
  8
SEIHIN
100
AcDbLine
 10
235.6585703544917
 20
509.9089070896184
 30
0.0
 11
235.6585703544917
 21
516.6089070896183
 31
0.0
  0
ARC
  5
7F50
330
1A
100
AcDbEntity
  8
SEIHIN
100
AcDbCircle
 10
277.2902338423767
 20
516.6089070896184
 30
0.0
 40
0.9999999039302407
100
AcDbArc
 50
107.4576065858208
 51
179.9999999999869
  0
LINE
  5
7F51
330
1A
100
AcDbEntity
  8
SEIHIN
100
AcDbLine
 10
276.2902338423767
 20
509.9089070896185
 30
0.0
 11
276.2902338423767
 21
516.6089070896184
 31
0.0
  0
ARC
  5
7F52
330
1A
100
AcDbEntity
  8
SEIHIN
100
AcDbCircle
 10
284.9624048162814
 20
516.6089070896183
 30
0.0
 40
0.9999999039302407
100
AcDbArc
 50
107.4576065858208
 51
179.9999999999869
  0
LINE
  5
7F53
330
1A
100
AcDbEntity
  8
SEIHIN
100
AcDbLine
 10
283.9624048162814
 20
509.9089070896184
 30
0.0
 11
283.9624048162814
 21
516.6089070896183
 31
0.0
  0
DIMENSION
  5
7F54
330
1A
100
AcDbEntity
  8
SUNPOU
100
AcDbDimension
  2
*D9
 10
398.8585702538175
 20
486.1142151127324
 30
0.0
 11
366.8585702538175
 21
491.1142151127324
 31
0.0
 70
    32
 71
     5
 42
-1.0
  3
STANDARD
100
AcDbAlignedDimension
 13
334.8585702538175
 23
441.0396408552511
 33
0.0
 14
398.8585702538175
 24
441.0396408552511
 34
0.0
100
AcDbRotatedDimension
1001
ACAD
1000
DSTYLE
1002
{
1070
   140
1040
6.0
1070
    74
1070
     0
1070
   172
1070
     1
1070
    73
1070
     0
1070
   272
1070
     2
1070
    77
1070
     3
1070
   173
1070
     1
1070
   147
1040
2.0
1070
    42
1040
6.0
1070
    44
1040
3.0
1070
    43
1040
14.0
1070
   271
1070
     0
1070
   178
1070
     4
1070
   177
1070
     4
1070
   176
1070
     4
1070
   141
1040
150.0
1070
     7
1000
_OPEN
1070
     6
1000
_OPEN
1070
    41
1040
7.0
1002
}
  0
DIMENSION
  5
7F55
330
1A
100
AcDbEntity
  8
SUNPOU
100
AcDbDimension
  2
*D10
 10
386.3001252538176
 20
473.9991540035734
 30
0.0
 11
369.8001252538176
 21
478.9991540035734
 31
0.0
 70
    32
 71
     5
 42
-1.0
  3
STANDARD
100
AcDbAlignedDimension
 13
353.3001252538176
 23
410.860848855251
 33
0.0
 14
386.3001252538176
 24
410.860848855251
 34
0.0
100
AcDbRotatedDimension
1001
ACAD
1000
DSTYLE
1002
{
1070
   140
1040
6.0
1070
    74
1070
     0
1070
   172
1070
     1
1070
    73
1070
     0
1070
   272
1070
     2
1070
    77
1070
     3
1070
   173
1070
     1
1070
   147
1040
2.0
1070
    42
1040
6.0
1070
    44
1040
3.0
1070
    43
1040
14.0
1070
   271
1070
     0
1070
   178
1070
     4
1070
   177
1070
     4
1070
   176
1070
     4
1070
   141
1040
150.0
1070
     7
1000
_OPEN
1070
     6
1000
_OPEN
1070
    41
1040
7.0
1002
}
  0
LINE
  5
7F56
330
1A
100
AcDbEntity
  8
SEIHIN
100
AcDbLine
 10
384.8001372538176
 20
409.660848855251
 30
0.0
 11
384.8001372538176
 21
399.660848855251
 31
0.0
  0
LINE
  5
7F57
330
1A
100
AcDbEntity
  8
SEIHIN
100
AcDbLine
 10
354.8001372538176
 20
409.660848855251
 30
0.0
 11
354.8001372538176
 21
399.660848855251
 31
0.0
  0
LINE
  5
7F58
330
1A
100
AcDbEntity
  8
SEIHIN
100
AcDbLine
 10
386.3001372538176
 20
395.660848855251
 30
0.0
 11
353.3001372538176
 21
395.660848855251
 31
0.0
  0
LINE
  5
7F59
330
1A
100
AcDbEntity
  8
SEIHIN
100
AcDbLine
 10
386.3001372538176
 20
394.4608488552511
 30
0.0
 11
353.3001372538176
 21
394.4608488552511
 31
0.0
  0
ARC
  5
7F5A
330
1A
100
AcDbEntity
  8
SEIHIN
100
AcDbCircle
 10
369.8001252538176
 20
391.2105538552511
 30
0.0
 40
7.249704847449203
100
AcDbArc
 50
226.3951243058896
 51
270.0001223783024
  0
ARC
  5
7F5B
330
1A
100
AcDbEntity
  8
SEIHIN
100
AcDbCircle
 10
369.8002552538175
 20
391.210555855251
 30
0.0
 40
7.249707053624614
100
AcDbArc
 50
269.9990734195281
 51
313.6037477331422
  0
ARC
  5
7F5C
330
1A
100
AcDbEntity
  8
SEIHIN
100
AcDbCircle
 10
377.3002992538174
 20
386.523348855251
 30
0.0
 40
2.562656995934785
100
AcDbArc
 50
192.6796051079023
 51
347.3181259813775
  0
ARC
  5
7F5D
330
1A
100
AcDbEntity
  8
SEIHIN
100
AcDbCircle
 10
362.2999762538177
 20
386.523348855251
 30
0.0
 40
2.562635081136893
100
AcDbArc
 50
192.6797294812836
 51
347.3226210809191
  0
LINE
  5
7F5E
330
1A
100
AcDbEntity
  8
SEIHIN
100
AcDbLine
 10
362.3001372538176
 20
383.9609488552511
 30
0.0
 11
369.8003372538175
 21
383.9609488552511
 31
0.0
  0
LINE
  5
7F5F
330
1A
100
AcDbEntity
  8
SEIHIN
100
AcDbLine
 10
377.3001372538176
 20
383.960848855251
 30
0.0
 11
369.8000372538174
 21
383.960848855251
 31
0.0
  0
LINE
  5
7F60
330
1A
100
AcDbEntity
  8
SEIHIN
100
AcDbLine
 10
384.8001372538176
 20
399.660848855251
 30
0.0
 11
354.8001372538176
 21
399.660848855251
 31
0.0
  0
LINE
  5
7F61
330
1A
100
AcDbEntity
  8
SEIHIN
100
AcDbLine
 10
379.8001372538176
 20
391.960848855251
 30
0.0
 11
359.8001372538176
 21
391.960848855251
 31
0.0
  0
LINE
  5
7F62
330
1A
100
AcDbEntity
  8
SEIHIN
 62
     2
100
AcDbLine
 10
365.8202362538174
 20
395.660848855251
 30
0.0
 11
365.8202362538174
 21
399.660848855251
 31
0.0
  0
LINE
  5
7F63
330
1A
100
AcDbEntity
  8
SEIHIN
100
AcDbLine
 10
364.8202362538174
 20
395.660848855251
 30
0.0
 11
364.8202362538174
 21
399.660848855251
 31
0.0
  0
LINE
  5
7F64
330
1A
100
AcDbEntity
  8
SEIHIN
100
AcDbLine
 10
358.8001162538176
 20
394.4608488552511
 30
0.0
 11
360.3001152538174
 21
391.960848855251
 31
0.0
  0
LINE
  5
7F65
330
1A
100
AcDbEntity
  8
SEIHIN
100
AcDbLine
 10
353.3001372538176
 20
395.660848855251
 30
0.0
 11
353.3001372538176
 21
394.4608488552511
 31
0.0
  0
LINE
  5
7F66
330
1A
100
AcDbEntity
  8
SEIHIN
100
AcDbLine
 10
359.8001372538176
 20
385.960848855251
 30
0.0
 11
359.8001372538176
 21
391.960848855251
 31
0.0
  0
LINE
  5
7F67
330
1A
100
AcDbEntity
  8
SEIHIN
100
AcDbLine
 10
364.8001372538176
 20
385.9609488552511
 30
0.0
 11
364.8001372538176
 21
391.960848855251
 31
0.0
  0
LINE
  5
7F68
330
1A
100
AcDbEntity
  8
SEIHIN
100
AcDbLine
 10
374.8202362538175
 20
395.660848855251
 30
0.0
 11
374.8202362538175
 21
399.660848855251
 31
0.0
  0
LINE
  5
7F69
330
1A
100
AcDbEntity
  8
SEIHIN
 62
     2
100
AcDbLine
 10
373.8202362538174
 20
395.660848855251
 30
0.0
 11
373.8202362538174
 21
399.660848855251
 31
0.0
  0
LINE
  5
7F6A
330
1A
100
AcDbEntity
  8
SEIHIN
100
AcDbLine
 10
374.8001372538176
 20
385.960848855251
 30
0.0
 11
374.8001372538176
 21
391.960848855251
 31
0.0
  0
LINE
  5
7F6B
330
1A
100
AcDbEntity
  8
SEIHIN
100
AcDbLine
 10
379.3001152538174
 20
391.960848855251
 30
0.0
 11
380.8001162538175
 21
394.4608488552511
 31
0.0
  0
LINE
  5
7F6C
330
1A
100
AcDbEntity
  8
SEIHIN
100
AcDbLine
 10
379.8001372538176
 20
385.960848855251
 30
0.0
 11
379.8001372538176
 21
391.960848855251
 31
0.0
  0
LINE
  5
7F6D
330
1A
100
AcDbEntity
  8
SEIHIN
100
AcDbLine
 10
386.3001372538176
 20
395.660848855251
 30
0.0
 11
386.3001372538176
 21
394.4608488552511
 31
0.0
  0
LINE
  5
7F6E
330
1A
100
AcDbEntity
  8
SEIHIN
100
AcDbLine
 10
386.3001252538176
 20
409.660848855251
 30
0.0
 11
353.3001252538176
 21
409.660848855251
 31
0.0
  0
LINE
  5
7F6F
330
1A
100
AcDbEntity
  8
SEIHIN
100
AcDbLine
 10
386.3001252538176
 20
410.860848855251
 30
0.0
 11
353.3001252538176
 21
410.860848855251
 31
0.0
  0
LINE
  5
7F70
330
1A
100
AcDbEntity
  8
SEIHIN
100
AcDbLine
 10
364.8001272538174
 20
425.0819028552511
 30
0.0
 11
374.8001272538174
 21
425.0819028552511
 31
0.0
  0
ARC
  5
7F71
330
1A
100
AcDbEntity
  8
SEIHIN
100
AcDbCircle
 10
369.8001142538176
 20
414.111242855251
 30
0.0
 40
7.249704847449203
100
AcDbArc
 50
89.99989775740109
 51
133.6048958298151
  0
LINE
  5
7F72
330
1A
100
AcDbEntity
  8
SEIHIN
100
AcDbLine
 10
384.8001372538176
 20
409.660848855251
 30
0.0
 11
354.8001372538176
 21
409.660848855251
 31
0.0
  0
LINE
  5
7F73
330
1A
100
AcDbEntity
  8
SEIHIN
100
AcDbLine
 10
362.3001272538174
 20
421.3608488552511
 30
0.0
 11
369.8003272538176
 21
421.3608488552511
 31
0.0
  0
LINE
  5
7F74
330
1A
100
AcDbEntity
  8
SEIHIN
100
AcDbLine
 10
359.8001272538174
 20
413.3608488552511
 30
0.0
 11
379.8001272538174
 21
413.3608488552511
 31
0.0
  0
LINE
  5
7F75
330
1A
100
AcDbEntity
  8
SEIHIN
100
AcDbLine
 10
379.3001022538176
 20
413.3608488552511
 30
0.0
 11
360.3001022538176
 21
413.3608488552511
 31
0.0
  0
ARC
  5
7F76
330
1A
100
AcDbEntity
  8
SEIHIN
100
AcDbCircle
 10
362.2999772538175
 20
418.7983488552511
 30
0.0
 40
2.562646037603808
100
AcDbArc
 50
12.67966100636773
 51
167.3203672336141
  0
LINE
  5
7F77
330
1A
100
AcDbEntity
  8
SEIHIN
100
AcDbLine
 10
359.8001272538174
 20
419.360948855251
 30
0.0
 11
359.8001272538174
 21
413.3608488552511
 31
0.0
  0
LINE
  5
7F78
330
1A
100
AcDbEntity
  8
SEIHIN
100
AcDbLine
 10
353.3001252538176
 20
410.860848855251
 30
0.0
 11
353.3001252538176
 21
409.660848855251
 31
0.0
  0
LINE
  5
7F79
330
1A
100
AcDbEntity
  8
SEIHIN
100
AcDbLine
 10
358.8001032538175
 20
410.860848855251
 30
0.0
 11
360.3001022538176
 21
413.3608488552511
 31
0.0
  0
LINE
  5
7F7A
330
1A
100
AcDbEntity
  8
SEIHIN
100
AcDbLine
 10
364.8001272538174
 20
419.3608488552511
 30
0.0
 11
364.8001272538174
 21
413.3608488552511
 31
0.0
  0
LINE
  5
7F7B
330
1A
100
AcDbEntity
  8
SEIHIN
100
AcDbLine
 10
364.8001272538174
 20
421.3608488552511
 30
0.0
 11
364.8001272538174
 21
425.0819028552511
 31
0.0
  0
LINE
  5
7F7C
330
1A
100
AcDbEntity
  8
SEIHIN
 62
     2
100
AcDbLine
 10
365.8001272538174
 20
421.3608488552511
 30
0.0
 11
365.8001272538174
 21
425.0819028552511
 31
0.0
  0
ARC
  5
7F7D
330
1A
100
AcDbEntity
  8
SEIHIN
100
AcDbCircle
 10
369.8001542538174
 20
414.111277855251
 30
0.0
 40
7.249670882495079
100
AcDbArc
 50
46.39500181286161
 51
90.0002225484002
  0
ARC
  5
7F7E
330
1A
100
AcDbEntity
  8
SEIHIN
100
AcDbCircle
 10
377.3002882538175
 20
418.798448855251
 30
0.0
 40
2.562635081136893
100
AcDbArc
 50
12.67972948128359
 51
167.3226210809191
  0
LINE
  5
7F7F
330
1A
100
AcDbEntity
  8
SEIHIN
100
AcDbLine
 10
374.8001272538174
 20
419.3608488552511
 30
0.0
 11
374.8001272538174
 21
413.3608488552511
 31
0.0
  0
LINE
  5
7F80
330
1A
100
AcDbEntity
  8
SEIHIN
100
AcDbLine
 10
379.8001272538174
 20
419.3608488552511
 30
0.0
 11
379.8001272538174
 21
413.3608488552511
 31
0.0
  0
LINE
  5
7F81
330
1A
100
AcDbEntity
  8
SEIHIN
100
AcDbLine
 10
379.3001022538176
 20
413.3608488552511
 30
0.0
 11
380.8001032538175
 21
410.860848855251
 31
0.0
  0
LINE
  5
7F82
330
1A
100
AcDbEntity
  8
SEIHIN
100
AcDbLine
 10
377.3001272538174
 20
421.3608488552511
 30
0.0
 11
369.8000272538176
 21
421.3608488552511
 31
0.0
  0
LINE
  5
7F83
330
1A
100
AcDbEntity
  8
SEIHIN
100
AcDbLine
 10
374.8001272538174
 20
421.3608488552511
 30
0.0
 11
374.8001272538174
 21
425.0819028552511
 31
0.0
  0
LINE
  5
7F84
330
1A
100
AcDbEntity
  8
SEIHIN
 62
     2
100
AcDbLine
 10
373.8001272538174
 20
421.3608488552511
 30
0.0
 11
373.8001272538174
 21
425.0819028552511
 31
0.0
  0
LINE
  5
7F85
330
1A
100
AcDbEntity
  8
SEIHIN
100
AcDbLine
 10
386.3001252538176
 20
410.860848855251
 30
0.0
 11
386.3001252538176
 21
409.660848855251
 31
0.0
  0
ARC
  5
7F86
330
1A
100
AcDbEntity
  8
SEIHIN
100
AcDbCircle
 10
283.6974274698087
 20
539.8431386427047
 30
0.0
 40
2.597710857760674
100
AcDbArc
 50
350.0246106721678
 51
68.19355468788394
  0
LINE
  5
7F87
330
1A
100
AcDbEntity
  8
SEIHIN
 48
5.0
100
AcDbLine
 10
235.6585703544917
 20
549.9089070896182
 30
0.0
 11
369.8001272538174
 21
549.9089070896181
 31
0.0
  0
LINE
  5
7F88
330
1A
100
AcDbEntity
  8
SEIHIN
100
AcDbLine
 10
235.6585703544917
 20
543.2089070896185
 30
0.0
 11
369.8001272538174
 21
543.2089070896186
 31
0.0
  0
ARC
  5
7F89
330
1A
100
AcDbEntity
  8
SEIHIN
100
AcDbCircle
 10
236.0239423385464
 20
540.2031564459982
 30
0.0
 40
2.311914329333003
100
AcDbArc
 50
117.4399174498607
 51
159.4905355972065
  0
LINE
  5
7F8A
330
1A
100
AcDbEntity
  8
SEIHIN
100
AcDbLine
 10
233.8585702538175
 20
518.8046505722501
 30
0.0
 11
233.8585702538175
 21
541.0131636069869
 31
0.0
  0
ARC
  5
7F8B
330
1A
100
AcDbEntity
  8
SEIHIN
100
AcDbCircle
 10
234.6585703544917
 20
543.2089070896185
 30
0.0
 40
0.9999999039302407
100
AcDbArc
 50
287.4576065858208
 51
0.0
  0
LINE
  5
7F8C
330
1A
100
AcDbEntity
  8
SEIHIN
100
AcDbLine
 10
235.6585703544917
 20
549.9089070896185
 30
0.0
 11
235.6585703544917
 21
543.2089070896185
 31
0.0
  0
ARC
  5
7F8D
330
1A
100
AcDbEntity
  8
SEIHIN
100
AcDbCircle
 10
276.05299983788
 20
539.68840340656
 30
0.0
 40
2.732336160781833
100
AcDbArc
 50
353.7965603283072
 51
69.93928556624998
  0
LINE
  5
7F8E
330
1A
100
AcDbEntity
  8
SEIHIN
100
AcDbLine
 10
286.2558665968473
 20
520.4246640896184
 30
0.0
 11
286.2558665968473
 21
539.3931500896184
 31
0.0
  0
LINE
  5
7F8F
330
1A
100
AcDbEntity
  8
SEIHIN
100
AcDbLine
 10
278.7693365570159
 20
520.4246640896185
 30
0.0
 11
278.7693365570159
 21
539.3931500896185
 31
0.0
  0
ARC
  5
7F90
330
1A
100
AcDbEntity
  8
SEIHIN
100
AcDbCircle
 10
277.2902338423767
 20
543.2089070896186
 30
0.0
 40
0.9999999039302407
100
AcDbArc
 50
180.0
 51
252.5423934141791
  0
LINE
  5
7F91
330
1A
100
AcDbEntity
  8
SEIHIN
100
AcDbLine
 10
276.2902338423767
 20
549.9089070896186
 30
0.0
 11
276.2902338423767
 21
543.2089070896186
 31
0.0
  0
ARC
  5
7F92
330
1A
100
AcDbEntity
  8
SEIHIN
100
AcDbCircle
 10
284.9624048162814
 20
543.2089070896185
 30
0.0
 40
0.9999999039302407
100
AcDbArc
 50
180.0
 51
252.5423934141791
  0
LINE
  5
7F93
330
1A
100
AcDbEntity
  8
SEIHIN
100
AcDbLine
 10
283.9624048162814
 20
549.9089070896185
 30
0.0
 11
283.9624048162814
 21
543.2089070896185
 31
0.0
  0
LINE
  5
7F94
330
1A
100
AcDbEntity
  8
SEIHIN
 48
5.0
100
AcDbLine
 10
346.8001272538174
 20
535.4089070896184
 30
0.0
 11
356.2738478121889
 21
535.4089070896186
 31
0.0
  0
LINE
  5
7F95
330
1A
100
AcDbEntity
  8
SEIHIN
 48
5.0
100
AcDbLine
 10
346.8001272538174
 20
524.4089070896184
 30
0.0
 11
356.2738478121889
 21
524.4089070896184
 31
0.0
  0
LINE
  5
7F96
330
1A
100
AcDbEntity
  8
CENTER L
 48
5.0
100
AcDbLine
 10
395.7738000380934
 20
529.9089070896184
 30
0.0
 11
343.8264544695422
 21
529.9089070896184
 31
0.0
  0
ARC
  5
7F97
330
1A
100
AcDbEntity
  8
SEIHIN
100
AcDbCircle
 10
346.8001272538174
 20
529.9089070896184
 30
0.0
 40
5.5
100
AcDbArc
 50
90.0
 51
270.0
  0
LINE
  5
7F98
330
1A
100
AcDbEntity
  8
CENTER L
 48
5.0
100
AcDbLine
 10
346.8001272538174
 20
519.4398352302459
 30
0.0
 11
346.8001272538174
 21
540.377978948991
 31
0.0
  0
LINE
  5
7F99
330
1A
100
AcDbEntity
  8
SEIHIN
 48
5.0
100
AcDbLine
 10
383.3264066954463
 20
524.4089070896184
 30
0.0
 11
392.8001272538174
 21
524.4089070896184
 31
0.0
  0
LINE
  5
7F9A
330
1A
100
AcDbEntity
  8
SEIHIN
 48
5.0
100
AcDbLine
 10
383.3264066954463
 20
535.4089070896184
 30
0.0
 11
392.8001272538174
 21
535.4089070896184
 31
0.0
  0
LINE
  5
7F9B
330
1A
100
AcDbEntity
  8
SEIHIN
100
AcDbLine
 10
367.8001272538174
 20
538.9089070896184
 30
0.0
 11
371.8001272538174
 21
538.9089070896185
 31
0.0
  0
LINE
  5
7F9C
330
1A
100
AcDbEntity
  8
SEIHIN
100
AcDbLine
 10
367.8001272538174
 20
520.9089070896184
 30
0.0
 11
371.8001272538174
 21
520.9089070896185
 31
0.0
  0
CIRCLE
  5
7F9D
330
1A
100
AcDbEntity
  8
SEIHIN
100
AcDbCircle
 10
369.8001272538174
 20
529.9089070896184
 30
0.0
 40
5.000299846146333
  0
CIRCLE
  5
7F9E
330
1A
100
AcDbEntity
  8
SEIHIN
 62
     2
100
AcDbCircle
 10
369.8001272538174
 20
529.9089070896184
 30
0.0
 40
4.000299846146333
  0
LINE
  5
7F9F
330
1A
100
AcDbEntity
  8
SEIHIN
100
AcDbLine
 10
365.8001272538174
 20
518.9089070896184
 30
0.0
 11
373.8001272538174
 21
518.9089070896184
 31
0.0
  0
LINE
  5
7FA0
330
1A
100
AcDbEntity
  8
SEIHIN
100
AcDbLine
 10
364.7999773307444
 20
521.2483933773939
 30
0.0
 11
374.8002771768908
 21
521.2483933773939
 31
0.0
  0
LINE
  5
7FA1
330
1A
100
AcDbEntity
  8
SEIHIN
100
AcDbLine
 10
365.8001272538174
 20
540.9089070896184
 30
0.0
 11
373.8001272538174
 21
540.9089070896184
 31
0.0
  0
LINE
  5
7FA2
330
1A
100
AcDbEntity
  8
SEIHIN
100
AcDbLine
 10
374.8002771768908
 20
538.5694208018426
 30
0.0
 11
364.7999773307444
 21
538.5694208018426
 31
0.0
  0
LINE
  5
7FA3
330
1A
100
AcDbEntity
  8
SEIHIN
100
AcDbLine
 10
364.7999773307444
 20
538.5694208018426
 30
0.0
 11
359.7998274076715
 21
529.9089070896184
 31
0.0
  0
ARC
  5
7FA4
330
1A
100
AcDbEntity
  8
SEIHIN
100
AcDbCircle
 10
367.8001272538174
 20
529.9089070896184
 30
0.0
 40
9.0
100
AcDbArc
 50
90.0
 51
270.0
  0
ARC
  5
7FA5
330
1A
100
AcDbEntity
  8
SEIHIN
100
AcDbCircle
 10
365.8001272538174
 20
529.9089070896184
 30
0.0
 40
11.0
100
AcDbArc
 50
90.0
 51
270.0
  0
LINE
  5
7FA6
330
1A
100
AcDbEntity
  8
SEIHIN
100
AcDbLine
 10
359.7998274076715
 20
529.9089070896184
 30
0.0
 11
364.7999773307444
 21
521.2483933773939
 31
0.0
  0
LINE
  5
7FA7
330
1A
100
AcDbEntity
  8
SEIHIN
100
AcDbLine
 10
379.800427099964
 20
529.9089070896181
 30
0.0
 11
374.8002771768908
 21
538.5694208018426
 31
0.0
  0
ARC
  5
7FA8
330
1A
100
AcDbEntity
  8
SEIHIN
100
AcDbCircle
 10
373.8001272538174
 20
529.9089070896184
 30
0.0
 40
11.0
100
AcDbArc
 50
270.0
 51
90.0
  0
ARC
  5
7FA9
330
1A
100
AcDbEntity
  8
SEIHIN
100
AcDbCircle
 10
371.8001272538174
 20
529.9089070896184
 30
0.0
 40
9.0
100
AcDbArc
 50
270.0
 51
90.0
  0
LINE
  5
7FAA
330
1A
100
AcDbEntity
  8
SEIHIN
100
AcDbLine
 10
374.8002771768908
 20
521.2483933773939
 30
0.0
 11
379.800427099964
 21
529.9089070896181
 31
0.0
  0
ARC
  5
7FAB
330
1A
100
AcDbEntity
  8
SEIHIN
100
AcDbCircle
 10
392.8001272538174
 20
529.9089070896184
 30
0.0
 40
5.5
100
AcDbArc
 50
270.0
 51
90.0
  0
LINE
  5
7FAC
330
1A
100
AcDbEntity
  8
CENTER L
 48
5.0
100
AcDbLine
 10
392.8001272538174
 20
519.4398352302459
 30
0.0
 11
392.8001272538174
 21
540.377978948991
 31
0.0
  0
LINE
  5
7FAD
330
1A
100
AcDbEntity
  8
CENTER L
 48
5.0
100
AcDbLine
 10
595.6771872538176
 20
441.0396408552511
 30
0.0
 11
595.6771872538176
 21
106.581802855251
 31
0.0
  0
LINE
  5
7FAE
330
1A
100
AcDbEntity
  8
SEIHIN
100
AcDbLine
 10
600.6771872538177
 20
383.960748855251
 30
0.0
 11
600.6771872538177
 21
207.790892855251
 31
0.0
  0
LINE
  5
7FAF
330
1A
100
AcDbEntity
  8
SEIHIN
 62
     2
100
AcDbLine
 10
599.6771872538176
 20
383.960748855251
 30
0.0
 11
599.6771872538176
 21
207.790892855251
 31
0.0
  0
LINE
  5
7FB0
330
1A
100
AcDbEntity
  8
SEIHIN
 62
     2
100
AcDbLine
 10
591.6771872538176
 20
383.960748855251
 30
0.0
 11
591.6771872538176
 21
207.790892855251
 31
0.0
  0
LINE
  5
7FB1
330
1A
100
AcDbEntity
  8
SEIHIN
100
AcDbLine
 10
590.6771872538176
 20
383.960748855251
 30
0.0
 11
590.6771872538176
 21
207.790892855251
 31
0.0
  0
LINE
  5
7FB2
330
1A
100
AcDbEntity
  8
NOKITOI
  6
PHANTOM
 48
5.0
100
AcDbLine
 10
482.4341811812451
 20
174.6472071474073
 30
0.0
 11
469.1248116812451
 21
65.88480584740731
 31
0.0
  0
LINE
  5
7FB3
330
1A
100
AcDbEntity
  8
NOKITOI
  6
PHANTOM
 48
5.0
100
AcDbLine
 10
483.3777925812451
 20
199.6472071474073
 30
0.0
 11
467.0403606812451
 21
66.13988224740731
 31
0.0
  0
LINE
  5
7FB4
330
1A
100
AcDbEntity
  8
NOKITOI
  6
PHANTOM
 48
5.0
100
AcDbLine
 10
481.5966165846296
 20
176.4472071474073
 30
0.0
 11
467.8084426696066
 21
63.77207970880752
 31
0.0
  0
ARC
  5
7FB5
330
1A
100
AcDbEntity
  8
NOKITOI
  6
PHANTOM
 48
5.0
100
AcDbCircle
 10
462.0773820812451
 20
66.74720714740733
 30
0.0
 40
5.000000005910891
100
AcDbArc
 50
270.0
 51
353.0233417399479
  0
ARC
  5
7FB6
330
1A
100
AcDbEntity
  8
NOKITOI
  6
PHANTOM
 48
5.0
100
AcDbCircle
 10
466.5935259812449
 20
61.6472071474073
 30
0.0
 40
1.999999956398826
100
AcDbArc
 50
270.0
 51
352.952857822653
  0
ARC
  5
7FB7
330
1A
100
AcDbEntity
  8
NOKITOI
  6
PHANTOM
 48
5.0
100
AcDbCircle
 10
464.3343576589959
 20
64.19720714740731
 30
0.0
 40
3.5
100
AcDbArc
 50
270.0
 51
353.0233415815437
  0
LINE
  5
7FB8
330
1A
100
AcDbEntity
  8
NOKITOI
  6
PHANTOM
 48
5.0
100
AcDbLine
 10
469.1248116812451
 20
65.88480584740731
 30
0.0
 11
468.578416981245
 21
61.40183524740732
 31
0.0
  0
DIMENSION
  5
7FB9
330
1A
100
AcDbEntity
  8
SUNPOU
100
AcDbDimension
  2
*D11
 10
524.6996682116339
 20
171.5818028552511
 30
0.0
 11
519.6996682116339
 21
144.0818028552512
 31
0.0
 70
    32
 71
     5
 42
-1.0
  3
STANDARD
100
AcDbAlignedDimension
 13
486.2585702538174
 23
116.581802855251
 33
0.0
 14
486.2585702538174
 24
171.5818028552511
 34
0.0
 50
90.0
100
AcDbRotatedDimension
1001
ACAD
1000
DSTYLE
1002
{
1070
   140
1040
6.0
1070
    74
1070
     0
1070
   172
1070
     1
1070
    73
1070
     0
1070
   272
1070
     2
1070
    77
1070
     3
1070
   173
1070
     1
1070
   147
1040
2.0
1070
    42
1040
6.0
1070
    44
1040
3.0
1070
    43
1040
14.0
1070
   271
1070
     0
1070
   178
1070
     4
1070
   177
1070
     4
1070
   176
1070
     4
1070
   141
1040
150.0
1070
     7
1000
_OPEN
1070
     6
1000
_OPEN
1070
    41
1040
7.0
1002
}
  0
ARC
  5
7FBA
330
1A
100
AcDbEntity
  8
SEIHIN
100
AcDbCircle
 10
451.1941852538175
 20
175.0818028552511
 30
0.0
 40
6.800000088281947
100
AcDbArc
 50
270.0
 51
340.0000003138572
  0
LINE
  5
7FBB
330
1A
100
AcDbEntity
  8
SEIHIN
100
AcDbLine
 10
484.2585702538173
 20
173.5818028552511
 30
0.0
 11
484.2585702538173
 21
116.581802855251
 31
0.0
  0
LINE
  5
7FBC
330
1A
100
AcDbEntity
  8
SEIHIN
100
AcDbLine
 10
486.2585702538174
 20
171.5818028552511
 30
0.0
 11
486.2585702538174
 21
116.581802855251
 31
0.0
  0
LINE
  5
7FBD
330
1A
100
AcDbEntity
  8
SEIHIN
100
AcDbLine
 10
486.2585702538174
 20
116.581802855251
 30
0.0
 11
484.2585702538173
 21
116.581802855251
 31
0.0
  0
DIMENSION
  5
7FBE
330
1A
100
AcDbEntity
  8
SUNPOU
100
AcDbDimension
  2
*D12
 10
463.6952576798166
 20
232.2496527204488
 30
0.0
 11
481.7769139668171
 21
237.2496527204488
 31
0.0
 70
    32
 71
     5
 42
-1.0
  3
STANDARD
100
AcDbAlignedDimension
 13
499.8585702538175
 23
201.990892855251
 33
0.0
 14
463.6952576798166
 24
203.5806078303489
 34
0.0
100
AcDbRotatedDimension
1001
ACAD
1000
DSTYLE
1002
{
1070
    41
1040
7.0
1070
    42
1040
6.0
1070
    43
1040
14.0
1070
    44
1040
3.0
1070
    73
1070
     0
1070
    74
1070
     0
1070
    77
1070
     3
1070
   140
1040
6.0
1070
   141
1040
150.0
1070
   147
1040
2.0
1070
   172
1070
     1
1070
   173
1070
     1
1070
   176
1070
     4
1070
   177
1070
     4
1070
   178
1070
     4
1070
   271
1070
     0
1070
   272
1070
     2
1070
   341
1005
6D
1070
     6
1000
OPEN
1070
     7
1000
OPEN
1002
}
  0
LINE
  5
7FBF
330
1A
100
AcDbEntity
  8
NOKITOI
  6
PHANTOM
 48
5.0
100
AcDbLine
 10
493.377792581245
 20
199.6472071474073
 30
0.0
 11
483.3777925812451
 21
199.6472071474073
 31
0.0
  0
LINE
  5
7FC0
330
1A
100
AcDbEntity
  8
NOKITOI
  6
PHANTOM
 48
5.0
100
AcDbLine
 10
493.2777925812449
 20
176.7472071474073
 30
0.0
 11
482.691160481245
 21
176.7472071474073
 31
0.0
  0
LINE
  5
7FC1
330
1A
100
AcDbEntity
  8
NOKITOI
  6
PHANTOM
 48
5.0
100
AcDbLine
 10
493.5777925812451
 20
176.4472071474073
 30
0.0
 11
481.5966165846296
 21
176.4472071474073
 31
0.0
  0
LINE
  5
7FC2
330
1A
100
AcDbEntity
  8
NOKITOI
  6
PHANTOM
 48
5.0
100
AcDbLine
 10
495.3777925812451
 20
174.6472071474073
 30
0.0
 11
482.4341811812451
 21
174.6472071474073
 31
0.0
  0
LINE
  5
7FC3
330
1A
100
AcDbEntity
  8
NOKITOI
  6
PHANTOM
 48
5.0
100
AcDbLine
 10
485.236478281245
 20
197.5472071474073
 30
0.0
 11
482.691160481245
 21
176.7472071474073
 31
0.0
  0
DIMENSION
  5
7FC4
330
1A
100
AcDbEntity
  8
SUNPOU
100
AcDbDimension
  2
*D13
 10
438.7250199848701
 20
174.0818028552511
 30
0.0
 11
433.7250199848701
 21
190.9081253266797
 31
0.0
 70
    32
 71
     5
 42
-1.0
  3
STANDARD
100
AcDbAlignedDimension
 13
493.2513665705985
 23
207.7344477981081
 33
0.0
 14
452.2583632538176
 24
174.0818028552511
 34
0.0
 50
90.0
100
AcDbRotatedDimension
1001
ACAD
1000
DSTYLE
1002
{
1070
   140
1040
6.0
1070
    74
1070
     0
1070
   172
1070
     1
1070
    73
1070
     0
1070
   272
1070
     2
1070
    77
1070
     3
1070
   173
1070
     1
1070
   147
1040
2.0
1070
    42
1040
6.0
1070
    44
1040
3.0
1070
    43
1040
14.0
1070
   271
1070
     0
1070
   178
1070
     4
1070
   177
1070
     4
1070
   176
1070
     4
1070
   141
1040
150.0
1070
     7
1000
_OPEN
1070
     6
1000
_OPEN
1070
    41
1040
7.0
1002
}
  0
LINE
  5
7FC5
330
1A
100
AcDbEntity
  8
SEIHIN
100
AcDbLine
 10
494.9193972538175
 20
203.121701855251
 30
0.0
 11
467.8143642538175
 21
199.312337855251
 31
0.0
  0
LINE
  5
7FC6
330
1A
100
AcDbEntity
  8
SEIHIN
100
AcDbLine
 10
494.6410512538175
 20
205.102237855251
 30
0.0
 11
467.5360182538176
 21
201.292873855251
 31
0.0
  0
LINE
  5
7FC7
330
1A
100
AcDbEntity
  8
SEIHIN
100
AcDbLine
 10
493.2513662538174
 20
207.734447855251
 30
0.0
 11
467.1463332538175
 21
204.065624855251
 31
0.0
  0
LINE
  5
7FC8
330
1A
100
AcDbEntity
  8
SEIHIN
100
AcDbLine
 10
455.7047092538176
 20
173.440106855251
 30
0.0
 11
465.1344592538175
 21
199.348130855251
 31
0.0
  0
LINE
  5
7FC9
330
1A
100
AcDbEntity
  8
SEIHIN
100
AcDbLine
 10
457.5840952538176
 20
172.7560658552511
 30
0.0
 11
467.0138442538175
 21
198.664089855251
 31
0.0
  0
LINE
  5
7FCA
330
1A
100
AcDbEntity
  8
SEIHIN
100
AcDbLine
 10
453.1980552538175
 20
174.739782855251
 30
0.0
 11
462.5033202538174
 21
200.305786855251
 31
0.0
  0
ARC
  5
7FCD
330
1A
100
AcDbEntity
  8
SEIHIN
100
AcDbCircle
 10
451.1941852538175
 20
175.0818028552511
 30
0.0
 40
4.80000025080384
100
AcDbArc
 50
270.0
 51
339.9999982155676
  0
ARC
  5
7FCE
330
1A
100
AcDbEntity
  8
SEIHIN
100
AcDbCircle
 10
452.2583632538176
 20
175.0818028552511
 30
0.0
 40
1.000000153662226
100
AcDbArc
 50
269.999999999987
 51
340.0000151478925
  0
ARC
  5
7FD4
330
1A
100
AcDbEntity
  8
SEIHIN
100
AcDbCircle
 10
467.9535372538175
 20
198.322069855251
 30
0.0
 40
1.00000028237192
100
AcDbArc
 50
98.00002631461737
 51
160.0000151479062
  0
ARC
  5
7FD5
330
1A
100
AcDbEntity
  8
SEIHIN
100
AcDbCircle
 10
467.9535372538175
 20
198.322069855251
 30
0.0
 40
3.000000170906156
100
AcDbArc
 50
98.00001841781485
 51
160.0000151479062
  0
ARC
  5
7FD6
330
1A
100
AcDbEntity
  8
SEIHIN
100
AcDbCircle
 10
467.9535372538175
 20
198.322069855251
 30
0.0
 40
5.799999967906939
100
AcDbArc
 50
98.00001476723299
 51
160.0000151479066
  0
DIMENSION
  5
7FD7
330
1A
100
AcDbEntity
  8
SUNPOU
100
AcDbDimension
  2
*D14
 10
524.6996682116339
 20
171.581802855251
 30
0.0
 11
519.6996682116339
 21
189.6581253552511
 31
0.0
 70
    32
 71
     5
 42
-1.0
  3
STANDARD
100
AcDbAlignedDimension
 13
493.2513662538174
 23
207.734447855251
 33
0.0
 14
495.0585702538176
 24
171.581802855251
 34
0.0
 50
90.0
100
AcDbRotatedDimension
1001
ACAD
1000
DSTYLE
1002
{
1070
    41
1040
7.0
1070
    42
1040
6.0
1070
    43
1040
14.0
1070
    44
1040
3.0
1070
    73
1070
     0
1070
    74
1070
     0
1070
    77
1070
     3
1070
   140
1040
6.0
1070
   141
1040
150.0
1070
   147
1040
2.0
1070
   172
1070
     1
1070
   173
1070
     1
1070
   176
1070
     4
1070
   177
1070
     4
1070
   178
1070
     4
1070
   271
1070
     0
1070
   272
1070
     2
1070
   341
1005
6D
1070
     6
1000
OPEN
1070
     7
1000
OPEN
1002
}
  0
LINE
  5
7FD8
330
1A
100
AcDbEntity
  8
NOKITOI
  6
PHANTOM
 48
5.0
100
AcDbLine
 10
493.2777925812449
 20
195.5472071474073
 30
0.0
 11
493.2777925812449
 21
176.7472071474073
 31
0.0
  0
LINE
  5
7FD9
330
1A
100
AcDbEntity
  8
NOKITOI
  6
PHANTOM
 48
5.0
100
AcDbLine
 10
493.5777925812451
 20
195.5472071474073
 30
0.0
 11
493.5777925812451
 21
176.4472071474073
 31
0.0
  0
LINE
  5
7FDA
330
1A
100
AcDbEntity
  8
NOKITOI
  6
PHANTOM
 48
5.0
100
AcDbLine
 10
495.3777925812451
 20
197.6472071474073
 30
0.0
 11
495.3777925812451
 21
174.6472071474073
 31
0.0
  0
LINE
  5
7FDB
330
1A
100
AcDbEntity
  8
SEIHIN
100
AcDbLine
 10
499.8585702538175
 20
176.381802855251
 30
0.0
 11
499.8585702538175
 21
201.990892855251
 31
0.0
  0
LINE
  5
7FDC
330
1A
100
AcDbEntity
  8
SEIHIN
100
AcDbLine
 10
496.0585702538176
 20
174.5818028552511
 30
0.0
 11
496.0585702538176
 21
202.131433855251
 31
0.0
  0
LINE
  5
7FDD
330
1A
100
AcDbEntity
  8
SEIHIN
100
AcDbLine
 10
498.0585702538176
 20
174.5818028552511
 30
0.0
 11
498.0585702538176
 21
202.131433855251
 31
0.0
  0
ARC
  5
7FDE
330
1A
100
AcDbEntity
  8
SEIHIN
100
AcDbCircle
 10
495.0585702538176
 20
176.381802855251
 30
0.0
 40
4.799999999999999
100
AcDbArc
 50
270.0
 51
0.0000000000004071
  0
LINE
  5
7FDF
330
1A
100
AcDbEntity
  8
SEIHIN
100
AcDbLine
 10
495.0585702538176
 20
173.5818028552511
 30
0.0
 11
484.2585702538173
 21
173.5818028552511
 31
0.0
  0
LINE
  5
7FE0
330
1A
100
AcDbEntity
  8
SEIHIN
100
AcDbLine
 10
495.0585702538176
 20
171.5818028552511
 30
0.0
 11
484.2585702538173
 21
171.5818028552511
 31
0.0
  0
ARC
  5
7FE1
330
1A
100
AcDbEntity
  8
SEIHIN
100
AcDbCircle
 10
495.0585702538176
 20
174.5818028552511
 30
0.0
 40
1.0
100
AcDbArc
 50
270.000000000013
 51
0.0000000000113991
  0
ARC
  5
7FE2
330
1A
100
AcDbEntity
  8
SEIHIN
100
AcDbCircle
 10
495.0585702538176
 20
174.5818028552511
 30
0.0
 40
3.0
100
AcDbArc
 50
270.0
 51
0.0000000000008142
  0
ARC
  5
7FE3
330
1A
100
AcDbEntity
  8
SEIHIN
100
AcDbCircle
 10
494.0585702538176
 20
201.990892855251
 30
0.0
 40
5.800000100674179
100
AcDbArc
 50
359.9999969796695
 51
97.99999684409526
  0
ARC
  5
7FE4
330
1A
100
AcDbEntity
  8
SEIHIN
100
AcDbCircle
 10
495.0585702538176
 20
202.131433855251
 30
0.0
 40
2.999999946401332
100
AcDbArc
 50
359.9999927536823
 51
98.00000648626799
  0
ARC
  5
7FE5
330
1A
100
AcDbEntity
  8
NOKITOI
  6
PHANTOM
 48
5.0
100
AcDbCircle
 10
491.2777925812449
 20
195.5472071474073
 30
0.0
 40
2.0
100
AcDbArc
 50
0.0
 51
90.0
  0
ARC
  5
7FE6
330
1A
100
AcDbEntity
  8
NOKITOI
  6
PHANTOM
 48
5.0
100
AcDbCircle
 10
491.2777925812449
 20
195.5472071474073
 30
0.0
 40
2.299999999999999
100
AcDbArc
 50
0.0
 51
90.0
  0
LINE
  5
7FE7
330
1A
100
AcDbEntity
  8
NOKITOI
  6
PHANTOM
 48
5.0
100
AcDbLine
 10
491.2777925812449
 20
197.5472071474073
 30
0.0
 11
485.236478281245
 21
197.5472071474073
 31
0.0
  0
LINE
  5
7FE8
330
1A
100
AcDbEntity
  8
NOKITOI
  6
PHANTOM
 48
5.0
100
AcDbLine
 10
491.2777925812449
 20
197.8472071474073
 30
0.0
 11
485.236478281245
 21
197.8472071474073
 31
0.0
  0
ARC
  5
7FE9
330
1A
100
AcDbEntity
  8
NOKITOI
  6
PHANTOM
 48
5.0
100
AcDbCircle
 10
493.377792581245
 20
197.6472071474073
 30
0.0
 40
2.0
100
AcDbArc
 50
0.0
 51
90.0
  0
ARC
  5
7FEA
330
1A
100
AcDbEntity
  8
SEIHIN
100
AcDbCircle
 10
495.0585702538176
 20
202.131433855251
 30
0.0
 40
0.9999999589382483
100
AcDbArc
 50
359.9999963934134
 51
97.9999912132698
  0
DIMENSION
  5
7FEB
330
1A
100
AcDbEntity
  8
SUNPOU
100
AcDbDimension
  2
*D15
 10
615.6780842538175
 20
89.3333106359047
 30
0.0
 11
595.6780842538176
 21
94.3333106359047
 31
0.0
 70
    32
 71
     5
 42
-1.0
  3
STANDARD
100
AcDbAlignedDimension
 13
575.6780842538176
 23
171.5818028552511
 33
0.0
 14
615.6780842538175
 24
171.5818028552511
 34
0.0
100
AcDbRotatedDimension
1001
ACAD
1000
DSTYLE
1002
{
1070
   140
1040
6.0
1070
    74
1070
     0
1070
   172
1070
     1
1070
    73
1070
     0
1070
   272
1070
     2
1070
    77
1070
     3
1070
   173
1070
     1
1070
   147
1040
2.0
1070
    42
1040
6.0
1070
    44
1040
3.0
1070
    43
1040
14.0
1070
   271
1070
     0
1070
   178
1070
     4
1070
   177
1070
     4
1070
   176
1070
     4
1070
   141
1040
150.0
1070
     7
1000
_OPEN
1070
     6
1000
_OPEN
1070
    41
1040
7.0
1002
}
  0
ARC
  5
801F
330
1A
100
AcDbEntity
  8
SEIHIN
100
AcDbCircle
 10
497.693198244849
 20
519.6146576666405
 30
0.0
 40
2.311914281708262
100
AcDbArc
 50
297.4399187584081
 51
339.4905333935088
  0
ARC
  5
8020
330
1A
100
AcDbEntity
  8
SEIHIN
100
AcDbCircle
 10
497.693198244849
 20
519.6146576666405
 30
0.0
 40
2.311914281708262
100
AcDbArc
 50
297.4399187584081
 51
339.4905333935088
  0
LINE
  5
8021
330
1A
100
AcDbEntity
  8
SEIHIN
100
AcDbLine
 10
463.6952576798164
 20
518.3998112934387
 30
0.0
 11
463.6952576798164
 21
541.4180028857982
 31
0.0
  0
DIMENSION
  5
8022
330
1A
100
AcDbEntity
  8
SUNPOU
100
AcDbDimension
  2
*D16
 10
541.4963780725741
 20
509.9089070896185
 30
0.0
 11
536.4963780725739
 21
529.9089070896186
 31
0.0
 70
    32
 71
     5
 42
-1.0
  3
STANDARD
100
AcDbAlignedDimension
 13
498.0585702538176
 23
549.9089070896185
 33
0.0
 14
498.0585702538176
 24
509.9089070896185
 34
0.0
 50
90.0
100
AcDbRotatedDimension
1001
ACAD
1000
DSTYLE
1002
{
1070
    41
1040
7.0
1070
    42
1040
6.0
1070
    43
1040
14.0
1070
    44
1040
3.0
1070
    73
1070
     0
1070
    74
1070
     0
1070
    77
1070
     3
1070
   140
1040
6.0
1070
   141
1040
150.0
1070
   147
1040
2.0
1070
   172
1070
     1
1070
   173
1070
     1
1070
   176
1070
   256
1070
   177
1070
   256
1070
   178
1070
   256
1070
   271
1070
     0
1070
   272
1070
     0
1070
   341
1005
6D
1070
     6
1000
OPEN
1070
     7
1000
OPEN
1070
   371
1070
    -1
1070
   372
1070
    -1
1002
}
  0
LINE
  5
8023
330
1A
100
AcDbEntity
  8
SEIHIN
100
AcDbLine
 10
452.958570049381
 20
518.3998112934387
 30
0.0
 11
452.958570049381
 21
541.4180028857982
 31
0.0
  0
ARC
  5
8024
330
1A
100
AcDbEntity
  8
SEIHIN
100
AcDbCircle
 10
453.4341992344077
 20
516.6089070896186
 30
0.0
 40
0.9999999039302407
100
AcDbArc
 50
0.0000000000130276
 51
72.54239341417918
  0
ARC
  5
8025
330
1A
100
AcDbEntity
  8
SEIHIN
100
AcDbCircle
 10
454.8904486201361
 20
519.4122380216217
 30
0.0
 40
2.181092087025118
100
AcDbArc
 50
207.6573855243855
 51
237.9861556504043
  0
ARC
  5
8026
330
1A
100
AcDbEntity
  8
SEIHIN
100
AcDbCircle
 10
454.8904486201361
 20
519.4122380216217
 30
0.0
 40
2.181092087025118
100
AcDbArc
 50
207.6573855243855
 51
237.9861556504043
  0
LINE
  5
8027
330
1A
100
AcDbEntity
  8
SEIHIN
100
AcDbLine
 10
454.4341992344077
 20
509.9089070896185
 30
0.0
 11
454.4341992344077
 21
516.6089070896186
 31
0.0
  0
ARC
  5
8028
330
1A
100
AcDbEntity
  8
SEIHIN
100
AcDbCircle
 10
464.1708868648436
 20
516.6089070896186
 30
0.0
 40
0.9999999039302407
100
AcDbArc
 50
0.0000000000130276
 51
72.54239341417918
  0
ARC
  5
8029
330
1A
100
AcDbEntity
  8
SEIHIN
100
AcDbCircle
 10
465.6271362505719
 20
519.4122380216217
 30
0.0
 40
2.181092087025118
100
AcDbArc
 50
207.6573855243855
 51
237.9861556504043
  0
ARC
  5
802A
330
1A
100
AcDbEntity
  8
SEIHIN
100
AcDbCircle
 10
465.6271362505719
 20
519.4122380216217
 30
0.0
 40
2.181092087025118
100
AcDbArc
 50
207.6573855243855
 51
237.9861556504043
  0
LINE
  5
802B
330
1A
100
AcDbEntity
  8
SEIHIN
100
AcDbLine
 10
465.1708868648436
 20
509.9089070896185
 30
0.0
 11
465.1708868648436
 21
516.6089070896186
 31
0.0
  0
ARC
  5
802C
330
1A
100
AcDbEntity
  8
SEIHIN
100
AcDbCircle
 10
499.0585702538176
 20
516.6089070896186
 30
0.0
 40
0.9999999039302407
100
AcDbArc
 50
107.4576065858208
 51
179.9999999999869
  0
LINE
  5
802D
330
1A
100
AcDbEntity
  8
SEIHIN
100
AcDbLine
 10
498.0585702538176
 20
509.9089070896185
 30
0.0
 11
498.0585702538176
 21
516.6089070896186
 31
0.0
  0
LINE
  5
802E
330
1A
100
AcDbEntity
  8
SEIHIN
100
AcDbLine
 10
610.6775162538176
 20
409.6602548552511
 30
0.0
 11
610.6771872538176
 21
399.6602548552511
 31
0.0
  0
LINE
  5
802F
330
1A
100
AcDbEntity
  8
SEIHIN
100
AcDbLine
 10
580.6775162538176
 20
409.6612428552511
 30
0.0
 11
580.6771872538177
 21
399.6612428552511
 31
0.0
  0
LINE
  5
8030
330
1A
100
AcDbEntity
  8
SEIHIN
100
AcDbLine
 10
610.6771872538176
 20
399.6602548552511
 30
0.0
 11
580.6771872538177
 21
399.6612428552511
 31
0.0
  0
ARC
  5
8031
330
1A
100
AcDbEntity
  8
SEIHIN
100
AcDbCircle
 10
591.3464027066372
 20
389.6486715059267
 30
0.0
 40
5.687779919070464
100
AcDbArc
 50
220.4168415688914
 51
319.5793775127735
  0
ARC
  5
8032
330
1A
100
AcDbEntity
  8
SEIHIN
100
AcDbCircle
 10
600.0069164188344
 20
389.6483857545558
 30
0.0
 40
5.687779919070464
100
AcDbArc
 50
220.4168415688914
 51
319.5793775127735
  0
LINE
  5
8033
330
1A
100
AcDbEntity
  8
SEIHIN
100
AcDbLine
 10
591.3462150398356
 20
383.9608915899522
 30
0.0
 11
600.006728752033
 21
383.9606058385813
 31
0.0
  0
LINE
  5
8034
330
1A
100
AcDbEntity
  8
SEIHIN
100
AcDbLine
 10
606.6771872538176
 20
395.6607488552511
 30
0.0
 11
584.6771872538177
 21
395.6607488552511
 31
0.0
  0
LINE
  5
8035
330
1A
100
AcDbEntity
  8
SEIHIN
100
AcDbLine
 10
606.6771872538176
 20
394.4607488552511
 30
0.0
 11
584.6771872538177
 21
394.4607488552511
 31
0.0
  0
LINE
  5
8036
330
1A
100
AcDbEntity
  8
SEIHIN
100
AcDbLine
 10
604.3374469660691
 20
391.9604639243499
 30
0.0
 11
587.0164195415661
 21
391.9610337861523
 31
0.0
  0
LINE
  5
8037
330
1A
100
AcDbEntity
  8
SEIHIN
 62
     2
100
AcDbLine
 10
591.6771872538176
 20
395.6607488552511
 30
0.0
 11
591.6771872538176
 21
399.6607488552511
 31
0.0
  0
LINE
  5
8038
330
1A
100
AcDbEntity
  8
SEIHIN
100
AcDbLine
 10
590.6771872538176
 20
395.6607488552511
 30
0.0
 11
590.6771872538176
 21
399.6607488552511
 31
0.0
  0
LINE
  5
8039
330
1A
100
AcDbEntity
  8
SEIHIN
100
AcDbLine
 10
584.6771872538177
 20
395.6607488552511
 30
0.0
 11
584.6771872538177
 21
394.4607488552511
 31
0.0
  0
LINE
  5
803A
330
1A
100
AcDbEntity
  8
SEIHIN
100
AcDbLine
 10
586.6769112538177
 20
394.4612088555576
 30
0.0
 11
588.1769102538176
 21
391.9612088555576
 31
0.0
  0
LINE
  5
803B
330
1A
100
AcDbEntity
  8
SEIHIN
100
AcDbLine
 10
587.0160241732321
 20
385.9610351131671
 30
0.0
 11
587.0164195415932
 21
391.9610341971899
 31
0.0
  0
LINE
  5
803C
330
1A
100
AcDbEntity
  8
SEIHIN
100
AcDbLine
 10
595.6765378854295
 20
385.9607493617962
 30
0.0
 11
595.6769332538176
 21
391.9607488552511
 31
0.0
  0
LINE
  5
803D
330
1A
100
AcDbEntity
  8
SEIHIN
 62
     2
100
AcDbLine
 10
599.6771872538176
 20
395.6607488552511
 30
0.0
 11
599.6771872538176
 21
399.6607488552511
 31
0.0
  0
LINE
  5
803E
330
1A
100
AcDbEntity
  8
SEIHIN
100
AcDbLine
 10
600.6771872538177
 20
395.6607488552511
 30
0.0
 11
600.6771872538177
 21
399.6607488552511
 31
0.0
  0
LINE
  5
803F
330
1A
100
AcDbEntity
  8
SEIHIN
100
AcDbLine
 10
603.1771862538175
 20
391.9607488552511
 30
0.0
 11
604.6771872538177
 21
394.4607488552511
 31
0.0
  0
LINE
  5
8040
330
1A
100
AcDbEntity
  8
SEIHIN
100
AcDbLine
 10
604.3370515976269
 20
385.9604636104259
 30
0.0
 11
604.3374469660423
 21
391.9604635149179
 31
0.0
  0
LINE
  5
8041
330
1A
100
AcDbEntity
  8
SEIHIN
100
AcDbLine
 10
606.6771872538176
 20
395.6607488552511
 30
0.0
 11
606.6771872538176
 21
394.4607488552511
 31
0.0
  0
LINE
  5
8042
330
1A
100
AcDbEntity
  8
SEIHIN
100
AcDbLine
 10
610.6775162538176
 20
409.6602548552511
 30
0.0
 11
580.6775162538176
 21
409.6612428552511
 31
0.0
  0
LINE
  5
8043
330
1A
100
AcDbEntity
  8
SEIHIN
100
AcDbLine
 10
591.3469961977266
 20
421.3608914891946
 30
0.0
 11
600.0075099099508
 21
421.3606065582935
 31
0.0
  0
ARC
  5
8044
330
1A
100
AcDbEntity
  8
SEIHIN
100
AcDbCircle
 10
600.0073227819914
 20
415.6728266423012
 30
0.0
 40
5.687779919070464
100
AcDbArc
 50
40.41684699691262
 51
139.5793829407969
  0
LINE
  5
8045
330
1A
100
AcDbEntity
  8
SEIHIN
100
AcDbLine
 10
606.6771872538176
 20
410.8603865994195
 30
0.0
 11
584.6768982538176
 21
410.8607488552511
 31
0.0
  0
LINE
  5
8046
330
1A
100
AcDbEntity
  8
SEIHIN
100
AcDbLine
 10
587.016673541593
 20
413.3610338006282
 30
0.0
 11
604.3377009660418
 21
413.3604639388259
 31
0.0
  0
LINE
  5
8047
330
1A
100
AcDbEntity
  8
SEIHIN
100
AcDbLine
 10
606.6771872538176
 20
409.6603865994195
 30
0.0
 11
584.6768982538176
 21
409.6607488552511
 31
0.0
  0
LINE
  5
8048
330
1A
100
AcDbEntity
  8
SEIHIN
100
AcDbLine
 10
590.6771872538176
 20
425.081967855251
 30
0.0
 11
600.6771872538177
 21
425.081967855251
 31
0.0
  0
ARC
  5
8049
330
1A
100
AcDbEntity
  8
SEIHIN
100
AcDbCircle
 10
591.3468090697672
 20
415.6731115732023
 30
0.0
 40
5.687779919070464
100
AcDbArc
 50
40.41684699691262
 51
139.5793829407969
  0
LINE
  5
804A
330
1A
100
AcDbEntity
  8
SEIHIN
100
AcDbLine
 10
587.016673541593
 20
419.3610333071094
 30
0.0
 11
587.016673541593
 21
413.3610342100602
 31
0.0
  0
LINE
  5
804B
330
1A
100
AcDbEntity
  8
SEIHIN
100
AcDbLine
 10
586.6768982538176
 20
410.8602671882636
 30
0.0
 11
588.1768972538177
 21
413.3602671882636
 31
0.0
  0
LINE
  5
804C
330
1A
100
AcDbEntity
  8
SEIHIN
100
AcDbLine
 10
584.6768982538176
 20
410.8607488552511
 30
0.0
 11
584.6768982538176
 21
409.6607488552511
 31
0.0
  0
LINE
  5
804D
330
1A
100
AcDbEntity
  8
SEIHIN
100
AcDbLine
 10
595.6771872538174
 20
419.3607483762083
 30
0.0
 11
595.6771872538176
 21
413.3607488697271
 31
0.0
  0
LINE
  5
804E
330
1A
100
AcDbEntity
  8
SEIHIN
100
AcDbLine
 10
590.6771872538176
 20
421.360912855251
 30
0.0
 11
590.6771872538176
 21
425.081967855251
 31
0.0
  0
LINE
  5
804F
330
1A
100
AcDbEntity
  8
SEIHIN
 62
     2
100
AcDbLine
 10
591.6771872538176
 20
421.360912855251
 30
0.0
 11
591.6771872538176
 21
425.081967855251
 31
0.0
  0
LINE
  5
8050
330
1A
100
AcDbEntity
  8
SEIHIN
100
AcDbLine
 10
603.1768972538177
 20
413.3607488552511
 30
0.0
 11
604.6768982538176
 21
410.8607488552511
 31
0.0
  0
LINE
  5
8051
330
1A
100
AcDbEntity
  8
SEIHIN
100
AcDbLine
 10
604.3377009660421
 20
419.3604634453066
 30
0.0
 11
604.3377009660418
 21
413.3604635277882
 31
0.0
  0
LINE
  5
8052
330
1A
100
AcDbEntity
  8
SEIHIN
100
AcDbLine
 10
606.6771872538176
 20
410.8603865994195
 30
0.0
 11
606.6771872538176
 21
409.6603865994195
 31
0.0
  0
LINE
  5
8053
330
1A
100
AcDbEntity
  8
SEIHIN
100
AcDbLine
 10
600.6771872538177
 20
421.360912855251
 30
0.0
 11
600.6771872538177
 21
425.081967855251
 31
0.0
  0
LINE
  5
8054
330
1A
100
AcDbEntity
  8
SEIHIN
 62
     2
100
AcDbLine
 10
599.6771872538176
 20
421.360912855251
 30
0.0
 11
599.6771872538176
 21
425.081967855251
 31
0.0
  0
ARC
  5
8055
330
1A
100
AcDbEntity
  8
SEIHIN
100
AcDbCircle
 10
465.6271362505719
 20
540.4055761576151
 30
0.0
 40
2.181092087025164
100
AcDbArc
 50
122.0138443496043
 51
152.3426144756144
  0
ARC
  5
8056
330
1A
100
AcDbEntity
  8
SEIHIN
100
AcDbCircle
 10
454.8904486201365
 20
540.4055761576151
 30
0.0
 40
2.181092087025164
100
AcDbArc
 50
122.0138443496043
 51
152.3426144756144
  0
ARC
  5
8057
330
1A
100
AcDbEntity
  8
SEIHIN
100
AcDbCircle
 10
453.4341992344077
 20
543.2089070896185
 30
0.0
 40
0.9999999039302407
100
AcDbArc
 50
287.4576065858208
 51
0.0
  0
LINE
  5
8058
330
1A
100
AcDbEntity
  8
SEIHIN
100
AcDbLine
 10
454.4341992344077
 20
549.9089070896185
 30
0.0
 11
454.4341992344077
 21
543.2089070896185
 31
0.0
  0
ARC
  5
8059
330
1A
100
AcDbEntity
  8
SEIHIN
100
AcDbCircle
 10
464.1708868648436
 20
543.2089070896185
 30
0.0
 40
0.9999999039302407
100
AcDbArc
 50
287.4576065858208
 51
0.0
  0
LINE
  5
805A
330
1A
100
AcDbEntity
  8
SEIHIN
100
AcDbLine
 10
465.1708868648436
 20
549.9089070896185
 30
0.0
 11
465.1708868648436
 21
543.2089070896185
 31
0.0
  0
ARC
  5
805B
330
1A
100
AcDbEntity
  8
SEIHIN
100
AcDbCircle
 10
497.693198244849
 20
540.2031565125963
 30
0.0
 40
2.311914281708274
100
AcDbArc
 50
20.50946660649113
 51
62.56008124159975
  0
LINE
  5
805C
330
1A
100
AcDbEntity
  8
SEIHIN
100
AcDbLine
 10
499.8585702538175
 20
518.8046504390539
 30
0.0
 11
499.8585702538175
 21
541.0131637401831
 31
0.0
  0
ARC
  5
805D
330
1A
100
AcDbEntity
  8
SEIHIN
100
AcDbCircle
 10
499.0585702538176
 20
543.2089070896185
 30
0.0
 40
0.9999999039302407
100
AcDbArc
 50
180.0
 51
252.5423934141791
  0
LINE
  5
805E
330
1A
100
AcDbEntity
  8
SEIHIN
100
AcDbLine
 10
498.0585702538176
 20
549.9089070896185
 30
0.0
 11
498.0585702538176
 21
543.2089070896185
 31
0.0
  0
TEXT
  5
81A6
330
1A
100
AcDbEntity
  8
moji
100
AcDbText
 10
250.3563742441401
 20
32.2021088856336
 30
0.0
 40
5.599999999999999
  1
亜鉛メッキ金具折版（吊）
 41
0.9
  7
ｽﾀｲﾙ1
100
AcDbText
  0
TEXT
  5
81AA
330
1A
100
AcDbEntity
  8
moji
100
AcDbText
 10
471.8207179041578
 20
25.22659800652617
 30
0.0
 40
5.599999999999999
  1
ＬＧ７３
 41
0.9
  7
ｽﾀｲﾙ1
100
AcDbText
  0
DIMENSION
  5
8343
330
1A
100
AcDbEntity
  8
SUNPOU
100
AcDbDimension
  2
*D17
 10
606.6771872538176
 20
447.4116647155251
 30
0.0
 11
595.6770427538176
 21
452.4116647155251
 31
0.0
 70
    32
 71
     5
 42
-1.0
  3
STANDARD
100
AcDbAlignedDimension
 13
584.6768982538176
 23
410.8607488552511
 33
0.0
 14
606.6771872538176
 24
410.8603865994195
 34
0.0
100
AcDbRotatedDimension
1001
ACAD
1000
DSTYLE
1002
{
1070
    41
1040
7.0
1070
    42
1040
6.0
1070
    43
1040
14.0
1070
    44
1040
3.0
1070
    73
1070
     0
1070
    74
1070
     0
1070
    77
1070
     3
1070
   140
1040
6.0
1070
   141
1040
150.0
1070
   147
1040
2.0
1070
   172
1070
     1
1070
   173
1070
     1
1070
   176
1070
   256
1070
   177
1070
   256
1070
   178
1070
   256
1070
   271
1070
     0
1070
   272
1070
     0
1070
   341
1005
6D
1070
     6
1000
OPEN
1070
     7
1000
OPEN
1070
   371
1070
    -1
1070
   372
1070
    -1
1002
}
  0
LINE
  5
861A
330
1A
100
AcDbEntity
  8
SEIHIN
100
AcDbLine
 10
600.6771872538177
 20
171.5818028552511
 30
0.0
 11
600.6771872538177
 21
118.5785958552511
 31
0.0
  0
LINE
  5
861B
330
1A
100
AcDbEntity
  8
SEIHIN
100
AcDbLine
 10
590.6771872538176
 20
171.5785958552511
 30
0.0
 11
590.6771872538176
 21
118.5785958552511
 31
0.0
  0
LINE
  5
861C
330
1A
100
AcDbEntity
  8
SEIHIN
100
AcDbLine
 10
600.6771872538177
 20
171.5785958552511
 30
0.0
 11
600.6771872538177
 21
118.5785958552511
 31
0.0
  0
LINE
  5
861E
330
1A
100
AcDbEntity
  8
SEIHIN
100
AcDbLine
 10
592.5639719052524
 20
116.581802855251
 30
0.0
 11
598.7904026023831
 21
116.581802855251
 31
0.0
  0
ARC
  5
8620
330
1A
100
AcDbEntity
  8
SEIHIN
100
AcDbCircle
 10
592.6771872538177
 20
118.5785958552511
 30
0.0
 40
2.0
100
AcDbArc
 50
180.0
 51
270.0
  0
ARC
  5
8622
330
1A
100
AcDbEntity
  8
SEIHIN
100
AcDbCircle
 10
598.6771872538176
 20
118.5785958552511
 30
0.0
 40
2.0
100
AcDbArc
 50
270.0
 51
0.0000000000016284
  0
ARC
  5
8623
330
1A
100
AcDbEntity
  8
SEIHIN
100
AcDbCircle
 10
598.6771872538176
 20
118.5785958552511
 30
0.0
 40
2.0
100
AcDbArc
 50
270.0
 51
0.0
  0
LINE
  5
8624
330
1A
100
AcDbEntity
  8
SEIHIN
100
AcDbLine
 10
615.6780842538175
 20
204.9908928552511
 30
0.0
 11
615.6780842538175
 21
171.5818028552511
 31
0.0
  0
LINE
  5
8625
330
1A
100
AcDbEntity
  8
SEIHIN
100
AcDbLine
 10
583.3780842538174
 20
173.085608855251
 30
0.0
 11
583.3780842538174
 21
203.569047855251
 31
0.0
  0
LINE
  5
8626
330
1A
100
AcDbEntity
  8
SEIHIN
100
AcDbLine
 10
607.9780842538175
 20
173.085608855251
 30
0.0
 11
607.9780842538175
 21
203.569047855251
 31
0.0
  0
LINE
  5
8627
330
1A
100
AcDbEntity
  8
SEIHIN
100
AcDbLine
 10
575.6780842538176
 20
204.9908928552511
 30
0.0
 11
575.6780842538176
 21
171.5818028552511
 31
0.0
  0
LINE
  5
8628
330
1A
100
AcDbEntity
  8
SEIHIN
100
AcDbLine
 10
575.6780842538176
 20
171.5818028552511
 30
0.0
 11
615.6780842538175
 21
171.5818028552511
 31
0.0
  0
ARC
  5
8629
330
1A
100
AcDbEntity
  8
SEIHIN
100
AcDbCircle
 10
582.3780842538174
 20
171.281802855251
 30
0.0
 40
3.0
100
AcDbArc
 50
270.0
 51
356.1774462707259
  0
LINE
  5
862A
330
1A
100
AcDbEntity
  8
SEIHIN
100
AcDbLine
 10
582.3780842538174
 20
170.2818028552511
 30
0.0
 11
575.6780842538176
 21
170.2818028552511
 31
0.0
  0
LINE
  5
862B
330
1A
100
AcDbEntity
  8
SEIHIN
100
AcDbLine
 10
575.6780842538176
 20
168.281802855251
 30
0.0
 11
582.3780842538174
 21
168.281802855251
 31
0.0
  0
LINE
  5
862C
330
1A
100
AcDbEntity
  8
SEIHIN
100
AcDbLine
 10
575.6780842538176
 20
168.281802855251
 30
0.0
 11
575.6780842538176
 21
170.2818028552511
 31
0.0
  0
ARC
  5
862D
330
1A
100
AcDbEntity
  8
SEIHIN
100
AcDbCircle
 10
586.3730812538176
 20
171.0818028552511
 30
0.0
 40
3.000000008777417
100
AcDbArc
 50
170.4059237715774
 51
177.1340153935301
  0
ARC
  5
862E
330
1A
100
AcDbEntity
  8
SEIHIN
100
AcDbCircle
 10
582.3780842538174
 20
171.281802855251
 30
0.0
 40
0.999999891250238
100
AcDbArc
 50
270.0
 51
357.1340153935301
  0
ARC
  5
862F
330
1A
100
AcDbEntity
  8
SEIHIN
100
AcDbCircle
 10
586.3714099883927
 20
171.0818028552511
 30
0.0
 40
0.9999998251562194
100
AcDbArc
 50
149.9999884324203
 51
180.0
  0
ARC
  5
8630
330
1A
100
AcDbEntity
  8
SEIHIN
100
AcDbCircle
 10
608.9780842538175
 20
171.281802855251
 30
0.0
 40
0.999999891250238
100
AcDbArc
 50
182.8659846064698
 51
270.0
  0
ARC
  5
8631
330
1A
100
AcDbEntity
  8
SEIHIN
100
AcDbCircle
 10
608.9780842538175
 20
171.281802855251
 30
0.0
 40
3.0
100
AcDbArc
 50
183.822553729274
 51
270.0
  0
ARC
  5
8632
330
1A
100
AcDbEntity
  8
SEIHIN
100
AcDbCircle
 10
604.9847585192422
 20
171.0818028552511
 30
0.0
 40
0.9999998251562194
100
AcDbArc
 50
0.0
 51
30.00001156757962
  0
ARC
  5
8633
330
1A
100
AcDbEntity
  8
SEIHIN
100
AcDbCircle
 10
604.9830872538175
 20
171.0818028552511
 30
0.0
 40
3.000000008777417
100
AcDbArc
 50
2.865984606469845
 51
9.594076228422576
  0
LINE
  5
8634
330
1A
100
AcDbEntity
  8
SEIHIN
100
AcDbLine
 10
608.9780842538175
 20
170.2818028552511
 30
0.0
 11
615.6780842538175
 21
170.2818028552511
 31
0.0
  0
LINE
  5
8635
330
1A
100
AcDbEntity
  8
SEIHIN
100
AcDbLine
 10
615.6780842538175
 20
168.281802855251
 30
0.0
 11
608.9780842538175
 21
168.281802855251
 31
0.0
  0
LINE
  5
8636
330
1A
100
AcDbEntity
  8
SEIHIN
100
AcDbLine
 10
615.6780842538175
 20
168.281802855251
 30
0.0
 11
615.6780842538175
 21
170.2818028552511
 31
0.0
  0
ARC
  5
8637
330
1A
100
AcDbEntity
  8
SEIHIN
100
AcDbCircle
 10
586.1938412538177
 20
204.790892855251
 30
0.0
 40
3.000000188760321
100
AcDbArc
 50
89.9999942704175
 51
162.542393414176
  0
ARC
  5
8638
330
1A
100
AcDbEntity
  8
SEIHIN
100
AcDbCircle
 10
586.1938412538177
 20
204.790892855251
 30
0.0
 40
3.000000188760321
100
AcDbArc
 50
89.9999942704175
 51
162.542393414176
  0
LINE
  5
8639
330
1A
100
AcDbEntity
  8
SEIHIN
100
AcDbLine
 10
575.6780842538176
 20
204.9908928552511
 30
0.0
 11
582.3780842538174
 21
204.9908928552511
 31
0.0
  0
ARC
  5
863A
330
1A
100
AcDbEntity
  8
SEIHIN
100
AcDbCircle
 10
582.3780842538174
 20
205.990892855251
 30
0.0
 40
0.9999999039302407
100
AcDbArc
 50
270.0
 51
342.542393414176
  0
LINE
  5
863B
330
1A
100
AcDbEntity
  8
SEIHIN
100
AcDbLine
 10
586.1938412538177
 20
207.790892855251
 30
0.0
 11
605.1623272538174
 21
207.790892855251
 31
0.0
  0
ARC
  5
863C
330
1A
100
AcDbEntity
  8
SEIHIN
100
AcDbCircle
 10
608.9780842538175
 20
205.990892855251
 30
0.0
 40
0.9999999039302407
100
AcDbArc
 50
197.4576065858239
 51
270.0
  0
ARC
  5
863D
330
1A
100
AcDbEntity
  8
SEIHIN
100
AcDbCircle
 10
605.1623272538174
 20
204.790892855251
 30
0.0
 40
3.000000188760321
100
AcDbArc
 50
17.45760658582393
 51
90.00000572957597
  0
LINE
  5
863E
330
1A
100
AcDbEntity
  8
SEIHIN
100
AcDbLine
 10
615.6780842538175
 20
204.9908928552511
 30
0.0
 11
608.9780842538175
 21
204.9908928552511
 31
0.0
  0
ARC
  5
87C1
330
1A
100
AcDbEntity
  8
SEIHIN
100
AcDbCircle
 10
474.9006737538846
 20
173.5818028552511
 30
0.0
 40
2.0
100
AcDbArc
 50
269.999999999987
 51
359.9999999999869
  0
ARC
  5
87C2
330
1A
100
AcDbEntity
  8
SEIHIN
100
AcDbCircle
 10
474.9006737538846
 20
173.5818028552511
 30
0.0
 40
1.5
100
AcDbArc
 50
269.9999999999934
 51
359.9999999999934
  0
ARC
  5
87C3
330
1A
100
AcDbEntity
  8
SEIHIN
100
AcDbCircle
 10
475.7585382538309
 20
173.5818028552511
 30
0.0
 40
2.0
100
AcDbArc
 50
269.999999999987
 51
359.9999999999869
  0
LINE
  5
8882
330
1A
100
AcDbEntity
  8
SEIHIN
100
AcDbLine
 10
456.0779081870809
 20
170.2944360538785
 30
0.0
 11
466.5985024665624
 21
171.5818028552511
 31
0.0
  0
LINE
  5
8883
330
1A
100
AcDbEntity
  8
SEIHIN
100
AcDbLine
 10
456.4457295441742
 20
170.761932050811
 30
0.0
 11
466.5985024665623
 21
172.0818028552511
 31
0.0
  0
LINE
  5
8884
330
1A
100
AcDbEntity
  8
SEIHIN
100
AcDbLine
 10
474.9006737538846
 20
172.0818028552511
 30
0.0
 11
457.2966438731472
 21
172.0818028552511
 31
0.0
  0
LINE
  5
8887
330
1A
100
AcDbEntity
  8
SEIHIN
100
AcDbLine
 10
475.7585382538309
 20
171.5818028552511
 30
0.0
 11
466.5985024665624
 21
171.5818028552511
 31
0.0
  0
LINE
  5
88AB
330
1A
100
AcDbEntity
  8
SEIHIN
100
AcDbLine
 10
477.7585382538309
 20
173.5818028552511
 30
0.0
 11
477.7585382538172
 21
176.5818028552511
 31
0.0
  0
LINE
  5
88AC
330
1A
100
AcDbEntity
  8
SEIHIN
100
AcDbLine
 10
476.4006737538846
 20
173.5818028552511
 30
0.0
 11
476.4006737538241
 21
176.5818028552511
 31
0.0
  0
LINE
  5
88AD
330
1A
100
AcDbEntity
  8
SEIHIN
100
AcDbLine
 10
476.9006737538846
 20
173.5818028552511
 30
0.0
 11
476.9006737538241
 21
176.5818028552511
 31
0.0
  0
LINE
  5
88AE
330
1A
100
AcDbEntity
  8
SEIHIN
100
AcDbLine
 10
476.400673753824
 20
176.5818028552511
 30
0.0
 11
477.7585382538172
 21
176.5818028552511
 31
0.0
  0
LINE
  5
88B5
330
1A
100
AcDbEntity
  8
SEIHIN
100
AcDbLine
 10
255.9585382538176
 20
198.0818028552511
 30
0.0
 11
255.9585382538965
 21
201.0818028552511
 31
0.0
  0
LINE
  5
88B6
330
1A
100
AcDbEntity
  8
SEIHIN
100
AcDbLine
 10
257.1742672538177
 20
198.0818028552511
 30
0.0
 11
257.1742672538272
 21
201.0818028552511
 31
0.0
  0
LINE
  5
88B7
330
1A
100
AcDbEntity
  8
SEIHIN
100
AcDbLine
 10
257.6742672538176
 20
198.0818028552511
 30
0.0
 11
257.6742672538269
 21
201.0818028552511
 31
0.0
  0
LINE
  5
88B8
330
1A
100
AcDbEntity
  8
SEIHIN
100
AcDbLine
 10
259.1742672538177
 20
196.5818028552511
 30
0.0
 11
275.2202419686251
 21
196.5818028552511
 31
0.0
  0
LINE
  5
88B9
330
1A
100
AcDbEntity
  8
SEIHIN
100
AcDbLine
 10
257.9585382538176
 20
196.0818028552511
 30
0.0
 11
265.9162961857171
 21
196.0818028552511
 31
0.0
  0
ARC
  5
88BA
330
1A
100
AcDbEntity
  8
SEIHIN
100
AcDbCircle
 10
257.9585382538176
 20
198.0818028552516
 30
0.0
 40
2.0
100
AcDbArc
 50
180.0000000000162
 51
270.0000000022602
  0
LINE
  5
88BB
330
1A
100
AcDbEntity
  8
SEIHIN
100
AcDbLine
 10
259.0379131626627
 20
196.5818028552511
 30
0.0
 11
259.1742672538272
 21
196.5818028552511
 31
0.0
  0
LINE
  5
88BC
330
1A
100
AcDbEntity
  8
SEIHIN
100
AcDbLine
 10
258.9017471083335
 20
196.6067663233967
 30
0.0
 11
259.0379131627157
 21
196.5818028552511
 31
0.0
  0
ARC
  5
88BD
330
1A
100
AcDbEntity
  8
SEIHIN
100
AcDbCircle
 10
259.1742672538177
 20
198.0818028552516
 30
0.0
 40
2.0
100
AcDbArc
 50
180.0000000000162
 51
261.5819526537609
  0
ARC
  5
88BE
330
1A
100
AcDbEntity
  8
SEIHIN
100
AcDbCircle
 10
259.1742672538177
 20
198.0818028552511
 30
0.0
 40
1.5
100
AcDbArc
 50
179.9999999999967
 51
259.6901715535555
  0
LINE
  5
88BF
330
1A
100
AcDbEntity
  8
SEIHIN
100
AcDbLine
 10
277.4115132132036
 20
193.3530075441137
 30
0.0
 11
279.9367019386481
 21
184.5555677964115
 31
0.0
  0
LINE
  5
88C0
330
1A
100
AcDbEntity
  8
SEIHIN
100
AcDbLine
 10
276.930945138822
 20
193.2149701052451
 30
0.0
 11
280.4357458685452
 21
181.0046854099454
 31
0.0
  0
LINE
  5
88C1
330
1A
100
AcDbEntity
  8
SEIHIN
100
AcDbLine
 10
265.9585382538179
 20
196.5818028552511
 30
0.0
 11
275.8497897361992
 21
194.7684291585919
 31
0.0
  0
LINE
  5
88C2
330
1A
100
AcDbEntity
  8
SEIHIN
100
AcDbLine
 10
265.916296185717
 20
196.081802855251
 30
0.0
 11
275.7597501977467
 21
194.2765184074337
 31
0.0
  0
ARC
  5
88C3
330
1A
100
AcDbEntity
  8
SEIHIN
100
AcDbCircle
 10
275.2202419686246
 20
191.5818028552511
 30
0.0
 40
4.999999892672396
100
AcDbArc
 50
50.39285696194888
 51
89.99999999999349
  0
ARC
  5
88C4
330
1A
100
AcDbEntity
  8
SEIHIN
100
AcDbCircle
 10
275.4891383101587
 20
192.8012152533529
 30
0.0
 40
2.0
100
AcDbArc
 50
16.01542568659968
 51
79.61126776609514
  0
ARC
  5
88C5
330
1A
100
AcDbEntity
  8
SEIHIN
100
AcDbCircle
 10
275.4891639615383
 20
192.8011258871744
 30
0.0
 40
1.5
100
AcDbArc
 50
16.015425686444
 51
79.60747497741426
  0
LINE
  5
88C6
330
1A
100
AcDbEntity
  8
SEIHIN
100
AcDbLine
 10
255.9585382538176
 20
201.0818028552511
 30
0.0
 11
257.6742662538176
 21
201.0818028552511
 31
0.0
  0
VIEWPORT
  5
22
330
17
100
AcDbEntity
 67
     1
  8
0
100
AcDbViewport
 10
313.6808219178082
 20
148.5
 30
0.0
 40
627.3616438356165
 41
297.0
 68
     2
 69
     1
 12
313.6808219178082
 22
148.5
 13
0.0
 23
0.0
 14
1.0
 24
1.0
 15
10.0
 25
10.0
 16
0.0
 26
0.0
 36
1.0
 17
0.0
 27
0.0
 37
0.0
 42
50.0
 43
0.0
 44
0.0
 45
297.0
 50
0.0
 51
0.0
 72
   100
 90
    32768
  1

281
     0
 71
     1
 74
     0
110
0.0
120
0.0
130
0.0
111
1.0
121
0.0
131
0.0
112
0.0
122
1.0
132
0.0
 79
     0
146
0.0
  0
VIEWPORT
  5
64
330
17
100
AcDbEntity
 67
     1
  8
VIEWPORT
100
AcDbViewport
 10
210.0
 20
148.5
 30
0.0
 40
420.0
 41
297.0
 68
     1
 69
     2
 12
420.0
 22
297.0
 13
0.0
 23
0.0
 14
10.0
 24
10.0
 15
0.0
 25
0.0
 16
0.0
 26
0.0
 36
1.0
 17
0.0
 27
0.0
 37
0.0
 42
50.0
 43
0.0
 44
0.0
 45
605.8799999999998
 50
0.0
 51
0.0
 72
   100
 90
    32768
  1

281
     0
 71
     1
 74
     0
110
0.0
120
0.0
130
0.0
111
1.0
121
0.0
131
0.0
112
0.0
122
1.0
132
0.0
 79
     0
146
0.0
  0
ENDSEC
  0
SECTION
  2
OBJECTS
  0
DICTIONARY
  5
C
330
0
100
AcDbDictionary
281
     1
  3
ACAD_GROUP
350
D
  3
ACAD_LAYOUT
350
340
  3
ACAD_MLINESTYLE
350
E
  3
ACAD_PLOTSETTINGS
350
341
  3
ACAD_PLOTSTYLENAME
350
33E
  3
AcDbVariableDictionary
350
11E9
  0
DICTIONARY
  5
385
330
1A
100
AcDbDictionary
280
     1
281
     1
  3
ACAD_LAYOUTSELFREF
360
89B3
  0
DICTIONARY
  5
383
330
17
100
AcDbDictionary
280
     1
281
     1
  3
ACAD_LAYOUTSELFREF
360
89B2
  0
DICTIONARY
  5
D
102
{ACAD_REACTORS
330
C
102
}
330
C
100
AcDbDictionary
281
     1
  0
DICTIONARY
  5
340
102
{ACAD_REACTORS
330
C
102
}
330
C
100
AcDbDictionary
281
     1
  3
Model
350
342
  3
ﾚｲｱｳﾄ1
350
343
  0
DICTIONARY
  5
E
102
{ACAD_REACTORS
330
C
102
}
330
C
100
AcDbDictionary
281
     1
  3
STANDARD
350
13
  0
DICTIONARY
  5
341
102
{ACAD_REACTORS
330
C
102
}
330
C
100
AcDbDictionary
281
     1
  0
ACDBDICTIONARYWDFLT
  5
33E
102
{ACAD_REACTORS
330
C
102
}
330
C
100
AcDbDictionary
281
     1
  3
Normal
350
33F
100
AcDbDictionaryWithDefault
340
33F
1001
ACAD
1000
TREAT_AS_HARD
1070
     0
1000
TREAT_AS_HARD
1070
     0
1000
TREAT_AS_HARD
1070
     0
1000
TREAT_AS_HARD
1070
     0
1000
TREAT_AS_HARD
1070
     0
1000
TREAT_AS_HARD
1070
     0
1000
TREAT_AS_HARD
1070
     0
1000
TREAT_AS_HARD
1070
     0
1000
TREAT_AS_HARD
1070
     0
1000
TREAT_AS_HARD
1070
     0
1000
TREAT_AS_HARD
1070
     0
1000
TREAT_AS_HARD
1070
     0
1000
TREAT_AS_HARD
1070
     0
1000
TREAT_AS_HARD
1070
     0
1000
TREAT_AS_HARD
1070
     0
1000
TREAT_AS_HARD
1070
     0
  0
DICTIONARY
  5
11E9
102
{ACAD_REACTORS
330
C
102
}
330
C
100
AcDbDictionary
281
     1
  3
SORTENTS
350
11EA
  0
XRECORD
  5
89B3
102
{ACAD_REACTORS
330
385
102
}
330
385
100
AcDbXrecord
280
     1
340
1A
  0
XRECORD
  5
89B2
102
{ACAD_REACTORS
330
383
102
}
330
383
100
AcDbXrecord
280
     1
340
17
  0
LAYOUT
  5
342
102
{ACAD_REACTORS
330
340
102
}
330
340
100
AcDbPlotSettings
  1

  2
Acrobat Distiller
  4
A3
  6

 40
3.174999952316284
 41
3.174999952316284
 42
3.17498779296875
 43
3.17498779296875
 44
297.0318298339843
 45
420.1583251953125
 46
0.0
 47
0.0
 48
0.0
 49
0.0
140
0.0
141
0.0
142
1.0
143
2.0
 70
 11952
 72
     1
 73
     1
 74
     2
  7
print.ctb
 75
    17
147
0.5
148
0.0
149
0.0
100
AcDbLayout
  1
Model
 70
     1
 71
     0
 10
0.0
 20
0.0
 11
12.0
 21
9.0
 12
0.0
 22
0.0
 32
0.0
 14
0.0
 24
0.0
 34
0.0
 15
0.0
 25
0.0
 35
0.0
146
0.0
 13
0.0
 23
0.0
 33
0.0
 16
1.0
 26
0.0
 36
0.0
 17
0.0
 27
1.0
 37
0.0
 76
     0
330
1A
  0
LAYOUT
  5
343
102
{ACAD_REACTORS
330
340
102
}
330
340
100
AcDbPlotSettings
  1

  2
Acrobat Distiller
  4

  6

 40
0.0
 41
0.0
 42
0.0
 43
0.0
 44
0.0
 45
0.0
 46
0.0
 47
0.0
 48
0.0
 49
0.0
140
0.0
141
0.0
142
1.0
143
1.0
 70
   688
 72
     0
 73
     0
 74
     5
  7
print.ctb
 75
    16
147
1.0
148
0.0
149
0.0
100
AcDbLayout
  1
ﾚｲｱｳﾄ1
 70
     1
 71
     1
 10
0.0
 20
0.0
 11
420.0
 21
297.0
 12
0.0
 22
0.0
 32
0.0
 14
0.0
 24
0.0
 34
0.0
 15
420.0
 25
297.0
 35
0.0
146
0.0
 13
0.0
 23
0.0
 33
0.0
 16
1.0
 26
0.0
 36
0.0
 17
0.0
 27
1.0
 37
0.0
 76
     0
330
17
331
64
  0
MLINESTYLE
  5
13
102
{ACAD_REACTORS
330
E
102
}
330
E
100
AcDbMlineStyle
  2
STANDARD
 70
     0
  3

 62
     0
 51
90.0
 52
90.0
 71
     2
 49
0.5
 62
   256
  6
BYLAYER
 49
-0.5
 62
   256
  6
BYLAYER
  0
ACDBPLACEHOLDER
  5
33F
102
{ACAD_REACTORS
330
33E
102
}
330
33E
  0
DICTIONARYVAR
  5
11EA
102
{ACAD_REACTORS
330
11E9
102
}
330
11E9
100
DictionaryVariables
280
     0
  1
96
  0
ENDSEC
  0
EOF
