  0
SECTION
  2
HEADER
  9
$ACADVER
  1
AC1012
  9
$DWGCODEPAGE
  3
dos932
  9
$INSBASE
 10
0.0
 20
0.0
 30
0.0
  9
$EXTMIN
 10
9.946609827612064
 20
9.979473180028207
 30
-0.000000000000013
  9
$EXTMAX
 10
807.6607587610688
 20
561.6143395367934
 30
0.0000000000000023
  9
$LIMMIN
 10
0.0
 20
0.0
  9
$LIMMAX
 10
840.0
 20
594.0
  9
$ORTHOMODE
 70
     0
  9
$REGENMODE
 70
     1
  9
$FILLMODE
 70
     1
  9
$QTEXTMODE
 70
     0
  9
$MIRRTEXT
 70
     1
  9
$DRAGMODE
 70
     2
  9
$LTSCALE
 40
2.0
  9
$OSMODE
 70
    63
  9
$ATTMODE
 70
     1
  9
$TEXTSIZE
 40
5.0
  9
$TRACEWID
 40
1.0
  9
$TEXTSTYLE
  7
STANDARD
  9
$CLAYER
  8
SUNPOU
  9
$CELTYPE
  6
BYLAYER
  9
$CECOLOR
 62
   256
  9
$CELTSCALE
 40
1.0
  9
$DELOBJ
 70
     1
  9
$DISPSILH
 70
     0
  9
$DIMSCALE
 40
1.0
  9
$DIMASZ
 40
7.0
  9
$DIMEXO
 40
6.0
  9
$DIMDLI
 40
14.0
  9
$DIMRND
 40
0.0
  9
$DIMDLE
 40
0.0
  9
$DIMEXE
 40
3.0
  9
$DIMTP
 40
0.0
  9
$DIMTM
 40
0.0
  9
$DIMTXT
 40
6.0
  9
$DIMCEN
 40
150.0
  9
$DIMTSZ
 40
0.0
  9
$DIMTOL
 70
     0
  9
$DIMLIM
 70
     0
  9
$DIMTIH
 70
     0
  9
$DIMTOH
 70
     0
  9
$DIMSE1
 70
     0
  9
$DIMSE2
 70
     0
  9
$DIMTAD
 70
     3
  9
$DIMZIN
 70
     0
  9
$DIMBLK
  1

  9
$DIMASO
 70
     1
  9
$DIMSHO
 70
     1
  9
$DIMPOST
  1

  9
$DIMAPOST
  1

  9
$DIMALT
 70
     0
  9
$DIMALTD
 70
     2
  9
$DIMALTF
 40
25.4
  9
$DIMLFAC
 40
1.0
  9
$DIMTOFL
 70
     1
  9
$DIMTVP
 40
0.0
  9
$DIMTIX
 70
     0
  9
$DIMSOXD
 70
     0
  9
$DIMSAH
 70
     1
  9
$DIMBLK1
  1
OPEN
  9
$DIMBLK2
  1
OPEN
  9
$DIMSTYLE
  2
STANDARD
  9
$DIMCLRD
 70
   256
  9
$DIMCLRE
 70
   256
  9
$DIMCLRT
 70
   256
  9
$DIMTFAC
 40
1.0
  9
$DIMGAP
 40
2.0
  9
$DIMJUST
 70
     0
  9
$DIMSD1
 70
     0
  9
$DIMSD2
 70
     0
  9
$DIMTOLJ
 70
     1
  9
$DIMTZIN
 70
     0
  9
$DIMALTZ
 70
     0
  9
$DIMALTTZ
 70
     0
  9
$DIMFIT
 70
     3
  9
$DIMUPT
 70
     0
  9
$DIMUNIT
 70
     2
  9
$DIMDEC
 70
     0
  9
$DIMTDEC
 70
     0
  9
$DIMALTU
 70
     2
  9
$DIMALTTD
 70
     2
  9
$DIMTXSTY
  7
STANDARD
  9
$DIMAUNIT
 70
     0
  9
$LUNITS
 70
     2
  9
$LUPREC
 70
     4
  9
$SKETCHINC
 40
1.0
  9
$FILLETRAD
 40
2.0
  9
$AUNITS
 70
     0
  9
$AUPREC
 70
     0
  9
$MENU
  1
.
  9
$ELEVATION
 40
0.0
  9
$PELEVATION
 40
0.0
  9
$THICKNESS
 40
0.0
  9
$LIMCHECK
 70
     0
  9
$BLIPMODE
 70
     0
  9
$CHAMFERA
 40
20.0
  9
$CHAMFERB
 40
20.0
  9
$CHAMFERC
 40
40.0
  9
$CHAMFERD
 40
0.0
  9
$SKPOLY
 70
     0
  9
$TDCREATE
 40
2451159.834708796
  9
$TDUPDATE
 40
2453703.412885555
  9
$TDINDWG
 40
0.0804643866
  9
$TDUSRTIMER
 40
0.0804643866
  9
$USRTIMER
 70
     1
  9
$ANGBASE
 50
0.0
  9
$ANGDIR
 70
     0
  9
$PDMODE
 70
     0
  9
$PDSIZE
 40
0.0
  9
$PLINEWID
 40
0.0
  9
$COORDS
 70
     1
  9
$SPLFRAME
 70
     0
  9
$SPLINETYPE
 70
     6
  9
$SPLINESEGS
 70
     8
  9
$ATTDIA
 70
     0
  9
$ATTREQ
 70
     1
  9
$HANDLING
 70
 10241
  9
$HANDSEED
  5
1A84
  9
$SURFTAB1
 70
     6
  9
$SURFTAB2
 70
     6
  9
$SURFTYPE
 70
     6
  9
$SURFU
 70
     6
  9
$SURFV
 70
     6
  9
$UCSNAME
  2

  9
$UCSORG
 10
0.0
 20
0.0
 30
0.0
  9
$UCSXDIR
 10
1.0
 20
0.0
 30
0.0
  9
$UCSYDIR
 10
0.0
 20
1.0
 30
0.0
  9
$PUCSNAME
  2

  9
$PUCSORG
 10
0.0
 20
0.0
 30
0.0
  9
$PUCSXDIR
 10
1.0
 20
0.0
 30
0.0
  9
$PUCSYDIR
 10
0.0
 20
1.0
 30
0.0
  9
$USERI1
 70
     0
  9
$USERI2
 70
     0
  9
$USERI3
 70
     0
  9
$USERI4
 70
     0
  9
$USERI5
 70
     0
  9
$USERR1
 40
0.0
  9
$USERR2
 40
0.0
  9
$USERR3
 40
0.0
  9
$USERR4
 40
0.0
  9
$USERR5
 40
0.0
  9
$WORLDVIEW
 70
     1
  9
$SHADEDGE
 70
     3
  9
$SHADEDIF
 70
    70
  9
$TILEMODE
 70
     1
  9
$MAXACTVP
 70
    16
  9
$PINSBASE
 10
0.0
 20
0.0
 30
0.0
  9
$PLIMCHECK
 70
     0
  9
$PEXTMIN
 10
0.0
 20
0.0
 30
0.0
  9
$PEXTMAX
 10
420.0
 20
297.0
 30
0.0
  9
$PLIMMIN
 10
0.0
 20
0.0
  9
$PLIMMAX
 10
420.0
 20
297.0
  9
$UNITMODE
 70
     0
  9
$VISRETAIN
 70
     0
  9
$PLINEGEN
 70
     0
  9
$PSLTSCALE
 70
     1
  9
$TREEDEPTH
 70
  3020
  9
$PICKSTYLE
 70
     1
  9
$CMLSTYLE
  2
STANDARD
  9
$CMLJUST
 70
     0
  9
$CMLSCALE
 40
1.0
  9
$SAVEIMAGES
 70
     1
  0
ENDSEC
  0
SECTION
  2
CLASSES
  0
CLASS
  1
ACDBDICTIONARYWDFLT
  2
AcDbDictionaryWithDefault
  3
AutoCAD 2000
 90
    32768
280
     0
281
     0
  0
CLASS
  1
ACDBPLACEHOLDER
  2
AcDbPlaceHolder
  3
AutoCAD 2000
 90
    32768
280
     0
281
     0
  0
CLASS
  1
LAYOUT
  2
AcDbLayout
  3
AutoCAD 2000
 90
    32768
280
     0
281
     0
  0
CLASS
  1
LONG_TRANSACTION
  2
AcDbLongTransaction
  3
AutoCAD 2000
 90
    32768
280
     0
281
     0
  0
CLASS
  1
LWPOLYLINE
  2
AcDbPolyline
  3
AutoCAD 2000
 90
    32768
280
     0
281
     1
  0
CLASS
  1
HATCH
  2
AcDbHatch
  3
AutoCAD 2000
 90
    32768
280
     0
281
     1
  0
CLASS
  1
XRECORD
  2
AcDbXrecord
  3
AutoCAD 2000
 90
    32768
280
     0
281
     0
  0
CLASS
  1
LONG_TRANSACTION
  2
AcDbLongTransaction
  3
AutoCAD 2000
 90
    32768
280
     0
281
     0
  0
CLASS
  1
LWPOLYLINE
  2
AcDbPolyline
  3
AutoCAD 2000
 90
    32768
280
     0
281
     1
  0
CLASS
  1
HATCH
  2
AcDbHatch
  3
AutoCAD 2000
 90
    32768
280
     0
281
     1
  0
CLASS
  1
XRECORD
  2
AcDbXrecord
  3
AutoCAD 2000
 90
    32768
280
     0
281
     0
  0
CLASS
  1
LONG_TRANSACTION
  2
AcDbLongTransaction
  3
AutoCAD 2000
 90
    32768
280
     0
281
     0
  0
CLASS
  1
LWPOLYLINE
  2
AcDbPolyline
  3
AutoCAD 2000
 90
    32768
280
     0
281
     1
  0
CLASS
  1
HATCH
  2
AcDbHatch
  3
AutoCAD 2000
 90
    32768
280
     0
281
     1
  0
CLASS
  1
XRECORD
  2
AcDbXrecord
  3
AutoCAD 2000
 90
    32768
280
     0
281
     0
  0
CLASS
  1
LONG_TRANSACTION
  2
AcDbLongTransaction
  3
AutoCAD 2000
 90
    32768
280
     0
281
     0
  0
CLASS
  1
LWPOLYLINE
  2
AcDbPolyline
  3
AutoCAD 2000
 90
    32768
280
     0
281
     1
  0
CLASS
  1
HATCH
  2
AcDbHatch
  3
AutoCAD 2000
 90
    32768
280
     0
281
     1
  0
CLASS
  1
XRECORD
  2
AcDbXrecord
  3
AutoCAD 2000
 90
    32768
280
     0
281
     0
  0
CLASS
  1
LONG_TRANSACTION
  2
AcDbLongTransaction
  3
AutoCAD 2000
 90
    32768
280
     0
281
     0
  0
CLASS
  1
LWPOLYLINE
  2
AcDbPolyline
  3
AutoCAD 2000
 90
    32768
280
     0
281
     1
  0
CLASS
  1
HATCH
  2
AcDbHatch
  3
AutoCAD 2000
 90
    32768
280
     0
281
     1
  0
CLASS
  1
XRECORD
  2
AcDbXrecord
  3
AutoCAD 2000
 90
    32768
280
     0
281
     0
  0
CLASS
  1
DICTIONARYVAR
  2
AcDbDictionaryVar
  3
AutoCAD 2000
 90
    32768
280
     0
281
     0
  0
CLASS
  1
LONG_TRANSACTION
  2
AcDbLongTransaction
  3
AutoCAD 2000
 90
    32768
280
     0
281
     0
  0
CLASS
  1
LWPOLYLINE
  2
AcDbPolyline
  3
AutoCAD 2000
 90
    32768
280
     0
281
     1
  0
CLASS
  1
HATCH
  2
AcDbHatch
  3
AutoCAD 2000
 90
    32768
280
     0
281
     1
  0
CLASS
  1
XRECORD
  2
AcDbXrecord
  3
AutoCAD 2000
 90
    32768
280
     0
281
     0
  0
CLASS
  1
LONG_TRANSACTION
  2
AcDbLongTransaction
  3
AutoCAD 2000
 90
    32768
280
     0
281
     0
  0
CLASS
  1
LWPOLYLINE
  2
AcDbPolyline
  3
AutoCAD 2000
 90
    32768
280
     0
281
     1
  0
CLASS
  1
HATCH
  2
AcDbHatch
  3
AutoCAD 2000
 90
    32768
280
     0
281
     1
  0
CLASS
  1
XRECORD
  2
AcDbXrecord
  3
AutoCAD 2000
 90
    32768
280
     0
281
     0
  0
CLASS
  1
LONG_TRANSACTION
  2
AcDbLongTransaction
  3
AutoCAD 2000
 90
    32768
280
     0
281
     0
  0
CLASS
  1
LWPOLYLINE
  2
AcDbPolyline
  3
AutoCAD 2000
 90
    32768
280
     0
281
     1
  0
CLASS
  1
HATCH
  2
AcDbHatch
  3
AutoCAD 2000
 90
    32768
280
     0
281
     1
  0
CLASS
  1
XRECORD
  2
AcDbXrecord
  3
AutoCAD 2000
 90
    32768
280
     0
281
     0
  0
CLASS
  1
LONG_TRANSACTION
  2
AcDbLongTransaction
  3
AutoCAD 2000
 90
    32768
280
     0
281
     0
  0
CLASS
  1
LWPOLYLINE
  2
AcDbPolyline
  3
AutoCAD 2000
 90
    32768
280
     0
281
     1
  0
CLASS
  1
HATCH
  2
AcDbHatch
  3
AutoCAD 2000
 90
    32768
280
     0
281
     1
  0
CLASS
  1
XRECORD
  2
AcDbXrecord
  3
AutoCAD 2000
 90
    32768
280
     0
281
     0
  0
ENDSEC
  0
SECTION
  2
TABLES
  0
TABLE
  2
VPORT
  5
8
330
0
100
AcDbSymbolTable
 70
     2
  0
VPORT
  5
1A5C
330
8
100
AcDbSymbolTableRecord
100
AcDbViewportTableRecord
  2
*ACTIVE
 70
     0
 10
0.0
 20
0.0
 11
1.0
 21
1.0
 12
420.0
 22
297.0
 13
0.0
 23
0.0
 14
5.0
 24
5.0
 15
0.0
 25
0.0
 16
0.0
 26
0.0
 36
1.0
 17
0.0
 27
0.0
 37
0.0
 40
600.7372400756143
 41
1.795454545454545
 42
50.0
 43
0.0
 44
0.0
 50
0.0
 51
0.0
 71
     0
 72
   100
 73
     1
 74
     0
 75
     0
 76
     0
 77
     0
 78
     0
  0
ENDTAB
  0
TABLE
  2
LTYPE
  5
5
330
0
100
AcDbSymbolTable
 70
     2
  0
LTYPE
  5
14
330
5
100
AcDbSymbolTableRecord
100
AcDbLinetypeTableRecord
  2
BYBLOCK
 70
     0
  3

 72
    65
 73
     0
 40
0.0
  0
LTYPE
  5
15
330
5
100
AcDbSymbolTableRecord
100
AcDbLinetypeTableRecord
  2
BYLAYER
 70
     0
  3

 72
    65
 73
     0
 40
0.0
  0
LTYPE
  5
16
330
5
100
AcDbSymbolTableRecord
100
AcDbLinetypeTableRecord
  2
CONTINUOUS
 70
     0
  3
Solid line
 72
    65
 73
     0
 40
0.0
  0
LTYPE
  5
135
330
5
100
AcDbSymbolTableRecord
100
AcDbLinetypeTableRecord
  2
CENTER
 70
     0
  3
____ _ ____ _ ____ _ ____ _ ____ _ ____ _ ____ 
 72
    65
 73
     4
 40
2.0
 49
1.25
 74
     0
 49
-0.25
 74
     0
 49
0.25
 74
     0
 49
-0.25
 74
     0
  0
ENDTAB
  0
TABLE
  2
LAYER
  5
2
330
0
100
AcDbSymbolTable
 70
     8
  0
LAYER
  5
F
330
2
100
AcDbSymbolTableRecord
100
AcDbLayerTableRecord
  2
0
 70
     0
 62
     7
  6
CONTINUOUS
  0
LAYER
  5
62
330
2
100
AcDbSymbolTableRecord
100
AcDbLayerTableRecord
  2
VIEWPORT
 70
     0
 62
     7
  6
CONTINUOUS
  0
LAYER
  5
65
330
2
100
AcDbSymbolTableRecord
100
AcDbLayerTableRecord
  2
ZUWAKU
 70
     0
 62
     7
  6
CONTINUOUS
  0
LAYER
  5
144
330
2
100
AcDbSymbolTableRecord
100
AcDbLayerTableRecord
  2
SEIHIN
 70
     0
 62
     3
  6
CONTINUOUS
  0
LAYER
  5
2B4
330
2
100
AcDbSymbolTableRecord
100
AcDbLayerTableRecord
  2
SUNPOU
 70
     0
 62
     4
  6
CONTINUOUS
  0
LAYER
  5
2B5
330
2
100
AcDbSymbolTableRecord
100
AcDbLayerTableRecord
  2
CENTER_L
 70
     0
 62
     1
  6
CENTER
  0
LAYER
  5
43A
330
2
100
AcDbSymbolTableRecord
100
AcDbLayerTableRecord
  2
DEFPOINTS
 70
     0
 62
     7
  6
CONTINUOUS
  0
LAYER
  5
764
330
2
100
AcDbSymbolTableRecord
100
AcDbLayerTableRecord
  2
MOJI
 70
     0
 62
     2
  6
CONTINUOUS
  0
ENDTAB
  0
TABLE
  2
STYLE
  5
3
330
0
100
AcDbSymbolTable
 70
     2
  0
STYLE
  5
10
330
3
100
AcDbSymbolTableRecord
100
AcDbTextStyleTableRecord
  2
STANDARD
 70
     0
 40
0.0
 41
1.0
 50
0.0
 71
     0
 42
5.0
  3
TXT
  4
A:\Program Files\AutoCAD LT\ms\bigfont.shx
  0
STYLE
  5
765
330
3
100
AcDbSymbolTableRecord
100
AcDbTextStyleTableRecord
  2
ｽﾀｲﾙ1
 70
     0
 40
0.0
 41
1.0
 50
0.0
 71
     0
 42
2.5
  3
MS PGothic.ttf
  4

1001
ACAD
1000
MS PGothic
1071
    32818
  0
ENDTAB
  0
TABLE
  2
VIEW
  5
6
330
0
100
AcDbSymbolTable
 70
     0
  0
ENDTAB
  0
TABLE
  2
UCS
  5
7
330
0
100
AcDbSymbolTable
 70
     0
  0
ENDTAB
  0
TABLE
  2
APPID
  5
9
330
0
100
AcDbSymbolTable
 70
     1
  0
APPID
  5
11
330
9
100
AcDbSymbolTableRecord
100
AcDbRegAppTableRecord
  2
ACAD
 70
     0
  0
ENDTAB
  0
TABLE
  2
DIMSTYLE
  5
A
330
0
100
AcDbSymbolTable
 70
     1
  0
DIMSTYLE
105
1D
102
{ACAD_REACTORS
330
1111
330
1112
330
1115
330
11B4
330
11E3
330
135F
330
13B1
330
13ED
330
1692
330
E77
330
17DF
330
1919
102
}
330
A
100
AcDbSymbolTableRecord
100
AcDbDimStyleTableRecord
  2
STANDARD
 70
     0
  3

  4

  5

  6

  7

 40
1.0
 41
0.18
 42
0.0625
 43
0.38
 44
0.18
 45
0.0
 46
0.0
 47
0.0
 48
0.0
140
0.18
141
0.09
142
0.0
143
25.4
144
1.0
145
0.0
146
1.0
147
0.09
 71
     0
 72
     0
 73
     1
 74
     1
 75
     0
 76
     0
 77
     0
 78
     0
170
     0
171
     2
172
     0
173
     0
174
     0
175
     0
176
     0
177
     0
178
     0
270
     2
271
     4
272
     4
273
     2
274
     2
340
10
275
     0
280
     0
281
     0
282
     0
283
     1
284
     0
285
     0
286
     0
287
     3
288
     0
  0
ENDTAB
  0
TABLE
  2
BLOCK_RECORD
  5
1
330
0
100
AcDbSymbolTable
 70
    14
  0
BLOCK_RECORD
  5
1A
102
{ACAD_XDICTIONARY
360
6C6
102
}
330
1
100
AcDbSymbolTableRecord
100
AcDbBlockTableRecord
  2
*MODEL_SPACE
  0
BLOCK_RECORD
  5
17
102
{ACAD_XDICTIONARY
360
6C4
102
}
330
1
100
AcDbSymbolTableRecord
100
AcDbBlockTableRecord
  2
*PAPER_SPACE
  0
BLOCK_RECORD
  5
6D
330
1
100
AcDbSymbolTableRecord
100
AcDbBlockTableRecord
  2
_OPEN
  0
BLOCK_RECORD
  5
F0D
330
1
100
AcDbSymbolTableRecord
100
AcDbBlockTableRecord
  2
*D1
  0
BLOCK_RECORD
  5
11EE
330
1
100
AcDbSymbolTableRecord
100
AcDbBlockTableRecord
  2
*D2
  0
BLOCK_RECORD
  5
11FC
330
1
100
AcDbSymbolTableRecord
100
AcDbBlockTableRecord
  2
*D3
  0
BLOCK_RECORD
  5
1214
330
1
100
AcDbSymbolTableRecord
100
AcDbBlockTableRecord
  2
*D4
  0
BLOCK_RECORD
  5
125A
330
1
100
AcDbSymbolTableRecord
100
AcDbBlockTableRecord
  2
*D5
  0
BLOCK_RECORD
  5
1266
330
1
100
AcDbSymbolTableRecord
100
AcDbBlockTableRecord
  2
*D6
  0
BLOCK_RECORD
  5
1360
330
1
100
AcDbSymbolTableRecord
100
AcDbBlockTableRecord
  2
*D7
  0
BLOCK_RECORD
  5
13B2
330
1
100
AcDbSymbolTableRecord
100
AcDbBlockTableRecord
  2
*D8
  0
BLOCK_RECORD
  5
13EE
330
1
100
AcDbSymbolTableRecord
100
AcDbBlockTableRecord
  2
*D9
  0
BLOCK_RECORD
  5
14CD
330
1
100
AcDbSymbolTableRecord
100
AcDbBlockTableRecord
  2
*X10
  0
BLOCK_RECORD
  5
1693
330
1
100
AcDbSymbolTableRecord
100
AcDbBlockTableRecord
  2
*D11
  0
BLOCK_RECORD
  5
17E0
330
1
100
AcDbSymbolTableRecord
100
AcDbBlockTableRecord
  2
*D12
  0
BLOCK_RECORD
  5
191A
330
1
100
AcDbSymbolTableRecord
100
AcDbBlockTableRecord
  2
*D13
  0
ENDTAB
  0
ENDSEC
  0
SECTION
  2
BLOCKS
  0
BLOCK
  5
1B
330
1A
100
AcDbEntity
  8
0
100
AcDbBlockBegin
  2
*MODEL_SPACE
 70
     0
 10
0.0
 20
0.0
 30
0.0
  3
*MODEL_SPACE
  1

  0
ENDBLK
  5
1C
330
1A
100
AcDbEntity
  8
0
100
AcDbBlockEnd
  0
BLOCK
  5
18
330
17
100
AcDbEntity
 67
     1
  8
0
100
AcDbBlockBegin
  2
*PAPER_SPACE
 70
     0
 10
0.0
 20
0.0
 30
0.0
  3
*PAPER_SPACE
  1

  0
ENDBLK
  5
19
330
17
100
AcDbEntity
 67
     1
  8
0
100
AcDbBlockEnd
  0
BLOCK
  5
6E
330
6D
100
AcDbEntity
  8
0
100
AcDbBlockBegin
  2
_OPEN
 70
     0
 10
0.0
 20
0.0
 30
0.0
  3
_OPEN
  1

  0
LINE
  5
6F
330
6D
100
AcDbEntity
  8
0
  6
BYBLOCK
 62
     0
100
AcDbLine
 10
-1.0
 20
0.1666666666666666
 30
0.0
 11
0.0
 21
0.0
 31
0.0
  0
LINE
  5
70
330
6D
100
AcDbEntity
  8
0
  6
BYBLOCK
 62
     0
100
AcDbLine
 10
0.0
 20
0.0
 30
0.0
 11
-1.0
 21
-0.1666666666666666
 31
0.0
  0
LINE
  5
71
330
6D
100
AcDbEntity
  8
0
  6
BYBLOCK
 62
     0
100
AcDbLine
 10
0.0
 20
0.0
 30
0.0
 11
-1.0
 21
0.0
 31
0.0
  0
ENDBLK
  5
72
330
6D
100
AcDbEntity
  8
0
100
AcDbBlockEnd
  0
BLOCK
  5
F19
330
F0D
100
AcDbEntity
  8
0
100
AcDbBlockBegin
  2
*D1
 70
     1
 10
0.0
 20
0.0
 30
0.0
  3
*D1
  1

  0
LINE
  5
1A17
330
F0D
100
AcDbEntity
  8
SUNPOU
100
AcDbLine
 10
294.7450692995025
 20
357.6508152409458
 30
0.0
 11
294.7450692995025
 21
381.0972186901523
 31
0.0
  0
LINE
  5
1A18
330
F0D
100
AcDbEntity
  8
SUNPOU
100
AcDbLine
 10
300.7450692995025
 20
357.6508152409458
 30
0.0
 11
300.7450692995025
 21
381.0972186901523
 31
0.0
  0
LINE
  5
1A19
330
F0D
100
AcDbEntity
  8
SUNPOU
100
AcDbLine
 10
287.7450692995025
 20
378.0972186901523
 30
0.0
 11
280.7450692995025
 21
378.0972186901523
 31
0.0
  0
LINE
  5
1A1A
330
F0D
100
AcDbEntity
  8
SUNPOU
100
AcDbLine
 10
307.7450692995025
 20
378.0972186901523
 30
0.0
 11
322.7450692995025
 21
378.0972186901523
 31
0.0
  0
LINE
  5
1A1B
330
F0D
100
AcDbEntity
  8
SUNPOU
100
AcDbLine
 10
294.7450692995025
 20
378.0972186901523
 30
0.0
 11
300.7450692995025
 21
378.0972186901523
 31
0.0
  0
INSERT
  5
1A1C
330
F0D
100
AcDbEntity
  8
SUNPOU
100
AcDbBlockReference
  2
_OPEN
 10
294.7450692995025
 20
378.0972186901523
 30
0.0
 41
7.0
 42
7.0
 43
7.0
  0
INSERT
  5
1A1D
330
F0D
100
AcDbEntity
  8
SUNPOU
100
AcDbBlockReference
  2
_OPEN
 10
300.7450692995025
 20
378.0972186901523
 30
0.0
 41
7.0
 42
7.0
 43
7.0
 50
180.0
  0
MTEXT
  5
1A1E
330
F0D
100
AcDbEntity
  8
SUNPOU
100
AcDbMText
 10
318.7450692995025
 20
383.0972186901523
 30
0.0
 40
6.0
 41
0.0
 71
     5
 72
     1
  1
\A1;6
1001
ACAD
1000
MTEXTBEGIN
1070
    73
1070
     1
1070
    44
1040
1.0
1070
    74
1070
     0
1000
MTEXTEND
  0
POINT
  5
1A1F
330
F0D
100
AcDbEntity
  8
DEFPOINTS
 62
     0
100
AcDbPoint
 10
294.7450692995025
 20
353.6508152409458
 30
0.0
  0
POINT
  5
1A20
330
F0D
100
AcDbEntity
  8
DEFPOINTS
 62
     0
100
AcDbPoint
 10
300.7450692995025
 20
353.6508152409458
 30
0.0
  0
POINT
  5
1A21
330
F0D
100
AcDbEntity
  8
DEFPOINTS
 62
     0
100
AcDbPoint
 10
300.7450692995025
 20
378.0972186901523
 30
0.0
  0
ENDBLK
  5
F1A
330
F0D
100
AcDbEntity
  8
0
100
AcDbBlockEnd
  0
BLOCK
  5
11FA
330
11EE
100
AcDbEntity
  8
0
100
AcDbBlockBegin
  2
*D2
 70
     1
 10
0.0
 20
0.0
 30
0.0
  3
*D2
  1

  0
LINE
  5
1A34
330
11EE
100
AcDbEntity
  8
SUNPOU
100
AcDbLine
 10
386.7656116945113
 20
445.9549724990406
 30
0.0
 11
414.4410793117726
 21
445.9549724990406
 31
0.0
  0
LINE
  5
1A35
330
11EE
100
AcDbEntity
  8
SUNPOU
100
AcDbLine
 10
386.7656116945113
 20
460.9549724990405
 30
0.0
 11
414.4410793117726
 21
460.9549724990405
 31
0.0
  0
LINE
  5
1A36
330
11EE
100
AcDbEntity
  8
SUNPOU
100
AcDbLine
 10
411.4410793117726
 20
438.9549724990406
 30
0.0
 11
411.4410793117726
 21
431.9549724990405
 31
0.0
  0
LINE
  5
1A37
330
11EE
100
AcDbEntity
  8
SUNPOU
100
AcDbLine
 10
411.4410793117726
 20
467.9549724990406
 30
0.0
 11
411.4410793117726
 21
474.9549724990406
 31
0.0
  0
LINE
  5
1A38
330
11EE
100
AcDbEntity
  8
SUNPOU
100
AcDbLine
 10
411.4410793117726
 20
445.9549724990406
 30
0.0
 11
411.4410793117726
 21
460.9549724990405
 31
0.0
  0
INSERT
  5
1A39
330
11EE
100
AcDbEntity
  8
SUNPOU
100
AcDbBlockReference
  2
_OPEN
 10
411.4410793117726
 20
445.9549724990406
 30
0.0
 41
7.0
 42
7.0
 43
7.0
 50
90.0
  0
INSERT
  5
1A3A
330
11EE
100
AcDbEntity
  8
SUNPOU
100
AcDbBlockReference
  2
_OPEN
 10
411.4410793117726
 20
460.9549724990405
 30
0.0
 41
7.0
 42
7.0
 43
7.0
 50
270.0
  0
MTEXT
  5
1A3B
330
11EE
100
AcDbEntity
  8
SUNPOU
100
AcDbMText
 10
406.4410793117725
 20
453.4549724990407
 30
0.0
 40
6.0
 41
0.0
 71
     5
 72
     1
  1
\A1;15
 11
0.0000000000000001
 21
1.0
 31
0.0
1001
ACAD
1000
MTEXTBEGIN
1070
    73
1070
     1
1070
    44
1040
1.0
1070
    74
1070
     0
1000
MTEXTEND
  0
POINT
  5
1A3C
330
11EE
100
AcDbEntity
  8
DEFPOINTS
 62
     0
100
AcDbPoint
 10
382.7656116945113
 20
445.9549724990406
 30
0.0
  0
POINT
  5
1A3D
330
11EE
100
AcDbEntity
  8
DEFPOINTS
 62
     0
100
AcDbPoint
 10
382.7656116945113
 20
460.9549724990406
 30
0.0
  0
POINT
  5
1A3E
330
11EE
100
AcDbEntity
  8
DEFPOINTS
 62
     0
100
AcDbPoint
 10
411.4410793117726
 20
460.9549724990405
 30
0.0
  0
ENDBLK
  5
11FB
330
11EE
100
AcDbEntity
  8
0
100
AcDbBlockEnd
  0
BLOCK
  5
1206
330
11FC
100
AcDbEntity
  8
0
100
AcDbBlockBegin
  2
*D3
 70
     1
 10
0.0
 20
0.0
 30
0.0
  3
*D3
  1

  0
LINE
  5
1A2B
330
11FC
100
AcDbEntity
  8
SUNPOU
100
AcDbLine
 10
386.4209311204506
 20
465.9549724990405
 30
0.0
 11
428.1536832670324
 21
465.9549724990405
 31
0.0
  0
LINE
  5
1A2C
330
11FC
100
AcDbEntity
  8
SUNPOU
100
AcDbLine
 10
386.4209311204506
 20
440.9549724990406
 30
0.0
 11
428.1536832670324
 21
440.9549724990406
 31
0.0
  0
LINE
  5
1A2D
330
11FC
100
AcDbEntity
  8
SUNPOU
100
AcDbLine
 10
425.1536832670324
 20
458.9549724990406
 30
0.0
 11
425.1536832670324
 21
447.9549724990406
 31
0.0
  0
INSERT
  5
1A2E
330
11FC
100
AcDbEntity
  8
SUNPOU
100
AcDbBlockReference
  2
_OPEN
 10
425.1536832670324
 20
465.9549724990405
 30
0.0
 41
7.0
 42
7.0
 43
7.0
 50
90.0
  0
INSERT
  5
1A2F
330
11FC
100
AcDbEntity
  8
SUNPOU
100
AcDbBlockReference
  2
_OPEN
 10
425.1536832670324
 20
440.9549724990406
 30
0.0
 41
7.0
 42
7.0
 43
7.0
 50
270.0
  0
MTEXT
  5
1A30
330
11FC
100
AcDbEntity
  8
SUNPOU
100
AcDbMText
 10
420.1536832670322
 20
453.4549724990407
 30
0.0
 40
6.0
 41
0.0
 71
     5
 72
     1
  1
\A1;25
 11
0.0000000000000001
 21
1.0
 31
0.0
1001
ACAD
1000
MTEXTBEGIN
1070
    73
1070
     1
1070
    44
1040
1.0
1070
    74
1070
     0
1000
MTEXTEND
  0
POINT
  5
1A31
330
11FC
100
AcDbEntity
  8
DEFPOINTS
 62
     0
100
AcDbPoint
 10
382.4209311204506
 20
465.9549724990406
 30
0.0
  0
POINT
  5
1A32
330
11FC
100
AcDbEntity
  8
DEFPOINTS
 62
     0
100
AcDbPoint
 10
382.4209311204506
 20
440.9549724990407
 30
0.0
  0
POINT
  5
1A33
330
11FC
100
AcDbEntity
  8
DEFPOINTS
 62
     0
100
AcDbPoint
 10
425.1536832670324
 20
440.9549724990406
 30
0.0
  0
ENDBLK
  5
1207
330
11FC
100
AcDbEntity
  8
0
100
AcDbBlockEnd
  0
BLOCK
  5
121E
330
1214
100
AcDbEntity
  8
0
100
AcDbBlockBegin
  2
*D4
 70
     1
 10
0.0
 20
0.0
 30
0.0
  3
*D4
  1

  0
LINE
  5
1A22
330
1214
100
AcDbEntity
  8
SUNPOU
100
AcDbLine
 10
306.7450692995027
 20
353.6508152409459
 30
0.0
 11
375.1845451114185
 21
353.6508152409459
 31
0.0
  0
LINE
  5
1A23
330
1214
100
AcDbEntity
  8
SUNPOU
100
AcDbLine
 10
306.7450692995027
 20
310.6349838031103
 30
0.0
 11
375.1845451114185
 21
310.6349838031103
 31
0.0
  0
LINE
  5
1A24
330
1214
100
AcDbEntity
  8
SUNPOU
100
AcDbLine
 10
372.1845451114185
 20
346.6508152409459
 30
0.0
 11
372.1845451114185
 21
317.6349838031104
 31
0.0
  0
INSERT
  5
1A25
330
1214
100
AcDbEntity
  8
SUNPOU
100
AcDbBlockReference
  2
_OPEN
 10
372.1845451114185
 20
353.6508152409459
 30
0.0
 41
7.0
 42
7.0
 43
7.0
 50
90.0
  0
INSERT
  5
1A26
330
1214
100
AcDbEntity
  8
SUNPOU
100
AcDbBlockReference
  2
_OPEN
 10
372.1845451114185
 20
310.6349838031103
 30
0.0
 41
7.0
 42
7.0
 43
7.0
 50
270.0
  0
MTEXT
  5
1A27
330
1214
100
AcDbEntity
  8
SUNPOU
100
AcDbMText
 10
367.1845451114184
 20
332.1428995220281
 30
0.0
 40
6.0
 41
0.0
 71
     5
 72
     1
  1
\A1;43
 11
0.0000000000000001
 21
1.0
 31
0.0
1001
ACAD
1000
MTEXTBEGIN
1070
    73
1070
     1
1070
    44
1040
1.0
1070
    74
1070
     0
1000
MTEXTEND
  0
POINT
  5
1A28
330
1214
100
AcDbEntity
  8
DEFPOINTS
 62
     0
100
AcDbPoint
 10
302.7450692995027
 20
353.6508152409459
 30
0.0
  0
POINT
  5
1A29
330
1214
100
AcDbEntity
  8
DEFPOINTS
 62
     0
100
AcDbPoint
 10
302.7450692995027
 20
310.6349838031103
 30
0.0
  0
POINT
  5
1A2A
330
1214
100
AcDbEntity
  8
DEFPOINTS
 62
     0
100
AcDbPoint
 10
372.1845451114185
 20
310.6349838031103
 30
0.0
  0
ENDBLK
  5
121F
330
1214
100
AcDbEntity
  8
0
100
AcDbBlockEnd
  0
BLOCK
  5
1264
330
125A
100
AcDbEntity
  8
0
100
AcDbBlockBegin
  2
*D5
 70
     1
 10
0.0
 20
0.0
 30
0.0
  3
*D5
  1

  0
LINE
  5
1A53
330
125A
100
AcDbEntity
  8
SUNPOU
100
AcDbLine
 10
521.8371733260089
 20
343.7156150993508
 30
0.0
 11
504.1134826389131
 21
343.7156150993508
 31
0.0
  0
LINE
  5
1A54
330
125A
100
AcDbEntity
  8
SUNPOU
100
AcDbLine
 10
521.8371733260089
 20
323.7156150993508
 30
0.0
 11
504.1134826389131
 21
323.7156150993508
 31
0.0
  0
LINE
  5
1A55
330
125A
100
AcDbEntity
  8
SUNPOU
100
AcDbLine
 10
507.1134826389132
 20
336.7156150993508
 30
0.0
 11
507.1134826389132
 21
330.7156150993508
 31
0.0
  0
INSERT
  5
1A56
330
125A
100
AcDbEntity
  8
SUNPOU
100
AcDbBlockReference
  2
_OPEN
 10
507.1134826389132
 20
343.7156150993508
 30
0.0
 41
7.0
 42
7.0
 43
7.0
 50
90.0
  0
INSERT
  5
1A57
330
125A
100
AcDbEntity
  8
SUNPOU
100
AcDbBlockReference
  2
_OPEN
 10
507.1134826389132
 20
323.7156150993508
 30
0.0
 41
7.0
 42
7.0
 43
7.0
 50
270.0
  0
MTEXT
  5
1A58
330
125A
100
AcDbEntity
  8
SUNPOU
100
AcDbMText
 10
502.1134826389131
 20
333.7156150993509
 30
0.0
 40
6.0
 41
0.0
 71
     5
 72
     1
  1
\A1;20
 11
0.0000000000000001
 21
1.0
 31
0.0
1001
ACAD
1000
MTEXTBEGIN
1070
    73
1070
     1
1070
    44
1040
1.0
1070
    74
1070
     0
1000
MTEXTEND
  0
POINT
  5
1A59
330
125A
100
AcDbEntity
  8
DEFPOINTS
 62
     0
100
AcDbPoint
 10
525.8371733260089
 20
343.7156150993508
 30
0.0
  0
POINT
  5
1A5A
330
125A
100
AcDbEntity
  8
DEFPOINTS
 62
     0
100
AcDbPoint
 10
525.8371733260089
 20
323.7156150993508
 30
0.0
  0
POINT
  5
1A5B
330
125A
100
AcDbEntity
  8
DEFPOINTS
 62
     0
100
AcDbPoint
 10
507.1134826389132
 20
323.7156150993508
 30
0.0
  0
ENDBLK
  5
1265
330
125A
100
AcDbEntity
  8
0
100
AcDbBlockEnd
  0
BLOCK
  5
1270
330
1266
100
AcDbEntity
  8
0
100
AcDbBlockBegin
  2
*D6
 70
     1
 10
0.0
 20
0.0
 30
0.0
  3
*D6
  1

  0
LINE
  5
1A4A
330
1266
100
AcDbEntity
  8
SUNPOU
100
AcDbLine
 10
533.7082652557914
 20
349.6508152409458
 30
0.0
 11
533.7082652557914
 21
381.0972186901523
 31
0.0
  0
LINE
  5
1A4B
330
1266
100
AcDbEntity
  8
SUNPOU
100
AcDbLine
 10
558.7082652557914
 20
349.6508152409459
 30
0.0
 11
558.7082652557914
 21
381.0972186901523
 31
0.0
  0
LINE
  5
1A4C
330
1266
100
AcDbEntity
  8
SUNPOU
100
AcDbLine
 10
540.7082652557915
 20
378.0972186901523
 30
0.0
 11
551.7082652557915
 21
378.0972186901523
 31
0.0
  0
INSERT
  5
1A4D
330
1266
100
AcDbEntity
  8
SUNPOU
100
AcDbBlockReference
  2
_OPEN
 10
533.7082652557914
 20
378.0972186901523
 30
0.0
 41
7.0
 42
7.0
 43
7.0
 50
180.0
  0
INSERT
  5
1A4E
330
1266
100
AcDbEntity
  8
SUNPOU
100
AcDbBlockReference
  2
_OPEN
 10
558.7082652557914
 20
378.0972186901523
 30
0.0
 41
7.0
 42
7.0
 43
7.0
  0
MTEXT
  5
1A4F
330
1266
100
AcDbEntity
  8
SUNPOU
100
AcDbMText
 10
546.2082652557914
 20
383.0972186901523
 30
0.0
 40
6.0
 41
0.0
 71
     5
 72
     1
  1
\A1;25
1001
ACAD
1000
MTEXTBEGIN
1070
    73
1070
     1
1070
    44
1040
1.0
1070
    74
1070
     0
1000
MTEXTEND
  0
POINT
  5
1A50
330
1266
100
AcDbEntity
  8
DEFPOINTS
 62
     0
100
AcDbPoint
 10
533.7082652557914
 20
345.6508152409458
 30
0.0
  0
POINT
  5
1A51
330
1266
100
AcDbEntity
  8
DEFPOINTS
 62
     0
100
AcDbPoint
 10
558.7082652557914
 20
345.6508152409459
 30
0.0
  0
POINT
  5
1A52
330
1266
100
AcDbEntity
  8
DEFPOINTS
 62
     0
100
AcDbPoint
 10
558.7082652557914
 20
378.0972186901523
 30
0.0
  0
ENDBLK
  5
1271
330
1266
100
AcDbEntity
  8
0
100
AcDbBlockEnd
  0
BLOCK
  5
136A
330
1360
100
AcDbEntity
  8
0
100
AcDbBlockBegin
  2
*D7
 70
     1
 10
0.0
 20
0.0
 30
0.0
  3
*D7
  1

  0
LINE
  5
19F0
330
1360
100
AcDbEntity
  8
SUNPOU
100
AcDbLine
 10
308.7450692995027
 20
353.6508152409459
 30
0.0
 11
424.3678892900322
 21
353.6508152409458
 31
0.0
  0
LINE
  5
19F1
330
1360
100
AcDbEntity
  8
SUNPOU
100
AcDbLine
 10
303.8337952821033
 20
134.0854035754011
 30
0.0
 11
424.3678892900322
 21
134.085403575401
 31
0.0
  0
LINE
  5
19F2
330
1360
100
AcDbEntity
  8
SUNPOU
100
AcDbLine
 10
421.3678892900322
 20
346.6508152409458
 30
0.0
 11
421.3678892900322
 21
141.085403575401
 31
0.0
  0
INSERT
  5
19F3
330
1360
100
AcDbEntity
  8
SUNPOU
100
AcDbBlockReference
  2
_OPEN
 10
421.3678892900322
 20
353.6508152409458
 30
0.0
 41
7.0
 42
7.0
 43
7.0
 50
90.0
  0
INSERT
  5
19F4
330
1360
100
AcDbEntity
  8
SUNPOU
100
AcDbBlockReference
  2
_OPEN
 10
421.3678892900322
 20
134.085403575401
 30
0.0
 41
7.0
 42
7.0
 43
7.0
 50
270.0
  0
MTEXT
  5
19F5
330
1360
100
AcDbEntity
  8
SUNPOU
100
AcDbMText
 10
416.3678892900321
 20
243.8681094081735
 30
0.0
 40
6.0
 41
0.0
 71
     5
 72
     1
  1
\A1;220
 11
0.0000000000000001
 21
1.0
 31
0.0
1001
ACAD
1000
MTEXTBEGIN
1070
    73
1070
     1
1070
    44
1040
1.0
1070
    74
1070
     0
1000
MTEXTEND
  0
POINT
  5
19F6
330
1360
100
AcDbEntity
  8
DEFPOINTS
 62
     0
100
AcDbPoint
 10
302.7450692995027
 20
353.6508152409459
 30
0.0
  0
POINT
  5
19F7
330
1360
100
AcDbEntity
  8
DEFPOINTS
 62
     0
100
AcDbPoint
 10
297.8337952821033
 20
134.0854035754011
 30
0.0
  0
POINT
  5
19F8
330
1360
100
AcDbEntity
  8
DEFPOINTS
 62
     0
100
AcDbPoint
 10
421.3678892900322
 20
134.085403575401
 30
0.0
  0
ENDBLK
  5
136B
330
1360
100
AcDbEntity
  8
0
100
AcDbBlockEnd
  0
BLOCK
  5
13BC
330
13B2
100
AcDbEntity
  8
0
100
AcDbBlockBegin
  2
*D8
 70
     1
 10
0.0
 20
0.0
 30
0.0
  3
*D8
  1

  0
LINE
  5
1A0E
330
13B2
100
AcDbEntity
  8
SUNPOU
100
AcDbLine
 10
211.5950692995027
 20
443.9341280286338
 30
0.0
 11
211.5950692995027
 21
412.6544214248672
 31
0.0
  0
LINE
  5
1A0F
330
13B2
100
AcDbEntity
  8
SUNPOU
100
AcDbLine
 10
383.8950692995026
 20
443.9341280286338
 30
0.0
 11
383.8950692995026
 21
412.6544214248672
 31
0.0
  0
LINE
  5
1A10
330
13B2
100
AcDbEntity
  8
SUNPOU
100
AcDbLine
 10
218.5950692995027
 20
415.6544214248671
 30
0.0
 11
376.8950692995026
 21
415.6544214248671
 31
0.0
  0
INSERT
  5
1A11
330
13B2
100
AcDbEntity
  8
SUNPOU
100
AcDbBlockReference
  2
_OPEN
 10
211.5950692995027
 20
415.6544214248671
 30
0.0
 41
7.0
 42
7.0
 43
7.0
 50
180.0
  0
INSERT
  5
1A12
330
13B2
100
AcDbEntity
  8
SUNPOU
100
AcDbBlockReference
  2
_OPEN
 10
383.8950692995026
 20
415.6544214248671
 30
0.0
 41
7.0
 42
7.0
 43
7.0
  0
MTEXT
  5
1A13
330
13B2
100
AcDbEntity
  8
SUNPOU
100
AcDbMText
 10
297.7450692995026
 20
420.6544214248671
 30
0.0
 40
6.0
 41
0.0
 71
     5
 72
     1
  1
\A1;φ172
1001
ACAD
1000
MTEXTBEGIN
1070
    73
1070
     1
1070
    44
1040
1.0
1070
    74
1070
     0
1000
MTEXTEND
  0
POINT
  5
1A14
330
13B2
100
AcDbEntity
  8
DEFPOINTS
 62
     0
100
AcDbPoint
 10
211.5950692995027
 20
447.9341280286338
 30
0.0
  0
POINT
  5
1A15
330
13B2
100
AcDbEntity
  8
DEFPOINTS
 62
     0
100
AcDbPoint
 10
383.8950692995026
 20
447.9341280286338
 30
0.0
  0
POINT
  5
1A16
330
13B2
100
AcDbEntity
  8
DEFPOINTS
 62
     0
100
AcDbPoint
 10
383.8950692995026
 20
415.6544214248671
 30
0.0
  0
ENDBLK
  5
13BD
330
13B2
100
AcDbEntity
  8
0
100
AcDbBlockEnd
  0
BLOCK
  5
13F4
330
13EE
100
AcDbEntity
  8
0
100
AcDbBlockBegin
  2
*D9
 70
     1
 10
0.0
 20
0.0
 30
0.0
  3
*D9
  1

  0
LINE
  5
1A78
330
13EE
100
AcDbEntity
  8
SUNPOU
100
AcDbLine
 10
239.0578784374241
 20
173.0240597964226
 30
0.0
 11
356.432260161581
 21
279.2414995832667
 31
0.0
  0
MTEXT
  5
1A79
330
13EE
100
AcDbEntity
  8
SUNPOU
100
AcDbMText
 10
327.2459874008915
 20
260.3290804913124
 30
0.0
 40
6.0
 41
0.0
 71
     5
 72
     1
  1
\A1;\U+2205172
 11
0.7414679830963806
 21
0.6709882488113972
 31
0.0
  0
INSERT
  5
1A7A
330
13EE
100
AcDbEntity
  8
SUNPOU
100
AcDbBlockReference
  2
_OPEN
 10
233.8676025557495
 20
168.3271420547429
 30
0.0
 41
7.0
 42
7.0
 43
7.0
 50
222.1433842092875
  0
INSERT
  5
1A7B
330
13EE
100
AcDbEntity
  8
SUNPOU
100
AcDbBlockReference
  2
_OPEN
 10
361.6225360432557
 20
283.9384173249464
 30
0.0
 41
7.0
 42
7.0
 43
7.0
 50
42.14338420928757
  0
POINT
  5
1A7C
330
13EE
100
AcDbEntity
  8
DEFPOINTS
 62
     0
100
AcDbPoint
 10
361.6225360432557
 20
283.9384173249464
 30
0.0
  0
POINT
  5
1A7D
330
13EE
100
AcDbEntity
  8
DEFPOINTS
 62
     0
100
AcDbPoint
 10
233.8676025557495
 20
168.3271420547429
 30
0.0
  0
ENDBLK
  5
13F5
330
13EE
100
AcDbEntity
  8
0
100
AcDbBlockEnd
  0
BLOCK
  5
1661
330
14CD
100
AcDbEntity
  8
0
100
AcDbBlockBegin
  2
*X10
 70
     1
 10
0.0
 20
0.0
 30
0.0
  3
*X10
  1

  0
LINE
  5
14CE
330
14CD
100
AcDbEntity
  8
0
 62
     0
100
AcDbLine
 10
69.04221213871108
 20
22.60416951097994
 30
0.0
 11
68.39638120899616
 21
23.25000044069491
 31
0.0
  0
LINE
  5
14CF
330
14CD
100
AcDbEntity
  8
0
 62
     0
100
AcDbLine
 10
69.04221213871108
 20
21.70614389887305
 30
0.0
 11
67.49835559688921
 21
23.25000044069491
 31
0.0
  0
LINE
  5
14D0
330
14CD
100
AcDbEntity
  8
0
 62
     0
100
AcDbLine
 10
69.04221213871102
 20
20.8081182867661
 30
0.0
 11
66.62107819269607
 21
23.22925223278105
 31
0.0
  0
LINE
  5
14D1
330
14CD
100
AcDbEntity
  8
0
 62
     0
100
AcDbLine
 10
69.04221213871108
 20
19.91009267465926
 30
0.0
 11
66.24221213871101
 21
22.71009267465927
 31
0.0
  0
LINE
  5
14D2
330
14CD
100
AcDbEntity
  8
0
 62
     0
100
AcDbLine
 10
69.04221213871108
 20
19.01206706255232
 30
0.0
 11
66.24221213871101
 21
21.81206706255238
 31
0.0
  0
LINE
  5
14D3
330
14CD
100
AcDbEntity
  8
0
 62
     0
100
AcDbLine
 10
69.04221213871102
 20
18.11404145044537
 30
0.0
 11
66.24221213871095
 21
20.91404145044543
 31
0.0
  0
LINE
  5
14D4
330
14CD
100
AcDbEntity
  8
0
 62
     0
100
AcDbLine
 10
64.14221213871099
 20
22.11601583833857
 30
0.0
 11
63.00822753635469
 21
23.25000044069491
 31
0.0
  0
LINE
  5
14D5
330
14CD
100
AcDbEntity
  8
0
 62
     0
100
AcDbLine
 10
69.04221213871108
 20
17.21601583833853
 30
0.0
 11
66.24221213871101
 21
20.0160158383386
 31
0.0
  0
LINE
  5
14D6
330
14CD
100
AcDbEntity
  8
0
 62
     0
100
AcDbLine
 10
64.14221213871099
 20
21.21799022623167
 30
0.0
 11
62.11020192424775
 21
23.25000044069486
 31
0.0
  0
LINE
  5
14D7
330
14CD
100
AcDbEntity
  8
0
 62
     0
100
AcDbLine
 10
69.04221213871102
 20
16.31799022623158
 30
0.0
 11
66.24221213871101
 21
19.11799022623165
 31
0.0
  0
LINE
  5
14D8
330
14CD
100
AcDbEntity
  8
0
 62
     0
100
AcDbLine
 10
64.14221213871099
 20
20.31996461412473
 30
0.0
 11
61.43670117357391
 21
23.0254755792618
 31
0.0
  0
LINE
  5
14D9
330
14CD
100
AcDbEntity
  8
0
 62
     0
100
AcDbLine
 10
69.04221213871102
 20
15.41996461412469
 30
0.0
 11
66.24221213871095
 21
18.2199646141247
 31
0.0
  0
LINE
  5
14DA
330
14CD
100
AcDbEntity
  8
0
 62
     0
100
AcDbLine
 10
64.1422121387111
 20
19.42193900201772
 30
0.0
 11
61.34221213871092
 21
22.22193900201784
 31
0.0
  0
LINE
  5
14DB
330
14CD
100
AcDbEntity
  8
0
 62
     0
100
AcDbLine
 10
69.04221213871108
 20
14.52193900201774
 30
0.0
 11
66.24221213871101
 21
17.32193900201781
 31
0.0
  0
LINE
  5
14DC
330
14CD
100
AcDbEntity
  8
0
 62
     0
100
AcDbLine
 10
64.14221213871105
 20
18.52391338991083
 30
0.0
 11
61.34221213871092
 21
21.32391338991101
 31
0.0
  0
LINE
  5
14DD
330
14CD
100
AcDbEntity
  8
0
 62
     0
100
AcDbLine
 10
69.04221213871102
 20
13.62391338991085
 30
0.0
 11
66.24221213871095
 21
16.42391338991092
 31
0.0
  0
LINE
  5
14DE
330
14CD
100
AcDbEntity
  8
0
 62
     0
100
AcDbLine
 10
64.14221213871105
 20
17.62588777780393
 30
0.0
 11
61.34221213871092
 21
20.42588777780406
 31
0.0
  0
LINE
  5
14DF
330
14CD
100
AcDbEntity
  8
0
 62
     0
100
AcDbLine
 10
69.04221213871102
 20
12.72588777780396
 30
0.0
 11
66.24221213871095
 21
15.52588777780403
 31
0.0
  0
LINE
  5
14E0
330
14CD
100
AcDbEntity
  8
0
 62
     0
100
AcDbLine
 10
64.14221213871099
 20
16.72786216569699
 30
0.0
 11
61.34221213871086
 21
19.52786216569711
 31
0.0
  0
LINE
  5
14E1
330
14CD
100
AcDbEntity
  8
0
 62
     0
100
AcDbLine
 10
69.04221213871096
 20
11.82786216569701
 30
0.0
 11
66.24221213871095
 21
14.62786216569708
 31
0.0
  0
LINE
  5
14E2
330
14CD
100
AcDbEntity
  8
0
 62
     0
100
AcDbLine
 10
64.14221213871105
 20
15.82983655359015
 30
0.0
 11
61.34221213871092
 21
18.62983655359028
 31
0.0
  0
LINE
  5
14E3
330
14CD
100
AcDbEntity
  8
0
 62
     0
100
AcDbLine
 10
57.84221213871098
 20
22.12983655359022
 30
0.0
 11
56.72204825160633
 21
23.25000044069486
 31
0.0
  0
LINE
  5
14E4
330
14CD
100
AcDbEntity
  8
0
 62
     0
100
AcDbLine
 10
69.04221213871102
 20
10.92983655359017
 30
0.0
 11
66.24221213871095
 21
13.72983655359019
 31
0.0
  0
LINE
  5
14E5
330
14CD
100
AcDbEntity
  8
0
 62
     0
100
AcDbLine
 10
64.14221213871105
 20
14.9318109414832
 30
0.0
 11
61.34221213871086
 21
17.73181094148333
 31
0.0
  0
LINE
  5
14E6
330
14CD
100
AcDbEntity
  8
0
 62
     0
100
AcDbLine
 10
57.84221213871092
 20
21.23181094148327
 30
0.0
 11
55.82402263949939
 21
23.25000044069486
 31
0.0
  0
LINE
  5
14E7
330
14CD
100
AcDbEntity
  8
0
 62
     0
100
AcDbLine
 10
69.04221213871102
 20
10.03181094148323
 30
0.0
 11
66.24221213871095
 21
12.83181094148329
 31
0.0
  0
LINE
  5
14E8
330
14CD
100
AcDbEntity
  8
0
 62
     0
100
AcDbLine
 10
64.14221213871099
 20
14.03378532937631
 30
0.0
 11
61.34221213871092
 21
16.83378532937632
 31
0.0
  0
LINE
  5
14E9
330
14CD
100
AcDbEntity
  8
0
 62
     0
100
AcDbLine
 10
57.84221213871092
 20
20.33378532937638
 30
0.0
 11
55.14244941538692
 21
23.03354805270038
 31
0.0
  0
LINE
  5
14EA
330
14CD
100
AcDbEntity
  8
0
 62
     0
100
AcDbLine
 10
69.04221213871096
 20
9.133785329376337
 30
0.0
 11
66.2422121387109
 21
11.93378532937634
 31
0.0
  0
LINE
  5
14EB
330
14CD
100
AcDbEntity
  8
0
 62
     0
100
AcDbLine
 10
64.14221213871105
 20
13.13575971726936
 30
0.0
 11
61.34221213871097
 21
15.93575971726943
 31
0.0
  0
LINE
  5
14EC
330
14CD
100
AcDbEntity
  8
0
 62
     0
100
AcDbLine
 10
57.84221213871098
 20
19.43575971726943
 30
0.0
 11
55.04221213871097
 21
22.23575971726944
 31
0.0
  0
LINE
  5
14ED
330
14CD
100
AcDbEntity
  8
0
 62
     0
100
AcDbLine
 10
69.04221213871102
 20
8.235759717269388
 30
0.0
 11
66.24221213871095
 21
11.03575971726945
 31
0.0
  0
LINE
  5
14EE
330
14CD
100
AcDbEntity
  8
0
 62
     0
100
AcDbLine
 10
64.14221213871099
 20
12.23773410516247
 30
0.0
 11
61.34221213871097
 21
15.03773410516254
 31
0.0
  0
LINE
  5
14EF
330
14CD
100
AcDbEntity
  8
0
 62
     0
100
AcDbLine
 10
57.84221213871103
 20
18.53773410516248
 30
0.0
 11
55.04221213871097
 21
21.33773410516255
 31
0.0
  0
LINE
  5
14F0
330
14CD
100
AcDbEntity
  8
0
 62
     0
100
AcDbLine
 10
68.97024678382121
 20
7.409699460052308
 30
0.0
 11
66.24221213871095
 21
10.13773410516256
 31
0.0
  0
LINE
  5
14F1
330
14CD
100
AcDbEntity
  8
0
 62
     0
100
AcDbLine
 10
64.14221213871105
 20
11.33970849305546
 30
0.0
 11
61.34221213871092
 21
14.13970849305559
 31
0.0
  0
LINE
  5
14F2
330
14CD
100
AcDbEntity
  8
0
 62
     0
100
AcDbLine
 10
57.84221213871098
 20
17.63970849305559
 30
0.0
 11
55.0422121387109
 21
20.4397084930556
 31
0.0
  0
LINE
  5
14F3
330
14CD
100
AcDbEntity
  8
0
 62
     0
100
AcDbLine
 10
68.33192019107173
 20
7.150000440694839
 30
0.0
 11
66.2422121387109
 21
9.239708493055672
 31
0.0
  0
LINE
  5
14F4
330
14CD
100
AcDbEntity
  8
0
 62
     0
100
AcDbLine
 10
57.84221213871098
 20
16.74168288094864
 30
0.0
 11
55.0422121387109
 21
19.54168288094871
 31
0.0
  0
LINE
  5
14F5
330
14CD
100
AcDbEntity
  8
0
 62
     0
100
AcDbLine
 10
64.14221213871105
 20
10.44168288094857
 30
0.0
 11
61.34221213871092
 21
13.2416828809487
 31
0.0
  0
LINE
  5
14F6
330
14CD
100
AcDbEntity
  8
0
 62
     0
100
AcDbLine
 10
52.41721213871096
 20
22.16668288094865
 30
0.0
 11
51.33389457896481
 21
23.25000044069474
 31
0.0
  0
LINE
  5
14F7
330
14CD
100
AcDbEntity
  8
0
 62
     0
100
AcDbLine
 10
67.43389457896483
 20
7.150000440694725
 30
0.0
 11
66.2422121387109
 21
8.341682880948724
 31
0.0
  0
LINE
  5
14F8
330
14CD
100
AcDbEntity
  8
0
 62
     0
100
AcDbLine
 10
57.84221213871098
 20
15.84365726884175
 30
0.0
 11
55.04221213871102
 21
18.64365726884176
 31
0.0
  0
LINE
  5
14F9
330
14CD
100
AcDbEntity
  8
0
 62
     0
100
AcDbLine
 10
52.41721213871096
 20
21.26865726884176
 30
0.0
 11
50.43586896685798
 21
23.2500004406948
 31
0.0
  0
LINE
  5
14FA
330
14CD
100
AcDbEntity
  8
0
 62
     0
100
AcDbLine
 10
64.11625383806546
 20
9.569615569487325
 30
0.0
 11
61.34221213871092
 21
12.34365726884181
 31
0.0
  0
LINE
  5
14FB
330
14CD
100
AcDbEntity
  8
0
 62
     0
100
AcDbLine
 10
57.84221213871098
 20
14.94563165673486
 30
0.0
 11
55.04221213871102
 21
17.74563165673481
 31
0.0
  0
LINE
  5
14FC
330
14CD
100
AcDbEntity
  8
0
 62
     0
100
AcDbLine
 10
52.22163159259713
 20
20.5662122028487
 30
0.0
 11
49.53784335475098
 21
23.25000044069486
 31
0.0
  0
LINE
  5
14FD
330
14CD
100
AcDbEntity
  8
0
 62
     0
100
AcDbLine
 10
63.92326854280821
 20
8.864575252637564
 30
0.0
 11
61.34221213871092
 21
11.44563165673491
 31
0.0
  0
LINE
  5
14FE
330
14CD
100
AcDbEntity
  8
0
 62
     0
100
AcDbLine
 10
57.84221213871098
 20
14.04760604462791
 30
0.0
 11
55.04221213871097
 21
16.84760604462792
 31
0.0
  0
LINE
  5
14FF
330
14CD
100
AcDbEntity
  8
0
 62
     0
100
AcDbLine
 10
51.43981774264398
 20
20.45000044069485
 30
0.0
 11
48.63981774264408
 21
23.25000044069474
 31
0.0
  0
LINE
  5
1500
330
14CD
100
AcDbEntity
  8
0
 62
     0
100
AcDbLine
 10
63.59823666688464
 20
8.291581516454186
 30
0.0
 11
61.27069639955141
 21
10.61912178378747
 31
0.0
  0
LINE
  5
1501
330
14CD
100
AcDbEntity
  8
0
 62
     0
100
AcDbLine
 10
57.84221213871098
 20
13.14958043252107
 30
0.0
 11
55.04221213871102
 21
15.94958043252103
 31
0.0
  0
LINE
  5
1502
330
14CD
100
AcDbEntity
  8
0
 62
     0
100
AcDbLine
 10
50.54179213053714
 20
20.4500004406949
 30
0.0
 11
47.80422540135975
 21
23.18756716987229
 31
0.0
  0
LINE
  5
1503
330
14CD
100
AcDbEntity
  8
0
 62
     0
100
AcDbLine
 10
63.16619486955961
 20
7.825597701672393
 30
0.0
 11
60.8691107610839
 21
10.12268181014809
 31
0.0
  0
LINE
  5
1504
330
14CD
100
AcDbEntity
  8
0
 62
     0
100
AcDbLine
 10
57.84221213871098
 20
12.25155482041413
 30
0.0
 11
55.04221213871097
 21
15.05155482041408
 31
0.0
  0
LINE
  5
1505
330
14CD
100
AcDbEntity
  8
0
 62
     0
100
AcDbLine
 10
49.6437665184302
 20
20.4500004406949
 30
0.0
 11
47.13958497682637
 21
22.95418198229867
 31
0.0
  0
LINE
  5
1506
330
14CD
100
AcDbEntity
  8
0
 62
     0
100
AcDbLine
 10
62.63003252463358
 20
7.463734434491527
 30
0.0
 11
60.14376651843019
 21
9.95000044069485
 31
0.0
  0
LINE
  5
1507
330
14CD
100
AcDbEntity
  8
0
 62
     0
100
AcDbLine
 10
57.84221213871092
 20
11.35352920830718
 30
0.0
 11
55.04221213871097
 21
14.15352920830719
 31
0.0
  0
LINE
  5
1508
330
14CD
100
AcDbEntity
  8
0
 62
     0
100
AcDbLine
 10
48.76753073434139
 20
20.4282106126767
 30
0.0
 11
46.59698403961619
 21
22.59875730740191
 31
0.0
  0
LINE
  5
1509
330
14CD
100
AcDbEntity
  8
0
 62
     0
100
AcDbLine
 10
61.97361996472228
 20
7.222121382295881
 30
0.0
 11
59.2457409063233
 21
9.95000044069485
 31
0.0
  0
LINE
  5
150A
330
14CD
100
AcDbEntity
  8
0
 62
     0
100
AcDbLine
 10
48.39221213871105
 20
19.9055035962001
 30
0.0
 11
46.15887198057163
 21
22.13884375433952
 31
0.0
  0
LINE
  5
150B
330
14CD
100
AcDbEntity
  8
0
 62
     0
100
AcDbLine
 10
61.14771529421642
 20
7.150000440694782
 30
0.0
 11
55.04221213871097
 21
13.25550359620024
 31
0.0
  0
LINE
  5
150C
330
14CD
100
AcDbEntity
  8
0
 62
     0
100
AcDbLine
 10
48.3922121387111
 20
19.00747798409327
 30
0.0
 11
45.82710106821861
 21
21.57258905458576
 31
0.0
  0
LINE
  5
150D
330
14CD
100
AcDbEntity
  8
0
 62
     0
100
AcDbLine
 10
60.24968968210953
 20
7.150000440694782
 30
0.0
 11
55.04221213871097
 21
12.3574779840934
 31
0.0
  0
LINE
  5
150E
330
14CD
100
AcDbEntity
  8
0
 62
     0
100
AcDbLine
 10
48.59875641981483
 20
17.90290809088259
 30
0.0
 11
45.6249225488545
 21
20.87674196184286
 31
0.0
  0
LINE
  5
150F
330
14CD
100
AcDbEntity
  8
0
 62
     0
100
AcDbLine
 10
59.35166407000264
 20
7.150000440694782
 30
0.0
 11
55.04221213871097
 21
11.45945237198645
 31
0.0
  0
LINE
  5
1510
330
14CD
100
AcDbEntity
  8
0
 62
     0
100
AcDbLine
 10
52.81581584140235
 20
12.78782305718812
 30
0.0
 11
45.59221213871097
 21
20.01142675987944
 31
0.0
  0
LINE
  5
1511
330
14CD
100
AcDbEntity
  8
0
 62
     0
100
AcDbLine
 10
43.49221213871089
 20
22.11142675987951
 30
0.0
 11
42.35363845789561
 21
23.25000044069486
 31
0.0
  0
LINE
  5
1512
330
14CD
100
AcDbEntity
  8
0
 62
     0
100
AcDbLine
 10
58.45363845789569
 20
7.150000440694782
 30
0.0
 11
55.0422121387109
 21
10.56142675987951
 31
0.0
  0
LINE
  5
1513
330
14CD
100
AcDbEntity
  8
0
 62
     0
100
AcDbLine
 10
52.94221213871106
 20
11.76340114777258
 30
0.0
 11
45.59221213871103
 21
19.1134011477726
 31
0.0
  0
LINE
  5
1514
330
14CD
100
AcDbEntity
  8
0
 62
     0
100
AcDbLine
 10
43.49221213871101
 20
21.21340114777257
 30
0.0
 11
41.45561284578866
 21
23.25000044069497
 31
0.0
  0
LINE
  5
1515
330
14CD
100
AcDbEntity
  8
0
 62
     0
100
AcDbLine
 10
57.53916496704391
 20
7.166448319439723
 30
0.0
 11
55.05866001745591
 21
9.646953269027733
 31
0.0
  0
LINE
  5
1516
330
14CD
100
AcDbEntity
  8
0
 62
     0
100
AcDbLine
 10
43.49221213871101
 20
20.31537553566568
 30
0.0
 11
40.78482225093568
 21
23.02276542344094
 31
0.0
  0
LINE
  5
1517
330
14CD
100
AcDbEntity
  8
0
 62
     0
100
AcDbLine
 10
52.942212138711
 20
10.86537553566563
 30
0.0
 11
45.61562280659336
 21
18.19196486778332
 31
0.0
  0
LINE
  5
1518
330
14CD
100
AcDbEntity
  8
0
 62
     0
100
AcDbLine
 10
43.49221213871101
 20
19.41734992355873
 30
0.0
 11
40.692212138711
 21
22.21734992355868
 31
0.0
  0
LINE
  5
1519
330
14CD
100
AcDbEntity
  8
0
 62
     0
100
AcDbLine
 10
52.94221213871089
 20
9.967349923558799
 30
0.0
 11
45.93374222443339
 21
16.97581983783635
 31
0.0
  0
LINE
  5
151A
330
14CD
100
AcDbEntity
  8
0
 62
     0
100
AcDbLine
 10
43.49221213871101
 20
18.51932431145184
 30
0.0
 11
40.69221213871105
 21
21.31932431145179
 31
0.0
  0
LINE
  5
151B
330
14CD
100
AcDbEntity
  8
0
 62
     0
100
AcDbLine
 10
52.83365032112192
 20
9.177886129040928
 30
0.0
 11
50.13801553208361
 21
11.87352091807923
 31
0.0
  0
LINE
  5
151C
330
14CD
100
AcDbEntity
  8
0
 62
     0
100
AcDbLine
 10
43.49221213871101
 20
17.62129869934494
 30
0.0
 11
40.692212138711
 21
20.4212986993449
 31
0.0
  0
LINE
  5
151D
330
14CD
100
AcDbEntity
  8
0
 62
     0
100
AcDbLine
 10
38.40072523813399
 20
22.71278559992191
 30
0.0
 11
37.86351039736109
 21
23.25000044069486
 31
0.0
  0
LINE
  5
151E
330
14CD
100
AcDbEntity
  8
0
 62
     0
100
AcDbLine
 10
52.56577461336036
 20
8.547736224695597
 30
0.0
 11
50.14221213871104
 21
10.97129869934491
 31
0.0
  0
LINE
  5
151F
330
14CD
100
AcDbEntity
  8
0
 62
     0
100
AcDbLine
 10
43.49221213871095
 20
16.72327308723799
 30
0.0
 11
40.692212138711
 21
19.52327308723801
 31
0.0
  0
LINE
  5
1520
330
14CD
100
AcDbEntity
  8
0
 62
     0
100
AcDbLine
 10
38.20179757388137
 20
22.01368765206757
 30
0.0
 11
36.96548478525414
 21
23.25000044069486
 31
0.0
  0
LINE
  5
1521
330
14CD
100
AcDbEntity
  8
0
 62
     0
100
AcDbLine
 10
52.18278781518506
 20
8.032697410763944
 30
0.0
 11
50.04492695582456
 21
10.17055827012444
 31
0.0
  0
LINE
  5
1522
330
14CD
100
AcDbEntity
  8
0
 62
     0
100
AcDbLine
 10
43.49221213871095
 20
15.8252474751311
 30
0.0
 11
40.692212138711
 21
18.62524747513106
 31
0.0
  0
LINE
  5
1523
330
14CD
100
AcDbEntity
  8
0
 62
     0
100
AcDbLine
 10
37.98627142697569
 20
21.33118818686631
 30
0.0
 11
36.0770558635051
 21
23.24040375033695
 31
0.0
  0
LINE
  5
1524
330
14CD
100
AcDbEntity
  8
0
 62
     0
100
AcDbLine
 10
51.69646885006944
 20
7.620990763772567
 30
0.0
 11
49.36745917314721
 21
9.95000044069485
 31
0.0
  0
LINE
  5
1525
330
14CD
100
AcDbEntity
  8
0
 62
     0
100
AcDbLine
 10
43.49221213871101
 20
14.92722186302421
 30
0.0
 11
40.692212138711
 21
17.72722186302416
 31
0.0
  0
LINE
  5
1526
330
14CD
100
AcDbEntity
  8
0
 62
     0
100
AcDbLine
 10
37.77074528007017
 20
20.64868872166505
 30
0.0
 11
35.64274528007013
 21
22.77668872166509
 31
0.0
  0
LINE
  5
1527
330
14CD
100
AcDbEntity
  8
0
 62
     0
100
AcDbLine
 10
51.10038490160906
 20
7.319049100126107
 30
0.0
 11
48.46943356104032
 21
9.950000440694907
 31
0.0
  0
LINE
  5
1528
330
14CD
100
AcDbEntity
  8
0
 62
     0
100
AcDbLine
 10
43.49221213871095
 20
14.02919625091732
 30
0.0
 11
40.692212138711
 21
16.82919625091727
 31
0.0
  0
LINE
  5
1529
330
14CD
100
AcDbEntity
  8
0
 62
     0
100
AcDbLine
 10
37.55521913316431
 20
19.96618925646396
 30
0.0
 11
35.42721913316432
 21
22.09418925646394
 31
0.0
  0
LINE
  5
152A
330
14CD
100
AcDbEntity
  8
0
 62
     0
100
AcDbLine
 10
50.36271224996159
 20
7.158696139666687
 30
0.0
 11
47.57140794893342
 21
9.95000044069485
 31
0.0
  0
LINE
  5
152B
330
14CD
100
AcDbEntity
  8
0
 62
     0
100
AcDbLine
 10
43.49221213871095
 20
13.13117063881037
 30
0.0
 11
40.69221213871094
 21
15.93117063881033
 31
0.0
  0
LINE
  5
152C
330
14CD
100
AcDbEntity
  8
0
 62
     0
100
AcDbLine
 10
37.33969298625874
 20
19.28368979126259
 30
0.0
 11
35.21169298625864
 21
21.41168979126263
 31
0.0
  0
LINE
  5
152D
330
14CD
100
AcDbEntity
  8
0
 62
     0
100
AcDbLine
 10
49.47338233682654
 20
7.150000440694782
 30
0.0
 11
46.67338233682648
 21
9.95000044069485
 31
0.0
  0
LINE
  5
152E
330
14CD
100
AcDbEntity
  8
0
 62
     0
100
AcDbLine
 10
43.49221213871095
 20
12.23314502670348
 30
0.0
 11
40.692212138711
 21
15.03314502670349
 31
0.0
  0
LINE
  5
152F
330
14CD
100
AcDbEntity
  8
0
 62
     0
100
AcDbLine
 10
37.12416683935311
 20
18.60119032606138
 30
0.0
 11
34.996166839353
 21
20.72919032606142
 31
0.0
  0
LINE
  5
1530
330
14CD
100
AcDbEntity
  8
0
 62
     0
100
AcDbLine
 10
48.57535672471965
 20
7.150000440694839
 30
0.0
 11
46.14174502742327
 21
9.583612137991224
 31
0.0
  0
LINE
  5
1531
330
14CD
100
AcDbEntity
  8
0
 62
     0
100
AcDbLine
 10
36.90864069244748
 20
17.91869086086001
 30
0.0
 11
34.78064069244737
 21
20.04669086086016
 31
0.0
  0
LINE
  5
1532
330
14CD
100
AcDbEntity
  8
0
 62
     0
100
AcDbLine
 10
43.49221213871095
 20
11.33511941459659
 30
0.0
 11
40.692212138711
 21
14.13511941459654
 31
0.0
  0
LINE
  5
1533
330
14CD
100
AcDbEntity
  8
0
 62
     0
100
AcDbLine
 10
32.64221213871099
 20
22.18511941459655
 30
0.0
 11
31.57733111261268
 21
23.2500004406948
 31
0.0
  0
LINE
  5
1534
330
14CD
100
AcDbEntity
  8
0
 62
     0
100
AcDbLine
 10
47.67733111261276
 20
7.150000440694782
 30
0.0
 11
46.11721213871101
 21
8.710119414596533
 31
0.0
  0
LINE
  5
1535
330
14CD
100
AcDbEntity
  8
0
 62
     0
100
AcDbLine
 10
36.69311454554167
 20
17.23619139565892
 30
0.0
 11
34.56511454554174
 21
19.36419139565884
 31
0.0
  0
LINE
  5
1536
330
14CD
100
AcDbEntity
  8
0
 62
     0
100
AcDbLine
 10
43.49221213871095
 20
10.43709380248964
 30
0.0
 11
40.69221213871094
 21
13.23709380248965
 31
0.0
  0
LINE
  5
1537
330
14CD
100
AcDbEntity
  8
0
 62
     0
100
AcDbLine
 10
32.64221213871099
 20
21.2870938024896
 30
0.0
 11
30.67930550050579
 21
23.2500004406948
 31
0.0
  0
LINE
  5
1538
330
14CD
100
AcDbEntity
  8
0
 62
     0
100
AcDbLine
 10
46.77930550050575
 20
7.150000440694839
 30
0.0
 11
46.11721213871095
 21
7.812093802489584
 31
0.0
  0
LINE
  5
1539
330
14CD
100
AcDbEntity
  8
0
 62
     0
100
AcDbLine
 10
36.47758839863604
 20
16.5536919304576
 30
0.0
 11
34.349588398636
 21
18.68169193045764
 31
0.0
  0
LINE
  5
153A
330
14CD
100
AcDbEntity
  8
0
 62
     0
100
AcDbLine
 10
32.64221213871093
 20
20.38906819038265
 30
0.0
 11
29.96676720981332
 21
23.06451311928032
 31
0.0
  0
LINE
  5
153B
330
14CD
100
AcDbEntity
  8
0
 62
     0
100
AcDbLine
 10
43.49221213871089
 20
9.539068190382749
 30
0.0
 11
40.69221213871094
 21
12.3390681903827
 31
0.0
  0
LINE
  5
153C
330
14CD
100
AcDbEntity
  8
0
 62
     0
100
AcDbLine
 10
36.26206225173041
 20
15.8711924652564
 30
0.0
 11
34.13406225173043
 21
17.99919246525638
 31
0.0
  0
LINE
  5
153D
330
14CD
100
AcDbEntity
  8
0
 62
     0
100
AcDbLine
 10
32.64221213871099
 20
19.49104257827582
 30
0.0
 11
29.84221213871092
 21
22.29104257827583
 31
0.0
  0
LINE
  5
153E
330
14CD
100
AcDbEntity
  8
0
 62
     0
100
AcDbLine
 10
43.49221213871095
 20
8.641042578275857
 30
0.0
 11
40.69221213871094
 21
11.44104257827581
 31
0.0
  0
LINE
  5
153F
330
14CD
100
AcDbEntity
  8
0
 62
     0
100
AcDbLine
 10
36.05697374233836
 20
15.1782553625415
 30
0.0
 11
33.91853610482468
 21
17.31669300005518
 31
0.0
  0
LINE
  5
1540
330
14CD
100
AcDbEntity
  8
0
 62
     0
100
AcDbLine
 10
32.64221213871099
 20
18.59301696616887
 30
0.0
 11
29.84221213871092
 21
21.39301696616894
 31
0.0
  0
LINE
  5
1541
330
14CD
100
AcDbEntity
  8
0
 62
     0
100
AcDbLine
 10
43.49221213871089
 20
7.743016966168909
 30
0.0
 11
40.69221213871094
 21
10.54301696616892
 31
0.0
  0
LINE
  5
1542
330
14CD
100
AcDbEntity
  8
0
 62
     0
100
AcDbLine
 10
36.47144710177235
 20
13.86575639100056
 30
0.0
 11
33.62798860914006
 21
16.70921488363285
 31
0.0
  0
LINE
  5
1543
330
14CD
100
AcDbEntity
  8
0
 62
     0
100
AcDbLine
 10
32.64221213871104
 20
17.69499135406187
 30
0.0
 11
29.84221213871086
 21
20.49499135406199
 31
0.0
  0
LINE
  5
1544
330
14CD
100
AcDbEntity
  8
0
 62
     0
100
AcDbLine
 10
43.15316714137856
 20
7.184036351394297
 30
0.0
 11
40.692212138711
 21
9.644991354061914
 31
0.0
  0
LINE
  5
1545
330
14CD
100
AcDbEntity
  8
0
 62
     0
100
AcDbLine
 10
36.88592046120635
 20
12.55325741945972
 30
0.0
 11
29.84221213871092
 21
19.59696574195516
 31
0.0
  0
LINE
  5
1546
330
14CD
100
AcDbEntity
  8
0
 62
     0
100
AcDbLine
 10
27.39221213871104
 20
22.04696574195503
 30
0.0
 11
26.18917743997127
 21
23.2500004406948
 31
0.0
  0
LINE
  5
1547
330
14CD
100
AcDbEntity
  8
0
 62
     0
100
AcDbLine
 10
42.28917743997129
 20
7.150000440694782
 30
0.0
 11
40.69221213871105
 21
8.746965741955023
 31
0.0
  0
LINE
  5
1548
330
14CD
100
AcDbEntity
  8
0
 62
     0
100
AcDbLine
 10
37.3003938206404
 20
11.24075844791872
 30
0.0
 11
29.84221213871092
 21
18.69894012984821
 31
0.0
  0
LINE
  5
1549
330
14CD
100
AcDbEntity
  8
0
 62
     0
100
AcDbLine
 10
27.39221213871104
 20
21.14894012984808
 30
0.0
 11
25.29115182786426
 21
23.25000044069486
 31
0.0
  0
LINE
  5
154A
330
14CD
100
AcDbEntity
  8
0
 62
     0
100
AcDbLine
 10
41.39115182786435
 20
7.150000440694725
 30
0.0
 11
40.692212138711
 21
7.848940129848131
 31
0.0
  0
LINE
  5
154B
330
14CD
100
AcDbEntity
  8
0
 62
     0
100
AcDbLine
 10
27.12530544332094
 20
20.51782121313124
 30
0.0
 11
24.42508372510951
 21
23.21804293134261
 31
0.0
  0
LINE
  5
154C
330
14CD
100
AcDbEntity
  8
0
 62
     0
100
AcDbLine
 10
37.71486718007435
 20
9.928259476377832
 30
0.0
 11
29.84221213871098
 21
17.8009145177412
 31
0.0
  0
LINE
  5
154D
330
14CD
100
AcDbEntity
  8
0
 62
     0
100
AcDbLine
 10
32.9797210610526
 20
13.76537998329268
 30
0.0
 11
29.84221213871098
 21
16.90288890563431
 31
0.0
  0
LINE
  5
154E
330
14CD
100
AcDbEntity
  8
0
 62
     0
100
AcDbLine
 10
26.29510060365049
 20
20.45000044069473
 30
0.0
 11
23.68704065552225
 21
23.05806038882303
 31
0.0
  0
LINE
  5
154F
330
14CD
100
AcDbEntity
  8
0
 62
     0
100
AcDbLine
 10
38.1293405395084
 20
8.615760504836885
 30
0.0
 11
34.03703284720052
 21
12.70806819714471
 31
0.0
  0
LINE
  5
1550
330
14CD
100
AcDbEntity
  8
0
 62
     0
100
AcDbLine
 10
32.64221213871104
 20
13.20486329352735
 30
0.0
 11
29.84221213871098
 21
16.00486329352742
 31
0.0
  0
LINE
  5
1551
330
14CD
100
AcDbEntity
  8
0
 62
     0
100
AcDbLine
 10
25.39707499154349
 20
20.45000044069485
 30
0.0
 11
23.04831923969152
 21
22.79875619254681
 31
0.0
  0
LINE
  5
1552
330
14CD
100
AcDbEntity
  8
0
 62
     0
100
AcDbLine
 10
38.36437939721901
 20
7.48269603501933
 30
0.0
 11
34.45150620663446
 21
11.39556922560393
 31
0.0
  0
LINE
  5
1553
330
14CD
100
AcDbEntity
  8
0
 62
     0
100
AcDbLine
 10
32.64221213871099
 20
12.30683768142046
 30
0.0
 11
29.84221213871092
 21
15.10683768142047
 31
0.0
  0
LINE
  5
1554
330
14CD
100
AcDbEntity
  8
0
 62
     0
100
AcDbLine
 10
24.55396148899996
 20
20.39508833113149
 30
0.0
 11
22.48957026435698
 21
22.45947955577446
 31
0.0
  0
LINE
  5
1555
330
14CD
100
AcDbEntity
  8
0
 62
     0
100
AcDbLine
 10
37.79904937943666
 20
7.150000440694782
 30
0.0
 11
34.8659795660684
 21
10.08307025406304
 31
0.0
  0
LINE
  5
1556
330
14CD
100
AcDbEntity
  8
0
 62
     0
100
AcDbLine
 10
32.64221213871099
 20
11.40881206931351
 30
0.0
 11
29.84221213871092
 21
14.20881206931358
 31
0.0
  0
LINE
  5
1557
330
14CD
100
AcDbEntity
  8
0
 62
     0
100
AcDbLine
 10
23.98210529616096
 20
20.06891891186353
 30
0.0
 11
22.0019150557452
 21
22.0491091522793
 31
0.0
  0
LINE
  5
1558
330
14CD
100
AcDbEntity
  8
0
 62
     0
100
AcDbLine
 10
36.90102376732971
 20
7.150000440694782
 30
0.0
 11
35.28045292550245
 21
8.770571282522041
 31
0.0
  0
LINE
  5
1559
330
14CD
100
AcDbEntity
  8
0
 62
     0
100
AcDbLine
 10
27.72764127150873
 20
15.42535732440893
 30
0.0
 11
26.21756902242498
 21
16.93542957349268
 31
0.0
  0
LINE
  5
155A
330
14CD
100
AcDbEntity
  8
0
 62
     0
100
AcDbLine
 10
32.6422121387111
 20
10.51078645720656
 30
0.0
 11
29.84221213871098
 21
13.31078645720668
 31
0.0
  0
LINE
  5
155B
330
14CD
100
AcDbEntity
  8
0
 62
     0
100
AcDbLine
 10
23.62598372603201
 20
19.52701486988564
 30
0.0
 11
21.58254902973396
 21
21.57044956618369
 31
0.0
  0
LINE
  5
155C
330
14CD
100
AcDbEntity
  8
0
 62
     0
100
AcDbLine
 10
35.95266515101821
 20
7.200333444899456
 30
0.0
 11
35.7023109794269
 21
7.450687616490768
 31
0.0
  0
LINE
  5
155D
330
14CD
100
AcDbEntity
  8
0
 62
     0
100
AcDbLine
 10
27.64112761136681
 20
14.6138453724439
 30
0.0
 11
25.40605707045995
 21
16.84891591335076
 31
0.0
  0
LINE
  5
155E
330
14CD
100
AcDbEntity
  8
0
 62
     0
100
AcDbLine
 10
23.54221213871107
 20
18.71276084509963
 30
0.0
 11
21.2336100087723
 21
21.02136297503841
 31
0.0
  0
LINE
  5
155F
330
14CD
100
AcDbEntity
  8
0
 62
     0
100
AcDbLine
 10
32.64221213871104
 20
9.612760845099614
 30
0.0
 11
29.84221213871092
 21
12.41276084509979
 31
0.0
  0
LINE
  5
1560
330
14CD
100
AcDbEntity
  8
0
 62
     0
100
AcDbLine
 10
27.30927205206876
 20
14.04767531963494
 30
0.0
 11
24.83988701765099
 21
16.51706035405271
 31
0.0
  0
LINE
  5
1561
330
14CD
100
AcDbEntity
  8
0
 62
     0
100
AcDbLine
 10
23.54221213871107
 20
17.81473523299268
 30
0.0
 11
20.96303030156212
 21
20.39391707014164
 31
0.0
  0
LINE
  5
1562
330
14CD
100
AcDbEntity
  8
0
 62
     0
100
AcDbLine
 10
32.64221213871104
 20
8.714735232992723
 30
0.0
 11
29.84221213871098
 21
11.51473523299279
 31
0.0
  0
LINE
  5
1563
330
14CD
100
AcDbEntity
  8
0
 62
     0
100
AcDbLine
 10
23.54221213871107
 20
16.91670962088579
 30
0.0
 11
20.78831642863627
 21
19.67060533096065
 31
0.0
  0
LINE
  5
1564
330
14CD
100
AcDbEntity
  8
0
 62
     0
100
AcDbLine
 10
26.80743860993231
 20
13.65148314966461
 30
0.0
 11
24.44369484768066
 21
16.01522691191627
 31
0.0
  0
LINE
  5
1565
330
14CD
100
AcDbEntity
  8
0
 62
     0
100
AcDbLine
 10
18.11721213871101
 20
22.34170962088592
 30
0.0
 11
17.20892131890201
 21
23.25000044069491
 31
0.0
  0
LINE
  5
1566
330
14CD
100
AcDbEntity
  8
0
 62
     0
100
AcDbLine
 10
32.6422121387111
 20
7.816709620885831
 30
0.0
 11
29.84221213871103
 21
10.6167096208859
 31
0.0
  0
LINE
  5
1567
330
14CD
100
AcDbEntity
  8
0
 62
     0
100
AcDbLine
 10
23.54221213871107
 20
16.0186840087789
 30
0.0
 11
20.74221213871101
 21
18.81868400877897
 31
0.0
  0
LINE
  5
1568
330
14CD
100
AcDbEntity
  8
0
 62
     0
100
AcDbLine
 10
26.10711916750489
 20
13.45377697998509
 30
0.0
 11
24.24598867800114
 21
15.31490746948884
 31
0.0
  0
LINE
  5
1569
330
14CD
100
AcDbEntity
  8
0
 62
     0
100
AcDbLine
 10
18.11721213871095
 20
21.44368400877897
 30
0.0
 11
16.31089570679506
 21
23.25000044069486
 31
0.0
  0
LINE
  5
156A
330
14CD
100
AcDbEntity
  8
0
 62
     0
100
AcDbLine
 10
32.35430833744038
 20
7.206587810049597
 30
0.0
 11
29.84221213871098
 21
9.71868400877895
 31
0.0
  0
LINE
  5
156B
330
14CD
100
AcDbEntity
  8
0
 62
     0
100
AcDbLine
 10
23.54221213871107
 20
15.12065839667195
 30
0.0
 11
20.74221213871101
 21
17.92065839667202
 31
0.0
  0
LINE
  5
156C
330
14CD
100
AcDbEntity
  8
0
 62
     0
100
AcDbLine
 10
18.00817816844062
 20
20.65469236694241
 30
0.0
 11
15.41287009468805
 21
23.25000044069491
 31
0.0
  0
LINE
  5
156D
330
14CD
100
AcDbEntity
  8
0
 62
     0
100
AcDbLine
 10
31.51287009468819
 20
7.150000440694839
 30
0.0
 11
29.84221213871098
 21
8.820658396672058
 31
0.0
  0
LINE
  5
156E
330
14CD
100
AcDbEntity
  8
0
 62
     0
100
AcDbLine
 10
23.54221213871102
 20
14.22263278456506
 30
0.0
 11
20.74221213871095
 21
17.02263278456507
 31
0.0
  0
LINE
  5
156F
330
14CD
100
AcDbEntity
  8
0
 62
     0
100
AcDbLine
 10
17.31484448258129
 20
20.45000044069479
 30
0.0
 11
14.51484448258116
 21
23.25000044069491
 31
0.0
  0
LINE
  5
1570
330
14CD
100
AcDbEntity
  8
0
 62
     0
100
AcDbLine
 10
30.61484448258124
 20
7.150000440694782
 30
0.0
 11
29.84221213871098
 21
7.922632784565109
 31
0.0
  0
LINE
  5
1571
330
14CD
100
AcDbEntity
  8
0
 62
     0
100
AcDbLine
 10
23.54221213871107
 20
13.32460717245817
 30
0.0
 11
20.74221213871101
 21
16.12460717245824
 31
0.0
  0
LINE
  5
1572
330
14CD
100
AcDbEntity
  8
0
 62
     0
100
AcDbLine
 10
16.4168188704744
 20
20.45000044069479
 30
0.0
 11
13.6516895983695
 21
23.21512971279975
 31
0.0
  0
LINE
  5
1573
330
14CD
100
AcDbEntity
  8
0
 62
     0
100
AcDbLine
 10
27.38960968987408
 20
9.477209621295116
 30
0.0
 11
26.91942131931137
 21
9.947397991857883
 31
0.0
  0
LINE
  5
1574
330
14CD
100
AcDbEntity
  8
0
 62
     0
100
AcDbLine
 10
23.54221213871102
 20
12.42658156035122
 30
0.0
 11
20.74221213871101
 21
15.22658156035129
 31
0.0
  0
LINE
  5
1575
330
14CD
100
AcDbEntity
  8
0
 62
     0
100
AcDbLine
 10
15.5187932583675
 20
20.45000044069479
 30
0.0
 11
12.95855478989102
 21
23.01023890917127
 31
0.0
  0
LINE
  5
1576
330
14CD
100
AcDbEntity
  8
0
 62
     0
100
AcDbLine
 10
27.3922121387111
 20
8.576581560351201
 30
0.0
 11
26.01879325836745
 21
9.95000044069485
 31
0.0
  0
LINE
  5
1577
330
14CD
100
AcDbEntity
  8
0
 62
     0
100
AcDbLine
 10
23.54221213871102
 20
11.52855594824433
 30
0.0
 11
20.74221213871106
 21
14.32855594824428
 31
0.0
  0
LINE
  5
1578
330
14CD
100
AcDbEntity
  8
0
 62
     0
100
AcDbLine
 10
14.62076764626056
 20
20.45000044069473
 30
0.0
 11
12.39430813004378
 21
22.67645995691151
 31
0.0
  0
LINE
  5
1579
330
14CD
100
AcDbEntity
  8
0
 62
     0
100
AcDbLine
 10
27.39221213871104
 20
7.678555948244252
 30
0.0
 11
25.12076764626056
 21
9.950000440694736
 31
0.0
  0
LINE
  5
157A
330
14CD
100
AcDbEntity
  8
0
 62
     0
100
AcDbLine
 10
14.11047481864597
 20
20.06226765620255
 30
0.0
 11
11.93621531780303
 21
22.23652715704548
 31
0.0
  0
LINE
  5
157B
330
14CD
100
AcDbEntity
  8
0
 62
     0
100
AcDbLine
 10
27.00447935421868
 20
7.168263120629831
 30
0.0
 11
20.74221213871106
 21
13.43053033613745
 31
0.0
  0
LINE
  5
157C
330
14CD
100
AcDbEntity
  8
0
 62
     0
100
AcDbLine
 10
14.09221213871103
 20
19.18250472403053
 30
0.0
 11
11.58273411533395
 21
21.69198274740762
 31
0.0
  0
LINE
  5
157D
330
14CD
100
AcDbEntity
  8
0
 62
     0
100
AcDbLine
 10
26.12471642204678
 20
7.150000440694782
 30
0.0
 11
20.74221213871106
 21
12.5325047240305
 31
0.0
  0
LINE
  5
157E
330
14CD
100
AcDbEntity
  8
0
 62
     0
100
AcDbLine
 10
14.15434784684646
 20
18.2223434037881
 30
0.0
 11
11.35185401304022
 21
21.02483723759439
 31
0.0
  0
LINE
  5
157F
330
14CD
100
AcDbEntity
  8
0
 62
     0
100
AcDbLine
 10
25.22669080993978
 20
7.150000440694839
 30
0.0
 11
20.74221213871101
 21
11.63447911192355
 31
0.0
  0
LINE
  5
1580
330
14CD
100
AcDbEntity
  8
0
 62
     0
100
AcDbLine
 10
18.44658822993369
 20
13.03207740859403
 30
0.0
 11
11.29221213871107
 21
20.18645349981665
 31
0.0
  0
LINE
  5
1581
330
14CD
100
AcDbEntity
  8
0
 62
     0
100
AcDbLine
 10
24.27539311077623
 20
7.203272527751494
 30
0.0
 11
20.79548422576766
 21
10.68318141276006
 31
0.0
  0
LINE
  5
1582
330
14CD
100
AcDbEntity
  8
0
 62
     0
100
AcDbLine
 10
18.63848274401891
 20
11.94215728240192
 30
0.0
 11
11.29221213871096
 21
19.28842788770987
 31
0.0
  0
LINE
  5
1583
330
14CD
100
AcDbEntity
  8
0
 62
     0
100
AcDbLine
 10
22.90158519817464
 20
7.679054828246137
 30
0.0
 11
21.27126652626225
 21
9.309373500158585
 31
0.0
  0
LINE
  5
1584
330
14CD
100
AcDbEntity
  8
0
 62
     0
100
AcDbLine
 10
18.64221213871104
 20
11.04040227560284
 30
0.0
 11
11.29977658613336
 21
18.38283782818047
 31
0.0
  0
LINE
  5
1585
330
14CD
100
AcDbEntity
  8
0
 62
     0
100
AcDbLine
 10
18.64221213871099
 20
10.14237666349595
 30
0.0
 11
11.52306734445721
 21
17.26152145774966
 31
0.0
  0
LINE
  5
1586
330
14CD
100
AcDbEntity
  8
0
 62
     0
100
AcDbLine
 10
18.56969214257907
 20
9.316871047521033
 30
0.0
 11
15.80630049896001
 21
12.08026269114009
 31
0.0
  0
LINE
  5
1587
330
14CD
100
AcDbEntity
  8
0
 62
     0
100
AcDbLine
 10
18.32775420355022
 20
8.660783374442928
 30
0.0
 11
15.84221213871097
 21
11.14632543928218
 31
0.0
  0
LINE
  5
1588
330
14CD
100
AcDbEntity
  8
0
 62
     0
100
AcDbLine
 10
17.96563495616845
 20
8.124877009717749
 30
0.0
 11
15.8063131064103
 21
10.2841988594759
 31
0.0
  0
LINE
  5
1589
330
14CD
100
AcDbEntity
  8
0
 62
     0
100
AcDbLine
 10
17.49940858390158
 20
7.693077769877731
 30
0.0
 11
15.24248591308446
 21
9.950000440694907
 31
0.0
  0
LINE
  5
158A
330
14CD
100
AcDbEntity
  8
0
 62
     0
100
AcDbLine
 10
16.92614413616877
 20
7.36831660550365
 30
0.0
 11
14.34446030097751
 21
9.95000044069485
 31
0.0
  0
LINE
  5
158B
330
14CD
100
AcDbEntity
  8
0
 62
     0
100
AcDbLine
 10
16.22073154708283
 20
7.17570358248264
 30
0.0
 11
13.44643468887062
 21
9.95000044069485
 31
0.0
  0
LINE
  5
158C
330
14CD
100
AcDbEntity
  8
0
 62
     0
100
AcDbLine
 10
15.34840907676368
 20
7.150000440694839
 30
0.0
 11
12.54840907676367
 21
9.95000044069485
 31
0.0
  0
LINE
  5
158D
330
14CD
100
AcDbEntity
  8
0
 62
     0
100
AcDbLine
 10
14.45038346465685
 20
7.150000440694782
 30
0.0
 11
11.89705956983897
 21
9.703324335512718
 31
0.0
  0
LINE
  5
158E
330
14CD
100
AcDbEntity
  8
0
 62
     0
100
AcDbLine
 10
13.55235785254984
 20
7.150000440694839
 30
0.0
 11
11.81721213871105
 21
8.885146154533629
 31
0.0
  0
LINE
  5
158F
330
14CD
100
AcDbEntity
  8
0
 62
     0
100
AcDbLine
 10
12.65433224044301
 20
7.150000440694782
 30
0.0
 11
11.81721213871105
 21
7.987120542426737
 31
0.0
  0
LINE
  5
1590
330
14CD
100
AcDbEntity
  8
0
 62
     0
100
AcDbLine
 10
68.63389942337795
 20
7.163132217812346
 30
0.0
 11
69.02908036159374
 21
7.558313156028134
 31
0.0
  0
LINE
  5
1591
330
14CD
100
AcDbEntity
  8
0
 62
     0
100
AcDbLine
 10
67.72274203415361
 20
7.150000440694782
 30
0.0
 11
69.04221213871119
 21
8.46947054525242
 31
0.0
  0
LINE
  5
1592
330
14CD
100
AcDbEntity
  8
0
 62
     0
100
AcDbLine
 10
66.82471642204666
 20
7.150000440694839
 30
0.0
 11
69.04221213871119
 21
9.367496157359312
 31
0.0
  0
LINE
  5
1593
330
14CD
100
AcDbEntity
  8
0
 62
     0
100
AcDbLine
 10
66.27340970196286
 20
7.49671933271793
 30
0.0
 11
69.04221213871114
 21
10.26552176946626
 31
0.0
  0
LINE
  5
1594
330
14CD
100
AcDbEntity
  8
0
 62
     0
100
AcDbLine
 10
66.24221213871106
 20
8.363547381573084
 30
0.0
 11
69.04221213871114
 21
11.16354738157309
 31
0.0
  0
LINE
  5
1595
330
14CD
100
AcDbEntity
  8
0
 62
     0
100
AcDbLine
 10
66.24221213871113
 20
9.261572993679976
 30
0.0
 11
69.04221213871114
 21
12.06157299368004
 31
0.0
  0
LINE
  5
1596
330
14CD
100
AcDbEntity
  8
0
 62
     0
100
AcDbLine
 10
66.24221213871106
 20
10.15959860578692
 30
0.0
 11
69.04221213871114
 21
12.95959860578699
 31
0.0
  0
LINE
  5
1597
330
14CD
100
AcDbEntity
  8
0
 62
     0
100
AcDbLine
 10
66.24221213871106
 20
11.05762421789381
 30
0.0
 11
69.04221213871114
 21
13.85762421789388
 31
0.0
  0
LINE
  5
1598
330
14CD
100
AcDbEntity
  8
0
 62
     0
100
AcDbLine
 10
62.66877700077635
 20
7.484189079959094
 30
0.0
 11
63.80802349944691
 21
8.62343557862971
 31
0.0
  0
LINE
  5
1599
330
14CD
100
AcDbEntity
  8
0
 62
     0
100
AcDbLine
 10
66.24221213871106
 20
11.9556498300007
 30
0.0
 11
69.04221213871114
 21
14.75564983000077
 31
0.0
  0
LINE
  5
159A
330
14CD
100
AcDbEntity
  8
0
 62
     0
100
AcDbLine
 10
61.43820883425354
 20
7.151646525543185
 30
0.0
 11
64.14056605386287
 21
9.854003745152454
 31
0.0
  0
LINE
  5
159B
330
14CD
100
AcDbEntity
  8
0
 62
     0
100
AcDbLine
 10
66.24221213871106
 20
12.85367544210765
 30
0.0
 11
69.04221213871114
 21
15.65367544210767
 31
0.0
  0
LINE
  5
159C
330
14CD
100
AcDbEntity
  8
0
 62
     0
100
AcDbLine
 10
60.5385371372983
 20
7.150000440694896
 30
0.0
 11
64.14221213871115
 21
10.75367544210769
 31
0.0
  0
LINE
  5
159D
330
14CD
100
AcDbEntity
  8
0
 62
     0
100
AcDbLine
 10
66.24221213871106
 20
13.75170105421455
 30
0.0
 11
69.04221213871108
 21
16.55170105421461
 31
0.0
  0
LINE
  5
159E
330
14CD
100
AcDbEntity
  8
0
 62
     0
100
AcDbLine
 10
59.64051152519136
 20
7.150000440694896
 30
0.0
 11
64.1422121387111
 21
11.65170105421464
 31
0.0
  0
LINE
  5
159F
330
14CD
100
AcDbEntity
  8
0
 62
     0
100
AcDbLine
 10
66.24221213871106
 20
14.64972666632144
 30
0.0
 11
69.04221213871114
 21
17.44972666632151
 31
0.0
  0
LINE
  5
15A0
330
14CD
100
AcDbEntity
  8
0
 62
     0
100
AcDbLine
 10
58.74248591308441
 20
7.150000440694782
 30
0.0
 11
64.14221213871115
 21
12.54972666632153
 31
0.0
  0
LINE
  5
15A1
330
14CD
100
AcDbEntity
  8
0
 62
     0
100
AcDbLine
 10
61.23762093663003
 20
10.54316107634736
 30
0.0
 11
64.14221213871115
 21
13.44775227842842
 31
0.0
  0
LINE
  5
15A2
330
14CD
100
AcDbEntity
  8
0
 62
     0
100
AcDbLine
 10
66.24221213871106
 20
15.54775227842833
 30
0.0
 11
69.04221213871114
 21
18.3477522784284
 31
0.0
  0
LINE
  5
15A3
330
14CD
100
AcDbEntity
  8
0
 62
     0
100
AcDbLine
 10
57.84446030097758
 20
7.150000440694896
 30
0.0
 11
60.74905150305852
 21
10.05459164277578
 31
0.0
  0
LINE
  5
15A4
330
14CD
100
AcDbEntity
  8
0
 62
     0
100
AcDbLine
 10
61.34221213871097
 20
11.54577789053524
 30
0.0
 11
64.1422121387111
 21
14.34577789053537
 31
0.0
  0
LINE
  5
15A5
330
14CD
100
AcDbEntity
  8
0
 62
     0
100
AcDbLine
 10
66.24221213871101
 20
16.44577789053528
 30
0.0
 11
69.04221213871108
 21
19.24577789053535
 31
0.0
  0
LINE
  5
15A6
330
14CD
100
AcDbEntity
  8
0
 62
     0
100
AcDbLine
 10
57.05838444024772
 20
7.261950192071935
 30
0.0
 11
59.74643468887063
 21
9.950000440694907
 31
0.0
  0
LINE
  5
15A7
330
14CD
100
AcDbEntity
  8
0
 62
     0
100
AcDbLine
 10
61.34221213871097
 20
12.44380350264214
 30
0.0
 11
64.1422121387111
 21
15.24380350264226
 31
0.0
  0
LINE
  5
15A8
330
14CD
100
AcDbEntity
  8
0
 62
     0
100
AcDbLine
 10
66.24221213871101
 20
17.34380350264223
 30
0.0
 11
69.04221213871108
 21
20.14380350264224
 31
0.0
  0
LINE
  5
15A9
330
14CD
100
AcDbEntity
  8
0
 62
     0
100
AcDbLine
 10
56.43039757303757
 20
7.531988936968787
 30
0.0
 11
58.84928686240801
 21
9.950878226339227
 31
0.0
  0
LINE
  5
15AA
330
14CD
100
AcDbEntity
  8
0
 62
     0
100
AcDbLine
 10
61.34221213871109
 20
13.34182911474909
 30
0.0
 11
64.1422121387111
 21
16.14182911474915
 31
0.0
  0
LINE
  5
15AB
330
14CD
100
AcDbEntity
  8
0
 62
     0
100
AcDbLine
 10
66.24221213871106
 20
18.24182911474906
 30
0.0
 11
69.04221213871108
 21
21.04182911474913
 31
0.0
  0
LINE
  5
15AC
330
14CD
100
AcDbEntity
  8
0
 62
     0
100
AcDbLine
 10
55.91713769167251
 20
7.916754667710506
 30
0.0
 11
58.20580827369531
 21
10.20542524973336
 31
0.0
  0
LINE
  5
15AD
330
14CD
100
AcDbEntity
  8
0
 62
     0
100
AcDbLine
 10
61.34221213871104
 20
14.23985472685603
 30
0.0
 11
64.1422121387111
 21
17.0398547268561
 31
0.0
  0
LINE
  5
15AE
330
14CD
100
AcDbEntity
  8
0
 62
     0
100
AcDbLine
 10
66.24221213871101
 20
19.13985472685601
 30
0.0
 11
69.04221213871108
 21
21.93985472685608
 31
0.0
  0
LINE
  5
15AF
330
14CD
100
AcDbEntity
  8
0
 62
     0
100
AcDbLine
 10
55.50717351644738
 20
8.404816104592327
 30
0.0
 11
57.86856999528589
 21
10.7662125834309
 31
0.0
  0
LINE
  5
15B0
330
14CD
100
AcDbEntity
  8
0
 62
     0
100
AcDbLine
 10
61.34221213871104
 20
15.13788033896292
 30
0.0
 11
64.14221213871115
 21
17.93788033896311
 31
0.0
  0
LINE
  5
15B1
330
14CD
100
AcDbEntity
  8
0
 62
     0
100
AcDbLine
 10
66.24221213871101
 20
20.0378803389629
 30
0.0
 11
69.03206298516062
 21
22.82773118541257
 31
0.0
  0
LINE
  5
15B2
330
14CD
100
AcDbEntity
  8
0
 62
     0
100
AcDbLine
 10
55.20724863801337
 20
9.002916838265321
 30
0.0
 11
57.84221213871098
 21
11.63788033896292
 31
0.0
  0
LINE
  5
15B3
330
14CD
100
AcDbEntity
  8
0
 62
     0
100
AcDbLine
 10
61.34221213871104
 20
16.03590595106982
 30
0.0
 11
64.14221213871122
 21
18.83590595106994
 31
0.0
  0
LINE
  5
15B4
330
14CD
100
AcDbEntity
  8
0
 62
     0
100
AcDbLine
 10
66.24221213871101
 20
20.93590595106979
 30
0.0
 11
68.55494864008114
 21
23.24864245243992
 31
0.0
  0
LINE
  5
15B5
330
14CD
100
AcDbEntity
  8
0
 62
     0
100
AcDbLine
 10
55.04983510305692
 20
9.743528915415708
 30
0.0
 11
57.84221213871103
 21
12.53590595106982
 31
0.0
  0
LINE
  5
15B6
330
14CD
100
AcDbEntity
  8
0
 62
     0
100
AcDbLine
 10
61.34221213871104
 20
16.93393156317677
 30
0.0
 11
64.14221213871115
 21
19.73393156317689
 31
0.0
  0
LINE
  5
15B7
330
14CD
100
AcDbEntity
  8
0
 62
     0
100
AcDbLine
 10
66.24221213871106
 20
21.8339315631768
 30
0.0
 11
67.65828101622907
 21
23.2500004406948
 31
0.0
  0
LINE
  5
15B8
330
14CD
100
AcDbEntity
  8
0
 62
     0
100
AcDbLine
 10
55.04221213871113
 20
10.63393156317681
 30
0.0
 11
57.84221213871109
 21
13.43393156317682
 31
0.0
  0
LINE
  5
15B9
330
14CD
100
AcDbEntity
  8
0
 62
     0
100
AcDbLine
 10
61.34221213871104
 20
17.83195717528366
 30
0.0
 11
64.14221213871115
 21
20.63195717528378
 31
0.0
  0
LINE
  5
15BA
330
14CD
100
AcDbEntity
  8
0
 62
     0
100
AcDbLine
 10
55.04221213871108
 20
11.53195717528376
 30
0.0
 11
57.84221213871103
 21
14.33195717528372
 31
0.0
  0
LINE
  5
15BB
330
14CD
100
AcDbEntity
  8
0
 62
     0
100
AcDbLine
 10
66.2422588534585
 20
22.73200389003119
 30
0.0
 11
66.76020868937479
 21
23.24995372594742
 31
0.0
  0
LINE
  5
15BC
330
14CD
100
AcDbEntity
  8
0
 62
     0
100
AcDbLine
 10
50.72065650799908
 20
7.210401544571709
 30
0.0
 11
52.88181103483424
 21
9.371556071406928
 31
0.0
  0
LINE
  5
15BD
330
14CD
100
AcDbEntity
  8
0
 62
     0
100
AcDbLine
 10
55.04221213871108
 20
12.42998278739065
 30
0.0
 11
57.84221213871103
 21
15.22998278739066
 31
0.0
  0
LINE
  5
15BE
330
14CD
100
AcDbEntity
  8
0
 62
     0
100
AcDbLine
 10
61.34221213871109
 20
18.72998278739066
 30
0.0
 11
64.1422121387111
 21
21.52998278739073
 31
0.0
  0
LINE
  5
15BF
330
14CD
100
AcDbEntity
  8
0
 62
     0
100
AcDbLine
 10
49.76222979201526
 20
7.150000440694896
 30
0.0
 11
52.942212138711
 21
10.32998278739057
 31
0.0
  0
LINE
  5
15C0
330
14CD
100
AcDbEntity
  8
0
 62
     0
100
AcDbLine
 10
55.04221213871108
 20
13.32800839949754
 30
0.0
 11
57.84221213871109
 21
16.1280083994975
 31
0.0
  0
LINE
  5
15C1
330
14CD
100
AcDbEntity
  8
0
 62
     0
100
AcDbLine
 10
61.34221213871109
 20
19.62800839949755
 30
0.0
 11
64.14221213871115
 21
22.42800839949762
 31
0.0
  0
LINE
  5
15C2
330
14CD
100
AcDbEntity
  8
0
 62
     0
100
AcDbLine
 10
48.86420417990831
 20
7.150000440694782
 30
0.0
 11
52.94221213871111
 21
11.22800839949752
 31
0.0
  0
LINE
  5
15C3
330
14CD
100
AcDbEntity
  8
0
 62
     0
100
AcDbLine
 10
55.04221213871108
 20
14.22603401160449
 30
0.0
 11
57.84221213871103
 21
17.02603401160445
 31
0.0
  0
LINE
  5
15C4
330
14CD
100
AcDbEntity
  8
0
 62
     0
100
AcDbLine
 10
61.34221213871109
 20
20.52603401160445
 30
0.0
 11
63.94847468387701
 21
23.13229655677042
 31
0.0
  0
LINE
  5
15C5
330
14CD
100
AcDbEntity
  8
0
 62
     0
100
AcDbLine
 10
47.96617856780142
 20
7.150000440694839
 30
0.0
 11
52.92789353829812
 21
12.11171541119154
 31
0.0
  0
LINE
  5
15C6
330
14CD
100
AcDbEntity
  8
0
 62
     0
100
AcDbLine
 10
55.04221213871108
 20
15.12405962371139
 30
0.0
 11
57.84221213871103
 21
17.9240596237114
 31
0.0
  0
LINE
  5
15C7
330
14CD
100
AcDbEntity
  8
0
 62
     0
100
AcDbLine
 10
61.34221213871104
 20
21.4240596237114
 30
0.0
 11
63.16815295569449
 21
23.25000044069486
 31
0.0
  0
LINE
  5
15C8
330
14CD
100
AcDbEntity
  8
0
 62
     0
100
AcDbLine
 10
47.06815295569447
 20
7.150000440694839
 30
0.0
 11
52.79298116766938
 21
12.87482865266969
 31
0.0
  0
LINE
  5
15C9
330
14CD
100
AcDbEntity
  8
0
 62
     0
100
AcDbLine
 10
55.04221213871108
 20
16.02208523581828
 30
0.0
 11
57.84221213871103
 21
18.82208523581823
 31
0.0
  0
LINE
  5
15CA
330
14CD
100
AcDbEntity
  8
0
 62
     0
100
AcDbLine
 10
50.1422121387111
 20
11.1220852358183
 30
0.0
 11
52.55239371075083
 21
13.53226680785797
 31
0.0
  0
LINE
  5
15CB
330
14CD
100
AcDbEntity
  8
0
 62
     0
100
AcDbLine
 10
61.34221213871109
 20
22.32208523581829
 30
0.0
 11
62.27012734358772
 21
23.25000044069491
 31
0.0
  0
LINE
  5
15CC
330
14CD
100
AcDbEntity
  8
0
 62
     0
100
AcDbLine
 10
46.2983826967187
 20
7.278255793825906
 30
0.0
 11
48.97012734358759
 21
9.950000440694793
 31
0.0
  0
LINE
  5
15CD
330
14CD
100
AcDbEntity
  8
0
 62
     0
100
AcDbLine
 10
50.1223415635838
 20
12.00024027279789
 30
0.0
 11
52.22889440589028
 21
14.10679311510438
 31
0.0
  0
LINE
  5
15CE
330
14CD
100
AcDbEntity
  8
0
 62
     0
100
AcDbLine
 10
55.04221213871108
 20
16.92011084792517
 30
0.0
 11
57.84221213871109
 21
19.72011084792524
 31
0.0
  0
LINE
  5
15CF
330
14CD
100
AcDbEntity
  8
0
 62
     0
100
AcDbLine
 10
46.11721213871101
 20
7.995110847925161
 30
0.0
 11
48.07210173148064
 21
9.950000440694793
 31
0.0
  0
LINE
  5
15D0
330
14CD
100
AcDbEntity
  8
0
 62
     0
100
AcDbLine
 10
49.84795672644492
 20
12.62388104776602
 30
0.0
 11
51.83302328796248
 21
14.60894760928357
 31
0.0
  0
LINE
  5
15D1
330
14CD
100
AcDbEntity
  8
0
 62
     0
100
AcDbLine
 10
55.04221213871102
 20
17.81813646003212
 30
0.0
 11
57.84221213871109
 21
20.61813646003219
 31
0.0
  0
LINE
  5
15D2
330
14CD
100
AcDbEntity
  8
0
 62
     0
100
AcDbLine
 10
46.11721213871101
 20
8.893136460032053
 30
0.0
 11
47.17407611937375
 21
9.95000044069485
 31
0.0
  0
LINE
  5
15D3
330
14CD
100
AcDbEntity
  8
0
 62
     0
100
AcDbLine
 10
55.04221213871108
 20
18.71616207213901
 30
0.0
 11
57.84221213871115
 21
21.51616207213902
 31
0.0
  0
LINE
  5
15D4
330
14CD
100
AcDbEntity
  8
0
 62
     0
100
AcDbLine
 10
49.40668182932785
 20
13.08063176275573
 30
0.0
 11
51.38658081665022
 21
15.06053075007815
 31
0.0
  0
LINE
  5
15D5
330
14CD
100
AcDbEntity
  8
0
 62
     0
100
AcDbLine
 10
48.95766902327437
 20
13.5296445688092
 30
0.0
 11
50.93756801059669
 21
15.50954355613152
 31
0.0
  0
LINE
  5
15D6
330
14CD
100
AcDbEntity
  8
0
 62
     0
100
AcDbLine
 10
55.04221213871102
 20
19.6141876842459
 30
0.0
 11
57.84221213871109
 21
22.41418768424597
 31
0.0
  0
LINE
  5
15D7
330
14CD
100
AcDbEntity
  8
0
 62
     0
100
AcDbLine
 10
42.57802489515995
 20
7.150000440694839
 30
0.0
 11
43.49221213871106
 21
8.064187684245894
 31
0.0
  0
LINE
  5
15D8
330
14CD
100
AcDbEntity
  8
0
 62
     0
100
AcDbLine
 10
48.50865621722096
 20
13.97865737486279
 30
0.0
 11
50.48855520454321
 21
15.95855636218499
 31
0.0
  0
LINE
  5
15D9
330
14CD
100
AcDbEntity
  8
0
 62
     0
100
AcDbLine
 10
55.04221213871102
 20
20.51221329635285
 30
0.0
 11
57.65603123061243
 21
23.1260323882542
 31
0.0
  0
LINE
  5
15DA
330
14CD
100
AcDbEntity
  8
0
 62
     0
100
AcDbLine
 10
41.67999928305294
 20
7.150000440694782
 30
0.0
 11
43.49221213871112
 21
8.962213296352899
 31
0.0
  0
LINE
  5
15DB
330
14CD
100
AcDbEntity
  8
0
 62
     0
100
AcDbLine
 10
48.05964341116743
 20
14.42767018091615
 30
0.0
 11
50.03954239848974
 21
16.40756916823846
 31
0.0
  0
LINE
  5
15DC
330
14CD
100
AcDbEntity
  8
0
 62
     0
100
AcDbLine
 10
55.04221213871102
 20
21.41023890845974
 30
0.0
 11
56.88197367094613
 21
23.25000044069491
 31
0.0
  0
LINE
  5
15DD
330
14CD
100
AcDbEntity
  8
0
 62
     0
100
AcDbLine
 10
40.89358480880804
 20
7.261611578556767
 30
0.0
 11
43.49221213871106
 21
9.860238908459848
 31
0.0
  0
LINE
  5
15DE
330
14CD
100
AcDbEntity
  8
0
 62
     0
100
AcDbLine
 10
47.61063060511401
 20
14.87668298696957
 30
0.0
 11
49.59052959243632
 21
16.85658197429188
 31
0.0
  0
LINE
  5
15DF
330
14CD
100
AcDbEntity
  8
0
 62
     0
100
AcDbLine
 10
55.04221213871102
 20
22.30826452056664
 30
0.0
 11
55.98394805883931
 21
23.25000044069486
 31
0.0
  0
LINE
  5
15E0
330
14CD
100
AcDbEntity
  8
0
 62
     0
100
AcDbLine
 10
40.69221213871111
 20
7.958264520566729
 30
0.0
 11
43.49221213871112
 21
10.75826452056668
 31
0.0
  0
LINE
  5
15E1
330
14CD
100
AcDbEntity
  8
0
 62
     0
100
AcDbLine
 10
47.16161779906054
 20
15.32569579302304
 30
0.0
 11
49.14151678638285
 21
17.30559478034535
 31
0.0
  0
LINE
  5
15E2
330
14CD
100
AcDbEntity
  8
0
 62
     0
100
AcDbLine
 10
40.69221213871111
 20
8.856290132673677
 30
0.0
 11
43.49221213871106
 21
11.65629013267363
 31
0.0
  0
LINE
  5
15E3
330
14CD
100
AcDbEntity
  8
0
 62
     0
100
AcDbLine
 10
46.7146338980192
 20
15.77673750408871
 30
0.0
 11
48.69860743140122
 21
17.76071103747068
 31
0.0
  0
LINE
  5
15E4
330
14CD
100
AcDbEntity
  8
0
 62
     0
100
AcDbLine
 10
40.69221213871111
 20
9.754315744780569
 30
0.0
 11
43.49221213871106
 21
12.55431574478058
 31
0.0
  0
LINE
  5
15E5
330
14CD
100
AcDbEntity
  8
0
 62
     0
100
AcDbLine
 10
51.38789683462539
 20
20.45000044069485
 30
0.0
 11
52.41721213871113
 21
21.47931574478059
 31
0.0
  0
LINE
  5
15E6
330
14CD
100
AcDbEntity
  8
0
 62
     0
100
AcDbLine
 10
38.19955591400088
 20
7.261659520070338
 30
0.0
 11
38.2892082754559
 21
7.351311881525418
 31
0.0
  0
LINE
  5
15E7
330
14CD
100
AcDbEntity
  8
0
 62
     0
100
AcDbLine
 10
46.31663171919723
 20
16.27676093737358
 30
0.0
 11
48.41626599661584
 21
18.37639521479218
 31
0.0
  0
LINE
  5
15E8
330
14CD
100
AcDbEntity
  8
0
 62
     0
100
AcDbLine
 10
40.69221213871111
 20
10.65234135688746
 30
0.0
 11
43.49221213871112
 21
13.45234135688741
 31
0.0
  0
LINE
  5
15E9
330
14CD
100
AcDbEntity
  8
0
 62
     0
100
AcDbLine
 10
50.4898712225185
 20
20.45000044069485
 30
0.0
 11
52.41721213871113
 21
22.37734135688748
 31
0.0
  0
LINE
  5
15EA
330
14CD
100
AcDbEntity
  8
0
 62
     0
100
AcDbLine
 10
37.18987122251843
 20
7.150000440694782
 30
0.0
 11
38.2556503188249
 21
8.215779537001196
 31
0.0
  0
LINE
  5
15EB
330
14CD
100
AcDbEntity
  8
0
 62
     0
100
AcDbLine
 10
45.99079745480054
 20
16.84895228508383
 30
0.0
 11
48.39221213871116
 21
19.25036696899439
 31
0.0
  0
LINE
  5
15EC
330
14CD
100
AcDbEntity
  8
0
 62
     0
100
AcDbLine
 10
40.69221213871111
 20
11.55036696899435
 30
0.0
 11
43.49221213871106
 21
14.35036696899436
 31
0.0
  0
LINE
  5
15ED
330
14CD
100
AcDbEntity
  8
0
 62
     0
100
AcDbLine
 10
49.59184561041161
 20
20.45000044069485
 30
0.0
 11
52.25054320691322
 21
23.10869803719652
 31
0.0
  0
LINE
  5
15EE
330
14CD
100
AcDbEntity
  8
0
 62
     0
100
AcDbLine
 10
36.29184561041154
 20
7.150000440694782
 30
0.0
 11
38.04012417191927
 21
8.898279002202571
 31
0.0
  0
LINE
  5
15EF
330
14CD
100
AcDbEntity
  8
0
 62
     0
100
AcDbLine
 10
40.69221213871105
 20
12.4483925811013
 30
0.0
 11
43.49221213871106
 21
15.24839258110125
 31
0.0
  0
LINE
  5
15F0
330
14CD
100
AcDbEntity
  8
0
 62
     0
100
AcDbLine
 10
45.74741539213045
 20
17.50359583452069
 30
0.0
 11
51.49381999830461
 21
23.25000044069486
 31
0.0
  0
LINE
  5
15F1
330
14CD
100
AcDbEntity
  8
0
 62
     0
100
AcDbLine
 10
35.69983129975645
 20
7.456011742146699
 30
0.0
 11
37.82459802501358
 21
9.580778467403831
 31
0.0
  0
LINE
  5
15F2
330
14CD
100
AcDbEntity
  8
0
 62
     0
100
AcDbLine
 10
40.69221213871105
 20
13.34641819320825
 30
0.0
 11
43.49221213871101
 21
16.1464181932082
 31
0.0
  0
LINE
  5
15F3
330
14CD
100
AcDbEntity
  8
0
 62
     0
100
AcDbLine
 10
45.60870853304476
 20
18.26291458754195
 30
0.0
 11
50.59579438619772
 21
23.25000044069486
 31
0.0
  0
LINE
  5
15F4
330
14CD
100
AcDbEntity
  8
0
 62
     0
100
AcDbLine
 10
35.48107187810785
 20
8.135277932605049
 30
0.0
 11
37.60907187810784
 21
10.26327793260503
 31
0.0
  0
LINE
  5
15F5
330
14CD
100
AcDbEntity
  8
0
 62
     0
100
AcDbLine
 10
40.69221213871111
 20
14.24444380531508
 30
0.0
 11
43.49221213871106
 21
17.04444380531509
 31
0.0
  0
LINE
  5
15F6
330
14CD
100
AcDbEntity
  8
0
 62
     0
100
AcDbLine
 10
45.59221213871109
 20
19.14444380531506
 30
0.0
 11
49.69776877409083
 21
23.25000044069486
 31
0.0
  0
LINE
  5
15F7
330
14CD
100
AcDbEntity
  8
0
 62
     0
100
AcDbLine
 10
35.26554573120222
 20
8.817777397806253
 30
0.0
 11
37.39354573120232
 21
10.94577739780629
 31
0.0
  0
LINE
  5
15F8
330
14CD
100
AcDbEntity
  8
0
 62
     0
100
AcDbLine
 10
40.69221213871105
 20
15.14246941742203
 30
0.0
 11
43.49221213871106
 21
17.94246941742199
 31
0.0
  0
LINE
  5
15F9
330
14CD
100
AcDbEntity
  8
0
 62
     0
100
AcDbLine
 10
45.59221213871114
 20
20.04246941742207
 30
0.0
 11
48.79974316198394
 21
23.25000044069486
 31
0.0
  0
LINE
  5
15FA
330
14CD
100
AcDbEntity
  8
0
 62
     0
100
AcDbLine
 10
35.05001958429648
 20
9.500276863007456
 30
0.0
 11
37.17801958429663
 21
11.62827686300755
 31
0.0
  0
LINE
  5
15FB
330
14CD
100
AcDbEntity
  8
0
 62
     0
100
AcDbLine
 10
40.69221213871105
 20
16.04049502952892
 30
0.0
 11
43.49221213871112
 21
18.84049502952899
 31
0.0
  0
LINE
  5
15FC
330
14CD
100
AcDbEntity
  8
0
 62
     0
100
AcDbLine
 10
34.83449343739084
 20
10.18277632820877
 30
0.0
 11
36.96249343739094
 21
12.31077632820881
 31
0.0
  0
LINE
  5
15FD
330
14CD
100
AcDbEntity
  8
0
 62
     0
100
AcDbLine
 10
45.64552880883229
 20
20.99381169965022
 30
0.0
 11
47.84840087975561
 21
23.19668377057354
 31
0.0
  0
LINE
  5
15FE
330
14CD
100
AcDbEntity
  8
0
 62
     0
100
AcDbLine
 10
31.80171754987696
 20
7.150000440694839
 30
0.0
 11
32.64221213871104
 21
7.990495029528972
 31
0.0
  0
LINE
  5
15FF
330
14CD
100
AcDbEntity
  8
0
 62
     0
100
AcDbLine
 10
34.61896729048527
 20
10.86527579340997
 30
0.0
 11
36.7469672904852
 21
12.99327579340996
 31
0.0
  0
LINE
  5
1600
330
14CD
100
AcDbEntity
  8
0
 62
     0
100
AcDbLine
 10
40.69221213871105
 20
16.93852064163581
 30
0.0
 11
43.49221213871112
 21
19.73852064163588
 31
0.0
  0
LINE
  5
1601
330
14CD
100
AcDbEntity
  8
0
 62
     0
100
AcDbLine
 10
30.90369193777007
 20
7.150000440694839
 30
0.0
 11
32.6422121387111
 21
8.888520641635864
 31
0.0
  0
LINE
  5
1602
330
14CD
100
AcDbEntity
  8
0
 62
     0
100
AcDbLine
 10
34.40344114357958
 20
11.54777525861123
 30
0.0
 11
36.53144114357962
 21
13.67577525861134
 31
0.0
  0
LINE
  5
1603
330
14CD
100
AcDbEntity
  8
0
 62
     0
100
AcDbLine
 10
40.69221213871105
 20
17.83654625374276
 30
0.0
 11
43.49221213871112
 21
20.63654625374277
 31
0.0
  0
LINE
  5
1604
330
14CD
100
AcDbEntity
  8
0
 62
     0
100
AcDbLine
 10
30.08681607331436
 20
7.231150188346077
 30
0.0
 11
32.6422121387111
 21
9.786546253742756
 31
0.0
  0
LINE
  5
1605
330
14CD
100
AcDbEntity
  8
0
 62
     0
100
AcDbLine
 10
34.18791499667389
 20
12.23027472381249
 30
0.0
 11
36.31591499667393
 21
14.3582747238126
 31
0.0
  0
LINE
  5
1606
330
14CD
100
AcDbEntity
  8
0
 62
     0
100
AcDbLine
 10
40.69221213871105
 20
18.73457186584966
 30
0.0
 11
43.49221213871106
 21
21.53457186584972
 31
0.0
  0
LINE
  5
1607
330
14CD
100
AcDbEntity
  8
0
 62
     0
100
AcDbLine
 10
29.84221213871109
 20
7.884571865849693
 30
0.0
 11
32.64221213871104
 21
10.6845718658497
 31
0.0
  0
LINE
  5
1608
330
14CD
100
AcDbEntity
  8
0
 62
     0
100
AcDbLine
 10
33.97238884976826
 20
12.9127741890137
 30
0.0
 11
36.1003888497683
 21
15.0407741890138
 31
0.0
  0
LINE
  5
1609
330
14CD
100
AcDbEntity
  8
0
 62
     0
100
AcDbLine
 10
40.69221213871105
 20
19.63259747795655
 30
0.0
 11
43.49221213871112
 21
22.43259747795661
 31
0.0
  0
LINE
  5
160A
330
14CD
100
AcDbEntity
  8
0
 62
     0
100
AcDbLine
 10
29.84221213871109
 20
8.782597477956585
 30
0.0
 11
32.6422121387111
 21
11.58259747795653
 31
0.0
  0
LINE
  5
160B
330
14CD
100
AcDbEntity
  8
0
 62
     0
100
AcDbLine
 10
33.73759006279652
 20
13.57600101414897
 30
0.0
 11
36.36788413072741
 21
16.20629508207986
 31
0.0
  0
LINE
  5
160C
330
14CD
100
AcDbEntity
  8
0
 62
     0
100
AcDbLine
 10
40.69221213871111
 20
20.53062309006355
 30
0.0
 11
43.29593671621267
 21
23.13434766756506
 31
0.0
  0
LINE
  5
160D
330
14CD
100
AcDbEntity
  8
0
 62
     0
100
AcDbLine
 10
29.84221213871109
 20
9.680623090063534
 30
0.0
 11
32.64221213871104
 21
12.48062309006348
 31
0.0
  0
LINE
  5
160E
330
14CD
100
AcDbEntity
  8
0
 62
     0
100
AcDbLine
 10
33.05040469292913
 20
13.78684125638852
 30
0.0
 11
36.78235749016136
 21
17.51879405362075
 31
0.0
  0
LINE
  5
160F
330
14CD
100
AcDbEntity
  8
0
 62
     0
100
AcDbLine
 10
29.84221213871109
 20
10.57864870217042
 30
0.0
 11
32.65537132301739
 21
13.39180788647672
 31
0.0
  0
LINE
  5
1610
330
14CD
100
AcDbEntity
  8
0
 62
     0
100
AcDbLine
 10
40.69221213871111
 20
21.42864870217044
 30
0.0
 11
42.51356387723546
 21
23.25000044069486
 31
0.0
  0
LINE
  5
1611
330
14CD
100
AcDbEntity
  8
0
 62
     0
100
AcDbLine
 10
26.41356387723544
 20
7.150000440694782
 30
0.0
 11
27.3922121387111
 21
8.128648702170494
 31
0.0
  0
LINE
  5
1612
330
14CD
100
AcDbEntity
  8
0
 62
     0
100
AcDbLine
 10
29.84221213871103
 20
11.47667431427737
 30
0.0
 11
37.1968308495953
 21
18.83129302516158
 31
0.0
  0
LINE
  5
1613
330
14CD
100
AcDbEntity
  8
0
 62
     0
100
AcDbLine
 10
40.69221213871105
 20
22.32667431427739
 30
0.0
 11
41.61553826512852
 21
23.25000044069486
 31
0.0
  0
LINE
  5
1614
330
14CD
100
AcDbEntity
  8
0
 62
     0
100
AcDbLine
 10
25.51553826512849
 20
7.150000440694839
 30
0.0
 11
27.3922121387111
 21
9.026674314277443
 31
0.0
  0
LINE
  5
1615
330
14CD
100
AcDbEntity
  8
0
 62
     0
100
AcDbLine
 10
29.84221213871109
 20
12.37469992638421
 30
0.0
 11
37.61130420902935
 21
20.14379199670247
 31
0.0
  0
LINE
  5
1616
330
14CD
100
AcDbEntity
  8
0
 62
     0
100
AcDbLine
 10
24.62919327737171
 20
7.161681065044888
 30
0.0
 11
27.25087785510493
 21
9.783365642778051
 31
0.0
  0
LINE
  5
1617
330
14CD
100
AcDbEntity
  8
0
 62
     0
100
AcDbLine
 10
29.84221213871103
 20
13.27272553849115
 30
0.0
 11
33.1694870409147
 21
16.60000044069482
 31
0.0
  0
LINE
  5
1618
330
14CD
100
AcDbEntity
  8
0
 62
     0
100
AcDbLine
 10
33.93346987615541
 20
17.36398327593553
 30
0.0
 11
38.02577756846335
 21
21.45629096824342
 31
0.0
  0
LINE
  5
1619
330
14CD
100
AcDbEntity
  8
0
 62
     0
100
AcDbLine
 10
23.86103275992474
 20
7.291546159704807
 30
0.0
 11
26.51948704091478
 21
9.95000044069485
 31
0.0
  0
LINE
  5
161A
330
14CD
100
AcDbEntity
  8
0
 62
     0
100
AcDbLine
 10
29.84221213871103
 20
14.1707511505981
 30
0.0
 11
32.66020270941936
 21
16.98874172130638
 31
0.0
  0
LINE
  5
161B
330
14CD
100
AcDbEntity
  8
0
 62
     0
100
AcDbLine
 10
34.34794323558935
 20
18.67648224747637
 30
0.0
 11
38.40084902026473
 21
22.7293880321518
 31
0.0
  0
LINE
  5
161C
330
14CD
100
AcDbEntity
  8
0
 62
     0
100
AcDbLine
 10
23.19989850309832
 20
7.528437514985398
 30
0.0
 11
25.62146142880783
 21
9.950000440694907
 31
0.0
  0
LINE
  5
161D
330
14CD
100
AcDbEntity
  8
0
 62
     0
100
AcDbLine
 10
29.84221213871109
 20
15.06877676270494
 30
0.0
 11
32.6422121387111
 21
17.86877676270501
 31
0.0
  0
LINE
  5
161E
330
14CD
100
AcDbEntity
  8
0
 62
     0
100
AcDbLine
 10
34.76241659502346
 20
19.98898121901737
 30
0.0
 11
38.00683714769553
 21
23.23340177168944
 31
0.0
  0
LINE
  5
161F
330
14CD
100
AcDbEntity
  8
0
 62
     0
100
AcDbLine
 10
22.62229521893402
 20
7.848859842927879
 30
0.0
 11
24.73835707742688
 21
9.964921701420792
 31
0.0
  0
LINE
  5
1620
330
14CD
100
AcDbEntity
  8
0
 62
     0
100
AcDbLine
 10
29.84221213871103
 20
15.96680237481189
 30
0.0
 11
32.6422121387111
 21
18.76680237481195
 31
0.0
  0
LINE
  5
1621
330
14CD
100
AcDbEntity
  8
0
 62
     0
100
AcDbLine
 10
35.17688995445741
 20
21.30148019055821
 30
0.0
 11
37.125410204594
 21
23.25000044069486
 31
0.0
  0
LINE
  5
1622
330
14CD
100
AcDbEntity
  8
0
 62
     0
100
AcDbLine
 10
22.11734025255196
 20
8.241930488652769
 30
0.0
 11
24.10404093640858
 21
10.22863117250938
 31
0.0
  0
LINE
  5
1623
330
14CD
100
AcDbEntity
  8
0
 62
     0
100
AcDbLine
 10
29.84221213871103
 20
16.86482798691878
 30
0.0
 11
32.6422121387111
 21
19.66482798691885
 31
0.0
  0
LINE
  5
1624
330
14CD
100
AcDbEntity
  8
0
 62
     0
100
AcDbLine
 10
26.50384627048754
 20
13.52646211869535
 30
0.0
 11
27.66575046071062
 21
14.68836630891843
 31
0.0
  0
LINE
  5
1625
330
14CD
100
AcDbEntity
  8
0
 62
     0
100
AcDbLine
 10
35.59136331389129
 20
22.61397916209909
 30
0.0
 11
36.22738459248711
 21
23.25000044069491
 31
0.0
  0
LINE
  5
1626
330
14CD
100
AcDbEntity
  8
0
 62
     0
100
AcDbLine
 10
21.68090317922212
 20
8.703519027429933
 30
0.0
 11
23.69378998513639
 21
10.71640583334419
 31
0.0
  0
LINE
  5
1627
330
14CD
100
AcDbEntity
  8
0
 62
     0
100
AcDbLine
 10
25.57887342885772
 20
13.49951488917247
 30
0.0
 11
27.6926976902335
 21
15.61333915054819
 31
0.0
  0
LINE
  5
1628
330
14CD
100
AcDbEntity
  8
0
 62
     0
100
AcDbLine
 10
29.84221213871098
 20
17.76285359902573
 30
0.0
 11
32.64221213871104
 21
20.5628535990258
 31
0.0
  0
LINE
  5
1629
330
14CD
100
AcDbEntity
  8
0
 62
     0
100
AcDbLine
 10
21.31388395427916
 20
9.234525414593861
 30
0.0
 11
23.54221213871107
 21
11.46285359902583
 31
0.0
  0
LINE
  5
162A
330
14CD
100
AcDbEntity
  8
0
 62
     0
100
AcDbLine
 10
24.96472685943752
 20
13.78339393185905
 30
0.0
 11
27.40881864754686
 21
16.22748571996845
 31
0.0
  0
LINE
  5
162B
330
14CD
100
AcDbEntity
  8
0
 62
     0
100
AcDbLine
 10
29.84221213871103
 20
18.66087921113262
 30
0.0
 11
32.6422121387111
 21
21.46087921113263
 31
0.0
  0
LINE
  5
162C
330
14CD
100
AcDbEntity
  8
0
 62
     0
100
AcDbLine
 10
21.02256644435442
 20
9.841233516776014
 30
0.0
 11
23.54221213871107
 21
12.36087921113266
 31
0.0
  0
LINE
  5
162D
330
14CD
100
AcDbEntity
  8
0
 62
     0
100
AcDbLine
 10
24.5267669324478
 20
14.24345961697633
 30
0.0
 11
26.94875296242964
 21
16.66544564695811
 31
0.0
  0
LINE
  5
162E
330
14CD
100
AcDbEntity
  8
0
 62
     0
100
AcDbLine
 10
29.84221213871103
 20
19.55890482323951
 30
0.0
 11
32.64221213871104
 21
22.35890482323958
 31
0.0
  0
LINE
  5
162F
330
14CD
100
AcDbEntity
  8
0
 62
     0
100
AcDbLine
 10
20.82142908017976
 20
10.5381217647083
 30
0.0
 11
23.54221213871107
 21
13.25890482323961
 31
0.0
  0
LINE
  5
1630
330
14CD
100
AcDbEntity
  8
0
 62
     0
100
AcDbLine
 10
24.27071620003943
 20
14.88543449667486
 30
0.0
 11
26.30677808273105
 21
16.92149637936654
 31
0.0
  0
LINE
  5
1631
330
14CD
100
AcDbEntity
  8
0
 62
     0
100
AcDbLine
 10
20.74221213871101
 20
11.35693043534649
 30
0.0
 11
23.54221213871107
 21
14.15693043534651
 31
0.0
  0
LINE
  5
1632
330
14CD
100
AcDbEntity
  8
0
 62
     0
100
AcDbLine
 10
29.84221213871098
 20
20.45693043534646
 30
0.0
 11
32.48496203035597
 21
23.09968032699146
 31
0.0
  0
LINE
  5
1633
330
14CD
100
AcDbEntity
  8
0
 62
     0
100
AcDbLine
 10
16.65621538083541
 20
7.270933677470907
 30
0.0
 11
18.52127890193514
 21
9.135997198570635
 31
0.0
  0
LINE
  5
1634
330
14CD
100
AcDbEntity
  8
0
 62
     0
100
AcDbLine
 10
24.38912928352022
 20
15.90187319226254
 30
0.0
 11
25.29033938714343
 21
16.80308329588575
 31
0.0
  0
LINE
  5
1635
330
14CD
100
AcDbEntity
  8
0
 62
     0
100
AcDbLine
 10
20.74221213871101
 20
12.25495604745333
 30
0.0
 11
23.54221213871107
 21
15.0549560474534
 31
0.0
  0
LINE
  5
1636
330
14CD
100
AcDbEntity
  8
0
 62
     0
100
AcDbLine
 10
29.84221213871103
 20
21.35495604745329
 30
0.0
 11
31.73725653195259
 21
23.25000044069491
 31
0.0
  0
LINE
  5
1637
330
14CD
100
AcDbEntity
  8
0
 62
     0
100
AcDbLine
 10
15.63725653195246
 20
7.150000440694782
 30
0.0
 11
18.6422121387111
 21
10.15495604745342
 31
0.0
  0
LINE
  5
1638
330
14CD
100
AcDbEntity
  8
0
 62
     0
100
AcDbLine
 10
20.74221213871101
 20
13.15298165956028
 30
0.0
 11
23.54221213871107
 21
15.95298165956035
 31
0.0
  0
LINE
  5
1639
330
14CD
100
AcDbEntity
  8
0
 62
     0
100
AcDbLine
 10
29.84221213871098
 20
22.25298165956024
 30
0.0
 11
30.83923091984559
 21
23.25000044069486
 31
0.0
  0
LINE
  5
163A
330
14CD
100
AcDbEntity
  8
0
 62
     0
100
AcDbLine
 10
14.73923091984556
 20
7.150000440694782
 30
0.0
 11
18.6422121387111
 21
11.05298165956037
 31
0.0
  0
LINE
  5
163B
330
14CD
100
AcDbEntity
  8
0
 62
     0
100
AcDbLine
 10
20.74221213871101
 20
14.05100727166717
 30
0.0
 11
23.54221213871102
 21
16.85100727166724
 31
0.0
  0
LINE
  5
163C
330
14CD
100
AcDbEntity
  8
0
 62
     0
100
AcDbLine
 10
13.84120530773861
 20
7.150000440694839
 30
0.0
 11
18.63827278614991
 21
11.94706791910613
 31
0.0
  0
LINE
  5
163D
330
14CD
100
AcDbEntity
  8
0
 62
     0
100
AcDbLine
 10
20.74221213871101
 20
14.94903288377412
 30
0.0
 11
23.54221213871107
 21
17.74903288377419
 31
0.0
  0
LINE
  5
163E
330
14CD
100
AcDbEntity
  8
0
 62
     0
100
AcDbLine
 10
26.24317969563179
 20
20.4500004406949
 30
0.0
 11
27.39221213871116
 21
21.59903288377421
 31
0.0
  0
LINE
  5
163F
330
14CD
100
AcDbEntity
  8
0
 62
     0
100
AcDbLine
 10
12.94317969563172
 20
7.150000440694839
 30
0.0
 11
18.52861094982858
 21
12.7354316948917
 31
0.0
  0
LINE
  5
1640
330
14CD
100
AcDbEntity
  8
0
 62
     0
100
AcDbLine
 10
20.74221213871101
 20
15.84705849588101
 30
0.0
 11
23.54221213871107
 21
18.64705849588102
 31
0.0
  0
LINE
  5
1641
330
14CD
100
AcDbEntity
  8
0
 62
     0
100
AcDbLine
 10
15.84221213871109
 20
10.94705849588109
 30
0.0
 11
18.30627220578446
 21
13.41111856295447
 31
0.0
  0
LINE
  5
1642
330
14CD
100
AcDbEntity
  8
0
 62
     0
100
AcDbLine
 10
25.34515408352479
 20
20.45000044069479
 30
0.0
 11
27.3922121387111
 21
22.4970584958811
 31
0.0
  0
LINE
  5
1643
330
14CD
100
AcDbEntity
  8
0
 62
     0
100
AcDbLine
 10
12.10287995878474
 20
7.207726315954744
 30
0.0
 11
14.84515408352478
 21
9.950000440694793
 31
0.0
  0
LINE
  5
1644
330
14CD
100
AcDbEntity
  8
0
 62
     0
100
AcDbLine
 10
20.74221213871095
 20
16.7450841079879
 30
0.0
 11
23.70802684449074
 21
19.71089881376769
 31
0.0
  0
LINE
  5
1645
330
14CD
100
AcDbEntity
  8
0
 62
     0
100
AcDbLine
 10
15.84005304710183
 20
11.84292501637872
 30
0.0
 11
17.99784067111244
 21
14.00071264038939
 31
0.0
  0
LINE
  5
1646
330
14CD
100
AcDbEntity
  8
0
 62
     0
100
AcDbLine
 10
24.28131376563829
 20
20.28418573491524
 30
0.0
 11
27.1587447237913
 21
23.16161669306819
 31
0.0
  0
LINE
  5
1647
330
14CD
100
AcDbEntity
  8
0
 62
     0
100
AcDbLine
 10
11.81721213871099
 20
7.820084107987952
 30
0.0
 11
13.94712847141795
 21
9.950000440694907
 31
0.0
  0
LINE
  5
1648
330
14CD
100
AcDbEntity
  8
0
 62
     0
100
AcDbLine
 10
15.62045002760112
 20
12.52134760898502
 30
0.0
 11
17.61559870627354
 21
14.51649628765744
 31
0.0
  0
LINE
  5
1649
330
14CD
100
AcDbEntity
  8
0
 62
     0
100
AcDbLine
 10
20.74221213871095
 20
17.64310972009485
 30
0.0
 11
26.34910285931101
 21
23.25000044069491
 31
0.0
  0
LINE
  5
164A
330
14CD
100
AcDbEntity
  8
0
 62
     0
100
AcDbLine
 10
11.81721213871099
 20
8.718109720094901
 30
0.0
 11
13.04910285931095
 21
9.95000044069485
 31
0.0
  0
LINE
  5
164B
330
14CD
100
AcDbEntity
  8
0
 62
     0
100
AcDbLine
 10
15.19419519929641
 20
12.99311839278715
 30
0.0
 11
17.17409418661878
 21
14.97301738010952
 31
0.0
  0
LINE
  5
164C
330
14CD
100
AcDbEntity
  8
0
 62
     0
100
AcDbLine
 10
20.74221213871101
 20
18.54113533220169
 30
0.0
 11
25.45107724720395
 21
23.25000044069469
 31
0.0
  0
LINE
  5
164D
330
14CD
100
AcDbEntity
  8
0
 62
     0
100
AcDbLine
 10
11.88616406073083
 20
9.685087254221571
 30
0.0
 11
12.08212532518444
 21
9.881048518675186
 31
0.0
  0
LINE
  5
164E
330
14CD
100
AcDbEntity
  8
0
 62
     0
100
AcDbLine
 10
20.76218725286758
 20
19.45913605846522
 30
0.0
 11
24.53307652094059
 21
23.23002532653828
 31
0.0
  0
LINE
  5
164F
330
14CD
100
AcDbEntity
  8
0
 62
     0
100
AcDbLine
 10
14.74518239324282
 20
13.44213119884051
 30
0.0
 11
16.72508138056531
 21
15.422030186163
 31
0.0
  0
LINE
  5
1650
330
14CD
100
AcDbEntity
  8
0
 62
     0
100
AcDbLine
 10
21.06165068513337
 20
20.656625102838
 30
0.0
 11
23.33558747656786
 21
22.9305618942725
 31
0.0
  0
LINE
  5
1651
330
14CD
100
AcDbEntity
  8
0
 62
     0
100
AcDbLine
 10
14.29616958718935
 20
13.89114400489398
 30
0.0
 11
16.27606857451183
 21
15.87104299221647
 31
0.0
  0
LINE
  5
1652
330
14CD
100
AcDbEntity
  8
0
 62
     0
100
AcDbLine
 10
13.8471567811361
 20
14.34015681094757
 30
0.0
 11
15.82705576845836
 21
16.32005579826977
 31
0.0
  0
LINE
  5
1653
330
14CD
100
AcDbEntity
  8
0
 62
     0
100
AcDbLine
 10
13.39814397508263
 20
14.78916961700105
 30
0.0
 11
15.37804296240489
 21
16.76906860432325
 31
0.0
  0
LINE
  5
1654
330
14CD
100
AcDbEntity
  8
0
 62
     0
100
AcDbLine
 10
12.94913116902898
 20
15.23818242305435
 30
0.0
 11
14.92903015635141
 21
17.21808141037672
 31
0.0
  0
LINE
  5
1655
330
14CD
100
AcDbEntity
  8
0
 62
     0
100
AcDbLine
 10
17.26292357456259
 20
20.4500004406949
 30
0.0
 11
18.11721213871095
 21
21.30428900484326
 31
0.0
  0
LINE
  5
1656
330
14CD
100
AcDbEntity
  8
0
 62
     0
100
AcDbLine
 10
12.50020167700375
 20
15.68727854313607
 30
0.0
 11
14.48026732043621
 21
17.66734418656852
 31
0.0
  0
LINE
  5
1657
330
14CD
100
AcDbEntity
  8
0
 62
     0
100
AcDbLine
 10
16.36489796245564
 20
20.45000044069479
 30
0.0
 11
18.11721213871106
 21
22.20231461695021
 31
0.0
  0
LINE
  5
1658
330
14CD
100
AcDbEntity
  8
0
 62
     0
100
AcDbLine
 10
12.08873375245218
 20
16.17383623069128
 30
0.0
 11
14.15037043914827
 21
18.23547291738742
 31
0.0
  0
LINE
  5
1659
330
14CD
100
AcDbEntity
  8
0
 62
     0
100
AcDbLine
 10
15.46687235034869
 20
20.45000044069479
 30
0.0
 11
18.03065323894992
 21
23.01378132929602
 31
0.0
  0
LINE
  5
165A
330
14CD
100
AcDbEntity
  8
0
 62
     0
100
AcDbLine
 10
11.74827314618971
 20
16.73140123653576
 30
0.0
 11
14.09221213871103
 21
19.07534022905713
 31
0.0
  0
LINE
  5
165B
330
14CD
100
AcDbEntity
  8
0
 62
     0
100
AcDbLine
 10
14.56638008907168
 20
20.44753379152467
 30
0.0
 11
17.36884673824187
 21
23.25000044069486
 31
0.0
  0
LINE
  5
165C
330
14CD
100
AcDbEntity
  8
0
 62
     0
100
AcDbLine
 10
11.48757985045762
 20
17.36873355291061
 30
0.0
 11
14.0946787878812
 21
19.97583249033425
 31
0.0
  0
LINE
  5
165D
330
14CD
100
AcDbEntity
  8
0
 62
     0
100
AcDbLine
 10
11.32576788820955
 20
18.10494720276943
 30
0.0
 11
16.47082112613498
 21
23.25000044069486
 31
0.0
  0
LINE
  5
165E
330
14CD
100
AcDbEntity
  8
0
 62
     0
100
AcDbLine
 10
11.29221213871107
 20
18.96941706537785
 30
0.0
 11
15.57279551402803
 21
23.25000044069486
 31
0.0
  0
LINE
  5
165F
330
14CD
100
AcDbEntity
  8
0
 62
     0
100
AcDbLine
 10
11.29221213871102
 20
19.8674426774848
 30
0.0
 11
14.67476990192113
 21
23.25000044069486
 31
0.0
  0
LINE
  5
1660
330
14CD
100
AcDbEntity
  8
0
 62
     0
100
AcDbLine
 10
11.31240414914935
 20
20.78566030003003
 30
0.0
 11
13.75655227937596
 21
23.22980843025664
 31
0.0
  0
ENDBLK
  5
1662
330
14CD
100
AcDbEntity
  8
0
100
AcDbBlockEnd
  0
BLOCK
  5
169F
330
1693
100
AcDbEntity
  8
0
100
AcDbBlockBegin
  2
*D11
 70
     1
 10
0.0
 20
0.0
 30
0.0
  3
*D11
  1

  0
LINE
  5
1A3F
330
1693
100
AcDbEntity
  8
SUNPOU
100
AcDbLine
 10
527.7082652557912
 20
343.7156150993508
 30
0.0
 11
504.1134826389131
 21
343.7156150993508
 31
0.0
  0
LINE
  5
1A40
330
1693
100
AcDbEntity
  8
SUNPOU
100
AcDbLine
 10
540.2082652557915
 20
353.6508152409459
 30
0.0
 11
504.1134826389131
 21
353.6508152409459
 31
0.0
  0
LINE
  5
1A41
330
1693
100
AcDbEntity
  8
SUNPOU
100
AcDbLine
 10
507.1134826389132
 20
336.7156150993508
 30
0.0
 11
507.1134826389132
 21
329.7156150993508
 31
0.0
  0
LINE
  5
1A42
330
1693
100
AcDbEntity
  8
SUNPOU
100
AcDbLine
 10
507.1134826389132
 20
360.6508152409459
 30
0.0
 11
507.1134826389132
 21
378.6508152409459
 31
0.0
  0
LINE
  5
1A43
330
1693
100
AcDbEntity
  8
SUNPOU
100
AcDbLine
 10
507.1134826389132
 20
343.7156150993508
 30
0.0
 11
507.1134826389132
 21
353.6508152409459
 31
0.0
  0
INSERT
  5
1A44
330
1693
100
AcDbEntity
  8
SUNPOU
100
AcDbBlockReference
  2
_OPEN
 10
507.1134826389132
 20
343.7156150993508
 30
0.0
 41
7.0
 42
7.0
 43
7.0
 50
90.0
  0
INSERT
  5
1A45
330
1693
100
AcDbEntity
  8
SUNPOU
100
AcDbBlockReference
  2
_OPEN
 10
507.1134826389132
 20
353.6508152409459
 30
0.0
 41
7.0
 42
7.0
 43
7.0
 50
270.0
  0
MTEXT
  5
1A46
330
1693
100
AcDbEntity
  8
SUNPOU
100
AcDbMText
 10
502.1134826389131
 20
373.1508152409459
 30
0.0
 40
6.0
 41
0.0
 71
     5
 72
     1
  1
\A1;10
 11
0.0000000000000001
 21
1.0
 31
0.0
1001
ACAD
1000
MTEXTBEGIN
1070
    73
1070
     1
1070
    44
1040
1.0
1070
    74
1070
     0
1000
MTEXTEND
  0
POINT
  5
1A47
330
1693
100
AcDbEntity
  8
DEFPOINTS
 62
     0
100
AcDbPoint
 10
533.7082652557913
 20
343.7156150993508
 30
0.0
  0
POINT
  5
1A48
330
1693
100
AcDbEntity
  8
DEFPOINTS
 62
     0
100
AcDbPoint
 10
546.2082652557914
 20
353.6508152409459
 30
0.0
  0
POINT
  5
1A49
330
1693
100
AcDbEntity
  8
DEFPOINTS
 62
     0
100
AcDbPoint
 10
507.1134826389132
 20
353.6508152409459
 30
0.0
  0
ENDBLK
  5
16A0
330
1693
100
AcDbEntity
  8
0
100
AcDbBlockEnd
  0
BLOCK
  5
17EC
330
17E0
100
AcDbEntity
  8
0
100
AcDbBlockBegin
  2
*D12
 70
     1
 10
0.0
 20
0.0
 30
0.0
  3
*D12
  1

  0
LINE
  5
1A05
330
17E0
100
AcDbEntity
  8
SUNPOU
100
AcDbLine
 10
372.3928253068078
 20
238.4061257321355
 30
0.0
 11
365.4855643411616
 21
237.2704559066756
 31
0.0
  0
LINE
  5
1A06
330
17E0
100
AcDbEntity
  8
SUNPOU
100
AcDbLine
 10
388.1808503711421
 20
241.0019424760438
 30
0.0
 11
408.9026332680807
 21
244.4089519524235
 31
0.0
  0
LINE
  5
1A07
330
17E0
100
AcDbEntity
  8
SUNPOU
100
AcDbLine
 10
379.300086272454
 20
239.5417955575954
 30
0.0
 11
381.2735894054959
 21
239.8662726505839
 31
0.0
  0
INSERT
  5
1A08
330
17E0
100
AcDbEntity
  8
SUNPOU
100
AcDbBlockReference
  2
_OPEN
 10
379.300086272454
 20
239.5417955575954
 30
0.0
 41
7.0
 42
7.0
 43
7.0
 50
9.336853415681574
  0
INSERT
  5
1A09
330
17E0
100
AcDbEntity
  8
SUNPOU
100
AcDbBlockReference
  2
_OPEN
 10
381.2735894054959
 20
239.8662726505839
 30
0.0
 41
7.0
 42
7.0
 43
7.0
 50
189.3368534156816
  0
MTEXT
  5
1A0A
330
17E0
100
AcDbEntity
  8
SUNPOU
100
AcDbMText
 10
401.1841795699632
 20
248.207039959568
 30
0.0
 40
6.0
 41
0.0
 71
     5
 72
     1
  1
\A1;t2
 11
0.9867515665208882
 21
0.162238546494269
 31
0.0
1001
ACAD
1000
MTEXTBEGIN
1070
    73
1070
     1
1070
    44
1040
1.0
1070
    74
1070
     0
1000
MTEXTEND
  0
POINT
  5
1A0B
330
17E0
100
AcDbEntity
  8
DEFPOINTS
 62
     0
100
AcDbPoint
 10
379.300086272454
 20
239.5417955575954
 30
0.0
  0
POINT
  5
1A0C
330
17E0
100
AcDbEntity
  8
DEFPOINTS
 62
     0
100
AcDbPoint
 10
381.2735894054959
 20
239.866272650584
 30
0.0
  0
POINT
  5
1A0D
330
17E0
100
AcDbEntity
  8
DEFPOINTS
 62
     0
100
AcDbPoint
 10
381.2735894054959
 20
239.8662726505839
 30
0.0
  0
ENDBLK
  5
17ED
330
17E0
100
AcDbEntity
  8
0
100
AcDbBlockEnd
  0
BLOCK
  5
1920
330
191A
100
AcDbEntity
  8
0
100
AcDbBlockBegin
  2
*D13
 70
     1
 10
0.0
 20
0.0
 30
0.0
  3
*D13
  1

  0
LINE
  5
1A7E
330
191A
100
AcDbEntity
  8
SUNPOU
100
AcDbLine
 10
223.0973132921974
 20
213.8594336475537
 30
0.0
 11
372.3928253068078
 21
238.4061257321357
 31
0.0
  0
MTEXT
  5
1A7F
330
191A
100
AcDbEntity
  8
SUNPOU
100
AcDbMText
 10
341.7482373417199
 20
239.2074032841469
 30
0.0
 40
6.0
 41
0.0
 71
     5
 72
     1
  1
\A1;(\U+2205165.3)
 11
0.9867515665208891
 21
0.1622385464942634
 31
0.0
  0
INSERT
  5
1A80
330
191A
100
AcDbEntity
  8
SUNPOU
100
AcDbBlockReference
  2
_OPEN
 10
216.1900523265512
 20
212.7237638220938
 30
0.0
 41
7.0
 42
7.0
 43
7.0
 50
189.3368534156813
  0
INSERT
  5
1A81
330
191A
100
AcDbEntity
  8
SUNPOU
100
AcDbBlockReference
  2
_OPEN
 10
379.300086272454
 20
239.5417955575955
 30
0.0
 41
7.0
 42
7.0
 43
7.0
 50
9.336853415681273
  0
POINT
  5
1A82
330
191A
100
AcDbEntity
  8
DEFPOINTS
 62
     0
100
AcDbPoint
 10
379.300086272454
 20
239.5417955575955
 30
0.0
  0
POINT
  5
1A83
330
191A
100
AcDbEntity
  8
DEFPOINTS
 62
     0
100
AcDbPoint
 10
216.1900523265512
 20
212.7237638220938
 30
0.0
  0
ENDBLK
  5
1921
330
191A
100
AcDbEntity
  8
0
100
AcDbBlockEnd
  0
ENDSEC
  0
SECTION
  2
ENTITIES
  0
POLYLINE
  5
83B
330
1A
100
AcDbEntity
  8
ZUWAKU
100
AcDb2dPolyline
 66
     1
 10
0.0
 20
0.0
 30
0.0
 70
     1
  0
VERTEX
  5
1A5F
330
83B
100
AcDbEntity
  8
ZUWAKU
100
AcDbVertex
100
AcDb2dVertex
 10
10.79999999999995
 20
560.8
 30
0.0
  0
VERTEX
  5
1A60
330
83B
100
AcDbEntity
  8
ZUWAKU
100
AcDbVertex
100
AcDb2dVertex
 10
10.79999999999995
 20
10.80000000000006
 30
0.0
  0
VERTEX
  5
1A61
330
83B
100
AcDbEntity
  8
ZUWAKU
100
AcDbVertex
100
AcDb2dVertex
 10
806.7999999999999
 20
10.80000000000006
 30
0.0
  0
VERTEX
  5
1A62
330
83B
100
AcDbEntity
  8
ZUWAKU
100
AcDbVertex
100
AcDb2dVertex
 10
806.7999999999999
 20
560.8
 30
0.0
  0
SEQEND
  5
1A63
330
83B
100
AcDbEntity
  8
ZUWAKU
  0
POLYLINE
  5
83C
330
1A
100
AcDbEntity
  8
ZUWAKU
100
AcDb2dPolyline
 66
     1
 10
0.0
 20
0.0
 30
0.0
 70
     1
  0
VERTEX
  5
1A64
330
83C
100
AcDbEntity
  8
ZUWAKU
100
AcDbVertex
100
AcDb2dVertex
 10
10.39999999999997
 20
561.2
 30
0.0
  0
VERTEX
  5
1A65
330
83C
100
AcDbEntity
  8
ZUWAKU
100
AcDbVertex
100
AcDb2dVertex
 10
10.39999999999997
 20
10.40000000000009
 30
0.0
  0
VERTEX
  5
1A66
330
83C
100
AcDbEntity
  8
ZUWAKU
100
AcDbVertex
100
AcDb2dVertex
 10
807.2
 20
10.40000000000006
 30
0.0
  0
VERTEX
  5
1A67
330
83C
100
AcDbEntity
  8
ZUWAKU
100
AcDbVertex
100
AcDb2dVertex
 10
807.2
 20
561.2
 30
0.0
  0
SEQEND
  5
1A68
330
83C
100
AcDbEntity
  8
ZUWAKU
  0
POLYLINE
  5
83D
330
1A
100
AcDbEntity
  8
ZUWAKU
100
AcDb2dPolyline
 66
     1
 10
0.0
 20
0.0
 30
0.0
 70
     1
  0
VERTEX
  5
1A69
330
83D
100
AcDbEntity
  8
ZUWAKU
100
AcDbVertex
100
AcDb2dVertex
 10
10.0
 20
561.6
 30
0.0
  0
VERTEX
  5
1A6A
330
83D
100
AcDbEntity
  8
ZUWAKU
100
AcDbVertex
100
AcDb2dVertex
 10
10.0
 20
10.0
 30
0.0
  0
VERTEX
  5
1A6B
330
83D
100
AcDbEntity
  8
ZUWAKU
100
AcDbVertex
100
AcDb2dVertex
 10
807.6000000000002
 20
10.00000000000006
 30
0.0
  0
VERTEX
  5
1A6C
330
83D
100
AcDbEntity
  8
ZUWAKU
100
AcDbVertex
100
AcDb2dVertex
 10
807.6000000000002
 20
561.6000000000001
 30
0.0
  0
SEQEND
  5
1A6D
330
83D
100
AcDbEntity
  8
ZUWAKU
  0
POLYLINE
  5
83E
330
1A
100
AcDbEntity
  8
ZUWAKU
100
AcDb2dPolyline
 66
     1
 10
0.0
 20
0.0
 30
0.0
 70
     1
  0
VERTEX
  5
1A6E
330
83E
100
AcDbEntity
  8
ZUWAKU
100
AcDbVertex
100
AcDb2dVertex
 10
10.5999999999999
 20
561.0000000000001
 30
0.0
  0
VERTEX
  5
1A6F
330
83E
100
AcDbEntity
  8
ZUWAKU
100
AcDbVertex
100
AcDb2dVertex
 10
10.5999999999999
 20
10.60000000000002
 30
0.0
  0
VERTEX
  5
1A70
330
83E
100
AcDbEntity
  8
ZUWAKU
100
AcDbVertex
100
AcDb2dVertex
 10
807.0000000000002
 20
10.60000000000006
 30
0.0
  0
VERTEX
  5
1A71
330
83E
100
AcDbEntity
  8
ZUWAKU
100
AcDbVertex
100
AcDb2dVertex
 10
807.0
 20
561.0000000000001
 30
0.0
  0
SEQEND
  5
1A72
330
83E
100
AcDbEntity
  8
ZUWAKU
  0
POLYLINE
  5
83F
330
1A
100
AcDbEntity
  8
ZUWAKU
100
AcDb2dPolyline
 66
     1
 10
0.0
 20
0.0
 30
0.0
 70
     1
  0
VERTEX
  5
1A73
330
83F
100
AcDbEntity
  8
ZUWAKU
100
AcDbVertex
100
AcDb2dVertex
 10
10.19999999999993
 20
561.4
 30
0.0
  0
VERTEX
  5
1A74
330
83F
100
AcDbEntity
  8
ZUWAKU
100
AcDbVertex
100
AcDb2dVertex
 10
10.19999999999993
 20
10.20000000000004
 30
0.0
  0
VERTEX
  5
1A75
330
83F
100
AcDbEntity
  8
ZUWAKU
100
AcDbVertex
100
AcDb2dVertex
 10
807.3999999999998
 20
10.20000000000006
 30
0.0
  0
VERTEX
  5
1A76
330
83F
100
AcDbEntity
  8
ZUWAKU
100
AcDbVertex
100
AcDb2dVertex
 10
807.4000000000001
 20
561.4
 30
0.0
  0
SEQEND
  5
1A77
330
83F
100
AcDbEntity
  8
ZUWAKU
  0
LINE
  5
840
330
1A
100
AcDbEntity
  8
ZUWAKU
100
AcDbLine
 10
10.0
 20
40.0
 30
0.0
 11
807.3999999999998
 21
40.0
 31
0.0
  0
LINE
  5
841
330
1A
100
AcDbEntity
  8
ZUWAKU
100
AcDbLine
 10
10.0
 20
40.2
 30
0.0
 11
807.3999999999998
 21
40.2
 31
0.0
  0
LINE
  5
842
330
1A
100
AcDbEntity
  8
ZUWAKU
100
AcDbLine
 10
10.0
 20
40.4
 30
0.0
 11
807.3999999999998
 21
40.4
 31
0.0
  0
LINE
  5
843
330
1A
100
AcDbEntity
  8
ZUWAKU
100
AcDbLine
 10
10.0
 20
40.60000000000001
 30
0.0
 11
807.3999999999998
 21
40.60000000000001
 31
0.0
  0
LINE
  5
844
330
1A
100
AcDbEntity
  8
ZUWAKU
100
AcDbLine
 10
10.0
 20
40.8
 30
0.0
 11
807.3999999999998
 21
40.8
 31
0.0
  0
LINE
  5
845
330
1A
100
AcDbEntity
  8
ZUWAKU
100
AcDbLine
 10
218.646601290068
 20
25.40000000000003
 30
0.0
 11
457.4243639709914
 21
25.40000000000003
 31
0.0
  0
LINE
  5
846
330
1A
100
AcDbEntity
  8
ZUWAKU
100
AcDbLine
 10
218.646601290068
 20
25.60000000000003
 30
0.0
 11
457.4243639709914
 21
25.60000000000004
 31
0.0
  0
LINE
  5
847
330
1A
100
AcDbEntity
  8
ZUWAKU
100
AcDbLine
 10
218.646601290068
 20
25.20000000000004
 30
0.0
 11
457.4243639709914
 21
25.20000000000003
 31
0.0
  0
TEXT
  5
848
330
1A
100
AcDbEntity
  8
MOJI
100
AcDbText
 10
102.9577895881691
 20
22.74117813027476
 30
0.0
 40
6.0
  1
エスロン厚肉たてとい
 41
0.9
  7
ｽﾀｲﾙ1
100
AcDbText
  0
CIRCLE
  5
849
330
1A
100
AcDbEntity
  8
ZUWAKU
100
AcDbCircle
 10
35.9922121547811
 20
25.2
 30
0.0
 40
1.75
  0
LINE
  5
84A
330
1A
100
AcDbEntity
  8
ZUWAKU
100
AcDbLine
 10
36.8672121547811
 20
17.15
 30
0.0
 11
34.94221215478114
 21
17.15
 31
0.0
  0
LINE
  5
84B
330
1A
100
AcDbEntity
  8
ZUWAKU
100
AcDbLine
 10
34.94221215478114
 20
19.95
 30
0.0
 11
36.8672121547811
 21
19.95
 31
0.0
  0
LINE
  5
84C
330
1A
100
AcDbEntity
  8
ZUWAKU
100
AcDbLine
 10
36.8672121547811
 20
30.45
 30
0.0
 11
34.94221215478114
 21
30.45
 31
0.0
  0
LINE
  5
84D
330
1A
100
AcDbEntity
  8
ZUWAKU
100
AcDbLine
 10
34.94221215478114
 20
33.24999999999996
 30
0.0
 11
36.8672121547811
 21
33.25000000000001
 31
0.0
  0
INSERT
  5
84E
330
1A
100
AcDbEntity
  8
ZUWAKU
  6
CONTINUOUS
100
AcDbBlockReference
  2
*X10
 10
10.00000001607008
 20
9.999999559305138
 30
0.0
1001
ACAD
1000
HATCH
1002
{
1070
    19
1000
ANSI37
1040
0.2
1040
0.0
1000
R14_HATCH_DATA
1000
84E
1011
11.00000001607009
1021
9.999999559305138
1031
0.0
1011
10.00000001607008
1021
10.99999955930513
1031
0.0
1011
10.00000001607008
1021
9.999999559305138
1031
1.0
1040
0.0
1010
0.0
1020
0.0
1030
1.0
1000
ANSI37
1070
     0
1070
     0
1071
        8
1071
        7
1070
     1
1070
     1
1071
       24
1040
14.50226264504976
1040
17.64484892167844
1040
-0.1989123673796348
1040
14.09221213871103
1040
18.63479841533949
1040
0.0
1040
14.09221213871103
1040
19.92500044069487
1040
-0.4142135623730912
1040
14.61721213871101
1040
20.45000044069486
1040
0.0
1040
17.59221213871092
1040
20.45000044069486
1040
0.4142135623731546
1040
18.11721213871101
1040
20.97500044069485
1040
0.0
1040
18.11721213871101
1040
22.72500044069487
1040
0.4142135623731586
1040
17.59221213871092
1040
23.25000044069486
1040
0.0
1040
14.09221213871103
1040
23.25000044069486
1040
0.4142135623730928
1040
11.29221213871107
1040
20.45000044069489
1040
0.0
1040
11.29221213871107
1040
18.63479841533962
1040
0.1989123673796619
1040
12.52236365772751
1040
15.66494993435601
1040
0.0
1040
15.43216163237218
1040
12.75515195971135
1040
-0.1989123673796613
1040
15.84221213871103
1040
11.76520246605017
1040
0.0
1040
15.84221213871103
1040
10.47500044069485
1040
-0.4142135623730911
1040
15.31721213871105
1040
9.950000440694864
1040
0.0
1040
12.34221213871114
1040
9.950000440694864
1040
0.4142135623731526
1040
11.81721213871105
1040
9.425000440694876
1040
0.0
1040
11.81721213871105
1040
7.675000440694855
1040
0.4142135623731526
1040
12.34221213871114
1040
7.150000440694867
1040
0.0
1040
15.84221213871103
1040
7.150000440694867
1040
0.4142135623731044
1040
18.6422121387111
1040
9.950000440694843
1040
0.0
1040
18.6422121387111
1040
11.76520246605011
1040
0.1989123673796604
1040
17.41206061969455
1040
14.73505094703365
1040
0.0
1071
        0
1071
        7
1070
     1
1070
     1
1071
       16
1040
23.54221213871107
1040
19.05000044069487
1040
-0.4142135623730935
1040
24.94221213871105
1040
20.45000044069486
1040
0.0
1040
26.86721213871101
1040
20.45000044069486
1040
0.4142135623731546
1040
27.3922121387111
1040
20.97500044069485
1040
0.0
1040
27.3922121387111
1040
22.72500044069487
1040
0.4142135623730951
1040
26.86721213871112
1040
23.25000044069486
1040
0.0
1040
24.94221213871094
1040
23.25000044069482
1040
0.4142135623730892
1040
20.74221213871101
1040
19.0500004406948
1040
0.0
1040
20.74221213871101
1040
11.35000044069489
1040
0.4142135623730969
1040
24.94221213871105
1040
7.150000440694867
1040
0.0
1040
26.86721213871101
1040
7.150000440694867
1040
0.4142135623731526
1040
27.3922121387111
1040
7.675000440694855
1040
0.0
1040
27.3922121387111
1040
9.425000440694876
1040
0.4142135623730891
1040
26.86721213871112
1040
9.950000440694864
1040
0.0
1040
24.94221213871105
1040
9.950000440694864
1040
-0.4142135623730928
1040
23.54221213871107
1040
11.35000044069485
1040
0.0
1071
        0
1071
        7
1070
     1
1070
     1
1071
        2
1040
24.24221213871101
1040
15.20000044069486
1040
1.0
1040
27.74221213871101
1040
15.20000044069486
1040
1.0
1071
        0
1071
        7
1070
     1
1070
     1
1071
       26
1040
37.31485862088902
1040
19.20504763425829
1040
0.0
1040
38.37649825402684
1040
22.56690647252788
1040
0.5069206636600134
1040
37.87586735483148
1040
23.25000044069486
1040
0.0
1040
36.17697797522225
1040
23.25000044069486
1040
0.3272098845218764
1040
35.6763470760269
1040
22.88309440886183
1040
0.0
1040
33.80807720139512
1040
16.96690647252794
1040
-0.3272098845219541
1040
33.30744630219965
1040
16.60000044069486
1040
0.0
1040
33.16721213871119
1040
16.60000044069486
1040
-0.4142135623731526
1040
32.6422121387111
1040
17.12500044069485
1040
0.0
1040
32.6422121387111
1040
22.72500044069487
1040
0.4142135623730951
1040
32.11721213871112
1040
23.25000044069486
1040
0.0
1040
30.36721213871101
1040
23.25000044069486
1040
0.4142135623730871
1040
29.84221213871103
1040
22.72500044069488
1040
0.0
1040
29.84221213871103
1040
7.675000440694855
1040
0.4142135623730891
1040
30.36721213871101
1040
7.150000440694867
1040
0.0
1040
32.11721213871101
1040
7.150000440694867
1040
0.4142135623731526
1040
32.6422121387111
1040
7.675000440694855
1040
0.0
1040
32.6422121387111
1040
13.27500044069487
1040
-0.4142135623731526
1040
33.16721213871119
1040
13.80000044069486
1040
0.0
1040
33.30744630219976
1040
13.80000044069486
1040
-0.3272098845218915
1040
33.80807720139512
1040
13.43309440886179
1040
0.0
1040
35.6763470760269
1040
7.516906472527939
1040
0.3272098845218902
1040
36.17697797522225
1040
7.150000440694867
1040
0.0
1040
37.87586735483148
1040
7.150000440694867
1040
0.5069206636600335
1040
38.37649825402684
1040
7.833094408861875
1040
0.0
1040
36.05010687555318
1040
15.200000440695
1040
0.0
1071
        0
1071
        7
1070
     1
1070
     1
1071
        8
1040
43.49221213871101
1040
22.72500044069488
1040
0.4142135623731546
1040
42.96721213871092
1040
23.25000044069486
1040
0.0
1040
41.21721213871114
1040
23.25000044069486
1040
0.4142135623731507
1040
40.69221213871105
1040
22.72500044069488
1040
0.0
1040
40.69221213871105
1040
7.675000440694855
1040
0.4142135623731526
1040
41.21721213871114
1040
7.150000440694867
1040
0.0
1040
42.96721213871092
1040
7.150000440694867
1040
0.4142135623731526
1040
43.49221213871101
1040
7.675000440694855
1040
0.0
1071
        0
1071
        7
1070
     1
1070
     1
1071
       24
1040
48.3922121387111
1040
19.92500044069487
1040
-0.4142135623731546
1040
48.91721213871119
1040
20.45000044069486
1040
0.0
1040
51.8922121387111
1040
20.45000044069486
1040
0.4142135623730911
1040
52.41721213871108
1040
20.97500044069485
1040
0.0
1040
52.41721213871108
1040
22.72500044069487
1040
0.4142135623730952
1040
51.8922121387111
1040
23.25000044069486
1040
0.0
1040
48.3922121387111
1040
23.25000044069486
1040
0.4142135623731048
1040
45.59221213871103
1040
20.45000044069489
1040
0.0
1040
45.59221213871103
1040
18.63479841533962
1040
0.1989123673796613
1040
46.82236365772758
1040
15.66494993435607
1040
0.0
1040
49.73216163237225
1040
12.7551519597114
1040
-0.1989123673796402
1040
50.1422121387111
1040
11.76520246605033
1040
0.0
1040
50.1422121387111
1040
10.47500044069485
1040
-0.4142135623730911
1040
49.61721213871112
1040
9.950000440694864
1040
0.0
1040
46.6422121387111
1040
9.950000440694864
1040
0.4142135623731526
1040
46.11721213871101
1040
9.425000440694876
1040
0.0
1040
46.11721213871101
1040
7.675000440694855
1040
0.4142135623730891
1040
46.64221213871099
1040
7.150000440694867
1040
0.0
1040
50.1422121387111
1040
7.150000440694867
1040
0.4142135623730925
1040
52.94221213871106
1040
9.950000440694843
1040
0.0
1040
52.94221213871106
1040
11.76520246605011
1040
0.1989123673796675
1040
51.71206061969451
1040
14.73505094703376
1040
0.0
1040
48.80226264504995
1040
17.64484892167828
1040
-0.1989123673796652
1040
48.3922121387111
1040
18.63479841533945
1040
0.0
1071
        0
1071
        7
1070
     1
1070
     1
1071
       16
1040
57.84221213871103
1040
22.72500044069485
1040
0.414213562373103
1040
57.31721213871106
1040
23.25000044069486
1040
0.0
1040
55.56721213871106
1040
23.25000044069486
1040
0.4142135623730871
1040
55.04221213871108
1040
22.72500044069488
1040
0.0
1040
55.04221213871108
1040
9.950000440694843
1040
0.4142135623730926
1040
57.84221213871103
1040
7.150000440694867
1040
0.0
1040
61.34221213871104
1040
7.150000440694867
1040
0.4142135623731044
1040
64.1422121387111
1040
9.950000440694843
1040
0.0
1040
64.1422121387111
1040
22.72500044069487
1040
0.4142135623730951
1040
63.61721213871113
1040
23.25000044069486
1040
0.0
1040
61.86721213871101
1040
23.25000044069486
1040
0.4142135623730871
1040
61.34221213871104
1040
22.72500044069488
1040
0.0
1040
61.34221213871104
1040
11.00000044069484
1040
-0.414213562373088
1040
60.29221213871108
1040
9.950000440694864
1040
0.0
1040
58.8922121387111
1040
9.950000440694864
1040
-0.4142135623731197
1040
57.84221213871103
1040
11.00000044069484
1040
0.0
1071
        0
1071
        7
1070
     1
1070
     1
1071
        8
1040
69.04221213871108
1040
22.72500044069488
1040
0.4142135623730871
1040
68.5172121387111
1040
23.25000044069486
1040
0.0
1040
66.7672121387111
1040
23.25000044069486
1040
0.4142135623731507
1040
66.24221213871101
1040
22.72500044069488
1040
0.0
1040
66.24221213871101
1040
7.675000440694855
1040
0.4142135623730891
1040
66.76721213871099
1040
7.150000440694867
1040
0.0
1040
68.5172121387111
1040
7.150000440694867
1040
0.4142135623730891
1040
69.04221213871108
1040
7.675000440694855
1040
0.0
1071
        0
1070
     0
1070
     1
1040
0.0
1040
0.2
1070
     0
1070
     2
1040
0.7853981633974483
1040
-900.942304350749
1040
-13.19999955930507
1040
-0.4490128060534576
1040
0.4490128060534577
1070
     0
1040
2.356194490192344
1040
-900.942304350749
1040
-13.19999955930507
1040
-0.4490128060534577
1040
-0.4490128060534576
1070
     0
1040
0.057451373970553
1071
        8
1040
16.07985494695322
1040
15.16717408658041
1040
0.0
1040
22.40451499036907
1040
18.84406262314587
1040
0.0
1040
25.16436786958957
1040
15.51188208676558
1040
0.0
1040
30.91405996556705
1040
16.20129808713636
1040
0.0
1040
41.83847200288664
1040
16.66091035467798
1040
0.0
1040
46.89820087905945
1040
19.41857675710207
1040
0.0
1040
56.55768595633026
1040
18.72915835578987
1040
0.0
1040
67.82707960355264
1040
19.18877062333149
1040
0.0
1002
}
  0
ARC
  5
84F
330
1A
100
AcDbEntity
  8
ZUWAKU
100
AcDbCircle
 10
25.4922121547811
 20
28.6347979746447
 30
0.0
 40
4.199999999999999
100
AcDbArc
 50
180.0
 51
225.0
  0
LINE
  5
850
330
1A
100
AcDbEntity
  8
ZUWAKU
100
AcDbLine
 10
30.7422121547811
 20
21.35000000000001
 30
0.0
 11
30.7422121547811
 21
29.04999999999996
 31
0.0
  0
LINE
  5
851
330
1A
100
AcDbEntity
  8
ZUWAKU
100
AcDbLine
 10
33.54221215478117
 20
29.05
 30
0.0
 11
33.54221215478117
 21
21.35000000000001
 31
0.0
  0
ARC
  5
852
330
1A
100
AcDbEntity
  8
ZUWAKU
100
AcDbCircle
 10
25.4922121547811
 20
28.6347979746447
 30
0.0
 40
1.399999999999999
100
AcDbArc
 50
180.0000000000016
 51
224.9999999999988
  0
ARC
  5
853
330
1A
100
AcDbEntity
  8
ZUWAKU
100
AcDbCircle
 10
34.94221215478114
 20
21.35000000000001
 30
0.0
 40
4.199999999999999
100
AcDbArc
 50
180.0
 51
270.0
  0
ARC
  5
854
330
1A
100
AcDbEntity
  8
ZUWAKU
100
AcDbCircle
 10
25.84221215478112
 20
19.95
 30
0.0
 40
2.799999999999999
100
AcDbArc
 50
270.0
 51
0.0
  0
ARC
  5
855
330
1A
100
AcDbEntity
  8
ZUWAKU
100
AcDbCircle
 10
24.44221215478114
 20
21.76520202535531
 30
0.0
 40
4.199999999999999
100
AcDbArc
 50
0.0
 51
45.0
  0
LINE
  5
856
330
1A
100
AcDbEntity
  8
ZUWAKU
100
AcDbLine
 10
22.52236367379759
 20
25.66494949366118
 30
0.0
 11
25.43216164844227
 21
22.75515151901652
 31
0.0
  0
LINE
  5
857
330
1A
100
AcDbEntity
  8
ZUWAKU
100
AcDbLine
 10
22.34221215478112
 20
19.95
 30
0.0
 11
25.31721215478114
 21
19.95
 31
0.0
  0
LINE
  5
858
330
1A
100
AcDbEntity
  8
ZUWAKU
100
AcDbLine
 10
22.34221215478112
 20
17.15
 30
0.0
 11
25.84221215478112
 21
17.15
 31
0.0
  0
ARC
  5
859
330
1A
100
AcDbEntity
  8
ZUWAKU
100
AcDbCircle
 10
22.34221215478112
 20
19.425
 30
0.0
 40
0.525
100
AcDbArc
 50
90.0
 51
180.0
  0
ARC
  5
85A
330
1A
100
AcDbEntity
  8
ZUWAKU
100
AcDbCircle
 10
22.34221215478112
 20
17.675
 30
0.0
 40
0.525
100
AcDbArc
 50
180.0
 51
270.0
  0
LINE
  5
85B
330
1A
100
AcDbEntity
  8
ZUWAKU
100
AcDbLine
 10
21.81721215478114
 20
17.675
 30
0.0
 11
21.81721215478114
 21
19.425
 31
0.0
  0
ARC
  5
85C
330
1A
100
AcDbEntity
  8
ZUWAKU
100
AcDbCircle
 10
24.44221215478114
 20
21.76520202535535
 30
0.0
 40
1.399999999999999
100
AcDbArc
 50
0.0
 51
45.0
  0
ARC
  5
85D
330
1A
100
AcDbEntity
  8
ZUWAKU
100
AcDbCircle
 10
25.31721215478114
 20
20.475
 30
0.0
 40
0.525
100
AcDbArc
 50
270.0
 51
0.0
  0
LINE
  5
85E
330
1A
100
AcDbEntity
  8
ZUWAKU
100
AcDbLine
 10
25.84221215478112
 20
20.475
 30
0.0
 11
25.84221215478112
 21
21.76520202535535
 31
0.0
  0
LINE
  5
85F
330
1A
100
AcDbEntity
  8
ZUWAKU
100
AcDbLine
 10
27.41206063576465
 20
24.73505050633883
 30
0.0
 11
24.50226266111997
 21
27.6448484809835
 31
0.0
  0
ARC
  5
860
330
1A
100
AcDbEntity
  8
ZUWAKU
100
AcDbCircle
 10
34.94221215478114
 20
21.35000000000001
 30
0.0
 40
1.399999999999999
100
AcDbArc
 50
180.0
 51
270.0
  0
LINE
  5
861
330
1A
100
AcDbEntity
  8
ZUWAKU
100
AcDbLine
 10
28.64221215478119
 20
19.95
 30
0.0
 11
28.64221215478119
 21
21.76520202535535
 31
0.0
  0
ARC
  5
862
330
1A
100
AcDbEntity
  8
ZUWAKU
100
AcDbCircle
 10
27.59221215478112
 20
30.975
 30
0.0
 40
0.525
100
AcDbArc
 50
270.0
 51
0.0
  0
ARC
  5
863
330
1A
100
AcDbEntity
  8
ZUWAKU
100
AcDbCircle
 10
27.59221215478112
 20
32.725
 30
0.0
 40
0.525
100
AcDbArc
 50
0.0
 51
90.0
  0
ARC
  5
864
330
1A
100
AcDbEntity
  8
ZUWAKU
100
AcDbCircle
 10
24.09221215478112
 20
30.45
 30
0.0
 40
2.799999999999999
100
AcDbArc
 50
90.0
 51
180.0
  0
LINE
  5
865
330
1A
100
AcDbEntity
  8
ZUWAKU
100
AcDbLine
 10
21.29221215478116
 20
30.45
 30
0.0
 11
21.29221215478116
 21
28.63479797464466
 31
0.0
  0
LINE
  5
866
330
1A
100
AcDbEntity
  8
ZUWAKU
100
AcDbLine
 10
27.59221215478112
 20
30.45
 30
0.0
 11
24.6172121547811
 21
30.45
 31
0.0
  0
LINE
  5
867
330
1A
100
AcDbEntity
  8
ZUWAKU
100
AcDbLine
 10
24.09221215478112
 20
29.925
 30
0.0
 11
24.09221215478112
 21
28.63479797464466
 31
0.0
  0
ARC
  5
868
330
1A
100
AcDbEntity
  8
ZUWAKU
100
AcDbCircle
 10
24.6172121547811
 20
29.925
 30
0.0
 40
0.525
100
AcDbArc
 50
90.0
 51
180.0
  0
LINE
  5
869
330
1A
100
AcDbEntity
  8
ZUWAKU
100
AcDbLine
 10
24.09221215478112
 20
33.25000000000001
 30
0.0
 11
27.59221215478112
 21
33.25000000000001
 31
0.0
  0
ARC
  5
86A
330
1A
100
AcDbEntity
  8
ZUWAKU
100
AcDbCircle
 10
34.94221215478114
 20
29.04999999999996
 30
0.0
 40
4.199999999999999
100
AcDbArc
 50
90.0
 51
180.0
  0
ARC
  5
86B
330
1A
100
AcDbEntity
  8
ZUWAKU
100
AcDbCircle
 10
34.94221215478114
 20
29.05
 30
0.0
 40
1.399999999999999
100
AcDbArc
 50
90.0
 51
180.0
  0
LINE
  5
86C
330
1A
100
AcDbEntity
  8
ZUWAKU
100
AcDbLine
 10
28.1172121547811
 20
32.725
 30
0.0
 11
28.1172121547811
 21
30.975
 31
0.0
  0
LINE
  5
86D
330
1A
100
AcDbEntity
  8
ZUWAKU
100
AcDbLine
 10
45.67634709209698
 20
32.88309396816697
 30
0.0
 11
43.80807721746521
 21
26.96690603183303
 31
0.0
  0
LINE
  5
86E
330
1A
100
AcDbEntity
  8
ZUWAKU
100
AcDbLine
 10
39.84221215478112
 20
32.725
 30
0.0
 11
39.84221215478112
 21
17.675
 31
0.0
  0
LINE
  5
86F
330
1A
100
AcDbEntity
  8
ZUWAKU
100
AcDbLine
 10
42.64221215478118
 20
27.125
 30
0.0
 11
42.64221215478118
 21
32.725
 31
0.0
  0
LINE
  5
870
330
1A
100
AcDbEntity
  8
ZUWAKU
100
AcDbLine
 10
67.84221215478112
 20
21.0
 30
0.0
 11
67.84221215478112
 21
32.725
 31
0.0
  0
LINE
  5
871
330
1A
100
AcDbEntity
  8
ZUWAKU
100
AcDbLine
 10
65.04221215478117
 20
32.725
 30
0.0
 11
65.04221215478117
 21
19.95
 31
0.0
  0
LINE
  5
872
330
1A
100
AcDbEntity
  8
ZUWAKU
100
AcDbLine
 10
53.4922121547811
 20
17.675
 30
0.0
 11
53.4922121547811
 21
32.725
 31
0.0
  0
LINE
  5
873
330
1A
100
AcDbEntity
  8
ZUWAKU
100
AcDbLine
 10
50.69221215478115
 20
32.725
 30
0.0
 11
50.69221215478115
 21
17.675
 31
0.0
  0
LINE
  5
874
330
1A
100
AcDbEntity
  8
ZUWAKU
100
AcDbLine
 10
47.31485863695911
 20
29.20504719356343
 30
0.0
 11
46.05010689162327
 21
25.20000000000002
 31
0.0
  0
ARC
  5
875
330
1A
100
AcDbEntity
  8
ZUWAKU
100
AcDbCircle
 10
59.79221215478117
 20
28.6347979746447
 30
0.0
 40
4.199999999999999
100
AcDbArc
 50
180.0
 51
225.0
  0
ARC
  5
876
330
1A
100
AcDbEntity
  8
ZUWAKU
100
AcDbCircle
 10
59.79221215478117
 20
28.6347979746447
 30
0.0
 40
1.399999999999999
100
AcDbArc
 50
180.0000000000016
 51
224.9999999999988
  0
LINE
  5
877
330
1A
100
AcDbEntity
  8
ZUWAKU
100
AcDbLine
 10
76.2422121547811
 20
32.725
 30
0.0
 11
76.2422121547811
 21
17.675
 31
0.0
  0
LINE
  5
878
330
1A
100
AcDbEntity
  8
ZUWAKU
100
AcDbLine
 10
79.04221215478116
 20
17.675
 30
0.0
 11
79.04221215478116
 21
32.725
 31
0.0
  0
LINE
  5
879
330
1A
100
AcDbEntity
  8
ZUWAKU
100
AcDbLine
 10
71.34221215478112
 20
32.725
 30
0.0
 11
71.34221215478112
 21
21.0
 31
0.0
  0
LINE
  5
87A
330
1A
100
AcDbEntity
  8
ZUWAKU
100
AcDbLine
 10
74.14221215478119
 20
19.95
 30
0.0
 11
74.14221215478119
 21
32.725
 31
0.0
  0
LINE
  5
87B
330
1A
100
AcDbEntity
  8
ZUWAKU
100
AcDbLine
 10
89.12662954798838
 20
40.0
 30
0.0
 11
89.12662954798838
 21
10.80000000000006
 31
0.0
  0
LINE
  5
87C
330
1A
100
AcDbEntity
  8
ZUWAKU
100
AcDbLine
 10
89.52662954798825
 20
40.0
 30
0.0
 11
89.52662954798848
 21
10.80000000000006
 31
0.0
  0
LINE
  5
87D
330
1A
100
AcDbEntity
  8
ZUWAKU
100
AcDbLine
 10
89.3266295479882
 20
40.0
 30
0.0
 11
89.32662954798843
 21
10.80000000000006
 31
0.0
  0
LINE
  5
87E
330
1A
100
AcDbEntity
  8
ZUWAKU
100
AcDbLine
 10
67.84221215478112
 20
17.15
 30
0.0
 11
71.34221215478112
 21
17.15
 31
0.0
  0
LINE
  5
87F
330
1A
100
AcDbEntity
  8
ZUWAKU
100
AcDbLine
 10
70.29221215478116
 20
19.95
 30
0.0
 11
68.89221215478119
 21
19.95
 31
0.0
  0
LINE
  5
880
330
1A
100
AcDbEntity
  8
ZUWAKU
100
AcDbLine
 10
51.21721215478112
 20
17.15
 30
0.0
 11
52.96721215478112
 21
17.15
 31
0.0
  0
LINE
  5
881
330
1A
100
AcDbEntity
  8
ZUWAKU
100
AcDbLine
 10
45.67634709209698
 20
17.51690603183303
 30
0.0
 11
43.80807721746521
 21
23.43309396816697
 31
0.0
  0
ARC
  5
882
330
1A
100
AcDbEntity
  8
ZUWAKU
100
AcDbCircle
 10
43.16721215478117
 20
23.275
 30
0.0
 40
0.525
100
AcDbArc
 50
90.0
 51
180.0
  0
ARC
  5
883
330
1A
100
AcDbEntity
  8
ZUWAKU
100
AcDbCircle
 10
43.30744631826985
 20
23.275
 30
0.0
 40
0.525
100
AcDbArc
 50
17.52556837372303
 51
90.0
  0
ARC
  5
884
330
1A
100
AcDbEntity
  8
ZUWAKU
100
AcDbCircle
 10
40.3672121547811
 20
17.675
 30
0.0
 40
0.525
100
AcDbArc
 50
180.0
 51
270.0
  0
ARC
  5
885
330
1A
100
AcDbEntity
  8
ZUWAKU
100
AcDbCircle
 10
36.8672121547811
 20
19.425
 30
0.0
 40
0.525
100
AcDbArc
 50
0.0
 51
90.0
  0
ARC
  5
886
330
1A
100
AcDbEntity
  8
ZUWAKU
100
AcDbCircle
 10
36.8672121547811
 20
17.675
 30
0.0
 40
0.525
100
AcDbArc
 50
270.0
 51
0.0
  0
LINE
  5
887
330
1A
100
AcDbEntity
  8
ZUWAKU
100
AcDbLine
 10
37.39221215478119
 20
19.425
 30
0.0
 11
37.39221215478119
 21
17.675
 31
0.0
  0
LINE
  5
888
330
1A
100
AcDbEntity
  8
ZUWAKU
100
AcDbLine
 10
42.64221215478118
 20
17.675
 30
0.0
 11
42.64221215478118
 21
23.275
 31
0.0
  0
ARC
  5
889
330
1A
100
AcDbEntity
  8
ZUWAKU
100
AcDbCircle
 10
42.11721215478109
 20
17.675
 30
0.0
 40
0.525
100
AcDbArc
 50
270.0
 51
0.0
  0
LINE
  5
88A
330
1A
100
AcDbEntity
  8
ZUWAKU
100
AcDbLine
 10
40.3672121547811
 20
17.15
 30
0.0
 11
42.11721215478109
 21
17.15
 31
0.0
  0
ARC
  5
88B
330
1A
100
AcDbEntity
  8
ZUWAKU
100
AcDbCircle
 10
43.16721215478117
 20
27.125
 30
0.0
 40
0.525
100
AcDbArc
 50
180.0
 51
270.0
  0
LINE
  5
88C
330
1A
100
AcDbEntity
  8
ZUWAKU
100
AcDbLine
 10
43.16721215478117
 20
23.8
 30
0.0
 11
43.30744631826985
 21
23.8
 31
0.0
  0
LINE
  5
88D
330
1A
100
AcDbEntity
  8
ZUWAKU
100
AcDbLine
 10
43.30744631826985
 20
26.6
 30
0.0
 11
43.16721215478117
 21
26.6
 31
0.0
  0
ARC
  5
88E
330
1A
100
AcDbEntity
  8
ZUWAKU
100
AcDbCircle
 10
43.30744631826985
 20
27.125
 30
0.0
 40
0.525
100
AcDbArc
 50
270.0
 51
342.4744316262769
  0
ARC
  5
88F
330
1A
100
AcDbEntity
  8
ZUWAKU
100
AcDbCircle
 10
46.17697799129246
 20
17.675
 30
0.0
 40
0.525
100
AcDbArc
 50
197.525568373723
 51
270.0
  0
LINE
  5
890
330
1A
100
AcDbEntity
  8
ZUWAKU
100
AcDbLine
 10
48.37649827009693
 20
17.83309396816697
 30
0.0
 11
46.05010689162327
 21
25.20000000000002
 31
0.0
  0
ARC
  5
891
330
1A
100
AcDbEntity
  8
ZUWAKU
100
AcDbCircle
 10
47.87586737090146
 20
17.675
 30
0.0
 40
0.525
100
AcDbArc
 50
270.0
 51
17.52556837372303
  0
LINE
  5
892
330
1A
100
AcDbEntity
  8
ZUWAKU
100
AcDbLine
 10
46.17697799129246
 20
17.15
 30
0.0
 11
47.87586737090146
 21
17.15
 31
0.0
  0
ARC
  5
893
330
1A
100
AcDbEntity
  8
ZUWAKU
100
AcDbCircle
 10
51.21721215478112
 20
17.675
 30
0.0
 40
0.525
100
AcDbArc
 50
180.0
 51
270.0
  0
ARC
  5
894
330
1A
100
AcDbEntity
  8
ZUWAKU
100
AcDbCircle
 10
60.14221215478119
 20
19.95
 30
0.0
 40
2.799999999999999
100
AcDbArc
 50
270.0
 51
0.0
  0
ARC
  5
895
330
1A
100
AcDbEntity
  8
ZUWAKU
100
AcDbCircle
 10
67.84221215478112
 20
19.95
 30
0.0
 40
2.799999999999999
100
AcDbArc
 50
180.0
 51
270.0
  0
LINE
  5
896
330
1A
100
AcDbEntity
  8
ZUWAKU
100
AcDbLine
 10
61.71206063576471
 20
24.73505050633883
 30
0.0
 11
58.80226266111993
 21
27.6448484809835
 31
0.0
  0
LINE
  5
897
330
1A
100
AcDbEntity
  8
ZUWAKU
100
AcDbLine
 10
56.82236367379767
 20
25.66494949366118
 30
0.0
 11
59.73216164844235
 21
22.75515151901652
 31
0.0
  0
LINE
  5
898
330
1A
100
AcDbEntity
  8
ZUWAKU
100
AcDbLine
 10
56.64221215478119
 20
17.15
 30
0.0
 11
60.14221215478119
 21
17.15
 31
0.0
  0
LINE
  5
899
330
1A
100
AcDbEntity
  8
ZUWAKU
100
AcDbLine
 10
56.64221215478119
 20
19.95
 30
0.0
 11
59.6172121547811
 21
19.95
 31
0.0
  0
ARC
  5
89A
330
1A
100
AcDbEntity
  8
ZUWAKU
100
AcDbCircle
 10
56.64221215478119
 20
19.425
 30
0.0
 40
0.525
100
AcDbArc
 50
90.0
 51
180.0
  0
ARC
  5
89B
330
1A
100
AcDbEntity
  8
ZUWAKU
100
AcDbCircle
 10
52.96721215478112
 20
17.675
 30
0.0
 40
0.525
100
AcDbArc
 50
270.0
 51
0.0
  0
ARC
  5
89C
330
1A
100
AcDbEntity
  8
ZUWAKU
100
AcDbCircle
 10
56.64221215478119
 20
17.675
 30
0.0
 40
0.525
100
AcDbArc
 50
180.0
 51
270.0
  0
LINE
  5
89D
330
1A
100
AcDbEntity
  8
ZUWAKU
100
AcDbLine
 10
56.1172121547811
 20
17.675
 30
0.0
 11
56.1172121547811
 21
19.425
 31
0.0
  0
ARC
  5
89E
330
1A
100
AcDbEntity
  8
ZUWAKU
100
AcDbCircle
 10
59.6172121547811
 20
20.475
 30
0.0
 40
0.525
100
AcDbArc
 50
270.0
 51
0.0
  0
ARC
  5
89F
330
1A
100
AcDbEntity
  8
ZUWAKU
100
AcDbCircle
 10
58.7422121547811
 20
21.76520202535535
 30
0.0
 40
1.399999999999999
100
AcDbArc
 50
0.0
 51
45.0
  0
LINE
  5
8A0
330
1A
100
AcDbEntity
  8
ZUWAKU
100
AcDbLine
 10
60.14221215478119
 20
20.475
 30
0.0
 11
60.14221215478119
 21
21.76520202535535
 31
0.0
  0
ARC
  5
8A1
330
1A
100
AcDbEntity
  8
ZUWAKU
100
AcDbCircle
 10
68.89221215478119
 20
21.0
 30
0.0
 40
1.049999999999999
100
AcDbArc
 50
180.0
 51
270.0
  0
ARC
  5
8A2
330
1A
100
AcDbEntity
  8
ZUWAKU
100
AcDbCircle
 10
58.7422121547811
 20
21.76520202535531
 30
0.0
 40
4.199999999999999
100
AcDbArc
 50
0.0
 51
45.0
  0
LINE
  5
8A3
330
1A
100
AcDbEntity
  8
ZUWAKU
100
AcDbLine
 10
62.94221215478114
 20
19.95
 30
0.0
 11
62.94221215478114
 21
21.76520202535535
 31
0.0
  0
ARC
  5
8A4
330
1A
100
AcDbEntity
  8
ZUWAKU
100
AcDbCircle
 10
71.34221215478112
 20
19.95
 30
0.0
 40
2.799999999999999
100
AcDbArc
 50
270.0
 51
0.0
  0
LINE
  5
8A5
330
1A
100
AcDbEntity
  8
ZUWAKU
100
AcDbLine
 10
76.76721215478119
 20
17.15
 30
0.0
 11
78.51721215478119
 21
17.15
 31
0.0
  0
ARC
  5
8A6
330
1A
100
AcDbEntity
  8
ZUWAKU
100
AcDbCircle
 10
70.29221215478116
 20
21.0
 30
0.0
 40
1.049999999999999
100
AcDbArc
 50
270.0
 51
0.0
  0
ARC
  5
8A7
330
1A
100
AcDbEntity
  8
ZUWAKU
100
AcDbCircle
 10
76.76721215478119
 20
17.675
 30
0.0
 40
0.525
100
AcDbArc
 50
180.0
 51
270.0
  0
ARC
  5
8A8
330
1A
100
AcDbEntity
  8
ZUWAKU
100
AcDbCircle
 10
78.51721215478119
 20
17.675
 30
0.0
 40
0.525
100
AcDbArc
 50
270.0
 51
0.0
  0
LINE
  5
8A9
330
1A
100
AcDbEntity
  8
ZUWAKU
100
AcDbLine
 10
52.96721215478112
 20
33.25000000000001
 30
0.0
 11
51.21721215478112
 21
33.25000000000001
 31
0.0
  0
LINE
  5
8AA
330
1A
100
AcDbEntity
  8
ZUWAKU
100
AcDbLine
 10
37.39221215478119
 20
32.725
 30
0.0
 11
37.39221215478119
 21
30.975
 31
0.0
  0
ARC
  5
8AB
330
1A
100
AcDbEntity
  8
ZUWAKU
100
AcDbCircle
 10
36.8672121547811
 20
30.975
 30
0.0
 40
0.525
100
AcDbArc
 50
270.0
 51
0.0
  0
ARC
  5
8AC
330
1A
100
AcDbEntity
  8
ZUWAKU
100
AcDbCircle
 10
40.3672121547811
 20
32.725
 30
0.0
 40
0.525
100
AcDbArc
 50
90.0
 51
180.0
  0
ARC
  5
8AD
330
1A
100
AcDbEntity
  8
ZUWAKU
100
AcDbCircle
 10
36.8672121547811
 20
32.725
 30
0.0
 40
0.525
100
AcDbArc
 50
0.0
 51
90.0
  0
LINE
  5
8AE
330
1A
100
AcDbEntity
  8
ZUWAKU
100
AcDbLine
 10
42.11721215478109
 20
33.25000000000001
 30
0.0
 11
40.3672121547811
 21
33.25000000000001
 31
0.0
  0
ARC
  5
8AF
330
1A
100
AcDbEntity
  8
ZUWAKU
100
AcDbCircle
 10
42.11721215478109
 20
32.725
 30
0.0
 40
0.525
100
AcDbArc
 50
0.0
 51
90.0
  0
ARC
  5
8B0
330
1A
100
AcDbEntity
  8
ZUWAKU
100
AcDbCircle
 10
46.17697799129246
 20
32.725
 30
0.0
 40
0.525
100
AcDbArc
 50
90.0
 51
162.4744316262769
  0
LINE
  5
8B1
330
1A
100
AcDbEntity
  8
ZUWAKU
100
AcDbLine
 10
48.37649827009693
 20
32.56690603183303
 30
0.0
 11
47.31485863695911
 21
29.20504719356343
 31
0.0
  0
ARC
  5
8B2
330
1A
100
AcDbEntity
  8
ZUWAKU
100
AcDbCircle
 10
47.87586737090146
 20
32.725
 30
0.0
 40
0.525
100
AcDbArc
 50
342.4744316262769
 51
90.0
  0
LINE
  5
8B3
330
1A
100
AcDbEntity
  8
ZUWAKU
100
AcDbLine
 10
46.17697799129246
 20
33.25000000000001
 30
0.0
 11
47.87586737090146
 21
33.25000000000001
 31
0.0
  0
ARC
  5
8B4
330
1A
100
AcDbEntity
  8
ZUWAKU
100
AcDbCircle
 10
51.21721215478112
 20
32.725
 30
0.0
 40
0.525
100
AcDbArc
 50
90.0
 51
180.0
  0
LINE
  5
8B5
330
1A
100
AcDbEntity
  8
ZUWAKU
100
AcDbLine
 10
61.89221215478119
 20
30.45
 30
0.0
 11
58.91721215478117
 21
30.45
 31
0.0
  0
LINE
  5
8B6
330
1A
100
AcDbEntity
  8
ZUWAKU
100
AcDbLine
 10
58.39221215478119
 20
33.25000000000001
 30
0.0
 11
61.89221215478119
 21
33.25000000000001
 31
0.0
  0
ARC
  5
8B7
330
1A
100
AcDbEntity
  8
ZUWAKU
100
AcDbCircle
 10
58.39221215478119
 20
30.45
 30
0.0
 40
2.799999999999999
100
AcDbArc
 50
90.0
 51
180.0
  0
LINE
  5
8B8
330
1A
100
AcDbEntity
  8
ZUWAKU
100
AcDbLine
 10
55.59221215478112
 20
30.45
 30
0.0
 11
55.59221215478112
 21
28.63479797464466
 31
0.0
  0
ARC
  5
8B9
330
1A
100
AcDbEntity
  8
ZUWAKU
100
AcDbCircle
 10
52.96721215478112
 20
32.725
 30
0.0
 40
0.525
100
AcDbArc
 50
0.0
 51
90.0
  0
LINE
  5
8BA
330
1A
100
AcDbEntity
  8
ZUWAKU
100
AcDbLine
 10
58.39221215478119
 20
29.925
 30
0.0
 11
58.39221215478119
 21
28.63479797464466
 31
0.0
  0
ARC
  5
8BB
330
1A
100
AcDbEntity
  8
ZUWAKU
100
AcDbCircle
 10
58.91721215478117
 20
29.925
 30
0.0
 40
0.525
100
AcDbArc
 50
90.0
 51
180.0
  0
LINE
  5
8BC
330
1A
100
AcDbEntity
  8
ZUWAKU
100
AcDbLine
 10
62.41721215478117
 20
32.725
 30
0.0
 11
62.41721215478117
 21
30.975
 31
0.0
  0
ARC
  5
8BD
330
1A
100
AcDbEntity
  8
ZUWAKU
100
AcDbCircle
 10
61.89221215478119
 20
30.975
 30
0.0
 40
0.525
100
AcDbArc
 50
270.0
 51
0.0
  0
ARC
  5
8BE
330
1A
100
AcDbEntity
  8
ZUWAKU
100
AcDbCircle
 10
61.89221215478119
 20
32.725
 30
0.0
 40
0.525
100
AcDbArc
 50
0.0
 51
90.0
  0
LINE
  5
8BF
330
1A
100
AcDbEntity
  8
ZUWAKU
100
AcDbLine
 10
67.31721215478114
 20
33.25000000000001
 30
0.0
 11
65.56721215478114
 21
33.25000000000001
 31
0.0
  0
ARC
  5
8C0
330
1A
100
AcDbEntity
  8
ZUWAKU
100
AcDbCircle
 10
65.56721215478114
 20
32.725
 30
0.0
 40
0.525
100
AcDbArc
 50
90.0
 51
180.0
  0
ARC
  5
8C1
330
1A
100
AcDbEntity
  8
ZUWAKU
100
AcDbCircle
 10
67.31721215478114
 20
32.725
 30
0.0
 40
0.525
100
AcDbArc
 50
0.0
 51
90.0
  0
LINE
  5
8C2
330
1A
100
AcDbEntity
  8
ZUWAKU
100
AcDbLine
 10
78.51721215478119
 20
33.25000000000001
 30
0.0
 11
76.76721215478119
 21
33.25000000000001
 31
0.0
  0
ARC
  5
8C3
330
1A
100
AcDbEntity
  8
ZUWAKU
100
AcDbCircle
 10
71.8672121547811
 20
32.725
 30
0.0
 40
0.525
100
AcDbArc
 50
90.0
 51
180.0
  0
LINE
  5
8C4
330
1A
100
AcDbEntity
  8
ZUWAKU
100
AcDbLine
 10
73.6172121547811
 20
33.25000000000001
 30
0.0
 11
71.8672121547811
 21
33.25000000000001
 31
0.0
  0
ARC
  5
8C5
330
1A
100
AcDbEntity
  8
ZUWAKU
100
AcDbCircle
 10
73.6172121547811
 20
32.725
 30
0.0
 40
0.525
100
AcDbArc
 50
0.0
 51
90.0
  0
ARC
  5
8C6
330
1A
100
AcDbEntity
  8
ZUWAKU
100
AcDbCircle
 10
76.76721215478119
 20
32.725
 30
0.0
 40
0.525
100
AcDbArc
 50
90.0
 51
180.0
  0
ARC
  5
8C7
330
1A
100
AcDbEntity
  8
ZUWAKU
100
AcDbCircle
 10
78.51721215478119
 20
32.725
 30
0.0
 40
0.525
100
AcDbArc
 50
0.0
 51
90.0
  0
LINE
  5
8C8
330
1A
100
AcDbEntity
  8
ZUWAKU
100
AcDbLine
 10
218.4466012900677
 20
40.0
 30
0.0
 11
218.4466012900679
 21
10.80000000000006
 31
0.0
  0
LINE
  5
8C9
330
1A
100
AcDbEntity
  8
ZUWAKU
100
AcDbLine
 10
218.6466012900678
 20
40.0
 30
0.0
 11
218.646601290068
 21
10.80000000000006
 31
0.0
  0
LINE
  5
8CA
330
1A
100
AcDbEntity
  8
ZUWAKU
100
AcDbLine
 10
218.2466012900679
 20
40.0
 30
0.0
 11
218.2466012900679
 21
10.80000000000006
 31
0.0
  0
TEXT
  5
8CB
330
1A
100
AcDbEntity
  8
MOJI
100
AcDbText
 10
249.8272026808511
 20
28.00492105740739
 30
0.0
 40
5.599999999999999
  1
たてバンド
 41
0.9
  7
ｽﾀｲﾙ1
100
AcDbText
  0
TEXT
  5
8CC
330
1A
100
AcDbEntity
  8
ZUWAKU
100
AcDbText
 10
219.7240463122775
 20
19.65535653838561
 30
0.0
 40
4.0
  1
サイズ
 41
0.9
  7
ｽﾀｲﾙ1
100
AcDbText
  0
TEXT
  5
8CD
330
1A
100
AcDbEntity
  8
MOJI
100
AcDbText
 10
249.8272026808511
 20
13.20492105740742
 30
0.0
 40
5.599999999999999
  1
ＶＵ・ＶＰ１５０（１５０Ａ）
 41
0.9
  7
ｽﾀｲﾙ1
100
AcDbText
  0
TEXT
  5
8CE
330
1A
100
AcDbEntity
  8
ZUWAKU
100
AcDbText
 10
219.7240463122773
 20
34.05535653838558
 30
0.0
 40
4.0
  1
品名
 41
0.9
  7
ｽﾀｲﾙ1
100
AcDbText
  0
TEXT
  5
8CF
330
1A
100
AcDbEntity
  8
ZUWAKU
100
AcDbText
 10
668.2039376873023
 20
28.00492105740739
 30
0.0
 40
5.599999999999999
  1
　　．　　．　　
 41
0.9
  7
ｽﾀｲﾙ1
100
AcDbText
  0
LINE
  5
8D0
330
1A
100
AcDbEntity
  8
ZUWAKU
100
AcDbLine
 10
658.8172025102042
 20
25.60000000000003
 30
0.0
 11
707.2490105485412
 21
25.60000000000003
 31
0.0
  0
LINE
  5
8D1
330
1A
100
AcDbEntity
  8
ZUWAKU
100
AcDbLine
 10
658.8172025102044
 20
25.40000000000004
 30
0.0
 11
707.2490105485412
 21
25.40000000000003
 31
0.0
  0
LINE
  5
8D2
330
1A
100
AcDbEntity
  8
ZUWAKU
100
AcDbLine
 10
658.8172025102042
 20
25.20000000000003
 30
0.0
 11
707.2490105485412
 21
25.20000000000003
 31
0.0
  0
LINE
  5
8D3
330
1A
100
AcDbEntity
  8
ZUWAKU
100
AcDbLine
 10
515.1991794981409
 20
25.60000000000003
 30
0.0
 11
562.5269557661124
 21
25.60000000000003
 31
0.0
  0
LINE
  5
8D4
330
1A
100
AcDbEntity
  8
ZUWAKU
100
AcDbLine
 10
515.1991794981409
 20
25.40000000000003
 30
0.0
 11
562.5269557661124
 21
25.40000000000003
 31
0.0
  0
LINE
  5
8D5
330
1A
100
AcDbEntity
  8
ZUWAKU
100
AcDbLine
 10
515.1991794981409
 20
25.20000000000004
 30
0.0
 11
562.5269557661124
 21
25.20000000000004
 31
0.0
  0
LINE
  5
8D6
330
1A
100
AcDbEntity
  8
ZUWAKU
100
AcDbLine
 10
514.799179498141
 20
40.0
 30
0.0
 11
514.799179498141
 21
10.80000000000006
 31
0.0
  0
LINE
  5
8D7
330
1A
100
AcDbEntity
  8
ZUWAKU
100
AcDbLine
 10
515.1991794981409
 20
40.0
 30
0.0
 11
515.1991794981411
 21
10.80000000000006
 31
0.0
  0
LINE
  5
8D8
330
1A
100
AcDbEntity
  8
ZUWAKU
100
AcDbLine
 10
514.9991794981408
 20
40.0
 30
0.0
 11
514.999179498141
 21
10.80000000000006
 31
0.0
  0
TEXT
  5
8D9
330
1A
100
AcDbEntity
  8
MOJI
100
AcDbText
 10
538.0409079723128
 20
28.00492105740739
 30
0.0
 40
5.599999999999999
  1
Ａ３
 41
0.9
  7
ｽﾀｲﾙ1
100
AcDbText
  0
LINE
  5
8DA
330
1A
100
AcDbEntity
  8
ZUWAKU
100
AcDbLine
 10
457.4243639709914
 20
40.0
 30
0.0
 11
457.4243639709914
 21
10.80000000000006
 31
0.0
  0
LINE
  5
8DB
330
1A
100
AcDbEntity
  8
ZUWAKU
100
AcDbLine
 10
457.8243639709913
 20
40.0
 30
0.0
 11
457.8243639709914
 21
10.80000000000006
 31
0.0
  0
LINE
  5
8DC
330
1A
100
AcDbEntity
  8
ZUWAKU
100
AcDbLine
 10
457.6243639709912
 20
40.0
 30
0.0
 11
457.6243639709914
 21
10.80000000000006
 31
0.0
  0
TEXT
  5
8DD
330
1A
100
AcDbEntity
  8
MOJI
100
AcDbText
 10
473.0302598126679
 20
21.94261772165998
 30
0.0
 40
5.599999999999999
  1
ＬＧ８５Ｇ
 41
0.9
  7
ｽﾀｲﾙ1
100
AcDbText
  0
TEXT
  5
8DF
330
1A
100
AcDbEntity
  8
ZUWAKU
100
AcDbText
 10
516.6766245203507
 20
19.65535653838561
 30
0.0
 40
4.0
  1
縮尺
 41
0.9
  7
ｽﾀｲﾙ1
100
AcDbText
  0
TEXT
  5
8E0
330
1A
100
AcDbEntity
  8
MOJI
100
AcDbText
 10
538.0409079723128
 20
13.20492105740742
 30
0.0
 40
5.599999999999999
  1
１/２
 41
0.9
  7
ｽﾀｲﾙ1
100
AcDbText
  0
TEXT
  5
8E1
330
1A
100
AcDbEntity
  8
ZUWAKU
100
AcDbText
 10
459.3018089932009
 20
34.05535653838558
 30
0.0
 40
4.0
  1
品番
 41
0.9
  7
ｽﾀｲﾙ1
100
AcDbText
  0
TEXT
  5
8E2
330
1A
100
AcDbEntity
  8
ZUWAKU
100
AcDbText
 10
516.6766245203505
 20
34.05535653838558
 30
0.0
 40
4.0
  1
用紙
 41
0.9
  7
ｽﾀｲﾙ1
100
AcDbText
  0
LINE
  5
8E3
330
1A
100
AcDbEntity
  8
ZUWAKU
100
AcDbLine
 10
562.5269557661124
 20
40.0
 30
0.0
 11
562.5269557661124
 21
10.80000000000006
 31
0.0
  0
LINE
  5
8E4
330
1A
100
AcDbEntity
  8
ZUWAKU
100
AcDbLine
 10
562.9269557661123
 20
40.0
 30
0.0
 11
562.9269557661125
 21
10.80000000000006
 31
0.0
  0
LINE
  5
8E5
330
1A
100
AcDbEntity
  8
ZUWAKU
100
AcDbLine
 10
562.7269557661122
 20
40.0
 30
0.0
 11
562.7269557661125
 21
10.80000000000006
 31
0.0
  0
LINE
  5
8E6
330
1A
100
AcDbEntity
  8
ZUWAKU
100
AcDbLine
 10
658.4172025102045
 20
40.0
 30
0.0
 11
658.4172025102045
 21
10.80000000000006
 31
0.0
  0
LINE
  5
8E7
330
1A
100
AcDbEntity
  8
ZUWAKU
100
AcDbLine
 10
658.8172025102044
 20
40.0
 30
0.0
 11
658.8172025102046
 21
10.80000000000006
 31
0.0
  0
LINE
  5
8E8
330
1A
100
AcDbEntity
  8
ZUWAKU
100
AcDbLine
 10
658.6172025102044
 20
40.0
 30
0.0
 11
658.6172025102046
 21
10.80000000000006
 31
0.0
  0
TEXT
  5
8E9
330
1A
100
AcDbEntity
  8
ZUWAKU
100
AcDbText
 10
660.294647532414
 20
34.05535653838558
 30
0.0
 40
4.0
  1
DATE
 41
0.9
  7
ｽﾀｲﾙ1
100
AcDbText
  0
TEXT
  5
8EA
330
1A
100
AcDbEntity
  8
ZUWAKU
100
AcDbText
 10
718.5280841922438
 20
27.5538393356868
 30
0.0
 40
6.0
  1
積水化学工業株式会社
 41
0.9
  7
ｽﾀｲﾙ1
100
AcDbText
  0
LINE
  5
8EB
330
1A
100
AcDbEntity
  8
ZUWAKU
100
AcDbLine
 10
707.8490105485411
 20
40.0
 30
0.0
 11
707.8490105485414
 21
10.80000000000006
 31
0.0
  0
LINE
  5
8EC
330
1A
100
AcDbEntity
  8
ZUWAKU
100
AcDbLine
 10
707.6490105485411
 20
40.0
 30
0.0
 11
707.6490105485413
 21
10.80000000000006
 31
0.0
  0
LINE
  5
8ED
330
1A
100
AcDbEntity
  8
ZUWAKU
100
AcDbLine
 10
707.4490105485413
 20
40.0
 30
0.0
 11
707.4490105485413
 21
10.80000000000006
 31
0.0
  0
LINE
  5
8EE
330
1A
100
AcDbEntity
  8
ZUWAKU
100
AcDbLine
 10
707.2490105485412
 20
40.0
 30
0.0
 11
707.2490105485412
 21
10.80000000000006
 31
0.0
  0
TEXT
  5
8EF
330
1A
100
AcDbEntity
  8
ZUWAKU
100
AcDbText
 10
718.5280841922438
 20
16.64884031385406
 30
0.0
 40
6.0
  1
建材事業部
 41
0.9
  7
ｽﾀｲﾙ1
100
AcDbText
  0
LINE
  5
E18
330
1A
100
AcDbEntity
  8
CENTER_L
  6
CENTER
 62
     1
 48
5.0
100
AcDbLine
 10
201.73058197372
 20
453.4549724990406
 30
0.0
 11
397.3812936994056
 21
453.4549724990406
 31
0.0
  0
LINE
  5
E1C
330
1A
100
AcDbEntity
  8
CENTER_L
  6
CENTER
 62
     1
 48
5.0
100
AcDbLine
 10
297.7450692995026
 20
363.6944266867254
 30
0.0
 11
297.7450692995026
 21
126.6501476663121
 31
0.0
  0
ARC
  5
E1D
330
1A
100
AcDbEntity
  8
SEIHIN
  6
CONTINUOUS
 62
     3
 48
5.0
100
AcDbCircle
 10
297.7450692995026
 20
226.1327796898446
 30
0.0
 40
86.14999999999998
100
AcDbArc
 50
93.32721965454913
 51
264.8213871695086
  0
ARC
  5
E1E
330
1A
100
AcDbEntity
  8
SEIHIN
  6
CONTINUOUS
 62
     3
 48
5.0
100
AcDbCircle
 10
297.7450692995026
 20
226.1327796898446
 30
0.0
 40
86.14999999999998
100
AcDbArc
 50
275.1441462041597
 51
86.67278034545084
  0
ARC
  5
E1F
330
1A
100
AcDbEntity
  8
SEIHIN
  6
CONTINUOUS
 62
     3
 48
5.0
100
AcDbCircle
 10
297.7450692995026
 20
226.1327796898446
 30
0.0
 40
82.64999999999998
100
AcDbArc
 50
94.0170049121871
 51
85.98299508781291
  0
ARC
  5
E20
330
1A
100
AcDbEntity
  8
SEIHIN
  6
CONTINUOUS
 62
     3
 48
5.0
100
AcDbCircle
 10
297.7450692995026
 20
226.1327796898446
 30
0.0
 40
84.64999999999998
100
AcDbArc
 50
94.01700399931854
 51
270.0
  0
ARC
  5
E22
330
1A
100
AcDbEntity
  8
SEIHIN
  6
CONTINUOUS
 62
     3
 48
5.0
100
AcDbCircle
 10
290.2398809836599
 20
143.3221846651515
 30
0.0
 40
3.0
100
AcDbArc
 50
264.8213871695086
 51
325.7125440155731
  0
ARC
  5
E26
330
1A
100
AcDbEntity
  8
SEIHIN
  6
CONTINUOUS
 62
     3
 48
5.0
100
AcDbCircle
 10
305.2004410408527
 20
143.3176848568478
 30
0.0
 40
3.0
100
AcDbArc
 50
214.2529893580902
 51
275.1441462041531
  0
LINE
  5
E29
330
1A
100
AcDbEntity
  8
SEIHIN
  6
CONTINUOUS
 62
     3
 48
5.0
100
AcDbLine
 10
212.724526904494
 20
445.9549724990406
 30
0.0
 11
292.7450692995027
 21
445.9549724990406
 31
0.0
  0
LINE
  5
E2A
330
1A
100
AcDbEntity
  8
SEIHIN
  6
CONTINUOUS
 62
     3
 48
5.0
100
AcDbLine
 10
212.7245269044939
 20
460.9549724990406
 30
0.0
 11
292.7450692995027
 21
460.9549724990406
 31
0.0
  0
LINE
  5
E2B
330
1A
100
AcDbEntity
  8
SEIHIN
  6
CONTINUOUS
 62
     3
 48
5.0
100
AcDbLine
 10
213.0692074785545
 20
440.9549724990406
 30
0.0
 11
382.4209311204508
 21
440.9549724990405
 31
0.0
  0
LINE
  5
E2C
330
1A
100
AcDbEntity
  8
SEIHIN
  6
CONTINUOUS
 62
     3
 48
5.0
100
AcDbLine
 10
213.0692074785545
 20
465.9549724990406
 30
0.0
 11
382.4209311204508
 21
465.9549724990406
 31
0.0
  0
LINE
  5
E33
330
1A
100
AcDbEntity
  8
SEIHIN
  6
CONTINUOUS
 62
     3
 48
5.0
100
AcDbLine
 10
302.7450692995027
 20
353.6508152409459
 30
0.0
 11
302.7450692995027
 21
311.4949361306049
 31
0.0
  0
LINE
  5
E34
330
1A
100
AcDbEntity
  8
SEIHIN
  6
CONTINUOUS
 62
     3
 48
5.0
100
AcDbLine
 10
300.7450692995027
 20
353.6508152409459
 30
0.0
 11
300.7450692995027
 21
311.4949361306049
 31
0.0
  0
LINE
  5
E35
330
1A
100
AcDbEntity
  8
SEIHIN
  6
CONTINUOUS
 62
     3
 48
5.0
100
AcDbLine
 10
294.7450692995026
 20
353.6508152409459
 30
0.0
 11
294.7450692995026
 21
311.4949361306049
 31
0.0
  0
LINE
  5
E36
330
1A
100
AcDbEntity
  8
SEIHIN
  6
CONTINUOUS
 62
     3
 48
5.0
100
AcDbLine
 10
292.7450692995027
 20
353.6508152409459
 30
0.0
 11
292.7450692995027
 21
311.5723636073709
 31
0.0
  0
ARC
  5
E37
330
1A
100
AcDbEntity
  8
SEIHIN
  6
CONTINUOUS
 62
     3
 48
5.0
100
AcDbCircle
 10
291.7450692995026
 20
311.5723636073709
 30
0.0
 40
3.0
100
AcDbArc
 50
274.0170049121871
 51
0.0
  0
ARC
  5
E38
330
1A
100
AcDbEntity
  8
SEIHIN
  6
CONTINUOUS
 62
     3
 48
5.0
100
AcDbCircle
 10
291.7450692995026
 20
311.5723636073709
 30
0.0
 40
1.0
100
AcDbArc
 50
274.0169276374196
 51
0.0
  0
ARC
  5
E49
330
1A
100
AcDbEntity
  8
SEIHIN
  6
CONTINUOUS
 62
     3
 48
5.0
100
AcDbCircle
 10
303.7450692995026
 20
311.5723636073709
 30
0.0
 40
3.0
100
AcDbArc
 50
180.0
 51
265.9829950878129
  0
ARC
  5
E4A
330
1A
100
AcDbEntity
  8
SEIHIN
  6
CONTINUOUS
 62
     3
 48
5.0
100
AcDbCircle
 10
303.7450692995026
 20
311.5723636073709
 30
0.0
 40
1.0
100
AcDbArc
 50
180.0
 51
265.9829178130447
  0
DIMENSION
  5
E77
330
1A
100
AcDbEntity
  8
SUNPOU
100
AcDbDimension
  2
*D1
 10
300.7450692995025
 20
378.0972186901523
 30
0.0
 11
318.7450692995025
 21
383.0972186901523
 31
0.0
 70
    32
  3
STANDARD
100
AcDbAlignedDimension
 13
294.7450692995025
 23
353.6508152409458
 33
0.0
 14
300.7450692995025
 24
353.6508152409458
 34
0.0
100
AcDbRotatedDimension
1001
ACAD
1000
DSTYLE
1002
{
1070
    41
1040
7.0
1070
    42
1040
4.0
1070
    43
1040
14.0
1070
    44
1040
3.0
1070
    73
1070
     0
1070
    74
1070
     0
1070
    77
1070
     3
1070
   140
1040
6.0
1070
   141
1040
4.0
1070
   147
1040
2.0
1070
   172
1070
     1
1070
   173
1070
     1
1070
   176
1070
   256
1070
   177
1070
   256
1070
   178
1070
   256
1070
   271
1070
     0
1070
   272
1070
     0
1070
   341
1005
6D
1070
     6
1000
OPEN
1070
     7
1000
OPEN
1070
   371
1070
    -1
1070
   372
1070
    -1
1002
}
  0
LINE
  5
E78
330
1A
100
AcDbEntity
  8
SEIHIN
  6
CONTINUOUS
 62
     3
 48
5.0
100
AcDbLine
 10
294.7450692995026
 20
353.6508152409459
 30
0.0
 11
292.7450692995027
 21
353.6508152409459
 31
0.0
  0
LINE
  5
E79
330
1A
100
AcDbEntity
  8
SEIHIN
  6
CONTINUOUS
 62
     3
 48
5.0
100
AcDbLine
 10
302.7450692995027
 20
353.6508152409459
 30
0.0
 11
300.7450692995027
 21
353.6508152409459
 31
0.0
  0
LINE
  5
E7A
330
1A
100
AcDbEntity
  8
SEIHIN
  6
CONTINUOUS
 62
     3
 48
5.0
100
AcDbLine
 10
302.7450692995027
 20
445.9549724990406
 30
0.0
 11
382.7656116945112
 21
445.9549724990406
 31
0.0
  0
LINE
  5
E7B
330
1A
100
AcDbEntity
  8
SEIHIN
  6
CONTINUOUS
 62
     3
 48
5.0
100
AcDbLine
 10
302.7450692995027
 20
460.9549724990406
 30
0.0
 11
382.7656116945114
 21
460.9549724990406
 31
0.0
  0
LINE
  5
E7C
330
1A
100
AcDbEntity
  8
SEIHIN
  6
CONTINUOUS
 62
     3
 48
5.0
100
AcDbLine
 10
292.7450692995027
 20
440.9549724990406
 30
0.0
 11
292.7450692995027
 21
465.9549724990406
 31
0.0
  0
LINE
  5
E7D
330
1A
100
AcDbEntity
  8
SEIHIN
  6
CONTINUOUS
 62
     3
 48
5.0
100
AcDbLine
 10
294.7450692995026
 20
440.9549724990406
 30
0.0
 11
294.7450692995026
 21
465.9549724990406
 31
0.0
  0
LINE
  5
E7E
330
1A
100
AcDbEntity
  8
SEIHIN
  6
CONTINUOUS
 62
     3
 48
5.0
100
AcDbLine
 10
300.7450692995027
 20
440.9549724990406
 30
0.0
 11
300.7450692995027
 21
465.9549724990406
 31
0.0
  0
LINE
  5
E7F
330
1A
100
AcDbEntity
  8
SEIHIN
  6
CONTINUOUS
 62
     3
 48
5.0
100
AcDbLine
 10
302.7450692995027
 20
440.9549724990406
 30
0.0
 11
302.7450692995027
 21
465.9549724990406
 31
0.0
  0
LINE
  5
E81
330
1A
100
AcDbEntity
  8
CENTER_L
  6
CENTER
 62
     1
 48
5.0
100
AcDbLine
 10
546.2082652557914
 20
125.771131612562
 30
0.0
 11
546.2082652557914
 21
365.2761752687182
 31
0.0
  0
LINE
  5
E82
330
1A
100
AcDbEntity
  8
SEIHIN
  6
CONTINUOUS
 62
     3
 48
5.0
100
AcDbLine
 10
533.7082652557913
 20
141.4827796898448
 30
0.0
 11
533.7082652557913
 21
345.6508152409458
 31
0.0
  0
LINE
  5
E83
330
1A
100
AcDbEntity
  8
SEIHIN
  6
CONTINUOUS
 62
     3
 48
5.0
100
AcDbLine
 10
538.2082652557913
 20
143.0595966575898
 30
0.0
 11
538.2082652557913
 21
309.4949361306049
 31
0.0
  0
LINE
  5
E84
330
1A
100
AcDbEntity
  8
SEIHIN
  6
CONTINUOUS
 62
     3
 48
5.0
100
AcDbLine
 10
554.2082652557914
 20
143.0619193273248
 30
0.0
 11
554.2082652557914
 21
309.4949361306049
 31
0.0
  0
LINE
  5
E85
330
1A
100
AcDbEntity
  8
SEIHIN
  6
CONTINUOUS
 62
     3
 48
5.0
100
AcDbLine
 10
558.7082652557914
 20
141.4827796898448
 30
0.0
 11
558.7082652557914
 21
345.6508152409458
 31
0.0
  0
LINE
  5
E86
330
1A
100
AcDbEntity
  8
SEIHIN
  6
CONTINUOUS
 62
     3
 48
5.0
100
AcDbLine
 10
534.7082639070922
 20
133.9827796898448
 30
0.0
 11
557.7082639070922
 21
133.9827796898448
 31
0.0
  0
LINE
  5
E8E
330
1A
100
AcDbEntity
  8
SEIHIN
  6
CONTINUOUS
 62
     3
 48
5.0
100
AcDbLine
 10
540.2082639070922
 20
141.0619193273248
 30
0.0
 11
552.2082639070922
 21
141.0619193273248
 31
0.0
  0
ARC
  5
E9E
330
1A
100
AcDbEntity
  8
SEIHIN
  6
CONTINUOUS
 62
     3
 48
5.0
100
AcDbCircle
 10
546.2082652557914
 20
339.8851902409459
 30
0.0
 40
13.76562499999998
100
AcDbArc
 50
24.76151385761342
 51
155.2384861423865
  0
LINE
  5
EA0
330
1A
100
AcDbEntity
  8
SEIHIN
  6
CONTINUOUS
 62
     3
 48
5.0
100
AcDbLine
 10
553.9283881551678
 20
310.5153170452841
 30
0.0
 11
558.7082652557914
 21
310.5153170452841
 31
0.0
  0
ARC
  5
EA2
330
1A
100
AcDbEntity
  8
SEIHIN
  6
CONTINUOUS
 62
     3
 48
5.0
100
AcDbCircle
 10
540.2082652557915
 20
309.4949361306049
 30
0.0
 40
2.0
100
AcDbArc
 50
90.0
 51
180.0
  0
LINE
  5
EA3
330
1A
100
AcDbEntity
  8
SEIHIN
  6
CONTINUOUS
 62
     3
 48
5.0
100
AcDbLine
 10
538.4881423564151
 20
310.5153170452841
 30
0.0
 11
533.7082652557913
 21
310.5153170452841
 31
0.0
  0
LINE
  5
EA5
330
1A
100
AcDbEntity
  8
SEIHIN
  6
CONTINUOUS
 62
     3
 48
5.0
100
AcDbLine
 10
540.2082652557915
 20
311.4949361306049
 30
0.0
 11
552.2082652557915
 21
311.4949361306049
 31
0.0
  0
ARC
  5
EA6
330
1A
100
AcDbEntity
  8
SEIHIN
  6
CONTINUOUS
 62
     3
 48
5.0
100
AcDbCircle
 10
552.2082652557915
 20
309.4949361306049
 30
0.0
 40
2.0
100
AcDbArc
 50
0.0
 51
90.0
  0
DIMENSION
  5
1111
330
1A
100
AcDbEntity
  8
SUNPOU
100
AcDbDimension
  2
*D2
 10
411.4410793117726
 20
460.9549724990405
 30
0.0
 11
406.4410793117725
 21
453.4549724990407
 31
0.0
 70
    32
  3
STANDARD
100
AcDbAlignedDimension
 13
382.7656116945113
 23
445.9549724990406
 33
0.0
 14
382.7656116945113
 24
460.9549724990406
 34
0.0
 50
90.0
100
AcDbRotatedDimension
1001
ACAD
1000
DSTYLE
1002
{
1070
    41
1040
7.0
1070
    42
1040
4.0
1070
    43
1040
14.0
1070
    44
1040
3.0
1070
    73
1070
     0
1070
    74
1070
     0
1070
    77
1070
     3
1070
   140
1040
6.0
1070
   141
1040
4.0
1070
   147
1040
2.0
1070
   172
1070
     1
1070
   173
1070
     1
1070
   176
1070
   256
1070
   177
1070
   256
1070
   178
1070
   256
1070
   271
1070
     0
1070
   272
1070
     0
1070
   341
1005
6D
1070
     6
1000
OPEN
1070
     7
1000
OPEN
1070
   371
1070
    -1
1070
   372
1070
    -1
1002
}
  0
DIMENSION
  5
1112
330
1A
100
AcDbEntity
  8
SUNPOU
100
AcDbDimension
  2
*D3
 10
425.1536832670324
 20
440.9549724990406
 30
0.0
 11
420.1536832670322
 21
453.4549724990407
 31
0.0
 70
    32
  3
STANDARD
100
AcDbAlignedDimension
 13
382.4209311204506
 23
465.9549724990406
 33
0.0
 14
382.4209311204506
 24
440.9549724990407
 34
0.0
 50
90.0
100
AcDbRotatedDimension
1001
ACAD
1000
DSTYLE
1002
{
1070
    41
1040
7.0
1070
    42
1040
4.0
1070
    43
1040
14.0
1070
    44
1040
3.0
1070
    73
1070
     0
1070
    74
1070
     0
1070
    77
1070
     3
1070
   140
1040
6.0
1070
   141
1040
4.0
1070
   147
1040
2.0
1070
   172
1070
     1
1070
   173
1070
     1
1070
   176
1070
   256
1070
   177
1070
   256
1070
   178
1070
   256
1070
   271
1070
     0
1070
   272
1070
     0
1070
   341
1005
6D
1070
     6
1000
OPEN
1070
     7
1000
OPEN
1070
   371
1070
    -1
1070
   372
1070
    -1
1002
}
  0
DIMENSION
  5
1115
330
1A
100
AcDbEntity
  8
SUNPOU
100
AcDbDimension
  2
*D4
 10
372.1845451114185
 20
310.6349838031103
 30
0.0
 11
367.1845451114184
 21
332.1428995220281
 31
0.0
 70
    32
  3
STANDARD
100
AcDbAlignedDimension
 13
302.7450692995027
 23
353.6508152409459
 33
0.0
 14
302.7450692995027
 24
310.6349838031103
 34
0.0
 50
90.0
100
AcDbRotatedDimension
1001
ACAD
1000
DSTYLE
1002
{
1070
    41
1040
7.0
1070
    42
1040
4.0
1070
    43
1040
14.0
1070
    44
1040
3.0
1070
    73
1070
     0
1070
    74
1070
     0
1070
    77
1070
     3
1070
   140
1040
6.0
1070
   141
1040
4.0
1070
   147
1040
2.0
1070
   172
1070
     1
1070
   173
1070
     1
1070
   176
1070
   256
1070
   177
1070
   256
1070
   178
1070
   256
1070
   271
1070
     0
1070
   272
1070
     0
1070
   341
1005
6D
1070
     6
1000
OPEN
1070
     7
1000
OPEN
1070
   371
1070
    -1
1070
   372
1070
    -1
1002
}
  0
ARC
  5
1122
330
1A
100
AcDbEntity
  8
SEIHIN
100
AcDbCircle
 10
297.8337952821033
 20
138.7845104889023
 30
0.0
 40
4.699106913501256
100
AcDbArc
 50
144.0787471812189
 51
91.08189205697723
  0
ARC
  5
1123
330
1A
100
AcDbEntity
  8
SEIHIN
100
AcDbCircle
 10
297.7450692995026
 20
138.6758639207829
 30
0.0
 40
5.193084230937913
100
AcDbArc
 50
34.25640127448564
 51
66.18113799283974
  0
LINE
  5
1124
330
1A
100
AcDbEntity
  8
CENTER_L
  6
CENTER
 62
     1
 48
5.0
100
AcDbLine
 10
287.9271336049404
 20
138.6758639207829
 30
0.0
 11
307.5630049940649
 21
138.6758639207829
 31
0.0
  0
CIRCLE
  5
1125
330
1A
100
AcDbEntity
  8
SEIHIN
  6
CONTINUOUS
 62
     3
 48
5.0
100
AcDbCircle
 10
297.7450692995026
 20
138.6758639207829
 30
0.0
 40
2.25
  0
CIRCLE
  5
1126
330
1A
100
AcDbEntity
  8
SEIHIN
  6
CONTINUOUS
 62
     3
 48
5.0
100
AcDbCircle
 10
297.7450692995026
 20
138.6758639207829
 30
0.0
 40
2.75
  0
LINE
  5
1127
330
1A
100
AcDbEntity
  8
SEIHIN
100
AcDbLine
 10
294.0283453459993
 20
141.5413486358237
 30
0.0
 11
295.5671857650979
 21
140.3549479897232
 31
0.0
  0
LINE
  5
112A
330
1A
100
AcDbEntity
  8
CENTER_L
  6
CENTER
 62
     1
 48
5.0
100
AcDbLine
 10
320.1530692995028
 20
323.6508152409459
 30
0.0
 11
279.6551994640392
 21
323.6508152409459
 31
0.0
  0
LINE
  5
112B
330
1A
100
AcDbEntity
  8
SEIHIN
100
AcDbLine
 10
294.7450692995026
 20
321.0782912063707
 30
0.0
 11
300.7450692995027
 21
321.0782912063708
 31
0.0
  0
LINE
  5
112C
330
1A
100
AcDbEntity
  8
SEIHIN
100
AcDbLine
 10
294.7450692995026
 20
320.6782912063707
 30
0.0
 11
300.7450692995027
 21
320.6782912063707
 31
0.0
  0
LINE
  5
112D
330
1A
100
AcDbEntity
  8
SEIHIN
100
AcDbLine
 10
294.7450692995026
 20
326.6782912063708
 30
0.0
 11
300.7450692995027
 21
326.6782912063707
 31
0.0
  0
LINE
  5
112E
330
1A
100
AcDbEntity
  8
SEIHIN
100
AcDbLine
 10
294.7450692995026
 20
326.2782912063708
 30
0.0
 11
300.7450692995027
 21
326.2782912063708
 31
0.0
  0
ARC
  5
112F
330
1A
100
AcDbEntity
  8
SEIHIN
100
AcDbCircle
 10
290.9167129039434
 20
319.2758152409459
 30
0.0
 40
2.171643604440794
100
AcDbArc
 50
140.7162788968143
 51
219.2837211031856
  0
LINE
  5
1130
330
1A
100
AcDbEntity
  8
SEIHIN
100
AcDbLine
 10
292.7450692995027
 20
329.4008152409459
 30
0.0
 11
292.7450692995027
 21
317.9008152409459
 31
0.0
  0
LINE
  5
1131
330
1A
100
AcDbEntity
  8
SEIHIN
100
AcDbLine
 10
289.2358170283139
 20
317.9008152409459
 30
0.0
 11
292.7450692995027
 21
317.9008152409459
 31
0.0
  0
LINE
  5
1134
330
1A
100
AcDbEntity
  8
SEIHIN
100
AcDbLine
 10
289.2358170283139
 20
329.4008152409459
 30
0.0
 11
292.7450692995027
 21
329.4008152409459
 31
0.0
  0
LINE
  5
1135
330
1A
100
AcDbEntity
  8
SEIHIN
100
AcDbLine
 10
289.2358170283138
 20
320.650815240946
 30
0.0
 11
292.7450692995027
 21
320.6508152409459
 31
0.0
  0
LINE
  5
1136
330
1A
100
AcDbEntity
  8
SEIHIN
100
AcDbLine
 10
289.2358170283138
 20
326.6508152409457
 30
0.0
 11
292.7450692995027
 21
326.6508152409459
 31
0.0
  0
ARC
  5
1137
330
1A
100
AcDbEntity
  8
SEIHIN
100
AcDbCircle
 10
297.9921600223269
 20
323.6782912063891
 30
0.0
 40
9.247131542528128
100
AcDbArc
 50
161.2491427195937
 51
198.7508572804039
  0
ARC
  5
1138
330
1A
100
AcDbEntity
  8
SEIHIN
100
AcDbCircle
 10
290.9167129039434
 20
328.0258152409459
 30
0.0
 40
2.171643604440794
100
AcDbArc
 50
140.7162788968143
 51
219.2837211031856
  0
LINE
  5
1139
330
1A
100
AcDbEntity
  8
SEIHIN
100
AcDbLine
 10
288.7450692995026
 20
328.0258152409459
 30
0.0
 11
288.7450692995026
 21
319.2758152409459
 31
0.0
  0
ARC
  5
113A
330
1A
100
AcDbEntity
  8
SEIHIN
100
AcDbCircle
 10
304.9167129039434
 20
319.2483392755026
 30
0.0
 40
2.171643604440794
100
AcDbArc
 50
140.7162788968143
 51
219.2837211031856
  0
ARC
  5
113B
330
1A
100
AcDbEntity
  8
SEIHIN
100
AcDbCircle
 10
304.1734256950618
 20
319.2483392755026
 30
0.0
 40
2.171643604440794
100
AcDbArc
 50
320.7162788968143
 51
39.28372110318568
  0
LINE
  5
113C
330
1A
100
AcDbEntity
  8
SEIHIN
100
AcDbLine
 10
303.2358170283139
 20
317.8733392755026
 30
0.0
 11
305.8543215706913
 21
317.8733392755026
 31
0.0
  0
ARC
  5
113F
330
1A
100
AcDbEntity
  8
SEIHIN
100
AcDbCircle
 10
297.0979785766782
 20
323.6508152409459
 30
0.0
 40
9.247131542528128
100
AcDbArc
 50
341.249142719596
 51
18.75085728040628
  0
ARC
  5
1140
330
1A
100
AcDbEntity
  8
SEIHIN
100
AcDbCircle
 10
304.1734256950618
 20
327.9983392755026
 30
0.0
 40
2.171643604440794
100
AcDbArc
 50
320.7162788968143
 51
39.28372110318568
  0
LINE
  5
1141
330
1A
100
AcDbEntity
  8
SEIHIN
100
AcDbLine
 10
303.2358170283139
 20
329.3733392755026
 30
0.0
 11
305.8543215706913
 21
329.3733392755026
 31
0.0
  0
LINE
  5
1142
330
1A
100
AcDbEntity
  8
SEIHIN
100
AcDbLine
 10
303.2358170283138
 20
326.6233392755025
 30
0.0
 11
305.8543215706913
 21
326.6233392755026
 31
0.0
  0
LINE
  5
1143
330
1A
100
AcDbEntity
  8
SEIHIN
100
AcDbLine
 10
303.2358170283138
 20
320.6233392755027
 30
0.0
 11
305.8543215706913
 21
320.6233392755026
 31
0.0
  0
ARC
  5
1144
330
1A
100
AcDbEntity
  8
SEIHIN
100
AcDbCircle
 10
311.9921600223269
 20
323.6508152409459
 30
0.0
 40
9.247131542528128
100
AcDbArc
 50
161.2491427195937
 51
198.7508572804039
  0
ARC
  5
1145
330
1A
100
AcDbEntity
  8
SEIHIN
100
AcDbCircle
 10
304.9167129039434
 20
327.9983392755026
 30
0.0
 40
2.171643604440794
100
AcDbArc
 50
140.7162788968143
 51
219.2837211031856
  0
LINE
  5
1146
330
1A
100
AcDbEntity
  8
SEIHIN
100
AcDbLine
 10
302.7450692995027
 20
327.9983392755026
 30
0.0
 11
302.7450692995027
 21
319.2483392755026
 31
0.0
  0
LINE
  5
1147
330
1A
100
AcDbEntity
  8
SEIHIN
100
AcDbLine
 10
302.7450692995025
 20
327.9983392755026
 30
0.0
 11
302.7450692995025
 21
319.2483392755026
 31
0.0
  0
LINE
  5
1148
330
1A
100
AcDbEntity
  8
SEIHIN
100
AcDbLine
 10
311.7450692995029
 20
326.6782912063707
 30
0.0
 11
312.7450692995026
 21
325.6782912063707
 31
0.0
  0
LINE
  5
1149
330
1A
100
AcDbEntity
  8
SEIHIN
100
AcDbLine
 10
311.7450692995028
 20
320.6782912063708
 30
0.0
 11
312.7450692995026
 21
321.6782912063707
 31
0.0
  0
LINE
  5
114A
330
1A
100
AcDbEntity
  8
SEIHIN
100
AcDbLine
 10
311.7450692995026
 20
326.6782912063709
 30
0.0
 11
311.7450692995026
 21
320.6782912063706
 31
0.0
  0
LINE
  5
114B
330
1A
100
AcDbEntity
  8
SEIHIN
100
AcDbLine
 10
312.7450692995026
 20
325.6782912063707
 30
0.0
 11
312.7450692995026
 21
321.6782912063706
 31
0.0
  0
LINE
  5
114C
330
1A
100
AcDbEntity
  8
SEIHIN
100
AcDbLine
 10
306.3450692995027
 20
321.0782912063708
 30
0.0
 11
312.1450692995027
 21
321.0782912063708
 31
0.0
  0
LINE
  5
114D
330
1A
100
AcDbEntity
  8
SEIHIN
100
AcDbLine
 10
306.3450692995027
 20
320.6782912063707
 30
0.0
 11
311.7450692995026
 21
320.6782912063708
 31
0.0
  0
LINE
  5
114E
330
1A
100
AcDbEntity
  8
SEIHIN
100
AcDbLine
 10
306.3450692995027
 20
326.2782912063707
 30
0.0
 11
312.1450692995027
 21
326.2782912063708
 31
0.0
  0
LINE
  5
114F
330
1A
100
AcDbEntity
  8
SEIHIN
100
AcDbLine
 10
306.3450692995027
 20
326.6782912063707
 30
0.0
 11
311.7450692995026
 21
326.6782912063707
 31
0.0
  0
LINE
  5
1150
330
1A
100
AcDbEntity
  8
SEIHIN
100
AcDbLine
 10
306.3450692995027
 20
327.9983392755026
 30
0.0
 11
306.3450692995027
 21
319.2483392755026
 31
0.0
  0
LINE
  5
115E
330
1A
100
AcDbEntity
  8
SUNPOU
100
AcDbLine
 10
322.055725096357
 20
369.9300767065731
 30
0.0
 11
312.7450692995026
 21
343.6508152409459
 31
0.0
  0
LINE
  5
115F
330
1A
100
AcDbEntity
  8
CENTER_L
  6
CENTER
 62
     1
 48
5.0
100
AcDbLine
 10
280.1663767816619
 20
343.6508152409459
 30
0.0
 11
320.1530692995028
 21
343.6508152409459
 31
0.0
  0
LINE
  5
1161
330
1A
100
AcDbEntity
  8
SEIHIN
100
AcDbLine
 10
294.7450692995026
 20
346.6782912063708
 30
0.0
 11
300.7450692995027
 21
346.6782912063707
 31
0.0
  0
LINE
  5
1162
330
1A
100
AcDbEntity
  8
SEIHIN
100
AcDbLine
 10
294.7450692995026
 20
346.2782912063707
 30
0.0
 11
300.7450692995027
 21
346.2782912063707
 31
0.0
  0
LINE
  5
1163
330
1A
100
AcDbEntity
  8
SEIHIN
100
AcDbLine
 10
294.7450692995026
 20
341.0782912063707
 30
0.0
 11
300.7450692995027
 21
341.0782912063708
 31
0.0
  0
LINE
  5
1164
330
1A
100
AcDbEntity
  8
SEIHIN
100
AcDbLine
 10
294.7450692995026
 20
340.6782912063707
 30
0.0
 11
300.7450692995027
 21
340.6782912063707
 31
0.0
  0
LINE
  5
1165
330
1A
100
AcDbEntity
  8
SEIHIN
100
AcDbLine
 10
288.7450692995026
 20
348.0258152409459
 30
0.0
 11
288.7450692995026
 21
339.2758152409459
 31
0.0
  0
ARC
  5
1166
330
1A
100
AcDbEntity
  8
SEIHIN
100
AcDbCircle
 10
297.9921600223269
 20
343.6782912063891
 30
0.0
 40
9.247131542528128
100
AcDbArc
 50
161.2491427195937
 51
198.7508572804039
  0
LINE
  5
1167
330
1A
100
AcDbEntity
  8
SEIHIN
100
AcDbLine
 10
292.7450692995027
 20
349.4008152409459
 30
0.0
 11
292.7450692995027
 21
337.9008152409459
 31
0.0
  0
LINE
  5
1168
330
1A
100
AcDbEntity
  8
SEIHIN
100
AcDbLine
 10
289.2358170283138
 20
340.650815240946
 30
0.0
 11
292.7450692995027
 21
340.6508152409459
 31
0.0
  0
LINE
  5
1169
330
1A
100
AcDbEntity
  8
SEIHIN
100
AcDbLine
 10
289.2358170283139
 20
337.9008152409459
 30
0.0
 11
292.7450692995027
 21
337.9008152409459
 31
0.0
  0
ARC
  5
116A
330
1A
100
AcDbEntity
  8
SEIHIN
100
AcDbCircle
 10
290.9167129039434
 20
339.2758152409459
 30
0.0
 40
2.171643604440794
100
AcDbArc
 50
140.7162788968143
 51
219.2837211031856
  0
LINE
  5
116B
330
1A
100
AcDbEntity
  8
SEIHIN
100
AcDbLine
 10
289.2358170283138
 20
346.6508152409458
 30
0.0
 11
292.7450692995027
 21
346.6508152409459
 31
0.0
  0
LINE
  5
116C
330
1A
100
AcDbEntity
  8
SEIHIN
100
AcDbLine
 10
289.2358170283139
 20
349.4008152409459
 30
0.0
 11
292.7450692995027
 21
349.4008152409459
 31
0.0
  0
ARC
  5
116D
330
1A
100
AcDbEntity
  8
SEIHIN
100
AcDbCircle
 10
290.9167129039434
 20
348.0258152409459
 30
0.0
 40
2.171643604440794
100
AcDbArc
 50
140.7162788968143
 51
219.2837211031856
  0
LINE
  5
116E
330
1A
100
AcDbEntity
  8
SEIHIN
100
AcDbLine
 10
311.7450692995028
 20
340.6782912063708
 30
0.0
 11
312.7450692995026
 21
341.6782912063707
 31
0.0
  0
LINE
  5
116F
330
1A
100
AcDbEntity
  8
SEIHIN
100
AcDbLine
 10
311.7450692995026
 20
346.678291206371
 30
0.0
 11
311.7450692995026
 21
340.6782912063706
 31
0.0
  0
LINE
  5
1170
330
1A
100
AcDbEntity
  8
SEIHIN
100
AcDbLine
 10
306.3450692995027
 20
347.9983392755026
 30
0.0
 11
306.3450692995027
 21
339.2483392755026
 31
0.0
  0
LINE
  5
1171
330
1A
100
AcDbEntity
  8
SEIHIN
100
AcDbLine
 10
302.7450692995027
 20
347.9983392755026
 30
0.0
 11
302.7450692995027
 21
339.2483392755026
 31
0.0
  0
LINE
  5
1172
330
1A
100
AcDbEntity
  8
SEIHIN
100
AcDbLine
 10
302.7450692995025
 20
347.9983392755026
 30
0.0
 11
302.7450692995025
 21
339.2483392755026
 31
0.0
  0
ARC
  5
1173
330
1A
100
AcDbEntity
  8
SEIHIN
100
AcDbCircle
 10
297.0979785766782
 20
343.6508152409459
 30
0.0
 40
9.247131542528128
100
AcDbArc
 50
341.249142719596
 51
18.75085728040628
  0
ARC
  5
1174
330
1A
100
AcDbEntity
  8
SEIHIN
100
AcDbCircle
 10
311.9921600223269
 20
343.6508152409459
 30
0.0
 40
9.247131542528128
100
AcDbArc
 50
161.2491427195937
 51
198.7508572804039
  0
ARC
  5
1175
330
1A
100
AcDbEntity
  8
SEIHIN
100
AcDbCircle
 10
304.1734256950618
 20
339.2483392755026
 30
0.0
 40
2.171643604440794
100
AcDbArc
 50
320.7162788968143
 51
39.28372110318568
  0
LINE
  5
1176
330
1A
100
AcDbEntity
  8
SEIHIN
100
AcDbLine
 10
303.2358170283138
 20
340.6233392755027
 30
0.0
 11
305.8543215706913
 21
340.6233392755026
 31
0.0
  0
LINE
  5
1177
330
1A
100
AcDbEntity
  8
SEIHIN
100
AcDbLine
 10
303.2358170283139
 20
337.8733392755026
 30
0.0
 11
305.8543215706913
 21
337.8733392755026
 31
0.0
  0
ARC
  5
1178
330
1A
100
AcDbEntity
  8
SEIHIN
100
AcDbCircle
 10
304.9167129039434
 20
339.2483392755026
 30
0.0
 40
2.171643604440794
100
AcDbArc
 50
140.7162788968143
 51
219.2837211031856
  0
LINE
  5
1179
330
1A
100
AcDbEntity
  8
SEIHIN
100
AcDbLine
 10
306.3450692995027
 20
341.0782912063708
 30
0.0
 11
312.1450692995027
 21
341.0782912063708
 31
0.0
  0
LINE
  5
117A
330
1A
100
AcDbEntity
  8
SEIHIN
100
AcDbLine
 10
306.3450692995027
 20
340.6782912063707
 30
0.0
 11
311.7450692995026
 21
340.6782912063708
 31
0.0
  0
ARC
  5
117B
330
1A
100
AcDbEntity
  8
SEIHIN
100
AcDbCircle
 10
304.1734256950618
 20
347.9983392755026
 30
0.0
 40
2.171643604440794
100
AcDbArc
 50
320.7162788968143
 51
39.28372110318568
  0
LINE
  5
117C
330
1A
100
AcDbEntity
  8
SEIHIN
100
AcDbLine
 10
303.2358170283139
 20
349.3733392755026
 30
0.0
 11
305.8543215706913
 21
349.3733392755026
 31
0.0
  0
LINE
  5
117D
330
1A
100
AcDbEntity
  8
SEIHIN
100
AcDbLine
 10
303.2358170283138
 20
346.6233392755025
 30
0.0
 11
305.8543215706913
 21
346.6233392755026
 31
0.0
  0
ARC
  5
117E
330
1A
100
AcDbEntity
  8
SEIHIN
100
AcDbCircle
 10
304.9167129039434
 20
347.9983392755026
 30
0.0
 40
2.171643604440794
100
AcDbArc
 50
140.7162788968143
 51
219.2837211031856
  0
LINE
  5
117F
330
1A
100
AcDbEntity
  8
SEIHIN
100
AcDbLine
 10
311.7450692995029
 20
346.6782912063707
 30
0.0
 11
312.7450692995026
 21
345.6782912063707
 31
0.0
  0
LINE
  5
1180
330
1A
100
AcDbEntity
  8
SEIHIN
100
AcDbLine
 10
312.7450692995026
 20
345.6782912063707
 30
0.0
 11
312.7450692995026
 21
341.6782912063706
 31
0.0
  0
LINE
  5
1181
330
1A
100
AcDbEntity
  8
SEIHIN
100
AcDbLine
 10
306.3450692995027
 20
346.2782912063707
 30
0.0
 11
312.1450692995027
 21
346.2782912063707
 31
0.0
  0
LINE
  5
1182
330
1A
100
AcDbEntity
  8
SEIHIN
100
AcDbLine
 10
306.3450692995027
 20
346.6782912063707
 30
0.0
 11
311.7450692995026
 21
346.6782912063707
 31
0.0
  0
TEXT
  5
1185
330
1A
100
AcDbEntity
  8
SUNPOU
100
AcDbText
 10
324.0008299685486
 20
365.0615244447148
 30
0.0
 40
4.0
  1
7.5下穴
100
AcDbText
  0
LINE
  5
1186
330
1A
100
AcDbEntity
  8
SUNPOU
100
AcDbLine
 10
322.055725096357
 20
369.9300767065731
 30
0.0
 11
343.9053902467452
 21
369.9300767065732
 31
0.0
  0
TEXT
  5
1187
330
1A
100
AcDbEntity
  8
SUNPOU
100
AcDbText
 10
324.0008299685486
 20
370.9831047495293
 30
0.0
 40
4.0
  1
M6×20
100
AcDbText
  0
DIMENSION
  5
11B4
330
1A
100
AcDbEntity
  8
SUNPOU
100
AcDbDimension
  2
*D5
 10
507.1134826389132
 20
323.7156150993508
 30
0.0
 11
502.1134826389131
 21
333.7156150993509
 31
0.0
 70
    32
  3
STANDARD
100
AcDbAlignedDimension
 13
525.8371733260089
 23
343.7156150993508
 33
0.0
 14
525.8371733260089
 24
323.7156150993508
 34
0.0
 50
90.0
100
AcDbRotatedDimension
1001
ACAD
1000
DSTYLE
1002
{
1070
    41
1040
7.0
1070
    42
1040
4.0
1070
    43
1040
14.0
1070
    44
1040
3.0
1070
    73
1070
     0
1070
    74
1070
     0
1070
    77
1070
     3
1070
   140
1040
6.0
1070
   141
1040
4.0
1070
   147
1040
2.0
1070
   172
1070
     1
1070
   173
1070
     1
1070
   176
1070
   256
1070
   177
1070
   256
1070
   178
1070
   256
1070
   271
1070
     0
1070
   272
1070
     0
1070
   341
1005
6D
1070
     6
1000
OPEN
1070
     7
1000
OPEN
1070
   371
1070
    -1
1070
   372
1070
    -1
1002
}
  0
LINE
  5
11B9
330
1A
100
AcDbEntity
  8
CENTER_L
  6
CENTER
 62
     1
 48
5.0
100
AcDbLine
 10
567.8732297546552
 20
323.7156150993508
 30
0.0
 11
526.3824463325322
 21
323.7156150993508
 31
0.0
  0
LINE
  5
11BA
330
1A
100
AcDbEntity
  8
SEIHIN
  6
CONTINUOUS
 62
     3
 48
5.0
100
AcDbLine
 10
533.7082652557914
 20
141.4827796898448
 30
0.0
 11
538.9809437798369
 21
141.4827796898448
 31
0.0
  0
ARC
  5
11BE
330
1A
100
AcDbEntity
  8
SEIHIN
  6
CONTINUOUS
 62
     3
 48
5.0
100
AcDbCircle
 10
534.7082652557914
 20
134.9827796898448
 30
0.0
 40
1.0
100
AcDbArc
 50
180.0
 51
270.0
  0
LINE
  5
11BF
330
1A
100
AcDbEntity
  8
SEIHIN
  6
CONTINUOUS
 62
     3
 48
5.0
100
AcDbLine
 10
533.7082652557914
 20
134.9827796898448
 30
0.0
 11
533.7082652557914
 21
141.4827796898447
 31
0.0
  0
ARC
  5
11C2
330
1A
100
AcDbEntity
  8
SEIHIN
  6
CONTINUOUS
 62
     3
 48
5.0
100
AcDbCircle
 10
552.2082652557915
 20
143.0619193273248
 30
0.0
 40
2.0
100
AcDbArc
 50
270.0
 51
0.0
  0
ARC
  5
11C3
330
1A
100
AcDbEntity
  8
SEIHIN
  6
CONTINUOUS
 62
     3
 48
5.0
100
AcDbCircle
 10
540.2082652557915
 20
143.0619193273248
 30
0.0
 40
2.0
100
AcDbArc
 50
180.0
 51
270.0
  0
LINE
  5
11C5
330
1A
100
AcDbEntity
  8
SEIHIN
  6
CONTINUOUS
 62
     3
 48
5.0
100
AcDbLine
 10
540.7082652557915
 20
141.0396954589068
 30
0.0
 11
541.2082652557915
 21
141.0396954589068
 31
0.0
  0
LINE
  5
11C6
330
1A
100
AcDbEntity
  8
SEIHIN
  6
CONTINUOUS
 62
     3
 48
5.0
100
AcDbLine
 10
540.7082652557915
 20
136.5396954589068
 30
0.0
 11
541.2082652557915
 21
136.5396954589068
 31
0.0
  0
LINE
  5
11C7
330
1A
100
AcDbEntity
  8
SEIHIN
  6
CONTINUOUS
 62
     3
 48
5.0
100
AcDbLine
 10
541.2082652557915
 20
133.9827796898448
 30
0.0
 11
541.2082652557915
 21
141.0619193273248
 31
0.0
  0
LINE
  5
11C8
330
1A
100
AcDbEntity
  8
SEIHIN
  6
CONTINUOUS
 62
     3
 48
5.0
100
AcDbLine
 10
540.7082652557915
 20
133.9827796898448
 30
0.0
 11
540.7082652557915
 21
141.0619193273248
 31
0.0
  0
LINE
  5
11C9
330
1A
100
AcDbEntity
  8
SEIHIN
  6
CONTINUOUS
 62
     3
 48
5.0
100
AcDbLine
 10
540.7082652557915
 20
133.9827796898448
 30
0.0
 11
540.7082652557915
 21
141.0619193273248
 31
0.0
  0
LINE
  5
11CA
330
1A
100
AcDbEntity
  8
SEIHIN
  6
CONTINUOUS
 62
     3
 48
5.0
100
AcDbLine
 10
541.2082652557915
 20
133.9827796898448
 30
0.0
 11
541.2082652557915
 21
141.0619193273248
 31
0.0
  0
LINE
  5
11CB
330
1A
100
AcDbEntity
  8
SEIHIN
  6
CONTINUOUS
 62
     3
 48
5.0
100
AcDbLine
 10
551.2082652557914
 20
141.0396954589068
 30
0.0
 11
551.7082652557915
 21
141.0396954589068
 31
0.0
  0
LINE
  5
11CC
330
1A
100
AcDbEntity
  8
SEIHIN
  6
CONTINUOUS
 62
     3
 48
5.0
100
AcDbLine
 10
551.2082652557914
 20
136.5396954589068
 30
0.0
 11
551.7082652557915
 21
136.5396954589068
 31
0.0
  0
LINE
  5
11CD
330
1A
100
AcDbEntity
  8
SEIHIN
  6
CONTINUOUS
 62
     3
 48
5.0
100
AcDbLine
 10
551.2082652557914
 20
133.9827796898448
 30
0.0
 11
551.2082652557914
 21
141.0619193273248
 31
0.0
  0
LINE
  5
11CE
330
1A
100
AcDbEntity
  8
SEIHIN
  6
CONTINUOUS
 62
     3
 48
5.0
100
AcDbLine
 10
551.7082652557915
 20
133.9827796898448
 30
0.0
 11
551.7082652557915
 21
141.0619193273248
 31
0.0
  0
LINE
  5
11CF
330
1A
100
AcDbEntity
  8
SEIHIN
  6
CONTINUOUS
 62
     3
 48
5.0
100
AcDbLine
 10
551.7082652557915
 20
133.9827796898448
 30
0.0
 11
551.7082652557915
 21
141.0619193273248
 31
0.0
  0
LINE
  5
11D0
330
1A
100
AcDbEntity
  8
SEIHIN
  6
CONTINUOUS
 62
     3
 48
5.0
100
AcDbLine
 10
551.2082652557914
 20
133.9827796898448
 30
0.0
 11
551.2082652557914
 21
141.0619193273248
 31
0.0
  0
LINE
  5
11D1
330
1A
100
AcDbEntity
  8
SEIHIN
  6
CONTINUOUS
 62
     3
 48
5.0
100
AcDbLine
 10
553.4355867317461
 20
141.4827796898448
 30
0.0
 11
558.7082652557914
 21
141.4827796898448
 31
0.0
  0
ARC
  5
11D2
330
1A
100
AcDbEntity
  8
SEIHIN
  6
CONTINUOUS
 62
     3
 48
5.0
100
AcDbCircle
 10
557.7082652557915
 20
134.9827796898448
 30
0.0
 40
1.0
100
AcDbArc
 50
270.0
 51
0.0
  0
LINE
  5
11D3
330
1A
100
AcDbEntity
  8
SEIHIN
  6
CONTINUOUS
 62
     3
 48
5.0
100
AcDbLine
 10
558.7082652557914
 20
134.9827796898448
 30
0.0
 11
558.7082652557914
 21
141.5396954589069
 31
0.0
  0
ARC
  5
11D4
330
1A
100
AcDbEntity
  8
SEIHIN
  6
CONTINUOUS
 62
     3
 48
5.0
100
AcDbCircle
 10
557.8176402557915
 20
138.7896954589068
 30
0.0
 40
2.890625000000026
100
AcDbArc
 50
287.9452532297965
 51
72.05474677020344
  0
LINE
  5
11D6
330
1A
100
AcDbEntity
  8
SEIHIN
100
AcDbLine
 10
546.2082652557914
 20
317.9421124074545
 30
0.0
 11
551.2082652557914
 21
320.8288637534026
 31
0.0
  0
LINE
  5
11D7
330
1A
100
AcDbEntity
  8
SEIHIN
100
AcDbLine
 10
546.2082652557914
 20
317.9421124074545
 30
0.0
 11
541.2082652557915
 21
320.8288637534027
 31
0.0
  0
CIRCLE
  5
11DA
330
1A
100
AcDbEntity
  8
SEIHIN
 62
     4
100
AcDbCircle
 10
546.2082652557914
 20
323.7156150993508
 30
0.0
 40
2.6
  0
LINE
  5
11DB
330
1A
100
AcDbEntity
  8
SEIHIN
100
AcDbLine
 10
541.2082652557915
 20
326.602366445299
 30
0.0
 11
546.2082652557914
 21
329.4891177912471
 31
0.0
  0
CIRCLE
  5
11DC
330
1A
100
AcDbEntity
  8
SEIHIN
100
AcDbCircle
 10
546.2082652557914
 20
323.7156150993508
 30
0.0
 40
5.000000000000056
  0
CIRCLE
  5
11DD
330
1A
100
AcDbEntity
  8
SEIHIN
100
AcDbCircle
 10
546.2082652557914
 20
323.7156150993508
 30
0.0
 40
3.0
  0
LINE
  5
11DE
330
1A
100
AcDbEntity
  8
SEIHIN
100
AcDbLine
 10
541.2082652557915
 20
320.8288637534026
 30
0.0
 11
541.2082652557915
 21
326.602366445299
 31
0.0
  0
LINE
  5
11DF
330
1A
100
AcDbEntity
  8
SEIHIN
100
AcDbLine
 10
551.2082652557914
 20
326.602366445299
 30
0.0
 11
546.2082652557914
 21
329.4891177912471
 31
0.0
  0
LINE
  5
11E0
330
1A
100
AcDbEntity
  8
SEIHIN
100
AcDbLine
 10
551.2082652557914
 20
320.8288637534026
 30
0.0
 11
551.2082652557914
 21
326.602366445299
 31
0.0
  0
LINE
  5
11E2
330
1A
100
AcDbEntity
  8
CENTER_L
  6
CENTER
 62
     1
 48
5.0
100
AcDbLine
 10
526.3824463325322
 20
343.7156150993508
 30
0.0
 11
568.0046529147857
 21
343.7156150993508
 31
0.0
  0
DIMENSION
  5
11E3
330
1A
100
AcDbEntity
  8
SUNPOU
100
AcDbDimension
  2
*D6
 10
558.7082652557914
 20
378.0972186901523
 30
0.0
 11
546.2082652557914
 21
383.0972186901523
 31
0.0
 70
    32
  3
STANDARD
100
AcDbAlignedDimension
 13
533.7082652557914
 23
345.6508152409458
 33
0.0
 14
558.7082652557914
 24
345.6508152409459
 34
0.0
100
AcDbRotatedDimension
1001
ACAD
1000
DSTYLE
1002
{
1070
    41
1040
7.0
1070
    42
1040
4.0
1070
    43
1040
14.0
1070
    44
1040
3.0
1070
    73
1070
     0
1070
    74
1070
     0
1070
    77
1070
     3
1070
   140
1040
6.0
1070
   141
1040
4.0
1070
   147
1040
2.0
1070
   172
1070
     1
1070
   173
1070
     1
1070
   176
1070
   256
1070
   177
1070
   256
1070
   178
1070
   256
1070
   271
1070
     0
1070
   272
1070
     0
1070
   341
1005
6D
1070
     6
1000
OPEN
1070
     7
1000
OPEN
1070
   371
1070
    -1
1070
   372
1070
    -1
1002
}
  0
CIRCLE
  5
11E5
330
1A
100
AcDbEntity
  8
SEIHIN
100
AcDbCircle
 10
546.2082652557914
 20
343.7156150993508
 30
0.0
 40
5.000000000000056
  0
LINE
  5
11E6
330
1A
100
AcDbEntity
  8
SEIHIN
100
AcDbLine
 10
541.2082652557915
 20
340.8288637534026
 30
0.0
 11
541.2082652557915
 21
346.602366445299
 31
0.0
  0
CIRCLE
  5
11E7
330
1A
100
AcDbEntity
  8
SEIHIN
100
AcDbCircle
 10
546.2082652557914
 20
343.7156150993508
 30
0.0
 40
3.0
  0
CIRCLE
  5
11E8
330
1A
100
AcDbEntity
  8
SEIHIN
 62
     4
100
AcDbCircle
 10
546.2082652557914
 20
343.7156150993508
 30
0.0
 40
2.6
  0
LINE
  5
11E9
330
1A
100
AcDbEntity
  8
SEIHIN
100
AcDbLine
 10
551.2082652557914
 20
340.8288637534026
 30
0.0
 11
551.2082652557914
 21
346.602366445299
 31
0.0
  0
LINE
  5
11EA
330
1A
100
AcDbEntity
  8
SEIHIN
100
AcDbLine
 10
546.2082652557914
 20
337.9421124074545
 30
0.0
 11
541.2082652557915
 21
340.8288637534027
 31
0.0
  0
LINE
  5
11EB
330
1A
100
AcDbEntity
  8
SEIHIN
100
AcDbLine
 10
546.2082652557914
 20
337.9421124074545
 30
0.0
 11
551.2082652557914
 21
340.8288637534026
 31
0.0
  0
LINE
  5
11EC
330
1A
100
AcDbEntity
  8
SEIHIN
100
AcDbLine
 10
541.2082652557915
 20
346.602366445299
 30
0.0
 11
546.2082652557914
 21
349.4891177912471
 31
0.0
  0
LINE
  5
11ED
330
1A
100
AcDbEntity
  8
SEIHIN
100
AcDbLine
 10
551.2082652557914
 20
346.602366445299
 30
0.0
 11
546.2082652557914
 21
349.4891177912471
 31
0.0
  0
ARC
  5
135E
330
1A
100
AcDbEntity
  8
SEIHIN
  6
CONTINUOUS
 62
     3
 48
5.0
100
AcDbCircle
 10
297.7450692995026
 20
226.1327796898446
 30
0.0
 40
84.64999999999998
100
AcDbArc
 50
272.6218529928666
 51
85.98299417493787
  0
DIMENSION
  5
135F
330
1A
100
AcDbEntity
  8
SUNPOU
100
AcDbDimension
  2
*D7
 10
421.3678892900322
 20
134.085403575401
 30
0.0
 11
416.3678892900321
 21
243.8681094081735
 31
0.0
 70
    32
  3
STANDARD
100
AcDbAlignedDimension
 13
302.7450692995027
 23
353.6508152409459
 33
0.0
 14
297.8337952821033
 24
134.0854035754011
 34
0.0
 50
90.0
100
AcDbRotatedDimension
1001
ACAD
1000
DSTYLE
1002
{
1070
    41
1040
7.0
1070
    42
1040
6.0
1070
    43
1040
14.0
1070
    44
1040
3.0
1070
    73
1070
     0
1070
    74
1070
     0
1070
    77
1070
     3
1070
   140
1040
6.0
1070
   141
1040
150.0
1070
   147
1040
2.0
1070
   172
1070
     1
1070
   173
1070
     1
1070
   176
1070
   256
1070
   177
1070
   256
1070
   178
1070
   256
1070
   271
1070
     0
1070
   272
1070
     0
1070
   341
1005
6D
1070
     6
1000
OPEN
1070
     7
1000
OPEN
1070
   371
1070
    -1
1070
   372
1070
    -1
1002
}
  0
LINE
  5
136C
330
1A
100
AcDbEntity
  8
CENTER_L
  6
CENTER
 62
     1
 48
5.0
100
AcDbLine
 10
192.6449456832871
 20
226.1327796898446
 30
0.0
 11
402.8451929157174
 21
226.1327796898446
 31
0.0
  0
LINE
  5
136E
330
1A
100
AcDbEntity
  8
CENTER_L
  6
CENTER
 62
     1
 48
5.0
100
AcDbLine
 10
525.1369290955255
 20
226.1327796898446
 30
0.0
 11
566.4407024176203
 21
226.1327796898446
 31
0.0
  0
LINE
  5
136F
330
1A
100
AcDbEntity
  8
CENTER_L
  6
CENTER
 62
     1
 48
5.0
100
AcDbLine
 10
529.1726761212479
 20
138.7896954589068
 30
0.0
 11
563.8331378550583
 21
138.7896954589068
 31
0.0
  0
ARC
  5
1370
330
1A
100
AcDbEntity
  8
SEIHIN
  6
CONTINUOUS
 62
     3
 48
5.0
100
AcDbCircle
 10
213.5950692995027
 20
447.9341280286338
 30
0.0
 40
2.0
100
AcDbArc
 50
180.0
 51
230.8416758896513
  0
ARC
  5
1371
330
1A
100
AcDbEntity
  8
SEIHIN
  6
CONTINUOUS
 62
     3
 48
5.0
100
AcDbCircle
 10
211.0692074785545
 20
444.8325119883289
 30
0.0
 40
2.0
100
AcDbArc
 50
0.0
 51
50.84167588965136
  0
LINE
  5
1372
330
1A
100
AcDbEntity
  8
SEIHIN
  6
CONTINUOUS
 62
     3
 48
5.0
100
AcDbLine
 10
213.0692074785545
 20
444.8325119883289
 30
0.0
 11
213.0692074785545
 21
440.9549724990407
 31
0.0
  0
LINE
  5
1373
330
1A
100
AcDbEntity
  8
SEIHIN
  6
CONTINUOUS
 62
     3
 48
5.0
100
AcDbLine
 10
211.5950692995027
 20
447.9341280286338
 30
0.0
 11
211.5950692995027
 21
458.9758169694475
 31
0.0
  0
ARC
  5
1374
330
1A
100
AcDbEntity
  8
SEIHIN
  6
CONTINUOUS
 62
     3
 48
5.0
100
AcDbCircle
 10
211.0692074785545
 20
462.0774330097524
 30
0.0
 40
2.0
100
AcDbArc
 50
309.1583241103486
 51
0.0
  0
LINE
  5
1375
330
1A
100
AcDbEntity
  8
SEIHIN
  6
CONTINUOUS
 62
     3
 48
5.0
100
AcDbLine
 10
213.0692074785545
 20
462.0774330097524
 30
0.0
 11
213.0692074785545
 21
465.9549724990407
 31
0.0
  0
ARC
  5
1376
330
1A
100
AcDbEntity
  8
SEIHIN
  6
CONTINUOUS
 62
     3
 48
5.0
100
AcDbCircle
 10
213.5950692995027
 20
458.9758169694476
 30
0.0
 40
2.0
100
AcDbArc
 50
129.1583241103486
 51
180.0000000000007
  0
ARC
  5
1377
330
1A
100
AcDbEntity
  8
SEIHIN
  6
CONTINUOUS
 62
     3
 48
5.0
100
AcDbCircle
 10
381.8950692995026
 20
447.9341280286338
 30
0.0
 40
2.0
100
AcDbArc
 50
309.1583241103486
 51
0.0
  0
ARC
  5
1378
330
1A
100
AcDbEntity
  8
SEIHIN
  6
CONTINUOUS
 62
     3
 48
5.0
100
AcDbCircle
 10
384.4209311204508
 20
444.8325119883289
 30
0.0
 40
2.0
100
AcDbArc
 50
129.1583241103486
 51
180.0
  0
LINE
  5
1379
330
1A
100
AcDbEntity
  8
SEIHIN
  6
CONTINUOUS
 62
     3
 48
5.0
100
AcDbLine
 10
382.4209311204508
 20
444.8325119883289
 30
0.0
 11
382.4209311204508
 21
440.9549724990407
 31
0.0
  0
LINE
  5
137A
330
1A
100
AcDbEntity
  8
SEIHIN
  6
CONTINUOUS
 62
     3
 48
5.0
100
AcDbLine
 10
383.8950692995026
 20
447.9341280286338
 30
0.0
 11
383.8950692995026
 21
458.9758169694475
 31
0.0
  0
ARC
  5
137B
330
1A
100
AcDbEntity
  8
SEIHIN
  6
CONTINUOUS
 62
     3
 48
5.0
100
AcDbCircle
 10
384.4209311204508
 20
462.0774330097524
 30
0.0
 40
2.0
100
AcDbArc
 50
180.0
 51
230.8416758896513
  0
ARC
  5
137C
330
1A
100
AcDbEntity
  8
SEIHIN
  6
CONTINUOUS
 62
     3
 48
5.0
100
AcDbCircle
 10
381.8950692995026
 20
458.9758169694476
 30
0.0
 40
2.0
100
AcDbArc
 50
359.9999999999992
 51
50.84167588965136
  0
LINE
  5
137D
330
1A
100
AcDbEntity
  8
SEIHIN
  6
CONTINUOUS
 62
     3
 48
5.0
100
AcDbLine
 10
382.4209311204508
 20
462.0774330097524
 30
0.0
 11
382.4209311204508
 21
465.9549724990407
 31
0.0
  0
LINE
  5
1392
330
1A
100
AcDbEntity
  8
SEIHIN
100
AcDbLine
 10
289.2358170283139
 20
448.4824484644654
 30
0.0
 11
292.7450692995027
 21
448.4824484644654
 31
0.0
  0
LINE
  5
1393
330
1A
100
AcDbEntity
  8
SEIHIN
100
AcDbLine
 10
289.2358170283139
 20
458.4824484644655
 30
0.0
 11
292.7450692995027
 21
458.4824484644655
 31
0.0
  0
LINE
  5
1394
330
1A
100
AcDbEntity
  8
SEIHIN
100
AcDbLine
 10
289.2358170283139
 20
453.4824484644655
 30
0.0
 11
292.7450692995027
 21
453.4824484644655
 31
0.0
  0
ARC
  5
1395
330
1A
100
AcDbEntity
  8
SEIHIN
100
AcDbCircle
 10
295.3582770152635
 20
450.9824484644655
 30
0.0
 40
6.613207715760863
100
AcDbArc
 50
157.788205364948
 51
202.2117946350519
  0
LINE
  5
1396
330
1A
100
AcDbEntity
  8
SEIHIN
100
AcDbLine
 10
288.7450692995026
 20
450.9824484644655
 30
0.0
 11
288.7450692995026
 21
455.9824484644654
 31
0.0
  0
ARC
  5
1397
330
1A
100
AcDbEntity
  8
SEIHIN
100
AcDbCircle
 10
295.3582770152635
 20
455.9824484644654
 30
0.0
 40
6.613207715760863
100
AcDbArc
 50
157.788205364948
 51
202.2117946350519
  0
LINE
  5
1398
330
1A
100
AcDbEntity
  8
SEIHIN
100
AcDbLine
 10
306.3450692995027
 20
450.8549724990406
 30
0.0
 11
312.1450692995027
 21
450.8549724990406
 31
0.0
  0
LINE
  5
1399
330
1A
100
AcDbEntity
  8
SEIHIN
100
AcDbLine
 10
306.3450692995027
 20
450.4549724990405
 30
0.0
 11
311.7450692995026
 21
450.4549724990406
 31
0.0
  0
LINE
  5
139A
330
1A
100
AcDbEntity
  8
SEIHIN
100
AcDbLine
 10
306.3450692995027
 20
456.4549724990405
 30
0.0
 11
311.7450692995026
 21
456.4549724990405
 31
0.0
  0
LINE
  5
139B
330
1A
100
AcDbEntity
  8
SEIHIN
100
AcDbLine
 10
306.3450692995027
 20
456.0549724990405
 30
0.0
 11
312.1450692995027
 21
456.0549724990405
 31
0.0
  0
LINE
  5
139C
330
1A
100
AcDbEntity
  8
SEIHIN
100
AcDbLine
 10
294.7450692995026
 20
456.4549724990406
 30
0.0
 11
300.7450692995027
 21
456.4549724990405
 31
0.0
  0
LINE
  5
139D
330
1A
100
AcDbEntity
  8
SEIHIN
100
AcDbLine
 10
294.7450692995026
 20
456.0549724990405
 30
0.0
 11
300.7450692995027
 21
456.0549724990405
 31
0.0
  0
LINE
  5
139E
330
1A
100
AcDbEntity
  8
SEIHIN
100
AcDbLine
 10
294.7450692995026
 20
450.8549724990404
 30
0.0
 11
300.7450692995027
 21
450.8549724990404
 31
0.0
  0
LINE
  5
139F
330
1A
100
AcDbEntity
  8
SEIHIN
100
AcDbLine
 10
294.7450692995026
 20
450.4549724990405
 30
0.0
 11
300.7450692995027
 21
450.4549724990405
 31
0.0
  0
LINE
  5
13A0
330
1A
100
AcDbEntity
  8
SEIHIN
100
AcDbLine
 10
292.7450692995027
 20
453.4824484644655
 30
0.0
 11
292.7450692995027
 21
448.4824484644654
 31
0.0
  0
LINE
  5
13A1
330
1A
100
AcDbEntity
  8
SEIHIN
100
AcDbLine
 10
292.7450692995027
 20
453.4824484644655
 30
0.0
 11
292.7450692995027
 21
458.4824484644655
 31
0.0
  0
LINE
  5
13A2
330
1A
100
AcDbEntity
  8
SEIHIN
100
AcDbLine
 10
303.2358170283139
 20
458.4824484644655
 30
0.0
 11
305.8654691021804
 21
458.4824484644655
 31
0.0
  0
ARC
  5
13A3
330
1A
100
AcDbEntity
  8
SEIHIN
100
AcDbCircle
 10
309.3582770152635
 20
450.9824484644655
 30
0.0
 40
6.613207715760863
100
AcDbArc
 50
157.788205364948
 51
202.2117946350519
  0
ARC
  5
13A4
330
1A
100
AcDbEntity
  8
SEIHIN
100
AcDbCircle
 10
299.7318615837418
 20
451.0099244298904
 30
0.0
 40
6.613207715760863
100
AcDbArc
 50
337.788205364948
 51
22.21179463505198
  0
LINE
  5
13A5
330
1A
100
AcDbEntity
  8
SEIHIN
100
AcDbLine
 10
303.2358170283139
 20
448.4824484644654
 30
0.0
 11
305.8430301737905
 21
448.4824484644654
 31
0.0
  0
LINE
  5
13A6
330
1A
100
AcDbEntity
  8
SEIHIN
100
AcDbLine
 10
303.2358170283139
 20
453.4824484644655
 30
0.0
 11
305.8654691021805
 21
453.4824484644655
 31
0.0
  0
ARC
  5
13A7
330
1A
100
AcDbEntity
  8
SEIHIN
100
AcDbCircle
 10
299.7318615837418
 20
456.0099244298903
 30
0.0
 40
6.613207715760863
100
AcDbArc
 50
337.788205364948
 51
22.21179463505198
  0
LINE
  5
13A8
330
1A
100
AcDbEntity
  8
SEIHIN
100
AcDbLine
 10
302.7450692995027
 20
450.9824484644655
 30
0.0
 11
302.7450692995027
 21
455.9824484644654
 31
0.0
  0
ARC
  5
13A9
330
1A
100
AcDbEntity
  8
SEIHIN
100
AcDbCircle
 10
309.3582770152635
 20
455.9824484644654
 30
0.0
 40
6.613207715760863
100
AcDbArc
 50
157.788205364948
 51
202.2117946350519
  0
LINE
  5
13AA
330
1A
100
AcDbEntity
  8
SEIHIN
100
AcDbLine
 10
306.3450692995027
 20
456.0099244298903
 30
0.0
 11
306.3450692995027
 21
451.0099244298904
 31
0.0
  0
LINE
  5
13AB
330
1A
100
AcDbEntity
  8
SEIHIN
100
AcDbLine
 10
311.7450692995029
 20
456.4549724990405
 30
0.0
 11
312.7450692995026
 21
455.4549724990405
 31
0.0
  0
LINE
  5
13AC
330
1A
100
AcDbEntity
  8
SEIHIN
100
AcDbLine
 10
311.7450692995028
 20
450.4549724990406
 30
0.0
 11
312.7450692995026
 21
451.4549724990405
 31
0.0
  0
LINE
  5
13AD
330
1A
100
AcDbEntity
  8
SEIHIN
100
AcDbLine
 10
312.7450692995026
 20
455.4549724990405
 30
0.0
 11
312.7450692995026
 21
451.4549724990404
 31
0.0
  0
LINE
  5
13AE
330
1A
100
AcDbEntity
  8
SEIHIN
100
AcDbLine
 10
311.7450692995026
 20
456.4549724990407
 30
0.0
 11
311.7450692995026
 21
450.4549724990404
 31
0.0
  0
LINE
  5
13AF
330
1A
100
AcDbEntity
  8
CENTER_L
  6
CENTER
 62
     1
 48
5.0
100
AcDbLine
 10
297.7450692995026
 20
471.0451572839254
 30
0.0
 11
297.7450692995026
 21
433.1441462491065
 31
0.0
  0
DIMENSION
  5
13B1
330
1A
100
AcDbEntity
  8
SUNPOU
100
AcDbDimension
  2
*D8
 10
383.8950692995026
 20
415.6544214248671
 30
0.0
 11
297.7450692995026
 21
420.6544214248671
 31
0.0
 70
    32
  1
φ<>
  3
STANDARD
100
AcDbAlignedDimension
 13
211.5950692995027
 23
447.9341280286338
 33
0.0
 14
383.8950692995026
 24
447.9341280286338
 34
0.0
100
AcDbRotatedDimension
1001
ACAD
1000
DSTYLE
1002
{
1070
    41
1040
7.0
1070
    42
1040
4.0
1070
    43
1040
14.0
1070
    44
1040
3.0
1070
    73
1070
     0
1070
    74
1070
     0
1070
    77
1070
     3
1070
   140
1040
6.0
1070
   141
1040
4.0
1070
   147
1040
2.0
1070
   172
1070
     1
1070
   173
1070
     1
1070
   176
1070
   256
1070
   177
1070
   256
1070
   178
1070
   256
1070
   271
1070
     0
1070
   272
1070
     0
1070
   341
1005
6D
1070
     6
1000
OPEN
1070
     7
1000
OPEN
1070
   371
1070
    -1
1070
   372
1070
    -1
1002
}
  0
DIMENSION
  5
13ED
330
1A
100
AcDbEntity
  8
SUNPOU
100
AcDbDimension
  2
*D9
 10
233.8676025557495
 20
168.3271420547429
 30
0.0
 11
327.2459874008915
 21
260.3290804913124
 31
0.0
 70
   163
  3
STANDARD
100
AcDbDiametricDimension
 15
361.6225360432557
 25
283.9384173249464
 35
0.0
 40
0.0
1001
ACAD
1000
DSTYLE
1002
{
1070
   287
1070
     5
1070
   287
1070
     5
1070
   287
1070
     5
1070
   287
1070
     5
1070
   287
1070
     5
1070
   287
1070
     5
1070
   287
1070
     5
1070
    41
1040
7.0
1070
    42
1040
6.0
1070
    43
1040
14.0
1070
    44
1040
3.0
1070
    73
1070
     0
1070
    74
1070
     0
1070
    77
1070
     3
1070
   140
1040
6.0
1070
   141
1040
150.0
1070
   147
1040
2.0
1070
   172
1070
     1
1070
   173
1070
     1
1070
   176
1070
   256
1070
   177
1070
   256
1070
   178
1070
   256
1070
   271
1070
     0
1070
   272
1070
     0
1070
   279
1070
     2
1070
   288
1070
     1
1070
   341
1005
6D
1070
     6
1000
OPEN
1070
     7
1000
OPEN
1070
   371
1070
    -1
1070
   372
1070
    -1
1002
}
  0
DIMENSION
  5
1692
330
1A
100
AcDbEntity
  8
SUNPOU
100
AcDbDimension
  2
*D11
 10
507.1134826389132
 20
353.6508152409459
 30
0.0
 11
502.1134826389131
 21
373.1508152409459
 31
0.0
 70
    32
  3
STANDARD
100
AcDbAlignedDimension
 13
533.7082652557913
 23
343.7156150993508
 33
0.0
 14
546.2082652557914
 24
353.6508152409459
 34
0.0
 50
90.0
100
AcDbRotatedDimension
1001
ACAD
1000
DSTYLE
1002
{
1070
    41
1040
7.0
1070
    42
1040
6.0
1070
    43
1040
14.0
1070
    44
1040
3.0
1070
    73
1070
     0
1070
    74
1070
     0
1070
    77
1070
     3
1070
   140
1040
6.0
1070
   141
1040
150.0
1070
   147
1040
2.0
1070
   172
1070
     1
1070
   173
1070
     1
1070
   176
1070
   256
1070
   177
1070
   256
1070
   178
1070
   256
1070
   271
1070
     0
1070
   272
1070
     0
1070
   341
1005
6D
1070
     6
1000
OPEN
1070
     7
1000
OPEN
1070
   371
1070
    -1
1070
   372
1070
    -1
1002
}
  0
TEXT
  5
17C1
330
1A
100
AcDbEntity
  8
SUNPOU
100
AcDbText
 10
663.9583103411019
 20
80.65831199489883
 30
0.0
 40
4.479999999999999
  1
ボルト・ナット・リベット
 41
0.9
  7
ｽﾀｲﾙ1
100
AcDbText
  0
LINE
  5
17C2
330
1A
100
AcDbEntity
  8
SUNPOU
100
AcDbLine
 10
659.1304792204
 20
77.33024483386907
 30
0.0
 11
755.1304792204
 21
77.33024483386907
 31
0.0
  0
LINE
  5
17C3
330
1A
100
AcDbEntity
  8
SUNPOU
100
AcDbLine
 10
659.1304792204
 20
110.9302448338691
 30
0.0
 11
755.1304792204
 21
110.9302448338691
 31
0.0
  0
LINE
  5
17C4
330
1A
100
AcDbEntity
  8
SUNPOU
100
AcDbLine
 10
659.1304792204
 20
99.73024483386911
 30
0.0
 11
755.1304792204
 21
99.73024483386911
 31
0.0
  0
LINE
  5
17C5
330
1A
100
AcDbEntity
  8
SUNPOU
100
AcDbLine
 10
659.1304792204
 20
88.53024483386906
 30
0.0
 11
755.1304792204
 21
88.53024483386906
 31
0.0
  0
LINE
  5
17CE
330
1A
100
AcDbEntity
  8
SUNPOU
100
AcDbLine
 10
659.1304792204
 20
110.9302448338691
 30
0.0
 11
659.1304792204
 21
77.33024483386907
 31
0.0
  0
TEXT
  5
17CF
330
1A
100
AcDbEntity
  8
SUNPOU
100
AcDbText
 10
663.9583103411019
 20
91.85831199489886
 30
0.0
 40
4.479999999999999
  1
本　体
 41
0.9
  7
ｽﾀｲﾙ1
100
AcDbText
  0
TEXT
  5
17D0
330
1A
100
AcDbEntity
  8
SUNPOU
100
AcDbText
 10
663.9583103411019
 20
103.0583119948988
 30
0.0
 40
4.479999999999999
  1
品　名
 41
0.9
  7
ｽﾀｲﾙ1
100
AcDbText
  0
LINE
  5
17D7
330
1A
100
AcDbEntity
  8
SUNPOU
100
AcDbLine
 10
723.1304792204
 20
110.9302448338691
 30
0.0
 11
723.1304792204
 21
77.33024483386907
 31
0.0
  0
LINE
  5
17D8
330
1A
100
AcDbEntity
  8
SUNPOU
100
AcDbLine
 10
755.1304792204
 20
110.9302448338691
 30
0.0
 11
755.1304792204
 21
77.33024483386907
 31
0.0
  0
TEXT
  5
17D9
330
1A
100
AcDbEntity
  8
SUNPOU
100
AcDbText
 10
727.9583103411018
 20
80.65831199489883
 30
0.0
 40
4.479999999999999
  1
ＳＵＳ
 41
0.9
  7
ｽﾀｲﾙ1
100
AcDbText
  0
TEXT
  5
17DA
330
1A
100
AcDbEntity
  8
SUNPOU
100
AcDbText
 10
727.9583103411018
 20
91.85831199489886
 30
0.0
 40
4.479999999999999
  1
ＳＵＳ３０４
 41
0.9
  7
ｽﾀｲﾙ1
100
AcDbText
  0
TEXT
  5
17DB
330
1A
100
AcDbEntity
  8
SUNPOU
100
AcDbText
 10
727.9583103411018
 20
103.0583119948988
 30
0.0
 40
4.479999999999999
  1
材　質
 41
0.9
  7
ｽﾀｲﾙ1
100
AcDbText
  0
DIMENSION
  5
17DF
330
1A
100
AcDbEntity
  8
SUNPOU
100
AcDbDimension
  2
*D12
 10
381.2735894054959
 20
239.8662726505839
 30
0.0
 11
401.1841795699632
 21
248.207039959568
 31
0.0
 70
    33
  1
t<>
  3
STANDARD
100
AcDbAlignedDimension
 13
379.300086272454
 23
239.5417955575954
 33
0.0
 14
381.2735894054959
 24
239.8662726505839
 34
0.0
1001
ACAD
1000
DSTYLE
1002
{
1070
    41
1040
7.0
1070
    42
1040
0.0
1070
    43
1040
14.0
1070
    44
1040
0.0
1070
    73
1070
     0
1070
    74
1070
     0
1070
    77
1070
     3
1070
   140
1040
6.0
1070
   141
1040
150.0
1070
   147
1040
2.0
1070
   172
1070
     1
1070
   173
1070
     1
1070
   176
1070
   256
1070
   177
1070
   256
1070
   178
1070
   256
1070
   271
1070
     0
1070
   272
1070
     0
1070
   341
1005
6D
1070
     6
1000
OPEN
1070
     7
1000
OPEN
1070
   371
1070
    -1
1070
   372
1070
    -1
1002
}
  0
DIMENSION
  5
1919
330
1A
100
AcDbEntity
  8
SUNPOU
100
AcDbDimension
  2
*D13
 10
216.1900523265512
 20
212.7237638220938
 30
0.0
 11
341.7482373417199
 21
239.2074032841469
 31
0.0
 70
   163
  1
(<>)
  3
STANDARD
100
AcDbDiametricDimension
 15
379.300086272454
 25
239.5417955575955
 35
0.0
 40
0.0
1001
ACAD
1000
DSTYLE
1002
{
1070
   287
1070
     5
1070
   287
1070
     5
1070
   287
1070
     5
1070
    41
1040
7.0
1070
    42
1040
6.0
1070
    43
1040
14.0
1070
    44
1040
3.0
1070
    73
1070
     0
1070
    74
1070
     0
1070
    77
1070
     3
1070
   140
1040
6.0
1070
   141
1040
150.0
1070
   147
1040
2.0
1070
   172
1070
     1
1070
   173
1070
     1
1070
   176
1070
   256
1070
   177
1070
   256
1070
   178
1070
   256
1070
   271
1070
     1
1070
   272
1070
     0
1070
   279
1070
     2
1070
   288
1070
     1
1070
   341
1005
6D
1070
     6
1000
OPEN
1070
     7
1000
OPEN
1070
   371
1070
    -1
1070
   372
1070
    -1
1002
}
  0
VIEWPORT
  5
22
330
17
100
AcDbEntity
 67
     1
  8
0
100
AcDbViewport
 10
313.6808219178082
 20
148.5
 30
0.0
 40
627.3616438356165
 41
297.0
 68
     2
 69
     1
1001
ACAD
1000
MVIEW
1002
{
1070
    16
1010
0.0
1020
0.0
1030
0.0
1010
0.0
1020
0.0
1030
1.0
1040
0.0
1040
297.0
1040
313.6808219178082
1040
148.5
1040
50.0
1040
0.0
1040
0.0
1070
     0
1070
   100
1070
     1
1070
     0
1070
     0
1070
     0
1070
     0
1070
     0
1040
0.0
1040
0.0
1040
0.0
1040
1.0
1040
1.0
1040
10.0
1040
10.0
1070
     0
1002
{
1002
}
1002
}
  0
VIEWPORT
  5
64
330
17
100
AcDbEntity
 67
     1
  8
VIEWPORT
100
AcDbViewport
 10
210.0
 20
148.5
 30
0.0
 40
420.0
 41
297.0
 68
     1
 69
     2
1001
ACAD
1000
MVIEW
1002
{
1070
    16
1010
0.0
1020
0.0
1030
0.0
1010
0.0
1020
0.0
1030
1.0
1040
0.0
1040
605.8799999999998
1040
420.0
1040
297.0
1040
50.0
1040
0.0
1040
0.0
1070
     0
1070
   100
1070
     1
1070
     0
1070
     0
1070
     0
1070
     0
1070
     0
1040
0.0
1040
0.0
1040
0.0
1040
10.0
1040
10.0
1040
0.0
1040
0.0
1070
     0
1002
{
1002
}
1002
}
  0
ENDSEC
  0
SECTION
  2
OBJECTS
  0
DICTIONARY
  5
C
330
0
100
AcDbDictionary
  3
ACAD_GROUP
350
D
  3
ACAD_LAYOUT
350
556
  3
ACAD_MLINESTYLE
350
E
  3
ACAD_PLOTSETTINGS
350
557
1001
ACAD
1000
TREAT_AS_HARD
1070
     0
  0
DICTIONARY
  5
6C6
330
1A
100
AcDbDictionary
  3
ACAD_LAYOUTSELFREF
350
1A5E
1001
ACAD
1000
TREAT_AS_HARD
1070
     1
  0
DICTIONARY
  5
6C4
330
17
100
AcDbDictionary
  3
ACAD_LAYOUTSELFREF
350
1A5D
1001
ACAD
1000
TREAT_AS_HARD
1070
     1
  0
DICTIONARY
  5
D
102
{ACAD_REACTORS
330
C
102
}
330
C
100
AcDbDictionary
1001
ACAD
1000
TREAT_AS_HARD
1070
     0
  0
DICTIONARY
  5
556
102
{ACAD_REACTORS
330
C
102
}
330
C
100
AcDbDictionary
1001
ACAD
1000
TREAT_AS_HARD
1070
     0
  0
DICTIONARY
  5
E
102
{ACAD_REACTORS
330
C
102
}
330
C
100
AcDbDictionary
  3
STANDARD
350
13
1001
ACAD
1000
TREAT_AS_HARD
1070
     0
  0
DICTIONARY
  5
557
102
{ACAD_REACTORS
330
C
102
}
330
C
100
AcDbDictionary
1001
ACAD
1000
TREAT_AS_HARD
1070
     0
  0
XRECORD
  5
1A5E
102
{ACAD_REACTORS
330
6C6
102
}
330
6C6
100
AcDbXrecord
340
1A
  0
XRECORD
  5
1A5D
102
{ACAD_REACTORS
330
6C4
102
}
330
6C4
100
AcDbXrecord
340
17
  0
MLINESTYLE
  5
13
102
{ACAD_REACTORS
330
E
102
}
330
E
100
AcDbMlineStyle
  2
STANDARD
 70
     0
  3

 62
     0
 51
90.0
 52
90.0
 71
     2
 49
0.5
 62
   256
  6
BYLAYER
 49
-0.5
 62
   256
  6
BYLAYER
  0
ENDSEC
  0
EOF
