  0
SECTION
  2
HEADER
  9
$ACADVER
  1
AC1015
  9
$ACADMAINTVER
 70
    20
  9
$DWGCODEPAGE
  3
ANSI_932
  9
$INSBASE
 10
0.0
 20
0.0
 30
0.0
  9
$EXTMIN
 10
-0.0000004828989404
 20
-0.0000000386436341
 30
0.0
  9
$EXTMAX
 10
398.7999995171011
 20
275.7999999613564
 30
0.0
  9
$LIMMIN
 10
0.0
 20
0.0
  9
$LIMMAX
 10
420.0
 20
297.0
  9
$ORTHOMODE
 70
     0
  9
$REGENMODE
 70
     1
  9
$FILLMODE
 70
     1
  9
$QTEXTMODE
 70
     0
  9
$MIRRTEXT
 70
     1
  9
$LTSCALE
 40
0.5
  9
$ATTMODE
 70
     1
  9
$TEXTSIZE
 40
2.5
  9
$TRACEWID
 40
1.0
  9
$TEXTSTYLE
  7
STANDARD
  9
$CLAYER
  8
SUNPOU
  9
$CELTYPE
  6
BYLAYER
  9
$CECOLOR
 62
   256
  9
$CELTSCALE
 40
1.0
  9
$DISPSILH
 70
     0
  9
$DIMSCALE
 40
1.0
  9
$DIMASZ
 40
3.0
  9
$DIMEXO
 40
1.5
  9
$DIMDLI
 40
7.0
  9
$DIMRND
 40
0.0
  9
$DIMDLE
 40
0.0
  9
$DIMEXE
 40
1.5
  9
$DIMTP
 40
0.0
  9
$DIMTM
 40
0.0
  9
$DIMTXT
 40
3.0
  9
$DIMCEN
 40
3.0
  9
$DIMTSZ
 40
0.0
  9
$DIMTOL
 70
     0
  9
$DIMLIM
 70
     0
  9
$DIMTIH
 70
     0
  9
$DIMTOH
 70
     0
  9
$DIMSE1
 70
     0
  9
$DIMSE2
 70
     0
  9
$DIMTAD
 70
     1
  9
$DIMZIN
 70
     0
  9
$DIMBLK
  1
OPEN
  9
$DIMASO
 70
     1
  9
$DIMSHO
 70
     1
  9
$DIMPOST
  1

  9
$DIMAPOST
  1

  9
$DIMALT
 70
     0
  9
$DIMALTD
 70
     2
  9
$DIMALTF
 40
25.4
  9
$DIMLFAC
 40
1.0
  9
$DIMTOFL
 70
     1
  9
$DIMTVP
 40
0.0
  9
$DIMTIX
 70
     0
  9
$DIMSOXD
 70
     0
  9
$DIMSAH
 70
     0
  9
$DIMBLK1
  1

  9
$DIMBLK2
  1

  9
$DIMSTYLE
  2
STANDARD
  9
$DIMCLRD
 70
   256
  9
$DIMCLRE
 70
   256
  9
$DIMCLRT
 70
   256
  9
$DIMTFAC
 40
1.0
  9
$DIMGAP
 40
1.5
  9
$DIMJUST
 70
     0
  9
$DIMSD1
 70
     0
  9
$DIMSD2
 70
     0
  9
$DIMTOLJ
 70
     1
  9
$DIMTZIN
 70
     0
  9
$DIMALTZ
 70
     0
  9
$DIMALTTZ
 70
     0
  9
$DIMUPT
 70
     0
  9
$DIMDEC
 70
     0
  9
$DIMTDEC
 70
     0
  9
$DIMALTU
 70
     2
  9
$DIMALTTD
 70
     2
  9
$DIMTXSTY
  7
STANDARD
  9
$DIMAUNIT
 70
     0
  9
$DIMADEC
 70
     0
  9
$DIMALTRND
 40
0.0
  9
$DIMAZIN
 70
     0
  9
$DIMDSEP
 70
    46
  9
$DIMATFIT
 70
     3
  9
$DIMFRAC
 70
     0
  9
$DIMLDRBLK
  1
OPEN
  9
$DIMLUNIT
 70
     2
  9
$DIMLWD
 70
    -1
  9
$DIMLWE
 70
    -1
  9
$DIMTMOVE
 70
     0
  9
$LUNITS
 70
     2
  9
$LUPREC
 70
     4
  9
$SKETCHINC
 40
1.0
  9
$FILLETRAD
 40
0.6
  9
$AUNITS
 70
     0
  9
$AUPREC
 70
     0
  9
$MENU
  1
.
  9
$ELEVATION
 40
0.0
  9
$PELEVATION
 40
0.0
  9
$THICKNESS
 40
0.0
  9
$LIMCHECK
 70
     0
  9
$CHAMFERA
 40
0.0
  9
$CHAMFERB
 40
0.0
  9
$CHAMFERC
 40
20.0
  9
$CHAMFERD
 40
0.0
  9
$SKPOLY
 70
     0
  9
$TDCREATE
 40
2451100.394552546
  9
$TDUCREATE
 40
2451100.019552546
  9
$TDUPDATE
 40
2460266.621349514
  9
$TDUUPDATE
 40
2460266.246349514
  9
$TDINDWG
 40
0.1522756944
  9
$TDUSRTIMER
 40
0.1522756944
  9
$USRTIMER
 70
     1
  9
$ANGBASE
 50
0.0
  9
$ANGDIR
 70
     0
  9
$PDMODE
 70
     0
  9
$PDSIZE
 40
0.0
  9
$PLINEWID
 40
0.0
  9
$SPLFRAME
 70
     0
  9
$SPLINETYPE
 70
     6
  9
$SPLINESEGS
 70
     8
  9
$HANDSEED
  5
2F42
  9
$SURFTAB1
 70
     6
  9
$SURFTAB2
 70
     6
  9
$SURFTYPE
 70
     6
  9
$SURFU
 70
     6
  9
$SURFV
 70
     6
  9
$UCSBASE
  2

  9
$UCSNAME
  2

  9
$UCSORG
 10
0.0
 20
0.0
 30
0.0
  9
$UCSXDIR
 10
1.0
 20
0.0
 30
0.0
  9
$UCSYDIR
 10
0.0
 20
1.0
 30
0.0
  9
$UCSORTHOREF
  2

  9
$UCSORTHOVIEW
 70
     0
  9
$UCSORGTOP
 10
0.0
 20
0.0
 30
0.0
  9
$UCSORGBOTTOM
 10
0.0
 20
0.0
 30
0.0
  9
$UCSORGLEFT
 10
0.0
 20
0.0
 30
0.0
  9
$UCSORGRIGHT
 10
0.0
 20
0.0
 30
0.0
  9
$UCSORGFRONT
 10
0.0
 20
0.0
 30
0.0
  9
$UCSORGBACK
 10
0.0
 20
0.0
 30
0.0
  9
$PUCSBASE
  2

  9
$PUCSNAME
  2

  9
$PUCSORG
 10
0.0
 20
0.0
 30
0.0
  9
$PUCSXDIR
 10
1.0
 20
0.0
 30
0.0
  9
$PUCSYDIR
 10
0.0
 20
1.0
 30
0.0
  9
$PUCSORTHOREF
  2

  9
$PUCSORTHOVIEW
 70
     0
  9
$PUCSORGTOP
 10
0.0
 20
0.0
 30
0.0
  9
$PUCSORGBOTTOM
 10
0.0
 20
0.0
 30
0.0
  9
$PUCSORGLEFT
 10
0.0
 20
0.0
 30
0.0
  9
$PUCSORGRIGHT
 10
0.0
 20
0.0
 30
0.0
  9
$PUCSORGFRONT
 10
0.0
 20
0.0
 30
0.0
  9
$PUCSORGBACK
 10
0.0
 20
0.0
 30
0.0
  9
$USERI1
 70
     0
  9
$USERI2
 70
     0
  9
$USERI3
 70
     0
  9
$USERI4
 70
     0
  9
$USERI5
 70
     0
  9
$USERR1
 40
0.0
  9
$USERR2
 40
0.0
  9
$USERR3
 40
0.0
  9
$USERR4
 40
0.0
  9
$USERR5
 40
0.0
  9
$WORLDVIEW
 70
     1
  9
$SHADEDGE
 70
     3
  9
$SHADEDIF
 70
    70
  9
$TILEMODE
 70
     1
  9
$MAXACTVP
 70
    16
  9
$PINSBASE
 10
0.0
 20
0.0
 30
0.0
  9
$PLIMCHECK
 70
     0
  9
$PEXTMIN
 10
0.0
 20
0.0
 30
0.0
  9
$PEXTMAX
 10
420.0
 20
297.0
 30
0.0
  9
$PLIMMIN
 10
0.0
 20
0.0
  9
$PLIMMAX
 10
420.0
 20
297.0
  9
$UNITMODE
 70
     0
  9
$VISRETAIN
 70
     0
  9
$PLINEGEN
 70
     0
  9
$PSLTSCALE
 70
     1
  9
$TREEDEPTH
 70
  3020
  9
$CMLSTYLE
  2
STANDARD
  9
$CMLJUST
 70
     0
  9
$CMLSCALE
 40
1.0
  9
$PROXYGRAPHICS
 70
     1
  9
$MEASUREMENT
 70
     1
  9
$CELWEIGHT
370
    -1
  9
$ENDCAPS
280
     0
  9
$JOINSTYLE
280
     0
  9
$LWDISPLAY
290
     0
  9
$INSUNITS
 70
     0
  9
$HYPERLINKBASE
  1

  9
$STYLESHEET
  1
print.ctb
  9
$XEDIT
290
     1
  9
$CEPSNTYPE
380
     0
  9
$PSTYLEMODE
290
     1
  9
$FINGERPRINTGUID
  2
{137E7082-72B8-11D5-AA3E-50A453C10000}
  9
$VERSIONGUID
  2
{4DF998EF-6791-4020-BB2A-4B3FDE146695}
  9
$EXTNAMES
290
     1
  9
$PSVPSCALE
 40
0.0
  9
$OLESTARTUP
290
     0
  0
ENDSEC
  0
SECTION
  2
CLASSES
  0
CLASS
  1
ACDBDICTIONARYWDFLT
  2
AcDbDictionaryWithDefault
  3
ObjectDBX Classes
 90
        0
280
     0
281
     0
  0
CLASS
  1
ACDBPLACEHOLDER
  2
AcDbPlaceHolder
  3
ObjectDBX Classes
 90
        0
280
     0
281
     0
  0
CLASS
  1
LAYOUT
  2
AcDbLayout
  3
ObjectDBX Classes
 90
        0
280
     0
281
     0
  0
CLASS
  1
DICTIONARYVAR
  2
AcDbDictionaryVar
  3
ObjectDBX Classes
 90
        0
280
     0
281
     0
  0
ENDSEC
  0
SECTION
  2
TABLES
  0
TABLE
  2
VPORT
  5
8
330
0
100
AcDbSymbolTable
 70
     5
  0
VPORT
  5
2F36
330
8
100
AcDbSymbolTableRecord
100
AcDbViewportTableRecord
  2
*Active
 70
     0
 10
0.0
 20
0.0
 11
1.0
 21
1.0
 12
227.1380229757256
 22
132.2285814533868
 13
0.0
 23
0.0
 14
5.0
 24
5.0
 15
0.0
 25
0.0
 16
0.0
 26
0.0
 36
1.0
 17
0.0
 27
0.0
 37
0.0
 40
263.8463234321319
 41
2.179456906729634
 42
50.0
 43
0.0
 44
0.0
 50
0.0
 51
0.0
 71
     0
 72
   100
 73
     1
 74
     0
 75
     0
 76
     0
 77
     0
 78
     0
281
     0
 65
     1
110
0.0
120
0.0
130
0.0
111
1.0
121
0.0
131
0.0
112
0.0
122
1.0
132
0.0
 79
     0
146
0.0
  0
ENDTAB
  0
TABLE
  2
LTYPE
  5
5
330
0
100
AcDbSymbolTable
 70
     2
  0
LTYPE
  5
14
330
5
100
AcDbSymbolTableRecord
100
AcDbLinetypeTableRecord
  2
BYBLOCK
 70
     0
  3

 72
    65
 73
     0
 40
0.0
  0
LTYPE
  5
15
330
5
100
AcDbSymbolTableRecord
100
AcDbLinetypeTableRecord
  2
BYLAYER
 70
     0
  3

 72
    65
 73
     0
 40
0.0
  0
LTYPE
  5
16
330
5
100
AcDbSymbolTableRecord
100
AcDbLinetypeTableRecord
  2
CONTINUOUS
 70
     0
  3
Solid line
 72
    65
 73
     0
 40
0.0
  0
LTYPE
  5
1E26
330
5
100
AcDbSymbolTableRecord
100
AcDbLinetypeTableRecord
  2
CENTER
 70
     0
  3
Center ____ _ ____ _ ____ _ ____ _ ____ _ ____
 72
    65
 73
     4
 40
50.8
 49
31.75
 74
     0
 49
-6.349999999999999
 74
     0
 49
6.349999999999999
 74
     0
 49
-6.349999999999999
 74
     0
  0
ENDTAB
  0
TABLE
  2
LAYER
  5
2
330
0
100
AcDbSymbolTable
 70
     8
  0
LAYER
  5
F
330
2
100
AcDbSymbolTableRecord
100
AcDbLayerTableRecord
  2
0
 70
     0
 62
     7
  6
CONTINUOUS
370
    -3
390
623
  0
LAYER
  5
62
330
2
100
AcDbSymbolTableRecord
100
AcDbLayerTableRecord
  2
VIEWPORT
 70
     0
 62
     7
  6
CONTINUOUS
370
    -3
390
623
  0
LAYER
  5
6B
330
2
100
AcDbSymbolTableRecord
100
AcDbLayerTableRecord
  2
ZUWAKU
 70
     0
 62
     7
  6
CONTINUOUS
370
    -3
390
623
  0
LAYER
  5
1F2
330
2
100
AcDbSymbolTableRecord
100
AcDbLayerTableRecord
  2
SEIHIN
 70
     0
 62
     3
  6
CONTINUOUS
370
    -3
390
623
  0
LAYER
  5
1F3
330
2
100
AcDbSymbolTableRecord
100
AcDbLayerTableRecord
  2
SUNPOU
 70
     0
 62
     4
  6
CONTINUOUS
370
    -3
390
623
  0
LAYER
  5
1F5
330
2
100
AcDbSymbolTableRecord
100
AcDbLayerTableRecord
  2
DEFPOINTS
 70
     0
 62
     7
  6
CONTINUOUS
290
     0
370
    -3
390
623
  0
LAYER
  5
A03
330
2
100
AcDbSymbolTableRecord
100
AcDbLayerTableRecord
  2
moji
 70
     0
 62
     2
  6
CONTINUOUS
370
    -3
390
623
  0
LAYER
  5
1E27
330
2
100
AcDbSymbolTableRecord
100
AcDbLayerTableRecord
  2
cline
 70
     0
 62
     1
  6
CENTER
370
    -3
390
623
  0
ENDTAB
  0
TABLE
  2
STYLE
  5
3
330
0
100
AcDbSymbolTable
 70
     2
  0
STYLE
  5
10
330
3
100
AcDbSymbolTableRecord
100
AcDbTextStyleTableRecord
  2
STANDARD
 70
     0
 40
0.0
 41
1.0
 50
0.0
 71
     0
 42
2.5
  3
TXT
  4
bigfont.shx
  0
STYLE
  5
A04
330
3
100
AcDbSymbolTableRecord
100
AcDbTextStyleTableRecord
  2
ｽﾀｲﾙ1
 70
     0
 40
0.0
 41
1.0
 50
0.0
 71
     0
 42
2.5
  3
MS PGothic.ttf
  4

1001
ACAD
1000
MS PGothic
1071
    32818
  0
ENDTAB
  0
TABLE
  2
VIEW
  5
6
330
0
100
AcDbSymbolTable
 70
     0
  0
ENDTAB
  0
TABLE
  2
UCS
  5
7
330
0
100
AcDbSymbolTable
 70
     0
  0
ENDTAB
  0
TABLE
  2
APPID
  5
9
330
0
100
AcDbSymbolTable
 70
     1
  0
APPID
  5
11
330
9
100
AcDbSymbolTableRecord
100
AcDbRegAppTableRecord
  2
ACAD
 70
     0
  0
ENDTAB
  0
TABLE
  2
DIMSTYLE
  5
A
330
0
100
AcDbSymbolTable
 70
     1
100
AcDbDimStyleTable
 71
     0
  0
DIMSTYLE
105
1D
102
{ACAD_REACTORS
330
2384
330
2BE0
330
20D2
330
2BED
330
20E9
330
2343
330
2344
330
2340
330
23A1
330
2E4C
102
}
330
A
100
AcDbSymbolTableRecord
100
AcDbDimStyleTableRecord
  2
STANDARD
 70
     0
 41
3.0
 42
1.5
 43
7.0
 44
1.5
 73
     0
 74
     0
 77
     1
140
3.0
141
3.0
147
1.5
172
     1
176
   256
177
   256
178
   256
271
     0
272
     0
340
10
341
B2
342
B2
371
    -1
372
    -1
  0
ENDTAB
  0
TABLE
  2
BLOCK_RECORD
  5
1
330
0
100
AcDbSymbolTable
 70
    13
  0
BLOCK_RECORD
  5
1A
102
{ACAD_XDICTIONARY
360
651
102
}
330
1
100
AcDbSymbolTableRecord
100
AcDbBlockTableRecord
  2
*MODEL_SPACE
340
626
  0
BLOCK_RECORD
  5
17
102
{ACAD_XDICTIONARY
360
64F
102
}
330
1
100
AcDbSymbolTableRecord
100
AcDbBlockTableRecord
  2
*PAPER_SPACE
340
627
  0
BLOCK_RECORD
  5
B2
330
1
100
AcDbSymbolTableRecord
100
AcDbBlockTableRecord
  2
_OPEN
340
0
102
{BLKREFS
331
2E6B
331
2E6C
331
2E91
331
2E92
331
2EAC
331
2EAD
331
2EA3
331
2EA4
331
2EB5
331
2EB6
331
2E86
331
2E87
331
2F0A
331
2F0B
331
2E74
331
2E75
331
2E7D
331
2E7E
331
2E9A
331
2E9B
102
}
  0
BLOCK_RECORD
  5
20D3
330
1
100
AcDbSymbolTableRecord
100
AcDbBlockTableRecord
  2
*D1
340
0
  0
BLOCK_RECORD
  5
20EA
330
1
100
AcDbSymbolTableRecord
100
AcDbBlockTableRecord
  2
*D2
340
0
  0
BLOCK_RECORD
  5
2345
330
1
100
AcDbSymbolTableRecord
100
AcDbBlockTableRecord
  2
*D3
340
0
  0
BLOCK_RECORD
  5
2351
330
1
100
AcDbSymbolTableRecord
100
AcDbBlockTableRecord
  2
*D4
340
0
  0
BLOCK_RECORD
  5
235D
330
1
100
AcDbSymbolTableRecord
100
AcDbBlockTableRecord
  2
*D5
340
0
  0
BLOCK_RECORD
  5
2385
330
1
100
AcDbSymbolTableRecord
100
AcDbBlockTableRecord
  2
*D6
340
0
  0
BLOCK_RECORD
  5
23A2
330
1
100
AcDbSymbolTableRecord
100
AcDbBlockTableRecord
  2
*D7
340
0
  0
BLOCK_RECORD
  5
25E9
330
1
100
AcDbSymbolTableRecord
100
AcDbBlockTableRecord
  2
*X8
340
0
102
{BLKREFS
331
AD2
102
}
  0
BLOCK_RECORD
  5
2BE1
330
1
100
AcDbSymbolTableRecord
100
AcDbBlockTableRecord
  2
*D9
340
0
  0
BLOCK_RECORD
  5
2BEE
330
1
100
AcDbSymbolTableRecord
100
AcDbBlockTableRecord
  2
*D10
340
0
  0
BLOCK_RECORD
  5
2E4D
330
1
100
AcDbSymbolTableRecord
100
AcDbBlockTableRecord
  2
*D11
340
0
  0
ENDTAB
  0
ENDSEC
  0
SECTION
  2
BLOCKS
  0
BLOCK
  5
1B
330
1A
100
AcDbEntity
  8
0
100
AcDbBlockBegin
  2
*MODEL_SPACE
 70
     0
 10
0.0
 20
0.0
 30
0.0
  3
*MODEL_SPACE
  1

  0
ENDBLK
  5
1C
330
1A
100
AcDbEntity
  8
0
100
AcDbBlockEnd
  0
BLOCK
  5
18
330
17
100
AcDbEntity
 67
     1
  8
0
100
AcDbBlockBegin
  2
*PAPER_SPACE
 70
     0
 10
0.0
 20
0.0
 30
0.0
  3
*PAPER_SPACE
  1

  0
ENDBLK
  5
19
330
17
100
AcDbEntity
 67
     1
  8
0
100
AcDbBlockEnd
  0
BLOCK
  5
B3
330
B2
100
AcDbEntity
  8
0
100
AcDbBlockBegin
  2
_OPEN
 70
     0
 10
0.0
 20
0.0
 30
0.0
  3
_OPEN
  1

  0
LINE
  5
B4
330
B2
100
AcDbEntity
  8
0
  6
ByBlock
 62
     0
100
AcDbLine
 10
-1.0
 20
0.1666666666666666
 30
0.0
 11
0.0
 21
0.0
 31
0.0
  0
LINE
  5
B5
330
B2
100
AcDbEntity
  8
0
  6
ByBlock
 62
     0
100
AcDbLine
 10
0.0
 20
0.0
 30
0.0
 11
-1.0
 21
-0.1666666666666666
 31
0.0
  0
LINE
  5
B6
330
B2
100
AcDbEntity
  8
0
  6
ByBlock
 62
     0
100
AcDbLine
 10
0.0
 20
0.0
 30
0.0
 11
-1.0
 21
0.0
 31
0.0
  0
ENDBLK
  5
B7
330
B2
100
AcDbEntity
  8
0
100
AcDbBlockEnd
  0
BLOCK
  5
20DE
330
20D3
100
AcDbEntity
  8
0
100
AcDbBlockBegin
  2
*D1
 70
     1
 10
0.0
 20
0.0
 30
0.0
  3
*D1
  1

  0
LINE
  5
2E68
330
20D3
100
AcDbEntity
  8
SUNPOU
100
AcDbLine
 10
277.3304259644988
 20
186.9716283746616
 30
0.0
 11
277.3304259644988
 21
159.5610990959488
 31
0.0
  0
LINE
  5
2E69
330
20D3
100
AcDbEntity
  8
SUNPOU
100
AcDbLine
 10
233.6511604510726
 20
187.7029245449446
 30
0.0
 11
233.6511604510726
 21
159.5610990959488
 31
0.0
  0
LINE
  5
2E6A
330
20D3
100
AcDbEntity
  8
SUNPOU
100
AcDbLine
 10
274.3304259644988
 20
161.0610990959488
 30
0.0
 11
236.6511604510726
 21
161.0610990959488
 31
0.0
  0
INSERT
  5
2E6B
330
20D3
100
AcDbEntity
  8
SUNPOU
100
AcDbBlockReference
  2
_OPEN
 10
277.3304259644988
 20
161.0610990959488
 30
0.0
 41
3.0
 42
3.0
 43
3.0
  0
INSERT
  5
2E6C
330
20D3
100
AcDbEntity
  8
SUNPOU
100
AcDbBlockReference
  2
_OPEN
 10
233.6511604510726
 20
161.0610990959488
 30
0.0
 41
3.0
 42
3.0
 43
3.0
 50
180.0
  0
MTEXT
  5
2E6D
330
20D3
100
AcDbEntity
  8
SUNPOU
100
AcDbMText
 10
253.914922912382
 20
164.0610990959488
 30
0.0
 40
3.0
 41
0.0
 71
     5
 72
     5
  1
\A1;44
 73
     1
 44
1.0
1001
ACAD
1000
MTEXTBEGIN
1070
    73
1070
     1
1070
    44
1040
1.0
1070
    74
1070
     0
1000
MTEXTEND
  0
POINT
  5
2E6E
330
20D3
100
AcDbEntity
  8
DEFPOINTS
 62
     0
100
AcDbPoint
 10
277.3304259644988
 20
188.4716283746616
 30
0.0
  0
POINT
  5
2E6F
330
20D3
100
AcDbEntity
  8
DEFPOINTS
 62
     0
100
AcDbPoint
 10
233.6511604510726
 20
189.2029245449446
 30
0.0
  0
POINT
  5
2E70
330
20D3
100
AcDbEntity
  8
DEFPOINTS
 62
     0
100
AcDbPoint
 10
233.6511604510726
 20
161.0610990959488
 30
0.0
  0
ENDBLK
  5
20DF
330
20D3
100
AcDbEntity
  8
0
100
AcDbBlockEnd
  0
BLOCK
  5
20F6
330
20EA
100
AcDbEntity
  8
0
100
AcDbBlockBegin
  2
*D2
 70
     1
 10
0.0
 20
0.0
 30
0.0
  3
*D2
  1

  0
LINE
  5
2E8C
330
20EA
100
AcDbEntity
  8
SUNPOU
100
AcDbLine
 10
278.8304259644988
 20
189.4716283746618
 30
0.0
 11
296.0725557537021
 21
189.4716283746618
 31
0.0
  0
LINE
  5
2E8D
330
20EA
100
AcDbEntity
  8
SUNPOU
100
AcDbLine
 10
278.8304259644988
 20
194.988428374703
 30
0.0
 11
296.0725557537021
 21
194.988428374703
 31
0.0
  0
LINE
  5
2E8E
330
20EA
100
AcDbEntity
  8
SUNPOU
100
AcDbLine
 10
294.5725557537021
 20
186.4716283746617
 30
0.0
 11
294.5725557537021
 21
183.4716283746617
 31
0.0
  0
LINE
  5
2E8F
330
20EA
100
AcDbEntity
  8
SUNPOU
100
AcDbLine
 10
294.5725557537021
 20
197.988428374703
 30
0.0
 11
294.5725557537021
 21
200.988428374703
 31
0.0
  0
LINE
  5
2E90
330
20EA
100
AcDbEntity
  8
SUNPOU
100
AcDbLine
 10
294.5725557537021
 20
189.4716283746618
 30
0.0
 11
294.5725557537021
 21
194.988428374703
 31
0.0
  0
INSERT
  5
2E91
330
20EA
100
AcDbEntity
  8
SUNPOU
100
AcDbBlockReference
  2
_OPEN
 10
294.5725557537021
 20
189.4716283746618
 30
0.0
 41
3.0
 42
3.0
 43
3.0
 50
90.0
  0
INSERT
  5
2E92
330
20EA
100
AcDbEntity
  8
SUNPOU
100
AcDbBlockReference
  2
_OPEN
 10
294.5725557537021
 20
194.988428374703
 30
0.0
 41
3.0
 42
3.0
 43
3.0
 50
270.0
  0
MTEXT
  5
2E93
330
20EA
100
AcDbEntity
  8
SUNPOU
100
AcDbMText
 10
291.572555753702
 20
192.2300283746824
 30
0.0
 40
3.0
 41
0.0
 71
     5
 72
     5
  1
\A1;6
 11
0.0000000000000001
 21
1.0
 31
0.0
 73
     1
 44
1.0
1001
ACAD
1000
MTEXTBEGIN
1070
    73
1070
     1
1070
    44
1040
1.0
1070
    74
1070
     0
1000
MTEXTEND
  0
POINT
  5
2E94
330
20EA
100
AcDbEntity
  8
DEFPOINTS
 62
     0
100
AcDbPoint
 10
277.3304259644988
 20
189.4716283746618
 30
0.0
  0
POINT
  5
2E95
330
20EA
100
AcDbEntity
  8
DEFPOINTS
 62
     0
100
AcDbPoint
 10
277.3304259644988
 20
194.988428374703
 30
0.0
  0
POINT
  5
2E96
330
20EA
100
AcDbEntity
  8
DEFPOINTS
 62
     0
100
AcDbPoint
 10
294.5725557537021
 20
194.988428374703
 30
0.0
  0
ENDBLK
  5
20F7
330
20EA
100
AcDbEntity
  8
0
100
AcDbBlockEnd
  0
BLOCK
  5
234F
330
2345
100
AcDbEntity
  8
0
100
AcDbBlockBegin
  2
*D3
 70
     1
 10
0.0
 20
0.0
 30
0.0
  3
*D3
  1

  0
LINE
  5
2EA9
330
2345
100
AcDbEntity
  8
SUNPOU
100
AcDbLine
 10
270.8304259644988
 20
75.58567549946147
 30
0.0
 11
300.1411508307464
 21
75.58567549946146
 31
0.0
  0
LINE
  5
2EAA
330
2345
100
AcDbEntity
  8
SUNPOU
100
AcDbLine
 10
268.8304259644988
 20
50.58567549946872
 30
0.0
 11
300.1411508307464
 21
50.58567549946872
 31
0.0
  0
LINE
  5
2EAB
330
2345
100
AcDbEntity
  8
SUNPOU
100
AcDbLine
 10
298.6411508307464
 20
72.58567549946146
 30
0.0
 11
298.6411508307464
 21
53.58567549946871
 31
0.0
  0
INSERT
  5
2EAC
330
2345
100
AcDbEntity
  8
SUNPOU
100
AcDbBlockReference
  2
_OPEN
 10
298.6411508307464
 20
75.58567549946146
 30
0.0
 41
3.0
 42
3.0
 43
3.0
 50
90.0
  0
INSERT
  5
2EAD
330
2345
100
AcDbEntity
  8
SUNPOU
100
AcDbBlockReference
  2
_OPEN
 10
298.6411508307464
 20
50.58567549946872
 30
0.0
 41
3.0
 42
3.0
 43
3.0
 50
270.0
  0
MTEXT
  5
2EAE
330
2345
100
AcDbEntity
  8
SUNPOU
100
AcDbMText
 10
295.6411508307464
 20
63.08567549946513
 30
0.0
 40
3.0
 41
0.0
 71
     5
 72
     5
  1
\A1;25
 11
0.0000000000000001
 21
1.0
 31
0.0
 73
     1
 44
1.0
1001
ACAD
1000
MTEXTBEGIN
1070
    73
1070
     1
1070
    44
1040
1.0
1070
    74
1070
     0
1000
MTEXTEND
  0
POINT
  5
2EAF
330
2345
100
AcDbEntity
  8
DEFPOINTS
 62
     0
100
AcDbPoint
 10
269.3304259644988
 20
75.58567549946147
 30
0.0
  0
POINT
  5
2EB0
330
2345
100
AcDbEntity
  8
DEFPOINTS
 62
     0
100
AcDbPoint
 10
267.3304259644988
 20
50.58567549946872
 30
0.0
  0
POINT
  5
2EB1
330
2345
100
AcDbEntity
  8
DEFPOINTS
 62
     0
100
AcDbPoint
 10
298.6411508307464
 20
50.58567549946872
 30
0.0
  0
ENDBLK
  5
2350
330
2345
100
AcDbEntity
  8
0
100
AcDbBlockEnd
  0
BLOCK
  5
235B
330
2351
100
AcDbEntity
  8
0
100
AcDbBlockBegin
  2
*D4
 70
     1
 10
0.0
 20
0.0
 30
0.0
  3
*D4
  1

  0
LINE
  5
2EA0
330
2351
100
AcDbEntity
  8
SUNPOU
100
AcDbLine
 10
277.3304259644988
 20
64.58567549943336
 30
0.0
 11
277.3304259644988
 21
93.77171816042894
 31
0.0
  0
LINE
  5
2EA1
330
2351
100
AcDbEntity
  8
SUNPOU
100
AcDbLine
 10
267.3304259644988
 20
84.085675499431
 30
0.0
 11
267.3304259644988
 21
93.77171816042894
 31
0.0
  0
LINE
  5
2EA2
330
2351
100
AcDbEntity
  8
SUNPOU
100
AcDbLine
 10
274.3304259644988
 20
92.27171816042895
 30
0.0
 11
270.3304259644988
 21
92.27171816042895
 31
0.0
  0
INSERT
  5
2EA3
330
2351
100
AcDbEntity
  8
SUNPOU
100
AcDbBlockReference
  2
_OPEN
 10
277.3304259644988
 20
92.27171816042895
 30
0.0
 41
3.0
 42
3.0
 43
3.0
  0
INSERT
  5
2EA4
330
2351
100
AcDbEntity
  8
SUNPOU
100
AcDbBlockReference
  2
_OPEN
 10
267.3304259644988
 20
92.27171816042895
 30
0.0
 41
3.0
 42
3.0
 43
3.0
 50
180.0
  0
MTEXT
  5
2EA5
330
2351
100
AcDbEntity
  8
SUNPOU
100
AcDbMText
 10
272.3304259644988
 20
95.27171816042894
 30
0.0
 40
3.0
 41
0.0
 71
     5
 72
     5
  1
\A1;10
 73
     1
 44
1.0
1001
ACAD
1000
MTEXTBEGIN
1070
    73
1070
     1
1070
    44
1040
1.0
1070
    74
1070
     0
1000
MTEXTEND
  0
POINT
  5
2EA6
330
2351
100
AcDbEntity
  8
DEFPOINTS
 62
     0
100
AcDbPoint
 10
277.3304259644988
 20
63.08567549943337
 30
0.0
  0
POINT
  5
2EA7
330
2351
100
AcDbEntity
  8
DEFPOINTS
 62
     0
100
AcDbPoint
 10
267.3304259644988
 20
82.585675499431
 30
0.0
  0
POINT
  5
2EA8
330
2351
100
AcDbEntity
  8
DEFPOINTS
 62
     0
100
AcDbPoint
 10
267.3304259644988
 20
92.27171816042895
 30
0.0
  0
ENDBLK
  5
235C
330
2351
100
AcDbEntity
  8
0
100
AcDbBlockEnd
  0
BLOCK
  5
2367
330
235D
100
AcDbEntity
  8
0
100
AcDbBlockBegin
  2
*D5
 70
     1
 10
0.0
 20
0.0
 30
0.0
  3
*D5
  1

  0
LINE
  5
2EB2
330
235D
100
AcDbEntity
  8
SUNPOU
100
AcDbLine
 10
267.3304259644988
 20
84.085675499431
 30
0.0
 11
267.3304259644988
 21
93.77171816042894
 31
0.0
  0
LINE
  5
2EB3
330
235D
100
AcDbEntity
  8
SUNPOU
100
AcDbLine
 10
247.3304259644988
 20
84.08567549943782
 30
0.0
 11
247.3304259644988
 21
93.77171816042894
 31
0.0
  0
LINE
  5
2EB4
330
235D
100
AcDbEntity
  8
SUNPOU
100
AcDbLine
 10
264.3304259644988
 20
92.27171816042895
 30
0.0
 11
250.3304259644988
 21
92.27171816042895
 31
0.0
  0
INSERT
  5
2EB5
330
235D
100
AcDbEntity
  8
SUNPOU
100
AcDbBlockReference
  2
_OPEN
 10
267.3304259644988
 20
92.27171816042895
 30
0.0
 41
3.0
 42
3.0
 43
3.0
  0
INSERT
  5
2EB6
330
235D
100
AcDbEntity
  8
SUNPOU
100
AcDbBlockReference
  2
_OPEN
 10
247.3304259644988
 20
92.27171816042895
 30
0.0
 41
3.0
 42
3.0
 43
3.0
 50
180.0
  0
MTEXT
  5
2EB7
330
235D
100
AcDbEntity
  8
SUNPOU
100
AcDbMText
 10
257.3304259644988
 20
95.27171816042894
 30
0.0
 40
3.0
 41
0.0
 71
     5
 72
     5
  1
\A1;20
 73
     1
 44
1.0
1001
ACAD
1000
MTEXTBEGIN
1070
    73
1070
     1
1070
    44
1040
1.0
1070
    74
1070
     0
1000
MTEXTEND
  0
POINT
  5
2EB8
330
235D
100
AcDbEntity
  8
DEFPOINTS
 62
     0
100
AcDbPoint
 10
267.3304259644988
 20
82.585675499431
 30
0.0
  0
POINT
  5
2EB9
330
235D
100
AcDbEntity
  8
DEFPOINTS
 62
     0
100
AcDbPoint
 10
247.3304259644988
 20
82.58567549943782
 30
0.0
  0
POINT
  5
2EBA
330
235D
100
AcDbEntity
  8
DEFPOINTS
 62
     0
100
AcDbPoint
 10
247.3304259644988
 20
92.27171816042895
 30
0.0
  0
ENDBLK
  5
2368
330
235D
100
AcDbEntity
  8
0
100
AcDbBlockEnd
  0
BLOCK
  5
238E
330
2385
100
AcDbEntity
  8
0
100
AcDbBlockBegin
  2
*D6
 70
     1
 10
0.0
 20
0.0
 30
0.0
  3
*D6
  1

  0
LINE
  5
2E83
330
2385
100
AcDbEntity
  8
SUNPOU
100
AcDbLine
 10
222.7397968059709
 20
220.4074926363372
 30
0.0
 11
220.1682949038646
 21
218.8623784116071
 31
0.0
  0
LINE
  5
2E84
330
2385
100
AcDbEntity
  8
SUNPOU
100
AcDbLine
 10
228.739967910886
 20
224.0127591607077
 30
0.0
 11
242.883228372471
 21
232.5108873967234
 31
0.0
  0
LINE
  5
2E85
330
2385
100
AcDbEntity
  8
SUNPOU
100
AcDbLine
 10
225.3112987080773
 20
221.9526068610674
 30
0.0
 11
226.1684660087797
 21
222.4676449359776
 31
0.0
  0
INSERT
  5
2E86
330
2385
100
AcDbEntity
  8
SUNPOU
100
AcDbBlockReference
  2
_OPEN
 10
225.3112987080773
 20
221.9526068610674
 30
0.0
 41
3.0
 42
3.0
 43
3.0
 50
30.99999999999917
  0
INSERT
  5
2E87
330
2385
100
AcDbEntity
  8
SUNPOU
100
AcDbBlockReference
  2
_OPEN
 10
226.1684660087797
 20
222.4676449359776
 30
0.0
 41
3.0
 42
3.0
 43
3.0
 50
210.9999999999992
  0
MTEXT
  5
2E88
330
2385
100
AcDbEntity
  8
SUNPOU
100
AcDbMText
 10
235.5522348680016
 20
231.6058822931869
 30
0.0
 40
3.0
 41
0.0
 71
     5
 72
     5
  1
\A1;t=1.0
 11
0.8571673007021193
 21
0.5150380749100425
 31
0.0
 73
     1
 44
1.0
1001
ACAD
1000
MTEXTBEGIN
1070
    73
1070
     1
1070
    44
1040
1.0
1070
    74
1070
     0
1000
MTEXTEND
  0
POINT
  5
2E89
330
2385
100
AcDbEntity
  8
DEFPOINTS
 62
     0
100
AcDbPoint
 10
225.3112987080773
 20
221.9526068610674
 30
0.0
  0
POINT
  5
2E8A
330
2385
100
AcDbEntity
  8
DEFPOINTS
 62
     0
100
AcDbPoint
 10
226.1684660087797
 20
222.4676449359776
 30
0.0
  0
POINT
  5
2E8B
330
2385
100
AcDbEntity
  8
DEFPOINTS
 62
     0
100
AcDbPoint
 10
226.1684660087797
 20
222.4676449359776
 30
0.0
  0
ENDBLK
  5
238F
330
2385
100
AcDbEntity
  8
0
100
AcDbBlockEnd
  0
BLOCK
  5
23A8
330
23A2
100
AcDbEntity
  8
0
100
AcDbBlockBegin
  2
*D7
 70
     1
 10
0.0
 20
0.0
 30
0.0
  3
*D7
  1

  0
LINE
  5
2F08
330
23A2
100
AcDbEntity
  8
SUNPOU
100
AcDbLine
 10
129.9085781399325
 20
164.6288691235779
 30
0.0
 11
222.7397968059712
 21
220.4074926363373
 31
0.0
  0
MTEXT
  5
2F09
330
23A2
100
AcDbEntity
  8
SUNPOU
100
AcDbMText
 10
200.8767358382849
 20
211.1678981727704
 30
0.0
 40
3.0
 41
0.0
 71
     5
 72
     5
  1
\A1;\U+2205114
 11
0.85716730070211
 21
0.5150380749100581
 31
0.0
 73
     1
 44
1.0
1001
ACAD
1000
MTEXTBEGIN
1070
    73
1070
     1
1070
    44
1040
1.0
1070
    74
1070
     0
1000
MTEXTEND
  0
INSERT
  5
2F0A
330
23A2
100
AcDbEntity
  8
SUNPOU
100
AcDbBlockReference
  2
_OPEN
 10
127.3370762378262
 20
163.0837548988478
 30
0.0
 41
3.0
 42
3.0
 43
3.0
 50
211.0000000000002
  0
INSERT
  5
2F0B
330
23A2
100
AcDbEntity
  8
SUNPOU
100
AcDbBlockReference
  2
_OPEN
 10
225.3112987080775
 20
221.9526068610675
 30
0.0
 41
3.0
 42
3.0
 43
3.0
 50
31.00000000000026
  0
POINT
  5
2F0C
330
23A2
100
AcDbEntity
  8
DEFPOINTS
 62
     0
100
AcDbPoint
 10
225.3112987080775
 20
221.9526068610675
 30
0.0
  0
POINT
  5
2F0D
330
23A2
100
AcDbEntity
  8
DEFPOINTS
 62
     0
100
AcDbPoint
 10
127.3370762378262
 20
163.0837548988478
 30
0.0
  0
ENDBLK
  5
23A9
330
23A2
100
AcDbEntity
  8
0
100
AcDbBlockEnd
  0
BLOCK
  5
277D
330
25E9
100
AcDbEntity
  8
0
100
AcDbBlockBegin
  2
*X8
 70
     1
 10
0.0
 20
0.0
 30
0.0
  3
*X8
  1

  0
LINE
  5
25EA
330
25E9
100
AcDbEntity
  8
0
 62
     0
100
AcDbLine
 10
34.52110559449165
 20
11.3020844964989
 30
0.0
 11
34.19819012963419
 21
11.62499996135639
 31
0.0
  0
LINE
  5
25EB
330
25E9
100
AcDbEntity
  8
0
 62
     0
100
AcDbLine
 10
34.52110559449165
 20
10.85307169044546
 30
0.0
 11
33.74917732358071
 21
11.62499996135639
 31
0.0
  0
LINE
  5
25EC
330
25E9
100
AcDbEntity
  8
0
 62
     0
100
AcDbLine
 10
34.52110559449162
 20
10.40405888439198
 30
0.0
 11
33.31053862148414
 21
11.61462585739946
 31
0.0
  0
LINE
  5
25ED
330
25E9
100
AcDbEntity
  8
0
 62
     0
100
AcDbLine
 10
34.52110559449165
 20
9.955046078338568
 30
0.0
 11
33.12110559449161
 21
11.35504607833857
 31
0.0
  0
LINE
  5
25EE
330
25E9
100
AcDbEntity
  8
0
 62
     0
100
AcDbLine
 10
34.52110559449165
 20
9.506033272285094
 30
0.0
 11
33.12110559449161
 21
10.90603327228513
 31
0.0
  0
LINE
  5
25EF
330
25E9
100
AcDbEntity
  8
0
 62
     0
100
AcDbLine
 10
34.52110559449162
 20
9.05702046623162
 30
0.0
 11
33.12110559449158
 21
10.45702046623165
 31
0.0
  0
LINE
  5
25F0
330
25E9
100
AcDbEntity
  8
0
 62
     0
100
AcDbLine
 10
32.0711055944916
 20
11.05800766017822
 30
0.0
 11
31.50411329331345
 21
11.62499996135639
 31
0.0
  0
LINE
  5
25F1
330
25E9
100
AcDbEntity
  8
0
 62
     0
100
AcDbLine
 10
34.52110559449165
 20
8.608007660178202
 30
0.0
 11
33.12110559449161
 21
10.00800766017823
 31
0.0
  0
LINE
  5
25F2
330
25E9
100
AcDbEntity
  8
0
 62
     0
100
AcDbLine
 10
32.0711055944916
 20
10.60899485412477
 30
0.0
 11
31.05510048725998
 21
11.62499996135636
 31
0.0
  0
LINE
  5
25F3
330
25E9
100
AcDbEntity
  8
0
 62
     0
100
AcDbLine
 10
34.52110559449162
 20
8.158994854124728
 30
0.0
 11
33.12110559449161
 21
9.558994854124762
 31
0.0
  0
LINE
  5
25F4
330
25E9
100
AcDbEntity
  8
0
 62
     0
100
AcDbLine
 10
32.0711055944916
 20
10.1599820480713
 30
0.0
 11
30.71835011192306
 21
11.51273753063984
 31
0.0
  0
LINE
  5
25F5
330
25E9
100
AcDbEntity
  8
0
 62
     0
100
AcDbLine
 10
34.52110559449162
 20
7.709982048071282
 30
0.0
 11
33.12110559449158
 21
9.109982048071287
 31
0.0
  0
LINE
  5
25F6
330
25E9
100
AcDbEntity
  8
0
 62
     0
100
AcDbLine
 10
32.07110559449166
 20
9.710969242017796
 30
0.0
 11
30.67110559449157
 21
11.11096924201786
 31
0.0
  0
LINE
  5
25F7
330
25E9
100
AcDbEntity
  8
0
 62
     0
100
AcDbLine
 10
34.52110559449165
 20
7.260969242017807
 30
0.0
 11
33.12110559449161
 21
8.660969242017841
 31
0.0
  0
LINE
  5
25F8
330
25E9
100
AcDbEntity
  8
0
 62
     0
100
AcDbLine
 10
32.07110559449163
 20
9.26195643596435
 30
0.0
 11
30.67110559449157
 21
10.66195643596444
 31
0.0
  0
LINE
  5
25F9
330
25E9
100
AcDbEntity
  8
0
 62
     0
100
AcDbLine
 10
34.52110559449162
 20
6.811956435964361
 30
0.0
 11
33.12110559449158
 21
8.211956435964395
 31
0.0
  0
LINE
  5
25FA
330
25E9
100
AcDbEntity
  8
0
 62
     0
100
AcDbLine
 10
32.07110559449163
 20
8.812943629910904
 30
0.0
 11
30.67110559449157
 21
10.21294362991096
 31
0.0
  0
LINE
  5
25FB
330
25E9
100
AcDbEntity
  8
0
 62
     0
100
AcDbLine
 10
34.52110559449162
 20
6.362943629910915
 30
0.0
 11
33.12110559449158
 21
7.762943629910949
 31
0.0
  0
LINE
  5
25FC
330
25E9
100
AcDbEntity
  8
0
 62
     0
100
AcDbLine
 10
32.0711055944916
 20
8.36393082385743
 30
0.0
 11
30.67110559449154
 21
9.763930823857492
 31
0.0
  0
LINE
  5
25FD
330
25E9
100
AcDbEntity
  8
0
 62
     0
100
AcDbLine
 10
34.52110559449159
 20
5.913930823857441
 30
0.0
 11
33.12110559449158
 21
7.313930823857475
 31
0.0
  0
LINE
  5
25FE
330
25E9
100
AcDbEntity
  8
0
 62
     0
100
AcDbLine
 10
32.07110559449163
 20
7.914918017804012
 30
0.0
 11
30.67110559449157
 21
9.314918017804075
 31
0.0
  0
LINE
  5
25FF
330
25E9
100
AcDbEntity
  8
0
 62
     0
100
AcDbLine
 10
28.92110559449159
 20
11.06491801780404
 30
0.0
 11
28.36102365093927
 21
11.62499996135636
 31
0.0
  0
LINE
  5
2600
330
25E9
100
AcDbEntity
  8
0
 62
     0
100
AcDbLine
 10
34.52110559449162
 20
5.464918017804023
 30
0.0
 11
33.12110559449158
 21
6.864918017804029
 31
0.0
  0
LINE
  5
2601
330
25E9
100
AcDbEntity
  8
0
 62
     0
100
AcDbLine
 10
32.07110559449163
 20
7.465905211750538
 30
0.0
 11
30.67110559449154
 21
8.8659052117506
 31
0.0
  0
LINE
  5
2602
330
25E9
100
AcDbEntity
  8
0
 62
     0
100
AcDbLine
 10
28.92110559449156
 20
10.61590521175057
 30
0.0
 11
27.9120108448858
 21
11.62499996135636
 31
0.0
  0
LINE
  5
2603
330
25E9
100
AcDbEntity
  8
0
 62
     0
100
AcDbLine
 10
34.52110559449162
 20
5.015905211750549
 30
0.0
 11
33.12110559449158
 21
6.415905211750583
 31
0.0
  0
LINE
  5
2604
330
25E9
100
AcDbEntity
  8
0
 62
     0
100
AcDbLine
 10
32.0711055944916
 20
7.016892405697092
 30
0.0
 11
30.67110559449157
 21
8.416892405697097
 31
0.0
  0
LINE
  5
2605
330
25E9
100
AcDbEntity
  8
0
 62
     0
100
AcDbLine
 10
28.92110559449156
 20
10.16689240569712
 30
0.0
 11
27.57122423282956
 21
11.51677376735912
 31
0.0
  0
LINE
  5
2606
330
25E9
100
AcDbEntity
  8
0
 62
     0
100
AcDbLine
 10
34.52110559449159
 20
4.566892405697103
 30
0.0
 11
33.12110559449155
 21
5.966892405697109
 31
0.0
  0
LINE
  5
2607
330
25E9
100
AcDbEntity
  8
0
 62
     0
100
AcDbLine
 10
32.07110559449163
 20
6.567879599643617
 30
0.0
 11
30.67110559449159
 21
7.967879599643651
 31
0.0
  0
LINE
  5
2608
330
25E9
100
AcDbEntity
  8
0
 62
     0
100
AcDbLine
 10
28.92110559449159
 20
9.717879599643651
 30
0.0
 11
27.52110559449159
 21
11.11787959964366
 31
0.0
  0
LINE
  5
2609
330
25E9
100
AcDbEntity
  8
0
 62
     0
100
AcDbLine
 10
34.52110559449162
 20
4.117879599643629
 30
0.0
 11
33.12110559449158
 21
5.517879599643663
 31
0.0
  0
LINE
  5
260A
330
25E9
100
AcDbEntity
  8
0
 62
     0
100
AcDbLine
 10
32.0711055944916
 20
6.118866793590171
 30
0.0
 11
30.67110559449159
 21
7.518866793590206
 31
0.0
  0
LINE
  5
260B
330
25E9
100
AcDbEntity
  8
0
 62
     0
100
AcDbLine
 10
28.92110559449162
 20
9.268866793590177
 30
0.0
 11
27.52110559449162
 21
10.66886679359018
 31
0.0
  0
LINE
  5
260C
330
25E9
100
AcDbEntity
  8
0
 62
     0
100
AcDbLine
 10
34.48512291704671
 20
3.704849471035089
 30
0.0
 11
33.12110559449158
 21
5.068866793590217
 31
0.0
  0
LINE
  5
260D
330
25E9
100
AcDbEntity
  8
0
 62
     0
100
AcDbLine
 10
32.07110559449163
 20
5.669853987536669
 30
0.0
 11
30.67110559449157
 21
7.069853987536731
 31
0.0
  0
LINE
  5
260E
330
25E9
100
AcDbEntity
  8
0
 62
     0
100
AcDbLine
 10
28.92110559449159
 20
8.819853987536731
 30
0.0
 11
27.52110559449162
 21
10.21985398753671
 31
0.0
  0
LINE
  5
260F
330
25E9
100
AcDbEntity
  8
0
 62
     0
100
AcDbLine
 10
34.16595962067197
 20
3.574999961356354
 30
0.0
 11
33.12110559449155
 21
4.619853987536771
 31
0.0
  0
LINE
  5
2610
330
25E9
100
AcDbEntity
  8
0
 62
     0
100
AcDbLine
 10
28.92110559449159
 20
8.370841181483257
 30
0.0
 11
27.52110559449159
 21
9.770841181483234
 31
0.0
  0
LINE
  5
2611
330
25E9
100
AcDbEntity
  8
0
 62
     0
100
AcDbLine
 10
32.07110559449163
 20
5.220841181483223
 30
0.0
 11
30.67110559449157
 21
6.620841181483285
 31
0.0
  0
LINE
  5
2612
330
25E9
100
AcDbEntity
  8
0
 62
     0
100
AcDbLine
 10
26.20860559449159
 20
11.08334118148326
 30
0.0
 11
25.66694681461843
 21
11.62499996135639
 31
0.0
  0
LINE
  5
2613
330
25E9
100
AcDbEntity
  8
0
 62
     0
100
AcDbLine
 10
33.71694681461852
 20
3.574999961356297
 30
0.0
 11
33.12110559449155
 21
4.170841181483297
 31
0.0
  0
LINE
  5
2614
330
25E9
100
AcDbEntity
  8
0
 62
     0
100
AcDbLine
 10
28.92110559449159
 20
7.921828375429811
 30
0.0
 11
27.52110559449162
 21
9.321828375429817
 31
0.0
  0
LINE
  5
2615
330
25E9
100
AcDbEntity
  8
0
 62
     0
100
AcDbLine
 10
26.20860559449159
 20
10.63432837542982
 30
0.0
 11
25.21793400856501
 21
11.62499996135642
 31
0.0
  0
LINE
  5
2616
330
25E9
100
AcDbEntity
  8
0
 62
     0
100
AcDbLine
 10
32.05812644416884
 20
4.784807525752597
 30
0.0
 11
30.67110559449157
 21
6.171828375429839
 31
0.0
  0
LINE
  5
2617
330
25E9
100
AcDbEntity
  8
0
 62
     0
100
AcDbLine
 10
28.92110559449159
 20
7.472815569376365
 30
0.0
 11
27.52110559449162
 21
8.872815569376342
 31
0.0
  0
LINE
  5
2618
330
25E9
100
AcDbEntity
  8
0
 62
     0
100
AcDbLine
 10
26.11081532143467
 20
10.28310584243328
 30
0.0
 11
24.7689212025116
 21
11.62499996135636
 31
0.0
  0
LINE
  5
2619
330
25E9
100
AcDbEntity
  8
0
 62
     0
100
AcDbLine
 10
31.96163379654021
 20
4.432287367327717
 30
0.0
 11
30.67110559449157
 21
5.722815569376393
 31
0.0
  0
LINE
  5
261A
330
25E9
100
AcDbEntity
  8
0
 62
     0
100
AcDbLine
 10
28.92110559449159
 20
7.02380276332289
 30
0.0
 11
27.52110559449159
 21
8.423802763322896
 31
0.0
  0
LINE
  5
261B
330
25E9
100
AcDbEntity
  8
0
 62
     0
100
AcDbLine
 10
25.7199083964581
 20
10.22499996135636
 30
0.0
 11
24.31990839645809
 21
11.62499996135639
 31
0.0
  0
LINE
  5
261C
330
25E9
100
AcDbEntity
  8
0
 62
     0
100
AcDbLine
 10
31.79911785857843
 20
4.145790499236028
 30
0.0
 11
30.63534772491181
 21
5.309560632902673
 31
0.0
  0
LINE
  5
261D
330
25E9
100
AcDbEntity
  8
0
 62
     0
100
AcDbLine
 10
28.92110559449159
 20
6.574789957269473
 30
0.0
 11
27.52110559449162
 21
7.97478995726945
 31
0.0
  0
LINE
  5
261E
330
25E9
100
AcDbEntity
  8
0
 62
     0
100
AcDbLine
 10
25.27089559040468
 20
10.22499996135639
 30
0.0
 11
23.90211222581598
 21
11.59378332594508
 31
0.0
  0
LINE
  5
261F
330
25E9
100
AcDbEntity
  8
0
 62
     0
100
AcDbLine
 10
31.58309695991591
 20
3.912798591845131
 30
0.0
 11
30.43455490567806
 21
5.061340646082982
 31
0.0
  0
LINE
  5
2620
330
25E9
100
AcDbEntity
  8
0
 62
     0
100
AcDbLine
 10
28.92110559449159
 20
6.125777151215999
 30
0.0
 11
27.52110559449159
 21
7.525777151215976
 31
0.0
  0
LINE
  5
2621
330
25E9
100
AcDbEntity
  8
0
 62
     0
100
AcDbLine
 10
24.82188278435121
 20
10.22499996135639
 30
0.0
 11
23.56979201354929
 21
11.47709073215827
 31
0.0
  0
LINE
  5
2622
330
25E9
100
AcDbEntity
  8
0
 62
     0
100
AcDbLine
 10
31.3150157874529
 20
3.731866958254698
 30
0.0
 11
30.0718827843512
 21
4.97499996135636
 31
0.0
  0
LINE
  5
2623
330
25E9
100
AcDbEntity
  8
0
 62
     0
100
AcDbLine
 10
28.92110559449156
 20
5.676764345162524
 30
0.0
 11
27.52110559449162
 21
7.076764345162473
 31
0.0
  0
LINE
  5
2624
330
25E9
100
AcDbEntity
  8
0
 62
     0
100
AcDbLine
 10
24.3837648923068
 20
10.21410504734729
 30
0.0
 11
23.2984915449442
 21
11.29937839470989
 31
0.0
  0
LINE
  5
2625
330
25E9
100
AcDbEntity
  8
0
 62
     0
100
AcDbLine
 10
30.98680950749724
 20
3.611060432156875
 30
0.0
 11
29.62286997829776
 21
4.97499996135636
 31
0.0
  0
LINE
  5
2626
330
25E9
100
AcDbEntity
  8
0
 62
     0
100
AcDbLine
 10
24.19610559449163
 20
9.952751539108987
 30
0.0
 11
23.07943551542192
 21
11.06942161817869
 31
0.0
  0
LINE
  5
2627
330
25E9
100
AcDbEntity
  8
0
 62
     0
100
AcDbLine
 10
30.57385717224432
 20
3.574999961356326
 30
0.0
 11
27.52110559449162
 21
6.627751539109027
 31
0.0
  0
LINE
  5
2628
330
25E9
100
AcDbEntity
  8
0
 62
     0
100
AcDbLine
 10
24.19610559449166
 20
9.50373873305557
 30
0.0
 11
22.91355005924541
 21
10.78629426830181
 31
0.0
  0
LINE
  5
2629
330
25E9
100
AcDbEntity
  8
0
 62
     0
100
AcDbLine
 10
30.12484436619087
 20
3.574999961356326
 30
0.0
 11
27.52110559449164
 21
6.178738733055581
 31
0.0
  0
LINE
  5
262A
330
25E9
100
AcDbEntity
  8
0
 62
     0
100
AcDbLine
 10
24.29937773504352
 20
8.95145378645023
 30
0.0
 11
22.81246079956336
 21
10.43837072193037
 31
0.0
  0
LINE
  5
262B
330
25E9
100
AcDbEntity
  8
0
 62
     0
100
AcDbLine
 10
29.67583156013743
 20
3.574999961356326
 30
0.0
 11
27.52110559449162
 21
5.729725927002135
 31
0.0
  0
LINE
  5
262C
330
25E9
100
AcDbEntity
  8
0
 62
     0
100
AcDbLine
 10
26.40790744583728
 20
6.393911269602995
 30
0.0
 11
22.79610559449159
 21
10.00571312094865
 31
0.0
  0
LINE
  5
262D
330
25E9
100
AcDbEntity
  8
0
 62
     0
100
AcDbLine
 10
21.74610559449155
 20
11.05571312094869
 30
0.0
 11
21.17681875408391
 21
11.62499996135636
 31
0.0
  0
LINE
  5
262E
330
25E9
100
AcDbEntity
  8
0
 62
     0
100
AcDbLine
 10
29.22681875408395
 20
3.574999961356326
 30
0.0
 11
27.52110559449162
 21
5.280713120948661
 31
0.0
  0
LINE
  5
262F
330
25E9
100
AcDbEntity
  8
0
 62
     0
100
AcDbLine
 10
26.47110559449163
 20
5.881700314895226
 30
0.0
 11
22.79610559449162
 21
9.556700314895238
 31
0.0
  0
LINE
  5
2630
330
25E9
100
AcDbEntity
  8
0
 62
     0
100
AcDbLine
 10
21.74610559449161
 20
10.60670031489522
 30
0.0
 11
20.72780594803043
 21
11.62499996135642
 31
0.0
  0
LINE
  5
2631
330
25E9
100
AcDbEntity
  8
0
 62
     0
100
AcDbLine
 10
28.76958200865806
 20
3.583223900728796
 30
0.0
 11
27.52932953386406
 21
4.823476375522801
 31
0.0
  0
LINE
  5
2632
330
25E9
100
AcDbEntity
  8
0
 62
     0
100
AcDbLine
 10
21.74610559449161
 20
10.15768750884177
 30
0.0
 11
20.39241065060395
 21
11.51138245272941
 31
0.0
  0
LINE
  5
2633
330
25E9
100
AcDbEntity
  8
0
 62
     0
100
AcDbLine
 10
26.4711055944916
 20
5.432687508841752
 30
0.0
 11
22.80781092843279
 21
9.095982174900598
 31
0.0
  0
LINE
  5
2634
330
25E9
100
AcDbEntity
  8
0
 62
     0
100
AcDbLine
 10
21.74610559449161
 20
9.7086747027883
 30
0.0
 11
20.34610559449161
 21
11.10867470278828
 31
0.0
  0
LINE
  5
2635
330
25E9
100
AcDbEntity
  8
0
 62
     0
100
AcDbLine
 10
26.47110559449155
 20
4.983674702788334
 30
0.0
 11
22.9668706373528
 21
8.487909659927112
 31
0.0
  0
LINE
  5
2636
330
25E9
100
AcDbEntity
  8
0
 62
     0
100
AcDbLine
 10
21.74610559449161
 20
9.259661896734854
 30
0.0
 11
20.34610559449163
 21
10.65966189673483
 31
0.0
  0
LINE
  5
2637
330
25E9
100
AcDbEntity
  8
0
 62
     0
100
AcDbLine
 10
26.41682468569707
 20
4.588942805529399
 30
0.0
 11
25.06900729117791
 21
5.936760200048553
 31
0.0
  0
LINE
  5
2638
330
25E9
100
AcDbEntity
  8
0
 62
     0
100
AcDbLine
 10
21.74610559449161
 20
8.810649090681408
 30
0.0
 11
20.34610559449161
 21
10.21064909068138
 31
0.0
  0
LINE
  5
2639
330
25E9
100
AcDbEntity
  8
0
 62
     0
100
AcDbLine
 10
19.2003621442031
 20
11.35639254096989
 30
0.0
 11
18.93175472381659
 21
11.62499996135642
 31
0.0
  0
LINE
  5
263A
330
25E9
100
AcDbEntity
  8
0
 62
     0
100
AcDbLine
 10
26.28288683181629
 20
4.273867853356733
 30
0.0
 11
25.07110559449163
 21
5.485649090681391
 31
0.0
  0
LINE
  5
263B
330
25E9
100
AcDbEntity
  8
0
 62
     0
100
AcDbLine
 10
21.74610559449158
 20
8.361636284627934
 30
0.0
 11
20.34610559449161
 21
9.76163628462794
 31
0.0
  0
LINE
  5
263C
330
25E9
100
AcDbEntity
  8
0
 62
     0
100
AcDbLine
 10
19.10089831207679
 20
11.00684356704272
 30
0.0
 11
18.48274191776315
 21
11.62499996135639
 31
0.0
  0
LINE
  5
263D
330
25E9
100
AcDbEntity
  8
0
 62
     0
100
AcDbLine
 10
26.09139343272864
 20
4.016348446390907
 30
0.0
 11
25.02246300304839
 21
5.085278876071157
 31
0.0
  0
LINE
  5
263E
330
25E9
100
AcDbEntity
  8
0
 62
     0
100
AcDbLine
 10
21.74610559449158
 20
7.912623478574488
 30
0.0
 11
20.34610559449161
 21
9.312623478574465
 31
0.0
  0
LINE
  5
263F
330
25E9
100
AcDbEntity
  8
0
 62
     0
100
AcDbLine
 10
18.99313523862395
 20
10.66559383444209
 30
0.0
 11
18.03852745688866
 21
11.62020161617741
 31
0.0
  0
LINE
  5
2640
330
25E9
100
AcDbEntity
  8
0
 62
     0
100
AcDbLine
 10
25.84823395017082
 20
3.810495122895218
 30
0.0
 11
24.68372911170971
 21
4.97499996135636
 31
0.0
  0
LINE
  5
2641
330
25E9
100
AcDbEntity
  8
0
 62
     0
100
AcDbLine
 10
21.74610559449161
 20
7.463610672521042
 30
0.0
 11
20.34610559449161
 21
8.863610672521019
 31
0.0
  0
LINE
  5
2642
330
25E9
100
AcDbEntity
  8
0
 62
     0
100
AcDbLine
 10
18.88537216517119
 20
10.32434410184146
 30
0.0
 11
17.82137216517117
 21
11.38834410184148
 31
0.0
  0
LINE
  5
2643
330
25E9
100
AcDbEntity
  8
0
 62
     0
100
AcDbLine
 10
25.55019197594063
 20
3.659524291071988
 30
0.0
 11
24.23471630565626
 21
4.974999961356388
 31
0.0
  0
LINE
  5
2644
330
25E9
100
AcDbEntity
  8
0
 62
     0
100
AcDbLine
 10
21.74610559449158
 20
7.014597866467596
 30
0.0
 11
20.34610559449161
 21
8.414597866467573
 31
0.0
  0
LINE
  5
2645
330
25E9
100
AcDbEntity
  8
0
 62
     0
100
AcDbLine
 10
18.77760909171826
 20
9.983094369240916
 30
0.0
 11
17.71360909171827
 21
11.04709436924091
 31
0.0
  0
LINE
  5
2646
330
25E9
100
AcDbEntity
  8
0
 62
     0
100
AcDbLine
 10
25.1813556501169
 20
3.579347810842278
 30
0.0
 11
23.78570349960282
 21
4.97499996135636
 31
0.0
  0
LINE
  5
2647
330
25E9
100
AcDbEntity
  8
0
 62
     0
100
AcDbLine
 10
21.74610559449158
 20
6.565585060414122
 30
0.0
 11
20.34610559449157
 21
7.965585060414099
 31
0.0
  0
LINE
  5
2648
330
25E9
100
AcDbEntity
  8
0
 62
     0
100
AcDbLine
 10
18.66984601826547
 20
9.641844636640229
 30
0.0
 11
17.60584601826542
 21
10.70584463664025
 31
0.0
  0
LINE
  5
2649
330
25E9
100
AcDbEntity
  8
0
 62
     0
100
AcDbLine
 10
24.73669069354938
 20
3.574999961356326
 30
0.0
 11
23.33669069354934
 21
4.97499996135636
 31
0.0
  0
LINE
  5
264A
330
25E9
100
AcDbEntity
  8
0
 62
     0
100
AcDbLine
 10
21.74610559449158
 20
6.116572254360676
 30
0.0
 11
20.34610559449161
 21
7.516572254360681
 31
0.0
  0
LINE
  5
264B
330
25E9
100
AcDbEntity
  8
0
 62
     0
100
AcDbLine
 10
18.56208294481269
 20
9.300594904039598
 30
0.0
 11
17.49808294481261
 21
10.36459490403965
 31
0.0
  0
LINE
  5
264C
330
25E9
100
AcDbEntity
  8
0
 62
     0
100
AcDbLine
 10
24.28767788749593
 20
3.574999961356354
 30
0.0
 11
23.07087203884774
 21
4.791805810004547
 31
0.0
  0
LINE
  5
264D
330
25E9
100
AcDbEntity
  8
0
 62
     0
100
AcDbLine
 10
18.45431987135981
 20
8.959345171438997
 30
0.0
 11
17.39031987135979
 21
10.02334517143902
 31
0.0
  0
LINE
  5
264E
330
25E9
100
AcDbEntity
  8
0
 62
     0
100
AcDbLine
 10
21.74610559449158
 20
5.66755944830723
 30
0.0
 11
20.34610559449161
 21
7.067559448307207
 31
0.0
  0
LINE
  5
264F
330
25E9
100
AcDbEntity
  8
0
 62
     0
100
AcDbLine
 10
16.3211055944916
 20
11.09255944830721
 30
0.0
 11
15.78866508144244
 21
11.62499996135633
 31
0.0
  0
LINE
  5
2650
330
25E9
100
AcDbEntity
  8
0
 62
     0
100
AcDbLine
 10
23.83866508144249
 20
3.574999961356326
 30
0.0
 11
23.05860559449161
 21
4.355059448307201
 31
0.0
  0
LINE
  5
2651
330
25E9
100
AcDbEntity
  8
0
 62
     0
100
AcDbLine
 10
18.34655679790697
 20
8.618095438838366
 30
0.0
 11
17.28255679790698
 21
9.682095438838359
 31
0.0
  0
LINE
  5
2652
330
25E9
100
AcDbEntity
  8
0
 62
     0
100
AcDbLine
 10
21.74610559449158
 20
5.218546642253755
 30
0.0
 11
20.34610559449157
 21
6.618546642253761
 31
0.0
  0
LINE
  5
2653
330
25E9
100
AcDbEntity
  8
0
 62
     0
100
AcDbLine
 10
16.3211055944916
 20
10.64354664225374
 30
0.0
 11
15.339652275389
 21
11.62499996135633
 31
0.0
  0
LINE
  5
2654
330
25E9
100
AcDbEntity
  8
0
 62
     0
100
AcDbLine
 10
23.38965227538898
 20
3.574999961356354
 30
0.0
 11
23.05860559449158
 21
3.906046642253727
 31
0.0
  0
LINE
  5
2655
330
25E9
100
AcDbEntity
  8
0
 62
     0
100
AcDbLine
 10
18.23879372445412
 20
8.276845706237736
 30
0.0
 11
17.1747937244541
 21
9.340845706237757
 31
0.0
  0
LINE
  5
2656
330
25E9
100
AcDbEntity
  8
0
 62
     0
100
AcDbLine
 10
16.32110559449157
 20
10.19453383620026
 30
0.0
 11
14.98338313004277
 21
11.53225630064909
 31
0.0
  0
LINE
  5
2657
330
25E9
100
AcDbEntity
  8
0
 62
     0
100
AcDbLine
 10
21.74610559449155
 20
4.769533836200309
 30
0.0
 11
20.34610559449157
 21
6.169533836200287
 31
0.0
  0
LINE
  5
2658
330
25E9
100
AcDbEntity
  8
0
 62
     0
100
AcDbLine
 10
18.13103065100131
 20
7.935595973637134
 30
0.0
 11
17.06703065100132
 21
8.999595973637127
 31
0.0
  0
LINE
  5
2659
330
25E9
100
AcDbEntity
  8
0
 62
     0
100
AcDbLine
 10
16.3211055944916
 20
9.745521030146846
 30
0.0
 11
14.92110559449156
 21
11.14552103014685
 31
0.0
  0
LINE
  5
265A
330
25E9
100
AcDbEntity
  8
0
 62
     0
100
AcDbLine
 10
21.74610559449158
 20
4.320521030146863
 30
0.0
 11
20.34610559449157
 21
5.720521030146841
 31
0.0
  0
LINE
  5
265B
330
25E9
100
AcDbEntity
  8
0
 62
     0
100
AcDbLine
 10
18.02848639630537
 20
7.589127422279602
 30
0.0
 11
16.95926757754844
 21
8.658346241036525
 31
0.0
  0
LINE
  5
265C
330
25E9
100
AcDbEntity
  8
0
 62
     0
100
AcDbLine
 10
16.3211055944916
 20
9.296508224093372
 30
0.0
 11
14.92110559449156
 21
10.6965082240934
 31
0.0
  0
LINE
  5
265D
330
25E9
100
AcDbEntity
  8
0
 62
     0
100
AcDbLine
 10
21.74610559449155
 20
3.871508224093389
 30
0.0
 11
20.34610559449157
 21
5.271508224093395
 31
0.0
  0
LINE
  5
265E
330
25E9
100
AcDbEntity
  8
0
 62
     0
100
AcDbLine
 10
18.23572307602237
 20
6.932877936509129
 30
0.0
 11
16.81399382970613
 21
8.354607182825361
 31
0.0
  0
LINE
  5
265F
330
25E9
100
AcDbEntity
  8
0
 62
     0
100
AcDbLine
 10
16.32110559449162
 20
8.847495418039869
 30
0.0
 11
14.92110559449153
 21
10.24749541803993
 31
0.0
  0
LINE
  5
2660
330
25E9
100
AcDbEntity
  8
0
 62
     0
100
AcDbLine
 10
21.57658309582538
 20
3.592017916706083
 30
0.0
 11
20.34610559449161
 21
4.822495418039892
 31
0.0
  0
LINE
  5
2661
330
25E9
100
AcDbEntity
  8
0
 62
     0
100
AcDbLine
 10
18.44295975573939
 20
6.276628450738684
 30
0.0
 11
14.92110559449156
 21
9.798482611986514
 31
0.0
  0
LINE
  5
2662
330
25E9
100
AcDbEntity
  8
0
 62
     0
100
AcDbLine
 10
13.69610559449162
 20
11.02348261198645
 30
0.0
 11
13.09458824512174
 21
11.62499996135633
 31
0.0
  0
LINE
  5
2663
330
25E9
100
AcDbEntity
  8
0
 62
     0
100
AcDbLine
 10
21.14458824512173
 20
3.574999961356354
 30
0.0
 11
20.34610559449163
 21
4.373482611986446
 31
0.0
  0
LINE
  5
2664
330
25E9
100
AcDbEntity
  8
0
 62
     0
100
AcDbLine
 10
18.65019643545634
 20
5.620378964968239
 30
0.0
 11
14.92110559449156
 21
9.34946980593304
 31
0.0
  0
LINE
  5
2665
330
25E9
100
AcDbEntity
  8
0
 62
     0
100
AcDbLine
 10
13.69610559449162
 20
10.57446980593298
 30
0.0
 11
12.64557543906824
 21
11.62499996135636
 31
0.0
  0
LINE
  5
2666
330
25E9
100
AcDbEntity
  8
0
 62
     0
100
AcDbLine
 10
20.69557543906822
 20
3.574999961356382
 30
0.0
 11
20.34610559449161
 21
3.924469805933
 31
0.0
  0
LINE
  5
2667
330
25E9
100
AcDbEntity
  8
0
 62
     0
100
AcDbLine
 10
13.56265224679657
 20
10.25891034757455
 30
0.0
 11
12.21254138769086
 21
11.60902120668024
 31
0.0
  0
LINE
  5
2668
330
25E9
100
AcDbEntity
  8
0
 62
     0
100
AcDbLine
 10
18.8574331151733
 20
4.964129479197822
 30
0.0
 11
14.92110559449159
 21
8.900456999879537
 31
0.0
  0
LINE
  5
2669
330
25E9
100
AcDbEntity
  8
0
 62
     0
100
AcDbLine
 10
16.4898600556624
 20
6.882689732655279
 30
0.0
 11
14.92110559449159
 21
8.451444193826091
 31
0.0
  0
LINE
  5
266A
330
25E9
100
AcDbEntity
  8
0
 62
     0
100
AcDbLine
 10
13.14754982696135
 20
10.2249999613563
 30
0.0
 11
11.84351985289723
 21
11.52902993542045
 31
0.0
  0
LINE
  5
266B
330
25E9
100
AcDbEntity
  8
0
 62
     0
100
AcDbLine
 10
19.06466979489031
 20
4.307879993427377
 30
0.0
 11
17.01851594873636
 21
6.35403383958129
 31
0.0
  0
LINE
  5
266C
330
25E9
100
AcDbEntity
  8
0
 62
     0
100
AcDbLine
 10
16.32110559449162
 20
6.602431387772611
 30
0.0
 11
14.92110559449159
 21
8.002431387772645
 31
0.0
  0
LINE
  5
266D
330
25E9
100
AcDbEntity
  8
0
 62
     0
100
AcDbLine
 10
12.69853702090785
 20
10.22499996135636
 30
0.0
 11
11.52415914498186
 21
11.39937783728234
 31
0.0
  0
LINE
  5
266E
330
25E9
100
AcDbEntity
  8
0
 62
     0
100
AcDbLine
 10
19.18218922374561
 20
3.7413477585186
 30
0.0
 11
17.22575262845333
 21
5.697784353810902
 31
0.0
  0
LINE
  5
266F
330
25E9
100
AcDbEntity
  8
0
 62
     0
100
AcDbLine
 10
16.3211055944916
 20
6.153418581719165
 30
0.0
 11
14.92110559449156
 21
7.553418581719171
 31
0.0
  0
LINE
  5
2670
330
25E9
100
AcDbEntity
  8
0
 62
     0
100
AcDbLine
 10
12.27698026963608
 20
10.19754390657468
 30
0.0
 11
11.24478465731459
 21
11.22973951889616
 31
0.0
  0
LINE
  5
2671
330
25E9
100
AcDbEntity
  8
0
 62
     0
100
AcDbLine
 10
18.89952421485444
 20
3.574999961356326
 30
0.0
 11
17.4329893081703
 21
5.041534868040457
 31
0.0
  0
LINE
  5
2672
330
25E9
100
AcDbEntity
  8
0
 62
     0
100
AcDbLine
 10
16.3211055944916
 20
5.704405775665691
 30
0.0
 11
14.92110559449156
 21
7.104405775665725
 31
0.0
  0
LINE
  5
2673
330
25E9
100
AcDbEntity
  8
0
 62
     0
100
AcDbLine
 10
11.99105217321658
 20
10.0344591969407
 30
0.0
 11
11.0009570530087
 21
11.02455431714858
 31
0.0
  0
LINE
  5
2674
330
25E9
100
AcDbEntity
  8
0
 62
     0
100
AcDbLine
 10
18.45051140880096
 20
3.574999961356326
 30
0.0
 11
17.64022598788733
 21
4.385285382269955
 31
0.0
  0
LINE
  5
2675
330
25E9
100
AcDbEntity
  8
0
 62
     0
100
AcDbLine
 10
13.86382016089047
 20
7.712678403213402
 30
0.0
 11
13.10878403634859
 21
8.467714527755276
 31
0.0
  0
LINE
  5
2676
330
25E9
100
AcDbEntity
  8
0
 62
     0
100
AcDbLine
 10
16.32110559449165
 20
5.255392969612216
 30
0.0
 11
14.92110559449159
 21
6.655392969612279
 31
0.0
  0
LINE
  5
2677
330
25E9
100
AcDbEntity
  8
0
 62
     0
100
AcDbLine
 10
11.81299138815211
 20
9.763507175951758
 30
0.0
 11
10.79127404000309
 21
10.78522452410078
 31
0.0
  0
LINE
  5
2678
330
25E9
100
AcDbEntity
  8
0
 62
     0
100
AcDbLine
 10
17.97633210064521
 20
3.600166463458663
 30
0.0
 11
17.85115501484955
 21
3.725343549254318
 31
0.0
  0
LINE
  5
2679
330
25E9
100
AcDbEntity
  8
0
 62
     0
100
AcDbLine
 10
13.82056333081951
 20
7.306922427230887
 30
0.0
 11
12.70302806036608
 21
8.424457697684317
 31
0.0
  0
LINE
  5
267A
330
25E9
100
AcDbEntity
  8
0
 62
     0
100
AcDbLine
 10
11.77110559449164
 20
9.356380163558753
 30
0.0
 11
10.61680452952225
 21
10.51068122852814
 31
0.0
  0
LINE
  5
267B
330
25E9
100
AcDbEntity
  8
0
 62
     0
100
AcDbLine
 10
16.32110559449162
 20
4.806380163558742
 30
0.0
 11
14.92110559449156
 21
6.206380163558833
 31
0.0
  0
LINE
  5
267C
330
25E9
100
AcDbEntity
  8
0
 62
     0
100
AcDbLine
 10
13.65463555117048
 20
7.023837400826408
 30
0.0
 11
12.4199430339616
 21
8.258529918035293
 31
0.0
  0
LINE
  5
267D
330
25E9
100
AcDbEntity
  8
0
 62
     0
100
AcDbLine
 10
11.77110559449164
 20
8.907367357505279
 30
0.0
 11
10.48151467591717
 21
10.19695827607975
 31
0.0
  0
LINE
  5
267E
330
25E9
100
AcDbEntity
  8
0
 62
     0
100
AcDbLine
 10
16.32110559449162
 20
4.357367357505296
 30
0.0
 11
14.92110559449159
 21
5.75736735750533
 31
0.0
  0
LINE
  5
267F
330
25E9
100
AcDbEntity
  8
0
 62
     0
100
AcDbLine
 10
11.77110559449164
 20
8.458354551451833
 30
0.0
 11
10.39415773945424
 21
9.835302406489262
 31
0.0
  0
LINE
  5
2680
330
25E9
100
AcDbEntity
  8
0
 62
     0
100
AcDbLine
 10
13.40371883010226
 20
6.825741315841241
 30
0.0
 11
12.22184694897643
 21
8.007613196967071
 31
0.0
  0
LINE
  5
2681
330
25E9
100
AcDbEntity
  8
0
 62
     0
100
AcDbLine
 10
9.058605594491609
 20
11.17085455145189
 30
0.0
 11
8.604460184587111
 21
11.62499996135639
 31
0.0
  0
LINE
  5
2682
330
25E9
100
AcDbEntity
  8
0
 62
     0
100
AcDbLine
 10
16.32110559449165
 20
3.90835455145185
 30
0.0
 11
14.92110559449162
 21
5.308354551451884
 31
0.0
  0
LINE
  5
2683
330
25E9
100
AcDbEntity
  8
0
 62
     0
100
AcDbLine
 10
11.77110559449164
 20
8.009341745398387
 30
0.0
 11
10.37110559449161
 21
9.409341745398421
 31
0.0
  0
LINE
  5
2684
330
25E9
100
AcDbEntity
  8
0
 62
     0
100
AcDbLine
 10
13.05355910888855
 20
6.726888231001481
 30
0.0
 11
12.12299386413667
 21
7.657453475753356
 31
0.0
  0
LINE
  5
2685
330
25E9
100
AcDbEntity
  8
0
 62
     0
100
AcDbLine
 10
9.058605594491581
 20
10.72184174539842
 30
0.0
 11
8.155447378533636
 21
11.62499996135636
 31
0.0
  0
LINE
  5
2686
330
25E9
100
AcDbEntity
  8
0
 62
     0
100
AcDbLine
 10
16.1771536938563
 20
3.603293646033733
 30
0.0
 11
14.92110559449159
 21
4.85934174539841
 31
0.0
  0
LINE
  5
2687
330
25E9
100
AcDbEntity
  8
0
 62
     0
100
AcDbLine
 10
11.77110559449164
 20
7.560328939344913
 30
0.0
 11
10.37110559449161
 21
8.960328939344947
 31
0.0
  0
LINE
  5
2688
330
25E9
100
AcDbEntity
  8
0
 62
     0
100
AcDbLine
 10
9.004088609356415
 20
10.32734592448014
 30
0.0
 11
7.706434572480134
 21
11.62499996135639
 31
0.0
  0
LINE
  5
2689
330
25E9
100
AcDbEntity
  8
0
 62
     0
100
AcDbLine
 10
15.7564345724802
 20
3.574999961356354
 30
0.0
 11
14.92110559449159
 21
4.410328939344964
 31
0.0
  0
LINE
  5
268A
330
25E9
100
AcDbEntity
  8
0
 62
     0
100
AcDbLine
 10
11.77110559449161
 20
7.111316133291467
 30
0.0
 11
10.37110559449158
 21
8.511316133291472
 31
0.0
  0
LINE
  5
268B
330
25E9
100
AcDbEntity
  8
0
 62
     0
100
AcDbLine
 10
8.657421766426722
 20
10.22499996135636
 30
0.0
 11
7.257421766426688
 21
11.62499996135639
 31
0.0
  0
LINE
  5
268C
330
25E9
100
AcDbEntity
  8
0
 62
     0
100
AcDbLine
 10
15.30742176642673
 20
3.574999961356326
 30
0.0
 11
14.92110559449159
 21
3.961316133291489
 31
0.0
  0
LINE
  5
268D
330
25E9
100
AcDbEntity
  8
0
 62
     0
100
AcDbLine
 10
11.77110559449167
 20
6.662303327237992
 30
0.0
 11
10.37110559449161
 21
8.062303327238055
 31
0.0
  0
LINE
  5
268E
330
25E9
100
AcDbEntity
  8
0
 62
     0
100
AcDbLine
 10
8.208408960373276
 20
10.22499996135639
 30
0.0
 11
6.825844324320854
 21
11.60756459740881
 31
0.0
  0
LINE
  5
268F
330
25E9
100
AcDbEntity
  8
0
 62
     0
100
AcDbLine
 10
13.69480437007314
 20
4.738604551656493
 30
0.0
 11
13.45971018479179
 21
4.973698736937876
 31
0.0
  0
LINE
  5
2690
330
25E9
100
AcDbEntity
  8
0
 62
     0
100
AcDbLine
 10
11.77110559449167
 20
6.213290521184518
 30
0.0
 11
10.37110559449161
 21
7.61329052118458
 31
0.0
  0
LINE
  5
2691
330
25E9
100
AcDbEntity
  8
0
 62
     0
100
AcDbLine
 10
7.759396154319802
 20
10.22499996135636
 30
0.0
 11
6.479276920081616
 21
11.50511919559457
 31
0.0
  0
LINE
  5
2692
330
25E9
100
AcDbEntity
  8
0
 62
     0
100
AcDbLine
 10
13.69610559449165
 20
4.288290521184535
 30
0.0
 11
13.00939615431983
 21
4.97499996135636
 31
0.0
  0
LINE
  5
2693
330
25E9
100
AcDbEntity
  8
0
 62
     0
100
AcDbLine
 10
11.77110559449164
 20
5.764277715131044
 30
0.0
 11
10.37110559449164
 21
7.164277715131078
 31
0.0
  0
LINE
  5
2694
330
25E9
100
AcDbEntity
  8
0
 62
     0
100
AcDbLine
 10
7.310383348266384
 20
10.2249999613563
 30
0.0
 11
6.197153590157995
 21
11.33822971946469
 31
0.0
  0
LINE
  5
2695
330
25E9
100
AcDbEntity
  8
0
 62
     0
100
AcDbLine
 10
13.69610559449162
 20
3.839277715131061
 30
0.0
 11
12.56038334826638
 21
4.974999961356303
 31
0.0
  0
LINE
  5
2696
330
25E9
100
AcDbEntity
  8
0
 62
     0
100
AcDbLine
 10
7.055236934459088
 20
10.03113356911021
 30
0.0
 11
5.96810718403762
 21
11.11826331953168
 31
0.0
  0
LINE
  5
2697
330
25E9
100
AcDbEntity
  8
0
 62
     0
100
AcDbLine
 10
13.50223920224545
 20
3.58413130132385
 30
0.0
 11
10.37110559449164
 21
6.71526490907766
 31
0.0
  0
LINE
  5
2698
330
25E9
100
AcDbEntity
  8
0
 62
     0
100
AcDbLine
 10
7.046105594491621
 20
9.591252103024203
 30
0.0
 11
5.791366582803078
 21
10.84599111471274
 31
0.0
  0
LINE
  5
2699
330
25E9
100
AcDbEntity
  8
0
 62
     0
100
AcDbLine
 10
13.0623577361595
 20
3.574999961356326
 30
0.0
 11
10.37110559449164
 21
6.266252103024186
 31
0.0
  0
LINE
  5
269A
330
25E9
100
AcDbEntity
  8
0
 62
     0
100
AcDbLine
 10
7.077173448559335
 20
9.111171442902985
 30
0.0
 11
5.675926531656216
 21
10.51241835980613
 31
0.0
  0
LINE
  5
269B
330
25E9
100
AcDbEntity
  8
0
 62
     0
100
AcDbLine
 10
12.61334493010599
 20
3.574999961356354
 30
0.0
 11
10.37110559449161
 21
5.817239296970711
 31
0.0
  0
LINE
  5
269C
330
25E9
100
AcDbEntity
  8
0
 62
     0
100
AcDbLine
 10
9.223293640102951
 20
6.516038445305952
 30
0.0
 11
5.646105594491643
 21
10.09322649091726
 31
0.0
  0
LINE
  5
269D
330
25E9
100
AcDbEntity
  8
0
 62
     0
100
AcDbLine
 10
12.13769608052422
 20
3.601636004884682
 30
0.0
 11
10.39774163801993
 21
5.341590447388966
 31
0.0
  0
LINE
  5
269E
330
25E9
100
AcDbEntity
  8
0
 62
     0
100
AcDbLine
 10
9.319240897145562
 20
5.971078382209896
 30
0.0
 11
5.646105594491586
 21
9.644213684863871
 31
0.0
  0
LINE
  5
269F
330
25E9
100
AcDbEntity
  8
0
 62
     0
100
AcDbLine
 10
11.45079212422342
 20
3.839527155132003
 30
0.0
 11
10.63563278826723
 21
4.654686491088227
 31
0.0
  0
LINE
  5
26A0
330
25E9
100
AcDbEntity
  8
0
 62
     0
100
AcDbLine
 10
9.321105594491655
 20
5.520200878810328
 30
0.0
 11
5.649887818202785
 21
9.19141865509917
 31
0.0
  0
LINE
  5
26A1
330
25E9
100
AcDbEntity
  8
0
 62
     0
100
AcDbLine
 10
9.321105594491598
 20
5.07118807275691
 30
0.0
 11
5.761533197364713
 21
8.630760469883767
 31
0.0
  0
LINE
  5
26A2
330
25E9
100
AcDbEntity
  8
0
 62
     0
100
AcDbLine
 10
9.28484559642564
 20
4.658435264769451
 30
0.0
 11
7.90314977461611
 21
6.040131086578981
 31
0.0
  0
LINE
  5
26A3
330
25E9
100
AcDbEntity
  8
0
 62
     0
100
AcDbLine
 10
9.163876626911218
 20
4.330391428230399
 30
0.0
 11
7.921105594491592
 21
5.573162460650024
 31
0.0
  0
LINE
  5
26A4
330
25E9
100
AcDbEntity
  8
0
 62
     0
100
AcDbLine
 10
8.982817003220333
 20
4.062438245867809
 30
0.0
 11
7.903156078341254
 21
5.142099170746888
 31
0.0
  0
LINE
  5
26A5
330
25E9
100
AcDbEntity
  8
0
 62
     0
100
AcDbLine
 10
8.749703817086896
 20
3.8465386259478
 30
0.0
 11
7.621242481678336
 21
4.974999961356388
 31
0.0
  0
LINE
  5
26A6
330
25E9
100
AcDbEntity
  8
0
 62
     0
100
AcDbLine
 10
8.46307159322049
 20
3.68415804376076
 30
0.0
 11
7.172229675624862
 21
4.97499996135636
 31
0.0
  0
LINE
  5
26A7
330
25E9
100
AcDbEntity
  8
0
 62
     0
100
AcDbLine
 10
8.110365298677521
 20
3.587851532250255
 30
0.0
 11
6.723216869571416
 21
4.97499996135636
 31
0.0
  0
LINE
  5
26A8
330
25E9
100
AcDbEntity
  8
0
 62
     0
100
AcDbLine
 10
7.674204063517947
 20
3.574999961356354
 30
0.0
 11
6.274204063517942
 21
4.97499996135636
 31
0.0
  0
LINE
  5
26A9
330
25E9
100
AcDbEntity
  8
0
 62
     0
100
AcDbLine
 10
7.22519125746453
 20
3.574999961356326
 30
0.0
 11
5.94852931005559
 21
4.851661908765294
 31
0.0
  0
LINE
  5
26AA
330
25E9
100
AcDbEntity
  8
0
 62
     0
100
AcDbLine
 10
6.776178451411027
 20
3.574999961356354
 30
0.0
 11
5.908605594491632
 21
4.442572818275749
 31
0.0
  0
LINE
  5
26AB
330
25E9
100
AcDbEntity
  8
0
 62
     0
100
AcDbLine
 10
6.327165645357609
 20
3.574999961356326
 30
0.0
 11
5.908605594491632
 21
3.993560012222303
 31
0.0
  0
LINE
  5
26AC
330
25E9
100
AcDbEntity
  8
0
 62
     0
100
AcDbLine
 10
34.31694923682508
 20
3.581565849915108
 30
0.0
 11
34.51453970593298
 21
3.779156319023002
 31
0.0
  0
LINE
  5
26AD
330
25E9
100
AcDbEntity
  8
0
 62
     0
100
AcDbLine
 10
33.86137054221291
 20
3.574999961356326
 30
0.0
 11
34.5211055944917
 21
4.234735013635145
 31
0.0
  0
LINE
  5
26AE
330
25E9
100
AcDbEntity
  8
0
 62
     0
100
AcDbLine
 10
33.41235773615944
 20
3.574999961356354
 30
0.0
 11
34.5211055944917
 21
4.683747819688591
 31
0.0
  0
LINE
  5
26AF
330
25E9
100
AcDbEntity
  8
0
 62
     0
100
AcDbLine
 10
33.13670437611754
 20
3.7483594073679
 30
0.0
 11
34.52110559449167
 21
5.132760625742065
 31
0.0
  0
LINE
  5
26B0
330
25E9
100
AcDbEntity
  8
0
 62
     0
100
AcDbLine
 10
33.12110559449164
 20
4.181773431795477
 30
0.0
 11
34.52110559449167
 21
5.581773431795483
 31
0.0
  0
LINE
  5
26B1
330
25E9
100
AcDbEntity
  8
0
 62
     0
100
AcDbLine
 10
33.12110559449167
 20
4.630786237848923
 30
0.0
 11
34.52110559449167
 21
6.030786237848957
 31
0.0
  0
LINE
  5
26B2
330
25E9
100
AcDbEntity
  8
0
 62
     0
100
AcDbLine
 10
33.12110559449164
 20
5.079799043902397
 30
0.0
 11
34.52110559449167
 21
6.479799043902431
 31
0.0
  0
LINE
  5
26B3
330
25E9
100
AcDbEntity
  8
0
 62
     0
100
AcDbLine
 10
33.12110559449164
 20
5.528811849955843
 30
0.0
 11
34.52110559449167
 21
6.928811849955877
 31
0.0
  0
LINE
  5
26B4
330
25E9
100
AcDbEntity
  8
0
 62
     0
100
AcDbLine
 10
31.33438802552428
 20
3.742094280988482
 30
0.0
 11
31.90401127485956
 21
4.31171753032379
 31
0.0
  0
LINE
  5
26B5
330
25E9
100
AcDbEntity
  8
0
 62
     0
100
AcDbLine
 10
33.12110559449164
 20
5.977824656009289
 30
0.0
 11
34.52110559449167
 21
7.377824656009323
 31
0.0
  0
LINE
  5
26B6
330
25E9
100
AcDbEntity
  8
0
 62
     0
100
AcDbLine
 10
30.71910394226288
 20
3.575823003780527
 30
0.0
 11
32.07028255206754
 21
4.927001613585161
 31
0.0
  0
LINE
  5
26B7
330
25E9
100
AcDbEntity
  8
0
 62
     0
100
AcDbLine
 10
33.12110559449164
 20
6.426837462062763
 30
0.0
 11
34.52110559449167
 21
7.826837462062769
 31
0.0
  0
LINE
  5
26B8
330
25E9
100
AcDbEntity
  8
0
 62
     0
100
AcDbLine
 10
30.26926809378526
 20
3.574999961356382
 30
0.0
 11
32.07110559449168
 21
5.376837462062781
 31
0.0
  0
LINE
  5
26B9
330
25E9
100
AcDbEntity
  8
0
 62
     0
100
AcDbLine
 10
33.12110559449164
 20
6.875850268116209
 30
0.0
 11
34.52110559449165
 21
8.275850268116244
 31
0.0
  0
LINE
  5
26BA
330
25E9
100
AcDbEntity
  8
0
 62
     0
100
AcDbLine
 10
29.82025528773178
 20
3.574999961356382
 30
0.0
 11
32.07110559449166
 21
5.825850268116255
 31
0.0
  0
LINE
  5
26BB
330
25E9
100
AcDbEntity
  8
0
 62
     0
100
AcDbLine
 10
33.12110559449164
 20
7.324863074169655
 30
0.0
 11
34.52110559449167
 21
8.724863074169689
 31
0.0
  0
LINE
  5
26BC
330
25E9
100
AcDbEntity
  8
0
 62
     0
100
AcDbLine
 10
29.37124248167831
 20
3.574999961356326
 30
0.0
 11
32.07110559449168
 21
6.274863074169701
 31
0.0
  0
LINE
  5
26BD
330
25E9
100
AcDbEntity
  8
0
 62
     0
100
AcDbLine
 10
30.61880999345112
 20
5.271580279182614
 30
0.0
 11
32.07110559449168
 21
6.723875880223147
 31
0.0
  0
LINE
  5
26BE
330
25E9
100
AcDbEntity
  8
0
 62
     0
100
AcDbLine
 10
33.12110559449164
 20
7.773875880223101
 30
0.0
 11
34.52110559449167
 21
9.173875880223135
 31
0.0
  0
LINE
  5
26BF
330
25E9
100
AcDbEntity
  8
0
 62
     0
100
AcDbLine
 10
28.92222967562489
 20
3.574999961356382
 30
0.0
 11
30.37452527666537
 21
5.02729556239683
 31
0.0
  0
LINE
  5
26C0
330
25E9
100
AcDbEntity
  8
0
 62
     0
100
AcDbLine
 10
30.67110559449159
 20
5.772888686276559
 30
0.0
 11
32.07110559449166
 21
7.172888686276621
 31
0.0
  0
LINE
  5
26C1
330
25E9
100
AcDbEntity
  8
0
 62
     0
100
AcDbLine
 10
33.12110559449161
 20
8.222888686276576
 30
0.0
 11
34.52110559449165
 21
9.62288868627661
 31
0.0
  0
LINE
  5
26C2
330
25E9
100
AcDbEntity
  8
0
 62
     0
100
AcDbLine
 10
28.52919174525997
 20
3.630974837044902
 30
0.0
 11
29.87321686957142
 21
4.974999961356388
 31
0.0
  0
LINE
  5
26C3
330
25E9
100
AcDbEntity
  8
0
 62
     0
100
AcDbLine
 10
30.67110559449159
 20
6.221901492330005
 30
0.0
 11
32.07110559449166
 21
7.621901492330067
 31
0.0
  0
LINE
  5
26C4
330
25E9
100
AcDbEntity
  8
0
 62
     0
100
AcDbLine
 10
33.12110559449161
 20
8.67190149233005
 30
0.0
 11
34.52110559449165
 21
10.07190149233005
 31
0.0
  0
LINE
  5
26C5
330
25E9
100
AcDbEntity
  8
0
 62
     0
100
AcDbLine
 10
28.21519831165489
 20
3.765994209493328
 30
0.0
 11
29.42464295634011
 21
4.975438854178548
 31
0.0
  0
LINE
  5
26C6
330
25E9
100
AcDbEntity
  8
0
 62
     0
100
AcDbLine
 10
30.67110559449159
 20
6.670914298383451
 30
0.0
 11
32.07110559449166
 21
8.070914298383513
 31
0.0
  0
LINE
  5
26C7
330
25E9
100
AcDbEntity
  8
0
 62
     0
100
AcDbLine
 10
33.12110559449164
 20
9.120914298383468
 30
0.0
 11
34.52110559449165
 21
10.5209142983835
 31
0.0
  0
LINE
  5
26C8
330
25E9
100
AcDbEntity
  8
0
 62
     0
100
AcDbLine
 10
27.95856837097236
 20
3.958377074864188
 30
0.0
 11
29.10290366198376
 21
5.102712365875618
 31
0.0
  0
LINE
  5
26C9
330
25E9
100
AcDbEntity
  8
0
 62
     0
100
AcDbLine
 10
30.67110559449159
 20
7.119927104436897
 30
0.0
 11
32.07110559449166
 21
8.519927104436987
 31
0.0
  0
LINE
  5
26CA
330
25E9
100
AcDbEntity
  8
0
 62
     0
100
AcDbLine
 10
33.12110559449161
 20
9.569927104436942
 30
0.0
 11
34.52110559449165
 21
10.96992710443697
 31
0.0
  0
LINE
  5
26CB
330
25E9
100
AcDbEntity
  8
0
 62
     0
100
AcDbLine
 10
27.75358628335979
 20
4.202407793305098
 30
0.0
 11
28.93428452277905
 21
5.383106032724384
 31
0.0
  0
LINE
  5
26CC
330
25E9
100
AcDbEntity
  8
0
 62
     0
100
AcDbLine
 10
30.67110559449157
 20
7.568939910490371
 30
0.0
 11
32.07110559449166
 21
8.968939910490433
 31
0.0
  0
LINE
  5
26CD
330
25E9
100
AcDbEntity
  8
0
 62
     0
100
AcDbLine
 10
33.12110559449161
 20
10.01893991049039
 30
0.0
 11
34.51603101771642
 21
11.41386533371522
 31
0.0
  0
LINE
  5
26CE
330
25E9
100
AcDbEntity
  8
0
 62
     0
100
AcDbLine
 10
27.60362384414279
 20
4.501458160141595
 30
0.0
 11
28.92110559449159
 21
5.818939910490399
 31
0.0
  0
LINE
  5
26CF
330
25E9
100
AcDbEntity
  8
0
 62
     0
100
AcDbLine
 10
30.67110559449162
 20
8.017952716543845
 30
0.0
 11
32.07110559449166
 21
9.417952716543879
 31
0.0
  0
LINE
  5
26D0
330
25E9
100
AcDbEntity
  8
0
 62
     0
100
AcDbLine
 10
33.12110559449161
 20
10.46795271654383
 30
0.0
 11
34.27747384517668
 21
11.6243209672289
 31
0.0
  0
LINE
  5
26D1
330
25E9
100
AcDbEntity
  8
0
 62
     0
100
AcDbLine
 10
27.52491707666457
 20
4.871764198716789
 30
0.0
 11
28.92110559449162
 21
6.267952716543845
 31
0.0
  0
LINE
  5
26D2
330
25E9
100
AcDbEntity
  8
0
 62
     0
100
AcDbLine
 10
30.67110559449162
 20
8.46696552259732
 30
0.0
 11
32.07110559449166
 21
9.866965522597325
 31
0.0
  0
LINE
  5
26D3
330
25E9
100
AcDbEntity
  8
0
 62
     0
100
AcDbLine
 10
33.12110559449164
 20
10.91696552259733
 30
0.0
 11
33.82914003325064
 21
11.62499996135633
 31
0.0
  0
LINE
  5
26D4
330
25E9
100
AcDbEntity
  8
0
 62
     0
100
AcDbLine
 10
27.52110559449167
 20
5.316965522597342
 30
0.0
 11
28.92110559449165
 21
6.716965522597348
 31
0.0
  0
LINE
  5
26D5
330
25E9
100
AcDbEntity
  8
0
 62
     0
100
AcDbLine
 10
30.67110559449162
 20
8.915978328650766
 30
0.0
 11
32.07110559449163
 21
10.3159783286508
 31
0.0
  0
LINE
  5
26D6
330
25E9
100
AcDbEntity
  8
0
 62
     0
100
AcDbLine
 10
27.52110559449164
 20
5.765978328650817
 30
0.0
 11
28.92110559449162
 21
7.165978328650794
 31
0.0
  0
LINE
  5
26D7
330
25E9
100
AcDbEntity
  8
0
 62
     0
100
AcDbLine
 10
33.12112895186536
 20
11.36600168602453
 30
0.0
 11
33.3801038698235
 21
11.62497660398264
 31
0.0
  0
LINE
  5
26D8
330
25E9
100
AcDbEntity
  8
0
 62
     0
100
AcDbLine
 10
25.36032777913565
 20
3.605200513294789
 30
0.0
 11
26.44090504255323
 21
4.685777776712399
 31
0.0
  0
LINE
  5
26D9
330
25E9
100
AcDbEntity
  8
0
 62
     0
100
AcDbLine
 10
27.52110559449164
 20
6.214991134704263
 30
0.0
 11
28.92110559449162
 21
7.614991134704268
 31
0.0
  0
LINE
  5
26DA
330
25E9
100
AcDbEntity
  8
0
 62
     0
100
AcDbLine
 10
30.67110559449159
 20
9.36499113470424
 30
0.0
 11
32.07110559449163
 21
10.76499113470427
 31
0.0
  0
LINE
  5
26DB
330
25E9
100
AcDbEntity
  8
0
 62
     0
100
AcDbLine
 10
24.88111442114373
 20
3.574999961356382
 30
0.0
 11
26.4711055944916
 21
5.164991134704223
 31
0.0
  0
LINE
  5
26DC
330
25E9
100
AcDbEntity
  8
0
 62
     0
100
AcDbLine
 10
27.52110559449164
 20
6.664003940757709
 30
0.0
 11
28.92110559449165
 21
8.064003940757686
 31
0.0
  0
LINE
  5
26DD
330
25E9
100
AcDbEntity
  8
0
 62
     0
100
AcDbLine
 10
30.67110559449162
 20
9.814003940757658
 30
0.0
 11
32.07110559449166
 21
11.21400394075769
 31
0.0
  0
LINE
  5
26DE
330
25E9
100
AcDbEntity
  8
0
 62
     0
100
AcDbLine
 10
24.43210161509026
 20
3.574999961356326
 30
0.0
 11
26.47110559449166
 21
5.614003940757697
 31
0.0
  0
LINE
  5
26DF
330
25E9
100
AcDbEntity
  8
0
 62
     0
100
AcDbLine
 10
27.52110559449164
 20
7.113016746811183
 30
0.0
 11
28.92110559449162
 21
8.51301674681116
 31
0.0
  0
LINE
  5
26E0
330
25E9
100
AcDbEntity
  8
0
 62
     0
100
AcDbLine
 10
30.67110559449159
 20
10.26301674681113
 30
0.0
 11
31.97423686707461
 21
11.56614801939415
 31
0.0
  0
LINE
  5
26E1
330
25E9
100
AcDbEntity
  8
0
 62
     0
100
AcDbLine
 10
23.98308880903682
 20
3.574999961356354
 30
0.0
 11
26.46394629428517
 21
6.055857446604704
 31
0.0
  0
LINE
  5
26E2
330
25E9
100
AcDbEntity
  8
0
 62
     0
100
AcDbLine
 10
27.52110559449164
 20
7.562029552864629
 30
0.0
 11
28.92110559449162
 21
8.962029552864635
 31
0.0
  0
LINE
  5
26E3
330
25E9
100
AcDbEntity
  8
0
 62
     0
100
AcDbLine
 10
30.67110559449159
 20
10.71202955286461
 30
0.0
 11
31.58407600298335
 21
11.62499996135636
 31
0.0
  0
LINE
  5
26E4
330
25E9
100
AcDbEntity
  8
0
 62
     0
100
AcDbLine
 10
23.53407600298334
 20
3.574999961356354
 30
0.0
 11
26.3964901089708
 21
6.43741406734378
 31
0.0
  0
LINE
  5
26E5
330
25E9
100
AcDbEntity
  8
0
 62
     0
100
AcDbLine
 10
27.52110559449164
 20
8.011042358918075
 30
0.0
 11
28.92110559449162
 21
9.411042358918052
 31
0.0
  0
LINE
  5
26E6
330
25E9
100
AcDbEntity
  8
0
 62
     0
100
AcDbLine
 10
25.07110559449166
 20
5.561042358918086
 30
0.0
 11
26.27619638051152
 21
6.766133144937924
 31
0.0
  0
LINE
  5
26E7
330
25E9
100
AcDbEntity
  8
0
 62
     0
100
AcDbLine
 10
30.67110559449162
 20
11.16104235891802
 30
0.0
 11
31.13506319692997
 21
11.62499996135639
 31
0.0
  0
LINE
  5
26E8
330
25E9
100
AcDbEntity
  8
0
 62
     0
100
AcDbLine
 10
23.14919087349545
 20
3.639127637921887
 30
0.0
 11
24.4850631969299
 21
4.974999961356331
 31
0.0
  0
LINE
  5
26E9
330
25E9
100
AcDbEntity
  8
0
 62
     0
100
AcDbLine
 10
25.06117030692801
 20
6.000119877407882
 30
0.0
 11
26.11444672808125
 21
7.053396298561125
 31
0.0
  0
LINE
  5
26EA
330
25E9
100
AcDbEntity
  8
0
 62
     0
100
AcDbLine
 10
27.52110559449164
 20
8.460055164971521
 30
0.0
 11
28.92110559449165
 21
9.860055164971555
 31
0.0
  0
LINE
  5
26EB
330
25E9
100
AcDbEntity
  8
0
 62
     0
100
AcDbLine
 10
23.05860559449161
 20
3.997555164971515
 30
0.0
 11
24.03605039087643
 21
4.974999961356331
 31
0.0
  0
LINE
  5
26EC
330
25E9
100
AcDbEntity
  8
0
 62
     0
100
AcDbLine
 10
24.92397788835857
 20
6.311940264891944
 30
0.0
 11
25.91651116911734
 21
7.304473545650722
 31
0.0
  0
LINE
  5
26ED
330
25E9
100
AcDbEntity
  8
0
 62
     0
100
AcDbLine
 10
27.52110559449162
 20
8.909067971024995
 30
0.0
 11
28.92110559449165
 21
10.30906797102503
 31
0.0
  0
LINE
  5
26EE
330
25E9
100
AcDbEntity
  8
0
 62
     0
100
AcDbLine
 10
23.05860559449161
 20
4.446567971024961
 30
0.0
 11
23.58703758482298
 21
4.97499996135636
 31
0.0
  0
LINE
  5
26EF
330
25E9
100
AcDbEntity
  8
0
 62
     0
100
AcDbLine
 10
27.52110559449164
 20
9.358080777078441
 30
0.0
 11
28.92110559449168
 21
10.75808077707844
 31
0.0
  0
LINE
  5
26F0
330
25E9
100
AcDbEntity
  8
0
 62
     0
100
AcDbLine
 10
24.70334043980003
 20
6.540315622386799
 30
0.0
 11
25.69328993346122
 21
7.530265116048013
 31
0.0
  0
LINE
  5
26F1
330
25E9
100
AcDbEntity
  8
0
 62
     0
100
AcDbLine
 10
24.47883403677329
 20
6.764822025413536
 30
0.0
 11
25.46878353043445
 21
7.754771519074694
 31
0.0
  0
LINE
  5
26F2
330
25E9
100
AcDbEntity
  8
0
 62
     0
100
AcDbLine
 10
27.52110559449162
 20
9.807093583131887
 30
0.0
 11
28.92110559449165
 21
11.20709358313192
 31
0.0
  0
LINE
  5
26F3
330
25E9
100
AcDbEntity
  8
0
 62
     0
100
AcDbLine
 10
21.28901197271608
 20
3.574999961356354
 30
0.0
 11
21.74610559449164
 21
4.032093583131882
 31
0.0
  0
LINE
  5
26F4
330
25E9
100
AcDbEntity
  8
0
 62
     0
100
AcDbLine
 10
24.25432763374658
 20
6.98932842844033
 30
0.0
 11
25.24427712740771
 21
7.979277922101431
 31
0.0
  0
LINE
  5
26F5
330
25E9
100
AcDbEntity
  8
0
 62
     0
100
AcDbLine
 10
27.52110559449162
 20
10.25610638918536
 30
0.0
 11
28.82801514044232
 21
11.56301593513603
 31
0.0
  0
LINE
  5
26F6
330
25E9
100
AcDbEntity
  8
0
 62
     0
100
AcDbLine
 10
20.83999916666258
 20
3.574999961356326
 30
0.0
 11
21.74610559449161
 21
4.481106389185356
 31
0.0
  0
LINE
  5
26F7
330
25E9
100
AcDbEntity
  8
0
 62
     0
100
AcDbLine
 10
24.02982123071982
 20
7.213834831467011
 30
0.0
 11
25.01977072438098
 21
8.203784325128168
 31
0.0
  0
LINE
  5
26F8
330
25E9
100
AcDbEntity
  8
0
 62
     0
100
AcDbLine
 10
27.52110559449162
 20
10.70511919523881
 30
0.0
 11
28.44098636060918
 21
11.62499996135639
 31
0.0
  0
LINE
  5
26F9
330
25E9
100
AcDbEntity
  8
0
 62
     0
100
AcDbLine
 10
20.44679192954013
 20
3.630805530287318
 30
0.0
 11
21.74610559449164
 21
4.930119195238859
 31
0.0
  0
LINE
  5
26FA
330
25E9
100
AcDbEntity
  8
0
 62
     0
100
AcDbLine
 10
23.80531482769311
 20
7.438341234493719
 30
0.0
 11
24.79526432135427
 21
8.428290728154877
 31
0.0
  0
LINE
  5
26FB
330
25E9
100
AcDbEntity
  8
0
 62
     0
100
AcDbLine
 10
27.52110559449162
 20
11.15413200129225
 30
0.0
 11
27.99197355455576
 21
11.62499996135636
 31
0.0
  0
LINE
  5
26FC
330
25E9
100
AcDbEntity
  8
0
 62
     0
100
AcDbLine
 10
20.34610559449166
 20
3.979132001292299
 30
0.0
 11
21.74610559449167
 21
5.379132001292276
 31
0.0
  0
LINE
  5
26FD
330
25E9
100
AcDbEntity
  8
0
 62
     0
100
AcDbLine
 10
23.58080842466637
 20
7.662847637520457
 30
0.0
 11
24.57075791832753
 21
8.652797131181614
 31
0.0
  0
LINE
  5
26FE
330
25E9
100
AcDbEntity
  8
0
 62
     0
100
AcDbLine
 10
20.34610559449166
 20
4.428144807345773
 30
0.0
 11
21.74610559449164
 21
5.828144807345751
 31
0.0
  0
LINE
  5
26FF
330
25E9
100
AcDbEntity
  8
0
 62
     0
100
AcDbLine
 10
23.3573164741457
 20
7.888368493053292
 30
0.0
 11
24.34930324083672
 21
8.880355259744277
 31
0.0
  0
LINE
  5
2700
330
25E9
100
AcDbEntity
  8
0
 62
     0
100
AcDbLine
 10
20.34610559449166
 20
4.877157613399219
 30
0.0
 11
21.74610559449164
 21
6.277157613399225
 31
0.0
  0
LINE
  5
2701
330
25E9
100
AcDbEntity
  8
0
 62
     0
100
AcDbLine
 10
25.6939479424488
 20
10.22499996135636
 30
0.0
 11
26.20860559449167
 21
10.73965761339923
 31
0.0
  0
LINE
  5
2702
330
25E9
100
AcDbEntity
  8
0
 62
     0
100
AcDbLine
 10
19.09977748213654
 20
3.630829501044104
 30
0.0
 11
19.14460366286405
 21
3.675655681771644
 31
0.0
  0
LINE
  5
2703
330
25E9
100
AcDbEntity
  8
0
 62
     0
100
AcDbLine
 10
23.15831538473472
 20
8.138380209695725
 30
0.0
 11
24.20813252344402
 21
9.188197348405026
 31
0.0
  0
LINE
  5
2704
330
25E9
100
AcDbEntity
  8
0
 62
     0
100
AcDbLine
 10
20.34610559449166
 20
5.326170419452665
 30
0.0
 11
21.74610559449167
 21
6.726170419452643
 31
0.0
  0
LINE
  5
2705
330
25E9
100
AcDbEntity
  8
0
 62
     0
100
AcDbLine
 10
25.24493513639536
 20
10.22499996135636
 30
0.0
 11
26.20860559449165
 21
11.18867041945262
 31
0.0
  0
LINE
  5
2706
330
25E9
100
AcDbEntity
  8
0
 62
     0
100
AcDbLine
 10
18.59493513639532
 20
3.574999961356326
 30
0.0
 11
19.12782468454856
 21
4.107889509509533
 31
0.0
  0
LINE
  5
2707
330
25E9
100
AcDbEntity
  8
0
 62
     0
100
AcDbLine
 10
22.99539825253638
 20
8.424475883550854
 30
0.0
 11
24.19610559449168
 21
9.625183225506134
 31
0.0
  0
LINE
  5
2708
330
25E9
100
AcDbEntity
  8
0
 62
     0
100
AcDbLine
 10
20.34610559449166
 20
5.775183225506111
 30
0.0
 11
21.74610559449164
 21
7.175183225506117
 31
0.0
  0
LINE
  5
2709
330
25E9
100
AcDbEntity
  8
0
 62
     0
100
AcDbLine
 10
24.79592233034191
 20
10.22499996135636
 30
0.0
 11
26.12527112859272
 21
11.55434875960719
 31
0.0
  0
LINE
  5
270A
330
25E9
100
AcDbEntity
  8
0
 62
     0
100
AcDbLine
 10
18.14592233034187
 20
3.574999961356326
 30
0.0
 11
19.02006161109574
 21
4.44913924211022
 31
0.0
  0
LINE
  5
270B
330
25E9
100
AcDbEntity
  8
0
 62
     0
100
AcDbLine
 10
20.34610559449163
 20
6.224196031559586
 30
0.0
 11
21.74610559449164
 21
7.624196031559563
 31
0.0
  0
LINE
  5
270C
330
25E9
100
AcDbEntity
  8
0
 62
     0
100
AcDbLine
 10
22.87370722120133
 20
8.751797658269282
 30
0.0
 11
25.74690952428847
 21
11.62499996135639
 31
0.0
  0
LINE
  5
270D
330
25E9
100
AcDbEntity
  8
0
 62
     0
100
AcDbLine
 10
17.84991517501433
 20
3.728005612082284
 30
0.0
 11
18.9122985376429
 21
4.79038897471085
 31
0.0
  0
LINE
  5
270E
330
25E9
100
AcDbEntity
  8
0
 62
     0
100
AcDbLine
 10
20.34610559449163
 20
6.67320883761306
 30
0.0
 11
21.74610559449161
 21
8.073208837613037
 31
0.0
  0
LINE
  5
270F
330
25E9
100
AcDbEntity
  8
0
 62
     0
100
AcDbLine
 10
22.80435379165849
 20
9.131457034779913
 30
0.0
 11
25.297896718235
 21
11.62499996135642
 31
0.0
  0
LINE
  5
2710
330
25E9
100
AcDbEntity
  8
0
 62
     0
100
AcDbLine
 10
17.74053546419003
 20
4.067638707311459
 30
0.0
 11
18.80453546419002
 21
5.131638707311452
 31
0.0
  0
LINE
  5
2711
330
25E9
100
AcDbEntity
  8
0
 62
     0
100
AcDbLine
 10
20.34610559449166
 20
7.122221643666478
 30
0.0
 11
21.74610559449164
 21
8.522221643666483
 31
0.0
  0
LINE
  5
2712
330
25E9
100
AcDbEntity
  8
0
 62
     0
100
AcDbLine
 10
22.79610559449165
 20
9.572221643666466
 30
0.0
 11
24.84888391218152
 21
11.62499996135636
 31
0.0
  0
LINE
  5
2713
330
25E9
100
AcDbEntity
  8
0
 62
     0
100
AcDbLine
 10
17.63277239073721
 20
4.408888439912061
 30
0.0
 11
18.69677239073726
 21
5.472888439912082
 31
0.0
  0
LINE
  5
2714
330
25E9
100
AcDbEntity
  8
0
 62
     0
100
AcDbLine
 10
20.34610559449163
 20
7.571234449719952
 30
0.0
 11
21.74610559449164
 21
8.971234449719929
 31
0.0
  0
LINE
  5
2715
330
25E9
100
AcDbEntity
  8
0
 62
     0
100
AcDbLine
 10
22.79610559449168
 20
10.02123444971997
 30
0.0
 11
24.39987110612808
 21
11.62499996135636
 31
0.0
  0
LINE
  5
2716
330
25E9
100
AcDbEntity
  8
0
 62
     0
100
AcDbLine
 10
17.52500931728434
 20
4.750138172512663
 30
0.0
 11
18.58900931728442
 21
5.814138172512713
 31
0.0
  0
LINE
  5
2717
330
25E9
100
AcDbEntity
  8
0
 62
     0
100
AcDbLine
 10
20.34610559449163
 20
8.020247255773398
 30
0.0
 11
21.74610559449161
 21
9.420247255773404
 31
0.0
  0
LINE
  5
2718
330
25E9
100
AcDbEntity
  8
0
 62
     0
100
AcDbLine
 10
17.41724624383152
 20
5.091387905113322
 30
0.0
 11
18.48124624383158
 21
6.155387905113343
 31
0.0
  0
LINE
  5
2719
330
25E9
100
AcDbEntity
  8
0
 62
     0
100
AcDbLine
 10
22.82276392955225
 20
10.49690559083404
 30
0.0
 11
23.92419996501391
 21
11.5983416262957
 31
0.0
  0
LINE
  5
271A
330
25E9
100
AcDbEntity
  8
0
 62
     0
100
AcDbLine
 10
15.90085830007459
 20
3.574999961356354
 30
0.0
 11
16.32110559449162
 21
3.995247255773421
 31
0.0
  0
LINE
  5
271B
330
25E9
100
AcDbEntity
  8
0
 62
     0
100
AcDbLine
 10
17.30948317037874
 20
5.432637637713924
 30
0.0
 11
18.3734831703787
 21
6.496637637713917
 31
0.0
  0
LINE
  5
271C
330
25E9
100
AcDbEntity
  8
0
 62
     0
100
AcDbLine
 10
20.34610559449163
 20
8.469260061826844
 30
0.0
 11
21.74610559449164
 21
9.869260061826821
 31
0.0
  0
LINE
  5
271D
330
25E9
100
AcDbEntity
  8
0
 62
     0
100
AcDbLine
 10
15.45184549402114
 20
3.574999961356354
 30
0.0
 11
16.32110559449165
 21
4.444260061826867
 31
0.0
  0
LINE
  5
271E
330
25E9
100
AcDbEntity
  8
0
 62
     0
100
AcDbLine
 10
17.20172009692589
 20
5.773887370314554
 30
0.0
 11
18.26572009692592
 21
6.837887370314604
 31
0.0
  0
LINE
  5
271F
330
25E9
100
AcDbEntity
  8
0
 62
     0
100
AcDbLine
 10
20.34610559449163
 20
8.918272867880318
 30
0.0
 11
21.74610559449161
 21
10.31827286788029
 31
0.0
  0
LINE
  5
2720
330
25E9
100
AcDbEntity
  8
0
 62
     0
100
AcDbLine
 10
15.04340756179329
 20
3.615574835181973
 30
0.0
 11
16.32110559449165
 21
4.893272867880313
 31
0.0
  0
LINE
  5
2721
330
25E9
100
AcDbEntity
  8
0
 62
     0
100
AcDbLine
 10
17.09395702347299
 20
6.115137102915156
 30
0.0
 11
18.15795702347307
 21
7.179137102915234
 31
0.0
  0
LINE
  5
2722
330
25E9
100
AcDbEntity
  8
0
 62
     0
100
AcDbLine
 10
20.34610559449163
 20
9.367285673933764
 30
0.0
 11
21.74610559449161
 21
10.76728567393377
 31
0.0
  0
LINE
  5
2723
330
25E9
100
AcDbEntity
  8
0
 62
     0
100
AcDbLine
 10
14.92110559449159
 20
3.942285673933753
 30
0.0
 11
16.32110559449162
 21
5.342285673933787
 31
0.0
  0
LINE
  5
2724
330
25E9
100
AcDbEntity
  8
0
 62
     0
100
AcDbLine
 10
16.98619395002024
 20
6.456386835515786
 30
0.0
 11
18.05019395002026
 21
7.520386835515836
 31
0.0
  0
LINE
  5
2725
330
25E9
100
AcDbEntity
  8
0
 62
     0
100
AcDbLine
 10
20.34610559449163
 20
9.81629847998721
 30
0.0
 11
21.74610559449161
 21
11.21629847998719
 31
0.0
  0
LINE
  5
2726
330
25E9
100
AcDbEntity
  8
0
 62
     0
100
AcDbLine
 10
14.92110559449162
 20
4.391298479987199
 30
0.0
 11
16.32110559449165
 21
5.791298479987204
 31
0.0
  0
LINE
  5
2727
330
25E9
100
AcDbEntity
  8
0
 62
     0
100
AcDbLine
 10
16.86879455653437
 20
6.78800024808342
 30
0.0
 11
18.18394159049981
 21
8.103147282048865
 31
0.0
  0
LINE
  5
2728
330
25E9
100
AcDbEntity
  8
0
 62
     0
100
AcDbLine
 10
20.34610559449166
 20
10.26531128604071
 30
0.0
 11
21.64796788324244
 21
11.56717357479147
 31
0.0
  0
LINE
  5
2729
330
25E9
100
AcDbEntity
  8
0
 62
     0
100
AcDbLine
 10
14.92110559449162
 20
4.840311286040645
 30
0.0
 11
16.32110559449162
 21
6.240311286040679
 31
0.0
  0
LINE
  5
272A
330
25E9
100
AcDbEntity
  8
0
 62
     0
100
AcDbLine
 10
16.52520187160067
 20
6.893420369203198
 30
0.0
 11
18.39117827021678
 21
8.75939676781931
 31
0.0
  0
LINE
  5
272B
330
25E9
100
AcDbEntity
  8
0
 62
     0
100
AcDbLine
 10
14.92110559449159
 20
5.289324092094119
 30
0.0
 11
16.3276851866448
 21
6.695903684247298
 31
0.0
  0
LINE
  5
272C
330
25E9
100
AcDbEntity
  8
0
 62
     0
100
AcDbLine
 10
20.34610559449166
 20
10.71432409209416
 30
0.0
 11
21.25678146375384
 21
11.62499996135636
 31
0.0
  0
LINE
  5
272D
330
25E9
100
AcDbEntity
  8
0
 62
     0
100
AcDbLine
 10
13.20678146375383
 20
3.574999961356326
 30
0.0
 11
13.69610559449165
 21
4.064324092094182
 31
0.0
  0
LINE
  5
272E
330
25E9
100
AcDbEntity
  8
0
 62
     0
100
AcDbLine
 10
14.92110559449159
 20
5.738336898147565
 30
0.0
 11
18.59841494993375
 21
9.415646253589727
 31
0.0
  0
LINE
  5
272F
330
25E9
100
AcDbEntity
  8
0
 62
     0
100
AcDbLine
 10
20.34610559449163
 20
11.16333689814763
 30
0.0
 11
20.80776865770037
 21
11.62499996135636
 31
0.0
  0
LINE
  5
2730
330
25E9
100
AcDbEntity
  8
0
 62
     0
100
AcDbLine
 10
12.75776865770035
 20
3.574999961356354
 30
0.0
 11
13.69610559449165
 21
4.513336898147656
 31
0.0
  0
LINE
  5
2731
330
25E9
100
AcDbEntity
  8
0
 62
     0
100
AcDbLine
 10
14.92110559449159
 20
6.187349704201011
 30
0.0
 11
18.80565162965078
 21
10.07189573936017
 31
0.0
  0
LINE
  5
2732
330
25E9
100
AcDbEntity
  8
0
 62
     0
100
AcDbLine
 10
12.31459616382196
 20
3.580840273531379
 30
0.0
 11
13.62543845268857
 21
4.89168256239796
 31
0.0
  0
LINE
  5
2733
330
25E9
100
AcDbEntity
  8
0
 62
     0
100
AcDbLine
 10
14.92110559449159
 20
6.636362510254485
 30
0.0
 11
16.58474304559345
 21
8.299999961356348
 31
0.0
  0
LINE
  5
2734
330
25E9
100
AcDbEntity
  8
0
 62
     0
100
AcDbLine
 10
16.96673446321381
 20
8.681991378976704
 30
0.0
 11
19.01288830936778
 21
10.72814522513064
 31
0.0
  0
LINE
  5
2735
330
25E9
100
AcDbEntity
  8
0
 62
     0
100
AcDbLine
 10
11.93051590509847
 20
3.645772820861338
 30
0.0
 11
13.25974304559349
 21
4.97499996135636
 31
0.0
  0
LINE
  5
2736
330
25E9
100
AcDbEntity
  8
0
 62
     0
100
AcDbLine
 10
14.92110559449162
 20
7.085375316307988
 30
0.0
 11
16.33010087984579
 21
8.494370601662126
 31
0.0
  0
LINE
  5
2737
330
25E9
100
AcDbEntity
  8
0
 62
     0
100
AcDbLine
 10
17.17397114293078
 20
9.33824086474712
 30
0.0
 11
19.20042403526847
 21
11.36469375708483
 31
0.0
  0
LINE
  5
2738
330
25E9
100
AcDbEntity
  8
0
 62
     0
100
AcDbLine
 10
11.59994877668526
 20
3.764218498501634
 30
0.0
 11
12.81073023954002
 21
4.974999961356388
 31
0.0
  0
LINE
  5
2739
330
25E9
100
AcDbEntity
  8
0
 62
     0
100
AcDbLine
 10
14.92110559449165
 20
7.534388122361406
 30
0.0
 11
16.32110559449165
 21
8.93438812236144
 31
0.0
  0
LINE
  5
273A
330
25E9
100
AcDbEntity
  8
0
 62
     0
100
AcDbLine
 10
17.38120782264775
 20
9.994490350517537
 30
0.0
 11
19.00341809898387
 21
11.61670062685365
 31
0.0
  0
LINE
  5
273B
330
25E9
100
AcDbEntity
  8
0
 62
     0
100
AcDbLine
 10
11.31114713460312
 20
3.924429662472874
 30
0.0
 11
12.36917806384954
 21
4.98246059171933
 31
0.0
  0
LINE
  5
273C
330
25E9
100
AcDbEntity
  8
0
 62
     0
100
AcDbLine
 10
14.92110559449162
 20
7.98340092841488
 30
0.0
 11
16.32110559449165
 21
9.383400928414914
 31
0.0
  0
LINE
  5
273D
330
25E9
100
AcDbEntity
  8
0
 62
     0
100
AcDbLine
 10
17.58844450236475
 20
10.65073983628801
 30
0.0
 11
18.5627046274331
 21
11.62499996135636
 31
0.0
  0
LINE
  5
273E
330
25E9
100
AcDbEntity
  8
0
 62
     0
100
AcDbLine
 10
11.05866965141209
 20
4.120964985335319
 30
0.0
 11
12.05201999334039
 21
5.114315327263625
 31
0.0
  0
LINE
  5
273F
330
25E9
100
AcDbEntity
  8
0
 62
     0
100
AcDbLine
 10
14.92110559449162
 20
8.432413734468326
 30
0.0
 11
16.32110559449165
 21
9.83241373446836
 31
0.0
  0
LINE
  5
2740
330
25E9
100
AcDbEntity
  8
0
 62
     0
100
AcDbLine
 10
13.25192266037987
 20
6.763230800356609
 30
0.0
 11
13.83287475549141
 21
7.344182895468151
 31
0.0
  0
LINE
  5
2741
330
25E9
100
AcDbEntity
  8
0
 62
     0
100
AcDbLine
 10
17.79568118208172
 20
11.30698932205845
 30
0.0
 11
18.11369182137966
 21
11.62499996135639
 31
0.0
  0
LINE
  5
2742
330
25E9
100
AcDbEntity
  8
0
 62
     0
100
AcDbLine
 10
10.84045111474717
 20
4.351759254723901
 30
0.0
 11
11.8468945177043
 21
5.358202657681033
 31
0.0
  0
LINE
  5
2743
330
25E9
100
AcDbEntity
  8
0
 62
     0
100
AcDbLine
 10
12.78943623956496
 20
6.749757185595171
 30
0.0
 11
13.84634837025285
 21
7.806669316283034
 31
0.0
  0
LINE
  5
2744
330
25E9
100
AcDbEntity
  8
0
 62
     0
100
AcDbLine
 10
14.92110559449159
 20
8.8814265405218
 30
0.0
 11
16.32110559449162
 21
10.28142654052183
 31
0.0
  0
LINE
  5
2745
330
25E9
100
AcDbEntity
  8
0
 62
     0
100
AcDbLine
 10
10.65694150227568
 20
4.617262448305865
 30
0.0
 11
11.77110559449164
 21
5.731426540521852
 31
0.0
  0
LINE
  5
2746
330
25E9
100
AcDbEntity
  8
0
 62
     0
100
AcDbLine
 10
12.48236295485486
 20
6.891696706938461
 30
0.0
 11
13.70440884890953
 21
8.113742600993163
 31
0.0
  0
LINE
  5
2747
330
25E9
100
AcDbEntity
  8
0
 62
     0
100
AcDbLine
 10
14.92110559449162
 20
9.330439346575246
 30
0.0
 11
16.32110559449165
 21
10.73043934657525
 31
0.0
  0
LINE
  5
2748
330
25E9
100
AcDbEntity
  8
0
 62
     0
100
AcDbLine
 10
10.51128274731331
 20
4.920616499396942
 30
0.0
 11
11.77110559449164
 21
6.180439346575269
 31
0.0
  0
LINE
  5
2749
330
25E9
100
AcDbEntity
  8
0
 62
     0
100
AcDbLine
 10
12.26338299136
 20
7.121729549497104
 30
0.0
 11
13.47437600635092
 21
8.332722564487994
 31
0.0
  0
LINE
  5
274A
330
25E9
100
AcDbEntity
  8
0
 62
     0
100
AcDbLine
 10
14.92110559449162
 20
9.779452152628692
 30
0.0
 11
16.32110559449162
 21
11.17945215262873
 31
0.0
  0
LINE
  5
274B
330
25E9
100
AcDbEntity
  8
0
 62
     0
100
AcDbLine
 10
10.41071406522599
 20
5.269060623363088
 30
0.0
 11
11.77110559449164
 21
6.629452152628743
 31
0.0
  0
LINE
  5
274C
330
25E9
100
AcDbEntity
  8
0
 62
     0
100
AcDbLine
 10
12.13535762515582
 20
7.442716989346365
 30
0.0
 11
13.15338856650163
 21
8.460747930692207
 31
0.0
  0
LINE
  5
274D
330
25E9
100
AcDbEntity
  8
0
 62
     0
100
AcDbLine
 10
10.37110559449155
 20
5.678464958682127
 30
0.0
 11
11.77110559449164
 21
7.078464958682189
 31
0.0
  0
LINE
  5
274E
330
25E9
100
AcDbEntity
  8
0
 62
     0
100
AcDbLine
 10
14.92110559449159
 20
10.22846495868217
 30
0.0
 11
16.24248054031409
 21
11.54983990450466
 31
0.0
  0
LINE
  5
274F
330
25E9
100
AcDbEntity
  8
0
 62
     0
100
AcDbLine
 10
8.328107215553814
 20
3.635466579744388
 30
0.0
 11
9.260638976103678
 21
4.567998340294252
 31
0.0
  0
LINE
  5
2750
330
25E9
100
AcDbEntity
  8
0
 62
     0
100
AcDbLine
 10
12.19456416689621
 20
7.950936337140205
 30
0.0
 11
12.64516921870782
 21
8.401541388951812
 31
0.0
  0
LINE
  5
2751
330
25E9
100
AcDbEntity
  8
0
 62
     0
100
AcDbLine
 10
10.37110559449158
 20
6.127477764735573
 30
0.0
 11
11.77110559449164
 21
7.527477764735635
 31
0.0
  0
LINE
  5
2752
330
25E9
100
AcDbEntity
  8
0
 62
     0
100
AcDbLine
 10
14.92110559449162
 20
10.67747776473558
 30
0.0
 11
15.8686277911124
 21
11.62499996135639
 31
0.0
  0
LINE
  5
2753
330
25E9
100
AcDbEntity
  8
0
 62
     0
100
AcDbLine
 10
7.818627791112334
 20
3.574999961356326
 30
0.0
 11
9.321105594491655
 21
5.077477764735647
 31
0.0
  0
LINE
  5
2754
330
25E9
100
AcDbEntity
  8
0
 62
     0
100
AcDbLine
 10
10.37110559449161
 20
6.576490570789076
 30
0.0
 11
11.77110559449164
 21
7.97649057078911
 31
0.0
  0
LINE
  5
2755
330
25E9
100
AcDbEntity
  8
0
 62
     0
100
AcDbLine
 10
14.92110559449159
 20
11.12649057078906
 30
0.0
 11
15.4196149850589
 21
11.62499996135636
 31
0.0
  0
LINE
  5
2756
330
25E9
100
AcDbEntity
  8
0
 62
     0
100
AcDbLine
 10
7.369614985058888
 20
3.574999961356326
 30
0.0
 11
9.321105594491655
 21
5.526490570789121
 31
0.0
  0
LINE
  5
2757
330
25E9
100
AcDbEntity
  8
0
 62
     0
100
AcDbLine
 10
10.37110559449161
 20
7.025503376842522
 30
0.0
 11
11.77110559449161
 21
8.425503376842556
 31
0.0
  0
LINE
  5
2758
330
25E9
100
AcDbEntity
  8
0
 62
     0
100
AcDbLine
 10
6.920602179005413
 20
3.574999961356354
 30
0.0
 11
9.31913591821106
 21
5.973533700562001
 31
0.0
  0
LINE
  5
2759
330
25E9
100
AcDbEntity
  8
0
 62
     0
100
AcDbLine
 10
10.37110559449161
 20
7.474516182895996
 30
0.0
 11
11.77110559449164
 21
8.87451618289603
 31
0.0
  0
LINE
  5
275A
330
25E9
100
AcDbEntity
  8
0
 62
     0
100
AcDbLine
 10
13.121589372952
 20
10.22499996135639
 30
0.0
 11
13.69610559449168
 21
10.79951618289604
 31
0.0
  0
LINE
  5
275B
330
25E9
100
AcDbEntity
  8
0
 62
     0
100
AcDbLine
 10
6.471589372951967
 20
3.574999961356354
 30
0.0
 11
9.264305000050399
 21
6.367715588454785
 31
0.0
  0
LINE
  5
275C
330
25E9
100
AcDbEntity
  8
0
 62
     0
100
AcDbLine
 10
10.37110559449161
 20
7.923528988949442
 30
0.0
 11
11.77110559449164
 21
9.323528988949448
 31
0.0
  0
LINE
  5
275D
330
25E9
100
AcDbEntity
  8
0
 62
     0
100
AcDbLine
 10
7.921105594491621
 20
5.473528988949453
 30
0.0
 11
9.153135628028337
 21
6.70555902248617
 31
0.0
  0
LINE
  5
275E
330
25E9
100
AcDbEntity
  8
0
 62
     0
100
AcDbLine
 10
12.6725765668985
 20
10.22499996135633
 30
0.0
 11
13.69610559449165
 21
11.24852898894949
 31
0.0
  0
LINE
  5
275F
330
25E9
100
AcDbEntity
  8
0
 62
     0
100
AcDbLine
 10
6.051439504528474
 20
3.603862898986307
 30
0.0
 11
7.422576566898499
 21
4.974999961356331
 31
0.0
  0
LINE
  5
2760
330
25E9
100
AcDbEntity
  8
0
 62
     0
100
AcDbLine
 10
10.37110559449158
 20
8.372541795002888
 30
0.0
 11
11.85401294738148
 21
9.855449147892784
 31
0.0
  0
LINE
  5
2761
330
25E9
100
AcDbEntity
  8
0
 62
     0
100
AcDbLine
 10
7.92002604868702
 20
5.921462249198299
 30
0.0
 11
8.998919860692325
 21
7.000356061203632
 31
0.0
  0
LINE
  5
2762
330
25E9
100
AcDbEntity
  8
0
 62
     0
100
AcDbLine
 10
12.14065640795525
 20
10.14209260846655
 30
0.0
 11
13.57937188703175
 21
11.58080808754303
 31
0.0
  0
LINE
  5
2763
330
25E9
100
AcDbEntity
  8
0
 62
     0
100
AcDbLine
 10
5.908605594491604
 20
3.910041795002911
 30
0.0
 11
6.973563760845081
 21
4.974999961356388
 31
0.0
  0
LINE
  5
2764
330
25E9
100
AcDbEntity
  8
0
 62
     0
100
AcDbLine
 10
7.810224538936665
 20
6.260673545501447
 30
0.0
 11
8.807798878272876
 21
7.258247884837658
 31
0.0
  0
LINE
  5
2765
330
25E9
100
AcDbEntity
  8
0
 62
     0
100
AcDbLine
 10
10.37110559449158
 20
8.821554601056362
 30
0.0
 11
13.17455095479161
 21
11.62499996135639
 31
0.0
  0
LINE
  5
2766
330
25E9
100
AcDbEntity
  8
0
 62
     0
100
AcDbLine
 10
5.908605594491604
 20
4.359054601056385
 30
0.0
 11
6.524550954791578
 21
4.97499996135636
 31
0.0
  0
LINE
  5
2767
330
25E9
100
AcDbEntity
  8
0
 62
     0
100
AcDbLine
 10
7.597097124784312
 20
6.496558937402511
 30
0.0
 11
8.587046618445498
 21
7.486508431063697
 31
0.0
  0
LINE
  5
2768
330
25E9
100
AcDbEntity
  8
0
 62
     0
100
AcDbLine
 10
10.37110559449161
 20
9.27056740710978
 30
0.0
 11
12.72553814873808
 21
11.62499996135628
 31
0.0
  0
LINE
  5
2769
330
25E9
100
AcDbEntity
  8
0
 62
     0
100
AcDbLine
 10
5.943081555501521
 20
4.84254336811972
 30
0.0
 11
6.041062187728329
 21
4.940524000346528
 31
0.0
  0
LINE
  5
276A
330
25E9
100
AcDbEntity
  8
0
 62
     0
100
AcDbLine
 10
10.3810931515699
 20
9.729567770241544
 30
0.0
 11
12.2665377856064
 21
11.61501240427807
 31
0.0
  0
LINE
  5
276B
330
25E9
100
AcDbEntity
  8
0
 62
     0
100
AcDbLine
 10
7.372590721757518
 20
6.721065340429191
 30
0.0
 11
8.362540215418761
 21
7.711014834090434
 31
0.0
  0
LINE
  5
276C
330
25E9
100
AcDbEntity
  8
0
 62
     0
100
AcDbLine
 10
10.53082486770279
 20
10.32831229242794
 30
0.0
 11
11.66779326342004
 21
11.46528068814518
 31
0.0
  0
LINE
  5
276D
330
25E9
100
AcDbEntity
  8
0
 62
     0
100
AcDbLine
 10
7.148084318730781
 20
6.945571743455928
 30
0.0
 11
8.138033812392023
 21
7.935521237117171
 31
0.0
  0
LINE
  5
276E
330
25E9
100
AcDbEntity
  8
0
 62
     0
100
AcDbLine
 10
6.923577915704157
 20
7.170078146482723
 30
0.0
 11
7.913527409365286
 21
8.160027640143823
 31
0.0
  0
LINE
  5
276F
330
25E9
100
AcDbEntity
  8
0
 62
     0
100
AcDbLine
 10
6.69907151267742
 20
7.39458454950946
 30
0.0
 11
7.689021006338549
 21
8.38453404317056
 31
0.0
  0
LINE
  5
2770
330
25E9
100
AcDbEntity
  8
0
 62
     0
100
AcDbLine
 10
6.474565109650598
 20
7.619090952536112
 30
0.0
 11
7.464514603311812
 21
8.609040446197298
 31
0.0
  0
LINE
  5
2771
330
25E9
100
AcDbEntity
  8
0
 62
     0
100
AcDbLine
 10
8.6314613124174
 20
10.22499996135639
 30
0.0
 11
9.058605594491581
 21
10.65214424343057
 31
0.0
  0
LINE
  5
2772
330
25E9
100
AcDbEntity
  8
0
 62
     0
100
AcDbLine
 10
6.250100363637983
 20
7.843639012576971
 30
0.0
 11
7.24013318535421
 21
8.833671834293198
 31
0.0
  0
LINE
  5
2773
330
25E9
100
AcDbEntity
  8
0
 62
     0
100
AcDbLine
 10
8.182448506363925
 20
10.22499996135633
 30
0.0
 11
9.058605594491638
 21
11.10115704948404
 31
0.0
  0
LINE
  5
2774
330
25E9
100
AcDbEntity
  8
0
 62
     0
100
AcDbLine
 10
6.044366401362196
 20
8.086917856354574
 30
0.0
 11
7.075184744710242
 21
9.117736199702648
 31
0.0
  0
LINE
  5
2775
330
25E9
100
AcDbEntity
  8
0
 62
     0
100
AcDbLine
 10
7.733435700310508
 20
10.22499996135636
 30
0.0
 11
9.015326144611066
 21
11.50689040565694
 31
0.0
  0
LINE
  5
2776
330
25E9
100
AcDbEntity
  8
0
 62
     0
100
AcDbLine
 10
5.874136098230962
 20
8.365700359276814
 30
0.0
 11
7.046105594491621
 21
9.537669855537501
 31
0.0
  0
LINE
  5
2777
330
25E9
100
AcDbEntity
  8
0
 62
     0
100
AcDbLine
 10
7.283189569671947
 20
10.22376663677127
 30
0.0
 11
8.684422894257039
 21
11.62499996135636
 31
0.0
  0
LINE
  5
2778
330
25E9
100
AcDbEntity
  8
0
 62
     0
100
AcDbLine
 10
5.743789450364914
 20
8.684366517464241
 30
0.0
 11
7.047338919076707
 21
9.987915986176062
 31
0.0
  0
LINE
  5
2779
330
25E9
100
AcDbEntity
  8
0
 62
     0
100
AcDbLine
 10
5.662883469240881
 20
9.052473342393653
 30
0.0
 11
8.235410088203593
 21
11.62499996135636
 31
0.0
  0
LINE
  5
277A
330
25E9
100
AcDbEntity
  8
0
 62
     0
100
AcDbLine
 10
5.646105594491643
 20
9.484708273697862
 30
0.0
 11
7.786397282150119
 21
11.62499996135636
 31
0.0
  0
LINE
  5
277B
330
25E9
100
AcDbEntity
  8
0
 62
     0
100
AcDbLine
 10
5.646105594491615
 20
9.933721079751336
 30
0.0
 11
7.337384476096673
 21
11.62499996135636
 31
0.0
  0
LINE
  5
277C
330
25E9
100
AcDbEntity
  8
0
 62
     0
100
AcDbLine
 10
5.656201599710783
 20
10.39282989102395
 30
0.0
 11
6.878275664824087
 21
11.61490395613725
 31
0.0
  0
ENDBLK
  5
277E
330
25E9
100
AcDbEntity
  8
0
100
AcDbBlockEnd
  0
BLOCK
  5
2BEB
330
2BE1
100
AcDbEntity
  8
0
100
AcDbBlockBegin
  2
*D9
 70
     1
 10
0.0
 20
0.0
 30
0.0
  3
*D9
  1

  0
LINE
  5
2E71
330
2BE1
100
AcDbEntity
  8
SUNPOU
100
AcDbLine
 10
277.3304259644988
 20
186.9716283746616
 30
0.0
 11
277.3304259644988
 21
168.5022246885526
 31
0.0
  0
LINE
  5
2E72
330
2BE1
100
AcDbEntity
  8
SUNPOU
100
AcDbLine
 10
267.3304259644988
 20
179.4716283746698
 30
0.0
 11
267.3304259644988
 21
168.5022246885526
 31
0.0
  0
LINE
  5
2E73
330
2BE1
100
AcDbEntity
  8
SUNPOU
100
AcDbLine
 10
274.3304259644988
 20
170.0022246885526
 30
0.0
 11
270.3304259644988
 21
170.0022246885526
 31
0.0
  0
INSERT
  5
2E74
330
2BE1
100
AcDbEntity
  8
SUNPOU
100
AcDbBlockReference
  2
_OPEN
 10
277.3304259644988
 20
170.0022246885526
 30
0.0
 41
3.0
 42
3.0
 43
3.0
  0
INSERT
  5
2E75
330
2BE1
100
AcDbEntity
  8
SUNPOU
100
AcDbBlockReference
  2
_OPEN
 10
267.3304259644988
 20
170.0022246885526
 30
0.0
 41
3.0
 42
3.0
 43
3.0
 50
180.0
  0
MTEXT
  5
2E76
330
2BE1
100
AcDbEntity
  8
SUNPOU
100
AcDbMText
 10
272.3304259644988
 20
173.0022246885526
 30
0.0
 40
3.0
 41
0.0
 71
     5
 72
     5
  1
\A1;10
 73
     1
 44
1.0
1001
ACAD
1000
MTEXTBEGIN
1070
    73
1070
     1
1070
    44
1040
1.0
1070
    74
1070
     0
1000
MTEXTEND
  0
POINT
  5
2E77
330
2BE1
100
AcDbEntity
  8
DEFPOINTS
 62
     0
100
AcDbPoint
 10
277.3304259644988
 20
188.4716283746616
 30
0.0
  0
POINT
  5
2E78
330
2BE1
100
AcDbEntity
  8
DEFPOINTS
 62
     0
100
AcDbPoint
 10
267.3304259644988
 20
180.9716283746698
 30
0.0
  0
POINT
  5
2E79
330
2BE1
100
AcDbEntity
  8
DEFPOINTS
 62
     0
100
AcDbPoint
 10
267.3304259644988
 20
170.0022246885526
 30
0.0
  0
ENDBLK
  5
2BEC
330
2BE1
100
AcDbEntity
  8
0
100
AcDbBlockEnd
  0
BLOCK
  5
2BF8
330
2BEE
100
AcDbEntity
  8
0
100
AcDbBlockBegin
  2
*D10
 70
     1
 10
0.0
 20
0.0
 30
0.0
  3
*D10
  1

  0
LINE
  5
2E7A
330
2BEE
100
AcDbEntity
  8
SUNPOU
100
AcDbLine
 10
267.3304259644988
 20
179.4716283746698
 30
0.0
 11
267.3304259644988
 21
168.5022246885526
 31
0.0
  0
LINE
  5
2E7B
330
2BEE
100
AcDbEntity
  8
SUNPOU
100
AcDbLine
 10
247.3304259644988
 20
179.4716283746722
 30
0.0
 11
247.3304259644988
 21
168.5022246885526
 31
0.0
  0
LINE
  5
2E7C
330
2BEE
100
AcDbEntity
  8
SUNPOU
100
AcDbLine
 10
264.3304259644988
 20
170.0022246885526
 30
0.0
 11
250.3304259644988
 21
170.0022246885526
 31
0.0
  0
INSERT
  5
2E7D
330
2BEE
100
AcDbEntity
  8
SUNPOU
100
AcDbBlockReference
  2
_OPEN
 10
267.3304259644988
 20
170.0022246885526
 30
0.0
 41
3.0
 42
3.0
 43
3.0
  0
INSERT
  5
2E7E
330
2BEE
100
AcDbEntity
  8
SUNPOU
100
AcDbBlockReference
  2
_OPEN
 10
247.3304259644988
 20
170.0022246885526
 30
0.0
 41
3.0
 42
3.0
 43
3.0
 50
180.0
  0
MTEXT
  5
2E7F
330
2BEE
100
AcDbEntity
  8
SUNPOU
100
AcDbMText
 10
257.3304259644988
 20
173.0022246885526
 30
0.0
 40
3.0
 41
0.0
 71
     5
 72
     5
  1
\A1;20
 73
     1
 44
1.0
1001
ACAD
1000
MTEXTBEGIN
1070
    73
1070
     1
1070
    44
1040
1.0
1070
    74
1070
     0
1000
MTEXTEND
  0
POINT
  5
2E80
330
2BEE
100
AcDbEntity
  8
DEFPOINTS
 62
     0
100
AcDbPoint
 10
267.3304259644988
 20
180.9716283746698
 30
0.0
  0
POINT
  5
2E81
330
2BEE
100
AcDbEntity
  8
DEFPOINTS
 62
     0
100
AcDbPoint
 10
247.3304259644988
 20
180.9716283746722
 30
0.0
  0
POINT
  5
2E82
330
2BEE
100
AcDbEntity
  8
DEFPOINTS
 62
     0
100
AcDbPoint
 10
247.3304259644988
 20
170.0022246885526
 30
0.0
  0
ENDBLK
  5
2BF9
330
2BEE
100
AcDbEntity
  8
0
100
AcDbBlockEnd
  0
BLOCK
  5
2E57
330
2E4D
100
AcDbEntity
  8
0
100
AcDbBlockBegin
  2
*D11
 70
     1
 10
0.0
 20
0.0
 30
0.0
  3
*D11
  1

  0
LINE
  5
2E97
330
2E4D
100
AcDbEntity
  8
SUNPOU
100
AcDbLine
 10
277.3304259644988
 20
186.9716283746616
 30
0.0
 11
277.3304259644988
 21
111.6208164357562
 31
0.0
  0
LINE
  5
2E98
330
2E4D
100
AcDbEntity
  8
SUNPOU
100
AcDbLine
 10
118.1741874729519
 20
191.0181808799578
 30
0.0
 11
118.1741874729519
 21
111.6208164357562
 31
0.0
  0
LINE
  5
2E99
330
2E4D
100
AcDbEntity
  8
SUNPOU
100
AcDbLine
 10
274.3304259644988
 20
113.1208164357561
 30
0.0
 11
121.1741874729519
 21
113.1208164357561
 31
0.0
  0
INSERT
  5
2E9A
330
2E4D
100
AcDbEntity
  8
SUNPOU
100
AcDbBlockReference
  2
_OPEN
 10
277.3304259644988
 20
113.1208164357561
 30
0.0
 41
3.0
 42
3.0
 43
3.0
  0
INSERT
  5
2E9B
330
2E4D
100
AcDbEntity
  8
SUNPOU
100
AcDbBlockReference
  2
_OPEN
 10
118.1741874729519
 20
113.1208164357561
 30
0.0
 41
3.0
 42
3.0
 43
3.0
 50
180.0
  0
MTEXT
  5
2E9C
330
2E4D
100
AcDbEntity
  8
SUNPOU
100
AcDbMText
 10
197.7523067187254
 20
116.1208164357562
 30
0.0
 40
3.0
 41
0.0
 71
     5
 72
     5
  1
\A1;159
 73
     1
 44
1.0
1001
ACAD
1000
MTEXTBEGIN
1070
    73
1070
     1
1070
    44
1040
1.0
1070
    74
1070
     0
1000
MTEXTEND
  0
POINT
  5
2E9D
330
2E4D
100
AcDbEntity
  8
DEFPOINTS
 62
     0
100
AcDbPoint
 10
277.3304259644988
 20
188.4716283746616
 30
0.0
  0
POINT
  5
2E9E
330
2E4D
100
AcDbEntity
  8
DEFPOINTS
 62
     0
100
AcDbPoint
 10
118.1741874729519
 20
192.5181808799578
 30
0.0
  0
POINT
  5
2E9F
330
2E4D
100
AcDbEntity
  8
DEFPOINTS
 62
     0
100
AcDbPoint
 10
118.1741874729519
 20
113.1208164357561
 30
0.0
  0
ENDBLK
  5
2E58
330
2E4D
100
AcDbEntity
  8
0
100
AcDbBlockEnd
  0
ENDSEC
  0
SECTION
  2
ENTITIES
  0
LWPOLYLINE
  5
ABF
330
1A
100
AcDbEntity
  8
ZUWAKU
100
AcDbPolyline
 90
        4
 70
     1
 43
0.0
 10
0.3999995171010369
 20
275.3999999613564
 10
0.3999995171010369
 20
0.3999999613564
 10
398.399999517101
 20
0.3999999613564
 10
398.399999517101
 20
275.3999999613564
  0
LWPOLYLINE
  5
AC0
330
1A
100
AcDbEntity
  8
ZUWAKU
100
AcDbPolyline
 90
        4
 70
     1
 43
0.0
 10
0.1999995171010482
 20
275.5999999613564
 10
0.1999995171010482
 20
0.1999999613564114
 10
398.5999995171011
 20
0.1999999613563998
 10
398.5999995171011
 20
275.5999999613564
  0
LWPOLYLINE
  5
AC1
330
1A
100
AcDbEntity
  8
ZUWAKU
100
AcDbPolyline
 90
        4
 70
     1
 43
0.0
 10
-0.0000004828989404
 20
275.7999999613564
 10
-0.0000004828989404
 20
-0.0000000386436341
 10
398.7999995171011
 20
-0.0000000386436003
 10
398.7999995171011
 20
275.7999999613564
  0
LWPOLYLINE
  5
AC2
330
1A
100
AcDbEntity
  8
ZUWAKU
100
AcDbPolyline
 90
        4
 70
     1
 43
0.0
 10
0.2999995171010141
 20
275.4999999613564
 10
0.2999995171010141
 20
0.2999999613563773
 10
398.4999995171012
 20
0.2999999613564004
 10
398.4999995171011
 20
275.4999999613564
  0
LWPOLYLINE
  5
AC3
330
1A
100
AcDbEntity
  8
ZUWAKU
100
AcDbPolyline
 90
        4
 70
     1
 43
0.0
 10
0.0999995171010255
 20
275.6999999613564
 10
0.0999995171010255
 20
0.0999999613563887
 10
398.699999517101
 20
0.0999999613564002
 10
398.6999995171011
 20
275.6999999613564
  0
LINE
  5
AC4
330
1A
100
AcDbEntity
  8
ZUWAKU
100
AcDbLine
 10
-0.0000004828989404
 20
14.99999996135636
 30
0.0
 11
398.699999517101
 21
14.99999996135636
 31
0.0
  0
LINE
  5
AC5
330
1A
100
AcDbEntity
  8
ZUWAKU
100
AcDbLine
 10
-0.0000004828989404
 20
15.09999996135636
 30
0.0
 11
398.699999517101
 21
15.09999996135636
 31
0.0
  0
LINE
  5
AC6
330
1A
100
AcDbEntity
  8
ZUWAKU
100
AcDbLine
 10
-0.0000004828989404
 20
15.19999996135637
 30
0.0
 11
398.699999517101
 21
15.19999996135637
 31
0.0
  0
LINE
  5
AC7
330
1A
100
AcDbEntity
  8
ZUWAKU
100
AcDbLine
 10
-0.0000004828989404
 20
15.29999996135637
 30
0.0
 11
398.699999517101
 21
15.29999996135637
 31
0.0
  0
LINE
  5
AC8
330
1A
100
AcDbEntity
  8
ZUWAKU
100
AcDbLine
 10
-0.0000004828989404
 20
15.39999996135637
 30
0.0
 11
398.699999517101
 21
15.39999996135637
 31
0.0
  0
LINE
  5
AC9
330
1A
100
AcDbEntity
  8
ZUWAKU
100
AcDbLine
 10
104.323300162135
 20
7.699999961356382
 30
0.0
 11
223.7121815025968
 21
7.699999961356382
 31
0.0
  0
LINE
  5
ACA
330
1A
100
AcDbEntity
  8
ZUWAKU
100
AcDbLine
 10
104.323300162135
 20
7.799999961356382
 30
0.0
 11
223.7121815025968
 21
7.799999961356386
 31
0.0
  0
LINE
  5
ACB
330
1A
100
AcDbEntity
  8
ZUWAKU
100
AcDbLine
 10
104.323300162135
 20
7.599999961356385
 30
0.0
 11
223.7121815025968
 21
7.599999961356381
 31
0.0
  0
TEXT
  5
ACC
330
1A
100
AcDbEntity
  8
moji
100
AcDbText
 10
46.47889431118563
 20
6.370589026493746
 30
0.0
 40
3.0
  1
大型たてとい
  7
ｽﾀｲﾙ1
100
AcDbText
  0
CIRCLE
  5
ACD
330
1A
100
AcDbEntity
  8
ZUWAKU
100
AcDbCircle
 10
12.99610559449161
 20
7.599999961356367
 30
0.0
 40
0.875
  0
LINE
  5
ACE
330
1A
100
AcDbEntity
  8
ZUWAKU
100
AcDbLine
 10
13.43360559449161
 20
3.574999961356368
 30
0.0
 11
12.47110559449163
 21
3.574999961356368
 31
0.0
  0
LINE
  5
ACF
330
1A
100
AcDbEntity
  8
ZUWAKU
100
AcDbLine
 10
12.47110559449163
 20
4.974999961356367
 30
0.0
 11
13.43360559449161
 21
4.974999961356367
 31
0.0
  0
LINE
  5
AD0
330
1A
100
AcDbEntity
  8
ZUWAKU
100
AcDbLine
 10
13.43360559449161
 20
10.22499996135636
 30
0.0
 11
12.47110559449163
 21
10.22499996135636
 31
0.0
  0
LINE
  5
AD1
330
1A
100
AcDbEntity
  8
ZUWAKU
100
AcDbLine
 10
12.47110559449163
 20
11.62499996135635
 30
0.0
 11
13.43360559449161
 21
11.62499996135637
 31
0.0
  0
INSERT
  5
AD2
330
1A
100
AcDbEntity
  8
ZUWAKU
  6
Continuous
100
AcDbBlockReference
  2
*X8
 10
0.0
 20
0.0
 30
0.0
1001
ACAD
1000
HATCH
1002
{
1070
    19
1000
ANSI37
1040
0.1
1040
0.0
1000
R14_HATCH_DATA
1000
AD2
1011
1.0
1021
0.0
1031
0.0
1011
0.0
1021
1.0
1031
0.0
1011
0.0
1021
0.0
1031
1.0
1040
0.0
1010
0.0
1020
0.0
1030
1.0
1000
ANSI37
1070
     0
1070
     0
1071
        8
1071
        7
1070
     1
1070
     1
1071
       24
1040
7.251130847660988
1040
8.822424201848157
1040
-0.1989123673796348
1040
7.046105594491621
1040
9.317398948678683
1040
0.0
1040
7.046105594491621
1040
9.962499961356371
1040
-0.4142135623730912
1040
7.308605594491609
1040
10.22499996135636
1040
0.0
1040
8.796105594491564
1040
10.22499996135636
1040
0.4142135623731546
1040
9.058605594491609
1040
10.48749996135636
1040
0.0
1040
9.058605594491609
1040
11.36249996135637
1040
0.4142135623731586
1040
8.796105594491564
1040
11.62499996135637
1040
0.0
1040
7.046105594491621
1040
11.62499996135637
1040
0.4142135623730928
1040
5.646105594491643
1040
10.22499996135638
1040
0.0
1040
5.646105594491643
1040
9.317398948678746
1040
0.1989123673796619
1040
6.261181353999859
1040
7.832474708186943
1040
0.0
1040
7.716080341322197
1040
6.377575720864614
1040
-0.1989123673796613
1040
7.921105594491621
1040
5.882600974034021
1040
0.0
1040
7.921105594491621
1040
5.237499961356363
1040
-0.4142135623730911
1040
7.658605594491632
1040
4.974999961356367
1040
0.0
1040
6.171105594491677
1040
4.974999961356367
1040
0.4142135623731526
1040
5.908605594491632
1040
4.712499961356373
1040
0.0
1040
5.908605594491632
1040
3.837499961356362
1040
0.4142135623731526
1040
6.171105594491677
1040
3.574999961356368
1040
0.0
1040
7.921105594491621
1040
3.574999961356368
1040
0.4142135623731044
1040
9.321105594491655
1040
4.974999961356356
1040
0.0
1040
9.321105594491655
1040
5.882600974033993
1040
0.1989123673796604
1040
8.706029834983382
1040
7.367525214525763
1040
0.0
1071
        0
1071
        7
1070
     1
1070
     1
1071
       16
1040
11.77110559449164
1040
9.524999961356371
1040
-0.4142135623730935
1040
12.47110559449163
1040
10.22499996135636
1040
0.0
1040
13.43360559449161
1040
10.22499996135636
1040
0.4142135623731546
1040
13.69610559449165
1040
10.48749996135636
1040
0.0
1040
13.69610559449165
1040
11.36249996135637
1040
0.4142135623730951
1040
13.43360559449166
1040
11.62499996135637
1040
0.0
1040
12.47110559449157
1040
11.62499996135635
1040
0.4142135623730892
1040
10.37110559449161
1040
9.524999961356336
1040
0.0
1040
10.37110559449161
1040
5.67499996135638
1040
0.4142135623730969
1040
12.47110559449163
1040
3.574999961356368
1040
0.0
1040
13.43360559449161
1040
3.574999961356368
1040
0.4142135623731526
1040
13.69610559449165
1040
3.837499961356362
1040
0.0
1040
13.69610559449165
1040
4.712499961356373
1040
0.4142135623730891
1040
13.43360559449166
1040
4.974999961356367
1040
0.0
1040
12.47110559449163
1040
4.974999961356367
1040
-0.4142135623730928
1040
11.77110559449164
1040
5.674999961356361
1040
0.0
1071
        0
1071
        7
1070
     1
1070
     1
1071
        2
1040
12.12110559449161
1040
7.599999961356367
1040
1.0
1040
13.87110559449161
1040
7.599999961356367
1040
1.0
1071
        0
1071
        7
1070
     1
1070
     1
1071
       26
1040
18.65742883558062
1040
9.602523558138081
1040
0.0
1040
19.18824865214952
1040
11.28345297727287
1040
0.5069206636600134
1040
18.93793320255184
1040
11.62499996135637
1040
0.0
1040
18.08848851274723
1040
11.62499996135637
1040
0.3272098845218764
1040
17.83817306314955
1040
11.44154694543985
1040
0.0
1040
16.90403812583366
1040
8.483452977272907
1040
-0.3272098845219541
1040
16.65372267623593
1040
8.299999961356366
1040
0.0
1040
16.5836055944917
1040
8.299999961356366
1040
-0.4142135623731526
1040
16.32110559449165
1040
8.56249996135636
1040
0.0
1040
16.32110559449165
1040
11.36249996135637
1040
0.4142135623730951
1040
16.05860559449167
1040
11.62499996135637
1040
0.0
1040
15.18360559449161
1040
11.62499996135637
1040
0.4142135623730871
1040
14.92110559449162
1040
11.36249996135638
1040
0.0
1040
14.92110559449162
1040
3.837499961356362
1040
0.4142135623730891
1040
15.18360559449161
1040
3.574999961356368
1040
0.0
1040
16.05860559449161
1040
3.574999961356368
1040
0.4142135623731526
1040
16.32110559449165
1040
3.837499961356362
1040
0.0
1040
16.32110559449165
1040
6.637499961356374
1040
-0.4142135623731526
1040
16.5836055944917
1040
6.899999961356368
1040
0.0
1040
16.65372267623598
1040
6.899999961356368
1040
-0.3272098845218915
1040
16.90403812583366
1040
6.71654694543983
1040
0.0
1040
17.83817306314955
1040
3.758452977272904
1040
0.3272098845218902
1040
18.08848851274723
1040
3.574999961356368
1040
0.0
1040
18.93793320255184
1040
3.574999961356368
1040
0.5069206636600335
1040
19.18824865214952
1040
3.916546945439872
1040
0.0
1040
18.02505296291269
1040
7.599999961356436
1040
0.0
1071
        0
1071
        7
1070
     1
1070
     1
1071
        8
1040
21.74610559449161
1040
11.36249996135637
1040
0.4142135623731546
1040
21.48360559449157
1040
11.62499996135637
1040
0.0
1040
20.60860559449168
1040
11.62499996135637
1040
0.4142135623731507
1040
20.34610559449163
1040
11.36249996135638
1040
0.0
1040
20.34610559449163
1040
3.837499961356362
1040
0.4142135623731526
1040
20.60860559449168
1040
3.574999961356368
1040
0.0
1040
21.48360559449157
1040
3.574999961356368
1040
0.4142135623731526
1040
21.74610559449161
1040
3.837499961356362
1040
0.0
1071
        0
1071
        7
1070
     1
1070
     1
1071
       24
1040
24.19610559449166
1040
9.962499961356371
1040
-0.4142135623731546
1040
24.4586055944917
1040
10.22499996135636
1040
0.0
1040
25.94610559449165
1040
10.22499996135636
1040
0.4142135623730911
1040
26.20860559449165
1040
10.48749996135636
1040
0.0
1040
26.20860559449165
1040
11.36249996135637
1040
0.4142135623730952
1040
25.94610559449165
1040
11.62499996135637
1040
0.0
1040
24.19610559449166
1040
11.62499996135637
1040
0.4142135623731048
1040
22.79610559449162
1040
10.22499996135638
1040
0.0
1040
22.79610559449162
1040
9.317398948678746
1040
0.1989123673796613
1040
23.41118135399989
1040
7.832474708186971
1040
0.0
1040
24.86608034132223
1040
6.377575720864637
1040
-0.1989123673796402
1040
25.07110559449166
1040
5.882600974034101
1040
0.0
1040
25.07110559449166
1040
5.237499961356363
1040
-0.4142135623730911
1040
24.80860559449167
1040
4.974999961356367
1040
0.0
1040
23.32110559449166
1040
4.974999961356367
1040
0.4142135623731526
1040
23.05860559449161
1040
4.712499961356373
1040
0.0
1040
23.05860559449161
1040
3.837499961356362
1040
0.4142135623730891
1040
23.3211055944916
1040
3.574999961356368
1040
0.0
1040
25.07110559449166
1040
3.574999961356368
1040
0.4142135623730925
1040
26.47110559449163
1040
4.974999961356356
1040
0.0
1040
26.47110559449163
1040
5.882600974033993
1040
0.1989123673796675
1040
25.85602983498336
1040
7.367525214525819
1040
0.0
1040
24.40113084766108
1040
8.822424201848077
1040
-0.1989123673796652
1040
24.19610559449166
1040
9.317398948678661
1040
0.0
1071
        0
1071
        7
1070
     1
1070
     1
1071
       16
1040
28.92110559449162
1040
11.36249996135636
1040
0.414213562373103
1040
28.65860559449163
1040
11.62499996135637
1040
0.0
1040
27.78360559449164
1040
11.62499996135637
1040
0.4142135623730871
1040
27.52110559449164
1040
11.36249996135638
1040
0.0
1040
27.52110559449164
1040
4.974999961356356
1040
0.4142135623730926
1040
28.92110559449162
1040
3.574999961356368
1040
0.0
1040
30.67110559449162
1040
3.574999961356368
1040
0.4142135623731044
1040
32.07110559449166
1040
4.974999961356356
1040
0.0
1040
32.07110559449166
1040
11.36249996135637
1040
0.4142135623730951
1040
31.80860559449167
1040
11.62499996135637
1040
0.0
1040
30.93360559449161
1040
11.62499996135637
1040
0.4142135623730871
1040
30.67110559449162
1040
11.36249996135638
1040
0.0
1040
30.67110559449162
1040
5.499999961356355
1040
-0.414213562373088
1040
30.14610559449165
1040
4.974999961356367
1040
0.0
1040
29.44610559449166
1040
4.974999961356367
1040
-0.4142135623731197
1040
28.92110559449162
1040
5.499999961356355
1040
0.0
1071
        0
1071
        7
1070
     1
1070
     1
1071
        8
1040
34.52110559449165
1040
11.36249996135638
1040
0.4142135623730871
1040
34.25860559449166
1040
11.62499996135637
1040
0.0
1040
33.38360559449166
1040
11.62499996135637
1040
0.4142135623731507
1040
33.12110559449161
1040
11.36249996135638
1040
0.0
1040
33.12110559449161
1040
3.837499961356362
1040
0.4142135623730891
1040
33.3836055944916
1040
3.574999961356368
1040
0.0
1040
34.25860559449166
1040
3.574999961356368
1040
0.4142135623730891
1040
34.52110559449165
1040
3.837499961356362
1040
0.0
1071
        0
1070
     0
1070
     1
1040
0.0
1040
0.1
1070
     0
1070
     2
1040
0.7853981633974483
1040
-450.4711526502384
1040
-6.600000038643599
1040
-0.2245064030267288
1040
0.2245064030267288
1070
     0
1040
2.356194490192344
1040
-450.4711526502384
1040
-6.600000038643599
1040
-0.2245064030267288
1040
-0.2245064030267288
1070
     0
1040
0.057451373970553
1071
        8
1040
8.039926998612713
1040
7.583586784299143
1040
0.0
1040
11.20225702032064
1040
9.422031052581871
1040
0.0
1040
12.58218345993089
1040
7.755940784391725
1040
0.0
1040
15.45702950791963
1040
8.100648784577117
1040
0.0
1040
20.91923552657943
1040
8.330454918347925
1040
0.0
1040
23.44909996466583
1040
9.709288119559971
1040
0.0
1040
28.27884250330124
1040
9.364578918903873
1040
0.0
1040
33.91353932691243
1040
9.594385052674681
1040
0.0
1002
}
  0
ARC
  5
AD3
330
1A
100
AcDbEntity
  8
ZUWAKU
100
AcDbCircle
 10
7.746105594491609
 20
9.317398948678718
 30
0.0
 40
2.099999999999999
100
AcDbArc
 50
180.0
 51
225.0
  0
LINE
  5
AD4
330
1A
100
AcDbEntity
  8
ZUWAKU
100
AcDbLine
 10
10.37110559449161
 20
5.67499996135637
 30
0.0
 11
10.37110559449161
 21
9.524999961356346
 31
0.0
  0
LINE
  5
AD5
330
1A
100
AcDbEntity
  8
ZUWAKU
100
AcDbLine
 10
11.77110559449164
 20
9.524999961356368
 30
0.0
 11
11.77110559449164
 21
5.67499996135637
 31
0.0
  0
ARC
  5
AD6
330
1A
100
AcDbEntity
  8
ZUWAKU
100
AcDbCircle
 10
7.746105594491609
 20
9.317398948678718
 30
0.0
 40
0.7
100
AcDbArc
 50
180.0000000000016
 51
224.9999999999988
  0
ARC
  5
AD7
330
1A
100
AcDbEntity
  8
ZUWAKU
100
AcDbCircle
 10
12.47110559449163
 20
5.67499996135637
 30
0.0
 40
2.099999999999999
100
AcDbArc
 50
180.0
 51
270.0
  0
ARC
  5
AD8
330
1A
100
AcDbEntity
  8
ZUWAKU
100
AcDbCircle
 10
7.921105594491621
 20
4.974999961356367
 30
0.0
 40
1.399999999999999
100
AcDbArc
 50
270.0
 51
0.0
  0
ARC
  5
AD9
330
1A
100
AcDbEntity
  8
ZUWAKU
100
AcDbCircle
 10
7.221105594491632
 20
5.882600974034019
 30
0.0
 40
2.099999999999999
100
AcDbArc
 50
0.0
 51
45.0
  0
LINE
  5
ADA
330
1A
100
AcDbEntity
  8
ZUWAKU
100
AcDbLine
 10
6.261181353999859
 20
7.832474708186957
 30
0.0
 11
7.716080341322197
 21
6.377575720864626
 31
0.0
  0
LINE
  5
ADB
330
1A
100
AcDbEntity
  8
ZUWAKU
100
AcDbLine
 10
6.171105594491621
 20
4.974999961356367
 30
0.0
 11
7.658605594491632
 21
4.974999961356367
 31
0.0
  0
LINE
  5
ADC
330
1A
100
AcDbEntity
  8
ZUWAKU
100
AcDbLine
 10
6.171105594491621
 20
3.574999961356368
 30
0.0
 11
7.921105594491621
 21
3.574999961356368
 31
0.0
  0
ARC
  5
ADD
330
1A
100
AcDbEntity
  8
ZUWAKU
100
AcDbCircle
 10
6.171105594491621
 20
4.712499961356368
 30
0.0
 40
0.2625
100
AcDbArc
 50
90.0
 51
180.0
  0
ARC
  5
ADE
330
1A
100
AcDbEntity
  8
ZUWAKU
100
AcDbCircle
 10
6.171105594491621
 20
3.837499961356368
 30
0.0
 40
0.2625
100
AcDbArc
 50
180.0
 51
270.0
  0
LINE
  5
ADF
330
1A
100
AcDbEntity
  8
ZUWAKU
100
AcDbLine
 10
5.908605594491632
 20
3.837499961356368
 30
0.0
 11
5.908605594491632
 21
4.712499961356368
 31
0.0
  0
ARC
  5
AE0
330
1A
100
AcDbEntity
  8
ZUWAKU
100
AcDbCircle
 10
7.221105594491632
 20
5.882600974034041
 30
0.0
 40
0.7
100
AcDbArc
 50
0.0
 51
45.0
  0
ARC
  5
AE1
330
1A
100
AcDbEntity
  8
ZUWAKU
100
AcDbCircle
 10
7.658605594491632
 20
5.23749996135637
 30
0.0
 40
0.2625
100
AcDbArc
 50
270.0
 51
0.0
  0
LINE
  5
AE2
330
1A
100
AcDbEntity
  8
ZUWAKU
100
AcDbLine
 10
7.921105594491621
 20
5.23749996135637
 30
0.0
 11
7.921105594491621
 21
5.882600974034041
 31
0.0
  0
LINE
  5
AE3
330
1A
100
AcDbEntity
  8
ZUWAKU
100
AcDbLine
 10
8.706029834983382
 20
7.36752521452578
 30
0.0
 11
7.251130847661045
 21
8.822424201848118
 31
0.0
  0
ARC
  5
AE4
330
1A
100
AcDbEntity
  8
ZUWAKU
100
AcDbCircle
 10
12.47110559449163
 20
5.67499996135637
 30
0.0
 40
0.7
100
AcDbArc
 50
180.0
 51
270.0
  0
LINE
  5
AE5
330
1A
100
AcDbEntity
  8
ZUWAKU
100
AcDbLine
 10
9.321105594491655
 20
4.974999961356367
 30
0.0
 11
9.321105594491655
 21
5.882600974034041
 31
0.0
  0
ARC
  5
AE6
330
1A
100
AcDbEntity
  8
ZUWAKU
100
AcDbCircle
 10
8.796105594491621
 20
10.48749996135637
 30
0.0
 40
0.2625
100
AcDbArc
 50
270.0
 51
0.0
  0
ARC
  5
AE7
330
1A
100
AcDbEntity
  8
ZUWAKU
100
AcDbCircle
 10
8.796105594491621
 20
11.36249996135636
 30
0.0
 40
0.2625
100
AcDbArc
 50
0.0
 51
90.0
  0
ARC
  5
AE8
330
1A
100
AcDbEntity
  8
ZUWAKU
100
AcDbCircle
 10
7.046105594491621
 20
10.22499996135636
 30
0.0
 40
1.399999999999999
100
AcDbArc
 50
90.0
 51
180.0
  0
LINE
  5
AE9
330
1A
100
AcDbEntity
  8
ZUWAKU
100
AcDbLine
 10
5.646105594491643
 20
10.22499996135636
 30
0.0
 11
5.646105594491643
 21
9.317398948678697
 31
0.0
  0
LINE
  5
AEA
330
1A
100
AcDbEntity
  8
ZUWAKU
100
AcDbLine
 10
8.796105594491621
 20
10.22499996135636
 30
0.0
 11
7.308605594491609
 21
10.22499996135636
 31
0.0
  0
LINE
  5
AEB
330
1A
100
AcDbEntity
  8
ZUWAKU
100
AcDbLine
 10
7.046105594491621
 20
9.962499961356368
 30
0.0
 11
7.046105594491621
 21
9.317398948678697
 31
0.0
  0
ARC
  5
AEC
330
1A
100
AcDbEntity
  8
ZUWAKU
100
AcDbCircle
 10
7.308605594491609
 20
9.962499961356368
 30
0.0
 40
0.2625
100
AcDbArc
 50
90.0
 51
180.0
  0
LINE
  5
AED
330
1A
100
AcDbEntity
  8
ZUWAKU
100
AcDbLine
 10
7.046105594491621
 20
11.62499996135637
 30
0.0
 11
8.796105594491621
 21
11.62499996135637
 31
0.0
  0
ARC
  5
AEE
330
1A
100
AcDbEntity
  8
ZUWAKU
100
AcDbCircle
 10
12.47110559449163
 20
9.524999961356346
 30
0.0
 40
2.099999999999999
100
AcDbArc
 50
90.0
 51
180.0
  0
ARC
  5
AEF
330
1A
100
AcDbEntity
  8
ZUWAKU
100
AcDbCircle
 10
12.47110559449163
 20
9.524999961356368
 30
0.0
 40
0.7
100
AcDbArc
 50
90.0
 51
180.0
  0
LINE
  5
AF0
330
1A
100
AcDbEntity
  8
ZUWAKU
100
AcDbLine
 10
9.058605594491609
 20
11.36249996135636
 30
0.0
 11
9.058605594491609
 21
10.48749996135637
 31
0.0
  0
LINE
  5
AF1
330
1A
100
AcDbEntity
  8
ZUWAKU
100
AcDbLine
 10
17.83817306314955
 20
11.44154694543985
 30
0.0
 11
16.90403812583366
 21
8.483452977272882
 31
0.0
  0
LINE
  5
AF2
330
1A
100
AcDbEntity
  8
ZUWAKU
100
AcDbLine
 10
14.92110559449162
 20
11.36249996135636
 30
0.0
 11
14.92110559449162
 21
3.837499961356368
 31
0.0
  0
LINE
  5
AF3
330
1A
100
AcDbEntity
  8
ZUWAKU
100
AcDbLine
 10
16.32110559449165
 20
8.562499961356369
 30
0.0
 11
16.32110559449165
 21
11.36249996135636
 31
0.0
  0
LINE
  5
AF4
330
1A
100
AcDbEntity
  8
ZUWAKU
100
AcDbLine
 10
28.92110559449162
 20
5.499999961356365
 30
0.0
 11
28.92110559449162
 21
11.36249996135636
 31
0.0
  0
LINE
  5
AF5
330
1A
100
AcDbEntity
  8
ZUWAKU
100
AcDbLine
 10
27.52110559449164
 20
11.36249996135636
 30
0.0
 11
27.52110559449164
 21
4.974999961356367
 31
0.0
  0
LINE
  5
AF6
330
1A
100
AcDbEntity
  8
ZUWAKU
100
AcDbLine
 10
21.74610559449161
 20
3.837499961356368
 30
0.0
 11
21.74610559449161
 21
11.36249996135636
 31
0.0
  0
LINE
  5
AF7
330
1A
100
AcDbEntity
  8
ZUWAKU
100
AcDbLine
 10
20.34610559449163
 20
11.36249996135636
 30
0.0
 11
20.34610559449163
 21
3.837499961356368
 31
0.0
  0
LINE
  5
AF8
330
1A
100
AcDbEntity
  8
ZUWAKU
100
AcDbLine
 10
18.65742883558062
 20
9.602523558138081
 30
0.0
 11
18.02505296291269
 21
7.599999961356378
 31
0.0
  0
ARC
  5
AF9
330
1A
100
AcDbEntity
  8
ZUWAKU
100
AcDbCircle
 10
24.89610559449165
 20
9.317398948678718
 30
0.0
 40
2.099999999999999
100
AcDbArc
 50
180.0
 51
225.0
  0
ARC
  5
AFA
330
1A
100
AcDbEntity
  8
ZUWAKU
100
AcDbCircle
 10
24.89610559449165
 20
9.317398948678718
 30
0.0
 40
0.7
100
AcDbArc
 50
180.0000000000016
 51
224.9999999999988
  0
LINE
  5
AFB
330
1A
100
AcDbEntity
  8
ZUWAKU
100
AcDbLine
 10
33.12110559449161
 20
11.36249996135636
 30
0.0
 11
33.12110559449161
 21
3.837499961356368
 31
0.0
  0
LINE
  5
AFC
330
1A
100
AcDbEntity
  8
ZUWAKU
100
AcDbLine
 10
34.52110559449165
 20
3.837499961356368
 30
0.0
 11
34.52110559449165
 21
11.36249996135636
 31
0.0
  0
LINE
  5
AFD
330
1A
100
AcDbEntity
  8
ZUWAKU
100
AcDbLine
 10
30.67110559449162
 20
11.36249996135636
 30
0.0
 11
30.67110559449162
 21
5.499999961356365
 31
0.0
  0
LINE
  5
AFE
330
1A
100
AcDbEntity
  8
ZUWAKU
100
AcDbLine
 10
32.07110559449166
 20
4.974999961356367
 30
0.0
 11
32.07110559449166
 21
11.36249996135636
 31
0.0
  0
LINE
  5
AFF
330
1A
100
AcDbEntity
  8
ZUWAKU
100
AcDbLine
 10
39.56331429109525
 20
14.99999996135636
 30
0.0
 11
39.56331429109525
 21
0.3999999613564
 31
0.0
  0
LINE
  5
B00
330
1A
100
AcDbEntity
  8
ZUWAKU
100
AcDbLine
 10
39.76331429109519
 20
14.99999996135636
 30
0.0
 11
39.7633142910953
 21
0.3999999613564
 31
0.0
  0
LINE
  5
B01
330
1A
100
AcDbEntity
  8
ZUWAKU
100
AcDbLine
 10
39.66331429109516
 20
14.99999996135636
 30
0.0
 11
39.66331429109528
 21
0.3999999613564
 31
0.0
  0
LINE
  5
B02
330
1A
100
AcDbEntity
  8
ZUWAKU
100
AcDbLine
 10
28.92110559449162
 20
3.574999961356368
 30
0.0
 11
30.67110559449162
 21
3.574999961356368
 31
0.0
  0
LINE
  5
B03
330
1A
100
AcDbEntity
  8
ZUWAKU
100
AcDbLine
 10
30.14610559449165
 20
4.974999961356367
 30
0.0
 11
29.44610559449166
 21
4.974999961356367
 31
0.0
  0
LINE
  5
B04
330
1A
100
AcDbEntity
  8
ZUWAKU
100
AcDbLine
 10
20.60860559449162
 20
3.574999961356368
 30
0.0
 11
21.48360559449162
 21
3.574999961356368
 31
0.0
  0
LINE
  5
B05
330
1A
100
AcDbEntity
  8
ZUWAKU
100
AcDbLine
 10
17.83817306314955
 20
3.758452977272881
 30
0.0
 11
16.90403812583366
 21
6.716546945439851
 31
0.0
  0
ARC
  5
B06
330
1A
100
AcDbEntity
  8
ZUWAKU
100
AcDbCircle
 10
16.58360559449164
 20
6.637499961356368
 30
0.0
 40
0.2625
100
AcDbArc
 50
90.0
 51
180.0
  0
ARC
  5
B07
330
1A
100
AcDbEntity
  8
ZUWAKU
100
AcDbCircle
 10
16.65372267623598
 20
6.637499961356368
 30
0.0
 40
0.2625
100
AcDbArc
 50
17.52556837372303
 51
90.0
  0
ARC
  5
B08
330
1A
100
AcDbEntity
  8
ZUWAKU
100
AcDbCircle
 10
15.18360559449161
 20
3.837499961356368
 30
0.0
 40
0.2625
100
AcDbArc
 50
180.0
 51
270.0
  0
ARC
  5
B09
330
1A
100
AcDbEntity
  8
ZUWAKU
100
AcDbCircle
 10
13.43360559449161
 20
4.712499961356368
 30
0.0
 40
0.2625
100
AcDbArc
 50
0.0
 51
90.0
  0
ARC
  5
B0A
330
1A
100
AcDbEntity
  8
ZUWAKU
100
AcDbCircle
 10
13.43360559449161
 20
3.837499961356368
 30
0.0
 40
0.2625
100
AcDbArc
 50
270.0
 51
0.0
  0
LINE
  5
B0B
330
1A
100
AcDbEntity
  8
ZUWAKU
100
AcDbLine
 10
13.69610559449165
 20
4.712499961356368
 30
0.0
 11
13.69610559449165
 21
3.837499961356368
 31
0.0
  0
LINE
  5
B0C
330
1A
100
AcDbEntity
  8
ZUWAKU
100
AcDbLine
 10
16.32110559449165
 20
3.837499961356368
 30
0.0
 11
16.32110559449165
 21
6.637499961356368
 31
0.0
  0
ARC
  5
B0D
330
1A
100
AcDbEntity
  8
ZUWAKU
100
AcDbCircle
 10
16.05860559449161
 20
3.837499961356368
 30
0.0
 40
0.2625
100
AcDbArc
 50
270.0
 51
0.0
  0
LINE
  5
B0E
330
1A
100
AcDbEntity
  8
ZUWAKU
100
AcDbLine
 10
15.18360559449161
 20
3.574999961356368
 30
0.0
 11
16.05860559449161
 21
3.574999961356368
 31
0.0
  0
ARC
  5
B0F
330
1A
100
AcDbEntity
  8
ZUWAKU
100
AcDbCircle
 10
16.58360559449164
 20
8.562499961356369
 30
0.0
 40
0.2625
100
AcDbArc
 50
180.0
 51
270.0
  0
LINE
  5
B10
330
1A
100
AcDbEntity
  8
ZUWAKU
100
AcDbLine
 10
16.58360559449164
 20
6.899999961356368
 30
0.0
 11
16.65372267623598
 21
6.899999961356368
 31
0.0
  0
LINE
  5
B11
330
1A
100
AcDbEntity
  8
ZUWAKU
100
AcDbLine
 10
16.65372267623598
 20
8.299999961356366
 30
0.0
 11
16.58360559449164
 21
8.299999961356366
 31
0.0
  0
ARC
  5
B12
330
1A
100
AcDbEntity
  8
ZUWAKU
100
AcDbCircle
 10
16.65372267623598
 20
8.562499961356369
 30
0.0
 40
0.2625
100
AcDbArc
 50
270.0
 51
342.474431626277
  0
ARC
  5
B13
330
1A
100
AcDbEntity
  8
ZUWAKU
100
AcDbCircle
 10
18.08848851274729
 20
3.837499961356368
 30
0.0
 40
0.2625
100
AcDbArc
 50
197.525568373723
 51
270.0
  0
LINE
  5
B14
330
1A
100
AcDbEntity
  8
ZUWAKU
100
AcDbLine
 10
19.18824865214952
 20
3.916546945439854
 30
0.0
 11
18.02505296291269
 21
7.599999961356378
 31
0.0
  0
ARC
  5
B15
330
1A
100
AcDbEntity
  8
ZUWAKU
100
AcDbCircle
 10
18.93793320255179
 20
3.837499961356368
 30
0.0
 40
0.2625
100
AcDbArc
 50
270.0
 51
17.52556837372303
  0
LINE
  5
B16
330
1A
100
AcDbEntity
  8
ZUWAKU
100
AcDbLine
 10
18.08848851274729
 20
3.574999961356368
 30
0.0
 11
18.93793320255179
 21
3.574999961356368
 31
0.0
  0
ARC
  5
B17
330
1A
100
AcDbEntity
  8
ZUWAKU
100
AcDbCircle
 10
20.60860559449162
 20
3.837499961356368
 30
0.0
 40
0.2625
100
AcDbArc
 50
180.0
 51
270.0
  0
ARC
  5
B18
330
1A
100
AcDbEntity
  8
ZUWAKU
100
AcDbCircle
 10
25.07110559449166
 20
4.974999961356367
 30
0.0
 40
1.399999999999999
100
AcDbArc
 50
270.0
 51
0.0
  0
ARC
  5
B19
330
1A
100
AcDbEntity
  8
ZUWAKU
100
AcDbCircle
 10
28.92110559449162
 20
4.974999961356367
 30
0.0
 40
1.399999999999999
100
AcDbArc
 50
180.0
 51
270.0
  0
LINE
  5
B1A
330
1A
100
AcDbEntity
  8
ZUWAKU
100
AcDbLine
 10
25.85602983498342
 20
7.36752521452578
 30
0.0
 11
24.40113084766102
 21
8.822424201848118
 31
0.0
  0
LINE
  5
B1B
330
1A
100
AcDbEntity
  8
ZUWAKU
100
AcDbLine
 10
23.41118135399989
 20
7.832474708186957
 30
0.0
 11
24.86608034132223
 21
6.377575720864626
 31
0.0
  0
LINE
  5
B1C
330
1A
100
AcDbEntity
  8
ZUWAKU
100
AcDbLine
 10
23.32110559449166
 20
3.574999961356368
 30
0.0
 11
25.07110559449166
 21
3.574999961356368
 31
0.0
  0
LINE
  5
B1D
330
1A
100
AcDbEntity
  8
ZUWAKU
100
AcDbLine
 10
23.32110559449166
 20
4.974999961356367
 30
0.0
 11
24.80860559449161
 21
4.974999961356367
 31
0.0
  0
ARC
  5
B1E
330
1A
100
AcDbEntity
  8
ZUWAKU
100
AcDbCircle
 10
23.32110559449166
 20
4.712499961356368
 30
0.0
 40
0.2625
100
AcDbArc
 50
90.0
 51
180.0
  0
ARC
  5
B1F
330
1A
100
AcDbEntity
  8
ZUWAKU
100
AcDbCircle
 10
21.48360559449162
 20
3.837499961356368
 30
0.0
 40
0.2625
100
AcDbArc
 50
270.0
 51
0.0
  0
ARC
  5
B20
330
1A
100
AcDbEntity
  8
ZUWAKU
100
AcDbCircle
 10
23.32110559449166
 20
3.837499961356368
 30
0.0
 40
0.2625
100
AcDbArc
 50
180.0
 51
270.0
  0
LINE
  5
B21
330
1A
100
AcDbEntity
  8
ZUWAKU
100
AcDbLine
 10
23.05860559449161
 20
3.837499961356368
 30
0.0
 11
23.05860559449161
 21
4.712499961356368
 31
0.0
  0
ARC
  5
B22
330
1A
100
AcDbEntity
  8
ZUWAKU
100
AcDbCircle
 10
24.80860559449161
 20
5.23749996135637
 30
0.0
 40
0.2625
100
AcDbArc
 50
270.0
 51
0.0
  0
ARC
  5
B23
330
1A
100
AcDbEntity
  8
ZUWAKU
100
AcDbCircle
 10
24.37110559449161
 20
5.882600974034041
 30
0.0
 40
0.7
100
AcDbArc
 50
0.0
 51
45.0
  0
LINE
  5
B24
330
1A
100
AcDbEntity
  8
ZUWAKU
100
AcDbLine
 10
25.07110559449166
 20
5.23749996135637
 30
0.0
 11
25.07110559449166
 21
5.882600974034041
 31
0.0
  0
ARC
  5
B25
330
1A
100
AcDbEntity
  8
ZUWAKU
100
AcDbCircle
 10
29.44610559449166
 20
5.499999961356365
 30
0.0
 40
0.525
100
AcDbArc
 50
180.0
 51
270.0
  0
ARC
  5
B26
330
1A
100
AcDbEntity
  8
ZUWAKU
100
AcDbCircle
 10
24.37110559449161
 20
5.882600974034019
 30
0.0
 40
2.099999999999999
100
AcDbArc
 50
0.0
 51
45.0
  0
LINE
  5
B27
330
1A
100
AcDbEntity
  8
ZUWAKU
100
AcDbLine
 10
26.47110559449163
 20
4.974999961356367
 30
0.0
 11
26.47110559449163
 21
5.882600974034041
 31
0.0
  0
ARC
  5
B28
330
1A
100
AcDbEntity
  8
ZUWAKU
100
AcDbCircle
 10
30.67110559449162
 20
4.974999961356367
 30
0.0
 40
1.399999999999999
100
AcDbArc
 50
270.0
 51
0.0
  0
LINE
  5
B29
330
1A
100
AcDbEntity
  8
ZUWAKU
100
AcDbLine
 10
33.38360559449166
 20
3.574999961356368
 30
0.0
 11
34.25860559449166
 21
3.574999961356368
 31
0.0
  0
ARC
  5
B2A
330
1A
100
AcDbEntity
  8
ZUWAKU
100
AcDbCircle
 10
30.14610559449165
 20
5.499999961356365
 30
0.0
 40
0.525
100
AcDbArc
 50
270.0
 51
0.0
  0
ARC
  5
B2B
330
1A
100
AcDbEntity
  8
ZUWAKU
100
AcDbCircle
 10
33.38360559449166
 20
3.837499961356368
 30
0.0
 40
0.2625
100
AcDbArc
 50
180.0
 51
270.0
  0
ARC
  5
B2C
330
1A
100
AcDbEntity
  8
ZUWAKU
100
AcDbCircle
 10
34.25860559449166
 20
3.837499961356368
 30
0.0
 40
0.2625
100
AcDbArc
 50
270.0
 51
0.0
  0
LINE
  5
B2D
330
1A
100
AcDbEntity
  8
ZUWAKU
100
AcDbLine
 10
21.48360559449162
 20
11.62499996135637
 30
0.0
 11
20.60860559449162
 21
11.62499996135637
 31
0.0
  0
LINE
  5
B2E
330
1A
100
AcDbEntity
  8
ZUWAKU
100
AcDbLine
 10
13.69610559449165
 20
11.36249996135636
 30
0.0
 11
13.69610559449165
 21
10.48749996135637
 31
0.0
  0
ARC
  5
B2F
330
1A
100
AcDbEntity
  8
ZUWAKU
100
AcDbCircle
 10
13.43360559449161
 20
10.48749996135637
 30
0.0
 40
0.2625
100
AcDbArc
 50
270.0
 51
0.0
  0
ARC
  5
B30
330
1A
100
AcDbEntity
  8
ZUWAKU
100
AcDbCircle
 10
15.18360559449161
 20
11.36249996135636
 30
0.0
 40
0.2625
100
AcDbArc
 50
90.0
 51
180.0
  0
ARC
  5
B31
330
1A
100
AcDbEntity
  8
ZUWAKU
100
AcDbCircle
 10
13.43360559449161
 20
11.36249996135636
 30
0.0
 40
0.2625
100
AcDbArc
 50
0.0
 51
90.0
  0
LINE
  5
B32
330
1A
100
AcDbEntity
  8
ZUWAKU
100
AcDbLine
 10
16.05860559449161
 20
11.62499996135637
 30
0.0
 11
15.18360559449161
 21
11.62499996135637
 31
0.0
  0
ARC
  5
B33
330
1A
100
AcDbEntity
  8
ZUWAKU
100
AcDbCircle
 10
16.05860559449161
 20
11.36249996135636
 30
0.0
 40
0.2625
100
AcDbArc
 50
0.0
 51
90.0
  0
ARC
  5
B34
330
1A
100
AcDbEntity
  8
ZUWAKU
100
AcDbCircle
 10
18.08848851274729
 20
11.36249996135636
 30
0.0
 40
0.2625
100
AcDbArc
 50
90.0
 51
162.474431626277
  0
LINE
  5
B35
330
1A
100
AcDbEntity
  8
ZUWAKU
100
AcDbLine
 10
19.18824865214952
 20
11.28345297727288
 30
0.0
 11
18.65742883558062
 21
9.602523558138081
 31
0.0
  0
ARC
  5
B36
330
1A
100
AcDbEntity
  8
ZUWAKU
100
AcDbCircle
 10
18.93793320255179
 20
11.36249996135636
 30
0.0
 40
0.2625
100
AcDbArc
 50
342.474431626277
 51
90.0
  0
LINE
  5
B37
330
1A
100
AcDbEntity
  8
ZUWAKU
100
AcDbLine
 10
18.08848851274729
 20
11.62499996135637
 30
0.0
 11
18.93793320255179
 21
11.62499996135637
 31
0.0
  0
ARC
  5
B38
330
1A
100
AcDbEntity
  8
ZUWAKU
100
AcDbCircle
 10
20.60860559449162
 20
11.36249996135636
 30
0.0
 40
0.2625
100
AcDbArc
 50
90.0
 51
180.0
  0
LINE
  5
B39
330
1A
100
AcDbEntity
  8
ZUWAKU
100
AcDbLine
 10
25.94610559449165
 20
10.22499996135636
 30
0.0
 11
24.45860559449164
 21
10.22499996135636
 31
0.0
  0
LINE
  5
B3A
330
1A
100
AcDbEntity
  8
ZUWAKU
100
AcDbLine
 10
24.19610559449166
 20
11.62499996135637
 30
0.0
 11
25.94610559449165
 21
11.62499996135637
 31
0.0
  0
ARC
  5
B3B
330
1A
100
AcDbEntity
  8
ZUWAKU
100
AcDbCircle
 10
24.19610559449166
 20
10.22499996135636
 30
0.0
 40
1.399999999999999
100
AcDbArc
 50
90.0
 51
180.0
  0
LINE
  5
B3C
330
1A
100
AcDbEntity
  8
ZUWAKU
100
AcDbLine
 10
22.79610559449162
 20
10.22499996135636
 30
0.0
 11
22.79610559449162
 21
9.317398948678697
 31
0.0
  0
ARC
  5
B3D
330
1A
100
AcDbEntity
  8
ZUWAKU
100
AcDbCircle
 10
21.48360559449162
 20
11.36249996135636
 30
0.0
 40
0.2625
100
AcDbArc
 50
0.0
 51
90.0
  0
LINE
  5
B3E
330
1A
100
AcDbEntity
  8
ZUWAKU
100
AcDbLine
 10
24.19610559449166
 20
9.962499961356368
 30
0.0
 11
24.19610559449166
 21
9.317398948678697
 31
0.0
  0
ARC
  5
B3F
330
1A
100
AcDbEntity
  8
ZUWAKU
100
AcDbCircle
 10
24.45860559449164
 20
9.962499961356368
 30
0.0
 40
0.2625
100
AcDbArc
 50
90.0
 51
180.0
  0
LINE
  5
B40
330
1A
100
AcDbEntity
  8
ZUWAKU
100
AcDbLine
 10
26.20860559449165
 20
11.36249996135636
 30
0.0
 11
26.20860559449165
 21
10.48749996135637
 31
0.0
  0
ARC
  5
B41
330
1A
100
AcDbEntity
  8
ZUWAKU
100
AcDbCircle
 10
25.94610559449165
 20
10.48749996135637
 30
0.0
 40
0.2625
100
AcDbArc
 50
270.0
 51
0.0
  0
ARC
  5
B42
330
1A
100
AcDbEntity
  8
ZUWAKU
100
AcDbCircle
 10
25.94610559449165
 20
11.36249996135636
 30
0.0
 40
0.2625
100
AcDbArc
 50
0.0
 51
90.0
  0
LINE
  5
B43
330
1A
100
AcDbEntity
  8
ZUWAKU
100
AcDbLine
 10
28.65860559449163
 20
11.62499996135637
 30
0.0
 11
27.78360559449164
 21
11.62499996135637
 31
0.0
  0
ARC
  5
B44
330
1A
100
AcDbEntity
  8
ZUWAKU
100
AcDbCircle
 10
27.78360559449164
 20
11.36249996135636
 30
0.0
 40
0.2625
100
AcDbArc
 50
90.0
 51
180.0
  0
ARC
  5
B45
330
1A
100
AcDbEntity
  8
ZUWAKU
100
AcDbCircle
 10
28.65860559449163
 20
11.36249996135636
 30
0.0
 40
0.2625
100
AcDbArc
 50
0.0
 51
90.0
  0
LINE
  5
B46
330
1A
100
AcDbEntity
  8
ZUWAKU
100
AcDbLine
 10
34.25860559449166
 20
11.62499996135637
 30
0.0
 11
33.38360559449166
 21
11.62499996135637
 31
0.0
  0
ARC
  5
B47
330
1A
100
AcDbEntity
  8
ZUWAKU
100
AcDbCircle
 10
30.93360559449161
 20
11.36249996135636
 30
0.0
 40
0.2625
100
AcDbArc
 50
90.0
 51
180.0
  0
LINE
  5
B48
330
1A
100
AcDbEntity
  8
ZUWAKU
100
AcDbLine
 10
31.80860559449161
 20
11.62499996135637
 30
0.0
 11
30.93360559449161
 21
11.62499996135637
 31
0.0
  0
ARC
  5
B49
330
1A
100
AcDbEntity
  8
ZUWAKU
100
AcDbCircle
 10
31.80860559449161
 20
11.36249996135636
 30
0.0
 40
0.2625
100
AcDbArc
 50
0.0
 51
90.0
  0
ARC
  5
B4A
330
1A
100
AcDbEntity
  8
ZUWAKU
100
AcDbCircle
 10
33.38360559449166
 20
11.36249996135636
 30
0.0
 40
0.2625
100
AcDbArc
 50
90.0
 51
180.0
  0
ARC
  5
B4B
330
1A
100
AcDbEntity
  8
ZUWAKU
100
AcDbCircle
 10
34.25860559449166
 20
11.36249996135636
 30
0.0
 40
0.2625
100
AcDbArc
 50
0.0
 51
90.0
  0
LINE
  5
B4C
330
1A
100
AcDbEntity
  8
ZUWAKU
100
AcDbLine
 10
104.2233001621349
 20
14.99999996135636
 30
0.0
 11
104.223300162135
 21
0.3999999613564
 31
0.0
  0
LINE
  5
B4D
330
1A
100
AcDbEntity
  8
ZUWAKU
100
AcDbLine
 10
104.3233001621349
 20
14.99999996135636
 30
0.0
 11
104.323300162135
 21
0.3999999613564
 31
0.0
  0
LINE
  5
B4E
330
1A
100
AcDbEntity
  8
ZUWAKU
100
AcDbLine
 10
104.123300162135
 20
14.99999996135636
 30
0.0
 11
104.123300162135
 21
0.3999999613564
 31
0.0
  0
TEXT
  5
B4F
330
1A
100
AcDbEntity
  8
moji
100
AcDbText
 10
119.9136008575266
 20
9.002460490060059
 30
0.0
 40
2.799999999999999
  1
タテバンド
 41
0.9
  7
ｽﾀｲﾙ1
100
AcDbText
  0
TEXT
  5
B50
330
1A
100
AcDbEntity
  8
ZUWAKU
100
AcDbText
 10
104.8620226732398
 20
4.827678230549174
 30
0.0
 40
2.0
  1
サイズ
 41
0.9
  7
ｽﾀｲﾙ1
100
AcDbText
  0
TEXT
  5
B51
330
1A
100
AcDbEntity
  8
moji
100
AcDbText
 10
119.9136008575266
 20
1.602460490060076
 30
0.0
 40
2.799999999999999
  1
ＶＵＶＰ１００
 41
0.9
  7
ｽﾀｲﾙ1
100
AcDbText
  0
TEXT
  5
B52
330
1A
100
AcDbEntity
  8
ZUWAKU
100
AcDbText
 10
104.8620226732397
 20
12.02767823054915
 30
0.0
 40
2.0
  1
品名
 41
0.9
  7
ｽﾀｲﾙ1
100
AcDbText
  0
TEXT
  5
B53
330
1A
100
AcDbEntity
  8
ZUWAKU
100
AcDbText
 10
329.1019683607523
 20
9.002460490060059
 30
0.0
 40
2.799999999999999
  1
　　．　　．　　
 41
0.9
  7
ｽﾀｲﾙ1
100
AcDbText
  0
LINE
  5
B54
330
1A
100
AcDbEntity
  8
ZUWAKU
100
AcDbLine
 10
324.4086007722032
 20
7.799999961356382
 30
0.0
 11
348.6245047913717
 21
7.799999961356382
 31
0.0
  0
LINE
  5
B55
330
1A
100
AcDbEntity
  8
ZUWAKU
100
AcDbLine
 10
324.4086007722033
 20
7.699999961356384
 30
0.0
 11
348.6245047913717
 21
7.699999961356382
 31
0.0
  0
LINE
  5
B56
330
1A
100
AcDbEntity
  8
ZUWAKU
100
AcDbLine
 10
324.4086007722032
 20
7.599999961356381
 30
0.0
 11
348.6245047913717
 21
7.599999961356383
 31
0.0
  0
LINE
  5
B57
330
1A
100
AcDbEntity
  8
ZUWAKU
100
AcDbLine
 10
252.5995892661715
 20
7.799999961356382
 30
0.0
 11
276.2634774001573
 21
7.799999961356382
 31
0.0
  0
LINE
  5
B58
330
1A
100
AcDbEntity
  8
ZUWAKU
100
AcDbLine
 10
252.5995892661715
 20
7.699999961356382
 30
0.0
 11
276.2634774001573
 21
7.699999961356382
 31
0.0
  0
LINE
  5
B59
330
1A
100
AcDbEntity
  8
ZUWAKU
100
AcDbLine
 10
252.5995892661715
 20
7.599999961356385
 30
0.0
 11
276.2634774001573
 21
7.599999961356385
 31
0.0
  0
LINE
  5
B5A
330
1A
100
AcDbEntity
  8
ZUWAKU
100
AcDbLine
 10
252.3995892661716
 20
14.99999996135636
 30
0.0
 11
252.3995892661716
 21
0.3999999613564
 31
0.0
  0
LINE
  5
B5B
330
1A
100
AcDbEntity
  8
ZUWAKU
100
AcDbLine
 10
252.5995892661715
 20
14.99999996135636
 30
0.0
 11
252.5995892661716
 21
0.3999999613564
 31
0.0
  0
LINE
  5
B5C
330
1A
100
AcDbEntity
  8
ZUWAKU
100
AcDbLine
 10
252.4995892661715
 20
14.99999996135636
 30
0.0
 11
252.4995892661716
 21
0.3999999613564
 31
0.0
  0
TEXT
  5
B5D
330
1A
100
AcDbEntity
  8
moji
100
AcDbText
 10
264.0204535032575
 20
9.002460490060059
 30
0.0
 40
2.799999999999999
  1
Ａ３
 41
0.9
  7
ｽﾀｲﾙ1
100
AcDbText
  0
LINE
  5
B5E
330
1A
100
AcDbEntity
  8
ZUWAKU
100
AcDbLine
 10
223.7121815025968
 20
14.99999996135636
 30
0.0
 11
223.7121815025968
 21
0.3999999613564
 31
0.0
  0
LINE
  5
B5F
330
1A
100
AcDbEntity
  8
ZUWAKU
100
AcDbLine
 10
223.9121815025967
 20
14.99999996135636
 30
0.0
 11
223.9121815025968
 21
0.3999999613564
 31
0.0
  0
LINE
  5
B60
330
1A
100
AcDbEntity
  8
ZUWAKU
100
AcDbLine
 10
223.8121815025967
 20
14.99999996135636
 30
0.0
 11
223.8121815025968
 21
0.3999999613564
 31
0.0
  0
TEXT
  5
B61
330
1A
100
AcDbEntity
  8
moji
100
AcDbText
 10
232.66879987964
 20
5.971308822186358
 30
0.0
 40
2.799999999999999
  1
ＬＧ９３□
 41
0.9
  7
ｽﾀｲﾙ1
100
AcDbText
  0
TEXT
  5
B62
330
1A
100
AcDbEntity
  8
ZUWAKU
100
AcDbText
 10
231.3468803448547
 20
1.307035416926112
 30
0.0
 40
1.5
  1
□には色品番が入ります
 41
0.9
  7
ｽﾀｲﾙ1
100
AcDbText
  0
TEXT
  5
B63
330
1A
100
AcDbEntity
  8
ZUWAKU
100
AcDbText
 10
253.3383117772764
 20
4.827678230549174
 30
0.0
 40
2.0
  1
縮尺
 41
0.9
  7
ｽﾀｲﾙ1
100
AcDbText
  0
TEXT
  5
B64
330
1A
100
AcDbEntity
  8
moji
100
AcDbText
 10
264.0204535032575
 20
1.602460490060076
 30
0.0
 40
2.799999999999999
  1
１/１
 41
0.9
  7
ｽﾀｲﾙ1
100
AcDbText
  0
TEXT
  5
B65
330
1A
100
AcDbEntity
  8
ZUWAKU
100
AcDbText
 10
224.6509040137015
 20
12.02767823054915
 30
0.0
 40
2.0
  1
品番
 41
0.9
  7
ｽﾀｲﾙ1
100
AcDbText
  0
TEXT
  5
B66
330
1A
100
AcDbEntity
  8
ZUWAKU
100
AcDbText
 10
253.3383117772763
 20
12.02767823054915
 30
0.0
 40
2.0
  1
用紙
 41
0.9
  7
ｽﾀｲﾙ1
100
AcDbText
  0
LINE
  5
B67
330
1A
100
AcDbEntity
  8
ZUWAKU
100
AcDbLine
 10
276.2634774001573
 20
14.99999996135636
 30
0.0
 11
276.2634774001573
 21
0.3999999613564
 31
0.0
  0
LINE
  5
B68
330
1A
100
AcDbEntity
  8
ZUWAKU
100
AcDbLine
 10
276.4634774001572
 20
14.99999996135636
 30
0.0
 11
276.4634774001573
 21
0.3999999613564
 31
0.0
  0
LINE
  5
B69
330
1A
100
AcDbEntity
  8
ZUWAKU
100
AcDbLine
 10
276.3634774001572
 20
14.99999996135636
 30
0.0
 11
276.3634774001573
 21
0.3999999613564
 31
0.0
  0
LINE
  5
B6A
330
1A
100
AcDbEntity
  8
ZUWAKU
100
AcDbLine
 10
324.2086007722033
 20
14.99999996135636
 30
0.0
 11
324.2086007722033
 21
0.3999999613564
 31
0.0
  0
LINE
  5
B6B
330
1A
100
AcDbEntity
  8
ZUWAKU
100
AcDbLine
 10
324.4086007722033
 20
14.99999996135636
 30
0.0
 11
324.4086007722034
 21
0.3999999613564
 31
0.0
  0
LINE
  5
B6C
330
1A
100
AcDbEntity
  8
ZUWAKU
100
AcDbLine
 10
324.3086007722033
 20
14.99999996135636
 30
0.0
 11
324.3086007722034
 21
0.3999999613564
 31
0.0
  0
TEXT
  5
B6D
330
1A
100
AcDbEntity
  8
ZUWAKU
100
AcDbText
 10
325.1473232833081
 20
12.02767823054915
 30
0.0
 40
2.0
  1
DATE
 41
0.9
  7
ｽﾀｲﾙ1
100
AcDbText
  0
TEXT
  5
B6E
330
1A
100
AcDbEntity
  8
ZUWAKU
100
AcDbText
 10
353.4945988297931
 20
6.315795121330495
 30
0.0
 40
3.0
  1
積水化学工業株式会社
 41
0.9
  7
ｽﾀｲﾙ1
100
AcDbText
  0
LINE
  5
B6F
330
1A
100
AcDbEntity
  8
ZUWAKU
100
AcDbLine
 10
348.9245047913716
 20
14.99999996135636
 30
0.0
 11
348.9245047913718
 21
0.3999999613564
 31
0.0
  0
LINE
  5
B70
330
1A
100
AcDbEntity
  8
ZUWAKU
100
AcDbLine
 10
348.8245047913716
 20
14.99999996135636
 30
0.0
 11
348.8245047913717
 21
0.3999999613564
 31
0.0
  0
LINE
  5
B71
330
1A
100
AcDbEntity
  8
ZUWAKU
100
AcDbLine
 10
348.7245047913717
 20
14.99999996135636
 30
0.0
 11
348.7245047913717
 21
0.3999999613564
 31
0.0
  0
LINE
  5
B72
330
1A
100
AcDbEntity
  8
ZUWAKU
100
AcDbLine
 10
348.6245047913717
 20
14.99999996135636
 30
0.0
 11
348.6245047913717
 21
0.3999999613564
 31
0.0
  0
ARC
  5
1C64
330
1A
100
AcDbEntity
  8
SEIHIN
100
AcDbCircle
 10
176.324187472952
 20
192.5181808799578
 30
0.0
 40
57.15000000000005
100
AcDbArc
 50
3.421302566267137
 51
356.0096661700999
  0
ARC
  5
1C65
330
1A
100
AcDbEntity
  8
SEIHIN
100
AcDbCircle
 10
176.324187472952
 20
192.5181808799578
 30
0.0
 40
58.15000000000005
100
AcDbArc
 50
3.881543386553822
 51
355.5539661942161
  0
ARC
  5
1C67
330
1A
100
AcDbEntity
  8
SEIHIN
100
AcDbCircle
 10
275.0970829452632
 20
195.9884283747036
 30
0.0
 40
0.5
100
AcDbArc
 50
0.0
 51
89.99999999999998
  0
ARC
  5
1C68
330
1A
100
AcDbEntity
  8
SEIHIN
100
AcDbCircle
 10
275.0970829452632
 20
188.4716283747034
 30
0.0
 40
0.5
100
AcDbArc
 50
270.0
 51
0.0
  0
LINE
  5
1C69
330
1A
100
AcDbEntity
  8
SEIHIN
100
AcDbLine
 10
234.3705472410306
 20
194.9884283747035
 30
0.0
 11
277.3304259644988
 21
194.988428374703
 31
0.0
  0
LINE
  5
1C6A
330
1A
100
AcDbEntity
  8
SEIHIN
100
AcDbLine
 10
234.8396523931802
 20
195.9884283747035
 30
0.0
 11
277.3304259644988
 21
195.988428374703
 31
0.0
  0
LINE
  5
1C6B
330
1A
100
AcDbEntity
  8
SEIHIN
100
AcDbLine
 10
234.7976973754456
 20
188.4716283747035
 30
0.0
 11
277.3304259644988
 21
188.4716283746618
 31
0.0
  0
LINE
  5
1C6C
330
1A
100
AcDbEntity
  8
SEIHIN
100
AcDbLine
 10
234.3332205007688
 20
189.4716283747033
 30
0.0
 11
277.3304259644988
 21
189.4716283746618
 31
0.0
  0
LINE
  5
1C6E
330
1A
100
AcDbEntity
  8
SEIHIN
100
AcDbLine
 10
234.9330228591932
 20
196.4884283747036
 30
0.0
 11
275.0970829452628
 21
196.488428374703
 31
0.0
  0
LINE
  5
1C6F
330
1A
100
AcDbEntity
  8
SEIHIN
100
AcDbLine
 10
236.8063830593152
 20
196.4884283747036
 30
0.0
 11
234.5759348015671
 21
199.3414083540487
 31
0.0
  0
ARC
  5
1C70
330
1A
100
AcDbEntity
  8
SEIHIN
100
AcDbCircle
 10
176.324187472952
 20
192.5181808799578
 30
0.0
 40
58.65000000000007
100
AcDbArc
 50
3.972680288400886
 51
9.114924330835558
  0
LINE
  5
1C71
330
1A
100
AcDbEntity
  8
SEIHIN
100
AcDbLine
 10
233.739902793181
 20
202.2300283747052
 30
0.0
 11
233.6574458683963
 21
202.2300283747052
 31
0.0
  0
ARC
  5
1C72
330
1A
100
AcDbEntity
  8
SEIHIN
100
AcDbCircle
 10
233.7399027931805
 20
201.7300283747051
 30
0.0
 40
0.5
100
AcDbArc
 50
9.114924330835558
 51
89.99999999994463
  0
ARC
  5
1C73
330
1A
100
AcDbEntity
  8
SEIHIN
100
AcDbCircle
 10
234.9330228591933
 20
196.5884283747036
 30
0.0
 40
0.1000000000000042
100
AcDbArc
 50
183.9726802884074
 51
270.0
  0
ARC
  5
1C74
330
1A
100
AcDbEntity
  8
SEIHIN
100
AcDbCircle
 10
234.3705472410307
 20
195.9884283747035
 30
0.0
 40
1.000000000000012
100
AcDbArc
 50
183.4213025662672
 51
270.0
  0
ARC
  5
1C75
330
1A
100
AcDbEntity
  8
SEIHIN
100
AcDbCircle
 10
234.8396523931803
 20
196.4884283747034
 30
0.0
 40
0.5000000000000053
100
AcDbArc
 50
183.8815433865538
 51
270.0
  0
ARC
  5
1C76
330
1A
100
AcDbEntity
  8
SEIHIN
100
AcDbCircle
 10
234.9193363318939
 20
196.5884283747036
 30
0.0
 40
0.0999999999999865
100
AcDbArc
 50
185.419081802748
 51
270.0
  0
LINE
  5
1C77
330
1A
100
AcDbEntity
  8
SEIHIN
100
AcDbLine
 10
234.8901507094252
 20
187.9716283747035
 30
0.0
 11
275.0970829452633
 21
187.9716283746617
 31
0.0
  0
ARC
  5
1C78
330
1A
100
AcDbEntity
  8
SEIHIN
100
AcDbCircle
 10
176.324187472952
 20
192.5181808799578
 30
0.0
 40
58.65000000000006
100
AcDbArc
 50
350.3095009882115
 51
355.4637244853886
  0
LINE
  5
1C79
330
1A
100
AcDbEntity
  8
SEIHIN
100
AcDbLine
 10
236.8063830593152
 20
187.9716283747035
 30
0.0
 11
234.4917387877305
 21
185.0109527601646
 31
0.0
  0
ARC
  5
1C7A
330
1A
100
AcDbEntity
  8
SEIHIN
100
AcDbCircle
 10
234.8901507094252
 20
187.8716283747035
 30
0.0
 40
0.0999999999999943
100
AcDbArc
 50
89.99999999993484
 51
175.4637244853821
  0
ARC
  5
1C7B
330
1A
100
AcDbEntity
  8
SEIHIN
100
AcDbCircle
 10
234.7976973754452
 20
187.9716283747034
 30
0.0
 40
0.5
100
AcDbArc
 50
89.99999999994463
 51
175.5539661942161
  0
ARC
  5
1C7C
330
1A
100
AcDbEntity
  8
SEIHIN
100
AcDbCircle
 10
234.3332205007678
 20
188.4716283747032
 30
0.0
 40
1.0
100
AcDbArc
 50
89.99999999994463
 51
176.0096661700966
  0
LINE
  5
1C7D
330
1A
100
AcDbEntity
  8
SEIHIN
100
AcDbLine
 10
233.6444680945075
 20
182.2300283747052
 30
0.0
 11
233.5568391503701
 21
182.2300283747053
 31
0.0
  0
ARC
  5
1C7E
330
1A
100
AcDbEntity
  8
SEIHIN
100
AcDbCircle
 10
233.644468094508
 20
182.7300283747052
 30
0.0
 40
0.499999999999989
100
AcDbArc
 50
269.9999999999446
 51
350.3095009882116
  0
LINE
  5
1C80
330
1A
100
AcDbEntity
  8
SEIHIN
100
AcDbLine
 10
277.3304259644988
 20
195.9884283747035
 30
0.0
 11
277.3304259644988
 21
194.988428374703
 31
0.0
  0
LINE
  5
1C81
330
1A
100
AcDbEntity
  8
SEIHIN
100
AcDbLine
 10
277.3304259644988
 20
189.4716283747035
 30
0.0
 11
277.3304259644988
 21
188.4716283746616
 31
0.0
  0
LINE
  5
1C82
330
1A
100
AcDbEntity
  8
SEIHIN
100
AcDbLine
 10
118.1751744407031
 20
50.58567549943365
 30
0.0
 11
269.3304259644988
 21
50.58567549943439
 31
0.0
  0
LINE
  5
1C83
330
1A
100
AcDbEntity
  8
SEIHIN
100
AcDbLine
 10
118.1751744407031
 20
75.58567549943342
 30
0.0
 11
269.3304259644988
 21
75.58567549943441
 31
0.0
  0
LINE
  5
1C84
330
1A
100
AcDbEntity
  8
SEIHIN
100
AcDbLine
 10
118.1751744407031
 20
75.58567549943342
 30
0.0
 11
118.1751744407031
 21
50.58567549943467
 31
0.0
  0
ARC
  5
1C88
330
1A
100
AcDbEntity
  8
SEIHIN
100
AcDbCircle
 10
263.5648009644987
 20
63.08567549943335
 30
0.0
 40
13.76562500000011
100
AcDbArc
 50
294.7615138576166
 51
65.23848614238513
  0
LINE
  5
20C6
330
1A
100
AcDbEntity
  8
cline
100
AcDbLine
 10
176.324187472952
 20
257.6681808799579
 30
0.0
 11
176.3241874729519
 21
127.3681808799578
 31
0.0
  0
LINE
  5
20C7
330
1A
100
AcDbEntity
  8
cline
100
AcDbLine
 10
111.1749779539608
 20
192.5181808799578
 30
0.0
 11
284.3304259644988
 21
192.5181808799578
 31
0.0
  0
LINE
  5
20C8
330
1A
100
AcDbEntity
  8
cline
100
AcDbLine
 10
111.1749779539608
 20
63.08567549943404
 30
0.0
 11
284.3304259644988
 21
63.08567549943399
 31
0.0
  0
LINE
  5
20CF
330
1A
100
AcDbEntity
  8
cline
100
AcDbLine
 10
267.3304259644988
 20
203.4884283747032
 30
0.0
 11
267.3304259644988
 21
180.9716283746698
 31
0.0
  0
LINE
  5
20D0
330
1A
100
AcDbEntity
  8
cline
100
AcDbLine
 10
247.3304259644987
 20
82.5856754994343
 30
0.0
 11
247.3304259644987
 21
43.58567549943427
 31
0.0
  0
DIMENSION
  5
20D2
330
1A
100
AcDbEntity
  8
SUNPOU
100
AcDbDimension
  2
*D1
 10
233.6511604510726
 20
161.0610990959488
 30
0.0
 11
253.914922912382
 21
161.0610990959488
 31
0.0
 70
   160
 71
     5
 42
-1.0
  3
STANDARD
100
AcDbAlignedDimension
 13
277.3304259644988
 23
188.4716283746616
 33
0.0
 14
233.6511604510726
 24
189.2029245449446
 34
0.0
100
AcDbRotatedDimension
  0
DIMENSION
  5
20E9
330
1A
100
AcDbEntity
  8
SUNPOU
100
AcDbDimension
  2
*D2
 10
294.5725557537021
 20
194.988428374703
 30
0.0
 11
291.572555753702
 21
192.2300283746824
 31
0.0
 70
    32
 71
     5
 42
-1.0
  3
STANDARD
100
AcDbAlignedDimension
 13
277.3304259644988
 23
189.4716283746618
 33
0.0
 14
277.3304259644988
 24
194.988428374703
 34
0.0
 50
270.0
100
AcDbRotatedDimension
  0
CIRCLE
  5
231B
330
1A
100
AcDbEntity
  8
SEIHIN
100
AcDbCircle
 10
247.3304259644988
 20
63.08567549944251
 30
0.0
 40
3.9
  0
LINE
  5
231C
330
1A
100
AcDbEntity
  8
SEIHIN
100
AcDbLine
 10
233.5873368537578
 20
69.58567549946957
 30
0.0
 11
272.8304259644986
 21
69.58567549943069
 31
0.0
  0
LINE
  5
231D
330
1A
100
AcDbEntity
  8
SEIHIN
100
AcDbLine
 10
233.3069624159695
 20
69.93922889006109
 30
0.0
 11
272.8304259644986
 21
69.93922849948529
 31
0.0
  0
LINE
  5
231E
330
1A
100
AcDbEntity
  8
SEIHIN
100
AcDbLine
 10
233.3069624159719
 20
56.23212210889511
 30
0.0
 11
272.830425964501
 21
56.23212249948522
 31
0.0
  0
LINE
  5
231F
330
1A
100
AcDbEntity
  8
SEIHIN
100
AcDbLine
 10
233.5873368537602
 20
56.58567549948663
 30
0.0
 11
272.830425964501
 21
56.58567549953983
 31
0.0
  0
LINE
  5
2320
330
1A
100
AcDbEntity
  8
SEIHIN
100
AcDbLine
 10
234.4200254090976
 20
70.46257465100262
 30
0.0
 11
234.4200254091003
 21
75.04802408010286
 31
0.0
  0
LINE
  5
2321
330
1A
100
AcDbEntity
  8
SEIHIN
100
AcDbLine
 10
234.4200254091002
 20
55.70877634795403
 30
0.0
 11
234.4200254091047
 21
51.12332691885382
 31
0.0
  0
LINE
  5
2322
330
1A
100
AcDbEntity
  8
SEIHIN
100
AcDbLine
 10
236.8063830593097
 20
63.58567549946252
 30
0.0
 11
236.8063830593097
 21
62.58567549942864
 31
0.0
  0
ARC
  5
2323
330
1A
100
AcDbEntity
  8
SEIHIN
100
AcDbCircle
 10
236.6982028899138
 20
63.0856754994441
 30
0.0
 40
2.410274213423015
100
AcDbArc
 50
148.455454819558
 51
211.544545180281
  0
LINE
  5
2324
330
1A
100
AcDbEntity
  8
SEIHIN
100
AcDbLine
 10
233.4534090253765
 20
69.45174767108887
 30
0.0
 11
233.4534090253787
 21
56.71960332786745
 31
0.0
  0
LINE
  5
2325
330
1A
100
AcDbEntity
  8
SEIHIN
100
AcDbLine
 10
232.9534090253784
 20
69.58567549947026
 30
0.0
 11
232.9534090253808
 21
56.58567549948594
 31
0.0
  0
LINE
  5
2326
330
1A
100
AcDbEntity
  8
SEIHIN
100
AcDbLine
 10
234.8110683487421
 20
69.14875998691861
 30
0.0
 11
234.8110683487421
 21
64.82697342195348
 31
0.0
  0
LINE
  5
2327
330
1A
100
AcDbEntity
  8
SEIHIN
100
AcDbLine
 10
233.4534090253764
 20
69.58567549947026
 30
0.0
 11
233.1247576614316
 21
69.85156806757794
 31
0.0
  0
ARC
  5
2328
330
1A
100
AcDbEntity
  8
SEIHIN
100
AcDbCircle
 10
233.3069624159691
 20
69.58567549947026
 30
0.0
 40
0.3535533905907471
100
AcDbArc
 50
89.99999999994463
 51
180.0
  0
ARC
  5
2329
330
1A
100
AcDbEntity
  8
SEIHIN
100
AcDbCircle
 10
233.5873368537577
 20
69.45174767108887
 30
0.0
 40
0.1339278283813314
100
AcDbArc
 50
89.99999999993892
 51
180.000000000013
  0
LINE
  5
232A
330
1A
100
AcDbEntity
  8
SEIHIN
100
AcDbLine
 10
234.7629704640634
 20
69.62504604538873
 30
0.0
 11
234.4867510456553
 21
69.90575074351449
 31
0.0
  0
ARC
  5
232B
330
1A
100
AcDbEntity
  8
SEIHIN
100
AcDbCircle
 10
235.8063830593097
 20
63.58567549946252
 30
0.0
 40
1.0
100
AcDbArc
 50
0.0
 51
89.99999999999998
  0
LINE
  5
232C
330
1A
100
AcDbEntity
  8
SEIHIN
100
AcDbLine
 10
235.8415474473258
 20
64.58505704112491
 30
0.0
 11
235.0702028577387
 21
64.58505704108921
 31
0.0
  0
ARC
  5
232D
330
1A
100
AcDbEntity
  8
SEIHIN
100
AcDbCircle
 10
235.0702028577619
 20
64.08505704108922
 30
0.0
 40
0.5
100
AcDbArc
 50
90.00000000265435
 51
148.4554548195584
  0
LINE
  5
232E
330
1A
100
AcDbEntity
  8
SEIHIN
100
AcDbLine
 10
234.8110683487444
 20
57.02259101203816
 30
0.0
 11
234.8110683487428
 21
61.34437757700329
 31
0.0
  0
LINE
  5
232F
330
1A
100
AcDbEntity
  8
SEIHIN
100
AcDbLine
 10
235.8415474473258
 20
61.58629395780014
 30
0.0
 11
235.0702028577567
 21
61.58629395780355
 31
0.0
  0
ARC
  5
2330
330
1A
100
AcDbEntity
  8
SEIHIN
100
AcDbCircle
 10
235.8063830593097
 20
62.58567549946253
 30
0.0
 40
1.0
100
AcDbArc
 50
270.0
 51
0.0
  0
ARC
  5
2331
330
1A
100
AcDbEntity
  8
SEIHIN
100
AcDbCircle
 10
235.070202857759
 20
62.08629395780355
 30
0.0
 40
0.5
100
AcDbArc
 50
211.544545180281
 51
269.9999999997427
  0
LINE
  5
2332
330
1A
100
AcDbEntity
  8
SEIHIN
100
AcDbLine
 10
234.7629704640657
 20
56.54630495356804
 30
0.0
 11
234.4867510456578
 21
56.26560025544216
 31
0.0
  0
ARC
  5
2333
330
1A
100
AcDbEntity
  8
SEIHIN
100
AcDbCircle
 10
233.58733685376
 20
56.71960332786745
 30
0.0
 40
0.1339278283813314
100
AcDbArc
 50
180.0000000000097
 51
270.0000000000814
  0
LINE
  5
2334
330
1A
100
AcDbEntity
  8
SEIHIN
100
AcDbLine
 10
233.4534090253787
 20
56.58567549948606
 30
0.0
 11
233.1247576614341
 21
56.31978293137826
 31
0.0
  0
ARC
  5
2335
330
1A
100
AcDbEntity
  8
SEIHIN
100
AcDbCircle
 10
233.3069624159715
 20
56.58567549948594
 30
0.0
 40
0.3535533905907471
100
AcDbArc
 50
180.0000000000195
 51
270.0000000000757
  0
LINE
  5
2336
330
1A
100
AcDbEntity
  8
cline
100
AcDbLine
 10
267.3304259644988
 20
82.58567549943164
 30
0.0
 11
267.3304259644988
 21
43.5856754994316
 31
0.0
  0
LINE
  5
2337
330
1A
100
AcDbEntity
  8
cline
100
AcDbLine
 10
247.3304259644988
 20
82.58567549943846
 30
0.0
 11
247.3304259644988
 21
43.58567549943842
 31
0.0
  0
CIRCLE
  5
2338
330
1A
100
AcDbEntity
  8
SEIHIN
100
AcDbCircle
 10
267.3304259644988
 20
63.08567549944614
 30
0.0
 40
3.9
  0
LINE
  5
2339
330
1A
100
AcDbEntity
  8
SEIHIN
100
AcDbLine
 10
273.3304259644988
 20
69.08567549948526
 30
0.0
 11
273.3304259644988
 21
57.08567549943069
 31
0.0
  0
LINE
  5
233A
330
1A
100
AcDbEntity
  8
SEIHIN
100
AcDbLine
 10
273.6839789644988
 20
69.08567549948526
 30
0.0
 11
273.6839789644988
 21
57.08567549943069
 31
0.0
  0
ARC
  5
233B
330
1A
100
AcDbEntity
  8
SEIHIN
100
AcDbCircle
 10
272.8304259644988
 20
69.08567549948525
 30
0.0
 40
0.5
100
AcDbArc
 50
0.0
 51
90.00000000001302
  0
ARC
  5
233C
330
1A
100
AcDbEntity
  8
SEIHIN
100
AcDbCircle
 10
272.8304259644988
 20
69.08567549948525
 30
0.0
 40
0.8535529999999999
100
AcDbArc
 50
0.0
 51
90.00000000001302
  0
ARC
  5
233D
330
1A
100
AcDbEntity
  8
SEIHIN
100
AcDbCircle
 10
272.8304259644988
 20
57.08567549948525
 30
0.0
 40
0.5
100
AcDbArc
 50
270.000000000013
 51
0.0
  0
ARC
  5
233E
330
1A
100
AcDbEntity
  8
SEIHIN
100
AcDbCircle
 10
272.8304259645009
 20
57.08567549948525
 30
0.0
 40
0.8535529999999999
100
AcDbArc
 50
270.0000000000081
 51
0.0000000000195286
  0
ARC
  5
233F
330
1A
100
AcDbEntity
  8
SEIHIN
100
AcDbCircle
 10
272.8304259645009
 20
57.08567549948525
 30
0.0
 40
0.5
100
AcDbArc
 50
270.0000000000081
 51
0.0000000000195286
  0
DIMENSION
  5
2340
330
1A
100
AcDbEntity
  8
SUNPOU
100
AcDbDimension
  2
*D3
 10
298.6411508307464
 20
50.58567549946872
 30
0.0
 11
295.6411508307464
 21
63.08567549946513
 31
0.0
 70
    32
 71
     5
 42
-1.0
  3
STANDARD
100
AcDbAlignedDimension
 13
269.3304259644988
 23
75.58567549946147
 33
0.0
 14
267.3304259644988
 24
50.58567549946872
 34
0.0
 50
270.0000008537736
100
AcDbRotatedDimension
  0
DIMENSION
  5
2343
330
1A
100
AcDbEntity
  8
SUNPOU
100
AcDbDimension
  2
*D4
 10
267.3304259644988
 20
92.27171816042895
 30
0.0
 11
272.3304259644988
 21
95.27171816042894
 31
0.0
 70
    32
 71
     5
 42
-1.0
  3
STANDARD
100
AcDbAlignedDimension
 13
277.3304259644988
 23
63.08567549943337
 33
0.0
 14
267.3304259644988
 24
82.585675499431
 34
0.0
100
AcDbRotatedDimension
  0
DIMENSION
  5
2344
330
1A
100
AcDbEntity
  8
SUNPOU
100
AcDbDimension
  2
*D5
 10
247.3304259644988
 20
92.27171816042895
 30
0.0
 11
257.3304259644988
 21
95.27171816042894
 31
0.0
 70
    32
 71
     5
 42
-1.0
  3
STANDARD
100
AcDbAlignedDimension
 13
267.3304259644988
 23
82.585675499431
 33
0.0
 14
247.3304259644988
 24
82.58567549943782
 34
0.0
100
AcDbRotatedDimension
  0
DIMENSION
  5
2384
330
1A
100
AcDbEntity
  8
SUNPOU
100
AcDbDimension
  2
*D6
 10
226.1684660087797
 20
222.4676449359776
 30
0.0
 11
235.5522348680016
 21
231.6058822931869
 31
0.0
 70
    33
  1
t=<>
 71
     5
 42
-1.0
  3
STANDARD
100
AcDbAlignedDimension
 13
225.3112987080772
 23
221.9526068610674
 33
0.0
 14
226.1684660087796
 24
222.4676449359776
 34
0.0
1001
ACAD
1000
DSTYLE
1002
{
1070
   271
1070
     1
1002
}
  0
DIMENSION
  5
23A1
330
1A
100
AcDbEntity
  8
SUNPOU
100
AcDbDimension
  2
*D7
 10
127.3370762378262
 20
163.0837548988478
 30
0.0
 11
200.8767358382849
 21
211.1678981727704
 31
0.0
 70
   163
 71
     5
 42
-1.0
  3
STANDARD
100
AcDbDiametricDimension
 15
225.3112987080775
 25
221.9526068610675
 35
0.0
 40
0.0
1001
ACAD
1000
DSTYLE
1002
{
1070
   287
1070
     5
1070
   279
1070
     2
1002
}
  0
LINE
  5
23C0
330
1A
100
AcDbEntity
  8
SEIHIN
100
AcDbLine
 10
269.3304259644988
 20
188.4716283746696
 30
0.0
 11
269.3304259644988
 21
189.4716283746695
 31
0.0
  0
LINE
  5
23C1
330
1A
100
AcDbEntity
  8
cline
100
AcDbLine
 10
176.3241874729519
 20
82.58567549943382
 30
0.0
 11
176.3241874729519
 21
43.58567549943393
 31
0.0
  0
LINE
  5
23C5
330
1A
100
AcDbEntity
  8
cline
100
AcDbLine
 10
247.3304259644988
 20
203.4884283747055
 30
0.0
 11
247.3304259644988
 21
180.9716283746722
 31
0.0
  0
LINE
  5
23C6
330
1A
100
AcDbEntity
  8
SEIHIN
100
AcDbLine
 10
269.3304259644989
 20
194.9884283747031
 30
0.0
 11
269.3304259644989
 21
195.9884283747031
 31
0.0
  0
DIMENSION
  5
2BE0
330
1A
100
AcDbEntity
  8
SUNPOU
100
AcDbDimension
  2
*D9
 10
267.3304259644988
 20
170.0022246885526
 30
0.0
 11
272.3304259644988
 21
173.0022246885526
 31
0.0
 70
    32
 71
     5
 42
-1.0
  3
STANDARD
100
AcDbAlignedDimension
 13
277.3304259644988
 23
188.4716283746616
 33
0.0
 14
267.3304259644988
 24
180.9716283746698
 34
0.0
100
AcDbRotatedDimension
  0
DIMENSION
  5
2BED
330
1A
100
AcDbEntity
  8
SUNPOU
100
AcDbDimension
  2
*D10
 10
247.3304259644988
 20
170.0022246885526
 30
0.0
 11
257.3304259644988
 21
173.0022246885526
 31
0.0
 70
    32
 71
     5
 42
-1.0
  3
STANDARD
100
AcDbAlignedDimension
 13
267.3304259644988
 23
180.9716283746698
 33
0.0
 14
247.3304259644988
 24
180.9716283746722
 34
0.0
100
AcDbRotatedDimension
  0
LEADER
  5
2E4A
330
1A
100
AcDbEntity
  8
SUNPOU
100
AcDbLeader
  3
STANDARD
 40
3.0
 41
15.6
 76
     3
 10
270.0233095111427
 20
65.8707248127888
 30
0.0
 10
283.3098079618459
 20
83.66275981872741
 30
0.0
 10
299.8973588556172
 20
83.66275981872741
 30
0.0
211
-1.0
221
-0.0000000000000002
231
0.0
210
0.0
220
0.0
230
-1.0
213
-0.0000000000000004
223
1.5
233
0.0
1001
ACAD
1000
DSTYLE
1002
{
1070
     5
1000
OPEN
1070
    77
1070
     0
1070
   147
1040
1.5
1070
   342
1005
B2
1002
}
  0
MTEXT
  5
2E4B
330
1A
100
AcDbEntity
  8
SUNPOU
100
AcDbMText
 10
298.7767462181287
 20
84.96277273533326
 30
0.0
 40
3.0
 41
0.0
 71
     9
 72
     5
  1
2-\U+03c67.8
 73
     1
 44
1.0
1001
ACAD
1000
MTEXTBEGIN
1070
    73
1070
     1
1070
    44
1040
1.0
1070
    74
1070
     0
1000
MTEXTEND
  0
DIMENSION
  5
2E4C
330
1A
100
AcDbEntity
  8
SUNPOU
100
AcDbDimension
  2
*D11
 10
118.1741874729519
 20
113.1208164357561
 30
0.0
 11
197.7523067187254
 21
116.1208164357562
 31
0.0
 70
    32
 71
     5
 42
-1.0
  3
STANDARD
100
AcDbAlignedDimension
 13
277.3304259644988
 23
188.4716283746616
 33
0.0
 14
118.1741874729519
 24
192.5181808799578
 34
0.0
100
AcDbRotatedDimension
  0
VIEWPORT
  5
22
102
{ACAD_XDICTIONARY
360
2F3A
102
}
330
17
100
AcDbEntity
 67
     1
  8
0
100
AcDbViewport
 10
313.6808219178083
 20
148.5
 30
0.0
 40
627.3616438356165
 41
297.0
 68
     2
 69
     1
 12
313.6808219178083
 22
148.5
 13
0.0
 23
0.0
 14
1.0
 24
1.0
 15
10.0
 25
10.0
 16
0.0
 26
0.0
 36
1.0
 17
0.0
 27
0.0
 37
0.0
 42
50.0
 43
0.0
 44
0.0
 45
297.0
 50
0.0
 51
0.0
 72
   100
 90
    32768
  1

281
     0
 71
     1
 74
     0
110
0.0
120
0.0
130
0.0
111
1.0
121
0.0
131
0.0
112
0.0
122
1.0
132
0.0
 79
     0
146
0.0
  0
VIEWPORT
  5
64
102
{ACAD_XDICTIONARY
360
2F3C
102
}
330
17
100
AcDbEntity
 67
     1
  8
VIEWPORT
100
AcDbViewport
 10
210.0
 20
148.5
 30
0.0
 40
420.0
 41
297.0
 68
     1
 69
     2
 12
210.0
 22
148.5
 13
0.0
 23
0.0
 14
5.0
 24
5.0
 15
0.0
 25
0.0
 16
0.0
 26
0.0
 36
1.0
 17
0.0
 27
0.0
 37
0.0
 42
50.0
 43
0.0
 44
0.0
 45
302.9399999999999
 50
0.0
 51
0.0
 72
   100
 90
    32768
  1

281
     0
 71
     1
 74
     0
110
0.0
120
0.0
130
0.0
111
1.0
121
0.0
131
0.0
112
0.0
122
1.0
132
0.0
 79
     0
146
0.0
  0
ENDSEC
  0
SECTION
  2
OBJECTS
  0
DICTIONARY
  5
C
330
0
100
AcDbDictionary
281
     1
  3
ACAD_COLOR
350
2F10
  3
ACAD_GROUP
350
D
  3
ACAD_LAYOUT
350
624
  3
ACAD_MATERIAL
350
2F0F
  3
ACAD_MLINESTYLE
350
E
  3
ACAD_PLOTSETTINGS
350
625
  3
ACAD_PLOTSTYLENAME
350
622
  3
ACDBHEADERROUNDTRIPXREC
350
2F37
  3
AcDbVariableDictionary
350
2F33
  0
DICTIONARY
  5
651
330
1A
100
AcDbDictionary
280
     1
281
     1
  3
ACAD_LAYOUTSELFREF
360
2EE4
  0
DICTIONARY
  5
64F
330
17
100
AcDbDictionary
280
     1
281
     1
  3
ACAD_LAYOUTSELFREF
360
2EE3
  0
DICTIONARY
  5
2F3A
330
22
100
AcDbDictionary
280
     1
281
     1
  3
ACAD_XREC_ROUNDTRIP
360
2F3B
  0
DICTIONARY
  5
2F3C
330
64
100
AcDbDictionary
280
     1
281
     1
  3
ACAD_XREC_ROUNDTRIP
360
2F3D
  0
DICTIONARY
  5
2F10
102
{ACAD_REACTORS
330
C
102
}
330
C
100
AcDbDictionary
281
     1
  0
DICTIONARY
  5
D
102
{ACAD_REACTORS
330
C
102
}
330
C
100
AcDbDictionary
281
     1
  0
DICTIONARY
  5
624
102
{ACAD_REACTORS
330
C
102
}
330
C
100
AcDbDictionary
281
     1
  3
Model
350
626
  3
ﾚｲｱｳﾄ1
350
627
  0
DICTIONARY
  5
2F0F
102
{ACAD_REACTORS
330
C
102
}
330
C
100
AcDbDictionary
281
     1
  0
DICTIONARY
  5
E
102
{ACAD_REACTORS
330
C
102
}
330
C
100
AcDbDictionary
281
     1
  3
STANDARD
350
13
  0
DICTIONARY
  5
625
102
{ACAD_REACTORS
330
C
102
}
330
C
100
AcDbDictionary
281
     1
  0
ACDBDICTIONARYWDFLT
  5
622
102
{ACAD_REACTORS
330
C
102
}
330
C
100
AcDbDictionary
281
     1
  3
Normal
350
623
100
AcDbDictionaryWithDefault
340
623
1001
ACAD
1000
TREAT_AS_HARD
1070
     0
1000
TREAT_AS_HARD
1070
     0
1000
TREAT_AS_HARD
1070
     0
1000
TREAT_AS_HARD
1070
     0
1000
TREAT_AS_HARD
1070
     0
1000
TREAT_AS_HARD
1070
     0
  0
DICTIONARY
  5
2F37
102
{ACAD_REACTORS
330
C
102
}
330
C
100
AcDbDictionary
281
     1
  3
COLORDICT
350
2F39
  3
MATERIALDICT
350
2F38
  0
DICTIONARY
  5
2F33
102
{ACAD_REACTORS
330
C
102
}
330
C
100
AcDbDictionary
281
     1
  3
DIMASSOC
350
2F34
  3
PROJECTNAME
350
2F35
  0
XRECORD
  5
2EE4
102
{ACAD_REACTORS
330
651
102
}
330
651
100
AcDbXrecord
280
     1
340
1A
  0
XRECORD
  5
2EE3
102
{ACAD_REACTORS
330
64F
102
}
330
64F
100
AcDbXrecord
280
     1
340
17
  0
XRECORD
  5
2F3B
102
{ACAD_REACTORS
330
2F3A
102
}
330
2F3A
100
AcDbXrecord
280
     1
102
SHADEPLOT
 70
     0
  0
XRECORD
  5
2F3D
102
{ACAD_REACTORS
330
2F3C
102
}
330
2F3C
100
AcDbXrecord
280
     1
102
SHADEPLOT
 70
     0
  0
LAYOUT
  5
626
102
{ACAD_XDICTIONARY
360
2F3E
102
}
102
{ACAD_REACTORS
330
624
102
}
330
624
100
AcDbPlotSettings
  1

  2
Acrobat Distiller
  4
A3
  6

 40
3.174999952316284
 41
3.174999952316284
 42
3.17498779296875
 43
3.17498779296875
 44
297.0318298339844
 45
420.1583251953125
 46
7.0
 47
7.0
 48
-10.99137380885372
 49
-8.011254061840986
140
409.0355942226381
141
283.5774185765856
142
1.0
143
1.0
 70
 11952
 72
     1
 73
     1
 74
     2
  7
print.ctb
 75
    16
147
1.0
148
0.0
149
0.0
100
AcDbLayout
  1
Model
 70
     1
 71
     0
 10
0.0
 20
0.0
 11
12.0
 21
9.0
 12
0.0
 22
0.0
 32
0.0
 14
0.0
 24
0.0
 34
0.0
 15
0.0
 25
0.0
 35
0.0
146
0.0
 13
0.0
 23
0.0
 33
0.0
 16
1.0
 26
0.0
 36
0.0
 17
0.0
 27
1.0
 37
0.0
 76
     0
330
1A
  0
LAYOUT
  5
627
102
{ACAD_XDICTIONARY
360
2F40
102
}
102
{ACAD_REACTORS
330
624
102
}
330
624
100
AcDbPlotSettings
  1

  2
EPSON PM-2000C
  4

  6

 40
0.0
 41
0.0
 42
0.0
 43
0.0
 44
0.0
 45
0.0
 46
0.0
 47
0.0
 48
0.0
 49
0.0
140
0.0
141
0.0
142
1.0
143
1.0
 70
   688
 72
     0
 73
     0
 74
     5
  7
print.ctb
 75
    16
147
1.0
148
0.0
149
0.0
100
AcDbLayout
  1
ﾚｲｱｳﾄ1
 70
     1
 71
     1
 10
0.0
 20
0.0
 11
420.0
 21
297.0
 12
0.0
 22
0.0
 32
0.0
 14
0.0
 24
0.0
 34
0.0
 15
420.0
 25
297.0
 35
0.0
146
0.0
 13
0.0
 23
0.0
 33
0.0
 16
1.0
 26
0.0
 36
0.0
 17
0.0
 27
1.0
 37
0.0
 76
     0
330
17
331
64
  0
MLINESTYLE
  5
13
102
{ACAD_REACTORS
330
E
102
}
330
E
100
AcDbMlineStyle
  2
STANDARD
 70
     0
  3

 62
     0
 51
90.0
 52
90.0
 71
     2
 49
0.5
 62
   256
  6
BYLAYER
 49
-0.5
 62
   256
  6
BYLAYER
  0
ACDBPLACEHOLDER
  5
623
102
{ACAD_REACTORS
330
622
102
}
330
622
  0
XRECORD
  5
2F39
102
{ACAD_REACTORS
330
2F37
102
}
330
2F37
100
AcDbXrecord
280
     1
340
2F10
  0
XRECORD
  5
2F38
102
{ACAD_REACTORS
330
2F37
102
}
330
2F37
100
AcDbXrecord
280
     1
340
2F0F
  0
DICTIONARYVAR
  5
2F34
102
{ACAD_REACTORS
330
2F33
102
}
330
2F33
100
DictionaryVariables
280
     0
  1
1
  0
DICTIONARYVAR
  5
2F35
102
{ACAD_REACTORS
330
2F33
102
}
330
2F33
100
DictionaryVariables
280
     0
  1

  0
DICTIONARY
  5
2F3E
330
626
100
AcDbDictionary
280
     1
281
     1
  3
ACAD_XREC_ROUNDTRIP
360
2F3F
  0
DICTIONARY
  5
2F40
330
627
100
AcDbDictionary
280
     1
281
     1
  3
ACAD_XREC_ROUNDTRIP
360
2F41
  0
XRECORD
  5
2F3F
102
{ACAD_REACTORS
330
2F3E
102
}
330
2F3E
100
AcDbXrecord
280
     1
102
SHADEPLOT
 70
     0
102
SHADEPLOTRESLEVEL
 70
     2
102
SHADEPLOTCUSTOMDPI
 70
   300
  0
XRECORD
  5
2F41
102
{ACAD_REACTORS
330
2F40
102
}
330
2F40
100
AcDbXrecord
280
     1
102
SHADEPLOT
 70
     0
102
SHADEPLOTRESLEVEL
 70
     2
102
SHADEPLOTCUSTOMDPI
 70
   300
  0
ENDSEC
  0
EOF
