  0
SECTION
  2
HEADER
  9
$ACADVER
  1
AC1014
  9
$ACADMAINTVER
 70
     9
  9
$DWGCODEPAGE
  3
ANSI_932
  9
$INSBASE
 10
0.0
 20
0.0
 30
0.0
  9
$EXTMIN
 10
0.0000011988399819
 20
-0.0000006495212119
 30
-0.00000001
  9
$EXTMAX
 10
797.60000119884
 20
551.5999993504789
 30
0.00000001
  9
$LIMMIN
 10
0.0
 20
0.0
  9
$LIMMAX
 10
840.0
 20
594.0
  9
$ORTHOMODE
 70
     0
  9
$REGENMODE
 70
     1
  9
$FILLMODE
 70
     1
  9
$QTEXTMODE
 70
     0
  9
$MIRRTEXT
 70
     1
  9
$DRAGMODE
 70
     2
  9
$LTSCALE
 40
2.0
  9
$OSMODE
 70
    35
  9
$ATTMODE
 70
     1
  9
$TEXTSIZE
 40
5.0
  9
$TRACEWID
 40
1.0
  9
$TEXTSTYLE
  7
STANDARD
  9
$CLAYER
  8
SUNPOU
  9
$CELTYPE
  6
BYLAYER
  9
$CECOLOR
 62
   256
  9
$CELTSCALE
 40
1.0
  9
$DELOBJ
 70
     1
  9
$DISPSILH
 70
     0
  9
$DIMSCALE
 40
1.0
  9
$DIMASZ
 40
7.0
  9
$DIMEXO
 40
6.0
  9
$DIMDLI
 40
14.0
  9
$DIMRND
 40
0.0
  9
$DIMDLE
 40
0.0
  9
$DIMEXE
 40
3.0
  9
$DIMTP
 40
0.0
  9
$DIMTM
 40
0.0
  9
$DIMTXT
 40
6.0
  9
$DIMCEN
 40
150.0
  9
$DIMTSZ
 40
0.0
  9
$DIMTOL
 70
     0
  9
$DIMLIM
 70
     0
  9
$DIMTIH
 70
     0
  9
$DIMTOH
 70
     0
  9
$DIMSE1
 70
     0
  9
$DIMSE2
 70
     0
  9
$DIMTAD
 70
     3
  9
$DIMZIN
 70
     0
  9
$DIMBLK
  1

  9
$DIMASO
 70
     1
  9
$DIMSHO
 70
     1
  9
$DIMPOST
  1

  9
$DIMAPOST
  1

  9
$DIMALT
 70
     0
  9
$DIMALTD
 70
     2
  9
$DIMALTF
 40
25.4
  9
$DIMLFAC
 40
1.0
  9
$DIMTOFL
 70
     1
  9
$DIMTVP
 40
0.0
  9
$DIMTIX
 70
     0
  9
$DIMSOXD
 70
     0
  9
$DIMSAH
 70
     1
  9
$DIMBLK1
  1
OPEN
  9
$DIMBLK2
  1
OPEN
  9
$DIMSTYLE
  2
STANDARD
  9
$DIMCLRD
 70
     4
  9
$DIMCLRE
 70
     4
  9
$DIMCLRT
 70
     4
  9
$DIMTFAC
 40
1.0
  9
$DIMGAP
 40
2.0
  9
$DIMJUST
 70
     0
  9
$DIMSD1
 70
     0
  9
$DIMSD2
 70
     0
  9
$DIMTOLJ
 70
     1
  9
$DIMTZIN
 70
     0
  9
$DIMALTZ
 70
     0
  9
$DIMALTTZ
 70
     0
  9
$DIMFIT
 70
     3
  9
$DIMUPT
 70
     0
  9
$DIMUNIT
 70
     2
  9
$DIMDEC
 70
     0
  9
$DIMTDEC
 70
     2
  9
$DIMALTU
 70
     2
  9
$DIMALTTD
 70
     2
  9
$DIMTXSTY
  7
STANDARD
  9
$DIMAUNIT
 70
     0
  9
$LUNITS
 70
     2
  9
$LUPREC
 70
     4
  9
$SKETCHINC
 40
1.0
  9
$FILLETRAD
 40
5.0
  9
$AUNITS
 70
     0
  9
$AUPREC
 70
     0
  9
$MENU
  1
.
  9
$ELEVATION
 40
0.0
  9
$PELEVATION
 40
0.0
  9
$THICKNESS
 40
0.0
  9
$LIMCHECK
 70
     0
  9
$BLIPMODE
 70
     0
  9
$CHAMFERA
 40
20.0
  9
$CHAMFERB
 40
20.0
  9
$CHAMFERC
 40
40.0
  9
$CHAMFERD
 40
0.0
  9
$SKPOLY
 70
     0
  9
$TDCREATE
 40
2451030.428628819
  9
$TDUPDATE
 40
2453502.439927476
  9
$TDINDWG
 40
0.0397714468
  9
$TDUSRTIMER
 40
0.0397714468
  9
$USRTIMER
 70
     1
  9
$ANGBASE
 50
0.0
  9
$ANGDIR
 70
     0
  9
$PDMODE
 70
     0
  9
$PDSIZE
 40
0.0
  9
$PLINEWID
 40
0.0
  9
$COORDS
 70
     1
  9
$SPLFRAME
 70
     0
  9
$SPLINETYPE
 70
     6
  9
$SPLINESEGS
 70
     8
  9
$ATTDIA
 70
     0
  9
$ATTREQ
 70
     1
  9
$HANDLING
 70
 10241
  9
$HANDSEED
  5
B42
  9
$SURFTAB1
 70
     6
  9
$SURFTAB2
 70
     6
  9
$SURFTYPE
 70
     6
  9
$SURFU
 70
     6
  9
$SURFV
 70
     6
  9
$UCSNAME
  2

  9
$UCSORG
 10
0.0
 20
0.0
 30
0.0
  9
$UCSXDIR
 10
1.0
 20
0.0
 30
0.0
  9
$UCSYDIR
 10
0.0
 20
1.0
 30
0.0
  9
$PUCSNAME
  2

  9
$PUCSORG
 10
0.0
 20
0.0
 30
0.0
  9
$PUCSXDIR
 10
1.0
 20
0.0
 30
0.0
  9
$PUCSYDIR
 10
0.0
 20
1.0
 30
0.0
  9
$USERI1
 70
     0
  9
$USERI2
 70
     0
  9
$USERI3
 70
     0
  9
$USERI4
 70
     0
  9
$USERI5
 70
     0
  9
$USERR1
 40
0.0
  9
$USERR2
 40
0.0
  9
$USERR3
 40
0.0
  9
$USERR4
 40
0.0
  9
$USERR5
 40
0.0
  9
$WORLDVIEW
 70
     1
  9
$SHADEDGE
 70
     3
  9
$SHADEDIF
 70
    70
  9
$TILEMODE
 70
     1
  9
$MAXACTVP
 70
    16
  9
$PINSBASE
 10
0.0
 20
0.0
 30
0.0
  9
$PLIMCHECK
 70
     0
  9
$PEXTMIN
 10
0.0
 20
0.0
 30
0.0
  9
$PEXTMAX
 10
420.0
 20
297.0
 30
0.0
  9
$PLIMMIN
 10
0.0
 20
0.0
  9
$PLIMMAX
 10
420.0
 20
297.0
  9
$UNITMODE
 70
     0
  9
$VISRETAIN
 70
     0
  9
$PLINEGEN
 70
     0
  9
$PSLTSCALE
 70
     1
  9
$TREEDEPTH
 70
  3020
  9
$PICKSTYLE
 70
     1
  9
$CMLSTYLE
  2
STANDARD
  9
$CMLJUST
 70
     0
  9
$CMLSCALE
 40
1.0
  9
$PROXYGRAPHICS
 70
     1
  9
$MEASUREMENT
 70
     1
  0
ENDSEC
  0
SECTION
  2
CLASSES
  0
CLASS
  1
ACDBDICTIONARYWDFLT
  2
AcDbDictionaryWithDefault
  3
AutoCAD 2000
 90
        0
280
     0
281
     0
  0
CLASS
  1
ACDBPLACEHOLDER
  2
AcDbPlaceHolder
  3
AutoCAD 2000
 90
        0
280
     0
281
     0
  0
CLASS
  1
LAYOUT
  2
AcDbLayout
  3
AutoCAD 2000
 90
        0
280
     0
281
     0
  0
CLASS
  1
LONG_TRANSACTION
  2
AcDbLongTransaction
  3
AutoCAD 2000
 90
        0
280
     0
281
     0
  0
CLASS
  1
LWPOLYLINE
  2
AcDbPolyline
  3
AutoCAD 2000
 90
        0
280
     0
281
     1
  0
CLASS
  1
HATCH
  2
AcDbHatch
  3
AutoCAD 2000
 90
        0
280
     0
281
     1
  0
CLASS
  1
XRECORD
  2
AcDbXrecord
  3
AutoCAD 2000
 90
        0
280
     0
281
     0
  0
CLASS
  1
LONG_TRANSACTION
  2
AcDbLongTransaction
  3
AutoCAD 2000
 90
        0
280
     0
281
     0
  0
CLASS
  1
LWPOLYLINE
  2
AcDbPolyline
  3
AutoCAD 2000
 90
        0
280
     0
281
     1
  0
CLASS
  1
HATCH
  2
AcDbHatch
  3
AutoCAD 2000
 90
        0
280
     0
281
     1
  0
CLASS
  1
XRECORD
  2
AcDbXrecord
  3
AutoCAD 2000
 90
        0
280
     0
281
     0
  0
ENDSEC
  0
SECTION
  2
TABLES
  0
TABLE
  2
VPORT
  5
8
330
0
100
AcDbSymbolTable
 70
     2
  0
VPORT
  5
B1E
330
8
100
AcDbSymbolTableRecord
100
AcDbViewportTableRecord
  2
*ACTIVE
 70
     0
 10
0.0
 20
0.0
 11
1.0
 21
1.0
 12
427.8227602027577
 22
270.8880743707358
 13
0.0
 23
0.0
 14
5.0
 24
5.0
 15
0.0
 25
0.0
 16
0.0
 26
0.0
 36
1.0
 17
0.0
 27
0.0
 37
0.0
 40
617.5800322979661
 41
1.752310536044362
 42
50.0
 43
0.0
 44
0.0
 50
0.0
 51
0.0
 71
     0
 72
   100
 73
     1
 74
     0
 75
     0
 76
     0
 77
     0
 78
     0
  0
ENDTAB
  0
TABLE
  2
LTYPE
  5
5
330
0
100
AcDbSymbolTable
 70
     2
  0
LTYPE
  5
14
330
5
100
AcDbSymbolTableRecord
100
AcDbLinetypeTableRecord
  2
BYBLOCK
 70
     0
  3

 72
    65
 73
     0
 40
0.0
  0
LTYPE
  5
15
330
5
100
AcDbSymbolTableRecord
100
AcDbLinetypeTableRecord
  2
BYLAYER
 70
     0
  3

 72
    65
 73
     0
 40
0.0
  0
LTYPE
  5
16
330
5
100
AcDbSymbolTableRecord
100
AcDbLinetypeTableRecord
  2
CONTINUOUS
 70
     0
  3
Solid line
 72
    65
 73
     0
 40
0.0
  0
LTYPE
  5
135
330
5
100
AcDbSymbolTableRecord
100
AcDbLinetypeTableRecord
  2
CENTER
 70
     0
  3
____ _ ____ _ ____ _ ____ _ ____ _ ____ _ ____ 
 72
    65
 73
     4
 40
2.0
 49
1.25
 74
     0
 49
-0.25
 74
     0
 49
0.25
 74
     0
 49
-0.25
 74
     0
  0
ENDTAB
  0
TABLE
  2
LAYER
  5
2
330
0
100
AcDbSymbolTable
 70
     8
  0
LAYER
  5
F
330
2
100
AcDbSymbolTableRecord
100
AcDbLayerTableRecord
  2
0
 70
     0
 62
     7
  6
CONTINUOUS
  0
LAYER
  5
62
330
2
100
AcDbSymbolTableRecord
100
AcDbLayerTableRecord
  2
VIEWPORT
 70
     0
 62
     7
  6
CONTINUOUS
  0
LAYER
  5
65
330
2
100
AcDbSymbolTableRecord
100
AcDbLayerTableRecord
  2
ZUWAKU
 70
     0
 62
     7
  6
CONTINUOUS
  0
LAYER
  5
143
330
2
100
AcDbSymbolTableRecord
100
AcDbLayerTableRecord
  2
SEIHIN
 70
     0
 62
     3
  6
CONTINUOUS
  0
LAYER
  5
144
330
2
100
AcDbSymbolTableRecord
100
AcDbLayerTableRecord
  2
SUNPOU
 70
     0
 62
     4
  6
CONTINUOUS
  0
LAYER
  5
145
330
2
100
AcDbSymbolTableRecord
100
AcDbLayerTableRecord
  2
CENTER_L
 70
     0
 62
     1
  6
CENTER
  0
LAYER
  5
3C9
330
2
100
AcDbSymbolTableRecord
100
AcDbLayerTableRecord
  2
DEFPOINTS
 70
     0
 62
     7
  6
CONTINUOUS
  0
LAYER
  5
917
330
2
100
AcDbSymbolTableRecord
100
AcDbLayerTableRecord
  2
MOJI
 70
     0
 62
     2
  6
CONTINUOUS
  0
ENDTAB
  0
TABLE
  2
STYLE
  5
3
330
0
100
AcDbSymbolTable
 70
     2
  0
STYLE
  5
10
330
3
100
AcDbSymbolTableRecord
100
AcDbTextStyleTableRecord
  2
STANDARD
 70
     0
 40
0.0
 41
1.0
 50
0.0
 71
     0
 42
5.0
  3
TXT
  4
bigfont.shx
  0
STYLE
  5
918
330
3
100
AcDbSymbolTableRecord
100
AcDbTextStyleTableRecord
  2
ｽﾀｲﾙ1
 70
     0
 40
0.0
 41
1.0
 50
0.0
 71
     0
 42
2.5
  3
MS PGothic.ttf
  4

1001
ACAD
1000
MS PGothic
1071
    32818
  0
ENDTAB
  0
TABLE
  2
VIEW
  5
6
330
0
100
AcDbSymbolTable
 70
     0
  0
ENDTAB
  0
TABLE
  2
UCS
  5
7
330
0
100
AcDbSymbolTable
 70
     0
  0
ENDTAB
  0
TABLE
  2
APPID
  5
9
330
0
100
AcDbSymbolTable
 70
     1
  0
APPID
  5
11
330
9
100
AcDbSymbolTableRecord
100
AcDbRegAppTableRecord
  2
ACAD
 70
     0
  0
ENDTAB
  0
TABLE
  2
DIMSTYLE
  5
A
330
0
100
AcDbSymbolTable
 70
     1
  0
DIMSTYLE
105
1D
102
{ACAD_REACTORS
330
3CE
330
3ED
330
3FC
330
411
330
43C
330
449
330
459
330
466
330
475
330
49C
330
4A9
330
4D3
330
5AE
330
5BD
102
}
330
A
100
AcDbSymbolTableRecord
100
AcDbDimStyleTableRecord
  2
STANDARD
 70
     0
  3

  4

  5

  6

  7

 40
1.0
 41
0.18
 42
0.0625
 43
0.38
 44
0.18
 45
0.0
 46
0.0
 47
0.0
 48
0.0
140
0.18
141
0.09
142
0.0
143
25.4
144
1.0
145
0.0
146
1.0
147
0.09
 71
     0
 72
     0
 73
     1
 74
     1
 75
     0
 76
     0
 77
     0
 78
     0
170
     0
171
     2
172
     0
173
     0
174
     0
175
     0
176
     0
177
     0
178
     0
270
     2
271
     4
272
     4
273
     2
274
     2
340
10
275
     0
280
     0
281
     0
282
     0
283
     1
284
     0
285
     0
286
     0
287
     3
288
     0
  0
ENDTAB
  0
TABLE
  2
BLOCK_RECORD
  5
1
330
0
100
AcDbSymbolTable
 70
    15
  0
BLOCK_RECORD
  5
1A
102
{ACAD_XDICTIONARY
360
904
102
}
330
1
100
AcDbSymbolTableRecord
100
AcDbBlockTableRecord
  2
*MODEL_SPACE
  0
BLOCK_RECORD
  5
17
102
{ACAD_XDICTIONARY
360
902
102
}
330
1
100
AcDbSymbolTableRecord
100
AcDbBlockTableRecord
  2
*PAPER_SPACE
  0
BLOCK_RECORD
  5
6D
330
1
100
AcDbSymbolTableRecord
100
AcDbBlockTableRecord
  2
_OPEN
  0
BLOCK_RECORD
  5
3C1
330
1
100
AcDbSymbolTableRecord
100
AcDbBlockTableRecord
  2
*D1
  0
BLOCK_RECORD
  5
3E1
330
1
100
AcDbSymbolTableRecord
100
AcDbBlockTableRecord
  2
*D2
  0
BLOCK_RECORD
  5
3EE
330
1
100
AcDbSymbolTableRecord
100
AcDbBlockTableRecord
  2
*D3
  0
BLOCK_RECORD
  5
403
330
1
100
AcDbSymbolTableRecord
100
AcDbBlockTableRecord
  2
*D4
  0
BLOCK_RECORD
  5
430
330
1
100
AcDbSymbolTableRecord
100
AcDbBlockTableRecord
  2
*D5
  0
BLOCK_RECORD
  5
43D
330
1
100
AcDbSymbolTableRecord
100
AcDbBlockTableRecord
  2
*D6
  0
BLOCK_RECORD
  5
44B
330
1
100
AcDbSymbolTableRecord
100
AcDbBlockTableRecord
  2
*D7
  0
BLOCK_RECORD
  5
45A
330
1
100
AcDbSymbolTableRecord
100
AcDbBlockTableRecord
  2
*D8
  0
BLOCK_RECORD
  5
467
330
1
100
AcDbSymbolTableRecord
100
AcDbBlockTableRecord
  2
*D9
  0
BLOCK_RECORD
  5
490
330
1
100
AcDbSymbolTableRecord
100
AcDbBlockTableRecord
  2
*D10
  0
BLOCK_RECORD
  5
49D
330
1
100
AcDbSymbolTableRecord
100
AcDbBlockTableRecord
  2
*D11
  0
BLOCK_RECORD
  5
4C7
330
1
100
AcDbSymbolTableRecord
100
AcDbBlockTableRecord
  2
*D12
  0
BLOCK_RECORD
  5
5A2
330
1
100
AcDbSymbolTableRecord
100
AcDbBlockTableRecord
  2
*D13
  0
BLOCK_RECORD
  5
5AF
330
1
100
AcDbSymbolTableRecord
100
AcDbBlockTableRecord
  2
*D14
  0
ENDTAB
  0
ENDSEC
  0
SECTION
  2
BLOCKS
  0
BLOCK
  5
1B
330
1A
100
AcDbEntity
  8
0
100
AcDbBlockBegin
  2
*MODEL_SPACE
 70
     0
 10
0.0
 20
0.0
 30
0.0
  3
*MODEL_SPACE
  1

  0
ENDBLK
  5
1C
330
1A
100
AcDbEntity
  8
0
100
AcDbBlockEnd
  0
BLOCK
  5
18
330
17
100
AcDbEntity
 67
     1
  8
0
100
AcDbBlockBegin
  2
*PAPER_SPACE
 70
     0
 10
0.0
 20
0.0
 30
0.0
  3
*PAPER_SPACE
  1

  0
ENDBLK
  5
19
330
17
100
AcDbEntity
 67
     1
  8
0
100
AcDbBlockEnd
  0
BLOCK
  5
6E
330
6D
100
AcDbEntity
  8
0
100
AcDbBlockBegin
  2
_OPEN
 70
     0
 10
0.0
 20
0.0
 30
0.0
  3
_OPEN
  1

  0
LINE
  5
6F
330
6D
100
AcDbEntity
  8
0
  6
BYBLOCK
 62
     0
100
AcDbLine
 10
-1.0
 20
0.1666666666666666
 30
0.0
 11
0.0
 21
0.0
 31
0.0
  0
LINE
  5
70
330
6D
100
AcDbEntity
  8
0
  6
BYBLOCK
 62
     0
100
AcDbLine
 10
0.0
 20
0.0
 30
0.0
 11
-1.0
 21
-0.1666666666666666
 31
0.0
  0
LINE
  5
71
330
6D
100
AcDbEntity
  8
0
  6
BYBLOCK
 62
     0
100
AcDbLine
 10
0.0
 20
0.0
 30
0.0
 11
-1.0
 21
0.0
 31
0.0
  0
ENDBLK
  5
72
330
6D
100
AcDbEntity
  8
0
100
AcDbBlockEnd
  0
BLOCK
  5
3C2
330
3C1
100
AcDbEntity
  8
0
100
AcDbBlockBegin
  2
*D1
 70
     1
 10
0.0
 20
0.0
 30
0.0
  3
*D1
  1

  0
LINE
  5
9E7
330
3C1
100
AcDbEntity
  8
SUNPOU
 62
     4
100
AcDbLine
 10
409.8617268555587
 20
435.1666343981101
 30
0.0
 11
464.4220033100542
 21
435.1666343981101
 31
0.0
  0
LINE
  5
9E8
330
3C1
100
AcDbEntity
  8
SUNPOU
 62
     4
100
AcDbLine
 10
409.8617268555584
 20
355.16673439811
 30
0.0
 11
464.4220033100541
 21
355.16673439811
 31
0.0
  0
LINE
  5
9E9
330
3C1
100
AcDbEntity
  8
SUNPOU
 62
     4
100
AcDbLine
 10
461.4220033100542
 20
428.16663439811
 30
0.0
 11
461.4220033100541
 21
362.16673439811
 31
0.0
  0
INSERT
  5
9EA
330
3C1
100
AcDbEntity
  8
SUNPOU
 62
     4
100
AcDbBlockReference
  2
_OPEN
 10
461.4220033100542
 20
435.1666343981101
 30
0.0
 41
7.0
 42
7.0
 43
7.0
 50
90.0
  0
INSERT
  5
9EB
330
3C1
100
AcDbEntity
  8
SUNPOU
 62
     4
100
AcDbBlockReference
  2
_OPEN
 10
461.4220033100541
 20
355.16673439811
 30
0.0
 41
7.0
 42
7.0
 43
7.0
 50
270.0
  0
MTEXT
  5
9EC
330
3C1
100
AcDbEntity
  8
SUNPOU
 62
     4
100
AcDbMText
 10
456.422003310054
 20
395.1666843981101
 30
0.0
 40
6.0
 41
0.0
 71
     5
 72
     1
  1
\A1;80
 11
0.0000000000000001
 21
1.0
 31
0.0
1001
ACAD
1000
MTEXTBEGIN
1070
    73
1070
     1
1070
    44
1040
1.0
1070
    74
1070
     0
1000
MTEXTEND
  0
POINT
  5
9ED
330
3C1
100
AcDbEntity
  8
DEFPOINTS
 62
     0
100
AcDbPoint
 10
403.8617268555587
 20
435.1666343981101
 30
0.0
  0
POINT
  5
9EE
330
3C1
100
AcDbEntity
  8
DEFPOINTS
 62
     0
100
AcDbPoint
 10
403.8617268555585
 20
355.16673439811
 30
0.0
  0
POINT
  5
9EF
330
3C1
100
AcDbEntity
  8
DEFPOINTS
 62
     0
100
AcDbPoint
 10
461.4220033100541
 20
355.16673439811
 30
0.0
  0
ENDBLK
  5
3CD
330
3C1
100
AcDbEntity
  8
0
100
AcDbBlockEnd
  0
BLOCK
  5
3E2
330
3E1
100
AcDbEntity
  8
0
100
AcDbBlockBegin
  2
*D2
 70
     1
 10
0.0
 20
0.0
 30
0.0
  3
*D2
  1

  0
LINE
  5
9DE
330
3E1
100
AcDbEntity
  8
SUNPOU
 62
     4
100
AcDbLine
 10
395.6591491834639
 20
246.5335873452641
 30
0.0
 11
416.753362735867
 21
259.5617932911756
 31
0.0
  0
LINE
  5
9DF
330
3E1
100
AcDbEntity
  8
SUNPOU
 62
     4
100
AcDbLine
 10
433.9414081374265
 20
184.5500610642181
 30
0.0
 11
455.0356216898297
 21
197.5782670101296
 31
0.0
  0
LINE
  5
9E0
330
3E1
100
AcDbEntity
  8
SUNPOU
 62
     4
100
AcDbLine
 10
417.8792708024007
 20
252.0297065268244
 30
0.0
 11
448.8048636421728
 21
201.9574968683991
 31
0.0
  0
INSERT
  5
9E1
330
3E1
100
AcDbEntity
  8
SUNPOU
 62
     4
100
AcDbBlockReference
  2
_OPEN
 10
414.2009377453054
 20
257.9853648381348
 30
0.0
 41
7.0
 42
7.0
 43
7.0
 50
121.7003030379657
  0
INSERT
  5
9E2
330
3E1
100
AcDbEntity
  8
SUNPOU
 62
     4
100
AcDbBlockReference
  2
_OPEN
 10
452.4831966992681
 20
196.0018385570888
 30
0.0
 41
7.0
 42
7.0
 43
7.0
 50
301.7003030379657
  0
MTEXT
  5
9E3
330
3E1
100
AcDbEntity
  8
SUNPOU
 62
     4
100
AcDbMText
 10
437.5961088732227
 20
229.6209824526798
 30
0.0
 40
6.0
 41
0.0
 71
     5
 72
     1
  1
\A1;73
 11
0.5254761510136062
 21
-0.8508083301871966
 31
0.0
1001
ACAD
1000
MTEXTBEGIN
1070
    73
1070
     1
1070
    44
1040
1.0
1070
    74
1070
     0
1000
MTEXTEND
  0
POINT
  5
9E4
330
3E1
100
AcDbEntity
  8
DEFPOINTS
 62
     0
100
AcDbPoint
 10
390.5542992023407
 20
243.3807304391825
 30
0.0
  0
POINT
  5
9E5
330
3E1
100
AcDbEntity
  8
DEFPOINTS
 62
     0
100
AcDbPoint
 10
428.8365581563033
 20
181.3972041581365
 30
0.0
  0
POINT
  5
9E6
330
3E1
100
AcDbEntity
  8
DEFPOINTS
 62
     0
100
AcDbPoint
 10
452.4831966992681
 20
196.0018385570888
 30
0.0
  0
ENDBLK
  5
3EC
330
3E1
100
AcDbEntity
  8
0
100
AcDbBlockEnd
  0
BLOCK
  5
6CF
330
3EE
100
AcDbEntity
  8
0
100
AcDbBlockBegin
  2
*D3
 70
     1
 10
0.0
 20
0.0
 30
0.0
  3
*D3
  1

  0
LINE
  5
9D3
330
3EE
100
AcDbEntity
  8
SUNPOU
 62
     4
100
AcDbLine
 10
431.163367492304
 20
175.7954839071021
 30
0.0
 11
445.5970937409962
 21
151.7741465908065
 31
0.0
  0
LINE
  5
9D4
330
3EE
100
AcDbEntity
  8
SUNPOU
 62
     4
100
AcDbLine
 10
425.1629997366475
 20
172.1900366151283
 30
0.0
 11
439.5967259853397
 21
148.1686992988328
 31
0.0
  0
LINE
  5
9D5
330
3EE
100
AcDbEntity
  8
SUNPOU
 62
     4
100
AcDbLine
 10
432.0514485809707
 20
147.1348768328754
 30
0.0
 11
426.0513051149538
 21
143.5295643100536
 31
0.0
  0
LINE
  5
9D6
330
3EE
100
AcDbEntity
  8
SUNPOU
 62
     4
100
AcDbLine
 10
450.0521032686608
 20
157.9509491704926
 30
0.0
 11
474.0526771327282
 21
172.3721992617797
 31
0.0
  0
LINE
  5
9D7
330
3EE
100
AcDbEntity
  8
SUNPOU
 62
     4
100
AcDbLine
 10
438.0515920469875
 20
150.7401893556971
 30
0.0
 11
444.051959802644
 21
154.3456366476709
 31
0.0
  0
INSERT
  5
9D8
330
3EE
100
AcDbEntity
  8
SUNPOU
 62
     4
100
AcDbBlockReference
  2
_OPEN
 10
438.0515920469875
 20
150.7401893556971
 30
0.0
 41
7.0
 42
7.0
 43
7.0
 50
31.00043924134032
  0
INSERT
  5
9D9
330
3EE
100
AcDbEntity
  8
SUNPOU
 62
     4
100
AcDbBlockReference
  2
_OPEN
 10
444.051959802644
 20
154.3456366476709
 30
0.0
 41
7.0
 42
7.0
 43
7.0
 50
211.0004392413403
  0
MTEXT
  5
9DA
330
3EE
100
AcDbEntity
  8
SUNPOU
 62
     4
100
AcDbMText
 10
462.477238703116
 20
171.2500472389876
 30
0.0
 40
6.0
 41
0.0
 71
     5
 72
     1
  1
\A1;t7.0
 11
0.8571633522881201
 21
0.5150446461173943
 31
0.0
1001
ACAD
1000
MTEXTBEGIN
1070
    73
1070
     1
1070
    44
1040
1.0
1070
    74
1070
     0
1000
MTEXTEND
  0
POINT
  5
9DB
330
3EE
100
AcDbEntity
  8
DEFPOINTS
 62
     0
100
AcDbPoint
 10
428.0730996155996
 20
180.9384640208308
 30
0.0
  0
POINT
  5
9DC
330
3EE
100
AcDbEntity
  8
DEFPOINTS
 62
     0
100
AcDbPoint
 10
422.0727318599432
 20
177.3330167288571
 30
0.0
  0
POINT
  5
9DD
330
3EE
100
AcDbEntity
  8
DEFPOINTS
 62
     0
100
AcDbPoint
 10
438.0515920469875
 20
150.7401893556971
 30
0.0
  0
ENDBLK
  5
6DB
330
3EE
100
AcDbEntity
  8
0
100
AcDbBlockEnd
  0
BLOCK
  5
404
330
403
100
AcDbEntity
  8
0
100
AcDbBlockBegin
  2
*D4
 70
     1
 10
0.0
 20
0.0
 30
0.0
  3
*D4
  1

  0
LINE
  5
A02
330
403
100
AcDbEntity
  8
SUNPOU
 62
     4
100
AcDbLine
 10
385.7822720815893
 20
251.3227906751946
 30
0.0
 11
376.0803612334421
 21
267.4696130493754
 31
0.0
  0
LINE
  5
A03
330
403
100
AcDbEntity
  8
SUNPOU
 62
     4
100
AcDbLine
 10
377.2179874520404
 20
246.1768911273736
 30
0.0
 11
367.5160766038931
 21
262.3237135015545
 31
0.0
  0
LINE
  5
A04
330
403
100
AcDbEntity
  8
SUNPOU
 62
     4
100
AcDbLine
 10
383.6256502716168
 20
268.5033506033033
 30
0.0
 11
389.6258343102043
 21
272.1085956023401
 31
0.0
  0
LINE
  5
A05
330
403
100
AcDbEntity
  8
SUNPOU
 62
     4
100
AcDbLine
 10
363.0609975648929
 20
256.1469610574087
 30
0.0
 11
347.6319528942394
 21
246.8763310598853
 31
0.0
  0
LINE
  5
A06
330
403
100
AcDbEntity
  8
SUNPOU
 62
     4
100
AcDbLine
 10
377.6254662330293
 20
264.8981056042665
 30
0.0
 11
369.0611816034804
 21
259.7522060564455
 31
0.0
  0
INSERT
  5
A07
330
403
100
AcDbEntity
  8
SUNPOU
 62
     4
100
AcDbBlockReference
  2
_OPEN
 10
377.6254662330293
 20
264.8981056042665
 30
0.0
 41
7.0
 42
7.0
 43
7.0
 50
210.9997944542892
  0
INSERT
  5
A08
330
403
100
AcDbEntity
  8
SUNPOU
 62
     4
100
AcDbBlockReference
  2
_OPEN
 10
369.0611816034804
 20
259.7522060564455
 30
0.0
 41
7.0
 42
7.0
 43
7.0
 50
30.99979445428921
  0
MTEXT
  5
A09
330
403
100
AcDbEntity
  8
SUNPOU
 62
     4
100
AcDbMText
 10
349.7712082109604
 20
253.9948693009768
 30
0.0
 40
6.0
 41
0.0
 71
     5
 72
     1
  1
\A1;10
 11
0.8571691483696378
 21
0.5150349998624072
 31
0.0
1001
ACAD
1000
MTEXTBEGIN
1070
    73
1070
     1
1070
    44
1040
1.0
1070
    74
1070
     0
1000
MTEXTEND
  0
POINT
  5
A0A
330
403
100
AcDbEntity
  8
DEFPOINTS
 62
     0
100
AcDbPoint
 10
388.8724820807638
 20
246.1797757849768
 30
0.0
  0
POINT
  5
A0B
330
403
100
AcDbEntity
  8
DEFPOINTS
 62
     0
100
AcDbPoint
 10
380.3081974512148
 20
241.0338762371558
 30
0.0
  0
POINT
  5
A0C
330
403
100
AcDbEntity
  8
DEFPOINTS
 62
     0
100
AcDbPoint
 10
369.0611816034804
 20
259.7522060564455
 30
0.0
  0
ENDBLK
  5
410
330
403
100
AcDbEntity
  8
0
100
AcDbBlockEnd
  0
BLOCK
  5
431
330
430
100
AcDbEntity
  8
0
100
AcDbBlockBegin
  2
*D5
 70
     1
 10
0.0
 20
0.0
 30
0.0
  3
*D5
  1

  0
LINE
  5
A52
330
430
100
AcDbEntity
  8
SUNPOU
 62
     4
100
AcDbLine
 10
558.087681265084
 20
340.3167405597497
 30
0.0
 11
545.1544857385488
 21
361.8412921722124
 31
0.0
  0
LINE
  5
A53
330
430
100
AcDbEntity
  8
SUNPOU
 62
     4
100
AcDbLine
 10
503.2287812650838
 20
307.3543405597497
 30
0.0
 11
490.2955857385487
 21
328.8788921722123
 31
0.0
  0
LINE
  5
A54
330
430
100
AcDbEntity
  8
SUNPOU
 62
     4
100
AcDbLine
 10
540.6994162331823
 20
355.6645328517958
 30
0.0
 11
497.8408731811721
 21
329.9126413720618
 31
0.0
  0
INSERT
  5
A55
330
430
100
AcDbEntity
  8
SUNPOU
 62
     4
100
AcDbBlockReference
  2
_OPEN
 10
546.6995947071772
 20
359.2697871119288
 30
0.0
 41
7.0
 42
7.0
 43
7.0
 50
30.99988288857181
  0
INSERT
  5
A56
330
430
100
AcDbEntity
  8
SUNPOU
 62
     4
100
AcDbBlockReference
  2
_OPEN
 10
491.8406947071771
 20
326.3073871119288
 30
0.0
 41
7.0
 42
7.0
 43
7.0
 50
210.9998828885718
  0
MTEXT
  5
A57
330
430
100
AcDbEntity
  8
SUNPOU
 62
     4
100
AcDbMText
 10
516.6949630927965
 20
347.0744288790681
 30
0.0
 40
6.0
 41
0.0
 71
     5
 72
     1
  1
\A1;64
 11
0.857168353427853
 21
0.5150363228761475
 31
0.0
1001
ACAD
1000
MTEXTBEGIN
1070
    73
1070
     1
1070
    44
1040
1.0
1070
    74
1070
     0
1000
MTEXTEND
  0
POINT
  5
A58
330
430
100
AcDbEntity
  8
DEFPOINTS
 62
     0
100
AcDbPoint
 10
561.1778992023409
 20
335.1737304391826
 30
0.0
  0
POINT
  5
A59
330
430
100
AcDbEntity
  8
DEFPOINTS
 62
     0
100
AcDbPoint
 10
506.3189992023407
 20
302.2113304391826
 30
0.0
  0
POINT
  5
A5A
330
430
100
AcDbEntity
  8
DEFPOINTS
 62
     0
100
AcDbPoint
 10
491.8406947071771
 20
326.3073871119288
 30
0.0
  0
ENDBLK
  5
43B
330
430
100
AcDbEntity
  8
0
100
AcDbBlockEnd
  0
BLOCK
  5
43E
330
43D
100
AcDbEntity
  8
0
100
AcDbBlockBegin
  2
*D6
 70
     1
 10
0.0
 20
0.0
 30
0.0
  3
*D6
  1

  0
LINE
  5
A49
330
43D
100
AcDbEntity
  8
SUNPOU
 62
     4
100
AcDbLine
 10
563.2969771829573
 20
347.0900967682494
 30
0.0
 11
543.8757388919789
 21
378.856051184773
 31
0.0
  0
LINE
  5
A4A
330
43D
100
AcDbEntity
  8
SUNPOU
 62
     4
100
AcDbLine
 10
495.0406771829573
 20
305.3591967682493
 30
0.0
 11
475.6194388919789
 21
337.125151184773
 31
0.0
  0
LINE
  5
A4B
330
43D
100
AcDbEntity
  8
SUNPOU
 62
     4
100
AcDbLine
 10
539.4683558510928
 20
372.6451756642922
 30
0.0
 11
483.1565439522486
 21
338.2169603761872
 31
0.0
  0
INSERT
  5
A4C
330
43D
100
AcDbEntity
  8
SUNPOU
 62
     4
100
AcDbBlockReference
  2
_OPEN
 10
545.4405999016707
 20
376.2965180202397
 30
0.0
 41
7.0
 42
7.0
 43
7.0
 50
31.4410033597009
  0
INSERT
  5
A4D
330
43D
100
AcDbEntity
  8
SUNPOU
 62
     4
100
AcDbBlockReference
  2
_OPEN
 10
477.1842999016707
 20
334.5656180202396
 30
0.0
 41
7.0
 42
7.0
 43
7.0
 50
211.4410033597009
  0
MTEXT
  5
A4E
330
43D
100
AcDbEntity
  8
SUNPOU
 62
     4
100
AcDbMText
 10
508.7043482188511
 20
359.6969566277954
 30
0.0
 40
6.0
 41
0.0
 71
     5
 72
     1
  1
\A1;80
 11
0.8531777215111324
 21
0.521620336563935
 31
0.0
1001
ACAD
1000
MTEXTBEGIN
1070
    73
1070
     1
1070
    44
1040
1.0
1070
    74
1070
     0
1000
MTEXTEND
  0
POINT
  5
A4F
330
43D
100
AcDbEntity
  8
DEFPOINTS
 62
     0
100
AcDbPoint
 10
566.4266992023409
 20
341.9710304391825
 30
0.0
  0
POINT
  5
A50
330
43D
100
AcDbEntity
  8
DEFPOINTS
 62
     0
100
AcDbPoint
 10
498.1703992023409
 20
300.2401304391825
 30
0.0
  0
POINT
  5
A51
330
43D
100
AcDbEntity
  8
DEFPOINTS
 62
     0
100
AcDbPoint
 10
477.1842999016707
 20
334.5656180202396
 30
0.0
  0
ENDBLK
  5
448
330
43D
100
AcDbEntity
  8
0
100
AcDbBlockEnd
  0
BLOCK
  5
44C
330
44B
100
AcDbEntity
  8
0
100
AcDbBlockBegin
  2
*D7
 70
     1
 10
0.0
 20
0.0
 30
0.0
  3
*D7
  1

  0
LINE
  5
A2A
330
44B
100
AcDbEntity
  8
SUNPOU
 62
     4
100
AcDbLine
 10
490.7580202187549
 20
301.334671073576
 30
0.0
 11
459.2571001339642
 21
282.4071045259904
 31
0.0
  0
LINE
  5
A2B
330
44B
100
AcDbEntity
  8
SUNPOU
 62
     4
100
AcDbLine
 10
497.4095790042471
 20
290.2645622344764
 30
0.0
 11
465.9086589194563
 21
271.3369956868908
 31
0.0
  0
LINE
  5
A2C
330
44B
100
AcDbEntity
  8
SUNPOU
 62
     4
100
AcDbLine
 10
458.2233523704296
 20
289.9523921653974
 30
0.0
 11
454.6180992524858
 21
295.9525713256855
 31
0.0
  0
LINE
  5
A2D
330
44B
100
AcDbEntity
  8
SUNPOU
 62
     4
100
AcDbLine
 10
472.0854173918093
 20
266.8819250057214
 30
0.0
 11
475.6906705097531
 21
260.8817458454331
 31
0.0
  0
LINE
  5
A2E
330
44B
100
AcDbEntity
  8
SUNPOU
 62
     4
100
AcDbLine
 10
461.8286054883734
 20
283.9522130051092
 30
0.0
 11
468.4801642738655
 21
272.8821041660095
 31
0.0
  0
INSERT
  5
A2F
330
44B
100
AcDbEntity
  8
SUNPOU
 62
     4
100
AcDbBlockReference
  2
_OPEN
 10
461.8286054883734
 20
283.9522130051092
 30
0.0
 41
7.0
 42
7.0
 43
7.0
 50
300.9998719817932
  0
INSERT
  5
A30
330
44B
100
AcDbEntity
  8
SUNPOU
 62
     4
100
AcDbBlockReference
  2
_OPEN
 10
468.4801642738655
 20
272.8821041660095
 30
0.0
 41
7.0
 42
7.0
 43
7.0
 50
120.9998719817931
  0
MTEXT
  5
A31
330
44B
100
AcDbEntity
  8
SUNPOU
 62
     4
100
AcDbMText
 10
469.4402271384682
 20
280.9923393840907
 30
0.0
 40
6.0
 41
0.0
 71
     5
 72
     1
  1
\A1;13
 11
0.5150361597062576
 21
-0.8571684514697389
 31
0.0
1001
ACAD
1000
MTEXTBEGIN
1070
    73
1070
     1
1070
    44
1040
1.0
1070
    74
1070
     0
1000
MTEXTEND
  0
POINT
  5
A32
330
44B
100
AcDbEntity
  8
DEFPOINTS
 62
     0
100
AcDbPoint
 10
495.9010309275734
 20
304.4248880318135
 30
0.0
  0
POINT
  5
A33
330
44B
100
AcDbEntity
  8
DEFPOINTS
 62
     0
100
AcDbPoint
 10
502.5525897130656
 20
293.3547791927139
 30
0.0
  0
POINT
  5
A34
330
44B
100
AcDbEntity
  8
DEFPOINTS
 62
     0
100
AcDbPoint
 10
468.4801642738655
 20
272.8821041660095
 30
0.0
  0
ENDBLK
  5
458
330
44B
100
AcDbEntity
  8
0
100
AcDbBlockEnd
  0
BLOCK
  5
45B
330
45A
100
AcDbEntity
  8
0
100
AcDbBlockBegin
  2
*D8
 70
     1
 10
0.0
 20
0.0
 30
0.0
  3
*D8
  1

  0
LINE
  5
A21
330
45A
100
AcDbEntity
  8
SUNPOU
 62
     4
100
AcDbLine
 10
497.4095825939573
 20
290.2645562601729
 30
0.0
 11
465.8523737470116
 21
271.3031182906437
 31
0.0
  0
LINE
  5
A22
330
45A
100
AcDbEntity
  8
SUNPOU
 62
     4
100
AcDbLine
 10
523.1614410184678
 20
247.4061625136026
 30
0.0
 11
491.6042321715221
 21
228.4447245440734
 31
0.0
  0
LINE
  5
A23
330
45A
100
AcDbEntity
  8
SUNPOU
 62
     4
100
AcDbLine
 10
472.0291373945302
 20
266.8480547846213
 30
0.0
 11
490.5704756431117
 21
235.9900109826368
 31
0.0
  0
INSERT
  5
A24
330
45A
100
AcDbEntity
  8
SUNPOU
 62
     4
100
AcDbBlockReference
  2
_OPEN
 10
468.4238773065657
 20
272.8482297569142
 30
0.0
 41
7.0
 42
7.0
 43
7.0
 50
120.9999385386239
  0
INSERT
  5
A25
330
45A
100
AcDbEntity
  8
SUNPOU
 62
     4
100
AcDbBlockReference
  2
_OPEN
 10
494.1757357310762
 20
229.9898360103439
 30
0.0
 41
7.0
 42
7.0
 43
7.0
 50
300.9999385386239
  0
MTEXT
  5
A26
330
45A
100
AcDbEntity
  8
SUNPOU
 62
     4
100
AcDbMText
 10
485.5856457847444
 20
253.9942186607465
 30
0.0
 40
6.0
 41
0.0
 71
     5
 72
     1
  1
\A1;50
 11
0.5150371554235017
 21
-0.8571678531847004
 31
0.0
1001
ACAD
1000
MTEXTBEGIN
1070
    73
1070
     1
1070
    44
1040
1.0
1070
    74
1070
     0
1000
MTEXTEND
  0
POINT
  5
A27
330
45A
100
AcDbEntity
  8
DEFPOINTS
 62
     0
100
AcDbPoint
 10
502.5525897130656
 20
293.354779192714
 30
0.0
  0
POINT
  5
A28
330
45A
100
AcDbEntity
  8
DEFPOINTS
 62
     0
100
AcDbPoint
 10
528.304448137576
 20
250.4963854461437
 30
0.0
  0
POINT
  5
A29
330
45A
100
AcDbEntity
  8
DEFPOINTS
 62
     0
100
AcDbPoint
 10
494.1757357310762
 20
229.9898360103439
 30
0.0
  0
ENDBLK
  5
465
330
45A
100
AcDbEntity
  8
0
100
AcDbBlockEnd
  0
BLOCK
  5
468
330
467
100
AcDbEntity
  8
0
100
AcDbBlockBegin
  2
*D9
 70
     1
 10
0.0
 20
0.0
 30
0.0
  3
*D9
  1

  0
LINE
  5
A3E
330
467
100
AcDbEntity
  8
SUNPOU
 62
     4
100
AcDbLine
 10
557.2681143960347
 20
267.8994225825844
 30
0.0
 11
491.5447856629682
 21
228.4089798805176
 31
0.0
  0
LINE
  5
A3F
330
467
100
AcDbEntity
  8
SUNPOU
 62
     4
100
AcDbLine
 10
561.3883918443861
 20
261.0421089978149
 30
0.0
 11
495.6650631113196
 21
221.5516662957481
 31
0.0
  0
LINE
  5
A40
330
467
100
AcDbEntity
  8
SUNPOU
 62
     4
100
AcDbLine
 10
490.5110309337561
 20
235.9542665655833
 30
0.0
 11
486.9057722765531
 21
241.9544423975622
 31
0.0
  0
LINE
  5
A41
330
467
100
AcDbEntity
  8
SUNPOU
 62
     4
100
AcDbLine
 10
501.8418256965134
 20
217.0966013168562
 30
0.0
 11
509.5673799619484
 21
204.2390816769016
 31
0.0
  0
LINE
  5
A42
330
467
100
AcDbEntity
  8
SUNPOU
 62
     4
100
AcDbLine
 10
494.1162895909591
 20
229.9540907336045
 30
0.0
 11
498.2365670393106
 21
223.0967771488351
 31
0.0
  0
INSERT
  5
A43
330
467
100
AcDbEntity
  8
SUNPOU
 62
     4
100
AcDbBlockReference
  2
_OPEN
 10
494.1162895909591
 20
229.9540907336045
 30
0.0
 41
7.0
 42
7.0
 43
7.0
 50
300.9999248762572
  0
INSERT
  5
A44
330
467
100
AcDbEntity
  8
SUNPOU
 62
     4
100
AcDbBlockReference
  2
_OPEN
 10
498.2365670393106
 20
223.0967771488351
 30
0.0
 41
7.0
 42
7.0
 43
7.0
 50
120.9999248762572
  0
MTEXT
  5
A45
330
467
100
AcDbEntity
  8
SUNPOU
 62
     4
100
AcDbMText
 10
511.7930720378173
 20
210.2429383360345
 30
0.0
 40
6.0
 41
0.0
 71
     5
 72
     1
  1
\A1;8
 11
0.5150369510289989
 21
-0.8571679759969763
 31
0.0
1001
ACAD
1000
MTEXTBEGIN
1070
    73
1070
     1
1070
    44
1040
1.0
1070
    74
1070
     0
1000
MTEXTEND
  0
POINT
  5
A46
330
467
100
AcDbEntity
  8
DEFPOINTS
 62
     0
100
AcDbPoint
 10
562.4111222520166
 20
270.9896442887584
 30
0.0
  0
POINT
  5
A47
330
467
100
AcDbEntity
  8
DEFPOINTS
 62
     0
100
AcDbPoint
 10
566.531399700368
 20
264.1323307039889
 30
0.0
  0
POINT
  5
A48
330
467
100
AcDbEntity
  8
DEFPOINTS
 62
     0
100
AcDbPoint
 10
498.2365670393106
 20
223.0967771488351
 30
0.0
  0
ENDBLK
  5
474
330
467
100
AcDbEntity
  8
0
100
AcDbBlockEnd
  0
BLOCK
  5
491
330
490
100
AcDbEntity
  8
0
100
AcDbBlockBegin
  2
*D10
 70
     1
 10
0.0
 20
0.0
 30
0.0
  3
*D10
  1

  0
LINE
  5
A18
330
490
100
AcDbEntity
  8
SUNPOU
 62
     4
100
AcDbLine
 10
256.3721992023408
 20
410.1668343981099
 30
0.0
 11
221.9904852602922
 21
410.1668343981099
 31
0.0
  0
LINE
  5
A19
330
490
100
AcDbEntity
  8
SUNPOU
 62
     4
100
AcDbLine
 10
256.3721992023408
 20
380.1666343981099
 30
0.0
 11
221.9904852602922
 21
380.1666343981099
 31
0.0
  0
LINE
  5
A1A
330
490
100
AcDbEntity
  8
SUNPOU
 62
     4
100
AcDbLine
 10
224.9904852602921
 20
403.1668343981099
 30
0.0
 11
224.9904852602921
 21
387.1666343981099
 31
0.0
  0
INSERT
  5
A1B
330
490
100
AcDbEntity
  8
SUNPOU
 62
     4
100
AcDbBlockReference
  2
_OPEN
 10
224.9904852602921
 20
410.1668343981099
 30
0.0
 41
7.0
 42
7.0
 43
7.0
 50
90.0
  0
INSERT
  5
A1C
330
490
100
AcDbEntity
  8
SUNPOU
 62
     4
100
AcDbBlockReference
  2
_OPEN
 10
224.9904852602921
 20
380.1666343981099
 30
0.0
 41
7.0
 42
7.0
 43
7.0
 50
270.0
  0
MTEXT
  5
A1D
330
490
100
AcDbEntity
  8
SUNPOU
 62
     4
100
AcDbMText
 10
219.9904852602921
 20
395.1667343981099
 30
0.0
 40
6.0
 41
0.0
 71
     5
 72
     1
  1
\A1;30
 11
0.0000000000000001
 21
1.0
 31
0.0
1001
ACAD
1000
MTEXTBEGIN
1070
    73
1070
     1
1070
    44
1040
1.0
1070
    74
1070
     0
1000
MTEXTEND
  0
POINT
  5
A1E
330
490
100
AcDbEntity
  8
DEFPOINTS
 62
     0
100
AcDbPoint
 10
262.3721992023408
 20
410.1668343981099
 30
0.0
  0
POINT
  5
A1F
330
490
100
AcDbEntity
  8
DEFPOINTS
 62
     0
100
AcDbPoint
 10
262.3721992023408
 20
380.1666343981099
 30
0.0
  0
POINT
  5
A20
330
490
100
AcDbEntity
  8
DEFPOINTS
 62
     0
100
AcDbPoint
 10
224.9904852602921
 20
380.1666343981099
 30
0.0
  0
ENDBLK
  5
49B
330
490
100
AcDbEntity
  8
0
100
AcDbBlockEnd
  0
BLOCK
  5
49E
330
49D
100
AcDbEntity
  8
0
100
AcDbBlockBegin
  2
*D11
 70
     1
 10
0.0
 20
0.0
 30
0.0
  3
*D11
  1

  0
LINE
  5
9F9
330
49D
100
AcDbEntity
  8
SUNPOU
 62
     4
100
AcDbLine
 10
263.4552013270087
 20
247.5252264177773
 30
0.0
 11
221.9904852602922
 21
247.5252264177773
 31
0.0
  0
LINE
  5
9FA
330
49D
100
AcDbEntity
  8
SUNPOU
 62
     4
100
AcDbLine
 10
416.0727318599432
 20
177.3330167288571
 30
0.0
 11
221.9904852602922
 21
177.3330167288571
 31
0.0
  0
LINE
  5
9FB
330
49D
100
AcDbEntity
  8
SUNPOU
 62
     4
100
AcDbLine
 10
224.9904852602922
 20
240.5252264177773
 30
0.0
 11
224.9904852602921
 21
184.3330167288572
 31
0.0
  0
INSERT
  5
9FC
330
49D
100
AcDbEntity
  8
SUNPOU
 62
     4
100
AcDbBlockReference
  2
_OPEN
 10
224.9904852602922
 20
247.5252264177773
 30
0.0
 41
7.0
 42
7.0
 43
7.0
 50
90.0
  0
INSERT
  5
9FD
330
49D
100
AcDbEntity
  8
SUNPOU
 62
     4
100
AcDbBlockReference
  2
_OPEN
 10
224.9904852602921
 20
177.3330167288571
 30
0.0
 41
7.0
 42
7.0
 43
7.0
 50
270.0
  0
MTEXT
  5
9FE
330
49D
100
AcDbEntity
  8
SUNPOU
 62
     4
100
AcDbMText
 10
219.9904852602921
 20
212.4291215733173
 30
0.0
 40
6.0
 41
0.0
 71
     5
 72
     1
  1
\A1;70
 11
0.0000000000000001
 21
1.0
 31
0.0
1001
ACAD
1000
MTEXTBEGIN
1070
    73
1070
     1
1070
    44
1040
1.0
1070
    74
1070
     0
1000
MTEXTEND
  0
POINT
  5
9FF
330
49D
100
AcDbEntity
  8
DEFPOINTS
 62
     0
100
AcDbPoint
 10
269.4552013270087
 20
247.5252264177773
 30
0.0
  0
POINT
  5
A00
330
49D
100
AcDbEntity
  8
DEFPOINTS
 62
     0
100
AcDbPoint
 10
422.0727318599432
 20
177.3330167288571
 30
0.0
  0
POINT
  5
A01
330
49D
100
AcDbEntity
  8
DEFPOINTS
 62
     0
100
AcDbPoint
 10
224.9904852602921
 20
177.3330167288571
 30
0.0
  0
ENDBLK
  5
4A8
330
49D
100
AcDbEntity
  8
0
100
AcDbBlockEnd
  0
BLOCK
  5
4D4
330
4C7
100
AcDbEntity
  8
0
100
AcDbBlockBegin
  2
*D12
 70
     1
 10
0.0
 20
0.0
 30
0.0
  3
*D12
  1

  0
LINE
  5
A35
330
4C7
100
AcDbEntity
  8
SUNPOU
 62
     4
100
AcDbLine
 10
586.8157092322928
 20
269.2056355393089
 30
0.0
 11
599.4083186542921
 21
248.2479518057242
 31
0.0
  0
LINE
  5
A36
330
4C7
100
AcDbEntity
  8
SUNPOU
 62
     4
100
AcDbLine
 10
552.5289901924137
 20
248.6041574981487
 30
0.0
 11
565.1215996144129
 21
227.6464737645641
 31
0.0
  0
LINE
  5
A37
330
4C7
100
AcDbEntity
  8
SUNPOU
 62
     4
100
AcDbLine
 10
591.8630319692263
 20
247.2141970765121
 30
0.0
 11
569.5766645933048
 21
233.823236349758
 31
0.0
  0
INSERT
  5
A38
330
4C7
100
AcDbEntity
  8
SUNPOU
 62
     4
100
AcDbBlockReference
  2
_OPEN
 10
597.8632078012051
 20
250.8194557337151
 30
0.0
 41
7.0
 42
7.0
 43
7.0
 50
30.99992487625738
  0
INSERT
  5
A39
330
4C7
100
AcDbEntity
  8
SUNPOU
 62
     4
100
AcDbBlockReference
  2
_OPEN
 10
563.576488761326
 20
230.217977692555
 30
0.0
 41
7.0
 42
7.0
 43
7.0
 50
210.9999248762573
  0
MTEXT
  5
A3A
330
4C7
100
AcDbEntity
  8
SUNPOU
 62
     4
100
AcDbMText
 10
578.1446635261205
 20
244.80455659312
 30
0.0
 40
6.0
 41
0.0
 71
     5
 72
     1
  1
\A1;40
 11
0.857167975996975
 21
0.5150369510290007
 31
0.0
1001
ACAD
1000
MTEXTBEGIN
1070
    73
1070
     1
1070
    44
1040
1.0
1070
    74
1070
     0
1000
MTEXTEND
  0
POINT
  5
A3B
330
4C7
100
AcDbEntity
  8
DEFPOINTS
 62
     0
100
AcDbPoint
 10
583.7254875261188
 20
274.3486433952907
 30
0.0
  0
POINT
  5
A3C
330
4C7
100
AcDbEntity
  8
DEFPOINTS
 62
     0
100
AcDbPoint
 10
549.4387684862397
 20
253.7471653541305
 30
0.0
  0
POINT
  5
A3D
330
4C7
100
AcDbEntity
  8
DEFPOINTS
 62
     0
100
AcDbPoint
 10
563.576488761326
 20
230.217977692555
 30
0.0
  0
ENDBLK
  5
4DE
330
4C7
100
AcDbEntity
  8
0
100
AcDbBlockEnd
  0
BLOCK
  5
5A3
330
5A2
100
AcDbEntity
  8
0
100
AcDbBlockBegin
  2
*D13
 70
     1
 10
0.0
 20
0.0
 30
0.0
  3
*D13
  1

  0
LINE
  5
9F0
330
5A2
100
AcDbEntity
  8
SUNPOU
 62
     4
100
AcDbLine
 10
262.3721922579209
 20
246.7758373906568
 30
0.0
 11
262.3721922579209
 21
292.4334835366282
 31
0.0
  0
LINE
  5
9F1
330
5A2
100
AcDbEntity
  8
SUNPOU
 62
     4
100
AcDbLine
 10
390.5542992023407
 20
249.3807304391825
 30
0.0
 11
390.5542992023407
 21
292.4334835366282
 31
0.0
  0
LINE
  5
9F2
330
5A2
100
AcDbEntity
  8
SUNPOU
 62
     4
100
AcDbLine
 10
269.3721922579209
 20
289.4334835366283
 30
0.0
 11
383.5542992023407
 21
289.4334835366283
 31
0.0
  0
INSERT
  5
9F3
330
5A2
100
AcDbEntity
  8
SUNPOU
 62
     4
100
AcDbBlockReference
  2
_OPEN
 10
262.3721922579209
 20
289.4334835366283
 30
0.0
 41
7.0
 42
7.0
 43
7.0
 50
180.0
  0
INSERT
  5
9F4
330
5A2
100
AcDbEntity
  8
SUNPOU
 62
     4
100
AcDbBlockReference
  2
_OPEN
 10
390.5542992023407
 20
289.4334835366283
 30
0.0
 41
7.0
 42
7.0
 43
7.0
  0
MTEXT
  5
9F5
330
5A2
100
AcDbEntity
  8
SUNPOU
 62
     4
100
AcDbMText
 10
326.4632457301307
 20
294.4334835366282
 30
0.0
 40
6.0
 41
0.0
 71
     5
 72
     1
  1
\A1;128
1001
ACAD
1000
MTEXTBEGIN
1070
    73
1070
     1
1070
    44
1040
1.0
1070
    74
1070
     0
1000
MTEXTEND
  0
POINT
  5
9F6
330
5A2
100
AcDbEntity
  8
DEFPOINTS
 62
     0
100
AcDbPoint
 10
262.3721922579209
 20
240.7758373906568
 30
0.0
  0
POINT
  5
9F7
330
5A2
100
AcDbEntity
  8
DEFPOINTS
 62
     0
100
AcDbPoint
 10
390.5542992023407
 20
243.3807304391825
 30
0.0
  0
POINT
  5
9F8
330
5A2
100
AcDbEntity
  8
DEFPOINTS
 62
     0
100
AcDbPoint
 10
390.5542992023407
 20
289.4334835366283
 30
0.0
  0
ENDBLK
  5
5AD
330
5A2
100
AcDbEntity
  8
0
100
AcDbBlockEnd
  0
BLOCK
  5
5B0
330
5AF
100
AcDbEntity
  8
0
100
AcDbBlockBegin
  2
*D14
 70
     1
 10
0.0
 20
0.0
 30
0.0
  3
*D14
  1

  0
LINE
  5
A0D
330
5AF
100
AcDbEntity
  8
SUNPOU
 62
     4
100
AcDbLine
 10
390.5542992023407
 20
249.3807304391825
 30
0.0
 11
390.5542992023407
 21
280.0474365946429
 31
0.0
  0
LINE
  5
A0E
330
5AF
100
AcDbEntity
  8
SUNPOU
 62
     4
100
AcDbLine
 10
395.3439090945377
 20
217.0953568175219
 30
0.0
 11
395.3439090945377
 21
280.0474365946429
 31
0.0
  0
LINE
  5
A0F
330
5AF
100
AcDbEntity
  8
SUNPOU
 62
     4
100
AcDbLine
 10
383.5542992023407
 20
277.0474365946429
 30
0.0
 11
376.5542992023406
 21
277.0474365946429
 31
0.0
  0
LINE
  5
A10
330
5AF
100
AcDbEntity
  8
SUNPOU
 62
     4
100
AcDbLine
 10
402.3439090945378
 20
277.0474365946429
 30
0.0
 11
417.3439090945377
 21
277.0474365946429
 31
0.0
  0
LINE
  5
A11
330
5AF
100
AcDbEntity
  8
SUNPOU
 62
     4
100
AcDbLine
 10
390.5542992023407
 20
277.0474365946429
 30
0.0
 11
395.3439090945377
 21
277.0474365946429
 31
0.0
  0
INSERT
  5
A12
330
5AF
100
AcDbEntity
  8
SUNPOU
 62
     4
100
AcDbBlockReference
  2
_OPEN
 10
390.5542992023407
 20
277.0474365946429
 30
0.0
 41
7.0
 42
7.0
 43
7.0
  0
INSERT
  5
A13
330
5AF
100
AcDbEntity
  8
SUNPOU
 62
     4
100
AcDbBlockReference
  2
_OPEN
 10
395.3439090945377
 20
277.0474365946429
 30
0.0
 41
7.0
 42
7.0
 43
7.0
 50
180.0
  0
MTEXT
  5
A14
330
5AF
100
AcDbEntity
  8
SUNPOU
 62
     4
100
AcDbMText
 10
413.3439090945377
 20
282.0474365946429
 30
0.0
 40
6.0
 41
0.0
 71
     5
 72
     1
  1
\A1;5
1001
ACAD
1000
MTEXTBEGIN
1070
    73
1070
     1
1070
    44
1040
1.0
1070
    74
1070
     0
1000
MTEXTEND
  0
POINT
  5
A15
330
5AF
100
AcDbEntity
  8
DEFPOINTS
 62
     0
100
AcDbPoint
 10
390.5542992023407
 20
243.3807304391825
 30
0.0
  0
POINT
  5
A16
330
5AF
100
AcDbEntity
  8
DEFPOINTS
 62
     0
100
AcDbPoint
 10
395.3439090945377
 20
211.0953568175219
 30
0.0
  0
POINT
  5
A17
330
5AF
100
AcDbEntity
  8
DEFPOINTS
 62
     0
100
AcDbPoint
 10
395.3439090945377
 20
277.0474365946429
 30
0.0
  0
ENDBLK
  5
5BC
330
5AF
100
AcDbEntity
  8
0
100
AcDbBlockEnd
  0
ENDSEC
  0
SECTION
  2
ENTITIES
  0
LINE
  5
285
330
1A
100
AcDbEntity
  8
CENTER_L
  6
CENTER
 62
     1
 48
5.0
100
AcDbLine
 10
387.6764992023408
 20
224.3303304391825
 30
0.0
 11
404.3316992023408
 21
234.3377304391824
 31
0.0
  0
LINE
  5
286
330
1A
100
AcDbEntity
  8
CENTER_L
  6
CENTER
 62
     1
 48
5.0
100
AcDbLine
 10
394.5900992023408
 20
363.1667343981101
 30
0.0
 11
402.8319992023408
 21
363.1667343981101
 31
0.0
  0
LINE
  5
287
330
1A
100
AcDbEntity
  8
CENTER_L
  6
CENTER
 62
     1
 48
5.0
100
AcDbLine
 10
257.8666992023408
 20
395.16663439811
 30
0.0
 11
435.6138992023408
 21
395.16663439811
 31
0.0
  0
LINE
  5
288
330
1A
100
AcDbEntity
  8
CENTER_L
  6
CENTER
 62
     1
 48
5.0
100
AcDbLine
 10
394.5900992023408
 20
427.1666343981101
 30
0.0
 11
402.8319992023408
 21
427.1666343981101
 31
0.0
  0
LINE
  5
28C
330
1A
100
AcDbEntity
  8
SEIHIN
  6
CONTINUOUS
 62
     3
 48
5.0
100
AcDbLine
 10
406.6216992023408
 20
203.0481304391825
 30
0.0
 11
380.6056126987746
 21
240.6045323931817
 31
0.0
  0
LINE
  5
28D
330
1A
100
AcDbEntity
  8
SEIHIN
  6
CONTINUOUS
 62
     3
 48
5.0
100
AcDbLine
 10
403.8617268555587
 20
435.1666343981101
 30
0.0
 11
385.2321992023406
 21
435.1666343981101
 31
0.0
  0
LINE
  5
28E
330
1A
100
AcDbEntity
  8
SEIHIN
  6
CONTINUOUS
 62
     3
 48
5.0
100
AcDbLine
 10
403.8617268555587
 20
355.16673439811
 30
0.0
 11
385.2321992023406
 21
355.1667343981101
 31
0.0
  0
LINE
  5
28F
330
1A
100
AcDbEntity
  8
SEIHIN
  6
CONTINUOUS
 62
     3
 48
5.0
100
AcDbLine
 10
405.9267992023406
 20
217.7967304391824
 30
0.0
 11
399.2034992023407
 21
213.7570304391824
 31
0.0
  0
LINE
  5
290
330
1A
100
AcDbEntity
  8
SEIHIN
  6
CONTINUOUS
 62
     3
 48
5.0
100
AcDbLine
 10
390.5542992023407
 20
243.3807304391825
 30
0.0
 11
426.0128992023409
 21
184.3672304391825
 31
0.0
  0
LINE
  5
291
330
1A
100
AcDbEntity
  8
SEIHIN
  6
CONTINUOUS
 62
     3
 48
5.0
100
AcDbLine
 10
400.0137992023408
 20
190.5117304391825
 30
0.0
 11
405.1734992023408
 21
190.5117304391825
 31
0.0
  0
LINE
  5
295
330
1A
100
AcDbEntity
  8
SEIHIN
  6
CONTINUOUS
 62
     3
 48
5.0
100
AcDbLine
 10
283.0847992023407
 20
217.8791304391825
 30
0.0
 11
264.8186992023408
 21
218.2693304391825
 31
0.0
  0
LINE
  5
296
330
1A
100
AcDbEntity
  8
SEIHIN
  6
CONTINUOUS
 62
     3
 48
5.0
100
AcDbLine
 10
270.5812992023408
 20
240.0222304391824
 30
0.0
 11
286.0908992023407
 21
240.0222304391824
 31
0.0
  0
LINE
  5
297
330
1A
100
AcDbEntity
  8
SEIHIN
  6
CONTINUOUS
 62
     3
 48
5.0
100
AcDbLine
 10
277.9065992023407
 20
234.0258304391825
 30
0.0
 11
269.1221992023407
 21
234.0258304391825
 31
0.0
  0
ARC
  5
29F
330
1A
100
AcDbEntity
  8
SEIHIN
  6
CONTINUOUS
 62
     3
 48
5.0
100
AcDbCircle
 10
269.1221992093952
 20
240.7758373906568
 30
0.0
 40
6.750006951474336
100
AcDbArc
 50
89.88371088804717
 51
269.9999999401197
  0
ARC
  5
2A0
330
1A
100
AcDbEntity
  8
SEIHIN
  6
CONTINUOUS
 62
     3
 48
5.0
100
AcDbCircle
 10
269.2224960585821
 20
230.0258492861463
 30
0.0
 40
3.999981153037468
100
AcDbArc
 50
288.9399687355508
 51
89.9999549687612
  0
ARC
  5
2A1
330
1A
100
AcDbEntity
  8
SEIHIN
  6
CONTINUOUS
 62
     3
 48
5.0
100
AcDbCircle
 10
284.2834736625715
 20
188.6837181416
 30
0.0
 40
40.00008168967668
100
AcDbArc
 50
110.2484181381011
 51
121.1737991237471
  0
ARC
  5
2A2
330
1A
100
AcDbEntity
  8
SEIHIN
  6
CONTINUOUS
 62
     3
 48
5.0
100
AcDbCircle
 10
264.8720832816571
 20
220.7687899621335
 30
0.0
 40
2.500029553184219
100
AcDbArc
 50
121.1732438700806
 51
268.7764484924698
  0
ARC
  5
2A3
330
1A
100
AcDbEntity
  8
SEIHIN
  6
CONTINUOUS
 62
     3
 48
5.0
100
AcDbCircle
 10
270.5812792289971
 20
242.0222592612671
 30
0.0
 40
2.000028822184382
100
AcDbArc
 50
159.4435211007445
 51
270.0005721859014
  0
LINE
  5
2A5
330
1A
100
AcDbEntity
  8
SEIHIN
  6
CONTINUOUS
 62
     3
 48
5.0
100
AcDbLine
 10
269.7882034516768
 20
247.5245223963721
 30
0.0
 11
269.1221992023407
 21
247.5259304391825
 31
0.0
  0
LINE
  5
2A6
330
1A
100
AcDbEntity
  8
SEIHIN
  6
CONTINUOUS
 62
     3
 48
5.0
100
AcDbLine
 10
268.7085992023408
 20
242.7245304391825
 30
0.0
 11
270.2553090944188
 21
246.8489568172044
 31
0.0
  0
LINE
  5
2A7
330
1A
100
AcDbEntity
  8
SEIHIN
  6
CONTINUOUS
 62
     3
 48
5.0
100
AcDbLine
 10
269.7881630381189
 20
247.524430304973
 30
0.0
 11
269.1221992023407
 21
247.5258304391825
 31
0.0
  0
LINE
  5
2A8
330
1A
100
AcDbEntity
  8
SEIHIN
  6
CONTINUOUS
 62
     3
 48
5.0
100
AcDbLine
 10
371.2507992023408
 20
207.5118304391825
 30
0.0
 11
309.4252992023408
 21
207.5120304391824
 31
0.0
  0
LINE
  5
2A9
330
1A
100
AcDbEntity
  8
SEIHIN
  6
CONTINUOUS
 62
     3
 48
5.0
100
AcDbLine
 10
369.2305992023408
 20
197.5118304391825
 30
0.0
 11
301.8942992023408
 21
197.5120304391825
 31
0.0
  0
LINE
  5
2AA
330
1A
100
AcDbEntity
  8
SEIHIN
  6
CONTINUOUS
 62
     3
 48
5.0
100
AcDbLine
 10
367.6492992023408
 20
192.5118304391825
 30
0.0
 11
301.8942992023408
 21
192.5120304391824
 31
0.0
  0
LINE
  5
2AB
330
1A
100
AcDbEntity
  8
SEIHIN
  6
CONTINUOUS
 62
     3
 48
5.0
100
AcDbLine
 10
351.0241201577387
 20
212.5119304352857
 30
0.0
 11
309.4252992023408
 21
212.5120304391825
 31
0.0
  0
ARC
  5
2AC
330
1A
100
AcDbEntity
  8
SEIHIN
  6
CONTINUOUS
 62
     3
 48
5.0
100
AcDbCircle
 10
282.9780882987962
 20
212.8803372448694
 30
0.0
 40
4.999986748488317
100
AcDbArc
 50
23.54815589828057
 51
92.50909281426922
  0
LINE
  5
2AD
330
1A
100
AcDbEntity
  8
SEIHIN
  6
CONTINUOUS
 62
     3
 48
5.0
100
AcDbLine
 10
300.0607992023408
 20
198.7129304391825
 30
0.0
 11
285.2807992023408
 21
232.6263304391825
 31
0.0
  0
LINE
  5
2AE
330
1A
100
AcDbEntity
  8
SEIHIN
  6
CONTINUOUS
 62
     3
 48
5.0
100
AcDbLine
 10
305.2351992023407
 20
214.7837304391825
 30
0.0
 11
290.2809992023408
 21
237.7505304391824
 31
0.0
  0
LINE
  5
2AF
330
1A
100
AcDbEntity
  8
SEIHIN
  6
CONTINUOUS
 62
     3
 48
5.0
100
AcDbLine
 10
301.0451992023407
 20
212.0554304391824
 30
0.0
 11
287.0354992023407
 21
233.5714304391824
 31
0.0
  0
LINE
  5
2B0
330
1A
100
AcDbEntity
  8
SEIHIN
  6
CONTINUOUS
 62
     3
 48
5.0
100
AcDbLine
 10
295.4771992023408
 20
196.7153304391824
 30
0.0
 11
279.7400992023408
 21
232.8248304391825
 31
0.0
  0
ARC
  5
2B1
330
1A
100
AcDbEntity
  8
SEIHIN
  6
CONTINUOUS
 62
     3
 48
5.0
100
AcDbCircle
 10
309.4252476599675
 20
217.5120583840264
 30
0.0
 40
5.000027945109595
100
AcDbArc
 50
213.0699508795561
 51
270.0005906287908
  0
ARC
  5
2B2
330
1A
100
AcDbEntity
  8
SEIHIN
  6
CONTINUOUS
 62
     3
 48
5.0
100
AcDbCircle
 10
309.425323721249
 20
217.5120171456649
 30
0.0
 40
9.999986706512528
100
AcDbArc
 50
213.0690522590689
 51
269.9998595168175
  0
ARC
  5
2B3
330
1A
100
AcDbEntity
  8
SEIHIN
  6
CONTINUOUS
 62
     3
 48
5.0
100
AcDbCircle
 10
301.8942608559709
 20
199.5120555569494
 30
0.0
 40
7.000025117871945
100
AcDbArc
 50
203.5488451777049
 51
270.0003138681817
  0
ARC
  5
2B4
330
1A
100
AcDbEntity
  8
SEIHIN
  6
CONTINUOUS
 62
     3
 48
5.0
100
AcDbCircle
 10
301.8942451854838
 20
199.5120658210565
 30
0.0
 40
2.000035382603483
100
AcDbArc
 50
203.5507137250291
 51
270.0015474415909
  0
ARC
  5
2B5
330
1A
100
AcDbEntity
  8
SEIHIN
  6
CONTINUOUS
 62
     3
 48
5.0
100
AcDbCircle
 10
286.0909507447141
 20
235.0222024943385
 30
0.0
 40
5.000027945109562
100
AcDbArc
 50
33.06995087955594
 51
90.0005906287904
  0
ARC
  5
2B6
330
1A
100
AcDbEntity
  8
SEIHIN
  6
CONTINUOUS
 62
     3
 48
5.0
100
AcDbCircle
 10
277.9066227214225
 20
232.0258150330511
 30
0.0
 40
2.000015406269639
100
AcDbArc
 50
23.54721388839448
 51
90.00067376687091
  0
ARC
  5
2B7
330
1A
100
AcDbEntity
  8
SEIHIN
  6
CONTINUOUS
 62
     3
 48
5.0
100
AcDbCircle
 10
286.1975198199073
 20
233.0258415451453
 30
0.0
 40
0.9999929072043707
100
AcDbArc
 50
33.07201745557989
 51
203.5477960158737
  0
ARC
  5
2B9
330
1A
100
AcDbEntity
  8
SEIHIN
  6
CONTINUOUS
 62
     3
 48
5.0
100
AcDbCircle
 10
392.5138992023407
 20
215.5118304391826
 30
0.0
 40
2.999999999999914
100
AcDbArc
 50
359.9999999999983
 51
89.99999999999836
  0
ARC
  5
2BA
330
1A
100
AcDbEntity
  8
SEIHIN
  6
CONTINUOUS
 62
     3
 48
5.0
100
AcDbCircle
 10
393.7909040689407
 20
203.5118357591114
 30
0.0
 40
34.99993746458748
100
AcDbArc
 50
114.567781973807
 51
160.5285208981341
  0
ARC
  5
2BB
330
1A
100
AcDbEntity
  8
SEIHIN
  6
CONTINUOUS
 62
     3
 48
5.0
100
AcDbCircle
 10
386.6063026673922
 20
213.5118329286838
 30
0.0
 40
4.999997510499969
100
AcDbArc
 50
90.000039706586
 51
161.3915150586076
  0
LINE
  5
2BC
330
1A
100
AcDbEntity
  8
SEIHIN
  6
CONTINUOUS
 62
     3
 48
5.0
100
AcDbLine
 10
377.3351992023406
 20
217.3149304391825
 30
0.0
 11
376.1764992023406
 21
213.8736304391824
 31
0.0
  0
ARC
  5
2BD
330
1A
100
AcDbEntity
  8
SEIHIN
  6
CONTINUOUS
 62
     3
 48
5.0
100
AcDbCircle
 10
369.2305714341553
 20
199.5118104889835
 30
0.0
 40
1.999980049993723
100
AcDbArc
 50
270.0007955078534
 51
341.3919051905503
  0
LINE
  5
2BE
330
1A
100
AcDbEntity
  8
SEIHIN
  6
CONTINUOUS
 62
     3
 48
5.0
100
AcDbLine
 10
374.2809992023408
 20
212.5118304391825
 30
0.0
 11
362.6781992023408
 21
212.5118304391825
 31
0.0
  0
LINE
  5
2BF
330
1A
100
AcDbEntity
  8
SEIHIN
  6
CONTINUOUS
 62
     3
 48
5.0
100
AcDbLine
 10
381.9658992023408
 20
194.9231304391824
 30
0.0
 11
369.4168992023408
 21
192.6693304391825
 31
0.0
  0
ARC
  5
2C0
330
1A
100
AcDbEntity
  8
SEIHIN
  6
CONTINUOUS
 62
     3
 48
5.0
100
AcDbCircle
 10
367.6490791913998
 20
202.5118108413442
 30
0.0
 40
9.999980402881837
100
AcDbArc
 50
270.0006876133891
 51
280.1823964347417
  0
ARC
  5
2C1
330
1A
100
AcDbEntity
  8
SEIHIN
  6
CONTINUOUS
 62
     3
 48
5.0
100
AcDbCircle
 10
362.6782013015255
 20
214.5118274704281
 30
0.0
 40
1.999997031246654
100
AcDbArc
 50
160.527646227211
 51
269.9999398627005
  0
ARC
  5
2C2
330
1A
100
AcDbEntity
  8
SEIHIN
  6
CONTINUOUS
 62
     3
 48
5.0
100
AcDbCircle
 10
400.5139280728963
 20
194.5978506977984
 30
0.0
 40
3.000028871615423
100
AcDbArc
 50
179.9984770664024
 51
219.8042926863897
  0
LINE
  5
2C3
330
1A
100
AcDbEntity
  8
SEIHIN
  6
CONTINUOUS
 62
     3
 48
5.0
100
AcDbLine
 10
398.2091992023408
 20
192.6773304391824
 30
0.0
 11
400.0137992023408
 21
190.5117304391825
 31
0.0
  0
ARC
  5
2C4
330
1A
100
AcDbEntity
  8
SEIHIN
  6
CONTINUOUS
 62
     3
 48
5.0
100
AcDbCircle
 10
381.0820087160487
 20
199.8443371060812
 30
0.0
 40
4.999953744794761
100
AcDbArc
 50
280.1822442156435
 51
329.8605715074694
  0
LINE
  5
2C5
330
1A
100
AcDbEntity
  8
SEIHIN
  6
CONTINUOUS
 62
     3
 48
5.0
100
AcDbLine
 10
378.2874992023407
 20
199.9812304391825
 30
0.0
 11
386.6166992023406
 21
201.0172304391824
 31
0.0
  0
LINE
  5
2C6
330
1A
100
AcDbEntity
  8
SEIHIN
  6
CONTINUOUS
 62
     3
 48
5.0
100
AcDbLine
 10
387.1107992023406
 20
200.2699304391824
 30
0.0
 11
385.4060992023408
 21
197.3338304391825
 31
0.0
  0
ARC
  5
2C7
330
1A
100
AcDbEntity
  8
SEIHIN
  6
CONTINUOUS
 62
     3
 48
5.0
100
AcDbCircle
 10
371.2507848690153
 20
205.5118503893816
 30
0.0
 40
1.999980049852313
100
AcDbArc
 50
341.390699059073
 51
89.99958937637616
  0
LINE
  5
2C8
330
1A
100
AcDbEntity
  8
SEIHIN
  6
CONTINUOUS
 62
     3
 48
5.0
100
AcDbLine
 10
377.2162992023408
 20
201.2926304391825
 30
0.0
 11
381.8676992023407
 21
215.1073304391824
 31
0.0
  0
ARC
  5
2C9
330
1A
100
AcDbEntity
  8
SEIHIN
  6
CONTINUOUS
 62
     3
 48
5.0
100
AcDbCircle
 10
378.1640501138119
 20
200.9735905401188
 30
0.0
 40
1.000009123652829
100
AcDbArc
 50
161.3953039801504
 51
277.0911363845447
  0
LINE
  5
2CA
330
1A
100
AcDbEntity
  8
SEIHIN
  6
CONTINUOUS
 62
     3
 48
5.0
100
AcDbLine
 10
371.1259992023408
 20
198.8736304391824
 30
0.0
 11
373.1461992023407
 21
204.8736304391825
 31
0.0
  0
ARC
  5
2CB
330
1A
100
AcDbEntity
  8
SEIHIN
  6
CONTINUOUS
 62
     3
 48
5.0
100
AcDbCircle
 10
374.2810373890077
 20
214.511857875056
 30
0.0
 40
2.000027436238052
100
AcDbArc
 50
269.998906047581
 51
341.3909298775974
  0
LINE
  5
2CC
330
1A
100
AcDbEntity
  8
SEIHIN
  6
CONTINUOUS
 62
     3
 48
5.0
100
AcDbLine
 10
400.0138992023407
 20
200.5117304391824
 30
0.0
 11
400.0138992023407
 21
208.5118304391825
 31
0.0
  0
ARC
  5
2CD
330
1A
100
AcDbEntity
  8
SEIHIN
  6
CONTINUOUS
 62
     3
 48
5.0
100
AcDbCircle
 10
386.6783990915272
 20
200.5210306067819
 30
0.0
 40
0.5000211495526688
100
AcDbArc
 50
329.8557273130285
 51
97.08805302438491
  0
ARC
  5
2CE
330
1A
100
AcDbEntity
  8
SEIHIN
  6
CONTINUOUS
 62
     3
 48
5.0
100
AcDbCircle
 10
400.513896064004
 20
196.4256217706508
 30
0.0
 40
2.999996861675942
100
AcDbArc
 50
140.1954860154998
 51
179.9998344430669
  0
LINE
  5
2CF
330
1A
100
AcDbEntity
  8
SEIHIN
  6
CONTINUOUS
 62
     3
 48
5.0
100
AcDbLine
 10
397.5138992023406
 20
196.4256304391825
 30
0.0
 11
397.5137992023408
 21
194.5979304391825
 31
0.0
  0
LINE
  5
2D0
330
1A
100
AcDbEntity
  8
SEIHIN
  6
CONTINUOUS
 62
     3
 48
5.0
100
AcDbLine
 10
400.0138992023407
 20
200.5117304391824
 30
0.0
 11
398.2091992023408
 21
198.3461304391824
 31
0.0
  0
ARC
  5
2D1
330
1A
100
AcDbEntity
  8
SEIHIN
  6
CONTINUOUS
 62
     3
 48
5.0
100
AcDbCircle
 10
398.5138863964527
 20
212.9986536174233
 30
0.0
 40
2.999987194201604
100
AcDbArc
 50
180.0004426736828
 51
237.8414024554166
  0
LINE
  5
2D2
330
1A
100
AcDbEntity
  8
SEIHIN
  6
CONTINUOUS
 62
     3
 48
5.0
100
AcDbLine
 10
400.0138992023407
 20
208.5118304391825
 30
0.0
 11
396.9170992023408
 21
210.4589304391824
 31
0.0
  0
LINE
  5
2D3
330
1A
100
AcDbEntity
  8
SEIHIN
  6
CONTINUOUS
 62
     3
 48
5.0
100
AcDbLine
 10
395.5138992023406
 20
215.5118304391825
 30
0.0
 11
395.5138992023406
 21
212.9986304391824
 31
0.0
  0
ARC
  5
2D4
330
1A
100
AcDbEntity
  8
SEIHIN
  6
CONTINUOUS
 62
     3
 48
5.0
100
AcDbCircle
 10
393.7909482262885
 20
203.5118687635929
 30
0.0
 40
40.00002535263593
100
AcDbArc
 50
94.64122939505058
 51
161.8737239834233
  0
LINE
  5
2D5
330
1A
100
AcDbEntity
  8
SEIHIN
  6
CONTINUOUS
 62
     3
 48
5.0
100
AcDbLine
 10
355.8819992023408
 20
216.2756304391825
 30
0.0
 11
355.7610992023408
 21
215.9164304391825
 31
0.0
  0
ARC
  5
2D6
330
1A
100
AcDbEntity
  8
SEIHIN
  6
CONTINUOUS
 62
     3
 48
5.0
100
AcDbCircle
 10
382.8459074721267
 20
228.5899531878182
 30
0.0
 40
5.000009435971671
100
AcDbArc
 50
285.3335522590342
 51
34.7107924600359
  0
ARC
  5
2D7
330
1A
100
AcDbEntity
  8
SEIHIN
  6
CONTINUOUS
 62
     3
 48
5.0
100
AcDbCircle
 10
381.3178389687724
 20
230.7959195153673
 30
0.0
 40
5.000002719029229
100
AcDbArc
 50
34.71131517219796
 51
114.5689332141523
  0
ARC
  5
2D8
330
1A
100
AcDbEntity
  8
SEIHIN
  6
CONTINUOUS
 62
     3
 48
5.0
100
AcDbCircle
 10
386.8123704895475
 20
214.1239033225924
 30
0.0
 40
9.999971483252865
100
AcDbArc
 50
105.3329602795709
 51
161.3912756113643
  0
LINE
  5
2D9
330
1A
100
AcDbEntity
  8
SEIHIN
  6
CONTINUOUS
 62
     3
 48
5.0
100
AcDbLine
 10
394.3383992023408
 20
218.5118304391825
 30
0.0
 11
386.6061992023408
 21
218.5118304391825
 31
0.0
  0
ARC
  5
2DA
330
1A
100
AcDbEntity
  8
SEIHIN
  6
CONTINUOUS
 62
     3
 48
5.0
100
AcDbCircle
 10
394.3383893540096
 20
215.5118355975247
 30
0.0
 40
2.99999484167398
100
AcDbArc
 50
34.71066821001274
 51
89.99981191040552
  0
LINE
  5
2E4
330
1A
100
AcDbEntity
  8
SEIHIN
  6
CONTINUOUS
 62
     3
 48
5.0
100
AcDbLine
 10
375.2321992023406
 20
410.1666343981101
 30
0.0
 11
262.3720992023408
 21
410.1666343981101
 31
0.0
  0
LINE
  5
2E5
330
1A
100
AcDbEntity
  8
SEIHIN
  6
CONTINUOUS
 62
     3
 48
5.0
100
AcDbLine
 10
375.2321992023406
 20
380.1667343981101
 30
0.0
 11
262.3720992023408
 21
380.1667343981101
 31
0.0
  0
LINE
  5
2E7
330
1A
100
AcDbEntity
  8
SEIHIN
  6
CONTINUOUS
 62
     3
 48
5.0
100
AcDbLine
 10
270.5080992023407
 20
395.16663439811
 30
0.0
 11
270.5080992023407
 21
380.1666343981099
 31
0.0
  0
LINE
  5
2E8
330
1A
100
AcDbEntity
  8
SEIHIN
  6
CONTINUOUS
 62
     3
 48
5.0
100
AcDbLine
 10
262.3721992023408
 20
395.16663439811
 30
0.0
 11
262.3721992023408
 21
380.1666343981099
 31
0.0
  0
LINE
  5
2F2
330
1A
100
AcDbEntity
  8
SEIHIN
  6
CONTINUOUS
 62
     3
 48
5.0
100
AcDbLine
 10
262.3721992023408
 20
395.16663439811
 30
0.0
 11
262.3721992023408
 21
410.1668343981099
 31
0.0
  0
LINE
  5
2F3
330
1A
100
AcDbEntity
  8
SEIHIN
  6
CONTINUOUS
 62
     3
 48
5.0
100
AcDbLine
 10
270.5080992023407
 20
395.16663439811
 30
0.0
 11
270.5080992023407
 21
410.1668343981099
 31
0.0
  0
LINE
  5
2F4
330
1A
100
AcDbEntity
  8
SEIHIN
  6
CONTINUOUS
 62
     3
 48
5.0
100
AcDbLine
 10
354.6147992023408
 20
395.1668343981101
 30
0.0
 11
354.6147992023408
 21
380.1666343981099
 31
0.0
  0
LINE
  5
2F5
330
1A
100
AcDbEntity
  8
SEIHIN
  6
CONTINUOUS
 62
     3
 48
5.0
100
AcDbLine
 10
306.7836992023408
 20
395.1667343981101
 30
0.0
 11
306.7836992023408
 21
380.1666343981099
 31
0.0
  0
LINE
  5
2F6
330
1A
100
AcDbEntity
  8
SEIHIN
  6
CONTINUOUS
 62
     3
 48
5.0
100
AcDbLine
 10
284.2638992023408
 20
395.1667343981101
 30
0.0
 11
284.2638992023408
 21
380.1666343981099
 31
0.0
  0
LINE
  5
2F7
330
1A
100
AcDbEntity
  8
SEIHIN
  6
CONTINUOUS
 62
     3
 48
5.0
100
AcDbLine
 10
390.4755992023408
 20
395.1668343981101
 30
0.0
 11
390.4755992023408
 21
360.1667343981101
 31
0.0
  0
LINE
  5
2F8
330
1A
100
AcDbEntity
  8
SEIHIN
  6
CONTINUOUS
 62
     3
 48
5.0
100
AcDbLine
 10
400.7762992023408
 20
395.1668343981101
 30
0.0
 11
400.7762992023408
 21
372.1667343981101
 31
0.0
  0
LINE
  5
2F9
330
1A
100
AcDbEntity
  8
SEIHIN
  6
CONTINUOUS
 62
     3
 48
5.0
100
AcDbLine
 10
399.9190992023406
 20
395.1668343981101
 30
0.0
 11
399.9190992023406
 21
372.1667343981101
 31
0.0
  0
LINE
  5
2FA
330
1A
100
AcDbEntity
  8
SEIHIN
  6
CONTINUOUS
 62
     3
 48
5.0
100
AcDbLine
 10
393.0506992023408
 20
395.1668343981101
 30
0.0
 11
393.0506992023408
 21
372.1667343981101
 31
0.0
  0
ARC
  5
2FE
330
1A
100
AcDbEntity
  8
SEIHIN
  6
CONTINUOUS
 62
     3
 48
5.0
100
AcDbCircle
 10
399.7762992023408
 20
372.1667343981101
 30
0.0
 40
1.0
100
AcDbArc
 50
270.0
 51
0.0
  0
ARC
  5
2FF
330
1A
100
AcDbEntity
  8
SEIHIN
  6
CONTINUOUS
 62
     3
 48
5.0
100
AcDbCircle
 10
398.9190992023407
 20
372.1667343981101
 30
0.0
 40
1.0
100
AcDbArc
 50
270.0
 51
0.0
  0
ARC
  5
300
330
1A
100
AcDbEntity
  8
SEIHIN
  6
CONTINUOUS
 62
     3
 48
5.0
100
AcDbCircle
 10
394.0506992023408
 20
372.1667343981101
 30
0.0
 40
1.0
100
AcDbArc
 50
180.0
 51
270.0
  0
LINE
  5
301
330
1A
100
AcDbEntity
  8
SEIHIN
  6
CONTINUOUS
 62
     3
 48
5.0
100
AcDbLine
 10
380.2321992023408
 20
375.1667343981101
 30
0.0
 11
380.2321992023408
 21
360.1667343981101
 31
0.0
  0
ARC
  5
302
330
1A
100
AcDbEntity
  8
SEIHIN
  6
CONTINUOUS
 62
     3
 48
5.0
100
AcDbCircle
 10
385.2321992023407
 20
360.16673439811
 30
0.0
 40
4.999999999999914
100
AcDbArc
 50
179.999999999999
 51
269.999999999999
  0
LINE
  5
303
330
1A
100
AcDbEntity
  8
CENTER_L
  6
CENTER
 62
     1
 48
5.0
100
AcDbLine
 10
398.2010992023408
 20
368.8782343981101
 30
0.0
 11
398.2010992023408
 21
358.73703439811
 31
0.0
  0
ARC
  5
304
330
1A
100
AcDbEntity
  8
SEIHIN
  6
CONTINUOUS
 62
     3
 48
5.0
100
AcDbCircle
 10
395.4755992023408
 20
360.1667343981101
 30
0.0
 40
5.0
100
AcDbArc
 50
180.0
 51
270.0
  0
LINE
  5
305
330
1A
100
AcDbEntity
  8
SEIHIN
  6
CONTINUOUS
 62
     3
 48
5.0
100
AcDbLine
 10
399.7762992023408
 20
371.1667343981101
 30
0.0
 11
394.0506992023408
 21
371.1667343981101
 31
0.0
  0
ARC
  5
306
330
1A
100
AcDbEntity
  8
SEIHIN
  6
CONTINUOUS
 62
     3
 48
5.0
100
AcDbCircle
 10
375.2321992023407
 20
375.16673439811
 30
0.0
 40
5.000000000000085
100
AcDbArc
 50
0.0000000000009771
 51
90.00000000000097
  0
LINE
  5
307
330
1A
100
AcDbEntity
  8
SEIHIN
  6
CONTINUOUS
 62
     3
 48
5.0
100
AcDbLine
 10
284.2638992023408
 20
395.1667343981101
 30
0.0
 11
284.2638992023408
 21
410.1668343981099
 31
0.0
  0
LINE
  5
308
330
1A
100
AcDbEntity
  8
SEIHIN
  6
CONTINUOUS
 62
     3
 48
5.0
100
AcDbLine
 10
306.7836992023408
 20
395.1667343981101
 30
0.0
 11
306.7836992023408
 21
410.1668343981099
 31
0.0
  0
LINE
  5
309
330
1A
100
AcDbEntity
  8
SEIHIN
  6
CONTINUOUS
 62
     3
 48
5.0
100
AcDbLine
 10
354.6147992023408
 20
395.16663439811
 30
0.0
 11
354.6147992023408
 21
410.1667343981101
 31
0.0
  0
LINE
  5
30A
330
1A
100
AcDbEntity
  8
SEIHIN
  6
CONTINUOUS
 62
     3
 48
5.0
100
AcDbLine
 10
393.0506992023408
 20
395.16663439811
 30
0.0
 11
393.0506992023408
 21
418.1666343981101
 31
0.0
  0
LINE
  5
30B
330
1A
100
AcDbEntity
  8
SEIHIN
  6
CONTINUOUS
 62
     3
 48
5.0
100
AcDbLine
 10
399.9190992023406
 20
395.16663439811
 30
0.0
 11
399.9190992023406
 21
418.1666343981101
 31
0.0
  0
LINE
  5
30C
330
1A
100
AcDbEntity
  8
SEIHIN
  6
CONTINUOUS
 62
     3
 48
5.0
100
AcDbLine
 10
400.7762992023408
 20
395.16663439811
 30
0.0
 11
400.7762992023408
 21
418.1666343981101
 31
0.0
  0
LINE
  5
30D
330
1A
100
AcDbEntity
  8
SEIHIN
  6
CONTINUOUS
 62
     3
 48
5.0
100
AcDbLine
 10
380.2321992023408
 20
415.1666343981099
 30
0.0
 11
380.2321992023408
 21
430.1666343981099
 31
0.0
  0
LINE
  5
30E
330
1A
100
AcDbEntity
  8
SEIHIN
  6
CONTINUOUS
 62
     3
 48
5.0
100
AcDbLine
 10
390.4755992023408
 20
395.16663439811
 30
0.0
 11
390.4755992023408
 21
430.1666343981099
 31
0.0
  0
ARC
  5
30F
330
1A
100
AcDbEntity
  8
SEIHIN
  6
CONTINUOUS
 62
     3
 48
5.0
100
AcDbCircle
 10
375.2321992023408
 20
415.1666343981101
 30
0.0
 40
5.0
100
AcDbArc
 50
269.999999999998
 51
359.999999999998
  0
ARC
  5
310
330
1A
100
AcDbEntity
  8
SEIHIN
  6
CONTINUOUS
 62
     3
 48
5.0
100
AcDbCircle
 10
385.2321992023408
 20
430.1666343981101
 30
0.0
 40
5.0
100
AcDbArc
 50
90.00000000000197
 51
180.0000000000019
  0
LINE
  5
311
330
1A
100
AcDbEntity
  8
CENTER_L
  6
CENTER
 62
     1
 48
5.0
100
AcDbLine
 10
398.2010992023408
 20
421.4551343981098
 30
0.0
 11
398.2010992023408
 21
431.5963343981101
 31
0.0
  0
ARC
  5
312
330
1A
100
AcDbEntity
  8
SEIHIN
  6
CONTINUOUS
 62
     3
 48
5.0
100
AcDbCircle
 10
394.0506992023407
 20
418.1666343981099
 30
0.0
 40
0.9999999999999147
100
AcDbArc
 50
89.99999999999511
 51
179.9999999999951
  0
ARC
  5
313
330
1A
100
AcDbEntity
  8
SEIHIN
  6
CONTINUOUS
 62
     3
 48
5.0
100
AcDbCircle
 10
399.7762992023409
 20
418.1666343981099
 30
0.0
 40
0.9999999999999147
100
AcDbArc
 50
0.0000000000048853
 51
90.00000000000488
  0
ARC
  5
314
330
1A
100
AcDbEntity
  8
SEIHIN
  6
CONTINUOUS
 62
     3
 48
5.0
100
AcDbCircle
 10
398.9190992023408
 20
418.1666343981099
 30
0.0
 40
0.9999999999999147
100
AcDbArc
 50
0.0000000000048853
 51
90.00000000000488
  0
LINE
  5
315
330
1A
100
AcDbEntity
  8
SEIHIN
  6
CONTINUOUS
 62
     3
 48
5.0
100
AcDbLine
 10
399.7762992023408
 20
419.1666343981099
 30
0.0
 11
394.0506992023408
 21
419.1666343981099
 31
0.0
  0
ARC
  5
316
330
1A
100
AcDbEntity
  8
SEIHIN
  6
CONTINUOUS
 62
     3
 48
5.0
100
AcDbCircle
 10
395.4755992023409
 20
430.1666343981099
 30
0.0
 40
5.000000000000085
100
AcDbArc
 50
90.00000000000097
 51
180.0000000000009
  0
LINE
  5
31A
330
1A
100
AcDbEntity
  8
SEIHIN
  6
CONTINUOUS
 62
     3
 48
5.0
100
AcDbLine
 10
583.0929992023406
 20
279.9166304391824
 30
0.0
 11
544.8194992023407
 21
256.9196304391825
 31
0.0
  0
LINE
  5
31B
330
1A
100
AcDbEntity
  8
SEIHIN
  6
CONTINUOUS
 62
     3
 48
5.0
100
AcDbLine
 10
582.3454992023409
 20
274.8010304391824
 30
0.0
 11
550.4346992023409
 21
255.6270304391826
 31
0.0
  0
LINE
  5
31C
330
1A
100
AcDbEntity
  8
SEIHIN
  6
CONTINUOUS
 62
     3
 48
5.0
100
AcDbLine
 10
545.914777719968
 20
256.1793097728377
 30
0.0
 11
510.0979992023408
 21
280.3891304391825
 31
0.0
  0
LINE
  5
31D
330
1A
100
AcDbEntity
  8
SEIHIN
  6
CONTINUOUS
 62
     3
 48
5.0
100
AcDbLine
 10
566.5313992023406
 20
264.1323304391824
 30
0.0
 11
551.042938813949
 21
255.8969489961727
 31
0.0
  0
TEXT
  5
324
330
1A
100
AcDbEntity
  8
SUNPOU
  6
CONTINUOUS
 62
     4
 48
5.0
100
AcDbText
 10
453.3741721371434
 20
116.9886585108978
 30
0.0
 40
6.0
  1
6
100
AcDbText
  0
TEXT
  5
32C
330
1A
100
AcDbEntity
  8
SUNPOU
  6
CONTINUOUS
 62
     4
 48
5.0
100
AcDbText
 10
439.2248770840956
 20
131.9769836963151
 30
0.0
 40
6.0
  1
10
100
AcDbText
  0
LINE
  5
32D
330
1A
100
AcDbEntity
  8
SUNPOU
  6
CONTINUOUS
 62
     4
 48
5.0
100
AcDbLine
 10
429.95189185002
 20
177.8115925230265
 30
0.0
 11
461.1519770672875
 21
125.8863158360672
 31
0.0
  0
ARC
  5
336
330
1A
100
AcDbEntity
  8
SEIHIN
  6
CONTINUOUS
 62
     3
 48
5.0
100
AcDbCircle
 10
411.0878345381021
 20
191.7320216279348
 30
0.0
 40
2.000042590796624
100
AcDbArc
 50
31.00035845777428
 51
120.997902865249
  0
LINE
  5
337
330
1A
100
AcDbEntity
  8
SEIHIN
  6
CONTINUOUS
 62
     3
 48
5.0
100
AcDbLine
 10
406.6217992023409
 20
203.0481304391825
 30
0.0
 11
421.8152207642182
 21
177.7615945535735
 31
0.0
  0
LINE
  5
338
330
1A
100
AcDbEntity
  8
CENTER_L
  6
CENTER
 62
     1
 48
5.0
100
AcDbLine
 10
430.2709992023407
 20
191.5927304391825
 30
0.0
 11
413.7697992023406
 21
181.6779304391825
 31
0.0
  0
LINE
  5
339
330
1A
100
AcDbEntity
  8
SEIHIN
  6
CONTINUOUS
 62
     3
 48
5.0
100
AcDbLine
 10
410.0577992023406
 20
193.4464304391824
 30
0.0
 11
405.1734992023408
 21
190.5117304391825
 31
0.0
  0
LINE
  5
33B
330
1A
100
AcDbEntity
  8
SEIHIN
  6
CONTINUOUS
 62
     3
 48
5.0
100
AcDbLine
 10
423.2720992023407
 20
179.2203304391824
 30
0.0
 11
426.0126992023408
 21
184.3668304391825
 31
0.0
  0
ARC
  5
33C
330
1A
100
AcDbEntity
  8
SEIHIN
  6
CONTINUOUS
 62
     3
 48
5.0
100
AcDbCircle
 10
422.2437992023408
 20
178.0191304391825
 30
0.0
 40
0.5000042099822386
100
AcDbArc
 50
210.9971651460808
 51
300.9971651460791
  0
LINE
  5
33D
330
1A
100
AcDbEntity
  8
SEIHIN
  6
CONTINUOUS
 62
     3
 48
5.0
100
AcDbLine
 10
423.7870992023408
 20
178.3631304391825
 30
0.0
 11
423.2720992023407
 21
179.2203304391824
 31
0.0
  0
LINE
  5
33E
330
1A
100
AcDbEntity
  8
SEIHIN
  6
CONTINUOUS
 62
     3
 48
5.0
100
AcDbLine
 10
423.7870992023408
 20
178.3631304391825
 30
0.0
 11
422.5012992025094
 21
177.5905304392838
 31
0.0
  0
ARC
  5
34E
330
1A
100
AcDbEntity
  8
SEIHIN
  6
CONTINUOUS
 62
     3
 48
5.0
100
AcDbCircle
 10
548.7147223104948
 20
260.3218292163928
 30
0.0
 40
5.00001570500055
100
AcDbArc
 50
235.9426211417592
 51
297.9988540892311
  0
LINE
  5
354
330
1A
100
AcDbEntity
  8
CENTER_L
  6
CENTER
 62
     1
 48
5.0
100
AcDbLine
 10
569.0075992023408
 20
260.0112304391824
 30
0.0
 11
524.6795992023407
 21
333.7856304391825
 31
0.0
  0
LINE
  5
357
330
1A
100
AcDbEntity
  8
SEIHIN
  6
CONTINUOUS
 62
     3
 48
5.0
100
AcDbLine
 10
520.8052992023405
 20
298.4889304391825
 30
0.0
 11
557.6635992023408
 21
320.6356304391825
 31
0.0
  0
LINE
  5
358
330
1A
100
AcDbEntity
  8
SEIHIN
  6
CONTINUOUS
 62
     3
 48
5.0
100
AcDbLine
 10
513.0796992023408
 20
311.3464304391824
 30
0.0
 11
549.9379992023407
 21
333.4930304391825
 31
0.0
  0
LINE
  5
359
330
1A
100
AcDbEntity
  8
SEIHIN
  6
CONTINUOUS
 62
     3
 48
5.0
100
AcDbLine
 10
539.0880992023406
 20
266.8287304391824
 30
0.0
 11
513.5038992023408
 21
284.1220304391824
 31
0.0
  0
LINE
  5
35A
330
1A
100
AcDbEntity
  8
SEIHIN
  6
CONTINUOUS
 62
     3
 48
5.0
100
AcDbLine
 10
513.6162992023407
 20
288.3362304391824
 30
0.0
 11
537.5236992023407
 21
302.7012304391825
 31
0.0
  0
LINE
  5
35B
330
1A
100
AcDbEntity
  8
SEIHIN
  6
CONTINUOUS
 62
     3
 48
5.0
100
AcDbLine
 10
528.9337992023408
 20
326.7056304391825
 30
0.0
 11
499.6602821346695
 21
306.9605189269656
 31
0.0
  0
LINE
  5
35D
330
1A
100
AcDbEntity
  8
SEIHIN
  6
CONTINUOUS
 62
     3
 48
5.0
100
AcDbLine
 10
420.3475992023408
 20
391.6666343981101
 30
0.0
 11
420.3475992023408
 21
374.5954343981101
 31
0.0
  0
LINE
  5
35E
330
1A
100
AcDbEntity
  8
SEIHIN
  6
CONTINUOUS
 62
     3
 48
5.0
100
AcDbLine
 10
426.0126992023408
 20
395.1667343981101
 30
0.0
 11
426.0126992023408
 21
375.1667343981101
 31
0.0
  0
LINE
  5
35F
330
1A
100
AcDbEntity
  8
SEIHIN
  6
CONTINUOUS
 62
     3
 48
5.0
100
AcDbLine
 10
418.6331992023408
 20
391.6666343981101
 30
0.0
 11
418.6331992023408
 21
374.5954343981101
 31
0.0
  0
LINE
  5
360
330
1A
100
AcDbEntity
  8
SEIHIN
  6
CONTINUOUS
 62
     3
 48
5.0
100
AcDbLine
 10
403.351409671302
 20
391.6666314071518
 30
0.0
 11
403.3514992023408
 21
361.73273439811
 31
0.0
  0
LINE
  5
361
330
1A
100
AcDbEntity
  8
SEIHIN
  6
CONTINUOUS
 62
     3
 48
5.0
100
AcDbLine
 10
410.8248992023407
 20
392.6666343981101
 30
0.0
 11
410.8248992023407
 21
366.6547343981101
 31
0.0
  0
LINE
  5
365
330
1A
100
AcDbEntity
  8
SEIHIN
  6
CONTINUOUS
 62
     3
 48
5.0
100
AcDbLine
 10
426.0126992023408
 20
375.1667343981101
 30
0.0
 11
407.389649913046
 21
356.6236059922448
 31
0.0
  0
LINE
  5
366
330
1A
100
AcDbEntity
  8
SEIHIN
  6
CONTINUOUS
 62
     3
 48
5.0
100
AcDbLine
 10
405.8567992023408
 20
360.6194343981101
 30
0.0
 11
419.6880992023407
 21
373.1111343981101
 31
0.0
  0
LINE
  5
367
330
1A
100
AcDbEntity
  8
SEIHIN
  6
CONTINUOUS
 62
     3
 48
5.0
100
AcDbLine
 10
417.9736992023408
 20
373.1111343981101
 30
0.0
 11
404.0043992023406
 21
360.4948343981099
 31
0.0
  0
ARC
  5
368
330
1A
100
AcDbEntity
  8
SEIHIN
  6
CONTINUOUS
 62
     3
 48
5.0
100
AcDbCircle
 10
404.8514729235471
 20
361.7327460750217
 30
0.0
 40
1.499973721251739
100
AcDbArc
 50
180.0004460329839
 51
312.0847617455615
  0
ARC
  5
369
330
1A
100
AcDbEntity
  8
SEIHIN
  6
CONTINUOUS
 62
     3
 48
5.0
100
AcDbCircle
 10
416.6331883598996
 20
374.5954099964325
 30
0.0
 40
2.000010842590085
100
AcDbArc
 50
312.0865008628502
 51
0.0006990527797855
  0
ARC
  5
36A
330
1A
100
AcDbEntity
  8
SEIHIN
  6
CONTINUOUS
 62
     3
 48
5.0
100
AcDbCircle
 10
418.3475883598996
 20
374.5954099964326
 30
0.0
 40
2.000010842590135
100
AcDbArc
 50
312.0865008628445
 51
0.0006990527749002
  0
LINE
  5
370
330
1A
100
AcDbEntity
  8
SEIHIN
  6
CONTINUOUS
 62
     3
 48
5.0
100
AcDbLine
 10
517.3747992023408
 20
299.3442304391825
 30
0.0
 11
512.2243992023409
 21
307.9159304391824
 31
0.0
  0
LINE
  5
37B
330
1A
100
AcDbEntity
  8
SEIHIN
  6
CONTINUOUS
 62
     3
 48
5.0
100
AcDbLine
 10
498.1703899559006
 20
300.2401458279519
 30
0.0
 11
510.0979992023408
 21
280.3891304391825
 31
0.0
  0
LINE
  5
37C
330
1A
100
AcDbEntity
  8
CENTER_L
  6
CENTER
 62
     1
 48
5.0
100
AcDbLine
 10
502.552599932797
 20
293.3547853333169
 30
0.0
 11
514.9660992023408
 21
300.8135304391824
 31
0.0
  0
LINE
  5
37D
330
1A
100
AcDbEntity
  8
CENTER_L
  6
CENTER
 62
     1
 48
5.0
100
AcDbLine
 10
506.3189992023408
 20
302.2113304391826
 30
0.0
 11
512.4667992023407
 21
291.9797304391825
 31
0.0
  0
ARC
  5
37E
330
1A
100
AcDbEntity
  8
SEIHIN
  6
CONTINUOUS
 62
     3
 48
5.0
100
AcDbCircle
 10
509.2297992023406
 20
297.3669304391825
 30
0.0
 40
2.099999999999909
100
AcDbArc
 50
180.0
 51
0.0
  0
ARC
  5
37F
330
1A
100
AcDbEntity
  8
SEIHIN
  6
CONTINUOUS
 62
     3
 48
5.0
100
AcDbCircle
 10
509.2297992023406
 20
297.3669304391825
 30
0.0
 40
2.099999999999909
100
AcDbArc
 50
0.0
 51
180.0
  0
ARC
  5
380
330
1A
100
AcDbEntity
  8
SEIHIN
  6
CONTINUOUS
 62
     3
 48
5.0
100
AcDbCircle
 10
514.9038980974381
 20
286.193288999334
 30
0.0
 40
2.500021785760121
100
AcDbArc
 50
120.999799133591
 51
235.9445703031751
  0
ARC
  5
381
330
1A
100
AcDbEntity
  8
SEIHIN
  6
CONTINUOUS
 62
     3
 48
5.0
100
AcDbCircle
 10
519.5176992023407
 20
300.6318304391824
 30
0.0
 40
2.49998683396521
100
AcDbArc
 50
211.0003099869087
 51
301.0003099869086
  0
ARC
  5
387
330
1A
100
AcDbEntity
  8
SEIHIN
  6
CONTINUOUS
 62
     3
 48
5.0
100
AcDbCircle
 10
514.3672992023408
 20
309.2035304391824
 30
0.0
 40
2.499986833965327
100
AcDbArc
 50
121.0003099869093
 51
211.0003099869093
  0
LINE
  5
389
330
1A
100
AcDbEntity
  8
SEIHIN
  6
CONTINUOUS
 62
     3
 48
5.0
100
AcDbLine
 10
410.8248992023407
 20
395.16663439811
 30
0.0
 11
410.8248992023407
 21
395.1668343981101
 31
0.0
  0
LINE
  5
38A
330
1A
100
AcDbEntity
  8
SEIHIN
  6
CONTINUOUS
 62
     3
 48
5.0
100
AcDbLine
 10
403.3514096707038
 20
398.6666373890685
 30
0.0
 11
403.3514992023408
 21
428.6007343981099
 31
0.0
  0
LINE
  5
38B
330
1A
100
AcDbEntity
  8
SEIHIN
  6
CONTINUOUS
 62
     3
 48
5.0
100
AcDbLine
 10
418.6331992023408
 20
398.6666343981101
 30
0.0
 11
418.6331992023408
 21
415.7379343981101
 31
0.0
  0
LINE
  5
38C
330
1A
100
AcDbEntity
  8
SEIHIN
  6
CONTINUOUS
 62
     3
 48
5.0
100
AcDbLine
 10
420.3475992023408
 20
398.6666343981101
 30
0.0
 11
420.3475992023408
 21
415.7379343981101
 31
0.0
  0
LINE
  5
38D
330
1A
100
AcDbEntity
  8
SEIHIN
  6
CONTINUOUS
 62
     3
 48
5.0
100
AcDbLine
 10
426.0126992023408
 20
415.1666343981099
 30
0.0
 11
407.389649913046
 21
433.7097628039752
 31
0.0
  0
LINE
  5
38E
330
1A
100
AcDbEntity
  8
SEIHIN
  6
CONTINUOUS
 62
     3
 48
5.0
100
AcDbLine
 10
426.0126992023408
 20
395.1667343981101
 30
0.0
 11
426.0126992023408
 21
415.1666343981099
 31
0.0
  0
LINE
  5
38F
330
1A
100
AcDbEntity
  8
CENTER_L
  6
CENTER
 62
     1
 48
5.0
100
AcDbLine
 10
423.9528992023408
 20
389.5778343981079
 30
0.0
 11
423.9528992023408
 21
400.7554343981101
 31
0.0
  0
LINE
  5
390
330
1A
100
AcDbEntity
  8
SEIHIN
  6
CONTINUOUS
 62
     3
 48
5.0
100
AcDbLine
 10
417.9736992023408
 20
417.2222343981101
 30
0.0
 11
404.0043992023406
 21
429.8386343981101
 31
0.0
  0
LINE
  5
391
330
1A
100
AcDbEntity
  8
SEIHIN
  6
CONTINUOUS
 62
     3
 48
5.0
100
AcDbLine
 10
405.8567992023408
 20
429.7139343981099
 30
0.0
 11
419.6880992023407
 21
417.2222343981101
 31
0.0
  0
ARC
  5
392
330
1A
100
AcDbEntity
  8
SEIHIN
  6
CONTINUOUS
 62
     3
 48
5.0
100
AcDbCircle
 10
404.8514729235471
 20
428.6007227211982
 30
0.0
 40
1.499973721251719
100
AcDbArc
 50
47.91523825443698
 51
179.9995539670138
  0
ARC
  5
393
330
1A
100
AcDbEntity
  8
SEIHIN
  6
CONTINUOUS
 62
     3
 48
5.0
100
AcDbCircle
 10
418.3475883598996
 20
415.7379587997874
 30
0.0
 40
2.000010842590129
100
AcDbArc
 50
359.999300947225
 51
47.91349913715549
  0
ARC
  5
394
330
1A
100
AcDbEntity
  8
SEIHIN
  6
CONTINUOUS
 62
     3
 48
5.0
100
AcDbCircle
 10
416.6331883598996
 20
415.7379587997876
 30
0.0
 40
2.000010842590072
100
AcDbArc
 50
359.9993009472202
 51
47.9134991371498
  0
LINE
  5
39B
330
1A
100
AcDbEntity
  8
SEIHIN
  6
CONTINUOUS
 62
     3
 48
5.0
100
AcDbLine
 10
575.4387992023408
 20
304.6711304391824
 30
0.0
 11
553.1405992023406
 21
291.2730304391824
 31
0.0
  0
LINE
  5
39C
330
1A
100
AcDbEntity
  8
SEIHIN
  6
CONTINUOUS
 62
     3
 48
5.0
100
AcDbLine
 10
559.6611992023408
 20
280.4203304391825
 30
0.0
 11
545.2400992023408
 21
304.4211304391824
 31
0.0
  0
LINE
  5
39D
330
1A
100
AcDbEntity
  8
SEIHIN
  6
CONTINUOUS
 62
     3
 48
5.0
100
AcDbLine
 10
573.7765992023408
 20
320.3375304391824
 30
0.0
 11
577.0344992023408
 21
289.6292304391825
 31
0.0
  0
LINE
  5
39E
330
1A
100
AcDbEntity
  8
SEIHIN
  6
CONTINUOUS
 62
     3
 48
5.0
100
AcDbLine
 10
583.268597409698
 20
278.2619473361968
 30
0.0
 11
578.6715992023409
 21
321.5921304391824
 31
0.0
  0
LINE
  5
39F
330
1A
100
AcDbEntity
  8
SEIHIN
  6
CONTINUOUS
 62
     3
 48
5.0
100
AcDbLine
 10
526.5560992023408
 20
275.2995304391824
 30
0.0
 11
548.8543992023407
 21
288.6977304391825
 31
0.0
  0
LINE
  5
3A0
330
1A
100
AcDbEntity
  8
SEIHIN
  6
CONTINUOUS
 62
     3
 48
5.0
100
AcDbLine
 10
555.3752992023409
 20
277.8451304391825
 30
0.0
 11
540.9542992023408
 21
301.8459304391825
 31
0.0
  0
ARC
  5
3A1
330
1A
100
AcDbEntity
  8
SEIHIN
  6
CONTINUOUS
 62
     3
 48
5.0
100
AcDbCircle
 10
540.488034223939
 20
268.9000321716891
 30
0.0
 40
2.500021786261609
100
AcDbArc
 50
235.946337180538
 51
301.0015660109556
  0
LINE
  5
3A2
330
1A
100
AcDbEntity
  8
SEIHIN
  6
CONTINUOUS
 62
     3
 48
5.0
100
AcDbLine
 10
541.7756992023408
 20
266.7571304391825
 30
0.0
 11
554.5199992023407
 21
274.4146304391825
 31
0.0
  0
ARC
  5
3A3
330
1A
100
AcDbEntity
  8
SEIHIN
  6
CONTINUOUS
 62
     3
 48
5.0
100
AcDbCircle
 10
553.2323992023407
 20
276.5575304391826
 30
0.0
 40
2.499986833965424
100
AcDbArc
 50
301.000309986908
 51
31.00030998690623
  0
ARC
  5
3A4
330
1A
100
AcDbEntity
  8
SEIHIN
  6
CONTINUOUS
 62
     3
 48
5.0
100
AcDbCircle
 10
538.8113580123149
 20
300.5583157759035
 30
0.0
 40
2.500029692823746
100
AcDbArc
 50
31.00011184257508
 51
121.0012921992685
  0
LINE
  5
3A5
330
1A
100
AcDbEntity
  8
SEIHIN
  6
CONTINUOUS
 62
     3
 48
5.0
100
AcDbLine
 10
575.8360992023408
 20
287.2225304391824
 30
0.0
 11
563.0916992023407
 21
279.5650304391825
 31
0.0
  0
LINE
  5
3A6
330
1A
100
AcDbEntity
  8
SEIHIN
  6
CONTINUOUS
 62
     3
 48
5.0
100
AcDbLine
 10
566.5313992023406
 20
264.1323304391824
 30
0.0
 11
581.0196865976043
 21
273.5410871940462
 31
0.0
  0
LINE
  5
3A7
330
1A
100
AcDbEntity
  8
CENTER_L
  6
CENTER
 62
     1
 48
5.0
100
AcDbLine
 10
557.9531748095227
 20
268.3110521006354
 30
0.0
 11
567.7973992023408
 21
274.2260304391825
 31
0.0
  0
ARC
  5
3A8
330
1A
100
AcDbEntity
  8
SEIHIN
  6
CONTINUOUS
 62
     3
 48
5.0
100
AcDbCircle
 10
562.4110992023409
 20
270.9896304391825
 30
0.0
 40
2.099999999999852
100
AcDbArc
 50
0.0
 51
180.0
  0
ARC
  5
3A9
330
1A
100
AcDbEntity
  8
SEIHIN
  6
CONTINUOUS
 62
     3
 48
5.0
100
AcDbCircle
 10
562.4110992023409
 20
270.9896304391825
 30
0.0
 40
2.099999999999852
100
AcDbArc
 50
180.0
 51
0.0
  0
ARC
  5
3AA
330
1A
100
AcDbEntity
  8
SEIHIN
  6
CONTINUOUS
 62
     3
 48
5.0
100
AcDbCircle
 10
561.8040992023408
 20
281.7079304391825
 30
0.0
 40
2.499986833965246
100
AcDbArc
 50
211.0003099869087
 51
301.0003099869078
  0
ARC
  5
3AC
330
1A
100
AcDbEntity
  8
SEIHIN
  6
CONTINUOUS
 62
     3
 48
5.0
100
AcDbCircle
 10
574.5484470510612
 20
289.3654257161565
 30
0.0
 40
2.500009646135926
100
AcDbArc
 50
301.0013902324711
 51
6.057212195450397
  0
LINE
  5
3AD
330
1A
100
AcDbEntity
  8
SEIHIN
  6
CONTINUOUS
 62
     3
 48
5.0
100
AcDbLine
 10
558.518899202341
 20
324.0661304391825
 30
0.0
 11
553.3684992023406
 21
332.6378304391824
 31
0.0
  0
LINE
  5
3AE
330
1A
100
AcDbEntity
  8
SEIHIN
  6
CONTINUOUS
 62
     3
 48
5.0
100
AcDbLine
 10
528.9335992023406
 20
326.7055304391825
 30
0.0
 11
559.7168992023409
 21
343.7689304391823
 31
0.0
  0
LINE
  5
3AF
330
1A
100
AcDbEntity
  8
SEIHIN
  6
CONTINUOUS
 62
     3
 48
5.0
100
AcDbLine
 10
570.0029992023407
 20
322.2166304391824
 30
0.0
 11
546.0953992023406
 21
307.8516304391824
 31
0.0
  0
ARC
  5
3B0
330
1A
100
AcDbEntity
  8
SEIHIN
  6
CONTINUOUS
 62
     3
 48
5.0
100
AcDbCircle
 10
547.3829845387598
 20
305.7085716279968
 30
0.0
 40
2.500029692823692
100
AcDbArc
 50
120.9993277340843
 51
210.9981473773892
  0
ARC
  5
3B1
330
1A
100
AcDbEntity
  8
SEIHIN
  6
CONTINUOUS
 62
     3
 48
5.0
100
AcDbCircle
 10
551.2256580118888
 20
331.3502157772966
 30
0.0
 40
2.49994397637227
100
AcDbArc
 50
31.00129222078308
 51
121.0024726584191
  0
LINE
  5
3B2
330
1A
100
AcDbEntity
  8
CENTER_L
  6
CENTER
 62
     1
 48
5.0
100
AcDbLine
 10
561.1778992023409
 20
335.1737304391825
 30
0.0
 11
567.3255992023408
 21
324.9421304391825
 31
0.0
  0
LINE
  5
3B3
330
1A
100
AcDbEntity
  8
SEIHIN
  6
CONTINUOUS
 62
     3
 48
5.0
100
AcDbLine
 10
566.4267992023408
 20
341.9710304391825
 30
0.0
 11
578.6715992023409
 21
321.5921304391824
 31
0.0
  0
ARC
  5
3B4
330
1A
100
AcDbEntity
  8
SEIHIN
  6
CONTINUOUS
 62
     3
 48
5.0
100
AcDbCircle
 10
571.2905835174423
 20
320.0737382495528
 30
0.0
 40
2.499972060818135
100
AcDbArc
 50
6.057014741988202
 51
121.0000940512818
  0
ARC
  5
3B5
330
1A
100
AcDbEntity
  8
SEIHIN
  6
CONTINUOUS
 62
     3
 48
5.0
100
AcDbCircle
 10
556.3760138659217
 20
322.7785892503683
 30
0.0
 40
2.500029692823731
100
AcDbArc
 50
300.9993277340807
 51
30.99814737738677
  0
LINE
  5
3B6
330
1A
100
AcDbEntity
  8
CENTER_L
  6
CENTER
 62
     1
 48
5.0
100
AcDbLine
 10
569.3147992023408
 20
333.4695304391825
 30
0.0
 11
558.3523992023408
 21
326.8826304391824
 31
0.0
  0
ARC
  5
3B7
330
1A
100
AcDbEntity
  8
SEIHIN
  6
CONTINUOUS
 62
     3
 48
5.0
100
AcDbCircle
 10
564.0886992023409
 20
330.3293304391825
 30
0.0
 40
2.099999999999852
100
AcDbArc
 50
180.0
 51
0.0
  0
ARC
  5
3B8
330
1A
100
AcDbEntity
  8
SEIHIN
  6
CONTINUOUS
 62
     3
 48
5.0
100
AcDbCircle
 10
564.0886992023409
 20
330.3293304391825
 30
0.0
 40
2.099999999999852
100
AcDbArc
 50
0.0
 51
180.0
  0
ARC
  5
3B9
330
1A
100
AcDbEntity
  8
SEIHIN
  6
CONTINUOUS
 62
     3
 48
5.0
100
AcDbCircle
 10
562.1408962175876
 20
339.3958312389497
 30
0.0
 40
4.999975814441473
100
AcDbArc
 50
31.00028451528853
 51
118.9994843013131
  0
ARC
  5
3BF
330
1A
100
AcDbEntity
  8
SEIHIN
  6
CONTINUOUS
 62
     3
 48
5.0
100
AcDbCircle
 10
403.8617268555587
 20
360.16673439811
 30
0.0
 40
5.0
100
AcDbArc
 50
269.9999999999998
 51
314.876793295911
  0
ARC
  5
3C0
330
1A
100
AcDbEntity
  8
SEIHIN
  6
CONTINUOUS
 62
     3
 48
5.0
100
AcDbCircle
 10
403.8617268555587
 20
430.1666343981101
 30
0.0
 40
5.0
100
AcDbArc
 50
45.12320670408874
 51
90.0
  0
DIMENSION
  5
3CE
330
1A
100
AcDbEntity
  8
SUNPOU
 48
5.0
100
AcDbDimension
  2
*D1
 10
461.4220033100541
 20
355.16673439811
 30
0.0
 11
456.422003310054
 21
395.1666843981101
 31
0.0
 70
    32
  3
STANDARD
100
AcDbAlignedDimension
 13
403.8617268555587
 23
435.1666343981101
 33
0.0
 14
403.8617268555585
 24
355.16673439811
 34
0.0
 50
90.0
100
AcDbRotatedDimension
1001
ACAD
1000
DSTYLE
1002
{
1070
   140
1040
6.0
1070
    74
1070
     0
1070
   172
1070
     1
1070
    73
1070
     0
1070
   272
1070
     2
1070
    77
1070
     3
1070
   173
1070
     1
1070
   147
1040
2.0
1070
    42
1040
6.0
1070
    44
1040
3.0
1070
    43
1040
14.0
1070
   271
1070
     0
1070
   178
1070
     4
1070
   177
1070
     4
1070
   176
1070
     4
1070
   141
1040
150.0
1070
     7
1000
_OPEN
1070
     6
1000
_OPEN
1070
    41
1040
7.0
1002
}
  0
DIMENSION
  5
3ED
330
1A
100
AcDbEntity
  8
SUNPOU
 48
5.0
100
AcDbDimension
  2
*D2
 10
452.4831966992681
 20
196.0018385570888
 30
0.0
 11
437.5961088732227
 21
229.6209824526798
 31
0.0
 70
    33
  3
STANDARD
100
AcDbAlignedDimension
 13
390.5542992023408
 23
243.3807304391825
 33
0.0
 14
428.8365581563033
 24
181.3972041581365
 34
0.0
1001
ACAD
1000
DSTYLE
1002
{
1070
   140
1040
6.0
1070
    74
1070
     0
1070
   172
1070
     1
1070
    73
1070
     0
1070
   272
1070
     2
1070
    77
1070
     3
1070
   173
1070
     1
1070
   147
1040
2.0
1070
    42
1040
6.0
1070
    44
1040
3.0
1070
    43
1040
14.0
1070
   271
1070
     0
1070
   178
1070
     4
1070
   177
1070
     4
1070
   176
1070
     4
1070
   141
1040
150.0
1070
     7
1000
_OPEN
1070
     6
1000
_OPEN
1070
    41
1040
7.0
1002
}
  0
DIMENSION
  5
3FC
330
1A
100
AcDbEntity
  8
SUNPOU
 48
5.0
100
AcDbDimension
  2
*D3
 10
438.0515920469875
 20
150.7401893556971
 30
0.0
 11
462.477238703116
 21
171.2500472389876
 31
0.0
 70
    33
  1
t<>
  3
STANDARD
100
AcDbAlignedDimension
 13
428.0730996155996
 23
180.9384640208308
 33
0.0
 14
422.0727318599432
 24
177.3330167288571
 34
0.0
1001
ACAD
1000
DSTYLE
1002
{
1070
   140
1040
6.0
1070
    74
1070
     0
1070
   172
1070
     1
1070
    73
1070
     0
1070
   272
1070
     2
1070
    77
1070
     3
1070
   173
1070
     1
1070
   280
1070
     1
1070
   147
1040
2.0
1070
    42
1040
6.0
1070
    44
1040
3.0
1070
    43
1040
14.0
1070
   271
1070
     1
1070
   178
1070
     4
1070
   177
1070
     4
1070
   176
1070
     4
1070
   141
1040
150.0
1070
     7
1000
_OPEN
1070
     6
1000
_OPEN
1070
    41
1040
7.0
1002
}
  0
ARC
  5
3FF
330
1A
100
AcDbEntity
  8
SEIHIN
  6
CONTINUOUS
 62
     3
 48
5.0
100
AcDbCircle
 10
381.0166293881947
 20
240.889252046557
 30
0.0
 40
0.5
100
AcDbArc
 50
108.868683929166
 51
214.7111361580757
  0
ARC
  5
401
330
1A
100
AcDbEntity
  8
SEIHIN
  6
CONTINUOUS
 62
     3
 48
5.0
100
AcDbCircle
 10
351.0241321777785
 20
217.5119304352712
 30
0.0
 40
5.0
100
AcDbArc
 50
269.9998622604895
 51
341.8737239834235
  0
DIMENSION
  5
411
330
1A
100
AcDbEntity
  8
SUNPOU
 62
     4
 48
5.0
100
AcDbDimension
  2
*D4
 10
369.0611816034804
 20
259.7522060564455
 30
0.0
 11
349.7712082109604
 21
253.9948693009768
 31
0.0
 70
    33
  3
STANDARD
100
AcDbAlignedDimension
 13
388.8724820807638
 23
246.1797757849767
 33
0.0
 14
380.3081974512148
 24
241.0338762371558
 34
0.0
1001
ACAD
1000
DSTYLE
1002
{
1070
   140
1040
6.0
1070
    74
1070
     0
1070
   172
1070
     1
1070
    73
1070
     0
1070
   272
1070
     2
1070
    77
1070
     3
1070
   173
1070
     1
1070
   147
1040
2.0
1070
    42
1040
6.0
1070
    44
1040
3.0
1070
    43
1040
14.0
1070
   271
1070
     0
1070
   178
1070
     4
1070
   177
1070
     4
1070
   176
1070
     4
1070
   141
1040
150.0
1070
     7
1000
_OPEN
1070
     6
1000
_OPEN
1070
    41
1040
7.0
1002
}
  0
ARC
  5
42D
330
1A
100
AcDbEntity
  8
SEIHIN
  6
CONTINUOUS
 62
     3
 48
5.0
100
AcDbCircle
 10
269.7871463715868
 20
247.0245235137916
 30
0.0
 40
0.5
100
AcDbArc
 50
339.4433458225559
 51
89.87886745423072
  0
DIMENSION
  5
43C
330
1A
100
AcDbEntity
  8
SUNPOU
 62
     4
 48
5.0
100
AcDbDimension
  2
*D5
 10
491.8406947071771
 20
326.3073871119288
 30
0.0
 11
516.6949630927965
 21
347.0744288790681
 31
0.0
 70
    33
  3
STANDARD
100
AcDbAlignedDimension
 13
561.1778992023409
 23
335.1737304391826
 33
0.0
 14
506.3189992023408
 24
302.2113304391826
 34
0.0
1001
ACAD
1000
DSTYLE
1002
{
1070
   140
1040
6.0
1070
    74
1070
     0
1070
   172
1070
     1
1070
    73
1070
     0
1070
   272
1070
     2
1070
    77
1070
     3
1070
   173
1070
     1
1070
   147
1040
2.0
1070
    42
1040
6.0
1070
    44
1040
3.0
1070
    43
1040
14.0
1070
   271
1070
     0
1070
   178
1070
     4
1070
   177
1070
     4
1070
   176
1070
     4
1070
   141
1040
150.0
1070
     7
1000
_OPEN
1070
     6
1000
_OPEN
1070
    41
1040
7.0
1002
}
  0
DIMENSION
  5
449
330
1A
100
AcDbEntity
  8
SUNPOU
 62
     4
 48
5.0
100
AcDbDimension
  2
*D6
 10
477.1842999016707
 20
334.5656180202396
 30
0.0
 11
508.7043482188511
 21
359.6969566277954
 31
0.0
 70
    33
  3
STANDARD
100
AcDbAlignedDimension
 13
566.4266992023409
 23
341.9710304391825
 33
0.0
 14
498.1703992023408
 24
300.2401304391825
 34
0.0
1001
ACAD
1000
DSTYLE
1002
{
1070
   140
1040
6.0
1070
    74
1070
     0
1070
   172
1070
     1
1070
    73
1070
     0
1070
   272
1070
     2
1070
    77
1070
     3
1070
   173
1070
     1
1070
   147
1040
2.0
1070
    42
1040
6.0
1070
    44
1040
3.0
1070
    43
1040
14.0
1070
   271
1070
     0
1070
   178
1070
     4
1070
   177
1070
     4
1070
   176
1070
     4
1070
   141
1040
150.0
1070
     7
1000
_OPEN
1070
     6
1000
_OPEN
1070
    41
1040
7.0
1002
}
  0
DIMENSION
  5
459
330
1A
100
AcDbEntity
  8
SUNPOU
 62
     4
 48
5.0
100
AcDbDimension
  2
*D7
 10
468.4801642738655
 20
272.8821041660095
 30
0.0
 11
469.4402271384682
 21
280.9923393840907
 31
0.0
 70
    33
  3
STANDARD
100
AcDbAlignedDimension
 13
495.9010309275734
 23
304.4248880318136
 33
0.0
 14
502.5525897130656
 24
293.3547791927139
 34
0.0
1001
ACAD
1000
DSTYLE
1002
{
1070
   140
1040
6.0
1070
    74
1070
     0
1070
   172
1070
     1
1070
    73
1070
     0
1070
   272
1070
     2
1070
    77
1070
     3
1070
   173
1070
     1
1070
   147
1040
2.0
1070
    42
1040
6.0
1070
    44
1040
3.0
1070
    43
1040
14.0
1070
   271
1070
     0
1070
   178
1070
     4
1070
   177
1070
     4
1070
   176
1070
     4
1070
   141
1040
150.0
1070
     7
1000
_OPEN
1070
     6
1000
_OPEN
1070
    41
1040
7.0
1002
}
  0
DIMENSION
  5
466
330
1A
100
AcDbEntity
  8
SUNPOU
 62
     4
 48
5.0
100
AcDbDimension
  2
*D8
 10
494.1757357310762
 20
229.9898360103439
 30
0.0
 11
485.5856457847444
 21
253.9942186607465
 31
0.0
 70
    33
  3
STANDARD
100
AcDbAlignedDimension
 13
502.5525897130655
 23
293.3547791927139
 33
0.0
 14
528.3044481375759
 24
250.4963854461436
 34
0.0
1001
ACAD
1000
DSTYLE
1002
{
1070
   140
1040
6.0
1070
    74
1070
     0
1070
   172
1070
     1
1070
    73
1070
     0
1070
   272
1070
     2
1070
    77
1070
     3
1070
   173
1070
     1
1070
   147
1040
2.0
1070
    42
1040
6.0
1070
    44
1040
3.0
1070
    43
1040
14.0
1070
   271
1070
     0
1070
   178
1070
     4
1070
   177
1070
     4
1070
   176
1070
     4
1070
   141
1040
150.0
1070
     7
1000
_OPEN
1070
     6
1000
_OPEN
1070
    41
1040
7.0
1002
}
  0
DIMENSION
  5
475
330
1A
100
AcDbEntity
  8
SUNPOU
 62
     4
 48
5.0
100
AcDbDimension
  2
*D9
 10
498.2365670393106
 20
223.0967771488351
 30
0.0
 11
511.7930720378173
 21
210.2429383360345
 31
0.0
 70
    33
  3
STANDARD
100
AcDbAlignedDimension
 13
562.4111222520166
 23
270.9896442887584
 33
0.0
 14
566.531399700368
 24
264.1323307039889
 34
0.0
1001
ACAD
1000
DSTYLE
1002
{
1070
   140
1040
6.0
1070
    74
1070
     0
1070
   172
1070
     1
1070
    73
1070
     0
1070
   272
1070
     2
1070
    77
1070
     3
1070
   173
1070
     1
1070
   147
1040
2.0
1070
    42
1040
6.0
1070
    44
1040
3.0
1070
    43
1040
14.0
1070
   271
1070
     0
1070
   178
1070
     4
1070
   177
1070
     4
1070
   176
1070
     4
1070
   141
1040
150.0
1070
     7
1000
_OPEN
1070
     6
1000
_OPEN
1070
    41
1040
7.0
1002
}
  0
ARC
  5
485
330
1A
100
AcDbEntity
  8
SEIHIN
  6
CONTINUOUS
 62
     3
 48
5.0
100
AcDbCircle
 10
578.2965010093741
 20
277.7344462595277
 30
0.0
 40
5.0
100
AcDbArc
 50
302.9998690104624
 51
6.055986862137612
  0
ELLIPSE
  5
48C
330
1A
100
AcDbEntity
  8
SEIHIN
 48
5.0
100
AcDbEllipse
 10
398.2010992023408
 20
363.1667343981101
 30
0.0
 11
0.0
 21
2.149999999999977
 31
0.0
210
0.0
220
0.0
230
1.0
 40
0.5150556468578767
 41
0.0
 42
6.283185307179586
  0
ELLIPSE
  5
48D
330
1A
100
AcDbEntity
  8
SEIHIN
 48
5.0
100
AcDbEllipse
 10
398.2010992023408
 20
427.1666343981101
 30
0.0
 11
0.0
 21
2.149999999999977
 31
0.0
210
0.0
220
0.0
230
1.0
 40
0.5150556468578767
 41
0.0
 42
6.283185307179586
  0
ELLIPSE
  5
48E
330
1A
100
AcDbEntity
  8
SEIHIN
 48
5.0
100
AcDbEllipse
 10
423.9528992023408
 20
395.16663439811
 30
0.0
 11
0.0
 21
2.149999999999977
 31
0.0
210
0.0
220
0.0
230
1.0
 40
0.5150556468578767
 41
0.0
 42
6.283185307179586
  0
DIMENSION
  5
49C
330
1A
100
AcDbEntity
  8
SUNPOU
 62
     4
 48
5.0
100
AcDbDimension
  2
*D10
 10
224.9904852602921
 20
380.1666343981099
 30
0.0
 11
219.9904852602921
 21
395.1667343981099
 31
0.0
 70
    32
  3
STANDARD
100
AcDbAlignedDimension
 13
262.3721992023408
 23
410.1668343981099
 33
0.0
 14
262.3721992023408
 24
380.1666343981099
 34
0.0
 50
90.0
100
AcDbRotatedDimension
1001
ACAD
1000
DSTYLE
1002
{
1070
   140
1040
6.0
1070
    74
1070
     0
1070
   172
1070
     1
1070
    73
1070
     0
1070
   272
1070
     2
1070
    77
1070
     3
1070
   173
1070
     1
1070
   147
1040
2.0
1070
    42
1040
6.0
1070
    44
1040
3.0
1070
    43
1040
14.0
1070
   271
1070
     0
1070
   178
1070
     4
1070
   177
1070
     4
1070
   176
1070
     4
1070
   141
1040
150.0
1070
     7
1000
_OPEN
1070
     6
1000
_OPEN
1070
    41
1040
7.0
1002
}
  0
DIMENSION
  5
4A9
330
1A
100
AcDbEntity
  8
SUNPOU
 62
     4
 48
5.0
100
AcDbDimension
  2
*D11
 10
224.9904852602921
 20
177.3330167288571
 30
0.0
 11
219.9904852602921
 21
212.4291215733173
 31
0.0
 70
    32
  3
STANDARD
100
AcDbAlignedDimension
 13
269.4552013270087
 23
247.5252264177773
 33
0.0
 14
422.0727318599432
 24
177.3330167288571
 34
0.0
 50
90.0
100
AcDbRotatedDimension
1001
ACAD
1000
DSTYLE
1002
{
1070
   140
1040
6.0
1070
    74
1070
     0
1070
   172
1070
     1
1070
    73
1070
     0
1070
   272
1070
     2
1070
    77
1070
     3
1070
   173
1070
     1
1070
   147
1040
2.0
1070
    42
1040
6.0
1070
    44
1040
3.0
1070
    43
1040
14.0
1070
   271
1070
     0
1070
   178
1070
     4
1070
   177
1070
     4
1070
   176
1070
     4
1070
   141
1040
150.0
1070
     7
1000
_OPEN
1070
     6
1000
_OPEN
1070
    41
1040
7.0
1002
}
  0
LINE
  5
4AD
330
1A
100
AcDbEntity
  8
SEIHIN
  6
CONTINUOUS
 62
     3
 48
5.0
100
AcDbLine
 10
404.3514096706993
 20
397.6666343981101
 30
0.0
 11
419.3475992023408
 21
397.6666343981101
 31
0.0
  0
LINE
  5
4AE
330
1A
100
AcDbEntity
  8
SEIHIN
  6
CONTINUOUS
 62
     3
 48
5.0
100
AcDbLine
 10
404.3514096712975
 20
392.6666343981102
 30
0.0
 11
419.3475992023408
 21
392.66663439811
 31
0.0
  0
ARC
  5
4B6
330
1A
100
AcDbEntity
  8
SEIHIN
  6
CONTINUOUS
 62
     3
 48
5.0
100
AcDbCircle
 10
417.6331992023408
 20
398.6666343981101
 30
0.0
 40
1.0
100
AcDbArc
 50
270.0000000000006
 51
0.0000000000002544
  0
ARC
  5
4B7
330
1A
100
AcDbEntity
  8
SEIHIN
  6
CONTINUOUS
 62
     3
 48
5.0
100
AcDbCircle
 10
419.3475992023408
 20
398.6666343981101
 30
0.0
 40
1.0
100
AcDbArc
 50
270.0000000000003
 51
0.0
  0
ARC
  5
4B8
330
1A
100
AcDbEntity
  8
SEIHIN
  6
CONTINUOUS
 62
     3
 48
5.0
100
AcDbCircle
 10
404.3514096706993
 20
398.6666343981101
 30
0.0
 40
1.0
100
AcDbArc
 50
179.9998286307105
 51
270.0000000000002
  0
ARC
  5
4B9
330
1A
100
AcDbEntity
  8
SEIHIN
  6
CONTINUOUS
 62
     3
 48
5.0
100
AcDbCircle
 10
404.3514096712975
 20
391.6666343981102
 30
0.0
 40
1.0
100
AcDbArc
 50
90.0
 51
180.0001713692894
  0
ARC
  5
4BA
330
1A
100
AcDbEntity
  8
SEIHIN
  6
CONTINUOUS
 62
     3
 48
5.0
100
AcDbCircle
 10
417.6331992023407
 20
391.6666343981101
 30
0.0
 40
1.0
100
AcDbArc
 50
0.0000000000002544
 51
89.99999999999964
  0
ARC
  5
4BB
330
1A
100
AcDbEntity
  8
SEIHIN
  6
CONTINUOUS
 62
     3
 48
5.0
100
AcDbCircle
 10
419.3475992023408
 20
391.6666343981101
 30
0.0
 40
1.0
100
AcDbArc
 50
0.0
 51
89.99999999999952
  0
LINE
  5
4BC
330
1A
100
AcDbEntity
  8
SEIHIN
  6
CONTINUOUS
 62
     3
 48
5.0
100
AcDbLine
 10
410.8248992023407
 20
397.8422997782381
 30
0.0
 11
410.8248992023407
 21
423.6787343981101
 31
0.0
  0
ARC
  5
4BE
330
1A
100
AcDbEntity
  8
SEIHIN
  6
CONTINUOUS
 62
     3
 48
5.0
100
AcDbCircle
 10
502.4562344799447
 20
302.8153228540456
 30
0.0
 40
5.0
100
AcDbArc
 50
123.9998317547804
 51
210.9998215495383
  0
DIMENSION
  5
4D3
330
1A
100
AcDbEntity
  8
SUNPOU
 62
     4
100
AcDbDimension
  2
*D12
 10
563.576488761326
 20
230.217977692555
 30
0.0
 11
578.1446635261205
 21
244.80455659312
 31
0.0
 70
    33
  3
STANDARD
100
AcDbAlignedDimension
 13
583.7254875261188
 23
274.3486433952906
 33
0.0
 14
549.4387684862398
 24
253.7471653541306
 34
0.0
1001
ACAD
1000
DSTYLE
1002
{
1070
   140
1040
6.0
1070
    74
1070
     0
1070
   172
1070
     1
1070
    73
1070
     0
1070
   272
1070
     2
1070
    77
1070
     3
1070
   173
1070
     1
1070
   147
1040
2.0
1070
    42
1040
6.0
1070
    44
1040
3.0
1070
    43
1040
14.0
1070
   271
1070
     0
1070
   178
1070
     4
1070
   177
1070
     4
1070
   176
1070
     4
1070
   141
1040
150.0
1070
     7
1000
_OPEN
1070
     6
1000
_OPEN
1070
    41
1040
7.0
1002
}
  0
DIMENSION
  5
5AE
330
1A
100
AcDbEntity
  8
SUNPOU
100
AcDbDimension
  2
*D13
 10
390.5542992023407
 20
289.4334835366283
 30
0.0
 11
326.4632457301307
 21
294.4334835366282
 31
0.0
 70
    32
  3
STANDARD
100
AcDbAlignedDimension
 13
262.3721922579209
 23
240.7758373906568
 33
0.0
 14
390.5542992023407
 24
243.3807304391825
 34
0.0
100
AcDbRotatedDimension
1001
ACAD
1000
DSTYLE
1002
{
1070
   140
1040
6.0
1070
    74
1070
     0
1070
   172
1070
     1
1070
    73
1070
     0
1070
   272
1070
     2
1070
    77
1070
     3
1070
   173
1070
     1
1070
   147
1040
2.0
1070
    42
1040
6.0
1070
    44
1040
3.0
1070
    43
1040
14.0
1070
   271
1070
     0
1070
   178
1070
     4
1070
   177
1070
     4
1070
   176
1070
     4
1070
   141
1040
150.0
1070
     7
1000
_OPEN
1070
     6
1000
_OPEN
1070
    41
1040
7.0
1002
}
  0
DIMENSION
  5
5BD
330
1A
100
AcDbEntity
  8
SUNPOU
100
AcDbDimension
  2
*D14
 10
395.3439090945377
 20
277.0474365946429
 30
0.0
 11
413.3439090945377
 21
282.0474365946429
 31
0.0
 70
    32
  3
STANDARD
100
AcDbAlignedDimension
 13
390.5542992023407
 23
243.3807304391825
 33
0.0
 14
395.3439090945377
 24
211.0953568175219
 34
0.0
100
AcDbRotatedDimension
1001
ACAD
1000
DSTYLE
1002
{
1070
   140
1040
6.0
1070
    74
1070
     0
1070
   172
1070
     1
1070
    73
1070
     0
1070
   272
1070
     2
1070
    77
1070
     3
1070
   173
1070
     1
1070
   147
1040
2.0
1070
    42
1040
6.0
1070
    44
1040
3.0
1070
    43
1040
14.0
1070
   271
1070
     0
1070
   178
1070
     4
1070
   177
1070
     4
1070
   176
1070
     4
1070
   141
1040
150.0
1070
     7
1000
_OPEN
1070
     6
1000
_OPEN
1070
    41
1040
7.0
1002
}
  0
MTEXT
  5
69A
330
1A
100
AcDbEntity
  8
SUNPOU
  6
CONTINUOUS
 62
     4
100
AcDbMText
 10
585.5868477364006
 20
358.8610352226378
 30
0.0
 40
6.0
 41
0.0
 71
     7
 72
     5
  1
3-φ4.2
1001
ACAD
1000
MTEXTBEGIN
1070
    73
1070
     1
1070
    44
1040
1.0
1070
    74
1070
     0
1000
MTEXTEND
1000
MTEXTBEGIN
1070
    73
1070
     1
1070
    44
1040
1.0
1070
    74
1070
     0
1000
MTEXTEND
  0
LINE
  5
8CB
330
1A
100
AcDbEntity
  8
SUNPOU
  6
CONTINUOUS
100
AcDbLine
 10
461.1519770672875
 20
125.8863158360672
 30
0.0
 11
449.1519770672875
 21
125.8863158360672
 31
0.0
  0
LINE
  5
8CC
330
1A
100
AcDbEntity
  8
SUNPOU
  6
CONTINUOUS
100
AcDbLine
 10
449.1519770672875
 20
125.8863158360672
 30
0.0
 11
449.1519770672875
 21
145.8575215524753
 31
0.0
  0
LINE
  5
A5B
330
1A
100
AcDbEntity
  8
ZUWAKU
100
AcDbLine
 10
208.6466024889079
 20
15.19999935047882
 30
0.0
 11
447.4243651698313
 21
15.19999935047881
 31
0.0
  0
LINE
  5
A5C
330
1A
100
AcDbEntity
  8
ZUWAKU
100
AcDbLine
 10
208.6466024889079
 20
15.59999935047881
 30
0.0
 11
447.4243651698313
 21
15.59999935047882
 31
0.0
  0
LINE
  5
A5D
330
1A
100
AcDbEntity
  8
ZUWAKU
100
AcDbLine
 10
208.6466024889079
 20
15.39999935047881
 30
0.0
 11
447.4243651698313
 21
15.39999935047881
 31
0.0
  0
LINE
  5
A5E
330
1A
100
AcDbEntity
  8
ZUWAKU
100
AcDbLine
 10
0.0000011988399819
 20
30.79999935047879
 30
0.0
 11
797.4000011988398
 21
30.79999935047879
 31
0.0
  0
LINE
  5
A5F
330
1A
100
AcDbEntity
  8
ZUWAKU
100
AcDbLine
 10
0.0000011988399819
 20
30.5999993504788
 30
0.0
 11
797.4000011988398
 21
30.5999993504788
 31
0.0
  0
LINE
  5
A60
330
1A
100
AcDbEntity
  8
ZUWAKU
100
AcDbLine
 10
0.0000011988399819
 20
30.39999935047879
 30
0.0
 11
797.4000011988398
 21
30.39999935047879
 31
0.0
  0
LINE
  5
A61
330
1A
100
AcDbEntity
  8
ZUWAKU
100
AcDbLine
 10
0.0000011988399819
 20
30.19999935047878
 30
0.0
 11
797.4000011988398
 21
30.19999935047878
 31
0.0
  0
LINE
  5
A62
330
1A
100
AcDbEntity
  8
ZUWAKU
100
AcDbLine
 10
0.0000011988399819
 20
29.99999935047878
 30
0.0
 11
797.4000011988398
 21
29.99999935047878
 31
0.0
  0
LWPOLYLINE
  5
A63
330
1A
100
AcDbEntity
  8
ZUWAKU
100
AcDbPolyline
 90
        4
 70
     1
 43
0.0
 10
0.2000011988399137
 20
551.3999993504787
 10
0.2000011988399137
 20
0.1999993504788336
 10
797.4000011988398
 20
0.1999993504788566
 10
797.40000119884
 20
551.3999993504787
  0
LWPOLYLINE
  5
A64
330
1A
100
AcDbEntity
  8
ZUWAKU
100
AcDbPolyline
 90
        4
 70
     1
 43
0.0
 10
0.600001198839891
 20
550.9999993504789
 10
0.600001198839891
 20
0.5999993504788109
 10
797.0000011988402
 20
0.5999993504788571
 10
797.00000119884
 20
550.9999993504789
  0
LWPOLYLINE
  5
A65
330
1A
100
AcDbEntity
  8
ZUWAKU
100
AcDbPolyline
 90
        4
 70
     1
 43
0.0
 10
0.0000011988399819
 20
551.5999993504788
 10
0.0000011988399819
 20
-0.0000006495212119
 10
797.60000119884
 20
-0.0000006495211444
 10
797.60000119884
 20
551.5999993504789
  0
LWPOLYLINE
  5
A66
330
1A
100
AcDbEntity
  8
ZUWAKU
100
AcDbPolyline
 90
        4
 70
     1
 43
0.0
 10
0.4000011988399593
 20
551.1999993504787
 10
0.4000011988399593
 20
0.399999350478879
 10
797.20000119884
 20
0.3999993504788559
 10
797.20000119884
 20
551.1999993504787
  0
LWPOLYLINE
  5
A67
330
1A
100
AcDbEntity
  8
ZUWAKU
100
AcDbPolyline
 90
        4
 70
     1
 43
0.0
 10
0.8000011988399364
 20
550.7999993504787
 10
0.8000011988399364
 20
0.7999993504788563
 10
796.8000011988398
 20
0.7999993504788563
 10
796.8000011988398
 20
550.7999993504787
  0
TEXT
  5
A68
330
1A
100
AcDbEntity
  8
MOJI
100
AcDbText
 10
129.5810018416712
 20
8.554222766009161
 30
0.0
 40
5.799999999999999
  1
Ｓ１２０Ｈ・Ｍ１２０Ｈ
 41
0.9
  7
ｽﾀｲﾙ1
100
AcDbText
  0
TEXT
  5
A69
330
1A
100
AcDbEntity
  8
MOJI
100
AcDbText
 10
81.66226515300536
 20
17.85856729940519
 30
0.0
 40
5.799999999999999
  1
アートフェイスＴ１２０・Ｈ１２０・
 41
0.9
  7
ｽﾀｲﾙ1
100
AcDbText
  0
HATCH
  5
A6A
330
1A
100
AcDbEntity
  8
ZUWAKU
100
AcDbHatch
 10
0.0
 20
0.0
 30
0.0
210
0.0
220
0.0
230
1.0
  2
ANSI37
 70
     0
 71
     0
 91
        8
 92
        7
 72
     1
 73
     1
 93
       24
 10
14.50226385995983
 20
17.64484783146236
 42
-0.1989123673796348
 10
14.0922133536211
 20
18.63479732512341
 42
0.0
 10
14.0922133536211
 20
19.92499935047879
 42
-0.4142135623730912
 10
14.61721335362107
 20
20.44999935047878
 42
0.0
 10
17.59221335362098
 20
20.44999935047878
 42
0.4142135623731546
 10
18.11721335362108
 20
20.97499935047877
 42
0.0
 10
18.11721335362108
 20
22.7249993504788
 42
0.4142135623731586
 10
17.59221335362098
 20
23.24999935047878
 42
0.0
 10
14.0922133536211
 20
23.24999935047878
 42
0.4142135623730928
 10
11.29221335362114
 20
20.44999935047881
 42
0.0
 10
11.29221335362114
 20
18.63479732512354
 42
0.1989123673796619
 10
12.52236487263757
 20
15.66494884413993
 42
0.0
 10
15.43216284728225
 20
12.75515086949528
 42
-0.1989123673796613
 10
15.8422133536211
 20
11.76520137583409
 42
0.0
 10
15.8422133536211
 20
10.47499935047877
 42
-0.4142135623730911
 10
15.31721335362112
 20
9.949999350478789
 42
0.0
 10
12.34221335362121
 20
9.949999350478789
 42
0.4142135623731526
 10
11.81721335362112
 20
9.424999350478801
 42
0.0
 10
11.81721335362112
 20
7.67499935047878
 42
0.4142135623731526
 10
12.34221335362121
 20
7.149999350478792
 42
0.0
 10
15.8422133536211
 20
7.149999350478792
 42
0.4142135623731045
 10
18.64221335362117
 20
9.949999350478769
 42
0.0
 10
18.64221335362117
 20
11.76520137583403
 42
0.1989123673796604
 10
17.41206183460462
 20
14.73504985681757
 42
0.0
 97
        0
 92
        7
 72
     1
 73
     1
 93
       16
 10
23.54221335362114
 20
19.04999935047879
 42
-0.4142135623730935
 10
24.94221335362112
 20
20.44999935047878
 42
0.0
 10
26.86721335362108
 20
20.44999935047878
 42
0.4142135623731546
 10
27.39221335362117
 20
20.97499935047877
 42
0.0
 10
27.39221335362117
 20
22.7249993504788
 42
0.4142135623730951
 10
26.86721335362119
 20
23.24999935047878
 42
0.0
 10
24.94221335362101
 20
23.24999935047874
 42
0.4142135623730893
 10
20.74221335362107
 20
19.04999935047873
 42
0.0
 10
20.74221335362107
 20
11.34999935047881
 42
0.4142135623730969
 10
24.94221335362112
 20
7.149999350478792
 42
0.0
 10
26.86721335362108
 20
7.149999350478792
 42
0.4142135623731526
 10
27.39221335362117
 20
7.67499935047878
 42
0.0
 10
27.39221335362117
 20
9.424999350478801
 42
0.4142135623730891
 10
26.86721335362119
 20
9.949999350478789
 42
0.0
 10
24.94221335362112
 20
9.949999350478789
 42
-0.4142135623730928
 10
23.54221335362114
 20
11.34999935047877
 42
0.0
 97
        0
 92
        7
 72
     1
 73
     1
 93
        2
 10
24.24221335362108
 20
15.19999935047878
 42
1.0
 10
27.74221335362108
 20
15.19999935047878
 42
1.0
 97
        0
 92
        7
 72
     1
 73
     1
 93
       26
 10
37.3148598357991
 20
19.20504654404221
 42
0.0
 10
38.37649946893692
 20
22.5669053823118
 42
0.5069206636600134
 10
37.87586856974155
 20
23.24999935047878
 42
0.0
 10
36.17697919013232
 20
23.24999935047878
 42
0.3272098845218764
 10
35.67634829093696
 20
22.88309331864575
 42
0.0
 10
33.80807841630518
 20
16.96690538231186
 42
-0.3272098845219541
 10
33.30744751710971
 20
16.59999935047878
 42
0.0
 10
33.16721335362126
 20
16.59999935047878
 42
-0.4142135623731526
 10
32.64221335362117
 20
17.12499935047877
 42
0.0
 10
32.64221335362117
 20
22.7249993504788
 42
0.4142135623730951
 10
32.11721335362119
 20
23.24999935047878
 42
0.0
 10
30.36721335362107
 20
23.24999935047878
 42
0.4142135623730871
 10
29.8422133536211
 20
22.7249993504788
 42
0.0
 10
29.8422133536211
 20
7.67499935047878
 42
0.4142135623730891
 10
30.36721335362107
 20
7.149999350478792
 42
0.0
 10
32.11721335362108
 20
7.149999350478792
 42
0.4142135623731526
 10
32.64221335362117
 20
7.67499935047878
 42
0.0
 10
32.64221335362117
 20
13.27499935047879
 42
-0.4142135623731526
 10
33.16721335362126
 20
13.79999935047878
 42
0.0
 10
33.30744751710983
 20
13.79999935047878
 42
-0.3272098845218915
 10
33.80807841630518
 20
13.43309331864571
 42
0.0
 10
35.67634829093696
 20
7.516905382311864
 42
0.3272098845218902
 10
36.17697919013232
 20
7.149999350478792
 42
0.0
 10
37.87586856974155
 20
7.149999350478792
 42
0.5069206636600336
 10
38.37649946893692
 20
7.833093318645801
 42
0.0
 10
36.05010809046325
 20
15.19999935047892
 42
0.0
 97
        0
 92
        7
 72
     1
 73
     1
 93
        8
 10
43.49221335362106
 20
22.7249993504788
 42
0.4142135623731546
 10
42.96721335362098
 20
23.24999935047878
 42
0.0
 10
41.21721335362122
 20
23.24999935047878
 42
0.4142135623731507
 10
40.69221335362112
 20
22.7249993504788
 42
0.0
 10
40.69221335362112
 20
7.67499935047878
 42
0.4142135623731526
 10
41.21721335362122
 20
7.149999350478792
 42
0.0
 10
42.96721335362098
 20
7.149999350478792
 42
0.4142135623731526
 10
43.49221335362106
 20
7.67499935047878
 42
0.0
 97
        0
 92
        7
 72
     1
 73
     1
 93
       24
 10
48.39221335362116
 20
19.92499935047879
 42
-0.4142135623731546
 10
48.91721335362126
 20
20.44999935047878
 42
0.0
 10
51.89221335362117
 20
20.44999935047878
 42
0.4142135623730911
 10
52.41721335362115
 20
20.97499935047877
 42
0.0
 10
52.41721335362115
 20
22.7249993504788
 42
0.4142135623730952
 10
51.89221335362117
 20
23.24999935047878
 42
0.0
 10
48.39221335362116
 20
23.24999935047878
 42
0.4142135623731048
 10
45.5922133536211
 20
20.44999935047881
 42
0.0
 10
45.5922133536211
 20
18.63479732512354
 42
0.1989123673796613
 10
46.82236487263764
 20
15.66494884413999
 42
0.0
 10
49.73216284728231
 20
12.75515086949532
 42
-0.1989123673796402
 10
50.14221335362117
 20
11.76520137583425
 42
0.0
 10
50.14221335362117
 20
10.47499935047877
 42
-0.4142135623730911
 10
49.6172133536212
 20
9.949999350478789
 42
0.0
 10
46.64221335362117
 20
9.949999350478789
 42
0.4142135623731526
 10
46.11721335362108
 20
9.424999350478801
 42
0.0
 10
46.11721335362108
 20
7.67499935047878
 42
0.4142135623730891
 10
46.64221335362106
 20
7.149999350478792
 42
0.0
 10
50.14221335362117
 20
7.149999350478792
 42
0.4142135623730925
 10
52.94221335362112
 20
9.949999350478769
 42
0.0
 10
52.94221335362112
 20
11.76520137583403
 42
0.1989123673796675
 10
51.71206183460459
 20
14.73504985681769
 42
0.0
 10
48.80226385996
 20
17.6448478314622
 42
-0.1989123673796652
 10
48.39221335362116
 20
18.63479732512337
 42
0.0
 97
        0
 92
        7
 72
     1
 73
     1
 93
       16
 10
57.84221335362111
 20
22.72499935047877
 42
0.414213562373103
 10
57.31721335362112
 20
23.24999935047878
 42
0.0
 10
55.56721335362112
 20
23.24999935047878
 42
0.4142135623730871
 10
55.04221335362114
 20
22.7249993504788
 42
0.0
 10
55.04221335362114
 20
9.949999350478769
 42
0.4142135623730927
 10
57.84221335362111
 20
7.149999350478792
 42
0.0
 10
61.3422133536211
 20
7.149999350478792
 42
0.4142135623731045
 10
64.14221335362118
 20
9.949999350478769
 42
0.0
 10
64.14221335362118
 20
22.7249993504788
 42
0.4142135623730951
 10
63.61721335362119
 20
23.24999935047878
 42
0.0
 10
61.86721335362108
 20
23.24999935047878
 42
0.4142135623730871
 10
61.3422133536211
 20
22.7249993504788
 42
0.0
 10
61.3422133536211
 20
10.99999935047876
 42
-0.4142135623730879
 10
60.29221335362114
 20
9.949999350478789
 42
0.0
 10
58.89221335362117
 20
9.949999350478789
 42
-0.4142135623731197
 10
57.84221335362111
 20
10.99999935047876
 42
0.0
 97
        0
 92
        7
 72
     1
 73
     1
 93
        8
 10
69.04221335362115
 20
22.7249993504788
 42
0.4142135623730871
 10
68.51721335362118
 20
23.24999935047878
 42
0.0
 10
66.76721335362117
 20
23.24999935047878
 42
0.4142135623731507
 10
66.24221335362108
 20
22.7249993504788
 42
0.0
 10
66.24221335362108
 20
7.67499935047878
 42
0.4142135623730891
 10
66.76721335362106
 20
7.149999350478792
 42
0.0
 10
68.51721335362118
 20
7.149999350478792
 42
0.4142135623730891
 10
69.04221335362115
 20
7.67499935047878
 42
0.0
 97
        0
 75
     0
 76
     1
 52
0.0
 41
0.2
 77
     0
 78
     2
 53
45.0
 43
-900.9423031358391
 44
-13.20000064952113
 45
-0.4490128060534576
 46
0.4490128060534577
 79
     0
 53
135.0
 43
-900.9423031358391
 44
-13.20000064952113
 45
-0.4490128060534577
 46
-0.4490128060534576
 79
     0
 47
0.057451373970553
 98
        8
 10
16.07985616186328
 20
15.16717299636433
 10
22.40451620527915
 20
18.84406153292979
 10
25.16436908449963
 20
15.5118809965495
 10
30.91406118047711
 20
16.20129699692028
 10
41.83847321779671
 20
16.6609092644619
 10
46.89820209396953
 20
19.41857566688599
 10
56.55768717124033
 20
18.72915726557379
 10
67.82708081846272
 20
19.18876953311541
  0
LINE
  5
A6B
330
1A
100
AcDbEntity
  8
ZUWAKU
100
AcDbLine
 10
24.94221335362112
 20
23.24999935047874
 30
0.0
 11
26.86721335362108
 21
23.24999935047878
 31
0.0
  0
LINE
  5
A6C
330
1A
100
AcDbEntity
  8
ZUWAKU
100
AcDbLine
 10
26.86721335362108
 20
20.44999935047878
 30
0.0
 11
24.94221335362112
 21
20.44999935047878
 31
0.0
  0
LINE
  5
A6D
330
1A
100
AcDbEntity
  8
ZUWAKU
100
AcDbLine
 10
24.94221335362112
 20
9.949999350478789
 30
0.0
 11
26.86721335362108
 21
9.949999350478789
 31
0.0
  0
LINE
  5
A6E
330
1A
100
AcDbEntity
  8
ZUWAKU
100
AcDbLine
 10
26.86721335362108
 20
7.149999350478792
 30
0.0
 11
24.94221335362112
 21
7.149999350478792
 31
0.0
  0
CIRCLE
  5
A6F
330
1A
100
AcDbEntity
  8
ZUWAKU
100
AcDbCircle
 10
25.99221335362107
 20
15.19999935047878
 30
0.0
 40
1.75
  0
ARC
  5
A70
330
1A
100
AcDbEntity
  8
ZUWAKU
100
AcDbCircle
 10
15.49221335362108
 20
18.63479732512348
 30
0.0
 40
1.399999999999999
100
AcDbArc
 50
180.0000000000015
 51
224.9999999999988
  0
LINE
  5
A71
330
1A
100
AcDbEntity
  8
ZUWAKU
100
AcDbLine
 10
23.54221335362114
 20
19.04999935047878
 30
0.0
 11
23.54221335362114
 21
11.34999935047879
 31
0.0
  0
LINE
  5
A72
330
1A
100
AcDbEntity
  8
ZUWAKU
100
AcDbLine
 10
20.74221335362107
 20
11.34999935047879
 30
0.0
 11
20.74221335362107
 21
19.04999935047874
 31
0.0
  0
ARC
  5
A73
330
1A
100
AcDbEntity
  8
ZUWAKU
100
AcDbCircle
 10
15.49221335362108
 20
18.63479732512348
 30
0.0
 40
4.199999999999998
100
AcDbArc
 50
180.0
 51
225.0
  0
ARC
  5
A74
330
1A
100
AcDbEntity
  8
ZUWAKU
100
AcDbCircle
 10
15.8422133536211
 20
9.949999350478789
 30
0.0
 40
2.799999999999998
100
AcDbArc
 50
270.0
 51
0.0
  0
ARC
  5
A75
330
1A
100
AcDbEntity
  8
ZUWAKU
100
AcDbCircle
 10
24.94221335362112
 20
11.34999935047879
 30
0.0
 40
4.199999999999998
100
AcDbArc
 50
180.0
 51
270.0
  0
ARC
  5
A76
330
1A
100
AcDbEntity
  8
ZUWAKU
100
AcDbCircle
 10
14.44221335362112
 20
11.76520137583409
 30
0.0
 40
4.199999999999998
100
AcDbArc
 50
0.0
 51
45.0
  0
LINE
  5
A77
330
1A
100
AcDbEntity
  8
ZUWAKU
100
AcDbLine
 10
17.41206183460462
 20
14.73504985681761
 30
0.0
 11
14.50226385995994
 21
17.64484783146228
 31
0.0
  0
LINE
  5
A78
330
1A
100
AcDbEntity
  8
ZUWAKU
100
AcDbLine
 10
15.8422133536211
 20
10.47499935047879
 30
0.0
 11
15.8422133536211
 21
11.76520137583413
 31
0.0
  0
ARC
  5
A79
330
1A
100
AcDbEntity
  8
ZUWAKU
100
AcDbCircle
 10
15.31721335362112
 20
10.47499935047879
 30
0.0
 40
0.525
100
AcDbArc
 50
270.0
 51
0.0
  0
ARC
  5
A7A
330
1A
100
AcDbEntity
  8
ZUWAKU
100
AcDbCircle
 10
14.44221335362112
 20
11.76520137583413
 30
0.0
 40
1.399999999999999
100
AcDbArc
 50
0.0
 51
45.0
  0
LINE
  5
A7B
330
1A
100
AcDbEntity
  8
ZUWAKU
100
AcDbLine
 10
11.81721335362112
 20
7.674999350478791
 30
0.0
 11
11.81721335362112
 21
9.42499935047879
 31
0.0
  0
ARC
  5
A7C
330
1A
100
AcDbEntity
  8
ZUWAKU
100
AcDbCircle
 10
12.3422133536211
 20
7.674999350478791
 30
0.0
 40
0.525
100
AcDbArc
 50
180.0
 51
270.0
  0
ARC
  5
A7D
330
1A
100
AcDbEntity
  8
ZUWAKU
100
AcDbCircle
 10
12.3422133536211
 20
9.42499935047879
 30
0.0
 40
0.525
100
AcDbArc
 50
90.0
 51
180.0
  0
LINE
  5
A7E
330
1A
100
AcDbEntity
  8
ZUWAKU
100
AcDbLine
 10
12.3422133536211
 20
7.149999350478792
 30
0.0
 11
15.8422133536211
 21
7.149999350478792
 31
0.0
  0
LINE
  5
A7F
330
1A
100
AcDbEntity
  8
ZUWAKU
100
AcDbLine
 10
12.3422133536211
 20
9.949999350478789
 30
0.0
 11
15.31721335362112
 21
9.949999350478789
 31
0.0
  0
LINE
  5
A80
330
1A
100
AcDbEntity
  8
ZUWAKU
100
AcDbLine
 10
12.52236487263757
 20
15.66494884413996
 30
0.0
 11
15.43216284728225
 21
12.7551508694953
 31
0.0
  0
LINE
  5
A81
330
1A
100
AcDbEntity
  8
ZUWAKU
100
AcDbLine
 10
18.64221335362117
 20
9.949999350478789
 30
0.0
 11
18.64221335362117
 21
11.76520137583413
 31
0.0
  0
ARC
  5
A82
330
1A
100
AcDbEntity
  8
ZUWAKU
100
AcDbCircle
 10
24.94221335362112
 20
11.34999935047879
 30
0.0
 40
1.399999999999999
100
AcDbArc
 50
180.0
 51
270.0
  0
ARC
  5
A83
330
1A
100
AcDbEntity
  8
ZUWAKU
100
AcDbCircle
 10
17.5922133536211
 20
22.72499935047878
 30
0.0
 40
0.525
100
AcDbArc
 50
0.0
 51
90.0
  0
ARC
  5
A84
330
1A
100
AcDbEntity
  8
ZUWAKU
100
AcDbCircle
 10
17.5922133536211
 20
20.97499935047878
 30
0.0
 40
0.525
100
AcDbArc
 50
270.0
 51
0.0
  0
LINE
  5
A85
330
1A
100
AcDbEntity
  8
ZUWAKU
100
AcDbLine
 10
14.0922133536211
 20
23.24999935047878
 30
0.0
 11
17.5922133536211
 21
23.24999935047878
 31
0.0
  0
ARC
  5
A86
330
1A
100
AcDbEntity
  8
ZUWAKU
100
AcDbCircle
 10
14.61721335362107
 20
19.92499935047878
 30
0.0
 40
0.525
100
AcDbArc
 50
90.0
 51
180.0
  0
LINE
  5
A87
330
1A
100
AcDbEntity
  8
ZUWAKU
100
AcDbLine
 10
14.0922133536211
 20
19.92499935047878
 30
0.0
 11
14.0922133536211
 21
18.63479732512344
 31
0.0
  0
LINE
  5
A88
330
1A
100
AcDbEntity
  8
ZUWAKU
100
AcDbLine
 10
17.5922133536211
 20
20.44999935047878
 30
0.0
 11
14.61721335362107
 21
20.44999935047878
 31
0.0
  0
LINE
  5
A89
330
1A
100
AcDbEntity
  8
ZUWAKU
100
AcDbLine
 10
11.29221335362114
 20
20.44999935047878
 30
0.0
 11
11.29221335362114
 21
18.63479732512344
 31
0.0
  0
ARC
  5
A8A
330
1A
100
AcDbEntity
  8
ZUWAKU
100
AcDbCircle
 10
14.0922133536211
 20
20.44999935047878
 30
0.0
 40
2.799999999999998
100
AcDbArc
 50
90.0
 51
180.0
  0
LINE
  5
A8B
330
1A
100
AcDbEntity
  8
ZUWAKU
100
AcDbLine
 10
18.11721335362108
 20
22.72499935047878
 30
0.0
 11
18.11721335362108
 21
20.97499935047878
 31
0.0
  0
ARC
  5
A8C
330
1A
100
AcDbEntity
  8
ZUWAKU
100
AcDbCircle
 10
24.94221335362112
 20
19.04999935047878
 30
0.0
 40
1.399999999999999
100
AcDbArc
 50
90.0
 51
180.0
  0
ARC
  5
A8D
330
1A
100
AcDbEntity
  8
ZUWAKU
100
AcDbCircle
 10
24.94221335362112
 20
19.04999935047874
 30
0.0
 40
4.199999999999998
100
AcDbArc
 50
90.0
 51
180.0
  0
LINE
  5
A8E
330
1A
100
AcDbEntity
  8
ZUWAKU
100
AcDbLine
 10
79.32663074682818
 20
29.99999935047878
 30
0.0
 11
79.32663074682841
 21
0.7999993504788563
 31
0.0
  0
LINE
  5
A8F
330
1A
100
AcDbEntity
  8
ZUWAKU
100
AcDbLine
 10
79.52663074682823
 20
29.99999935047878
 30
0.0
 11
79.52663074682845
 21
0.7999993504788563
 31
0.0
  0
LINE
  5
A90
330
1A
100
AcDbEntity
  8
ZUWAKU
100
AcDbLine
 10
79.12663074682837
 20
29.99999935047878
 30
0.0
 11
79.12663074682837
 21
0.7999993504788563
 31
0.0
  0
LINE
  5
A91
330
1A
100
AcDbEntity
  8
ZUWAKU
100
AcDbLine
 10
64.14221335362118
 20
9.949999350478789
 30
0.0
 11
64.14221335362118
 21
22.72499935047878
 31
0.0
  0
LINE
  5
A92
330
1A
100
AcDbEntity
  8
ZUWAKU
100
AcDbLine
 10
61.3422133536211
 20
22.72499935047878
 30
0.0
 11
61.3422133536211
 21
10.99999935047878
 31
0.0
  0
LINE
  5
A93
330
1A
100
AcDbEntity
  8
ZUWAKU
100
AcDbLine
 10
69.04221335362115
 20
7.674999350478791
 30
0.0
 11
69.04221335362115
 21
22.72499935047878
 31
0.0
  0
LINE
  5
A94
330
1A
100
AcDbEntity
  8
ZUWAKU
100
AcDbLine
 10
66.24221335362108
 20
22.72499935047878
 30
0.0
 11
66.24221335362108
 21
7.674999350478791
 31
0.0
  0
ARC
  5
A95
330
1A
100
AcDbEntity
  8
ZUWAKU
100
AcDbCircle
 10
49.79221335362114
 20
18.63479732512348
 30
0.0
 40
1.399999999999999
100
AcDbArc
 50
180.0000000000015
 51
224.9999999999988
  0
ARC
  5
A96
330
1A
100
AcDbEntity
  8
ZUWAKU
100
AcDbCircle
 10
49.79221335362114
 20
18.63479732512348
 30
0.0
 40
4.199999999999998
100
AcDbArc
 50
180.0
 51
225.0
  0
LINE
  5
A97
330
1A
100
AcDbEntity
  8
ZUWAKU
100
AcDbLine
 10
37.3148598357991
 20
19.20504654404221
 30
0.0
 11
36.05010809046325
 21
15.1999993504788
 31
0.0
  0
LINE
  5
A98
330
1A
100
AcDbEntity
  8
ZUWAKU
100
AcDbLine
 10
40.69221335362112
 20
22.72499935047878
 30
0.0
 11
40.69221335362112
 21
7.674999350478791
 31
0.0
  0
LINE
  5
A99
330
1A
100
AcDbEntity
  8
ZUWAKU
100
AcDbLine
 10
43.49221335362106
 20
7.674999350478791
 30
0.0
 11
43.49221335362106
 21
22.72499935047878
 31
0.0
  0
LINE
  5
A9A
330
1A
100
AcDbEntity
  8
ZUWAKU
100
AcDbLine
 10
55.04221335362114
 20
22.72499935047878
 30
0.0
 11
55.04221335362114
 21
9.949999350478789
 31
0.0
  0
LINE
  5
A9B
330
1A
100
AcDbEntity
  8
ZUWAKU
100
AcDbLine
 10
57.84221335362111
 20
10.99999935047878
 30
0.0
 11
57.84221335362111
 21
22.72499935047878
 31
0.0
  0
LINE
  5
A9C
330
1A
100
AcDbEntity
  8
ZUWAKU
100
AcDbLine
 10
32.64221335362117
 20
17.12499935047879
 30
0.0
 11
32.64221335362117
 21
22.72499935047878
 31
0.0
  0
LINE
  5
A9D
330
1A
100
AcDbEntity
  8
ZUWAKU
100
AcDbLine
 10
29.8422133536211
 20
22.72499935047878
 30
0.0
 11
29.8422133536211
 21
7.674999350478791
 31
0.0
  0
LINE
  5
A9E
330
1A
100
AcDbEntity
  8
ZUWAKU
100
AcDbLine
 10
35.67634829093696
 20
22.88309331864575
 30
0.0
 11
33.80807841630518
 21
16.96690538231181
 31
0.0
  0
LINE
  5
A9F
330
1A
100
AcDbEntity
  8
ZUWAKU
100
AcDbLine
 10
60.29221335362114
 20
9.949999350478789
 30
0.0
 11
58.89221335362117
 21
9.949999350478789
 31
0.0
  0
LINE
  5
AA0
330
1A
100
AcDbEntity
  8
ZUWAKU
100
AcDbLine
 10
57.84221335362111
 20
7.149999350478792
 30
0.0
 11
61.3422133536211
 21
7.149999350478792
 31
0.0
  0
LINE
  5
AA1
330
1A
100
AcDbEntity
  8
ZUWAKU
100
AcDbLine
 10
41.2172133536211
 20
7.149999350478792
 30
0.0
 11
42.9672133536211
 21
7.149999350478792
 31
0.0
  0
LINE
  5
AA2
330
1A
100
AcDbEntity
  8
ZUWAKU
100
AcDbLine
 10
35.67634829093696
 20
7.516905382311818
 30
0.0
 11
33.80807841630518
 21
13.43309331864575
 31
0.0
  0
ARC
  5
AA3
330
1A
100
AcDbEntity
  8
ZUWAKU
100
AcDbCircle
 10
33.30744751710983
 20
17.12499935047879
 30
0.0
 40
0.525
100
AcDbArc
 50
270.0
 51
342.4744316262769
  0
LINE
  5
AA4
330
1A
100
AcDbEntity
  8
ZUWAKU
100
AcDbLine
 10
33.30744751710983
 20
16.59999935047878
 30
0.0
 11
33.16721335362114
 21
16.59999935047878
 31
0.0
  0
LINE
  5
AA5
330
1A
100
AcDbEntity
  8
ZUWAKU
100
AcDbLine
 10
33.16721335362114
 20
13.79999935047878
 30
0.0
 11
33.30744751710983
 21
13.79999935047878
 31
0.0
  0
ARC
  5
AA6
330
1A
100
AcDbEntity
  8
ZUWAKU
100
AcDbCircle
 10
33.16721335362114
 20
17.12499935047879
 30
0.0
 40
0.525
100
AcDbArc
 50
180.0
 51
270.0
  0
LINE
  5
AA7
330
1A
100
AcDbEntity
  8
ZUWAKU
100
AcDbLine
 10
30.36721335362107
 20
7.149999350478792
 30
0.0
 11
32.11721335362108
 21
7.149999350478792
 31
0.0
  0
ARC
  5
AA8
330
1A
100
AcDbEntity
  8
ZUWAKU
100
AcDbCircle
 10
32.11721335362108
 20
7.674999350478791
 30
0.0
 40
0.525
100
AcDbArc
 50
270.0
 51
0.0
  0
LINE
  5
AA9
330
1A
100
AcDbEntity
  8
ZUWAKU
100
AcDbLine
 10
32.64221335362117
 20
7.674999350478791
 30
0.0
 11
32.64221335362117
 21
13.27499935047878
 31
0.0
  0
LINE
  5
AAA
330
1A
100
AcDbEntity
  8
ZUWAKU
100
AcDbLine
 10
27.39221335362117
 20
9.42499935047879
 30
0.0
 11
27.39221335362117
 21
7.674999350478791
 31
0.0
  0
ARC
  5
AAB
330
1A
100
AcDbEntity
  8
ZUWAKU
100
AcDbCircle
 10
26.86721335362108
 20
7.674999350478791
 30
0.0
 40
0.525
100
AcDbArc
 50
270.0
 51
0.0
  0
ARC
  5
AAC
330
1A
100
AcDbEntity
  8
ZUWAKU
100
AcDbCircle
 10
26.86721335362108
 20
9.42499935047879
 30
0.0
 40
0.525
100
AcDbArc
 50
0.0
 51
90.0
  0
ARC
  5
AAD
330
1A
100
AcDbEntity
  8
ZUWAKU
100
AcDbCircle
 10
30.36721335362107
 20
7.674999350478791
 30
0.0
 40
0.525
100
AcDbArc
 50
180.0
 51
270.0
  0
ARC
  5
AAE
330
1A
100
AcDbEntity
  8
ZUWAKU
100
AcDbCircle
 10
33.30744751710983
 20
13.27499935047878
 30
0.0
 40
0.525
100
AcDbArc
 50
17.52556837372303
 51
90.0
  0
ARC
  5
AAF
330
1A
100
AcDbEntity
  8
ZUWAKU
100
AcDbCircle
 10
33.16721335362114
 20
13.27499935047878
 30
0.0
 40
0.525
100
AcDbArc
 50
90.0
 51
180.0
  0
ARC
  5
AB0
330
1A
100
AcDbEntity
  8
ZUWAKU
100
AcDbCircle
 10
41.2172133536211
 20
7.674999350478791
 30
0.0
 40
0.525
100
AcDbArc
 50
180.0
 51
270.0
  0
LINE
  5
AB1
330
1A
100
AcDbEntity
  8
ZUWAKU
100
AcDbLine
 10
36.17697919013243
 20
7.149999350478792
 30
0.0
 11
37.87586856974144
 21
7.149999350478792
 31
0.0
  0
ARC
  5
AB2
330
1A
100
AcDbEntity
  8
ZUWAKU
100
AcDbCircle
 10
37.87586856974144
 20
7.674999350478791
 30
0.0
 40
0.525
100
AcDbArc
 50
270.0
 51
17.52556837372303
  0
LINE
  5
AB3
330
1A
100
AcDbEntity
  8
ZUWAKU
100
AcDbLine
 10
38.37649946893692
 20
7.833093318645765
 30
0.0
 11
36.05010809046325
 21
15.1999993504788
 31
0.0
  0
ARC
  5
AB4
330
1A
100
AcDbEntity
  8
ZUWAKU
100
AcDbCircle
 10
36.17697919013243
 20
7.674999350478791
 30
0.0
 40
0.525
100
AcDbArc
 50
197.5255683737229
 51
270.0
  0
ARC
  5
AB5
330
1A
100
AcDbEntity
  8
ZUWAKU
100
AcDbCircle
 10
57.84221335362111
 20
9.949999350478789
 30
0.0
 40
2.799999999999998
100
AcDbArc
 50
180.0
 51
270.0
  0
ARC
  5
AB6
330
1A
100
AcDbEntity
  8
ZUWAKU
100
AcDbCircle
 10
50.14221335362117
 20
9.949999350478789
 30
0.0
 40
2.799999999999998
100
AcDbArc
 50
270.0
 51
0.0
  0
LINE
  5
AB7
330
1A
100
AcDbEntity
  8
ZUWAKU
100
AcDbLine
 10
51.71206183460469
 20
14.73504985681761
 30
0.0
 11
48.80226385995992
 21
17.64484783146228
 31
0.0
  0
LINE
  5
AB8
330
1A
100
AcDbEntity
  8
ZUWAKU
100
AcDbLine
 10
50.14221335362117
 20
10.47499935047879
 30
0.0
 11
50.14221335362117
 21
11.76520137583413
 31
0.0
  0
ARC
  5
AB9
330
1A
100
AcDbEntity
  8
ZUWAKU
100
AcDbCircle
 10
48.74221335362108
 20
11.76520137583413
 30
0.0
 40
1.399999999999999
100
AcDbArc
 50
0.0
 51
45.0
  0
ARC
  5
ABA
330
1A
100
AcDbEntity
  8
ZUWAKU
100
AcDbCircle
 10
49.61721335362108
 20
10.47499935047879
 30
0.0
 40
0.525
100
AcDbArc
 50
270.0
 51
0.0
  0
LINE
  5
ABB
330
1A
100
AcDbEntity
  8
ZUWAKU
100
AcDbLine
 10
46.11721335362108
 20
7.674999350478791
 30
0.0
 11
46.11721335362108
 21
9.42499935047879
 31
0.0
  0
ARC
  5
ABC
330
1A
100
AcDbEntity
  8
ZUWAKU
100
AcDbCircle
 10
46.64221335362117
 20
7.674999350478791
 30
0.0
 40
0.525
100
AcDbArc
 50
180.0
 51
270.0
  0
ARC
  5
ABD
330
1A
100
AcDbEntity
  8
ZUWAKU
100
AcDbCircle
 10
42.9672133536211
 20
7.674999350478791
 30
0.0
 40
0.525
100
AcDbArc
 50
270.0
 51
0.0
  0
ARC
  5
ABE
330
1A
100
AcDbEntity
  8
ZUWAKU
100
AcDbCircle
 10
46.64221335362117
 20
9.42499935047879
 30
0.0
 40
0.525
100
AcDbArc
 50
90.0
 51
180.0
  0
LINE
  5
ABF
330
1A
100
AcDbEntity
  8
ZUWAKU
100
AcDbLine
 10
46.64221335362117
 20
9.949999350478789
 30
0.0
 11
49.61721335362108
 21
9.949999350478789
 31
0.0
  0
LINE
  5
AC0
330
1A
100
AcDbEntity
  8
ZUWAKU
100
AcDbLine
 10
46.64221335362117
 20
7.149999350478792
 30
0.0
 11
50.14221335362117
 21
7.149999350478792
 31
0.0
  0
LINE
  5
AC1
330
1A
100
AcDbEntity
  8
ZUWAKU
100
AcDbLine
 10
46.82236487263764
 20
15.66494884413996
 30
0.0
 11
49.73216284728231
 21
12.7551508694953
 31
0.0
  0
LINE
  5
AC2
330
1A
100
AcDbEntity
  8
ZUWAKU
100
AcDbLine
 10
52.94221335362112
 20
9.949999350478789
 30
0.0
 11
52.94221335362112
 21
11.76520137583413
 31
0.0
  0
ARC
  5
AC3
330
1A
100
AcDbEntity
  8
ZUWAKU
100
AcDbCircle
 10
48.74221335362108
 20
11.76520137583409
 30
0.0
 40
4.199999999999998
100
AcDbArc
 50
0.0
 51
45.0
  0
ARC
  5
AC4
330
1A
100
AcDbEntity
  8
ZUWAKU
100
AcDbCircle
 10
58.89221335362117
 20
10.99999935047878
 30
0.0
 40
1.049999999999998
100
AcDbArc
 50
180.0
 51
270.0
  0
ARC
  5
AC5
330
1A
100
AcDbEntity
  8
ZUWAKU
100
AcDbCircle
 10
61.3422133536211
 20
9.949999350478789
 30
0.0
 40
2.799999999999998
100
AcDbArc
 50
270.0
 51
0.0
  0
LINE
  5
AC6
330
1A
100
AcDbEntity
  8
ZUWAKU
100
AcDbLine
 10
66.76721335362117
 20
7.149999350478792
 30
0.0
 11
68.51721335362118
 21
7.149999350478792
 31
0.0
  0
ARC
  5
AC7
330
1A
100
AcDbEntity
  8
ZUWAKU
100
AcDbCircle
 10
66.76721335362117
 20
7.674999350478791
 30
0.0
 40
0.525
100
AcDbArc
 50
180.0
 51
270.0
  0
ARC
  5
AC8
330
1A
100
AcDbEntity
  8
ZUWAKU
100
AcDbCircle
 10
60.29221335362114
 20
10.99999935047878
 30
0.0
 40
1.049999999999998
100
AcDbArc
 50
270.0
 51
0.0
  0
ARC
  5
AC9
330
1A
100
AcDbEntity
  8
ZUWAKU
100
AcDbCircle
 10
68.51721335362118
 20
7.674999350478791
 30
0.0
 40
0.525
100
AcDbArc
 50
270.0
 51
0.0
  0
LINE
  5
ACA
330
1A
100
AcDbEntity
  8
ZUWAKU
100
AcDbLine
 10
42.9672133536211
 20
23.24999935047878
 30
0.0
 11
41.2172133536211
 21
23.24999935047878
 31
0.0
  0
ARC
  5
ACB
330
1A
100
AcDbEntity
  8
ZUWAKU
100
AcDbCircle
 10
32.11721335362108
 20
22.72499935047878
 30
0.0
 40
0.525
100
AcDbArc
 50
0.0
 51
90.0
  0
LINE
  5
ACC
330
1A
100
AcDbEntity
  8
ZUWAKU
100
AcDbLine
 10
32.11721335362108
 20
23.24999935047878
 30
0.0
 11
30.36721335362107
 21
23.24999935047878
 31
0.0
  0
ARC
  5
ACD
330
1A
100
AcDbEntity
  8
ZUWAKU
100
AcDbCircle
 10
26.86721335362108
 20
22.72499935047878
 30
0.0
 40
0.525
100
AcDbArc
 50
0.0
 51
90.0
  0
ARC
  5
ACE
330
1A
100
AcDbEntity
  8
ZUWAKU
100
AcDbCircle
 10
30.36721335362107
 20
22.72499935047878
 30
0.0
 40
0.525
100
AcDbArc
 50
90.0
 51
180.0
  0
ARC
  5
ACF
330
1A
100
AcDbEntity
  8
ZUWAKU
100
AcDbCircle
 10
26.86721335362108
 20
20.97499935047878
 30
0.0
 40
0.525
100
AcDbArc
 50
270.0
 51
0.0
  0
LINE
  5
AD0
330
1A
100
AcDbEntity
  8
ZUWAKU
100
AcDbLine
 10
27.39221335362117
 20
22.72499935047878
 30
0.0
 11
27.39221335362117
 21
20.97499935047878
 31
0.0
  0
ARC
  5
AD1
330
1A
100
AcDbEntity
  8
ZUWAKU
100
AcDbCircle
 10
41.2172133536211
 20
22.72499935047878
 30
0.0
 40
0.525
100
AcDbArc
 50
90.0
 51
180.0
  0
LINE
  5
AD2
330
1A
100
AcDbEntity
  8
ZUWAKU
100
AcDbLine
 10
36.17697919013243
 20
23.24999935047878
 30
0.0
 11
37.87586856974144
 21
23.24999935047878
 31
0.0
  0
ARC
  5
AD3
330
1A
100
AcDbEntity
  8
ZUWAKU
100
AcDbCircle
 10
37.87586856974144
 20
22.72499935047878
 30
0.0
 40
0.525
100
AcDbArc
 50
342.4744316262769
 51
90.0
  0
LINE
  5
AD4
330
1A
100
AcDbEntity
  8
ZUWAKU
100
AcDbLine
 10
38.37649946893692
 20
22.56690538231182
 30
0.0
 11
37.3148598357991
 21
19.20504654404221
 31
0.0
  0
ARC
  5
AD5
330
1A
100
AcDbEntity
  8
ZUWAKU
100
AcDbCircle
 10
36.17697919013243
 20
22.72499935047878
 30
0.0
 40
0.525
100
AcDbArc
 50
90.0
 51
162.4744316262769
  0
LINE
  5
AD6
330
1A
100
AcDbEntity
  8
ZUWAKU
100
AcDbLine
 10
48.39221335362116
 20
23.24999935047878
 30
0.0
 11
51.89221335362117
 21
23.24999935047878
 31
0.0
  0
LINE
  5
AD7
330
1A
100
AcDbEntity
  8
ZUWAKU
100
AcDbLine
 10
51.89221335362117
 20
20.44999935047878
 30
0.0
 11
48.91721335362114
 21
20.44999935047878
 31
0.0
  0
ARC
  5
AD8
330
1A
100
AcDbEntity
  8
ZUWAKU
100
AcDbCircle
 10
48.91721335362114
 20
19.92499935047878
 30
0.0
 40
0.525
100
AcDbArc
 50
90.0
 51
180.0
  0
LINE
  5
AD9
330
1A
100
AcDbEntity
  8
ZUWAKU
100
AcDbLine
 10
48.39221335362116
 20
19.92499935047878
 30
0.0
 11
48.39221335362116
 21
18.63479732512344
 31
0.0
  0
ARC
  5
ADA
330
1A
100
AcDbEntity
  8
ZUWAKU
100
AcDbCircle
 10
42.9672133536211
 20
22.72499935047878
 30
0.0
 40
0.525
100
AcDbArc
 50
0.0
 51
90.0
  0
LINE
  5
ADB
330
1A
100
AcDbEntity
  8
ZUWAKU
100
AcDbLine
 10
45.5922133536211
 20
20.44999935047878
 30
0.0
 11
45.5922133536211
 21
18.63479732512344
 31
0.0
  0
ARC
  5
ADC
330
1A
100
AcDbEntity
  8
ZUWAKU
100
AcDbCircle
 10
48.39221335362116
 20
20.44999935047878
 30
0.0
 40
2.799999999999998
100
AcDbArc
 50
90.0
 51
180.0
  0
ARC
  5
ADD
330
1A
100
AcDbEntity
  8
ZUWAKU
100
AcDbCircle
 10
57.31721335362112
 20
22.72499935047878
 30
0.0
 40
0.525
100
AcDbArc
 50
0.0
 51
90.0
  0
ARC
  5
ADE
330
1A
100
AcDbEntity
  8
ZUWAKU
100
AcDbCircle
 10
55.56721335362112
 20
22.72499935047878
 30
0.0
 40
0.525
100
AcDbArc
 50
90.0
 51
180.0
  0
LINE
  5
ADF
330
1A
100
AcDbEntity
  8
ZUWAKU
100
AcDbLine
 10
57.31721335362112
 20
23.24999935047878
 30
0.0
 11
55.56721335362112
 21
23.24999935047878
 31
0.0
  0
ARC
  5
AE0
330
1A
100
AcDbEntity
  8
ZUWAKU
100
AcDbCircle
 10
51.89221335362117
 20
22.72499935047878
 30
0.0
 40
0.525
100
AcDbArc
 50
0.0
 51
90.0
  0
ARC
  5
AE1
330
1A
100
AcDbEntity
  8
ZUWAKU
100
AcDbCircle
 10
51.89221335362117
 20
20.97499935047878
 30
0.0
 40
0.525
100
AcDbArc
 50
270.0
 51
0.0
  0
LINE
  5
AE2
330
1A
100
AcDbEntity
  8
ZUWAKU
100
AcDbLine
 10
52.41721335362115
 20
22.72499935047878
 30
0.0
 11
52.41721335362115
 21
20.97499935047878
 31
0.0
  0
LINE
  5
AE3
330
1A
100
AcDbEntity
  8
ZUWAKU
100
AcDbLine
 10
68.51721335362118
 20
23.24999935047878
 30
0.0
 11
66.76721335362117
 21
23.24999935047878
 31
0.0
  0
ARC
  5
AE4
330
1A
100
AcDbEntity
  8
ZUWAKU
100
AcDbCircle
 10
66.76721335362117
 20
22.72499935047878
 30
0.0
 40
0.525
100
AcDbArc
 50
90.0
 51
180.0
  0
ARC
  5
AE5
330
1A
100
AcDbEntity
  8
ZUWAKU
100
AcDbCircle
 10
63.61721335362108
 20
22.72499935047878
 30
0.0
 40
0.525
100
AcDbArc
 50
0.0
 51
90.0
  0
LINE
  5
AE6
330
1A
100
AcDbEntity
  8
ZUWAKU
100
AcDbLine
 10
63.61721335362108
 20
23.24999935047878
 30
0.0
 11
61.86721335362108
 21
23.24999935047878
 31
0.0
  0
ARC
  5
AE7
330
1A
100
AcDbEntity
  8
ZUWAKU
100
AcDbCircle
 10
61.86721335362108
 20
22.72499935047878
 30
0.0
 40
0.525
100
AcDbArc
 50
90.0
 51
180.0
  0
ARC
  5
AE8
330
1A
100
AcDbEntity
  8
ZUWAKU
100
AcDbCircle
 10
68.51721335362118
 20
22.72499935047878
 30
0.0
 40
0.525
100
AcDbArc
 50
0.0
 51
90.0
  0
TEXT
  5
AE9
330
1A
100
AcDbEntity
  8
MOJI
100
AcDbText
 10
239.8272038796909
 20
18.00492040788617
 30
0.0
 40
5.599999999999998
  1
ブラケット正面打（吊）固定式
 41
0.9
  7
ｽﾀｲﾙ1
100
AcDbText
  0
TEXT
  5
AEA
330
1A
100
AcDbEntity
  8
MOJI
100
AcDbText
 10
239.8272038796909
 20
3.204920407886209
 30
0.0
 40
5.599999999999998
  1
１２０－６－１０
 41
0.9
  7
ｽﾀｲﾙ1
100
AcDbText
  0
LINE
  5
AEB
330
1A
100
AcDbEntity
  8
ZUWAKU
100
AcDbLine
 10
208.2466024889078
 20
29.99999935047878
 30
0.0
 11
208.2466024889078
 21
0.7999993504788563
 31
0.0
  0
LINE
  5
AEC
330
1A
100
AcDbEntity
  8
ZUWAKU
100
AcDbLine
 10
208.6466024889077
 20
29.99999935047878
 30
0.0
 11
208.6466024889079
 21
0.7999993504788563
 31
0.0
  0
LINE
  5
AED
330
1A
100
AcDbEntity
  8
ZUWAKU
100
AcDbLine
 10
208.4466024889076
 20
29.99999935047878
 30
0.0
 11
208.4466024889079
 21
0.7999993504788563
 31
0.0
  0
TEXT
  5
AEE
330
1A
100
AcDbEntity
  8
ZUWAKU
100
AcDbText
 10
209.7240475111174
 20
9.655355888864406
 30
0.0
 40
4.0
  1
サイズ
 41
0.9
  7
ｽﾀｲﾙ1
100
AcDbText
  0
TEXT
  5
AEF
330
1A
100
AcDbEntity
  8
ZUWAKU
100
AcDbText
 10
209.7240475111172
 20
24.05535588886436
 30
0.0
 40
4.0
  1
品名
 41
0.9
  7
ｽﾀｲﾙ1
100
AcDbText
  0
LINE
  5
AF0
330
1A
100
AcDbEntity
  8
ZUWAKU
100
AcDbLine
 10
648.8172037090442
 20
15.19999935047881
 30
0.0
 11
697.2490117473812
 21
15.19999935047881
 31
0.0
  0
LINE
  5
AF1
330
1A
100
AcDbEntity
  8
ZUWAKU
100
AcDbLine
 10
648.8172037090443
 20
15.39999935047882
 30
0.0
 11
697.2490117473812
 21
15.39999935047881
 31
0.0
  0
LINE
  5
AF2
330
1A
100
AcDbEntity
  8
ZUWAKU
100
AcDbLine
 10
648.8172037090442
 20
15.59999935047881
 30
0.0
 11
697.2490117473812
 21
15.59999935047881
 31
0.0
  0
TEXT
  5
AF3
330
1A
100
AcDbEntity
  8
ZUWAKU
100
AcDbText
 10
654.5120771985268
 20
18.00492040788617
 30
0.0
 40
5.599999999999998
  1
　　．　．　　
 41
0.9
  7
ｽﾀｲﾙ1
100
AcDbText
  0
LINE
  5
AF4
330
1A
100
AcDbEntity
  8
ZUWAKU
100
AcDbLine
 10
505.1991806969807
 20
15.19999935047882
 30
0.0
 11
552.5269569649524
 21
15.19999935047882
 31
0.0
  0
LINE
  5
AF5
330
1A
100
AcDbEntity
  8
ZUWAKU
100
AcDbLine
 10
505.1991806969807
 20
15.39999935047881
 30
0.0
 11
552.5269569649524
 21
15.39999935047881
 31
0.0
  0
LINE
  5
AF6
330
1A
100
AcDbEntity
  8
ZUWAKU
100
AcDbLine
 10
505.1991806969807
 20
15.59999935047881
 30
0.0
 11
552.5269569649524
 21
15.59999935047881
 31
0.0
  0
LINE
  5
AF7
330
1A
100
AcDbEntity
  8
ZUWAKU
100
AcDbLine
 10
447.6243651698311
 20
29.99999935047878
 30
0.0
 11
447.6243651698313
 21
0.7999993504788563
 31
0.0
  0
LINE
  5
AF8
330
1A
100
AcDbEntity
  8
ZUWAKU
100
AcDbLine
 10
447.8243651698311
 20
29.99999935047878
 30
0.0
 11
447.8243651698314
 21
0.7999993504788563
 31
0.0
  0
LINE
  5
AF9
330
1A
100
AcDbEntity
  8
ZUWAKU
100
AcDbLine
 10
447.4243651698313
 20
29.99999935047878
 30
0.0
 11
447.4243651698313
 21
0.7999993504788563
 31
0.0
  0
TEXT
  5
AFA
330
1A
100
AcDbEntity
  8
MOJI
100
AcDbText
 10
528.0409091711528
 20
18.00492040788617
 30
0.0
 40
5.599999999999998
  1
Ａ３
 41
0.9
  7
ｽﾀｲﾙ1
100
AcDbText
  0
LINE
  5
AFB
330
1A
100
AcDbEntity
  8
ZUWAKU
100
AcDbLine
 10
504.9991806969808
 20
29.99999935047878
 30
0.0
 11
504.9991806969809
 21
0.7999993504788563
 31
0.0
  0
LINE
  5
AFC
330
1A
100
AcDbEntity
  8
ZUWAKU
100
AcDbLine
 10
505.1991806969807
 20
29.99999935047878
 30
0.0
 11
505.1991806969811
 21
0.7999993504788563
 31
0.0
  0
LINE
  5
AFD
330
1A
100
AcDbEntity
  8
ZUWAKU
100
AcDbLine
 10
504.7991806969809
 20
29.99999935047878
 30
0.0
 11
504.7991806969809
 21
0.7999993504788563
 31
0.0
  0
TEXT
  5
AFE
330
1A
100
AcDbEntity
  8
MOJI
100
AcDbText
 10
463.2464331898419
 20
11.94261707213876
 30
0.0
 40
5.599999999999998
  1
ＬＨ０９Ｔ
 41
0.9
  7
ｽﾀｲﾙ1
100
AcDbText
  0
TEXT
  5
AFF
330
1A
100
AcDbEntity
  8
ZUWAKU
100
AcDbText
 10
506.6766257191907
 20
9.655355888864406
 30
0.0
 40
4.0
  1
縮尺
 41
0.9
  7
ｽﾀｲﾙ1
100
AcDbText
  0
TEXT
  5
B00
330
1A
100
AcDbEntity
  8
MOJI
100
AcDbText
 10
528.0409091711528
 20
3.204920407886209
 30
0.0
 40
5.599999999999998
  1
１/２
 41
0.9
  7
ｽﾀｲﾙ1
100
AcDbText
  0
TEXT
  5
B01
330
1A
100
AcDbEntity
  8
ZUWAKU
100
AcDbText
 10
449.3018101920409
 20
24.05535588886436
 30
0.0
 40
4.0
  1
品番
 41
0.9
  7
ｽﾀｲﾙ1
100
AcDbText
  0
TEXT
  5
B02
330
1A
100
AcDbEntity
  8
ZUWAKU
100
AcDbText
 10
506.6766257191904
 20
24.05535588886436
 30
0.0
 40
4.0
  1
用紙
 41
0.9
  7
ｽﾀｲﾙ1
100
AcDbText
  0
LINE
  5
B03
330
1A
100
AcDbEntity
  8
ZUWAKU
100
AcDbLine
 10
648.6172037090441
 20
29.99999935047878
 30
0.0
 11
648.6172037090446
 21
0.7999993504788563
 31
0.0
  0
LINE
  5
B04
330
1A
100
AcDbEntity
  8
ZUWAKU
100
AcDbLine
 10
648.8172037090443
 20
29.99999935047878
 30
0.0
 11
648.8172037090447
 21
0.7999993504788563
 31
0.0
  0
LINE
  5
B05
330
1A
100
AcDbEntity
  8
ZUWAKU
100
AcDbLine
 10
648.4172037090445
 20
29.99999935047878
 30
0.0
 11
648.4172037090445
 21
0.7999993504788563
 31
0.0
  0
LINE
  5
B06
330
1A
100
AcDbEntity
  8
ZUWAKU
100
AcDbLine
 10
552.7269569649523
 20
29.99999935047878
 30
0.0
 11
552.7269569649523
 21
0.7999993504788563
 31
0.0
  0
LINE
  5
B07
330
1A
100
AcDbEntity
  8
ZUWAKU
100
AcDbLine
 10
552.9269569649523
 20
29.99999935047878
 30
0.0
 11
552.9269569649524
 21
0.7999993504788563
 31
0.0
  0
LINE
  5
B08
330
1A
100
AcDbEntity
  8
ZUWAKU
100
AcDbLine
 10
552.5269569649524
 20
29.99999935047878
 30
0.0
 11
552.5269569649524
 21
0.7999993504788563
 31
0.0
  0
TEXT
  5
B09
330
1A
100
AcDbEntity
  8
ZUWAKU
100
AcDbText
 10
650.2946487312539
 20
24.05535588886436
 30
0.0
 40
4.0
  1
DATE
 41
0.9
  7
ｽﾀｲﾙ1
100
AcDbText
  0
LINE
  5
B0A
330
1A
100
AcDbEntity
  8
ZUWAKU
100
AcDbLine
 10
697.2490117473812
 20
29.99999935047878
 30
0.0
 11
697.2490117473812
 21
0.7999993504788563
 31
0.0
  0
LINE
  5
B0B
330
1A
100
AcDbEntity
  8
ZUWAKU
100
AcDbLine
 10
697.4490117473813
 20
29.99999935047878
 30
0.0
 11
697.4490117473813
 21
0.7999993504788563
 31
0.0
  0
LINE
  5
B0C
330
1A
100
AcDbEntity
  8
ZUWAKU
100
AcDbLine
 10
697.6490117473811
 20
29.99999935047878
 30
0.0
 11
697.6490117473813
 21
0.7999993504788563
 31
0.0
  0
LINE
  5
B0D
330
1A
100
AcDbEntity
  8
ZUWAKU
100
AcDbLine
 10
697.8490117473812
 20
29.99999935047878
 30
0.0
 11
697.8490117473812
 21
0.7999993504788563
 31
0.0
  0
TEXT
  5
B0E
330
1A
100
AcDbEntity
  8
ZUWAKU
100
AcDbText
 10
708.5280853910837
 20
17.55383868616558
 30
0.0
 40
6.0
  1
積水化学工業株式会社
 41
0.9
  7
ｽﾀｲﾙ1
100
AcDbText
  0
TEXT
  5
B0F
330
1A
100
AcDbEntity
  8
ZUWAKU
100
AcDbText
 10
708.5280853910837
 20
6.648839664332853
 30
0.0
 40
6.0
  1
建材事業部
 41
0.9
  7
ｽﾀｲﾙ1
100
AcDbText
  0
LINE
  5
B18
330
1A
100
AcDbEntity
  8
SUNPOU
  6
CONTINUOUS
 62
     4
100
AcDbLine
 10
568.2201424208243
 20
338.0800982571384
 30
0.0
 11
581.9514400360471
 21
356.8610352226378
 31
0.0
1001
ACAD
1000
DSTYLE
1002
{
1070
     6
1000
OPEN
1070
    41
1040
7.0
1070
    42
1040
6.0
1070
    43
1040
14.0
1070
    44
1040
3.0
1070
    73
1070
     0
1070
    74
1070
     0
1070
    77
1070
     3
1070
   140
1040
6.0
1070
   141
1040
150.0
1070
   147
1040
2.0
1070
   172
1070
     1
1070
   173
1070
     1
1070
   176
1070
     4
1070
   177
1070
     4
1070
   178
1070
     4
1070
   271
1070
     0
1070
   272
1070
     2
1070
   341
1005
6D
1070
   343
1005
6D
1070
   344
1005
6D
1002
}
  0
LINE
  5
B19
330
1A
100
AcDbEntity
  8
SUNPOU
  6
CONTINUOUS
 62
     4
100
AcDbLine
 10
581.9514400360471
 20
356.8610352226378
 30
0.0
 11
583.5868477364006
 21
356.8610352226378
 31
0.0
1001
ACAD
1000
DSTYLE
1002
{
1070
     6
1000
OPEN
1070
    41
1040
7.0
1070
    42
1040
6.0
1070
    43
1040
14.0
1070
    44
1040
3.0
1070
    73
1070
     0
1070
    74
1070
     0
1070
    77
1070
     3
1070
   140
1040
6.0
1070
   141
1040
150.0
1070
   147
1040
2.0
1070
   172
1070
     1
1070
   173
1070
     1
1070
   176
1070
     4
1070
   177
1070
     4
1070
   178
1070
     4
1070
   271
1070
     0
1070
   272
1070
     2
1070
   341
1005
6D
1070
   343
1005
6D
1070
   344
1005
6D
1002
}
  0
LINE
  5
B1A
330
1A
100
AcDbEntity
  8
SUNPOU
  6
CONTINUOUS
 62
     4
100
AcDbLine
 10
583.5868477364006
 20
356.8610352226378
 30
0.0
 11
616.7868477364006
 21
356.8610352226378
 31
0.0
1001
ACAD
1000
DSTYLE
1002
{
1070
     6
1000
OPEN
1070
    41
1040
7.0
1070
    42
1040
6.0
1070
    43
1040
14.0
1070
    44
1040
3.0
1070
    73
1070
     0
1070
    74
1070
     0
1070
    77
1070
     3
1070
   140
1040
6.0
1070
   141
1040
150.0
1070
   147
1040
2.0
1070
   172
1070
     1
1070
   173
1070
     1
1070
   176
1070
     4
1070
   177
1070
     4
1070
   178
1070
     4
1070
   271
1070
     0
1070
   272
1070
     2
1070
   341
1005
6D
1070
   343
1005
6D
1070
   344
1005
6D
1002
}
  0
LINE
  5
B1B
330
1A
100
AcDbEntity
  8
SUNPOU
  6
CONTINUOUS
 62
     4
100
AcDbLine
 10
569.1619370571503
 20
337.3915243873911
 30
0.0
 11
564.0886992023409
 21
332.4293304391824
 31
0.0
  0
LINE
  5
B1C
330
1A
100
AcDbEntity
  8
SUNPOU
  6
CONTINUOUS
 62
     4
100
AcDbLine
 10
564.0886992023409
 20
332.4293304391824
 30
0.0
 11
567.2783477844983
 21
338.7686721268857
 31
0.0
  0
LINE
  5
B1D
330
1A
100
AcDbEntity
  8
SUNPOU
  6
CONTINUOUS
 62
     4
100
AcDbLine
 10
564.0886992023409
 20
332.4293304391824
 30
0.0
 11
568.2201424208243
 21
338.0800982571384
 31
0.0
  0
VIEWPORT
  5
22
330
17
100
AcDbEntity
 67
     1
  8
0
100
AcDbViewport
 10
313.6808219178082
 20
148.5
 30
0.0
 40
627.3616438356165
 41
297.0
 68
     2
 69
     1
1001
ACAD
1000
MVIEW
1002
{
1070
    16
1010
0.0
1020
0.0
1030
0.0
1010
0.0
1020
0.0
1030
1.0
1040
0.0
1040
297.0
1040
313.6808219178082
1040
148.5
1040
50.0
1040
0.0
1040
0.0
1070
     0
1070
   100
1070
     1
1070
     0
1070
     0
1070
     0
1070
     0
1070
     0
1040
0.0
1040
0.0
1040
0.0
1040
1.0
1040
1.0
1040
10.0
1040
10.0
1070
     0
1002
{
1002
}
1002
}
  0
VIEWPORT
  5
64
330
17
100
AcDbEntity
 67
     1
  8
VIEWPORT
100
AcDbViewport
 10
210.0
 20
148.5
 30
0.0
 40
420.0
 41
297.0
 68
     1
 69
     2
1001
ACAD
1000
MVIEW
1002
{
1070
    16
1010
0.0
1020
0.0
1030
0.0
1010
0.0
1020
0.0
1030
1.0
1040
0.0
1040
605.8799999999998
1040
420.0
1040
297.0
1040
50.0
1040
0.0
1040
0.0
1070
     0
1070
   100
1070
     1
1070
     0
1070
     0
1070
     0
1070
     0
1070
     0
1040
0.0
1040
0.0
1040
0.0
1040
10.0
1040
10.0
1040
0.0
1040
0.0
1070
     0
1002
{
1002
}
1002
}
  0
ENDSEC
  0
SECTION
  2
OBJECTS
  0
DICTIONARY
  5
C
330
0
100
AcDbDictionary
  3
ACAD_GROUP
350
D
  3
ACAD_LAYOUT
350
8D5
  3
ACAD_MLINESTYLE
350
E
  3
ACAD_PLOTSETTINGS
350
8D6
  3
ACAD_PLOTSTYLENAME
350
8D3
  3
ACDBHEADERROUNDTRIPXREC
350
B1F
  0
DICTIONARY
  5
904
330
1A
100
AcDbDictionary
280
     1
  3
ACAD_LAYOUTSELFREF
360
B41
  0
DICTIONARY
  5
902
330
17
100
AcDbDictionary
280
     1
  3
ACAD_LAYOUTSELFREF
360
B40
  0
DICTIONARY
  5
D
102
{ACAD_REACTORS
330
C
102
}
330
C
100
AcDbDictionary
  0
DICTIONARY
  5
8D5
102
{ACAD_REACTORS
330
C
102
}
330
C
100
AcDbDictionary
  0
DICTIONARY
  5
E
102
{ACAD_REACTORS
330
C
102
}
330
C
100
AcDbDictionary
  3
STANDARD
350
13
  0
DICTIONARY
  5
8D6
102
{ACAD_REACTORS
330
C
102
}
330
C
100
AcDbDictionary
  0
ACDBDICTIONARYWDFLT
  5
8D3
102
{ACAD_REACTORS
330
C
102
}
330
C
100
AcDbDictionary
281
     1
  3
Normal
350
8D4
100
AcDbDictionaryWithDefault
340
8D4
1001
ACAD
1000
TREAT_AS_HARD
1070
     0
  0
DICTIONARY
  5
B1F
102
{ACAD_REACTORS
330
C
102
}
330
C
100
AcDbDictionary
  3
TSTACKALIGN
350
B20
  3
TSTACKSIZE
350
B21
  3
HYPERLINKBASE
350
B22
  3
STYLESHEET
350
B23
  3
LAYOUTDICT
350
B24
  3
PLOTSETDICT
350
B25
  3
PLOTSTYLNAMDICT
350
B26
  3
LWETCUNION
350
B27
  3
INSUNITS
350
B28
  3
CEPSNTYPE
350
B29
  3
FINGERPRINTGUID
350
B2A
  3
VERSIONGUID
350
B2B
  3
PSVPSCALE
350
B2C
  3
DIMSTYLEDATA
350
B2D
  3
PUCSORTHOREF
350
B2E
  3
PUCSORTHOVIEW
350
B2F
  3
PUCSBASE
350
B30
  3
PUCSORGTOP
350
B31
  3
PUCSORGBOTTOM
350
B32
  3
PUCSORGLEFT
350
B33
  3
PUCSORGRIGHT
350
B34
  3
PUCSORGFRONT
350
B35
  3
PUCSORGBACK
350
B36
  3
UCSORTHOREF
350
B37
  3
UCSORTHOVIEW
350
B38
  3
UCSBASE
350
B39
  3
UCSORGTOP
350
B3A
  3
UCSORGBOTTOM
350
B3B
  3
UCSORGLEFT
350
B3C
  3
UCSORGRIGHT
350
B3D
  3
UCSORGFRONT
350
B3E
  3
UCSORGBACK
350
B3F
  0
XRECORD
  5
B41
102
{ACAD_REACTORS
330
904
102
}
330
904
100
AcDbXrecord
340
1A
  0
XRECORD
  5
B40
102
{ACAD_REACTORS
330
902
102
}
330
902
100
AcDbXrecord
340
17
  0
MLINESTYLE
  5
13
102
{ACAD_REACTORS
330
E
102
}
330
E
100
AcDbMlineStyle
  2
STANDARD
 70
     0
  3

 62
     0
 51
90.0
 52
90.0
 71
     2
 49
0.5
 62
   256
  6
BYLAYER
 49
-0.5
 62
   256
  6
BYLAYER
  0
ACDBPLACEHOLDER
  5
8D4
102
{ACAD_REACTORS
330
8D3
102
}
330
8D3
100
AcDbPlaceHolder
280
     0
  0
XRECORD
  5
B20
102
{ACAD_REACTORS
330
B1F
102
}
330
B1F
100
AcDbXrecord
 90
        1
  0
XRECORD
  5
B21
102
{ACAD_REACTORS
330
B1F
102
}
330
B1F
100
AcDbXrecord
 90
       70
  0
XRECORD
  5
B22
102
{ACAD_REACTORS
330
B1F
102
}
330
B1F
100
AcDbXrecord
  1

  0
XRECORD
  5
B23
102
{ACAD_REACTORS
330
B1F
102
}
330
B1F
100
AcDbXrecord
  1
print.ctb
  0
XRECORD
  5
B24
102
{ACAD_REACTORS
330
B1F
102
}
330
B1F
100
AcDbXrecord
340
8D5
  0
XRECORD
  5
B25
102
{ACAD_REACTORS
330
B1F
102
}
330
B1F
100
AcDbXrecord
340
8D6
  0
XRECORD
  5
B26
102
{ACAD_REACTORS
330
B1F
102
}
330
B1F
100
AcDbXrecord
340
8D3
  0
XRECORD
  5
B27
102
{ACAD_REACTORS
330
B1F
102
}
330
B1F
100
AcDbXrecord
 90
    14877
  0
XRECORD
  5
B28
102
{ACAD_REACTORS
330
B1F
102
}
330
B1F
100
AcDbXrecord
 90
        0
  0
XRECORD
  5
B29
102
{ACAD_REACTORS
330
B1F
102
}
330
B1F
100
AcDbXrecord
 90
        0
  0
XRECORD
  5
B2A
102
{ACAD_REACTORS
330
B1F
102
}
330
B1F
100
AcDbXrecord
  1
{FDC3C17C-9C75-4DE7-A4B2-4502E68ECA4A}
  0
XRECORD
  5
B2B
102
{ACAD_REACTORS
330
B1F
102
}
330
B1F
100
AcDbXrecord
  1
{1CEFED3F-3268-47B3-B5A0-6844ACEE9AB7}
  0
XRECORD
  5
B2C
102
{ACAD_REACTORS
330
B1F
102
}
330
B1F
100
AcDbXrecord
 40
0.0
  0
XRECORD
  5
B2D
102
{ACAD_REACTORS
330
B1F
102
}
330
B1F
100
AcDbXrecord
1000
DSTYLE
1002
{
1070
   341
340
6D
1070
   343
340
6D
1070
   344
340
6D
1002
}
  0
XRECORD
  5
B2E
102
{ACAD_REACTORS
330
B1F
102
}
330
B1F
100
AcDbXrecord
340
0
  0
XRECORD
  5
B2F
102
{ACAD_REACTORS
330
B1F
102
}
330
B1F
100
AcDbXrecord
 70
     0
  0
XRECORD
  5
B30
102
{ACAD_REACTORS
330
B1F
102
}
330
B1F
100
AcDbXrecord
340
0
  0
XRECORD
  5
B31
102
{ACAD_REACTORS
330
B1F
102
}
330
B1F
100
AcDbXrecord
 10
0.0
 20
0.0
 30
0.0
  0
XRECORD
  5
B32
102
{ACAD_REACTORS
330
B1F
102
}
330
B1F
100
AcDbXrecord
 10
0.0
 20
0.0
 30
0.0
  0
XRECORD
  5
B33
102
{ACAD_REACTORS
330
B1F
102
}
330
B1F
100
AcDbXrecord
 10
0.0
 20
0.0
 30
0.0
  0
XRECORD
  5
B34
102
{ACAD_REACTORS
330
B1F
102
}
330
B1F
100
AcDbXrecord
 10
0.0
 20
0.0
 30
0.0
  0
XRECORD
  5
B35
102
{ACAD_REACTORS
330
B1F
102
}
330
B1F
100
AcDbXrecord
 10
0.0
 20
0.0
 30
0.0
  0
XRECORD
  5
B36
102
{ACAD_REACTORS
330
B1F
102
}
330
B1F
100
AcDbXrecord
 10
0.0
 20
0.0
 30
0.0
  0
XRECORD
  5
B37
102
{ACAD_REACTORS
330
B1F
102
}
330
B1F
100
AcDbXrecord
340
0
  0
XRECORD
  5
B38
102
{ACAD_REACTORS
330
B1F
102
}
330
B1F
100
AcDbXrecord
 70
     0
  0
XRECORD
  5
B39
102
{ACAD_REACTORS
330
B1F
102
}
330
B1F
100
AcDbXrecord
340
0
  0
XRECORD
  5
B3A
102
{ACAD_REACTORS
330
B1F
102
}
330
B1F
100
AcDbXrecord
 10
0.0
 20
0.0
 30
0.0
  0
XRECORD
  5
B3B
102
{ACAD_REACTORS
330
B1F
102
}
330
B1F
100
AcDbXrecord
 10
0.0
 20
0.0
 30
0.0
  0
XRECORD
  5
B3C
102
{ACAD_REACTORS
330
B1F
102
}
330
B1F
100
AcDbXrecord
 10
0.0
 20
0.0
 30
0.0
  0
XRECORD
  5
B3D
102
{ACAD_REACTORS
330
B1F
102
}
330
B1F
100
AcDbXrecord
 10
0.0
 20
0.0
 30
0.0
  0
XRECORD
  5
B3E
102
{ACAD_REACTORS
330
B1F
102
}
330
B1F
100
AcDbXrecord
 10
0.0
 20
0.0
 30
0.0
  0
XRECORD
  5
B3F
102
{ACAD_REACTORS
330
B1F
102
}
330
B1F
100
AcDbXrecord
 10
0.0
 20
0.0
 30
0.0
  0
ENDSEC
  0
EOF
