  0
SECTION
  2
HEADER
  9
$ACADVER
  1
AC1014
  9
$ACADMAINTVER
 70
     9
  9
$DWGCODEPAGE
  3
ANSI_932
  9
$INSBASE
 10
0.0
 20
0.0
 30
0.0
  9
$EXTMIN
 10
-0.0256328098773793
 20
-0.0181260584133725
 30
-0.0015258207003583
  9
$EXTMAX
 10
797.6000995626677
 20
551.6452344880035
 30
0.0000000349246037
  9
$LIMMIN
 10
0.0
 20
0.0
  9
$LIMMAX
 10
840.0
 20
594.0
  9
$ORTHOMODE
 70
     0
  9
$REGENMODE
 70
     1
  9
$FILLMODE
 70
     1
  9
$QTEXTMODE
 70
     0
  9
$MIRRTEXT
 70
     1
  9
$DRAGMODE
 70
     2
  9
$LTSCALE
 40
2.0
  9
$OSMODE
 70
    35
  9
$ATTMODE
 70
     1
  9
$TEXTSIZE
 40
5.0
  9
$TRACEWID
 40
1.0
  9
$TEXTSTYLE
  7
STANDARD
  9
$CLAYER
  8
CENTER_L
  9
$CELTYPE
  6
BYLAYER
  9
$CECOLOR
 62
   256
  9
$CELTSCALE
 40
1.0
  9
$DELOBJ
 70
     1
  9
$DISPSILH
 70
     0
  9
$DIMSCALE
 40
1.0
  9
$DIMASZ
 40
7.0
  9
$DIMEXO
 40
6.0
  9
$DIMDLI
 40
14.0
  9
$DIMRND
 40
0.0
  9
$DIMDLE
 40
0.0
  9
$DIMEXE
 40
3.0
  9
$DIMTP
 40
0.0
  9
$DIMTM
 40
0.0
  9
$DIMTXT
 40
6.0
  9
$DIMCEN
 40
150.0
  9
$DIMTSZ
 40
0.0
  9
$DIMTOL
 70
     0
  9
$DIMLIM
 70
     0
  9
$DIMTIH
 70
     0
  9
$DIMTOH
 70
     0
  9
$DIMSE1
 70
     0
  9
$DIMSE2
 70
     0
  9
$DIMTAD
 70
     3
  9
$DIMZIN
 70
     0
  9
$DIMBLK
  1

  9
$DIMASO
 70
     1
  9
$DIMSHO
 70
     1
  9
$DIMPOST
  1

  9
$DIMAPOST
  1

  9
$DIMALT
 70
     0
  9
$DIMALTD
 70
     2
  9
$DIMALTF
 40
25.4
  9
$DIMLFAC
 40
1.0
  9
$DIMTOFL
 70
     1
  9
$DIMTVP
 40
0.0
  9
$DIMTIX
 70
     0
  9
$DIMSOXD
 70
     0
  9
$DIMSAH
 70
     1
  9
$DIMBLK1
  1
OPEN
  9
$DIMBLK2
  1
OPEN
  9
$DIMSTYLE
  2
STANDARD
  9
$DIMCLRD
 70
   256
  9
$DIMCLRE
 70
   256
  9
$DIMCLRT
 70
   256
  9
$DIMTFAC
 40
1.0
  9
$DIMGAP
 40
2.0
  9
$DIMJUST
 70
     0
  9
$DIMSD1
 70
     0
  9
$DIMSD2
 70
     0
  9
$DIMTOLJ
 70
     1
  9
$DIMTZIN
 70
     0
  9
$DIMALTZ
 70
     0
  9
$DIMALTTZ
 70
     0
  9
$DIMFIT
 70
     3
  9
$DIMUPT
 70
     0
  9
$DIMUNIT
 70
     2
  9
$DIMDEC
 70
     0
  9
$DIMTDEC
 70
     0
  9
$DIMALTU
 70
     2
  9
$DIMALTTD
 70
     2
  9
$DIMTXSTY
  7
STANDARD
  9
$DIMAUNIT
 70
     0
  9
$LUNITS
 70
     2
  9
$LUPREC
 70
     4
  9
$SKETCHINC
 40
1.0
  9
$FILLETRAD
 40
20.0
  9
$AUNITS
 70
     0
  9
$AUPREC
 70
     0
  9
$MENU
  1
.
  9
$ELEVATION
 40
0.0
  9
$PELEVATION
 40
0.0
  9
$THICKNESS
 40
0.0
  9
$LIMCHECK
 70
     0
  9
$BLIPMODE
 70
     0
  9
$CHAMFERA
 40
20.0
  9
$CHAMFERB
 40
20.0
  9
$CHAMFERC
 40
40.0
  9
$CHAMFERD
 40
0.0
  9
$SKPOLY
 70
     0
  9
$TDCREATE
 40
2451190.460833333
  9
$TDUPDATE
 40
2453802.476968495
  9
$TDINDWG
 40
0.0082921181
  9
$TDUSRTIMER
 40
0.0082921181
  9
$USRTIMER
 70
     1
  9
$ANGBASE
 50
0.0
  9
$ANGDIR
 70
     0
  9
$PDMODE
 70
     0
  9
$PDSIZE
 40
0.0
  9
$PLINEWID
 40
0.0
  9
$COORDS
 70
     1
  9
$SPLFRAME
 70
     0
  9
$SPLINETYPE
 70
     6
  9
$SPLINESEGS
 70
     8
  9
$ATTDIA
 70
     0
  9
$ATTREQ
 70
     1
  9
$HANDLING
 70
 10241
  9
$HANDSEED
  5
929
  9
$SURFTAB1
 70
     6
  9
$SURFTAB2
 70
     6
  9
$SURFTYPE
 70
     6
  9
$SURFU
 70
     6
  9
$SURFV
 70
     6
  9
$UCSNAME
  2

  9
$UCSORG
 10
0.0
 20
0.0
 30
0.0
  9
$UCSXDIR
 10
1.0
 20
0.0
 30
0.0
  9
$UCSYDIR
 10
0.0
 20
1.0
 30
0.0
  9
$PUCSNAME
  2

  9
$PUCSORG
 10
0.0
 20
0.0
 30
0.0
  9
$PUCSXDIR
 10
1.0
 20
0.0
 30
0.0
  9
$PUCSYDIR
 10
0.0
 20
1.0
 30
0.0
  9
$USERI1
 70
     0
  9
$USERI2
 70
     0
  9
$USERI3
 70
     0
  9
$USERI4
 70
     0
  9
$USERI5
 70
     0
  9
$USERR1
 40
0.0
  9
$USERR2
 40
0.0
  9
$USERR3
 40
0.0
  9
$USERR4
 40
0.0
  9
$USERR5
 40
0.0
  9
$WORLDVIEW
 70
     1
  9
$SHADEDGE
 70
     3
  9
$SHADEDIF
 70
    70
  9
$TILEMODE
 70
     1
  9
$MAXACTVP
 70
    16
  9
$PINSBASE
 10
0.0
 20
0.0
 30
0.0
  9
$PLIMCHECK
 70
     0
  9
$PEXTMIN
 10
0.0
 20
0.0
 30
0.0
  9
$PEXTMAX
 10
420.0
 20
297.0
 30
0.0
  9
$PLIMMIN
 10
0.0
 20
0.0
  9
$PLIMMAX
 10
420.0
 20
297.0
  9
$UNITMODE
 70
     0
  9
$VISRETAIN
 70
     0
  9
$PLINEGEN
 70
     0
  9
$PSLTSCALE
 70
     1
  9
$TREEDEPTH
 70
  3020
  9
$PICKSTYLE
 70
     1
  9
$CMLSTYLE
  2
STANDARD
  9
$CMLJUST
 70
     0
  9
$CMLSCALE
 40
1.0
  9
$PROXYGRAPHICS
 70
     1
  9
$MEASUREMENT
 70
     1
  0
ENDSEC
  0
SECTION
  2
CLASSES
  0
CLASS
  1
ACDBDICTIONARYWDFLT
  2
AcDbDictionaryWithDefault
  3
AutoCAD 2000
 90
        0
280
     0
281
     0
  0
CLASS
  1
ACDBPLACEHOLDER
  2
AcDbPlaceHolder
  3
AutoCAD 2000
 90
        0
280
     0
281
     0
  0
CLASS
  1
LAYOUT
  2
AcDbLayout
  3
AutoCAD 2000
 90
        0
280
     0
281
     0
  0
CLASS
  1
LONG_TRANSACTION
  2
AcDbLongTransaction
  3
AutoCAD 2000
 90
        0
280
     0
281
     0
  0
CLASS
  1
LWPOLYLINE
  2
AcDbPolyline
  3
AutoCAD 2000
 90
        0
280
     0
281
     1
  0
CLASS
  1
HATCH
  2
AcDbHatch
  3
AutoCAD 2000
 90
        0
280
     0
281
     1
  0
CLASS
  1
XRECORD
  2
AcDbXrecord
  3
AutoCAD 2000
 90
        0
280
     0
281
     0
  0
CLASS
  1
LONG_TRANSACTION
  2
AcDbLongTransaction
  3
AutoCAD 2000
 90
        0
280
     0
281
     0
  0
CLASS
  1
LWPOLYLINE
  2
AcDbPolyline
  3
AutoCAD 2000
 90
        0
280
     0
281
     1
  0
CLASS
  1
HATCH
  2
AcDbHatch
  3
AutoCAD 2000
 90
        0
280
     0
281
     1
  0
CLASS
  1
XRECORD
  2
AcDbXrecord
  3
AutoCAD 2000
 90
        0
280
     0
281
     0
  0
CLASS
  1
LONG_TRANSACTION
  2
AcDbLongTransaction
  3
AutoCAD 2000
 90
        0
280
     0
281
     0
  0
CLASS
  1
LWPOLYLINE
  2
AcDbPolyline
  3
AutoCAD 2000
 90
        0
280
     0
281
     1
  0
CLASS
  1
HATCH
  2
AcDbHatch
  3
AutoCAD 2000
 90
        0
280
     0
281
     1
  0
CLASS
  1
XRECORD
  2
AcDbXrecord
  3
AutoCAD 2000
 90
        0
280
     0
281
     0
  0
ENDSEC
  0
SECTION
  2
TABLES
  0
TABLE
  2
VPORT
  5
8
330
0
100
AcDbSymbolTable
 70
     2
  0
VPORT
  5
905
330
8
100
AcDbSymbolTableRecord
100
AcDbViewportTableRecord
  2
*ACTIVE
 70
     0
 10
0.0
 20
0.0
 11
1.0
 21
1.0
 12
400.0933767887024
 22
266.8844319844429
 13
0.0
 23
0.0
 14
5.0
 24
5.0
 15
0.0
 25
0.0
 16
0.0
 26
0.0
 36
1.0
 17
0.0
 27
0.0
 37
0.0
 40
643.5711540957782
 41
1.795454545454545
 42
50.0
 43
0.0
 44
0.0
 50
0.0
 51
0.0
 71
     0
 72
   100
 73
     1
 74
     0
 75
     0
 76
     0
 77
     0
 78
     0
  0
ENDTAB
  0
TABLE
  2
LTYPE
  5
5
330
0
100
AcDbSymbolTable
 70
     3
  0
LTYPE
  5
14
330
5
100
AcDbSymbolTableRecord
100
AcDbLinetypeTableRecord
  2
BYBLOCK
 70
     0
  3

 72
    65
 73
     0
 40
0.0
  0
LTYPE
  5
15
330
5
100
AcDbSymbolTableRecord
100
AcDbLinetypeTableRecord
  2
BYLAYER
 70
     0
  3

 72
    65
 73
     0
 40
0.0
  0
LTYPE
  5
16
330
5
100
AcDbSymbolTableRecord
100
AcDbLinetypeTableRecord
  2
CONTINUOUS
 70
     0
  3
Solid line
 72
    65
 73
     0
 40
0.0
  0
LTYPE
  5
115
330
5
100
AcDbSymbolTableRecord
100
AcDbLinetypeTableRecord
  2
PHANTOM
 70
     0
  3
______  __  __  ______  __  __  ______  __  __ 
 72
    65
 73
     6
 40
2.5
 49
1.25
 74
     0
 49
-0.25
 74
     0
 49
0.25
 74
     0
 49
-0.25
 74
     0
 49
0.25
 74
     0
 49
-0.25
 74
     0
  0
LTYPE
  5
135
330
5
100
AcDbSymbolTableRecord
100
AcDbLinetypeTableRecord
  2
CENTER
 70
     0
  3
____ _ ____ _ ____ _ ____ _ ____ _ ____ _ ____ 
 72
    65
 73
     4
 40
2.0
 49
1.25
 74
     0
 49
-0.25
 74
     0
 49
0.25
 74
     0
 49
-0.25
 74
     0
  0
ENDTAB
  0
TABLE
  2
LAYER
  5
2
330
0
100
AcDbSymbolTable
 70
     9
  0
LAYER
  5
F
330
2
100
AcDbSymbolTableRecord
100
AcDbLayerTableRecord
  2
0
 70
     0
 62
     7
  6
CONTINUOUS
  0
LAYER
  5
62
330
2
100
AcDbSymbolTableRecord
100
AcDbLayerTableRecord
  2
VIEWPORT
 70
     0
 62
     7
  6
CONTINUOUS
  0
LAYER
  5
65
330
2
100
AcDbSymbolTableRecord
100
AcDbLayerTableRecord
  2
ZUWAKU
 70
     0
 62
     7
  6
CONTINUOUS
  0
LAYER
  5
1D1
330
2
100
AcDbSymbolTableRecord
100
AcDbLayerTableRecord
  2
SEIHIN
 70
     0
 62
     3
  6
CONTINUOUS
  0
LAYER
  5
1D2
330
2
100
AcDbSymbolTableRecord
100
AcDbLayerTableRecord
  2
SUNPOU
 70
     0
 62
     4
  6
CONTINUOUS
  0
LAYER
  5
1D3
330
2
100
AcDbSymbolTableRecord
100
AcDbLayerTableRecord
  2
CENTER_L
 70
     0
 62
     1
  6
CENTER
  0
LAYER
  5
1D4
330
2
100
AcDbSymbolTableRecord
100
AcDbLayerTableRecord
  2
NOKITOI
 70
     0
 62
     8
  6
PHANTOM
  0
LAYER
  5
1D5
330
2
100
AcDbSymbolTableRecord
100
AcDbLayerTableRecord
  2
DEFPOINTS
 70
     0
 62
     7
  6
CONTINUOUS
  0
LAYER
  5
78E
330
2
100
AcDbSymbolTableRecord
100
AcDbLayerTableRecord
  2
MOJI
 70
     0
 62
     2
  6
CONTINUOUS
  0
ENDTAB
  0
TABLE
  2
STYLE
  5
3
330
0
100
AcDbSymbolTable
 70
     2
  0
STYLE
  5
10
330
3
100
AcDbSymbolTableRecord
100
AcDbTextStyleTableRecord
  2
STANDARD
 70
     0
 40
0.0
 41
1.0
 50
0.0
 71
     0
 42
5.0
  3
TXT
  4
bigfont.shx
  0
STYLE
  5
78F
330
3
100
AcDbSymbolTableRecord
100
AcDbTextStyleTableRecord
  2
ｽﾀｲﾙ1
 70
     0
 40
0.0
 41
1.0
 50
0.0
 71
     0
 42
2.5
  3
MS PGothic.ttf
  4

1001
ACAD
1000
MS PGothic
1071
    32818
  0
ENDTAB
  0
TABLE
  2
VIEW
  5
6
330
0
100
AcDbSymbolTable
 70
     0
  0
ENDTAB
  0
TABLE
  2
UCS
  5
7
330
0
100
AcDbSymbolTable
 70
     0
  0
ENDTAB
  0
TABLE
  2
APPID
  5
9
330
0
100
AcDbSymbolTable
 70
     1
  0
APPID
  5
11
330
9
100
AcDbSymbolTableRecord
100
AcDbRegAppTableRecord
  2
ACAD
 70
     0
  0
ENDTAB
  0
TABLE
  2
DIMSTYLE
  5
A
330
0
100
AcDbSymbolTable
 70
     1
  0
DIMSTYLE
105
1D
102
{ACAD_REACTORS
330
38D
330
38E
330
446
330
447
330
479
330
4F8
330
4F9
330
4FA
330
4FB
330
675
330
6C0
102
}
330
A
100
AcDbSymbolTableRecord
100
AcDbDimStyleTableRecord
  2
STANDARD
 70
     0
  3

  4

  5

  6

  7

 40
1.0
 41
0.18
 42
0.0625
 43
0.38
 44
0.18
 45
0.0
 46
0.0
 47
0.0
 48
0.0
140
0.18
141
0.09
142
0.0
143
25.4
144
1.0
145
0.0
146
1.0
147
0.09
 71
     0
 72
     0
 73
     1
 74
     1
 75
     0
 76
     0
 77
     0
 78
     0
170
     0
171
     2
172
     0
173
     0
174
     0
175
     0
176
     0
177
     0
178
     0
270
     2
271
     4
272
     4
273
     2
274
     2
340
10
275
     0
280
     0
281
     0
282
     0
283
     1
284
     0
285
     0
286
     0
287
     3
288
     0
  0
ENDTAB
  0
TABLE
  2
BLOCK_RECORD
  5
1
330
0
100
AcDbSymbolTable
 70
    12
  0
BLOCK_RECORD
  5
1A
102
{ACAD_XDICTIONARY
360
74C
102
}
330
1
100
AcDbSymbolTableRecord
100
AcDbBlockTableRecord
  2
*MODEL_SPACE
  0
BLOCK_RECORD
  5
17
102
{ACAD_XDICTIONARY
360
74A
102
}
330
1
100
AcDbSymbolTableRecord
100
AcDbBlockTableRecord
  2
*PAPER_SPACE
  0
BLOCK_RECORD
  5
6D
330
1
100
AcDbSymbolTableRecord
100
AcDbBlockTableRecord
  2
_OPEN
  0
BLOCK_RECORD
  5
53A
330
1
100
AcDbSymbolTableRecord
100
AcDbBlockTableRecord
  2
*D1
  0
BLOCK_RECORD
  5
546
330
1
100
AcDbSymbolTableRecord
100
AcDbBlockTableRecord
  2
*D2
  0
BLOCK_RECORD
  5
552
330
1
100
AcDbSymbolTableRecord
100
AcDbBlockTableRecord
  2
*D3
  0
BLOCK_RECORD
  5
55E
330
1
100
AcDbSymbolTableRecord
100
AcDbBlockTableRecord
  2
*D4
  0
BLOCK_RECORD
  5
56C
330
1
100
AcDbSymbolTableRecord
100
AcDbBlockTableRecord
  2
*D5
  0
BLOCK_RECORD
  5
594
330
1
100
AcDbSymbolTableRecord
100
AcDbBlockTableRecord
  2
*D6
  0
BLOCK_RECORD
  5
5A2
330
1
100
AcDbSymbolTableRecord
100
AcDbBlockTableRecord
  2
*D7
  0
BLOCK_RECORD
  5
5B0
330
1
100
AcDbSymbolTableRecord
100
AcDbBlockTableRecord
  2
*D8
  0
BLOCK_RECORD
  5
5BC
330
1
100
AcDbSymbolTableRecord
100
AcDbBlockTableRecord
  2
*D9
  0
BLOCK_RECORD
  5
667
330
1
100
AcDbSymbolTableRecord
100
AcDbBlockTableRecord
  2
*D10
  0
BLOCK_RECORD
  5
6B2
330
1
100
AcDbSymbolTableRecord
100
AcDbBlockTableRecord
  2
*D11
  0
ENDTAB
  0
ENDSEC
  0
SECTION
  2
BLOCKS
  0
BLOCK
  5
1B
330
1A
100
AcDbEntity
  8
0
100
AcDbBlockBegin
  2
*MODEL_SPACE
 70
     0
 10
0.0
 20
0.0
 30
0.0
  3
*MODEL_SPACE
  1

  0
ENDBLK
  5
1C
330
1A
100
AcDbEntity
  8
0
100
AcDbBlockEnd
  0
BLOCK
  5
18
330
17
100
AcDbEntity
 67
     1
  8
0
100
AcDbBlockBegin
  2
*PAPER_SPACE
 70
     0
 10
0.0
 20
0.0
 30
0.0
  3
*PAPER_SPACE
  1

  0
ENDBLK
  5
19
330
17
100
AcDbEntity
 67
     1
  8
0
100
AcDbBlockEnd
  0
BLOCK
  5
6E
330
6D
100
AcDbEntity
  8
0
100
AcDbBlockBegin
  2
_OPEN
 70
     0
 10
0.0
 20
0.0
 30
0.0
  3
_OPEN
  1

  0
LINE
  5
6F
330
6D
100
AcDbEntity
  8
0
  6
BYBLOCK
 62
     0
100
AcDbLine
 10
-1.0
 20
0.1666666666666666
 30
0.0
 11
0.0
 21
0.0
 31
0.0
  0
LINE
  5
70
330
6D
100
AcDbEntity
  8
0
  6
BYBLOCK
 62
     0
100
AcDbLine
 10
0.0
 20
0.0
 30
0.0
 11
-1.0
 21
-0.1666666666666666
 31
0.0
  0
LINE
  5
71
330
6D
100
AcDbEntity
  8
0
  6
BYBLOCK
 62
     0
100
AcDbLine
 10
0.0
 20
0.0
 30
0.0
 11
-1.0
 21
0.0
 31
0.0
  0
ENDBLK
  5
72
330
6D
100
AcDbEntity
  8
0
100
AcDbBlockEnd
  0
BLOCK
  5
5C8
330
53A
100
AcDbEntity
  8
0
100
AcDbBlockBegin
  2
*D1
 70
     1
 10
0.0
 20
0.0
 30
0.0
  3
*D1
  1

  0
LINE
  5
5C9
330
53A
100
AcDbEntity
  8
0
  6
BYBLOCK
 62
     4
100
AcDbLine
 10
416.7958066889899
 20
513.3480250241687
 30
0.0
 11
446.6455424990325
 21
513.3480250241687
 31
0.0
  0
LINE
  5
5CA
330
53A
100
AcDbEntity
  8
0
  6
BYBLOCK
 62
     4
100
AcDbLine
 10
416.7958066889899
 20
450.3480250241685
 30
0.0
 11
446.6455424990325
 21
450.3480250241685
 31
0.0
  0
LINE
  5
5CB
330
53A
100
AcDbEntity
  8
0
  6
BYBLOCK
 62
     4
100
AcDbLine
 10
443.6455424990325
 20
506.3480250241687
 30
0.0
 11
443.6455424990325
 21
457.3480250241685
 31
0.0
  0
INSERT
  5
5CC
330
53A
100
AcDbEntity
  8
0
  6
BYBLOCK
 62
     4
100
AcDbBlockReference
  2
_OPEN
 10
443.6455424990325
 20
513.3480250241687
 30
0.0
 41
7.0
 42
7.0
 43
7.0
 50
90.0
  0
INSERT
  5
5CD
330
53A
100
AcDbEntity
  8
0
  6
BYBLOCK
 62
     4
100
AcDbBlockReference
  2
_OPEN
 10
443.6455424990325
 20
450.3480250241685
 30
0.0
 41
7.0
 42
7.0
 43
7.0
 50
270.0
  0
MTEXT
  5
5CE
330
53A
100
AcDbEntity
  8
0
  6
BYBLOCK
 62
     4
100
AcDbMText
 10
438.6455424990325
 20
481.8480250241686
 30
0.0
 40
6.0
 41
0.0
 71
     5
 72
     5
  1
\A1;63
 11
0.0
 21
1.0
 31
0.0
1001
ACAD
1000
MTEXTBEGIN
1070
    73
1070
     1
1070
    44
1040
1.0
1070
    74
1070
     0
1000
MTEXTEND
1000
MTEXTBEGIN
1070
    73
1070
     1
1070
    44
1040
1.0
1070
    74
1070
     0
1000
MTEXTEND
1000
MTEXTBEGIN
1070
    73
1070
     1
1070
    44
1040
1.0
1070
    74
1070
     0
1000
MTEXTEND
  0
POINT
  5
5CF
330
53A
100
AcDbEntity
  8
DEFPOINTS
  6
BYBLOCK
 62
     0
100
AcDbPoint
 10
410.7958066889899
 20
513.3480250241687
 30
0.0
  0
POINT
  5
5D0
330
53A
100
AcDbEntity
  8
DEFPOINTS
  6
BYBLOCK
 62
     0
100
AcDbPoint
 10
410.7958066889899
 20
450.3480250241685
 30
0.0
  0
POINT
  5
5D1
330
53A
100
AcDbEntity
  8
DEFPOINTS
  6
BYBLOCK
 62
     0
100
AcDbPoint
 10
443.6455424990325
 20
450.3480250241685
 30
0.0
  0
ENDBLK
  5
5D2
330
53A
100
AcDbEntity
  8
0
100
AcDbBlockEnd
  0
BLOCK
  5
5D3
330
546
100
AcDbEntity
  8
0
100
AcDbBlockBegin
  2
*D2
 70
     1
 10
0.0
 20
0.0
 30
0.0
  3
*D2
  1

  0
LINE
  5
5D4
330
546
100
AcDbEntity
  8
0
  6
BYBLOCK
 62
     4
100
AcDbLine
 10
416.7958066889899
 20
375.5976070154247
 30
0.0
 11
446.6455424990325
 21
375.5976070154247
 31
0.0
  0
LINE
  5
5D5
330
546
100
AcDbEntity
  8
0
  6
BYBLOCK
 62
     4
100
AcDbLine
 10
416.7958066889899
 20
325.9762070154248
 30
0.0
 11
446.6455424990325
 21
325.9762070154248
 31
0.0
  0
LINE
  5
5D6
330
546
100
AcDbEntity
  8
0
  6
BYBLOCK
 62
     4
100
AcDbLine
 10
443.6455424990325
 20
368.5976070154247
 30
0.0
 11
443.6455424990325
 21
332.9762070154248
 31
0.0
  0
INSERT
  5
5D7
330
546
100
AcDbEntity
  8
0
  6
BYBLOCK
 62
     4
100
AcDbBlockReference
  2
_OPEN
 10
443.6455424990325
 20
375.5976070154247
 30
0.0
 41
7.0
 42
7.0
 43
7.0
 50
90.0
  0
INSERT
  5
5D8
330
546
100
AcDbEntity
  8
0
  6
BYBLOCK
 62
     4
100
AcDbBlockReference
  2
_OPEN
 10
443.6455424990325
 20
325.9762070154248
 30
0.0
 41
7.0
 42
7.0
 43
7.0
 50
270.0
  0
MTEXT
  5
5D9
330
546
100
AcDbEntity
  8
0
  6
BYBLOCK
 62
     4
100
AcDbMText
 10
438.6455424990325
 20
350.7869070154248
 30
0.0
 40
6.0
 41
0.0
 71
     5
 72
     5
  1
\A1;50
 11
0.0
 21
1.0
 31
0.0
1001
ACAD
1000
MTEXTBEGIN
1070
    73
1070
     1
1070
    44
1040
1.0
1070
    74
1070
     0
1000
MTEXTEND
1000
MTEXTBEGIN
1070
    73
1070
     1
1070
    44
1040
1.0
1070
    74
1070
     0
1000
MTEXTEND
1000
MTEXTBEGIN
1070
    73
1070
     1
1070
    44
1040
1.0
1070
    74
1070
     0
1000
MTEXTEND
  0
POINT
  5
5DA
330
546
100
AcDbEntity
  8
DEFPOINTS
  6
BYBLOCK
 62
     0
100
AcDbPoint
 10
410.7958066889899
 20
375.5976070154247
 30
0.0
  0
POINT
  5
5DB
330
546
100
AcDbEntity
  8
DEFPOINTS
  6
BYBLOCK
 62
     0
100
AcDbPoint
 10
410.7958066889899
 20
325.9762070154248
 30
0.0
  0
POINT
  5
5DC
330
546
100
AcDbEntity
  8
DEFPOINTS
  6
BYBLOCK
 62
     0
100
AcDbPoint
 10
443.6455424990325
 20
325.9762070154248
 30
0.0
  0
ENDBLK
  5
5DD
330
546
100
AcDbEntity
  8
0
100
AcDbBlockEnd
  0
BLOCK
  5
70A
330
552
100
AcDbEntity
  8
0
100
AcDbBlockBegin
  2
*D3
 70
     1
 10
0.0
 20
0.0
 30
0.0
  3
*D3
  1

  0
LINE
  5
70B
330
552
100
AcDbEntity
  8
0
  6
BYBLOCK
 62
     4
100
AcDbLine
 10
252.7544793225874
 20
294.1406573815573
 30
0.0
 11
252.7544793225874
 21
358.6668458389387
 31
0.0
  0
LINE
  5
70C
330
552
100
AcDbEntity
  8
0
  6
BYBLOCK
 62
     4
100
AcDbLine
 10
391.7545793225875
 20
324.4406573815572
 30
0.0
 11
391.7545793225875
 21
358.6668458389387
 31
0.0
  0
LINE
  5
70D
330
552
100
AcDbEntity
  8
0
  6
BYBLOCK
 62
     4
100
AcDbLine
 10
259.7544793225874
 20
355.6668458389387
 30
0.0
 11
384.7545793225875
 21
355.6668458389387
 31
0.0
  0
INSERT
  5
70E
330
552
100
AcDbEntity
  8
0
  6
BYBLOCK
 62
     4
100
AcDbBlockReference
  2
_OPEN
 10
252.7544793225874
 20
355.6668458389387
 30
0.0
 41
7.0
 42
7.0
 43
7.0
 50
180.0
  0
INSERT
  5
70F
330
552
100
AcDbEntity
  8
0
  6
BYBLOCK
 62
     4
100
AcDbBlockReference
  2
_OPEN
 10
391.7545793225875
 20
355.6668458389387
 30
0.0
 41
7.0
 42
7.0
 43
7.0
  0
MTEXT
  5
710
330
552
100
AcDbEntity
  8
0
  6
BYBLOCK
 62
     4
100
AcDbMText
 10
322.2545293225875
 20
360.6668458389387
 30
0.0
 40
6.0
 41
0.0
 71
     5
 72
     5
  1
\A1;139
1001
ACAD
1000
MTEXTBEGIN
1070
    73
1070
     1
1070
    44
1040
1.0
1070
    74
1070
     0
1000
MTEXTEND
1000
MTEXTBEGIN
1070
    73
1070
     1
1070
    44
1040
1.0
1070
    74
1070
     0
1000
MTEXTEND
1000
MTEXTBEGIN
1070
    73
1070
     1
1070
    44
1040
1.0
1070
    74
1070
     0
1000
MTEXTEND
  0
POINT
  5
711
330
552
100
AcDbEntity
  8
DEFPOINTS
  6
BYBLOCK
 62
     0
100
AcDbPoint
 10
252.7544793225874
 20
288.1406573815573
 30
0.0
  0
POINT
  5
712
330
552
100
AcDbEntity
  8
DEFPOINTS
  6
BYBLOCK
 62
     0
100
AcDbPoint
 10
391.7545793225875
 20
318.4406573815572
 30
0.0
  0
POINT
  5
713
330
552
100
AcDbEntity
  8
DEFPOINTS
  6
BYBLOCK
 62
     0
100
AcDbPoint
 10
391.7545793225875
 20
355.6668458389387
 30
0.0
  0
ENDBLK
  5
714
330
552
100
AcDbEntity
  8
0
100
AcDbBlockEnd
  0
BLOCK
  5
694
330
55E
100
AcDbEntity
  8
0
100
AcDbBlockBegin
  2
*D4
 70
     1
 10
0.0
 20
0.0
 30
0.0
  3
*D4
  1

  0
LINE
  5
695
330
55E
100
AcDbEntity
  8
0
  6
BYBLOCK
 62
     4
100
AcDbLine
 10
249.8419216825175
 20
292.9381247014827
 30
0.0
 11
224.3553545647194
 21
292.9381247014827
 31
0.0
  0
LINE
  5
696
330
55E
100
AcDbEntity
  8
0
  6
BYBLOCK
 62
     4
100
AcDbLine
 10
368.9384793225875
 20
318.4406573815572
 30
0.0
 11
224.3553545647194
 21
318.4406573815572
 31
0.0
  0
LINE
  5
697
330
55E
100
AcDbEntity
  8
0
  6
BYBLOCK
 62
     4
100
AcDbLine
 10
227.3553545647194
 20
285.9381247014827
 30
0.0
 11
227.3553545647194
 21
278.9381247014826
 31
0.0
  0
LINE
  5
698
330
55E
100
AcDbEntity
  8
0
  6
BYBLOCK
 62
     4
100
AcDbLine
 10
227.3553545647194
 20
325.4406573815572
 30
0.0
 11
227.3553545647194
 21
332.4406573815573
 31
0.0
  0
LINE
  5
699
330
55E
100
AcDbEntity
  8
0
  6
BYBLOCK
 62
     4
100
AcDbLine
 10
227.3553545647194
 20
292.9381247014827
 30
0.0
 11
227.3553545647194
 21
318.4406573815572
 31
0.0
  0
INSERT
  5
69A
330
55E
100
AcDbEntity
  8
0
  6
BYBLOCK
 62
     4
100
AcDbBlockReference
  2
_OPEN
 10
227.3553545647194
 20
292.9381247014827
 30
0.0
 41
7.0
 42
7.0
 43
7.0
 50
90.0
  0
INSERT
  5
69B
330
55E
100
AcDbEntity
  8
0
  6
BYBLOCK
 62
     4
100
AcDbBlockReference
  2
_OPEN
 10
227.3553545647194
 20
318.4406573815572
 30
0.0
 41
7.0
 42
7.0
 43
7.0
 50
270.0
  0
MTEXT
  5
69C
330
55E
100
AcDbEntity
  8
0
  6
BYBLOCK
 62
     4
100
AcDbMText
 10
222.3553545647194
 20
305.68939104152
 30
0.0
 40
6.0
 41
0.0
 71
     5
 72
     5
  1
\A1;26
 11
0.0
 21
1.0
 31
0.0
1001
ACAD
1000
MTEXTBEGIN
1070
    73
1070
     1
1070
    44
1040
1.0
1070
    74
1070
     0
1000
MTEXTEND
1000
MTEXTBEGIN
1070
    73
1070
     1
1070
    44
1040
1.0
1070
    74
1070
     0
1000
MTEXTEND
1000
MTEXTBEGIN
1070
    73
1070
     1
1070
    44
1040
1.0
1070
    74
1070
     0
1000
MTEXTEND
  0
POINT
  5
69D
330
55E
100
AcDbEntity
  8
DEFPOINTS
  6
BYBLOCK
 62
     0
100
AcDbPoint
 10
255.8419216825175
 20
292.9381247014827
 30
0.0
  0
POINT
  5
69E
330
55E
100
AcDbEntity
  8
DEFPOINTS
  6
BYBLOCK
 62
     0
100
AcDbPoint
 10
374.9384793225875
 20
318.4406573815572
 30
0.0
  0
POINT
  5
69F
330
55E
100
AcDbEntity
  8
DEFPOINTS
  6
BYBLOCK
 62
     0
100
AcDbPoint
 10
227.3553545647194
 20
318.4406573815572
 30
0.0
  0
ENDBLK
  5
6A0
330
55E
100
AcDbEntity
  8
0
100
AcDbBlockEnd
  0
BLOCK
  5
6A1
330
56C
100
AcDbEntity
  8
0
100
AcDbBlockBegin
  2
*D5
 70
     1
 10
0.0
 20
0.0
 30
0.0
  3
*D5
  1

  0
LINE
  5
6A2
330
56C
100
AcDbEntity
  8
0
  6
BYBLOCK
 62
     4
100
AcDbLine
 10
250.4544793225875
 20
451.5617254086681
 30
0.0
 11
224.3553545647194
 21
451.5617254086681
 31
0.0
  0
LINE
  5
6A3
330
56C
100
AcDbEntity
  8
0
  6
BYBLOCK
 62
     4
100
AcDbLine
 10
250.4544793225875
 20
431.5617254086681
 30
0.0
 11
224.3553545647194
 21
431.5617254086681
 31
0.0
  0
LINE
  5
6A4
330
56C
100
AcDbEntity
  8
0
  6
BYBLOCK
 62
     4
100
AcDbLine
 10
227.3553545647194
 20
458.5617254086681
 30
0.0
 11
227.3553545647194
 21
465.561725408668
 31
0.0
  0
LINE
  5
6A5
330
56C
100
AcDbEntity
  8
0
  6
BYBLOCK
 62
     4
100
AcDbLine
 10
227.3553545647194
 20
424.5617254086682
 30
0.0
 11
227.3553545647194
 21
417.5617254086682
 31
0.0
  0
LINE
  5
6A6
330
56C
100
AcDbEntity
  8
0
  6
BYBLOCK
 62
     4
100
AcDbLine
 10
227.3553545647194
 20
451.5617254086681
 30
0.0
 11
227.3553545647194
 21
431.5617254086681
 31
0.0
  0
INSERT
  5
6A7
330
56C
100
AcDbEntity
  8
0
  6
BYBLOCK
 62
     4
100
AcDbBlockReference
  2
_OPEN
 10
227.3553545647194
 20
451.5617254086681
 30
0.0
 41
7.0
 42
7.0
 43
7.0
 50
270.0
  0
INSERT
  5
6A8
330
56C
100
AcDbEntity
  8
0
  6
BYBLOCK
 62
     4
100
AcDbBlockReference
  2
_OPEN
 10
227.3553545647194
 20
431.5617254086681
 30
0.0
 41
7.0
 42
7.0
 43
7.0
 50
90.0
  0
MTEXT
  5
6A9
330
56C
100
AcDbEntity
  8
0
  6
BYBLOCK
 62
     4
100
AcDbMText
 10
222.3553545647194
 20
441.5617254086681
 30
0.0
 40
6.0
 41
0.0
 71
     5
 72
     5
  1
\A1;20
 11
0.0
 21
1.0
 31
0.0
1001
ACAD
1000
MTEXTBEGIN
1070
    73
1070
     1
1070
    44
1040
1.0
1070
    74
1070
     0
1000
MTEXTEND
1000
MTEXTBEGIN
1070
    73
1070
     1
1070
    44
1040
1.0
1070
    74
1070
     0
1000
MTEXTEND
1000
MTEXTBEGIN
1070
    73
1070
     1
1070
    44
1040
1.0
1070
    74
1070
     0
1000
MTEXTEND
  0
POINT
  5
6AA
330
56C
100
AcDbEntity
  8
DEFPOINTS
  6
BYBLOCK
 62
     0
100
AcDbPoint
 10
256.4544793225875
 20
451.5617254086681
 30
0.0
  0
POINT
  5
6AB
330
56C
100
AcDbEntity
  8
DEFPOINTS
  6
BYBLOCK
 62
     0
100
AcDbPoint
 10
256.4544793225875
 20
431.5617254086681
 30
0.0
  0
POINT
  5
6AC
330
56C
100
AcDbEntity
  8
DEFPOINTS
  6
BYBLOCK
 62
     0
100
AcDbPoint
 10
227.3553545647194
 20
431.5617254086681
 30
0.0
  0
ENDBLK
  5
6AD
330
56C
100
AcDbEntity
  8
0
100
AcDbBlockEnd
  0
BLOCK
  5
61B
330
594
100
AcDbEntity
  8
0
100
AcDbBlockBegin
  2
*D6
 70
     1
 10
0.0
 20
0.0
 30
0.0
  3
*D6
  1

  0
LINE
  5
61C
330
594
100
AcDbEntity
  8
0
  6
BYBLOCK
 62
     4
100
AcDbLine
 10
590.2304584308821
 20
375.5975070154248
 30
0.0
 11
497.7656730458287
 21
375.5975070154248
 31
0.0
  0
LINE
  5
61D
330
594
100
AcDbEntity
  8
0
  6
BYBLOCK
 62
     4
100
AcDbLine
 10
561.2445584308822
 20
360.5976070154247
 30
0.0
 11
497.7656730458287
 21
360.5976070154247
 31
0.0
  0
LINE
  5
61E
330
594
100
AcDbEntity
  8
0
  6
BYBLOCK
 62
     4
100
AcDbLine
 10
500.7656730458286
 20
382.5975070154248
 30
0.0
 11
500.7656730458286
 21
389.5975070154248
 31
0.0
  0
LINE
  5
61F
330
594
100
AcDbEntity
  8
0
  6
BYBLOCK
 62
     4
100
AcDbLine
 10
500.7656730458286
 20
353.5976070154247
 30
0.0
 11
500.7656730458286
 21
346.5976070154248
 31
0.0
  0
LINE
  5
620
330
594
100
AcDbEntity
  8
0
  6
BYBLOCK
 62
     4
100
AcDbLine
 10
500.7656730458286
 20
375.5975070154248
 30
0.0
 11
500.7656730458286
 21
360.5976070154247
 31
0.0
  0
INSERT
  5
621
330
594
100
AcDbEntity
  8
0
  6
BYBLOCK
 62
     4
100
AcDbBlockReference
  2
_OPEN
 10
500.7656730458286
 20
375.5975070154248
 30
0.0
 41
7.0
 42
7.0
 43
7.0
 50
270.0
  0
INSERT
  5
622
330
594
100
AcDbEntity
  8
0
  6
BYBLOCK
 62
     4
100
AcDbBlockReference
  2
_OPEN
 10
500.7656730458286
 20
360.5976070154247
 30
0.0
 41
7.0
 42
7.0
 43
7.0
 50
90.0
  0
MTEXT
  5
623
330
594
100
AcDbEntity
  8
0
  6
BYBLOCK
 62
     4
100
AcDbMText
 10
495.7656730458286
 20
368.0975570154248
 30
0.0
 40
6.0
 41
0.0
 71
     5
 72
     5
  1
\A1;15
 11
0.0
 21
1.0
 31
0.0
1001
ACAD
1000
MTEXTBEGIN
1070
    73
1070
     1
1070
    44
1040
1.0
1070
    74
1070
     0
1000
MTEXTEND
1000
MTEXTBEGIN
1070
    73
1070
     1
1070
    44
1040
1.0
1070
    74
1070
     0
1000
MTEXTEND
1000
MTEXTBEGIN
1070
    73
1070
     1
1070
    44
1040
1.0
1070
    74
1070
     0
1000
MTEXTEND
  0
POINT
  5
624
330
594
100
AcDbEntity
  8
DEFPOINTS
  6
BYBLOCK
 62
     0
100
AcDbPoint
 10
596.2304584308822
 20
375.5975070154248
 30
0.0
  0
POINT
  5
625
330
594
100
AcDbEntity
  8
DEFPOINTS
  6
BYBLOCK
 62
     0
100
AcDbPoint
 10
567.2445584308823
 20
360.5976070154247
 30
0.0
  0
POINT
  5
626
330
594
100
AcDbEntity
  8
DEFPOINTS
  6
BYBLOCK
 62
     0
100
AcDbPoint
 10
500.7656730458286
 20
360.5976070154247
 30
0.0
  0
ENDBLK
  5
627
330
594
100
AcDbEntity
  8
0
100
AcDbBlockEnd
  0
BLOCK
  5
628
330
5A2
100
AcDbEntity
  8
0
100
AcDbBlockBegin
  2
*D7
 70
     1
 10
0.0
 20
0.0
 30
0.0
  3
*D7
  1

  0
LINE
  5
629
330
5A2
100
AcDbEntity
  8
0
  6
BYBLOCK
 62
     4
100
AcDbLine
 10
562.5283584308824
 20
365.5976070154248
 30
0.0
 11
515.6384250302714
 21
365.5976070154248
 31
0.0
  0
LINE
  5
62A
330
5A2
100
AcDbEntity
  8
0
  6
BYBLOCK
 62
     4
100
AcDbLine
 10
590.2304584308821
 20
375.5975070154248
 30
0.0
 11
515.6384250302714
 21
375.5975070154248
 31
0.0
  0
LINE
  5
62B
330
5A2
100
AcDbEntity
  8
0
  6
BYBLOCK
 62
     4
100
AcDbLine
 10
518.6384250302714
 20
358.5976070154248
 30
0.0
 11
518.6384250302714
 21
351.5976070154248
 31
0.0
  0
LINE
  5
62C
330
5A2
100
AcDbEntity
  8
0
  6
BYBLOCK
 62
     4
100
AcDbLine
 10
518.6384250302714
 20
382.5975070154248
 30
0.0
 11
518.6384250302714
 21
400.5975070154248
 31
0.0
  0
LINE
  5
62D
330
5A2
100
AcDbEntity
  8
0
  6
BYBLOCK
 62
     4
100
AcDbLine
 10
518.6384250302714
 20
365.5976070154248
 30
0.0
 11
518.6384250302714
 21
375.5975070154248
 31
0.0
  0
INSERT
  5
62E
330
5A2
100
AcDbEntity
  8
0
  6
BYBLOCK
 62
     4
100
AcDbBlockReference
  2
_OPEN
 10
518.6384250302714
 20
365.5976070154248
 30
0.0
 41
7.0
 42
7.0
 43
7.0
 50
90.0
  0
INSERT
  5
62F
330
5A2
100
AcDbEntity
  8
0
  6
BYBLOCK
 62
     4
100
AcDbBlockReference
  2
_OPEN
 10
518.6384250302714
 20
375.5975070154248
 30
0.0
 41
7.0
 42
7.0
 43
7.0
 50
270.0
  0
MTEXT
  5
630
330
5A2
100
AcDbEntity
  8
0
  6
BYBLOCK
 62
     4
100
AcDbMText
 10
513.6384250302715
 20
395.0975070154248
 30
0.0
 40
6.0
 41
0.0
 71
     5
 72
     5
  1
\A1;10
 11
0.0
 21
1.0
 31
0.0
1001
ACAD
1000
MTEXTBEGIN
1070
    73
1070
     1
1070
    44
1040
1.0
1070
    74
1070
     0
1000
MTEXTEND
1000
MTEXTBEGIN
1070
    73
1070
     1
1070
    44
1040
1.0
1070
    74
1070
     0
1000
MTEXTEND
1000
MTEXTBEGIN
1070
    73
1070
     1
1070
    44
1040
1.0
1070
    74
1070
     0
1000
MTEXTEND
  0
POINT
  5
631
330
5A2
100
AcDbEntity
  8
DEFPOINTS
  6
BYBLOCK
 62
     0
100
AcDbPoint
 10
568.5283584308823
 20
365.5976070154248
 30
0.0
  0
POINT
  5
632
330
5A2
100
AcDbEntity
  8
DEFPOINTS
  6
BYBLOCK
 62
     0
100
AcDbPoint
 10
596.2304584308822
 20
375.5975070154248
 30
0.0
  0
POINT
  5
633
330
5A2
100
AcDbEntity
  8
DEFPOINTS
  6
BYBLOCK
 62
     0
100
AcDbPoint
 10
518.6384250302714
 20
375.5975070154248
 30
0.0
  0
ENDBLK
  5
634
330
5A2
100
AcDbEntity
  8
0
100
AcDbBlockEnd
  0
BLOCK
  5
635
330
5B0
100
AcDbEntity
  8
0
100
AcDbBlockBegin
  2
*D8
 70
     1
 10
0.0
 20
0.0
 30
0.0
  3
*D8
  1

  0
LINE
  5
636
330
5B0
100
AcDbEntity
  8
0
  6
BYBLOCK
 62
     4
100
AcDbLine
 10
564.7304584308821
 20
370.4570070154248
 30
0.0
 11
564.7304584308821
 21
415.3612958602147
 31
0.0
  0
LINE
  5
637
330
5B0
100
AcDbEntity
  8
0
  6
BYBLOCK
 62
     4
100
AcDbLine
 10
627.7304584308823
 20
370.8405070154248
 30
0.0
 11
627.7304584308823
 21
415.3612958602147
 31
0.0
  0
LINE
  5
638
330
5B0
100
AcDbEntity
  8
0
  6
BYBLOCK
 62
     4
100
AcDbLine
 10
571.7304584308822
 20
412.3612958602147
 30
0.0
 11
620.7304584308823
 21
412.3612958602147
 31
0.0
  0
INSERT
  5
639
330
5B0
100
AcDbEntity
  8
0
  6
BYBLOCK
 62
     4
100
AcDbBlockReference
  2
_OPEN
 10
564.7304584308821
 20
412.3612958602147
 30
0.0
 41
7.0
 42
7.0
 43
7.0
 50
180.0
  0
INSERT
  5
63A
330
5B0
100
AcDbEntity
  8
0
  6
BYBLOCK
 62
     4
100
AcDbBlockReference
  2
_OPEN
 10
627.7304584308823
 20
412.3612958602147
 30
0.0
 41
7.0
 42
7.0
 43
7.0
  0
MTEXT
  5
63B
330
5B0
100
AcDbEntity
  8
0
  6
BYBLOCK
 62
     4
100
AcDbMText
 10
596.2304584308822
 20
417.3612958602147
 30
0.0
 40
6.0
 41
0.0
 71
     5
 72
     5
  1
\A1;63
1001
ACAD
1000
MTEXTBEGIN
1070
    73
1070
     1
1070
    44
1040
1.0
1070
    74
1070
     0
1000
MTEXTEND
1000
MTEXTBEGIN
1070
    73
1070
     1
1070
    44
1040
1.0
1070
    74
1070
     0
1000
MTEXTEND
1000
MTEXTBEGIN
1070
    73
1070
     1
1070
    44
1040
1.0
1070
    74
1070
     0
1000
MTEXTEND
  0
POINT
  5
63C
330
5B0
100
AcDbEntity
  8
DEFPOINTS
  6
BYBLOCK
 62
     0
100
AcDbPoint
 10
564.7304584308821
 20
364.4570070154248
 30
0.0
  0
POINT
  5
63D
330
5B0
100
AcDbEntity
  8
DEFPOINTS
  6
BYBLOCK
 62
     0
100
AcDbPoint
 10
627.7304584308823
 20
364.8405070154248
 30
0.0
  0
POINT
  5
63E
330
5B0
100
AcDbEntity
  8
DEFPOINTS
  6
BYBLOCK
 62
     0
100
AcDbPoint
 10
627.7304584308823
 20
412.3612958602147
 30
0.0
  0
ENDBLK
  5
63F
330
5B0
100
AcDbEntity
  8
0
100
AcDbBlockEnd
  0
BLOCK
  5
640
330
5BC
100
AcDbEntity
  8
0
100
AcDbBlockBegin
  2
*D9
 70
     1
 10
0.0
 20
0.0
 30
0.0
  3
*D9
  1

  0
LINE
  5
641
330
5BC
100
AcDbEntity
  8
0
  6
BYBLOCK
 62
     4
100
AcDbLine
 10
572.7304584308821
 20
375.3824070154248
 30
0.0
 11
572.7304584308821
 21
399.4276586816658
 31
0.0
  0
LINE
  5
642
330
5BC
100
AcDbEntity
  8
0
  6
BYBLOCK
 62
     4
100
AcDbLine
 10
619.7304584308824
 20
375.3824070154248
 30
0.0
 11
619.7304584308824
 21
399.4276586816658
 31
0.0
  0
LINE
  5
643
330
5BC
100
AcDbEntity
  8
0
  6
BYBLOCK
 62
     4
100
AcDbLine
 10
579.7304584308822
 20
396.4276586816658
 30
0.0
 11
612.7304584308824
 21
396.4276586816658
 31
0.0
  0
INSERT
  5
644
330
5BC
100
AcDbEntity
  8
0
  6
BYBLOCK
 62
     4
100
AcDbBlockReference
  2
_OPEN
 10
572.7304584308821
 20
396.4276586816658
 30
0.0
 41
7.0
 42
7.0
 43
7.0
 50
180.0
  0
INSERT
  5
645
330
5BC
100
AcDbEntity
  8
0
  6
BYBLOCK
 62
     4
100
AcDbBlockReference
  2
_OPEN
 10
619.7304584308824
 20
396.4276586816658
 30
0.0
 41
7.0
 42
7.0
 43
7.0
  0
MTEXT
  5
646
330
5BC
100
AcDbEntity
  8
0
  6
BYBLOCK
 62
     4
100
AcDbMText
 10
596.2304584308823
 20
401.4276586816658
 30
0.0
 40
6.0
 41
0.0
 71
     5
 72
     5
  1
\A1;47
1001
ACAD
1000
MTEXTBEGIN
1070
    73
1070
     1
1070
    44
1040
1.0
1070
    74
1070
     0
1000
MTEXTEND
1000
MTEXTBEGIN
1070
    73
1070
     1
1070
    44
1040
1.0
1070
    74
1070
     0
1000
MTEXTEND
1000
MTEXTBEGIN
1070
    73
1070
     1
1070
    44
1040
1.0
1070
    74
1070
     0
1000
MTEXTEND
  0
POINT
  5
647
330
5BC
100
AcDbEntity
  8
DEFPOINTS
  6
BYBLOCK
 62
     0
100
AcDbPoint
 10
572.7304584308821
 20
369.3824070154247
 30
0.0
  0
POINT
  5
648
330
5BC
100
AcDbEntity
  8
DEFPOINTS
  6
BYBLOCK
 62
     0
100
AcDbPoint
 10
619.7304584308824
 20
369.3824070154247
 30
0.0
  0
POINT
  5
649
330
5BC
100
AcDbEntity
  8
DEFPOINTS
  6
BYBLOCK
 62
     0
100
AcDbPoint
 10
619.7304584308824
 20
396.4276586816658
 30
0.0
  0
ENDBLK
  5
64A
330
5BC
100
AcDbEntity
  8
0
100
AcDbBlockEnd
  0
BLOCK
  5
6FD
330
667
100
AcDbEntity
  8
0
100
AcDbBlockBegin
  2
*D10
 70
     1
 10
0.0
 20
0.0
 30
0.0
  3
*D10
  1

  0
LINE
  5
6FE
330
667
100
AcDbEntity
  8
0
  6
BYBLOCK
 62
     4
100
AcDbLine
 10
370.558268669377
 20
302.9816560890298
 30
0.0
 11
370.558268669377
 21
342.4009603692236
 31
0.0
  0
LINE
  5
6FF
330
667
100
AcDbEntity
  8
0
  6
BYBLOCK
 62
     4
100
AcDbLine
 10
391.7545793225875
 20
324.4406573815572
 30
0.0
 11
391.7545793225875
 21
342.4009603692236
 31
0.0
  0
LINE
  5
700
330
667
100
AcDbEntity
  8
0
  6
BYBLOCK
 62
     4
100
AcDbLine
 10
363.558268669377
 20
339.4009603692236
 30
0.0
 11
356.558268669377
 21
339.4009603692236
 31
0.0
  0
LINE
  5
701
330
667
100
AcDbEntity
  8
0
  6
BYBLOCK
 62
     4
100
AcDbLine
 10
398.7545793225875
 20
339.4009603692236
 30
0.0
 11
405.7545793225875
 21
339.4009603692236
 31
0.0
  0
LINE
  5
702
330
667
100
AcDbEntity
  8
0
  6
BYBLOCK
 62
     4
100
AcDbLine
 10
370.558268669377
 20
339.4009603692236
 30
0.0
 11
391.7545793225875
 21
339.4009603692236
 31
0.0
  0
INSERT
  5
703
330
667
100
AcDbEntity
  8
0
  6
BYBLOCK
 62
     4
100
AcDbBlockReference
  2
_OPEN
 10
370.558268669377
 20
339.4009603692236
 30
0.0
 41
7.0
 42
7.0
 43
7.0
  0
INSERT
  5
704
330
667
100
AcDbEntity
  8
0
  6
BYBLOCK
 62
     4
100
AcDbBlockReference
  2
_OPEN
 10
391.7545793225875
 20
339.4009603692236
 30
0.0
 41
7.0
 42
7.0
 43
7.0
 50
180.0
  0
MTEXT
  5
705
330
667
100
AcDbEntity
  8
0
  6
BYBLOCK
 62
     4
100
AcDbMText
 10
381.1564239959823
 20
344.4009603692236
 30
0.0
 40
6.0
 41
0.0
 71
     5
 72
     5
  1
\A1;21
1001
ACAD
1000
MTEXTBEGIN
1070
    73
1070
     1
1070
    44
1040
1.0
1070
    74
1070
     0
1000
MTEXTEND
1000
MTEXTBEGIN
1070
    73
1070
     1
1070
    44
1040
1.0
1070
    74
1070
     0
1000
MTEXTEND
1000
MTEXTBEGIN
1070
    73
1070
     1
1070
    44
1040
1.0
1070
    74
1070
     0
1000
MTEXTEND
  0
POINT
  5
706
330
667
100
AcDbEntity
  8
DEFPOINTS
  6
BYBLOCK
 62
     0
100
AcDbPoint
 10
370.558268669377
 20
296.9816560890297
 30
0.0
  0
POINT
  5
707
330
667
100
AcDbEntity
  8
DEFPOINTS
  6
BYBLOCK
 62
     0
100
AcDbPoint
 10
391.7545793225875
 20
318.4406573815572
 30
0.0
  0
POINT
  5
708
330
667
100
AcDbEntity
  8
DEFPOINTS
  6
BYBLOCK
 62
     0
100
AcDbPoint
 10
391.7545793225875
 20
339.4009603692236
 30
0.0
  0
ENDBLK
  5
709
330
667
100
AcDbEntity
  8
0
100
AcDbBlockEnd
  0
BLOCK
  5
6E8
330
6B2
100
AcDbEntity
  8
0
100
AcDbBlockBegin
  2
*D11
 70
     1
 10
0.0
 20
0.0
 30
0.0
  3
*D11
  1

  0
LINE
  5
6E9
330
6B2
100
AcDbEntity
  8
0
  6
BYBLOCK
 62
     4
100
AcDbLine
 10
385.7545793225875
 20
264.8192573815573
 30
0.0
 11
385.7545793225875
 21
246.8461411076859
 31
0.0
  0
LINE
  5
6EA
330
6B2
100
AcDbEntity
  8
0
  6
BYBLOCK
 62
     4
100
AcDbLine
 10
391.7545793225875
 20
262.8192573815573
 30
0.0
 11
391.7545793225875
 21
246.8461411076859
 31
0.0
  0
LINE
  5
6EB
330
6B2
100
AcDbEntity
  8
0
  6
BYBLOCK
 62
     4
100
AcDbLine
 10
378.7545793225875
 20
249.8461411076859
 30
0.0
 11
371.7545793225875
 21
249.8461411076859
 31
0.0
  0
LINE
  5
6EC
330
6B2
100
AcDbEntity
  8
0
  6
BYBLOCK
 62
     4
100
AcDbLine
 10
398.7545793225875
 20
249.8461411076859
 30
0.0
 11
426.7545793225876
 21
249.8461411076859
 31
0.0
  0
LINE
  5
6ED
330
6B2
100
AcDbEntity
  8
0
  6
BYBLOCK
 62
     4
100
AcDbLine
 10
385.7545793225875
 20
249.8461411076859
 30
0.0
 11
391.7545793225875
 21
249.8461411076859
 31
0.0
  0
INSERT
  5
6EE
330
6B2
100
AcDbEntity
  8
0
  6
BYBLOCK
 62
     4
100
AcDbBlockReference
  2
_OPEN
 10
385.7545793225875
 20
249.8461411076859
 30
0.0
 41
7.0
 42
7.0
 43
7.0
  0
INSERT
  5
6EF
330
6B2
100
AcDbEntity
  8
0
  6
BYBLOCK
 62
     4
100
AcDbBlockReference
  2
_OPEN
 10
391.7545793225875
 20
249.8461411076859
 30
0.0
 41
7.0
 42
7.0
 43
7.0
 50
180.0
  0
MTEXT
  5
6F0
330
6B2
100
AcDbEntity
  8
0
  6
BYBLOCK
 62
     4
100
AcDbMText
 10
416.2545793225875
 20
254.8461411076859
 30
0.0
 40
6.0
 41
0.0
 71
     5
 72
     5
  1
\A1;t6.0
1001
ACAD
1000
MTEXTBEGIN
1070
    73
1070
     1
1070
    44
1040
1.0
1070
    74
1070
     0
1000
MTEXTEND
1000
MTEXTBEGIN
1070
    73
1070
     1
1070
    44
1040
1.0
1070
    74
1070
     0
1000
MTEXTEND
1000
MTEXTBEGIN
1070
    73
1070
     1
1070
    44
1040
1.0
1070
    74
1070
     0
1000
MTEXTEND
  0
POINT
  5
6F1
330
6B2
100
AcDbEntity
  8
DEFPOINTS
  6
BYBLOCK
 62
     0
100
AcDbPoint
 10
385.7545793225875
 20
270.8192573815573
 30
0.0
  0
POINT
  5
6F2
330
6B2
100
AcDbEntity
  8
DEFPOINTS
  6
BYBLOCK
 62
     0
100
AcDbPoint
 10
391.7545793225875
 20
268.8192573815573
 30
0.0
  0
POINT
  5
6F3
330
6B2
100
AcDbEntity
  8
DEFPOINTS
  6
BYBLOCK
 62
     0
100
AcDbPoint
 10
391.7545793225875
 20
249.8461411076859
 30
0.0
  0
ENDBLK
  5
6F4
330
6B2
100
AcDbEntity
  8
0
100
AcDbBlockEnd
  0
ENDSEC
  0
SECTION
  2
ENTITIES
  0
LINE
  5
38A
330
1A
100
AcDbEntity
  8
CENTER_L
  6
CENTER
 62
     1
 48
5.0
100
AcDbLine
 10
378.8688793225875
 20
184.553256442928
 30
0.0
 11
401.7545793225876
 21
184.553256442928
 31
0.0
  0
LINE
  5
38B
330
1A
100
AcDbEntity
  8
CENTER_L
  6
CENTER
 62
     1
 48
5.0
100
AcDbLine
 10
378.9088793225873
 20
179.5532564429279
 30
0.0
 11
401.7545793225876
 21
179.5532564429279
 31
0.0
  0
LINE
  5
38C
330
1A
100
AcDbEntity
  8
CENTER_L
  6
CENTER
 62
     1
 48
5.0
100
AcDbLine
 10
379.1088793225874
 20
154.5530564429279
 30
0.0
 11
401.7545793225876
 21
154.5530564429279
 31
0.0
  0
DIMENSION
  5
38D
330
1A
100
AcDbEntity
  8
SUNPOU
100
AcDbDimension
  2
*D1
 10
424.6043151326301
 20
410.0617254086681
 30
0.0
 11
419.6043151326301
 21
441.5617254086681
 31
0.0
 12
-19.04122736640238
 22
-40.2862996155004
 32
0.0
 70
    32
  3
STANDARD
100
AcDbAlignedDimension
 13
391.7545793225875
 23
473.0617254086682
 33
0.0
 14
391.7545793225875
 24
410.0617254086681
 34
0.0
 50
90.0
100
AcDbRotatedDimension
1001
ACAD
1000
DSTYLE
1002
{
1070
   140
1040
6.0
1070
    74
1070
     0
1070
   172
1070
     1
1070
    73
1070
     0
1070
   272
1070
     2
1070
    77
1070
     3
1070
   173
1070
     1
1070
   147
1040
2.0
1070
    42
1040
6.0
1070
    44
1040
3.0
1070
    43
1040
14.0
1070
   271
1070
     0
1070
   178
1070
     4
1070
   177
1070
     4
1070
   176
1070
     4
1070
   141
1040
150.0
1070
     7
1000
_OPEN
1070
     6
1000
_OPEN
1070
    41
1040
7.0
1002
}
  0
DIMENSION
  5
38E
330
1A
100
AcDbEntity
  8
SUNPOU
100
AcDbDimension
  2
*D2
 10
424.6043151326301
 20
268.8192573815573
 30
0.0
 11
419.6043151326301
 21
293.6299573815573
 31
0.0
 12
-19.04122736640238
 22
-57.15694963386749
 32
0.0
 70
    32
  3
STANDARD
100
AcDbAlignedDimension
 13
391.7545793225875
 23
318.4406573815572
 33
0.0
 14
391.7545793225875
 24
268.8192573815573
 34
0.0
 50
90.0
100
AcDbRotatedDimension
1001
ACAD
1000
DSTYLE
1002
{
1070
   140
1040
6.0
1070
    74
1070
     0
1070
   172
1070
     1
1070
    73
1070
     0
1070
   272
1070
     2
1070
    77
1070
     3
1070
   173
1070
     1
1070
   147
1040
2.0
1070
    42
1040
6.0
1070
    44
1040
3.0
1070
    43
1040
14.0
1070
   271
1070
     0
1070
   178
1070
     4
1070
   177
1070
     4
1070
   176
1070
     4
1070
   141
1040
150.0
1070
     7
1000
_OPEN
1070
     6
1000
_OPEN
1070
    41
1040
7.0
1002
}
  0
LINE
  5
38F
330
1A
100
AcDbEntity
  8
CENTER_L
  6
CENTER
 62
     1
 48
5.0
100
AcDbLine
 10
378.8688793225875
 20
308.4406573815573
 30
0.0
 11
401.7545793225876
 21
308.4406573815573
 31
0.0
  0
LINE
  5
390
330
1A
100
AcDbEntity
  8
CENTER_L
  6
CENTER
 62
     1
 48
5.0
100
AcDbLine
 10
378.9088793225873
 20
303.4406573815572
 30
0.0
 11
401.7545793225876
 21
303.4406573815572
 31
0.0
  0
LINE
  5
391
330
1A
100
AcDbEntity
  8
CENTER_L
  6
CENTER
 62
     1
 48
5.0
100
AcDbLine
 10
379.1088793225874
 20
278.4404573815572
 30
0.0
 11
401.7545793225876
 21
278.4404573815572
 31
0.0
  0
LINE
  5
392
330
1A
100
AcDbEntity
  8
CENTER_L
  6
CENTER
 62
     1
 48
5.0
100
AcDbLine
 10
377.8237793225873
 20
465.0617254086681
 30
0.0
 11
401.7545793225876
 21
465.0617254086681
 31
0.0
  0
LINE
  5
393
330
1A
100
AcDbEntity
  8
CENTER_L
  6
CENTER
 62
     1
 48
5.0
100
AcDbLine
 10
378.1997793225875
 20
418.0617254086681
 30
0.0
 11
401.7545793225876
 21
418.0617254086681
 31
0.0
  0
LINE
  5
395
330
1A
100
AcDbEntity
  8
NOKITOI
  6
PHANTOM
 62
     8
 48
5.0
100
AcDbLine
 10
361.532768669377
 20
282.1436560890297
 30
0.0
 11
358.6639686693769
 21
253.4562560890297
 31
0.0
  0
LINE
  5
396
330
1A
100
AcDbEntity
  8
NOKITOI
  6
PHANTOM
 62
     8
 48
5.0
100
AcDbLine
 10
360.4917686693768
 20
283.7939560890298
 30
0.0
 11
357.4987686693769
 21
253.8641560890297
 31
0.0
  0
ARC
  5
397
330
1A
100
AcDbEntity
  8
NOKITOI
  6
PHANTOM
 62
     8
 48
5.0
100
AcDbCircle
 10
302.4363524429196
 20
287.0441705653998
 30
0.0
 40
43.00001447645168
100
AcDbArc
 50
186.524910707118
 51
269.999888375144
  0
ARC
  5
398
330
1A
100
AcDbEntity
  8
NOKITOI
  6
PHANTOM
 62
     8
 48
5.0
100
AcDbCircle
 10
302.4363747513447
 20
287.0441504643734
 30
0.0
 40
41.79999437547816
100
AcDbArc
 50
184.474295212525
 51
269.9998545921086
  0
TEXT
  5
39B
330
1A
100
AcDbEntity
  8
SUNPOU
 62
     4
100
AcDbText
 10
284.1947471553351
 20
96.12048498757946
 30
0.0
 40
8.0
  1
軒樋の差し替え
100
AcDbText
  0
LINE
  5
39F
330
1A
100
AcDbEntity
  8
NOKITOI
  6
PHANTOM
 62
     8
 48
5.0
100
AcDbLine
 10
262.9434691310666
 20
128.8943551504005
 30
0.0
 11
273.3465691310666
 21
120.3826551504005
 31
0.0
  0
LINE
  5
3A0
330
1A
100
AcDbEntity
  8
NOKITOI
  6
PHANTOM
 62
     8
 48
5.0
100
AcDbLine
 10
263.9277691310666
 20
129.6394551504004
 30
0.0
 11
273.9130691310666
 21
121.4696551504004
 31
0.0
  0
LINE
  5
3A1
330
1A
100
AcDbEntity
  8
SEIHIN
  6
CONTINUOUS
 62
     3
 48
16.0
100
AcDbLine
 10
259.4544793225874
 20
165.553256442928
 30
0.0
 11
325.6523793225875
 21
165.553256442928
 31
0.0
  0
LINE
  5
3A2
330
1A
100
AcDbEntity
  8
SEIHIN
  6
CONTINUOUS
 62
     3
 48
16.0
100
AcDbLine
 10
260.7544793225875
 20
161.2532564429279
 30
0.0
 11
338.2545793225876
 21
152.0532564429279
 31
0.0
  0
LINE
  5
3A3
330
1A
100
AcDbEntity
  8
NOKITOI
  6
PHANTOM
 62
     8
 48
5.0
100
AcDbLine
 10
259.7128691310666
 20
158.2562551504004
 30
0.0
 11
262.5816691310667
 21
129.5688551504005
 31
0.0
  0
LINE
  5
3A4
330
1A
100
AcDbEntity
  8
NOKITOI
  6
PHANTOM
 62
     8
 48
5.0
100
AcDbLine
 10
260.7538691310668
 20
159.9065551504005
 30
0.0
 11
263.7468691310666
 21
129.9767551504004
 31
0.0
  0
ARC
  5
3A5
330
1A
100
AcDbEntity
  8
NOKITOI
  6
PHANTOM
 62
     8
 48
5.0
100
AcDbCircle
 10
263.5766917039358
 20
129.6683130787278
 30
0.0
 40
0.9999908507640039
100
AcDbArc
 50
185.7137670522468
 51
230.7112907769303
  0
ARC
  5
3A6
330
1A
100
AcDbEntity
  8
NOKITOI
  6
PHANTOM
 62
     8
 48
5.0
100
AcDbCircle
 10
264.2443865569447
 20
130.0264226640125
 30
0.0
 40
0.4999904508696396
100
AcDbArc
 50
185.7009889250754
 51
230.7099153622041
  0
ARC
  5
3A7
330
1A
100
AcDbEntity
  8
NOKITOI
  6
PHANTOM
 62
     8
 48
5.0
100
AcDbCircle
 10
258.6484650096597
 20
166.1567512403699
 30
0.0
 40
0.4999960899864752
100
AcDbArc
 50
270.0004722821405
 51
356.9852756208263
  0
ARC
  5
3A8
330
1A
100
AcDbEntity
  8
NOKITOI
  6
PHANTOM
 62
     8
 48
5.0
100
AcDbCircle
 10
256.3993589446304
 20
166.1567668951246
 30
0.0
 40
0.5000117448278309
100
AcDbArc
 50
171.8726853912841
 51
270.0011672521981
  0
ARC
  5
3A9
330
1A
100
AcDbEntity
  8
NOKITOI
  6
PHANTOM
 62
     8
 48
5.0
100
AcDbCircle
 10
256.1379000580028
 20
165.1567908950643
 30
0.0
 40
3.99998565374706
100
AcDbArc
 50
96.47577619531674
 51
181.7913033408985
  0
LINE
  5
3AA
330
1A
100
AcDbEntity
  8
NOKITOI
  6
PHANTOM
 62
     8
 48
5.0
100
AcDbLine
 10
250.6873691310665
 20
173.0942551504005
 30
0.0
 11
251.0774691310666
 21
160.6098551504004
 31
0.0
  0
ARC
  5
3AB
330
1A
100
AcDbEntity
  8
SEIHIN
  6
CONTINUOUS
 62
     3
 48
16.0
100
AcDbCircle
 10
256.0522684122522
 20
165.8253787632999
 30
0.0
 40
0.5000033100537672
100
AcDbArc
 50
164.0645900633768
 51
248.0389807919551
  0
ARC
  5
3AC
330
1A
100
AcDbEntity
  8
SEIHIN
  6
CONTINUOUS
 62
     3
 48
16.0
100
AcDbCircle
 10
256.2533055767497
 20
165.6455904754313
 30
0.0
 40
3.500044389771931
100
AcDbArc
 50
103.1930738365959
 51
181.5116848831864
  0
LINE
  5
3AD
330
1A
100
AcDbEntity
  8
NOKITOI
  6
PHANTOM
 62
     8
 48
5.0
100
AcDbLine
 10
252.5767691310668
 20
159.1567551504005
 30
0.0
 11
258.7178691310666
 21
159.1567551504005
 31
0.0
  0
ARC
  5
3AE
330
1A
100
AcDbEntity
  8
NOKITOI
  6
PHANTOM
 62
     8
 48
5.0
100
AcDbCircle
 10
254.2244311432423
 20
162.3566919709726
 30
0.0
 40
2.000036820932882
100
AcDbArc
 50
181.7889408725803
 51
270.001088250966
  0
ARC
  5
3AF
330
1A
100
AcDbEntity
  8
SEIHIN
  6
CONTINUOUS
 62
     3
 48
16.0
100
AcDbCircle
 10
255.7544793225874
 20
164.253256442928
 30
0.0
 40
3.000000000000071
100
AcDbArc
 50
179.9999999999997
 51
269.9999999999997
  0
ARC
  5
3B0
330
1A
100
AcDbEntity
  8
NOKITOI
  6
PHANTOM
 62
     8
 48
5.0
100
AcDbCircle
 10
252.5767519178886
 20
160.6567718335483
 30
0.0
 40
1.500016683246579
100
AcDbArc
 50
181.7923576755889
 51
270.0006574876651
  0
LINE
  5
3B1
330
1A
100
AcDbEntity
  8
NOKITOI
  6
PHANTOM
 62
     8
 48
5.0
100
AcDbLine
 10
252.2253691310666
 20
162.2941551504005
 30
0.0
 11
252.1398691310666
 21
165.0317551504003
 31
0.0
  0
LINE
  5
3B2
330
1A
100
AcDbEntity
  8
SEIHIN
  6
CONTINUOUS
 62
     3
 48
16.0
100
AcDbLine
 10
252.7544793225874
 20
165.553256442928
 30
0.0
 11
252.7544793225874
 21
164.253256442928
 31
0.0
  0
LINE
  5
3B3
330
1A
100
AcDbEntity
  8
NOKITOI
  6
PHANTOM
 62
     8
 48
5.0
100
AcDbLine
 10
258.6484691310666
 20
165.6567551504005
 30
0.0
 11
256.3993691310668
 21
165.6567551504005
 31
0.0
  0
ARC
  5
3B4
330
1A
100
AcDbEntity
  8
NOKITOI
  6
PHANTOM
 62
     8
 48
5.0
100
AcDbCircle
 10
258.7178484812255
 20
158.1567738382497
 30
0.0
 40
0.9999813123640345
100
AcDbArc
 50
5.709409966648967
 51
89.99881682915043
  0
LINE
  5
3B5
330
1A
100
AcDbEntity
  8
NOKITOI
  6
PHANTOM
 62
     8
 48
5.0
100
AcDbLine
 10
260.2563691310667
 20
160.3567551504004
 30
0.0
 11
254.2244691310666
 21
160.3567551504004
 31
0.0
  0
ARC
  5
3B6
330
1A
100
AcDbEntity
  8
NOKITOI
  6
PHANTOM
 62
     8
 48
5.0
100
AcDbCircle
 10
260.2563560600618
 20
159.8567669806803
 30
0.0
 40
0.499988169890889
100
AcDbArc
 50
5.703393862284335
 51
89.99850213773372
  0
ARC
  5
3B7
330
1A
100
AcDbEntity
  8
SEIHIN
  6
CONTINUOUS
 62
     3
 48
16.0
100
AcDbCircle
 10
257.4545920468293
 20
169.3030571222129
 30
0.0
 40
4.249771082082475
100
AcDbArc
 50
248.0389576229232
 51
298.0724105654601
  0
LINE
  5
3B8
330
1A
100
AcDbEntity
  8
SEIHIN
  6
CONTINUOUS
 62
     3
 48
16.0
100
AcDbLine
 10
255.7544793225874
 20
161.2532564429279
 30
0.0
 11
260.7544793225875
 21
161.2532564429279
 31
0.0
  0
ARC
  5
3B9
330
1A
100
AcDbEntity
  8
NOKITOI
  6
PHANTOM
 62
     8
 48
5.0
100
AcDbCircle
 10
256.1378869974177
 20
165.1567638787804
 30
0.0
 40
5.199991271650611
100
AcDbArc
 50
90.00019685927453
 51
142.074671395269
  0
LINE
  5
3BA
330
1A
100
AcDbEntity
  8
NOKITOI
  6
PHANTOM
 62
     8
 48
5.0
100
AcDbLine
 10
252.6863691310666
 20
173.9566551504003
 30
0.0
 11
255.1590691310667
 21
173.9567551504005
 31
0.0
  0
LINE
  5
3BB
330
1A
100
AcDbEntity
  8
NOKITOI
  6
PHANTOM
 62
     8
 48
5.0
100
AcDbLine
 10
252.6863691310666
 20
175.1566551504004
 30
0.0
 11
256.0129691310665
 21
175.1567551504003
 31
0.0
  0
LINE
  5
3BC
330
1A
100
AcDbEntity
  8
SEIHIN
  6
CONTINUOUS
 62
     3
 48
16.0
100
AcDbLine
 10
255.5714793225874
 20
165.962656442928
 30
0.0
 11
252.7675793225875
 21
165.962656442928
 31
0.0
  0
LINE
  5
3BD
330
1A
100
AcDbEntity
  8
NOKITOI
  6
PHANTOM
 62
     8
 48
5.0
100
AcDbLine
 10
251.8867691310668
 20
173.1317551504004
 30
0.0
 11
252.0360691310666
 21
168.3527551504005
 31
0.0
  0
ARC
  5
3BE
330
1A
100
AcDbEntity
  8
NOKITOI
  6
PHANTOM
 62
     8
 48
5.0
100
AcDbCircle
 10
252.6863803680611
 20
173.1567667442176
 30
0.0
 40
1.999988406214315
100
AcDbArc
 50
90.0003219180439
 51
181.791127346407
  0
ARC
  5
3BF
330
1A
100
AcDbEntity
  8
NOKITOI
  6
PHANTOM
 62
     8
 48
5.0
100
AcDbCircle
 10
252.6863251647136
 20
173.1567097879274
 30
0.0
 40
0.7999453636812564
100
AcDbArc
 50
89.99685092684627
 51
181.7876563552118
  0
LINE
  5
3C0
330
1A
100
AcDbEntity
  8
NOKITOI
  6
PHANTOM
 62
     8
 48
5.0
100
AcDbLine
 10
257.9843691310666
 20
166.8567551504005
 30
0.0
 11
258.1654691310667
 21
170.2981551504003
 31
0.0
  0
LINE
  5
3C1
330
1A
100
AcDbEntity
  8
NOKITOI
  6
PHANTOM
 62
     8
 48
5.0
100
AcDbLine
 10
257.6104691310667
 20
169.6851551504004
 30
0.0
 11
258.1654691310667
 21
170.2981551504003
 31
0.0
  0
LINE
  5
3C2
330
1A
100
AcDbEntity
  8
NOKITOI
  6
PHANTOM
 62
     8
 48
5.0
100
AcDbLine
 10
259.1477691310667
 20
166.1304551504005
 30
0.0
 11
259.4635691310666
 21
172.1304551504005
 31
0.0
  0
LINE
  5
3C3
330
1A
100
AcDbEntity
  8
NOKITOI
  6
PHANTOM
 62
     8
 48
5.0
100
AcDbLine
 10
257.2064691310667
 20
166.8567551504005
 30
0.0
 11
257.6104691310667
 21
169.6851551504004
 31
0.0
  0
LINE
  5
3C4
330
1A
100
AcDbEntity
  8
NOKITOI
  6
PHANTOM
 62
     8
 48
5.0
100
AcDbLine
 10
257.9843691310666
 20
166.8567551504005
 30
0.0
 11
257.2064691310667
 21
166.8567551504005
 31
0.0
  0
LINE
  5
3C5
330
1A
100
AcDbEntity
  8
NOKITOI
  6
PHANTOM
 62
     8
 48
5.0
100
AcDbLine
 10
255.9043691310668
 20
166.2274551504003
 30
0.0
 11
256.2381691310668
 21
168.5636551504005
 31
0.0
  0
ARC
  5
3C6
330
1A
100
AcDbEntity
  8
NOKITOI
  6
PHANTOM
 62
     8
 48
5.0
100
AcDbCircle
 10
255.7431397585667
 20
168.6343853828954
 30
0.0
 40
0.4999578477751074
100
AcDbArc
 50
351.8669438287075
 51
96.47390928779223
  0
ARC
  5
3C7
330
1A
100
AcDbEntity
  8
NOKITOI
  6
PHANTOM
 62
     8
 48
5.0
100
AcDbCircle
 10
256.7327699140748
 20
173.1567541953986
 30
0.0
 40
0.4999990449987399
100
AcDbArc
 50
168.6967198015449
 51
269.9999102736945
  0
ARC
  5
3C8
330
1A
100
AcDbEntity
  8
NOKITOI
  6
PHANTOM
 62
     8
 48
5.0
100
AcDbCircle
 10
256.0129763856224
 20
174.656746300557
 30
0.0
 40
0.500008849895925
100
AcDbArc
 50
348.6864043304882
 51
90.00083129614507
  0
LINE
  5
3C9
330
1A
100
AcDbEntity
  8
NOKITOI
  6
PHANTOM
 62
     8
 48
5.0
100
AcDbLine
 10
256.5998691310666
 20
170.3567551504004
 30
0.0
 11
256.1378691310666
 21
170.3567551504004
 31
0.0
  0
LINE
  5
3CA
330
1A
100
AcDbEntity
  8
NOKITOI
  6
PHANTOM
 62
     8
 48
5.0
100
AcDbLine
 10
254.6590691310667
 20
171.4567551504005
 30
0.0
 11
257.5956691310666
 21
171.4567551504005
 31
0.0
  0
LINE
  5
3CB
330
1A
100
AcDbEntity
  8
NOKITOI
  6
PHANTOM
 62
     8
 48
5.0
100
AcDbLine
 10
258.9642691310666
 20
172.6567551504005
 30
0.0
 11
256.7327691310666
 21
172.6567551504005
 31
0.0
  0
ARC
  5
3CC
330
1A
100
AcDbEntity
  8
NOKITOI
  6
PHANTOM
 62
     8
 48
5.0
100
AcDbCircle
 10
258.9642654215715
 20
172.1567590604311
 30
0.0
 40
0.4999960899831856
100
AcDbArc
 50
356.9843782585345
 51
89.99957491984867
  0
LINE
  5
3CD
330
1A
100
AcDbEntity
  8
NOKITOI
  6
PHANTOM
 62
     8
 48
5.0
100
AcDbLine
 10
256.5998691310666
 20
170.3567551504004
 30
0.0
 11
257.5956691310666
 21
171.4567551504005
 31
0.0
  0
LINE
  5
3CE
330
1A
100
AcDbEntity
  8
NOKITOI
  6
PHANTOM
 62
     8
 48
5.0
100
AcDbLine
 10
256.2424691310667
 20
173.2547551504005
 30
0.0
 11
256.5032691310666
 21
174.5587551504004
 31
0.0
  0
LINE
  5
3CF
330
1A
100
AcDbEntity
  8
NOKITOI
  6
PHANTOM
 62
     8
 48
5.0
100
AcDbLine
 10
255.1590691310667
 20
173.9567551504005
 30
0.0
 11
254.6590691310667
 21
171.4567551504005
 31
0.0
  0
LINE
  5
3D0
330
1A
100
AcDbEntity
  8
SEIHIN
  6
CONTINUOUS
 62
     3
 48
16.0
100
AcDbLine
 10
255.4544793225875
 20
169.0532564429279
 30
0.0
 11
255.7916793225875
 21
169.0532564429279
 31
0.0
  0
LINE
  5
3D1
330
1A
100
AcDbEntity
  8
SEIHIN
  6
CONTINUOUS
 62
     3
 48
16.0
100
AcDbLine
 10
256.2723793225875
 20
168.415856442928
 30
0.0
 11
255.5714793225874
 21
165.962656442928
 31
0.0
  0
ARC
  5
3D2
330
1A
100
AcDbEntity
  8
SEIHIN
  6
CONTINUOUS
 62
     3
 48
16.0
100
AcDbCircle
 10
255.7916609376957
 20
168.5532808191164
 30
0.0
 40
0.4999756241495849
100
AcDbArc
 50
344.0462004845009
 51
89.99789314386802
  0
ARC
  5
3D3
330
1A
100
AcDbEntity
  8
SEIHIN
  6
CONTINUOUS
 62
     3
 48
16.0
100
AcDbCircle
 10
382.7545793225875
 20
189.0532564429279
 30
0.0
 40
2.999999999999971
100
AcDbArc
 50
0.0000000000005428
 51
90.00000000000055
  0
LINE
  5
3D4
330
1A
100
AcDbEntity
  8
SEIHIN
  6
CONTINUOUS
 62
     3
 48
16.0
100
AcDbLine
 10
385.7545793225875
 20
192.5532564429279
 30
0.0
 11
385.7545793225875
 21
175.5532564429279
 31
0.0
  0
ARC
  5
3D5
330
1A
100
AcDbEntity
  8
SEIHIN
  6
CONTINUOUS
 62
     3
 48
16.0
100
AcDbCircle
 10
359.9278783092501
 20
188.5638578432831
 30
0.0
 40
0.9999670319553588
100
AcDbArc
 50
322.9421363117515
 51
108.8389786979456
  0
ARC
  5
3D6
330
1A
100
AcDbEntity
  8
SEIHIN
  6
CONTINUOUS
 62
     3
 48
16.0
100
AcDbCircle
 10
374.9384079192442
 20
144.5532047776701
 30
0.0
 40
47.50000554696216
100
AcDbArc
 50
108.832885755752
 51
142.9435902024712
  0
LINE
  5
3D7
330
1A
100
AcDbEntity
  8
SEIHIN
  6
CONTINUOUS
 62
     3
 48
16.0
100
AcDbLine
 10
359.8524793225875
 20
182.655856442928
 30
0.0
 11
366.1223793225875
 21
190.959356442928
 31
0.0
  0
LINE
  5
3D8
330
1A
100
AcDbEntity
  8
SEIHIN
  6
CONTINUOUS
 62
     3
 48
16.0
100
AcDbLine
 10
387.7545793225875
 20
144.931856442928
 30
0.0
 11
387.7545793225875
 21
194.553256442928
 31
0.0
  0
LINE
  5
3D9
330
1A
100
AcDbEntity
  8
SEIHIN
  6
CONTINUOUS
 62
     3
 48
16.0
100
AcDbLine
 10
391.7545793225875
 20
194.553256442928
 30
0.0
 11
391.7545793225875
 21
144.931856442928
 31
0.0
  0
ARC
  5
3DA
330
1A
100
AcDbEntity
  8
SEIHIN
  6
CONTINUOUS
 62
     3
 48
16.0
100
AcDbCircle
 10
374.9384741975432
 20
144.5532538908281
 30
0.0
 40
50.00000255210016
100
AcDbArc
 50
89.9999941271321
 51
142.9435181941769
  0
LINE
  5
3DB
330
1A
100
AcDbEntity
  8
SEIHIN
  6
CONTINUOUS
 62
     3
 48
16.0
100
AcDbLine
 10
339.9095793225874
 20
163.0532564429279
 30
0.0
 11
283.7060793225874
 21
163.0532564429279
 31
0.0
  0
ARC
  5
3DC
330
1A
100
AcDbEntity
  8
SEIHIN
  6
CONTINUOUS
 62
     3
 48
16.0
100
AcDbCircle
 10
335.2860707067027
 20
155.9301527705121
 30
0.0
 40
0.9999700420733793
100
AcDbArc
 50
263.2293722774627
 51
322.9426307700358
  0
LINE
  5
3DD
330
1A
100
AcDbEntity
  8
SEIHIN
  6
CONTINUOUS
 62
     3
 48
16.0
100
AcDbLine
 10
333.2830793225874
 20
165.553256442928
 30
0.0
 11
343.3075793225875
 21
165.553256442928
 31
0.0
  0
LINE
  5
3DE
330
1A
100
AcDbEntity
  8
SEIHIN
  6
CONTINUOUS
 62
     3
 48
16.0
100
AcDbLine
 10
332.4849793225874
 20
167.155856442928
 30
0.0
 11
337.0314793225874
 21
173.1768564429279
 31
0.0
  0
ARC
  5
3DF
330
1A
100
AcDbEntity
  8
NOKITOI
  6
PHANTOM
 62
     8
 48
5.0
100
AcDbCircle
 10
318.809285357524
 20
163.1567696267705
 30
0.0
 40
43.00001447645168
100
AcDbArc
 50
270.0001116248559
 51
353.4750892928819
  0
ARC
  5
3E0
330
1A
100
AcDbEntity
  8
NOKITOI
  6
PHANTOM
 62
     8
 48
5.0
100
AcDbCircle
 10
318.8092630490988
 20
163.156749525744
 30
0.0
 40
41.79999437547816
100
AcDbArc
 50
270.0001454078912
 51
355.525704787475
  0
LINE
  5
3E1
330
1A
100
AcDbEntity
  8
NOKITOI
  6
PHANTOM
 62
     8
 48
5.0
100
AcDbLine
 10
273.9798691310666
 20
120.1566551504004
 30
0.0
 11
318.8092691310667
 21
120.1567551504004
 31
0.0
  0
LINE
  5
3E2
330
1A
100
AcDbEntity
  8
NOKITOI
  6
PHANTOM
 62
     8
 48
5.0
100
AcDbLine
 10
318.8092691310667
 20
121.3567551504005
 30
0.0
 11
274.2296691310666
 21
121.3566551504004
 31
0.0
  0
LINE
  5
3E3
330
1A
100
AcDbEntity
  8
NOKITOI
  6
PHANTOM
 62
     8
 48
5.0
100
AcDbLine
 10
278.2296691310666
 20
121.3566551504004
 30
0.0
 11
298.1377691310665
 21
121.3566551504004
 31
0.0
  0
LINE
  5
3E4
330
1A
100
AcDbEntity
  8
NOKITOI
  6
PHANTOM
 62
     8
 48
5.0
100
AcDbLine
 10
277.9798691310666
 20
120.1566551504004
 30
0.0
 11
298.1377691310665
 21
120.1566551504004
 31
0.0
  0
ARC
  5
3E5
330
1A
100
AcDbEntity
  8
NOKITOI
  6
PHANTOM
 62
     8
 48
5.0
100
AcDbCircle
 10
274.2296627433181
 20
121.8566574303901
 30
0.0
 40
0.5000022800304047
100
AcDbArc
 50
230.7145501403941
 51
270.0007319787213
  0
ARC
  5
3E6
330
1A
100
AcDbEntity
  8
NOKITOI
  6
PHANTOM
 62
     8
 48
5.0
100
AcDbCircle
 10
273.9798760636439
 20
121.1566526753943
 30
0.0
 40
0.9999975250179316
100
AcDbArc
 50
230.7053583247701
 51
269.9996027915957
  0
LINE
  5
3E7
330
1A
100
AcDbEntity
  8
SEIHIN
  6
CONTINUOUS
 62
     3
 48
16.0
100
AcDbLine
 10
335.1681793225875
 20
154.9371564429279
 30
0.0
 11
283.5881793225875
 21
161.060156442928
 31
0.0
  0
ARC
  5
3E8
330
1A
100
AcDbEntity
  8
SEIHIN
  6
CONTINUOUS
 62
     3
 48
16.0
100
AcDbCircle
 10
283.7060771337529
 20
162.0532194392972
 30
0.0
 40
1.00003700363309
100
AcDbArc
 50
89.99987459366218
 51
263.2294569392955
  0
ARC
  5
3E9
330
1A
100
AcDbEntity
  8
SEIHIN
  6
CONTINUOUS
 62
     3
 48
16.0
100
AcDbCircle
 10
333.2830680720204
 20
166.5532790349176
 30
0.0
 40
1.000022592052884
100
AcDbArc
 50
142.9462625565121
 51
270.0006445954393
  0
ARC
  5
3EA
330
1A
100
AcDbEntity
  8
SEIHIN
  6
CONTINUOUS
 62
     3
 48
16.0
100
AcDbCircle
 10
325.6523657714607
 20
170.5532496949189
 30
0.0
 40
4.999993252009253
100
AcDbArc
 50
270.0001552846836
 51
322.9437017475611
  0
LINE
  5
3EB
330
1A
100
AcDbEntity
  8
SEIHIN
  6
CONTINUOUS
 62
     3
 48
16.0
100
AcDbLine
 10
335.0363793225875
 20
174.6833564429279
 30
0.0
 11
329.6425793225875
 21
167.540256442928
 31
0.0
  0
LINE
  5
3EC
330
1A
100
AcDbEntity
  8
SEIHIN
  6
CONTINUOUS
 62
     3
 48
16.0
100
AcDbLine
 10
382.7545793225875
 20
178.553256442928
 30
0.0
 11
366.7138793225873
 21
178.553256442928
 31
0.0
  0
LINE
  5
3ED
330
1A
100
AcDbEntity
  8
SEIHIN
  6
CONTINUOUS
 62
     3
 48
16.0
100
AcDbLine
 10
382.7545793225875
 20
181.053256442928
 30
0.0
 11
360.6504793225875
 21
181.053256442928
 31
0.0
  0
LINE
  5
3EE
330
1A
100
AcDbEntity
  8
SEIHIN
  6
CONTINUOUS
 62
     3
 48
16.0
100
AcDbLine
 10
363.7867793225875
 20
158.955656442928
 30
0.0
 11
375.2163793225875
 21
154.618356442928
 31
0.0
  0
LINE
  5
3EF
330
1A
100
AcDbEntity
  8
SEIHIN
  6
CONTINUOUS
 62
     3
 48
16.0
100
AcDbLine
 10
370.7505793225875
 20
150.824756442928
 30
0.0
 11
362.4299793225875
 21
156.300156442928
 31
0.0
  0
ARC
  5
3F0
330
1A
100
AcDbEntity
  8
NOKITOI
  6
PHANTOM
 62
     8
 48
5.0
100
AcDbCircle
 10
365.1076489183976
 20
165.1568138787805
 30
0.0
 40
5.2000412730095
100
AcDbArc
 50
37.92420092094385
 51
89.99867545693838
  0
ARC
  5
3F1
330
1A
100
AcDbEntity
  8
NOKITOI
  6
PHANTOM
 62
     8
 48
5.0
100
AcDbCircle
 10
365.10773124962
 20
165.1567989329258
 30
0.0
 40
3.999989731271038
100
AcDbArc
 50
358.2100163932691
 51
83.52268857986855
  0
LINE
  5
3F2
330
1A
100
AcDbEntity
  8
NOKITOI
  6
PHANTOM
 62
     8
 48
5.0
100
AcDbLine
 10
368.5593691310667
 20
175.1567551504003
 30
0.0
 11
365.2327691310666
 21
175.1567551504003
 31
0.0
  0
LINE
  5
3F3
330
1A
100
AcDbEntity
  8
NOKITOI
  6
PHANTOM
 62
     8
 48
5.0
100
AcDbLine
 10
368.5593691310667
 20
173.9567551504005
 30
0.0
 11
366.0865691310665
 21
173.9567551504005
 31
0.0
  0
LINE
  5
3F4
330
1A
100
AcDbEntity
  8
NOKITOI
  6
PHANTOM
 62
     8
 48
5.0
100
AcDbLine
 10
368.6689691310665
 20
159.1567551504005
 30
0.0
 11
362.5242691310666
 21
159.1567551504005
 31
0.0
  0
ARC
  5
3F5
330
1A
100
AcDbEntity
  8
NOKITOI
  6
PHANTOM
 62
     8
 48
5.0
100
AcDbCircle
 10
367.0212555589284
 20
162.356741995314
 30
0.0
 40
1.999986844959662
100
AcDbArc
 50
270.0003888156776
 51
358.2124468147636
  0
ARC
  5
3F6
330
1A
100
AcDbEntity
  8
SEIHIN
  6
CONTINUOUS
 62
     3
 48
16.0
100
AcDbCircle
 10
343.3075445595714
 20
166.5532391326284
 30
0.0
 40
0.999982690304597
100
AcDbArc
 50
270.0019918085895
 51
322.9441571624548
  0
LINE
  5
3F7
330
1A
100
AcDbEntity
  8
SEIHIN
  6
CONTINUOUS
 62
     3
 48
16.0
100
AcDbLine
 10
339.9149793225874
 20
156.252256442928
 30
0.0
 11
350.7529793225875
 21
170.605256442928
 31
0.0
  0
ARC
  5
3F8
330
1A
100
AcDbEntity
  8
NOKITOI
  6
PHANTOM
 62
     8
 48
5.0
100
AcDbCircle
 10
364.8463425304692
 20
166.1567244735183
 30
0.0
 40
0.4999693238254178
100
AcDbArc
 50
270.0030483909652
 51
8.144496122946778
  0
ARC
  5
3F9
330
1A
100
AcDbEntity
  8
NOKITOI
  6
PHANTOM
 62
     8
 48
5.0
100
AcDbCircle
 10
362.5972760180615
 20
166.1567486153149
 30
0.0
 40
0.499993464961963
100
AcDbArc
 50
183.0029638682573
 51
269.9992107982126
  0
ARC
  5
3FA
330
1A
100
AcDbEntity
  8
SEIHIN
  6
CONTINUOUS
 62
     3
 48
16.0
100
AcDbCircle
 10
353.913068886322
 20
158.3504392312392
 30
0.0
 40
2.000003477458815
100
AcDbArc
 50
92.67925038682692
 51
204.859254144603
  0
LINE
  5
3FB
330
1A
100
AcDbEntity
  8
SEIHIN
  6
CONTINUOUS
 62
     3
 48
16.0
100
AcDbLine
 10
338.2545793225876
 20
152.0532564429279
 30
0.0
 11
355.7538793225875
 21
156.7756564429281
 31
0.0
  0
ARC
  5
3FC
330
1A
100
AcDbEntity
  8
SEIHIN
  6
CONTINUOUS
 62
     3
 48
16.0
100
AcDbCircle
 10
351.9168969844162
 20
157.4255925945693
 30
0.0
 40
0.2000064240693311
100
AcDbArc
 50
283.0560678679253
 51
24.85389172580648
  0
LINE
  5
3FD
330
1A
100
AcDbEntity
  8
SEIHIN
  6
CONTINUOUS
 62
     3
 48
16.0
100
AcDbLine
 10
340.9388793225874
 20
154.675456442928
 30
0.0
 11
351.9620793225875
 21
157.230756442928
 31
0.0
  0
LINE
  5
3FE
330
1A
100
AcDbEntity
  8
SEIHIN
  6
CONTINUOUS
 62
     3
 48
16.0
100
AcDbLine
 10
340.7075793225875
 20
161.450656442928
 30
0.0
 11
336.0840793225875
 21
155.3275564429279
 31
0.0
  0
ARC
  5
3FF
330
1A
100
AcDbEntity
  8
SEIHIN
  6
CONTINUOUS
 62
     3
 48
16.0
100
AcDbCircle
 10
340.7130736609501
 20
155.6496651618839
 30
0.0
 40
1.000035411831535
100
AcDbArc
 50
142.9458211668723
 51
283.0497881998396
  0
ARC
  5
400
330
1A
100
AcDbEntity
  8
SEIHIN
  6
CONTINUOUS
 62
     3
 48
16.0
100
AcDbCircle
 10
339.909570702896
 20
162.0532737532276
 30
0.0
 40
0.9999826897374981
100
AcDbArc
 50
322.9416714733786
 51
89.99950611951369
  0
LINE
  5
401
330
1A
100
AcDbEntity
  8
SEIHIN
  6
CONTINUOUS
 62
     3
 48
16.0
100
AcDbLine
 10
354.6517793225875
 20
163.0804564429281
 30
0.0
 11
356.2098793225875
 21
157.5804564429281
 31
0.0
  0
ARC
  5
402
330
1A
100
AcDbEntity
  8
SEIHIN
  6
CONTINUOUS
 62
     3
 48
16.0
100
AcDbCircle
 10
355.5844651670582
 20
157.4032314614685
 30
0.0
 40
0.650039660320621
100
AcDbArc
 50
285.106928717787
 51
15.82125502289193
  0
LINE
  5
403
330
1A
100
AcDbEntity
  8
SEIHIN
  6
CONTINUOUS
 62
     3
 48
16.0
100
AcDbLine
 10
353.4009793225875
 20
162.726056442928
 30
0.0
 11
354.0025793225875
 21
160.602556442928
 31
0.0
  0
ARC
  5
404
330
1A
100
AcDbEntity
  8
SEIHIN
  6
CONTINUOUS
 62
     3
 48
16.0
100
AcDbCircle
 10
353.810160312859
 20
160.5480300323119
 30
0.0
 40
0.1999955118486214
100
AcDbArc
 50
272.6994066054186
 51
15.82131391091906
  0
ARC
  5
405
330
1A
100
AcDbEntity
  8
SEIHIN
  6
CONTINUOUS
 62
     3
 48
16.0
100
AcDbCircle
 10
354.0263793225875
 20
162.903256442928
 30
0.0
 40
0.650019230484773
100
AcDbArc
 50
15.81947663555054
 51
195.8194766355505
  0
ARC
  5
406
330
1A
100
AcDbEntity
  8
SEIHIN
  6
CONTINUOUS
 62
     3
 48
16.0
100
AcDbCircle
 10
363.2545593222185
 20
157.5532172983227
 30
0.0
 40
1.500031227379612
100
AcDbArc
 50
69.21844819899368
 51
236.6529790234506
  0
LINE
  5
407
330
1A
100
AcDbEntity
  8
NOKITOI
  6
PHANTOM
 62
     8
 48
5.0
100
AcDbLine
 10
362.5972691310667
 20
165.6567551504005
 30
0.0
 11
364.8463691310667
 21
165.6567551504005
 31
0.0
  0
LINE
  5
408
330
1A
100
AcDbEntity
  8
NOKITOI
  6
PHANTOM
 62
     8
 48
5.0
100
AcDbLine
 10
360.9803691310666
 20
160.3567551504004
 30
0.0
 11
367.0212691310666
 21
160.3567551504004
 31
0.0
  0
ARC
  5
409
330
1A
100
AcDbEntity
  8
NOKITOI
  6
PHANTOM
 62
     8
 48
5.0
100
AcDbCircle
 10
362.5242775552292
 20
158.1567626654569
 30
0.0
 40
0.9999924849789756
100
AcDbArc
 50
90.00048267259112
 51
173.4717353933255
  0
ARC
  5
40A
330
1A
100
AcDbEntity
  8
NOKITOI
  6
PHANTOM
 62
     8
 48
5.0
100
AcDbCircle
 10
360.9803565613582
 20
159.8567435256707
 30
0.0
 40
0.5000116248877111
100
AcDbArc
 50
89.99855965101662
 51
175.5251531916571
  0
ARC
  5
40B
330
1A
100
AcDbEntity
  8
SEIHIN
  6
CONTINUOUS
 62
     3
 48
16.0
100
AcDbCircle
 10
366.713873020679
 20
158.5532533048035
 30
0.0
 40
20.00000313812549
100
AcDbArc
 50
89.99998194636528
 51
142.9432997870778
  0
LINE
  5
40C
330
1A
100
AcDbEntity
  8
SEIHIN
  6
CONTINUOUS
 62
     3
 48
16.0
100
AcDbLine
 10
360.7258793225875
 20
187.961256442928
 30
0.0
 11
344.1055793225875
 21
165.950656442928
 31
0.0
  0
LINE
  5
40D
330
1A
100
AcDbEntity
  8
NOKITOI
  6
PHANTOM
 62
     8
 48
5.0
100
AcDbLine
 10
362.2814691310667
 20
172.6567551504005
 30
0.0
 11
364.5129691310666
 21
172.6567551504005
 31
0.0
  0
LINE
  5
40E
330
1A
100
AcDbEntity
  8
NOKITOI
  6
PHANTOM
 62
     8
 48
5.0
100
AcDbLine
 10
363.2613691310666
 20
166.8567551504005
 30
0.0
 11
363.0801691310667
 21
170.2982551504005
 31
0.0
  0
LINE
  5
40F
330
1A
100
AcDbEntity
  8
NOKITOI
  6
PHANTOM
 62
     8
 48
5.0
100
AcDbLine
 10
363.6351691310668
 20
169.6851551504004
 30
0.0
 11
363.0801691310667
 21
170.2982551504005
 31
0.0
  0
ARC
  5
410
330
1A
100
AcDbEntity
  8
NOKITOI
  6
PHANTOM
 62
     8
 48
5.0
100
AcDbCircle
 10
365.5025549126513
 20
168.6344405160995
 30
0.0
 40
0.5000073448410256
100
AcDbArc
 50
83.5217071700316
 51
188.1270521358757
  0
LINE
  5
411
330
1A
100
AcDbEntity
  8
NOKITOI
  6
PHANTOM
 62
     8
 48
5.0
100
AcDbLine
 10
365.3412691310666
 20
166.2275551504005
 30
0.0
 11
365.0075691310666
 21
168.5637551504005
 31
0.0
  0
LINE
  5
412
330
1A
100
AcDbEntity
  8
NOKITOI
  6
PHANTOM
 62
     8
 48
5.0
100
AcDbLine
 10
364.0392691310666
 20
166.8567551504005
 30
0.0
 11
363.6351691310668
 21
169.6851551504004
 31
0.0
  0
LINE
  5
413
330
1A
100
AcDbEntity
  8
NOKITOI
  6
PHANTOM
 62
     8
 48
5.0
100
AcDbLine
 10
363.2613691310666
 20
166.8567551504005
 30
0.0
 11
364.0392691310666
 21
166.8567551504005
 31
0.0
  0
ARC
  5
414
330
1A
100
AcDbEntity
  8
NOKITOI
  6
PHANTOM
 62
     8
 48
5.0
100
AcDbCircle
 10
364.5129763856223
 20
173.1567640002438
 30
0.0
 40
0.5000088498959383
100
AcDbArc
 50
269.9991687038565
 51
11.31359566951149
  0
LINE
  5
415
330
1A
100
AcDbEntity
  8
NOKITOI
  6
PHANTOM
 62
     8
 48
5.0
100
AcDbLine
 10
365.0032691310665
 20
173.2548551504004
 30
0.0
 11
364.7424691310668
 21
174.5587551504004
 31
0.0
  0
ARC
  5
416
330
1A
100
AcDbEntity
  8
NOKITOI
  6
PHANTOM
 62
     8
 48
5.0
100
AcDbCircle
 10
365.2327699140748
 20
174.6567561054022
 30
0.0
 40
0.4999990449987349
100
AcDbArc
 50
90.00008972630549
 51
191.3032801984551
  0
LINE
  5
417
330
1A
100
AcDbEntity
  8
NOKITOI
  6
PHANTOM
 62
     8
 48
5.0
100
AcDbLine
 10
366.5865691310666
 20
171.4567551504005
 30
0.0
 11
363.6500691310666
 21
171.4567551504005
 31
0.0
  0
LINE
  5
418
330
1A
100
AcDbEntity
  8
NOKITOI
  6
PHANTOM
 62
     8
 48
5.0
100
AcDbLine
 10
364.6458691310666
 20
170.3567551504004
 30
0.0
 11
365.1077691310667
 21
170.3567551504004
 31
0.0
  0
LINE
  5
419
330
1A
100
AcDbEntity
  8
NOKITOI
  6
PHANTOM
 62
     8
 48
5.0
100
AcDbLine
 10
364.6458691310666
 20
170.3567551504004
 30
0.0
 11
363.6500691310666
 21
171.4567551504005
 31
0.0
  0
LINE
  5
41A
330
1A
100
AcDbEntity
  8
NOKITOI
  6
PHANTOM
 62
     8
 48
5.0
100
AcDbLine
 10
366.0865691310665
 20
173.9567551504005
 30
0.0
 11
366.5865691310666
 21
171.4567551504005
 31
0.0
  0
LINE
  5
41B
330
1A
100
AcDbEntity
  8
NOKITOI
  6
PHANTOM
 62
     8
 48
5.0
100
AcDbLine
 10
362.0978691310666
 20
166.1305551504003
 30
0.0
 11
361.7820691310667
 21
172.1304551504005
 31
0.0
  0
ARC
  5
41C
330
1A
100
AcDbEntity
  8
NOKITOI
  6
PHANTOM
 62
     8
 48
5.0
100
AcDbCircle
 10
362.2814753322245
 20
172.1567616854857
 30
0.0
 40
0.4999934649531607
100
AcDbArc
 50
90.00071060961996
 51
183.0044636796616
  0
ARC
  5
41D
330
1A
100
AcDbEntity
  8
SEIHIN
  6
CONTINUOUS
 62
     3
 48
16.0
100
AcDbCircle
 10
360.650487942279
 20
182.0532391326283
 30
0.0
 40
0.9999826897375388
100
AcDbArc
 50
142.9416714733729
 51
269.9995061195088
  0
LINE
  5
41E
330
1A
100
AcDbEntity
  8
SEIHIN
  6
CONTINUOUS
 62
     3
 48
16.0
100
AcDbLine
 10
385.7545793225875
 20
175.5532564429279
 30
0.0
 11
385.7545793225875
 21
155.553256442928
 31
0.0
  0
LINE
  5
41F
330
1A
100
AcDbEntity
  8
NOKITOI
  6
PHANTOM
 62
     8
 48
5.0
100
AcDbLine
 10
370.5583691310666
 20
173.0942551504005
 30
0.0
 11
370.1681691310667
 21
160.6099551504004
 31
0.0
  0
ARC
  5
420
330
1A
100
AcDbEntity
  8
SEIHIN
  6
CONTINUOUS
 62
     3
 48
16.0
100
AcDbCircle
 10
375.7545793223376
 20
164.552956442678
 30
0.0
 40
10.00000000024995
100
AcDbArc
 50
269.9994270436367
 51
0.0000000014321351
  0
ARC
  5
421
330
1A
100
AcDbEntity
  8
SEIHIN
  6
CONTINUOUS
 62
     3
 48
16.0
100
AcDbCircle
 10
384.7545793225875
 20
155.5532564429279
 30
0.0
 40
1.000000000000028
100
AcDbArc
 50
270.0000000000016
 51
0.0000000000016284
  0
LINE
  5
422
330
1A
100
AcDbEntity
  8
SEIHIN
  6
CONTINUOUS
 62
     3
 48
16.0
100
AcDbLine
 10
385.2545793225875
 20
147.531856442928
 30
0.0
 11
381.7447793225874
 21
147.531856442928
 31
0.0
  0
ARC
  5
423
330
1A
100
AcDbEntity
  8
SEIHIN
  6
CONTINUOUS
 62
     3
 48
16.0
100
AcDbCircle
 10
384.7545793225875
 20
150.5532564429279
 30
0.0
 40
1.000000000000028
100
AcDbArc
 50
359.9999999999983
 51
89.99999999999836
  0
LINE
  5
424
330
1A
100
AcDbEntity
  8
SEIHIN
  6
CONTINUOUS
 62
     3
 48
16.0
100
AcDbLine
 10
384.7545793225875
 20
151.553256442928
 30
0.0
 11
370.8415793225873
 21
151.553256442928
 31
0.0
  0
ARC
  5
425
330
1A
100
AcDbEntity
  8
SEIHIN
  6
CONTINUOUS
 62
     3
 48
16.0
100
AcDbCircle
 10
381.7447950127173
 20
167.5318517435517
 30
0.0
 40
19.9999953006299
100
AcDbArc
 50
236.6528172994241
 51
269.9999550510781
  0
ARC
  5
426
330
1A
100
AcDbEntity
  8
SEIHIN
  6
CONTINUOUS
 62
     3
 48
16.0
100
AcDbCircle
 10
370.8416470588912
 20
155.5532361553249
 30
0.0
 40
3.999979712970344
100
AcDbArc
 50
236.6522131385947
 51
269.9990297439962
  0
LINE
  5
427
330
1A
100
AcDbEntity
  8
SEIHIN
  6
CONTINUOUS
 62
     3
 48
16.0
100
AcDbLine
 10
384.7545793225875
 20
154.5532564429279
 30
0.0
 11
375.5711793225875
 21
154.5532564429279
 31
0.0
  0
ARC
  5
428
330
1A
100
AcDbEntity
  8
SEIHIN
  6
CONTINUOUS
 62
     3
 48
16.0
100
AcDbCircle
 10
375.5712869608721
 20
155.5532367050384
 30
0.0
 40
0.9999802679035244
100
AcDbArc
 50
249.2117869528821
 51
269.9938326588708
  0
ARC
  5
429
330
1A
100
AcDbEntity
  8
NOKITOI
  6
PHANTOM
 62
     8
 48
5.0
100
AcDbCircle
 10
368.6689331719157
 20
160.6567202962572
 30
0.0
 40
1.499965146287778
100
AcDbArc
 50
270.0013735703023
 51
358.2133719782232
  0
LINE
  5
42A
330
1A
100
AcDbEntity
  8
NOKITOI
  6
PHANTOM
 62
     8
 48
5.0
100
AcDbLine
 10
369.0202691310667
 20
162.2943551504005
 30
0.0
 11
369.1057691310666
 21
165.0318551504003
 31
0.0
  0
LINE
  5
42B
330
1A
100
AcDbEntity
  8
SEIHIN
  6
CONTINUOUS
 62
     3
 48
16.0
100
AcDbLine
 10
385.7545793225875
 20
155.553256442928
 30
0.0
 11
385.7545793225875
 21
146.931856442928
 31
0.0
  0
LINE
  5
42C
330
1A
100
AcDbEntity
  8
SEIHIN
  6
CONTINUOUS
 62
     3
 48
16.0
100
AcDbLine
 10
387.7544793225873
 20
144.931856442928
 30
0.0
 11
391.7544793225873
 21
144.931856442928
 31
0.0
  0
LINE
  5
42D
330
1A
100
AcDbEntity
  8
SEIHIN
  6
CONTINUOUS
 62
     3
 48
16.0
100
AcDbLine
 10
387.7544793225873
 20
144.931856442928
 30
0.0
 11
385.7544793225873
 21
146.931856442928
 31
0.0
  0
ARC
  5
42E
330
1A
100
AcDbEntity
  8
SEIHIN
  6
CONTINUOUS
 62
     3
 48
16.0
100
AcDbCircle
 10
385.2545793225875
 20
147.031856442928
 30
0.0
 40
0.5
100
AcDbArc
 50
0.0
 51
90.0
  0
ARC
  5
42F
330
1A
100
AcDbEntity
  8
SEIHIN
  6
CONTINUOUS
 62
     3
 48
16.0
100
AcDbCircle
 10
382.7545793225875
 20
184.0532564429279
 30
0.0
 40
3.0
100
AcDbArc
 50
270.0
 51
0.0
  0
ARC
  5
430
330
1A
100
AcDbEntity
  8
SEIHIN
  6
CONTINUOUS
 62
     3
 48
16.0
100
AcDbCircle
 10
382.7545793225875
 20
175.5532564429279
 30
0.0
 40
3.000000000000028
100
AcDbArc
 50
359.9999999999994
 51
89.99999999999944
  0
LINE
  5
431
330
1A
100
AcDbEntity
  8
NOKITOI
  6
PHANTOM
 62
     8
 48
5.0
100
AcDbLine
 10
369.3589691310666
 20
173.1317551504004
 30
0.0
 11
369.2095691310667
 21
168.3528551504005
 31
0.0
  0
ARC
  5
432
330
1A
100
AcDbEntity
  8
NOKITOI
  6
PHANTOM
 62
     8
 48
5.0
100
AcDbCircle
 10
368.5593646362688
 20
173.1567597879273
 30
0.0
 40
0.7999953624857498
100
AcDbArc
 50
358.20887265358
 51
89.99967808194661
  0
ARC
  5
433
330
1A
100
AcDbEntity
  8
NOKITOI
  6
PHANTOM
 62
     8
 48
5.0
100
AcDbCircle
 10
368.5593563802164
 20
173.1567683054869
 30
0.0
 40
1.999986844954076
100
AcDbArc
 50
358.21169271173
 51
89.99963471264475
  0
LINE
  5
434
330
1A
100
AcDbEntity
  8
NOKITOI
  6
PHANTOM
 62
     8
 48
5.0
100
AcDbLine
 10
343.015968669377
 20
245.2440560890297
 30
0.0
 11
323.107868669377
 21
245.2440560890297
 31
0.0
  0
LINE
  5
435
330
1A
100
AcDbEntity
  8
NOKITOI
  6
PHANTOM
 62
     8
 48
5.0
100
AcDbLine
 10
343.265768669377
 20
244.0440560890297
 30
0.0
 11
323.107868669377
 21
244.0440560890297
 31
0.0
  0
LINE
  5
436
330
1A
100
AcDbEntity
  8
NOKITOI
  6
PHANTOM
 62
     8
 48
5.0
100
AcDbLine
 10
347.265768669377
 20
244.0440560890297
 30
0.0
 11
302.4363686693769
 21
244.0441560890298
 31
0.0
  0
LINE
  5
437
330
1A
100
AcDbEntity
  8
NOKITOI
  6
PHANTOM
 62
     8
 48
5.0
100
AcDbLine
 10
302.4363686693769
 20
245.2441560890298
 30
0.0
 11
347.015968669377
 21
245.2440560890297
 31
0.0
  0
ARC
  5
438
330
1A
100
AcDbEntity
  8
SEIHIN
  6
CONTINUOUS
 62
     3
 48
16.0
100
AcDbCircle
 10
374.938698390711
 20
144.5532754723567
 30
0.0
 40
47.49998097107649
100
AcDbArc
 50
90.00026424597752
 51
99.92937621573574
  0
ARC
  5
439
330
1A
100
AcDbEntity
  8
SEIHIN
  6
CONTINUOUS
 62
     3
 48
16.0
100
AcDbCircle
 10
366.9203957753312
 20
190.3567053721077
 30
0.0
 40
1.000009285962086
100
AcDbArc
 50
99.92243683737385
 51
142.9403983020246
  0
LINE
  5
43A
330
1A
100
AcDbEntity
  8
SEIHIN
  6
CONTINUOUS
 62
     3
 48
16.0
100
AcDbLine
 10
374.9384793225875
 20
194.553256442928
 30
0.0
 11
391.7545793225875
 21
194.553256442928
 31
0.0
  0
LINE
  5
43B
330
1A
100
AcDbEntity
  8
SEIHIN
  6
CONTINUOUS
 62
     3
 48
16.0
100
AcDbLine
 10
374.9384793225875
 20
192.0532564429279
 30
0.0
 11
382.7545793225875
 21
192.0532564429279
 31
0.0
  0
LINE
  5
43C
330
1A
100
AcDbEntity
  8
SEIHIN
  6
CONTINUOUS
 62
     3
 48
16.0
100
AcDbLine
 10
387.7545793225875
 20
194.553256442928
 30
0.0
 11
385.7545793225875
 21
192.5532564429279
 31
0.0
  0
LINE
  5
43D
330
1A
100
AcDbEntity
  8
NOKITOI
  6
PHANTOM
 62
     8
 48
5.0
100
AcDbLine
 10
358.302168669377
 20
252.7817560890298
 30
0.0
 11
347.899068669377
 21
244.2700560890298
 31
0.0
  0
LINE
  5
43E
330
1A
100
AcDbEntity
  8
NOKITOI
  6
PHANTOM
 62
     8
 48
5.0
100
AcDbLine
 10
357.317868669377
 20
253.5268560890297
 30
0.0
 11
347.3325686693769
 21
245.3570560890296
 31
0.0
  0
ARC
  5
43F
330
1A
100
AcDbEntity
  8
NOKITOI
  6
PHANTOM
 62
     8
 48
5.0
100
AcDbCircle
 10
347.0159750571255
 20
245.7440583690194
 30
0.0
 40
0.5000022800304047
100
AcDbArc
 50
269.9992680212786
 51
309.2854498596058
  0
ARC
  5
440
330
1A
100
AcDbEntity
  8
NOKITOI
  6
PHANTOM
 62
     8
 48
5.0
100
AcDbCircle
 10
347.2657617367997
 20
245.0440536140236
 30
0.0
 40
0.9999975250179316
100
AcDbArc
 50
270.0003972084043
 51
309.2946416752298
  0
ARC
  5
441
330
1A
100
AcDbEntity
  8
NOKITOI
  6
PHANTOM
 62
     8
 48
5.0
100
AcDbCircle
 10
357.6689460965078
 20
253.5557140173571
 30
0.0
 40
0.9999908507640039
100
AcDbArc
 50
309.2887092230696
 51
354.2862329477531
  0
ARC
  5
442
330
1A
100
AcDbEntity
  8
NOKITOI
  6
PHANTOM
 62
     8
 48
5.0
100
AcDbCircle
 10
357.0012512434988
 20
253.9138236026418
 30
0.0
 40
0.4999904508696396
100
AcDbArc
 50
309.2900846377958
 51
354.2990110749245
  0
LINE
  5
443
330
1A
100
AcDbEntity
  8
SEIHIN
  6
CONTINUOUS
 62
     3
 48
16.0
100
AcDbLine
 10
385.7545793225875
 20
471.0617254086682
 30
0.0
 11
385.7545793225875
 21
456.5617254086681
 31
0.0
  0
LINE
  5
444
330
1A
100
AcDbEntity
  8
SEIHIN
  6
CONTINUOUS
 62
     3
 48
16.0
100
AcDbLine
 10
391.7545793225875
 20
473.0617254086682
 30
0.0
 11
391.7545793225875
 21
441.5618254086681
 31
0.0
  0
LINE
  5
445
330
1A
100
AcDbEntity
  8
SEIHIN
  6
CONTINUOUS
 62
     3
 48
16.0
100
AcDbLine
 10
387.7545793225875
 20
473.0617254086682
 30
0.0
 11
387.7545793225875
 21
456.5617254086681
 31
0.0
  0
DIMENSION
  5
446
330
1A
100
AcDbEntity
  8
SUNPOU
100
AcDbDimension
  2
*D3
 10
391.7545793225875
 20
355.6668458389387
 30
0.0
 11
322.2545293225875
 21
360.6668458389387
 31
0.0
 70
    32
  3
STANDARD
100
AcDbAlignedDimension
 13
252.7544793225874
 23
288.1406573815573
 33
0.0
 14
391.7545793225875
 24
318.4406573815572
 34
0.0
100
AcDbRotatedDimension
1001
ACAD
1000
DSTYLE
1002
{
1070
   140
1040
6.0
1070
    74
1070
     0
1070
   172
1070
     1
1070
    73
1070
     0
1070
   272
1070
     2
1070
    77
1070
     3
1070
   173
1070
     1
1070
   147
1040
2.0
1070
    42
1040
6.0
1070
    44
1040
3.0
1070
    43
1040
14.0
1070
   271
1070
     0
1070
   178
1070
     4
1070
   177
1070
     4
1070
   176
1070
     4
1070
   141
1040
150.0
1070
     7
1000
_OPEN
1070
     6
1000
_OPEN
1070
    41
1040
7.0
1002
}
  0
DIMENSION
  5
447
330
1A
100
AcDbEntity
  8
SUNPOU
100
AcDbDimension
  2
*D4
 10
227.3553545647194
 20
318.4406573815572
 30
0.0
 11
222.3553545647194
 21
305.68939104152
 31
0.0
 70
    32
  3
STANDARD
100
AcDbAlignedDimension
 13
255.8419216825175
 23
292.9381247014827
 33
0.0
 14
374.9384793225875
 24
318.4406573815572
 34
0.0
 50
90.0
100
AcDbRotatedDimension
1001
ACAD
1000
DSTYLE
1002
{
1070
   140
1040
6.0
1070
    74
1070
     0
1070
   172
1070
     1
1070
    73
1070
     0
1070
   272
1070
     2
1070
    77
1070
     3
1070
   173
1070
     1
1070
   147
1040
2.0
1070
    42
1040
6.0
1070
    44
1040
3.0
1070
    43
1040
14.0
1070
   271
1070
     0
1070
   178
1070
     4
1070
   177
1070
     4
1070
   176
1070
     4
1070
   141
1040
150.0
1070
     7
1000
_OPEN
1070
     6
1000
_OPEN
1070
    41
1040
7.0
1002
}
  0
LINE
  5
448
330
1A
100
AcDbEntity
  8
SEIHIN
  6
CONTINUOUS
 62
     3
 48
16.0
100
AcDbLine
 10
256.4544793225875
 20
431.5617254086681
 30
0.0
 11
382.7545793225875
 21
431.5617254086681
 31
0.0
  0
LINE
  5
449
330
1A
100
AcDbEntity
  8
SEIHIN
  6
CONTINUOUS
 62
     3
 48
16.0
100
AcDbLine
 10
256.4544793225875
 20
451.5617254086681
 30
0.0
 11
382.7545793225875
 21
451.5617254086681
 31
0.0
  0
LINE
  5
44A
330
1A
100
AcDbEntity
  8
SEIHIN
  6
CONTINUOUS
 62
     3
 48
16.0
100
AcDbLine
 10
259.4544793225874
 20
289.4406573815573
 30
0.0
 11
325.6523793225875
 21
289.4406573815573
 31
0.0
  0
LINE
  5
44B
330
1A
100
AcDbEntity
  8
SEIHIN
  6
CONTINUOUS
 62
     3
 48
16.0
100
AcDbLine
 10
260.7544793225875
 20
285.1406573815572
 30
0.0
 11
338.2545793225876
 21
275.9406573815573
 31
0.0
  0
LINE
  5
44C
330
1A
100
AcDbEntity
  8
CENTER_L
  6
CENTER
 62
     1
 48
5.0
100
AcDbLine
 10
245.8285793225875
 20
441.5617254086681
 30
0.0
 11
396.3318793225875
 21
441.5617254086681
 31
0.0
  0
LINE
  5
44D
330
1A
100
AcDbEntity
  8
NOKITOI
  6
PHANTOM
 62
     8
 48
5.0
100
AcDbLine
 10
252.2253686693768
 20
286.1817560890298
 30
0.0
 11
252.1398686693769
 21
288.9192560890296
 31
0.0
  0
LINE
  5
44E
330
1A
100
AcDbEntity
  8
NOKITOI
  6
PHANTOM
 62
     8
 48
5.0
100
AcDbLine
 10
250.6872686693769
 20
296.9816560890297
 30
0.0
 11
251.0774686693769
 21
284.4973560890297
 31
0.0
  0
LINE
  5
44F
330
1A
100
AcDbEntity
  8
SEIHIN
  6
CONTINUOUS
 62
     3
 48
16.0
100
AcDbLine
 10
252.7544793225874
 20
289.4406573815573
 30
0.0
 11
252.7544793225874
 21
288.1406573815573
 31
0.0
  0
LINE
  5
450
330
1A
100
AcDbEntity
  8
NOKITOI
  6
PHANTOM
 62
     8
 48
5.0
100
AcDbLine
 10
252.576668669377
 20
283.0441560890298
 30
0.0
 11
258.7213686693769
 21
283.0441560890298
 31
0.0
  0
ARC
  5
451
330
1A
100
AcDbEntity
  8
NOKITOI
  6
PHANTOM
 62
     8
 48
5.0
100
AcDbCircle
 10
254.2243822415151
 20
286.2441429339432
 30
0.0
 40
1.999986844959662
100
AcDbArc
 50
181.7875531852363
 51
269.9996111843223
  0
ARC
  5
452
330
1A
100
AcDbEntity
  8
SEIHIN
  6
CONTINUOUS
 62
     3
 48
16.0
100
AcDbCircle
 10
255.7544793225874
 20
288.1406573815573
 30
0.0
 40
3.000000000000071
100
AcDbArc
 50
179.9999999999997
 51
269.9999999999997
  0
ARC
  5
453
330
1A
100
AcDbEntity
  8
NOKITOI
  6
PHANTOM
 62
     8
 48
5.0
100
AcDbCircle
 10
252.5767046285278
 20
284.5441212348865
 30
0.0
 40
1.499965146287778
100
AcDbArc
 50
181.7866280217767
 51
269.9986264296976
  0
LINE
  5
454
330
1A
100
AcDbEntity
  8
NOKITOI
  6
PHANTOM
 62
     8
 48
5.0
100
AcDbLine
 10
260.2652686693769
 20
284.2441560890297
 30
0.0
 11
254.2243686693769
 21
284.2441560890297
 31
0.0
  0
ARC
  5
455
330
1A
100
AcDbEntity
  8
NOKITOI
  6
PHANTOM
 62
     8
 48
5.0
100
AcDbCircle
 10
260.2652812390853
 20
283.7441444643
 30
0.0
 40
0.5000116248877111
100
AcDbArc
 50
4.474846808342897
 51
90.00144034898337
  0
ARC
  5
456
330
1A
100
AcDbEntity
  8
NOKITOI
  6
PHANTOM
 62
     8
 48
5.0
100
AcDbCircle
 10
258.7213602452143
 20
282.0441636040862
 30
0.0
 40
0.9999924849789756
100
AcDbArc
 50
6.528264606674428
 51
89.99951732740891
  0
LINE
  5
457
330
1A
100
AcDbEntity
  8
SEIHIN
  6
CONTINUOUS
 62
     3
 48
16.0
100
AcDbLine
 10
255.7544793225874
 20
285.1406573815572
 30
0.0
 11
260.7544793225875
 21
285.1406573815572
 31
0.0
  0
LINE
  5
458
330
1A
100
AcDbEntity
  8
NOKITOI
  6
PHANTOM
 62
     8
 48
5.0
100
AcDbLine
 10
252.6862686693768
 20
299.0441560890296
 30
0.0
 11
256.012868669377
 21
299.0441560890296
 31
0.0
  0
LINE
  5
459
330
1A
100
AcDbEntity
  8
NOKITOI
  6
PHANTOM
 62
     8
 48
5.0
100
AcDbLine
 10
252.6862686693768
 20
297.8441560890298
 30
0.0
 11
255.159068669377
 21
297.8441560890298
 31
0.0
  0
ARC
  5
45A
330
1A
100
AcDbEntity
  8
NOKITOI
  6
PHANTOM
 62
     8
 48
5.0
100
AcDbCircle
 10
256.1379888820459
 20
289.0442148174098
 30
0.0
 40
5.2000412730095
100
AcDbArc
 50
90.00132454306161
 51
142.0757990790561
  0
ARC
  5
45B
330
1A
100
AcDbEntity
  8
NOKITOI
  6
PHANTOM
 62
     8
 48
5.0
100
AcDbCircle
 10
256.1379065508235
 20
289.0441998715551
 30
0.0
 40
3.999989731271038
100
AcDbArc
 50
96.47731142013144
 51
181.7899836067308
  0
LINE
  5
45C
330
1A
100
AcDbEntity
  8
SEIHIN
  6
CONTINUOUS
 62
     3
 48
16.0
100
AcDbLine
 10
255.5714793225874
 20
289.8500573815573
 30
0.0
 11
252.7675793225875
 21
289.8500573815573
 31
0.0
  0
ARC
  5
45D
330
1A
100
AcDbEntity
  8
SEIHIN
  6
CONTINUOUS
 62
     3
 48
16.0
100
AcDbCircle
 10
256.2533055767497
 20
289.5329914140606
 30
0.0
 40
3.500044389771931
100
AcDbArc
 50
103.1930738365959
 51
181.5116848831864
  0
ARC
  5
45E
330
1A
100
AcDbEntity
  8
NOKITOI
  6
PHANTOM
 62
     8
 48
5.0
100
AcDbCircle
 10
252.6862731641747
 20
297.0441607265566
 30
0.0
 40
0.7999953624857498
100
AcDbArc
 50
90.00032191805336
 51
181.7911273464199
  0
LINE
  5
45F
330
1A
100
AcDbEntity
  8
NOKITOI
  6
PHANTOM
 62
     8
 48
5.0
100
AcDbLine
 10
251.8866686693769
 20
297.0191560890297
 30
0.0
 11
252.0360686693768
 21
292.2402560890298
 31
0.0
  0
ARC
  5
460
330
1A
100
AcDbEntity
  8
NOKITOI
  6
PHANTOM
 62
     8
 48
5.0
100
AcDbCircle
 10
252.6862814202271
 20
297.0441692441162
 30
0.0
 40
1.999986844954076
100
AcDbArc
 50
90.00036528735526
 51
181.7883072882699
  0
ARC
  5
461
330
1A
100
AcDbEntity
  8
NOKITOI
  6
PHANTOM
 62
     8
 48
5.0
100
AcDbCircle
 10
258.9641624682191
 20
296.044162624115
 30
0.0
 40
0.4999934649531607
100
AcDbArc
 50
356.9955363203384
 51
89.99928939038005
  0
ARC
  5
462
330
1A
100
AcDbEntity
  8
NOKITOI
  6
PHANTOM
 62
     8
 48
5.0
100
AcDbCircle
 10
256.7326614148212
 20
297.0441649388731
 30
0.0
 40
0.5000088498959383
100
AcDbArc
 50
168.6864043304884
 51
270.0008312961434
  0
LINE
  5
463
330
1A
100
AcDbEntity
  8
NOKITOI
  6
PHANTOM
 62
     8
 48
5.0
100
AcDbLine
 10
256.242368669377
 20
297.1422560890297
 30
0.0
 11
256.5031686693767
 21
298.4461560890297
 31
0.0
  0
ARC
  5
464
330
1A
100
AcDbEntity
  8
NOKITOI
  6
PHANTOM
 62
     8
 48
5.0
100
AcDbCircle
 10
256.0128678863687
 20
298.5441570440315
 30
0.0
 40
0.4999990449987349
100
AcDbArc
 50
348.6967198015448
 51
89.99991027369452
  0
LINE
  5
465
330
1A
100
AcDbEntity
  8
NOKITOI
  6
PHANTOM
 62
     8
 48
5.0
100
AcDbLine
 10
258.9641686693768
 20
296.5441560890297
 30
0.0
 11
256.7326686693769
 21
296.5441560890297
 31
0.0
  0
LINE
  5
466
330
1A
100
AcDbEntity
  8
NOKITOI
  6
PHANTOM
 62
     8
 48
5.0
100
AcDbLine
 10
254.6590686693769
 20
295.3441560890298
 30
0.0
 11
257.5955686693769
 21
295.3441560890298
 31
0.0
  0
ARC
  5
467
330
1A
100
AcDbEntity
  8
NOKITOI
  6
PHANTOM
 62
     8
 48
5.0
100
AcDbCircle
 10
255.7430828877922
 20
292.5218414547288
 30
0.0
 40
0.5000073448410256
100
AcDbArc
 50
351.8729478641243
 51
96.47829282996843
  0
LINE
  5
468
330
1A
100
AcDbEntity
  8
NOKITOI
  6
PHANTOM
 62
     8
 48
5.0
100
AcDbLine
 10
257.984268669377
 20
290.7441560890298
 30
0.0
 11
258.1654686693768
 21
294.1856560890298
 31
0.0
  0
ARC
  5
469
330
1A
100
AcDbEntity
  8
NOKITOI
  6
PHANTOM
 62
     8
 48
5.0
100
AcDbCircle
 10
258.648361782382
 20
290.0441495539443
 30
0.0
 40
0.499993464961963
100
AcDbArc
 50
270.0007892017873
 51
356.9970361317427
  0
LINE
  5
46A
330
1A
100
AcDbEntity
  8
NOKITOI
  6
PHANTOM
 62
     8
 48
5.0
100
AcDbLine
 10
257.6104686693768
 20
293.5725560890297
 30
0.0
 11
258.1654686693768
 21
294.1856560890298
 31
0.0
  0
LINE
  5
46B
330
1A
100
AcDbEntity
  8
NOKITOI
  6
PHANTOM
 62
     8
 48
5.0
100
AcDbLine
 10
255.9043686693769
 20
290.1149560890298
 30
0.0
 11
256.2380686693769
 21
292.4511560890298
 31
0.0
  0
ARC
  5
46C
330
1A
100
AcDbEntity
  8
NOKITOI
  6
PHANTOM
 62
     8
 48
5.0
100
AcDbCircle
 10
256.3992952699743
 20
290.0441254121476
 30
0.0
 40
0.4999693238254178
100
AcDbArc
 50
171.8555038770532
 51
269.9969516090348
  0
LINE
  5
46D
330
1A
100
AcDbEntity
  8
NOKITOI
  6
PHANTOM
 62
     8
 48
5.0
100
AcDbLine
 10
256.599768669377
 20
294.2441560890297
 30
0.0
 11
256.1378686693768
 21
294.2441560890297
 31
0.0
  0
LINE
  5
46E
330
1A
100
AcDbEntity
  8
NOKITOI
  6
PHANTOM
 62
     8
 48
5.0
100
AcDbLine
 10
257.2063686693769
 20
290.7441560890298
 30
0.0
 11
257.6104686693768
 21
293.5725560890297
 31
0.0
  0
LINE
  5
46F
330
1A
100
AcDbEntity
  8
NOKITOI
  6
PHANTOM
 62
     8
 48
5.0
100
AcDbLine
 10
258.6483686693768
 20
289.5441560890298
 30
0.0
 11
256.3992686693768
 21
289.5441560890298
 31
0.0
  0
LINE
  5
470
330
1A
100
AcDbEntity
  8
NOKITOI
  6
PHANTOM
 62
     8
 48
5.0
100
AcDbLine
 10
257.984268669377
 20
290.7441560890298
 30
0.0
 11
257.2063686693769
 21
290.7441560890298
 31
0.0
  0
LINE
  5
471
330
1A
100
AcDbEntity
  8
NOKITOI
  6
PHANTOM
 62
     8
 48
5.0
100
AcDbLine
 10
256.599768669377
 20
294.2441560890297
 30
0.0
 11
257.5955686693769
 21
295.3441560890298
 31
0.0
  0
LINE
  5
472
330
1A
100
AcDbEntity
  8
NOKITOI
  6
PHANTOM
 62
     8
 48
5.0
100
AcDbLine
 10
255.159068669377
 20
297.8441560890298
 30
0.0
 11
254.6590686693769
 21
295.3441560890298
 31
0.0
  0
LINE
  5
473
330
1A
100
AcDbEntity
  8
NOKITOI
  6
PHANTOM
 62
     8
 48
5.0
100
AcDbLine
 10
259.147768669377
 20
290.0179560890297
 30
0.0
 11
259.4635686693768
 21
296.0178560890298
 31
0.0
  0
LINE
  5
474
330
1A
100
AcDbEntity
  8
SEIHIN
  6
CONTINUOUS
 62
     3
 48
16.0
100
AcDbLine
 10
255.4544793225875
 20
292.9406573815573
 30
0.0
 11
255.7916793225875
 21
292.9406573815573
 31
0.0
  0
LINE
  5
475
330
1A
100
AcDbEntity
  8
SEIHIN
  6
CONTINUOUS
 62
     3
 48
16.0
100
AcDbLine
 10
256.2723793225875
 20
292.3032573815573
 30
0.0
 11
255.5714793225874
 21
289.8500573815573
 31
0.0
  0
ARC
  5
476
330
1A
100
AcDbEntity
  8
SEIHIN
  6
CONTINUOUS
 62
     3
 48
16.0
100
AcDbCircle
 10
257.4545920468293
 20
293.1904580608422
 30
0.0
 40
4.249771082082475
100
AcDbArc
 50
248.0389576229232
 51
298.0724105654601
  0
ARC
  5
477
330
1A
100
AcDbEntity
  8
SEIHIN
  6
CONTINUOUS
 62
     3
 48
16.0
100
AcDbCircle
 10
255.7916609376957
 20
292.4406817577457
 30
0.0
 40
0.4999756241495849
100
AcDbArc
 50
344.0462004845009
 51
89.99789314386802
  0
ARC
  5
478
330
1A
100
AcDbEntity
  8
SEIHIN
  6
CONTINUOUS
 62
     3
 48
16.0
100
AcDbCircle
 10
256.0522684122522
 20
289.7127797019292
 30
0.0
 40
0.5000033100537672
100
AcDbArc
 50
164.0645900633768
 51
248.0389807919551
  0
DIMENSION
  5
479
330
1A
100
AcDbEntity
  8
SUNPOU
100
AcDbDimension
  2
*D5
 10
227.3553545647194
 20
431.5617254086681
 30
0.0
 11
222.3553545647194
 21
441.5617254086681
 31
0.0
 70
    32
  3
STANDARD
100
AcDbAlignedDimension
 13
256.4544793225875
 23
451.5617254086681
 33
0.0
 14
256.4544793225875
 24
431.5617254086681
 34
0.0
 50
90.0
100
AcDbRotatedDimension
1001
ACAD
1000
DSTYLE
1002
{
1070
   140
1040
6.0
1070
    74
1070
     0
1070
   172
1070
     1
1070
    73
1070
     0
1070
   272
1070
     2
1070
    77
1070
     3
1070
   173
1070
     1
1070
   147
1040
2.0
1070
    42
1040
6.0
1070
    44
1040
3.0
1070
    43
1040
14.0
1070
   271
1070
     0
1070
   178
1070
     4
1070
   177
1070
     4
1070
   176
1070
     4
1070
   141
1040
150.0
1070
     7
1000
_OPEN
1070
     6
1000
_OPEN
1070
    41
1040
7.0
1002
}
  0
LINE
  5
47A
330
1A
100
AcDbEntity
  8
SEIHIN
  6
CONTINUOUS
 62
     3
 48
16.0
100
AcDbLine
 10
256.4544793225875
 20
453.561725408668
 30
0.0
 11
256.4544793225875
 21
441.5617254086681
 31
0.0
  0
LINE
  5
47B
330
1A
100
AcDbEntity
  8
SEIHIN
  6
CONTINUOUS
 62
     3
 48
16.0
100
AcDbLine
 10
252.7545793225874
 20
453.5618254086681
 30
0.0
 11
252.7545793225874
 21
441.5618254086681
 31
0.0
  0
LINE
  5
47C
330
1A
100
AcDbEntity
  8
SEIHIN
  6
CONTINUOUS
 62
     3
 48
16.0
100
AcDbLine
 10
259.4544793225874
 20
451.5617254086681
 30
0.0
 11
259.4544793225874
 21
441.5617254086681
 31
0.0
  0
LINE
  5
47D
330
1A
100
AcDbEntity
  8
SEIHIN
  6
CONTINUOUS
 62
     3
 48
16.0
100
AcDbLine
 10
252.7545793225874
 20
429.5617254086682
 30
0.0
 11
256.4544793225875
 21
429.5617254086682
 31
0.0
  0
LINE
  5
47E
330
1A
100
AcDbEntity
  8
SEIHIN
  6
CONTINUOUS
 62
     3
 48
16.0
100
AcDbLine
 10
252.7545793225874
 20
429.5617254086682
 30
0.0
 11
252.7545793225874
 21
441.5617254086681
 31
0.0
  0
LINE
  5
47F
330
1A
100
AcDbEntity
  8
SEIHIN
  6
CONTINUOUS
 62
     3
 48
16.0
100
AcDbLine
 10
256.4544793225875
 20
429.5617254086682
 30
0.0
 11
256.4544793225875
 21
441.5617254086681
 31
0.0
  0
LINE
  5
480
330
1A
100
AcDbEntity
  8
SEIHIN
  6
CONTINUOUS
 62
     3
 48
16.0
100
AcDbLine
 10
259.4544793225874
 20
431.5617254086681
 30
0.0
 11
259.4544793225874
 21
441.5617254086681
 31
0.0
  0
LINE
  5
481
330
1A
100
AcDbEntity
  8
SEIHIN
  6
CONTINUOUS
 62
     3
 48
16.0
100
AcDbLine
 10
252.7545793225874
 20
453.561725408668
 30
0.0
 11
256.4544793225875
 21
453.561725408668
 31
0.0
  0
LINE
  5
482
330
1A
100
AcDbEntity
  8
SEIHIN
  6
CONTINUOUS
 62
     3
 48
16.0
100
AcDbLine
 10
332.4849793225874
 20
291.0432573815573
 30
0.0
 11
337.0314793225874
 21
297.0642573815572
 31
0.0
  0
LINE
  5
483
330
1A
100
AcDbEntity
  8
SEIHIN
  6
CONTINUOUS
 62
     3
 48
16.0
100
AcDbLine
 10
333.2830793225874
 20
289.4406573815573
 30
0.0
 11
343.3075793225875
 21
289.4406573815573
 31
0.0
  0
ARC
  5
484
330
1A
100
AcDbEntity
  8
SEIHIN
  6
CONTINUOUS
 62
     3
 48
16.0
100
AcDbCircle
 10
335.2860707067027
 20
279.8175537091414
 30
0.0
 40
0.9999700420733793
100
AcDbArc
 50
263.2293722774627
 51
322.9426307700358
  0
ARC
  5
485
330
1A
100
AcDbEntity
  8
SEIHIN
  6
CONTINUOUS
 62
     3
 48
16.0
100
AcDbCircle
 10
374.9384741975432
 20
268.4406548294574
 30
0.0
 40
50.00000255210016
100
AcDbArc
 50
89.9999941271321
 51
142.9435181941769
  0
LINE
  5
486
330
1A
100
AcDbEntity
  8
SEIHIN
  6
CONTINUOUS
 62
     3
 48
16.0
100
AcDbLine
 10
339.9095793225874
 20
286.9406573815572
 30
0.0
 11
283.7060793225874
 21
286.9406573815572
 31
0.0
  0
LINE
  5
487
330
1A
100
AcDbEntity
  8
SEIHIN
  6
CONTINUOUS
 62
     3
 48
16.0
100
AcDbLine
 10
335.1681793225875
 20
278.8245573815572
 30
0.0
 11
283.5881793225875
 21
284.9475573815573
 31
0.0
  0
ARC
  5
488
330
1A
100
AcDbEntity
  8
SEIHIN
  6
CONTINUOUS
 62
     3
 48
16.0
100
AcDbCircle
 10
283.7060771337529
 20
285.9406203779265
 30
0.0
 40
1.00003700363309
100
AcDbArc
 50
89.99987459366218
 51
263.2294569392955
  0
ARC
  5
489
330
1A
100
AcDbEntity
  8
SEIHIN
  6
CONTINUOUS
 62
     3
 48
16.0
100
AcDbCircle
 10
325.6523657714607
 20
294.4406506335482
 30
0.0
 40
4.999993252009253
100
AcDbArc
 50
270.0001552846836
 51
322.9437017475611
  0
ARC
  5
48A
330
1A
100
AcDbEntity
  8
SEIHIN
  6
CONTINUOUS
 62
     3
 48
16.0
100
AcDbCircle
 10
333.2830680720204
 20
290.4406799735469
 30
0.0
 40
1.000022592052884
100
AcDbArc
 50
142.9462625565121
 51
270.0006445954393
  0
LINE
  5
48B
330
1A
100
AcDbEntity
  8
SEIHIN
  6
CONTINUOUS
 62
     3
 48
16.0
100
AcDbLine
 10
335.0363793225875
 20
298.5707573815572
 30
0.0
 11
329.6425793225875
 21
291.4276573815573
 31
0.0
  0
LINE
  5
48C
330
1A
100
AcDbEntity
  8
SEIHIN
  6
CONTINUOUS
 62
     3
 48
16.0
100
AcDbLine
 10
385.7545793225875
 20
316.4406573815572
 30
0.0
 11
385.7545793225875
 21
299.4406573815572
 31
0.0
  0
LINE
  5
48D
330
1A
100
AcDbEntity
  8
SEIHIN
  6
CONTINUOUS
 62
     3
 48
16.0
100
AcDbLine
 10
391.7545793225875
 20
318.4406573815572
 30
0.0
 11
391.7545793225875
 21
268.8192573815573
 31
0.0
  0
LINE
  5
48E
330
1A
100
AcDbEntity
  8
SEIHIN
  6
CONTINUOUS
 62
     3
 48
16.0
100
AcDbLine
 10
387.7545793225875
 20
268.8192573815573
 30
0.0
 11
387.7545793225875
 21
318.4406573815572
 31
0.0
  0
LINE
  5
48F
330
1A
100
AcDbEntity
  8
SEIHIN
  6
CONTINUOUS
 62
     3
 48
16.0
100
AcDbLine
 10
360.7258793225875
 20
311.8486573815573
 30
0.0
 11
344.1055793225875
 21
289.8380573815573
 31
0.0
  0
LINE
  5
490
330
1A
100
AcDbEntity
  8
SEIHIN
  6
CONTINUOUS
 62
     3
 48
16.0
100
AcDbLine
 10
359.8524793225875
 20
306.5432573815573
 30
0.0
 11
366.1223793225875
 21
314.8467573815573
 31
0.0
  0
ARC
  5
491
330
1A
100
AcDbEntity
  8
SEIHIN
  6
CONTINUOUS
 62
     3
 48
16.0
100
AcDbCircle
 10
374.9384079192442
 20
268.4406057162994
 30
0.0
 40
47.50000554696216
100
AcDbArc
 50
108.832885755752
 51
142.9435902024712
  0
LINE
  5
492
330
1A
100
AcDbEntity
  8
NOKITOI
  6
PHANTOM
 62
     8
 48
5.0
100
AcDbLine
 10
368.559268669377
 20
297.8440560890296
 30
0.0
 11
366.0865686693769
 21
297.8441560890298
 31
0.0
  0
LINE
  5
493
330
1A
100
AcDbEntity
  8
NOKITOI
  6
PHANTOM
 62
     8
 48
5.0
100
AcDbLine
 10
368.559268669377
 20
299.0440560890297
 30
0.0
 11
365.232668669377
 21
299.0441560890296
 31
0.0
  0
ARC
  5
494
330
1A
100
AcDbEntity
  8
NOKITOI
  6
PHANTOM
 62
     8
 48
5.0
100
AcDbCircle
 10
365.1077377424408
 20
289.0441918336936
 30
0.0
 40
3.99998565374706
100
AcDbArc
 50
358.2086966591014
 51
83.52422380468325
  0
ARC
  5
495
330
1A
100
AcDbEntity
  8
NOKITOI
  6
PHANTOM
 62
     8
 48
5.0
100
AcDbCircle
 10
365.1077508030259
 20
289.0441648174097
 30
0.0
 40
5.199991271650611
100
AcDbArc
 50
37.92532860473096
 51
89.99980314072548
  0
ARC
  5
496
330
1A
100
AcDbEntity
  8
NOKITOI
  6
PHANTOM
 62
     8
 48
5.0
100
AcDbCircle
 10
367.0212066572013
 20
286.2440929096019
 30
0.0
 40
2.000036820932882
100
AcDbArc
 50
269.9989117490339
 51
358.2110591274196
  0
LINE
  5
497
330
1A
100
AcDbEntity
  8
NOKITOI
  6
PHANTOM
 62
     8
 48
5.0
100
AcDbLine
 10
368.6688686693768
 20
283.0441560890298
 30
0.0
 11
362.5277686693769
 21
283.0441560890298
 31
0.0
  0
LINE
  5
498
330
1A
100
AcDbEntity
  8
SEIHIN
  6
CONTINUOUS
 62
     3
 48
16.0
100
AcDbLine
 10
382.7545793225875
 20
302.4406573815573
 30
0.0
 11
366.7138793225873
 21
302.4406573815573
 31
0.0
  0
LINE
  5
499
330
1A
100
AcDbEntity
  8
SEIHIN
  6
CONTINUOUS
 62
     3
 48
16.0
100
AcDbLine
 10
363.7867793225875
 20
282.8430573815573
 30
0.0
 11
375.2163793225875
 21
278.5057573815573
 31
0.0
  0
LINE
  5
49A
330
1A
100
AcDbEntity
  8
SEIHIN
  6
CONTINUOUS
 62
     3
 48
16.0
100
AcDbLine
 10
382.7545793225875
 20
304.9406573815573
 30
0.0
 11
360.6504793225875
 21
304.9406573815573
 31
0.0
  0
LINE
  5
49B
330
1A
100
AcDbEntity
  8
SEIHIN
  6
CONTINUOUS
 62
     3
 48
16.0
100
AcDbLine
 10
370.7505793225875
 20
274.7121573815573
 30
0.0
 11
362.4299793225875
 21
280.1875573815573
 31
0.0
  0
LINE
  5
49C
330
1A
100
AcDbEntity
  8
SEIHIN
  6
CONTINUOUS
 62
     3
 48
16.0
100
AcDbLine
 10
339.9149793225874
 20
280.1396573815573
 30
0.0
 11
350.7529793225875
 21
294.4926573815573
 31
0.0
  0
ARC
  5
49D
330
1A
100
AcDbEntity
  8
SEIHIN
  6
CONTINUOUS
 62
     3
 48
16.0
100
AcDbCircle
 10
353.913068886322
 20
282.2378401698685
 30
0.0
 40
2.000003477458815
100
AcDbArc
 50
92.67925038682692
 51
204.859254144603
  0
ARC
  5
49E
330
1A
100
AcDbEntity
  8
SEIHIN
  6
CONTINUOUS
 62
     3
 48
16.0
100
AcDbCircle
 10
351.9168969844162
 20
281.3129935331986
 30
0.0
 40
0.2000064240693311
100
AcDbArc
 50
283.0560678679253
 51
24.85389172580648
  0
LINE
  5
49F
330
1A
100
AcDbEntity
  8
SEIHIN
  6
CONTINUOUS
 62
     3
 48
16.0
100
AcDbLine
 10
338.2545793225876
 20
275.9406573815573
 30
0.0
 11
355.7538793225875
 21
280.6630573815573
 31
0.0
  0
LINE
  5
4A0
330
1A
100
AcDbEntity
  8
SEIHIN
  6
CONTINUOUS
 62
     3
 48
16.0
100
AcDbLine
 10
340.9388793225874
 20
278.5628573815573
 30
0.0
 11
351.9620793225875
 21
281.1181573815573
 31
0.0
  0
ARC
  5
4A1
330
1A
100
AcDbEntity
  8
SEIHIN
  6
CONTINUOUS
 62
     3
 48
16.0
100
AcDbCircle
 10
339.909570702896
 20
285.9406746918569
 30
0.0
 40
0.9999826897374981
100
AcDbArc
 50
322.9416714733786
 51
89.99950611951369
  0
LINE
  5
4A2
330
1A
100
AcDbEntity
  8
SEIHIN
  6
CONTINUOUS
 62
     3
 48
16.0
100
AcDbLine
 10
340.7075793225875
 20
285.3380573815573
 30
0.0
 11
336.0840793225875
 21
279.2149573815572
 31
0.0
  0
ARC
  5
4A3
330
1A
100
AcDbEntity
  8
SEIHIN
  6
CONTINUOUS
 62
     3
 48
16.0
100
AcDbCircle
 10
340.7130736609501
 20
279.5370661005132
 30
0.0
 40
1.000035411831535
100
AcDbArc
 50
142.9458211668723
 51
283.0497881998396
  0
ARC
  5
4A4
330
1A
100
AcDbEntity
  8
SEIHIN
  6
CONTINUOUS
 62
     3
 48
16.0
100
AcDbCircle
 10
355.5844651670582
 20
281.2906324000978
 30
0.0
 40
0.650039660320621
100
AcDbArc
 50
285.106928717787
 51
15.82125502289193
  0
LINE
  5
4A5
330
1A
100
AcDbEntity
  8
SEIHIN
  6
CONTINUOUS
 62
     3
 48
16.0
100
AcDbLine
 10
353.4009793225875
 20
286.6134573815573
 30
0.0
 11
354.0025793225875
 21
284.4899573815573
 31
0.0
  0
ARC
  5
4A6
330
1A
100
AcDbEntity
  8
SEIHIN
  6
CONTINUOUS
 62
     3
 48
16.0
100
AcDbCircle
 10
353.810160312859
 20
284.4354309709412
 30
0.0
 40
0.1999955118486214
100
AcDbArc
 50
272.6994066054186
 51
15.82131391091906
  0
ARC
  5
4A7
330
1A
100
AcDbEntity
  8
SEIHIN
  6
CONTINUOUS
 62
     3
 48
16.0
100
AcDbCircle
 10
354.0263793225875
 20
286.7906573815573
 30
0.0
 40
0.650019230484773
100
AcDbArc
 50
15.81947663555054
 51
195.8194766355505
  0
LINE
  5
4A8
330
1A
100
AcDbEntity
  8
SEIHIN
  6
CONTINUOUS
 62
     3
 48
16.0
100
AcDbLine
 10
354.6517793225875
 20
286.9678573815574
 30
0.0
 11
356.2098793225875
 21
281.4678573815573
 31
0.0
  0
ARC
  5
4A9
330
1A
100
AcDbEntity
  8
NOKITOI
  6
PHANTOM
 62
     8
 48
5.0
100
AcDbCircle
 10
362.527789319218
 20
282.044174776879
 30
0.0
 40
0.9999813123640345
100
AcDbArc
 50
90.00118317084957
 51
174.290590033351
  0
LINE
  5
4AA
330
1A
100
AcDbEntity
  8
NOKITOI
  6
PHANTOM
 62
     8
 48
5.0
100
AcDbLine
 10
360.9892686693768
 20
284.2441560890297
 30
0.0
 11
367.021168669377
 21
284.2441560890297
 31
0.0
  0
ARC
  5
4AB
330
1A
100
AcDbEntity
  8
NOKITOI
  6
PHANTOM
 62
     8
 48
5.0
100
AcDbCircle
 10
360.9892817403817
 20
283.7441679193096
 30
0.0
 40
0.499988169890889
100
AcDbArc
 50
90.00149786226627
 51
174.2966061377156
  0
ARC
  5
4AC
330
1A
100
AcDbEntity
  8
SEIHIN
  6
CONTINUOUS
 62
     3
 48
16.0
100
AcDbCircle
 10
363.2545593222185
 20
281.440618236952
 30
0.0
 40
1.500031227379612
100
AcDbArc
 50
69.21844819899368
 51
236.6529790234506
  0
ARC
  5
4AD
330
1A
100
AcDbEntity
  8
SEIHIN
  6
CONTINUOUS
 62
     3
 48
16.0
100
AcDbCircle
 10
366.713873020679
 20
282.4406542434328
 30
0.0
 40
20.00000313812549
100
AcDbArc
 50
89.99998194636528
 51
142.9432997870778
  0
ARC
  5
4AE
330
1A
100
AcDbEntity
  8
SEIHIN
  6
CONTINUOUS
 62
     3
 48
16.0
100
AcDbCircle
 10
343.3075445595714
 20
290.4406400712577
 30
0.0
 40
0.999982690304597
100
AcDbArc
 50
270.0019918085895
 51
322.9441571624548
  0
LINE
  5
4AF
330
1A
100
AcDbEntity
  8
NOKITOI
  6
PHANTOM
 62
     8
 48
5.0
100
AcDbLine
 10
362.281368669377
 20
296.5441560890297
 30
0.0
 11
364.5128686693769
 21
296.5441560890297
 31
0.0
  0
ARC
  5
4B0
330
1A
100
AcDbEntity
  8
NOKITOI
  6
PHANTOM
 62
     8
 48
5.0
100
AcDbCircle
 10
362.2813723788721
 20
296.0441599990604
 30
0.0
 40
0.4999960899831856
100
AcDbArc
 50
90.00042508015132
 51
183.0156217414654
  0
ARC
  5
4B1
330
1A
100
AcDbEntity
  8
NOKITOI
  6
PHANTOM
 62
     8
 48
5.0
100
AcDbCircle
 10
364.5128678863688
 20
297.0441551340279
 30
0.0
 40
0.4999990449987399
100
AcDbArc
 50
270.0000897263054
 51
11.30328019845509
  0
LINE
  5
4B2
330
1A
100
AcDbEntity
  8
NOKITOI
  6
PHANTOM
 62
     8
 48
5.0
100
AcDbLine
 10
365.0031686693769
 20
297.1421560890298
 30
0.0
 11
364.742368669377
 21
298.4461560890297
 31
0.0
  0
ARC
  5
4B3
330
1A
100
AcDbEntity
  8
NOKITOI
  6
PHANTOM
 62
     8
 48
5.0
100
AcDbCircle
 10
365.2326614148212
 20
298.5441472391863
 30
0.0
 40
0.500008849895925
100
AcDbArc
 50
89.99916870385492
 51
191.3135956695117
  0
ARC
  5
4B4
330
1A
100
AcDbEntity
  8
NOKITOI
  6
PHANTOM
 62
     8
 48
5.0
100
AcDbCircle
 10
362.5971727907839
 20
290.0441521789992
 30
0.0
 40
0.4999960899864752
100
AcDbArc
 50
183.0147243791737
 51
269.9995277178594
  0
LINE
  5
4B5
330
1A
100
AcDbEntity
  8
NOKITOI
  6
PHANTOM
 62
     8
 48
5.0
100
AcDbLine
 10
365.3412686693768
 20
290.1148560890296
 30
0.0
 11
365.0074686693768
 21
292.4510560890298
 31
0.0
  0
ARC
  5
4B6
330
1A
100
AcDbEntity
  8
NOKITOI
  6
PHANTOM
 62
     8
 48
5.0
100
AcDbCircle
 10
364.8462788558131
 20
290.0441678337539
 30
0.0
 40
0.5000117448278309
100
AcDbArc
 50
269.9988327478018
 51
8.127314608715803
  0
LINE
  5
4B7
330
1A
100
AcDbEntity
  8
NOKITOI
  6
PHANTOM
 62
     8
 48
5.0
100
AcDbLine
 10
364.645768669377
 20
294.2441560890297
 30
0.0
 11
365.107768669377
 21
294.2441560890297
 31
0.0
  0
ARC
  5
4B8
330
1A
100
AcDbEntity
  8
NOKITOI
  6
PHANTOM
 62
     8
 48
5.0
100
AcDbCircle
 10
365.5024980418769
 20
292.5217863215247
 30
0.0
 40
0.4999578477751074
100
AcDbArc
 50
83.52609071220776
 51
188.1330561712924
  0
LINE
  5
4B9
330
1A
100
AcDbEntity
  8
NOKITOI
  6
PHANTOM
 62
     8
 48
5.0
100
AcDbLine
 10
363.261268669377
 20
290.7441560890298
 30
0.0
 11
363.0801686693769
 21
294.1855560890296
 31
0.0
  0
LINE
  5
4BA
330
1A
100
AcDbEntity
  8
NOKITOI
  6
PHANTOM
 62
     8
 48
5.0
100
AcDbLine
 10
363.6351686693768
 20
293.5725560890297
 30
0.0
 11
363.0801686693769
 21
294.1855560890296
 31
0.0
  0
LINE
  5
4BB
330
1A
100
AcDbEntity
  8
NOKITOI
  6
PHANTOM
 62
     8
 48
5.0
100
AcDbLine
 10
364.0391686693768
 20
290.7441560890298
 30
0.0
 11
363.6351686693768
 21
293.5725560890297
 31
0.0
  0
LINE
  5
4BC
330
1A
100
AcDbEntity
  8
NOKITOI
  6
PHANTOM
 62
     8
 48
5.0
100
AcDbLine
 10
363.261268669377
 20
290.7441560890298
 30
0.0
 11
364.0391686693768
 21
290.7441560890298
 31
0.0
  0
LINE
  5
4BD
330
1A
100
AcDbEntity
  8
NOKITOI
  6
PHANTOM
 62
     8
 48
5.0
100
AcDbLine
 10
362.5971686693769
 20
289.5441560890298
 30
0.0
 11
364.8462686693768
 21
289.5441560890298
 31
0.0
  0
LINE
  5
4BE
330
1A
100
AcDbEntity
  8
NOKITOI
  6
PHANTOM
 62
     8
 48
5.0
100
AcDbLine
 10
366.5865686693769
 20
295.3441560890298
 30
0.0
 11
363.649968669377
 21
295.3441560890298
 31
0.0
  0
LINE
  5
4BF
330
1A
100
AcDbEntity
  8
NOKITOI
  6
PHANTOM
 62
     8
 48
5.0
100
AcDbLine
 10
364.645768669377
 20
294.2441560890297
 30
0.0
 11
363.649968669377
 21
295.3441560890298
 31
0.0
  0
LINE
  5
4C0
330
1A
100
AcDbEntity
  8
NOKITOI
  6
PHANTOM
 62
     8
 48
5.0
100
AcDbLine
 10
362.0978686693768
 20
290.0178560890298
 30
0.0
 11
361.782068669377
 21
296.0178560890298
 31
0.0
  0
LINE
  5
4C1
330
1A
100
AcDbEntity
  8
NOKITOI
  6
PHANTOM
 62
     8
 48
5.0
100
AcDbLine
 10
366.0865686693769
 20
297.8441560890298
 30
0.0
 11
366.5865686693769
 21
295.3441560890298
 31
0.0
  0
ARC
  5
4C2
330
1A
100
AcDbEntity
  8
SEIHIN
  6
CONTINUOUS
 62
     3
 48
16.0
100
AcDbCircle
 10
360.650487942279
 20
305.9406400712576
 30
0.0
 40
0.9999826897375388
100
AcDbArc
 50
142.9416714733729
 51
269.9995061195088
  0
LINE
  5
4C3
330
1A
100
AcDbEntity
  8
NOKITOI
  6
PHANTOM
 62
     8
 48
5.0
100
AcDbLine
 10
369.020268669377
 20
286.1815560890298
 30
0.0
 11
369.1057686693769
 21
288.9191560890296
 31
0.0
  0
LINE
  5
4C4
330
1A
100
AcDbEntity
  8
NOKITOI
  6
PHANTOM
 62
     8
 48
5.0
100
AcDbLine
 10
370.558268669377
 20
296.9816560890297
 30
0.0
 11
370.168168669377
 21
284.4972560890297
 31
0.0
  0
LINE
  5
4C5
330
1A
100
AcDbEntity
  8
SEIHIN
  6
CONTINUOUS
 62
     3
 48
16.0
100
AcDbLine
 10
385.7545793225875
 20
299.4406573815572
 30
0.0
 11
385.7545793225875
 21
279.4406573815573
 31
0.0
  0
ARC
  5
4C6
330
1A
100
AcDbEntity
  8
SEIHIN
  6
CONTINUOUS
 62
     3
 48
16.0
100
AcDbCircle
 10
375.7545793223376
 20
288.4403573813073
 30
0.0
 40
10.00000000024995
100
AcDbArc
 50
269.9994270436367
 51
0.0000000014321351
  0
ARC
  5
4C7
330
1A
100
AcDbEntity
  8
SEIHIN
  6
CONTINUOUS
 62
     3
 48
16.0
100
AcDbCircle
 10
384.7545793225875
 20
279.4406573815572
 30
0.0
 40
1.000000000000028
100
AcDbArc
 50
270.0000000000016
 51
0.0000000000016284
  0
LINE
  5
4C8
330
1A
100
AcDbEntity
  8
SEIHIN
  6
CONTINUOUS
 62
     3
 48
16.0
100
AcDbLine
 10
385.2545793225875
 20
271.4192573815572
 30
0.0
 11
381.7447793225874
 21
271.4192573815572
 31
0.0
  0
ARC
  5
4C9
330
1A
100
AcDbEntity
  8
SEIHIN
  6
CONTINUOUS
 62
     3
 48
16.0
100
AcDbCircle
 10
384.7545793225875
 20
274.4406573815572
 30
0.0
 40
1.000000000000028
100
AcDbArc
 50
359.9999999999983
 51
89.99999999999836
  0
LINE
  5
4CA
330
1A
100
AcDbEntity
  8
SEIHIN
  6
CONTINUOUS
 62
     3
 48
16.0
100
AcDbLine
 10
384.7545793225875
 20
275.4406573815573
 30
0.0
 11
370.8415793225873
 21
275.4406573815573
 31
0.0
  0
ARC
  5
4CB
330
1A
100
AcDbEntity
  8
SEIHIN
  6
CONTINUOUS
 62
     3
 48
16.0
100
AcDbCircle
 10
381.7447950127173
 20
291.419252682181
 30
0.0
 40
19.9999953006299
100
AcDbArc
 50
236.6528172994241
 51
269.9999550510781
  0
ARC
  5
4CC
330
1A
100
AcDbEntity
  8
SEIHIN
  6
CONTINUOUS
 62
     3
 48
16.0
100
AcDbCircle
 10
370.8416470588912
 20
279.4406370939542
 30
0.0
 40
3.999979712970344
100
AcDbArc
 50
236.6522131385947
 51
269.9990297439962
  0
LINE
  5
4CD
330
1A
100
AcDbEntity
  8
SEIHIN
  6
CONTINUOUS
 62
     3
 48
16.0
100
AcDbLine
 10
384.7545793225875
 20
278.4406573815572
 30
0.0
 11
375.5711793225875
 21
278.4406573815572
 31
0.0
  0
ARC
  5
4CE
330
1A
100
AcDbEntity
  8
NOKITOI
  6
PHANTOM
 62
     8
 48
5.0
100
AcDbCircle
 10
368.668885882555
 20
284.5441727721776
 30
0.0
 40
1.500016683246579
100
AcDbArc
 50
269.9993425123348
 51
358.207642324411
  0
ARC
  5
4CF
330
1A
100
AcDbEntity
  8
SEIHIN
  6
CONTINUOUS
 62
     3
 48
16.0
100
AcDbCircle
 10
375.5712869608721
 20
279.4406376436676
 30
0.0
 40
0.9999802679035244
100
AcDbArc
 50
249.2117869528821
 51
269.9938326588708
  0
LINE
  5
4D0
330
1A
100
AcDbEntity
  8
SEIHIN
  6
CONTINUOUS
 62
     3
 48
16.0
100
AcDbLine
 10
385.7545793225875
 20
279.4406573815573
 30
0.0
 11
385.7545793225875
 21
270.8192573815573
 31
0.0
  0
LINE
  5
4D1
330
1A
100
AcDbEntity
  8
SEIHIN
  6
CONTINUOUS
 62
     3
 48
16.0
100
AcDbLine
 10
387.7544793225873
 20
268.8192573815573
 30
0.0
 11
391.7544793225873
 21
268.8192573815573
 31
0.0
  0
ARC
  5
4D2
330
1A
100
AcDbEntity
  8
SEIHIN
  6
CONTINUOUS
 62
     3
 48
16.0
100
AcDbCircle
 10
385.2545793225875
 20
270.9192573815573
 30
0.0
 40
0.5
100
AcDbArc
 50
0.0
 51
90.0
  0
LINE
  5
4D3
330
1A
100
AcDbEntity
  8
SEIHIN
  6
CONTINUOUS
 62
     3
 48
16.0
100
AcDbLine
 10
387.7544793225873
 20
268.8192573815573
 30
0.0
 11
385.7544793225873
 21
270.8192573815573
 31
0.0
  0
ARC
  5
4D4
330
1A
100
AcDbEntity
  8
SEIHIN
  6
CONTINUOUS
 62
     3
 48
16.0
100
AcDbCircle
 10
382.7545793225875
 20
307.9406573815572
 30
0.0
 40
3.0
100
AcDbArc
 50
270.0
 51
0.0
  0
ARC
  5
4D5
330
1A
100
AcDbEntity
  8
SEIHIN
  6
CONTINUOUS
 62
     3
 48
16.0
100
AcDbCircle
 10
382.7545793225875
 20
299.4406573815572
 30
0.0
 40
3.000000000000028
100
AcDbArc
 50
359.9999999999994
 51
89.99999999999944
  0
ARC
  5
4D6
330
1A
100
AcDbEntity
  8
NOKITOI
  6
PHANTOM
 62
     8
 48
5.0
100
AcDbCircle
 10
368.5592574323825
 20
297.0441676828469
 30
0.0
 40
1.999988406214315
100
AcDbArc
 50
358.2088726535929
 51
89.99967808195611
  0
ARC
  5
4D7
330
1A
100
AcDbEntity
  8
NOKITOI
  6
PHANTOM
 62
     8
 48
5.0
100
AcDbCircle
 10
368.55931263573
 20
297.0441107265567
 30
0.0
 40
0.7999453636812564
100
AcDbArc
 50
358.212343644788
 51
90.00314907315372
  0
LINE
  5
4D8
330
1A
100
AcDbEntity
  8
NOKITOI
  6
PHANTOM
 62
     8
 48
5.0
100
AcDbLine
 10
369.3588686693768
 20
297.0191560890297
 30
0.0
 11
369.209568669377
 21
292.2401560890298
 31
0.0
  0
ARC
  5
4D9
330
1A
100
AcDbEntity
  8
SEIHIN
  6
CONTINUOUS
 62
     3
 48
16.0
100
AcDbCircle
 10
374.938698390711
 20
268.4406764109859
 30
0.0
 40
47.49998097107649
100
AcDbArc
 50
90.00026424597752
 51
99.92937621573574
  0
ARC
  5
4DA
330
1A
100
AcDbEntity
  8
SEIHIN
  6
CONTINUOUS
 62
     3
 48
16.0
100
AcDbCircle
 10
359.9278783092501
 20
312.4512587819124
 30
0.0
 40
0.9999670319553588
100
AcDbArc
 50
322.9421363117515
 51
108.8389786979456
  0
ARC
  5
4DB
330
1A
100
AcDbEntity
  8
SEIHIN
  6
CONTINUOUS
 62
     3
 48
16.0
100
AcDbCircle
 10
366.9203957753312
 20
314.244106310737
 30
0.0
 40
1.000009285962086
100
AcDbArc
 50
99.92243683737385
 51
142.9403983020246
  0
ARC
  5
4DC
330
1A
100
AcDbEntity
  8
SEIHIN
  6
CONTINUOUS
 62
     3
 48
16.0
100
AcDbCircle
 10
382.7545793225875
 20
312.9406573815572
 30
0.0
 40
2.999999999999971
100
AcDbArc
 50
0.0000000000005428
 51
90.00000000000055
  0
LINE
  5
4DD
330
1A
100
AcDbEntity
  8
SEIHIN
  6
CONTINUOUS
 62
     3
 48
16.0
100
AcDbLine
 10
374.9384793225875
 20
318.4406573815572
 30
0.0
 11
391.7545793225875
 21
318.4406573815572
 31
0.0
  0
LINE
  5
4DE
330
1A
100
AcDbEntity
  8
SEIHIN
  6
CONTINUOUS
 62
     3
 48
16.0
100
AcDbLine
 10
374.9384793225875
 20
315.9406573815572
 30
0.0
 11
382.7545793225875
 21
315.9406573815572
 31
0.0
  0
LINE
  5
4DF
330
1A
100
AcDbEntity
  8
SEIHIN
  6
CONTINUOUS
 62
     3
 48
16.0
100
AcDbLine
 10
387.7545793225875
 20
318.4406573815572
 30
0.0
 11
385.7545793225875
 21
316.4406573815572
 31
0.0
  0
LINE
  5
4E0
330
1A
100
AcDbEntity
  8
SEIHIN
  6
CONTINUOUS
 62
     3
 48
16.0
100
AcDbLine
 10
328.1421793225874
 20
450.0617254086681
 30
0.0
 11
328.1421793225874
 21
441.5618254086681
 31
0.0
  0
LINE
  5
4E1
330
1A
100
AcDbEntity
  8
SEIHIN
  6
CONTINUOUS
 62
     3
 48
16.0
100
AcDbLine
 10
328.1421793225874
 20
433.0617254086682
 30
0.0
 11
328.1421793225874
 21
441.5617254086681
 31
0.0
  0
LINE
  5
4E2
330
1A
100
AcDbEntity
  8
SEIHIN
  6
CONTINUOUS
 62
     3
 48
16.0
100
AcDbLine
 10
391.7545793225875
 20
410.0617254086681
 30
0.0
 11
391.7545793225875
 21
441.5617254086681
 31
0.0
  0
LINE
  5
4E3
330
1A
100
AcDbEntity
  8
SEIHIN
  6
CONTINUOUS
 62
     3
 48
16.0
100
AcDbLine
 10
385.7545793225875
 20
412.061725408668
 30
0.0
 11
385.7545793225875
 21
426.5617254086681
 31
0.0
  0
LINE
  5
4E4
330
1A
100
AcDbEntity
  8
SEIHIN
  6
CONTINUOUS
 62
     3
 48
16.0
100
AcDbLine
 10
387.7545793225875
 20
410.0617254086681
 30
0.0
 11
387.7545793225875
 21
426.5617254086681
 31
0.0
  0
LINE
  5
4E5
330
1A
100
AcDbEntity
  8
SEIHIN
  6
CONTINUOUS
 62
     3
 48
16.0
100
AcDbLine
 10
387.7545793225875
 20
410.0617254086681
 30
0.0
 11
391.7545793225875
 21
410.0617254086681
 31
0.0
  0
LINE
  5
4E6
330
1A
100
AcDbEntity
  8
SEIHIN
  6
CONTINUOUS
 62
     3
 48
16.0
100
AcDbLine
 10
385.7545793225875
 20
412.061725408668
 30
0.0
 11
387.7545793225875
 21
410.0617254086681
 31
0.0
  0
ARC
  5
4E7
330
1A
100
AcDbEntity
  8
SEIHIN
  6
CONTINUOUS
 62
     3
 48
16.0
100
AcDbCircle
 10
380.7545793225875
 20
426.5617254086681
 30
0.0
 40
5.000000000000056
100
AcDbArc
 50
359.9999999999993
 51
89.99999999999934
  0
ARC
  5
4E8
330
1A
100
AcDbEntity
  8
SEIHIN
  6
CONTINUOUS
 62
     3
 48
16.0
100
AcDbCircle
 10
382.7545793225875
 20
426.5617254086681
 30
0.0
 40
5.000000000000056
100
AcDbArc
 50
359.9999999999993
 51
89.99999999999934
  0
ARC
  5
4E9
330
1A
100
AcDbEntity
  8
SEIHIN
  6
CONTINUOUS
 62
     3
 48
16.0
100
AcDbCircle
 10
380.7545793225875
 20
456.5617254086681
 30
0.0
 40
5.000000000000056
100
AcDbArc
 50
270.0000000000006
 51
0.0000000000006514
  0
ARC
  5
4EA
330
1A
100
AcDbEntity
  8
SEIHIN
  6
CONTINUOUS
 62
     3
 48
16.0
100
AcDbCircle
 10
382.7545793225875
 20
456.5617254086681
 30
0.0
 40
5.000000000000056
100
AcDbArc
 50
270.0000000000006
 51
0.0000000000006514
  0
LINE
  5
4EB
330
1A
100
AcDbEntity
  8
SEIHIN
  6
CONTINUOUS
 62
     3
 48
16.0
100
AcDbLine
 10
387.7545793225875
 20
473.0617254086682
 30
0.0
 11
391.7545793225875
 21
473.0617254086682
 31
0.0
  0
LINE
  5
4EC
330
1A
100
AcDbEntity
  8
SEIHIN
  6
CONTINUOUS
 62
     3
 48
16.0
100
AcDbLine
 10
385.7545793225875
 20
471.0617254086682
 30
0.0
 11
387.7545793225875
 21
473.0617254086682
 31
0.0
  0
LINE
  5
4EE
330
1A
100
AcDbEntity
  8
CENTER_L
  6
CENTER
 62
     1
 48
5.0
100
AcDbLine
 10
577.1892310644798
 20
322.5510573815573
 30
0.0
 11
577.1891310644798
 21
263.1007573815572
 31
0.0
  0
LEADER
  5
4F4
330
1A
100
AcDbEntity
  8
SUNPOU
 62
     4
100
AcDbLeader
  3
STANDARD
 73
     0
 40
6.0
 41
31.19999999999999
 76
     3
 10
551.5998093790724
 20
300.9514139329076
 30
0.0
 10
539.8281079843356
 20
287.6573947130777
 30
0.0
 10
538.2326486929907
 20
287.6573947130777
 30
0.0
1001
ACAD
1000
DSTYLE
1002
{
1070
     6
1000
OPEN
1070
    41
1040
7.0
1070
    42
1040
6.0
1070
    43
1040
14.0
1070
    44
1040
3.0
1070
    73
1070
     0
1070
    74
1070
     0
1070
    77
1070
     3
1070
   140
1040
6.0
1070
   141
1040
150.0
1070
   147
1040
2.0
1070
   172
1070
     1
1070
   173
1070
     1
1070
   176
1070
     4
1070
   177
1070
     4
1070
   178
1070
     4
1070
   271
1070
     0
1070
   272
1070
     2
1070
   341
1005
6D
1070
   343
1005
6D
1070
   344
1005
6D
1002
}
  0
MTEXT
  5
4F5
330
1A
100
AcDbEntity
  8
SUNPOU
 62
     4
100
AcDbMText
 10
536.2326486929908
 20
333.5815939564706
 30
0.0
 40
6.0
 41
0.0
 71
     9
 72
     5
  1
4-φ4.2
1001
ACAD
1000
MTEXTBEGIN
1070
    73
1070
     1
1070
    44
1040
1.0
1070
    74
1070
     0
1000
MTEXTEND
1000
MTEXTBEGIN
1070
    73
1070
     1
1070
    44
1040
1.0
1070
    74
1070
     0
1000
MTEXTEND
1000
MTEXTBEGIN
1070
    73
1070
     1
1070
    44
1040
1.0
1070
    74
1070
     0
1000
MTEXTEND
  0
LEADER
  5
4F6
330
1A
100
AcDbEntity
  8
SUNPOU
 62
     4
100
AcDbLeader
  3
STANDARD
 73
     0
 40
6.0
 41
31.19999999999999
 76
     3
 10
552.1074702558335
 20
309.8220208363472
 30
0.0
 10
540.005381521001
 20
331.5815939564706
 30
0.0
 10
538.2326486929907
 20
331.5815939564706
 30
0.0
1001
ACAD
1000
DSTYLE
1002
{
1070
     6
1000
OPEN
1070
    41
1040
7.0
1070
    42
1040
6.0
1070
    43
1040
14.0
1070
    44
1040
3.0
1070
    73
1070
     0
1070
    74
1070
     0
1070
    77
1070
     3
1070
   140
1040
6.0
1070
   141
1040
150.0
1070
   147
1040
2.0
1070
   172
1070
     1
1070
   173
1070
     1
1070
   176
1070
     4
1070
   177
1070
     4
1070
   178
1070
     4
1070
   271
1070
     0
1070
   272
1070
     2
1070
   341
1005
6D
1070
   343
1005
6D
1070
   344
1005
6D
1002
}
  0
DIMENSION
  5
4F8
330
1A
100
AcDbEntity
  8
SUNPOU
100
AcDbDimension
  2
*D6
 10
481.7244456794263
 20
303.4406573815572
 30
0.0
 11
476.7244456794263
 21
310.9406073815573
 31
0.0
 12
-19.04122736640238
 22
-57.15694963386749
 32
0.0
 70
    32
  3
STANDARD
100
AcDbAlignedDimension
 13
577.1892310644798
 23
318.4405573815573
 33
0.0
 14
548.2033310644799
 24
303.4406573815572
 34
0.0
 50
90.0
100
AcDbRotatedDimension
1001
ACAD
1000
DSTYLE
1002
{
1070
   140
1040
6.0
1070
    74
1070
     0
1070
   172
1070
     1
1070
    73
1070
     0
1070
   272
1070
     2
1070
    77
1070
     3
1070
   173
1070
     1
1070
   147
1040
2.0
1070
    42
1040
6.0
1070
    44
1040
3.0
1070
    43
1040
14.0
1070
   271
1070
     0
1070
   178
1070
     4
1070
   177
1070
     4
1070
   176
1070
     4
1070
   141
1040
150.0
1070
     7
1000
_OPEN
1070
     6
1000
_OPEN
1070
    41
1040
7.0
1002
}
  0
DIMENSION
  5
4F9
330
1A
100
AcDbEntity
  8
SUNPOU
100
AcDbDimension
  2
*D7
 10
499.5971976638691
 20
318.4405573815573
 30
0.0
 11
494.597197663869
 21
337.9405573815573
 31
0.0
 12
-19.04122736640238
 22
-57.15694963386749
 32
0.0
 70
    32
  3
STANDARD
100
AcDbAlignedDimension
 13
549.4871310644799
 23
308.4406573815573
 33
0.0
 14
577.1892310644798
 24
318.4405573815573
 34
0.0
 50
90.0
100
AcDbRotatedDimension
1001
ACAD
1000
DSTYLE
1002
{
1070
   140
1040
6.0
1070
    74
1070
     0
1070
   172
1070
     1
1070
    73
1070
     0
1070
   272
1070
     2
1070
    77
1070
     3
1070
   173
1070
     1
1070
   147
1040
2.0
1070
    42
1040
6.0
1070
    44
1040
3.0
1070
    43
1040
14.0
1070
   271
1070
     0
1070
   178
1070
     4
1070
   177
1070
     4
1070
   176
1070
     4
1070
   141
1040
150.0
1070
     7
1000
_OPEN
1070
     6
1000
_OPEN
1070
    41
1040
7.0
1002
}
  0
DIMENSION
  5
4FA
330
1A
100
AcDbEntity
  8
SUNPOU
100
AcDbDimension
  2
*D8
 10
608.6892310644799
 20
355.2043462263472
 30
0.0
 11
577.1892310644798
 21
360.2043462263472
 31
0.0
 12
-19.04122736640238
 22
-57.15694963386749
 32
0.0
 70
    32
  3
STANDARD
100
AcDbAlignedDimension
 13
545.6892310644798
 23
307.3000573815573
 33
0.0
 14
608.6892310644799
 24
307.6835573815573
 34
0.0
100
AcDbRotatedDimension
1001
ACAD
1000
DSTYLE
1002
{
1070
   140
1040
6.0
1070
    74
1070
     0
1070
   172
1070
     1
1070
    73
1070
     0
1070
   272
1070
     2
1070
    77
1070
     3
1070
   173
1070
     1
1070
   147
1040
2.0
1070
    42
1040
6.0
1070
    44
1040
3.0
1070
    43
1040
14.0
1070
   271
1070
     0
1070
   178
1070
     4
1070
   177
1070
     4
1070
   176
1070
     4
1070
   141
1040
150.0
1070
     7
1000
_OPEN
1070
     6
1000
_OPEN
1070
    41
1040
7.0
1002
}
  0
DIMENSION
  5
4FB
330
1A
100
AcDbEntity
  8
SUNPOU
100
AcDbDimension
  2
*D9
 10
600.6892310644801
 20
339.2707090477983
 30
0.0
 11
577.1892310644799
 21
344.2707090477983
 31
0.0
 12
-19.04122736640238
 22
-57.15694963386749
 32
0.0
 70
    32
  3
STANDARD
100
AcDbAlignedDimension
 13
553.6892310644798
 23
312.2254573815573
 33
0.0
 14
600.6892310644801
 24
312.2254573815573
 34
0.0
100
AcDbRotatedDimension
1001
ACAD
1000
DSTYLE
1002
{
1070
   140
1040
6.0
1070
    74
1070
     0
1070
   172
1070
     1
1070
    73
1070
     0
1070
   272
1070
     2
1070
    77
1070
     3
1070
   173
1070
     1
1070
   147
1040
2.0
1070
    42
1040
6.0
1070
    44
1040
3.0
1070
    43
1040
14.0
1070
   271
1070
     0
1070
   178
1070
     4
1070
   177
1070
     4
1070
   176
1070
     4
1070
   141
1040
150.0
1070
     7
1000
_OPEN
1070
     6
1000
_OPEN
1070
    41
1040
7.0
1002
}
  0
ARC
  5
4FC
330
1A
100
AcDbEntity
  8
SEIHIN
  6
CONTINUOUS
 62
     3
 48
16.0
100
AcDbCircle
 10
600.6891810644799
 20
303.44055738082
 30
0.0
 40
3.249957671584955
100
AcDbArc
 50
106.5572312245815
 51
73.44276877541844
  0
LINE
  5
4FD
330
1A
100
AcDbEntity
  8
CENTER_L
  6
CENTER
 62
     1
 48
5.0
100
AcDbLine
 10
596.7430310644797
 20
308.4405573815573
 30
0.0
 11
604.89133106448
 21
308.4405573815573
 31
0.0
  0
LINE
  5
4FE
330
1A
100
AcDbEntity
  8
CENTER_L
  6
CENTER
 62
     1
 48
5.0
100
AcDbLine
 10
594.5254310644798
 20
303.4405573815573
 30
0.0
 11
606.1751310644799
 21
303.4405573815573
 31
0.0
  0
LINE
  5
4FF
330
1A
100
AcDbEntity
  8
CENTER_L
  6
CENTER
 62
     1
 48
5.0
100
AcDbLine
 10
596.7429310644797
 20
278.4403573815573
 30
0.0
 11
604.8911310644798
 21
278.4403573815573
 31
0.0
  0
ARC
  5
500
330
1A
100
AcDbEntity
  8
SEIHIN
  6
CONTINUOUS
 62
     3
 48
16.0
100
AcDbCircle
 10
600.6890310644799
 20
278.4403573815573
 30
0.0
 40
7.0
100
AcDbArc
 50
90.0
 51
180.0
  0
LINE
  5
501
330
1A
100
AcDbEntity
  8
SEIHIN
  6
CONTINUOUS
 62
     3
 48
16.0
100
AcDbLine
 10
577.1891310644798
 20
268.4405573815573
 30
0.0
 11
599.0382310644797
 21
269.2034573815572
 31
0.0
  0
LINE
  5
502
330
1A
100
AcDbEntity
  8
SEIHIN
  6
CONTINUOUS
 62
     3
 48
16.0
100
AcDbLine
 10
601.68923106448
 20
295.4405573815573
 30
0.0
 11
581.6892310644798
 21
295.4406573815573
 31
0.0
  0
LINE
  5
503
330
1A
100
AcDbEntity
  8
SEIHIN
  6
CONTINUOUS
 62
     3
 48
16.0
100
AcDbLine
 10
577.1892310644798
 20
318.4405573815573
 30
0.0
 11
599.0382310644797
 21
317.6774573815573
 31
0.0
  0
LINE
  5
504
330
1A
100
AcDbEntity
  8
SEIHIN
  6
CONTINUOUS
 62
     3
 48
16.0
100
AcDbLine
 10
592.18923106448
 20
311.4405573815573
 30
0.0
 11
592.18923106448
 21
302.4405573815573
 31
0.0
  0
LINE
  5
505
330
1A
100
AcDbEntity
  8
CENTER_L
  6
CENTER
 62
     1
 48
5.0
100
AcDbLine
 10
553.6892310644798
 20
312.2254573815573
 30
0.0
 11
553.6892310644798
 21
298.3392573815572
 31
0.0
  0
LINE
  5
506
330
1A
100
AcDbEntity
  8
SEIHIN
  6
CONTINUOUS
 62
     3
 48
16.0
100
AcDbLine
 10
562.1892310644798
 20
311.4406573815573
 30
0.0
 11
562.1892310644798
 21
302.4406573815573
 31
0.0
  0
ARC
  5
507
330
1A
100
AcDbEntity
  8
SEIHIN
  6
CONTINUOUS
 62
     3
 48
16.0
100
AcDbCircle
 10
555.6892318289796
 20
307.3000581871673
 30
0.0
 40
10.00000076449997
100
AcDbArc
 50
92.99966242087167
 51
180.000004615805
  0
LINE
  5
508
330
1A
100
AcDbEntity
  8
SEIHIN
  6
CONTINUOUS
 62
     3
 48
16.0
100
AcDbLine
 10
577.1892310644798
 20
300.4406573815573
 30
0.0
 11
564.18923106448
 21
300.4406573815573
 31
0.0
  0
LINE
  5
509
330
1A
100
AcDbEntity
  8
SEIHIN
  6
CONTINUOUS
 62
     3
 48
16.0
100
AcDbLine
 10
572.6892310644798
 20
273.4405573815573
 30
0.0
 11
562.68933106448
 21
273.4405573815573
 31
0.0
  0
LINE
  5
50A
330
1A
100
AcDbEntity
  8
SEIHIN
  6
CONTINUOUS
 62
     3
 48
16.0
100
AcDbLine
 10
552.6892310644798
 20
295.4406573815573
 30
0.0
 11
572.6892310644798
 21
295.4406573815573
 31
0.0
  0
LINE
  5
50B
330
1A
100
AcDbEntity
  8
SEIHIN
  6
CONTINUOUS
 62
     3
 48
16.0
100
AcDbLine
 10
577.1891310644798
 20
268.4405573815573
 30
0.0
 11
555.1659310644797
 21
269.5947573815572
 31
0.0
  0
LINE
  5
50C
330
1A
100
AcDbEntity
  8
SEIHIN
  6
CONTINUOUS
 62
     3
 48
16.0
100
AcDbLine
 10
545.6892310644798
 20
307.3000573815573
 30
0.0
 11
545.6892310644798
 21
279.5810573815573
 31
0.0
  0
LINE
  5
50D
330
1A
100
AcDbEntity
  8
SEIHIN
  6
CONTINUOUS
 62
     3
 48
16.0
100
AcDbLine
 10
550.6892310644799
 20
293.4406573815572
 30
0.0
 11
550.6892310644799
 21
287.4404573815573
 31
0.0
  0
ARC
  5
50E
330
1A
100
AcDbEntity
  8
SEIHIN
  6
CONTINUOUS
 62
     3
 48
16.0
100
AcDbCircle
 10
555.6892318289798
 20
279.5810565759472
 30
0.0
 40
10.00000076450001
100
AcDbArc
 50
179.9999953841947
 51
267.0003375791279
  0
LINE
  5
50F
330
1A
100
AcDbEntity
  8
SEIHIN
  6
CONTINUOUS
 62
     3
 48
16.0
100
AcDbLine
 10
560.68933106448
 20
278.4404573815572
 30
0.0
 11
560.68933106448
 21
275.4405573815573
 31
0.0
  0
LINE
  5
510
330
1A
100
AcDbEntity
  8
CENTER_L
  6
CENTER
 62
     1
 48
5.0
100
AcDbLine
 10
553.6891310644799
 20
281.9412573815572
 30
0.0
 11
553.6891310644799
 21
273.4206573815573
 31
0.0
  0
ARC
  5
511
330
1A
100
AcDbEntity
  8
SEIHIN
  6
CONTINUOUS
 62
     3
 48
16.0
100
AcDbCircle
 10
553.6890310644799
 20
278.4404573815572
 30
0.0
 40
2.150000000000005
100
AcDbArc
 50
180.0
 51
0.0
  0
ARC
  5
512
330
1A
100
AcDbEntity
  8
SEIHIN
  6
CONTINUOUS
 62
     3
 48
16.0
100
AcDbCircle
 10
562.68933106448
 20
275.4405573815573
 30
0.0
 40
2.0
100
AcDbArc
 50
180.0
 51
270.0
  0
LINE
  5
513
330
1A
100
AcDbEntity
  8
CENTER_L
  6
CENTER
 62
     1
 48
5.0
100
AcDbLine
 10
557.6352310644799
 20
278.4404573815572
 30
0.0
 11
549.4870310644798
 21
278.4404573815572
 31
0.0
  0
ARC
  5
514
330
1A
100
AcDbEntity
  8
SEIHIN
  6
CONTINUOUS
 62
     3
 48
16.0
100
AcDbCircle
 10
553.6890310644799
 20
278.4404573815574
 30
0.0
 40
7.0
100
AcDbArc
 50
359.9999999999992
 51
89.99999999999907
  0
LINE
  5
515
330
1A
100
AcDbEntity
  8
SEIHIN
  6
CONTINUOUS
 62
     3
 48
16.0
100
AcDbLine
 10
553.6892310644798
 20
285.4404573815573
 30
0.0
 11
552.6892310644798
 21
285.4404573815573
 31
0.0
  0
ARC
  5
516
330
1A
100
AcDbEntity
  8
SEIHIN
  6
CONTINUOUS
 62
     3
 48
16.0
100
AcDbCircle
 10
553.6890310644799
 20
278.4404573815572
 30
0.0
 40
2.150000000000005
100
AcDbArc
 50
0.0
 51
180.0
  0
ARC
  5
517
330
1A
100
AcDbEntity
  8
SEIHIN
  6
CONTINUOUS
 62
     3
 48
16.0
100
AcDbCircle
 10
552.6892310644798
 20
287.4404573815573
 30
0.0
 40
1.999999999999943
100
AcDbArc
 50
179.9999999999983
 51
269.9999999999983
  0
LINE
  5
518
330
1A
100
AcDbEntity
  8
CENTER_L
  6
CENTER
 62
     1
 48
5.0
100
AcDbLine
 10
559.8530310644799
 20
303.4406573815572
 30
0.0
 11
548.2033310644799
 21
303.4406573815572
 31
0.0
  0
ARC
  5
519
330
1A
100
AcDbEntity
  8
SEIHIN
  6
CONTINUOUS
 62
     3
 48
16.0
100
AcDbCircle
 10
552.6892310644798
 20
293.4406573815573
 30
0.0
 40
1.999999999999943
100
AcDbArc
 50
90.00000000000161
 51
180.0000000000016
  0
LINE
  5
51A
330
1A
100
AcDbEntity
  8
CENTER_L
  6
CENTER
 62
     1
 48
5.0
100
AcDbLine
 10
557.6354310644798
 20
308.4406573815573
 30
0.0
 11
549.4871310644799
 21
308.4406573815573
 31
0.0
  0
ARC
  5
51B
330
1A
100
AcDbEntity
  8
SEIHIN
  6
CONTINUOUS
 62
     3
 48
16.0
100
AcDbCircle
 10
553.6892810644799
 20
303.4406573808199
 30
0.0
 40
3.249957671584971
100
AcDbArc
 50
106.5572312245809
 51
73.44276877541904
  0
ARC
  5
51C
330
1A
100
AcDbEntity
  8
SEIHIN
  6
CONTINUOUS
 62
     3
 48
16.0
100
AcDbCircle
 10
553.6892310644798
 20
308.440657381557
 30
0.0
 40
2.100031487858956
100
AcDbArc
 50
296.1672803646627
 51
243.8327196353372
  0
ARC
  5
51D
330
1A
100
AcDbEntity
  8
SEIHIN
  6
CONTINUOUS
 62
     3
 48
16.0
100
AcDbCircle
 10
564.1892310644798
 20
302.4406573815574
 30
0.0
 40
2.000000000000056
100
AcDbArc
 50
180.0000000000016
 51
270.0000000000016
  0
LINE
  5
51E
330
1A
100
AcDbEntity
  8
SEIHIN
  6
CONTINUOUS
 62
     3
 48
16.0
100
AcDbLine
 10
574.6892310644798
 20
293.4406573815572
 30
0.0
 11
574.6892310644798
 21
275.4405573815573
 31
0.0
  0
LINE
  5
51F
330
1A
100
AcDbEntity
  8
SEIHIN
  6
CONTINUOUS
 62
     3
 48
16.0
100
AcDbLine
 10
579.6891310644801
 20
293.4406573815572
 30
0.0
 11
579.6891310644801
 21
275.4404573815573
 31
0.0
  0
LINE
  5
520
330
1A
100
AcDbEntity
  8
SEIHIN
  6
CONTINUOUS
 62
     3
 48
16.0
100
AcDbLine
 10
581.68913106448
 20
273.4404573815573
 30
0.0
 11
591.6890310644799
 21
273.4404573815573
 31
0.0
  0
ARC
  5
521
330
1A
100
AcDbEntity
  8
SEIHIN
  6
CONTINUOUS
 62
     3
 48
16.0
100
AcDbCircle
 10
572.6892310644798
 20
275.4405573815573
 30
0.0
 40
2.0
100
AcDbArc
 50
270.0
 51
0.0
  0
ARC
  5
522
330
1A
100
AcDbEntity
  8
SEIHIN
  6
CONTINUOUS
 62
     3
 48
16.0
100
AcDbCircle
 10
581.68913106448
 20
275.4404573815573
 30
0.0
 40
2.0
100
AcDbArc
 50
180.0
 51
270.0
  0
LINE
  5
523
330
1A
100
AcDbEntity
  8
SEIHIN
  6
CONTINUOUS
 62
     3
 48
16.0
100
AcDbLine
 10
593.6890310644798
 20
278.4403573815573
 30
0.0
 11
593.6890310644798
 21
275.4404573815573
 31
0.0
  0
ARC
  5
524
330
1A
100
AcDbEntity
  8
SEIHIN
  6
CONTINUOUS
 62
     3
 48
16.0
100
AcDbCircle
 10
591.6890310644799
 20
275.4404573815573
 30
0.0
 40
1.999999999999943
100
AcDbArc
 50
270.0000000000016
 51
0.0000000000016284
  0
LINE
  5
525
330
1A
100
AcDbEntity
  8
SEIHIN
  6
CONTINUOUS
 62
     3
 48
16.0
100
AcDbLine
 10
577.1892310644798
 20
300.4406573815573
 30
0.0
 11
590.1892310644798
 21
300.4405573815573
 31
0.0
  0
ARC
  5
526
330
1A
100
AcDbEntity
  8
SEIHIN
  6
CONTINUOUS
 62
     3
 48
16.0
100
AcDbCircle
 10
572.6892310644798
 20
293.4406573815572
 30
0.0
 40
2.0
100
AcDbArc
 50
0.0
 51
90.0
  0
ARC
  5
527
330
1A
100
AcDbEntity
  8
SEIHIN
  6
CONTINUOUS
 62
     3
 48
16.0
100
AcDbCircle
 10
581.68913106448
 20
293.4406573815572
 30
0.0
 40
2.0
100
AcDbArc
 50
90.0
 51
180.0
  0
ARC
  5
528
330
1A
100
AcDbEntity
  8
SEIHIN
  6
CONTINUOUS
 62
     3
 48
16.0
100
AcDbCircle
 10
590.1892310644798
 20
302.4405573815574
 30
0.0
 40
2.000000000000056
100
AcDbArc
 50
269.9999999999983
 51
359.9999999999983
  0
LINE
  5
529
330
1A
100
AcDbEntity
  8
SEIHIN
  6
CONTINUOUS
 62
     3
 48
16.0
100
AcDbLine
 10
564.18923106448
 20
313.4406573815573
 30
0.0
 11
577.1892310644798
 21
313.4406573815573
 31
0.0
  0
LINE
  5
52A
330
1A
100
AcDbEntity
  8
SEIHIN
  6
CONTINUOUS
 62
     3
 48
16.0
100
AcDbLine
 10
577.1892310644798
 20
318.4405573815573
 30
0.0
 11
555.1659310644797
 21
317.2863573815573
 31
0.0
  0
ARC
  5
52B
330
1A
100
AcDbEntity
  8
SEIHIN
  6
CONTINUOUS
 62
     3
 48
16.0
100
AcDbCircle
 10
564.1892310644798
 20
311.4406573815572
 30
0.0
 40
2.000000000000056
100
AcDbArc
 50
89.99999999999836
 51
179.9999999999983
  0
LINE
  5
52C
330
1A
100
AcDbEntity
  8
SEIHIN
  6
CONTINUOUS
 62
     3
 48
16.0
100
AcDbLine
 10
590.1892310644798
 20
313.4405573815573
 30
0.0
 11
577.1892310644798
 21
313.4406573815573
 31
0.0
  0
ARC
  5
52D
330
1A
100
AcDbEntity
  8
SEIHIN
  6
CONTINUOUS
 62
     3
 48
16.0
100
AcDbCircle
 10
590.1892310644798
 20
311.4405573815573
 30
0.0
 40
2.000000000000056
100
AcDbArc
 50
0.0000000000016284
 51
90.00000000000161
  0
LINE
  5
52E
330
1A
100
AcDbEntity
  8
CENTER_L
  6
CENTER
 62
     1
 48
5.0
100
AcDbLine
 10
600.6892310644801
 20
312.2254573815573
 30
0.0
 11
600.6892310644801
 21
298.3393573815573
 31
0.0
  0
ARC
  5
52F
330
1A
100
AcDbEntity
  8
SEIHIN
  6
CONTINUOUS
 62
     3
 48
16.0
100
AcDbCircle
 10
598.6892351092315
 20
307.6835531930921
 30
0.0
 40
9.999995955249314
100
AcDbArc
 50
0.000023998147686
 51
87.99999352516508
  0
LINE
  5
530
330
1A
100
AcDbEntity
  8
SEIHIN
  6
CONTINUOUS
 62
     3
 48
16.0
100
AcDbLine
 10
603.68923106448
 20
293.4405573815573
 30
0.0
 11
603.68923106448
 21
287.4403573815573
 31
0.0
  0
LINE
  5
531
330
1A
100
AcDbEntity
  8
SEIHIN
  6
CONTINUOUS
 62
     3
 48
16.0
100
AcDbLine
 10
608.68923106448
 20
307.6835573815573
 30
0.0
 11
608.68923106448
 21
279.1974573815573
 31
0.0
  0
LINE
  5
532
330
1A
100
AcDbEntity
  8
CENTER_L
  6
CENTER
 62
     1
 48
5.0
100
AcDbLine
 10
600.68933106448
 20
282.2331573815573
 30
0.0
 11
600.68933106448
 21
272.8752573815573
 31
0.0
  0
ARC
  5
533
330
1A
100
AcDbEntity
  8
SEIHIN
  6
CONTINUOUS
 62
     3
 48
16.0
100
AcDbCircle
 10
600.6890310644799
 20
278.4403573815573
 30
0.0
 40
2.150100000000122
100
AcDbArc
 50
180.0
 51
0.0
  0
ARC
  5
534
330
1A
100
AcDbEntity
  8
SEIHIN
  6
CONTINUOUS
 62
     3
 48
16.0
100
AcDbCircle
 10
598.6891851394652
 20
279.1974098252797
 30
0.0
 40
10.00004592515226
100
AcDbArc
 50
272.0002829557029
 51
359.9996995209848
  0
LINE
  5
535
330
1A
100
AcDbEntity
  8
SEIHIN
  6
CONTINUOUS
 62
     3
 48
16.0
100
AcDbLine
 10
600.6890310644799
 20
285.4403573815573
 30
0.0
 11
601.68923106448
 21
285.4403573815573
 31
0.0
  0
ARC
  5
536
330
1A
100
AcDbEntity
  8
SEIHIN
  6
CONTINUOUS
 62
     3
 48
16.0
100
AcDbCircle
 10
600.6890310644799
 20
278.4403573815573
 30
0.0
 40
2.150100000000122
100
AcDbArc
 50
0.0
 51
180.0
  0
ARC
  5
537
330
1A
100
AcDbEntity
  8
SEIHIN
  6
CONTINUOUS
 62
     3
 48
16.0
100
AcDbCircle
 10
601.68923106448
 20
287.4403573815573
 30
0.0
 40
2.0
100
AcDbArc
 50
270.0
 51
0.0
  0
ARC
  5
538
330
1A
100
AcDbEntity
  8
SEIHIN
  6
CONTINUOUS
 62
     3
 48
16.0
100
AcDbCircle
 10
601.68923106448
 20
293.4405573815573
 30
0.0
 40
2.0
100
AcDbArc
 50
0.0
 51
90.0
  0
ARC
  5
539
330
1A
100
AcDbEntity
  8
SEIHIN
  6
CONTINUOUS
 62
     3
 48
16.0
100
AcDbCircle
 10
600.6891810644799
 20
308.4405573826257
 30
0.0
 40
2.100053538966949
100
AcDbArc
 50
296.1685046909566
 51
243.8314953090433
  0
LINE
  5
64C
330
1A
100
AcDbEntity
  8
0
  6
BYBLOCK
 62
     4
100
AcDbLine
 10
571.1892310644798
 20
318.4405573815573
 30
0.0
 11
461.6765906434282
 21
318.4405573815573
 31
0.0
  0
LINE
  5
64D
330
1A
100
AcDbEntity
  8
0
  6
BYBLOCK
 62
     4
100
AcDbLine
 10
571.1891310644798
 20
268.4405573815573
 30
0.0
 11
461.6765906434282
 21
268.4405573815573
 31
0.0
  0
LINE
  5
64E
330
1A
100
AcDbEntity
  8
0
  6
BYBLOCK
 62
     4
100
AcDbLine
 10
464.6765906434282
 20
311.4405573815573
 30
0.0
 11
464.6765906434282
 21
275.4405573815573
 31
0.0
  0
INSERT
  5
64F
330
1A
100
AcDbEntity
  8
0
  6
BYBLOCK
 62
     4
100
AcDbBlockReference
  2
_OPEN
 10
464.6765906434282
 20
318.4405573815573
 30
0.0
 41
7.0
 42
7.0
 43
7.0
 50
90.0
  0
INSERT
  5
650
330
1A
100
AcDbEntity
  8
0
  6
BYBLOCK
 62
     4
100
AcDbBlockReference
  2
_OPEN
 10
464.6765906434282
 20
268.4405573815573
 30
0.0
 41
7.0
 42
7.0
 43
7.0
 50
270.0
  0
MTEXT
  5
651
330
1A
100
AcDbEntity
  8
0
  6
BYBLOCK
 62
     4
100
AcDbMText
 10
459.6765906434282
 20
293.4405573815573
 30
0.0
 40
6.0
 41
0.0
 71
     5
 72
     5
  1
\A1;50
 11
0.0
 21
1.0
 31
0.0
1001
ACAD
1000
MTEXTBEGIN
1070
    73
1070
     1
1070
    44
1040
1.0
1070
    74
1070
     0
1000
MTEXTEND
1000
MTEXTBEGIN
1070
    73
1070
     1
1070
    44
1040
1.0
1070
    74
1070
     0
1000
MTEXTEND
1000
MTEXTBEGIN
1070
    73
1070
     1
1070
    44
1040
1.0
1070
    74
1070
     0
1000
MTEXTEND
  0
POINT
  5
652
330
1A
100
AcDbEntity
  8
DEFPOINTS
  6
BYBLOCK
 62
     0
100
AcDbPoint
 10
577.1892310644798
 20
318.4405573815573
 30
0.0
  0
POINT
  5
653
330
1A
100
AcDbEntity
  8
DEFPOINTS
  6
BYBLOCK
 62
     0
100
AcDbPoint
 10
577.1891310644798
 20
268.4405573815573
 30
0.0
  0
POINT
  5
654
330
1A
100
AcDbEntity
  8
DEFPOINTS
  6
BYBLOCK
 62
     0
100
AcDbPoint
 10
464.6765906434282
 20
268.4405573815573
 30
0.0
  0
TEXT
  5
655
330
1A
100
AcDbEntity
  8
ZUWAKU
 62
     4
100
AcDbText
 10
505.0326486929907
 20
289.6573947130777
 30
0.0
 40
6.0
  1
2-φ6.5
100
AcDbText
  0
LINE
  5
656
330
1A
100
AcDbEntity
  8
0
  6
BYBLOCK
 62
     4
100
AcDbLine
 10
543.4870310644798
 20
278.4404573815572
 30
0.0
 11
496.5971976638691
 21
278.4404573815572
 31
0.0
  0
LINE
  5
657
330
1A
100
AcDbEntity
  8
0
  6
BYBLOCK
 62
     4
100
AcDbLine
 10
571.1891310644798
 20
268.4405573815573
 30
0.0
 11
496.5971976638691
 21
268.4405573815573
 31
0.0
  0
LINE
  5
658
330
1A
100
AcDbEntity
  8
0
  6
BYBLOCK
 62
     4
100
AcDbLine
 10
499.5971976638691
 20
285.4404573815573
 30
0.0
 11
499.5971976638691
 21
292.4404573815572
 31
0.0
  0
LINE
  5
659
330
1A
100
AcDbEntity
  8
0
  6
BYBLOCK
 62
     4
100
AcDbLine
 10
499.5971976638691
 20
261.4405573815573
 30
0.0
 11
499.5971976638691
 21
243.4405573815573
 31
0.0
  0
LINE
  5
65A
330
1A
100
AcDbEntity
  8
0
  6
BYBLOCK
 62
     4
100
AcDbLine
 10
499.5971976638691
 20
278.4404573815572
 30
0.0
 11
499.5971976638691
 21
268.4405573815573
 31
0.0
  0
INSERT
  5
65B
330
1A
100
AcDbEntity
  8
0
  6
BYBLOCK
 62
     4
100
AcDbBlockReference
  2
_OPEN
 10
499.5971976638691
 20
278.4404573815572
 30
0.0
 41
7.0
 42
7.0
 43
7.0
 50
270.0
  0
INSERT
  5
65C
330
1A
100
AcDbEntity
  8
0
  6
BYBLOCK
 62
     4
100
AcDbBlockReference
  2
_OPEN
 10
499.5971976638691
 20
268.4405573815573
 30
0.0
 41
7.0
 42
7.0
 43
7.0
 50
90.0
  0
MTEXT
  5
65D
330
1A
100
AcDbEntity
  8
0
  6
BYBLOCK
 62
     4
100
AcDbMText
 10
494.597197663869
 20
248.9405573815573
 30
0.0
 40
6.0
 41
0.0
 71
     5
 72
     5
  1
\A1;10
 11
0.0
 21
1.0
 31
0.0
1001
ACAD
1000
MTEXTBEGIN
1070
    73
1070
     1
1070
    44
1040
1.0
1070
    74
1070
     0
1000
MTEXTEND
1000
MTEXTBEGIN
1070
    73
1070
     1
1070
    44
1040
1.0
1070
    74
1070
     0
1000
MTEXTEND
1000
MTEXTBEGIN
1070
    73
1070
     1
1070
    44
1040
1.0
1070
    74
1070
     0
1000
MTEXTEND
  0
POINT
  5
65E
330
1A
100
AcDbEntity
  8
DEFPOINTS
  6
BYBLOCK
 62
     0
100
AcDbPoint
 10
549.4870310644798
 20
278.4404573815572
 30
0.0
  0
POINT
  5
65F
330
1A
100
AcDbEntity
  8
DEFPOINTS
  6
BYBLOCK
 62
     0
100
AcDbPoint
 10
577.1891310644798
 20
268.4405573815573
 30
0.0
  0
POINT
  5
660
330
1A
100
AcDbEntity
  8
DEFPOINTS
  6
BYBLOCK
 62
     0
100
AcDbPoint
 10
499.5971976638691
 20
268.4405573815573
 30
0.0
  0
DIMENSION
  5
675
330
1A
100
AcDbEntity
  8
SUNPOU
100
AcDbDimension
  2
*D10
 10
391.7545793225875
 20
339.4009603692236
 30
0.0
 11
381.1564239959823
 21
344.4009603692236
 31
0.0
 70
    32
  3
STANDARD
100
AcDbAlignedDimension
 13
370.558268669377
 23
296.9816560890297
 33
0.0
 14
391.7545793225875
 24
318.4406573815572
 34
0.0
100
AcDbRotatedDimension
1001
ACAD
1000
DSTYLE
1002
{
1070
   140
1040
6.0
1070
    74
1070
     0
1070
   172
1070
     1
1070
    73
1070
     0
1070
   272
1070
     2
1070
    77
1070
     3
1070
   173
1070
     1
1070
   147
1040
2.0
1070
    42
1040
6.0
1070
    44
1040
3.0
1070
    43
1040
14.0
1070
   271
1070
     0
1070
   178
1070
     4
1070
   177
1070
     4
1070
   176
1070
     4
1070
   141
1040
150.0
1070
     7
1000
_OPEN
1070
     6
1000
_OPEN
1070
    41
1040
7.0
1002
}
  0
DIMENSION
  5
6C0
330
1A
100
AcDbEntity
  8
SUNPOU
  6
CONTINUOUS
100
AcDbDimension
  2
*D11
 10
391.7545793225875
 20
249.8461411076859
 30
0.0
 11
416.2545793225875
 21
254.8461411076859
 31
0.0
 70
    32
  1
t<>
  3
STANDARD
100
AcDbAlignedDimension
 13
385.7545793225875
 23
270.8192573815573
 33
0.0
 14
391.7545793225875
 24
268.8192573815573
 34
0.0
100
AcDbRotatedDimension
1001
ACAD
1000
DSTYLE
1002
{
1070
   140
1040
6.0
1070
    74
1070
     0
1070
   172
1070
     1
1070
    73
1070
     0
1070
   272
1070
     2
1070
    77
1070
     3
1070
   173
1070
     1
1070
   147
1040
2.0
1070
    42
1040
6.0
1070
    44
1040
3.0
1070
    43
1040
14.0
1070
   271
1070
     1
1070
   178
1070
     4
1070
   177
1070
     4
1070
   176
1070
     4
1070
   141
1040
150.0
1070
     7
1000
_OPEN
1070
     6
1000
_OPEN
1070
    41
1040
7.0
1002
}
  0
LINE
  5
84A
330
1A
100
AcDbEntity
  8
ZUWAKU
100
AcDbLine
 10
208.6466021508235
 20
15.20000025521687
 30
0.0
 11
447.4243648317469
 21
15.20000025521686
 31
0.0
  0
LINE
  5
84B
330
1A
100
AcDbEntity
  8
ZUWAKU
100
AcDbLine
 10
208.6466021508235
 20
15.60000025521686
 30
0.0
 11
447.4243648317469
 21
15.60000025521687
 31
0.0
  0
LINE
  5
84C
330
1A
100
AcDbEntity
  8
ZUWAKU
100
AcDbLine
 10
208.6466021508235
 20
15.40000025521686
 30
0.0
 11
447.4243648317469
 21
15.40000025521686
 31
0.0
  0
LINE
  5
84D
330
1A
100
AcDbEntity
  8
ZUWAKU
100
AcDbLine
 10
0.0000008607555628
 20
30.80000025521684
 30
0.0
 11
797.4000008607554
 21
30.80000025521684
 31
0.0
  0
LINE
  5
84E
330
1A
100
AcDbEntity
  8
ZUWAKU
100
AcDbLine
 10
0.0000008607555628
 20
30.60000025521684
 30
0.0
 11
797.4000008607554
 21
30.60000025521684
 31
0.0
  0
LINE
  5
84F
330
1A
100
AcDbEntity
  8
ZUWAKU
100
AcDbLine
 10
0.0000008607555628
 20
30.40000025521683
 30
0.0
 11
797.4000008607554
 21
30.40000025521683
 31
0.0
  0
LINE
  5
850
330
1A
100
AcDbEntity
  8
ZUWAKU
100
AcDbLine
 10
0.0000008607555628
 20
30.20000025521683
 30
0.0
 11
797.4000008607554
 21
30.20000025521683
 31
0.0
  0
LINE
  5
851
330
1A
100
AcDbEntity
  8
ZUWAKU
100
AcDbLine
 10
0.0000008607555628
 20
30.00000025521683
 30
0.0
 11
797.4000008607554
 21
30.00000025521683
 31
0.0
  0
LWPOLYLINE
  5
852
330
1A
100
AcDbEntity
  8
ZUWAKU
100
AcDbPolyline
 90
        4
 70
     1
 43
0.0
 10
0.2000008607554946
 20
551.4000002552169
 10
0.2000008607554946
 20
0.200000255216878
 10
797.4000008607554
 20
0.2000002552169011
 10
797.4000008607556
 20
551.4000002552169
  0
LWPOLYLINE
  5
853
330
1A
100
AcDbEntity
  8
ZUWAKU
100
AcDbPolyline
 90
        4
 70
     1
 43
0.0
 10
0.6000008607554719
 20
551.0000002552169
 10
0.6000008607554719
 20
0.6000002552168553
 10
797.0000008607557
 20
0.6000002552169015
 10
797.0000008607556
 20
551.0000002552169
  0
LWPOLYLINE
  5
854
330
1A
100
AcDbEntity
  8
ZUWAKU
100
AcDbPolyline
 90
        4
 70
     1
 43
0.0
 10
0.0000008607555628
 20
551.6000002552168
 10
0.0000008607555628
 20
0.0000002552168326
 10
797.6000008607557
 20
0.0000002552169001
 10
797.6000008607557
 20
551.600000255217
  0
LWPOLYLINE
  5
855
330
1A
100
AcDbEntity
  8
ZUWAKU
100
AcDbPolyline
 90
        4
 70
     1
 43
0.0
 10
0.4000008607555401
 20
551.2000002552168
 10
0.4000008607555401
 20
0.4000002552169235
 10
797.2000008607555
 20
0.4000002552169005
 10
797.2000008607555
 20
551.2000002552168
  0
LWPOLYLINE
  5
856
330
1A
100
AcDbEntity
  8
ZUWAKU
100
AcDbPolyline
 90
        4
 70
     1
 43
0.0
 10
0.8000008607555173
 20
550.8000002552169
 10
0.8000008607555173
 20
0.8000002552169007
 10
796.8000008607555
 20
0.8000002552169007
 10
796.8000008607555
 20
550.8000002552169
  0
TEXT
  5
857
330
1A
100
AcDbEntity
  8
MOJI
100
AcDbText
 10
92.95779044892469
 20
12.74117838549159
 30
0.0
 40
6.0
  1
新・丸トップＲＶ１０５
 41
0.9
  7
ｽﾀｲﾙ1
100
AcDbText
  0
HATCH
  5
858
330
1A
100
AcDbEntity
  8
ZUWAKU
100
AcDbHatch
 10
0.0
 20
0.0
 30
0.0
210
0.0
220
0.0
230
1.0
  2
ANSI37
 70
     0
 71
     0
 91
        8
 92
        7
 72
     1
 73
     1
 93
       24
 10
14.50226352187542
 20
17.64484873620041
 42
-0.1989123673796348
 10
14.09221301553668
 20
18.63479822986146
 42
0.0
 10
14.09221301553668
 20
19.92500025521684
 42
-0.4142135623730912
 10
14.61721301553666
 20
20.45000025521683
 42
0.0
 10
17.59221301553657
 20
20.45000025521683
 42
0.4142135623731546
 10
18.11721301553666
 20
20.97500025521682
 42
0.0
 10
18.11721301553666
 20
22.72500025521684
 42
0.4142135623731586
 10
17.59221301553657
 20
23.25000025521684
 42
0.0
 10
14.09221301553668
 20
23.25000025521684
 42
0.4142135623730928
 10
11.29221301553673
 20
20.45000025521686
 42
0.0
 10
11.29221301553673
 20
18.63479822986159
 42
0.1989123673796619
 10
12.52236453455316
 20
15.66494974887798
 42
0.0
 10
15.43216250919783
 20
12.75515177423333
 42
-0.1989123673796613
 10
15.84221301553668
 20
11.76520228057214
 42
0.0
 10
15.84221301553668
 20
10.47500025521682
 42
-0.4142135623730911
 10
15.31721301553671
 20
9.950000255216835
 42
0.0
 10
12.3422130155368
 20
9.950000255216835
 42
0.4142135623731526
 10
11.8172130155367
 20
9.425000255216847
 42
0.0
 10
11.8172130155367
 20
7.675000255216826
 42
0.4142135623731526
 10
12.3422130155368
 20
7.150000255216838
 42
0.0
 10
15.84221301553668
 20
7.150000255216838
 42
0.4142135623731044
 10
18.64221301553675
 20
9.950000255216814
 42
0.0
 10
18.64221301553675
 20
11.76520228057208
 42
0.1989123673796604
 10
17.41206149652021
 20
14.73505076155562
 42
0.0
 97
        0
 92
        7
 72
     1
 73
     1
 93
       16
 10
23.54221301553673
 20
19.05000025521684
 42
-0.4142135623730935
 10
24.9422130155367
 20
20.45000025521683
 42
0.0
 10
26.86721301553666
 20
20.45000025521683
 42
0.4142135623731546
 10
27.39221301553675
 20
20.97500025521682
 42
0.0
 10
27.39221301553675
 20
22.72500025521684
 42
0.4142135623730951
 10
26.86721301553677
 20
23.25000025521684
 42
0.0
 10
24.94221301553659
 20
23.25000025521679
 42
0.4142135623730892
 10
20.74221301553666
 20
19.05000025521677
 42
0.0
 10
20.74221301553666
 20
11.35000025521686
 42
0.4142135623730969
 10
24.9422130155367
 20
7.150000255216838
 42
0.0
 10
26.86721301553666
 20
7.150000255216838
 42
0.4142135623731526
 10
27.39221301553675
 20
7.675000255216826
 42
0.0
 10
27.39221301553675
 20
9.425000255216847
 42
0.4142135623730891
 10
26.86721301553677
 20
9.950000255216835
 42
0.0
 10
24.9422130155367
 20
9.950000255216835
 42
-0.4142135623730928
 10
23.54221301553673
 20
11.35000025521682
 42
0.0
 97
        0
 92
        7
 72
     1
 73
     1
 93
        2
 10
24.24221301553666
 20
15.20000025521683
 42
1.0
 10
27.74221301553666
 20
15.20000025521683
 42
1.0
 97
        0
 92
        7
 72
     1
 73
     1
 93
       26
 10
37.31485949771467
 20
19.20504744878026
 42
0.0
 10
38.37649913085249
 20
22.56690628704985
 42
0.5069206636600134
 10
37.87586823165713
 20
23.25000025521684
 42
0.0
 10
36.1769788520479
 20
23.25000025521684
 42
0.3272098845218764
 10
35.67634795285255
 20
22.8830942233838
 42
0.0
 10
33.80807807822077
 20
16.96690628704991
 42
-0.3272098845219541
 10
33.3074471790253
 20
16.60000025521683
 42
0.0
 10
33.16721301553684
 20
16.60000025521683
 42
-0.4142135623731526
 10
32.64221301553675
 20
17.12500025521682
 42
0.0
 10
32.64221301553675
 20
22.72500025521684
 42
0.4142135623730951
 10
32.11721301553677
 20
23.25000025521684
 42
0.0
 10
30.36721301553666
 20
23.25000025521684
 42
0.4142135623730871
 10
29.84221301553668
 20
22.72500025521685
 42
0.0
 10
29.84221301553668
 20
7.675000255216826
 42
0.4142135623730891
 10
30.36721301553666
 20
7.150000255216838
 42
0.0
 10
32.11721301553666
 20
7.150000255216838
 42
0.4142135623731526
 10
32.64221301553675
 20
7.675000255216826
 42
0.0
 10
32.64221301553675
 20
13.27500025521684
 42
-0.4142135623731526
 10
33.16721301553684
 20
13.80000025521683
 42
0.0
 10
33.30744717902542
 20
13.80000025521683
 42
-0.3272098845218915
 10
33.80807807822077
 20
13.43309422338376
 42
0.0
 10
35.67634795285255
 20
7.516906287049909
 42
0.3272098845218902
 10
36.1769788520479
 20
7.150000255216838
 42
0.0
 10
37.87586823165713
 20
7.150000255216838
 42
0.5069206636600335
 10
38.37649913085249
 20
7.833094223383845
 42
0.0
 10
36.05010775237883
 20
15.20000025521697
 42
0.0
 97
        0
 92
        7
 72
     1
 73
     1
 93
        8
 10
43.49221301553666
 20
22.72500025521684
 42
0.4142135623731546
 10
42.96721301553657
 20
23.25000025521684
 42
0.0
 10
41.21721301553679
 20
23.25000025521684
 42
0.4142135623731507
 10
40.6922130155367
 20
22.72500025521685
 42
0.0
 10
40.6922130155367
 20
7.675000255216826
 42
0.4142135623731526
 10
41.21721301553679
 20
7.150000255216838
 42
0.0
 10
42.96721301553657
 20
7.150000255216838
 42
0.4142135623731526
 10
43.49221301553666
 20
7.675000255216826
 42
0.0
 97
        0
 92
        7
 72
     1
 73
     1
 93
       24
 10
48.39221301553675
 20
19.92500025521684
 42
-0.4142135623731546
 10
48.91721301553684
 20
20.45000025521683
 42
0.0
 10
51.89221301553676
 20
20.45000025521683
 42
0.4142135623730911
 10
52.41721301553673
 20
20.97500025521682
 42
0.0
 10
52.41721301553673
 20
22.72500025521684
 42
0.4142135623730952
 10
51.89221301553676
 20
23.25000025521684
 42
0.0
 10
48.39221301553675
 20
23.25000025521684
 42
0.4142135623731048
 10
45.59221301553669
 20
20.45000025521686
 42
0.0
 10
45.59221301553669
 20
18.63479822986159
 42
0.1989123673796613
 10
46.82236453455323
 20
15.66494974887804
 42
0.0
 10
49.7321625091979
 20
12.75515177423337
 42
-0.1989123673796402
 10
50.14221301553675
 20
11.7652022805723
 42
0.0
 10
50.14221301553675
 20
10.47500025521682
 42
-0.4142135623730911
 10
49.61721301553677
 20
9.950000255216835
 42
0.0
 10
46.64221301553675
 20
9.950000255216835
 42
0.4142135623731526
 10
46.11721301553666
 20
9.425000255216847
 42
0.0
 10
46.11721301553666
 20
7.675000255216826
 42
0.4142135623730891
 10
46.64221301553664
 20
7.150000255216838
 42
0.0
 10
50.14221301553675
 20
7.150000255216838
 42
0.4142135623730925
 10
52.94221301553671
 20
9.950000255216814
 42
0.0
 10
52.94221301553671
 20
11.76520228057208
 42
0.1989123673796675
 10
51.71206149652016
 20
14.73505076155574
 42
0.0
 10
48.8022635218756
 20
17.64484873620025
 42
-0.1989123673796652
 10
48.39221301553675
 20
18.63479822986142
 42
0.0
 97
        0
 92
        7
 72
     1
 73
     1
 93
       16
 10
57.84221301553668
 20
22.72500025521682
 42
0.414213562373103
 10
57.31721301553671
 20
23.25000025521684
 42
0.0
 10
55.56721301553671
 20
23.25000025521684
 42
0.4142135623730871
 10
55.04221301553673
 20
22.72500025521685
 42
0.0
 10
55.04221301553673
 20
9.950000255216814
 42
0.4142135623730926
 10
57.84221301553668
 20
7.150000255216838
 42
0.0
 10
61.34221301553669
 20
7.150000255216838
 42
0.4142135623731044
 10
64.14221301553675
 20
9.950000255216814
 42
0.0
 10
64.14221301553675
 20
22.72500025521684
 42
0.4142135623730951
 10
63.61721301553678
 20
23.25000025521684
 42
0.0
 10
61.86721301553666
 20
23.25000025521684
 42
0.4142135623730871
 10
61.34221301553669
 20
22.72500025521685
 42
0.0
 10
61.34221301553669
 20
11.00000025521681
 42
-0.414213562373088
 10
60.29221301553673
 20
9.950000255216835
 42
0.0
 10
58.89221301553675
 20
9.950000255216835
 42
-0.4142135623731197
 10
57.84221301553668
 20
11.00000025521681
 42
0.0
 97
        0
 92
        7
 72
     1
 73
     1
 93
        8
 10
69.04221301553673
 20
22.72500025521685
 42
0.4142135623730871
 10
68.51721301553675
 20
23.25000025521684
 42
0.0
 10
66.76721301553675
 20
23.25000025521684
 42
0.4142135623731507
 10
66.24221301553666
 20
22.72500025521685
 42
0.0
 10
66.24221301553666
 20
7.675000255216826
 42
0.4142135623730891
 10
66.76721301553664
 20
7.150000255216838
 42
0.0
 10
68.51721301553675
 20
7.150000255216838
 42
0.4142135623730891
 10
69.04221301553673
 20
7.675000255216826
 42
0.0
 97
        0
 75
     0
 76
     1
 52
0.0
 41
0.2
 77
     0
 78
     2
 53
45.0
 43
-900.9423034739233
 44
-13.19999974478309
 45
-0.4490128060534576
 46
0.4490128060534577
 79
     0
 53
135.0
 43
-900.9423034739233
 44
-13.19999974478309
 45
-0.4490128060534577
 46
-0.4490128060534576
 79
     0
 47
0.057451373970553
 98
        8
 10
16.07985582377887
 20
15.16717390110238
 10
22.40451586719473
 20
18.84406243766784
 10
25.16436874641522
 20
15.51188190128755
 10
30.9140608423927
 20
16.20129790165833
 10
41.8384728797123
 20
16.66091016919995
 10
46.8982017558851
 20
19.41857657162404
 10
56.55768683315591
 20
18.72915817031184
 10
67.8270804803783
 20
19.18877043785346
  0
LINE
  5
859
330
1A
100
AcDbEntity
  8
ZUWAKU
100
AcDbLine
 10
24.9422130155367
 20
23.25000025521679
 30
0.0
 11
26.86721301553666
 21
23.25000025521684
 31
0.0
  0
LINE
  5
85A
330
1A
100
AcDbEntity
  8
ZUWAKU
100
AcDbLine
 10
26.86721301553666
 20
20.45000025521683
 30
0.0
 11
24.9422130155367
 21
20.45000025521683
 31
0.0
  0
LINE
  5
85B
330
1A
100
AcDbEntity
  8
ZUWAKU
100
AcDbLine
 10
24.9422130155367
 20
9.950000255216835
 30
0.0
 11
26.86721301553666
 21
9.950000255216835
 31
0.0
  0
LINE
  5
85C
330
1A
100
AcDbEntity
  8
ZUWAKU
100
AcDbLine
 10
26.86721301553666
 20
7.150000255216838
 30
0.0
 11
24.9422130155367
 21
7.150000255216838
 31
0.0
  0
CIRCLE
  5
85D
330
1A
100
AcDbEntity
  8
ZUWAKU
100
AcDbCircle
 10
25.99221301553666
 20
15.20000025521683
 30
0.0
 40
1.75
  0
ARC
  5
85E
330
1A
100
AcDbEntity
  8
ZUWAKU
100
AcDbCircle
 10
15.49221301553666
 20
18.63479822986153
 30
0.0
 40
1.399999999999999
100
AcDbArc
 50
180.0000000000016
 51
224.9999999999988
  0
LINE
  5
85F
330
1A
100
AcDbEntity
  8
ZUWAKU
100
AcDbLine
 10
23.54221301553673
 20
19.05000025521683
 30
0.0
 11
23.54221301553673
 21
11.35000025521684
 31
0.0
  0
LINE
  5
860
330
1A
100
AcDbEntity
  8
ZUWAKU
100
AcDbLine
 10
20.74221301553666
 20
11.35000025521684
 30
0.0
 11
20.74221301553666
 21
19.05000025521679
 31
0.0
  0
ARC
  5
861
330
1A
100
AcDbEntity
  8
ZUWAKU
100
AcDbCircle
 10
15.49221301553666
 20
18.63479822986153
 30
0.0
 40
4.199999999999999
100
AcDbArc
 50
180.0
 51
225.0
  0
ARC
  5
862
330
1A
100
AcDbEntity
  8
ZUWAKU
100
AcDbCircle
 10
15.84221301553668
 20
9.950000255216835
 30
0.0
 40
2.799999999999999
100
AcDbArc
 50
270.0
 51
0.0
  0
ARC
  5
863
330
1A
100
AcDbEntity
  8
ZUWAKU
100
AcDbCircle
 10
24.9422130155367
 20
11.35000025521684
 30
0.0
 40
4.199999999999999
100
AcDbArc
 50
180.0
 51
270.0
  0
ARC
  5
864
330
1A
100
AcDbEntity
  8
ZUWAKU
100
AcDbCircle
 10
14.4422130155367
 20
11.76520228057214
 30
0.0
 40
4.199999999999999
100
AcDbArc
 50
0.0
 51
45.0
  0
LINE
  5
865
330
1A
100
AcDbEntity
  8
ZUWAKU
100
AcDbLine
 10
17.41206149652021
 20
14.73505076155566
 30
0.0
 11
14.50226352187553
 21
17.64484873620033
 31
0.0
  0
LINE
  5
866
330
1A
100
AcDbEntity
  8
ZUWAKU
100
AcDbLine
 10
15.84221301553668
 20
10.47500025521684
 30
0.0
 11
15.84221301553668
 21
11.76520228057218
 31
0.0
  0
ARC
  5
867
330
1A
100
AcDbEntity
  8
ZUWAKU
100
AcDbCircle
 10
15.31721301553671
 20
10.47500025521684
 30
0.0
 40
0.525
100
AcDbArc
 50
270.0
 51
0.0
  0
ARC
  5
868
330
1A
100
AcDbEntity
  8
ZUWAKU
100
AcDbCircle
 10
14.4422130155367
 20
11.76520228057218
 30
0.0
 40
1.399999999999999
100
AcDbArc
 50
0.0
 51
45.0
  0
LINE
  5
869
330
1A
100
AcDbEntity
  8
ZUWAKU
100
AcDbLine
 10
11.8172130155367
 20
7.675000255216836
 30
0.0
 11
11.8172130155367
 21
9.425000255216836
 31
0.0
  0
ARC
  5
86A
330
1A
100
AcDbEntity
  8
ZUWAKU
100
AcDbCircle
 10
12.34221301553668
 20
7.675000255216836
 30
0.0
 40
0.525
100
AcDbArc
 50
180.0
 51
270.0
  0
ARC
  5
86B
330
1A
100
AcDbEntity
  8
ZUWAKU
100
AcDbCircle
 10
12.34221301553668
 20
9.425000255216836
 30
0.0
 40
0.525
100
AcDbArc
 50
90.0
 51
180.0
  0
LINE
  5
86C
330
1A
100
AcDbEntity
  8
ZUWAKU
100
AcDbLine
 10
12.34221301553668
 20
7.150000255216838
 30
0.0
 11
15.84221301553668
 21
7.150000255216838
 31
0.0
  0
LINE
  5
86D
330
1A
100
AcDbEntity
  8
ZUWAKU
100
AcDbLine
 10
12.34221301553668
 20
9.950000255216835
 30
0.0
 11
15.31721301553671
 21
9.950000255216835
 31
0.0
  0
LINE
  5
86E
330
1A
100
AcDbEntity
  8
ZUWAKU
100
AcDbLine
 10
12.52236453455316
 20
15.66494974887801
 30
0.0
 11
15.43216250919783
 21
12.75515177423335
 31
0.0
  0
LINE
  5
86F
330
1A
100
AcDbEntity
  8
ZUWAKU
100
AcDbLine
 10
18.64221301553675
 20
9.950000255216835
 30
0.0
 11
18.64221301553675
 21
11.76520228057218
 31
0.0
  0
ARC
  5
870
330
1A
100
AcDbEntity
  8
ZUWAKU
100
AcDbCircle
 10
24.9422130155367
 20
11.35000025521684
 30
0.0
 40
1.399999999999999
100
AcDbArc
 50
180.0
 51
270.0
  0
ARC
  5
871
330
1A
100
AcDbEntity
  8
ZUWAKU
100
AcDbCircle
 10
17.59221301553668
 20
22.72500025521683
 30
0.0
 40
0.525
100
AcDbArc
 50
0.0
 51
90.0
  0
ARC
  5
872
330
1A
100
AcDbEntity
  8
ZUWAKU
100
AcDbCircle
 10
17.59221301553668
 20
20.97500025521683
 30
0.0
 40
0.525
100
AcDbArc
 50
270.0
 51
0.0
  0
LINE
  5
873
330
1A
100
AcDbEntity
  8
ZUWAKU
100
AcDbLine
 10
14.09221301553668
 20
23.25000025521684
 30
0.0
 11
17.59221301553668
 21
23.25000025521684
 31
0.0
  0
ARC
  5
874
330
1A
100
AcDbEntity
  8
ZUWAKU
100
AcDbCircle
 10
14.61721301553666
 20
19.92500025521683
 30
0.0
 40
0.525
100
AcDbArc
 50
90.0
 51
180.0
  0
LINE
  5
875
330
1A
100
AcDbEntity
  8
ZUWAKU
100
AcDbLine
 10
14.09221301553668
 20
19.92500025521683
 30
0.0
 11
14.09221301553668
 21
18.63479822986149
 31
0.0
  0
LINE
  5
876
330
1A
100
AcDbEntity
  8
ZUWAKU
100
AcDbLine
 10
17.59221301553668
 20
20.45000025521683
 30
0.0
 11
14.61721301553666
 21
20.45000025521683
 31
0.0
  0
LINE
  5
877
330
1A
100
AcDbEntity
  8
ZUWAKU
100
AcDbLine
 10
11.29221301553673
 20
20.45000025521683
 30
0.0
 11
11.29221301553673
 21
18.63479822986149
 31
0.0
  0
ARC
  5
878
330
1A
100
AcDbEntity
  8
ZUWAKU
100
AcDbCircle
 10
14.09221301553668
 20
20.45000025521683
 30
0.0
 40
2.799999999999999
100
AcDbArc
 50
90.0
 51
180.0
  0
LINE
  5
879
330
1A
100
AcDbEntity
  8
ZUWAKU
100
AcDbLine
 10
18.11721301553666
 20
22.72500025521683
 30
0.0
 11
18.11721301553666
 21
20.97500025521683
 31
0.0
  0
ARC
  5
87A
330
1A
100
AcDbEntity
  8
ZUWAKU
100
AcDbCircle
 10
24.9422130155367
 20
19.05000025521683
 30
0.0
 40
1.399999999999999
100
AcDbArc
 50
90.0
 51
180.0
  0
ARC
  5
87B
330
1A
100
AcDbEntity
  8
ZUWAKU
100
AcDbCircle
 10
24.9422130155367
 20
19.05000025521679
 30
0.0
 40
4.199999999999999
100
AcDbArc
 50
90.0
 51
180.0
  0
LINE
  5
87C
330
1A
100
AcDbEntity
  8
ZUWAKU
100
AcDbLine
 10
79.32663040874377
 20
30.00000025521683
 30
0.0
 11
79.32663040874399
 21
0.8000002552169007
 31
0.0
  0
LINE
  5
87D
330
1A
100
AcDbEntity
  8
ZUWAKU
100
AcDbLine
 10
79.52663040874381
 20
30.00000025521683
 30
0.0
 11
79.52663040874404
 21
0.8000002552169007
 31
0.0
  0
LINE
  5
87E
330
1A
100
AcDbEntity
  8
ZUWAKU
100
AcDbLine
 10
79.12663040874395
 20
30.00000025521683
 30
0.0
 11
79.12663040874395
 21
0.8000002552169007
 31
0.0
  0
LINE
  5
87F
330
1A
100
AcDbEntity
  8
ZUWAKU
100
AcDbLine
 10
64.14221301553675
 20
9.950000255216835
 30
0.0
 11
64.14221301553675
 21
22.72500025521683
 31
0.0
  0
LINE
  5
880
330
1A
100
AcDbEntity
  8
ZUWAKU
100
AcDbLine
 10
61.34221301553669
 20
22.72500025521683
 30
0.0
 11
61.34221301553669
 21
11.00000025521683
 31
0.0
  0
LINE
  5
881
330
1A
100
AcDbEntity
  8
ZUWAKU
100
AcDbLine
 10
69.04221301553673
 20
7.675000255216836
 30
0.0
 11
69.04221301553673
 21
22.72500025521683
 31
0.0
  0
LINE
  5
882
330
1A
100
AcDbEntity
  8
ZUWAKU
100
AcDbLine
 10
66.24221301553666
 20
22.72500025521683
 30
0.0
 11
66.24221301553666
 21
7.675000255216836
 31
0.0
  0
ARC
  5
883
330
1A
100
AcDbEntity
  8
ZUWAKU
100
AcDbCircle
 10
49.79221301553673
 20
18.63479822986153
 30
0.0
 40
1.399999999999999
100
AcDbArc
 50
180.0000000000016
 51
224.9999999999988
  0
ARC
  5
884
330
1A
100
AcDbEntity
  8
ZUWAKU
100
AcDbCircle
 10
49.79221301553673
 20
18.63479822986153
 30
0.0
 40
4.199999999999999
100
AcDbArc
 50
180.0
 51
225.0
  0
LINE
  5
885
330
1A
100
AcDbEntity
  8
ZUWAKU
100
AcDbLine
 10
37.31485949771467
 20
19.20504744878026
 30
0.0
 11
36.05010775237883
 21
15.20000025521685
 31
0.0
  0
LINE
  5
886
330
1A
100
AcDbEntity
  8
ZUWAKU
100
AcDbLine
 10
40.6922130155367
 20
22.72500025521683
 30
0.0
 11
40.6922130155367
 21
7.675000255216836
 31
0.0
  0
LINE
  5
887
330
1A
100
AcDbEntity
  8
ZUWAKU
100
AcDbLine
 10
43.49221301553666
 20
7.675000255216836
 30
0.0
 11
43.49221301553666
 21
22.72500025521683
 31
0.0
  0
LINE
  5
888
330
1A
100
AcDbEntity
  8
ZUWAKU
100
AcDbLine
 10
55.04221301553673
 20
22.72500025521683
 30
0.0
 11
55.04221301553673
 21
9.950000255216835
 31
0.0
  0
LINE
  5
889
330
1A
100
AcDbEntity
  8
ZUWAKU
100
AcDbLine
 10
57.84221301553668
 20
11.00000025521683
 30
0.0
 11
57.84221301553668
 21
22.72500025521683
 31
0.0
  0
LINE
  5
88A
330
1A
100
AcDbEntity
  8
ZUWAKU
100
AcDbLine
 10
32.64221301553675
 20
17.12500025521683
 30
0.0
 11
32.64221301553675
 21
22.72500025521683
 31
0.0
  0
LINE
  5
88B
330
1A
100
AcDbEntity
  8
ZUWAKU
100
AcDbLine
 10
29.84221301553668
 20
22.72500025521683
 30
0.0
 11
29.84221301553668
 21
7.675000255216836
 31
0.0
  0
LINE
  5
88C
330
1A
100
AcDbEntity
  8
ZUWAKU
100
AcDbLine
 10
35.67634795285255
 20
22.8830942233838
 30
0.0
 11
33.80807807822077
 21
16.96690628704986
 31
0.0
  0
LINE
  5
88D
330
1A
100
AcDbEntity
  8
ZUWAKU
100
AcDbLine
 10
60.29221301553673
 20
9.950000255216835
 30
0.0
 11
58.89221301553675
 21
9.950000255216835
 31
0.0
  0
LINE
  5
88E
330
1A
100
AcDbEntity
  8
ZUWAKU
100
AcDbLine
 10
57.84221301553668
 20
7.150000255216838
 30
0.0
 11
61.34221301553669
 21
7.150000255216838
 31
0.0
  0
LINE
  5
88F
330
1A
100
AcDbEntity
  8
ZUWAKU
100
AcDbLine
 10
41.21721301553669
 20
7.150000255216838
 30
0.0
 11
42.96721301553668
 21
7.150000255216838
 31
0.0
  0
LINE
  5
890
330
1A
100
AcDbEntity
  8
ZUWAKU
100
AcDbLine
 10
35.67634795285255
 20
7.516906287049863
 30
0.0
 11
33.80807807822077
 21
13.4330942233838
 31
0.0
  0
ARC
  5
891
330
1A
100
AcDbEntity
  8
ZUWAKU
100
AcDbCircle
 10
33.30744717902542
 20
17.12500025521683
 30
0.0
 40
0.525
100
AcDbArc
 50
270.0
 51
342.4744316262769
  0
LINE
  5
892
330
1A
100
AcDbEntity
  8
ZUWAKU
100
AcDbLine
 10
33.30744717902542
 20
16.60000025521683
 30
0.0
 11
33.16721301553673
 21
16.60000025521683
 31
0.0
  0
LINE
  5
893
330
1A
100
AcDbEntity
  8
ZUWAKU
100
AcDbLine
 10
33.16721301553673
 20
13.80000025521683
 30
0.0
 11
33.30744717902542
 21
13.80000025521683
 31
0.0
  0
ARC
  5
894
330
1A
100
AcDbEntity
  8
ZUWAKU
100
AcDbCircle
 10
33.16721301553673
 20
17.12500025521683
 30
0.0
 40
0.525
100
AcDbArc
 50
180.0
 51
270.0
  0
LINE
  5
895
330
1A
100
AcDbEntity
  8
ZUWAKU
100
AcDbLine
 10
30.36721301553666
 20
7.150000255216838
 30
0.0
 11
32.11721301553666
 21
7.150000255216838
 31
0.0
  0
ARC
  5
896
330
1A
100
AcDbEntity
  8
ZUWAKU
100
AcDbCircle
 10
32.11721301553666
 20
7.675000255216836
 30
0.0
 40
0.525
100
AcDbArc
 50
270.0
 51
0.0
  0
LINE
  5
897
330
1A
100
AcDbEntity
  8
ZUWAKU
100
AcDbLine
 10
32.64221301553675
 20
7.675000255216836
 30
0.0
 11
32.64221301553675
 21
13.27500025521684
 31
0.0
  0
LINE
  5
898
330
1A
100
AcDbEntity
  8
ZUWAKU
100
AcDbLine
 10
27.39221301553675
 20
9.425000255216836
 30
0.0
 11
27.39221301553675
 21
7.675000255216836
 31
0.0
  0
ARC
  5
899
330
1A
100
AcDbEntity
  8
ZUWAKU
100
AcDbCircle
 10
26.86721301553666
 20
7.675000255216836
 30
0.0
 40
0.525
100
AcDbArc
 50
270.0
 51
0.0
  0
ARC
  5
89A
330
1A
100
AcDbEntity
  8
ZUWAKU
100
AcDbCircle
 10
26.86721301553666
 20
9.425000255216836
 30
0.0
 40
0.525
100
AcDbArc
 50
0.0
 51
90.0
  0
ARC
  5
89B
330
1A
100
AcDbEntity
  8
ZUWAKU
100
AcDbCircle
 10
30.36721301553666
 20
7.675000255216836
 30
0.0
 40
0.525
100
AcDbArc
 50
180.0
 51
270.0
  0
ARC
  5
89C
330
1A
100
AcDbEntity
  8
ZUWAKU
100
AcDbCircle
 10
33.30744717902542
 20
13.27500025521684
 30
0.0
 40
0.525
100
AcDbArc
 50
17.52556837372303
 51
90.0
  0
ARC
  5
89D
330
1A
100
AcDbEntity
  8
ZUWAKU
100
AcDbCircle
 10
33.16721301553673
 20
13.27500025521684
 30
0.0
 40
0.525
100
AcDbArc
 50
90.0
 51
180.0
  0
ARC
  5
89E
330
1A
100
AcDbEntity
  8
ZUWAKU
100
AcDbCircle
 10
41.21721301553669
 20
7.675000255216836
 30
0.0
 40
0.525
100
AcDbArc
 50
180.0
 51
270.0
  0
LINE
  5
89F
330
1A
100
AcDbEntity
  8
ZUWAKU
100
AcDbLine
 10
36.17697885204802
 20
7.150000255216838
 30
0.0
 11
37.87586823165702
 21
7.150000255216838
 31
0.0
  0
ARC
  5
8A0
330
1A
100
AcDbEntity
  8
ZUWAKU
100
AcDbCircle
 10
37.87586823165702
 20
7.675000255216836
 30
0.0
 40
0.525
100
AcDbArc
 50
270.0
 51
17.52556837372303
  0
LINE
  5
8A1
330
1A
100
AcDbEntity
  8
ZUWAKU
100
AcDbLine
 10
38.37649913085249
 20
7.83309422338381
 30
0.0
 11
36.05010775237883
 21
15.20000025521685
 31
0.0
  0
ARC
  5
8A2
330
1A
100
AcDbEntity
  8
ZUWAKU
100
AcDbCircle
 10
36.17697885204802
 20
7.675000255216836
 30
0.0
 40
0.525
100
AcDbArc
 50
197.525568373723
 51
270.0
  0
ARC
  5
8A3
330
1A
100
AcDbEntity
  8
ZUWAKU
100
AcDbCircle
 10
57.84221301553668
 20
9.950000255216835
 30
0.0
 40
2.799999999999999
100
AcDbArc
 50
180.0
 51
270.0
  0
ARC
  5
8A4
330
1A
100
AcDbEntity
  8
ZUWAKU
100
AcDbCircle
 10
50.14221301553675
 20
9.950000255216835
 30
0.0
 40
2.799999999999999
100
AcDbArc
 50
270.0
 51
0.0
  0
LINE
  5
8A5
330
1A
100
AcDbEntity
  8
ZUWAKU
100
AcDbLine
 10
51.71206149652028
 20
14.73505076155566
 30
0.0
 11
48.80226352187548
 21
17.64484873620033
 31
0.0
  0
LINE
  5
8A6
330
1A
100
AcDbEntity
  8
ZUWAKU
100
AcDbLine
 10
50.14221301553675
 20
10.47500025521684
 30
0.0
 11
50.14221301553675
 21
11.76520228057218
 31
0.0
  0
ARC
  5
8A7
330
1A
100
AcDbEntity
  8
ZUWAKU
100
AcDbCircle
 10
48.74221301553666
 20
11.76520228057218
 30
0.0
 40
1.399999999999999
100
AcDbArc
 50
0.0
 51
45.0
  0
ARC
  5
8A8
330
1A
100
AcDbEntity
  8
ZUWAKU
100
AcDbCircle
 10
49.61721301553666
 20
10.47500025521684
 30
0.0
 40
0.525
100
AcDbArc
 50
270.0
 51
0.0
  0
LINE
  5
8A9
330
1A
100
AcDbEntity
  8
ZUWAKU
100
AcDbLine
 10
46.11721301553666
 20
7.675000255216836
 30
0.0
 11
46.11721301553666
 21
9.425000255216836
 31
0.0
  0
ARC
  5
8AA
330
1A
100
AcDbEntity
  8
ZUWAKU
100
AcDbCircle
 10
46.64221301553675
 20
7.675000255216836
 30
0.0
 40
0.525
100
AcDbArc
 50
180.0
 51
270.0
  0
ARC
  5
8AB
330
1A
100
AcDbEntity
  8
ZUWAKU
100
AcDbCircle
 10
42.96721301553668
 20
7.675000255216836
 30
0.0
 40
0.525
100
AcDbArc
 50
270.0
 51
0.0
  0
ARC
  5
8AC
330
1A
100
AcDbEntity
  8
ZUWAKU
100
AcDbCircle
 10
46.64221301553675
 20
9.425000255216836
 30
0.0
 40
0.525
100
AcDbArc
 50
90.0
 51
180.0
  0
LINE
  5
8AD
330
1A
100
AcDbEntity
  8
ZUWAKU
100
AcDbLine
 10
46.64221301553675
 20
9.950000255216835
 30
0.0
 11
49.61721301553666
 21
9.950000255216835
 31
0.0
  0
LINE
  5
8AE
330
1A
100
AcDbEntity
  8
ZUWAKU
100
AcDbLine
 10
46.64221301553675
 20
7.150000255216838
 30
0.0
 11
50.14221301553675
 21
7.150000255216838
 31
0.0
  0
LINE
  5
8AF
330
1A
100
AcDbEntity
  8
ZUWAKU
100
AcDbLine
 10
46.82236453455323
 20
15.66494974887801
 30
0.0
 11
49.7321625091979
 21
12.75515177423335
 31
0.0
  0
LINE
  5
8B0
330
1A
100
AcDbEntity
  8
ZUWAKU
100
AcDbLine
 10
52.94221301553671
 20
9.950000255216835
 30
0.0
 11
52.94221301553671
 21
11.76520228057218
 31
0.0
  0
ARC
  5
8B1
330
1A
100
AcDbEntity
  8
ZUWAKU
100
AcDbCircle
 10
48.74221301553666
 20
11.76520228057214
 30
0.0
 40
4.199999999999999
100
AcDbArc
 50
0.0
 51
45.0
  0
ARC
  5
8B2
330
1A
100
AcDbEntity
  8
ZUWAKU
100
AcDbCircle
 10
58.89221301553675
 20
11.00000025521683
 30
0.0
 40
1.049999999999999
100
AcDbArc
 50
180.0
 51
270.0
  0
ARC
  5
8B3
330
1A
100
AcDbEntity
  8
ZUWAKU
100
AcDbCircle
 10
61.34221301553669
 20
9.950000255216835
 30
0.0
 40
2.799999999999999
100
AcDbArc
 50
270.0
 51
0.0
  0
LINE
  5
8B4
330
1A
100
AcDbEntity
  8
ZUWAKU
100
AcDbLine
 10
66.76721301553675
 20
7.150000255216838
 30
0.0
 11
68.51721301553675
 21
7.150000255216838
 31
0.0
  0
ARC
  5
8B5
330
1A
100
AcDbEntity
  8
ZUWAKU
100
AcDbCircle
 10
66.76721301553675
 20
7.675000255216836
 30
0.0
 40
0.525
100
AcDbArc
 50
180.0
 51
270.0
  0
ARC
  5
8B6
330
1A
100
AcDbEntity
  8
ZUWAKU
100
AcDbCircle
 10
60.29221301553673
 20
11.00000025521683
 30
0.0
 40
1.049999999999999
100
AcDbArc
 50
270.0
 51
0.0
  0
ARC
  5
8B7
330
1A
100
AcDbEntity
  8
ZUWAKU
100
AcDbCircle
 10
68.51721301553675
 20
7.675000255216836
 30
0.0
 40
0.525
100
AcDbArc
 50
270.0
 51
0.0
  0
LINE
  5
8B8
330
1A
100
AcDbEntity
  8
ZUWAKU
100
AcDbLine
 10
42.96721301553668
 20
23.25000025521684
 30
0.0
 11
41.21721301553669
 21
23.25000025521684
 31
0.0
  0
ARC
  5
8B9
330
1A
100
AcDbEntity
  8
ZUWAKU
100
AcDbCircle
 10
32.11721301553666
 20
22.72500025521683
 30
0.0
 40
0.525
100
AcDbArc
 50
0.0
 51
90.0
  0
LINE
  5
8BA
330
1A
100
AcDbEntity
  8
ZUWAKU
100
AcDbLine
 10
32.11721301553666
 20
23.25000025521684
 30
0.0
 11
30.36721301553666
 21
23.25000025521684
 31
0.0
  0
ARC
  5
8BB
330
1A
100
AcDbEntity
  8
ZUWAKU
100
AcDbCircle
 10
26.86721301553666
 20
22.72500025521683
 30
0.0
 40
0.525
100
AcDbArc
 50
0.0
 51
90.0
  0
ARC
  5
8BC
330
1A
100
AcDbEntity
  8
ZUWAKU
100
AcDbCircle
 10
30.36721301553666
 20
22.72500025521683
 30
0.0
 40
0.525
100
AcDbArc
 50
90.0
 51
180.0
  0
ARC
  5
8BD
330
1A
100
AcDbEntity
  8
ZUWAKU
100
AcDbCircle
 10
26.86721301553666
 20
20.97500025521683
 30
0.0
 40
0.525
100
AcDbArc
 50
270.0
 51
0.0
  0
LINE
  5
8BE
330
1A
100
AcDbEntity
  8
ZUWAKU
100
AcDbLine
 10
27.39221301553675
 20
22.72500025521683
 30
0.0
 11
27.39221301553675
 21
20.97500025521683
 31
0.0
  0
ARC
  5
8BF
330
1A
100
AcDbEntity
  8
ZUWAKU
100
AcDbCircle
 10
41.21721301553669
 20
22.72500025521683
 30
0.0
 40
0.525
100
AcDbArc
 50
90.0
 51
180.0
  0
LINE
  5
8C0
330
1A
100
AcDbEntity
  8
ZUWAKU
100
AcDbLine
 10
36.17697885204802
 20
23.25000025521684
 30
0.0
 11
37.87586823165702
 21
23.25000025521684
 31
0.0
  0
ARC
  5
8C1
330
1A
100
AcDbEntity
  8
ZUWAKU
100
AcDbCircle
 10
37.87586823165702
 20
22.72500025521683
 30
0.0
 40
0.525
100
AcDbArc
 50
342.4744316262769
 51
90.0
  0
LINE
  5
8C2
330
1A
100
AcDbEntity
  8
ZUWAKU
100
AcDbLine
 10
38.37649913085249
 20
22.56690628704987
 30
0.0
 11
37.31485949771467
 21
19.20504744878026
 31
0.0
  0
ARC
  5
8C3
330
1A
100
AcDbEntity
  8
ZUWAKU
100
AcDbCircle
 10
36.17697885204802
 20
22.72500025521683
 30
0.0
 40
0.525
100
AcDbArc
 50
90.0
 51
162.4744316262769
  0
LINE
  5
8C4
330
1A
100
AcDbEntity
  8
ZUWAKU
100
AcDbLine
 10
48.39221301553675
 20
23.25000025521684
 30
0.0
 11
51.89221301553676
 21
23.25000025521684
 31
0.0
  0
LINE
  5
8C5
330
1A
100
AcDbEntity
  8
ZUWAKU
100
AcDbLine
 10
51.89221301553676
 20
20.45000025521683
 30
0.0
 11
48.91721301553673
 21
20.45000025521683
 31
0.0
  0
ARC
  5
8C6
330
1A
100
AcDbEntity
  8
ZUWAKU
100
AcDbCircle
 10
48.91721301553673
 20
19.92500025521683
 30
0.0
 40
0.525
100
AcDbArc
 50
90.0
 51
180.0
  0
LINE
  5
8C7
330
1A
100
AcDbEntity
  8
ZUWAKU
100
AcDbLine
 10
48.39221301553675
 20
19.92500025521683
 30
0.0
 11
48.39221301553675
 21
18.63479822986149
 31
0.0
  0
ARC
  5
8C8
330
1A
100
AcDbEntity
  8
ZUWAKU
100
AcDbCircle
 10
42.96721301553668
 20
22.72500025521683
 30
0.0
 40
0.525
100
AcDbArc
 50
0.0
 51
90.0
  0
LINE
  5
8C9
330
1A
100
AcDbEntity
  8
ZUWAKU
100
AcDbLine
 10
45.59221301553669
 20
20.45000025521683
 30
0.0
 11
45.59221301553669
 21
18.63479822986149
 31
0.0
  0
ARC
  5
8CA
330
1A
100
AcDbEntity
  8
ZUWAKU
100
AcDbCircle
 10
48.39221301553675
 20
20.45000025521683
 30
0.0
 40
2.799999999999999
100
AcDbArc
 50
90.0
 51
180.0
  0
ARC
  5
8CB
330
1A
100
AcDbEntity
  8
ZUWAKU
100
AcDbCircle
 10
57.31721301553671
 20
22.72500025521683
 30
0.0
 40
0.525
100
AcDbArc
 50
0.0
 51
90.0
  0
ARC
  5
8CC
330
1A
100
AcDbEntity
  8
ZUWAKU
100
AcDbCircle
 10
55.56721301553671
 20
22.72500025521683
 30
0.0
 40
0.525
100
AcDbArc
 50
90.0
 51
180.0
  0
LINE
  5
8CD
330
1A
100
AcDbEntity
  8
ZUWAKU
100
AcDbLine
 10
57.31721301553671
 20
23.25000025521684
 30
0.0
 11
55.56721301553671
 21
23.25000025521684
 31
0.0
  0
ARC
  5
8CE
330
1A
100
AcDbEntity
  8
ZUWAKU
100
AcDbCircle
 10
51.89221301553676
 20
22.72500025521683
 30
0.0
 40
0.525
100
AcDbArc
 50
0.0
 51
90.0
  0
ARC
  5
8CF
330
1A
100
AcDbEntity
  8
ZUWAKU
100
AcDbCircle
 10
51.89221301553676
 20
20.97500025521683
 30
0.0
 40
0.525
100
AcDbArc
 50
270.0
 51
0.0
  0
LINE
  5
8D0
330
1A
100
AcDbEntity
  8
ZUWAKU
100
AcDbLine
 10
52.41721301553673
 20
22.72500025521683
 30
0.0
 11
52.41721301553673
 21
20.97500025521683
 31
0.0
  0
LINE
  5
8D1
330
1A
100
AcDbEntity
  8
ZUWAKU
100
AcDbLine
 10
68.51721301553675
 20
23.25000025521684
 30
0.0
 11
66.76721301553675
 21
23.25000025521684
 31
0.0
  0
ARC
  5
8D2
330
1A
100
AcDbEntity
  8
ZUWAKU
100
AcDbCircle
 10
66.76721301553675
 20
22.72500025521683
 30
0.0
 40
0.525
100
AcDbArc
 50
90.0
 51
180.0
  0
ARC
  5
8D3
330
1A
100
AcDbEntity
  8
ZUWAKU
100
AcDbCircle
 10
63.61721301553666
 20
22.72500025521683
 30
0.0
 40
0.525
100
AcDbArc
 50
0.0
 51
90.0
  0
LINE
  5
8D4
330
1A
100
AcDbEntity
  8
ZUWAKU
100
AcDbLine
 10
63.61721301553666
 20
23.25000025521684
 30
0.0
 11
61.86721301553666
 21
23.25000025521684
 31
0.0
  0
ARC
  5
8D5
330
1A
100
AcDbEntity
  8
ZUWAKU
100
AcDbCircle
 10
61.86721301553666
 20
22.72500025521683
 30
0.0
 40
0.525
100
AcDbArc
 50
90.0
 51
180.0
  0
ARC
  5
8D6
330
1A
100
AcDbEntity
  8
ZUWAKU
100
AcDbCircle
 10
68.51721301553675
 20
22.72500025521683
 30
0.0
 40
0.525
100
AcDbArc
 50
0.0
 51
90.0
  0
TEXT
  5
8D7
330
1A
100
AcDbEntity
  8
MOJI
100
AcDbText
 10
239.8272035416066
 20
3.204921312624254
 30
0.0
 40
5.599999999999999
  1
ＲＶ１０５－０－２０
 41
0.9
  7
ｽﾀｲﾙ1
100
AcDbText
  0
TEXT
  5
8D8
330
1A
100
AcDbEntity
  8
MOJI
100
AcDbText
 10
239.8272035416066
 20
18.00492131262421
 30
0.0
 40
5.599999999999999
  1
ブラケット正面打（吊）固定式
 41
0.9
  7
ｽﾀｲﾙ1
100
AcDbText
  0
LINE
  5
8D9
330
1A
100
AcDbEntity
  8
ZUWAKU
100
AcDbLine
 10
208.2466021508234
 20
30.00000025521683
 30
0.0
 11
208.2466021508234
 21
0.8000002552169007
 31
0.0
  0
LINE
  5
8DA
330
1A
100
AcDbEntity
  8
ZUWAKU
100
AcDbLine
 10
208.6466021508233
 20
30.00000025521683
 30
0.0
 11
208.6466021508235
 21
0.8000002552169007
 31
0.0
  0
LINE
  5
8DB
330
1A
100
AcDbEntity
  8
ZUWAKU
100
AcDbLine
 10
208.4466021508233
 20
30.00000025521683
 30
0.0
 11
208.4466021508235
 21
0.8000002552169007
 31
0.0
  0
TEXT
  5
8DC
330
1A
100
AcDbEntity
  8
ZUWAKU
100
AcDbText
 10
209.7240471730331
 20
9.65535679360245
 30
0.0
 40
4.0
  1
サイズ
 41
0.9
  7
ｽﾀｲﾙ1
100
AcDbText
  0
TEXT
  5
8DD
330
1A
100
AcDbEntity
  8
ZUWAKU
100
AcDbText
 10
209.7240471730328
 20
24.05535679360241
 30
0.0
 40
4.0
  1
品名
 41
0.9
  7
ｽﾀｲﾙ1
100
AcDbText
  0
LINE
  5
8DE
330
1A
100
AcDbEntity
  8
ZUWAKU
100
AcDbLine
 10
648.8172033709597
 20
15.20000025521686
 30
0.0
 11
697.2490114092968
 21
15.20000025521686
 31
0.0
  0
LINE
  5
8DF
330
1A
100
AcDbEntity
  8
ZUWAKU
100
AcDbLine
 10
648.81720337096
 20
15.40000025521687
 30
0.0
 11
697.2490114092968
 21
15.40000025521686
 31
0.0
  0
LINE
  5
8E0
330
1A
100
AcDbEntity
  8
ZUWAKU
100
AcDbLine
 10
648.8172033709597
 20
15.60000025521686
 30
0.0
 11
697.2490114092968
 21
15.60000025521686
 31
0.0
  0
TEXT
  5
8E1
330
1A
100
AcDbEntity
  8
ZUWAKU
100
AcDbText
 10
658.2039385480579
 20
18.00492131262421
 30
0.0
 40
5.599999999999999
  1
　　．　　．　　
 41
0.9
  7
ｽﾀｲﾙ1
100
AcDbText
  0
LINE
  5
8E2
330
1A
100
AcDbEntity
  8
ZUWAKU
100
AcDbLine
 10
505.1991803588964
 20
15.20000025521687
 30
0.0
 11
552.526956626868
 21
15.20000025521687
 31
0.0
  0
LINE
  5
8E3
330
1A
100
AcDbEntity
  8
ZUWAKU
100
AcDbLine
 10
505.1991803588964
 20
15.40000025521686
 30
0.0
 11
552.526956626868
 21
15.40000025521686
 31
0.0
  0
LINE
  5
8E4
330
1A
100
AcDbEntity
  8
ZUWAKU
100
AcDbLine
 10
505.1991803588964
 20
15.60000025521686
 30
0.0
 11
552.526956626868
 21
15.60000025521686
 31
0.0
  0
TEXT
  5
8E5
330
1A
100
AcDbEntity
  8
MOJI
100
AcDbText
 10
464.5946268639945
 20
11.94261797687681
 30
0.0
 40
5.599999999999999
  1
ＬＨ５４□
 41
0.9
  7
ｽﾀｲﾙ1
100
AcDbText
  0
LINE
  5
8E6
330
1A
100
AcDbEntity
  8
ZUWAKU
100
AcDbLine
 10
447.6243648317468
 20
30.00000025521683
 30
0.0
 11
447.624364831747
 21
0.8000002552169007
 31
0.0
  0
LINE
  5
8E7
330
1A
100
AcDbEntity
  8
ZUWAKU
100
AcDbLine
 10
447.8243648317468
 20
30.00000025521683
 30
0.0
 11
447.824364831747
 21
0.8000002552169007
 31
0.0
  0
LINE
  5
8E8
330
1A
100
AcDbEntity
  8
ZUWAKU
100
AcDbLine
 10
447.4243648317469
 20
30.00000025521683
 30
0.0
 11
447.4243648317469
 21
0.8000002552169007
 31
0.0
  0
TEXT
  5
8E9
330
1A
100
AcDbEntity
  8
MOJI
100
AcDbText
 10
528.0409088330684
 20
18.00492131262421
 30
0.0
 40
5.599999999999999
  1
Ａ３
 41
0.9
  7
ｽﾀｲﾙ1
100
AcDbText
  0
LINE
  5
8EA
330
1A
100
AcDbEntity
  8
ZUWAKU
100
AcDbLine
 10
504.9991803588964
 20
30.00000025521683
 30
0.0
 11
504.9991803588966
 21
0.8000002552169007
 31
0.0
  0
LINE
  5
8EB
330
1A
100
AcDbEntity
  8
ZUWAKU
100
AcDbLine
 10
505.1991803588964
 20
30.00000025521683
 30
0.0
 11
505.1991803588967
 21
0.8000002552169007
 31
0.0
  0
LINE
  5
8EC
330
1A
100
AcDbEntity
  8
ZUWAKU
100
AcDbLine
 10
504.7991803588965
 20
30.00000025521683
 30
0.0
 11
504.7991803588965
 21
0.8000002552169007
 31
0.0
  0
TEXT
  5
8ED
330
1A
100
AcDbEntity
  8
ZUWAKU
100
AcDbText
 10
462.6937625162627
 20
2.614071166356325
 30
0.0
 40
3.0
  1
□には色品番が入ります
 41
0.9
  7
ｽﾀｲﾙ1
100
AcDbText
  0
TEXT
  5
8EE
330
1A
100
AcDbEntity
  8
ZUWAKU
100
AcDbText
 10
506.6766253811063
 20
9.65535679360245
 30
0.0
 40
4.0
  1
縮尺
 41
0.9
  7
ｽﾀｲﾙ1
100
AcDbText
  0
TEXT
  5
8EF
330
1A
100
AcDbEntity
  8
MOJI
100
AcDbText
 10
528.0409088330684
 20
3.204921312624254
 30
0.0
 40
5.599999999999999
  1
１/２
 41
0.9
  7
ｽﾀｲﾙ1
100
AcDbText
  0
TEXT
  5
8F0
330
1A
100
AcDbEntity
  8
ZUWAKU
100
AcDbText
 10
449.3018098539564
 20
24.05535679360241
 30
0.0
 40
4.0
  1
品番
 41
0.9
  7
ｽﾀｲﾙ1
100
AcDbText
  0
TEXT
  5
8F1
330
1A
100
AcDbEntity
  8
ZUWAKU
100
AcDbText
 10
506.676625381106
 20
24.05535679360241
 30
0.0
 40
4.0
  1
用紙
 41
0.9
  7
ｽﾀｲﾙ1
100
AcDbText
  0
LINE
  5
8F2
330
1A
100
AcDbEntity
  8
ZUWAKU
100
AcDbLine
 10
648.6172033709599
 20
30.00000025521683
 30
0.0
 11
648.6172033709602
 21
0.8000002552169007
 31
0.0
  0
LINE
  5
8F3
330
1A
100
AcDbEntity
  8
ZUWAKU
100
AcDbLine
 10
648.81720337096
 20
30.00000025521683
 30
0.0
 11
648.8172033709602
 21
0.8000002552169007
 31
0.0
  0
LINE
  5
8F4
330
1A
100
AcDbEntity
  8
ZUWAKU
100
AcDbLine
 10
648.4172033709601
 20
30.00000025521683
 30
0.0
 11
648.4172033709601
 21
0.8000002552169007
 31
0.0
  0
LINE
  5
8F5
330
1A
100
AcDbEntity
  8
ZUWAKU
100
AcDbLine
 10
552.7269566268678
 20
30.00000025521683
 30
0.0
 11
552.726956626868
 21
0.8000002552169007
 31
0.0
  0
LINE
  5
8F6
330
1A
100
AcDbEntity
  8
ZUWAKU
100
AcDbLine
 10
552.9269566268679
 20
30.00000025521683
 30
0.0
 11
552.9269566268681
 21
0.8000002552169007
 31
0.0
  0
LINE
  5
8F7
330
1A
100
AcDbEntity
  8
ZUWAKU
100
AcDbLine
 10
552.526956626868
 20
30.00000025521683
 30
0.0
 11
552.526956626868
 21
0.8000002552169007
 31
0.0
  0
TEXT
  5
8F8
330
1A
100
AcDbEntity
  8
ZUWAKU
100
AcDbText
 10
650.2946483931696
 20
24.05535679360241
 30
0.0
 40
4.0
  1
DATE
 41
0.9
  7
ｽﾀｲﾙ1
100
AcDbText
  0
LINE
  5
8F9
330
1A
100
AcDbEntity
  8
ZUWAKU
100
AcDbLine
 10
697.2490114092968
 20
30.00000025521683
 30
0.0
 11
697.2490114092968
 21
0.8000002552169007
 31
0.0
  0
LINE
  5
8FA
330
1A
100
AcDbEntity
  8
ZUWAKU
100
AcDbLine
 10
697.4490114092969
 20
30.00000025521683
 30
0.0
 11
697.4490114092969
 21
0.8000002552169007
 31
0.0
  0
LINE
  5
8FB
330
1A
100
AcDbEntity
  8
ZUWAKU
100
AcDbLine
 10
697.6490114092967
 20
30.00000025521683
 30
0.0
 11
697.6490114092968
 21
0.8000002552169007
 31
0.0
  0
LINE
  5
8FC
330
1A
100
AcDbEntity
  8
ZUWAKU
100
AcDbLine
 10
697.8490114092967
 20
30.00000025521683
 30
0.0
 11
697.8490114092969
 21
0.8000002552169007
 31
0.0
  0
TEXT
  5
8FD
330
1A
100
AcDbEntity
  8
ZUWAKU
100
AcDbText
 10
708.5280850529994
 20
17.55383959090363
 30
0.0
 40
6.0
  1
積水化学工業株式会社
 41
0.9
  7
ｽﾀｲﾙ1
100
AcDbText
  0
TEXT
  5
8FE
330
1A
100
AcDbEntity
  8
ZUWAKU
100
AcDbText
 10
708.5280850529994
 20
6.648840569070898
 30
0.0
 40
6.0
  1
建材事業部
 41
0.9
  7
ｽﾀｲﾙ1
100
AcDbText
  0
VIEWPORT
  5
22
330
17
100
AcDbEntity
 67
     1
  8
0
100
AcDbViewport
 10
313.6808219178082
 20
148.5
 30
0.0
 40
627.3616438356165
 41
297.0
 68
     2
 69
     1
1001
ACAD
1000
MVIEW
1002
{
1070
    16
1010
0.0
1020
0.0
1030
0.0
1010
0.0
1020
0.0
1030
1.0
1040
0.0
1040
297.0
1040
313.6808219178082
1040
148.5
1040
50.0
1040
0.0
1040
0.0
1070
     0
1070
   100
1070
     1
1070
     0
1070
     0
1070
     0
1070
     0
1070
     0
1040
0.0
1040
0.0
1040
0.0
1040
1.0
1040
1.0
1040
10.0
1040
10.0
1070
     0
1002
{
1002
}
1002
}
  0
VIEWPORT
  5
64
330
17
100
AcDbEntity
 67
     1
  8
VIEWPORT
100
AcDbViewport
 10
210.0
 20
148.5
 30
0.0
 40
420.0
 41
297.0
 68
     1
 69
     2
1001
ACAD
1000
MVIEW
1002
{
1070
    16
1010
0.0
1020
0.0
1030
0.0
1010
0.0
1020
0.0
1030
1.0
1040
0.0
1040
605.8799999999998
1040
420.0
1040
297.0
1040
50.0
1040
0.0
1040
0.0
1070
     0
1070
   100
1070
     1
1070
     0
1070
     0
1070
     0
1070
     0
1070
     0
1040
0.0
1040
0.0
1040
0.0
1040
10.0
1040
10.0
1040
0.0
1040
0.0
1070
     0
1002
{
1002
}
1002
}
  0
ENDSEC
  0
SECTION
  2
OBJECTS
  0
DICTIONARY
  5
C
330
0
100
AcDbDictionary
  3
ACAD_GROUP
350
D
  3
ACAD_LAYOUT
350
71D
  3
ACAD_MLINESTYLE
350
E
  3
ACAD_PLOTSETTINGS
350
71E
  3
ACAD_PLOTSTYLENAME
350
71B
  3
ACDBHEADERROUNDTRIPXREC
350
906
  0
DICTIONARY
  5
74C
330
1A
100
AcDbDictionary
280
     1
  3
ACAD_LAYOUTSELFREF
360
928
  0
DICTIONARY
  5
74A
330
17
100
AcDbDictionary
280
     1
  3
ACAD_LAYOUTSELFREF
360
927
  0
DICTIONARY
  5
D
102
{ACAD_REACTORS
330
C
102
}
330
C
100
AcDbDictionary
  0
DICTIONARY
  5
71D
102
{ACAD_REACTORS
330
C
102
}
330
C
100
AcDbDictionary
  0
DICTIONARY
  5
E
102
{ACAD_REACTORS
330
C
102
}
330
C
100
AcDbDictionary
  3
STANDARD
350
13
  0
DICTIONARY
  5
71E
102
{ACAD_REACTORS
330
C
102
}
330
C
100
AcDbDictionary
  0
ACDBDICTIONARYWDFLT
  5
71B
102
{ACAD_REACTORS
330
C
102
}
330
C
100
AcDbDictionary
281
     1
  3
Normal
350
71C
100
AcDbDictionaryWithDefault
340
71C
1001
ACAD
1000
TREAT_AS_HARD
1070
     0
1000
TREAT_AS_HARD
1070
     0
  0
DICTIONARY
  5
906
102
{ACAD_REACTORS
330
C
102
}
330
C
100
AcDbDictionary
  3
TSTACKALIGN
350
907
  3
TSTACKSIZE
350
908
  3
HYPERLINKBASE
350
909
  3
STYLESHEET
350
90A
  3
LAYOUTDICT
350
90B
  3
PLOTSETDICT
350
90C
  3
PLOTSTYLNAMDICT
350
90D
  3
LWETCUNION
350
90E
  3
INSUNITS
350
90F
  3
CEPSNTYPE
350
910
  3
FINGERPRINTGUID
350
911
  3
VERSIONGUID
350
912
  3
PSVPSCALE
350
913
  3
DIMSTYLEDATA
350
914
  3
PUCSORTHOREF
350
915
  3
PUCSORTHOVIEW
350
916
  3
PUCSBASE
350
917
  3
PUCSORGTOP
350
918
  3
PUCSORGBOTTOM
350
919
  3
PUCSORGLEFT
350
91A
  3
PUCSORGRIGHT
350
91B
  3
PUCSORGFRONT
350
91C
  3
PUCSORGBACK
350
91D
  3
UCSORTHOREF
350
91E
  3
UCSORTHOVIEW
350
91F
  3
UCSBASE
350
920
  3
UCSORGTOP
350
921
  3
UCSORGBOTTOM
350
922
  3
UCSORGLEFT
350
923
  3
UCSORGRIGHT
350
924
  3
UCSORGFRONT
350
925
  3
UCSORGBACK
350
926
  0
XRECORD
  5
928
102
{ACAD_REACTORS
330
74C
102
}
330
74C
100
AcDbXrecord
340
1A
  0
XRECORD
  5
927
102
{ACAD_REACTORS
330
74A
102
}
330
74A
100
AcDbXrecord
340
17
  0
MLINESTYLE
  5
13
102
{ACAD_REACTORS
330
E
102
}
330
E
100
AcDbMlineStyle
  2
STANDARD
 70
     0
  3

 62
     0
 51
90.0
 52
90.0
 71
     2
 49
0.5
 62
   256
  6
BYLAYER
 49
-0.5
 62
   256
  6
BYLAYER
  0
ACDBPLACEHOLDER
  5
71C
102
{ACAD_REACTORS
330
71B
102
}
330
71B
100
AcDbPlaceHolder
280
     0
  0
XRECORD
  5
907
102
{ACAD_REACTORS
330
906
102
}
330
906
100
AcDbXrecord
 90
        1
  0
XRECORD
  5
908
102
{ACAD_REACTORS
330
906
102
}
330
906
100
AcDbXrecord
 90
       70
  0
XRECORD
  5
909
102
{ACAD_REACTORS
330
906
102
}
330
906
100
AcDbXrecord
  1

  0
XRECORD
  5
90A
102
{ACAD_REACTORS
330
906
102
}
330
906
100
AcDbXrecord
  1
systemprinter.ctb
  0
XRECORD
  5
90B
102
{ACAD_REACTORS
330
906
102
}
330
906
100
AcDbXrecord
340
71D
  0
XRECORD
  5
90C
102
{ACAD_REACTORS
330
906
102
}
330
906
100
AcDbXrecord
340
71E
  0
XRECORD
  5
90D
102
{ACAD_REACTORS
330
906
102
}
330
906
100
AcDbXrecord
340
71B
  0
XRECORD
  5
90E
102
{ACAD_REACTORS
330
906
102
}
330
906
100
AcDbXrecord
 90
    10781
  0
XRECORD
  5
90F
102
{ACAD_REACTORS
330
906
102
}
330
906
100
AcDbXrecord
 90
        0
  0
XRECORD
  5
910
102
{ACAD_REACTORS
330
906
102
}
330
906
100
AcDbXrecord
 90
        0
  0
XRECORD
  5
911
102
{ACAD_REACTORS
330
906
102
}
330
906
100
AcDbXrecord
  1
{4691C9CC-29A6-4848-AD25-E56C18641DBA}
  0
XRECORD
  5
912
102
{ACAD_REACTORS
330
906
102
}
330
906
100
AcDbXrecord
  1
{23F9ECBA-D6E8-4D48-B5B9-D5EEDBAC55BA}
  0
XRECORD
  5
913
102
{ACAD_REACTORS
330
906
102
}
330
906
100
AcDbXrecord
 40
0.0
  0
XRECORD
  5
914
102
{ACAD_REACTORS
330
906
102
}
330
906
100
AcDbXrecord
1000
DSTYLE
1002
{
1070
   341
340
6D
1070
   343
340
6D
1070
   344
340
6D
1070
   371
 70
    -1
1070
   372
 70
    -1
1002
}
  0
XRECORD
  5
915
102
{ACAD_REACTORS
330
906
102
}
330
906
100
AcDbXrecord
340
0
  0
XRECORD
  5
916
102
{ACAD_REACTORS
330
906
102
}
330
906
100
AcDbXrecord
 70
     0
  0
XRECORD
  5
917
102
{ACAD_REACTORS
330
906
102
}
330
906
100
AcDbXrecord
340
0
  0
XRECORD
  5
918
102
{ACAD_REACTORS
330
906
102
}
330
906
100
AcDbXrecord
 10
0.0
 20
0.0
 30
0.0
  0
XRECORD
  5
919
102
{ACAD_REACTORS
330
906
102
}
330
906
100
AcDbXrecord
 10
0.0
 20
0.0
 30
0.0
  0
XRECORD
  5
91A
102
{ACAD_REACTORS
330
906
102
}
330
906
100
AcDbXrecord
 10
0.0
 20
0.0
 30
0.0
  0
XRECORD
  5
91B
102
{ACAD_REACTORS
330
906
102
}
330
906
100
AcDbXrecord
 10
0.0
 20
0.0
 30
0.0
  0
XRECORD
  5
91C
102
{ACAD_REACTORS
330
906
102
}
330
906
100
AcDbXrecord
 10
0.0
 20
0.0
 30
0.0
  0
XRECORD
  5
91D
102
{ACAD_REACTORS
330
906
102
}
330
906
100
AcDbXrecord
 10
0.0
 20
0.0
 30
0.0
  0
XRECORD
  5
91E
102
{ACAD_REACTORS
330
906
102
}
330
906
100
AcDbXrecord
340
0
  0
XRECORD
  5
91F
102
{ACAD_REACTORS
330
906
102
}
330
906
100
AcDbXrecord
 70
     0
  0
XRECORD
  5
920
102
{ACAD_REACTORS
330
906
102
}
330
906
100
AcDbXrecord
340
0
  0
XRECORD
  5
921
102
{ACAD_REACTORS
330
906
102
}
330
906
100
AcDbXrecord
 10
0.0
 20
0.0
 30
0.0
  0
XRECORD
  5
922
102
{ACAD_REACTORS
330
906
102
}
330
906
100
AcDbXrecord
 10
0.0
 20
0.0
 30
0.0
  0
XRECORD
  5
923
102
{ACAD_REACTORS
330
906
102
}
330
906
100
AcDbXrecord
 10
0.0
 20
0.0
 30
0.0
  0
XRECORD
  5
924
102
{ACAD_REACTORS
330
906
102
}
330
906
100
AcDbXrecord
 10
0.0
 20
0.0
 30
0.0
  0
XRECORD
  5
925
102
{ACAD_REACTORS
330
906
102
}
330
906
100
AcDbXrecord
 10
0.0
 20
0.0
 30
0.0
  0
XRECORD
  5
926
102
{ACAD_REACTORS
330
906
102
}
330
906
100
AcDbXrecord
 10
0.0
 20
0.0
 30
0.0
  0
ENDSEC
  0
EOF
