  0
SECTION
  2
HEADER
  9
$ACADVER
  1
AC1015
  9
$ACADMAINTVER
 70
    20
  9
$DWGCODEPAGE
  3
ANSI_932
  9
$INSBASE
 10
0.0
 20
0.0
 30
0.0
  9
$EXTMIN
 10
-0.0000004333560355
 20
0.0000006402971167
 30
0.0
  9
$EXTMAX
 10
797.5999995666439
 20
551.6000006402972
 30
0.0
  9
$LIMMIN
 10
0.0
 20
0.0
  9
$LIMMAX
 10
840.0
 20
594.0
  9
$ORTHOMODE
 70
     1
  9
$REGENMODE
 70
     1
  9
$FILLMODE
 70
     1
  9
$QTEXTMODE
 70
     0
  9
$MIRRTEXT
 70
     1
  9
$LTSCALE
 40
2.0
  9
$ATTMODE
 70
     1
  9
$TEXTSIZE
 40
5.0
  9
$TRACEWID
 40
1.0
  9
$TEXTSTYLE
  7
STANDARD
  9
$CLAYER
  8
SEIHIN
  9
$CELTYPE
  6
BYLAYER
  9
$CECOLOR
 62
   256
  9
$CELTSCALE
 40
1.0
  9
$DISPSILH
 70
     0
  9
$DIMSCALE
 40
1.0
  9
$DIMASZ
 40
7.0
  9
$DIMEXO
 40
6.0
  9
$DIMDLI
 40
14.0
  9
$DIMRND
 40
0.0
  9
$DIMDLE
 40
0.0
  9
$DIMEXE
 40
3.0
  9
$DIMTP
 40
0.0
  9
$DIMTM
 40
0.0
  9
$DIMTXT
 40
6.0
  9
$DIMCEN
 40
150.0
  9
$DIMTSZ
 40
0.0
  9
$DIMTOL
 70
     0
  9
$DIMLIM
 70
     0
  9
$DIMTIH
 70
     0
  9
$DIMTOH
 70
     0
  9
$DIMSE1
 70
     0
  9
$DIMSE2
 70
     0
  9
$DIMTAD
 70
     3
  9
$DIMZIN
 70
     0
  9
$DIMBLK
  1

  9
$DIMASO
 70
     1
  9
$DIMSHO
 70
     1
  9
$DIMPOST
  1

  9
$DIMAPOST
  1

  9
$DIMALT
 70
     0
  9
$DIMALTD
 70
     2
  9
$DIMALTF
 40
25.4
  9
$DIMLFAC
 40
1.0
  9
$DIMTOFL
 70
     1
  9
$DIMTVP
 40
0.0
  9
$DIMTIX
 70
     0
  9
$DIMSOXD
 70
     0
  9
$DIMSAH
 70
     1
  9
$DIMBLK1
  1
OPEN
  9
$DIMBLK2
  1
OPEN
  9
$DIMSTYLE
  2
STANDARD
  9
$DIMCLRD
 70
   256
  9
$DIMCLRE
 70
   256
  9
$DIMCLRT
 70
   256
  9
$DIMTFAC
 40
1.0
  9
$DIMGAP
 40
2.0
  9
$DIMJUST
 70
     0
  9
$DIMSD1
 70
     0
  9
$DIMSD2
 70
     0
  9
$DIMTOLJ
 70
     1
  9
$DIMTZIN
 70
     0
  9
$DIMALTZ
 70
     0
  9
$DIMALTTZ
 70
     0
  9
$DIMUPT
 70
     0
  9
$DIMDEC
 70
     0
  9
$DIMTDEC
 70
     0
  9
$DIMALTU
 70
     2
  9
$DIMALTTD
 70
     2
  9
$DIMTXSTY
  7
STANDARD
  9
$DIMAUNIT
 70
     0
  9
$DIMADEC
 70
     0
  9
$DIMALTRND
 40
0.0
  9
$DIMAZIN
 70
     0
  9
$DIMDSEP
 70
    46
  9
$DIMATFIT
 70
     3
  9
$DIMFRAC
 70
     0
  9
$DIMLDRBLK
  1
OPEN
  9
$DIMLUNIT
 70
     2
  9
$DIMLWD
 70
    -1
  9
$DIMLWE
 70
    -1
  9
$DIMTMOVE
 70
     0
  9
$LUNITS
 70
     2
  9
$LUPREC
 70
     4
  9
$SKETCHINC
 40
1.0
  9
$FILLETRAD
 40
20.0
  9
$AUNITS
 70
     0
  9
$AUPREC
 70
     0
  9
$MENU
  1
.
  9
$ELEVATION
 40
0.0
  9
$PELEVATION
 40
0.0
  9
$THICKNESS
 40
0.0
  9
$LIMCHECK
 70
     0
  9
$CHAMFERA
 40
20.0
  9
$CHAMFERB
 40
20.0
  9
$CHAMFERC
 40
40.0
  9
$CHAMFERD
 40
0.0
  9
$SKPOLY
 70
     0
  9
$TDCREATE
 40
2451029.942521991
  9
$TDUCREATE
 40
2451029.567521991
  9
$TDUPDATE
 40
2456926.440987523
  9
$TDUUPDATE
 40
2456926.065987523
  9
$TDINDWG
 40
0.0876159259
  9
$TDUSRTIMER
 40
0.0876159259
  9
$USRTIMER
 70
     1
  9
$ANGBASE
 50
0.0
  9
$ANGDIR
 70
     0
  9
$PDMODE
 70
     0
  9
$PDSIZE
 40
0.0
  9
$PLINEWID
 40
0.0
  9
$SPLFRAME
 70
     0
  9
$SPLINETYPE
 70
     6
  9
$SPLINESEGS
 70
     8
  9
$HANDSEED
  5
2C23
  9
$SURFTAB1
 70
     6
  9
$SURFTAB2
 70
     6
  9
$SURFTYPE
 70
     6
  9
$SURFU
 70
     6
  9
$SURFV
 70
     6
  9
$UCSBASE
  2

  9
$UCSNAME
  2

  9
$UCSORG
 10
0.0
 20
0.0
 30
0.0
  9
$UCSXDIR
 10
1.0
 20
0.0
 30
0.0
  9
$UCSYDIR
 10
0.0
 20
1.0
 30
0.0
  9
$UCSORTHOREF
  2

  9
$UCSORTHOVIEW
 70
     0
  9
$UCSORGTOP
 10
0.0
 20
0.0
 30
0.0
  9
$UCSORGBOTTOM
 10
0.0
 20
0.0
 30
0.0
  9
$UCSORGLEFT
 10
0.0
 20
0.0
 30
0.0
  9
$UCSORGRIGHT
 10
0.0
 20
0.0
 30
0.0
  9
$UCSORGFRONT
 10
0.0
 20
0.0
 30
0.0
  9
$UCSORGBACK
 10
0.0
 20
0.0
 30
0.0
  9
$PUCSBASE
  2

  9
$PUCSNAME
  2

  9
$PUCSORG
 10
0.0
 20
0.0
 30
0.0
  9
$PUCSXDIR
 10
1.0
 20
0.0
 30
0.0
  9
$PUCSYDIR
 10
0.0
 20
1.0
 30
0.0
  9
$PUCSORTHOREF
  2

  9
$PUCSORTHOVIEW
 70
     0
  9
$PUCSORGTOP
 10
0.0
 20
0.0
 30
0.0
  9
$PUCSORGBOTTOM
 10
0.0
 20
0.0
 30
0.0
  9
$PUCSORGLEFT
 10
0.0
 20
0.0
 30
0.0
  9
$PUCSORGRIGHT
 10
0.0
 20
0.0
 30
0.0
  9
$PUCSORGFRONT
 10
0.0
 20
0.0
 30
0.0
  9
$PUCSORGBACK
 10
0.0
 20
0.0
 30
0.0
  9
$USERI1
 70
     0
  9
$USERI2
 70
     0
  9
$USERI3
 70
     0
  9
$USERI4
 70
     0
  9
$USERI5
 70
     0
  9
$USERR1
 40
0.0
  9
$USERR2
 40
0.0
  9
$USERR3
 40
0.0
  9
$USERR4
 40
0.0
  9
$USERR5
 40
0.0
  9
$WORLDVIEW
 70
     1
  9
$SHADEDGE
 70
     3
  9
$SHADEDIF
 70
    70
  9
$TILEMODE
 70
     1
  9
$MAXACTVP
 70
    16
  9
$PINSBASE
 10
0.0
 20
0.0
 30
0.0
  9
$PLIMCHECK
 70
     0
  9
$PEXTMIN
 10
0.0
 20
0.0
 30
0.0
  9
$PEXTMAX
 10
420.0
 20
297.0
 30
0.0
  9
$PLIMMIN
 10
0.0
 20
0.0
  9
$PLIMMAX
 10
420.0
 20
297.0
  9
$UNITMODE
 70
     0
  9
$VISRETAIN
 70
     0
  9
$PLINEGEN
 70
     0
  9
$PSLTSCALE
 70
     1
  9
$TREEDEPTH
 70
  3020
  9
$CMLSTYLE
  2
STANDARD
  9
$CMLJUST
 70
     0
  9
$CMLSCALE
 40
1.0
  9
$PROXYGRAPHICS
 70
     1
  9
$MEASUREMENT
 70
     1
  9
$CELWEIGHT
370
    -1
  9
$ENDCAPS
280
     0
  9
$JOINSTYLE
280
     0
  9
$LWDISPLAY
290
     0
  9
$INSUNITS
 70
     0
  9
$HYPERLINKBASE
  1

  9
$STYLESHEET
  1
print.ctb
  9
$XEDIT
290
     1
  9
$CEPSNTYPE
380
     0
  9
$PSTYLEMODE
290
     1
  9
$FINGERPRINTGUID
  2
{FF3C30AF-89FB-45B1-9067-596B98B489D4}
  9
$VERSIONGUID
  2
{E2F0DD3F-6559-4EAD-A4EE-9A9E77505291}
  9
$EXTNAMES
290
     1
  9
$PSVPSCALE
 40
0.0
  9
$OLESTARTUP
290
     0
  0
ENDSEC
  0
SECTION
  2
CLASSES
  0
CLASS
  1
ACDBDICTIONARYWDFLT
  2
AcDbDictionaryWithDefault
  3
ObjectDBX Classes
 90
        0
280
     0
281
     0
  0
CLASS
  1
ACDBPLACEHOLDER
  2
AcDbPlaceHolder
  3
ObjectDBX Classes
 90
        0
280
     0
281
     0
  0
CLASS
  1
LAYOUT
  2
AcDbLayout
  3
ObjectDBX Classes
 90
        0
280
     0
281
     0
  0
CLASS
  1
DICTIONARYVAR
  2
AcDbDictionaryVar
  3
ObjectDBX Classes
 90
        0
280
     0
281
     0
  0
ENDSEC
  0
SECTION
  2
TABLES
  0
TABLE
  2
VPORT
  5
8
330
0
100
AcDbSymbolTable
 70
     2
  0
VPORT
  5
2C17
330
8
100
AcDbSymbolTableRecord
100
AcDbViewportTableRecord
  2
*Active
 70
     0
 10
0.0
 20
0.0
 11
1.0
 21
1.0
 12
515.8948265258932
 22
297.6329474260469
 13
0.0
 23
0.0
 14
5.0
 24
5.0
 15
0.0
 25
0.0
 16
0.0
 26
0.0
 36
1.0
 17
0.0
 27
0.0
 37
0.0
 40
631.2350274941683
 41
2.011264080100125
 42
50.0
 43
0.0
 44
0.0
 50
0.0
 51
0.0
 71
     0
 72
   100
 73
     1
 74
     0
 75
     0
 76
     0
 77
     0
 78
     0
281
     0
 65
     1
110
0.0
120
0.0
130
0.0
111
1.0
121
0.0
131
0.0
112
0.0
122
1.0
132
0.0
 79
     0
146
0.0
  0
ENDTAB
  0
TABLE
  2
LTYPE
  5
5
330
0
100
AcDbSymbolTable
 70
     2
  0
LTYPE
  5
14
330
5
100
AcDbSymbolTableRecord
100
AcDbLinetypeTableRecord
  2
BYBLOCK
 70
     0
  3

 72
    65
 73
     0
 40
0.0
  0
LTYPE
  5
15
330
5
100
AcDbSymbolTableRecord
100
AcDbLinetypeTableRecord
  2
BYLAYER
 70
     0
  3

 72
    65
 73
     0
 40
0.0
  0
LTYPE
  5
16
330
5
100
AcDbSymbolTableRecord
100
AcDbLinetypeTableRecord
  2
CONTINUOUS
 70
     0
  3
Solid line
 72
    65
 73
     0
 40
0.0
  0
LTYPE
  5
135
330
5
100
AcDbSymbolTableRecord
100
AcDbLinetypeTableRecord
  2
CENTER
 70
     0
  3
____ _ ____ _ ____ _ ____ _ ____ _ ____ _ ____ 
 72
    65
 73
     4
 40
2.0
 49
1.25
 74
     0
 49
-0.25
 74
     0
 49
0.25
 74
     0
 49
-0.25
 74
     0
  0
ENDTAB
  0
TABLE
  2
LAYER
  5
2
330
0
100
AcDbSymbolTable
 70
     8
  0
LAYER
  5
F
330
2
100
AcDbSymbolTableRecord
100
AcDbLayerTableRecord
  2
0
 70
     0
 62
     7
  6
CONTINUOUS
370
    -3
390
85E
  0
LAYER
  5
62
330
2
100
AcDbSymbolTableRecord
100
AcDbLayerTableRecord
  2
VIEWPORT
 70
     0
 62
     7
  6
CONTINUOUS
370
    -3
390
85E
  0
LAYER
  5
65
330
2
100
AcDbSymbolTableRecord
100
AcDbLayerTableRecord
  2
ZUWAKU
 70
     0
 62
     7
  6
CONTINUOUS
370
    -3
390
85E
  0
LAYER
  5
145
330
2
100
AcDbSymbolTableRecord
100
AcDbLayerTableRecord
  2
SEIHIN
 70
     0
 62
     3
  6
CONTINUOUS
370
    -3
390
85E
  0
LAYER
  5
146
330
2
100
AcDbSymbolTableRecord
100
AcDbLayerTableRecord
  2
SUNPOU
 70
     0
 62
     4
  6
CONTINUOUS
370
    -3
390
85E
  0
LAYER
  5
147
330
2
100
AcDbSymbolTableRecord
100
AcDbLayerTableRecord
  2
CENTER L
 70
     0
 62
     1
  6
CENTER
370
    -3
390
85E
  0
LAYER
  5
381
330
2
100
AcDbSymbolTableRecord
100
AcDbLayerTableRecord
  2
DEFPOINTS
 70
     0
 62
     7
  6
CONTINUOUS
290
     0
370
    -3
390
85E
  0
LAYER
  5
154D
330
2
100
AcDbSymbolTableRecord
100
AcDbLayerTableRecord
  2
MOJI
 70
     0
 62
     2
  6
CONTINUOUS
370
    -3
390
85E
  0
ENDTAB
  0
TABLE
  2
STYLE
  5
3
330
0
100
AcDbSymbolTable
 70
     2
  0
STYLE
  5
10
330
3
100
AcDbSymbolTableRecord
100
AcDbTextStyleTableRecord
  2
STANDARD
 70
     0
 40
0.0
 41
1.0
 50
0.0
 71
     0
 42
5.0
  3
TXT
  4
bigfont.shx
  0
STYLE
  5
154E
330
3
100
AcDbSymbolTableRecord
100
AcDbTextStyleTableRecord
  2
ｽﾀｲﾙ1
 70
     0
 40
0.0
 41
1.0
 50
0.0
 71
     0
 42
2.5
  3

  4

1001
ACAD
1000
MS PGothic
1071
    32818
  0
ENDTAB
  0
TABLE
  2
VIEW
  5
6
330
0
100
AcDbSymbolTable
 70
     0
  0
ENDTAB
  0
TABLE
  2
UCS
  5
7
330
0
100
AcDbSymbolTable
 70
     0
  0
ENDTAB
  0
TABLE
  2
APPID
  5
9
330
0
100
AcDbSymbolTable
 70
     1
  0
APPID
  5
11
330
9
100
AcDbSymbolTableRecord
100
AcDbRegAppTableRecord
  2
ACAD
 70
     0
  0
ENDTAB
  0
TABLE
  2
DIMSTYLE
  5
A
330
0
100
AcDbSymbolTable
 70
     1
100
AcDbDimStyleTable
 71
     0
  0
DIMSTYLE
105
1D
102
{ACAD_REACTORS
330
2655
330
2656
330
2657
330
2658
330
265E
330
265F
330
2673
330
269B
330
26A8
330
26C8
330
26C9
330
26CE
330
26D1
330
26FB
102
}
330
A
100
AcDbSymbolTableRecord
100
AcDbDimStyleTableRecord
  2
STANDARD
 70
     0
340
10
  0
ENDTAB
  0
TABLE
  2
BLOCK_RECORD
  5
1
330
0
100
AcDbSymbolTable
 70
    16
  0
BLOCK_RECORD
  5
1A
102
{ACAD_XDICTIONARY
360
88E
102
}
330
1
100
AcDbSymbolTableRecord
100
AcDbBlockTableRecord
  2
*MODEL_SPACE
340
861
  0
BLOCK_RECORD
  5
17
102
{ACAD_XDICTIONARY
360
88C
102
}
330
1
100
AcDbSymbolTableRecord
100
AcDbBlockTableRecord
  2
*PAPER_SPACE
340
862
  0
BLOCK_RECORD
  5
6D
330
1
100
AcDbSymbolTableRecord
100
AcDbBlockTableRecord
  2
_OPEN
340
0
102
{BLKREFS
331
27D5
331
27D6
331
27DE
331
27DF
331
27E7
331
27E8
331
27F2
331
27F3
331
27FB
331
27FC
331
2804
331
2805
331
280F
331
2810
331
281A
331
281B
331
2823
331
2824
331
282C
331
282D
331
2835
331
2836
331
2840
331
2841
331
284B
331
284C
331
2856
331
2857
102
}
  0
BLOCK_RECORD
  5
271E
330
1
100
AcDbSymbolTableRecord
100
AcDbBlockTableRecord
  2
*D1
340
0
  0
BLOCK_RECORD
  5
272A
330
1
100
AcDbSymbolTableRecord
100
AcDbBlockTableRecord
  2
*D2
340
0
  0
BLOCK_RECORD
  5
2736
330
1
100
AcDbSymbolTableRecord
100
AcDbBlockTableRecord
  2
*D3
340
0
  0
BLOCK_RECORD
  5
2742
330
1
100
AcDbSymbolTableRecord
100
AcDbBlockTableRecord
  2
*D4
340
0
  0
BLOCK_RECORD
  5
2750
330
1
100
AcDbSymbolTableRecord
100
AcDbBlockTableRecord
  2
*D5
340
0
  0
BLOCK_RECORD
  5
275C
330
1
100
AcDbSymbolTableRecord
100
AcDbBlockTableRecord
  2
*D6
340
0
  0
BLOCK_RECORD
  5
2768
330
1
100
AcDbSymbolTableRecord
100
AcDbBlockTableRecord
  2
*D7
340
0
  0
BLOCK_RECORD
  5
2776
330
1
100
AcDbSymbolTableRecord
100
AcDbBlockTableRecord
  2
*D8
340
0
  0
BLOCK_RECORD
  5
2784
330
1
100
AcDbSymbolTableRecord
100
AcDbBlockTableRecord
  2
*D9
340
0
  0
BLOCK_RECORD
  5
2790
330
1
100
AcDbSymbolTableRecord
100
AcDbBlockTableRecord
  2
*D10
340
0
  0
BLOCK_RECORD
  5
279C
330
1
100
AcDbSymbolTableRecord
100
AcDbBlockTableRecord
  2
*D11
340
0
  0
BLOCK_RECORD
  5
27A8
330
1
100
AcDbSymbolTableRecord
100
AcDbBlockTableRecord
  2
*D12
340
0
  0
BLOCK_RECORD
  5
27B6
330
1
100
AcDbSymbolTableRecord
100
AcDbBlockTableRecord
  2
*D13
340
0
  0
BLOCK_RECORD
  5
27C4
330
1
100
AcDbSymbolTableRecord
100
AcDbBlockTableRecord
  2
*D14
340
0
  0
BLOCK_RECORD
  5
2A60
330
1
100
AcDbSymbolTableRecord
100
AcDbBlockTableRecord
  2
*X15
340
0
102
{BLKREFS
331
161C
102
}
  0
ENDTAB
  0
ENDSEC
  0
SECTION
  2
BLOCKS
  0
BLOCK
  5
1B
330
1A
100
AcDbEntity
  8
0
100
AcDbBlockBegin
  2
*MODEL_SPACE
 70
     0
 10
0.0
 20
0.0
 30
0.0
  3
*MODEL_SPACE
  1

  0
ENDBLK
  5
1C
330
1A
100
AcDbEntity
  8
0
100
AcDbBlockEnd
  0
BLOCK
  5
18
330
17
100
AcDbEntity
 67
     1
  8
0
100
AcDbBlockBegin
  2
*PAPER_SPACE
 70
     0
 10
0.0
 20
0.0
 30
0.0
  3
*PAPER_SPACE
  1

  0
ENDBLK
  5
19
330
17
100
AcDbEntity
 67
     1
  8
0
100
AcDbBlockEnd
  0
BLOCK
  5
6E
330
6D
100
AcDbEntity
  8
0
100
AcDbBlockBegin
  2
_OPEN
 70
     0
 10
0.0
 20
0.0
 30
0.0
  3
_OPEN
  1

  0
LINE
  5
6F
330
6D
100
AcDbEntity
  8
0
  6
ByBlock
 62
     0
100
AcDbLine
 10
-1.0
 20
0.1666666666666666
 30
0.0
 11
0.0
 21
0.0
 31
0.0
  0
LINE
  5
70
330
6D
100
AcDbEntity
  8
0
  6
ByBlock
 62
     0
100
AcDbLine
 10
0.0
 20
0.0
 30
0.0
 11
-1.0
 21
-0.1666666666666666
 31
0.0
  0
LINE
  5
71
330
6D
100
AcDbEntity
  8
0
  6
ByBlock
 62
     0
100
AcDbLine
 10
0.0
 20
0.0
 30
0.0
 11
-1.0
 21
0.0
 31
0.0
  0
ENDBLK
  5
72
330
6D
100
AcDbEntity
  8
0
100
AcDbBlockEnd
  0
BLOCK
  5
2728
330
271E
100
AcDbEntity
  8
0
100
AcDbBlockBegin
  2
*D1
 70
     1
 10
0.0
 20
0.0
 30
0.0
  3
*D1
  1

  0
LINE
  5
27D2
330
271E
100
AcDbEntity
  8
SUNPOU
 62
     4
370
    -2
100
AcDbLine
 10
372.8204619691023
 20
402.7110187692275
 30
0.0
 11
416.5467910597233
 21
402.7110187692274
 31
0.0
  0
LINE
  5
27D3
330
271E
100
AcDbEntity
  8
SUNPOU
 62
     4
370
    -2
100
AcDbLine
 10
372.6014222494821
 20
375.7286373037758
 30
0.0
 11
416.5467910597232
 21
375.7286373037758
 31
0.0
  0
LINE
  5
27D4
330
271E
100
AcDbEntity
  8
SUNPOU
 62
     4
370
    -2
100
AcDbLine
 10
413.5467910597233
 20
395.7110187692275
 30
0.0
 11
413.5467910597232
 21
382.7286373037758
 31
0.0
  0
INSERT
  5
27D5
330
271E
100
AcDbEntity
  8
SUNPOU
 62
     4
370
    -2
100
AcDbBlockReference
  2
_OPEN
 10
413.5467910597233
 20
402.7110187692274
 30
0.0
 41
7.0
 42
7.0
 43
7.0
 50
90.0
  0
INSERT
  5
27D6
330
271E
100
AcDbEntity
  8
SUNPOU
 62
     4
370
    -2
100
AcDbBlockReference
  2
_OPEN
 10
413.5467910597232
 20
375.7286373037758
 30
0.0
 41
7.0
 42
7.0
 43
7.0
 50
270.0
  0
MTEXT
  5
27D7
330
271E
100
AcDbEntity
  8
SUNPOU
 62
     4
100
AcDbMText
 10
408.5467910597231
 20
389.2198280365017
 30
0.0
 40
6.0
 41
0.0
 71
     5
 72
     5
  1
\A1;27
 11
0.0000000000000001
 21
1.0
 31
0.0
 73
     1
 44
1.0
1001
ACAD
1000
MTEXTBEGIN
1070
    73
1070
     1
1070
    44
1040
1.0
1070
    74
1070
     0
1000
MTEXTEND
  0
POINT
  5
27D8
330
271E
100
AcDbEntity
  8
DEFPOINTS
 62
     0
100
AcDbPoint
 10
366.8204619691023
 20
402.7110187692275
 30
0.0
  0
POINT
  5
27D9
330
271E
100
AcDbEntity
  8
DEFPOINTS
 62
     0
100
AcDbPoint
 10
366.6014222494821
 20
375.7286373037758
 30
0.0
  0
POINT
  5
27DA
330
271E
100
AcDbEntity
  8
DEFPOINTS
 62
     0
100
AcDbPoint
 10
413.5467910597232
 20
375.7286373037758
 30
0.0
  0
ENDBLK
  5
2729
330
271E
100
AcDbEntity
  8
0
100
AcDbBlockEnd
  0
BLOCK
  5
2734
330
272A
100
AcDbEntity
  8
0
100
AcDbBlockBegin
  2
*D2
 70
     1
 10
0.0
 20
0.0
 30
0.0
  3
*D2
  1

  0
LINE
  5
27DB
330
272A
100
AcDbEntity
  8
SUNPOU
 62
     4
370
    -2
100
AcDbLine
 10
382.7961106380023
 20
424.2189389675274
 30
0.0
 11
433.8779458553692
 21
424.2189389675274
 31
0.0
  0
LINE
  5
27DC
330
272A
100
AcDbEntity
  8
SUNPOU
 62
     4
370
    -2
100
AcDbLine
 10
382.7961106380023
 20
354.2189389675275
 30
0.0
 11
433.8779458553692
 21
354.2189389675274
 31
0.0
  0
LINE
  5
27DD
330
272A
100
AcDbEntity
  8
SUNPOU
 62
     4
370
    -2
100
AcDbLine
 10
430.8779458553693
 20
417.2189389675274
 30
0.0
 11
430.8779458553692
 21
361.2189389675275
 31
0.0
  0
INSERT
  5
27DE
330
272A
100
AcDbEntity
  8
SUNPOU
 62
     4
370
    -2
100
AcDbBlockReference
  2
_OPEN
 10
430.8779458553693
 20
424.2189389675274
 30
0.0
 41
7.0
 42
7.0
 43
7.0
 50
90.0
  0
INSERT
  5
27DF
330
272A
100
AcDbEntity
  8
SUNPOU
 62
     4
370
    -2
100
AcDbBlockReference
  2
_OPEN
 10
430.8779458553692
 20
354.2189389675274
 30
0.0
 41
7.0
 42
7.0
 43
7.0
 50
270.0
  0
MTEXT
  5
27E0
330
272A
100
AcDbEntity
  8
SUNPOU
 62
     4
100
AcDbMText
 10
425.8779458553691
 20
389.2189389675276
 30
0.0
 40
6.0
 41
0.0
 71
     5
 72
     5
  1
\A1;70
 11
0.0000000000000001
 21
1.0
 31
0.0
 73
     1
 44
1.0
1001
ACAD
1000
MTEXTBEGIN
1070
    73
1070
     1
1070
    44
1040
1.0
1070
    74
1070
     0
1000
MTEXTEND
  0
POINT
  5
27E1
330
272A
100
AcDbEntity
  8
DEFPOINTS
 62
     0
100
AcDbPoint
 10
376.7961106380023
 20
424.2189389675274
 30
0.0
  0
POINT
  5
27E2
330
272A
100
AcDbEntity
  8
DEFPOINTS
 62
     0
100
AcDbPoint
 10
376.7961106380023
 20
354.2189389675275
 30
0.0
  0
POINT
  5
27E3
330
272A
100
AcDbEntity
  8
DEFPOINTS
 62
     0
100
AcDbPoint
 10
430.8779458553692
 20
354.2189389675274
 30
0.0
  0
ENDBLK
  5
2735
330
272A
100
AcDbEntity
  8
0
100
AcDbBlockEnd
  0
BLOCK
  5
2740
330
2736
100
AcDbEntity
  8
0
100
AcDbBlockBegin
  2
*D3
 70
     1
 10
0.0
 20
0.0
 30
0.0
  3
*D3
  1

  0
LINE
  5
27E4
330
2736
100
AcDbEntity
  8
SUNPOU
 62
     4
370
    -2
100
AcDbLine
 10
382.7961106380023
 20
246.8730176434108
 30
0.0
 11
417.7134577263899
 21
246.8730176434108
 31
0.0
  0
LINE
  5
27E5
330
2736
100
AcDbEntity
  8
SUNPOU
 62
     4
370
    -2
100
AcDbLine
 10
382.7961106380023
 20
196.8730176434108
 30
0.0
 11
417.7134577263899
 21
196.8730176434108
 31
0.0
  0
LINE
  5
27E6
330
2736
100
AcDbEntity
  8
SUNPOU
 62
     4
370
    -2
100
AcDbLine
 10
414.7134577263899
 20
239.8730176434108
 30
0.0
 11
414.7134577263899
 21
203.8730176434108
 31
0.0
  0
INSERT
  5
27E7
330
2736
100
AcDbEntity
  8
SUNPOU
 62
     4
370
    -2
100
AcDbBlockReference
  2
_OPEN
 10
414.7134577263899
 20
246.8730176434108
 30
0.0
 41
7.0
 42
7.0
 43
7.0
 50
90.0
  0
INSERT
  5
27E8
330
2736
100
AcDbEntity
  8
SUNPOU
 62
     4
370
    -2
100
AcDbBlockReference
  2
_OPEN
 10
414.7134577263899
 20
196.8730176434108
 30
0.0
 41
7.0
 42
7.0
 43
7.0
 50
270.0
  0
MTEXT
  5
27E9
330
2736
100
AcDbEntity
  8
SUNPOU
 62
     4
100
AcDbMText
 10
409.7134577263899
 20
221.8730176434108
 30
0.0
 40
6.0
 41
0.0
 71
     5
 72
     5
  1
\A1;50
 11
0.0000000000000001
 21
1.0
 31
0.0
 73
     1
 44
1.0
1001
ACAD
1000
MTEXTBEGIN
1070
    73
1070
     1
1070
    44
1040
1.0
1070
    74
1070
     0
1000
MTEXTEND
  0
POINT
  5
27EA
330
2736
100
AcDbEntity
  8
DEFPOINTS
 62
     0
100
AcDbPoint
 10
376.7961106380023
 20
246.8730176434108
 30
0.0
  0
POINT
  5
27EB
330
2736
100
AcDbEntity
  8
DEFPOINTS
 62
     0
100
AcDbPoint
 10
376.7961106380023
 20
196.8730176434108
 30
0.0
  0
POINT
  5
27EC
330
2736
100
AcDbEntity
  8
DEFPOINTS
 62
     0
100
AcDbPoint
 10
414.7134577263899
 20
196.8730176434108
 30
0.0
  0
ENDBLK
  5
2741
330
2736
100
AcDbEntity
  8
0
100
AcDbBlockEnd
  0
BLOCK
  5
274E
330
2742
100
AcDbEntity
  8
0
100
AcDbBlockBegin
  2
*D4
 70
     1
 10
0.0
 20
0.0
 30
0.0
  3
*D4
  1

  0
LINE
  5
27ED
330
2742
100
AcDbEntity
  8
SUNPOU
 62
     4
370
    -2
100
AcDbLine
 10
368.4022578847229
 20
193.7646104075268
 30
0.0
 11
368.4022578847229
 21
151.1829272316121
 31
0.0
  0
LINE
  5
27EE
330
2742
100
AcDbEntity
  8
SUNPOU
 62
     4
370
    -2
100
AcDbLine
 10
376.7961106380023
 20
190.8730176434108
 30
0.0
 11
376.7961106380023
 21
151.1829272316121
 31
0.0
  0
LINE
  5
27EF
330
2742
100
AcDbEntity
  8
SUNPOU
 62
     4
370
    -2
100
AcDbLine
 10
361.4022578847229
 20
154.1829272316121
 30
0.0
 11
354.4022578847229
 21
154.1829272316121
 31
0.0
  0
LINE
  5
27F0
330
2742
100
AcDbEntity
  8
SUNPOU
 62
     4
370
    -2
100
AcDbLine
 10
383.7961106380023
 20
154.1829272316121
 30
0.0
 11
412.7961106380023
 21
154.1829272316121
 31
0.0
  0
LINE
  5
27F1
330
2742
100
AcDbEntity
  8
SUNPOU
 62
     4
370
    -2
100
AcDbLine
 10
368.4022578847229
 20
154.1829272316121
 30
0.0
 11
376.7961106380023
 21
154.1829272316121
 31
0.0
  0
INSERT
  5
27F2
330
2742
100
AcDbEntity
  8
SUNPOU
 62
     4
370
    -2
100
AcDbBlockReference
  2
_OPEN
 10
368.4022578847229
 20
154.1829272316121
 30
0.0
 41
7.0
 42
7.0
 43
7.0
  0
INSERT
  5
27F3
330
2742
100
AcDbEntity
  8
SUNPOU
 62
     4
370
    -2
100
AcDbBlockReference
  2
_OPEN
 10
376.7961106380023
 20
154.1829272316121
 30
0.0
 41
7.0
 42
7.0
 43
7.0
 50
180.0
  0
MTEXT
  5
27F4
330
2742
100
AcDbEntity
  8
SUNPOU
 62
     4
100
AcDbMText
 10
401.7961106380022
 20
159.1829272316121
 30
0.0
 40
6.0
 41
0.0
 71
     5
 72
     5
  1
\A1;t8.4
 73
     1
 44
1.0
1001
ACAD
1000
MTEXTBEGIN
1070
    73
1070
     1
1070
    44
1040
1.0
1070
    74
1070
     0
1000
MTEXTEND
  0
POINT
  5
27F5
330
2742
100
AcDbEntity
  8
DEFPOINTS
 62
     0
100
AcDbPoint
 10
368.4022578847229
 20
199.7646104075268
 30
0.0
  0
POINT
  5
27F6
330
2742
100
AcDbEntity
  8
DEFPOINTS
 62
     0
100
AcDbPoint
 10
376.7961106380023
 20
196.8730176434108
 30
0.0
  0
POINT
  5
27F7
330
2742
100
AcDbEntity
  8
DEFPOINTS
 62
     0
100
AcDbPoint
 10
376.7961106380023
 20
154.1829272316121
 30
0.0
  0
ENDBLK
  5
274F
330
2742
100
AcDbEntity
  8
0
100
AcDbBlockEnd
  0
BLOCK
  5
275A
330
2750
100
AcDbEntity
  8
0
100
AcDbBlockBegin
  2
*D5
 70
     1
 10
0.0
 20
0.0
 30
0.0
  3
*D5
  1

  0
LINE
  5
27F8
330
2750
100
AcDbEntity
  8
SUNPOU
 62
     4
370
    -2
100
AcDbLine
 10
239.8639414084022
 20
239.2693647140966
 30
0.0
 11
209.7294441524429
 21
239.2693647140966
 31
0.0
  0
LINE
  5
27F9
330
2750
100
AcDbEntity
  8
SUNPOU
 62
     4
370
    -2
100
AcDbLine
 10
364.7961106380023
 20
196.8730176434108
 30
0.0
 11
209.7294441524429
 21
196.8730176434108
 31
0.0
  0
LINE
  5
27FA
330
2750
100
AcDbEntity
  8
SUNPOU
 62
     4
370
    -2
100
AcDbLine
 10
212.7294441524429
 20
232.2693647140965
 30
0.0
 11
212.7294441524429
 21
203.8730176434109
 31
0.0
  0
INSERT
  5
27FB
330
2750
100
AcDbEntity
  8
SUNPOU
 62
     4
370
    -2
100
AcDbBlockReference
  2
_OPEN
 10
212.7294441524429
 20
239.2693647140966
 30
0.0
 41
7.0
 42
7.0
 43
7.0
 50
90.0
  0
INSERT
  5
27FC
330
2750
100
AcDbEntity
  8
SUNPOU
 62
     4
370
    -2
100
AcDbBlockReference
  2
_OPEN
 10
212.7294441524429
 20
196.8730176434108
 30
0.0
 41
7.0
 42
7.0
 43
7.0
 50
270.0
  0
MTEXT
  5
27FD
330
2750
100
AcDbEntity
  8
SUNPOU
 62
     4
100
AcDbMText
 10
207.7294441524429
 20
218.0711911787537
 30
0.0
 40
6.0
 41
0.0
 71
     5
 72
     5
  1
\A1;42
 11
0.0000000000000001
 21
1.0
 31
0.0
 73
     1
 44
1.0
1001
ACAD
1000
MTEXTBEGIN
1070
    73
1070
     1
1070
    44
1040
1.0
1070
    74
1070
     0
1000
MTEXTEND
  0
POINT
  5
27FE
330
2750
100
AcDbEntity
  8
DEFPOINTS
 62
     0
100
AcDbPoint
 10
245.8639414084022
 20
239.2693647140966
 30
0.0
  0
POINT
  5
27FF
330
2750
100
AcDbEntity
  8
DEFPOINTS
 62
     0
100
AcDbPoint
 10
370.7961106380023
 20
196.8730176434108
 30
0.0
  0
POINT
  5
2800
330
2750
100
AcDbEntity
  8
DEFPOINTS
 62
     0
100
AcDbPoint
 10
212.7294441524429
 20
196.8730176434108
 30
0.0
  0
ENDBLK
  5
275B
330
2750
100
AcDbEntity
  8
0
100
AcDbBlockEnd
  0
BLOCK
  5
2766
330
275C
100
AcDbEntity
  8
0
100
AcDbBlockBegin
  2
*D6
 70
     1
 10
0.0
 20
0.0
 30
0.0
  3
*D6
  1

  0
LINE
  5
2801
330
275C
100
AcDbEntity
  8
SUNPOU
 62
     4
370
    -2
100
AcDbLine
 10
244.8390787952023
 20
244.3253535996109
 30
0.0
 11
244.8390787952023
 21
308.0806018604572
 31
0.0
  0
LINE
  5
2802
330
275C
100
AcDbEntity
  8
SUNPOU
 62
     4
370
    -2
100
AcDbLine
 10
376.7961106380023
 20
252.8730176434108
 30
0.0
 11
376.7961106380023
 21
308.0806018604572
 31
0.0
  0
LINE
  5
2803
330
275C
100
AcDbEntity
  8
SUNPOU
 62
     4
370
    -2
100
AcDbLine
 10
251.8390787952023
 20
305.0806018604573
 30
0.0
 11
369.7961106380023
 21
305.0806018604573
 31
0.0
  0
INSERT
  5
2804
330
275C
100
AcDbEntity
  8
SUNPOU
 62
     4
370
    -2
100
AcDbBlockReference
  2
_OPEN
 10
244.8390787952023
 20
305.0806018604573
 30
0.0
 41
7.0
 42
7.0
 43
7.0
 50
180.0
  0
INSERT
  5
2805
330
275C
100
AcDbEntity
  8
SUNPOU
 62
     4
370
    -2
100
AcDbBlockReference
  2
_OPEN
 10
376.7961106380023
 20
305.0806018604573
 30
0.0
 41
7.0
 42
7.0
 43
7.0
  0
MTEXT
  5
2806
330
275C
100
AcDbEntity
  8
SUNPOU
 62
     4
100
AcDbMText
 10
310.8175947166023
 20
310.0806018604572
 30
0.0
 40
6.0
 41
0.0
 71
     5
 72
     5
  1
\A1;132
 73
     1
 44
1.0
1001
ACAD
1000
MTEXTBEGIN
1070
    73
1070
     1
1070
    44
1040
1.0
1070
    74
1070
     0
1000
MTEXTEND
  0
POINT
  5
2807
330
275C
100
AcDbEntity
  8
DEFPOINTS
 62
     0
100
AcDbPoint
 10
244.8390787952023
 20
238.3253535996109
 30
0.0
  0
POINT
  5
2808
330
275C
100
AcDbEntity
  8
DEFPOINTS
 62
     0
100
AcDbPoint
 10
376.7961106380023
 20
246.8730176434108
 30
0.0
  0
POINT
  5
2809
330
275C
100
AcDbEntity
  8
DEFPOINTS
 62
     0
100
AcDbPoint
 10
376.7961106380023
 20
305.0806018604573
 30
0.0
  0
ENDBLK
  5
2767
330
275C
100
AcDbEntity
  8
0
100
AcDbBlockEnd
  0
BLOCK
  5
2774
330
2768
100
AcDbEntity
  8
0
100
AcDbBlockBegin
  2
*D7
 70
     1
 10
0.0
 20
0.0
 30
0.0
  3
*D7
  1

  0
LINE
  5
280A
330
2768
100
AcDbEntity
  8
SUNPOU
 62
     4
370
    -2
100
AcDbLine
 10
366.7947651368855
 20
227.5693647140966
 30
0.0
 11
366.7947651368855
 21
292.6205088015826
 31
0.0
  0
LINE
  5
280B
330
2768
100
AcDbEntity
  8
SUNPOU
 62
     4
370
    -2
100
AcDbLine
 10
376.7961106380023
 20
252.8730176434108
 30
0.0
 11
376.7961106380023
 21
292.6205088015826
 31
0.0
  0
LINE
  5
280C
330
2768
100
AcDbEntity
  8
SUNPOU
 62
     4
370
    -2
100
AcDbLine
 10
383.7961106380023
 20
289.6205088015825
 30
0.0
 11
390.7961106380023
 21
289.6205088015825
 31
0.0
  0
LINE
  5
280D
330
2768
100
AcDbEntity
  8
SUNPOU
 62
     4
370
    -2
100
AcDbLine
 10
359.7947651368855
 20
289.6205088015825
 30
0.0
 11
341.7947651368855
 21
289.6205088015825
 31
0.0
  0
LINE
  5
280E
330
2768
100
AcDbEntity
  8
SUNPOU
 62
     4
370
    -2
100
AcDbLine
 10
376.7961106380023
 20
289.6205088015825
 30
0.0
 11
366.7947651368855
 21
289.6205088015825
 31
0.0
  0
INSERT
  5
280F
330
2768
100
AcDbEntity
  8
SUNPOU
 62
     4
370
    -2
100
AcDbBlockReference
  2
_OPEN
 10
376.7961106380023
 20
289.6205088015825
 30
0.0
 41
7.0
 42
7.0
 43
7.0
 50
180.0
  0
INSERT
  5
2810
330
2768
100
AcDbEntity
  8
SUNPOU
 62
     4
370
    -2
100
AcDbBlockReference
  2
_OPEN
 10
366.7947651368855
 20
289.6205088015825
 30
0.0
 41
7.0
 42
7.0
 43
7.0
  0
MTEXT
  5
2811
330
2768
100
AcDbEntity
  8
SUNPOU
 62
     4
100
AcDbMText
 10
347.2947651368855
 20
294.6205088015826
 30
0.0
 40
6.0
 41
0.0
 71
     5
 72
     5
  1
\A1;10
 73
     1
 44
1.0
1001
ACAD
1000
MTEXTBEGIN
1070
    73
1070
     1
1070
    44
1040
1.0
1070
    74
1070
     0
1000
MTEXTEND
  0
POINT
  5
2812
330
2768
100
AcDbEntity
  8
DEFPOINTS
 62
     0
100
AcDbPoint
 10
366.7947651368855
 20
221.5693647140966
 30
0.0
  0
POINT
  5
2813
330
2768
100
AcDbEntity
  8
DEFPOINTS
 62
     0
100
AcDbPoint
 10
376.7961106380023
 20
246.8730176434108
 30
0.0
  0
POINT
  5
2814
330
2768
100
AcDbEntity
  8
DEFPOINTS
 62
     0
100
AcDbPoint
 10
376.7961106380023
 20
289.6205088015825
 30
0.0
  0
ENDBLK
  5
2775
330
2768
100
AcDbEntity
  8
0
100
AcDbBlockEnd
  0
BLOCK
  5
2782
330
2776
100
AcDbEntity
  8
0
100
AcDbBlockBegin
  2
*D8
 70
     1
 10
0.0
 20
0.0
 30
0.0
  3
*D8
  1

  0
LINE
  5
2815
330
2776
100
AcDbEntity
  8
SUNPOU
 62
     4
370
    -2
100
AcDbLine
 10
367.8361026404023
 20
250.8734175234108
 30
0.0
 11
367.8361026404023
 21
277.3742931099865
 31
0.0
  0
LINE
  5
2816
330
2776
100
AcDbEntity
  8
SUNPOU
 62
     4
370
    -2
100
AcDbLine
 10
376.7961106380023
 20
252.8730176434108
 30
0.0
 11
376.7961106380023
 21
277.3742931099865
 31
0.0
  0
LINE
  5
2817
330
2776
100
AcDbEntity
  8
SUNPOU
 62
     4
370
    -2
100
AcDbLine
 10
360.8361026404022
 20
274.3742931099865
 30
0.0
 11
353.8361026404023
 21
274.3742931099865
 31
0.0
  0
LINE
  5
2818
330
2776
100
AcDbEntity
  8
SUNPOU
 62
     4
370
    -2
100
AcDbLine
 10
383.7961106380023
 20
274.3742931099865
 30
0.0
 11
390.7961106380023
 21
274.3742931099865
 31
0.0
  0
LINE
  5
2819
330
2776
100
AcDbEntity
  8
SUNPOU
 62
     4
370
    -2
100
AcDbLine
 10
367.8361026404023
 20
274.3742931099865
 30
0.0
 11
376.7961106380023
 21
274.3742931099865
 31
0.0
  0
INSERT
  5
281A
330
2776
100
AcDbEntity
  8
SUNPOU
 62
     4
370
    -2
100
AcDbBlockReference
  2
_OPEN
 10
367.8361026404023
 20
274.3742931099865
 30
0.0
 41
7.0
 42
7.0
 43
7.0
  0
INSERT
  5
281B
330
2776
100
AcDbEntity
  8
SUNPOU
 62
     4
370
    -2
100
AcDbBlockReference
  2
_OPEN
 10
376.7961106380023
 20
274.3742931099865
 30
0.0
 41
7.0
 42
7.0
 43
7.0
 50
180.0
  0
MTEXT
  5
281C
330
2776
100
AcDbEntity
  8
SUNPOU
 62
     4
100
AcDbMText
 10
372.3161066392023
 20
279.3742931099865
 30
0.0
 40
6.0
 41
0.0
 71
     5
 72
     5
  1
\A1;9
 73
     1
 44
1.0
1001
ACAD
1000
MTEXTBEGIN
1070
    73
1070
     1
1070
    44
1040
1.0
1070
    74
1070
     0
1000
MTEXTEND
  0
POINT
  5
281D
330
2776
100
AcDbEntity
  8
DEFPOINTS
 62
     0
100
AcDbPoint
 10
367.8361026404023
 20
244.8734175234108
 30
0.0
  0
POINT
  5
281E
330
2776
100
AcDbEntity
  8
DEFPOINTS
 62
     0
100
AcDbPoint
 10
376.7961106380023
 20
246.8730176434108
 30
0.0
  0
POINT
  5
281F
330
2776
100
AcDbEntity
  8
DEFPOINTS
 62
     0
100
AcDbPoint
 10
376.7961106380023
 20
274.3742931099865
 30
0.0
  0
ENDBLK
  5
2783
330
2776
100
AcDbEntity
  8
0
100
AcDbBlockEnd
  0
BLOCK
  5
278E
330
2784
100
AcDbEntity
  8
0
100
AcDbBlockBegin
  2
*D9
 70
     1
 10
0.0
 20
0.0
 30
0.0
  3
*D9
  1

  0
LINE
  5
2820
330
2784
100
AcDbEntity
  8
SUNPOU
 62
     4
370
    -2
100
AcDbLine
 10
238.6112311391022
 20
401.7189389675275
 30
0.0
 11
209.7294441524429
 21
401.7189389675275
 31
0.0
  0
LINE
  5
2821
330
2784
100
AcDbEntity
  8
SUNPOU
 62
     4
370
    -2
100
AcDbLine
 10
238.4082975265322
 20
376.7205863581277
 30
0.0
 11
209.7294441524429
 21
376.7205863581277
 31
0.0
  0
LINE
  5
2822
330
2784
100
AcDbEntity
  8
SUNPOU
 62
     4
370
    -2
100
AcDbLine
 10
212.7294441524429
 20
394.7189389675275
 30
0.0
 11
212.7294441524429
 21
383.7205863581277
 31
0.0
  0
INSERT
  5
2823
330
2784
100
AcDbEntity
  8
SUNPOU
 62
     4
370
    -2
100
AcDbBlockReference
  2
_OPEN
 10
212.7294441524429
 20
401.7189389675275
 30
0.0
 41
7.0
 42
7.0
 43
7.0
 50
90.0
  0
INSERT
  5
2824
330
2784
100
AcDbEntity
  8
SUNPOU
 62
     4
370
    -2
100
AcDbBlockReference
  2
_OPEN
 10
212.7294441524429
 20
376.7205863581277
 30
0.0
 41
7.0
 42
7.0
 43
7.0
 50
270.0
  0
MTEXT
  5
2825
330
2784
100
AcDbEntity
  8
SUNPOU
 62
     4
100
AcDbMText
 10
207.7294441524429
 20
389.2197626628276
 30
0.0
 40
6.0
 41
0.0
 71
     5
 72
     5
  1
\A1;25
 11
0.0000000000000001
 21
1.0
 31
0.0
 73
     1
 44
1.0
1001
ACAD
1000
MTEXTBEGIN
1070
    73
1070
     1
1070
    44
1040
1.0
1070
    74
1070
     0
1000
MTEXTEND
  0
POINT
  5
2826
330
2784
100
AcDbEntity
  8
DEFPOINTS
 62
     0
100
AcDbPoint
 10
244.6112311391023
 20
401.7189389675275
 30
0.0
  0
POINT
  5
2827
330
2784
100
AcDbEntity
  8
DEFPOINTS
 62
     0
100
AcDbPoint
 10
244.4082975265322
 20
376.7205863581277
 30
0.0
  0
POINT
  5
2828
330
2784
100
AcDbEntity
  8
DEFPOINTS
 62
     0
100
AcDbPoint
 10
212.7294441524429
 20
376.7205863581277
 30
0.0
  0
ENDBLK
  5
278F
330
2784
100
AcDbEntity
  8
0
100
AcDbBlockEnd
  0
BLOCK
  5
279A
330
2790
100
AcDbEntity
  8
0
100
AcDbBlockBegin
  2
*D10
 70
     1
 10
0.0
 20
0.0
 30
0.0
  3
*D10
  1

  0
LINE
  5
2829
330
2790
100
AcDbEntity
  8
SUNPOU
 62
     4
370
    -2
100
AcDbLine
 10
498.7193459844361
 20
248.6730176434109
 30
0.0
 11
498.7193459844361
 21
277.3742931099865
 31
0.0
  0
LINE
  5
282A
330
2790
100
AcDbEntity
  8
SUNPOU
 62
     4
370
    -2
100
AcDbLine
 10
551.7193459844361
 20
248.6730176434109
 30
0.0
 11
551.7193459844361
 21
277.3742931099865
 31
0.0
  0
LINE
  5
282B
330
2790
100
AcDbEntity
  8
SUNPOU
 62
     4
370
    -2
100
AcDbLine
 10
505.7193459844361
 20
274.3742931099865
 30
0.0
 11
544.7193459844361
 21
274.3742931099865
 31
0.0
  0
INSERT
  5
282C
330
2790
100
AcDbEntity
  8
SUNPOU
 62
     4
370
    -2
100
AcDbBlockReference
  2
_OPEN
 10
498.7193459844361
 20
274.3742931099865
 30
0.0
 41
7.0
 42
7.0
 43
7.0
 50
180.0
  0
INSERT
  5
282D
330
2790
100
AcDbEntity
  8
SUNPOU
 62
     4
370
    -2
100
AcDbBlockReference
  2
_OPEN
 10
551.7193459844361
 20
274.3742931099865
 30
0.0
 41
7.0
 42
7.0
 43
7.0
  0
MTEXT
  5
282E
330
2790
100
AcDbEntity
  8
SUNPOU
 62
     4
100
AcDbMText
 10
525.2193459844361
 20
279.3742931099865
 30
0.0
 40
6.0
 41
0.0
 71
     5
 72
     5
  1
\A1;53
 73
     1
 44
1.0
1001
ACAD
1000
MTEXTBEGIN
1070
    73
1070
     1
1070
    44
1040
1.0
1070
    74
1070
     0
1000
MTEXTEND
  0
POINT
  5
282F
330
2790
100
AcDbEntity
  8
DEFPOINTS
 62
     0
100
AcDbPoint
 10
498.7193459844361
 20
242.6730176434109
 30
0.0
  0
POINT
  5
2830
330
2790
100
AcDbEntity
  8
DEFPOINTS
 62
     0
100
AcDbPoint
 10
551.7193459844361
 20
242.6730176434109
 30
0.0
  0
POINT
  5
2831
330
2790
100
AcDbEntity
  8
DEFPOINTS
 62
     0
100
AcDbPoint
 10
551.7193459844361
 20
274.3742931099865
 30
0.0
  0
ENDBLK
  5
279B
330
2790
100
AcDbEntity
  8
0
100
AcDbBlockEnd
  0
BLOCK
  5
27A6
330
279C
100
AcDbEntity
  8
0
100
AcDbBlockBegin
  2
*D11
 70
     1
 10
0.0
 20
0.0
 30
0.0
  3
*D11
  1

  0
LINE
  5
2832
330
279C
100
AcDbEntity
  8
SUNPOU
 62
     4
370
    -2
100
AcDbLine
 10
560.2193459844361
 20
243.6730176434109
 30
0.0
 11
560.2193459844361
 21
293.7795089348821
 31
0.0
  0
LINE
  5
2833
330
279C
100
AcDbEntity
  8
SUNPOU
 62
     4
370
    -2
100
AcDbLine
 10
490.2193459844361
 20
243.6730176434109
 30
0.0
 11
490.2193459844361
 21
293.7795089348821
 31
0.0
  0
LINE
  5
2834
330
279C
100
AcDbEntity
  8
SUNPOU
 62
     4
370
    -2
100
AcDbLine
 10
553.2193459844361
 20
290.7795089348821
 30
0.0
 11
497.2193459844361
 21
290.7795089348821
 31
0.0
  0
INSERT
  5
2835
330
279C
100
AcDbEntity
  8
SUNPOU
 62
     4
370
    -2
100
AcDbBlockReference
  2
_OPEN
 10
560.2193459844361
 20
290.7795089348821
 30
0.0
 41
7.0
 42
7.0
 43
7.0
  0
INSERT
  5
2836
330
279C
100
AcDbEntity
  8
SUNPOU
 62
     4
370
    -2
100
AcDbBlockReference
  2
_OPEN
 10
490.2193459844361
 20
290.7795089348821
 30
0.0
 41
7.0
 42
7.0
 43
7.0
 50
180.0
  0
MTEXT
  5
2837
330
279C
100
AcDbEntity
  8
SUNPOU
 62
     4
100
AcDbMText
 10
525.2193459844361
 20
295.7795089348821
 30
0.0
 40
6.0
 41
0.0
 71
     5
 72
     5
  1
\A1;70
 73
     1
 44
1.0
1001
ACAD
1000
MTEXTBEGIN
1070
    73
1070
     1
1070
    44
1040
1.0
1070
    74
1070
     0
1000
MTEXTEND
  0
POINT
  5
2838
330
279C
100
AcDbEntity
  8
DEFPOINTS
 62
     0
100
AcDbPoint
 10
560.2193459844361
 20
237.6730176434109
 30
0.0
  0
POINT
  5
2839
330
279C
100
AcDbEntity
  8
DEFPOINTS
 62
     0
100
AcDbPoint
 10
490.2193459844361
 20
237.6730176434109
 30
0.0
  0
POINT
  5
283A
330
279C
100
AcDbEntity
  8
DEFPOINTS
 62
     0
100
AcDbPoint
 10
490.2193459844361
 20
290.7795089348821
 30
0.0
  0
ENDBLK
  5
27A7
330
279C
100
AcDbEntity
  8
0
100
AcDbBlockEnd
  0
BLOCK
  5
27B4
330
27A8
100
AcDbEntity
  8
0
100
AcDbBlockBegin
  2
*D12
 70
     1
 10
0.0
 20
0.0
 30
0.0
  3
*D12
  1

  0
LINE
  5
283B
330
27A8
100
AcDbEntity
  8
SUNPOU
 62
     4
370
    -2
100
AcDbLine
 10
492.3343939322274
 20
247.4937587438001
 30
0.0
 11
463.9856064229896
 21
247.4937587438001
 31
0.0
  0
LINE
  5
283C
330
27A8
100
AcDbEntity
  8
SUNPOU
 62
     4
370
    -2
100
AcDbLine
 10
487.7193459844361
 20
237.6730176434109
 30
0.0
 11
463.9856064229896
 21
237.6730176434109
 31
0.0
  0
LINE
  5
283D
330
27A8
100
AcDbEntity
  8
SUNPOU
 62
     4
370
    -2
100
AcDbLine
 10
466.9856064229896
 20
230.6730176434109
 30
0.0
 11
466.9856064229896
 21
223.6730176434109
 31
0.0
  0
LINE
  5
283E
330
27A8
100
AcDbEntity
  8
SUNPOU
 62
     4
370
    -2
100
AcDbLine
 10
466.9856064229896
 20
254.4937587438001
 30
0.0
 11
466.9856064229896
 21
272.4937587438001
 31
0.0
  0
LINE
  5
283F
330
27A8
100
AcDbEntity
  8
SUNPOU
 62
     4
370
    -2
100
AcDbLine
 10
466.9856064229896
 20
237.6730176434109
 30
0.0
 11
466.9856064229896
 21
247.4937587438001
 31
0.0
  0
INSERT
  5
2840
330
27A8
100
AcDbEntity
  8
SUNPOU
 62
     4
370
    -2
100
AcDbBlockReference
  2
_OPEN
 10
466.9856064229896
 20
237.6730176434109
 30
0.0
 41
7.0
 42
7.0
 43
7.0
 50
90.0
  0
INSERT
  5
2841
330
27A8
100
AcDbEntity
  8
SUNPOU
 62
     4
370
    -2
100
AcDbBlockReference
  2
_OPEN
 10
466.9856064229896
 20
247.4937587438001
 30
0.0
 41
7.0
 42
7.0
 43
7.0
 50
270.0
  0
MTEXT
  5
2842
330
27A8
100
AcDbEntity
  8
SUNPOU
 62
     4
100
AcDbMText
 10
461.9856064229895
 20
266.9937587438002
 30
0.0
 40
6.0
 41
0.0
 71
     5
 72
     5
  1
\A1;10
 11
0.0000000000000001
 21
1.0
 31
0.0
 73
     1
 44
1.0
1001
ACAD
1000
MTEXTBEGIN
1070
    73
1070
     1
1070
    44
1040
1.0
1070
    74
1070
     0
1000
MTEXTEND
  0
POINT
  5
2843
330
27A8
100
AcDbEntity
  8
DEFPOINTS
 62
     0
100
AcDbPoint
 10
498.3343939322273
 20
247.4937587438001
 30
0.0
  0
POINT
  5
2844
330
27A8
100
AcDbEntity
  8
DEFPOINTS
 62
     0
100
AcDbPoint
 10
493.7193459844361
 20
237.6730176434109
 30
0.0
  0
POINT
  5
2845
330
27A8
100
AcDbEntity
  8
DEFPOINTS
 62
     0
100
AcDbPoint
 10
466.9856064229896
 20
237.6730176434109
 30
0.0
  0
ENDBLK
  5
27B5
330
27A8
100
AcDbEntity
  8
0
100
AcDbBlockEnd
  0
BLOCK
  5
27C2
330
27B6
100
AcDbEntity
  8
0
100
AcDbBlockBegin
  2
*D13
 70
     1
 10
0.0
 20
0.0
 30
0.0
  3
*D13
  1

  0
LINE
  5
2846
330
27B6
100
AcDbEntity
  8
SUNPOU
 62
     4
370
    -2
100
AcDbLine
 10
487.7193459844361
 20
207.6730176434109
 30
0.0
 11
463.9856064229895
 21
207.6730176434109
 31
0.0
  0
LINE
  5
2847
330
27B6
100
AcDbEntity
  8
SUNPOU
 62
     4
370
    -2
100
AcDbLine
 10
494.2193459844361
 20
197.6730176434108
 30
0.0
 11
463.9856064229895
 21
197.6730176434108
 31
0.0
  0
LINE
  5
2848
330
27B6
100
AcDbEntity
  8
SUNPOU
 62
     4
370
    -2
100
AcDbLine
 10
466.9856064229895
 20
214.6730176434108
 30
0.0
 11
466.9856064229895
 21
221.6730176434108
 31
0.0
  0
LINE
  5
2849
330
27B6
100
AcDbEntity
  8
SUNPOU
 62
     4
370
    -2
100
AcDbLine
 10
466.9856064229895
 20
190.6730176434108
 30
0.0
 11
466.9856064229895
 21
172.6730176434108
 31
0.0
  0
LINE
  5
284A
330
27B6
100
AcDbEntity
  8
SUNPOU
 62
     4
370
    -2
100
AcDbLine
 10
466.9856064229895
 20
207.6730176434109
 30
0.0
 11
466.9856064229895
 21
197.6730176434108
 31
0.0
  0
INSERT
  5
284B
330
27B6
100
AcDbEntity
  8
SUNPOU
 62
     4
370
    -2
100
AcDbBlockReference
  2
_OPEN
 10
466.9856064229895
 20
207.6730176434109
 30
0.0
 41
7.0
 42
7.0
 43
7.0
 50
270.0
  0
INSERT
  5
284C
330
27B6
100
AcDbEntity
  8
SUNPOU
 62
     4
370
    -2
100
AcDbBlockReference
  2
_OPEN
 10
466.9856064229895
 20
197.6730176434108
 30
0.0
 41
7.0
 42
7.0
 43
7.0
 50
90.0
  0
MTEXT
  5
284D
330
27B6
100
AcDbEntity
  8
SUNPOU
 62
     4
100
AcDbMText
 10
461.9856064229894
 20
178.1730176434109
 30
0.0
 40
6.0
 41
0.0
 71
     5
 72
     5
  1
\A1;10
 11
0.0000000000000001
 21
1.0
 31
0.0
 73
     1
 44
1.0
1001
ACAD
1000
MTEXTBEGIN
1070
    73
1070
     1
1070
    44
1040
1.0
1070
    74
1070
     0
1000
MTEXTEND
  0
POINT
  5
284E
330
27B6
100
AcDbEntity
  8
DEFPOINTS
 62
     0
100
AcDbPoint
 10
493.7193459844361
 20
207.6730176434109
 30
0.0
  0
POINT
  5
284F
330
27B6
100
AcDbEntity
  8
DEFPOINTS
 62
     0
100
AcDbPoint
 10
500.2193459844361
 20
197.6730176434108
 30
0.0
  0
POINT
  5
2850
330
27B6
100
AcDbEntity
  8
DEFPOINTS
 62
     0
100
AcDbPoint
 10
466.9856064229895
 20
197.6730176434108
 30
0.0
  0
ENDBLK
  5
27C3
330
27B6
100
AcDbEntity
  8
0
100
AcDbBlockEnd
  0
BLOCK
  5
27D0
330
27C4
100
AcDbEntity
  8
0
100
AcDbBlockBegin
  2
*D14
 70
     1
 10
0.0
 20
0.0
 30
0.0
  3
*D14
  1

  0
LINE
  5
2851
330
27C4
100
AcDbEntity
  8
SUNPOU
 62
     4
370
    -2
100
AcDbLine
 10
556.2193459844361
 20
247.6730176434108
 30
0.0
 11
595.6612556547095
 21
247.6730176434108
 31
0.0
  0
LINE
  5
2852
330
27C4
100
AcDbEntity
  8
SUNPOU
 62
     4
370
    -2
100
AcDbLine
 10
562.7193459844361
 20
232.3730176434108
 30
0.0
 11
595.6612556547095
 21
232.3730176434108
 31
0.0
  0
LINE
  5
2853
330
27C4
100
AcDbEntity
  8
SUNPOU
 62
     4
370
    -2
100
AcDbLine
 10
592.6612556547095
 20
254.6730176434108
 30
0.0
 11
592.6612556547096
 21
261.6730176434109
 31
0.0
  0
LINE
  5
2854
330
27C4
100
AcDbEntity
  8
SUNPOU
 62
     4
370
    -2
100
AcDbLine
 10
592.6612556547095
 20
225.3730176434108
 30
0.0
 11
592.6612556547095
 21
218.3730176434108
 31
0.0
  0
LINE
  5
2855
330
27C4
100
AcDbEntity
  8
SUNPOU
 62
     4
370
    -2
100
AcDbLine
 10
592.6612556547095
 20
247.6730176434108
 30
0.0
 11
592.6612556547095
 21
232.3730176434108
 31
0.0
  0
INSERT
  5
2856
330
27C4
100
AcDbEntity
  8
SUNPOU
 62
     4
370
    -2
100
AcDbBlockReference
  2
_OPEN
 10
592.6612556547095
 20
247.6730176434108
 30
0.0
 41
7.0
 42
7.0
 43
7.0
 50
270.0
  0
INSERT
  5
2857
330
27C4
100
AcDbEntity
  8
SUNPOU
 62
     4
370
    -2
100
AcDbBlockReference
  2
_OPEN
 10
592.6612556547095
 20
232.3730176434108
 30
0.0
 41
7.0
 42
7.0
 43
7.0
 50
90.0
  0
MTEXT
  5
2858
330
27C4
100
AcDbEntity
  8
SUNPOU
 62
     4
100
AcDbMText
 10
587.6612556547095
 20
240.0230176434109
 30
0.0
 40
6.0
 41
0.0
 71
     5
 72
     5
  1
\A1;15
 11
0.0000000000000001
 21
1.0
 31
0.0
 73
     1
 44
1.0
1001
ACAD
1000
MTEXTBEGIN
1070
    73
1070
     1
1070
    44
1040
1.0
1070
    74
1070
     0
1000
MTEXTEND
  0
POINT
  5
2859
330
27C4
100
AcDbEntity
  8
DEFPOINTS
 62
     0
100
AcDbPoint
 10
550.2193459844361
 20
247.6730176434108
 30
0.0
  0
POINT
  5
285A
330
27C4
100
AcDbEntity
  8
DEFPOINTS
 62
     0
100
AcDbPoint
 10
556.7193459844361
 20
232.3730176434108
 30
0.0
  0
POINT
  5
285B
330
27C4
100
AcDbEntity
  8
DEFPOINTS
 62
     0
100
AcDbPoint
 10
592.6612556547095
 20
232.3730176434108
 30
0.0
  0
ENDBLK
  5
27D1
330
27C4
100
AcDbEntity
  8
0
100
AcDbBlockEnd
  0
BLOCK
  5
2BF4
330
2A60
100
AcDbEntity
  8
0
100
AcDbBlockBegin
  2
*X15
 70
     1
 10
0.0
 20
0.0
 30
0.0
  3
*X15
  1

  0
LINE
  5
2A61
330
2A60
100
AcDbEntity
  8
0
 62
     0
100
AcDbLine
 10
69.04221172142513
 20
22.60416971058214
 30
0.0
 11
68.3963807917101
 21
23.25000064029717
 31
0.0
  0
LINE
  5
2A62
330
2A60
100
AcDbEntity
  8
0
 62
     0
100
AcDbLine
 10
69.04221172142507
 20
21.70614409847519
 30
0.0
 11
67.49835517960315
 21
23.25000064029717
 31
0.0
  0
LINE
  5
2A63
330
2A60
100
AcDbEntity
  8
0
 62
     0
100
AcDbLine
 10
69.04221172142507
 20
20.8081184863683
 30
0.0
 11
66.62107777541018
 21
23.22925243238319
 31
0.0
  0
LINE
  5
2A64
330
2A60
100
AcDbEntity
  8
0
 62
     0
100
AcDbLine
 10
69.04221172142507
 20
19.91009287426141
 30
0.0
 11
66.24221172142506
 21
22.71009287426148
 31
0.0
  0
LINE
  5
2A65
330
2A60
100
AcDbEntity
  8
0
 62
     0
100
AcDbLine
 10
69.04221172142507
 20
19.01206726215452
 30
0.0
 11
66.24221172142501
 21
21.81206726215453
 31
0.0
  0
LINE
  5
2A66
330
2A60
100
AcDbEntity
  8
0
 62
     0
100
AcDbLine
 10
69.04221172142507
 20
18.11404165004757
 30
0.0
 11
66.24221172142501
 21
20.91404165004764
 31
0.0
  0
LINE
  5
2A67
330
2A60
100
AcDbEntity
  8
0
 62
     0
100
AcDbLine
 10
64.14221172142521
 20
22.1160160379406
 30
0.0
 11
63.00822711906858
 21
23.25000064029723
 31
0.0
  0
LINE
  5
2A68
330
2A60
100
AcDbEntity
  8
0
 62
     0
100
AcDbLine
 10
69.04221172142507
 20
17.21601603794067
 30
0.0
 11
66.24221172142501
 21
20.01601603794075
 31
0.0
  0
LINE
  5
2A69
330
2A60
100
AcDbEntity
  8
0
 62
     0
100
AcDbLine
 10
64.14221172142515
 20
21.21799042583365
 30
0.0
 11
62.11020150696163
 21
23.25000064029723
 31
0.0
  0
LINE
  5
2A6A
330
2A60
100
AcDbEntity
  8
0
 62
     0
100
AcDbLine
 10
69.04221172142507
 20
16.31799042583378
 30
0.0
 11
66.24221172142501
 21
19.11799042583385
 31
0.0
  0
LINE
  5
2A6B
330
2A60
100
AcDbEntity
  8
0
 62
     0
100
AcDbLine
 10
64.14221172142515
 20
20.31996481372676
 30
0.0
 11
61.43670075628796
 21
23.02547577886389
 31
0.0
  0
LINE
  5
2A6C
330
2A60
100
AcDbEntity
  8
0
 62
     0
100
AcDbLine
 10
69.04221172142502
 20
15.41996481372683
 30
0.0
 11
66.24221172142501
 21
18.2199648137269
 31
0.0
  0
LINE
  5
2A6D
330
2A60
100
AcDbEntity
  8
0
 62
     0
100
AcDbLine
 10
64.14221172142515
 20
19.42193920161981
 30
0.0
 11
61.34221172142514
 21
22.22193920161988
 31
0.0
  0
LINE
  5
2A6E
330
2A60
100
AcDbEntity
  8
0
 62
     0
100
AcDbLine
 10
69.04221172142507
 20
14.52193920161994
 30
0.0
 11
66.24221172142501
 21
17.32193920161995
 31
0.0
  0
LINE
  5
2A6F
330
2A60
100
AcDbEntity
  8
0
 62
     0
100
AcDbLine
 10
64.14221172142515
 20
18.52391358951297
 30
0.0
 11
61.34221172142509
 21
21.32391358951299
 31
0.0
  0
LINE
  5
2A70
330
2A60
100
AcDbEntity
  8
0
 62
     0
100
AcDbLine
 10
69.04221172142507
 20
13.62391358951305
 30
0.0
 11
66.24221172142501
 21
16.42391358951312
 31
0.0
  0
LINE
  5
2A71
330
2A60
100
AcDbEntity
  8
0
 62
     0
100
AcDbLine
 10
64.14221172142515
 20
17.62588797740602
 30
0.0
 11
61.34221172142509
 21
20.42588797740609
 31
0.0
  0
LINE
  5
2A72
330
2A60
100
AcDbEntity
  8
0
 62
     0
100
AcDbLine
 10
69.04221172142502
 20
12.7258879774061
 30
0.0
 11
66.24221172142495
 21
15.52588797740617
 31
0.0
  0
LINE
  5
2A73
330
2A60
100
AcDbEntity
  8
0
 62
     0
100
AcDbLine
 10
64.1422117214251
 20
16.72786236529907
 30
0.0
 11
61.34221172142503
 21
19.52786236529914
 31
0.0
  0
LINE
  5
2A74
330
2A60
100
AcDbEntity
  8
0
 62
     0
100
AcDbLine
 10
69.04221172142507
 20
11.82786236529909
 30
0.0
 11
66.24221172142495
 21
14.62786236529928
 31
0.0
  0
LINE
  5
2A75
330
2A60
100
AcDbEntity
  8
0
 62
     0
100
AcDbLine
 10
64.14221172142515
 20
15.82983675319224
 30
0.0
 11
61.34221172142509
 21
18.62983675319231
 31
0.0
  0
LINE
  5
2A76
330
2A60
100
AcDbEntity
  8
0
 62
     0
100
AcDbLine
 10
57.84221172142514
 20
22.12983675319225
 30
0.0
 11
56.72204783432016
 21
23.25000064029717
 31
0.0
  0
LINE
  5
2A77
330
2A60
100
AcDbEntity
  8
0
 62
     0
100
AcDbLine
 10
69.04221172142513
 20
10.92983675319226
 30
0.0
 11
66.24221172142501
 21
13.72983675319239
 31
0.0
  0
LINE
  5
2A78
330
2A60
100
AcDbEntity
  8
0
 62
     0
100
AcDbLine
 10
64.1422117214251
 20
14.93181114108529
 30
0.0
 11
61.34221172142509
 21
17.73181114108536
 31
0.0
  0
LINE
  5
2A79
330
2A60
100
AcDbEntity
  8
0
 62
     0
100
AcDbLine
 10
57.84221172142514
 20
21.2318111410853
 30
0.0
 11
55.82402222221327
 21
23.25000064029717
 31
0.0
  0
LINE
  5
2A7A
330
2A60
100
AcDbEntity
  8
0
 62
     0
100
AcDbLine
 10
69.04221172142507
 20
10.03181114108531
 30
0.0
 11
66.24221172142506
 21
12.83181114108538
 31
0.0
  0
LINE
  5
2A7B
330
2A60
100
AcDbEntity
  8
0
 62
     0
100
AcDbLine
 10
64.14221172142515
 20
14.03378552897828
 30
0.0
 11
61.34221172142503
 21
16.83378552897841
 31
0.0
  0
LINE
  5
2A7C
330
2A60
100
AcDbEntity
  8
0
 62
     0
100
AcDbLine
 10
57.84221172142508
 20
20.33378552897841
 30
0.0
 11
55.14244899810091
 21
23.03354825230258
 31
0.0
  0
LINE
  5
2A7D
330
2A60
100
AcDbEntity
  8
0
 62
     0
100
AcDbLine
 10
69.04221172142507
 20
9.133785528978421
 30
0.0
 11
66.24221172142501
 21
11.93378552897843
 31
0.0
  0
LINE
  5
2A7E
330
2A60
100
AcDbEntity
  8
0
 62
     0
100
AcDbLine
 10
64.14221172142521
 20
13.13575991687139
 30
0.0
 11
61.34221172142509
 21
15.93575991687152
 31
0.0
  0
LINE
  5
2A7F
330
2A60
100
AcDbEntity
  8
0
 62
     0
100
AcDbLine
 10
57.84221172142514
 20
19.43575991687146
 30
0.0
 11
55.04221172142513
 21
22.23575991687142
 31
0.0
  0
LINE
  5
2A80
330
2A60
100
AcDbEntity
  8
0
 62
     0
100
AcDbLine
 10
69.04221172142513
 20
8.235759916871472
 30
0.0
 11
66.24221172142506
 21
11.03575991687154
 31
0.0
  0
LINE
  5
2A81
330
2A60
100
AcDbEntity
  8
0
 62
     0
100
AcDbLine
 10
64.14221172142521
 20
12.2377343047645
 30
0.0
 11
61.34221172142503
 21
15.03773430476462
 31
0.0
  0
LINE
  5
2A82
330
2A60
100
AcDbEntity
  8
0
 62
     0
100
AcDbLine
 10
57.84221172142508
 20
18.53773430476457
 30
0.0
 11
55.04221172142513
 21
21.33773430476458
 31
0.0
  0
LINE
  5
2A83
330
2A60
100
AcDbEntity
  8
0
 62
     0
100
AcDbLine
 10
68.97024636653515
 20
7.409699659654563
 30
0.0
 11
66.24221172142501
 21
10.13773430476465
 31
0.0
  0
LINE
  5
2A84
330
2A60
100
AcDbEntity
  8
0
 62
     0
100
AcDbLine
 10
64.14221172142515
 20
11.33970869265755
 30
0.0
 11
61.34221172142503
 21
14.13970869265773
 31
0.0
  0
LINE
  5
2A85
330
2A60
100
AcDbEntity
  8
0
 62
     0
100
AcDbLine
 10
57.84221172142508
 20
17.63970869265768
 30
0.0
 11
55.04221172142513
 21
20.43970869265763
 31
0.0
  0
LINE
  5
2A86
330
2A60
100
AcDbEntity
  8
0
 62
     0
100
AcDbLine
 10
68.33191977378556
 20
7.150000640297207
 30
0.0
 11
66.24221172142501
 21
9.239708692657757
 31
0.0
  0
LINE
  5
2A87
330
2A60
100
AcDbEntity
  8
0
 62
     0
100
AcDbLine
 10
57.84221172142508
 20
16.74168308055073
 30
0.0
 11
55.04221172142507
 21
19.54168308055074
 31
0.0
  0
LINE
  5
2A88
330
2A60
100
AcDbEntity
  8
0
 62
     0
100
AcDbLine
 10
64.14221172142515
 20
10.44168308055066
 30
0.0
 11
61.34221172142503
 21
13.24168308055078
 31
0.0
  0
LINE
  5
2A89
330
2A60
100
AcDbEntity
  8
0
 62
     0
100
AcDbLine
 10
52.41721172142502
 20
22.16668308055074
 30
0.0
 11
51.3338941616787
 21
23.25000064029712
 31
0.0
  0
LINE
  5
2A8A
330
2A60
100
AcDbEntity
  8
0
 62
     0
100
AcDbLine
 10
67.43389416167872
 20
7.150000640297093
 30
0.0
 11
66.24221172142501
 21
8.341683080550808
 31
0.0
  0
LINE
  5
2A8B
330
2A60
100
AcDbEntity
  8
0
 62
     0
100
AcDbLine
 10
57.84221172142508
 20
15.84365746844389
 30
0.0
 11
55.04221172142513
 21
18.64365746844385
 31
0.0
  0
LINE
  5
2A8C
330
2A60
100
AcDbEntity
  8
0
 62
     0
100
AcDbLine
 10
52.41721172142508
 20
21.26865746844391
 30
0.0
 11
50.4358685495718
 21
23.25000064029712
 31
0.0
  0
LINE
  5
2A8D
330
2A60
100
AcDbEntity
  8
0
 62
     0
100
AcDbLine
 10
64.11625342077957
 20
9.569615769089409
 30
0.0
 11
61.34221172142503
 21
12.34365746844389
 31
0.0
  0
LINE
  5
2A8E
330
2A60
100
AcDbEntity
  8
0
 62
     0
100
AcDbLine
 10
57.84221172142508
 20
14.94563185633694
 30
0.0
 11
55.04221172142507
 21
17.7456318563369
 31
0.0
  0
LINE
  5
2A8F
330
2A60
100
AcDbEntity
  8
0
 62
     0
100
AcDbLine
 10
52.22163117531119
 20
20.56621240245084
 30
0.0
 11
49.53784293746491
 21
23.25000064029712
 31
0.0
  0
LINE
  5
2A90
330
2A60
100
AcDbEntity
  8
0
 62
     0
100
AcDbLine
 10
63.92326812552233
 20
8.864575452239648
 30
0.0
 11
61.34221172142503
 21
11.445631856337
 31
0.0
  0
LINE
  5
2A91
330
2A60
100
AcDbEntity
  8
0
 62
     0
100
AcDbLine
 10
57.84221172142503
 20
14.04760624422999
 30
0.0
 11
55.04221172142507
 21
16.84760624423001
 31
0.0
  0
LINE
  5
2A92
330
2A60
100
AcDbEntity
  8
0
 62
     0
100
AcDbLine
 10
51.43981732535792
 20
20.45000064029711
 30
0.0
 11
48.63981732535797
 21
23.25000064029712
 31
0.0
  0
LINE
  5
2A93
330
2A60
100
AcDbEntity
  8
0
 62
     0
100
AcDbLine
 10
63.5982362495987
 20
8.291581716056384
 30
0.0
 11
61.27069598226552
 21
10.61912198338956
 31
0.0
  0
LINE
  5
2A94
330
2A60
100
AcDbEntity
  8
0
 62
     0
100
AcDbLine
 10
57.84221172142508
 20
13.14958063212316
 30
0.0
 11
55.04221172142513
 21
15.94958063212311
 31
0.0
  0
LINE
  5
2A95
330
2A60
100
AcDbEntity
  8
0
 62
     0
100
AcDbLine
 10
50.54179171325109
 20
20.45000064029716
 30
0.0
 11
47.8042249840737
 21
23.18756736947455
 31
0.0
  0
LINE
  5
2A96
330
2A60
100
AcDbEntity
  8
0
 62
     0
100
AcDbLine
 10
63.16619445227366
 20
7.825597901274591
 30
0.0
 11
60.86911034379784
 21
10.12268200975035
 31
0.0
  0
LINE
  5
2A97
330
2A60
100
AcDbEntity
  8
0
 62
     0
100
AcDbLine
 10
57.84221172142508
 20
12.25155502001621
 30
0.0
 11
55.04221172142507
 21
15.05155502001622
 31
0.0
  0
LINE
  5
2A98
330
2A60
100
AcDbEntity
  8
0
 62
     0
100
AcDbLine
 10
49.64376610114425
 20
20.45000064029705
 30
0.0
 11
47.13958455954042
 21
22.95418218190087
 31
0.0
  0
LINE
  5
2A99
330
2A60
100
AcDbEntity
  8
0
 62
     0
100
AcDbLine
 10
62.63003210734763
 20
7.463734634093668
 30
0.0
 11
60.14376610114425
 21
9.950000640297048
 31
0.0
  0
LINE
  5
2A9A
330
2A60
100
AcDbEntity
  8
0
 62
     0
100
AcDbLine
 10
57.84221172142503
 20
11.35352940790932
 30
0.0
 11
55.04221172142507
 21
14.15352940790927
 31
0.0
  0
LINE
  5
2A9B
330
2A60
100
AcDbEntity
  8
0
 62
     0
100
AcDbLine
 10
48.76753031705544
 20
20.42821081227891
 30
0.0
 11
46.59698362233024
 21
22.59875750700411
 31
0.0
  0
LINE
  5
2A9C
330
2A60
100
AcDbEntity
  8
0
 62
     0
100
AcDbLine
 10
61.97361954743621
 20
7.222121581898136
 30
0.0
 11
59.24574048903725
 21
9.950000640297105
 31
0.0
  0
LINE
  5
2A9D
330
2A60
100
AcDbEntity
  8
0
 62
     0
100
AcDbLine
 10
48.3922117214251
 20
19.9055037958023
 30
0.0
 11
46.15887156328568
 21
22.13884395394172
 31
0.0
  0
LINE
  5
2A9E
330
2A60
100
AcDbEntity
  8
0
 62
     0
100
AcDbLine
 10
61.14771487693037
 20
7.150000640297037
 30
0.0
 11
55.04221172142502
 21
13.25550379580233
 31
0.0
  0
LINE
  5
2A9F
330
2A60
100
AcDbEntity
  8
0
 62
     0
100
AcDbLine
 10
48.3922117214251
 20
19.00747818369541
 30
0.0
 11
45.82710065093272
 21
21.57258925418785
 31
0.0
  0
LINE
  5
2AA0
330
2A60
100
AcDbEntity
  8
0
 62
     0
100
AcDbLine
 10
60.24968926482348
 20
7.150000640297037
 30
0.0
 11
55.04221172142507
 21
12.35747818369549
 31
0.0
  0
LINE
  5
2AA1
330
2A60
100
AcDbEntity
  8
0
 62
     0
100
AcDbLine
 10
48.59875600252883
 20
17.90290829048479
 30
0.0
 11
45.6249221315686
 21
20.87674216144501
 31
0.0
  0
LINE
  5
2AA2
330
2A60
100
AcDbEntity
  8
0
 62
     0
100
AcDbLine
 10
59.35166365271647
 20
7.150000640297093
 30
0.0
 11
55.04221172142507
 21
11.45945257158854
 31
0.0
  0
LINE
  5
2AA3
330
2A60
100
AcDbEntity
  8
0
 62
     0
100
AcDbLine
 10
52.81581542411635
 20
12.78782325679032
 30
0.0
 11
45.59221172142502
 21
20.01142695948164
 31
0.0
  0
LINE
  5
2AA4
330
2A60
100
AcDbEntity
  8
0
 62
     0
100
AcDbLine
 10
43.49221172142501
 20
22.11142695948161
 30
0.0
 11
42.35363804060955
 21
23.25000064029712
 31
0.0
  0
LINE
  5
2AA5
330
2A60
100
AcDbEntity
  8
0
 62
     0
100
AcDbLine
 10
58.45363804060963
 20
7.150000640297037
 30
0.0
 11
55.04221172142502
 21
10.56142695948165
 31
0.0
  0
LINE
  5
2AA6
330
2A60
100
AcDbEntity
  8
0
 62
     0
100
AcDbLine
 10
52.94221172142517
 20
11.76340134737467
 30
0.0
 11
45.59221172142502
 21
19.11340134737475
 31
0.0
  0
LINE
  5
2AA7
330
2A60
100
AcDbEntity
  8
0
 62
     0
100
AcDbLine
 10
43.49221172142506
 20
21.21340134737477
 30
0.0
 11
41.45561242850272
 21
23.25000064029706
 31
0.0
  0
LINE
  5
2AA8
330
2A60
100
AcDbEntity
  8
0
 62
     0
100
AcDbLine
 10
57.53916454975791
 20
7.166448519041921
 30
0.0
 11
55.0586596001699
 21
9.646953468629874
 31
0.0
  0
LINE
  5
2AA9
330
2A60
100
AcDbEntity
  8
0
 62
     0
100
AcDbLine
 10
43.49221172142501
 20
20.31537573526782
 30
0.0
 11
40.7848218336498
 21
23.02276562304308
 31
0.0
  0
LINE
  5
2AAA
330
2A60
100
AcDbEntity
  8
0
 62
     0
100
AcDbLine
 10
52.94221172142511
 20
10.86537573526777
 30
0.0
 11
45.61562238930753
 21
18.1919650673853
 31
0.0
  0
LINE
  5
2AAB
330
2A60
100
AcDbEntity
  8
0
 62
     0
100
AcDbLine
 10
43.49221172142501
 20
19.41735012316093
 30
0.0
 11
40.69221172142505
 21
22.21735012316088
 31
0.0
  0
LINE
  5
2AAC
330
2A60
100
AcDbEntity
  8
0
 62
     0
100
AcDbLine
 10
52.94221172142511
 20
9.967350123160827
 30
0.0
 11
45.93374180714772
 21
16.97582003743821
 31
0.0
  0
LINE
  5
2AAD
330
2A60
100
AcDbEntity
  8
0
 62
     0
100
AcDbLine
 10
43.49221172142506
 20
18.51932451105398
 30
0.0
 11
40.69221172142505
 21
21.31932451105393
 31
0.0
  0
LINE
  5
2AAE
330
2A60
100
AcDbEntity
  8
0
 62
     0
100
AcDbLine
 10
52.83364990383603
 20
9.177886328643012
 30
0.0
 11
50.13801511479761
 21
11.87352111768143
 31
0.0
  0
LINE
  5
2AAF
330
2A60
100
AcDbEntity
  8
0
 62
     0
100
AcDbLine
 10
43.49221172142501
 20
17.62129889894714
 30
0.0
 11
40.69221172142505
 21
20.4212988989471
 31
0.0
  0
LINE
  5
2AB0
330
2A60
100
AcDbEntity
  8
0
 62
     0
100
AcDbLine
 10
38.40072482084804
 20
22.71278579952412
 30
0.0
 11
37.86350998007504
 21
23.25000064029712
 31
0.0
  0
LINE
  5
2AB1
330
2A60
100
AcDbEntity
  8
0
 62
     0
100
AcDbLine
 10
52.56577419607435
 20
8.547736424297795
 30
0.0
 11
50.14221172142516
 21
10.97129889894699
 31
0.0
  0
LINE
  5
2AB2
330
2A60
100
AcDbEntity
  8
0
 62
     0
100
AcDbLine
 10
43.49221172142501
 20
16.72327328684019
 30
0.0
 11
40.692211721425
 21
19.52327328684015
 31
0.0
  0
LINE
  5
2AB3
330
2A60
100
AcDbEntity
  8
0
 62
     0
100
AcDbLine
 10
38.20179715659549
 20
22.01368785166971
 30
0.0
 11
36.96548436796803
 21
23.25000064029717
 31
0.0
  0
LINE
  5
2AB4
330
2A60
100
AcDbEntity
  8
0
 62
     0
100
AcDbLine
 10
52.18278739789906
 20
8.032697610366085
 30
0.0
 11
50.04492653853856
 21
10.17055846972658
 31
0.0
  0
LINE
  5
2AB5
330
2A60
100
AcDbEntity
  8
0
 62
     0
100
AcDbLine
 10
43.49221172142494
 20
15.82524767473325
 30
0.0
 11
40.692211721425
 21
18.62524767473326
 31
0.0
  0
LINE
  5
2AB6
330
2A60
100
AcDbEntity
  8
0
 62
     0
100
AcDbLine
 10
37.98627100968992
 20
21.33118838646834
 30
0.0
 11
36.07705544621911
 21
23.24040394993909
 31
0.0
  0
LINE
  5
2AB7
330
2A60
100
AcDbEntity
  8
0
 62
     0
100
AcDbLine
 10
51.69646843278338
 20
7.620990963374822
 30
0.0
 11
49.36745875586104
 21
9.950000640297162
 31
0.0
  0
LINE
  5
2AB8
330
2A60
100
AcDbEntity
  8
0
 62
     0
100
AcDbLine
 10
43.49221172142501
 20
14.92722206262641
 30
0.0
 11
40.69221172142511
 21
17.72722206262631
 31
0.0
  0
LINE
  5
2AB9
330
2A60
100
AcDbEntity
  8
0
 62
     0
100
AcDbLine
 10
37.77074486278417
 20
20.64868892126719
 30
0.0
 11
35.64274486278413
 21
22.7766889212673
 31
0.0
  0
LINE
  5
2ABA
330
2A60
100
AcDbEntity
  8
0
 62
     0
100
AcDbLine
 10
51.100384484323
 20
7.319049299728362
 30
0.0
 11
48.4694331437542
 21
9.950000640297218
 31
0.0
  0
LINE
  5
2ABB
330
2A60
100
AcDbEntity
  8
0
 62
     0
100
AcDbLine
 10
43.49221172142501
 20
14.02919645051946
 30
0.0
 11
40.69221172142511
 21
16.82919645051936
 31
0.0
  0
LINE
  5
2ABC
330
2A60
100
AcDbEntity
  8
0
 62
     0
100
AcDbLine
 10
37.55521871587843
 20
19.96618945606605
 30
0.0
 11
35.42721871587839
 21
22.09418945606609
 31
0.0
  0
LINE
  5
2ABD
330
2A60
100
AcDbEntity
  8
0
 62
     0
100
AcDbLine
 10
50.36271183267553
 20
7.158696339268942
 30
0.0
 11
47.57140753164736
 21
9.950000640297105
 31
0.0
  0
LINE
  5
2ABE
330
2A60
100
AcDbEntity
  8
0
 62
     0
100
AcDbLine
 10
43.49221172142494
 20
13.13117083841257
 30
0.0
 11
40.69221172142505
 21
15.93117083841241
 31
0.0
  0
LINE
  5
2ABF
330
2A60
100
AcDbEntity
  8
0
 62
     0
100
AcDbLine
 10
37.33969256897279
 20
19.28368999086467
 30
0.0
 11
35.2116925689727
 21
21.41168999086483
 31
0.0
  0
LINE
  5
2AC0
330
2A60
100
AcDbEntity
  8
0
 62
     0
100
AcDbLine
 10
49.47338191954037
 20
7.150000640297093
 30
0.0
 11
46.67338191954036
 21
9.950000640297162
 31
0.0
  0
LINE
  5
2AC1
330
2A60
100
AcDbEntity
  8
0
 62
     0
100
AcDbLine
 10
43.49221172142501
 20
12.23314522630568
 30
0.0
 11
40.69221172142511
 21
15.03314522630558
 31
0.0
  0
LINE
  5
2AC2
330
2A60
100
AcDbEntity
  8
0
 62
     0
100
AcDbLine
 10
37.12416642206711
 20
18.60119052566358
 30
0.0
 11
34.99616642206706
 21
20.72919052566362
 31
0.0
  0
LINE
  5
2AC3
330
2A60
100
AcDbEntity
  8
0
 62
     0
100
AcDbLine
 10
48.57535630743353
 20
7.15000064029715
 30
0.0
 11
46.14174461013726
 21
9.583612337593422
 31
0.0
  0
LINE
  5
2AC4
330
2A60
100
AcDbEntity
  8
0
 62
     0
100
AcDbLine
 10
36.90864027516153
 20
17.91869106046221
 30
0.0
 11
34.78064027516143
 21
20.04669106046225
 31
0.0
  0
LINE
  5
2AC5
330
2A60
100
AcDbEntity
  8
0
 62
     0
100
AcDbLine
 10
43.49221172142494
 20
11.33511961419873
 30
0.0
 11
40.69221172142505
 21
14.13511961419863
 31
0.0
  0
LINE
  5
2AC6
330
2A60
100
AcDbEntity
  8
0
 62
     0
100
AcDbLine
 10
32.6422117214251
 20
22.18511961419864
 30
0.0
 11
31.57733069532657
 21
23.25000064029717
 31
0.0
  0
LINE
  5
2AC7
330
2A60
100
AcDbEntity
  8
0
 62
     0
100
AcDbLine
 10
47.67733069532659
 20
7.15000064029715
 30
0.0
 11
46.11721172142511
 21
8.710119614198617
 31
0.0
  0
LINE
  5
2AC8
330
2A60
100
AcDbEntity
  8
0
 62
     0
100
AcDbLine
 10
36.69311412825573
 20
17.236191595261
 30
0.0
 11
34.56511412825574
 21
19.36419159526099
 31
0.0
  0
LINE
  5
2AC9
330
2A60
100
AcDbEntity
  8
0
 62
     0
100
AcDbLine
 10
43.49221172142501
 20
10.43709400209172
 30
0.0
 11
40.69221172142505
 21
13.23709400209174
 31
0.0
  0
LINE
  5
2ACA
330
2A60
100
AcDbEntity
  8
0
 62
     0
100
AcDbLine
 10
32.6422117214251
 20
21.28709400209169
 30
0.0
 11
30.67930508321962
 21
23.25000064029712
 31
0.0
  0
LINE
  5
2ACB
330
2A60
100
AcDbEntity
  8
0
 62
     0
100
AcDbLine
 10
46.7793050832197
 20
7.150000640297093
 30
0.0
 11
46.11721172142506
 21
7.812094002091725
 31
0.0
  0
LINE
  5
2ACC
330
2A60
100
AcDbEntity
  8
0
 62
     0
100
AcDbLine
 10
36.47758798135015
 20
16.55369213005968
 30
0.0
 11
34.34958798135
 21
18.68169213005984
 31
0.0
  0
LINE
  5
2ACD
330
2A60
100
AcDbEntity
  8
0
 62
     0
100
AcDbLine
 10
32.64221172142516
 20
20.38906838998469
 30
0.0
 11
29.96676679252738
 21
23.06451331888246
 31
0.0
  0
LINE
  5
2ACE
330
2A60
100
AcDbEntity
  8
0
 62
     0
100
AcDbLine
 10
43.49221172142501
 20
9.539068389984834
 30
0.0
 11
40.69221172142505
 21
12.33906838998479
 31
0.0
  0
LINE
  5
2ACF
330
2A60
100
AcDbEntity
  8
0
 62
     0
100
AcDbLine
 10
36.26206183444447
 20
15.87119266485854
 30
0.0
 11
34.13406183444448
 21
17.99919266485852
 31
0.0
  0
LINE
  5
2AD0
330
2A60
100
AcDbEntity
  8
0
 62
     0
100
AcDbLine
 10
32.64221172142516
 20
19.49104277787779
 30
0.0
 11
29.84221172142503
 21
22.29104277787798
 31
0.0
  0
LINE
  5
2AD1
330
2A60
100
AcDbEntity
  8
0
 62
     0
100
AcDbLine
 10
43.49221172142506
 20
8.641042777877942
 30
0.0
 11
40.69221172142505
 21
11.44104277787795
 31
0.0
  0
LINE
  5
2AD2
330
2A60
100
AcDbEntity
  8
0
 62
     0
100
AcDbLine
 10
36.05697332505253
 20
15.17825556214353
 30
0.0
 11
33.91853568753879
 21
17.31669319965726
 31
0.0
  0
LINE
  5
2AD3
330
2A60
100
AcDbEntity
  8
0
 62
     0
100
AcDbLine
 10
32.64221172142516
 20
18.5930171657709
 30
0.0
 11
29.84221172142503
 21
21.39301716577103
 31
0.0
  0
LINE
  5
2AD4
330
2A60
100
AcDbEntity
  8
0
 62
     0
100
AcDbLine
 10
43.49221172142501
 20
7.74301716577105
 30
0.0
 11
40.69221172142511
 21
10.54301716577089
 31
0.0
  0
LINE
  5
2AD5
330
2A60
100
AcDbEntity
  8
0
 62
     0
100
AcDbLine
 10
36.47144668448664
 20
13.86575659060247
 30
0.0
 11
33.627988191854
 21
16.70921508323511
 31
0.0
  0
LINE
  5
2AD6
330
2A60
100
AcDbEntity
  8
0
 62
     0
100
AcDbLine
 10
32.6422117214251
 20
17.69499155366395
 30
0.0
 11
29.84221172142509
 21
20.49499155366402
 31
0.0
  0
LINE
  5
2AD7
330
2A60
100
AcDbEntity
  8
0
 62
     0
100
AcDbLine
 10
43.15316672409261
 20
7.184036550996495
 30
0.0
 11
40.69221172142511
 21
9.644991553663999
 31
0.0
  0
LINE
  5
2AD8
330
2A60
100
AcDbEntity
  8
0
 62
     0
100
AcDbLine
 10
36.88592004392058
 20
12.55325761906169
 30
0.0
 11
29.84221172142509
 21
19.59696594155713
 31
0.0
  0
LINE
  5
2AD9
330
2A60
100
AcDbEntity
  8
0
 62
     0
100
AcDbLine
 10
27.39221172142516
 20
22.04696594155712
 30
0.0
 11
26.1891770226851
 21
23.25000064029712
 31
0.0
  0
LINE
  5
2ADA
330
2A60
100
AcDbEntity
  8
0
 62
     0
100
AcDbLine
 10
42.28917702268518
 20
7.150000640297093
 30
0.0
 11
40.69221172142511
 21
8.746965941557107
 31
0.0
  0
LINE
  5
2ADB
330
2A60
100
AcDbEntity
  8
0
 62
     0
100
AcDbLine
 10
37.30039340335458
 20
11.24075864752075
 30
0.0
 11
29.84221172142509
 21
18.69894032945024
 31
0.0
  0
LINE
  5
2ADC
330
2A60
100
AcDbEntity
  8
0
 62
     0
100
AcDbLine
 10
27.39221172142516
 20
21.14894032945017
 30
0.0
 11
25.29115141057827
 21
23.25000064029706
 31
0.0
  0
LINE
  5
2ADD
330
2A60
100
AcDbEntity
  8
0
 62
     0
100
AcDbLine
 10
41.39115141057823
 20
7.150000640297093
 30
0.0
 11
40.69221172142511
 21
7.848940329450215
 31
0.0
  0
LINE
  5
2ADE
330
2A60
100
AcDbEntity
  8
0
 62
     0
100
AcDbLine
 10
27.12530502603488
 20
20.5178214127335
 30
0.0
 11
24.42508330782346
 21
23.21804313094486
 31
0.0
  0
LINE
  5
2ADF
330
2A60
100
AcDbEntity
  8
0
 62
     0
100
AcDbLine
 10
37.71486676278852
 20
9.928259675979859
 30
0.0
 11
29.84221172142503
 21
17.80091471734329
 31
0.0
  0
LINE
  5
2AE0
330
2A60
100
AcDbEntity
  8
0
 62
     0
100
AcDbLine
 10
32.97972064376654
 20
13.76538018289494
 30
0.0
 11
29.84221172142509
 21
16.9028891052364
 31
0.0
  0
LINE
  5
2AE1
330
2A60
100
AcDbEntity
  8
0
 62
     0
100
AcDbLine
 10
26.29510018636438
 20
20.45000064029711
 30
0.0
 11
23.68704023823619
 21
23.05806058842529
 31
0.0
  0
LINE
  5
2AE2
330
2A60
100
AcDbEntity
  8
0
 62
     0
100
AcDbLine
 10
38.12934012222257
 20
8.615760704438912
 30
0.0
 11
34.03703242991458
 21
12.70806839674691
 31
0.0
  0
LINE
  5
2AE3
330
2A60
100
AcDbEntity
  8
0
 62
     0
100
AcDbLine
 10
32.64221172142522
 20
13.20486349312938
 30
0.0
 11
29.84221172142509
 21
16.0048634931295
 31
0.0
  0
LINE
  5
2AE4
330
2A60
100
AcDbEntity
  8
0
 62
     0
100
AcDbLine
 10
25.39707457425743
 20
20.45000064029711
 30
0.0
 11
23.04831882240546
 21
22.79875639214907
 31
0.0
  0
LINE
  5
2AE5
330
2A60
100
AcDbEntity
  8
0
 62
     0
100
AcDbLine
 10
38.36437897993306
 20
7.482696234621528
 30
0.0
 11
34.45150578934852
 21
11.39556942520608
 31
0.0
  0
LINE
  5
2AE6
330
2A60
100
AcDbEntity
  8
0
 62
     0
100
AcDbLine
 10
32.6422117214251
 20
12.30683788102254
 30
0.0
 11
29.84221172142503
 21
15.10683788102261
 31
0.0
  0
LINE
  5
2AE7
330
2A60
100
AcDbEntity
  8
0
 62
     0
100
AcDbLine
 10
24.5539610717139
 20
20.39508853073375
 30
0.0
 11
22.48956984707092
 21
22.45947975537672
 31
0.0
  0
LINE
  5
2AE8
330
2A60
100
AcDbEntity
  8
0
 62
     0
100
AcDbLine
 10
37.79904896215049
 20
7.15000064029715
 30
0.0
 11
34.86597914878251
 21
10.08307045366513
 31
0.0
  0
LINE
  5
2AE9
330
2A60
100
AcDbEntity
  8
0
 62
     0
100
AcDbLine
 10
32.6422117214251
 20
11.4088122689156
 30
0.0
 11
29.84221172142503
 21
14.20881226891566
 31
0.0
  0
LINE
  5
2AEA
330
2A60
100
AcDbEntity
  8
0
 62
     0
100
AcDbLine
 10
23.98210487887491
 20
20.06891911146579
 30
0.0
 11
22.00191463845914
 21
22.04910935188156
 31
0.0
  0
LINE
  5
2AEB
330
2A60
100
AcDbEntity
  8
0
 62
     0
100
AcDbLine
 10
36.9010233500436
 20
7.150000640297093
 30
0.0
 11
35.2804525082164
 21
8.770571482124296
 31
0.0
  0
LINE
  5
2AEC
330
2A60
100
AcDbEntity
  8
0
 62
     0
100
AcDbLine
 10
27.72764085422273
 20
15.42535752401113
 30
0.0
 11
26.21756860513898
 21
16.93542977309482
 31
0.0
  0
LINE
  5
2AED
330
2A60
100
AcDbEntity
  8
0
 62
     0
100
AcDbLine
 10
32.6422117214251
 20
10.51078665680876
 30
0.0
 11
29.84221172142515
 21
13.31078665680871
 31
0.0
  0
LINE
  5
2AEE
330
2A60
100
AcDbEntity
  8
0
 62
     0
100
AcDbLine
 10
23.62598330874596
 20
19.5270150694879
 30
0.0
 11
21.58254861244791
 21
21.57044976578595
 31
0.0
  0
LINE
  5
2AEF
330
2A60
100
AcDbEntity
  8
0
 62
     0
100
AcDbLine
 10
35.95266473373192
 20
7.200333644501938
 30
0.0
 11
35.70231056214124
 21
7.450687816092624
 31
0.0
  0
LINE
  5
2AF0
330
2A60
100
AcDbEntity
  8
0
 62
     0
100
AcDbLine
 10
27.64112719408081
 20
14.6138455720461
 30
0.0
 11
25.40605665317395
 21
16.84891611295291
 31
0.0
  0
LINE
  5
2AF1
330
2A60
100
AcDbEntity
  8
0
 62
     0
100
AcDbLine
 10
23.54221172142513
 20
18.71276104470178
 30
0.0
 11
21.23360959148624
 21
21.02136317464067
 31
0.0
  0
LINE
  5
2AF2
330
2A60
100
AcDbEntity
  8
0
 62
     0
100
AcDbLine
 10
32.6422117214251
 20
9.612761044701812
 30
0.0
 11
29.84221172142509
 21
12.41276104470176
 31
0.0
  0
LINE
  5
2AF3
330
2A60
100
AcDbEntity
  8
0
 62
     0
100
AcDbLine
 10
27.30927163478282
 20
14.04767551923714
 30
0.0
 11
24.83988660036505
 21
16.51706055365491
 31
0.0
  0
LINE
  5
2AF4
330
2A60
100
AcDbEntity
  8
0
 62
     0
100
AcDbLine
 10
23.54221172142508
 20
17.81473543259489
 30
0.0
 11
20.96302988427607
 21
20.3939172697439
 31
0.0
  0
LINE
  5
2AF5
330
2A60
100
AcDbEntity
  8
0
 62
     0
100
AcDbLine
 10
32.64221172142504
 20
8.714735432594864
 30
0.0
 11
29.84221172142509
 21
11.51473543259487
 31
0.0
  0
LINE
  5
2AF6
330
2A60
100
AcDbEntity
  8
0
 62
     0
100
AcDbLine
 10
23.54221172142513
 20
16.91670982048799
 30
0.0
 11
20.78831601135022
 21
19.67060553056291
 31
0.0
  0
LINE
  5
2AF7
330
2A60
100
AcDbEntity
  8
0
 62
     0
100
AcDbLine
 10
26.80743819264632
 20
13.65148334926681
 30
0.0
 11
24.44369443039472
 21
16.01522711151841
 31
0.0
  0
LINE
  5
2AF8
330
2A60
100
AcDbEntity
  8
0
 62
     0
100
AcDbLine
 10
18.11721172142501
 20
22.34170982048806
 30
0.0
 11
17.20892090161595
 21
23.25000064029717
 31
0.0
  0
LINE
  5
2AF9
330
2A60
100
AcDbEntity
  8
0
 62
     0
100
AcDbLine
 10
32.6422117214251
 20
7.816709820488028
 30
0.0
 11
29.84221172142515
 21
10.61670982048798
 31
0.0
  0
LINE
  5
2AFA
330
2A60
100
AcDbEntity
  8
0
 62
     0
100
AcDbLine
 10
23.54221172142508
 20
16.01868420838104
 30
0.0
 11
20.74221172142495
 21
18.81868420838123
 31
0.0
  0
LINE
  5
2AFB
330
2A60
100
AcDbEntity
  8
0
 62
     0
100
AcDbLine
 10
26.10711875021889
 20
13.45377717958729
 30
0.0
 11
24.24598826071514
 21
15.31490766909098
 31
0.0
  0
LINE
  5
2AFC
330
2A60
100
AcDbEntity
  8
0
 62
     0
100
AcDbLine
 10
18.11721172142501
 20
21.44368420838117
 30
0.0
 11
16.310895289509
 21
23.25000064029712
 31
0.0
  0
LINE
  5
2AFD
330
2A60
100
AcDbEntity
  8
0
 62
     0
100
AcDbLine
 10
32.35430792015439
 20
7.206588009651795
 30
0.0
 11
29.84221172142509
 21
9.718684208381091
 31
0.0
  0
LINE
  5
2AFE
330
2A60
100
AcDbEntity
  8
0
 62
     0
100
AcDbLine
 10
23.54221172142508
 20
15.12065859627415
 30
0.0
 11
20.74221172142495
 21
17.92065859627428
 31
0.0
  0
LINE
  5
2AFF
330
2A60
100
AcDbEntity
  8
0
 62
     0
100
AcDbLine
 10
18.00817775115467
 20
20.65469256654456
 30
0.0
 11
15.41286967740211
 21
23.25000064029712
 31
0.0
  0
LINE
  5
2B00
330
2A60
100
AcDbEntity
  8
0
 62
     0
100
AcDbLine
 10
31.51286967740214
 20
7.150000640297093
 30
0.0
 11
29.84221172142509
 21
8.820658596274142
 31
0.0
  0
LINE
  5
2B01
330
2A60
100
AcDbEntity
  8
0
 62
     0
100
AcDbLine
 10
23.54221172142508
 20
14.2226329841672
 30
0.0
 11
20.7422117214249
 21
17.02263298416733
 31
0.0
  0
LINE
  5
2B02
330
2A60
100
AcDbEntity
  8
0
 62
     0
100
AcDbLine
 10
17.31484406529517
 20
20.45000064029711
 30
0.0
 11
14.51484406529516
 21
23.25000064029706
 31
0.0
  0
LINE
  5
2B03
330
2A60
100
AcDbEntity
  8
0
 62
     0
100
AcDbLine
 10
30.61484406529519
 20
7.150000640297037
 30
0.0
 11
29.84221172142503
 21
7.922632984167194
 31
0.0
  0
LINE
  5
2B04
330
2A60
100
AcDbEntity
  8
0
 62
     0
100
AcDbLine
 10
23.54221172142508
 20
13.32460737206037
 30
0.0
 11
20.74221172142495
 21
16.12460737206049
 31
0.0
  0
LINE
  5
2B05
330
2A60
100
AcDbEntity
  8
0
 62
     0
100
AcDbLine
 10
16.41681845318834
 20
20.45000064029705
 30
0.0
 11
13.6516891810835
 21
23.21512991240195
 31
0.0
  0
LINE
  5
2B06
330
2A60
100
AcDbEntity
  8
0
 62
     0
100
AcDbLine
 10
27.38960927258802
 20
9.477209820897371
 30
0.0
 11
26.91942090202531
 21
9.947398191460138
 31
0.0
  0
LINE
  5
2B07
330
2A60
100
AcDbEntity
  8
0
 62
     0
100
AcDbLine
 10
23.54221172142508
 20
12.42658175995342
 30
0.0
 11
20.74221172142501
 21
15.22658175995349
 31
0.0
  0
LINE
  5
2B08
330
2A60
100
AcDbEntity
  8
0
 62
     0
100
AcDbLine
 10
15.51879284108133
 20
20.45000064029711
 30
0.0
 11
12.95855437260502
 21
23.01023910877348
 31
0.0
  0
LINE
  5
2B09
330
2A60
100
AcDbEntity
  8
0
 62
     0
100
AcDbLine
 10
27.39221172142521
 20
8.576581759953285
 30
0.0
 11
26.01879284108139
 21
9.950000640297105
 31
0.0
  0
LINE
  5
2B0A
330
2A60
100
AcDbEntity
  8
0
 62
     0
100
AcDbLine
 10
23.54221172142502
 20
11.52855614784647
 30
0.0
 11
20.74221172142501
 21
14.32855614784654
 31
0.0
  0
LINE
  5
2B0B
330
2A60
100
AcDbEntity
  8
0
 62
     0
100
AcDbLine
 10
14.62076722897444
 20
20.45000064029711
 30
0.0
 11
12.39430771275783
 21
22.67646015651371
 31
0.0
  0
LINE
  5
2B0C
330
2A60
100
AcDbEntity
  8
0
 62
     0
100
AcDbLine
 10
27.39221172142516
 20
7.678556147846336
 30
0.0
 11
25.12076722897444
 21
9.950000640297105
 31
0.0
  0
LINE
  5
2B0D
330
2A60
100
AcDbEntity
  8
0
 62
     0
100
AcDbLine
 10
14.11047440135996
 20
20.06226785580469
 30
0.0
 11
11.93621490051703
 21
22.23652735664763
 31
0.0
  0
LINE
  5
2B0E
330
2A60
100
AcDbEntity
  8
0
 62
     0
100
AcDbLine
 10
27.00447893693263
 20
7.168263320232085
 30
0.0
 11
20.74221172142501
 21
13.4305305357397
 31
0.0
  0
LINE
  5
2B0F
330
2A60
100
AcDbEntity
  8
0
 62
     0
100
AcDbLine
 10
14.09221172142514
 20
19.18250492363262
 30
0.0
 11
11.582733698048
 21
21.69198294700976
 31
0.0
  0
LINE
  5
2B10
330
2A60
100
AcDbEntity
  8
0
 62
     0
100
AcDbLine
 10
26.12471600476073
 20
7.150000640297037
 30
0.0
 11
20.74221172142501
 21
12.53250492363276
 31
0.0
  0
LINE
  5
2B11
330
2A60
100
AcDbEntity
  8
0
 62
     0
100
AcDbLine
 10
14.15434742956074
 20
18.22234360339007
 30
0.0
 11
11.35185359575422
 21
21.02483743719659
 31
0.0
  0
LINE
  5
2B12
330
2A60
100
AcDbEntity
  8
0
 62
     0
100
AcDbLine
 10
25.22669039265372
 20
7.150000640297093
 30
0.0
 11
20.74221172142495
 21
11.63447931152581
 31
0.0
  0
LINE
  5
2B13
330
2A60
100
AcDbEntity
  8
0
 62
     0
100
AcDbLine
 10
18.44658781264769
 20
13.03207760819617
 30
0.0
 11
11.29221172142519
 21
20.18645369941873
 31
0.0
  0
LINE
  5
2B14
330
2A60
100
AcDbEntity
  8
0
 62
     0
100
AcDbLine
 10
24.27539269349018
 20
7.203272727353748
 30
0.0
 11
20.7954838084816
 21
10.68318161236232
 31
0.0
  0
LINE
  5
2B15
330
2A60
100
AcDbEntity
  8
0
 62
     0
100
AcDbLine
 10
18.63848232673291
 20
11.94215748200412
 30
0.0
 11
11.29221172142513
 21
19.2884280873119
 31
0.0
  0
LINE
  5
2B16
330
2A60
100
AcDbEntity
  8
0
 62
     0
100
AcDbLine
 10
22.90158478088859
 20
7.679055027848392
 30
0.0
 11
21.27126610897619
 21
9.30937369976084
 31
0.0
  0
LINE
  5
2B17
330
2A60
100
AcDbEntity
  8
0
 62
     0
100
AcDbLine
 10
18.6422117214251
 20
11.04040247520493
 30
0.0
 11
11.2997761688473
 21
18.38283802778272
 31
0.0
  0
LINE
  5
2B18
330
2A60
100
AcDbEntity
  8
0
 62
     0
100
AcDbLine
 10
18.64221172142515
 20
10.14237686309792
 30
0.0
 11
11.52306692717115
 21
17.26152165735192
 31
0.0
  0
LINE
  5
2B19
330
2A60
100
AcDbEntity
  8
0
 62
     0
100
AcDbLine
 10
18.56969172529301
 20
9.316871247123287
 30
0.0
 11
15.80630008167401
 21
12.08026289074229
 31
0.0
  0
LINE
  5
2B1A
330
2A60
100
AcDbEntity
  8
0
 62
     0
100
AcDbLine
 10
18.32775378626417
 20
8.660783574045183
 30
0.0
 11
15.84221172142514
 21
11.1463256388842
 31
0.0
  0
LINE
  5
2B1B
330
2A60
100
AcDbEntity
  8
0
 62
     0
100
AcDbLine
 10
17.96563453888239
 20
8.124877209320004
 30
0.0
 11
15.80631268912429
 21
10.28419905907805
 31
0.0
  0
LINE
  5
2B1C
330
2A60
100
AcDbEntity
  8
0
 62
     0
100
AcDbLine
 10
17.49940816661552
 20
7.693077969479986
 30
0.0
 11
15.2424854957984
 21
9.950000640297162
 31
0.0
  0
LINE
  5
2B1D
330
2A60
100
AcDbEntity
  8
0
 62
     0
100
AcDbLine
 10
16.92614371888271
 20
7.368316805105905
 30
0.0
 11
14.34445988369146
 21
9.950000640297105
 31
0.0
  0
LINE
  5
2B1E
330
2A60
100
AcDbEntity
  8
0
 62
     0
100
AcDbLine
 10
16.22073112979677
 20
7.175703782084895
 30
0.0
 11
13.44643427158456
 21
9.950000640297105
 31
0.0
  0
LINE
  5
2B1F
330
2A60
100
AcDbEntity
  8
0
 62
     0
100
AcDbLine
 10
15.34840865947768
 20
7.150000640297037
 30
0.0
 11
12.54840865947773
 21
9.950000640296991
 31
0.0
  0
LINE
  5
2B20
330
2A60
100
AcDbEntity
  8
0
 62
     0
100
AcDbLine
 10
14.45038304737079
 20
7.150000640297037
 30
0.0
 11
11.89705915255291
 21
9.703324535114973
 31
0.0
  0
LINE
  5
2B21
330
2A60
100
AcDbEntity
  8
0
 62
     0
100
AcDbLine
 10
13.55235743526378
 20
7.150000640297093
 30
0.0
 11
11.81721172142499
 21
8.885146354135883
 31
0.0
  0
LINE
  5
2B22
330
2A60
100
AcDbEntity
  8
0
 62
     0
100
AcDbLine
 10
12.65433182315689
 20
7.150000640297093
 30
0.0
 11
11.81721172142499
 21
7.987120742028992
 31
0.0
  0
LINE
  5
2B23
330
2A60
100
AcDbEntity
  8
0
 62
     0
100
AcDbLine
 10
68.63389900609189
 20
7.163132417414601
 30
0.0
 11
69.02907994430768
 21
7.558313355630389
 31
0.0
  0
LINE
  5
2B24
330
2A60
100
AcDbEntity
  8
0
 62
     0
100
AcDbLine
 10
67.72274161686744
 20
7.15000064029698
 30
0.0
 11
69.04221172142519
 21
8.469470744854731
 31
0.0
  0
LINE
  5
2B25
330
2A60
100
AcDbEntity
  8
0
 62
     0
100
AcDbLine
 10
66.8247160047606
 20
7.150000640297093
 30
0.0
 11
69.04221172142519
 21
9.36749635696168
 31
0.0
  0
LINE
  5
2B26
330
2A60
100
AcDbEntity
  8
0
 62
     0
100
AcDbLine
 10
66.2734092846768
 20
7.496719532320184
 30
0.0
 11
69.04221172142519
 21
10.26552196906857
 31
0.0
  0
LINE
  5
2B27
330
2A60
100
AcDbEntity
  8
0
 62
     0
100
AcDbLine
 10
66.24221172142506
 20
8.363547581175396
 30
0.0
 11
69.04221172142513
 21
11.16354758117546
 31
0.0
  0
LINE
  5
2B28
330
2A60
100
AcDbEntity
  8
0
 62
     0
100
AcDbLine
 10
66.24221172142512
 20
9.261573193282345
 30
0.0
 11
69.04221172142519
 21
12.06157319328235
 31
0.0
  0
LINE
  5
2B29
330
2A60
100
AcDbEntity
  8
0
 62
     0
100
AcDbLine
 10
66.24221172142512
 20
10.15959880538924
 30
0.0
 11
69.04221172142513
 21
12.9595988053893
 31
0.0
  0
LINE
  5
2B2A
330
2A60
100
AcDbEntity
  8
0
 62
     0
100
AcDbLine
 10
66.24221172142506
 20
11.05762441749618
 30
0.0
 11
69.04221172142513
 21
13.85762441749625
 31
0.0
  0
LINE
  5
2B2B
330
2A60
100
AcDbEntity
  8
0
 62
     0
100
AcDbLine
 10
62.66877658349
 20
7.484189279561121
 30
0.0
 11
63.80802308216124
 21
8.623435778232362
 31
0.0
  0
LINE
  5
2B2C
330
2A60
100
AcDbEntity
  8
0
 62
     0
100
AcDbLine
 10
66.24221172142512
 20
11.95565002960302
 30
0.0
 11
69.04221172142519
 21
14.75565002960309
 31
0.0
  0
LINE
  5
2B2D
330
2A60
100
AcDbEntity
  8
0
 62
     0
100
AcDbLine
 10
61.43820841696748
 20
7.15164672514544
 30
0.0
 11
64.14056563657698
 21
9.854003944754879
 31
0.0
  0
LINE
  5
2B2E
330
2A60
100
AcDbEntity
  8
0
 62
     0
100
AcDbLine
 10
66.24221172142506
 20
12.85367564170997
 30
0.0
 11
69.04221172142513
 21
15.65367564171004
 31
0.0
  0
LINE
  5
2B2F
330
2A60
100
AcDbEntity
  8
0
 62
     0
100
AcDbLine
 10
60.53853672001219
 20
7.150000640297037
 30
0.0
 11
64.14221172142527
 21
10.75367564171012
 31
0.0
  0
LINE
  5
2B30
330
2A60
100
AcDbEntity
  8
0
 62
     0
100
AcDbLine
 10
66.24221172142506
 20
13.75170125381692
 30
0.0
 11
69.04221172142513
 21
16.55170125381693
 31
0.0
  0
LINE
  5
2B31
330
2A60
100
AcDbEntity
  8
0
 62
     0
100
AcDbLine
 10
59.64051110790524
 20
7.150000640297093
 30
0.0
 11
64.14221172142521
 21
11.65170125381706
 31
0.0
  0
LINE
  5
2B32
330
2A60
100
AcDbEntity
  8
0
 62
     0
100
AcDbLine
 10
66.24221172142512
 20
14.64972686592375
 30
0.0
 11
69.04221172142513
 21
17.44972686592382
 31
0.0
  0
LINE
  5
2B33
330
2A60
100
AcDbEntity
  8
0
 62
     0
100
AcDbLine
 10
58.74248549579835
 20
7.150000640297037
 30
0.0
 11
64.14221172142527
 21
12.5497268659239
 31
0.0
  0
LINE
  5
2B34
330
2A60
100
AcDbEntity
  8
0
 62
     0
100
AcDbLine
 10
61.23762051934432
 20
10.54316127594995
 30
0.0
 11
64.14221172142521
 21
13.44775247803085
 31
0.0
  0
LINE
  5
2B35
330
2A60
100
AcDbEntity
  8
0
 62
     0
100
AcDbLine
 10
66.24221172142506
 20
15.5477524780307
 30
0.0
 11
69.04221172142513
 21
18.34775247803077
 31
0.0
  0
LINE
  5
2B36
330
2A60
100
AcDbEntity
  8
0
 62
     0
100
AcDbLine
 10
57.84445988369146
 20
7.150000640297037
 30
0.0
 11
60.7490510857723
 21
10.05459184237793
 31
0.0
  0
LINE
  5
2B37
330
2A60
100
AcDbEntity
  8
0
 62
     0
100
AcDbLine
 10
61.34221172142509
 20
11.54577809013761
 30
0.0
 11
64.14221172142521
 21
14.3457780901378
 31
0.0
  0
LINE
  5
2B38
330
2A60
100
AcDbEntity
  8
0
 62
     0
100
AcDbLine
 10
66.24221172142506
 20
16.44577809013759
 30
0.0
 11
69.04221172142513
 21
19.24577809013766
 31
0.0
  0
LINE
  5
2B39
330
2A60
100
AcDbEntity
  8
0
 62
     0
100
AcDbLine
 10
57.05838402296166
 20
7.26195039167419
 30
0.0
 11
59.74643427158452
 21
9.950000640297048
 31
0.0
  0
LINE
  5
2B3A
330
2A60
100
AcDbEntity
  8
0
 62
     0
100
AcDbLine
 10
61.34221172142503
 20
12.44380370224456
 30
0.0
 11
64.14221172142521
 21
15.24380370224469
 31
0.0
  0
LINE
  5
2B3B
330
2A60
100
AcDbEntity
  8
0
 62
     0
100
AcDbLine
 10
66.24221172142501
 20
17.34380370224454
 30
0.0
 11
69.04221172142507
 21
20.14380370224461
 31
0.0
  0
LINE
  5
2B3C
330
2A60
100
AcDbEntity
  8
0
 62
     0
100
AcDbLine
 10
56.43039715575151
 20
7.531989136571041
 30
0.0
 11
58.84928644512195
 21
9.950878425941482
 31
0.0
  0
LINE
  5
2B3D
330
2A60
100
AcDbEntity
  8
0
 62
     0
100
AcDbLine
 10
61.34221172142514
 20
13.34182931435151
 30
0.0
 11
64.14221172142521
 21
16.14182931435158
 31
0.0
  0
LINE
  5
2B3E
330
2A60
100
AcDbEntity
  8
0
 62
     0
100
AcDbLine
 10
66.24221172142506
 20
18.24182931435143
 30
0.0
 11
69.04221172142513
 21
21.04182931435145
 31
0.0
  0
LINE
  5
2B3F
330
2A60
100
AcDbEntity
  8
0
 62
     0
100
AcDbLine
 10
55.91713727438644
 20
7.916754867312761
 30
0.0
 11
58.20580785640925
 21
10.20542544933562
 31
0.0
  0
LINE
  5
2B40
330
2A60
100
AcDbEntity
  8
0
 62
     0
100
AcDbLine
 10
61.34221172142514
 20
14.23985492645846
 30
0.0
 11
64.14221172142521
 21
17.03985492645847
 31
0.0
  0
LINE
  5
2B41
330
2A60
100
AcDbEntity
  8
0
 62
     0
100
AcDbLine
 10
66.24221172142506
 20
19.13985492645833
 30
0.0
 11
69.04221172142519
 21
21.93985492645845
 31
0.0
  0
LINE
  5
2B42
330
2A60
100
AcDbEntity
  8
0
 62
     0
100
AcDbLine
 10
55.50717309916137
 20
8.404816304194696
 30
0.0
 11
57.86856957800001
 21
10.76621278303327
 31
0.0
  0
LINE
  5
2B43
330
2A60
100
AcDbEntity
  8
0
 62
     0
100
AcDbLine
 10
61.34221172142514
 20
15.13788053856535
 30
0.0
 11
64.14221172142515
 21
17.93788053856542
 31
0.0
  0
LINE
  5
2B44
330
2A60
100
AcDbEntity
  8
0
 62
     0
100
AcDbLine
 10
66.24221172142512
 20
20.03788053856533
 30
0.0
 11
69.03206256787456
 21
22.82773138501483
 31
0.0
  0
LINE
  5
2B45
330
2A60
100
AcDbEntity
  8
0
 62
     0
100
AcDbLine
 10
55.20724822072748
 20
9.002917037867689
 30
0.0
 11
57.84221172142508
 21
11.63788053856535
 31
0.0
  0
LINE
  5
2B46
330
2A60
100
AcDbEntity
  8
0
 62
     0
100
AcDbLine
 10
61.34221172142514
 20
16.03590615067225
 30
0.0
 11
64.14221172142521
 21
18.83590615067231
 31
0.0
  0
LINE
  5
2B47
330
2A60
100
AcDbEntity
  8
0
 62
     0
100
AcDbLine
 10
66.24221172142512
 20
20.93590615067222
 30
0.0
 11
68.5549482227949
 21
23.24864265204201
 31
0.0
  0
LINE
  5
2B48
330
2A60
100
AcDbEntity
  8
0
 62
     0
100
AcDbLine
 10
55.04983468577103
 20
9.743529115018134
 30
0.0
 11
57.8422117214252
 21
12.5359061506723
 31
0.0
  0
LINE
  5
2B49
330
2A60
100
AcDbEntity
  8
0
 62
     0
100
AcDbLine
 10
61.34221172142514
 20
16.93393176277914
 30
0.0
 11
64.14221172142521
 21
19.73393176277921
 31
0.0
  0
LINE
  5
2B4A
330
2A60
100
AcDbEntity
  8
0
 62
     0
100
AcDbLine
 10
66.24221172142512
 20
21.83393176277911
 30
0.0
 11
67.65828059894301
 21
23.25000064029706
 31
0.0
  0
LINE
  5
2B4B
330
2A60
100
AcDbEntity
  8
0
 62
     0
100
AcDbLine
 10
55.04221172142513
 20
10.63393176277918
 30
0.0
 11
57.8422117214252
 21
13.43393176277919
 31
0.0
  0
LINE
  5
2B4C
330
2A60
100
AcDbEntity
  8
0
 62
     0
100
AcDbLine
 10
61.34221172142509
 20
17.83195737488609
 30
0.0
 11
64.14221172142515
 21
20.63195737488616
 31
0.0
  0
LINE
  5
2B4D
330
2A60
100
AcDbEntity
  8
0
 62
     0
100
AcDbLine
 10
55.04221172142513
 20
11.53195737488607
 30
0.0
 11
57.84221172142514
 21
14.33195737488614
 31
0.0
  0
LINE
  5
2B4E
330
2A60
100
AcDbEntity
  8
0
 62
     0
100
AcDbLine
 10
66.24225843617256
 20
22.73200408963356
 30
0.0
 11
66.76020827208851
 21
23.24995392554945
 31
0.0
  0
LINE
  5
2B4F
330
2A60
100
AcDbEntity
  8
0
 62
     0
100
AcDbLine
 10
50.72065609071291
 20
7.210401744173907
 30
0.0
 11
52.88181061754841
 21
9.37155627100941
 31
0.0
  0
LINE
  5
2B50
330
2A60
100
AcDbEntity
  8
0
 62
     0
100
AcDbLine
 10
55.04221172142507
 20
12.42998298699302
 30
0.0
 11
57.84221172142514
 21
15.22998298699309
 31
0.0
  0
LINE
  5
2B51
330
2A60
100
AcDbEntity
  8
0
 62
     0
100
AcDbLine
 10
61.34221172142509
 20
18.72998298699303
 30
0.0
 11
64.14221172142515
 21
21.52998298699305
 31
0.0
  0
LINE
  5
2B52
330
2A60
100
AcDbEntity
  8
0
 62
     0
100
AcDbLine
 10
49.76222937472915
 20
7.150000640297093
 30
0.0
 11
52.94221172142511
 21
10.329982986993
 31
0.0
  0
LINE
  5
2B53
330
2A60
100
AcDbEntity
  8
0
 62
     0
100
AcDbLine
 10
55.04221172142513
 20
13.32800859909986
 30
0.0
 11
57.8422117214252
 21
16.12800859909993
 31
0.0
  0
LINE
  5
2B54
330
2A60
100
AcDbEntity
  8
0
 62
     0
100
AcDbLine
 10
61.34221172142514
 20
19.62800859909987
 30
0.0
 11
64.14221172142515
 21
22.42800859909994
 31
0.0
  0
LINE
  5
2B55
330
2A60
100
AcDbEntity
  8
0
 62
     0
100
AcDbLine
 10
48.86420376262226
 20
7.150000640297037
 30
0.0
 11
52.94221172142522
 21
11.22800859909995
 31
0.0
  0
LINE
  5
2B56
330
2A60
100
AcDbEntity
  8
0
 62
     0
100
AcDbLine
 10
55.04221172142507
 20
14.22603421120681
 30
0.0
 11
57.84221172142514
 21
17.02603421120687
 31
0.0
  0
LINE
  5
2B57
330
2A60
100
AcDbEntity
  8
0
 62
     0
100
AcDbLine
 10
61.34221172142509
 20
20.52603421120682
 30
0.0
 11
63.94847426659095
 21
23.13229675637268
 31
0.0
  0
LINE
  5
2B58
330
2A60
100
AcDbEntity
  8
0
 62
     0
100
AcDbLine
 10
47.96617815051525
 20
7.15000064029698
 30
0.0
 11
52.92789312101217
 21
12.11171561079385
 31
0.0
  0
LINE
  5
2B59
330
2A60
100
AcDbEntity
  8
0
 62
     0
100
AcDbLine
 10
55.04221172142513
 20
15.12405982331381
 30
0.0
 11
57.84221172142514
 21
17.92405982331377
 31
0.0
  0
LINE
  5
2B5A
330
2A60
100
AcDbEntity
  8
0
 62
     0
100
AcDbLine
 10
61.34221172142509
 20
21.42405982331371
 30
0.0
 11
63.16815253840843
 21
23.25000064029712
 31
0.0
  0
LINE
  5
2B5B
330
2A60
100
AcDbEntity
  8
0
 62
     0
100
AcDbLine
 10
47.06815253840841
 20
7.150000640297093
 30
0.0
 11
52.79298075038338
 21
12.87482885227206
 31
0.0
  0
LINE
  5
2B5C
330
2A60
100
AcDbEntity
  8
0
 62
     0
100
AcDbLine
 10
55.04221172142519
 20
16.0220854354207
 30
0.0
 11
57.84221172142526
 21
18.82208543542072
 31
0.0
  0
LINE
  5
2B5D
330
2A60
100
AcDbEntity
  8
0
 62
     0
100
AcDbLine
 10
50.14221172142521
 20
11.12208543542073
 30
0.0
 11
52.55239329346483
 21
13.53226700746035
 31
0.0
  0
LINE
  5
2B5E
330
2A60
100
AcDbEntity
  8
0
 62
     0
100
AcDbLine
 10
61.34221172142509
 20
22.32208543542061
 30
0.0
 11
62.2701269263016
 21
23.25000064029712
 31
0.0
  0
LINE
  5
2B5F
330
2A60
100
AcDbEntity
  8
0
 62
     0
100
AcDbLine
 10
46.29838227943276
 20
7.278255993428217
 30
0.0
 11
48.97012692630153
 21
9.950000640297048
 31
0.0
  0
LINE
  5
2B60
330
2A60
100
AcDbEntity
  8
0
 62
     0
100
AcDbLine
 10
50.12234114629774
 20
12.00024047240015
 30
0.0
 11
52.22889398860423
 21
14.10679331470663
 31
0.0
  0
LINE
  5
2B61
330
2A60
100
AcDbEntity
  8
0
 62
     0
100
AcDbLine
 10
55.04221172142519
 20
16.9201110475276
 30
0.0
 11
57.8422117214252
 21
19.72011104752766
 31
0.0
  0
LINE
  5
2B62
330
2A60
100
AcDbEntity
  8
0
 62
     0
100
AcDbLine
 10
46.11721172142506
 20
7.995111047527473
 30
0.0
 11
48.07210131419452
 21
9.950000640296991
 31
0.0
  0
LINE
  5
2B63
330
2A60
100
AcDbEntity
  8
0
 62
     0
100
AcDbLine
 10
49.84795630915886
 20
12.62388124736827
 30
0.0
 11
51.83302287067641
 21
14.60894780888583
 31
0.0
  0
LINE
  5
2B64
330
2A60
100
AcDbEntity
  8
0
 62
     0
100
AcDbLine
 10
55.04221172142513
 20
17.81813665963454
 30
0.0
 11
57.8422117214252
 21
20.61813665963462
 31
0.0
  0
LINE
  5
2B65
330
2A60
100
AcDbEntity
  8
0
 62
     0
100
AcDbLine
 10
46.11721172142501
 20
8.893136659634421
 30
0.0
 11
47.17407570208769
 21
9.950000640297105
 31
0.0
  0
LINE
  5
2B66
330
2A60
100
AcDbEntity
  8
0
 62
     0
100
AcDbLine
 10
55.04221172142519
 20
18.71616227174138
 30
0.0
 11
57.8422117214252
 21
21.51616227174145
 31
0.0
  0
LINE
  5
2B67
330
2A60
100
AcDbEntity
  8
0
 62
     0
100
AcDbLine
 10
49.40668141204184
 20
13.0806319623581
 30
0.0
 11
51.38658039936416
 21
15.06053094968041
 31
0.0
  0
LINE
  5
2B68
330
2A60
100
AcDbEntity
  8
0
 62
     0
100
AcDbLine
 10
48.95766860598837
 20
13.52964476841157
 30
0.0
 11
50.93756759331069
 21
15.50954375573389
 31
0.0
  0
LINE
  5
2B69
330
2A60
100
AcDbEntity
  8
0
 62
     0
100
AcDbLine
 10
55.04221172142513
 20
19.61418788384833
 30
0.0
 11
57.8422117214252
 21
22.4141878838484
 31
0.0
  0
LINE
  5
2B6A
330
2A60
100
AcDbEntity
  8
0
 62
     0
100
AcDbLine
 10
42.5780244778739
 20
7.150000640297093
 30
0.0
 11
43.49221172142512
 21
8.064187883848319
 31
0.0
  0
LINE
  5
2B6B
330
2A60
100
AcDbEntity
  8
0
 62
     0
100
AcDbLine
 10
48.50865579993501
 20
13.9786575744651
 30
0.0
 11
50.48855478725721
 21
15.95855656178736
 31
0.0
  0
LINE
  5
2B6C
330
2A60
100
AcDbEntity
  8
0
 62
     0
100
AcDbLine
 10
55.04221172142513
 20
20.51221349595528
 30
0.0
 11
57.65603081332625
 21
23.1260325878564
 31
0.0
  0
LINE
  5
2B6D
330
2A60
100
AcDbEntity
  8
0
 62
     0
100
AcDbLine
 10
41.67999886576689
 20
7.150000640297037
 30
0.0
 11
43.49221172142512
 21
8.962213495955268
 31
0.0
  0
LINE
  5
2B6E
330
2A60
100
AcDbEntity
  8
0
 62
     0
100
AcDbLine
 10
48.05964299388143
 20
14.42767038051852
 30
0.0
 11
50.03954198120374
 21
16.40756936784083
 31
0.0
  0
LINE
  5
2B6F
330
2A60
100
AcDbEntity
  8
0
 62
     0
100
AcDbLine
 10
55.04221172142513
 20
21.41023910806217
 30
0.0
 11
56.88197325366002
 21
23.25000064029712
 31
0.0
  0
LINE
  5
2B70
330
2A60
100
AcDbEntity
  8
0
 62
     0
100
AcDbLine
 10
40.89358439152204
 20
7.261611778159135
 30
0.0
 11
43.49221172142512
 21
9.86023910806216
 31
0.0
  0
LINE
  5
2B71
330
2A60
100
AcDbEntity
  8
0
 62
     0
100
AcDbLine
 10
47.61063018782801
 20
14.87668318657194
 30
0.0
 11
49.59052917515032
 21
16.85658217389425
 31
0.0
  0
LINE
  5
2B72
330
2A60
100
AcDbEntity
  8
0
 62
     0
100
AcDbLine
 10
55.04221172142513
 20
22.30826472016906
 30
0.0
 11
55.98394764155313
 21
23.25000064029706
 31
0.0
  0
LINE
  5
2B73
330
2A60
100
AcDbEntity
  8
0
 62
     0
100
AcDbLine
 10
40.69221172142516
 20
7.958264720169097
 30
0.0
 11
43.49221172142512
 21
10.75826472016905
 31
0.0
  0
LINE
  5
2B74
330
2A60
100
AcDbEntity
  8
0
 62
     0
100
AcDbLine
 10
47.16161738177453
 20
15.32569599262541
 30
0.0
 11
49.14151636909685
 21
17.30559497994773
 31
0.0
  0
LINE
  5
2B75
330
2A60
100
AcDbEntity
  8
0
 62
     0
100
AcDbLine
 10
40.69221172142511
 20
8.856290332275989
 30
0.0
 11
43.49221172142512
 21
11.65629033227594
 31
0.0
  0
LINE
  5
2B76
330
2A60
100
AcDbEntity
  8
0
 62
     0
100
AcDbLine
 10
46.71463348073325
 20
15.77673770369108
 30
0.0
 11
48.69860701411522
 21
17.76071123707305
 31
0.0
  0
LINE
  5
2B77
330
2A60
100
AcDbEntity
  8
0
 62
     0
100
AcDbLine
 10
40.69221172142511
 20
9.754315944382938
 30
0.0
 11
43.49221172142506
 21
12.55431594438289
 31
0.0
  0
LINE
  5
2B78
330
2A60
100
AcDbEntity
  8
0
 62
     0
100
AcDbLine
 10
51.38789641733922
 20
20.45000064029705
 30
0.0
 11
52.41721172142513
 21
21.47931594438296
 31
0.0
  0
LINE
  5
2B79
330
2A60
100
AcDbEntity
  8
0
 62
     0
100
AcDbLine
 10
38.19955549671409
 20
7.261659719671911
 30
0.0
 11
38.2892078581707
 21
7.351312081128526
 31
0.0
  0
LINE
  5
2B7A
330
2A60
100
AcDbEntity
  8
0
 62
     0
100
AcDbLine
 10
46.31663130191128
 20
16.27676113697595
 30
0.0
 11
48.41626557932994
 21
18.37639541439461
 31
0.0
  0
LINE
  5
2B7B
330
2A60
100
AcDbEntity
  8
0
 62
     0
100
AcDbLine
 10
40.69221172142516
 20
10.65234155648977
 30
0.0
 11
43.49221172142512
 21
13.45234155648978
 31
0.0
  0
LINE
  5
2B7C
330
2A60
100
AcDbEntity
  8
0
 62
     0
100
AcDbLine
 10
50.48987080523239
 20
20.45000064029699
 30
0.0
 11
52.41721172142518
 21
22.3773415564898
 31
0.0
  0
LINE
  5
2B7D
330
2A60
100
AcDbEntity
  8
0
 62
     0
100
AcDbLine
 10
37.18987080523238
 20
7.150000640297037
 30
0.0
 11
38.25564990153902
 21
8.215779736603622
 31
0.0
  0
LINE
  5
2B7E
330
2A60
100
AcDbEntity
  8
0
 62
     0
100
AcDbLine
 10
45.99079703751454
 20
16.84895248468615
 30
0.0
 11
48.39221172142515
 21
19.25036716859677
 31
0.0
  0
LINE
  5
2B7F
330
2A60
100
AcDbEntity
  8
0
 62
     0
100
AcDbLine
 10
40.69221172142511
 20
11.55036716859672
 30
0.0
 11
43.49221172142512
 21
14.35036716859668
 31
0.0
  0
LINE
  5
2B80
330
2A60
100
AcDbEntity
  8
0
 62
     0
100
AcDbLine
 10
49.59184519312543
 20
20.45000064029705
 30
0.0
 11
52.25054278962716
 21
23.10869823679877
 31
0.0
  0
LINE
  5
2B81
330
2A60
100
AcDbEntity
  8
0
 62
     0
100
AcDbLine
 10
36.29184519312537
 20
7.15000064029698
 30
0.0
 11
38.04012375463333
 21
8.898279201804882
 31
0.0
  0
LINE
  5
2B82
330
2A60
100
AcDbEntity
  8
0
 62
     0
100
AcDbLine
 10
40.69221172142511
 20
12.44839278070361
 30
0.0
 11
43.49221172142506
 21
15.24839278070362
 31
0.0
  0
LINE
  5
2B83
330
2A60
100
AcDbEntity
  8
0
 62
     0
100
AcDbLine
 10
45.74741497484455
 20
17.50359603412312
 30
0.0
 11
51.49381958101855
 21
23.25000064029712
 31
0.0
  0
LINE
  5
2B84
330
2A60
100
AcDbEntity
  8
0
 62
     0
100
AcDbLine
 10
35.69983088247056
 20
7.456011941749068
 30
0.0
 11
37.82459760772764
 21
9.580778667006143
 31
0.0
  0
LINE
  5
2B85
330
2A60
100
AcDbEntity
  8
0
 62
     0
100
AcDbLine
 10
40.69221172142505
 20
13.34641839281056
 30
0.0
 11
43.49221172142506
 21
16.14641839281051
 31
0.0
  0
LINE
  5
2B86
330
2A60
100
AcDbEntity
  8
0
 62
     0
100
AcDbLine
 10
45.60870811575887
 20
18.26291478714438
 30
0.0
 11
50.59579396891166
 21
23.25000064029712
 31
0.0
  0
LINE
  5
2B87
330
2A60
100
AcDbEntity
  8
0
 62
     0
100
AcDbLine
 10
35.48107146082191
 20
8.135278132207361
 30
0.0
 11
37.60907146082195
 21
10.26327813220746
 31
0.0
  0
LINE
  5
2B88
330
2A60
100
AcDbEntity
  8
0
 62
     0
100
AcDbLine
 10
40.69221172142516
 20
14.24444400491751
 30
0.0
 11
43.49221172142506
 21
17.04444400491741
 31
0.0
  0
LINE
  5
2B89
330
2A60
100
AcDbEntity
  8
0
 62
     0
100
AcDbLine
 10
45.59221172142509
 20
19.14444400491743
 30
0.0
 11
49.69776835680477
 21
23.25000064029712
 31
0.0
  0
LINE
  5
2B8A
330
2A60
100
AcDbEntity
  8
0
 62
     0
100
AcDbLine
 10
35.26554531391616
 20
8.817777597408507
 30
0.0
 11
37.39354531391638
 21
10.94577759740872
 31
0.0
  0
LINE
  5
2B8B
330
2A60
100
AcDbEntity
  8
0
 62
     0
100
AcDbLine
 10
40.69221172142516
 20
15.14246961702446
 30
0.0
 11
43.49221172142506
 21
17.94246961702436
 31
0.0
  0
LINE
  5
2B8C
330
2A60
100
AcDbEntity
  8
0
 62
     0
100
AcDbLine
 10
45.59221172142509
 20
20.04246961702432
 30
0.0
 11
48.79974274469788
 21
23.25000064029712
 31
0.0
  0
LINE
  5
2B8D
330
2A60
100
AcDbEntity
  8
0
 62
     0
100
AcDbLine
 10
35.05001916701059
 20
9.500277062609825
 30
0.0
 11
37.17801916701063
 21
11.62827706260992
 31
0.0
  0
LINE
  5
2B8E
330
2A60
100
AcDbEntity
  8
0
 62
     0
100
AcDbLine
 10
40.69221172142516
 20
16.04049522913135
 30
0.0
 11
43.49221172142506
 21
18.84049522913125
 31
0.0
  0
LINE
  5
2B8F
330
2A60
100
AcDbEntity
  8
0
 62
     0
100
AcDbLine
 10
34.8344930201049
 20
10.18277652781114
 30
0.0
 11
36.96249302010506
 21
12.31077652781124
 31
0.0
  0
LINE
  5
2B90
330
2A60
100
AcDbEntity
  8
0
 62
     0
100
AcDbLine
 10
45.64552839154652
 20
20.99381189925271
 30
0.0
 11
47.8484004624695
 21
23.19668397017569
 31
0.0
  0
LINE
  5
2B91
330
2A60
100
AcDbEntity
  8
0
 62
     0
100
AcDbLine
 10
31.8017171325908
 20
7.150000640297037
 30
0.0
 11
32.64221172142516
 21
7.990495229131397
 31
0.0
  0
LINE
  5
2B92
330
2A60
100
AcDbEntity
  8
0
 62
     0
100
AcDbLine
 10
34.61896687319927
 20
10.86527599301234
 30
0.0
 11
36.74696687319932
 21
12.99327599301239
 31
0.0
  0
LINE
  5
2B93
330
2A60
100
AcDbEntity
  8
0
 62
     0
100
AcDbLine
 10
40.69221172142516
 20
16.93852084123824
 30
0.0
 11
43.49221172142506
 21
19.73852084123814
 31
0.0
  0
LINE
  5
2B94
330
2A60
100
AcDbEntity
  8
0
 62
     0
100
AcDbLine
 10
30.90369152048396
 20
7.15000064029698
 30
0.0
 11
32.64221172142522
 21
8.888520841238232
 31
0.0
  0
LINE
  5
2B95
330
2A60
100
AcDbEntity
  8
0
 62
     0
100
AcDbLine
 10
34.40344072629353
 20
11.54777545821349
 30
0.0
 11
36.53144072629374
 21
13.67577545821371
 31
0.0
  0
LINE
  5
2B96
330
2A60
100
AcDbEntity
  8
0
 62
     0
100
AcDbLine
 10
40.69221172142516
 20
17.83654645334513
 30
0.0
 11
43.49221172142506
 21
20.63654645334503
 31
0.0
  0
LINE
  5
2B97
330
2A60
100
AcDbEntity
  8
0
 62
     0
100
AcDbLine
 10
30.08681565602842
 20
7.231150387948389
 30
0.0
 11
32.64221172142516
 21
9.786546453345181
 31
0.0
  0
LINE
  5
2B98
330
2A60
100
AcDbEntity
  8
0
 62
     0
100
AcDbLine
 10
34.1879145793879
 20
12.23027492341486
 30
0.0
 11
36.31591457938794
 21
14.35827492341491
 31
0.0
  0
LINE
  5
2B99
330
2A60
100
AcDbEntity
  8
0
 62
     0
100
AcDbLine
 10
40.69221172142511
 20
18.73457206545208
 30
0.0
 11
43.49221172142501
 21
21.53457206545198
 31
0.0
  0
LINE
  5
2B9A
330
2A60
100
AcDbEntity
  8
0
 62
     0
100
AcDbLine
 10
29.84221172142509
 20
7.884572065452061
 30
0.0
 11
32.64221172142516
 21
10.68457206545213
 31
0.0
  0
LINE
  5
2B9B
330
2A60
100
AcDbEntity
  8
0
 62
     0
100
AcDbLine
 10
33.97238843248227
 20
12.91277438861607
 30
0.0
 11
36.10038843248242
 21
15.04077438861623
 31
0.0
  0
LINE
  5
2B9C
330
2A60
100
AcDbEntity
  8
0
 62
     0
100
AcDbLine
 10
40.69221172142516
 20
19.63259767755898
 30
0.0
 11
43.49221172142506
 21
22.43259767755887
 31
0.0
  0
LINE
  5
2B9D
330
2A60
100
AcDbEntity
  8
0
 62
     0
100
AcDbLine
 10
29.84221172142515
 20
8.782597677558896
 30
0.0
 11
32.64221172142527
 21
11.58259767755908
 31
0.0
  0
LINE
  5
2B9E
330
2A60
100
AcDbEntity
  8
0
 62
     0
100
AcDbLine
 10
33.73758964551041
 20
13.57600121375117
 30
0.0
 11
36.36788371344153
 21
16.20629528168229
 31
0.0
  0
LINE
  5
2B9F
330
2A60
100
AcDbEntity
  8
0
 62
     0
100
AcDbLine
 10
40.69221172142522
 20
20.53062328966598
 30
0.0
 11
43.29593629892662
 21
23.13434786716732
 31
0.0
  0
LINE
  5
2BA0
330
2A60
100
AcDbEntity
  8
0
 62
     0
100
AcDbLine
 10
29.84221172142509
 20
9.680623289665845
 30
0.0
 11
32.64221172142527
 21
12.48062328966597
 31
0.0
  0
LINE
  5
2BA1
330
2A60
100
AcDbEntity
  8
0
 62
     0
100
AcDbLine
 10
33.05040427564296
 20
13.78684145599067
 30
0.0
 11
36.78235707287553
 21
17.51879425322323
 31
0.0
  0
LINE
  5
2BA2
330
2A60
100
AcDbEntity
  8
0
 62
     0
100
AcDbLine
 10
29.84221172142509
 20
10.57864890177279
 30
0.0
 11
32.65537090573156
 21
13.39180808607926
 31
0.0
  0
LINE
  5
2BA3
330
2A60
100
AcDbEntity
  8
0
 62
     0
100
AcDbLine
 10
40.69221172142522
 20
21.42864890177287
 30
0.0
 11
42.51356345994941
 21
23.25000064029712
 31
0.0
  0
LINE
  5
2BA4
330
2A60
100
AcDbEntity
  8
0
 62
     0
100
AcDbLine
 10
26.41356345994939
 20
7.150000640297037
 30
0.0
 11
27.39221172142521
 21
8.128648901772919
 31
0.0
  0
LINE
  5
2BA5
330
2A60
100
AcDbEntity
  8
0
 62
     0
100
AcDbLine
 10
29.84221172142509
 20
11.47667451387968
 30
0.0
 11
37.19683043230953
 21
18.83129322476418
 31
0.0
  0
LINE
  5
2BA6
330
2A60
100
AcDbEntity
  8
0
 62
     0
100
AcDbLine
 10
40.69221172142516
 20
22.32667451387982
 30
0.0
 11
41.61553784784246
 21
23.25000064029712
 31
0.0
  0
LINE
  5
2BA7
330
2A60
100
AcDbEntity
  8
0
 62
     0
100
AcDbLine
 10
25.51553784784244
 20
7.150000640297093
 30
0.0
 11
27.39221172142521
 21
9.026674513879811
 31
0.0
  0
LINE
  5
2BA8
330
2A60
100
AcDbEntity
  8
0
 62
     0
100
AcDbLine
 10
29.8422117214252
 20
12.37470012598663
 30
0.0
 11
37.61130379174358
 21
20.14379219630507
 31
0.0
  0
LINE
  5
2BA9
330
2A60
100
AcDbEntity
  8
0
 62
     0
100
AcDbLine
 10
24.62919286008566
 20
7.161681264647143
 30
0.0
 11
27.25087743781887
 21
9.783365842380305
 31
0.0
  0
LINE
  5
2BAA
330
2A60
100
AcDbEntity
  8
0
 62
     0
100
AcDbLine
 10
29.84221172142515
 20
13.27272573809358
 30
0.0
 11
33.16948662362865
 21
16.60000064029708
 31
0.0
  0
LINE
  5
2BAB
330
2A60
100
AcDbEntity
  8
0
 62
     0
100
AcDbLine
 10
33.93346945886952
 20
17.36398347553796
 30
0.0
 11
38.02577715117752
 21
21.45629116784596
 31
0.0
  0
LINE
  5
2BAC
330
2A60
100
AcDbEntity
  8
0
 62
     0
100
AcDbLine
 10
23.86103234263868
 20
7.291546359307062
 30
0.0
 11
26.51948662362861
 21
9.950000640297048
 31
0.0
  0
LINE
  5
2BAD
330
2A60
100
AcDbEntity
  8
0
 62
     0
100
AcDbLine
 10
29.84221172142515
 20
14.17075135020047
 30
0.0
 11
32.66020229213342
 21
16.98874192090881
 31
0.0
  0
LINE
  5
2BAE
330
2A60
100
AcDbEntity
  8
0
 62
     0
100
AcDbLine
 10
34.34794281830352
 20
18.67648244707891
 30
0.0
 11
38.40084860297884
 21
22.72938823175423
 31
0.0
  0
LINE
  5
2BAF
330
2A60
100
AcDbEntity
  8
0
 62
     0
100
AcDbLine
 10
23.19989808581226
 20
7.528437714587653
 30
0.0
 11
25.62146101152172
 21
9.950000640297048
 31
0.0
  0
LINE
  5
2BB0
330
2A60
100
AcDbEntity
  8
0
 62
     0
100
AcDbLine
 10
29.84221172142515
 20
15.06877696230737
 30
0.0
 11
32.64221172142522
 21
17.86877696230743
 31
0.0
  0
LINE
  5
2BB1
330
2A60
100
AcDbEntity
  8
0
 62
     0
100
AcDbLine
 10
34.76241617773752
 20
19.98898141861969
 30
0.0
 11
38.00683673040948
 21
23.2334019712917
 31
0.0
  0
LINE
  5
2BB2
330
2A60
100
AcDbEntity
  8
0
 62
     0
100
AcDbLine
 10
22.62229480164797
 20
7.848860042530134
 30
0.0
 11
24.73835666014082
 21
9.964921901023046
 31
0.0
  0
LINE
  5
2BB3
330
2A60
100
AcDbEntity
  8
0
 62
     0
100
AcDbLine
 10
29.84221172142515
 20
15.96680257441432
 30
0.0
 11
32.64221172142522
 21
18.76680257441433
 31
0.0
  0
LINE
  5
2BB4
330
2A60
100
AcDbEntity
  8
0
 62
     0
100
AcDbLine
 10
35.17688953717152
 20
21.30148039016063
 30
0.0
 11
37.12540978730789
 21
23.25000064029706
 31
0.0
  0
LINE
  5
2BB5
330
2A60
100
AcDbEntity
  8
0
 62
     0
100
AcDbLine
 10
22.11733983526591
 20
8.241930688255024
 30
0.0
 11
24.10404051912252
 21
10.22863137211163
 31
0.0
  0
LINE
  5
2BB6
330
2A60
100
AcDbEntity
  8
0
 62
     0
100
AcDbLine
 10
29.84221172142515
 20
16.86482818652121
 30
0.0
 11
32.64221172142516
 21
19.66482818652128
 31
0.0
  0
LINE
  5
2BB7
330
2A60
100
AcDbEntity
  8
0
 62
     0
100
AcDbLine
 10
26.50384585320131
 20
13.52646231829743
 30
0.0
 11
27.66575004342474
 21
14.68836650852086
 31
0.0
  0
LINE
  5
2BB8
330
2A60
100
AcDbEntity
  8
0
 62
     0
100
AcDbLine
 10
35.5913628966054
 20
22.61397936170153
 30
0.0
 11
36.22738417520094
 21
23.25000064029706
 31
0.0
  0
LINE
  5
2BB9
330
2A60
100
AcDbEntity
  8
0
 62
     0
100
AcDbLine
 10
21.68090276193607
 20
8.703519227032188
 30
0.0
 11
23.69378956785033
 21
10.71640603294645
 31
0.0
  0
LINE
  5
2BBA
330
2A60
100
AcDbEntity
  8
0
 62
     0
100
AcDbLine
 10
25.57887301157161
 20
13.49951508877467
 30
0.0
 11
27.6926972729475
 21
15.61333935015056
 31
0.0
  0
LINE
  5
2BBB
330
2A60
100
AcDbEntity
  8
0
 62
     0
100
AcDbLine
 10
29.84221172142509
 20
17.76285379862815
 30
0.0
 11
32.64221172142516
 21
20.56285379862822
 31
0.0
  0
LINE
  5
2BBC
330
2A60
100
AcDbEntity
  8
0
 62
     0
100
AcDbLine
 10
21.31388353699311
 20
9.234525614196115
 30
0.0
 11
23.54221172142508
 21
11.46285379862814
 31
0.0
  0
LINE
  5
2BBD
330
2A60
100
AcDbEntity
  8
0
 62
     0
100
AcDbLine
 10
24.96472644215146
 20
13.78339413146131
 30
0.0
 11
27.40881823026081
 21
16.22748591957071
 31
0.0
  0
LINE
  5
2BBE
330
2A60
100
AcDbEntity
  8
0
 62
     0
100
AcDbLine
 10
29.84221172142515
 20
18.66087941073499
 30
0.0
 11
32.64221172142522
 21
21.46087941073506
 31
0.0
  0
LINE
  5
2BBF
330
2A60
100
AcDbEntity
  8
0
 62
     0
100
AcDbLine
 10
21.02256602706837
 20
9.841233716378269
 30
0.0
 11
23.54221172142513
 21
12.36087941073504
 31
0.0
  0
LINE
  5
2BC0
330
2A60
100
AcDbEntity
  8
0
 62
     0
100
AcDbLine
 10
24.52676651516174
 20
14.24345981657859
 30
0.0
 11
26.94875254514358
 21
16.66544584656037
 31
0.0
  0
LINE
  5
2BC1
330
2A60
100
AcDbEntity
  8
0
 62
     0
100
AcDbLine
 10
29.84221172142509
 20
19.55890502284194
 30
0.0
 11
32.64221172142527
 21
22.35890502284207
 31
0.0
  0
LINE
  5
2BC2
330
2A60
100
AcDbEntity
  8
0
 62
     0
100
AcDbLine
 10
20.82142866289371
 20
10.53812196431056
 30
0.0
 11
23.54221172142508
 21
13.25890502284193
 31
0.0
  0
LINE
  5
2BC3
330
2A60
100
AcDbEntity
  8
0
 62
     0
100
AcDbLine
 10
24.27071578275343
 20
14.88543469627723
 30
0.0
 11
26.30677766544494
 21
16.92149657896874
 31
0.0
  0
LINE
  5
2BC4
330
2A60
100
AcDbEntity
  8
0
 62
     0
100
AcDbLine
 10
20.74221172142501
 20
11.35693063494881
 30
0.0
 11
23.54221172142508
 21
14.15693063494888
 31
0.0
  0
LINE
  5
2BC5
330
2A60
100
AcDbEntity
  8
0
 62
     0
100
AcDbLine
 10
29.84221172142509
 20
20.45693063494889
 30
0.0
 11
32.48496161306992
 21
23.09968052659371
 31
0.0
  0
LINE
  5
2BC6
330
2A60
100
AcDbEntity
  8
0
 62
     0
100
AcDbLine
 10
16.65621496354936
 20
7.270933877073161
 30
0.0
 11
18.52127848464909
 21
9.135997398172889
 31
0.0
  0
LINE
  5
2BC7
330
2A60
100
AcDbEntity
  8
0
 62
     0
100
AcDbLine
 10
24.38912886623427
 20
15.90187339186485
 30
0.0
 11
25.29033896985726
 21
16.8030834954879
 31
0.0
  0
LINE
  5
2BC8
330
2A60
100
AcDbEntity
  8
0
 62
     0
100
AcDbLine
 10
20.74221172142512
 20
12.25495624705576
 30
0.0
 11
23.54221172142513
 21
15.05495624705571
 31
0.0
  0
LINE
  5
2BC9
330
2A60
100
AcDbEntity
  8
0
 62
     0
100
AcDbLine
 10
29.84221172142515
 20
21.35495624705573
 30
0.0
 11
31.73725611466642
 21
23.25000064029706
 31
0.0
  0
LINE
  5
2BCA
330
2A60
100
AcDbEntity
  8
0
 62
     0
100
AcDbLine
 10
15.6372561146664
 20
7.150000640297037
 30
0.0
 11
18.64221172142521
 21
10.15495624705585
 31
0.0
  0
LINE
  5
2BCB
330
2A60
100
AcDbEntity
  8
0
 62
     0
100
AcDbLine
 10
20.74221172142512
 20
13.15298185916271
 30
0.0
 11
23.54221172142519
 21
15.95298185916272
 31
0.0
  0
LINE
  5
2BCC
330
2A60
100
AcDbEntity
  8
0
 62
     0
100
AcDbLine
 10
29.8422117214252
 20
22.25298185916273
 30
0.0
 11
30.83923050255953
 21
23.25000064029712
 31
0.0
  0
LINE
  5
2BCD
330
2A60
100
AcDbEntity
  8
0
 62
     0
100
AcDbLine
 10
14.73923050255939
 20
7.15000064029698
 30
0.0
 11
18.64221172142527
 21
11.05298185916285
 31
0.0
  0
LINE
  5
2BCE
330
2A60
100
AcDbEntity
  8
0
 62
     0
100
AcDbLine
 10
20.74221172142512
 20
14.0510074712696
 30
0.0
 11
23.54221172142513
 21
16.85100747126966
 31
0.0
  0
LINE
  5
2BCF
330
2A60
100
AcDbEntity
  8
0
 62
     0
100
AcDbLine
 10
13.84120489045256
 20
7.150000640297093
 30
0.0
 11
18.63827236886396
 21
11.9470681187085
 31
0.0
  0
LINE
  5
2BD0
330
2A60
100
AcDbEntity
  8
0
 62
     0
100
AcDbLine
 10
20.74221172142512
 20
14.94903308337655
 30
0.0
 11
23.54221172142519
 21
17.74903308337662
 31
0.0
  0
LINE
  5
2BD1
330
2A60
100
AcDbEntity
  8
0
 62
     0
100
AcDbLine
 10
26.24317927834574
 20
20.45000064029716
 30
0.0
 11
27.39221172142521
 21
21.59903308337664
 31
0.0
  0
LINE
  5
2BD2
330
2A60
100
AcDbEntity
  8
0
 62
     0
100
AcDbLine
 10
12.94317927834561
 20
7.150000640297037
 30
0.0
 11
18.52861053254253
 21
12.73543189449396
 31
0.0
  0
LINE
  5
2BD3
330
2A60
100
AcDbEntity
  8
0
 62
     0
100
AcDbLine
 10
20.74221172142512
 20
15.84705869548338
 30
0.0
 11
23.54221172142513
 21
18.64705869548345
 31
0.0
  0
LINE
  5
2BD4
330
2A60
100
AcDbEntity
  8
0
 62
     0
100
AcDbLine
 10
15.84221172142514
 20
10.9470586954834
 30
0.0
 11
18.30627178849852
 21
13.41111876255678
 31
0.0
  0
LINE
  5
2BD5
330
2A60
100
AcDbEntity
  8
0
 62
     0
100
AcDbLine
 10
25.34515366623873
 20
20.45000064029705
 30
0.0
 11
27.39221172142521
 21
22.49705869548353
 31
0.0
  0
LINE
  5
2BD6
330
2A60
100
AcDbEntity
  8
0
 62
     0
100
AcDbLine
 10
12.10287954149868
 20
7.207726515556998
 30
0.0
 11
14.84515366623873
 21
9.950000640297048
 31
0.0
  0
LINE
  5
2BD7
330
2A60
100
AcDbEntity
  8
0
 62
     0
100
AcDbLine
 10
20.74221172142507
 20
16.74508430759033
 30
0.0
 11
23.70802642720469
 21
19.71089901336995
 31
0.0
  0
LINE
  5
2BD8
330
2A60
100
AcDbEntity
  8
0
 62
     0
100
AcDbLine
 10
15.84005262981577
 20
11.84292521598098
 30
0.0
 11
17.99784025382638
 21
14.00071283999165
 31
0.0
  0
LINE
  5
2BD9
330
2A60
100
AcDbEntity
  8
0
 62
     0
100
AcDbLine
 10
24.28131334835223
 20
20.2841859345175
 30
0.0
 11
27.15874430650513
 21
23.1616168926704
 31
0.0
  0
LINE
  5
2BDA
330
2A60
100
AcDbEntity
  8
0
 62
     0
100
AcDbLine
 10
11.81721172142511
 20
7.820084307590377
 30
0.0
 11
13.94712805413184
 21
9.950000640297048
 31
0.0
  0
LINE
  5
2BDB
330
2A60
100
AcDbEntity
  8
0
 62
     0
100
AcDbLine
 10
15.62044961031506
 20
12.52134780858728
 30
0.0
 11
17.61559828898748
 21
14.5164964872597
 31
0.0
  0
LINE
  5
2BDC
330
2A60
100
AcDbEntity
  8
0
 62
     0
100
AcDbLine
 10
20.74221172142507
 20
17.64310991969728
 30
0.0
 11
26.34910244202496
 21
23.25000064029717
 31
0.0
  0
LINE
  5
2BDD
330
2A60
100
AcDbEntity
  8
0
 62
     0
100
AcDbLine
 10
11.81721172142511
 20
8.718109919697269
 30
0.0
 11
13.04910244202489
 21
9.950000640297105
 31
0.0
  0
LINE
  5
2BDE
330
2A60
100
AcDbEntity
  8
0
 62
     0
100
AcDbLine
 10
15.19419478201041
 20
12.99311859238946
 30
0.0
 11
17.17409376933273
 21
14.97301757971178
 31
0.0
  0
LINE
  5
2BDF
330
2A60
100
AcDbEntity
  8
0
 62
     0
100
AcDbLine
 10
20.74221172142507
 20
18.54113553180411
 30
0.0
 11
25.4510768299179
 21
23.25000064029695
 31
0.0
  0
LINE
  5
2BE0
330
2A60
100
AcDbEntity
  8
0
 62
     0
100
AcDbLine
 10
11.88616364344477
 20
9.685087453823825
 30
0.0
 11
12.08212490789839
 21
9.88104871827744
 31
0.0
  0
LINE
  5
2BE1
330
2A60
100
AcDbEntity
  8
0
 62
     0
100
AcDbLine
 10
20.76218683558153
 20
19.45913625806747
 30
0.0
 11
24.53307610365454
 21
23.23002552614054
 31
0.0
  0
LINE
  5
2BE2
330
2A60
100
AcDbEntity
  8
0
 62
     0
100
AcDbLine
 10
14.74518197595694
 20
13.44213139844294
 30
0.0
 11
16.72508096327925
 21
15.42203038576525
 31
0.0
  0
LINE
  5
2BE3
330
2A60
100
AcDbEntity
  8
0
 62
     0
100
AcDbLine
 10
21.06165026784731
 20
20.65662530244026
 30
0.0
 11
23.33558705928181
 21
22.93056209387476
 31
0.0
  0
LINE
  5
2BE4
330
2A60
100
AcDbEntity
  8
0
 62
     0
100
AcDbLine
 10
14.29616916990346
 20
13.89114420449641
 30
0.0
 11
16.27606815722578
 21
15.87104319181873
 31
0.0
  0
LINE
  5
2BE5
330
2A60
100
AcDbEntity
  8
0
 62
     0
100
AcDbLine
 10
13.84715636385005
 20
14.34015701054983
 30
0.0
 11
15.82705535117236
 21
16.32005599787214
 31
0.0
  0
LINE
  5
2BE6
330
2A60
100
AcDbEntity
  8
0
 62
     0
100
AcDbLine
 10
13.39814355779657
 20
14.7891698166033
 30
0.0
 11
15.37804254511889
 21
16.76906880392562
 31
0.0
  0
LINE
  5
2BE7
330
2A60
100
AcDbEntity
  8
0
 62
     0
100
AcDbLine
 10
12.94913075174304
 20
15.23818262265672
 30
0.0
 11
14.92902973906541
 21
17.21808160997909
 31
0.0
  0
LINE
  5
2BE8
330
2A60
100
AcDbEntity
  8
0
 62
     0
100
AcDbLine
 10
17.26292315727647
 20
20.45000064029705
 30
0.0
 11
18.11721172142512
 21
21.30428920444575
 31
0.0
  0
LINE
  5
2BE9
330
2A60
100
AcDbEntity
  8
0
 62
     0
100
AcDbLine
 10
12.5002012597177
 20
15.68727874273833
 30
0.0
 11
14.48026690315026
 21
17.66734438617089
 31
0.0
  0
LINE
  5
2BEA
330
2A60
100
AcDbEntity
  8
0
 62
     0
100
AcDbLine
 10
16.36489754516958
 20
20.45000064029705
 30
0.0
 11
18.11721172142518
 21
22.20231481655259
 31
0.0
  0
LINE
  5
2BEB
330
2A60
100
AcDbEntity
  8
0
 62
     0
100
AcDbLine
 10
12.08873333516612
 20
16.17383643029353
 30
0.0
 11
14.15037002186238
 21
18.23547311698985
 31
0.0
  0
LINE
  5
2BEC
330
2A60
100
AcDbEntity
  8
0
 62
     0
100
AcDbLine
 10
15.46687193306263
 20
20.45000064029705
 30
0.0
 11
18.03065282166398
 21
23.01378152889839
 31
0.0
  0
LINE
  5
2BED
330
2A60
100
AcDbEntity
  8
0
 62
     0
100
AcDbLine
 10
11.74827272890365
 20
16.73140143613801
 30
0.0
 11
14.09221172142508
 21
19.07534042865944
 31
0.0
  0
LINE
  5
2BEE
330
2A60
100
AcDbEntity
  8
0
 62
     0
100
AcDbLine
 10
14.56637967178568
 20
20.44753399112705
 30
0.0
 11
17.36884632095569
 21
23.25000064029706
 31
0.0
  0
LINE
  5
2BEF
330
2A60
100
AcDbEntity
  8
0
 62
     0
100
AcDbLine
 10
11.48757943317156
 20
17.36873375251287
 30
0.0
 11
14.09467837059526
 21
19.97583268993662
 31
0.0
  0
LINE
  5
2BF0
330
2A60
100
AcDbEntity
  8
0
 62
     0
100
AcDbLine
 10
11.32576747092349
 20
18.10494740237169
 30
0.0
 11
16.47082070884892
 21
23.25000064029712
 31
0.0
  0
LINE
  5
2BF1
330
2A60
100
AcDbEntity
  8
0
 62
     0
100
AcDbLine
 10
11.29221172142519
 20
18.96941726498028
 30
0.0
 11
15.57279509674191
 21
23.25000064029706
 31
0.0
  0
LINE
  5
2BF2
330
2A60
100
AcDbEntity
  8
0
 62
     0
100
AcDbLine
 10
11.29221172142513
 20
19.86744287708723
 30
0.0
 11
14.67476948463496
 21
23.25000064029706
 31
0.0
  0
LINE
  5
2BF3
330
2A60
100
AcDbEntity
  8
0
 62
     0
100
AcDbLine
 10
11.31240373186347
 20
20.78566049963246
 30
0.0
 11
13.75655186208973
 21
23.22980862985872
 31
0.0
  0
ENDBLK
  5
2BF5
330
2A60
100
AcDbEntity
  8
0
100
AcDbBlockEnd
  0
ENDSEC
  0
SECTION
  2
ENTITIES
  0
LWPOLYLINE
  5
1609
330
1A
100
AcDbEntity
  8
ZUWAKU
100
AcDbPolyline
 90
        4
 70
     1
 43
0.0
 10
0.7999995666439191
 20
550.800000640297
 10
0.7999995666439191
 20
0.8000006402971848
 10
796.7999995666438
 20
0.8000006402971848
 10
796.7999995666438
 20
550.800000640297
  0
LWPOLYLINE
  5
160A
330
1A
100
AcDbEntity
  8
ZUWAKU
100
AcDbPolyline
 90
        4
 70
     1
 43
0.0
 10
0.3999995666439417
 20
551.200000640297
 10
0.3999995666439417
 20
0.4000006402972076
 10
797.199999566644
 20
0.4000006402971845
 10
797.199999566644
 20
551.200000640297
  0
LWPOLYLINE
  5
160B
330
1A
100
AcDbEntity
  8
ZUWAKU
100
AcDbPolyline
 90
        4
 70
     1
 43
0.0
 10
-0.0000004333560355
 20
551.6000006402971
 10
-0.0000004333560355
 20
0.0000006402971167
 10
797.5999995666439
 20
0.0000006402971842
 10
797.5999995666439
 20
551.6000006402972
  0
LWPOLYLINE
  5
160C
330
1A
100
AcDbEntity
  8
ZUWAKU
100
AcDbPolyline
 90
        4
 70
     1
 43
0.0
 10
0.5999995666438736
 20
551.0000006402972
 10
0.5999995666438736
 20
0.6000006402971395
 10
796.9999995666442
 20
0.6000006402971857
 10
796.9999995666439
 20
551.0000006402972
  0
LWPOLYLINE
  5
160D
330
1A
100
AcDbEntity
  8
ZUWAKU
100
AcDbPolyline
 90
        4
 70
     1
 43
0.0
 10
0.1999995666438963
 20
551.400000640297
 10
0.1999995666438963
 20
0.2000006402971622
 10
797.3999995666438
 20
0.2000006402971852
 10
797.399999566644
 20
551.400000640297
  0
LINE
  5
160E
330
1A
100
AcDbEntity
  8
ZUWAKU
100
AcDbLine
 10
-0.0000004333560355
 20
30.00000064029711
 30
0.0
 11
797.3999995666438
 21
30.00000064029711
 31
0.0
  0
LINE
  5
160F
330
1A
100
AcDbEntity
  8
ZUWAKU
100
AcDbLine
 10
-0.0000004333560355
 20
30.20000064029711
 30
0.0
 11
797.3999995666438
 21
30.20000064029711
 31
0.0
  0
LINE
  5
1610
330
1A
100
AcDbEntity
  8
ZUWAKU
100
AcDbLine
 10
-0.0000004333560355
 20
30.40000064029713
 30
0.0
 11
797.3999995666438
 21
30.40000064029713
 31
0.0
  0
LINE
  5
1611
330
1A
100
AcDbEntity
  8
ZUWAKU
100
AcDbLine
 10
-0.0000004333560355
 20
30.60000064029713
 30
0.0
 11
797.3999995666438
 21
30.60000064029713
 31
0.0
  0
LINE
  5
1612
330
1A
100
AcDbEntity
  8
ZUWAKU
100
AcDbLine
 10
-0.0000004333560355
 20
30.80000064029713
 30
0.0
 11
797.3999995666438
 21
30.80000064029713
 31
0.0
  0
LINE
  5
1613
330
1A
100
AcDbEntity
  8
ZUWAKU
100
AcDbLine
 10
208.646600856712
 20
15.40000064029714
 30
0.0
 11
447.4243635376352
 21
15.40000064029714
 31
0.0
  0
LINE
  5
1614
330
1A
100
AcDbEntity
  8
ZUWAKU
100
AcDbLine
 10
208.646600856712
 20
15.60000064029714
 30
0.0
 11
447.4243635376352
 21
15.60000064029715
 31
0.0
  0
LINE
  5
1615
330
1A
100
AcDbEntity
  8
ZUWAKU
100
AcDbLine
 10
208.646600856712
 20
15.20000064029715
 30
0.0
 11
447.4243635376352
 21
15.20000064029714
 31
0.0
  0
TEXT
  5
1616
330
1A
100
AcDbEntity
  8
MOJI
100
AcDbText
 10
90.75324551577001
 20
12.83491815671095
 30
0.0
 40
5.799999999999999
  1
アーバントップ
 41
0.9
  7
ｽﾀｲﾙ1
100
AcDbText
  0
CIRCLE
  5
1617
330
1A
100
AcDbEntity
  8
ZUWAKU
100
AcDbCircle
 10
25.99221172142506
 20
15.20000064029711
 30
0.0
 40
1.75
  0
LINE
  5
1618
330
1A
100
AcDbEntity
  8
ZUWAKU
100
AcDbLine
 10
26.86721172142507
 20
7.150000640297121
 30
0.0
 11
24.94221172142511
 21
7.150000640297121
 31
0.0
  0
LINE
  5
1619
330
1A
100
AcDbEntity
  8
ZUWAKU
100
AcDbLine
 10
24.94221172142511
 20
9.950000640297117
 30
0.0
 11
26.86721172142507
 21
9.950000640297117
 31
0.0
  0
LINE
  5
161A
330
1A
100
AcDbEntity
  8
ZUWAKU
100
AcDbLine
 10
26.86721172142507
 20
20.45000064029711
 30
0.0
 11
24.94221172142511
 21
20.45000064029711
 31
0.0
  0
LINE
  5
161B
330
1A
100
AcDbEntity
  8
ZUWAKU
100
AcDbLine
 10
24.94221172142511
 20
23.25000064029707
 30
0.0
 11
26.86721172142507
 21
23.25000064029711
 31
0.0
  0
INSERT
  5
161C
330
1A
100
AcDbEntity
  8
ZUWAKU
  6
Continuous
100
AcDbBlockReference
  2
*X15
 10
0.0
 20
0.0
 30
0.0
1001
ACAD
1000
HATCH
1002
{
1070
    19
1000
ANSI37
1040
0.2
1040
0.0
1000
R14_HATCH_DATA
1000
161C
1011
1.0
1021
0.0
1031
0.0
1011
0.0
1021
1.0
1031
0.0
1011
0.0
1021
0.0
1031
1.0
1040
0.0
1010
0.0
1020
0.0
1030
1.0
1000
ANSI37
1070
     0
1070
     0
1071
        8
1071
        7
1070
     1
1070
     1
1071
       24
1040
14.50226222776382
1040
17.64484912128069
1040
-0.1989123673796348
1040
14.09221172142508
1040
18.63479861494174
1040
0.0
1040
14.09221172142508
1040
19.92500064029712
1040
-0.4142135623730912
1040
14.61721172142505
1040
20.45000064029711
1040
0.0
1040
17.59221172142496
1040
20.45000064029711
1040
0.4142135623731546
1040
18.11721172142507
1040
20.97500064029711
1040
0.0
1040
18.11721172142507
1040
22.72500064029713
1040
0.4142135623731586
1040
17.59221172142496
1040
23.25000064029711
1040
0.0
1040
14.09221172142508
1040
23.25000064029711
1040
0.4142135623730928
1040
11.29221172142512
1040
20.45000064029714
1040
0.0
1040
11.29221172142512
1040
18.63479861494187
1040
0.1989123673796619
1040
12.52236324044155
1040
15.66495013395826
1040
0.0
1040
15.43216121508623
1040
12.75515215931361
1040
-0.1989123673796613
1040
15.84221172142508
1040
11.76520266565242
1040
0.0
1040
15.84221172142508
1040
10.4750006402971
1040
-0.4142135623730911
1040
15.3172117214251
1040
9.950000640297117
1040
0.0
1040
12.34221172142519
1040
9.950000640297117
1040
0.4142135623731526
1040
11.8172117214251
1040
9.425000640297129
1040
0.0
1040
11.8172117214251
1040
7.675000640297109
1040
0.4142135623731526
1040
12.34221172142519
1040
7.150000640297121
1040
0.0
1040
15.84221172142508
1040
7.150000640297121
1040
0.4142135623731045
1040
18.64221172142516
1040
9.950000640297098
1040
0.0
1040
18.64221172142516
1040
11.76520266565236
1040
0.1989123673796604
1040
17.4120602024086
1040
14.7350511466359
1040
0.0
1071
        0
1071
        7
1070
     1
1070
     1
1071
       16
1040
23.54221172142513
1040
19.05000064029712
1040
-0.4142135623730935
1040
24.94221172142511
1040
20.45000064029711
1040
0.0
1040
26.86721172142507
1040
20.45000064029711
1040
0.4142135623731546
1040
27.39221172142516
1040
20.97500064029711
1040
0.0
1040
27.39221172142516
1040
22.72500064029713
1040
0.4142135623730951
1040
26.86721172142517
1040
23.25000064029711
1040
0.0
1040
24.942211721425
1040
23.25000064029707
1040
0.4142135623730893
1040
20.74221172142506
1040
19.05000064029706
1040
0.0
1040
20.74221172142506
1040
11.35000064029714
1040
0.4142135623730969
1040
24.94221172142511
1040
7.150000640297121
1040
0.0
1040
26.86721172142507
1040
7.150000640297121
1040
0.4142135623731526
1040
27.39221172142516
1040
7.675000640297109
1040
0.0
1040
27.39221172142516
1040
9.425000640297129
1040
0.4142135623730891
1040
26.86721172142517
1040
9.950000640297117
1040
0.0
1040
24.94221172142511
1040
9.950000640297117
1040
-0.4142135623730928
1040
23.54221172142513
1040
11.3500006402971
1040
0.0
1071
        0
1071
        7
1070
     1
1070
     1
1071
        2
1040
24.24221172142507
1040
15.20000064029711
1040
1.0
1040
27.74221172142507
1040
15.20000064029711
1040
1.0
1071
        0
1071
        7
1070
     1
1070
     1
1071
       26
1040
37.31485820360308
1040
19.20504783386054
1040
0.0
1040
38.3764978367409
1040
22.56690667213014
1040
0.5069206636600134
1040
37.87586693754554
1040
23.25000064029711
1040
0.0
1040
36.1769775579363
1040
23.25000064029711
1040
0.3272098845218764
1040
35.67634665874095
1040
22.88309460846408
1040
0.0
1040
33.80807678410916
1040
16.96690667213019
1040
-0.3272098845219541
1040
33.3074458849137
1040
16.60000064029711
1040
0.0
1040
33.16721172142525
1040
16.60000064029711
1040
-0.4142135623731526
1040
32.64221172142516
1040
17.1250006402971
1040
0.0
1040
32.64221172142516
1040
22.72500064029713
1040
0.4142135623730951
1040
32.11721172142518
1040
23.25000064029711
1040
0.0
1040
30.36721172142506
1040
23.25000064029711
1040
0.4142135623730871
1040
29.84221172142509
1040
22.72500064029713
1040
0.0
1040
29.84221172142509
1040
7.675000640297109
1040
0.4142135623730891
1040
30.36721172142506
1040
7.150000640297121
1040
0.0
1040
32.11721172142507
1040
7.150000640297121
1040
0.4142135623731526
1040
32.64221172142516
1040
7.675000640297109
1040
0.0
1040
32.64221172142516
1040
13.27500064029712
1040
-0.4142135623731526
1040
33.16721172142525
1040
13.80000064029711
1040
0.0
1040
33.30744588491382
1040
13.80000064029711
1040
-0.3272098845218915
1040
33.80807678410916
1040
13.43309460846404
1040
0.0
1040
35.67634665874095
1040
7.516906672130192
1040
0.3272098845218902
1040
36.1769775579363
1040
7.150000640297121
1040
0.0
1040
37.87586693754554
1040
7.150000640297121
1040
0.5069206636600336
1040
38.3764978367409
1040
7.833094608464129
1040
0.0
1040
36.05010645826724
1040
15.20000064029725
1040
0.0
1071
        0
1071
        7
1070
     1
1070
     1
1071
        8
1040
43.49221172142505
1040
22.72500064029713
1040
0.4142135623731546
1040
42.96721172142496
1040
23.25000064029711
1040
0.0
1040
41.2172117214252
1040
23.25000064029711
1040
0.4142135623731507
1040
40.6922117214251
1040
22.72500064029713
1040
0.0
1040
40.6922117214251
1040
7.675000640297109
1040
0.4142135623731526
1040
41.2172117214252
1040
7.150000640297121
1040
0.0
1040
42.96721172142496
1040
7.150000640297121
1040
0.4142135623731526
1040
43.49221172142505
1040
7.675000640297109
1040
0.0
1071
        0
1071
        7
1070
     1
1070
     1
1071
       24
1040
48.39221172142515
1040
19.92500064029712
1040
-0.4142135623731546
1040
48.91721172142524
1040
20.45000064029711
1040
0.0
1040
51.89221172142516
1040
20.45000064029711
1040
0.4142135623730911
1040
52.41721172142512
1040
20.97500064029711
1040
0.0
1040
52.41721172142512
1040
22.72500064029713
1040
0.4142135623730952
1040
51.89221172142516
1040
23.25000064029711
1040
0.0
1040
48.39221172142515
1040
23.25000064029711
1040
0.4142135623731048
1040
45.59221172142509
1040
20.45000064029714
1040
0.0
1040
45.59221172142509
1040
18.63479861494187
1040
0.1989123673796613
1040
46.82236324044162
1040
15.66495013395832
1040
0.0
1040
49.7321612150863
1040
12.75515215931365
1040
-0.1989123673796402
1040
50.14221172142516
1040
11.76520266565258
1040
0.0
1040
50.14221172142516
1040
10.4750006402971
1040
-0.4142135623730911
1040
49.61721172142517
1040
9.950000640297117
1040
0.0
1040
46.64221172142515
1040
9.950000640297117
1040
0.4142135623731526
1040
46.11721172142506
1040
9.425000640297129
1040
0.0
1040
46.11721172142506
1040
7.675000640297109
1040
0.4142135623730891
1040
46.64221172142504
1040
7.150000640297121
1040
0.0
1040
50.14221172142516
1040
7.150000640297121
1040
0.4142135623730925
1040
52.9422117214251
1040
9.950000640297098
1040
0.0
1040
52.9422117214251
1040
11.76520266565236
1040
0.1989123673796675
1040
51.71206020240856
1040
14.73505114663602
1040
0.0
1040
48.80226222776399
1040
17.64484912128053
1040
-0.1989123673796652
1040
48.39221172142515
1040
18.6347986149417
1040
0.0
1071
        0
1071
        7
1070
     1
1070
     1
1071
       16
1040
57.84221172142508
1040
22.7250006402971
1040
0.414213562373103
1040
57.3172117214251
1040
23.25000064029711
1040
0.0
1040
55.5672117214251
1040
23.25000064029711
1040
0.4142135623730871
1040
55.04221172142512
1040
22.72500064029713
1040
0.0
1040
55.04221172142512
1040
9.950000640297098
1040
0.4142135623730927
1040
57.84221172142508
1040
7.150000640297121
1040
0.0
1040
61.34221172142509
1040
7.150000640297121
1040
0.4142135623731045
1040
64.14221172142515
1040
9.950000640297098
1040
0.0
1040
64.14221172142515
1040
22.72500064029713
1040
0.4142135623730951
1040
63.61721172142518
1040
23.25000064029711
1040
0.0
1040
61.86721172142506
1040
23.25000064029711
1040
0.4142135623730871
1040
61.34221172142509
1040
22.72500064029713
1040
0.0
1040
61.34221172142509
1040
11.00000064029709
1040
-0.4142135623730879
1040
60.29221172142513
1040
9.950000640297117
1040
0.0
1040
58.89221172142516
1040
9.950000640297117
1040
-0.4142135623731197
1040
57.84221172142508
1040
11.00000064029709
1040
0.0
1071
        0
1071
        7
1070
     1
1070
     1
1071
        8
1040
69.04221172142513
1040
22.72500064029713
1040
0.4142135623730871
1040
68.51721172142515
1040
23.25000064029711
1040
0.0
1040
66.76721172142515
1040
23.25000064029711
1040
0.4142135623731507
1040
66.24221172142506
1040
22.72500064029713
1040
0.0
1040
66.24221172142506
1040
7.675000640297109
1040
0.4142135623730891
1040
66.76721172142504
1040
7.150000640297121
1040
0.0
1040
68.51721172142515
1040
7.150000640297121
1040
0.4142135623730891
1040
69.04221172142513
1040
7.675000640297109
1040
0.0
1071
        0
1070
     0
1070
     1
1040
0.0
1040
0.2
1070
     0
1070
     2
1040
0.7853981633974483
1040
-900.9423047680352
1040
-13.1999993597028
1040
-0.4490128060534576
1040
0.4490128060534577
1070
     0
1040
2.356194490192344
1040
-900.9423047680352
1040
-13.1999993597028
1040
-0.4490128060534577
1040
-0.4490128060534576
1070
     0
1040
0.057451373970553
1071
        8
1040
16.07985452966726
1040
15.16717428618266
1040
0.0
1040
22.40451457308314
1040
18.84406282274812
1040
0.0
1040
25.16436745230361
1040
15.51188228636783
1040
0.0
1040
30.9140595482811
1040
16.20129828673861
1040
0.0
1040
41.83847158560069
1040
16.66091055428023
1040
0.0
1040
46.89820046177351
1040
19.41857695670432
1040
0.0
1040
56.5576855390443
1040
18.72915855539212
1040
0.0
1040
67.8270791862667
1040
19.18877082293374
1040
0.0
1002
}
  0
ARC
  5
161D
330
1A
100
AcDbEntity
  8
ZUWAKU
100
AcDbCircle
 10
15.49221172142506
 20
18.63479861494181
 30
0.0
 40
4.199999999999998
100
AcDbArc
 50
180.0
 51
225.0
  0
LINE
  5
161E
330
1A
100
AcDbEntity
  8
ZUWAKU
100
AcDbLine
 10
20.74221172142506
 20
11.35000064029712
 30
0.0
 11
20.74221172142506
 21
19.05000064029707
 31
0.0
  0
LINE
  5
161F
330
1A
100
AcDbEntity
  8
ZUWAKU
100
AcDbLine
 10
23.54221172142513
 20
19.05000064029711
 30
0.0
 11
23.54221172142513
 21
11.35000064029712
 31
0.0
  0
ARC
  5
1620
330
1A
100
AcDbEntity
  8
ZUWAKU
100
AcDbCircle
 10
15.49221172142506
 20
18.63479861494181
 30
0.0
 40
1.399999999999999
100
AcDbArc
 50
180.0000000000016
 51
224.9999999999988
  0
ARC
  5
1621
330
1A
100
AcDbEntity
  8
ZUWAKU
100
AcDbCircle
 10
24.94221172142511
 20
11.35000064029712
 30
0.0
 40
4.199999999999998
100
AcDbArc
 50
180.0
 51
270.0
  0
ARC
  5
1622
330
1A
100
AcDbEntity
  8
ZUWAKU
100
AcDbCircle
 10
15.84221172142508
 20
9.950000640297117
 30
0.0
 40
2.799999999999998
100
AcDbArc
 50
270.0
 51
0.0
  0
ARC
  5
1623
330
1A
100
AcDbEntity
  8
ZUWAKU
100
AcDbCircle
 10
14.4422117214251
 20
11.76520266565242
 30
0.0
 40
4.199999999999998
100
AcDbArc
 50
0.0
 51
45.0
  0
LINE
  5
1624
330
1A
100
AcDbEntity
  8
ZUWAKU
100
AcDbLine
 10
12.52236324044155
 20
15.66495013395829
 30
0.0
 11
15.43216121508623
 21
12.75515215931363
 31
0.0
  0
LINE
  5
1625
330
1A
100
AcDbEntity
  8
ZUWAKU
100
AcDbLine
 10
12.34221172142508
 20
9.950000640297117
 30
0.0
 11
15.3172117214251
 21
9.950000640297117
 31
0.0
  0
LINE
  5
1626
330
1A
100
AcDbEntity
  8
ZUWAKU
100
AcDbLine
 10
12.34221172142508
 20
7.150000640297121
 30
0.0
 11
15.84221172142508
 21
7.150000640297121
 31
0.0
  0
ARC
  5
1627
330
1A
100
AcDbEntity
  8
ZUWAKU
100
AcDbCircle
 10
12.34221172142508
 20
9.425000640297119
 30
0.0
 40
0.525
100
AcDbArc
 50
90.0
 51
180.0
  0
ARC
  5
1628
330
1A
100
AcDbEntity
  8
ZUWAKU
100
AcDbCircle
 10
12.34221172142508
 20
7.67500064029712
 30
0.0
 40
0.525
100
AcDbArc
 50
180.0
 51
270.0
  0
LINE
  5
1629
330
1A
100
AcDbEntity
  8
ZUWAKU
100
AcDbLine
 10
11.8172117214251
 20
7.67500064029712
 30
0.0
 11
11.8172117214251
 21
9.425000640297119
 31
0.0
  0
ARC
  5
162A
330
1A
100
AcDbEntity
  8
ZUWAKU
100
AcDbCircle
 10
14.4422117214251
 20
11.76520266565246
 30
0.0
 40
1.399999999999999
100
AcDbArc
 50
0.0
 51
45.0
  0
ARC
  5
162B
330
1A
100
AcDbEntity
  8
ZUWAKU
100
AcDbCircle
 10
15.3172117214251
 20
10.47500064029712
 30
0.0
 40
0.525
100
AcDbArc
 50
270.0
 51
0.0
  0
LINE
  5
162C
330
1A
100
AcDbEntity
  8
ZUWAKU
100
AcDbLine
 10
15.84221172142508
 20
10.47500064029712
 30
0.0
 11
15.84221172142508
 21
11.76520266565246
 31
0.0
  0
LINE
  5
162D
330
1A
100
AcDbEntity
  8
ZUWAKU
100
AcDbLine
 10
17.4120602024086
 20
14.73505114663594
 30
0.0
 11
14.50226222776392
 21
17.64484912128061
 31
0.0
  0
ARC
  5
162E
330
1A
100
AcDbEntity
  8
ZUWAKU
100
AcDbCircle
 10
24.94221172142511
 20
11.35000064029712
 30
0.0
 40
1.399999999999999
100
AcDbArc
 50
180.0
 51
270.0
  0
LINE
  5
162F
330
1A
100
AcDbEntity
  8
ZUWAKU
100
AcDbLine
 10
18.64221172142516
 20
9.950000640297117
 30
0.0
 11
18.64221172142516
 21
11.76520266565246
 31
0.0
  0
ARC
  5
1630
330
1A
100
AcDbEntity
  8
ZUWAKU
100
AcDbCircle
 10
17.59221172142509
 20
20.97500064029711
 30
0.0
 40
0.525
100
AcDbArc
 50
270.0
 51
0.0
  0
ARC
  5
1631
330
1A
100
AcDbEntity
  8
ZUWAKU
100
AcDbCircle
 10
17.59221172142509
 20
22.72500064029712
 30
0.0
 40
0.525
100
AcDbArc
 50
0.0
 51
90.0
  0
ARC
  5
1632
330
1A
100
AcDbEntity
  8
ZUWAKU
100
AcDbCircle
 10
14.09221172142508
 20
20.45000064029711
 30
0.0
 40
2.799999999999998
100
AcDbArc
 50
90.0
 51
180.0
  0
LINE
  5
1633
330
1A
100
AcDbEntity
  8
ZUWAKU
100
AcDbLine
 10
11.29221172142512
 20
20.45000064029711
 30
0.0
 11
11.29221172142512
 21
18.63479861494177
 31
0.0
  0
LINE
  5
1634
330
1A
100
AcDbEntity
  8
ZUWAKU
100
AcDbLine
 10
17.59221172142509
 20
20.45000064029711
 30
0.0
 11
14.61721172142505
 21
20.45000064029711
 31
0.0
  0
LINE
  5
1635
330
1A
100
AcDbEntity
  8
ZUWAKU
100
AcDbLine
 10
14.09221172142508
 20
19.92500064029711
 30
0.0
 11
14.09221172142508
 21
18.63479861494177
 31
0.0
  0
ARC
  5
1636
330
1A
100
AcDbEntity
  8
ZUWAKU
100
AcDbCircle
 10
14.61721172142505
 20
19.92500064029711
 30
0.0
 40
0.525
100
AcDbArc
 50
90.0
 51
180.0
  0
LINE
  5
1637
330
1A
100
AcDbEntity
  8
ZUWAKU
100
AcDbLine
 10
14.09221172142508
 20
23.25000064029711
 30
0.0
 11
17.59221172142509
 21
23.25000064029711
 31
0.0
  0
ARC
  5
1638
330
1A
100
AcDbEntity
  8
ZUWAKU
100
AcDbCircle
 10
24.94221172142511
 20
19.05000064029707
 30
0.0
 40
4.199999999999998
100
AcDbArc
 50
90.0
 51
180.0
  0
ARC
  5
1639
330
1A
100
AcDbEntity
  8
ZUWAKU
100
AcDbCircle
 10
24.94221172142511
 20
19.05000064029711
 30
0.0
 40
1.399999999999999
100
AcDbArc
 50
90.0
 51
180.0
  0
LINE
  5
163A
330
1A
100
AcDbEntity
  8
ZUWAKU
100
AcDbLine
 10
18.11721172142507
 20
22.72500064029712
 30
0.0
 11
18.11721172142507
 21
20.97500064029711
 31
0.0
  0
LINE
  5
163B
330
1A
100
AcDbEntity
  8
ZUWAKU
100
AcDbLine
 10
35.67634665874095
 20
22.88309460846408
 30
0.0
 11
33.80807678410916
 21
16.96690667213014
 31
0.0
  0
LINE
  5
163C
330
1A
100
AcDbEntity
  8
ZUWAKU
100
AcDbLine
 10
29.84221172142509
 20
22.72500064029712
 30
0.0
 11
29.84221172142509
 21
7.67500064029712
 31
0.0
  0
LINE
  5
163D
330
1A
100
AcDbEntity
  8
ZUWAKU
100
AcDbLine
 10
32.64221172142516
 20
17.12500064029712
 30
0.0
 11
32.64221172142516
 21
22.72500064029712
 31
0.0
  0
LINE
  5
163E
330
1A
100
AcDbEntity
  8
ZUWAKU
100
AcDbLine
 10
57.84221172142508
 20
11.00000064029711
 30
0.0
 11
57.84221172142508
 21
22.72500064029712
 31
0.0
  0
LINE
  5
163F
330
1A
100
AcDbEntity
  8
ZUWAKU
100
AcDbLine
 10
55.04221172142512
 20
22.72500064029712
 30
0.0
 11
55.04221172142512
 21
9.950000640297117
 31
0.0
  0
LINE
  5
1640
330
1A
100
AcDbEntity
  8
ZUWAKU
100
AcDbLine
 10
43.49221172142505
 20
7.67500064029712
 30
0.0
 11
43.49221172142505
 21
22.72500064029712
 31
0.0
  0
LINE
  5
1641
330
1A
100
AcDbEntity
  8
ZUWAKU
100
AcDbLine
 10
40.6922117214251
 20
22.72500064029712
 30
0.0
 11
40.6922117214251
 21
7.67500064029712
 31
0.0
  0
LINE
  5
1642
330
1A
100
AcDbEntity
  8
ZUWAKU
100
AcDbLine
 10
37.31485820360308
 20
19.20504783386054
 30
0.0
 11
36.05010645826724
 21
15.20000064029713
 31
0.0
  0
ARC
  5
1643
330
1A
100
AcDbEntity
  8
ZUWAKU
100
AcDbCircle
 10
49.79221172142512
 20
18.63479861494181
 30
0.0
 40
4.199999999999998
100
AcDbArc
 50
180.0
 51
225.0
  0
ARC
  5
1644
330
1A
100
AcDbEntity
  8
ZUWAKU
100
AcDbCircle
 10
49.79221172142512
 20
18.63479861494181
 30
0.0
 40
1.399999999999999
100
AcDbArc
 50
180.0000000000016
 51
224.9999999999988
  0
LINE
  5
1645
330
1A
100
AcDbEntity
  8
ZUWAKU
100
AcDbLine
 10
66.24221172142506
 20
22.72500064029712
 30
0.0
 11
66.24221172142506
 21
7.67500064029712
 31
0.0
  0
LINE
  5
1646
330
1A
100
AcDbEntity
  8
ZUWAKU
100
AcDbLine
 10
69.04221172142513
 20
7.67500064029712
 30
0.0
 11
69.04221172142513
 21
22.72500064029712
 31
0.0
  0
LINE
  5
1647
330
1A
100
AcDbEntity
  8
ZUWAKU
100
AcDbLine
 10
61.34221172142509
 20
22.72500064029712
 30
0.0
 11
61.34221172142509
 21
11.00000064029711
 31
0.0
  0
LINE
  5
1648
330
1A
100
AcDbEntity
  8
ZUWAKU
100
AcDbLine
 10
64.14221172142515
 20
9.950000640297117
 30
0.0
 11
64.14221172142515
 21
22.72500064029712
 31
0.0
  0
LINE
  5
1649
330
1A
100
AcDbEntity
  8
ZUWAKU
100
AcDbLine
 10
79.12662911463235
 20
30.00000064029711
 30
0.0
 11
79.12662911463235
 21
0.8000006402971848
 31
0.0
  0
LINE
  5
164A
330
1A
100
AcDbEntity
  8
ZUWAKU
100
AcDbLine
 10
79.52662911463221
 20
30.00000064029711
 30
0.0
 11
79.52662911463242
 21
0.8000006402971848
 31
0.0
  0
LINE
  5
164B
330
1A
100
AcDbEntity
  8
ZUWAKU
100
AcDbLine
 10
79.32662911463217
 20
30.00000064029711
 30
0.0
 11
79.32662911463239
 21
0.8000006402971848
 31
0.0
  0
LINE
  5
164C
330
1A
100
AcDbEntity
  8
ZUWAKU
100
AcDbLine
 10
57.84221172142508
 20
7.150000640297121
 30
0.0
 11
61.34221172142509
 21
7.150000640297121
 31
0.0
  0
LINE
  5
164D
330
1A
100
AcDbEntity
  8
ZUWAKU
100
AcDbLine
 10
60.29221172142513
 20
9.950000640297117
 30
0.0
 11
58.89221172142516
 21
9.950000640297117
 31
0.0
  0
LINE
  5
164E
330
1A
100
AcDbEntity
  8
ZUWAKU
100
AcDbLine
 10
41.21721172142509
 20
7.150000640297121
 30
0.0
 11
42.96721172142508
 21
7.150000640297121
 31
0.0
  0
LINE
  5
164F
330
1A
100
AcDbEntity
  8
ZUWAKU
100
AcDbLine
 10
35.67634665874095
 20
7.516906672130146
 30
0.0
 11
33.80807678410916
 21
13.43309460846408
 31
0.0
  0
ARC
  5
1650
330
1A
100
AcDbEntity
  8
ZUWAKU
100
AcDbCircle
 10
33.16721172142513
 20
13.27500064029711
 30
0.0
 40
0.525
100
AcDbArc
 50
90.0
 51
180.0
  0
ARC
  5
1651
330
1A
100
AcDbEntity
  8
ZUWAKU
100
AcDbCircle
 10
33.30744588491382
 20
13.27500064029711
 30
0.0
 40
0.525
100
AcDbArc
 50
17.52556837372303
 51
90.0
  0
ARC
  5
1652
330
1A
100
AcDbEntity
  8
ZUWAKU
100
AcDbCircle
 10
30.36721172142506
 20
7.67500064029712
 30
0.0
 40
0.525
100
AcDbArc
 50
180.0
 51
270.0
  0
ARC
  5
1653
330
1A
100
AcDbEntity
  8
ZUWAKU
100
AcDbCircle
 10
26.86721172142507
 20
9.425000640297119
 30
0.0
 40
0.525
100
AcDbArc
 50
0.0
 51
90.0
  0
ARC
  5
1654
330
1A
100
AcDbEntity
  8
ZUWAKU
100
AcDbCircle
 10
26.86721172142507
 20
7.67500064029712
 30
0.0
 40
0.525
100
AcDbArc
 50
270.0
 51
0.0
  0
LINE
  5
1655
330
1A
100
AcDbEntity
  8
ZUWAKU
100
AcDbLine
 10
27.39221172142516
 20
9.425000640297119
 30
0.0
 11
27.39221172142516
 21
7.67500064029712
 31
0.0
  0
LINE
  5
1656
330
1A
100
AcDbEntity
  8
ZUWAKU
100
AcDbLine
 10
32.64221172142516
 20
7.67500064029712
 30
0.0
 11
32.64221172142516
 21
13.27500064029711
 31
0.0
  0
ARC
  5
1657
330
1A
100
AcDbEntity
  8
ZUWAKU
100
AcDbCircle
 10
32.11721172142507
 20
7.67500064029712
 30
0.0
 40
0.525
100
AcDbArc
 50
270.0
 51
0.0
  0
LINE
  5
1658
330
1A
100
AcDbEntity
  8
ZUWAKU
100
AcDbLine
 10
30.36721172142506
 20
7.150000640297121
 30
0.0
 11
32.11721172142507
 21
7.150000640297121
 31
0.0
  0
ARC
  5
1659
330
1A
100
AcDbEntity
  8
ZUWAKU
100
AcDbCircle
 10
33.16721172142513
 20
17.12500064029712
 30
0.0
 40
0.525
100
AcDbArc
 50
180.0
 51
270.0
  0
LINE
  5
165A
330
1A
100
AcDbEntity
  8
ZUWAKU
100
AcDbLine
 10
33.16721172142513
 20
13.80000064029711
 30
0.0
 11
33.30744588491382
 21
13.80000064029711
 31
0.0
  0
LINE
  5
165B
330
1A
100
AcDbEntity
  8
ZUWAKU
100
AcDbLine
 10
33.30744588491382
 20
16.60000064029711
 30
0.0
 11
33.16721172142513
 21
16.60000064029711
 31
0.0
  0
ARC
  5
165C
330
1A
100
AcDbEntity
  8
ZUWAKU
100
AcDbCircle
 10
33.30744588491382
 20
17.12500064029712
 30
0.0
 40
0.525
100
AcDbArc
 50
270.0
 51
342.474431626277
  0
ARC
  5
165D
330
1A
100
AcDbEntity
  8
ZUWAKU
100
AcDbCircle
 10
36.17697755793642
 20
7.67500064029712
 30
0.0
 40
0.525
100
AcDbArc
 50
197.525568373723
 51
270.0
  0
LINE
  5
165E
330
1A
100
AcDbEntity
  8
ZUWAKU
100
AcDbLine
 10
38.3764978367409
 20
7.833094608464094
 30
0.0
 11
36.05010645826724
 21
15.20000064029713
 31
0.0
  0
ARC
  5
165F
330
1A
100
AcDbEntity
  8
ZUWAKU
100
AcDbCircle
 10
37.87586693754543
 20
7.67500064029712
 30
0.0
 40
0.525
100
AcDbArc
 50
270.0
 51
17.52556837372303
  0
LINE
  5
1660
330
1A
100
AcDbEntity
  8
ZUWAKU
100
AcDbLine
 10
36.17697755793642
 20
7.150000640297121
 30
0.0
 11
37.87586693754543
 21
7.150000640297121
 31
0.0
  0
ARC
  5
1661
330
1A
100
AcDbEntity
  8
ZUWAKU
100
AcDbCircle
 10
41.21721172142509
 20
7.67500064029712
 30
0.0
 40
0.525
100
AcDbArc
 50
180.0
 51
270.0
  0
ARC
  5
1662
330
1A
100
AcDbEntity
  8
ZUWAKU
100
AcDbCircle
 10
50.14221172142516
 20
9.950000640297117
 30
0.0
 40
2.799999999999998
100
AcDbArc
 50
270.0
 51
0.0
  0
ARC
  5
1663
330
1A
100
AcDbEntity
  8
ZUWAKU
100
AcDbCircle
 10
57.84221172142508
 20
9.950000640297117
 30
0.0
 40
2.799999999999998
100
AcDbArc
 50
180.0
 51
270.0
  0
LINE
  5
1664
330
1A
100
AcDbEntity
  8
ZUWAKU
100
AcDbLine
 10
51.71206020240867
 20
14.73505114663594
 30
0.0
 11
48.80226222776389
 21
17.64484912128061
 31
0.0
  0
LINE
  5
1665
330
1A
100
AcDbEntity
  8
ZUWAKU
100
AcDbLine
 10
46.82236324044162
 20
15.66495013395829
 30
0.0
 11
49.7321612150863
 21
12.75515215931363
 31
0.0
  0
LINE
  5
1666
330
1A
100
AcDbEntity
  8
ZUWAKU
100
AcDbLine
 10
46.64221172142515
 20
7.150000640297121
 30
0.0
 11
50.14221172142516
 21
7.150000640297121
 31
0.0
  0
LINE
  5
1667
330
1A
100
AcDbEntity
  8
ZUWAKU
100
AcDbLine
 10
46.64221172142515
 20
9.950000640297117
 30
0.0
 11
49.61721172142507
 21
9.950000640297117
 31
0.0
  0
ARC
  5
1668
330
1A
100
AcDbEntity
  8
ZUWAKU
100
AcDbCircle
 10
46.64221172142515
 20
9.425000640297119
 30
0.0
 40
0.525
100
AcDbArc
 50
90.0
 51
180.0
  0
ARC
  5
1669
330
1A
100
AcDbEntity
  8
ZUWAKU
100
AcDbCircle
 10
42.96721172142508
 20
7.67500064029712
 30
0.0
 40
0.525
100
AcDbArc
 50
270.0
 51
0.0
  0
ARC
  5
166A
330
1A
100
AcDbEntity
  8
ZUWAKU
100
AcDbCircle
 10
46.64221172142515
 20
7.67500064029712
 30
0.0
 40
0.525
100
AcDbArc
 50
180.0
 51
270.0
  0
LINE
  5
166B
330
1A
100
AcDbEntity
  8
ZUWAKU
100
AcDbLine
 10
46.11721172142506
 20
7.67500064029712
 30
0.0
 11
46.11721172142506
 21
9.425000640297119
 31
0.0
  0
ARC
  5
166C
330
1A
100
AcDbEntity
  8
ZUWAKU
100
AcDbCircle
 10
49.61721172142507
 20
10.47500064029712
 30
0.0
 40
0.525
100
AcDbArc
 50
270.0
 51
0.0
  0
ARC
  5
166D
330
1A
100
AcDbEntity
  8
ZUWAKU
100
AcDbCircle
 10
48.74221172142506
 20
11.76520266565246
 30
0.0
 40
1.399999999999999
100
AcDbArc
 50
0.0
 51
45.0
  0
LINE
  5
166E
330
1A
100
AcDbEntity
  8
ZUWAKU
100
AcDbLine
 10
50.14221172142516
 20
10.47500064029712
 30
0.0
 11
50.14221172142516
 21
11.76520266565246
 31
0.0
  0
ARC
  5
166F
330
1A
100
AcDbEntity
  8
ZUWAKU
100
AcDbCircle
 10
58.89221172142516
 20
11.00000064029711
 30
0.0
 40
1.049999999999998
100
AcDbArc
 50
180.0
 51
270.0
  0
ARC
  5
1670
330
1A
100
AcDbEntity
  8
ZUWAKU
100
AcDbCircle
 10
48.74221172142506
 20
11.76520266565242
 30
0.0
 40
4.199999999999998
100
AcDbArc
 50
0.0
 51
45.0
  0
LINE
  5
1671
330
1A
100
AcDbEntity
  8
ZUWAKU
100
AcDbLine
 10
52.9422117214251
 20
9.950000640297117
 30
0.0
 11
52.9422117214251
 21
11.76520266565246
 31
0.0
  0
ARC
  5
1672
330
1A
100
AcDbEntity
  8
ZUWAKU
100
AcDbCircle
 10
61.34221172142509
 20
9.950000640297117
 30
0.0
 40
2.799999999999998
100
AcDbArc
 50
270.0
 51
0.0
  0
LINE
  5
1673
330
1A
100
AcDbEntity
  8
ZUWAKU
100
AcDbLine
 10
66.76721172142515
 20
7.150000640297121
 30
0.0
 11
68.51721172142515
 21
7.150000640297121
 31
0.0
  0
ARC
  5
1674
330
1A
100
AcDbEntity
  8
ZUWAKU
100
AcDbCircle
 10
60.29221172142513
 20
11.00000064029711
 30
0.0
 40
1.049999999999998
100
AcDbArc
 50
270.0
 51
0.0
  0
ARC
  5
1675
330
1A
100
AcDbEntity
  8
ZUWAKU
100
AcDbCircle
 10
66.76721172142515
 20
7.67500064029712
 30
0.0
 40
0.525
100
AcDbArc
 50
180.0
 51
270.0
  0
ARC
  5
1676
330
1A
100
AcDbEntity
  8
ZUWAKU
100
AcDbCircle
 10
68.51721172142515
 20
7.67500064029712
 30
0.0
 40
0.525
100
AcDbArc
 50
270.0
 51
0.0
  0
LINE
  5
1677
330
1A
100
AcDbEntity
  8
ZUWAKU
100
AcDbLine
 10
42.96721172142508
 20
23.25000064029711
 30
0.0
 11
41.21721172142509
 21
23.25000064029711
 31
0.0
  0
LINE
  5
1678
330
1A
100
AcDbEntity
  8
ZUWAKU
100
AcDbLine
 10
27.39221172142516
 20
22.72500064029712
 30
0.0
 11
27.39221172142516
 21
20.97500064029711
 31
0.0
  0
ARC
  5
1679
330
1A
100
AcDbEntity
  8
ZUWAKU
100
AcDbCircle
 10
26.86721172142507
 20
20.97500064029711
 30
0.0
 40
0.525
100
AcDbArc
 50
270.0
 51
0.0
  0
ARC
  5
167A
330
1A
100
AcDbEntity
  8
ZUWAKU
100
AcDbCircle
 10
30.36721172142506
 20
22.72500064029712
 30
0.0
 40
0.525
100
AcDbArc
 50
90.0
 51
180.0
  0
ARC
  5
167B
330
1A
100
AcDbEntity
  8
ZUWAKU
100
AcDbCircle
 10
26.86721172142507
 20
22.72500064029712
 30
0.0
 40
0.525
100
AcDbArc
 50
0.0
 51
90.0
  0
LINE
  5
167C
330
1A
100
AcDbEntity
  8
ZUWAKU
100
AcDbLine
 10
32.11721172142507
 20
23.25000064029711
 30
0.0
 11
30.36721172142506
 21
23.25000064029711
 31
0.0
  0
ARC
  5
167D
330
1A
100
AcDbEntity
  8
ZUWAKU
100
AcDbCircle
 10
32.11721172142507
 20
22.72500064029712
 30
0.0
 40
0.525
100
AcDbArc
 50
0.0
 51
90.0
  0
ARC
  5
167E
330
1A
100
AcDbEntity
  8
ZUWAKU
100
AcDbCircle
 10
36.17697755793642
 20
22.72500064029712
 30
0.0
 40
0.525
100
AcDbArc
 50
90.0
 51
162.4744316262769
  0
LINE
  5
167F
330
1A
100
AcDbEntity
  8
ZUWAKU
100
AcDbLine
 10
38.3764978367409
 20
22.56690667213015
 30
0.0
 11
37.31485820360308
 21
19.20504783386054
 31
0.0
  0
ARC
  5
1680
330
1A
100
AcDbEntity
  8
ZUWAKU
100
AcDbCircle
 10
37.87586693754543
 20
22.72500064029712
 30
0.0
 40
0.525
100
AcDbArc
 50
342.474431626277
 51
90.0
  0
LINE
  5
1681
330
1A
100
AcDbEntity
  8
ZUWAKU
100
AcDbLine
 10
36.17697755793642
 20
23.25000064029711
 30
0.0
 11
37.87586693754543
 21
23.25000064029711
 31
0.0
  0
ARC
  5
1682
330
1A
100
AcDbEntity
  8
ZUWAKU
100
AcDbCircle
 10
41.21721172142509
 20
22.72500064029712
 30
0.0
 40
0.525
100
AcDbArc
 50
90.0
 51
180.0
  0
LINE
  5
1683
330
1A
100
AcDbEntity
  8
ZUWAKU
100
AcDbLine
 10
51.89221172142516
 20
20.45000064029711
 30
0.0
 11
48.91721172142513
 21
20.45000064029711
 31
0.0
  0
LINE
  5
1684
330
1A
100
AcDbEntity
  8
ZUWAKU
100
AcDbLine
 10
48.39221172142515
 20
23.25000064029711
 30
0.0
 11
51.89221172142516
 21
23.25000064029711
 31
0.0
  0
ARC
  5
1685
330
1A
100
AcDbEntity
  8
ZUWAKU
100
AcDbCircle
 10
48.39221172142515
 20
20.45000064029711
 30
0.0
 40
2.799999999999998
100
AcDbArc
 50
90.0
 51
180.0
  0
LINE
  5
1686
330
1A
100
AcDbEntity
  8
ZUWAKU
100
AcDbLine
 10
45.59221172142509
 20
20.45000064029711
 30
0.0
 11
45.59221172142509
 21
18.63479861494177
 31
0.0
  0
ARC
  5
1687
330
1A
100
AcDbEntity
  8
ZUWAKU
100
AcDbCircle
 10
42.96721172142508
 20
22.72500064029712
 30
0.0
 40
0.525
100
AcDbArc
 50
0.0
 51
90.0
  0
LINE
  5
1688
330
1A
100
AcDbEntity
  8
ZUWAKU
100
AcDbLine
 10
48.39221172142515
 20
19.92500064029711
 30
0.0
 11
48.39221172142515
 21
18.63479861494177
 31
0.0
  0
ARC
  5
1689
330
1A
100
AcDbEntity
  8
ZUWAKU
100
AcDbCircle
 10
48.91721172142513
 20
19.92500064029711
 30
0.0
 40
0.525
100
AcDbArc
 50
90.0
 51
180.0
  0
LINE
  5
168A
330
1A
100
AcDbEntity
  8
ZUWAKU
100
AcDbLine
 10
52.41721172142512
 20
22.72500064029712
 30
0.0
 11
52.41721172142512
 21
20.97500064029711
 31
0.0
  0
ARC
  5
168B
330
1A
100
AcDbEntity
  8
ZUWAKU
100
AcDbCircle
 10
51.89221172142516
 20
20.97500064029711
 30
0.0
 40
0.525
100
AcDbArc
 50
270.0
 51
0.0
  0
ARC
  5
168C
330
1A
100
AcDbEntity
  8
ZUWAKU
100
AcDbCircle
 10
51.89221172142516
 20
22.72500064029712
 30
0.0
 40
0.525
100
AcDbArc
 50
0.0
 51
90.0
  0
LINE
  5
168D
330
1A
100
AcDbEntity
  8
ZUWAKU
100
AcDbLine
 10
57.3172117214251
 20
23.25000064029711
 30
0.0
 11
55.5672117214251
 21
23.25000064029711
 31
0.0
  0
ARC
  5
168E
330
1A
100
AcDbEntity
  8
ZUWAKU
100
AcDbCircle
 10
55.5672117214251
 20
22.72500064029712
 30
0.0
 40
0.525
100
AcDbArc
 50
90.0
 51
180.0
  0
ARC
  5
168F
330
1A
100
AcDbEntity
  8
ZUWAKU
100
AcDbCircle
 10
57.3172117214251
 20
22.72500064029712
 30
0.0
 40
0.525
100
AcDbArc
 50
0.0
 51
90.0
  0
LINE
  5
1690
330
1A
100
AcDbEntity
  8
ZUWAKU
100
AcDbLine
 10
68.51721172142515
 20
23.25000064029711
 30
0.0
 11
66.76721172142515
 21
23.25000064029711
 31
0.0
  0
ARC
  5
1691
330
1A
100
AcDbEntity
  8
ZUWAKU
100
AcDbCircle
 10
61.86721172142506
 20
22.72500064029712
 30
0.0
 40
0.525
100
AcDbArc
 50
90.0
 51
180.0
  0
LINE
  5
1692
330
1A
100
AcDbEntity
  8
ZUWAKU
100
AcDbLine
 10
63.61721172142506
 20
23.25000064029711
 30
0.0
 11
61.86721172142506
 21
23.25000064029711
 31
0.0
  0
ARC
  5
1693
330
1A
100
AcDbEntity
  8
ZUWAKU
100
AcDbCircle
 10
63.61721172142506
 20
22.72500064029712
 30
0.0
 40
0.525
100
AcDbArc
 50
0.0
 51
90.0
  0
ARC
  5
1694
330
1A
100
AcDbEntity
  8
ZUWAKU
100
AcDbCircle
 10
66.76721172142515
 20
22.72500064029712
 30
0.0
 40
0.525
100
AcDbArc
 50
90.0
 51
180.0
  0
ARC
  5
1695
330
1A
100
AcDbEntity
  8
ZUWAKU
100
AcDbCircle
 10
68.51721172142515
 20
22.72500064029712
 30
0.0
 40
0.525
100
AcDbArc
 50
0.0
 51
90.0
  0
TEXT
  5
1696
330
1A
100
AcDbEntity
  8
MOJI
100
AcDbText
 10
239.8272022474949
 20
3.204921697704537
 30
0.0
 40
5.599999999999998
  1
Σ９０－０－１０（Ⅱ）
 41
0.9
  7
ｽﾀｲﾙ1
100
AcDbText
  0
TEXT
  5
1697
330
1A
100
AcDbEntity
  8
MOJI
100
AcDbText
 10
239.8272022474949
 20
18.0049216977045
 30
0.0
 40
5.599999999999998
  1
ブラケット正面打（吊）固定式
 41
0.9
  7
ｽﾀｲﾙ1
100
AcDbText
  0
LINE
  5
1698
330
1A
100
AcDbEntity
  8
ZUWAKU
100
AcDbLine
 10
208.4466008567117
 20
30.00000064029711
 30
0.0
 11
208.4466008567119
 21
0.8000006402971848
 31
0.0
  0
LINE
  5
1699
330
1A
100
AcDbEntity
  8
ZUWAKU
100
AcDbLine
 10
208.6466008567117
 20
30.00000064029711
 30
0.0
 11
208.646600856712
 21
0.8000006402971848
 31
0.0
  0
LINE
  5
169A
330
1A
100
AcDbEntity
  8
ZUWAKU
100
AcDbLine
 10
208.2466008567119
 20
30.00000064029711
 30
0.0
 11
208.2466008567119
 21
0.8000006402971848
 31
0.0
  0
TEXT
  5
169B
330
1A
100
AcDbEntity
  8
ZUWAKU
100
AcDbText
 10
209.7240458789215
 20
9.655357178682734
 30
0.0
 40
4.0
  1
サイズ
 41
0.9
  7
ｽﾀｲﾙ1
100
AcDbText
  0
TEXT
  5
169C
330
1A
100
AcDbEntity
  8
ZUWAKU
100
AcDbText
 10
209.7240458789213
 20
24.0553571786827
 30
0.0
 40
4.0
  1
品名
 41
0.9
  7
ｽﾀｲﾙ1
100
AcDbText
  0
TEXT
  5
169D
330
1A
100
AcDbEntity
  8
ZUWAKU
100
AcDbText
 10
654.5120755663308
 20
18.0049216977045
 30
0.0
 40
5.599999999999998
  1
　　．　．　　
 41
0.9
  7
ｽﾀｲﾙ1
100
AcDbText
  0
LINE
  5
169E
330
1A
100
AcDbEntity
  8
ZUWAKU
100
AcDbLine
 10
648.8172020768481
 20
15.60000064029714
 30
0.0
 11
697.2490101151852
 21
15.60000064029714
 31
0.0
  0
LINE
  5
169F
330
1A
100
AcDbEntity
  8
ZUWAKU
100
AcDbLine
 10
648.8172020768482
 20
15.40000064029715
 30
0.0
 11
697.2490101151852
 21
15.40000064029714
 31
0.0
  0
LINE
  5
16A0
330
1A
100
AcDbEntity
  8
ZUWAKU
100
AcDbLine
 10
648.8172020768481
 20
15.20000064029714
 30
0.0
 11
697.2490101151852
 21
15.20000064029714
 31
0.0
  0
LINE
  5
16A1
330
1A
100
AcDbEntity
  8
ZUWAKU
100
AcDbLine
 10
505.1991790647847
 20
15.60000064029714
 30
0.0
 11
552.5269553327563
 21
15.60000064029714
 31
0.0
  0
LINE
  5
16A2
330
1A
100
AcDbEntity
  8
ZUWAKU
100
AcDbLine
 10
505.1991790647847
 20
15.40000064029714
 30
0.0
 11
552.5269553327563
 21
15.40000064029714
 31
0.0
  0
LINE
  5
16A3
330
1A
100
AcDbEntity
  8
ZUWAKU
100
AcDbLine
 10
505.1991790647847
 20
15.20000064029715
 30
0.0
 11
552.5269553327563
 21
15.20000064029715
 31
0.0
  0
LINE
  5
16A4
330
1A
100
AcDbEntity
  8
ZUWAKU
100
AcDbLine
 10
504.7991790647849
 20
30.00000064029711
 30
0.0
 11
504.7991790647849
 21
0.8000006402971848
 31
0.0
  0
LINE
  5
16A5
330
1A
100
AcDbEntity
  8
ZUWAKU
100
AcDbLine
 10
505.1991790647847
 20
30.00000064029711
 30
0.0
 11
505.1991790647851
 21
0.8000006402971848
 31
0.0
  0
LINE
  5
16A6
330
1A
100
AcDbEntity
  8
ZUWAKU
100
AcDbLine
 10
504.9991790647847
 20
30.00000064029711
 30
0.0
 11
504.9991790647849
 21
0.8000006402971848
 31
0.0
  0
TEXT
  5
16A7
330
1A
100
AcDbEntity
  8
MOJI
100
AcDbText
 10
528.0409075389568
 20
18.0049216977045
 30
0.0
 40
5.599999999999998
  1
Ａ３
 41
0.9
  7
ｽﾀｲﾙ1
100
AcDbText
  0
LINE
  5
16A8
330
1A
100
AcDbEntity
  8
ZUWAKU
100
AcDbLine
 10
447.4243635376352
 20
30.00000064029711
 30
0.0
 11
447.4243635376352
 21
0.8000006402971848
 31
0.0
  0
LINE
  5
16A9
330
1A
100
AcDbEntity
  8
ZUWAKU
100
AcDbLine
 10
447.8243635376351
 20
30.00000064029711
 30
0.0
 11
447.8243635376355
 21
0.8000006402971848
 31
0.0
  0
LINE
  5
16AA
330
1A
100
AcDbEntity
  8
ZUWAKU
100
AcDbLine
 10
447.6243635376351
 20
30.00000064029711
 30
0.0
 11
447.6243635376353
 21
0.8000006402971848
 31
0.0
  0
TEXT
  5
16AB
330
1A
100
AcDbEntity
  8
MOJI
100
AcDbText
 10
463.2464315576459
 20
11.94261836195709
 30
0.0
 40
5.599999999999998
  1
ＬＪ０３Ｔ
 41
0.9
  7
ｽﾀｲﾙ1
100
AcDbText
  0
TEXT
  5
16AC
330
1A
100
AcDbEntity
  8
ZUWAKU
100
AcDbText
 10
506.6766240869946
 20
9.655357178682734
 30
0.0
 40
4.0
  1
縮尺
 41
0.9
  7
ｽﾀｲﾙ1
100
AcDbText
  0
TEXT
  5
16AD
330
1A
100
AcDbEntity
  8
MOJI
100
AcDbText
 10
528.0409075389568
 20
3.204921697704537
 30
0.0
 40
5.599999999999998
  1
１/２
 41
0.9
  7
ｽﾀｲﾙ1
100
AcDbText
  0
TEXT
  5
16AE
330
1A
100
AcDbEntity
  8
ZUWAKU
100
AcDbText
 10
449.3018085598448
 20
24.0553571786827
 30
0.0
 40
4.0
  1
品番
 41
0.9
  7
ｽﾀｲﾙ1
100
AcDbText
  0
TEXT
  5
16AF
330
1A
100
AcDbEntity
  8
ZUWAKU
100
AcDbText
 10
506.6766240869944
 20
24.0553571786827
 30
0.0
 40
4.0
  1
用紙
 41
0.9
  7
ｽﾀｲﾙ1
100
AcDbText
  0
LINE
  5
16B0
330
1A
100
AcDbEntity
  8
ZUWAKU
100
AcDbLine
 10
552.5269553327563
 20
30.00000064029711
 30
0.0
 11
552.5269553327563
 21
0.8000006402971848
 31
0.0
  0
LINE
  5
16B1
330
1A
100
AcDbEntity
  8
ZUWAKU
100
AcDbLine
 10
552.9269553327562
 20
30.00000064029711
 30
0.0
 11
552.9269553327564
 21
0.8000006402971848
 31
0.0
  0
LINE
  5
16B2
330
1A
100
AcDbEntity
  8
ZUWAKU
100
AcDbLine
 10
552.7269553327563
 20
30.00000064029711
 30
0.0
 11
552.7269553327563
 21
0.8000006402971848
 31
0.0
  0
LINE
  5
16B3
330
1A
100
AcDbEntity
  8
ZUWAKU
100
AcDbLine
 10
648.4172020768485
 20
30.00000064029711
 30
0.0
 11
648.4172020768485
 21
0.8000006402971848
 31
0.0
  0
LINE
  5
16B4
330
1A
100
AcDbEntity
  8
ZUWAKU
100
AcDbLine
 10
648.8172020768482
 20
30.00000064029711
 30
0.0
 11
648.8172020768487
 21
0.8000006402971848
 31
0.0
  0
LINE
  5
16B5
330
1A
100
AcDbEntity
  8
ZUWAKU
100
AcDbLine
 10
648.617202076848
 20
30.00000064029711
 30
0.0
 11
648.6172020768485
 21
0.8000006402971848
 31
0.0
  0
TEXT
  5
16B6
330
1A
100
AcDbEntity
  8
ZUWAKU
100
AcDbText
 10
650.2946470990579
 20
24.0553571786827
 30
0.0
 40
4.0
  1
DATE
 41
0.9
  7
ｽﾀｲﾙ1
100
AcDbText
  0
TEXT
  5
16B7
330
1A
100
AcDbEntity
  8
ZUWAKU
100
AcDbText
 10
708.5280837588876
 20
12.82025980733124
 30
0.0
 40
6.0
  1
積水化学工業株式会社
 41
0.9
  7
ｽﾀｲﾙ1
100
AcDbText
  0
LINE
  5
16B8
330
1A
100
AcDbEntity
  8
ZUWAKU
100
AcDbLine
 10
697.8490101151852
 20
30.00000064029711
 30
0.0
 11
697.8490101151852
 21
0.8000006402971848
 31
0.0
  0
LINE
  5
16B9
330
1A
100
AcDbEntity
  8
ZUWAKU
100
AcDbLine
 10
697.6490101151851
 20
30.00000064029711
 30
0.0
 11
697.6490101151853
 21
0.8000006402971848
 31
0.0
  0
LINE
  5
16BA
330
1A
100
AcDbEntity
  8
ZUWAKU
100
AcDbLine
 10
697.4490101151852
 20
30.00000064029711
 30
0.0
 11
697.4490101151852
 21
0.8000006402971848
 31
0.0
  0
LINE
  5
16BB
330
1A
100
AcDbEntity
  8
ZUWAKU
100
AcDbLine
 10
697.2490101151852
 20
30.00000064029711
 30
0.0
 11
697.2490101151852
 21
0.8000006402971848
 31
0.0
  0
DIMENSION
  5
2655
330
1A
100
AcDbEntity
  8
SUNPOU
 48
5.0
100
AcDbDimension
  2
*D1
 10
413.5467910597232
 20
375.7286373037758
 30
0.0
 11
408.5467910597231
 21
389.2198280365017
 31
0.0
 70
    32
 71
     5
 42
-1.0
  3
STANDARD
100
AcDbAlignedDimension
 13
366.8204619691023
 23
402.7110187692275
 33
0.0
 14
366.6014222494821
 24
375.7286373037758
 34
0.0
 50
90.0
100
AcDbRotatedDimension
1001
ACAD
1000
DSTYLE
1002
{
1070
   140
1040
6.0
1070
    74
1070
     0
1070
   172
1070
     1
1070
    73
1070
     0
1070
   272
1070
     2
1070
    77
1070
     3
1070
   173
1070
     1
1070
   147
1040
2.0
1070
    42
1040
6.0
1070
    44
1040
3.0
1070
    43
1040
14.0
1070
   271
1070
     0
1070
   178
1070
     4
1070
   177
1070
     4
1070
   176
1070
     4
1070
   141
1040
150.0
1070
     7
1000
_OPEN
1070
     6
1000
_OPEN
1070
    41
1040
7.0
1002
}
  0
DIMENSION
  5
2656
330
1A
100
AcDbEntity
  8
SUNPOU
 48
5.0
100
AcDbDimension
  2
*D2
 10
430.8779458553692
 20
354.2189389675274
 30
0.0
 11
425.8779458553691
 21
389.2189389675276
 31
0.0
 70
    32
 71
     5
 42
-1.0
  3
STANDARD
100
AcDbAlignedDimension
 13
376.7961106380023
 23
424.2189389675274
 33
0.0
 14
376.7961106380023
 24
354.2189389675275
 34
0.0
 50
90.0
100
AcDbRotatedDimension
1001
ACAD
1000
DSTYLE
1002
{
1070
   140
1040
6.0
1070
    74
1070
     0
1070
   172
1070
     1
1070
    73
1070
     0
1070
   272
1070
     2
1070
    77
1070
     3
1070
   173
1070
     1
1070
   147
1040
2.0
1070
    42
1040
6.0
1070
    44
1040
3.0
1070
    43
1040
14.0
1070
   271
1070
     0
1070
   178
1070
     4
1070
   177
1070
     4
1070
   176
1070
     4
1070
   141
1040
150.0
1070
     7
1000
_OPEN
1070
     6
1000
_OPEN
1070
    41
1040
7.0
1002
}
  0
DIMENSION
  5
2657
330
1A
100
AcDbEntity
  8
SUNPOU
 48
5.0
100
AcDbDimension
  2
*D3
 10
414.7134577263899
 20
196.8730176434108
 30
0.0
 11
409.7134577263899
 21
221.8730176434108
 31
0.0
 70
    32
 71
     5
 42
-1.0
  3
STANDARD
100
AcDbAlignedDimension
 13
376.7961106380023
 23
246.8730176434108
 33
0.0
 14
376.7961106380023
 24
196.8730176434108
 34
0.0
 50
90.0
100
AcDbRotatedDimension
1001
ACAD
1000
DSTYLE
1002
{
1070
   140
1040
6.0
1070
    74
1070
     0
1070
   172
1070
     1
1070
    73
1070
     0
1070
   272
1070
     2
1070
    77
1070
     3
1070
   173
1070
     1
1070
   147
1040
2.0
1070
    42
1040
6.0
1070
    44
1040
3.0
1070
    43
1040
14.0
1070
   271
1070
     0
1070
   178
1070
     4
1070
   177
1070
     4
1070
   176
1070
     4
1070
   141
1040
150.0
1070
     7
1000
_OPEN
1070
     6
1000
_OPEN
1070
    41
1040
7.0
1002
}
  0
DIMENSION
  5
2658
330
1A
100
AcDbEntity
  8
SUNPOU
 48
5.0
100
AcDbDimension
  2
*D4
 10
376.7961106380023
 20
154.1829272316121
 30
0.0
 11
401.7961106380022
 21
159.1829272316121
 31
0.0
 70
    32
  1
t<>
 71
     5
 42
-1.0
  3
STANDARD
100
AcDbAlignedDimension
 13
368.4022578847229
 23
199.7646104075268
 33
0.0
 14
376.7961106380023
 24
196.8730176434108
 34
0.0
100
AcDbRotatedDimension
1001
ACAD
1000
DSTYLE
1002
{
1070
   140
1040
6.0
1070
    74
1070
     0
1070
   172
1070
     1
1070
    73
1070
     0
1070
   272
1070
     2
1070
    77
1070
     3
1070
   173
1070
     1
1070
   280
1070
     2
1070
   147
1040
2.0
1070
    42
1040
6.0
1070
    44
1040
3.0
1070
    43
1040
14.0
1070
   271
1070
     1
1070
   178
1070
     4
1070
   177
1070
     4
1070
   176
1070
     4
1070
   141
1040
150.0
1070
     7
1000
_OPEN
1070
     6
1000
_OPEN
1070
    41
1040
7.0
1002
}
  0
LINE
  5
2659
330
1A
100
AcDbEntity
  8
SEIHIN
  6
Continuous
 62
     3
 48
5.0
100
AcDbLine
 10
263.5522175203022
 20
224.8348507660109
 30
0.0
 11
265.3473406672023
 21
221.6260681410108
 31
0.0
  0
ARC
  5
265A
330
1A
100
AcDbEntity
  8
SEIHIN
  6
Continuous
 62
     3
 48
5.0
100
AcDbCircle
 10
295.1802878928022
 20
250.2730176434109
 30
0.0
 40
39.0
100
AcDbArc
 50
219.0011670024011
 51
270.0
  0
ARC
  5
265B
330
1A
100
AcDbEntity
  8
SEIHIN
  6
Continuous
 62
     3
 48
5.0
100
AcDbCircle
 10
292.1696476824023
 20
251.2730176434109
 30
0.0
 40
35.0
100
AcDbArc
 50
214.8012657042992
 51
270.0
  0
ARC
  5
265C
330
1A
100
AcDbEntity
  8
SEIHIN
  6
Continuous
 62
     3
 48
5.0
100
AcDbCircle
 10
291.5287629027023
 20
236.2730176434109
 30
0.0
 40
30.0
100
AcDbArc
 50
209.2244191901992
 51
270.0
  0
ARC
  5
265D
330
1A
100
AcDbEntity
  8
SEIHIN
  6
Continuous
 62
     3
 48
5.0
100
AcDbCircle
 10
290.8884137140022
 20
231.2730176434108
 30
0.0
 40
30.0
100
AcDbArc
 50
209.2244191901992
 51
270.0
  0
DIMENSION
  5
265E
330
1A
100
AcDbEntity
  8
SUNPOU
 48
5.0
100
AcDbDimension
  2
*D5
 10
212.7294441524429
 20
196.8730176434108
 30
0.0
 11
207.7294441524429
 21
218.0711911787537
 31
0.0
 70
    32
 71
     5
 42
-1.0
  3
STANDARD
100
AcDbAlignedDimension
 13
245.8639414084022
 23
239.2693647140966
 33
0.0
 14
370.7961106380023
 24
196.8730176434108
 34
0.0
 50
90.0
100
AcDbRotatedDimension
1001
ACAD
1000
DSTYLE
1002
{
1070
   140
1040
6.0
1070
    74
1070
     0
1070
   172
1070
     1
1070
    73
1070
     0
1070
   272
1070
     2
1070
    77
1070
     3
1070
   173
1070
     1
1070
   147
1040
2.0
1070
    42
1040
6.0
1070
    44
1040
3.0
1070
    43
1040
14.0
1070
   271
1070
     0
1070
   178
1070
     4
1070
   177
1070
     4
1070
   176
1070
     4
1070
   141
1040
150.0
1070
     7
1000
_OPEN
1070
     6
1000
_OPEN
1070
    41
1040
7.0
1002
}
  0
DIMENSION
  5
265F
330
1A
100
AcDbEntity
  8
SUNPOU
100
AcDbDimension
  2
*D6
 10
376.7961106380023
 20
305.0806018604573
 30
0.0
 11
310.8175947166023
 21
310.0806018604572
 31
0.0
 70
    32
 71
     5
 42
-1.0
  3
STANDARD
100
AcDbAlignedDimension
 13
244.8390787952023
 23
238.3253535996109
 33
0.0
 14
376.7961106380023
 24
246.8730176434108
 34
0.0
100
AcDbRotatedDimension
1001
ACAD
1000
DSTYLE
1002
{
1070
   140
1040
6.0
1070
    74
1070
     0
1070
   172
1070
     1
1070
    73
1070
     0
1070
   272
1070
     2
1070
    77
1070
     3
1070
   173
1070
     1
1070
   147
1040
2.0
1070
    42
1040
6.0
1070
    44
1040
3.0
1070
    43
1040
14.0
1070
   271
1070
     0
1070
   178
1070
     4
1070
   177
1070
     4
1070
   176
1070
     4
1070
   141
1040
150.0
1070
     7
1000
_OPEN
1070
     6
1000
_OPEN
1070
    41
1040
7.0
1002
}
  0
ARC
  5
2660
330
1A
100
AcDbEntity
  8
SEIHIN
  6
Continuous
 62
     3
 48
5.0
100
AcDbCircle
 10
248.6112311391023
 20
233.8730176434108
 30
0.0
 40
4.0
100
AcDbArc
 50
176.9999999999993
 51
270.0
  0
LINE
  5
2661
330
1A
100
AcDbEntity
  8
SEIHIN
  6
Continuous
 62
     3
 48
5.0
100
AcDbLine
 10
248.6112311391023
 20
229.8730176434108
 30
0.0
 11
252.6048298177023
 21
229.8730176434108
 31
0.0
  0
LINE
  5
2662
330
1A
100
AcDbEntity
  8
SEIHIN
  6
Continuous
 62
     3
 48
5.0
100
AcDbLine
 10
259.5865424138023
 20
225.7788708440109
 30
0.0
 11
264.7069914785023
 21
216.6260681410109
 31
0.0
  0
ARC
  5
2663
330
1A
100
AcDbEntity
  8
SEIHIN
  6
Continuous
 62
     3
 48
5.0
100
AcDbCircle
 10
252.6048298177023
 20
221.8730176434108
 30
0.0
 40
8.0
100
AcDbArc
 50
29.22441919019924
 51
90.0
  0
ARC
  5
2664
330
1A
100
AcDbEntity
  8
SEIHIN
  6
Continuous
 62
     3
 48
5.0
100
AcDbCircle
 10
264.2503887854023
 20
225.2254360891108
 30
0.0
 40
0.8
100
AcDbArc
 50
39.00116700230034
 51
209.2244191901992
  0
LINE
  5
2665
330
1A
100
AcDbEntity
  8
SEIHIN
  6
Continuous
 62
     3
 48
5.0
100
AcDbLine
 10
248.6684793480023
 20
233.3730176434108
 30
0.0
 11
250.7732349824022
 21
233.3730176434108
 31
0.0
  0
ARC
  5
2666
330
1A
100
AcDbEntity
  8
SEIHIN
  6
Continuous
 62
     3
 48
5.0
100
AcDbCircle
 10
248.6684793480023
 20
234.3730176434108
 30
0.0
 40
1.0
100
AcDbArc
 50
176.0000000000002
 51
270.0000000002996
  0
LINE
  5
2667
330
1A
100
AcDbEntity
  8
SEIHIN
  6
Continuous
 62
     3
 48
5.0
100
AcDbLine
 10
245.8639414084022
 20
239.2730176434108
 30
0.0
 11
245.8377083299023
 21
239.2730176434108
 31
0.0
  0
LINE
  5
2668
330
1A
100
AcDbEntity
  8
SEIHIN
  6
Continuous
 62
     3
 48
5.0
100
AcDbLine
 10
247.6709152977023
 20
234.4427741171109
 30
0.0
 11
247.8590695089023
 21
237.1335046959108
 31
0.0
  0
LINE
  5
2669
330
1A
100
AcDbEntity
  8
SEIHIN
  6
Continuous
 62
     3
 48
5.0
100
AcDbLine
 10
244.6167130001023
 20
234.0823614684108
 30
0.0
 11
244.8390787952023
 21
238.3253535996109
 31
0.0
  0
ARC
  5
266A
330
1A
100
AcDbEntity
  8
SEIHIN
  6
Continuous
 62
     3
 48
5.0
100
AcDbCircle
 10
245.8639414084022
 20
237.2730176434108
 30
0.0
 40
2.0
100
AcDbArc
 50
356.0000000000002
 51
90.0
  0
ARC
  5
266B
330
1A
100
AcDbEntity
  8
SEIHIN
  6
Continuous
 62
     3
 48
5.0
100
AcDbCircle
 10
245.8377083299023
 20
238.2730176434108
 30
0.0
 40
1.0
100
AcDbArc
 50
90.0
 51
176.9999999999993
  0
LINE
  5
266C
330
1A
100
AcDbEntity
  8
SEIHIN
  6
Continuous
 62
     3
 48
5.0
100
AcDbLine
 10
252.4315473781022
 20
233.8730176434108
 30
0.0
 11
258.5030470219022
 21
233.8730176434108
 31
0.0
  0
ARC
  5
266D
330
1A
100
AcDbEntity
  8
SEIHIN
  6
Continuous
 62
     3
 48
5.0
100
AcDbCircle
 10
250.7732349824022
 20
235.3730176434108
 30
0.0
 40
2.0
100
AcDbArc
 50
270.0
 51
303.5573097697004
  0
ARC
  5
266E
330
1A
100
AcDbEntity
  8
SEIHIN
  6
Continuous
 62
     3
 48
5.0
100
AcDbCircle
 10
252.4315473780023
 20
232.8730176435108
 30
0.0
 40
1.0
100
AcDbArc
 50
89.99999999569928
 51
123.5573097697003
  0
ARC
  5
266F
330
1A
100
AcDbEntity
  8
SEIHIN
  6
Continuous
 62
     3
 48
5.0
100
AcDbCircle
 10
258.5030470222023
 20
227.8730176436108
 30
0.0
 40
6.0
100
AcDbArc
 50
34.80126570430051
 51
90.00000000269997
  0
ARC
  5
2670
330
1A
100
AcDbEntity
  8
SEIHIN
  6
Continuous
 62
     3
 48
5.0
100
AcDbCircle
 10
360.6018823316023
 20
220.8730176434108
 30
0.0
 40
10.0
100
AcDbArc
 50
90.0
 51
139.5139884580004
  0
LINE
  5
2671
330
1A
100
AcDbEntity
  8
SEIHIN
  6
Continuous
 62
     3
 48
5.0
100
AcDbLine
 10
336.9543344799022
 20
227.0562105466109
 30
0.0
 11
340.5096982934022
 21
231.2210652995108
 31
0.0
  0
ARC
  5
2672
330
1A
100
AcDbEntity
  8
SEIHIN
  6
Continuous
 62
     3
 48
5.0
100
AcDbCircle
 10
365.0555106980022
 20
233.8730176434108
 30
0.0
 40
3.0
100
AcDbArc
 50
270.0
 51
1.145762838198776
  0
DIMENSION
  5
2673
330
1A
100
AcDbEntity
  8
SUNPOU
100
AcDbDimension
  2
*D7
 10
376.7961106380023
 20
289.6205088015825
 30
0.0
 11
347.2947651368855
 21
289.6205088015825
 31
0.0
 70
   160
 71
     5
 42
-1.0
  3
STANDARD
100
AcDbAlignedDimension
 13
366.7947651368855
 23
221.5693647140966
 33
0.0
 14
376.7961106380023
 24
246.8730176434108
 34
0.0
100
AcDbRotatedDimension
1001
ACAD
1000
DSTYLE
1002
{
1070
   288
1070
     1
1070
   140
1040
6.0
1070
    74
1070
     0
1070
   172
1070
     1
1070
    73
1070
     0
1070
   272
1070
     2
1070
    77
1070
     3
1070
   173
1070
     1
1070
   147
1040
2.0
1070
    42
1040
6.0
1070
    44
1040
3.0
1070
    43
1040
14.0
1070
   271
1070
     0
1070
   178
1070
     4
1070
   177
1070
     4
1070
   176
1070
     4
1070
   141
1040
150.0
1070
     7
1000
_OPEN
1070
     6
1000
_OPEN
1070
    41
1040
7.0
1002
}
  0
LINE
  5
2674
330
1A
100
AcDbEntity
  8
SEIHIN
  6
Continuous
 62
     3
 48
5.0
100
AcDbLine
 10
333.1515119689023
 20
230.3025224462108
 30
0.0
 11
336.7068757824023
 21
234.4673771992108
 31
0.0
  0
LINE
  5
2675
330
1A
100
AcDbEntity
  8
SEIHIN
  6
Continuous
 62
     3
 48
5.0
100
AcDbLine
 10
376.7961106380023
 20
246.8730176434108
 30
0.0
 11
376.7961106380023
 21
196.8730176434108
 31
0.0
  0
LINE
  5
2676
330
1A
100
AcDbEntity
  8
SEIHIN
  6
Continuous
 62
     3
 48
5.0
100
AcDbLine
 10
367.8361026404023
 20
244.8734175234108
 30
0.0
 11
368.7561186356023
 21
198.8726177633108
 31
0.0
  0
LINE
  5
2677
330
1A
100
AcDbEntity
  8
SEIHIN
  6
Continuous
 62
     3
 48
5.0
100
AcDbLine
 10
369.7961106380023
 20
246.8730176434108
 30
0.0
 11
370.7961106380023
 21
196.8730176434108
 31
0.0
  0
LINE
  5
2678
330
1A
100
AcDbEntity
  8
SEIHIN
  6
Continuous
 62
     3
 48
5.0
100
AcDbLine
 10
334.9034418534023
 20
207.8618169571108
 30
0.0
 11
327.7157746368022
 21
217.7287482367108
 31
0.0
  0
LINE
  5
2679
330
1A
100
AcDbEntity
  8
SEIHIN
  6
Continuous
 62
     3
 48
5.0
100
AcDbLine
 10
290.8884137140022
 20
201.2730176434109
 30
0.0
 11
342.7961106380023
 21
201.2730176434109
 31
0.0
  0
LINE
  5
267A
330
1A
100
AcDbEntity
  8
SEIHIN
  6
Continuous
 62
     3
 48
5.0
100
AcDbLine
 10
291.5287629027023
 20
206.2730176434108
 30
0.0
 11
334.0951625897023
 21
206.2730176434108
 31
0.0
  0
ARC
  5
267B
330
1A
100
AcDbEntity
  8
SEIHIN
  6
Continuous
 62
     3
 48
5.0
100
AcDbCircle
 10
302.7289318808022
 20
256.2730176434109
 30
0.0
 40
40.0
100
AcDbArc
 50
270.0
 51
319.5139884580004
  0
LINE
  5
267C
330
1A
100
AcDbEntity
  8
SEIHIN
  6
Continuous
 62
     3
 48
5.0
100
AcDbLine
 10
292.1696476824023
 20
216.2730176434108
 30
0.0
 11
302.7289318808022
 21
216.2730176434108
 31
0.0
  0
LINE
  5
267D
330
1A
100
AcDbEntity
  8
SEIHIN
  6
Continuous
 62
     3
 48
5.0
100
AcDbLine
 10
295.1802878928022
 20
211.2730176434108
 30
0.0
 11
302.7307969441022
 21
211.2730176434108
 31
0.0
  0
LWPOLYLINE
  5
267E
330
1A
100
AcDbEntity
  8
SEIHIN
  6
Continuous
 62
     3
 48
5.0
100
AcDbPolyline
 90
        2
 70
     0
 43
0.05
 10
292.1696476825023
 20
211.2730176434108
 10
292.2052223055023
 20
211.2743044318108
  0
ARC
  5
267F
330
1A
100
AcDbEntity
  8
SEIHIN
  6
Continuous
 62
     3
 48
5.0
100
AcDbCircle
 10
302.7289318808022
 20
256.2730176434109
 30
0.0
 40
45.0
100
AcDbArc
 50
270.0
 51
301.7100544093
  0
ARC
  5
2680
330
1A
100
AcDbEntity
  8
SEIHIN
  6
Continuous
 62
     3
 48
5.0
100
AcDbCircle
 10
326.9074953730023
 20
217.1399489231109
 30
0.0
 40
1.0
100
AcDbArc
 50
36.07185007240022
 51
121.7100544093
  0
LINE
  5
2681
330
1A
100
AcDbEntity
  8
SEIHIN
  6
Continuous
 62
     3
 48
5.0
100
AcDbLine
 10
360.6018823316023
 20
230.8730176434108
 30
0.0
 11
365.0555106980022
 21
230.8730176434108
 31
0.0
  0
ARC
  5
2682
330
1A
100
AcDbEntity
  8
SEIHIN
  6
Continuous
 62
     3
 48
5.0
100
AcDbCircle
 10
363.3151107379023
 20
220.8730176434108
 30
0.0
 40
5.0
100
AcDbArc
 50
1.145762838198776
 51
90.0
  0
ARC
  5
2683
330
1A
100
AcDbEntity
  8
SEIHIN
  6
Continuous
 62
     3
 48
5.0
100
AcDbCircle
 10
363.2961106380023
 20
206.4730176434108
 30
0.0
 40
1.0
100
AcDbArc
 50
56.05297757749927
 51
180.0
  0
LINE
  5
2684
330
1A
100
AcDbEntity
  8
SEIHIN
  6
Continuous
 62
     3
 48
5.0
100
AcDbLine
 10
362.9981852837023
 20
204.3741636496108
 30
0.0
 11
368.4022578847022
 21
199.7646104075108
 31
0.0
  0
ARC
  5
2685
330
1A
100
AcDbEntity
  8
SEIHIN
  6
Continuous
 62
     3
 48
5.0
100
AcDbCircle
 10
334.0951625897023
 20
207.2730176434109
 30
0.0
 40
1.0
100
AcDbArc
 50
270.0
 51
36.07185007839967
  0
LINE
  5
2686
330
1A
100
AcDbEntity
  8
SEIHIN
  6
Continuous
 62
     3
 48
5.0
100
AcDbLine
 10
341.9808602612023
 20
206.7608672020108
 30
0.0
 11
356.7990598206023
 21
224.1193295430108
 31
0.0
  0
LINE
  5
2687
330
1A
100
AcDbEntity
  8
SEIHIN
  6
Continuous
 62
     3
 48
5.0
100
AcDbLine
 10
342.7961106380023
 20
201.2730176434109
 30
0.0
 11
355.9719012765023
 21
203.6258374003109
 31
0.0
  0
LINE
  5
2688
330
1A
100
AcDbEntity
  8
SEIHIN
  6
Continuous
 62
     3
 48
5.0
100
AcDbLine
 10
343.8535705425023
 20
203.4934872911108
 30
0.0
 11
355.6203199995023
 21
205.5946925513108
 31
0.0
  0
LINE
  5
2689
330
1A
100
AcDbEntity
  8
SEIHIN
  6
Continuous
 62
     3
 48
5.0
100
AcDbLine
 10
342.7961106380023
 20
201.2730176434109
 30
0.0
 11
342.7961106380023
 21
203.5910500109108
 31
0.0
  0
ARC
  5
268A
330
1A
100
AcDbEntity
  8
SEIHIN
  6
Continuous
 62
     3
 48
5.0
100
AcDbCircle
 10
343.5019892656023
 20
205.4623424421108
 30
0.0
 40
2.0
100
AcDbArc
 50
139.5139884580004
 51
280.1246716554005
  0
ARC
  5
268B
330
1A
100
AcDbEntity
  8
SEIHIN
  6
Continuous
 62
     3
 48
5.0
100
AcDbCircle
 10
364.2961106380023
 20
205.8958041377108
 30
0.0
 40
2.0
100
AcDbArc
 50
180.0
 51
229.5365622425007
  0
LINE
  5
268C
330
1A
100
AcDbEntity
  8
SEIHIN
  6
Continuous
 62
     3
 48
5.0
100
AcDbLine
 10
362.2961106380023
 20
206.4730176434108
 30
0.0
 11
362.2961106380023
 21
205.8958041377108
 31
0.0
  0
ARC
  5
268D
330
1A
100
AcDbEntity
  8
SEIHIN
  6
Continuous
 62
     3
 48
5.0
100
AcDbCircle
 10
355.7961106380023
 20
204.6102649758108
 30
0.0
 40
1.0
100
AcDbArc
 50
280.1246716554005
 51
100.1246716554005
  0
LINE
  5
268E
330
1A
100
AcDbEntity
  8
SEIHIN
  6
Continuous
 62
     3
 48
5.0
100
AcDbLine
 10
339.7284138272023
 20
211.8233339347108
 30
0.0
 11
352.9962373096022
 21
227.3656414427109
 31
0.0
  0
LINE
  5
268F
330
1A
100
AcDbEntity
  8
SEIHIN
  6
Continuous
 62
     3
 48
5.0
100
AcDbLine
 10
338.1595700613023
 20
211.8837970010108
 30
0.0
 11
331.7570354916023
 21
220.6729307644109
 31
0.0
  0
ARC
  5
2690
330
1A
100
AcDbEntity
  8
SEIHIN
  6
Continuous
 62
     3
 48
5.0
100
AcDbCircle
 10
338.9678493250023
 20
212.4725963147108
 30
0.0
 40
1.0
100
AcDbArc
 50
216.0718500783997
 51
319.5139884580004
  0
ARC
  5
2691
330
1A
100
AcDbEntity
  8
SEIHIN
  6
Continuous
 62
     3
 48
5.0
100
AcDbCircle
 10
332.5653147553023
 20
221.2617300782108
 30
0.0
 40
1.0
100
AcDbArc
 50
130.4374120097994
 51
216.0718500827008
  0
ARC
  5
2692
330
1A
100
AcDbEntity
  8
SEIHIN
  6
Continuous
 62
     3
 48
5.0
100
AcDbCircle
 10
302.7289318808022
 20
256.2730176434109
 30
0.0
 40
45.0
100
AcDbArc
 50
310.4374120097994
 51
319.5139884580004
  0
LINE
  5
2693
330
1A
100
AcDbEntity
  8
SEIHIN
  6
Continuous
 62
     3
 48
5.0
100
AcDbLine
 10
360.6018823316023
 20
225.8730176434108
 30
0.0
 11
363.3151107379023
 21
225.8730176434108
 31
0.0
  0
ARC
  5
2694
330
1A
100
AcDbEntity
  8
SEIHIN
  6
Continuous
 62
     3
 48
5.0
100
AcDbCircle
 10
360.6018823316023
 20
220.8730176434108
 30
0.0
 40
5.0
100
AcDbArc
 50
89.99999999990066
 51
139.5139884581009
  0
LINE
  5
2695
330
1A
100
AcDbEntity
  8
CENTER L
  6
CENTER
 62
     1
 48
5.0
100
AcDbLine
 10
382.3456917519339
 20
207.6730176434108
 30
0.0
 11
365.2655686646131
 21
207.6730176434109
 31
0.0
  0
LINE
  5
2696
330
1A
100
AcDbEntity
  8
SEIHIN
  6
Continuous
 62
     3
 48
5.0
100
AcDbLine
 10
376.7961106380023
 20
196.8730176434108
 30
0.0
 11
370.7961106380023
 21
196.8730176434108
 31
0.0
  0
ARC
  5
2697
330
1A
100
AcDbEntity
  8
SEIHIN
  6
Continuous
 62
     3
 48
5.0
100
AcDbCircle
 10
367.6138225609023
 20
205.9774224965108
 30
0.0
 40
1.0
100
AcDbArc
 50
236.0529775774992
 51
1.145762838198776
  0
LINE
  5
2698
330
1A
100
AcDbEntity
  8
SEIHIN
  6
Continuous
 62
     3
 48
5.0
100
AcDbLine
 10
368.7561186356023
 20
198.8726177633108
 30
0.0
 11
370.7961106380023
 21
196.8730176434108
 31
0.0
  0
ARC
  5
2699
330
1A
100
AcDbEntity
  8
SEIHIN
  6
Continuous
 62
     3
 48
5.0
100
AcDbCircle
 10
367.7532952076023
 20
199.0037901635108
 30
0.0
 40
1.0
100
AcDbArc
 50
1.145762838299752
 51
49.53656224259893
  0
LINE
  5
269A
330
1A
100
AcDbEntity
  8
SEIHIN
  6
Continuous
 62
     3
 48
5.0
100
AcDbLine
 10
367.0553964520023
 20
205.1478682301108
 30
0.0
 11
363.8545367469023
 21
207.3025719098108
 31
0.0
  0
DIMENSION
  5
269B
330
1A
100
AcDbEntity
  8
SUNPOU
 48
5.0
100
AcDbDimension
  2
*D8
 10
376.7961106380023
 20
274.3742931099865
 30
0.0
 11
372.3161066392023
 21
279.3742931099865
 31
0.0
 70
    32
 71
     5
 42
-1.0
  3
STANDARD
100
AcDbAlignedDimension
 13
367.8361026404023
 23
244.8734175234108
 33
0.0
 14
376.7961106380023
 24
246.8730176434108
 34
0.0
100
AcDbRotatedDimension
1001
ACAD
1000
DSTYLE
1002
{
1070
   140
1040
6.0
1070
    74
1070
     0
1070
   172
1070
     1
1070
    73
1070
     0
1070
   272
1070
     2
1070
    77
1070
     3
1070
   173
1070
     1
1070
   147
1040
2.0
1070
    42
1040
6.0
1070
    44
1040
3.0
1070
    43
1040
14.0
1070
   271
1070
     0
1070
   178
1070
     4
1070
   177
1070
     4
1070
   176
1070
     4
1070
   141
1040
150.0
1070
     7
1000
_OPEN
1070
     6
1000
_OPEN
1070
    41
1040
7.0
1002
}
  0
LINE
  5
269C
330
1A
100
AcDbEntity
  8
SEIHIN
  6
Continuous
 62
     3
 48
5.0
100
AcDbLine
 10
364.7385354209022
 20
241.6328319345109
 30
0.0
 11
360.4237899773023
 21
241.3132211609108
 31
0.0
  0
LINE
  5
269D
330
1A
100
AcDbEntity
  8
SEIHIN
  6
Continuous
 62
     3
 48
5.0
100
AcDbLine
 10
367.7961106380023
 20
246.8730176434108
 30
0.0
 11
360.0544315498023
 21
246.2995599331108
 31
0.0
  0
ARC
  5
269E
330
1A
100
AcDbEntity
  8
SEIHIN
  6
Continuous
 62
     3
 48
5.0
100
AcDbCircle
 10
362.5660688573022
 20
212.3924562816108
 30
0.0
 40
34.0
100
AcDbArc
 50
94.23639479909979
 51
139.5139884580004
  0
ARC
  5
269F
330
1A
100
AcDbEntity
  8
SEIHIN
  6
Continuous
 62
     3
 48
5.0
100
AcDbCircle
 10
362.5660688573022
 20
212.3924562816108
 30
0.0
 40
29.0
100
AcDbArc
 50
94.23639479909979
 51
139.5139884580004
  0
LINE
  5
26A0
330
1A
100
AcDbEntity
  8
CENTER L
  6
CENTER
 62
     1
 48
5.0
100
AcDbLine
 10
382.472463248858
 20
232.3730176434108
 30
0.0
 11
365.2655686646131
 21
232.3730176434108
 31
0.0
  0
LINE
  5
26A1
330
1A
100
AcDbEntity
  8
CENTER L
  6
CENTER
 62
     1
 48
5.0
100
AcDbLine
 10
382.4996652299794
 20
237.6730176434108
 30
0.0
 11
365.2655686646131
 21
237.6730176434107
 31
0.0
  0
ARC
  5
26A2
330
1A
100
AcDbEntity
  8
SEIHIN
  6
Continuous
 62
     3
 48
5.0
100
AcDbCircle
 10
364.9601504774022
 20
238.6410286711108
 30
0.0
 40
3.0
100
AcDbArc
 50
1.145762838198776
 51
94.23639479909979
  0
LINE
  5
26A3
330
1A
100
AcDbEntity
  8
SEIHIN
  6
Continuous
 62
     3
 48
5.0
100
AcDbLine
 10
376.7961106380023
 20
246.8730176434108
 30
0.0
 11
367.7961106380023
 21
246.8730176434108
 31
0.0
  0
LINE
  5
26A4
330
1A
100
AcDbEntity
  8
SEIHIN
  6
Continuous
 62
     3
 48
5.0
100
AcDbLine
 10
369.7961106380023
 20
246.8730176434108
 30
0.0
 11
367.8361026404023
 21
244.8734175234108
 31
0.0
  0
LINE
  5
26A5
330
1A
100
AcDbEntity
  8
SEIHIN
  6
Continuous
 62
     3
 48
5.0
100
AcDbLine
 10
244.6112311391023
 20
401.7189389675275
 30
0.0
 11
366.8204619691023
 21
402.7110187692275
 31
0.0
  0
LINE
  5
26A6
330
1A
100
AcDbEntity
  8
SEIHIN
  6
Continuous
 62
     3
 48
5.0
100
AcDbLine
 10
244.6112311391023
 20
376.7189389675275
 30
0.0
 11
366.8204633134023
 21
375.7268591548275
 31
0.0
  0
LINE
  5
26A7
330
1A
100
AcDbEntity
  8
CENTER L
  6
CENTER
 62
     1
 48
5.0
100
AcDbLine
 10
236.8993607357023
 20
389.2189389675275
 30
0.0
 11
383.3083800410022
 21
389.2189389675275
 31
0.0
  0
DIMENSION
  5
26A8
330
1A
100
AcDbEntity
  8
SUNPOU
 48
5.0
100
AcDbDimension
  2
*D9
 10
212.7294441524429
 20
376.7205863581277
 30
0.0
 11
207.7294441524429
 21
389.2197626628276
 31
0.0
 70
    32
 71
     5
 42
-1.0
  3
STANDARD
100
AcDbAlignedDimension
 13
244.6112311391023
 23
401.7189389675275
 33
0.0
 14
244.4082975265322
 24
376.7205863581277
 34
0.0
 50
90.0
100
AcDbRotatedDimension
1001
ACAD
1000
DSTYLE
1002
{
1070
   140
1040
6.0
1070
    74
1070
     0
1070
   172
1070
     1
1070
    73
1070
     0
1070
   272
1070
     2
1070
    77
1070
     3
1070
   173
1070
     1
1070
   147
1040
2.0
1070
    42
1040
6.0
1070
    44
1040
3.0
1070
    43
1040
14.0
1070
   271
1070
     0
1070
   178
1070
     4
1070
   177
1070
     4
1070
   176
1070
     4
1070
   141
1040
150.0
1070
     7
1000
_OPEN
1070
     6
1000
_OPEN
1070
    41
1040
7.0
1002
}
  0
LINE
  5
26A9
330
1A
100
AcDbEntity
  8
SEIHIN
  6
Continuous
 62
     3
 48
5.0
100
AcDbLine
 10
248.0086788284022
 20
376.6839225156275
 30
0.0
 11
248.0086788284022
 21
401.7539554194274
 31
0.0
  0
LINE
  5
26AA
330
1A
100
AcDbEntity
  8
SEIHIN
  6
Continuous
 62
     3
 48
5.0
100
AcDbLine
 10
244.8887437632023
 20
376.7166861535275
 30
0.0
 11
244.8887437632023
 21
401.7211917815274
 31
0.0
  0
LINE
  5
26AB
330
1A
100
AcDbEntity
  8
SEIHIN
  6
Continuous
 62
     3
 48
5.0
100
AcDbLine
 10
244.6112311391023
 20
376.7189389675275
 30
0.0
 11
244.6112311391023
 21
401.7189389675275
 31
0.0
  0
LINE
  5
26AC
330
1A
100
AcDbEntity
  8
SEIHIN
  6
Continuous
 62
     3
 48
5.0
100
AcDbLine
 10
261.7961106380023
 20
377.7763106414275
 30
0.0
 11
261.7961106380023
 21
400.2676557840275
 31
0.0
  0
LINE
  5
26AD
330
1A
100
AcDbEntity
  8
SEIHIN
  6
Continuous
 62
     3
 48
5.0
100
AcDbLine
 10
252.0961106380022
 20
377.7763106414275
 30
0.0
 11
252.0961106380022
 21
400.2676557840275
 31
0.0
  0
LINE
  5
26AE
330
1A
100
AcDbEntity
  8
SEIHIN
  6
Continuous
 62
     3
 48
5.0
100
AcDbLine
 10
367.7961106380023
 20
405.6946841775275
 30
0.0
 11
367.7961106380023
 21
422.2189389675275
 31
0.0
  0
LINE
  5
26AF
330
1A
100
AcDbEntity
  8
SEIHIN
  6
Continuous
 62
     3
 48
5.0
100
AcDbLine
 10
369.7961106380023
 20
405.7109188419275
 30
0.0
 11
369.7961106380023
 21
424.2189389675274
 31
0.0
  0
LINE
  5
26B0
330
1A
100
AcDbEntity
  8
SEIHIN
  6
Continuous
 62
     3
 48
5.0
100
AcDbLine
 10
376.7961106380023
 20
424.2189389675274
 30
0.0
 11
376.7961106380023
 21
354.2189389675275
 31
0.0
  0
LINE
  5
26B1
330
1A
100
AcDbEntity
  8
SEIHIN
  6
Continuous
 62
     3
 48
5.0
100
AcDbLine
 10
321.1796267920022
 20
377.7156350945276
 30
0.0
 11
321.1796267920022
 21
400.7365712675275
 31
0.0
  0
LINE
  5
26B2
330
1A
100
AcDbEntity
  8
SEIHIN
  6
Continuous
 62
     3
 48
5.0
100
AcDbLine
 10
369.7961106380023
 20
372.7269559059275
 30
0.0
 11
369.7961106380023
 21
354.2189389675275
 31
0.0
  0
LINE
  5
26B3
330
1A
100
AcDbEntity
  8
SEIHIN
  6
Continuous
 62
     3
 48
5.0
100
AcDbLine
 10
367.7961106380023
 20
372.7431937575275
 30
0.0
 11
367.7961106380023
 21
356.2189389675275
 31
0.0
  0
LINE
  5
26B4
330
1A
100
AcDbEntity
  8
CENTER L
  6
CENTER
 62
     1
 48
5.0
100
AcDbLine
 10
361.5653035377023
 20
362.7189389675275
 30
0.0
 11
383.3083800410022
 21
362.7189389675275
 31
0.0
  0
LINE
  5
26B5
330
1A
100
AcDbEntity
  8
SEIHIN
  6
Continuous
 62
     3
 48
5.0
100
AcDbLine
 10
369.7961106380023
 20
354.2189389675275
 30
0.0
 11
376.7961106380023
 21
354.2189389675275
 31
0.0
  0
LINE
  5
26B6
330
1A
100
AcDbEntity
  8
SEIHIN
  6
Continuous
 62
     3
 48
5.0
100
AcDbLine
 10
367.7961106380023
 20
356.2189389675275
 30
0.0
 11
369.7961106380023
 21
354.2189389675275
 31
0.0
  0
LINE
  5
26B7
330
1A
100
AcDbEntity
  8
CENTER L
  6
CENTER
 62
     1
 48
5.0
100
AcDbLine
 10
361.5653035377023
 20
415.7189389675274
 30
0.0
 11
383.3083800410022
 21
415.7189389675274
 31
0.0
  0
LINE
  5
26B8
330
1A
100
AcDbEntity
  8
SEIHIN
  6
Continuous
 62
     3
 48
5.0
100
AcDbLine
 10
345.9122911944023
 20
377.7156350945276
 30
0.0
 11
345.9122911944023
 21
400.7365712675275
 31
0.0
  0
LINE
  5
26B9
330
1A
100
AcDbEntity
  8
SEIHIN
  6
Continuous
 62
     3
 48
5.0
100
AcDbLine
 10
367.7961106380023
 20
400.9602821606275
 30
0.0
 11
367.7961106380023
 21
377.7523908307275
 31
0.0
  0
ARC
  5
26BA
330
1A
100
AcDbEntity
  8
SEIHIN
  6
Continuous
 62
     3
 48
5.0
100
AcDbCircle
 10
366.7961106380023
 20
372.7269579986276
 30
0.0
 40
3.0
100
AcDbArc
 50
359.9999600319998
 51
89.53489305040028
  0
ARC
  5
26BB
330
1A
100
AcDbEntity
  8
SEIHIN
  6
Continuous
 62
     3
 48
5.0
100
AcDbCircle
 10
364.7961106380023
 20
372.7431937575275
 30
0.0
 40
3.0
100
AcDbArc
 50
0.0
 51
89.53488998649921
  0
ARC
  5
26BC
330
1A
100
AcDbEntity
  8
SEIHIN
  6
Continuous
 62
     3
 48
5.0
100
AcDbCircle
 10
364.7961106380023
 20
405.6946841775275
 30
0.0
 40
3.0
100
AcDbArc
 50
270.4651100135008
 51
0.0
  0
ARC
  5
26BD
330
1A
100
AcDbEntity
  8
SEIHIN
  6
Continuous
 62
     3
 48
5.0
100
AcDbCircle
 10
366.7961106380023
 20
405.7109199364275
 30
0.0
 40
3.0
100
AcDbArc
 50
270.4650812736994
 51
359.9999790980989
  0
LINE
  5
26BE
330
1A
100
AcDbEntity
  8
SEIHIN
  6
Continuous
 62
     3
 48
5.0
100
AcDbLine
 10
369.7961106380023
 20
424.2189389675274
 30
0.0
 11
376.7961106380023
 21
424.2189389675274
 31
0.0
  0
LINE
  5
26BF
330
1A
100
AcDbEntity
  8
SEIHIN
  6
Continuous
 62
     3
 48
5.0
100
AcDbLine
 10
369.7961106380023
 20
424.2189389675274
 30
0.0
 11
367.7961106380023
 21
422.2189389675275
 31
0.0
  0
LINE
  5
26C0
330
1A
100
AcDbEntity
  8
SEIHIN
  6
Continuous
 62
     3
 48
5.0
100
AcDbLine
 10
500.2193459844361
 20
197.6730176434108
 30
0.0
 11
550.2193459844361
 21
197.6730176434108
 31
0.0
  0
ARC
  5
26C1
330
1A
100
AcDbEntity
  8
SEIHIN
  6
Continuous
 62
     3
 48
5.0
100
AcDbCircle
 10
531.2193459844361
 20
206.1730176434108
 30
0.0
 40
3.5
100
AcDbArc
 50
180.0
 51
270.0
  0
LINE
  5
26C2
330
1A
100
AcDbEntity
  8
SEIHIN
  6
Continuous
 62
     3
 48
5.0
100
AcDbLine
 10
509.2193459844361
 20
229.6730176434109
 30
0.0
 11
541.2193459844361
 21
229.6730176434109
 31
0.0
  0
LINE
  5
26C3
330
1A
100
AcDbEntity
  8
SEIHIN
  6
Continuous
 62
     3
 48
5.0
100
AcDbLine
 10
509.2193459844361
 20
242.6730176434109
 30
0.0
 11
541.2193459844361
 21
242.6730176434109
 31
0.0
  0
LINE
  5
26C4
330
1A
100
AcDbEntity
  8
SEIHIN
  6
Continuous
 62
     3
 48
5.0
100
AcDbLine
 10
509.2193459844361
 20
230.6730176434109
 30
0.0
 11
541.2193459844361
 21
230.6730176434109
 31
0.0
  0
LINE
  5
26C5
330
1A
100
AcDbEntity
  8
SEIHIN
  6
Continuous
 62
     3
 48
5.0
100
AcDbLine
 10
509.2193459844361
 20
241.6730176434109
 30
0.0
 11
541.2193459844361
 21
241.6730176434109
 31
0.0
  0
LINE
  5
26C6
330
1A
100
AcDbEntity
  8
SEIHIN
  6
Continuous
 62
     3
 48
5.0
100
AcDbLine
 10
500.2193459844361
 20
247.6730176434108
 30
0.0
 11
550.2193459844361
 21
247.6730176434108
 31
0.0
  0
ARC
  5
26C7
330
1A
100
AcDbEntity
  8
SEIHIN
  6
Continuous
 62
     3
 48
5.0
100
AcDbCircle
 10
531.2193459844361
 20
221.1730176434108
 30
0.0
 40
3.5
100
AcDbArc
 50
90.0
 51
180.0
  0
DIMENSION
  5
26C8
330
1A
100
AcDbEntity
  8
SUNPOU
 48
5.0
100
AcDbDimension
  2
*D10
 10
551.7193459844361
 20
274.3742931099865
 30
0.0
 11
525.2193459844361
 21
279.3742931099865
 31
0.0
 70
    32
 71
     5
 42
-1.0
  3
STANDARD
100
AcDbAlignedDimension
 13
498.7193459844361
 23
242.6730176434109
 33
0.0
 14
551.7193459844361
 24
242.6730176434109
 34
0.0
100
AcDbRotatedDimension
1001
ACAD
1000
DSTYLE
1002
{
1070
   140
1040
6.0
1070
    74
1070
     0
1070
   172
1070
     1
1070
    73
1070
     0
1070
   272
1070
     2
1070
    77
1070
     3
1070
   173
1070
     1
1070
   147
1040
2.0
1070
    42
1040
6.0
1070
    44
1040
3.0
1070
    43
1040
14.0
1070
   271
1070
     0
1070
   178
1070
     4
1070
   177
1070
     4
1070
   176
1070
     4
1070
   141
1040
150.0
1070
     7
1000
_OPEN
1070
     6
1000
_OPEN
1070
    41
1040
7.0
1002
}
  0
DIMENSION
  5
26C9
330
1A
100
AcDbEntity
  8
SUNPOU
 48
5.0
100
AcDbDimension
  2
*D11
 10
490.2193459844361
 20
290.7795089348821
 30
0.0
 11
525.2193459844361
 21
295.7795089348821
 31
0.0
 70
    32
 71
     5
 42
-1.0
  3
STANDARD
100
AcDbAlignedDimension
 13
560.2193459844361
 23
237.6730176434109
 33
0.0
 14
490.2193459844361
 24
237.6730176434109
 34
0.0
100
AcDbRotatedDimension
1001
ACAD
1000
DSTYLE
1002
{
1070
   140
1040
6.0
1070
    74
1070
     0
1070
   172
1070
     1
1070
    73
1070
     0
1070
   272
1070
     2
1070
    77
1070
     3
1070
   173
1070
     1
1070
   147
1040
2.0
1070
    42
1040
6.0
1070
    44
1040
3.0
1070
    43
1040
14.0
1070
   271
1070
     0
1070
   178
1070
     4
1070
   177
1070
     4
1070
   176
1070
     4
1070
   141
1040
150.0
1070
     7
1000
_OPEN
1070
     6
1000
_OPEN
1070
    41
1040
7.0
1002
}
  0
ARC
  5
26CA
330
1A
100
AcDbEntity
  8
SEIHIN
  6
Continuous
 62
     3
 48
5.0
100
AcDbCircle
 10
509.2193459844361
 20
231.6730176434109
 30
0.0
 40
2.0
100
AcDbArc
 50
180.0
 51
270.0
  0
ARC
  5
26CB
330
1A
100
AcDbEntity
  8
SEIHIN
  6
Continuous
 62
     3
 48
5.0
100
AcDbCircle
 10
509.2193459844361
 20
231.6730176434109
 30
0.0
 40
1.0
100
AcDbArc
 50
180.0
 51
270.0
  0
LINE
  5
26CC
330
1A
100
AcDbEntity
  8
CENTER L
  6
CENTER
 62
     1
 48
5.0
100
AcDbLine
 10
498.7193459844361
 20
242.6730176434109
 30
0.0
 11
498.7193459844361
 21
227.4753346388108
 31
0.0
  0
ARC
  5
26CD
330
1A
100
AcDbEntity
  8
SEIHIN
  6
Continuous
 62
     3
 48
5.0
100
AcDbCircle
 10
498.7193459844361
 20
232.3730176434108
 30
0.0
 40
3.299999999999999
100
AcDbArc
 50
100.8253905062999
 51
79.17460949370009
  0
DIMENSION
  5
26CE
330
1A
100
AcDbEntity
  8
SUNPOU
 48
5.0
100
AcDbDimension
  2
*D12
 10
466.9856064229896
 20
237.6730176434109
 30
0.0
 11
466.9856064229895
 21
266.9937587438001
 31
0.0
 70
   160
 71
     5
 42
-1.0
  3
STANDARD
100
AcDbAlignedDimension
 13
498.3343939322273
 23
247.4937587438001
 33
0.0
 14
493.7193459844361
 24
237.6730176434109
 34
0.0
 50
90.0
100
AcDbRotatedDimension
1001
ACAD
1000
DSTYLE
1002
{
1070
   288
1070
     1
1070
   140
1040
6.0
1070
    74
1070
     0
1070
   172
1070
     1
1070
    73
1070
     0
1070
   272
1070
     2
1070
    77
1070
     3
1070
   173
1070
     1
1070
   147
1040
2.0
1070
    42
1040
6.0
1070
    44
1040
3.0
1070
    43
1040
14.0
1070
   271
1070
     0
1070
   178
1070
     4
1070
   177
1070
     4
1070
   176
1070
     4
1070
   141
1040
150.0
1070
     7
1000
_OPEN
1070
     6
1000
_OPEN
1070
    41
1040
7.0
1002
}
  0
LINE
  5
26CF
330
1A
100
AcDbEntity
  8
SEIHIN
  6
Continuous
 62
     3
 48
5.0
100
AcDbLine
 10
490.2193459844361
 20
237.6730176434109
 30
0.0
 11
490.2193459844361
 21
207.6730176434109
 31
0.0
  0
LINE
  5
26D0
330
1A
100
AcDbEntity
  8
CENTER L
  6
CENTER
 62
     1
 48
5.0
100
AcDbLine
 10
525.2193459844361
 20
254.8124233957107
 30
0.0
 11
525.2193459844361
 21
190.8898205776108
 31
0.0
  0
DIMENSION
  5
26D1
330
1A
100
AcDbEntity
  8
SUNPOU
 48
5.0
100
AcDbDimension
  2
*D13
 10
466.9856064229895
 20
197.6730176434108
 30
0.0
 11
461.9856064229894
 21
178.1730176434109
 31
0.0
 70
    32
 71
     5
 42
-1.0
  3
STANDARD
100
AcDbAlignedDimension
 13
493.7193459844361
 23
207.6730176434109
 33
0.0
 14
500.2193459844361
 24
197.6730176434108
 34
0.0
 50
90.0
100
AcDbRotatedDimension
1001
ACAD
1000
DSTYLE
1002
{
1070
   140
1040
6.0
1070
    74
1070
     0
1070
   172
1070
     1
1070
    73
1070
     0
1070
   272
1070
     2
1070
    77
1070
     3
1070
   173
1070
     1
1070
   147
1040
2.0
1070
    42
1040
6.0
1070
    44
1040
3.0
1070
    43
1040
14.0
1070
   271
1070
     0
1070
   178
1070
     4
1070
   177
1070
     4
1070
   176
1070
     4
1070
   141
1040
150.0
1070
     7
1000
_OPEN
1070
     6
1000
_OPEN
1070
    41
1040
7.0
1002
}
  0
ARC
  5
26D2
330
1A
100
AcDbEntity
  8
SEIHIN
  6
Continuous
 62
     3
 48
5.0
100
AcDbCircle
 10
498.7193459844361
 20
221.1730176434108
 30
0.0
 40
3.5
100
AcDbArc
 50
90.0
 51
180.0
  0
ARC
  5
26D3
330
1A
100
AcDbEntity
  8
SEIHIN
  6
Continuous
 62
     3
 48
5.0
100
AcDbCircle
 10
498.7193459844361
 20
218.1730176434109
 30
0.0
 40
3.5
100
AcDbArc
 50
180.0
 51
270.0
  0
ARC
  5
26D4
330
1A
100
AcDbEntity
  8
SEIHIN
  6
Continuous
 62
     3
 48
5.0
100
AcDbCircle
 10
500.2193459844361
 20
207.6730176434109
 30
0.0
 40
10.0
100
AcDbArc
 50
180.0
 51
270.0
  0
LINE
  5
26D5
330
1A
100
AcDbEntity
  8
CENTER L
  6
CENTER
 62
     1
 48
5.0
100
AcDbLine
 10
493.7193459844361
 20
207.6730176434109
 30
0.0
 11
503.7193459844361
 21
207.6730176434109
 31
0.0
  0
LINE
  5
26D6
330
1A
100
AcDbEntity
  8
CENTER L
  6
CENTER
 62
     1
 48
5.0
100
AcDbLine
 10
498.7193459844361
 20
212.6730176434108
 30
0.0
 11
498.7193459844361
 21
202.6730176434108
 31
0.0
  0
ARC
  5
26D7
330
1A
100
AcDbEntity
  8
SEIHIN
  6
Continuous
 62
     3
 48
5.0
100
AcDbCircle
 10
498.7193459844361
 20
207.6730176434109
 30
0.0
 40
7.0
100
AcDbArc
 50
0.0
 51
90.0
  0
CIRCLE
  5
26D8
330
1A
100
AcDbEntity
  8
SEIHIN
  6
Continuous
 62
     3
 48
5.0
100
AcDbCircle
 10
498.7193459844361
 20
207.6730176434109
 30
0.0
 40
2.149999999999999
  0
ARC
  5
26D9
330
1A
100
AcDbEntity
  8
SEIHIN
  6
Continuous
 62
     3
 48
5.0
100
AcDbCircle
 10
498.7193459844361
 20
207.6730176434109
 30
0.0
 40
10.0
100
AcDbArc
 50
0.0
 51
90.0
  0
LINE
  5
26DA
330
1A
100
AcDbEntity
  8
SEIHIN
  6
Continuous
 62
     3
 48
5.0
100
AcDbLine
 10
519.7193459844361
 20
221.1730176434108
 30
0.0
 11
519.7193459844361
 21
206.1730176434108
 31
0.0
  0
LINE
  5
26DB
330
1A
100
AcDbEntity
  8
SEIHIN
  6
Continuous
 62
     3
 48
5.0
100
AcDbLine
 10
522.7193459844361
 20
221.1730176434108
 30
0.0
 11
522.7193459844361
 21
206.1730176434108
 31
0.0
  0
LINE
  5
26DC
330
1A
100
AcDbEntity
  8
SEIHIN
  6
Continuous
 62
     3
 48
5.0
100
AcDbLine
 10
509.2193459844361
 20
205.6730176434109
 30
0.0
 11
519.2193459844361
 21
205.6730176434109
 31
0.0
  0
LINE
  5
26DD
330
1A
100
AcDbEntity
  8
SEIHIN
  6
Continuous
 62
     3
 48
5.0
100
AcDbLine
 10
509.2193459844361
 20
202.6730176434108
 30
0.0
 11
519.2193459844361
 21
202.6730176434108
 31
0.0
  0
ARC
  5
26DE
330
1A
100
AcDbEntity
  8
SEIHIN
  6
Continuous
 62
     3
 48
5.0
100
AcDbCircle
 10
509.2193459844361
 20
206.1730176434108
 30
0.0
 40
0.5
100
AcDbArc
 50
180.0
 51
270.0
  0
LINE
  5
26DF
330
1A
100
AcDbEntity
  8
SEIHIN
  6
Continuous
 62
     3
 48
5.0
100
AcDbLine
 10
508.7193459844361
 20
207.6730176434109
 30
0.0
 11
508.7193459844361
 21
206.1730176434108
 31
0.0
  0
LINE
  5
26E0
330
1A
100
AcDbEntity
  8
SEIHIN
  6
Continuous
 62
     3
 48
5.0
100
AcDbLine
 10
505.7193459844361
 20
207.6730176434109
 30
0.0
 11
505.7193459844361
 21
206.1730176434108
 31
0.0
  0
ARC
  5
26E1
330
1A
100
AcDbEntity
  8
SEIHIN
  6
Continuous
 62
     3
 48
5.0
100
AcDbCircle
 10
509.2193459844361
 20
206.1730176434108
 30
0.0
 40
3.5
100
AcDbArc
 50
180.0
 51
270.0
  0
ARC
  5
26E2
330
1A
100
AcDbEntity
  8
SEIHIN
  6
Continuous
 62
     3
 48
5.0
100
AcDbCircle
 10
519.2193459844361
 20
206.1730176434108
 30
0.0
 40
0.5
100
AcDbArc
 50
270.0
 51
0.0
  0
ARC
  5
26E3
330
1A
100
AcDbEntity
  8
SEIHIN
  6
Continuous
 62
     3
 48
5.0
100
AcDbCircle
 10
519.2193459844361
 20
206.1730176434108
 30
0.0
 40
3.5
100
AcDbArc
 50
270.0
 51
0.0
  0
LINE
  5
26E4
330
1A
100
AcDbEntity
  8
SEIHIN
  6
Continuous
 62
     3
 48
5.0
100
AcDbLine
 10
498.7193459844361
 20
221.6730176434108
 30
0.0
 11
519.2193459844361
 21
221.6730176434108
 31
0.0
  0
LINE
  5
26E5
330
1A
100
AcDbEntity
  8
SEIHIN
  6
Continuous
 62
     3
 48
5.0
100
AcDbLine
 10
498.7193459844361
 20
224.6730176434108
 30
0.0
 11
519.2193459844361
 21
224.6730176434108
 31
0.0
  0
LINE
  5
26E6
330
1A
100
AcDbEntity
  8
SEIHIN
  6
Continuous
 62
     3
 48
5.0
100
AcDbLine
 10
498.2193459844361
 20
221.1730176434108
 30
0.0
 11
498.2193459844361
 21
218.1730176434109
 31
0.0
  0
LINE
  5
26E7
330
1A
100
AcDbEntity
  8
SEIHIN
  6
Continuous
 62
     3
 48
5.0
100
AcDbLine
 10
495.2193459844361
 20
221.1730176434108
 30
0.0
 11
495.2193459844361
 21
218.1730176434109
 31
0.0
  0
ARC
  5
26E8
330
1A
100
AcDbEntity
  8
SEIHIN
  6
Continuous
 62
     3
 48
5.0
100
AcDbCircle
 10
498.7193459844361
 20
218.1730176434109
 30
0.0
 40
0.5
100
AcDbArc
 50
180.0
 51
270.0
  0
ARC
  5
26E9
330
1A
100
AcDbEntity
  8
SEIHIN
  6
Continuous
 62
     3
 48
5.0
100
AcDbCircle
 10
498.7193459844361
 20
221.1730176434108
 30
0.0
 40
0.5
100
AcDbArc
 50
90.0
 51
180.0
  0
ARC
  5
26EA
330
1A
100
AcDbEntity
  8
SEIHIN
  6
Continuous
 62
     3
 48
5.0
100
AcDbCircle
 10
519.2193459844361
 20
221.1730176434108
 30
0.0
 40
0.5
100
AcDbArc
 50
0.0
 51
90.0
  0
ARC
  5
26EB
330
1A
100
AcDbEntity
  8
SEIHIN
  6
Continuous
 62
     3
 48
5.0
100
AcDbCircle
 10
519.2193459844361
 20
221.1730176434108
 30
0.0
 40
3.5
100
AcDbArc
 50
0.0
 51
90.0
  0
LEADER
  5
26EC
330
1A
100
AcDbEntity
  8
SUNPOU
 62
     4
100
AcDbLeader
  3
STANDARD
 73
     0
 40
6.0
 41
31.2
 76
     3
 10
497.409404170716
 20
239.3778790585023
 30
0.0
 10
481.5638114257449
 20
274.1741709121212
 30
0.0
 10
480.1220681758699
 20
274.2954598186387
 30
0.0
1001
ACAD
1000
DSTYLE
1002
{
1070
     6
1000
OPEN
1070
    41
1040
7.0
1070
    42
1040
6.0
1070
    43
1040
14.0
1070
    44
1040
3.0
1070
    73
1070
     0
1070
    74
1070
     0
1070
    77
1070
     3
1070
   140
1040
6.0
1070
   141
1040
150.0
1070
   147
1040
2.0
1070
   172
1070
     1
1070
   173
1070
     1
1070
   176
1070
     4
1070
   177
1070
     4
1070
   178
1070
     4
1070
   271
1070
     0
1070
   272
1070
     2
1070
   341
1005
6D
1070
   343
1005
6D
1070
   344
1005
6D
1002
}
  0
MTEXT
  5
26ED
330
1A
100
AcDbEntity
  8
SUNPOU
 62
     4
100
AcDbMText
 10
478.12206817587
 20
276.2954598186387
 30
0.0
 40
6.0
 41
0.0
 71
     9
 72
     5
  1
4-\U+03c64.2
 73
     1
 44
1.0
1001
ACAD
1000
MTEXTBEGIN
1070
    73
1070
     1
1070
    44
1040
1.0
1070
    74
1070
     0
1000
MTEXTEND
  0
ARC
  5
26EE
330
1A
100
AcDbEntity
  8
SEIHIN
  6
Continuous
 62
     3
 48
5.0
100
AcDbCircle
 10
500.2193459844361
 20
237.6730176434109
 30
0.0
 40
10.0
100
AcDbArc
 50
90.0
 51
180.0
  0
LINE
  5
26EF
330
1A
100
AcDbEntity
  8
CENTER L
  6
CENTER
 62
     1
 48
5.0
100
AcDbLine
 10
493.7193459844361
 20
237.6730176434109
 30
0.0
 11
503.7193459844361
 21
237.6730176434109
 31
0.0
  0
LINE
  5
26F0
330
1A
100
AcDbEntity
  8
CENTER L
  6
CENTER
 62
     1
 48
5.0
100
AcDbLine
 10
493.7193459844361
 20
232.3730176434108
 30
0.0
 11
503.7193459844361
 21
232.3730176434108
 31
0.0
  0
ARC
  5
26F1
330
1A
100
AcDbEntity
  8
SEIHIN
  6
Continuous
 62
     3
 48
5.0
100
AcDbCircle
 10
509.2193459844361
 20
240.6730176434109
 30
0.0
 40
2.0
100
AcDbArc
 50
90.0
 51
180.0
  0
ARC
  5
26F2
330
1A
100
AcDbEntity
  8
SEIHIN
  6
Continuous
 62
     3
 48
5.0
100
AcDbCircle
 10
498.7193459844361
 20
237.6730176434109
 30
0.0
 40
2.149999999999999
100
AcDbArc
 50
286.7548086972
 51
253.2451913028
  0
LINE
  5
26F3
330
1A
100
AcDbEntity
  8
SEIHIN
  6
Continuous
 62
     3
 48
5.0
100
AcDbLine
 10
507.2193459844361
 20
240.6730176434109
 30
0.0
 11
507.2193459844361
 21
231.6730176434109
 31
0.0
  0
LINE
  5
26F4
330
1A
100
AcDbEntity
  8
SEIHIN
  6
Continuous
 62
     3
 48
5.0
100
AcDbLine
 10
508.219345984436
 20
240.6730176434109
 30
0.0
 11
508.219345984436
 21
231.6730176434109
 31
0.0
  0
ARC
  5
26F5
330
1A
100
AcDbEntity
  8
SEIHIN
  6
Continuous
 62
     3
 48
5.0
100
AcDbCircle
 10
509.2193459844361
 20
240.6730176434109
 30
0.0
 40
1.0
100
AcDbArc
 50
90.0
 51
180.0
  0
ARC
  5
26F6
330
1A
100
AcDbEntity
  8
SEIHIN
  6
Continuous
 62
     3
 48
5.0
100
AcDbCircle
 10
551.7193459844361
 20
232.3730176434108
 30
0.0
 40
3.299999999999999
100
AcDbArc
 50
100.8253905062999
 51
79.17460949370009
  0
ARC
  5
26F7
330
1A
100
AcDbEntity
  8
SEIHIN
  6
Continuous
 62
     3
 48
5.0
100
AcDbCircle
 10
541.2193459844361
 20
231.6730176434109
 30
0.0
 40
1.0
100
AcDbArc
 50
270.0
 51
0.0
  0
ARC
  5
26F8
330
1A
100
AcDbEntity
  8
SEIHIN
  6
Continuous
 62
     3
 48
5.0
100
AcDbCircle
 10
541.2193459844361
 20
231.6730176434109
 30
0.0
 40
2.0
100
AcDbArc
 50
270.0
 51
0.0
  0
LINE
  5
26F9
330
1A
100
AcDbEntity
  8
CENTER L
  6
CENTER
 62
     1
 48
5.0
100
AcDbLine
 10
551.7193459844361
 20
242.6730176434109
 30
0.0
 11
551.7193459844361
 21
226.6809108616108
 31
0.0
  0
LINE
  5
26FA
330
1A
100
AcDbEntity
  8
SEIHIN
  6
Continuous
 62
     3
 48
5.0
100
AcDbLine
 10
560.2193459844361
 20
237.6730176434109
 30
0.0
 11
560.2193459844361
 21
207.6730176434109
 31
0.0
  0
DIMENSION
  5
26FB
330
1A
100
AcDbEntity
  8
SUNPOU
 48
5.0
100
AcDbDimension
  2
*D14
 10
592.6612556547095
 20
232.3730176434108
 30
0.0
 11
592.6612556547095
 21
240.0230176434109
 31
0.0
 70
   160
 71
     5
 42
-1.0
  3
STANDARD
100
AcDbAlignedDimension
 13
550.2193459844361
 23
247.6730176434108
 33
0.0
 14
556.7193459844361
 24
232.3730176434108
 34
0.0
 50
90.0
100
AcDbRotatedDimension
1001
ACAD
1000
DSTYLE
1002
{
1070
   288
1070
     1
1070
   140
1040
6.0
1070
    74
1070
     0
1070
   172
1070
     1
1070
    73
1070
     0
1070
   272
1070
     2
1070
    77
1070
     3
1070
   173
1070
     1
1070
   147
1040
2.0
1070
    42
1040
6.0
1070
    44
1040
3.0
1070
    43
1040
14.0
1070
   271
1070
     0
1070
   178
1070
     4
1070
   177
1070
     4
1070
   176
1070
     4
1070
   141
1040
150.0
1070
     7
1000
_OPEN
1070
     6
1000
_OPEN
1070
    41
1040
7.0
1002
}
  0
MTEXT
  5
26FC
330
1A
100
AcDbEntity
  8
SUNPOU
 62
     4
100
AcDbMText
 10
577.4878957318033
 20
202.8794321972272
 30
0.0
 40
6.0
 41
0.0
 71
     7
 72
     5
  1
2-\U+03c66.5
 73
     1
 44
1.0
1001
ACAD
1000
MTEXTBEGIN
1070
    73
1070
     1
1070
    44
1040
1.0
1070
    74
1070
     0
1000
MTEXTEND
  0
LEADER
  5
26FD
330
1A
100
AcDbEntity
  8
SUNPOU
 62
     4
100
AcDbLeader
  3
STANDARD
 73
     0
 74
     0
 40
6.0
 41
31.2
 76
     3
 10
554.6571671485819
 20
230.8699518406274
 30
0.0
 10
572.9363684907257
 20
200.8794321972272
 30
0.0
 10
575.4878957318033
 20
200.8794321972272
 30
0.0
1001
ACAD
1000
DSTYLE
1002
{
1070
     6
1000
OPEN
1070
    41
1040
7.0
1070
    42
1040
6.0
1070
    43
1040
14.0
1070
    44
1040
3.0
1070
    73
1070
     0
1070
    74
1070
     0
1070
    77
1070
     3
1070
   140
1040
6.0
1070
   141
1040
150.0
1070
   147
1040
2.0
1070
   172
1070
     1
1070
   173
1070
     1
1070
   176
1070
     4
1070
   177
1070
     4
1070
   178
1070
     4
1070
   271
1070
     0
1070
   272
1070
     2
1070
   341
1005
6D
1070
   343
1005
6D
1070
   344
1005
6D
1002
}
  0
ARC
  5
26FE
330
1A
100
AcDbEntity
  8
SEIHIN
  6
Continuous
 62
     3
 48
5.0
100
AcDbCircle
 10
550.2193459844361
 20
207.6730176434109
 30
0.0
 40
10.0
100
AcDbArc
 50
270.0
 51
0.0
  0
CIRCLE
  5
26FF
330
1A
100
AcDbEntity
  8
SEIHIN
  6
Continuous
 62
     3
 48
5.0
100
AcDbCircle
 10
551.7193459844361
 20
207.6730176434109
 30
0.0
 40
2.149999999999999
  0
LINE
  5
2700
330
1A
100
AcDbEntity
  8
CENTER L
  6
CENTER
 62
     1
 48
5.0
100
AcDbLine
 10
551.7193459844361
 20
212.6730176434108
 30
0.0
 11
551.7193459844361
 21
202.6730176434108
 31
0.0
  0
ARC
  5
2701
330
1A
100
AcDbEntity
  8
SEIHIN
  6
Continuous
 62
     3
 48
5.0
100
AcDbCircle
 10
551.7193459844361
 20
207.6730176434109
 30
0.0
 40
7.0
100
AcDbArc
 50
90.0
 51
180.0
  0
ARC
  5
2702
330
1A
100
AcDbEntity
  8
SEIHIN
  6
Continuous
 62
     3
 48
5.0
100
AcDbCircle
 10
551.7193459844361
 20
207.6730176434109
 30
0.0
 40
10.0
100
AcDbArc
 50
90.0
 51
180.0
  0
LINE
  5
2703
330
1A
100
AcDbEntity
  8
SEIHIN
  6
Continuous
 62
     3
 48
5.0
100
AcDbLine
 10
530.7193459844361
 20
221.1730176434108
 30
0.0
 11
530.7193459844361
 21
206.1730176434108
 31
0.0
  0
LINE
  5
2704
330
1A
100
AcDbEntity
  8
SEIHIN
  6
Continuous
 62
     3
 48
5.0
100
AcDbLine
 10
527.7193459844361
 20
221.1730176434108
 30
0.0
 11
527.7193459844361
 21
206.1730176434108
 31
0.0
  0
ARC
  5
2705
330
1A
100
AcDbEntity
  8
SEIHIN
  6
Continuous
 62
     3
 48
5.0
100
AcDbCircle
 10
541.2193459844361
 20
206.1730176434108
 30
0.0
 40
3.5
100
AcDbArc
 50
270.0
 51
0.0
  0
LINE
  5
2706
330
1A
100
AcDbEntity
  8
SEIHIN
  6
Continuous
 62
     3
 48
5.0
100
AcDbLine
 10
541.2193459844361
 20
205.6730176434109
 30
0.0
 11
531.2193459844361
 21
205.6730176434109
 31
0.0
  0
LINE
  5
2707
330
1A
100
AcDbEntity
  8
SEIHIN
  6
Continuous
 62
     3
 48
5.0
100
AcDbLine
 10
541.2193459844361
 20
202.6730176434108
 30
0.0
 11
531.2193459844361
 21
202.6730176434108
 31
0.0
  0
ARC
  5
2708
330
1A
100
AcDbEntity
  8
SEIHIN
  6
Continuous
 62
     3
 48
5.0
100
AcDbCircle
 10
531.2193459844361
 20
206.1730176434108
 30
0.0
 40
0.5
100
AcDbArc
 50
180.0
 51
270.0
  0
ARC
  5
2709
330
1A
100
AcDbEntity
  8
SEIHIN
  6
Continuous
 62
     3
 48
5.0
100
AcDbCircle
 10
541.2193459844361
 20
206.1730176434108
 30
0.0
 40
0.5
100
AcDbArc
 50
270.0
 51
0.0
  0
LINE
  5
270A
330
1A
100
AcDbEntity
  8
SEIHIN
  6
Continuous
 62
     3
 48
5.0
100
AcDbLine
 10
541.7193459844361
 20
207.6730176434109
 30
0.0
 11
541.7193459844361
 21
206.1730176434108
 31
0.0
  0
LINE
  5
270B
330
1A
100
AcDbEntity
  8
CENTER L
  6
CENTER
 62
     1
 48
5.0
100
AcDbLine
 10
556.7193459844361
 20
207.6730176434109
 30
0.0
 11
546.7193459844361
 21
207.6730176434109
 31
0.0
  0
LINE
  5
270C
330
1A
100
AcDbEntity
  8
SEIHIN
  6
Continuous
 62
     3
 48
5.0
100
AcDbLine
 10
544.7193459844361
 20
207.6730176434109
 30
0.0
 11
544.7193459844361
 21
206.1730176434108
 31
0.0
  0
LINE
  5
270D
330
1A
100
AcDbEntity
  8
SEIHIN
  6
Continuous
 62
     3
 48
5.0
100
AcDbLine
 10
551.7193459844361
 20
221.6730176434108
 30
0.0
 11
531.2193459844361
 21
221.6730176434108
 31
0.0
  0
LINE
  5
270E
330
1A
100
AcDbEntity
  8
SEIHIN
  6
Continuous
 62
     3
 48
5.0
100
AcDbLine
 10
551.7193459844361
 20
224.6730176434108
 30
0.0
 11
531.2193459844361
 21
224.6730176434108
 31
0.0
  0
ARC
  5
270F
330
1A
100
AcDbEntity
  8
SEIHIN
  6
Continuous
 62
     3
 48
5.0
100
AcDbCircle
 10
531.2193459844361
 20
221.1730176434108
 30
0.0
 40
0.5
100
AcDbArc
 50
90.0
 51
180.0
  0
LINE
  5
2710
330
1A
100
AcDbEntity
  8
SEIHIN
  6
Continuous
 62
     3
 48
5.0
100
AcDbLine
 10
552.2193459844361
 20
221.1730176434108
 30
0.0
 11
552.2193459844361
 21
218.1730176434109
 31
0.0
  0
LINE
  5
2711
330
1A
100
AcDbEntity
  8
SEIHIN
  6
Continuous
 62
     3
 48
5.0
100
AcDbLine
 10
555.2193459844361
 20
221.1730176434108
 30
0.0
 11
555.2193459844361
 21
218.1730176434109
 31
0.0
  0
ARC
  5
2712
330
1A
100
AcDbEntity
  8
SEIHIN
  6
Continuous
 62
     3
 48
5.0
100
AcDbCircle
 10
551.7193459844361
 20
218.1730176434109
 30
0.0
 40
0.5
100
AcDbArc
 50
270.0
 51
0.0
  0
ARC
  5
2713
330
1A
100
AcDbEntity
  8
SEIHIN
  6
Continuous
 62
     3
 48
5.0
100
AcDbCircle
 10
551.7193459844361
 20
218.1730176434109
 30
0.0
 40
3.5
100
AcDbArc
 50
270.0
 51
0.0
  0
ARC
  5
2714
330
1A
100
AcDbEntity
  8
SEIHIN
  6
Continuous
 62
     3
 48
5.0
100
AcDbCircle
 10
551.7193459844361
 20
221.1730176434108
 30
0.0
 40
0.5
100
AcDbArc
 50
0.0
 51
90.0
  0
ARC
  5
2715
330
1A
100
AcDbEntity
  8
SEIHIN
  6
Continuous
 62
     3
 48
5.0
100
AcDbCircle
 10
551.7193459844361
 20
221.1730176434108
 30
0.0
 40
3.5
100
AcDbArc
 50
0.0
 51
90.0
  0
ARC
  5
2716
330
1A
100
AcDbEntity
  8
SEIHIN
  6
Continuous
 62
     3
 48
5.0
100
AcDbCircle
 10
550.2193459844361
 20
237.6730176434109
 30
0.0
 40
10.0
100
AcDbArc
 50
0.0
 51
90.0
  0
ARC
  5
2717
330
1A
100
AcDbEntity
  8
SEIHIN
  6
Continuous
 62
     3
 48
5.0
100
AcDbCircle
 10
541.2193459844361
 20
240.6730176434109
 30
0.0
 40
2.0
100
AcDbArc
 50
0.0
 51
90.0
  0
LINE
  5
2718
330
1A
100
AcDbEntity
  8
SEIHIN
  6
Continuous
 62
     3
 48
5.0
100
AcDbLine
 10
543.2193459844361
 20
240.6730176434109
 30
0.0
 11
543.2193459844361
 21
231.6730176434109
 31
0.0
  0
LINE
  5
2719
330
1A
100
AcDbEntity
  8
SEIHIN
  6
Continuous
 62
     3
 48
5.0
100
AcDbLine
 10
542.2193459844361
 20
240.6730176434109
 30
0.0
 11
542.2193459844361
 21
231.6730176434109
 31
0.0
  0
ARC
  5
271A
330
1A
100
AcDbEntity
  8
SEIHIN
  6
Continuous
 62
     3
 48
5.0
100
AcDbCircle
 10
541.2193459844361
 20
240.6730176434109
 30
0.0
 40
1.0
100
AcDbArc
 50
0.0
 51
90.0
  0
ARC
  5
271B
330
1A
100
AcDbEntity
  8
SEIHIN
  6
Continuous
 62
     3
 48
5.0
100
AcDbCircle
 10
551.7193459844361
 20
237.6730176434109
 30
0.0
 40
2.149999999999999
100
AcDbArc
 50
286.7548086973005
 51
253.2451913028
  0
LINE
  5
271C
330
1A
100
AcDbEntity
  8
CENTER L
  6
CENTER
 62
     1
 48
5.0
100
AcDbLine
 10
556.7193459844361
 20
232.3730176434108
 30
0.0
 11
546.7193459844361
 21
232.3730176434108
 31
0.0
  0
LINE
  5
271D
330
1A
100
AcDbEntity
  8
CENTER L
  6
CENTER
 62
     1
 48
5.0
100
AcDbLine
 10
556.7193459844361
 20
237.6730176434109
 30
0.0
 11
546.7193459844361
 21
237.6730176434109
 31
0.0
  0
VIEWPORT
  5
22
102
{ACAD_XDICTIONARY
360
2C1B
102
}
330
17
100
AcDbEntity
 67
     1
  8
0
100
AcDbViewport
 10
313.6808219178083
 20
148.5
 30
0.0
 40
627.3616438356165
 41
297.0
 68
     2
 69
     1
 12
313.6808219178083
 22
148.5
 13
0.0
 23
0.0
 14
1.0
 24
1.0
 15
10.0
 25
10.0
 16
0.0
 26
0.0
 36
1.0
 17
0.0
 27
0.0
 37
0.0
 42
50.0
 43
0.0
 44
0.0
 45
297.0
 50
0.0
 51
0.0
 72
   100
 90
    32768
  1

281
     0
 71
     1
 74
     0
110
0.0
120
0.0
130
0.0
111
1.0
121
0.0
131
0.0
112
0.0
122
1.0
132
0.0
 79
     0
146
0.0
  0
VIEWPORT
  5
64
102
{ACAD_XDICTIONARY
360
2C1D
102
}
330
17
100
AcDbEntity
 67
     1
  8
VIEWPORT
100
AcDbViewport
 10
210.0
 20
148.5
 30
0.0
 40
420.0
 41
297.0
 68
     1
 69
     2
 12
420.0
 22
297.0
 13
0.0
 23
0.0
 14
10.0
 24
10.0
 15
0.0
 25
0.0
 16
0.0
 26
0.0
 36
1.0
 17
0.0
 27
0.0
 37
0.0
 42
50.0
 43
0.0
 44
0.0
 45
605.8799999999998
 50
0.0
 51
0.0
 72
   100
 90
    32768
  1

281
     0
 71
     1
 74
     0
110
0.0
120
0.0
130
0.0
111
1.0
121
0.0
131
0.0
112
0.0
122
1.0
132
0.0
 79
     0
146
0.0
  0
ENDSEC
  0
SECTION
  2
OBJECTS
  0
DICTIONARY
  5
C
330
0
100
AcDbDictionary
281
     1
  3
ACAD_COLOR
350
2BFB
  3
ACAD_GROUP
350
D
  3
ACAD_LAYOUT
350
85F
  3
ACAD_MATERIAL
350
2BFA
  3
ACAD_MLINESTYLE
350
E
  3
ACAD_PLOTSETTINGS
350
860
  3
ACAD_PLOTSTYLENAME
350
85D
  3
ACDBHEADERROUNDTRIPXREC
350
2C18
  3
AcDbVariableDictionary
350
2C14
  0
DICTIONARY
  5
88E
330
1A
100
AcDbDictionary
280
     1
281
     1
  3
ACAD_LAYOUTSELFREF
360
2A3E
  0
DICTIONARY
  5
88C
330
17
100
AcDbDictionary
280
     1
281
     1
  3
ACAD_LAYOUTSELFREF
360
2A3D
  0
DICTIONARY
  5
2C1B
330
22
100
AcDbDictionary
280
     1
281
     1
  3
ACAD_XREC_ROUNDTRIP
360
2C1C
  0
DICTIONARY
  5
2C1D
330
64
100
AcDbDictionary
280
     1
281
     1
  3
ACAD_XREC_ROUNDTRIP
360
2C1E
  0
DICTIONARY
  5
2BFB
102
{ACAD_REACTORS
330
C
102
}
330
C
100
AcDbDictionary
281
     1
  0
DICTIONARY
  5
D
102
{ACAD_REACTORS
330
C
102
}
330
C
100
AcDbDictionary
281
     1
  0
DICTIONARY
  5
85F
102
{ACAD_REACTORS
330
C
102
}
330
C
100
AcDbDictionary
281
     1
  3
Model
350
861
  3
ﾚｲｱｳﾄ1
350
862
  0
DICTIONARY
  5
2BFA
102
{ACAD_REACTORS
330
C
102
}
330
C
100
AcDbDictionary
281
     1
  0
DICTIONARY
  5
E
102
{ACAD_REACTORS
330
C
102
}
330
C
100
AcDbDictionary
281
     1
  3
STANDARD
350
13
  0
DICTIONARY
  5
860
102
{ACAD_REACTORS
330
C
102
}
330
C
100
AcDbDictionary
281
     1
  0
ACDBDICTIONARYWDFLT
  5
85D
102
{ACAD_REACTORS
330
C
102
}
330
C
100
AcDbDictionary
281
     1
  3
Normal
350
85E
100
AcDbDictionaryWithDefault
340
85E
1001
ACAD
1000
TREAT_AS_HARD
1070
     0
1000
TREAT_AS_HARD
1070
     0
1000
TREAT_AS_HARD
1070
     0
1000
TREAT_AS_HARD
1070
     0
1000
TREAT_AS_HARD
1070
     0
1000
TREAT_AS_HARD
1070
     0
  0
DICTIONARY
  5
2C18
102
{ACAD_REACTORS
330
C
102
}
330
C
100
AcDbDictionary
281
     1
  3
COLORDICT
350
2C1A
  3
MATERIALDICT
350
2C19
  0
DICTIONARY
  5
2C14
102
{ACAD_REACTORS
330
C
102
}
330
C
100
AcDbDictionary
281
     1
  3
DIMASSOC
350
2C15
  3
PROJECTNAME
350
2C16
  0
XRECORD
  5
2A3E
102
{ACAD_REACTORS
330
88E
102
}
330
88E
100
AcDbXrecord
280
     1
340
1A
  0
XRECORD
  5
2A3D
102
{ACAD_REACTORS
330
88C
102
}
330
88C
100
AcDbXrecord
280
     1
340
17
  0
XRECORD
  5
2C1C
102
{ACAD_REACTORS
330
2C1B
102
}
330
2C1B
100
AcDbXrecord
280
     1
102
SHADEPLOT
 70
     0
  0
XRECORD
  5
2C1E
102
{ACAD_REACTORS
330
2C1D
102
}
330
2C1D
100
AcDbXrecord
280
     1
102
SHADEPLOT
 70
     0
  0
LAYOUT
  5
861
102
{ACAD_XDICTIONARY
360
2C1F
102
}
102
{ACAD_REACTORS
330
85F
102
}
330
85F
100
AcDbPlotSettings
  1

  2
Acrobat Distiller
  4
A3
  6

 40
3.174999952316284
 41
3.174999952316284
 42
3.17498779296875
 43
3.17498779296875
 44
297.0318298339844
 45
420.1583251953125
 46
7.0
 47
7.0
 48
0.0
 49
0.0
140
0.0
141
0.0
142
1.0
143
2.0
 70
 28336
 72
     1
 73
     1
 74
     2
  7
print.ctb
 75
    17
147
0.5
148
0.0
149
0.0
100
AcDbLayout
  1
Model
 70
     1
 71
     0
 10
0.0
 20
0.0
 11
12.0
 21
9.0
 12
0.0
 22
0.0
 32
0.0
 14
0.0
 24
0.0
 34
0.0
 15
0.0
 25
0.0
 35
0.0
146
0.0
 13
0.0
 23
0.0
 33
0.0
 16
1.0
 26
0.0
 36
0.0
 17
0.0
 27
1.0
 37
0.0
 76
     0
330
1A
  0
LAYOUT
  5
862
102
{ACAD_XDICTIONARY
360
2C21
102
}
102
{ACAD_REACTORS
330
85F
102
}
330
85F
100
AcDbPlotSettings
  1

  2
C:\PROGRAM FILES\ACAD LT 2000\plotters\DWF ePlot.pc3
  4

  6

 40
0.0
 41
0.0
 42
0.0
 43
0.0
 44
0.0
 45
0.0
 46
0.0
 47
0.0
 48
0.0
 49
0.0
140
0.0
141
0.0
142
1.0
143
1.0
 70
   688
 72
     0
 73
     0
 74
     5
  7
print.ctb
 75
    16
147
1.0
148
0.0
149
0.0
100
AcDbLayout
  1
ﾚｲｱｳﾄ1
 70
     1
 71
     1
 10
0.0
 20
0.0
 11
420.0
 21
297.0
 12
0.0
 22
0.0
 32
0.0
 14
0.0
 24
0.0
 34
0.0
 15
420.0
 25
297.0
 35
0.0
146
0.0
 13
0.0
 23
0.0
 33
0.0
 16
1.0
 26
0.0
 36
0.0
 17
0.0
 27
1.0
 37
0.0
 76
     0
330
17
331
64
  0
MLINESTYLE
  5
13
102
{ACAD_REACTORS
330
E
102
}
330
E
100
AcDbMlineStyle
  2
STANDARD
 70
     0
  3

 62
     0
 51
90.0
 52
90.0
 71
     2
 49
0.5
 62
   256
  6
BYLAYER
 49
-0.5
 62
   256
  6
BYLAYER
  0
ACDBPLACEHOLDER
  5
85E
102
{ACAD_REACTORS
330
85D
102
}
330
85D
  0
XRECORD
  5
2C1A
102
{ACAD_REACTORS
330
2C18
102
}
330
2C18
100
AcDbXrecord
280
     1
340
2BFB
  0
XRECORD
  5
2C19
102
{ACAD_REACTORS
330
2C18
102
}
330
2C18
100
AcDbXrecord
280
     1
340
2BFA
  0
DICTIONARYVAR
  5
2C15
102
{ACAD_REACTORS
330
2C14
102
}
330
2C14
100
DictionaryVariables
280
     0
  1
1
  0
DICTIONARYVAR
  5
2C16
102
{ACAD_REACTORS
330
2C14
102
}
330
2C14
100
DictionaryVariables
280
     0
  1

  0
DICTIONARY
  5
2C1F
330
861
100
AcDbDictionary
280
     1
281
     1
  3
ACAD_XREC_ROUNDTRIP
360
2C20
  0
DICTIONARY
  5
2C21
330
862
100
AcDbDictionary
280
     1
281
     1
  3
ACAD_XREC_ROUNDTRIP
360
2C22
  0
XRECORD
  5
2C20
102
{ACAD_REACTORS
330
2C1F
102
}
330
2C1F
100
AcDbXrecord
280
     1
102
SHADEPLOT
 70
     0
102
SHADEPLOTRESLEVEL
 70
     2
102
SHADEPLOTCUSTOMDPI
 70
   300
  0
XRECORD
  5
2C22
102
{ACAD_REACTORS
330
2C21
102
}
330
2C21
100
AcDbXrecord
280
     1
102
SHADEPLOT
 70
     0
102
SHADEPLOTRESLEVEL
 70
     2
102
SHADEPLOTCUSTOMDPI
 70
   300
  0
ENDSEC
  0
EOF
