  0
SECTION
  2
HEADER
  9
$ACADVER
  1
AC1015
  9
$ACADMAINTVER
 70
     6
  9
$DWGCODEPAGE
  3
ANSI_932
  9
$INSBASE
 10
0.0
 20
0.0
 30
0.0
  9
$EXTMIN
 10
10.05047808566086
 20
13.78258628282265
 30
0.0
  9
$EXTMAX
 10
807.6504780856607
 20
565.3825862828227
 30
0.0
  9
$LIMMIN
 10
0.0
 20
0.0
  9
$LIMMAX
 10
840.0
 20
594.0
  9
$ORTHOMODE
 70
     0
  9
$REGENMODE
 70
     1
  9
$FILLMODE
 70
     1
  9
$QTEXTMODE
 70
     0
  9
$MIRRTEXT
 70
     1
  9
$LTSCALE
 40
2.0
  9
$ATTMODE
 70
     1
  9
$TEXTSIZE
 40
5.0
  9
$TRACEWID
 40
1.0
  9
$TEXTSTYLE
  7
STANDARD
  9
$CLAYER
  8
0
  9
$CELTYPE
  6
BYLAYER
  9
$CECOLOR
 62
   256
  9
$CELTSCALE
 40
0.5
  9
$DISPSILH
 70
     0
  9
$DIMSCALE
 40
1.0
  9
$DIMASZ
 40
7.0
  9
$DIMEXO
 40
6.0
  9
$DIMDLI
 40
14.0
  9
$DIMRND
 40
0.0
  9
$DIMDLE
 40
0.0
  9
$DIMEXE
 40
3.0
  9
$DIMTP
 40
0.0
  9
$DIMTM
 40
0.0
  9
$DIMTXT
 40
6.0
  9
$DIMCEN
 40
150.0
  9
$DIMTSZ
 40
0.0
  9
$DIMTOL
 70
     0
  9
$DIMLIM
 70
     0
  9
$DIMTIH
 70
     0
  9
$DIMTOH
 70
     0
  9
$DIMSE1
 70
     0
  9
$DIMSE2
 70
     0
  9
$DIMTAD
 70
     3
  9
$DIMZIN
 70
     0
  9
$DIMBLK
  1

  9
$DIMASO
 70
     1
  9
$DIMSHO
 70
     1
  9
$DIMPOST
  1

  9
$DIMAPOST
  1

  9
$DIMALT
 70
     0
  9
$DIMALTD
 70
     2
  9
$DIMALTF
 40
25.4
  9
$DIMLFAC
 40
1.0
  9
$DIMTOFL
 70
     1
  9
$DIMTVP
 40
0.0
  9
$DIMTIX
 70
     0
  9
$DIMSOXD
 70
     0
  9
$DIMSAH
 70
     1
  9
$DIMBLK1
  1
OPEN
  9
$DIMBLK2
  1
OPEN
  9
$DIMSTYLE
  2
STANDARD
  9
$DIMCLRD
 70
   256
  9
$DIMCLRE
 70
   256
  9
$DIMCLRT
 70
   256
  9
$DIMTFAC
 40
1.0
  9
$DIMGAP
 40
2.0
  9
$DIMJUST
 70
     0
  9
$DIMSD1
 70
     0
  9
$DIMSD2
 70
     0
  9
$DIMTOLJ
 70
     1
  9
$DIMTZIN
 70
     0
  9
$DIMALTZ
 70
     0
  9
$DIMALTTZ
 70
     0
  9
$DIMUPT
 70
     0
  9
$DIMDEC
 70
     0
  9
$DIMTDEC
 70
     0
  9
$DIMALTU
 70
     2
  9
$DIMALTTD
 70
     2
  9
$DIMTXSTY
  7
STANDARD
  9
$DIMAUNIT
 70
     0
  9
$DIMADEC
 70
     0
  9
$DIMALTRND
 40
0.0
  9
$DIMAZIN
 70
     0
  9
$DIMDSEP
 70
    46
  9
$DIMATFIT
 70
     3
  9
$DIMFRAC
 70
     0
  9
$DIMLDRBLK
  1
OPEN
  9
$DIMLUNIT
 70
     2
  9
$DIMLWD
 70
    -1
  9
$DIMLWE
 70
    -1
  9
$DIMTMOVE
 70
     0
  9
$LUNITS
 70
     2
  9
$LUPREC
 70
     4
  9
$SKETCHINC
 40
1.0
  9
$FILLETRAD
 40
0.5
  9
$AUNITS
 70
     0
  9
$AUPREC
 70
     0
  9
$MENU
  1
.
  9
$ELEVATION
 40
0.0
  9
$PELEVATION
 40
0.0
  9
$THICKNESS
 40
0.0
  9
$LIMCHECK
 70
     0
  9
$CHAMFERA
 40
20.0
  9
$CHAMFERB
 40
20.0
  9
$CHAMFERC
 40
40.0
  9
$CHAMFERD
 40
0.0
  9
$SKPOLY
 70
     0
  9
$TDCREATE
 40
2454866.469916053
  9
$TDUCREATE
 40
2454866.094916053
  9
$TDUPDATE
 40
2456216.591640497
  9
$TDUUPDATE
 40
2456216.216640497
  9
$TDINDWG
 40
0.1575813310
  9
$TDUSRTIMER
 40
0.1575813310
  9
$USRTIMER
 70
     1
  9
$ANGBASE
 50
0.0
  9
$ANGDIR
 70
     0
  9
$PDMODE
 70
     0
  9
$PDSIZE
 40
0.0
  9
$PLINEWID
 40
0.0
  9
$SPLFRAME
 70
     0
  9
$SPLINETYPE
 70
     6
  9
$SPLINESEGS
 70
     8
  9
$HANDSEED
  5
E331
  9
$SURFTAB1
 70
     6
  9
$SURFTAB2
 70
     6
  9
$SURFTYPE
 70
     6
  9
$SURFU
 70
     6
  9
$SURFV
 70
     6
  9
$UCSBASE
  2

  9
$UCSNAME
  2

  9
$UCSORG
 10
0.0
 20
0.0
 30
0.0
  9
$UCSXDIR
 10
1.0
 20
0.0
 30
0.0
  9
$UCSYDIR
 10
0.0
 20
1.0
 30
0.0
  9
$UCSORTHOREF
  2

  9
$UCSORTHOVIEW
 70
     0
  9
$UCSORGTOP
 10
0.0
 20
0.0
 30
0.0
  9
$UCSORGBOTTOM
 10
0.0
 20
0.0
 30
0.0
  9
$UCSORGLEFT
 10
0.0
 20
0.0
 30
0.0
  9
$UCSORGRIGHT
 10
0.0
 20
0.0
 30
0.0
  9
$UCSORGFRONT
 10
0.0
 20
0.0
 30
0.0
  9
$UCSORGBACK
 10
0.0
 20
0.0
 30
0.0
  9
$PUCSBASE
  2

  9
$PUCSNAME
  2

  9
$PUCSORG
 10
0.0
 20
0.0
 30
0.0
  9
$PUCSXDIR
 10
1.0
 20
0.0
 30
0.0
  9
$PUCSYDIR
 10
0.0
 20
1.0
 30
0.0
  9
$PUCSORTHOREF
  2

  9
$PUCSORTHOVIEW
 70
     0
  9
$PUCSORGTOP
 10
0.0
 20
0.0
 30
0.0
  9
$PUCSORGBOTTOM
 10
0.0
 20
0.0
 30
0.0
  9
$PUCSORGLEFT
 10
0.0
 20
0.0
 30
0.0
  9
$PUCSORGRIGHT
 10
0.0
 20
0.0
 30
0.0
  9
$PUCSORGFRONT
 10
0.0
 20
0.0
 30
0.0
  9
$PUCSORGBACK
 10
0.0
 20
0.0
 30
0.0
  9
$USERI1
 70
     0
  9
$USERI2
 70
     0
  9
$USERI3
 70
     0
  9
$USERI4
 70
     0
  9
$USERI5
 70
     0
  9
$USERR1
 40
0.0
  9
$USERR2
 40
0.0
  9
$USERR3
 40
0.0
  9
$USERR4
 40
0.0
  9
$USERR5
 40
0.0
  9
$WORLDVIEW
 70
     1
  9
$SHADEDGE
 70
     3
  9
$SHADEDIF
 70
    70
  9
$TILEMODE
 70
     1
  9
$MAXACTVP
 70
    16
  9
$PINSBASE
 10
0.0
 20
0.0
 30
0.0
  9
$PLIMCHECK
 70
     0
  9
$PEXTMIN
 10
0.0
 20
0.0
 30
0.0
  9
$PEXTMAX
 10
420.0
 20
297.0
 30
0.0
  9
$PLIMMIN
 10
0.0
 20
0.0
  9
$PLIMMAX
 10
420.0
 20
297.0
  9
$UNITMODE
 70
     0
  9
$VISRETAIN
 70
     0
  9
$PLINEGEN
 70
     0
  9
$PSLTSCALE
 70
     1
  9
$TREEDEPTH
 70
  3020
  9
$CMLSTYLE
  2
STANDARD
  9
$CMLJUST
 70
     0
  9
$CMLSCALE
 40
1.0
  9
$PROXYGRAPHICS
 70
     1
  9
$MEASUREMENT
 70
     1
  9
$CELWEIGHT
370
    -1
  9
$ENDCAPS
280
     0
  9
$JOINSTYLE
280
     0
  9
$LWDISPLAY
290
     0
  9
$INSUNITS
 70
     0
  9
$HYPERLINKBASE
  1

  9
$STYLESHEET
  1
print.ctb
  9
$XEDIT
290
     1
  9
$CEPSNTYPE
380
     0
  9
$PSTYLEMODE
290
     1
  9
$FINGERPRINTGUID
  2
{8D6CB018-5425-46D7-BA3D-129D74F567FA}
  9
$VERSIONGUID
  2
{78155563-5AB6-4496-BFE3-71CDC16C6DF3}
  9
$EXTNAMES
290
     1
  9
$PSVPSCALE
 40
0.0
  9
$OLESTARTUP
290
     0
  0
ENDSEC
  0
SECTION
  2
CLASSES
  0
CLASS
  1
ACDBDICTIONARYWDFLT
  2
AcDbDictionaryWithDefault
  3
AutoCAD 2000
 90
        0
280
     0
281
     0
  0
CLASS
  1
ACDBPLACEHOLDER
  2
AcDbPlaceHolder
  3
AutoCAD 2000
 90
        0
280
     0
281
     0
  0
CLASS
  1
LAYOUT
  2
AcDbLayout
  3
AutoCAD 2000
 90
        0
280
     0
281
     0
  0
CLASS
  1
LONG_TRANSACTION
  2
AcDbLongTransaction
  3
AutoCAD 2000
 90
    32768
280
     0
281
     0
  0
CLASS
  1
LWPOLYLINE
  2
AcDbPolyline
  3
AutoCAD 2000
 90
    32768
280
     0
281
     1
  0
CLASS
  1
HATCH
  2
AcDbHatch
  3
AutoCAD 2000
 90
    32768
280
     0
281
     1
  0
CLASS
  1
XRECORD
  2
AcDbXrecord
  3
AutoCAD 2000
 90
    32768
280
     0
281
     0
  0
CLASS
  1
LONG_TRANSACTION
  2
AcDbLongTransaction
  3
AutoCAD 2000
 90
    32768
280
     0
281
     0
  0
CLASS
  1
LWPOLYLINE
  2
AcDbPolyline
  3
AutoCAD 2000
 90
    32768
280
     0
281
     1
  0
CLASS
  1
HATCH
  2
AcDbHatch
  3
AutoCAD 2000
 90
    32768
280
     0
281
     1
  0
CLASS
  1
XRECORD
  2
AcDbXrecord
  3
AutoCAD 2000
 90
    32768
280
     0
281
     0
  0
CLASS
  1
LONG_TRANSACTION
  2
AcDbLongTransaction
  3
AutoCAD 2000
 90
    32768
280
     0
281
     0
  0
CLASS
  1
LWPOLYLINE
  2
AcDbPolyline
  3
AutoCAD 2000
 90
    32768
280
     0
281
     1
  0
CLASS
  1
HATCH
  2
AcDbHatch
  3
AutoCAD 2000
 90
    32768
280
     0
281
     1
  0
CLASS
  1
XRECORD
  2
AcDbXrecord
  3
AutoCAD 2000
 90
    32768
280
     0
281
     0
  0
CLASS
  1
LONG_TRANSACTION
  2
AcDbLongTransaction
  3
AutoCAD 2000
 90
    32768
280
     0
281
     0
  0
CLASS
  1
LWPOLYLINE
  2
AcDbPolyline
  3
AutoCAD 2000
 90
    32768
280
     0
281
     1
  0
CLASS
  1
HATCH
  2
AcDbHatch
  3
AutoCAD 2000
 90
    32768
280
     0
281
     1
  0
CLASS
  1
XRECORD
  2
AcDbXrecord
  3
AutoCAD 2000
 90
    32768
280
     0
281
     0
  0
CLASS
  1
DICTIONARYVAR
  2
AcDbDictionaryVar
  3
AutoCAD 2000
 90
        0
280
     0
281
     0
  0
CLASS
  1
LONG_TRANSACTION
  2
AcDbLongTransaction
  3
AutoCAD 2000
 90
    32768
280
     0
281
     0
  0
CLASS
  1
LWPOLYLINE
  2
AcDbPolyline
  3
AutoCAD 2000
 90
    32768
280
     0
281
     1
  0
CLASS
  1
HATCH
  2
AcDbHatch
  3
AutoCAD 2000
 90
    32768
280
     0
281
     1
  0
CLASS
  1
XRECORD
  2
AcDbXrecord
  3
AutoCAD 2000
 90
    32768
280
     0
281
     0
  0
CLASS
  1
LONG_TRANSACTION
  2
AcDbLongTransaction
  3
AutoCAD 2000
 90
    32768
280
     0
281
     0
  0
CLASS
  1
LWPOLYLINE
  2
AcDbPolyline
  3
AutoCAD 2000
 90
    32768
280
     0
281
     1
  0
CLASS
  1
HATCH
  2
AcDbHatch
  3
AutoCAD 2000
 90
    32768
280
     0
281
     1
  0
CLASS
  1
XRECORD
  2
AcDbXrecord
  3
AutoCAD 2000
 90
    32768
280
     0
281
     0
  0
CLASS
  1
LONG_TRANSACTION
  2
AcDbLongTransaction
  3
AutoCAD 2000
 90
    32768
280
     0
281
     0
  0
CLASS
  1
LWPOLYLINE
  2
AcDbPolyline
  3
AutoCAD 2000
 90
    32768
280
     0
281
     1
  0
CLASS
  1
HATCH
  2
AcDbHatch
  3
AutoCAD 2000
 90
    32768
280
     0
281
     1
  0
CLASS
  1
XRECORD
  2
AcDbXrecord
  3
AutoCAD 2000
 90
    32768
280
     0
281
     0
  0
CLASS
  1
LONG_TRANSACTION
  2
AcDbLongTransaction
  3
AutoCAD 2000
 90
    32768
280
     0
281
     0
  0
CLASS
  1
LWPOLYLINE
  2
AcDbPolyline
  3
AutoCAD 2000
 90
    32768
280
     0
281
     1
  0
CLASS
  1
HATCH
  2
AcDbHatch
  3
AutoCAD 2000
 90
    32768
280
     0
281
     1
  0
CLASS
  1
XRECORD
  2
AcDbXrecord
  3
AutoCAD 2000
 90
    32768
280
     0
281
     0
  0
CLASS
  1
LONG_TRANSACTION
  2
AcDbLongTransaction
  3
AutoCAD 2000
 90
    32768
280
     0
281
     0
  0
CLASS
  1
LWPOLYLINE
  2
AcDbPolyline
  3
AutoCAD 2000
 90
    32768
280
     0
281
     1
  0
CLASS
  1
HATCH
  2
AcDbHatch
  3
AutoCAD 2000
 90
    32768
280
     0
281
     1
  0
CLASS
  1
XRECORD
  2
AcDbXrecord
  3
AutoCAD 2000
 90
    32768
280
     0
281
     0
  0
CLASS
  1
LONG_TRANSACTION
  2
AcDbLongTransaction
  3
AutoCAD 2000
 90
    32768
280
     0
281
     0
  0
CLASS
  1
LWPOLYLINE
  2
AcDbPolyline
  3
AutoCAD 2000
 90
    32768
280
     0
281
     1
  0
CLASS
  1
HATCH
  2
AcDbHatch
  3
AutoCAD 2000
 90
    32768
280
     0
281
     1
  0
CLASS
  1
XRECORD
  2
AcDbXrecord
  3
AutoCAD 2000
 90
    32768
280
     0
281
     0
  0
CLASS
  1
LONG_TRANSACTION
  2
AcDbLongTransaction
  3
AutoCAD 2000
 90
    32768
280
     0
281
     0
  0
CLASS
  1
LWPOLYLINE
  2
AcDbPolyline
  3
AutoCAD 2000
 90
    32768
280
     0
281
     1
  0
CLASS
  1
HATCH
  2
AcDbHatch
  3
AutoCAD 2000
 90
    32768
280
     0
281
     1
  0
CLASS
  1
XRECORD
  2
AcDbXrecord
  3
AutoCAD 2000
 90
    32768
280
     0
281
     0
  0
CLASS
  1
LONG_TRANSACTION
  2
AcDbLongTransaction
  3
AutoCAD 2000
 90
    32768
280
     0
281
     0
  0
CLASS
  1
LWPOLYLINE
  2
AcDbPolyline
  3
AutoCAD 2000
 90
    32768
280
     0
281
     1
  0
CLASS
  1
HATCH
  2
AcDbHatch
  3
AutoCAD 2000
 90
    32768
280
     0
281
     1
  0
CLASS
  1
XRECORD
  2
AcDbXrecord
  3
AutoCAD 2000
 90
    32768
280
     0
281
     0
  0
CLASS
  1
LONG_TRANSACTION
  2
AcDbLongTransaction
  3
AutoCAD 2000
 90
    32768
280
     0
281
     0
  0
CLASS
  1
LWPOLYLINE
  2
AcDbPolyline
  3
AutoCAD 2000
 90
    32768
280
     0
281
     1
  0
CLASS
  1
HATCH
  2
AcDbHatch
  3
AutoCAD 2000
 90
    32768
280
     0
281
     1
  0
CLASS
  1
XRECORD
  2
AcDbXrecord
  3
AutoCAD 2000
 90
    32768
280
     0
281
     0
  0
CLASS
  1
LONG_TRANSACTION
  2
AcDbLongTransaction
  3
AutoCAD 2000
 90
    32768
280
     0
281
     0
  0
CLASS
  1
LWPOLYLINE
  2
AcDbPolyline
  3
AutoCAD 2000
 90
    32768
280
     0
281
     1
  0
CLASS
  1
HATCH
  2
AcDbHatch
  3
AutoCAD 2000
 90
    32768
280
     0
281
     1
  0
CLASS
  1
XRECORD
  2
AcDbXrecord
  3
AutoCAD 2000
 90
    32768
280
     0
281
     0
  0
CLASS
  1
LONG_TRANSACTION
  2
AcDbLongTransaction
  3
AutoCAD 2000
 90
    32768
280
     0
281
     0
  0
CLASS
  1
LWPOLYLINE
  2
AcDbPolyline
  3
AutoCAD 2000
 90
    32768
280
     0
281
     1
  0
CLASS
  1
HATCH
  2
AcDbHatch
  3
AutoCAD 2000
 90
    32768
280
     0
281
     1
  0
CLASS
  1
XRECORD
  2
AcDbXrecord
  3
AutoCAD 2000
 90
    32768
280
     0
281
     0
  0
CLASS
  1
LONG_TRANSACTION
  2
AcDbLongTransaction
  3
AutoCAD 2000
 90
    32768
280
     0
281
     0
  0
CLASS
  1
LWPOLYLINE
  2
AcDbPolyline
  3
AutoCAD 2000
 90
    32768
280
     0
281
     1
  0
CLASS
  1
HATCH
  2
AcDbHatch
  3
AutoCAD 2000
 90
    32768
280
     0
281
     1
  0
CLASS
  1
XRECORD
  2
AcDbXrecord
  3
AutoCAD 2000
 90
    32768
280
     0
281
     0
  0
CLASS
  1
LONG_TRANSACTION
  2
AcDbLongTransaction
  3
AutoCAD 2000
 90
    32768
280
     0
281
     0
  0
CLASS
  1
LWPOLYLINE
  2
AcDbPolyline
  3
AutoCAD 2000
 90
    32768
280
     0
281
     1
  0
CLASS
  1
HATCH
  2
AcDbHatch
  3
AutoCAD 2000
 90
    32768
280
     0
281
     1
  0
CLASS
  1
XRECORD
  2
AcDbXrecord
  3
AutoCAD 2000
 90
    32768
280
     0
281
     0
  0
CLASS
  1
LONG_TRANSACTION
  2
AcDbLongTransaction
  3
AutoCAD 2000
 90
    32768
280
     0
281
     0
  0
CLASS
  1
LWPOLYLINE
  2
AcDbPolyline
  3
AutoCAD 2000
 90
    32768
280
     0
281
     1
  0
CLASS
  1
HATCH
  2
AcDbHatch
  3
AutoCAD 2000
 90
    32768
280
     0
281
     1
  0
CLASS
  1
XRECORD
  2
AcDbXrecord
  3
AutoCAD 2000
 90
    32768
280
     0
281
     0
  0
CLASS
  1
LONG_TRANSACTION
  2
AcDbLongTransaction
  3
AutoCAD 2000
 90
    32768
280
     0
281
     0
  0
CLASS
  1
LWPOLYLINE
  2
AcDbPolyline
  3
AutoCAD 2000
 90
    32768
280
     0
281
     1
  0
CLASS
  1
HATCH
  2
AcDbHatch
  3
AutoCAD 2000
 90
    32768
280
     0
281
     1
  0
CLASS
  1
XRECORD
  2
AcDbXrecord
  3
AutoCAD 2000
 90
    32768
280
     0
281
     0
  0
ENDSEC
  0
SECTION
  2
TABLES
  0
TABLE
  2
VPORT
  5
8
330
0
100
AcDbSymbolTable
 70
     2
  0
VPORT
  5
E330
330
8
100
AcDbSymbolTableRecord
100
AcDbViewportTableRecord
  2
*Active
 70
     0
 10
0.0
 20
0.0
 11
1.0
 21
1.0
 12
426.4892743403094
 22
297.0
 13
0.0
 23
0.0
 14
5.0
 24
5.0
 15
0.0
 25
0.0
 16
0.0
 26
0.0
 36
1.0
 17
0.0
 27
0.0
 37
0.0
 40
598.540127388535
 41
1.557397959183673
 42
50.0
 43
0.0
 44
0.0
 50
0.0
 51
0.0
 71
     0
 72
   100
 73
     1
 74
     0
 75
     0
 76
     0
 77
     0
 78
     0
281
     0
 65
     1
110
0.0
120
0.0
130
0.0
111
1.0
121
0.0
131
0.0
112
0.0
122
1.0
132
0.0
 79
     0
146
0.0
  0
ENDTAB
  0
TABLE
  2
LTYPE
  5
5
330
0
100
AcDbSymbolTable
 70
     3
  0
LTYPE
  5
14
330
5
100
AcDbSymbolTableRecord
100
AcDbLinetypeTableRecord
  2
BYBLOCK
 70
     0
  3

 72
    65
 73
     0
 40
0.0
  0
LTYPE
  5
15
330
5
100
AcDbSymbolTableRecord
100
AcDbLinetypeTableRecord
  2
BYLAYER
 70
     0
  3

 72
    65
 73
     0
 40
0.0
  0
LTYPE
  5
16
330
5
100
AcDbSymbolTableRecord
100
AcDbLinetypeTableRecord
  2
CONTINUOUS
 70
     0
  3
Solid line
 72
    65
 73
     0
 40
0.0
  0
LTYPE
  5
135
330
5
100
AcDbSymbolTableRecord
100
AcDbLinetypeTableRecord
  2
CENTER
 70
     0
  3
____ _ ____ _ ____ _ ____ _ ____ _ ____ _ ____ 
 72
    65
 73
     4
 40
2.0
 49
1.25
 74
     0
 49
-0.25
 74
     0
 49
0.25
 74
     0
 49
-0.25
 74
     0
  0
LTYPE
  5
1527
330
5
100
AcDbSymbolTableRecord
100
AcDbLinetypeTableRecord
  2
SLDSECTION0
 70
     0
  3

 72
    65
 73
     4
 40
10.16
 49
6.349999999999999
 74
     0
 49
-1.27
 74
     0
 49
1.27
 74
     0
 49
-1.27
 74
     0
  0
ENDTAB
  0
TABLE
  2
LAYER
  5
2
330
0
100
AcDbSymbolTable
 70
     9
  0
LAYER
  5
F
330
2
100
AcDbSymbolTableRecord
100
AcDbLayerTableRecord
  2
0
 70
     0
 62
     7
  6
CONTINUOUS
370
    -3
390
33F
  0
LAYER
  5
62
330
2
100
AcDbSymbolTableRecord
100
AcDbLayerTableRecord
  2
VIEWPORT
 70
     0
 62
     7
  6
CONTINUOUS
370
    -3
390
33F
  0
LAYER
  5
65
330
2
100
AcDbSymbolTableRecord
100
AcDbLayerTableRecord
  2
ZUWAKU
 70
     0
 62
     7
  6
CONTINUOUS
370
    -3
390
33F
  0
LAYER
  5
153
330
2
100
AcDbSymbolTableRecord
100
AcDbLayerTableRecord
  2
SEIHIN
 70
     0
 62
     3
  6
CONTINUOUS
370
    -3
390
33F
  0
LAYER
  5
154
330
2
100
AcDbSymbolTableRecord
100
AcDbLayerTableRecord
  2
SUNPOU
 70
     0
 62
     4
  6
CONTINUOUS
370
    -3
390
33F
  0
LAYER
  5
155
330
2
100
AcDbSymbolTableRecord
100
AcDbLayerTableRecord
  2
CENTER L
 70
     0
 62
     1
  6
CENTER
370
    -3
390
33F
  0
LAYER
  5
24D
330
2
100
AcDbSymbolTableRecord
100
AcDbLayerTableRecord
  2
DEFPOINTS
 70
     0
 62
     7
  6
CONTINUOUS
290
     0
370
    -3
390
33F
  0
LAYER
  5
59A
330
2
100
AcDbSymbolTableRecord
100
AcDbLayerTableRecord
  2
moji
 70
     0
 62
     2
  6
CONTINUOUS
370
    -3
390
33F
  0
LAYER
  5
1528
330
2
100
AcDbSymbolTableRecord
100
AcDbLayerTableRecord
  2
NOKITOI
 70
     0
 62
     9
  6
SLDSECTION0
370
    -3
390
33F
  0
ENDTAB
  0
TABLE
  2
STYLE
  5
3
330
0
100
AcDbSymbolTable
 70
     2
  0
STYLE
  5
10
330
3
100
AcDbSymbolTableRecord
100
AcDbTextStyleTableRecord
  2
STANDARD
 70
     0
 40
0.0
 41
1.0
 50
0.0
 71
     0
 42
5.0
  3
TXT
  4
bigfont.shx
  0
STYLE
  5
59B
330
3
100
AcDbSymbolTableRecord
100
AcDbTextStyleTableRecord
  2
ｽﾀｲﾙ1
 70
     0
 40
0.0
 41
1.0
 50
0.0
 71
     0
 42
2.5
  3
MS PGothic.ttf
  4

1001
ACAD
1000
MS PGothic
1071
    32818
  0
ENDTAB
  0
TABLE
  2
VIEW
  5
6
330
0
100
AcDbSymbolTable
 70
     0
  0
ENDTAB
  0
TABLE
  2
UCS
  5
7
330
0
100
AcDbSymbolTable
 70
     0
  0
ENDTAB
  0
TABLE
  2
APPID
  5
9
330
0
100
AcDbSymbolTable
 70
     1
  0
APPID
  5
11
330
9
100
AcDbSymbolTableRecord
100
AcDbRegAppTableRecord
  2
ACAD
 70
     0
  0
ENDTAB
  0
TABLE
  2
DIMSTYLE
  5
A
330
0
100
AcDbSymbolTable
 70
     1
100
AcDbDimStyleTable
 71
     0
  0
DIMSTYLE
105
1D
102
{ACAD_REACTORS
330
D906
330
D907
330
D908
330
D909
330
D90A
330
D915
330
D916
330
D917
330
D991
330
D9A1
330
D9EB
330
DA31
330
DA35
330
DAC1
102
}
330
A
100
AcDbSymbolTableRecord
100
AcDbDimStyleTableRecord
  2
STANDARD
 70
     0
340
10
  0
ENDTAB
  0
TABLE
  2
BLOCK_RECORD
  5
1
330
0
100
AcDbSymbolTable
 70
    16
  0
BLOCK_RECORD
  5
1A
102
{ACAD_XDICTIONARY
360
385
102
}
330
1
100
AcDbSymbolTableRecord
100
AcDbBlockTableRecord
  2
*MODEL_SPACE
340
342
  0
BLOCK_RECORD
  5
17
102
{ACAD_XDICTIONARY
360
383
102
}
330
1
100
AcDbSymbolTableRecord
100
AcDbBlockTableRecord
  2
*PAPER_SPACE
340
343
  0
BLOCK_RECORD
  5
6D
330
1
100
AcDbSymbolTableRecord
100
AcDbBlockTableRecord
  2
_OPEN
340
0
102
{BLKREFS
331
DE84
331
DE85
331
DDFD
331
DDFE
331
DE21
331
DE22
331
DE2A
331
DE2B
331
DE57
331
DE58
331
DDF4
331
DDF5
331
DDE2
331
DDE3
331
DE60
331
DE61
331
DE0F
331
DE10
331
DE06
331
DE07
331
DE18
331
DE19
331
DE7B
331
DE7C
331
DE72
331
DE73
331
DE4E
331
DE4F
102
}
  0
BLOCK_RECORD
  5
3A4
330
1
100
AcDbSymbolTableRecord
100
AcDbBlockTableRecord
  2
*X1
340
0
102
{BLKREFS
331
6D8
102
}
  0
BLOCK_RECORD
  5
DB1F
330
1
100
AcDbSymbolTableRecord
100
AcDbBlockTableRecord
  2
*D2
340
0
  0
BLOCK_RECORD
  5
DB2B
330
1
100
AcDbSymbolTableRecord
100
AcDbBlockTableRecord
  2
*D3
340
0
  0
BLOCK_RECORD
  5
DB37
330
1
100
AcDbSymbolTableRecord
100
AcDbBlockTableRecord
  2
*D4
340
0
  0
BLOCK_RECORD
  5
DB43
330
1
100
AcDbSymbolTableRecord
100
AcDbBlockTableRecord
  2
*D5
340
0
  0
BLOCK_RECORD
  5
DB4F
330
1
100
AcDbSymbolTableRecord
100
AcDbBlockTableRecord
  2
*D6
340
0
  0
BLOCK_RECORD
  5
DB5B
330
1
100
AcDbSymbolTableRecord
100
AcDbBlockTableRecord
  2
*D7
340
0
  0
BLOCK_RECORD
  5
DB67
330
1
100
AcDbSymbolTableRecord
100
AcDbBlockTableRecord
  2
*D8
340
0
  0
BLOCK_RECORD
  5
DB73
330
1
100
AcDbSymbolTableRecord
100
AcDbBlockTableRecord
  2
*D9
340
0
  0
BLOCK_RECORD
  5
DB7F
330
1
100
AcDbSymbolTableRecord
100
AcDbBlockTableRecord
  2
*D10
340
0
  0
BLOCK_RECORD
  5
DB8B
330
1
100
AcDbSymbolTableRecord
100
AcDbBlockTableRecord
  2
*D11
340
0
  0
BLOCK_RECORD
  5
DB97
330
1
100
AcDbSymbolTableRecord
100
AcDbBlockTableRecord
  2
*D12
340
0
  0
BLOCK_RECORD
  5
DBA3
330
1
100
AcDbSymbolTableRecord
100
AcDbBlockTableRecord
  2
*D13
340
0
  0
BLOCK_RECORD
  5
DBAF
330
1
100
AcDbSymbolTableRecord
100
AcDbBlockTableRecord
  2
*D14
340
0
  0
BLOCK_RECORD
  5
DBBB
330
1
100
AcDbSymbolTableRecord
100
AcDbBlockTableRecord
  2
*D15
340
0
  0
ENDTAB
  0
ENDSEC
  0
SECTION
  2
BLOCKS
  0
BLOCK
  5
1B
330
1A
100
AcDbEntity
  8
0
100
AcDbBlockBegin
  2
*MODEL_SPACE
 70
     0
 10
0.0
 20
0.0
 30
0.0
  3
*MODEL_SPACE
  1

  0
ENDBLK
  5
1C
330
1A
100
AcDbEntity
  8
0
100
AcDbBlockEnd
  0
BLOCK
  5
18
330
17
100
AcDbEntity
 67
     1
  8
0
100
AcDbBlockBegin
  2
*PAPER_SPACE
 70
     0
 10
0.0
 20
0.0
 30
0.0
  3
*PAPER_SPACE
  1

  0
ENDBLK
  5
19
330
17
100
AcDbEntity
 67
     1
  8
0
100
AcDbBlockEnd
  0
BLOCK
  5
6E
330
6D
100
AcDbEntity
  8
0
100
AcDbBlockBegin
  2
_OPEN
 70
     0
 10
0.0
 20
0.0
 30
0.0
  3
_OPEN
  1

  0
LINE
  5
6F
330
6D
100
AcDbEntity
  8
0
  6
ByBlock
 62
     0
100
AcDbLine
 10
-1.0
 20
0.1666666666666666
 30
0.0
 11
0.0
 21
0.0
 31
0.0
  0
LINE
  5
70
330
6D
100
AcDbEntity
  8
0
  6
ByBlock
 62
     0
100
AcDbLine
 10
0.0
 20
0.0
 30
0.0
 11
-1.0
 21
-0.1666666666666666
 31
0.0
  0
LINE
  5
71
330
6D
100
AcDbEntity
  8
0
  6
ByBlock
 62
     0
100
AcDbLine
 10
0.0
 20
0.0
 30
0.0
 11
-1.0
 21
0.0
 31
0.0
  0
ENDBLK
  5
72
330
6D
100
AcDbEntity
  8
0
100
AcDbBlockEnd
  0
BLOCK
  5
538
330
3A4
100
AcDbEntity
  8
0
100
AcDbBlockBegin
  2
*X1
 70
     1
 10
0.0
 20
0.0
 30
0.0
  3
*X1
  1

  0
LINE
  5
3A5
330
3A4
100
AcDbEntity
  8
0
 62
     0
100
AcDbLine
 10
66.75047808566091
 20
28.71175535310772
 30
0.0
 11
66.10464715594599
 21
29.35758628282269
 31
0.0
  0
LINE
  5
3A6
330
3A4
100
AcDbEntity
  8
0
 62
     0
100
AcDbLine
 10
66.75047808566091
 20
27.81372974100082
 30
0.0
 11
65.20662154383905
 21
29.35758628282269
 31
0.0
  0
LINE
  5
3A7
330
3A4
100
AcDbEntity
  8
0
 62
     0
100
AcDbLine
 10
66.75047808566086
 20
26.91570412889388
 30
0.0
 11
64.32934413964591
 21
29.33683807490882
 31
0.0
  0
LINE
  5
3A8
330
3A4
100
AcDbEntity
  8
0
 62
     0
100
AcDbLine
 10
66.75047808566091
 20
26.01767851678704
 30
0.0
 11
63.95047808566085
 21
28.81767851678705
 31
0.0
  0
LINE
  5
3A9
330
3A4
100
AcDbEntity
  8
0
 62
     0
100
AcDbLine
 10
66.75047808566091
 20
25.11965290468009
 30
0.0
 11
63.95047808566085
 21
27.91965290468016
 31
0.0
  0
LINE
  5
3AA
330
3A4
100
AcDbEntity
  8
0
 62
     0
100
AcDbLine
 10
66.75047808566086
 20
24.22162729257314
 30
0.0
 11
63.95047808566079
 21
27.02162729257321
 31
0.0
  0
LINE
  5
3AB
330
3A4
100
AcDbEntity
  8
0
 62
     0
100
AcDbLine
 10
61.85047808566082
 20
28.22360168046634
 30
0.0
 11
60.71649348330453
 21
29.35758628282269
 31
0.0
  0
LINE
  5
3AC
330
3A4
100
AcDbEntity
  8
0
 62
     0
100
AcDbLine
 10
66.75047808566091
 20
23.32360168046631
 30
0.0
 11
63.95047808566085
 21
26.12360168046638
 31
0.0
  0
LINE
  5
3AD
330
3A4
100
AcDbEntity
  8
0
 62
     0
100
AcDbLine
 10
61.85047808566082
 20
27.32557606835945
 30
0.0
 11
59.81846787119758
 21
29.35758628282263
 31
0.0
  0
LINE
  5
3AE
330
3A4
100
AcDbEntity
  8
0
 62
     0
100
AcDbLine
 10
66.75047808566086
 20
22.42557606835936
 30
0.0
 11
63.95047808566085
 21
25.22557606835943
 31
0.0
  0
LINE
  5
3AF
330
3A4
100
AcDbEntity
  8
0
 62
     0
100
AcDbLine
 10
61.85047808566082
 20
26.4275504562525
 30
0.0
 11
59.14496712052375
 21
29.13306142138958
 31
0.0
  0
LINE
  5
3B0
330
3A4
100
AcDbEntity
  8
0
 62
     0
100
AcDbLine
 10
66.75047808566086
 20
21.52755045625247
 30
0.0
 11
63.95047808566079
 21
24.32755045625248
 31
0.0
  0
LINE
  5
3B1
330
3A4
100
AcDbEntity
  8
0
 62
     0
100
AcDbLine
 10
61.85047808566094
 20
25.5295248441455
 30
0.0
 11
59.05047808566076
 21
28.32952484414562
 31
0.0
  0
LINE
  5
3B2
330
3A4
100
AcDbEntity
  8
0
 62
     0
100
AcDbLine
 10
66.75047808566091
 20
20.62952484414552
 30
0.0
 11
63.95047808566085
 21
23.42952484414559
 31
0.0
  0
LINE
  5
3B3
330
3A4
100
AcDbEntity
  8
0
 62
     0
100
AcDbLine
 10
61.85047808566088
 20
24.6314992320386
 30
0.0
 11
59.05047808566076
 21
27.43149923203878
 31
0.0
  0
LINE
  5
3B4
330
3A4
100
AcDbEntity
  8
0
 62
     0
100
AcDbLine
 10
66.75047808566086
 20
19.73149923203862
 30
0.0
 11
63.95047808566079
 21
22.53149923203869
 31
0.0
  0
LINE
  5
3B5
330
3A4
100
AcDbEntity
  8
0
 62
     0
100
AcDbLine
 10
61.85047808566088
 20
23.73347361993171
 30
0.0
 11
59.05047808566076
 21
26.53347361993183
 31
0.0
  0
LINE
  5
3B6
330
3A4
100
AcDbEntity
  8
0
 62
     0
100
AcDbLine
 10
66.75047808566086
 20
18.83347361993173
 30
0.0
 11
63.95047808566079
 21
21.6334736199318
 31
0.0
  0
LINE
  5
3B7
330
3A4
100
AcDbEntity
  8
0
 62
     0
100
AcDbLine
 10
61.85047808566082
 20
22.83544800782476
 30
0.0
 11
59.0504780856607
 21
25.63544800782489
 31
0.0
  0
LINE
  5
3B8
330
3A4
100
AcDbEntity
  8
0
 62
     0
100
AcDbLine
 10
66.7504780856608
 20
17.93544800782479
 30
0.0
 11
63.95047808566079
 21
20.73544800782485
 31
0.0
  0
LINE
  5
3B9
330
3A4
100
AcDbEntity
  8
0
 62
     0
100
AcDbLine
 10
61.85047808566088
 20
21.93742239571793
 30
0.0
 11
59.05047808566076
 21
24.73742239571805
 31
0.0
  0
LINE
  5
3BA
330
3A4
100
AcDbEntity
  8
0
 62
     0
100
AcDbLine
 10
55.55047808566081
 20
28.23742239571799
 30
0.0
 11
54.43031419855618
 21
29.35758628282263
 31
0.0
  0
LINE
  5
3BB
330
3A4
100
AcDbEntity
  8
0
 62
     0
100
AcDbLine
 10
66.75047808566086
 20
17.03742239571795
 30
0.0
 11
63.95047808566079
 21
19.83742239571796
 31
0.0
  0
LINE
  5
3BC
330
3A4
100
AcDbEntity
  8
0
 62
     0
100
AcDbLine
 10
61.85047808566088
 20
21.03939678361098
 30
0.0
 11
59.0504780856607
 21
23.8393967836111
 31
0.0
  0
LINE
  5
3BD
330
3A4
100
AcDbEntity
  8
0
 62
     0
100
AcDbLine
 10
55.55047808566076
 20
27.33939678361105
 30
0.0
 11
53.53228858644922
 21
29.35758628282263
 31
0.0
  0
LINE
  5
3BE
330
3A4
100
AcDbEntity
  8
0
 62
     0
100
AcDbLine
 10
66.75047808566086
 20
16.139396783611
 30
0.0
 11
63.95047808566079
 21
18.93939678361107
 31
0.0
  0
LINE
  5
3BF
330
3A4
100
AcDbEntity
  8
0
 62
     0
100
AcDbLine
 10
61.85047808566082
 20
20.14137117150409
 30
0.0
 11
59.05047808566076
 21
22.9413711715041
 31
0.0
  0
LINE
  5
3C0
330
3A4
100
AcDbEntity
  8
0
 62
     0
100
AcDbLine
 10
55.55047808566076
 20
26.44137117150416
 30
0.0
 11
52.85071536233676
 21
29.14113389482816
 31
0.0
  0
LINE
  5
3C1
330
3A4
100
AcDbEntity
  8
0
 62
     0
100
AcDbLine
 10
66.7504780856608
 20
15.24137117150411
 30
0.0
 11
63.95047808566073
 21
18.04137117150412
 31
0.0
  0
LINE
  5
3C2
330
3A4
100
AcDbEntity
  8
0
 62
     0
100
AcDbLine
 10
61.85047808566088
 20
19.24334555939714
 30
0.0
 11
59.05047808566081
 21
22.04334555939721
 31
0.0
  0
LINE
  5
3C3
330
3A4
100
AcDbEntity
  8
0
 62
     0
100
AcDbLine
 10
55.55047808566081
 20
25.54334555939721
 30
0.0
 11
52.7504780856608
 21
28.34334555939722
 31
0.0
  0
LINE
  5
3C4
330
3A4
100
AcDbEntity
  8
0
 62
     0
100
AcDbLine
 10
66.75047808566086
 20
14.34334555939716
 30
0.0
 11
63.95047808566079
 21
17.14334555939723
 31
0.0
  0
LINE
  5
3C5
330
3A4
100
AcDbEntity
  8
0
 62
     0
100
AcDbLine
 10
61.85047808566082
 20
18.34531994729024
 30
0.0
 11
59.05047808566081
 21
21.14531994729031
 31
0.0
  0
LINE
  5
3C6
330
3A4
100
AcDbEntity
  8
0
 62
     0
100
AcDbLine
 10
55.55047808566087
 20
24.64531994729026
 30
0.0
 11
52.7504780856608
 21
27.44531994729033
 31
0.0
  0
LINE
  5
3C7
330
3A4
100
AcDbEntity
  8
0
 62
     0
100
AcDbLine
 10
66.67851273077104
 20
13.51728530218008
 30
0.0
 11
63.95047808566079
 21
16.24531994729034
 31
0.0
  0
LINE
  5
3C8
330
3A4
100
AcDbEntity
  8
0
 62
     0
100
AcDbLine
 10
61.85047808566088
 20
17.44729433518324
 30
0.0
 11
59.05047808566076
 21
20.24729433518337
 31
0.0
  0
LINE
  5
3C9
330
3A4
100
AcDbEntity
  8
0
 62
     0
100
AcDbLine
 10
55.55047808566081
 20
23.74729433518337
 30
0.0
 11
52.75047808566075
 21
26.54729433518338
 31
0.0
  0
LINE
  5
3CA
330
3A4
100
AcDbEntity
  8
0
 62
     0
100
AcDbLine
 10
66.04018613802157
 20
13.25758628282261
 30
0.0
 11
63.95047808566073
 21
15.34729433518345
 31
0.0
  0
LINE
  5
3CB
330
3A4
100
AcDbEntity
  8
0
 62
     0
100
AcDbLine
 10
55.55047808566081
 20
22.84926872307642
 30
0.0
 11
52.75047808566075
 21
25.64926872307649
 31
0.0
  0
LINE
  5
3CC
330
3A4
100
AcDbEntity
  8
0
 62
     0
100
AcDbLine
 10
61.85047808566088
 20
16.54926872307635
 30
0.0
 11
59.05047808566076
 21
19.34926872307647
 31
0.0
  0
LINE
  5
3CD
330
3A4
100
AcDbEntity
  8
0
 62
     0
100
AcDbLine
 10
50.1254780856608
 20
28.27426872307643
 30
0.0
 11
49.04216052591465
 21
29.35758628282252
 31
0.0
  0
LINE
  5
3CE
330
3A4
100
AcDbEntity
  8
0
 62
     0
100
AcDbLine
 10
65.14216052591468
 20
13.2575862828225
 30
0.0
 11
63.95047808566073
 21
14.4492687230765
 31
0.0
  0
LINE
  5
3CF
330
3A4
100
AcDbEntity
  8
0
 62
     0
100
AcDbLine
 10
55.55047808566081
 20
21.95124311096952
 30
0.0
 11
52.75047808566085
 21
24.75124311096954
 31
0.0
  0
LINE
  5
3D0
330
3A4
100
AcDbEntity
  8
0
 62
     0
100
AcDbLine
 10
50.1254780856608
 20
27.37624311096954
 30
0.0
 11
48.14413491380782
 21
29.35758628282258
 31
0.0
  0
LINE
  5
3D1
330
3A4
100
AcDbEntity
  8
0
 62
     0
100
AcDbLine
 10
61.82451978501529
 20
15.6772014116151
 30
0.0
 11
59.05047808566076
 21
18.45124311096958
 31
0.0
  0
LINE
  5
3D2
330
3A4
100
AcDbEntity
  8
0
 62
     0
100
AcDbLine
 10
55.55047808566081
 20
21.05321749886263
 30
0.0
 11
52.75047808566085
 21
23.85321749886259
 31
0.0
  0
LINE
  5
3D3
330
3A4
100
AcDbEntity
  8
0
 62
     0
100
AcDbLine
 10
49.92989753954697
 20
26.67379804497647
 30
0.0
 11
47.24610930170081
 21
29.35758628282263
 31
0.0
  0
LINE
  5
3D4
330
3A4
100
AcDbEntity
  8
0
 62
     0
100
AcDbLine
 10
61.63153448975805
 20
14.97216109476534
 30
0.0
 11
59.05047808566076
 21
17.55321749886269
 31
0.0
  0
LINE
  5
3D5
330
3A4
100
AcDbEntity
  8
0
 62
     0
100
AcDbLine
 10
55.55047808566081
 20
20.15519188675568
 30
0.0
 11
52.7504780856608
 21
22.95519188675569
 31
0.0
  0
LINE
  5
3D6
330
3A4
100
AcDbEntity
  8
0
 62
     0
100
AcDbLine
 10
49.14808368959382
 20
26.55758628282262
 30
0.0
 11
46.34808368959392
 21
29.35758628282252
 31
0.0
  0
LINE
  5
3D7
330
3A4
100
AcDbEntity
  8
0
 62
     0
100
AcDbLine
 10
61.30650261383448
 20
14.39916735858196
 30
0.0
 11
58.97896234650125
 21
16.72670762591525
 31
0.0
  0
LINE
  5
3D8
330
3A4
100
AcDbEntity
  8
0
 62
     0
100
AcDbLine
 10
55.55047808566081
 20
19.25716627464885
 30
0.0
 11
52.75047808566085
 21
22.0571662746488
 31
0.0
  0
LINE
  5
3D9
330
3A4
100
AcDbEntity
  8
0
 62
     0
100
AcDbLine
 10
48.25005807748704
 20
26.55758628282256
 30
0.0
 11
45.5124913483096
 21
29.29515301200007
 31
0.0
  0
LINE
  5
3DA
330
3A4
100
AcDbEntity
  8
0
 62
     0
100
AcDbLine
 10
60.87446081650944
 20
13.93318354380016
 30
0.0
 11
58.57737670803373
 21
16.23026765227587
 31
0.0
  0
LINE
  5
3DB
330
3A4
100
AcDbEntity
  8
0
 62
     0
100
AcDbLine
 10
55.55047808566081
 20
18.3591406625419
 30
0.0
 11
52.7504780856608
 21
21.15914066254185
 31
0.0
  0
LINE
  5
3DC
330
3A4
100
AcDbEntity
  8
0
 62
     0
100
AcDbLine
 10
47.35203246538015
 20
26.55758628282256
 30
0.0
 11
44.8478509237762
 21
29.06176782442645
 31
0.0
  0
LINE
  5
3DD
330
3A4
100
AcDbEntity
  8
0
 62
     0
100
AcDbLine
 10
60.33829847158341
 20
13.5713202766193
 30
0.0
 11
57.85203246538014
 21
16.05758628282257
 31
0.0
  0
LINE
  5
3DE
330
3A4
100
AcDbEntity
  8
0
 62
     0
100
AcDbLine
 10
55.55047808566076
 20
17.46111505043495
 30
0.0
 11
52.7504780856608
 21
20.26111505043496
 31
0.0
  0
LINE
  5
3DF
330
3A4
100
AcDbEntity
  8
0
 62
     0
100
AcDbLine
 10
46.47579668129123
 20
26.53579645480448
 30
0.0
 11
44.30524998656602
 21
28.70634314952969
 31
0.0
  0
LINE
  5
3E0
330
3A4
100
AcDbEntity
  8
0
 62
     0
100
AcDbLine
 10
59.68188591167211
 20
13.32970722442365
 30
0.0
 11
56.95400685327314
 21
16.05758628282262
 31
0.0
  0
LINE
  5
3E1
330
3A4
100
AcDbEntity
  8
0
 62
     0
100
AcDbLine
 10
46.10047808566088
 20
26.01308943832788
 30
0.0
 11
43.86713792752146
 21
28.24642959646729
 31
0.0
  0
LINE
  5
3E2
330
3A4
100
AcDbEntity
  8
0
 62
     0
100
AcDbLine
 10
58.85598124116626
 20
13.25758628282255
 30
0.0
 11
52.7504780856608
 21
19.36308943832801
 31
0.0
  0
LINE
  5
3E3
330
3A4
100
AcDbEntity
  8
0
 62
     0
100
AcDbLine
 10
46.10047808566088
 20
25.1150638262211
 30
0.0
 11
43.53536701516844
 21
27.68017489671354
 31
0.0
  0
LINE
  5
3E4
330
3A4
100
AcDbEntity
  8
0
 62
     0
100
AcDbLine
 10
57.95795562905937
 20
13.25758628282255
 30
0.0
 11
52.7504780856608
 21
18.46506382622118
 31
0.0
  0
LINE
  5
3E5
330
3A4
100
AcDbEntity
  8
0
 62
     0
100
AcDbLine
 10
46.30702236676467
 20
24.01049393301036
 30
0.0
 11
43.33318849580433
 21
26.98432780397064
 31
0.0
  0
LINE
  5
3E6
330
3A4
100
AcDbEntity
  8
0
 62
     0
100
AcDbLine
 10
57.05993001695247
 20
13.25758628282255
 30
0.0
 11
52.7504780856608
 21
17.56703821411423
 31
0.0
  0
LINE
  5
3E7
330
3A4
100
AcDbEntity
  8
0
 62
     0
100
AcDbLine
 10
50.52408178835225
 20
18.89540889931583
 30
0.0
 11
43.30047808566075
 21
26.11901260200733
 31
0.0
  0
LINE
  5
3E8
330
3A4
100
AcDbEntity
  8
0
 62
     0
100
AcDbLine
 10
41.20047808566073
 20
28.21901260200729
 30
0.0
 11
40.06190440484544
 21
29.35758628282263
 31
0.0
  0
LINE
  5
3E9
330
3A4
100
AcDbEntity
  8
0
 62
     0
100
AcDbLine
 10
56.16190440484553
 20
13.25758628282255
 30
0.0
 11
52.75047808566075
 21
16.66901260200728
 31
0.0
  0
LINE
  5
3EA
330
3A4
100
AcDbEntity
  8
0
 62
     0
100
AcDbLine
 10
50.65047808566089
 20
17.87098698990035
 30
0.0
 11
43.30047808566081
 21
25.22098698990044
 31
0.0
  0
LINE
  5
3EB
330
3A4
100
AcDbEntity
  8
0
 62
     0
100
AcDbLine
 10
41.20047808566084
 20
27.32098698990034
 30
0.0
 11
39.16387879273855
 21
29.35758628282269
 31
0.0
  0
LINE
  5
3EC
330
3A4
100
AcDbEntity
  8
0
 62
     0
100
AcDbLine
 10
55.24743091399376
 20
13.2740341615675
 30
0.0
 11
52.76692596440574
 21
15.7545391111555
 31
0.0
  0
LINE
  5
3ED
330
3A4
100
AcDbEntity
  8
0
 62
     0
100
AcDbLine
 10
41.20047808566084
 20
26.42296137779345
 30
0.0
 11
38.49308819788552
 21
29.13035126556872
 31
0.0
  0
LINE
  5
3EE
330
3A4
100
AcDbEntity
  8
0
 62
     0
100
AcDbLine
 10
50.65047808566084
 20
16.97296137779341
 30
0.0
 11
43.3238887535432
 21
24.2995507099111
 31
0.0
  0
LINE
  5
3EF
330
3A4
100
AcDbEntity
  8
0
 62
     0
100
AcDbLine
 10
41.20047808566084
 20
25.5249357656865
 30
0.0
 11
38.40047808566078
 21
28.32493576568657
 31
0.0
  0
LINE
  5
3F0
330
3A4
100
AcDbEntity
  8
0
 62
     0
100
AcDbLine
 10
50.65047808566072
 20
16.07493576568657
 30
0.0
 11
43.64200817138322
 21
23.08340567996413
 31
0.0
  0
LINE
  5
3F1
330
3A4
100
AcDbEntity
  8
0
 62
     0
100
AcDbLine
 10
41.20047808566084
 20
24.62691015357961
 30
0.0
 11
38.40047808566078
 21
27.42691015357962
 31
0.0
  0
LINE
  5
3F2
330
3A4
100
AcDbEntity
  8
0
 62
     0
100
AcDbLine
 10
50.54191626807176
 20
15.2854719711687
 30
0.0
 11
47.84628147903345
 21
17.98110676020701
 31
0.0
  0
LINE
  5
3F3
330
3A4
100
AcDbEntity
  8
0
 62
     0
100
AcDbLine
 10
41.20047808566084
 20
23.72888454147272
 30
0.0
 11
38.40047808566078
 21
26.52888454147279
 31
0.0
  0
LINE
  5
3F4
330
3A4
100
AcDbEntity
  8
0
 62
     0
100
AcDbLine
 10
36.10899118508382
 20
28.82037144204969
 30
0.0
 11
35.57177634431093
 21
29.35758628282263
 31
0.0
  0
LINE
  5
3F5
330
3A4
100
AcDbEntity
  8
0
 62
     0
100
AcDbLine
 10
50.2740405603102
 20
14.65532206682337
 30
0.0
 11
47.85047808566088
 21
17.07888454147268
 31
0.0
  0
LINE
  5
3F6
330
3A4
100
AcDbEntity
  8
0
 62
     0
100
AcDbLine
 10
41.20047808566079
 20
22.83085892936577
 30
0.0
 11
38.40047808566078
 21
25.63085892936584
 31
0.0
  0
LINE
  5
3F7
330
3A4
100
AcDbEntity
  8
0
 62
     0
100
AcDbLine
 10
35.91006352083121
 20
28.12127349419535
 30
0.0
 11
34.67375073220398
 21
29.35758628282263
 31
0.0
  0
LINE
  5
3F8
330
3A4
100
AcDbEntity
  8
0
 62
     0
100
AcDbLine
 10
49.8910537621349
 20
14.14028325289172
 30
0.0
 11
47.75319290277439
 21
16.27814411225222
 31
0.0
  0
LINE
  5
3F9
330
3A4
100
AcDbEntity
  8
0
 62
     0
100
AcDbLine
 10
41.20047808566079
 20
21.93283331725888
 30
0.0
 11
38.40047808566072
 21
24.73283331725889
 31
0.0
  0
LINE
  5
3FA
330
3A4
100
AcDbEntity
  8
0
 62
     0
100
AcDbLine
 10
35.69453737392553
 20
27.43877402899409
 30
0.0
 11
33.78532181045494
 21
29.34798959246473
 31
0.0
  0
LINE
  5
3FB
330
3A4
100
AcDbEntity
  8
0
 62
     0
100
AcDbLine
 10
49.40473479701927
 20
13.72857660590034
 30
0.0
 11
47.07572512009704
 21
16.05758628282262
 31
0.0
  0
LINE
  5
3FC
330
3A4
100
AcDbEntity
  8
0
 62
     0
100
AcDbLine
 10
41.20047808566084
 20
21.03480770515198
 30
0.0
 11
38.40047808566078
 21
23.83480770515205
 31
0.0
  0
LINE
  5
3FD
330
3A4
100
AcDbEntity
  8
0
 62
     0
100
AcDbLine
 10
35.47901122702
 20
26.75627456379283
 30
0.0
 11
33.35101122701996
 21
28.88427456379287
 31
0.0
  0
LINE
  5
3FE
330
3A4
100
AcDbEntity
  8
0
 62
     0
100
AcDbLine
 10
48.8086508485589
 20
13.42663494225388
 30
0.0
 11
46.17769950799015
 21
16.05758628282268
 31
0.0
  0
LINE
  5
3FF
330
3A4
100
AcDbEntity
  8
0
 62
     0
100
AcDbLine
 10
41.20047808566079
 20
20.13678209304509
 30
0.0
 11
38.40047808566072
 21
22.9367820930451
 31
0.0
  0
LINE
  5
400
330
3A4
100
AcDbEntity
  8
0
 62
     0
100
AcDbLine
 10
35.26348508011415
 20
26.07377509859174
 30
0.0
 11
33.13548508011416
 21
28.20177509859172
 31
0.0
  0
LINE
  5
401
330
3A4
100
AcDbEntity
  8
0
 62
     0
100
AcDbLine
 10
48.07097819691143
 20
13.26628198179446
 30
0.0
 11
45.27967389588326
 21
16.05758628282262
 31
0.0
  0
LINE
  5
402
330
3A4
100
AcDbEntity
  8
0
 62
     0
100
AcDbLine
 10
41.20047808566079
 20
19.23875648093815
 30
0.0
 11
38.40047808566078
 21
22.0387564809381
 31
0.0
  0
LINE
  5
403
330
3A4
100
AcDbEntity
  8
0
 62
     0
100
AcDbLine
 10
35.04795893320857
 20
25.39127563339036
 30
0.0
 11
32.91995893320847
 21
27.5192756333904
 31
0.0
  0
LINE
  5
404
330
3A4
100
AcDbEntity
  8
0
 62
     0
100
AcDbLine
 10
47.18164828377638
 20
13.25758628282255
 30
0.0
 11
44.38164828377631
 21
16.05758628282262
 31
0.0
  0
LINE
  5
405
330
3A4
100
AcDbEntity
  8
0
 62
     0
100
AcDbLine
 10
41.20047808566079
 20
18.34073086883125
 30
0.0
 11
38.40047808566083
 21
21.14073086883127
 31
0.0
  0
LINE
  5
406
330
3A4
100
AcDbEntity
  8
0
 62
     0
100
AcDbLine
 10
34.83243278630294
 20
24.70877616818916
 30
0.0
 11
32.70443278630284
 21
26.8367761681892
 31
0.0
  0
LINE
  5
407
330
3A4
100
AcDbEntity
  8
0
 62
     0
100
AcDbLine
 10
46.28362267166949
 20
13.25758628282261
 30
0.0
 11
43.8500109743731
 21
15.691197980119
 31
0.0
  0
LINE
  5
408
330
3A4
100
AcDbEntity
  8
0
 62
     0
100
AcDbLine
 10
34.61690663939731
 20
24.02627670298778
 30
0.0
 11
32.48890663939721
 21
26.15427670298794
 31
0.0
  0
LINE
  5
409
330
3A4
100
AcDbEntity
  8
0
 62
     0
100
AcDbLine
 10
41.20047808566079
 20
17.44270525672436
 30
0.0
 11
38.40047808566083
 21
20.24270525672432
 31
0.0
  0
LINE
  5
40A
330
3A4
100
AcDbEntity
  8
0
 62
     0
100
AcDbLine
 10
30.35047808566082
 20
28.29270525672433
 30
0.0
 11
29.28559705956251
 21
29.35758628282258
 31
0.0
  0
LINE
  5
40B
330
3A4
100
AcDbEntity
  8
0
 62
     0
100
AcDbLine
 10
45.38559705956259
 20
13.25758628282255
 30
0.0
 11
43.82547808566084
 21
14.8177052567243
 31
0.0
  0
LINE
  5
40C
330
3A4
100
AcDbEntity
  8
0
 62
     0
100
AcDbLine
 10
34.40138049249151
 20
23.34377723778669
 30
0.0
 11
32.27338049249158
 21
25.47177723778662
 31
0.0
  0
LINE
  5
40D
330
3A4
100
AcDbEntity
  8
0
 62
     0
100
AcDbLine
 10
41.20047808566079
 20
16.54467964461741
 30
0.0
 11
38.40047808566078
 21
19.34467964461743
 31
0.0
  0
LINE
  5
40E
330
3A4
100
AcDbEntity
  8
0
 62
     0
100
AcDbLine
 10
30.35047808566082
 20
27.39467964461738
 30
0.0
 11
28.38757144745562
 21
29.35758628282258
 31
0.0
  0
LINE
  5
40F
330
3A4
100
AcDbEntity
  8
0
 62
     0
100
AcDbLine
 10
44.48757144745559
 20
13.25758628282261
 30
0.0
 11
43.82547808566079
 21
13.91967964461736
 31
0.0
  0
LINE
  5
410
330
3A4
100
AcDbEntity
  8
0
 62
     0
100
AcDbLine
 10
34.18585434558588
 20
22.66127777258537
 30
0.0
 11
32.05785434558583
 21
24.78927777258542
 31
0.0
  0
LINE
  5
411
330
3A4
100
AcDbEntity
  8
0
 62
     0
100
AcDbLine
 10
30.35047808566076
 20
26.49665403251043
 30
0.0
 11
27.67503315676316
 21
29.17209896140809
 31
0.0
  0
LINE
  5
412
330
3A4
100
AcDbEntity
  8
0
 62
     0
100
AcDbLine
 10
41.20047808566073
 20
15.64665403251052
 30
0.0
 11
38.40047808566078
 21
18.44665403251048
 31
0.0
  0
LINE
  5
413
330
3A4
100
AcDbEntity
  8
0
 62
     0
100
AcDbLine
 10
33.97032819868025
 20
21.97877830738417
 30
0.0
 11
31.84232819868026
 21
24.10677830738416
 31
0.0
  0
LINE
  5
414
330
3A4
100
AcDbEntity
  8
0
 62
     0
100
AcDbLine
 10
30.35047808566082
 20
25.59862842040359
 30
0.0
 11
27.55047808566075
 21
28.39862842040361
 31
0.0
  0
LINE
  5
415
330
3A4
100
AcDbEntity
  8
0
 62
     0
100
AcDbLine
 10
41.20047808566079
 20
14.74862842040363
 30
0.0
 11
38.40047808566078
 21
17.54862842040358
 31
0.0
  0
LINE
  5
416
330
3A4
100
AcDbEntity
  8
0
 62
     0
100
AcDbLine
 10
33.76523968928819
 20
21.28584120466928
 30
0.0
 11
31.62680205177451
 21
23.42427884218295
 31
0.0
  0
LINE
  5
417
330
3A4
100
AcDbEntity
  8
0
 62
     0
100
AcDbLine
 10
30.35047808566082
 20
24.70060280829665
 30
0.0
 11
27.55047808566075
 21
27.50060280829671
 31
0.0
  0
LINE
  5
418
330
3A4
100
AcDbEntity
  8
0
 62
     0
100
AcDbLine
 10
41.20047808566073
 20
13.85060280829668
 30
0.0
 11
38.40047808566078
 21
16.65060280829669
 31
0.0
  0
LINE
  5
419
330
3A4
100
AcDbEntity
  8
0
 62
     0
100
AcDbLine
 10
34.17971304872219
 20
19.97334223312833
 30
0.0
 11
31.33625455608989
 21
22.81680072576063
 31
0.0
  0
LINE
  5
41A
330
3A4
100
AcDbEntity
  8
0
 62
     0
100
AcDbLine
 10
30.35047808566088
 20
23.80257719618964
 30
0.0
 11
27.5504780856607
 21
26.60257719618977
 31
0.0
  0
LINE
  5
41B
330
3A4
100
AcDbEntity
  8
0
 62
     0
100
AcDbLine
 10
40.8614330883284
 20
13.29162219352207
 30
0.0
 11
38.40047808566078
 21
15.75257719618974
 31
0.0
  0
LINE
  5
41C
330
3A4
100
AcDbEntity
  8
0
 62
     0
100
AcDbLine
 10
34.59418640815619
 20
18.6608432615875
 30
0.0
 11
27.55047808566075
 21
25.70455158408293
 31
0.0
  0
LINE
  5
41D
330
3A4
100
AcDbEntity
  8
0
 62
     0
100
AcDbLine
 10
25.10047808566088
 20
28.15455158408281
 30
0.0
 11
23.89744338692111
 21
29.35758628282258
 31
0.0
  0
LINE
  5
41E
330
3A4
100
AcDbEntity
  8
0
 62
     0
100
AcDbLine
 10
39.99744338692113
 20
13.25758628282255
 30
0.0
 11
38.40047808566089
 21
14.8545515840828
 31
0.0
  0
LINE
  5
41F
330
3A4
100
AcDbEntity
  8
0
 62
     0
100
AcDbLine
 10
35.00865976759024
 20
17.34834429004649
 30
0.0
 11
27.55047808566075
 21
24.80652597197599
 31
0.0
  0
LINE
  5
420
330
3A4
100
AcDbEntity
  8
0
 62
     0
100
AcDbLine
 10
25.10047808566088
 20
27.25652597197586
 30
0.0
 11
22.9994177748141
 21
29.35758628282263
 31
0.0
  0
LINE
  5
421
330
3A4
100
AcDbEntity
  8
0
 62
     0
100
AcDbLine
 10
39.09941777481418
 20
13.2575862828225
 30
0.0
 11
38.40047808566083
 21
13.9565259719759
 31
0.0
  0
LINE
  5
422
330
3A4
100
AcDbEntity
  8
0
 62
     0
100
AcDbLine
 10
24.83357139027077
 20
26.62540705525902
 30
0.0
 11
22.13334967205935
 21
29.32562877347038
 31
0.0
  0
LINE
  5
423
330
3A4
100
AcDbEntity
  8
0
 62
     0
100
AcDbLine
 10
35.42313312702418
 20
16.0358453185056
 30
0.0
 11
27.55047808566081
 21
23.90850035986898
 31
0.0
  0
LINE
  5
424
330
3A4
100
AcDbEntity
  8
0
 62
     0
100
AcDbLine
 10
30.68798700800243
 20
19.87296582542046
 30
0.0
 11
27.55047808566081
 21
23.01047474776209
 31
0.0
  0
LINE
  5
425
330
3A4
100
AcDbEntity
  8
0
 62
     0
100
AcDbLine
 10
24.00336655060033
 20
26.55758628282251
 30
0.0
 11
21.39530660247209
 21
29.16564623095081
 31
0.0
  0
LINE
  5
426
330
3A4
100
AcDbEntity
  8
0
 62
     0
100
AcDbLine
 10
35.83760648645824
 20
14.72334634696466
 30
0.0
 11
31.74529879415013
 21
18.81565403927277
 31
0.0
  0
LINE
  5
427
330
3A4
100
AcDbEntity
  8
0
 62
     0
100
AcDbLine
 10
30.35047808566088
 20
19.31244913565512
 30
0.0
 11
27.55047808566081
 21
22.11244913565519
 31
0.0
  0
LINE
  5
428
330
3A4
100
AcDbEntity
  8
0
 62
     0
100
AcDbLine
 10
23.10534093849332
 20
26.55758628282262
 30
0.0
 11
20.75658518664135
 21
28.90634203467459
 31
0.0
  0
LINE
  5
429
330
3A4
100
AcDbEntity
  8
0
 62
     0
100
AcDbLine
 10
36.07264534416884
 20
13.5902818771471
 30
0.0
 11
32.15977215358407
 21
17.50315506773193
 31
0.0
  0
LINE
  5
42A
330
3A4
100
AcDbEntity
  8
0
 62
     0
100
AcDbLine
 10
30.35047808566082
 20
18.41442352354823
 30
0.0
 11
27.55047808566075
 21
21.21442352354824
 31
0.0
  0
LINE
  5
42B
330
3A4
100
AcDbEntity
  8
0
 62
     0
100
AcDbLine
 10
22.26222743594979
 20
26.50267417325926
 30
0.0
 11
20.19783621130682
 21
28.56706539790224
 31
0.0
  0
LINE
  5
42C
330
3A4
100
AcDbEntity
  8
0
 62
     0
100
AcDbLine
 10
35.5073153263865
 20
13.25758628282255
 30
0.0
 11
32.57424551301812
 21
16.19065609619087
 31
0.0
  0
LINE
  5
42D
330
3A4
100
AcDbEntity
  8
0
 62
     0
100
AcDbLine
 10
30.35047808566082
 20
17.51639791144128
 30
0.0
 11
27.55047808566075
 21
20.31639791144135
 31
0.0
  0
LINE
  5
42E
330
3A4
100
AcDbEntity
  8
0
 62
     0
100
AcDbLine
 10
21.6903712431108
 20
26.1765047539913
 30
0.0
 11
19.71018100269503
 21
28.15669499440707
 31
0.0
  0
LINE
  5
42F
330
3A4
100
AcDbEntity
  8
0
 62
     0
100
AcDbLine
 10
34.60928971427955
 20
13.25758628282255
 30
0.0
 11
32.98871887245207
 21
14.87815712465004
 31
0.0
  0
LINE
  5
430
330
3A4
100
AcDbEntity
  8
0
 62
     0
100
AcDbLine
 10
25.43590721845856
 20
21.53294316653671
 30
0.0
 11
23.92583496937481
 21
23.04301541562046
 31
0.0
  0
LINE
  5
431
330
3A4
100
AcDbEntity
  8
0
 62
     0
100
AcDbLine
 10
30.35047808566094
 20
16.61837229933434
 30
0.0
 11
27.55047808566081
 21
19.41837229933446
 31
0.0
  0
LINE
  5
432
330
3A4
100
AcDbEntity
  8
0
 62
     0
100
AcDbLine
 10
21.33424967298185
 20
25.63460071201342
 30
0.0
 11
19.2908149766838
 21
27.67803540831147
 31
0.0
  0
LINE
  5
433
330
3A4
100
AcDbEntity
  8
0
 62
     0
100
AcDbLine
 10
33.66093109796804
 20
13.30791928702723
 30
0.0
 11
33.41057692637673
 21
13.55827345861854
 31
0.0
  0
LINE
  5
434
330
3A4
100
AcDbEntity
  8
0
 62
     0
100
AcDbLine
 10
25.34939355831665
 20
20.72143121457167
 30
0.0
 11
23.11432301740978
 21
22.95650175547854
 31
0.0
  0
LINE
  5
435
330
3A4
100
AcDbEntity
  8
0
 62
     0
100
AcDbLine
 10
21.25047808566091
 20
24.82034668722741
 30
0.0
 11
18.94187595572214
 21
27.12894881716619
 31
0.0
  0
LINE
  5
436
330
3A4
100
AcDbEntity
  8
0
 62
     0
100
AcDbLine
 10
30.35047808566088
 20
15.72034668722739
 30
0.0
 11
27.55047808566075
 21
18.52034668722757
 31
0.0
  0
LINE
  5
437
330
3A4
100
AcDbEntity
  8
0
 62
     0
100
AcDbLine
 10
25.0175379990186
 20
20.15526116176272
 30
0.0
 11
22.54815296460083
 21
22.62464619618049
 31
0.0
  0
LINE
  5
438
330
3A4
100
AcDbEntity
  8
0
 62
     0
100
AcDbLine
 10
21.25047808566091
 20
23.92232107512046
 30
0.0
 11
18.67129624851196
 21
26.50150291226941
 31
0.0
  0
LINE
  5
439
330
3A4
100
AcDbEntity
  8
0
 62
     0
100
AcDbLine
 10
30.35047808566088
 20
14.82232107512049
 30
0.0
 11
27.55047808566081
 21
17.62232107512056
 31
0.0
  0
LINE
  5
43A
330
3A4
100
AcDbEntity
  8
0
 62
     0
100
AcDbLine
 10
21.25047808566091
 20
23.02429546301357
 30
0.0
 11
18.49658237558611
 21
25.77819117308843
 31
0.0
  0
LINE
  5
43B
330
3A4
100
AcDbEntity
  8
0
 62
     0
100
AcDbLine
 10
24.51570455688215
 20
19.75906899179238
 30
0.0
 11
22.15196079463049
 21
22.12281275404405
 31
0.0
  0
LINE
  5
43C
330
3A4
100
AcDbEntity
  8
0
 62
     0
100
AcDbLine
 10
15.82547808566073
 20
28.44929546301375
 30
0.0
 11
14.91718726585185
 21
29.35758628282269
 31
0.0
  0
LINE
  5
43D
330
3A4
100
AcDbEntity
  8
0
 62
     0
100
AcDbLine
 10
30.35047808566094
 20
13.9242954630136
 30
0.0
 11
27.55047808566087
 21
16.72429546301367
 31
0.0
  0
LINE
  5
43E
330
3A4
100
AcDbEntity
  8
0
 62
     0
100
AcDbLine
 10
21.25047808566091
 20
22.12626985090668
 30
0.0
 11
18.45047808566084
 21
24.92626985090675
 31
0.0
  0
LINE
  5
43F
330
3A4
100
AcDbEntity
  8
0
 62
     0
100
AcDbLine
 10
23.81538511445473
 20
19.56136282211287
 30
0.0
 11
21.95425462495097
 21
21.42249331161662
 31
0.0
  0
LINE
  5
440
330
3A4
100
AcDbEntity
  8
0
 62
     0
100
AcDbLine
 10
15.82547808566073
 20
27.55126985090686
 30
0.0
 11
14.0191616537449
 21
29.35758628282263
 31
0.0
  0
LINE
  5
441
330
3A4
100
AcDbEntity
  8
0
 62
     0
100
AcDbLine
 10
30.06257428439022
 20
13.31417365217737
 30
0.0
 11
27.55047808566081
 21
15.82626985090672
 31
0.0
  0
LINE
  5
442
330
3A4
100
AcDbEntity
  8
0
 62
     0
100
AcDbLine
 10
21.25047808566091
 20
21.22824423879973
 30
0.0
 11
18.45047808566084
 21
24.0282442387998
 31
0.0
  0
LINE
  5
443
330
3A4
100
AcDbEntity
  8
0
 62
     0
100
AcDbLine
 10
15.71644411539045
 20
26.76227820907019
 30
0.0
 11
13.12113604163789
 21
29.35758628282269
 31
0.0
  0
LINE
  5
444
330
3A4
100
AcDbEntity
  8
0
 62
     0
100
AcDbLine
 10
29.22113604163809
 20
13.2575862828225
 30
0.0
 11
27.55047808566081
 21
14.92824423879983
 31
0.0
  0
LINE
  5
445
330
3A4
100
AcDbEntity
  8
0
 62
     0
100
AcDbLine
 10
21.25047808566085
 20
20.33021862669284
 30
0.0
 11
18.45047808566079
 21
23.13021862669285
 31
0.0
  0
LINE
  5
446
330
3A4
100
AcDbEntity
  8
0
 62
     0
100
AcDbLine
 10
15.02311042953112
 20
26.55758628282256
 30
0.0
 11
12.223110429531
 21
29.35758628282269
 31
0.0
  0
LINE
  5
447
330
3A4
100
AcDbEntity
  8
0
 62
     0
100
AcDbLine
 10
28.32311042953108
 20
13.25758628282255
 30
0.0
 11
27.55047808566081
 21
14.03021862669288
 31
0.0
  0
LINE
  5
448
330
3A4
100
AcDbEntity
  8
0
 62
     0
100
AcDbLine
 10
21.25047808566091
 20
19.43219301458595
 30
0.0
 11
18.45047808566084
 21
22.23219301458601
 31
0.0
  0
LINE
  5
449
330
3A4
100
AcDbEntity
  8
0
 62
     0
100
AcDbLine
 10
14.12508481742423
 20
26.55758628282256
 30
0.0
 11
11.35995554531933
 21
29.32271555492752
 31
0.0
  0
LINE
  5
44A
330
3A4
100
AcDbEntity
  8
0
 62
     0
100
AcDbLine
 10
25.09787563682391
 20
15.58479546342289
 30
0.0
 11
24.6276872662612
 21
16.05498383398566
 31
0.0
  0
LINE
  5
44B
330
3A4
100
AcDbEntity
  8
0
 62
     0
100
AcDbLine
 10
21.25047808566085
 20
18.53416740247899
 30
0.0
 11
18.45047808566084
 21
21.33416740247906
 31
0.0
  0
LINE
  5
44C
330
3A4
100
AcDbEntity
  8
0
 62
     0
100
AcDbLine
 10
13.22705920531734
 20
26.55758628282256
 30
0.0
 11
10.66682073684086
 21
29.11782475129905
 31
0.0
  0
LINE
  5
44D
330
3A4
100
AcDbEntity
  8
0
 62
     0
100
AcDbLine
 10
25.10047808566082
 20
14.68416740247903
 30
0.0
 11
23.72705920531728
 21
16.05758628282262
 31
0.0
  0
LINE
  5
44E
330
3A4
100
AcDbEntity
  8
0
 62
     0
100
AcDbLine
 10
21.25047808566085
 20
17.6361417903721
 30
0.0
 11
18.4504780856609
 21
20.43614179037206
 31
0.0
  0
LINE
  5
44F
330
3A4
100
AcDbEntity
  8
0
 62
     0
100
AcDbLine
 10
12.32903359321039
 20
26.55758628282251
 30
0.0
 11
10.10257407699362
 21
28.78404579903929
 31
0.0
  0
LINE
  5
450
330
3A4
100
AcDbEntity
  8
0
 62
     0
100
AcDbLine
 10
25.10047808566082
 20
13.78614179037214
 30
0.0
 11
22.82903359321039
 21
16.05758628282251
 31
0.0
  0
LINE
  5
451
330
3A4
100
AcDbEntity
  8
0
 62
     0
100
AcDbLine
 10
11.8187407655958
 20
26.16985349833032
 30
0.0
 11
9.644481264752869
 21
28.34411299917326
 31
0.0
  0
LINE
  5
452
330
3A4
100
AcDbEntity
  8
0
 62
     0
100
AcDbLine
 10
24.71274530116852
 20
13.2758489627576
 30
0.0
 11
18.4504780856609
 21
19.53811617826522
 31
0.0
  0
LINE
  5
453
330
3A4
100
AcDbEntity
  8
0
 62
     0
100
AcDbLine
 10
11.80047808566087
 20
25.29009056615831
 30
0.0
 11
9.291000062283785
 21
27.79956858953539
 31
0.0
  0
LINE
  5
454
330
3A4
100
AcDbEntity
  8
0
 62
     0
100
AcDbLine
 10
23.83298236899662
 20
13.25758628282255
 30
0.0
 11
18.4504780856609
 21
18.64009056615827
 31
0.0
  0
LINE
  5
455
330
3A4
100
AcDbEntity
  8
0
 62
     0
100
AcDbLine
 10
11.86261379379629
 20
24.32992924591587
 30
0.0
 11
9.060119959990061
 21
27.13242307972217
 31
0.0
  0
LINE
  5
456
330
3A4
100
AcDbEntity
  8
0
 62
     0
100
AcDbLine
 10
22.93495675688962
 20
13.25758628282261
 30
0.0
 11
18.45047808566084
 21
17.74206495405133
 31
0.0
  0
LINE
  5
457
330
3A4
100
AcDbEntity
  8
0
 62
     0
100
AcDbLine
 10
16.15485417688353
 20
19.13966325072181
 30
0.0
 11
9.000478085660915
 21
26.29403934194442
 31
0.0
  0
LINE
  5
458
330
3A4
100
AcDbEntity
  8
0
 62
     0
100
AcDbLine
 10
21.98365905772607
 20
13.31085836987927
 30
0.0
 11
18.5037501727175
 21
16.79076725488783
 31
0.0
  0
LINE
  5
459
330
3A4
100
AcDbEntity
  8
0
 62
     0
100
AcDbLine
 10
16.34674869096875
 20
18.04974312452969
 30
0.0
 11
9.000478085660802
 21
25.39601372983764
 31
0.0
  0
LINE
  5
45A
330
3A4
100
AcDbEntity
  8
0
 62
     0
100
AcDbLine
 10
20.60985114512448
 20
13.78664067037391
 30
0.0
 11
18.97953247321209
 21
15.41695934228636
 31
0.0
  0
LINE
  5
45B
330
3A4
100
AcDbEntity
  8
0
 62
     0
100
AcDbLine
 10
16.35047808566088
 20
17.14798811773062
 30
0.0
 11
9.008042533083198
 21
24.49042367030824
 31
0.0
  0
LINE
  5
45C
330
3A4
100
AcDbEntity
  8
0
 62
     0
100
AcDbLine
 10
16.35047808566082
 20
16.24996250562372
 30
0.0
 11
9.231333291407054
 21
23.36910729987744
 31
0.0
  0
LINE
  5
45D
330
3A4
100
AcDbEntity
  8
0
 62
     0
100
AcDbLine
 10
16.27795808952891
 20
15.4244568896488
 30
0.0
 11
13.51456644590985
 21
18.18784853326786
 31
0.0
  0
LINE
  5
45E
330
3A4
100
AcDbEntity
  8
0
 62
     0
100
AcDbLine
 10
16.03602015050006
 20
14.7683692165707
 30
0.0
 11
13.55047808566081
 21
17.25391128140995
 31
0.0
  0
LINE
  5
45F
330
3A4
100
AcDbEntity
  8
0
 62
     0
100
AcDbLine
 10
15.67390090311829
 20
14.23246285184552
 30
0.0
 11
13.51457905336013
 21
16.39178470160368
 31
0.0
  0
LINE
  5
460
330
3A4
100
AcDbEntity
  8
0
 62
     0
100
AcDbLine
 10
15.20767453085142
 20
13.8006636120055
 30
0.0
 11
12.9507518600343
 21
16.05758628282268
 31
0.0
  0
LINE
  5
461
330
3A4
100
AcDbEntity
  8
0
 62
     0
100
AcDbLine
 10
14.6344100831186
 20
13.47590244763142
 30
0.0
 11
12.05272624792735
 21
16.05758628282262
 31
0.0
  0
LINE
  5
462
330
3A4
100
AcDbEntity
  8
0
 62
     0
100
AcDbLine
 10
13.92899749403267
 20
13.28328942461041
 30
0.0
 11
11.15470063582046
 21
16.05758628282262
 31
0.0
  0
LINE
  5
463
330
3A4
100
AcDbEntity
  8
0
 62
     0
100
AcDbLine
 10
13.05667502371363
 20
13.25758628282244
 30
0.0
 11
10.25667502371351
 21
16.05758628282262
 31
0.0
  0
LINE
  5
464
330
3A4
100
AcDbEntity
  8
0
 62
     0
100
AcDbLine
 10
12.15864941160669
 20
13.25758628282255
 30
0.0
 11
9.605325516788809
 21
15.81091017764049
 31
0.0
  0
LINE
  5
465
330
3A4
100
AcDbEntity
  8
0
 62
     0
100
AcDbLine
 10
11.26062379949979
 20
13.25758628282255
 30
0.0
 11
9.525478085660836
 21
14.99273199666151
 31
0.0
  0
LINE
  5
466
330
3A4
100
AcDbEntity
  8
0
 62
     0
100
AcDbLine
 10
10.36259818739284
 20
13.25758628282255
 30
0.0
 11
9.525478085660836
 21
14.09470638455457
 31
0.0
  0
LINE
  5
467
330
3A4
100
AcDbEntity
  8
0
 62
     0
100
AcDbLine
 10
66.34216537032779
 20
13.27071805994012
 30
0.0
 11
66.73734630854358
 21
13.66589899815591
 31
0.0
  0
LINE
  5
468
330
3A4
100
AcDbEntity
  8
0
 62
     0
100
AcDbLine
 10
65.43100798110334
 20
13.2575862828225
 30
0.0
 11
66.75047808566103
 21
14.57705638738019
 31
0.0
  0
LINE
  5
469
330
3A4
100
AcDbEntity
  8
0
 62
     0
100
AcDbLine
 10
64.53298236899644
 20
13.2575862828225
 30
0.0
 11
66.75047808566103
 21
15.47508199948708
 31
0.0
  0
LINE
  5
46A
330
3A4
100
AcDbEntity
  8
0
 62
     0
100
AcDbLine
 10
63.9816756489127
 20
13.6043051748457
 30
0.0
 11
66.75047808566097
 21
16.37310761159403
 31
0.0
  0
LINE
  5
46B
330
3A4
100
AcDbEntity
  8
0
 62
     0
100
AcDbLine
 10
63.9504780856609
 20
14.47113322370086
 30
0.0
 11
66.75047808566097
 21
17.27113322370087
 31
0.0
  0
LINE
  5
46C
330
3A4
100
AcDbEntity
  8
0
 62
     0
100
AcDbLine
 10
63.95047808566096
 20
15.36915883580775
 30
0.0
 11
66.75047808566097
 21
18.16915883580782
 31
0.0
  0
LINE
  5
46D
330
3A4
100
AcDbEntity
  8
0
 62
     0
100
AcDbLine
 10
63.9504780856609
 20
16.2671844479147
 30
0.0
 11
66.75047808566097
 21
19.06718444791477
 31
0.0
  0
LINE
  5
46E
330
3A4
100
AcDbEntity
  8
0
 62
     0
100
AcDbLine
 10
63.9504780856609
 20
17.16521006002159
 30
0.0
 11
66.75047808566097
 21
19.96521006002166
 31
0.0
  0
LINE
  5
46F
330
3A4
100
AcDbEntity
  8
0
 62
     0
100
AcDbLine
 10
60.37704294772618
 20
13.59177492208686
 30
0.0
 11
61.51628944639674
 21
14.73102142075748
 31
0.0
  0
LINE
  5
470
330
3A4
100
AcDbEntity
  8
0
 62
     0
100
AcDbLine
 10
63.9504780856609
 20
18.06323567212848
 30
0.0
 11
66.75047808566097
 21
20.86323567212855
 31
0.0
  0
LINE
  5
471
330
3A4
100
AcDbEntity
  8
0
 62
     0
100
AcDbLine
 10
59.14647478120338
 20
13.25923236767096
 30
0.0
 11
61.8488320008127
 21
15.96158958728023
 31
0.0
  0
LINE
  5
472
330
3A4
100
AcDbEntity
  8
0
 62
     0
100
AcDbLine
 10
63.9504780856609
 20
18.96126128423543
 30
0.0
 11
66.75047808566097
 21
21.76126128423544
 31
0.0
  0
LINE
  5
473
330
3A4
100
AcDbEntity
  8
0
 62
     0
100
AcDbLine
 10
58.24680308424797
 20
13.2575862828225
 30
0.0
 11
61.850478085661
 21
16.86126128423546
 31
0.0
  0
LINE
  5
474
330
3A4
100
AcDbEntity
  8
0
 62
     0
100
AcDbLine
 10
63.9504780856609
 20
19.85928689634232
 30
0.0
 11
66.75047808566091
 21
22.65928689634239
 31
0.0
  0
LINE
  5
475
330
3A4
100
AcDbEntity
  8
0
 62
     0
100
AcDbLine
 10
57.34877747214108
 20
13.2575862828225
 30
0.0
 11
61.85047808566094
 21
17.75928689634241
 31
0.0
  0
LINE
  5
476
330
3A4
100
AcDbEntity
  8
0
 62
     0
100
AcDbLine
 10
63.9504780856609
 20
20.75731250844921
 30
0.0
 11
66.75047808566097
 21
23.55731250844928
 31
0.0
  0
LINE
  5
477
330
3A4
100
AcDbEntity
  8
0
 62
     0
100
AcDbLine
 10
56.45075186003424
 20
13.25758628282255
 30
0.0
 11
61.850478085661
 21
18.6573125084493
 31
0.0
  0
LINE
  5
478
330
3A4
100
AcDbEntity
  8
0
 62
     0
100
AcDbLine
 10
58.94588688357988
 20
16.65074691847513
 30
0.0
 11
61.850478085661
 21
19.5553381205562
 31
0.0
  0
LINE
  5
479
330
3A4
100
AcDbEntity
  8
0
 62
     0
100
AcDbLine
 10
63.9504780856609
 20
21.65533812055611
 30
0.0
 11
66.75047808566097
 21
24.45533812055618
 31
0.0
  0
LINE
  5
47A
330
3A4
100
AcDbEntity
  8
0
 62
     0
100
AcDbLine
 10
55.55272624792724
 20
13.2575862828225
 30
0.0
 11
58.45731745000836
 21
16.16217748490356
 31
0.0
  0
LINE
  5
47B
330
3A4
100
AcDbEntity
  8
0
 62
     0
100
AcDbLine
 10
59.05047808566087
 20
17.65336373266308
 30
0.0
 11
61.85047808566094
 21
20.45336373266315
 31
0.0
  0
LINE
  5
47C
330
3A4
100
AcDbEntity
  8
0
 62
     0
100
AcDbLine
 10
63.95047808566085
 20
22.55336373266306
 30
0.0
 11
66.75047808566091
 21
25.35336373266313
 31
0.0
  0
LINE
  5
47D
330
3A4
100
AcDbEntity
  8
0
 62
     0
100
AcDbLine
 10
54.76665038719755
 20
13.36953603419971
 30
0.0
 11
57.45470063582041
 21
16.05758628282257
 31
0.0
  0
LINE
  5
47E
330
3A4
100
AcDbEntity
  8
0
 62
     0
100
AcDbLine
 10
59.05047808566092
 20
18.55138934477008
 30
0.0
 11
61.85047808566094
 21
21.35138934477004
 31
0.0
  0
LINE
  5
47F
330
3A4
100
AcDbEntity
  8
0
 62
     0
100
AcDbLine
 10
63.95047808566085
 20
23.45138934477
 30
0.0
 11
66.75047808566091
 21
26.25138934477002
 31
0.0
  0
LINE
  5
480
330
3A4
100
AcDbEntity
  8
0
 62
     0
100
AcDbLine
 10
54.1386635199874
 20
13.63957477909656
 30
0.0
 11
56.55755280935784
 21
16.058464068467
 31
0.0
  0
LINE
  5
481
330
3A4
100
AcDbEntity
  8
0
 62
     0
100
AcDbLine
 10
59.05047808566099
 20
19.44941495687698
 30
0.0
 11
61.85047808566094
 21
22.24941495687693
 31
0.0
  0
LINE
  5
482
330
3A4
100
AcDbEntity
  8
0
 62
     0
100
AcDbLine
 10
63.9504780856609
 20
24.34941495687684
 30
0.0
 11
66.75047808566091
 21
27.14941495687691
 31
0.0
  0
LINE
  5
483
330
3A4
100
AcDbEntity
  8
0
 62
     0
100
AcDbLine
 10
53.62540363862234
 20
14.02434050983828
 30
0.0
 11
55.91407422064515
 21
16.31301109186114
 31
0.0
  0
LINE
  5
484
330
3A4
100
AcDbEntity
  8
0
 62
     0
100
AcDbLine
 10
59.05047808566099
 20
20.34744056898387
 30
0.0
 11
61.85047808566094
 21
23.14744056898388
 31
0.0
  0
LINE
  5
485
330
3A4
100
AcDbEntity
  8
0
 62
     0
100
AcDbLine
 10
63.95047808566085
 20
25.24744056898379
 30
0.0
 11
66.75047808566091
 21
28.04744056898385
 31
0.0
  0
LINE
  5
486
330
3A4
100
AcDbEntity
  8
0
 62
     0
100
AcDbLine
 10
53.21543946339722
 20
14.5124019467201
 30
0.0
 11
55.57683594223573
 21
16.87379842555867
 31
0.0
  0
LINE
  5
487
330
3A4
100
AcDbEntity
  8
0
 62
     0
100
AcDbLine
 10
59.05047808566092
 20
21.24546618109082
 30
0.0
 11
61.850478085661
 21
24.04546618109089
 31
0.0
  0
LINE
  5
488
330
3A4
100
AcDbEntity
  8
0
 62
     0
100
AcDbLine
 10
63.95047808566085
 20
26.14546618109068
 30
0.0
 11
66.74032893211045
 21
28.93531702754035
 31
0.0
  0
LINE
  5
489
330
3A4
100
AcDbEntity
  8
0
 62
     0
100
AcDbLine
 10
52.91551458496321
 20
15.11050268039309
 30
0.0
 11
55.55047808566093
 21
17.74546618109076
 31
0.0
  0
LINE
  5
48A
330
3A4
100
AcDbEntity
  8
0
 62
     0
100
AcDbLine
 10
59.05047808566099
 20
22.14349179319765
 30
0.0
 11
61.85047808566105
 21
24.94349179319772
 31
0.0
  0
LINE
  5
48B
330
3A4
100
AcDbEntity
  8
0
 62
     0
100
AcDbLine
 10
63.95047808566085
 20
27.04349179319757
 30
0.0
 11
66.26321458703097
 21
29.3562282945677
 31
0.0
  0
LINE
  5
48C
330
3A4
100
AcDbEntity
  8
0
 62
     0
100
AcDbLine
 10
52.75810105000676
 20
15.85111475754348
 30
0.0
 11
55.55047808566093
 21
18.64349179319765
 31
0.0
  0
LINE
  5
48D
330
3A4
100
AcDbEntity
  8
0
 62
     0
100
AcDbLine
 10
59.05047808566092
 20
23.0415174053046
 30
0.0
 11
61.850478085661
 21
25.84151740530467
 31
0.0
  0
LINE
  5
48E
330
3A4
100
AcDbEntity
  8
0
 62
     0
100
AcDbLine
 10
63.9504780856609
 20
27.94151740530458
 30
0.0
 11
65.3665469631789
 21
29.35758628282258
 31
0.0
  0
LINE
  5
48F
330
3A4
100
AcDbEntity
  8
0
 62
     0
100
AcDbLine
 10
52.75047808566097
 20
16.74151740530459
 30
0.0
 11
55.55047808566098
 21
19.54151740530465
 31
0.0
  0
LINE
  5
490
330
3A4
100
AcDbEntity
  8
0
 62
     0
100
AcDbLine
 10
59.05047808566092
 20
23.93954301741155
 30
0.0
 11
61.850478085661
 21
26.73954301741156
 31
0.0
  0
LINE
  5
491
330
3A4
100
AcDbEntity
  8
0
 62
     0
100
AcDbLine
 10
52.75047808566092
 20
17.63954301741154
 30
0.0
 11
55.55047808566098
 21
20.4395430174116
 31
0.0
  0
LINE
  5
492
330
3A4
100
AcDbEntity
  8
0
 62
     0
100
AcDbLine
 10
63.95052480040835
 20
28.83958973215897
 30
0.0
 11
64.46847463632463
 21
29.3575395680752
 31
0.0
  0
LINE
  5
493
330
3A4
100
AcDbEntity
  8
0
 62
     0
100
AcDbLine
 10
48.42892245494891
 20
13.31798738669948
 30
0.0
 11
50.59007698178408
 21
15.4791419135347
 31
0.0
  0
LINE
  5
494
330
3A4
100
AcDbEntity
  8
0
 62
     0
100
AcDbLine
 10
52.75047808566092
 20
18.53756862951843
 30
0.0
 11
55.55047808566098
 21
21.33756862951849
 31
0.0
  0
LINE
  5
495
330
3A4
100
AcDbEntity
  8
0
 62
     0
100
AcDbLine
 10
59.05047808566092
 20
24.83756862951844
 30
0.0
 11
61.85047808566094
 21
27.63756862951851
 31
0.0
  0
LINE
  5
496
330
3A4
100
AcDbEntity
  8
0
 62
     0
100
AcDbLine
 10
47.47049573896504
 20
13.25758628282261
 30
0.0
 11
50.65047808566089
 21
16.43756862951846
 31
0.0
  0
LINE
  5
497
330
3A4
100
AcDbEntity
  8
0
 62
     0
100
AcDbLine
 10
52.75047808566092
 20
19.43559424162532
 30
0.0
 11
55.55047808566098
 21
22.23559424162539
 31
0.0
  0
LINE
  5
498
330
3A4
100
AcDbEntity
  8
0
 62
     0
100
AcDbLine
 10
59.05047808566092
 20
25.73559424162533
 30
0.0
 11
61.850478085661
 21
28.5355942416254
 31
0.0
  0
LINE
  5
499
330
3A4
100
AcDbEntity
  8
0
 62
     0
100
AcDbLine
 10
46.57247012685814
 20
13.25758628282255
 30
0.0
 11
50.65047808566095
 21
17.3355942416253
 31
0.0
  0
LINE
  5
49A
330
3A4
100
AcDbEntity
  8
0
 62
     0
100
AcDbLine
 10
52.75047808566092
 20
20.33361985373227
 30
0.0
 11
55.55047808566098
 21
23.13361985373228
 31
0.0
  0
LINE
  5
49B
330
3A4
100
AcDbEntity
  8
0
 62
     0
100
AcDbLine
 10
59.05047808566092
 20
26.63361985373223
 30
0.0
 11
61.65674063082684
 21
29.2398823988982
 31
0.0
  0
LINE
  5
49C
330
3A4
100
AcDbEntity
  8
0
 62
     0
100
AcDbLine
 10
45.67444451475125
 20
13.25758628282261
 30
0.0
 11
50.63615948524807
 21
18.21930125331937
 31
0.0
  0
LINE
  5
49D
330
3A4
100
AcDbEntity
  8
0
 62
     0
100
AcDbLine
 10
52.75047808566092
 20
21.23164546583916
 30
0.0
 11
55.55047808566093
 21
24.03164546583923
 31
0.0
  0
LINE
  5
49E
330
3A4
100
AcDbEntity
  8
0
 62
     0
100
AcDbLine
 10
59.05047808566087
 20
27.53164546583917
 30
0.0
 11
60.87641890264433
 21
29.35758628282263
 31
0.0
  0
LINE
  5
49F
330
3A4
100
AcDbEntity
  8
0
 62
     0
100
AcDbLine
 10
44.77641890264431
 20
13.25758628282261
 30
0.0
 11
50.50124711461927
 21
18.98241449479758
 31
0.0
  0
LINE
  5
4A0
330
3A4
100
AcDbEntity
  8
0
 62
     0
100
AcDbLine
 10
52.75047808566092
 20
22.12967107794605
 30
0.0
 11
55.55047808566098
 21
24.92967107794612
 31
0.0
  0
LINE
  5
4A1
330
3A4
100
AcDbEntity
  8
0
 62
     0
100
AcDbLine
 10
47.85047808566105
 20
17.22967107794613
 30
0.0
 11
50.26065965770072
 21
19.63985264998586
 31
0.0
  0
LINE
  5
4A2
330
3A4
100
AcDbEntity
  8
0
 62
     0
100
AcDbLine
 10
59.05047808566092
 20
28.42967107794606
 30
0.0
 11
59.9783932905375
 21
29.35758628282263
 31
0.0
  0
LINE
  5
4A3
330
3A4
100
AcDbEntity
  8
0
 62
     0
100
AcDbLine
 10
44.00664864366854
 20
13.38584163595368
 30
0.0
 11
46.67839329053743
 21
16.05758628282257
 31
0.0
  0
LINE
  5
4A4
330
3A4
100
AcDbEntity
  8
0
 62
     0
100
AcDbLine
 10
47.83060751053364
 20
18.10782611492567
 30
0.0
 11
49.93716035284013
 21
20.21437895723215
 31
0.0
  0
LINE
  5
4A5
330
3A4
100
AcDbEntity
  8
0
 62
     0
100
AcDbLine
 10
52.75047808566092
 20
23.02769669005294
 30
0.0
 11
55.55047808566093
 21
25.82769669005301
 31
0.0
  0
LINE
  5
4A6
330
3A4
100
AcDbEntity
  8
0
 62
     0
100
AcDbLine
 10
43.82547808566096
 20
14.10269669005299
 30
0.0
 11
45.78036767843047
 21
16.05758628282257
 31
0.0
  0
LINE
  5
4A7
330
3A4
100
AcDbEntity
  8
0
 62
     0
100
AcDbLine
 10
47.55622267339475
 20
18.73146688989379
 30
0.0
 11
49.54128923491231
 21
20.71653345141135
 31
0.0
  0
LINE
  5
4A8
330
3A4
100
AcDbEntity
  8
0
 62
     0
100
AcDbLine
 10
52.75047808566085
 20
23.92572230215989
 30
0.0
 11
55.55047808566093
 21
26.72572230215996
 31
0.0
  0
LINE
  5
4A9
330
3A4
100
AcDbEntity
  8
0
 62
     0
100
AcDbLine
 10
43.8254780856609
 20
15.00072230215994
 30
0.0
 11
44.88234206632358
 21
16.05758628282262
 31
0.0
  0
LINE
  5
4AA
330
3A4
100
AcDbEntity
  8
0
 62
     0
100
AcDbLine
 10
52.75047808566092
 20
24.82374791426678
 30
0.0
 11
55.55047808566098
 21
27.6237479142668
 31
0.0
  0
LINE
  5
4AB
330
3A4
100
AcDbEntity
  8
0
 62
     0
100
AcDbLine
 10
47.11494777627769
 20
19.1882176048835
 30
0.0
 11
49.09484676360006
 21
21.16811659220593
 31
0.0
  0
LINE
  5
4AC
330
3A4
100
AcDbEntity
  8
0
 62
     0
100
AcDbLine
 10
46.66593497022421
 20
19.63723041093698
 30
0.0
 11
48.64583395754658
 21
21.6171293982594
 31
0.0
  0
LINE
  5
4AD
330
3A4
100
AcDbEntity
  8
0
 62
     0
100
AcDbLine
 10
52.75047808566085
 20
25.72177352637368
 30
0.0
 11
55.55047808566093
 21
28.52177352637374
 31
0.0
  0
LINE
  5
4AE
330
3A4
100
AcDbEntity
  8
0
 62
     0
100
AcDbLine
 10
40.28629084210973
 20
13.25758628282255
 30
0.0
 11
41.2004780856609
 21
14.17177352637366
 31
0.0
  0
LINE
  5
4AF
330
3A4
100
AcDbEntity
  8
0
 62
     0
100
AcDbLine
 10
46.21692216417073
 20
20.08624321699045
 30
0.0
 11
48.19682115149311
 21
22.06614220431288
 31
0.0
  0
LINE
  5
4B0
330
3A4
100
AcDbEntity
  8
0
 62
     0
100
AcDbLine
 10
52.75047808566085
 20
26.61979913848063
 30
0.0
 11
55.36429717756226
 21
29.23361823038197
 31
0.0
  0
LINE
  5
4B1
330
3A4
100
AcDbEntity
  8
0
 62
     0
100
AcDbLine
 10
39.38826523000278
 20
13.25758628282255
 30
0.0
 11
41.20047808566096
 21
15.06979913848067
 31
0.0
  0
LINE
  5
4B2
330
3A4
100
AcDbEntity
  8
0
 62
     0
100
AcDbLine
 10
45.76790935811726
 20
20.53525602304393
 30
0.0
 11
47.74780834543963
 21
22.51515501036635
 31
0.0
  0
LINE
  5
4B3
330
3A4
100
AcDbEntity
  8
0
 62
     0
100
AcDbLine
 10
52.75047808566085
 20
27.51782475058752
 30
0.0
 11
54.59023961789597
 21
29.35758628282269
 31
0.0
  0
LINE
  5
4B4
330
3A4
100
AcDbEntity
  8
0
 62
     0
100
AcDbLine
 10
38.60185075575788
 20
13.36919742068454
 30
0.0
 11
41.2004780856609
 21
15.96782475058762
 31
0.0
  0
LINE
  5
4B5
330
3A4
100
AcDbEntity
  8
0
 62
     0
100
AcDbLine
 10
45.31889655206384
 20
20.98426882909734
 30
0.0
 11
47.29879553938622
 21
22.96416781641977
 31
0.0
  0
LINE
  5
4B6
330
3A4
100
AcDbEntity
  8
0
 62
     0
100
AcDbLine
 10
52.75047808566085
 20
28.41585036269441
 30
0.0
 11
53.69221400578914
 21
29.35758628282263
 31
0.0
  0
LINE
  5
4B7
330
3A4
100
AcDbEntity
  8
0
 62
     0
100
AcDbLine
 10
38.40047808566095
 20
14.0658503626945
 30
0.0
 11
41.20047808566096
 21
16.86585036269446
 31
0.0
  0
LINE
  5
4B8
330
3A4
100
AcDbEntity
  8
0
 62
     0
100
AcDbLine
 10
44.86988374601037
 20
21.43328163515082
 30
0.0
 11
46.84978273333274
 21
23.41318062247324
 31
0.0
  0
LINE
  5
4B9
330
3A4
100
AcDbEntity
  8
0
 62
     0
100
AcDbLine
 10
38.40047808566095
 20
14.96387597480145
 30
0.0
 11
41.2004780856609
 21
17.7638759748014
 31
0.0
  0
LINE
  5
4BA
330
3A4
100
AcDbEntity
  8
0
 62
     0
100
AcDbLine
 10
44.42289984496904
 20
21.88432334621649
 30
0.0
 11
46.40687337835106
 21
23.86829687959846
 31
0.0
  0
LINE
  5
4BB
330
3A4
100
AcDbEntity
  8
0
 62
     0
100
AcDbLine
 10
38.40047808566095
 20
15.86190158690834
 30
0.0
 11
41.2004780856609
 21
18.66190158690835
 31
0.0
  0
LINE
  5
4BC
330
3A4
100
AcDbEntity
  8
0
 62
     0
100
AcDbLine
 10
49.09616278157511
 20
26.55758628282256
 30
0.0
 11
50.12547808566097
 21
27.58690158690837
 31
0.0
  0
LINE
  5
4BD
330
3A4
100
AcDbEntity
  8
0
 62
     0
100
AcDbLine
 10
35.90782186095072
 20
13.36924536219811
 30
0.0
 11
35.99747422240574
 21
13.45889772365319
 31
0.0
  0
LINE
  5
4BE
330
3A4
100
AcDbEntity
  8
0
 62
     0
100
AcDbLine
 10
44.02489766614706
 20
22.38434677950135
 30
0.0
 11
46.12453194356567
 21
24.48398105691996
 31
0.0
  0
LINE
  5
4BF
330
3A4
100
AcDbEntity
  8
0
 62
     0
100
AcDbLine
 10
38.40047808566095
 20
16.75992719901523
 30
0.0
 11
41.20047808566096
 21
19.55992719901519
 31
0.0
  0
LINE
  5
4C0
330
3A4
100
AcDbEntity
  8
0
 62
     0
100
AcDbLine
 10
48.19813716946834
 20
26.55758628282262
 30
0.0
 11
50.12547808566097
 21
28.48492719901526
 31
0.0
  0
LINE
  5
4C1
330
3A4
100
AcDbEntity
  8
0
 62
     0
100
AcDbLine
 10
34.89813716946827
 20
13.25758628282255
 30
0.0
 11
35.9639162657748
 21
14.32336537912908
 31
0.0
  0
LINE
  5
4C2
330
3A4
100
AcDbEntity
  8
0
 62
     0
100
AcDbLine
 10
43.69906340175037
 20
22.95653812721161
 30
0.0
 11
46.10047808566105
 21
25.35795281112228
 31
0.0
  0
LINE
  5
4C3
330
3A4
100
AcDbEntity
  8
0
 62
     0
100
AcDbLine
 10
38.40047808566095
 20
17.65795281112213
 30
0.0
 11
41.2004780856609
 21
20.45795281112213
 31
0.0
  0
LINE
  5
4C4
330
3A4
100
AcDbEntity
  8
0
 62
     0
100
AcDbLine
 10
47.30011155736133
 20
26.55758628282256
 30
0.0
 11
49.95880915386305
 21
29.21628387932429
 31
0.0
  0
LINE
  5
4C5
330
3A4
100
AcDbEntity
  8
0
 62
     0
100
AcDbLine
 10
34.00011155736126
 20
13.2575862828225
 30
0.0
 11
35.74839011886911
 21
15.00586484433034
 31
0.0
  0
LINE
  5
4C6
330
3A4
100
AcDbEntity
  8
0
 62
     0
100
AcDbLine
 10
38.40047808566089
 20
18.55597842322907
 30
0.0
 11
41.2004780856609
 21
21.35597842322903
 31
0.0
  0
LINE
  5
4C7
330
3A4
100
AcDbEntity
  8
0
 62
     0
100
AcDbLine
 10
43.45568133908028
 20
23.61118167664847
 30
0.0
 11
49.20208594525445
 21
29.35758628282263
 31
0.0
  0
LINE
  5
4C8
330
3A4
100
AcDbEntity
  8
0
 62
     0
100
AcDbLine
 10
33.40809724670629
 20
13.56359758427447
 30
0.0
 11
35.53286397196342
 21
15.6883643095316
 31
0.0
  0
LINE
  5
4C9
330
3A4
100
AcDbEntity
  8
0
 62
     0
100
AcDbLine
 10
38.40047808566089
 20
19.45400403533602
 30
0.0
 11
41.20047808566084
 21
22.25400403533598
 31
0.0
  0
LINE
  5
4CA
330
3A4
100
AcDbEntity
  8
0
 62
     0
100
AcDbLine
 10
43.31697447999459
 20
24.37050042966973
 30
0.0
 11
48.30406033314756
 21
29.35758628282263
 31
0.0
  0
LINE
  5
4CB
330
3A4
100
AcDbEntity
  8
0
 62
     0
100
AcDbLine
 10
33.18933782505769
 20
14.24286377473282
 30
0.0
 11
35.31733782505773
 21
16.37086377473286
 31
0.0
  0
LINE
  5
4CC
330
3A4
100
AcDbEntity
  8
0
 62
     0
100
AcDbLine
 10
38.40047808566095
 20
20.35202964744286
 30
0.0
 11
41.2004780856609
 21
23.15202964744287
 31
0.0
  0
LINE
  5
4CD
330
3A4
100
AcDbEntity
  8
0
 62
     0
100
AcDbLine
 10
43.30047808566092
 20
25.25202964744284
 30
0.0
 11
47.40603472104067
 21
29.35758628282263
 31
0.0
  0
LINE
  5
4CE
330
3A4
100
AcDbEntity
  8
0
 62
     0
100
AcDbLine
 10
32.97381167815206
 20
14.92536323993403
 30
0.0
 11
35.10181167815216
 21
17.05336323993407
 31
0.0
  0
LINE
  5
4CF
330
3A4
100
AcDbEntity
  8
0
 62
     0
100
AcDbLine
 10
38.40047808566089
 20
21.25005525954981
 30
0.0
 11
41.2004780856609
 21
24.05005525954976
 31
0.0
  0
LINE
  5
4D0
330
3A4
100
AcDbEntity
  8
0
 62
     0
100
AcDbLine
 10
43.30047808566098
 20
26.15005525954984
 30
0.0
 11
46.50800910893377
 21
29.35758628282263
 31
0.0
  0
LINE
  5
4D1
330
3A4
100
AcDbEntity
  8
0
 62
     0
100
AcDbLine
 10
32.75828553124631
 20
15.60786270513523
 30
0.0
 11
34.88628553124653
 21
17.73586270513544
 31
0.0
  0
LINE
  5
4D2
330
3A4
100
AcDbEntity
  8
0
 62
     0
100
AcDbLine
 10
38.40047808566089
 20
22.1480808716567
 30
0.0
 11
41.20047808566096
 21
24.94808087165677
 31
0.0
  0
LINE
  5
4D3
330
3A4
100
AcDbEntity
  8
0
 62
     0
100
AcDbLine
 10
32.54275938434068
 20
16.29036217033655
 30
0.0
 11
34.67075938434078
 21
18.41836217033659
 31
0.0
  0
LINE
  5
4D4
330
3A4
100
AcDbEntity
  8
0
 62
     0
100
AcDbLine
 10
43.35379475578213
 20
27.101397541778
 30
0.0
 11
45.55666682670545
 21
29.30426961270132
 31
0.0
  0
LINE
  5
4D5
330
3A4
100
AcDbEntity
  8
0
 62
     0
100
AcDbLine
 10
29.50998349682669
 20
13.25758628282255
 30
0.0
 11
30.35047808566088
 21
14.09808087165674
 31
0.0
  0
LINE
  5
4D6
330
3A4
100
AcDbEntity
  8
0
 62
     0
100
AcDbLine
 10
32.32723323743511
 20
16.97286163553775
 30
0.0
 11
34.45523323743515
 21
19.10086163553785
 31
0.0
  0
LINE
  5
4D7
330
3A4
100
AcDbEntity
  8
0
 62
     0
100
AcDbLine
 10
38.40047808566089
 20
23.04610648376359
 30
0.0
 11
41.20047808566096
 21
25.84610648376366
 31
0.0
  0
LINE
  5
4D8
330
3A4
100
AcDbEntity
  8
0
 62
     0
100
AcDbLine
 10
28.61195788471985
 20
13.2575862828225
 30
0.0
 11
30.35047808566094
 21
14.99610648376363
 31
0.0
  0
LINE
  5
4D9
330
3A4
100
AcDbEntity
  8
0
 62
     0
100
AcDbLine
 10
32.11170709052942
 20
17.65536110073901
 30
0.0
 11
34.23970709052946
 21
19.78336110073911
 31
0.0
  0
LINE
  5
4DA
330
3A4
100
AcDbEntity
  8
0
 62
     0
100
AcDbLine
 10
38.40047808566089
 20
23.94413209587054
 30
0.0
 11
41.20047808566096
 21
26.74413209587055
 31
0.0
  0
LINE
  5
4DB
330
3A4
100
AcDbEntity
  8
0
 62
     0
100
AcDbLine
 10
27.7950820202642
 20
13.33873603047385
 30
0.0
 11
30.35047808566094
 21
15.89413209587053
 31
0.0
  0
LINE
  5
4DC
330
3A4
100
AcDbEntity
  8
0
 62
     0
100
AcDbLine
 10
31.89618094362373
 20
18.33786056594027
 30
0.0
 11
34.02418094362377
 21
20.46586056594037
 31
0.0
  0
LINE
  5
4DD
330
3A4
100
AcDbEntity
  8
0
 62
     0
100
AcDbLine
 10
38.40047808566089
 20
24.84215770797743
 30
0.0
 11
41.2004780856609
 21
27.6421577079775
 31
0.0
  0
LINE
  5
4DE
330
3A4
100
AcDbEntity
  8
0
 62
     0
100
AcDbLine
 10
27.55047808566092
 20
13.99215770797747
 30
0.0
 11
30.35047808566099
 21
16.79215770797753
 31
0.0
  0
LINE
  5
4DF
330
3A4
100
AcDbEntity
  8
0
 62
     0
100
AcDbLine
 10
31.6806547967181
 20
19.02036003114147
 30
0.0
 11
33.80865479671825
 21
21.14836003114163
 31
0.0
  0
LINE
  5
4E0
330
3A4
100
AcDbEntity
  8
0
 62
     0
100
AcDbLine
 10
38.40047808566089
 20
25.74018332008432
 30
0.0
 11
41.20047808566096
 21
28.54018332008439
 31
0.0
  0
LINE
  5
4E1
330
3A4
100
AcDbEntity
  8
0
 62
     0
100
AcDbLine
 10
27.55047808566092
 20
14.89018332008436
 30
0.0
 11
30.35047808566099
 21
17.69018332008442
 31
0.0
  0
LINE
  5
4E2
330
3A4
100
AcDbEntity
  8
0
 62
     0
100
AcDbLine
 10
31.44585600974636
 20
19.68358685627674
 30
0.0
 11
34.07615007767736
 21
22.31388092420769
 31
0.0
  0
LINE
  5
4E3
330
3A4
100
AcDbEntity
  8
0
 62
     0
100
AcDbLine
 10
38.40047808566095
 20
26.63820893219133
 30
0.0
 11
41.00420266316251
 21
29.24193350969284
 31
0.0
  0
LINE
  5
4E4
330
3A4
100
AcDbEntity
  8
0
 62
     0
100
AcDbLine
 10
27.55047808566092
 20
15.7882089321913
 30
0.0
 11
30.35047808566099
 21
18.58820893219132
 31
0.0
  0
LINE
  5
4E5
330
3A4
100
AcDbEntity
  8
0
 62
     0
100
AcDbLine
 10
30.75867063987897
 20
19.8944270985163
 30
0.0
 11
34.49062343711125
 21
23.62637989574858
 31
0.0
  0
LINE
  5
4E6
330
3A4
100
AcDbEntity
  8
0
 62
     0
100
AcDbLine
 10
27.55047808566092
 20
16.6862345442982
 30
0.0
 11
30.36363726996722
 21
19.4993937286045
 31
0.0
  0
LINE
  5
4E7
330
3A4
100
AcDbEntity
  8
0
 62
     0
100
AcDbLine
 10
38.40047808566095
 20
27.53623454429822
 30
0.0
 11
40.2218298241853
 21
29.35758628282263
 31
0.0
  0
LINE
  5
4E8
330
3A4
100
AcDbEntity
  8
0
 62
     0
100
AcDbLine
 10
24.12182982418528
 20
13.25758628282255
 30
0.0
 11
25.10047808566094
 21
14.23623454429827
 31
0.0
  0
LINE
  5
4E9
330
3A4
100
AcDbEntity
  8
0
 62
     0
100
AcDbLine
 10
27.55047808566087
 20
17.58426015640515
 30
0.0
 11
34.90509679654519
 21
24.93887886728947
 31
0.0
  0
LINE
  5
4EA
330
3A4
100
AcDbEntity
  8
0
 62
     0
100
AcDbLine
 10
38.40047808566089
 20
28.43426015640517
 30
0.0
 11
39.3238042120783
 21
29.35758628282258
 31
0.0
  0
LINE
  5
4EB
330
3A4
100
AcDbEntity
  8
0
 62
     0
100
AcDbLine
 10
23.22380421207833
 20
13.25758628282261
 30
0.0
 11
25.10047808566099
 21
15.13426015640527
 31
0.0
  0
LINE
  5
4EC
330
3A4
100
AcDbEntity
  8
0
 62
     0
100
AcDbLine
 10
27.55047808566092
 20
18.48228576851198
 30
0.0
 11
35.3195701559793
 21
26.25137783883042
 31
0.0
  0
LINE
  5
4ED
330
3A4
100
AcDbEntity
  8
0
 62
     0
100
AcDbLine
 10
22.33745922432154
 20
13.26926690717266
 30
0.0
 11
24.95914380205476
 21
15.89095148490582
 31
0.0
  0
LINE
  5
4EE
330
3A4
100
AcDbEntity
  8
0
 62
     0
100
AcDbLine
 10
27.55047808566087
 20
19.38031138061893
 30
0.0
 11
30.87775298786453
 21
22.7075862828226
 31
0.0
  0
LINE
  5
4EF
330
3A4
100
AcDbEntity
  8
0
 62
     0
100
AcDbLine
 10
31.64173582310542
 20
23.47156911806348
 30
0.0
 11
35.73404351541324
 21
27.56387681037131
 31
0.0
  0
LINE
  5
4F0
330
3A4
100
AcDbEntity
  8
0
 62
     0
100
AcDbLine
 10
21.56929870687457
 20
13.39913200183258
 30
0.0
 11
24.2277529878645
 21
16.05758628282257
 31
0.0
  0
LINE
  5
4F1
330
3A4
100
AcDbEntity
  8
0
 62
     0
100
AcDbLine
 10
27.55047808566087
 20
20.27833699272588
 30
0.0
 11
30.3684686563692
 21
23.09632756343416
 31
0.0
  0
LINE
  5
4F2
330
3A4
100
AcDbEntity
  8
0
 62
     0
100
AcDbLine
 10
32.05620918253936
 20
24.78406808960432
 30
0.0
 11
36.10911496721456
 21
28.83697387427957
 31
0.0
  0
LINE
  5
4F3
330
3A4
100
AcDbEntity
  8
0
 62
     0
100
AcDbLine
 10
20.90816445004816
 20
13.63602335711317
 30
0.0
 11
23.32972737575761
 21
16.05758628282257
 31
0.0
  0
LINE
  5
4F4
330
3A4
100
AcDbEntity
  8
0
 62
     0
100
AcDbLine
 10
27.55047808566092
 20
21.17636260483271
 30
0.0
 11
30.35047808566094
 21
23.97636260483278
 31
0.0
  0
LINE
  5
4F5
330
3A4
100
AcDbEntity
  8
0
 62
     0
100
AcDbLine
 10
32.4706825419733
 20
26.09656706114515
 30
0.0
 11
35.71510309464537
 21
29.34098761381722
 31
0.0
  0
LINE
  5
4F6
330
3A4
100
AcDbEntity
  8
0
 62
     0
100
AcDbLine
 10
20.33056116588386
 20
13.95644568505565
 30
0.0
 11
22.44662302437672
 21
16.07250754354856
 31
0.0
  0
LINE
  5
4F7
330
3A4
100
AcDbEntity
  8
0
 62
     0
100
AcDbLine
 10
27.55047808566087
 20
22.07438821693966
 30
0.0
 11
30.35047808566094
 21
24.87438821693973
 31
0.0
  0
LINE
  5
4F8
330
3A4
100
AcDbEntity
  8
0
 62
     0
100
AcDbLine
 10
32.88515590140724
 20
27.40906603268598
 30
0.0
 11
34.83367615154378
 21
29.35758628282258
 31
0.0
  0
LINE
  5
4F9
330
3A4
100
AcDbEntity
  8
0
 62
     0
100
AcDbLine
 10
19.8256061995018
 20
14.34951633078054
 30
0.0
 11
21.81230688335841
 21
16.33621701463715
 31
0.0
  0
LINE
  5
4FA
330
3A4
100
AcDbEntity
  8
0
 62
     0
100
AcDbLine
 10
27.55047808566087
 20
22.97241382904656
 30
0.0
 11
30.35047808566094
 21
25.77241382904662
 31
0.0
  0
LINE
  5
4FB
330
3A4
100
AcDbEntity
  8
0
 62
     0
100
AcDbLine
 10
24.21211221743738
 20
19.63404796082312
 30
0.0
 11
25.37401640766046
 21
20.79595215104621
 31
0.0
  0
LINE
  5
4FC
330
3A4
100
AcDbEntity
  8
0
 62
     0
100
AcDbLine
 10
33.29962926084113
 20
28.72156500422687
 30
0.0
 11
33.93565053943683
 21
29.35758628282258
 31
0.0
  0
LINE
  5
4FD
330
3A4
100
AcDbEntity
  8
0
 62
     0
100
AcDbLine
 10
19.38916912617196
 20
14.8111048695577
 30
0.0
 11
21.40205593208623
 21
16.82399167547197
 31
0.0
  0
LINE
  5
4FE
330
3A4
100
AcDbEntity
  8
0
 62
     0
100
AcDbLine
 10
23.28713937580755
 20
19.60710073130025
 30
0.0
 11
25.40096363718333
 21
21.72092499267597
 31
0.0
  0
LINE
  5
4FF
330
3A4
100
AcDbEntity
  8
0
 62
     0
100
AcDbLine
 10
27.55047808566092
 20
23.87043944115356
 30
0.0
 11
30.35047808566099
 21
26.67043944115363
 31
0.0
  0
LINE
  5
500
330
3A4
100
AcDbEntity
  8
0
 62
     0
100
AcDbLine
 10
19.02214990122899
 20
15.34211125672163
 30
0.0
 11
21.25047808566091
 21
17.57043944115361
 31
0.0
  0
LINE
  5
501
330
3A4
100
AcDbEntity
  8
0
 62
     0
100
AcDbLine
 10
22.67299280638735
 20
19.89097977398682
 30
0.0
 11
25.1170845944967
 21
22.33507156209623
 31
0.0
  0
LINE
  5
502
330
3A4
100
AcDbEntity
  8
0
 62
     0
100
AcDbLine
 10
27.55047808566092
 20
24.76846505326045
 30
0.0
 11
30.35047808566099
 21
27.56846505326052
 31
0.0
  0
LINE
  5
503
330
3A4
100
AcDbEntity
  8
0
 62
     0
100
AcDbLine
 10
18.73083239130426
 20
15.94881935890379
 30
0.0
 11
21.25047808566091
 21
18.46846505326044
 31
0.0
  0
LINE
  5
504
330
3A4
100
AcDbEntity
  8
0
 62
     0
100
AcDbLine
 10
22.23503287939763
 20
20.35104545910411
 30
0.0
 11
24.65701890937947
 21
22.77303148908589
 31
0.0
  0
LINE
  5
505
330
3A4
100
AcDbEntity
  8
0
 62
     0
100
AcDbLine
 10
27.55047808566092
 20
25.6664906653674
 30
0.0
 11
30.35047808566099
 21
28.46649066536741
 31
0.0
  0
LINE
  5
506
330
3A4
100
AcDbEntity
  8
0
 62
     0
100
AcDbLine
 10
18.5296950271296
 20
16.64570760683608
 30
0.0
 11
21.25047808566091
 21
19.36649066536739
 31
0.0
  0
LINE
  5
507
330
3A4
100
AcDbEntity
  8
0
 62
     0
100
AcDbLine
 10
21.97898214698926
 20
20.99302033880263
 30
0.0
 11
24.01504402968089
 21
23.02908222149432
 31
0.0
  0
LINE
  5
508
330
3A4
100
AcDbEntity
  8
0
 62
     0
100
AcDbLine
 10
18.45047808566084
 20
17.46451627747427
 30
0.0
 11
21.25047808566091
 21
20.26451627747428
 31
0.0
  0
LINE
  5
509
330
3A4
100
AcDbEntity
  8
0
 62
     0
100
AcDbLine
 10
27.55047808566092
 20
26.56451627747429
 30
0.0
 11
30.1932279773058
 21
29.20726616911924
 31
0.0
  0
LINE
  5
50A
330
3A4
100
AcDbEntity
  8
0
 62
     0
100
AcDbLine
 10
14.36448132778525
 20
13.37851951959868
 30
0.0
 11
16.22954484888498
 21
15.24358304069841
 31
0.0
  0
LINE
  5
50B
330
3A4
100
AcDbEntity
  8
0
 62
     0
100
AcDbLine
 10
22.09739523047005
 20
22.00945903439031
 30
0.0
 11
22.99860533409327
 21
22.91066913801353
 31
0.0
  0
LINE
  5
50C
330
3A4
100
AcDbEntity
  8
0
 62
     0
100
AcDbLine
 10
18.45047808566084
 20
18.3625418895811
 30
0.0
 11
21.25047808566091
 21
21.16254188958117
 31
0.0
  0
LINE
  5
50D
330
3A4
100
AcDbEntity
  8
0
 62
     0
100
AcDbLine
 10
27.55047808566092
 20
27.46254188958118
 30
0.0
 11
29.44552247890232
 21
29.35758628282258
 31
0.0
  0
LINE
  5
50E
330
3A4
100
AcDbEntity
  8
0
 62
     0
100
AcDbLine
 10
13.34552247890229
 20
13.25758628282255
 30
0.0
 11
16.35047808566105
 21
16.26254188958125
 31
0.0
  0
LINE
  5
50F
330
3A4
100
AcDbEntity
  8
0
 62
     0
100
AcDbLine
 10
18.45047808566084
 20
19.26056750168805
 30
0.0
 11
21.25047808566091
 21
22.06056750168812
 31
0.0
  0
LINE
  5
510
330
3A4
100
AcDbEntity
  8
0
 62
     0
100
AcDbLine
 10
27.55047808566092
 20
28.36056750168808
 30
0.0
 11
28.54749686679543
 21
29.35758628282263
 31
0.0
  0
LINE
  5
511
330
3A4
100
AcDbEntity
  8
0
 62
     0
100
AcDbLine
 10
12.44749686679529
 20
13.2575862828225
 30
0.0
 11
16.35047808566099
 21
17.1605675016882
 31
0.0
  0
LINE
  5
512
330
3A4
100
AcDbEntity
  8
0
 62
     0
100
AcDbLine
 10
18.45047808566084
 20
20.15859311379494
 30
0.0
 11
21.25047808566085
 21
22.95859311379501
 31
0.0
  0
LINE
  5
513
330
3A4
100
AcDbEntity
  8
0
 62
     0
100
AcDbLine
 10
11.54947125468845
 20
13.25758628282261
 30
0.0
 11
16.34653873309974
 21
18.0546537612339
 31
0.0
  0
LINE
  5
514
330
3A4
100
AcDbEntity
  8
0
 62
     0
100
AcDbLine
 10
18.45047808566084
 20
21.05661872590189
 30
0.0
 11
21.25047808566091
 21
23.85661872590196
 31
0.0
  0
LINE
  5
515
330
3A4
100
AcDbEntity
  8
0
 62
     0
100
AcDbLine
 10
23.95144564258163
 20
26.55758628282268
 30
0.0
 11
25.10047808566105
 21
27.7066187259021
 31
0.0
  0
LINE
  5
516
330
3A4
100
AcDbEntity
  8
0
 62
     0
100
AcDbLine
 10
10.6514456425815
 20
13.25758628282255
 30
0.0
 11
16.23687689677842
 21
18.84301753701947
 31
0.0
  0
LINE
  5
517
330
3A4
100
AcDbEntity
  8
0
 62
     0
100
AcDbLine
 10
18.45047808566084
 20
21.95464433800879
 30
0.0
 11
21.25047808566091
 21
24.7546443380088
 31
0.0
  0
LINE
  5
518
330
3A4
100
AcDbEntity
  8
0
 62
     0
100
AcDbLine
 10
13.55047808566092
 20
17.05464433800887
 30
0.0
 11
16.0145381527343
 21
19.51870440508224
 31
0.0
  0
LINE
  5
519
330
3A4
100
AcDbEntity
  8
0
 62
     0
100
AcDbLine
 10
23.05342003047462
 20
26.55758628282256
 30
0.0
 11
25.10047808566105
 21
28.60464433800894
 31
0.0
  0
LINE
  5
51A
330
3A4
100
AcDbEntity
  8
0
 62
     0
100
AcDbLine
 10
9.811145905734576
 20
13.31531215808252
 30
0.0
 11
12.55342003047462
 21
16.05758628282257
 31
0.0
  0
LINE
  5
51B
330
3A4
100
AcDbEntity
  8
0
 62
     0
100
AcDbLine
 10
18.45047808566079
 20
22.85266995011568
 30
0.0
 11
21.41629279144058
 21
25.81848465589547
 31
0.0
  0
LINE
  5
51C
330
3A4
100
AcDbEntity
  8
0
 62
     0
100
AcDbLine
 10
13.54831899405167
 20
17.9505108585065
 30
0.0
 11
15.70610661806227
 21
20.10829848251717
 31
0.0
  0
LINE
  5
51D
330
3A4
100
AcDbEntity
  8
0
 62
     0
100
AcDbLine
 10
21.98957971258812
 20
26.39177157704301
 30
0.0
 11
24.86701067074113
 21
29.26920253519597
 31
0.0
  0
LINE
  5
51E
330
3A4
100
AcDbEntity
  8
0
 62
     0
100
AcDbLine
 10
9.52547808566095
 20
13.92766995011578
 30
0.0
 11
11.65539441836773
 21
16.05758628282257
 31
0.0
  0
LINE
  5
51F
330
3A4
100
AcDbEntity
  8
0
 62
     0
100
AcDbLine
 10
13.32871597455095
 20
18.6289334511128
 30
0.0
 11
15.32386465322338
 21
20.62408212978522
 31
0.0
  0
LINE
  5
520
330
3A4
100
AcDbEntity
  8
0
 62
     0
100
AcDbLine
 10
18.45047808566079
 20
23.75069556222263
 30
0.0
 11
24.05736880626085
 21
29.35758628282269
 31
0.0
  0
LINE
  5
521
330
3A4
100
AcDbEntity
  8
0
 62
     0
100
AcDbLine
 10
9.525478085660893
 20
14.82569556222273
 30
0.0
 11
10.75736880626078
 21
16.05758628282262
 31
0.0
  0
LINE
  5
522
330
3A4
100
AcDbEntity
  8
0
 62
     0
100
AcDbLine
 10
12.90246114624625
 20
19.10070423491492
 30
0.0
 11
14.88236013356862
 21
21.08060322223729
 31
0.0
  0
LINE
  5
523
330
3A4
100
AcDbEntity
  8
0
 62
     0
100
AcDbLine
 10
18.45047808566084
 20
24.64872117432946
 30
0.0
 11
23.15934319415379
 21
29.35758628282247
 31
0.0
  0
LINE
  5
524
330
3A4
100
AcDbEntity
  8
0
 62
     0
100
AcDbLine
 10
9.594430007680671
 20
15.79267309634934
 30
0.0
 11
9.790391272134286
 21
15.98863436080296
 31
0.0
  0
LINE
  5
525
330
3A4
100
AcDbEntity
  8
0
 62
     0
100
AcDbLine
 10
18.47045319981742
 20
25.56672190059299
 30
0.0
 11
22.24134246789043
 21
29.33761116866605
 31
0.0
  0
LINE
  5
526
330
3A4
100
AcDbEntity
  8
0
 62
     0
100
AcDbLine
 10
12.45344834019277
 20
19.5497170409684
 30
0.0
 11
14.43334732751515
 21
21.52961602829077
 31
0.0
  0
LINE
  5
527
330
3A4
100
AcDbEntity
  8
0
 62
     0
100
AcDbLine
 10
18.7699166320832
 20
26.76421094496578
 30
0.0
 11
21.0438534235177
 21
29.03814773640027
 31
0.0
  0
LINE
  5
528
330
3A4
100
AcDbEntity
  8
0
 62
     0
100
AcDbLine
 10
12.0044355341393
 20
19.99872984702187
 30
0.0
 11
13.98433452146167
 21
21.97862883434424
 31
0.0
  0
LINE
  5
529
330
3A4
100
AcDbEntity
  8
0
 62
     0
100
AcDbLine
 10
11.55542272808588
 20
20.44774265307529
 30
0.0
 11
13.5353217154082
 21
22.42764164039755
 31
0.0
  0
LINE
  5
52A
330
3A4
100
AcDbEntity
  8
0
 62
     0
100
AcDbLine
 10
11.10640992203241
 20
20.89675545912876
 30
0.0
 11
13.08630890935472
 21
22.87665444645103
 31
0.0
  0
LINE
  5
52B
330
3A4
100
AcDbEntity
  8
0
 62
     0
100
AcDbLine
 10
10.65739711597893
 20
21.34576826518224
 30
0.0
 11
12.63729610330125
 21
23.3256672525045
 31
0.0
  0
LINE
  5
52C
330
3A4
100
AcDbEntity
  8
0
 62
     0
100
AcDbLine
 10
14.97118952151237
 20
26.55758628282256
 30
0.0
 11
15.82547808566084
 21
27.4118748469711
 31
0.0
  0
LINE
  5
52D
330
3A4
100
AcDbEntity
  8
0
 62
     0
100
AcDbLine
 10
10.20846762395359
 20
21.79486438526385
 30
0.0
 11
12.18853326738605
 21
23.7749300286963
 31
0.0
  0
LINE
  5
52E
330
3A4
100
AcDbEntity
  8
0
 62
     0
100
AcDbLine
 10
14.07316390940548
 20
26.55758628282256
 30
0.0
 11
15.8254780856609
 21
28.30990045907799
 31
0.0
  0
LINE
  5
52F
330
3A4
100
AcDbEntity
  8
0
 62
     0
100
AcDbLine
 10
9.796999699402022
 20
22.28142207281905
 30
0.0
 11
11.85863638609811
 21
24.3430587595152
 31
0.0
  0
LINE
  5
530
330
3A4
100
AcDbEntity
  8
0
 62
     0
100
AcDbLine
 10
13.17513829729853
 20
26.55758628282256
 30
0.0
 11
15.73891918589976
 21
29.12136717142379
 31
0.0
  0
LINE
  5
531
330
3A4
100
AcDbEntity
  8
0
 62
     0
100
AcDbLine
 10
9.456539093139554
 20
22.83898707866353
 30
0.0
 11
11.80047808566098
 21
25.18292607118496
 31
0.0
  0
LINE
  5
532
330
3A4
100
AcDbEntity
  8
0
 62
     0
100
AcDbLine
 10
12.27464603602152
 20
26.55511963365245
 30
0.0
 11
15.0771126851917
 21
29.35758628282263
 31
0.0
  0
LINE
  5
533
330
3A4
100
AcDbEntity
  8
0
 62
     0
100
AcDbLine
 10
9.195845797407457
 20
23.47631939503838
 30
0.0
 11
11.80294473483104
 21
26.08341833246203
 31
0.0
  0
LINE
  5
534
330
3A4
100
AcDbEntity
  8
0
 62
     0
100
AcDbLine
 10
9.034033835159391
 20
24.21253304489721
 30
0.0
 11
14.17908707308481
 21
29.35758628282263
 31
0.0
  0
LINE
  5
535
330
3A4
100
AcDbEntity
  8
0
 62
     0
100
AcDbLine
 10
9.000478085660972
 20
25.07700290750574
 30
0.0
 11
13.2810614609778
 21
29.35758628282258
 31
0.0
  0
LINE
  5
536
330
3A4
100
AcDbEntity
  8
0
 62
     0
100
AcDbLine
 10
9.000478085660972
 20
25.97502851961263
 30
0.0
 11
12.38303584887086
 21
29.35758628282258
 31
0.0
  0
LINE
  5
537
330
3A4
100
AcDbEntity
  8
0
 62
     0
100
AcDbLine
 10
9.020670096099195
 20
26.8932461421578
 30
0.0
 11
11.4648182263258
 21
29.33739427238441
 31
0.0
  0
ENDBLK
  5
539
330
3A4
100
AcDbEntity
  8
0
100
AcDbBlockEnd
  0
BLOCK
  5
DB29
330
DB1F
100
AcDbEntity
  8
0
 48
0.5
100
AcDbBlockBegin
  2
*D2
 70
     1
 10
0.0
 20
0.0
 30
0.0
  3
*D2
  1

  0
LINE
  5
DE81
330
DB1F
100
AcDbEntity
  8
SUNPOU
 48
0.5
100
AcDbLine
 10
422.5114645719186
 20
556.6504208291656
 30
0.0
 11
447.5617394445257
 21
556.6504208291656
 31
0.0
  0
LINE
  5
DE82
330
DB1F
100
AcDbEntity
  8
SUNPOU
 48
0.5
100
AcDbLine
 10
422.5114645719186
 20
526.6504208291656
 30
0.0
 11
447.5617394445257
 21
526.6504208291656
 31
0.0
  0
LINE
  5
DE83
330
DB1F
100
AcDbEntity
  8
SUNPOU
 48
0.5
100
AcDbLine
 10
444.5617394445257
 20
549.6504208291655
 30
0.0
 11
444.5617394445257
 21
533.6504208291655
 31
0.0
  0
INSERT
  5
DE84
330
DB1F
100
AcDbEntity
  8
SUNPOU
 48
0.5
100
AcDbBlockReference
  2
_OPEN
 10
444.5617394445257
 20
556.6504208291656
 30
0.0
 41
7.0
 42
7.0
 43
7.0
 50
90.0
  0
INSERT
  5
DE85
330
DB1F
100
AcDbEntity
  8
SUNPOU
 48
0.5
100
AcDbBlockReference
  2
_OPEN
 10
444.5617394445257
 20
526.6504208291656
 30
0.0
 41
7.0
 42
7.0
 43
7.0
 50
270.0
  0
MTEXT
  5
DE86
330
DB1F
100
AcDbEntity
  8
SUNPOU
 48
0.5
100
AcDbMText
 10
439.5617394445257
 20
541.6504208291656
 30
0.0
 40
6.0
 41
0.0
 71
     5
 72
     5
  1
\A1;30
 11
0.0000000000000001
 21
1.0
 31
0.0
 73
     1
 44
1.0
1001
ACAD
1000
MTEXTBEGIN
1070
    73
1070
     1
1070
    44
1040
1.0
1070
    74
1070
     0
1000
MTEXTEND
1000
MTEXTBEGIN
1070
    73
1070
     1
1070
    44
1040
1.0
1070
    74
1070
     0
1000
MTEXTEND
1000
MTEXTBEGIN
1070
    73
1070
     1
1070
    44
1040
1.0
1070
    74
1070
     0
1000
MTEXTEND
1000
MTEXTBEGIN
1070
    73
1070
     1
1070
    44
1040
1.0
1070
    74
1070
     0
1000
MTEXTEND
  0
POINT
  5
DE87
330
DB1F
100
AcDbEntity
  8
DEFPOINTS
 62
     0
 48
0.5
100
AcDbPoint
 10
416.5114645719186
 20
556.6504208291656
 30
0.0
  0
POINT
  5
DE88
330
DB1F
100
AcDbEntity
  8
DEFPOINTS
 62
     0
 48
0.5
100
AcDbPoint
 10
416.5114645719186
 20
526.6504208291656
 30
0.0
  0
POINT
  5
DE89
330
DB1F
100
AcDbEntity
  8
DEFPOINTS
 62
     0
 48
0.5
100
AcDbPoint
 10
444.5617394445257
 20
526.6504208291656
 30
0.0
  0
ENDBLK
  5
DB2A
330
DB1F
100
AcDbEntity
  8
0
 48
0.5
100
AcDbBlockEnd
  0
BLOCK
  5
DB35
330
DB2B
100
AcDbEntity
  8
0
 48
0.5
100
AcDbBlockBegin
  2
*D3
 70
     1
 10
0.0
 20
0.0
 30
0.0
  3
*D3
  1

  0
LINE
  5
DDFA
330
DB2B
100
AcDbEntity
  8
SUNPOU
 48
0.5
100
AcDbLine
 10
420.3114645719185
 20
204.6253548747578
 30
0.0
 11
447.5617394445257
 21
204.6253548747578
 31
0.0
  0
LINE
  5
DDFB
330
DB2B
100
AcDbEntity
  8
SUNPOU
 48
0.5
100
AcDbLine
 10
412.7114645719652
 20
167.8253548747578
 30
0.0
 11
447.5617394445257
 21
167.8253548747578
 31
0.0
  0
LINE
  5
DDFC
330
DB2B
100
AcDbEntity
  8
SUNPOU
 48
0.5
100
AcDbLine
 10
444.5617394445257
 20
197.6253548747578
 30
0.0
 11
444.5617394445257
 21
174.8253548747578
 31
0.0
  0
INSERT
  5
DDFD
330
DB2B
100
AcDbEntity
  8
SUNPOU
 48
0.5
100
AcDbBlockReference
  2
_OPEN
 10
444.5617394445257
 20
204.6253548747578
 30
0.0
 41
7.0
 42
7.0
 43
7.0
 50
90.0
  0
INSERT
  5
DDFE
330
DB2B
100
AcDbEntity
  8
SUNPOU
 48
0.5
100
AcDbBlockReference
  2
_OPEN
 10
444.5617394445257
 20
167.8253548747578
 30
0.0
 41
7.0
 42
7.0
 43
7.0
 50
270.0
  0
MTEXT
  5
DDFF
330
DB2B
100
AcDbEntity
  8
SUNPOU
 48
0.5
100
AcDbMText
 10
439.5617394445257
 20
186.2253548747579
 30
0.0
 40
6.0
 41
0.0
 71
     5
 72
     5
  1
\A1;37
 11
0.0000000000000001
 21
1.0
 31
0.0
 73
     1
 44
1.0
1001
ACAD
1000
MTEXTBEGIN
1070
    73
1070
     1
1070
    44
1040
1.0
1070
    74
1070
     0
1000
MTEXTEND
1000
MTEXTBEGIN
1070
    73
1070
     1
1070
    44
1040
1.0
1070
    74
1070
     0
1000
MTEXTEND
1000
MTEXTBEGIN
1070
    73
1070
     1
1070
    44
1040
1.0
1070
    74
1070
     0
1000
MTEXTEND
1000
MTEXTBEGIN
1070
    73
1070
     1
1070
    44
1040
1.0
1070
    74
1070
     0
1000
MTEXTEND
  0
POINT
  5
DE00
330
DB2B
100
AcDbEntity
  8
DEFPOINTS
 62
     0
 48
0.5
100
AcDbPoint
 10
414.3114645719185
 20
204.6253548747578
 30
0.0
  0
POINT
  5
DE01
330
DB2B
100
AcDbEntity
  8
DEFPOINTS
 62
     0
 48
0.5
100
AcDbPoint
 10
406.7114645719652
 20
167.8253548747578
 30
0.0
  0
POINT
  5
DE02
330
DB2B
100
AcDbEntity
  8
DEFPOINTS
 62
     0
 48
0.5
100
AcDbPoint
 10
444.5617394445257
 20
167.8253548747578
 30
0.0
  0
ENDBLK
  5
DB36
330
DB2B
100
AcDbEntity
  8
0
 48
0.5
100
AcDbBlockEnd
  0
BLOCK
  5
DB41
330
DB37
100
AcDbEntity
  8
0
 48
0.5
100
AcDbBlockBegin
  2
*D4
 70
     1
 10
0.0
 20
0.0
 30
0.0
  3
*D4
  1

  0
LINE
  5
DE1E
330
DB37
100
AcDbEntity
  8
SUNPOU
 48
0.5
100
AcDbLine
 10
419.3114645719235
 20
233.0442732052744
 30
0.0
 11
447.5617394445257
 21
233.0442732052744
 31
0.0
  0
LINE
  5
DE1F
330
DB37
100
AcDbEntity
  8
SUNPOU
 48
0.5
100
AcDbLine
 10
420.3114645719185
 20
204.6253548747578
 30
0.0
 11
447.5617394445257
 21
204.6253548747578
 31
0.0
  0
LINE
  5
DE20
330
DB37
100
AcDbEntity
  8
SUNPOU
 48
0.5
100
AcDbLine
 10
444.5617394445257
 20
226.0442732052744
 30
0.0
 11
444.5617394445257
 21
211.6253548747578
 31
0.0
  0
INSERT
  5
DE21
330
DB37
100
AcDbEntity
  8
SUNPOU
 48
0.5
100
AcDbBlockReference
  2
_OPEN
 10
444.5617394445257
 20
233.0442732052744
 30
0.0
 41
7.0
 42
7.0
 43
7.0
 50
90.0
  0
INSERT
  5
DE22
330
DB37
100
AcDbEntity
  8
SUNPOU
 48
0.5
100
AcDbBlockReference
  2
_OPEN
 10
444.5617394445257
 20
204.6253548747578
 30
0.0
 41
7.0
 42
7.0
 43
7.0
 50
270.0
  0
MTEXT
  5
DE23
330
DB37
100
AcDbEntity
  8
SUNPOU
 48
0.5
100
AcDbMText
 10
439.5617394445257
 20
218.8348140400161
 30
0.0
 40
6.0
 41
0.0
 71
     5
 72
     5
  1
\A1;28
 11
0.0000000000000001
 21
1.0
 31
0.0
 73
     1
 44
1.0
1001
ACAD
1000
MTEXTBEGIN
1070
    73
1070
     1
1070
    44
1040
1.0
1070
    74
1070
     0
1000
MTEXTEND
1000
MTEXTBEGIN
1070
    73
1070
     1
1070
    44
1040
1.0
1070
    74
1070
     0
1000
MTEXTEND
1000
MTEXTBEGIN
1070
    73
1070
     1
1070
    44
1040
1.0
1070
    74
1070
     0
1000
MTEXTEND
1000
MTEXTBEGIN
1070
    73
1070
     1
1070
    44
1040
1.0
1070
    74
1070
     0
1000
MTEXTEND
  0
POINT
  5
DE24
330
DB37
100
AcDbEntity
  8
DEFPOINTS
 62
     0
 48
0.5
100
AcDbPoint
 10
413.3114645719236
 20
233.0442732052744
 30
0.0
  0
POINT
  5
DE25
330
DB37
100
AcDbEntity
  8
DEFPOINTS
 62
     0
 48
0.5
100
AcDbPoint
 10
414.3114645719185
 20
204.6253548747578
 30
0.0
  0
POINT
  5
DE26
330
DB37
100
AcDbEntity
  8
DEFPOINTS
 62
     0
 48
0.5
100
AcDbPoint
 10
444.5617394445257
 20
204.6253548747578
 30
0.0
  0
ENDBLK
  5
DB42
330
DB37
100
AcDbEntity
  8
0
 48
0.5
100
AcDbBlockEnd
  0
BLOCK
  5
DB4D
330
DB43
100
AcDbEntity
  8
0
 48
0.5
100
AcDbBlockBegin
  2
*D5
 70
     1
 10
0.0
 20
0.0
 30
0.0
  3
*D5
  1

  0
LINE
  5
DE27
330
DB43
100
AcDbEntity
  8
SUNPOU
 48
0.5
100
AcDbLine
 10
384.2546559769443
 20
235.0097429341739
 30
0.0
 11
384.2546559769443
 21
256.3909835937955
 31
0.0
  0
LINE
  5
DE28
330
DB43
100
AcDbEntity
  8
SUNPOU
 48
0.5
100
AcDbLine
 10
418.3114645719236
 20
234.0442732052492
 30
0.0
 11
418.3114645719236
 21
256.3909835937955
 31
0.0
  0
LINE
  5
DE29
330
DB43
100
AcDbEntity
  8
SUNPOU
 48
0.5
100
AcDbLine
 10
391.2546559769443
 20
253.3909835937955
 30
0.0
 11
411.3114645719235
 21
253.3909835937955
 31
0.0
  0
INSERT
  5
DE2A
330
DB43
100
AcDbEntity
  8
SUNPOU
 48
0.5
100
AcDbBlockReference
  2
_OPEN
 10
384.2546559769443
 20
253.3909835937955
 30
0.0
 41
7.0
 42
7.0
 43
7.0
 50
180.0
  0
INSERT
  5
DE2B
330
DB43
100
AcDbEntity
  8
SUNPOU
 48
0.5
100
AcDbBlockReference
  2
_OPEN
 10
418.3114645719236
 20
253.3909835937955
 30
0.0
 41
7.0
 42
7.0
 43
7.0
  0
MTEXT
  5
DE2C
330
DB43
100
AcDbEntity
  8
SUNPOU
 48
0.5
100
AcDbMText
 10
401.2830602744339
 20
258.3909835937955
 30
0.0
 40
6.0
 41
0.0
 71
     5
 72
     5
  1
\A1;34
 73
     1
 44
1.0
1001
ACAD
1000
MTEXTBEGIN
1070
    73
1070
     1
1070
    44
1040
1.0
1070
    74
1070
     0
1000
MTEXTEND
1000
MTEXTBEGIN
1070
    73
1070
     1
1070
    44
1040
1.0
1070
    74
1070
     0
1000
MTEXTEND
1000
MTEXTBEGIN
1070
    73
1070
     1
1070
    44
1040
1.0
1070
    74
1070
     0
1000
MTEXTEND
1000
MTEXTBEGIN
1070
    73
1070
     1
1070
    44
1040
1.0
1070
    74
1070
     0
1000
MTEXTEND
  0
POINT
  5
DE2D
330
DB43
100
AcDbEntity
  8
DEFPOINTS
 62
     0
 48
0.5
100
AcDbPoint
 10
384.2546559769443
 20
229.0097429341739
 30
0.0
  0
POINT
  5
DE2E
330
DB43
100
AcDbEntity
  8
DEFPOINTS
 62
     0
 48
0.5
100
AcDbPoint
 10
418.3114645719236
 20
228.0442732052492
 30
0.0
  0
POINT
  5
DE2F
330
DB43
100
AcDbEntity
  8
DEFPOINTS
 62
     0
 48
0.5
100
AcDbPoint
 10
418.3114645719236
 20
253.3909835937955
 30
0.0
  0
ENDBLK
  5
DB4E
330
DB43
100
AcDbEntity
  8
0
 48
0.5
100
AcDbBlockEnd
  0
BLOCK
  5
DB59
330
DB4F
100
AcDbEntity
  8
0
 48
0.5
100
AcDbBlockBegin
  2
*D6
 70
     1
 10
0.0
 20
0.0
 30
0.0
  3
*D6
  1

  0
LINE
  5
DE54
330
DB4F
100
AcDbEntity
  8
SUNPOU
 48
0.5
100
AcDbLine
 10
314.9114645719182
 20
469.5254548747579
 30
0.0
 11
314.9114645719182
 21
482.8791078344295
 31
0.0
  0
LINE
  5
DE55
330
DB4F
100
AcDbEntity
  8
SUNPOU
 48
0.5
100
AcDbLine
 10
418.3114645719236
 20
234.0442732052492
 30
0.0
 11
418.3114645719236
 21
482.8791078344295
 31
0.0
  0
LINE
  5
DE56
330
DB4F
100
AcDbEntity
  8
SUNPOU
 48
0.5
100
AcDbLine
 10
321.9114645719182
 20
479.8791078344295
 30
0.0
 11
411.3114645719235
 21
479.8791078344295
 31
0.0
  0
INSERT
  5
DE57
330
DB4F
100
AcDbEntity
  8
SUNPOU
 48
0.5
100
AcDbBlockReference
  2
_OPEN
 10
314.9114645719182
 20
479.8791078344295
 30
0.0
 41
7.0
 42
7.0
 43
7.0
 50
180.0
  0
INSERT
  5
DE58
330
DB4F
100
AcDbEntity
  8
SUNPOU
 48
0.5
100
AcDbBlockReference
  2
_OPEN
 10
418.3114645719236
 20
479.8791078344295
 30
0.0
 41
7.0
 42
7.0
 43
7.0
  0
MTEXT
  5
DE59
330
DB4F
100
AcDbEntity
  8
SUNPOU
 48
0.5
100
AcDbMText
 10
366.6114645719209
 20
484.8791078344295
 30
0.0
 40
6.0
 41
0.0
 71
     5
 72
     5
  1
\A1;103
 73
     1
 44
1.0
1001
ACAD
1000
MTEXTBEGIN
1070
    73
1070
     1
1070
    44
1040
1.0
1070
    74
1070
     0
1000
MTEXTEND
1000
MTEXTBEGIN
1070
    73
1070
     1
1070
    44
1040
1.0
1070
    74
1070
     0
1000
MTEXTEND
1000
MTEXTBEGIN
1070
    73
1070
     1
1070
    44
1040
1.0
1070
    74
1070
     0
1000
MTEXTEND
1000
MTEXTBEGIN
1070
    73
1070
     1
1070
    44
1040
1.0
1070
    74
1070
     0
1000
MTEXTEND
  0
POINT
  5
DE5A
330
DB4F
100
AcDbEntity
  8
DEFPOINTS
 62
     0
 48
0.5
100
AcDbPoint
 10
314.9114645719182
 20
463.5254548747578
 30
0.0
  0
POINT
  5
DE5B
330
DB4F
100
AcDbEntity
  8
DEFPOINTS
 62
     0
 48
0.5
100
AcDbPoint
 10
418.3114645719236
 20
228.0442732052492
 30
0.0
  0
POINT
  5
DE5C
330
DB4F
100
AcDbEntity
  8
DEFPOINTS
 62
     0
 48
0.5
100
AcDbPoint
 10
418.3114645719236
 20
479.8791078344295
 30
0.0
  0
ENDBLK
  5
DB5A
330
DB4F
100
AcDbEntity
  8
0
 48
0.5
100
AcDbBlockEnd
  0
BLOCK
  5
DB65
330
DB5B
100
AcDbEntity
  8
0
 48
0.5
100
AcDbBlockBegin
  2
*D7
 70
     1
 10
0.0
 20
0.0
 30
0.0
  3
*D7
  1

  0
LINE
  5
DDF1
330
DB5B
100
AcDbEntity
  8
SUNPOU
 48
0.5
100
AcDbLine
 10
252.7509933350147
 20
264.0002774463021
 30
0.0
 11
252.7509933350147
 21
297.6142802299672
 31
0.0
  0
LINE
  5
DDF2
330
DB5B
100
AcDbEntity
  8
SUNPOU
 48
0.5
100
AcDbLine
 10
211.5114645718945
 20
264.0442732052975
 30
0.0
 11
211.5114645718945
 21
297.6142802299672
 31
0.0
  0
LINE
  5
DDF3
330
DB5B
100
AcDbEntity
  8
SUNPOU
 48
0.5
100
AcDbLine
 10
245.7509933350147
 20
294.6142802299672
 30
0.0
 11
218.5114645718945
 21
294.6142802299672
 31
0.0
  0
INSERT
  5
DDF4
330
DB5B
100
AcDbEntity
  8
SUNPOU
 48
0.5
100
AcDbBlockReference
  2
_OPEN
 10
252.7509933350147
 20
294.6142802299672
 30
0.0
 41
7.0
 42
7.0
 43
7.0
  0
INSERT
  5
DDF5
330
DB5B
100
AcDbEntity
  8
SUNPOU
 48
0.5
100
AcDbBlockReference
  2
_OPEN
 10
211.5114645718945
 20
294.6142802299672
 30
0.0
 41
7.0
 42
7.0
 43
7.0
 50
180.0
  0
MTEXT
  5
DDF6
330
DB5B
100
AcDbEntity
  8
SUNPOU
 48
0.5
100
AcDbMText
 10
232.1312289534546
 20
299.6142802299672
 30
0.0
 40
6.0
 41
0.0
 71
     5
 72
     5
  1
\A1;41
 73
     1
 44
1.0
1001
ACAD
1000
MTEXTBEGIN
1070
    73
1070
     1
1070
    44
1040
1.0
1070
    74
1070
     0
1000
MTEXTEND
1000
MTEXTBEGIN
1070
    73
1070
     1
1070
    44
1040
1.0
1070
    74
1070
     0
1000
MTEXTEND
1000
MTEXTBEGIN
1070
    73
1070
     1
1070
    44
1040
1.0
1070
    74
1070
     0
1000
MTEXTEND
1000
MTEXTBEGIN
1070
    73
1070
     1
1070
    44
1040
1.0
1070
    74
1070
     0
1000
MTEXTEND
  0
POINT
  5
DDF7
330
DB5B
100
AcDbEntity
  8
DEFPOINTS
 62
     0
 48
0.5
100
AcDbPoint
 10
252.7509933350147
 20
258.0002774463021
 30
0.0
  0
POINT
  5
DDF8
330
DB5B
100
AcDbEntity
  8
DEFPOINTS
 62
     0
 48
0.5
100
AcDbPoint
 10
211.5114645718945
 20
258.0442732052975
 30
0.0
  0
POINT
  5
DDF9
330
DB5B
100
AcDbEntity
  8
DEFPOINTS
 62
     0
 48
0.5
100
AcDbPoint
 10
211.5114645718945
 20
294.6142802299672
 30
0.0
  0
ENDBLK
  5
DB66
330
DB5B
100
AcDbEntity
  8
0
 48
0.5
100
AcDbBlockEnd
  0
BLOCK
  5
DB71
330
DB67
100
AcDbEntity
  8
0
 48
0.5
100
AcDbBlockBegin
  2
*D8
 70
     1
 10
0.0
 20
0.0
 30
0.0
  3
*D8
  1

  0
LINE
  5
DDDF
330
DB67
100
AcDbEntity
  8
SUNPOU
 62
     4
 48
0.5
370
    -2
100
AcDbLine
 10
303.9114645719182
 20
187.0254548747578
 30
0.0
 11
154.7210209759754
 21
187.0254548747579
 31
0.0
  0
LINE
  5
DDE0
330
DB67
100
AcDbEntity
  8
SUNPOU
 62
     4
 48
0.5
370
    -2
100
AcDbLine
 10
313.9114645719182
 20
456.5254548747579
 30
0.0
 11
154.7210209759755
 21
456.5254548747579
 31
0.0
  0
LINE
  5
DDE1
330
DB67
100
AcDbEntity
  8
SUNPOU
 62
     4
 48
0.5
370
    -2
100
AcDbLine
 10
157.7210209759754
 20
194.0254548747579
 30
0.0
 11
157.7210209759755
 21
449.5254548747579
 31
0.0
  0
INSERT
  5
DDE2
330
DB67
100
AcDbEntity
  8
SUNPOU
 62
     4
 48
0.5
370
    -2
100
AcDbBlockReference
  2
_OPEN
 10
157.7210209759754
 20
187.0254548747579
 30
0.0
 41
7.0
 42
7.0
 43
7.0
 50
270.0
  0
INSERT
  5
DDE3
330
DB67
100
AcDbEntity
  8
SUNPOU
 62
     4
 48
0.5
370
    -2
100
AcDbBlockReference
  2
_OPEN
 10
157.7210209759755
 20
456.5254548747579
 30
0.0
 41
7.0
 42
7.0
 43
7.0
 50
90.0
  0
MTEXT
  5
DDE4
330
DB67
100
AcDbEntity
  8
SUNPOU
 62
     4
 48
0.5
100
AcDbMText
 10
152.7210209759754
 20
321.7754548747579
 30
0.0
 40
6.0
 41
0.0
 71
     5
 72
     5
  1
\A1;270
 11
0.0000000000000001
 21
1.0
 31
0.0
 73
     1
 44
1.0
1001
ACAD
1000
MTEXTBEGIN
1070
    73
1070
     1
1070
    44
1040
1.0
1070
    74
1070
     0
1000
MTEXTEND
1000
MTEXTBEGIN
1070
    73
1070
     1
1070
    44
1040
1.0
1070
    74
1070
     0
1000
MTEXTEND
1000
MTEXTBEGIN
1070
    73
1070
     1
1070
    44
1040
1.0
1070
    74
1070
     0
1000
MTEXTEND
1000
MTEXTBEGIN
1070
    73
1070
     1
1070
    44
1040
1.0
1070
    74
1070
     0
1000
MTEXTEND
  0
POINT
  5
DDE5
330
DB67
100
AcDbEntity
  8
DEFPOINTS
 62
     0
 48
0.5
100
AcDbPoint
 10
309.9114645719182
 20
187.0254548747578
 30
0.0
  0
POINT
  5
DDE6
330
DB67
100
AcDbEntity
  8
DEFPOINTS
 62
     0
 48
0.5
100
AcDbPoint
 10
319.9114645719182
 20
456.5254548747579
 30
0.0
  0
POINT
  5
DDE7
330
DB67
100
AcDbEntity
  8
DEFPOINTS
 62
     0
 48
0.5
100
AcDbPoint
 10
157.7210209759755
 20
456.5254548747579
 30
0.0
  0
ENDBLK
  5
DB72
330
DB67
100
AcDbEntity
  8
0
 48
0.5
100
AcDbBlockEnd
  0
BLOCK
  5
DB7D
330
DB73
100
AcDbEntity
  8
0
 48
0.5
100
AcDbBlockBegin
  2
*D9
 70
     1
 10
0.0
 20
0.0
 30
0.0
  3
*D9
  1

  0
LINE
  5
DE5D
330
DB73
100
AcDbEntity
  8
SUNPOU
 48
0.5
100
AcDbLine
 10
314.9114645719182
 20
469.5254548747579
 30
0.0
 11
314.9114645719182
 21
482.8791078344295
 31
0.0
  0
LINE
  5
DE5E
330
DB73
100
AcDbEntity
  8
SUNPOU
 48
0.5
100
AcDbLine
 10
211.5114645718945
 20
264.0442732052975
 30
0.0
 11
211.5114645718945
 21
482.8791078344295
 31
0.0
  0
LINE
  5
DE5F
330
DB73
100
AcDbEntity
  8
SUNPOU
 48
0.5
100
AcDbLine
 10
307.9114645719182
 20
479.8791078344295
 30
0.0
 11
218.5114645718945
 21
479.8791078344295
 31
0.0
  0
INSERT
  5
DE60
330
DB73
100
AcDbEntity
  8
SUNPOU
 48
0.5
100
AcDbBlockReference
  2
_OPEN
 10
314.9114645719182
 20
479.8791078344295
 30
0.0
 41
7.0
 42
7.0
 43
7.0
  0
INSERT
  5
DE61
330
DB73
100
AcDbEntity
  8
SUNPOU
 48
0.5
100
AcDbBlockReference
  2
_OPEN
 10
211.5114645718945
 20
479.8791078344295
 30
0.0
 41
7.0
 42
7.0
 43
7.0
 50
180.0
  0
MTEXT
  5
DE62
330
DB73
100
AcDbEntity
  8
SUNPOU
 48
0.5
100
AcDbMText
 10
263.2114645719064
 20
484.8791078344295
 30
0.0
 40
6.0
 41
0.0
 71
     5
 72
     5
  1
\A1;103
 73
     1
 44
1.0
1001
ACAD
1000
MTEXTBEGIN
1070
    73
1070
     1
1070
    44
1040
1.0
1070
    74
1070
     0
1000
MTEXTEND
1000
MTEXTBEGIN
1070
    73
1070
     1
1070
    44
1040
1.0
1070
    74
1070
     0
1000
MTEXTEND
1000
MTEXTBEGIN
1070
    73
1070
     1
1070
    44
1040
1.0
1070
    74
1070
     0
1000
MTEXTEND
1000
MTEXTBEGIN
1070
    73
1070
     1
1070
    44
1040
1.0
1070
    74
1070
     0
1000
MTEXTEND
  0
POINT
  5
DE63
330
DB73
100
AcDbEntity
  8
DEFPOINTS
 62
     0
 48
0.5
100
AcDbPoint
 10
314.9114645719182
 20
463.5254548747578
 30
0.0
  0
POINT
  5
DE64
330
DB73
100
AcDbEntity
  8
DEFPOINTS
 62
     0
 48
0.5
100
AcDbPoint
 10
211.5114645718945
 20
258.0442732052975
 30
0.0
  0
POINT
  5
DE65
330
DB73
100
AcDbEntity
  8
DEFPOINTS
 62
     0
 48
0.5
100
AcDbPoint
 10
211.5114645718945
 20
479.8791078344295
 30
0.0
  0
ENDBLK
  5
DB7E
330
DB73
100
AcDbEntity
  8
0
 48
0.5
100
AcDbBlockEnd
  0
BLOCK
  5
DB89
330
DB7F
100
AcDbEntity
  8
0
 48
0.5
100
AcDbBlockBegin
  2
*D10
 70
     1
 10
0.0
 20
0.0
 30
0.0
  3
*D10
  1

  0
LINE
  5
DE0C
330
DB7F
100
AcDbEntity
  8
SUNPOU
 48
0.5
100
AcDbLine
 10
211.2073300766953
 20
262.9956135490116
 30
0.0
 11
188.7472358016407
 21
262.9956135490116
 31
0.0
  0
LINE
  5
DE0D
330
DB7F
100
AcDbEntity
  8
SUNPOU
 48
0.5
100
AcDbLine
 10
209.5114645720116
 20
234.6253548747578
 30
0.0
 11
188.7472358016407
 21
234.6253548747579
 31
0.0
  0
LINE
  5
DE0E
330
DB7F
100
AcDbEntity
  8
SUNPOU
 48
0.5
100
AcDbLine
 10
191.7472358016407
 20
255.9956135490116
 30
0.0
 11
191.7472358016407
 21
241.6253548747579
 31
0.0
  0
INSERT
  5
DE0F
330
DB7F
100
AcDbEntity
  8
SUNPOU
 48
0.5
100
AcDbBlockReference
  2
_OPEN
 10
191.7472358016407
 20
262.9956135490116
 30
0.0
 41
7.0
 42
7.0
 43
7.0
 50
90.0
  0
INSERT
  5
DE10
330
DB7F
100
AcDbEntity
  8
SUNPOU
 48
0.5
100
AcDbBlockReference
  2
_OPEN
 10
191.7472358016407
 20
234.6253548747579
 30
0.0
 41
7.0
 42
7.0
 43
7.0
 50
270.0
  0
MTEXT
  5
DE11
330
DB7F
100
AcDbEntity
  8
SUNPOU
 48
0.5
100
AcDbMText
 10
186.7472358016406
 20
248.8104842118848
 30
0.0
 40
6.0
 41
0.0
 71
     5
 72
     5
  1
\A1;28
 11
0.0000000000000001
 21
1.0
 31
0.0
 73
     1
 44
1.0
1001
ACAD
1000
MTEXTBEGIN
1070
    73
1070
     1
1070
    44
1040
1.0
1070
    74
1070
     0
1000
MTEXTEND
1000
MTEXTBEGIN
1070
    73
1070
     1
1070
    44
1040
1.0
1070
    74
1070
     0
1000
MTEXTEND
1000
MTEXTBEGIN
1070
    73
1070
     1
1070
    44
1040
1.0
1070
    74
1070
     0
1000
MTEXTEND
1000
MTEXTBEGIN
1070
    73
1070
     1
1070
    44
1040
1.0
1070
    74
1070
     0
1000
MTEXTEND
  0
POINT
  5
DE12
330
DB7F
100
AcDbEntity
  8
DEFPOINTS
 62
     0
 48
0.5
100
AcDbPoint
 10
217.2073300766953
 20
262.9956135490116
 30
0.0
  0
POINT
  5
DE13
330
DB7F
100
AcDbEntity
  8
DEFPOINTS
 62
     0
 48
0.5
100
AcDbPoint
 10
215.5114645720116
 20
234.6253548747578
 30
0.0
  0
POINT
  5
DE14
330
DB7F
100
AcDbEntity
  8
DEFPOINTS
 62
     0
 48
0.5
100
AcDbPoint
 10
191.7472358016407
 20
234.6253548747579
 30
0.0
  0
ENDBLK
  5
DB8A
330
DB7F
100
AcDbEntity
  8
0
 48
0.5
100
AcDbBlockEnd
  0
BLOCK
  5
DB95
330
DB8B
100
AcDbEntity
  8
0
 48
0.5
100
AcDbBlockBegin
  2
*D11
 70
     1
 10
0.0
 20
0.0
 30
0.0
  3
*D11
  1

  0
LINE
  5
DE03
330
DB8B
100
AcDbEntity
  8
SUNPOU
 48
0.5
100
AcDbLine
 10
258.7509933350147
 20
258.0002774463021
 30
0.0
 11
276.8951802233127
 21
258.0002774463021
 31
0.0
  0
LINE
  5
DE04
330
DB8B
100
AcDbEntity
  8
SUNPOU
 48
0.5
100
AcDbLine
 10
266.1258627541826
 20
205.5253548747578
 30
0.0
 11
276.8951802233127
 21
205.5253548747578
 31
0.0
  0
LINE
  5
DE05
330
DB8B
100
AcDbEntity
  8
SUNPOU
 48
0.5
100
AcDbLine
 10
273.8951802233127
 20
251.0002774463021
 30
0.0
 11
273.8951802233127
 21
212.5253548747579
 31
0.0
  0
INSERT
  5
DE06
330
DB8B
100
AcDbEntity
  8
SUNPOU
 48
0.5
100
AcDbBlockReference
  2
_OPEN
 10
273.8951802233127
 20
258.0002774463021
 30
0.0
 41
7.0
 42
7.0
 43
7.0
 50
90.0
  0
INSERT
  5
DE07
330
DB8B
100
AcDbEntity
  8
SUNPOU
 48
0.5
100
AcDbBlockReference
  2
_OPEN
 10
273.8951802233127
 20
205.5253548747578
 30
0.0
 41
7.0
 42
7.0
 43
7.0
 50
270.0
  0
MTEXT
  5
DE08
330
DB8B
100
AcDbEntity
  8
SUNPOU
 48
0.5
100
AcDbMText
 10
268.8951802233126
 20
231.76281616053
 30
0.0
 40
6.0
 41
0.0
 71
     5
 72
     5
  1
\A1;52
 11
0.0000000000000001
 21
1.0
 31
0.0
 73
     1
 44
1.0
1001
ACAD
1000
MTEXTBEGIN
1070
    73
1070
     1
1070
    44
1040
1.0
1070
    74
1070
     0
1000
MTEXTEND
1000
MTEXTBEGIN
1070
    73
1070
     1
1070
    44
1040
1.0
1070
    74
1070
     0
1000
MTEXTEND
1000
MTEXTBEGIN
1070
    73
1070
     1
1070
    44
1040
1.0
1070
    74
1070
     0
1000
MTEXTEND
1000
MTEXTBEGIN
1070
    73
1070
     1
1070
    44
1040
1.0
1070
    74
1070
     0
1000
MTEXTEND
  0
POINT
  5
DE09
330
DB8B
100
AcDbEntity
  8
DEFPOINTS
 62
     0
 48
0.5
100
AcDbPoint
 10
252.7509933350147
 20
258.0002774463021
 30
0.0
  0
POINT
  5
DE0A
330
DB8B
100
AcDbEntity
  8
DEFPOINTS
 62
     0
 48
0.5
100
AcDbPoint
 10
260.1258627541826
 20
205.5253548747578
 30
0.0
  0
POINT
  5
DE0B
330
DB8B
100
AcDbEntity
  8
DEFPOINTS
 62
     0
 48
0.5
100
AcDbPoint
 10
273.8951802233127
 20
205.5253548747578
 30
0.0
  0
ENDBLK
  5
DB96
330
DB8B
100
AcDbEntity
  8
0
 48
0.5
100
AcDbBlockEnd
  0
BLOCK
  5
DBA1
330
DB97
100
AcDbEntity
  8
0
 48
0.5
100
AcDbBlockBegin
  2
*D12
 70
     1
 10
0.0
 20
0.0
 30
0.0
  3
*D12
  1

  0
LINE
  5
DE15
330
DB97
100
AcDbEntity
  8
SUNPOU
 48
0.5
100
AcDbLine
 10
378.2546559769443
 20
229.0097429341739
 30
0.0
 11
356.7314099405243
 21
229.0097429341739
 31
0.0
  0
LINE
  5
DE16
330
DB97
100
AcDbEntity
  8
SUNPOU
 48
0.5
100
AcDbLine
 10
369.7070377536997
 20
205.5253548747578
 30
0.0
 11
356.7314099405243
 21
205.5253548747578
 31
0.0
  0
LINE
  5
DE17
330
DB97
100
AcDbEntity
  8
SUNPOU
 48
0.5
100
AcDbLine
 10
359.7314099405243
 20
222.0097429341739
 30
0.0
 11
359.7314099405243
 21
212.5253548747579
 31
0.0
  0
INSERT
  5
DE18
330
DB97
100
AcDbEntity
  8
SUNPOU
 48
0.5
100
AcDbBlockReference
  2
_OPEN
 10
359.7314099405243
 20
229.0097429341739
 30
0.0
 41
7.0
 42
7.0
 43
7.0
 50
90.0
  0
INSERT
  5
DE19
330
DB97
100
AcDbEntity
  8
SUNPOU
 48
0.5
100
AcDbBlockReference
  2
_OPEN
 10
359.7314099405243
 20
205.5253548747578
 30
0.0
 41
7.0
 42
7.0
 43
7.0
 50
270.0
  0
MTEXT
  5
DE1A
330
DB97
100
AcDbEntity
  8
SUNPOU
 48
0.5
100
AcDbMText
 10
354.7314099405243
 20
217.267548904466
 30
0.0
 40
6.0
 41
0.0
 71
     5
 72
     5
  1
\A1;23
 11
0.0000000000000001
 21
1.0
 31
0.0
 73
     1
 44
1.0
1001
ACAD
1000
MTEXTBEGIN
1070
    73
1070
     1
1070
    44
1040
1.0
1070
    74
1070
     0
1000
MTEXTEND
1000
MTEXTBEGIN
1070
    73
1070
     1
1070
    44
1040
1.0
1070
    74
1070
     0
1000
MTEXTEND
1000
MTEXTBEGIN
1070
    73
1070
     1
1070
    44
1040
1.0
1070
    74
1070
     0
1000
MTEXTEND
1000
MTEXTBEGIN
1070
    73
1070
     1
1070
    44
1040
1.0
1070
    74
1070
     0
1000
MTEXTEND
  0
POINT
  5
DE1B
330
DB97
100
AcDbEntity
  8
DEFPOINTS
 62
     0
 48
0.5
100
AcDbPoint
 10
384.2546559769443
 20
229.0097429341739
 30
0.0
  0
POINT
  5
DE1C
330
DB97
100
AcDbEntity
  8
DEFPOINTS
 62
     0
 48
0.5
100
AcDbPoint
 10
375.7070377536997
 20
205.5253548747578
 30
0.0
  0
POINT
  5
DE1D
330
DB97
100
AcDbEntity
  8
DEFPOINTS
 62
     0
 48
0.5
100
AcDbPoint
 10
359.7314099405243
 20
205.5253548747578
 30
0.0
  0
ENDBLK
  5
DBA2
330
DB97
100
AcDbEntity
  8
0
 48
0.5
100
AcDbBlockEnd
  0
BLOCK
  5
DBAD
330
DBA3
100
AcDbEntity
  8
0
 48
0.5
100
AcDbBlockBegin
  2
*D13
 70
     1
 10
0.0
 20
0.0
 30
0.0
  3
*D13
  1

  0
LINE
  5
DE78
330
DBA3
100
AcDbEntity
  8
SUNPOU
 62
     4
 48
0.5
370
    -2
100
AcDbLine
 10
283.2472415719182
 20
469.5254548747579
 30
0.0
 11
283.2472415719182
 21
509.8544882704841
 31
0.0
  0
LINE
  5
DE79
330
DBA3
100
AcDbEntity
  8
SUNPOU
 62
     4
 48
0.5
370
    -2
100
AcDbLine
 10
341.2472415719178
 20
469.5254548747579
 30
0.0
 11
341.2472415719178
 21
509.8544882704841
 31
0.0
  0
LINE
  5
DE7A
330
DBA3
100
AcDbEntity
  8
SUNPOU
 62
     4
 48
0.5
370
    -2
100
AcDbLine
 10
290.2472415719182
 20
506.854488270484
 30
0.0
 11
334.2472415719178
 21
506.854488270484
 31
0.0
  0
INSERT
  5
DE7B
330
DBA3
100
AcDbEntity
  8
SUNPOU
 62
     4
 48
0.5
370
    -2
100
AcDbBlockReference
  2
_OPEN
 10
283.2472415719182
 20
506.854488270484
 30
0.0
 41
7.0
 42
7.0
 43
7.0
 50
180.0
  0
INSERT
  5
DE7C
330
DBA3
100
AcDbEntity
  8
SUNPOU
 62
     4
 48
0.5
370
    -2
100
AcDbBlockReference
  2
_OPEN
 10
341.2472415719178
 20
506.854488270484
 30
0.0
 41
7.0
 42
7.0
 43
7.0
  0
MTEXT
  5
DE7D
330
DBA3
100
AcDbEntity
  8
SUNPOU
 62
     4
 48
0.5
100
AcDbMText
 10
312.247241571918
 20
511.8544882704841
 30
0.0
 40
6.0
 41
0.0
 71
     5
 72
     5
  1
\A1;58
 73
     1
 44
1.0
1001
ACAD
1000
MTEXTBEGIN
1070
    73
1070
     1
1070
    44
1040
1.0
1070
    74
1070
     0
1000
MTEXTEND
1000
MTEXTBEGIN
1070
    73
1070
     1
1070
    44
1040
1.0
1070
    74
1070
     0
1000
MTEXTEND
1000
MTEXTBEGIN
1070
    73
1070
     1
1070
    44
1040
1.0
1070
    74
1070
     0
1000
MTEXTEND
1000
MTEXTBEGIN
1070
    73
1070
     1
1070
    44
1040
1.0
1070
    74
1070
     0
1000
MTEXTEND
  0
POINT
  5
DE7E
330
DBA3
100
AcDbEntity
  8
DEFPOINTS
 62
     0
 48
0.5
100
AcDbPoint
 10
283.2472415719182
 20
463.5254548747578
 30
0.0
  0
POINT
  5
DE7F
330
DBA3
100
AcDbEntity
  8
DEFPOINTS
 62
     0
 48
0.5
100
AcDbPoint
 10
341.2472415719178
 20
463.5254548747578
 30
0.0
  0
POINT
  5
DE80
330
DBA3
100
AcDbEntity
  8
DEFPOINTS
 62
     0
 48
0.5
100
AcDbPoint
 10
341.2472415719178
 20
506.854488270484
 30
0.0
  0
ENDBLK
  5
DBAE
330
DBA3
100
AcDbEntity
  8
0
 48
0.5
100
AcDbBlockEnd
  0
BLOCK
  5
DBB9
330
DBAF
100
AcDbEntity
  8
0
 48
0.5
100
AcDbBlockBegin
  2
*D14
 70
     1
 10
0.0
 20
0.0
 30
0.0
  3
*D14
  1

  0
LINE
  5
DE6F
330
DBAF
100
AcDbEntity
  8
SUNPOU
 62
     4
 48
0.5
370
    -2
100
AcDbLine
 10
298.4114625719182
 20
448.3043998747579
 30
0.0
 11
298.4114625719182
 21
496.7892078507307
 31
0.0
  0
LINE
  5
DE70
330
DBAF
100
AcDbEntity
  8
SUNPOU
 62
     4
 48
0.5
370
    -2
100
AcDbLine
 10
331.4114625719182
 20
448.3043998747579
 30
0.0
 11
331.4114625719182
 21
496.7892078507307
 31
0.0
  0
LINE
  5
DE71
330
DBAF
100
AcDbEntity
  8
SUNPOU
 62
     4
 48
0.5
370
    -2
100
AcDbLine
 10
305.4114625719182
 20
493.7892078507307
 30
0.0
 11
324.4114625719182
 21
493.7892078507307
 31
0.0
  0
INSERT
  5
DE72
330
DBAF
100
AcDbEntity
  8
SUNPOU
 62
     4
 48
0.5
370
    -2
100
AcDbBlockReference
  2
_OPEN
 10
298.4114625719182
 20
493.7892078507307
 30
0.0
 41
7.0
 42
7.0
 43
7.0
 50
180.0
  0
INSERT
  5
DE73
330
DBAF
100
AcDbEntity
  8
SUNPOU
 62
     4
 48
0.5
370
    -2
100
AcDbBlockReference
  2
_OPEN
 10
331.4114625719182
 20
493.7892078507307
 30
0.0
 41
7.0
 42
7.0
 43
7.0
  0
MTEXT
  5
DE74
330
DBAF
100
AcDbEntity
  8
SUNPOU
 62
     4
 48
0.5
100
AcDbMText
 10
314.9114625719182
 20
498.7892078507306
 30
0.0
 40
6.0
 41
0.0
 71
     5
 72
     5
  1
\A1;33
 73
     1
 44
1.0
1001
ACAD
1000
MTEXTBEGIN
1070
    73
1070
     1
1070
    44
1040
1.0
1070
    74
1070
     0
1000
MTEXTEND
1000
MTEXTBEGIN
1070
    73
1070
     1
1070
    44
1040
1.0
1070
    74
1070
     0
1000
MTEXTEND
1000
MTEXTBEGIN
1070
    73
1070
     1
1070
    44
1040
1.0
1070
    74
1070
     0
1000
MTEXTEND
1000
MTEXTBEGIN
1070
    73
1070
     1
1070
    44
1040
1.0
1070
    74
1070
     0
1000
MTEXTEND
  0
POINT
  5
DE75
330
DBAF
100
AcDbEntity
  8
DEFPOINTS
 62
     0
 48
0.5
100
AcDbPoint
 10
298.4114625719182
 20
442.3043998747579
 30
0.0
  0
POINT
  5
DE76
330
DBAF
100
AcDbEntity
  8
DEFPOINTS
 62
     0
 48
0.5
100
AcDbPoint
 10
331.4114625719182
 20
442.3043998747579
 30
0.0
  0
POINT
  5
DE77
330
DBAF
100
AcDbEntity
  8
DEFPOINTS
 62
     0
 48
0.5
100
AcDbPoint
 10
331.4114625719182
 20
493.7892078507307
 30
0.0
  0
ENDBLK
  5
DBBA
330
DBAF
100
AcDbEntity
  8
0
 48
0.5
100
AcDbBlockEnd
  0
BLOCK
  5
DBC5
330
DBBB
100
AcDbEntity
  8
0
 48
0.5
100
AcDbBlockBegin
  2
*D15
 70
     1
 10
0.0
 20
0.0
 30
0.0
  3
*D15
  1

  0
LINE
  5
DE4B
330
DBBB
100
AcDbEntity
  8
SUNPOU
 48
0.5
100
AcDbLine
 10
525.198785739723
 20
194.5253548747578
 30
0.0
 11
525.198785739723
 21
138.4705814973466
 31
0.0
  0
LINE
  5
DE4C
330
DBBB
100
AcDbEntity
  8
SUNPOU
 48
0.5
100
AcDbLine
 10
555.198785739723
 20
194.5253548747578
 30
0.0
 11
555.198785739723
 21
138.4705814973466
 31
0.0
  0
LINE
  5
DE4D
330
DBBB
100
AcDbEntity
  8
SUNPOU
 48
0.5
100
AcDbLine
 10
532.198785739723
 20
141.4705814973466
 30
0.0
 11
548.1987857397229
 21
141.4705814973466
 31
0.0
  0
INSERT
  5
DE4E
330
DBBB
100
AcDbEntity
  8
SUNPOU
 48
0.5
100
AcDbBlockReference
  2
_OPEN
 10
525.198785739723
 20
141.4705814973466
 30
0.0
 41
7.0
 42
7.0
 43
7.0
 50
180.0
  0
INSERT
  5
DE4F
330
DBBB
100
AcDbEntity
  8
SUNPOU
 48
0.5
100
AcDbBlockReference
  2
_OPEN
 10
555.198785739723
 20
141.4705814973466
 30
0.0
 41
7.0
 42
7.0
 43
7.0
  0
MTEXT
  5
DE50
330
DBBB
100
AcDbEntity
  8
SUNPOU
 48
0.5
100
AcDbMText
 10
540.1987857397229
 20
146.4705814973466
 30
0.0
 40
6.0
 41
0.0
 71
     5
 72
     5
  1
\A1;30
 73
     1
 44
1.0
1001
ACAD
1000
MTEXTBEGIN
1070
    73
1070
     1
1070
    44
1040
1.0
1070
    74
1070
     0
1000
MTEXTEND
1000
MTEXTBEGIN
1070
    73
1070
     1
1070
    44
1040
1.0
1070
    74
1070
     0
1000
MTEXTEND
1000
MTEXTBEGIN
1070
    73
1070
     1
1070
    44
1040
1.0
1070
    74
1070
     0
1000
MTEXTEND
1000
MTEXTBEGIN
1070
    73
1070
     1
1070
    44
1040
1.0
1070
    74
1070
     0
1000
MTEXTEND
  0
POINT
  5
DE51
330
DBBB
100
AcDbEntity
  8
DEFPOINTS
 62
     0
 48
0.5
100
AcDbPoint
 10
525.198785739723
 20
200.5253548747578
 30
0.0
  0
POINT
  5
DE52
330
DBBB
100
AcDbEntity
  8
DEFPOINTS
 62
     0
 48
0.5
100
AcDbPoint
 10
555.198785739723
 20
200.5253548747578
 30
0.0
  0
POINT
  5
DE53
330
DBBB
100
AcDbEntity
  8
DEFPOINTS
 62
     0
 48
0.5
100
AcDbPoint
 10
555.198785739723
 20
141.4705814973466
 30
0.0
  0
ENDBLK
  5
DBC6
330
DBBB
100
AcDbEntity
  8
0
 48
0.5
100
AcDbBlockEnd
  0
ENDSEC
  0
SECTION
  2
ENTITIES
  0
LWPOLYLINE
  5
6C0
330
1A
100
AcDbEntity
  8
ZUWAKU
100
AcDbPolyline
 90
        4
 70
     1
 43
0.0
 10
10.85047808566059
 20
564.5825862828226
 10
10.85047808566059
 20
14.58258628282271
 10
806.8504780856606
 20
14.58258628282271
 10
806.8504780856606
 20
564.5825862828226
  0
LWPOLYLINE
  5
6C1
330
1A
100
AcDbEntity
  8
ZUWAKU
100
AcDbPolyline
 90
        4
 70
     1
 43
0.0
 10
10.45047808566073
 20
564.9825862828227
 10
10.45047808566073
 20
14.18258628282274
 10
807.2504780856606
 20
14.18258628282272
 10
807.2504780856606
 20
564.9825862828227
  0
LWPOLYLINE
  5
6C2
330
1A
100
AcDbEntity
  8
ZUWAKU
100
AcDbPolyline
 90
        4
 70
     1
 43
0.0
 10
10.05047808566086
 20
565.3825862828226
 10
10.05047808566086
 20
13.78258628282265
 10
807.6504780856607
 20
13.78258628282271
 10
807.6504780856607
 20
565.3825862828227
  0
LWPOLYLINE
  5
6C3
330
1A
100
AcDbEntity
  8
ZUWAKU
100
AcDbPolyline
 90
        4
 70
     1
 43
0.0
 10
10.65047808566077
 20
564.7825862828227
 10
10.65047808566077
 20
14.38258628282267
 10
807.0504780856609
 20
14.38258628282271
 10
807.0504780856609
 20
564.7825862828227
  0
LWPOLYLINE
  5
6C4
330
1A
100
AcDbEntity
  8
ZUWAKU
100
AcDbPolyline
 90
        4
 70
     1
 43
0.0
 10
10.25047808566068
 20
565.1825862828227
 10
10.25047808566068
 20
13.98258628282269
 10
807.4504780856605
 20
13.98258628282271
 10
807.450478085661
 20
565.1825862828227
  0
LINE
  5
6C5
330
1A
100
AcDbEntity
  8
ZUWAKU
100
AcDbLine
 10
10.05047808566086
 20
43.78258628282265
 30
0.0
 11
807.4504780856605
 21
43.78258628282265
 31
0.0
  0
LINE
  5
6C6
330
1A
100
AcDbEntity
  8
ZUWAKU
100
AcDbLine
 10
10.05047808566086
 20
43.98258628282265
 30
0.0
 11
807.4504780856605
 21
43.98258628282265
 31
0.0
  0
LINE
  5
6C7
330
1A
100
AcDbEntity
  8
ZUWAKU
100
AcDbLine
 10
10.05047808566086
 20
44.18258628282266
 30
0.0
 11
807.4504780856605
 21
44.18258628282266
 31
0.0
  0
LINE
  5
6C8
330
1A
100
AcDbEntity
  8
ZUWAKU
100
AcDbLine
 10
10.05047808566086
 20
44.38258628282265
 30
0.0
 11
807.4504780856605
 21
44.38258628282265
 31
0.0
  0
LINE
  5
6C9
330
1A
100
AcDbEntity
  8
ZUWAKU
100
AcDbLine
 10
10.05047808566086
 20
44.58258628282266
 30
0.0
 11
807.4504780856605
 21
44.58258628282266
 31
0.0
  0
LINE
  5
6CA
330
1A
100
AcDbEntity
  8
ZUWAKU
100
AcDbLine
 10
218.6970793757286
 20
29.18258628282268
 30
0.0
 11
457.474842056652
 21
29.18258628282268
 31
0.0
  0
LINE
  5
6CB
330
1A
100
AcDbEntity
  8
ZUWAKU
100
AcDbLine
 10
218.6970793757286
 20
29.38258628282268
 30
0.0
 11
457.474842056652
 21
29.38258628282268
 31
0.0
  0
LINE
  5
6CC
330
1A
100
AcDbEntity
  8
ZUWAKU
100
AcDbLine
 10
218.6970793757286
 20
28.98258628282269
 30
0.0
 11
457.474842056652
 21
28.98258628282268
 31
0.0
  0
LINE
  5
6D2
330
1A
100
AcDbEntity
  8
ZUWAKU
100
AcDbLine
 10
22.57284175945824
 20
29.44753577648383
 30
0.0
 11
25.48263973410303
 21
26.53773780183917
 31
0.0
  0
LINE
  5
6D3
330
1A
100
AcDbEntity
  8
ZUWAKU
100
AcDbLine
 10
27.46253872142551
 20
28.51763678916148
 30
0.0
 11
24.55274074678072
 21
31.42743476380615
 31
0.0
  0
ARC
  5
6D4
330
1A
100
AcDbEntity
  8
ZUWAKU
100
AcDbCircle
 10
24.66769024044197
 20
33.70758628282265
 30
0.0
 40
0.525
100
AcDbArc
 50
90.0
 51
180.0
  0
LINE
  5
6D5
330
1A
100
AcDbEntity
  8
ZUWAKU
100
AcDbLine
 10
24.14269024044187
 20
37.03258628282265
 30
0.0
 11
27.64269024044188
 21
37.03258628282265
 31
0.0
  0
LINE
  5
6D6
330
1A
100
AcDbEntity
  8
ZUWAKU
100
AcDbLine
 10
22.39269024044188
 20
23.73258628282265
 30
0.0
 11
25.36769024044179
 21
23.73258628282265
 31
0.0
  0
LINE
  5
6D7
330
1A
100
AcDbEntity
  8
ZUWAKU
100
AcDbLine
 10
22.39269024044188
 20
20.93258628282265
 30
0.0
 11
25.89269024044188
 21
20.93258628282265
 31
0.0
  0
INSERT
  5
6D8
330
1A
100
AcDbEntity
  8
ZUWAKU
  6
Continuous
100
AcDbBlockReference
  2
*X1
 10
12.342212154781
 20
7.675000000000004
 30
0.0
1001
ACAD
1000
HATCH
1002
{
1070
    19
1000
ANSI37
1040
0.2
1040
0.0
1000
R14_HATCH_DATA
1000
4E4
1011
13.34221215478101
1021
7.675000000000004
1031
0.0
1011
12.342212154781
1021
8.675000000000004
1031
0.0
1011
12.342212154781
1021
7.675000000000004
1031
1.0
1040
0.0
1010
0.0
1020
0.0
1030
1.0
1000
ANSI37
1070
     0
1070
     0
1071
        8
1071
        7
1070
     1
1070
     1
1071
       24
1040
12.2105285919996
1040
23.75243476380622
1040
-0.1989123673796348
1040
11.80047808566087
1040
24.74238425746728
1040
0.0
1040
11.80047808566087
1040
26.03258628282265
1040
-0.4142135623730912
1040
12.32547808566084
1040
26.55758628282264
1040
0.0
1040
15.30047808566075
1040
26.55758628282264
1040
0.4142135623731546
1040
15.82547808566084
1040
27.08258628282264
1040
0.0
1040
15.82547808566084
1040
28.83258628282265
1040
0.4142135623731586
1040
15.30047808566075
1040
29.35758628282265
1040
0.0
1040
11.80047808566087
1040
29.35758628282265
1040
0.4142135623730928
1040
9.000478085660915
1040
26.55758628282267
1040
0.0
1040
9.000478085660915
1040
24.7423842574674
1040
0.1989123673796619
1040
10.23062960467734
1040
21.7725357764838
1040
0.0
1040
13.14042757932202
1040
18.86273780183914
1040
-0.1989123673796613
1040
13.55047808566087
1040
17.87278830817795
1040
0.0
1040
13.55047808566087
1040
16.58258628282264
1040
-0.4142135623730911
1040
13.02547808566089
1040
16.05758628282264
1040
0.0
1040
10.05047808566098
1040
16.05758628282264
1040
0.4142135623731526
1040
9.525478085660893
1040
15.53258628282265
1040
0.0
1040
9.525478085660893
1040
13.78258628282263
1040
0.4142135623731526
1040
10.05047808566098
1040
13.25758628282265
1040
0.0
1040
13.55047808566087
1040
13.25758628282265
1040
0.4142135623731044
1040
16.35047808566094
1040
16.05758628282262
1040
0.0
1040
16.35047808566094
1040
17.87278830817789
1040
0.1989123673796604
1040
15.12032656664439
1040
20.84263678916144
1040
0.0
1071
        0
1071
        7
1070
     1
1070
     1
1071
       16
1040
21.25047808566091
1040
25.15758628282265
1040
-0.4142135623730935
1040
22.65047808566089
1040
26.55758628282264
1040
0.0
1040
24.57547808566085
1040
26.55758628282264
1040
0.4142135623731546
1040
25.10047808566094
1040
27.08258628282264
1040
0.0
1040
25.10047808566094
1040
28.83258628282265
1040
0.4142135623730951
1040
24.57547808566096
1040
29.35758628282265
1040
0.0
1040
22.65047808566078
1040
29.35758628282261
1040
0.4142135623730892
1040
18.45047808566084
1040
25.15758628282258
1040
0.0
1040
18.45047808566084
1040
17.45758628282267
1040
0.4142135623730969
1040
22.65047808566089
1040
13.25758628282265
1040
0.0
1040
24.57547808566085
1040
13.25758628282265
1040
0.4142135623731526
1040
25.10047808566094
1040
13.78258628282263
1040
0.0
1040
25.10047808566094
1040
15.53258628282265
1040
0.4142135623730891
1040
24.57547808566096
1040
16.05758628282264
1040
0.0
1040
22.65047808566089
1040
16.05758628282264
1040
-0.4142135623730928
1040
21.25047808566091
1040
17.45758628282263
1040
0.0
1071
        0
1071
        7
1070
     1
1070
     1
1071
        2
1040
21.95047808566084
1040
21.30758628282265
1040
1.0
1040
25.45047808566085
1040
21.30758628282265
1040
1.0
1071
        0
1071
        7
1070
     1
1070
     1
1071
       26
1040
35.02312456783886
1040
25.31263347638607
1040
0.0
1040
36.08476420097668
1040
28.67449231465566
1040
0.5069206636600134
1040
35.58413330178132
1040
29.35758628282265
1040
0.0
1040
33.88524392217209
1040
29.35758628282265
1040
0.3272098845218764
1040
33.38461302297673
1040
28.99068025098962
1040
0.0
1040
31.51634314834495
1040
23.07449231465573
1040
-0.3272098845219541
1040
31.01571224914948
1040
22.70758628282264
1040
0.0
1040
30.87547808566103
1040
22.70758628282264
1040
-0.4142135623731526
1040
30.35047808566094
1040
23.23258628282263
1040
0.0
1040
30.35047808566094
1040
28.83258628282265
1040
0.4142135623730951
1040
29.82547808566096
1040
29.35758628282265
1040
0.0
1040
28.07547808566084
1040
29.35758628282265
1040
0.4142135623730871
1040
27.55047808566087
1040
28.83258628282266
1040
0.0
1040
27.55047808566087
1040
13.78258628282263
1040
0.4142135623730891
1040
28.07547808566084
1040
13.25758628282265
1040
0.0
1040
29.82547808566085
1040
13.25758628282265
1040
0.4142135623731526
1040
30.35047808566094
1040
13.78258628282263
1040
0.0
1040
30.35047808566094
1040
19.38258628282266
1040
-0.4142135623731526
1040
30.87547808566103
1040
19.90758628282264
1040
0.0
1040
31.0157122491496
1040
19.90758628282264
1040
-0.3272098845218915
1040
31.51634314834495
1040
19.54068025098957
1040
0.0
1040
33.38461302297673
1040
13.62449231465572
1040
0.3272098845218902
1040
33.88524392217209
1040
13.25758628282265
1040
0.0
1040
35.58413330178132
1040
13.25758628282265
1040
0.5069206636600335
1040
36.08476420097668
1040
13.94068025098965
1040
0.0
1040
33.75837282250301
1040
21.30758628282279
1040
0.0
1071
        0
1071
        7
1070
     1
1070
     1
1071
        8
1040
41.20047808566084
1040
28.83258628282266
1040
0.4142135623731546
1040
40.67547808566075
1040
29.35758628282265
1040
0.0
1040
38.92547808566098
1040
29.35758628282265
1040
0.4142135623731507
1040
38.40047808566089
1040
28.83258628282266
1040
0.0
1040
38.40047808566089
1040
13.78258628282263
1040
0.4142135623731526
1040
38.92547808566098
1040
13.25758628282265
1040
0.0
1040
40.67547808566075
1040
13.25758628282265
1040
0.4142135623731526
1040
41.20047808566084
1040
13.78258628282263
1040
0.0
1071
        0
1071
        7
1070
     1
1070
     1
1071
       24
1040
46.10047808566093
1040
26.03258628282265
1040
-0.4142135623731546
1040
46.62547808566102
1040
26.55758628282264
1040
0.0
1040
49.60047808566094
1040
26.55758628282264
1040
0.4142135623730911
1040
50.12547808566091
1040
27.08258628282264
1040
0.0
1040
50.12547808566091
1040
28.83258628282265
1040
0.4142135623730952
1040
49.60047808566094
1040
29.35758628282265
1040
0.0
1040
46.10047808566093
1040
29.35758628282265
1040
0.4142135623731048
1040
43.30047808566087
1040
26.55758628282267
1040
0.0
1040
43.30047808566087
1040
24.7423842574674
1040
0.1989123673796613
1040
44.53062960467741
1040
21.77253577648385
1040
0.0
1040
47.44042757932208
1040
18.86273780183918
1040
-0.1989123673796402
1040
47.85047808566093
1040
17.87278830817811
1040
0.0
1040
47.85047808566093
1040
16.58258628282264
1040
-0.4142135623730911
1040
47.32547808566096
1040
16.05758628282264
1040
0.0
1040
44.35047808566094
1040
16.05758628282264
1040
0.4142135623731526
1040
43.82547808566084
1040
15.53258628282265
1040
0.0
1040
43.82547808566084
1040
13.78258628282263
1040
0.4142135623730891
1040
44.35047808566082
1040
13.25758628282265
1040
0.0
1040
47.85047808566093
1040
13.25758628282265
1040
0.4142135623730925
1040
50.65047808566089
1040
16.05758628282262
1040
0.0
1040
50.65047808566089
1040
17.87278830817789
1040
0.1989123673796675
1040
49.42032656664435
1040
20.84263678916155
1040
0.0
1040
46.51052859199978
1040
23.75243476380607
1040
-0.1989123673796652
1040
46.10047808566093
1040
24.74238425746723
1040
0.0
1071
        0
1071
        7
1070
     1
1070
     1
1071
       16
1040
55.55047808566087
1040
28.83258628282264
1040
0.414213562373103
1040
55.02547808566089
1040
29.35758628282265
1040
0.0
1040
53.27547808566089
1040
29.35758628282265
1040
0.4142135623730871
1040
52.75047808566092
1040
28.83258628282266
1040
0.0
1040
52.75047808566092
1040
16.05758628282262
1040
0.4142135623730926
1040
55.55047808566087
1040
13.25758628282265
1040
0.0
1040
59.05047808566087
1040
13.25758628282265
1040
0.4142135623731044
1040
61.85047808566094
1040
16.05758628282262
1040
0.0
1040
61.85047808566094
1040
28.83258628282265
1040
0.4142135623730951
1040
61.32547808566096
1040
29.35758628282265
1040
0.0
1040
59.57547808566085
1040
29.35758628282265
1040
0.4142135623730871
1040
59.05047808566087
1040
28.83258628282266
1040
0.0
1040
59.05047808566087
1040
17.10758628282262
1040
-0.414213562373088
1040
58.00047808566091
1040
16.05758628282264
1040
0.0
1040
56.60047808566094
1040
16.05758628282264
1040
-0.4142135623731197
1040
55.55047808566087
1040
17.10758628282262
1040
0.0
1071
        0
1071
        7
1070
     1
1070
     1
1071
        8
1040
66.75047808566091
1040
28.83258628282266
1040
0.4142135623730871
1040
66.22547808566094
1040
29.35758628282265
1040
0.0
1040
64.47547808566094
1040
29.35758628282265
1040
0.4142135623731507
1040
63.95047808566085
1040
28.83258628282266
1040
0.0
1040
63.95047808566085
1040
13.78258628282263
1040
0.4142135623730891
1040
64.47547808566082
1040
13.25758628282265
1040
0.0
1040
66.22547808566094
1040
13.25758628282265
1040
0.4142135623730891
1040
66.75047808566091
1040
13.78258628282263
1040
0.0
1071
        0
1070
     0
1070
     1
1040
0.0
1040
0.2
1070
     0
1070
     2
1040
0.7853981633974483
1040
-903.2340384037992
1040
-7.092413717177286
1040
-0.4490128060534576
1040
0.4490128060534577
1070
     0
1040
2.356194490192344
1040
-903.2340384037992
1040
-7.092413717177286
1040
-0.4490128060534577
1040
-0.4490128060534576
1070
     0
1040
0.057451373970553
1071
        8
1040
13.78812089390305
1040
21.2747599287082
1040
0.0
1040
20.11278093731891
1040
24.95164846527365
1040
0.0
1040
22.8726338165394
1040
21.61946792889336
1040
0.0
1040
28.62232591251688
1040
22.30888392926414
1040
0.0
1040
39.54673794983648
1040
22.76849619680576
1040
0.0
1040
44.6064668260093
1040
25.52616259922985
1040
0.0
1040
54.2659519032801
1040
24.83674419791766
1040
0.0
1040
65.53534555050248
1040
25.29635646545927
1040
0.0
1002
}
  0
ARC
  5
6D9
330
1A
100
AcDbEntity
  8
ZUWAKU
100
AcDbCircle
 10
22.39269024044188
 20
23.20758628282265
 30
0.0
 40
0.525
100
AcDbArc
 50
90.0
 51
180.0
  0
ARC
  5
6DA
330
1A
100
AcDbEntity
  8
ZUWAKU
100
AcDbCircle
 10
22.39269024044188
 20
21.45758628282265
 30
0.0
 40
0.525
100
AcDbArc
 50
180.0
 51
270.0
  0
LINE
  5
6DB
330
1A
100
AcDbEntity
  8
ZUWAKU
100
AcDbLine
 10
21.86769024044179
 20
21.45758628282265
 30
0.0
 11
21.86769024044179
 21
23.20758628282265
 31
0.0
  0
ARC
  5
6DC
330
1A
100
AcDbEntity
  8
ZUWAKU
100
AcDbCircle
 10
25.54269024044197
 20
32.41738425746735
 30
0.0
 40
4.199999999999999
100
AcDbArc
 50
180.0
 51
224.9999999999996
  0
ARC
  5
6DD
330
1A
100
AcDbEntity
  8
ZUWAKU
100
AcDbCircle
 10
25.54269024044197
 20
32.41738425746735
 30
0.0
 40
1.399999999999999
100
AcDbArc
 50
180.0000000000016
 51
224.9999999999993
  0
ARC
  5
6DE
330
1A
100
AcDbEntity
  8
ZUWAKU
100
AcDbCircle
 10
24.14269024044187
 20
34.23258628282265
 30
0.0
 40
2.799999999999999
100
AcDbArc
 50
90.0
 51
180.0
  0
LINE
  5
6DF
330
1A
100
AcDbEntity
  8
ZUWAKU
100
AcDbLine
 10
21.34269024044192
 20
34.23258628282265
 30
0.0
 11
21.34269024044192
 21
32.41738425746731
 31
0.0
  0
LINE
  5
6E0
330
1A
100
AcDbEntity
  8
ZUWAKU
100
AcDbLine
 10
24.14269024044187
 20
33.70758628282265
 30
0.0
 11
24.14269024044187
 21
32.41738425746731
 31
0.0
  0
LINE
  5
6E1
330
1A
100
AcDbEntity
  8
ZUWAKU
100
AcDbLine
 10
89.17710763364903
 20
43.78258628282265
 30
0.0
 11
89.17710763364903
 21
14.58258628282271
 31
0.0
  0
LINE
  5
6E2
330
1A
100
AcDbEntity
  8
ZUWAKU
100
AcDbLine
 10
89.57710763364913
 20
43.78258628282265
 30
0.0
 11
89.57710763364913
 21
14.58258628282271
 31
0.0
  0
LINE
  5
6E3
330
1A
100
AcDbEntity
  8
ZUWAKU
100
AcDbLine
 10
89.37710763364885
 20
43.78258628282265
 30
0.0
 11
89.37710763364931
 21
14.58258628282271
 31
0.0
  0
LINE
  5
6E4
330
1A
100
AcDbEntity
  8
ZUWAKU
100
AcDbLine
 10
56.87284175945842
 20
29.44753577648383
 30
0.0
 11
59.78263973410321
 21
26.53773780183917
 31
0.0
  0
ARC
  5
6E5
330
1A
100
AcDbEntity
  8
ZUWAKU
100
AcDbCircle
 10
58.44269024044206
 20
34.23258628282265
 30
0.0
 40
2.799999999999999
100
AcDbArc
 50
90.0
 51
180.0
  0
LINE
  5
6E6
330
1A
100
AcDbEntity
  8
ZUWAKU
100
AcDbLine
 10
56.69269024044206
 20
20.93258628282265
 30
0.0
 11
60.19269024044206
 21
20.93258628282265
 31
0.0
  0
LINE
  5
6E7
330
1A
100
AcDbEntity
  8
ZUWAKU
100
AcDbLine
 10
56.69269024044206
 20
23.73258628282265
 30
0.0
 11
59.66769024044197
 21
23.73258628282265
 31
0.0
  0
LINE
  5
6E8
330
1A
100
AcDbEntity
  8
ZUWAKU
100
AcDbLine
 10
42.16769024044197
 20
37.03258628282265
 30
0.0
 11
40.41769024044197
 21
37.03258628282265
 31
0.0
  0
LINE
  5
6E9
330
1A
100
AcDbEntity
  8
ZUWAKU
100
AcDbLine
 10
40.41769024044197
 20
20.93258628282265
 30
0.0
 11
42.16769024044197
 21
20.93258628282265
 31
0.0
  0
LINE
  5
6EA
330
1A
100
AcDbEntity
  8
ZUWAKU
100
AcDbLine
 10
39.89269024044188
 20
36.50758628282265
 30
0.0
 11
39.89269024044188
 21
21.45758628282265
 31
0.0
  0
LINE
  5
6EB
330
1A
100
AcDbEntity
  8
ZUWAKU
100
AcDbLine
 10
30.79269024044197
 20
25.13258628282265
 30
0.0
 11
30.79269024044197
 21
32.83258628282261
 31
0.0
  0
LINE
  5
6EC
330
1A
100
AcDbEntity
  8
ZUWAKU
100
AcDbLine
 10
33.59269024044192
 20
32.83258628282265
 30
0.0
 11
33.59269024044192
 21
25.13258628282265
 31
0.0
  0
ARC
  5
6ED
330
1A
100
AcDbEntity
  8
ZUWAKU
100
AcDbCircle
 10
24.49269024044179
 20
25.54778830817795
 30
0.0
 40
4.199999999999999
100
AcDbArc
 50
0.0
 51
44.9999999999996
  0
CIRCLE
  5
6EE
330
1A
100
AcDbEntity
  8
ZUWAKU
100
AcDbCircle
 10
36.04269024044197
 20
28.98258628282265
 30
0.0
 40
1.75
  0
ARC
  5
6EF
330
1A
100
AcDbEntity
  8
ZUWAKU
100
AcDbCircle
 10
34.99269024044179
 20
25.13258628282265
 30
0.0
 40
4.199999999999999
100
AcDbArc
 50
180.0
 51
270.0
  0
LINE
  5
6F0
330
1A
100
AcDbEntity
  8
ZUWAKU
100
AcDbLine
 10
28.69269024044206
 20
23.73258628282265
 30
0.0
 11
28.69269024044206
 21
25.547788308178
 31
0.0
  0
ARC
  5
6F1
330
1A
100
AcDbEntity
  8
ZUWAKU
100
AcDbCircle
 10
25.36769024044179
 20
24.25758628282265
 30
0.0
 40
0.525
100
AcDbArc
 50
270.0
 51
0.0
  0
LINE
  5
6F2
330
1A
100
AcDbEntity
  8
ZUWAKU
100
AcDbLine
 10
25.89269024044188
 20
24.25758628282265
 30
0.0
 11
25.89269024044188
 21
25.547788308178
 31
0.0
  0
ARC
  5
6F3
330
1A
100
AcDbEntity
  8
ZUWAKU
100
AcDbCircle
 10
25.89269024044188
 20
23.73258628282265
 30
0.0
 40
2.799999999999999
100
AcDbArc
 50
270.0
 51
0.0
  0
ARC
  5
6F4
330
1A
100
AcDbEntity
  8
ZUWAKU
100
AcDbCircle
 10
24.49269024044179
 20
25.547788308178
 30
0.0
 40
1.399999999999999
100
AcDbArc
 50
0.0
 51
44.9999999999996
  0
ARC
  5
6F5
330
1A
100
AcDbEntity
  8
ZUWAKU
100
AcDbCircle
 10
40.41769024044197
 20
21.45758628282265
 30
0.0
 40
0.525
100
AcDbArc
 50
180.0
 51
270.0
  0
ARC
  5
6F6
330
1A
100
AcDbEntity
  8
ZUWAKU
100
AcDbCircle
 10
36.91769024044197
 20
23.20758628282265
 30
0.0
 40
0.525
100
AcDbArc
 50
0.0
 51
90.0
  0
ARC
  5
6F7
330
1A
100
AcDbEntity
  8
ZUWAKU
100
AcDbCircle
 10
36.91769024044197
 20
21.45758628282265
 30
0.0
 40
0.525
100
AcDbArc
 50
270.0
 51
0.0
  0
LINE
  5
6F8
330
1A
100
AcDbEntity
  8
ZUWAKU
100
AcDbLine
 10
37.44269024044206
 20
23.20758628282265
 30
0.0
 11
37.44269024044206
 21
21.45758628282265
 31
0.0
  0
ARC
  5
6F9
330
1A
100
AcDbEntity
  8
ZUWAKU
100
AcDbCircle
 10
34.99269024044179
 20
25.13258628282265
 30
0.0
 40
1.399999999999999
100
AcDbArc
 50
180.0
 51
270.0
  0
LINE
  5
6FA
330
1A
100
AcDbEntity
  8
ZUWAKU
100
AcDbLine
 10
36.91769024044197
 20
20.93258628282265
 30
0.0
 11
34.99269024044179
 21
20.93258628282265
 31
0.0
  0
LINE
  5
6FB
330
1A
100
AcDbEntity
  8
ZUWAKU
100
AcDbLine
 10
34.99269024044179
 20
23.73258628282265
 30
0.0
 11
36.91769024044197
 21
23.73258628282265
 31
0.0
  0
ARC
  5
6FC
330
1A
100
AcDbEntity
  8
ZUWAKU
100
AcDbCircle
 10
34.99269024044179
 20
32.83258628282261
 30
0.0
 40
4.199999999999999
100
AcDbArc
 50
90.0
 51
180.0
  0
LINE
  5
6FD
330
1A
100
AcDbEntity
  8
ZUWAKU
100
AcDbLine
 10
28.16769024044197
 20
36.50758628282265
 30
0.0
 11
28.16769024044197
 21
34.75758628282265
 31
0.0
  0
LINE
  5
6FE
330
1A
100
AcDbEntity
  8
ZUWAKU
100
AcDbLine
 10
27.64269024044188
 20
34.23258628282265
 30
0.0
 11
24.66769024044197
 21
34.23258628282265
 31
0.0
  0
ARC
  5
6FF
330
1A
100
AcDbEntity
  8
ZUWAKU
100
AcDbCircle
 10
27.64269024044188
 20
34.75758628282265
 30
0.0
 40
0.525
100
AcDbArc
 50
270.0
 51
0.0
  0
ARC
  5
700
330
1A
100
AcDbEntity
  8
ZUWAKU
100
AcDbCircle
 10
27.64269024044188
 20
36.50758628282265
 30
0.0
 40
0.525
100
AcDbArc
 50
0.0
 51
90.0
  0
LINE
  5
701
330
1A
100
AcDbEntity
  8
ZUWAKU
100
AcDbLine
 10
37.44269024044206
 20
36.50758628282265
 30
0.0
 11
37.44269024044206
 21
34.75758628282265
 31
0.0
  0
ARC
  5
702
330
1A
100
AcDbEntity
  8
ZUWAKU
100
AcDbCircle
 10
36.91769024044197
 20
34.75758628282265
 30
0.0
 40
0.525
100
AcDbArc
 50
270.0
 51
0.0
  0
ARC
  5
703
330
1A
100
AcDbEntity
  8
ZUWAKU
100
AcDbCircle
 10
40.41769024044197
 20
36.50758628282265
 30
0.0
 40
0.525
100
AcDbArc
 50
90.0
 51
180.0
  0
ARC
  5
704
330
1A
100
AcDbEntity
  8
ZUWAKU
100
AcDbCircle
 10
36.91769024044197
 20
36.50758628282265
 30
0.0
 40
0.525
100
AcDbArc
 50
0.0
 51
90.0
  0
ARC
  5
705
330
1A
100
AcDbEntity
  8
ZUWAKU
100
AcDbCircle
 10
34.99269024044179
 20
32.83258628282265
 30
0.0
 40
1.399999999999999
100
AcDbArc
 50
90.0
 51
180.0
  0
LINE
  5
706
330
1A
100
AcDbEntity
  8
ZUWAKU
100
AcDbLine
 10
36.91769024044197
 20
34.23258628282265
 30
0.0
 11
34.99269024044179
 21
34.23258628282265
 31
0.0
  0
LINE
  5
707
330
1A
100
AcDbEntity
  8
ZUWAKU
100
AcDbLine
 10
34.99269024044179
 20
37.03258628282261
 30
0.0
 11
36.91769024044197
 21
37.03258628282265
 31
0.0
  0
ARC
  5
708
330
1A
100
AcDbEntity
  8
ZUWAKU
100
AcDbCircle
 10
43.21769024044215
 20
27.05758628282265
 30
0.0
 40
0.525
100
AcDbArc
 50
90.0
 51
180.0
  0
ARC
  5
709
330
1A
100
AcDbEntity
  8
ZUWAKU
100
AcDbCircle
 10
43.35792440393061
 20
27.05758628282265
 30
0.0
 40
0.525
100
AcDbArc
 50
17.52556837372255
 51
90.0
  0
LINE
  5
70A
330
1A
100
AcDbEntity
  8
ZUWAKU
100
AcDbLine
 10
53.54269024044197
 20
21.45758628282265
 30
0.0
 11
53.54269024044197
 21
36.50758628282265
 31
0.0
  0
LINE
  5
70B
330
1A
100
AcDbEntity
  8
ZUWAKU
100
AcDbLine
 10
50.74269024044179
 20
36.50758628282265
 30
0.0
 11
50.74269024044179
 21
21.45758628282265
 31
0.0
  0
LINE
  5
70C
330
1A
100
AcDbEntity
  8
ZUWAKU
100
AcDbLine
 10
48.42697635575769
 20
21.61568025098962
 30
0.0
 11
46.10058497728414
 21
28.98258628282267
 31
0.0
  0
LINE
  5
70D
330
1A
100
AcDbEntity
  8
ZUWAKU
100
AcDbLine
 10
43.21769024044215
 20
27.58258628282265
 30
0.0
 11
43.35792440393061
 21
27.58258628282265
 31
0.0
  0
ARC
  5
70E
330
1A
100
AcDbEntity
  8
ZUWAKU
100
AcDbCircle
 10
46.22745607695333
 20
21.45758628282265
 30
0.0
 40
0.525
100
AcDbArc
 50
197.5255683737225
 51
270.0
  0
ARC
  5
70F
330
1A
100
AcDbEntity
  8
ZUWAKU
100
AcDbCircle
 10
47.9263454565621
 20
21.45758628282265
 30
0.0
 40
0.525
100
AcDbArc
 50
270.0
 51
17.52556837372255
  0
LINE
  5
710
330
1A
100
AcDbEntity
  8
ZUWAKU
100
AcDbLine
 10
46.22745607695333
 20
20.93258628282265
 30
0.0
 11
47.9263454565621
 21
20.93258628282265
 31
0.0
  0
ARC
  5
711
330
1A
100
AcDbEntity
  8
ZUWAKU
100
AcDbCircle
 10
42.16769024044197
 20
21.45758628282265
 30
0.0
 40
0.525
100
AcDbArc
 50
270.0
 51
0.0
  0
LINE
  5
712
330
1A
100
AcDbEntity
  8
ZUWAKU
100
AcDbLine
 10
45.72682517775774
 20
21.29949231465567
 30
0.0
 11
43.85855530312574
 21
27.21568025098962
 31
0.0
  0
LINE
  5
713
330
1A
100
AcDbEntity
  8
ZUWAKU
100
AcDbLine
 10
42.69269024044206
 20
21.45758628282265
 30
0.0
 11
42.69269024044206
 21
27.05758628282265
 31
0.0
  0
ARC
  5
714
330
1A
100
AcDbEntity
  8
ZUWAKU
100
AcDbCircle
 10
56.69269024044206
 20
23.20758628282265
 30
0.0
 40
0.525
100
AcDbArc
 50
90.0
 51
180.0
  0
ARC
  5
715
330
1A
100
AcDbEntity
  8
ZUWAKU
100
AcDbCircle
 10
53.01769024044188
 20
21.45758628282265
 30
0.0
 40
0.525
100
AcDbArc
 50
270.0
 51
0.0
  0
ARC
  5
716
330
1A
100
AcDbEntity
  8
ZUWAKU
100
AcDbCircle
 10
56.69269024044206
 20
21.45758628282265
 30
0.0
 40
0.525
100
AcDbArc
 50
180.0
 51
270.0
  0
LINE
  5
717
330
1A
100
AcDbEntity
  8
ZUWAKU
100
AcDbLine
 10
56.16769024044197
 20
21.45758628282265
 30
0.0
 11
56.16769024044197
 21
23.20758628282265
 31
0.0
  0
ARC
  5
718
330
1A
100
AcDbEntity
  8
ZUWAKU
100
AcDbCircle
 10
51.26769024044188
 20
21.45758628282265
 30
0.0
 40
0.525
100
AcDbArc
 50
180.0
 51
270.0
  0
LINE
  5
719
330
1A
100
AcDbEntity
  8
ZUWAKU
100
AcDbLine
 10
51.26769024044188
 20
20.93258628282265
 30
0.0
 11
53.01769024044188
 21
20.93258628282265
 31
0.0
  0
LINE
  5
71A
330
1A
100
AcDbEntity
  8
ZUWAKU
100
AcDbLine
 10
47.36533672261976
 20
32.98763347638608
 30
0.0
 11
46.10058497728414
 21
28.98258628282267
 31
0.0
  0
ARC
  5
71B
330
1A
100
AcDbEntity
  8
ZUWAKU
100
AcDbCircle
 10
46.22745607695333
 20
36.50758628282265
 30
0.0
 40
0.525
100
AcDbArc
 50
90.0
 51
162.4744316262773
  0
LINE
  5
71C
330
1A
100
AcDbEntity
  8
ZUWAKU
100
AcDbLine
 10
48.42697635575769
 20
36.34949231465568
 30
0.0
 11
47.36533672261976
 21
32.98763347638608
 31
0.0
  0
ARC
  5
71D
330
1A
100
AcDbEntity
  8
ZUWAKU
100
AcDbCircle
 10
47.9263454565621
 20
36.50758628282265
 30
0.0
 40
0.525
100
AcDbArc
 50
342.4744316262774
 51
90.0
  0
LINE
  5
71E
330
1A
100
AcDbEntity
  8
ZUWAKU
100
AcDbLine
 10
46.22745607695333
 20
37.03258628282265
 30
0.0
 11
47.9263454565621
 21
37.03258628282265
 31
0.0
  0
LINE
  5
71F
330
1A
100
AcDbEntity
  8
ZUWAKU
100
AcDbLine
 10
42.69269024044206
 20
30.90758628282265
 30
0.0
 11
42.69269024044206
 21
36.50758628282265
 31
0.0
  0
ARC
  5
720
330
1A
100
AcDbEntity
  8
ZUWAKU
100
AcDbCircle
 10
43.21769024044215
 20
30.90758628282265
 30
0.0
 40
0.525
100
AcDbArc
 50
180.0
 51
270.0
  0
LINE
  5
721
330
1A
100
AcDbEntity
  8
ZUWAKU
100
AcDbLine
 10
43.35792440393061
 20
30.38258628282265
 30
0.0
 11
43.21769024044215
 21
30.38258628282265
 31
0.0
  0
ARC
  5
722
330
1A
100
AcDbEntity
  8
ZUWAKU
100
AcDbCircle
 10
43.35792440393061
 20
30.90758628282265
 30
0.0
 40
0.525
100
AcDbArc
 50
270.0
 51
342.4744316262774
  0
ARC
  5
723
330
1A
100
AcDbEntity
  8
ZUWAKU
100
AcDbCircle
 10
42.16769024044197
 20
36.50758628282265
 30
0.0
 40
0.525
100
AcDbArc
 50
0.0
 51
90.0
  0
LINE
  5
724
330
1A
100
AcDbEntity
  8
ZUWAKU
100
AcDbLine
 10
45.72682517775774
 20
36.66568025098962
 30
0.0
 11
43.85855530312574
 21
30.74949231465568
 31
0.0
  0
ARC
  5
725
330
1A
100
AcDbEntity
  8
ZUWAKU
100
AcDbCircle
 10
59.84269024044215
 20
32.41738425746735
 30
0.0
 40
4.199999999999999
100
AcDbArc
 50
180.0
 51
224.9999999999996
  0
LINE
  5
726
330
1A
100
AcDbEntity
  8
ZUWAKU
100
AcDbLine
 10
55.64269024044188
 20
34.23258628282265
 30
0.0
 11
55.64269024044188
 21
32.41738425746731
 31
0.0
  0
ARC
  5
727
330
1A
100
AcDbEntity
  8
ZUWAKU
100
AcDbCircle
 10
53.01769024044188
 20
36.50758628282265
 30
0.0
 40
0.525
100
AcDbArc
 50
0.0
 51
90.0
  0
ARC
  5
728
330
1A
100
AcDbEntity
  8
ZUWAKU
100
AcDbCircle
 10
51.26769024044188
 20
36.50758628282265
 30
0.0
 40
0.525
100
AcDbArc
 50
90.0
 51
180.0
  0
LINE
  5
729
330
1A
100
AcDbEntity
  8
ZUWAKU
100
AcDbLine
 10
53.01769024044188
 20
37.03258628282265
 30
0.0
 11
51.26769024044188
 21
37.03258628282265
 31
0.0
  0
ARC
  5
72A
330
1A
100
AcDbEntity
  8
ZUWAKU
100
AcDbCircle
 10
73.66769024044197
 20
36.50758628282265
 30
0.0
 40
0.525
100
AcDbArc
 50
0.0
 51
90.0
  0
ARC
  5
72B
330
1A
100
AcDbEntity
  8
ZUWAKU
100
AcDbCircle
 10
71.39269024044188
 20
23.73258628282265
 30
0.0
 40
2.799999999999999
100
AcDbArc
 50
270.0
 51
0.0
  0
LINE
  5
72C
330
1A
100
AcDbEntity
  8
ZUWAKU
100
AcDbLine
 10
67.89269024044187
 20
24.78258628282265
 30
0.0
 11
67.89269024044187
 21
36.50758628282265
 31
0.0
  0
LINE
  5
72D
330
1A
100
AcDbEntity
  8
ZUWAKU
100
AcDbLine
 10
65.09269024044215
 20
36.50758628282265
 30
0.0
 11
65.09269024044215
 21
23.73258628282265
 31
0.0
  0
LINE
  5
72E
330
1A
100
AcDbEntity
  8
ZUWAKU
100
AcDbLine
 10
71.39269024044188
 20
36.50758628282265
 30
0.0
 11
71.39269024044188
 21
24.78258628282265
 31
0.0
  0
ARC
  5
72F
330
1A
100
AcDbEntity
  8
ZUWAKU
100
AcDbCircle
 10
58.79269024044197
 20
25.54778830817795
 30
0.0
 40
4.199999999999999
100
AcDbArc
 50
0.0
 51
44.9999999999996
  0
ARC
  5
730
330
1A
100
AcDbEntity
  8
ZUWAKU
100
AcDbCircle
 10
67.89269024044187
 20
23.73258628282265
 30
0.0
 40
2.799999999999999
100
AcDbArc
 50
180.0
 51
270.0
  0
LINE
  5
731
330
1A
100
AcDbEntity
  8
ZUWAKU
100
AcDbLine
 10
62.99269024044178
 20
23.73258628282265
 30
0.0
 11
62.99269024044178
 21
25.547788308178
 31
0.0
  0
ARC
  5
732
330
1A
100
AcDbEntity
  8
ZUWAKU
100
AcDbCircle
 10
59.66769024044197
 20
24.25758628282265
 30
0.0
 40
0.525
100
AcDbArc
 50
270.0
 51
0.0
  0
LINE
  5
733
330
1A
100
AcDbEntity
  8
ZUWAKU
100
AcDbLine
 10
60.19269024044206
 20
24.25758628282265
 30
0.0
 11
60.19269024044206
 21
25.547788308178
 31
0.0
  0
ARC
  5
734
330
1A
100
AcDbEntity
  8
ZUWAKU
100
AcDbCircle
 10
60.19269024044206
 20
23.73258628282265
 30
0.0
 40
2.799999999999999
100
AcDbArc
 50
270.0
 51
0.0
  0
ARC
  5
735
330
1A
100
AcDbEntity
  8
ZUWAKU
100
AcDbCircle
 10
58.79269024044197
 20
25.547788308178
 30
0.0
 40
1.399999999999999
100
AcDbArc
 50
0.0
 51
44.9999999999996
  0
ARC
  5
736
330
1A
100
AcDbEntity
  8
ZUWAKU
100
AcDbCircle
 10
70.34269024044215
 20
24.78258628282265
 30
0.0
 40
1.049999999999999
100
AcDbArc
 50
270.0
 51
0.0
  0
ARC
  5
737
330
1A
100
AcDbEntity
  8
ZUWAKU
100
AcDbCircle
 10
68.94269024044206
 20
24.78258628282265
 30
0.0
 40
1.049999999999999
100
AcDbArc
 50
180.0
 51
270.0
  0
LINE
  5
738
330
1A
100
AcDbEntity
  8
ZUWAKU
100
AcDbLine
 10
67.89269024044187
 20
20.93258628282265
 30
0.0
 11
71.39269024044188
 21
20.93258628282265
 31
0.0
  0
LINE
  5
739
330
1A
100
AcDbEntity
  8
ZUWAKU
100
AcDbLine
 10
70.34269024044215
 20
23.73258628282265
 30
0.0
 11
68.94269024044206
 21
23.73258628282265
 31
0.0
  0
LINE
  5
73A
330
1A
100
AcDbEntity
  8
ZUWAKU
100
AcDbLine
 10
67.36769024044178
 20
37.03258628282265
 30
0.0
 11
65.61769024044179
 21
37.03258628282265
 31
0.0
  0
LINE
  5
73B
330
1A
100
AcDbEntity
  8
ZUWAKU
100
AcDbLine
 10
62.46769024044215
 20
36.50758628282265
 30
0.0
 11
62.46769024044215
 21
34.75758628282265
 31
0.0
  0
ARC
  5
73C
330
1A
100
AcDbEntity
  8
ZUWAKU
100
AcDbCircle
 10
61.94269024044206
 20
34.75758628282265
 30
0.0
 40
0.525
100
AcDbArc
 50
270.0
 51
0.0
  0
ARC
  5
73D
330
1A
100
AcDbEntity
  8
ZUWAKU
100
AcDbCircle
 10
61.94269024044206
 20
36.50758628282265
 30
0.0
 40
0.525
100
AcDbArc
 50
0.0
 51
90.0
  0
ARC
  5
73E
330
1A
100
AcDbEntity
  8
ZUWAKU
100
AcDbCircle
 10
65.61769024044179
 20
36.50758628282265
 30
0.0
 40
0.525
100
AcDbArc
 50
90.0
 51
180.0
  0
ARC
  5
73F
330
1A
100
AcDbEntity
  8
ZUWAKU
100
AcDbCircle
 10
59.84269024044215
 20
32.41738425746735
 30
0.0
 40
1.399999999999999
100
AcDbArc
 50
180.0000000000016
 51
224.9999999999993
  0
LINE
  5
740
330
1A
100
AcDbEntity
  8
ZUWAKU
100
AcDbLine
 10
58.44269024044206
 20
33.70758628282265
 30
0.0
 11
58.44269024044206
 21
32.41738425746731
 31
0.0
  0
ARC
  5
741
330
1A
100
AcDbEntity
  8
ZUWAKU
100
AcDbCircle
 10
58.96769024044215
 20
33.70758628282265
 30
0.0
 40
0.525
100
AcDbArc
 50
90.0
 51
180.0
  0
LINE
  5
742
330
1A
100
AcDbEntity
  8
ZUWAKU
100
AcDbLine
 10
61.76253872142524
 20
28.51763678916148
 30
0.0
 11
58.85274074678045
 21
31.42743476380615
 31
0.0
  0
LINE
  5
743
330
1A
100
AcDbEntity
  8
ZUWAKU
100
AcDbLine
 10
61.94269024044206
 20
34.23258628282265
 30
0.0
 11
58.96769024044215
 21
34.23258628282265
 31
0.0
  0
LINE
  5
744
330
1A
100
AcDbEntity
  8
ZUWAKU
100
AcDbLine
 10
58.44269024044206
 20
37.03258628282265
 30
0.0
 11
61.94269024044206
 21
37.03258628282265
 31
0.0
  0
ARC
  5
745
330
1A
100
AcDbEntity
  8
ZUWAKU
100
AcDbCircle
 10
71.91769024044197
 20
36.50758628282265
 30
0.0
 40
0.525
100
AcDbArc
 50
90.0
 51
180.0
  0
LINE
  5
746
330
1A
100
AcDbEntity
  8
ZUWAKU
100
AcDbLine
 10
73.66769024044197
 20
37.03258628282265
 30
0.0
 11
71.91769024044197
 21
37.03258628282265
 31
0.0
  0
ARC
  5
747
330
1A
100
AcDbEntity
  8
ZUWAKU
100
AcDbCircle
 10
67.36769024044178
 20
36.50758628282265
 30
0.0
 40
0.525
100
AcDbArc
 50
0.0
 51
90.0
  0
LINE
  5
748
330
1A
100
AcDbEntity
  8
ZUWAKU
100
AcDbLine
 10
76.29269024044197
 20
36.50758628282265
 30
0.0
 11
76.29269024044197
 21
21.45758628282265
 31
0.0
  0
LINE
  5
749
330
1A
100
AcDbEntity
  8
ZUWAKU
100
AcDbLine
 10
79.09269024044215
 20
21.45758628282265
 30
0.0
 11
79.09269024044215
 21
36.50758628282265
 31
0.0
  0
LINE
  5
74A
330
1A
100
AcDbEntity
  8
ZUWAKU
100
AcDbLine
 10
74.19269024044206
 20
23.73258628282265
 30
0.0
 11
74.19269024044206
 21
36.50758628282265
 31
0.0
  0
ARC
  5
74B
330
1A
100
AcDbEntity
  8
ZUWAKU
100
AcDbCircle
 10
78.56769024044206
 20
21.45758628282265
 30
0.0
 40
0.525
100
AcDbArc
 50
270.0
 51
0.0
  0
ARC
  5
74C
330
1A
100
AcDbEntity
  8
ZUWAKU
100
AcDbCircle
 10
76.81769024044206
 20
21.45758628282265
 30
0.0
 40
0.525
100
AcDbArc
 50
180.0
 51
270.0
  0
LINE
  5
74D
330
1A
100
AcDbEntity
  8
ZUWAKU
100
AcDbLine
 10
76.81769024044206
 20
20.93258628282265
 30
0.0
 11
78.56769024044206
 21
20.93258628282265
 31
0.0
  0
ARC
  5
74E
330
1A
100
AcDbEntity
  8
ZUWAKU
100
AcDbCircle
 10
78.56769024044206
 20
36.50758628282265
 30
0.0
 40
0.525
100
AcDbArc
 50
0.0
 51
90.0
  0
ARC
  5
74F
330
1A
100
AcDbEntity
  8
ZUWAKU
100
AcDbCircle
 10
76.81769024044206
 20
36.50758628282265
 30
0.0
 40
0.525
100
AcDbArc
 50
90.0
 51
180.0
  0
LINE
  5
750
330
1A
100
AcDbEntity
  8
ZUWAKU
100
AcDbLine
 10
78.56769024044206
 20
37.03258628282265
 30
0.0
 11
76.81769024044206
 21
37.03258628282265
 31
0.0
  0
TEXT
  5
751
330
1A
100
AcDbEntity
  8
moji
100
AcDbText
 10
103.0082676738297
 20
26.52376441309741
 30
0.0
 40
6.0
  1
大型　のきとい
 41
0.9
  7
ｽﾀｲﾙ1
100
AcDbText
  0
LINE
  5
757
330
1A
100
AcDbEntity
  8
ZUWAKU
100
AcDbLine
 10
218.4970793757283
 20
43.78258628282265
 30
0.0
 11
218.4970793757288
 21
14.58258628282271
 31
0.0
  0
LINE
  5
758
330
1A
100
AcDbEntity
  8
ZUWAKU
100
AcDbLine
 10
218.6970793757286
 20
43.78258628282265
 30
0.0
 11
218.6970793757286
 21
14.58258628282271
 31
0.0
  0
LINE
  5
759
330
1A
100
AcDbEntity
  8
ZUWAKU
100
AcDbLine
 10
218.2970793757285
 20
43.78258628282265
 30
0.0
 11
218.2970793757285
 21
14.58258628282271
 31
0.0
  0
TEXT
  5
75A
330
1A
100
AcDbEntity
  8
ZUWAKU
100
AcDbText
 10
219.7745243979379
 20
37.83794282120823
 30
0.0
 40
4.0
  1
品名
 41
0.9
  7
ｽﾀｲﾙ1
100
AcDbText
  0
TEXT
  5
75B
330
1A
100
AcDbEntity
  8
ZUWAKU
100
AcDbText
 10
219.7745243979384
 20
23.43794282120826
 30
0.0
 40
4.0
  1
サイズ
 41
0.9
  7
ｽﾀｲﾙ1
100
AcDbText
  0
TEXT
  5
792
330
1A
100
AcDbEntity
  8
ZUWAKU
100
AcDbText
 10
668.254415772963
 20
31.78750734023003
 30
0.0
 40
5.599999999999999
  1
　　．　　．　　
 41
0.9
  7
ｽﾀｲﾙ1
100
AcDbText
  0
LINE
  5
793
330
1A
100
AcDbEntity
  8
ZUWAKU
100
AcDbLine
 10
658.8676805958648
 20
29.38258628282268
 30
0.0
 11
707.2994886342021
 21
29.38258628282268
 31
0.0
  0
LINE
  5
794
330
1A
100
AcDbEntity
  8
ZUWAKU
100
AcDbLine
 10
658.8676805958653
 20
29.18258628282268
 30
0.0
 11
707.2994886342021
 21
29.18258628282268
 31
0.0
  0
LINE
  5
795
330
1A
100
AcDbEntity
  8
ZUWAKU
100
AcDbLine
 10
658.8676805958648
 20
28.98258628282268
 30
0.0
 11
707.2994886342021
 21
28.98258628282268
 31
0.0
  0
LINE
  5
79A
330
1A
100
AcDbEntity
  8
ZUWAKU
100
AcDbLine
 10
515.2496575838017
 20
29.38258628282268
 30
0.0
 11
562.5774338517731
 21
29.38258628282268
 31
0.0
  0
LINE
  5
79B
330
1A
100
AcDbEntity
  8
ZUWAKU
100
AcDbLine
 10
515.2496575838017
 20
29.18258628282268
 30
0.0
 11
562.5774338517731
 21
29.18258628282268
 31
0.0
  0
LINE
  5
79C
330
1A
100
AcDbEntity
  8
ZUWAKU
100
AcDbLine
 10
515.2496575838017
 20
28.98258628282269
 30
0.0
 11
562.5774338517731
 21
28.98258628282269
 31
0.0
  0
TEXT
  5
79D
330
1A
100
AcDbEntity
  8
moji
100
AcDbText
 10
538.0913860579735
 20
16.98750734023007
 30
0.0
 40
5.599999999999999
  1
１/２
 41
0.9
  7
ｽﾀｲﾙ1
100
AcDbText
  0
LINE
  5
79E
330
1A
100
AcDbEntity
  8
ZUWAKU
100
AcDbLine
 10
514.8496575838017
 20
43.78258628282265
 30
0.0
 11
514.8496575838017
 21
14.58258628282271
 31
0.0
  0
LINE
  5
79F
330
1A
100
AcDbEntity
  8
ZUWAKU
100
AcDbLine
 10
515.2496575838017
 20
43.78258628282265
 30
0.0
 11
515.2496575838017
 21
14.58258628282271
 31
0.0
  0
LINE
  5
7A0
330
1A
100
AcDbEntity
  8
ZUWAKU
100
AcDbLine
 10
515.0496575838015
 20
43.78258628282265
 30
0.0
 11
515.0496575838019
 21
14.58258628282271
 31
0.0
  0
LINE
  5
7A1
330
1A
100
AcDbEntity
  8
ZUWAKU
100
AcDbLine
 10
457.474842056652
 20
43.78258628282265
 30
0.0
 11
457.474842056652
 21
14.58258628282271
 31
0.0
  0
LINE
  5
7A2
330
1A
100
AcDbEntity
  8
ZUWAKU
100
AcDbLine
 10
457.8748420566521
 20
43.78258628282265
 30
0.0
 11
457.8748420566521
 21
14.58258628282271
 31
0.0
  0
LINE
  5
7A3
330
1A
100
AcDbEntity
  8
ZUWAKU
100
AcDbLine
 10
457.6748420566518
 20
43.78258628282265
 30
0.0
 11
457.6748420566523
 21
14.58258628282271
 31
0.0
  0
TEXT
  5
7A5
330
1A
100
AcDbEntity
  8
ZUWAKU
100
AcDbText
 10
459.3522870788615
 20
37.83794282120823
 30
0.0
 40
4.0
  1
品番
 41
0.9
  7
ｽﾀｲﾙ1
100
AcDbText
  0
TEXT
  5
7A6
330
1A
100
AcDbEntity
  8
ZUWAKU
100
AcDbText
 10
516.7271026060111
 20
37.83794282120823
 30
0.0
 40
4.0
  1
用紙
 41
0.9
  7
ｽﾀｲﾙ1
100
AcDbText
  0
TEXT
  5
7A7
330
1A
100
AcDbEntity
  8
ZUWAKU
100
AcDbText
 10
516.7271026060116
 20
23.43794282120826
 30
0.0
 40
4.0
  1
縮尺
 41
0.9
  7
ｽﾀｲﾙ1
100
AcDbText
  0
TEXT
  5
7A8
330
1A
100
AcDbEntity
  8
moji
100
AcDbText
 10
538.0913860579735
 20
31.78750734023003
 30
0.0
 40
5.599999999999999
  1
Ａ３
 41
0.9
  7
ｽﾀｲﾙ1
100
AcDbText
  0
LINE
  5
7A9
330
1A
100
AcDbEntity
  8
ZUWAKU
100
AcDbLine
 10
562.9774338517732
 20
43.78258628282265
 30
0.0
 11
562.9774338517732
 21
14.58258628282271
 31
0.0
  0
LINE
  5
7AA
330
1A
100
AcDbEntity
  8
ZUWAKU
100
AcDbLine
 10
658.4676805958651
 20
43.78258628282265
 30
0.0
 11
658.4676805958651
 21
14.58258628282271
 31
0.0
  0
LINE
  5
7AB
330
1A
100
AcDbEntity
  8
ZUWAKU
100
AcDbLine
 10
658.8676805958653
 20
43.78258628282265
 30
0.0
 11
658.8676805958653
 21
14.58258628282271
 31
0.0
  0
LINE
  5
7AC
330
1A
100
AcDbEntity
  8
ZUWAKU
100
AcDbLine
 10
658.667680595865
 20
43.78258628282265
 30
0.0
 11
658.6676805958655
 21
14.58258628282271
 31
0.0
  0
LINE
  5
7AD
330
1A
100
AcDbEntity
  8
ZUWAKU
100
AcDbLine
 10
562.5774338517731
 20
43.78258628282265
 30
0.0
 11
562.5774338517731
 21
14.58258628282271
 31
0.0
  0
LINE
  5
7AE
330
1A
100
AcDbEntity
  8
ZUWAKU
100
AcDbLine
 10
562.7774338517729
 20
43.78258628282265
 30
0.0
 11
562.7774338517733
 21
14.58258628282271
 31
0.0
  0
TEXT
  5
7AF
330
1A
100
AcDbEntity
  8
ZUWAKU
100
AcDbText
 10
660.3451256180747
 20
37.83794282120823
 30
0.0
 40
4.0
  1
DATE
 41
0.9
  7
ｽﾀｲﾙ1
100
AcDbText
  0
LINE
  5
7BB
330
1A
100
AcDbEntity
  8
ZUWAKU
100
AcDbLine
 10
707.899488634202
 20
43.78258628282265
 30
0.0
 11
707.899488634202
 21
14.58258628282271
 31
0.0
  0
LINE
  5
7BC
330
1A
100
AcDbEntity
  8
ZUWAKU
100
AcDbLine
 10
707.6994886342017
 20
43.78258628282265
 30
0.0
 11
707.6994886342022
 21
14.58258628282271
 31
0.0
  0
LINE
  5
7BD
330
1A
100
AcDbEntity
  8
ZUWAKU
100
AcDbLine
 10
707.4994886342019
 20
43.78258628282265
 30
0.0
 11
707.4994886342019
 21
14.58258628282271
 31
0.0
  0
LINE
  5
7BE
330
1A
100
AcDbEntity
  8
ZUWAKU
100
AcDbLine
 10
707.2994886342021
 20
43.78258628282265
 30
0.0
 11
707.2994886342021
 21
14.58258628282271
 31
0.0
  0
TEXT
  5
7BF
330
1A
100
AcDbEntity
  8
ZUWAKU
100
AcDbText
 10
716.9289675534473
 20
26.00187108985926
 30
0.0
 40
6.0
  1
積水化学工業株式会社
 41
0.9
  7
ｽﾀｲﾙ1
100
AcDbText
  0
TEXT
  5
D043
330
1A
100
AcDbEntity
  8
moji
100
AcDbText
 10
249.468893861092
 20
32.80170964146121
 30
0.0
 40
5.599999999999999
  1
セラミック金具折版（吊）
 41
0.9
  7
ｽﾀｲﾙ1
100
AcDbText
  0
TEXT
  5
D165
330
1A
100
AcDbEntity
  8
moji
100
AcDbText
 10
471.0711402798688
 20
25.29001877651889
 30
0.0
 40
5.599999999999999
  1
ＬＪ３７
 41
0.9
  7
ｽﾀｲﾙ1
100
AcDbText
  0
TEXT
  5
D47E
330
1A
100
AcDbEntity
  8
moji
100
AcDbText
 10
249.468893861092
 20
18.49289194258493
 30
0.0
 40
5.599999999999999
  1
Ｖ３００－Ｌ２７０（３／８インチ）
 41
0.9
  7
ｽﾀｲﾙ1
100
AcDbText
  0
DIMENSION
  5
D906
330
1A
100
AcDbEntity
  8
SUNPOU
100
AcDbDimension
  2
*D2
 10
444.5617394445257
 20
526.6504208291656
 30
0.0
 11
439.5617394445257
 21
541.6504208291656
 31
0.0
 70
    32
 71
     5
 42
-1.0
  3
STANDARD
100
AcDbAlignedDimension
 13
416.5114645719186
 23
556.6504208291656
 33
0.0
 14
416.5114645719186
 24
526.6504208291656
 34
0.0
 50
90.0
100
AcDbRotatedDimension
1001
ACAD
1000
DSTYLE
1002
{
1070
    41
1040
7.0
1070
    42
1040
6.0
1070
    43
1040
14.0
1070
    44
1040
3.0
1070
    73
1070
     0
1070
    74
1070
     0
1070
    77
1070
     3
1070
   140
1040
6.0
1070
   141
1040
150.0
1070
   147
1040
2.0
1070
   172
1070
     1
1070
   173
1070
     1
1070
   176
1070
   256
1070
   177
1070
   256
1070
   178
1070
   256
1070
   271
1070
     0
1070
   272
1070
     0
1070
   341
1005
6D
1070
     6
1000
OPEN
1070
     7
1000
OPEN
1070
   371
1070
    -1
1070
   372
1070
    -1
1002
}
  0
DIMENSION
  5
D907
330
1A
100
AcDbEntity
  8
SUNPOU
100
AcDbDimension
  2
*D3
 10
444.5617394445257
 20
167.8253548747578
 30
0.0
 11
439.5617394445257
 21
186.2253548747579
 31
0.0
 70
    32
 71
     5
 42
-1.0
  3
STANDARD
100
AcDbAlignedDimension
 13
414.3114645719185
 23
204.6253548747578
 33
0.0
 14
406.7114645719652
 24
167.8253548747578
 34
0.0
 50
90.0
100
AcDbRotatedDimension
1001
ACAD
1000
DSTYLE
1002
{
1070
    41
1040
7.0
1070
    42
1040
6.0
1070
    43
1040
14.0
1070
    44
1040
3.0
1070
    73
1070
     0
1070
    74
1070
     0
1070
    77
1070
     3
1070
   140
1040
6.0
1070
   141
1040
150.0
1070
   147
1040
2.0
1070
   172
1070
     1
1070
   173
1070
     1
1070
   176
1070
   256
1070
   177
1070
   256
1070
   178
1070
   256
1070
   271
1070
     0
1070
   272
1070
     0
1070
   341
1005
6D
1070
     6
1000
OPEN
1070
     7
1000
OPEN
1070
   371
1070
    -1
1070
   372
1070
    -1
1002
}
  0
DIMENSION
  5
D908
330
1A
100
AcDbEntity
  8
SUNPOU
100
AcDbDimension
  2
*D4
 10
444.5617394445257
 20
204.6253548747578
 30
0.0
 11
439.5617394445257
 21
218.8348140400161
 31
0.0
 70
    32
 71
     5
 42
-1.0
  3
STANDARD
100
AcDbAlignedDimension
 13
413.3114645719236
 23
233.0442732052744
 33
0.0
 14
414.3114645719185
 24
204.6253548747578
 34
0.0
 50
90.0
100
AcDbRotatedDimension
1001
ACAD
1000
DSTYLE
1002
{
1070
    41
1040
7.0
1070
    42
1040
6.0
1070
    43
1040
14.0
1070
    44
1040
3.0
1070
    73
1070
     0
1070
    74
1070
     0
1070
    77
1070
     3
1070
   140
1040
6.0
1070
   141
1040
150.0
1070
   147
1040
2.0
1070
   172
1070
     1
1070
   173
1070
     1
1070
   176
1070
   256
1070
   177
1070
   256
1070
   178
1070
   256
1070
   271
1070
     0
1070
   272
1070
     0
1070
   341
1005
6D
1070
     6
1000
OPEN
1070
     7
1000
OPEN
1070
   371
1070
    -1
1070
   372
1070
    -1
1002
}
  0
DIMENSION
  5
D909
330
1A
100
AcDbEntity
  8
SUNPOU
100
AcDbDimension
  2
*D5
 10
418.3114645719236
 20
253.3909835937955
 30
0.0
 11
401.2830602744339
 21
258.3909835937955
 31
0.0
 70
    32
 71
     5
 42
-1.0
  3
STANDARD
100
AcDbAlignedDimension
 13
384.2546559769443
 23
229.0097429341739
 33
0.0
 14
418.3114645719236
 24
228.0442732052492
 34
0.0
100
AcDbRotatedDimension
1001
ACAD
1000
DSTYLE
1002
{
1070
    41
1040
7.0
1070
    42
1040
6.0
1070
    43
1040
14.0
1070
    44
1040
3.0
1070
    73
1070
     0
1070
    74
1070
     0
1070
    77
1070
     3
1070
   140
1040
6.0
1070
   141
1040
150.0
1070
   147
1040
2.0
1070
   172
1070
     1
1070
   173
1070
     1
1070
   176
1070
   256
1070
   177
1070
   256
1070
   178
1070
   256
1070
   271
1070
     0
1070
   272
1070
     0
1070
   341
1005
6D
1070
     6
1000
OPEN
1070
     7
1000
OPEN
1070
   371
1070
    -1
1070
   372
1070
    -1
1002
}
  0
DIMENSION
  5
D90A
330
1A
100
AcDbEntity
  8
SUNPOU
100
AcDbDimension
  2
*D6
 10
418.3114645719236
 20
479.8791078344295
 30
0.0
 11
366.6114645719209
 21
484.8791078344295
 31
0.0
 70
    32
 71
     5
 42
-1.0
  3
STANDARD
100
AcDbAlignedDimension
 13
314.9114645719182
 23
463.5254548747578
 33
0.0
 14
418.3114645719236
 24
228.0442732052492
 34
0.0
100
AcDbRotatedDimension
1001
ACAD
1000
DSTYLE
1002
{
1070
    41
1040
7.0
1070
    42
1040
6.0
1070
    43
1040
14.0
1070
    44
1040
3.0
1070
    73
1070
     0
1070
    74
1070
     0
1070
    77
1070
     3
1070
   140
1040
6.0
1070
   141
1040
150.0
1070
   147
1040
2.0
1070
   172
1070
     1
1070
   173
1070
     1
1070
   176
1070
   256
1070
   177
1070
   256
1070
   178
1070
   256
1070
   271
1070
     0
1070
   272
1070
     0
1070
   341
1005
6D
1070
     6
1000
OPEN
1070
     7
1000
OPEN
1070
   371
1070
    -1
1070
   372
1070
    -1
1002
}
  0
TEXT
  5
D90B
330
1A
100
AcDbEntity
  8
SUNPOU
100
AcDbText
 10
358.1879591903682
 20
454.0635857491621
 30
0.0
 40
5.0
  1
パッキン（アスファルト含浸）
100
AcDbText
  0
LEADER
  5
D90C
330
1A
100
AcDbEntity
  8
SUNPOU
100
AcDbLeader
  3
STANDARD
 76
     3
 10
329.9114755719181
 20
436.1043998747578
 30
0.0
 10
355.6727597118663
 20
452.3883602444485
 30
0.0
 10
439.3408711023733
 20
452.3883602444485
 30
0.0
1001
ACAD
1000
DSTYLE
1002
{
1070
     6
1000
OPEN
1070
    41
1040
7.0
1070
    42
1040
6.0
1070
    43
1040
14.0
1070
    44
1040
3.0
1070
    73
1070
     0
1070
    74
1070
     0
1070
    77
1070
     3
1070
   140
1040
6.0
1070
   141
1040
150.0
1070
   147
1040
2.0
1070
   172
1070
     1
1070
   173
1070
     1
1070
   176
1070
     4
1070
   177
1070
     4
1070
   178
1070
     4
1070
   271
1070
     0
1070
   272
1070
     2
1070
   341
1005
6D
1070
   343
1005
6D
1070
   344
1005
6D
1002
}
  0
LINE
  5
D90D
330
1A
100
AcDbEntity
  8
CENTER L
 48
5.0
100
AcDbLine
 10
204.511464571907
 20
541.6504208291655
 30
0.0
 11
425.3114645718723
 21
541.6504208291655
 31
0.0
  0
ARC
  5
D90E
330
1A
100
AcDbEntity
  8
SEIHIN
100
AcDbCircle
 10
413.3114645719236
 20
228.0442732052744
 30
0.0
 40
5.0
100
AcDbArc
 50
359.9999999997117
 51
97.99999999993501
  0
ARC
  5
D90F
330
1A
100
AcDbEntity
  8
SEIHIN
100
AcDbCircle
 10
417.0114645719186
 20
551.8504208291655
 30
0.0
 40
1.3
100
AcDbArc
 50
0.0
 51
89.99999999588981
  0
ARC
  5
D910
330
1A
100
AcDbEntity
  8
SEIHIN
100
AcDbCircle
 10
417.0114645719186
 20
531.4504208291655
 30
0.0
 40
1.3
100
AcDbArc
 50
270.0
 51
0.0
  0
ARC
  5
D911
330
1A
100
AcDbEntity
  8
SEIHIN
100
AcDbCircle
 10
414.3114645719185
 20
208.6253548747578
 30
0.0
 40
4.0
100
AcDbArc
 50
270.0
 51
0.0
  0
DIMENSION
  5
D915
330
1A
100
AcDbEntity
  8
SUNPOU
100
AcDbDimension
  2
*D7
 10
211.5114645718945
 20
294.6142802299672
 30
0.0
 11
232.1312289534546
 21
299.6142802299672
 31
0.0
 70
    32
 71
     5
 42
-1.0
  3
STANDARD
100
AcDbAlignedDimension
 13
252.7509933350147
 23
258.0002774463021
 33
0.0
 14
211.5114645718945
 24
258.0442732052975
 34
0.0
100
AcDbRotatedDimension
1001
ACAD
1000
DSTYLE
1002
{
1070
    41
1040
7.0
1070
    42
1040
6.0
1070
    43
1040
14.0
1070
    44
1040
3.0
1070
    73
1070
     0
1070
    74
1070
     0
1070
    77
1070
     3
1070
   140
1040
6.0
1070
   141
1040
150.0
1070
   147
1040
2.0
1070
   172
1070
     1
1070
   173
1070
     1
1070
   176
1070
   256
1070
   177
1070
   256
1070
   178
1070
   256
1070
   271
1070
     0
1070
   272
1070
     0
1070
   341
1005
6D
1070
     6
1000
OPEN
1070
     7
1000
OPEN
1070
   371
1070
    -1
1070
   372
1070
    -1
1002
}
  0
DIMENSION
  5
D916
330
1A
100
AcDbEntity
  8
SUNPOU
100
AcDbDimension
  2
*D8
 10
157.7210209759755
 20
456.5254548747579
 30
0.0
 11
152.7210209759754
 21
321.7754548747579
 31
0.0
 70
    32
 71
     5
 42
-1.0
  3
STANDARD
100
AcDbAlignedDimension
 13
309.9114645719182
 23
187.0254548747578
 33
0.0
 14
319.9114645719182
 24
456.5254548747579
 34
0.0
 50
90.0
100
AcDbRotatedDimension
1001
ACAD
1000
DSTYLE
1002
{
1070
   140
1040
6.0
1070
    74
1070
     0
1070
   172
1070
     1
1070
    73
1070
     0
1070
   272
1070
     2
1070
    77
1070
     3
1070
   173
1070
     1
1070
   147
1040
2.0
1070
    42
1040
6.0
1070
    44
1040
3.0
1070
    43
1040
14.0
1070
   271
1070
     0
1070
   178
1070
     4
1070
   177
1070
     4
1070
   176
1070
     4
1070
   141
1040
150.0
1070
     7
1000
_OPEN
1070
     6
1000
_OPEN
1070
    41
1040
7.0
1002
}
  0
DIMENSION
  5
D917
330
1A
100
AcDbEntity
  8
SUNPOU
100
AcDbDimension
  2
*D9
 10
211.5114645718945
 20
479.8791078344295
 30
0.0
 11
263.2114645719064
 21
484.8791078344295
 31
0.0
 70
    32
 71
     5
 42
-1.0
  3
STANDARD
100
AcDbAlignedDimension
 13
314.9114645719182
 23
463.5254548747578
 33
0.0
 14
211.5114645718945
 24
258.0442732052975
 34
0.0
100
AcDbRotatedDimension
1001
ACAD
1000
DSTYLE
1002
{
1070
    41
1040
7.0
1070
    42
1040
6.0
1070
    43
1040
14.0
1070
    44
1040
3.0
1070
    73
1070
     0
1070
    74
1070
     0
1070
    77
1070
     3
1070
   140
1040
6.0
1070
   141
1040
150.0
1070
   147
1040
2.0
1070
   172
1070
     1
1070
   173
1070
     1
1070
   176
1070
   256
1070
   177
1070
   256
1070
   178
1070
   256
1070
   271
1070
     0
1070
   272
1070
     0
1070
   341
1005
6D
1070
     6
1000
OPEN
1070
     7
1000
OPEN
1070
   371
1070
    -1
1070
   372
1070
    -1
1002
}
  0
LINE
  5
D918
330
1A
100
AcDbEntity
  8
CENTER L
 48
5.0
100
AcDbLine
 10
283.2472415719182
 20
463.5254548747578
 30
0.0
 11
283.2472415719182
 21
180.0254548747578
 31
0.0
  0
LINE
  5
D919
330
1A
100
AcDbEntity
  8
CENTER L
 48
5.0
100
AcDbLine
 10
314.9114645719182
 20
463.5254548747578
 30
0.0
 11
314.9114645719182
 21
180.0254548747578
 31
0.0
  0
LINE
  5
D91A
330
1A
100
AcDbEntity
  8
CENTER L
 48
5.0
100
AcDbLine
 10
341.2472415719178
 20
463.5254548747578
 30
0.0
 11
341.247241571918
 21
180.0254548747578
 31
0.0
  0
LINE
  5
D91B
330
1A
100
AcDbEntity
  8
SEIHIN
100
AcDbLine
 10
309.9315745719181
 20
415.4043998747579
 30
0.0
 11
309.9315745719181
 21
213.5252548747578
 31
0.0
  0
LINE
  5
D91C
330
1A
100
AcDbEntity
  8
SEIHIN
 62
     2
100
AcDbLine
 10
310.9315745719182
 20
415.4043998747579
 30
0.0
 11
310.9315745719182
 21
213.5252548747578
 31
0.0
  0
LINE
  5
D91D
330
1A
100
AcDbEntity
  8
SEIHIN
100
AcDbLine
 10
319.9315745719181
 20
415.4043998747579
 30
0.0
 11
319.9315745719181
 21
213.5252548747578
 31
0.0
  0
LINE
  5
D91E
330
1A
100
AcDbEntity
  8
SEIHIN
 62
     2
100
AcDbLine
 10
318.9315745719182
 20
415.4043998747579
 30
0.0
 11
318.9315745719182
 21
213.5252548747578
 31
0.0
  0
LINE
  5
D97A
330
1A
100
AcDbEntity
  8
NOKITOI
 48
2.0
100
AcDbLine
 10
243.5738838586953
 20
104.4178689341262
 30
0.0
 11
390.9166838586954
 21
104.4178689341262
 31
0.0
  0
LINE
  5
D97B
330
1A
100
AcDbEntity
  8
NOKITOI
 48
2.0
100
AcDbLine
 10
389.765485171679
 20
106.2178689341262
 30
0.0
 11
244.7258676157446
 21
106.2178689341262
 31
0.0
  0
LINE
  5
D97C
330
1A
100
AcDbEntity
  8
NOKITOI
 48
2.0
100
AcDbLine
 10
389.765485171679
 20
105.3178689341262
 30
0.0
 11
244.7258676157446
 21
105.3178689341262
 31
0.0
  0
LINE
  5
D97D
330
1A
100
AcDbEntity
  8
SEIHIN
100
AcDbLine
 10
373.746456646686
 20
205.5253548747578
 30
0.0
 11
262.5598656200673
 21
205.5253548747578
 31
0.0
  0
LINE
  5
D97E
330
1A
100
AcDbEntity
  8
SEIHIN
100
AcDbLine
 10
374.4466641848184
 20
200.5253548747579
 30
0.0
 11
261.6905788825481
 21
200.5253548747579
 31
0.0
  0
LINE
  5
D97F
330
1A
100
AcDbEntity
  8
SEIHIN
100
AcDbLine
 10
374.4466641848184
 20
201.7253548747578
 30
0.0
 11
261.6905788825481
 21
201.7253548747578
 31
0.0
  0
LINE
  5
D980
330
1A
100
AcDbEntity
  8
NOKITOI
 48
2.0
100
AcDbLine
 10
225.8374838586953
 20
254.4180689341262
 30
0.0
 11
243.733164950554
 21
107.0972811299196
 31
0.0
  0
LINE
  5
D981
330
1A
100
AcDbEntity
  8
NOKITOI
 48
2.0
100
AcDbLine
 10
226.2106838586953
 20
236.4180689341261
 30
0.0
 11
242.0848838586953
 21
105.7370689341261
 31
0.0
  0
LINE
  5
D982
330
1A
100
AcDbEntity
  8
NOKITOI
 48
2.0
100
AcDbLine
 10
226.9351929790782
 20
237.9180689341262
 30
0.0
 11
242.8397325518824
 21
106.9887521061338
 31
0.0
  0
ARC
  5
D983
330
1A
100
AcDbEntity
  8
NOKITOI
 48
2.0
100
AcDbCircle
 10
244.7258676157446
 20
107.2178689341262
 30
0.0
 40
1.0
100
AcDbArc
 50
186.9260276328713
 51
270.0
  0
ARC
  5
D984
330
1A
100
AcDbEntity
  8
NOKITOI
 48
2.0
100
AcDbCircle
 10
244.7258676157446
 20
107.2178689341262
 30
0.0
 40
1.9
100
AcDbArc
 50
186.9260276328713
 51
270.0
  0
ARC
  5
D985
330
1A
100
AcDbEntity
  8
NOKITOI
 48
2.0
100
AcDbCircle
 10
243.5739196715201
 20
105.9178372067883
 30
0.0
 40
1.499968273089708
100
AcDbArc
 50
186.9218100777306
 51
269.9986320219204
  0
LINE
  5
D986
330
1A
100
AcDbEntity
  8
NOKITOI
 48
2.0
100
AcDbLine
 10
225.8374838586953
 20
254.4180689341262
 30
0.0
 11
217.8374838586953
 21
254.4180689341262
 31
0.0
  0
LINE
  5
D987
330
1A
100
AcDbEntity
  8
NOKITOI
 48
2.0
100
AcDbLine
 10
224.2427838586952
 20
252.918068934126
 30
0.0
 11
217.8374838586953
 21
252.918068934126
 31
0.0
  0
LINE
  5
D988
330
1A
100
AcDbEntity
  8
NOKITOI
 48
2.0
100
AcDbLine
 10
224.2427838586952
 20
252.6180689341261
 30
0.0
 11
217.8374838586953
 21
252.6180689341261
 31
0.0
  0
LINE
  5
D989
330
1A
100
AcDbEntity
  8
NOKITOI
 48
2.0
100
AcDbLine
 10
226.9351929790782
 20
237.9180689341262
 30
0.0
 11
217.3373838586953
 21
237.9180689341262
 31
0.0
  0
LINE
  5
D98A
330
1A
100
AcDbEntity
  8
NOKITOI
 48
2.0
100
AcDbLine
 10
215.8373838586953
 20
236.4180689341261
 30
0.0
 11
226.2106838586953
 21
236.4180689341261
 31
0.0
  0
LINE
  5
D98B
330
1A
100
AcDbEntity
  8
NOKITOI
 48
2.0
100
AcDbLine
 10
225.9919838586954
 20
238.2180689341262
 30
0.0
 11
217.6373838586953
 21
238.2180689341262
 31
0.0
  0
LINE
  5
D98C
330
1A
100
AcDbEntity
  8
SEIHIN
100
AcDbLine
 10
217.2073300766953
 20
262.9956135490116
 30
0.0
 11
248.2736702517047
 21
258.6295241696633
 31
0.0
  0
LINE
  5
D98D
330
1A
100
AcDbEntity
  8
SEIHIN
100
AcDbLine
 10
215.5114645719186
 20
234.6253548747578
 30
0.0
 11
224.3114645719417
 21
234.6253548747578
 31
0.0
  0
LINE
  5
D98E
330
1A
100
AcDbEntity
  8
SEIHIN
100
AcDbLine
 10
215.5114645719186
 20
235.8253548747578
 30
0.0
 11
224.3114645719417
 21
235.8253548747578
 31
0.0
  0
LINE
  5
D98F
330
1A
100
AcDbEntity
  8
SEIHIN
100
AcDbLine
 10
215.8176456200708
 20
259.3535761869477
 30
0.0
 11
247.7448124681486
 21
254.8665055084477
 31
0.0
  0
LINE
  5
D990
330
1A
100
AcDbEntity
  8
SEIHIN
100
AcDbLine
 10
215.6506378989183
 20
258.1652545044578
 30
0.0
 11
247.577804747003
 21
253.6781838259578
 31
0.0
  0
DIMENSION
  5
D991
330
1A
100
AcDbEntity
  8
SUNPOU
100
AcDbDimension
  2
*D10
 10
191.7472358016407
 20
234.6253548747579
 30
0.0
 11
186.7472358016406
 21
248.8104842118848
 31
0.0
 70
    32
 71
     5
 42
-1.0
  3
STANDARD
100
AcDbAlignedDimension
 13
217.2073300766953
 23
262.9956135490116
 33
0.0
 14
215.5114645720116
 24
234.6253548747578
 34
0.0
 50
90.0
100
AcDbRotatedDimension
1001
ACAD
1000
DSTYLE
1002
{
1070
    41
1040
7.0
1070
    42
1040
6.0
1070
    43
1040
14.0
1070
    44
1040
3.0
1070
    73
1070
     0
1070
    74
1070
     0
1070
    77
1070
     3
1070
   140
1040
6.0
1070
   141
1040
150.0
1070
   147
1040
2.0
1070
   172
1070
     1
1070
   173
1070
     1
1070
   176
1070
   256
1070
   177
1070
   256
1070
   178
1070
   256
1070
   271
1070
     0
1070
   272
1070
     0
1070
   341
1005
6D
1070
     6
1000
OPEN
1070
     7
1000
OPEN
1070
   371
1070
    -1
1070
   372
1070
    -1
1002
}
  0
LINE
  5
D992
330
1A
100
AcDbEntity
  8
NOKITOI
 48
2.0
100
AcDbLine
 10
215.8373838586953
 20
236.4180689341261
 30
0.0
 11
215.8374838586953
 21
252.4180689341262
 31
0.0
  0
LINE
  5
D993
330
1A
100
AcDbEntity
  8
NOKITOI
 48
2.0
100
AcDbLine
 10
217.3373838586953
 20
237.9180689341262
 30
0.0
 11
217.3373838586953
 21
252.4180689341262
 31
0.0
  0
LINE
  5
D994
330
1A
100
AcDbEntity
  8
NOKITOI
 48
2.0
100
AcDbLine
 10
217.6373838586953
 20
238.2180689341262
 30
0.0
 11
217.6373838586953
 21
252.4180689341262
 31
0.0
  0
LINE
  5
D995
330
1A
100
AcDbEntity
  8
SEIHIN
100
AcDbLine
 10
213.3114645719185
 20
236.8253548747578
 30
0.0
 11
213.3114645719417
 21
257.1749863376578
 31
0.0
  0
LINE
  5
D996
330
1A
100
AcDbEntity
  8
SEIHIN
100
AcDbLine
 10
211.5114645719186
 20
238.6253548747578
 30
0.0
 11
211.5114645718945
 21
258.0442732052975
 31
0.0
  0
LINE
  5
D997
330
1A
100
AcDbEntity
  8
SEIHIN
100
AcDbLine
 10
214.5114645719186
 20
236.8253548747578
 30
0.0
 11
214.5114645718954
 21
257.1749863376578
 31
0.0
  0
ARC
  5
D998
330
1A
100
AcDbEntity
  8
SEIHIN
100
AcDbCircle
 10
215.5114645719186
 20
238.6253548747578
 30
0.0
 40
4.0
100
AcDbArc
 50
180.0
 51
269.9999999996677
  0
ARC
  5
D999
330
1A
100
AcDbEntity
  8
SEIHIN
100
AcDbCircle
 10
215.5114645719186
 20
236.8253548747578
 30
0.0
 40
1.0
100
AcDbArc
 50
180.0
 51
269.9999999986711
  0
ARC
  5
D99A
330
1A
100
AcDbEntity
  8
SEIHIN
100
AcDbCircle
 10
215.5114645719186
 20
236.8253548747578
 30
0.0
 40
2.2
100
AcDbArc
 50
180.0
 51
270.0000000024231
  0
ARC
  5
D99B
330
1A
100
AcDbEntity
  8
SEIHIN
100
AcDbCircle
 10
216.5114645718945
 20
258.0442732053038
 30
0.0
 40
5.0
100
AcDbArc
 50
81.99999999999267
 51
180.0000000000724
  0
ARC
  5
D99C
330
1A
100
AcDbEntity
  8
NOKITOI
 48
2.0
100
AcDbCircle
 10
217.8374838586953
 20
252.4180689341262
 30
0.0
 40
2.0
100
AcDbArc
 50
90.0
 51
180.0
  0
ARC
  5
D99D
330
1A
100
AcDbEntity
  8
NOKITOI
 48
2.0
100
AcDbCircle
 10
217.8374338586952
 20
252.4180189341261
 30
0.0
 40
0.5000500062483003
100
AcDbArc
 50
89.98567963550119
 51
179.9856796354979
  0
ARC
  5
D99E
330
1A
100
AcDbEntity
  8
NOKITOI
 48
2.0
100
AcDbCircle
 10
217.8374338586952
 20
252.4180189341261
 30
0.0
 40
0.2000500062483002
100
AcDbArc
 50
89.98567963550119
 51
179.9856796354979
  0
ARC
  5
D99F
330
1A
100
AcDbEntity
  8
SEIHIN
100
AcDbCircle
 10
215.5114645719186
 20
257.1749864674578
 30
0.0
 40
1.0
100
AcDbArc
 50
81.99998692090433
 51
180.0000074361006
  0
ARC
  5
D9A0
330
1A
100
AcDbEntity
  8
SEIHIN
100
AcDbCircle
 10
215.5114645719186
 20
257.1749864674578
 30
0.0
 40
2.2
100
AcDbArc
 50
81.99998692089776
 51
180.0000074361006
  0
DIMENSION
  5
D9A1
330
1A
100
AcDbEntity
  8
SUNPOU
100
AcDbDimension
  2
*D11
 10
273.8951802233127
 20
205.5253548747578
 30
0.0
 11
268.8951802233126
 21
231.76281616053
 31
0.0
 70
    32
 71
     5
 42
-1.0
  3
STANDARD
100
AcDbAlignedDimension
 13
252.7509933350147
 23
258.0002774463021
 33
0.0
 14
260.1258627541826
 24
205.5253548747578
 34
0.0
 50
90.0
100
AcDbRotatedDimension
1001
ACAD
1000
DSTYLE
1002
{
1070
    41
1040
7.0
1070
    42
1040
6.0
1070
    43
1040
14.0
1070
    44
1040
3.0
1070
    73
1070
     0
1070
    74
1070
     0
1070
    77
1070
     3
1070
   140
1040
6.0
1070
   141
1040
150.0
1070
   147
1040
2.0
1070
   172
1070
     1
1070
   173
1070
     1
1070
   176
1070
   256
1070
   177
1070
   256
1070
   178
1070
   256
1070
   271
1070
     0
1070
   272
1070
     0
1070
   341
1005
6D
1070
     6
1000
OPEN
1070
     7
1000
OPEN
1070
   371
1070
    -1
1070
   372
1070
    -1
1002
}
  0
LINE
  5
D9A2
330
1A
100
AcDbEntity
  8
SEIHIN
100
AcDbLine
 10
259.7871150275909
 20
207.9356701920687
 30
0.0
 11
253.3802400583799
 21
253.5229543629718
 31
0.0
  0
LINE
  5
D9A3
330
1A
100
AcDbEntity
  8
SEIHIN
100
AcDbLine
 10
256.1450776973085
 20
206.5459855093092
 30
0.0
 11
249.6172213973136
 21
252.9940965793092
 31
0.0
  0
LINE
  5
D9A4
330
1A
100
AcDbEntity
  8
SEIHIN
100
AcDbLine
 10
254.9567560148186
 20
206.3789777881578
 30
0.0
 11
248.4288997148055
 21
252.8270888581579
 31
0.0
  0
ARC
  5
D9A5
330
1A
100
AcDbEntity
  8
SEIHIN
100
AcDbCircle
 10
261.6905788823182
 20
207.3253548747578
 30
0.0
 40
5.599999999999999
100
AcDbArc
 50
188.0000000000009
 51
270.0000000011594
  0
ARC
  5
D9A6
330
1A
100
AcDbEntity
  8
SEIHIN
100
AcDbCircle
 10
261.6905788823182
 20
207.3253548747578
 30
0.0
 40
6.799999999999999
100
AcDbArc
 50
188.0000000000009
 51
270.0000000019346
  0
ARC
  5
D9A7
330
1A
100
AcDbEntity
  8
SEIHIN
100
AcDbCircle
 10
267.8354931031958
 20
202.9981731780443
 30
0.0
 40
3.860374090184917
100
AcDbArc
 50
60.10117155899549
 51
76.23856311490129
  0
ARC
  5
D9A8
330
1A
100
AcDbEntity
  8
SEIHIN
100
AcDbCircle
 10
262.5598656200673
 20
208.3253548747579
 30
0.0
 40
2.799999999999999
100
AcDbArc
 50
188.000000000021
 51
270.0
  0
LINE
  5
D9A9
330
1A
100
AcDbEntity
  8
SEIHIN
100
AcDbLine
 10
263.0085272355718
 20
205.5253548747398
 30
0.0
 11
259.7246733992847
 21
208.379965463435
 31
0.0
  0
ARC
  5
D9AA
330
1A
100
AcDbEntity
  8
SEIHIN
100
AcDbCircle
 10
266.3810738790748
 20
196.0271582448791
 30
0.0
 40
10.99919175801273
100
AcDbArc
 50
86.44452021601232
 51
96.49904386011685
  0
ARC
  5
D9AB
330
1A
100
AcDbEntity
  8
SEIHIN
100
AcDbCircle
 10
265.8933298637748
 20
200.308667764719
 30
0.0
 40
6.689990208660295
100
AcDbArc
 50
96.49904386011685
 51
109.4020188034896
  0
ARC
  5
D9AC
330
1A
100
AcDbEntity
  8
SEIHIN
100
AcDbCircle
 10
264.8737277621476
 20
203.2036592799469
 30
0.0
 40
3.620696426878498
100
AcDbArc
 50
109.4020188034896
 51
125.5178899282721
  0
ARC
  5
D9AD
330
1A
100
AcDbEntity
  8
SEIHIN
100
AcDbCircle
 10
263.3002714388353
 20
205.4081074167352
 30
0.0
 40
0.9123101196542947
100
AcDbArc
 50
125.5178899282725
 51
157.9487999422785
  0
ARC
  5
D9AE
330
1A
100
AcDbEntity
  8
SEIHIN
100
AcDbCircle
 10
263.0490055644568
 20
205.5098866998708
 30
0.0
 40
0.6412131589504007
100
AcDbArc
 50
157.9487999422693
 51
168.6141686278855
  0
ARC
  5
D9AF
330
1A
100
AcDbEntity
  8
SEIHIN
100
AcDbCircle
 10
262.9721938167433
 20
205.5253548989974
 30
0.0
 40
0.5628594112989733
100
AcDbArc
 50
168.6141686278855
 51
180.0
  0
ARC
  5
D9B0
330
1A
100
AcDbEntity
  8
SEIHIN
100
AcDbCircle
 10
266.4670311153934
 20
197.4105618412842
 30
0.0
 40
9.613120274638923
100
AcDbArc
 50
76.23856311490129
 51
86.44452021601232
  0
ARC
  5
D9B1
330
1A
100
AcDbEntity
  8
SEIHIN
100
AcDbCircle
 10
269.8119087288255
 20
205.5253548989974
 30
0.0
 40
0.5974256766190537
100
AcDbArc
 50
0.0
 51
38.40470068658672
  0
ARC
  5
D9B2
330
1A
100
AcDbEntity
  8
SEIHIN
100
AcDbCircle
 10
268.8503050517486
 20
204.7630687553299
 30
0.0
 40
1.824520537090321
100
AcDbArc
 50
38.404700686588
 51
60.10117155898822
  0
ARC
  5
D9B3
330
1A
100
AcDbEntity
  8
SEIHIN
100
AcDbCircle
 10
247.4386316459749
 20
252.6879157572139
 30
0.0
 40
6.0
100
AcDbArc
 50
8.000000000040483
 51
81.99999999999922
  0
LINE
  5
D9B4
330
1A
100
AcDbEntity
  8
NOKITOI
 48
2.0
100
AcDbLine
 10
225.9920132360071
 20
238.2180689341263
 30
0.0
 11
224.2427838586952
 21
252.6180689341261
 31
0.0
  0
LINE
  5
D9BB
330
1A
100
AcDbEntity
  8
SEIHIN
100
AcDbLine
 10
224.3114645719185
 20
235.8253548747578
 30
0.0
 11
224.3114645718253
 21
234.6253548747578
 31
0.0
  0
ARC
  5
D9C2
330
1A
100
AcDbEntity
  8
SEIHIN
100
AcDbCircle
 10
247.4386316460186
 20
252.6879157572579
 30
0.0
 40
2.2
100
AcDbArc
 50
8.000000000000873
 51
81.9999999995322
  0
ARC
  5
D9C3
330
1A
100
AcDbEntity
  8
SEIHIN
100
AcDbCircle
 10
247.4386316460186
 20
252.6879157572579
 30
0.0
 40
1.0
100
AcDbArc
 50
8.000000000000873
 51
81.99999999860468
  0
LINE
  5
D9C4
330
1A
100
AcDbEntity
  8
NOKITOI
 48
2.0
100
AcDbLine
 10
405.0489838586952
 20
224.417968934126
 30
0.0
 11
390.7581479222194
 21
107.0969529976677
 31
0.0
  0
LINE
  5
D9C5
330
1A
100
AcDbEntity
  8
NOKITOI
 48
2.0
100
AcDbLine
 10
404.6697838586953
 20
206.4179689341261
 30
0.0
 11
392.4056838586952
 21
105.7365689341262
 31
0.0
  0
LINE
  5
D9C6
330
1A
100
AcDbEntity
  8
NOKITOI
 48
2.0
100
AcDbLine
 10
403.9457642178219
 20
207.9178689341262
 30
0.0
 11
391.6515443977059
 21
106.988128654855
 31
0.0
  0
LINE
  5
D9C7
330
1A
100
AcDbEntity
  8
SEIHIN
100
AcDbLine
 10
406.7114645719184
 20
204.6253548747578
 30
0.0
 11
406.7114645719652
 21
167.8253548747578
 31
0.0
  0
LINE
  5
D9C8
330
1A
100
AcDbEntity
  8
SEIHIN
100
AcDbLine
 10
405.5114645719186
 20
205.8253548747578
 30
0.0
 11
405.5114645720116
 21
167.8253548747578
 31
0.0
  0
ARC
  5
D9C9
330
1A
100
AcDbEntity
  8
NOKITOI
 48
2.0
100
AcDbCircle
 10
390.9166821066367
 20
105.9178673824578
 30
0.0
 40
1.499998448332718
100
AcDbArc
 50
270.0000669237721
 51
353.0579294895356
  0
ARC
  5
D9CA
330
1A
100
AcDbEntity
  8
NOKITOI
 48
2.0
100
AcDbCircle
 10
389.765485171679
 20
107.2178689341262
 30
0.0
 40
1.0
100
AcDbArc
 50
270.0
 51
353.0550331906538
  0
ARC
  5
D9CB
330
1A
100
AcDbEntity
  8
NOKITOI
 48
2.0
100
AcDbCircle
 10
389.765485171679
 20
107.2178689341262
 30
0.0
 40
1.9
100
AcDbArc
 50
270.0
 51
353.0550331906538
  0
LINE
  5
D9CC
330
1A
100
AcDbEntity
  8
SEIHIN
100
AcDbLine
 10
405.5114645719186
 20
167.8253548747578
 30
0.0
 11
406.7114645717322
 21
167.8253548747578
 31
0.0
  0
LINE
  5
D9CD
330
1A
100
AcDbEntity
  8
SEIHIN
100
AcDbLine
 10
322.4315745719181
 20
213.5253548747578
 30
0.0
 11
314.9313745719182
 21
213.5253548747578
 31
0.0
  0
LINE
  5
D9CE
330
1A
100
AcDbEntity
  8
SEIHIN
100
AcDbLine
 10
304.9315745719181
 20
205.5253548747578
 30
0.0
 11
324.9315745719182
 21
205.5253548747578
 31
0.0
  0
LINE
  5
D9CF
330
1A
100
AcDbEntity
  8
SEIHIN
100
AcDbLine
 10
325.911464571953
 20
200.0253548747579
 30
0.0
 11
303.911464571953
 21
200.0253548747579
 31
0.0
  0
LINE
  5
D9D0
330
1A
100
AcDbEntity
  8
SEIHIN
100
AcDbLine
 10
304.9315745719181
 20
205.5253548747578
 30
0.0
 11
324.9315745719182
 21
205.5253548747578
 31
0.0
  0
ARC
  5
D9D1
330
1A
100
AcDbEntity
  8
SEIHIN
100
AcDbCircle
 10
314.9315865719181
 20
206.2757488747578
 30
0.0
 40
7.249704847449203
100
AcDbArc
 50
46.39512430588962
 51
90.00012237830244
  0
LINE
  5
D9D2
330
1A
100
AcDbEntity
  8
SEIHIN
100
AcDbLine
 10
322.4114645719182
 20
192.0253548747579
 30
0.0
 11
314.9112645719183
 21
192.0253548747579
 31
0.0
  0
LINE
  5
D9D3
330
1A
100
AcDbEntity
  8
SEIHIN
100
AcDbLine
 10
309.9114645719182
 20
187.0254548747578
 30
0.0
 11
319.9114645719182
 21
187.0254548747578
 31
0.0
  0
ARC
  5
D9D4
330
1A
100
AcDbEntity
  8
SEIHIN
100
AcDbCircle
 10
314.9114905719181
 20
199.2749248747578
 30
0.0
 40
7.249670882495079
100
AcDbArc
 50
269.9997887398042
 51
313.605009475345
  0
ARC
  5
D9D5
330
1A
100
AcDbEntity
  8
SEIHIN
100
AcDbCircle
 10
314.9114375719182
 20
199.2750248747579
 30
0.0
 40
7.249670882495079
100
AcDbArc
 50
226.3950018128613
 51
270.0002225484002
  0
ARC
  5
D9D6
330
1A
100
AcDbEntity
  8
SEIHIN
100
AcDbCircle
 10
307.4113025719181
 20
194.5878548747579
 30
0.0
 40
2.562635081136893
100
AcDbArc
 50
192.6797294812839
 51
347.3226210809187
  0
LINE
  5
D9D7
330
1A
100
AcDbEntity
  8
SEIHIN
100
AcDbLine
 10
307.4114645719182
 20
192.0254548747578
 30
0.0
 11
314.9115645719182
 21
192.0254548747578
 31
0.0
  0
LINE
  5
D9D8
330
1A
100
AcDbEntity
  8
SEIHIN
100
AcDbLine
 10
309.9114645719182
 20
192.0253548747579
 30
0.0
 11
309.9114645719182
 21
187.0254548747578
 31
0.0
  0
LINE
  5
D9D9
330
1A
100
AcDbEntity
  8
SEIHIN
 62
     2
100
AcDbLine
 10
310.9114645719182
 20
192.0253548747579
 30
0.0
 11
310.9114645719182
 21
187.0254548747578
 31
0.0
  0
LINE
  5
D9DA
330
1A
100
AcDbEntity
  8
SEIHIN
100
AcDbLine
 10
303.9114645719532
 20
200.0253548747579
 30
0.0
 11
303.9114645719532
 21
200.5253548747579
 31
0.0
  0
LINE
  5
D9DB
330
1A
100
AcDbEntity
  8
SEIHIN
100
AcDbLine
 10
304.9114645719182
 20
194.0253548747579
 30
0.0
 11
304.9114645719182
 21
200.0253548747579
 31
0.0
  0
LINE
  5
D9DC
330
1A
100
AcDbEntity
  8
SEIHIN
100
AcDbLine
 10
309.9114645719182
 20
194.0254548747578
 30
0.0
 11
309.9114645719182
 21
200.0253548747579
 31
0.0
  0
LINE
  5
D9DD
330
1A
100
AcDbEntity
  8
SEIHIN
100
AcDbLine
 10
307.4315745719181
 20
213.5252548747578
 30
0.0
 11
314.9316745719181
 21
213.5252548747578
 31
0.0
  0
ARC
  5
D9DE
330
1A
100
AcDbEntity
  8
SEIHIN
100
AcDbCircle
 10
314.9315475719181
 20
206.2757838747578
 30
0.0
 40
7.249670882495079
100
AcDbArc
 50
89.9997887397456
 51
133.6050094752892
  0
LINE
  5
D9DF
330
1A
100
AcDbEntity
  8
SEIHIN
100
AcDbLine
 10
304.9315745719181
 20
211.5253548747578
 30
0.0
 11
304.9315745719181
 21
205.5253548747578
 31
0.0
  0
LINE
  5
D9E0
330
1A
100
AcDbEntity
  8
SEIHIN
100
AcDbLine
 10
309.9315745719181
 20
211.5253548747578
 30
0.0
 11
309.9315745719181
 21
205.5253548747578
 31
0.0
  0
ARC
  5
D9E1
330
1A
100
AcDbEntity
  8
SEIHIN
100
AcDbCircle
 10
307.4313625719182
 20
210.9628548747579
 30
0.0
 40
2.562684194030247
100
AcDbArc
 50
12.67714418354115
 51
167.3205326235306
  0
ARC
  5
D9E2
330
1A
100
AcDbEntity
  8
SEIHIN
100
AcDbCircle
 10
322.4116255719181
 20
194.5878548747579
 30
0.0
 40
2.562656995934785
100
AcDbArc
 50
192.6796051079023
 51
347.3181259813779
  0
LINE
  5
D9E3
330
1A
100
AcDbEntity
  8
SEIHIN
100
AcDbLine
 10
319.9114645719182
 20
192.0253548747579
 30
0.0
 11
319.9114645719182
 21
187.0254548747578
 31
0.0
  0
LINE
  5
D9E4
330
1A
100
AcDbEntity
  8
SEIHIN
 62
     2
100
AcDbLine
 10
318.9114645719182
 20
192.0253548747579
 30
0.0
 11
318.9114645719182
 21
187.0254548747578
 31
0.0
  0
LINE
  5
D9E5
330
1A
100
AcDbEntity
  8
SEIHIN
100
AcDbLine
 10
325.911464571953
 20
200.0253548747579
 30
0.0
 11
325.9114645719532
 21
200.5253548747579
 31
0.0
  0
LINE
  5
D9E6
330
1A
100
AcDbEntity
  8
SEIHIN
100
AcDbLine
 10
319.9114645719182
 20
194.0253548747579
 30
0.0
 11
319.9114645719182
 21
200.0253548747579
 31
0.0
  0
LINE
  5
D9E7
330
1A
100
AcDbEntity
  8
SEIHIN
100
AcDbLine
 10
324.9114645719182
 20
194.0253548747579
 30
0.0
 11
324.9114645719182
 21
200.0253548747579
 31
0.0
  0
LINE
  5
D9E8
330
1A
100
AcDbEntity
  8
SEIHIN
100
AcDbLine
 10
319.9315745719181
 20
211.5253548747578
 30
0.0
 11
319.9315745719181
 21
205.5253548747578
 31
0.0
  0
LINE
  5
D9E9
330
1A
100
AcDbEntity
  8
SEIHIN
100
AcDbLine
 10
324.9315745719182
 20
211.5253548747578
 30
0.0
 11
324.9315745719182
 21
205.5253548747578
 31
0.0
  0
ARC
  5
D9EA
330
1A
100
AcDbEntity
  8
SEIHIN
100
AcDbCircle
 10
322.4317355719181
 20
210.9629548747578
 30
0.0
 40
2.562635081136893
100
AcDbArc
 50
12.67972948128399
 51
167.3226210809187
  0
DIMENSION
  5
D9EB
330
1A
100
AcDbEntity
  8
SUNPOU
100
AcDbDimension
  2
*D12
 10
359.7314099405243
 20
205.5253548747578
 30
0.0
 11
354.7314099405243
 21
217.267548904466
 31
0.0
 70
    32
 71
     5
 42
-1.0
  3
STANDARD
100
AcDbAlignedDimension
 13
384.2546559769443
 23
229.0097429341739
 33
0.0
 14
375.7070377536997
 24
205.5253548747578
 34
0.0
 50
90.0
100
AcDbRotatedDimension
1001
ACAD
1000
DSTYLE
1002
{
1070
    41
1040
7.0
1070
    42
1040
6.0
1070
    43
1040
14.0
1070
    44
1040
3.0
1070
    73
1070
     0
1070
    74
1070
     0
1070
    77
1070
     3
1070
   140
1040
6.0
1070
   141
1040
150.0
1070
   147
1040
2.0
1070
   172
1070
     1
1070
   173
1070
     1
1070
   176
1070
   256
1070
   177
1070
   256
1070
   178
1070
   256
1070
   271
1070
     0
1070
   272
1070
     0
1070
   341
1005
6D
1070
     6
1000
OPEN
1070
     7
1000
OPEN
1070
   371
1070
    -1
1070
   372
1070
    -1
1002
}
  0
ARC
  5
D9EC
330
1A
100
AcDbEntity
  8
SEIHIN
100
AcDbCircle
 10
388.6597730916994
 20
223.5698763353191
 30
0.0
 40
6.0
100
AcDbArc
 50
97.99999999995469
 51
160.0000000009965
  0
LINE
  5
D9ED
330
1A
100
AcDbEntity
  8
SEIHIN
100
AcDbLine
 10
416.5114645719186
 20
227.1749862389579
 30
0.0
 11
416.5114645720118
 21
206.8253546447578
 31
0.0
  0
LINE
  5
D9EE
330
1A
100
AcDbEntity
  8
SEIHIN
100
AcDbLine
 10
414.0052839437676
 20
229.3535762459478
 30
0.0
 11
388.3535922695539
 21
225.7484660865478
 31
0.0
  0
LINE
  5
D9EF
330
1A
100
AcDbEntity
  8
SEIHIN
100
AcDbLine
 10
415.3114645719186
 20
227.1749862389579
 30
0.0
 11
415.3114645720582
 21
206.8253546447578
 31
0.0
  0
LINE
  5
D9F0
330
1A
100
AcDbEntity
  8
SEIHIN
100
AcDbLine
 10
414.1722916649182
 20
228.1652545634579
 30
0.0
 11
388.5205999908159
 21
224.5601444040578
 31
0.0
  0
LINE
  5
D9F3
330
1A
100
AcDbEntity
  8
SEIHIN
100
AcDbLine
 10
379.7089428612744
 20
205.4100420720454
 30
0.0
 11
386.5924493260342
 21
224.3223206506454
 31
0.0
  0
LINE
  5
D9F4
330
1A
100
AcDbEntity
  8
SEIHIN
100
AcDbLine
 10
380.8365740062185
 20
204.9996179000578
 30
0.0
 11
387.7200804710976
 21
223.9118964786578
 31
0.0
  0
ARC
  5
D9F5
330
1A
100
AcDbEntity
  8
SEIHIN
100
AcDbCircle
 10
374.4466641848184
 20
207.3253548747578
 30
0.0
 40
5.599999999999999
100
AcDbArc
 50
270.0
 51
340.000000000148
  0
ARC
  5
D9F6
330
1A
100
AcDbEntity
  8
SEIHIN
100
AcDbCircle
 10
374.4466641848184
 20
207.3253548747578
 30
0.0
 40
6.799999999999999
100
AcDbArc
 50
270.0
 51
340.0000000004682
  0
ARC
  5
D9F7
330
1A
100
AcDbEntity
  8
SEIHIN
100
AcDbCircle
 10
366.4670311153932
 20
197.4105618412832
 30
0.0
 40
9.613120274639971
100
AcDbArc
 50
76.23856311490129
 51
86.44452021601232
  0
ARC
  5
D9F8
330
1A
100
AcDbEntity
  8
SEIHIN
100
AcDbCircle
 10
365.8933298637752
 20
200.308667764719
 30
0.0
 40
6.689990208660361
100
AcDbArc
 50
96.49904386011685
 51
109.4020188034896
  0
ARC
  5
D9F9
330
1A
100
AcDbEntity
  8
SEIHIN
100
AcDbCircle
 10
364.8737277621471
 20
203.2036592799478
 30
0.0
 40
3.620696426877723
100
AcDbArc
 50
109.4020188034829
 51
125.5178899282721
  0
ARC
  5
D9FA
330
1A
100
AcDbEntity
  8
SEIHIN
100
AcDbCircle
 10
363.300271438836
 20
205.408107416735
 30
0.0
 40
0.9123101196545231
100
AcDbArc
 50
125.5178899282725
 51
157.9487999422785
  0
ARC
  5
D9FB
330
1A
100
AcDbEntity
  8
SEIHIN
100
AcDbCircle
 10
363.0490055644602
 20
205.5098866998697
 30
0.0
 40
0.6412131589535828
100
AcDbArc
 50
157.9487999422778
 51
168.6141686278855
  0
ARC
  5
D9FC
330
1A
100
AcDbEntity
  8
SEIHIN
100
AcDbCircle
 10
362.9721938167401
 20
205.5253548989974
 30
0.0
 40
0.5628594112961035
100
AcDbArc
 50
168.6141686278855
 51
180.0
  0
ARC
  5
D9FD
330
1A
100
AcDbEntity
  8
SEIHIN
100
AcDbCircle
 10
366.3810738790753
 20
196.0271582448798
 30
0.0
 40
10.99919175801199
100
AcDbArc
 50
86.44452021601232
 51
96.49904386011685
  0
LINE
  5
D9FE
330
1A
100
AcDbEntity
  8
SEIHIN
100
AcDbLine
 10
376.3775959848988
 20
207.3676984734796
 30
0.0
 11
383.021617366762
 21
225.6219971952477
 31
0.0
  0
LINE
  5
D9FF
330
1A
100
AcDbEntity
  8
SEIHIN
100
AcDbLine
 10
373.3680981000759
 20
205.5253548747753
 30
0.0
 11
376.5070022290792
 21
207.7232392077692
 31
0.0
  0
ARC
  5
DA00
330
1A
100
AcDbEntity
  8
SEIHIN
100
AcDbCircle
 10
373.746456646686
 20
208.3253548747579
 30
0.0
 40
2.799999999999999
100
AcDbArc
 50
270.0
 51
340.0000000007327
  0
ARC
  5
DA01
330
1A
100
AcDbEntity
  8
SEIHIN
100
AcDbCircle
 10
369.8119087288251
 20
205.5253548989974
 30
0.0
 40
0.5974256766190537
100
AcDbArc
 50
0.0
 51
38.40470068658672
  0
ARC
  5
DA02
330
1A
100
AcDbEntity
  8
SEIHIN
100
AcDbCircle
 10
368.8503050517481
 20
204.7630687553299
 30
0.0
 40
1.824520537090321
100
AcDbArc
 50
38.40470068658672
 51
60.10117155898822
  0
ARC
  5
DA03
330
1A
100
AcDbEntity
  8
SEIHIN
100
AcDbCircle
 10
367.835493103196
 20
202.9981731780445
 30
0.0
 40
3.860374090184648
100
AcDbArc
 50
60.10117155899549
 51
76.23856311490129
  0
ARC
  5
DA0B
330
1A
100
AcDbEntity
  8
SEIHIN
100
AcDbCircle
 10
388.6597730917185
 20
223.5698763353578
 30
0.0
 40
1.0
100
AcDbArc
 50
98.00000000000077
 51
159.9999999967644
  0
ARC
  5
DA0C
330
1A
100
AcDbEntity
  8
SEIHIN
100
AcDbCircle
 10
388.6597730917185
 20
223.5698763353578
 30
0.0
 40
2.2
100
AcDbArc
 50
98.00000000000077
 51
159.9999999975306
  0
LINE
  5
DA0D
330
1A
100
AcDbEntity
  8
NOKITOI
 48
2.0
100
AcDbLine
 10
404.8889988732189
 20
208.2178689341262
 30
0.0
 11
406.6430838586954
 21
222.6178689341261
 31
0.0
  0
LINE
  5
DA0E
330
1A
100
AcDbEntity
  8
NOKITOI
 48
2.0
100
AcDbLine
 10
413.2489838586953
 20
208.2178689341262
 30
0.0
 11
413.2489838586953
 21
222.417968934126
 31
0.0
  0
LINE
  5
DA0F
330
1A
100
AcDbEntity
  8
NOKITOI
 48
2.0
100
AcDbLine
 10
413.5489838586952
 20
207.9178689341262
 30
0.0
 11
413.5489838586952
 21
222.417968934126
 31
0.0
  0
LINE
  5
DA10
330
1A
100
AcDbEntity
  8
NOKITOI
 48
2.0
100
AcDbLine
 10
415.0489838586952
 20
206.4179689341261
 30
0.0
 11
415.0489838586952
 21
222.417968934126
 31
0.0
  0
LINE
  5
DA11
330
1A
100
AcDbEntity
  8
NOKITOI
 48
2.0
100
AcDbLine
 10
413.5489838586952
 20
207.9178689341262
 30
0.0
 11
403.9457642178219
 21
207.9178689341262
 31
0.0
  0
LINE
  5
DA12
330
1A
100
AcDbEntity
  8
NOKITOI
 48
2.0
100
AcDbLine
 10
415.0489838586952
 20
206.4179689341261
 30
0.0
 11
404.6697838586953
 21
206.4179689341261
 31
0.0
  0
LINE
  5
DA13
330
1A
100
AcDbEntity
  8
NOKITOI
 48
2.0
100
AcDbLine
 10
413.2489838586953
 20
208.2178689341262
 30
0.0
 11
404.8889838586953
 21
208.2178689341262
 31
0.0
  0
LINE
  5
DA14
330
1A
100
AcDbEntity
  8
SEIHIN
100
AcDbLine
 10
414.3114645719185
 20
204.6253548747578
 30
0.0
 11
405.5114645720116
 21
204.6253548747578
 31
0.0
  0
LINE
  5
DA15
330
1A
100
AcDbEntity
  8
SEIHIN
100
AcDbLine
 10
414.3114645719185
 20
205.8253548747578
 30
0.0
 11
405.5114645720116
 21
205.8253548747578
 31
0.0
  0
ARC
  5
DA17
330
1A
100
AcDbEntity
  8
SEIHIN
100
AcDbCircle
 10
414.3114645719185
 20
206.8253548747578
 30
0.0
 40
2.2
100
AcDbArc
 50
270.0
 51
359.9999868222989
  0
ARC
  5
DA18
330
1A
100
AcDbEntity
  8
SEIHIN
100
AcDbCircle
 10
414.3114645719185
 20
206.8253548747578
 30
0.0
 40
1.0
100
AcDbArc
 50
270.0
 51
359.9999868222989
  0
LINE
  5
DA19
330
1A
100
AcDbEntity
  8
NOKITOI
 48
2.0
100
AcDbLine
 10
405.0489838586952
 20
224.417968934126
 30
0.0
 11
413.0489838586952
 21
224.417968934126
 31
0.0
  0
LINE
  5
DA1A
330
1A
100
AcDbEntity
  8
NOKITOI
 48
2.0
100
AcDbLine
 10
406.6430838586954
 20
222.9178689341261
 30
0.0
 11
413.0489838586952
 21
222.9178689341261
 31
0.0
  0
LINE
  5
DA1B
330
1A
100
AcDbEntity
  8
NOKITOI
 48
2.0
100
AcDbLine
 10
406.6430838586954
 20
222.6178689341261
 30
0.0
 11
413.0489838586952
 21
222.6178689341261
 31
0.0
  0
ARC
  5
DA1C
330
1A
100
AcDbEntity
  8
NOKITOI
 48
2.0
100
AcDbCircle
 10
413.0489838586952
 20
222.417968934126
 30
0.0
 40
2.0
100
AcDbArc
 50
0.0
 51
90.0
  0
ARC
  5
DA1D
330
1A
100
AcDbEntity
  8
NOKITOI
 48
2.0
100
AcDbCircle
 10
413.0489838586952
 20
222.4179689341261
 30
0.0
 40
0.5000000000000739
100
AcDbArc
 50
359.9999999999755
 51
89.99999999997395
  0
ARC
  5
DA1E
330
1A
100
AcDbEntity
  8
NOKITOI
 48
2.0
100
AcDbCircle
 10
413.0489838586952
 20
222.4179689341261
 30
0.0
 40
0.2000000000000739
100
AcDbArc
 50
359.9999999999755
 51
89.99999999997395
  0
LINE
  5
DA1F
330
1A
100
AcDbEntity
  8
SEIHIN
100
AcDbLine
 10
412.6155990671288
 20
232.9956135489829
 30
0.0
 11
387.8247344858832
 21
229.5114847477691
 31
0.0
  0
ARC
  5
DA20
330
1A
100
AcDbEntity
  8
SEIHIN
100
AcDbCircle
 10
414.3114645719185
 20
227.1749864674578
 30
0.0
 40
2.2
100
AcDbArc
 50
359.9999869063006
 51
97.9999887745803
  0
ARC
  5
DA21
330
1A
100
AcDbEntity
  8
SEIHIN
100
AcDbCircle
 10
414.3114645719185
 20
227.1749864674578
 30
0.0
 40
1.0
100
AcDbArc
 50
359.9999869063006
 51
97.99998876906812
  0
LINE
  5
DA22
330
1A
100
AcDbEntity
  8
CENTER L
 48
5.0
100
AcDbLine
 10
314.9114645719184
 20
563.6504208291655
 30
0.0
 11
314.9114645719182
 21
519.6504208291655
 31
0.0
  0
LINE
  5
DA23
330
1A
100
AcDbEntity
  8
SEIHIN
100
AcDbLine
 10
416.5114645719186
 20
526.6504208291656
 30
0.0
 11
416.5114645720116
 21
529.6504208291972
 31
0.0
  0
LINE
  5
DA24
330
1A
100
AcDbEntity
  8
SEIHIN
100
AcDbLine
 10
339.9114645719182
 20
526.6504208291656
 30
0.0
 11
339.9114645719182
 21
529.3504208291655
 31
0.0
  0
LINE
  5
DA25
330
1A
100
AcDbEntity
  8
SEIHIN
100
AcDbLine
 10
334.9114645719182
 20
534.4004208291655
 30
0.0
 11
334.9114645719182
 21
526.6504208291656
 31
0.0
  0
LINE
  5
DA26
330
1A
100
AcDbEntity
  8
SEIHIN
100
AcDbLine
 10
329.9114645719182
 20
529.3504208291655
 30
0.0
 11
329.9114645719182
 21
526.6504208291656
 31
0.0
  0
LINE
  5
DA27
330
1A
100
AcDbEntity
  8
SEIHIN
100
AcDbLine
 10
324.9114645719182
 20
532.4308763718724
 30
0.0
 11
324.9114645719182
 21
526.6504208291656
 31
0.0
  0
LINE
  5
DA28
330
1A
100
AcDbEntity
  8
SEIHIN
100
AcDbLine
 10
314.9114645719182
 20
529.3504208291655
 30
0.0
 11
313.3526188451453
 21
526.6504208291656
 31
0.0
  0
LINE
  5
DA29
330
1A
100
AcDbEntity
  8
SEIHIN
100
AcDbLine
 10
314.9114645719182
 20
529.3504208291655
 30
0.0
 11
316.4703102989242
 21
526.6504208291656
 31
0.0
  0
LINE
  5
DA2A
330
1A
100
AcDbEntity
  8
SEIHIN
100
AcDbLine
 10
319.9114645719182
 20
529.3504208291655
 30
0.0
 11
319.9114645719182
 21
526.6504208291656
 31
0.0
  0
LINE
  5
DA2B
330
1A
100
AcDbEntity
  8
SEIHIN
100
AcDbLine
 10
309.9114645719182
 20
529.3504208291655
 30
0.0
 11
309.9114645719182
 21
526.6504208291656
 31
0.0
  0
LINE
  5
DA2C
330
1A
100
AcDbEntity
  8
SEIHIN
100
AcDbLine
 10
304.9114645719182
 20
532.4308763718724
 30
0.0
 11
304.9114645719182
 21
526.6504208291656
 31
0.0
  0
LINE
  5
DA2D
330
1A
100
AcDbEntity
  8
SEIHIN
100
AcDbLine
 10
299.9114645719182
 20
529.3504208291655
 30
0.0
 11
299.9114645719182
 21
526.6504208291656
 31
0.0
  0
LINE
  5
DA2E
330
1A
100
AcDbEntity
  8
SEIHIN
100
AcDbLine
 10
294.9114645719182
 20
534.4004208291655
 30
0.0
 11
294.9114645719182
 21
526.6504208291656
 31
0.0
  0
LINE
  5
DA2F
330
1A
100
AcDbEntity
  8
SEIHIN
100
AcDbLine
 10
289.9114645719182
 20
529.3504208291655
 30
0.0
 11
289.9114645719182
 21
526.6504208291656
 31
0.0
  0
LINE
  5
DA30
330
1A
100
AcDbEntity
  8
SEIHIN
100
AcDbLine
 10
213.3114645719185
 20
526.6504208291656
 30
0.0
 11
213.3114645718255
 21
529.6504208291707
 31
0.0
  0
DIMENSION
  5
DA31
330
1A
100
AcDbEntity
  8
SUNPOU
100
AcDbDimension
  2
*D13
 10
341.2472415719178
 20
506.854488270484
 30
0.0
 11
312.247241571918
 21
511.8544882704841
 31
0.0
 70
    32
 71
     5
 42
-1.0
  3
STANDARD
100
AcDbAlignedDimension
 13
283.2472415719182
 23
463.5254548747578
 33
0.0
 14
341.2472415719178
 24
463.5254548747578
 34
0.0
100
AcDbRotatedDimension
1001
ACAD
1000
DSTYLE
1002
{
1070
   140
1040
6.0
1070
    74
1070
     0
1070
   172
1070
     1
1070
    73
1070
     0
1070
   272
1070
     2
1070
    77
1070
     3
1070
   173
1070
     1
1070
   147
1040
2.0
1070
    42
1040
6.0
1070
    44
1040
3.0
1070
    43
1040
14.0
1070
   271
1070
     0
1070
   178
1070
     4
1070
   177
1070
     4
1070
   176
1070
     4
1070
   141
1040
150.0
1070
     7
1000
_OPEN
1070
     6
1000
_OPEN
1070
    41
1040
7.0
1002
}
  0
LINE
  5
DA32
330
1A
100
AcDbEntity
  8
SEIHIN
100
AcDbLine
 10
213.3114645719185
 20
526.6504208291656
 30
0.0
 11
416.5114645717785
 21
526.6504208291656
 31
0.0
  0
LEADER
  5
DA33
330
1A
100
AcDbEntity
  8
SUNPOU
100
AcDbLeader
  3
STANDARD
 76
     3
 10
331.4114625719182
 20
442.3043998747578
 30
0.0
 10
356.2779199160215
 20
461.7022599367313
 30
0.0
 10
372.6565312103486
 20
461.7022599367313
 30
0.0
1001
ACAD
1000
DSTYLE
1002
{
1070
     6
1000
OPEN
1070
    41
1040
7.0
1070
    42
1040
6.0
1070
    43
1040
14.0
1070
    44
1040
3.0
1070
    73
1070
     0
1070
    74
1070
     0
1070
    77
1070
     3
1070
   140
1040
6.0
1070
   141
1040
150.0
1070
   147
1040
2.0
1070
   172
1070
     1
1070
   173
1070
     1
1070
   176
1070
     4
1070
   177
1070
     4
1070
   178
1070
     4
1070
   271
1070
     0
1070
   272
1070
     2
1070
   341
1005
6D
1070
   343
1005
6D
1070
   344
1005
6D
1002
}
  0
LEADER
  5
DA34
330
1A
100
AcDbEntity
  8
SUNPOU
100
AcDbLeader
  3
STANDARD
 76
     3
 10
320.8062913677631
 20
384.5261616776919
 30
0.0
 10
348.7091425702519
 20
409.1919374272276
 30
0.0
 10
398.7885195293192
 20
409.1919374272276
 30
0.0
1001
ACAD
1000
DSTYLE
1002
{
1070
     6
1000
OPEN
1070
    41
1040
7.0
1070
    42
1040
6.0
1070
    43
1040
14.0
1070
    44
1040
3.0
1070
    73
1070
     0
1070
    74
1070
     0
1070
    77
1070
     3
1070
   140
1040
6.0
1070
   141
1040
150.0
1070
   147
1040
2.0
1070
   172
1070
     1
1070
   173
1070
     1
1070
   176
1070
     4
1070
   177
1070
     4
1070
   178
1070
     4
1070
   271
1070
     0
1070
   272
1070
     2
1070
   341
1005
6D
1070
   343
1005
6D
1070
   344
1005
6D
1002
}
  0
DIMENSION
  5
DA35
330
1A
100
AcDbEntity
  8
SUNPOU
100
AcDbDimension
  2
*D14
 10
331.4114625719182
 20
493.7892078507307
 30
0.0
 11
314.9114625719182
 21
498.7892078507306
 31
0.0
 70
    32
 71
     5
 42
-1.0
  3
STANDARD
100
AcDbAlignedDimension
 13
298.4114625719182
 23
442.3043998747579
 33
0.0
 14
331.4114625719182
 24
442.3043998747579
 34
0.0
100
AcDbRotatedDimension
1001
ACAD
1000
DSTYLE
1002
{
1070
   140
1040
6.0
1070
    74
1070
     0
1070
   172
1070
     1
1070
    73
1070
     0
1070
   272
1070
     2
1070
    77
1070
     3
1070
   173
1070
     1
1070
   147
1040
2.0
1070
    42
1040
6.0
1070
    44
1040
3.0
1070
    43
1040
14.0
1070
   271
1070
     0
1070
   178
1070
     4
1070
   177
1070
     4
1070
   176
1070
     4
1070
   141
1040
150.0
1070
     7
1000
_OPEN
1070
     6
1000
_OPEN
1070
    41
1040
7.0
1002
}
  0
LINE
  5
DA36
330
1A
100
AcDbEntity
  8
SEIHIN
100
AcDbLine
 10
309.9114755719181
 20
417.4044998747579
 30
0.0
 11
309.9114755719181
 21
423.4043998747579
 31
0.0
  0
LINE
  5
DA37
330
1A
100
AcDbEntity
  8
SEIHIN
100
AcDbLine
 10
319.9114755719181
 20
417.4043998747579
 30
0.0
 11
319.9114755719181
 21
423.4043998747579
 31
0.0
  0
LINE
  5
DA38
330
1A
100
AcDbEntity
  8
SEIHIN
100
AcDbLine
 10
304.9114755719181
 20
417.4043998747579
 30
0.0
 11
304.9114755719181
 21
423.4043998747579
 31
0.0
  0
LINE
  5
DA39
330
1A
100
AcDbEntity
  8
SEIHIN
100
AcDbLine
 10
324.9114755719181
 20
417.4043998747579
 30
0.0
 11
324.9114755719181
 21
423.4043998747579
 31
0.0
  0
LINE
  5
DA3A
330
1A
100
AcDbEntity
  8
SEIHIN
100
AcDbLine
 10
322.4114755719181
 20
415.4043998747579
 30
0.0
 11
314.9113755719181
 21
415.4043998747579
 31
0.0
  0
ARC
  5
DA3B
330
1A
100
AcDbEntity
  8
SEIHIN
100
AcDbCircle
 10
314.9115925719181
 20
422.6541068747578
 30
0.0
 40
7.249707053624614
100
AcDbArc
 50
269.9990734195281
 51
313.6037477331422
  0
LINE
  5
DA3C
330
1A
100
AcDbEntity
  8
SEIHIN
100
AcDbLine
 10
307.4114755719181
 20
415.4044998747578
 30
0.0
 11
314.9116755719183
 21
415.4044998747578
 31
0.0
  0
ARC
  5
DA3D
330
1A
100
AcDbEntity
  8
SEIHIN
100
AcDbCircle
 10
314.9114625719182
 20
422.6541048747578
 30
0.0
 40
7.249704847449203
100
AcDbArc
 50
226.3951243058896
 51
270.0001223783024
  0
ARC
  5
DA3E
330
1A
100
AcDbEntity
  8
SEIHIN
100
AcDbCircle
 10
307.4113145719181
 20
417.9668998747579
 30
0.0
 40
2.562635081136893
100
AcDbArc
 50
192.6797294812839
 51
347.3226210809187
  0
ARC
  5
DA3F
330
1A
100
AcDbEntity
  8
SEIHIN
100
AcDbCircle
 10
322.4116365719182
 20
417.9668998747579
 30
0.0
 40
2.562656995934785
100
AcDbArc
 50
192.6796051079023
 51
347.3181259813779
  0
LINE
  5
DA40
330
1A
100
AcDbEntity
  8
SEIHIN
100
AcDbLine
 10
331.4114625719182
 20
442.3043998747579
 30
0.0
 11
298.4114625719182
 21
442.3043998747579
 31
0.0
  0
LINE
  5
DA41
330
1A
100
AcDbEntity
  8
SEIHIN
100
AcDbLine
 10
331.4114625719182
 20
441.1043998747579
 30
0.0
 11
298.4114625719182
 21
441.1043998747579
 31
0.0
  0
LINE
  5
DA42
330
1A
100
AcDbEntity
  8
SEIHIN
100
AcDbLine
 10
309.9114645719182
 20
456.5254548747579
 30
0.0
 11
319.9114645719182
 21
456.5254548747579
 31
0.0
  0
LINE
  5
DA43
330
1A
100
AcDbEntity
  8
SEIHIN
100
AcDbLine
 10
322.4114645719182
 20
452.8043998747579
 30
0.0
 11
314.911364571918
 21
452.8043998747579
 31
0.0
  0
LINE
  5
DA44
330
1A
100
AcDbEntity
  8
SEIHIN
100
AcDbLine
 10
304.9114645719182
 20
444.8043998747579
 30
0.0
 11
324.9114645719182
 21
444.8043998747579
 31
0.0
  0
LINE
  5
DA45
330
1A
100
AcDbEntity
  8
SEIHIN
100
AcDbLine
 10
324.4114395719182
 20
444.8043998747579
 30
0.0
 11
305.4114395719182
 21
444.8043998747579
 31
0.0
  0
ARC
  5
DA46
330
1A
100
AcDbEntity
  8
SEIHIN
100
AcDbCircle
 10
314.9114915719183
 20
445.5548288747579
 30
0.0
 40
7.249670882495079
100
AcDbArc
 50
46.39500181286132
 51
90.0002225484002
  0
LINE
  5
DA47
330
1A
100
AcDbEntity
  8
SEIHIN
100
AcDbLine
 10
331.4114625719182
 20
442.3043998747579
 30
0.0
 11
298.4114625719182
 21
442.3043998747579
 31
0.0
  0
LINE
  5
DA48
330
1A
100
AcDbEntity
  8
SEIHIN
100
AcDbLine
 10
331.4114625719182
 20
441.1043998747579
 30
0.0
 11
298.4114625719182
 21
441.1043998747579
 31
0.0
  0
LINE
  5
DA49
330
1A
100
AcDbEntity
  8
SEIHIN
100
AcDbLine
 10
329.9114755719181
 20
441.1043998747579
 30
0.0
 11
299.9114755719181
 21
441.1043998747579
 31
0.0
  0
LINE
  5
DA4A
330
1A
100
AcDbEntity
  8
SEIHIN
100
AcDbLine
 10
324.9114755719181
 20
423.4043998747579
 30
0.0
 11
304.9114755719181
 21
423.4043998747579
 31
0.0
  0
LINE
  5
DA4B
330
1A
100
AcDbEntity
  8
SEIHIN
100
AcDbLine
 10
331.4114755719181
 20
427.1043998747578
 30
0.0
 11
298.4114755719181
 21
427.1043998747578
 31
0.0
  0
LINE
  5
DA4C
330
1A
100
AcDbEntity
  8
SEIHIN
100
AcDbLine
 10
329.9114755719181
 20
431.1043998747578
 30
0.0
 11
299.9114755719181
 21
431.1043998747578
 31
0.0
  0
LINE
  5
DA4D
330
1A
100
AcDbEntity
  8
SEIHIN
100
AcDbLine
 10
331.4114755719181
 20
425.9043998747578
 30
0.0
 11
298.4114755719181
 21
425.9043998747578
 31
0.0
  0
LINE
  5
DA4E
330
1A
100
AcDbEntity
  8
SEIHIN
100
AcDbLine
 10
303.9114415719182
 20
442.3043998747579
 30
0.0
 11
305.4114395719182
 21
444.8043998747579
 31
0.0
  0
LINE
  5
DA4F
330
1A
100
AcDbEntity
  8
SEIHIN
100
AcDbLine
 10
299.9114755719181
 20
441.1043998747579
 30
0.0
 11
299.9114755719181
 21
431.1043998747578
 31
0.0
  0
LINE
  5
DA50
330
1A
100
AcDbEntity
  8
SEIHIN
100
AcDbLine
 10
298.4114755719181
 20
427.1043998747578
 30
0.0
 11
298.4114755719181
 21
425.9043998747578
 31
0.0
  0
LINE
  5
DA51
330
1A
100
AcDbEntity
  8
SEIHIN
100
AcDbLine
 10
298.4114625719182
 20
442.3043998747579
 30
0.0
 11
298.4114625719182
 21
441.1043998747579
 31
0.0
  0
LINE
  5
DA52
330
1A
100
AcDbEntity
  8
SEIHIN
100
AcDbLine
 10
309.9315745719181
 20
427.1043998747578
 30
0.0
 11
309.9315745719181
 21
431.1043998747578
 31
0.0
  0
LINE
  5
DA53
330
1A
100
AcDbEntity
  8
SEIHIN
100
AcDbLine
 10
303.911454571918
 20
425.9043998747578
 30
0.0
 11
305.4114525719183
 21
423.4043998747579
 31
0.0
  0
LINE
  5
DA54
330
1A
100
AcDbEntity
  8
SEIHIN
 62
     2
100
AcDbLine
 10
310.9315745719182
 20
427.1043998747578
 30
0.0
 11
310.9315745719182
 21
431.1043998747578
 31
0.0
  0
LINE
  5
DA55
330
1A
100
AcDbEntity
  8
SEIHIN
100
AcDbLine
 10
309.9114645719182
 20
452.8043998747579
 30
0.0
 11
309.9114645719182
 21
456.5254548747579
 31
0.0
  0
LINE
  5
DA56
330
1A
100
AcDbEntity
  8
SEIHIN
 62
     2
100
AcDbLine
 10
310.9114645719182
 20
452.8043998747579
 30
0.0
 11
310.9114645719182
 21
456.5254548747579
 31
0.0
  0
ARC
  5
DA57
330
1A
100
AcDbEntity
  8
SEIHIN
100
AcDbCircle
 10
314.9114515719181
 20
445.5547948747579
 30
0.0
 40
7.249704847449203
100
AcDbArc
 50
89.99989775740109
 51
133.6048958298151
  0
LINE
  5
DA58
330
1A
100
AcDbEntity
  8
SEIHIN
100
AcDbLine
 10
307.4114645719182
 20
452.8043998747579
 30
0.0
 11
314.9116645719182
 21
452.8043998747579
 31
0.0
  0
LINE
  5
DA59
330
1A
100
AcDbEntity
  8
SEIHIN
100
AcDbLine
 10
309.9114645719182
 20
450.8043998747579
 30
0.0
 11
309.9114645719182
 21
444.8043998747579
 31
0.0
  0
LINE
  5
DA5A
330
1A
100
AcDbEntity
  8
SEIHIN
100
AcDbLine
 10
304.9114645719182
 20
450.8044998747578
 30
0.0
 11
304.9114645719182
 21
444.8043998747579
 31
0.0
  0
ARC
  5
DA5B
330
1A
100
AcDbEntity
  8
SEIHIN
100
AcDbCircle
 10
307.4113145719181
 20
450.2418998747579
 30
0.0
 40
2.562646037603808
100
AcDbArc
 50
12.67966100636733
 51
167.3203672336145
  0
LINE
  5
DA5C
330
1A
100
AcDbEntity
  8
SEIHIN
100
AcDbLine
 10
324.4114395719182
 20
444.8043998747579
 30
0.0
 11
325.9114415719182
 21
442.3043998747579
 31
0.0
  0
LINE
  5
DA5D
330
1A
100
AcDbEntity
  8
SEIHIN
100
AcDbLine
 10
329.9114755719181
 20
441.1043998747579
 30
0.0
 11
329.9114755719181
 21
431.1043998747578
 31
0.0
  0
LINE
  5
DA5E
330
1A
100
AcDbEntity
  8
SEIHIN
100
AcDbLine
 10
319.9315745719181
 20
427.1043998747578
 30
0.0
 11
319.9315745719181
 21
431.1043998747578
 31
0.0
  0
LINE
  5
DA5F
330
1A
100
AcDbEntity
  8
SEIHIN
 62
     2
100
AcDbLine
 10
318.9315745719182
 20
427.1043998747578
 30
0.0
 11
318.9315745719182
 21
431.1043998747578
 31
0.0
  0
LINE
  5
DA60
330
1A
100
AcDbEntity
  8
SEIHIN
100
AcDbLine
 10
324.4114525719183
 20
423.4043998747579
 30
0.0
 11
325.911454571918
 21
425.9043998747578
 31
0.0
  0
LINE
  5
DA61
330
1A
100
AcDbEntity
  8
SEIHIN
100
AcDbLine
 10
331.4114755719181
 20
427.1043998747578
 30
0.0
 11
331.4114755719181
 21
425.9043998747578
 31
0.0
  0
LINE
  5
DA62
330
1A
100
AcDbEntity
  8
SEIHIN
100
AcDbLine
 10
331.4114625719182
 20
442.3043998747579
 30
0.0
 11
331.4114625719182
 21
441.1043998747579
 31
0.0
  0
LINE
  5
DA63
330
1A
100
AcDbEntity
  8
SEIHIN
100
AcDbLine
 10
331.4114625719182
 20
442.3043998747579
 30
0.0
 11
331.4114625719182
 21
441.1043998747579
 31
0.0
  0
LINE
  5
DA64
330
1A
100
AcDbEntity
  8
SEIHIN
100
AcDbLine
 10
319.9114645719182
 20
452.8043998747579
 30
0.0
 11
319.9114645719182
 21
456.5254548747579
 31
0.0
  0
LINE
  5
DA65
330
1A
100
AcDbEntity
  8
SEIHIN
 62
     2
100
AcDbLine
 10
318.9114645719182
 20
452.8043998747579
 30
0.0
 11
318.9114645719182
 21
456.5254548747579
 31
0.0
  0
ARC
  5
DA66
330
1A
100
AcDbEntity
  8
SEIHIN
100
AcDbCircle
 10
322.4116255719181
 20
450.2419998747578
 30
0.0
 40
2.562635081136893
100
AcDbArc
 50
12.67972948128399
 51
167.3226210809187
  0
LINE
  5
DA67
330
1A
100
AcDbEntity
  8
SEIHIN
100
AcDbLine
 10
319.9114645719182
 20
450.8043998747579
 30
0.0
 11
319.9114645719182
 21
444.8043998747579
 31
0.0
  0
LINE
  5
DA68
330
1A
100
AcDbEntity
  8
SEIHIN
100
AcDbLine
 10
324.9114645719182
 20
450.8043998747579
 30
0.0
 11
324.9114645719182
 21
444.8043998747579
 31
0.0
  0
TEXT
  5
DA69
330
1A
100
AcDbEntity
  8
SUNPOU
100
AcDbText
 10
351.2243420487539
 20
410.8671629319411
 30
0.0
 40
5.0
  1
Ｗ３／８－Ｌ１７０
100
AcDbText
  0
LINE
  5
DA6A
330
1A
100
AcDbEntity
  8
SEIHIN
100
AcDbLine
 10
294.9114645719182
 20
526.6504208291656
 30
0.0
 11
289.0548349865369
 21
526.6504208291656
 31
0.0
  0
LINE
  5
DA6B
330
1A
100
AcDbEntity
  8
SEIHIN
100
AcDbLine
 10
313.3526188451185
 20
526.6504208291656
 30
0.0
 11
316.4703102989242
 21
526.6504208291656
 31
0.0
  0
TEXT
  5
DA6C
330
1A
100
AcDbEntity
  8
SUNPOU
100
AcDbText
 10
358.7931193945235
 20
463.3774854414449
 30
0.0
 40
5.0
  1
座金
100
AcDbText
  0
LINE
  5
DA6D
330
1A
100
AcDbEntity
  8
SEIHIN
100
AcDbLine
 10
213.3114645709886
 20
556.6504208291656
 30
0.0
 11
416.5114645717785
 21
556.6504208291656
 31
0.0
  0
ARC
  5
DA6E
330
1A
100
AcDbEntity
  8
SEIHIN
100
AcDbCircle
 10
286.1614645719182
 20
541.6504208291654
 30
0.0
 40
5.25
100
AcDbArc
 50
90.00000744649659
 51
269.9999944250545
  0
LINE
  5
DA6F
330
1A
100
AcDbEntity
  8
SEIHIN
100
AcDbLine
 10
212.8114645719185
 20
553.1504208291655
 30
0.0
 11
314.9114645719182
 21
553.1504208291655
 31
0.0
  0
LINE
  5
DA70
330
1A
100
AcDbEntity
  8
SEIHIN
100
AcDbLine
 10
314.9114645719182
 20
530.1504208291654
 30
0.0
 11
212.8114645718253
 21
530.1504208291654
 31
0.0
  0
LINE
  5
DA71
330
1A
100
AcDbEntity
  8
SEIHIN
100
AcDbLine
 10
211.5114645719186
 20
531.4504208291655
 30
0.0
 11
211.5114645718954
 21
551.8504208291655
 31
0.0
  0
ARC
  5
DA72
330
1A
100
AcDbEntity
  8
SEIHIN
100
AcDbCircle
 10
212.8114645719185
 20
531.4504208291655
 30
0.0
 40
1.3
100
AcDbArc
 50
180.0
 51
269.9999999958898
  0
ARC
  5
DA73
330
1A
100
AcDbEntity
  8
SEIHIN
100
AcDbCircle
 10
212.8114645719185
 20
529.6504208291654
 30
0.0
 40
0.5
100
AcDbArc
 50
0.0
 51
90.0000000106826
  0
ARC
  5
DA74
330
1A
100
AcDbEntity
  8
SEIHIN
100
AcDbCircle
 10
212.8114645719185
 20
551.8504208291655
 30
0.0
 40
1.3
100
AcDbArc
 50
90.0
 51
180.0
  0
ARC
  5
DA75
330
1A
100
AcDbEntity
  8
SEIHIN
100
AcDbCircle
 10
212.8114645719185
 20
553.6504208291655
 30
0.0
 40
0.5
100
AcDbArc
 50
270.0
 51
0.0
  0
LINE
  5
DA76
330
1A
100
AcDbEntity
  8
SEIHIN
100
AcDbLine
 10
213.3114645719185
 20
556.6504208291656
 30
0.0
 11
213.3114645718255
 21
553.6504208291602
 31
0.0
  0
LINE
  5
DA77
330
1A
100
AcDbEntity
  8
SEIHIN
100
AcDbLine
 10
251.5398509768183
 20
532.3504208291654
 30
0.0
 11
251.5398509769823
 21
550.9504208291655
 31
0.0
  0
LINE
  5
DA78
330
1A
100
AcDbEntity
  8
SEIHIN
100
AcDbLine
 10
249.3864975987501
 20
527.6504208291656
 30
0.0
 11
249.3864975987498
 21
529.1504208291654
 31
0.0
  0
LINE
  5
DA79
330
1A
100
AcDbEntity
  8
SEIHIN
100
AcDbLine
 10
249.3864975987501
 20
554.1504208291654
 30
0.0
 11
249.3864975987501
 21
555.6504208291657
 31
0.0
  0
LINE
  5
DA7A
330
1A
100
AcDbEntity
  8
SEIHIN
100
AcDbLine
 10
259.7397589816182
 20
532.3504208291654
 30
0.0
 11
259.7388266790137
 21
533.6504208291655
 31
0.0
  0
CIRCLE
  5
DA7B
330
1A
100
AcDbEntity
  8
SEIHIN
100
AcDbCircle
 10
266.4114645719184
 20
541.6504208291654
 30
0.0
 40
3.5
  0
LINE
  5
DA7C
330
1A
100
AcDbEntity
  8
SEIHIN
100
AcDbLine
 10
262.1392404976333
 20
537.6504208291654
 30
0.0
 11
258.8553866615643
 21
537.6504208291654
 31
0.0
  0
LINE
  5
DA7D
330
1A
100
AcDbEntity
  8
SEIHIN
100
AcDbLine
 10
258.8553866614806
 20
533.6504208291655
 30
0.0
 11
262.1392404976886
 21
533.6504208291655
 31
0.0
  0
LINE
  5
DA7E
330
1A
100
AcDbEntity
  8
SEIHIN
100
AcDbLine
 10
258.8553866614806
 20
535.6504208291654
 30
0.0
 11
262.1392404976886
 21
535.6504208291654
 31
0.0
  0
LINE
  5
DA7F
330
1A
100
AcDbEntity
  8
SEIHIN
100
AcDbLine
 10
256.8225731504667
 20
527.6504208291656
 30
0.0
 11
256.8225731504667
 21
529.1504208291654
 31
0.0
  0
LINE
  5
DA80
330
1A
100
AcDbEntity
  8
SEIHIN
100
AcDbLine
 10
258.8553866614806
 20
533.6504208291655
 30
0.0
 11
258.8553866615643
 21
537.6504208291654
 31
0.0
  0
LINE
  5
DA81
330
1A
100
AcDbEntity
  8
SEIHIN
100
AcDbLine
 10
262.1392404976333
 20
533.6504208291655
 30
0.0
 11
262.1392404976886
 21
537.6504208291654
 31
0.0
  0
LINE
  5
DA82
330
1A
100
AcDbEntity
  8
SEIHIN
100
AcDbLine
 10
258.8553866614806
 20
549.6504208291654
 30
0.0
 11
262.1392404976886
 21
549.6504208291654
 31
0.0
  0
LINE
  5
DA83
330
1A
100
AcDbEntity
  8
SEIHIN
100
AcDbLine
 10
258.8553866614806
 20
545.6504208291654
 30
0.0
 11
262.1392404976886
 21
545.6504208291654
 31
0.0
  0
LINE
  5
DA84
330
1A
100
AcDbEntity
  8
SEIHIN
100
AcDbLine
 10
258.8553866614806
 20
547.6504208291654
 30
0.0
 11
262.1392404976886
 21
547.6504208291654
 31
0.0
  0
LINE
  5
DA85
330
1A
100
AcDbEntity
  8
SEIHIN
100
AcDbLine
 10
258.8553866614806
 20
545.6504208291654
 30
0.0
 11
258.8553866615643
 21
549.6504208291654
 31
0.0
  0
LINE
  5
DA86
330
1A
100
AcDbEntity
  8
SEIHIN
100
AcDbLine
 10
262.1392404976333
 20
545.6504208291654
 30
0.0
 11
262.1392404976886
 21
549.6504208291654
 31
0.0
  0
LINE
  5
DA87
330
1A
100
AcDbEntity
  8
SEIHIN
100
AcDbLine
 10
256.8225731504667
 20
554.1504208291654
 30
0.0
 11
256.8225731504667
 21
555.6504208291655
 31
0.0
  0
LINE
  5
DA88
330
1A
100
AcDbEntity
  8
SEIHIN
100
AcDbLine
 10
417.0114645719186
 20
553.1504208291655
 30
0.0
 11
314.9114645719182
 21
553.1504208291655
 31
0.0
  0
LINE
  5
DA89
330
1A
100
AcDbEntity
  8
SEIHIN
100
AcDbLine
 10
314.9114645719182
 20
530.1504208291654
 30
0.0
 11
417.0114645717785
 21
530.1504208291654
 31
0.0
  0
LINE
  5
DA8A
330
1A
100
AcDbEntity
  8
SEIHIN
100
AcDbLine
 10
319.9116144949917
 20
550.3109345413897
 30
0.0
 11
309.9113146488452
 21
550.3109345413897
 31
0.0
  0
LINE
  5
DA8B
330
1A
100
AcDbEntity
  8
SEIHIN
100
AcDbLine
 10
310.9114645719182
 20
552.6504208291654
 30
0.0
 11
318.9114645719182
 21
552.6504208291654
 31
0.0
  0
CIRCLE
  5
DA8C
330
1A
100
AcDbEntity
  8
SEIHIN
 62
     2
100
AcDbCircle
 10
314.9114645719182
 20
541.6504208291654
 30
0.0
 40
4.000299846146333
  0
LINE
  5
DA8D
330
1A
100
AcDbEntity
  8
SEIHIN
100
AcDbLine
 10
309.911314648845
 20
532.9899071169411
 30
0.0
 11
319.9116144949917
 21
532.9899071169411
 31
0.0
  0
LINE
  5
DA8E
330
1A
100
AcDbEntity
  8
SEIHIN
100
AcDbLine
 10
310.9114645719182
 20
530.6504208291654
 30
0.0
 11
318.9114645719182
 21
530.6504208291654
 31
0.0
  0
ARC
  5
DA8F
330
1A
100
AcDbEntity
  8
SEIHIN
100
AcDbCircle
 10
316.9114645719182
 20
541.6504208291655
 30
0.0
 40
9.0
100
AcDbArc
 50
270.0
 51
90.0
  0
CIRCLE
  5
DA90
330
1A
100
AcDbEntity
  8
SEIHIN
100
AcDbCircle
 10
314.9114645719182
 20
541.6504208291654
 30
0.0
 40
5.000299846146333
  0
ARC
  5
DA91
330
1A
100
AcDbEntity
  8
SEIHIN
100
AcDbCircle
 10
310.9114645719182
 20
541.6504208291654
 30
0.0
 40
11.0
100
AcDbArc
 50
90.0
 51
270.0
  0
ARC
  5
DA92
330
1A
100
AcDbEntity
  8
SEIHIN
100
AcDbCircle
 10
312.9114645719182
 20
541.6504208291655
 30
0.0
 40
9.0
100
AcDbArc
 50
90.0
 51
270.0
  0
LINE
  5
DA93
330
1A
100
AcDbEntity
  8
CENTER L
 48
5.0
100
AcDbLine
 10
286.1614645719182
 20
531.1813489697929
 30
0.0
 11
286.1614645719182
 21
552.119492688538
 31
0.0
  0
LINE
  5
DA94
330
1A
100
AcDbEntity
  8
SEIHIN
100
AcDbLine
 10
286.1614640610182
 20
536.4004208291654
 30
0.0
 11
301.2451571073277
 21
536.4004208291654
 31
0.0
  0
LINE
  5
DA95
330
1A
100
AcDbEntity
  8
SEIHIN
100
AcDbLine
 10
286.1614638896185
 20
546.9004208291655
 30
0.0
 11
301.2451571073277
 21
546.9004208291653
 31
0.0
  0
LINE
  5
DA96
330
1A
100
AcDbEntity
  8
SEIHIN
100
AcDbLine
 10
304.9111647257721
 20
541.6504208291655
 30
0.0
 11
309.911314648845
 21
532.9899071169411
 31
0.0
  0
LINE
  5
DA97
330
1A
100
AcDbEntity
  8
SEIHIN
100
AcDbLine
 10
312.9114645719182
 20
532.6504208291655
 30
0.0
 11
316.9114645719182
 21
532.6504208291655
 31
0.0
  0
LINE
  5
DA98
330
1A
100
AcDbEntity
  8
SEIHIN
100
AcDbLine
 10
314.9114645719182
 20
534.4004208291655
 30
0.0
 11
314.9114645719182
 21
529.3504208291655
 31
0.0
  0
LINE
  5
DA99
330
1A
100
AcDbEntity
  8
SEIHIN
100
AcDbLine
 10
309.9113146488452
 20
550.3109345413897
 30
0.0
 11
304.9111647257721
 21
541.6504208291655
 31
0.0
  0
LINE
  5
DA9A
330
1A
100
AcDbEntity
  8
SEIHIN
100
AcDbLine
 10
312.9114645719182
 20
550.6504208291655
 30
0.0
 11
316.9114645719182
 21
550.6504208291655
 31
0.0
  0
ARC
  5
DA9B
330
1A
100
AcDbEntity
  8
SEIHIN
100
AcDbCircle
 10
318.9114645719182
 20
541.6504208291654
 30
0.0
 40
11.0
100
AcDbArc
 50
270.0
 51
90.0
  0
LINE
  5
DA9C
330
1A
100
AcDbEntity
  8
CENTER L
 48
5.0
100
AcDbLine
 10
341.875687571907
 20
531.1813489697929
 30
0.0
 11
341.875687571907
 21
552.119492688538
 31
0.0
  0
LINE
  5
DA9D
330
1A
100
AcDbEntity
  8
SEIHIN
100
AcDbLine
 10
328.5777720365087
 20
536.4004208291654
 30
0.0
 11
343.6614642620209
 21
536.4004208291654
 31
0.0
  0
LINE
  5
DA9E
330
1A
100
AcDbEntity
  8
SEIHIN
100
AcDbLine
 10
328.5777720365087
 20
546.9004208291655
 30
0.0
 11
343.6614651837972
 21
546.9004208291655
 31
0.0
  0
LINE
  5
DA9F
330
1A
100
AcDbEntity
  8
SEIHIN
100
AcDbLine
 10
319.9116144949917
 20
532.9899071169411
 30
0.0
 11
324.9117644180646
 21
541.6504208291653
 31
0.0
  0
LINE
  5
DAA0
330
1A
100
AcDbEntity
  8
SEIHIN
100
AcDbLine
 10
324.9117644180646
 20
541.6504208291653
 30
0.0
 11
319.9116144949917
 21
550.3109345413897
 31
0.0
  0
ARC
  5
DAA1
330
1A
100
AcDbEntity
  8
SEIHIN
100
AcDbCircle
 10
343.6614645719182
 20
541.6504208291654
 30
0.0
 40
5.25
100
AcDbArc
 50
269.9999966151032
 51
89.99999332227227
  0
LINE
  5
DAA2
330
1A
100
AcDbEntity
  8
SEIHIN
100
AcDbLine
 10
376.2608419573184
 20
532.3504208291654
 30
0.0
 11
376.2608419573305
 21
533.6504208291655
 31
0.0
  0
CIRCLE
  5
DAA3
330
1A
100
AcDbEntity
  8
SEIHIN
100
AcDbCircle
 10
366.4114645719182
 20
541.6504208291654
 30
0.0
 40
3.5
  0
LINE
  5
DAA4
330
1A
100
AcDbEntity
  8
SEIHIN
100
AcDbLine
 10
377.2072097675477
 20
535.6504208291654
 30
0.0
 11
373.9233559311492
 21
535.6504208291654
 31
0.0
  0
LINE
  5
DAA5
330
1A
100
AcDbEntity
  8
SEIHIN
100
AcDbLine
 10
377.2072097675477
 20
533.6504208291655
 30
0.0
 11
373.9233559311492
 21
533.6504208291655
 31
0.0
  0
LINE
  5
DAA6
330
1A
100
AcDbEntity
  8
SEIHIN
100
AcDbLine
 10
373.923355931395
 20
537.6504208291654
 30
0.0
 11
377.2072097672739
 21
537.6504208291654
 31
0.0
  0
LINE
  5
DAA7
330
1A
100
AcDbEntity
  8
SEIHIN
100
AcDbLine
 10
373.923355931395
 20
533.6504208291655
 30
0.0
 11
373.9233559311492
 21
537.6504208291654
 31
0.0
  0
LINE
  5
DAA8
330
1A
100
AcDbEntity
  8
SEIHIN
100
AcDbLine
 10
378.3678263988802
 20
527.6504208291656
 30
0.0
 11
378.3678263988802
 21
529.1504208291654
 31
0.0
  0
LINE
  5
DAA9
330
1A
100
AcDbEntity
  8
SEIHIN
100
AcDbLine
 10
377.2072097675477
 20
533.6504208291655
 30
0.0
 11
377.2072097672739
 21
537.6504208291654
 31
0.0
  0
LINE
  5
DAAA
330
1A
100
AcDbEntity
  8
SEIHIN
100
AcDbLine
 10
377.2072097675477
 20
547.6504208291654
 30
0.0
 11
373.9233559311492
 21
547.6504208291654
 31
0.0
  0
LINE
  5
DAAB
330
1A
100
AcDbEntity
  8
SEIHIN
100
AcDbLine
 10
377.2072097675477
 20
545.6504208291654
 30
0.0
 11
373.9233559311492
 21
545.6504208291654
 31
0.0
  0
LINE
  5
DAAC
330
1A
100
AcDbEntity
  8
SEIHIN
100
AcDbLine
 10
377.2072097675477
 20
549.6504208291654
 30
0.0
 11
373.9233559311492
 21
549.6504208291654
 31
0.0
  0
LINE
  5
DAAD
330
1A
100
AcDbEntity
  8
SEIHIN
100
AcDbLine
 10
373.923355931395
 20
545.6504208291654
 30
0.0
 11
373.9233559311492
 21
549.6504208291654
 31
0.0
  0
LINE
  5
DAAE
330
1A
100
AcDbEntity
  8
SEIHIN
100
AcDbLine
 10
377.2072097675477
 20
545.6504208291654
 30
0.0
 11
377.2072097672739
 21
549.6504208291654
 31
0.0
  0
LINE
  5
DAAF
330
1A
100
AcDbEntity
  8
SEIHIN
100
AcDbLine
 10
378.3678263988799
 20
554.1504208291654
 30
0.0
 11
378.3678263988802
 21
555.6504208291655
 31
0.0
  0
LINE
  5
DAB0
330
1A
100
AcDbEntity
  8
SEIHIN
100
AcDbLine
 10
385.0097148236186
 20
532.3504208291654
 30
0.0
 11
385.0097148236475
 21
550.9504208291655
 31
0.0
  0
LINE
  5
DAB1
330
1A
100
AcDbEntity
  8
SEIHIN
100
AcDbLine
 10
387.0445634831198
 20
527.6504208291656
 30
0.0
 11
387.0445634831201
 21
529.1504208291653
 31
0.0
  0
ARC
  5
DAB2
330
1A
100
AcDbEntity
  8
SEIHIN
100
AcDbCircle
 10
417.0114645719186
 20
529.6504208291654
 30
0.0
 40
0.5
100
AcDbArc
 50
90.0
 51
180.0
  0
LINE
  5
DAB3
330
1A
100
AcDbEntity
  8
SEIHIN
100
AcDbLine
 10
387.0445634831201
 20
554.1504208291654
 30
0.0
 11
387.0445634831201
 21
555.6504208291657
 31
0.0
  0
ARC
  5
DAB4
330
1A
100
AcDbEntity
  8
SEIHIN
100
AcDbCircle
 10
417.0114645719186
 20
553.6504208291655
 30
0.0
 40
0.5
100
AcDbArc
 50
180.0
 51
270.0000000106825
  0
LINE
  5
DAB5
330
1A
100
AcDbEntity
  8
SEIHIN
100
AcDbLine
 10
416.5114645719186
 20
556.6504208291656
 30
0.0
 11
416.5114645720116
 21
553.6504208291338
 31
0.0
  0
LINE
  5
DAB6
330
1A
100
AcDbEntity
  8
SEIHIN
 62
     2
100
AcDbLine
 10
536.1978887397063
 20
415.4042358747578
 30
0.0
 11
536.1978887397063
 21
232.8344456327578
 31
0.0
  0
LINE
  5
DAB7
330
1A
100
AcDbEntity
  8
SEIHIN
100
AcDbLine
 10
535.1978887397063
 20
415.4042358747578
 30
0.0
 11
535.1978887397063
 21
232.8344456327578
 31
0.0
  0
LINE
  5
DAB8
330
1A
100
AcDbEntity
  8
SEIHIN
 62
     2
100
AcDbLine
 10
544.1978887397063
 20
415.4042358747578
 30
0.0
 11
544.1978887397063
 21
232.8344456327578
 31
0.0
  0
LINE
  5
DAB9
330
1A
100
AcDbEntity
  8
SEIHIN
100
AcDbLine
 10
545.1978887397062
 20
415.4042358747578
 30
0.0
 11
545.1978887397062
 21
232.8344456327578
 31
0.0
  0
LINE
  5
DABA
330
1A
100
AcDbEntity
  8
CENTER L
 48
5.0
100
AcDbLine
 10
540.1978887397063
 20
473.2831918747578
 30
0.0
 11
540.1978887397063
 21
156.5232958747578
 31
0.0
  0
LINE
  5
DAC0
330
1A
100
AcDbEntity
  8
SEIHIN
100
AcDbLine
 10
545.1978887397062
 20
262.9956135490116
 30
0.0
 11
548.8830289340126
 21
262.9956135490116
 31
0.0
  0
DIMENSION
  5
DAC1
330
1A
100
AcDbEntity
  8
SUNPOU
100
AcDbDimension
  2
*D15
 10
555.198785739723
 20
141.4705814973466
 30
0.0
 11
540.1987857397229
 21
146.4705814973466
 31
0.0
 70
    32
 71
     5
 42
-1.0
  3
STANDARD
100
AcDbAlignedDimension
 13
525.198785739723
 23
200.5253548747578
 33
0.0
 14
555.198785739723
 24
200.5253548747578
 34
0.0
100
AcDbRotatedDimension
1001
ACAD
1000
DSTYLE
1002
{
1070
    41
1040
7.0
1070
    42
1040
6.0
1070
    43
1040
14.0
1070
    44
1040
3.0
1070
    73
1070
     0
1070
    74
1070
     0
1070
    77
1070
     3
1070
   140
1040
6.0
1070
   141
1040
150.0
1070
   147
1040
2.0
1070
   172
1070
     1
1070
   173
1070
     1
1070
   176
1070
   256
1070
   177
1070
   256
1070
   178
1070
   256
1070
   271
1070
     0
1070
   272
1070
     0
1070
   341
1005
6D
1070
     6
1000
OPEN
1070
     7
1000
OPEN
1070
   371
1070
    -1
1070
   372
1070
    -1
1002
}
  0
LINE
  5
DAC2
330
1A
100
AcDbEntity
  8
SEIHIN
100
AcDbLine
 10
545.1987857396959
 20
200.330107868521
 30
0.0
 11
550.2137937397228
 21
200.3299428747578
 31
0.0
  0
ARC
  5
DAC3
330
1A
100
AcDbEntity
  8
SEIHIN
100
AcDbCircle
 10
547.7137757397231
 20
194.8925248747578
 30
0.0
 40
2.562656995934785
100
AcDbArc
 50
192.6777283217456
 51
347.3162491952216
  0
LINE
  5
DAC4
330
1A
100
AcDbEntity
  8
SEIHIN
100
AcDbLine
 10
525.1987857396934
 20
203.8253548747578
 30
0.0
 11
555.1987857397193
 21
203.8253548747578
 31
0.0
  0
LINE
  5
DAC5
330
1A
100
AcDbEntity
  8
SEIHIN
100
AcDbLine
 10
531.5145425453933
 20
232.8344456327578
 30
0.0
 11
548.8830289340126
 21
232.8344456327578
 31
0.0
  0
LINE
  5
DAC6
330
1A
100
AcDbEntity
  8
SEIHIN
100
AcDbLine
 10
545.1987857396934
 20
203.8253548747578
 30
0.0
 11
545.1987857397194
 21
169.8253548747578
 31
0.0
  0
LINE
  5
DAC7
330
1A
100
AcDbEntity
  8
SEIHIN
100
AcDbLine
 10
535.1987857396934
 20
203.8253548747578
 30
0.0
 11
535.1987857397193
 21
169.8253548747578
 31
0.0
  0
ARC
  5
DAC8
330
1A
100
AcDbEntity
  8
SEIHIN
100
AcDbCircle
 10
543.1987857396934
 20
169.8253548747578
 30
0.0
 40
2.0
100
AcDbArc
 50
270.0
 51
0.0
  0
ARC
  5
DAC9
330
1A
100
AcDbEntity
  8
SEIHIN
100
AcDbCircle
 10
537.1987857396934
 20
169.8253548747578
 30
0.0
 40
2.0
100
AcDbArc
 50
180.0
 51
270.000000000736
  0
LINE
  5
DACA
330
1A
100
AcDbEntity
  8
SEIHIN
100
AcDbLine
 10
537.1987857396934
 20
167.8253548747578
 30
0.0
 11
543.1987857397193
 21
167.8253548747578
 31
0.0
  0
LINE
  5
DACB
330
1A
100
AcDbEntity
  8
SEIHIN
100
AcDbLine
 10
418.3114645719236
 20
228.0442732052492
 30
0.0
 11
418.311464571826
 21
208.6253548747578
 31
0.0
  0
LINE
  5
DACC
330
1A
100
AcDbEntity
  8
SEIHIN
100
AcDbLine
 10
525.1987857396934
 20
230.0344456327578
 30
0.0
 11
525.198785739723
 21
200.5253548747578
 31
0.0
  0
LINE
  5
DACD
330
1A
100
AcDbEntity
  8
SEIHIN
100
AcDbLine
 10
528.6987857396934
 20
205.3291604114578
 30
0.0
 11
528.6987857394863
 21
228.6125999605578
 31
0.0
  0
LINE
  5
DACE
330
1A
100
AcDbEntity
  8
SEIHIN
100
AcDbLine
 10
530.2137937397231
 20
200.3306008747578
 30
0.0
 11
535.1987857396959
 21
200.330436868521
 31
0.0
  0
ARC
  5
DACF
330
1A
100
AcDbEntity
  8
SEIHIN
100
AcDbCircle
 10
532.713453739723
 20
194.8930188747578
 30
0.0
 40
2.562635081136893
100
AcDbArc
 50
192.6777842206332
 51
347.320675820269
  0
LINE
  5
DAD0
330
1A
100
AcDbEntity
  8
SEIHIN
100
AcDbLine
 10
529.1987857397259
 20
203.8253548747578
 30
0.0
 11
529.1987857397159
 21
202.2253548747577
 31
0.0
  0
LINE
  5
DAD1
330
1A
100
AcDbEntity
  8
SEIHIN
100
AcDbLine
 10
530.213596739723
 20
194.3306008747578
 30
0.0
 11
530.2138185180308
 21
201.0852701468032
 31
0.0
  0
LINE
  5
DAD2
330
1A
100
AcDbEntity
  8
SEIHIN
100
AcDbLine
 10
530.3987857397294
 20
203.8253548747578
 30
0.0
 11
530.3987857397159
 21
201.7253548747577
 31
0.0
  0
ARC
  5
DAD3
330
1A
100
AcDbEntity
  8
SEIHIN
100
AcDbCircle
 10
528.698785739723
 20
202.2253548747577
 30
0.0
 40
0.5
100
AcDbArc
 50
270.0
 51
0.0
  0
ARC
  5
DAD4
330
1A
100
AcDbEntity
  8
SEIHIN
100
AcDbCircle
 10
529.198785739723
 20
201.7253548747577
 30
0.0
 40
1.199999999999999
100
AcDbArc
 50
270.0
 51
0.0
  0
LINE
  5
DAD5
330
1A
100
AcDbEntity
  8
SEIHIN
100
AcDbLine
 10
525.198785739723
 20
200.5253548747578
 30
0.0
 11
525.1987857397046
 21
201.7253548747577
 31
0.0
  0
LINE
  5
DAD6
330
1A
100
AcDbEntity
  8
SEIHIN
100
AcDbLine
 10
528.698785739723
 20
201.7253548747577
 30
0.0
 11
525.1987857397046
 21
201.7253548747577
 31
0.0
  0
LINE
  5
DAD7
330
1A
100
AcDbEntity
  8
SEIHIN
100
AcDbLine
 10
525.198785739723
 20
200.5253548747578
 30
0.0
 11
529.1987857397043
 21
200.5253548747578
 31
0.0
  0
LINE
  5
DAD8
330
1A
100
AcDbEntity
  8
SEIHIN
100
AcDbLine
 10
532.713453739723
 20
192.3303838747578
 30
0.0
 11
535.1987857397229
 21
192.3303838747578
 31
0.0
  0
LINE
  5
DAD9
330
1A
100
AcDbEntity
  8
SEIHIN
100
AcDbLine
 10
547.765178739723
 20
192.3303838747578
 30
0.0
 11
545.198785739723
 21
192.3303838747578
 31
0.0
  0
LINE
  5
DADA
330
1A
100
AcDbEntity
  8
SEIHIN
100
AcDbLine
 10
525.1987857396934
 20
260.1956135490116
 30
0.0
 11
525.198785739723
 21
230.0344456327578
 31
0.0
  0
LINE
  5
DADB
330
1A
100
AcDbEntity
  8
SEIHIN
100
AcDbLine
 10
528.6987857397328
 20
231.0344456327667
 30
0.0
 11
528.6987857394863
 21
258.7737678768117
 31
0.0
  0
ARC
  5
DADC
330
1A
100
AcDbEntity
  8
SEIHIN
100
AcDbCircle
 10
527.6987857396934
 20
231.0344456327578
 30
0.0
 40
1.0
100
AcDbArc
 50
270.0
 51
342.5423968749077
  0
LINE
  5
DADD
330
1A
100
AcDbEntity
  8
SEIHIN
100
AcDbLine
 10
525.1987857396934
 20
230.0344456327578
 30
0.0
 11
527.698785739486
 21
230.0344456327578
 31
0.0
  0
ARC
  5
DADE
330
1A
100
AcDbEntity
  8
SEIHIN
100
AcDbCircle
 10
531.5145425453933
 20
229.8344456327578
 30
0.0
 40
3.0
100
AcDbArc
 50
90.0
 51
162.5423968769486
  0
ARC
  5
DADF
330
1A
100
AcDbEntity
  8
SEIHIN
100
AcDbCircle
 10
531.5145425453933
 20
229.8344456327578
 30
0.0
 40
3.0
100
AcDbArc
 50
90.0
 51
162.5423968769486
  0
LINE
  5
DAE0
330
1A
100
AcDbEntity
  8
SEIHIN
100
AcDbLine
 10
531.5145425453933
 20
262.9956135490116
 30
0.0
 11
535.1978887397063
 21
262.9956135490116
 31
0.0
  0
ARC
  5
DAE1
330
1A
100
AcDbEntity
  8
SEIHIN
100
AcDbCircle
 10
531.5145425453933
 20
259.9956135490116
 30
0.0
 40
3.0
100
AcDbArc
 50
90.0
 51
162.5423968769486
  0
ARC
  5
DAE2
330
1A
100
AcDbEntity
  8
SEIHIN
100
AcDbCircle
 10
531.5145425453933
 20
259.9956135490116
 30
0.0
 40
3.0
100
AcDbArc
 50
90.0
 51
162.5423968769486
  0
ARC
  5
DAE3
330
1A
100
AcDbEntity
  8
SEIHIN
100
AcDbCircle
 10
527.6987857396934
 20
261.1956135490117
 30
0.0
 40
1.0
100
AcDbArc
 50
270.0
 51
342.5423968749077
  0
LINE
  5
DAE4
330
1A
100
AcDbEntity
  8
SEIHIN
100
AcDbLine
 10
525.1987857396934
 20
260.1956135490116
 30
0.0
 11
527.698785739486
 21
260.1956135490116
 31
0.0
  0
LINE
  5
DAE5
330
1A
100
AcDbEntity
  8
SEIHIN
100
AcDbLine
 10
555.1987857396934
 20
230.0344456327578
 30
0.0
 11
555.1987857397193
 21
203.8253548747578
 31
0.0
  0
LINE
  5
DAE6
330
1A
100
AcDbEntity
  8
SEIHIN
100
AcDbLine
 10
551.6987857396934
 20
205.3291604114578
 30
0.0
 11
551.6987857397193
 21
228.6125999605578
 31
0.0
  0
LINE
  5
DAE7
330
1A
100
AcDbEntity
  8
SEIHIN
100
AcDbLine
 10
551.1987857397668
 20
203.8253548747578
 30
0.0
 11
551.198785739723
 21
202.2253548747247
 31
0.0
  0
LINE
  5
DAE8
330
1A
100
AcDbEntity
  8
SEIHIN
100
AcDbLine
 10
550.2135967397229
 20
194.3299428747578
 30
0.0
 11
550.2138170502621
 21
201.0399085378488
 31
0.0
  0
LINE
  5
DAE9
330
1A
100
AcDbEntity
  8
SEIHIN
100
AcDbLine
 10
551.6987857397229
 20
201.7253548747577
 30
0.0
 11
555.1987857396463
 21
201.7253548747577
 31
0.0
  0
LINE
  5
DAEA
330
1A
100
AcDbEntity
  8
SEIHIN
100
AcDbLine
 10
555.198785739723
 20
200.5253548747578
 30
0.0
 11
551.1987857396463
 21
200.5253548747578
 31
0.0
  0
ARC
  5
DAEB
330
1A
100
AcDbEntity
  8
SEIHIN
100
AcDbCircle
 10
551.198785739723
 20
201.7253548747577
 30
0.0
 40
1.199999999999999
100
AcDbArc
 50
180.0
 51
269.9999999963262
  0
LINE
  5
DAEC
330
1A
100
AcDbEntity
  8
SEIHIN
100
AcDbLine
 10
549.9987857397504
 20
203.8253548747578
 30
0.0
 11
549.9987857396927
 21
201.7253548747577
 31
0.0
  0
ARC
  5
DAED
330
1A
100
AcDbEntity
  8
SEIHIN
100
AcDbCircle
 10
551.6987857397229
 20
202.2253548747577
 30
0.0
 40
0.5
100
AcDbArc
 50
180.0
 51
269.9999999911933
  0
LINE
  5
DAEE
330
1A
100
AcDbEntity
  8
SEIHIN
100
AcDbLine
 10
555.198785739723
 20
200.5253548747578
 30
0.0
 11
555.1987857396463
 21
201.7253548747577
 31
0.0
  0
LINE
  5
DAEF
330
1A
100
AcDbEntity
  8
SEIHIN
100
AcDbLine
 10
555.1987857396934
 20
260.1956135490116
 30
0.0
 11
555.1987857397232
 21
230.0344456327578
 31
0.0
  0
LINE
  5
DAF0
330
1A
100
AcDbEntity
  8
SEIHIN
100
AcDbLine
 10
551.6987857396887
 20
231.034445632759
 30
0.0
 11
551.6987857397193
 21
258.7737678768117
 31
0.0
  0
LINE
  5
DAF1
330
1A
100
AcDbEntity
  8
SEIHIN
100
AcDbLine
 10
555.1987857396934
 20
230.0344456327578
 30
0.0
 11
552.6987857394869
 21
230.0344456327578
 31
0.0
  0
ARC
  5
DAF2
330
1A
100
AcDbEntity
  8
SEIHIN
100
AcDbCircle
 10
548.8830289340935
 20
229.8344456327578
 30
0.0
 40
3.0
100
AcDbArc
 50
17.4576031237003
 51
90.00000000154377
  0
ARC
  5
DAF3
330
1A
100
AcDbEntity
  8
SEIHIN
100
AcDbCircle
 10
552.6987857396934
 20
231.0344456327578
 30
0.0
 40
1.0
100
AcDbArc
 50
197.4576031237003
 51
270.0000000014916
  0
ARC
  5
DAF4
330
1A
100
AcDbEntity
  8
SEIHIN
100
AcDbCircle
 10
548.8830289340935
 20
259.9956135490116
 30
0.0
 40
3.0
100
AcDbArc
 50
17.4576031237003
 51
90.00000000154377
  0
LINE
  5
DAF5
330
1A
100
AcDbEntity
  8
SEIHIN
100
AcDbLine
 10
555.1987857396934
 20
260.1956135490116
 30
0.0
 11
552.6987857394869
 21
260.1956135490116
 31
0.0
  0
ARC
  5
DAF6
330
1A
100
AcDbEntity
  8
SEIHIN
100
AcDbCircle
 10
552.6987857396934
 20
261.1956135490117
 30
0.0
 40
1.0
100
AcDbArc
 50
197.4576031237003
 51
270.0000000014916
  0
LINE
  5
DAF7
330
1A
100
AcDbEntity
  8
SEIHIN
100
AcDbLine
 10
551.1978887397062
 20
442.3038736189263
 30
0.0
 11
529.1975997397064
 21
442.3042358747578
 31
0.0
  0
LINE
  5
DAF8
330
1A
100
AcDbEntity
  8
SEIHIN
100
AcDbLine
 10
551.1978887397062
 20
441.1038736189263
 30
0.0
 11
529.1975997397064
 21
441.1042358747579
 31
0.0
  0
LINE
  5
DAF9
330
1A
100
AcDbEntity
  8
SEIHIN
100
AcDbLine
 10
531.5373750274818
 20
444.804520820135
 30
0.0
 11
548.8584024519306
 21
444.8039509583328
 31
0.0
  0
ARC
  5
DAFA
330
1A
100
AcDbEntity
  8
SEIHIN
100
AcDbCircle
 10
544.5280242678802
 20
447.116313661808
 30
0.0
 40
5.687779919070464
100
AcDbArc
 50
40.41684699691262
 51
139.5793829407969
  0
LINE
  5
DAFB
330
1A
100
AcDbEntity
  8
SEIHIN
100
AcDbLine
 10
547.6975987397063
 20
444.8042358747579
 30
0.0
 11
549.1975997397064
 21
442.3042358747578
 31
0.0
  0
LINE
  5
DAFC
330
1A
100
AcDbEntity
  8
SEIHIN
100
AcDbLine
 10
555.1982177397063
 20
441.1037418747579
 30
0.0
 11
525.1982177397062
 21
441.1047298747579
 31
0.0
  0
LINE
  5
DAFD
330
1A
100
AcDbEntity
  8
SEIHIN
100
AcDbLine
 10
551.1978887397062
 20
427.1042358747579
 30
0.0
 11
529.1978887397062
 21
427.1042358747579
 31
0.0
  0
LINE
  5
DAFE
330
1A
100
AcDbEntity
  8
SEIHIN
100
AcDbLine
 10
551.1978887397062
 20
425.9042358747579
 30
0.0
 11
529.1978887397062
 21
425.9042358747579
 31
0.0
  0
LINE
  5
DAFF
330
1A
100
AcDbEntity
  8
SEIHIN
100
AcDbLine
 10
548.8581484519577
 20
423.4039509438566
 30
0.0
 11
531.5371210274547
 21
423.4045208056591
 31
0.0
  0
LINE
  5
DB00
330
1A
100
AcDbEntity
  8
SEIHIN
100
AcDbLine
 10
547.6978877397064
 20
423.4042358747579
 30
0.0
 11
549.1978887397062
 21
425.9042358747579
 31
0.0
  0
ARC
  5
DB01
330
1A
100
AcDbEntity
  8
SEIHIN
100
AcDbCircle
 10
544.5276179047232
 20
421.0918727740626
 30
0.0
 40
5.687779919070464
100
AcDbArc
 50
220.4168415688914
 51
319.5793775127738
  0
LINE
  5
DB02
330
1A
100
AcDbEntity
  8
SEIHIN
100
AcDbLine
 10
555.1978887397062
 20
431.1037418747579
 30
0.0
 11
525.1978887397062
 21
431.1047298747579
 31
0.0
  0
LINE
  5
DB03
330
1A
100
AcDbEntity
  8
SEIHIN
100
AcDbLine
 10
531.5367256591208
 20
417.4045221326738
 30
0.0
 11
531.537121027482
 21
423.4045212166966
 31
0.0
  0
LINE
  5
DB04
330
1A
100
AcDbEntity
  8
SEIHIN
100
AcDbLine
 10
540.197239371318
 20
417.404236381303
 30
0.0
 11
540.1976347397062
 21
423.4042358747578
 31
0.0
  0
ARC
  5
DB05
330
1A
100
AcDbEntity
  8
SEIHIN
100
AcDbCircle
 10
535.8671041925259
 20
421.0921585254335
 30
0.0
 40
5.687779919070464
100
AcDbArc
 50
220.4168415688914
 51
319.5793775127738
  0
LINE
  5
DB06
330
1A
100
AcDbEntity
  8
SEIHIN
100
AcDbLine
 10
535.8669165257242
 20
415.404378609459
 30
0.0
 11
544.5274302379216
 21
415.4040928580881
 31
0.0
  0
LINE
  5
DB07
330
1A
100
AcDbEntity
  8
SEIHIN
100
AcDbLine
 10
531.1975997397064
 20
442.3037542077704
 30
0.0
 11
532.6975987397063
 21
444.8037542077703
 31
0.0
  0
LINE
  5
DB08
330
1A
100
AcDbEntity
  8
SEIHIN
100
AcDbLine
 10
531.1976127397065
 20
425.9046958750643
 30
0.0
 11
532.6976117397064
 21
423.4046958750644
 31
0.0
  0
LINE
  5
DB09
330
1A
100
AcDbEntity
  8
SEIHIN
100
AcDbLine
 10
525.1982177397062
 20
441.1047298747579
 30
0.0
 11
525.1978887397062
 21
431.1047298747579
 31
0.0
  0
LINE
  5
DB0A
330
1A
100
AcDbEntity
  8
SEIHIN
100
AcDbLine
 10
529.1978887397062
 20
427.1042358747579
 30
0.0
 11
529.1978887397062
 21
425.9042358747579
 31
0.0
  0
LINE
  5
DB0B
330
1A
100
AcDbEntity
  8
SEIHIN
100
AcDbLine
 10
529.1975997397064
 20
442.3042358747578
 30
0.0
 11
529.1975997397064
 21
441.1042358747579
 31
0.0
  0
LINE
  5
DB0C
330
1A
100
AcDbEntity
  8
SEIHIN
 62
     2
100
AcDbLine
 10
536.1978887397063
 20
427.1042358747579
 30
0.0
 11
536.1978887397063
 21
431.1042358747579
 31
0.0
  0
LINE
  5
DB0D
330
1A
100
AcDbEntity
  8
SEIHIN
100
AcDbLine
 10
535.1978887397063
 20
427.1042358747579
 30
0.0
 11
535.1978887397063
 21
431.1042358747579
 31
0.0
  0
LINE
  5
DB0E
330
1A
100
AcDbEntity
  8
SEIHIN
100
AcDbLine
 10
545.1978887397062
 20
427.1042358747579
 30
0.0
 11
545.1978887397062
 21
431.1042358747579
 31
0.0
  0
LINE
  5
DB0F
330
1A
100
AcDbEntity
  8
SEIHIN
 62
     2
100
AcDbLine
 10
544.1978887397063
 20
427.1042358747579
 30
0.0
 11
544.1978887397063
 21
431.1042358747579
 31
0.0
  0
ARC
  5
DB10
330
1A
100
AcDbEntity
  8
SEIHIN
100
AcDbCircle
 10
535.867510555656
 20
447.1165985927091
 30
0.0
 40
5.687779919070464
100
AcDbArc
 50
40.41684699691262
 51
139.5793829407969
  0
LINE
  5
DB11
330
1A
100
AcDbEntity
  8
SEIHIN
100
AcDbLine
 10
531.5373750274818
 20
450.8045203266163
 30
0.0
 11
531.5373750274818
 21
444.8045212295671
 31
0.0
  0
LINE
  5
DB12
330
1A
100
AcDbEntity
  8
SEIHIN
100
AcDbLine
 10
535.1978887397063
 20
452.8044008747578
 30
0.0
 11
535.1978887397063
 21
456.5254548747579
 31
0.0
  0
LINE
  5
DB13
330
1A
100
AcDbEntity
  8
SEIHIN
 62
     2
100
AcDbLine
 10
536.1978887397063
 20
452.8044008747578
 30
0.0
 11
536.1978887397063
 21
456.5254548747579
 31
0.0
  0
LINE
  5
DB14
330
1A
100
AcDbEntity
  8
SEIHIN
100
AcDbLine
 10
545.1978887397062
 20
452.8044008747578
 30
0.0
 11
545.1978887397062
 21
456.5254548747579
 31
0.0
  0
LINE
  5
DB15
330
1A
100
AcDbEntity
  8
SEIHIN
 62
     2
100
AcDbLine
 10
544.1978887397063
 20
452.8044008747578
 30
0.0
 11
544.1978887397063
 21
456.5254548747579
 31
0.0
  0
LINE
  5
DB16
330
1A
100
AcDbEntity
  8
SEIHIN
100
AcDbLine
 10
535.8676976836155
 20
452.8043785087013
 30
0.0
 11
544.5282113958397
 21
452.8040935778002
 31
0.0
  0
LINE
  5
DB17
330
1A
100
AcDbEntity
  8
SEIHIN
100
AcDbLine
 10
540.1978887397063
 20
450.8042353957151
 30
0.0
 11
540.1978887397063
 21
444.8042358892339
 31
0.0
  0
LINE
  5
DB18
330
1A
100
AcDbEntity
  8
SEIHIN
100
AcDbLine
 10
535.1978887397063
 20
456.5254548747579
 30
0.0
 11
545.1978887397062
 21
456.5254548747579
 31
0.0
  0
LINE
  5
DB19
330
1A
100
AcDbEntity
  8
SEIHIN
100
AcDbLine
 10
548.8577530835157
 20
417.4039506299327
 30
0.0
 11
548.8581484519309
 21
423.4039505344247
 31
0.0
  0
LINE
  5
DB1A
330
1A
100
AcDbEntity
  8
SEIHIN
100
AcDbLine
 10
555.1982177397063
 20
441.1037418747579
 30
0.0
 11
555.1978887397062
 21
431.1037418747579
 31
0.0
  0
LINE
  5
DB1B
330
1A
100
AcDbEntity
  8
SEIHIN
100
AcDbLine
 10
551.1978887397062
 20
427.1042358747579
 30
0.0
 11
551.1978887397062
 21
425.9042358747579
 31
0.0
  0
LINE
  5
DB1C
330
1A
100
AcDbEntity
  8
SEIHIN
100
AcDbLine
 10
551.1978887397062
 20
442.3038736189263
 30
0.0
 11
551.1978887397062
 21
441.1038736189263
 31
0.0
  0
LINE
  5
DB1D
330
1A
100
AcDbEntity
  8
SEIHIN
100
AcDbLine
 10
548.8584024519309
 20
450.8039504648134
 30
0.0
 11
548.8584024519306
 21
444.8039505472951
 31
0.0
  0
LINE
  5
DB1E
330
1A
100
AcDbEntity
  8
SEIHIN
100
AcDbLine
 10
418.3114645719185
 20
531.4504208291655
 30
0.0
 11
418.311464571826
 21
551.8504208291655
 31
0.0
  0
LINE
  5
E07F
330
1A
100
AcDbEntity
  8
SEIHIN
 48
5.0
100
AcDbLine
 10
222.3114648194534
 20
62.96950637986276
 30
0.0
 11
213.3114645719536
 21
62.96950637986276
 31
0.0
  0
LINE
  5
E080
330
1A
100
AcDbEntity
  8
SEIHIN
 48
5.0
100
AcDbLine
 10
407.5114642006536
 20
92.96950637986276
 30
0.0
 11
213.3114645718603
 21
92.96950637986276
 31
0.0
  0
LINE
  5
E081
330
1A
100
AcDbEntity
  8
SEIHIN
 48
5.0
100
AcDbLine
 10
213.3114645719536
 20
62.96950637986276
 30
0.0
 11
407.5114642793785
 21
62.96950637986276
 31
0.0
  0
LINE
  5
E082
330
1A
100
AcDbEntity
  8
CENTER L
 48
5.0
100
AcDbLine
 10
429.843015257072
 20
77.96950637986276
 30
0.0
 11
202.6944846562719
 21
77.96950637986276
 31
0.0
  0
LINE
  5
E086
330
1A
100
AcDbEntity
  8
SEIHIN
 48
5.0
100
AcDbLine
 10
211.5114645719534
 20
66.96950637986276
 30
0.0
 11
211.5114645719302
 21
88.96950637986277
 31
0.0
  0
LINE
  5
E08B
330
1A
100
AcDbEntity
  8
SEIHIN
 48
5.0
100
AcDbLine
 10
213.3114645719536
 20
62.96950637986276
 30
0.0
 11
213.3114645718603
 21
65.16950637986281
 31
0.0
  0
ARC
  5
E08C
330
1A
100
AcDbEntity
  8
SEIHIN
 48
5.0
100
AcDbCircle
 10
212.8114645719536
 20
66.96950637986276
 30
0.0
 40
1.3
100
AcDbArc
 50
180.0
 51
269.9999999958833
  0
ARC
  5
E08D
330
1A
100
AcDbEntity
  8
SEIHIN
 48
5.0
100
AcDbCircle
 10
212.8114645719536
 20
65.16950637986281
 30
0.0
 40
0.5
100
AcDbArc
 50
0.0
 51
90.0000000106826
  0
LINE
  5
E08E
330
1A
100
AcDbEntity
  8
SEIHIN
 48
5.0
100
AcDbLine
 10
215.4940481436535
 20
65.6695063798628
 30
0.0
 11
212.8114645718603
 21
65.6695063798628
 31
0.0
  0
ARC
  5
E08F
330
1A
100
AcDbEntity
  8
SEIHIN
 48
5.0
100
AcDbCircle
 10
212.8114645719536
 20
88.96950637986277
 30
0.0
 40
1.3
100
AcDbArc
 50
90.0
 51
180.0
  0
LINE
  5
E090
330
1A
100
AcDbEntity
  8
SEIHIN
 48
5.0
100
AcDbLine
 10
213.3114645719536
 20
92.96950637986276
 30
0.0
 11
213.3114645718603
 21
90.76950637986284
 31
0.0
  0
ARC
  5
E091
330
1A
100
AcDbEntity
  8
SEIHIN
 48
5.0
100
AcDbCircle
 10
212.8114645719536
 20
90.76950637986284
 30
0.0
 40
0.5
100
AcDbArc
 50
270.0
 51
0.0
  0
LINE
  5
E092
330
1A
100
AcDbEntity
  8
SEIHIN
 48
5.0
100
AcDbLine
 10
212.8114645719536
 20
90.26950637986283
 30
0.0
 11
215.4940481436212
 21
90.26950637986283
 31
0.0
  0
ARC
  5
E0A4
330
1A
100
AcDbEntity
  8
SEIHIN
100
AcDbCircle
 10
343.9114645719535
 20
77.96950641164932
 30
0.0
 40
5.0
100
AcDbArc
 50
270.0000030469017
 51
89.99999695309822
  0
LINE
  5
E0A9
330
1A
100
AcDbEntity
  8
SEIHIN
 48
5.0
100
AcDbLine
 10
318.8756876726159
 20
67.66950637986281
 30
0.0
 11
384.6739328953323
 21
67.66950637986281
 31
0.0
  0
LINE
  5
E0AA
330
1A
100
AcDbEntity
  8
SEIHIN
 48
5.0
100
AcDbLine
 10
318.8756876726159
 20
88.26950637986284
 30
0.0
 11
384.6739328952378
 21
88.26950637986284
 31
0.0
  0
LINE
  5
E0AB
330
1A
100
AcDbEntity
  8
SEIHIN
100
AcDbLine
 10
310.825687672616
 20
70.95470060920888
 30
0.0
 11
306.7756876726159
 21
77.96950637986288
 31
0.0
  0
CIRCLE
  5
E0AC
330
1A
100
AcDbEntity
  8
SEIHIN
 62
     2
100
AcDbCircle
 10
314.8756876726159
 20
77.96950637986288
 30
0.0
 40
4.0
  0
LINE
  5
E0AD
330
1A
100
AcDbEntity
  8
SEIHIN
100
AcDbLine
 10
322.975687672616
 20
77.96950637986288
 30
0.0
 11
318.9256876726159
 21
70.95470060920888
 31
0.0
  0
ARC
  5
E0AE
330
1A
100
AcDbEntity
  8
SEIHIN
100
AcDbCircle
 10
285.9114645719535
 20
77.96950625256471
 30
0.0
 40
5.0
100
AcDbArc
 50
90.0
 51
270.0
  0
LINE
  5
E0AF
330
1A
100
AcDbEntity
  8
CENTER L
 48
5.0
100
AcDbLine
 10
314.8756876726159
 20
103.9431791641383
 30
0.0
 11
314.8756876726159
 21
51.99583359558721
 31
0.0
  0
CIRCLE
  5
E0B0
330
1A
100
AcDbEntity
  8
SEIHIN
100
AcDbCircle
 10
314.8756876726159
 20
77.96950637986288
 30
0.0
 40
8.100000000000022
  0
CIRCLE
  5
E0B1
330
1A
100
AcDbEntity
  8
SEIHIN
100
AcDbCircle
 10
314.8756876726159
 20
77.96950637986288
 30
0.0
 40
5.0
  0
LINE
  5
E0B2
330
1A
100
AcDbEntity
  8
SEIHIN
 48
5.0
100
AcDbLine
 10
224.3114645719535
 20
90.96950637986276
 30
0.0
 11
224.3114645719767
 21
64.96950637986277
 31
0.0
  0
ARC
  5
E0B3
330
1A
100
AcDbEntity
  8
SEIHIN
 48
5.0
100
AcDbCircle
 10
292.8811834662604
 20
77.96950638023708
 30
0.0
 40
64.86971889422495
100
AcDbArc
 50
170.2371436705029
 51
189.7628563301663
  0
LINE
  5
E0B4
330
1A
100
AcDbEntity
  8
SEIHIN
 48
5.0
100
AcDbLine
 10
259.9736445286783
 20
69.64663413342845
 30
0.0
 11
259.9736445286302
 21
86.29237862629707
 31
0.0
  0
LINE
  5
E0B5
330
1A
100
AcDbEntity
  8
SEIHIN
 48
5.0
100
AcDbLine
 10
252.1133417484896
 20
70.43802652250263
 30
0.0
 11
252.1133417485626
 21
85.5009862372229
 31
0.0
  0
LINE
  5
E0B6
330
1A
100
AcDbEntity
  8
SEIHIN
 48
5.0
100
AcDbLine
 10
271.5114645719812
 20
70.46950637986265
 30
0.0
 11
271.511464571981
 21
85.46950637986265
 31
0.0
  0
LINE
  5
E0B9
330
1A
100
AcDbEntity
  8
SEIHIN
 48
5.0
100
AcDbLine
 10
248.5535341741959
 20
67.66950637986281
 30
0.0
 11
318.8756876726159
 21
67.66950637986281
 31
0.0
  0
LINE
  5
E0D1
330
1A
100
AcDbEntity
  8
SEIHIN
 48
5.0
100
AcDbLine
 10
259.9736445286283
 20
68.96950637972423
 30
0.0
 11
242.4042439826913
 21
66.96950637986276
 31
0.0
  0
LINE
  5
E0D2
330
1A
100
AcDbEntity
  8
SEIHIN
 48
5.0
100
AcDbLine
 10
251.4477129491498
 20
69.63663978118717
 30
0.0
 11
237.1604502251065
 21
66.96950637986276
 31
0.0
  0
LINE
  5
E0D3
330
1A
100
AcDbEntity
  8
SEIHIN
 48
5.0
100
AcDbLine
 10
228.9509055894395
 20
66.96950637986276
 30
0.0
 11
242.4042439826912
 21
66.96950637986276
 31
0.0
  0
ARC
  5
E0D4
330
1A
100
AcDbEntity
  8
SEIHIN
 48
5.0
100
AcDbCircle
 10
222.3114645719535
 20
64.96950637986277
 30
0.0
 40
2.0
100
AcDbArc
 50
270.0000070884994
 51
0.0
  0
LINE
  5
E0D5
330
1A
100
AcDbEntity
  8
SEIHIN
 48
5.0
100
AcDbLine
 10
224.3114645719535
 20
67.66950637986281
 30
0.0
 11
228.8344003354267
 21
67.66950637986281
 31
0.0
  0
LINE
  5
E0D6
330
1A
100
AcDbEntity
  8
SEIHIN
 48
5.0
100
AcDbLine
 10
259.9736445286283
 20
68.96950637986288
 30
0.0
 11
270.011464571981
 21
68.96950637986288
 31
0.0
  0
LINE
  5
E0D7
330
1A
100
AcDbEntity
  8
SEIHIN
 48
5.0
100
AcDbLine
 10
259.2999228908246
 20
69.03733814058665
 30
0.0
 11
252.7870633875874
 21
69.69306700821329
 31
0.0
  0
ARC
  5
E0D8
330
1A
100
AcDbEntity
  8
SEIHIN
 48
5.0
100
AcDbCircle
 10
270.0114645719812
 20
70.46950637986265
 30
0.0
 40
1.5
100
AcDbArc
 50
270.0
 51
0.0
  0
LINE
  5
E0EF
330
1A
100
AcDbEntity
  8
SEIHIN
100
AcDbLine
 10
318.9256876726159
 20
70.95470060920888
 30
0.0
 11
310.825687672616
 21
70.95470060920888
 31
0.0
  0
LINE
  5
E0F0
330
1A
100
AcDbEntity
  8
SEIHIN
100
AcDbLine
 10
285.9114643683535
 20
72.96950625256471
 30
0.0
 11
308.5030901859533
 21
72.96950625256471
 31
0.0
  0
LINE
  5
E0F1
330
1A
100
AcDbEntity
  8
SEIHIN
100
AcDbLine
 10
321.2470215432787
 20
72.96789616828641
 30
0.0
 11
343.8091712604769
 21
72.96789616828641
 31
0.0
  0
LINE
  5
E0F2
330
1A
100
AcDbEntity
  8
SEIHIN
 48
5.0
100
AcDbLine
 10
248.5535341741948
 20
88.26950637986284
 30
0.0
 11
318.8756876726159
 21
88.26950637986284
 31
0.0
  0
LINE
  5
E0F3
330
1A
100
AcDbEntity
  8
SEIHIN
 48
5.0
100
AcDbLine
 10
259.9736445286283
 20
86.9695063800013
 30
0.0
 11
242.4042439826914
 21
88.96950637986277
 31
0.0
  0
LINE
  5
E0F4
330
1A
100
AcDbEntity
  8
SEIHIN
 48
5.0
100
AcDbLine
 10
251.4477129491498
 20
86.30237297853836
 30
0.0
 11
237.1604502251063
 21
88.96950637986277
 31
0.0
  0
LINE
  5
E0F5
330
1A
100
AcDbEntity
  8
SEIHIN
 48
5.0
100
AcDbLine
 10
228.9509055893107
 20
88.96950637986277
 30
0.0
 11
242.4042439826913
 21
88.96950637986277
 31
0.0
  0
LINE
  5
E0F6
330
1A
100
AcDbEntity
  8
SEIHIN
 48
5.0
100
AcDbLine
 10
224.3114645719535
 20
88.26950637986284
 30
0.0
 11
228.8344003353063
 21
88.26950637986284
 31
0.0
  0
ARC
  5
E0F7
330
1A
100
AcDbEntity
  8
SEIHIN
 48
5.0
100
AcDbCircle
 10
222.3114645719535
 20
90.96950637986276
 30
0.0
 40
2.0
100
AcDbArc
 50
0.0
 51
89.9999999993356
  0
LINE
  5
E0F8
330
1A
100
AcDbEntity
  8
SEIHIN
 48
5.0
100
AcDbLine
 10
249.1240261164904
 20
92.46950637986277
 30
0.0
 11
249.1240261164904
 21
88.76950637986283
 31
0.0
  0
LINE
  5
E0F9
330
1A
100
AcDbEntity
  8
SEIHIN
 48
5.0
100
AcDbLine
 10
259.9736445286283
 20
86.96950637986265
 30
0.0
 11
270.011464571981
 21
86.96950637986265
 31
0.0
  0
CIRCLE
  5
E0FA
330
1A
100
AcDbEntity
  8
SEIHIN
 48
5.0
100
AcDbCircle
 10
266.5114645719811
 20
77.96950637986276
 30
0.0
 40
2.350000000000022
  0
CIRCLE
  5
E0FB
330
1A
100
AcDbEntity
  8
SEIHIN
 48
5.0
100
AcDbCircle
 10
266.5114645719811
 20
77.96950637986276
 30
0.0
 40
3.0
  0
LINE
  5
E0FC
330
1A
100
AcDbEntity
  8
SEIHIN
 48
5.0
100
AcDbLine
 10
259.2999228908246
 20
86.90167461913887
 30
0.0
 11
252.7870633875874
 21
86.24594575151224
 31
0.0
  0
LINE
  5
E0FD
330
1A
100
AcDbEntity
  8
SEIHIN
 48
5.0
100
AcDbLine
 10
256.5794295978113
 20
92.46950637986277
 30
0.0
 11
256.5794295978113
 21
88.76950637986283
 31
0.0
  0
ARC
  5
E0FE
330
1A
100
AcDbEntity
  8
SEIHIN
 48
5.0
100
AcDbCircle
 10
270.011464571981
 20
85.46950637986265
 30
0.0
 40
1.5
100
AcDbArc
 50
0.0
 51
90.0
  0
LINE
  5
E10E
330
1A
100
AcDbEntity
  8
SEIHIN
100
AcDbLine
 10
310.825687672616
 20
84.98431215051686
 30
0.0
 11
318.9256876726159
 21
84.98431215051686
 31
0.0
  0
LINE
  5
E10F
330
1A
100
AcDbEntity
  8
SEIHIN
100
AcDbLine
 10
285.9114641138535
 20
82.96950625256471
 30
0.0
 11
308.5030899861947
 21
82.96950625256471
 31
0.0
  0
LINE
  5
E110
330
1A
100
AcDbEntity
  8
SEIHIN
100
AcDbLine
 10
306.7756876726159
 20
77.96950637986288
 30
0.0
 11
310.825687672616
 21
84.98431215051686
 31
0.0
  0
LINE
  5
E111
330
1A
100
AcDbEntity
  8
SEIHIN
100
AcDbLine
 10
321.248285234218
 20
82.96950641164931
 30
0.0
 11
343.9114648378458
 21
82.96950641164931
 31
0.0
  0
LINE
  5
E112
330
1A
100
AcDbEntity
  8
SEIHIN
100
AcDbLine
 10
318.9256876726159
 20
84.98431215051686
 30
0.0
 11
322.975687672616
 21
77.96950637986288
 31
0.0
  0
LINE
  5
E14F
330
1A
100
AcDbEntity
  8
SEIHIN
 48
5.0
100
AcDbLine
 10
405.5114645719534
 20
82.96950637986276
 30
0.0
 11
405.5114645720466
 21
72.96950637986276
 31
0.0
  0
LINE
  5
E150
330
1A
100
AcDbEntity
  8
SEIHIN
 48
5.0
100
AcDbLine
 10
418.3114645719536
 20
66.96950637986276
 30
0.0
 11
418.3114645720934
 21
88.96950637986277
 31
0.0
  0
LINE
  5
E151
330
1A
100
AcDbEntity
  8
SEIHIN
 48
5.0
100
AcDbLine
 10
406.7114645719534
 20
82.96950637986276
 30
0.0
 11
406.7114645720001
 21
72.96950637986276
 31
0.0
  0
LINE
  5
E152
330
1A
100
AcDbEntity
  8
SEIHIN
 48
5.0
100
AcDbLine
 10
364.3114645720042
 20
70.46950637986276
 30
0.0
 11
364.3114645720045
 21
85.46950637986276
 31
0.0
  0
LINE
  5
E153
330
1A
100
AcDbEntity
  8
SEIHIN
 48
5.0
100
AcDbLine
 10
383.4753468519875
 20
70.28558202805919
 30
0.0
 11
383.4753468518283
 21
85.65343073165673
 31
0.0
  0
LINE
  5
E154
330
1A
100
AcDbEntity
  8
SEIHIN
 48
5.0
100
AcDbLine
 10
376.2110494955982
 20
69.37800584311014
 30
0.0
 11
376.2110494954536
 21
86.56100691661539
 31
0.0
  0
ARC
  5
E155
330
1A
100
AcDbEntity
  8
SEIHIN
 48
5.0
100
AcDbCircle
 10
335.3417456778765
 20
77.96950637986276
 30
0.0
 40
64.86971889422495
100
AcDbArc
 50
350.2371436701691
 51
9.762856329830833
  0
LINE
  5
E157
330
1A
100
AcDbEntity
  8
SEIHIN
 48
5.0
100
AcDbLine
 10
407.5114642792534
 20
62.96950637986276
 30
0.0
 11
416.5114645718135
 21
62.96950637986276
 31
0.0
  0
LINE
  5
E17E
330
1A
100
AcDbEntity
  8
SEIHIN
 48
5.0
100
AcDbLine
 10
376.6163976407433
 20
69.02014917504243
 30
0.0
 11
383.0699987068501
 21
69.82643976963214
 31
0.0
  0
LINE
  5
E17F
330
1A
100
AcDbEntity
  8
SEIHIN
 48
5.0
100
AcDbLine
 10
376.2110494956016
 20
68.96950637986276
 30
0.0
 11
389.2308701105723
 21
66.96950637986276
 31
0.0
  0
ARC
  5
E180
330
1A
100
AcDbEntity
  8
SEIHIN
 48
5.0
100
AcDbCircle
 10
365.8114645720043
 20
70.46950637986276
 30
0.0
 40
1.5
100
AcDbArc
 50
179.9999999999983
 51
270.0
  0
LINE
  5
E181
330
1A
100
AcDbEntity
  8
SEIHIN
 48
5.0
100
AcDbLine
 10
365.8114645720043
 20
68.96950637986276
 30
0.0
 11
376.2110494956016
 21
68.96950637986276
 31
0.0
  0
LINE
  5
E182
330
1A
100
AcDbEntity
  8
SEIHIN
 48
5.0
100
AcDbLine
 10
380.0080760797943
 20
63.46950637986276
 30
0.0
 11
380.0080760797943
 21
67.16950637986269
 31
0.0
  0
LINE
  5
E183
330
1A
100
AcDbEntity
  8
SEIHIN
 48
5.0
100
AcDbLine
 10
389.2308701105726
 20
66.96950637986276
 30
0.0
 11
399.2720235547617
 21
66.96950637986276
 31
0.0
  0
LINE
  5
E184
330
1A
100
AcDbEntity
  8
SEIHIN
 48
5.0
100
AcDbLine
 10
383.8669756776278
 20
69.76089876902074
 30
0.0
 11
393.27611673565
 21
66.96950637986276
 31
0.0
  0
LINE
  5
E185
330
1A
100
AcDbEntity
  8
SEIHIN
 48
5.0
100
AcDbLine
 10
388.7255870035326
 20
63.46950637986276
 30
0.0
 11
388.7255870035326
 21
67.16950637986269
 31
0.0
  0
ARC
  5
E186
330
1A
100
AcDbEntity
  8
SEIHIN
 48
5.0
100
AcDbCircle
 10
407.5114645719533
 20
64.96950637986277
 30
0.0
 40
2.0
100
AcDbArc
 50
180.0
 51
269.9999916183466
  0
LINE
  5
E187
330
1A
100
AcDbEntity
  8
SEIHIN
 48
5.0
100
AcDbLine
 10
408.5114644109535
 20
72.96950637986276
 30
0.0
 11
405.5114645720466
 21
72.96950637986276
 31
0.0
  0
ARC
  5
E188
330
1A
100
AcDbEntity
  8
SEIHIN
 48
5.0
100
AcDbCircle
 10
406.0114645719534
 20
69.86950637986291
 30
0.0
 40
0.5
100
AcDbArc
 50
90.00000001594573
 51
180.0
  0
ARC
  5
E189
330
1A
100
AcDbEntity
  8
SEIHIN
 48
5.0
100
AcDbCircle
 10
406.711464572008
 20
71.66950637986281
 30
0.0
 40
1.30000000000001
100
AcDbArc
 50
270.0
 51
90.00000001061744
  0
LINE
  5
E18A
330
1A
100
AcDbEntity
  8
SEIHIN
 48
5.0
100
AcDbLine
 10
405.5114645719534
 20
69.86950637986291
 30
0.0
 11
405.5114645720466
 21
64.96950637986277
 31
0.0
  0
LINE
  5
E18B
330
1A
100
AcDbEntity
  8
SEIHIN
 48
5.0
100
AcDbLine
 10
399.3885288087705
 20
67.66950637986281
 30
0.0
 11
405.5114645720466
 21
67.66950637986281
 31
0.0
  0
LINE
  5
E18C
330
1A
100
AcDbEntity
  8
SEIHIN
 48
5.0
100
AcDbLine
 10
406.711464572008
 20
70.36950637986291
 30
0.0
 11
406.0114645718142
 21
70.36950637986291
 31
0.0
  0
LINE
  5
E193
330
1A
100
AcDbEntity
  8
SEIHIN
 48
5.0
100
AcDbLine
 10
416.5114645719536
 20
62.96950637986276
 30
0.0
 11
416.5114645720469
 21
65.16950637986281
 31
0.0
  0
ARC
  5
E194
330
1A
100
AcDbEntity
  8
SEIHIN
 48
5.0
100
AcDbCircle
 10
417.0114645719536
 20
66.96950637986276
 30
0.0
 40
1.3
100
AcDbArc
 50
270.0
 51
0.0
  0
ARC
  5
E195
330
1A
100
AcDbEntity
  8
SEIHIN
 48
5.0
100
AcDbCircle
 10
417.0114645719536
 20
65.16950637986281
 30
0.0
 40
0.5
100
AcDbArc
 50
90.0
 51
180.0
  0
LINE
  5
E196
330
1A
100
AcDbEntity
  8
SEIHIN
 48
5.0
100
AcDbLine
 10
414.3288810003534
 20
65.6695063798628
 30
0.0
 11
417.0114645720468
 21
65.6695063798628
 31
0.0
  0
LINE
  5
E199
330
1A
100
AcDbEntity
  8
SEIHIN
 48
5.0
100
AcDbLine
 10
407.5114645719533
 20
92.96950637986276
 30
0.0
 11
416.5114645718135
 21
92.96950637986276
 31
0.0
  0
LINE
  5
E19C
330
1A
100
AcDbEntity
  8
SEIHIN
 48
5.0
100
AcDbLine
 10
376.6163976405919
 20
86.91886358468247
 30
0.0
 11
383.0699987066823
 21
86.11257299008443
 31
0.0
  0
LINE
  5
E19D
330
1A
100
AcDbEntity
  8
SEIHIN
 48
5.0
100
AcDbLine
 10
376.2110494954502
 20
86.96950637986276
 30
0.0
 11
389.2308701105075
 21
88.96950637986277
 31
0.0
  0
ARC
  5
E19E
330
1A
100
AcDbEntity
  8
SEIHIN
 48
5.0
100
AcDbCircle
 10
365.8114645720045
 20
85.46950637986276
 30
0.0
 40
1.5
100
AcDbArc
 50
90.0
 51
180.0
  0
CIRCLE
  5
E19F
330
1A
100
AcDbEntity
  8
SEIHIN
 48
5.0
100
AcDbCircle
 10
369.3114645720043
 20
77.96950637986276
 30
0.0
 40
3.0
  0
CIRCLE
  5
E1A0
330
1A
100
AcDbEntity
  8
SEIHIN
 48
5.0
100
AcDbCircle
 10
369.3114645720043
 20
77.96950637986276
 30
0.0
 40
2.350000000000022
  0
LINE
  5
E1A1
330
1A
100
AcDbEntity
  8
SEIHIN
 48
5.0
100
AcDbLine
 10
365.8114645720045
 20
86.96950637986276
 30
0.0
 11
376.2110494954502
 21
86.96950637986276
 31
0.0
  0
LINE
  5
E1A2
330
1A
100
AcDbEntity
  8
SEIHIN
 48
5.0
100
AcDbLine
 10
380.0080760797943
 20
92.46950637986277
 30
0.0
 11
380.0080760797943
 21
88.76950637986283
 31
0.0
  0
LINE
  5
E1A3
330
1A
100
AcDbEntity
  8
SEIHIN
 48
5.0
100
AcDbLine
 10
389.2308701105075
 20
88.96950637986277
 30
0.0
 11
399.2720235547617
 21
88.96950637986277
 31
0.0
  0
LINE
  5
E1A4
330
1A
100
AcDbEntity
  8
SEIHIN
 48
5.0
100
AcDbLine
 10
383.8669756774602
 20
86.17811399069413
 30
0.0
 11
393.2761167356127
 21
88.96950637986277
 31
0.0
  0
LINE
  5
E1A5
330
1A
100
AcDbEntity
  8
SEIHIN
 48
5.0
100
AcDbLine
 10
388.7255870035326
 20
92.46950637986277
 30
0.0
 11
388.7255870035326
 21
88.76950637986283
 31
0.0
  0
LINE
  5
E1A6
330
1A
100
AcDbEntity
  8
SEIHIN
 48
5.0
100
AcDbLine
 10
405.5114645719534
 20
86.06950637986278
 30
0.0
 11
405.5114645720466
 21
90.96950637986276
 31
0.0
  0
ARC
  5
E1A7
330
1A
100
AcDbEntity
  8
SEIHIN
 48
5.0
100
AcDbCircle
 10
406.711464572008
 20
84.26950637986294
 30
0.0
 40
1.30000000000001
100
AcDbArc
 50
270.0
 51
90.00000001061744
  0
LINE
  5
E1A8
330
1A
100
AcDbEntity
  8
SEIHIN
 48
5.0
100
AcDbLine
 10
408.5114643861536
 20
82.96950637986276
 30
0.0
 11
405.5114645720466
 21
82.96950637986276
 31
0.0
  0
ARC
  5
E1A9
330
1A
100
AcDbEntity
  8
SEIHIN
 48
5.0
100
AcDbCircle
 10
406.0114645719534
 20
86.06950637986278
 30
0.0
 40
0.5
100
AcDbArc
 50
180.0
 51
269.9999999840542
  0
LINE
  5
E1AA
330
1A
100
AcDbEntity
  8
SEIHIN
 48
5.0
100
AcDbLine
 10
406.711464572008
 20
85.56950637986279
 30
0.0
 11
406.0114645718142
 21
85.56950637986279
 31
0.0
  0
ARC
  5
E1AB
330
1A
100
AcDbEntity
  8
SEIHIN
 48
5.0
100
AcDbCircle
 10
407.5114645719533
 20
90.96950637986276
 30
0.0
 40
2.0
100
AcDbArc
 50
90.00001063699619
 51
180.0
  0
LINE
  5
E1AC
330
1A
100
AcDbEntity
  8
SEIHIN
 48
5.0
100
AcDbLine
 10
399.3885288087705
 20
88.26950637986284
 30
0.0
 11
405.5114645720466
 21
88.26950637986284
 31
0.0
  0
ARC
  5
E1CE
330
1A
100
AcDbEntity
  8
SEIHIN
 48
5.0
100
AcDbCircle
 10
417.0114645719536
 20
88.96950637986277
 30
0.0
 40
1.3
100
AcDbArc
 50
0.0
 51
89.99999999588331
  0
LINE
  5
E1CF
330
1A
100
AcDbEntity
  8
SEIHIN
 48
5.0
100
AcDbLine
 10
417.0114645719536
 20
90.26950637986283
 30
0.0
 11
414.3288810004021
 21
90.26950637986283
 31
0.0
  0
ARC
  5
E1D0
330
1A
100
AcDbEntity
  8
SEIHIN
 48
5.0
100
AcDbCircle
 10
417.0114645719536
 20
90.76950637986284
 30
0.0
 40
0.5
100
AcDbArc
 50
180.0
 51
270.0000000106825
  0
LINE
  5
E1D1
330
1A
100
AcDbEntity
  8
SEIHIN
 48
5.0
100
AcDbLine
 10
416.5114645719536
 20
92.96950637986276
 30
0.0
 11
416.5114645720469
 21
90.76950637986284
 31
0.0
  0
ARC
  5
E1FC
330
1A
100
AcDbEntity
  8
SEIHIN
100
AcDbCircle
 10
247.4554821497019
 20
229.3253548747578
 30
0.0
 40
4.999999892672396
100
AcDbArc
 50
40.11843825718058
 51
89.99999999999349
  0
LINE
  5
E1FD
330
1A
100
AcDbEntity
  8
SEIHIN
100
AcDbLine
 10
249.6467533942809
 20
231.0965595636205
 30
0.0
 11
253.2444597558167
 21
218.5626033382439
 31
0.0
  0
LINE
  5
E1FE
330
1A
100
AcDbEntity
  8
SEIHIN
100
AcDbLine
 10
249.1661853198993
 20
230.9585221247518
 30
0.0
 11
253.7435037296578
 21
215.0117207987311
 31
0.0
  0
ARC
  5
E1FF
330
1A
100
AcDbEntity
  8
SEIHIN
100
AcDbCircle
 10
247.7244041426156
 20
230.5446779066811
 30
0.0
 40
1.5
100
AcDbArc
 50
16.015425686444
 51
79.60747497741426
  0
LINE
  5
E200
330
1A
100
AcDbEntity
  8
SEIHIN
100
AcDbLine
 10
231.409507434895
 20
234.3253548747578
 30
0.0
 11
247.4554821497024
 21
234.3253548747578
 31
0.0
  0
LINE
  5
E201
330
1A
100
AcDbEntity
  8
SEIHIN
100
AcDbLine
 10
230.1937784348949
 20
233.8253548747578
 30
0.0
 11
238.1515363667944
 21
233.8253548747578
 31
0.0
  0
ARC
  5
E202
330
1A
100
AcDbEntity
  8
SEIHIN
100
AcDbCircle
 10
230.1937784348949
 20
235.8253548747584
 30
0.0
 40
2.0
100
AcDbArc
 50
180.0000000000162
 51
270.0000000022602
  0
ARC
  5
E203
330
1A
100
AcDbEntity
  8
SEIHIN
100
AcDbCircle
 10
231.409507434895
 20
235.8253548747584
 30
0.0
 40
2.0
100
AcDbArc
 50
180.0000000000162
 51
261.5819526537608
  0
ARC
  5
E204
330
1A
100
AcDbEntity
  8
SEIHIN
100
AcDbCircle
 10
231.409507434895
 20
235.8253548747578
 30
0.0
 40
1.5
100
AcDbArc
 50
179.9999999999967
 51
259.6901715535555
  0
LINE
  5
E205
330
1A
100
AcDbEntity
  8
SEIHIN
100
AcDbLine
 10
231.27315334374
 20
234.3253548747578
 30
0.0
 11
231.4095074349045
 21
234.3253548747578
 31
0.0
  0
LINE
  5
E206
330
1A
100
AcDbEntity
  8
SEIHIN
100
AcDbLine
 10
231.1369872894108
 20
234.3503183429035
 30
0.0
 11
231.273153343793
 21
234.3253548747578
 31
0.0
  0
LINE
  5
E207
330
1A
100
AcDbEntity
  8
SEIHIN
100
AcDbLine
 10
228.1937784348949
 20
238.8253548747578
 30
0.0
 11
229.9095074349042
 21
238.8253548747578
 31
0.0
  0
LINE
  5
E208
330
1A
100
AcDbEntity
  8
SEIHIN
100
AcDbLine
 10
229.409507434895
 20
235.8253548747578
 30
0.0
 11
229.4095074349045
 21
238.8253548747578
 31
0.0
  0
LINE
  5
E209
330
1A
100
AcDbEntity
  8
SEIHIN
100
AcDbLine
 10
228.1937784348949
 20
235.8253548747578
 30
0.0
 11
228.1937784349738
 21
238.8253548747578
 31
0.0
  0
LINE
  5
E20A
330
1A
100
AcDbEntity
  8
SEIHIN
100
AcDbLine
 10
229.9095074348949
 20
235.8253548747578
 30
0.0
 11
229.9095074349042
 21
238.8253548747578
 31
0.0
  0
LINE
  5
E20B
330
1A
100
AcDbEntity
  8
SEIHIN
100
AcDbLine
 10
238.1937784348952
 20
234.3253548747578
 30
0.0
 11
248.0850299172765
 21
232.5119811780986
 31
0.0
  0
LINE
  5
E20C
330
1A
100
AcDbEntity
  8
SEIHIN
100
AcDbLine
 10
238.1515363667943
 20
233.8253548747577
 30
0.0
 11
247.994990378824
 21
232.0200704269404
 31
0.0
  0
ARC
  5
E20D
330
1A
100
AcDbEntity
  8
SEIHIN
100
AcDbCircle
 10
247.724378491236
 20
230.5447672728597
 30
0.0
 40
2.0
100
AcDbArc
 50
16.01542568659968
 51
79.61126776609528
  0
LINE
  5
E20E
330
1A
100
AcDbEntity
  8
SEIHIN
100
AcDbLine
 10
398.1519253196177
 20
205.8253548747578
 30
0.0
 11
398.151925319604
 21
208.8253548747578
 31
0.0
  0
LINE
  5
E20F
330
1A
100
AcDbEntity
  8
SEIHIN
100
AcDbLine
 10
397.2940608196714
 20
205.8253548747578
 30
0.0
 11
397.2940608196109
 21
208.8253548747578
 31
0.0
  0
LINE
  5
E210
330
1A
100
AcDbEntity
  8
SEIHIN
100
AcDbLine
 10
396.7940608196714
 20
205.8253548747578
 30
0.0
 11
396.7940608196109
 21
208.8253548747578
 31
0.0
  0
LINE
  5
E211
330
1A
100
AcDbEntity
  8
SEIHIN
100
AcDbLine
 10
395.2940608196714
 20
204.3253548747578
 30
0.0
 11
380.5491231913417
 21
204.3253548747578
 31
0.0
  0
LINE
  5
E212
330
1A
100
AcDbEntity
  8
SEIHIN
100
AcDbLine
 10
386.9918895323491
 20
203.8253548747578
 30
0.0
 11
380.2767590138397
 21
203.8253548747578
 31
0.0
  0
LINE
  5
E213
330
1A
100
AcDbEntity
  8
SEIHIN
100
AcDbLine
 10
380.0119332427333
 20
203.41795345907
 30
0.0
 11
386.9918895323491
 21
204.3253548747579
 31
0.0
  0
LINE
  5
E214
330
1A
100
AcDbEntity
  8
SEIHIN
100
AcDbLine
 10
379.682603667352
 20
202.9865828145406
 30
0.0
 11
386.9918895323492
 21
203.880993502223
 31
0.0
  0
ARC
  5
E215
330
1A
100
AcDbEntity
  8
SEIHIN
100
AcDbCircle
 10
396.1519253196177
 20
205.8253548747578
 30
0.0
 40
2.0
100
AcDbArc
 50
269.999999999987
 51
359.9999999999869
  0
LINE
  5
E216
330
1A
100
AcDbEntity
  8
SEIHIN
100
AcDbLine
 10
396.1519253196177
 20
203.8253548747578
 30
0.0
 11
386.9918895323492
 21
203.8253548747578
 31
0.0
  0
ARC
  5
E217
330
1A
100
AcDbEntity
  8
SEIHIN
100
AcDbCircle
 10
395.2940608196714
 20
205.8253548747578
 30
0.0
 40
1.5
100
AcDbArc
 50
269.9999999999934
 51
359.9999999999934
  0
ARC
  5
E218
330
1A
100
AcDbEntity
  8
SEIHIN
100
AcDbCircle
 10
395.2940608196714
 20
205.8253548747578
 30
0.0
 40
2.0
100
AcDbArc
 50
269.999999999987
 51
359.9999999999869
  0
LINE
  5
E219
330
1A
100
AcDbEntity
  8
SEIHIN
100
AcDbLine
 10
396.7940608196109
 20
208.8253548747578
 30
0.0
 11
398.151925319604
 21
208.8253548747578
 31
0.0
  0
LINE
  5
E21A
330
1A
100
AcDbEntity
  8
SEIHIN
100
AcDbLine
 10
259.727352185419
 20
549.6504208291654
 30
0.0
 11
259.7264198828145
 21
550.9504208291655
 31
0.0
  0
LINE
  5
E21B
330
1A
100
AcDbEntity
  8
SEIHIN
100
AcDbLine
 10
259.735958055615
 20
537.6504208291654
 30
0.0
 11
259.7302208088176
 21
545.6504208291653
 31
0.0
  0
LINE
  5
E21C
330
1A
100
AcDbEntity
  8
SEIHIN
100
AcDbLine
 10
376.2608419573678
 20
537.6504208291654
 30
0.0
 11
376.2608419574423
 21
545.6504208291654
 31
0.0
  0
LINE
  5
E21D
330
1A
100
AcDbEntity
  8
SEIHIN
100
AcDbLine
 10
376.2608419574796
 20
549.6504208291654
 30
0.0
 11
376.2608419574917
 21
550.9504208291655
 31
0.0
  0
VIEWPORT
  5
22
330
17
100
AcDbEntity
 67
     1
  8
0
100
AcDbViewport
 10
313.6808219178082
 20
148.5
 30
0.0
 40
627.3616438356165
 41
297.0
 68
     2
 69
     1
 12
313.6808219178082
 22
148.5
 13
0.0
 23
0.0
 14
1.0
 24
1.0
 15
10.0
 25
10.0
 16
0.0
 26
0.0
 36
1.0
 17
0.0
 27
0.0
 37
0.0
 42
50.0
 43
0.0
 44
0.0
 45
297.0
 50
0.0
 51
0.0
 72
   100
 90
    32768
  1

281
     0
 71
     1
 74
     0
110
0.0
120
0.0
130
0.0
111
1.0
121
0.0
131
0.0
112
0.0
122
1.0
132
0.0
 79
     0
146
0.0
  0
VIEWPORT
  5
64
330
17
100
AcDbEntity
 67
     1
  8
VIEWPORT
100
AcDbViewport
 10
210.0
 20
148.5
 30
0.0
 40
420.0
 41
297.0
 68
     1
 69
     2
 12
420.0
 22
297.0
 13
0.0
 23
0.0
 14
10.0
 24
10.0
 15
0.0
 25
0.0
 16
0.0
 26
0.0
 36
1.0
 17
0.0
 27
0.0
 37
0.0
 42
50.0
 43
0.0
 44
0.0
 45
605.8799999999998
 50
0.0
 51
0.0
 72
   100
 90
    32768
  1

281
     0
 71
     1
 74
     0
110
0.0
120
0.0
130
0.0
111
1.0
121
0.0
131
0.0
112
0.0
122
1.0
132
0.0
 79
     0
146
0.0
  0
ENDSEC
  0
SECTION
  2
OBJECTS
  0
DICTIONARY
  5
C
330
0
100
AcDbDictionary
281
     1
  3
ACAD_GROUP
350
D
  3
ACAD_LAYOUT
350
340
  3
ACAD_MLINESTYLE
350
E
  3
ACAD_PLOTSETTINGS
350
341
  3
ACAD_PLOTSTYLENAME
350
33E
  3
AcDbVariableDictionary
350
11E9
  0
DICTIONARY
  5
385
330
1A
100
AcDbDictionary
280
     1
281
     1
  3
ACAD_LAYOUTSELFREF
360
E309
  0
DICTIONARY
  5
383
330
17
100
AcDbDictionary
280
     1
281
     1
  3
ACAD_LAYOUTSELFREF
360
E308
  0
DICTIONARY
  5
D
102
{ACAD_REACTORS
330
C
102
}
330
C
100
AcDbDictionary
281
     1
  0
DICTIONARY
  5
340
102
{ACAD_REACTORS
330
C
102
}
330
C
100
AcDbDictionary
281
     1
  3
Model
350
342
  3
ﾚｲｱｳﾄ1
350
343
  0
DICTIONARY
  5
E
102
{ACAD_REACTORS
330
C
102
}
330
C
100
AcDbDictionary
281
     1
  3
STANDARD
350
13
  0
DICTIONARY
  5
341
102
{ACAD_REACTORS
330
C
102
}
330
C
100
AcDbDictionary
281
     1
  0
ACDBDICTIONARYWDFLT
  5
33E
102
{ACAD_REACTORS
330
C
102
}
330
C
100
AcDbDictionary
281
     1
  3
Normal
350
33F
100
AcDbDictionaryWithDefault
340
33F
1001
ACAD
1000
TREAT_AS_HARD
1070
     0
1000
TREAT_AS_HARD
1070
     0
1000
TREAT_AS_HARD
1070
     0
1000
TREAT_AS_HARD
1070
     0
1000
TREAT_AS_HARD
1070
     0
1000
TREAT_AS_HARD
1070
     0
1000
TREAT_AS_HARD
1070
     0
1000
TREAT_AS_HARD
1070
     0
1000
TREAT_AS_HARD
1070
     0
1000
TREAT_AS_HARD
1070
     0
1000
TREAT_AS_HARD
1070
     0
1000
TREAT_AS_HARD
1070
     0
1000
TREAT_AS_HARD
1070
     0
1000
TREAT_AS_HARD
1070
     0
1000
TREAT_AS_HARD
1070
     0
1000
TREAT_AS_HARD
1070
     0
1000
TREAT_AS_HARD
1070
     0
1000
TREAT_AS_HARD
1070
     0
1000
TREAT_AS_HARD
1070
     0
  0
DICTIONARY
  5
11E9
102
{ACAD_REACTORS
330
C
102
}
330
C
100
AcDbDictionary
281
     1
  3
SORTENTS
350
11EA
  0
XRECORD
  5
E309
102
{ACAD_REACTORS
330
385
102
}
330
385
100
AcDbXrecord
280
     1
340
1A
  0
XRECORD
  5
E308
102
{ACAD_REACTORS
330
383
102
}
330
383
100
AcDbXrecord
280
     1
340
17
  0
LAYOUT
  5
342
102
{ACAD_REACTORS
330
340
102
}
330
340
100
AcDbPlotSettings
  1

  2
Acrobat Distiller
  4
A3
  6

 40
3.174999952316284
 41
3.174999952316284
 42
3.17498779296875
 43
3.17498779296875
 44
297.0318298339843
 45
420.1583251953125
 46
0.0
 47
0.0
 48
0.0
 49
0.0
140
0.0
141
0.0
142
1.0
143
2.0
 70
 11952
 72
     1
 73
     1
 74
     2
  7
print.ctb
 75
    17
147
0.5
148
0.0
149
0.0
100
AcDbLayout
  1
Model
 70
     1
 71
     0
 10
0.0
 20
0.0
 11
12.0
 21
9.0
 12
0.0
 22
0.0
 32
0.0
 14
0.0
 24
0.0
 34
0.0
 15
0.0
 25
0.0
 35
0.0
146
0.0
 13
0.0
 23
0.0
 33
0.0
 16
1.0
 26
0.0
 36
0.0
 17
0.0
 27
1.0
 37
0.0
 76
     0
330
1A
  0
LAYOUT
  5
343
102
{ACAD_REACTORS
330
340
102
}
330
340
100
AcDbPlotSettings
  1

  2
Acrobat Distiller
  4

  6

 40
0.0
 41
0.0
 42
0.0
 43
0.0
 44
0.0
 45
0.0
 46
0.0
 47
0.0
 48
0.0
 49
0.0
140
0.0
141
0.0
142
1.0
143
1.0
 70
   688
 72
     0
 73
     0
 74
     5
  7
print.ctb
 75
    16
147
1.0
148
0.0
149
0.0
100
AcDbLayout
  1
ﾚｲｱｳﾄ1
 70
     1
 71
     1
 10
0.0
 20
0.0
 11
420.0
 21
297.0
 12
0.0
 22
0.0
 32
0.0
 14
0.0
 24
0.0
 34
0.0
 15
420.0
 25
297.0
 35
0.0
146
0.0
 13
0.0
 23
0.0
 33
0.0
 16
1.0
 26
0.0
 36
0.0
 17
0.0
 27
1.0
 37
0.0
 76
     0
330
17
331
64
  0
MLINESTYLE
  5
13
102
{ACAD_REACTORS
330
E
102
}
330
E
100
AcDbMlineStyle
  2
STANDARD
 70
     0
  3

 62
     0
 51
90.0
 52
90.0
 71
     2
 49
0.5
 62
   256
  6
BYLAYER
 49
-0.5
 62
   256
  6
BYLAYER
  0
ACDBPLACEHOLDER
  5
33F
102
{ACAD_REACTORS
330
33E
102
}
330
33E
  0
DICTIONARYVAR
  5
11EA
102
{ACAD_REACTORS
330
11E9
102
}
330
11E9
100
DictionaryVariables
280
     0
  1
96
  0
ENDSEC
  0
EOF
