  0
SECTION
  2
HEADER
  9
$ACADVER
  1
AC1012
  9
$DWGCODEPAGE
  3
dos932
  9
$INSBASE
 10
0.0
 20
0.0
 30
0.0
  9
$EXTMIN
 10
5.0
 20
2.449000558492456
 30
0.0
  9
$EXTMAX
 10
403.0
 20
282.0
 30
0.0
  9
$LIMMIN
 10
0.0
 20
0.0
  9
$LIMMAX
 10
420.0
 20
297.0
  9
$ORTHOMODE
 70
     0
  9
$REGENMODE
 70
     1
  9
$FILLMODE
 70
     1
  9
$QTEXTMODE
 70
     0
  9
$MIRRTEXT
 70
     1
  9
$DRAGMODE
 70
     2
  9
$LTSCALE
 40
1.0
  9
$OSMODE
 70
    37
  9
$ATTMODE
 70
     1
  9
$TEXTSIZE
 40
2.5
  9
$TRACEWID
 40
1.0
  9
$TEXTSTYLE
  7
STYLE1
  9
$CLAYER
  8
SUNPOU
  9
$CELTYPE
  6
BYLAYER
  9
$CECOLOR
 62
   256
  9
$CELTSCALE
 40
5.0
  9
$DELOBJ
 70
     1
  9
$DISPSILH
 70
     0
  9
$DIMSCALE
 40
1.0
  9
$DIMASZ
 40
3.0
  9
$DIMEXO
 40
3.0
  9
$DIMDLI
 40
7.0
  9
$DIMRND
 40
0.0
  9
$DIMDLE
 40
0.0
  9
$DIMEXE
 40
1.5
  9
$DIMTP
 40
0.0
  9
$DIMTM
 40
0.0
  9
$DIMTXT
 40
3.0
  9
$DIMCEN
 40
150.0
  9
$DIMTSZ
 40
0.0
  9
$DIMTOL
 70
     0
  9
$DIMLIM
 70
     0
  9
$DIMTIH
 70
     0
  9
$DIMTOH
 70
     0
  9
$DIMSE1
 70
     0
  9
$DIMSE2
 70
     0
  9
$DIMTAD
 70
     3
  9
$DIMZIN
 70
     0
  9
$DIMBLK
  1

  9
$DIMASO
 70
     1
  9
$DIMSHO
 70
     1
  9
$DIMPOST
  1

  9
$DIMAPOST
  1

  9
$DIMALT
 70
     0
  9
$DIMALTD
 70
     2
  9
$DIMALTF
 40
25.4
  9
$DIMLFAC
 40
1.0
  9
$DIMTOFL
 70
     1
  9
$DIMTVP
 40
0.0
  9
$DIMTIX
 70
     0
  9
$DIMSOXD
 70
     0
  9
$DIMSAH
 70
     1
  9
$DIMBLK1
  1
OPEN
  9
$DIMBLK2
  1
OPEN
  9
$DIMSTYLE
  2
STANDARD
  9
$DIMCLRD
 70
   256
  9
$DIMCLRE
 70
   256
  9
$DIMCLRT
 70
   256
  9
$DIMTFAC
 40
1.0
  9
$DIMGAP
 40
1.0
  9
$DIMJUST
 70
     0
  9
$DIMSD1
 70
     0
  9
$DIMSD2
 70
     0
  9
$DIMTOLJ
 70
     1
  9
$DIMTZIN
 70
     0
  9
$DIMALTZ
 70
     0
  9
$DIMALTTZ
 70
     0
  9
$DIMFIT
 70
     3
  9
$DIMUPT
 70
     0
  9
$DIMUNIT
 70
     2
  9
$DIMDEC
 70
     0
  9
$DIMTDEC
 70
     0
  9
$DIMALTU
 70
     2
  9
$DIMALTTD
 70
     2
  9
$DIMTXSTY
  7
STANDARD
  9
$DIMAUNIT
 70
     0
  9
$LUNITS
 70
     2
  9
$LUPREC
 70
     4
  9
$SKETCHINC
 40
1.0
  9
$FILLETRAD
 40
10.0
  9
$AUNITS
 70
     0
  9
$AUPREC
 70
     0
  9
$MENU
  1
.
  9
$ELEVATION
 40
0.0
  9
$PELEVATION
 40
0.0
  9
$THICKNESS
 40
0.0
  9
$LIMCHECK
 70
     0
  9
$BLIPMODE
 70
     0
  9
$CHAMFERA
 40
10.0
  9
$CHAMFERB
 40
10.0
  9
$CHAMFERC
 40
20.0
  9
$CHAMFERD
 40
0.0
  9
$SKPOLY
 70
     0
  9
$TDCREATE
 40
2451019.402889814
  9
$TDUPDATE
 40
2452395.839552558
  9
$TDINDWG
 40
0.0503125694
  9
$TDUSRTIMER
 40
0.0503125694
  9
$USRTIMER
 70
     1
  9
$ANGBASE
 50
0.0
  9
$ANGDIR
 70
     0
  9
$PDMODE
 70
     0
  9
$PDSIZE
 40
0.0
  9
$PLINEWID
 40
0.0
  9
$COORDS
 70
     1
  9
$SPLFRAME
 70
     0
  9
$SPLINETYPE
 70
     6
  9
$SPLINESEGS
 70
     8
  9
$ATTDIA
 70
     0
  9
$ATTREQ
 70
     1
  9
$HANDLING
 70
 10241
  9
$HANDSEED
  5
8C5
  9
$SURFTAB1
 70
     6
  9
$SURFTAB2
 70
     6
  9
$SURFTYPE
 70
     6
  9
$SURFU
 70
     6
  9
$SURFV
 70
     6
  9
$UCSNAME
  2

  9
$UCSORG
 10
0.0
 20
0.0
 30
0.0
  9
$UCSXDIR
 10
1.0
 20
0.0
 30
0.0
  9
$UCSYDIR
 10
0.0
 20
1.0
 30
0.0
  9
$PUCSNAME
  2

  9
$PUCSORG
 10
0.0
 20
0.0
 30
0.0
  9
$PUCSXDIR
 10
1.0
 20
0.0
 30
0.0
  9
$PUCSYDIR
 10
0.0
 20
1.0
 30
0.0
  9
$USERI1
 70
     0
  9
$USERI2
 70
     0
  9
$USERI3
 70
     0
  9
$USERI4
 70
     0
  9
$USERI5
 70
     0
  9
$USERR1
 40
0.0
  9
$USERR2
 40
0.0
  9
$USERR3
 40
0.0
  9
$USERR4
 40
0.0
  9
$USERR5
 40
0.0
  9
$WORLDVIEW
 70
     1
  9
$SHADEDGE
 70
     3
  9
$SHADEDIF
 70
    70
  9
$TILEMODE
 70
     1
  9
$MAXACTVP
 70
    16
  9
$PINSBASE
 10
0.0
 20
0.0
 30
0.0
  9
$PLIMCHECK
 70
     0
  9
$PEXTMIN
 10
0.0
 20
0.0
 30
0.0
  9
$PEXTMAX
 10
420.0
 20
297.0
 30
0.0
  9
$PLIMMIN
 10
0.0
 20
0.0
  9
$PLIMMAX
 10
420.0
 20
297.0
  9
$UNITMODE
 70
     0
  9
$VISRETAIN
 70
     0
  9
$PLINEGEN
 70
     0
  9
$PSLTSCALE
 70
     1
  9
$TREEDEPTH
 70
  3020
  9
$PICKSTYLE
 70
     1
  9
$CMLSTYLE
  2
STANDARD
  9
$CMLJUST
 70
     0
  9
$CMLSCALE
 40
1.0
  9
$SAVEIMAGES
 70
     1
  0
ENDSEC
  0
SECTION
  2
CLASSES
  0
CLASS
  1
ACDBDICTIONARYWDFLT
  2
AcDbDictionaryWithDefault
  3
AutoCAD 2000
 90
    32768
280
     0
281
     0
  0
CLASS
  1
ACDBPLACEHOLDER
  2
AcDbPlaceHolder
  3
AutoCAD 2000
 90
    32768
280
     0
281
     0
  0
CLASS
  1
LAYOUT
  2
AcDbLayout
  3
AutoCAD 2000
 90
    32768
280
     0
281
     0
  0
CLASS
  1
DICTIONARYVAR
  2
AcDbDictionaryVar
  3
AutoCAD 2000
 90
    32768
280
     0
281
     0
  0
CLASS
  1
LONG_TRANSACTION
  2
AcDbLongTransaction
  3
AutoCAD 2000
 90
    32768
280
     0
281
     0
  0
CLASS
  1
LWPOLYLINE
  2
AcDbPolyline
  3
AutoCAD 2000
 90
    32768
280
     0
281
     1
  0
CLASS
  1
HATCH
  2
AcDbHatch
  3
AutoCAD 2000
 90
    32768
280
     0
281
     1
  0
CLASS
  1
XRECORD
  2
AcDbXrecord
  3
AutoCAD 2000
 90
    32768
280
     0
281
     0
  0
CLASS
  1
LONG_TRANSACTION
  2
AcDbLongTransaction
  3
AutoCAD 2000
 90
    32768
280
     0
281
     0
  0
CLASS
  1
LWPOLYLINE
  2
AcDbPolyline
  3
AutoCAD 2000
 90
    32768
280
     0
281
     1
  0
CLASS
  1
HATCH
  2
AcDbHatch
  3
AutoCAD 2000
 90
    32768
280
     0
281
     1
  0
CLASS
  1
XRECORD
  2
AcDbXrecord
  3
AutoCAD 2000
 90
    32768
280
     0
281
     0
  0
CLASS
  1
LONG_TRANSACTION
  2
AcDbLongTransaction
  3
AutoCAD 2000
 90
    32768
280
     0
281
     0
  0
CLASS
  1
LWPOLYLINE
  2
AcDbPolyline
  3
AutoCAD 2000
 90
    32768
280
     0
281
     1
  0
CLASS
  1
HATCH
  2
AcDbHatch
  3
AutoCAD 2000
 90
    32768
280
     0
281
     1
  0
CLASS
  1
XRECORD
  2
AcDbXrecord
  3
AutoCAD 2000
 90
    32768
280
     0
281
     0
  0
CLASS
  1
LONG_TRANSACTION
  2
AcDbLongTransaction
  3
AutoCAD 2000
 90
    32768
280
     0
281
     0
  0
CLASS
  1
LWPOLYLINE
  2
AcDbPolyline
  3
AutoCAD 2000
 90
    32768
280
     0
281
     1
  0
CLASS
  1
HATCH
  2
AcDbHatch
  3
AutoCAD 2000
 90
    32768
280
     0
281
     1
  0
CLASS
  1
XRECORD
  2
AcDbXrecord
  3
AutoCAD 2000
 90
    32768
280
     0
281
     0
  0
CLASS
  1
LONG_TRANSACTION
  2
AcDbLongTransaction
  3
AutoCAD 2000
 90
    32768
280
     0
281
     0
  0
CLASS
  1
LWPOLYLINE
  2
AcDbPolyline
  3
AutoCAD 2000
 90
    32768
280
     0
281
     1
  0
CLASS
  1
HATCH
  2
AcDbHatch
  3
AutoCAD 2000
 90
    32768
280
     0
281
     1
  0
CLASS
  1
XRECORD
  2
AcDbXrecord
  3
AutoCAD 2000
 90
    32768
280
     0
281
     0
  0
CLASS
  1
LONG_TRANSACTION
  2
AcDbLongTransaction
  3
AutoCAD 2000
 90
    32768
280
     0
281
     0
  0
CLASS
  1
LWPOLYLINE
  2
AcDbPolyline
  3
AutoCAD 2000
 90
    32768
280
     0
281
     1
  0
CLASS
  1
HATCH
  2
AcDbHatch
  3
AutoCAD 2000
 90
    32768
280
     0
281
     1
  0
CLASS
  1
XRECORD
  2
AcDbXrecord
  3
AutoCAD 2000
 90
    32768
280
     0
281
     0
  0
CLASS
  1
LONG_TRANSACTION
  2
AcDbLongTransaction
  3
AutoCAD 2000
 90
    32768
280
     0
281
     0
  0
CLASS
  1
LWPOLYLINE
  2
AcDbPolyline
  3
AutoCAD 2000
 90
    32768
280
     0
281
     1
  0
CLASS
  1
HATCH
  2
AcDbHatch
  3
AutoCAD 2000
 90
    32768
280
     0
281
     1
  0
CLASS
  1
XRECORD
  2
AcDbXrecord
  3
AutoCAD 2000
 90
    32768
280
     0
281
     0
  0
ENDSEC
  0
SECTION
  2
TABLES
  0
TABLE
  2
VPORT
  5
8
330
0
100
AcDbSymbolTable
 70
     2
  0
VPORT
  5
8B9
330
8
100
AcDbSymbolTableRecord
100
AcDbViewportTableRecord
  2
*ACTIVE
 70
     0
 10
0.0
 20
0.0
 11
1.0
 21
1.0
 12
274.7342522302044
 22
144.6622580018687
 13
0.0
 23
0.0
 14
5.0
 24
5.0
 15
0.0
 25
0.0
 16
0.0
 26
0.0
 36
1.0
 17
0.0
 27
0.0
 37
0.0
 40
295.419059457535
 41
2.169459962756052
 42
50.0
 43
0.0
 44
0.0
 50
0.0
 51
0.0
 71
     0
 72
   100
 73
     1
 74
     0
 75
     0
 76
     0
 77
     0
 78
     0
  0
ENDTAB
  0
TABLE
  2
LTYPE
  5
5
330
0
100
AcDbSymbolTable
 70
     2
  0
LTYPE
  5
14
330
5
100
AcDbSymbolTableRecord
100
AcDbLinetypeTableRecord
  2
BYBLOCK
 70
     0
  3

 72
    65
 73
     0
 40
0.0
  0
LTYPE
  5
15
330
5
100
AcDbSymbolTableRecord
100
AcDbLinetypeTableRecord
  2
BYLAYER
 70
     0
  3

 72
    65
 73
     0
 40
0.0
  0
LTYPE
  5
16
330
5
100
AcDbSymbolTableRecord
100
AcDbLinetypeTableRecord
  2
CONTINUOUS
 70
     0
  3
Solid line
 72
    65
 73
     0
 40
0.0
  0
LTYPE
  5
120
330
5
100
AcDbSymbolTableRecord
100
AcDbLinetypeTableRecord
  2
CENTER
 70
     0
  3
____ _ ____ _ ____ _ ____ _ ____ _ ____ _ ____ 
 72
    65
 73
     4
 40
2.0
 49
1.25
 74
     0
 49
-0.25
 74
     0
 49
0.25
 74
     0
 49
-0.25
 74
     0
  0
ENDTAB
  0
TABLE
  2
LAYER
  5
2
330
0
100
AcDbSymbolTable
 70
     7
  0
LAYER
  5
F
330
2
100
AcDbSymbolTableRecord
100
AcDbLayerTableRecord
  2
0
 70
     0
 62
     7
  6
CONTINUOUS
  0
LAYER
  5
62
330
2
100
AcDbSymbolTableRecord
100
AcDbLayerTableRecord
  2
VIEWPORT
 70
     0
 62
     7
  6
CONTINUOUS
  0
LAYER
  5
6B
330
2
100
AcDbSymbolTableRecord
100
AcDbLayerTableRecord
  2
ZUWAKU
 70
     0
 62
     7
  6
CONTINUOUS
  0
LAYER
  5
134
330
2
100
AcDbSymbolTableRecord
100
AcDbLayerTableRecord
  2
SEIHIN
 70
     0
 62
     3
  6
CONTINUOUS
  0
LAYER
  5
1D5
330
2
100
AcDbSymbolTableRecord
100
AcDbLayerTableRecord
  2
SUNPOU
 70
     0
 62
     4
  6
CONTINUOUS
  0
LAYER
  5
1D6
330
2
100
AcDbSymbolTableRecord
100
AcDbLayerTableRecord
  2
CENTER_L
 70
     0
 62
     1
  6
CENTER
  0
LAYER
  5
1E9
330
2
100
AcDbSymbolTableRecord
100
AcDbLayerTableRecord
  2
DEFPOINTS
 70
     0
 62
     7
  6
CONTINUOUS
  0
ENDTAB
  0
TABLE
  2
STYLE
  5
3
330
0
100
AcDbSymbolTable
 70
     2
  0
STYLE
  5
10
330
3
100
AcDbSymbolTableRecord
100
AcDbTextStyleTableRecord
  2
STANDARD
 70
     0
 40
0.0
 41
1.0
 50
0.0
 71
     0
 42
2.5
  3
TXT
  4
a:\program files\autocad lt\ms\bigfont.shx
  0
STYLE
  5
300
330
3
100
AcDbSymbolTableRecord
100
AcDbTextStyleTableRecord
  2
STYLE1
 70
     0
 40
0.0
 41
1.0
 50
0.0
 71
     0
 42
2.5
  3
TXT
  4
a:\program files\autocad lt\ms\bigfont.shx
  0
ENDTAB
  0
TABLE
  2
VIEW
  5
6
330
0
100
AcDbSymbolTable
 70
     0
  0
ENDTAB
  0
TABLE
  2
UCS
  5
7
330
0
100
AcDbSymbolTable
 70
     0
  0
ENDTAB
  0
TABLE
  2
APPID
  5
9
330
0
100
AcDbSymbolTable
 70
     1
  0
APPID
  5
11
330
9
100
AcDbSymbolTableRecord
100
AcDbRegAppTableRecord
  2
ACAD
 70
     0
  0
ENDTAB
  0
TABLE
  2
DIMSTYLE
  5
A
330
0
100
AcDbSymbolTable
 70
     1
  0
DIMSTYLE
105
1D
102
{ACAD_REACTORS
330
215
330
23B
330
26D
330
29B
330
452
330
4B3
330
58A
330
597
330
5A4
330
5BE
330
5E2
330
5EF
330
6E5
102
}
330
A
100
AcDbSymbolTableRecord
100
AcDbDimStyleTableRecord
  2
STANDARD
 70
     0
  3

  4

  5

  6

  7

 40
1.0
 41
0.18
 42
0.0625
 43
0.38
 44
0.18
 45
0.0
 46
0.0
 47
0.0
 48
0.0
140
0.18
141
0.09
142
0.0
143
25.4
144
1.0
145
0.0
146
1.0
147
0.09
 71
     0
 72
     0
 73
     1
 74
     1
 75
     0
 76
     0
 77
     0
 78
     0
170
     0
171
     2
172
     0
173
     0
174
     0
175
     0
176
     0
177
     0
178
     0
270
     2
271
     4
272
     4
273
     2
274
     2
340
10
275
     0
280
     0
281
     0
282
     0
283
     1
284
     0
285
     0
286
     0
287
     3
288
     0
  0
ENDTAB
  0
TABLE
  2
BLOCK_RECORD
  5
1
330
0
100
AcDbSymbolTable
 70
    14
  0
BLOCK_RECORD
  5
1A
102
{ACAD_XDICTIONARY
360
71A
102
}
330
1
100
AcDbSymbolTableRecord
100
AcDbBlockTableRecord
  2
*MODEL_SPACE
  0
BLOCK_RECORD
  5
17
102
{ACAD_XDICTIONARY
360
718
102
}
330
1
100
AcDbSymbolTableRecord
100
AcDbBlockTableRecord
  2
*PAPER_SPACE
  0
BLOCK_RECORD
  5
B2
330
1
100
AcDbSymbolTableRecord
100
AcDbBlockTableRecord
  2
_OPEN
  0
BLOCK_RECORD
  5
209
330
1
100
AcDbSymbolTableRecord
100
AcDbBlockTableRecord
  2
*D1
  0
BLOCK_RECORD
  5
22F
330
1
100
AcDbSymbolTableRecord
100
AcDbBlockTableRecord
  2
*D2
  0
BLOCK_RECORD
  5
261
330
1
100
AcDbSymbolTableRecord
100
AcDbBlockTableRecord
  2
*D3
  0
BLOCK_RECORD
  5
28D
330
1
100
AcDbSymbolTableRecord
100
AcDbBlockTableRecord
  2
*D4
  0
BLOCK_RECORD
  5
4EB
330
1
100
AcDbSymbolTableRecord
100
AcDbBlockTableRecord
  2
*D5
  0
BLOCK_RECORD
  5
531
330
1
100
AcDbSymbolTableRecord
100
AcDbBlockTableRecord
  2
*D6
  0
BLOCK_RECORD
  5
58B
330
1
100
AcDbSymbolTableRecord
100
AcDbBlockTableRecord
  2
*D7
  0
BLOCK_RECORD
  5
598
330
1
100
AcDbSymbolTableRecord
100
AcDbBlockTableRecord
  2
*D8
  0
BLOCK_RECORD
  5
5A5
330
1
100
AcDbSymbolTableRecord
100
AcDbBlockTableRecord
  2
*D9
  0
BLOCK_RECORD
  5
5BF
330
1
100
AcDbSymbolTableRecord
100
AcDbBlockTableRecord
  2
*D10
  0
BLOCK_RECORD
  5
5E3
330
1
100
AcDbSymbolTableRecord
100
AcDbBlockTableRecord
  2
*D11
  0
BLOCK_RECORD
  5
5F0
330
1
100
AcDbSymbolTableRecord
100
AcDbBlockTableRecord
  2
*D12
  0
BLOCK_RECORD
  5
6E6
330
1
100
AcDbSymbolTableRecord
100
AcDbBlockTableRecord
  2
*D13
  0
ENDTAB
  0
ENDSEC
  0
SECTION
  2
BLOCKS
  0
BLOCK
  5
1B
330
1A
100
AcDbEntity
  8
0
100
AcDbBlockBegin
  2
*MODEL_SPACE
 70
     0
 10
0.0
 20
0.0
 30
0.0
  3
*MODEL_SPACE
  1

  0
ENDBLK
  5
1C
330
1A
100
AcDbEntity
  8
0
100
AcDbBlockEnd
  0
BLOCK
  5
18
330
17
100
AcDbEntity
 67
     1
  8
0
100
AcDbBlockBegin
  2
*PAPER_SPACE
 70
     0
 10
0.0
 20
0.0
 30
0.0
  3
*PAPER_SPACE
  1

  0
ENDBLK
  5
19
330
17
100
AcDbEntity
 67
     1
  8
0
100
AcDbBlockEnd
  0
BLOCK
  5
B3
330
B2
100
AcDbEntity
  8
0
100
AcDbBlockBegin
  2
_OPEN
 70
     0
 10
0.0
 20
0.0
 30
0.0
  3
_OPEN
  1

  0
LINE
  5
B4
330
B2
100
AcDbEntity
  8
0
  6
BYBLOCK
 62
     0
100
AcDbLine
 10
-1.0
 20
0.1666666666666666
 30
0.0
 11
0.0
 21
0.0
 31
0.0
  0
LINE
  5
B5
330
B2
100
AcDbEntity
  8
0
  6
BYBLOCK
 62
     0
100
AcDbLine
 10
0.0
 20
0.0
 30
0.0
 11
-1.0
 21
-0.1666666666666666
 31
0.0
  0
LINE
  5
B6
330
B2
100
AcDbEntity
  8
0
  6
BYBLOCK
 62
     0
100
AcDbLine
 10
0.0
 20
0.0
 30
0.0
 11
-1.0
 21
0.0
 31
0.0
  0
ENDBLK
  5
B7
330
B2
100
AcDbEntity
  8
0
100
AcDbBlockEnd
  0
BLOCK
  5
20A
330
209
100
AcDbEntity
  8
0
 48
5.0
100
AcDbBlockBegin
  2
*D1
 70
     1
 10
0.0
 20
0.0
 30
0.0
  3
*D1
  1

  0
LINE
  5
617
330
209
100
AcDbEntity
  8
SUNPOU
 62
     4
 48
5.0
100
AcDbLine
 10
143.5066477532329
 20
104.5796747324747
 30
0.0
 11
175.5834877593179
 21
104.5796747324747
 31
0.0
  0
LINE
  5
618
330
209
100
AcDbEntity
  8
SUNPOU
 62
     4
 48
5.0
100
AcDbLine
 10
128.5067477532329
 20
87.57967473247475
 30
0.0
 11
175.5834877593179
 21
87.57967473247473
 31
0.0
  0
LINE
  5
619
330
209
100
AcDbEntity
  8
SUNPOU
 62
     4
 48
5.0
100
AcDbLine
 10
174.0834877593179
 20
101.5796747324747
 30
0.0
 11
174.0834877593179
 21
90.57967473247474
 31
0.0
  0
INSERT
  5
61A
330
209
100
AcDbEntity
  8
SUNPOU
 62
     4
 48
5.0
100
AcDbBlockReference
  2
_OPEN
 10
174.0834877593179
 20
104.5796747324747
 30
0.0
 41
3.0
 42
3.0
 43
3.0
 50
90.0
  0
INSERT
  5
61B
330
209
100
AcDbEntity
  8
SUNPOU
 62
     4
 48
5.0
100
AcDbBlockReference
  2
_OPEN
 10
174.0834877593179
 20
87.57967473247473
 30
0.0
 41
3.0
 42
3.0
 43
3.0
 50
270.0
  0
MTEXT
  5
61C
330
209
100
AcDbEntity
  8
SUNPOU
 62
     4
 48
5.0
100
AcDbMText
 10
171.5834877593178
 20
96.07967473247477
 30
0.0
 40
3.0
 41
0.0
 71
     5
 72
     1
  1
\A1;17
 11
0.0000000000000001
 21
1.0
 31
0.0
1001
ACAD
1000
MTEXTBEGIN
1070
    73
1070
     1
1070
    44
1040
1.0
1070
    74
1070
     0
1000
MTEXTEND
1000
MTEXTBEGIN
1070
    73
1070
     1
1070
    44
1040
1.0
1070
    74
1070
     0
1000
MTEXTEND
1000
MTEXTBEGIN
1070
    73
1070
     1
1070
    44
1040
1.0
1070
    74
1070
     0
1000
MTEXTEND
1000
MTEXTBEGIN
1070
    73
1070
     1
1070
    44
1040
1.0
1070
    74
1070
     0
1000
MTEXTEND
1000
MTEXTBEGIN
1070
    73
1070
     1
1070
    44
1040
1.0
1070
    74
1070
     0
1000
MTEXTEND
1000
MTEXTBEGIN
1070
    73
1070
     1
1070
    44
1040
1.0
1070
    74
1070
     0
1000
MTEXTEND
1000
MTEXTBEGIN
1070
    73
1070
     1
1070
    44
1040
1.0
1070
    74
1070
     0
1000
MTEXTEND
  0
POINT
  5
61D
330
209
100
AcDbEntity
  8
DEFPOINTS
 62
     0
 48
5.0
100
AcDbPoint
 10
140.5066477532329
 20
104.5796747324747
 30
0.0
  0
POINT
  5
61E
330
209
100
AcDbEntity
  8
DEFPOINTS
 62
     0
 48
5.0
100
AcDbPoint
 10
125.5067477532329
 20
87.57967473247475
 30
0.0
  0
POINT
  5
61F
330
209
100
AcDbEntity
  8
DEFPOINTS
 62
     0
 48
5.0
100
AcDbPoint
 10
174.0834877593179
 20
87.57967473247473
 30
0.0
  0
ENDBLK
  5
214
330
209
100
AcDbEntity
  8
0
 48
5.0
100
AcDbBlockEnd
  0
BLOCK
  5
230
330
22F
100
AcDbEntity
  8
0
 48
5.0
100
AcDbBlockBegin
  2
*D2
 70
     1
 10
0.0
 20
0.0
 30
0.0
  3
*D2
  1

  0
LINE
  5
60E
330
22F
100
AcDbEntity
  8
SUNPOU
 62
     4
 48
5.0
100
AcDbLine
 10
110.7995409718285
 20
80.87246795150599
 30
0.0
 11
110.7995409718285
 21
62.14087356465063
 31
0.0
  0
LINE
  5
60F
330
22F
100
AcDbEntity
  8
SUNPOU
 62
     4
 48
5.0
100
AcDbLine
 10
145.5067477532329
 20
80.57957473247473
 30
0.0
 11
145.5067477532329
 21
62.14087356465063
 31
0.0
  0
LINE
  5
610
330
22F
100
AcDbEntity
  8
SUNPOU
 62
     4
 48
5.0
100
AcDbLine
 10
113.7995409718285
 20
63.64087356465063
 30
0.0
 11
142.5067477532329
 21
63.64087356465063
 31
0.0
  0
INSERT
  5
611
330
22F
100
AcDbEntity
  8
SUNPOU
 62
     4
 48
5.0
100
AcDbBlockReference
  2
_OPEN
 10
110.7995409718285
 20
63.64087356465063
 30
0.0
 41
3.0
 42
3.0
 43
3.0
 50
180.0
  0
INSERT
  5
612
330
22F
100
AcDbEntity
  8
SUNPOU
 62
     4
 48
5.0
100
AcDbBlockReference
  2
_OPEN
 10
145.5067477532329
 20
63.64087356465063
 30
0.0
 41
3.0
 42
3.0
 43
3.0
  0
MTEXT
  5
613
330
22F
100
AcDbEntity
  8
SUNPOU
 62
     4
 48
5.0
100
AcDbMText
 10
128.1531443625307
 20
66.14087356465063
 30
0.0
 40
3.0
 41
0.0
 71
     5
 72
     1
  1
\A1;35
1001
ACAD
1000
MTEXTBEGIN
1070
    73
1070
     1
1070
    44
1040
1.0
1070
    74
1070
     0
1000
MTEXTEND
1000
MTEXTBEGIN
1070
    73
1070
     1
1070
    44
1040
1.0
1070
    74
1070
     0
1000
MTEXTEND
1000
MTEXTBEGIN
1070
    73
1070
     1
1070
    44
1040
1.0
1070
    74
1070
     0
1000
MTEXTEND
1000
MTEXTBEGIN
1070
    73
1070
     1
1070
    44
1040
1.0
1070
    74
1070
     0
1000
MTEXTEND
1000
MTEXTBEGIN
1070
    73
1070
     1
1070
    44
1040
1.0
1070
    74
1070
     0
1000
MTEXTEND
1000
MTEXTBEGIN
1070
    73
1070
     1
1070
    44
1040
1.0
1070
    74
1070
     0
1000
MTEXTEND
1000
MTEXTBEGIN
1070
    73
1070
     1
1070
    44
1040
1.0
1070
    74
1070
     0
1000
MTEXTEND
  0
POINT
  5
614
330
22F
100
AcDbEntity
  8
DEFPOINTS
 62
     0
 48
5.0
100
AcDbPoint
 10
110.7995409718285
 20
83.872467951506
 30
0.0
  0
POINT
  5
615
330
22F
100
AcDbEntity
  8
DEFPOINTS
 62
     0
 48
5.0
100
AcDbPoint
 10
145.5067477532329
 20
83.57957473247472
 30
0.0
  0
POINT
  5
616
330
22F
100
AcDbEntity
  8
DEFPOINTS
 62
     0
 48
5.0
100
AcDbPoint
 10
145.5067477532329
 20
63.64087356465063
 30
0.0
  0
ENDBLK
  5
23A
330
22F
100
AcDbEntity
  8
0
 48
5.0
100
AcDbBlockEnd
  0
BLOCK
  5
262
330
261
100
AcDbEntity
  8
0
 48
5.0
100
AcDbBlockBegin
  2
*D3
 70
     1
 10
0.0
 20
0.0
 30
0.0
  3
*D3
  1

  0
LINE
  5
658
330
261
100
AcDbEntity
  8
SUNPOU
 62
     4
 48
5.0
100
AcDbLine
 10
272.9138981313335
 20
80.57967473247476
 30
0.0
 11
272.9138981313335
 21
62.14087356465063
 31
0.0
  0
LINE
  5
659
330
261
100
AcDbEntity
  8
SUNPOU
 62
     4
 48
5.0
100
AcDbLine
 10
292.9138981313335
 20
80.57967473247476
 30
0.0
 11
292.9138981313335
 21
62.14087356465063
 31
0.0
  0
LINE
  5
65A
330
261
100
AcDbEntity
  8
SUNPOU
 62
     4
 48
5.0
100
AcDbLine
 10
275.9138981313335
 20
63.64087356465063
 30
0.0
 11
289.9138981313335
 21
63.64087356465063
 31
0.0
  0
INSERT
  5
65B
330
261
100
AcDbEntity
  8
SUNPOU
 62
     4
 48
5.0
100
AcDbBlockReference
  2
_OPEN
 10
272.9138981313335
 20
63.64087356465063
 30
0.0
 41
3.0
 42
3.0
 43
3.0
 50
180.0
  0
INSERT
  5
65C
330
261
100
AcDbEntity
  8
SUNPOU
 62
     4
 48
5.0
100
AcDbBlockReference
  2
_OPEN
 10
292.9138981313335
 20
63.64087356465063
 30
0.0
 41
3.0
 42
3.0
 43
3.0
  0
MTEXT
  5
65D
330
261
100
AcDbEntity
  8
SUNPOU
 62
     4
 48
5.0
100
AcDbMText
 10
282.9138981313335
 20
66.14087356465063
 30
0.0
 40
3.0
 41
0.0
 71
     5
 72
     1
  1
\A1;20
1001
ACAD
1000
MTEXTBEGIN
1070
    73
1070
     1
1070
    44
1040
1.0
1070
    74
1070
     0
1000
MTEXTEND
1000
MTEXTBEGIN
1070
    73
1070
     1
1070
    44
1040
1.0
1070
    74
1070
     0
1000
MTEXTEND
1000
MTEXTBEGIN
1070
    73
1070
     1
1070
    44
1040
1.0
1070
    74
1070
     0
1000
MTEXTEND
1000
MTEXTBEGIN
1070
    73
1070
     1
1070
    44
1040
1.0
1070
    74
1070
     0
1000
MTEXTEND
1000
MTEXTBEGIN
1070
    73
1070
     1
1070
    44
1040
1.0
1070
    74
1070
     0
1000
MTEXTEND
1000
MTEXTBEGIN
1070
    73
1070
     1
1070
    44
1040
1.0
1070
    74
1070
     0
1000
MTEXTEND
1000
MTEXTBEGIN
1070
    73
1070
     1
1070
    44
1040
1.0
1070
    74
1070
     0
1000
MTEXTEND
  0
POINT
  5
65E
330
261
100
AcDbEntity
  8
DEFPOINTS
 62
     0
 48
5.0
100
AcDbPoint
 10
272.9138981313335
 20
83.57967473247475
 30
0.0
  0
POINT
  5
65F
330
261
100
AcDbEntity
  8
DEFPOINTS
 62
     0
 48
5.0
100
AcDbPoint
 10
292.9138981313335
 20
83.57967473247475
 30
0.0
  0
POINT
  5
660
330
261
100
AcDbEntity
  8
DEFPOINTS
 62
     0
 48
5.0
100
AcDbPoint
 10
292.9138981313335
 20
63.64087356465063
 30
0.0
  0
ENDBLK
  5
26C
330
261
100
AcDbEntity
  8
0
 48
5.0
100
AcDbBlockEnd
  0
BLOCK
  5
2E1
330
28D
100
AcDbEntity
  8
0
 48
5.0
100
AcDbBlockBegin
  2
*D4
 70
     1
 10
0.0
 20
0.0
 30
0.0
  3
*D4
  1

  0
LINE
  5
620
330
28D
100
AcDbEntity
  8
SUNPOU
 62
     4
 48
5.0
100
AcDbLine
 10
116.6271280637597
 20
84.57965505572538
 30
0.0
 11
119.4707941130157
 21
84.57965505572538
 31
0.0
  0
LINE
  5
621
330
28D
100
AcDbEntity
  8
SUNPOU
 62
     4
 48
5.0
100
AcDbLine
 10
116.6271280637597
 20
83.57957473247472
 30
0.0
 11
119.4707941130157
 21
83.57957473247472
 31
0.0
  0
LINE
  5
622
330
28D
100
AcDbEntity
  8
SUNPOU
 62
     4
 48
5.0
100
AcDbLine
 10
117.9707941130156
 20
87.57965505572538
 30
0.0
 11
117.9707941130156
 21
90.57965505572537
 31
0.0
  0
LINE
  5
623
330
28D
100
AcDbEntity
  8
SUNPOU
 62
     4
 48
5.0
100
AcDbLine
 10
117.9707941130156
 20
80.57957473247473
 30
0.0
 11
117.9707941130156
 21
68.07957473247473
 31
0.0
  0
LINE
  5
624
330
28D
100
AcDbEntity
  8
SUNPOU
 62
     4
 48
5.0
100
AcDbLine
 10
117.9707941130156
 20
84.57965505572538
 30
0.0
 11
117.9707941130156
 21
83.57957473247472
 31
0.0
  0
INSERT
  5
625
330
28D
100
AcDbEntity
  8
SUNPOU
 62
     4
 48
5.0
100
AcDbBlockReference
  2
_OPEN
 10
117.9707941130156
 20
84.57965505572538
 30
0.0
 41
3.0
 42
3.0
 43
3.0
 50
270.0
  0
INSERT
  5
626
330
28D
100
AcDbEntity
  8
SUNPOU
 62
     4
 48
5.0
100
AcDbBlockReference
  2
_OPEN
 10
117.9707941130156
 20
83.57957473247472
 30
0.0
 41
3.0
 42
3.0
 43
3.0
 50
90.0
  0
MTEXT
  5
627
330
28D
100
AcDbEntity
  8
SUNPOU
 62
     4
 48
5.0
100
AcDbMText
 10
115.4707941130156
 20
72.82957473247475
 30
0.0
 40
3.0
 41
0.0
 71
     5
 72
     1
  1
\A1;t1.0
 11
0.0000000000000001
 21
1.0
 31
0.0
1001
ACAD
1000
MTEXTBEGIN
1070
    73
1070
     1
1070
    44
1040
1.0
1070
    74
1070
     0
1000
MTEXTEND
1000
MTEXTBEGIN
1070
    73
1070
     1
1070
    44
1040
1.0
1070
    74
1070
     0
1000
MTEXTEND
1000
MTEXTBEGIN
1070
    73
1070
     1
1070
    44
1040
1.0
1070
    74
1070
     0
1000
MTEXTEND
1000
MTEXTBEGIN
1070
    73
1070
     1
1070
    44
1040
1.0
1070
    74
1070
     0
1000
MTEXTEND
1000
MTEXTBEGIN
1070
    73
1070
     1
1070
    44
1040
1.0
1070
    74
1070
     0
1000
MTEXTEND
1000
MTEXTBEGIN
1070
    73
1070
     1
1070
    44
1040
1.0
1070
    74
1070
     0
1000
MTEXTEND
1000
MTEXTBEGIN
1070
    73
1070
     1
1070
    44
1040
1.0
1070
    74
1070
     0
1000
MTEXTEND
  0
POINT
  5
628
330
28D
100
AcDbEntity
  8
DEFPOINTS
 62
     0
 48
5.0
100
AcDbPoint
 10
113.6271280637597
 20
84.57965505572538
 30
0.0
  0
POINT
  5
629
330
28D
100
AcDbEntity
  8
DEFPOINTS
 62
     0
 48
5.0
100
AcDbPoint
 10
113.6271280637597
 20
83.57957473247472
 30
0.0
  0
POINT
  5
62A
330
28D
100
AcDbEntity
  8
DEFPOINTS
 62
     0
 48
5.0
100
AcDbPoint
 10
117.9707941130156
 20
83.57957473247472
 30
0.0
  0
ENDBLK
  5
2ED
330
28D
100
AcDbEntity
  8
0
 48
5.0
100
AcDbBlockEnd
  0
BLOCK
  5
4F1
330
4EB
100
AcDbEntity
  8
0
 48
5.0
100
AcDbBlockBegin
  2
*D5
 70
     1
 10
0.0
 20
0.0
 30
0.0
  3
*D5
  1

  0
LINE
  5
771
330
4EB
100
AcDbEntity
  8
SUNPOU
 62
     4
 48
5.0
100
AcDbLine
 10
290.5509936889531
 20
146.7415197615576
 30
0.0
 11
307.038590239107
 21
138.4560770421461
 31
0.0
  0
MTEXT
  5
772
330
4EB
100
AcDbEntity
  8
SUNPOU
 62
     4
 48
5.0
100
AcDbMText
 10
295.9177715875905
 20
146.8424899883441
 30
0.0
 40
3.0
 41
0.0
 71
     5
 72
     1
  1
\A1;\U+220560
 11
0.8935226233576957
 21
-0.4490181750753319
 31
0.0
1001
ACAD
1000
MTEXTBEGIN
1070
    73
1070
     1
1070
    44
1040
1.0
1070
    74
1070
     0
1000
MTEXTEND
1000
MTEXTBEGIN
1070
    73
1070
     1
1070
    44
1040
1.0
1070
    74
1070
     0
1000
MTEXTEND
1000
MTEXTBEGIN
1070
    73
1070
     1
1070
    44
1040
1.0
1070
    74
1070
     0
1000
MTEXTEND
1000
MTEXTBEGIN
1070
    73
1070
     1
1070
    44
1040
1.0
1070
    74
1070
     0
1000
MTEXTEND
1000
MTEXTBEGIN
1070
    73
1070
     1
1070
    44
1040
1.0
1070
    74
1070
     0
1000
MTEXTEND
1000
MTEXTBEGIN
1070
    73
1070
     1
1070
    44
1040
1.0
1070
    74
1070
     0
1000
MTEXTEND
  0
INSERT
  5
773
330
4EB
100
AcDbEntity
  8
SUNPOU
 62
     4
 48
5.0
100
AcDbBlockReference
  2
_OPEN
 10
309.7191581091801
 20
137.1090225169202
 30
0.0
 41
3.0
 42
3.0
 43
3.0
 50
333.3192914845278
  0
POINT
  5
774
330
4EB
100
AcDbEntity
  8
DEFPOINTS
 62
     0
 48
5.0
100
AcDbPoint
 10
309.7191581091801
 20
137.1090225169202
 30
0.0
  0
POINT
  5
775
330
4EB
100
AcDbEntity
  8
DEFPOINTS
 62
     0
 48
5.0
100
AcDbPoint
 10
256.107760957592
 20
164.0501329969043
 30
0.0
  0
ENDBLK
  5
4F2
330
4EB
100
AcDbEntity
  8
0
 48
5.0
100
AcDbBlockEnd
  0
BLOCK
  5
53B
330
531
100
AcDbEntity
  8
0
 48
5.0
100
AcDbBlockBegin
  2
*D6
 70
     1
 10
0.0
 20
0.0
 30
0.0
  3
*D6
  1

  0
LINE
  5
63D
330
531
100
AcDbEntity
  8
SUNPOU
  6
CONTINUOUS
 62
     4
 48
5.0
100
AcDbLine
 10
139.5065977532329
 20
185.5796747324747
 30
0.0
 11
139.5065977532329
 21
210.6896895031908
 31
0.0
  0
LINE
  5
63E
330
531
100
AcDbEntity
  8
SUNPOU
  6
CONTINUOUS
 62
     4
 48
5.0
100
AcDbLine
 10
121.506597753233
 20
185.5796747324747
 30
0.0
 11
121.506597753233
 21
210.6896895031908
 31
0.0
  0
LINE
  5
63F
330
531
100
AcDbEntity
  8
SUNPOU
  6
CONTINUOUS
 62
     4
 48
5.0
100
AcDbLine
 10
136.5065977532329
 20
209.1896895031907
 30
0.0
 11
124.506597753233
 21
209.1896895031907
 31
0.0
  0
INSERT
  5
640
330
531
100
AcDbEntity
  8
SUNPOU
  6
CONTINUOUS
 62
     4
 48
5.0
100
AcDbBlockReference
  2
_OPEN
 10
139.5065977532329
 20
209.1896895031907
 30
0.0
 41
3.0
 42
3.0
 43
3.0
  0
INSERT
  5
641
330
531
100
AcDbEntity
  8
SUNPOU
  6
CONTINUOUS
 62
     4
 48
5.0
100
AcDbBlockReference
  2
_OPEN
 10
121.506597753233
 20
209.1896895031907
 30
0.0
 41
3.0
 42
3.0
 43
3.0
 50
180.0
  0
MTEXT
  5
642
330
531
100
AcDbEntity
  8
SUNPOU
  6
CONTINUOUS
 62
     4
 48
5.0
100
AcDbMText
 10
131.5881215845014
 20
211.6896895031907
 30
0.0
 40
3.0
 41
0.0
 71
     5
 72
     1
  1
\A1;18
1001
ACAD
1000
MTEXTBEGIN
1070
    73
1070
     1
1070
    44
1040
1.0
1070
    74
1070
     0
1000
MTEXTEND
1000
MTEXTBEGIN
1070
    73
1070
     1
1070
    44
1040
1.0
1070
    74
1070
     0
1000
MTEXTEND
1000
MTEXTBEGIN
1070
    73
1070
     1
1070
    44
1040
1.0
1070
    74
1070
     0
1000
MTEXTEND
1000
MTEXTBEGIN
1070
    73
1070
     1
1070
    44
1040
1.0
1070
    74
1070
     0
1000
MTEXTEND
1000
MTEXTBEGIN
1070
    73
1070
     1
1070
    44
1040
1.0
1070
    74
1070
     0
1000
MTEXTEND
1000
MTEXTBEGIN
1070
    73
1070
     1
1070
    44
1040
1.0
1070
    74
1070
     0
1000
MTEXTEND
1000
MTEXTBEGIN
1070
    73
1070
     1
1070
    44
1040
1.0
1070
    74
1070
     0
1000
MTEXTEND
  0
POINT
  5
643
330
531
100
AcDbEntity
  8
DEFPOINTS
  6
CONTINUOUS
 62
     0
 48
5.0
100
AcDbPoint
 10
139.5065977532329
 20
182.5796747324747
 30
0.0
  0
POINT
  5
644
330
531
100
AcDbEntity
  8
DEFPOINTS
  6
CONTINUOUS
 62
     0
 48
5.0
100
AcDbPoint
 10
121.506597753233
 20
182.5796747324747
 30
0.0
  0
POINT
  5
645
330
531
100
AcDbEntity
  8
DEFPOINTS
  6
CONTINUOUS
 62
     0
 48
5.0
100
AcDbPoint
 10
121.506597753233
 20
209.1896895031907
 30
0.0
  0
ENDBLK
  5
53C
330
531
100
AcDbEntity
  8
0
 48
5.0
100
AcDbBlockEnd
  0
BLOCK
  5
595
330
58B
100
AcDbEntity
  8
0
 48
5.0
100
AcDbBlockBegin
  2
*D7
 70
     1
 10
0.0
 20
0.0
 30
0.0
  3
*D7
  1

  0
LINE
  5
729
330
58B
100
AcDbEntity
  8
SUNPOU
 62
     4
 48
5.0
100
AcDbLine
 10
130.5065977532329
 20
194.6629431159517
 30
0.0
 11
130.5065977532329
 21
219.8733143181355
 31
0.0
  0
LINE
  5
72A
330
58B
100
AcDbEntity
  8
SUNPOU
 62
     4
 48
5.0
100
AcDbLine
 10
110.5065477532329
 20
110.5796747324747
 30
0.0
 11
110.5065477532329
 21
219.8733143181355
 31
0.0
  0
LINE
  5
72B
330
58B
100
AcDbEntity
  8
SUNPOU
 62
     4
 48
5.0
100
AcDbLine
 10
127.5065977532329
 20
218.3733143181354
 30
0.0
 11
113.5065477532329
 21
218.3733143181354
 31
0.0
  0
INSERT
  5
72C
330
58B
100
AcDbEntity
  8
SUNPOU
 62
     4
 48
5.0
100
AcDbBlockReference
  2
_OPEN
 10
130.5065977532329
 20
218.3733143181354
 30
0.0
 41
3.0
 42
3.0
 43
3.0
  0
INSERT
  5
72D
330
58B
100
AcDbEntity
  8
SUNPOU
 62
     4
 48
5.0
100
AcDbBlockReference
  2
_OPEN
 10
110.5065477532329
 20
218.3733143181354
 30
0.0
 41
3.0
 42
3.0
 43
3.0
 50
180.0
  0
MTEXT
  5
72E
330
58B
100
AcDbEntity
  8
SUNPOU
 62
     4
 48
5.0
100
AcDbMText
 10
120.5065727532329
 20
220.8733143181354
 30
0.0
 40
3.0
 41
0.0
 71
     5
 72
     1
  1
\A1;20
1001
ACAD
1000
MTEXTBEGIN
1070
    73
1070
     1
1070
    44
1040
1.0
1070
    74
1070
     0
1000
MTEXTEND
1000
MTEXTBEGIN
1070
    73
1070
     1
1070
    44
1040
1.0
1070
    74
1070
     0
1000
MTEXTEND
1000
MTEXTBEGIN
1070
    73
1070
     1
1070
    44
1040
1.0
1070
    74
1070
     0
1000
MTEXTEND
1000
MTEXTBEGIN
1070
    73
1070
     1
1070
    44
1040
1.0
1070
    74
1070
     0
1000
MTEXTEND
1000
MTEXTBEGIN
1070
    73
1070
     1
1070
    44
1040
1.0
1070
    74
1070
     0
1000
MTEXTEND
1000
MTEXTBEGIN
1070
    73
1070
     1
1070
    44
1040
1.0
1070
    74
1070
     0
1000
MTEXTEND
  0
POINT
  5
72F
330
58B
100
AcDbEntity
  8
DEFPOINTS
 62
     0
 48
5.0
100
AcDbPoint
 10
130.5065977532329
 20
191.6629431159517
 30
0.0
  0
POINT
  5
730
330
58B
100
AcDbEntity
  8
DEFPOINTS
 62
     0
 48
5.0
100
AcDbPoint
 10
110.5065477532329
 20
107.5796747324747
 30
0.0
  0
POINT
  5
731
330
58B
100
AcDbEntity
  8
DEFPOINTS
 62
     0
 48
5.0
100
AcDbPoint
 10
110.5065477532329
 20
218.3733143181354
 30
0.0
  0
ENDBLK
  5
596
330
58B
100
AcDbEntity
  8
0
 48
5.0
100
AcDbBlockEnd
  0
BLOCK
  5
5A2
330
598
100
AcDbEntity
  8
0
 48
5.0
100
AcDbBlockBegin
  2
*D8
 70
     1
 10
0.0
 20
0.0
 30
0.0
  3
*D8
  1

  0
LINE
  5
732
330
598
100
AcDbEntity
  8
SUNPOU
 62
     4
 48
5.0
100
AcDbLine
 10
110.5065477532329
 20
110.5796747324747
 30
0.0
 11
110.5065477532329
 21
227.8574041647821
 31
0.0
  0
LINE
  5
733
330
598
100
AcDbEntity
  8
SUNPOU
 62
     4
 48
5.0
100
AcDbLine
 10
150.5067477532329
 20
111.5796747324747
 30
0.0
 11
150.5067477532329
 21
227.8574041647821
 31
0.0
  0
LINE
  5
734
330
598
100
AcDbEntity
  8
SUNPOU
 62
     4
 48
5.0
100
AcDbLine
 10
113.5065477532329
 20
226.357404164782
 30
0.0
 11
147.5067477532329
 21
226.357404164782
 31
0.0
  0
INSERT
  5
735
330
598
100
AcDbEntity
  8
SUNPOU
 62
     4
 48
5.0
100
AcDbBlockReference
  2
_OPEN
 10
110.5065477532329
 20
226.357404164782
 30
0.0
 41
3.0
 42
3.0
 43
3.0
 50
180.0
  0
INSERT
  5
736
330
598
100
AcDbEntity
  8
SUNPOU
 62
     4
 48
5.0
100
AcDbBlockReference
  2
_OPEN
 10
150.5067477532329
 20
226.357404164782
 30
0.0
 41
3.0
 42
3.0
 43
3.0
  0
MTEXT
  5
737
330
598
100
AcDbEntity
  8
SUNPOU
 62
     4
 48
5.0
100
AcDbMText
 10
130.5066477532329
 20
228.8574041647821
 30
0.0
 40
3.0
 41
0.0
 71
     5
 72
     1
  1
\A1;40
1001
ACAD
1000
MTEXTBEGIN
1070
    73
1070
     1
1070
    44
1040
1.0
1070
    74
1070
     0
1000
MTEXTEND
1000
MTEXTBEGIN
1070
    73
1070
     1
1070
    44
1040
1.0
1070
    74
1070
     0
1000
MTEXTEND
1000
MTEXTBEGIN
1070
    73
1070
     1
1070
    44
1040
1.0
1070
    74
1070
     0
1000
MTEXTEND
1000
MTEXTBEGIN
1070
    73
1070
     1
1070
    44
1040
1.0
1070
    74
1070
     0
1000
MTEXTEND
1000
MTEXTBEGIN
1070
    73
1070
     1
1070
    44
1040
1.0
1070
    74
1070
     0
1000
MTEXTEND
1000
MTEXTBEGIN
1070
    73
1070
     1
1070
    44
1040
1.0
1070
    74
1070
     0
1000
MTEXTEND
  0
POINT
  5
738
330
598
100
AcDbEntity
  8
DEFPOINTS
 62
     0
 48
5.0
100
AcDbPoint
 10
110.5065477532329
 20
107.5796747324747
 30
0.0
  0
POINT
  5
739
330
598
100
AcDbEntity
  8
DEFPOINTS
 62
     0
 48
5.0
100
AcDbPoint
 10
150.5067477532329
 20
108.5796747324747
 30
0.0
  0
POINT
  5
73A
330
598
100
AcDbEntity
  8
DEFPOINTS
 62
     0
 48
5.0
100
AcDbPoint
 10
150.5067477532329
 20
226.357404164782
 30
0.0
  0
ENDBLK
  5
5A3
330
598
100
AcDbEntity
  8
0
 48
5.0
100
AcDbBlockEnd
  0
BLOCK
  5
5AF
330
5A5
100
AcDbEntity
  8
0
 48
5.0
100
AcDbBlockBegin
  2
*D9
 70
     1
 10
0.0
 20
0.0
 30
0.0
  3
*D9
  1

  0
LINE
  5
73B
330
5A5
100
AcDbEntity
  8
SUNPOU
 62
     4
 48
5.0
100
AcDbLine
 10
153.5067477532329
 20
107.5796747324747
 30
0.0
 11
184.6097095754587
 21
107.5796747324747
 31
0.0
  0
LINE
  5
73C
330
5A5
100
AcDbEntity
  8
SUNPOU
 62
     4
 48
5.0
100
AcDbLine
 10
148.5067477532329
 20
84.57967473247476
 30
0.0
 11
184.6097095754587
 21
84.57967473247474
 31
0.0
  0
LINE
  5
73D
330
5A5
100
AcDbEntity
  8
SUNPOU
 62
     4
 48
5.0
100
AcDbLine
 10
183.1097095754587
 20
104.5796747324747
 30
0.0
 11
183.1097095754587
 21
87.57967473247473
 31
0.0
  0
INSERT
  5
73E
330
5A5
100
AcDbEntity
  8
SUNPOU
 62
     4
 48
5.0
100
AcDbBlockReference
  2
_OPEN
 10
183.1097095754587
 20
107.5796747324747
 30
0.0
 41
3.0
 42
3.0
 43
3.0
 50
90.0
  0
INSERT
  5
73F
330
5A5
100
AcDbEntity
  8
SUNPOU
 62
     4
 48
5.0
100
AcDbBlockReference
  2
_OPEN
 10
183.1097095754587
 20
84.57967473247474
 30
0.0
 41
3.0
 42
3.0
 43
3.0
 50
270.0
  0
MTEXT
  5
740
330
5A5
100
AcDbEntity
  8
SUNPOU
 62
     4
 48
5.0
100
AcDbMText
 10
180.6097095754587
 20
96.07967473247477
 30
0.0
 40
3.0
 41
0.0
 71
     5
 72
     1
  1
\A1;23
 11
0.0000000000000001
 21
1.0
 31
0.0
1001
ACAD
1000
MTEXTBEGIN
1070
    73
1070
     1
1070
    44
1040
1.0
1070
    74
1070
     0
1000
MTEXTEND
1000
MTEXTBEGIN
1070
    73
1070
     1
1070
    44
1040
1.0
1070
    74
1070
     0
1000
MTEXTEND
1000
MTEXTBEGIN
1070
    73
1070
     1
1070
    44
1040
1.0
1070
    74
1070
     0
1000
MTEXTEND
1000
MTEXTBEGIN
1070
    73
1070
     1
1070
    44
1040
1.0
1070
    74
1070
     0
1000
MTEXTEND
1000
MTEXTBEGIN
1070
    73
1070
     1
1070
    44
1040
1.0
1070
    74
1070
     0
1000
MTEXTEND
1000
MTEXTBEGIN
1070
    73
1070
     1
1070
    44
1040
1.0
1070
    74
1070
     0
1000
MTEXTEND
  0
POINT
  5
741
330
5A5
100
AcDbEntity
  8
DEFPOINTS
 62
     0
 48
5.0
100
AcDbPoint
 10
150.5067477532329
 20
107.5796747324747
 30
0.0
  0
POINT
  5
742
330
5A5
100
AcDbEntity
  8
DEFPOINTS
 62
     0
 48
5.0
100
AcDbPoint
 10
145.5067477532329
 20
84.57967473247476
 30
0.0
  0
POINT
  5
743
330
5A5
100
AcDbEntity
  8
DEFPOINTS
 62
     0
 48
5.0
100
AcDbPoint
 10
183.1097095754587
 20
84.57967473247474
 30
0.0
  0
ENDBLK
  5
5B0
330
5A5
100
AcDbEntity
  8
0
 48
5.0
100
AcDbBlockEnd
  0
BLOCK
  5
5C9
330
5BF
100
AcDbEntity
  8
0
 48
5.0
100
AcDbBlockBegin
  2
*D10
 70
     1
 10
0.0
 20
0.0
 30
0.0
  3
*D10
  1

  0
LINE
  5
744
330
5BF
100
AcDbEntity
  8
SUNPOU
 62
     4
 48
5.0
100
AcDbLine
 10
279.9134209120405
 20
183.5795953797342
 30
0.0
 11
231.9456070831618
 21
183.5795953797342
 31
0.0
  0
LINE
  5
745
330
5BF
100
AcDbEntity
  8
SUNPOU
 62
     4
 48
5.0
100
AcDbLine
 10
269.8862981312336
 20
108.5796747324747
 30
0.0
 11
231.9456070831618
 21
108.5796747324747
 31
0.0
  0
LINE
  5
746
330
5BF
100
AcDbEntity
  8
SUNPOU
 62
     4
 48
5.0
100
AcDbLine
 10
233.4456070831618
 20
180.5795953797342
 30
0.0
 11
233.4456070831618
 21
111.5796747324747
 31
0.0
  0
INSERT
  5
747
330
5BF
100
AcDbEntity
  8
SUNPOU
 62
     4
 48
5.0
100
AcDbBlockReference
  2
_OPEN
 10
233.4456070831618
 20
183.5795953797342
 30
0.0
 41
3.0
 42
3.0
 43
3.0
 50
90.0
  0
INSERT
  5
748
330
5BF
100
AcDbEntity
  8
SUNPOU
 62
     4
 48
5.0
100
AcDbBlockReference
  2
_OPEN
 10
233.4456070831618
 20
108.5796747324747
 30
0.0
 41
3.0
 42
3.0
 43
3.0
 50
270.0
  0
MTEXT
  5
749
330
5BF
100
AcDbEntity
  8
SUNPOU
 62
     4
 48
5.0
100
AcDbMText
 10
230.9456070831617
 20
146.0796350561045
 30
0.0
 40
3.0
 41
0.0
 71
     5
 72
     1
  1
\A1;75
 11
0.0000000000000001
 21
1.0
 31
0.0
1001
ACAD
1000
MTEXTBEGIN
1070
    73
1070
     1
1070
    44
1040
1.0
1070
    74
1070
     0
1000
MTEXTEND
1000
MTEXTBEGIN
1070
    73
1070
     1
1070
    44
1040
1.0
1070
    74
1070
     0
1000
MTEXTEND
1000
MTEXTBEGIN
1070
    73
1070
     1
1070
    44
1040
1.0
1070
    74
1070
     0
1000
MTEXTEND
1000
MTEXTBEGIN
1070
    73
1070
     1
1070
    44
1040
1.0
1070
    74
1070
     0
1000
MTEXTEND
1000
MTEXTBEGIN
1070
    73
1070
     1
1070
    44
1040
1.0
1070
    74
1070
     0
1000
MTEXTEND
1000
MTEXTBEGIN
1070
    73
1070
     1
1070
    44
1040
1.0
1070
    74
1070
     0
1000
MTEXTEND
  0
POINT
  5
74A
330
5BF
100
AcDbEntity
  8
DEFPOINTS
 62
     0
 48
5.0
100
AcDbPoint
 10
282.9134209120405
 20
183.5795953797342
 30
0.0
  0
POINT
  5
74B
330
5BF
100
AcDbEntity
  8
DEFPOINTS
 62
     0
 48
5.0
100
AcDbPoint
 10
272.8862981312336
 20
108.5796747324747
 30
0.0
  0
POINT
  5
74C
330
5BF
100
AcDbEntity
  8
DEFPOINTS
 62
     0
 48
5.0
100
AcDbPoint
 10
233.4456070831618
 20
108.5796747324747
 30
0.0
  0
ENDBLK
  5
5CA
330
5BF
100
AcDbEntity
  8
0
 48
5.0
100
AcDbBlockEnd
  0
BLOCK
  5
5ED
330
5E3
100
AcDbEntity
  8
0
 48
5.0
100
AcDbBlockBegin
  2
*D11
 70
     1
 10
0.0
 20
0.0
 30
0.0
  3
*D11
  1

  0
LINE
  5
8BC
330
5E3
100
AcDbEntity
  8
SUNPOU
 62
     4
 48
5.0
100
AcDbLine
 10
269.8862981312336
 20
108.5796747324747
 30
0.0
 11
231.9456070831618
 21
108.5796747324747
 31
0.0
  0
LINE
  5
8BD
330
5E3
100
AcDbEntity
  8
SUNPOU
 62
     4
 48
5.0
100
AcDbLine
 10
269.9138981313335
 20
83.57967473247475
 30
0.0
 11
231.9456070831618
 21
83.57967473247475
 31
0.0
  0
LINE
  5
8BE
330
5E3
100
AcDbEntity
  8
SUNPOU
 62
     4
 48
5.0
100
AcDbLine
 10
233.4456070831618
 20
105.5796747324747
 30
0.0
 11
233.4456070831618
 21
86.57967473247476
 31
0.0
  0
INSERT
  5
8BF
330
5E3
100
AcDbEntity
  8
SUNPOU
 62
     4
 48
5.0
100
AcDbBlockReference
  2
_OPEN
 10
233.4456070831618
 20
108.5796747324747
 30
0.0
 41
3.0
 42
3.0
 43
3.0
 50
90.0
  0
INSERT
  5
8C0
330
5E3
100
AcDbEntity
  8
SUNPOU
 62
     4
 48
5.0
100
AcDbBlockReference
  2
_OPEN
 10
233.4456070831618
 20
83.57967473247475
 30
0.0
 41
3.0
 42
3.0
 43
3.0
 50
270.0
  0
MTEXT
  5
8C1
330
5E3
100
AcDbEntity
  8
SUNPOU
 62
     4
 48
5.0
100
AcDbMText
 10
230.9456070831617
 20
96.0796747324748
 30
0.0
 40
3.0
 41
0.0
 71
     5
 72
     1
  1
\A1;25
 11
0.0000000000000001
 21
1.0
 31
0.0
  0
POINT
  5
8C2
330
5E3
100
AcDbEntity
  8
DEFPOINTS
 62
     0
 48
5.0
100
AcDbPoint
 10
272.8862981312336
 20
108.5796747324747
 30
0.0
  0
POINT
  5
8C3
330
5E3
100
AcDbEntity
  8
DEFPOINTS
 62
     0
 48
5.0
100
AcDbPoint
 10
272.9138981313335
 20
83.57967473247475
 30
0.0
  0
POINT
  5
8C4
330
5E3
100
AcDbEntity
  8
DEFPOINTS
 62
     0
 48
5.0
100
AcDbPoint
 10
233.4456070831618
 20
83.57967473247475
 30
0.0
  0
ENDBLK
  5
5EE
330
5E3
100
AcDbEntity
  8
0
 48
5.0
100
AcDbBlockEnd
  0
BLOCK
  5
5FA
330
5F0
100
AcDbEntity
  8
0
 48
5.0
100
AcDbBlockBegin
  2
*D12
 70
     1
 10
0.0
 20
0.0
 30
0.0
  3
*D12
  1

  0
LINE
  5
756
330
5F0
100
AcDbEntity
  8
SUNPOU
 62
     4
 48
5.0
100
AcDbLine
 10
279.9136971978933
 20
183.5795953808908
 30
0.0
 11
223.8943443966577
 21
183.5795953808908
 31
0.0
  0
LINE
  5
757
330
5F0
100
AcDbEntity
  8
SUNPOU
 62
     4
 48
5.0
100
AcDbLine
 10
269.9138981313335
 20
83.57967473247475
 30
0.0
 11
223.8943443966577
 21
83.57967473247477
 31
0.0
  0
LINE
  5
758
330
5F0
100
AcDbEntity
  8
SUNPOU
 62
     4
 48
5.0
100
AcDbLine
 10
225.3943443966577
 20
180.5795953808908
 30
0.0
 11
225.3943443966577
 21
86.57967473247476
 31
0.0
  0
INSERT
  5
759
330
5F0
100
AcDbEntity
  8
SUNPOU
 62
     4
 48
5.0
100
AcDbBlockReference
  2
_OPEN
 10
225.3943443966577
 20
183.5795953808908
 30
0.0
 41
3.0
 42
3.0
 43
3.0
 50
90.0
  0
INSERT
  5
75A
330
5F0
100
AcDbEntity
  8
SUNPOU
 62
     4
 48
5.0
100
AcDbBlockReference
  2
_OPEN
 10
225.3943443966577
 20
83.57967473247475
 30
0.0
 41
3.0
 42
3.0
 43
3.0
 50
270.0
  0
MTEXT
  5
75B
330
5F0
100
AcDbEntity
  8
SUNPOU
 62
     4
 48
5.0
100
AcDbMText
 10
222.8943443966577
 20
133.5796350566828
 30
0.0
 40
3.0
 41
0.0
 71
     5
 72
     1
  1
\A1;100
 11
0.0000000000000001
 21
1.0
 31
0.0
1001
ACAD
1000
MTEXTBEGIN
1070
    73
1070
     1
1070
    44
1040
1.0
1070
    74
1070
     0
1000
MTEXTEND
1000
MTEXTBEGIN
1070
    73
1070
     1
1070
    44
1040
1.0
1070
    74
1070
     0
1000
MTEXTEND
1000
MTEXTBEGIN
1070
    73
1070
     1
1070
    44
1040
1.0
1070
    74
1070
     0
1000
MTEXTEND
1000
MTEXTBEGIN
1070
    73
1070
     1
1070
    44
1040
1.0
1070
    74
1070
     0
1000
MTEXTEND
1000
MTEXTBEGIN
1070
    73
1070
     1
1070
    44
1040
1.0
1070
    74
1070
     0
1000
MTEXTEND
1000
MTEXTBEGIN
1070
    73
1070
     1
1070
    44
1040
1.0
1070
    74
1070
     0
1000
MTEXTEND
  0
POINT
  5
75C
330
5F0
100
AcDbEntity
  8
DEFPOINTS
 62
     0
 48
5.0
100
AcDbPoint
 10
282.9136971978933
 20
183.5795953808908
 30
0.0
  0
POINT
  5
75D
330
5F0
100
AcDbEntity
  8
DEFPOINTS
 62
     0
 48
5.0
100
AcDbPoint
 10
272.9138981313335
 20
83.57967473247475
 30
0.0
  0
POINT
  5
75E
330
5F0
100
AcDbEntity
  8
DEFPOINTS
 62
     0
 48
5.0
100
AcDbPoint
 10
225.3943443966577
 20
83.57967473247475
 30
0.0
  0
ENDBLK
  5
5FB
330
5F0
100
AcDbEntity
  8
0
 48
5.0
100
AcDbBlockEnd
  0
BLOCK
  5
6F0
330
6E6
100
AcDbEntity
  8
0
 48
5.0
100
AcDbBlockBegin
  2
*D13
 70
     1
 10
0.0
 20
0.0
 30
0.0
  3
*D13
  1

  0
LINE
  5
75F
330
6E6
100
AcDbEntity
  8
SUNPOU
 62
     4
 48
5.0
100
AcDbLine
 10
153.5067477532329
 20
108.5796747324747
 30
0.0
 11
193.5381543563291
 21
108.5796747324747
 31
0.0
  0
LINE
  5
760
330
6E6
100
AcDbEntity
  8
SUNPOU
 62
     4
 48
5.0
100
AcDbLine
 10
148.5067477532329
 20
83.57957473247472
 30
0.0
 11
193.5381543563291
 21
83.57957473247472
 31
0.0
  0
LINE
  5
761
330
6E6
100
AcDbEntity
  8
SUNPOU
 62
     4
 48
5.0
100
AcDbLine
 10
192.0381543563291
 20
105.5796747324747
 30
0.0
 11
192.0381543563291
 21
86.57957473247471
 31
0.0
  0
INSERT
  5
762
330
6E6
100
AcDbEntity
  8
SUNPOU
 62
     4
 48
5.0
100
AcDbBlockReference
  2
_OPEN
 10
192.0381543563291
 20
108.5796747324747
 30
0.0
 41
3.0
 42
3.0
 43
3.0
 50
90.0
  0
INSERT
  5
763
330
6E6
100
AcDbEntity
  8
SUNPOU
 62
     4
 48
5.0
100
AcDbBlockReference
  2
_OPEN
 10
192.0381543563291
 20
83.57957473247472
 30
0.0
 41
3.0
 42
3.0
 43
3.0
 50
270.0
  0
MTEXT
  5
764
330
6E6
100
AcDbEntity
  8
SUNPOU
 62
     4
 48
5.0
100
AcDbMText
 10
189.5381543563291
 20
96.07962473247475
 30
0.0
 40
3.0
 41
0.0
 71
     5
 72
     1
  1
\A1;25
 11
0.0000000000000001
 21
1.0
 31
0.0
1001
ACAD
1000
MTEXTBEGIN
1070
    73
1070
     1
1070
    44
1040
1.0
1070
    74
1070
     0
1000
MTEXTEND
1000
MTEXTBEGIN
1070
    73
1070
     1
1070
    44
1040
1.0
1070
    74
1070
     0
1000
MTEXTEND
1000
MTEXTBEGIN
1070
    73
1070
     1
1070
    44
1040
1.0
1070
    74
1070
     0
1000
MTEXTEND
1000
MTEXTBEGIN
1070
    73
1070
     1
1070
    44
1040
1.0
1070
    74
1070
     0
1000
MTEXTEND
1000
MTEXTBEGIN
1070
    73
1070
     1
1070
    44
1040
1.0
1070
    74
1070
     0
1000
MTEXTEND
1000
MTEXTBEGIN
1070
    73
1070
     1
1070
    44
1040
1.0
1070
    74
1070
     0
1000
MTEXTEND
  0
POINT
  5
765
330
6E6
100
AcDbEntity
  8
DEFPOINTS
 62
     0
 48
5.0
100
AcDbPoint
 10
150.5067477532329
 20
108.5796747324747
 30
0.0
  0
POINT
  5
766
330
6E6
100
AcDbEntity
  8
DEFPOINTS
 62
     0
 48
5.0
100
AcDbPoint
 10
145.5067477532329
 20
83.57957473247472
 30
0.0
  0
POINT
  5
767
330
6E6
100
AcDbEntity
  8
DEFPOINTS
 62
     0
 48
5.0
100
AcDbPoint
 10
192.0381543563291
 20
83.57957473247472
 30
0.0
  0
ENDBLK
  5
6F1
330
6E6
100
AcDbEntity
  8
0
 48
5.0
100
AcDbBlockEnd
  0
ENDSEC
  0
SECTION
  2
ENTITIES
  0
LINE
  5
6C
330
1A
100
AcDbEntity
  8
ZUWAKU
 48
5.0
100
AcDbLine
 10
403.0
 20
7.0
 30
0.0
 11
5.0
 21
7.0
 31
0.0
  0
LINE
  5
6D
330
1A
100
AcDbEntity
  8
ZUWAKU
 48
5.0
100
AcDbLine
 10
5.0
 20
282.0
 30
0.0
 11
5.0
 21
7.0
 31
0.0
  0
LINE
  5
6E
330
1A
100
AcDbEntity
  8
ZUWAKU
 48
5.0
100
AcDbLine
 10
403.0
 20
282.0
 30
0.0
 11
403.0
 21
7.0
 31
0.0
  0
LINE
  5
6F
330
1A
100
AcDbEntity
  8
ZUWAKU
 48
5.0
100
AcDbLine
 10
403.0
 20
282.0
 30
0.0
 11
5.0
 21
282.0
 31
0.0
  0
LINE
  5
8E
330
1A
100
AcDbEntity
  8
ZUWAKU
 48
5.0
100
AcDbLine
 10
5.0
 20
13.0
 30
0.0
 11
403.0
 21
12.99999999999994
 31
0.0
  0
TEXT
  5
93
330
1A
100
AcDbEntity
  8
ZUWAKU
 48
5.0
100
AcDbText
 10
8.003143713074223
 20
7.870178177610682
 30
0.0
 40
4.0
  1
品 種
100
AcDbText
  0
TEXT
  5
97
330
1A
100
AcDbEntity
  8
ZUWAKU
 48
5.0
100
AcDbText
 10
107.7028028167073
 20
8.200497435100942
 30
0.0
 40
4.0
  1
品名・ｻ ｲ ｽﾞ
100
AcDbText
  0
TEXT
  5
99
330
1A
100
AcDbEntity
  8
ZUWAKU
 62
     7
100
AcDbText
 10
141.1313324528735
 20
7.9299153608506
 30
0.0
 40
4.0
  1
這いといデンデン　ＵＴ６０　ＢＲＯＯＫ用
100
AcDbText
  0
LINE
  5
9A
330
1A
100
AcDbEntity
  8
ZUWAKU
 48
5.0
100
AcDbLine
 10
324.3551403257206
 20
6.999999999999836
 30
0.0
 11
324.3551403257206
 21
12.99999999999995
 31
0.0
  0
LINE
  5
9B
330
1A
100
AcDbEntity
  8
ZUWAKU
 48
5.0
100
AcDbLine
 10
307.142312366876
 20
6.999999999999836
 30
0.0
 11
307.142312366876
 21
12.99999999999995
 31
0.0
  0
TEXT
  5
9C
330
1A
100
AcDbEntity
  8
ZUWAKU
 48
5.0
100
AcDbText
 10
310.1429253763237
 20
7.934661405801826
 30
0.0
 40
4.0
  1
品 番
100
AcDbText
  0
TEXT
  5
9E
330
1A
100
AcDbEntity
  8
ZUWAKU
 48
5.0
100
AcDbText
 10
322.9513761015196
 20
2.449000558492457
 30
0.0
 40
4.0
  1
積水化学工業株式会社  建材
100
AcDbText
  0
TEXT
  5
A1
330
1A
100
AcDbEntity
  8
ZUWAKU
 48
5.0
100
AcDbText
 10
389.843492473331
 20
7.886151458996323
 30
0.0
 40
4.0
  1
1/1
100
AcDbText
  0
TEXT
  5
A2
330
1A
100
AcDbEntity
  8
ZUWAKU
 48
5.0
100
AcDbText
 10
369.8225424558458
 20
7.729845637642938
 30
0.0
 40
4.0
  1
尺 度
100
AcDbText
  0
LINE
  5
A3
330
1A
100
AcDbEntity
  8
ZUWAKU
 48
5.0
100
AcDbLine
 10
366.8807110760169
 20
6.999999999999886
 30
0.0
 11
366.8807110760169
 21
12.99999999999994
 31
0.0
  0
TEXT
  5
A6
330
1A
100
AcDbEntity
  8
ZUWAKU
 48
5.0
100
AcDbText
 10
396.1622424237184
 20
2.480970960763784
 30
0.0
 40
4.0
  1
A3
100
AcDbText
  0
LINE
  5
F5
330
1A
100
AcDbEntity
  8
ZUWAKU
 48
5.0
100
AcDbLine
 10
22.25374857290876
 20
7.0
 30
0.0
 11
22.25374857290876
 21
13.0
 31
0.0
  0
LINE
  5
F6
330
1A
100
AcDbEntity
  8
ZUWAKU
 48
5.0
100
AcDbLine
 10
104.7316872784438
 20
7.0
 30
0.0
 11
104.7316872784438
 21
12.99999999999998
 31
0.0
  0
LINE
  5
F8
330
1A
100
AcDbEntity
  8
ZUWAKU
 48
5.0
100
AcDbLine
 10
138.0261803105822
 20
7.0
 30
0.0
 11
138.0261803105822
 21
12.99999999999998
 31
0.0
  0
LINE
  5
100
330
1A
100
AcDbEntity
  8
ZUWAKU
 48
5.0
100
AcDbLine
 10
384.3363149538092
 20
6.999999999999862
 30
0.0
 11
384.3363149538092
 21
12.99999999999994
 31
0.0
  0
LINE
  5
18D
330
1A
100
AcDbEntity
  8
SEIHIN
 48
5.0
100
AcDbLine
 10
150.5067477532329
 20
107.5796747324747
 30
0.0
 11
145.7716477532329
 21
107.5796747324747
 31
0.0
  0
LINE
  5
18E
330
1A
100
AcDbEntity
  8
SEIHIN
 48
5.0
100
AcDbLine
 10
145.5066477532329
 20
108.5796747324747
 30
0.0
 11
150.5067477532329
 21
108.5796747324747
 31
0.0
  0
LINE
  5
18F
330
1A
100
AcDbEntity
  8
SEIHIN
 48
5.0
100
AcDbLine
 10
150.5067477532329
 20
107.5796747324747
 30
0.0
 11
150.5066477532329
 21
108.5795747324747
 31
0.0
  0
LINE
  5
190
330
1A
100
AcDbEntity
  8
SEIHIN
 48
5.0
100
AcDbLine
 10
111.5066477532329
 20
85.07967473247475
 30
0.0
 11
111.5066477532329
 21
107.0796747324747
 31
0.0
  0
LINE
  5
191
330
1A
100
AcDbEntity
  8
SEIHIN
 48
5.0
100
AcDbLine
 10
110.5065477532329
 20
107.5796747324747
 30
0.0
 11
110.5066477532329
 21
84.57957473247473
 31
0.0
  0
LINE
  5
192
330
1A
100
AcDbEntity
  8
SEIHIN
 48
5.0
100
AcDbLine
 10
130.5067477532329
 20
83.57967473247475
 30
0.0
 11
125.5067477532329
 21
86.42867473247475
 31
0.0
  0
LINE
  5
193
330
1A
100
AcDbEntity
  8
SEIHIN
 48
5.0
100
AcDbLine
 10
125.5067477532329
 20
87.57967473247475
 30
0.0
 11
130.7716477532329
 21
84.57957473247473
 31
0.0
  0
LINE
  5
194
330
1A
100
AcDbEntity
  8
SEIHIN
 48
5.0
100
AcDbLine
 10
145.5067477532329
 20
84.57967473247476
 30
0.0
 11
130.7716477532329
 21
84.57957473247473
 31
0.0
  0
LINE
  5
195
330
1A
100
AcDbEntity
  8
SEIHIN
 48
5.0
100
AcDbLine
 10
130.5067477532329
 20
83.57967473247475
 30
0.0
 11
145.5067477532329
 21
83.57967473247475
 31
0.0
  0
LINE
  5
196
330
1A
100
AcDbEntity
  8
SEIHIN
 48
5.0
100
AcDbLine
 10
145.5067477532329
 20
83.57957473247472
 30
0.0
 11
145.5067477532329
 21
84.57967473247476
 31
0.0
  0
LINE
  5
197
330
1A
100
AcDbEntity
  8
SEIHIN
 48
5.0
100
AcDbLine
 10
140.5067477532329
 20
83.57957473247472
 30
0.0
 11
140.5067477532329
 21
84.57967473247476
 31
0.0
  0
LINE
  5
198
330
1A
100
AcDbEntity
  8
SEIHIN
 48
5.0
100
AcDbLine
 10
125.5067477532329
 20
87.57967473247475
 30
0.0
 11
120.2417477532329
 21
84.57957473247473
 31
0.0
  0
LINE
  5
199
330
1A
100
AcDbEntity
  8
SEIHIN
 48
5.0
100
AcDbLine
 10
120.2417477532329
 20
84.57957473247473
 30
0.0
 11
112.0067477532329
 21
84.57967473247476
 31
0.0
  0
LINE
  5
19A
330
1A
100
AcDbEntity
  8
SEIHIN
 48
5.0
100
AcDbLine
 10
111.5067477532329
 20
83.57957473247472
 30
0.0
 11
120.5066477532329
 21
83.57957473247472
 31
0.0
  0
LINE
  5
19B
330
1A
100
AcDbEntity
  8
SEIHIN
 48
5.0
100
AcDbLine
 10
120.5066477532329
 20
83.57957473247472
 30
0.0
 11
125.5067477532329
 21
86.42867473247475
 31
0.0
  0
ARC
  5
19C
330
1A
100
AcDbEntity
  8
SEIHIN
 48
5.0
100
AcDbCircle
 10
112.0067477532329
 20
85.07967473247475
 30
0.0
 40
0.5
100
AcDbArc
 50
180.0
 51
269.9999999647
  0
ARC
  5
19D
330
1A
100
AcDbEntity
  8
SEIHIN
 48
5.0
100
AcDbCircle
 10
111.5066477532329
 20
84.57957473247473
 30
0.0
 40
1.0
100
AcDbArc
 50
180.0
 51
269.9999999647
  0
LINE
  5
1A0
330
1A
100
AcDbEntity
  8
SEIHIN
 48
5.0
100
AcDbLine
 10
135.2417477532329
 20
107.5796747324747
 30
0.0
 11
125.7715477532329
 21
107.5796747324747
 31
0.0
  0
LINE
  5
1A1
330
1A
100
AcDbEntity
  8
SEIHIN
 48
5.0
100
AcDbLine
 10
125.5065477532329
 20
108.5796747324747
 30
0.0
 11
135.5066477532329
 21
108.5796747324747
 31
0.0
  0
LINE
  5
1A2
330
1A
100
AcDbEntity
  8
SEIHIN
 48
5.0
100
AcDbLine
 10
135.5066477532329
 20
108.5796747324747
 30
0.0
 11
140.5067477532329
 21
105.7305747324747
 31
0.0
  0
LINE
  5
1A3
330
1A
100
AcDbEntity
  8
SEIHIN
 48
5.0
100
AcDbLine
 10
140.5066477532329
 20
104.5796747324747
 30
0.0
 11
135.2417477532329
 21
107.5796747324747
 31
0.0
  0
LINE
  5
1A4
330
1A
100
AcDbEntity
  8
SEIHIN
 48
5.0
100
AcDbLine
 10
145.5066477532329
 20
108.5796747324747
 30
0.0
 11
140.5067477532329
 21
105.7305747324747
 31
0.0
  0
LINE
  5
1A5
330
1A
100
AcDbEntity
  8
SEIHIN
 48
5.0
100
AcDbLine
 10
140.5066477532329
 20
104.5796747324747
 30
0.0
 11
145.7716477532329
 21
107.5796747324747
 31
0.0
  0
LINE
  5
1A6
330
1A
100
AcDbEntity
  8
SEIHIN
 48
5.0
100
AcDbLine
 10
148.5066477532329
 20
108.5795747324747
 30
0.0
 11
148.5067477532329
 21
107.5796747324747
 31
0.0
  0
LINE
  5
1A7
330
1A
100
AcDbEntity
  8
SEIHIN
 48
5.0
100
AcDbLine
 10
115.5065477532329
 20
108.5796747324747
 30
0.0
 11
111.5065477532329
 21
108.5795747324747
 31
0.0
  0
LINE
  5
1A8
330
1A
100
AcDbEntity
  8
SEIHIN
 48
5.0
100
AcDbLine
 10
115.2417477532329
 20
107.5796747324747
 30
0.0
 11
112.0066477532329
 21
107.5795747324747
 31
0.0
  0
LINE
  5
1A9
330
1A
100
AcDbEntity
  8
SEIHIN
 48
5.0
100
AcDbLine
 10
120.5066477532329
 20
104.5796747324747
 30
0.0
 11
115.2417477532329
 21
107.5796747324747
 31
0.0
  0
LINE
  5
1AA
330
1A
100
AcDbEntity
  8
SEIHIN
 48
5.0
100
AcDbLine
 10
115.5065477532329
 20
108.5796747324747
 30
0.0
 11
120.5066477532329
 21
105.7305747324747
 31
0.0
  0
LINE
  5
1AB
330
1A
100
AcDbEntity
  8
SEIHIN
 48
5.0
100
AcDbLine
 10
120.5066477532329
 20
104.5796747324747
 30
0.0
 11
125.7715477532329
 21
107.5796747324747
 31
0.0
  0
LINE
  5
1AC
330
1A
100
AcDbEntity
  8
SEIHIN
 48
5.0
100
AcDbLine
 10
125.5065477532329
 20
108.5796747324747
 30
0.0
 11
120.5066477532329
 21
105.7305747324747
 31
0.0
  0
ARC
  5
1AD
330
1A
100
AcDbEntity
  8
SEIHIN
 48
5.0
100
AcDbCircle
 10
112.0066477532329
 20
107.0796747324747
 30
0.0
 40
0.5
100
AcDbArc
 50
89.99999998819999
 51
180.0
  0
ARC
  5
1AE
330
1A
100
AcDbEntity
  8
SEIHIN
 48
5.0
100
AcDbCircle
 10
111.5065477532329
 20
107.5796747324747
 30
0.0
 40
1.0
100
AcDbArc
 50
89.99999998819999
 51
180.0
  0
LINE
  5
1BC
330
1A
100
AcDbEntity
  8
SEIHIN
 48
5.0
100
AcDbLine
 10
272.9138981313335
 20
83.57967473247475
 30
0.0
 11
272.9138981313335
 21
108.5796747324747
 31
0.0
  0
LINE
  5
1BD
330
1A
100
AcDbEntity
  8
SEIHIN
 48
5.0
100
AcDbLine
 10
292.9138981313335
 20
108.5796747324747
 30
0.0
 11
292.9138981313335
 21
83.57967473247475
 31
0.0
  0
LINE
  5
1BE
330
1A
100
AcDbEntity
  8
SEIHIN
 48
5.0
100
AcDbLine
 10
292.9138981313335
 20
83.57967473247475
 30
0.0
 11
272.9138981313335
 21
83.57967473247475
 31
0.0
  0
LINE
  5
1C0
330
1A
100
AcDbEntity
  8
SEIHIN
 48
5.0
100
AcDbLine
 10
272.8862981312336
 20
108.5796747324747
 30
0.0
 11
292.9414981314335
 21
108.5796747324747
 31
0.0
  0
LINE
  5
1C1
330
1A
100
AcDbEntity
  8
SEIHIN
 48
5.0
100
AcDbLine
 10
272.9138981313335
 20
108.5796747324747
 30
0.0
 11
292.9138981313335
 21
108.5796747324747
 31
0.0
  0
LINE
  5
1DB
330
1A
100
AcDbEntity
  8
CENTER_L
 48
5.0
100
AcDbLine
 10
282.9139357722693
 20
78.68898683413556
 30
0.0
 11
282.913395053223
 21
188.8477185566471
 31
0.0
  0
LINE
  5
1DE
330
1A
100
AcDbEntity
  8
CENTER_L
 48
5.0
100
AcDbLine
 10
130.5065977532329
 20
191.6629431159517
 30
0.0
 11
130.5065977532329
 21
100.1304706946029
 31
0.0
  0
DIMENSION
  5
215
330
1A
100
AcDbEntity
  8
SUNPOU
 48
5.0
100
AcDbDimension
  2
*D1
 10
174.0834877593179
 20
87.57967473247473
 30
0.0
 11
171.5834877593178
 21
96.07967473247477
 31
0.0
 70
    32
  3
STANDARD
100
AcDbAlignedDimension
 13
140.5066477532329
 23
104.5796747324747
 33
0.0
 14
125.5067477532329
 24
87.57967473247475
 34
0.0
 50
90.0
100
AcDbRotatedDimension
1001
ACAD
1000
DSTYLE
1002
{
1070
   140
1040
3.0
1070
    74
1070
     0
1070
   172
1070
     1
1070
    73
1070
     0
1070
   272
1070
     2
1070
    77
1070
     3
1070
   173
1070
     1
1070
   147
1040
1.0
1070
    42
1040
3.0
1070
    44
1040
1.5
1070
    43
1040
7.0
1070
   271
1070
     0
1070
   178
1070
     4
1070
   177
1070
     4
1070
   176
1070
     4
1070
   141
1040
150.0
1070
     7
1000
_OPEN
1070
     6
1000
_OPEN
1070
    41
1040
3.0
1002
}
  0
DIMENSION
  5
23B
330
1A
100
AcDbEntity
  8
SUNPOU
 48
5.0
100
AcDbDimension
  2
*D2
 10
145.5067477532329
 20
63.64087356465063
 30
0.0
 11
128.1531443625307
 21
66.14087356465063
 31
0.0
 70
    32
  3
STANDARD
100
AcDbAlignedDimension
 13
110.7995409718285
 23
83.872467951506
 33
0.0
 14
145.5067477532329
 24
83.57957473247472
 34
0.0
100
AcDbRotatedDimension
1001
ACAD
1000
DSTYLE
1002
{
1070
   140
1040
3.0
1070
    74
1070
     0
1070
   172
1070
     1
1070
    73
1070
     0
1070
   272
1070
     2
1070
    77
1070
     3
1070
   173
1070
     1
1070
   147
1040
1.0
1070
    42
1040
3.0
1070
    44
1040
1.5
1070
    43
1040
7.0
1070
   271
1070
     0
1070
   178
1070
     4
1070
   177
1070
     4
1070
   176
1070
     4
1070
   141
1040
150.0
1070
     7
1000
_OPEN
1070
     6
1000
_OPEN
1070
    41
1040
3.0
1002
}
  0
DIMENSION
  5
26D
330
1A
100
AcDbEntity
  8
SUNPOU
 48
5.0
100
AcDbDimension
  2
*D3
 10
292.9138981313335
 20
63.64087356465063
 30
0.0
 11
282.9138981313335
 21
66.14087356465063
 31
0.0
 70
    32
  3
STANDARD
100
AcDbAlignedDimension
 13
272.9138981313335
 23
83.57967473247475
 33
0.0
 14
292.9138981313335
 24
83.57967473247475
 34
0.0
100
AcDbRotatedDimension
1001
ACAD
1000
DSTYLE
1002
{
1070
   140
1040
3.0
1070
    74
1070
     0
1070
   172
1070
     1
1070
    73
1070
     0
1070
   272
1070
     2
1070
    77
1070
     3
1070
   173
1070
     1
1070
   147
1040
1.0
1070
    42
1040
3.0
1070
    44
1040
1.5
1070
    43
1040
7.0
1070
   271
1070
     0
1070
   178
1070
     4
1070
   177
1070
     4
1070
   176
1070
     4
1070
   141
1040
150.0
1070
     7
1000
_OPEN
1070
     6
1000
_OPEN
1070
    41
1040
3.0
1002
}
  0
LINE
  5
26E
330
1A
100
AcDbEntity
  8
SEIHIN
 48
5.0
100
AcDbLine
 10
292.9138981313335
 20
87.57967473247475
 30
0.0
 11
272.9138981313335
 21
87.57967473247475
 31
0.0
  0
LINE
  5
26F
330
1A
100
AcDbEntity
  8
SEIHIN
 48
5.0
100
AcDbLine
 10
292.9138981313335
 20
84.57967473247476
 30
0.0
 11
272.9138981313335
 21
84.57967473247476
 31
0.0
  0
LINE
  5
270
330
1A
100
AcDbEntity
  8
SEIHIN
 48
5.0
100
AcDbLine
 10
292.9138981313335
 20
107.5796747324747
 30
0.0
 11
272.9138981313335
 21
107.5796747324747
 31
0.0
  0
LINE
  5
271
330
1A
100
AcDbEntity
  8
SEIHIN
 48
5.0
100
AcDbLine
 10
292.9138981313335
 20
104.5796747324747
 30
0.0
 11
272.9138981313335
 21
104.5796747324747
 31
0.0
  0
LINE
  5
27D
330
1A
100
AcDbEntity
  8
SEIHIN
 48
5.0
100
AcDbLine
 10
127.006633791533
 20
105.5796072800662
 30
0.0
 11
134.006633791533
 21
105.5796421838634
 31
0.0
  0
LINE
  5
280
330
1A
100
AcDbEntity
  8
SEIHIN
 48
5.0
100
AcDbLine
 10
127.006633791533
 20
105.5796072801635
 30
0.0
 11
127.0066238190615
 21
107.5796072801635
 31
0.0
  0
LINE
  5
281
330
1A
100
AcDbEntity
  8
SEIHIN
 48
5.0
100
AcDbLine
 10
134.006633791533
 20
105.5796421838634
 30
0.0
 11
134.0066238184643
 21
107.5797421838634
 31
0.0
  0
DIMENSION
  5
29B
330
1A
100
AcDbEntity
  8
SUNPOU
 48
5.0
100
AcDbDimension
  2
*D4
 10
117.9707941130156
 20
83.57957473247472
 30
0.0
 11
115.4707941130156
 21
72.82957473247475
 31
0.0
 70
    32
  1
t<>
  3
STANDARD
100
AcDbAlignedDimension
 13
113.6271280637597
 23
84.57965505572538
 33
0.0
 14
113.6271280637597
 24
83.57957473247472
 34
0.0
 50
90.0
100
AcDbRotatedDimension
1001
ACAD
1000
DSTYLE
1002
{
1070
   140
1040
3.0
1070
    74
1070
     0
1070
   172
1070
     1
1070
    73
1070
     0
1070
   272
1070
     2
1070
    77
1070
     3
1070
   173
1070
     1
1070
   147
1040
1.0
1070
    42
1040
3.0
1070
    44
1040
1.5
1070
    43
1040
7.0
1070
   271
1070
     1
1070
   178
1070
     4
1070
   177
1070
     4
1070
   176
1070
     4
1070
   141
1040
150.0
1070
     7
1000
_OPEN
1070
     6
1000
_OPEN
1070
    41
1040
3.0
1002
}
  0
LINE
  5
301
330
1A
100
AcDbEntity
  8
SEIHIN
 48
5.0
100
AcDbLine
 10
287.9138981313335
 20
83.57957473247472
 30
0.0
 11
287.9138981313335
 21
84.57967473247476
 31
0.0
  0
LINE
  5
302
330
1A
100
AcDbEntity
  8
SEIHIN
 48
5.0
100
AcDbLine
 10
277.9138981334651
 20
83.57949776797287
 30
0.0
 11
277.9138827390255
 21
84.57959776785441
 31
0.0
  0
LINE
  5
305
330
1A
100
AcDbEntity
  8
SEIHIN
 48
5.0
100
AcDbLine
 10
290.9137981313335
 20
108.5795747324747
 30
0.0
 11
290.9138981313335
 21
107.5796747324747
 31
0.0
  0
LINE
  5
306
330
1A
100
AcDbEntity
  8
SEIHIN
 48
5.0
100
AcDbLine
 10
274.9136133113112
 20
108.5794515878492
 30
0.0
 11
274.9135287026723
 21
107.5795515864284
 31
0.0
  0
TEXT
  5
333
330
1A
100
AcDbEntity
  8
ZUWAKU
 48
5.0
100
AcDbText
 10
25.22486411117233
 20
8.200497435100942
 30
0.0
 40
4.0
  1
丸トップ　たてとい
100
AcDbText
  0
TEXT
  5
349
330
1A
100
AcDbEntity
  8
ZUWAKU
 48
5.0
100
AcDbText
 10
327.3557533351683
 20
7.934661405801826
 30
0.0
 40
4.0
  1
LJ68
100
AcDbText
  0
DIMENSION
  5
452
330
1A
100
AcDbEntity
  8
SUNPOU
 48
5.0
100
AcDbDimension
  2
*D5
 10
256.107760957592
 20
164.0501329969043
 30
0.0
 11
294.7952261499021
 21
144.6086834299499
 31
0.0
 70
   163
  3
STANDARD
100
AcDbDiametricDimension
 15
309.7191581091801
 25
137.1090225169202
 35
0.0
 40
0.0
1001
ACAD
1000
DSTYLE
1002
{
1070
    41
1040
3.0
1070
    42
1040
3.0
1070
    43
1040
7.0
1070
    44
1040
1.5
1070
    73
1070
     0
1070
    74
1070
     0
1070
    77
1070
     3
1070
   140
1040
3.0
1070
   141
1040
150.0
1070
   147
1040
1.0
1070
   172
1070
     1
1070
   173
1070
     1
1070
   176
1070
     4
1070
   177
1070
     4
1070
   178
1070
     4
1070
   271
1070
     0
1070
   272
1070
     2
1070
   288
1070
     1
1070
   341
1005
B2
1070
     6
1000
OPEN
1070
     7
1000
OPEN
1002
}
  0
LINE
  5
457
330
1A
100
AcDbEntity
  8
CENTER_L
  6
CENTER
 62
     1
 48
5.0
100
AcDbLine
 10
319.5557080593796
 20
128.5800344504247
 30
0.0
 11
302.2716440241775
 21
128.5798647712269
 31
0.0
  0
LINE
  5
458
330
1A
100
AcDbEntity
  8
CENTER_L
  6
CENTER
 62
     1
 48
5.0
100
AcDbLine
 10
245.6931057200788
 20
150.5795747324748
 30
0.0
 11
320.5432466160922
 21
150.5795747324747
 31
0.0
  0
ARC
  5
459
330
1A
100
AcDbEntity
  8
SEIHIN
  6
CONTINUOUS
 62
     3
 48
5.0
100
AcDbCircle
 10
282.913513431787
 20
150.5796025352001
 30
0.0
 40
29.99999399103715
100
AcDbArc
 50
271.9104829658514
 51
323.1308285812544
  0
ARC
  5
45A
330
1A
100
AcDbEntity
  8
SEIHIN
  6
CONTINUOUS
 62
     3
 48
5.0
100
AcDbCircle
 10
282.9135447308015
 20
150.5796214920511
 30
0.0
 40
33.99995498781402
100
AcDbArc
 50
285.6808046414838
 51
312.1442764185414
  0
ARC
  5
45B
330
1A
100
AcDbEntity
  8
SEIHIN
  6
CONTINUOUS
 62
     3
 48
5.0
100
AcDbCircle
 10
282.9135551865921
 20
150.579625507586
 30
0.0
 40
32.99996009043882
100
AcDbArc
 50
285.6809067490331
 51
310.5072876134922
  0
ARC
  5
45C
330
1A
100
AcDbEntity
  8
SEIHIN
  6
CONTINUOUS
 62
     3
 48
5.0
100
AcDbCircle
 10
282.9134685903273
 20
150.5795753357601
 30
0.0
 40
33.00002004400853
100
AcDbArc
 50
335.4806882162843
 51
212.6338607108593
  0
ARC
  5
45D
330
1A
100
AcDbEntity
  8
SEIHIN
  6
CONTINUOUS
 62
     3
 48
5.0
100
AcDbCircle
 10
282.9134505475416
 20
150.5795737856978
 30
0.0
 40
31.99997718139744
100
AcDbArc
 50
334.8947746563714
 51
216.4490902500267
  0
ARC
  5
45E
330
1A
100
AcDbEntity
  8
SEIHIN
  6
CONTINUOUS
 62
     3
 48
5.0
100
AcDbCircle
 10
282.9134595333859
 20
150.5795777569123
 30
0.0
 40
30.00002224349183
100
AcDbArc
 50
323.1309282019494
 51
56.91531276274887
  0
LINE
  5
465
330
1A
100
AcDbEntity
  8
SEIHIN
  6
CONTINUOUS
 62
     3
 48
5.0
100
AcDbLine
 10
121.506597753233
 20
182.5796747324747
 30
0.0
 11
121.506597753233
 21
108.5796747324747
 31
0.0
  0
LINE
  5
466
330
1A
100
AcDbEntity
  8
SEIHIN
  6
CONTINUOUS
 62
     3
 48
5.0
100
AcDbLine
 10
139.5065977532329
 20
182.5796747324747
 30
0.0
 11
139.5065977532328
 21
108.5796747324747
 31
0.0
  0
LINE
  5
467
330
1A
100
AcDbEntity
  8
SEIHIN
  6
CONTINUOUS
 62
     3
 48
5.0
100
AcDbLine
 10
124.006597753233
 20
183.5796747324747
 30
0.0
 11
124.0065977532329
 21
133.0676747324747
 31
0.0
  0
LINE
  5
468
330
1A
100
AcDbEntity
  8
SEIHIN
  6
CONTINUOUS
 62
     3
 48
5.0
100
AcDbLine
 10
137.0065977532329
 20
183.5796747324747
 30
0.0
 11
137.0065977532328
 21
133.0676747324747
 31
0.0
  0
LINE
  5
46A
330
1A
100
AcDbEntity
  8
SEIHIN
  6
CONTINUOUS
 62
     3
 48
5.0
100
AcDbLine
 10
121.506597753233
 20
108.5796747324747
 30
0.0
 11
139.5065977532328
 21
108.5796747324747
 31
0.0
  0
LINE
  5
46B
330
1A
100
AcDbEntity
  8
SEIHIN
  6
CONTINUOUS
 62
     3
 48
5.0
100
AcDbLine
 10
121.506597753233
 20
122.2799747324749
 30
0.0
 11
124.0065977532329
 21
121.2799747324747
 31
0.0
  0
LINE
  5
46C
330
1A
100
AcDbEntity
  8
SEIHIN
  6
CONTINUOUS
 62
     3
 48
5.0
100
AcDbLine
 10
124.0065977532329
 20
129.0795747324749
 30
0.0
 11
121.506597753233
 21
131.6119747324749
 31
0.0
  0
LINE
  5
46D
330
1A
100
AcDbEntity
  8
SEIHIN
  6
CONTINUOUS
 62
     3
 48
5.0
100
AcDbLine
 10
121.506597753233
 20
133.0675747324747
 30
0.0
 11
139.5065977532328
 21
133.0675747324747
 31
0.0
  0
LINE
  5
482
330
1A
100
AcDbEntity
  8
SEIHIN
  6
CONTINUOUS
 62
     3
 48
5.0
100
AcDbLine
 10
137.0065977532328
 20
129.0795747324749
 30
0.0
 11
137.0065977532328
 21
108.5796747324747
 31
0.0
  0
LINE
  5
483
330
1A
100
AcDbEntity
  8
SEIHIN
  6
CONTINUOUS
 62
     3
 48
5.0
100
AcDbLine
 10
124.0065977532329
 20
129.0795747324749
 30
0.0
 11
124.0065977532329
 21
108.5796747324747
 31
0.0
  0
LINE
  5
49C
330
1A
100
AcDbEntity
  8
SEIHIN
  6
CONTINUOUS
 62
     3
 48
5.0
100
AcDbLine
 10
137.0065977532328
 20
121.2799747324747
 30
0.0
 11
130.5065977532329
 21
121.2799747324747
 31
0.0
  0
LINE
  5
49D
330
1A
100
AcDbEntity
  8
SEIHIN
  6
CONTINUOUS
 62
     3
 48
5.0
100
AcDbLine
 10
124.0065977532329
 20
121.2799747324747
 30
0.0
 11
130.5065977532329
 21
121.2799747324747
 31
0.0
  0
LINE
  5
49E
330
1A
100
AcDbEntity
  8
SEIHIN
  6
CONTINUOUS
 62
     3
 48
5.0
100
AcDbLine
 10
139.5065977532328
 20
122.2799747324749
 30
0.0
 11
137.0065977532328
 21
121.2799747324747
 31
0.0
  0
LINE
  5
49F
330
1A
100
AcDbEntity
  8
SEIHIN
  6
CONTINUOUS
 62
     3
 48
5.0
100
AcDbLine
 10
128.506497753233
 20
133.7511747324749
 30
0.0
 11
130.506497753233
 21
133.7511747324749
 31
0.0
  0
LINE
  5
4A0
330
1A
100
AcDbEntity
  8
SEIHIN
  6
CONTINUOUS
 62
     3
 48
5.0
100
AcDbLine
 10
128.5065977532329
 20
133.7511747324749
 30
0.0
 11
128.5065977532329
 21
133.0676747324747
 31
0.0
  0
LINE
  5
4A1
330
1A
100
AcDbEntity
  8
SEIHIN
  6
CONTINUOUS
 62
     3
 48
5.0
100
AcDbLine
 10
132.5065977532328
 20
133.7511747324749
 30
0.0
 11
132.5065977532328
 21
133.0676747324747
 31
0.0
  0
LINE
  5
4A2
330
1A
100
AcDbEntity
  8
SEIHIN
  6
CONTINUOUS
 62
     3
 48
5.0
100
AcDbLine
 10
132.506697753233
 20
133.7511747324749
 30
0.0
 11
130.506697753233
 21
133.7511747324749
 31
0.0
  0
LINE
  5
4A3
330
1A
100
AcDbEntity
  8
SEIHIN
  6
CONTINUOUS
 62
     3
 48
5.0
100
AcDbLine
 10
137.0065977532328
 20
129.0795747324749
 30
0.0
 11
139.5065977532328
 21
131.6119747324749
 31
0.0
  0
ARC
  5
4A5
330
1A
100
AcDbEntity
  8
SEIHIN
  6
CONTINUOUS
 62
     3
 48
5.0
100
AcDbCircle
 10
310.9136760417785
 20
128.5799496108259
 30
0.0
 40
2.400000000000005
100
AcDbArc
 50
270.0005624777767
 51
90.00056247777667
  0
ARC
  5
4A6
330
1A
100
AcDbEntity
  8
SEIHIN
  6
CONTINUOUS
 62
     3
 48
5.0
100
AcDbCircle
 10
310.9136760417785
 20
128.5799496108259
 30
0.0
 40
2.25
100
AcDbArc
 50
270.0005624777767
 51
90.00056247777667
  0
ARC
  5
4A7
330
1A
100
AcDbEntity
  8
SEIHIN
  6
CONTINUOUS
 62
     3
 48
5.0
100
AcDbCircle
 10
310.9136760417785
 20
128.5799496108259
 30
0.0
 40
2.400000000000005
100
AcDbArc
 50
90.00056247777667
 51
270.0005624777767
  0
ARC
  5
4A8
330
1A
100
AcDbEntity
  8
SEIHIN
  6
CONTINUOUS
 62
     3
 48
5.0
100
AcDbCircle
 10
310.9136760417785
 20
128.5799496108259
 30
0.0
 40
2.25
100
AcDbArc
 50
90.00056247777667
 51
270.0005624777767
  0
ARC
  5
4A9
330
1A
100
AcDbEntity
  8
SEIHIN
  6
CONTINUOUS
 62
     3
 48
5.0
100
AcDbCircle
 10
310.9136747106465
 20
128.5799093840112
 30
0.0
 40
4.999979552968912
100
AcDbArc
 50
221.2085729938189
 51
135.0002257356292
  0
LINE
  5
4AA
330
1A
100
AcDbEntity
  8
CENTER_L
  6
CENTER
 62
     1
 48
5.0
100
AcDbLine
 10
310.9135912021796
 20
137.2219816284268
 30
0.0
 11
310.9137608813774
 21
119.9379175932248
 31
0.0
  0
ARC
  5
4AB
330
1A
100
AcDbEntity
  8
SEIHIN
  6
CONTINUOUS
 62
     3
 48
5.0
100
AcDbCircle
 10
305.647515132907
 20
123.9681983598649
 30
0.0
 40
2.000042968288538
100
AcDbArc
 50
41.21169350645704
 51
130.506960338023
  0
ARC
  5
4AC
330
1A
100
AcDbEntity
  8
SEIHIN
  6
CONTINUOUS
 62
     3
 48
5.0
100
AcDbCircle
 10
306.3985020690702
 20
124.6286060279413
 30
0.0
 40
0.9999483636654158
100
AcDbArc
 50
41.18866912878963
 51
132.1465459959952
  0
ARC
  5
4AD
330
1A
100
AcDbEntity
  8
SEIHIN
  6
CONTINUOUS
 62
     3
 48
5.0
100
AcDbCircle
 10
312.9136292630895
 20
132.5799832073081
 30
0.0
 40
2.999985585773595
100
AcDbArc
 50
324.8630522301699
 51
91.68707645569403
  0
LINE
  5
4AE
330
1A
100
AcDbEntity
  8
SEIHIN
  6
CONTINUOUS
 62
     3
 48
5.0
100
AcDbLine
 10
307.3781413336301
 20
132.1154149023367
 30
0.0
 11
306.9136367745963
 21
132.5798103422764
 31
0.0
  0
LINE
  5
4AF
330
1A
100
AcDbEntity
  8
SEIHIN
  6
CONTINUOUS
 62
     3
 48
5.0
100
AcDbLine
 10
307.3781413336301
 20
132.1154149023367
 30
0.0
 11
306.9136367745963
 21
132.5798103422764
 31
0.0
  0
ARC
  5
4B0
330
1A
100
AcDbEntity
  8
SEIHIN
  6
CONTINUOUS
 62
     3
 48
5.0
100
AcDbCircle
 10
313.8473094188312
 20
136.4694562000979
 30
0.0
 40
0.9999995899415395
100
AcDbArc
 50
155.4798365465012
 51
256.50259176193
  0
ARC
  5
4B1
330
1A
100
AcDbEntity
  8
SEIHIN
  6
CONTINUOUS
 62
     3
 48
5.0
100
AcDbCircle
 10
312.7959151914854
 20
136.5782411815581
 30
0.0
 40
1.000007787236081
100
AcDbArc
 50
154.8927052513424
 51
271.6900072310493
  0
LINE
  5
4B2
330
1A
100
AcDbEntity
  8
SEIHIN
  6
CONTINUOUS
 62
     3
 48
5.0
100
AcDbLine
 10
121.506597753233
 20
182.5796747324747
 30
0.0
 11
124.006597753233
 21
183.5796747324747
 31
0.0
  0
DIMENSION
  5
4B3
330
1A
100
AcDbEntity
  8
SUNPOU
  6
CONTINUOUS
 48
5.0
100
AcDbDimension
  2
*D6
 10
121.506597753233
 20
209.1896895031907
 30
0.0
 11
131.5881215845014
 21
209.1896895031907
 31
0.0
 70
   160
  3
STANDARD
100
AcDbAlignedDimension
 13
139.5065977532329
 23
182.5796747324747
 33
0.0
 14
121.506597753233
 24
182.5796747324747
 34
0.0
100
AcDbRotatedDimension
1001
ACAD
1000
DSTYLE
1002
{
1070
   288
1070
     1
1070
   140
1040
3.0
1070
    74
1070
     0
1070
   172
1070
     1
1070
    73
1070
     0
1070
   272
1070
     2
1070
    77
1070
     3
1070
   173
1070
     1
1070
   147
1040
1.0
1070
    42
1040
3.0
1070
    44
1040
1.5
1070
    43
1040
7.0
1070
   271
1070
     0
1070
   178
1070
     4
1070
   177
1070
     4
1070
   176
1070
     4
1070
   141
1040
150.0
1070
     7
1000
_OPEN
1070
     6
1000
_OPEN
1070
    41
1040
3.0
1002
}
  0
LINE
  5
4B4
330
1A
100
AcDbEntity
  8
SEIHIN
  6
CONTINUOUS
 62
     3
 48
5.0
100
AcDbLine
 10
137.0065977532329
 20
183.5796747324747
 30
0.0
 11
130.506597753233
 21
183.5796747324747
 31
0.0
  0
LINE
  5
4B5
330
1A
100
AcDbEntity
  8
SEIHIN
  6
CONTINUOUS
 62
     3
 48
5.0
100
AcDbLine
 10
124.006597753233
 20
183.5796747324747
 30
0.0
 11
130.506597753233
 21
183.5796747324747
 31
0.0
  0
LINE
  5
4B6
330
1A
100
AcDbEntity
  8
SEIHIN
  6
CONTINUOUS
 62
     3
 48
5.0
100
AcDbLine
 10
139.5065977532329
 20
182.5796747324747
 30
0.0
 11
137.0065977532329
 21
183.5796747324747
 31
0.0
  0
ARC
  5
4B7
330
1A
100
AcDbEntity
  8
SEIHIN
  6
CONTINUOUS
 62
     3
 48
5.0
100
AcDbCircle
 10
282.9134600648186
 20
150.579774731269
 30
0.0
 40
28.99998689514277
100
AcDbArc
 50
352.0724171058708
 51
7.928707849682538
  0
LINE
  5
4B8
330
1A
100
AcDbEntity
  8
SEIHIN
  6
CONTINUOUS
 62
     3
 48
5.0
100
AcDbLine
 10
254.1909057200789
 20
146.5796747324747
 30
0.0
 11
253.3333057200788
 21
145.5796747324747
 31
0.0
  0
LINE
  5
4B9
330
1A
100
AcDbEntity
  8
SEIHIN
  6
CONTINUOUS
 62
     3
 48
5.0
100
AcDbLine
 10
311.6362207974252
 20
154.579956705365
 30
0.0
 11
312.4938109802948
 21
155.5799651244525
 31
0.0
  0
ARC
  5
4BA
330
1A
100
AcDbEntity
  8
SEIHIN
  6
CONTINUOUS
 62
     3
 48
5.0
100
AcDbCircle
 10
282.9134763797607
 20
150.5795924562063
 30
0.0
 40
30.00000073140751
100
AcDbArc
 50
56.91532439562484
 51
217.8402267610965
  0
LINE
  5
4BC
330
1A
100
AcDbEntity
  8
SEIHIN
  6
CONTINUOUS
 62
     3
 48
5.0
100
AcDbLine
 10
275.9138723852486
 20
108.5796060136686
 30
0.0
 11
275.9138097826526
 21
114.9565060133613
 31
0.0
  0
LINE
  5
4BD
330
1A
100
AcDbEntity
  8
SEIHIN
  6
CONTINUOUS
 62
     3
 48
5.0
100
AcDbLine
 10
276.9138723852004
 20
108.5796158307577
 30
0.0
 11
276.9138097826044
 21
114.9565158304504
 31
0.0
  0
LINE
  5
4BE
330
1A
100
AcDbEntity
  8
SEIHIN
  6
CONTINUOUS
 62
     3
 48
5.0
100
AcDbLine
 10
289.9138723845739
 20
108.579743452917
 30
0.0
 11
289.9138097819779
 21
114.9566434526097
 31
0.0
  0
LINE
  5
4BF
330
1A
100
AcDbEntity
  8
SEIHIN
  6
CONTINUOUS
 62
     3
 48
5.0
100
AcDbLine
 10
288.9138723846221
 20
108.5797336358278
 30
0.0
 11
288.9138097820262
 21
114.9566336355205
 31
0.0
  0
LINE
  5
4C7
330
1A
100
AcDbEntity
  8
SEIHIN
  6
CONTINUOUS
 62
     3
 48
5.0
100
AcDbLine
 10
275.9137057200788
 20
108.5796747324747
 30
0.0
 11
289.9137057200789
 21
108.5796747324747
 31
0.0
  0
ARC
  5
4CC
330
1A
100
AcDbEntity
  8
SEIHIN
  6
CONTINUOUS
 62
     3
 48
5.0
100
AcDbCircle
 10
282.9135478028454
 20
150.5795322002559
 30
0.0
 40
34.00001189145251
100
AcDbArc
 50
233.9543438321486
 51
254.3200454839339
  0
ARC
  5
4CD
330
1A
100
AcDbEntity
  8
SEIHIN
  6
CONTINUOUS
 62
     3
 48
5.0
100
AcDbCircle
 10
282.913551093619
 20
150.5795306049297
 30
0.0
 40
32.99998828037068
100
AcDbArc
 50
233.9542260423255
 51
254.3200765983524
  0
ARC
  5
4CE
330
1A
100
AcDbEntity
  8
SEIHIN
  6
CONTINUOUS
 62
     3
 48
5.0
100
AcDbCircle
 10
282.9134336571858
 20
150.5795844749556
 30
0.0
 40
29.99997683991848
100
AcDbArc
 50
231.4088704998828
 51
268.0905893922072
  0
ARC
  5
4CF
330
1A
100
AcDbEntity
  8
SEIHIN
  6
CONTINUOUS
 62
     3
 48
5.0
100
AcDbCircle
 10
282.9136244120295
 20
150.579574786246
 30
0.0
 40
30.99997257768559
100
AcDbArc
 50
244.321185892079
 51
295.716595267175
  0
ARC
  5
4D0
330
1A
100
AcDbEntity
  8
SEIHIN
  6
CONTINUOUS
 62
     3
 48
5.0
100
AcDbCircle
 10
292.9137825761057
 20
114.9566370086374
 30
0.0
 40
2.999972794134695
100
AcDbArc
 50
105.6803043323291
 51
179.9998769280785
  0
ARC
  5
4D1
330
1A
100
AcDbEntity
  8
SEIHIN
  6
CONTINUOUS
 62
     3
 48
5.0
100
AcDbCircle
 10
292.9137940582253
 20
114.9566521580227
 30
0.0
 40
3.999984276241949
100
AcDbArc
 50
105.6810233735863
 51
180.0002653163442
  0
LINE
  5
4D2
330
1A
100
AcDbEntity
  8
SEIHIN
  6
CONTINUOUS
 62
     3
 48
5.0
100
AcDbLine
 10
296.9137205443
 20
124.0467121717958
 30
0.0
 11
296.913725492113
 21
123.5427121718202
 31
0.0
  0
ARC
  5
4D3
330
1A
100
AcDbEntity
  8
SEIHIN
  6
CONTINUOUS
 62
     3
 48
5.0
100
AcDbCircle
 10
295.913747909814
 20
123.5427380082111
 30
0.0
 40
0.9999775826328592
100
AcDbArc
 50
295.6769242640323
 51
359.9985196506508
  0
ARC
  5
4D4
330
1A
100
AcDbEntity
  8
SEIHIN
  6
CONTINUOUS
 62
     3
 48
5.0
100
AcDbCircle
 10
282.9137545808228
 20
120.5795747327146
 30
0.0
 40
1.000039449221876
100
AcDbArc
 50
179.043716229178
 51
0.9574087263752881
  0
ARC
  5
4D5
330
1A
100
AcDbEntity
  8
SEIHIN
  6
CONTINUOUS
 62
     3
 48
5.0
100
AcDbCircle
 10
272.9138369892297
 20
114.9564406673881
 30
0.0
 40
2.999972794134699
100
AcDbArc
 50
0.0012480274748101
 51
74.32082062322421
  0
ARC
  5
4D6
330
1A
100
AcDbEntity
  8
SEIHIN
  6
CONTINUOUS
 62
     3
 48
5.0
100
AcDbCircle
 10
272.9138255068127
 20
114.956455816548
 30
0.0
 40
3.999984276242003
100
AcDbArc
 50
0.0008596392107781
 51
74.32010158196854
  0
ARC
  5
4D7
330
1A
100
AcDbEntity
  8
SEIHIN
  6
CONTINUOUS
 62
     3
 48
5.0
100
AcDbCircle
 10
255.6679666649123
 20
129.4151418702742
 30
0.0
 40
4.500044480377723
100
AcDbArc
 50
326.1441654246617
 51
37.74509413617419
  0
ARC
  5
4D8
330
1A
100
AcDbEntity
  8
SEIHIN
  6
CONTINUOUS
 62
     3
 48
5.0
100
AcDbCircle
 10
262.1422000862977
 20
124.5517689414054
 30
0.0
 40
3.300043063354758
100
AcDbArc
 50
51.40753874110095
 51
142.3918718169614
  0
ARC
  5
4D9
330
1A
100
AcDbEntity
  8
SEIHIN
  6
CONTINUOUS
 62
     3
 48
5.0
100
AcDbCircle
 10
256.9136616021637
 20
128.5794261259906
 30
0.0
 40
7.299985557851063
100
AcDbArc
 50
180.0006145787529
 51
310.6302581281359
  0
ARC
  5
4DA
330
1A
100
AcDbEntity
  8
SEIHIN
  6
CONTINUOUS
 62
     3
 48
5.0
100
AcDbCircle
 10
256.9136585521897
 20
128.5794275276727
 30
0.0
 40
6.299982507893
100
AcDbArc
 50
180.0006355967979
 51
310.631129160014
  0
ARC
  5
4DB
330
1A
100
AcDbEntity
  8
SEIHIN
  6
CONTINUOUS
 62
     3
 48
5.0
100
AcDbCircle
 10
256.9136629602773
 20
128.5794423038141
 30
0.0
 40
3.300017459728334
100
AcDbArc
 50
97.27205769381313
 51
322.3932620693763
  0
ARC
  5
4DC
330
1A
100
AcDbEntity
  8
SEIHIN
  6
CONTINUOUS
 62
     3
 48
5.0
100
AcDbCircle
 10
256.9136768159109
 20
128.579437304579
 30
0.0
 40
3.000017816561054
100
AcDbArc
 50
85.04023757095657
 51
270.0005477393798
  0
ARC
  5
4DD
330
1A
100
AcDbEntity
  8
SEIHIN
  6
CONTINUOUS
 62
     3
 48
5.0
100
AcDbCircle
 10
256.9136221964482
 20
128.5793907705403
 30
0.0
 40
2.999971283541721
100
AcDbArc
 50
270.0015909127592
 51
326.1430754245135
  0
LINE
  5
4DE
330
1A
100
AcDbEntity
  8
SEIHIN
  6
CONTINUOUS
 62
     3
 48
5.0
100
AcDbLine
 10
268.9137205456493
 20
124.046437293299
 30
0.0
 11
268.9137254934623
 21
123.5424372933233
 31
0.0
  0
ARC
  5
4DF
330
1A
100
AcDbEntity
  8
SEIHIN
  6
CONTINUOUS
 62
     3
 48
5.0
100
AcDbCircle
 10
269.9137030750613
 20
123.5424827634525
 30
0.0
 40
0.9999775826328388
100
AcDbArc
 50
180.0026053048993
 51
244.3242006915146
  0
ARC
  5
4E0
330
1A
100
AcDbEntity
  8
SEIHIN
  6
CONTINUOUS
 62
     3
 48
5.0
100
AcDbCircle
 10
262.3184434600466
 20
122.2803727699043
 30
0.0
 40
0.9999987875029436
100
AcDbArc
 50
53.95027139031639
 51
130.6331810971013
  0
ARC
  5
4E1
330
1A
100
AcDbEntity
  8
SEIHIN
  6
CONTINUOUS
 62
     3
 48
5.0
100
AcDbCircle
 10
262.3185192082633
 20
122.2803758022783
 30
0.0
 40
1.999976018987851
100
AcDbArc
 50
53.95585149933772
 51
130.6325849784904
  0
ARC
  5
4E2
330
1A
100
AcDbEntity
  8
SEIHIN
  6
CONTINUOUS
 62
     3
 48
5.0
100
AcDbCircle
 10
253.6136683572542
 20
129.0793859717539
 30
0.0
 40
3.999997221248225
100
AcDbArc
 50
43.8984897828254
 51
180.0005464376553
  0
LINE
  5
4E3
330
1A
100
AcDbEntity
  8
SEIHIN
  6
CONTINUOUS
 62
     3
 48
5.0
100
AcDbLine
 10
250.6136760446843
 20
128.5793576403487
 30
0.0
 11
250.6136451620852
 21
131.7251576401971
 31
0.0
  0
LINE
  5
4E4
330
1A
100
AcDbEntity
  8
SEIHIN
  6
CONTINUOUS
 62
     3
 48
5.0
100
AcDbLine
 10
254.5269536713494
 20
130.8583960574539
 30
0.0
 11
254.5269581999727
 21
130.3970960574761
 31
0.0
  0
ARC
  5
4E5
330
1A
100
AcDbEntity
  8
SEIHIN
  6
CONTINUOUS
 62
     3
 48
5.0
100
AcDbCircle
 10
282.9172845481346
 20
150.574146276618
 30
0.0
 40
32.99998069950273
100
AcDbArc
 50
214.8816574175203
 51
215.4265614105064
  0
LINE
  5
4E6
330
1A
100
AcDbEntity
  8
SEIHIN
  6
CONTINUOUS
 62
     3
 48
5.0
100
AcDbLine
 10
254.526925275419
 20
133.7508960573147
 30
0.0
 11
254.5269329052607
 21
132.9736960573521
 31
0.0
  0
LINE
  5
4E7
330
1A
100
AcDbEntity
  8
SEIHIN
  6
CONTINUOUS
 62
     3
 48
5.0
100
AcDbLine
 10
249.6136760447325
 20
128.5793478232595
 30
0.0
 11
249.6136711361879
 21
129.0793478232354
 31
0.0
  0
ARC
  5
4E8
330
1A
100
AcDbEntity
  8
SEIHIN
  6
CONTINUOUS
 62
     3
 48
5.0
100
AcDbCircle
 10
282.9134600675075
 20
150.5796747312689
 30
0.0
 40
28.99998689412843
100
AcDbArc
 50
172.0724171055913
 51
187.928707849962
  0
LINE
  5
4E9
330
1A
100
AcDbEntity
  8
SEIHIN
  6
CONTINUOUS
 62
     3
 48
5.0
100
AcDbLine
 10
312.4941057200788
 20
145.5796747324746
 30
0.0
 11
311.6365057200789
 21
146.5796747324746
 31
0.0
  0
LINE
  5
4EA
330
1A
100
AcDbEntity
  8
SEIHIN
  6
CONTINUOUS
 62
     3
 48
5.0
100
AcDbLine
 10
254.1906208001934
 20
154.5793927567872
 30
0.0
 11
253.3330109831456
 21
155.5793843376033
 31
0.0
  0
DIMENSION
  5
58A
330
1A
100
AcDbEntity
  8
SUNPOU
 48
5.0
100
AcDbDimension
  2
*D7
 10
110.5065477532329
 20
218.3733143181354
 30
0.0
 11
120.5065727532329
 21
220.8733143181354
 31
0.0
 70
    32
  3
STANDARD
100
AcDbAlignedDimension
 13
130.5065977532329
 23
191.6629431159517
 33
0.0
 14
110.5065477532329
 24
107.5796747324747
 34
0.0
100
AcDbRotatedDimension
1001
ACAD
1000
DSTYLE
1002
{
1070
    41
1040
3.0
1070
    42
1040
3.0
1070
    43
1040
7.0
1070
    44
1040
1.5
1070
    73
1070
     0
1070
    74
1070
     0
1070
    77
1070
     3
1070
   140
1040
3.0
1070
   141
1040
150.0
1070
   147
1040
1.0
1070
   172
1070
     1
1070
   173
1070
     1
1070
   176
1070
     4
1070
   177
1070
     4
1070
   178
1070
     4
1070
   271
1070
     0
1070
   272
1070
     2
1070
   341
1005
B2
1070
     6
1000
OPEN
1070
     7
1000
OPEN
1002
}
  0
DIMENSION
  5
597
330
1A
100
AcDbEntity
  8
SUNPOU
 48
5.0
100
AcDbDimension
  2
*D8
 10
150.5067477532329
 20
226.357404164782
 30
0.0
 11
130.5066477532329
 21
228.8574041647821
 31
0.0
 70
    32
  3
STANDARD
100
AcDbAlignedDimension
 13
110.5065477532329
 23
107.5796747324747
 33
0.0
 14
150.5067477532329
 24
108.5796747324747
 34
0.0
100
AcDbRotatedDimension
1001
ACAD
1000
DSTYLE
1002
{
1070
    41
1040
3.0
1070
    42
1040
3.0
1070
    43
1040
7.0
1070
    44
1040
1.5
1070
    73
1070
     0
1070
    74
1070
     0
1070
    77
1070
     3
1070
   140
1040
3.0
1070
   141
1040
150.0
1070
   147
1040
1.0
1070
   172
1070
     1
1070
   173
1070
     1
1070
   176
1070
     4
1070
   177
1070
     4
1070
   178
1070
     4
1070
   271
1070
     0
1070
   272
1070
     2
1070
   341
1005
B2
1070
     6
1000
OPEN
1070
     7
1000
OPEN
1002
}
  0
DIMENSION
  5
5A4
330
1A
100
AcDbEntity
  8
SUNPOU
 48
5.0
100
AcDbDimension
  2
*D9
 10
183.1097095754587
 20
84.57967473247474
 30
0.0
 11
180.6097095754587
 21
96.07967473247477
 31
0.0
 70
    32
  3
STANDARD
100
AcDbAlignedDimension
 13
150.5067477532329
 23
107.5796747324747
 33
0.0
 14
145.5067477532329
 24
84.57967473247476
 34
0.0
 50
90.0
100
AcDbRotatedDimension
1001
ACAD
1000
DSTYLE
1002
{
1070
    41
1040
3.0
1070
    42
1040
3.0
1070
    43
1040
7.0
1070
    44
1040
1.5
1070
    73
1070
     0
1070
    74
1070
     0
1070
    77
1070
     3
1070
   140
1040
3.0
1070
   141
1040
150.0
1070
   147
1040
1.0
1070
   172
1070
     1
1070
   173
1070
     1
1070
   176
1070
     4
1070
   177
1070
     4
1070
   178
1070
     4
1070
   271
1070
     0
1070
   272
1070
     2
1070
   341
1005
B2
1070
     6
1000
OPEN
1070
     7
1000
OPEN
1002
}
  0
DIMENSION
  5
5BE
330
1A
100
AcDbEntity
  8
SUNPOU
 48
5.0
100
AcDbDimension
  2
*D10
 10
233.4456070831618
 20
108.5796747324747
 30
0.0
 11
230.9456070831617
 21
146.0796350561045
 31
0.0
 70
    32
  3
STANDARD
100
AcDbAlignedDimension
 13
282.9134209120405
 23
183.5795953797342
 33
0.0
 14
272.8862981312336
 24
108.5796747324747
 34
0.0
 50
90.0
100
AcDbRotatedDimension
1001
ACAD
1000
DSTYLE
1002
{
1070
    41
1040
3.0
1070
    42
1040
3.0
1070
    43
1040
7.0
1070
    44
1040
1.5
1070
    73
1070
     0
1070
    74
1070
     0
1070
    77
1070
     3
1070
   140
1040
3.0
1070
   141
1040
150.0
1070
   147
1040
1.0
1070
   172
1070
     1
1070
   173
1070
     1
1070
   176
1070
     4
1070
   177
1070
     4
1070
   178
1070
     4
1070
   271
1070
     0
1070
   272
1070
     2
1070
   341
1005
B2
1070
     6
1000
OPEN
1070
     7
1000
OPEN
1002
}
  0
DIMENSION
  5
5E2
330
1A
100
AcDbEntity
  8
SUNPOU
 48
5.0
100
AcDbDimension
  2
*D11
 10
233.4456070831618
 20
83.57967473247475
 30
0.0
 11
230.9456070831617
 21
96.0796747324748
 31
0.0
 70
    32
  3
STANDARD
100
AcDbAlignedDimension
 13
272.8862981312336
 23
108.5796747324747
 33
0.0
 14
272.9138981313335
 24
83.57967473247475
 34
0.0
 50
90.0
100
AcDbRotatedDimension
1001
ACAD
1000
DSTYLE
1002
{
1070
   287
1070
     4
1070
   287
1070
     4
1070
   287
1070
     4
1070
   287
1070
     4
1070
   287
1070
     4
1070
   287
1070
     4
1070
   287
1070
     4
1070
   279
1070
     1
1070
    41
1040
3.0
1070
    42
1040
3.0
1070
    43
1040
7.0
1070
    44
1040
1.5
1070
    73
1070
     0
1070
    74
1070
     0
1070
    77
1070
     3
1070
   140
1040
3.0
1070
   141
1040
150.0
1070
   147
1040
1.0
1070
   172
1070
     1
1070
   173
1070
     1
1070
   176
1070
     4
1070
   177
1070
     4
1070
   178
1070
     4
1070
   271
1070
     0
1070
   272
1070
     2
1070
   341
1005
B2
1070
     6
1000
OPEN
1070
     7
1000
OPEN
1002
}
  0
DIMENSION
  5
5EF
330
1A
100
AcDbEntity
  8
SUNPOU
 48
5.0
100
AcDbDimension
  2
*D12
 10
225.3943443966577
 20
83.57967473247475
 30
0.0
 11
222.8943443966577
 21
133.5796350566828
 31
0.0
 70
    32
  3
STANDARD
100
AcDbAlignedDimension
 13
282.9136971978933
 23
183.5795953808908
 33
0.0
 14
272.9138981313335
 24
83.57967473247475
 34
0.0
 50
90.0
100
AcDbRotatedDimension
1001
ACAD
1000
DSTYLE
1002
{
1070
    41
1040
3.0
1070
    42
1040
3.0
1070
    43
1040
7.0
1070
    44
1040
1.5
1070
    73
1070
     0
1070
    74
1070
     0
1070
    77
1070
     3
1070
   140
1040
3.0
1070
   141
1040
150.0
1070
   147
1040
1.0
1070
   172
1070
     1
1070
   173
1070
     1
1070
   176
1070
     4
1070
   177
1070
     4
1070
   178
1070
     4
1070
   271
1070
     0
1070
   272
1070
     2
1070
   341
1005
B2
1070
     6
1000
OPEN
1070
     7
1000
OPEN
1002
}
  0
DIMENSION
  5
6E5
330
1A
100
AcDbEntity
  8
SUNPOU
 48
5.0
100
AcDbDimension
  2
*D13
 10
192.0381543563291
 20
83.57957473247472
 30
0.0
 11
189.5381543563291
 21
96.07962473247475
 31
0.0
 70
    32
  3
STANDARD
100
AcDbAlignedDimension
 13
150.5067477532329
 23
108.5796747324747
 33
0.0
 14
145.5067477532329
 24
83.57957473247472
 34
0.0
 50
90.0
100
AcDbRotatedDimension
1001
ACAD
1000
DSTYLE
1002
{
1070
    41
1040
3.0
1070
    42
1040
3.0
1070
    43
1040
7.0
1070
    44
1040
1.5
1070
    73
1070
     0
1070
    74
1070
     0
1070
    77
1070
     3
1070
   140
1040
3.0
1070
   141
1040
150.0
1070
   147
1040
1.0
1070
   172
1070
     1
1070
   173
1070
     1
1070
   176
1070
     4
1070
   177
1070
     4
1070
   178
1070
     4
1070
   271
1070
     0
1070
   272
1070
     2
1070
   341
1005
B2
1070
     6
1000
OPEN
1070
     7
1000
OPEN
1002
}
  0
VIEWPORT
  5
22
330
17
100
AcDbEntity
 67
     1
  8
0
100
AcDbViewport
 10
313.6808219178082
 20
148.5
 30
0.0
 40
627.3616438356165
 41
297.0
 68
     2
 69
     1
1001
ACAD
1000
MVIEW
1002
{
1070
    16
1010
0.0
1020
0.0
1030
0.0
1010
0.0
1020
0.0
1030
1.0
1040
0.0
1040
297.0
1040
313.6808219178082
1040
148.5
1040
50.0
1040
0.0
1040
0.0
1070
     0
1070
   100
1070
     1
1070
     0
1070
     0
1070
     0
1070
     0
1070
     0
1040
0.0
1040
0.0
1040
0.0
1040
1.0
1040
1.0
1040
10.0
1040
10.0
1070
     0
1002
{
1002
}
1002
}
  0
VIEWPORT
  5
64
330
17
100
AcDbEntity
 67
     1
  8
VIEWPORT
100
AcDbViewport
 10
210.0
 20
148.5
 30
0.0
 40
420.0
 41
297.0
 68
     1
 69
     2
1001
ACAD
1000
MVIEW
1002
{
1070
    16
1010
0.0
1020
0.0
1030
0.0
1010
0.0
1020
0.0
1030
1.0
1040
0.0
1040
302.9399999999998
1040
210.0
1040
148.5
1040
50.0
1040
0.0
1040
0.0
1070
     0
1070
   100
1070
     1
1070
     0
1070
     0
1070
     0
1070
     0
1070
     0
1040
0.0
1040
0.0
1040
0.0
1040
5.0
1040
5.0
1040
0.0
1040
0.0
1070
     0
1002
{
1002
}
1002
}
  0
ENDSEC
  0
SECTION
  2
OBJECTS
  0
DICTIONARY
  5
C
330
0
100
AcDbDictionary
  3
ACAD_GROUP
350
D
  3
ACAD_LAYOUT
350
35C
  3
ACAD_MLINESTYLE
350
E
  3
ACAD_PLOTSETTINGS
350
35D
1001
ACAD
1000
TREAT_AS_HARD
1070
     0
  0
DICTIONARY
  5
71A
330
1A
100
AcDbDictionary
  3
ACAD_LAYOUTSELFREF
350
8BB
1001
ACAD
1000
TREAT_AS_HARD
1070
     1
  0
DICTIONARY
  5
718
330
17
100
AcDbDictionary
  3
ACAD_LAYOUTSELFREF
350
8BA
1001
ACAD
1000
TREAT_AS_HARD
1070
     1
  0
DICTIONARY
  5
D
102
{ACAD_REACTORS
330
C
102
}
330
C
100
AcDbDictionary
1001
ACAD
1000
TREAT_AS_HARD
1070
     0
  0
DICTIONARY
  5
35C
102
{ACAD_REACTORS
330
C
102
}
330
C
100
AcDbDictionary
1001
ACAD
1000
TREAT_AS_HARD
1070
     0
  0
DICTIONARY
  5
E
102
{ACAD_REACTORS
330
C
102
}
330
C
100
AcDbDictionary
  3
STANDARD
350
13
1001
ACAD
1000
TREAT_AS_HARD
1070
     0
  0
DICTIONARY
  5
35D
102
{ACAD_REACTORS
330
C
102
}
330
C
100
AcDbDictionary
1001
ACAD
1000
TREAT_AS_HARD
1070
     0
  0
XRECORD
  5
8BB
102
{ACAD_REACTORS
330
71A
102
}
330
71A
100
AcDbXrecord
340
1A
  0
XRECORD
  5
8BA
102
{ACAD_REACTORS
330
718
102
}
330
718
100
AcDbXrecord
340
17
  0
MLINESTYLE
  5
13
102
{ACAD_REACTORS
330
E
102
}
330
E
100
AcDbMlineStyle
  2
STANDARD
 70
     0
  3

 62
     0
 51
90.0
 52
90.0
 71
     2
 49
0.5
 62
   256
  6
BYLAYER
 49
-0.5
 62
   256
  6
BYLAYER
  0
ENDSEC
  0
EOF
