  0
SECTION
  2
HEADER
  9
$ACADVER
  1
AC1015
  9
$ACADMAINTVER
 70
     6
  9
$DWGCODEPAGE
  3
ANSI_932
  9
$INSBASE
 10
0.0
 20
0.0
 30
0.0
  9
$EXTMIN
 10
0.0000000135560185
 20
-0.0000001317113174
 30
0.0
  9
$EXTMAX
 10
797.6000000135562
 20
551.5999998682888
 30
0.0
  9
$LIMMIN
 10
0.0
 20
0.0
  9
$LIMMAX
 10
840.0
 20
594.0
  9
$ORTHOMODE
 70
     0
  9
$REGENMODE
 70
     1
  9
$FILLMODE
 70
     1
  9
$QTEXTMODE
 70
     0
  9
$MIRRTEXT
 70
     1
  9
$LTSCALE
 40
2.0
  9
$ATTMODE
 70
     1
  9
$TEXTSIZE
 40
6.0
  9
$TRACEWID
 40
1.0
  9
$TEXTSTYLE
  7
STANDARD
  9
$CLAYER
  8
SEIHIN
  9
$CELTYPE
  6
BYLAYER
  9
$CECOLOR
 62
   256
  9
$CELTSCALE
 40
1.0
  9
$DISPSILH
 70
     0
  9
$DIMSCALE
 40
1.0
  9
$DIMASZ
 40
7.0
  9
$DIMEXO
 40
6.0
  9
$DIMDLI
 40
14.0
  9
$DIMRND
 40
0.0
  9
$DIMDLE
 40
0.0
  9
$DIMEXE
 40
3.0
  9
$DIMTP
 40
0.0
  9
$DIMTM
 40
0.0
  9
$DIMTXT
 40
6.0
  9
$DIMCEN
 40
150.0
  9
$DIMTSZ
 40
0.0
  9
$DIMTOL
 70
     0
  9
$DIMLIM
 70
     0
  9
$DIMTIH
 70
     0
  9
$DIMTOH
 70
     0
  9
$DIMSE1
 70
     0
  9
$DIMSE2
 70
     0
  9
$DIMTAD
 70
     3
  9
$DIMZIN
 70
     0
  9
$DIMBLK
  1

  9
$DIMASO
 70
     1
  9
$DIMSHO
 70
     1
  9
$DIMPOST
  1

  9
$DIMAPOST
  1

  9
$DIMALT
 70
     0
  9
$DIMALTD
 70
     2
  9
$DIMALTF
 40
25.4
  9
$DIMLFAC
 40
1.0
  9
$DIMTOFL
 70
     1
  9
$DIMTVP
 40
0.0
  9
$DIMTIX
 70
     0
  9
$DIMSOXD
 70
     0
  9
$DIMSAH
 70
     1
  9
$DIMBLK1
  1
OPEN
  9
$DIMBLK2
  1
OPEN
  9
$DIMSTYLE
  2
STANDARD
  9
$DIMCLRD
 70
   256
  9
$DIMCLRE
 70
   256
  9
$DIMCLRT
 70
   256
  9
$DIMTFAC
 40
1.0
  9
$DIMGAP
 40
2.0
  9
$DIMJUST
 70
     0
  9
$DIMSD1
 70
     0
  9
$DIMSD2
 70
     0
  9
$DIMTOLJ
 70
     1
  9
$DIMTZIN
 70
     0
  9
$DIMALTZ
 70
     0
  9
$DIMALTTZ
 70
     0
  9
$DIMUPT
 70
     0
  9
$DIMDEC
 70
     0
  9
$DIMTDEC
 70
     0
  9
$DIMALTU
 70
     2
  9
$DIMALTTD
 70
     2
  9
$DIMTXSTY
  7
STANDARD
  9
$DIMAUNIT
 70
     0
  9
$DIMADEC
 70
     0
  9
$DIMALTRND
 40
0.0
  9
$DIMAZIN
 70
     0
  9
$DIMDSEP
 70
    46
  9
$DIMATFIT
 70
     3
  9
$DIMFRAC
 70
     0
  9
$DIMLDRBLK
  1
OPEN
  9
$DIMLUNIT
 70
     2
  9
$DIMLWD
 70
    -1
  9
$DIMLWE
 70
    -1
  9
$DIMTMOVE
 70
     0
  9
$LUNITS
 70
     2
  9
$LUPREC
 70
     4
  9
$SKETCHINC
 40
1.0
  9
$FILLETRAD
 40
10.0
  9
$AUNITS
 70
     0
  9
$AUPREC
 70
     0
  9
$MENU
  1
.
  9
$ELEVATION
 40
0.0
  9
$PELEVATION
 40
0.0
  9
$THICKNESS
 40
0.0
  9
$LIMCHECK
 70
     0
  9
$CHAMFERA
 40
0.0
  9
$CHAMFERB
 40
0.0
  9
$CHAMFERC
 40
40.0
  9
$CHAMFERD
 40
0.0
  9
$SKPOLY
 70
     0
  9
$TDCREATE
 40
2451030.614786227
  9
$TDUCREATE
 40
2451030.239786227
  9
$TDUPDATE
 40
2455609.405650255
  9
$TDUUPDATE
 40
2455609.030650255
  9
$TDINDWG
 40
0.2844018287
  9
$TDUSRTIMER
 40
0.2844018287
  9
$USRTIMER
 70
     1
  9
$ANGBASE
 50
0.0
  9
$ANGDIR
 70
     0
  9
$PDMODE
 70
     0
  9
$PDSIZE
 40
0.0
  9
$PLINEWID
 40
0.0
  9
$SPLFRAME
 70
     0
  9
$SPLINETYPE
 70
     6
  9
$SPLINESEGS
 70
     8
  9
$HANDSEED
  5
5D15
  9
$SURFTAB1
 70
     6
  9
$SURFTAB2
 70
     6
  9
$SURFTYPE
 70
     6
  9
$SURFU
 70
     6
  9
$SURFV
 70
     6
  9
$UCSBASE
  2

  9
$UCSNAME
  2

  9
$UCSORG
 10
0.0
 20
0.0
 30
0.0
  9
$UCSXDIR
 10
1.0
 20
0.0
 30
0.0
  9
$UCSYDIR
 10
0.0
 20
1.0
 30
0.0
  9
$UCSORTHOREF
  2

  9
$UCSORTHOVIEW
 70
     0
  9
$UCSORGTOP
 10
0.0
 20
0.0
 30
0.0
  9
$UCSORGBOTTOM
 10
0.0
 20
0.0
 30
0.0
  9
$UCSORGLEFT
 10
0.0
 20
0.0
 30
0.0
  9
$UCSORGRIGHT
 10
0.0
 20
0.0
 30
0.0
  9
$UCSORGFRONT
 10
0.0
 20
0.0
 30
0.0
  9
$UCSORGBACK
 10
0.0
 20
0.0
 30
0.0
  9
$PUCSBASE
  2

  9
$PUCSNAME
  2

  9
$PUCSORG
 10
0.0
 20
0.0
 30
0.0
  9
$PUCSXDIR
 10
1.0
 20
0.0
 30
0.0
  9
$PUCSYDIR
 10
0.0
 20
1.0
 30
0.0
  9
$PUCSORTHOREF
  2

  9
$PUCSORTHOVIEW
 70
     0
  9
$PUCSORGTOP
 10
0.0
 20
0.0
 30
0.0
  9
$PUCSORGBOTTOM
 10
0.0
 20
0.0
 30
0.0
  9
$PUCSORGLEFT
 10
0.0
 20
0.0
 30
0.0
  9
$PUCSORGRIGHT
 10
0.0
 20
0.0
 30
0.0
  9
$PUCSORGFRONT
 10
0.0
 20
0.0
 30
0.0
  9
$PUCSORGBACK
 10
0.0
 20
0.0
 30
0.0
  9
$USERI1
 70
     0
  9
$USERI2
 70
     0
  9
$USERI3
 70
     0
  9
$USERI4
 70
     0
  9
$USERI5
 70
     0
  9
$USERR1
 40
0.0
  9
$USERR2
 40
0.0
  9
$USERR3
 40
0.0
  9
$USERR4
 40
0.0
  9
$USERR5
 40
0.0
  9
$WORLDVIEW
 70
     1
  9
$SHADEDGE
 70
     3
  9
$SHADEDIF
 70
    70
  9
$TILEMODE
 70
     1
  9
$MAXACTVP
 70
    16
  9
$PINSBASE
 10
0.0
 20
0.0
 30
0.0
  9
$PLIMCHECK
 70
     0
  9
$PEXTMIN
 10
-0.0128164049386896
 20
-0.0090630292066862
 30
-0.0015258207003583
  9
$PEXTMAX
 10
420.0128183607162
 20
297.0090644122207
 30
0.0000000349246037
  9
$PLIMMIN
 10
-30.66685116754002
 20
-9.990190459854741
  9
$PLIMMAX
 10
450.6668334081172
 20
361.9494725043409
  9
$UNITMODE
 70
     0
  9
$VISRETAIN
 70
     0
  9
$PLINEGEN
 70
     0
  9
$PSLTSCALE
 70
     1
  9
$TREEDEPTH
 70
  3020
  9
$CMLSTYLE
  2
STANDARD
  9
$CMLJUST
 70
     0
  9
$CMLSCALE
 40
1.0
  9
$PROXYGRAPHICS
 70
     1
  9
$MEASUREMENT
 70
     0
  9
$CELWEIGHT
370
    -1
  9
$ENDCAPS
280
     0
  9
$JOINSTYLE
280
     0
  9
$LWDISPLAY
290
     0
  9
$INSUNITS
 70
     0
  9
$HYPERLINKBASE
  1

  9
$STYLESHEET
  1
systemprinter.ctb
  9
$XEDIT
290
     1
  9
$CEPSNTYPE
380
     0
  9
$PSTYLEMODE
290
     1
  9
$FINGERPRINTGUID
  2
{91E25F26-0CBF-4C93-982E-B5F00895E654}
  9
$VERSIONGUID
  2
{7A4AD69E-023F-40B1-A0C1-42E346C4AFCD}
  9
$EXTNAMES
290
     1
  9
$PSVPSCALE
 40
0.0
  9
$OLESTARTUP
290
     0
  0
ENDSEC
  0
SECTION
  2
CLASSES
  0
CLASS
  1
ACDBDICTIONARYWDFLT
  2
AcDbDictionaryWithDefault
  3
ObjectDBX Classes
 90
        0
280
     0
281
     0
  0
CLASS
  1
ACDBPLACEHOLDER
  2
AcDbPlaceHolder
  3
ObjectDBX Classes
 90
        0
280
     0
281
     0
  0
CLASS
  1
LAYOUT
  2
AcDbLayout
  3
ObjectDBX Classes
 90
        0
280
     0
281
     0
  0
CLASS
  1
DUMMY
  2
AcDbLongTransaction
  3
DUMMY
 90
        0
280
     0
281
     0
  0
CLASS
  1
LWPOLYLINE
  2
AcDbPolyline
  3
AutoCAD 2000
 90
        0
280
     0
281
     1
  0
CLASS
  1
HATCH
  2
AcDbHatch
  3
AutoCAD 2000
 90
        0
280
     0
281
     1
  0
CLASS
  1
XRECORD
  2
AcDbXrecord
  3
AutoCAD 2000
 90
        0
280
     0
281
     0
  0
CLASS
  1
DUMMY
  2
AcDbLongTransaction
  3
DUMMY
 90
        0
280
     0
281
     0
  0
CLASS
  1
LWPOLYLINE
  2
AcDbPolyline
  3
AutoCAD 2000
 90
        0
280
     0
281
     1
  0
CLASS
  1
HATCH
  2
AcDbHatch
  3
AutoCAD 2000
 90
        0
280
     0
281
     1
  0
CLASS
  1
XRECORD
  2
AcDbXrecord
  3
AutoCAD 2000
 90
        0
280
     0
281
     0
  0
CLASS
  1
DUMMY
  2
AcDbLongTransaction
  3
DUMMY
 90
        0
280
     0
281
     0
  0
CLASS
  1
LWPOLYLINE
  2
AcDbPolyline
  3
AutoCAD 2000
 90
        0
280
     0
281
     1
  0
CLASS
  1
HATCH
  2
AcDbHatch
  3
AutoCAD 2000
 90
        0
280
     0
281
     1
  0
CLASS
  1
XRECORD
  2
AcDbXrecord
  3
AutoCAD 2000
 90
        0
280
     0
281
     0
  0
CLASS
  1
DUMMY
  2
AcDbLongTransaction
  3
DUMMY
 90
        0
280
     0
281
     0
  0
CLASS
  1
LWPOLYLINE
  2
AcDbPolyline
  3
AutoCAD 2000
 90
        0
280
     0
281
     1
  0
CLASS
  1
HATCH
  2
AcDbHatch
  3
AutoCAD 2000
 90
        0
280
     0
281
     1
  0
CLASS
  1
XRECORD
  2
AcDbXrecord
  3
AutoCAD 2000
 90
        0
280
     0
281
     0
  0
CLASS
  1
DUMMY
  2
AcDbLongTransaction
  3
DUMMY
 90
        0
280
     0
281
     0
  0
CLASS
  1
LWPOLYLINE
  2
AcDbPolyline
  3
AutoCAD 2000
 90
        0
280
     0
281
     1
  0
CLASS
  1
HATCH
  2
AcDbHatch
  3
AutoCAD 2000
 90
        0
280
     0
281
     1
  0
CLASS
  1
XRECORD
  2
AcDbXrecord
  3
AutoCAD 2000
 90
        0
280
     0
281
     0
  0
ENDSEC
  0
SECTION
  2
TABLES
  0
TABLE
  2
VPORT
  5
8
330
0
100
AcDbSymbolTable
 70
     2
  0
VPORT
  5
5D14
330
8
100
AcDbSymbolTableRecord
100
AcDbViewportTableRecord
  2
*Active
 70
     0
 10
0.0
 20
0.0
 11
1.0
 21
1.0
 12
411.1124883490152
 22
294.2485372407223
 13
0.0
 23
0.0
 14
5.0
 24
5.0
 15
0.0
 25
0.0
 16
0.0
 26
0.0
 36
1.0
 17
0.0
 27
0.0
 37
0.0
 40
638.0138990202121
 41
1.651537335285505
 42
50.0
 43
0.0
 44
0.0
 50
0.0
 51
0.0
 71
     0
 72
   100
 73
     1
 74
     0
 75
     0
 76
     0
 77
     0
 78
     0
281
     0
 65
     1
110
0.0
120
0.0
130
0.0
111
1.0
121
0.0
131
0.0
112
0.0
122
1.0
132
0.0
 79
     0
146
0.0
  0
ENDTAB
  0
TABLE
  2
LTYPE
  5
5
330
0
100
AcDbSymbolTable
 70
     3
  0
LTYPE
  5
14
330
5
100
AcDbSymbolTableRecord
100
AcDbLinetypeTableRecord
  2
BYBLOCK
 70
     0
  3

 72
    65
 73
     0
 40
0.0
  0
LTYPE
  5
15
330
5
100
AcDbSymbolTableRecord
100
AcDbLinetypeTableRecord
  2
BYLAYER
 70
     0
  3

 72
    65
 73
     0
 40
0.0
  0
LTYPE
  5
16
330
5
100
AcDbSymbolTableRecord
100
AcDbLinetypeTableRecord
  2
CONTINUOUS
 70
     0
  3
Solid line
 72
    65
 73
     0
 40
0.0
  0
LTYPE
  5
135
330
5
100
AcDbSymbolTableRecord
100
AcDbLinetypeTableRecord
  2
CENTER
 70
     0
  3
____ _ ____ _ ____ _ ____ _ ____ _ ____ _ ____ 
 72
    65
 73
     4
 40
2.0
 49
1.25
 74
     0
 49
-0.25
 74
     0
 49
0.25
 74
     0
 49
-0.25
 74
     0
  0
LTYPE
  5
573C
330
5
100
AcDbSymbolTableRecord
100
AcDbLinetypeTableRecord
  2
DASHED
 70
     0
  3
__ __ __ __ __ __ __ __ __ __ __ __ __ __ __ __
 72
    65
 73
     2
 40
0.75
 49
0.5
 74
     0
 49
-0.25
 74
     0
  0
ENDTAB
  0
TABLE
  2
LAYER
  5
2
330
0
100
AcDbSymbolTable
 70
     8
  0
LAYER
  5
F
330
2
100
AcDbSymbolTableRecord
100
AcDbLayerTableRecord
  2
0
 70
     0
 62
     7
  6
CONTINUOUS
370
    -3
390
A97
  0
LAYER
  5
62
330
2
100
AcDbSymbolTableRecord
100
AcDbLayerTableRecord
  2
VIEWPORT
 70
     0
 62
     7
  6
CONTINUOUS
370
    -3
390
A97
  0
LAYER
  5
143
330
2
100
AcDbSymbolTableRecord
100
AcDbLayerTableRecord
  2
SEIHIN
 70
     0
 62
     3
  6
CONTINUOUS
370
    -3
390
A97
  0
LAYER
  5
444
330
2
100
AcDbSymbolTableRecord
100
AcDbLayerTableRecord
  2
DEFPOINTS
 70
     0
 62
     7
  6
CONTINUOUS
290
     0
370
    -3
390
A97
  0
LAYER
  5
482
330
2
100
AcDbSymbolTableRecord
100
AcDbLayerTableRecord
  2
SUNPOU
 70
     0
 62
     4
  6
CONTINUOUS
370
    -3
390
A97
  0
LAYER
  5
5D4
330
2
100
AcDbSymbolTableRecord
100
AcDbLayerTableRecord
  2
CENTER L
 70
     0
 62
     1
  6
CENTER
370
    -3
390
A97
  0
LAYER
  5
3D95
330
2
100
AcDbSymbolTableRecord
100
AcDbLayerTableRecord
  2
ZUWAKU
 70
     0
 62
     7
  6
CONTINUOUS
370
    -3
390
A97
  0
LAYER
  5
3D96
330
2
100
AcDbSymbolTableRecord
100
AcDbLayerTableRecord
  2
moji
 70
     0
 62
     2
  6
CONTINUOUS
370
    -3
390
A97
  0
ENDTAB
  0
TABLE
  2
STYLE
  5
3
330
0
100
AcDbSymbolTable
 70
     2
  0
STYLE
  5
10
330
3
100
AcDbSymbolTableRecord
100
AcDbTextStyleTableRecord
  2
STANDARD
 70
     0
 40
0.0
 41
1.0
 50
0.0
 71
     0
 42
6.0
  3
TXT
  4
bigfont.shx
  0
STYLE
  5
3D97
330
3
100
AcDbSymbolTableRecord
100
AcDbTextStyleTableRecord
  2
ｽﾀｲﾙ1
 70
     0
 40
0.0
 41
1.0
 50
0.0
 71
     0
 42
2.5
  3
MS PGothic.ttf
  4

1001
ACAD
1000
MS PGothic
1071
    32818
  0
ENDTAB
  0
TABLE
  2
VIEW
  5
6
330
0
100
AcDbSymbolTable
 70
     0
  0
ENDTAB
  0
TABLE
  2
UCS
  5
7
330
0
100
AcDbSymbolTable
 70
     0
  0
ENDTAB
  0
TABLE
  2
APPID
  5
9
330
0
100
AcDbSymbolTable
 70
     1
  0
APPID
  5
11
330
9
100
AcDbSymbolTableRecord
100
AcDbRegAppTableRecord
  2
ACAD
 70
     0
  0
ENDTAB
  0
TABLE
  2
DIMSTYLE
  5
A
330
0
100
AcDbSymbolTable
 70
     1
100
AcDbDimStyleTable
  0
DIMSTYLE
105
1D
102
{ACAD_REACTORS
330
5B33
330
5B34
330
5B35
330
5B3C
330
5B3D
330
5B3E
330
5BB5
330
5BC3
330
5BD4
330
5BDF
102
}
330
A
100
AcDbSymbolTableRecord
100
AcDbDimStyleTableRecord
  2
STANDARD
 70
     0
340
10
  0
ENDTAB
  0
TABLE
  2
BLOCK_RECORD
  5
1
330
0
100
AcDbSymbolTable
 70
    12
  0
BLOCK_RECORD
  5
1A
330
1
100
AcDbSymbolTableRecord
100
AcDbBlockTableRecord
  2
*MODEL_SPACE
340
A9A
  0
BLOCK_RECORD
  5
17
330
1
100
AcDbSymbolTableRecord
100
AcDbBlockTableRecord
  2
*PAPER_SPACE
340
A9B
  0
BLOCK_RECORD
  5
6D
330
1
100
AcDbSymbolTableRecord
100
AcDbBlockTableRecord
  2
_OPEN
340
0
102
{BLKREFS
331
5C68
331
5C69
331
5CFF
331
5D00
331
5C7C
331
5C7D
331
5C85
331
5C86
331
5C8E
331
5C8F
331
5C97
331
5C98
331
5CA2
331
5CA3
331
5D0A
331
5D0B
331
5CB8
331
5CB9
331
5CC3
331
5CC4
102
}
  0
BLOCK_RECORD
  5
5BE3
330
1
100
AcDbSymbolTableRecord
100
AcDbBlockTableRecord
  2
*D2
340
0
  0
BLOCK_RECORD
  5
5BEF
330
1
100
AcDbSymbolTableRecord
100
AcDbBlockTableRecord
  2
*D3
340
0
  0
BLOCK_RECORD
  5
5BFB
330
1
100
AcDbSymbolTableRecord
100
AcDbBlockTableRecord
  2
*D4
340
0
  0
BLOCK_RECORD
  5
5C09
330
1
100
AcDbSymbolTableRecord
100
AcDbBlockTableRecord
  2
*D5
340
0
  0
BLOCK_RECORD
  5
5C15
330
1
100
AcDbSymbolTableRecord
100
AcDbBlockTableRecord
  2
*D6
340
0
  0
BLOCK_RECORD
  5
5C21
330
1
100
AcDbSymbolTableRecord
100
AcDbBlockTableRecord
  2
*D7
340
0
  0
BLOCK_RECORD
  5
5C2D
330
1
100
AcDbSymbolTableRecord
100
AcDbBlockTableRecord
  2
*D8
340
0
  0
BLOCK_RECORD
  5
5C3B
330
1
100
AcDbSymbolTableRecord
100
AcDbBlockTableRecord
  2
*D9
340
0
  0
BLOCK_RECORD
  5
5C49
330
1
100
AcDbSymbolTableRecord
100
AcDbBlockTableRecord
  2
*D10
340
0
  0
BLOCK_RECORD
  5
5C57
330
1
100
AcDbSymbolTableRecord
100
AcDbBlockTableRecord
  2
*D11
340
0
  0
ENDTAB
  0
ENDSEC
  0
SECTION
  2
BLOCKS
  0
BLOCK
  5
1B
330
1A
100
AcDbEntity
  8
0
100
AcDbBlockBegin
  2
*MODEL_SPACE
 70
     0
 71
     0
 10
0.0
 20
0.0
 30
0.0
  3
*MODEL_SPACE
  1

  0
ENDBLK
  5
1C
330
1A
100
AcDbEntity
  8
0
100
AcDbBlockEnd
  0
BLOCK
  5
18
330
17
100
AcDbEntity
 67
     1
  8
0
100
AcDbBlockBegin
  2
*PAPER_SPACE
 70
     0
 71
     0
 10
0.0
 20
0.0
 30
0.0
  3
*PAPER_SPACE
  1

  0
ENDBLK
  5
19
330
17
100
AcDbEntity
 67
     1
  8
0
100
AcDbBlockEnd
  0
BLOCK
  5
6E
330
6D
100
AcDbEntity
  8
0
100
AcDbBlockBegin
  2
_OPEN
 70
     0
 71
     0
 10
0.0
 20
0.0
 30
0.0
  3
_OPEN
  1

  0
LINE
  5
6F
330
6D
100
AcDbEntity
  8
0
  6
ByBlock
 62
     0
100
AcDbLine
 10
-1.0
 20
0.1666666666666667
 30
0.0
 11
0.0
 21
0.0
 31
0.0
  0
LINE
  5
70
330
6D
100
AcDbEntity
  8
0
  6
ByBlock
 62
     0
100
AcDbLine
 10
0.0
 20
0.0
 30
0.0
 11
-1.0
 21
-0.1666666666666667
 31
0.0
  0
LINE
  5
71
330
6D
100
AcDbEntity
  8
0
  6
ByBlock
 62
     0
100
AcDbLine
 10
0.0
 20
0.0
 30
0.0
 11
-1.0
 21
0.0
 31
0.0
  0
ENDBLK
  5
72
330
6D
100
AcDbEntity
  8
0
100
AcDbBlockEnd
  0
BLOCK
  5
5BED
330
5BE3
100
AcDbEntity
  8
0
100
AcDbBlockBegin
  2
*D2
 70
     1
 71
     0
 10
0.0
 20
0.0
 30
0.0
  3
*D2
  1

  0
LINE
  5
5C65
330
5BE3
100
AcDbEntity
  8
SUNPOU
  6
Continuous
 62
     4
370
    -2
100
AcDbLine
 10
383.8019934097918
 20
193.496505462523
 30
0.0
 11
406.9777695420124
 21
135.5572752282455
 31
0.0
  0
LINE
  5
5C66
330
5BE3
100
AcDbEntity
  8
SUNPOU
  6
Continuous
 62
     4
370
    -2
100
AcDbLine
 10
495.2191405897937
 20
238.0635259405885
 30
0.0
 11
518.3949167220143
 21
180.124295706311
 31
0.0
  0
LINE
  5
5C67
330
5BE3
100
AcDbEntity
  8
SUNPOU
  6
Continuous
 62
     4
370
    -2
100
AcDbLine
 10
412.3629276155567
 20
140.9424467689619
 30
0.0
 11
510.7814076245685
 21
180.3099815245904
 31
0.0
  0
INSERT
  5
5C68
330
5BE3
100
AcDbEntity
  8
SUNPOU
  6
Continuous
 62
     4
370
    -2
100
AcDbBlockReference
  2
_OPEN
 10
405.8635940300616
 20
138.3427039077434
 30
0.0
 41
7.0
 42
7.0
 43
7.0
 50
201.8014811287387
  0
INSERT
  5
5C69
330
5BE3
100
AcDbEntity
  8
SUNPOU
  6
Continuous
 62
     4
370
    -2
100
AcDbBlockReference
  2
_OPEN
 10
517.2807412100635
 20
182.9097243858089
 30
0.0
 41
7.0
 42
7.0
 43
7.0
 50
21.80148112873867
  0
MTEXT
  5
5C6A
330
5BE3
100
AcDbEntity
  8
SUNPOU
  6
Continuous
 62
     4
100
AcDbMText
 10
459.715208433478
 20
165.2685952792726
 30
0.0
 40
6.0
 41
0.0
 71
     5
 72
     1
  1
\A1;120
 11
0.9284762264992902
 21
0.3713918373169217
 31
0.0
 73
     1
 44
1.0
  0
POINT
  5
5C6B
330
5BE3
100
AcDbEntity
  8
DEFPOINTS
  6
Continuous
 62
     0
100
AcDbPoint
 10
381.5736423858903
 20
199.0673628215187
 30
0.0
  0
POINT
  5
5C6C
330
5BE3
100
AcDbEntity
  8
DEFPOINTS
  6
Continuous
 62
     0
100
AcDbPoint
 10
492.9907895658922
 20
243.6343832995842
 30
0.0
  0
POINT
  5
5C6D
330
5BE3
100
AcDbEntity
  8
DEFPOINTS
  6
Continuous
 62
     0
100
AcDbPoint
 10
517.2807412100635
 20
182.9097243858089
 30
0.0
  0
ENDBLK
  5
5BEE
330
5BE3
100
AcDbEntity
  8
0
100
AcDbBlockEnd
  0
BLOCK
  5
5BF9
330
5BEF
100
AcDbEntity
  8
0
100
AcDbBlockBegin
  2
*D3
 70
     1
 71
     0
 10
0.0
 20
0.0
 30
0.0
  3
*D3
  1

  0
LINE
  5
5CFB
330
5BEF
100
AcDbEntity
  8
SUNPOU
  6
Continuous
 62
     4
100
AcDbLine
 10
366.4972353377113
 20
245.834373417828
 30
0.0
 11
435.6671110430439
 21
245.834373417828
 31
0.0
  0
LINE
  5
5CFC
330
5BEF
100
AcDbEntity
  8
SUNPOU
  6
Continuous
 62
     4
100
AcDbLine
 10
391.2875504377114
 20
189.7825927178281
 30
0.0
 11
435.6671110430439
 21
189.7825927178281
 31
0.0
  0
LINE
  5
5CFD
330
5BEF
100
AcDbEntity
  8
SUNPOU
  6
Continuous
 62
     4
100
AcDbLine
 10
432.6671110430439
 20
238.834373417828
 30
0.0
 11
432.6671110430439
 21
196.7825927178281
 31
0.0
  0
MTEXT
  5
5CFE
330
5BEF
100
AcDbEntity
  8
SUNPOU
  6
Continuous
 62
     4
100
AcDbMText
 10
427.3248217344849
 20
232.0919560044013
 30
0.0
 40
6.0
 41
0.0
 71
     5
 72
     1
  1
\A1;56
 11
6.123031769111886E-17
 21
1.0
 31
0.0
 73
     1
 44
1.0
  0
INSERT
  5
5CFF
330
5BEF
100
AcDbEntity
  8
SUNPOU
  6
Continuous
 62
     4
100
AcDbBlockReference
  2
_OPEN
 10
432.6671110430439
 20
245.834373417828
 30
0.0
 41
7.0
 42
7.0
 43
7.0
 50
90.0
  0
INSERT
  5
5D00
330
5BEF
100
AcDbEntity
  8
SUNPOU
  6
Continuous
 62
     4
100
AcDbBlockReference
  2
_OPEN
 10
432.6671110430439
 20
189.7825927178281
 30
0.0
 41
7.0
 42
7.0
 43
7.0
 50
270.0
  0
POINT
  5
5D01
330
5BEF
100
AcDbEntity
  8
DEFPOINTS
  6
Continuous
 62
     0
100
AcDbPoint
 10
360.4972353377113
 20
245.834373417828
 30
0.0
  0
POINT
  5
5D02
330
5BEF
100
AcDbEntity
  8
DEFPOINTS
  6
Continuous
 62
     0
100
AcDbPoint
 10
385.2875504377114
 20
189.7825927178281
 30
0.0
  0
POINT
  5
5D03
330
5BEF
100
AcDbEntity
  8
DEFPOINTS
  6
Continuous
 62
     0
100
AcDbPoint
 10
432.6671110430439
 20
189.7825927178281
 30
0.0
  0
ENDBLK
  5
5BFA
330
5BEF
100
AcDbEntity
  8
0
100
AcDbBlockEnd
  0
BLOCK
  5
5C07
330
5BFB
100
AcDbEntity
  8
0
100
AcDbBlockBegin
  2
*D4
 70
     1
 71
     0
 10
0.0
 20
0.0
 30
0.0
  3
*D4
  1

  0
LINE
  5
5C77
330
5BFB
100
AcDbEntity
  8
SUNPOU
  6
Continuous
 62
     4
370
    -2
100
AcDbLine
 10
384.2662261549494
 20
182.9118651961619
 30
0.0
 11
396.4806213975375
 21
152.375878029357
 31
0.0
  0
LINE
  5
5C78
330
5BFB
100
AcDbEntity
  8
SUNPOU
  6
Continuous
 62
     4
370
    -2
100
AcDbLine
 10
387.5158945549494
 20
184.2117325961619
 30
0.0
 11
399.7302897975375
 21
153.675745429357
 31
0.0
  0
LINE
  5
5C79
330
5BFB
100
AcDbEntity
  8
SUNPOU
  6
Continuous
 62
     4
370
    -2
100
AcDbLine
 10
388.867112530308
 20
152.5615732867458
 30
0.0
 11
382.3677757216973
 21
149.9618384833015
 31
0.0
  0
LINE
  5
5C7A
330
5BFB
100
AcDbEntity
  8
SUNPOU
  6
Continuous
 62
     4
370
    -2
100
AcDbLine
 10
405.1154545475291
 20
159.0609102936344
 30
0.0
 11
432.0412784689158
 21
169.8312401936179
 31
0.0
  0
LINE
  5
5C7B
330
5BFB
100
AcDbEntity
  8
SUNPOU
  6
Continuous
 62
     4
370
    -2
100
AcDbLine
 10
395.3664493389185
 20
155.1613080901901
 30
0.0
 11
398.6161177389186
 21
156.4611754901901
 31
0.0
  0
INSERT
  5
5C7C
330
5BFB
100
AcDbEntity
  8
SUNPOU
  6
Continuous
 62
     4
370
    -2
100
AcDbBlockReference
  2
_OPEN
 10
395.3664493389185
 20
155.1613080901901
 30
0.0
 41
7.0
 42
7.0
 43
7.0
 50
21.80141009432711
  0
INSERT
  5
5C7D
330
5BFB
100
AcDbEntity
  8
SUNPOU
  6
Continuous
 62
     4
370
    -2
100
AcDbBlockReference
  2
_OPEN
 10
398.6161177389186
 20
156.4611754901901
 30
0.0
 41
7.0
 42
7.0
 43
7.0
 50
201.8014100943271
  0
MTEXT
  5
5C7E
330
5BFB
100
AcDbEntity
  8
SUNPOU
  6
Continuous
 62
     4
100
AcDbMText
 10
419.9710814814961
 20
170.3883260800702
 30
0.0
 40
6.0
 41
0.0
 71
     5
 72
     1
  1
\A1;t3.5
 11
0.9284766869443695
 21
0.3713906862063283
 31
0.0
 73
     1
 44
1.0
  0
POINT
  5
5C7F
330
5BFB
100
AcDbEntity
  8
DEFPOINTS
  6
Continuous
 62
     0
100
AcDbPoint
 10
382.0378820377114
 20
188.4827253178281
 30
0.0
  0
POINT
  5
5C80
330
5BFB
100
AcDbEntity
  8
DEFPOINTS
  6
Continuous
 62
     0
100
AcDbPoint
 10
385.2875504377114
 20
189.7825927178281
 30
0.0
  0
POINT
  5
5C81
330
5BFB
100
AcDbEntity
  8
DEFPOINTS
  6
Continuous
 62
     0
100
AcDbPoint
 10
398.6161177389186
 20
156.4611754901901
 30
0.0
  0
ENDBLK
  5
5C08
330
5BFB
100
AcDbEntity
  8
0
100
AcDbBlockEnd
  0
BLOCK
  5
5C13
330
5C09
100
AcDbEntity
  8
0
100
AcDbBlockBegin
  2
*D5
 70
     1
 71
     0
 10
0.0
 20
0.0
 30
0.0
  3
*D5
  1

  0
LINE
  5
5C82
330
5C09
100
AcDbEntity
  8
SUNPOU
  6
Continuous
 62
     4
370
    -2
100
AcDbLine
 10
362.8668414926248
 20
251.8343649244162
 30
0.0
 11
362.8668414926248
 21
293.6416168390726
 31
0.0
  0
LINE
  5
5C83
330
5C09
100
AcDbEntity
  8
SUNPOU
  6
Continuous
 62
     4
370
    -2
100
AcDbLine
 10
231.7628808991731
 20
246.8346084590844
 30
0.0
 11
231.7628808991731
 21
293.6416168390726
 31
0.0
  0
LINE
  5
5C84
330
5C09
100
AcDbEntity
  8
SUNPOU
  6
Continuous
 62
     4
370
    -2
100
AcDbLine
 10
355.8668414926248
 20
290.6416168390726
 30
0.0
 11
238.7628808991731
 21
290.6416168390726
 31
0.0
  0
INSERT
  5
5C85
330
5C09
100
AcDbEntity
  8
SUNPOU
  6
Continuous
 62
     4
370
    -2
100
AcDbBlockReference
  2
_OPEN
 10
362.8668414926248
 20
290.6416168390726
 30
0.0
 41
7.0
 42
7.0
 43
7.0
  0
INSERT
  5
5C86
330
5C09
100
AcDbEntity
  8
SUNPOU
  6
Continuous
 62
     4
370
    -2
100
AcDbBlockReference
  2
_OPEN
 10
231.7628808991731
 20
290.6416168390726
 30
0.0
 41
7.0
 42
7.0
 43
7.0
 50
180.0
  0
MTEXT
  5
5C87
330
5C09
100
AcDbEntity
  8
SUNPOU
  6
Continuous
 62
     4
100
AcDbMText
 10
297.314861195899
 20
295.6416168390726
 30
0.0
 40
6.0
 41
0.0
 71
     5
 72
     1
  1
\A1;131
 73
     1
 44
1.0
  0
POINT
  5
5C88
330
5C09
100
AcDbEntity
  8
DEFPOINTS
  6
Continuous
 62
     0
100
AcDbPoint
 10
362.8668414926248
 20
245.8343649244162
 30
0.0
  0
POINT
  5
5C89
330
5C09
100
AcDbEntity
  8
DEFPOINTS
  6
Continuous
 62
     0
100
AcDbPoint
 10
231.7628808991731
 20
240.8346084590844
 30
0.0
  0
POINT
  5
5C8A
330
5C09
100
AcDbEntity
  8
DEFPOINTS
  6
Continuous
 62
     0
100
AcDbPoint
 10
231.7628808991731
 20
290.6416168390726
 30
0.0
  0
ENDBLK
  5
5C14
330
5C09
100
AcDbEntity
  8
0
100
AcDbBlockEnd
  0
BLOCK
  5
5C1F
330
5C15
100
AcDbEntity
  8
0
100
AcDbBlockBegin
  2
*D6
 70
     1
 71
     0
 10
0.0
 20
0.0
 30
0.0
  3
*D6
  1

  0
LINE
  5
5C8B
330
5C15
100
AcDbEntity
  8
SUNPOU
  6
Continuous
 62
     4
370
    -2
100
AcDbLine
 10
231.7628808991731
 20
246.8346084590844
 30
0.0
 11
231.7628808991731
 21
310.489242042717
 31
0.0
  0
LINE
  5
5C8C
330
5C15
100
AcDbEntity
  8
SUNPOU
  6
Continuous
 62
     4
370
    -2
100
AcDbLine
 10
385.2875504377114
 20
195.7825927178281
 30
0.0
 11
385.2875504377114
 21
310.489242042717
 31
0.0
  0
LINE
  5
5C8D
330
5C15
100
AcDbEntity
  8
SUNPOU
  6
Continuous
 62
     4
370
    -2
100
AcDbLine
 10
238.7628808991731
 20
307.489242042717
 30
0.0
 11
378.2875504377114
 21
307.489242042717
 31
0.0
  0
INSERT
  5
5C8E
330
5C15
100
AcDbEntity
  8
SUNPOU
  6
Continuous
 62
     4
370
    -2
100
AcDbBlockReference
  2
_OPEN
 10
231.7628808991731
 20
307.489242042717
 30
0.0
 41
7.0
 42
7.0
 43
7.0
 50
180.0
  0
INSERT
  5
5C8F
330
5C15
100
AcDbEntity
  8
SUNPOU
  6
Continuous
 62
     4
370
    -2
100
AcDbBlockReference
  2
_OPEN
 10
385.2875504377114
 20
307.489242042717
 30
0.0
 41
7.0
 42
7.0
 43
7.0
  0
MTEXT
  5
5C90
330
5C15
100
AcDbEntity
  8
SUNPOU
  6
Continuous
 62
     4
100
AcDbMText
 10
308.5252156684422
 20
312.489242042717
 30
0.0
 40
6.0
 41
0.0
 71
     5
 72
     1
  1
\A1;154
 73
     1
 44
1.0
  0
POINT
  5
5C91
330
5C15
100
AcDbEntity
  8
DEFPOINTS
  6
Continuous
 62
     0
100
AcDbPoint
 10
231.7628808991731
 20
240.8346084590844
 30
0.0
  0
POINT
  5
5C92
330
5C15
100
AcDbEntity
  8
DEFPOINTS
  6
Continuous
 62
     0
100
AcDbPoint
 10
385.2875504377114
 20
189.7825927178281
 30
0.0
  0
POINT
  5
5C93
330
5C15
100
AcDbEntity
  8
DEFPOINTS
  6
Continuous
 62
     0
100
AcDbPoint
 10
385.2875504377114
 20
307.489242042717
 30
0.0
  0
ENDBLK
  5
5C20
330
5C15
100
AcDbEntity
  8
0
100
AcDbBlockEnd
  0
BLOCK
  5
5C2B
330
5C21
100
AcDbEntity
  8
0
100
AcDbBlockBegin
  2
*D7
 70
     1
 71
     0
 10
0.0
 20
0.0
 30
0.0
  3
*D7
  1

  0
LINE
  5
5C94
330
5C21
100
AcDbEntity
  8
SUNPOU
  6
Continuous
 62
     4
370
    -2
100
AcDbLine
 10
227.2628721377114
 20
242.834724217828
 30
0.0
 11
184.0533850179945
 21
242.834724217828
 31
0.0
  0
LINE
  5
5C95
330
5C21
100
AcDbEntity
  8
SUNPOU
  6
Continuous
 62
     4
370
    -2
100
AcDbLine
 10
379.2875504377114
 20
189.7825927178281
 30
0.0
 11
184.0533850179945
 21
189.7825927178282
 31
0.0
  0
LINE
  5
5C96
330
5C21
100
AcDbEntity
  8
SUNPOU
  6
Continuous
 62
     4
370
    -2
100
AcDbLine
 10
187.0533850179945
 20
235.834724217828
 30
0.0
 11
187.0533850179945
 21
196.7825927178282
 31
0.0
  0
INSERT
  5
5C97
330
5C21
100
AcDbEntity
  8
SUNPOU
  6
Continuous
 62
     4
370
    -2
100
AcDbBlockReference
  2
_OPEN
 10
187.0533850179945
 20
242.834724217828
 30
0.0
 41
7.0
 42
7.0
 43
7.0
 50
90.0
  0
INSERT
  5
5C98
330
5C21
100
AcDbEntity
  8
SUNPOU
  6
Continuous
 62
     4
370
    -2
100
AcDbBlockReference
  2
_OPEN
 10
187.0533850179945
 20
189.7825927178282
 30
0.0
 41
7.0
 42
7.0
 43
7.0
 50
270.0
  0
MTEXT
  5
5C99
330
5C21
100
AcDbEntity
  8
SUNPOU
  6
Continuous
 62
     4
100
AcDbMText
 10
182.0533850179945
 20
216.3086584678281
 30
0.0
 40
6.0
 41
0.0
 71
     5
 72
     1
  1
\A1;53
 11
6.123031769111886E-17
 21
1.0
 31
0.0
 73
     1
 44
1.0
  0
POINT
  5
5C9A
330
5C21
100
AcDbEntity
  8
DEFPOINTS
  6
Continuous
 62
     0
100
AcDbPoint
 10
233.2628721377114
 20
242.834724217828
 30
0.0
  0
POINT
  5
5C9B
330
5C21
100
AcDbEntity
  8
DEFPOINTS
  6
Continuous
 62
     0
100
AcDbPoint
 10
385.2875504377114
 20
189.7825927178281
 30
0.0
  0
POINT
  5
5C9C
330
5C21
100
AcDbEntity
  8
DEFPOINTS
  6
Continuous
 62
     0
100
AcDbPoint
 10
187.0533850179945
 20
189.7825927178282
 30
0.0
  0
ENDBLK
  5
5C2C
330
5C21
100
AcDbEntity
  8
0
100
AcDbBlockEnd
  0
BLOCK
  5
5C39
330
5C2D
100
AcDbEntity
  8
0
100
AcDbBlockBegin
  2
*D8
 70
     1
 71
     0
 10
0.0
 20
0.0
 30
0.0
  3
*D8
  1

  0
LINE
  5
5C9D
330
5C2D
100
AcDbEntity
  8
SUNPOU
 62
     4
370
    -2
100
AcDbLine
 10
228.7627808991731
 20
396.8785138843321
 30
0.0
 11
202.5482426626505
 21
396.8785138843321
 31
0.0
  0
LINE
  5
5C9E
330
5C2D
100
AcDbEntity
  8
SUNPOU
 62
     4
370
    -2
100
AcDbLine
 10
228.7627808991731
 20
381.878613884332
 30
0.0
 11
202.5482426626505
 21
381.878613884332
 31
0.0
  0
LINE
  5
5C9F
330
5C2D
100
AcDbEntity
  8
SUNPOU
 62
     4
370
    -2
100
AcDbLine
 10
205.5482426626505
 20
403.8785138843321
 30
0.0
 11
205.5482426626505
 21
410.8785138843321
 31
0.0
  0
LINE
  5
5CA0
330
5C2D
100
AcDbEntity
  8
SUNPOU
 62
     4
370
    -2
100
AcDbLine
 10
205.5482426626505
 20
374.878613884332
 30
0.0
 11
205.5482426626505
 21
367.878613884332
 31
0.0
  0
LINE
  5
5CA1
330
5C2D
100
AcDbEntity
  8
SUNPOU
 62
     4
370
    -2
100
AcDbLine
 10
205.5482426626505
 20
396.8785138843321
 30
0.0
 11
205.5482426626505
 21
381.878613884332
 31
0.0
  0
INSERT
  5
5CA2
330
5C2D
100
AcDbEntity
  8
SUNPOU
 62
     4
370
    -2
100
AcDbBlockReference
  2
_OPEN
 10
205.5482426626505
 20
396.8785138843321
 30
0.0
 41
7.0
 42
7.0
 43
7.0
 50
270.0
  0
INSERT
  5
5CA3
330
5C2D
100
AcDbEntity
  8
SUNPOU
 62
     4
370
    -2
100
AcDbBlockReference
  2
_OPEN
 10
205.5482426626505
 20
381.878613884332
 30
0.0
 41
7.0
 42
7.0
 43
7.0
 50
90.0
  0
MTEXT
  5
5CA4
330
5C2D
100
AcDbEntity
  8
SUNPOU
 62
     4
100
AcDbMText
 10
200.5482426626505
 20
389.3785638843321
 30
0.0
 40
6.0
 41
0.0
 71
     5
 72
     1
  1
\A1;15
 11
6.123031769111886E-17
 21
1.0
 31
0.0
 73
     1
 44
1.0
  0
POINT
  5
5CA5
330
5C2D
100
AcDbEntity
  8
DEFPOINTS
 62
     0
100
AcDbPoint
 10
234.7627808991731
 20
396.8785138843321
 30
0.0
  0
POINT
  5
5CA6
330
5C2D
100
AcDbEntity
  8
DEFPOINTS
 62
     0
100
AcDbPoint
 10
234.7627808991731
 20
381.878613884332
 30
0.0
  0
POINT
  5
5CA7
330
5C2D
100
AcDbEntity
  8
DEFPOINTS
 62
     0
100
AcDbPoint
 10
205.5482426626505
 20
381.878613884332
 30
0.0
  0
ENDBLK
  5
5C3A
330
5C2D
100
AcDbEntity
  8
0
100
AcDbBlockEnd
  0
BLOCK
  5
5C47
330
5C3B
100
AcDbEntity
  8
0
100
AcDbBlockBegin
  2
*D9
 70
     1
 71
     0
 10
0.0
 20
0.0
 30
0.0
  3
*D9
  1

  0
LINE
  5
5D04
330
5C3B
100
AcDbEntity
  8
SUNPOU
  6
Continuous
 62
     4
100
AcDbLine
 10
391.2875504377114
 20
395.8785138843321
 30
0.0
 11
426.373726114292
 21
395.8785138843321
 31
0.0
  0
LINE
  5
5D05
330
5C3B
100
AcDbEntity
  8
SUNPOU
  6
Continuous
 62
     4
100
AcDbLine
 10
391.2875504377114
 20
382.8785138843321
 30
0.0
 11
426.3737261142919
 21
382.8785138843321
 31
0.0
  0
LINE
  5
5D06
330
5C3B
100
AcDbEntity
  8
SUNPOU
  6
Continuous
 62
     4
100
AcDbLine
 10
423.373726114292
 20
402.8785138843321
 30
0.0
 11
423.373726114292
 21
409.8785138843321
 31
0.0
  0
LINE
  5
5D07
330
5C3B
100
AcDbEntity
  8
SUNPOU
  6
Continuous
 62
     4
100
AcDbLine
 10
423.3737261142919
 20
375.8785138843321
 30
0.0
 11
423.3737261142919
 21
368.8785138843321
 31
0.0
  0
MTEXT
  5
5D08
330
5C3B
100
AcDbEntity
  8
SUNPOU
  6
Continuous
 62
     4
100
AcDbMText
 10
416.8576076638651
 20
406.1564100847374
 30
0.0
 40
6.0
 41
0.0
 71
     5
 72
     1
  1
\A1;13
 11
6.123031769111886E-17
 21
1.0
 31
0.0
 73
     1
 44
1.0
  0
LINE
  5
5D09
330
5C3B
100
AcDbEntity
  8
SUNPOU
  6
Continuous
 62
     4
100
AcDbLine
 10
423.373726114292
 20
395.8785138843321
 30
0.0
 11
423.3737261142919
 21
382.8785138843321
 31
0.0
  0
INSERT
  5
5D0A
330
5C3B
100
AcDbEntity
  8
SUNPOU
  6
Continuous
 62
     4
100
AcDbBlockReference
  2
_OPEN
 10
423.373726114292
 20
395.8785138843321
 30
0.0
 41
7.0
 42
7.0
 43
7.0
 50
270.0
  0
INSERT
  5
5D0B
330
5C3B
100
AcDbEntity
  8
SUNPOU
  6
Continuous
 62
     4
100
AcDbBlockReference
  2
_OPEN
 10
423.3737261142919
 20
382.8785138843321
 30
0.0
 41
7.0
 42
7.0
 43
7.0
 50
90.0
  0
POINT
  5
5D0C
330
5C3B
100
AcDbEntity
  8
DEFPOINTS
  6
Continuous
 62
     0
100
AcDbPoint
 10
385.2875504377114
 20
395.8785138843321
 30
0.0
  0
POINT
  5
5D0D
330
5C3B
100
AcDbEntity
  8
DEFPOINTS
  6
Continuous
 62
     0
100
AcDbPoint
 10
385.2875504377114
 20
382.8785138843321
 30
0.0
  0
POINT
  5
5D0E
330
5C3B
100
AcDbEntity
  8
DEFPOINTS
  6
Continuous
 62
     0
100
AcDbPoint
 10
423.3737261142919
 20
382.8785138843321
 30
0.0
  0
ENDBLK
  5
5C48
330
5C3B
100
AcDbEntity
  8
0
100
AcDbBlockEnd
  0
BLOCK
  5
5C55
330
5C49
100
AcDbEntity
  8
0
100
AcDbBlockBegin
  2
*D10
 70
     1
 71
     0
 10
0.0
 20
0.0
 30
0.0
  3
*D10
  1

  0
LINE
  5
5CB3
330
5C49
100
AcDbEntity
  8
SUNPOU
  6
Continuous
 62
     4
370
    -2
100
AcDbLine
 10
483.5574654288254
 20
242.9844394106362
 30
0.0
 11
520.5941526401834
 21
257.7991832945074
 31
0.0
  0
LINE
  5
5CB4
330
5C49
100
AcDbEntity
  8
SUNPOU
  6
Continuous
 62
     4
370
    -2
100
AcDbLine
 10
485.7115400004288
 20
237.5992780630093
 30
0.0
 11
522.7482272117869
 21
252.4140219468804
 31
0.0
  0
LINE
  5
5CB5
330
5C49
100
AcDbEntity
  8
SUNPOU
  6
Continuous
 62
     4
370
    -2
100
AcDbLine
 10
515.2089791843038
 20
263.1843394528827
 30
0.0
 11
512.6092340116791
 21
269.6836721138114
 31
0.0
  0
LINE
  5
5CB6
330
5C49
100
AcDbEntity
  8
SUNPOU
  6
Continuous
 62
     4
370
    -2
100
AcDbLine
 10
522.5625441011564
 20
244.8005127833983
 30
0.0
 11
528.1334266139236
 21
230.8733713671225
 31
0.0
  0
LINE
  5
5CB7
330
5C49
100
AcDbEntity
  8
SUNPOU
  6
Continuous
 62
     4
370
    -2
100
AcDbLine
 10
517.8087243569283
 20
256.685006791954
 30
0.0
 11
519.9627989285318
 21
251.299845444327
 31
0.0
  0
INSERT
  5
5CB8
330
5C49
100
AcDbEntity
  8
SUNPOU
  6
Continuous
 62
     4
370
    -2
100
AcDbBlockReference
  2
_OPEN
 10
517.8087243569283
 20
256.685006791954
 30
0.0
 41
7.0
 42
7.0
 43
7.0
 50
291.8015015052631
  0
INSERT
  5
5CB9
330
5C49
100
AcDbEntity
  8
SUNPOU
  6
Continuous
 62
     4
370
    -2
100
AcDbBlockReference
  2
_OPEN
 10
519.9627989285318
 20
251.299845444327
 30
0.0
 41
7.0
 42
7.0
 43
7.0
 50
111.8015015052631
  0
MTEXT
  5
5CBA
330
5C49
100
AcDbEntity
  8
SUNPOU
  6
Continuous
 62
     4
100
AcDbMText
 10
531.2902384159442
 20
236.4442365823851
 30
0.0
 40
6.0
 41
0.0
 71
     5
 72
     1
  1
\A1;6
 11
0.3713921675178078
 21
-0.9284760944183886
 31
0.0
 73
     1
 44
1.0
  0
POINT
  5
5CBB
330
5C49
100
AcDbEntity
  8
DEFPOINTS
  6
Continuous
 62
     0
100
AcDbPoint
 10
477.9866088623151
 20
240.7560864055294
 30
0.0
  0
POINT
  5
5CBC
330
5C49
100
AcDbEntity
  8
DEFPOINTS
  6
Continuous
 62
     0
100
AcDbPoint
 10
480.1406834339185
 20
235.3709250579025
 30
0.0
  0
POINT
  5
5CBD
330
5C49
100
AcDbEntity
  8
DEFPOINTS
  6
Continuous
 62
     0
100
AcDbPoint
 10
519.9627989285318
 20
251.299845444327
 30
0.0
  0
ENDBLK
  5
5C56
330
5C49
100
AcDbEntity
  8
0
100
AcDbBlockEnd
  0
BLOCK
  5
5C63
330
5C57
100
AcDbEntity
  8
0
100
AcDbBlockBegin
  2
*D11
 70
     1
 71
     0
 10
0.0
 20
0.0
 30
0.0
  3
*D11
  1

  0
LINE
  5
5CBE
330
5C57
100
AcDbEntity
  8
SUNPOU
  6
Continuous
 62
     4
370
    -2
100
AcDbLine
 10
478.0636481273162
 20
391.828513884332
 30
0.0
 11
522.2327996743537
 21
391.828513884332
 31
0.0
  0
LINE
  5
5CBF
330
5C57
100
AcDbEntity
  8
SUNPOU
  6
Continuous
 62
     4
370
    -2
100
AcDbLine
 10
478.0636481273162
 20
386.9285138843321
 30
0.0
 11
522.2327996743537
 21
386.9285138843321
 31
0.0
  0
LINE
  5
5CC0
330
5C57
100
AcDbEntity
  8
SUNPOU
  6
Continuous
 62
     4
370
    -2
100
AcDbLine
 10
519.2327996743537
 20
398.828513884332
 30
0.0
 11
519.2327996743537
 21
405.828513884332
 31
0.0
  0
LINE
  5
5CC1
330
5C57
100
AcDbEntity
  8
SUNPOU
  6
Continuous
 62
     4
370
    -2
100
AcDbLine
 10
519.2327996743537
 20
379.9285138843321
 30
0.0
 11
519.2327996743537
 21
364.9285138843321
 31
0.0
  0
LINE
  5
5CC2
330
5C57
100
AcDbEntity
  8
SUNPOU
  6
Continuous
 62
     4
370
    -2
100
AcDbLine
 10
519.2327996743537
 20
391.828513884332
 30
0.0
 11
519.2327996743537
 21
386.9285138843321
 31
0.0
  0
INSERT
  5
5CC3
330
5C57
100
AcDbEntity
  8
SUNPOU
  6
Continuous
 62
     4
370
    -2
100
AcDbBlockReference
  2
_OPEN
 10
519.2327996743537
 20
391.828513884332
 30
0.0
 41
7.0
 42
7.0
 43
7.0
 50
270.0
  0
INSERT
  5
5CC4
330
5C57
100
AcDbEntity
  8
SUNPOU
  6
Continuous
 62
     4
370
    -2
100
AcDbBlockReference
  2
_OPEN
 10
519.2327996743537
 20
386.9285138843321
 30
0.0
 41
7.0
 42
7.0
 43
7.0
 50
90.0
  0
MTEXT
  5
5CC5
330
5C57
100
AcDbEntity
  8
SUNPOU
  6
Continuous
 62
     4
100
AcDbMText
 10
514.2327996743536
 20
368.9285138843321
 30
0.0
 40
6.0
 41
0.0
 71
     5
 72
     1
  1
\A1;5
 11
6.123031769111886E-17
 21
1.0
 31
0.0
 73
     1
 44
1.0
  0
POINT
  5
5CC6
330
5C57
100
AcDbEntity
  8
DEFPOINTS
  6
Continuous
 62
     0
100
AcDbPoint
 10
472.0636481273162
 20
391.828513884332
 30
0.0
  0
POINT
  5
5CC7
330
5C57
100
AcDbEntity
  8
DEFPOINTS
  6
Continuous
 62
     0
100
AcDbPoint
 10
472.0636481273162
 20
386.9285138843321
 30
0.0
  0
POINT
  5
5CC8
330
5C57
100
AcDbEntity
  8
DEFPOINTS
  6
Continuous
 62
     0
100
AcDbPoint
 10
519.2327996743537
 20
386.9285138843321
 30
0.0
  0
ENDBLK
  5
5C64
330
5C57
100
AcDbEntity
  8
0
100
AcDbBlockEnd
  0
ENDSEC
  0
SECTION
  2
ENTITIES
  0
LINE
  5
3EF3
330
1A
100
AcDbEntity
  8
ZUWAKU
100
AcDbLine
 10
208.646601303624
 20
15.19999986828872
 30
0.0
 11
447.4243639845474
 21
15.19999986828871
 31
0.0
  0
LINE
  5
3EF4
330
1A
100
AcDbEntity
  8
ZUWAKU
100
AcDbLine
 10
208.646601303624
 20
15.59999986828872
 30
0.0
 11
447.4243639845474
 21
15.59999986828872
 31
0.0
  0
LINE
  5
3EF5
330
1A
100
AcDbEntity
  8
ZUWAKU
100
AcDbLine
 10
208.646601303624
 20
15.39999986828872
 30
0.0
 11
447.4243639845474
 21
15.39999986828872
 31
0.0
  0
LINE
  5
3EF6
330
1A
100
AcDbEntity
  8
ZUWAKU
100
AcDbLine
 10
0.0000000135560185
 20
30.79999986828869
 30
0.0
 11
797.4000000135559
 21
30.79999986828869
 31
0.0
  0
LINE
  5
3EF7
330
1A
100
AcDbEntity
  8
ZUWAKU
100
AcDbLine
 10
0.0000000135560185
 20
30.59999986828869
 30
0.0
 11
797.4000000135559
 21
30.59999986828869
 31
0.0
  0
LINE
  5
3EF8
330
1A
100
AcDbEntity
  8
ZUWAKU
100
AcDbLine
 10
0.0000000135560185
 20
30.39999986828869
 30
0.0
 11
797.4000000135559
 21
30.39999986828869
 31
0.0
  0
LINE
  5
3EF9
330
1A
100
AcDbEntity
  8
ZUWAKU
100
AcDbLine
 10
0.0000000135560185
 20
30.19999986828869
 30
0.0
 11
797.4000000135559
 21
30.19999986828869
 31
0.0
  0
LINE
  5
3EFA
330
1A
100
AcDbEntity
  8
ZUWAKU
100
AcDbLine
 10
0.0000000135560185
 20
29.99999986828868
 30
0.0
 11
797.4000000135559
 21
29.99999986828868
 31
0.0
  0
LWPOLYLINE
  5
3EFB
330
1A
100
AcDbEntity
  8
ZUWAKU
100
AcDbPolyline
 90
        4
 70
     1
 43
0.0
 10
0.2000000135559503
 20
551.3999998682888
 10
0.2000000135559503
 20
0.1999998682887281
 10
797.4000000135559
 20
0.1999998682887512
 10
797.4000000135561
 20
551.3999998682888
  0
LWPOLYLINE
  5
3EFC
330
1A
100
AcDbEntity
  8
ZUWAKU
100
AcDbPolyline
 90
        4
 70
     1
 43
0.0
 10
0.6000000135559276
 20
550.9999998682888
 10
0.6000000135559276
 20
0.5999998682887053
 10
797.0000000135563
 20
0.5999998682887515
 10
797.000000013556
 20
550.9999998682888
  0
LWPOLYLINE
  5
3EFD
330
1A
100
AcDbEntity
  8
ZUWAKU
100
AcDbPolyline
 90
        4
 70
     1
 43
0.0
 10
0.0000000135560185
 20
551.5999998682887
 10
0.0000000135560185
 20
-0.0000001317113174
 10
797.6000000135562
 20
-0.0000001317112499
 10
797.6000000135562
 20
551.5999998682888
  0
LWPOLYLINE
  5
3EFE
330
1A
100
AcDbEntity
  8
ZUWAKU
100
AcDbPolyline
 90
        4
 70
     1
 43
0.0
 10
0.4000000135559958
 20
551.1999998682887
 10
0.4000000135559958
 20
0.3999998682887735
 10
797.2000000135561
 20
0.3999998682887505
 10
797.2000000135561
 20
551.1999998682887
  0
LWPOLYLINE
  5
3EFF
330
1A
100
AcDbEntity
  8
ZUWAKU
100
AcDbPolyline
 90
        4
 70
     1
 43
0.0
 10
0.8000000135559731
 20
550.7999998682888
 10
0.8000000135559731
 20
0.7999998682887508
 10
796.800000013556
 20
0.7999998682887508
 10
796.800000013556
 20
550.7999998682888
  0
TEXT
  5
3F00
330
1A
100
AcDbEntity
  8
moji
100
AcDbText
 10
92.95778960172515
 20
12.74117799856344
 30
0.0
 40
6.0
  1
アーバントップΣ９０
 41
0.9
  7
ｽﾀｲﾙ1
100
AcDbText
  0
HATCH
  5
3F01
330
1A
100
AcDbEntity
  8
ZUWAKU
100
AcDbHatch
 10
0.0
 20
0.0
 30
0.0
210
0.0
220
0.0
230
1.0
  2
ANSI37
 70
     0
 71
     0
 91
        8
 92
        7
 72
     1
 73
     1
 93
       24
 10
14.50226267467588
 20
17.64484834927227
 42
-0.1989123673796348
 10
14.09221216833714
 20
18.63479784293332
 42
0.0
 10
14.09221216833714
 20
19.92499986828869
 42
-0.4142135623730912
 10
14.61721216833712
 20
20.44999986828869
 42
0.0
 10
17.59221216833703
 20
20.44999986828869
 42
0.4142135623731546
 10
18.11721216833712
 20
20.97499986828868
 42
0.0
 10
18.11721216833712
 20
22.72499986828869
 42
0.4142135623731586
 10
17.59221216833703
 20
23.24999986828869
 42
0.0
 10
14.09221216833714
 20
23.24999986828869
 42
0.4142135623730928
 10
11.29221216833719
 20
20.44999986828871
 42
0.0
 10
11.29221216833719
 20
18.63479784293345
 42
0.1989123673796619
 10
12.52236368735362
 20
15.66494936194984
 42
0.0
 10
15.43216166199829
 20
12.75515138730518
 42
-0.1989123673796613
 10
15.84221216833714
 20
11.76520189364399
 42
0.0
 10
15.84221216833714
 20
10.47499986828868
 42
-0.4142135623730911
 10
15.31721216833716
 20
9.949999868288685
 42
0.0
 10
12.34221216833726
 20
9.949999868288685
 42
0.4142135623731526
 10
11.81721216833716
 20
9.424999868288698
 42
0.0
 10
11.81721216833716
 20
7.674999868288676
 42
0.4142135623731526
 10
12.34221216833726
 20
7.149999868288688
 42
0.0
 10
15.84221216833714
 20
7.149999868288688
 42
0.4142135623731044
 10
18.64221216833721
 20
9.949999868288664
 42
0.0
 10
18.64221216833721
 20
11.76520189364394
 42
0.1989123673796604
 10
17.41206064932067
 20
14.73505037462748
 42
0.0
 97
        0
 92
        7
 72
     1
 73
     1
 93
       16
 10
23.54221216833719
 20
19.04999986828869
 42
-0.4142135623730935
 10
24.94221216833716
 20
20.44999986828869
 42
0.0
 10
26.86721216833712
 20
20.44999986828869
 42
0.4142135623731546
 10
27.39221216833721
 20
20.97499986828868
 42
0.0
 10
27.39221216833721
 20
22.72499986828869
 42
0.4142135623730952
 10
26.86721216833723
 20
23.24999986828869
 42
0.0
 10
24.94221216833705
 20
23.24999986828865
 42
0.4142135623730892
 10
20.74221216833712
 20
19.04999986828862
 42
0.0
 10
20.74221216833712
 20
11.34999986828871
 42
0.4142135623730969
 10
24.94221216833716
 20
7.149999868288688
 42
0.0
 10
26.86721216833712
 20
7.149999868288688
 42
0.4142135623731526
 10
27.39221216833721
 20
7.674999868288676
 42
0.0
 10
27.39221216833721
 20
9.424999868288698
 42
0.414213562373089
 10
26.86721216833723
 20
9.949999868288685
 42
0.0
 10
24.94221216833716
 20
9.949999868288685
 42
-0.4142135623730928
 10
23.54221216833719
 20
11.34999986828867
 42
0.0
 97
        0
 92
        7
 72
     1
 73
     1
 93
        2
 10
24.24221216833712
 20
15.19999986828869
 42
1.0
 10
27.74221216833712
 20
15.19999986828869
 42
1.0
 97
        0
 92
        7
 72
     1
 73
     1
 93
       26
 10
37.31485865051513
 20
19.20504706185211
 42
0.0
 10
38.37649828365295
 20
22.5669059001217
 42
0.5069206636600134
 10
37.87586738445759
 20
23.24999986828869
 42
0.0
 10
36.17697800484837
 20
23.24999986828869
 42
0.3272098845218764
 10
35.67634710565301
 20
22.88309383645566
 42
0.0
 10
33.80807723102123
 20
16.96690590012177
 42
-0.3272098845219541
 10
33.30744633182576
 20
16.59999986828868
 42
0.0
 10
33.1672121683373
 20
16.59999986828868
 42
-0.4142135623731526
 10
32.64221216833721
 20
17.12499986828867
 42
0.0
 10
32.64221216833721
 20
22.72499986828869
 42
0.4142135623730952
 10
32.11721216833723
 20
23.24999986828869
 42
0.0
 10
30.36721216833712
 20
23.24999986828869
 42
0.4142135623730872
 10
29.84221216833714
 20
22.72499986828871
 42
0.0
 10
29.84221216833714
 20
7.674999868288676
 42
0.414213562373089
 10
30.36721216833712
 20
7.149999868288688
 42
0.0
 10
32.11721216833712
 20
7.149999868288688
 42
0.4142135623731526
 10
32.64221216833721
 20
7.674999868288676
 42
0.0
 10
32.64221216833721
 20
13.2749998682887
 42
-0.4142135623731526
 10
33.1672121683373
 20
13.79999986828869
 42
0.0
 10
33.30744633182587
 20
13.79999986828869
 42
-0.3272098845218915
 10
33.80807723102123
 20
13.43309383645561
 42
0.0
 10
35.67634710565301
 20
7.51690590012176
 42
0.3272098845218902
 10
36.17697800484837
 20
7.149999868288688
 42
0.0
 10
37.87586738445759
 20
7.149999868288688
 42
0.5069206636600334
 10
38.37649828365295
 20
7.833093836455696
 42
0.0
 10
36.05010690517929
 20
15.19999986828882
 42
0.0
 97
        0
 92
        7
 72
     1
 73
     1
 93
        8
 10
43.49221216833712
 20
22.7249998682887
 42
0.4142135623731546
 10
42.96721216833703
 20
23.24999986828869
 42
0.0
 10
41.21721216833726
 20
23.24999986828869
 42
0.4142135623731506
 10
40.69221216833716
 20
22.72499986828871
 42
0.0
 10
40.69221216833716
 20
7.674999868288676
 42
0.4142135623731526
 10
41.21721216833726
 20
7.149999868288688
 42
0.0
 10
42.96721216833703
 20
7.149999868288688
 42
0.4142135623731526
 10
43.49221216833712
 20
7.674999868288676
 42
0.0
 97
        0
 92
        7
 72
     1
 73
     1
 93
       24
 10
48.39221216833721
 20
19.92499986828869
 42
-0.4142135623731547
 10
48.9172121683373
 20
20.44999986828869
 42
0.0
 10
51.89221216833721
 20
20.44999986828869
 42
0.4142135623730911
 10
52.41721216833719
 20
20.97499986828868
 42
0.0
 10
52.41721216833719
 20
22.72499986828869
 42
0.4142135623730952
 10
51.89221216833721
 20
23.24999986828869
 42
0.0
 10
48.39221216833721
 20
23.24999986828869
 42
0.4142135623731048
 10
45.59221216833714
 20
20.44999986828871
 42
0.0
 10
45.59221216833714
 20
18.63479784293345
 42
0.1989123673796613
 10
46.82236368735369
 20
15.66494936194989
 42
0.0
 10
49.73216166199836
 20
12.75515138730523
 42
-0.1989123673796402
 10
50.14221216833721
 20
11.76520189364415
 42
0.0
 10
50.14221216833721
 20
10.47499986828868
 42
-0.4142135623730911
 10
49.61721216833723
 20
9.949999868288685
 42
0.0
 10
46.64221216833721
 20
9.949999868288685
 42
0.4142135623731526
 10
46.11721216833712
 20
9.424999868288698
 42
0.0
 10
46.11721216833712
 20
7.674999868288676
 42
0.414213562373089
 10
46.6422121683371
 20
7.149999868288688
 42
0.0
 10
50.14221216833721
 20
7.149999868288688
 42
0.4142135623730925
 10
52.94221216833716
 20
9.949999868288664
 42
0.0
 10
52.94221216833716
 20
11.76520189364394
 42
0.1989123673796675
 10
51.71206064932062
 20
14.73505037462759
 42
0.0
 10
48.80226267467606
 20
17.64484834927211
 42
-0.1989123673796653
 10
48.39221216833721
 20
18.63479784293327
 42
0.0
 97
        0
 92
        7
 72
     1
 73
     1
 93
       16
 10
57.84221216833714
 20
22.72499986828868
 42
0.414213562373103
 10
57.31721216833716
 20
23.24999986828869
 42
0.0
 10
55.56721216833716
 20
23.24999986828869
 42
0.4142135623730872
 10
55.04221216833719
 20
22.72499986828871
 42
0.0
 10
55.04221216833719
 20
9.949999868288664
 42
0.4142135623730925
 10
57.84221216833714
 20
7.149999868288688
 42
0.0
 10
61.34221216833714
 20
7.149999868288688
 42
0.4142135623731044
 10
64.14221216833721
 20
9.949999868288664
 42
0.0
 10
64.14221216833721
 20
22.72499986828869
 42
0.4142135623730952
 10
63.61721216833723
 20
23.24999986828869
 42
0.0
 10
61.86721216833712
 20
23.24999986828869
 42
0.4142135623730872
 10
61.34221216833714
 20
22.72499986828871
 42
0.0
 10
61.34221216833714
 20
10.99999986828866
 42
-0.414213562373088
 10
60.29221216833719
 20
9.949999868288685
 42
0.0
 10
58.89221216833721
 20
9.949999868288685
 42
-0.4142135623731197
 10
57.84221216833714
 20
10.99999986828866
 42
0.0
 97
        0
 92
        7
 72
     1
 73
     1
 93
        8
 10
69.04221216833719
 20
22.72499986828871
 42
0.4142135623730872
 10
68.51721216833721
 20
23.24999986828869
 42
0.0
 10
66.76721216833721
 20
23.24999986828869
 42
0.4142135623731506
 10
66.24221216833712
 20
22.72499986828871
 42
0.0
 10
66.24221216833712
 20
7.674999868288676
 42
0.414213562373089
 10
66.7672121683371
 20
7.149999868288688
 42
0.0
 10
68.51721216833721
 20
7.149999868288688
 42
0.414213562373089
 10
69.04221216833719
 20
7.674999868288676
 42
0.0
 97
        0
 75
     0
 76
     1
 52
0.0
 41
0.2
 77
     0
 78
     2
 53
45.0
 43
-900.942304321123
 44
-13.20000013171125
 45
-0.4490128060534576
 46
0.4490128060534577
 79
     0
 53
135.0
 43
-900.942304321123
 44
-13.20000013171125
 45
-0.4490128060534577
 46
-0.4490128060534576
 79
     0
 47
0.057451373970553
 98
        8
 10
16.07985497657933
 20
15.16717351417424
 10
22.40451501999519
 20
18.84406205073969
 10
25.16436789921568
 20
15.5118815143594
 10
30.91405999519316
 20
16.20129751473019
 10
41.83847203251276
 20
16.6609097822718
 10
46.89820090868557
 20
19.41857618469589
 10
56.55768598595637
 20
18.7291577833837
 10
67.82707963317876
 20
19.18877005092531
  0
LINE
  5
3F02
330
1A
100
AcDbEntity
  8
ZUWAKU
100
AcDbLine
 10
24.94221216833716
 20
23.24999986828865
 30
0.0
 11
26.86721216833712
 21
23.24999986828869
 31
0.0
  0
LINE
  5
3F03
330
1A
100
AcDbEntity
  8
ZUWAKU
100
AcDbLine
 10
26.86721216833712
 20
20.44999986828869
 30
0.0
 11
24.94221216833716
 21
20.44999986828869
 31
0.0
  0
LINE
  5
3F04
330
1A
100
AcDbEntity
  8
ZUWAKU
100
AcDbLine
 10
24.94221216833716
 20
9.949999868288685
 30
0.0
 11
26.86721216833712
 21
9.949999868288685
 31
0.0
  0
LINE
  5
3F05
330
1A
100
AcDbEntity
  8
ZUWAKU
100
AcDbLine
 10
26.86721216833712
 20
7.149999868288688
 30
0.0
 11
24.94221216833716
 21
7.149999868288688
 31
0.0
  0
CIRCLE
  5
3F06
330
1A
100
AcDbEntity
  8
ZUWAKU
100
AcDbCircle
 10
25.99221216833712
 20
15.19999986828869
 30
0.0
 40
1.75
  0
ARC
  5
3F07
330
1A
100
AcDbEntity
  8
ZUWAKU
100
AcDbCircle
 10
15.49221216833712
 20
18.63479784293339
 30
0.0
 40
1.4
100
AcDbArc
 50
180.0000000000016
 51
224.9999999999988
  0
LINE
  5
3F08
330
1A
100
AcDbEntity
  8
ZUWAKU
100
AcDbLine
 10
23.54221216833719
 20
19.04999986828869
 30
0.0
 11
23.54221216833719
 21
11.34999986828869
 31
0.0
  0
LINE
  5
3F09
330
1A
100
AcDbEntity
  8
ZUWAKU
100
AcDbLine
 10
20.74221216833712
 20
11.34999986828869
 30
0.0
 11
20.74221216833712
 21
19.04999986828864
 31
0.0
  0
ARC
  5
3F0A
330
1A
100
AcDbEntity
  8
ZUWAKU
100
AcDbCircle
 10
15.49221216833712
 20
18.63479784293339
 30
0.0
 40
4.199999999999999
100
AcDbArc
 50
180.0
 51
225.0
  0
ARC
  5
3F0B
330
1A
100
AcDbEntity
  8
ZUWAKU
100
AcDbCircle
 10
15.84221216833714
 20
9.949999868288685
 30
0.0
 40
2.8
100
AcDbArc
 50
270.0
 51
0.0
  0
ARC
  5
3F0C
330
1A
100
AcDbEntity
  8
ZUWAKU
100
AcDbCircle
 10
24.94221216833716
 20
11.34999986828869
 30
0.0
 40
4.199999999999999
100
AcDbArc
 50
180.0
 51
270.0
  0
ARC
  5
3F0D
330
1A
100
AcDbEntity
  8
ZUWAKU
100
AcDbCircle
 10
14.44221216833716
 20
11.76520189364399
 30
0.0
 40
4.199999999999999
100
AcDbArc
 50
0.0
 51
45.0
  0
LINE
  5
3F0E
330
1A
100
AcDbEntity
  8
ZUWAKU
100
AcDbLine
 10
17.41206064932067
 20
14.73505037462751
 30
0.0
 11
14.50226267467599
 21
17.64484834927219
 31
0.0
  0
LINE
  5
3F0F
330
1A
100
AcDbEntity
  8
ZUWAKU
100
AcDbLine
 10
15.84221216833714
 20
10.47499986828869
 30
0.0
 11
15.84221216833714
 21
11.76520189364403
 31
0.0
  0
ARC
  5
3F10
330
1A
100
AcDbEntity
  8
ZUWAKU
100
AcDbCircle
 10
15.31721216833716
 20
10.47499986828869
 30
0.0
 40
0.5249999999999999
100
AcDbArc
 50
270.0
 51
0.0
  0
ARC
  5
3F11
330
1A
100
AcDbEntity
  8
ZUWAKU
100
AcDbCircle
 10
14.44221216833716
 20
11.76520189364403
 30
0.0
 40
1.4
100
AcDbArc
 50
0.0
 51
45.0
  0
LINE
  5
3F12
330
1A
100
AcDbEntity
  8
ZUWAKU
100
AcDbLine
 10
11.81721216833716
 20
7.674999868288687
 30
0.0
 11
11.81721216833716
 21
9.424999868288687
 31
0.0
  0
ARC
  5
3F13
330
1A
100
AcDbEntity
  8
ZUWAKU
100
AcDbCircle
 10
12.34221216833714
 20
7.674999868288687
 30
0.0
 40
0.5249999999999999
100
AcDbArc
 50
180.0
 51
270.0
  0
ARC
  5
3F14
330
1A
100
AcDbEntity
  8
ZUWAKU
100
AcDbCircle
 10
12.34221216833714
 20
9.424999868288687
 30
0.0
 40
0.5249999999999999
100
AcDbArc
 50
90.0
 51
180.0
  0
LINE
  5
3F15
330
1A
100
AcDbEntity
  8
ZUWAKU
100
AcDbLine
 10
12.34221216833714
 20
7.149999868288688
 30
0.0
 11
15.84221216833714
 21
7.149999868288688
 31
0.0
  0
LINE
  5
3F16
330
1A
100
AcDbEntity
  8
ZUWAKU
100
AcDbLine
 10
12.34221216833714
 20
9.949999868288685
 30
0.0
 11
15.31721216833716
 21
9.949999868288685
 31
0.0
  0
LINE
  5
3F17
330
1A
100
AcDbEntity
  8
ZUWAKU
100
AcDbLine
 10
12.52236368735362
 20
15.66494936194987
 30
0.0
 11
15.43216166199829
 21
12.7551513873052
 31
0.0
  0
LINE
  5
3F18
330
1A
100
AcDbEntity
  8
ZUWAKU
100
AcDbLine
 10
18.64221216833721
 20
9.949999868288685
 30
0.0
 11
18.64221216833721
 21
11.76520189364403
 31
0.0
  0
ARC
  5
3F19
330
1A
100
AcDbEntity
  8
ZUWAKU
100
AcDbCircle
 10
24.94221216833716
 20
11.34999986828869
 30
0.0
 40
1.4
100
AcDbArc
 50
180.0
 51
270.0
  0
ARC
  5
3F1A
330
1A
100
AcDbEntity
  8
ZUWAKU
100
AcDbCircle
 10
17.59221216833714
 20
22.72499986828868
 30
0.0
 40
0.5249999999999999
100
AcDbArc
 50
0.0
 51
90.0
  0
ARC
  5
3F1B
330
1A
100
AcDbEntity
  8
ZUWAKU
100
AcDbCircle
 10
17.59221216833714
 20
20.97499986828868
 30
0.0
 40
0.5249999999999999
100
AcDbArc
 50
270.0
 51
0.0
  0
LINE
  5
3F1C
330
1A
100
AcDbEntity
  8
ZUWAKU
100
AcDbLine
 10
14.09221216833714
 20
23.24999986828869
 30
0.0
 11
17.59221216833714
 21
23.24999986828869
 31
0.0
  0
ARC
  5
3F1D
330
1A
100
AcDbEntity
  8
ZUWAKU
100
AcDbCircle
 10
14.61721216833712
 20
19.92499986828869
 30
0.0
 40
0.5249999999999999
100
AcDbArc
 50
90.0
 51
180.0
  0
LINE
  5
3F1E
330
1A
100
AcDbEntity
  8
ZUWAKU
100
AcDbLine
 10
14.09221216833714
 20
19.92499986828869
 30
0.0
 11
14.09221216833714
 21
18.63479784293335
 31
0.0
  0
LINE
  5
3F1F
330
1A
100
AcDbEntity
  8
ZUWAKU
100
AcDbLine
 10
17.59221216833714
 20
20.44999986828869
 30
0.0
 11
14.61721216833712
 21
20.44999986828869
 31
0.0
  0
LINE
  5
3F20
330
1A
100
AcDbEntity
  8
ZUWAKU
100
AcDbLine
 10
11.29221216833719
 20
20.44999986828869
 30
0.0
 11
11.29221216833719
 21
18.63479784293335
 31
0.0
  0
ARC
  5
3F21
330
1A
100
AcDbEntity
  8
ZUWAKU
100
AcDbCircle
 10
14.09221216833714
 20
20.44999986828869
 30
0.0
 40
2.8
100
AcDbArc
 50
90.0
 51
180.0
  0
LINE
  5
3F22
330
1A
100
AcDbEntity
  8
ZUWAKU
100
AcDbLine
 10
18.11721216833712
 20
22.72499986828868
 30
0.0
 11
18.11721216833712
 21
20.97499986828868
 31
0.0
  0
ARC
  5
3F23
330
1A
100
AcDbEntity
  8
ZUWAKU
100
AcDbCircle
 10
24.94221216833716
 20
19.04999986828869
 30
0.0
 40
1.4
100
AcDbArc
 50
90.0
 51
180.0
  0
ARC
  5
3F24
330
1A
100
AcDbEntity
  8
ZUWAKU
100
AcDbCircle
 10
24.94221216833716
 20
19.04999986828864
 30
0.0
 40
4.199999999999999
100
AcDbArc
 50
90.0
 51
180.0
  0
LINE
  5
3F25
330
1A
100
AcDbEntity
  8
ZUWAKU
100
AcDbLine
 10
79.32662956154422
 20
29.99999986828868
 30
0.0
 11
79.32662956154445
 21
0.7999998682887508
 31
0.0
  0
LINE
  5
3F26
330
1A
100
AcDbEntity
  8
ZUWAKU
100
AcDbLine
 10
79.52662956154427
 20
29.99999986828868
 30
0.0
 11
79.5266295615445
 21
0.7999998682887508
 31
0.0
  0
LINE
  5
3F27
330
1A
100
AcDbEntity
  8
ZUWAKU
100
AcDbLine
 10
79.12662956154441
 20
29.99999986828868
 30
0.0
 11
79.12662956154441
 21
0.7999998682887508
 31
0.0
  0
LINE
  5
3F28
330
1A
100
AcDbEntity
  8
ZUWAKU
100
AcDbLine
 10
64.14221216833721
 20
9.949999868288685
 30
0.0
 11
64.14221216833721
 21
22.72499986828868
 31
0.0
  0
LINE
  5
3F29
330
1A
100
AcDbEntity
  8
ZUWAKU
100
AcDbLine
 10
61.34221216833714
 20
22.72499986828868
 30
0.0
 11
61.34221216833714
 21
10.99999986828868
 31
0.0
  0
LINE
  5
3F2A
330
1A
100
AcDbEntity
  8
ZUWAKU
100
AcDbLine
 10
69.04221216833719
 20
7.674999868288687
 30
0.0
 11
69.04221216833719
 21
22.72499986828868
 31
0.0
  0
LINE
  5
3F2B
330
1A
100
AcDbEntity
  8
ZUWAKU
100
AcDbLine
 10
66.24221216833712
 20
22.72499986828868
 30
0.0
 11
66.24221216833712
 21
7.674999868288687
 31
0.0
  0
ARC
  5
3F2C
330
1A
100
AcDbEntity
  8
ZUWAKU
100
AcDbCircle
 10
49.79221216833719
 20
18.63479784293339
 30
0.0
 40
1.4
100
AcDbArc
 50
180.0000000000016
 51
224.9999999999988
  0
ARC
  5
3F2D
330
1A
100
AcDbEntity
  8
ZUWAKU
100
AcDbCircle
 10
49.79221216833719
 20
18.63479784293339
 30
0.0
 40
4.199999999999999
100
AcDbArc
 50
180.0
 51
225.0
  0
LINE
  5
3F2E
330
1A
100
AcDbEntity
  8
ZUWAKU
100
AcDbLine
 10
37.31485865051513
 20
19.20504706185211
 30
0.0
 11
36.05010690517929
 21
15.19999986828871
 31
0.0
  0
LINE
  5
3F2F
330
1A
100
AcDbEntity
  8
ZUWAKU
100
AcDbLine
 10
40.69221216833716
 20
22.72499986828868
 30
0.0
 11
40.69221216833716
 21
7.674999868288687
 31
0.0
  0
LINE
  5
3F30
330
1A
100
AcDbEntity
  8
ZUWAKU
100
AcDbLine
 10
43.49221216833712
 20
7.674999868288687
 30
0.0
 11
43.49221216833712
 21
22.72499986828868
 31
0.0
  0
LINE
  5
3F31
330
1A
100
AcDbEntity
  8
ZUWAKU
100
AcDbLine
 10
55.04221216833719
 20
22.72499986828868
 30
0.0
 11
55.04221216833719
 21
9.949999868288685
 31
0.0
  0
LINE
  5
3F32
330
1A
100
AcDbEntity
  8
ZUWAKU
100
AcDbLine
 10
57.84221216833714
 20
10.99999986828868
 30
0.0
 11
57.84221216833714
 21
22.72499986828868
 31
0.0
  0
LINE
  5
3F33
330
1A
100
AcDbEntity
  8
ZUWAKU
100
AcDbLine
 10
32.64221216833721
 20
17.12499986828869
 30
0.0
 11
32.64221216833721
 21
22.72499986828868
 31
0.0
  0
LINE
  5
3F34
330
1A
100
AcDbEntity
  8
ZUWAKU
100
AcDbLine
 10
29.84221216833714
 20
22.72499986828868
 30
0.0
 11
29.84221216833714
 21
7.674999868288687
 31
0.0
  0
LINE
  5
3F35
330
1A
100
AcDbEntity
  8
ZUWAKU
100
AcDbLine
 10
35.67634710565301
 20
22.88309383645566
 30
0.0
 11
33.80807723102123
 21
16.96690590012172
 31
0.0
  0
LINE
  5
3F36
330
1A
100
AcDbEntity
  8
ZUWAKU
100
AcDbLine
 10
60.29221216833719
 20
9.949999868288685
 30
0.0
 11
58.89221216833721
 21
9.949999868288685
 31
0.0
  0
LINE
  5
3F37
330
1A
100
AcDbEntity
  8
ZUWAKU
100
AcDbLine
 10
57.84221216833714
 20
7.149999868288688
 30
0.0
 11
61.34221216833714
 21
7.149999868288688
 31
0.0
  0
LINE
  5
3F38
330
1A
100
AcDbEntity
  8
ZUWAKU
100
AcDbLine
 10
41.21721216833714
 20
7.149999868288688
 30
0.0
 11
42.96721216833714
 21
7.149999868288688
 31
0.0
  0
LINE
  5
3F39
330
1A
100
AcDbEntity
  8
ZUWAKU
100
AcDbLine
 10
35.67634710565301
 20
7.516905900121714
 30
0.0
 11
33.80807723102123
 21
13.43309383645565
 31
0.0
  0
ARC
  5
3F3A
330
1A
100
AcDbEntity
  8
ZUWAKU
100
AcDbCircle
 10
33.30744633182587
 20
17.12499986828869
 30
0.0
 40
0.5249999999999999
100
AcDbArc
 50
270.0
 51
342.474431626277
  0
LINE
  5
3F3B
330
1A
100
AcDbEntity
  8
ZUWAKU
100
AcDbLine
 10
33.30744633182587
 20
16.59999986828868
 30
0.0
 11
33.16721216833719
 21
16.59999986828868
 31
0.0
  0
LINE
  5
3F3C
330
1A
100
AcDbEntity
  8
ZUWAKU
100
AcDbLine
 10
33.16721216833719
 20
13.79999986828869
 30
0.0
 11
33.30744633182587
 21
13.79999986828869
 31
0.0
  0
ARC
  5
3F3D
330
1A
100
AcDbEntity
  8
ZUWAKU
100
AcDbCircle
 10
33.16721216833719
 20
17.12499986828869
 30
0.0
 40
0.5249999999999999
100
AcDbArc
 50
180.0
 51
270.0
  0
LINE
  5
3F3E
330
1A
100
AcDbEntity
  8
ZUWAKU
100
AcDbLine
 10
30.36721216833712
 20
7.149999868288688
 30
0.0
 11
32.11721216833712
 21
7.149999868288688
 31
0.0
  0
ARC
  5
3F3F
330
1A
100
AcDbEntity
  8
ZUWAKU
100
AcDbCircle
 10
32.11721216833712
 20
7.674999868288687
 30
0.0
 40
0.5249999999999999
100
AcDbArc
 50
270.0
 51
0.0
  0
LINE
  5
3F40
330
1A
100
AcDbEntity
  8
ZUWAKU
100
AcDbLine
 10
32.64221216833721
 20
7.674999868288687
 30
0.0
 11
32.64221216833721
 21
13.27499986828869
 31
0.0
  0
LINE
  5
3F41
330
1A
100
AcDbEntity
  8
ZUWAKU
100
AcDbLine
 10
27.39221216833721
 20
9.424999868288687
 30
0.0
 11
27.39221216833721
 21
7.674999868288687
 31
0.0
  0
ARC
  5
3F42
330
1A
100
AcDbEntity
  8
ZUWAKU
100
AcDbCircle
 10
26.86721216833712
 20
7.674999868288687
 30
0.0
 40
0.5249999999999999
100
AcDbArc
 50
270.0
 51
0.0
  0
ARC
  5
3F43
330
1A
100
AcDbEntity
  8
ZUWAKU
100
AcDbCircle
 10
26.86721216833712
 20
9.424999868288687
 30
0.0
 40
0.5249999999999999
100
AcDbArc
 50
0.0
 51
90.0
  0
ARC
  5
3F44
330
1A
100
AcDbEntity
  8
ZUWAKU
100
AcDbCircle
 10
30.36721216833712
 20
7.674999868288687
 30
0.0
 40
0.5249999999999999
100
AcDbArc
 50
180.0
 51
270.0
  0
ARC
  5
3F45
330
1A
100
AcDbEntity
  8
ZUWAKU
100
AcDbCircle
 10
33.30744633182587
 20
13.27499986828869
 30
0.0
 40
0.5249999999999999
100
AcDbArc
 50
17.52556837372303
 51
90.0
  0
ARC
  5
3F46
330
1A
100
AcDbEntity
  8
ZUWAKU
100
AcDbCircle
 10
33.16721216833719
 20
13.27499986828869
 30
0.0
 40
0.5249999999999999
100
AcDbArc
 50
90.0
 51
180.0
  0
ARC
  5
3F47
330
1A
100
AcDbEntity
  8
ZUWAKU
100
AcDbCircle
 10
41.21721216833714
 20
7.674999868288687
 30
0.0
 40
0.5249999999999999
100
AcDbArc
 50
180.0
 51
270.0
  0
LINE
  5
3F48
330
1A
100
AcDbEntity
  8
ZUWAKU
100
AcDbLine
 10
36.17697800484848
 20
7.149999868288688
 30
0.0
 11
37.87586738445748
 21
7.149999868288688
 31
0.0
  0
ARC
  5
3F49
330
1A
100
AcDbEntity
  8
ZUWAKU
100
AcDbCircle
 10
37.87586738445748
 20
7.674999868288687
 30
0.0
 40
0.5249999999999999
100
AcDbArc
 50
270.0
 51
17.52556837372303
  0
LINE
  5
3F4A
330
1A
100
AcDbEntity
  8
ZUWAKU
100
AcDbLine
 10
38.37649828365295
 20
7.83309383645566
 30
0.0
 11
36.05010690517929
 21
15.19999986828871
 31
0.0
  0
ARC
  5
3F4B
330
1A
100
AcDbEntity
  8
ZUWAKU
100
AcDbCircle
 10
36.17697800484848
 20
7.674999868288687
 30
0.0
 40
0.5249999999999999
100
AcDbArc
 50
197.525568373723
 51
270.0
  0
ARC
  5
3F4C
330
1A
100
AcDbEntity
  8
ZUWAKU
100
AcDbCircle
 10
57.84221216833714
 20
9.949999868288685
 30
0.0
 40
2.8
100
AcDbArc
 50
180.0
 51
270.0
  0
ARC
  5
3F4D
330
1A
100
AcDbEntity
  8
ZUWAKU
100
AcDbCircle
 10
50.14221216833721
 20
9.949999868288685
 30
0.0
 40
2.8
100
AcDbArc
 50
270.0
 51
0.0
  0
LINE
  5
3F4E
330
1A
100
AcDbEntity
  8
ZUWAKU
100
AcDbLine
 10
51.71206064932073
 20
14.73505037462751
 30
0.0
 11
48.80226267467594
 21
17.64484834927219
 31
0.0
  0
LINE
  5
3F4F
330
1A
100
AcDbEntity
  8
ZUWAKU
100
AcDbLine
 10
50.14221216833721
 20
10.47499986828869
 30
0.0
 11
50.14221216833721
 21
11.76520189364403
 31
0.0
  0
ARC
  5
3F50
330
1A
100
AcDbEntity
  8
ZUWAKU
100
AcDbCircle
 10
48.74221216833712
 20
11.76520189364403
 30
0.0
 40
1.4
100
AcDbArc
 50
0.0
 51
45.0
  0
ARC
  5
3F51
330
1A
100
AcDbEntity
  8
ZUWAKU
100
AcDbCircle
 10
49.61721216833712
 20
10.47499986828869
 30
0.0
 40
0.5249999999999999
100
AcDbArc
 50
270.0
 51
0.0
  0
LINE
  5
3F52
330
1A
100
AcDbEntity
  8
ZUWAKU
100
AcDbLine
 10
46.11721216833712
 20
7.674999868288687
 30
0.0
 11
46.11721216833712
 21
9.424999868288687
 31
0.0
  0
ARC
  5
3F53
330
1A
100
AcDbEntity
  8
ZUWAKU
100
AcDbCircle
 10
46.64221216833721
 20
7.674999868288687
 30
0.0
 40
0.5249999999999999
100
AcDbArc
 50
180.0
 51
270.0
  0
ARC
  5
3F54
330
1A
100
AcDbEntity
  8
ZUWAKU
100
AcDbCircle
 10
42.96721216833714
 20
7.674999868288687
 30
0.0
 40
0.5249999999999999
100
AcDbArc
 50
270.0
 51
0.0
  0
ARC
  5
3F55
330
1A
100
AcDbEntity
  8
ZUWAKU
100
AcDbCircle
 10
46.64221216833721
 20
9.424999868288687
 30
0.0
 40
0.5249999999999999
100
AcDbArc
 50
90.0
 51
180.0
  0
LINE
  5
3F56
330
1A
100
AcDbEntity
  8
ZUWAKU
100
AcDbLine
 10
46.64221216833721
 20
9.949999868288685
 30
0.0
 11
49.61721216833712
 21
9.949999868288685
 31
0.0
  0
LINE
  5
3F57
330
1A
100
AcDbEntity
  8
ZUWAKU
100
AcDbLine
 10
46.64221216833721
 20
7.149999868288688
 30
0.0
 11
50.14221216833721
 21
7.149999868288688
 31
0.0
  0
LINE
  5
3F58
330
1A
100
AcDbEntity
  8
ZUWAKU
100
AcDbLine
 10
46.82236368735369
 20
15.66494936194987
 30
0.0
 11
49.73216166199836
 21
12.7551513873052
 31
0.0
  0
LINE
  5
3F59
330
1A
100
AcDbEntity
  8
ZUWAKU
100
AcDbLine
 10
52.94221216833716
 20
9.949999868288685
 30
0.0
 11
52.94221216833716
 21
11.76520189364403
 31
0.0
  0
ARC
  5
3F5A
330
1A
100
AcDbEntity
  8
ZUWAKU
100
AcDbCircle
 10
48.74221216833712
 20
11.76520189364399
 30
0.0
 40
4.199999999999999
100
AcDbArc
 50
0.0
 51
45.0
  0
ARC
  5
3F5B
330
1A
100
AcDbEntity
  8
ZUWAKU
100
AcDbCircle
 10
58.89221216833721
 20
10.99999986828868
 30
0.0
 40
1.05
100
AcDbArc
 50
180.0
 51
270.0
  0
ARC
  5
3F5C
330
1A
100
AcDbEntity
  8
ZUWAKU
100
AcDbCircle
 10
61.34221216833714
 20
9.949999868288685
 30
0.0
 40
2.8
100
AcDbArc
 50
270.0
 51
0.0
  0
LINE
  5
3F5D
330
1A
100
AcDbEntity
  8
ZUWAKU
100
AcDbLine
 10
66.76721216833721
 20
7.149999868288688
 30
0.0
 11
68.51721216833721
 21
7.149999868288688
 31
0.0
  0
ARC
  5
3F5E
330
1A
100
AcDbEntity
  8
ZUWAKU
100
AcDbCircle
 10
66.76721216833721
 20
7.674999868288687
 30
0.0
 40
0.5249999999999999
100
AcDbArc
 50
180.0
 51
270.0
  0
ARC
  5
3F5F
330
1A
100
AcDbEntity
  8
ZUWAKU
100
AcDbCircle
 10
60.29221216833719
 20
10.99999986828868
 30
0.0
 40
1.05
100
AcDbArc
 50
270.0
 51
0.0
  0
ARC
  5
3F60
330
1A
100
AcDbEntity
  8
ZUWAKU
100
AcDbCircle
 10
68.51721216833721
 20
7.674999868288687
 30
0.0
 40
0.5249999999999999
100
AcDbArc
 50
270.0
 51
0.0
  0
LINE
  5
3F61
330
1A
100
AcDbEntity
  8
ZUWAKU
100
AcDbLine
 10
42.96721216833714
 20
23.24999986828869
 30
0.0
 11
41.21721216833714
 21
23.24999986828869
 31
0.0
  0
ARC
  5
3F62
330
1A
100
AcDbEntity
  8
ZUWAKU
100
AcDbCircle
 10
32.11721216833712
 20
22.72499986828868
 30
0.0
 40
0.5249999999999999
100
AcDbArc
 50
0.0
 51
90.0
  0
LINE
  5
3F63
330
1A
100
AcDbEntity
  8
ZUWAKU
100
AcDbLine
 10
32.11721216833712
 20
23.24999986828869
 30
0.0
 11
30.36721216833712
 21
23.24999986828869
 31
0.0
  0
ARC
  5
3F64
330
1A
100
AcDbEntity
  8
ZUWAKU
100
AcDbCircle
 10
26.86721216833712
 20
22.72499986828868
 30
0.0
 40
0.5249999999999999
100
AcDbArc
 50
0.0
 51
90.0
  0
ARC
  5
3F65
330
1A
100
AcDbEntity
  8
ZUWAKU
100
AcDbCircle
 10
30.36721216833712
 20
22.72499986828868
 30
0.0
 40
0.5249999999999999
100
AcDbArc
 50
90.0
 51
180.0
  0
ARC
  5
3F66
330
1A
100
AcDbEntity
  8
ZUWAKU
100
AcDbCircle
 10
26.86721216833712
 20
20.97499986828868
 30
0.0
 40
0.5249999999999999
100
AcDbArc
 50
270.0
 51
0.0
  0
LINE
  5
3F67
330
1A
100
AcDbEntity
  8
ZUWAKU
100
AcDbLine
 10
27.39221216833721
 20
22.72499986828868
 30
0.0
 11
27.39221216833721
 21
20.97499986828868
 31
0.0
  0
ARC
  5
3F68
330
1A
100
AcDbEntity
  8
ZUWAKU
100
AcDbCircle
 10
41.21721216833714
 20
22.72499986828868
 30
0.0
 40
0.5249999999999999
100
AcDbArc
 50
90.0
 51
180.0
  0
LINE
  5
3F69
330
1A
100
AcDbEntity
  8
ZUWAKU
100
AcDbLine
 10
36.17697800484848
 20
23.24999986828869
 30
0.0
 11
37.87586738445748
 21
23.24999986828869
 31
0.0
  0
ARC
  5
3F6A
330
1A
100
AcDbEntity
  8
ZUWAKU
100
AcDbCircle
 10
37.87586738445748
 20
22.72499986828868
 30
0.0
 40
0.5249999999999999
100
AcDbArc
 50
342.474431626277
 51
90.0
  0
LINE
  5
3F6B
330
1A
100
AcDbEntity
  8
ZUWAKU
100
AcDbLine
 10
38.37649828365295
 20
22.56690590012172
 30
0.0
 11
37.31485865051513
 21
19.20504706185211
 31
0.0
  0
ARC
  5
3F6C
330
1A
100
AcDbEntity
  8
ZUWAKU
100
AcDbCircle
 10
36.17697800484848
 20
22.72499986828868
 30
0.0
 40
0.5249999999999999
100
AcDbArc
 50
90.0
 51
162.474431626277
  0
LINE
  5
3F6D
330
1A
100
AcDbEntity
  8
ZUWAKU
100
AcDbLine
 10
48.39221216833721
 20
23.24999986828869
 30
0.0
 11
51.89221216833721
 21
23.24999986828869
 31
0.0
  0
LINE
  5
3F6E
330
1A
100
AcDbEntity
  8
ZUWAKU
100
AcDbLine
 10
51.89221216833721
 20
20.44999986828869
 30
0.0
 11
48.91721216833719
 21
20.44999986828869
 31
0.0
  0
ARC
  5
3F6F
330
1A
100
AcDbEntity
  8
ZUWAKU
100
AcDbCircle
 10
48.91721216833719
 20
19.92499986828869
 30
0.0
 40
0.5249999999999999
100
AcDbArc
 50
90.0
 51
180.0
  0
LINE
  5
3F70
330
1A
100
AcDbEntity
  8
ZUWAKU
100
AcDbLine
 10
48.39221216833721
 20
19.92499986828869
 30
0.0
 11
48.39221216833721
 21
18.63479784293335
 31
0.0
  0
ARC
  5
3F71
330
1A
100
AcDbEntity
  8
ZUWAKU
100
AcDbCircle
 10
42.96721216833714
 20
22.72499986828868
 30
0.0
 40
0.5249999999999999
100
AcDbArc
 50
0.0
 51
90.0
  0
LINE
  5
3F72
330
1A
100
AcDbEntity
  8
ZUWAKU
100
AcDbLine
 10
45.59221216833714
 20
20.44999986828869
 30
0.0
 11
45.59221216833714
 21
18.63479784293335
 31
0.0
  0
ARC
  5
3F73
330
1A
100
AcDbEntity
  8
ZUWAKU
100
AcDbCircle
 10
48.39221216833721
 20
20.44999986828869
 30
0.0
 40
2.8
100
AcDbArc
 50
90.0
 51
180.0
  0
ARC
  5
3F74
330
1A
100
AcDbEntity
  8
ZUWAKU
100
AcDbCircle
 10
57.31721216833716
 20
22.72499986828868
 30
0.0
 40
0.5249999999999999
100
AcDbArc
 50
0.0
 51
90.0
  0
ARC
  5
3F75
330
1A
100
AcDbEntity
  8
ZUWAKU
100
AcDbCircle
 10
55.56721216833716
 20
22.72499986828868
 30
0.0
 40
0.5249999999999999
100
AcDbArc
 50
90.0
 51
180.0
  0
LINE
  5
3F76
330
1A
100
AcDbEntity
  8
ZUWAKU
100
AcDbLine
 10
57.31721216833716
 20
23.24999986828869
 30
0.0
 11
55.56721216833716
 21
23.24999986828869
 31
0.0
  0
ARC
  5
3F77
330
1A
100
AcDbEntity
  8
ZUWAKU
100
AcDbCircle
 10
51.89221216833721
 20
22.72499986828868
 30
0.0
 40
0.5249999999999999
100
AcDbArc
 50
0.0
 51
90.0
  0
ARC
  5
3F78
330
1A
100
AcDbEntity
  8
ZUWAKU
100
AcDbCircle
 10
51.89221216833721
 20
20.97499986828868
 30
0.0
 40
0.5249999999999999
100
AcDbArc
 50
270.0
 51
0.0
  0
LINE
  5
3F79
330
1A
100
AcDbEntity
  8
ZUWAKU
100
AcDbLine
 10
52.41721216833719
 20
22.72499986828868
 30
0.0
 11
52.41721216833719
 21
20.97499986828868
 31
0.0
  0
LINE
  5
3F7A
330
1A
100
AcDbEntity
  8
ZUWAKU
100
AcDbLine
 10
68.51721216833721
 20
23.24999986828869
 30
0.0
 11
66.76721216833721
 21
23.24999986828869
 31
0.0
  0
ARC
  5
3F7B
330
1A
100
AcDbEntity
  8
ZUWAKU
100
AcDbCircle
 10
66.76721216833721
 20
22.72499986828868
 30
0.0
 40
0.5249999999999999
100
AcDbArc
 50
90.0
 51
180.0
  0
ARC
  5
3F7C
330
1A
100
AcDbEntity
  8
ZUWAKU
100
AcDbCircle
 10
63.61721216833712
 20
22.72499986828868
 30
0.0
 40
0.5249999999999999
100
AcDbArc
 50
0.0
 51
90.0
  0
LINE
  5
3F7D
330
1A
100
AcDbEntity
  8
ZUWAKU
100
AcDbLine
 10
63.61721216833712
 20
23.24999986828869
 30
0.0
 11
61.86721216833712
 21
23.24999986828869
 31
0.0
  0
ARC
  5
3F7E
330
1A
100
AcDbEntity
  8
ZUWAKU
100
AcDbCircle
 10
61.86721216833712
 20
22.72499986828868
 30
0.0
 40
0.5249999999999999
100
AcDbArc
 50
90.0
 51
180.0
  0
ARC
  5
3F7F
330
1A
100
AcDbEntity
  8
ZUWAKU
100
AcDbCircle
 10
68.51721216833721
 20
22.72499986828868
 30
0.0
 40
0.5249999999999999
100
AcDbArc
 50
0.0
 51
90.0
  0
TEXT
  5
3F80
330
1A
100
AcDbEntity
  8
moji
100
AcDbText
 10
239.8272026944071
 20
18.00492092569607
 30
0.0
 40
5.6
  1
ステンレス金具打込丸足（吊）
 41
0.9
  7
ｽﾀｲﾙ1
100
AcDbText
  0
TEXT
  5
3F81
330
1A
100
AcDbEntity
  8
moji
100
AcDbText
 10
239.8272026944071
 20
3.204920925696104
 30
0.0
 40
5.6
  1
Σ９０－Ｌ１２０
 41
0.9
  7
ｽﾀｲﾙ1
100
AcDbText
  0
LINE
  5
3F82
330
1A
100
AcDbEntity
  8
ZUWAKU
100
AcDbLine
 10
208.246601303624
 20
29.99999986828868
 30
0.0
 11
208.246601303624
 21
0.7999998682887508
 31
0.0
  0
LINE
  5
3F83
330
1A
100
AcDbEntity
  8
ZUWAKU
100
AcDbLine
 10
208.6466013036238
 20
29.99999986828868
 30
0.0
 11
208.646601303624
 21
0.7999998682887508
 31
0.0
  0
LINE
  5
3F84
330
1A
100
AcDbEntity
  8
ZUWAKU
100
AcDbLine
 10
208.4466013036238
 20
29.99999986828868
 30
0.0
 11
208.446601303624
 21
0.7999998682887508
 31
0.0
  0
TEXT
  5
3F85
330
1A
100
AcDbEntity
  8
ZUWAKU
100
AcDbText
 10
209.7240463258336
 20
9.655356406674301
 30
0.0
 40
4.0
  1
サイズ
 41
0.9
  7
ｽﾀｲﾙ1
100
AcDbText
  0
TEXT
  5
3F86
330
1A
100
AcDbEntity
  8
ZUWAKU
100
AcDbText
 10
209.7240463258333
 20
24.05535640667426
 30
0.0
 40
4.0
  1
品名
 41
0.9
  7
ｽﾀｲﾙ1
100
AcDbText
  0
LINE
  5
3F87
330
1A
100
AcDbEntity
  8
ZUWAKU
100
AcDbLine
 10
648.8172025237602
 20
15.19999986828871
 30
0.0
 11
697.2490105620973
 21
15.19999986828872
 31
0.0
  0
LINE
  5
3F88
330
1A
100
AcDbEntity
  8
ZUWAKU
100
AcDbLine
 10
648.8172025237604
 20
15.39999986828872
 30
0.0
 11
697.2490105620973
 21
15.39999986828872
 31
0.0
  0
LINE
  5
3F89
330
1A
100
AcDbEntity
  8
ZUWAKU
100
AcDbLine
 10
648.8172025237602
 20
15.59999986828872
 30
0.0
 11
697.2490105620973
 21
15.59999986828872
 31
0.0
  0
TEXT
  5
3F8A
330
1A
100
AcDbEntity
  8
ZUWAKU
100
AcDbText
 10
658.2039377008584
 20
18.00492092569607
 30
0.0
 40
5.6
  1
　　．　　．　　
 41
0.9
  7
ｽﾀｲﾙ1
100
AcDbText
  0
LINE
  5
3F8B
330
1A
100
AcDbEntity
  8
ZUWAKU
100
AcDbLine
 10
505.1991795116969
 20
15.19999986828872
 30
0.0
 11
552.5269557796685
 21
15.19999986828872
 31
0.0
  0
LINE
  5
3F8C
330
1A
100
AcDbEntity
  8
ZUWAKU
100
AcDbLine
 10
505.1991795116969
 20
15.39999986828872
 30
0.0
 11
552.5269557796685
 21
15.39999986828872
 31
0.0
  0
LINE
  5
3F8D
330
1A
100
AcDbEntity
  8
ZUWAKU
100
AcDbLine
 10
505.1991795116969
 20
15.59999986828872
 30
0.0
 11
552.5269557796685
 21
15.59999986828872
 31
0.0
  0
TEXT
  5
3F8E
330
1A
100
AcDbEntity
  8
moji
100
AcDbText
 10
463.2464320045581
 20
11.94261758994867
 30
0.0
 40
5.6
  1
ＬＪ９２Ｔ
 41
0.9
  7
ｽﾀｲﾙ1
100
AcDbText
  0
LINE
  5
3F8F
330
1A
100
AcDbEntity
  8
ZUWAKU
100
AcDbLine
 10
447.6243639845472
 20
29.99999986828868
 30
0.0
 11
447.6243639845475
 21
0.7999998682887508
 31
0.0
  0
LINE
  5
3F90
330
1A
100
AcDbEntity
  8
ZUWAKU
100
AcDbLine
 10
447.8243639845473
 20
29.99999986828868
 30
0.0
 11
447.8243639845475
 21
0.7999998682887508
 31
0.0
  0
LINE
  5
3F91
330
1A
100
AcDbEntity
  8
ZUWAKU
100
AcDbLine
 10
447.4243639845474
 20
29.99999986828868
 30
0.0
 11
447.4243639845474
 21
0.7999998682887508
 31
0.0
  0
TEXT
  5
3F92
330
1A
100
AcDbEntity
  8
moji
100
AcDbText
 10
528.0409079858689
 20
18.00492092569607
 30
0.0
 40
5.6
  1
Ａ３
 41
0.9
  7
ｽﾀｲﾙ1
100
AcDbText
  0
LINE
  5
3F93
330
1A
100
AcDbEntity
  8
ZUWAKU
100
AcDbLine
 10
504.9991795116969
 20
29.99999986828868
 30
0.0
 11
504.9991795116971
 21
0.7999998682887508
 31
0.0
  0
LINE
  5
3F94
330
1A
100
AcDbEntity
  8
ZUWAKU
100
AcDbLine
 10
505.1991795116969
 20
29.99999986828868
 30
0.0
 11
505.1991795116971
 21
0.7999998682887508
 31
0.0
  0
LINE
  5
3F95
330
1A
100
AcDbEntity
  8
ZUWAKU
100
AcDbLine
 10
504.7991795116971
 20
29.99999986828868
 30
0.0
 11
504.7991795116971
 21
0.7999998682887508
 31
0.0
  0
TEXT
  5
3F97
330
1A
100
AcDbEntity
  8
ZUWAKU
100
AcDbText
 10
506.6766245339068
 20
9.655356406674301
 30
0.0
 40
4.0
  1
縮尺
 41
0.9
  7
ｽﾀｲﾙ1
100
AcDbText
  0
TEXT
  5
3F98
330
1A
100
AcDbEntity
  8
moji
100
AcDbText
 10
528.0409079858689
 20
3.204920925696104
 30
0.0
 40
5.6
  1
１/２
 41
0.9
  7
ｽﾀｲﾙ1
100
AcDbText
  0
TEXT
  5
3F99
330
1A
100
AcDbEntity
  8
ZUWAKU
100
AcDbText
 10
449.3018090067569
 20
24.05535640667426
 30
0.0
 40
4.0
  1
品番
 41
0.9
  7
ｽﾀｲﾙ1
100
AcDbText
  0
TEXT
  5
3F9A
330
1A
100
AcDbEntity
  8
ZUWAKU
100
AcDbText
 10
506.6766245339065
 20
24.05535640667426
 30
0.0
 40
4.0
  1
用紙
 41
0.9
  7
ｽﾀｲﾙ1
100
AcDbText
  0
LINE
  5
3F9B
330
1A
100
AcDbEntity
  8
ZUWAKU
100
AcDbLine
 10
648.6172025237604
 20
29.99999986828868
 30
0.0
 11
648.6172025237606
 21
0.7999998682887508
 31
0.0
  0
LINE
  5
3F9C
330
1A
100
AcDbEntity
  8
ZUWAKU
100
AcDbLine
 10
648.8172025237604
 20
29.99999986828868
 30
0.0
 11
648.8172025237607
 21
0.7999998682887508
 31
0.0
  0
LINE
  5
3F9D
330
1A
100
AcDbEntity
  8
ZUWAKU
100
AcDbLine
 10
648.4172025237606
 20
29.99999986828868
 30
0.0
 11
648.4172025237606
 21
0.7999998682887508
 31
0.0
  0
LINE
  5
3F9E
330
1A
100
AcDbEntity
  8
ZUWAKU
100
AcDbLine
 10
552.7269557796683
 20
29.99999986828868
 30
0.0
 11
552.7269557796685
 21
0.7999998682887508
 31
0.0
  0
LINE
  5
3F9F
330
1A
100
AcDbEntity
  8
ZUWAKU
100
AcDbLine
 10
552.9269557796683
 20
29.99999986828868
 30
0.0
 11
552.9269557796686
 21
0.7999998682887508
 31
0.0
  0
LINE
  5
3FA0
330
1A
100
AcDbEntity
  8
ZUWAKU
100
AcDbLine
 10
552.5269557796685
 20
29.99999986828868
 30
0.0
 11
552.5269557796685
 21
0.7999998682887508
 31
0.0
  0
TEXT
  5
3FA1
330
1A
100
AcDbEntity
  8
ZUWAKU
100
AcDbText
 10
650.2946475459701
 20
24.05535640667426
 30
0.0
 40
4.0
  1
DATE
 41
0.9
  7
ｽﾀｲﾙ1
100
AcDbText
  0
LINE
  5
3FA2
330
1A
100
AcDbEntity
  8
ZUWAKU
100
AcDbLine
 10
697.2490105620973
 20
29.99999986828868
 30
0.0
 11
697.2490105620973
 21
0.7999998682887508
 31
0.0
  0
LINE
  5
3FA3
330
1A
100
AcDbEntity
  8
ZUWAKU
100
AcDbLine
 10
697.4490105620973
 20
29.99999986828868
 30
0.0
 11
697.4490105620973
 21
0.7999998682887508
 31
0.0
  0
LINE
  5
3FA4
330
1A
100
AcDbEntity
  8
ZUWAKU
100
AcDbLine
 10
697.6490105620972
 20
29.99999986828868
 30
0.0
 11
697.6490105620974
 21
0.7999998682887508
 31
0.0
  0
LINE
  5
3FA5
330
1A
100
AcDbEntity
  8
ZUWAKU
100
AcDbLine
 10
697.8490105620972
 20
29.99999986828868
 30
0.0
 11
697.8490105620974
 21
0.7999998682887508
 31
0.0
  0
TEXT
  5
3FA6
330
1A
100
AcDbEntity
  8
ZUWAKU
100
AcDbText
 10
708.5280842057998
 20
17.55383920397549
 30
0.0
 40
6.0
  1
積水化学工業株式会社
 41
0.9
  7
ｽﾀｲﾙ1
100
AcDbText
  0
TEXT
  5
3FA7
330
1A
100
AcDbEntity
  8
ZUWAKU
100
AcDbText
 10
708.5280842057998
 20
6.648840182142749
 30
0.0
 40
6.0
  1
建材事業部
 41
0.9
  7
ｽﾀｲﾙ1
100
AcDbText
  0
DIMENSION
  5
5B33
330
1A
100
AcDbEntity
  8
SUNPOU
  6
Continuous
100
AcDbDimension
  2
*D2
 10
517.2807412100635
 20
182.9097243858089
 30
0.0
 11
459.715208433478
 21
165.2685952792726
 31
0.0
 70
    33
 71
     5
 42
-1.0
  3
STANDARD
100
AcDbAlignedDimension
 13
381.5736423858903
 23
199.0673628215187
 33
0.0
 14
492.9907895658922
 24
243.6343832995842
 34
0.0
1001
ACAD
1000
DSTYLE
1002
{
1070
    41
1040
7.0
1070
    42
1040
6.0
1070
    43
1040
14.0
1070
    44
1040
3.0
1070
    73
1070
     0
1070
    74
1070
     0
1070
    77
1070
     3
1070
   140
1040
6.0
1070
   141
1040
150.0
1070
   147
1040
2.0
1070
   172
1070
     1
1070
   173
1070
     1
1070
   176
1070
     4
1070
   177
1070
     4
1070
   178
1070
     4
1070
   271
1070
     0
1070
   272
1070
     2
1070
   341
1005
6D
1070
     6
1000
OPEN
1070
     7
1000
OPEN
1002
}
  0
DIMENSION
  5
5B34
330
1A
100
AcDbEntity
  8
SUNPOU
  6
Continuous
100
AcDbDimension
  2
*D3
 10
432.6671110430439
 20
189.7825927178281
 30
0.0
 11
427.3248217344849
 21
232.0919560044013
 31
0.0
 70
   160
 71
     5
 42
-1.0
  3
STANDARD
100
AcDbAlignedDimension
 13
360.4972353377113
 23
245.834373417828
 33
0.0
 14
385.2875504377114
 24
189.7825927178281
 34
0.0
 50
90.0
100
AcDbRotatedDimension
1001
ACAD
1000
DSTYLE
1002
{
1070
   287
1070
     5
1070
   287
1070
     5
1070
   287
1070
     5
1070
   287
1070
     5
1070
   287
1070
     5
1070
   287
1070
     5
1070
   287
1070
     5
1070
   287
1070
     5
1070
   287
1070
     5
1070
   287
1070
     5
1070
    41
1040
7.0
1070
    42
1040
6.0
1070
    43
1040
14.0
1070
    44
1040
3.0
1070
    73
1070
     0
1070
    74
1070
     0
1070
    77
1070
     3
1070
   140
1040
6.0
1070
   141
1040
150.0
1070
   147
1040
2.0
1070
   172
1070
     1
1070
   173
1070
     1
1070
   176
1070
     4
1070
   177
1070
     4
1070
   178
1070
     4
1070
   271
1070
     0
1070
   272
1070
     2
1070
   279
1070
     2
1070
   341
1005
6D
1070
     6
1000
OPEN
1070
     7
1000
OPEN
1002
}
  0
DIMENSION
  5
5B35
330
1A
100
AcDbEntity
  8
SUNPOU
  6
Continuous
100
AcDbDimension
  2
*D4
 10
398.6161177389186
 20
156.4611754901901
 30
0.0
 11
419.9710814814961
 21
170.3883260800702
 31
0.0
 70
    33
  1
t3.5
 71
     5
 42
-1.0
  3
STANDARD
100
AcDbAlignedDimension
 13
382.0378820377114
 23
188.4827253178281
 33
0.0
 14
385.2875504377114
 24
189.7825927178281
 34
0.0
1001
ACAD
1000
DSTYLE
1002
{
1070
    41
1040
7.0
1070
    42
1040
6.0
1070
    43
1040
14.0
1070
    44
1040
3.0
1070
    73
1070
     0
1070
    74
1070
     0
1070
    77
1070
     3
1070
   140
1040
6.0
1070
   141
1040
150.0
1070
   147
1040
2.0
1070
   172
1070
     1
1070
   173
1070
     1
1070
   176
1070
     4
1070
   177
1070
     4
1070
   178
1070
     4
1070
   271
1070
     1
1070
   272
1070
     2
1070
   341
1005
6D
1070
     6
1000
OPEN
1070
     7
1000
OPEN
1002
}
  0
LINE
  5
5B36
330
1A
100
AcDbEntity
  8
SEIHIN
 48
5.0
100
AcDbLine
 10
384.3590710877811
 20
386.928513884332
 30
0.0
 11
472.0636481273162
 21
386.9285138843321
 31
0.0
  0
LINE
  5
5B37
330
1A
100
AcDbEntity
  8
SEIHIN
 48
5.0
100
AcDbLine
 10
384.359071087781
 20
391.828513884332
 30
0.0
 11
472.0636481273162
 21
391.828513884332
 31
0.0
  0
LINE
  5
5B38
330
1A
100
AcDbEntity
  8
SEIHIN
  6
Continuous
100
AcDbLine
 10
385.4361083896322
 20
197.488957675033
 30
0.0
 11
480.1406834339186
 21
235.3709250579024
 31
0.0
  0
LINE
  5
5B39
330
1A
100
AcDbEntity
  8
SEIHIN
  6
Continuous
100
AcDbLine
 10
383.2820337859297
 20
202.8741190098202
 30
0.0
 11
477.9866088623151
 21
240.7560864055294
 31
0.0
  0
LINE
  5
5B3A
330
1A
100
AcDbEntity
  8
CENTER L
  6
CENTER
 48
5.0
100
AcDbLine
 10
369.3903039022159
 20
194.1940097566094
 30
0.0
 11
499.9907895658922
 21
246.434393452801
 31
0.0
  0
LINE
  5
5B3B
330
1A
100
AcDbEntity
  8
CENTER L
  6
CENTER
 62
     1
 48
5.0
100
AcDbLine
 10
227.2002808991731
 20
389.3785138843321
 30
0.0
 11
504.0057667276541
 21
389.3785138843321
 31
0.0
  0
DIMENSION
  5
5B3C
330
1A
100
AcDbEntity
  8
SUNPOU
  6
Continuous
100
AcDbDimension
  2
*D5
 10
231.7628808991731
 20
290.6416168390726
 30
0.0
 11
297.314861195899
 21
295.6416168390726
 31
0.0
 70
    32
 71
     5
 42
-1.0
  3
STANDARD
100
AcDbAlignedDimension
 13
362.8668414926248
 23
245.8343649244162
 33
0.0
 14
231.7628808991731
 24
240.8346084590844
 34
0.0
100
AcDbRotatedDimension
1001
ACAD
1000
DSTYLE
1002
{
1070
    41
1040
7.0
1070
    42
1040
6.0
1070
    43
1040
14.0
1070
    44
1040
3.0
1070
    73
1070
     0
1070
    74
1070
     0
1070
    77
1070
     3
1070
   140
1040
6.0
1070
   141
1040
150.0
1070
   147
1040
2.0
1070
   172
1070
     1
1070
   173
1070
     1
1070
   176
1070
     4
1070
   177
1070
     4
1070
   178
1070
     4
1070
   271
1070
     0
1070
   272
1070
     2
1070
   341
1005
6D
1070
     6
1000
OPEN
1070
     7
1000
OPEN
1002
}
  0
DIMENSION
  5
5B3D
330
1A
100
AcDbEntity
  8
SUNPOU
  6
Continuous
100
AcDbDimension
  2
*D6
 10
385.2875504377114
 20
307.489242042717
 30
0.0
 11
308.5252156684422
 21
312.489242042717
 31
0.0
 70
    32
 71
     5
 42
-1.0
  3
STANDARD
100
AcDbAlignedDimension
 13
231.7628808991731
 23
240.8346084590844
 33
0.0
 14
385.2875504377114
 24
189.7825927178281
 34
0.0
100
AcDbRotatedDimension
1001
ACAD
1000
DSTYLE
1002
{
1070
    41
1040
7.0
1070
    42
1040
6.0
1070
    43
1040
14.0
1070
    44
1040
3.0
1070
    73
1070
     0
1070
    74
1070
     0
1070
    77
1070
     3
1070
   140
1040
6.0
1070
   141
1040
150.0
1070
   147
1040
2.0
1070
   172
1070
     1
1070
   173
1070
     1
1070
   176
1070
     4
1070
   177
1070
     4
1070
   178
1070
     4
1070
   271
1070
     0
1070
   272
1070
     2
1070
   341
1005
6D
1070
     6
1000
OPEN
1070
     7
1000
OPEN
1002
}
  0
DIMENSION
  5
5B3E
330
1A
100
AcDbEntity
  8
SUNPOU
  6
Continuous
100
AcDbDimension
  2
*D7
 10
187.0533850179945
 20
189.7825927178282
 30
0.0
 11
182.0533850179945
 21
216.3086584678281
 31
0.0
 70
    32
 71
     5
 42
-1.0
  3
STANDARD
100
AcDbAlignedDimension
 13
233.2628721377114
 23
242.834724217828
 33
0.0
 14
385.2875504377114
 24
189.7825927178281
 34
0.0
 50
90.0
100
AcDbRotatedDimension
1001
ACAD
1000
DSTYLE
1002
{
1070
    41
1040
7.0
1070
    42
1040
6.0
1070
    43
1040
14.0
1070
    44
1040
3.0
1070
    73
1070
     0
1070
    74
1070
     0
1070
    77
1070
     3
1070
   140
1040
6.0
1070
   141
1040
150.0
1070
   147
1040
2.0
1070
   172
1070
     1
1070
   173
1070
     1
1070
   176
1070
     4
1070
   177
1070
     4
1070
   178
1070
     4
1070
   271
1070
     0
1070
   272
1070
     2
1070
   341
1005
6D
1070
     6
1000
OPEN
1070
     7
1000
OPEN
1002
}
  0
LINE
  5
5B3F
330
1A
100
AcDbEntity
  8
SEIHIN
  6
DASHED
100
AcDbLine
 10
299.0376537377114
 20
212.334592117828
 30
0.0
 11
297.5376537377114
 21
212.334592117828
 31
0.0
  0
LINE
  5
5B40
330
1A
100
AcDbEntity
  8
SEIHIN
  6
Continuous
100
AcDbLine
 10
297.5376537377114
 20
214.8345989178281
 30
0.0
 11
301.5376537377114
 21
214.8345989178281
 31
0.0
  0
LINE
  5
5B41
330
1A
100
AcDbEntity
  8
SEIHIN
  6
Continuous
100
AcDbLine
 10
289.0754721377114
 20
212.334624217828
 30
0.0
 11
325.9068721377114
 21
212.334524217828
 31
0.0
  0
LINE
  5
5B42
330
1A
100
AcDbEntity
  8
SEIHIN
  6
Continuous
100
AcDbLine
 10
318.4082721377114
 20
214.834524217828
 30
0.0
 11
262.1835048617518
 21
214.8347256240676
 31
0.0
  0
LINE
  5
5B43
330
1A
100
AcDbEntity
  8
SEIHIN
  6
Continuous
100
AcDbLine
 10
317.2475459377114
 20
218.3345283178281
 30
0.0
 11
297.5376663377114
 21
218.3345989178281
 31
0.0
  0
LINE
  5
5B44
330
1A
100
AcDbEntity
  8
SEIHIN
  6
Continuous
100
AcDbLine
 10
259.6522721377114
 20
203.834624217828
 30
0.0
 11
325.5307721377114
 21
203.834524217828
 31
0.0
  0
LINE
  5
5B45
330
1A
100
AcDbEntity
  8
SEIHIN
  6
Continuous
100
AcDbLine
 10
259.9911721377114
 20
206.334624217828
 30
0.0
 11
323.5364721377114
 21
206.334524217828
 31
0.0
  0
ARC
  5
5B46
330
1A
100
AcDbEntity
  8
SEIHIN
  6
Continuous
100
AcDbCircle
 10
259.6522721377114
 20
208.834624217828
 30
0.0
 40
4.999989987625705
100
AcDbArc
 50
201.7354440727624
 51
269.9988540821165
  0
LINE
  5
5B47
330
1A
100
AcDbEntity
  8
SEIHIN
  6
Continuous
100
AcDbLine
 10
231.7628721377114
 20
238.834624217828
 30
0.0
 11
234.7628721377114
 21
238.834624217828
 31
0.0
  0
ARC
  5
5B48
330
1A
100
AcDbEntity
  8
SEIHIN
  6
Continuous
100
AcDbCircle
 10
233.2628721377114
 20
241.334724217828
 30
0.0
 40
1.5
100
AcDbArc
 50
0.0
 51
180.0
  0
ARC
  5
5B49
330
1A
100
AcDbEntity
  8
SEIHIN
  6
Continuous
100
AcDbCircle
 10
234.7628721377114
 20
235.9347242178281
 30
0.0
 40
3.0
100
AcDbArc
 50
180.0
 51
270.0
  0
LINE
  5
5B4A
330
1A
100
AcDbEntity
  8
SEIHIN
  6
Continuous
100
AcDbLine
 10
231.7628721377114
 20
241.334724217828
 30
0.0
 11
231.7628721377114
 21
235.9347242178281
 31
0.0
  0
LINE
  5
5B4B
330
1A
100
AcDbEntity
  8
SEIHIN
  6
Continuous
100
AcDbLine
 10
264.7129721377114
 20
211.834624217828
 30
0.0
 11
265.3129721377114
 21
211.834624217828
 31
0.0
  0
LINE
  5
5B4C
330
1A
100
AcDbEntity
  8
SEIHIN
  6
Continuous
100
AcDbLine
 10
264.7129721377114
 20
210.334624217828
 30
0.0
 11
265.3129721377114
 21
210.334624217828
 31
0.0
  0
LINE
  5
5B4D
330
1A
100
AcDbEntity
  8
SEIHIN
  6
Continuous
100
AcDbLine
 10
261.5637721377114
 20
212.334624217828
 30
0.0
 11
265.5130721377114
 21
212.334624217828
 31
0.0
  0
LINE
  5
5B4E
330
1A
100
AcDbEntity
  8
SEIHIN
  6
Continuous
100
AcDbLine
 10
258.9127721377114
 20
213.930524217828
 30
0.0
 11
251.4867721377114
 21
226.950724217828
 31
0.0
  0
ARC
  5
5B4F
330
1A
100
AcDbEntity
  8
SEIHIN
  6
Continuous
100
AcDbCircle
 10
250.6030721377114
 20
226.482624217828
 30
0.0
 40
0.9999819607511118
100
AcDbArc
 50
27.90531178635517
 51
201.7343779755237
  0
LINE
  5
5B50
330
1A
100
AcDbEntity
  8
SEIHIN
  6
Continuous
100
AcDbLine
 10
260.8550030888507
 20
215.605843626878
 30
0.0
 11
249.6080721377114
 21
235.8388242178281
 31
0.0
  0
LINE
  5
5B51
330
1A
100
AcDbEntity
  8
SEIHIN
  6
Continuous
100
AcDbLine
 10
245.5180721377114
 20
229.7863242178281
 30
0.0
 11
255.0077721377114
 21
206.9830242178281
 31
0.0
  0
ARC
  5
5B52
330
1A
100
AcDbEntity
  8
SEIHIN
  6
Continuous
100
AcDbCircle
 10
262.1660632897013
 20
216.334624217828
 30
0.0
 40
1.5
100
AcDbArc
 50
209.0684214494142
 51
270.0
  0
LINE
  5
5B53
330
1A
100
AcDbEntity
  8
SEIHIN
  6
Continuous
100
AcDbLine
 10
257.2044721377114
 20
208.2236242178281
 30
0.0
 11
249.6741721377114
 21
226.1123242178281
 31
0.0
  0
LINE
  5
5B54
330
1A
100
AcDbEntity
  8
SEIHIN
  6
Continuous
100
AcDbLine
 10
264.7129721377114
 20
210.334724217828
 30
0.0
 11
264.7129721377114
 21
211.834724217828
 31
0.0
  0
ARC
  5
5B55
330
1A
100
AcDbEntity
  8
SEIHIN
  6
Continuous
100
AcDbCircle
 10
261.5637721377114
 20
215.334624217828
 30
0.0
 40
2.999941015461203
100
AcDbArc
 50
207.9078958426847
 51
270.0
  0
ARC
  5
5B56
330
1A
100
AcDbEntity
  8
SEIHIN
  6
Continuous
100
AcDbCircle
 10
259.9911721377114
 20
209.334624217828
 30
0.0
 40
2.999982979754893
100
AcDbArc
 50
201.7343795130071
 51
270.0
  0
LINE
  5
5B57
330
1A
100
AcDbEntity
  8
SEIHIN
  6
Continuous
100
AcDbLine
 10
260.2627721377114
 20
212.334624217828
 30
0.0
 11
260.2626721377114
 21
206.334624217828
 31
0.0
  0
ARC
  5
5B58
330
1A
100
AcDbEntity
  8
SEIHIN
  6
Continuous
100
AcDbCircle
 10
246.9569721377114
 20
234.434624217828
 30
0.0
 40
3.000008985505337
100
AcDbArc
 50
27.90868901697595
 51
90.0
  0
ARC
  5
5B59
330
1A
100
AcDbEntity
  8
SEIHIN
  6
Continuous
100
AcDbCircle
 10
235.7628721377114
 20
238.4347242178281
 30
0.0
 40
1.0
100
AcDbArc
 50
180.0
 51
270.0
  0
LINE
  5
5B5A
330
1A
100
AcDbEntity
  8
SEIHIN
  6
Continuous
100
AcDbLine
 10
240.8735721377114
 20
232.934624217828
 30
0.0
 11
234.7628721377114
 21
232.9347242178281
 31
0.0
  0
LINE
  5
5B5B
330
1A
100
AcDbEntity
  8
SEIHIN
  6
Continuous
100
AcDbLine
 10
246.9569721377114
 20
237.434624217828
 30
0.0
 11
235.7628721377114
 21
237.4347242178281
 31
0.0
  0
ARC
  5
5B5C
330
1A
100
AcDbEntity
  8
SEIHIN
  6
Continuous
100
AcDbCircle
 10
240.8735721377114
 20
227.934624217828
 30
0.0
 40
5.000009006707418
100
AcDbArc
 50
21.7365080658443
 51
90.0
  0
LINE
  5
5B5D
330
1A
100
AcDbEntity
  8
SEIHIN
  6
Continuous
100
AcDbLine
 10
234.7628721377114
 20
241.334724217828
 30
0.0
 11
234.7628721377114
 21
238.4347242178281
 31
0.0
  0
LINE
  5
5B5E
330
1A
100
AcDbEntity
  8
SEIHIN
  6
Continuous
100
AcDbLine
 10
265.5130721377114
 20
212.334624217828
 30
0.0
 11
289.0754721377114
 21
212.334624217828
 31
0.0
  0
LINE
  5
5B5F
330
1A
100
AcDbEntity
  8
SEIHIN
  6
Continuous
100
AcDbLine
 10
265.3129721377114
 20
210.334724217828
 30
0.0
 11
265.3129721377114
 21
211.834724217828
 31
0.0
  0
LINE
  5
5B60
330
1A
100
AcDbEntity
  8
SEIHIN
  6
Continuous
100
AcDbLine
 10
297.5376537377114
 20
214.8345989178281
 30
0.0
 11
297.5376645377114
 21
217.8345989178281
 31
0.0
  0
LINE
  5
5B61
330
1A
100
AcDbEntity
  8
SEIHIN
  6
Continuous
100
AcDbLine
 10
297.5376537377114
 20
214.8345989178281
 30
0.0
 11
297.5376663377114
 21
218.3345989178281
 31
0.0
  0
LINE
  5
5B62
330
1A
100
AcDbEntity
  8
CENTER L
  6
CENTER
 62
     1
 48
5.0
100
AcDbLine
 10
312.4783414377115
 20
193.686495117828
 30
0.0
 11
312.4783414377114
 21
229.6829072178281
 31
0.0
  0
LINE
  5
5B63
330
1A
100
AcDbEntity
  8
SEIHIN
  6
Continuous
100
AcDbLine
 10
380.6452146377114
 20
204.080993017828
 30
0.0
 11
383.28203378593
 21
202.8741190098204
 31
0.0
  0
LINE
  5
5B64
330
1A
100
AcDbEntity
  8
SEIHIN
  6
Continuous
100
AcDbLine
 10
382.5021383377114
 20
199.4387054178281
 30
0.0
 11
380.6452146377114
 21
204.080993017828
 31
0.0
  0
ARC
  5
5B65
330
1A
100
AcDbEntity
  8
SEIHIN
  6
Continuous
100
AcDbCircle
 10
355.7628721377114
 20
206.834524217828
 30
0.0
 40
4.999982022214938
100
AcDbArc
 50
205.2243004057727
 51
0.0
  0
LINE
  5
5B66
330
1A
100
AcDbEntity
  8
SEIHIN
  6
Continuous
100
AcDbLine
 10
317.7218922377114
 20
203.8345521178281
 30
0.0
 11
317.7218922377114
 21
202.034846617828
 31
0.0
  0
LINE
  5
5B67
330
1A
100
AcDbEntity
  8
SEIHIN
  6
Continuous
100
AcDbLine
 10
307.1130572377114
 20
202.034846617828
 30
0.0
 11
307.1130572377114
 21
203.8345521178281
 31
0.0
  0
LINE
  5
5B68
330
1A
100
AcDbEntity
  8
SEIHIN
  6
Continuous
100
AcDbLine
 10
363.7468911377114
 20
243.634240817828
 30
0.0
 11
385.2875504377114
 21
189.7825927178281
 31
0.0
  0
LINE
  5
5B69
330
1A
100
AcDbEntity
  8
SEIHIN
  6
Continuous
100
AcDbLine
 10
360.7486655377114
 20
241.705766517828
 30
0.0
 11
382.0378820377114
 21
188.4827253178281
 31
0.0
  0
LINE
  5
5B6A
330
1A
100
AcDbEntity
  8
SEIHIN
  6
Continuous
100
AcDbLine
 10
309.6618016377114
 20
200.686495117828
 30
0.0
 11
315.4135166377114
 21
200.686495117828
 31
0.0
  0
LINE
  5
5B6B
330
1A
100
AcDbEntity
  8
SEIHIN
  6
Continuous
100
AcDbLine
 10
315.4135166377114
 20
202.034846617828
 30
0.0
 11
309.6618016377114
 21
202.034846617828
 31
0.0
  0
LINE
  5
5B6C
330
1A
100
AcDbEntity
  8
SEIHIN
  6
Continuous
100
AcDbLine
 10
317.7218922377114
 20
202.034846617828
 30
0.0
 11
307.1130572377114
 21
202.034846617828
 31
0.0
  0
LINE
  5
5B6D
330
1A
100
AcDbEntity
  8
SEIHIN
  6
Continuous
100
AcDbLine
 10
309.6618016377114
 20
202.034846617828
 30
0.0
 11
309.6618016377114
 21
200.686495117828
 31
0.0
  0
LINE
  5
5B6E
330
1A
100
AcDbEntity
  8
SEIHIN
  6
Continuous
100
AcDbLine
 10
315.4135166377114
 20
200.686495117828
 30
0.0
 11
315.4135166377114
 21
202.034846617828
 31
0.0
  0
LINE
  5
5B6F
330
1A
100
AcDbEntity
  8
SEIHIN
  6
Continuous
100
AcDbLine
 10
377.0038140377114
 20
194.008324317828
 30
0.0
 11
374.7754609377114
 21
199.579180917828
 31
0.0
  0
LINE
  5
5B70
330
1A
100
AcDbEntity
  8
SEIHIN
  6
Continuous
100
AcDbLine
 10
377.2098032377114
 20
200.5529223178281
 30
0.0
 11
374.7754609377114
 21
199.579180917828
 31
0.0
  0
LINE
  5
5B71
330
1A
100
AcDbEntity
  8
SEIHIN
  6
Continuous
100
AcDbLine
 10
379.4381472377114
 20
194.982062217828
 30
0.0
 11
377.0038140377114
 21
194.008324317828
 31
0.0
  0
LINE
  5
5B72
330
1A
100
AcDbEntity
  8
SEIHIN
  6
Continuous
100
AcDbLine
 10
382.0378820377114
 20
188.4827253178281
 30
0.0
 11
385.2875504377114
 21
189.7825927178281
 31
0.0
  0
LINE
  5
5B73
330
1A
100
AcDbEntity
  8
SEIHIN
  6
Continuous
100
AcDbLine
 10
385.4361083896322
 20
197.488957675033
 30
0.0
 11
384.3590248377113
 21
194.796510617828
 31
0.0
  0
LINE
  5
5B74
330
1A
100
AcDbEntity
  8
SEIHIN
  6
Continuous
100
AcDbLine
 10
384.3590248377113
 20
194.796510617828
 30
0.0
 11
383.4305487377114
 21
194.425118417828
 31
0.0
  0
LINE
  5
5B75
330
1A
100
AcDbEntity
  8
SEIHIN
  6
Continuous
100
AcDbLine
 10
382.5021383377114
 20
199.4387054178281
 30
0.0
 11
384.3590248377113
 21
194.796510617828
 31
0.0
  0
LINE
  5
5B76
330
1A
100
AcDbEntity
  8
SEIHIN
  6
Continuous
100
AcDbLine
 10
383.2820337859297
 20
202.8741190098203
 30
0.0
 11
385.4361083896322
 21
197.488957675033
 31
0.0
  0
ARC
  5
5B77
330
1A
100
AcDbEntity
  8
SEIHIN
  6
Continuous
100
AcDbCircle
 10
360.4972227377114
 20
242.334373417828
 30
0.0
 40
3.499999997692868
100
AcDbArc
 50
21.80141009433039
 51
89.99979373519297
  0
LINE
  5
5B78
330
1A
100
AcDbEntity
  8
SEIHIN
  6
Continuous
100
AcDbLine
 10
323.0031721377114
 20
216.330924217828
 30
0.0
 11
335.2713721377114
 21
237.786024217828
 31
0.0
  0
LINE
  5
5B79
330
1A
100
AcDbEntity
  8
SEIHIN
  6
Continuous
100
AcDbLine
 10
332.9966721377114
 20
238.834524217828
 30
0.0
 11
319.6986721377114
 21
215.5698242178281
 31
0.0
  0
LINE
  5
5B7A
330
1A
100
AcDbEntity
  8
SEIHIN
  6
Continuous
100
AcDbLine
 10
331.9585904377113
 20
244.0713336178281
 30
0.0
 11
317.2475459377114
 21
218.3345283178281
 31
0.0
  0
LINE
  5
5B7B
330
1A
100
AcDbEntity
  8
SEIHIN
  6
Continuous
100
AcDbLine
 10
334.7092793377115
 20
241.830710917828
 30
0.0
 11
320.1422065377114
 21
216.3457826178281
 31
0.0
  0
LINE
  5
5B7C
330
1A
100
AcDbEntity
  8
SEIHIN
  6
Continuous
100
AcDbLine
 10
329.4337721377115
 20
215.324724217828
 30
0.0
 11
338.6051721377114
 21
231.7941242178281
 31
0.0
  0
LINE
  5
5B7D
330
1A
100
AcDbEntity
  8
SEIHIN
  6
Continuous
100
AcDbLine
 10
325.5307721377114
 20
203.834524217828
 30
0.0
 11
342.7542721377114
 21
207.0725242178281
 31
0.0
  0
LINE
  5
5B7E
330
1A
100
AcDbEntity
  8
SEIHIN
  6
Continuous
100
AcDbLine
 10
329.0593721377114
 20
206.532924217828
 30
0.0
 11
342.5382721377114
 21
208.3542242178281
 31
0.0
  0
LINE
  5
5B7F
330
1A
100
AcDbEntity
  8
SEIHIN
  6
Continuous
100
AcDbLine
 10
328.0143721377114
 20
208.0255242178281
 30
0.0
 11
339.5782721377113
 21
228.383524217828
 31
0.0
  0
LINE
  5
5B80
330
1A
100
AcDbEntity
  8
SEIHIN
  6
Continuous
100
AcDbLine
 10
309.6024839377114
 20
218.334555717828
 30
0.0
 11
315.3541989377114
 21
218.334555717828
 31
0.0
  0
LINE
  5
5B81
330
1A
100
AcDbEntity
  8
SEIHIN
  6
Continuous
100
AcDbLine
 10
315.3541989377114
 20
219.6829072178281
 30
0.0
 11
309.6024839377114
 21
219.6829072178281
 31
0.0
  0
LINE
  5
5B82
330
1A
100
AcDbEntity
  8
SEIHIN
  6
Continuous
100
AcDbLine
 10
307.1130572377114
 20
203.8345521178281
 30
0.0
 11
317.7218922377114
 21
203.8345521178281
 31
0.0
  0
LINE
  5
5B83
330
1A
100
AcDbEntity
  8
SEIHIN
  6
Continuous
100
AcDbLine
 10
299.7129721377114
 20
210.334624217828
 30
0.0
 11
300.3129721377114
 21
210.334624217828
 31
0.0
  0
LINE
  5
5B84
330
1A
100
AcDbEntity
  8
SEIHIN
  6
Continuous
100
AcDbLine
 10
299.7129721377114
 20
211.834624217828
 30
0.0
 11
300.3129721377114
 21
211.834624217828
 31
0.0
  0
LINE
  5
5B85
330
1A
100
AcDbEntity
  8
SEIHIN
  6
Continuous
100
AcDbLine
 10
299.7129721377114
 20
210.334624217828
 30
0.0
 11
299.7129721377114
 21
211.834624217828
 31
0.0
  0
LINE
  5
5B86
330
1A
100
AcDbEntity
  8
SEIHIN
  6
Continuous
100
AcDbLine
 10
300.3129721377114
 20
210.334624217828
 30
0.0
 11
300.3129721377114
 21
211.834624217828
 31
0.0
  0
LINE
  5
5B87
330
1A
100
AcDbEntity
  8
SEIHIN
  6
Continuous
100
AcDbLine
 10
301.5376537377114
 20
214.8345989178281
 30
0.0
 11
301.5376537377114
 21
214.834592117828
 31
0.0
  0
LINE
  5
5B88
330
1A
100
AcDbEntity
  8
SEIHIN
  6
Continuous
100
AcDbLine
 10
309.6024839377114
 20
219.6829072178281
 30
0.0
 11
309.6024839377114
 21
218.334555717828
 31
0.0
  0
ARC
  5
5B89
330
1A
100
AcDbEntity
  8
SEIHIN
  6
Continuous
100
AcDbCircle
 10
328.5734721377114
 20
215.834524217828
 30
0.0
 40
1.000003031759903
100
AcDbArc
 50
270.0
 51
329.349695152749
  0
ARC
  5
5B8A
330
1A
100
AcDbEntity
  8
SEIHIN
  6
Continuous
100
AcDbCircle
 10
323.8712721377115
 20
215.834524217828
 30
0.0
 40
1.00000297655918
100
AcDbArc
 50
150.238065595501
 51
270.0
  0
ARC
  5
5B8B
330
1A
100
AcDbEntity
  8
SEIHIN
  6
Continuous
100
AcDbCircle
 10
318.4082721377114
 20
216.334524217828
 30
0.0
 40
1.499983039243746
100
AcDbArc
 50
270.0
 51
329.3487219221036
  0
ARC
  5
5B8C
330
1A
100
AcDbEntity
  8
SEIHIN
  6
Continuous
100
AcDbCircle
 10
317.5376645377114
 20
217.834527317828
 30
0.0
 40
2.999999984304894
100
AcDbArc
 50
269.999793735193
 51
330.2479056730442
  0
LINE
  5
5B8D
330
1A
100
AcDbEntity
  8
SEIHIN
  6
Continuous
100
AcDbLine
 10
319.2629721377114
 20
206.334624217828
 30
0.0
 11
319.2629721377114
 21
212.334624217828
 31
0.0
  0
ARC
  5
5B8E
330
1A
100
AcDbEntity
  8
SEIHIN
  6
Continuous
100
AcDbCircle
 10
325.9068721377114
 20
211.334524217828
 30
0.0
 40
1.000003031759903
100
AcDbArc
 50
329.349695152749
 51
90.0
  0
ARC
  5
5B8F
330
1A
100
AcDbEntity
  8
SEIHIN
  6
Continuous
100
AcDbCircle
 10
323.5364721377114
 20
207.334524217828
 30
0.0
 40
1.00000303175989
100
AcDbArc
 50
270.0
 51
329.349695152749
  0
ARC
  5
5B90
330
1A
100
AcDbEntity
  8
SEIHIN
  6
Continuous
100
AcDbCircle
 10
328.8746721377114
 20
207.515724217828
 30
0.0
 40
1.000006009867282
100
AcDbArc
 50
149.3497148679917
 51
280.6436007314223
  0
LINE
  5
5B91
330
1A
100
AcDbEntity
  8
SEIHIN
  6
Continuous
100
AcDbLine
 10
324.3967721377114
 20
206.824724217828
 30
0.0
 11
326.7671721377114
 21
210.824724217828
 31
0.0
  0
LINE
  5
5B92
330
1A
100
AcDbEntity
  8
SEIHIN
  6
Continuous
100
AcDbLine
 10
315.3541989377114
 20
218.334555717828
 30
0.0
 11
315.3541989377114
 21
219.6829072178281
 31
0.0
  0
LINE
  5
5B93
330
1A
100
AcDbEntity
  8
SEIHIN
  6
Continuous
100
AcDbLine
 10
328.5734721377114
 20
214.834524217828
 30
0.0
 11
323.8712721377115
 21
214.834524217828
 31
0.0
  0
ARC
  5
5B94
330
1A
100
AcDbEntity
  8
SEIHIN
  6
Continuous
100
AcDbCircle
 10
349.7628721377114
 20
225.834524217828
 30
0.0
 40
5.0
100
AcDbArc
 50
0.0
 51
90.0
  0
LINE
  5
5B95
330
1A
100
AcDbEntity
  8
SEIHIN
  6
Continuous
100
AcDbLine
 10
360.7628941377113
 20
236.834524217828
 30
0.0
 11
360.7628541377114
 21
206.834524217828
 31
0.0
  0
ARC
  5
5B96
330
1A
100
AcDbEntity
  8
SEIHIN
  6
Continuous
100
AcDbCircle
 10
342.6341721377114
 20
207.711324217828
 30
0.0
 40
0.6500059719144884
100
AcDbArc
 50
278.4754109415897
 51
98.48412720396546
  0
LINE
  5
5B97
330
1A
100
AcDbEntity
  8
SEIHIN
  6
Continuous
100
AcDbLine
 10
354.7628721377114
 20
225.834524217828
 30
0.0
 11
354.7628721377114
 21
209.334524217828
 31
0.0
  0
ARC
  5
5B98
330
1A
100
AcDbEntity
  8
SEIHIN
  6
Continuous
100
AcDbCircle
 10
353.7628721377114
 20
209.334524217828
 30
0.0
 40
0.9999749850130122
100
AcDbArc
 50
224.5502680224659
 51
0.0
  0
LINE
  5
5B99
330
1A
100
AcDbEntity
  8
SEIHIN
  6
Continuous
100
AcDbLine
 10
351.3186721377114
 20
204.543324217828
 30
0.0
 11
348.4296721377114
 21
209.147124217828
 31
0.0
  0
ARC
  5
5B9A
330
1A
100
AcDbEntity
  8
SEIHIN
  6
Continuous
100
AcDbCircle
 10
349.7628721377114
 20
209.834524217828
 30
0.0
 40
1.500006985373535
100
AcDbArc
 50
44.54354502679128
 51
207.2757017678219
  0
LINE
  5
5B9B
330
1A
100
AcDbEntity
  8
SEIHIN
  6
Continuous
100
AcDbLine
 10
350.8319721377114
 20
210.8867242178281
 30
0.0
 11
353.0502721377114
 21
208.6330242178281
 31
0.0
  0
LINE
  5
5B9C
330
1A
100
AcDbEntity
  8
SEIHIN
  6
Continuous
100
AcDbLine
 10
343.8797721377114
 20
230.834524217828
 30
0.0
 11
349.7628721377114
 21
230.834524217828
 31
0.0
  0
LINE
  5
5B9D
330
1A
100
AcDbEntity
  8
SEIHIN
  6
Continuous
100
AcDbLine
 10
351.7629721377114
 20
239.334624217828
 30
0.0
 11
337.8968721377114
 21
239.334624217828
 31
0.0
  0
LINE
  5
5B9E
330
1A
100
AcDbEntity
  8
SEIHIN
  6
Continuous
100
AcDbLine
 10
355.7628721377114
 20
241.834524217828
 30
0.0
 11
337.6126721377113
 21
241.834624217828
 31
0.0
  0
LINE
  5
5B9F
330
1A
100
AcDbEntity
  8
SEIHIN
  6
Continuous
100
AcDbLine
 10
341.2261721377114
 20
233.334524217828
 30
0.0
 11
351.7628721377114
 21
233.334524217828
 31
0.0
  0
LINE
  5
5BA0
330
1A
100
AcDbEntity
  8
SEIHIN
  6
Continuous
100
AcDbLine
 10
360.4972353377113
 20
245.834373417828
 30
0.0
 11
334.9972353377113
 21
245.834464817828
 31
0.0
  0
LINE
  5
5BA1
330
1A
100
AcDbEntity
  8
SEIHIN
  6
Continuous
100
AcDbLine
 10
359.8201924377114
 20
242.3343758178281
 30
0.0
 11
335.5774635377114
 21
242.3344627178281
 31
0.0
  0
ARC
  5
5BA2
330
1A
100
AcDbEntity
  8
SEIHIN
  6
Continuous
100
AcDbCircle
 10
337.8968721377114
 20
236.334524217828
 30
0.0
 40
3.000005995386831
100
AcDbArc
 50
123.5571125254931
 51
149.3496967961644
  0
ARC
  5
5BA3
330
1A
100
AcDbEntity
  8
SEIHIN
  6
Continuous
100
AcDbCircle
 10
337.8968721377114
 20
236.334624217828
 30
0.0
 40
3.00000900128527
100
AcDbArc
 50
90.0
 51
149.349697465182
  0
ARC
  5
5BA4
330
1A
100
AcDbEntity
  8
SEIHIN
  6
Continuous
100
AcDbCircle
 10
341.2261721377114
 20
230.334524217828
 30
0.0
 40
3.000005983640281
100
AcDbArc
 50
90.0
 51
150.8871500685572
  0
ARC
  5
5BA5
330
1A
100
AcDbEntity
  8
SEIHIN
  6
Continuous
100
AcDbCircle
 10
343.8797721377114
 20
225.834524217828
 30
0.0
 40
5.000014996300545
100
AcDbArc
 50
90.0
 51
149.3496969418492
  0
ARC
  5
5BA6
330
1A
100
AcDbEntity
  8
SEIHIN
  6
Continuous
100
AcDbCircle
 10
335.5774599377114
 20
241.3344627178281
 30
0.0
 40
0.9999999575581251
100
AcDbArc
 50
89.99979373519297
 51
150.2479054356189
  0
ARC
  5
5BA7
330
1A
100
AcDbEntity
  8
SEIHIN
  6
Continuous
100
AcDbCircle
 10
334.9972227377114
 20
242.334464817828
 30
0.0
 40
3.499999963083964
100
AcDbArc
 50
89.99979373519297
 51
150.2479056391247
  0
ARC
  5
5BA8
330
1A
100
AcDbEntity
  8
SEIHIN
  6
Continuous
100
AcDbCircle
 10
337.6126721377113
 20
236.834524217828
 30
0.0
 40
5.000012995307374
100
AcDbArc
 50
90.0
 51
150.2473016741219
  0
ARC
  5
5BA9
330
1A
100
AcDbEntity
  8
SEIHIN
  6
Continuous
100
AcDbCircle
 10
351.7628721377114
 20
236.334524217828
 30
0.0
 40
3.0
100
AcDbArc
 50
0.0
 51
90.0
  0
ARC
  5
5BAA
330
1A
100
AcDbEntity
  8
SEIHIN
  6
Continuous
100
AcDbCircle
 10
355.7628721377114
 20
236.834524217828
 30
0.0
 40
5.0000000005
100
AcDbArc
 50
0.0
 51
89.9988540844093
  0
ARC
  5
5BAB
330
1A
100
AcDbEntity
  8
SEIHIN
  6
Continuous
100
AcDbCircle
 10
351.7628721377114
 20
236.334524217828
 30
0.0
 40
3.0
100
AcDbArc
 50
270.0
 51
0.0
  0
ARC
  5
5BAC
330
1A
100
AcDbEntity
  8
SEIHIN
  6
Continuous
100
AcDbCircle
 10
355.7628721377114
 20
236.834524217828
 30
0.0
 40
5.000022005325354
100
AcDbArc
 50
0.0
 51
2.064222249578836
  0
ARC
  5
5BAD
330
1A
100
AcDbEntity
  8
SEIHIN
  6
Continuous
100
AcDbCircle
 10
359.8201888377114
 20
241.3343758178281
 30
0.0
 40
1.000000008625588
100
AcDbArc
 50
21.80141055030616
 51
89.99979373519297
  0
LINE
  5
5BAE
330
1A
100
AcDbEntity
  8
SEIHIN
  6
Continuous
100
AcDbLine
 10
380.6452146377114
 20
204.080993017828
 30
0.0
 11
379.7167385377114
 21
203.7096008178281
 31
0.0
  0
LINE
  5
5BAF
330
1A
100
AcDbEntity
  8
SEIHIN
 48
5.0
100
AcDbLine
 10
297.5376645377114
 20
382.8785138843321
 30
0.0
 11
385.2875504377114
 21
382.8785138843321
 31
0.0
  0
LINE
  5
5BB0
330
1A
100
AcDbEntity
  8
SEIHIN
 48
5.0
100
AcDbLine
 10
297.5376645377114
 20
395.8785138843321
 30
0.0
 11
385.2875504377114
 21
395.8785138843321
 31
0.0
  0
LINE
  5
5BB1
330
1A
100
AcDbEntity
  8
SEIHIN
  6
Continuous
 62
     3
 48
5.0
100
AcDbLine
 10
234.7627808991731
 20
381.878613884332
 30
0.0
 11
360.7628941377113
 21
381.8783008429057
 31
0.0
  0
LINE
  5
5BB2
330
1A
100
AcDbEntity
  8
SEIHIN
  6
Continuous
 62
     3
 48
5.0
100
AcDbLine
 10
234.7627808991731
 20
396.8785138843321
 30
0.0
 11
360.7628941377113
 21
396.878513884332
 31
0.0
  0
ARC
  5
5BB3
330
1A
100
AcDbEntity
  8
SEIHIN
  6
Continuous
100
AcDbCircle
 10
271.5129360848106
 20
389.3785138843321
 30
0.0
 40
3.250000000451389
100
AcDbArc
 50
89.99904507034056
 51
269.9990450703406
  0
LINE
  5
5BB4
330
1A
100
AcDbEntity
  8
SEIHIN
  6
Continuous
100
AcDbLine
 10
297.5376645377114
 20
395.8785138843321
 30
0.0
 11
297.5376645377114
 21
382.8785138843321
 31
0.0
  0
DIMENSION
  5
5BB5
330
1A
100
AcDbEntity
  8
SUNPOU
 48
5.0
100
AcDbDimension
  2
*D8
 10
205.5482426626505
 20
381.878613884332
 30
0.0
 11
200.5482426626505
 21
389.3785638843321
 31
0.0
 70
    32
 71
     5
 42
-1.0
  3
STANDARD
100
AcDbAlignedDimension
 13
234.7627808991731
 23
396.8785138843321
 33
0.0
 14
234.7627808991731
 24
381.878613884332
 34
0.0
 50
90.0
100
AcDbRotatedDimension
1001
ACAD
1000
DSTYLE
1002
{
1070
   140
1040
6.0
1070
    74
1070
     0
1070
   172
1070
     1
1070
    73
1070
     0
1070
   272
1070
     2
1070
    77
1070
     3
1070
   173
1070
     1
1070
   147
1040
2.0
1070
    42
1040
6.0
1070
    44
1040
3.0
1070
    43
1040
14.0
1070
   271
1070
     0
1070
   178
1070
     4
1070
   177
1070
     4
1070
   176
1070
     4
1070
   141
1040
150.0
1070
     7
1000
_OPEN
1070
     6
1000
_OPEN
1070
    41
1040
7.0
1002
}
  0
LINE
  5
5BB6
330
1A
100
AcDbEntity
  8
SEIHIN
  6
Continuous
 62
     3
 48
5.0
100
AcDbLine
 10
261.2627808991731
 20
381.878613884332
 30
0.0
 11
261.2627808991731
 21
396.878613884332
 31
0.0
  0
LINE
  5
5BB7
330
1A
100
AcDbEntity
  8
SEIHIN
  6
Continuous
 62
     3
 48
5.0
100
AcDbLine
 10
248.7627808991731
 20
389.378613884332
 30
0.0
 11
248.7627808991731
 21
381.8785138843321
 31
0.0
  0
LINE
  5
5BB8
330
1A
100
AcDbEntity
  8
SEIHIN
  6
Continuous
 62
     3
 48
5.0
100
AcDbLine
 10
234.7627808991731
 20
389.3788138843321
 30
0.0
 11
234.7627808991731
 21
378.3785138843321
 31
0.0
  0
LINE
  5
5BB9
330
1A
100
AcDbEntity
  8
SEIHIN
  6
Continuous
 62
     3
 48
5.0
100
AcDbLine
 10
231.7627808991731
 20
389.3788138843321
 30
0.0
 11
231.7627808991731
 21
378.3785138843321
 31
0.0
  0
LINE
  5
5BBA
330
1A
100
AcDbEntity
  8
SEIHIN
  6
Continuous
 62
     3
 48
5.0
100
AcDbLine
 10
231.7627808991731
 20
378.378613884332
 30
0.0
 11
234.7627808991731
 21
378.378613884332
 31
0.0
  0
LINE
  5
5BBB
330
1A
100
AcDbEntity
  8
SEIHIN
 48
5.0
100
AcDbLine
 10
271.512881917452
 20
386.1285138843321
 30
0.0
 11
297.5376645377114
 21
386.1285138843321
 31
0.0
  0
LINE
  5
5BBC
330
1A
100
AcDbEntity
  8
SEIHIN
  6
Continuous
 62
     3
 48
5.0
100
AcDbLine
 10
231.7628808991731
 20
400.378613884332
 30
0.0
 11
234.7628808991731
 21
400.378613884332
 31
0.0
  0
LINE
  5
5BBD
330
1A
100
AcDbEntity
  8
SEIHIN
  6
Continuous
 62
     3
 48
5.0
100
AcDbLine
 10
231.7627808991731
 20
389.3783138843321
 30
0.0
 11
231.7627808991731
 21
400.378613884332
 31
0.0
  0
LINE
  5
5BBE
330
1A
100
AcDbEntity
  8
SEIHIN
  6
Continuous
 62
     3
 48
5.0
100
AcDbLine
 10
234.7627808991731
 20
389.3783138843321
 30
0.0
 11
234.7627808991731
 21
400.378613884332
 31
0.0
  0
LINE
  5
5BBF
330
1A
100
AcDbEntity
  8
SEIHIN
  6
Continuous
 62
     3
 48
5.0
100
AcDbLine
 10
248.7627808991731
 20
389.3784138843321
 30
0.0
 11
248.7627808991731
 21
396.878613884332
 31
0.0
  0
LINE
  5
5BC0
330
1A
100
AcDbEntity
  8
SEIHIN
 48
5.0
100
AcDbLine
 10
271.512881917452
 20
392.6285138843321
 30
0.0
 11
297.5376645377114
 21
392.6285138843321
 31
0.0
  0
CIRCLE
  5
5BC1
330
1A
100
AcDbEntity
  8
SEIHIN
  6
Continuous
100
AcDbCircle
 10
312.4783414377115
 20
389.3785138843321
 30
0.0
 40
2.87
  0
LINE
  5
5BC2
330
1A
100
AcDbEntity
  8
CENTER L
  6
CENTER
 62
     1
 48
5.0
100
AcDbLine
 10
312.4783414377115
 20
371.3780569709091
 30
0.0
 11
312.4783414377114
 21
407.3744690709092
 31
0.0
  0
DIMENSION
  5
5BC3
330
1A
100
AcDbEntity
  8
SUNPOU
  6
Continuous
100
AcDbDimension
  2
*D9
 10
423.3737261142919
 20
382.8785138843321
 30
0.0
 11
416.8576076638651
 21
406.1564100847374
 31
0.0
 70
   160
 71
     5
 42
-1.0
  3
STANDARD
100
AcDbAlignedDimension
 13
385.2875504377114
 23
395.8785138843321
 33
0.0
 14
385.2875504377114
 24
382.8785138843321
 34
0.0
 50
90.0
100
AcDbRotatedDimension
1001
ACAD
1000
DSTYLE
1002
{
1070
   287
1070
     5
1070
   287
1070
     5
1070
   287
1070
     5
1070
   287
1070
     5
1070
   287
1070
     5
1070
   287
1070
     5
1070
   287
1070
     5
1070
   287
1070
     5
1070
   287
1070
     5
1070
   287
1070
     5
1070
    41
1040
7.0
1070
    42
1040
6.0
1070
    43
1040
14.0
1070
    44
1040
3.0
1070
    73
1070
     0
1070
    74
1070
     0
1070
    77
1070
     3
1070
   140
1040
6.0
1070
   141
1040
150.0
1070
   147
1040
2.0
1070
   172
1070
     1
1070
   173
1070
     1
1070
   176
1070
     4
1070
   177
1070
     4
1070
   178
1070
     4
1070
   271
1070
     0
1070
   272
1070
     2
1070
   279
1070
     2
1070
   341
1005
6D
1070
     6
1000
OPEN
1070
     7
1000
OPEN
1002
}
  0
ARC
  5
5BC4
330
1A
100
AcDbEntity
  8
SEIHIN
  6
Continuous
100
AcDbCircle
 10
387.3907263199844
 20
389.3785138843321
 30
0.0
 40
7.660025457056265
100
AcDbArc
 50
139.2515434244789
 51
220.7484565755211
  0
ARC
  5
5BC5
330
1A
100
AcDbEntity
  8
SEIHIN
  6
Continuous
100
AcDbCircle
 10
388.3052400947677
 20
389.3785138843321
 30
0.0
 40
7.660025457056265
100
AcDbArc
 50
139.2515434244789
 51
220.7484565755211
  0
ARC
  5
5BC6
330
1A
100
AcDbEntity
  8
SEIHIN
  6
Continuous
100
AcDbCircle
 10
386.6071318755083
 20
389.3785138843321
 30
0.0
 40
3.325098089578303
100
AcDbArc
 50
132.5387404896681
 51
227.4612595103319
  0
LINE
  5
5BC7
330
1A
100
AcDbEntity
  8
SEIHIN
  6
Continuous
100
AcDbLine
 10
362.8668414926248
 20
395.8785138843321
 30
0.0
 11
362.8668414926248
 21
382.8785138843321
 31
0.0
  0
LINE
  5
5BC8
330
1A
100
AcDbEntity
  8
SEIHIN
  6
Continuous
100
AcDbLine
 10
332.9663926231224
 20
395.8785138843321
 30
0.0
 11
332.9663926231224
 21
382.8785138843321
 31
0.0
  0
LINE
  5
5BC9
330
1A
100
AcDbEntity
  8
SEIHIN
  6
Continuous
100
AcDbLine
 10
317.2475459377114
 20
395.8785138843321
 30
0.0
 11
317.2475459377114
 21
382.8785138843321
 31
0.0
  0
LINE
  5
5BCA
330
1A
100
AcDbEntity
  8
SEIHIN
  6
Continuous
100
AcDbLine
 10
360.7628941377113
 20
381.8783008429057
 30
0.0
 11
360.7628941377113
 21
382.8785138843321
 31
0.0
  0
LINE
  5
5BCB
330
1A
100
AcDbEntity
  8
SEIHIN
  6
Continuous
100
AcDbLine
 10
385.2875504377114
 20
386.928513884332
 30
0.0
 11
385.2875504377114
 21
382.8785138843321
 31
0.0
  0
LINE
  5
5BCC
330
1A
100
AcDbEntity
  8
SEIHIN
  6
Continuous
100
AcDbLine
 10
384.3590710877811
 20
386.928513884332
 30
0.0
 11
382.5021383377114
 21
384.3785138843321
 31
0.0
  0
LINE
  5
5BCD
330
1A
100
AcDbEntity
  8
SEIHIN
 48
5.0
100
AcDbLine
 10
381.5876245629281
 20
384.3785138843321
 30
0.0
 11
382.5021383377114
 21
384.3785138843321
 31
0.0
  0
LINE
  5
5BCE
330
1A
100
AcDbEntity
  8
SEIHIN
  6
Continuous
100
AcDbLine
 10
332.9664926231224
 20
395.3785138843321
 30
0.0
 11
332.9663926231224
 21
389.3785138843321
 31
0.0
  0
LINE
  5
5BCF
330
1A
100
AcDbEntity
  8
SEIHIN
  6
Continuous
100
AcDbLine
 10
360.7628941377113
 20
395.8785138843321
 30
0.0
 11
360.7628941377113
 21
396.8785138843319
 31
0.0
  0
LINE
  5
5BD0
330
1A
100
AcDbEntity
  8
SEIHIN
  6
Continuous
100
AcDbLine
 10
382.5021383377114
 20
394.3785138843321
 30
0.0
 11
384.359071087781
 21
391.828513884332
 31
0.0
  0
LINE
  5
5BD1
330
1A
100
AcDbEntity
  8
SEIHIN
 48
5.0
100
AcDbLine
 10
381.5876245629281
 20
394.3785138843321
 30
0.0
 11
382.5021383377114
 21
394.3785138843321
 31
0.0
  0
LINE
  5
5BD2
330
1A
100
AcDbEntity
  8
SEIHIN
  6
Continuous
100
AcDbLine
 10
385.2875504377114
 20
395.8785138843321
 30
0.0
 11
385.2875504377115
 21
391.8285138843321
 31
0.0
  0
ELLIPSE
  5
5BD3
102
{ACAD_REACTORS
330
5BD8
102
}
330
1A
100
AcDbEntity
  8
SEIHIN
  6
Continuous
100
AcDbEllipse
 10
469.6851674746133
 20
234.3121006592106
 30
0.0
 11
1.077036328219095
 21
-2.692581056847927
 31
0.0
210
0.0
220
0.0
230
1.0
 40
0.8448275862068745
 41
0.0
 42
6.283185307179586
  0
DIMENSION
  5
5BD4
330
1A
100
AcDbEntity
  8
SUNPOU
  6
Continuous
100
AcDbDimension
  2
*D10
 10
519.9627989285318
 20
251.299845444327
 30
0.0
 11
531.2902384159442
 21
236.4442365823851
 31
0.0
 70
    33
 71
     5
 42
-1.0
  3
STANDARD
100
AcDbAlignedDimension
 13
477.9866088623151
 23
240.7560864055294
 33
0.0
 14
480.1406834339185
 24
235.3709250579024
 34
0.0
1001
ACAD
1000
DSTYLE
1002
{
1070
    41
1040
7.0
1070
    42
1040
6.0
1070
    43
1040
14.0
1070
    44
1040
3.0
1070
    73
1070
     0
1070
    74
1070
     0
1070
    77
1070
     3
1070
   140
1040
6.0
1070
   141
1040
150.0
1070
   147
1040
2.0
1070
   172
1070
     1
1070
   173
1070
     1
1070
   176
1070
     4
1070
   177
1070
     4
1070
   178
1070
     4
1070
   271
1070
     0
1070
   272
1070
     2
1070
   341
1005
6D
1070
     6
1000
OPEN
1070
     7
1000
OPEN
1002
}
  0
LINE
  5
5BD5
330
1A
100
AcDbEntity
  8
CENTER L
  6
CENTER
 48
5.0
100
AcDbLine
 10
473.3619466640508
 20
225.1201860168676
 30
0.0
 11
466.0083882851758
 21
243.5040153015535
 31
0.0
  0
LINE
  5
5BD6
330
1A
100
AcDbEntity
  8
SEIHIN
  6
Continuous
100
AcDbLine
 10
477.9866088623151
 20
240.7560864055294
 30
0.0
 11
492.9907895658922
 21
243.6343832995842
 31
0.0
  0
LINE
  5
5BD7
330
1A
100
AcDbEntity
  8
SEIHIN
  6
Continuous
100
AcDbLine
 10
477.9866088623151
 20
240.7560864055294
 30
0.0
 11
480.1406834339185
 21
235.3709250579024
 31
0.0
  0
HATCH
  5
5BD8
330
1A
100
AcDbEntity
  8
SEIHIN
  6
Continuous
 62
     2
100
AcDbHatch
 10
0.0
 20
0.0
 30
0.0
210
0.0
220
0.0
230
1.0
  2
ANSI31
 70
     0
 71
     1
 91
        1
 92
        1
 93
        1
 72
     3
 10
469.6851674746133
 20
234.3121006592106
 11
1.077036328219094
 21
-2.692581056847928
 40
0.8448275862068708
 50
0.0
 51
360.0
 73
     1
 97
        1
330
5BD3
 75
     0
 76
     1
 52
0.0
 41
0.5
 77
     0
 78
     1
 53
45.0
 43
8.921415681521467
 44
-0.9582709265916947
 45
-1.122532015133644
 46
1.122532015133644
 79
     0
 98
        1
 10
8.921415681521467
 20
-0.9582709265916947
  0
LINE
  5
5BD9
330
1A
100
AcDbEntity
  8
SEIHIN
  6
Continuous
100
AcDbLine
 10
492.9907895658922
 20
243.6343832995842
 30
0.0
 11
480.1406834339185
 21
235.3709250579024
 31
0.0
  0
MTEXT
  5
5BDA
330
1A
100
AcDbEntity
  8
SUNPOU
  6
Continuous
100
AcDbMText
 10
587.4101798340721
 20
278.3312620866055
 30
0.0
 40
6.349999666
 41
0.0
 71
     1
 72
     5
  1
{\W1.111111;4}
 73
     1
 44
1.0
  0
LINE
  5
5BDB
330
1A
100
AcDbEntity
  8
SUNPOU
  6
Continuous
100
AcDbLine
 10
581.0945499140721
 20
270.8759862206055
 30
0.0
 11
581.0945499140721
 21
278.8759862206055
 31
0.0
  0
LINE
  5
5BDC
330
1A
100
AcDbEntity
  8
SUNPOU
  6
Continuous
100
AcDbLine
 10
581.0945499140721
 20
278.8759862206055
 30
0.0
 11
561.0945499140721
 21
270.8759862206055
 31
0.0
  0
LINE
  5
5BDD
330
1A
100
AcDbEntity
  8
SUNPOU
  6
Continuous
100
AcDbLine
 10
561.0945499140721
 20
270.8759862206055
 30
0.0
 11
581.0945499140721
 21
270.8759862206055
 31
0.0
  0
MTEXT
  5
5BDE
330
1A
100
AcDbEntity
  8
SUNPOU
  6
Continuous
100
AcDbMText
 10
565.3278830140721
 20
265.9370978866055
 30
0.0
 40
6.349999666
 41
0.0
 71
     1
 72
     5
  1
{\W1.269841;10}
 73
     1
 44
1.0
  0
DIMENSION
  5
5BDF
330
1A
100
AcDbEntity
  8
SUNPOU
  6
Continuous
100
AcDbDimension
  2
*D11
 10
519.2327996743537
 20
386.9285138843321
 30
0.0
 11
514.2327996743536
 21
368.9285138843321
 31
0.0
 70
    32
 71
     5
 42
-1.0
  3
STANDARD
100
AcDbAlignedDimension
 13
472.0636481273162
 23
391.828513884332
 33
0.0
 14
472.0636481273162
 24
386.9285138843321
 34
0.0
 50
90.0
100
AcDbRotatedDimension
1001
ACAD
1000
DSTYLE
1002
{
1070
    41
1040
7.0
1070
    42
1040
6.0
1070
    43
1040
14.0
1070
    44
1040
3.0
1070
    73
1070
     0
1070
    74
1070
     0
1070
    77
1070
     3
1070
   140
1040
6.0
1070
   141
1040
150.0
1070
   147
1040
2.0
1070
   172
1070
     1
1070
   173
1070
     1
1070
   176
1070
     4
1070
   177
1070
     4
1070
   178
1070
     4
1070
   271
1070
     0
1070
   272
1070
     2
1070
   341
1005
6D
1070
     6
1000
OPEN
1070
     7
1000
OPEN
1002
}
  0
LINE
  5
5BE0
330
1A
100
AcDbEntity
  8
SEIHIN
  6
Continuous
100
AcDbLine
 10
472.0636481273162
 20
391.828513884332
 30
0.0
 11
472.0636481273162
 21
386.9285138843321
 31
0.0
  0
LINE
  5
5BE1
330
1A
100
AcDbEntity
  8
SEIHIN
  6
Continuous
100
AcDbLine
 10
492.9907895658922
 20
389.3785138843321
 30
0.0
 11
472.0636481273162
 21
386.9285138843321
 31
0.0
  0
LINE
  5
5BE2
330
1A
100
AcDbEntity
  8
SEIHIN
  6
Continuous
100
AcDbLine
 10
472.0636481273162
 20
391.828513884332
 30
0.0
 11
492.9907895658922
 21
389.3785138843321
 31
0.0
  0
VIEWPORT
  5
22
330
17
100
AcDbEntity
 67
     1
  8
0
100
AcDbViewport
 10
313.6808219178082
 20
286.420032064001
 30
0.0
 40
627.3616438356164
 41
572.840064128002
 68
     2
 69
     1
 12
313.6808219178082
 22
286.420032064001
 13
0.0
 23
0.0
 14
1.0
 24
1.0
 15
10.0
 25
10.0
 16
0.0
 26
0.0
 36
1.0
 17
0.0
 27
0.0
 37
0.0
 42
50.0
 43
0.0
 44
0.0
 45
572.840064128002
 50
0.0
 51
0.0
 72
   100
 90
    32768
  1

281
     0
 71
     1
 74
     0
110
0.0
120
0.0
130
0.0
111
1.0
121
0.0
131
0.0
112
0.0
122
1.0
132
0.0
 79
     0
146
0.0
  0
VIEWPORT
  5
64
330
17
100
AcDbEntity
 67
     1
  8
VIEWPORT
100
AcDbViewport
 10
210.0
 20
148.5
 30
0.0
 40
420.0
 41
297.0
 68
     1
 69
     2
 12
420.0
 22
297.0
 13
0.0
 23
0.0
 14
10.0
 24
10.0
 15
0.0
 25
0.0
 16
0.0
 26
0.0
 36
1.0
 17
0.0
 27
0.0
 37
0.0
 42
50.0
 43
0.0
 44
0.0
 45
605.8799999999999
 50
0.0
 51
0.0
 72
   100
 90
    32768
  1

281
     0
 71
     1
 74
     0
110
0.0
120
0.0
130
0.0
111
1.0
121
0.0
131
0.0
112
0.0
122
1.0
132
0.0
 79
     0
146
0.0
  0
ENDSEC
  0
SECTION
  2
OBJECTS
  0
DICTIONARY
  5
C
330
0
100
AcDbDictionary
281
     1
  3
ACAD_GROUP
350
D
  3
ACAD_LAYOUT
350
A98
  3
ACAD_MLINESTYLE
350
E
  3
ACAD_PLOTSETTINGS
350
A99
  3
ACAD_PLOTSTYLENAME
350
A96
  0
DICTIONARY
  5
D
102
{ACAD_REACTORS
330
C
102
}
330
C
100
AcDbDictionary
281
     1
  3
*A1
350
FA3
  3
*A2
350
1597
  3
*A3
350
179D
  3
*A4
350
3390
  3
*A5
350
3A0A
  0
DICTIONARY
  5
A98
102
{ACAD_REACTORS
330
C
102
}
330
C
100
AcDbDictionary
281
     1
  3
Model
350
A9A
  3
ﾚｲｱｳﾄ1
350
A9B
  0
DICTIONARY
  5
E
102
{ACAD_REACTORS
330
C
102
}
330
C
100
AcDbDictionary
281
     1
  3
STANDARD
350
13
  0
DICTIONARY
  5
A99
102
{ACAD_REACTORS
330
C
102
}
330
C
100
AcDbDictionary
281
     1
  0
ACDBDICTIONARYWDFLT
  5
A96
102
{ACAD_REACTORS
330
C
102
}
330
C
100
AcDbDictionary
281
     1
  3
Normal
350
A97
100
AcDbDictionaryWithDefault
340
A97
1001
ACAD
1000
TREAT_AS_HARD
1070
     0
1000
TREAT_AS_HARD
1070
     0
1000
TREAT_AS_HARD
1070
     0
1000
TREAT_AS_HARD
1070
     0
  0
GROUP
  5
FA3
102
{ACAD_REACTORS
330
D
102
}
330
D
100
AcDbGroup
300

 70
     1
 71
     1
  0
GROUP
  5
1597
102
{ACAD_REACTORS
330
D
102
}
330
D
100
AcDbGroup
300

 70
     1
 71
     1
  0
GROUP
  5
179D
102
{ACAD_REACTORS
330
D
102
}
330
D
100
AcDbGroup
300

 70
     1
 71
     1
  0
GROUP
  5
3390
102
{ACAD_REACTORS
330
D
102
}
330
D
100
AcDbGroup
300

 70
     1
 71
     1
  0
GROUP
  5
3A0A
102
{ACAD_REACTORS
330
D
102
}
330
D
100
AcDbGroup
300

 70
     1
 71
     1
  0
LAYOUT
  5
A9A
102
{ACAD_REACTORS
330
A98
102
}
330
A98
100
AcDbPlotSettings
  1

  2
Adobe PDF
  4
A3
  6

 40
3.174999952316284
 41
3.174999952316284
 42
3.17498779296875
 43
3.17498779296875
 44
297.0318298339844
 45
420.1583251953125
 46
2.67
 47
2.85
 48
-8.09872987394283
 49
-9.441603207410708
140
808.114529312747
141
561.2334822198422
142
1.0
143
2.0
 70
 28340
 72
     1
 73
     1
 74
     4
  7
systemprinter.ctb
 75
    17
147
0.5
148
8.09872987394283
149
9.441603207410708
100
AcDbLayout
  1
Model
 70
     1
 71
     0
 10
0.0
 20
0.0
 11
12.0
 21
9.0
 12
0.0
 22
0.0
 32
0.0
 14
0.0
 24
0.0
 34
0.0
 15
0.0
 25
0.0
 35
0.0
146
0.0
 13
0.0
 23
0.0
 33
0.0
 16
1.0
 26
0.0
 36
0.0
 17
0.0
 27
1.0
 37
0.0
 76
     0
330
1A
  0
LAYOUT
  5
A9B
102
{ACAD_REACTORS
330
A98
102
}
330
A98
100
AcDbPlotSettings
  1

  2
C:\PROGRAM FILES\ACAD LT 2000\plotters\DWF ePlot.pc3
  4
ANSI_A_(8.50_x_11.00_Inches)
  6

 40
5.793749809265137
 41
17.79375076293945
 42
5.793746948242188
 43
17.79376220703125
 44
215.8999938964844
 45
279.3999938964844
 46
0.0
 47
0.0
 48
0.0
 49
0.0
140
0.0
141
0.0
142
1.0
143
43.75760864458461
 70
   688
 72
     0
 73
     1
 74
     1
  7
systemprinter.ctb
 75
     0
147
0.0228531684197454
148
0.3255366854427166
149
0.2302009418498301
100
AcDbLayout
  1
ﾚｲｱｳﾄ1
 70
     1
 71
     1
 10
-30.66685116754002
 20
-9.990190459854741
 11
450.6668334081172
 21
361.9494725043409
 12
0.0
 22
0.0
 32
0.0
 14
-0.0128164049386896
 24
-0.0090630292066862
 34
-0.0015258207003583
 15
420.0128183607162
 25
297.0090644122207
 35
0.0000000349246037
146
0.0
 13
0.0
 23
0.0
 33
0.0
 16
1.0
 26
0.0
 36
0.0
 17
0.0
 27
1.0
 37
0.0
 76
     0
330
17
331
64
  0
MLINESTYLE
  5
13
102
{ACAD_REACTORS
330
E
102
}
330
E
100
AcDbMlineStyle
  2
STANDARD
 70
     0
  3

 62
     0
 51
90.0
 52
90.0
 71
     2
 49
0.5
 62
   256
  6
BYLAYER
 49
-0.5
 62
   256
  6
BYLAYER
  0
ACDBPLACEHOLDER
  5
A97
102
{ACAD_REACTORS
330
A96
102
}
330
A96
  0
ENDSEC
  0
EOF
