  0
SECTION
  2
HEADER
  9
$ACADVER
  1
AC1015
  9
$ACADMAINTVER
 70
     6
  9
$DWGCODEPAGE
  3
ANSI_932
  9
$INSBASE
 10
0.0
 20
0.0
 30
0.0
  9
$EXTMIN
 10
-0.0000004828989404
 20
-0.0000000386436341
 30
0.0
  9
$EXTMAX
 10
398.7999995171011
 20
275.7999999613564
 30
0.0
  9
$LIMMIN
 10
0.0
 20
0.0
  9
$LIMMAX
 10
420.0
 20
297.0
  9
$ORTHOMODE
 70
     1
  9
$REGENMODE
 70
     1
  9
$FILLMODE
 70
     1
  9
$QTEXTMODE
 70
     0
  9
$MIRRTEXT
 70
     1
  9
$LTSCALE
 40
1.0
  9
$ATTMODE
 70
     1
  9
$TEXTSIZE
 40
2.5
  9
$TRACEWID
 40
1.0
  9
$TEXTSTYLE
  7
STANDARD
  9
$CLAYER
  8
SUNPOU
  9
$CELTYPE
  6
BYLAYER
  9
$CECOLOR
 62
   256
  9
$CELTSCALE
 40
1.0
  9
$DISPSILH
 70
     0
  9
$DIMSCALE
 40
1.0
  9
$DIMASZ
 40
3.0
  9
$DIMEXO
 40
3.0
  9
$DIMDLI
 40
7.0
  9
$DIMRND
 40
0.0
  9
$DIMDLE
 40
0.0
  9
$DIMEXE
 40
1.5
  9
$DIMTP
 40
0.0
  9
$DIMTM
 40
0.0
  9
$DIMTXT
 40
3.0
  9
$DIMCEN
 40
150.0
  9
$DIMTSZ
 40
0.0
  9
$DIMTOL
 70
     0
  9
$DIMLIM
 70
     0
  9
$DIMTIH
 70
     0
  9
$DIMTOH
 70
     0
  9
$DIMSE1
 70
     0
  9
$DIMSE2
 70
     0
  9
$DIMTAD
 70
     3
  9
$DIMZIN
 70
     0
  9
$DIMBLK
  1

  9
$DIMASO
 70
     1
  9
$DIMSHO
 70
     1
  9
$DIMPOST
  1

  9
$DIMAPOST
  1

  9
$DIMALT
 70
     0
  9
$DIMALTD
 70
     2
  9
$DIMALTF
 40
25.4
  9
$DIMLFAC
 40
1.0
  9
$DIMTOFL
 70
     1
  9
$DIMTVP
 40
0.0
  9
$DIMTIX
 70
     0
  9
$DIMSOXD
 70
     0
  9
$DIMSAH
 70
     1
  9
$DIMBLK1
  1
OPEN
  9
$DIMBLK2
  1
OPEN
  9
$DIMSTYLE
  2
STANDARD
  9
$DIMCLRD
 70
   256
  9
$DIMCLRE
 70
   256
  9
$DIMCLRT
 70
   256
  9
$DIMTFAC
 40
1.0
  9
$DIMGAP
 40
1.0
  9
$DIMJUST
 70
     0
  9
$DIMSD1
 70
     0
  9
$DIMSD2
 70
     0
  9
$DIMTOLJ
 70
     1
  9
$DIMTZIN
 70
     0
  9
$DIMALTZ
 70
     0
  9
$DIMALTTZ
 70
     0
  9
$DIMUPT
 70
     1
  9
$DIMDEC
 70
     0
  9
$DIMTDEC
 70
     0
  9
$DIMALTU
 70
     2
  9
$DIMALTTD
 70
     2
  9
$DIMTXSTY
  7
STANDARD
  9
$DIMAUNIT
 70
     0
  9
$DIMADEC
 70
     0
  9
$DIMALTRND
 40
0.0
  9
$DIMAZIN
 70
     0
  9
$DIMDSEP
 70
    46
  9
$DIMATFIT
 70
     3
  9
$DIMFRAC
 70
     0
  9
$DIMLDRBLK
  1
OPEN
  9
$DIMLUNIT
 70
     2
  9
$DIMLWD
 70
    -1
  9
$DIMLWE
 70
    -1
  9
$DIMTMOVE
 70
     0
  9
$LUNITS
 70
     2
  9
$LUPREC
 70
     4
  9
$SKETCHINC
 40
1.0
  9
$FILLETRAD
 40
0.6
  9
$AUNITS
 70
     0
  9
$AUPREC
 70
     0
  9
$MENU
  1
.
  9
$ELEVATION
 40
0.0
  9
$PELEVATION
 40
0.0
  9
$THICKNESS
 40
0.0
  9
$LIMCHECK
 70
     0
  9
$CHAMFERA
 40
10.0
  9
$CHAMFERB
 40
10.0
  9
$CHAMFERC
 40
20.0
  9
$CHAMFERD
 40
0.0
  9
$SKPOLY
 70
     0
  9
$TDCREATE
 40
2451100.394552546
  9
$TDUCREATE
 40
2451100.019552546
  9
$TDUPDATE
 40
2455609.402854745
  9
$TDUUPDATE
 40
2455609.027854745
  9
$TDINDWG
 40
0.0972625694
  9
$TDUSRTIMER
 40
0.0972625694
  9
$USRTIMER
 70
     1
  9
$ANGBASE
 50
0.0
  9
$ANGDIR
 70
     0
  9
$PDMODE
 70
     0
  9
$PDSIZE
 40
0.0
  9
$PLINEWID
 40
0.0
  9
$SPLFRAME
 70
     0
  9
$SPLINETYPE
 70
     6
  9
$SPLINESEGS
 70
     8
  9
$HANDSEED
  5
1D0F
  9
$SURFTAB1
 70
     6
  9
$SURFTAB2
 70
     6
  9
$SURFTYPE
 70
     6
  9
$SURFU
 70
     6
  9
$SURFV
 70
     6
  9
$UCSBASE
  2

  9
$UCSNAME
  2

  9
$UCSORG
 10
0.0
 20
0.0
 30
0.0
  9
$UCSXDIR
 10
1.0
 20
0.0
 30
0.0
  9
$UCSYDIR
 10
0.0
 20
1.0
 30
0.0
  9
$UCSORTHOREF
  2

  9
$UCSORTHOVIEW
 70
     0
  9
$UCSORGTOP
 10
0.0
 20
0.0
 30
0.0
  9
$UCSORGBOTTOM
 10
0.0
 20
0.0
 30
0.0
  9
$UCSORGLEFT
 10
0.0
 20
0.0
 30
0.0
  9
$UCSORGRIGHT
 10
0.0
 20
0.0
 30
0.0
  9
$UCSORGFRONT
 10
0.0
 20
0.0
 30
0.0
  9
$UCSORGBACK
 10
0.0
 20
0.0
 30
0.0
  9
$PUCSBASE
  2

  9
$PUCSNAME
  2

  9
$PUCSORG
 10
0.0
 20
0.0
 30
0.0
  9
$PUCSXDIR
 10
1.0
 20
0.0
 30
0.0
  9
$PUCSYDIR
 10
0.0
 20
1.0
 30
0.0
  9
$PUCSORTHOREF
  2

  9
$PUCSORTHOVIEW
 70
     0
  9
$PUCSORGTOP
 10
0.0
 20
0.0
 30
0.0
  9
$PUCSORGBOTTOM
 10
0.0
 20
0.0
 30
0.0
  9
$PUCSORGLEFT
 10
0.0
 20
0.0
 30
0.0
  9
$PUCSORGRIGHT
 10
0.0
 20
0.0
 30
0.0
  9
$PUCSORGFRONT
 10
0.0
 20
0.0
 30
0.0
  9
$PUCSORGBACK
 10
0.0
 20
0.0
 30
0.0
  9
$USERI1
 70
     0
  9
$USERI2
 70
     0
  9
$USERI3
 70
     0
  9
$USERI4
 70
     0
  9
$USERI5
 70
     0
  9
$USERR1
 40
0.0
  9
$USERR2
 40
0.0
  9
$USERR3
 40
0.0
  9
$USERR4
 40
0.0
  9
$USERR5
 40
0.0
  9
$WORLDVIEW
 70
     1
  9
$SHADEDGE
 70
     3
  9
$SHADEDIF
 70
    70
  9
$TILEMODE
 70
     1
  9
$MAXACTVP
 70
    16
  9
$PINSBASE
 10
0.0
 20
0.0
 30
0.0
  9
$PLIMCHECK
 70
     0
  9
$PEXTMIN
 10
0.0
 20
0.0
 30
0.0
  9
$PEXTMAX
 10
420.0
 20
297.0
 30
0.0
  9
$PLIMMIN
 10
0.0
 20
0.0
  9
$PLIMMAX
 10
420.0
 20
297.0
  9
$UNITMODE
 70
     0
  9
$VISRETAIN
 70
     0
  9
$PLINEGEN
 70
     0
  9
$PSLTSCALE
 70
     1
  9
$TREEDEPTH
 70
  3020
  9
$CMLSTYLE
  2
STANDARD
  9
$CMLJUST
 70
     0
  9
$CMLSCALE
 40
1.0
  9
$PROXYGRAPHICS
 70
     1
  9
$MEASUREMENT
 70
     1
  9
$CELWEIGHT
370
    -1
  9
$ENDCAPS
280
     0
  9
$JOINSTYLE
280
     0
  9
$LWDISPLAY
290
     0
  9
$INSUNITS
 70
     0
  9
$HYPERLINKBASE
  1

  9
$STYLESHEET
  1
print.ctb
  9
$XEDIT
290
     1
  9
$CEPSNTYPE
380
     0
  9
$PSTYLEMODE
290
     1
  9
$FINGERPRINTGUID
  2
{137E7082-72B8-11D5-AA3E-50A453C10000}
  9
$VERSIONGUID
  2
{1E7DF616-5E5B-4E80-AE08-D94AB86C5D53}
  9
$EXTNAMES
290
     1
  9
$PSVPSCALE
 40
0.0
  9
$OLESTARTUP
290
     0
  0
ENDSEC
  0
SECTION
  2
CLASSES
  0
CLASS
  1
ACDBDICTIONARYWDFLT
  2
AcDbDictionaryWithDefault
  3
ObjectDBX Classes
 90
        0
280
     0
281
     0
  0
CLASS
  1
ACDBPLACEHOLDER
  2
AcDbPlaceHolder
  3
ObjectDBX Classes
 90
        0
280
     0
281
     0
  0
CLASS
  1
LAYOUT
  2
AcDbLayout
  3
ObjectDBX Classes
 90
        0
280
     0
281
     0
  0
CLASS
  1
DUMMY
  2
AcDbLongTransaction
  3
DUMMY
 90
        0
280
     0
281
     0
  0
CLASS
  1
LWPOLYLINE
  2
AcDbPolyline
  3
AutoCAD 2000
 90
        0
280
     0
281
     1
  0
CLASS
  1
HATCH
  2
AcDbHatch
  3
AutoCAD 2000
 90
        0
280
     0
281
     1
  0
CLASS
  1
XRECORD
  2
AcDbXrecord
  3
AutoCAD 2000
 90
        0
280
     0
281
     0
  0
CLASS
  1
DUMMY
  2
AcDbLongTransaction
  3
DUMMY
 90
        0
280
     0
281
     0
  0
CLASS
  1
LWPOLYLINE
  2
AcDbPolyline
  3
AutoCAD 2000
 90
        0
280
     0
281
     1
  0
CLASS
  1
HATCH
  2
AcDbHatch
  3
AutoCAD 2000
 90
        0
280
     0
281
     1
  0
CLASS
  1
XRECORD
  2
AcDbXrecord
  3
AutoCAD 2000
 90
        0
280
     0
281
     0
  0
CLASS
  1
DUMMY
  2
AcDbLongTransaction
  3
DUMMY
 90
        0
280
     0
281
     0
  0
CLASS
  1
LWPOLYLINE
  2
AcDbPolyline
  3
AutoCAD 2000
 90
        0
280
     0
281
     1
  0
CLASS
  1
HATCH
  2
AcDbHatch
  3
AutoCAD 2000
 90
        0
280
     0
281
     1
  0
CLASS
  1
XRECORD
  2
AcDbXrecord
  3
AutoCAD 2000
 90
        0
280
     0
281
     0
  0
CLASS
  1
DUMMY
  2
AcDbLongTransaction
  3
DUMMY
 90
        0
280
     0
281
     0
  0
CLASS
  1
LWPOLYLINE
  2
AcDbPolyline
  3
AutoCAD 2000
 90
        0
280
     0
281
     1
  0
CLASS
  1
HATCH
  2
AcDbHatch
  3
AutoCAD 2000
 90
        0
280
     0
281
     1
  0
CLASS
  1
XRECORD
  2
AcDbXrecord
  3
AutoCAD 2000
 90
        0
280
     0
281
     0
  0
ENDSEC
  0
SECTION
  2
TABLES
  0
TABLE
  2
VPORT
  5
8
330
0
100
AcDbSymbolTable
 70
     2
  0
VPORT
  5
1D0E
330
8
100
AcDbSymbolTableRecord
100
AcDbViewportTableRecord
  2
*Active
 70
     0
 10
0.0
 20
0.0
 11
1.0
 21
1.0
 12
207.2214526828675
 22
147.1155291519928
 13
0.0
 23
0.0
 14
5.0
 24
5.0
 15
0.0
 25
0.0
 16
0.0
 26
0.0
 36
1.0
 17
0.0
 27
0.0
 37
0.0
 40
318.70302269915
 41
1.651537335285505
 42
50.0
 43
0.0
 44
0.0
 50
0.0
 51
0.0
 71
     0
 72
   100
 73
     1
 74
     0
 75
     0
 76
     0
 77
     0
 78
     0
281
     0
 65
     1
110
0.0
120
0.0
130
0.0
111
1.0
121
0.0
131
0.0
112
0.0
122
1.0
132
0.0
 79
     0
146
0.0
  0
ENDTAB
  0
TABLE
  2
LTYPE
  5
5
330
0
100
AcDbSymbolTable
 70
     3
  0
LTYPE
  5
14
330
5
100
AcDbSymbolTableRecord
100
AcDbLinetypeTableRecord
  2
BYBLOCK
 70
     0
  3

 72
    65
 73
     0
 40
0.0
  0
LTYPE
  5
15
330
5
100
AcDbSymbolTableRecord
100
AcDbLinetypeTableRecord
  2
BYLAYER
 70
     0
  3

 72
    65
 73
     0
 40
0.0
  0
LTYPE
  5
16
330
5
100
AcDbSymbolTableRecord
100
AcDbLinetypeTableRecord
  2
CONTINUOUS
 70
     0
  3
Solid line
 72
    65
 73
     0
 40
0.0
  0
LTYPE
  5
120
330
5
100
AcDbSymbolTableRecord
100
AcDbLinetypeTableRecord
  2
CENTER
 70
     0
  3
____ _ ____ _ ____ _ ____ _ ____ _ ____ _ ____ 
 72
    65
 73
     4
 40
2.0
 49
1.25
 74
     0
 49
-0.25
 74
     0
 49
0.25
 74
     0
 49
-0.25
 74
     0
  0
LTYPE
  5
E98
330
5
100
AcDbSymbolTableRecord
100
AcDbLinetypeTableRecord
  2
DASHED
 70
     0
  3
__ __ __ __ __ __ __ __ __ __ __ __ __ __ __ __
 72
    65
 73
     2
 40
0.75
 49
0.5
 74
     0
 49
-0.25
 74
     0
  0
ENDTAB
  0
TABLE
  2
LAYER
  5
2
330
0
100
AcDbSymbolTable
 70
     8
  0
LAYER
  5
F
330
2
100
AcDbSymbolTableRecord
100
AcDbLayerTableRecord
  2
0
 70
     0
 62
     7
  6
CONTINUOUS
370
    -3
390
623
  0
LAYER
  5
62
330
2
100
AcDbSymbolTableRecord
100
AcDbLayerTableRecord
  2
VIEWPORT
 70
     0
 62
     7
  6
CONTINUOUS
370
    -3
390
623
  0
LAYER
  5
6B
330
2
100
AcDbSymbolTableRecord
100
AcDbLayerTableRecord
  2
ZUWAKU
 70
     0
 62
     7
  6
CONTINUOUS
370
    -3
390
623
  0
LAYER
  5
1F2
330
2
100
AcDbSymbolTableRecord
100
AcDbLayerTableRecord
  2
SEIHIN
 70
     0
 62
     3
  6
CONTINUOUS
370
    -3
390
623
  0
LAYER
  5
1F3
330
2
100
AcDbSymbolTableRecord
100
AcDbLayerTableRecord
  2
SUNPOU
 70
     0
 62
     4
  6
CONTINUOUS
370
    -3
390
623
  0
LAYER
  5
1F4
330
2
100
AcDbSymbolTableRecord
100
AcDbLayerTableRecord
  2
CENTER L
 70
     0
 62
     1
  6
CENTER
370
    -3
390
623
  0
LAYER
  5
1F5
330
2
100
AcDbSymbolTableRecord
100
AcDbLayerTableRecord
  2
DEFPOINTS
 70
     0
 62
     7
  6
CONTINUOUS
290
     0
370
    -3
390
623
  0
LAYER
  5
A03
330
2
100
AcDbSymbolTableRecord
100
AcDbLayerTableRecord
  2
moji
 70
     0
 62
     2
  6
CONTINUOUS
370
    -3
390
623
  0
ENDTAB
  0
TABLE
  2
STYLE
  5
3
330
0
100
AcDbSymbolTable
 70
     2
  0
STYLE
  5
10
330
3
100
AcDbSymbolTableRecord
100
AcDbTextStyleTableRecord
  2
STANDARD
 70
     0
 40
0.0
 41
1.0
 50
0.0
 71
     0
 42
2.5
  3
TXT
  4
bigfont.shx
  0
STYLE
  5
A04
330
3
100
AcDbSymbolTableRecord
100
AcDbTextStyleTableRecord
  2
ｽﾀｲﾙ1
 70
     0
 40
0.0
 41
1.0
 50
0.0
 71
     0
 42
2.5
  3
MS PGothic.ttf
  4

1001
ACAD
1000
MS PGothic
1071
    32818
  0
ENDTAB
  0
TABLE
  2
VIEW
  5
6
330
0
100
AcDbSymbolTable
 70
     0
  0
ENDTAB
  0
TABLE
  2
UCS
  5
7
330
0
100
AcDbSymbolTable
 70
     0
  0
ENDTAB
  0
TABLE
  2
APPID
  5
9
330
0
100
AcDbSymbolTable
 70
     1
  0
APPID
  5
11
330
9
100
AcDbSymbolTableRecord
100
AcDbRegAppTableRecord
  2
ACAD
 70
     0
  0
ENDTAB
  0
TABLE
  2
DIMSTYLE
  5
A
330
0
100
AcDbSymbolTable
 70
     1
100
AcDbDimStyleTable
  0
DIMSTYLE
105
1D
102
{ACAD_REACTORS
330
1A1B
330
1A1C
330
1A1F
330
1A23
330
1A24
330
1A25
330
1A27
330
1AD2
330
1B65
330
1B76
330
1B7B
330
1B7D
330
1B7E
330
1B85
330
1B86
102
}
330
A
100
AcDbSymbolTableRecord
100
AcDbDimStyleTableRecord
  2
STANDARD
 70
     0
340
10
  0
ENDTAB
  0
TABLE
  2
BLOCK_RECORD
  5
1
330
0
100
AcDbSymbolTable
 70
    16
  0
BLOCK_RECORD
  5
1A
330
1
100
AcDbSymbolTableRecord
100
AcDbBlockTableRecord
  2
*MODEL_SPACE
340
626
  0
BLOCK_RECORD
  5
17
330
1
100
AcDbSymbolTableRecord
100
AcDbBlockTableRecord
  2
*PAPER_SPACE
340
627
  0
BLOCK_RECORD
  5
B2
330
1
100
AcDbSymbolTableRecord
100
AcDbBlockTableRecord
  2
_OPEN
340
0
102
{BLKREFS
331
1C80
331
1C81
331
1C89
331
1C8A
331
1C92
331
1C93
331
1C9B
331
1C9C
331
1CA4
331
1CA5
331
1CAD
331
1CAE
331
1CB6
331
1CB7
331
1CBF
331
1CC0
331
1CC8
331
1CC9
331
1CD3
331
1CD4
331
1CDC
331
1CDD
331
1CE5
331
1CE6
331
1CF0
331
1CF1
331
1CF9
331
1CFA
331
1D02
331
1D03
331
1B93
331
1BB5
102
}
  0
BLOCK_RECORD
  5
1BC5
330
1
100
AcDbSymbolTableRecord
100
AcDbBlockTableRecord
  2
*D1
340
0
  0
BLOCK_RECORD
  5
1BD1
330
1
100
AcDbSymbolTableRecord
100
AcDbBlockTableRecord
  2
*D2
340
0
  0
BLOCK_RECORD
  5
1BDD
330
1
100
AcDbSymbolTableRecord
100
AcDbBlockTableRecord
  2
*D3
340
0
  0
BLOCK_RECORD
  5
1BE9
330
1
100
AcDbSymbolTableRecord
100
AcDbBlockTableRecord
  2
*D4
340
0
  0
BLOCK_RECORD
  5
1BF5
330
1
100
AcDbSymbolTableRecord
100
AcDbBlockTableRecord
  2
*D5
340
0
  0
BLOCK_RECORD
  5
1C01
330
1
100
AcDbSymbolTableRecord
100
AcDbBlockTableRecord
  2
*D6
340
0
  0
BLOCK_RECORD
  5
1C0D
330
1
100
AcDbSymbolTableRecord
100
AcDbBlockTableRecord
  2
*D7
340
0
  0
BLOCK_RECORD
  5
1C19
330
1
100
AcDbSymbolTableRecord
100
AcDbBlockTableRecord
  2
*D8
340
0
  0
BLOCK_RECORD
  5
1C25
330
1
100
AcDbSymbolTableRecord
100
AcDbBlockTableRecord
  2
*D9
340
0
  0
BLOCK_RECORD
  5
1C31
330
1
100
AcDbSymbolTableRecord
100
AcDbBlockTableRecord
  2
*D10
340
0
  0
BLOCK_RECORD
  5
1C3F
330
1
100
AcDbSymbolTableRecord
100
AcDbBlockTableRecord
  2
*D11
340
0
  0
BLOCK_RECORD
  5
1C4B
330
1
100
AcDbSymbolTableRecord
100
AcDbBlockTableRecord
  2
*D12
340
0
  0
BLOCK_RECORD
  5
1C57
330
1
100
AcDbSymbolTableRecord
100
AcDbBlockTableRecord
  2
*D13
340
0
  0
BLOCK_RECORD
  5
1C65
330
1
100
AcDbSymbolTableRecord
100
AcDbBlockTableRecord
  2
*D14
340
0
  0
BLOCK_RECORD
  5
1C71
330
1
100
AcDbSymbolTableRecord
100
AcDbBlockTableRecord
  2
*D15
340
0
  0
ENDTAB
  0
ENDSEC
  0
SECTION
  2
BLOCKS
  0
BLOCK
  5
1B
330
1A
100
AcDbEntity
  8
0
100
AcDbBlockBegin
  2
*MODEL_SPACE
 70
     0
 71
     0
 10
0.0
 20
0.0
 30
0.0
  3
*MODEL_SPACE
  1

  0
ENDBLK
  5
1C
330
1A
100
AcDbEntity
  8
0
100
AcDbBlockEnd
  0
BLOCK
  5
18
330
17
100
AcDbEntity
 67
     1
  8
0
100
AcDbBlockBegin
  2
*PAPER_SPACE
 70
     0
 71
     0
 10
0.0
 20
0.0
 30
0.0
  3
*PAPER_SPACE
  1

  0
ENDBLK
  5
19
330
17
100
AcDbEntity
 67
     1
  8
0
100
AcDbBlockEnd
  0
BLOCK
  5
B3
330
B2
100
AcDbEntity
  8
0
100
AcDbBlockBegin
  2
_OPEN
 70
     0
 71
     0
 10
0.0
 20
0.0
 30
0.0
  3
_OPEN
  1

  0
LINE
  5
B4
330
B2
100
AcDbEntity
  8
0
  6
ByBlock
 62
     0
100
AcDbLine
 10
-1.0
 20
0.1666666666666667
 30
0.0
 11
0.0
 21
0.0
 31
0.0
  0
LINE
  5
B5
330
B2
100
AcDbEntity
  8
0
  6
ByBlock
 62
     0
100
AcDbLine
 10
0.0
 20
0.0
 30
0.0
 11
-1.0
 21
-0.1666666666666667
 31
0.0
  0
LINE
  5
B6
330
B2
100
AcDbEntity
  8
0
  6
ByBlock
 62
     0
100
AcDbLine
 10
0.0
 20
0.0
 30
0.0
 11
-1.0
 21
0.0
 31
0.0
  0
ENDBLK
  5
B7
330
B2
100
AcDbEntity
  8
0
100
AcDbBlockEnd
  0
BLOCK
  5
1BCF
330
1BC5
100
AcDbEntity
  8
0
100
AcDbBlockBegin
  2
*D1
 70
     1
 71
     0
 10
0.0
 20
0.0
 30
0.0
  3
*D1
  1

  0
LINE
  5
1C7D
330
1BC5
100
AcDbEntity
  8
SUNPOU
370
    -2
100
AcDbLine
 10
189.8873405242867
 20
132.0506831478508
 30
0.0
 11
202.4316344912087
 21
137.0684007349948
 31
0.0
  0
LINE
  5
1C7E
330
1BC5
100
AcDbEntity
  8
SUNPOU
370
    -2
100
AcDbLine
 10
209.1996556943548
 20
83.7698952262917
 30
0.0
 11
221.7439496612768
 21
88.7876128134358
 31
0.0
  0
LINE
  5
1C7F
330
1BC5
100
AcDbEntity
  8
SUNPOU
370
    -2
100
AcDbLine
 10
202.1530914840293
 20
133.7258846478007
 30
0.0
 11
219.2370625958291
 21
91.01595687149576
 31
0.0
  0
INSERT
  5
1C80
330
1BC5
100
AcDbEntity
  8
SUNPOU
370
    -2
100
AcDbBlockReference
  2
_OPEN
 10
201.0389194548952
 20
136.5113147204278
 30
0.0
 41
3.0
 42
3.0
 43
3.0
 50
111.8014094878296
  0
INSERT
  5
1C81
330
1BC5
100
AcDbEntity
  8
SUNPOU
370
    -2
100
AcDbBlockReference
  2
_OPEN
 10
220.3512346249633
 20
88.23052679886872
 30
0.0
 41
3.0
 42
3.0
 43
3.0
 50
291.8014094878296
  0
MTEXT
  5
1C82
330
1BC5
100
AcDbEntity
  8
SUNPOU
100
AcDbMText
 10
213.0162687671184
 20
113.2993974505934
 30
0.0
 40
3.0
 41
0.0
 71
     5
 72
     1
  1
\A1;52
 11
0.3713906763780509
 21
-0.9284766908756804
 31
0.0
 73
     1
 44
1.0
  0
POINT
  5
1C83
330
1BC5
100
AcDbEntity
  8
DEFPOINTS
 62
     0
100
AcDbPoint
 10
187.1019104516597
 20
130.9365111187166
 30
0.0
  0
POINT
  5
1C84
330
1BC5
100
AcDbEntity
  8
DEFPOINTS
 62
     0
100
AcDbPoint
 10
206.4142256217278
 20
82.65572319715754
 30
0.0
  0
POINT
  5
1C85
330
1BC5
100
AcDbEntity
  8
DEFPOINTS
 62
     0
100
AcDbPoint
 10
220.3512346249633
 20
88.23052679886872
 30
0.0
  0
ENDBLK
  5
1BD0
330
1BC5
100
AcDbEntity
  8
0
100
AcDbBlockEnd
  0
BLOCK
  5
1BDB
330
1BD1
100
AcDbEntity
  8
0
100
AcDbBlockBegin
  2
*D2
 70
     1
 71
     0
 10
0.0
 20
0.0
 30
0.0
  3
*D2
  1

  0
LINE
  5
1C86
330
1BD1
100
AcDbEntity
  8
SUNPOU
370
    -2
100
AcDbLine
 10
195.8295913453548
 20
117.1950560962917
 30
0.0
 11
200.9362131450274
 21
119.2377048163135
 31
0.0
  0
LINE
  5
1C87
330
1BD1
100
AcDbEntity
  8
SUNPOU
370
    -2
100
AcDbLine
 10
209.1996556943548
 20
83.7698952262917
 30
0.0
 11
214.3062774940274
 21
85.8125439463135
 31
0.0
  0
LINE
  5
1C88
330
1BD1
100
AcDbEntity
  8
SUNPOU
370
    -2
100
AcDbLine
 10
200.657670137848
 20
115.8951887291194
 30
0.0
 11
211.7993904285797
 21
88.04088800437347
 31
0.0
  0
INSERT
  5
1C89
330
1BD1
100
AcDbEntity
  8
SUNPOU
370
    -2
100
AcDbBlockReference
  2
_OPEN
 10
199.5434981087138
 20
118.6806188017465
 30
0.0
 41
3.0
 42
3.0
 43
3.0
 50
111.8014094878295
  0
INSERT
  5
1C8A
330
1BD1
100
AcDbEntity
  8
SUNPOU
370
    -2
100
AcDbBlockReference
  2
_OPEN
 10
212.9135624577139
 20
85.25545793174642
 30
0.0
 41
3.0
 42
3.0
 43
3.0
 50
291.8014094878295
  0
MTEXT
  5
1C8B
330
1BD1
100
AcDbEntity
  8
SUNPOU
100
AcDbMText
 10
208.549722010403
 20
102.8965150576916
 30
0.0
 40
3.0
 41
0.0
 71
     5
 72
     1
  1
\A1;36
 11
0.3713906763780505
 21
-0.9284766908756806
 31
0.0
 73
     1
 44
1.0
  0
POINT
  5
1C8C
330
1BD1
100
AcDbEntity
  8
DEFPOINTS
 62
     0
100
AcDbPoint
 10
193.0441612727278
 20
116.0808840671576
 30
0.0
  0
POINT
  5
1C8D
330
1BD1
100
AcDbEntity
  8
DEFPOINTS
 62
     0
100
AcDbPoint
 10
206.4142256217278
 20
82.65572319715754
 30
0.0
  0
POINT
  5
1C8E
330
1BD1
100
AcDbEntity
  8
DEFPOINTS
 62
     0
100
AcDbPoint
 10
212.9135624577139
 20
85.25545793174642
 30
0.0
  0
ENDBLK
  5
1BDC
330
1BD1
100
AcDbEntity
  8
0
100
AcDbBlockEnd
  0
BLOCK
  5
1BE7
330
1BDD
100
AcDbEntity
  8
0
100
AcDbBlockBegin
  2
*D3
 70
     1
 71
     0
 10
0.0
 20
0.0
 30
0.0
  3
*D3
  1

  0
LINE
  5
1C8F
330
1BDD
100
AcDbEntity
  8
SUNPOU
370
    -2
100
AcDbLine
 10
189.2845342287165
 20
128.4799516859828
 30
0.0
 11
189.2845342287165
 21
151.3707080137974
 31
0.0
  0
LINE
  5
1C90
330
1BDD
100
AcDbEntity
  8
SUNPOU
370
    -2
100
AcDbLine
 10
224.2845342287165
 20
128.4799516859828
 30
0.0
 11
224.2845342287165
 21
151.3707080137974
 31
0.0
  0
LINE
  5
1C91
330
1BDD
100
AcDbEntity
  8
SUNPOU
370
    -2
100
AcDbLine
 10
192.2845342287165
 20
149.8707080137974
 30
0.0
 11
221.2845342287165
 21
149.8707080137974
 31
0.0
  0
INSERT
  5
1C92
330
1BDD
100
AcDbEntity
  8
SUNPOU
370
    -2
100
AcDbBlockReference
  2
_OPEN
 10
189.2845342287165
 20
149.8707080137974
 30
0.0
 41
3.0
 42
3.0
 43
3.0
 50
180.0
  0
INSERT
  5
1C93
330
1BDD
100
AcDbEntity
  8
SUNPOU
370
    -2
100
AcDbBlockReference
  2
_OPEN
 10
224.2845342287165
 20
149.8707080137974
 30
0.0
 41
3.0
 42
3.0
 43
3.0
  0
MTEXT
  5
1C94
330
1BDD
100
AcDbEntity
  8
SUNPOU
100
AcDbMText
 10
206.7845342287165
 20
152.3707080137974
 30
0.0
 40
3.0
 41
0.0
 71
     5
 72
     1
  1
\A1;35
 73
     1
 44
1.0
  0
POINT
  5
1C95
330
1BDD
100
AcDbEntity
  8
DEFPOINTS
 62
     0
100
AcDbPoint
 10
189.2845342287165
 20
125.4799516859828
 30
0.0
  0
POINT
  5
1C96
330
1BDD
100
AcDbEntity
  8
DEFPOINTS
 62
     0
100
AcDbPoint
 10
224.2845342287165
 20
125.4799516859828
 30
0.0
  0
POINT
  5
1C97
330
1BDD
100
AcDbEntity
  8
DEFPOINTS
 62
     0
100
AcDbPoint
 10
224.2845342287165
 20
149.8707080137974
 30
0.0
  0
ENDBLK
  5
1BE8
330
1BDD
100
AcDbEntity
  8
0
100
AcDbBlockEnd
  0
BLOCK
  5
1BF3
330
1BE9
100
AcDbEntity
  8
0
100
AcDbBlockBegin
  2
*D4
 70
     1
 71
     0
 10
0.0
 20
0.0
 30
0.0
  3
*D4
  1

  0
LINE
  5
1C98
330
1BE9
100
AcDbEntity
  8
SUNPOU
370
    -2
100
AcDbLine
 10
206.4142260617279
 20
232.7528839043631
 30
0.0
 11
226.3458562553886
 21
232.7528839043631
 31
0.0
  0
LINE
  5
1C99
330
1BE9
100
AcDbEntity
  8
SUNPOU
370
    -2
100
AcDbLine
 10
206.4142260617279
 20
179.752883864363
 30
0.0
 11
226.3458562553886
 21
179.752883864363
 31
0.0
  0
LINE
  5
1C9A
330
1BE9
100
AcDbEntity
  8
SUNPOU
370
    -2
100
AcDbLine
 10
224.8458562553886
 20
229.7528839043631
 30
0.0
 11
224.8458562553886
 21
182.752883864363
 31
0.0
  0
INSERT
  5
1C9B
330
1BE9
100
AcDbEntity
  8
SUNPOU
370
    -2
100
AcDbBlockReference
  2
_OPEN
 10
224.8458562553886
 20
232.7528839043631
 30
0.0
 41
3.0
 42
3.0
 43
3.0
 50
90.0
  0
INSERT
  5
1C9C
330
1BE9
100
AcDbEntity
  8
SUNPOU
370
    -2
100
AcDbBlockReference
  2
_OPEN
 10
224.8458562553886
 20
179.752883864363
 30
0.0
 41
3.0
 42
3.0
 43
3.0
 50
270.0
  0
MTEXT
  5
1C9D
330
1BE9
100
AcDbEntity
  8
SUNPOU
100
AcDbMText
 10
222.3458562553886
 20
206.2528838843631
 30
0.0
 40
3.0
 41
0.0
 71
     5
 72
     1
  1
\A1;53
 11
6.123031769111886E-17
 21
1.0
 31
0.0
 73
     1
 44
1.0
  0
POINT
  5
1C9E
330
1BE9
100
AcDbEntity
  8
DEFPOINTS
 62
     0
100
AcDbPoint
 10
203.4142260617279
 20
232.7528839043631
 30
0.0
  0
POINT
  5
1C9F
330
1BE9
100
AcDbEntity
  8
DEFPOINTS
 62
     0
100
AcDbPoint
 10
203.4142260617279
 20
179.752883864363
 30
0.0
  0
POINT
  5
1CA0
330
1BE9
100
AcDbEntity
  8
DEFPOINTS
 62
     0
100
AcDbPoint
 10
224.8458562553886
 20
179.752883864363
 30
0.0
  0
ENDBLK
  5
1BF4
330
1BE9
100
AcDbEntity
  8
0
100
AcDbBlockEnd
  0
BLOCK
  5
1BFF
330
1BF5
100
AcDbEntity
  8
0
100
AcDbBlockBegin
  2
*D5
 70
     1
 71
     0
 10
0.0
 20
0.0
 30
0.0
  3
*D5
  1

  0
LINE
  5
1CA1
330
1BF5
100
AcDbEntity
  8
SUNPOU
370
    -2
100
AcDbLine
 10
55.79528868872771
 20
108.1236327871575
 30
0.0
 11
55.79528868872771
 21
151.3707080137974
 31
0.0
  0
LINE
  5
1CA2
330
1BF5
100
AcDbEntity
  8
SUNPOU
370
    -2
100
AcDbLine
 10
189.2845342287165
 20
128.4799516859828
 30
0.0
 11
189.2845342287165
 21
151.3707080137974
 31
0.0
  0
LINE
  5
1CA3
330
1BF5
100
AcDbEntity
  8
SUNPOU
370
    -2
100
AcDbLine
 10
58.79528868872771
 20
149.8707080137974
 30
0.0
 11
186.2845342287165
 21
149.8707080137974
 31
0.0
  0
INSERT
  5
1CA4
330
1BF5
100
AcDbEntity
  8
SUNPOU
370
    -2
100
AcDbBlockReference
  2
_OPEN
 10
55.79528868872771
 20
149.8707080137974
 30
0.0
 41
3.0
 42
3.0
 43
3.0
 50
180.0
  0
INSERT
  5
1CA5
330
1BF5
100
AcDbEntity
  8
SUNPOU
370
    -2
100
AcDbBlockReference
  2
_OPEN
 10
189.2845342287165
 20
149.8707080137974
 30
0.0
 41
3.0
 42
3.0
 43
3.0
  0
MTEXT
  5
1CA6
330
1BF5
100
AcDbEntity
  8
SUNPOU
100
AcDbMText
 10
122.5399114587221
 20
152.3707080137974
 30
0.0
 40
3.0
 41
0.0
 71
     5
 72
     1
  1
\A1;133
 73
     1
 44
1.0
  0
POINT
  5
1CA7
330
1BF5
100
AcDbEntity
  8
DEFPOINTS
 62
     0
100
AcDbPoint
 10
55.79528868872771
 20
105.1236327871575
 30
0.0
  0
POINT
  5
1CA8
330
1BF5
100
AcDbEntity
  8
DEFPOINTS
 62
     0
100
AcDbPoint
 10
189.2845342287165
 20
125.4799516859828
 30
0.0
  0
POINT
  5
1CA9
330
1BF5
100
AcDbEntity
  8
DEFPOINTS
 62
     0
100
AcDbPoint
 10
189.2845342287165
 20
149.8707080137974
 30
0.0
  0
ENDBLK
  5
1C00
330
1BF5
100
AcDbEntity
  8
0
100
AcDbBlockEnd
  0
BLOCK
  5
1C0B
330
1C01
100
AcDbEntity
  8
0
100
AcDbBlockBegin
  2
*D6
 70
     1
 71
     0
 10
0.0
 20
0.0
 30
0.0
  3
*D6
  1

  0
LINE
  5
1CAA
330
1C01
100
AcDbEntity
  8
SUNPOU
370
    -2
100
AcDbLine
 10
178.7952886887279
 20
92.42363278715754
 30
0.0
 11
178.7952886887279
 21
139.4375664017534
 31
0.0
  0
LINE
  5
1CAB
330
1C01
100
AcDbEntity
  8
SUNPOU
370
    -2
100
AcDbLine
 10
189.2845342287165
 20
128.4799516859828
 30
0.0
 11
189.2845342287165
 21
139.4375664017534
 31
0.0
  0
LINE
  5
1CAC
330
1C01
100
AcDbEntity
  8
SUNPOU
370
    -2
100
AcDbLine
 10
181.7952886887279
 20
137.9375664017534
 30
0.0
 11
186.2845342287165
 21
137.9375664017534
 31
0.0
  0
INSERT
  5
1CAD
330
1C01
100
AcDbEntity
  8
SUNPOU
370
    -2
100
AcDbBlockReference
  2
_OPEN
 10
178.7952886887279
 20
137.9375664017534
 30
0.0
 41
3.0
 42
3.0
 43
3.0
 50
180.0
  0
INSERT
  5
1CAE
330
1C01
100
AcDbEntity
  8
SUNPOU
370
    -2
100
AcDbBlockReference
  2
_OPEN
 10
189.2845342287165
 20
137.9375664017534
 30
0.0
 41
3.0
 42
3.0
 43
3.0
  0
MTEXT
  5
1CAF
330
1C01
100
AcDbEntity
  8
SUNPOU
100
AcDbMText
 10
184.0399114587222
 20
140.4375664017534
 30
0.0
 40
3.0
 41
0.0
 71
     5
 72
     1
  1
\A1;10
 73
     1
 44
1.0
  0
POINT
  5
1CB0
330
1C01
100
AcDbEntity
  8
DEFPOINTS
 62
     0
100
AcDbPoint
 10
178.7952886887279
 20
89.42363278715754
 30
0.0
  0
POINT
  5
1CB1
330
1C01
100
AcDbEntity
  8
DEFPOINTS
 62
     0
100
AcDbPoint
 10
189.2845342287165
 20
125.4799516859828
 30
0.0
  0
POINT
  5
1CB2
330
1C01
100
AcDbEntity
  8
DEFPOINTS
 62
     0
100
AcDbPoint
 10
189.2845342287165
 20
137.9375664017534
 30
0.0
  0
ENDBLK
  5
1C0C
330
1C01
100
AcDbEntity
  8
0
100
AcDbBlockEnd
  0
BLOCK
  5
1C17
330
1C0D
100
AcDbEntity
  8
0
100
AcDbBlockBegin
  2
*D7
 70
     1
 71
     0
 10
0.0
 20
0.0
 30
0.0
  3
*D7
  1

  0
LINE
  5
1CB3
330
1C0D
100
AcDbEntity
  8
SUNPOU
370
    -2
100
AcDbLine
 10
54.29528868872779
 20
107.1236327871575
 30
0.0
 11
32.2378053425534
 21
107.1236327871575
 31
0.0
  0
LINE
  5
1CB4
330
1C0D
100
AcDbEntity
  8
SUNPOU
370
    -2
100
AcDbLine
 10
203.4142256217278
 20
82.65572319715756
 30
0.0
 11
32.23780534255339
 21
82.6557231971576
 31
0.0
  0
LINE
  5
1CB5
330
1C0D
100
AcDbEntity
  8
SUNPOU
370
    -2
100
AcDbLine
 10
33.7378053425534
 20
104.1236327871575
 30
0.0
 11
33.7378053425534
 21
85.6557231971576
 31
0.0
  0
INSERT
  5
1CB6
330
1C0D
100
AcDbEntity
  8
SUNPOU
370
    -2
100
AcDbBlockReference
  2
_OPEN
 10
33.7378053425534
 20
107.1236327871575
 30
0.0
 41
3.0
 42
3.0
 43
3.0
 50
90.0
  0
INSERT
  5
1CB7
330
1C0D
100
AcDbEntity
  8
SUNPOU
370
    -2
100
AcDbBlockReference
  2
_OPEN
 10
33.7378053425534
 20
82.6557231971576
 30
0.0
 41
3.0
 42
3.0
 43
3.0
 50
270.0
  0
MTEXT
  5
1CB8
330
1C0D
100
AcDbEntity
  8
SUNPOU
100
AcDbMText
 10
31.23780534255339
 20
94.88967799215757
 30
0.0
 40
3.0
 41
0.0
 71
     5
 72
     1
  1
\A1;24
 11
6.123031769111886E-17
 21
1.0
 31
0.0
 73
     1
 44
1.0
  0
POINT
  5
1CB9
330
1C0D
100
AcDbEntity
  8
DEFPOINTS
 62
     0
100
AcDbPoint
 10
57.29528868872779
 20
107.1236327871575
 30
0.0
  0
POINT
  5
1CBA
330
1C0D
100
AcDbEntity
  8
DEFPOINTS
 62
     0
100
AcDbPoint
 10
206.4142256217278
 20
82.65572319715756
 30
0.0
  0
POINT
  5
1CBB
330
1C0D
100
AcDbEntity
  8
DEFPOINTS
 62
     0
100
AcDbPoint
 10
33.7378053425534
 20
82.6557231971576
 30
0.0
  0
ENDBLK
  5
1C18
330
1C0D
100
AcDbEntity
  8
0
100
AcDbBlockEnd
  0
BLOCK
  5
1C23
330
1C19
100
AcDbEntity
  8
0
100
AcDbBlockBegin
  2
*D8
 70
     1
 71
     0
 10
0.0
 20
0.0
 30
0.0
  3
*D8
  1

  0
LINE
  5
1CBC
330
1C19
100
AcDbEntity
  8
SUNPOU
370
    -2
100
AcDbLine
 10
52.79528868872782
 20
217.2528834943631
 30
0.0
 11
32.23780534255344
 21
217.2528834943631
 31
0.0
  0
LINE
  5
1CBD
330
1C19
100
AcDbEntity
  8
SUNPOU
370
    -2
100
AcDbLine
 10
52.79528868872777
 20
195.2528834943631
 30
0.0
 11
32.23780534255343
 21
195.2528834943631
 31
0.0
  0
LINE
  5
1CBE
330
1C19
100
AcDbEntity
  8
SUNPOU
370
    -2
100
AcDbLine
 10
33.73780534255344
 20
214.2528834943631
 30
0.0
 11
33.73780534255343
 21
198.2528834943631
 31
0.0
  0
INSERT
  5
1CBF
330
1C19
100
AcDbEntity
  8
SUNPOU
370
    -2
100
AcDbBlockReference
  2
_OPEN
 10
33.73780534255344
 20
217.2528834943631
 30
0.0
 41
3.0
 42
3.0
 43
3.0
 50
90.0
  0
INSERT
  5
1CC0
330
1C19
100
AcDbEntity
  8
SUNPOU
370
    -2
100
AcDbBlockReference
  2
_OPEN
 10
33.73780534255343
 20
195.2528834943631
 30
0.0
 41
3.0
 42
3.0
 43
3.0
 50
270.0
  0
MTEXT
  5
1CC1
330
1C19
100
AcDbEntity
  8
SUNPOU
100
AcDbMText
 10
31.2378053425534
 20
206.2528834943631
 30
0.0
 40
3.0
 41
0.0
 71
     5
 72
     1
  1
\A1;22
 11
6.123031769111886E-17
 21
1.0
 31
0.0
 73
     1
 44
1.0
  0
POINT
  5
1CC2
330
1C19
100
AcDbEntity
  8
DEFPOINTS
 62
     0
100
AcDbPoint
 10
55.79528868872782
 20
217.2528834943631
 30
0.0
  0
POINT
  5
1CC3
330
1C19
100
AcDbEntity
  8
DEFPOINTS
 62
     0
100
AcDbPoint
 10
55.79528868872777
 20
195.2528834943631
 30
0.0
  0
POINT
  5
1CC4
330
1C19
100
AcDbEntity
  8
DEFPOINTS
 62
     0
100
AcDbPoint
 10
33.73780534255343
 20
195.2528834943631
 30
0.0
  0
ENDBLK
  5
1C24
330
1C19
100
AcDbEntity
  8
0
100
AcDbBlockEnd
  0
BLOCK
  5
1C2F
330
1C25
100
AcDbEntity
  8
0
100
AcDbBlockBegin
  2
*D9
 70
     1
 71
     0
 10
0.0
 20
0.0
 30
0.0
  3
*D9
  1

  0
LINE
  5
1CC5
330
1C25
100
AcDbEntity
  8
SUNPOU
370
    -2
100
AcDbLine
 10
285.374120111655
 20
153.0128672402392
 30
0.0
 11
258.9372741808505
 21
142.4381285929932
 31
0.0
  0
LINE
  5
1CC6
330
1C25
100
AcDbEntity
  8
SUNPOU
370
    -2
100
AcDbLine
 10
298.7441847600543
 20
119.5877064882305
 30
0.0
 11
272.3073388292514
 21
109.0129678409852
 31
0.0
  0
LINE
  5
1CC7
330
1C25
100
AcDbEntity
  8
SUNPOU
370
    -2
100
AcDbLine
 10
261.4441612662176
 20
140.2097845573426
 30
0.0
 11
272.5858818065517
 21
112.3554839306692
 31
0.0
  0
INSERT
  5
1CC8
330
1C25
100
AcDbEntity
  8
SUNPOU
370
    -2
100
AcDbBlockReference
  2
_OPEN
 10
260.3299892121842
 20
142.9952146200099
 30
0.0
 41
3.0
 42
3.0
 43
3.0
 50
111.8014100000027
  0
INSERT
  5
1CC9
330
1C25
100
AcDbEntity
  8
SUNPOU
370
    -2
100
AcDbBlockReference
  2
_OPEN
 10
273.7000538605851
 20
109.5700538680019
 30
0.0
 41
3.0
 42
3.0
 43
3.0
 50
291.8014100000027
  0
MTEXT
  5
1CCA
330
1C25
100
AcDbEntity
  8
SUNPOU
100
AcDbMText
 10
269.3362132552741
 20
127.2111109557004
 30
0.0
 40
3.0
 41
0.0
 71
     5
 72
     1
  1
\A1;36
 11
0.3713906846778028
 21
-0.9284766875557796
 31
0.0
 73
     1
 44
1.0
  0
POINT
  5
1CCB
330
1C25
100
AcDbEntity
  8
DEFPOINTS
 62
     0
100
AcDbPoint
 10
288.1595501743223
 20
154.1270392942726
 30
0.0
  0
POINT
  5
1CCC
330
1C25
100
AcDbEntity
  8
DEFPOINTS
 62
     0
100
AcDbPoint
 10
301.5296148227216
 20
120.7018785422639
 30
0.0
  0
POINT
  5
1CCD
330
1C25
100
AcDbEntity
  8
DEFPOINTS
 62
     0
100
AcDbPoint
 10
273.7000538605851
 20
109.5700538680019
 30
0.0
  0
ENDBLK
  5
1C30
330
1C25
100
AcDbEntity
  8
0
100
AcDbBlockEnd
  0
BLOCK
  5
1C3D
330
1C31
100
AcDbEntity
  8
0
100
AcDbBlockBegin
  2
*D10
 70
     1
 71
     0
 10
0.0
 20
0.0
 30
0.0
  3
*D10
  1

  0
LINE
  5
1CCE
330
1C31
100
AcDbEntity
  8
SUNPOU
370
    -2
100
AcDbLine
 10
294.287496632932
 20
123.7287125001254
 30
0.0
 11
279.4319167694797
 21
117.7864804002571
 31
0.0
  0
LINE
  5
1CCF
330
1C31
100
AcDbEntity
  8
SUNPOU
370
    -2
100
AcDbLine
 10
298.7441847600543
 20
119.5877064882305
 30
0.0
 11
281.4745655352077
 21
112.6798586187003
 31
0.0
  0
LINE
  5
1CD0
330
1C31
100
AcDbEntity
  8
SUNPOU
370
    -2
100
AcDbLine
 10
279.71045974678
 20
121.1289964899412
 30
0.0
 11
278.5962876927466
 21
123.9144265526085
 31
0.0
  0
LINE
  5
1CD1
330
1C31
100
AcDbEntity
  8
SUNPOU
370
    -2
100
AcDbLine
 10
283.9814526205747
 20
110.4515145830496
 30
0.0
 11
285.0956246746081
 21
107.6660845203823
 31
0.0
  0
LINE
  5
1CD2
330
1C31
100
AcDbEntity
  8
SUNPOU
370
    -2
100
AcDbLine
 10
280.8246318008134
 20
118.3435664272738
 30
0.0
 11
282.8672805665414
 21
113.236944645717
 31
0.0
  0
INSERT
  5
1CD3
330
1C31
100
AcDbEntity
  8
SUNPOU
370
    -2
100
AcDbBlockReference
  2
_OPEN
 10
280.8246318008134
 20
118.3435664272738
 30
0.0
 41
3.0
 42
3.0
 43
3.0
 50
291.8014100000027
  0
INSERT
  5
1CD4
330
1C31
100
AcDbEntity
  8
SUNPOU
370
    -2
100
AcDbBlockReference
  2
_OPEN
 10
282.8672805665414
 20
113.236944645717
 30
0.0
 41
3.0
 42
3.0
 43
3.0
 50
111.8014100000027
  0
MTEXT
  5
1CD5
330
1C31
100
AcDbEntity
  8
SUNPOU
100
AcDbMText
 10
284.1671479025668
 20
116.7187322481899
 30
0.0
 40
3.0
 41
0.0
 71
     5
 72
     1
  1
\A1;6
 11
0.3713906846778028
 21
-0.9284766875557796
 31
0.0
 73
     1
 44
1.0
  0
POINT
  5
1CD6
330
1C31
100
AcDbEntity
  8
DEFPOINTS
 62
     0
100
AcDbPoint
 10
297.0729266955994
 20
124.8428845541588
 30
0.0
  0
POINT
  5
1CD7
330
1C31
100
AcDbEntity
  8
DEFPOINTS
 62
     0
100
AcDbPoint
 10
301.5296148227216
 20
120.7018785422639
 30
0.0
  0
POINT
  5
1CD8
330
1C31
100
AcDbEntity
  8
DEFPOINTS
 62
     0
100
AcDbPoint
 10
282.8672805665414
 20
113.236944645717
 30
0.0
  0
ENDBLK
  5
1C3E
330
1C31
100
AcDbEntity
  8
0
100
AcDbBlockEnd
  0
BLOCK
  5
1C49
330
1C3F
100
AcDbEntity
  8
0
100
AcDbBlockBegin
  2
*D11
 70
     1
 71
     0
 10
0.0
 20
0.0
 30
0.0
  3
*D11
  1

  0
LINE
  5
1CD9
330
1C3F
100
AcDbEntity
  8
SUNPOU
370
    -2
100
AcDbLine
 10
336.4403379272237
 20
173.4393548975163
 30
0.0
 11
351.8298449477727
 21
179.5951578657757
 31
0.0
  0
LINE
  5
1CDA
330
1C3F
100
AcDbEntity
  8
SUNPOU
370
    -2
100
AcDbLine
 10
343.4967608878239
 20
161.1834626410906
 30
0.0
 11
357.0293145332619
 21
166.5964842399947
 31
0.0
  0
LINE
  5
1CDB
330
1C3F
100
AcDbEntity
  8
SUNPOU
370
    -2
100
AcDbLine
 10
351.5513019704724
 20
176.2526417760917
 30
0.0
 11
354.5224274478949
 21
168.8248282756453
 31
0.0
  0
INSERT
  5
1CDC
330
1C3F
100
AcDbEntity
  8
SUNPOU
370
    -2
100
AcDbBlockReference
  2
_OPEN
 10
350.437129916439
 20
179.038071838759
 30
0.0
 41
3.0
 42
3.0
 43
3.0
 50
111.8014100000027
  0
INSERT
  5
1CDD
330
1C3F
100
AcDbEntity
  8
SUNPOU
370
    -2
100
AcDbBlockReference
  2
_OPEN
 10
355.6365995019282
 20
166.039398212978
 30
0.0
 41
3.0
 42
3.0
 43
3.0
 50
291.8014100000027
  0
MTEXT
  5
1CDE
330
1C3F
100
AcDbEntity
  8
SUNPOU
100
AcDbMText
 10
355.358056428073
 20
173.467211737563
 30
0.0
 40
3.0
 41
0.0
 71
     5
 72
     1
  1
\A1;14
 11
0.3713906846778028
 21
-0.9284766875557796
 31
0.0
 73
     1
 44
1.0
  0
POINT
  5
1CDF
330
1C3F
100
AcDbEntity
  8
DEFPOINTS
 62
     0
100
AcDbPoint
 10
333.6549078645564
 20
172.3251828434829
 30
0.0
  0
POINT
  5
1CE0
330
1C3F
100
AcDbEntity
  8
DEFPOINTS
 62
     0
100
AcDbPoint
 10
340.7113308251566
 20
160.0692905870572
 30
0.0
  0
POINT
  5
1CE1
330
1C3F
100
AcDbEntity
  8
DEFPOINTS
 62
     0
100
AcDbPoint
 10
355.6365995019282
 20
166.039398212978
 30
0.0
  0
ENDBLK
  5
1C4A
330
1C3F
100
AcDbEntity
  8
0
100
AcDbBlockEnd
  0
BLOCK
  5
1C55
330
1C4B
100
AcDbEntity
  8
0
100
AcDbBlockBegin
  2
*D12
 70
     1
 71
     0
 10
0.0
 20
0.0
 30
0.0
  3
*D12
  1

  0
LINE
  5
1CE2
330
1C4B
100
AcDbEntity
  8
SUNPOU
370
    -2
100
AcDbLine
 10
285.9312061145329
 20
154.3127346124729
 30
0.0
 11
266.8142079215345
 21
202.1052288524579
 31
0.0
  0
LINE
  5
1CE3
330
1C4B
100
AcDbEntity
  8
SUNPOU
370
    -2
100
AcDbLine
 10
335.1404705549901
 20
173.9964409003942
 30
0.0
 11
316.0234723619919
 21
221.7889351403786
 31
0.0
  0
LINE
  5
1CE4
330
1C4B
100
AcDbEntity
  8
SUNPOU
370
    -2
100
AcDbLine
 10
270.1567240112186
 20
201.8266858751575
 30
0.0
 11
313.7951283263411
 21
219.2820480550117
 31
0.0
  0
INSERT
  5
1CE5
330
1C4B
100
AcDbEntity
  8
SUNPOU
370
    -2
100
AcDbBlockReference
  2
_OPEN
 10
267.3712939485511
 20
200.7125138211242
 30
0.0
 41
3.0
 42
3.0
 43
3.0
 50
201.8014099999993
  0
INSERT
  5
1CE6
330
1C4B
100
AcDbEntity
  8
SUNPOU
370
    -2
100
AcDbBlockReference
  2
_OPEN
 10
316.5805583890085
 20
220.3962201090449
 30
0.0
 41
3.0
 42
3.0
 43
3.0
 50
21.80140999999935
  0
MTEXT
  5
1CE7
330
1C4B
100
AcDbEntity
  8
SUNPOU
100
AcDbMText
 10
291.0474494570855
 20
212.8755586839741
 30
0.0
 40
3.0
 41
0.0
 71
     5
 72
     1
  1
\A1;53
 11
0.928476687555801
 21
0.3713906846777493
 31
0.0
 73
     1
 44
1.0
  0
POINT
  5
1CE8
330
1C4B
100
AcDbEntity
  8
DEFPOINTS
 62
     0
100
AcDbPoint
 10
287.0453781685662
 20
151.5273045498055
 30
0.0
  0
POINT
  5
1CE9
330
1C4B
100
AcDbEntity
  8
DEFPOINTS
 62
     0
100
AcDbPoint
 10
336.2546426090233
 20
171.2110108377268
 30
0.0
  0
POINT
  5
1CEA
330
1C4B
100
AcDbEntity
  8
DEFPOINTS
 62
     0
100
AcDbPoint
 10
316.5805583890085
 20
220.3962201090449
 30
0.0
  0
ENDBLK
  5
1C56
330
1C4B
100
AcDbEntity
  8
0
100
AcDbBlockEnd
  0
BLOCK
  5
1C63
330
1C57
100
AcDbEntity
  8
0
100
AcDbBlockBegin
  2
*D13
 70
     1
 71
     0
 10
0.0
 20
0.0
 30
0.0
  3
*D13
  1

  0
LINE
  5
1CEB
330
1C57
100
AcDbEntity
  8
SUNPOU
370
    -2
100
AcDbLine
 10
285.374120111655
 20
153.0128672402392
 30
0.0
 11
268.104500886808
 21
146.1050193707088
 31
0.0
  0
LINE
  5
1CEC
330
1C57
100
AcDbEntity
  8
SUNPOU
370
    -2
100
AcDbLine
 10
285.0027295159881
 20
146.9406296890203
 30
0.0
 11
270.1471496525359
 21
140.998397589152
 31
0.0
  0
LINE
  5
1CED
330
1C57
100
AcDbEntity
  8
SUNPOU
370
    -2
100
AcDbLine
 10
268.3830438641082
 20
149.4475354603928
 30
0.0
 11
267.2688718100748
 21
152.2329655230602
 31
0.0
  0
LINE
  5
1CEE
330
1C57
100
AcDbEntity
  8
SUNPOU
370
    -2
100
AcDbLine
 10
272.654036737903
 20
138.7700535535014
 30
0.0
 11
273.7682087919363
 21
135.9846234908341
 31
0.0
  0
LINE
  5
1CEF
330
1C57
100
AcDbEntity
  8
SUNPOU
370
    -2
100
AcDbLine
 10
269.4972159181417
 20
146.6621053977255
 30
0.0
 11
271.5398646838696
 21
141.5554836161687
 31
0.0
  0
INSERT
  5
1CF0
330
1C57
100
AcDbEntity
  8
SUNPOU
370
    -2
100
AcDbBlockReference
  2
_OPEN
 10
269.4972159181417
 20
146.6621053977255
 30
0.0
 41
3.0
 42
3.0
 43
3.0
 50
291.8014100000027
  0
INSERT
  5
1CF1
330
1C57
100
AcDbEntity
  8
SUNPOU
370
    -2
100
AcDbBlockReference
  2
_OPEN
 10
271.5398646838696
 20
141.5554836161687
 30
0.0
 41
3.0
 42
3.0
 43
3.0
 50
111.8014100000027
  0
MTEXT
  5
1CF2
330
1C57
100
AcDbEntity
  8
SUNPOU
100
AcDbMText
 10
272.8397320198951
 20
145.0372712186416
 30
0.0
 40
3.0
 41
0.0
 71
     5
 72
     1
  1
\A1;6
 11
0.3713906846778028
 21
-0.9284766875557796
 31
0.0
 73
     1
 44
1.0
  0
POINT
  5
1CF3
330
1C57
100
AcDbEntity
  8
DEFPOINTS
 62
     0
100
AcDbPoint
 10
288.1595501743223
 20
154.1270392942726
 30
0.0
  0
POINT
  5
1CF4
330
1C57
100
AcDbEntity
  8
DEFPOINTS
 62
     0
100
AcDbPoint
 10
287.7881595786554
 20
148.0548017430537
 30
0.0
  0
POINT
  5
1CF5
330
1C57
100
AcDbEntity
  8
DEFPOINTS
 62
     0
100
AcDbPoint
 10
271.5398646838696
 20
141.5554836161687
 30
0.0
  0
ENDBLK
  5
1C64
330
1C57
100
AcDbEntity
  8
0
100
AcDbBlockEnd
  0
BLOCK
  5
1C6F
330
1C65
100
AcDbEntity
  8
0
100
AcDbBlockBegin
  2
*D14
 70
     1
 71
     0
 10
0.0
 20
0.0
 30
0.0
  3
*D14
  1

  0
LINE
  5
1CF6
330
1C65
100
AcDbEntity
  8
SUNPOU
370
    -2
100
AcDbLine
 10
294.2762409124023
 20
152.2982245627316
 30
0.0
 11
279.3901778797195
 21
189.5133811769176
 31
0.0
  0
LINE
  5
1CF7
330
1C65
100
AcDbEntity
  8
SUNPOU
370
    -2
100
AcDbLine
 10
330.4868317270785
 20
166.7824612651643
 30
0.0
 11
315.6007686943959
 21
203.9976178793499
 31
0.0
  0
LINE
  5
1CF8
330
1C65
100
AcDbEntity
  8
SUNPOU
370
    -2
100
AcDbLine
 10
282.7326939694036
 20
189.2348381996172
 30
0.0
 11
313.3724246587451
 21
201.4907307939829
 31
0.0
  0
INSERT
  5
1CF9
330
1C65
100
AcDbEntity
  8
SUNPOU
370
    -2
100
AcDbBlockReference
  2
_OPEN
 10
279.9472639067361
 20
188.1206661455839
 30
0.0
 41
3.0
 42
3.0
 43
3.0
 50
201.8014099999993
  0
INSERT
  5
1CFA
330
1C65
100
AcDbEntity
  8
SUNPOU
370
    -2
100
AcDbBlockReference
  2
_OPEN
 10
316.1578547214125
 20
202.6049028480162
 30
0.0
 41
3.0
 42
3.0
 43
3.0
 50
21.80140999999935
  0
MTEXT
  5
1CFB
330
1C65
100
AcDbEntity
  8
SUNPOU
100
AcDbMText
 10
297.1240826023799
 20
197.6839762156895
 30
0.0
 40
3.0
 41
0.0
 71
     5
 72
     1
  1
\A1;39
 11
0.928476687555801
 21
0.3713906846777493
 31
0.0
 73
     1
 44
1.0
  0
POINT
  5
1CFC
330
1C65
100
AcDbEntity
  8
DEFPOINTS
 62
     0
100
AcDbPoint
 10
295.3904129664356
 20
149.5127945000642
 30
0.0
  0
POINT
  5
1CFD
330
1C65
100
AcDbEntity
  8
DEFPOINTS
 62
     0
100
AcDbPoint
 10
331.6010037811118
 20
163.9970312024969
 30
0.0
  0
POINT
  5
1CFE
330
1C65
100
AcDbEntity
  8
DEFPOINTS
 62
     0
100
AcDbPoint
 10
316.1578547214125
 20
202.6049028480162
 30
0.0
  0
ENDBLK
  5
1C70
330
1C65
100
AcDbEntity
  8
0
100
AcDbBlockEnd
  0
BLOCK
  5
1C7B
330
1C71
100
AcDbEntity
  8
0
100
AcDbBlockBegin
  2
*D15
 70
     1
 71
     0
 10
0.0
 20
0.0
 30
0.0
  3
*D15
  1

  0
LINE
  5
1CFF
330
1C71
100
AcDbEntity
  8
SUNPOU
370
    -2
100
AcDbLine
 10
290.0722121264279
 20
158.7694227395952
 30
0.0
 11
274.8697841087511
 21
196.7754917957039
 31
0.0
  0
LINE
  5
1D00
330
1C71
100
AcDbEntity
  8
SUNPOU
370
    -2
100
AcDbLine
 10
329.0682330037714
 20
174.3678314960611
 30
0.0
 11
313.8658049860948
 21
212.3739005521694
 31
0.0
  0
LINE
  5
1D01
330
1C71
100
AcDbEntity
  8
SUNPOU
370
    -2
100
AcDbLine
 10
278.2123001984352
 20
196.4969488184034
 30
0.0
 11
311.637460950444
 21
209.8670134668024
 31
0.0
  0
INSERT
  5
1D02
330
1C71
100
AcDbEntity
  8
SUNPOU
370
    -2
100
AcDbBlockReference
  2
_OPEN
 10
275.4268701357677
 20
195.3827767643702
 30
0.0
 41
3.0
 42
3.0
 43
3.0
 50
201.8014099999993
  0
INSERT
  5
1D03
330
1C71
100
AcDbEntity
  8
SUNPOU
370
    -2
100
AcDbBlockReference
  2
_OPEN
 10
314.4228910131114
 20
210.9811855208357
 30
0.0
 41
3.0
 42
3.0
 43
3.0
 50
21.80140999999935
  0
MTEXT
  5
1D04
330
1C71
100
AcDbEntity
  8
SUNPOU
100
AcDbMText
 10
293.9964038627452
 20
205.5031728614924
 30
0.0
 40
3.0
 41
0.0
 71
     5
 72
     1
  1
\A1;42
 11
0.928476687555801
 21
0.3713906846777493
 31
0.0
 73
     1
 44
1.0
  0
POINT
  5
1D05
330
1C71
100
AcDbEntity
  8
DEFPOINTS
 62
     0
100
AcDbPoint
 10
291.1863841804611
 20
155.9839926769278
 30
0.0
  0
POINT
  5
1D06
330
1C71
100
AcDbEntity
  8
DEFPOINTS
 62
     0
100
AcDbPoint
 10
330.1824050578046
 20
171.5824014333937
 30
0.0
  0
POINT
  5
1D07
330
1C71
100
AcDbEntity
  8
DEFPOINTS
 62
     0
100
AcDbPoint
 10
314.4228910131114
 20
210.9811855208357
 30
0.0
  0
ENDBLK
  5
1C7C
330
1C71
100
AcDbEntity
  8
0
100
AcDbBlockEnd
  0
ENDSEC
  0
SECTION
  2
ENTITIES
  0
LWPOLYLINE
  5
ABF
330
1A
100
AcDbEntity
  8
ZUWAKU
100
AcDbPolyline
 90
        4
 70
     1
 43
0.0
 10
0.3999995171010369
 20
275.3999999613564
 10
0.3999995171010369
 20
0.3999999613564
 10
398.399999517101
 20
0.3999999613564
 10
398.399999517101
 20
275.3999999613564
  0
LWPOLYLINE
  5
AC0
330
1A
100
AcDbEntity
  8
ZUWAKU
100
AcDbPolyline
 90
        4
 70
     1
 43
0.0
 10
0.1999995171010482
 20
275.5999999613564
 10
0.1999995171010482
 20
0.1999999613564114
 10
398.5999995171011
 20
0.1999999613563999
 10
398.5999995171011
 20
275.5999999613564
  0
LWPOLYLINE
  5
AC1
330
1A
100
AcDbEntity
  8
ZUWAKU
100
AcDbPolyline
 90
        4
 70
     1
 43
0.0
 10
-0.0000004828989404
 20
275.7999999613564
 10
-0.0000004828989404
 20
-0.0000000386436341
 10
398.7999995171011
 20
-0.0000000386436003
 10
398.7999995171011
 20
275.7999999613564
  0
LWPOLYLINE
  5
AC2
330
1A
100
AcDbEntity
  8
ZUWAKU
100
AcDbPolyline
 90
        4
 70
     1
 43
0.0
 10
0.2999995171010141
 20
275.4999999613564
 10
0.2999995171010141
 20
0.2999999613563773
 10
398.4999995171012
 20
0.2999999613564004
 10
398.4999995171011
 20
275.4999999613564
  0
LWPOLYLINE
  5
AC3
330
1A
100
AcDbEntity
  8
ZUWAKU
100
AcDbPolyline
 90
        4
 70
     1
 43
0.0
 10
0.0999995171010255
 20
275.6999999613564
 10
0.0999995171010255
 20
0.0999999613563887
 10
398.699999517101
 20
0.0999999613564002
 10
398.6999995171011
 20
275.6999999613564
  0
LINE
  5
AC4
330
1A
100
AcDbEntity
  8
ZUWAKU
100
AcDbLine
 10
-0.0000004828989404
 20
14.99999996135637
 30
0.0
 11
398.699999517101
 21
14.99999996135637
 31
0.0
  0
LINE
  5
AC5
330
1A
100
AcDbEntity
  8
ZUWAKU
100
AcDbLine
 10
-0.0000004828989404
 20
15.09999996135637
 30
0.0
 11
398.699999517101
 21
15.09999996135637
 31
0.0
  0
LINE
  5
AC6
330
1A
100
AcDbEntity
  8
ZUWAKU
100
AcDbLine
 10
-0.0000004828989404
 20
15.19999996135637
 30
0.0
 11
398.699999517101
 21
15.19999996135637
 31
0.0
  0
LINE
  5
AC7
330
1A
100
AcDbEntity
  8
ZUWAKU
100
AcDbLine
 10
-0.0000004828989404
 20
15.29999996135637
 30
0.0
 11
398.699999517101
 21
15.29999996135637
 31
0.0
  0
LINE
  5
AC8
330
1A
100
AcDbEntity
  8
ZUWAKU
100
AcDbLine
 10
-0.0000004828989404
 20
15.39999996135637
 30
0.0
 11
398.699999517101
 21
15.39999996135637
 31
0.0
  0
LINE
  5
AC9
330
1A
100
AcDbEntity
  8
ZUWAKU
100
AcDbLine
 10
104.3233001621351
 20
7.699999961356383
 30
0.0
 11
223.7121815025968
 21
7.699999961356383
 31
0.0
  0
LINE
  5
ACA
330
1A
100
AcDbEntity
  8
ZUWAKU
100
AcDbLine
 10
104.3233001621351
 20
7.799999961356383
 30
0.0
 11
223.7121815025968
 21
7.799999961356386
 31
0.0
  0
LINE
  5
ACB
330
1A
100
AcDbEntity
  8
ZUWAKU
100
AcDbLine
 10
104.3233001621351
 20
7.599999961356385
 30
0.0
 11
223.7121815025968
 21
7.599999961356382
 31
0.0
  0
TEXT
  5
ACC
330
1A
100
AcDbEntity
  8
moji
100
AcDbText
 10
46.47889431118563
 20
6.370589026493747
 30
0.0
 40
3.0
  1
アーバントップΣ９０
 41
0.9
  7
ｽﾀｲﾙ1
100
AcDbText
  0
CIRCLE
  5
ACD
330
1A
100
AcDbEntity
  8
ZUWAKU
100
AcDbCircle
 10
12.99610559449161
 20
7.599999961356367
 30
0.0
 40
0.875
  0
LINE
  5
ACE
330
1A
100
AcDbEntity
  8
ZUWAKU
100
AcDbLine
 10
13.43360559449161
 20
3.574999961356369
 30
0.0
 11
12.47110559449163
 21
3.574999961356369
 31
0.0
  0
LINE
  5
ACF
330
1A
100
AcDbEntity
  8
ZUWAKU
100
AcDbLine
 10
12.47110559449163
 20
4.974999961356367
 30
0.0
 11
13.43360559449161
 21
4.974999961356367
 31
0.0
  0
LINE
  5
AD0
330
1A
100
AcDbEntity
  8
ZUWAKU
100
AcDbLine
 10
13.43360559449161
 20
10.22499996135637
 30
0.0
 11
12.47110559449163
 21
10.22499996135637
 31
0.0
  0
LINE
  5
AD1
330
1A
100
AcDbEntity
  8
ZUWAKU
100
AcDbLine
 10
12.47110559449163
 20
11.62499996135635
 30
0.0
 11
13.43360559449161
 21
11.62499996135637
 31
0.0
  0
HATCH
  5
AD2
330
1A
100
AcDbEntity
  8
ZUWAKU
100
AcDbHatch
 10
0.0
 20
0.0
 30
0.0
210
0.0
220
0.0
230
1.0
  2
ANSI37
 70
     0
 71
     0
 91
        8
 92
        7
 72
     1
 73
     1
 93
       24
 10
7.251130847660988
 20
8.822424201848158
 42
-0.1989123673796348
 10
7.046105594491621
 20
9.317398948678683
 42
0.0
 10
7.046105594491621
 20
9.962499961356372
 42
-0.4142135623730912
 10
7.30860559449161
 20
10.22499996135637
 42
0.0
 10
8.796105594491564
 20
10.22499996135637
 42
0.4142135623731546
 10
9.05860559449161
 20
10.48749996135636
 42
0.0
 10
9.05860559449161
 20
11.36249996135637
 42
0.4142135623731586
 10
8.796105594491564
 20
11.62499996135637
 42
0.0
 10
7.046105594491621
 20
11.62499996135637
 42
0.4142135623730928
 10
5.646105594491644
 20
10.22499996135638
 42
0.0
 10
5.646105594491644
 20
9.317398948678747
 42
0.1989123673796619
 10
6.261181353999859
 20
7.832474708186943
 42
0.0
 10
7.716080341322197
 20
6.377575720864614
 42
-0.1989123673796613
 10
7.921105594491621
 20
5.882600974034022
 42
0.0
 10
7.921105594491621
 20
5.237499961356363
 42
-0.4142135623730911
 10
7.658605594491633
 20
4.974999961356367
 42
0.0
 10
6.171105594491678
 20
4.974999961356367
 42
0.4142135623731526
 10
5.908605594491633
 20
4.712499961356373
 42
0.0
 10
5.908605594491633
 20
3.837499961356363
 42
0.4142135623731526
 10
6.171105594491678
 20
3.574999961356369
 42
0.0
 10
7.921105594491621
 20
3.574999961356369
 42
0.4142135623731044
 10
9.321105594491655
 20
4.974999961356357
 42
0.0
 10
9.321105594491655
 20
5.882600974033993
 42
0.1989123673796604
 10
8.706029834983383
 20
7.367525214525763
 42
0.0
 97
        0
 92
        7
 72
     1
 73
     1
 93
       16
 10
11.77110559449164
 20
9.524999961356372
 42
-0.4142135623730935
 10
12.47110559449163
 20
10.22499996135637
 42
0.0
 10
13.43360559449161
 20
10.22499996135637
 42
0.4142135623731546
 10
13.69610559449166
 20
10.48749996135636
 42
0.0
 10
13.69610559449166
 20
11.36249996135637
 42
0.4142135623730952
 10
13.43360559449167
 20
11.62499996135637
 42
0.0
 10
12.47110559449158
 20
11.62499996135635
 42
0.4142135623730892
 10
10.37110559449161
 20
9.524999961356336
 42
0.0
 10
10.37110559449161
 20
5.674999961356381
 42
0.4142135623730969
 10
12.47110559449163
 20
3.574999961356369
 42
0.0
 10
13.43360559449161
 20
3.574999961356369
 42
0.4142135623731526
 10
13.69610559449166
 20
3.837499961356363
 42
0.0
 10
13.69610559449166
 20
4.712499961356373
 42
0.414213562373089
 10
13.43360559449167
 20
4.974999961356367
 42
0.0
 10
12.47110559449163
 20
4.974999961356367
 42
-0.4142135623730928
 10
11.77110559449164
 20
5.674999961356361
 42
0.0
 97
        0
 92
        7
 72
     1
 73
     1
 93
        2
 10
12.12110559449161
 20
7.599999961356367
 42
1.0
 10
13.87110559449161
 20
7.599999961356367
 42
1.0
 97
        0
 92
        7
 72
     1
 73
     1
 93
       26
 10
18.65742883558062
 20
9.602523558138081
 42
0.0
 10
19.18824865214953
 20
11.28345297727288
 42
0.5069206636600134
 10
18.93793320255185
 20
11.62499996135637
 42
0.0
 10
18.08848851274723
 20
11.62499996135637
 42
0.3272098845218764
 10
17.83817306314955
 20
11.44154694543985
 42
0.0
 10
16.90403812583367
 20
8.483452977272908
 42
-0.3272098845219541
 10
16.65372267623593
 20
8.299999961356367
 42
0.0
 10
16.5836055944917
 20
8.299999961356367
 42
-0.4142135623731526
 10
16.32110559449166
 20
8.562499961356361
 42
0.0
 10
16.32110559449166
 20
11.36249996135637
 42
0.4142135623730952
 10
16.05860559449167
 20
11.62499996135637
 42
0.0
 10
15.18360559449161
 20
11.62499996135637
 42
0.4142135623730872
 10
14.92110559449162
 20
11.36249996135638
 42
0.0
 10
14.92110559449162
 20
3.837499961356363
 42
0.414213562373089
 10
15.18360559449161
 20
3.574999961356369
 42
0.0
 10
16.05860559449161
 20
3.574999961356369
 42
0.4142135623731526
 10
16.32110559449166
 20
3.837499961356363
 42
0.0
 10
16.32110559449166
 20
6.637499961356374
 42
-0.4142135623731526
 10
16.5836055944917
 20
6.899999961356368
 42
0.0
 10
16.65372267623599
 20
6.899999961356368
 42
-0.3272098845218915
 10
16.90403812583367
 20
6.716546945439831
 42
0.0
 10
17.83817306314955
 20
3.758452977272905
 42
0.3272098845218902
 10
18.08848851274723
 20
3.574999961356369
 42
0.0
 10
18.93793320255185
 20
3.574999961356369
 42
0.5069206636600334
 10
19.18824865214953
 20
3.916546945439873
 42
0.0
 10
18.0250529629127
 20
7.599999961356437
 42
0.0
 97
        0
 92
        7
 72
     1
 73
     1
 93
        8
 10
21.74610559449161
 20
11.36249996135637
 42
0.4142135623731546
 10
21.48360559449156
 20
11.62499996135637
 42
0.0
 10
20.60860559449168
 20
11.62499996135637
 42
0.4142135623731506
 10
20.34610559449163
 20
11.36249996135638
 42
0.0
 10
20.34610559449163
 20
3.837499961356363
 42
0.4142135623731526
 10
20.60860559449168
 20
3.574999961356369
 42
0.0
 10
21.48360559449156
 20
3.574999961356369
 42
0.4142135623731526
 10
21.74610559449161
 20
3.837499961356363
 42
0.0
 97
        0
 92
        7
 72
     1
 73
     1
 93
       24
 10
24.19610559449166
 20
9.962499961356372
 42
-0.4142135623731547
 10
24.4586055944917
 20
10.22499996135637
 42
0.0
 10
25.94610559449166
 20
10.22499996135637
 42
0.4142135623730911
 10
26.20860559449164
 20
10.48749996135636
 42
0.0
 10
26.20860559449164
 20
11.36249996135637
 42
0.4142135623730952
 10
25.94610559449166
 20
11.62499996135637
 42
0.0
 10
24.19610559449166
 20
11.62499996135637
 42
0.4142135623731048
 10
22.79610559449162
 20
10.22499996135638
 42
0.0
 10
22.79610559449162
 20
9.317398948678747
 42
0.1989123673796613
 10
23.41118135399989
 20
7.832474708186972
 42
0.0
 10
24.86608034132223
 20
6.377575720864638
 42
-0.1989123673796402
 10
25.07110559449166
 20
5.882600974034101
 42
0.0
 10
25.07110559449166
 20
5.237499961356363
 42
-0.4142135623730911
 10
24.80860559449167
 20
4.974999961356367
 42
0.0
 10
23.32110559449166
 20
4.974999961356367
 42
0.4142135623731526
 10
23.05860559449161
 20
4.712499961356373
 42
0.0
 10
23.05860559449161
 20
3.837499961356363
 42
0.414213562373089
 10
23.3211055944916
 20
3.574999961356369
 42
0.0
 10
25.07110559449166
 20
3.574999961356369
 42
0.4142135623730925
 10
26.47110559449163
 20
4.974999961356357
 42
0.0
 10
26.47110559449163
 20
5.882600974033993
 42
0.1989123673796675
 10
25.85602983498336
 20
7.36752521452582
 42
0.0
 10
24.40113084766108
 20
8.822424201848078
 42
-0.1989123673796653
 10
24.19610559449166
 20
9.317398948678662
 42
0.0
 97
        0
 92
        7
 72
     1
 73
     1
 93
       16
 10
28.92110559449162
 20
11.36249996135636
 42
0.414213562373103
 10
28.65860559449163
 20
11.62499996135637
 42
0.0
 10
27.78360559449163
 20
11.62499996135637
 42
0.4142135623730872
 10
27.52110559449164
 20
11.36249996135638
 42
0.0
 10
27.52110559449164
 20
4.974999961356357
 42
0.4142135623730925
 10
28.92110559449162
 20
3.574999961356369
 42
0.0
 10
30.67110559449162
 20
3.574999961356369
 42
0.4142135623731044
 10
32.07110559449166
 20
4.974999961356357
 42
0.0
 10
32.07110559449166
 20
11.36249996135637
 42
0.4142135623730952
 10
31.80860559449167
 20
11.62499996135637
 42
0.0
 10
30.93360559449161
 20
11.62499996135637
 42
0.4142135623730872
 10
30.67110559449162
 20
11.36249996135638
 42
0.0
 10
30.67110559449162
 20
5.499999961356355
 42
-0.414213562373088
 10
30.14610559449164
 20
4.974999961356367
 42
0.0
 10
29.44610559449166
 20
4.974999961356367
 42
-0.4142135623731197
 10
28.92110559449162
 20
5.499999961356355
 42
0.0
 97
        0
 92
        7
 72
     1
 73
     1
 93
        8
 10
34.52110559449164
 20
11.36249996135638
 42
0.4142135623730872
 10
34.25860559449166
 20
11.62499996135637
 42
0.0
 10
33.38360559449166
 20
11.62499996135637
 42
0.4142135623731506
 10
33.12110559449161
 20
11.36249996135638
 42
0.0
 10
33.12110559449161
 20
3.837499961356363
 42
0.414213562373089
 10
33.3836055944916
 20
3.574999961356369
 42
0.0
 10
34.25860559449166
 20
3.574999961356369
 42
0.414213562373089
 10
34.52110559449164
 20
3.837499961356363
 42
0.0
 97
        0
 75
     0
 76
     1
 52
0.0
 41
0.1
 77
     0
 78
     2
 53
45.0
 43
-450.4711526502384
 44
-6.6000000386436
 45
-0.2245064030267288
 46
0.2245064030267289
 79
     0
 53
135.0
 43
-450.4711526502384
 44
-6.6000000386436
 45
-0.2245064030267289
 46
-0.2245064030267288
 79
     0
 47
0.057451373970553
 98
        8
 10
8.039926998612714
 20
7.583586784299143
 10
11.20225702032064
 20
9.422031052581872
 10
12.58218345993089
 20
7.755940784391726
 10
15.45702950791963
 20
8.100648784577118
 10
20.91923552657943
 20
8.330454918347925
 10
23.44909996466583
 20
9.709288119559972
 10
28.27884250330124
 20
9.364578918903874
 10
33.91353932691243
 20
9.594385052674681
  0
ARC
  5
AD3
330
1A
100
AcDbEntity
  8
ZUWAKU
100
AcDbCircle
 10
7.74610559449161
 20
9.317398948678719
 30
0.0
 40
2.1
100
AcDbArc
 50
180.0
 51
225.0
  0
LINE
  5
AD4
330
1A
100
AcDbEntity
  8
ZUWAKU
100
AcDbLine
 10
10.37110559449161
 20
5.67499996135637
 30
0.0
 11
10.37110559449161
 21
9.524999961356347
 31
0.0
  0
LINE
  5
AD5
330
1A
100
AcDbEntity
  8
ZUWAKU
100
AcDbLine
 10
11.77110559449164
 20
9.524999961356368
 30
0.0
 11
11.77110559449164
 21
5.67499996135637
 31
0.0
  0
ARC
  5
AD6
330
1A
100
AcDbEntity
  8
ZUWAKU
100
AcDbCircle
 10
7.74610559449161
 20
9.317398948678719
 30
0.0
 40
0.7
100
AcDbArc
 50
180.0000000000016
 51
224.9999999999988
  0
ARC
  5
AD7
330
1A
100
AcDbEntity
  8
ZUWAKU
100
AcDbCircle
 10
12.47110559449163
 20
5.67499996135637
 30
0.0
 40
2.1
100
AcDbArc
 50
180.0
 51
270.0
  0
ARC
  5
AD8
330
1A
100
AcDbEntity
  8
ZUWAKU
100
AcDbCircle
 10
7.921105594491621
 20
4.974999961356367
 30
0.0
 40
1.4
100
AcDbArc
 50
270.0
 51
0.0
  0
ARC
  5
AD9
330
1A
100
AcDbEntity
  8
ZUWAKU
100
AcDbCircle
 10
7.221105594491633
 20
5.88260097403402
 30
0.0
 40
2.1
100
AcDbArc
 50
0.0
 51
45.0
  0
LINE
  5
ADA
330
1A
100
AcDbEntity
  8
ZUWAKU
100
AcDbLine
 10
6.261181353999859
 20
7.832474708186958
 30
0.0
 11
7.716080341322197
 21
6.377575720864627
 31
0.0
  0
LINE
  5
ADB
330
1A
100
AcDbEntity
  8
ZUWAKU
100
AcDbLine
 10
6.171105594491621
 20
4.974999961356367
 30
0.0
 11
7.658605594491633
 21
4.974999961356367
 31
0.0
  0
LINE
  5
ADC
330
1A
100
AcDbEntity
  8
ZUWAKU
100
AcDbLine
 10
6.171105594491621
 20
3.574999961356369
 30
0.0
 11
7.921105594491621
 21
3.574999961356369
 31
0.0
  0
ARC
  5
ADD
330
1A
100
AcDbEntity
  8
ZUWAKU
100
AcDbCircle
 10
6.171105594491621
 20
4.712499961356368
 30
0.0
 40
0.2625
100
AcDbArc
 50
90.0
 51
180.0
  0
ARC
  5
ADE
330
1A
100
AcDbEntity
  8
ZUWAKU
100
AcDbCircle
 10
6.171105594491621
 20
3.837499961356368
 30
0.0
 40
0.2625
100
AcDbArc
 50
180.0
 51
270.0
  0
LINE
  5
ADF
330
1A
100
AcDbEntity
  8
ZUWAKU
100
AcDbLine
 10
5.908605594491633
 20
3.837499961356368
 30
0.0
 11
5.908605594491633
 21
4.712499961356368
 31
0.0
  0
ARC
  5
AE0
330
1A
100
AcDbEntity
  8
ZUWAKU
100
AcDbCircle
 10
7.221105594491633
 20
5.882600974034041
 30
0.0
 40
0.7
100
AcDbArc
 50
0.0
 51
45.0
  0
ARC
  5
AE1
330
1A
100
AcDbEntity
  8
ZUWAKU
100
AcDbCircle
 10
7.658605594491633
 20
5.23749996135637
 30
0.0
 40
0.2625
100
AcDbArc
 50
270.0
 51
0.0
  0
LINE
  5
AE2
330
1A
100
AcDbEntity
  8
ZUWAKU
100
AcDbLine
 10
7.921105594491621
 20
5.23749996135637
 30
0.0
 11
7.921105594491621
 21
5.882600974034041
 31
0.0
  0
LINE
  5
AE3
330
1A
100
AcDbEntity
  8
ZUWAKU
100
AcDbLine
 10
8.706029834983383
 20
7.367525214525781
 30
0.0
 11
7.251130847661045
 21
8.822424201848119
 31
0.0
  0
ARC
  5
AE4
330
1A
100
AcDbEntity
  8
ZUWAKU
100
AcDbCircle
 10
12.47110559449163
 20
5.67499996135637
 30
0.0
 40
0.7
100
AcDbArc
 50
180.0
 51
270.0
  0
LINE
  5
AE5
330
1A
100
AcDbEntity
  8
ZUWAKU
100
AcDbLine
 10
9.321105594491655
 20
4.974999961356367
 30
0.0
 11
9.321105594491655
 21
5.882600974034041
 31
0.0
  0
ARC
  5
AE6
330
1A
100
AcDbEntity
  8
ZUWAKU
100
AcDbCircle
 10
8.796105594491621
 20
10.48749996135637
 30
0.0
 40
0.2625
100
AcDbArc
 50
270.0
 51
0.0
  0
ARC
  5
AE7
330
1A
100
AcDbEntity
  8
ZUWAKU
100
AcDbCircle
 10
8.796105594491621
 20
11.36249996135637
 30
0.0
 40
0.2625
100
AcDbArc
 50
0.0
 51
90.0
  0
ARC
  5
AE8
330
1A
100
AcDbEntity
  8
ZUWAKU
100
AcDbCircle
 10
7.046105594491621
 20
10.22499996135637
 30
0.0
 40
1.4
100
AcDbArc
 50
90.0
 51
180.0
  0
LINE
  5
AE9
330
1A
100
AcDbEntity
  8
ZUWAKU
100
AcDbLine
 10
5.646105594491644
 20
10.22499996135637
 30
0.0
 11
5.646105594491644
 21
9.317398948678697
 31
0.0
  0
LINE
  5
AEA
330
1A
100
AcDbEntity
  8
ZUWAKU
100
AcDbLine
 10
8.796105594491621
 20
10.22499996135637
 30
0.0
 11
7.30860559449161
 21
10.22499996135637
 31
0.0
  0
LINE
  5
AEB
330
1A
100
AcDbEntity
  8
ZUWAKU
100
AcDbLine
 10
7.046105594491621
 20
9.962499961356368
 30
0.0
 11
7.046105594491621
 21
9.317398948678697
 31
0.0
  0
ARC
  5
AEC
330
1A
100
AcDbEntity
  8
ZUWAKU
100
AcDbCircle
 10
7.30860559449161
 20
9.962499961356368
 30
0.0
 40
0.2625
100
AcDbArc
 50
90.0
 51
180.0
  0
LINE
  5
AED
330
1A
100
AcDbEntity
  8
ZUWAKU
100
AcDbLine
 10
7.046105594491621
 20
11.62499996135637
 30
0.0
 11
8.796105594491621
 21
11.62499996135637
 31
0.0
  0
ARC
  5
AEE
330
1A
100
AcDbEntity
  8
ZUWAKU
100
AcDbCircle
 10
12.47110559449163
 20
9.524999961356347
 30
0.0
 40
2.1
100
AcDbArc
 50
90.0
 51
180.0
  0
ARC
  5
AEF
330
1A
100
AcDbEntity
  8
ZUWAKU
100
AcDbCircle
 10
12.47110559449163
 20
9.524999961356368
 30
0.0
 40
0.7
100
AcDbArc
 50
90.0
 51
180.0
  0
LINE
  5
AF0
330
1A
100
AcDbEntity
  8
ZUWAKU
100
AcDbLine
 10
9.05860559449161
 20
11.36249996135637
 30
0.0
 11
9.05860559449161
 21
10.48749996135637
 31
0.0
  0
LINE
  5
AF1
330
1A
100
AcDbEntity
  8
ZUWAKU
100
AcDbLine
 10
17.83817306314955
 20
11.44154694543985
 30
0.0
 11
16.90403812583367
 21
8.483452977272883
 31
0.0
  0
LINE
  5
AF2
330
1A
100
AcDbEntity
  8
ZUWAKU
100
AcDbLine
 10
14.92110559449162
 20
11.36249996135637
 30
0.0
 11
14.92110559449162
 21
3.837499961356368
 31
0.0
  0
LINE
  5
AF3
330
1A
100
AcDbEntity
  8
ZUWAKU
100
AcDbLine
 10
16.32110559449166
 20
8.56249996135637
 30
0.0
 11
16.32110559449166
 21
11.36249996135637
 31
0.0
  0
LINE
  5
AF4
330
1A
100
AcDbEntity
  8
ZUWAKU
100
AcDbLine
 10
28.92110559449162
 20
5.499999961356366
 30
0.0
 11
28.92110559449162
 21
11.36249996135637
 31
0.0
  0
LINE
  5
AF5
330
1A
100
AcDbEntity
  8
ZUWAKU
100
AcDbLine
 10
27.52110559449164
 20
11.36249996135637
 30
0.0
 11
27.52110559449164
 21
4.974999961356367
 31
0.0
  0
LINE
  5
AF6
330
1A
100
AcDbEntity
  8
ZUWAKU
100
AcDbLine
 10
21.74610559449161
 20
3.837499961356368
 30
0.0
 11
21.74610559449161
 21
11.36249996135637
 31
0.0
  0
LINE
  5
AF7
330
1A
100
AcDbEntity
  8
ZUWAKU
100
AcDbLine
 10
20.34610559449163
 20
11.36249996135637
 30
0.0
 11
20.34610559449163
 21
3.837499961356368
 31
0.0
  0
LINE
  5
AF8
330
1A
100
AcDbEntity
  8
ZUWAKU
100
AcDbLine
 10
18.65742883558062
 20
9.602523558138081
 30
0.0
 11
18.0250529629127
 21
7.599999961356378
 31
0.0
  0
ARC
  5
AF9
330
1A
100
AcDbEntity
  8
ZUWAKU
100
AcDbCircle
 10
24.89610559449164
 20
9.317398948678719
 30
0.0
 40
2.1
100
AcDbArc
 50
180.0
 51
225.0
  0
ARC
  5
AFA
330
1A
100
AcDbEntity
  8
ZUWAKU
100
AcDbCircle
 10
24.89610559449164
 20
9.317398948678719
 30
0.0
 40
0.7
100
AcDbArc
 50
180.0000000000016
 51
224.9999999999988
  0
LINE
  5
AFB
330
1A
100
AcDbEntity
  8
ZUWAKU
100
AcDbLine
 10
33.12110559449161
 20
11.36249996135637
 30
0.0
 11
33.12110559449161
 21
3.837499961356368
 31
0.0
  0
LINE
  5
AFC
330
1A
100
AcDbEntity
  8
ZUWAKU
100
AcDbLine
 10
34.52110559449164
 20
3.837499961356368
 30
0.0
 11
34.52110559449164
 21
11.36249996135637
 31
0.0
  0
LINE
  5
AFD
330
1A
100
AcDbEntity
  8
ZUWAKU
100
AcDbLine
 10
30.67110559449162
 20
11.36249996135637
 30
0.0
 11
30.67110559449162
 21
5.499999961356366
 31
0.0
  0
LINE
  5
AFE
330
1A
100
AcDbEntity
  8
ZUWAKU
100
AcDbLine
 10
32.07110559449166
 20
4.974999961356367
 30
0.0
 11
32.07110559449166
 21
11.36249996135637
 31
0.0
  0
LINE
  5
AFF
330
1A
100
AcDbEntity
  8
ZUWAKU
100
AcDbLine
 10
39.56331429109525
 20
14.99999996135637
 30
0.0
 11
39.56331429109525
 21
0.3999999613564
 31
0.0
  0
LINE
  5
B00
330
1A
100
AcDbEntity
  8
ZUWAKU
100
AcDbLine
 10
39.76331429109519
 20
14.99999996135637
 30
0.0
 11
39.7633142910953
 21
0.3999999613564
 31
0.0
  0
LINE
  5
B01
330
1A
100
AcDbEntity
  8
ZUWAKU
100
AcDbLine
 10
39.66331429109516
 20
14.99999996135637
 30
0.0
 11
39.66331429109528
 21
0.3999999613564
 31
0.0
  0
LINE
  5
B02
330
1A
100
AcDbEntity
  8
ZUWAKU
100
AcDbLine
 10
28.92110559449162
 20
3.574999961356369
 30
0.0
 11
30.67110559449162
 21
3.574999961356369
 31
0.0
  0
LINE
  5
B03
330
1A
100
AcDbEntity
  8
ZUWAKU
100
AcDbLine
 10
30.14610559449164
 20
4.974999961356367
 30
0.0
 11
29.44610559449166
 21
4.974999961356367
 31
0.0
  0
LINE
  5
B04
330
1A
100
AcDbEntity
  8
ZUWAKU
100
AcDbLine
 10
20.60860559449162
 20
3.574999961356369
 30
0.0
 11
21.48360559449162
 21
3.574999961356369
 31
0.0
  0
LINE
  5
B05
330
1A
100
AcDbEntity
  8
ZUWAKU
100
AcDbLine
 10
17.83817306314955
 20
3.758452977272881
 30
0.0
 11
16.90403812583367
 21
6.716546945439852
 31
0.0
  0
ARC
  5
B06
330
1A
100
AcDbEntity
  8
ZUWAKU
100
AcDbCircle
 10
16.58360559449164
 20
6.637499961356369
 30
0.0
 40
0.2625
100
AcDbArc
 50
90.0
 51
180.0
  0
ARC
  5
B07
330
1A
100
AcDbEntity
  8
ZUWAKU
100
AcDbCircle
 10
16.65372267623599
 20
6.637499961356369
 30
0.0
 40
0.2625
100
AcDbArc
 50
17.52556837372303
 51
90.0
  0
ARC
  5
B08
330
1A
100
AcDbEntity
  8
ZUWAKU
100
AcDbCircle
 10
15.18360559449161
 20
3.837499961356368
 30
0.0
 40
0.2625
100
AcDbArc
 50
180.0
 51
270.0
  0
ARC
  5
B09
330
1A
100
AcDbEntity
  8
ZUWAKU
100
AcDbCircle
 10
13.43360559449161
 20
4.712499961356368
 30
0.0
 40
0.2625
100
AcDbArc
 50
0.0
 51
90.0
  0
ARC
  5
B0A
330
1A
100
AcDbEntity
  8
ZUWAKU
100
AcDbCircle
 10
13.43360559449161
 20
3.837499961356368
 30
0.0
 40
0.2625
100
AcDbArc
 50
270.0
 51
0.0
  0
LINE
  5
B0B
330
1A
100
AcDbEntity
  8
ZUWAKU
100
AcDbLine
 10
13.69610559449166
 20
4.712499961356368
 30
0.0
 11
13.69610559449166
 21
3.837499961356368
 31
0.0
  0
LINE
  5
B0C
330
1A
100
AcDbEntity
  8
ZUWAKU
100
AcDbLine
 10
16.32110559449166
 20
3.837499961356368
 30
0.0
 11
16.32110559449166
 21
6.637499961356369
 31
0.0
  0
ARC
  5
B0D
330
1A
100
AcDbEntity
  8
ZUWAKU
100
AcDbCircle
 10
16.05860559449161
 20
3.837499961356368
 30
0.0
 40
0.2625
100
AcDbArc
 50
270.0
 51
0.0
  0
LINE
  5
B0E
330
1A
100
AcDbEntity
  8
ZUWAKU
100
AcDbLine
 10
15.18360559449161
 20
3.574999961356369
 30
0.0
 11
16.05860559449161
 21
3.574999961356369
 31
0.0
  0
ARC
  5
B0F
330
1A
100
AcDbEntity
  8
ZUWAKU
100
AcDbCircle
 10
16.58360559449164
 20
8.56249996135637
 30
0.0
 40
0.2625
100
AcDbArc
 50
180.0
 51
270.0
  0
LINE
  5
B10
330
1A
100
AcDbEntity
  8
ZUWAKU
100
AcDbLine
 10
16.58360559449164
 20
6.899999961356368
 30
0.0
 11
16.65372267623599
 21
6.899999961356368
 31
0.0
  0
LINE
  5
B11
330
1A
100
AcDbEntity
  8
ZUWAKU
100
AcDbLine
 10
16.65372267623599
 20
8.299999961356367
 30
0.0
 11
16.58360559449164
 21
8.299999961356367
 31
0.0
  0
ARC
  5
B12
330
1A
100
AcDbEntity
  8
ZUWAKU
100
AcDbCircle
 10
16.65372267623599
 20
8.56249996135637
 30
0.0
 40
0.2625
100
AcDbArc
 50
270.0
 51
342.474431626277
  0
ARC
  5
B13
330
1A
100
AcDbEntity
  8
ZUWAKU
100
AcDbCircle
 10
18.08848851274729
 20
3.837499961356368
 30
0.0
 40
0.2625
100
AcDbArc
 50
197.525568373723
 51
270.0
  0
LINE
  5
B14
330
1A
100
AcDbEntity
  8
ZUWAKU
100
AcDbLine
 10
19.18824865214953
 20
3.916546945439855
 30
0.0
 11
18.0250529629127
 21
7.599999961356378
 31
0.0
  0
ARC
  5
B15
330
1A
100
AcDbEntity
  8
ZUWAKU
100
AcDbCircle
 10
18.93793320255179
 20
3.837499961356368
 30
0.0
 40
0.2625
100
AcDbArc
 50
270.0
 51
17.52556837372303
  0
LINE
  5
B16
330
1A
100
AcDbEntity
  8
ZUWAKU
100
AcDbLine
 10
18.08848851274729
 20
3.574999961356369
 30
0.0
 11
18.93793320255179
 21
3.574999961356369
 31
0.0
  0
ARC
  5
B17
330
1A
100
AcDbEntity
  8
ZUWAKU
100
AcDbCircle
 10
20.60860559449162
 20
3.837499961356368
 30
0.0
 40
0.2625
100
AcDbArc
 50
180.0
 51
270.0
  0
ARC
  5
B18
330
1A
100
AcDbEntity
  8
ZUWAKU
100
AcDbCircle
 10
25.07110559449166
 20
4.974999961356367
 30
0.0
 40
1.4
100
AcDbArc
 50
270.0
 51
0.0
  0
ARC
  5
B19
330
1A
100
AcDbEntity
  8
ZUWAKU
100
AcDbCircle
 10
28.92110559449162
 20
4.974999961356367
 30
0.0
 40
1.4
100
AcDbArc
 50
180.0
 51
270.0
  0
LINE
  5
B1A
330
1A
100
AcDbEntity
  8
ZUWAKU
100
AcDbLine
 10
25.85602983498342
 20
7.367525214525781
 30
0.0
 11
24.40113084766102
 21
8.822424201848119
 31
0.0
  0
LINE
  5
B1B
330
1A
100
AcDbEntity
  8
ZUWAKU
100
AcDbLine
 10
23.41118135399989
 20
7.832474708186958
 30
0.0
 11
24.86608034132223
 21
6.377575720864627
 31
0.0
  0
LINE
  5
B1C
330
1A
100
AcDbEntity
  8
ZUWAKU
100
AcDbLine
 10
23.32110559449166
 20
3.574999961356369
 30
0.0
 11
25.07110559449166
 21
3.574999961356369
 31
0.0
  0
LINE
  5
B1D
330
1A
100
AcDbEntity
  8
ZUWAKU
100
AcDbLine
 10
23.32110559449166
 20
4.974999961356367
 30
0.0
 11
24.80860559449161
 21
4.974999961356367
 31
0.0
  0
ARC
  5
B1E
330
1A
100
AcDbEntity
  8
ZUWAKU
100
AcDbCircle
 10
23.32110559449166
 20
4.712499961356368
 30
0.0
 40
0.2625
100
AcDbArc
 50
90.0
 51
180.0
  0
ARC
  5
B1F
330
1A
100
AcDbEntity
  8
ZUWAKU
100
AcDbCircle
 10
21.48360559449162
 20
3.837499961356368
 30
0.0
 40
0.2625
100
AcDbArc
 50
270.0
 51
0.0
  0
ARC
  5
B20
330
1A
100
AcDbEntity
  8
ZUWAKU
100
AcDbCircle
 10
23.32110559449166
 20
3.837499961356368
 30
0.0
 40
0.2625
100
AcDbArc
 50
180.0
 51
270.0
  0
LINE
  5
B21
330
1A
100
AcDbEntity
  8
ZUWAKU
100
AcDbLine
 10
23.05860559449161
 20
3.837499961356368
 30
0.0
 11
23.05860559449161
 21
4.712499961356368
 31
0.0
  0
ARC
  5
B22
330
1A
100
AcDbEntity
  8
ZUWAKU
100
AcDbCircle
 10
24.80860559449161
 20
5.23749996135637
 30
0.0
 40
0.2625
100
AcDbArc
 50
270.0
 51
0.0
  0
ARC
  5
B23
330
1A
100
AcDbEntity
  8
ZUWAKU
100
AcDbCircle
 10
24.37110559449161
 20
5.882600974034041
 30
0.0
 40
0.7
100
AcDbArc
 50
0.0
 51
45.0
  0
LINE
  5
B24
330
1A
100
AcDbEntity
  8
ZUWAKU
100
AcDbLine
 10
25.07110559449166
 20
5.23749996135637
 30
0.0
 11
25.07110559449166
 21
5.882600974034041
 31
0.0
  0
ARC
  5
B25
330
1A
100
AcDbEntity
  8
ZUWAKU
100
AcDbCircle
 10
29.44610559449166
 20
5.499999961356366
 30
0.0
 40
0.5249999999999999
100
AcDbArc
 50
180.0
 51
270.0
  0
ARC
  5
B26
330
1A
100
AcDbEntity
  8
ZUWAKU
100
AcDbCircle
 10
24.37110559449161
 20
5.88260097403402
 30
0.0
 40
2.1
100
AcDbArc
 50
0.0
 51
45.0
  0
LINE
  5
B27
330
1A
100
AcDbEntity
  8
ZUWAKU
100
AcDbLine
 10
26.47110559449163
 20
4.974999961356367
 30
0.0
 11
26.47110559449163
 21
5.882600974034041
 31
0.0
  0
ARC
  5
B28
330
1A
100
AcDbEntity
  8
ZUWAKU
100
AcDbCircle
 10
30.67110559449162
 20
4.974999961356367
 30
0.0
 40
1.4
100
AcDbArc
 50
270.0
 51
0.0
  0
LINE
  5
B29
330
1A
100
AcDbEntity
  8
ZUWAKU
100
AcDbLine
 10
33.38360559449166
 20
3.574999961356369
 30
0.0
 11
34.25860559449166
 21
3.574999961356369
 31
0.0
  0
ARC
  5
B2A
330
1A
100
AcDbEntity
  8
ZUWAKU
100
AcDbCircle
 10
30.14610559449164
 20
5.499999961356366
 30
0.0
 40
0.5249999999999999
100
AcDbArc
 50
270.0
 51
0.0
  0
ARC
  5
B2B
330
1A
100
AcDbEntity
  8
ZUWAKU
100
AcDbCircle
 10
33.38360559449166
 20
3.837499961356368
 30
0.0
 40
0.2625
100
AcDbArc
 50
180.0
 51
270.0
  0
ARC
  5
B2C
330
1A
100
AcDbEntity
  8
ZUWAKU
100
AcDbCircle
 10
34.25860559449166
 20
3.837499961356368
 30
0.0
 40
0.2625
100
AcDbArc
 50
270.0
 51
0.0
  0
LINE
  5
B2D
330
1A
100
AcDbEntity
  8
ZUWAKU
100
AcDbLine
 10
21.48360559449162
 20
11.62499996135637
 30
0.0
 11
20.60860559449162
 21
11.62499996135637
 31
0.0
  0
LINE
  5
B2E
330
1A
100
AcDbEntity
  8
ZUWAKU
100
AcDbLine
 10
13.69610559449166
 20
11.36249996135637
 30
0.0
 11
13.69610559449166
 21
10.48749996135637
 31
0.0
  0
ARC
  5
B2F
330
1A
100
AcDbEntity
  8
ZUWAKU
100
AcDbCircle
 10
13.43360559449161
 20
10.48749996135637
 30
0.0
 40
0.2625
100
AcDbArc
 50
270.0
 51
0.0
  0
ARC
  5
B30
330
1A
100
AcDbEntity
  8
ZUWAKU
100
AcDbCircle
 10
15.18360559449161
 20
11.36249996135637
 30
0.0
 40
0.2625
100
AcDbArc
 50
90.0
 51
180.0
  0
ARC
  5
B31
330
1A
100
AcDbEntity
  8
ZUWAKU
100
AcDbCircle
 10
13.43360559449161
 20
11.36249996135637
 30
0.0
 40
0.2625
100
AcDbArc
 50
0.0
 51
90.0
  0
LINE
  5
B32
330
1A
100
AcDbEntity
  8
ZUWAKU
100
AcDbLine
 10
16.05860559449161
 20
11.62499996135637
 30
0.0
 11
15.18360559449161
 21
11.62499996135637
 31
0.0
  0
ARC
  5
B33
330
1A
100
AcDbEntity
  8
ZUWAKU
100
AcDbCircle
 10
16.05860559449161
 20
11.36249996135637
 30
0.0
 40
0.2625
100
AcDbArc
 50
0.0
 51
90.0
  0
ARC
  5
B34
330
1A
100
AcDbEntity
  8
ZUWAKU
100
AcDbCircle
 10
18.08848851274729
 20
11.36249996135637
 30
0.0
 40
0.2625
100
AcDbArc
 50
90.0
 51
162.474431626277
  0
LINE
  5
B35
330
1A
100
AcDbEntity
  8
ZUWAKU
100
AcDbLine
 10
19.18824865214953
 20
11.28345297727288
 30
0.0
 11
18.65742883558062
 21
9.602523558138081
 31
0.0
  0
ARC
  5
B36
330
1A
100
AcDbEntity
  8
ZUWAKU
100
AcDbCircle
 10
18.93793320255179
 20
11.36249996135637
 30
0.0
 40
0.2625
100
AcDbArc
 50
342.474431626277
 51
90.0
  0
LINE
  5
B37
330
1A
100
AcDbEntity
  8
ZUWAKU
100
AcDbLine
 10
18.08848851274729
 20
11.62499996135637
 30
0.0
 11
18.93793320255179
 21
11.62499996135637
 31
0.0
  0
ARC
  5
B38
330
1A
100
AcDbEntity
  8
ZUWAKU
100
AcDbCircle
 10
20.60860559449162
 20
11.36249996135637
 30
0.0
 40
0.2625
100
AcDbArc
 50
90.0
 51
180.0
  0
LINE
  5
B39
330
1A
100
AcDbEntity
  8
ZUWAKU
100
AcDbLine
 10
25.94610559449166
 20
10.22499996135637
 30
0.0
 11
24.45860559449164
 21
10.22499996135637
 31
0.0
  0
LINE
  5
B3A
330
1A
100
AcDbEntity
  8
ZUWAKU
100
AcDbLine
 10
24.19610559449166
 20
11.62499996135637
 30
0.0
 11
25.94610559449166
 21
11.62499996135637
 31
0.0
  0
ARC
  5
B3B
330
1A
100
AcDbEntity
  8
ZUWAKU
100
AcDbCircle
 10
24.19610559449166
 20
10.22499996135637
 30
0.0
 40
1.4
100
AcDbArc
 50
90.0
 51
180.0
  0
LINE
  5
B3C
330
1A
100
AcDbEntity
  8
ZUWAKU
100
AcDbLine
 10
22.79610559449162
 20
10.22499996135637
 30
0.0
 11
22.79610559449162
 21
9.317398948678697
 31
0.0
  0
ARC
  5
B3D
330
1A
100
AcDbEntity
  8
ZUWAKU
100
AcDbCircle
 10
21.48360559449162
 20
11.36249996135637
 30
0.0
 40
0.2625
100
AcDbArc
 50
0.0
 51
90.0
  0
LINE
  5
B3E
330
1A
100
AcDbEntity
  8
ZUWAKU
100
AcDbLine
 10
24.19610559449166
 20
9.962499961356368
 30
0.0
 11
24.19610559449166
 21
9.317398948678697
 31
0.0
  0
ARC
  5
B3F
330
1A
100
AcDbEntity
  8
ZUWAKU
100
AcDbCircle
 10
24.45860559449164
 20
9.962499961356368
 30
0.0
 40
0.2625
100
AcDbArc
 50
90.0
 51
180.0
  0
LINE
  5
B40
330
1A
100
AcDbEntity
  8
ZUWAKU
100
AcDbLine
 10
26.20860559449164
 20
11.36249996135637
 30
0.0
 11
26.20860559449164
 21
10.48749996135637
 31
0.0
  0
ARC
  5
B41
330
1A
100
AcDbEntity
  8
ZUWAKU
100
AcDbCircle
 10
25.94610559449166
 20
10.48749996135637
 30
0.0
 40
0.2625
100
AcDbArc
 50
270.0
 51
0.0
  0
ARC
  5
B42
330
1A
100
AcDbEntity
  8
ZUWAKU
100
AcDbCircle
 10
25.94610559449166
 20
11.36249996135637
 30
0.0
 40
0.2625
100
AcDbArc
 50
0.0
 51
90.0
  0
LINE
  5
B43
330
1A
100
AcDbEntity
  8
ZUWAKU
100
AcDbLine
 10
28.65860559449163
 20
11.62499996135637
 30
0.0
 11
27.78360559449163
 21
11.62499996135637
 31
0.0
  0
ARC
  5
B44
330
1A
100
AcDbEntity
  8
ZUWAKU
100
AcDbCircle
 10
27.78360559449163
 20
11.36249996135637
 30
0.0
 40
0.2625
100
AcDbArc
 50
90.0
 51
180.0
  0
ARC
  5
B45
330
1A
100
AcDbEntity
  8
ZUWAKU
100
AcDbCircle
 10
28.65860559449163
 20
11.36249996135637
 30
0.0
 40
0.2625
100
AcDbArc
 50
0.0
 51
90.0
  0
LINE
  5
B46
330
1A
100
AcDbEntity
  8
ZUWAKU
100
AcDbLine
 10
34.25860559449166
 20
11.62499996135637
 30
0.0
 11
33.38360559449166
 21
11.62499996135637
 31
0.0
  0
ARC
  5
B47
330
1A
100
AcDbEntity
  8
ZUWAKU
100
AcDbCircle
 10
30.93360559449161
 20
11.36249996135637
 30
0.0
 40
0.2625
100
AcDbArc
 50
90.0
 51
180.0
  0
LINE
  5
B48
330
1A
100
AcDbEntity
  8
ZUWAKU
100
AcDbLine
 10
31.80860559449161
 20
11.62499996135637
 30
0.0
 11
30.93360559449161
 21
11.62499996135637
 31
0.0
  0
ARC
  5
B49
330
1A
100
AcDbEntity
  8
ZUWAKU
100
AcDbCircle
 10
31.80860559449161
 20
11.36249996135637
 30
0.0
 40
0.2625
100
AcDbArc
 50
0.0
 51
90.0
  0
ARC
  5
B4A
330
1A
100
AcDbEntity
  8
ZUWAKU
100
AcDbCircle
 10
33.38360559449166
 20
11.36249996135637
 30
0.0
 40
0.2625
100
AcDbArc
 50
90.0
 51
180.0
  0
ARC
  5
B4B
330
1A
100
AcDbEntity
  8
ZUWAKU
100
AcDbCircle
 10
34.25860559449166
 20
11.36249996135637
 30
0.0
 40
0.2625
100
AcDbArc
 50
0.0
 51
90.0
  0
LINE
  5
B4C
330
1A
100
AcDbEntity
  8
ZUWAKU
100
AcDbLine
 10
104.2233001621349
 20
14.99999996135637
 30
0.0
 11
104.2233001621351
 21
0.3999999613564
 31
0.0
  0
LINE
  5
B4D
330
1A
100
AcDbEntity
  8
ZUWAKU
100
AcDbLine
 10
104.323300162135
 20
14.99999996135637
 30
0.0
 11
104.3233001621351
 21
0.3999999613564
 31
0.0
  0
LINE
  5
B4E
330
1A
100
AcDbEntity
  8
ZUWAKU
100
AcDbLine
 10
104.123300162135
 20
14.99999996135637
 30
0.0
 11
104.123300162135
 21
0.3999999613564
 31
0.0
  0
TEXT
  5
B4F
330
1A
100
AcDbEntity
  8
moji
100
AcDbText
 10
119.9136008575266
 20
9.002460490060059
 30
0.0
 40
2.8
  1
ブラケット正面打（吊）ワンタッチ自在式
 41
0.9
  7
ｽﾀｲﾙ1
100
AcDbText
  0
TEXT
  5
B50
330
1A
100
AcDbEntity
  8
ZUWAKU
100
AcDbText
 10
104.8620226732398
 20
4.827678230549175
 30
0.0
 40
2.0
  1
サイズ
 41
0.9
  7
ｽﾀｲﾙ1
100
AcDbText
  0
TEXT
  5
B51
330
1A
100
AcDbEntity
  8
moji
100
AcDbText
 10
119.9136008575266
 20
1.602460490060077
 30
0.0
 40
2.8
  1
Σ９０－４－１０～４５
 41
0.9
  7
ｽﾀｲﾙ1
100
AcDbText
  0
TEXT
  5
B52
330
1A
100
AcDbEntity
  8
ZUWAKU
100
AcDbText
 10
104.8620226732397
 20
12.02767823054916
 30
0.0
 40
2.0
  1
品名
 41
0.9
  7
ｽﾀｲﾙ1
100
AcDbText
  0
TEXT
  5
B53
330
1A
100
AcDbEntity
  8
ZUWAKU
100
AcDbText
 10
329.1019683607523
 20
9.002460490060059
 30
0.0
 40
2.8
  1
　　．　　．　　
 41
0.9
  7
ｽﾀｲﾙ1
100
AcDbText
  0
LINE
  5
B54
330
1A
100
AcDbEntity
  8
ZUWAKU
100
AcDbLine
 10
324.4086007722032
 20
7.799999961356383
 30
0.0
 11
348.6245047913717
 21
7.799999961356383
 31
0.0
  0
LINE
  5
B55
330
1A
100
AcDbEntity
  8
ZUWAKU
100
AcDbLine
 10
324.4086007722033
 20
7.699999961356385
 30
0.0
 11
348.6245047913717
 21
7.699999961356383
 31
0.0
  0
LINE
  5
B56
330
1A
100
AcDbEntity
  8
ZUWAKU
100
AcDbLine
 10
324.4086007722032
 20
7.599999961356382
 30
0.0
 11
348.6245047913717
 21
7.599999961356383
 31
0.0
  0
LINE
  5
B57
330
1A
100
AcDbEntity
  8
ZUWAKU
100
AcDbLine
 10
252.5995892661715
 20
7.799999961356383
 30
0.0
 11
276.2634774001573
 21
7.799999961356383
 31
0.0
  0
LINE
  5
B58
330
1A
100
AcDbEntity
  8
ZUWAKU
100
AcDbLine
 10
252.5995892661715
 20
7.699999961356383
 30
0.0
 11
276.2634774001573
 21
7.699999961356383
 31
0.0
  0
LINE
  5
B59
330
1A
100
AcDbEntity
  8
ZUWAKU
100
AcDbLine
 10
252.5995892661715
 20
7.599999961356385
 30
0.0
 11
276.2634774001573
 21
7.599999961356385
 31
0.0
  0
LINE
  5
B5A
330
1A
100
AcDbEntity
  8
ZUWAKU
100
AcDbLine
 10
252.3995892661716
 20
14.99999996135637
 30
0.0
 11
252.3995892661716
 21
0.3999999613564
 31
0.0
  0
LINE
  5
B5B
330
1A
100
AcDbEntity
  8
ZUWAKU
100
AcDbLine
 10
252.5995892661715
 20
14.99999996135637
 30
0.0
 11
252.5995892661716
 21
0.3999999613564
 31
0.0
  0
LINE
  5
B5C
330
1A
100
AcDbEntity
  8
ZUWAKU
100
AcDbLine
 10
252.4995892661715
 20
14.99999996135637
 30
0.0
 11
252.4995892661716
 21
0.3999999613564
 31
0.0
  0
TEXT
  5
B5D
330
1A
100
AcDbEntity
  8
moji
100
AcDbText
 10
264.0204535032575
 20
9.002460490060059
 30
0.0
 40
2.8
  1
Ａ３
 41
0.9
  7
ｽﾀｲﾙ1
100
AcDbText
  0
LINE
  5
B5E
330
1A
100
AcDbEntity
  8
ZUWAKU
100
AcDbLine
 10
223.7121815025968
 20
14.99999996135637
 30
0.0
 11
223.7121815025968
 21
0.3999999613564
 31
0.0
  0
LINE
  5
B5F
330
1A
100
AcDbEntity
  8
ZUWAKU
100
AcDbLine
 10
223.9121815025967
 20
14.99999996135637
 30
0.0
 11
223.9121815025968
 21
0.3999999613564
 31
0.0
  0
LINE
  5
B60
330
1A
100
AcDbEntity
  8
ZUWAKU
100
AcDbLine
 10
223.8121815025967
 20
14.99999996135637
 30
0.0
 11
223.8121815025968
 21
0.3999999613564
 31
0.0
  0
TEXT
  5
B61
330
1A
100
AcDbEntity
  8
moji
100
AcDbText
 10
231.2836386780954
 20
5.971308822186359
 30
0.0
 40
2.8
  1
ＬＫ０２Ｔ
 41
0.9
  7
ｽﾀｲﾙ1
100
AcDbText
  0
TEXT
  5
B63
330
1A
100
AcDbEntity
  8
ZUWAKU
100
AcDbText
 10
253.3383117772764
 20
4.827678230549175
 30
0.0
 40
2.0
  1
縮尺
 41
0.9
  7
ｽﾀｲﾙ1
100
AcDbText
  0
TEXT
  5
B64
330
1A
100
AcDbEntity
  8
moji
100
AcDbText
 10
264.0204535032575
 20
1.602460490060077
 30
0.0
 40
2.8
  1
１/１
 41
0.9
  7
ｽﾀｲﾙ1
100
AcDbText
  0
TEXT
  5
B65
330
1A
100
AcDbEntity
  8
ZUWAKU
100
AcDbText
 10
224.6509040137015
 20
12.02767823054916
 30
0.0
 40
2.0
  1
品番
 41
0.9
  7
ｽﾀｲﾙ1
100
AcDbText
  0
TEXT
  5
B66
330
1A
100
AcDbEntity
  8
ZUWAKU
100
AcDbText
 10
253.3383117772763
 20
12.02767823054916
 30
0.0
 40
2.0
  1
用紙
 41
0.9
  7
ｽﾀｲﾙ1
100
AcDbText
  0
LINE
  5
B67
330
1A
100
AcDbEntity
  8
ZUWAKU
100
AcDbLine
 10
276.2634774001573
 20
14.99999996135637
 30
0.0
 11
276.2634774001573
 21
0.3999999613564
 31
0.0
  0
LINE
  5
B68
330
1A
100
AcDbEntity
  8
ZUWAKU
100
AcDbLine
 10
276.4634774001572
 20
14.99999996135637
 30
0.0
 11
276.4634774001573
 21
0.3999999613564
 31
0.0
  0
LINE
  5
B69
330
1A
100
AcDbEntity
  8
ZUWAKU
100
AcDbLine
 10
276.3634774001572
 20
14.99999996135637
 30
0.0
 11
276.3634774001573
 21
0.3999999613564
 31
0.0
  0
LINE
  5
B6A
330
1A
100
AcDbEntity
  8
ZUWAKU
100
AcDbLine
 10
324.2086007722033
 20
14.99999996135637
 30
0.0
 11
324.2086007722033
 21
0.3999999613564
 31
0.0
  0
LINE
  5
B6B
330
1A
100
AcDbEntity
  8
ZUWAKU
100
AcDbLine
 10
324.4086007722033
 20
14.99999996135637
 30
0.0
 11
324.4086007722034
 21
0.3999999613564
 31
0.0
  0
LINE
  5
B6C
330
1A
100
AcDbEntity
  8
ZUWAKU
100
AcDbLine
 10
324.3086007722033
 20
14.99999996135637
 30
0.0
 11
324.3086007722034
 21
0.3999999613564
 31
0.0
  0
TEXT
  5
B6D
330
1A
100
AcDbEntity
  8
ZUWAKU
100
AcDbText
 10
325.1473232833081
 20
12.02767823054916
 30
0.0
 40
2.0
  1
DATE
 41
0.9
  7
ｽﾀｲﾙ1
100
AcDbText
  0
TEXT
  5
B6E
330
1A
100
AcDbEntity
  8
ZUWAKU
100
AcDbText
 10
354.264041613223
 20
8.776919629199767
 30
0.0
 40
3.0
  1
積水化学工業株式会社
 41
0.9
  7
ｽﾀｲﾙ1
100
AcDbText
  0
LINE
  5
B6F
330
1A
100
AcDbEntity
  8
ZUWAKU
100
AcDbLine
 10
348.9245047913717
 20
14.99999996135637
 30
0.0
 11
348.9245047913718
 21
0.3999999613564
 31
0.0
  0
LINE
  5
B70
330
1A
100
AcDbEntity
  8
ZUWAKU
100
AcDbLine
 10
348.8245047913716
 20
14.99999996135637
 30
0.0
 11
348.8245047913717
 21
0.3999999613564
 31
0.0
  0
LINE
  5
B71
330
1A
100
AcDbEntity
  8
ZUWAKU
100
AcDbLine
 10
348.7245047913717
 20
14.99999996135637
 30
0.0
 11
348.7245047913717
 21
0.3999999613564
 31
0.0
  0
LINE
  5
B72
330
1A
100
AcDbEntity
  8
ZUWAKU
100
AcDbLine
 10
348.6245047913717
 20
14.99999996135637
 30
0.0
 11
348.6245047913717
 21
0.3999999613564
 31
0.0
  0
TEXT
  5
B73
330
1A
100
AcDbEntity
  8
ZUWAKU
100
AcDbText
 10
354.264041613223
 20
3.324420118283399
 30
0.0
 40
3.0
  1
建材事業部
 41
0.9
  7
ｽﾀｲﾙ1
100
AcDbText
  0
LINE
  5
1A19
330
1A
100
AcDbEntity
  8
SUNPOU
100
AcDbLine
 10
206.4142256217278
 20
82.65572319715756
 30
0.0
 11
217.8420391488099
 21
54.08618937945239
 31
0.0
  0
TEXT
  5
1A1A
330
1A
100
AcDbEntity
  8
SUNPOU
100
AcDbText
 10
200.2787342572502
 20
155.4540066843123
 30
0.0
 40
3.0
  1
（スライド幅）
100
AcDbText
  0
DIMENSION
  5
1A1B
330
1A
100
AcDbEntity
  8
SUNPOU
100
AcDbDimension
  2
*D1
 10
220.3512346249633
 20
88.23052679886872
 30
0.0
 11
213.0162687671184
 21
113.2993974505934
 31
0.0
 70
    33
 71
     5
 42
51.99999999571736
  3
STANDARD
100
AcDbAlignedDimension
 13
187.1019104516597
 23
130.9365111187166
 33
0.0
 14
206.4142256217278
 24
82.65572319715756
 34
0.0
1001
ACAD
1000
DSTYLE
1002
{
1070
    41
1040
3.0
1070
    42
1040
3.0
1070
    43
1040
7.0
1070
    44
1040
1.5
1070
    73
1070
     0
1070
    74
1070
     0
1070
    77
1070
     3
1070
   140
1040
3.0
1070
   141
1040
3.0
1070
   147
1040
1.0
1070
   172
1070
     1
1070
   173
1070
     1
1070
   176
1070
   256
1070
   177
1070
   256
1070
   178
1070
   256
1070
   271
1070
     0
1070
   272
1070
     0
1070
   341
1005
B2
1070
     6
1000
OPEN
1070
     7
1000
OPEN
1002
}
  0
DIMENSION
  5
1A1C
330
1A
100
AcDbEntity
  8
SUNPOU
100
AcDbDimension
  2
*D2
 10
212.9135624577139
 20
85.25545793174642
 30
0.0
 11
208.549722010403
 21
102.8965150576916
 31
0.0
 70
    33
 71
     5
 42
35.99999999835808
  3
STANDARD
100
AcDbAlignedDimension
 13
193.0441612727278
 23
116.0808840671576
 33
0.0
 14
206.4142256217278
 24
82.65572319715756
 34
0.0
1001
ACAD
1000
DSTYLE
1002
{
1070
    41
1040
3.0
1070
    42
1040
3.0
1070
    43
1040
7.0
1070
    44
1040
1.5
1070
    73
1070
     0
1070
    74
1070
     0
1070
    77
1070
     3
1070
   140
1040
3.0
1070
   141
1040
3.0
1070
   147
1040
1.0
1070
   172
1070
     1
1070
   173
1070
     1
1070
   176
1070
   256
1070
   177
1070
   256
1070
   178
1070
   256
1070
   271
1070
     0
1070
   272
1070
     0
1070
   341
1005
B2
1070
     6
1000
OPEN
1070
     7
1000
OPEN
1002
}
  0
LINE
  5
1A1D
330
1A
100
AcDbEntity
  8
CENTER L
100
AcDbLine
 10
210.6852184002332
 20
90.82631807503157
 30
0.0
 11
196.5723726969647
 21
85.18117979826144
 31
0.0
  0
ARC
  5
1A1E
330
1A
100
AcDbEntity
  8
SEIHIN
  6
DASHED
 62
     2
100
AcDbCircle
 10
216.9952886517278
 20
118.1235327871576
 30
0.0
 40
10.00000000188135
100
AcDbArc
 50
49.06745394060491
 51
170.7918456273464
  0
DIMENSION
  5
1A1F
330
1A
100
AcDbEntity
  8
SUNPOU
100
AcDbDimension
  2
*D3
 10
224.2845342287165
 20
149.8707080137974
 30
0.0
 11
206.7845342287165
 21
152.3707080137974
 31
0.0
 70
    32
 71
     5
 42
35.0
  3
STANDARD
100
AcDbAlignedDimension
 13
189.2845342287165
 23
125.4799516859828
 33
0.0
 14
224.2845342287165
 24
125.4799516859828
 34
0.0
100
AcDbRotatedDimension
1001
ACAD
1000
DSTYLE
1002
{
1070
    41
1040
3.0
1070
    42
1040
3.0
1070
    43
1040
7.0
1070
    44
1040
1.5
1070
    73
1070
     0
1070
    74
1070
     0
1070
    77
1070
     3
1070
   140
1040
3.0
1070
   141
1040
3.0
1070
   147
1040
1.0
1070
   172
1070
     1
1070
   173
1070
     1
1070
   176
1070
   256
1070
   177
1070
   256
1070
   178
1070
   256
1070
   271
1070
     0
1070
   272
1070
     0
1070
   341
1005
B2
1070
     6
1000
OPEN
1070
     7
1000
OPEN
1002
}
  0
LINE
  5
1A20
330
1A
100
AcDbEntity
  8
CENTER L
100
AcDbLine
 10
201.2197255813002
 20
227.2528834843631
 30
0.0
 11
209.264327022023
 21
227.2528834843631
 31
0.0
  0
LINE
  5
1A21
330
1A
100
AcDbEntity
  8
CENTER L
100
AcDbLine
 10
201.2197255813002
 20
185.2528835043631
 30
0.0
 11
209.264327022023
 21
185.2528835043631
 31
0.0
  0
LINE
  5
1A22
330
1A
100
AcDbEntity
  8
CENTER L
100
AcDbLine
 10
48.79528868872781
 20
206.2528834943631
 30
0.0
 11
213.4142256217278
 21
206.2528834943631
 31
0.0
  0
DIMENSION
  5
1A23
330
1A
100
AcDbEntity
  8
SUNPOU
100
AcDbDimension
  2
*D4
 10
224.8458562553886
 20
179.752883864363
 30
0.0
 11
222.3458562553886
 21
206.2528838843631
 31
0.0
 70
    32
 71
     5
 42
53.00000004000003
  3
STANDARD
100
AcDbAlignedDimension
 13
203.4142260617279
 23
232.7528839043631
 33
0.0
 14
203.4142260617279
 24
179.752883864363
 34
0.0
 50
90.0
100
AcDbRotatedDimension
1001
ACAD
1000
DSTYLE
1002
{
1070
    41
1040
3.0
1070
    42
1040
3.0
1070
    43
1040
7.0
1070
    44
1040
1.5
1070
    73
1070
     0
1070
    74
1070
     0
1070
    77
1070
     3
1070
   140
1040
3.0
1070
   141
1040
3.0
1070
   147
1040
1.0
1070
   172
1070
     1
1070
   173
1070
     1
1070
   176
1070
   256
1070
   177
1070
   256
1070
   178
1070
   256
1070
   271
1070
     0
1070
   272
1070
     0
1070
   341
1005
B2
1070
     6
1000
OPEN
1070
     7
1000
OPEN
1002
}
  0
DIMENSION
  5
1A24
330
1A
100
AcDbEntity
  8
SUNPOU
100
AcDbDimension
  2
*D5
 10
189.2845342287165
 20
149.8707080137974
 30
0.0
 11
122.5399114587221
 21
152.3707080137974
 31
0.0
 70
    32
 71
     5
 42
133.4892455399888
  3
STANDARD
100
AcDbAlignedDimension
 13
55.79528868872771
 23
105.1236327871575
 33
0.0
 14
189.2845342287165
 24
125.4799516859828
 34
0.0
100
AcDbRotatedDimension
1001
ACAD
1000
DSTYLE
1002
{
1070
    41
1040
3.0
1070
    42
1040
3.0
1070
    43
1040
7.0
1070
    44
1040
1.5
1070
    73
1070
     0
1070
    74
1070
     0
1070
    77
1070
     3
1070
   140
1040
3.0
1070
   141
1040
3.0
1070
   147
1040
1.0
1070
   172
1070
     1
1070
   173
1070
     1
1070
   176
1070
   256
1070
   177
1070
   256
1070
   178
1070
   256
1070
   271
1070
     0
1070
   272
1070
     0
1070
   341
1005
B2
1070
     6
1000
OPEN
1070
     7
1000
OPEN
1002
}
  0
DIMENSION
  5
1A25
330
1A
100
AcDbEntity
  8
SUNPOU
100
AcDbDimension
  2
*D6
 10
189.2845342287165
 20
137.9375664017534
 30
0.0
 11
184.0399114587222
 21
140.4375664017534
 31
0.0
 70
    32
 71
     5
 42
10.48924553998862
  3
STANDARD
100
AcDbAlignedDimension
 13
178.7952886887279
 23
89.42363278715754
 33
0.0
 14
189.2845342287165
 24
125.4799516859828
 34
0.0
100
AcDbRotatedDimension
1001
ACAD
1000
DSTYLE
1002
{
1070
    41
1040
3.0
1070
    42
1040
3.0
1070
    43
1040
7.0
1070
    44
1040
1.5
1070
    73
1070
     0
1070
    74
1070
     0
1070
    77
1070
     3
1070
   140
1040
3.0
1070
   141
1040
3.0
1070
   147
1040
1.0
1070
   172
1070
     1
1070
   173
1070
     1
1070
   176
1070
   256
1070
   177
1070
   256
1070
   178
1070
   256
1070
   271
1070
     0
1070
   272
1070
     0
1070
   341
1005
B2
1070
     6
1000
OPEN
1070
     7
1000
OPEN
1002
}
  0
ARC
  5
1A26
330
1A
100
AcDbEntity
  8
SEIHIN
100
AcDbCircle
 10
181.9952886487278
 20
118.1235327871576
 30
0.0
 40
9.999999998501366
100
AcDbArc
 50
49.06745394811135
 51
170.791845561619
  0
DIMENSION
  5
1A27
330
1A
100
AcDbEntity
  8
SUNPOU
100
AcDbDimension
  2
*D7
 10
33.7378053425534
 20
82.6557231971576
 30
0.0
 11
31.23780534255339
 21
94.88967799215757
 31
0.0
 70
    32
 71
     5
 42
24.46790958999995
  3
STANDARD
100
AcDbAlignedDimension
 13
57.29528868872779
 23
107.1236327871575
 33
0.0
 14
206.4142256217278
 24
82.65572319715756
 34
0.0
 50
90.0
100
AcDbRotatedDimension
1001
ACAD
1000
DSTYLE
1002
{
1070
    41
1040
3.0
1070
    42
1040
3.0
1070
    43
1040
7.0
1070
    44
1040
1.5
1070
    73
1070
     0
1070
    74
1070
     0
1070
    77
1070
     3
1070
   140
1040
3.0
1070
   141
1040
3.0
1070
   147
1040
1.0
1070
   172
1070
     1
1070
   173
1070
     1
1070
   176
1070
   256
1070
   177
1070
   256
1070
   178
1070
   256
1070
   271
1070
     0
1070
   272
1070
     0
1070
   341
1005
B2
1070
     6
1000
OPEN
1070
     7
1000
OPEN
1002
}
  0
LINE
  5
1A28
330
1A
100
AcDbEntity
  8
SEIHIN
  6
Continuous
 62
     3
100
AcDbLine
 10
82.99195421445046
 20
78.13726112877086
 30
0.0
 11
75.51918868872781
 21
91.23963278715752
 31
0.0
  0
LINE
  5
1A29
330
1A
100
AcDbEntity
  8
SEIHIN
  6
Continuous
 62
     3
100
AcDbLine
 10
81.23688868872779
 20
72.51263278715751
 30
0.0
 11
73.70658868872783
 21
90.40123278715754
 31
0.0
  0
LINE
  5
1A2A
330
1A
100
AcDbEntity
  8
SEIHIN
  6
Continuous
 62
     3
100
AcDbLine
 10
69.5504886887278
 20
94.07523278715752
 30
0.0
 11
79.04008868872779
 21
71.27193278715754
 31
0.0
  0
LINE
  5
1A2B
330
1A
100
AcDbEntity
  8
SEIHIN
  6
Continuous
 62
     3
100
AcDbLine
 10
84.88741966110287
 20
79.89475219518437
 30
0.0
 11
73.64048868872783
 21
100.1277327871575
 31
0.0
  0
LINE
  5
1A2C
330
1A
100
AcDbEntity
  8
SEIHIN
  6
Continuous
 62
     3
100
AcDbLine
 10
58.79528868872779
 20
105.6236327871575
 30
0.0
 11
58.79528868872779
 21
102.7236327871575
 31
0.0
  0
LINE
  5
1A2D
330
1A
100
AcDbEntity
  8
SEIHIN
  6
Continuous
 62
     3
100
AcDbLine
 10
55.79528868872779
 20
105.6236327871575
 30
0.0
 11
55.79528868872779
 21
100.2236327871575
 31
0.0
  0
LINE
  5
1A2E
330
1A
100
AcDbEntity
  8
SEIHIN
  6
Continuous
 62
     3
100
AcDbLine
 10
64.9059886887278
 20
97.2236327871575
 30
0.0
 11
58.79528868872779
 21
97.2236327871575
 31
0.0
  0
ARC
  5
1A2F
330
1A
100
AcDbEntity
  8
SEIHIN
  6
Continuous
 62
     3
100
AcDbCircle
 10
59.79528868872779
 20
102.7236327871575
 30
0.0
 40
1.0
100
AcDbArc
 50
180.0
 51
270.0
  0
ARC
  5
1A30
330
1A
100
AcDbEntity
  8
SEIHIN
  6
Continuous
 62
     3
100
AcDbCircle
 10
58.79528868872779
 20
100.2236327871575
 30
0.0
 40
3.0
100
AcDbArc
 50
180.0
 51
270.0
  0
LINE
  5
1A31
330
1A
100
AcDbEntity
  8
SEIHIN
  6
Continuous
 62
     3
100
AcDbLine
 10
55.79528868872779
 20
103.1235327871575
 30
0.0
 11
58.79528868872779
 21
103.1235327871575
 31
0.0
  0
ARC
  5
1A32
330
1A
100
AcDbEntity
  8
SEIHIN
  6
Continuous
 62
     3
100
AcDbCircle
 10
74.63548868872778
 20
90.77153278715753
 30
0.0
 40
1.000005
100
AcDbArc
 50
27.91037699999919
 51
201.7343789999998
  0
LINE
  5
1A33
330
1A
100
AcDbEntity
  8
SEIHIN
  6
Continuous
 62
     3
100
AcDbLine
 10
70.98938868872779
 20
101.7236327871575
 30
0.0
 11
59.79528868872779
 21
101.7236327871575
 31
0.0
  0
ARC
  5
1A34
330
1A
100
AcDbEntity
  8
SEIHIN
  6
Continuous
 62
     3
100
AcDbCircle
 10
64.9059886887278
 20
92.2236327871575
 30
0.0
 40
4.99999
100
AcDbArc
 50
21.73544399999916
 51
90.0
  0
ARC
  5
1A35
330
1A
100
AcDbEntity
  8
SEIHIN
  6
Continuous
 62
     3
100
AcDbCircle
 10
70.98938868872779
 20
98.7236327871575
 30
0.0
 40
2.999986
100
AcDbArc
 50
27.90700099999931
 51
90.0
  0
ARC
  5
1A36
330
1A
100
AcDbEntity
  8
SEIHIN
  6
Continuous
 62
     3
100
AcDbCircle
 10
57.29528868872779
 20
105.6236327871575
 30
0.0
 40
1.5
100
AcDbArc
 50
0.0
 51
180.0
  0
LINE
  5
1A37
330
1A
100
AcDbEntity
  8
SEIHIN
100
AcDbLine
 10
126.6151280187278
 20
113.4096579771576
 30
0.0
 11
171.2589097287278
 21
118.8912251071575
 31
0.0
  0
LINE
  5
1A38
330
1A
100
AcDbEntity
  8
SEIHIN
100
AcDbLine
 10
128.4241612587278
 20
107.5867203771575
 30
0.0
 11
171.9901255487278
 21
112.9359481671576
 31
0.0
  0
LINE
  5
1A39
330
1A
100
AcDbEntity
  8
SEIHIN
  6
Continuous
 62
     3
100
AcDbLine
 10
111.6952886907278
 20
68.12359026849441
 30
0.0
 11
149.5631886887278
 21
68.12353278715753
 31
0.0
  0
LINE
  5
1A3A
330
1A
100
AcDbEntity
  8
SEIHIN
  6
Continuous
 62
     3
100
AcDbLine
 10
111.6952886907278
 20
70.6235892407426
 30
0.0
 11
147.5688886887278
 21
70.62353278715753
 31
0.0
  0
LINE
  5
1A3B
330
1A
100
AcDbEntity
  8
SEIHIN
  6
Continuous
 62
     3
100
AcDbLine
 10
111.6952886907278
 20
76.62353278715749
 30
0.0
 11
149.9392886887278
 21
76.6235327871575
 31
0.0
  0
LINE
  5
1A3C
330
1A
100
AcDbEntity
  8
SEIHIN
  6
Continuous
 62
     3
100
AcDbLine
 10
142.4406886887278
 20
79.1235327871575
 30
0.0
 11
111.6952886907278
 21
79.1235327871575
 31
0.0
  0
LINE
  5
1A3D
330
1A
100
AcDbEntity
  8
SEIHIN
100
AcDbLine
 10
111.6952886907278
 20
65.9299291371575
 30
0.0
 11
111.6952886907278
 21
87.24075300615752
 31
0.0
  0
LINE
  5
1A3E
330
1A
100
AcDbEntity
  8
SEIHIN
100
AcDbLine
 10
92.29528868872779
 20
85.1235327871575
 30
0.0
 11
92.29527453872777
 21
79.12353042915751
 31
0.0
  0
LINE
  5
1A3F
330
1A
100
AcDbEntity
  8
SEIHIN
100
AcDbLine
 10
91.29528868872779
 20
85.1235327871575
 30
0.0
 11
91.29527453872777
 21
79.1235327871575
 31
0.0
  0
LINE
  5
1A40
330
1A
100
AcDbEntity
  8
SEIHIN
100
AcDbLine
 10
90.66020001872778
 20
84.92992678115752
 30
0.0
 11
90.66018388872777
 21
78.09180532715752
 31
0.0
  0
LINE
  5
1A41
330
1A
100
AcDbEntity
  8
SEIHIN
100
AcDbLine
 10
86.69528868872777
 20
65.9299291371575
 30
0.0
 11
86.69528868872777
 21
84.92992913915751
 31
0.0
  0
LINE
  5
1A42
330
1A
100
AcDbEntity
  8
SEIHIN
100
AcDbLine
 10
92.66020353872779
 20
86.4235558281575
 30
0.0
 11
92.66018388872777
 21
78.09180532715752
 31
0.0
  0
LINE
  5
1A43
330
1A
100
AcDbEntity
  8
SEIHIN
100
AcDbLine
 10
86.69528868872777
 20
65.9299291371575
 30
0.0
 11
111.6952886907278
 21
65.9299291371575
 31
0.0
  0
LINE
  5
1A44
330
1A
100
AcDbEntity
  8
SEIHIN
100
AcDbLine
 10
90.6601863224026
 20
79.12353278715752
 30
0.0
 11
92.66018631872777
 21
79.1235327871575
 31
0.0
  0
LINE
  5
1A45
330
1A
100
AcDbEntity
  8
SEIHIN
100
AcDbLine
 10
90.66018388872777
 20
78.09180532715752
 30
0.0
 11
92.66018388872777
 21
78.09180532715752
 31
0.0
  0
ARC
  5
1A46
330
1A
100
AcDbEntity
  8
SEIHIN
  6
Continuous
 62
     3
100
AcDbCircle
 10
83.68458868872779
 20
73.12363278715753
 30
0.0
 40
5.000009
100
AcDbArc
 50
201.7365079999997
 51
270.0
  0
LINE
  5
1A47
330
1A
100
AcDbEntity
  8
SEIHIN
  6
Continuous
 62
     3
100
AcDbLine
 10
83.68458868872779
 20
68.12363278715753
 30
0.0
 11
86.69528868872777
 21
68.12362821708472
 31
0.0
  0
ARC
  5
1A48
330
1A
100
AcDbEntity
  8
SEIHIN
  6
Continuous
 62
     3
100
AcDbCircle
 10
85.59790827342322
 20
79.6235327871575
 30
0.0
 40
3.0
100
AcDbArc
 50
209.6977057516304
 51
270.0
  0
LINE
  5
1A49
330
1A
100
AcDbEntity
  8
SEIHIN
  6
Continuous
 62
     3
100
AcDbLine
 10
84.02358868872778
 20
70.62363278715753
 30
0.0
 11
86.69528868872779
 21
70.62362858275533
 31
0.0
  0
LINE
  5
1A4A
330
1A
100
AcDbEntity
  8
SEIHIN
  6
Continuous
 62
     3
100
AcDbLine
 10
84.29508868872779
 20
76.62363278715753
 30
0.0
 11
84.29508868872779
 21
70.62363278715753
 31
0.0
  0
ARC
  5
1A4B
330
1A
100
AcDbEntity
  8
SEIHIN
  6
Continuous
 62
     3
100
AcDbCircle
 10
84.02358868872778
 20
73.62363278715753
 30
0.0
 40
3.000001
100
AcDbArc
 50
201.7361539999994
 51
270.0
  0
LINE
  5
1A4C
330
1A
100
AcDbEntity
  8
SEIHIN
  6
Continuous
 62
     3
100
AcDbLine
 10
86.69528868872777
 20
79.1235327871575
 30
0.0
 11
86.1984798613848
 21
79.1235327871575
 31
0.0
  0
LINE
  5
1A4D
330
1A
100
AcDbEntity
  8
SEIHIN
  6
Continuous
 62
     3
100
AcDbLine
 10
85.59790827342322
 20
76.6235327871575
 30
0.0
 11
86.69528868872777
 21
76.62353278715749
 31
0.0
  0
ARC
  5
1A4E
330
1A
100
AcDbEntity
  8
SEIHIN
  6
Continuous
 62
     3
100
AcDbCircle
 10
86.19818868872778
 20
80.62363278715753
 30
0.0
 40
1.499982
100
AcDbArc
 50
207.9095830000001
 51
270.0
  0
LINE
  5
1A4F
330
1A
100
AcDbEntity
  8
SEIHIN
100
AcDbLine
 10
101.6952886887278
 20
70.6235327871575
 30
0.0
 11
102.8499892287278
 21
68.6235327871575
 31
0.0
  0
LINE
  5
1A50
330
1A
100
AcDbEntity
  8
SEIHIN
100
AcDbLine
 10
101.6952886887278
 20
70.6235327871575
 30
0.0
 11
100.5405881487278
 21
68.6235327871575
 31
0.0
  0
LINE
  5
1A51
330
1A
100
AcDbEntity
  8
SEIHIN
100
AcDbLine
 10
102.8499892287278
 20
68.6235327871575
 30
0.0
 11
100.5405881487278
 21
68.6235327871575
 31
0.0
  0
LINE
  5
1A52
330
1A
100
AcDbEntity
  8
SEIHIN
100
AcDbLine
 10
99.19528868872777
 20
76.6235327871575
 30
0.0
 11
104.1952886887278
 21
76.6235327871575
 31
0.0
  0
LINE
  5
1A53
330
1A
100
AcDbEntity
  8
SEIHIN
100
AcDbLine
 10
104.1952886887278
 20
70.6235327871575
 30
0.0
 11
99.19528868872777
 21
70.6235327871575
 31
0.0
  0
MTEXT
  5
1A54
330
1A
100
AcDbEntity
  8
SEIHIN
100
AcDbMText
 10
100.0482344687278
 20
73.50352003115751
 30
0.0
 40
2.381249964
 41
0.0
 71
     1
 72
     5
  1
{\W1.460317;10}
 73
     1
 44
1.0
  0
LINE
  5
1A55
330
1A
100
AcDbEntity
  8
SEIHIN
100
AcDbLine
 10
98.19528868872777
 20
75.6235327871575
 30
0.0
 11
98.19528868872777
 21
71.6235327871575
 31
0.0
  0
ARC
  5
1A56
330
1A
100
AcDbEntity
  8
SEIHIN
100
AcDbCircle
 10
99.19528868872777
 20
71.6235327871575
 30
0.0
 40
1.0
100
AcDbArc
 50
180.0
 51
270.0
  0
ARC
  5
1A57
330
1A
100
AcDbEntity
  8
SEIHIN
100
AcDbCircle
 10
99.19528868872777
 20
75.6235327871575
 30
0.0
 40
1.0
100
AcDbArc
 50
90.0
 51
180.0
  0
LINE
  5
1A58
330
1A
100
AcDbEntity
  8
SEIHIN
100
AcDbLine
 10
105.1952886887278
 20
75.6235327871575
 30
0.0
 11
105.1952886887278
 21
71.6235327871575
 31
0.0
  0
ARC
  5
1A59
330
1A
100
AcDbEntity
  8
SEIHIN
100
AcDbCircle
 10
104.1952886887278
 20
71.6235327871575
 30
0.0
 40
1.0
100
AcDbArc
 50
270.0
 51
0.0
  0
ARC
  5
1A5A
330
1A
100
AcDbEntity
  8
SEIHIN
100
AcDbCircle
 10
104.1952886887278
 20
75.6235327871575
 30
0.0
 40
1.0
100
AcDbArc
 50
0.0
 51
90.0
  0
LINE
  5
1A5B
330
1A
100
AcDbEntity
  8
SEIHIN
100
AcDbLine
 10
101.9520386887278
 20
76.6235327871575
 30
0.0
 11
101.9520386887278
 21
74.6235327871575
 31
0.0
  0
LINE
  5
1A5C
330
1A
100
AcDbEntity
  8
SEIHIN
100
AcDbLine
 10
101.4520386887278
 20
74.6235327871575
 30
0.0
 11
101.4520386887278
 21
76.6235327871575
 31
0.0
  0
LINE
  5
1A5D
330
1A
100
AcDbEntity
  8
SEIHIN
100
AcDbLine
 10
101.9520386887278
 20
74.6235327871575
 30
0.0
 11
101.4520386887278
 21
74.6235327871575
 31
0.0
  0
LINE
  5
1A5E
330
1A
100
AcDbEntity
  8
SEIHIN
100
AcDbLine
 10
101.4520386887278
 20
76.6235327871575
 30
0.0
 11
101.9520386887278
 21
76.6235327871575
 31
0.0
  0
LINE
  5
1A5F
330
1A
100
AcDbEntity
  8
SEIHIN
100
AcDbLine
 10
101.4520386887278
 20
76.6235327871575
 30
0.0
 11
101.9520386887278
 21
76.6235327871575
 31
0.0
  0
MTEXT
  5
1A60
330
1A
100
AcDbEntity
  8
SEIHIN
100
AcDbMText
 10
112.4792391947278
 20
73.53531001115749
 30
0.0
 40
2.381249964
 41
0.0
 71
     1
 72
     5
  1
{\W1.703704;0}
 73
     1
 44
1.0
  0
LINE
  5
1A61
330
1A
100
AcDbEntity
  8
SEIHIN
100
AcDbLine
 10
111.9452886887278
 20
74.6235327871575
 30
0.0
 11
111.6952886887278
 21
74.6235327871575
 31
0.0
  0
LINE
  5
1A62
330
1A
100
AcDbEntity
  8
SEIHIN
100
AcDbLine
 10
111.9452886887278
 20
76.6235327871575
 30
0.0
 11
111.9452886887278
 21
74.6235327871575
 31
0.0
  0
LINE
  5
1A63
330
1A
100
AcDbEntity
  8
SEIHIN
100
AcDbLine
 10
116.4452886887278
 20
76.6235327871575
 30
0.0
 11
116.9452886887278
 21
76.6235327871575
 31
0.0
  0
LINE
  5
1A64
330
1A
100
AcDbEntity
  8
SEIHIN
100
AcDbLine
 10
116.9452886887278
 20
74.6235327871575
 30
0.0
 11
116.4452886887278
 21
74.6235327871575
 31
0.0
  0
LINE
  5
1A65
330
1A
100
AcDbEntity
  8
SEIHIN
100
AcDbLine
 10
116.4452886887278
 20
74.6235327871575
 30
0.0
 11
116.4452886887278
 21
76.6235327871575
 31
0.0
  0
LINE
  5
1A66
330
1A
100
AcDbEntity
  8
SEIHIN
100
AcDbLine
 10
116.9452886887278
 20
76.6235327871575
 30
0.0
 11
116.9452886887278
 21
74.6235327871575
 31
0.0
  0
MTEXT
  5
1A67
330
1A
100
AcDbEntity
  8
SEIHIN
100
AcDbMText
 10
119.7862809448578
 20
73.53531001115749
 30
0.0
 40
2.381249964
 41
0.0
 71
     1
 72
     5
  1
{\W1.135802;30}
 73
     1
 44
1.0
  0
LINE
  5
1A68
330
1A
100
AcDbEntity
  8
SEIHIN
100
AcDbLine
 10
121.4452886887278
 20
76.6235327871575
 30
0.0
 11
121.9452886887278
 21
76.6235327871575
 31
0.0
  0
LINE
  5
1A69
330
1A
100
AcDbEntity
  8
SEIHIN
100
AcDbLine
 10
121.9452886887278
 20
74.6235327871575
 30
0.0
 11
121.4452886887278
 21
74.6235327871575
 31
0.0
  0
LINE
  5
1A6A
330
1A
100
AcDbEntity
  8
SEIHIN
100
AcDbLine
 10
121.4452886887278
 20
74.6235327871575
 30
0.0
 11
121.4452886887278
 21
76.6235327871575
 31
0.0
  0
LINE
  5
1A6B
330
1A
100
AcDbEntity
  8
SEIHIN
100
AcDbLine
 10
121.9452886887278
 20
76.6235327871575
 30
0.0
 11
121.9452886887278
 21
74.6235327871575
 31
0.0
  0
LINE
  5
1A6C
330
1A
100
AcDbEntity
  8
SEIHIN
100
AcDbLine
 10
126.4452886887278
 20
76.6235327871575
 30
0.0
 11
126.9452886887278
 21
76.6235327871575
 31
0.0
  0
LINE
  5
1A6D
330
1A
100
AcDbEntity
  8
SEIHIN
100
AcDbLine
 10
126.9452886887278
 20
74.6235327871575
 30
0.0
 11
126.4452886887278
 21
74.6235327871575
 31
0.0
  0
LINE
  5
1A6E
330
1A
100
AcDbEntity
  8
SEIHIN
100
AcDbLine
 10
126.4452886887278
 20
74.6235327871575
 30
0.0
 11
126.4452886887278
 21
76.6235327871575
 31
0.0
  0
LINE
  5
1A6F
330
1A
100
AcDbEntity
  8
SEIHIN
100
AcDbLine
 10
126.9452886887278
 20
76.6235327871575
 30
0.0
 11
126.9452886887278
 21
74.6235327871575
 31
0.0
  0
LINE
  5
1A70
330
1A
100
AcDbEntity
  8
SEIHIN
100
AcDbLine
 10
131.4446659787278
 20
76.6235327871575
 30
0.0
 11
131.9446659787278
 21
76.6235327871575
 31
0.0
  0
LINE
  5
1A71
330
1A
100
AcDbEntity
  8
SEIHIN
100
AcDbLine
 10
131.9446659787278
 20
74.6235327871575
 30
0.0
 11
131.4446659787278
 21
74.6235327871575
 31
0.0
  0
LINE
  5
1A72
330
1A
100
AcDbEntity
  8
SEIHIN
100
AcDbLine
 10
131.4446659787278
 20
74.6235327871575
 30
0.0
 11
131.4446659787278
 21
76.6235327871575
 31
0.0
  0
LINE
  5
1A73
330
1A
100
AcDbEntity
  8
SEIHIN
100
AcDbLine
 10
131.9446659787278
 20
76.6235327871575
 30
0.0
 11
131.9446659787278
 21
74.6235327871575
 31
0.0
  0
MTEXT
  5
1A74
330
1A
100
AcDbEntity
  8
SEIHIN
100
AcDbMText
 10
134.7940588387278
 20
73.71545161115751
 30
0.0
 40
2.381249964
 41
0.0
 71
     1
 72
     5
  1
{\W1.022222;45}
 73
     1
 44
1.0
  0
LINE
  5
1A75
330
1A
100
AcDbEntity
  8
SEIHIN
100
AcDbLine
 10
136.4452886887278
 20
76.6235327871575
 30
0.0
 11
136.9452886887278
 21
76.6235327871575
 31
0.0
  0
LINE
  5
1A76
330
1A
100
AcDbEntity
  8
SEIHIN
100
AcDbLine
 10
136.9452886887278
 20
74.6235327871575
 30
0.0
 11
136.4452886887278
 21
74.6235327871575
 31
0.0
  0
LINE
  5
1A77
330
1A
100
AcDbEntity
  8
SEIHIN
100
AcDbLine
 10
136.4452886887278
 20
74.6235327871575
 30
0.0
 11
136.4452886887278
 21
76.6235327871575
 31
0.0
  0
LINE
  5
1A78
330
1A
100
AcDbEntity
  8
SEIHIN
100
AcDbLine
 10
136.9452886887278
 20
76.6235327871575
 30
0.0
 11
136.9452886887278
 21
74.6235327871575
 31
0.0
  0
LINE
  5
1A79
330
1A
100
AcDbEntity
  8
SEIHIN
100
AcDbLine
 10
113.4158906287278
 20
97.77353451715754
 30
0.0
 11
96.14443968872777
 21
97.77353451715754
 31
0.0
  0
ARC
  5
1A7A
330
1A
100
AcDbEntity
  8
SEIHIN
100
AcDbCircle
 10
102.1952886887278
 20
86.42353278715751
 30
0.0
 40
9.535085152808648
100
AcDbArc
 50
4.916661302937908
 51
179.999861547953
  0
LINE
  5
1A7B
330
1A
100
AcDbEntity
  8
SEIHIN
100
AcDbLine
 10
91.29528868872779
 20
85.1235327871575
 30
0.0
 11
92.66020046872779
 21
85.1235327871575
 31
0.0
  0
LINE
  5
1A7C
330
1A
100
AcDbEntity
  8
SEIHIN
100
AcDbLine
 10
89.66020001872778
 20
85.92992913915751
 30
0.0
 11
87.69528868872777
 21
85.92992913915751
 31
0.0
  0
ARC
  5
1A7D
330
1A
100
AcDbEntity
  8
SEIHIN
100
AcDbCircle
 10
87.69528868872777
 20
84.92992913915751
 30
0.0
 40
1.0
100
AcDbArc
 50
90.0
 51
180.0
  0
ARC
  5
1A7E
330
1A
100
AcDbEntity
  8
SEIHIN
100
AcDbCircle
 10
89.66020001872778
 20
84.92992913915751
 30
0.0
 40
1.00000000000139
100
AcDbArc
 50
359.9998648965517
 51
90.0
  0
ARC
  5
1A7F
330
1A
100
AcDbEntity
  8
SEIHIN
100
AcDbCircle
 10
103.2549201287278
 20
88.68506097715755
 30
0.0
 40
9.899999981837361
100
AcDbArc
 50
135.9085673256491
 51
170.5325542075331
  0
CIRCLE
  5
1A80
330
1A
100
AcDbEntity
  8
SEIHIN
100
AcDbCircle
 10
101.6952886887278
 20
89.92353278715751
 30
0.0
 40
3.500000004238516
  0
LINE
  5
1A81
330
1A
100
AcDbEntity
  8
SEIHIN
100
AcDbLine
 10
96.14443968872777
 20
96.77353451715754
 30
0.0
 11
96.14443968872777
 21
97.77353451715754
 31
0.0
  0
LINE
  5
1A82
330
1A
100
AcDbEntity
  8
SEIHIN
100
AcDbLine
 10
96.14443968872777
 20
95.57353451715756
 30
0.0
 11
96.14443968872777
 21
96.77353451715754
 31
0.0
  0
LINE
  5
1A83
330
1A
100
AcDbEntity
  8
SEIHIN
100
AcDbLine
 10
110.3167902687278
 20
91.41943714715757
 30
0.0
 11
118.0689560387278
 21
107.3137324071575
 31
0.0
  0
LINE
  5
1A84
330
1A
100
AcDbEntity
  8
SEIHIN
100
AcDbLine
 10
111.6952886487278
 20
80.55874547715752
 30
0.0
 11
122.9856883387278
 21
103.7074953371575
 31
0.0
  0
LINE
  5
1A85
330
1A
100
AcDbEntity
  8
SEIHIN
100
AcDbLine
 10
109.5373725687278
 20
92.50725308715755
 30
0.0
 11
112.4250356487278
 21
95.57353451715756
 31
0.0
  0
LINE
  5
1A86
330
1A
100
AcDbEntity
  8
SEIHIN
100
AcDbLine
 10
109.6450315787278
 20
92.62157141715755
 30
0.0
 11
112.1289361887278
 21
95.25911962715753
 31
0.0
  0
LINE
  5
1A87
330
1A
100
AcDbEntity
  8
SEIHIN
100
AcDbLine
 10
125.6606337187278
 20
115.9000848171576
 30
0.0
 11
124.5130680087278
 21
116.2509308571575
 31
0.0
  0
LINE
  5
1A88
330
1A
100
AcDbEntity
  8
SEIHIN
100
AcDbLine
 10
124.7812147587278
 20
113.0236350071576
 30
0.0
 11
125.6606337187278
 21
115.9000848171576
 31
0.0
  0
ARC
  5
1A89
330
1A
100
AcDbEntity
  8
SEIHIN
100
AcDbCircle
 10
129.2772466687278
 20
100.6388973071576
 30
0.0
 40
7.000000007796121
100
AcDbArc
 50
97.00000004158721
 51
154.000000002973
  0
ARC
  5
1A8A
330
1A
100
AcDbEntity
  8
SEIHIN
100
AcDbCircle
 10
127.9556907987278
 20
102.4916503071576
 30
0.0
 40
11.00000000097802
100
AcDbArc
 50
97.00000001191395
 51
154.0000029819582
  0
LINE
  5
1A8B
330
1A
100
AcDbEntity
  8
SEIHIN
100
AcDbLine
 10
123.3622106487278
 20
112.4866460571575
 30
0.0
 11
124.5130680087278
 21
116.2509308571575
 31
0.0
  0
LINE
  5
1A8C
330
1A
100
AcDbEntity
  8
SEIHIN
100
AcDbLine
 10
206.4142256217278
 20
82.65572319715756
 30
0.0
 11
200.1934317927278
 21
80.16740566715754
 31
0.0
  0
LINE
  5
1A8D
330
1A
100
AcDbEntity
  8
SEIHIN
100
AcDbLine
 10
200.1934317927278
 20
80.16740566715754
 30
0.0
 11
186.8233674487278
 21
113.5925665371576
 31
0.0
  0
LINE
  5
1A8E
330
1A
100
AcDbEntity
  8
SEIHIN
  6
Continuous
 62
     3
100
AcDbLine
 10
184.7952886887278
 20
101.1234327871575
 30
0.0
 11
184.7952886887278
 21
71.12343278715753
 31
0.0
  0
LINE
  5
1A8F
330
1A
100
AcDbEntity
  8
SEIHIN
  6
Continuous
 62
     3
100
AcDbLine
 10
178.7952886887278
 20
90.12343278715753
 30
0.0
 11
178.7952886887278
 21
73.62343278715753
 31
0.0
  0
ARC
  5
1A90
330
1A
100
AcDbEntity
  8
SEIHIN
  6
Continuous
 62
     3
100
AcDbCircle
 10
147.9036886887278
 20
80.1235327871575
 30
0.0
 40
0.999978
100
AcDbArc
 50
150.2430369999999
 51
270.0
  0
LINE
  5
1A91
330
1A
100
AcDbEntity
  8
SEIHIN
  6
Continuous
 62
     3
100
AcDbLine
 10
157.3041886887278
 20
103.6047327871576
 30
0.0
 11
143.7310886887278
 21
79.85883278715755
 31
0.0
  0
LINE
  5
1A92
330
1A
100
AcDbEntity
  8
SEIHIN
  6
Continuous
 62
     3
100
AcDbLine
 10
152.0467886887278
 20
72.31443278715753
 30
0.0
 11
163.6106886887278
 21
92.6724327871575
 31
0.0
  0
LINE
  5
1A93
330
1A
100
AcDbEntity
  8
SEIHIN
  6
Continuous
 62
     3
100
AcDbLine
 10
153.4661886887278
 20
79.61363278715754
 30
0.0
 11
162.6375886887278
 21
96.08303278715755
 31
0.0
  0
LINE
  5
1A94
330
1A
100
AcDbEntity
  8
SEIHIN
  6
Continuous
 62
     3
100
AcDbLine
 10
175.3510886887278
 20
68.83223278715752
 30
0.0
 11
172.4620886887278
 21
73.43603278715753
 31
0.0
  0
ARC
  5
1A95
330
1A
100
AcDbEntity
  8
SEIHIN
  6
Continuous
 62
     3
100
AcDbCircle
 10
173.7952886887278
 20
74.12343278715753
 30
0.0
 40
1.499984
100
AcDbArc
 50
44.54354499999958
 51
207.2723069999998
  0
LINE
  5
1A96
330
1A
100
AcDbEntity
  8
SEIHIN
  6
Continuous
 62
     3
100
AcDbLine
 10
149.5631886887278
 20
68.12353278715753
 30
0.0
 11
166.7866886887278
 21
71.36143278715753
 31
0.0
  0
LINE
  5
1A97
330
1A
100
AcDbEntity
  8
SEIHIN
  6
Continuous
 62
     3
100
AcDbLine
 10
153.0917886887278
 20
70.82193278715752
 30
0.0
 11
166.5706886887278
 21
72.64313278715753
 31
0.0
  0
LINE
  5
1A98
330
1A
100
AcDbEntity
  8
SEIHIN
  6
Continuous
 62
     3
100
AcDbLine
 10
152.6058886887278
 20
79.1235327871575
 30
0.0
 11
147.9036886887278
 21
79.1235327871575
 31
0.0
  0
LINE
  5
1A99
330
1A
100
AcDbEntity
  8
SEIHIN
  6
Continuous
 62
     3
100
AcDbLine
 10
148.4291886887278
 20
71.11373278715752
 30
0.0
 11
150.7994886887278
 21
75.11363278715754
 31
0.0
  0
LINE
  5
1A9A
330
1A
100
AcDbEntity
  8
SEIHIN
  6
Continuous
 62
     3
100
AcDbLine
 10
143.2953886887278
 20
70.62363278715753
 30
0.0
 11
143.2953886887278
 21
76.62363278715753
 31
0.0
  0
ARC
  5
1A9B
330
1A
100
AcDbEntity
  8
SEIHIN
  6
Continuous
 62
     3
100
AcDbCircle
 10
147.5688886887278
 20
71.62353278715753
 30
0.0
 40
1.000003
100
AcDbArc
 50
270.0
 51
329.3496969999996
  0
ARC
  5
1A9C
330
1A
100
AcDbEntity
  8
SEIHIN
  6
Continuous
 62
     3
100
AcDbCircle
 10
142.4406886887278
 20
80.6235327871575
 30
0.0
 40
1.499983
100
AcDbArc
 50
270.0
 51
329.3487229999997
  0
ARC
  5
1A9D
330
1A
100
AcDbEntity
  8
SEIHIN
  6
Continuous
 62
     3
100
AcDbCircle
 10
152.9070886887278
 20
71.80463278715752
 30
0.0
 40
0.999956
100
AcDbArc
 50
149.3496969999996
 51
280.6446470000001
  0
ARC
  5
1A9E
330
1A
100
AcDbEntity
  8
SEIHIN
  6
Continuous
 62
     3
100
AcDbCircle
 10
149.9392886887278
 20
75.6235327871575
 30
0.0
 40
0.9999600000000001
100
AcDbArc
 50
329.346776
 51
90.0
  0
ARC
  5
1A9F
330
1A
100
AcDbEntity
  8
SEIHIN
  6
Continuous
 62
     3
100
AcDbCircle
 10
152.6058886887278
 20
80.1235327871575
 30
0.0
 40
1.000003
100
AcDbArc
 50
270.0
 51
329.3496969999996
  0
ARC
  5
1AA0
330
1A
100
AcDbEntity
  8
SEIHIN
  6
Continuous
 62
     3
100
AcDbCircle
 10
166.6665886887278
 20
72.00033278715753
 30
0.0
 40
0.6500060000000001
100
AcDbArc
 50
278.475411
 51
98.48412899999983
  0
ARC
  5
1AA1
330
1A
100
AcDbEntity
  8
SEIHIN
  6
Continuous
 62
     3
100
AcDbCircle
 10
179.7952886887278
 20
71.12343278715753
 30
0.0
 40
5.000028
100
AcDbArc
 50
205.2238120000009
 51
0.0
  0
LINE
  5
1AA2
330
1A
100
AcDbEntity
  8
SEIHIN
  6
Continuous
 62
     3
100
AcDbLine
 10
174.8643886887278
 20
75.1756327871575
 30
0.0
 11
177.0826886887278
 21
72.92193278715752
 31
0.0
  0
ARC
  5
1AA3
330
1A
100
AcDbEntity
  8
SEIHIN
  6
Continuous
 62
     3
100
AcDbCircle
 10
177.7952886887278
 20
73.62343278715753
 30
0.0
 40
0.999975
100
AcDbArc
 50
224.5502650000009
 51
0.0
  0
ARC
  5
1AA4
330
1A
100
AcDbEntity
  8
SEIHIN
100
AcDbCircle
 10
171.1370401487278
 20
119.8837712271575
 30
0.0
 40
6.999999996543327
100
AcDbArc
 50
276.9999999703213
 51
350.7918456343346
  0
ARC
  5
1AA5
330
1A
100
AcDbEntity
  8
SEIHIN
  6
Continuous
 62
     3
100
AcDbCircle
 10
173.7952886887278
 20
90.12343278715753
 30
0.0
 40
5.0
100
AcDbArc
 50
0.0
 51
90.0
  0
LINE
  5
1AA6
330
1A
100
AcDbEntity
  8
SEIHIN
  6
Continuous
 62
     3
100
AcDbLine
 10
165.2585886887278
 20
97.62343278715753
 30
0.0
 11
175.7952886887278
 21
97.62343278715753
 31
0.0
  0
LINE
  5
1AA7
330
1A
100
AcDbEntity
  8
SEIHIN
  6
Continuous
 62
     3
100
AcDbLine
 10
179.7952886887278
 20
106.1234327871575
 30
0.0
 11
161.6450886887278
 21
106.1234327871576
 31
0.0
  0
LINE
  5
1AA8
330
1A
100
AcDbEntity
  8
SEIHIN
  6
Continuous
 62
     3
100
AcDbLine
 10
175.7952886887278
 20
103.6234327871575
 30
0.0
 11
161.9292886887278
 21
103.6235327871575
 31
0.0
  0
ARC
  5
1AA9
330
1A
100
AcDbEntity
  8
SEIHIN
  6
Continuous
 62
     3
100
AcDbCircle
 10
161.9292886887278
 20
100.6235327871575
 30
0.0
 40
3.000009
100
AcDbArc
 50
90.0
 51
149.3496969999996
  0
LINE
  5
1AAA
330
1A
100
AcDbEntity
  8
SEIHIN
  6
Continuous
 62
     3
100
AcDbLine
 10
147.0355886887278
 20
80.6199327871575
 30
0.0
 11
159.3037886887278
 21
102.0749327871575
 31
0.0
  0
ARC
  5
1AAB
330
1A
100
AcDbEntity
  8
SEIHIN
  6
Continuous
 62
     3
100
AcDbCircle
 10
167.9121886887278
 20
90.12343278715753
 30
0.0
 40
5.000015
100
AcDbArc
 50
90.0
 51
149.3496969999996
  0
ARC
  5
1AAC
330
1A
100
AcDbEntity
  8
SEIHIN
  6
Continuous
 62
     3
100
AcDbCircle
 10
165.2585886887278
 20
94.62343278715753
 30
0.0
 40
3.000006
100
AcDbArc
 50
90.0
 51
150.8871489999997
  0
LINE
  5
1AAD
330
1A
100
AcDbEntity
  8
SEIHIN
  6
Continuous
 62
     3
100
AcDbLine
 10
167.9121886887278
 20
95.12343278715753
 30
0.0
 11
173.7952886887278
 21
95.12343278715753
 31
0.0
  0
ARC
  5
1AAE
330
1A
100
AcDbEntity
  8
SEIHIN
  6
Continuous
 62
     3
100
AcDbCircle
 10
161.6450886887278
 20
101.1234327871575
 30
0.0
 40
5.0
100
AcDbArc
 50
90.0
 51
150.247301
  0
ARC
  5
1AAF
330
1A
100
AcDbEntity
  8
SEIHIN
100
AcDbCircle
 10
171.1370401487278
 20
119.8837712271575
 30
0.0
 40
0.9999999979020673
100
AcDbArc
 50
277.0000136757813
 51
350.7918459575213
  0
LINE
  5
1AB0
330
1A
100
AcDbEntity
  8
CENTER L
100
AcDbLine
 10
190.6301218750046
 20
100.0368068509394
 30
0.0
 11
204.7429675782732
 21
105.6819451277094
 31
0.0
  0
LINE
  5
1AB1
330
1A
100
AcDbEntity
  8
SEIHIN
100
AcDbLine
 10
191.9299892487278
 20
115.6352152571575
 30
0.0
 11
205.3000535927278
 21
82.21005438715753
 31
0.0
  0
LINE
  5
1AB2
330
1A
100
AcDbEntity
  8
SEIHIN
100
AcDbLine
 10
193.0441612727278
 20
116.0808840671576
 30
0.0
 11
206.4142256217278
 21
82.65572319715756
 31
0.0
  0
ARC
  5
1AB3
330
1A
100
AcDbEntity
  8
SEIHIN
  6
Continuous
 62
     3
100
AcDbCircle
 10
175.7952886887278
 20
100.6234327871575
 30
0.0
 40
3.0
100
AcDbArc
 50
0.0
 51
90.0
  0
ARC
  5
1AB4
330
1A
100
AcDbEntity
  8
SEIHIN
  6
Continuous
 62
     3
100
AcDbCircle
 10
179.7952886887278
 20
101.1234327871575
 30
0.0
 40
5.0
100
AcDbArc
 50
0.0
 51
90.0
  0
ARC
  5
1AB5
330
1A
100
AcDbEntity
  8
SEIHIN
  6
Continuous
 62
     3
100
AcDbCircle
 10
175.7952886887278
 20
100.6234327871575
 30
0.0
 40
3.0
100
AcDbArc
 50
270.0
 51
0.0
  0
ARC
  5
1AB6
330
1A
100
AcDbEntity
  8
SEIHIN
  6
Continuous
 62
     3
100
AcDbCircle
 10
179.7952886887278
 20
101.1234327871575
 30
0.0
 40
5.000022
100
AcDbArc
 50
0.0
 51
2.064221999999502
  0
LINE
  5
1AB7
330
1A
100
AcDbEntity
  8
SEIHIN
100
AcDbLine
 10
201.2147566151292
 20
92.42329683420948
 30
0.0
 11
199.5434985812368
 21
88.52369470740547
 31
0.0
  0
LINE
  5
1AB8
330
1A
100
AcDbEntity
  8
SEIHIN
100
AcDbLine
 10
199.5434985812368
 20
88.52369470740547
 30
0.0
 11
203.4431006726791
 21
86.85243668866804
 31
0.0
  0
LINE
  5
1AB9
330
1A
100
AcDbEntity
  8
SEIHIN
100
AcDbLine
 10
199.5434985812368
 20
88.52369470740547
 30
0.0
 11
202.3289286538307
 21
89.63786673662217
 31
0.0
  0
LINE
  5
1ABA
330
1A
100
AcDbEntity
  8
CENTER L
100
AcDbLine
 10
187.6589964637887
 20
107.4646203778682
 30
0.0
 11
201.7718421670572
 21
113.1097586546383
 31
0.0
  0
LINE
  5
1ABB
330
1A
100
AcDbEntity
  8
SEIHIN
100
AcDbLine
 10
186.8233674487278
 20
113.5925665371576
 30
0.0
 11
193.0441612727278
 21
116.0808840671576
 31
0.0
  0
LINE
  5
1ABC
330
1A
100
AcDbEntity
  8
SEIHIN
100
AcDbLine
 10
188.8202958787278
 20
125.2942563451575
 30
0.0
 11
192.5799229287278
 21
115.8951887271575
 31
0.0
  0
LINE
  5
1ABD
330
1A
100
AcDbEntity
  8
SEIHIN
100
AcDbLine
 10
185.7091951487278
 20
119.6090961471576
 30
0.0
 11
187.9375394687278
 21
114.0382353471575
 31
0.0
  0
ARC
  5
1ABE
330
1A
100
AcDbEntity
  8
SEIHIN
100
AcDbCircle
 10
181.9952886487278
 20
118.1235327871576
 30
0.0
 40
3.999999998359459
100
AcDbArc
 50
21.80141959393112
 51
170.7918455333398
  0
ARC
  5
1ABF
330
1A
100
AcDbEntity
  8
SEIHIN
100
AcDbCircle
 10
187.8918191887278
 20
124.9228656681576
 30
0.0
 40
0.9999999997355211
100
AcDbArc
 50
21.80140953954768
 51
49.06745394060491
  0
LINE
  5
1AC0
330
1A
100
AcDbEntity
  8
SEIHIN
100
AcDbLine
 10
193.7869430899629
 20
110.9928306526809
 30
0.0
 11
192.1156850560705
 21
107.0932285258769
 31
0.0
  0
LINE
  5
1AC1
330
1A
100
AcDbEntity
  8
SEIHIN
100
AcDbLine
 10
192.1156850560705
 20
107.0932285258769
 30
0.0
 11
196.0152871475128
 21
105.4219705071395
 31
0.0
  0
LINE
  5
1AC2
330
1A
100
AcDbEntity
  8
SEIHIN
100
AcDbLine
 10
192.1156850560705
 20
107.0932285258769
 30
0.0
 11
194.9011151286644
 21
108.2074005550936
 31
0.0
  0
ELLIPSE
  5
1AC3
330
1A
100
AcDbEntity
  8
SEIHIN
100
AcDbEllipse
 10
205.6714442695343
 20
230.7528835043632
 30
0.0
 11
0.0
 21
2.0
 31
0.0
210
0.0
220
0.0
230
1.0
 40
0.371390676096766
 41
4.71238898038469
 42
6.283185307179586
  0
ELLIPSE
  5
1AC4
330
1A
100
AcDbEntity
  8
SEIHIN
100
AcDbEllipse
 10
193.7869426239213
 20
230.7528835043631
 30
0.0
 11
0.0
 21
2.0
 31
0.0
210
0.0
220
0.0
230
1.0
 40
0.371390676096766
 41
0.0
 42
1.570796326794897
  0
ELLIPSE
  5
1AC5
330
1A
100
AcDbEntity
  8
SEIHIN
100
AcDbEllipse
 10
192.5869426239214
 20
230.7528835043631
 30
0.0
 11
0.0
 21
2.0
 31
0.0
210
0.0
220
0.0
230
1.0
 40
0.371390676096766
 41
0.0
 42
1.570796326794897
  0
ELLIPSE
  5
1AC6
330
1A
100
AcDbEntity
  8
SEIHIN
 62
     3
100
AcDbEllipse
 10
204.1858815633158
 20
185.2528834943631
 30
0.0
 11
0.0
 21
2.1000000000672
 31
0.0
210
0.0
220
0.0
230
1.0
 40
0.4867014234079679
 41
-1.570796326794897
 42
4.71238898038469
  0
ELLIPSE
  5
1AC7
330
1A
100
AcDbEntity
  8
SEIHIN
 62
     3
100
AcDbEllipse
 10
198.2436307413558
 20
186.7778834843631
 30
0.0
 11
0.0
 21
2.874999999613672
 31
0.0
210
0.0
220
0.0
230
1.0
 40
0.3913043478762229
 41
-1.570796326794897
 42
4.71238898038469
  0
ELLIPSE
  5
1AC8
330
1A
100
AcDbEntity
  8
SEIHIN
 62
     3
100
AcDbEllipse
 10
195.2725053301398
 20
185.2528834943631
 30
0.0
 11
0.0
 21
2.1000000000672
 31
0.0
210
0.0
220
0.0
230
1.0
 40
0.4867014234079679
 41
-1.570796326794897
 42
4.71238898038469
  0
ELLIPSE
  5
1AC9
330
1A
100
AcDbEntity
  8
SEIHIN
 62
     3
100
AcDbEllipse
 10
200.1156653817279
 20
206.2528835043631
 30
0.0
 11
0.0
 21
-2.8559114857152
 31
0.0
210
0.0
220
0.0
230
-1.0
 40
0.4680467910551545
 41
-1.570796326794897
 42
4.71238898038469
  0
ELLIPSE
  5
1ACA
330
1A
100
AcDbEntity
  8
SEIHIN
100
AcDbEllipse
 10
205.6714442695343
 20
181.7528834843629
 30
0.0
 11
0.0
 21
-2.0
 31
0.0
210
0.0
220
0.0
230
-1.0
 40
0.371390676096766
 41
4.71238898038469
 42
6.283185307179586
  0
ELLIPSE
  5
1ACB
330
1A
100
AcDbEntity
  8
SEIHIN
100
AcDbEllipse
 10
193.7869426239213
 20
181.7528834843631
 30
0.0
 11
0.0
 21
-2.0
 31
0.0
210
0.0
220
0.0
230
-1.0
 40
0.371390676096766
 41
0.0
 42
1.570796326794897
  0
ELLIPSE
  5
1ACC
330
1A
100
AcDbEntity
  8
SEIHIN
100
AcDbEllipse
 10
192.5869426239214
 20
181.7528834843631
 30
0.0
 11
0.0
 21
-2.0
 31
0.0
210
0.0
220
0.0
230
-1.0
 40
0.371390676096766
 41
0.0
 42
1.570796326794897
  0
ELLIPSE
  5
1ACD
330
1A
100
AcDbEntity
  8
SEIHIN
 62
     3
100
AcDbEllipse
 10
204.1858815633158
 20
227.2528834943631
 30
0.0
 11
0.0
 21
-2.1000000000672
 31
0.0
210
0.0
220
0.0
230
-1.0
 40
0.4867014234079679
 41
-1.570796326794897
 42
4.71238898038469
  0
ELLIPSE
  5
1ACE
330
1A
100
AcDbEntity
  8
SEIHIN
 62
     3
100
AcDbEllipse
 10
198.2436307413558
 20
225.727883504363
 30
0.0
 11
0.0
 21
-2.874999999613672
 31
0.0
210
0.0
220
0.0
230
-1.0
 40
0.3913043478762229
 41
-1.570796326794897
 42
4.71238898038469
  0
ELLIPSE
  5
1ACF
330
1A
100
AcDbEntity
  8
SEIHIN
 62
     3
100
AcDbEllipse
 10
195.2725053301398
 20
227.2528834943631
 30
0.0
 11
0.0
 21
-2.1000000000672
 31
0.0
210
0.0
220
0.0
230
-1.0
 40
0.4867014234079679
 41
-1.570796326794897
 42
4.71238898038469
  0
LINE
  5
1AD0
330
1A
100
AcDbEntity
  8
SEIHIN
  6
Continuous
 62
     3
100
AcDbLine
 10
58.79528868872782
 20
213.7528834943631
 30
0.0
 11
91.22819165872778
 21
213.7528834943631
 31
0.0
  0
LINE
  5
1AD1
330
1A
100
AcDbEntity
  8
SEIHIN
  6
Continuous
 62
     3
100
AcDbLine
 10
58.79518868872773
 20
198.7528834943631
 30
0.0
 11
91.22819165872778
 21
198.7528834943631
 31
0.0
  0
DIMENSION
  5
1AD2
330
1A
100
AcDbEntity
  8
SUNPOU
100
AcDbDimension
  2
*D8
 10
33.73780534255343
 20
195.2528834943631
 30
0.0
 11
31.2378053425534
 21
206.2528834943631
 31
0.0
 70
    32
 71
     5
 42
22.0
  3
STANDARD
100
AcDbAlignedDimension
 13
55.79528868872782
 23
217.2528834943631
 33
0.0
 14
55.79528868872777
 24
195.2528834943631
 34
0.0
 50
90.0
100
AcDbRotatedDimension
1001
ACAD
1000
DSTYLE
1002
{
1070
    41
1040
3.0
1070
    42
1040
3.0
1070
    43
1040
7.0
1070
    44
1040
1.5
1070
    73
1070
     0
1070
    74
1070
     0
1070
    77
1070
     3
1070
   140
1040
3.0
1070
   141
1040
3.0
1070
   147
1040
1.0
1070
   172
1070
     1
1070
   173
1070
     1
1070
   176
1070
   256
1070
   177
1070
   256
1070
   178
1070
   256
1070
   271
1070
     0
1070
   272
1070
     0
1070
   341
1005
B2
1070
     6
1000
OPEN
1070
     7
1000
OPEN
1002
}
  0
LINE
  5
1AD3
330
1A
100
AcDbEntity
  8
SEIHIN
  6
Continuous
 62
     3
100
AcDbLine
 10
58.79528868872782
 20
206.253083494363
 30
0.0
 11
58.79518868872773
 21
195.2528834943631
 31
0.0
  0
LINE
  5
1AD4
330
1A
100
AcDbEntity
  8
SEIHIN
  6
Continuous
 62
     3
100
AcDbLine
 10
55.79528868872777
 20
195.2528834943631
 30
0.0
 11
55.79528868872782
 21
217.2528834943631
 31
0.0
  0
LINE
  5
1AD5
330
1A
100
AcDbEntity
  8
SEIHIN
  6
Continuous
 62
     3
100
AcDbLine
 10
55.79528868872777
 20
195.2528834943631
 30
0.0
 11
58.79518868872773
 21
195.252883494363
 31
0.0
  0
LINE
  5
1AD6
330
1A
100
AcDbEntity
  8
SEIHIN
  6
Continuous
 62
     3
100
AcDbLine
 10
58.79528868872782
 20
206.2526834943631
 30
0.0
 11
58.79528868872782
 21
217.2528834943631
 31
0.0
  0
LINE
  5
1AD7
330
1A
100
AcDbEntity
  8
SEIHIN
  6
Continuous
 62
     3
100
AcDbLine
 10
55.79528868872782
 20
217.2528834943631
 30
0.0
 11
58.79528868872782
 21
217.2528834943631
 31
0.0
  0
LINE
  5
1AD8
330
1A
100
AcDbEntity
  8
SEIHIN
  6
Continuous
 62
     3
100
AcDbLine
 10
72.79528868872782
 20
206.252783494363
 30
0.0
 11
72.79528868872782
 21
213.752983494363
 31
0.0
  0
LINE
  5
1AD9
330
1A
100
AcDbEntity
  8
SEIHIN
  6
Continuous
 62
     3
100
AcDbLine
 10
72.79528868872782
 20
206.252983494363
 30
0.0
 11
72.79528868872782
 21
198.752783494363
 31
0.0
  0
LINE
  5
1ADA
330
1A
100
AcDbEntity
  8
SEIHIN
 62
     3
100
AcDbLine
 10
191.8441612717278
 20
230.7528835043631
 30
0.0
 11
191.8441612717278
 21
215.454223304363
 31
0.0
  0
LINE
  5
1ADB
330
1A
100
AcDbEntity
  8
SEIHIN
 62
     3
100
AcDbLine
 10
193.0441612717279
 20
216.0759351043631
 30
0.0
 11
193.0441612717279
 21
230.7528835043631
 31
0.0
  0
LINE
  5
1ADC
330
1A
100
AcDbEntity
  8
SEIHIN
 62
     3
100
AcDbLine
 10
206.4142256217278
 20
216.0759354043631
 30
0.0
 11
206.4142256217278
 21
230.7528835043632
 31
0.0
  0
LINE
  5
1ADD
330
1A
100
AcDbEntity
  8
SEIHIN
 62
     3
100
AcDbLine
 10
95.34146410172792
 20
198.7528834843631
 30
0.0
 11
204.3865585717278
 21
198.7528834843631
 31
0.0
  0
LINE
  5
1ADE
330
1A
100
AcDbEntity
  8
SEIHIN
 62
     3
100
AcDbLine
 10
95.34146410172792
 20
213.7528835043631
 30
0.0
 11
204.3865585717278
 21
213.7528835043631
 31
0.0
  0
LINE
  5
1ADF
330
1A
100
AcDbEntity
  8
SEIHIN
 62
     3
100
AcDbLine
 10
94.84146410172792
 20
199.7528834843631
 30
0.0
 11
204.3865585717278
 21
199.7528834843631
 31
0.0
  0
LINE
  5
1AE0
330
1A
100
AcDbEntity
  8
SEIHIN
 62
     3
100
AcDbLine
 10
94.84146410172792
 20
212.7528835043631
 30
0.0
 11
204.3865585717278
 21
212.7528835043631
 31
0.0
  0
LINE
  5
1AE1
330
1A
100
AcDbEntity
  8
SEIHIN
 62
     3
100
AcDbLine
 10
122.1015717887278
 20
203.252883504363
 30
0.0
 11
195.7789655617278
 21
203.2528835043631
 31
0.0
  0
LINE
  5
1AE2
330
1A
100
AcDbEntity
  8
SEIHIN
 62
     3
100
AcDbLine
 10
122.1015717887278
 20
209.252883504363
 30
0.0
 11
195.7789657517279
 21
209.2528835043631
 31
0.0
  0
LINE
  5
1AE3
330
1A
100
AcDbEntity
  8
SEIHIN
100
AcDbLine
 10
92.66048086872777
 20
214.2528835143631
 30
0.0
 11
111.6952886907278
 21
214.2528835143631
 31
0.0
  0
LINE
  5
1AE4
330
1A
100
AcDbEntity
  8
SEIHIN
100
AcDbLine
 10
111.6952886907278
 20
198.2528834743631
 30
0.0
 11
92.66044219872777
 21
198.252929474363
 31
0.0
  0
LINE
  5
1AE5
330
1A
100
AcDbEntity
  8
SEIHIN
100
AcDbLine
 10
95.30409464872778
 20
210.407327514363
 30
0.0
 11
117.3627817737278
 21
210.407327514363
 31
0.0
  0
LINE
  5
1AE6
330
1A
100
AcDbEntity
  8
SEIHIN
100
AcDbLine
 10
92.51457509872779
 20
212.5249571143631
 30
0.0
 11
120.1015717887278
 21
212.5249571143631
 31
0.0
  0
LINE
  5
1AE7
330
1A
100
AcDbEntity
  8
SEIHIN
100
AcDbLine
 10
95.30409464872778
 20
202.0984394643631
 30
0.0
 11
117.3627817737278
 21
202.0984394643631
 31
0.0
  0
LINE
  5
1AE8
330
1A
100
AcDbEntity
  8
SEIHIN
100
AcDbLine
 10
92.51457509872779
 20
199.9808098343631
 30
0.0
 11
120.1015717887278
 21
199.9808098343631
 31
0.0
  0
LINE
  5
1AE9
330
1A
100
AcDbEntity
  8
SEIHIN
100
AcDbLine
 10
91.22819165872778
 20
195.2528834743631
 30
0.0
 11
91.22819165872778
 21
198.7528834743631
 31
0.0
  0
LINE
  5
1AEA
330
1A
100
AcDbEntity
  8
SEIHIN
100
AcDbLine
 10
92.22819165872778
 20
198.2528834743631
 30
0.0
 11
92.22819165872778
 21
195.2528834743631
 31
0.0
  0
LINE
  5
1AEB
330
1A
100
AcDbEntity
  8
SEIHIN
100
AcDbLine
 10
92.22819165872778
 20
195.2528834743631
 30
0.0
 11
91.22819165872778
 21
195.2528834743631
 31
0.0
  0
ARC
  5
1AEC
330
1A
100
AcDbEntity
  8
SEIHIN
100
AcDbCircle
 10
92.72819165872778
 20
214.2528835143631
 30
0.0
 40
0.5
100
AcDbArc
 50
180.0
 51
270.0
  0
ARC
  5
1AED
330
1A
100
AcDbEntity
  8
SEIHIN
100
AcDbCircle
 10
92.72819165872778
 20
198.2528834743631
 30
0.0
 40
0.5
100
AcDbArc
 50
90.0
 51
180.0
  0
LINE
  5
1AEE
330
1A
100
AcDbEntity
  8
SEIHIN
100
AcDbLine
 10
95.30409464872778
 20
200.9808098343631
 30
0.0
 11
92.51457509872779
 21
200.9808098343631
 31
0.0
  0
LINE
  5
1AEF
330
1A
100
AcDbEntity
  8
SEIHIN
100
AcDbLine
 10
95.30409464872778
 20
211.5249571143631
 30
0.0
 11
92.51457509872779
 21
211.5249571143631
 31
0.0
  0
LINE
  5
1AF0
330
1A
100
AcDbEntity
  8
SEIHIN
100
AcDbLine
 10
92.51457509872779
 20
208.1774948143631
 30
0.0
 11
95.30409464872778
 21
208.1774948143631
 31
0.0
  0
LINE
  5
1AF1
330
1A
100
AcDbEntity
  8
SEIHIN
100
AcDbLine
 10
92.51457509872779
 20
204.328272134363
 30
0.0
 11
95.30409464872778
 21
204.328272134363
 31
0.0
  0
LINE
  5
1AF2
330
1A
100
AcDbEntity
  8
SEIHIN
  6
Continuous
 62
     3
100
AcDbLine
 10
85.29518868872785
 20
198.7528834943631
 30
0.0
 11
85.29518868872785
 21
213.7528834943631
 31
0.0
  0
LINE
  5
1AF3
330
1A
100
AcDbEntity
  8
SEIHIN
100
AcDbLine
 10
92.51457509872779
 20
211.5249571143631
 30
0.0
 11
92.51457509872779
 21
200.9808098343631
 31
0.0
  0
ARC
  5
1AF4
330
1A
100
AcDbEntity
  8
SEIHIN
100
AcDbCircle
 10
92.51457509872779
 20
206.2528834743631
 30
0.0
 40
3.000000000000011
100
AcDbArc
 50
90.00000515662018
 51
269.9999952253517
  0
LINE
  5
1AF5
330
1A
100
AcDbEntity
  8
SEIHIN
100
AcDbLine
 10
86.69528868872777
 20
198.2528834743631
 30
0.0
 11
90.66019600872778
 21
198.2528834743631
 31
0.0
  0
LINE
  5
1AF6
330
1A
100
AcDbEntity
  8
SEIHIN
100
AcDbLine
 10
90.66043762872778
 20
198.7528834743631
 30
0.0
 11
86.69528868872777
 21
198.7528834743631
 31
0.0
  0
LINE
  5
1AF7
330
1A
100
AcDbEntity
  8
SEIHIN
100
AcDbLine
 10
86.69528868872777
 20
198.2528834743631
 30
0.0
 11
86.69528868872777
 21
198.7528834743631
 31
0.0
  0
LINE
  5
1AF8
330
1A
100
AcDbEntity
  8
SEIHIN
100
AcDbLine
 10
92.51457509872779
 20
200.9808098343631
 30
0.0
 11
92.51457509872779
 21
199.9808098343631
 31
0.0
  0
LINE
  5
1AF9
330
1A
100
AcDbEntity
  8
SEIHIN
100
AcDbLine
 10
90.66043644872778
 20
198.2528834743631
 30
0.0
 11
90.66043762872778
 21
198.7528834743631
 31
0.0
  0
ARC
  5
1AFA
330
1A
100
AcDbEntity
  8
SEIHIN
100
AcDbCircle
 10
92.22819165872778
 20
198.7528834743631
 30
0.0
 40
1.0
100
AcDbArc
 50
90.0
 51
180.0
  0
LINE
  5
1AFB
330
1A
100
AcDbEntity
  8
SEIHIN
100
AcDbLine
 10
90.66047299872778
 20
213.7528835143631
 30
0.0
 11
90.66047417872778
 21
214.2528835143631
 31
0.0
  0
LINE
  5
1AFC
330
1A
100
AcDbEntity
  8
SEIHIN
100
AcDbLine
 10
86.69528868872777
 20
213.7528835143631
 30
0.0
 11
86.69528868872777
 21
214.2528835143631
 31
0.0
  0
LINE
  5
1AFD
330
1A
100
AcDbEntity
  8
SEIHIN
100
AcDbLine
 10
91.22819165872778
 20
217.2528835143631
 30
0.0
 11
91.22819165872778
 21
213.7528835143631
 31
0.0
  0
LINE
  5
1AFE
330
1A
100
AcDbEntity
  8
SEIHIN
100
AcDbLine
 10
90.66047299872778
 20
213.7528835143631
 30
0.0
 11
86.69528868872777
 21
213.7528835143631
 31
0.0
  0
LINE
  5
1AFF
330
1A
100
AcDbEntity
  8
SEIHIN
100
AcDbLine
 10
92.51457509872779
 20
211.5249571143631
 30
0.0
 11
92.51457509872779
 21
212.5249571143631
 31
0.0
  0
ARC
  5
1B00
330
1A
100
AcDbEntity
  8
SEIHIN
100
AcDbCircle
 10
92.22819165872778
 20
213.7528835143631
 30
0.0
 40
1.0
100
AcDbArc
 50
180.0
 51
270.0
  0
LINE
  5
1B01
330
1A
100
AcDbEntity
  8
SEIHIN
100
AcDbLine
 10
86.69528868872777
 20
214.2528835143631
 30
0.0
 11
90.66019600872778
 21
214.2528835143631
 31
0.0
  0
LINE
  5
1B02
330
1A
100
AcDbEntity
  8
SEIHIN
100
AcDbLine
 10
92.22819165872778
 20
217.2528835143631
 30
0.0
 11
91.22819165872778
 21
217.2528835143631
 31
0.0
  0
LINE
  5
1B03
330
1A
100
AcDbEntity
  8
SEIHIN
100
AcDbLine
 10
92.22819165872778
 20
214.2528835143631
 30
0.0
 11
92.22819165872778
 21
217.2528835143631
 31
0.0
  0
LINE
  5
1B04
330
1A
100
AcDbEntity
  8
SEIHIN
100
AcDbLine
 10
95.30409464872778
 20
199.9808098343631
 30
0.0
 11
95.30409464872778
 21
212.5249571143631
 31
0.0
  0
ARC
  5
1B05
330
1A
100
AcDbEntity
  8
SEIHIN
100
AcDbCircle
 10
101.6955298187278
 20
202.771212974363
 30
0.0
 40
5.715337531631893
100
AcDbArc
 50
232.2375418744897
 51
307.7621812247568
  0
LINE
  5
1B06
330
1A
100
AcDbEntity
  8
SEIHIN
100
AcDbLine
 10
95.30409464872778
 20
199.9808098343631
 30
0.0
 11
95.30409464872778
 21
201.1808098343631
 31
0.0
  0
LINE
  5
1B07
330
1A
100
AcDbEntity
  8
SEIHIN
100
AcDbLine
 10
92.66044219872777
 20
198.252929474363
 30
0.0
 11
92.66044340872776
 21
198.7528834743631
 31
0.0
  0
LINE
  5
1B08
330
1A
100
AcDbEntity
  8
SEIHIN
100
AcDbLine
 10
105.1955188987278
 20
215.3173219143631
 30
0.0
 11
98.19551889872778
 21
215.3173219143631
 31
0.0
  0
LINE
  5
1B09
330
1A
100
AcDbEntity
  8
SEIHIN
100
AcDbLine
 10
98.19551889872778
 20
214.2528835143631
 30
0.0
 11
105.1955188987278
 21
214.2528835143631
 31
0.0
  0
LINE
  5
1B0A
330
1A
100
AcDbEntity
  8
SEIHIN
100
AcDbLine
 10
92.66047965872778
 20
213.7528835143631
 30
0.0
 11
92.66048086872777
 21
214.2528835143631
 31
0.0
  0
LINE
  5
1B0B
330
1A
100
AcDbEntity
  8
SEIHIN
100
AcDbLine
 10
95.30409464872778
 20
212.5249571143631
 30
0.0
 11
95.30409464872778
 21
211.3249571143631
 31
0.0
  0
LINE
  5
1B0C
330
1A
100
AcDbEntity
  8
SEIHIN
100
AcDbLine
 10
98.19551889872778
 20
215.3173219143631
 30
0.0
 11
98.19551889872778
 21
214.2528835143631
 31
0.0
  0
LINE
  5
1B0D
330
1A
100
AcDbEntity
  8
SEIHIN
100
AcDbLine
 10
105.1955188987278
 20
214.2528835143631
 30
0.0
 11
105.1955188987278
 21
215.3173219143631
 31
0.0
  0
LINE
  5
1B0E
330
1A
100
AcDbEntity
  8
SEIHIN
100
AcDbLine
 10
120.9540060817278
 20
201.9808098343631
 30
0.0
 11
120.9540060817278
 21
210.5249571143631
 31
0.0
  0
LINE
  5
1B0F
330
1A
100
AcDbEntity
  8
SEIHIN
100
AcDbLine
 10
122.1015717887278
 20
201.9808098343631
 30
0.0
 11
122.1015717887278
 21
210.5249571143631
 31
0.0
  0
LINE
  5
1B10
330
1A
100
AcDbEntity
  8
SEIHIN
100
AcDbLine
 10
119.3627817737278
 20
208.4073274843631
 30
0.0
 11
119.3627817737278
 21
204.0984394643631
 31
0.0
  0
LINE
  5
1B11
330
1A
100
AcDbEntity
  8
SEIHIN
100
AcDbLine
 10
110.7977111777278
 20
203.0984394643631
 30
0.0
 11
110.7977111777278
 21
209.4073274843631
 31
0.0
  0
LINE
  5
1B12
330
1A
100
AcDbEntity
  8
SEIHIN
100
AcDbLine
 10
115.6396314132278
 20
203.0984394643631
 30
0.0
 11
115.6396314132278
 21
209.4073274843631
 31
0.0
  0
LINE
  5
1B13
330
1A
100
AcDbEntity
  8
SEIHIN
100
AcDbLine
 10
111.6952886907278
 20
198.2528834743631
 30
0.0
 11
111.6952886907278
 21
198.7528834743631
 31
0.0
  0
ARC
  5
1B14
330
1A
100
AcDbEntity
  8
SEIHIN
100
AcDbCircle
 10
117.3627817737278
 20
204.0984394643631
 30
0.0
 40
2.0
100
AcDbArc
 50
270.0
 51
0.0
  0
ARC
  5
1B15
330
1A
100
AcDbEntity
  8
SEIHIN
100
AcDbCircle
 10
120.1015717887278
 20
201.9808098343631
 30
0.0
 40
2.0
100
AcDbArc
 50
270.0
 51
0.0
  0
ARC
  5
1B16
330
1A
100
AcDbEntity
  8
SEIHIN
100
AcDbCircle
 10
120.1015717887278
 20
201.9808098343631
 30
0.0
 40
2.0
100
AcDbArc
 50
270.0
 51
0.0
  0
ARC
  5
1B17
330
1A
100
AcDbEntity
  8
SEIHIN
100
AcDbCircle
 10
118.9540060817278
 20
201.9808098343631
 30
0.0
 40
2.0
100
AcDbArc
 50
270.0
 51
0.0
  0
LINE
  5
1B18
330
1A
100
AcDbEntity
  8
SEIHIN
100
AcDbLine
 10
120.687133563691
 20
198.7528834743631
 30
0.0
 11
120.687133563691
 21
199.7528834743631
 31
0.0
  0
LINE
  5
1B19
330
1A
100
AcDbEntity
  8
SEIHIN
100
AcDbLine
 10
111.6952886907278
 20
213.7528835143631
 30
0.0
 11
111.6952886907278
 21
214.2528835143631
 31
0.0
  0
ARC
  5
1B1A
330
1A
100
AcDbEntity
  8
SEIHIN
100
AcDbCircle
 10
120.1015717887278
 20
210.5249571143631
 30
0.0
 40
2.0
100
AcDbArc
 50
0.0
 51
90.0
  0
ARC
  5
1B1B
330
1A
100
AcDbEntity
  8
SEIHIN
100
AcDbCircle
 10
120.1015717887278
 20
210.5249571143631
 30
0.0
 40
2.0
100
AcDbArc
 50
0.0
 51
90.0
  0
ARC
  5
1B1C
330
1A
100
AcDbEntity
  8
SEIHIN
100
AcDbCircle
 10
118.9540060817278
 20
210.5249571143631
 30
0.0
 40
2.0
100
AcDbArc
 50
0.0
 51
90.0
  0
LINE
  5
1B1D
330
1A
100
AcDbEntity
  8
SEIHIN
100
AcDbLine
 10
120.687133563691
 20
212.7528835143631
 30
0.0
 11
120.687133563691
 21
213.7528835143631
 31
0.0
  0
ARC
  5
1B1E
330
1A
100
AcDbEntity
  8
SEIHIN
100
AcDbCircle
 10
117.3627817737278
 20
208.4073274843631
 30
0.0
 40
2.000000014999998
100
AcDbArc
 50
0.0
 51
90.0
  0
ARC
  5
1B1F
330
1A
100
AcDbEntity
  8
SEIHIN
100
AcDbCircle
 10
177.2739534296747
 20
206.2528834743631
 30
0.0
 40
3.25
100
AcDbArc
 50
112.6198649480423
 51
247.3801350519577
  0
LINE
  5
1B20
330
1A
100
AcDbEntity
  8
SEIHIN
100
AcDbLine
 10
172.9800505507123
 20
199.7528834743631
 30
0.0
 11
172.9800505507123
 21
198.7528834743631
 31
0.0
  0
LINE
  5
1B21
330
1A
100
AcDbEntity
  8
SEIHIN
100
AcDbLine
 10
172.9800505507123
 20
212.7528835143631
 30
0.0
 11
172.9800505507123
 21
213.7528835143631
 31
0.0
  0
LINE
  5
1B22
330
1A
100
AcDbEntity
  8
SEIHIN
 62
     3
100
AcDbLine
 10
203.7336381317279
 20
198.7528834843631
 30
0.0
 11
203.7336381317279
 21
195.7528834843631
 31
0.0
  0
LINE
  5
1B23
330
1A
100
AcDbEntity
  8
SEIHIN
 62
     3
100
AcDbLine
 10
202.3442364217279
 20
195.7528834843631
 30
0.0
 11
202.3442364217279
 21
198.7528834843631
 31
0.0
  0
LINE
  5
1B24
330
1A
100
AcDbEntity
  8
SEIHIN
 62
     3
100
AcDbLine
 10
197.3510740217279
 20
198.7528834843631
 30
0.0
 11
197.3510740217279
 21
195.7528834843631
 31
0.0
  0
LINE
  5
1B25
330
1A
100
AcDbEntity
  8
SEIHIN
 62
     3
100
AcDbLine
 10
197.3510740217279
 20
195.7528834843631
 30
0.0
 11
195.9616723117278
 21
197.8240782943631
 31
0.0
  0
LINE
  5
1B26
330
1A
100
AcDbEntity
  8
SEIHIN
 62
     3
100
AcDbLine
 10
195.9616723117278
 20
195.7528834843631
 30
0.0
 11
195.9616723117278
 21
198.7528834843631
 31
0.0
  0
LINE
  5
1B27
330
1A
100
AcDbEntity
  8
SEIHIN
 62
     3
100
AcDbLine
 10
203.7336381317279
 20
195.7528834843631
 30
0.0
 11
202.3442364217279
 21
197.8240782943631
 31
0.0
  0
LINE
  5
1B28
330
1A
100
AcDbEntity
  8
SEIHIN
 62
     3
100
AcDbLine
 10
206.4142256217278
 20
196.4298315143631
 30
0.0
 11
206.4142256217278
 21
181.7528834843629
 31
0.0
  0
LINE
  5
1B29
330
1A
100
AcDbEntity
  8
SEIHIN
 62
     3
100
AcDbLine
 10
193.0441612717279
 20
196.4298318943631
 30
0.0
 11
193.0441612717279
 21
181.7528834843631
 31
0.0
  0
LINE
  5
1B2A
330
1A
100
AcDbEntity
  8
SEIHIN
 62
     3
100
AcDbLine
 10
191.8441612717278
 20
181.7528834843631
 30
0.0
 11
191.8441612717278
 21
196.9179360143631
 31
0.0
  0
ARC
  5
1B2B
330
1A
100
AcDbEntity
  8
SEIHIN
 62
     3
100
AcDbCircle
 10
199.4445084833158
 20
185.2528834943631
 30
0.0
 40
5.185616519156494
100
AcDbArc
 50
336.1109838713463
 51
23.88901612865367
  0
ARC
  5
1B2C
330
1A
100
AcDbEntity
  8
SEIHIN
 62
     3
100
AcDbCircle
 10
190.9641536713558
 20
186.7778834843631
 30
0.0
 40
7.826647520660156
100
AcDbArc
 50
338.4486589066005
 51
21.5513410933995
  0
ARC
  5
1B2D
330
1A
100
AcDbEntity
  8
SEIHIN
 62
     3
100
AcDbCircle
 10
190.5311322601398
 20
185.2528834943631
 30
0.0
 40
5.185616510013183
100
AcDbArc
 50
336.1109838265991
 51
23.88901617340093
  0
LINE
  5
1B2E
330
1A
100
AcDbEntity
  8
SEIHIN
 62
     3
100
AcDbLine
 10
205.6714442695343
 20
179.7528834843631
 30
0.0
 11
192.5869426239214
 21
179.7528834843631
 31
0.0
  0
LINE
  5
1B2F
330
1A
100
AcDbEntity
  8
CENTER L
100
AcDbLine
 10
194.118166254593
 20
186.7778834843631
 30
0.0
 11
202.3686307413488
 21
186.7778834843631
 31
0.0
  0
LINE
  5
1B30
330
1A
100
AcDbEntity
  8
CENTER L
100
AcDbLine
 10
191.2502046097854
 20
185.2528835043631
 30
0.0
 11
199.2948060505082
 21
185.2528835043631
 31
0.0
  0
LINE
  5
1B31
330
1A
100
AcDbEntity
  8
SEIHIN
 62
     3
100
AcDbLine
 10
195.9616723117278
 20
195.7528834843631
 30
0.0
 11
197.3510740217279
 21
195.7528834843631
 31
0.0
  0
LINE
  5
1B32
330
1A
100
AcDbEntity
  8
SEIHIN
 62
     3
100
AcDbLine
 10
202.3442364217279
 20
195.7528834843631
 30
0.0
 11
203.7336381317279
 21
195.7528834843631
 31
0.0
  0
ARC
  5
1B33
330
1A
100
AcDbEntity
  8
SEIHIN
 62
     3
100
AcDbCircle
 10
191.4896510317279
 20
213.2590393043631
 30
0.0
 40
1.699999989349252
100
AcDbArc
 50
93.79183535491853
 51
163.1123117581125
  0
ARC
  5
1B34
330
1A
100
AcDbEntity
  8
SEIHIN
 62
     3
100
AcDbCircle
 10
191.4896510317279
 20
199.1131200043631
 30
0.0
 40
1.700000004646646
100
AcDbArc
 50
194.548545520478
 51
266.2081647342352
  0
ARC
  5
1B35
330
1A
100
AcDbEntity
  8
SEIHIN
100
AcDbCircle
 10
185.4524451562591
 20
206.2528835043631
 30
0.0
 40
3.25
100
AcDbArc
 50
292.6198649480444
 51
67.38013505195957
  0
LINE
  5
1B36
330
1A
100
AcDbEntity
  8
SEIHIN
100
AcDbLine
 10
176.0239534296747
 20
203.2528834743631
 30
0.0
 11
176.0239534296747
 21
199.7528834743631
 31
0.0
  0
LINE
  5
1B37
330
1A
100
AcDbEntity
  8
SEIHIN
100
AcDbLine
 10
186.7024451562592
 20
203.2528835043631
 30
0.0
 11
186.7024451562592
 21
199.7528834843631
 31
0.0
  0
LINE
  5
1B38
330
1A
100
AcDbEntity
  8
SEIHIN
100
AcDbLine
 10
189.5402392526125
 20
199.7528834843631
 30
0.0
 11
189.5402392526125
 21
198.7528834843631
 31
0.0
  0
LINE
  5
1B39
330
1A
100
AcDbEntity
  8
SEIHIN
100
AcDbLine
 10
176.0239534296747
 20
212.7528835143631
 30
0.0
 11
176.0239534296747
 21
209.2528834743631
 31
0.0
  0
LINE
  5
1B3A
330
1A
100
AcDbEntity
  8
SEIHIN
100
AcDbLine
 10
186.7024451562592
 20
209.2528835043631
 30
0.0
 11
186.7024451562592
 21
212.7528835043631
 31
0.0
  0
LINE
  5
1B3B
330
1A
100
AcDbEntity
  8
SEIHIN
100
AcDbLine
 10
189.5402392526125
 20
212.7528835043631
 30
0.0
 11
189.5402392526125
 21
213.7528835043631
 31
0.0
  0
ARC
  5
1B3C
330
1A
100
AcDbEntity
  8
SEIHIN
 62
     3
100
AcDbCircle
 10
195.7789651717279
 20
206.2528835043631
 30
0.0
 40
3.000000000000034
100
AcDbArc
 50
270.0000074484507
 51
90.00000954929655
  0
LINE
  5
1B3D
330
1A
100
AcDbEntity
  8
SEIHIN
 62
     3
100
AcDbLine
 10
204.3865585717278
 20
213.7528835043631
 30
0.0
 11
204.3865585717278
 21
198.7528834843631
 31
0.0
  0
LINE
  5
1B3E
330
1A
100
AcDbEntity
  8
SEIHIN
 62
     3
100
AcDbLine
 10
197.7788783017278
 20
197.254469264363
 30
0.0
 11
201.9292050917279
 21
197.254469264363
 31
0.0
  0
LINE
  5
1B3F
330
1A
100
AcDbEntity
  8
SEIHIN
 62
     3
100
AcDbLine
 10
194.2441612717278
 20
197.254469264363
 30
0.0
 11
195.6207083617279
 21
197.254469264363
 31
0.0
  0
ARC
  5
1B40
330
1A
100
AcDbEntity
  8
SEIHIN
 62
     3
100
AcDbCircle
 10
191.3441612717278
 20
196.4298318943631
 30
0.0
 40
1.700000000443591
100
AcDbArc
 50
0.0
 51
81.00000002413239
  0
LINE
  5
1B41
330
1A
100
AcDbEntity
  8
SEIHIN
 62
     3
100
AcDbLine
 10
191.6100998617279
 20
198.1089020743631
 30
0.0
 11
190.9661184517278
 21
198.7528834843631
 31
0.0
  0
ARC
  5
1B42
330
1A
100
AcDbEntity
  8
SEIHIN
 62
     3
100
AcDbCircle
 10
191.3441612717278
 20
196.9179360143631
 30
0.0
 40
0.4999999992379601
100
AcDbArc
 50
0.0
 51
86.20816538453839
  0
ARC
  5
1B43
330
1A
100
AcDbEntity
  8
SEIHIN
 62
     3
100
AcDbCircle
 10
204.7142256217279
 20
196.4298318943631
 30
0.0
 40
1.700000000443612
100
AcDbArc
 50
359.9999871927081
 51
81.00000002413239
  0
LINE
  5
1B44
330
1A
100
AcDbEntity
  8
SEIHIN
 62
     3
100
AcDbLine
 10
204.1150438717279
 20
197.2528834843631
 30
0.0
 11
205.7198369017278
 21
197.2528834843631
 31
0.0
  0
LINE
  5
1B45
330
1A
100
AcDbEntity
  8
SEIHIN
 62
     3
100
AcDbLine
 10
204.9801642117279
 20
198.1089020743631
 30
0.0
 11
204.3361828017278
 21
198.7528834843631
 31
0.0
  0
LINE
  5
1B46
330
1A
100
AcDbEntity
  8
SEIHIN
 62
     3
100
AcDbLine
 10
204.3865585717278
 20
198.7528834843631
 30
0.0
 11
204.3865585717278
 21
199.7528834843631
 31
0.0
  0
LINE
  5
1B47
330
1A
100
AcDbEntity
  8
SEIHIN
 62
     3
100
AcDbLine
 10
197.7788783017278
 20
215.2512977043631
 30
0.0
 11
201.9292050917279
 21
215.2512977043631
 31
0.0
  0
LINE
  5
1B48
330
1A
100
AcDbEntity
  8
SEIHIN
 62
     3
100
AcDbLine
 10
195.9616723117278
 20
216.7528835043631
 30
0.0
 11
195.9616723117278
 21
213.7528835043631
 31
0.0
  0
LINE
  5
1B49
330
1A
100
AcDbEntity
  8
SEIHIN
 62
     3
100
AcDbLine
 10
197.3510740217279
 20
213.7528835043631
 30
0.0
 11
197.3510740217279
 21
216.7528835043631
 31
0.0
  0
LINE
  5
1B4A
330
1A
100
AcDbEntity
  8
SEIHIN
 62
     3
100
AcDbLine
 10
191.6100998617279
 20
214.396864904363
 30
0.0
 11
190.9661184517278
 21
213.7528835043631
 31
0.0
  0
LINE
  5
1B4B
330
1A
100
AcDbEntity
  8
SEIHIN
 62
     3
100
AcDbLine
 10
194.2441612717278
 20
215.2512977043631
 30
0.0
 11
195.6207083617279
 21
215.2512977043631
 31
0.0
  0
ARC
  5
1B4C
330
1A
100
AcDbEntity
  8
SEIHIN
 62
     3
100
AcDbCircle
 10
191.3441612717278
 20
216.0759351043631
 30
0.0
 40
1.700000010320476
100
AcDbArc
 50
278.9999998704206
 51
0.0
  0
ARC
  5
1B4D
330
1A
100
AcDbEntity
  8
SEIHIN
 62
     3
100
AcDbCircle
 10
191.3441612717278
 20
215.454223304363
 30
0.0
 40
0.5000000241832312
100
AcDbArc
 50
273.791834236553
 51
0.0
  0
LINE
  5
1B4E
330
1A
100
AcDbEntity
  8
SEIHIN
 62
     3
100
AcDbLine
 10
195.9616723117278
 20
216.7528835043631
 30
0.0
 11
197.3510740217279
 21
216.7528835043631
 31
0.0
  0
LINE
  5
1B4F
330
1A
100
AcDbEntity
  8
SEIHIN
 62
     3
100
AcDbLine
 10
197.3510740217279
 20
216.7528835043631
 30
0.0
 11
195.9616723117278
 21
214.6816887043631
 31
0.0
  0
LINE
  5
1B50
330
1A
100
AcDbEntity
  8
SEIHIN
 62
     3
100
AcDbLine
 10
204.9801642117279
 20
214.396864904363
 30
0.0
 11
204.3361828017278
 21
213.7528835043631
 31
0.0
  0
LINE
  5
1B51
330
1A
100
AcDbEntity
  8
SEIHIN
 62
     3
100
AcDbLine
 10
202.3442364217279
 20
216.7528835043631
 30
0.0
 11
202.3442364217279
 21
213.7528835043631
 31
0.0
  0
LINE
  5
1B52
330
1A
100
AcDbEntity
  8
SEIHIN
 62
     3
100
AcDbLine
 10
203.7336381317279
 20
213.7528835043631
 30
0.0
 11
203.7336381317279
 21
216.7528835043631
 31
0.0
  0
LINE
  5
1B53
330
1A
100
AcDbEntity
  8
SEIHIN
 62
     3
100
AcDbLine
 10
204.3865585717278
 20
213.7528835043631
 30
0.0
 11
204.3865585717278
 21
212.7528835043631
 31
0.0
  0
LINE
  5
1B54
330
1A
100
AcDbEntity
  8
SEIHIN
 62
     3
100
AcDbLine
 10
202.3442364217279
 20
216.7528835043631
 30
0.0
 11
203.7336381317279
 21
216.7528835043631
 31
0.0
  0
LINE
  5
1B55
330
1A
100
AcDbEntity
  8
SEIHIN
 62
     3
100
AcDbLine
 10
203.7336381317279
 20
216.7528835043631
 30
0.0
 11
202.3442364217279
 21
214.6816887043631
 31
0.0
  0
ARC
  5
1B56
330
1A
100
AcDbEntity
  8
SEIHIN
 62
     3
100
AcDbCircle
 10
204.7142256217279
 20
216.0759351043631
 30
0.0
 40
1.700000010320489
100
AcDbArc
 50
278.9999998704206
 51
0.0000101110185475
  0
LINE
  5
1B57
330
1A
100
AcDbEntity
  8
SEIHIN
 62
     3
100
AcDbLine
 10
204.1150438717279
 20
215.2528835043631
 30
0.0
 11
205.7198369017278
 21
215.2528835043631
 31
0.0
  0
LINE
  5
1B58
330
1A
100
AcDbEntity
  8
CENTER L
100
AcDbLine
 10
191.2502046097854
 20
227.2528834843631
 30
0.0
 11
199.2948060505082
 21
227.2528834843631
 31
0.0
  0
LINE
  5
1B59
330
1A
100
AcDbEntity
  8
CENTER L
100
AcDbLine
 10
194.118166254593
 20
225.727883504363
 30
0.0
 11
202.3686307413488
 21
225.727883504363
 31
0.0
  0
ARC
  5
1B5A
330
1A
100
AcDbEntity
  8
SEIHIN
 62
     3
100
AcDbCircle
 10
190.9641536713558
 20
225.727883504363
 30
0.0
 40
7.826647520660156
100
AcDbArc
 50
338.4486589066005
 51
21.5513410933995
  0
ARC
  5
1B5B
330
1A
100
AcDbEntity
  8
SEIHIN
 62
     3
100
AcDbCircle
 10
190.5311322601398
 20
227.2528834943631
 30
0.0
 40
5.185616510013183
100
AcDbArc
 50
336.1109838265991
 51
23.88901617340093
  0
ARC
  5
1B5C
330
1A
100
AcDbEntity
  8
SEIHIN
 62
     3
100
AcDbCircle
 10
199.4445084833158
 20
227.2528834943631
 30
0.0
 40
5.185616519156494
100
AcDbArc
 50
336.1109838713463
 51
23.88901612865367
  0
LINE
  5
1B5D
330
1A
100
AcDbEntity
  8
SEIHIN
 62
     3
100
AcDbLine
 10
205.6714442695343
 20
232.7528835043631
 30
0.0
 11
192.5869426239214
 21
232.7528835043631
 31
0.0
  0
LINE
  5
1B5E
330
1A
100
AcDbEntity
  8
SEIHIN
100
AcDbLine
 10
314.0908696481706
 20
132.7270948774499
 30
0.0
 11
316.5049090985761
 21
126.6919964083372
 31
0.0
  0
CIRCLE
  5
1B5F
330
1A
100
AcDbEntity
  8
SEIHIN
100
AcDbCircle
 10
302.7366344634393
 20
127.108367720193
 30
0.0
 40
2.099999986565482
  0
LINE
  5
1B60
330
1A
100
AcDbEntity
  8
CENTER L
100
AcDbLine
 10
308.4003422312792
 20
129.3738508862271
 30
0.0
 11
297.0729266955994
 21
124.8428845541588
 31
0.0
  0
LINE
  5
1B61
330
1A
100
AcDbEntity
  8
CENTER L
100
AcDbLine
 10
305.0021176294735
 20
121.4446599523531
 30
0.0
 11
300.4711512974051
 21
132.7720754880328
 31
0.0
  0
LINE
  5
1B62
330
1A
100
AcDbEntity
  8
SEIHIN
100
AcDbLine
 10
347.0249725129558
 20
138.9000220914742
 30
0.0
 11
301.5296148227216
 21
120.701878542264
 31
0.0
  0
LINE
  5
1B63
330
1A
100
AcDbEntity
  8
SEIHIN
100
AcDbLine
 10
287.0453781685662
 20
151.5273045498055
 30
0.0
 11
298.9298800782546
 21
121.81605054802
 31
0.0
  0
LINE
  5
1B64
330
1A
100
AcDbEntity
  8
CENTER L
100
AcDbLine
 10
302.3652432718508
 20
184.5810748826611
 30
0.0
 11
326.877028460583
 21
123.3016135039784
 31
0.0
  0
DIMENSION
  5
1B65
330
1A
100
AcDbEntity
  8
SUNPOU
100
AcDbDimension
  2
*D9
 10
273.7000538605851
 20
109.5700538680019
 30
0.0
 11
269.3362132552741
 21
127.2111109557004
 31
0.0
 70
    32
 71
     5
 42
35.99999999999996
  3
STANDARD
100
AcDbAlignedDimension
 13
288.1595501743223
 23
154.1270392942726
 33
0.0
 14
301.5296148227216
 24
120.701878542264
 34
0.0
 50
111.8014100000026
100
AcDbRotatedDimension
1001
ACAD
1000
DSTYLE
1002
{
1070
    41
1040
3.0
1070
    42
1040
3.0
1070
    43
1040
7.0
1070
    44
1040
1.5
1070
    73
1070
     0
1070
    74
1070
     0
1070
    77
1070
     3
1070
   140
1040
3.0
1070
   141
1040
3.0
1070
   147
1040
1.0
1070
   172
1070
     1
1070
   173
1070
     1
1070
   176
1070
   256
1070
   177
1070
   256
1070
   178
1070
   256
1070
   271
1070
     0
1070
   272
1070
     0
1070
   341
1005
B2
1070
     6
1000
OPEN
1070
     7
1000
OPEN
1002
}
  0
LINE
  5
1B66
330
1A
100
AcDbEntity
  8
SEIHIN
  6
DASHED
 62
     2
100
AcDbLine
 10
241.4142255917279
 20
82.65572319715756
 30
0.0
 11
235.1934317917279
 21
80.16740566715754
 31
0.0
  0
LINE
  5
1B67
330
1A
100
AcDbEntity
  8
SEIHIN
  6
DASHED
 62
     2
100
AcDbLine
 10
235.1934317917279
 20
80.16740566715754
 30
0.0
 11
221.8233674417278
 21
113.5925665371576
 31
0.0
  0
LINE
  5
1B68
330
1A
100
AcDbEntity
  8
SUNPOU
100
AcDbLine
 10
213.8420391488099
 20
54.08618937945239
 30
0.0
 11
213.8420391488099
 21
64.08618937945239
 31
0.0
  0
LINE
  5
1B69
330
1A
100
AcDbEntity
  8
SUNPOU
100
AcDbLine
 10
217.8420391488099
 20
54.08618937945239
 30
0.0
 11
213.8420391488099
 21
54.08618937945239
 31
0.0
  0
TEXT
  5
1B6A
330
1A
100
AcDbEntity
  8
SUNPOU
100
AcDbText
 10
214.5981633604008
 20
49.00279259905479
 30
0.0
 40
3.0
  1
4
100
AcDbText
  0
TEXT
  5
1B6B
330
1A
100
AcDbEntity
  8
SUNPOU
100
AcDbText
 10
208.1230197626135
 20
58.24533170416846
 30
0.0
 40
3.0
  1
10
100
AcDbText
  0
LINE
  5
1B6C
330
1A
100
AcDbEntity
  8
SEIHIN
  6
DASHED
 62
     2
100
AcDbLine
 10
226.9299892417279
 20
115.6352152571575
 30
0.0
 11
240.3000535917278
 21
82.21005438715753
 31
0.0
  0
LINE
  5
1B6D
330
1A
100
AcDbEntity
  8
SEIHIN
  6
DASHED
 62
     2
100
AcDbLine
 10
228.0441612717279
 20
116.0808840671575
 30
0.0
 11
241.4142255917279
 21
82.65572319715756
 31
0.0
  0
LINE
  5
1B6E
330
1A
100
AcDbEntity
  8
CENTER L
100
AcDbLine
 10
245.6852184002332
 20
90.82631807503157
 30
0.0
 11
231.5723726969647
 21
85.18117979826144
 31
0.0
  0
LINE
  5
1B6F
330
1A
100
AcDbEntity
  8
CENTER L
100
AcDbLine
 10
225.6301218750046
 20
100.0368068509394
 30
0.0
 11
239.7429675782732
 21
105.6819451277094
 31
0.0
  0
ARC
  5
1B70
330
1A
100
AcDbEntity
  8
SEIHIN
 62
     2
100
AcDbCircle
 10
222.8918191917279
 20
124.9228656671575
 30
0.0
 40
0.9999999999148655
100
AcDbArc
 50
21.80140969914445
 51
49.06745390306368
  0
LINE
  5
1B71
330
1A
100
AcDbEntity
  8
SEIHIN
  6
DASHED
 62
     2
100
AcDbLine
 10
221.8233674417278
 20
113.5925665371576
 30
0.0
 11
228.0441612717279
 21
116.0808840671575
 31
0.0
  0
LINE
  5
1B72
330
1A
100
AcDbEntity
  8
CENTER L
100
AcDbLine
 10
222.6589964637887
 20
107.4646203778682
 30
0.0
 11
236.7718421670572
 21
113.1097586546383
 31
0.0
  0
LINE
  5
1B73
330
1A
100
AcDbEntity
  8
SEIHIN
  6
DASHED
 62
     2
100
AcDbLine
 10
220.7091951517279
 20
119.6090961471575
 30
0.0
 11
222.9375394717278
 21
114.0382353471575
 31
0.0
  0
ARC
  5
1B74
330
1A
100
AcDbEntity
  8
SEIHIN
  6
DASHED
 62
     2
100
AcDbCircle
 10
216.9952886517278
 20
118.1235327871576
 30
0.0
 40
4.000000003295027
100
AcDbArc
 50
21.80141959393112
 51
170.7918455562607
  0
LINE
  5
1B75
330
1A
100
AcDbEntity
  8
SEIHIN
  6
DASHED
 62
     2
100
AcDbLine
 10
223.8202958817279
 20
125.2942563471575
 30
0.0
 11
227.5799229217279
 21
115.8951887271575
 31
0.0
  0
DIMENSION
  5
1B76
330
1A
100
AcDbEntity
  8
SUNPOU
100
AcDbDimension
  2
*D10
 10
282.8672805665414
 20
113.236944645717
 30
0.0
 11
284.1671479025668
 21
116.7187322481899
 31
0.0
 70
    32
 71
     5
 42
5.500000000000085
  3
STANDARD
100
AcDbAlignedDimension
 13
297.0729266955994
 23
124.8428845541588
 33
0.0
 14
301.5296148227216
 24
120.701878542264
 34
0.0
 50
111.8014100000026
100
AcDbRotatedDimension
1001
ACAD
1000
DSTYLE
1002
{
1070
    41
1040
3.0
1070
    42
1040
3.0
1070
    43
1040
7.0
1070
    44
1040
1.5
1070
    73
1070
     0
1070
    74
1070
     0
1070
    77
1070
     3
1070
   140
1040
3.0
1070
   141
1040
3.0
1070
   147
1040
1.0
1070
   172
1070
     1
1070
   173
1070
     1
1070
   176
1070
   256
1070
   177
1070
   256
1070
   178
1070
   256
1070
   271
1070
     0
1070
   272
1070
     0
1070
   341
1005
B2
1070
     6
1000
OPEN
1070
     7
1000
OPEN
1002
}
  0
ARC
  5
1B77
330
1A
100
AcDbEntity
  8
SEIHIN
100
AcDbCircle
 10
300.7868334533661
 20
122.5588319173755
 30
0.0
 40
2.0
100
AcDbArc
 50
201.8014099999993
 51
291.801409999999
  0
LINE
  5
1B78
330
1A
100
AcDbEntity
  8
CENTER L
100
AcDbLine
 10
340.9434499716295
 20
160.1621382480602
 30
0.0
 11
327.4805380529026
 21
154.7769733405656
 31
0.0
  0
LINE
  5
1B79
330
1A
100
AcDbEntity
  8
SEIHIN
100
AcDbLine
 10
336.2546426090234
 20
171.2110108377268
 30
0.0
 11
348.1391445187118
 21
141.4997568359413
 31
0.0
  0
LINE
  5
1B7A
330
1A
100
AcDbEntity
  8
CENTER L
100
AcDbLine
 10
347.3963631086227
 20
144.972259642693
 30
0.0
 11
336.0689475729429
 21
140.4412933106248
 31
0.0
  0
DIMENSION
  5
1B7B
330
1A
100
AcDbEntity
  8
SUNPOU
100
AcDbDimension
  2
*D11
 10
355.6365995019282
 20
166.039398212978
 30
0.0
 11
355.358056428073
 21
173.467211737563
 31
0.0
 70
    32
 71
     5
 42
14.0000000000001
  3
STANDARD
100
AcDbAlignedDimension
 13
333.6549078645564
 23
172.3251828434829
 33
0.0
 14
340.7113308251566
 24
160.0692905870573
 34
0.0
 50
111.8014100000026
100
AcDbRotatedDimension
1001
ACAD
1000
DSTYLE
1002
{
1070
    41
1040
3.0
1070
    42
1040
3.0
1070
    43
1040
7.0
1070
    44
1040
1.5
1070
    73
1070
     0
1070
    74
1070
     0
1070
    77
1070
     3
1070
   140
1040
3.0
1070
   141
1040
3.0
1070
   147
1040
1.0
1070
   172
1070
     1
1070
   173
1070
     1
1070
   176
1070
   256
1070
   177
1070
   256
1070
   178
1070
   256
1070
   271
1070
     0
1070
   272
1070
     0
1070
   341
1005
B2
1070
     6
1000
OPEN
1070
     7
1000
OPEN
1002
}
  0
LWPOLYLINE
  5
1B7C
330
1A
100
AcDbEntity
  8
SUNPOU
100
AcDbPolyline
 90
        3
 70
     0
 43
0.0
 10
337.0003647731335
 20
163.0223644149774
 10
348.1109000367209
 20
196.630496101585
 10
363.9603498772253
 20
196.630496101585
1001
ACAD
1000
DSTYLE
1002
{
1070
    41
1040
3.0
1070
    42
1040
3.0
1070
    43
1040
7.0
1070
    44
1040
1.5
1070
    73
1070
     0
1070
    74
1070
     0
1070
    77
1070
     0
1070
   140
1040
3.0
1070
   141
1040
3.0
1070
   147
1040
1.0
1070
   172
1070
     1
1070
   173
1070
     1
1070
   176
1070
   256
1070
   177
1070
   256
1070
   178
1070
   256
1070
   271
1070
     0
1070
   272
1070
     0
1070
   341
1005
B2
1070
   343
1005
B2
1070
   344
1005
B2
1002
}
  0
DIMENSION
  5
1B7D
330
1A
100
AcDbEntity
  8
SUNPOU
100
AcDbDimension
  2
*D12
 10
316.5805583890085
 20
220.3962201090449
 30
0.0
 11
291.0474494570855
 21
212.8755586839741
 31
0.0
 70
    32
 71
     5
 42
53.0
  3
STANDARD
100
AcDbAlignedDimension
 13
287.0453781685662
 23
151.5273045498055
 33
0.0
 14
336.2546426090234
 24
171.2110108377268
 34
0.0
 50
21.80140999999934
100
AcDbRotatedDimension
1001
ACAD
1000
DSTYLE
1002
{
1070
    41
1040
3.0
1070
    42
1040
3.0
1070
    43
1040
7.0
1070
    44
1040
1.5
1070
    73
1070
     0
1070
    74
1070
     0
1070
    77
1070
     3
1070
   140
1040
3.0
1070
   141
1040
3.0
1070
   147
1040
1.0
1070
   172
1070
     1
1070
   173
1070
     1
1070
   176
1070
   256
1070
   177
1070
   256
1070
   178
1070
   256
1070
   271
1070
     0
1070
   272
1070
     0
1070
   341
1005
B2
1070
     6
1000
OPEN
1070
     7
1000
OPEN
1002
}
  0
DIMENSION
  5
1B7E
330
1A
100
AcDbEntity
  8
SUNPOU
100
AcDbDimension
  2
*D13
 10
271.5398646838696
 20
141.5554836161687
 30
0.0
 11
272.8397320198951
 21
145.0372712186416
 31
0.0
 70
    32
 71
     5
 42
5.499999999999957
  3
STANDARD
100
AcDbAlignedDimension
 13
288.1595501743223
 23
154.1270392942726
 33
0.0
 14
287.7881595786554
 24
148.0548017430537
 34
0.0
 50
111.8014100000026
100
AcDbRotatedDimension
1001
ACAD
1000
DSTYLE
1002
{
1070
    41
1040
3.0
1070
    42
1040
3.0
1070
    43
1040
7.0
1070
    44
1040
1.5
1070
    73
1070
     0
1070
    74
1070
     0
1070
    77
1070
     3
1070
   140
1040
3.0
1070
   141
1040
3.0
1070
   147
1040
1.0
1070
   172
1070
     1
1070
   173
1070
     1
1070
   176
1070
   256
1070
   177
1070
   256
1070
   178
1070
   256
1070
   271
1070
     0
1070
   272
1070
     0
1070
   341
1005
B2
1070
     6
1000
OPEN
1070
     7
1000
OPEN
1002
}
  0
LWPOLYLINE
  5
1B7F
330
1A
100
AcDbEntity
  8
SUNPOU
100
AcDbPolyline
 90
        3
 70
     0
 43
0.0
 10
289.2320087351243
 20
152.8404243349948
 10
267.8168326603629
 20
171.28976303032
 10
250.2350460234542
 20
171.28976303032
1001
ACAD
1000
DSTYLE
1002
{
1070
    41
1040
3.0
1070
    42
1040
3.0
1070
    43
1040
7.0
1070
    44
1040
1.5
1070
    73
1070
     0
1070
    74
1070
     0
1070
    77
1070
     0
1070
   140
1040
3.0
1070
   141
1040
3.0
1070
   147
1040
1.0
1070
   172
1070
     1
1070
   173
1070
     1
1070
   176
1070
   256
1070
   177
1070
   256
1070
   178
1070
   256
1070
   271
1070
     0
1070
   272
1070
     0
1070
   341
1005
B2
1070
   343
1005
B2
1070
   344
1005
B2
1002
}
  0
TEXT
  5
1B80
330
1A
100
AcDbEntity
  8
SUNPOU
100
AcDbText
 10
251.2168326603631
 20
171.998813836934
 30
0.0
 40
3.0
  1
4-φ4.2
100
AcDbText
  0
LINE
  5
1B81
330
1A
100
AcDbEntity
  8
SEIHIN
100
AcDbLine
 10
329.4161142975489
 20
137.1482666507478
 30
0.0
 11
311.9285532212636
 21
180.8671682048537
 31
0.0
  0
LINE
  5
1B82
330
1A
100
AcDbEntity
  8
SEIHIN
100
AcDbLine
 10
328.4876376099931
 20
136.77687596607
 30
0.0
 11
311.0000765337078
 21
180.4957775201759
 31
0.0
  0
LINE
  5
1B83
330
1A
100
AcDbEntity
  8
SEIHIN
100
AcDbLine
 10
309.6126426704788
 20
174.5403238867993
 30
0.0
 11
318.8805866692315
 21
151.3704644922894
 31
0.0
  0
ARC
  5
1B84
330
1A
100
AcDbEntity
  8
SEIHIN
100
AcDbCircle
 10
306.8272127415121
 20
173.4261514985143
 30
0.0
 40
3.00000000000002
100
AcDbArc
 50
21.80141687549248
 51
201.8014038884509
  0
DIMENSION
  5
1B85
330
1A
100
AcDbEntity
  8
SUNPOU
100
AcDbDimension
  2
*D14
 10
316.1578547214125
 20
202.6049028480162
 30
0.0
 11
297.1240826023799
 21
197.6839762156895
 31
0.0
 70
    32
 71
     5
 42
39.00000000000011
  3
STANDARD
100
AcDbAlignedDimension
 13
295.3904129664356
 23
149.5127945000642
 33
0.0
 14
331.6010037811117
 24
163.9970312024969
 34
0.0
 50
21.80140999999934
100
AcDbRotatedDimension
1001
ACAD
1000
DSTYLE
1002
{
1070
    41
1040
3.0
1070
    42
1040
3.0
1070
    43
1040
7.0
1070
    44
1040
1.5
1070
    73
1070
     0
1070
    74
1070
     0
1070
    77
1070
     3
1070
   140
1040
3.0
1070
   141
1040
3.0
1070
   147
1040
1.0
1070
   172
1070
     1
1070
   173
1070
     1
1070
   176
1070
   256
1070
   177
1070
   256
1070
   178
1070
   256
1070
   271
1070
     0
1070
   272
1070
     0
1070
   341
1005
B2
1070
     6
1000
OPEN
1070
     7
1000
OPEN
1002
}
  0
DIMENSION
  5
1B86
330
1A
100
AcDbEntity
  8
SUNPOU
100
AcDbDimension
  2
*D15
 10
314.4228910131114
 20
210.9811855208357
 30
0.0
 11
293.9964038627452
 21
205.5031728614924
 31
0.0
 70
    32
 71
     5
 42
42.0
  3
STANDARD
100
AcDbAlignedDimension
 13
291.1863841804612
 23
155.9839926769278
 33
0.0
 14
330.1824050578046
 24
171.5824014333937
 34
0.0
 50
21.80140999999934
100
AcDbRotatedDimension
1001
ACAD
1000
DSTYLE
1002
{
1070
    41
1040
3.0
1070
    42
1040
3.0
1070
    43
1040
7.0
1070
    44
1040
1.5
1070
    73
1070
     0
1070
    74
1070
     0
1070
    77
1070
     3
1070
   140
1040
3.0
1070
   141
1040
3.0
1070
   147
1040
1.0
1070
   172
1070
     1
1070
   173
1070
     1
1070
   176
1070
   256
1070
   177
1070
   256
1070
   178
1070
   256
1070
   271
1070
     0
1070
   272
1070
     0
1070
   341
1005
B2
1070
     6
1000
OPEN
1070
     7
1000
OPEN
1002
}
  0
LINE
  5
1B87
330
1A
100
AcDbEntity
  8
SEIHIN
100
AcDbLine
 10
315.4889639842119
 20
131.5774063805814
 30
0.0
 11
298.0014029079268
 21
175.2963079346873
 31
0.0
  0
LINE
  5
1B88
330
1A
100
AcDbEntity
  8
SEIHIN
100
AcDbLine
 10
316.4174406717677
 20
131.9487970652591
 30
0.0
 11
298.9298795954825
 21
175.667698619365
 31
0.0
  0
LINE
  5
1B89
330
1A
100
AcDbEntity
  8
SEIHIN
100
AcDbLine
 10
306.3576933131763
 20
154.4055824646819
 30
0.0
 11
303.1282303235579
 21
153.1137972352506
 31
0.0
  0
LINE
  5
1B8A
330
1A
100
AcDbEntity
  8
SEIHIN
100
AcDbLine
 10
307.4718653672096
 20
151.6201524020145
 30
0.0
 11
304.2424023775913
 21
150.3283671725832
 31
0.0
  0
LINE
  5
1B8B
330
1A
100
AcDbEntity
  8
SEIHIN
100
AcDbLine
 10
303.9436538627709
 20
160.4406809337946
 30
0.0
 11
306.3576933131763
 21
154.4055824646819
 31
0.0
  0
LINE
  5
1B8C
330
1A
100
AcDbEntity
  8
SEIHIN
100
AcDbLine
 10
304.0417825599997
 20
172.3119797415936
 30
0.0
 11
313.3097265438967
 21
149.1421203842228
 31
0.0
  0
CIRCLE
  5
1B8D
330
1A
100
AcDbEntity
  8
SEIHIN
100
AcDbCircle
 10
293.4518673464954
 20
150.3202849090879
 30
0.0
 40
2.099999971727393
  0
LINE
  5
1B8E
330
1A
100
AcDbEntity
  8
CENTER L
100
AcDbLine
 10
299.1155751143353
 20
152.5857680751221
 30
0.0
 11
287.7881595786554
 21
148.0548017430537
 31
0.0
  0
LINE
  5
1B8F
330
1A
100
AcDbEntity
  8
CENTER L
100
AcDbLine
 10
295.7173505125294
 20
144.656577141248
 30
0.0
 11
291.1863841804612
 21
155.9839926769278
 31
0.0
  0
LINE
  5
1B90
330
1A
100
AcDbEntity
  8
CENTER L
100
AcDbLine
 10
300.6939856513373
 20
136.2538631325168
 30
0.0
 11
295.3088207438427
 21
149.7167750512438
 31
0.0
  0
CIRCLE
  5
1B91
330
1A
100
AcDbEntity
  8
SEIHIN
100
AcDbCircle
 10
298.0014031975899
 20
142.9853190918802
 30
0.0
 40
3.249999972626076
  0
LINE
  5
1B92
330
1A
100
AcDbEntity
  8
CENTER L
100
AcDbLine
 10
304.7328591569535
 20
145.6779015456276
 30
0.0
 11
291.2699472382265
 21
140.2927366381329
 31
0.0
  0
INSERT
  5
1B93
330
1A
100
AcDbEntity
  8
SUNPOU
100
AcDbBlockReference
  2
_OPEN
 10
291.5048694002855
 20
150.8823374123166
 30
0.0
 41
2.999999999999993
 42
3.0
 43
3.0
 50
319.2548486777224
1001
ACAD
1000
DSTYLE
1002
{
1070
    41
1040
3.0
1070
    42
1040
3.0
1070
    43
1040
7.0
1070
    44
1040
1.5
1070
    73
1070
     0
1070
    74
1070
     0
1070
    77
1070
     0
1070
   140
1040
3.0
1070
   141
1040
3.0
1070
   147
1040
1.0
1070
   172
1070
     1
1070
   173
1070
     1
1070
   176
1070
   256
1070
   177
1070
   256
1070
   178
1070
   256
1070
   271
1070
     0
1070
   272
1070
     0
1070
   341
1005
B2
1070
   343
1005
B2
1070
   344
1005
B2
1002
}
  0
LINE
  5
1B94
330
1A
100
AcDbEntity
  8
SEIHIN
100
AcDbLine
 10
303.9436538627709
 20
160.4406809337946
 30
0.0
 11
288.1595501743223
 21
154.1270392942726
 31
0.0
  0
ARC
  5
1B95
330
1A
100
AcDbEntity
  8
SEIHIN
100
AcDbCircle
 10
288.9023315436778
 20
152.270085919161
 30
0.0
 40
2.0
100
AcDbArc
 50
111.801409999999
 51
201.8014099999993
  0
LINE
  5
1B96
330
1A
100
AcDbEntity
  8
SEIHIN
100
AcDbLine
 10
303.1348444501768
 20
160.1171571603459
 30
0.0
 11
305.5488839005822
 21
154.0820586912332
 31
0.0
  0
LINE
  5
1B97
330
1A
100
AcDbEntity
  8
SEIHIN
100
AcDbLine
 10
303.1282303235579
 20
153.1137972352506
 30
0.0
 11
304.2424023775913
 21
150.3283671725832
 31
0.0
  0
LINE
  5
1B98
330
1A
100
AcDbEntity
  8
SEIHIN
100
AcDbLine
 10
300.7921142723995
 20
171.0121120481089
 30
0.0
 11
304.0417826788448
 21
172.3119794444811
 31
0.0
  0
LINE
  5
1B99
330
1A
100
AcDbEntity
  8
SEIHIN
100
AcDbLine
 10
301.112503397781
 20
170.2111392554788
 30
0.0
 11
300.1840267068134
 21
169.8397485793305
 31
0.0
  0
ARC
  5
1B9A
330
1A
100
AcDbEntity
  8
SEIHIN
100
AcDbCircle
 10
317.5922613436391
 20
146.5135306928734
 30
0.0
 40
5.024896822470277
100
AcDbArc
 50
148.4586907698115
 51
75.14412923018909
  0
LINE
  5
1B9B
330
1A
100
AcDbEntity
  8
SEIHIN
100
AcDbLine
 10
321.3990156805466
 20
157.1910126721809
 30
0.0
 11
327.7126573200684
 21
141.4069089837323
 31
0.0
  0
LINE
  5
1B9C
330
1A
100
AcDbEntity
  8
SEIHIN
100
AcDbLine
 10
322.2078250931408
 20
157.5145364456295
 30
0.0
 11
328.5214667326627
 21
141.730432757181
 31
0.0
  0
LINE
  5
1B9D
330
1A
100
AcDbEntity
  8
SEIHIN
100
AcDbLine
 10
307.4718653672096
 20
151.6201524020145
 30
0.0
 11
313.7855070067315
 21
135.836048713566
 31
0.0
  0
LINE
  5
1B9E
330
1A
100
AcDbEntity
  8
SEIHIN
100
AcDbLine
 10
306.6630559546155
 20
151.2966286285658
 30
0.0
 11
312.9766975941374
 21
135.5125249401173
 31
0.0
  0
LINE
  5
1B9F
330
1A
100
AcDbEntity
  8
SEIHIN
100
AcDbLine
 10
327.373465604237
 20
134.1771412216029
 30
0.0
 11
319.0171754162348
 21
130.834625059503
 31
0.0
  0
LINE
  5
1BA0
330
1A
100
AcDbEntity
  8
SEIHIN
100
AcDbLine
 10
311.6702160711464
 20
131.7588334214673
 30
0.0
 11
315.8281557483205
 21
133.4220093355763
 31
0.0
  0
LINE
  5
1BA1
330
1A
100
AcDbEntity
  8
SEIHIN
100
AcDbLine
 10
313.7855070067315
 20
135.836048713566
 30
0.0
 11
314.8996790607648
 21
133.0506186508986
 31
0.0
  0
LINE
  5
1BA2
330
1A
100
AcDbEntity
  8
SEIHIN
100
AcDbLine
 10
310.5560440171132
 20
134.5442634841347
 30
0.0
 11
311.6702160711464
 21
131.7588334214673
 31
0.0
  0
LINE
  5
1BA3
330
1A
100
AcDbEntity
  8
SEIHIN
100
AcDbLine
 10
310.5560440171132
 20
134.5442634841347
 30
0.0
 11
313.7855070067315
 21
135.836048713566
 31
0.0
  0
LINE
  5
1BA4
330
1A
100
AcDbEntity
  8
SEIHIN
100
AcDbLine
 10
314.8996790607648
 20
133.0506186508986
 30
0.0
 11
317.3137185111702
 21
127.0155201817859
 31
0.0
  0
ARC
  5
1BA5
330
1A
100
AcDbEntity
  8
SEIHIN
100
AcDbCircle
 10
318.2743940468793
 20
132.6915784346146
 30
0.0
 40
2.0
100
AcDbArc
 50
201.8014099999993
 51
291.801409999999
  0
CIRCLE
  5
1BA6
330
1A
100
AcDbEntity
  8
SEIHIN
100
AcDbCircle
 10
317.5922613436391
 20
146.5135306928734
 30
0.0
 40
2.999999969510066
  0
LINE
  5
1BA7
330
1A
100
AcDbEntity
  8
SEIHIN
100
AcDbLine
 10
332.0562923637201
 20
139.9132641504962
 30
0.0
 11
327.8983526865459
 21
138.2500882363872
 31
0.0
  0
LINE
  5
1BA8
330
1A
100
AcDbEntity
  8
SEIHIN
100
AcDbLine
 10
329.6356387866959
 20
138.9450026945136
 30
0.0
 11
332.0496782371014
 21
132.9099042254009
 31
0.0
  0
LINE
  5
1BA9
330
1A
100
AcDbEntity
  8
SEIHIN
100
AcDbLine
 10
328.8268293741017
 20
138.6214789210649
 30
0.0
 11
331.2408688245072
 21
132.5863804519523
 31
0.0
  0
ARC
  5
1BAA
330
1A
100
AcDbEntity
  8
SEIHIN
100
AcDbCircle
 10
326.6306842348815
 20
136.0340945967145
 30
0.0
 40
2.0
100
AcDbArc
 50
291.801409999999
 51
21.80140999999934
  0
LINE
  5
1BAB
330
1A
100
AcDbEntity
  8
SEIHIN
100
AcDbLine
 10
330.9421203096869
 20
142.6986942131636
 30
0.0
 11
327.7126573200684
 21
141.4069089837323
 31
0.0
  0
LINE
  5
1BAC
330
1A
100
AcDbEntity
  8
SEIHIN
100
AcDbLine
 10
327.7126573200684
 20
141.4069089837323
 30
0.0
 11
328.8268293741017
 21
138.6214789210649
 31
0.0
  0
LINE
  5
1BAD
330
1A
100
AcDbEntity
  8
SEIHIN
100
AcDbLine
 10
330.9421203096869
 20
142.6986942131636
 30
0.0
 11
332.0562923637201
 21
139.9132641504962
 31
0.0
  0
LINE
  5
1BAE
330
1A
100
AcDbEntity
  8
SEIHIN
100
AcDbLine
 10
320.2848436265132
 20
159.9764427348483
 30
0.0
 11
323.5143066161317
 21
161.2682279642795
 31
0.0
  0
LINE
  5
1BAF
330
1A
100
AcDbEntity
  8
SEIHIN
100
AcDbLine
 10
317.8708041761078
 20
166.0115412039609
 30
0.0
 11
333.6549078645564
 21
172.3251828434829
 31
0.0
  0
LINE
  5
1BB0
330
1A
100
AcDbEntity
  8
SEIHIN
100
AcDbLine
 10
321.3990156805466
 20
157.1910126721809
 30
0.0
 11
324.628478670165
 21
158.4827979016121
 31
0.0
  0
LINE
  5
1BB1
330
1A
100
AcDbEntity
  8
SEIHIN
100
AcDbLine
 10
317.8708041761078
 20
166.0115412039609
 30
0.0
 11
320.2848436265132
 21
159.9764427348483
 31
0.0
  0
LINE
  5
1BB2
330
1A
100
AcDbEntity
  8
SEIHIN
100
AcDbLine
 10
318.679613588702
 20
166.3350649774096
 30
0.0
 11
321.0936530391074
 21
160.2999665082969
 31
0.0
  0
LINE
  5
1BB3
330
1A
100
AcDbEntity
  8
SEIHIN
100
AcDbLine
 10
306.3576933131763
 20
154.4055824646819
 30
0.0
 11
307.4718653672096
 21
151.6201524020145
 31
0.0
  0
LINE
  5
1BB4
330
1A
100
AcDbEntity
  8
SEIHIN
100
AcDbLine
 10
320.2848436265132
 20
159.9764427348483
 30
0.0
 11
321.3990156805466
 21
157.1910126721809
 31
0.0
  0
INSERT
  5
1BB5
330
1A
100
AcDbEntity
  8
SUNPOU
100
AcDbBlockReference
  2
_OPEN
 10
336.0587152770453
 20
160.1739795697508
 30
0.0
 41
2.999999999999982
 42
3.0
 43
3.0
 50
251.7065953267104
1001
ACAD
1000
DSTYLE
1002
{
1070
    41
1040
3.0
1070
    42
1040
3.0
1070
    43
1040
7.0
1070
    44
1040
1.5
1070
    73
1070
     0
1070
    74
1070
     0
1070
    77
1070
     0
1070
   140
1040
3.0
1070
   141
1040
3.0
1070
   147
1040
1.0
1070
   172
1070
     1
1070
   173
1070
     1
1070
   176
1070
   256
1070
   177
1070
   256
1070
   178
1070
   256
1070
   271
1070
     0
1070
   272
1070
     0
1070
   341
1005
B2
1070
   343
1005
B2
1070
   344
1005
B2
1002
}
  0
LINE
  5
1BB6
330
1A
100
AcDbEntity
  8
CENTER L
100
AcDbLine
 10
334.7133713898729
 20
160.2549858977139
 30
0.0
 11
330.1824050578046
 21
171.5824014333937
 31
0.0
  0
LINE
  5
1BB7
330
1A
100
AcDbEntity
  8
CENTER L
100
AcDbLine
 10
336.9045764660133
 20
150.7380998349494
 30
0.0
 11
331.5194115585187
 21
164.2010117536764
 31
0.0
  0
LINE
  5
1BB8
330
1A
100
AcDbEntity
  8
SEIHIN
100
AcDbLine
 10
323.5143066161317
 20
161.2682279642795
 30
0.0
 11
324.628478670165
 21
158.4827979016121
 31
0.0
  0
CIRCLE
  5
1BB9
330
1A
100
AcDbEntity
  8
SEIHIN
100
AcDbCircle
 10
334.2119940122661
 20
157.4695557943129
 30
0.0
 40
3.249999972626096
  0
CIRCLE
  5
1BBA
330
1A
100
AcDbEntity
  8
SEIHIN
100
AcDbCircle
 10
332.4478882238388
 20
165.9186936655538
 30
0.0
 40
2.099999971727393
  0
LINE
  5
1BBB
330
1A
100
AcDbEntity
  8
CENTER L
100
AcDbLine
 10
338.1115959916787
 20
168.184176831588
 30
0.0
 11
326.7841804559989
 21
163.6532104995196
 31
0.0
  0
ARC
  5
1BBC
330
1A
100
AcDbEntity
  8
SEIHIN
100
AcDbCircle
 10
334.3976892339119
 20
170.4682294683713
 30
0.0
 40
2.0
100
AcDbArc
 50
21.80140999999934
 51
111.801409999999
  0
LINE
  5
1BBD
330
1A
100
AcDbEntity
  8
SEIHIN
100
AcDbLine
 10
298.0014029079268
 20
175.2963079346873
 30
0.0
 11
298.9298795954825
 21
175.667698619365
 31
0.0
  0
LINE
  5
1BBE
330
1A
100
AcDbEntity
  8
SEIHIN
100
AcDbLine
 10
314.1111770713274
 20
175.4106087215541
 30
0.0
 11
313.1827003803599
 21
175.0392180454059
 31
0.0
  0
LINE
  5
1BBF
330
1A
100
AcDbEntity
  8
SEIHIN
100
AcDbLine
 10
309.6126428041795
 20
174.5403235525477
 30
0.0
 11
312.8623112106249
 21
175.8401909489198
 31
0.0
  0
LINE
  5
1BC0
330
1A
100
AcDbEntity
  8
SEIHIN
100
AcDbLine
 10
311.0000765337078
 20
180.4957775201759
 30
0.0
 11
311.9285532212636
 21
180.8671682048537
 31
0.0
  0
LINE
  5
1BC1
330
1A
100
AcDbEntity
  8
CENTER L
100
AcDbLine
 10
343.9981385068169
 20
137.043068708819
 30
0.0
 11
339.4671721747486
 21
148.3704842444988
 31
0.0
  0
CIRCLE
  5
1BC2
330
1A
100
AcDbEntity
  8
SEIHIN
100
AcDbCircle
 10
341.7326553407827
 20
142.7067764766589
 30
0.0
 40
2.099999986565493
  0
ARC
  5
1BC3
330
1A
100
AcDbEntity
  8
SEIHIN
100
AcDbCircle
 10
346.2821911436003
 20
140.7569754665857
 30
0.0
 40
2.0
100
AcDbArc
 50
291.801409999999
 51
21.80140999999934
  0
TEXT
  5
1BC4
330
1A
100
AcDbEntity
  8
SUNPOU
100
AcDbText
 10
348.4505052505469
 20
197.9348430142056
 30
0.0
 40
3.0
  1
2-φ6.5
100
AcDbText
  0
VIEWPORT
  5
22
330
17
100
AcDbEntity
 67
     1
  8
0
100
AcDbViewport
 10
313.6808219178083
 20
148.5
 30
0.0
 40
627.3616438356165
 41
297.0
 68
     2
 69
     1
 12
313.6808219178083
 22
148.5
 13
0.0
 23
0.0
 14
1.0
 24
1.0
 15
10.0
 25
10.0
 16
0.0
 26
0.0
 36
1.0
 17
0.0
 27
0.0
 37
0.0
 42
50.0
 43
0.0
 44
0.0
 45
297.0
 50
0.0
 51
0.0
 72
   100
 90
    32768
  1

281
     0
 71
     1
 74
     0
110
0.0
120
0.0
130
0.0
111
1.0
121
0.0
131
0.0
112
0.0
122
1.0
132
0.0
 79
     0
146
0.0
  0
VIEWPORT
  5
64
330
17
100
AcDbEntity
 67
     1
  8
VIEWPORT
100
AcDbViewport
 10
210.0
 20
148.5
 30
0.0
 40
420.0
 41
297.0
 68
     1
 69
     2
 12
210.0
 22
148.5
 13
0.0
 23
0.0
 14
5.0
 24
5.0
 15
0.0
 25
0.0
 16
0.0
 26
0.0
 36
1.0
 17
0.0
 27
0.0
 37
0.0
 42
50.0
 43
0.0
 44
0.0
 45
302.9399999999999
 50
0.0
 51
0.0
 72
   100
 90
    32768
  1

281
     0
 71
     1
 74
     0
110
0.0
120
0.0
130
0.0
111
1.0
121
0.0
131
0.0
112
0.0
122
1.0
132
0.0
 79
     0
146
0.0
  0
ENDSEC
  0
SECTION
  2
OBJECTS
  0
DICTIONARY
  5
C
330
0
100
AcDbDictionary
281
     1
  3
ACAD_GROUP
350
D
  3
ACAD_LAYOUT
350
624
  3
ACAD_MLINESTYLE
350
E
  3
ACAD_PLOTSETTINGS
350
625
  3
ACAD_PLOTSTYLENAME
350
622
  0
DICTIONARY
  5
D
102
{ACAD_REACTORS
330
C
102
}
330
C
100
AcDbDictionary
281
     1
  0
DICTIONARY
  5
624
102
{ACAD_REACTORS
330
C
102
}
330
C
100
AcDbDictionary
281
     1
  3
Model
350
626
  3
ﾚｲｱｳﾄ1
350
627
  0
DICTIONARY
  5
E
102
{ACAD_REACTORS
330
C
102
}
330
C
100
AcDbDictionary
281
     1
  3
STANDARD
350
13
  0
DICTIONARY
  5
625
102
{ACAD_REACTORS
330
C
102
}
330
C
100
AcDbDictionary
281
     1
  0
ACDBDICTIONARYWDFLT
  5
622
102
{ACAD_REACTORS
330
C
102
}
330
C
100
AcDbDictionary
281
     1
  3
Normal
350
623
100
AcDbDictionaryWithDefault
340
623
1001
ACAD
1000
TREAT_AS_HARD
1070
     0
1000
TREAT_AS_HARD
1070
     0
1000
TREAT_AS_HARD
1070
     0
1000
TREAT_AS_HARD
1070
     0
  0
LAYOUT
  5
626
102
{ACAD_REACTORS
330
624
102
}
330
624
100
AcDbPlotSettings
  1

  2
Acrobat PDFWriter
  4
A3
  6

 40
7.143749713897705
 41
7.14375638961792
 42
7.143768310546875
 43
7.14373779296875
 44
297.1270751953125
 45
420.1583251953125
 46
0.0
 47
0.0
 48
0.0
 49
0.0
140
0.0
141
0.0
142
1.0
143
1.0
 70
 11952
 72
     1
 73
     1
 74
     0
  7
print.ctb
 75
    16
147
1.0
148
52.88505331185908
149
1.640883977900558
100
AcDbLayout
  1
Model
 70
     1
 71
     0
 10
0.0
 20
0.0
 11
12.0
 21
9.0
 12
0.0
 22
0.0
 32
0.0
 14
0.0
 24
0.0
 34
0.0
 15
0.0
 25
0.0
 35
0.0
146
0.0
 13
0.0
 23
0.0
 33
0.0
 16
1.0
 26
0.0
 36
0.0
 17
0.0
 27
1.0
 37
0.0
 76
     0
330
1A
  0
LAYOUT
  5
627
102
{ACAD_REACTORS
330
624
102
}
330
624
100
AcDbPlotSettings
  1

  2
EPSON PM-2000C
  4

  6

 40
0.0
 41
0.0
 42
0.0
 43
0.0
 44
0.0
 45
0.0
 46
0.0
 47
0.0
 48
0.0
 49
0.0
140
0.0
141
0.0
142
1.0
143
1.0
 70
   688
 72
     0
 73
     0
 74
     5
  7
print.ctb
 75
    16
147
1.0
148
0.0
149
0.0
100
AcDbLayout
  1
ﾚｲｱｳﾄ1
 70
     1
 71
     1
 10
0.0
 20
0.0
 11
420.0
 21
297.0
 12
0.0
 22
0.0
 32
0.0
 14
0.0
 24
0.0
 34
0.0
 15
420.0
 25
297.0
 35
0.0
146
0.0
 13
0.0
 23
0.0
 33
0.0
 16
1.0
 26
0.0
 36
0.0
 17
0.0
 27
1.0
 37
0.0
 76
     0
330
17
331
64
  0
MLINESTYLE
  5
13
102
{ACAD_REACTORS
330
E
102
}
330
E
100
AcDbMlineStyle
  2
STANDARD
 70
     0
  3

 62
     0
 51
90.0
 52
90.0
 71
     2
 49
0.5
 62
   256
  6
BYLAYER
 49
-0.5
 62
   256
  6
BYLAYER
  0
ACDBPLACEHOLDER
  5
623
102
{ACAD_REACTORS
330
622
102
}
330
622
  0
ENDSEC
  0
EOF
