  0
SECTION
  2
HEADER
  9
$ACADVER
  1
AC1015
  9
$ACADMAINTVER
 70
     6
  9
$DWGCODEPAGE
  3
ANSI_932
  9
$INSBASE
 10
0.0
 20
0.0
 30
0.0
  9
$EXTMIN
 10
-0.0000004828989404
 20
-0.0000000386436341
 30
0.0
  9
$EXTMAX
 10
398.7999995171011
 20
275.7999999613564
 30
0.0
  9
$LIMMIN
 10
0.0
 20
0.0
  9
$LIMMAX
 10
420.0
 20
297.0
  9
$ORTHOMODE
 70
     1
  9
$REGENMODE
 70
     1
  9
$FILLMODE
 70
     1
  9
$QTEXTMODE
 70
     0
  9
$MIRRTEXT
 70
     1
  9
$LTSCALE
 40
1.0
  9
$ATTMODE
 70
     1
  9
$TEXTSIZE
 40
2.5
  9
$TRACEWID
 40
1.0
  9
$TEXTSTYLE
  7
STANDARD
  9
$CLAYER
  8
SUNPOU
  9
$CELTYPE
  6
BYLAYER
  9
$CECOLOR
 62
   256
  9
$CELTSCALE
 40
1.0
  9
$DISPSILH
 70
     0
  9
$DIMSCALE
 40
1.0
  9
$DIMASZ
 40
3.0
  9
$DIMEXO
 40
3.0
  9
$DIMDLI
 40
7.0
  9
$DIMRND
 40
0.0
  9
$DIMDLE
 40
0.0
  9
$DIMEXE
 40
1.5
  9
$DIMTP
 40
0.0
  9
$DIMTM
 40
0.0
  9
$DIMTXT
 40
3.0
  9
$DIMCEN
 40
150.0
  9
$DIMTSZ
 40
0.0
  9
$DIMTOL
 70
     0
  9
$DIMLIM
 70
     0
  9
$DIMTIH
 70
     0
  9
$DIMTOH
 70
     0
  9
$DIMSE1
 70
     0
  9
$DIMSE2
 70
     0
  9
$DIMTAD
 70
     3
  9
$DIMZIN
 70
     0
  9
$DIMBLK
  1

  9
$DIMASO
 70
     1
  9
$DIMSHO
 70
     1
  9
$DIMPOST
  1

  9
$DIMAPOST
  1

  9
$DIMALT
 70
     0
  9
$DIMALTD
 70
     2
  9
$DIMALTF
 40
25.4
  9
$DIMLFAC
 40
1.0
  9
$DIMTOFL
 70
     1
  9
$DIMTVP
 40
0.0
  9
$DIMTIX
 70
     0
  9
$DIMSOXD
 70
     0
  9
$DIMSAH
 70
     1
  9
$DIMBLK1
  1
OPEN
  9
$DIMBLK2
  1
OPEN
  9
$DIMSTYLE
  2
STANDARD
  9
$DIMCLRD
 70
   256
  9
$DIMCLRE
 70
   256
  9
$DIMCLRT
 70
   256
  9
$DIMTFAC
 40
1.0
  9
$DIMGAP
 40
1.0
  9
$DIMJUST
 70
     0
  9
$DIMSD1
 70
     0
  9
$DIMSD2
 70
     0
  9
$DIMTOLJ
 70
     1
  9
$DIMTZIN
 70
     0
  9
$DIMALTZ
 70
     0
  9
$DIMALTTZ
 70
     0
  9
$DIMUPT
 70
     1
  9
$DIMDEC
 70
     0
  9
$DIMTDEC
 70
     0
  9
$DIMALTU
 70
     2
  9
$DIMALTTD
 70
     2
  9
$DIMTXSTY
  7
STANDARD
  9
$DIMAUNIT
 70
     0
  9
$DIMADEC
 70
     0
  9
$DIMALTRND
 40
0.0
  9
$DIMAZIN
 70
     0
  9
$DIMDSEP
 70
    46
  9
$DIMATFIT
 70
     3
  9
$DIMFRAC
 70
     0
  9
$DIMLDRBLK
  1
OPEN
  9
$DIMLUNIT
 70
     2
  9
$DIMLWD
 70
    -1
  9
$DIMLWE
 70
    -1
  9
$DIMTMOVE
 70
     0
  9
$LUNITS
 70
     2
  9
$LUPREC
 70
     4
  9
$SKETCHINC
 40
1.0
  9
$FILLETRAD
 40
0.6
  9
$AUNITS
 70
     0
  9
$AUPREC
 70
     0
  9
$MENU
  1
.
  9
$ELEVATION
 40
0.0
  9
$PELEVATION
 40
0.0
  9
$THICKNESS
 40
0.0
  9
$LIMCHECK
 70
     0
  9
$CHAMFERA
 40
10.0
  9
$CHAMFERB
 40
10.0
  9
$CHAMFERC
 40
20.0
  9
$CHAMFERD
 40
0.0
  9
$SKPOLY
 70
     0
  9
$TDCREATE
 40
2451100.394552546
  9
$TDUCREATE
 40
2451100.019552546
  9
$TDUPDATE
 40
2455609.403395417
  9
$TDUUPDATE
 40
2455609.028395417
  9
$TDINDWG
 40
0.1070036111
  9
$TDUSRTIMER
 40
0.1070036111
  9
$USRTIMER
 70
     1
  9
$ANGBASE
 50
0.0
  9
$ANGDIR
 70
     0
  9
$PDMODE
 70
     0
  9
$PDSIZE
 40
0.0
  9
$PLINEWID
 40
0.0
  9
$SPLFRAME
 70
     0
  9
$SPLINETYPE
 70
     6
  9
$SPLINESEGS
 70
     8
  9
$HANDSEED
  5
322B
  9
$SURFTAB1
 70
     6
  9
$SURFTAB2
 70
     6
  9
$SURFTYPE
 70
     6
  9
$SURFU
 70
     6
  9
$SURFV
 70
     6
  9
$UCSBASE
  2

  9
$UCSNAME
  2

  9
$UCSORG
 10
0.0
 20
0.0
 30
0.0
  9
$UCSXDIR
 10
1.0
 20
0.0
 30
0.0
  9
$UCSYDIR
 10
0.0
 20
1.0
 30
0.0
  9
$UCSORTHOREF
  2

  9
$UCSORTHOVIEW
 70
     0
  9
$UCSORGTOP
 10
0.0
 20
0.0
 30
0.0
  9
$UCSORGBOTTOM
 10
0.0
 20
0.0
 30
0.0
  9
$UCSORGLEFT
 10
0.0
 20
0.0
 30
0.0
  9
$UCSORGRIGHT
 10
0.0
 20
0.0
 30
0.0
  9
$UCSORGFRONT
 10
0.0
 20
0.0
 30
0.0
  9
$UCSORGBACK
 10
0.0
 20
0.0
 30
0.0
  9
$PUCSBASE
  2

  9
$PUCSNAME
  2

  9
$PUCSORG
 10
0.0
 20
0.0
 30
0.0
  9
$PUCSXDIR
 10
1.0
 20
0.0
 30
0.0
  9
$PUCSYDIR
 10
0.0
 20
1.0
 30
0.0
  9
$PUCSORTHOREF
  2

  9
$PUCSORTHOVIEW
 70
     0
  9
$PUCSORGTOP
 10
0.0
 20
0.0
 30
0.0
  9
$PUCSORGBOTTOM
 10
0.0
 20
0.0
 30
0.0
  9
$PUCSORGLEFT
 10
0.0
 20
0.0
 30
0.0
  9
$PUCSORGRIGHT
 10
0.0
 20
0.0
 30
0.0
  9
$PUCSORGFRONT
 10
0.0
 20
0.0
 30
0.0
  9
$PUCSORGBACK
 10
0.0
 20
0.0
 30
0.0
  9
$USERI1
 70
     0
  9
$USERI2
 70
     0
  9
$USERI3
 70
     0
  9
$USERI4
 70
     0
  9
$USERI5
 70
     0
  9
$USERR1
 40
0.0
  9
$USERR2
 40
0.0
  9
$USERR3
 40
0.0
  9
$USERR4
 40
0.0
  9
$USERR5
 40
0.0
  9
$WORLDVIEW
 70
     1
  9
$SHADEDGE
 70
     3
  9
$SHADEDIF
 70
    70
  9
$TILEMODE
 70
     1
  9
$MAXACTVP
 70
    16
  9
$PINSBASE
 10
0.0
 20
0.0
 30
0.0
  9
$PLIMCHECK
 70
     0
  9
$PEXTMIN
 10
0.0
 20
0.0
 30
0.0
  9
$PEXTMAX
 10
420.0
 20
297.0
 30
0.0
  9
$PLIMMIN
 10
0.0
 20
0.0
  9
$PLIMMAX
 10
420.0
 20
297.0
  9
$UNITMODE
 70
     0
  9
$VISRETAIN
 70
     0
  9
$PLINEGEN
 70
     0
  9
$PSLTSCALE
 70
     1
  9
$TREEDEPTH
 70
  3020
  9
$CMLSTYLE
  2
STANDARD
  9
$CMLJUST
 70
     0
  9
$CMLSCALE
 40
1.0
  9
$PROXYGRAPHICS
 70
     1
  9
$MEASUREMENT
 70
     1
  9
$CELWEIGHT
370
    -1
  9
$ENDCAPS
280
     0
  9
$JOINSTYLE
280
     0
  9
$LWDISPLAY
290
     0
  9
$INSUNITS
 70
     0
  9
$HYPERLINKBASE
  1

  9
$STYLESHEET
  1
print.ctb
  9
$XEDIT
290
     1
  9
$CEPSNTYPE
380
     0
  9
$PSTYLEMODE
290
     1
  9
$FINGERPRINTGUID
  2
{137E7082-72B8-11D5-AA3E-50A453C10000}
  9
$VERSIONGUID
  2
{597A8F64-094C-423A-8C18-34EFF3C00FA2}
  9
$EXTNAMES
290
     1
  9
$PSVPSCALE
 40
0.0
  9
$OLESTARTUP
290
     0
  0
ENDSEC
  0
SECTION
  2
CLASSES
  0
CLASS
  1
ACDBDICTIONARYWDFLT
  2
AcDbDictionaryWithDefault
  3
ObjectDBX Classes
 90
        0
280
     0
281
     0
  0
CLASS
  1
ACDBPLACEHOLDER
  2
AcDbPlaceHolder
  3
ObjectDBX Classes
 90
        0
280
     0
281
     0
  0
CLASS
  1
LAYOUT
  2
AcDbLayout
  3
ObjectDBX Classes
 90
        0
280
     0
281
     0
  0
CLASS
  1
DUMMY
  2
AcDbLongTransaction
  3
DUMMY
 90
        0
280
     0
281
     0
  0
CLASS
  1
LWPOLYLINE
  2
AcDbPolyline
  3
AutoCAD 2000
 90
        0
280
     0
281
     1
  0
CLASS
  1
HATCH
  2
AcDbHatch
  3
AutoCAD 2000
 90
        0
280
     0
281
     1
  0
CLASS
  1
XRECORD
  2
AcDbXrecord
  3
AutoCAD 2000
 90
        0
280
     0
281
     0
  0
CLASS
  1
DUMMY
  2
AcDbLongTransaction
  3
DUMMY
 90
        0
280
     0
281
     0
  0
CLASS
  1
LWPOLYLINE
  2
AcDbPolyline
  3
AutoCAD 2000
 90
        0
280
     0
281
     1
  0
CLASS
  1
HATCH
  2
AcDbHatch
  3
AutoCAD 2000
 90
        0
280
     0
281
     1
  0
CLASS
  1
XRECORD
  2
AcDbXrecord
  3
AutoCAD 2000
 90
        0
280
     0
281
     0
  0
CLASS
  1
DUMMY
  2
AcDbLongTransaction
  3
DUMMY
 90
        0
280
     0
281
     0
  0
CLASS
  1
LWPOLYLINE
  2
AcDbPolyline
  3
AutoCAD 2000
 90
        0
280
     0
281
     1
  0
CLASS
  1
HATCH
  2
AcDbHatch
  3
AutoCAD 2000
 90
        0
280
     0
281
     1
  0
CLASS
  1
XRECORD
  2
AcDbXrecord
  3
AutoCAD 2000
 90
        0
280
     0
281
     0
  0
CLASS
  1
DUMMY
  2
AcDbLongTransaction
  3
DUMMY
 90
        0
280
     0
281
     0
  0
CLASS
  1
LWPOLYLINE
  2
AcDbPolyline
  3
AutoCAD 2000
 90
        0
280
     0
281
     1
  0
CLASS
  1
HATCH
  2
AcDbHatch
  3
AutoCAD 2000
 90
        0
280
     0
281
     1
  0
CLASS
  1
XRECORD
  2
AcDbXrecord
  3
AutoCAD 2000
 90
        0
280
     0
281
     0
  0
ENDSEC
  0
SECTION
  2
TABLES
  0
TABLE
  2
VPORT
  5
8
330
0
100
AcDbSymbolTable
 70
     2
  0
VPORT
  5
322A
330
8
100
AcDbSymbolTableRecord
100
AcDbViewportTableRecord
  2
*Active
 70
     0
 10
0.0
 20
0.0
 11
1.0
 21
1.0
 12
207.2214526828674
 22
142.6097036043078
 13
0.0
 23
0.0
 14
5.0
 24
5.0
 15
0.0
 25
0.0
 16
0.0
 26
0.0
 36
1.0
 17
0.0
 27
0.0
 37
0.0
 40
318.8779632421801
 41
1.651537335285505
 42
50.0
 43
0.0
 44
0.0
 50
0.0
 51
0.0
 71
     0
 72
   100
 73
     1
 74
     0
 75
     0
 76
     0
 77
     0
 78
     0
281
     0
 65
     1
110
0.0
120
0.0
130
0.0
111
1.0
121
0.0
131
0.0
112
0.0
122
1.0
132
0.0
 79
     0
146
0.0
  0
ENDTAB
  0
TABLE
  2
LTYPE
  5
5
330
0
100
AcDbSymbolTable
 70
     3
  0
LTYPE
  5
14
330
5
100
AcDbSymbolTableRecord
100
AcDbLinetypeTableRecord
  2
BYBLOCK
 70
     0
  3

 72
    65
 73
     0
 40
0.0
  0
LTYPE
  5
15
330
5
100
AcDbSymbolTableRecord
100
AcDbLinetypeTableRecord
  2
BYLAYER
 70
     0
  3

 72
    65
 73
     0
 40
0.0
  0
LTYPE
  5
16
330
5
100
AcDbSymbolTableRecord
100
AcDbLinetypeTableRecord
  2
CONTINUOUS
 70
     0
  3
Solid line
 72
    65
 73
     0
 40
0.0
  0
LTYPE
  5
120
330
5
100
AcDbSymbolTableRecord
100
AcDbLinetypeTableRecord
  2
CENTER
 70
     0
  3
____ _ ____ _ ____ _ ____ _ ____ _ ____ _ ____ 
 72
    65
 73
     4
 40
2.0
 49
1.25
 74
     0
 49
-0.25
 74
     0
 49
0.25
 74
     0
 49
-0.25
 74
     0
  0
LTYPE
  5
E98
330
5
100
AcDbSymbolTableRecord
100
AcDbLinetypeTableRecord
  2
DASHED
 70
     0
  3
__ __ __ __ __ __ __ __ __ __ __ __ __ __ __ __
 72
    65
 73
     2
 40
0.75
 49
0.5
 74
     0
 49
-0.25
 74
     0
  0
ENDTAB
  0
TABLE
  2
LAYER
  5
2
330
0
100
AcDbSymbolTable
 70
     8
  0
LAYER
  5
F
330
2
100
AcDbSymbolTableRecord
100
AcDbLayerTableRecord
  2
0
 70
     0
 62
     7
  6
CONTINUOUS
370
    -3
390
623
  0
LAYER
  5
62
330
2
100
AcDbSymbolTableRecord
100
AcDbLayerTableRecord
  2
VIEWPORT
 70
     0
 62
     7
  6
CONTINUOUS
370
    -3
390
623
  0
LAYER
  5
6B
330
2
100
AcDbSymbolTableRecord
100
AcDbLayerTableRecord
  2
ZUWAKU
 70
     0
 62
     7
  6
CONTINUOUS
370
    -3
390
623
  0
LAYER
  5
1F2
330
2
100
AcDbSymbolTableRecord
100
AcDbLayerTableRecord
  2
SEIHIN
 70
     0
 62
     3
  6
CONTINUOUS
370
    -3
390
623
  0
LAYER
  5
1F3
330
2
100
AcDbSymbolTableRecord
100
AcDbLayerTableRecord
  2
SUNPOU
 70
     0
 62
     4
  6
CONTINUOUS
370
    -3
390
623
  0
LAYER
  5
1F4
330
2
100
AcDbSymbolTableRecord
100
AcDbLayerTableRecord
  2
CENTER L
 70
     0
 62
     1
  6
CENTER
370
    -3
390
623
  0
LAYER
  5
1F5
330
2
100
AcDbSymbolTableRecord
100
AcDbLayerTableRecord
  2
DEFPOINTS
 70
     0
 62
     7
  6
CONTINUOUS
290
     0
370
    -3
390
623
  0
LAYER
  5
A03
330
2
100
AcDbSymbolTableRecord
100
AcDbLayerTableRecord
  2
moji
 70
     0
 62
     2
  6
CONTINUOUS
370
    -3
390
623
  0
ENDTAB
  0
TABLE
  2
STYLE
  5
3
330
0
100
AcDbSymbolTable
 70
     2
  0
STYLE
  5
10
330
3
100
AcDbSymbolTableRecord
100
AcDbTextStyleTableRecord
  2
STANDARD
 70
     0
 40
0.0
 41
1.0
 50
0.0
 71
     0
 42
2.5
  3
TXT
  4
bigfont.shx
  0
STYLE
  5
A04
330
3
100
AcDbSymbolTableRecord
100
AcDbTextStyleTableRecord
  2
ｽﾀｲﾙ1
 70
     0
 40
0.0
 41
1.0
 50
0.0
 71
     0
 42
2.5
  3
MS PGothic.ttf
  4

1001
ACAD
1000
MS PGothic
1071
    32818
  0
ENDTAB
  0
TABLE
  2
VIEW
  5
6
330
0
100
AcDbSymbolTable
 70
     0
  0
ENDTAB
  0
TABLE
  2
UCS
  5
7
330
0
100
AcDbSymbolTable
 70
     0
  0
ENDTAB
  0
TABLE
  2
APPID
  5
9
330
0
100
AcDbSymbolTable
 70
     1
  0
APPID
  5
11
330
9
100
AcDbSymbolTableRecord
100
AcDbRegAppTableRecord
  2
ACAD
 70
     0
  0
ENDTAB
  0
TABLE
  2
DIMSTYLE
  5
A
330
0
100
AcDbSymbolTable
 70
     1
100
AcDbDimStyleTable
  0
DIMSTYLE
105
1D
102
{ACAD_REACTORS
330
2F3A
330
2F3B
330
2F3C
330
2F3D
330
2F50
330
2F51
330
2FFB
330
3065
330
3066
330
307E
330
3084
330
3085
330
3086
330
3087
330
3089
102
}
330
A
100
AcDbSymbolTableRecord
100
AcDbDimStyleTableRecord
  2
STANDARD
 70
     0
340
10
  0
ENDTAB
  0
TABLE
  2
BLOCK_RECORD
  5
1
330
0
100
AcDbSymbolTable
 70
    16
  0
BLOCK_RECORD
  5
1A
330
1
100
AcDbSymbolTableRecord
100
AcDbBlockTableRecord
  2
*MODEL_SPACE
340
626
  0
BLOCK_RECORD
  5
17
330
1
100
AcDbSymbolTableRecord
100
AcDbBlockTableRecord
  2
*PAPER_SPACE
340
627
  0
BLOCK_RECORD
  5
B2
330
1
100
AcDbSymbolTableRecord
100
AcDbBlockTableRecord
  2
_OPEN
340
0
102
{BLKREFS
331
319C
331
319D
331
31A5
331
31A6
331
31AE
331
31AF
331
31B7
331
31B8
331
31C0
331
31C1
331
31C9
331
31CA
331
31D2
331
31D3
331
31DB
331
31DC
331
31E6
331
31E7
331
31EF
331
31F0
331
31F8
331
31F9
331
3201
331
3202
331
320A
331
320B
331
3213
331
3214
331
321E
331
321F
331
30B5
331
30DF
102
}
  0
BLOCK_RECORD
  5
30E1
330
1
100
AcDbSymbolTableRecord
100
AcDbBlockTableRecord
  2
*D1
340
0
  0
BLOCK_RECORD
  5
30ED
330
1
100
AcDbSymbolTableRecord
100
AcDbBlockTableRecord
  2
*D2
340
0
  0
BLOCK_RECORD
  5
30F9
330
1
100
AcDbSymbolTableRecord
100
AcDbBlockTableRecord
  2
*D3
340
0
  0
BLOCK_RECORD
  5
3105
330
1
100
AcDbSymbolTableRecord
100
AcDbBlockTableRecord
  2
*D4
340
0
  0
BLOCK_RECORD
  5
3111
330
1
100
AcDbSymbolTableRecord
100
AcDbBlockTableRecord
  2
*D5
340
0
  0
BLOCK_RECORD
  5
311D
330
1
100
AcDbSymbolTableRecord
100
AcDbBlockTableRecord
  2
*D6
340
0
  0
BLOCK_RECORD
  5
3129
330
1
100
AcDbSymbolTableRecord
100
AcDbBlockTableRecord
  2
*D7
340
0
  0
BLOCK_RECORD
  5
3135
330
1
100
AcDbSymbolTableRecord
100
AcDbBlockTableRecord
  2
*D8
340
0
  0
BLOCK_RECORD
  5
3141
330
1
100
AcDbSymbolTableRecord
100
AcDbBlockTableRecord
  2
*D9
340
0
  0
BLOCK_RECORD
  5
314F
330
1
100
AcDbSymbolTableRecord
100
AcDbBlockTableRecord
  2
*D10
340
0
  0
BLOCK_RECORD
  5
315B
330
1
100
AcDbSymbolTableRecord
100
AcDbBlockTableRecord
  2
*D11
340
0
  0
BLOCK_RECORD
  5
3167
330
1
100
AcDbSymbolTableRecord
100
AcDbBlockTableRecord
  2
*D12
340
0
  0
BLOCK_RECORD
  5
3173
330
1
100
AcDbSymbolTableRecord
100
AcDbBlockTableRecord
  2
*D13
340
0
  0
BLOCK_RECORD
  5
317F
330
1
100
AcDbSymbolTableRecord
100
AcDbBlockTableRecord
  2
*D14
340
0
  0
BLOCK_RECORD
  5
318B
330
1
100
AcDbSymbolTableRecord
100
AcDbBlockTableRecord
  2
*D15
340
0
  0
ENDTAB
  0
ENDSEC
  0
SECTION
  2
BLOCKS
  0
BLOCK
  5
1B
330
1A
100
AcDbEntity
  8
0
100
AcDbBlockBegin
  2
*MODEL_SPACE
 70
     0
 71
     0
 10
0.0
 20
0.0
 30
0.0
  3
*MODEL_SPACE
  1

  0
ENDBLK
  5
1C
330
1A
100
AcDbEntity
  8
0
100
AcDbBlockEnd
  0
BLOCK
  5
18
330
17
100
AcDbEntity
 67
     1
  8
0
100
AcDbBlockBegin
  2
*PAPER_SPACE
 70
     0
 71
     0
 10
0.0
 20
0.0
 30
0.0
  3
*PAPER_SPACE
  1

  0
ENDBLK
  5
19
330
17
100
AcDbEntity
 67
     1
  8
0
100
AcDbBlockEnd
  0
BLOCK
  5
B3
330
B2
100
AcDbEntity
  8
0
100
AcDbBlockBegin
  2
_OPEN
 70
     0
 71
     0
 10
0.0
 20
0.0
 30
0.0
  3
_OPEN
  1

  0
LINE
  5
B4
330
B2
100
AcDbEntity
  8
0
  6
ByBlock
 62
     0
100
AcDbLine
 10
-1.0
 20
0.1666666666666667
 30
0.0
 11
0.0
 21
0.0
 31
0.0
  0
LINE
  5
B5
330
B2
100
AcDbEntity
  8
0
  6
ByBlock
 62
     0
100
AcDbLine
 10
0.0
 20
0.0
 30
0.0
 11
-1.0
 21
-0.1666666666666667
 31
0.0
  0
LINE
  5
B6
330
B2
100
AcDbEntity
  8
0
  6
ByBlock
 62
     0
100
AcDbLine
 10
0.0
 20
0.0
 30
0.0
 11
-1.0
 21
0.0
 31
0.0
  0
ENDBLK
  5
B7
330
B2
100
AcDbEntity
  8
0
100
AcDbBlockEnd
  0
BLOCK
  5
30EB
330
30E1
100
AcDbEntity
  8
0
100
AcDbBlockBegin
  2
*D1
 70
     1
 71
     0
 10
0.0
 20
0.0
 30
0.0
  3
*D1
  1

  0
LINE
  5
3199
330
30E1
100
AcDbEntity
  8
SUNPOU
370
    -2
100
AcDbLine
 10
196.9055639688129
 20
129.1867574959647
 30
0.0
 11
207.4170478641557
 21
135.4936478309748
 31
0.0
  0
LINE
  5
319A
330
30E1
100
AcDbEntity
  8
SUNPOU
370
    -2
100
AcDbLine
 10
223.6593432441959
 20
84.59712535480352
 30
0.0
 11
234.1708271395388
 21
90.90401568981363
 31
0.0
  0
LINE
  5
319B
330
30E1
100
AcDbEntity
  8
SUNPOU
370
    -2
100
AcDbLine
 10
207.6742957413559
 20
132.1494254206564
 30
0.0
 11
231.341100484964
 21
92.70475083424459
 31
0.0
  0
INSERT
  5
319C
330
30E1
100
AcDbEntity
  8
SUNPOU
370
    -2
100
AcDbBlockReference
  2
_OPEN
 10
206.1308084754684
 20
134.7219041980311
 30
0.0
 41
3.0
 42
3.0
 43
3.0
 50
120.9637565232738
  0
INSERT
  5
319D
330
30E1
100
AcDbEntity
  8
SUNPOU
370
    -2
100
AcDbBlockReference
  2
_OPEN
 10
232.8845877508514
 20
90.13227205686991
 30
0.0
 41
3.0
 42
3.0
 43
3.0
 50
300.9637565232738
  0
MTEXT
  5
319E
330
30E1
100
AcDbEntity
  8
SUNPOU
100
AcDbMText
 10
221.6514304276389
 20
113.7133275156901
 30
0.0
 40
3.0
 41
0.0
 71
     5
 72
     1
  1
\A1;52
 11
0.5144957552958287
 21
-0.8574929257915629
 31
0.0
 73
     1
 44
1.0
  0
POINT
  5
319F
330
30E1
100
AcDbEntity
  8
DEFPOINTS
 62
     0
100
AcDbPoint
 10
194.3330851914382
 20
127.6432702300772
 30
0.0
  0
POINT
  5
31A0
330
30E1
100
AcDbEntity
  8
DEFPOINTS
 62
     0
100
AcDbPoint
 10
221.0868644668212
 20
83.05363808891602
 30
0.0
  0
POINT
  5
31A1
330
30E1
100
AcDbEntity
  8
DEFPOINTS
 62
     0
100
AcDbPoint
 10
232.8845877508514
 20
90.13227205686991
 30
0.0
  0
ENDBLK
  5
30EC
330
30E1
100
AcDbEntity
  8
0
100
AcDbBlockEnd
  0
BLOCK
  5
30F7
330
30ED
100
AcDbEntity
  8
0
100
AcDbBlockBegin
  2
*D2
 70
     1
 71
     0
 10
0.0
 20
0.0
 30
0.0
  3
*D2
  1

  0
LINE
  5
31A2
330
30ED
100
AcDbEntity
  8
SUNPOU
370
    -2
100
AcDbLine
 10
63.86381680687145
 20
103.1626881139661
 30
0.0
 11
41.57437663564699
 21
103.1626881139661
 31
0.0
  0
LINE
  5
31A3
330
30ED
100
AcDbEntity
  8
SUNPOU
370
    -2
100
AcDbLine
 10
218.0868644668213
 20
83.05363808891606
 30
0.0
 11
41.57437663564698
 21
83.0536380889161
 31
0.0
  0
LINE
  5
31A4
330
30ED
100
AcDbEntity
  8
SUNPOU
370
    -2
100
AcDbLine
 10
43.07437663564699
 20
100.1626881139661
 30
0.0
 11
43.07437663564699
 21
86.0536380889161
 31
0.0
  0
INSERT
  5
31A5
330
30ED
100
AcDbEntity
  8
SUNPOU
370
    -2
100
AcDbBlockReference
  2
_OPEN
 10
43.07437663564699
 20
103.1626881139661
 30
0.0
 41
3.0
 42
3.0
 43
3.0
 50
90.0
  0
INSERT
  5
31A6
330
30ED
100
AcDbEntity
  8
SUNPOU
370
    -2
100
AcDbBlockReference
  2
_OPEN
 10
43.07437663564699
 20
83.0536380889161
 30
0.0
 41
3.0
 42
3.0
 43
3.0
 50
270.0
  0
MTEXT
  5
31A7
330
30ED
100
AcDbEntity
  8
SUNPOU
100
AcDbMText
 10
40.57437663564697
 20
93.10816310144114
 30
0.0
 40
3.0
 41
0.0
 71
     5
 72
     1
  1
\A1;20
 11
6.123031769111886E-17
 21
1.0
 31
0.0
 73
     1
 44
1.0
  0
POINT
  5
31A8
330
30ED
100
AcDbEntity
  8
DEFPOINTS
 62
     0
100
AcDbPoint
 10
66.86381680687146
 20
103.1626881139661
 30
0.0
  0
POINT
  5
31A9
330
30ED
100
AcDbEntity
  8
DEFPOINTS
 62
     0
100
AcDbPoint
 10
221.0868644668213
 20
83.05363808891606
 30
0.0
  0
POINT
  5
31AA
330
30ED
100
AcDbEntity
  8
DEFPOINTS
 62
     0
100
AcDbPoint
 10
43.07437663564699
 20
83.0536380889161
 30
0.0
  0
ENDBLK
  5
30F8
330
30ED
100
AcDbEntity
  8
0
100
AcDbBlockEnd
  0
BLOCK
  5
3103
330
30F9
100
AcDbEntity
  8
0
100
AcDbBlockBegin
  2
*D3
 70
     1
 71
     0
 10
0.0
 20
0.0
 30
0.0
  3
*D3
  1

  0
LINE
  5
31AB
330
30F9
100
AcDbEntity
  8
SUNPOU
370
    -2
100
AcDbLine
 10
197.356722395933
 20
125.6038748673238
 30
0.0
 11
197.356722395933
 21
147.415577776627
 31
0.0
  0
LINE
  5
31AC
330
30F9
100
AcDbEntity
  8
SUNPOU
370
    -2
100
AcDbLine
 10
232.356722394873
 20
125.6038748667471
 30
0.0
 11
232.356722394873
 21
147.415577776627
 31
0.0
  0
LINE
  5
31AD
330
30F9
100
AcDbEntity
  8
SUNPOU
370
    -2
100
AcDbLine
 10
200.356722395933
 20
145.915577776627
 30
0.0
 11
229.356722394873
 21
145.915577776627
 31
0.0
  0
INSERT
  5
31AE
330
30F9
100
AcDbEntity
  8
SUNPOU
370
    -2
100
AcDbBlockReference
  2
_OPEN
 10
197.356722395933
 20
145.915577776627
 30
0.0
 41
3.0
 42
3.0
 43
3.0
 50
180.0
  0
INSERT
  5
31AF
330
30F9
100
AcDbEntity
  8
SUNPOU
370
    -2
100
AcDbBlockReference
  2
_OPEN
 10
232.356722394873
 20
145.915577776627
 30
0.0
 41
3.0
 42
3.0
 43
3.0
  0
MTEXT
  5
31B0
330
30F9
100
AcDbEntity
  8
SUNPOU
100
AcDbMText
 10
214.856722395403
 20
148.415577776627
 30
0.0
 40
3.0
 41
0.0
 71
     5
 72
     1
  1
\A1;35
 73
     1
 44
1.0
  0
POINT
  5
31B1
330
30F9
100
AcDbEntity
  8
DEFPOINTS
 62
     0
100
AcDbPoint
 10
197.356722395933
 20
122.6038748673238
 30
0.0
  0
POINT
  5
31B2
330
30F9
100
AcDbEntity
  8
DEFPOINTS
 62
     0
100
AcDbPoint
 10
232.356722394873
 20
122.6038748667471
 30
0.0
  0
POINT
  5
31B3
330
30F9
100
AcDbEntity
  8
DEFPOINTS
 62
     0
100
AcDbPoint
 10
232.356722394873
 20
145.915577776627
 30
0.0
  0
ENDBLK
  5
3104
330
30F9
100
AcDbEntity
  8
0
100
AcDbBlockEnd
  0
BLOCK
  5
310F
330
3105
100
AcDbEntity
  8
0
100
AcDbBlockBegin
  2
*D4
 70
     1
 71
     0
 10
0.0
 20
0.0
 30
0.0
  3
*D4
  1

  0
LINE
  5
31B4
330
3105
100
AcDbEntity
  8
SUNPOU
370
    -2
100
AcDbLine
 10
205.1374960488487
 20
115.4668706753824
 30
0.0
 11
210.4984694263271
 21
118.6834547023904
 31
0.0
  0
LINE
  5
31B5
330
3105
100
AcDbEntity
  8
SUNPOU
370
    -2
100
AcDbLine
 10
223.6593432438486
 20
84.59712535538247
 30
0.0
 11
229.020316621327
 21
87.8137093823905
 31
0.0
  0
LINE
  5
31B6
330
3105
100
AcDbEntity
  8
SUNPOU
370
    -2
100
AcDbLine
 10
210.7557173042798
 20
115.3392322921299
 30
0.0
 11
226.190589966347
 21
89.61444452618464
 31
0.0
  0
INSERT
  5
31B7
330
3105
100
AcDbEntity
  8
SUNPOU
370
    -2
100
AcDbBlockReference
  2
_OPEN
 10
209.2122300378134
 20
117.9117110691572
 30
0.0
 41
3.0
 42
3.0
 43
3.0
 50
120.9637565361677
  0
INSERT
  5
31B8
330
3105
100
AcDbEntity
  8
SUNPOU
370
    -2
100
AcDbBlockReference
  2
_OPEN
 10
227.7340772328134
 20
87.0419657491573
 30
0.0
 41
3.0
 42
3.0
 43
3.0
 50
300.9637565361678
  0
MTEXT
  5
31B9
330
3105
100
AcDbEntity
  8
SUNPOU
100
AcDbMText
 10
220.6168859495029
 20
103.7630777978793
 30
0.0
 40
3.0
 41
0.0
 71
     5
 72
     1
  1
\A1;36
 11
0.5144957554888008
 21
-0.8574929256757796
 31
0.0
 73
     1
 44
1.0
  0
POINT
  5
31BA
330
3105
100
AcDbEntity
  8
DEFPOINTS
 62
     0
100
AcDbPoint
 10
202.5650172718214
 20
113.923383408916
 30
0.0
  0
POINT
  5
31BB
330
3105
100
AcDbEntity
  8
DEFPOINTS
 62
     0
100
AcDbPoint
 10
221.0868644668213
 20
83.05363808891607
 30
0.0
  0
POINT
  5
31BC
330
3105
100
AcDbEntity
  8
DEFPOINTS
 62
     0
100
AcDbPoint
 10
227.7340772328134
 20
87.0419657491573
 30
0.0
  0
ENDBLK
  5
3110
330
3105
100
AcDbEntity
  8
0
100
AcDbBlockEnd
  0
BLOCK
  5
311B
330
3111
100
AcDbEntity
  8
0
100
AcDbBlockBegin
  2
*D5
 70
     1
 71
     0
 10
0.0
 20
0.0
 30
0.0
  3
*D5
  1

  0
LINE
  5
31BD
330
3111
100
AcDbEntity
  8
SUNPOU
370
    -2
100
AcDbLine
 10
188.1318599818215
 20
88.48073128891606
 30
0.0
 11
188.1318599818215
 21
138.5064606890122
 31
0.0
  0
LINE
  5
31BE
330
3111
100
AcDbEntity
  8
SUNPOU
370
    -2
100
AcDbLine
 10
197.356722395933
 20
125.6038748673238
 30
0.0
 11
197.356722395933
 21
138.5064606890122
 31
0.0
  0
LINE
  5
31BF
330
3111
100
AcDbEntity
  8
SUNPOU
370
    -2
100
AcDbLine
 10
191.1318599818215
 20
137.0064606890122
 30
0.0
 11
194.356722395933
 21
137.0064606890122
 31
0.0
  0
INSERT
  5
31C0
330
3111
100
AcDbEntity
  8
SUNPOU
370
    -2
100
AcDbBlockReference
  2
_OPEN
 10
188.1318599818215
 20
137.0064606890122
 30
0.0
 41
3.0
 42
3.0
 43
3.0
 50
180.0
  0
INSERT
  5
31C1
330
3111
100
AcDbEntity
  8
SUNPOU
370
    -2
100
AcDbBlockReference
  2
_OPEN
 10
197.356722395933
 20
137.0064606890122
 30
0.0
 41
3.0
 42
3.0
 43
3.0
  0
MTEXT
  5
31C2
330
3111
100
AcDbEntity
  8
SUNPOU
100
AcDbMText
 10
192.7442911888772
 20
139.5064606890122
 30
0.0
 40
3.0
 41
0.0
 71
     5
 72
     1
  1
\A1;9
 73
     1
 44
1.0
  0
POINT
  5
31C3
330
3111
100
AcDbEntity
  8
DEFPOINTS
 62
     0
100
AcDbPoint
 10
188.1318599818215
 20
85.48073128891606
 30
0.0
  0
POINT
  5
31C4
330
3111
100
AcDbEntity
  8
DEFPOINTS
 62
     0
100
AcDbPoint
 10
197.356722395933
 20
122.6038748673238
 30
0.0
  0
POINT
  5
31C5
330
3111
100
AcDbEntity
  8
DEFPOINTS
 62
     0
100
AcDbPoint
 10
197.356722395933
 20
137.0064606890122
 30
0.0
  0
ENDBLK
  5
311C
330
3111
100
AcDbEntity
  8
0
100
AcDbBlockEnd
  0
BLOCK
  5
3127
330
311D
100
AcDbEntity
  8
0
100
AcDbBlockBegin
  2
*D6
 70
     1
 71
     0
 10
0.0
 20
0.0
 30
0.0
  3
*D6
  1

  0
LINE
  5
31C6
330
311D
100
AcDbEntity
  8
SUNPOU
370
    -2
100
AcDbLine
 10
65.13185998182138
 20
104.1807312889161
 30
0.0
 11
65.13185998182138
 21
147.415577776627
 31
0.0
  0
LINE
  5
31C7
330
311D
100
AcDbEntity
  8
SUNPOU
370
    -2
100
AcDbLine
 10
197.356722395933
 20
125.6038748673238
 30
0.0
 11
197.356722395933
 21
147.415577776627
 31
0.0
  0
LINE
  5
31C8
330
311D
100
AcDbEntity
  8
SUNPOU
370
    -2
100
AcDbLine
 10
68.13185998182138
 20
145.915577776627
 30
0.0
 11
194.356722395933
 21
145.915577776627
 31
0.0
  0
INSERT
  5
31C9
330
311D
100
AcDbEntity
  8
SUNPOU
370
    -2
100
AcDbBlockReference
  2
_OPEN
 10
65.13185998182138
 20
145.915577776627
 30
0.0
 41
3.0
 42
3.0
 43
3.0
 50
180.0
  0
INSERT
  5
31CA
330
311D
100
AcDbEntity
  8
SUNPOU
370
    -2
100
AcDbBlockReference
  2
_OPEN
 10
197.356722395933
 20
145.915577776627
 30
0.0
 41
3.0
 42
3.0
 43
3.0
  0
MTEXT
  5
31CB
330
311D
100
AcDbEntity
  8
SUNPOU
100
AcDbMText
 10
131.2442911888772
 20
148.415577776627
 30
0.0
 40
3.0
 41
0.0
 71
     5
 72
     1
  1
\A1;132
 73
     1
 44
1.0
  0
POINT
  5
31CC
330
311D
100
AcDbEntity
  8
DEFPOINTS
 62
     0
100
AcDbPoint
 10
65.13185998182138
 20
101.1807312889161
 30
0.0
  0
POINT
  5
31CD
330
311D
100
AcDbEntity
  8
DEFPOINTS
 62
     0
100
AcDbPoint
 10
197.356722395933
 20
122.6038748673238
 30
0.0
  0
POINT
  5
31CE
330
311D
100
AcDbEntity
  8
DEFPOINTS
 62
     0
100
AcDbPoint
 10
197.356722395933
 20
145.915577776627
 30
0.0
  0
ENDBLK
  5
3128
330
311D
100
AcDbEntity
  8
0
100
AcDbBlockEnd
  0
BLOCK
  5
3133
330
3129
100
AcDbEntity
  8
0
100
AcDbBlockBegin
  2
*D7
 70
     1
 71
     0
 10
0.0
 20
0.0
 30
0.0
  3
*D7
  1

  0
LINE
  5
31CF
330
3129
100
AcDbEntity
  8
SUNPOU
370
    -2
100
AcDbLine
 10
62.13185998182141
 20
213.3099819961216
 30
0.0
 11
41.57437663564702
 21
213.3099819961216
 31
0.0
  0
LINE
  5
31D0
330
3129
100
AcDbEntity
  8
SUNPOU
370
    -2
100
AcDbLine
 10
62.13185998182135
 20
191.3099819961216
 30
0.0
 11
41.57437663564701
 21
191.3099819961216
 31
0.0
  0
LINE
  5
31D1
330
3129
100
AcDbEntity
  8
SUNPOU
370
    -2
100
AcDbLine
 10
43.07437663564702
 20
210.3099819961216
 30
0.0
 11
43.07437663564701
 21
194.3099819961216
 31
0.0
  0
INSERT
  5
31D2
330
3129
100
AcDbEntity
  8
SUNPOU
370
    -2
100
AcDbBlockReference
  2
_OPEN
 10
43.07437663564702
 20
213.3099819961216
 30
0.0
 41
3.0
 42
3.0
 43
3.0
 50
90.0
  0
INSERT
  5
31D3
330
3129
100
AcDbEntity
  8
SUNPOU
370
    -2
100
AcDbBlockReference
  2
_OPEN
 10
43.07437663564701
 20
191.3099819961216
 30
0.0
 41
3.0
 42
3.0
 43
3.0
 50
270.0
  0
MTEXT
  5
31D4
330
3129
100
AcDbEntity
  8
SUNPOU
100
AcDbMText
 10
40.57437663564699
 20
202.3099819961216
 30
0.0
 40
3.0
 41
0.0
 71
     5
 72
     1
  1
\A1;22
 11
6.123031769111886E-17
 21
1.0
 31
0.0
 73
     1
 44
1.0
  0
POINT
  5
31D5
330
3129
100
AcDbEntity
  8
DEFPOINTS
 62
     0
100
AcDbPoint
 10
65.13185998182141
 20
213.3099819961216
 30
0.0
  0
POINT
  5
31D6
330
3129
100
AcDbEntity
  8
DEFPOINTS
 62
     0
100
AcDbPoint
 10
65.13185998182135
 20
191.3099819961216
 30
0.0
  0
POINT
  5
31D7
330
3129
100
AcDbEntity
  8
DEFPOINTS
 62
     0
100
AcDbPoint
 10
43.07437663564701
 20
191.3099819961216
 30
0.0
  0
ENDBLK
  5
3134
330
3129
100
AcDbEntity
  8
0
100
AcDbBlockEnd
  0
BLOCK
  5
313F
330
3135
100
AcDbEntity
  8
0
100
AcDbBlockBegin
  2
*D8
 70
     1
 71
     0
 10
0.0
 20
0.0
 30
0.0
  3
*D8
  1

  0
LINE
  5
31D8
330
3135
100
AcDbEntity
  8
SUNPOU
370
    -2
100
AcDbLine
 10
285.0021777944936
 20
163.3856797233463
 30
0.0
 11
266.9769287906574
 21
152.5705303235409
 31
0.0
  0
LINE
  5
31D9
330
3135
100
AcDbEntity
  8
SUNPOU
370
    -2
100
AcDbLine
 10
303.5240249850091
 20
132.5159343986951
 30
0.0
 11
285.498775981173
 21
121.7007849988897
 31
0.0
  0
LINE
  5
31DA
330
3135
100
AcDbEntity
  8
SUNPOU
370
    -2
100
AcDbLine
 10
269.8066554453254
 20
150.7697951792564
 30
0.0
 11
285.2415281037997
 21
125.0450074091948
 31
0.0
  0
INSERT
  5
31DB
330
3135
100
AcDbEntity
  8
SUNPOU
370
    -2
100
AcDbBlockReference
  2
_OPEN
 10
268.2631681793048
 20
153.3422739565512
 30
0.0
 41
3.0
 42
3.0
 43
3.0
 50
120.9637565262391
  0
INSERT
  5
31DC
330
3135
100
AcDbEntity
  8
SUNPOU
370
    -2
100
AcDbBlockReference
  2
_OPEN
 10
286.7850153698204
 20
122.4725286319
 30
0.0
 41
3.0
 42
3.0
 43
3.0
 50
300.9637565262391
  0
MTEXT
  5
31DD
330
3135
100
AcDbEntity
  8
SUNPOU
100
AcDbMText
 10
279.6678240889749
 20
139.1936406825761
 30
0.0
 40
3.0
 41
0.0
 71
     5
 72
     1
  1
\A1;36
 11
0.5144957553402083
 21
-0.8574929257649352
 31
0.0
 73
     1
 44
1.0
  0
POINT
  5
31DE
330
3135
100
AcDbEntity
  8
DEFPOINTS
 62
     0
100
AcDbPoint
 10
287.5746565717884
 20
164.9291669893669
 30
0.0
  0
POINT
  5
31DF
330
3135
100
AcDbEntity
  8
DEFPOINTS
 62
     0
100
AcDbPoint
 10
306.0965037623039
 20
134.0594216647157
 30
0.0
  0
POINT
  5
31E0
330
3135
100
AcDbEntity
  8
DEFPOINTS
 62
     0
100
AcDbPoint
 10
286.7850153698204
 20
122.4725286319
 30
0.0
  0
ENDBLK
  5
3140
330
3135
100
AcDbEntity
  8
0
100
AcDbBlockEnd
  0
BLOCK
  5
314D
330
3141
100
AcDbEntity
  8
0
100
AcDbBlockBegin
  2
*D9
 70
     1
 71
     0
 10
0.0
 20
0.0
 30
0.0
  3
*D9
  1

  0
LINE
  5
31E1
330
3141
100
AcDbEntity
  8
SUNPOU
370
    -2
100
AcDbLine
 10
300.6942983311616
 20
137.2321454895296
 30
0.0
 11
290.5015618246131
 21
131.1165035870123
 31
0.0
  0
LINE
  5
31E2
330
3141
100
AcDbEntity
  8
SUNPOU
370
    -2
100
AcDbLine
 10
303.5240249850091
 20
132.5159343986951
 30
0.0
 11
293.3312884784606
 21
126.4002924961778
 31
0.0
  0
LINE
  5
31E3
330
3141
100
AcDbEntity
  8
SUNPOU
370
    -2
100
AcDbLine
 10
290.24431394724
 20
134.4607259973174
 30
0.0
 11
288.7008266812194
 21
137.0332047746122
 31
0.0
  0
LINE
  5
31E4
330
3141
100
AcDbEntity
  8
SUNPOU
370
    -2
100
AcDbLine
 10
296.1610151331287
 20
124.5995573518932
 30
0.0
 11
297.7045023991493
 21
122.0270785745984
 31
0.0
  0
LINE
  5
31E5
330
3141
100
AcDbEntity
  8
SUNPOU
370
    -2
100
AcDbLine
 10
291.7878012132605
 20
131.8882472200226
 30
0.0
 11
294.617527867108
 21
127.1720361291881
 31
0.0
  0
INSERT
  5
31E6
330
3141
100
AcDbEntity
  8
SUNPOU
370
    -2
100
AcDbBlockReference
  2
_OPEN
 10
291.7878012132605
 20
131.8882472200226
 30
0.0
 41
3.0
 42
3.0
 43
3.0
 50
300.9637565262385
  0
INSERT
  5
31E7
330
3141
100
AcDbEntity
  8
SUNPOU
370
    -2
100
AcDbBlockReference
  2
_OPEN
 10
294.617527867108
 20
127.1720361291881
 30
0.0
 41
3.0
 42
3.0
 43
3.0
 50
120.9637565262385
  0
MTEXT
  5
31E8
330
3141
100
AcDbEntity
  8
SUNPOU
100
AcDbMText
 10
295.3463968545967
 20
130.8163810629558
 30
0.0
 40
3.0
 41
0.0
 71
     5
 72
     1
  1
\A1;6
 11
0.5144957553401991
 21
-0.8574929257649406
 31
0.0
 73
     1
 44
1.0
  0
POINT
  5
31E9
330
3141
100
AcDbEntity
  8
DEFPOINTS
 62
     0
100
AcDbPoint
 10
303.2667771084564
 20
138.7756327555503
 30
0.0
  0
POINT
  5
31EA
330
3141
100
AcDbEntity
  8
DEFPOINTS
 62
     0
100
AcDbPoint
 10
306.0965037623039
 20
134.0594216647157
 30
0.0
  0
POINT
  5
31EB
330
3141
100
AcDbEntity
  8
DEFPOINTS
 62
     0
100
AcDbPoint
 10
294.617527867108
 20
127.1720361291881
 30
0.0
  0
ENDBLK
  5
314E
330
3141
100
AcDbEntity
  8
0
100
AcDbBlockEnd
  0
BLOCK
  5
3159
330
314F
100
AcDbEntity
  8
0
100
AcDbBlockBegin
  2
*D10
 70
     1
 71
     0
 10
0.0
 20
0.0
 30
0.0
  3
*D10
  1

  0
LINE
  5
31EC
330
314F
100
AcDbEntity
  8
SUNPOU
370
    -2
100
AcDbLine
 10
335.5942604441433
 20
193.7409293113497
 30
0.0
 11
345.9573964821838
 21
199.9588109047158
 31
0.0
  0
LINE
  5
31ED
330
314F
100
AcDbEntity
  8
SUNPOU
370
    -2
100
AcDbLine
 10
342.7972009851621
 20
181.7360283527767
 30
0.0
 11
353.1603370232025
 21
187.9539099461428
 31
0.0
  0
LINE
  5
31EE
330
314F
100
AcDbEntity
  8
SUNPOU
370
    -2
100
AcDbLine
 10
346.2146443529077
 20
196.6145884938992
 30
0.0
 11
350.3306103721149
 21
189.7546450960537
 31
0.0
  0
INSERT
  5
31EF
330
314F
100
AcDbEntity
  8
SUNPOU
370
    -2
100
AcDbBlockReference
  2
_OPEN
 10
344.6711570920019
 20
199.1870672742629
 30
0.0
 41
3.0
 42
3.0
 43
3.0
 50
120.9637564123172
  0
INSERT
  5
31F0
330
314F
100
AcDbEntity
  8
SUNPOU
370
    -2
100
AcDbBlockReference
  2
_OPEN
 10
351.8740976330207
 20
187.1821663156899
 30
0.0
 41
3.0
 42
3.0
 43
3.0
 50
300.9637564123171
  0
MTEXT
  5
31F1
330
314F
100
AcDbEntity
  8
SUNPOU
100
AcDbMText
 10
350.4163596794812
 20
194.4708561790645
 30
0.0
 40
3.0
 41
0.0
 71
     5
 72
     1
  1
\A1;14
 11
0.5144957536352439
 21
-0.8574929267879138
 31
0.0
 73
     1
 44
1.0
  0
POINT
  5
31F2
330
314F
100
AcDbEntity
  8
DEFPOINTS
 62
     0
100
AcDbPoint
 10
333.0217816637796
 20
192.1974420504439
 30
0.0
  0
POINT
  5
31F3
330
314F
100
AcDbEntity
  8
DEFPOINTS
 62
     0
100
AcDbPoint
 10
340.2247222047983
 20
180.1925410918709
 30
0.0
  0
POINT
  5
31F4
330
314F
100
AcDbEntity
  8
DEFPOINTS
 62
     0
100
AcDbPoint
 10
351.8740976330207
 20
187.1821663156899
 30
0.0
  0
ENDBLK
  5
315A
330
314F
100
AcDbEntity
  8
0
100
AcDbBlockEnd
  0
BLOCK
  5
3165
330
315B
100
AcDbEntity
  8
0
100
AcDbBlockBegin
  2
*D11
 70
     1
 71
     0
 10
0.0
 20
0.0
 30
0.0
  3
*D11
  1

  0
LINE
  5
31F5
330
315B
100
AcDbEntity
  8
SUNPOU
370
    -2
100
AcDbLine
 10
223.0578729562296
 20
228.7431781855192
 30
0.0
 11
241.616076716941
 21
228.7431781855192
 31
0.0
  0
LINE
  5
31F6
330
315B
100
AcDbEntity
  8
SUNPOU
370
    -2
100
AcDbLine
 10
223.0578729562296
 20
175.8767858067239
 30
0.0
 11
241.6160767169409
 21
175.8767858067239
 31
0.0
  0
LINE
  5
31F7
330
315B
100
AcDbEntity
  8
SUNPOU
370
    -2
100
AcDbLine
 10
240.116076716941
 20
225.7431781855192
 30
0.0
 11
240.1160767169409
 21
178.8767858067239
 31
0.0
  0
INSERT
  5
31F8
330
315B
100
AcDbEntity
  8
SUNPOU
370
    -2
100
AcDbBlockReference
  2
_OPEN
 10
240.116076716941
 20
228.7431781855192
 30
0.0
 41
3.0
 42
3.0
 43
3.0
 50
90.0
  0
INSERT
  5
31F9
330
315B
100
AcDbEntity
  8
SUNPOU
370
    -2
100
AcDbBlockReference
  2
_OPEN
 10
240.1160767169409
 20
175.8767858067239
 30
0.0
 41
3.0
 42
3.0
 43
3.0
 50
270.0
  0
MTEXT
  5
31FA
330
315B
100
AcDbEntity
  8
SUNPOU
100
AcDbMText
 10
237.6160767169409
 20
202.3099819961215
 30
0.0
 40
3.0
 41
0.0
 71
     5
 72
     1
  1
\A1;53
 11
6.123031769111886E-17
 21
1.0
 31
0.0
 73
     1
 44
1.0
  0
POINT
  5
31FB
330
315B
100
AcDbEntity
  8
DEFPOINTS
 62
     0
100
AcDbPoint
 10
220.0578729562296
 20
228.7431781855192
 30
0.0
  0
POINT
  5
31FC
330
315B
100
AcDbEntity
  8
DEFPOINTS
 62
     0
100
AcDbPoint
 10
220.0578729562296
 20
175.8767858067239
 30
0.0
  0
POINT
  5
31FD
330
315B
100
AcDbEntity
  8
DEFPOINTS
 62
     0
100
AcDbPoint
 10
240.1160767169409
 20
175.8767858067239
 30
0.0
  0
ENDBLK
  5
3166
330
315B
100
AcDbEntity
  8
0
100
AcDbBlockEnd
  0
BLOCK
  5
3171
330
3167
100
AcDbEntity
  8
0
100
AcDbBlockBegin
  2
*D12
 70
     1
 71
     0
 10
0.0
 20
0.0
 30
0.0
  3
*D12
  1

  0
LINE
  5
31FE
330
3167
100
AcDbEntity
  8
SUNPOU
370
    -2
100
AcDbLine
 10
286.031169305261
 20
167.5016457663576
 30
0.0
 11
262.1683376914678
 21
207.2730317807668
 31
0.0
  0
LINE
  5
31FF
330
3167
100
AcDbEntity
  8
SUNPOU
370
    -2
100
AcDbLine
 10
331.4782943972523
 20
194.7699208274347
 30
0.0
 11
307.6154627834591
 21
234.5413068418438
 31
0.0
  0
LINE
  5
3200
330
3167
100
AcDbEntity
  8
SUNPOU
370
    -2
100
AcDbLine
 10
265.5125601017222
 20
207.5302796587988
 30
0.0
 11
305.814727639732
 21
231.711580186821
 31
0.0
  0
INSERT
  5
3201
330
3167
100
AcDbEntity
  8
SUNPOU
370
    -2
100
AcDbBlockReference
  2
_OPEN
 10
262.9400813247315
 20
205.9867923922714
 30
0.0
 41
3.0
 42
3.0
 43
3.0
 50
210.9637565375264
  0
INSERT
  5
3202
330
3167
100
AcDbEntity
  8
SUNPOU
370
    -2
100
AcDbBlockReference
  2
_OPEN
 10
308.3872064167228
 20
233.2550674533485
 30
0.0
 41
3.0
 42
3.0
 43
3.0
 50
30.9637565375264
  0
MTEXT
  5
3203
330
3167
100
AcDbEntity
  8
SUNPOU
100
AcDbMText
 10
284.3774044819543
 20
221.7646622369688
 30
0.0
 40
3.0
 41
0.0
 71
     5
 72
     1
  1
\A1;53
 11
0.8574929256635793
 21
0.5144957555091346
 31
0.0
 73
     1
 44
1.0
  0
POINT
  5
3204
330
3167
100
AcDbEntity
  8
DEFPOINTS
 62
     0
100
AcDbPoint
 10
287.5746565717884
 20
164.9291669893669
 30
0.0
  0
POINT
  5
3205
330
3167
100
AcDbEntity
  8
DEFPOINTS
 62
     0
100
AcDbPoint
 10
333.0217816637797
 20
192.197442050444
 30
0.0
  0
POINT
  5
3206
330
3167
100
AcDbEntity
  8
DEFPOINTS
 62
     0
100
AcDbPoint
 10
308.3872064167228
 20
233.2550674533485
 30
0.0
  0
ENDBLK
  5
3172
330
3167
100
AcDbEntity
  8
0
100
AcDbBlockEnd
  0
BLOCK
  5
317D
330
3173
100
AcDbEntity
  8
0
100
AcDbBlockBegin
  2
*D13
 70
     1
 71
     0
 10
0.0
 20
0.0
 30
0.0
  3
*D13
  1

  0
LINE
  5
3207
330
3173
100
AcDbEntity
  8
SUNPOU
370
    -2
100
AcDbLine
 10
290.9531786933573
 20
169.988375246413
 30
0.0
 11
271.24851831441
 21
202.8294758658334
 31
0.0
  0
LINE
  5
3208
330
3173
100
AcDbEntity
  8
SUNPOU
370
    -2
100
AcDbLine
 10
326.9678815633574
 20
191.597196976413
 30
0.0
 11
307.26322118441
 21
224.4382975958335
 31
0.0
  0
LINE
  5
3209
330
3173
100
AcDbEntity
  8
SUNPOU
370
    -2
100
AcDbLine
 10
274.5927407246469
 20
203.0867237440934
 30
0.0
 11
305.4624860408758
 21
221.6085709406879
 31
0.0
  0
INSERT
  5
320A
330
3173
100
AcDbEntity
  8
SUNPOU
370
    -2
100
AcDbBlockReference
  2
_OPEN
 10
272.0202619477614
 20
201.5432364773907
 30
0.0
 41
3.0
 42
3.0
 43
3.0
 50
210.9637565414318
  0
INSERT
  5
320B
330
3173
100
AcDbEntity
  8
SUNPOU
370
    -2
100
AcDbBlockReference
  2
_OPEN
 10
308.0349648177614
 20
223.1520582073907
 30
0.0
 41
3.0
 42
3.0
 43
3.0
 50
30.96375654143178
  0
MTEXT
  5
320C
330
3173
100
AcDbEntity
  8
SUNPOU
100
AcDbMText
 10
288.7413739938424
 20
214.4913796564619
 30
0.0
 40
3.0
 41
0.0
 71
     5
 72
     1
  1
\A1;42
 11
0.8574929256285104
 21
0.5144957555675829
 31
0.0
 73
     1
 44
1.0
  0
POINT
  5
320D
330
3173
100
AcDbEntity
  8
DEFPOINTS
 62
     0
100
AcDbPoint
 10
292.4966659600601
 20
167.4158964695275
 30
0.0
  0
POINT
  5
320E
330
3173
100
AcDbEntity
  8
DEFPOINTS
 62
     0
100
AcDbPoint
 10
328.5113688300601
 20
189.0247181995275
 30
0.0
  0
POINT
  5
320F
330
3173
100
AcDbEntity
  8
DEFPOINTS
 62
     0
100
AcDbPoint
 10
308.0349648177614
 20
223.1520582073907
 30
0.0
  0
ENDBLK
  5
317E
330
3173
100
AcDbEntity
  8
0
100
AcDbBlockEnd
  0
BLOCK
  5
3189
330
317F
100
AcDbEntity
  8
0
100
AcDbBlockBegin
  2
*D14
 70
     1
 71
     0
 10
0.0
 20
0.0
 30
0.0
  3
*D14
  1

  0
LINE
  5
3210
330
317F
100
AcDbEntity
  8
SUNPOU
370
    -2
100
AcDbLine
 10
296.0209618812158
 20
164.457545884752
 30
0.0
 11
276.9369230220623
 21
196.2642772786307
 31
0.0
  0
LINE
  5
3211
330
317F
100
AcDbEntity
  8
SUNPOU
370
    -2
100
AcDbLine
 10
329.4631859412158
 20
184.522880344752
 30
0.0
 11
310.3791470820623
 21
216.3296117386308
 31
0.0
  0
LINE
  5
3212
330
317F
100
AcDbEntity
  8
SUNPOU
370
    -2
100
AcDbLine
 10
280.2811454322054
 20
196.5215251581092
 30
0.0
 11
308.5784119395591
 21
213.4998850828291
 31
0.0
  0
INSERT
  5
3213
330
317F
100
AcDbEntity
  8
SUNPOU
370
    -2
100
AcDbBlockReference
  2
_OPEN
 10
277.7086666558823
 20
194.9780378904692
 30
0.0
 41
3.0
 42
3.0
 43
3.0
 50
210.9637565623078
  0
INSERT
  5
3214
330
317F
100
AcDbEntity
  8
SUNPOU
370
    -2
100
AcDbBlockReference
  2
_OPEN
 10
311.1508907158823
 20
215.0433723504692
 30
0.0
 41
3.0
 42
3.0
 43
3.0
 50
30.96375656230782
  0
MTEXT
  5
3215
330
317F
100
AcDbEntity
  8
SUNPOU
100
AcDbMText
 10
293.1435392961822
 20
207.1544374340718
 30
0.0
 40
3.0
 41
0.0
 71
     5
 72
     1
  1
\A1;39
 11
0.8574929254410509
 21
0.5144957558800153
 31
0.0
 73
     1
 44
1.0
  0
POINT
  5
3216
330
317F
100
AcDbEntity
  8
DEFPOINTS
 62
     0
100
AcDbPoint
 10
297.5644491488558
 20
161.8850671084288
 30
0.0
  0
POINT
  5
3217
330
317F
100
AcDbEntity
  8
DEFPOINTS
 62
     0
100
AcDbPoint
 10
331.0066732088558
 20
181.9504015684288
 30
0.0
  0
POINT
  5
3218
330
317F
100
AcDbEntity
  8
DEFPOINTS
 62
     0
100
AcDbPoint
 10
311.1508907158823
 20
215.0433723504692
 30
0.0
  0
ENDBLK
  5
318A
330
317F
100
AcDbEntity
  8
0
100
AcDbBlockEnd
  0
BLOCK
  5
3197
330
318B
100
AcDbEntity
  8
0
100
AcDbBlockBegin
  2
*D15
 70
     1
 71
     0
 10
0.0
 20
0.0
 30
0.0
  3
*D15
  1

  0
LINE
  5
3219
330
318B
100
AcDbEntity
  8
SUNPOU
370
    -2
100
AcDbLine
 10
285.0021777944936
 20
163.3856797233462
 30
0.0
 11
274.8697894750956
 21
157.3062467331105
 31
0.0
  0
LINE
  5
321A
330
318B
100
AcDbEntity
  8
SUNPOU
370
    -2
100
AcDbLine
 10
287.8319044486387
 20
158.6694686320158
 30
0.0
 11
277.6995161292408
 21
152.5900356417801
 31
0.0
  0
LINE
  5
321B
330
318B
100
AcDbEntity
  8
SUNPOU
370
    -2
100
AcDbLine
 10
274.6125415977223
 20
160.6504691434156
 30
0.0
 11
273.0690543317016
 21
163.2229479207104
 31
0.0
  0
LINE
  5
321C
330
318B
100
AcDbEntity
  8
SUNPOU
370
    -2
100
AcDbLine
 10
280.5292427839088
 20
150.7893004974956
 30
0.0
 11
282.0727300499295
 21
148.2168217202008
 31
0.0
  0
LINE
  5
321D
330
318B
100
AcDbEntity
  8
SUNPOU
370
    -2
100
AcDbLine
 10
276.156028863743
 20
158.0779903661208
 30
0.0
 11
278.9857555178882
 21
153.3617792747904
 31
0.0
  0
INSERT
  5
321E
330
318B
100
AcDbEntity
  8
SUNPOU
370
    -2
100
AcDbBlockReference
  2
_OPEN
 10
276.156028863743
 20
158.0779903661208
 30
0.0
 41
3.0
 42
3.0
 43
3.0
 50
300.9637565262398
  0
INSERT
  5
321F
330
318B
100
AcDbEntity
  8
SUNPOU
370
    -2
100
AcDbBlockReference
  2
_OPEN
 10
278.9857555178882
 20
153.3617792747904
 30
0.0
 41
3.0
 42
3.0
 43
3.0
 50
120.9637565262398
  0
MTEXT
  5
3220
330
318B
100
AcDbEntity
  8
SUNPOU
100
AcDbMText
 10
279.7146245052279
 20
157.0061242088061
 30
0.0
 40
3.0
 41
0.0
 71
     5
 72
     1
  1
\A1;6
 11
0.514495755340219
 21
-0.8574929257649288
 31
0.0
 73
     1
 44
1.0
  0
POINT
  5
3221
330
318B
100
AcDbEntity
  8
DEFPOINTS
 62
     0
100
AcDbPoint
 10
287.5746565717884
 20
164.9291669893669
 30
0.0
  0
POINT
  5
3222
330
318B
100
AcDbEntity
  8
DEFPOINTS
 62
     0
100
AcDbPoint
 10
290.4043832259335
 20
160.2129558980365
 30
0.0
  0
POINT
  5
3223
330
318B
100
AcDbEntity
  8
DEFPOINTS
 62
     0
100
AcDbPoint
 10
278.9857555178882
 20
153.3617792747904
 30
0.0
  0
ENDBLK
  5
3198
330
318B
100
AcDbEntity
  8
0
100
AcDbBlockEnd
  0
ENDSEC
  0
SECTION
  2
ENTITIES
  0
LWPOLYLINE
  5
ABF
330
1A
100
AcDbEntity
  8
ZUWAKU
100
AcDbPolyline
 90
        4
 70
     1
 43
0.0
 10
0.3999995171010369
 20
275.3999999613564
 10
0.3999995171010369
 20
0.3999999613564
 10
398.399999517101
 20
0.3999999613564
 10
398.399999517101
 20
275.3999999613564
  0
LWPOLYLINE
  5
AC0
330
1A
100
AcDbEntity
  8
ZUWAKU
100
AcDbPolyline
 90
        4
 70
     1
 43
0.0
 10
0.1999995171010482
 20
275.5999999613564
 10
0.1999995171010482
 20
0.1999999613564114
 10
398.5999995171011
 20
0.1999999613563999
 10
398.5999995171011
 20
275.5999999613564
  0
LWPOLYLINE
  5
AC1
330
1A
100
AcDbEntity
  8
ZUWAKU
100
AcDbPolyline
 90
        4
 70
     1
 43
0.0
 10
-0.0000004828989404
 20
275.7999999613564
 10
-0.0000004828989404
 20
-0.0000000386436341
 10
398.7999995171011
 20
-0.0000000386436003
 10
398.7999995171011
 20
275.7999999613564
  0
LWPOLYLINE
  5
AC2
330
1A
100
AcDbEntity
  8
ZUWAKU
100
AcDbPolyline
 90
        4
 70
     1
 43
0.0
 10
0.2999995171010141
 20
275.4999999613564
 10
0.2999995171010141
 20
0.2999999613563773
 10
398.4999995171012
 20
0.2999999613564004
 10
398.4999995171011
 20
275.4999999613564
  0
LWPOLYLINE
  5
AC3
330
1A
100
AcDbEntity
  8
ZUWAKU
100
AcDbPolyline
 90
        4
 70
     1
 43
0.0
 10
0.0999995171010255
 20
275.6999999613564
 10
0.0999995171010255
 20
0.0999999613563887
 10
398.699999517101
 20
0.0999999613564002
 10
398.6999995171011
 20
275.6999999613564
  0
LINE
  5
AC4
330
1A
100
AcDbEntity
  8
ZUWAKU
100
AcDbLine
 10
-0.0000004828989404
 20
14.99999996135637
 30
0.0
 11
398.699999517101
 21
14.99999996135637
 31
0.0
  0
LINE
  5
AC5
330
1A
100
AcDbEntity
  8
ZUWAKU
100
AcDbLine
 10
-0.0000004828989404
 20
15.09999996135637
 30
0.0
 11
398.699999517101
 21
15.09999996135637
 31
0.0
  0
LINE
  5
AC6
330
1A
100
AcDbEntity
  8
ZUWAKU
100
AcDbLine
 10
-0.0000004828989404
 20
15.19999996135637
 30
0.0
 11
398.699999517101
 21
15.19999996135637
 31
0.0
  0
LINE
  5
AC7
330
1A
100
AcDbEntity
  8
ZUWAKU
100
AcDbLine
 10
-0.0000004828989404
 20
15.29999996135637
 30
0.0
 11
398.699999517101
 21
15.29999996135637
 31
0.0
  0
LINE
  5
AC8
330
1A
100
AcDbEntity
  8
ZUWAKU
100
AcDbLine
 10
-0.0000004828989404
 20
15.39999996135637
 30
0.0
 11
398.699999517101
 21
15.39999996135637
 31
0.0
  0
LINE
  5
AC9
330
1A
100
AcDbEntity
  8
ZUWAKU
100
AcDbLine
 10
104.3233001621351
 20
7.699999961356383
 30
0.0
 11
223.7121815025968
 21
7.699999961356383
 31
0.0
  0
LINE
  5
ACA
330
1A
100
AcDbEntity
  8
ZUWAKU
100
AcDbLine
 10
104.3233001621351
 20
7.799999961356383
 30
0.0
 11
223.7121815025968
 21
7.799999961356386
 31
0.0
  0
LINE
  5
ACB
330
1A
100
AcDbEntity
  8
ZUWAKU
100
AcDbLine
 10
104.3233001621351
 20
7.599999961356385
 30
0.0
 11
223.7121815025968
 21
7.599999961356382
 31
0.0
  0
TEXT
  5
ACC
330
1A
100
AcDbEntity
  8
moji
100
AcDbText
 10
46.47889431118563
 20
6.370589026493747
 30
0.0
 40
3.0
  1
アーバントップΣ９０
 41
0.9
  7
ｽﾀｲﾙ1
100
AcDbText
  0
CIRCLE
  5
ACD
330
1A
100
AcDbEntity
  8
ZUWAKU
100
AcDbCircle
 10
12.99610559449161
 20
7.599999961356367
 30
0.0
 40
0.875
  0
LINE
  5
ACE
330
1A
100
AcDbEntity
  8
ZUWAKU
100
AcDbLine
 10
13.43360559449161
 20
3.574999961356369
 30
0.0
 11
12.47110559449163
 21
3.574999961356369
 31
0.0
  0
LINE
  5
ACF
330
1A
100
AcDbEntity
  8
ZUWAKU
100
AcDbLine
 10
12.47110559449163
 20
4.974999961356367
 30
0.0
 11
13.43360559449161
 21
4.974999961356367
 31
0.0
  0
LINE
  5
AD0
330
1A
100
AcDbEntity
  8
ZUWAKU
100
AcDbLine
 10
13.43360559449161
 20
10.22499996135637
 30
0.0
 11
12.47110559449163
 21
10.22499996135637
 31
0.0
  0
LINE
  5
AD1
330
1A
100
AcDbEntity
  8
ZUWAKU
100
AcDbLine
 10
12.47110559449163
 20
11.62499996135635
 30
0.0
 11
13.43360559449161
 21
11.62499996135637
 31
0.0
  0
HATCH
  5
AD2
330
1A
100
AcDbEntity
  8
ZUWAKU
100
AcDbHatch
 10
0.0
 20
0.0
 30
0.0
210
0.0
220
0.0
230
1.0
  2
ANSI37
 70
     0
 71
     0
 91
        8
 92
        7
 72
     1
 73
     1
 93
       24
 10
7.251130847660988
 20
8.822424201848158
 42
-0.1989123673796348
 10
7.046105594491621
 20
9.317398948678683
 42
0.0
 10
7.046105594491621
 20
9.962499961356372
 42
-0.4142135623730912
 10
7.30860559449161
 20
10.22499996135637
 42
0.0
 10
8.796105594491564
 20
10.22499996135637
 42
0.4142135623731546
 10
9.05860559449161
 20
10.48749996135636
 42
0.0
 10
9.05860559449161
 20
11.36249996135637
 42
0.4142135623731586
 10
8.796105594491564
 20
11.62499996135637
 42
0.0
 10
7.046105594491621
 20
11.62499996135637
 42
0.4142135623730928
 10
5.646105594491644
 20
10.22499996135638
 42
0.0
 10
5.646105594491644
 20
9.317398948678747
 42
0.1989123673796619
 10
6.261181353999859
 20
7.832474708186943
 42
0.0
 10
7.716080341322197
 20
6.377575720864614
 42
-0.1989123673796613
 10
7.921105594491621
 20
5.882600974034022
 42
0.0
 10
7.921105594491621
 20
5.237499961356363
 42
-0.4142135623730911
 10
7.658605594491633
 20
4.974999961356367
 42
0.0
 10
6.171105594491678
 20
4.974999961356367
 42
0.4142135623731526
 10
5.908605594491633
 20
4.712499961356373
 42
0.0
 10
5.908605594491633
 20
3.837499961356363
 42
0.4142135623731526
 10
6.171105594491678
 20
3.574999961356369
 42
0.0
 10
7.921105594491621
 20
3.574999961356369
 42
0.4142135623731044
 10
9.321105594491655
 20
4.974999961356357
 42
0.0
 10
9.321105594491655
 20
5.882600974033993
 42
0.1989123673796604
 10
8.706029834983383
 20
7.367525214525763
 42
0.0
 97
        0
 92
        7
 72
     1
 73
     1
 93
       16
 10
11.77110559449164
 20
9.524999961356372
 42
-0.4142135623730935
 10
12.47110559449163
 20
10.22499996135637
 42
0.0
 10
13.43360559449161
 20
10.22499996135637
 42
0.4142135623731546
 10
13.69610559449166
 20
10.48749996135636
 42
0.0
 10
13.69610559449166
 20
11.36249996135637
 42
0.4142135623730952
 10
13.43360559449167
 20
11.62499996135637
 42
0.0
 10
12.47110559449158
 20
11.62499996135635
 42
0.4142135623730892
 10
10.37110559449161
 20
9.524999961356336
 42
0.0
 10
10.37110559449161
 20
5.674999961356381
 42
0.4142135623730969
 10
12.47110559449163
 20
3.574999961356369
 42
0.0
 10
13.43360559449161
 20
3.574999961356369
 42
0.4142135623731526
 10
13.69610559449166
 20
3.837499961356363
 42
0.0
 10
13.69610559449166
 20
4.712499961356373
 42
0.414213562373089
 10
13.43360559449167
 20
4.974999961356367
 42
0.0
 10
12.47110559449163
 20
4.974999961356367
 42
-0.4142135623730928
 10
11.77110559449164
 20
5.674999961356361
 42
0.0
 97
        0
 92
        7
 72
     1
 73
     1
 93
        2
 10
12.12110559449161
 20
7.599999961356367
 42
1.0
 10
13.87110559449161
 20
7.599999961356367
 42
1.0
 97
        0
 92
        7
 72
     1
 73
     1
 93
       26
 10
18.65742883558062
 20
9.602523558138081
 42
0.0
 10
19.18824865214953
 20
11.28345297727288
 42
0.5069206636600134
 10
18.93793320255185
 20
11.62499996135637
 42
0.0
 10
18.08848851274723
 20
11.62499996135637
 42
0.3272098845218764
 10
17.83817306314955
 20
11.44154694543985
 42
0.0
 10
16.90403812583367
 20
8.483452977272908
 42
-0.3272098845219541
 10
16.65372267623593
 20
8.299999961356367
 42
0.0
 10
16.5836055944917
 20
8.299999961356367
 42
-0.4142135623731526
 10
16.32110559449166
 20
8.562499961356361
 42
0.0
 10
16.32110559449166
 20
11.36249996135637
 42
0.4142135623730952
 10
16.05860559449167
 20
11.62499996135637
 42
0.0
 10
15.18360559449161
 20
11.62499996135637
 42
0.4142135623730872
 10
14.92110559449162
 20
11.36249996135638
 42
0.0
 10
14.92110559449162
 20
3.837499961356363
 42
0.414213562373089
 10
15.18360559449161
 20
3.574999961356369
 42
0.0
 10
16.05860559449161
 20
3.574999961356369
 42
0.4142135623731526
 10
16.32110559449166
 20
3.837499961356363
 42
0.0
 10
16.32110559449166
 20
6.637499961356374
 42
-0.4142135623731526
 10
16.5836055944917
 20
6.899999961356368
 42
0.0
 10
16.65372267623599
 20
6.899999961356368
 42
-0.3272098845218915
 10
16.90403812583367
 20
6.716546945439831
 42
0.0
 10
17.83817306314955
 20
3.758452977272905
 42
0.3272098845218902
 10
18.08848851274723
 20
3.574999961356369
 42
0.0
 10
18.93793320255185
 20
3.574999961356369
 42
0.5069206636600334
 10
19.18824865214953
 20
3.916546945439873
 42
0.0
 10
18.0250529629127
 20
7.599999961356437
 42
0.0
 97
        0
 92
        7
 72
     1
 73
     1
 93
        8
 10
21.74610559449161
 20
11.36249996135637
 42
0.4142135623731546
 10
21.48360559449156
 20
11.62499996135637
 42
0.0
 10
20.60860559449168
 20
11.62499996135637
 42
0.4142135623731506
 10
20.34610559449163
 20
11.36249996135638
 42
0.0
 10
20.34610559449163
 20
3.837499961356363
 42
0.4142135623731526
 10
20.60860559449168
 20
3.574999961356369
 42
0.0
 10
21.48360559449156
 20
3.574999961356369
 42
0.4142135623731526
 10
21.74610559449161
 20
3.837499961356363
 42
0.0
 97
        0
 92
        7
 72
     1
 73
     1
 93
       24
 10
24.19610559449166
 20
9.962499961356372
 42
-0.4142135623731547
 10
24.4586055944917
 20
10.22499996135637
 42
0.0
 10
25.94610559449166
 20
10.22499996135637
 42
0.4142135623730911
 10
26.20860559449164
 20
10.48749996135636
 42
0.0
 10
26.20860559449164
 20
11.36249996135637
 42
0.4142135623730952
 10
25.94610559449166
 20
11.62499996135637
 42
0.0
 10
24.19610559449166
 20
11.62499996135637
 42
0.4142135623731048
 10
22.79610559449162
 20
10.22499996135638
 42
0.0
 10
22.79610559449162
 20
9.317398948678747
 42
0.1989123673796613
 10
23.41118135399989
 20
7.832474708186972
 42
0.0
 10
24.86608034132223
 20
6.377575720864638
 42
-0.1989123673796402
 10
25.07110559449166
 20
5.882600974034101
 42
0.0
 10
25.07110559449166
 20
5.237499961356363
 42
-0.4142135623730911
 10
24.80860559449167
 20
4.974999961356367
 42
0.0
 10
23.32110559449166
 20
4.974999961356367
 42
0.4142135623731526
 10
23.05860559449161
 20
4.712499961356373
 42
0.0
 10
23.05860559449161
 20
3.837499961356363
 42
0.414213562373089
 10
23.3211055944916
 20
3.574999961356369
 42
0.0
 10
25.07110559449166
 20
3.574999961356369
 42
0.4142135623730925
 10
26.47110559449163
 20
4.974999961356357
 42
0.0
 10
26.47110559449163
 20
5.882600974033993
 42
0.1989123673796675
 10
25.85602983498336
 20
7.36752521452582
 42
0.0
 10
24.40113084766108
 20
8.822424201848078
 42
-0.1989123673796653
 10
24.19610559449166
 20
9.317398948678662
 42
0.0
 97
        0
 92
        7
 72
     1
 73
     1
 93
       16
 10
28.92110559449162
 20
11.36249996135636
 42
0.414213562373103
 10
28.65860559449163
 20
11.62499996135637
 42
0.0
 10
27.78360559449163
 20
11.62499996135637
 42
0.4142135623730872
 10
27.52110559449164
 20
11.36249996135638
 42
0.0
 10
27.52110559449164
 20
4.974999961356357
 42
0.4142135623730925
 10
28.92110559449162
 20
3.574999961356369
 42
0.0
 10
30.67110559449162
 20
3.574999961356369
 42
0.4142135623731044
 10
32.07110559449166
 20
4.974999961356357
 42
0.0
 10
32.07110559449166
 20
11.36249996135637
 42
0.4142135623730952
 10
31.80860559449167
 20
11.62499996135637
 42
0.0
 10
30.93360559449161
 20
11.62499996135637
 42
0.4142135623730872
 10
30.67110559449162
 20
11.36249996135638
 42
0.0
 10
30.67110559449162
 20
5.499999961356355
 42
-0.414213562373088
 10
30.14610559449164
 20
4.974999961356367
 42
0.0
 10
29.44610559449166
 20
4.974999961356367
 42
-0.4142135623731197
 10
28.92110559449162
 20
5.499999961356355
 42
0.0
 97
        0
 92
        7
 72
     1
 73
     1
 93
        8
 10
34.52110559449164
 20
11.36249996135638
 42
0.4142135623730872
 10
34.25860559449166
 20
11.62499996135637
 42
0.0
 10
33.38360559449166
 20
11.62499996135637
 42
0.4142135623731506
 10
33.12110559449161
 20
11.36249996135638
 42
0.0
 10
33.12110559449161
 20
3.837499961356363
 42
0.414213562373089
 10
33.3836055944916
 20
3.574999961356369
 42
0.0
 10
34.25860559449166
 20
3.574999961356369
 42
0.414213562373089
 10
34.52110559449164
 20
3.837499961356363
 42
0.0
 97
        0
 75
     0
 76
     1
 52
0.0
 41
0.1
 77
     0
 78
     2
 53
45.0
 43
-450.4711526502384
 44
-6.6000000386436
 45
-0.2245064030267288
 46
0.2245064030267289
 79
     0
 53
135.0
 43
-450.4711526502384
 44
-6.6000000386436
 45
-0.2245064030267289
 46
-0.2245064030267288
 79
     0
 47
0.057451373970553
 98
        8
 10
8.039926998612714
 20
7.583586784299143
 10
11.20225702032064
 20
9.422031052581872
 10
12.58218345993089
 20
7.755940784391726
 10
15.45702950791963
 20
8.100648784577118
 10
20.91923552657943
 20
8.330454918347925
 10
23.44909996466583
 20
9.709288119559972
 10
28.27884250330124
 20
9.364578918903874
 10
33.91353932691243
 20
9.594385052674681
  0
ARC
  5
AD3
330
1A
100
AcDbEntity
  8
ZUWAKU
100
AcDbCircle
 10
7.74610559449161
 20
9.317398948678719
 30
0.0
 40
2.1
100
AcDbArc
 50
180.0
 51
225.0
  0
LINE
  5
AD4
330
1A
100
AcDbEntity
  8
ZUWAKU
100
AcDbLine
 10
10.37110559449161
 20
5.67499996135637
 30
0.0
 11
10.37110559449161
 21
9.524999961356347
 31
0.0
  0
LINE
  5
AD5
330
1A
100
AcDbEntity
  8
ZUWAKU
100
AcDbLine
 10
11.77110559449164
 20
9.524999961356368
 30
0.0
 11
11.77110559449164
 21
5.67499996135637
 31
0.0
  0
ARC
  5
AD6
330
1A
100
AcDbEntity
  8
ZUWAKU
100
AcDbCircle
 10
7.74610559449161
 20
9.317398948678719
 30
0.0
 40
0.7
100
AcDbArc
 50
180.0000000000016
 51
224.9999999999988
  0
ARC
  5
AD7
330
1A
100
AcDbEntity
  8
ZUWAKU
100
AcDbCircle
 10
12.47110559449163
 20
5.67499996135637
 30
0.0
 40
2.1
100
AcDbArc
 50
180.0
 51
270.0
  0
ARC
  5
AD8
330
1A
100
AcDbEntity
  8
ZUWAKU
100
AcDbCircle
 10
7.921105594491621
 20
4.974999961356367
 30
0.0
 40
1.4
100
AcDbArc
 50
270.0
 51
0.0
  0
ARC
  5
AD9
330
1A
100
AcDbEntity
  8
ZUWAKU
100
AcDbCircle
 10
7.221105594491633
 20
5.88260097403402
 30
0.0
 40
2.1
100
AcDbArc
 50
0.0
 51
45.0
  0
LINE
  5
ADA
330
1A
100
AcDbEntity
  8
ZUWAKU
100
AcDbLine
 10
6.261181353999859
 20
7.832474708186958
 30
0.0
 11
7.716080341322197
 21
6.377575720864627
 31
0.0
  0
LINE
  5
ADB
330
1A
100
AcDbEntity
  8
ZUWAKU
100
AcDbLine
 10
6.171105594491621
 20
4.974999961356367
 30
0.0
 11
7.658605594491633
 21
4.974999961356367
 31
0.0
  0
LINE
  5
ADC
330
1A
100
AcDbEntity
  8
ZUWAKU
100
AcDbLine
 10
6.171105594491621
 20
3.574999961356369
 30
0.0
 11
7.921105594491621
 21
3.574999961356369
 31
0.0
  0
ARC
  5
ADD
330
1A
100
AcDbEntity
  8
ZUWAKU
100
AcDbCircle
 10
6.171105594491621
 20
4.712499961356368
 30
0.0
 40
0.2625
100
AcDbArc
 50
90.0
 51
180.0
  0
ARC
  5
ADE
330
1A
100
AcDbEntity
  8
ZUWAKU
100
AcDbCircle
 10
6.171105594491621
 20
3.837499961356368
 30
0.0
 40
0.2625
100
AcDbArc
 50
180.0
 51
270.0
  0
LINE
  5
ADF
330
1A
100
AcDbEntity
  8
ZUWAKU
100
AcDbLine
 10
5.908605594491633
 20
3.837499961356368
 30
0.0
 11
5.908605594491633
 21
4.712499961356368
 31
0.0
  0
ARC
  5
AE0
330
1A
100
AcDbEntity
  8
ZUWAKU
100
AcDbCircle
 10
7.221105594491633
 20
5.882600974034041
 30
0.0
 40
0.7
100
AcDbArc
 50
0.0
 51
45.0
  0
ARC
  5
AE1
330
1A
100
AcDbEntity
  8
ZUWAKU
100
AcDbCircle
 10
7.658605594491633
 20
5.23749996135637
 30
0.0
 40
0.2625
100
AcDbArc
 50
270.0
 51
0.0
  0
LINE
  5
AE2
330
1A
100
AcDbEntity
  8
ZUWAKU
100
AcDbLine
 10
7.921105594491621
 20
5.23749996135637
 30
0.0
 11
7.921105594491621
 21
5.882600974034041
 31
0.0
  0
LINE
  5
AE3
330
1A
100
AcDbEntity
  8
ZUWAKU
100
AcDbLine
 10
8.706029834983383
 20
7.367525214525781
 30
0.0
 11
7.251130847661045
 21
8.822424201848119
 31
0.0
  0
ARC
  5
AE4
330
1A
100
AcDbEntity
  8
ZUWAKU
100
AcDbCircle
 10
12.47110559449163
 20
5.67499996135637
 30
0.0
 40
0.7
100
AcDbArc
 50
180.0
 51
270.0
  0
LINE
  5
AE5
330
1A
100
AcDbEntity
  8
ZUWAKU
100
AcDbLine
 10
9.321105594491655
 20
4.974999961356367
 30
0.0
 11
9.321105594491655
 21
5.882600974034041
 31
0.0
  0
ARC
  5
AE6
330
1A
100
AcDbEntity
  8
ZUWAKU
100
AcDbCircle
 10
8.796105594491621
 20
10.48749996135637
 30
0.0
 40
0.2625
100
AcDbArc
 50
270.0
 51
0.0
  0
ARC
  5
AE7
330
1A
100
AcDbEntity
  8
ZUWAKU
100
AcDbCircle
 10
8.796105594491621
 20
11.36249996135637
 30
0.0
 40
0.2625
100
AcDbArc
 50
0.0
 51
90.0
  0
ARC
  5
AE8
330
1A
100
AcDbEntity
  8
ZUWAKU
100
AcDbCircle
 10
7.046105594491621
 20
10.22499996135637
 30
0.0
 40
1.4
100
AcDbArc
 50
90.0
 51
180.0
  0
LINE
  5
AE9
330
1A
100
AcDbEntity
  8
ZUWAKU
100
AcDbLine
 10
5.646105594491644
 20
10.22499996135637
 30
0.0
 11
5.646105594491644
 21
9.317398948678697
 31
0.0
  0
LINE
  5
AEA
330
1A
100
AcDbEntity
  8
ZUWAKU
100
AcDbLine
 10
8.796105594491621
 20
10.22499996135637
 30
0.0
 11
7.30860559449161
 21
10.22499996135637
 31
0.0
  0
LINE
  5
AEB
330
1A
100
AcDbEntity
  8
ZUWAKU
100
AcDbLine
 10
7.046105594491621
 20
9.962499961356368
 30
0.0
 11
7.046105594491621
 21
9.317398948678697
 31
0.0
  0
ARC
  5
AEC
330
1A
100
AcDbEntity
  8
ZUWAKU
100
AcDbCircle
 10
7.30860559449161
 20
9.962499961356368
 30
0.0
 40
0.2625
100
AcDbArc
 50
90.0
 51
180.0
  0
LINE
  5
AED
330
1A
100
AcDbEntity
  8
ZUWAKU
100
AcDbLine
 10
7.046105594491621
 20
11.62499996135637
 30
0.0
 11
8.796105594491621
 21
11.62499996135637
 31
0.0
  0
ARC
  5
AEE
330
1A
100
AcDbEntity
  8
ZUWAKU
100
AcDbCircle
 10
12.47110559449163
 20
9.524999961356347
 30
0.0
 40
2.1
100
AcDbArc
 50
90.0
 51
180.0
  0
ARC
  5
AEF
330
1A
100
AcDbEntity
  8
ZUWAKU
100
AcDbCircle
 10
12.47110559449163
 20
9.524999961356368
 30
0.0
 40
0.7
100
AcDbArc
 50
90.0
 51
180.0
  0
LINE
  5
AF0
330
1A
100
AcDbEntity
  8
ZUWAKU
100
AcDbLine
 10
9.05860559449161
 20
11.36249996135637
 30
0.0
 11
9.05860559449161
 21
10.48749996135637
 31
0.0
  0
LINE
  5
AF1
330
1A
100
AcDbEntity
  8
ZUWAKU
100
AcDbLine
 10
17.83817306314955
 20
11.44154694543985
 30
0.0
 11
16.90403812583367
 21
8.483452977272883
 31
0.0
  0
LINE
  5
AF2
330
1A
100
AcDbEntity
  8
ZUWAKU
100
AcDbLine
 10
14.92110559449162
 20
11.36249996135637
 30
0.0
 11
14.92110559449162
 21
3.837499961356368
 31
0.0
  0
LINE
  5
AF3
330
1A
100
AcDbEntity
  8
ZUWAKU
100
AcDbLine
 10
16.32110559449166
 20
8.56249996135637
 30
0.0
 11
16.32110559449166
 21
11.36249996135637
 31
0.0
  0
LINE
  5
AF4
330
1A
100
AcDbEntity
  8
ZUWAKU
100
AcDbLine
 10
28.92110559449162
 20
5.499999961356366
 30
0.0
 11
28.92110559449162
 21
11.36249996135637
 31
0.0
  0
LINE
  5
AF5
330
1A
100
AcDbEntity
  8
ZUWAKU
100
AcDbLine
 10
27.52110559449164
 20
11.36249996135637
 30
0.0
 11
27.52110559449164
 21
4.974999961356367
 31
0.0
  0
LINE
  5
AF6
330
1A
100
AcDbEntity
  8
ZUWAKU
100
AcDbLine
 10
21.74610559449161
 20
3.837499961356368
 30
0.0
 11
21.74610559449161
 21
11.36249996135637
 31
0.0
  0
LINE
  5
AF7
330
1A
100
AcDbEntity
  8
ZUWAKU
100
AcDbLine
 10
20.34610559449163
 20
11.36249996135637
 30
0.0
 11
20.34610559449163
 21
3.837499961356368
 31
0.0
  0
LINE
  5
AF8
330
1A
100
AcDbEntity
  8
ZUWAKU
100
AcDbLine
 10
18.65742883558062
 20
9.602523558138081
 30
0.0
 11
18.0250529629127
 21
7.599999961356378
 31
0.0
  0
ARC
  5
AF9
330
1A
100
AcDbEntity
  8
ZUWAKU
100
AcDbCircle
 10
24.89610559449164
 20
9.317398948678719
 30
0.0
 40
2.1
100
AcDbArc
 50
180.0
 51
225.0
  0
ARC
  5
AFA
330
1A
100
AcDbEntity
  8
ZUWAKU
100
AcDbCircle
 10
24.89610559449164
 20
9.317398948678719
 30
0.0
 40
0.7
100
AcDbArc
 50
180.0000000000016
 51
224.9999999999988
  0
LINE
  5
AFB
330
1A
100
AcDbEntity
  8
ZUWAKU
100
AcDbLine
 10
33.12110559449161
 20
11.36249996135637
 30
0.0
 11
33.12110559449161
 21
3.837499961356368
 31
0.0
  0
LINE
  5
AFC
330
1A
100
AcDbEntity
  8
ZUWAKU
100
AcDbLine
 10
34.52110559449164
 20
3.837499961356368
 30
0.0
 11
34.52110559449164
 21
11.36249996135637
 31
0.0
  0
LINE
  5
AFD
330
1A
100
AcDbEntity
  8
ZUWAKU
100
AcDbLine
 10
30.67110559449162
 20
11.36249996135637
 30
0.0
 11
30.67110559449162
 21
5.499999961356366
 31
0.0
  0
LINE
  5
AFE
330
1A
100
AcDbEntity
  8
ZUWAKU
100
AcDbLine
 10
32.07110559449166
 20
4.974999961356367
 30
0.0
 11
32.07110559449166
 21
11.36249996135637
 31
0.0
  0
LINE
  5
AFF
330
1A
100
AcDbEntity
  8
ZUWAKU
100
AcDbLine
 10
39.56331429109525
 20
14.99999996135637
 30
0.0
 11
39.56331429109525
 21
0.3999999613564
 31
0.0
  0
LINE
  5
B00
330
1A
100
AcDbEntity
  8
ZUWAKU
100
AcDbLine
 10
39.76331429109519
 20
14.99999996135637
 30
0.0
 11
39.7633142910953
 21
0.3999999613564
 31
0.0
  0
LINE
  5
B01
330
1A
100
AcDbEntity
  8
ZUWAKU
100
AcDbLine
 10
39.66331429109516
 20
14.99999996135637
 30
0.0
 11
39.66331429109528
 21
0.3999999613564
 31
0.0
  0
LINE
  5
B02
330
1A
100
AcDbEntity
  8
ZUWAKU
100
AcDbLine
 10
28.92110559449162
 20
3.574999961356369
 30
0.0
 11
30.67110559449162
 21
3.574999961356369
 31
0.0
  0
LINE
  5
B03
330
1A
100
AcDbEntity
  8
ZUWAKU
100
AcDbLine
 10
30.14610559449164
 20
4.974999961356367
 30
0.0
 11
29.44610559449166
 21
4.974999961356367
 31
0.0
  0
LINE
  5
B04
330
1A
100
AcDbEntity
  8
ZUWAKU
100
AcDbLine
 10
20.60860559449162
 20
3.574999961356369
 30
0.0
 11
21.48360559449162
 21
3.574999961356369
 31
0.0
  0
LINE
  5
B05
330
1A
100
AcDbEntity
  8
ZUWAKU
100
AcDbLine
 10
17.83817306314955
 20
3.758452977272881
 30
0.0
 11
16.90403812583367
 21
6.716546945439852
 31
0.0
  0
ARC
  5
B06
330
1A
100
AcDbEntity
  8
ZUWAKU
100
AcDbCircle
 10
16.58360559449164
 20
6.637499961356369
 30
0.0
 40
0.2625
100
AcDbArc
 50
90.0
 51
180.0
  0
ARC
  5
B07
330
1A
100
AcDbEntity
  8
ZUWAKU
100
AcDbCircle
 10
16.65372267623599
 20
6.637499961356369
 30
0.0
 40
0.2625
100
AcDbArc
 50
17.52556837372303
 51
90.0
  0
ARC
  5
B08
330
1A
100
AcDbEntity
  8
ZUWAKU
100
AcDbCircle
 10
15.18360559449161
 20
3.837499961356368
 30
0.0
 40
0.2625
100
AcDbArc
 50
180.0
 51
270.0
  0
ARC
  5
B09
330
1A
100
AcDbEntity
  8
ZUWAKU
100
AcDbCircle
 10
13.43360559449161
 20
4.712499961356368
 30
0.0
 40
0.2625
100
AcDbArc
 50
0.0
 51
90.0
  0
ARC
  5
B0A
330
1A
100
AcDbEntity
  8
ZUWAKU
100
AcDbCircle
 10
13.43360559449161
 20
3.837499961356368
 30
0.0
 40
0.2625
100
AcDbArc
 50
270.0
 51
0.0
  0
LINE
  5
B0B
330
1A
100
AcDbEntity
  8
ZUWAKU
100
AcDbLine
 10
13.69610559449166
 20
4.712499961356368
 30
0.0
 11
13.69610559449166
 21
3.837499961356368
 31
0.0
  0
LINE
  5
B0C
330
1A
100
AcDbEntity
  8
ZUWAKU
100
AcDbLine
 10
16.32110559449166
 20
3.837499961356368
 30
0.0
 11
16.32110559449166
 21
6.637499961356369
 31
0.0
  0
ARC
  5
B0D
330
1A
100
AcDbEntity
  8
ZUWAKU
100
AcDbCircle
 10
16.05860559449161
 20
3.837499961356368
 30
0.0
 40
0.2625
100
AcDbArc
 50
270.0
 51
0.0
  0
LINE
  5
B0E
330
1A
100
AcDbEntity
  8
ZUWAKU
100
AcDbLine
 10
15.18360559449161
 20
3.574999961356369
 30
0.0
 11
16.05860559449161
 21
3.574999961356369
 31
0.0
  0
ARC
  5
B0F
330
1A
100
AcDbEntity
  8
ZUWAKU
100
AcDbCircle
 10
16.58360559449164
 20
8.56249996135637
 30
0.0
 40
0.2625
100
AcDbArc
 50
180.0
 51
270.0
  0
LINE
  5
B10
330
1A
100
AcDbEntity
  8
ZUWAKU
100
AcDbLine
 10
16.58360559449164
 20
6.899999961356368
 30
0.0
 11
16.65372267623599
 21
6.899999961356368
 31
0.0
  0
LINE
  5
B11
330
1A
100
AcDbEntity
  8
ZUWAKU
100
AcDbLine
 10
16.65372267623599
 20
8.299999961356367
 30
0.0
 11
16.58360559449164
 21
8.299999961356367
 31
0.0
  0
ARC
  5
B12
330
1A
100
AcDbEntity
  8
ZUWAKU
100
AcDbCircle
 10
16.65372267623599
 20
8.56249996135637
 30
0.0
 40
0.2625
100
AcDbArc
 50
270.0
 51
342.474431626277
  0
ARC
  5
B13
330
1A
100
AcDbEntity
  8
ZUWAKU
100
AcDbCircle
 10
18.08848851274729
 20
3.837499961356368
 30
0.0
 40
0.2625
100
AcDbArc
 50
197.525568373723
 51
270.0
  0
LINE
  5
B14
330
1A
100
AcDbEntity
  8
ZUWAKU
100
AcDbLine
 10
19.18824865214953
 20
3.916546945439855
 30
0.0
 11
18.0250529629127
 21
7.599999961356378
 31
0.0
  0
ARC
  5
B15
330
1A
100
AcDbEntity
  8
ZUWAKU
100
AcDbCircle
 10
18.93793320255179
 20
3.837499961356368
 30
0.0
 40
0.2625
100
AcDbArc
 50
270.0
 51
17.52556837372303
  0
LINE
  5
B16
330
1A
100
AcDbEntity
  8
ZUWAKU
100
AcDbLine
 10
18.08848851274729
 20
3.574999961356369
 30
0.0
 11
18.93793320255179
 21
3.574999961356369
 31
0.0
  0
ARC
  5
B17
330
1A
100
AcDbEntity
  8
ZUWAKU
100
AcDbCircle
 10
20.60860559449162
 20
3.837499961356368
 30
0.0
 40
0.2625
100
AcDbArc
 50
180.0
 51
270.0
  0
ARC
  5
B18
330
1A
100
AcDbEntity
  8
ZUWAKU
100
AcDbCircle
 10
25.07110559449166
 20
4.974999961356367
 30
0.0
 40
1.4
100
AcDbArc
 50
270.0
 51
0.0
  0
ARC
  5
B19
330
1A
100
AcDbEntity
  8
ZUWAKU
100
AcDbCircle
 10
28.92110559449162
 20
4.974999961356367
 30
0.0
 40
1.4
100
AcDbArc
 50
180.0
 51
270.0
  0
LINE
  5
B1A
330
1A
100
AcDbEntity
  8
ZUWAKU
100
AcDbLine
 10
25.85602983498342
 20
7.367525214525781
 30
0.0
 11
24.40113084766102
 21
8.822424201848119
 31
0.0
  0
LINE
  5
B1B
330
1A
100
AcDbEntity
  8
ZUWAKU
100
AcDbLine
 10
23.41118135399989
 20
7.832474708186958
 30
0.0
 11
24.86608034132223
 21
6.377575720864627
 31
0.0
  0
LINE
  5
B1C
330
1A
100
AcDbEntity
  8
ZUWAKU
100
AcDbLine
 10
23.32110559449166
 20
3.574999961356369
 30
0.0
 11
25.07110559449166
 21
3.574999961356369
 31
0.0
  0
LINE
  5
B1D
330
1A
100
AcDbEntity
  8
ZUWAKU
100
AcDbLine
 10
23.32110559449166
 20
4.974999961356367
 30
0.0
 11
24.80860559449161
 21
4.974999961356367
 31
0.0
  0
ARC
  5
B1E
330
1A
100
AcDbEntity
  8
ZUWAKU
100
AcDbCircle
 10
23.32110559449166
 20
4.712499961356368
 30
0.0
 40
0.2625
100
AcDbArc
 50
90.0
 51
180.0
  0
ARC
  5
B1F
330
1A
100
AcDbEntity
  8
ZUWAKU
100
AcDbCircle
 10
21.48360559449162
 20
3.837499961356368
 30
0.0
 40
0.2625
100
AcDbArc
 50
270.0
 51
0.0
  0
ARC
  5
B20
330
1A
100
AcDbEntity
  8
ZUWAKU
100
AcDbCircle
 10
23.32110559449166
 20
3.837499961356368
 30
0.0
 40
0.2625
100
AcDbArc
 50
180.0
 51
270.0
  0
LINE
  5
B21
330
1A
100
AcDbEntity
  8
ZUWAKU
100
AcDbLine
 10
23.05860559449161
 20
3.837499961356368
 30
0.0
 11
23.05860559449161
 21
4.712499961356368
 31
0.0
  0
ARC
  5
B22
330
1A
100
AcDbEntity
  8
ZUWAKU
100
AcDbCircle
 10
24.80860559449161
 20
5.23749996135637
 30
0.0
 40
0.2625
100
AcDbArc
 50
270.0
 51
0.0
  0
ARC
  5
B23
330
1A
100
AcDbEntity
  8
ZUWAKU
100
AcDbCircle
 10
24.37110559449161
 20
5.882600974034041
 30
0.0
 40
0.7
100
AcDbArc
 50
0.0
 51
45.0
  0
LINE
  5
B24
330
1A
100
AcDbEntity
  8
ZUWAKU
100
AcDbLine
 10
25.07110559449166
 20
5.23749996135637
 30
0.0
 11
25.07110559449166
 21
5.882600974034041
 31
0.0
  0
ARC
  5
B25
330
1A
100
AcDbEntity
  8
ZUWAKU
100
AcDbCircle
 10
29.44610559449166
 20
5.499999961356366
 30
0.0
 40
0.5249999999999999
100
AcDbArc
 50
180.0
 51
270.0
  0
ARC
  5
B26
330
1A
100
AcDbEntity
  8
ZUWAKU
100
AcDbCircle
 10
24.37110559449161
 20
5.88260097403402
 30
0.0
 40
2.1
100
AcDbArc
 50
0.0
 51
45.0
  0
LINE
  5
B27
330
1A
100
AcDbEntity
  8
ZUWAKU
100
AcDbLine
 10
26.47110559449163
 20
4.974999961356367
 30
0.0
 11
26.47110559449163
 21
5.882600974034041
 31
0.0
  0
ARC
  5
B28
330
1A
100
AcDbEntity
  8
ZUWAKU
100
AcDbCircle
 10
30.67110559449162
 20
4.974999961356367
 30
0.0
 40
1.4
100
AcDbArc
 50
270.0
 51
0.0
  0
LINE
  5
B29
330
1A
100
AcDbEntity
  8
ZUWAKU
100
AcDbLine
 10
33.38360559449166
 20
3.574999961356369
 30
0.0
 11
34.25860559449166
 21
3.574999961356369
 31
0.0
  0
ARC
  5
B2A
330
1A
100
AcDbEntity
  8
ZUWAKU
100
AcDbCircle
 10
30.14610559449164
 20
5.499999961356366
 30
0.0
 40
0.5249999999999999
100
AcDbArc
 50
270.0
 51
0.0
  0
ARC
  5
B2B
330
1A
100
AcDbEntity
  8
ZUWAKU
100
AcDbCircle
 10
33.38360559449166
 20
3.837499961356368
 30
0.0
 40
0.2625
100
AcDbArc
 50
180.0
 51
270.0
  0
ARC
  5
B2C
330
1A
100
AcDbEntity
  8
ZUWAKU
100
AcDbCircle
 10
34.25860559449166
 20
3.837499961356368
 30
0.0
 40
0.2625
100
AcDbArc
 50
270.0
 51
0.0
  0
LINE
  5
B2D
330
1A
100
AcDbEntity
  8
ZUWAKU
100
AcDbLine
 10
21.48360559449162
 20
11.62499996135637
 30
0.0
 11
20.60860559449162
 21
11.62499996135637
 31
0.0
  0
LINE
  5
B2E
330
1A
100
AcDbEntity
  8
ZUWAKU
100
AcDbLine
 10
13.69610559449166
 20
11.36249996135637
 30
0.0
 11
13.69610559449166
 21
10.48749996135637
 31
0.0
  0
ARC
  5
B2F
330
1A
100
AcDbEntity
  8
ZUWAKU
100
AcDbCircle
 10
13.43360559449161
 20
10.48749996135637
 30
0.0
 40
0.2625
100
AcDbArc
 50
270.0
 51
0.0
  0
ARC
  5
B30
330
1A
100
AcDbEntity
  8
ZUWAKU
100
AcDbCircle
 10
15.18360559449161
 20
11.36249996135637
 30
0.0
 40
0.2625
100
AcDbArc
 50
90.0
 51
180.0
  0
ARC
  5
B31
330
1A
100
AcDbEntity
  8
ZUWAKU
100
AcDbCircle
 10
13.43360559449161
 20
11.36249996135637
 30
0.0
 40
0.2625
100
AcDbArc
 50
0.0
 51
90.0
  0
LINE
  5
B32
330
1A
100
AcDbEntity
  8
ZUWAKU
100
AcDbLine
 10
16.05860559449161
 20
11.62499996135637
 30
0.0
 11
15.18360559449161
 21
11.62499996135637
 31
0.0
  0
ARC
  5
B33
330
1A
100
AcDbEntity
  8
ZUWAKU
100
AcDbCircle
 10
16.05860559449161
 20
11.36249996135637
 30
0.0
 40
0.2625
100
AcDbArc
 50
0.0
 51
90.0
  0
ARC
  5
B34
330
1A
100
AcDbEntity
  8
ZUWAKU
100
AcDbCircle
 10
18.08848851274729
 20
11.36249996135637
 30
0.0
 40
0.2625
100
AcDbArc
 50
90.0
 51
162.474431626277
  0
LINE
  5
B35
330
1A
100
AcDbEntity
  8
ZUWAKU
100
AcDbLine
 10
19.18824865214953
 20
11.28345297727288
 30
0.0
 11
18.65742883558062
 21
9.602523558138081
 31
0.0
  0
ARC
  5
B36
330
1A
100
AcDbEntity
  8
ZUWAKU
100
AcDbCircle
 10
18.93793320255179
 20
11.36249996135637
 30
0.0
 40
0.2625
100
AcDbArc
 50
342.474431626277
 51
90.0
  0
LINE
  5
B37
330
1A
100
AcDbEntity
  8
ZUWAKU
100
AcDbLine
 10
18.08848851274729
 20
11.62499996135637
 30
0.0
 11
18.93793320255179
 21
11.62499996135637
 31
0.0
  0
ARC
  5
B38
330
1A
100
AcDbEntity
  8
ZUWAKU
100
AcDbCircle
 10
20.60860559449162
 20
11.36249996135637
 30
0.0
 40
0.2625
100
AcDbArc
 50
90.0
 51
180.0
  0
LINE
  5
B39
330
1A
100
AcDbEntity
  8
ZUWAKU
100
AcDbLine
 10
25.94610559449166
 20
10.22499996135637
 30
0.0
 11
24.45860559449164
 21
10.22499996135637
 31
0.0
  0
LINE
  5
B3A
330
1A
100
AcDbEntity
  8
ZUWAKU
100
AcDbLine
 10
24.19610559449166
 20
11.62499996135637
 30
0.0
 11
25.94610559449166
 21
11.62499996135637
 31
0.0
  0
ARC
  5
B3B
330
1A
100
AcDbEntity
  8
ZUWAKU
100
AcDbCircle
 10
24.19610559449166
 20
10.22499996135637
 30
0.0
 40
1.4
100
AcDbArc
 50
90.0
 51
180.0
  0
LINE
  5
B3C
330
1A
100
AcDbEntity
  8
ZUWAKU
100
AcDbLine
 10
22.79610559449162
 20
10.22499996135637
 30
0.0
 11
22.79610559449162
 21
9.317398948678697
 31
0.0
  0
ARC
  5
B3D
330
1A
100
AcDbEntity
  8
ZUWAKU
100
AcDbCircle
 10
21.48360559449162
 20
11.36249996135637
 30
0.0
 40
0.2625
100
AcDbArc
 50
0.0
 51
90.0
  0
LINE
  5
B3E
330
1A
100
AcDbEntity
  8
ZUWAKU
100
AcDbLine
 10
24.19610559449166
 20
9.962499961356368
 30
0.0
 11
24.19610559449166
 21
9.317398948678697
 31
0.0
  0
ARC
  5
B3F
330
1A
100
AcDbEntity
  8
ZUWAKU
100
AcDbCircle
 10
24.45860559449164
 20
9.962499961356368
 30
0.0
 40
0.2625
100
AcDbArc
 50
90.0
 51
180.0
  0
LINE
  5
B40
330
1A
100
AcDbEntity
  8
ZUWAKU
100
AcDbLine
 10
26.20860559449164
 20
11.36249996135637
 30
0.0
 11
26.20860559449164
 21
10.48749996135637
 31
0.0
  0
ARC
  5
B41
330
1A
100
AcDbEntity
  8
ZUWAKU
100
AcDbCircle
 10
25.94610559449166
 20
10.48749996135637
 30
0.0
 40
0.2625
100
AcDbArc
 50
270.0
 51
0.0
  0
ARC
  5
B42
330
1A
100
AcDbEntity
  8
ZUWAKU
100
AcDbCircle
 10
25.94610559449166
 20
11.36249996135637
 30
0.0
 40
0.2625
100
AcDbArc
 50
0.0
 51
90.0
  0
LINE
  5
B43
330
1A
100
AcDbEntity
  8
ZUWAKU
100
AcDbLine
 10
28.65860559449163
 20
11.62499996135637
 30
0.0
 11
27.78360559449163
 21
11.62499996135637
 31
0.0
  0
ARC
  5
B44
330
1A
100
AcDbEntity
  8
ZUWAKU
100
AcDbCircle
 10
27.78360559449163
 20
11.36249996135637
 30
0.0
 40
0.2625
100
AcDbArc
 50
90.0
 51
180.0
  0
ARC
  5
B45
330
1A
100
AcDbEntity
  8
ZUWAKU
100
AcDbCircle
 10
28.65860559449163
 20
11.36249996135637
 30
0.0
 40
0.2625
100
AcDbArc
 50
0.0
 51
90.0
  0
LINE
  5
B46
330
1A
100
AcDbEntity
  8
ZUWAKU
100
AcDbLine
 10
34.25860559449166
 20
11.62499996135637
 30
0.0
 11
33.38360559449166
 21
11.62499996135637
 31
0.0
  0
ARC
  5
B47
330
1A
100
AcDbEntity
  8
ZUWAKU
100
AcDbCircle
 10
30.93360559449161
 20
11.36249996135637
 30
0.0
 40
0.2625
100
AcDbArc
 50
90.0
 51
180.0
  0
LINE
  5
B48
330
1A
100
AcDbEntity
  8
ZUWAKU
100
AcDbLine
 10
31.80860559449161
 20
11.62499996135637
 30
0.0
 11
30.93360559449161
 21
11.62499996135637
 31
0.0
  0
ARC
  5
B49
330
1A
100
AcDbEntity
  8
ZUWAKU
100
AcDbCircle
 10
31.80860559449161
 20
11.36249996135637
 30
0.0
 40
0.2625
100
AcDbArc
 50
0.0
 51
90.0
  0
ARC
  5
B4A
330
1A
100
AcDbEntity
  8
ZUWAKU
100
AcDbCircle
 10
33.38360559449166
 20
11.36249996135637
 30
0.0
 40
0.2625
100
AcDbArc
 50
90.0
 51
180.0
  0
ARC
  5
B4B
330
1A
100
AcDbEntity
  8
ZUWAKU
100
AcDbCircle
 10
34.25860559449166
 20
11.36249996135637
 30
0.0
 40
0.2625
100
AcDbArc
 50
0.0
 51
90.0
  0
LINE
  5
B4C
330
1A
100
AcDbEntity
  8
ZUWAKU
100
AcDbLine
 10
104.2233001621349
 20
14.99999996135637
 30
0.0
 11
104.2233001621351
 21
0.3999999613564
 31
0.0
  0
LINE
  5
B4D
330
1A
100
AcDbEntity
  8
ZUWAKU
100
AcDbLine
 10
104.323300162135
 20
14.99999996135637
 30
0.0
 11
104.3233001621351
 21
0.3999999613564
 31
0.0
  0
LINE
  5
B4E
330
1A
100
AcDbEntity
  8
ZUWAKU
100
AcDbLine
 10
104.123300162135
 20
14.99999996135637
 30
0.0
 11
104.123300162135
 21
0.3999999613564
 31
0.0
  0
TEXT
  5
B4F
330
1A
100
AcDbEntity
  8
moji
100
AcDbText
 10
119.9136008575266
 20
9.002460490060059
 30
0.0
 40
2.8
  1
ブラケット正面打（吊）ワンタッチ自在式
 41
0.9
  7
ｽﾀｲﾙ1
100
AcDbText
  0
TEXT
  5
B50
330
1A
100
AcDbEntity
  8
ZUWAKU
100
AcDbText
 10
104.8620226732398
 20
4.827678230549175
 30
0.0
 40
2.0
  1
サイズ
 41
0.9
  7
ｽﾀｲﾙ1
100
AcDbText
  0
TEXT
  5
B51
330
1A
100
AcDbEntity
  8
moji
100
AcDbText
 10
119.9136008575266
 20
1.602460490060077
 30
0.0
 40
2.8
  1
Σ９０－６－１０～４５
 41
0.9
  7
ｽﾀｲﾙ1
100
AcDbText
  0
TEXT
  5
B52
330
1A
100
AcDbEntity
  8
ZUWAKU
100
AcDbText
 10
104.8620226732397
 20
12.02767823054916
 30
0.0
 40
2.0
  1
品名
 41
0.9
  7
ｽﾀｲﾙ1
100
AcDbText
  0
TEXT
  5
B53
330
1A
100
AcDbEntity
  8
ZUWAKU
100
AcDbText
 10
329.1019683607523
 20
9.002460490060059
 30
0.0
 40
2.8
  1
　　．　　．　　
 41
0.9
  7
ｽﾀｲﾙ1
100
AcDbText
  0
LINE
  5
B54
330
1A
100
AcDbEntity
  8
ZUWAKU
100
AcDbLine
 10
324.4086007722032
 20
7.799999961356383
 30
0.0
 11
348.6245047913717
 21
7.799999961356383
 31
0.0
  0
LINE
  5
B55
330
1A
100
AcDbEntity
  8
ZUWAKU
100
AcDbLine
 10
324.4086007722033
 20
7.699999961356385
 30
0.0
 11
348.6245047913717
 21
7.699999961356383
 31
0.0
  0
LINE
  5
B56
330
1A
100
AcDbEntity
  8
ZUWAKU
100
AcDbLine
 10
324.4086007722032
 20
7.599999961356382
 30
0.0
 11
348.6245047913717
 21
7.599999961356383
 31
0.0
  0
LINE
  5
B57
330
1A
100
AcDbEntity
  8
ZUWAKU
100
AcDbLine
 10
252.5995892661715
 20
7.799999961356383
 30
0.0
 11
276.2634774001573
 21
7.799999961356383
 31
0.0
  0
LINE
  5
B58
330
1A
100
AcDbEntity
  8
ZUWAKU
100
AcDbLine
 10
252.5995892661715
 20
7.699999961356383
 30
0.0
 11
276.2634774001573
 21
7.699999961356383
 31
0.0
  0
LINE
  5
B59
330
1A
100
AcDbEntity
  8
ZUWAKU
100
AcDbLine
 10
252.5995892661715
 20
7.599999961356385
 30
0.0
 11
276.2634774001573
 21
7.599999961356385
 31
0.0
  0
LINE
  5
B5A
330
1A
100
AcDbEntity
  8
ZUWAKU
100
AcDbLine
 10
252.3995892661716
 20
14.99999996135637
 30
0.0
 11
252.3995892661716
 21
0.3999999613564
 31
0.0
  0
LINE
  5
B5B
330
1A
100
AcDbEntity
  8
ZUWAKU
100
AcDbLine
 10
252.5995892661715
 20
14.99999996135637
 30
0.0
 11
252.5995892661716
 21
0.3999999613564
 31
0.0
  0
LINE
  5
B5C
330
1A
100
AcDbEntity
  8
ZUWAKU
100
AcDbLine
 10
252.4995892661715
 20
14.99999996135637
 30
0.0
 11
252.4995892661716
 21
0.3999999613564
 31
0.0
  0
TEXT
  5
B5D
330
1A
100
AcDbEntity
  8
moji
100
AcDbText
 10
264.0204535032575
 20
9.002460490060059
 30
0.0
 40
2.8
  1
Ａ３
 41
0.9
  7
ｽﾀｲﾙ1
100
AcDbText
  0
LINE
  5
B5E
330
1A
100
AcDbEntity
  8
ZUWAKU
100
AcDbLine
 10
223.7121815025968
 20
14.99999996135637
 30
0.0
 11
223.7121815025968
 21
0.3999999613564
 31
0.0
  0
LINE
  5
B5F
330
1A
100
AcDbEntity
  8
ZUWAKU
100
AcDbLine
 10
223.9121815025967
 20
14.99999996135637
 30
0.0
 11
223.9121815025968
 21
0.3999999613564
 31
0.0
  0
LINE
  5
B60
330
1A
100
AcDbEntity
  8
ZUWAKU
100
AcDbLine
 10
223.8121815025967
 20
14.99999996135637
 30
0.0
 11
223.8121815025968
 21
0.3999999613564
 31
0.0
  0
TEXT
  5
B61
330
1A
100
AcDbEntity
  8
moji
100
AcDbText
 10
231.2836386780954
 20
5.971308822186359
 30
0.0
 40
2.8
  1
ＬＫ０４Ｔ
 41
0.9
  7
ｽﾀｲﾙ1
100
AcDbText
  0
TEXT
  5
B63
330
1A
100
AcDbEntity
  8
ZUWAKU
100
AcDbText
 10
253.3383117772764
 20
4.827678230549175
 30
0.0
 40
2.0
  1
縮尺
 41
0.9
  7
ｽﾀｲﾙ1
100
AcDbText
  0
TEXT
  5
B64
330
1A
100
AcDbEntity
  8
moji
100
AcDbText
 10
264.0204535032575
 20
1.602460490060077
 30
0.0
 40
2.8
  1
１/１
 41
0.9
  7
ｽﾀｲﾙ1
100
AcDbText
  0
TEXT
  5
B65
330
1A
100
AcDbEntity
  8
ZUWAKU
100
AcDbText
 10
224.6509040137015
 20
12.02767823054916
 30
0.0
 40
2.0
  1
品番
 41
0.9
  7
ｽﾀｲﾙ1
100
AcDbText
  0
TEXT
  5
B66
330
1A
100
AcDbEntity
  8
ZUWAKU
100
AcDbText
 10
253.3383117772763
 20
12.02767823054916
 30
0.0
 40
2.0
  1
用紙
 41
0.9
  7
ｽﾀｲﾙ1
100
AcDbText
  0
LINE
  5
B67
330
1A
100
AcDbEntity
  8
ZUWAKU
100
AcDbLine
 10
276.2634774001573
 20
14.99999996135637
 30
0.0
 11
276.2634774001573
 21
0.3999999613564
 31
0.0
  0
LINE
  5
B68
330
1A
100
AcDbEntity
  8
ZUWAKU
100
AcDbLine
 10
276.4634774001572
 20
14.99999996135637
 30
0.0
 11
276.4634774001573
 21
0.3999999613564
 31
0.0
  0
LINE
  5
B69
330
1A
100
AcDbEntity
  8
ZUWAKU
100
AcDbLine
 10
276.3634774001572
 20
14.99999996135637
 30
0.0
 11
276.3634774001573
 21
0.3999999613564
 31
0.0
  0
LINE
  5
B6A
330
1A
100
AcDbEntity
  8
ZUWAKU
100
AcDbLine
 10
324.2086007722033
 20
14.99999996135637
 30
0.0
 11
324.2086007722033
 21
0.3999999613564
 31
0.0
  0
LINE
  5
B6B
330
1A
100
AcDbEntity
  8
ZUWAKU
100
AcDbLine
 10
324.4086007722033
 20
14.99999996135637
 30
0.0
 11
324.4086007722034
 21
0.3999999613564
 31
0.0
  0
LINE
  5
B6C
330
1A
100
AcDbEntity
  8
ZUWAKU
100
AcDbLine
 10
324.3086007722033
 20
14.99999996135637
 30
0.0
 11
324.3086007722034
 21
0.3999999613564
 31
0.0
  0
TEXT
  5
B6D
330
1A
100
AcDbEntity
  8
ZUWAKU
100
AcDbText
 10
325.1473232833081
 20
12.02767823054916
 30
0.0
 40
2.0
  1
DATE
 41
0.9
  7
ｽﾀｲﾙ1
100
AcDbText
  0
TEXT
  5
B6E
330
1A
100
AcDbEntity
  8
ZUWAKU
100
AcDbText
 10
354.264041613223
 20
8.776919629199767
 30
0.0
 40
3.0
  1
積水化学工業株式会社
 41
0.9
  7
ｽﾀｲﾙ1
100
AcDbText
  0
LINE
  5
B6F
330
1A
100
AcDbEntity
  8
ZUWAKU
100
AcDbLine
 10
348.9245047913717
 20
14.99999996135637
 30
0.0
 11
348.9245047913718
 21
0.3999999613564
 31
0.0
  0
LINE
  5
B70
330
1A
100
AcDbEntity
  8
ZUWAKU
100
AcDbLine
 10
348.8245047913716
 20
14.99999996135637
 30
0.0
 11
348.8245047913717
 21
0.3999999613564
 31
0.0
  0
LINE
  5
B71
330
1A
100
AcDbEntity
  8
ZUWAKU
100
AcDbLine
 10
348.7245047913717
 20
14.99999996135637
 30
0.0
 11
348.7245047913717
 21
0.3999999613564
 31
0.0
  0
LINE
  5
B72
330
1A
100
AcDbEntity
  8
ZUWAKU
100
AcDbLine
 10
348.6245047913717
 20
14.99999996135637
 30
0.0
 11
348.6245047913717
 21
0.3999999613564
 31
0.0
  0
TEXT
  5
B73
330
1A
100
AcDbEntity
  8
ZUWAKU
100
AcDbText
 10
354.264041613223
 20
3.324420118283399
 30
0.0
 40
3.0
  1
建材事業部
 41
0.9
  7
ｽﾀｲﾙ1
100
AcDbText
  0
TEXT
  5
2F39
330
1A
100
AcDbEntity
  8
SUNPOU
100
AcDbText
 10
214.1037295248027
 20
151.0791565300517
 30
0.0
 40
3.0
  1
（スライド幅）
100
AcDbText
  0
DIMENSION
  5
2F3A
330
1A
100
AcDbEntity
  8
SUNPOU
100
AcDbDimension
  2
*D1
 10
232.8845877508514
 20
90.13227205686991
 30
0.0
 11
221.6514304276389
 21
113.7133275156901
 31
0.0
 70
    33
 71
     5
 42
51.9999999999999
  3
STANDARD
100
AcDbAlignedDimension
 13
194.3330851914382
 23
127.6432702300772
 33
0.0
 14
221.0868644668213
 24
83.05363808891606
 34
0.0
1001
ACAD
1000
DSTYLE
1002
{
1070
    41
1040
3.0
1070
    42
1040
3.0
1070
    43
1040
7.0
1070
    44
1040
1.5
1070
    73
1070
     0
1070
    74
1070
     0
1070
    77
1070
     3
1070
   140
1040
3.0
1070
   141
1040
3.0
1070
   147
1040
1.0
1070
   172
1070
     1
1070
   173
1070
     1
1070
   176
1070
   256
1070
   177
1070
   256
1070
   178
1070
   256
1070
   271
1070
     0
1070
   272
1070
     0
1070
   341
1005
B2
1070
     6
1000
OPEN
1070
     7
1000
OPEN
1002
}
  0
DIMENSION
  5
2F3B
330
1A
100
AcDbEntity
  8
SUNPOU
100
AcDbDimension
  2
*D2
 10
43.07437663564699
 20
83.0536380889161
 30
0.0
 11
40.57437663564697
 21
93.10816310144114
 31
0.0
 70
    32
 71
     5
 42
20.10905002505005
  3
STANDARD
100
AcDbAlignedDimension
 13
66.86381680687146
 23
103.1626881139661
 33
0.0
 14
221.0868644668213
 24
83.05363808891606
 34
0.0
 50
90.0
100
AcDbRotatedDimension
1001
ACAD
1000
DSTYLE
1002
{
1070
    41
1040
3.0
1070
    42
1040
3.0
1070
    43
1040
7.0
1070
    44
1040
1.5
1070
    73
1070
     0
1070
    74
1070
     0
1070
    77
1070
     3
1070
   140
1040
3.0
1070
   141
1040
3.0
1070
   147
1040
1.0
1070
   172
1070
     1
1070
   173
1070
     1
1070
   176
1070
   256
1070
   177
1070
   256
1070
   178
1070
   256
1070
   271
1070
     0
1070
   272
1070
     0
1070
   341
1005
B2
1070
     6
1000
OPEN
1070
     7
1000
OPEN
1002
}
  0
DIMENSION
  5
2F3C
330
1A
100
AcDbEntity
  8
SUNPOU
100
AcDbDimension
  2
*D3
 10
232.356722394873
 20
145.915577776627
 30
0.0
 11
214.856722395403
 21
148.415577776627
 31
0.0
 70
    32
 71
     5
 42
34.99999999894001
  3
STANDARD
100
AcDbAlignedDimension
 13
197.356722395933
 23
122.6038748673238
 33
0.0
 14
232.356722394873
 24
122.6038748667471
 34
0.0
100
AcDbRotatedDimension
1001
ACAD
1000
DSTYLE
1002
{
1070
    41
1040
3.0
1070
    42
1040
3.0
1070
    43
1040
7.0
1070
    44
1040
1.5
1070
    73
1070
     0
1070
    74
1070
     0
1070
    77
1070
     3
1070
   140
1040
3.0
1070
   141
1040
3.0
1070
   147
1040
1.0
1070
   172
1070
     1
1070
   173
1070
     1
1070
   176
1070
   256
1070
   177
1070
   256
1070
   178
1070
   256
1070
   271
1070
     0
1070
   272
1070
     0
1070
   341
1005
B2
1070
     6
1000
OPEN
1070
     7
1000
OPEN
1002
}
  0
DIMENSION
  5
2F3D
330
1A
100
AcDbEntity
  8
SUNPOU
100
AcDbDimension
  2
*D4
 10
227.7340772328134
 20
87.0419657491573
 30
0.0
 11
220.6168859495029
 21
103.7630777978793
 31
0.0
 70
    33
 71
     5
 42
35.99999999495252
  3
STANDARD
100
AcDbAlignedDimension
 13
202.5650172718214
 23
113.923383408916
 33
0.0
 14
221.0868644668213
 24
83.05363808891606
 34
0.0
1001
ACAD
1000
DSTYLE
1002
{
1070
    41
1040
3.0
1070
    42
1040
3.0
1070
    43
1040
7.0
1070
    44
1040
1.5
1070
    73
1070
     0
1070
    74
1070
     0
1070
    77
1070
     3
1070
   140
1040
3.0
1070
   141
1040
3.0
1070
   147
1040
1.0
1070
   172
1070
     1
1070
   173
1070
     1
1070
   176
1070
   256
1070
   177
1070
   256
1070
   178
1070
   256
1070
   271
1070
     0
1070
   272
1070
     0
1070
   341
1005
B2
1070
     6
1000
OPEN
1070
     7
1000
OPEN
1002
}
  0
LINE
  5
2F3E
330
1A
100
AcDbEntity
  8
SEIHIN
100
AcDbLine
 10
215.4611189218213
 20
212.7431781855192
 30
0.0
 11
216.8505206308213
 21
212.7431781855192
 31
0.0
  0
LINE
  5
2F3F
330
1A
100
AcDbEntity
  8
SEIHIN
100
AcDbLine
 10
216.8505206308213
 20
212.7431781855192
 30
0.0
 11
215.4611189218213
 21
210.6719833755192
 31
0.0
  0
LINE
  5
2F40
330
1A
100
AcDbEntity
  8
SEIHIN
100
AcDbLine
 10
220.0578729562296
 20
228.7431781855192
 30
0.0
 11
202.5650172774915
 21
228.7431781855192
 31
0.0
  0
LINE
  5
2F41
330
1A
100
AcDbEntity
  8
SEIHIN
 62
     3
100
AcDbLine
 10
104.6780353948215
 20
194.8099819861216
 30
0.0
 11
219.0591974168213
 21
194.8099819861216
 31
0.0
  0
SPLINE
  5
2F42
330
1A
100
AcDbEntity
  8
SEIHIN
100
AcDbSpline
210
0.0
220
0.0
230
1.0
 70
     8
 71
     3
 72
    43
 73
    39
 74
     0
 42
0.0000000001
 43
0.0000000001
 40
2.573801282421732
 40
2.573801282421732
 40
2.573801282421732
 40
2.573801282421732
 40
2.743484381259663
 40
2.743484381259663
 40
2.952958003953673
 40
2.952958003953673
 40
3.162431626647683
 40
3.162431626647683
 40
3.371905249341694
 40
3.371905249341694
 40
3.581378872035704
 40
3.581378872035704
 40
3.790852494729714
 40
3.790852494729714
 40
4.212890898547438
 40
4.212890898547438
 40
4.63492930236516
 40
4.63492930236516
 40
4.712388980384689
 40
4.712388980384689
 40
4.712388980384689
 40
5.035006403854932
 40
5.035006403854932
 40
5.40458618261824
 40
5.40458618261824
 40
5.774165961381548
 40
5.774165961381548
 40
6.003943188566481
 40
6.003943188566481
 40
6.233720415751411
 40
6.233720415751411
 40
6.426033209648383
 40
6.426033209648383
 40
6.618346003545357
 40
6.618346003545357
 40
6.810658797442329
 40
6.810658797442329
 40
6.85074050005263
 40
6.85074050005263
 40
6.85074050005263
 40
6.85074050005263
 10
213.2628439388708
 20
205.3099820061216
 30
0.0
 10
213.3617947731268
 20
205.444885614083
 30
0.0
 10
213.4735061534592
 20
205.5711640349532
 30
0.0
 10
213.7600189512419
 20
205.8286111330783
 30
0.0
 10
213.9455541521761
 20
205.9537148265752
 30
0.0
 10
214.3744081615038
 20
206.1286334476272
 30
0.0
 10
214.6185242797561
 20
206.1750649114882
 30
0.0
 10
215.1027623238523
 20
206.1535019294961
 30
0.0
 10
215.3379940358036
 20
206.086439739492
 30
0.0
 10
215.7447047396121
 20
205.8826935983605
 30
0.0
 10
215.9180006119252
 20
205.7485235278516
 30
0.0
 10
216.2147317781791
 20
205.4502247889042
 30
0.0
 10
216.3393106115439
 20
205.2853733580695
 30
0.0
 10
216.6659369611994
 20
204.7556794499982
 30
0.0
 10
216.8206709320425
 20
204.3557720367165
 30
0.0
 10
217.0405125412721
 20
203.4949652090614
 30
0.0
 10
217.1033840865396
 20
203.0339560424006
 30
0.0
 10
217.1234486616384
 20
202.4816304074328
 30
0.0
 10
217.1250044332479
 20
202.395806242078
 30
0.0
 10
217.1250044332479
 20
202.3099819961216
 30
0.0
 10
217.1250044332479
 20
201.9525263777969
 30
0.0
 10
217.0980406841946
 20
201.595171436372
 30
0.0
 10
216.9821397014858
 20
200.8544317265717
 30
0.0
 10
216.885320383315
 20
200.4751898747952
 30
0.0
 10
216.613944558652
 20
199.7758180687412
 30
0.0
 10
216.441298091664
 20
199.4542000472302
 30
0.0
 10
216.0595586607115
 20
198.9990360166591
 30
0.0
 10
215.8873387464936
 20
198.8395440972464
 30
0.0
 10
215.4709022562917
 20
198.5844275482085
 30
0.0
 10
215.2231649444044
 20
198.4909901623225
 30
0.0
 10
214.7389720991536
 20
198.439777121264
 30
0.0
 10
214.5111843528948
 20
198.4636899071521
 30
0.0
 10
214.0973575210568
 20
198.5908560181763
 30
0.0
 10
213.9118535396084
 20
198.6915117500475
 30
0.0
 10
213.5914238160925
 20
198.9299624563766
 30
0.0
 10
213.455044035737
 20
199.0676451549767
 30
0.0
 10
213.3111019941559
 20
199.2467945368266
 30
0.0
 10
213.2869887427977
 20
199.2781616091075
 30
0.0
 10
213.2635576242805
 20
199.3099820061216
 30
0.0
  0
LINE
  5
2F43
330
1A
100
AcDbEntity
  8
SEIHIN
100
AcDbLine
 10
213.3694281313896
 20
87.75269932627175
 30
0.0
 11
217.4853941747219
 21
86.72370781500774
 31
0.0
  0
LINE
  5
2F44
330
1A
100
AcDbEntity
  8
CENTER L
100
AcDbLine
 10
206.5094847331135
 20
80.72125732686865
 30
0.0
 11
224.2595882954195
 21
91.37131946179406
 31
0.0
  0
LINE
  5
2F45
330
1A
100
AcDbEntity
  8
SEIHIN
100
AcDbLine
 10
216.8505206308213
 20
191.8767858067239
 30
0.0
 11
215.4611189218213
 21
193.9479806167238
 31
0.0
  0
LINE
  5
2F46
330
1A
100
AcDbEntity
  8
SEIHIN
100
AcDbLine
 10
215.4611189218213
 20
191.8767858067239
 30
0.0
 11
216.8505206308213
 21
191.8767858067239
 31
0.0
  0
ARC
  5
2F47
330
1A
100
AcDbEntity
  8
SEIHIN
  6
DASHED
 62
     2
100
AcDbCircle
 10
226.3318599418213
 20
114.1806312889161
 30
0.0
 40
9.999999999123084
100
AcDbArc
 50
58.22980096073579
 51
170.7918456209258
  0
LINE
  5
2F48
330
1A
100
AcDbEntity
  8
SEIHIN
100
AcDbLine
 10
221.0868644668213
 20
83.05363808891606
 30
0.0
 11
215.3416618648213
 21
79.60651652891606
 31
0.0
  0
LINE
  5
2F49
330
1A
100
AcDbEntity
  8
SEIHIN
100
AcDbLine
 10
202.5650172718214
 20
113.923383408916
 30
0.0
 11
221.0868644668213
 21
83.05363808891606
 31
0.0
  0
LINE
  5
2F4A
330
1A
100
AcDbEntity
  8
SEIHIN
100
AcDbLine
 10
201.5360257618214
 20
113.305988508916
 30
0.0
 11
220.0578729558214
 21
82.43624317891606
 31
0.0
  0
LINE
  5
2F4B
330
1A
100
AcDbEntity
  8
SEIHIN
100
AcDbLine
 10
220.0578729562296
 20
175.8767858067239
 30
0.0
 11
202.5650172774914
 21
175.8767858067239
 31
0.0
  0
LINE
  5
2F4C
330
1A
100
AcDbEntity
  8
SEIHIN
 62
     3
100
AcDbLine
 10
104.6780353948215
 20
209.8099820061216
 30
0.0
 11
219.0591974168213
 21
209.8099820061216
 31
0.0
  0
LINE
  5
2F4D
330
1A
100
AcDbEntity
  8
SEIHIN
 62
     3
100
AcDbLine
 10
104.1780353948215
 20
195.8099819861216
 30
0.0
 11
219.0591974168214
 21
195.8099819861216
 31
0.0
  0
LINE
  5
2F4E
330
1A
100
AcDbEntity
  8
SEIHIN
 62
     3
100
AcDbLine
 10
104.1780353948215
 20
208.8099820061216
 30
0.0
 11
218.9342222198213
 21
208.8099820061216
 31
0.0
  0
LINE
  5
2F4F
330
1A
100
AcDbEntity
  8
CENTER L
100
AcDbLine
 10
58.13185998182139
 20
202.3099819961216
 30
0.0
 11
225.1007969148213
 21
202.3099819961216
 31
0.0
  0
DIMENSION
  5
2F50
330
1A
100
AcDbEntity
  8
SUNPOU
100
AcDbDimension
  2
*D5
 10
197.356722395933
 20
137.0064606890122
 30
0.0
 11
192.7442911888772
 21
139.5064606890122
 31
0.0
 70
    32
 71
     5
 42
9.224862414111556
  3
STANDARD
100
AcDbAlignedDimension
 13
188.1318599818215
 23
85.48073128891606
 33
0.0
 14
197.356722395933
 24
122.6038748673238
 34
0.0
100
AcDbRotatedDimension
1001
ACAD
1000
DSTYLE
1002
{
1070
    41
1040
3.0
1070
    42
1040
3.0
1070
    43
1040
7.0
1070
    44
1040
1.5
1070
    73
1070
     0
1070
    74
1070
     0
1070
    77
1070
     3
1070
   140
1040
3.0
1070
   141
1040
3.0
1070
   147
1040
1.0
1070
   172
1070
     1
1070
   173
1070
     1
1070
   176
1070
   256
1070
   177
1070
   256
1070
   178
1070
   256
1070
   271
1070
     0
1070
   272
1070
     0
1070
   341
1005
B2
1070
     6
1000
OPEN
1070
     7
1000
OPEN
1002
}
  0
DIMENSION
  5
2F51
330
1A
100
AcDbEntity
  8
SUNPOU
100
AcDbDimension
  2
*D6
 10
197.356722395933
 20
145.915577776627
 30
0.0
 11
131.2442911888772
 21
148.415577776627
 31
0.0
 70
    32
 71
     5
 42
132.2248624141116
  3
STANDARD
100
AcDbAlignedDimension
 13
65.13185998182138
 23
101.1807312889161
 33
0.0
 14
197.356722395933
 24
122.6038748673238
 34
0.0
100
AcDbRotatedDimension
1001
ACAD
1000
DSTYLE
1002
{
1070
    41
1040
3.0
1070
    42
1040
3.0
1070
    43
1040
7.0
1070
    44
1040
1.5
1070
    73
1070
     0
1070
    74
1070
     0
1070
    77
1070
     3
1070
   140
1040
3.0
1070
   141
1040
3.0
1070
   147
1040
1.0
1070
   172
1070
     1
1070
   173
1070
     1
1070
   176
1070
   256
1070
   177
1070
   256
1070
   178
1070
   256
1070
   271
1070
     0
1070
   272
1070
     0
1070
   341
1005
B2
1070
     6
1000
OPEN
1070
     7
1000
OPEN
1002
}
  0
ARC
  5
2F52
330
1A
100
AcDbEntity
  8
SEIHIN
100
AcDbCircle
 10
191.3318599418213
 20
114.1806312889161
 30
0.0
 40
9.999999997642416
100
AcDbArc
 50
58.22980096073579
 51
170.7918456181774
  0
LINE
  5
2F53
330
1A
100
AcDbEntity
  8
SEIHIN
  6
Continuous
 62
     3
100
AcDbLine
 10
92.32852550754404
 20
74.19435963052943
 30
0.0
 11
84.85575998182138
 21
87.29673128891606
 31
0.0
  0
LINE
  5
2F54
330
1A
100
AcDbEntity
  8
SEIHIN
  6
Continuous
 62
     3
100
AcDbLine
 10
90.57345998182136
 20
68.56973128891607
 30
0.0
 11
83.0431599818214
 21
86.45833128891606
 31
0.0
  0
LINE
  5
2F55
330
1A
100
AcDbEntity
  8
SEIHIN
  6
Continuous
 62
     3
100
AcDbLine
 10
78.88705998182138
 20
90.13233128891606
 30
0.0
 11
88.37665998182139
 21
67.3290312889161
 31
0.0
  0
LINE
  5
2F56
330
1A
100
AcDbEntity
  8
SEIHIN
  6
Continuous
 62
     3
100
AcDbLine
 10
94.22399095419644
 20
75.95185069694286
 30
0.0
 11
82.9770599818214
 21
96.18483128891606
 31
0.0
  0
LINE
  5
2F57
330
1A
100
AcDbEntity
  8
SEIHIN
  6
Continuous
 62
     3
100
AcDbLine
 10
68.13185998182138
 20
101.6807312889161
 30
0.0
 11
68.13185998182138
 21
98.78073128891606
 31
0.0
  0
LINE
  5
2F58
330
1A
100
AcDbEntity
  8
SEIHIN
  6
Continuous
 62
     3
100
AcDbLine
 10
65.13185998182138
 20
101.6807312889161
 30
0.0
 11
65.13185998182138
 21
96.28073128891596
 31
0.0
  0
LINE
  5
2F59
330
1A
100
AcDbEntity
  8
SEIHIN
  6
Continuous
 62
     3
100
AcDbLine
 10
74.24255998182139
 20
93.28073128891606
 30
0.0
 11
68.13185998182138
 21
93.28073128891606
 31
0.0
  0
ARC
  5
2F5A
330
1A
100
AcDbEntity
  8
SEIHIN
  6
Continuous
 62
     3
100
AcDbCircle
 10
69.13185998182138
 20
98.78073128891606
 30
0.0
 40
1.0
100
AcDbArc
 50
180.0
 51
270.0
  0
ARC
  5
2F5B
330
1A
100
AcDbEntity
  8
SEIHIN
  6
Continuous
 62
     3
100
AcDbCircle
 10
68.13185998182138
 20
96.28073128891596
 30
0.0
 40
3.0
100
AcDbArc
 50
180.0
 51
270.0
  0
LINE
  5
2F5C
330
1A
100
AcDbEntity
  8
SEIHIN
  6
Continuous
 62
     3
100
AcDbLine
 10
65.13185998182138
 20
99.18063128891606
 30
0.0
 11
68.13185998182138
 21
99.18063128891606
 31
0.0
  0
ARC
  5
2F5D
330
1A
100
AcDbEntity
  8
SEIHIN
  6
Continuous
 62
     3
100
AcDbCircle
 10
83.97205998182136
 20
86.82863128891606
 30
0.0
 40
1.000005
100
AcDbArc
 50
27.91037699999919
 51
201.7343789999998
  0
LINE
  5
2F5E
330
1A
100
AcDbEntity
  8
SEIHIN
  6
Continuous
 62
     3
100
AcDbLine
 10
80.32595998182136
 20
97.78073128891606
 30
0.0
 11
69.13185998182138
 21
97.78073128891606
 31
0.0
  0
ARC
  5
2F5F
330
1A
100
AcDbEntity
  8
SEIHIN
  6
Continuous
 62
     3
100
AcDbCircle
 10
74.24255998182139
 20
88.28073128891606
 30
0.0
 40
4.99999
100
AcDbArc
 50
21.73544399999916
 51
90.0
  0
ARC
  5
2F60
330
1A
100
AcDbEntity
  8
SEIHIN
  6
Continuous
 62
     3
100
AcDbCircle
 10
80.32595998182136
 20
94.78073128891606
 30
0.0
 40
2.999986
100
AcDbArc
 50
27.90700099999922
 51
90.0
  0
ARC
  5
2F61
330
1A
100
AcDbEntity
  8
SEIHIN
  6
Continuous
 62
     3
100
AcDbCircle
 10
66.63185998182138
 20
101.6807312889161
 30
0.0
 40
1.5
100
AcDbArc
 50
0.0
 51
180.0
  0
LINE
  5
2F62
330
1A
100
AcDbEntity
  8
SEIHIN
100
AcDbLine
 10
137.7607325518214
 20
103.6438188689161
 30
0.0
 11
181.3266968418213
 21
108.9930466689161
 31
0.0
  0
LINE
  5
2F63
330
1A
100
AcDbEntity
  8
SEIHIN
100
AcDbLine
 10
135.9516993118214
 20
109.4667564689161
 30
0.0
 11
180.5954810218213
 21
114.948323608916
 31
0.0
  0
LINE
  5
2F64
330
1A
100
AcDbEntity
  8
SEIHIN
  6
Continuous
 62
     3
100
AcDbLine
 10
121.0318599838214
 20
64.18068877025297
 30
0.0
 11
158.8997599818214
 21
64.1806312889161
 31
0.0
  0
LINE
  5
2F65
330
1A
100
AcDbEntity
  8
SEIHIN
  6
Continuous
 62
     3
100
AcDbLine
 10
121.0318599838214
 20
66.68068774250119
 30
0.0
 11
156.9054599818214
 21
66.6806312889161
 31
0.0
  0
LINE
  5
2F66
330
1A
100
AcDbEntity
  8
SEIHIN
  6
Continuous
 62
     3
100
AcDbLine
 10
121.0318599838214
 20
72.68063128891606
 30
0.0
 11
159.2758599818214
 21
72.68063128891608
 31
0.0
  0
LINE
  5
2F67
330
1A
100
AcDbEntity
  8
SEIHIN
  6
Continuous
 62
     3
100
AcDbLine
 10
151.7772599818214
 20
75.18063128891596
 30
0.0
 11
121.0318599838214
 21
75.18063128891596
 31
0.0
  0
LINE
  5
2F68
330
1A
100
AcDbEntity
  8
SEIHIN
100
AcDbLine
 10
121.0318599838214
 20
61.98702763891606
 30
0.0
 11
121.0318599838214
 21
83.29785150791605
 31
0.0
  0
LINE
  5
2F69
330
1A
100
AcDbEntity
  8
SEIHIN
100
AcDbLine
 10
101.6318599818214
 20
81.18063128891606
 30
0.0
 11
101.6318458318214
 21
75.18062893091604
 31
0.0
  0
LINE
  5
2F6A
330
1A
100
AcDbEntity
  8
SEIHIN
100
AcDbLine
 10
100.6318599818214
 20
81.18063128891606
 30
0.0
 11
100.6318458318213
 21
75.18063128891596
 31
0.0
  0
LINE
  5
2F6B
330
1A
100
AcDbEntity
  8
SEIHIN
100
AcDbLine
 10
99.99677131182138
 20
80.98702528291605
 30
0.0
 11
99.99675518182137
 21
74.14890382891608
 31
0.0
  0
LINE
  5
2F6C
330
1A
100
AcDbEntity
  8
SEIHIN
100
AcDbLine
 10
96.03185998182136
 20
61.98702763891606
 30
0.0
 11
96.03185998182136
 21
80.98702764091605
 31
0.0
  0
LINE
  5
2F6D
330
1A
100
AcDbEntity
  8
SEIHIN
100
AcDbLine
 10
101.9967748318214
 20
82.48065432991606
 30
0.0
 11
101.9967551818214
 21
74.14890382891608
 31
0.0
  0
LINE
  5
2F6E
330
1A
100
AcDbEntity
  8
SEIHIN
100
AcDbLine
 10
96.03185998182136
 20
61.98702763891606
 30
0.0
 11
121.0318599838214
 21
61.98702763891606
 31
0.0
  0
LINE
  5
2F6F
330
1A
100
AcDbEntity
  8
SEIHIN
100
AcDbLine
 10
99.99675761549617
 20
75.18063128891606
 30
0.0
 11
101.9967576118213
 21
75.18063128891596
 31
0.0
  0
LINE
  5
2F70
330
1A
100
AcDbEntity
  8
SEIHIN
100
AcDbLine
 10
99.99675518182137
 20
74.14890382891608
 30
0.0
 11
101.9967551818214
 21
74.14890382891608
 31
0.0
  0
ARC
  5
2F71
330
1A
100
AcDbEntity
  8
SEIHIN
  6
Continuous
 62
     3
100
AcDbCircle
 10
93.02115998182137
 20
69.18073128891608
 30
0.0
 40
5.000008999999999
100
AcDbArc
 50
201.7365079999997
 51
270.0
  0
LINE
  5
2F72
330
1A
100
AcDbEntity
  8
SEIHIN
  6
Continuous
 62
     3
100
AcDbLine
 10
93.02115998182137
 20
64.18073128891608
 30
0.0
 11
96.03185998182136
 21
64.18072671884328
 31
0.0
  0
ARC
  5
2F73
330
1A
100
AcDbEntity
  8
SEIHIN
  6
Continuous
 62
     3
100
AcDbCircle
 10
94.93447956651679
 20
75.68063128891606
 30
0.0
 40
3.0
100
AcDbArc
 50
209.6977057516304
 51
270.0
  0
LINE
  5
2F74
330
1A
100
AcDbEntity
  8
SEIHIN
  6
Continuous
 62
     3
100
AcDbLine
 10
93.36015998182135
 20
66.68073128891608
 30
0.0
 11
96.03185998182137
 21
66.6807270845139
 31
0.0
  0
LINE
  5
2F75
330
1A
100
AcDbEntity
  8
SEIHIN
  6
Continuous
 62
     3
100
AcDbLine
 10
93.63165998182137
 20
72.68073128891612
 30
0.0
 11
93.63165998182137
 21
66.68073128891608
 31
0.0
  0
ARC
  5
2F76
330
1A
100
AcDbEntity
  8
SEIHIN
  6
Continuous
 62
     3
100
AcDbCircle
 10
93.36015998182135
 20
69.68073128891609
 30
0.0
 40
3.000000999999999
100
AcDbArc
 50
201.7361539999994
 51
270.0
  0
LINE
  5
2F77
330
1A
100
AcDbEntity
  8
SEIHIN
  6
Continuous
 62
     3
100
AcDbLine
 10
96.03185998182136
 20
75.18063128891596
 30
0.0
 11
95.5350511544784
 21
75.18063128891596
 31
0.0
  0
LINE
  5
2F78
330
1A
100
AcDbEntity
  8
SEIHIN
  6
Continuous
 62
     3
100
AcDbLine
 10
94.93447956651679
 20
72.68063128891608
 30
0.0
 11
96.03185998182136
 21
72.68063128891606
 31
0.0
  0
ARC
  5
2F79
330
1A
100
AcDbEntity
  8
SEIHIN
  6
Continuous
 62
     3
100
AcDbCircle
 10
95.53475998182135
 20
76.68073128891606
 30
0.0
 40
1.499981999999999
100
AcDbArc
 50
207.9095829999992
 51
270.0
  0
LINE
  5
2F7A
330
1A
100
AcDbEntity
  8
SEIHIN
100
AcDbLine
 10
111.0318599818212
 20
66.68063128891606
 30
0.0
 11
112.1865605218214
 21
64.68063128891608
 31
0.0
  0
LINE
  5
2F7B
330
1A
100
AcDbEntity
  8
SEIHIN
100
AcDbLine
 10
111.0318599818212
 20
66.68063128891606
 30
0.0
 11
109.8771594418214
 21
64.68063128891608
 31
0.0
  0
LINE
  5
2F7C
330
1A
100
AcDbEntity
  8
SEIHIN
100
AcDbLine
 10
112.1865605218214
 20
64.68063128891608
 30
0.0
 11
109.8771594418214
 21
64.68063128891608
 31
0.0
  0
LINE
  5
2F7D
330
1A
100
AcDbEntity
  8
SEIHIN
100
AcDbLine
 10
108.5318599818214
 20
72.68063128891608
 30
0.0
 11
113.5318599818214
 21
72.68063128891608
 31
0.0
  0
LINE
  5
2F7E
330
1A
100
AcDbEntity
  8
SEIHIN
100
AcDbLine
 10
113.5318599818214
 20
66.68063128891606
 30
0.0
 11
108.5318599818214
 21
66.68063128891606
 31
0.0
  0
MTEXT
  5
2F7F
330
1A
100
AcDbEntity
  8
SEIHIN
100
AcDbMText
 10
109.3848057618212
 20
69.56061853291607
 30
0.0
 40
2.381249964
 41
0.0
 71
     1
 72
     5
  1
{\W1.460317;10}
 73
     1
 44
1.0
  0
LINE
  5
2F80
330
1A
100
AcDbEntity
  8
SEIHIN
100
AcDbLine
 10
107.5318599818214
 20
71.68063128891606
 30
0.0
 11
107.5318599818214
 21
67.68063128891606
 31
0.0
  0
ARC
  5
2F81
330
1A
100
AcDbEntity
  8
SEIHIN
100
AcDbCircle
 10
108.5318599818214
 20
67.68063128891606
 30
0.0
 40
1.0
100
AcDbArc
 50
180.0
 51
270.0
  0
ARC
  5
2F82
330
1A
100
AcDbEntity
  8
SEIHIN
100
AcDbCircle
 10
108.5318599818214
 20
71.68063128891606
 30
0.0
 40
1.0
100
AcDbArc
 50
90.0
 51
180.0
  0
LINE
  5
2F83
330
1A
100
AcDbEntity
  8
SEIHIN
100
AcDbLine
 10
114.5318599818214
 20
71.68063128891606
 30
0.0
 11
114.5318599818214
 21
67.68063128891606
 31
0.0
  0
ARC
  5
2F84
330
1A
100
AcDbEntity
  8
SEIHIN
100
AcDbCircle
 10
113.5318599818214
 20
67.68063128891606
 30
0.0
 40
1.0
100
AcDbArc
 50
270.0
 51
0.0
  0
ARC
  5
2F85
330
1A
100
AcDbEntity
  8
SEIHIN
100
AcDbCircle
 10
113.5318599818214
 20
71.68063128891606
 30
0.0
 40
1.0
100
AcDbArc
 50
0.0
 51
90.0
  0
LINE
  5
2F86
330
1A
100
AcDbEntity
  8
SEIHIN
100
AcDbLine
 10
111.2886099818214
 20
72.68063128891608
 30
0.0
 11
111.2886099818214
 21
70.68063128891608
 31
0.0
  0
LINE
  5
2F87
330
1A
100
AcDbEntity
  8
SEIHIN
100
AcDbLine
 10
110.7886099818214
 20
70.68063128891608
 30
0.0
 11
110.7886099818214
 21
72.68063128891608
 31
0.0
  0
LINE
  5
2F88
330
1A
100
AcDbEntity
  8
SEIHIN
100
AcDbLine
 10
111.2886099818214
 20
70.68063128891608
 30
0.0
 11
110.7886099818214
 21
70.68063128891608
 31
0.0
  0
LINE
  5
2F89
330
1A
100
AcDbEntity
  8
SEIHIN
100
AcDbLine
 10
110.7886099818214
 20
72.68063128891608
 30
0.0
 11
111.2886099818214
 21
72.68063128891608
 31
0.0
  0
LINE
  5
2F8A
330
1A
100
AcDbEntity
  8
SEIHIN
100
AcDbLine
 10
110.7886099818214
 20
72.68063128891608
 30
0.0
 11
111.2886099818214
 21
72.68063128891608
 31
0.0
  0
MTEXT
  5
2F8B
330
1A
100
AcDbEntity
  8
SEIHIN
100
AcDbMText
 10
121.8158104878214
 20
69.59240851291604
 30
0.0
 40
2.381249964
 41
0.0
 71
     1
 72
     5
  1
{\W1.703704;0}
 73
     1
 44
1.0
  0
LINE
  5
2F8C
330
1A
100
AcDbEntity
  8
SEIHIN
100
AcDbLine
 10
121.2818599818212
 20
70.68063128891608
 30
0.0
 11
121.0318599818214
 21
70.68063128891608
 31
0.0
  0
LINE
  5
2F8D
330
1A
100
AcDbEntity
  8
SEIHIN
100
AcDbLine
 10
121.2818599818212
 20
72.68063128891608
 30
0.0
 11
121.2818599818212
 21
70.68063128891608
 31
0.0
  0
LINE
  5
2F8E
330
1A
100
AcDbEntity
  8
SEIHIN
100
AcDbLine
 10
125.7818599818214
 20
72.68063128891608
 30
0.0
 11
126.2818599818214
 21
72.68063128891608
 31
0.0
  0
LINE
  5
2F8F
330
1A
100
AcDbEntity
  8
SEIHIN
100
AcDbLine
 10
126.2818599818214
 20
70.68063128891608
 30
0.0
 11
125.7818599818214
 21
70.68063128891608
 31
0.0
  0
LINE
  5
2F90
330
1A
100
AcDbEntity
  8
SEIHIN
100
AcDbLine
 10
125.7818599818214
 20
70.68063128891608
 30
0.0
 11
125.7818599818214
 21
72.68063128891608
 31
0.0
  0
LINE
  5
2F91
330
1A
100
AcDbEntity
  8
SEIHIN
100
AcDbLine
 10
126.2818599818214
 20
72.68063128891608
 30
0.0
 11
126.2818599818214
 21
70.68063128891608
 31
0.0
  0
MTEXT
  5
2F92
330
1A
100
AcDbEntity
  8
SEIHIN
100
AcDbMText
 10
129.1228522379512
 20
69.59240851291604
 30
0.0
 40
2.381249964
 41
0.0
 71
     1
 72
     5
  1
{\W1.135802;30}
 73
     1
 44
1.0
  0
LINE
  5
2F93
330
1A
100
AcDbEntity
  8
SEIHIN
100
AcDbLine
 10
130.7818599818212
 20
72.68063128891608
 30
0.0
 11
131.2818599818214
 21
72.68063128891608
 31
0.0
  0
LINE
  5
2F94
330
1A
100
AcDbEntity
  8
SEIHIN
100
AcDbLine
 10
131.2818599818214
 20
70.68063128891608
 30
0.0
 11
130.7818599818212
 21
70.68063128891608
 31
0.0
  0
LINE
  5
2F95
330
1A
100
AcDbEntity
  8
SEIHIN
100
AcDbLine
 10
130.7818599818212
 20
70.68063128891608
 30
0.0
 11
130.7818599818212
 21
72.68063128891608
 31
0.0
  0
LINE
  5
2F96
330
1A
100
AcDbEntity
  8
SEIHIN
100
AcDbLine
 10
131.2818599818214
 20
72.68063128891608
 30
0.0
 11
131.2818599818214
 21
70.68063128891608
 31
0.0
  0
LINE
  5
2F97
330
1A
100
AcDbEntity
  8
SEIHIN
100
AcDbLine
 10
135.7818599818212
 20
72.68063128891608
 30
0.0
 11
136.2818599818214
 21
72.68063128891608
 31
0.0
  0
LINE
  5
2F98
330
1A
100
AcDbEntity
  8
SEIHIN
100
AcDbLine
 10
136.2818599818214
 20
70.68063128891608
 30
0.0
 11
135.7818599818212
 21
70.68063128891608
 31
0.0
  0
LINE
  5
2F99
330
1A
100
AcDbEntity
  8
SEIHIN
100
AcDbLine
 10
135.7818599818212
 20
70.68063128891608
 30
0.0
 11
135.7818599818212
 21
72.68063128891608
 31
0.0
  0
LINE
  5
2F9A
330
1A
100
AcDbEntity
  8
SEIHIN
100
AcDbLine
 10
136.2818599818214
 20
72.68063128891608
 30
0.0
 11
136.2818599818214
 21
70.68063128891608
 31
0.0
  0
LINE
  5
2F9B
330
1A
100
AcDbEntity
  8
SEIHIN
100
AcDbLine
 10
140.7812372718213
 20
72.68063128891608
 30
0.0
 11
141.2812372718213
 21
72.68063128891608
 31
0.0
  0
LINE
  5
2F9C
330
1A
100
AcDbEntity
  8
SEIHIN
100
AcDbLine
 10
141.2812372718213
 20
70.68063128891608
 30
0.0
 11
140.7812372718213
 21
70.68063128891608
 31
0.0
  0
LINE
  5
2F9D
330
1A
100
AcDbEntity
  8
SEIHIN
100
AcDbLine
 10
140.7812372718213
 20
70.68063128891608
 30
0.0
 11
140.7812372718213
 21
72.68063128891608
 31
0.0
  0
LINE
  5
2F9E
330
1A
100
AcDbEntity
  8
SEIHIN
100
AcDbLine
 10
141.2812372718213
 20
72.68063128891608
 30
0.0
 11
141.2812372718213
 21
70.68063128891608
 31
0.0
  0
MTEXT
  5
2F9F
330
1A
100
AcDbEntity
  8
SEIHIN
100
AcDbMText
 10
144.1306301318214
 20
69.77255011291608
 30
0.0
 40
2.381249964
 41
0.0
 71
     1
 72
     5
  1
{\W1.022222;45}
 73
     1
 44
1.0
  0
LINE
  5
2FA0
330
1A
100
AcDbEntity
  8
SEIHIN
100
AcDbLine
 10
145.7818599818214
 20
72.68063128891608
 30
0.0
 11
146.2818599818212
 21
72.68063128891608
 31
0.0
  0
LINE
  5
2FA1
330
1A
100
AcDbEntity
  8
SEIHIN
100
AcDbLine
 10
146.2818599818212
 20
70.68063128891608
 30
0.0
 11
145.7818599818214
 21
70.68063128891608
 31
0.0
  0
LINE
  5
2FA2
330
1A
100
AcDbEntity
  8
SEIHIN
100
AcDbLine
 10
145.7818599818214
 20
70.68063128891608
 30
0.0
 11
145.7818599818214
 21
72.68063128891608
 31
0.0
  0
LINE
  5
2FA3
330
1A
100
AcDbEntity
  8
SEIHIN
100
AcDbLine
 10
146.2818599818212
 20
72.68063128891608
 30
0.0
 11
146.2818599818212
 21
70.68063128891608
 31
0.0
  0
LINE
  5
2FA4
330
1A
100
AcDbEntity
  8
SEIHIN
100
AcDbLine
 10
122.7524619218212
 20
93.83063301891596
 30
0.0
 11
105.4810109818214
 21
93.83063301891596
 31
0.0
  0
ARC
  5
2FA5
330
1A
100
AcDbEntity
  8
SEIHIN
100
AcDbCircle
 10
111.5318599818214
 20
82.48063128891606
 30
0.0
 40
9.535085152808648
100
AcDbArc
 50
4.916661302937908
 51
179.999861547953
  0
LINE
  5
2FA6
330
1A
100
AcDbEntity
  8
SEIHIN
100
AcDbLine
 10
100.6318599818214
 20
81.18063128891606
 30
0.0
 11
101.9967717618214
 21
81.18063128891606
 31
0.0
  0
LINE
  5
2FA7
330
1A
100
AcDbEntity
  8
SEIHIN
100
AcDbLine
 10
98.99677131182138
 20
81.98702764091605
 30
0.0
 11
97.03185998182131
 21
81.98702764091605
 31
0.0
  0
ARC
  5
2FA8
330
1A
100
AcDbEntity
  8
SEIHIN
100
AcDbCircle
 10
97.03185998182131
 20
80.98702764091605
 30
0.0
 40
1.0
100
AcDbArc
 50
90.0
 51
180.0
  0
ARC
  5
2FA9
330
1A
100
AcDbEntity
  8
SEIHIN
100
AcDbCircle
 10
98.99677131182138
 20
80.98702764091605
 30
0.0
 40
1.000000000001389
100
AcDbArc
 50
359.9998648965517
 51
90.0
  0
ARC
  5
2FAA
330
1A
100
AcDbEntity
  8
SEIHIN
100
AcDbCircle
 10
112.5914914218214
 20
84.74215947891607
 30
0.0
 40
9.899999981014924
100
AcDbArc
 50
135.908567325649
 51
170.5325542646189
  0
CIRCLE
  5
2FAB
330
1A
100
AcDbEntity
  8
SEIHIN
100
AcDbCircle
 10
111.0318599818212
 20
85.98063128891606
 30
0.0
 40
3.500000004238516
  0
LINE
  5
2FAC
330
1A
100
AcDbEntity
  8
SEIHIN
100
AcDbLine
 10
105.4810109818214
 20
92.83063301891596
 30
0.0
 11
105.4810109818214
 21
93.83063301891596
 31
0.0
  0
LINE
  5
2FAD
330
1A
100
AcDbEntity
  8
SEIHIN
100
AcDbLine
 10
105.4810109818214
 20
91.63063301891596
 30
0.0
 11
105.4810109818214
 21
92.83063301891596
 31
0.0
  0
LINE
  5
2FAE
330
1A
100
AcDbEntity
  8
SEIHIN
100
AcDbLine
 10
119.6533615618214
 20
87.47653564891606
 30
0.0
 11
127.4055273318214
 21
103.3708309089161
 31
0.0
  0
LINE
  5
2FAF
330
1A
100
AcDbEntity
  8
SEIHIN
100
AcDbLine
 10
121.0318599418212
 20
76.61584397891606
 30
0.0
 11
132.3222596318213
 21
99.76459383891606
 31
0.0
  0
LINE
  5
2FB0
330
1A
100
AcDbEntity
  8
SEIHIN
100
AcDbLine
 10
118.9816028718214
 20
88.67866991891606
 30
0.0
 11
121.4655074818214
 21
91.31621811891606
 31
0.0
  0
LINE
  5
2FB1
330
1A
100
AcDbEntity
  8
SEIHIN
100
AcDbLine
 10
118.8739438618213
 20
88.56435158891605
 30
0.0
 11
121.7616069418214
 21
91.63063301891596
 31
0.0
  0
LINE
  5
2FB2
330
1A
100
AcDbEntity
  8
SEIHIN
100
AcDbLine
 10
134.9972050118213
 20
111.9571833189161
 30
0.0
 11
133.8496393018214
 21
112.3080293589161
 31
0.0
  0
LINE
  5
2FB3
330
1A
100
AcDbEntity
  8
SEIHIN
100
AcDbLine
 10
134.1177860518214
 20
109.0807335089161
 30
0.0
 11
134.9972050118213
 21
111.9571833189161
 31
0.0
  0
ARC
  5
2FB4
330
1A
100
AcDbEntity
  8
SEIHIN
100
AcDbCircle
 10
138.6138179618212
 20
96.69599580891605
 30
0.0
 40
7.000000002833392
100
AcDbArc
 50
97.0000000515625
 51
154.0000000029729
  0
ARC
  5
2FB5
330
1A
100
AcDbEntity
  8
SEIHIN
100
AcDbCircle
 10
137.2922620918212
 20
98.54874880891606
 30
0.0
 40
10.99999999601528
100
AcDbArc
 50
97.00000001826173
 51
154.0000029819582
  0
LINE
  5
2FB6
330
1A
100
AcDbEntity
  8
SEIHIN
100
AcDbLine
 10
132.6987819418214
 20
108.543744558916
 30
0.0
 11
133.8496393018214
 21
112.3080293589161
 31
0.0
  0
LINE
  5
2FB7
330
1A
100
AcDbEntity
  8
SEIHIN
  6
Continuous
 62
     3
100
AcDbLine
 10
194.1318599818214
 20
97.18053128891606
 30
0.0
 11
194.1318599818214
 21
67.18053128891607
 31
0.0
  0
LINE
  5
2FB8
330
1A
100
AcDbEntity
  8
SEIHIN
  6
Continuous
 62
     3
100
AcDbLine
 10
188.1318599818214
 20
86.18053128891606
 30
0.0
 11
188.1318599818214
 21
69.68053128891607
 31
0.0
  0
ARC
  5
2FB9
330
1A
100
AcDbEntity
  8
SEIHIN
  6
Continuous
 62
     3
100
AcDbCircle
 10
157.2402599818214
 20
76.18063128891606
 30
0.0
 40
0.999978
100
AcDbArc
 50
150.243037
 51
270.0
  0
LINE
  5
2FBA
330
1A
100
AcDbEntity
  8
SEIHIN
  6
Continuous
 62
     3
100
AcDbLine
 10
166.6407599818214
 20
99.66183128891606
 30
0.0
 11
153.0676599818214
 21
75.91593128891606
 31
0.0
  0
LINE
  5
2FBB
330
1A
100
AcDbEntity
  8
SEIHIN
  6
Continuous
 62
     3
100
AcDbLine
 10
161.3833599818213
 20
68.37153128891607
 30
0.0
 11
172.9472599818214
 21
88.72953128891606
 31
0.0
  0
LINE
  5
2FBC
330
1A
100
AcDbEntity
  8
SEIHIN
  6
Continuous
 62
     3
100
AcDbLine
 10
162.8027599818214
 20
75.67073128891606
 30
0.0
 11
171.9741599818213
 21
92.14013128891605
 31
0.0
  0
LINE
  5
2FBD
330
1A
100
AcDbEntity
  8
SEIHIN
  6
Continuous
 62
     3
100
AcDbLine
 10
184.6876599818214
 20
64.88933128891608
 30
0.0
 11
181.7986599818213
 21
69.4931312889161
 31
0.0
  0
ARC
  5
2FBE
330
1A
100
AcDbEntity
  8
SEIHIN
  6
Continuous
 62
     3
100
AcDbCircle
 10
183.1318599818214
 20
70.1805312889161
 30
0.0
 40
1.499983999999999
100
AcDbArc
 50
44.54354499999972
 51
207.2723069999998
  0
LINE
  5
2FBF
330
1A
100
AcDbEntity
  8
SEIHIN
  6
Continuous
 62
     3
100
AcDbLine
 10
158.8997599818214
 20
64.1806312889161
 30
0.0
 11
176.1232599818214
 21
67.41853128891607
 31
0.0
  0
LINE
  5
2FC0
330
1A
100
AcDbEntity
  8
SEIHIN
  6
Continuous
 62
     3
100
AcDbLine
 10
162.4283599818214
 20
66.87903128891608
 30
0.0
 11
175.9072599818214
 21
68.7002312889161
 31
0.0
  0
LINE
  5
2FC1
330
1A
100
AcDbEntity
  8
SEIHIN
  6
Continuous
 62
     3
100
AcDbLine
 10
161.9424599818213
 20
75.18063128891596
 30
0.0
 11
157.2402599818214
 21
75.18063128891596
 31
0.0
  0
LINE
  5
2FC2
330
1A
100
AcDbEntity
  8
SEIHIN
  6
Continuous
 62
     3
100
AcDbLine
 10
157.7657599818214
 20
67.17083128891608
 30
0.0
 11
160.1360599818213
 21
71.17073128891612
 31
0.0
  0
LINE
  5
2FC3
330
1A
100
AcDbEntity
  8
SEIHIN
  6
Continuous
 62
     3
100
AcDbLine
 10
152.6319599818214
 20
66.68073128891608
 30
0.0
 11
152.6319599818214
 21
72.68073128891612
 31
0.0
  0
ARC
  5
2FC4
330
1A
100
AcDbEntity
  8
SEIHIN
  6
Continuous
 62
     3
100
AcDbCircle
 10
156.9054599818214
 20
67.68063128891608
 30
0.0
 40
1.000002999999999
100
AcDbArc
 50
270.0
 51
329.3496970000005
  0
ARC
  5
2FC5
330
1A
100
AcDbEntity
  8
SEIHIN
  6
Continuous
 62
     3
100
AcDbCircle
 10
151.7772599818214
 20
76.68063128891606
 30
0.0
 40
1.499983
100
AcDbArc
 50
270.0
 51
329.3487229999997
  0
ARC
  5
2FC6
330
1A
100
AcDbEntity
  8
SEIHIN
  6
Continuous
 62
     3
100
AcDbCircle
 10
162.2436599818214
 20
67.86173128891608
 30
0.0
 40
0.9999559999999998
100
AcDbArc
 50
149.3496969999997
 51
280.6446470000001
  0
ARC
  5
2FC7
330
1A
100
AcDbEntity
  8
SEIHIN
  6
Continuous
 62
     3
100
AcDbCircle
 10
159.2758599818214
 20
71.68063128891606
 30
0.0
 40
0.9999600000000001
100
AcDbArc
 50
329.3467759999992
 51
90.0
  0
ARC
  5
2FC8
330
1A
100
AcDbEntity
  8
SEIHIN
  6
Continuous
 62
     3
100
AcDbCircle
 10
161.9424599818213
 20
76.18063128891606
 30
0.0
 40
1.000002999999999
100
AcDbArc
 50
270.0
 51
329.3496970000005
  0
ARC
  5
2FC9
330
1A
100
AcDbEntity
  8
SEIHIN
  6
Continuous
 62
     3
100
AcDbCircle
 10
176.0031599818214
 20
68.05743128891608
 30
0.0
 40
0.6500060000000002
100
AcDbArc
 50
278.475411
 51
98.48412899999983
  0
ARC
  5
2FCA
330
1A
100
AcDbEntity
  8
SEIHIN
  6
Continuous
 62
     3
100
AcDbCircle
 10
189.1318599818214
 20
67.18053128891607
 30
0.0
 40
5.000027999999999
100
AcDbArc
 50
205.2238120000009
 51
0.0
  0
LINE
  5
2FCB
330
1A
100
AcDbEntity
  8
SEIHIN
  6
Continuous
 62
     3
100
AcDbLine
 10
184.2009599818214
 20
71.23273128891607
 30
0.0
 11
186.4192599818214
 21
68.97903128891608
 31
0.0
  0
ARC
  5
2FCC
330
1A
100
AcDbEntity
  8
SEIHIN
  6
Continuous
 62
     3
100
AcDbCircle
 10
187.1318599818214
 20
69.68053128891607
 30
0.0
 40
0.9999749999999998
100
AcDbArc
 50
224.5502650000007
 51
0.0
  0
ARC
  5
2FCD
330
1A
100
AcDbEntity
  8
SEIHIN
100
AcDbCircle
 10
180.4736114418213
 20
115.9408697289161
 30
0.0
 40
6.999999996543326
100
AcDbArc
 50
276.9999999703213
 51
350.7918456343346
  0
ARC
  5
2FCE
330
1A
100
AcDbEntity
  8
SEIHIN
  6
Continuous
 62
     3
100
AcDbCircle
 10
183.1318599818214
 20
86.18053128891606
 30
0.0
 40
5.0
100
AcDbArc
 50
0.0
 51
90.0
  0
LINE
  5
2FCF
330
1A
100
AcDbEntity
  8
SEIHIN
  6
Continuous
 62
     3
100
AcDbLine
 10
174.5951599818214
 20
93.68053128891606
 30
0.0
 11
185.1318599818214
 21
93.68053128891606
 31
0.0
  0
LINE
  5
2FD0
330
1A
100
AcDbEntity
  8
SEIHIN
  6
Continuous
 62
     3
100
AcDbLine
 10
189.1318599818214
 20
102.1805312889161
 30
0.0
 11
170.9816599818214
 21
102.1805312889161
 31
0.0
  0
LINE
  5
2FD1
330
1A
100
AcDbEntity
  8
SEIHIN
  6
Continuous
 62
     3
100
AcDbLine
 10
185.1318599818214
 20
99.68053128891606
 30
0.0
 11
171.2658599818214
 21
99.68063128891606
 31
0.0
  0
ARC
  5
2FD2
330
1A
100
AcDbEntity
  8
SEIHIN
  6
Continuous
 62
     3
100
AcDbCircle
 10
171.2658599818214
 20
96.68063128891606
 30
0.0
 40
3.000008999999999
100
AcDbArc
 50
90.0
 51
149.3496969999997
  0
LINE
  5
2FD3
330
1A
100
AcDbEntity
  8
SEIHIN
  6
Continuous
 62
     3
100
AcDbLine
 10
156.3721599818214
 20
76.67703128891597
 30
0.0
 11
168.6403599818214
 21
98.13203128891605
 31
0.0
  0
ARC
  5
2FD4
330
1A
100
AcDbEntity
  8
SEIHIN
  6
Continuous
 62
     3
100
AcDbCircle
 10
177.2487599818214
 20
86.18053128891606
 30
0.0
 40
5.000015
100
AcDbArc
 50
90.0
 51
149.3496969999997
  0
ARC
  5
2FD5
330
1A
100
AcDbEntity
  8
SEIHIN
  6
Continuous
 62
     3
100
AcDbCircle
 10
174.5951599818214
 20
90.68053128891606
 30
0.0
 40
3.000005999999999
100
AcDbArc
 50
90.0
 51
150.8871489999997
  0
LINE
  5
2FD6
330
1A
100
AcDbEntity
  8
SEIHIN
  6
Continuous
 62
     3
100
AcDbLine
 10
177.2487599818214
 20
91.18053128891606
 30
0.0
 11
183.1318599818214
 21
91.18053128891606
 31
0.0
  0
ARC
  5
2FD7
330
1A
100
AcDbEntity
  8
SEIHIN
  6
Continuous
 62
     3
100
AcDbCircle
 10
170.9816599818214
 20
97.18053128891606
 30
0.0
 40
5.0
100
AcDbArc
 50
90.0
 51
150.247301
  0
ARC
  5
2FD8
330
1A
100
AcDbEntity
  8
SEIHIN
100
AcDbCircle
 10
180.4736114418213
 20
115.9408697289161
 30
0.0
 40
0.9999999987021756
100
AcDbArc
 50
277.0000136757813
 51
350.7918453919471
  0
LINE
  5
2FD9
330
1A
100
AcDbEntity
  8
CENTER L
100
AcDbLine
 10
198.0203047668156
 20
94.86989060326796
 30
0.0
 11
215.7704083284476
 21
105.5199527377891
 31
0.0
  0
LINE
  5
2FDA
330
1A
100
AcDbEntity
  8
SEIHIN
100
AcDbLine
 10
215.3416618648213
 20
79.60651652891606
 30
0.0
 11
196.8198146718213
 21
110.4762618489161
 31
0.0
  0
ARC
  5
2FDB
330
1A
100
AcDbEntity
  8
SEIHIN
  6
Continuous
 62
     3
100
AcDbCircle
 10
185.1318599818214
 20
96.68053128891606
 30
0.0
 40
3.0
100
AcDbArc
 50
0.0
 51
90.0
  0
ARC
  5
2FDC
330
1A
100
AcDbEntity
  8
SEIHIN
  6
Continuous
 62
     3
100
AcDbCircle
 10
189.1318599818214
 20
97.18053128891606
 30
0.0
 40
5.0
100
AcDbArc
 50
0.0
 51
90.0
  0
ARC
  5
2FDD
330
1A
100
AcDbEntity
  8
SEIHIN
  6
Continuous
 62
     3
100
AcDbCircle
 10
185.1318599818214
 20
96.68053128891606
 30
0.0
 40
3.0
100
AcDbArc
 50
270.0
 51
0.0
  0
ARC
  5
2FDE
330
1A
100
AcDbEntity
  8
SEIHIN
  6
Continuous
 62
     3
100
AcDbCircle
 10
189.1318599818214
 20
97.18053128891606
 30
0.0
 40
5.000022
100
AcDbArc
 50
0.0
 51
2.064221999999495
  0
LINE
  5
2FDF
330
1A
100
AcDbEntity
  8
SEIHIN
100
AcDbLine
 10
213.3694281313896
 20
87.75269932627175
 30
0.0
 11
215.9419069086844
 21
89.29618659229236
 31
0.0
  0
LINE
  5
2FE0
330
1A
100
AcDbEntity
  8
SEIHIN
100
AcDbLine
 10
214.3984196426469
 20
91.86866536957705
 30
0.0
 11
213.3694281313896
 21
87.75269932627175
 31
0.0
  0
LINE
  5
2FE1
330
1A
100
AcDbEntity
  8
CENTER L
100
AcDbLine
 10
193.6470908478971
 20
102.1585804677387
 30
0.0
 11
211.3971944091819
 21
112.8086426020514
 31
0.0
  0
LINE
  5
2FE2
330
1A
100
AcDbEntity
  8
SEIHIN
100
AcDbLine
 10
196.8198146718213
 20
110.4762618489161
 30
0.0
 11
202.5650172718214
 21
113.923383408916
 31
0.0
  0
LINE
  5
2FE3
330
1A
100
AcDbEntity
  8
SEIHIN
100
AcDbLine
 10
196.9279759318214
 20
122.3466269889161
 30
0.0
 11
202.1362708088213
 21
113.6661355289161
 31
0.0
  0
LINE
  5
2FE4
330
1A
100
AcDbEntity
  8
SEIHIN
100
AcDbLine
 10
194.7618312418214
 20
116.2386149889161
 30
0.0
 11
197.8488061818214
 21
111.093656758916
 31
0.0
  0
ARC
  5
2FE5
330
1A
100
AcDbEntity
  8
SEIHIN
100
AcDbCircle
 10
191.3318599418213
 20
114.1806312889161
 30
0.0
 40
4.00000000092025
100
AcDbArc
 50
30.96376783213911
 51
170.7918455333397
  0
ARC
  5
2FE6
330
1A
100
AcDbEntity
  8
SEIHIN
100
AcDbCircle
 10
196.0704830118214
 20
121.8321312389161
 30
0.0
 40
0.9999999947726518
100
AcDbArc
 50
30.96375643381387
 51
58.22980112541244
  0
LINE
  5
2FE7
330
1A
100
AcDbEntity
  8
SEIHIN
100
AcDbLine
 10
204.1085045330308
 20
109.0185238893076
 30
0.0
 11
203.0795130217736
 21
104.9025578460023
 31
0.0
  0
LINE
  5
2FE8
330
1A
100
AcDbEntity
  8
SEIHIN
100
AcDbLine
 10
205.6519917990684
 20
106.4460451120228
 30
0.0
 11
203.0795130217736
 21
104.9025578460021
 31
0.0
  0
LINE
  5
2FE9
330
1A
100
AcDbEntity
  8
SEIHIN
100
AcDbLine
 10
203.0795130217736
 20
104.9025578460023
 30
0.0
 11
207.1954790651058
 21
103.8735663347381
 31
0.0
  0
ELLIPSE
  5
2FEA
330
1A
100
AcDbEntity
  8
SEIHIN
100
AcDbEllipse
 10
202.5650172774915
 20
226.7431781855192
 30
0.0
 11
0.0
 21
2.0
 31
0.0
210
0.0
220
0.0
230
-1.0
 40
0.5144957552958261
 41
4.712388980384689
 42
6.283185307179585
  0
ELLIPSE
  5
2FEB
330
1A
100
AcDbEntity
  8
SEIHIN
100
AcDbEllipse
 10
202.5650172774915
 20
226.7431781855192
 30
0.0
 11
0.0
 21
2.0
 31
0.0
210
0.0
220
0.0
230
-1.0
 40
0.5144957552958261
 41
7.853879121672238
 42
7.854084146276727
  0
ELLIPSE
  5
2FEC
330
1A
100
AcDbEntity
  8
SEIHIN
100
AcDbEllipse
 10
203.5807325655579
 20
226.7431781855192
 30
0.0
 11
0.0
 21
2.0
 31
0.0
210
0.0
220
0.0
230
-1.0
 40
0.5144957552958261
 41
4.712388980384689
 42
6.283185307179585
  0
ELLIPSE
  5
2FED
330
1A
100
AcDbEntity
  8
SEIHIN
100
AcDbEllipse
 10
205.3947439288273
 20
224.0333192015359
 30
0.0
 11
0.0
 21
-2.099999999999994
 31
0.0
210
0.0
220
0.0
230
-1.0
 40
0.5144957554888068
 41
0.0
 42
6.283185307179585
  0
ELLIPSE
  5
2FEE
330
1A
100
AcDbEntity
  8
SEIHIN
100
AcDbEllipse
 10
204.3790286407608
 20
224.0333192015359
 30
0.0
 11
0.0
 21
-2.099999999999994
 31
0.0
210
0.0
220
0.0
230
-1.0
 40
0.5144957554888068
 41
3.630936211000929
 42
5.793841749782787
  0
ELLIPSE
  5
2FEF
330
1A
100
AcDbEntity
  8
SEIHIN
100
AcDbEllipse
 10
209.7679578480931
 20
222.5333192015359
 30
0.0
 11
0.0
 21
3.25
 31
0.0
210
0.0
220
0.0
230
-1.0
 40
0.5144957554888029
 41
0.0
 42
6.283185307179585
  0
ELLIPSE
  5
2FF0
330
1A
100
AcDbEntity
  8
SEIHIN
100
AcDbEllipse
 10
208.7522425600265
 20
222.5333192015359
 30
0.0
 11
0.0
 21
3.25
 31
0.0
210
0.0
220
0.0
230
-1.0
 40
0.5144957554888029
 41
0.3085972064891327
 42
2.832995447100647
  0
ELLIPSE
  5
2FF1
330
1A
100
AcDbEntity
  8
SEIHIN
100
AcDbEllipse
 10
208.7522425600265
 20
182.0866447907071
 30
0.0
 11
0.0
 21
-3.25
 31
0.0
210
0.0
220
0.0
230
1.0
 40
0.5144957554888029
 41
0.3085972064891327
 42
2.832995447100647
  0
ELLIPSE
  5
2FF2
330
1A
100
AcDbEntity
  8
SEIHIN
100
AcDbEllipse
 10
209.767957848093
 20
182.0866447907071
 30
0.0
 11
0.0
 21
-3.25
 31
0.0
210
0.0
220
0.0
230
1.0
 40
0.5144957554888029
 41
0.0
 42
6.283185307179585
  0
ELLIPSE
  5
2FF3
330
1A
100
AcDbEntity
  8
SEIHIN
100
AcDbEllipse
 10
204.3790286407608
 20
180.5866447907071
 30
0.0
 11
0.0
 21
2.099999999999994
 31
0.0
210
0.0
220
0.0
230
1.0
 40
0.5144957554888068
 41
3.630936211000929
 42
5.793841749782787
  0
ELLIPSE
  5
2FF4
330
1A
100
AcDbEntity
  8
SEIHIN
100
AcDbEllipse
 10
205.3947439288273
 20
180.5866447907071
 30
0.0
 11
0.0
 21
2.099999999999994
 31
0.0
210
0.0
220
0.0
230
1.0
 40
0.5144957554888068
 41
0.0
 42
6.283185307179585
  0
ELLIPSE
  5
2FF5
330
1A
100
AcDbEntity
  8
SEIHIN
100
AcDbEllipse
 10
202.5650172774914
 20
177.8767858067239
 30
0.0
 11
0.0
 21
-2.0
 31
0.0
210
0.0
220
0.0
230
1.0
 40
0.5144957552958261
 41
7.853879121672238
 42
7.854084146276727
  0
ELLIPSE
  5
2FF6
330
1A
100
AcDbEntity
  8
SEIHIN
100
AcDbEllipse
 10
202.5650172774914
 20
177.8767858067239
 30
0.0
 11
0.0
 21
-2.0
 31
0.0
210
0.0
220
0.0
230
1.0
 40
0.5144957552958261
 41
4.712388980384689
 42
6.283185307179585
  0
ELLIPSE
  5
2FF7
330
1A
100
AcDbEntity
  8
SEIHIN
100
AcDbEllipse
 10
203.5807325655579
 20
177.8767858067239
 30
0.0
 11
0.0
 21
-2.0
 31
0.0
210
0.0
220
0.0
230
1.0
 40
0.5144957552958261
 41
4.712388980384689
 42
6.283185307179585
  0
ELLIPSE
  5
2FF8
330
1A
100
AcDbEntity
  8
SEIHIN
100
AcDbEllipse
 10
214.7883042268213
 20
202.3099819961216
 30
0.0
 11
0.0
 21
-2.8559114857152
 31
0.0
210
0.0
220
0.0
230
-1.0
 40
0.4680467910551545
 41
-1.570796326794896
 42
4.712388980384688
  0
LINE
  5
2FF9
330
1A
100
AcDbEntity
  8
SEIHIN
  6
Continuous
 62
     3
100
AcDbLine
 10
68.13185998182141
 20
209.8099819961216
 30
0.0
 11
100.5647629518214
 21
209.8099819961216
 31
0.0
  0
LINE
  5
2FFA
330
1A
100
AcDbEntity
  8
SEIHIN
  6
Continuous
 62
     3
100
AcDbLine
 10
68.13175998182132
 20
194.8099819961216
 30
0.0
 11
100.5647629518214
 21
194.8099819961216
 31
0.0
  0
DIMENSION
  5
2FFB
330
1A
100
AcDbEntity
  8
SUNPOU
100
AcDbDimension
  2
*D7
 10
43.07437663564701
 20
191.3099819961216
 30
0.0
 11
40.57437663564699
 21
202.3099819961216
 31
0.0
 70
    32
 71
     5
 42
22.0
  3
STANDARD
100
AcDbAlignedDimension
 13
65.13185998182141
 23
213.3099819961216
 33
0.0
 14
65.13185998182135
 24
191.3099819961216
 34
0.0
 50
90.0
100
AcDbRotatedDimension
1001
ACAD
1000
DSTYLE
1002
{
1070
    41
1040
3.0
1070
    42
1040
3.0
1070
    43
1040
7.0
1070
    44
1040
1.5
1070
    73
1070
     0
1070
    74
1070
     0
1070
    77
1070
     3
1070
   140
1040
3.0
1070
   141
1040
3.0
1070
   147
1040
1.0
1070
   172
1070
     1
1070
   173
1070
     1
1070
   176
1070
   256
1070
   177
1070
   256
1070
   178
1070
   256
1070
   271
1070
     0
1070
   272
1070
     0
1070
   341
1005
B2
1070
     6
1000
OPEN
1070
     7
1000
OPEN
1002
}
  0
LINE
  5
2FFC
330
1A
100
AcDbEntity
  8
SEIHIN
  6
Continuous
 62
     3
100
AcDbLine
 10
68.13185998182141
 20
202.3101819961216
 30
0.0
 11
68.13175998182132
 21
191.3099819961216
 31
0.0
  0
LINE
  5
2FFD
330
1A
100
AcDbEntity
  8
SEIHIN
  6
Continuous
 62
     3
100
AcDbLine
 10
65.13185998182135
 20
191.3099819961216
 30
0.0
 11
65.13185998182141
 21
213.3099819961216
 31
0.0
  0
LINE
  5
2FFE
330
1A
100
AcDbEntity
  8
SEIHIN
  6
Continuous
 62
     3
100
AcDbLine
 10
65.13185998182135
 20
191.3099819961216
 30
0.0
 11
68.13175998182132
 21
191.3099819961216
 31
0.0
  0
LINE
  5
2FFF
330
1A
100
AcDbEntity
  8
SEIHIN
  6
Continuous
 62
     3
100
AcDbLine
 10
68.13185998182141
 20
202.3097819961216
 30
0.0
 11
68.13185998182141
 21
213.3099819961216
 31
0.0
  0
LINE
  5
3000
330
1A
100
AcDbEntity
  8
SEIHIN
  6
Continuous
 62
     3
100
AcDbLine
 10
65.13185998182141
 20
213.3099819961216
 30
0.0
 11
68.13185998182141
 21
213.3099819961216
 31
0.0
  0
LINE
  5
3001
330
1A
100
AcDbEntity
  8
SEIHIN
  6
Continuous
 62
     3
100
AcDbLine
 10
82.13185998182141
 20
202.3098819961216
 30
0.0
 11
82.13185998182141
 21
209.8100819961216
 31
0.0
  0
LINE
  5
3002
330
1A
100
AcDbEntity
  8
SEIHIN
  6
Continuous
 62
     3
100
AcDbLine
 10
82.13185998182141
 20
202.3100819961216
 30
0.0
 11
82.13185998182141
 21
194.8098819961216
 31
0.0
  0
LINE
  5
3003
330
1A
100
AcDbEntity
  8
SEIHIN
100
AcDbLine
 10
201.5360257668997
 20
226.7431781855192
 30
0.0
 11
201.5360257668997
 21
211.5781256555192
 31
0.0
  0
LINE
  5
3004
330
1A
100
AcDbEntity
  8
SEIHIN
100
AcDbLine
 10
202.5517410549663
 20
212.0662297655192
 30
0.0
 11
202.5517410549663
 21
226.7431781855192
 31
0.0
  0
LINE
  5
3005
330
1A
100
AcDbEntity
  8
SEIHIN
 62
     3
100
AcDbLine
 10
131.4381430818214
 20
199.3099820061216
 30
0.0
 11
213.1385824279805
 21
199.3099820061216
 31
0.0
  0
LINE
  5
3006
330
1A
100
AcDbEntity
  8
SEIHIN
 62
     3
100
AcDbLine
 10
131.4381430818214
 20
205.3099820061216
 30
0.0
 11
213.137868742571
 21
205.3099820061216
 31
0.0
  0
LINE
  5
3007
330
1A
100
AcDbEntity
  8
SEIHIN
100
AcDbLine
 10
101.9970521618214
 20
210.3099820161216
 30
0.0
 11
121.0318599838214
 21
210.3099820161216
 31
0.0
  0
LINE
  5
3008
330
1A
100
AcDbEntity
  8
SEIHIN
100
AcDbLine
 10
121.0318599838214
 20
194.3099819761216
 30
0.0
 11
101.9970134918213
 21
194.3100279761216
 31
0.0
  0
LINE
  5
3009
330
1A
100
AcDbEntity
  8
SEIHIN
100
AcDbLine
 10
104.6406659418214
 20
206.4644260161216
 30
0.0
 11
126.6993530668213
 21
206.4644260161216
 31
0.0
  0
LINE
  5
300A
330
1A
100
AcDbEntity
  8
SEIHIN
100
AcDbLine
 10
101.8511463918214
 20
208.5820556161216
 30
0.0
 11
129.4381430818214
 21
208.5820556161216
 31
0.0
  0
LINE
  5
300B
330
1A
100
AcDbEntity
  8
SEIHIN
100
AcDbLine
 10
104.6406659418214
 20
198.1555379661216
 30
0.0
 11
126.6993530668213
 21
198.1555379661216
 31
0.0
  0
LINE
  5
300C
330
1A
100
AcDbEntity
  8
SEIHIN
100
AcDbLine
 10
101.8511463918214
 20
196.0379083361216
 30
0.0
 11
129.4381430818214
 21
196.0379083361216
 31
0.0
  0
LINE
  5
300D
330
1A
100
AcDbEntity
  8
SEIHIN
100
AcDbLine
 10
100.5647629518214
 20
191.3099819761216
 30
0.0
 11
100.5647629518214
 21
194.8099819761216
 31
0.0
  0
LINE
  5
300E
330
1A
100
AcDbEntity
  8
SEIHIN
100
AcDbLine
 10
101.5647629518214
 20
194.3099819761216
 30
0.0
 11
101.5647629518214
 21
191.3099819761216
 31
0.0
  0
LINE
  5
300F
330
1A
100
AcDbEntity
  8
SEIHIN
100
AcDbLine
 10
101.5647629518214
 20
191.3099819761216
 30
0.0
 11
100.5647629518214
 21
191.3099819761216
 31
0.0
  0
ARC
  5
3010
330
1A
100
AcDbEntity
  8
SEIHIN
100
AcDbCircle
 10
102.0647629518214
 20
210.3099820161216
 30
0.0
 40
0.5
100
AcDbArc
 50
180.0
 51
270.0
  0
ARC
  5
3011
330
1A
100
AcDbEntity
  8
SEIHIN
100
AcDbCircle
 10
102.0647629518214
 20
194.3099819761216
 30
0.0
 40
0.5
100
AcDbArc
 50
90.0
 51
180.0
  0
LINE
  5
3012
330
1A
100
AcDbEntity
  8
SEIHIN
100
AcDbLine
 10
104.6406659418214
 20
197.0379083361216
 30
0.0
 11
101.8511463918214
 21
197.0379083361216
 31
0.0
  0
LINE
  5
3013
330
1A
100
AcDbEntity
  8
SEIHIN
100
AcDbLine
 10
104.6406659418214
 20
207.5820556161216
 30
0.0
 11
101.8511463918214
 21
207.5820556161216
 31
0.0
  0
LINE
  5
3014
330
1A
100
AcDbEntity
  8
SEIHIN
100
AcDbLine
 10
101.8511463918214
 20
204.2345933161216
 30
0.0
 11
104.6406659418214
 21
204.2345933161216
 31
0.0
  0
LINE
  5
3015
330
1A
100
AcDbEntity
  8
SEIHIN
100
AcDbLine
 10
101.8511463918214
 20
200.3853706361216
 30
0.0
 11
104.6406659418214
 21
200.3853706361216
 31
0.0
  0
LINE
  5
3016
330
1A
100
AcDbEntity
  8
SEIHIN
  6
Continuous
 62
     3
100
AcDbLine
 10
94.63175998182143
 20
194.8099819961216
 30
0.0
 11
94.63175998182143
 21
209.8099819961216
 31
0.0
  0
LINE
  5
3017
330
1A
100
AcDbEntity
  8
SEIHIN
100
AcDbLine
 10
101.8511463918214
 20
207.5820556161216
 30
0.0
 11
101.8511463918214
 21
197.0379083361216
 31
0.0
  0
ARC
  5
3018
330
1A
100
AcDbEntity
  8
SEIHIN
100
AcDbCircle
 10
101.8511463918214
 20
202.3099819761216
 30
0.0
 40
3.000000000000012
100
AcDbArc
 50
90.00000515662018
 51
269.9999952253517
  0
LINE
  5
3019
330
1A
100
AcDbEntity
  8
SEIHIN
100
AcDbLine
 10
96.03185998182136
 20
194.3099819761216
 30
0.0
 11
99.99676730182138
 21
194.3099819761216
 31
0.0
  0
LINE
  5
301A
330
1A
100
AcDbEntity
  8
SEIHIN
100
AcDbLine
 10
99.99700892182138
 20
194.8099819761216
 30
0.0
 11
96.03185998182136
 21
194.8099819761216
 31
0.0
  0
LINE
  5
301B
330
1A
100
AcDbEntity
  8
SEIHIN
100
AcDbLine
 10
96.03185998182136
 20
194.3099819761216
 30
0.0
 11
96.03185998182136
 21
194.8099819761216
 31
0.0
  0
LINE
  5
301C
330
1A
100
AcDbEntity
  8
SEIHIN
100
AcDbLine
 10
101.8511463918214
 20
197.0379083361216
 30
0.0
 11
101.8511463918214
 21
196.0379083361216
 31
0.0
  0
LINE
  5
301D
330
1A
100
AcDbEntity
  8
SEIHIN
100
AcDbLine
 10
99.99700774182138
 20
194.3099819761216
 30
0.0
 11
99.99700892182138
 21
194.8099819761216
 31
0.0
  0
ARC
  5
301E
330
1A
100
AcDbEntity
  8
SEIHIN
100
AcDbCircle
 10
101.5647629518214
 20
194.8099819761216
 30
0.0
 40
1.0
100
AcDbArc
 50
90.0
 51
180.0
  0
LINE
  5
301F
330
1A
100
AcDbEntity
  8
SEIHIN
100
AcDbLine
 10
99.99704429182138
 20
209.8099820161216
 30
0.0
 11
99.99704547182138
 21
210.3099820161216
 31
0.0
  0
LINE
  5
3020
330
1A
100
AcDbEntity
  8
SEIHIN
100
AcDbLine
 10
96.03185998182136
 20
209.8099820161216
 30
0.0
 11
96.03185998182136
 21
210.3099820161216
 31
0.0
  0
LINE
  5
3021
330
1A
100
AcDbEntity
  8
SEIHIN
100
AcDbLine
 10
100.5647629518214
 20
213.3099820161216
 30
0.0
 11
100.5647629518214
 21
209.8099820161216
 31
0.0
  0
LINE
  5
3022
330
1A
100
AcDbEntity
  8
SEIHIN
100
AcDbLine
 10
99.99704429182138
 20
209.8099820161216
 30
0.0
 11
96.03185998182136
 21
209.8099820161216
 31
0.0
  0
LINE
  5
3023
330
1A
100
AcDbEntity
  8
SEIHIN
100
AcDbLine
 10
101.8511463918214
 20
207.5820556161216
 30
0.0
 11
101.8511463918214
 21
208.5820556161216
 31
0.0
  0
ARC
  5
3024
330
1A
100
AcDbEntity
  8
SEIHIN
100
AcDbCircle
 10
101.5647629518214
 20
209.8099820161216
 30
0.0
 40
1.0
100
AcDbArc
 50
180.0
 51
270.0
  0
LINE
  5
3025
330
1A
100
AcDbEntity
  8
SEIHIN
100
AcDbLine
 10
96.03185998182136
 20
210.3099820161216
 30
0.0
 11
99.99676730182138
 21
210.3099820161216
 31
0.0
  0
LINE
  5
3026
330
1A
100
AcDbEntity
  8
SEIHIN
100
AcDbLine
 10
101.5647629518214
 20
213.3099820161216
 30
0.0
 11
100.5647629518214
 21
213.3099820161216
 31
0.0
  0
LINE
  5
3027
330
1A
100
AcDbEntity
  8
SEIHIN
100
AcDbLine
 10
101.5647629518214
 20
210.3099820161216
 30
0.0
 11
101.5647629518214
 21
213.3099820161216
 31
0.0
  0
LINE
  5
3028
330
1A
100
AcDbEntity
  8
SEIHIN
100
AcDbLine
 10
104.6406659418214
 20
196.0379083361216
 30
0.0
 11
104.6406659418214
 21
208.5820556161216
 31
0.0
  0
ARC
  5
3029
330
1A
100
AcDbEntity
  8
SEIHIN
100
AcDbCircle
 10
111.0321011118214
 20
198.8283114761216
 30
0.0
 40
5.715337531631893
100
AcDbArc
 50
232.2375418744897
 51
307.7621812247566
  0
LINE
  5
302A
330
1A
100
AcDbEntity
  8
SEIHIN
100
AcDbLine
 10
104.6406659418214
 20
196.0379083361216
 30
0.0
 11
104.6406659418214
 21
197.2379083361216
 31
0.0
  0
LINE
  5
302B
330
1A
100
AcDbEntity
  8
SEIHIN
100
AcDbLine
 10
101.9970134918213
 20
194.3100279761216
 30
0.0
 11
101.9970147018213
 21
194.8099819761216
 31
0.0
  0
LINE
  5
302C
330
1A
100
AcDbEntity
  8
SEIHIN
100
AcDbLine
 10
114.5320901918214
 20
211.3744204161216
 30
0.0
 11
107.5320901918214
 21
211.3744204161216
 31
0.0
  0
LINE
  5
302D
330
1A
100
AcDbEntity
  8
SEIHIN
100
AcDbLine
 10
107.5320901918214
 20
210.3099820161216
 30
0.0
 11
114.5320901918214
 21
210.3099820161216
 31
0.0
  0
LINE
  5
302E
330
1A
100
AcDbEntity
  8
SEIHIN
100
AcDbLine
 10
101.9970509518214
 20
209.8099820161216
 30
0.0
 11
101.9970521618214
 21
210.3099820161216
 31
0.0
  0
LINE
  5
302F
330
1A
100
AcDbEntity
  8
SEIHIN
100
AcDbLine
 10
104.6406659418214
 20
208.5820556161216
 30
0.0
 11
104.6406659418214
 21
207.3820556161216
 31
0.0
  0
LINE
  5
3030
330
1A
100
AcDbEntity
  8
SEIHIN
100
AcDbLine
 10
107.5320901918214
 20
211.3744204161216
 30
0.0
 11
107.5320901918214
 21
210.3099820161216
 31
0.0
  0
LINE
  5
3031
330
1A
100
AcDbEntity
  8
SEIHIN
100
AcDbLine
 10
114.5320901918214
 20
210.3099820161216
 30
0.0
 11
114.5320901918214
 21
211.3744204161216
 31
0.0
  0
LINE
  5
3032
330
1A
100
AcDbEntity
  8
SEIHIN
100
AcDbLine
 10
130.2905773748214
 20
198.0379083361216
 30
0.0
 11
130.2905773748214
 21
206.5820556161216
 31
0.0
  0
LINE
  5
3033
330
1A
100
AcDbEntity
  8
SEIHIN
100
AcDbLine
 10
131.4381430818214
 20
198.0379083361216
 30
0.0
 11
131.4381430818214
 21
206.5820556161216
 31
0.0
  0
LINE
  5
3034
330
1A
100
AcDbEntity
  8
SEIHIN
100
AcDbLine
 10
128.6993530668212
 20
204.4644259861216
 30
0.0
 11
128.6993530668212
 21
200.1555379661216
 31
0.0
  0
LINE
  5
3035
330
1A
100
AcDbEntity
  8
SEIHIN
100
AcDbLine
 10
120.1342824708213
 20
199.1555379661216
 30
0.0
 11
120.1342824708213
 21
205.4644259861216
 31
0.0
  0
LINE
  5
3036
330
1A
100
AcDbEntity
  8
SEIHIN
100
AcDbLine
 10
124.9762027063214
 20
199.1555379661216
 30
0.0
 11
124.9762027063214
 21
205.4644259861216
 31
0.0
  0
LINE
  5
3037
330
1A
100
AcDbEntity
  8
SEIHIN
100
AcDbLine
 10
121.0318599838214
 20
194.3099819761216
 30
0.0
 11
121.0318599838214
 21
194.8099819761216
 31
0.0
  0
ARC
  5
3038
330
1A
100
AcDbEntity
  8
SEIHIN
100
AcDbCircle
 10
126.6993530668213
 20
200.1555379661216
 30
0.0
 40
2.0
100
AcDbArc
 50
270.0
 51
0.0
  0
ARC
  5
3039
330
1A
100
AcDbEntity
  8
SEIHIN
100
AcDbCircle
 10
129.4381430818214
 20
198.0379083361216
 30
0.0
 40
2.0
100
AcDbArc
 50
270.0
 51
0.0
  0
ARC
  5
303A
330
1A
100
AcDbEntity
  8
SEIHIN
100
AcDbCircle
 10
129.4381430818214
 20
198.0379083361216
 30
0.0
 40
2.0
100
AcDbArc
 50
270.0
 51
0.0
  0
ARC
  5
303B
330
1A
100
AcDbEntity
  8
SEIHIN
100
AcDbCircle
 10
128.2905773748214
 20
198.0379083361216
 30
0.0
 40
2.0
100
AcDbArc
 50
270.0
 51
0.0
  0
LINE
  5
303C
330
1A
100
AcDbEntity
  8
SEIHIN
100
AcDbLine
 10
130.0237048567846
 20
194.8099819761216
 30
0.0
 11
130.0237048567846
 21
195.8099819761216
 31
0.0
  0
LINE
  5
303D
330
1A
100
AcDbEntity
  8
SEIHIN
100
AcDbLine
 10
121.0318599838214
 20
209.8099820161216
 30
0.0
 11
121.0318599838214
 21
210.3099820161216
 31
0.0
  0
ARC
  5
303E
330
1A
100
AcDbEntity
  8
SEIHIN
100
AcDbCircle
 10
129.4381430818214
 20
206.5820556161216
 30
0.0
 40
2.0
100
AcDbArc
 50
0.0
 51
90.0
  0
ARC
  5
303F
330
1A
100
AcDbEntity
  8
SEIHIN
100
AcDbCircle
 10
129.4381430818214
 20
206.5820556161216
 30
0.0
 40
2.0
100
AcDbArc
 50
0.0
 51
90.0
  0
ARC
  5
3040
330
1A
100
AcDbEntity
  8
SEIHIN
100
AcDbCircle
 10
128.2905773748214
 20
206.5820556161216
 30
0.0
 40
2.0
100
AcDbArc
 50
0.0
 51
90.0
  0
LINE
  5
3041
330
1A
100
AcDbEntity
  8
SEIHIN
100
AcDbLine
 10
130.0237048567846
 20
208.8099820161216
 30
0.0
 11
130.0237048567846
 21
209.8099820161216
 31
0.0
  0
ARC
  5
3042
330
1A
100
AcDbEntity
  8
SEIHIN
100
AcDbCircle
 10
126.6993530668213
 20
204.4644259861216
 30
0.0
 40
2.000000014999997
100
AcDbArc
 50
0.0
 51
90.0
  0
ARC
  5
3043
330
1A
100
AcDbEntity
  8
SEIHIN
100
AcDbCircle
 10
186.6105247227683
 20
202.3099819761216
 30
0.0
 40
3.25
100
AcDbArc
 50
112.6198649480423
 51
247.3801350519577
  0
LINE
  5
3044
330
1A
100
AcDbEntity
  8
SEIHIN
100
AcDbLine
 10
182.3166218438059
 20
195.8099819761216
 30
0.0
 11
182.3166218438059
 21
194.8099819761216
 31
0.0
  0
LINE
  5
3045
330
1A
100
AcDbEntity
  8
SEIHIN
100
AcDbLine
 10
182.3166218438059
 20
208.8099820161216
 30
0.0
 11
182.3166218438059
 21
209.8099820161216
 31
0.0
  0
LINE
  5
3046
330
1A
100
AcDbEntity
  8
SEIHIN
100
AcDbLine
 10
215.4611189218213
 20
191.8767858067239
 30
0.0
 11
215.4611189218213
 21
194.8767858067238
 31
0.0
  0
LINE
  5
3047
330
1A
100
AcDbEntity
  8
SEIHIN
100
AcDbLine
 10
209.9381212758213
 20
194.8767858067238
 30
0.0
 11
209.9381212758213
 21
191.8767858067239
 31
0.0
  0
LINE
  5
3048
330
1A
100
AcDbEntity
  8
SEIHIN
100
AcDbLine
 10
208.5487195658212
 20
191.8767858067239
 30
0.0
 11
208.5487195658212
 21
194.8767858067238
 31
0.0
  0
LINE
  5
3049
330
1A
100
AcDbEntity
  8
SEIHIN
100
AcDbLine
 10
202.5517410549662
 20
192.5537342267239
 30
0.0
 11
202.5517410549662
 21
177.8767858067239
 31
0.0
  0
LINE
  5
304A
330
1A
100
AcDbEntity
  8
SEIHIN
100
AcDbLine
 10
201.5360257668997
 20
177.8767858067239
 30
0.0
 11
201.5360257668997
 21
193.0418383367237
 31
0.0
  0
LINE
  5
304B
330
1A
100
AcDbEntity
  8
SEIHIN
100
AcDbLine
 10
209.9381212758213
 20
191.8767858067239
 30
0.0
 11
208.5487195658212
 21
193.9479806167238
 31
0.0
  0
LINE
  5
304C
330
1A
100
AcDbEntity
  8
SEIHIN
100
AcDbLine
 10
208.5487195658212
 20
191.8767858067239
 30
0.0
 11
209.9381212758213
 21
191.8767858067239
 31
0.0
  0
ARC
  5
304D
330
1A
100
AcDbEntity
  8
SEIHIN
100
AcDbCircle
 10
201.1815155228998
 20
209.3829416655192
 30
0.0
 40
1.700000003059988
100
AcDbArc
 50
93.79183492946814
 51
165.4514548057508
  0
ARC
  5
304E
330
1A
100
AcDbEntity
  8
SEIHIN
100
AcDbCircle
 10
201.1815155228998
 20
195.2370223267239
 30
0.0
 40
1.700000003059988
100
AcDbArc
 50
194.5485451942492
 51
266.2081650705318
  0
ARC
  5
304F
330
1A
100
AcDbEntity
  8
SEIHIN
100
AcDbCircle
 10
194.7890163053525
 20
202.3099820061216
 30
0.0
 40
3.25
100
AcDbArc
 50
292.6198635729417
 51
67.38013367685713
  0
LINE
  5
3050
330
1A
100
AcDbEntity
  8
SEIHIN
100
AcDbLine
 10
185.3605247227683
 20
199.3099819761216
 30
0.0
 11
185.3605247227683
 21
195.8099819761216
 31
0.0
  0
LINE
  5
3051
330
1A
100
AcDbEntity
  8
SEIHIN
100
AcDbLine
 10
196.0390164493527
 20
199.3099820061216
 30
0.0
 11
196.0390164493527
 21
195.8099819861216
 31
0.0
  0
LINE
  5
3052
330
1A
100
AcDbEntity
  8
SEIHIN
100
AcDbLine
 10
196.9279759339338
 20
195.8099819861216
 30
0.0
 11
196.9279759339338
 21
194.8099819861216
 31
0.0
  0
LINE
  5
3053
330
1A
100
AcDbEntity
  8
SEIHIN
100
AcDbLine
 10
185.3605247227683
 20
208.8099820161216
 30
0.0
 11
185.3605247227683
 21
205.3099819761216
 31
0.0
  0
LINE
  5
3054
330
1A
100
AcDbEntity
  8
SEIHIN
100
AcDbLine
 10
196.0390164493527
 20
205.3099820061216
 30
0.0
 11
196.0390164493527
 21
208.8099820061216
 31
0.0
  0
LINE
  5
3055
330
1A
100
AcDbEntity
  8
SEIHIN
100
AcDbLine
 10
196.9279759339338
 20
209.8099820061216
 30
0.0
 11
196.9279759339338
 21
208.8099820061216
 31
0.0
  0
LINE
  5
3056
330
1A
100
AcDbEntity
  8
SEIHIN
100
AcDbLine
 10
204.0575638988213
 20
193.6577959067238
 30
0.0
 11
207.8942912248213
 21
193.6577959067238
 31
0.0
  0
LINE
  5
3057
330
1A
100
AcDbEntity
  8
SEIHIN
100
AcDbLine
 10
201.1176796459663
 20
194.2328044067237
 30
0.0
 11
200.4736982409661
 21
194.8767858067238
 31
0.0
  0
ARC
  5
3058
330
1A
100
AcDbEntity
  8
SEIHIN
100
AcDbCircle
 10
201.0360257628998
 20
193.0418383367237
 30
0.0
 40
0.5000000015686215
100
AcDbArc
 50
0.0
 51
86.20816424113286
  0
ARC
  5
3059
330
1A
100
AcDbEntity
  8
SEIHIN
100
AcDbCircle
 10
200.8517410509661
 20
192.5537342267239
 30
0.0
 40
1.700000002834678
100
AcDbArc
 50
0.0
 51
80.99999985768858
  0
LINE
  5
305A
330
1A
100
AcDbEntity
  8
SEIHIN
100
AcDbLine
 10
210.6374596028213
 20
193.6577959067238
 30
0.0
 11
214.4794764098213
 21
193.6577959067238
 31
0.0
  0
LINE
  5
305B
330
1A
100
AcDbEntity
  8
SEIHIN
100
AcDbLine
 10
201.1176796459663
 20
210.3871595855192
 30
0.0
 11
200.4736982409663
 21
209.7431781855192
 31
0.0
  0
LINE
  5
305C
330
1A
100
AcDbEntity
  8
SEIHIN
100
AcDbLine
 10
204.0575638988213
 20
210.9621680855192
 30
0.0
 11
207.8942912248213
 21
210.9621680855192
 31
0.0
  0
ARC
  5
305D
330
1A
100
AcDbEntity
  8
SEIHIN
100
AcDbCircle
 10
200.8517410509663
 20
212.0662297655192
 30
0.0
 40
1.700000002834678
100
AcDbArc
 50
279.0000001423114
 51
0.0
  0
ARC
  5
305E
330
1A
100
AcDbEntity
  8
SEIHIN
100
AcDbCircle
 10
201.0360257628998
 20
211.5781256555192
 30
0.0
 40
0.5000000015686215
100
AcDbArc
 50
273.7918357588671
 51
0.0
  0
LINE
  5
305F
330
1A
100
AcDbEntity
  8
SEIHIN
100
AcDbLine
 10
215.4611189218213
 20
212.7431781855192
 30
0.0
 11
215.4611189218213
 21
209.7431781855192
 31
0.0
  0
LINE
  5
3060
330
1A
100
AcDbEntity
  8
SEIHIN
100
AcDbLine
 10
208.5487195658212
 20
212.7431781855192
 30
0.0
 11
208.5487195658212
 21
209.7431781855192
 31
0.0
  0
LINE
  5
3061
330
1A
100
AcDbEntity
  8
SEIHIN
100
AcDbLine
 10
209.9381212758213
 20
209.7431781855192
 30
0.0
 11
209.9381212758213
 21
212.7431781855192
 31
0.0
  0
LINE
  5
3062
330
1A
100
AcDbEntity
  8
SEIHIN
100
AcDbLine
 10
210.6374596028213
 20
210.9621680855192
 30
0.0
 11
214.4794764098213
 21
210.9621680855192
 31
0.0
  0
LINE
  5
3063
330
1A
100
AcDbEntity
  8
SEIHIN
100
AcDbLine
 10
208.5487195658212
 20
212.7431781855192
 30
0.0
 11
209.9381212758213
 21
212.7431781855192
 31
0.0
  0
LINE
  5
3064
330
1A
100
AcDbEntity
  8
SEIHIN
100
AcDbLine
 10
209.9381212758213
 20
212.7431781855192
 30
0.0
 11
208.5487195658212
 21
210.6719833755192
 31
0.0
  0
DIMENSION
  5
3065
330
1A
100
AcDbEntity
  8
SUNPOU
100
AcDbDimension
  2
*D8
 10
286.7850153698204
 20
122.4725286319
 30
0.0
 11
279.6678240889749
 21
139.1936406825761
 31
0.0
 70
    33
 71
     5
 42
35.99999999663378
  3
STANDARD
100
AcDbAlignedDimension
 13
287.5746565717884
 23
164.9291669893669
 33
0.0
 14
306.0965037623039
 24
134.0594216647157
 34
0.0
1001
ACAD
1000
DSTYLE
1002
{
1070
    41
1040
3.0
1070
    42
1040
3.0
1070
    43
1040
7.0
1070
    44
1040
1.5
1070
    73
1070
     0
1070
    74
1070
     0
1070
    77
1070
     3
1070
   140
1040
3.0
1070
   141
1040
3.0
1070
   147
1040
1.0
1070
   172
1070
     1
1070
   173
1070
     1
1070
   176
1070
   256
1070
   177
1070
   256
1070
   178
1070
   256
1070
   271
1070
     0
1070
   272
1070
     0
1070
   341
1005
B2
1070
     6
1000
OPEN
1070
     7
1000
OPEN
1002
}
  0
DIMENSION
  5
3066
330
1A
100
AcDbEntity
  8
SUNPOU
100
AcDbDimension
  2
*D9
 10
294.617527867108
 20
127.1720361291881
 30
0.0
 11
295.3463968545967
 21
130.8163810629558
 31
0.0
 70
    33
 71
     5
 42
5.499999998982332
  3
STANDARD
100
AcDbAlignedDimension
 13
303.2667771084564
 23
138.7756327555503
 33
0.0
 14
306.0965037623039
 24
134.0594216647157
 34
0.0
1001
ACAD
1000
DSTYLE
1002
{
1070
    41
1040
3.0
1070
    42
1040
3.0
1070
    43
1040
7.0
1070
    44
1040
1.5
1070
    73
1070
     0
1070
    74
1070
     0
1070
    77
1070
     3
1070
   140
1040
3.0
1070
   141
1040
3.0
1070
   147
1040
1.0
1070
   172
1070
     1
1070
   173
1070
     1
1070
   176
1070
   256
1070
   177
1070
   256
1070
   178
1070
   256
1070
   271
1070
     0
1070
   272
1070
     0
1070
   341
1005
B2
1070
     6
1000
OPEN
1070
     7
1000
OPEN
1002
}
  0
LINE
  5
3067
330
1A
100
AcDbEntity
  8
SUNPOU
100
AcDbLine
 10
221.0868644668213
 20
83.05363808891606
 30
0.0
 11
238.2285847602209
 21
54.48410427121088
 31
0.0
  0
TEXT
  5
3068
330
1A
100
AcDbEntity
  8
SUNPOU
100
AcDbText
 10
233.9431138850779
 20
49.98812541601103
 30
0.0
 40
3.0
  1
6
100
AcDbText
  0
LINE
  5
3069
330
1A
100
AcDbEntity
  8
SUNPOU
100
AcDbLine
 10
238.2285847602209
 20
54.48410427121088
 30
0.0
 11
232.2285847602209
 21
54.48410427121088
 31
0.0
  0
LINE
  5
306A
330
1A
100
AcDbEntity
  8
SUNPOU
100
AcDbLine
 10
232.2285847602209
 20
54.48410427121088
 30
0.0
 11
232.2285847602209
 21
64.48410427121087
 31
0.0
  0
TEXT
  5
306B
330
1A
100
AcDbEntity
  8
SUNPOU
100
AcDbText
 10
227.135750956087
 20
56.91400810181655
 30
0.0
 40
3.0
  1
10
100
AcDbText
  0
LINE
  5
306C
330
1A
100
AcDbEntity
  8
CENTER L
100
AcDbLine
 10
241.5094847381135
 20
80.72125732686865
 30
0.0
 11
259.2595883004195
 21
91.37131946179406
 31
0.0
  0
LINE
  5
306D
330
1A
100
AcDbEntity
  8
CENTER L
100
AcDbLine
 10
233.0203047718156
 20
94.86989060326796
 30
0.0
 11
250.7704083334477
 21
105.5199527377891
 31
0.0
  0
LINE
  5
306E
330
1A
100
AcDbEntity
  8
SEIHIN
  6
DASHED
 62
     2
100
AcDbLine
 10
236.5360257618214
 20
113.305988508916
 30
0.0
 11
255.0578729518214
 21
82.43624317891606
 31
0.0
  0
LINE
  5
306F
330
1A
100
AcDbEntity
  8
SEIHIN
  6
DASHED
 62
     2
100
AcDbLine
 10
237.5650172718214
 20
113.923383408916
 30
0.0
 11
256.0868644718213
 21
83.05363808891606
 31
0.0
  0
LINE
  5
3070
330
1A
100
AcDbEntity
  8
SEIHIN
  6
DASHED
 62
     2
100
AcDbLine
 10
250.3416618618214
 20
79.60651652891606
 30
0.0
 11
231.8198146718214
 21
110.4762618489161
 31
0.0
  0
LINE
  5
3071
330
1A
100
AcDbEntity
  8
CENTER L
100
AcDbLine
 10
228.647090852897
 20
102.1585804677387
 30
0.0
 11
246.3971944141819
 21
112.8086426020514
 31
0.0
  0
LINE
  5
3072
330
1A
100
AcDbEntity
  8
SEIHIN
  6
DASHED
 62
     2
100
AcDbLine
 10
231.8198146718214
 20
110.4762618489161
 30
0.0
 11
237.5650172718214
 21
113.923383408916
 31
0.0
  0
LINE
  5
3073
330
1A
100
AcDbEntity
  8
SEIHIN
  6
DASHED
 62
     2
100
AcDbLine
 10
231.9279759318214
 20
122.3466269889161
 30
0.0
 11
237.1362708118214
 21
113.6661355289161
 31
0.0
  0
LINE
  5
3074
330
1A
100
AcDbEntity
  8
SEIHIN
  6
DASHED
 62
     2
100
AcDbLine
 10
229.7618312418214
 20
116.2386149889161
 30
0.0
 11
232.8488061818214
 21
111.093656758916
 31
0.0
  0
ARC
  5
3075
330
1A
100
AcDbEntity
  8
SEIHIN
  6
DASHED
 62
     2
100
AcDbCircle
 10
226.3318599418213
 20
114.1806312889161
 30
0.0
 40
4.00000000092025
100
AcDbArc
 50
30.96376783213911
 51
170.7918455333397
  0
ARC
  5
3076
330
1A
100
AcDbEntity
  8
SEIHIN
  6
DASHED
 62
     2
100
AcDbCircle
 10
231.0704830118213
 20
121.8321312389161
 30
0.0
 40
0.9999999947726534
100
AcDbArc
 50
30.96375643381387
 51
58.22980112541244
  0
LINE
  5
3077
330
1A
100
AcDbEntity
  8
SEIHIN
  6
DASHED
 62
     2
100
AcDbLine
 10
256.0868644718213
 20
83.05363808891606
 30
0.0
 11
250.3416618618214
 21
79.60651652891606
 31
0.0
  0
ELLIPSE
  5
3078
330
1A
100
AcDbEntity
  8
SEIHIN
100
AcDbEllipse
 10
220.0578729562296
 20
226.7431781855192
 30
0.0
 11
0.0
 21
2.0
 31
0.0
210
0.0
220
0.0
230
-1.0
 40
0.5144957552958261
 41
0.0
 42
1.570796326794896
  0
ELLIPSE
  5
3079
330
1A
100
AcDbEntity
  8
SEIHIN
100
AcDbEllipse
 10
217.2414225269984
 20
224.0333192015359
 30
0.0
 11
0.0
 21
-2.099999999999994
 31
0.0
210
0.0
220
0.0
230
-1.0
 40
0.5144957554888068
 41
3.630936211000929
 42
5.793841749782787
  0
ELLIPSE
  5
307A
330
1A
100
AcDbEntity
  8
SEIHIN
100
AcDbEllipse
 10
218.257137815065
 20
224.0333192015359
 30
0.0
 11
0.0
 21
-2.099999999999994
 31
0.0
210
0.0
220
0.0
230
-1.0
 40
0.5144957554888068
 41
0.0
 42
6.283185307179585
  0
ELLIPSE
  5
307B
330
1A
100
AcDbEntity
  8
SEIHIN
100
AcDbEllipse
 10
218.257137815065
 20
180.5866447907071
 30
0.0
 11
0.0
 21
2.099999999999994
 31
0.0
210
0.0
220
0.0
230
1.0
 40
0.5144957554888068
 41
0.0
 42
6.283185307179585
  0
ELLIPSE
  5
307C
330
1A
100
AcDbEntity
  8
SEIHIN
100
AcDbEllipse
 10
217.2414225269984
 20
180.5866447907071
 30
0.0
 11
0.0
 21
2.099999999999994
 31
0.0
210
0.0
220
0.0
230
1.0
 40
0.5144957554888068
 41
3.630936211000929
 42
5.793841749782787
  0
ELLIPSE
  5
307D
330
1A
100
AcDbEntity
  8
SEIHIN
100
AcDbEllipse
 10
220.0578729562296
 20
177.8767858067239
 30
0.0
 11
0.0
 21
-2.0
 31
0.0
210
0.0
220
0.0
230
1.0
 40
0.5144957552958261
 41
0.0
 42
1.570796326794896
  0
DIMENSION
  5
307E
330
1A
100
AcDbEntity
  8
SUNPOU
100
AcDbDimension
  2
*D10
 10
351.8740976330207
 20
187.1821663156899
 30
0.0
 11
350.4163596794812
 21
194.4708561790645
 31
0.0
 70
    33
 71
     5
 42
13.99999998080708
  3
STANDARD
100
AcDbAlignedDimension
 13
333.0217816637796
 23
192.197442050444
 33
0.0
 14
340.2247222047984
 24
180.192541091871
 34
0.0
1001
ACAD
1000
DSTYLE
1002
{
1070
    41
1040
3.0
1070
    42
1040
3.0
1070
    43
1040
7.0
1070
    44
1040
1.5
1070
    73
1070
     0
1070
    74
1070
     0
1070
    77
1070
     3
1070
   140
1040
3.0
1070
   141
1040
3.0
1070
   147
1040
1.0
1070
   172
1070
     1
1070
   173
1070
     1
1070
   176
1070
   256
1070
   177
1070
   256
1070
   178
1070
   256
1070
   271
1070
     0
1070
   272
1070
     0
1070
   341
1005
B2
1070
     6
1000
OPEN
1070
     7
1000
OPEN
1002
}
  0
LINE
  5
307F
330
1A
100
AcDbEntity
  8
CENTER L
100
AcDbLine
 10
339.6244771612098
 20
160.5902527871547
 30
0.0
 11
348.3709050024328
 21
165.8381094906771
 31
0.0
  0
LINE
  5
3080
330
1A
100
AcDbEntity
  8
SEIHIN
100
AcDbLine
 10
334.0507731818213
 20
190.4824561789161
 30
0.0
 11
350.5146372818214
 21
163.0426825489159
 31
0.0
  0
LINE
  5
3081
330
1A
100
AcDbEntity
  8
SEIHIN
100
AcDbLine
 10
349.8286429818213
 20
160.2987051889161
 30
0.0
 11
328.8200662818213
 21
147.693559182916
 31
0.0
  0
TEXT
  5
3082
330
1A
100
AcDbEntity
  8
SUNPOU
100
AcDbText
 10
347.8961506613479
 20
217.3383614563444
 30
0.0
 40
3.0
  1
2-φ6.5
100
AcDbText
  0
LWPOLYLINE
  5
3083
330
1A
100
AcDbEntity
  8
SUNPOU
100
AcDbPolyline
 90
        3
 70
     0
 43
0.0
 10
336.4460101839345
 20
182.4258828571163
 10
347.5565454475218
 20
216.0340145437239
 10
363.4059952880263
 20
216.0340145437239
1001
ACAD
1000
DSTYLE
1002
{
1070
    41
1040
3.0
1070
    42
1040
3.0
1070
    43
1040
7.0
1070
    44
1040
1.5
1070
    73
1070
     0
1070
    74
1070
     0
1070
    77
1070
     0
1070
   140
1040
3.0
1070
   141
1040
3.0
1070
   147
1040
1.0
1070
   172
1070
     1
1070
   173
1070
     1
1070
   176
1070
   256
1070
   177
1070
   256
1070
   178
1070
   256
1070
   271
1070
     0
1070
   272
1070
     0
1070
   341
1005
B2
1070
   343
1005
B2
1070
   344
1005
B2
1002
}
  0
DIMENSION
  5
3084
330
1A
100
AcDbEntity
  8
SUNPOU
100
AcDbDimension
  2
*D11
 10
240.1160767169409
 20
175.8767858067239
 30
0.0
 11
237.6160767169409
 21
202.3099819961215
 31
0.0
 70
    32
 71
     5
 42
52.8663923787953
  3
STANDARD
100
AcDbAlignedDimension
 13
220.0578729562296
 23
228.7431781855192
 33
0.0
 14
220.0578729562296
 24
175.8767858067239
 34
0.0
 50
90.0
100
AcDbRotatedDimension
1001
ACAD
1000
DSTYLE
1002
{
1070
    41
1040
3.0
1070
    42
1040
3.0
1070
    43
1040
7.0
1070
    44
1040
1.5
1070
    73
1070
     0
1070
    74
1070
     0
1070
    77
1070
     3
1070
   140
1040
3.0
1070
   141
1040
3.0
1070
   147
1040
1.0
1070
   172
1070
     1
1070
   173
1070
     1
1070
   176
1070
   256
1070
   177
1070
   256
1070
   178
1070
   256
1070
   271
1070
     0
1070
   272
1070
     0
1070
   341
1005
B2
1070
     6
1000
OPEN
1070
     7
1000
OPEN
1002
}
  0
DIMENSION
  5
3085
330
1A
100
AcDbEntity
  8
SUNPOU
100
AcDbDimension
  2
*D12
 10
308.3872064167228
 20
233.2550674533485
 30
0.0
 11
284.3774044819543
 21
221.7646622369688
 31
0.0
 70
    33
 71
     5
 42
53.00000003711
  3
STANDARD
100
AcDbAlignedDimension
 13
287.5746565717884
 23
164.9291669893669
 33
0.0
 14
333.0217816637796
 24
192.197442050444
 34
0.0
1001
ACAD
1000
DSTYLE
1002
{
1070
    41
1040
3.0
1070
    42
1040
3.0
1070
    43
1040
7.0
1070
    44
1040
1.5
1070
    73
1070
     0
1070
    74
1070
     0
1070
    77
1070
     3
1070
   140
1040
3.0
1070
   141
1040
3.0
1070
   147
1040
1.0
1070
   172
1070
     1
1070
   173
1070
     1
1070
   176
1070
   256
1070
   177
1070
   256
1070
   178
1070
   256
1070
   271
1070
     0
1070
   272
1070
     0
1070
   341
1005
B2
1070
     6
1000
OPEN
1070
     7
1000
OPEN
1002
}
  0
DIMENSION
  5
3086
330
1A
100
AcDbEntity
  8
SUNPOU
100
AcDbDimension
  2
*D13
 10
308.0349648177614
 20
223.1520582073907
 30
0.0
 11
288.7413739938424
 21
214.4913796564619
 31
0.0
 70
    33
 71
     5
 42
41.99999999253942
  3
STANDARD
100
AcDbAlignedDimension
 13
292.4966659600601
 23
167.4158964695275
 33
0.0
 14
328.5113688300601
 24
189.0247181995275
 34
0.0
1001
ACAD
1000
DSTYLE
1002
{
1070
    41
1040
3.0
1070
    42
1040
3.0
1070
    43
1040
7.0
1070
    44
1040
1.5
1070
    73
1070
     0
1070
    74
1070
     0
1070
    77
1070
     3
1070
   140
1040
3.0
1070
   141
1040
3.0
1070
   147
1040
1.0
1070
   172
1070
     1
1070
   173
1070
     1
1070
   176
1070
   256
1070
   177
1070
   256
1070
   178
1070
   256
1070
   271
1070
     0
1070
   272
1070
     0
1070
   341
1005
B2
1070
     6
1000
OPEN
1070
     7
1000
OPEN
1002
}
  0
DIMENSION
  5
3087
330
1A
100
AcDbEntity
  8
SUNPOU
100
AcDbDimension
  2
*D14
 10
311.1508907158823
 20
215.0433723504692
 30
0.0
 11
293.1435392961822
 21
207.1544374340718
 31
0.0
 70
    33
 71
     5
 42
38.99999996244753
  3
STANDARD
100
AcDbAlignedDimension
 13
297.5644491488558
 23
161.8850671084289
 33
0.0
 14
331.0066732088558
 24
181.9504015684289
 34
0.0
1001
ACAD
1000
DSTYLE
1002
{
1070
    41
1040
3.0
1070
    42
1040
3.0
1070
    43
1040
7.0
1070
    44
1040
1.5
1070
    73
1070
     0
1070
    74
1070
     0
1070
    77
1070
     3
1070
   140
1040
3.0
1070
   141
1040
3.0
1070
   147
1040
1.0
1070
   172
1070
     1
1070
   173
1070
     1
1070
   176
1070
   256
1070
   177
1070
   256
1070
   178
1070
   256
1070
   271
1070
     0
1070
   272
1070
     0
1070
   341
1005
B2
1070
     6
1000
OPEN
1070
     7
1000
OPEN
1002
}
  0
LINE
  5
3088
330
1A
100
AcDbEntity
  8
SEIHIN
100
AcDbLine
 10
221.0868644668213
 20
212.0662301555192
 30
0.0
 11
221.0868644668213
 21
226.7431781855192
 31
0.0
  0
DIMENSION
  5
3089
330
1A
100
AcDbEntity
  8
SUNPOU
100
AcDbDimension
  2
*D15
 10
278.9857555178882
 20
153.3617792747904
 30
0.0
 11
279.7146245052279
 21
157.0061242088061
 31
0.0
 70
    33
 71
     5
 42
5.499999999560714
  3
STANDARD
100
AcDbAlignedDimension
 13
287.5746565717884
 23
164.9291669893669
 33
0.0
 14
290.4043832259335
 24
160.2129558980365
 34
0.0
1001
ACAD
1000
DSTYLE
1002
{
1070
    41
1040
3.0
1070
    42
1040
3.0
1070
    43
1040
7.0
1070
    44
1040
1.5
1070
    73
1070
     0
1070
    74
1070
     0
1070
    77
1070
     3
1070
   140
1040
3.0
1070
   141
1040
3.0
1070
   147
1040
1.0
1070
   172
1070
     1
1070
   173
1070
     1
1070
   176
1070
   256
1070
   177
1070
   256
1070
   178
1070
   256
1070
   271
1070
     0
1070
   272
1070
     0
1070
   341
1005
B2
1070
     6
1000
OPEN
1070
     7
1000
OPEN
1002
}
  0
LWPOLYLINE
  5
308A
330
1A
100
AcDbEntity
  8
SUNPOU
100
AcDbPolyline
 90
        3
 70
     0
 43
0.0
 10
291.0103634101027
 20
165.711160397551
 10
269.5951873353413
 20
184.1604990928761
 10
252.0134006984326
 20
184.1604990928761
1001
ACAD
1000
DSTYLE
1002
{
1070
    41
1040
3.0
1070
    42
1040
3.0
1070
    43
1040
7.0
1070
    44
1040
1.5
1070
    73
1070
     0
1070
    74
1070
     0
1070
    77
1070
     0
1070
   140
1040
3.0
1070
   141
1040
3.0
1070
   147
1040
1.0
1070
   172
1070
     1
1070
   173
1070
     1
1070
   176
1070
   256
1070
   177
1070
   256
1070
   178
1070
   256
1070
   271
1070
     0
1070
   272
1070
     0
1070
   341
1005
B2
1070
   343
1005
B2
1070
   344
1005
B2
1002
}
  0
LINE
  5
308B
330
1A
100
AcDbEntity
  8
SEIHIN
100
AcDbLine
 10
216.8505206308213
 20
194.8767858067238
 30
0.0
 11
216.8505206308213
 21
191.8767858067239
 31
0.0
  0
LINE
  5
308C
330
1A
100
AcDbEntity
  8
SEIHIN
100
AcDbLine
 10
221.0868644668213
 20
192.5537338367238
 30
0.0
 11
221.0868644668213
 21
177.8767858067239
 31
0.0
  0
LINE
  5
308D
330
1A
100
AcDbEntity
  8
SEIHIN
100
AcDbLine
 10
218.0591974168214
 20
208.8099820061216
 30
0.0
 11
218.0591974168214
 21
195.8099819861216
 31
0.0
  0
LINE
  5
308E
330
1A
100
AcDbEntity
  8
SEIHIN
100
AcDbLine
 10
219.0591974168214
 20
209.8099820061216
 30
0.0
 11
219.0591974168214
 21
194.8099819861216
 31
0.0
  0
ARC
  5
308F
330
1A
100
AcDbEntity
  8
SEIHIN
100
AcDbCircle
 10
219.3868644668213
 20
192.5537342267239
 30
0.0
 40
1.700000000521832
100
AcDbArc
 50
359.9999868556723
 51
80.99999999084268
  0
LINE
  5
3090
330
1A
100
AcDbEntity
  8
SEIHIN
100
AcDbLine
 10
219.6528030578213
 20
194.2328044067237
 30
0.0
 11
219.0088216498213
 21
194.8767858067238
 31
0.0
  0
LINE
  5
3091
330
1A
100
AcDbEntity
  8
SEIHIN
100
AcDbLine
 10
218.0788322878213
 20
193.6577959067238
 30
0.0
 11
219.5018014748213
 21
193.6577959067238
 31
0.0
  0
LINE
  5
3092
330
1A
100
AcDbEntity
  8
SEIHIN
100
AcDbLine
 10
219.6528030578213
 20
210.3871595855192
 30
0.0
 11
219.0088216498213
 21
209.7431781855192
 31
0.0
  0
LINE
  5
3093
330
1A
100
AcDbEntity
  8
SEIHIN
100
AcDbLine
 10
216.8505206308213
 20
209.7431781855192
 30
0.0
 11
216.8505206308213
 21
212.7431781855192
 31
0.0
  0
ARC
  5
3094
330
1A
100
AcDbEntity
  8
SEIHIN
100
AcDbCircle
 10
219.3868644668213
 20
212.0662297655192
 30
0.0
 40
1.700000000521832
100
AcDbArc
 50
279.0000000091573
 51
0.0000131443276943
  0
LINE
  5
3095
330
1A
100
AcDbEntity
  8
SEIHIN
100
AcDbLine
 10
218.0788322878213
 20
210.9621680855192
 30
0.0
 11
219.5018014748213
 21
210.9621680855192
 31
0.0
  0
TEXT
  5
3096
330
1A
100
AcDbEntity
  8
SUNPOU
100
AcDbText
 10
252.9951873353416
 20
184.8695498994901
 30
0.0
 40
3.0
  1
4-φ4.2
100
AcDbText
  0
LINE
  5
3097
330
1A
100
AcDbEntity
  8
CENTER L
100
AcDbLine
 10
298.4648167418142
 20
198.2856417986954
 30
0.0
 11
332.4215365857131
 21
141.6911087124677
 31
0.0
  0
LINE
  5
3098
330
1A
100
AcDbEntity
  8
SEIHIN
100
AcDbLine
 10
303.1200477018213
 20
174.2564016689161
 30
0.0
 11
306.4642701118213
 21
168.6826976489161
 31
0.0
  0
LINE
  5
3099
330
1A
100
AcDbEntity
  8
SEIHIN
100
AcDbLine
 10
303.8670221618213
 20
174.7045863389159
 30
0.0
 11
307.2112445718213
 21
169.130882328916
 31
0.0
  0
LINE
  5
309A
330
1A
100
AcDbEntity
  8
SEIHIN
100
AcDbLine
 10
303.8670221618213
 20
174.7045863389159
 30
0.0
 11
289.2896424218213
 21
165.9581584989161
 31
0.0
  0
LINE
  5
309B
330
1A
100
AcDbEntity
  8
SEIHIN
100
AcDbLine
 10
320.7184893818213
 20
148.562458327916
 30
0.0
 11
296.4925829918213
 21
188.9389689089161
 31
0.0
  0
LINE
  5
309C
330
1A
100
AcDbEntity
  8
SEIHIN
100
AcDbLine
 10
302.0736030818213
 20
186.4400459689159
 30
0.0
 11
314.9126914818213
 21
165.0415652589161
 31
0.0
  0
LINE
  5
309D
330
1A
100
AcDbEntity
  8
SEIHIN
100
AcDbLine
 10
319.8609963818213
 20
148.0479625719161
 30
0.0
 11
295.6350900718213
 21
188.4244731589159
 31
0.0
  0
LINE
  5
309E
330
1A
100
AcDbEntity
  8
SEIHIN
100
AcDbLine
 10
307.2185606218213
 20
189.5270205389161
 30
0.0
 11
320.0576490818213
 21
168.1285397889159
 31
0.0
  0
LINE
  5
309F
330
1A
100
AcDbEntity
  8
SEIHIN
100
AcDbLine
 10
322.3641001818213
 20
174.7240245489161
 30
0.0
 11
331.1105279818213
 21
160.1466448189161
 31
0.0
  0
LINE
  5
30A0
330
1A
100
AcDbEntity
  8
SEIHIN
100
AcDbLine
 10
331.8658973818213
 20
155.2509031489161
 30
0.0
 11
307.6399910318213
 21
195.6274137289161
 31
0.0
  0
LINE
  5
30A1
330
1A
100
AcDbEntity
  8
SEIHIN
100
AcDbLine
 10
332.7233902818213
 20
155.765398898916
 30
0.0
 11
308.4974839518213
 21
196.1419094889161
 31
0.0
  0
LINE
  5
30A2
330
1A
100
AcDbEntity
  8
SEIHIN
100
AcDbLine
 10
321.6171256818213
 20
174.275839878916
 30
0.0
 11
330.3635535818213
 21
159.6984601389161
 31
0.0
  0
LINE
  5
30A3
330
1A
100
AcDbEntity
  8
SEIHIN
100
AcDbLine
 10
314.5185950818213
 20
150.1914850609161
 30
0.0
 11
316.0620823818213
 21
147.6190062839161
 31
0.0
  0
LINE
  5
30A4
330
1A
100
AcDbEntity
  8
SEIHIN
100
AcDbLine
 10
314.5185950818213
 20
150.1914850609161
 30
0.0
 11
317.5011596818213
 21
151.9810238119161
 31
0.0
  0
LINE
  5
30A5
330
1A
100
AcDbEntity
  8
SEIHIN
100
AcDbLine
 10
308.0077573818213
 20
166.1102188789161
 30
0.0
 11
316.7541851818213
 21
151.5328391389161
 31
0.0
  0
ARC
  5
30A6
330
1A
100
AcDbEntity
  8
SEIHIN
100
AcDbCircle
 10
319.5591426818213
 20
163.1284318489161
 30
0.0
 40
5.024896826847874
100
AcDbArc
 50
157.6210374072256
 51
84.30647540336192
  0
LINE
  5
30A7
330
1A
100
AcDbEntity
  8
SEIHIN
100
AcDbLine
 10
308.7547318318214
 20
166.5584035489161
 30
0.0
 11
317.5011596818213
 21
151.9810238119161
 31
0.0
  0
LINE
  5
30A8
330
1A
100
AcDbEntity
  8
SEIHIN
100
AcDbLine
 10
307.8114896118213
 20
135.0884131749161
 30
0.0
 11
328.8200662818213
 21
147.693559182916
 31
0.0
  0
LINE
  5
30A9
330
1A
100
AcDbEntity
  8
SEIHIN
100
AcDbLine
 10
288.6036480818213
 20
163.2141811389161
 30
0.0
 11
305.0675122518213
 21
135.774407515916
 31
0.0
  0
LINE
  5
30AA
330
1A
100
AcDbEntity
  8
CENTER L
100
AcDbLine
 10
303.6097742812098
 20
138.9814310591547
 30
0.0
 11
312.3562021224328
 21
144.2292877626773
 31
0.0
  0
LINE
  5
30AB
330
1A
100
AcDbEntity
  8
CENTER L
100
AcDbLine
 10
305.3590598500601
 20
145.9785733315276
 30
0.0
 11
310.6069165535826
 21
137.2321454903046
 31
0.0
  0
CIRCLE
  5
30AC
330
1A
100
AcDbEntity
  8
SEIHIN
100
AcDbCircle
 10
307.9829882018213
 20
141.605359410916
 30
0.0
 40
2.100000000249221
  0
ARC
  5
30AD
330
1A
100
AcDbEntity
  8
SEIHIN
100
AcDbCircle
 10
306.7824981018213
 20
136.803399026916
 30
0.0
 40
1.999999999452818
100
AcDbArc
 50
210.9637565566384
 51
300.9637565025936
  0
LINE
  5
30AE
330
1A
100
AcDbEntity
  8
CENTER L
100
AcDbLine
 10
290.7473803912098
 20
160.4187541971547
 30
0.0
 11
299.4938082324328
 21
165.6666109006772
 31
0.0
  0
LINE
  5
30AF
330
1A
100
AcDbEntity
  8
CENTER L
100
AcDbLine
 10
295.4207168323085
 20
153.3101378459506
 30
0.0
 11
306.1393784113341
 21
159.7413347918816
 31
0.0
  0
LINE
  5
30B0
330
1A
100
AcDbEntity
  8
CENTER L
100
AcDbLine
 10
297.5644491488558
 20
161.8850671084289
 30
0.0
 11
303.9956460947868
 21
151.1664055294032
 31
0.0
  0
CIRCLE
  5
30B1
330
1A
100
AcDbEntity
  8
SEIHIN
100
AcDbCircle
 10
300.7800476218213
 20
156.5257363189161
 30
0.0
 40
3.250000004060681
  0
ARC
  5
30B2
330
1A
100
AcDbEntity
  8
SEIHIN
100
AcDbCircle
 10
290.3186339318213
 20
164.2431726489161
 30
0.0
 40
1.999999998338071
100
AcDbArc
 50
120.963756532073
 51
210.963756532075
  0
LINE
  5
30B3
330
1A
100
AcDbEntity
  8
CENTER L
100
AcDbLine
 10
292.4966659600601
 20
167.4158964695275
 30
0.0
 11
297.7445226635826
 21
158.6694686283046
 31
0.0
  0
CIRCLE
  5
30B4
330
1A
100
AcDbEntity
  8
SEIHIN
100
AcDbCircle
 10
295.1205943118213
 20
163.0426825489159
 30
0.0
 40
2.09999999907906
  0
INSERT
  5
30B5
330
1A
100
AcDbEntity
  8
SUNPOU
100
AcDbBlockReference
  2
_OPEN
 10
293.2832240752639
 20
163.7530734748727
 30
0.0
 41
2.999999999999987
 42
3.0
 43
3.0
 50
319.2548486777222
1001
ACAD
1000
DSTYLE
1002
{
1070
    41
1040
3.0
1070
    42
1040
3.0
1070
    43
1040
7.0
1070
    44
1040
1.5
1070
    73
1070
     0
1070
    74
1070
     0
1070
    77
1070
     0
1070
   140
1040
3.0
1070
   141
1040
3.0
1070
   147
1040
1.0
1070
   172
1070
     1
1070
   173
1070
     1
1070
   176
1070
   256
1070
   177
1070
   256
1070
   178
1070
   256
1070
   271
1070
     0
1070
   272
1070
     0
1070
   341
1005
B2
1070
   343
1005
B2
1070
   344
1005
B2
1002
}
  0
LINE
  5
30B6
330
1A
100
AcDbEntity
  8
SEIHIN
100
AcDbLine
 10
307.2112445718213
 20
169.130882328916
 30
0.0
 11
304.2286799818213
 21
167.3413435789159
 31
0.0
  0
LINE
  5
30B7
330
1A
100
AcDbEntity
  8
SEIHIN
100
AcDbLine
 10
308.7547318318214
 20
166.5584035489161
 30
0.0
 11
305.7721672518213
 21
164.7688647989161
 31
0.0
  0
LINE
  5
30B8
330
1A
100
AcDbEntity
  8
SEIHIN
100
AcDbLine
 10
304.2286799818213
 20
167.3413435789159
 30
0.0
 11
305.7721672518213
 21
164.7688647989161
 31
0.0
  0
LINE
  5
30B9
330
1A
100
AcDbEntity
  8
SEIHIN
100
AcDbLine
 10
307.2112445718213
 20
169.130882328916
 30
0.0
 11
308.7547318318214
 21
166.5584035489161
 31
0.0
  0
LINE
  5
30BA
330
1A
100
AcDbEntity
  8
SEIHIN
100
AcDbLine
 10
319.0446469818213
 20
149.4085450349161
 30
0.0
 11
322.3888693818213
 21
143.8348410173161
 31
0.0
  0
LINE
  5
30BB
330
1A
100
AcDbEntity
  8
SEIHIN
100
AcDbLine
 10
318.2976724818213
 20
148.9603603619161
 30
0.0
 11
321.6418948818213
 21
143.3866563448161
 31
0.0
  0
LINE
  5
30BC
330
1A
100
AcDbEntity
  8
SEIHIN
100
AcDbLine
 10
330.3635535818213
 20
159.6984601389161
 30
0.0
 11
331.9070407818213
 21
157.1259813689161
 31
0.0
  0
LINE
  5
30BD
330
1A
100
AcDbEntity
  8
SEIHIN
100
AcDbLine
 10
334.8896053818213
 20
158.9155201189159
 30
0.0
 11
331.0495478818213
 21
156.611485608916
 31
0.0
  0
LINE
  5
30BE
330
1A
100
AcDbEntity
  8
SEIHIN
100
AcDbLine
 10
333.3461181818213
 20
161.4879988889161
 30
0.0
 11
330.3635535818213
 21
159.6984601389161
 31
0.0
  0
ARC
  5
30BF
330
1A
100
AcDbEntity
  8
SEIHIN
100
AcDbCircle
 10
330.1509114818213
 20
154.2219116389159
 30
0.0
 40
2.000000044213948
100
AcDbArc
 50
300.9637586987388
 51
30.96375579511289
  0
ARC
  5
30C0
330
1A
100
AcDbEntity
  8
SEIHIN
100
AcDbCircle
 10
322.4334751818213
 20
149.591449837916
 30
0.0
 40
1.999999974757018
100
AcDbArc
 50
210.9637572690349
 51
300.9637562716812
  0
LINE
  5
30C1
330
1A
100
AcDbEntity
  8
SEIHIN
100
AcDbLine
 10
317.5011596818213
 20
151.9810238119161
 30
0.0
 11
319.0446469818213
 21
149.4085450349161
 31
0.0
  0
LINE
  5
30C2
330
1A
100
AcDbEntity
  8
SEIHIN
100
AcDbLine
 10
316.0620823818213
 20
147.6190062839161
 30
0.0
 11
319.9021398818213
 21
149.923040789916
 31
0.0
  0
LINE
  5
30C3
330
1A
100
AcDbEntity
  8
SEIHIN
100
AcDbLine
 10
331.1799030818213
 20
152.5069257859161
 30
0.0
 11
323.4624666818213
 21
147.8764639869161
 31
0.0
  0
CIRCLE
  5
30C4
330
1A
100
AcDbEntity
  8
SEIHIN
100
AcDbCircle
 10
319.5591426818213
 20
163.1284318489161
 30
0.0
 40
3.000000000763262
  0
LINE
  5
30C5
330
1A
100
AcDbEntity
  8
SEIHIN
100
AcDbLine
 10
331.9070407818213
 20
157.1259813689161
 30
0.0
 11
335.2512632818213
 21
151.5522773489159
 31
0.0
  0
LINE
  5
30C6
330
1A
100
AcDbEntity
  8
SEIHIN
100
AcDbLine
 10
332.6540152818213
 20
157.5741660389161
 30
0.0
 11
335.9982376818213
 21
152.0004620209161
 31
0.0
  0
LINE
  5
30C7
330
1A
100
AcDbEntity
  8
SEIHIN
100
AcDbLine
 10
333.3461181818213
 20
161.4879988889161
 30
0.0
 11
334.8896053818213
 21
158.9155201189159
 31
0.0
  0
LINE
  5
30C8
330
1A
100
AcDbEntity
  8
CENTER L
100
AcDbLine
 10
341.3737627300601
 20
167.5873950595275
 30
0.0
 11
346.6216194335826
 21
158.8409672183046
 31
0.0
  0
CIRCLE
  5
30C9
330
1A
100
AcDbEntity
  8
SEIHIN
100
AcDbCircle
 10
343.9976910818213
 20
163.2141811389161
 30
0.0
 40
2.099999993088218
  0
LINE
  5
30CA
330
1A
100
AcDbEntity
  8
SEIHIN
100
AcDbLine
 10
299.5162202064702
 20
183.89957355978
 30
0.0
 11
298.6587272796013
 21
183.3850778038377
 31
0.0
  0
LINE
  5
30CB
330
1A
100
AcDbEntity
  8
SEIHIN
100
AcDbLine
 10
295.6350900718213
 20
188.4244731589159
 30
0.0
 11
296.4925829918213
 21
188.9389689089161
 31
0.0
  0
ARC
  5
30CC
330
1A
100
AcDbEntity
  8
SEIHIN
100
AcDbCircle
 10
304.6460820318213
 20
187.9835329589159
 30
0.0
 40
3.000000003509581
100
AcDbArc
 50
30.96376350863462
 51
210.9637503088468
  0
LINE
  5
30CD
330
1A
100
AcDbEntity
  8
SEIHIN
100
AcDbLine
 10
299.0723780118213
 20
184.6393105489161
 30
0.0
 11
302.0736032518213
 21
186.4400456889159
 31
0.0
  0
LINE
  5
30CE
330
1A
100
AcDbEntity
  8
SEIHIN
100
AcDbLine
 10
311.5211211633392
 20
191.1025141313939
 30
0.0
 11
310.6636282421168
 21
190.5880183788395
 31
0.0
  0
LINE
  5
30CF
330
1A
100
AcDbEntity
  8
SEIHIN
100
AcDbLine
 10
307.2185608118213
 20
189.5270202289161
 30
0.0
 11
310.2197860518213
 21
191.3277553689161
 31
0.0
  0
LINE
  5
30D0
330
1A
100
AcDbEntity
  8
SEIHIN
100
AcDbLine
 10
307.6399910318213
 20
195.6274137289161
 30
0.0
 11
308.4974839518213
 21
196.1419094889161
 31
0.0
  0
LINE
  5
30D1
330
1A
100
AcDbEntity
  8
CENTER L
100
AcDbLine
 10
331.0066732088558
 20
181.9504015684289
 30
0.0
 11
337.4378701547868
 21
171.2317399894032
 31
0.0
  0
LINE
  5
30D2
330
1A
100
AcDbEntity
  8
CENTER L
100
AcDbLine
 10
328.8629408923085
 20
173.3754723059505
 30
0.0
 11
339.5816024713341
 21
179.8066692518815
 31
0.0
  0
LINE
  5
30D3
330
1A
100
AcDbEntity
  8
CENTER L
100
AcDbLine
 10
326.7620832612098
 20
182.0275759271547
 30
0.0
 11
335.5085111024328
 21
187.2754326306772
 31
0.0
  0
LINE
  5
30D4
330
1A
100
AcDbEntity
  8
CENTER L
100
AcDbLine
 10
328.5113688300601
 20
189.0247181995275
 30
0.0
 11
333.7592255335825
 21
180.2782903583046
 31
0.0
  0
ARC
  5
30D5
330
1A
100
AcDbEntity
  8
SEIHIN
100
AcDbCircle
 10
332.3357872818213
 20
189.4534646689161
 30
0.0
 40
2.00000001720292
100
AcDbArc
 50
30.96375579511289
 51
120.9637562864204
  0
CIRCLE
  5
30D6
330
1A
100
AcDbEntity
  8
SEIHIN
100
AcDbCircle
 10
334.2222716818213
 20
176.5910707789161
 30
0.0
 40
3.249999974956404
  0
CIRCLE
  5
30D7
330
1A
100
AcDbEntity
  8
SEIHIN
100
AcDbCircle
 10
331.1352971818213
 20
184.6515042789161
 30
0.0
 40
2.099999996653719
  0
LINE
  5
30D8
330
1A
100
AcDbEntity
  8
SEIHIN
100
AcDbLine
 10
317.4763904818213
 20
182.8702073489161
 30
0.0
 11
320.8206128818213
 21
177.2965033289161
 31
0.0
  0
LINE
  5
30D9
330
1A
100
AcDbEntity
  8
SEIHIN
100
AcDbLine
 10
316.7294160818213
 20
182.4220226789159
 30
0.0
 11
320.0736384818213
 21
176.8483186589161
 31
0.0
  0
LINE
  5
30DA
330
1A
100
AcDbEntity
  8
SEIHIN
100
AcDbLine
 10
321.6171256818213
 20
174.275839878916
 30
0.0
 11
324.5996902818213
 21
176.0653786289161
 31
0.0
  0
LINE
  5
30DB
330
1A
100
AcDbEntity
  8
SEIHIN
100
AcDbLine
 10
323.0562030818213
 20
178.637857408916
 30
0.0
 11
324.5996902818213
 21
176.0653786289161
 31
0.0
  0
LINE
  5
30DC
330
1A
100
AcDbEntity
  8
SEIHIN
100
AcDbLine
 10
320.0736384818213
 20
176.8483186589161
 30
0.0
 11
321.6171256818213
 21
174.275839878916
 31
0.0
  0
LINE
  5
30DD
330
1A
100
AcDbEntity
  8
SEIHIN
100
AcDbLine
 10
320.0736384818213
 20
176.8483186589161
 30
0.0
 11
323.0562030818213
 21
178.637857408916
 31
0.0
  0
LINE
  5
30DE
330
1A
100
AcDbEntity
  8
SEIHIN
100
AcDbLine
 10
316.7294160818213
 20
182.4220226789159
 30
0.0
 11
331.3067957818213
 21
191.1684505189161
 31
0.0
  0
INSERT
  5
30DF
330
1A
100
AcDbEntity
  8
SUNPOU
100
AcDbBlockReference
  2
_OPEN
 10
335.5043606878463
 20
179.5774980118897
 30
0.0
 41
2.999999999999982
 42
3.0
 43
3.0
 50
251.7065953267104
1001
ACAD
1000
DSTYLE
1002
{
1070
    41
1040
3.0
1070
    42
1040
3.0
1070
    43
1040
7.0
1070
    44
1040
1.5
1070
    73
1070
     0
1070
    74
1070
     0
1070
    77
1070
     0
1070
   140
1040
3.0
1070
   141
1040
3.0
1070
   147
1040
1.0
1070
   172
1070
     1
1070
   173
1070
     1
1070
   176
1070
   256
1070
   177
1070
   256
1070
   178
1070
   256
1070
   271
1070
     0
1070
   272
1070
     0
1070
   341
1005
B2
1070
   343
1005
B2
1070
   344
1005
B2
1002
}
  0
ARC
  5
30E0
330
1A
100
AcDbEntity
  8
SEIHIN
100
AcDbCircle
 10
348.7996514818213
 20
162.0136910389161
 30
0.0
 40
1.999999974328267
100
AcDbArc
 50
300.9637562864195
 51
30.96375726903485
  0
VIEWPORT
  5
22
330
17
100
AcDbEntity
 67
     1
  8
0
100
AcDbViewport
 10
313.6808219178083
 20
148.5
 30
0.0
 40
627.3616438356165
 41
297.0
 68
     2
 69
     1
 12
313.6808219178083
 22
148.5
 13
0.0
 23
0.0
 14
1.0
 24
1.0
 15
10.0
 25
10.0
 16
0.0
 26
0.0
 36
1.0
 17
0.0
 27
0.0
 37
0.0
 42
50.0
 43
0.0
 44
0.0
 45
297.0
 50
0.0
 51
0.0
 72
   100
 90
    32768
  1

281
     0
 71
     1
 74
     0
110
0.0
120
0.0
130
0.0
111
1.0
121
0.0
131
0.0
112
0.0
122
1.0
132
0.0
 79
     0
146
0.0
  0
VIEWPORT
  5
64
330
17
100
AcDbEntity
 67
     1
  8
VIEWPORT
100
AcDbViewport
 10
210.0
 20
148.5
 30
0.0
 40
420.0
 41
297.0
 68
     1
 69
     2
 12
210.0
 22
148.5
 13
0.0
 23
0.0
 14
5.0
 24
5.0
 15
0.0
 25
0.0
 16
0.0
 26
0.0
 36
1.0
 17
0.0
 27
0.0
 37
0.0
 42
50.0
 43
0.0
 44
0.0
 45
302.9399999999999
 50
0.0
 51
0.0
 72
   100
 90
    32768
  1

281
     0
 71
     1
 74
     0
110
0.0
120
0.0
130
0.0
111
1.0
121
0.0
131
0.0
112
0.0
122
1.0
132
0.0
 79
     0
146
0.0
  0
ENDSEC
  0
SECTION
  2
OBJECTS
  0
DICTIONARY
  5
C
330
0
100
AcDbDictionary
281
     1
  3
ACAD_GROUP
350
D
  3
ACAD_LAYOUT
350
624
  3
ACAD_MLINESTYLE
350
E
  3
ACAD_PLOTSETTINGS
350
625
  3
ACAD_PLOTSTYLENAME
350
622
  0
DICTIONARY
  5
D
102
{ACAD_REACTORS
330
C
102
}
330
C
100
AcDbDictionary
281
     1
  0
DICTIONARY
  5
624
102
{ACAD_REACTORS
330
C
102
}
330
C
100
AcDbDictionary
281
     1
  3
Model
350
626
  3
ﾚｲｱｳﾄ1
350
627
  0
DICTIONARY
  5
E
102
{ACAD_REACTORS
330
C
102
}
330
C
100
AcDbDictionary
281
     1
  3
STANDARD
350
13
  0
DICTIONARY
  5
625
102
{ACAD_REACTORS
330
C
102
}
330
C
100
AcDbDictionary
281
     1
  0
ACDBDICTIONARYWDFLT
  5
622
102
{ACAD_REACTORS
330
C
102
}
330
C
100
AcDbDictionary
281
     1
  3
Normal
350
623
100
AcDbDictionaryWithDefault
340
623
1001
ACAD
1000
TREAT_AS_HARD
1070
     0
1000
TREAT_AS_HARD
1070
     0
1000
TREAT_AS_HARD
1070
     0
1000
TREAT_AS_HARD
1070
     0
  0
LAYOUT
  5
626
102
{ACAD_REACTORS
330
624
102
}
330
624
100
AcDbPlotSettings
  1

  2
Acrobat PDFWriter
  4
A3
  6

 40
7.143749713897705
 41
7.14375638961792
 42
7.143768310546875
 43
7.14373779296875
 44
297.1270751953125
 45
420.1583251953125
 46
0.0
 47
0.0
 48
0.0
 49
0.0
140
0.0
141
0.0
142
1.0
143
1.0
 70
 11952
 72
     1
 73
     1
 74
     0
  7
print.ctb
 75
    16
147
1.0
148
52.88505331185908
149
1.640883977900558
100
AcDbLayout
  1
Model
 70
     1
 71
     0
 10
0.0
 20
0.0
 11
12.0
 21
9.0
 12
0.0
 22
0.0
 32
0.0
 14
0.0
 24
0.0
 34
0.0
 15
0.0
 25
0.0
 35
0.0
146
0.0
 13
0.0
 23
0.0
 33
0.0
 16
1.0
 26
0.0
 36
0.0
 17
0.0
 27
1.0
 37
0.0
 76
     0
330
1A
  0
LAYOUT
  5
627
102
{ACAD_REACTORS
330
624
102
}
330
624
100
AcDbPlotSettings
  1

  2
EPSON PM-2000C
  4

  6

 40
0.0
 41
0.0
 42
0.0
 43
0.0
 44
0.0
 45
0.0
 46
0.0
 47
0.0
 48
0.0
 49
0.0
140
0.0
141
0.0
142
1.0
143
1.0
 70
   688
 72
     0
 73
     0
 74
     5
  7
print.ctb
 75
    16
147
1.0
148
0.0
149
0.0
100
AcDbLayout
  1
ﾚｲｱｳﾄ1
 70
     1
 71
     1
 10
0.0
 20
0.0
 11
420.0
 21
297.0
 12
0.0
 22
0.0
 32
0.0
 14
0.0
 24
0.0
 34
0.0
 15
420.0
 25
297.0
 35
0.0
146
0.0
 13
0.0
 23
0.0
 33
0.0
 16
1.0
 26
0.0
 36
0.0
 17
0.0
 27
1.0
 37
0.0
 76
     0
330
17
331
64
  0
MLINESTYLE
  5
13
102
{ACAD_REACTORS
330
E
102
}
330
E
100
AcDbMlineStyle
  2
STANDARD
 70
     0
  3

 62
     0
 51
90.0
 52
90.0
 71
     2
 49
0.5
 62
   256
  6
BYLAYER
 49
-0.5
 62
   256
  6
BYLAYER
  0
ACDBPLACEHOLDER
  5
623
102
{ACAD_REACTORS
330
622
102
}
330
622
  0
ENDSEC
  0
EOF
