  0
SECTION
  2
HEADER
  9
$ACADVER
  1
AC1014
  9
$ACADMAINTVER
 70
     9
  9
$DWGCODEPAGE
  3
ANSI_932
  9
$INSBASE
 10
0.0
 20
0.0
 30
0.0
  9
$EXTMIN
 10
-0.0128164049386896
 20
-0.0090630292066862
 30
-0.0000000100021362
  9
$EXTMAX
 10
398.8000497813338
 20
275.8226172440017
 30
0.0000000100021363
  9
$LIMMIN
 10
0.0
 20
0.0
  9
$LIMMAX
 10
420.0
 20
297.0
  9
$ORTHOMODE
 70
     0
  9
$REGENMODE
 70
     1
  9
$FILLMODE
 70
     1
  9
$QTEXTMODE
 70
     0
  9
$MIRRTEXT
 70
     1
  9
$DRAGMODE
 70
     2
  9
$LTSCALE
 40
5.0
  9
$OSMODE
 70
    35
  9
$ATTMODE
 70
     1
  9
$TEXTSIZE
 40
3.0
  9
$TRACEWID
 40
1.0
  9
$TEXTSTYLE
  7
STANDARD
  9
$CLAYER
  8
SEIHIN
  9
$CELTYPE
  6
BYLAYER
  9
$CECOLOR
 62
   256
  9
$CELTSCALE
 40
1.0
  9
$DELOBJ
 70
     1
  9
$DISPSILH
 70
     0
  9
$DIMSCALE
 40
1.0
  9
$DIMASZ
 40
3.0
  9
$DIMEXO
 40
3.0
  9
$DIMDLI
 40
7.0
  9
$DIMRND
 40
0.0
  9
$DIMDLE
 40
0.0
  9
$DIMEXE
 40
1.5
  9
$DIMTP
 40
0.0
  9
$DIMTM
 40
0.0
  9
$DIMTXT
 40
3.0
  9
$DIMCEN
 40
3.0
  9
$DIMTSZ
 40
0.0
  9
$DIMTOL
 70
     0
  9
$DIMLIM
 70
     0
  9
$DIMTIH
 70
     0
  9
$DIMTOH
 70
     0
  9
$DIMSE1
 70
     0
  9
$DIMSE2
 70
     0
  9
$DIMTAD
 70
     3
  9
$DIMZIN
 70
     0
  9
$DIMBLK
  1

  9
$DIMASO
 70
     1
  9
$DIMSHO
 70
     1
  9
$DIMPOST
  1

  9
$DIMAPOST
  1

  9
$DIMALT
 70
     0
  9
$DIMALTD
 70
     2
  9
$DIMALTF
 40
25.4
  9
$DIMLFAC
 40
1.0
  9
$DIMTOFL
 70
     1
  9
$DIMTVP
 40
0.0
  9
$DIMTIX
 70
     0
  9
$DIMSOXD
 70
     0
  9
$DIMSAH
 70
     1
  9
$DIMBLK1
  1
OPEN
  9
$DIMBLK2
  1
OPEN
  9
$DIMSTYLE
  2
STANDARD
  9
$DIMCLRD
 70
   256
  9
$DIMCLRE
 70
   256
  9
$DIMCLRT
 70
   256
  9
$DIMTFAC
 40
1.0
  9
$DIMGAP
 40
1.0
  9
$DIMJUST
 70
     0
  9
$DIMSD1
 70
     0
  9
$DIMSD2
 70
     0
  9
$DIMTOLJ
 70
     1
  9
$DIMTZIN
 70
     0
  9
$DIMALTZ
 70
     0
  9
$DIMALTTZ
 70
     0
  9
$DIMFIT
 70
     3
  9
$DIMUPT
 70
     0
  9
$DIMUNIT
 70
     2
  9
$DIMDEC
 70
     0
  9
$DIMTDEC
 70
     0
  9
$DIMALTU
 70
     2
  9
$DIMALTTD
 70
     2
  9
$DIMTXSTY
  7
STANDARD
  9
$DIMAUNIT
 70
     0
  9
$LUNITS
 70
     2
  9
$LUPREC
 70
     4
  9
$SKETCHINC
 40
1.0
  9
$FILLETRAD
 40
10.0
  9
$AUNITS
 70
     0
  9
$AUPREC
 70
     0
  9
$MENU
  1
.
  9
$ELEVATION
 40
0.0
  9
$PELEVATION
 40
0.0
  9
$THICKNESS
 40
0.0
  9
$LIMCHECK
 70
     0
  9
$BLIPMODE
 70
     0
  9
$CHAMFERA
 40
10.0
  9
$CHAMFERB
 40
10.0
  9
$CHAMFERC
 40
20.0
  9
$CHAMFERD
 40
0.0
  9
$SKPOLY
 70
     0
  9
$TDCREATE
 40
2451569.441154629
  9
$TDUPDATE
 40
2453802.454524375
  9
$TDINDWG
 40
0.1518075000
  9
$TDUSRTIMER
 40
0.1518075000
  9
$USRTIMER
 70
     1
  9
$ANGBASE
 50
0.0
  9
$ANGDIR
 70
     0
  9
$PDMODE
 70
     0
  9
$PDSIZE
 40
0.0
  9
$PLINEWID
 40
0.0
  9
$COORDS
 70
     1
  9
$SPLFRAME
 70
     0
  9
$SPLINETYPE
 70
     6
  9
$SPLINESEGS
 70
     8
  9
$ATTDIA
 70
     0
  9
$ATTREQ
 70
     1
  9
$HANDLING
 70
 10241
  9
$HANDSEED
  5
329B
  9
$SURFTAB1
 70
     6
  9
$SURFTAB2
 70
     6
  9
$SURFTYPE
 70
     6
  9
$SURFU
 70
     6
  9
$SURFV
 70
     6
  9
$UCSNAME
  2

  9
$UCSORG
 10
0.0
 20
0.0
 30
0.0
  9
$UCSXDIR
 10
1.0
 20
0.0
 30
0.0
  9
$UCSYDIR
 10
0.0
 20
1.0
 30
0.0
  9
$PUCSNAME
  2

  9
$PUCSORG
 10
0.0
 20
0.0
 30
0.0
  9
$PUCSXDIR
 10
1.0
 20
0.0
 30
0.0
  9
$PUCSYDIR
 10
0.0
 20
1.0
 30
0.0
  9
$USERI1
 70
     0
  9
$USERI2
 70
     0
  9
$USERI3
 70
     0
  9
$USERI4
 70
     0
  9
$USERI5
 70
     0
  9
$USERR1
 40
0.0
  9
$USERR2
 40
0.0
  9
$USERR3
 40
0.0
  9
$USERR4
 40
0.0
  9
$USERR5
 40
0.0
  9
$WORLDVIEW
 70
     1
  9
$SHADEDGE
 70
     3
  9
$SHADEDIF
 70
    70
  9
$TILEMODE
 70
     1
  9
$MAXACTVP
 70
    16
  9
$PINSBASE
 10
0.0
 20
0.0
 30
0.0
  9
$PLIMCHECK
 70
     0
  9
$PEXTMIN
 10
0.0
 20
0.0
 30
0.0
  9
$PEXTMAX
 10
420.0
 20
297.0
 30
0.0
  9
$PLIMMIN
 10
0.0
 20
0.0
  9
$PLIMMAX
 10
420.0
 20
297.0
  9
$UNITMODE
 70
     0
  9
$VISRETAIN
 70
     0
  9
$PLINEGEN
 70
     0
  9
$PSLTSCALE
 70
     1
  9
$TREEDEPTH
 70
  3020
  9
$PICKSTYLE
 70
     1
  9
$CMLSTYLE
  2
STANDARD
  9
$CMLJUST
 70
     0
  9
$CMLSCALE
 40
1.0
  9
$PROXYGRAPHICS
 70
     1
  9
$MEASUREMENT
 70
     1
  0
ENDSEC
  0
SECTION
  2
CLASSES
  0
CLASS
  1
ACDBDICTIONARYWDFLT
  2
AcDbDictionaryWithDefault
  3
AutoCAD 2000
 90
        0
280
     0
281
     0
  0
CLASS
  1
ACDBPLACEHOLDER
  2
AcDbPlaceHolder
  3
AutoCAD 2000
 90
        0
280
     0
281
     0
  0
CLASS
  1
LAYOUT
  2
AcDbLayout
  3
AutoCAD 2000
 90
        0
280
     0
281
     0
  0
CLASS
  1
LONG_TRANSACTION
  2
AcDbLongTransaction
  3
AutoCAD 2000
 90
        0
280
     0
281
     0
  0
CLASS
  1
LWPOLYLINE
  2
AcDbPolyline
  3
AutoCAD 2000
 90
        0
280
     0
281
     1
  0
CLASS
  1
HATCH
  2
AcDbHatch
  3
AutoCAD 2000
 90
        0
280
     0
281
     1
  0
CLASS
  1
XRECORD
  2
AcDbXrecord
  3
AutoCAD 2000
 90
        0
280
     0
281
     0
  0
CLASS
  1
LONG_TRANSACTION
  2
AcDbLongTransaction
  3
AutoCAD 2000
 90
        0
280
     0
281
     0
  0
CLASS
  1
LWPOLYLINE
  2
AcDbPolyline
  3
AutoCAD 2000
 90
        0
280
     0
281
     1
  0
CLASS
  1
HATCH
  2
AcDbHatch
  3
AutoCAD 2000
 90
        0
280
     0
281
     1
  0
CLASS
  1
XRECORD
  2
AcDbXrecord
  3
AutoCAD 2000
 90
        0
280
     0
281
     0
  0
CLASS
  1
LONG_TRANSACTION
  2
AcDbLongTransaction
  3
AutoCAD 2000
 90
        0
280
     0
281
     0
  0
CLASS
  1
LWPOLYLINE
  2
AcDbPolyline
  3
AutoCAD 2000
 90
        0
280
     0
281
     1
  0
CLASS
  1
HATCH
  2
AcDbHatch
  3
AutoCAD 2000
 90
        0
280
     0
281
     1
  0
CLASS
  1
XRECORD
  2
AcDbXrecord
  3
AutoCAD 2000
 90
        0
280
     0
281
     0
  0
CLASS
  1
LONG_TRANSACTION
  2
AcDbLongTransaction
  3
AutoCAD 2000
 90
        0
280
     0
281
     0
  0
CLASS
  1
LWPOLYLINE
  2
AcDbPolyline
  3
AutoCAD 2000
 90
        0
280
     0
281
     1
  0
CLASS
  1
HATCH
  2
AcDbHatch
  3
AutoCAD 2000
 90
        0
280
     0
281
     1
  0
CLASS
  1
XRECORD
  2
AcDbXrecord
  3
AutoCAD 2000
 90
        0
280
     0
281
     0
  0
CLASS
  1
LONG_TRANSACTION
  2
AcDbLongTransaction
  3
AutoCAD 2000
 90
        0
280
     0
281
     0
  0
CLASS
  1
LWPOLYLINE
  2
AcDbPolyline
  3
AutoCAD 2000
 90
        0
280
     0
281
     1
  0
CLASS
  1
HATCH
  2
AcDbHatch
  3
AutoCAD 2000
 90
        0
280
     0
281
     1
  0
CLASS
  1
XRECORD
  2
AcDbXrecord
  3
AutoCAD 2000
 90
        0
280
     0
281
     0
  0
CLASS
  1
LONG_TRANSACTION
  2
AcDbLongTransaction
  3
AutoCAD 2000
 90
        0
280
     0
281
     0
  0
CLASS
  1
LWPOLYLINE
  2
AcDbPolyline
  3
AutoCAD 2000
 90
        0
280
     0
281
     1
  0
CLASS
  1
HATCH
  2
AcDbHatch
  3
AutoCAD 2000
 90
        0
280
     0
281
     1
  0
CLASS
  1
XRECORD
  2
AcDbXrecord
  3
AutoCAD 2000
 90
        0
280
     0
281
     0
  0
CLASS
  1
LONG_TRANSACTION
  2
AcDbLongTransaction
  3
AutoCAD 2000
 90
        0
280
     0
281
     0
  0
CLASS
  1
LWPOLYLINE
  2
AcDbPolyline
  3
AutoCAD 2000
 90
        0
280
     0
281
     1
  0
CLASS
  1
HATCH
  2
AcDbHatch
  3
AutoCAD 2000
 90
        0
280
     0
281
     1
  0
CLASS
  1
XRECORD
  2
AcDbXrecord
  3
AutoCAD 2000
 90
        0
280
     0
281
     0
  0
CLASS
  1
LONG_TRANSACTION
  2
AcDbLongTransaction
  3
AutoCAD 2000
 90
        0
280
     0
281
     0
  0
CLASS
  1
LWPOLYLINE
  2
AcDbPolyline
  3
AutoCAD 2000
 90
        0
280
     0
281
     1
  0
CLASS
  1
HATCH
  2
AcDbHatch
  3
AutoCAD 2000
 90
        0
280
     0
281
     1
  0
CLASS
  1
XRECORD
  2
AcDbXrecord
  3
AutoCAD 2000
 90
        0
280
     0
281
     0
  0
CLASS
  1
LONG_TRANSACTION
  2
AcDbLongTransaction
  3
AutoCAD 2000
 90
        0
280
     0
281
     0
  0
CLASS
  1
LWPOLYLINE
  2
AcDbPolyline
  3
AutoCAD 2000
 90
        0
280
     0
281
     1
  0
CLASS
  1
HATCH
  2
AcDbHatch
  3
AutoCAD 2000
 90
        0
280
     0
281
     1
  0
CLASS
  1
XRECORD
  2
AcDbXrecord
  3
AutoCAD 2000
 90
        0
280
     0
281
     0
  0
CLASS
  1
LONG_TRANSACTION
  2
AcDbLongTransaction
  3
AutoCAD 2000
 90
        0
280
     0
281
     0
  0
CLASS
  1
LWPOLYLINE
  2
AcDbPolyline
  3
AutoCAD 2000
 90
        0
280
     0
281
     1
  0
CLASS
  1
HATCH
  2
AcDbHatch
  3
AutoCAD 2000
 90
        0
280
     0
281
     1
  0
CLASS
  1
XRECORD
  2
AcDbXrecord
  3
AutoCAD 2000
 90
        0
280
     0
281
     0
  0
ENDSEC
  0
SECTION
  2
TABLES
  0
TABLE
  2
VPORT
  5
8
330
0
100
AcDbSymbolTable
 70
     2
  0
VPORT
  5
3277
330
8
100
AcDbSymbolTableRecord
100
AcDbViewportTableRecord
  2
*ACTIVE
 70
     0
 10
0.0
 20
0.0
 11
1.0
 21
1.0
 12
218.8461741013548
 22
141.3424620180031
 13
0.0
 23
0.0
 14
5.0
 24
5.0
 15
0.0
 25
0.0
 16
0.0
 26
0.0
 36
1.0
 17
0.0
 27
0.0
 37
0.0
 40
328.4898458904024
 41
1.795454545454545
 42
50.0
 43
0.0
 44
0.0
 50
0.0
 51
0.0
 71
     0
 72
   100
 73
     1
 74
     0
 75
     0
 76
     0
 77
     0
 78
     0
  0
ENDTAB
  0
TABLE
  2
LTYPE
  5
5
330
0
100
AcDbSymbolTable
 70
     4
  0
LTYPE
  5
14
330
5
100
AcDbSymbolTableRecord
100
AcDbLinetypeTableRecord
  2
BYBLOCK
 70
     0
  3

 72
    65
 73
     0
 40
0.0
  0
LTYPE
  5
15
330
5
100
AcDbSymbolTableRecord
100
AcDbLinetypeTableRecord
  2
BYLAYER
 70
     0
  3

 72
    65
 73
     0
 40
0.0
  0
LTYPE
  5
16
330
5
100
AcDbSymbolTableRecord
100
AcDbLinetypeTableRecord
  2
CONTINUOUS
 70
     0
  3
Solid line
 72
    65
 73
     0
 40
0.0
  0
LTYPE
  5
120
330
5
100
AcDbSymbolTableRecord
100
AcDbLinetypeTableRecord
  2
CENTER
 70
     0
  3
____ _ ____ _ ____ _ ____ _ ____ _ ____ _ ____ 
 72
    65
 73
     4
 40
2.0
 49
1.25
 74
     0
 49
-0.25
 74
     0
 49
0.25
 74
     0
 49
-0.25
 74
     0
  0
LTYPE
  5
122
330
5
100
AcDbSymbolTableRecord
100
AcDbLinetypeTableRecord
  2
PHANTOM
 70
     0
  3
______  __  __  ______  __  __  ______  __  __ 
 72
    65
 73
     6
 40
2.5
 49
1.25
 74
     0
 49
-0.25
 74
     0
 49
0.25
 74
     0
 49
-0.25
 74
     0
 49
0.25
 74
     0
 49
-0.25
 74
     0
  0
LTYPE
  5
12B
330
5
100
AcDbSymbolTableRecord
100
AcDbLinetypeTableRecord
  2
DASHED
 70
     0
  3
__ __ __ __ __ __ __ __ __ __ __ __ __ __ __ __
 72
    65
 73
     2
 40
0.75
 49
0.5
 74
     0
 49
-0.25
 74
     0
  0
ENDTAB
  0
TABLE
  2
LAYER
  5
2
330
0
100
AcDbSymbolTable
 70
     9
  0
LAYER
  5
F
330
2
100
AcDbSymbolTableRecord
100
AcDbLayerTableRecord
  2
0
 70
     0
 62
     7
  6
CONTINUOUS
  0
LAYER
  5
62
330
2
100
AcDbSymbolTableRecord
100
AcDbLayerTableRecord
  2
VIEWPORT
 70
     0
 62
     7
  6
CONTINUOUS
  0
LAYER
  5
6B
330
2
100
AcDbSymbolTableRecord
100
AcDbLayerTableRecord
  2
ZUWAKU
 70
     0
 62
     7
  6
CONTINUOUS
  0
LAYER
  5
48C
330
2
100
AcDbSymbolTableRecord
100
AcDbLayerTableRecord
  2
DEFPOINTS
 70
     0
 62
     7
  6
CONTINUOUS
  0
LAYER
  5
629
330
2
100
AcDbSymbolTableRecord
100
AcDbLayerTableRecord
  2
SEIHIN
 70
     0
 62
     3
  6
CONTINUOUS
  0
LAYER
  5
62A
330
2
100
AcDbSymbolTableRecord
100
AcDbLayerTableRecord
  2
SUNPOU
 70
     0
 62
     4
  6
CONTINUOUS
  0
LAYER
  5
62B
330
2
100
AcDbSymbolTableRecord
100
AcDbLayerTableRecord
  2
CENTER_L
 70
     0
 62
     1
  6
CENTER
  0
LAYER
  5
65C
330
2
100
AcDbSymbolTableRecord
100
AcDbLayerTableRecord
  2
NOKITOI
 70
     0
 62
     8
  6
PHANTOM
  0
LAYER
  5
3075
330
2
100
AcDbSymbolTableRecord
100
AcDbLayerTableRecord
  2
MOJI
 70
     0
 62
     2
  6
CONTINUOUS
  0
ENDTAB
  0
TABLE
  2
STYLE
  5
3
330
0
100
AcDbSymbolTable
 70
     2
  0
STYLE
  5
10
330
3
100
AcDbSymbolTableRecord
100
AcDbTextStyleTableRecord
  2
STANDARD
 70
     0
 40
0.0
 41
1.0
 50
0.0
 71
     0
 42
3.0
  3
TXT
  4
c:\PROGRAM FILES\AUTOCAD LT\ms\bigfont.shx
  0
STYLE
  5
3076
330
3
100
AcDbSymbolTableRecord
100
AcDbTextStyleTableRecord
  2
ｽﾀｲﾙ1
 70
     0
 40
0.0
 41
1.0
 50
0.0
 71
     0
 42
2.5
  3
MS PGothic.ttf
  4

1001
ACAD
1000
MS PGothic
1071
    32818
  0
ENDTAB
  0
TABLE
  2
VIEW
  5
6
330
0
100
AcDbSymbolTable
 70
     0
  0
ENDTAB
  0
TABLE
  2
UCS
  5
7
330
0
100
AcDbSymbolTable
 70
     0
  0
ENDTAB
  0
TABLE
  2
APPID
  5
9
330
0
100
AcDbSymbolTable
 70
     1
  0
APPID
  5
11
330
9
100
AcDbSymbolTableRecord
100
AcDbRegAppTableRecord
  2
ACAD
 70
     0
  0
ENDTAB
  0
TABLE
  2
DIMSTYLE
  5
A
330
0
100
AcDbSymbolTable
 70
     1
  0
DIMSTYLE
105
1D
102
{ACAD_REACTORS
330
1057
330
2AE9
330
2AEA
330
2AEB
330
2AEE
330
2C77
330
2C79
330
2C7E
330
2C9F
330
2CA0
330
2CA2
330
2CA4
330
2E73
330
2EC8
330
2F67
102
}
330
A
100
AcDbSymbolTableRecord
100
AcDbDimStyleTableRecord
  2
STANDARD
 70
     0
  3

  4

  5

  6

  7

 40
1.0
 41
0.18
 42
0.0625
 43
0.38
 44
0.18
 45
0.0
 46
0.0
 47
0.0
 48
0.0
140
0.18
141
0.09
142
0.0
143
25.4
144
1.0
145
0.0
146
1.0
147
0.09
 71
     0
 72
     0
 73
     1
 74
     1
 75
     0
 76
     0
 77
     0
 78
     0
170
     0
171
     2
172
     0
173
     0
174
     0
175
     0
176
     0
177
     0
178
     0
270
     2
271
     4
272
     4
273
     2
274
     2
340
10
275
     0
280
     0
281
     0
282
     0
283
     1
284
     0
285
     0
286
     0
287
     3
288
     0
  0
ENDTAB
  0
TABLE
  2
BLOCK_RECORD
  5
1
330
0
100
AcDbSymbolTable
 70
    16
  0
BLOCK_RECORD
  5
1A
102
{ACAD_XDICTIONARY
360
73C
102
}
330
1
100
AcDbSymbolTableRecord
100
AcDbBlockTableRecord
  2
*MODEL_SPACE
  0
BLOCK_RECORD
  5
17
102
{ACAD_XDICTIONARY
360
73A
102
}
330
1
100
AcDbSymbolTableRecord
100
AcDbBlockTableRecord
  2
*PAPER_SPACE
  0
BLOCK_RECORD
  5
B2
330
1
100
AcDbSymbolTableRecord
100
AcDbBlockTableRecord
  2
_OPEN
  0
BLOCK_RECORD
  5
1058
330
1
100
AcDbSymbolTableRecord
100
AcDbBlockTableRecord
  2
*D1
  0
BLOCK_RECORD
  5
2CC7
330
1
100
AcDbSymbolTableRecord
100
AcDbBlockTableRecord
  2
*D2
  0
BLOCK_RECORD
  5
2CD3
330
1
100
AcDbSymbolTableRecord
100
AcDbBlockTableRecord
  2
*D3
  0
BLOCK_RECORD
  5
2CDF
330
1
100
AcDbSymbolTableRecord
100
AcDbBlockTableRecord
  2
*D4
  0
BLOCK_RECORD
  5
2CEB
330
1
100
AcDbSymbolTableRecord
100
AcDbBlockTableRecord
  2
*D5
  0
BLOCK_RECORD
  5
2D27
330
1
100
AcDbSymbolTableRecord
100
AcDbBlockTableRecord
  2
*D6
  0
BLOCK_RECORD
  5
2D35
330
1
100
AcDbSymbolTableRecord
100
AcDbBlockTableRecord
  2
*D7
  0
BLOCK_RECORD
  5
2D41
330
1
100
AcDbSymbolTableRecord
100
AcDbBlockTableRecord
  2
*D8
  0
BLOCK_RECORD
  5
2D4F
330
1
100
AcDbSymbolTableRecord
100
AcDbBlockTableRecord
  2
*D9
  0
BLOCK_RECORD
  5
2D5B
330
1
100
AcDbSymbolTableRecord
100
AcDbBlockTableRecord
  2
*D10
  0
BLOCK_RECORD
  5
2D67
330
1
100
AcDbSymbolTableRecord
100
AcDbBlockTableRecord
  2
*D11
  0
BLOCK_RECORD
  5
2D73
330
1
100
AcDbSymbolTableRecord
100
AcDbBlockTableRecord
  2
*D12
  0
BLOCK_RECORD
  5
2E74
330
1
100
AcDbSymbolTableRecord
100
AcDbBlockTableRecord
  2
*D13
  0
BLOCK_RECORD
  5
2EC9
330
1
100
AcDbSymbolTableRecord
100
AcDbBlockTableRecord
  2
*D14
  0
BLOCK_RECORD
  5
2F68
330
1
100
AcDbSymbolTableRecord
100
AcDbBlockTableRecord
  2
*D15
  0
ENDTAB
  0
ENDSEC
  0
SECTION
  2
BLOCKS
  0
BLOCK
  5
1B
330
1A
100
AcDbEntity
  8
0
100
AcDbBlockBegin
  2
*MODEL_SPACE
 70
     0
 10
0.0
 20
0.0
 30
0.0
  3
*MODEL_SPACE
  1

  0
ENDBLK
  5
1C
330
1A
100
AcDbEntity
  8
0
100
AcDbBlockEnd
  0
BLOCK
  5
18
330
17
100
AcDbEntity
 67
     1
  8
0
100
AcDbBlockBegin
  2
*PAPER_SPACE
 70
     0
 10
0.0
 20
0.0
 30
0.0
  3
*PAPER_SPACE
  1

  0
ENDBLK
  5
19
330
17
100
AcDbEntity
 67
     1
  8
0
100
AcDbBlockEnd
  0
BLOCK
  5
B3
330
B2
100
AcDbEntity
  8
0
100
AcDbBlockBegin
  2
_OPEN
 70
     0
 10
0.0
 20
0.0
 30
0.0
  3
_OPEN
  1

  0
LINE
  5
B4
330
B2
100
AcDbEntity
  8
0
  6
BYBLOCK
 62
     0
100
AcDbLine
 10
-1.0
 20
0.1666666666666666
 30
0.0
 11
0.0
 21
0.0
 31
0.0
  0
LINE
  5
B5
330
B2
100
AcDbEntity
  8
0
  6
BYBLOCK
 62
     0
100
AcDbLine
 10
0.0
 20
0.0
 30
0.0
 11
-1.0
 21
-0.1666666666666666
 31
0.0
  0
LINE
  5
B6
330
B2
100
AcDbEntity
  8
0
  6
BYBLOCK
 62
     0
100
AcDbLine
 10
0.0
 20
0.0
 30
0.0
 11
-1.0
 21
0.0
 31
0.0
  0
ENDBLK
  5
B7
330
B2
100
AcDbEntity
  8
0
100
AcDbBlockEnd
  0
BLOCK
  5
1062
330
1058
100
AcDbEntity
  8
0
100
AcDbBlockBegin
  2
*D1
 70
     1
 10
0.0
 20
0.0
 30
0.0
  3
*D1
  1

  0
LINE
  5
3225
330
1058
100
AcDbEntity
  8
SUNPOU
100
AcDbLine
 10
58.60817800217901
 20
217.2468944154381
 30
0.0
 11
34.2229153555295
 21
217.2468944154381
 31
0.0
  0
LINE
  5
3226
330
1058
100
AcDbEntity
  8
SUNPOU
100
AcDbLine
 10
58.60817800217901
 20
195.2468943754381
 30
0.0
 11
34.22291535552949
 21
195.2468943754381
 31
0.0
  0
LINE
  5
3227
330
1058
100
AcDbEntity
  8
SUNPOU
100
AcDbLine
 10
35.7229153555295
 20
214.2468944154381
 30
0.0
 11
35.72291535552949
 21
198.2468943754381
 31
0.0
  0
INSERT
  5
3228
330
1058
100
AcDbEntity
  8
SUNPOU
100
AcDbBlockReference
  2
_OPEN
 10
35.7229153555295
 20
217.2468944154381
 30
0.0
 41
3.0
 42
3.0
 43
3.0
 50
90.0
  0
INSERT
  5
3229
330
1058
100
AcDbEntity
  8
SUNPOU
100
AcDbBlockReference
  2
_OPEN
 10
35.72291535552949
 20
195.2468943754381
 30
0.0
 41
3.0
 42
3.0
 43
3.0
 50
270.0
  0
MTEXT
  5
322A
330
1058
100
AcDbEntity
  8
SUNPOU
100
AcDbMText
 10
33.22291535552946
 20
206.2468943954381
 30
0.0
 40
3.0
 41
0.0
 71
     5
 72
     1
  1
\A1;22
 11
0.0000000000000001
 21
1.0
 31
0.0
1001
ACAD
1000
MTEXTBEGIN
1070
    73
1070
     1
1070
    44
1040
1.0
1070
    74
1070
     0
1000
MTEXTEND
  0
POINT
  5
322B
330
1058
100
AcDbEntity
  8
DEFPOINTS
 62
     0
100
AcDbPoint
 10
61.60817800217902
 20
217.2468944154381
 30
0.0
  0
POINT
  5
322C
330
1058
100
AcDbEntity
  8
DEFPOINTS
 62
     0
100
AcDbPoint
 10
61.60817800217902
 20
195.2468943754381
 30
0.0
  0
POINT
  5
322D
330
1058
100
AcDbEntity
  8
DEFPOINTS
 62
     0
100
AcDbPoint
 10
35.72291535552949
 20
195.2468943754381
 30
0.0
  0
ENDBLK
  5
1063
330
1058
100
AcDbEntity
  8
0
100
AcDbBlockEnd
  0
BLOCK
  5
2CD1
330
2CC7
100
AcDbEntity
  8
0
100
AcDbBlockBegin
  2
*D2
 70
     1
 10
0.0
 20
0.0
 30
0.0
  3
*D2
  1

  0
LINE
  5
31FF
330
2CC7
100
AcDbEntity
  8
SUNPOU
100
AcDbLine
 10
189.7003298511114
 20
140.2405662879089
 30
0.0
 11
206.9639453007786
 21
147.1460124622256
 31
0.0
  0
LINE
  5
3200
330
2CC7
100
AcDbEntity
  8
SUNPOU
100
AcDbLine
 10
209.0126450081435
 20
91.959778356523
 30
0.0
 11
226.2762604578107
 21
98.86522453083966
 31
0.0
  0
LINE
  5
3201
330
2CC7
100
AcDbEntity
  8
SUNPOU
100
AcDbLine
 10
206.6854022925866
 20
143.8034963751159
 30
0.0
 11
223.7693733930381
 21
101.093568589659
 31
0.0
  0
INSERT
  5
3202
330
2CC7
100
AcDbEntity
  8
SUNPOU
100
AcDbBlockReference
  2
_OPEN
 10
205.5712302642963
 20
146.5889264480804
 30
0.0
 41
3.0
 42
3.0
 43
3.0
 50
111.801409470472
  0
INSERT
  5
3203
330
2CC7
100
AcDbEntity
  8
SUNPOU
100
AcDbBlockReference
  2
_OPEN
 10
224.8835454213284
 20
98.3081385166945
 30
0.0
 41
3.0
 42
3.0
 43
3.0
 50
291.801409470472
  0
MTEXT
  5
3204
330
2CC7
100
AcDbEntity
  8
SUNPOU
100
AcDbMText
 10
217.5485795702829
 20
123.3770091726293
 30
0.0
 40
3.0
 41
0.0
 71
     5
 72
     1
  1
\A1;52
 11
0.371390676096772
 21
-0.928476690988192
 31
0.0
1001
ACAD
1000
MTEXTBEGIN
1070
    73
1070
     1
1070
    44
1040
1.0
1070
    74
1070
     0
1000
MTEXTEND
  0
POINT
  5
3205
330
2CC7
100
AcDbEntity
  8
DEFPOINTS
 62
     0
100
AcDbPoint
 10
186.9148997781468
 20
139.1263942596186
 30
0.0
  0
POINT
  5
3206
330
2CC7
100
AcDbEntity
  8
DEFPOINTS
 62
     0
100
AcDbPoint
 10
206.227214935179
 20
90.84560632823269
 30
0.0
  0
POINT
  5
3207
330
2CC7
100
AcDbEntity
  8
DEFPOINTS
 62
     0
100
AcDbPoint
 10
224.8835454213284
 20
98.3081385166945
 30
0.0
  0
ENDBLK
  5
2CD2
330
2CC7
100
AcDbEntity
  8
0
100
AcDbBlockEnd
  0
BLOCK
  5
2CDD
330
2CD3
100
AcDbEntity
  8
0
100
AcDbBlockBegin
  2
*D3
 70
     1
 10
0.0
 20
0.0
 30
0.0
  3
*D3
  1

  0
LINE
  5
31F6
330
2CD3
100
AcDbEntity
  8
SUNPOU
100
AcDbLine
 10
189.0099520993565
 20
136.8887634113498
 30
0.0
 11
189.0099520993565
 21
161.5343795469315
 31
0.0
  0
LINE
  5
31F7
330
2CD3
100
AcDbEntity
  8
SUNPOU
100
AcDbLine
 10
224.0099521067984
 20
136.8887634143265
 30
0.0
 11
224.0099521067984
 21
161.5343795469315
 31
0.0
  0
LINE
  5
31F8
330
2CD3
100
AcDbEntity
  8
SUNPOU
100
AcDbLine
 10
192.0099520993566
 20
160.0343795469315
 30
0.0
 11
221.0099521067984
 21
160.0343795469315
 31
0.0
  0
INSERT
  5
31F9
330
2CD3
100
AcDbEntity
  8
SUNPOU
100
AcDbBlockReference
  2
_OPEN
 10
189.0099520993565
 20
160.0343795469315
 30
0.0
 41
3.0
 42
3.0
 43
3.0
 50
180.0
  0
INSERT
  5
31FA
330
2CD3
100
AcDbEntity
  8
SUNPOU
100
AcDbBlockReference
  2
_OPEN
 10
224.0099521067984
 20
160.0343795469315
 30
0.0
 41
3.0
 42
3.0
 43
3.0
  0
MTEXT
  5
31FB
330
2CD3
100
AcDbEntity
  8
SUNPOU
100
AcDbMText
 10
206.5099521030775
 20
162.5343795469315
 30
0.0
 40
3.0
 41
0.0
 71
     5
 72
     1
  1
\A1;35
1001
ACAD
1000
MTEXTBEGIN
1070
    73
1070
     1
1070
    44
1040
1.0
1070
    74
1070
     0
1000
MTEXTEND
  0
POINT
  5
31FC
330
2CD3
100
AcDbEntity
  8
DEFPOINTS
 62
     0
100
AcDbPoint
 10
189.0099520993565
 20
133.8887634113498
 30
0.0
  0
POINT
  5
31FD
330
2CD3
100
AcDbEntity
  8
DEFPOINTS
 62
     0
100
AcDbPoint
 10
224.0099521067984
 20
133.8887634143265
 30
0.0
  0
POINT
  5
31FE
330
2CD3
100
AcDbEntity
  8
DEFPOINTS
 62
     0
100
AcDbPoint
 10
224.0099521067984
 20
160.0343795469315
 30
0.0
  0
ENDBLK
  5
2CDE
330
2CD3
100
AcDbEntity
  8
0
100
AcDbBlockEnd
  0
BLOCK
  5
2CE9
330
2CDF
100
AcDbEntity
  8
0
100
AcDbBlockBegin
  2
*D4
 70
     1
 10
0.0
 20
0.0
 30
0.0
  3
*D4
  1

  0
LINE
  5
31ED
330
2CDF
100
AcDbEntity
  8
SUNPOU
100
AcDbLine
 10
195.6425806577773
 20
125.3849392274386
 30
0.0
 11
205.0525890624834
 21
129.1489425898841
 31
0.0
  0
LINE
  5
31EE
330
2CDF
100
AcDbEntity
  8
SUNPOU
100
AcDbLine
 10
209.0126450077773
 20
91.95977835743867
 30
0.0
 11
218.4226534124834
 21
95.72378171988416
 31
0.0
  0
LINE
  5
31EF
330
2CDF
100
AcDbEntity
  8
SUNPOU
100
AcDbLine
 10
204.7740460553902
 20
125.8064265026828
 30
0.0
 11
215.9157663469782
 21
97.9521257778795
 31
0.0
  0
INSERT
  5
31F0
330
2CDF
100
AcDbEntity
  8
SUNPOU
100
AcDbBlockReference
  2
_OPEN
 10
203.6598740261842
 20
128.5918565752811
 30
0.0
 41
3.0
 42
3.0
 43
3.0
 50
111.8014094893072
  0
INSERT
  5
31F1
330
2CDF
100
AcDbEntity
  8
SUNPOU
100
AcDbBlockReference
  2
_OPEN
 10
217.0299383761842
 20
95.16669570528117
 30
0.0
 41
3.0
 42
3.0
 43
3.0
 50
291.8014094893072
  0
MTEXT
  5
31F2
330
2CDF
100
AcDbEntity
  8
SUNPOU
100
AcDbMText
 10
212.6660979283494
 20
112.8077528312861
 30
0.0
 40
3.0
 41
0.0
 71
     5
 72
     1
  1
\A1;36
 11
0.3713906764019972
 21
-0.9284766908661019
 31
0.0
1001
ACAD
1000
MTEXTBEGIN
1070
    73
1070
     1
1070
    44
1040
1.0
1070
    74
1070
     0
1000
MTEXTEND
  0
POINT
  5
31F3
330
2CDF
100
AcDbEntity
  8
DEFPOINTS
 62
     0
100
AcDbPoint
 10
192.857150585179
 20
124.2707671982326
 30
0.0
  0
POINT
  5
31F4
330
2CDF
100
AcDbEntity
  8
DEFPOINTS
 62
     0
100
AcDbPoint
 10
206.227214935179
 20
90.84560632823267
 30
0.0
  0
POINT
  5
31F5
330
2CDF
100
AcDbEntity
  8
DEFPOINTS
 62
     0
100
AcDbPoint
 10
217.0299383761842
 20
95.16669570528117
 30
0.0
  0
ENDBLK
  5
2CEA
330
2CDF
100
AcDbEntity
  8
0
100
AcDbBlockEnd
  0
BLOCK
  5
2CF5
330
2CEB
100
AcDbEntity
  8
0
100
AcDbBlockBegin
  2
*D5
 70
     1
 10
0.0
 20
0.0
 30
0.0
  3
*D5
  1

  0
LINE
  5
31E4
330
2CEB
100
AcDbEntity
  8
SUNPOU
100
AcDbLine
 10
206.2272153751791
 20
232.7468948054381
 30
0.0
 11
226.1588455688398
 21
232.7468948054381
 31
0.0
  0
LINE
  5
31E5
330
2CEB
100
AcDbEntity
  8
SUNPOU
100
AcDbLine
 10
206.2272153751791
 20
179.7468947654381
 30
0.0
 11
226.1588455688398
 21
179.7468947654381
 31
0.0
  0
LINE
  5
31E6
330
2CEB
100
AcDbEntity
  8
SUNPOU
100
AcDbLine
 10
224.6588455688398
 20
229.7468948054381
 30
0.0
 11
224.6588455688398
 21
182.7468947654381
 31
0.0
  0
INSERT
  5
31E7
330
2CEB
100
AcDbEntity
  8
SUNPOU
100
AcDbBlockReference
  2
_OPEN
 10
224.6588455688398
 20
232.7468948054381
 30
0.0
 41
3.0
 42
3.0
 43
3.0
 50
90.0
  0
INSERT
  5
31E8
330
2CEB
100
AcDbEntity
  8
SUNPOU
100
AcDbBlockReference
  2
_OPEN
 10
224.6588455688398
 20
179.7468947654381
 30
0.0
 41
3.0
 42
3.0
 43
3.0
 50
270.0
  0
MTEXT
  5
31E9
330
2CEB
100
AcDbEntity
  8
SUNPOU
100
AcDbMText
 10
222.1588455688397
 20
206.2468947854382
 30
0.0
 40
3.0
 41
0.0
 71
     5
 72
     1
  1
\A1;53
 11
0.0000000000000001
 21
1.0
 31
0.0
1001
ACAD
1000
MTEXTBEGIN
1070
    73
1070
     1
1070
    44
1040
1.0
1070
    74
1070
     0
1000
MTEXTEND
  0
POINT
  5
31EA
330
2CEB
100
AcDbEntity
  8
DEFPOINTS
 62
     0
100
AcDbPoint
 10
203.2272153751791
 20
232.7468948054381
 30
0.0
  0
POINT
  5
31EB
330
2CEB
100
AcDbEntity
  8
DEFPOINTS
 62
     0
100
AcDbPoint
 10
203.2272153751791
 20
179.7468947654381
 30
0.0
  0
POINT
  5
31EC
330
2CEB
100
AcDbEntity
  8
DEFPOINTS
 62
     0
100
AcDbPoint
 10
224.6588455688398
 20
179.7468947654381
 30
0.0
  0
ENDBLK
  5
2CF6
330
2CEB
100
AcDbEntity
  8
0
100
AcDbBlockEnd
  0
BLOCK
  5
2D33
330
2D27
100
AcDbEntity
  8
0
100
AcDbBlockBegin
  2
*D6
 70
     1
 10
0.0
 20
0.0
 30
0.0
  3
*D6
  1

  0
LINE
  5
3254
330
2D27
100
AcDbEntity
  8
SUNPOU
100
AcDbLine
 10
285.1871094251061
 20
161.2027503713143
 30
0.0
 11
267.9174902002591
 21
154.2949025017837
 31
0.0
  0
LINE
  5
3255
330
2D27
100
AcDbEntity
  8
SUNPOU
100
AcDbLine
 10
284.8157188294393
 20
155.1305128200954
 30
0.0
 11
269.960138965987
 21
149.188280720227
 31
0.0
  0
LINE
  5
3256
330
2D27
100
AcDbEntity
  8
SUNPOU
100
AcDbLine
 10
268.1960331775593
 20
157.6374185914678
 30
0.0
 11
267.0818611235259
 21
160.4228486541351
 31
0.0
  0
LINE
  5
3257
330
2D27
100
AcDbEntity
  8
SUNPOU
100
AcDbLine
 10
272.467026051354
 20
146.9599366845764
 30
0.0
 11
273.5811981053875
 21
144.1745066219091
 31
0.0
  0
LINE
  5
3258
330
2D27
100
AcDbEntity
  8
SUNPOU
100
AcDbLine
 10
269.3102052315927
 20
154.8519885288004
 30
0.0
 11
271.3528539973206
 21
149.7453667472437
 31
0.0
  0
INSERT
  5
3259
330
2D27
100
AcDbEntity
  8
SUNPOU
100
AcDbBlockReference
  2
_OPEN
 10
269.3102052315927
 20
154.8519885288004
 30
0.0
 41
3.0
 42
3.0
 43
3.0
 50
291.8014100000028
  0
INSERT
  5
325A
330
2D27
100
AcDbEntity
  8
SUNPOU
100
AcDbBlockReference
  2
_OPEN
 10
271.3528539973206
 20
149.7453667472437
 30
0.0
 41
3.0
 42
3.0
 43
3.0
 50
111.8014100000027
  0
MTEXT
  5
325B
330
2D27
100
AcDbEntity
  8
SUNPOU
100
AcDbMText
 10
272.6527213333462
 20
153.2271543497166
 30
0.0
 40
3.0
 41
0.0
 71
     5
 72
     1
  1
\A1;6
 11
0.3713906846778052
 21
-0.9284766875557787
 31
0.0
1001
ACAD
1000
MTEXTBEGIN
1070
    73
1070
     1
1070
    44
1040
1.0
1070
    74
1070
     0
1000
MTEXTEND
  0
POINT
  5
325C
330
2D27
100
AcDbEntity
  8
DEFPOINTS
 62
     0
100
AcDbPoint
 10
287.9725394877734
 20
162.3169224253477
 30
0.0
  0
POINT
  5
325D
330
2D27
100
AcDbEntity
  8
DEFPOINTS
 62
     0
100
AcDbPoint
 10
287.6011488921066
 20
156.2446848741288
 30
0.0
  0
POINT
  5
325E
330
2D27
100
AcDbEntity
  8
DEFPOINTS
 62
     0
100
AcDbPoint
 10
271.3528539973206
 20
149.7453667472437
 30
0.0
  0
ENDBLK
  5
2D34
330
2D27
100
AcDbEntity
  8
0
100
AcDbBlockEnd
  0
BLOCK
  5
2D3F
330
2D35
100
AcDbEntity
  8
0
100
AcDbBlockBegin
  2
*D7
 70
     1
 10
0.0
 20
0.0
 30
0.0
  3
*D7
  1

  0
LINE
  5
322E
330
2D35
100
AcDbEntity
  8
SUNPOU
100
AcDbLine
 10
285.1871094251061
 20
161.2027503713143
 30
0.0
 11
258.7502634943015
 21
150.6280117240681
 31
0.0
  0
LINE
  5
322F
330
2D35
100
AcDbEntity
  8
SUNPOU
100
AcDbLine
 10
298.5571740735054
 20
127.7775896193056
 30
0.0
 11
272.1203281427024
 21
117.2028509720601
 31
0.0
  0
LINE
  5
3230
330
2D35
100
AcDbEntity
  8
SUNPOU
100
AcDbLine
 10
261.2571505796685
 20
148.3996676884174
 30
0.0
 11
272.3988711200027
 21
120.5453670617442
 31
0.0
  0
INSERT
  5
3231
330
2D35
100
AcDbEntity
  8
SUNPOU
100
AcDbBlockReference
  2
_OPEN
 10
260.1429785256351
 20
151.1850977510848
 30
0.0
 41
3.0
 42
3.0
 43
3.0
 50
111.8014100000027
  0
INSERT
  5
3232
330
2D35
100
AcDbEntity
  8
SUNPOU
100
AcDbBlockReference
  2
_OPEN
 10
273.5130431740361
 20
117.7599369990768
 30
0.0
 41
3.0
 42
3.0
 43
3.0
 50
291.8014100000028
  0
MTEXT
  5
3233
330
2D35
100
AcDbEntity
  8
SUNPOU
100
AcDbMText
 10
269.1492025687251
 20
135.4009940867753
 30
0.0
 40
3.0
 41
0.0
 71
     5
 72
     1
  1
\A1;36
 11
0.3713906846778052
 21
-0.9284766875557787
 31
0.0
1001
ACAD
1000
MTEXTBEGIN
1070
    73
1070
     1
1070
    44
1040
1.0
1070
    74
1070
     0
1000
MTEXTEND
  0
POINT
  5
3234
330
2D35
100
AcDbEntity
  8
DEFPOINTS
 62
     0
100
AcDbPoint
 10
287.9725394877734
 20
162.3169224253477
 30
0.0
  0
POINT
  5
3235
330
2D35
100
AcDbEntity
  8
DEFPOINTS
 62
     0
100
AcDbPoint
 10
301.3426041361728
 20
128.891761673339
 30
0.0
  0
POINT
  5
3236
330
2D35
100
AcDbEntity
  8
DEFPOINTS
 62
     0
100
AcDbPoint
 10
273.5130431740361
 20
117.7599369990768
 30
0.0
  0
ENDBLK
  5
2D40
330
2D35
100
AcDbEntity
  8
0
100
AcDbBlockEnd
  0
BLOCK
  5
2D4D
330
2D41
100
AcDbEntity
  8
0
100
AcDbBlockBegin
  2
*D8
 70
     1
 10
0.0
 20
0.0
 30
0.0
  3
*D8
  1

  0
LINE
  5
3237
330
2D41
100
AcDbEntity
  8
SUNPOU
100
AcDbLine
 10
294.1004859463832
 20
131.9185956312005
 30
0.0
 11
279.2449060829308
 21
125.9763635313321
 31
0.0
  0
LINE
  5
3238
330
2D41
100
AcDbEntity
  8
SUNPOU
100
AcDbLine
 10
298.5571740735054
 20
127.7775896193056
 30
0.0
 11
281.2875548486588
 21
120.8697417497753
 31
0.0
  0
LINE
  5
3239
330
2D41
100
AcDbEntity
  8
SUNPOU
100
AcDbLine
 10
279.523449060231
 20
129.3188796210162
 30
0.0
 11
278.4092770061976
 21
132.1043096836835
 31
0.0
  0
LINE
  5
323A
330
2D41
100
AcDbEntity
  8
SUNPOU
100
AcDbLine
 10
283.7944419340258
 20
118.6413977141246
 30
0.0
 11
284.9086139880593
 21
115.8559676514573
 31
0.0
  0
LINE
  5
323B
330
2D41
100
AcDbEntity
  8
SUNPOU
100
AcDbLine
 10
280.6376211142644
 20
126.5334495583489
 30
0.0
 11
282.6802698799924
 21
121.426827776792
 31
0.0
  0
INSERT
  5
323C
330
2D41
100
AcDbEntity
  8
SUNPOU
100
AcDbBlockReference
  2
_OPEN
 10
280.6376211142644
 20
126.5334495583489
 30
0.0
 41
3.0
 42
3.0
 43
3.0
 50
291.8014100000028
  0
INSERT
  5
323D
330
2D41
100
AcDbEntity
  8
SUNPOU
100
AcDbBlockReference
  2
_OPEN
 10
282.6802698799924
 20
121.426827776792
 30
0.0
 41
3.0
 42
3.0
 43
3.0
 50
111.8014100000027
  0
MTEXT
  5
323E
330
2D41
100
AcDbEntity
  8
SUNPOU
100
AcDbMText
 10
283.980137216018
 20
124.9086153792649
 30
0.0
 40
3.0
 41
0.0
 71
     5
 72
     1
  1
\A1;6
 11
0.3713906846778052
 21
-0.9284766875557787
 31
0.0
1001
ACAD
1000
MTEXTBEGIN
1070
    73
1070
     1
1070
    44
1040
1.0
1070
    74
1070
     0
1000
MTEXTEND
  0
POINT
  5
323F
330
2D41
100
AcDbEntity
  8
DEFPOINTS
 62
     0
100
AcDbPoint
 10
296.8859160090505
 20
133.0327676852339
 30
0.0
  0
POINT
  5
3240
330
2D41
100
AcDbEntity
  8
DEFPOINTS
 62
     0
100
AcDbPoint
 10
301.3426041361728
 20
128.891761673339
 30
0.0
  0
POINT
  5
3241
330
2D41
100
AcDbEntity
  8
DEFPOINTS
 62
     0
100
AcDbPoint
 10
282.6802698799924
 20
121.426827776792
 30
0.0
  0
ENDBLK
  5
2D4E
330
2D41
100
AcDbEntity
  8
0
100
AcDbBlockEnd
  0
BLOCK
  5
2D59
330
2D4F
100
AcDbEntity
  8
0
100
AcDbBlockBegin
  2
*D9
 70
     1
 10
0.0
 20
0.0
 30
0.0
  3
*D9
  1

  0
LINE
  5
3242
330
2D4F
100
AcDbEntity
  8
SUNPOU
100
AcDbLine
 10
336.2533272406749
 20
181.6292380285914
 30
0.0
 11
351.6428342612237
 21
187.7850409968508
 31
0.0
  0
LINE
  5
3243
330
2D4F
100
AcDbEntity
  8
SUNPOU
100
AcDbLine
 10
343.3097502012751
 20
169.3733457721657
 30
0.0
 11
356.842303846713
 21
174.7863673710698
 31
0.0
  0
LINE
  5
3244
330
2D4F
100
AcDbEntity
  8
SUNPOU
100
AcDbLine
 10
351.3642912839235
 20
184.4425249071667
 30
0.0
 11
354.3354167613459
 21
177.0147114067204
 31
0.0
  0
INSERT
  5
3245
330
2D4F
100
AcDbEntity
  8
SUNPOU
100
AcDbBlockReference
  2
_OPEN
 10
350.25011922989
 20
187.2279549698341
 30
0.0
 41
3.0
 42
3.0
 43
3.0
 50
111.8014100000027
  0
INSERT
  5
3246
330
2D4F
100
AcDbEntity
  8
SUNPOU
100
AcDbBlockReference
  2
_OPEN
 10
355.4495888153794
 20
174.2292813440531
 30
0.0
 41
3.0
 42
3.0
 43
3.0
 50
291.8014100000028
  0
MTEXT
  5
3247
330
2D4F
100
AcDbEntity
  8
SUNPOU
100
AcDbMText
 10
355.1710457415242
 20
181.6570948686381
 30
0.0
 40
3.0
 41
0.0
 71
     5
 72
     1
  1
\A1;14
 11
0.3713906846778052
 21
-0.9284766875557787
 31
0.0
1001
ACAD
1000
MTEXTBEGIN
1070
    73
1070
     1
1070
    44
1040
1.0
1070
    74
1070
     0
1000
MTEXTEND
  0
POINT
  5
3248
330
2D4F
100
AcDbEntity
  8
DEFPOINTS
 62
     0
100
AcDbPoint
 10
333.4678971780075
 20
180.515065974558
 30
0.0
  0
POINT
  5
3249
330
2D4F
100
AcDbEntity
  8
DEFPOINTS
 62
     0
100
AcDbPoint
 10
340.5243201386078
 20
168.2591737181323
 30
0.0
  0
POINT
  5
324A
330
2D4F
100
AcDbEntity
  8
DEFPOINTS
 62
     0
100
AcDbPoint
 10
355.4495888153794
 20
174.2292813440531
 30
0.0
  0
ENDBLK
  5
2D5A
330
2D4F
100
AcDbEntity
  8
0
100
AcDbBlockEnd
  0
BLOCK
  5
2D65
330
2D5B
100
AcDbEntity
  8
0
100
AcDbBlockBegin
  2
*D10
 70
     1
 10
0.0
 20
0.0
 30
0.0
  3
*D10
  1

  0
LINE
  5
3268
330
2D5B
100
AcDbEntity
  8
SUNPOU
100
AcDbLine
 10
289.8852014398792
 20
166.9593058706703
 30
0.0
 11
274.6827734222029
 21
204.9653749267801
 31
0.0
  0
LINE
  5
3269
330
2D5B
100
AcDbEntity
  8
SUNPOU
100
AcDbLine
 10
328.8812223172226
 20
182.5577146271363
 30
0.0
 11
313.6787942995468
 21
220.5637836832448
 31
0.0
  0
LINE
  5
326A
330
2D5B
100
AcDbEntity
  8
SUNPOU
100
AcDbLine
 10
278.0252895118869
 20
204.6868319494796
 30
0.0
 11
311.450450263896
 21
218.0568965978778
 31
0.0
  0
INSERT
  5
326B
330
2D5B
100
AcDbEntity
  8
SUNPOU
100
AcDbBlockReference
  2
_OPEN
 10
275.2398594492195
 20
203.5726598954464
 30
0.0
 41
3.0
 42
3.0
 43
3.0
 50
201.8014099999981
  0
INSERT
  5
326C
330
2D5B
100
AcDbEntity
  8
SUNPOU
100
AcDbBlockReference
  2
_OPEN
 10
314.2358803265634
 20
219.171068651911
 30
0.0
 41
3.0
 42
3.0
 43
3.0
 50
21.80140999999812
  0
MTEXT
  5
326D
330
2D5B
100
AcDbEntity
  8
SUNPOU
100
AcDbMText
 10
293.8093931761971
 20
213.6930559925682
 30
0.0
 40
3.0
 41
0.0
 71
     5
 72
     1
  1
\A1;42
 11
0.9284766875558089
 21
0.3713906846777295
 31
0.0
1001
ACAD
1000
MTEXTBEGIN
1070
    73
1070
     1
1070
    44
1040
1.0
1070
    74
1070
     0
1000
MTEXTEND
  0
POINT
  5
326E
330
2D5B
100
AcDbEntity
  8
DEFPOINTS
 62
     0
100
AcDbPoint
 10
290.9993734939124
 20
164.1738758080029
 30
0.0
  0
POINT
  5
326F
330
2D5B
100
AcDbEntity
  8
DEFPOINTS
 62
     0
100
AcDbPoint
 10
329.9953943712558
 20
179.7722845644688
 30
0.0
  0
POINT
  5
3270
330
2D5B
100
AcDbEntity
  8
DEFPOINTS
 62
     0
100
AcDbPoint
 10
314.2358803265634
 20
219.171068651911
 30
0.0
  0
ENDBLK
  5
2D66
330
2D5B
100
AcDbEntity
  8
0
100
AcDbBlockEnd
  0
BLOCK
  5
2D71
330
2D67
100
AcDbEntity
  8
0
100
AcDbBlockBegin
  2
*D11
 70
     1
 10
0.0
 20
0.0
 30
0.0
  3
*D11
  1

  0
LINE
  5
324B
330
2D67
100
AcDbEntity
  8
SUNPOU
100
AcDbLine
 10
285.7441954279842
 20
162.502617743548
 30
0.0
 11
266.6271972349863
 21
210.2951119835346
 31
0.0
  0
LINE
  5
324C
330
2D67
100
AcDbEntity
  8
SUNPOU
100
AcDbLine
 10
334.9534598684414
 20
182.1863240314693
 30
0.0
 11
315.8364616754441
 21
229.9788182714542
 31
0.0
  0
LINE
  5
324D
330
2D67
100
AcDbEntity
  8
SUNPOU
100
AcDbLine
 10
269.9697133246703
 20
210.016569006234
 30
0.0
 11
313.6081176397934
 21
227.4719311860873
 31
0.0
  0
INSERT
  5
324E
330
2D67
100
AcDbEntity
  8
SUNPOU
100
AcDbBlockReference
  2
_OPEN
 10
267.1842832620029
 20
208.9023969522008
 30
0.0
 41
3.0
 42
3.0
 43
3.0
 50
201.8014099999981
  0
INSERT
  5
324F
330
2D67
100
AcDbEntity
  8
SUNPOU
100
AcDbBlockReference
  2
_OPEN
 10
316.3935477024608
 20
228.5861032401205
 30
0.0
 41
3.0
 42
3.0
 43
3.0
 50
21.80140999999812
  0
MTEXT
  5
3250
330
2D67
100
AcDbEntity
  8
SUNPOU
100
AcDbMText
 10
290.8604387705374
 20
221.0654418150502
 30
0.0
 40
3.0
 41
0.0
 71
     5
 72
     1
  1
\A1;53
 11
0.9284766875558089
 21
0.3713906846777295
 31
0.0
1001
ACAD
1000
MTEXTBEGIN
1070
    73
1070
     1
1070
    44
1040
1.0
1070
    74
1070
     0
1000
MTEXTEND
  0
POINT
  5
3251
330
2D67
100
AcDbEntity
  8
DEFPOINTS
 62
     0
100
AcDbPoint
 10
286.8583674820174
 20
159.7171876808806
 30
0.0
  0
POINT
  5
3252
330
2D67
100
AcDbEntity
  8
DEFPOINTS
 62
     0
100
AcDbPoint
 10
336.0676319224746
 20
179.4008939688019
 30
0.0
  0
POINT
  5
3253
330
2D67
100
AcDbEntity
  8
DEFPOINTS
 62
     0
100
AcDbPoint
 10
316.3935477024608
 20
228.5861032401205
 30
0.0
  0
ENDBLK
  5
2D72
330
2D67
100
AcDbEntity
  8
0
100
AcDbBlockEnd
  0
BLOCK
  5
2D7D
330
2D73
100
AcDbEntity
  8
0
100
AcDbBlockBegin
  2
*D12
 70
     1
 10
0.0
 20
0.0
 30
0.0
  3
*D12
  1

  0
LINE
  5
325F
330
2D73
100
AcDbEntity
  8
SUNPOU
100
AcDbLine
 10
294.0892302258536
 20
160.4881076938067
 30
0.0
 11
279.2031671931713
 21
197.7032643079938
 31
0.0
  0
LINE
  5
3260
330
2D73
100
AcDbEntity
  8
SUNPOU
100
AcDbLine
 10
330.2998210405297
 20
174.9723443962394
 30
0.0
 11
315.4137580078478
 21
212.1875010104253
 31
0.0
  0
LINE
  5
3261
330
2D73
100
AcDbEntity
  8
SUNPOU
100
AcDbLine
 10
282.5456832828553
 20
197.4247213306933
 30
0.0
 11
313.185413972197
 21
209.6806139250584
 31
0.0
  0
INSERT
  5
3262
330
2D73
100
AcDbEntity
  8
SUNPOU
100
AcDbBlockReference
  2
_OPEN
 10
279.7602532201878
 20
196.3105492766601
 30
0.0
 41
3.0
 42
3.0
 43
3.0
 50
201.8014099999981
  0
INSERT
  5
3263
330
2D73
100
AcDbEntity
  8
SUNPOU
100
AcDbBlockReference
  2
_OPEN
 10
315.9708440348645
 20
210.7947859790916
 30
0.0
 41
3.0
 42
3.0
 43
3.0
 50
21.80140999999812
  0
MTEXT
  5
3264
330
2D73
100
AcDbEntity
  8
SUNPOU
100
AcDbMText
 10
296.9370719158319
 20
205.8738593467654
 30
0.0
 40
3.0
 41
0.0
 71
     5
 72
     1
  1
\A1;39
 11
0.9284766875558089
 21
0.3713906846777295
 31
0.0
1001
ACAD
1000
MTEXTBEGIN
1070
    73
1070
     1
1070
    44
1040
1.0
1070
    74
1070
     0
1000
MTEXTEND
  0
POINT
  5
3265
330
2D73
100
AcDbEntity
  8
DEFPOINTS
 62
     0
100
AcDbPoint
 10
295.2034022798867
 20
157.7026776311393
 30
0.0
  0
POINT
  5
3266
330
2D73
100
AcDbEntity
  8
DEFPOINTS
 62
     0
100
AcDbPoint
 10
331.4139930945629
 20
172.186914333572
 30
0.0
  0
POINT
  5
3267
330
2D73
100
AcDbEntity
  8
DEFPOINTS
 62
     0
100
AcDbPoint
 10
315.9708440348645
 20
210.7947859790916
 30
0.0
  0
ENDBLK
  5
2D7E
330
2D73
100
AcDbEntity
  8
0
100
AcDbBlockEnd
  0
BLOCK
  5
2E7E
330
2E74
100
AcDbEntity
  8
0
100
AcDbBlockBegin
  2
*D13
 70
     1
 10
0.0
 20
0.0
 30
0.0
  3
*D13
  1

  0
LINE
  5
3211
330
2E74
100
AcDbEntity
  8
SUNPOU
100
AcDbLine
 10
61.60817800217898
 20
91.51341591823262
 30
0.0
 11
61.60817800217899
 21
161.5343795469315
 31
0.0
  0
LINE
  5
3212
330
2E74
100
AcDbEntity
  8
SUNPOU
100
AcDbLine
 10
189.0099520993565
 20
136.8887634113498
 30
0.0
 11
189.0099520993565
 21
161.5343795469315
 31
0.0
  0
LINE
  5
3213
330
2E74
100
AcDbEntity
  8
SUNPOU
100
AcDbLine
 10
64.60817800217899
 20
160.0343795469315
 30
0.0
 11
186.0099520993566
 21
160.0343795469315
 31
0.0
  0
INSERT
  5
3214
330
2E74
100
AcDbEntity
  8
SUNPOU
100
AcDbBlockReference
  2
_OPEN
 10
61.60817800217899
 20
160.0343795469315
 30
0.0
 41
3.0
 42
3.0
 43
3.0
 50
180.0
  0
INSERT
  5
3215
330
2E74
100
AcDbEntity
  8
SUNPOU
100
AcDbBlockReference
  2
_OPEN
 10
189.0099520993565
 20
160.0343795469315
 30
0.0
 41
3.0
 42
3.0
 43
3.0
  0
MTEXT
  5
3216
330
2E74
100
AcDbEntity
  8
SUNPOU
100
AcDbMText
 10
125.3090650507677
 20
162.5343795469315
 30
0.0
 40
3.0
 41
0.0
 71
     5
 72
     1
  1
\A1;127
1001
ACAD
1000
MTEXTBEGIN
1070
    73
1070
     1
1070
    44
1040
1.0
1070
    74
1070
     0
1000
MTEXTEND
  0
POINT
  5
3217
330
2E74
100
AcDbEntity
  8
DEFPOINTS
 62
     0
100
AcDbPoint
 10
61.60817800217898
 20
88.51341591823262
 30
0.0
  0
POINT
  5
3218
330
2E74
100
AcDbEntity
  8
DEFPOINTS
 62
     0
100
AcDbPoint
 10
189.0099520993565
 20
133.8887634113498
 30
0.0
  0
POINT
  5
3219
330
2E74
100
AcDbEntity
  8
DEFPOINTS
 62
     0
100
AcDbPoint
 10
189.0099520993565
 20
160.0343795469315
 30
0.0
  0
ENDBLK
  5
2E7F
330
2E74
100
AcDbEntity
  8
0
100
AcDbBlockEnd
  0
BLOCK
  5
2ED5
330
2EC9
100
AcDbEntity
  8
0
100
AcDbBlockBegin
  2
*D14
 70
     1
 10
0.0
 20
0.0
 30
0.0
  3
*D14
  1

  0
LINE
  5
321A
330
2EC9
100
AcDbEntity
  8
SUNPOU
100
AcDbLine
 10
61.78277217328573
 20
93.29417434315072
 30
0.0
 11
38.65993299874662
 21
93.29417434315072
 31
0.0
  0
LINE
  5
321B
330
2EC9
100
AcDbEntity
  8
SUNPOU
100
AcDbLine
 10
203.2272149351789
 20
90.84560632823269
 30
0.0
 11
38.65993299874661
 21
90.84560632823274
 31
0.0
  0
LINE
  5
321C
330
2EC9
100
AcDbEntity
  8
SUNPOU
100
AcDbLine
 10
40.15993299874662
 20
96.29417434315072
 30
0.0
 11
40.15993299874662
 21
99.29417434315071
 31
0.0
  0
LINE
  5
321D
330
2EC9
100
AcDbEntity
  8
SUNPOU
100
AcDbLine
 10
40.15993299874662
 20
87.84560632823273
 30
0.0
 11
40.15993299874662
 21
80.84560632823274
 31
0.0
  0
LINE
  5
321E
330
2EC9
100
AcDbEntity
  8
SUNPOU
100
AcDbLine
 10
40.15993299874662
 20
93.29417434315072
 30
0.0
 11
40.15993299874662
 21
90.84560632823274
 31
0.0
  0
INSERT
  5
321F
330
2EC9
100
AcDbEntity
  8
SUNPOU
100
AcDbBlockReference
  2
_OPEN
 10
40.15993299874662
 20
93.29417434315072
 30
0.0
 41
3.0
 42
3.0
 43
3.0
 50
270.0
  0
INSERT
  5
3220
330
2EC9
100
AcDbEntity
  8
SUNPOU
100
AcDbBlockReference
  2
_OPEN
 10
40.15993299874662
 20
90.84560632823274
 30
0.0
 41
3.0
 42
3.0
 43
3.0
 50
90.0
  0
MTEXT
  5
3221
330
2EC9
100
AcDbEntity
  8
SUNPOU
100
AcDbMText
 10
37.65993299874661
 20
82.84560632823275
 30
0.0
 40
3.0
 41
0.0
 71
     5
 72
     1
  1
\A1;2
 11
0.0000000000000001
 21
1.0
 31
0.0
1001
ACAD
1000
MTEXTBEGIN
1070
    73
1070
     1
1070
    44
1040
1.0
1070
    74
1070
     0
1000
MTEXTEND
  0
POINT
  5
3222
330
2EC9
100
AcDbEntity
  8
DEFPOINTS
 62
     0
100
AcDbPoint
 10
64.78277217328572
 20
93.29417434315072
 30
0.0
  0
POINT
  5
3223
330
2EC9
100
AcDbEntity
  8
DEFPOINTS
 62
     0
100
AcDbPoint
 10
206.227214935179
 20
90.84560632823269
 30
0.0
  0
POINT
  5
3224
330
2EC9
100
AcDbEntity
  8
DEFPOINTS
 62
     0
100
AcDbPoint
 10
40.15993299874662
 20
90.84560632823274
 30
0.0
  0
ENDBLK
  5
2ED6
330
2EC9
100
AcDbEntity
  8
0
100
AcDbBlockEnd
  0
BLOCK
  5
2F72
330
2F68
100
AcDbEntity
  8
0
100
AcDbBlockBegin
  2
*D15
 70
     1
 10
0.0
 20
0.0
 30
0.0
  3
*D15
  1

  0
LINE
  5
3208
330
2F68
100
AcDbEntity
  8
SUNPOU
100
AcDbLine
 10
179.446377997097
 20
100.5065159171258
 30
0.0
 11
179.446377997097
 21
152.629742243712
 31
0.0
  0
LINE
  5
3209
330
2F68
100
AcDbEntity
  8
SUNPOU
100
AcDbLine
 10
189.0099520993565
 20
136.8887634113498
 30
0.0
 11
189.0099520993565
 21
152.629742243712
 31
0.0
  0
LINE
  5
320A
330
2F68
100
AcDbEntity
  8
SUNPOU
100
AcDbLine
 10
182.446377997097
 20
151.129742243712
 30
0.0
 11
186.0099520993566
 21
151.129742243712
 31
0.0
  0
INSERT
  5
320B
330
2F68
100
AcDbEntity
  8
SUNPOU
100
AcDbBlockReference
  2
_OPEN
 10
179.446377997097
 20
151.129742243712
 30
0.0
 41
3.0
 42
3.0
 43
3.0
 50
180.0
  0
INSERT
  5
320C
330
2F68
100
AcDbEntity
  8
SUNPOU
100
AcDbBlockReference
  2
_OPEN
 10
189.0099520993565
 20
151.129742243712
 30
0.0
 41
3.0
 42
3.0
 43
3.0
  0
MTEXT
  5
320D
330
2F68
100
AcDbEntity
  8
SUNPOU
100
AcDbMText
 10
184.2281650482268
 20
153.629742243712
 30
0.0
 40
3.0
 41
0.0
 71
     5
 72
     1
  1
\A1;10
1001
ACAD
1000
MTEXTBEGIN
1070
    73
1070
     1
1070
    44
1040
1.0
1070
    74
1070
     0
1000
MTEXTEND
  0
POINT
  5
320E
330
2F68
100
AcDbEntity
  8
DEFPOINTS
 62
     0
100
AcDbPoint
 10
179.446377997097
 20
97.50651591712585
 30
0.0
  0
POINT
  5
320F
330
2F68
100
AcDbEntity
  8
DEFPOINTS
 62
     0
100
AcDbPoint
 10
189.0099520993565
 20
133.8887634113498
 30
0.0
  0
POINT
  5
3210
330
2F68
100
AcDbEntity
  8
DEFPOINTS
 62
     0
100
AcDbPoint
 10
189.0099520993565
 20
151.129742243712
 30
0.0
  0
ENDBLK
  5
2F73
330
2F68
100
AcDbEntity
  8
0
100
AcDbBlockEnd
  0
ENDSEC
  0
SECTION
  2
ENTITIES
  0
LINE
  5
363
330
1A
100
AcDbEntity
  8
SEIHIN
100
AcDbLine
 10
86.508278002179
 20
74.11981226823264
 30
0.0
 11
111.508278004179
 21
74.11981226823264
 31
0.0
  0
ARC
  5
364
330
1A
100
AcDbEntity
  8
SEIHIN
100
AcDbCircle
 10
102.0082780021789
 20
94.61341591823265
 30
0.0
 40
9.535085152808647
100
AcDbArc
 50
4.916661302937908
 51
179.999861547953
  0
LINE
  5
367
330
1A
100
AcDbEntity
  8
SEIHIN
100
AcDbLine
 10
92.47319285217901
 20
94.61343895923263
 30
0.0
 11
92.473173202179
 21
86.28168845823266
 31
0.0
  0
LINE
  5
368
330
1A
100
AcDbEntity
  8
SEIHIN
100
AcDbLine
 10
86.508278002179
 20
74.11981226823264
 30
0.0
 11
86.508278002179
 21
93.11981227023265
 31
0.0
  0
LINE
  5
369
330
1A
100
AcDbEntity
  8
SEIHIN
100
AcDbLine
 10
90.473189332179
 20
93.11980991223265
 30
0.0
 11
90.47317320217899
 21
86.28168845823266
 31
0.0
  0
LINE
  5
36A
330
1A
100
AcDbEntity
  8
SEIHIN
100
AcDbLine
 10
91.10827800217903
 20
93.31341591823264
 30
0.0
 11
91.10826385217899
 21
87.31341591823264
 31
0.0
  0
LINE
  5
36B
330
1A
100
AcDbEntity
  8
SEIHIN
100
AcDbLine
 10
92.10827800217902
 20
93.31341591823264
 30
0.0
 11
92.10826385217899
 21
87.31341356023264
 31
0.0
  0
LINE
  5
36F
330
1A
100
AcDbEntity
  8
SEIHIN
100
AcDbLine
 10
90.47317320217899
 20
86.28168845823266
 30
0.0
 11
92.473173202179
 21
86.28168845823266
 31
0.0
  0
LINE
  5
370
330
1A
100
AcDbEntity
  8
SEIHIN
100
AcDbLine
 10
91.10826385217899
 20
87.31341591823264
 30
0.0
 11
92.47317563217899
 21
87.31341591823264
 31
0.0
  0
LINE
  5
371
330
1A
100
AcDbEntity
  8
SEIHIN
100
AcDbLine
 10
105.008278002179
 20
83.81341591823263
 30
0.0
 11
105.008278002179
 21
79.81341591823263
 31
0.0
  0
LINE
  5
372
330
1A
100
AcDbEntity
  8
SEIHIN
100
AcDbLine
 10
98.008278002179
 20
83.81341591823263
 30
0.0
 11
98.008278002179
 21
79.81341591823263
 31
0.0
  0
MTEXT
  5
373
330
1A
100
AcDbEntity
  8
SEIHIN
100
AcDbMText
 10
99.86122378217899
 20
81.69340316223264
 30
0.0
 40
2.381249964
 41
0.0
 71
     1
 72
     5
  1
{\W1.460317;10}
1001
ACAD
1000
MTEXTBEGIN
1070
    73
1070
     1
1070
    44
1040
1.0
1070
    74
1070
     0
1000
MTEXTEND
1000
MTEXTBEGIN
1070
    73
1070
     1
1070
    44
1040
1.0
1070
    74
1070
     0
1000
MTEXTEND
1000
MTEXTBEGIN
1070
    73
1070
     1
1070
    44
1040
1.0
1070
    74
1070
     0
1000
MTEXTEND
1000
MTEXTBEGIN
1070
    73
1070
     1
1070
    44
1040
1.0
1070
    74
1070
     0
1000
MTEXTEND
1000
MTEXTBEGIN
1070
    73
1070
     1
1070
    44
1040
1.0
1070
    74
1070
     0
1000
MTEXTEND
1000
MTEXTBEGIN
1070
    73
1070
     1
1070
    44
1040
1.0
1070
    74
1070
     0
1000
MTEXTEND
1000
MTEXTBEGIN
1070
    73
1070
     1
1070
    44
1040
1.0
1070
    74
1070
     0
1000
MTEXTEND
1000
MTEXTBEGIN
1070
    73
1070
     1
1070
    44
1040
1.0
1070
    74
1070
     0
1000
MTEXTEND
1000
MTEXTBEGIN
1070
    73
1070
     1
1070
    44
1040
1.0
1070
    74
1070
     0
1000
MTEXTEND
1000
MTEXTBEGIN
1070
    73
1070
     1
1070
    44
1040
1.0
1070
    74
1070
     0
1000
MTEXTEND
  0
LINE
  5
374
330
1A
100
AcDbEntity
  8
SEIHIN
100
AcDbLine
 10
104.0082780021789
 20
78.81341591823264
 30
0.0
 11
99.008278002179
 21
78.81341591823264
 31
0.0
  0
LINE
  5
375
330
1A
100
AcDbEntity
  8
SEIHIN
100
AcDbLine
 10
102.662978542179
 20
76.81341591823263
 30
0.0
 11
100.353577462179
 21
76.81341591823263
 31
0.0
  0
LINE
  5
376
330
1A
100
AcDbEntity
  8
SEIHIN
100
AcDbLine
 10
101.508278002179
 20
78.81341591823264
 30
0.0
 11
100.353577462179
 21
76.81341591823263
 31
0.0
  0
ARC
  5
377
330
1A
100
AcDbEntity
  8
SEIHIN
100
AcDbCircle
 10
99.008278002179
 20
79.81341591823263
 30
0.0
 40
1.0
100
AcDbArc
 50
180.0
 51
270.0
  0
ARC
  5
378
330
1A
100
AcDbEntity
  8
SEIHIN
100
AcDbCircle
 10
104.0082780021789
 20
79.81341591823263
 30
0.0
 40
1.0
100
AcDbArc
 50
270.0
 51
0.0
  0
LINE
  5
379
330
1A
100
AcDbEntity
  8
SEIHIN
100
AcDbLine
 10
101.508278002179
 20
78.81341591823264
 30
0.0
 11
102.662978542179
 21
76.81341591823263
 31
0.0
  0
LINE
  5
37A
330
1A
100
AcDbEntity
  8
SEIHIN
100
AcDbLine
 10
101.265028002179
 20
84.81341591823264
 30
0.0
 11
101.765028002179
 21
84.81341591823264
 31
0.0
  0
LINE
  5
37B
330
1A
100
AcDbEntity
  8
SEIHIN
100
AcDbLine
 10
99.008278002179
 20
84.81341591823264
 30
0.0
 11
104.0082780021789
 21
84.81341591823264
 31
0.0
  0
LINE
  5
37C
330
1A
100
AcDbEntity
  8
SEIHIN
100
AcDbLine
 10
101.265028002179
 20
84.81341591823264
 30
0.0
 11
101.765028002179
 21
84.81341591823264
 31
0.0
  0
LINE
  5
37D
330
1A
100
AcDbEntity
  8
SEIHIN
100
AcDbLine
 10
101.765028002179
 20
82.81341591823263
 30
0.0
 11
101.265028002179
 21
82.81341591823263
 31
0.0
  0
ARC
  5
37E
330
1A
100
AcDbEntity
  8
SEIHIN
100
AcDbCircle
 10
99.008278002179
 20
83.81341591823263
 30
0.0
 40
1.0
100
AcDbArc
 50
90.0
 51
180.0
  0
LINE
  5
37F
330
1A
100
AcDbEntity
  8
SEIHIN
100
AcDbLine
 10
101.265028002179
 20
82.81341591823263
 30
0.0
 11
101.265028002179
 21
84.81341591823264
 31
0.0
  0
ARC
  5
380
330
1A
100
AcDbEntity
  8
SEIHIN
100
AcDbCircle
 10
104.0082780021789
 20
83.81341591823263
 30
0.0
 40
1.0
100
AcDbArc
 50
0.0
 51
90.0
  0
LINE
  5
381
330
1A
100
AcDbEntity
  8
SEIHIN
100
AcDbLine
 10
101.765028002179
 20
84.81341591823264
 30
0.0
 11
101.765028002179
 21
82.81341591823263
 31
0.0
  0
ARC
  5
384
330
1A
100
AcDbEntity
  8
SEIHIN
100
AcDbCircle
 10
87.508278002179
 20
93.11981227023265
 30
0.0
 40
1.0
100
AcDbArc
 50
90.0
 51
180.0
  0
ARC
  5
387
330
1A
100
AcDbEntity
  8
SEIHIN
100
AcDbCircle
 10
89.473189332179
 20
93.11981227023265
 30
0.0
 40
1.000000000001389
100
AcDbArc
 50
359.9998648965517
 51
90.0
  0
LINE
  5
388
330
1A
100
AcDbEntity
  8
SEIHIN
100
AcDbLine
 10
89.473189332179
 20
94.11981227023265
 30
0.0
 11
87.508278002179
 21
94.11981227023265
 31
0.0
  0
LINE
  5
389
330
1A
100
AcDbEntity
  8
SEIHIN
100
AcDbLine
 10
91.10827800217903
 20
93.31341591823264
 30
0.0
 11
92.47318978217903
 21
93.31341591823264
 31
0.0
  0
CIRCLE
  5
38B
330
1A
100
AcDbEntity
  8
SEIHIN
100
AcDbCircle
 10
101.508278002179
 20
98.11341591823264
 30
0.0
 40
3.500000004238516
  0
LINE
  5
38F
330
1A
100
AcDbEntity
  8
SEIHIN
100
AcDbLine
 10
111.508278004179
 20
74.11981226823264
 30
0.0
 11
111.508278004179
 21
95.43063613723266
 31
0.0
  0
LINE
  5
3DF
330
1A
100
AcDbEntity
  8
SEIHIN
100
AcDbLine
 10
91.041180972179
 20
217.2468944154381
 30
0.0
 11
91.041180972179
 21
213.7468944154381
 31
0.0
  0
LINE
  5
3E0
330
1A
100
AcDbEntity
  8
SEIHIN
100
AcDbLine
 10
92.041180972179
 20
214.2468944154381
 30
0.0
 11
92.041180972179
 21
217.2468944154381
 31
0.0
  0
LINE
  5
3E4
330
1A
100
AcDbEntity
  8
SEIHIN
100
AcDbLine
 10
92.54118097217901
 20
213.7468944154381
 30
0.0
 11
204.199547885179
 21
213.7468944154381
 31
0.0
  0
LINE
  5
3E5
330
1A
100
AcDbEntity
  8
SEIHIN
100
AcDbLine
 10
92.54118097217901
 20
198.7468943754381
 30
0.0
 11
204.199547885179
 21
198.7468943754381
 31
0.0
  0
LINE
  5
3E6
330
1A
100
AcDbEntity
  8
SEIHIN
100
AcDbLine
 10
92.041180972179
 20
199.7468943754381
 30
0.0
 11
204.1995478851789
 21
199.7468943754381
 31
0.0
  0
LINE
  5
3E7
330
1A
100
AcDbEntity
  8
SEIHIN
100
AcDbLine
 10
92.041180972179
 20
212.7468944154381
 30
0.0
 11
204.1995478851789
 21
212.7468944154381
 31
0.0
  0
LINE
  5
3E8
330
1A
100
AcDbEntity
  8
SEIHIN
100
AcDbLine
 10
121.9145611021789
 20
209.2468943754381
 30
0.0
 11
198.4031943778889
 21
209.2468943754381
 31
0.0
  0
LINE
  5
3E9
330
1A
100
AcDbEntity
  8
SEIHIN
100
AcDbLine
 10
121.9145611021789
 20
203.2468943754381
 30
0.0
 11
198.4039081220924
 21
203.2468943754381
 31
0.0
  0
LINE
  5
3EB
330
1A
100
AcDbEntity
  8
SEIHIN
100
AcDbLine
 10
92.32756441217901
 20
199.9748207354381
 30
0.0
 11
119.9145611021789
 21
199.9748207354381
 31
0.0
  0
LINE
  5
3EC
330
1A
100
AcDbEntity
  8
SEIHIN
100
AcDbLine
 10
95.11708396217901
 20
202.0924503654381
 30
0.0
 11
117.1757710871789
 21
202.0924503654381
 31
0.0
  0
LINE
  5
3ED
330
1A
100
AcDbEntity
  8
SEIHIN
100
AcDbLine
 10
92.32756441217901
 20
212.5189680154381
 30
0.0
 11
119.9145611021789
 21
212.5189680154381
 31
0.0
  0
LINE
  5
3EE
330
1A
100
AcDbEntity
  8
SEIHIN
100
AcDbLine
 10
95.11708396217901
 20
210.4013384154381
 30
0.0
 11
117.1757710871789
 21
210.4013384154381
 31
0.0
  0
LINE
  5
3EF
330
1A
100
AcDbEntity
  8
SEIHIN
100
AcDbLine
 10
111.508278004179
 20
198.2468943754381
 30
0.0
 11
92.47343151217899
 21
198.2469403754381
 31
0.0
  0
LINE
  5
3F0
330
1A
100
AcDbEntity
  8
SEIHIN
100
AcDbLine
 10
92.47347018217899
 20
214.2468944154381
 30
0.0
 11
111.508278004179
 21
214.2468944154381
 31
0.0
  0
LINE
  5
3F1
330
1A
100
AcDbEntity
  8
SEIHIN
100
AcDbLine
 10
92.32756441217901
 20
204.3222830354381
 30
0.0
 11
95.11708396217901
 21
204.3222830354381
 31
0.0
  0
LINE
  5
3F2
330
1A
100
AcDbEntity
  8
SEIHIN
100
AcDbLine
 10
92.32756441217901
 20
208.1715057154381
 30
0.0
 11
95.11708396217901
 21
208.1715057154381
 31
0.0
  0
LINE
  5
3F3
330
1A
100
AcDbEntity
  8
SEIHIN
100
AcDbLine
 10
95.11708396217901
 20
211.5189680154381
 30
0.0
 11
92.32756441217901
 21
211.5189680154381
 31
0.0
  0
LINE
  5
3F4
330
1A
100
AcDbEntity
  8
SEIHIN
100
AcDbLine
 10
95.11708396217901
 20
200.9748207354381
 30
0.0
 11
92.32756441217901
 21
200.9748207354381
 31
0.0
  0
ARC
  5
3F5
330
1A
100
AcDbEntity
  8
SEIHIN
100
AcDbCircle
 10
92.32756441217901
 20
206.2468943754381
 30
0.0
 40
3.000000000000011
100
AcDbArc
 50
90.00000515662017
 51
269.9999952253516
  0
LINE
  5
3F6
330
1A
100
AcDbEntity
  8
SEIHIN
100
AcDbLine
 10
92.32756441217901
 20
211.5189680154381
 30
0.0
 11
92.32756441217901
 21
200.9748207354381
 31
0.0
  0
ARC
  5
3F7
330
1A
100
AcDbEntity
  8
SEIHIN
100
AcDbCircle
 10
92.041180972179
 20
198.7468943754381
 30
0.0
 40
1.0
100
AcDbArc
 50
90.0
 51
180.0
  0
LINE
  5
3F8
330
1A
100
AcDbEntity
  8
SEIHIN
100
AcDbLine
 10
90.47342694217901
 20
198.7468943754381
 30
0.0
 11
86.508278002179
 21
198.7468943754381
 31
0.0
  0
LINE
  5
3F9
330
1A
100
AcDbEntity
  8
SEIHIN
100
AcDbLine
 10
86.508278002179
 20
198.2468943754381
 30
0.0
 11
90.473185322179
 21
198.2468943754381
 31
0.0
  0
LINE
  5
3FA
330
1A
100
AcDbEntity
  8
SEIHIN
100
AcDbLine
 10
86.508278002179
 20
198.2468943754381
 30
0.0
 11
86.508278002179
 21
198.7468943754381
 31
0.0
  0
ARC
  5
3FB
330
1A
100
AcDbEntity
  8
SEIHIN
100
AcDbCircle
 10
92.54118097217901
 20
198.2468943754381
 30
0.0
 40
0.5
100
AcDbArc
 50
90.0
 51
180.0
  0
LINE
  5
3FC
330
1A
100
AcDbEntity
  8
SEIHIN
100
AcDbLine
 10
92.041180972179
 20
198.2468943754381
 30
0.0
 11
92.041180972179
 21
195.2468943754381
 31
0.0
  0
LINE
  5
3FD
330
1A
100
AcDbEntity
  8
SEIHIN
100
AcDbLine
 10
91.041180972179
 20
195.2468943754381
 30
0.0
 11
91.041180972179
 21
198.7468943754381
 31
0.0
  0
LINE
  5
3FE
330
1A
100
AcDbEntity
  8
SEIHIN
100
AcDbLine
 10
92.041180972179
 20
195.2468943754381
 30
0.0
 11
91.041180972179
 21
195.2468943754381
 31
0.0
  0
LINE
  5
3FF
330
1A
100
AcDbEntity
  8
SEIHIN
100
AcDbLine
 10
92.47343151217899
 20
198.2469403754381
 30
0.0
 11
92.47343272217898
 21
198.7468943754381
 31
0.0
  0
LINE
  5
400
330
1A
100
AcDbEntity
  8
SEIHIN
100
AcDbLine
 10
90.473425762179
 20
198.2468943754381
 30
0.0
 11
90.47342694217901
 21
198.7468943754381
 31
0.0
  0
LINE
  5
401
330
1A
100
AcDbEntity
  8
SEIHIN
100
AcDbLine
 10
92.32756441217901
 20
200.9748207354381
 30
0.0
 11
92.32756441217901
 21
199.9748207354381
 31
0.0
  0
LINE
  5
402
330
1A
100
AcDbEntity
  8
SEIHIN
100
AcDbLine
 10
90.473462312179
 20
213.7468944154381
 30
0.0
 11
86.508278002179
 21
213.7468944154381
 31
0.0
  0
LINE
  5
403
330
1A
100
AcDbEntity
  8
SEIHIN
100
AcDbLine
 10
86.508278002179
 20
214.2468944154381
 30
0.0
 11
90.473185322179
 21
214.2468944154381
 31
0.0
  0
LINE
  5
404
330
1A
100
AcDbEntity
  8
SEIHIN
100
AcDbLine
 10
86.508278002179
 20
213.7468944154381
 30
0.0
 11
86.508278002179
 21
214.2468944154381
 31
0.0
  0
ARC
  5
405
330
1A
100
AcDbEntity
  8
SEIHIN
100
AcDbCircle
 10
92.041180972179
 20
213.7468944154381
 30
0.0
 40
1.0
100
AcDbArc
 50
180.0
 51
270.0
  0
LINE
  5
406
330
1A
100
AcDbEntity
  8
SEIHIN
100
AcDbLine
 10
92.473468972179
 20
213.7468944154381
 30
0.0
 11
92.47347018217899
 21
214.2468944154381
 31
0.0
  0
LINE
  5
407
330
1A
100
AcDbEntity
  8
SEIHIN
100
AcDbLine
 10
90.473462312179
 20
213.7468944154381
 30
0.0
 11
90.47346349217901
 21
214.2468944154381
 31
0.0
  0
LINE
  5
408
330
1A
100
AcDbEntity
  8
SEIHIN
100
AcDbLine
 10
92.32756441217901
 20
211.5189680154381
 30
0.0
 11
92.32756441217901
 21
212.5189680154381
 31
0.0
  0
ARC
  5
409
330
1A
100
AcDbEntity
  8
SEIHIN
100
AcDbCircle
 10
92.54118097217901
 20
214.2468944154381
 30
0.0
 40
0.5
100
AcDbArc
 50
180.0
 51
270.0
  0
LINE
  5
40A
330
1A
100
AcDbEntity
  8
SEIHIN
100
AcDbLine
 10
95.11708396217901
 20
199.9748207354381
 30
0.0
 11
95.11708396217901
 21
212.5189680154381
 31
0.0
  0
ARC
  5
40B
330
1A
100
AcDbEntity
  8
SEIHIN
100
AcDbCircle
 10
101.5085191321789
 20
202.7652238754381
 30
0.0
 40
5.715337531631893
100
AcDbArc
 50
232.2375418744897
 51
307.7621812247566
  0
LINE
  5
40C
330
1A
100
AcDbEntity
  8
SEIHIN
100
AcDbLine
 10
95.11708396217901
 20
199.9748207354381
 30
0.0
 11
95.11708396217901
 21
201.1748207354381
 31
0.0
  0
LINE
  5
40D
330
1A
100
AcDbEntity
  8
SEIHIN
100
AcDbLine
 10
98.00850821217901
 20
214.2468944154381
 30
0.0
 11
105.008508212179
 21
214.2468944154381
 31
0.0
  0
LINE
  5
40E
330
1A
100
AcDbEntity
  8
SEIHIN
100
AcDbLine
 10
105.008508212179
 20
215.3113328154381
 30
0.0
 11
98.00850821217901
 21
215.3113328154381
 31
0.0
  0
LINE
  5
40F
330
1A
100
AcDbEntity
  8
SEIHIN
100
AcDbLine
 10
95.11708396217901
 20
212.5189680154381
 30
0.0
 11
95.11708396217901
 21
211.3189680154381
 31
0.0
  0
LINE
  5
410
330
1A
100
AcDbEntity
  8
SEIHIN
100
AcDbLine
 10
98.00850821217901
 20
215.3113328154381
 30
0.0
 11
98.00850821217901
 21
214.2468944154381
 31
0.0
  0
LINE
  5
411
330
1A
100
AcDbEntity
  8
SEIHIN
100
AcDbLine
 10
105.008508212179
 20
214.2468944154381
 30
0.0
 11
105.008508212179
 21
215.3113328154381
 31
0.0
  0
LINE
  5
412
330
1A
100
AcDbEntity
  8
SEIHIN
100
AcDbLine
 10
115.452620726679
 20
203.0924503654381
 30
0.0
 11
115.452620726679
 21
209.4013383854381
 31
0.0
  0
LINE
  5
413
330
1A
100
AcDbEntity
  8
SEIHIN
100
AcDbLine
 10
110.6107004911789
 20
203.0924503654381
 30
0.0
 11
110.6107004911789
 21
209.4013383854381
 31
0.0
  0
LINE
  5
414
330
1A
100
AcDbEntity
  8
SEIHIN
100
AcDbLine
 10
119.1757710871789
 20
208.4013383854381
 30
0.0
 11
119.1757710871789
 21
204.0924503654381
 31
0.0
  0
LINE
  5
415
330
1A
100
AcDbEntity
  8
SEIHIN
100
AcDbLine
 10
121.9145611021789
 20
201.9748207354381
 30
0.0
 11
121.9145611021789
 21
210.5189680154381
 31
0.0
  0
LINE
  5
416
330
1A
100
AcDbEntity
  8
SEIHIN
100
AcDbLine
 10
120.766995395179
 20
201.9748207354381
 30
0.0
 11
120.766995395179
 21
210.5189680154381
 31
0.0
  0
LINE
  5
417
330
1A
100
AcDbEntity
  8
SEIHIN
100
AcDbLine
 10
111.508278004179
 20
198.2468943754381
 30
0.0
 11
111.508278004179
 21
198.7468943754381
 31
0.0
  0
ARC
  5
418
330
1A
100
AcDbEntity
  8
SEIHIN
100
AcDbCircle
 10
118.766995395179
 20
201.9748207354381
 30
0.0
 40
2.0
100
AcDbArc
 50
270.0
 51
0.0
  0
ARC
  5
419
330
1A
100
AcDbEntity
  8
SEIHIN
100
AcDbCircle
 10
119.9145611021789
 20
201.9748207354381
 30
0.0
 40
2.0
100
AcDbArc
 50
270.0
 51
0.0
  0
ARC
  5
41A
330
1A
100
AcDbEntity
  8
SEIHIN
100
AcDbCircle
 10
119.9145611021789
 20
201.9748207354381
 30
0.0
 40
2.0
100
AcDbArc
 50
270.0
 51
0.0
  0
ARC
  5
41B
330
1A
100
AcDbEntity
  8
SEIHIN
100
AcDbCircle
 10
117.1757710871789
 20
204.0924503654381
 30
0.0
 40
2.0
100
AcDbArc
 50
270.0
 51
0.0
  0
LINE
  5
41C
330
1A
100
AcDbEntity
  8
SEIHIN
100
AcDbLine
 10
111.508278004179
 20
213.7468944154381
 30
0.0
 11
111.508278004179
 21
214.2468944154381
 31
0.0
  0
ARC
  5
41D
330
1A
100
AcDbEntity
  8
SEIHIN
100
AcDbCircle
 10
118.766995395179
 20
210.5189680154381
 30
0.0
 40
2.0
100
AcDbArc
 50
0.0
 51
90.0
  0
ARC
  5
41E
330
1A
100
AcDbEntity
  8
SEIHIN
100
AcDbCircle
 10
119.9145611021789
 20
210.5189680154381
 30
0.0
 40
2.0
100
AcDbArc
 50
0.0
 51
90.0
  0
ARC
  5
41F
330
1A
100
AcDbEntity
  8
SEIHIN
100
AcDbCircle
 10
119.9145611021789
 20
210.5189680154381
 30
0.0
 40
2.0
100
AcDbArc
 50
0.0
 51
90.0
  0
ARC
  5
420
330
1A
100
AcDbEntity
  8
SEIHIN
100
AcDbCircle
 10
117.1757710871789
 20
208.4013383854381
 30
0.0
 40
2.000000014999997
100
AcDbArc
 50
0.0
 51
90.0
  0
LINE
  5
43E
330
1A
100
AcDbEntity
  8
SEIHIN
100
AcDbLine
 10
92.041180972179
 20
217.2468944154381
 30
0.0
 11
91.041180972179
 21
217.2468944154381
 31
0.0
  0
LINE
  5
6FB
330
1A
100
AcDbEntity
  8
CENTER_L
100
AcDbLine
 10
51.00481148217901
 20
206.2468943954381
 30
0.0
 11
213.2272149351789
 21
206.2468943954381
 31
0.0
  0
LINE
  5
BDA
330
1A
100
AcDbEntity
  8
SEIHIN
100
AcDbLine
 10
80.97322911217901
 20
76.31341591823264
 30
0.0
 11
86.508278002179
 21
76.31341591823264
 31
0.0
  0
LINE
  5
BDB
330
1A
100
AcDbEntity
  8
SEIHIN
100
AcDbLine
 10
86.508278002179
 20
84.81341591823264
 30
0.0
 11
81.61595458217897
 21
84.81341591823264
 31
0.0
  0
LINE
  5
BDC
330
1A
100
AcDbEntity
  8
SEIHIN
100
AcDbLine
 10
80.625290912179
 20
78.81341591823264
 30
0.0
 11
86.508278002179
 21
78.81341591823264
 31
0.0
  0
LINE
  5
BDD
330
1A
100
AcDbEntity
  8
SEIHIN
100
AcDbLine
 10
81.61595458217897
 20
87.31341591823264
 30
0.0
 11
86.508278002179
 21
87.31341591823264
 31
0.0
  0
LINE
  5
BDF
330
1A
100
AcDbEntity
  8
SEIHIN
100
AcDbLine
 10
69.60814154217899
 20
85.51341591823263
 30
0.0
 11
78.60353125217898
 21
77.23765737823265
 31
0.0
  0
ARC
  5
BE0
330
1A
100
AcDbEntity
  8
SEIHIN
100
AcDbCircle
 10
80.625290912179
 20
79.81341591823263
 30
0.0
 40
1.000000002404392
100
AcDbArc
 50
226.2544208983734
 51
270.0
  0
LINE
  5
BE1
330
1A
100
AcDbEntity
  8
SEIHIN
100
AcDbLine
 10
82.450291892179
 20
84.81341591823264
 30
0.0
 11
82.450291892179
 21
78.81341591823264
 31
0.0
  0
ARC
  5
BE2
330
1A
100
AcDbEntity
  8
SEIHIN
100
AcDbCircle
 10
80.97322911217901
 20
79.81341591823263
 30
0.0
 40
3.50000000029082
100
AcDbArc
 50
227.385943991837
 51
270.0
  0
LINE
  5
BE4
330
1A
100
AcDbEntity
  8
SEIHIN
100
AcDbLine
 10
64.60817800217899
 20
85.51341591823263
 30
0.0
 11
69.60814154217899
 21
85.51341591823263
 31
0.0
  0
ARC
  5
BE5
330
1A
100
AcDbEntity
  8
SEIHIN
100
AcDbCircle
 10
66.308346282179
 20
93.56321956823263
 30
0.0
 40
4.249794616209057
100
AcDbArc
 50
248.0382779466742
 51
298.0729204221733
  0
LINE
  5
BE6
330
1A
100
AcDbEntity
  8
SEIHIN
100
AcDbLine
 10
64.60817800217899
 20
85.51341591823263
 30
0.0
 11
69.60814154217899
 21
85.51341591823263
 31
0.0
  0
LINE
  5
BE7
330
1A
100
AcDbEntity
  8
SEIHIN
100
AcDbLine
 10
64.60817800217899
 20
85.51341591823263
 30
0.0
 11
69.60814154217899
 21
85.51341591823263
 31
0.0
  0
ELLIPSE
  5
BE8
330
1A
100
AcDbEntity
  8
SEIHIN
100
AcDbEllipse
 10
64.905989632179
 20
90.08549211823265
 30
0.0
 11
-0.480711628724846
 21
0.1374237974682779
 31
0.0
210
0.0
220
0.0
230
1.0
 40
1.0
 41
0.0000000000000004
 42
1.465876859819378
  0
ARC
  5
BE9
330
1A
100
AcDbEntity
  8
SEIHIN
100
AcDbCircle
 10
65.106944852179
 20
89.90577294823266
 30
0.0
 40
3.499985617108208
100
AcDbArc
 50
103.1906191421164
 51
181.5120868822297
  0
ARC
  5
BEA
330
1A
100
AcDbEntity
  8
SEIHIN
100
AcDbCircle
 10
64.60817800217899
 20
88.51341591823262
 30
0.0
 40
3.0
100
AcDbArc
 50
180.0
 51
270.0
  0
LINE
  5
BEB
330
1A
100
AcDbEntity
  8
SEIHIN
100
AcDbLine
 10
61.60817800217898
 20
89.81341591823264
 30
0.0
 11
61.60817800217898
 21
88.51341591823262
 31
0.0
  0
LINE
  5
BED
330
1A
100
AcDbEntity
  8
SEIHIN
100
AcDbLine
 10
64.30817800217898
 20
93.31341591823264
 30
0.0
 11
64.645427292179
 21
93.31341591823264
 31
0.0
  0
LINE
  5
BEE
330
1A
100
AcDbEntity
  8
SEIHIN
100
AcDbLine
 10
65.126183352179
 20
92.67603464823265
 30
0.0
 11
64.42517800217899
 21
90.22291591823261
 31
0.0
  0
ELLIPSE
  5
BEF
330
1A
100
AcDbEntity
  8
SEIHIN
100
AcDbEllipse
 10
64.64539587217899
 20
92.81339221823264
 30
0.0
 11
0.4807821249180666
 21
-0.1373763011067326
 31
0.0
210
0.0
220
0.0
230
1.0
 40
1.0
 41
0.0
 42
1.849150924921633
  0
LINE
  5
BF0
330
1A
100
AcDbEntity
  8
SEIHIN
100
AcDbLine
 10
68.30827800217901
 20
89.81341591823264
 30
0.0
 11
77.541704052179
 21
89.81341591823264
 31
0.0
  0
LINE
  5
BF1
330
1A
100
AcDbEntity
  8
SEIHIN
100
AcDbLine
 10
79.93383359217898
 20
79.09099859823266
 30
0.0
 11
73.142778002179
 21
85.59101591823264
 31
0.0
  0
LINE
  5
BF2
330
1A
100
AcDbEntity
  8
SEIHIN
100
AcDbLine
 10
76.89092246217899
 20
87.31341591823264
 30
0.0
 11
73.83427800217901
 21
87.31341591823264
 31
0.0
  0
LINE
  5
BF3
330
1A
100
AcDbEntity
  8
SEIHIN
100
AcDbLine
 10
68.30827800217901
 20
89.81341591823264
 30
0.0
 11
68.30827800217901
 21
85.51341591823263
 31
0.0
  0
ARC
  5
BF4
330
1A
100
AcDbEntity
  8
SEIHIN
100
AcDbCircle
 10
73.83427459217898
 20
86.31340741823265
 30
0.0
 40
1.000008503298284
100
AcDbArc
 50
89.99980462305257
 51
226.251772552069
  0
ARC
  5
BF5
330
1A
100
AcDbEntity
  8
SEIHIN
100
AcDbCircle
 10
81.61595458217897
 20
89.31341591823263
 30
0.0
 40
4.499999998880124
100
AcDbArc
 50
223.0923541928525
 51
270.0
  0
ARC
  5
BF6
330
1A
100
AcDbEntity
  8
SEIHIN
100
AcDbCircle
 10
77.541704052179
 20
87.81341591823263
 30
0.0
 40
1.999999999554587
100
AcDbArc
 50
43.09235410287214
 51
90.0
  0
LINE
  5
BF7
330
1A
100
AcDbEntity
  8
SEIHIN
100
AcDbLine
 10
78.329814062179
 20
86.23912242823264
 30
0.0
 11
77.62117591217901
 21
86.99659224823268
 31
0.0
  0
ARC
  5
BF8
330
1A
100
AcDbEntity
  8
SEIHIN
100
AcDbCircle
 10
76.89092246217899
 20
86.31341591823263
 30
0.0
 40
0.9999999997772931
100
AcDbArc
 50
43.09235410287214
 51
90.0
  0
ARC
  5
BF9
330
1A
100
AcDbEntity
  8
SEIHIN
100
AcDbCircle
 10
81.61595458217897
 20
89.31341591823263
 30
0.0
 40
1.999999999554585
100
AcDbArc
 50
223.0923541028721
 51
270.0
  0
LINE
  5
BFA
330
1A
100
AcDbEntity
  8
SEIHIN
100
AcDbLine
 10
80.15544768217898
 20
87.94706325823268
 30
0.0
 11
79.00221095217898
 21
89.17976857823266
 31
0.0
  0
LINE
  5
BFB
330
1A
100
AcDbEntity
  8
SEIHIN
100
AcDbLine
 10
151.507032582179
 20
84.81341591823264
 30
0.0
 11
111.5082780021789
 21
84.81341591823264
 31
0.0
  0
LINE
  5
BFC
330
1A
100
AcDbEntity
  8
SEIHIN
100
AcDbLine
 10
111.5082780021789
 20
78.81341591823264
 30
0.0
 11
145.2012213821789
 21
78.81341591823264
 31
0.0
  0
LINE
  5
BFD
330
1A
100
AcDbEntity
  8
SEIHIN
100
AcDbLine
 10
111.5082780021789
 20
76.31341591823264
 30
0.0
 11
144.560524742179
 21
76.31341591823264
 31
0.0
  0
LINE
  5
BFE
330
1A
100
AcDbEntity
  8
SEIHIN
100
AcDbLine
 10
111.5082780021789
 20
87.31341591823264
 30
0.0
 11
143.565022242179
 21
87.31341591823264
 31
0.0
  0
LINE
  5
C00
330
1A
100
AcDbEntity
  8
SEIHIN
100
AcDbLine
 10
141.108141542179
 20
84.81341591823264
 30
0.0
 11
141.108141542179
 21
78.81341591823264
 31
0.0
  0
MTEXT
  5
C0E
330
1A
100
AcDbEntity
  8
SEIHIN
100
AcDbMText
 10
112.2922285081789
 20
81.72519314223263
 30
0.0
 40
2.381249964
 41
0.0
 71
     1
 72
     5
  1
{\W1.703704;0}
1001
ACAD
1000
MTEXTBEGIN
1070
    73
1070
     1
1070
    44
1040
1.0
1070
    74
1070
     0
1000
MTEXTEND
1000
MTEXTBEGIN
1070
    73
1070
     1
1070
    44
1040
1.0
1070
    74
1070
     0
1000
MTEXTEND
1000
MTEXTBEGIN
1070
    73
1070
     1
1070
    44
1040
1.0
1070
    74
1070
     0
1000
MTEXTEND
1000
MTEXTBEGIN
1070
    73
1070
     1
1070
    44
1040
1.0
1070
    74
1070
     0
1000
MTEXTEND
1000
MTEXTBEGIN
1070
    73
1070
     1
1070
    44
1040
1.0
1070
    74
1070
     0
1000
MTEXTEND
1000
MTEXTBEGIN
1070
    73
1070
     1
1070
    44
1040
1.0
1070
    74
1070
     0
1000
MTEXTEND
1000
MTEXTBEGIN
1070
    73
1070
     1
1070
    44
1040
1.0
1070
    74
1070
     0
1000
MTEXTEND
1000
MTEXTBEGIN
1070
    73
1070
     1
1070
    44
1040
1.0
1070
    74
1070
     0
1000
MTEXTEND
  0
LINE
  5
C12
330
1A
100
AcDbEntity
  8
SEIHIN
100
AcDbLine
 10
116.6875780011789
 20
87.31341591823264
 30
0.0
 11
111.5082780021789
 21
87.31341591823264
 31
0.0
  0
LINE
  5
C2D
330
1A
100
AcDbEntity
  8
SEIHIN
100
AcDbLine
 10
111.7582780021789
 20
84.81341591823264
 30
0.0
 11
111.7582780021789
 21
82.81341591823263
 31
0.0
  0
LINE
  5
C2E
330
1A
100
AcDbEntity
  8
SEIHIN
100
AcDbLine
 10
111.7582780021789
 20
82.81341591823263
 30
0.0
 11
111.5082780021789
 21
82.81341591823263
 31
0.0
  0
MTEXT
  5
C31
330
1A
100
AcDbEntity
  8
SEIHIN
100
AcDbMText
 10
119.5992702583089
 20
81.72519314223263
 30
0.0
 40
2.381249964
 41
0.0
 71
     1
 72
     5
  1
{\W1.135802;30}
1001
ACAD
1000
MTEXTBEGIN
1070
    73
1070
     1
1070
    44
1040
1.0
1070
    74
1070
     0
1000
MTEXTEND
1000
MTEXTBEGIN
1070
    73
1070
     1
1070
    44
1040
1.0
1070
    74
1070
     0
1000
MTEXTEND
1000
MTEXTBEGIN
1070
    73
1070
     1
1070
    44
1040
1.0
1070
    74
1070
     0
1000
MTEXTEND
1000
MTEXTBEGIN
1070
    73
1070
     1
1070
    44
1040
1.0
1070
    74
1070
     0
1000
MTEXTEND
1000
MTEXTBEGIN
1070
    73
1070
     1
1070
    44
1040
1.0
1070
    74
1070
     0
1000
MTEXTEND
1000
MTEXTBEGIN
1070
    73
1070
     1
1070
    44
1040
1.0
1070
    74
1070
     0
1000
MTEXTEND
1000
MTEXTBEGIN
1070
    73
1070
     1
1070
    44
1040
1.0
1070
    74
1070
     0
1000
MTEXTEND
1000
MTEXTBEGIN
1070
    73
1070
     1
1070
    44
1040
1.0
1070
    74
1070
     0
1000
MTEXTEND
  0
LINE
  5
C32
330
1A
100
AcDbEntity
  8
SEIHIN
100
AcDbLine
 10
116.7582780021789
 20
84.81341591823264
 30
0.0
 11
116.7582780021789
 21
82.81341591823263
 31
0.0
  0
LINE
  5
C33
330
1A
100
AcDbEntity
  8
SEIHIN
100
AcDbLine
 10
116.258278002179
 20
82.81341591823263
 30
0.0
 11
116.258278002179
 21
84.81341591823264
 31
0.0
  0
LINE
  5
C34
330
1A
100
AcDbEntity
  8
SEIHIN
100
AcDbLine
 10
116.7582780021789
 20
82.81341591823263
 30
0.0
 11
116.258278002179
 21
82.81341591823263
 31
0.0
  0
LINE
  5
C35
330
1A
100
AcDbEntity
  8
SEIHIN
100
AcDbLine
 10
116.258278002179
 20
84.81341591823264
 30
0.0
 11
116.7582780021789
 21
84.81341591823264
 31
0.0
  0
LINE
  5
C36
330
1A
100
AcDbEntity
  8
SEIHIN
100
AcDbLine
 10
126.758278002179
 20
84.81341591823264
 30
0.0
 11
126.758278002179
 21
82.81341591823263
 31
0.0
  0
LINE
  5
C37
330
1A
100
AcDbEntity
  8
SEIHIN
100
AcDbLine
 10
126.2582780021789
 20
82.81341591823263
 30
0.0
 11
126.2582780021789
 21
84.81341591823264
 31
0.0
  0
LINE
  5
C38
330
1A
100
AcDbEntity
  8
SEIHIN
100
AcDbLine
 10
121.7582780021789
 20
84.81341591823264
 30
0.0
 11
121.7582780021789
 21
82.81341591823263
 31
0.0
  0
LINE
  5
C39
330
1A
100
AcDbEntity
  8
SEIHIN
100
AcDbLine
 10
121.258278002179
 20
82.81341591823263
 30
0.0
 11
121.258278002179
 21
84.81341591823264
 31
0.0
  0
LINE
  5
C3A
330
1A
100
AcDbEntity
  8
SEIHIN
100
AcDbLine
 10
121.7582780021789
 20
82.81341591823263
 30
0.0
 11
121.258278002179
 21
82.81341591823263
 31
0.0
  0
LINE
  5
C3B
330
1A
100
AcDbEntity
  8
SEIHIN
100
AcDbLine
 10
126.758278002179
 20
82.81341591823263
 30
0.0
 11
126.2582780021789
 21
82.81341591823263
 31
0.0
  0
LINE
  5
C3C
330
1A
100
AcDbEntity
  8
SEIHIN
100
AcDbLine
 10
121.258278002179
 20
84.81341591823264
 30
0.0
 11
121.7582780021789
 21
84.81341591823264
 31
0.0
  0
LINE
  5
C3D
330
1A
100
AcDbEntity
  8
SEIHIN
100
AcDbLine
 10
126.2582780021789
 20
84.81341591823264
 30
0.0
 11
126.758278002179
 21
84.81341591823264
 31
0.0
  0
MTEXT
  5
C3E
330
1A
100
AcDbEntity
  8
SEIHIN
100
AcDbMText
 10
134.607048152179
 20
81.90533474223263
 30
0.0
 40
2.381249964
 41
0.0
 71
     1
 72
     5
  1
{\W1.022222;45}
1001
ACAD
1000
MTEXTBEGIN
1070
    73
1070
     1
1070
    44
1040
1.0
1070
    74
1070
     0
1000
MTEXTEND
1000
MTEXTBEGIN
1070
    73
1070
     1
1070
    44
1040
1.0
1070
    74
1070
     0
1000
MTEXTEND
1000
MTEXTBEGIN
1070
    73
1070
     1
1070
    44
1040
1.0
1070
    74
1070
     0
1000
MTEXTEND
1000
MTEXTBEGIN
1070
    73
1070
     1
1070
    44
1040
1.0
1070
    74
1070
     0
1000
MTEXTEND
1000
MTEXTBEGIN
1070
    73
1070
     1
1070
    44
1040
1.0
1070
    74
1070
     0
1000
MTEXTEND
1000
MTEXTBEGIN
1070
    73
1070
     1
1070
    44
1040
1.0
1070
    74
1070
     0
1000
MTEXTEND
1000
MTEXTBEGIN
1070
    73
1070
     1
1070
    44
1040
1.0
1070
    74
1070
     0
1000
MTEXTEND
1000
MTEXTBEGIN
1070
    73
1070
     1
1070
    44
1040
1.0
1070
    74
1070
     0
1000
MTEXTEND
  0
LINE
  5
C3F
330
1A
100
AcDbEntity
  8
SEIHIN
100
AcDbLine
 10
131.7576552921789
 20
84.81341591823264
 30
0.0
 11
131.7576552921789
 21
82.81341591823263
 31
0.0
  0
LINE
  5
C40
330
1A
100
AcDbEntity
  8
SEIHIN
100
AcDbLine
 10
131.2576552921789
 20
82.81341591823263
 30
0.0
 11
131.2576552921789
 21
84.81341591823264
 31
0.0
  0
LINE
  5
C41
330
1A
100
AcDbEntity
  8
SEIHIN
100
AcDbLine
 10
131.7576552921789
 20
82.81341591823263
 30
0.0
 11
131.2576552921789
 21
82.81341591823263
 31
0.0
  0
LINE
  5
C42
330
1A
100
AcDbEntity
  8
SEIHIN
100
AcDbLine
 10
131.2576552921789
 20
84.81341591823264
 30
0.0
 11
131.7576552921789
 21
84.81341591823264
 31
0.0
  0
LINE
  5
C43
330
1A
100
AcDbEntity
  8
SEIHIN
100
AcDbLine
 10
136.7582780021789
 20
84.81341591823264
 30
0.0
 11
136.7582780021789
 21
82.81341591823263
 31
0.0
  0
LINE
  5
C44
330
1A
100
AcDbEntity
  8
SEIHIN
100
AcDbLine
 10
136.258278002179
 20
82.81341591823263
 30
0.0
 11
136.258278002179
 21
84.81341591823264
 31
0.0
  0
LINE
  5
C45
330
1A
100
AcDbEntity
  8
SEIHIN
100
AcDbLine
 10
136.7582780021789
 20
82.81341591823263
 30
0.0
 11
136.258278002179
 21
82.81341591823263
 31
0.0
  0
LINE
  5
C46
330
1A
100
AcDbEntity
  8
SEIHIN
100
AcDbLine
 10
136.258278002179
 20
84.81341591823264
 30
0.0
 11
136.7582780021789
 21
84.81341591823264
 31
0.0
  0
LINE
  5
C49
330
1A
100
AcDbEntity
  8
SEIHIN
100
AcDbLine
 10
166.108141542179
 20
82.06341591823264
 30
0.0
 11
166.108141542179
 21
77.20456789823265
 31
0.0
  0
ARC
  5
C4A
330
1A
100
AcDbEntity
  8
SEIHIN
100
AcDbCircle
 10
145.2012213821789
 20
79.31341591823263
 30
0.0
 40
0.4999999962089669
100
AcDbArc
 50
270.0
 51
350.6360096398327
  0
LINE
  5
C4B
330
1A
100
AcDbEntity
  8
SEIHIN
100
AcDbLine
 10
173.242252602179
 20
81.81340186823263
 30
0.0
 11
178.077189092179
 21
73.43904621823265
 31
0.0
  0
ARC
  5
C4C
330
1A
100
AcDbEntity
  8
SEIHIN
100
AcDbCircle
 10
143.8421777321789
 20
94.81341591823264
 30
0.0
 40
15.99999999650688
100
AcDbArc
 50
288.1859804982271
 51
330.2479051608476
  0
LINE
  5
C4D
330
1A
100
AcDbEntity
  8
SEIHIN
100
AcDbLine
 10
167.608141542179
 20
75.45580758823263
 30
0.0
 11
167.608141542179
 21
82.06341591823264
 31
0.0
  0
ARC
  5
C4E
330
1A
100
AcDbEntity
  8
SEIHIN
100
AcDbCircle
 10
149.147919842179
 20
78.66259238823267
 30
0.0
 40
1.00000000571721
100
AcDbArc
 50
108.1859940097359
 51
255.3791176229967
  0
LINE
  5
C4F
330
1A
100
AcDbEntity
  8
SEIHIN
100
AcDbLine
 10
184.608278002179
 20
107.8355586792326
 30
0.0
 11
184.608278002179
 21
75.18904621823264
 31
0.0
  0
LINE
  5
C50
330
1A
100
AcDbEntity
  8
SEIHIN
100
AcDbLine
 10
144.560524742179
 20
76.31341591823264
 30
0.0
 11
164.0332530721789
 21
72.51140556823265
 31
0.0
  0
LINE
  5
C51
330
1A
100
AcDbEntity
  8
SEIHIN
100
AcDbLine
 10
162.6686903321789
 20
74.10196840823267
 30
0.0
 11
148.895497802179
 21
77.69497514823263
 31
0.0
  0
ARC
  5
C52
330
1A
100
AcDbEntity
  8
SEIHIN
100
AcDbCircle
 10
144.560524742179
 20
75.31341591823263
 30
0.0
 40
0.9999999985731333
100
AcDbArc
 50
78.80393204908905
 51
90.0
  0
ARC
  5
C53
330
1A
100
AcDbEntity
  8
SEIHIN
100
AcDbCircle
 10
165.2910349921789
 20
74.72476076823267
 30
0.0
 40
1.999999999179419
100
AcDbArc
 50
82.71282276529213
 51
183.1869153879589
  0
ARC
  5
C54
330
1A
100
AcDbEntity
  8
SEIHIN
100
AcDbCircle
 10
164.6081415421789
 20
75.45580758823263
 30
0.0
 40
3.00000000069325
100
AcDbArc
 50
258.9521053411593
 51
0.0
  0
ARC
  5
C55
330
1A
100
AcDbEntity
  8
SEIHIN
100
AcDbCircle
 10
162.794901282179
 20
74.58577703823266
 30
0.0
 40
0.4999999958019847
100
AcDbArc
 50
255.3791256739049
 51
3.186915975958103
  0
ARC
  5
C56
330
1A
100
AcDbEntity
  8
SEIHIN
100
AcDbCircle
 10
165.6081415421789
 20
77.20456789823265
 30
0.0
 40
0.4999999963452644
100
AcDbArc
 50
262.7128226562795
 51
0.0
  0
ARC
  5
C57
330
1A
100
AcDbEntity
  8
SEIHIN
100
AcDbCircle
 10
181.108278002179
 20
75.18904621823264
 30
0.0
 40
3.499999998594639
100
AcDbArc
 50
210.0000000265656
 51
0.0
  0
LINE
  5
C58
330
1A
100
AcDbEntity
  8
SEIHIN
100
AcDbLine
 10
179.608428302179
 20
112.8355586772326
 30
0.0
 11
172.660047392179
 21
112.8357675502326
 31
0.0
  0
LINE
  5
C59
330
1A
100
AcDbEntity
  8
SEIHIN
100
AcDbLine
 10
179.608353152179
 20
110.3355586782326
 30
0.0
 11
172.6599722421789
 21
110.3357675522326
 31
0.0
  0
LINE
  5
C5A
330
1A
100
AcDbEntity
  8
SEIHIN
100
AcDbLine
 10
173.608458362179
 20
102.8357390362326
 30
0.0
 11
172.659746782179
 21
102.8357675552326
 31
0.0
  0
LINE
  5
C5B
330
1A
100
AcDbEntity
  8
SEIHIN
100
AcDbLine
 10
173.608533522179
 20
105.3357390351326
 30
0.0
 11
172.659821932179
 21
105.3357675540326
 31
0.0
  0
LINE
  5
C5C
330
1A
100
AcDbEntity
  8
SEIHIN
100
AcDbLine
 10
157.466284422179
 20
101.5201118652326
 30
0.0
 11
150.201048532179
 21
88.80966416823264
 31
0.0
  0
LINE
  5
C5D
330
1A
100
AcDbEntity
  8
SEIHIN
100
AcDbLine
 10
155.295832742179
 20
102.7607324802326
 30
0.0
 11
147.905926082179
 21
89.83217468823267
 31
0.0
  0
ARC
  5
C5E
330
1A
100
AcDbEntity
  8
SEIHIN
100
AcDbCircle
 10
172.659446172179
 20
92.83576755823265
 30
0.0
 40
9.999999999145625
100
AcDbArc
 50
89.9982776315724
 51
150.2479051562262
  0
ARC
  5
C5F
330
1A
100
AcDbEntity
  8
SEIHIN
100
AcDbCircle
 10
172.659446172179
 20
92.83576755823265
 30
0.0
 40
12.49999999966815
100
AcDbArc
 50
89.99827764303095
 51
150.2479051639018
  0
LINE
  5
C60
330
1A
100
AcDbEntity
  8
SEIHIN
100
AcDbLine
 10
161.8071877821789
 20
99.03887063523264
 30
0.0
 11
155.3929118221789
 21
87.81716766823263
 31
0.0
  0
ARC
  5
C61
330
1A
100
AcDbEntity
  8
SEIHIN
100
AcDbCircle
 10
143.8421777321789
 20
94.81341591823264
 30
0.0
 40
13.49999999718524
100
AcDbArc
 50
288.1859799493473
 51
306.1289274530567
  0
ARC
  5
C62
330
1A
100
AcDbEntity
  8
SEIHIN
100
AcDbCircle
 10
151.0692292021789
 20
88.31341591823264
 30
0.0
 40
1.000000000347428
100
AcDbArc
 50
150.247904938769
 51
270.0
  0
ARC
  5
C63
330
1A
100
AcDbEntity
  8
SEIHIN
100
AcDbCircle
 10
149.147919842179
 20
78.66259238823267
 30
0.0
 40
3.500000003201731
100
AcDbArc
 50
108.1859864757694
 51
170.6360096381228
  0
ARC
  5
C64
330
1A
100
AcDbEntity
  8
SEIHIN
100
AcDbCircle
 10
143.5650227221789
 20
92.31341591823264
 30
0.0
 40
5.000000001115571
100
AcDbArc
 50
269.9999944996055
 51
330.2479051946069
  0
ARC
  5
C65
330
1A
100
AcDbEntity
  8
SEIHIN
100
AcDbCircle
 10
151.507032582179
 20
84.31341591823263
 30
0.0
 40
0.499999998465137
100
AcDbArc
 50
306.1289277375728
 51
90.0
  0
LINE
  5
C66
330
1A
100
AcDbEntity
  8
SEIHIN
100
AcDbLine
 10
151.0692292021789
 20
87.31341591823264
 30
0.0
 11
154.524731152179
 21
87.31341591823264
 31
0.0
  0
ARC
  5
C67
330
1A
100
AcDbEntity
  8
SEIHIN
100
AcDbCircle
 10
154.524731152179
 20
88.31341591823264
 30
0.0
 40
1.000000000347427
100
AcDbArc
 50
270.0
 51
330.2479049387692
  0
LINE
  5
C68
330
1A
100
AcDbEntity
  8
SEIHIN
100
AcDbLine
 10
163.977639462179
 20
97.79825002023267
 30
0.0
 11
157.733068472179
 21
86.87344397823267
 31
0.0
  0
ARC
  5
C69
330
1A
100
AcDbEntity
  8
SEIHIN
100
AcDbCircle
 10
166.8581415421789
 20
82.06341591823264
 30
0.0
 40
0.75
100
AcDbArc
 50
0.0
 51
90.0
  0
ARC
  5
C6A
330
1A
100
AcDbEntity
  8
SEIHIN
100
AcDbCircle
 10
166.8581415421789
 20
82.06341591823264
 30
0.0
 40
0.75
100
AcDbArc
 50
90.0
 51
180.0
  0
ARC
  5
C6B
330
1A
100
AcDbEntity
  8
SEIHIN
100
AcDbCircle
 10
172.659446172179
 20
92.83576755823265
 30
0.0
 40
17.50000000101337
100
AcDbArc
 50
89.99827762338702
 51
150.2479051726757
  0
ARC
  5
C6C
330
1A
100
AcDbEntity
  8
SEIHIN
100
AcDbCircle
 10
172.659446172179
 20
92.83576755823265
 30
0.0
 40
20.0000000011359
100
AcDbArc
 50
89.99827763157158
 51
150.2479051754179
  0
ARC
  5
C6D
330
1A
100
AcDbEntity
  8
SEIHIN
100
AcDbCircle
 10
173.608278002179
 20
96.83573903923264
 30
0.0
 40
5.999999999855404
100
AcDbArc
 50
0.0
 51
89.99827768886756
  0
LINE
  5
C72
330
1A
100
AcDbEntity
  8
SEIHIN
100
AcDbLine
 10
179.608278002179
 20
96.83573903923264
 30
0.0
 11
179.608278002179
 21
83.05604255823267
 31
0.0
  0
ARC
  5
C73
330
1A
100
AcDbEntity
  8
SEIHIN
100
AcDbCircle
 10
177.608278002179
 20
83.05604255823267
 30
0.0
 40
1.999999998321968
100
AcDbArc
 50
225.0
 51
0.0
  0
LINE
  5
C74
330
1A
100
AcDbEntity
  8
SEIHIN
100
AcDbLine
 10
174.815384782179
 20
83.02050864823263
 30
0.0
 11
176.194064442179
 21
81.64182899823265
 31
0.0
  0
ARC
  5
C75
330
1A
100
AcDbEntity
  8
SEIHIN
100
AcDbCircle
 10
174.108278002179
 20
82.31340186823263
 30
0.0
 40
0.9999999975222747
100
AcDbArc
 50
45.0
 51
210.0000001084147
  0
ARC
  5
C77
330
1A
100
AcDbEntity
  8
SEIHIN
100
AcDbCircle
 10
179.608278002179
 20
107.8355586792326
 30
0.0
 40
5.000000000129504
100
AcDbArc
 50
0.0
 51
89.99827768886756
  0
ARC
  5
C78
330
1A
100
AcDbEntity
  8
SEIHIN
100
AcDbCircle
 10
179.608278002179
 20
107.8355586792326
 30
0.0
 40
2.500000000064752
100
AcDbArc
 50
0.0
 51
89.99827768886756
  0
ARC
  5
C79
330
1A
100
AcDbEntity
  8
SEIHIN
100
AcDbCircle
 10
173.608278002179
 20
96.83573903923264
 30
0.0
 40
8.500000001574836
100
AcDbArc
 50
37.86364634504803
 51
89.99827762146058
  0
LINE
  5
C7A
330
1A
100
AcDbEntity
  8
SEIHIN
100
AcDbLine
 10
182.108278002179
 20
107.8355586792326
 30
0.0
 11
182.108278002179
 21
102.6666909342326
 31
0.0
  0
ARC
  5
C7B
330
1A
100
AcDbEntity
  8
SEIHIN
100
AcDbCircle
 10
181.108278002179
 20
102.6666909342326
 30
0.0
 40
0.9999999983429477
100
AcDbArc
 50
217.863646510539
 51
0.0
  0
LINE
  5
C7C
330
1A
100
AcDbEntity
  8
SEIHIN
100
AcDbLine
 10
91.041180972179
 20
198.7468943754381
 30
0.0
 11
69.60817800217902
 21
198.7468943754381
 31
0.0
  0
LINE
  5
C7D
330
1A
100
AcDbEntity
  8
SEIHIN
100
AcDbLine
 10
91.041180972179
 20
213.7468944154381
 30
0.0
 11
69.60817800217902
 21
213.7468944154381
 31
0.0
  0
LINE
  5
C7F
330
1A
100
AcDbEntity
  8
SEIHIN
100
AcDbLine
 10
64.60817800217902
 20
195.2468943754381
 30
0.0
 11
64.60817800217902
 21
217.2468944154381
 31
0.0
  0
LINE
  5
C80
330
1A
100
AcDbEntity
  8
SEIHIN
100
AcDbLine
 10
67.60817800217902
 20
215.7468944154381
 30
0.0
 11
67.60817800217902
 21
217.2468944154381
 31
0.0
  0
LINE
  5
C81
330
1A
100
AcDbEntity
  8
SEIHIN
100
AcDbLine
 10
61.60817800217902
 20
195.2468943754381
 30
0.0
 11
61.60817800217902
 21
217.2468944154381
 31
0.0
  0
ARC
  5
C83
330
1A
100
AcDbEntity
  8
SEIHIN
100
AcDbCircle
 10
69.60817800217902
 20
196.7468943754381
 30
0.0
 40
2.0
100
AcDbArc
 50
90.0
 51
180.0
  0
LINE
  5
C84
330
1A
100
AcDbEntity
  8
SEIHIN
100
AcDbLine
 10
61.60817800217902
 20
195.2468943754381
 30
0.0
 11
67.60817800217902
 21
195.2468943754381
 31
0.0
  0
ARC
  5
C85
330
1A
100
AcDbEntity
  8
SEIHIN
100
AcDbCircle
 10
69.60817800217902
 20
215.7468944154381
 30
0.0
 40
2.0
100
AcDbArc
 50
180.0
 51
270.0
  0
LINE
  5
C87
330
1A
100
AcDbEntity
  8
SEIHIN
100
AcDbLine
 10
81.61595458217901
 20
212.7648235154381
 30
0.0
 11
81.61595458217901
 21
200.2754382854381
 31
0.0
  0
LINE
  5
C88
330
1A
100
AcDbEntity
  8
SEIHIN
100
AcDbLine
 10
78.27412567217902
 20
212.4249345154381
 30
0.0
 11
78.27412567217902
 21
199.9355492454381
 31
0.0
  0
LINE
  5
C89
330
1A
100
AcDbEntity
  8
SEIHIN
100
AcDbLine
 10
67.60817800217902
 20
196.7468943754381
 30
0.0
 11
67.60817800217902
 21
195.2468943754381
 31
0.0
  0
LINE
  5
C8A
330
1A
100
AcDbEntity
  8
SEIHIN
100
AcDbLine
 10
61.60817800217902
 20
217.2468944154381
 30
0.0
 11
67.60817800217902
 21
217.2468944154381
 31
0.0
  0
LINE
  5
F65
330
1A
100
AcDbEntity
  8
NOKITOI
  6
PHANTOM
 62
     8
100
AcDbLine
 10
179.446377997097
 20
97.50651591712585
 30
0.0
 11
179.0562779970969
 21
85.0221159171258
 31
0.0
  0
LINE
  5
F66
330
1A
100
AcDbEntity
  8
NOKITOI
  6
PHANTOM
 62
     8
100
AcDbLine
 10
178.2469779970966
 20
97.54401591712577
 30
0.0
 11
178.097677997097
 21
92.765015917126
 31
0.0
  0
LINE
  5
F67
330
1A
100
AcDbEntity
  8
NOKITOI
  6
PHANTOM
 62
     8
100
AcDbLine
 10
173.5338779970971
 20
94.76901591712589
 30
0.0
 11
172.5380779970969
 21
95.86901591712603
 31
0.0
  0
LINE
  5
F68
330
1A
100
AcDbEntity
  8
NOKITOI
  6
PHANTOM
 62
     8
100
AcDbLine
 10
170.9859779970971
 20
90.54271591712586
 30
0.0
 11
170.6701779970968
 21
96.54271591712586
 31
0.0
  0
ARC
  5
F69
330
1A
100
AcDbEntity
  8
NOKITOI
  6
PHANTOM
 62
     8
100
AcDbCircle
 10
173.9958601307458
 20
89.5690246455058
 30
0.0
 40
5.199991271650611
100
AcDbArc
 50
37.92532860472995
 51
89.9998031407256
  0
LINE
  5
F6A
330
1A
100
AcDbEntity
  8
NOKITOI
  6
PHANTOM
 62
     8
100
AcDbLine
 10
65.48787799709732
 20
94.76901591712589
 30
0.0
 11
66.483677997097
 21
95.86901591712603
 31
0.0
  0
LINE
  5
F6B
330
1A
100
AcDbEntity
  8
NOKITOI
  6
PHANTOM
 62
     8
100
AcDbLine
 10
68.03587799709709
 20
90.54281591712584
 30
0.0
 11
68.35167799709694
 21
96.54271591712586
 31
0.0
  0
LINE
  5
F6C
330
1A
100
AcDbEntity
  8
NOKITOI
  6
PHANTOM
 62
     8
100
AcDbLine
 10
59.57537799709697
 20
97.50651591712585
 30
0.0
 11
59.9655779970968
 21
85.02221591712578
 31
0.0
  0
LINE
  5
F6D
330
1A
100
AcDbEntity
  8
NOKITOI
  6
PHANTOM
 62
     8
100
AcDbLine
 10
60.77477799709737
 20
97.54401591712577
 30
0.0
 11
60.92417799709671
 21
92.76511591712596
 31
0.0
  0
ARC
  5
F6E
330
1A
100
AcDbEntity
  8
NOKITOI
  6
PHANTOM
 62
     8
100
AcDbCircle
 10
65.02609820976619
 20
89.56907464550591
 30
0.0
 40
5.2000412730095
100
AcDbArc
 50
90.0013245430618
 51
142.0757990790551
  0
ARC
  5
F6F
330
1A
100
AcDbEntity
  8
NOKITOI
  6
PHANTOM
 62
     8
100
AcDbCircle
 10
111.3244840790649
 20
87.56901029246956
 30
0.0
 40
41.79999437547816
100
AcDbArc
 50
184.4742952125247
 51
269.999854592109
  0
ARC
  5
F70
330
1A
100
AcDbEntity
  8
NOKITOI
  6
PHANTOM
 62
     8
100
AcDbCircle
 10
111.3244617706396
 20
87.56903039349595
 30
0.0
 40
43.00001447645168
100
AcDbArc
 50
186.5249107071177
 51
269.9998883751437
  0
ARC
  5
F71
330
1A
100
AcDbEntity
  8
NOKITOI
  6
PHANTOM
 62
     8
100
AcDbCircle
 10
61.46481395624784
 20
85.06898106298264
 30
0.0
 40
1.499965146287778
100
AcDbArc
 50
181.7866280217767
 51
269.9986264296971
  0
ARC
  5
F72
330
1A
100
AcDbEntity
  8
NOKITOI
  6
PHANTOM
 62
     8
100
AcDbCircle
 10
67.60946957293441
 20
82.56902343218234
 30
0.0
 40
0.9999924849789756
100
AcDbArc
 50
6.528264606673934
 51
89.99951732740965
  0
LINE
  5
F73
330
1A
100
AcDbEntity
  8
NOKITOI
  6
PHANTOM
 62
     8
100
AcDbLine
 10
69.15337799709738
 20
84.76901591712589
 30
0.0
 11
63.11247799709696
 21
84.76901591712589
 31
0.0
  0
LINE
  5
F74
330
1A
100
AcDbEntity
  8
NOKITOI
  6
PHANTOM
 62
     8
100
AcDbLine
 10
64.79247799709679
 20
90.63981591712604
 30
0.0
 11
65.12617799709693
 21
92.976015917126
 31
0.0
  0
LINE
  5
F75
330
1A
100
AcDbEntity
  8
NOKITOI
  6
PHANTOM
 62
     8
100
AcDbLine
 10
67.53647799709693
 20
90.06901591712585
 30
0.0
 11
65.28737799709694
 21
90.06901591712585
 31
0.0
  0
ARC
  5
F76
330
1A
100
AcDbEntity
  8
NOKITOI
  6
PHANTOM
 62
     8
100
AcDbCircle
 10
65.28740459769466
 20
90.56898524024381
 30
0.0
 40
0.4999693238254178
100
AcDbArc
 50
171.8555038770531
 51
269.9969516090356
  0
ARC
  5
F77
330
1A
100
AcDbEntity
  8
NOKITOI
  6
PHANTOM
 62
     8
100
AcDbCircle
 10
67.53647111010201
 20
90.56900938204035
 30
0.0
 40
0.499993464961963
100
AcDbArc
 50
270.0007892017869
 51
356.997036131742
  0
LINE
  5
F78
330
1A
100
AcDbEntity
  8
NOKITOI
  6
PHANTOM
 62
     8
100
AcDbLine
 10
66.87237799709698
 20
91.2690159171259
 30
0.0
 11
66.09447799709738
 21
91.2690159171259
 31
0.0
  0
LINE
  5
F79
330
1A
100
AcDbEntity
  8
NOKITOI
  6
PHANTOM
 62
     8
100
AcDbLine
 10
66.49857799709713
 20
94.09741591712577
 30
0.0
 11
67.05357799709696
 21
94.71051591712603
 31
0.0
  0
LINE
  5
F7A
330
1A
100
AcDbEntity
  8
NOKITOI
  6
PHANTOM
 62
     8
100
AcDbLine
 10
66.09447799709738
 20
91.2690159171259
 30
0.0
 11
66.49857799709713
 21
94.09741591712577
 31
0.0
  0
ARC
  5
F7B
330
1A
100
AcDbEntity
  8
NOKITOI
  6
PHANTOM
 62
     8
100
AcDbCircle
 10
64.63119221551238
 20
93.04670128282486
 30
0.0
 40
0.5000073448410256
100
AcDbArc
 50
351.872947864124
 51
96.47829282996916
  0
LINE
  5
F7C
330
1A
100
AcDbEntity
  8
NOKITOI
  6
PHANTOM
 62
     8
100
AcDbLine
 10
65.48787799709732
 20
94.76901591712589
 30
0.0
 11
65.02597799709707
 21
94.76901591712589
 31
0.0
  0
LINE
  5
F7D
330
1A
100
AcDbEntity
  8
NOKITOI
  6
PHANTOM
 62
     8
100
AcDbLine
 10
66.87237799709698
 20
91.2690159171259
 30
0.0
 11
67.05357799709696
 21
94.71051591712603
 31
0.0
  0
LINE
  5
F7E
330
1A
100
AcDbEntity
  8
NOKITOI
  6
PHANTOM
 62
     8
100
AcDbLine
 10
61.46477799709697
 20
83.56901591712585
 30
0.0
 11
67.6094779970968
 21
83.56901591712585
 31
0.0
  0
LINE
  5
F7F
330
1A
100
AcDbEntity
  8
NOKITOI
  6
PHANTOM
 62
     8
100
AcDbLine
 10
61.11347799709671
 20
86.70661591712587
 30
0.0
 11
61.02797799709702
 21
89.44411591712583
 31
0.0
  0
ARC
  5
F80
330
1A
100
AcDbEntity
  8
NOKITOI
  6
PHANTOM
 62
     8
100
AcDbCircle
 10
65.02601587854366
 20
89.56905969965124
 30
0.0
 40
3.999989731271038
100
AcDbArc
 50
96.4773114201311
 51
181.7899836067311
  0
ARC
  5
F81
330
1A
100
AcDbEntity
  8
NOKITOI
  6
PHANTOM
 62
     8
100
AcDbCircle
 10
63.11249156923537
 20
86.76900276203946
 30
0.0
 40
1.999986844959662
100
AcDbArc
 50
181.7875531852356
 51
269.9996111843215
  0
ARC
  5
F82
330
1A
100
AcDbEntity
  8
NOKITOI
  6
PHANTOM
 62
     8
100
AcDbCircle
 10
69.15339056680529
 20
84.26900429239617
 30
0.0
 40
0.5000116248877111
100
AcDbArc
 50
4.474846808342103
 51
90.00144034898383
  0
LINE
  5
F83
330
1A
100
AcDbEntity
  8
NOKITOI
  6
PHANTOM
 62
     8
100
AcDbLine
 10
166.2059779970973
 20
54.05171591712587
 30
0.0
 11
156.220677997097
 21
45.88191591712575
 31
0.0
  0
LINE
  5
F84
330
1A
100
AcDbEntity
  8
NOKITOI
  6
PHANTOM
 62
     8
100
AcDbLine
 10
167.1902779970969
 20
53.30661591712601
 30
0.0
 11
156.7871779970969
 21
44.79491591712599
 31
0.0
  0
LINE
  5
F85
330
1A
100
AcDbEntity
  8
NOKITOI
  6
PHANTOM
 62
     8
100
AcDbLine
 10
111.3244779970969
 20
45.7690159171259
 30
0.0
 11
155.9040779970969
 21
45.76891591712592
 31
0.0
  0
LINE
  5
F86
330
1A
100
AcDbEntity
  8
NOKITOI
  6
PHANTOM
 62
     8
100
AcDbLine
 10
156.153877997097
 20
44.56891591712587
 30
0.0
 11
111.3244779970969
 21
44.56901591712585
 31
0.0
  0
LINE
  5
F87
330
1A
100
AcDbEntity
  8
NOKITOI
  6
PHANTOM
 62
     8
100
AcDbLine
 10
151.9040779970969
 20
45.76891591712592
 30
0.0
 11
131.9959779970973
 21
45.76891591712592
 31
0.0
  0
LINE
  5
F88
330
1A
100
AcDbEntity
  8
NOKITOI
  6
PHANTOM
 62
     8
100
AcDbLine
 10
152.153877997097
 20
44.56891591712587
 30
0.0
 11
131.9959779970973
 21
44.56891591712587
 31
0.0
  0
ARC
  5
F89
330
1A
100
AcDbEntity
  8
NOKITOI
  6
PHANTOM
 62
     8
100
AcDbCircle
 10
155.9040843848457
 20
46.26891819711545
 30
0.0
 40
0.5000022800304047
100
AcDbArc
 50
269.9992680212791
 51
309.2854498596061
  0
ARC
  5
F8A
330
1A
100
AcDbEntity
  8
NOKITOI
  6
PHANTOM
 62
     8
100
AcDbCircle
 10
156.1538710645195
 20
45.56891344211976
 30
0.0
 40
0.9999975250179316
100
AcDbArc
 50
270.0003972084035
 51
309.2946416752297
  0
LINE
  5
F8B
330
1A
100
AcDbEntity
  8
NOKITOI
  6
PHANTOM
 62
     8
100
AcDbLine
 10
169.3798779970971
 20
84.3188159171259
 30
0.0
 11
166.3868779970967
 21
54.38901591712578
 31
0.0
  0
LINE
  5
F8C
330
1A
100
AcDbEntity
  8
NOKITOI
  6
PHANTOM
 62
     8
100
AcDbLine
 10
170.4208779970973
 20
82.66851591712589
 30
0.0
 11
167.5520779970971
 21
53.98111591712586
 31
0.0
  0
ARC
  5
F8D
330
1A
100
AcDbEntity
  8
NOKITOI
  6
PHANTOM
 62
     8
100
AcDbCircle
 10
165.8893605712187
 20
54.43868343073791
 30
0.0
 40
0.4999904508696396
100
AcDbArc
 50
309.2900846377951
 51
354.2990110749239
  0
ARC
  5
F8E
330
1A
100
AcDbEntity
  8
NOKITOI
  6
PHANTOM
 62
     8
100
AcDbCircle
 10
166.5570554242281
 20
54.08057384545327
 30
0.0
 40
0.9999908507640039
100
AcDbArc
 50
309.288709223069
 51
354.2862329477532
  0
ARC
  5
F8F
330
1A
100
AcDbEntity
  8
NOKITOI
  6
PHANTOM
 62
     8
100
AcDbCircle
 10
173.9958470701608
 20
89.56905166178968
 30
0.0
 40
3.99998565374706
100
AcDbArc
 50
358.208696659101
 51
83.52422380468341
  0
LINE
  5
F90
330
1A
100
AcDbEntity
  8
NOKITOI
  6
PHANTOM
 62
     8
100
AcDbLine
 10
169.8773779970966
 20
84.76901591712589
 30
0.0
 11
175.909277997097
 21
84.76901591712589
 31
0.0
  0
LINE
  5
F91
330
1A
100
AcDbEntity
  8
NOKITOI
  6
PHANTOM
 62
     8
100
AcDbLine
 10
177.556977997097
 20
83.56901591712585
 30
0.0
 11
171.4158779970972
 21
83.56901591712585
 31
0.0
  0
ARC
  5
F92
330
1A
100
AcDbEntity
  8
NOKITOI
  6
PHANTOM
 62
     8
100
AcDbCircle
 10
171.4158986469379
 20
82.56903460497506
 30
0.0
 40
0.9999813123640345
100
AcDbArc
 50
90.00118317084911
 51
174.2905900333514
  0
LINE
  5
F93
330
1A
100
AcDbEntity
  8
NOKITOI
  6
PHANTOM
 62
     8
100
AcDbLine
 10
174.2293779970969
 20
90.63971591712585
 30
0.0
 11
173.895577997097
 21
92.97591591712603
 31
0.0
  0
ARC
  5
F94
330
1A
100
AcDbEntity
  8
NOKITOI
  6
PHANTOM
 62
     8
100
AcDbCircle
 10
173.7343881835332
 20
90.56902766184999
 30
0.0
 40
0.5000117448278309
100
AcDbArc
 50
269.9988327478016
 51
8.127314608715551
  0
ARC
  5
F95
330
1A
100
AcDbEntity
  8
NOKITOI
  6
PHANTOM
 62
     8
100
AcDbCircle
 10
171.4852821185036
 20
90.56901200709535
 30
0.0
 40
0.4999960899864752
100
AcDbArc
 50
183.0147243791741
 51
269.9995277178593
  0
LINE
  5
F96
330
1A
100
AcDbEntity
  8
NOKITOI
  6
PHANTOM
 62
     8
100
AcDbLine
 10
171.485277997097
 20
90.06901591712585
 30
0.0
 11
173.7343779970966
 21
90.06901591712585
 31
0.0
  0
ARC
  5
F97
330
1A
100
AcDbEntity
  8
NOKITOI
  6
PHANTOM
 62
     8
100
AcDbCircle
 10
174.3906073695967
 20
93.04664614962076
 30
0.0
 40
0.4999578477751074
100
AcDbArc
 50
83.5260907122076
 51
188.1330561712932
  0
LINE
  5
F98
330
1A
100
AcDbEntity
  8
NOKITOI
  6
PHANTOM
 62
     8
100
AcDbLine
 10
173.5338779970971
 20
94.76901591712589
 30
0.0
 11
173.9958779970971
 21
94.76901591712589
 31
0.0
  0
LINE
  5
F99
330
1A
100
AcDbEntity
  8
NOKITOI
  6
PHANTOM
 62
     8
100
AcDbLine
 10
172.523277997097
 20
94.09741591712577
 30
0.0
 11
171.9682779970967
 21
94.71041591712582
 31
0.0
  0
LINE
  5
F9A
330
1A
100
AcDbEntity
  8
NOKITOI
  6
PHANTOM
 62
     8
100
AcDbLine
 10
172.149377997097
 20
91.2690159171259
 30
0.0
 11
172.9272779970966
 21
91.2690159171259
 31
0.0
  0
LINE
  5
F9B
330
1A
100
AcDbEntity
  8
NOKITOI
  6
PHANTOM
 62
     8
100
AcDbLine
 10
172.149377997097
 20
91.2690159171259
 30
0.0
 11
171.9682779970967
 21
94.71041591712582
 31
0.0
  0
LINE
  5
F9C
330
1A
100
AcDbEntity
  8
NOKITOI
  6
PHANTOM
 62
     8
100
AcDbLine
 10
172.9272779970966
 20
91.2690159171259
 30
0.0
 11
172.523277997097
 21
94.09741591712577
 31
0.0
  0
ARC
  5
F9D
330
1A
100
AcDbEntity
  8
NOKITOI
  6
PHANTOM
 62
     8
100
AcDbCircle
 10
169.8773910681016
 20
84.26902774740574
 30
0.0
 40
0.499988169890889
100
AcDbArc
 50
90.00149786226634
 51
174.2966061377162
  0
LINE
  5
F9E
330
1A
100
AcDbEntity
  8
NOKITOI
  6
PHANTOM
 62
     8
100
AcDbLine
 10
177.908377997097
 20
86.70641591712593
 30
0.0
 11
177.9938779970967
 21
89.44401591712585
 31
0.0
  0
ARC
  5
F9F
330
1A
100
AcDbEntity
  8
NOKITOI
  6
PHANTOM
 62
     8
100
AcDbCircle
 10
175.9093159849212
 20
86.7689527376981
 30
0.0
 40
2.000036820932882
100
AcDbArc
 50
269.9989117490344
 51
358.2110591274195
  0
ARC
  5
FA0
330
1A
100
AcDbEntity
  8
NOKITOI
  6
PHANTOM
 62
     8
100
AcDbCircle
 10
177.5569952102751
 20
85.06903260027366
 30
0.0
 40
1.500016683246579
100
AcDbArc
 50
269.9993425123344
 51
358.2076423244113
  0
ARC
  5
FA1
330
1A
100
AcDbEntity
  8
NOKITOI
  6
PHANTOM
 62
     8
100
AcDbCircle
 10
61.57439074794689
 20
97.56902907221229
 30
0.0
 40
1.999986844954076
100
AcDbArc
 50
90.00036528735451
 51
181.7883072882703
  0
ARC
  5
FA2
330
1A
100
AcDbEntity
  8
NOKITOI
  6
PHANTOM
 62
     8
100
AcDbCircle
 10
67.85227179593909
 20
96.56902245221113
 30
0.0
 40
0.4999934649531607
100
AcDbArc
 50
356.9955363203376
 51
89.99928939038076
  0
LINE
  5
FA3
330
1A
100
AcDbEntity
  8
NOKITOI
  6
PHANTOM
 62
     8
100
AcDbLine
 10
67.85227799709679
 20
97.06901591712586
 30
0.0
 11
65.62077799709692
 21
97.06901591712586
 31
0.0
  0
LINE
  5
FA4
330
1A
100
AcDbEntity
  8
NOKITOI
  6
PHANTOM
 62
     8
100
AcDbLine
 10
65.13047799709699
 20
97.66711591712578
 30
0.0
 11
65.391277997097
 21
98.97101591712591
 31
0.0
  0
LINE
  5
FA5
330
1A
100
AcDbEntity
  8
NOKITOI
  6
PHANTOM
 62
     8
100
AcDbLine
 10
61.57437799709675
 20
98.36901591712603
 30
0.0
 11
64.04717799709721
 21
98.36901591712603
 31
0.0
  0
ARC
  5
FA6
330
1A
100
AcDbEntity
  8
NOKITOI
  6
PHANTOM
 62
     8
100
AcDbCircle
 10
65.62077074254154
 20
97.56902476696929
 30
0.0
 40
0.5000088498959383
100
AcDbArc
 50
168.6864043304889
 51
270.0008312961442
  0
LINE
  5
FA7
330
1A
100
AcDbEntity
  8
NOKITOI
  6
PHANTOM
 62
     8
100
AcDbLine
 10
61.57437799709675
 20
99.56901591712586
 30
0.0
 11
64.90097799709707
 21
99.56901591712586
 31
0.0
  0
ARC
  5
FA8
330
1A
100
AcDbEntity
  8
NOKITOI
  6
PHANTOM
 62
     8
100
AcDbCircle
 10
64.90097721408853
 20
99.06901687212759
 30
0.0
 40
0.4999990449987349
100
AcDbArc
 50
348.6967198015447
 51
89.99991027369492
  0
LINE
  5
FA9
330
1A
100
AcDbEntity
  8
NOKITOI
  6
PHANTOM
 62
     8
100
AcDbLine
 10
63.54717799709721
 20
95.86901591712603
 30
0.0
 11
66.483677997097
 21
95.86901591712603
 31
0.0
  0
LINE
  5
FAA
330
1A
100
AcDbEntity
  8
NOKITOI
  6
PHANTOM
 62
     8
100
AcDbLine
 10
64.04717799709721
 20
98.36901591712603
 30
0.0
 11
63.54717799709721
 21
95.86901591712603
 31
0.0
  0
ARC
  5
FAB
330
1A
100
AcDbEntity
  8
NOKITOI
  6
PHANTOM
 62
     8
100
AcDbCircle
 10
61.57438249189505
 20
97.56902055465275
 30
0.0
 40
0.7999953624857498
100
AcDbArc
 50
90.00032191805264
 51
181.7911273464193
  0
LINE
  5
FAC
330
1A
100
AcDbEntity
  8
NOKITOI
  6
PHANTOM
 62
     8
100
AcDbLine
 10
175.4746779970969
 20
95.86901591712603
 30
0.0
 11
172.5380779970969
 21
95.86901591712603
 31
0.0
  0
LINE
  5
FAD
330
1A
100
AcDbEntity
  8
NOKITOI
  6
PHANTOM
 62
     8
100
AcDbLine
 10
177.4473779970972
 20
99.56891591712588
 30
0.0
 11
174.1207779970969
 21
99.56901591712586
 31
0.0
  0
LINE
  5
FAE
330
1A
100
AcDbEntity
  8
NOKITOI
  6
PHANTOM
 62
     8
100
AcDbLine
 10
173.891277997097
 20
97.66701591712603
 30
0.0
 11
173.6304779970969
 21
98.97101591712591
 31
0.0
  0
ARC
  5
FAF
330
1A
100
AcDbEntity
  8
NOKITOI
  6
PHANTOM
 62
     8
100
AcDbCircle
 10
173.4009772140885
 20
97.56901496212414
 30
0.0
 40
0.4999990449987399
100
AcDbArc
 50
270.000089726305
 51
11.30328019845521
  0
ARC
  5
FB0
330
1A
100
AcDbEntity
  8
NOKITOI
  6
PHANTOM
 62
     8
100
AcDbCircle
 10
174.1207707425415
 20
99.06900706728244
 30
0.0
 40
0.500008849895925
100
AcDbArc
 50
89.99916870385415
 51
191.3135956695126
  0
ARC
  5
FB1
330
1A
100
AcDbEntity
  8
NOKITOI
  6
PHANTOM
 62
     8
100
AcDbCircle
 10
171.1694817065923
 20
96.56901982715659
 30
0.0
 40
0.4999960899831856
100
AcDbArc
 50
90.00042508015082
 51
183.0156217414647
  0
LINE
  5
FB2
330
1A
100
AcDbEntity
  8
NOKITOI
  6
PHANTOM
 62
     8
100
AcDbLine
 10
171.1694779970972
 20
97.06901591712586
 30
0.0
 11
173.400977997097
 21
97.06901591712586
 31
0.0
  0
ARC
  5
FB3
330
1A
100
AcDbEntity
  8
NOKITOI
  6
PHANTOM
 62
     8
100
AcDbCircle
 10
177.4473667601028
 20
97.56902751094299
 30
0.0
 40
1.999988406214315
100
AcDbArc
 50
358.2088726535936
 51
89.99967808195551
  0
ARC
  5
FB4
330
1A
100
AcDbEntity
  8
NOKITOI
  6
PHANTOM
 62
     8
100
AcDbCircle
 10
177.4474219634499
 20
97.56897055465287
 30
0.0
 40
0.7999453636812564
100
AcDbArc
 50
358.2123436447881
 51
90.00314907315425
  0
LINE
  5
FB5
330
1A
100
AcDbEntity
  8
NOKITOI
  6
PHANTOM
 62
     8
100
AcDbLine
 10
174.9746779970969
 20
98.36901591712603
 30
0.0
 11
175.4746779970969
 21
95.86901591712603
 31
0.0
  0
LINE
  5
FB6
330
1A
100
AcDbEntity
  8
NOKITOI
  6
PHANTOM
 62
     8
100
AcDbLine
 10
177.4473779970972
 20
98.36891591712584
 30
0.0
 11
174.9746779970969
 21
98.36901591712603
 31
0.0
  0
DIMENSION
  5
1057
330
1A
100
AcDbEntity
  8
SUNPOU
100
AcDbDimension
  2
*D1
 10
35.72291535552949
 20
195.2468943754381
 30
0.0
 11
33.22291535552946
 21
206.2468943954381
 31
0.0
 70
    32
  3
STANDARD
100
AcDbAlignedDimension
 13
61.60817800217902
 23
217.2468944154381
 33
0.0
 14
61.60817800217902
 24
195.2468943754381
 34
0.0
 50
90.0
100
AcDbRotatedDimension
1001
ACAD
1000
DSTYLE
1002
{
1070
    41
1040
3.0
1070
    42
1040
3.0
1070
    43
1040
7.0
1070
    44
1040
1.5
1070
    73
1070
     0
1070
    74
1070
     0
1070
    77
1070
     3
1070
   140
1040
3.0
1070
   141
1040
3.0
1070
   147
1040
1.0
1070
   172
1070
     1
1070
   173
1070
     1
1070
   176
1070
   256
1070
   177
1070
   256
1070
   178
1070
   256
1070
   271
1070
     0
1070
   272
1070
     0
1070
   341
1005
B2
1070
     6
1000
OPEN
1070
     7
1000
OPEN
1002
}
  0
LINE
  5
19DE
330
1A
100
AcDbEntity
  8
SEIHIN
100
AcDbLine
 10
191.742978562179
 20
123.8250983882326
 30
0.0
 11
205.1130429061789
 21
90.39993751823265
 31
0.0
  0
LINE
  5
19DF
330
1A
100
AcDbEntity
  8
SEIHIN
100
AcDbLine
 10
192.8571505861789
 20
124.2707671982327
 30
0.0
 11
206.227214935179
 21
90.84560632823269
 31
0.0
  0
LINE
  5
19EE
330
1A
100
AcDbEntity
  8
SEIHIN
100
AcDbLine
 10
200.0064211061789
 20
88.35728879823268
 30
0.0
 11
186.636356762179
 21
121.7824496682326
 31
0.0
  0
ARC
  5
19F1
330
1A
100
AcDbEntity
  8
SEIHIN
100
AcDbCircle
 10
181.8082779621789
 20
126.3134159182326
 30
0.0
 40
9.999999998501365
100
AcDbArc
 50
49.0674539481115
 51
170.7918455616189
  0
LINE
  5
1A07
330
1A
100
AcDbEntity
  8
SEIHIN
100
AcDbLine
 10
126.428117332179
 20
121.5995411082327
 30
0.0
 11
171.0718990421789
 21
127.0811082382326
 31
0.0
  0
LINE
  5
1A08
330
1A
100
AcDbEntity
  8
SEIHIN
100
AcDbLine
 10
128.237150572179
 20
115.7766035082326
 30
0.0
 11
171.8031148621789
 21
121.1258312982326
 31
0.0
  0
LINE
  5
1A11
330
1A
100
AcDbEntity
  8
SEIHIN
100
AcDbLine
 10
111.508277962179
 20
88.74862860823265
 30
0.0
 11
122.7986776521789
 21
111.8973784682326
 31
0.0
  0
LINE
  5
1A50
330
1A
100
AcDbEntity
  8
SEIHIN
100
AcDbLine
 10
113.2288799421789
 20
105.9634176482326
 30
0.0
 11
95.95742900217899
 21
105.9634176482326
 31
0.0
  0
ARC
  5
1A51
330
1A
100
AcDbEntity
  8
SEIHIN
100
AcDbCircle
 10
103.067909442179
 20
96.87494410823269
 30
0.0
 40
9.89999998183736
100
AcDbArc
 50
135.9085673256489
 51
170.5325542075331
  0
LINE
  5
1A53
330
1A
100
AcDbEntity
  8
SEIHIN
100
AcDbLine
 10
95.95742900217899
 20
103.7634176482326
 30
0.0
 11
95.95742900217899
 21
104.9634176482326
 31
0.0
  0
LINE
  5
1A55
330
1A
100
AcDbEntity
  8
SEIHIN
100
AcDbLine
 10
95.95742900217899
 20
104.9634176482326
 30
0.0
 11
95.95742900217899
 21
105.9634176482326
 31
0.0
  0
ARC
  5
1A56
330
1A
100
AcDbEntity
  8
SEIHIN
100
AcDbCircle
 10
129.090235982179
 20
108.8287804382326
 30
0.0
 40
7.000000007796121
100
AcDbArc
 50
97.00000004158725
 51
154.0000000029729
  0
ARC
  5
1A57
330
1A
100
AcDbEntity
  8
SEIHIN
100
AcDbCircle
 10
127.768680112179
 20
110.6815334382327
 30
0.0
 40
11.00000000097801
100
AcDbArc
 50
97.00000001191417
 51
154.0000029819581
  0
LINE
  5
1A58
330
1A
100
AcDbEntity
  8
SEIHIN
100
AcDbLine
 10
110.129779582179
 20
99.6093202782327
 30
0.0
 11
117.8819453521789
 21
115.5036155382326
 31
0.0
  0
LINE
  5
1A59
330
1A
100
AcDbEntity
  8
SEIHIN
100
AcDbLine
 10
109.350361882179
 20
100.6971362182326
 30
0.0
 11
112.238024962179
 21
103.7634176482326
 31
0.0
  0
LINE
  5
1A5A
330
1A
100
AcDbEntity
  8
SEIHIN
100
AcDbLine
 10
109.4580208921789
 20
100.8114545482326
 30
0.0
 11
111.941925502179
 21
103.4490027582326
 31
0.0
  0
LINE
  5
1A5B
330
1A
100
AcDbEntity
  8
SEIHIN
100
AcDbLine
 10
123.175199962179
 20
120.6765291882326
 30
0.0
 11
124.326057322179
 21
124.4408139882326
 31
0.0
  0
LINE
  5
1A5C
330
1A
100
AcDbEntity
  8
SEIHIN
100
AcDbLine
 10
125.4736230321789
 20
124.0899679482327
 30
0.0
 11
124.326057322179
 21
124.4408139882326
 31
0.0
  0
LINE
  5
1A5D
330
1A
100
AcDbEntity
  8
SEIHIN
100
AcDbLine
 10
124.594204072179
 20
121.2135181382327
 30
0.0
 11
125.4736230321789
 21
124.0899679482327
 31
0.0
  0
ARC
  5
1A8D
330
1A
100
AcDbEntity
  8
SEIHIN
100
AcDbCircle
 10
181.8082779621789
 20
126.3134159182326
 30
0.0
 40
3.999999998359458
100
AcDbArc
 50
21.80141959393135
 51
170.7918455333397
  0
ARC
  5
1A8E
330
1A
100
AcDbEntity
  8
SEIHIN
100
AcDbCircle
 10
170.9500294621789
 20
128.0736543582326
 30
0.0
 40
6.999999996543326
100
AcDbArc
 50
276.9999999703212
 51
350.7918456343345
  0
ARC
  5
1A8F
330
1A
100
AcDbEntity
  8
SEIHIN
100
AcDbCircle
 10
170.9500294621789
 20
128.0736543582326
 30
0.0
 40
0.9999999979020673
100
AcDbArc
 50
277.0000136757814
 51
350.7918459575212
  0
LINE
  5
1A90
330
1A
100
AcDbEntity
  8
SEIHIN
100
AcDbLine
 10
188.633285192179
 20
133.4841394762326
 30
0.0
 11
192.392912242179
 21
124.0850718582326
 31
0.0
  0
LINE
  5
1A91
330
1A
100
AcDbEntity
  8
SEIHIN
100
AcDbLine
 10
185.5221844621789
 20
127.7989792782327
 30
0.0
 11
187.750528782179
 21
122.2281184782326
 31
0.0
  0
LINE
  5
1A92
330
1A
100
AcDbEntity
  8
SEIHIN
100
AcDbLine
 10
186.636356762179
 20
121.7824496682326
 30
0.0
 11
192.8571505861789
 21
124.2707671982327
 31
0.0
  0
ARC
  5
1A93
330
1A
100
AcDbEntity
  8
SEIHIN
100
AcDbCircle
 10
187.7048085021789
 20
133.1127487992326
 30
0.0
 40
0.999999999735521
100
AcDbArc
 50
21.80140953954783
 51
49.06745394060445
  0
ARC
  5
1B09
330
1A
100
AcDbEntity
  8
SEIHIN
  6
DASHED
 62
     2
100
AcDbCircle
 10
216.8082779621789
 20
126.3134159182326
 30
0.0
 40
9.999999999982035
100
AcDbArc
 50
49.0674539481115
 51
170.7918455643674
  0
LINE
  5
1B0A
330
1A
100
AcDbEntity
  8
SEIHIN
  6
DASHED
 62
     2
100
AcDbLine
 10
227.8571505821789
 20
124.2707671982327
 30
0.0
 11
241.227214932179
 21
90.84560632823269
 31
0.0
  0
LINE
  5
1B0B
330
1A
100
AcDbEntity
  8
SEIHIN
  6
DASHED
 62
     2
100
AcDbLine
 10
226.742978562179
 20
123.8250983882326
 30
0.0
 11
240.113042902179
 21
90.39993751823265
 31
0.0
  0
LINE
  5
1B0C
330
1A
100
AcDbEntity
  8
SEIHIN
  6
DASHED
 62
     2
100
AcDbLine
 10
235.0064211021789
 20
88.35728879823268
 30
0.0
 11
221.6363567621789
 21
121.7824496682326
 31
0.0
  0
LINE
  5
1B0D
330
1A
100
AcDbEntity
  8
SEIHIN
100
AcDbLine
 10
206.227214935179
 20
90.84560632823269
 30
0.0
 11
200.0064211061789
 21
88.35728879823268
 31
0.0
  0
LINE
  5
1B0E
330
1A
100
AcDbEntity
  8
SEIHIN
  6
DASHED
 62
     2
100
AcDbLine
 10
241.227214932179
 20
90.84560632823269
 30
0.0
 11
235.0064211021789
 21
88.35728879823268
 31
0.0
  0
ARC
  5
1B0F
330
1A
100
AcDbEntity
  8
SEIHIN
  6
DASHED
 62
     2
100
AcDbCircle
 10
216.8082779621789
 20
126.3134159182326
 30
0.0
 40
3.999999998359459
100
AcDbArc
 50
21.80141959393135
 51
170.7918455333397
  0
LINE
  5
1B10
330
1A
100
AcDbEntity
  8
SEIHIN
  6
DASHED
 62
     2
100
AcDbLine
 10
220.5221844621789
 20
127.7989792782327
 30
0.0
 11
222.750528782179
 21
122.2281184782326
 31
0.0
  0
LINE
  5
1B11
330
1A
100
AcDbEntity
  8
SEIHIN
  6
DASHED
 62
     2
100
AcDbLine
 10
223.633285192179
 20
133.4841394762326
 30
0.0
 11
227.392912242179
 21
124.0850718582326
 31
0.0
  0
LINE
  5
1B12
330
1A
100
AcDbEntity
  8
SEIHIN
  6
DASHED
 62
     2
100
AcDbLine
 10
221.6363567621789
 20
121.7824496682326
 30
0.0
 11
227.8571505821789
 21
124.2707671982327
 31
0.0
  0
ARC
  5
1B13
330
1A
100
AcDbEntity
  8
SEIHIN
100
AcDbCircle
 10
222.7048085021789
 20
133.1127487992326
 30
0.0
 40
0.999999999735521
100
AcDbArc
 50
21.80140953954783
 51
49.06745394060445
  0
DIMENSION
  5
2AE9
330
1A
100
AcDbEntity
  8
SUNPOU
100
AcDbDimension
  2
*D2
 10
224.8835454213284
 20
98.3081385166945
 30
0.0
 11
217.5485795702829
 21
123.3770091726293
 31
0.0
 70
    33
  3
STANDARD
100
AcDbAlignedDimension
 13
186.9148997781468
 23
139.1263942596186
 33
0.0
 14
206.227214935179
 24
90.84560632823269
 34
0.0
1001
ACAD
1000
DSTYLE
1002
{
1070
    41
1040
3.0
1070
    42
1040
3.0
1070
    43
1040
7.0
1070
    44
1040
1.5
1070
    73
1070
     0
1070
    74
1070
     0
1070
    77
1070
     3
1070
   140
1040
3.0
1070
   141
1040
3.0
1070
   147
1040
1.0
1070
   172
1070
     1
1070
   173
1070
     1
1070
   176
1070
   256
1070
   177
1070
   256
1070
   178
1070
   256
1070
   271
1070
     0
1070
   272
1070
     0
1070
   341
1005
B2
1070
     6
1000
OPEN
1070
     7
1000
OPEN
1002
}
  0
DIMENSION
  5
2AEA
330
1A
100
AcDbEntity
  8
SUNPOU
100
AcDbDimension
  2
*D3
 10
224.0099521067984
 20
160.0343795469315
 30
0.0
 11
206.5099521030775
 21
162.5343795469315
 31
0.0
 70
    32
  3
STANDARD
100
AcDbAlignedDimension
 13
189.0099520993565
 23
133.8887634113498
 33
0.0
 14
224.0099521067984
 24
133.8887634143265
 34
0.0
100
AcDbRotatedDimension
1001
ACAD
1000
DSTYLE
1002
{
1070
    41
1040
3.0
1070
    42
1040
3.0
1070
    43
1040
7.0
1070
    44
1040
1.5
1070
    73
1070
     0
1070
    74
1070
     0
1070
    77
1070
     3
1070
   140
1040
3.0
1070
   141
1040
3.0
1070
   147
1040
1.0
1070
   172
1070
     1
1070
   173
1070
     1
1070
   176
1070
   256
1070
   177
1070
   256
1070
   178
1070
   256
1070
   271
1070
     0
1070
   272
1070
     0
1070
   341
1005
B2
1070
     6
1000
OPEN
1070
     7
1000
OPEN
1002
}
  0
DIMENSION
  5
2AEB
330
1A
100
AcDbEntity
  8
SUNPOU
100
AcDbDimension
  2
*D4
 10
217.0299383761842
 20
95.16669570528117
 30
0.0
 11
212.6660979283494
 21
112.8077528312861
 31
0.0
 70
    33
  3
STANDARD
100
AcDbAlignedDimension
 13
192.857150585179
 23
124.2707671982326
 33
0.0
 14
206.227214935179
 24
90.84560632823269
 34
0.0
1001
ACAD
1000
DSTYLE
1002
{
1070
    41
1040
3.0
1070
    42
1040
3.0
1070
    43
1040
7.0
1070
    44
1040
1.5
1070
    73
1070
     0
1070
    74
1070
     0
1070
    77
1070
     3
1070
   140
1040
3.0
1070
   141
1040
3.0
1070
   147
1040
1.0
1070
   172
1070
     1
1070
   173
1070
     1
1070
   176
1070
   256
1070
   177
1070
   256
1070
   178
1070
   256
1070
   271
1070
     0
1070
   272
1070
     0
1070
   341
1005
B2
1070
     6
1000
OPEN
1070
     7
1000
OPEN
1002
}
  0
DIMENSION
  5
2AEE
330
1A
100
AcDbEntity
  8
SUNPOU
100
AcDbDimension
  2
*D5
 10
224.6588455688398
 20
179.7468947654381
 30
0.0
 11
222.1588455688397
 21
206.2468947854382
 31
0.0
 70
    32
  3
STANDARD
100
AcDbAlignedDimension
 13
203.2272153751791
 23
232.7468948054381
 33
0.0
 14
203.2272153751791
 24
179.7468947654381
 34
0.0
 50
90.0
100
AcDbRotatedDimension
1001
ACAD
1000
DSTYLE
1002
{
1070
    41
1040
3.0
1070
    42
1040
3.0
1070
    43
1040
7.0
1070
    44
1040
1.5
1070
    73
1070
     0
1070
    74
1070
     0
1070
    77
1070
     3
1070
   140
1040
3.0
1070
   141
1040
3.0
1070
   147
1040
1.0
1070
   172
1070
     1
1070
   173
1070
     1
1070
   176
1070
   256
1070
   177
1070
   256
1070
   178
1070
   256
1070
   271
1070
     0
1070
   272
1070
     0
1070
   341
1005
B2
1070
     6
1000
OPEN
1070
     7
1000
OPEN
1002
}
  0
LINE
  5
2BB6
330
1A
100
AcDbEntity
  8
CENTER_L
100
AcDbLine
 10
210.4982077136844
 20
99.01620120610671
 30
0.0
 11
196.3853620104159
 21
93.37106292933658
 31
0.0
  0
LINE
  5
2BB8
330
1A
100
AcDbEntity
  8
SEIHIN
100
AcDbLine
 10
199.356487894688
 20
96.7135778384806
 30
0.0
 11
203.2560899861303
 21
95.04231981974317
 31
0.0
  0
LINE
  5
2BBA
330
1A
100
AcDbEntity
  8
SEIHIN
100
AcDbLine
 10
199.356487894688
 20
96.7135778384806
 30
0.0
 11
202.1419179672819
 21
97.8277498676973
 31
0.0
  0
LINE
  5
2BBB
330
1A
100
AcDbEntity
  8
SEIHIN
100
AcDbLine
 10
201.0277459285804
 20
100.6131799652846
 30
0.0
 11
199.356487894688
 21
96.7135778384806
 31
0.0
  0
LINE
  5
2BC5
330
1A
100
AcDbEntity
  8
CENTER_L
100
AcDbLine
 10
187.4719857772399
 20
115.6545035089433
 30
0.0
 11
201.5848314805083
 21
121.2996417857133
 31
0.0
  0
LINE
  5
2BC6
330
1A
100
AcDbEntity
  8
CENTER_L
100
AcDbLine
 10
190.4431111884558
 20
108.2266899820145
 30
0.0
 11
204.5559568917243
 21
113.8718282587845
 31
0.0
  0
LINE
  5
2BC7
330
1A
100
AcDbEntity
  8
SEIHIN
100
AcDbLine
 10
193.5999324034141
 20
119.182713783756
 30
0.0
 11
191.9286743695216
 21
115.283111656952
 31
0.0
  0
LINE
  5
2BC8
330
1A
100
AcDbEntity
  8
SEIHIN
100
AcDbLine
 10
191.9286743695216
 20
115.283111656952
 30
0.0
 11
194.7141044421156
 21
116.3972836861687
 31
0.0
  0
LINE
  5
2BC9
330
1A
100
AcDbEntity
  8
SEIHIN
100
AcDbLine
 10
191.9286743695216
 20
115.283111656952
 30
0.0
 11
195.8282764609639
 21
113.6118536382146
 31
0.0
  0
SPLINE
  5
2BCC
330
1A
100
AcDbEntity
  8
SEIHIN
 62
     3
100
AcDbSpline
210
0.0
220
0.0
230
1.0
 70
     8
 71
     3
 72
    43
 73
    39
 74
     0
 42
0.0000000001
 43
0.0000000001
 40
2.573801265649998
 40
2.573801265649998
 40
2.573801265649998
 40
2.573801265649998
 40
2.743484381278567
 40
2.743484381278567
 40
2.952958003969503
 40
2.952958003969503
 40
3.162431626660439
 40
3.162431626660439
 40
3.371905249351375
 40
3.371905249351375
 40
3.581378872042312
 40
3.581378872042312
 40
3.790852494733248
 40
3.790852494733248
 40
4.212890898554042
 40
4.212890898554042
 40
4.634929302374836
 40
4.634929302374836
 40
4.712388980384689
 40
4.712388980384689
 40
4.712388980384689
 40
5.035006403854932
 40
5.035006403854932
 40
5.40458618261824
 40
5.40458618261824
 40
5.774165961381548
 40
5.774165961381548
 40
6.00394318856648
 40
6.00394318856648
 40
6.233720415751411
 40
6.233720415751411
 40
6.426033209648384
 40
6.426033209648384
 40
6.618346003545356
 40
6.618346003545356
 40
6.810658797442329
 40
6.810658797442329
 40
6.850740483263655
 40
6.850740483263655
 40
6.850740483263655
 40
6.850740483263655
 10
198.4031943778874
 20
209.246894375436
 30
0.0
 10
198.5021452194121
 20
209.3817979984517
 30
0.0
 10
198.613856609168
 20
209.5080764329102
 30
0.0
 10
198.9003694196449
 20
209.765523542428
 30
0.0
 10
199.0859046205817
 20
209.8906272359188
 30
0.0
 10
199.5147586299111
 20
210.0655458569564
 30
0.0
 10
199.7588747481622
 20
210.1119773208092
 30
0.0
 10
200.2431127922502
 20
210.0904143388042
 30
0.0
 10
200.4783445041951
 20
210.023352148796
 30
0.0
 10
200.8850552079924
 20
209.8196060076612
 30
0.0
 10
201.0583510803007
 20
209.685435937153
 30
0.0
 10
201.3550822465472
 20
209.3871371982078
 30
0.0
 10
201.4796610799093
 20
209.2222857673749
 30
0.0
 10
201.8062874295632
 20
208.6925918593025
 30
0.0
 10
201.9610214004062
 20
208.292684446017
 30
0.0
 10
202.1808630096343
 20
207.4318776183536
 30
0.0
 10
202.2437345549005
 20
206.9708684516887
 30
0.0
 10
202.2637991299965
 20
206.4185428167278
 30
0.0
 10
202.2653549016056
 20
206.3327186513837
 30
0.0
 10
202.2653549016056
 20
206.2468944054381
 30
0.0
 10
202.2653549016056
 20
205.8894387871134
 30
0.0
 10
202.2383911525523
 20
205.5320838456886
 30
0.0
 10
202.1224901698435
 20
204.7913441358883
 30
0.0
 10
202.0256708516728
 20
204.4121022841117
 30
0.0
 10
201.7542950270097
 20
203.7127304780578
 30
0.0
 10
201.5816485600218
 20
203.3911124565467
 30
0.0
 10
201.1999091290692
 20
202.9359484259757
 30
0.0
 10
201.0276892148514
 20
202.776456506563
 30
0.0
 10
200.6112527246494
 20
202.521339957525
 30
0.0
 10
200.3635154127623
 20
202.4279025716391
 30
0.0
 10
199.8793225675114
 20
202.3766895305806
 30
0.0
 10
199.6515348212525
 20
202.4006023164687
 30
0.0
 10
199.2377079894145
 20
202.5277684274929
 30
0.0
 10
199.0522040079661
 20
202.6284241593641
 30
0.0
 10
198.7317742844502
 20
202.8668748656933
 30
0.0
 10
198.5953945040947
 20
203.0045575642932
 30
0.0
 10
198.4514524729125
 20
203.1837069332008
 30
0.0
 10
198.427339231356
 20
203.2150739921467
 30
0.0
 10
198.4039081220819
 20
203.2468943754525
 30
0.0
  0
ELLIPSE
  5
2BCD
330
1A
100
AcDbEntity
  8
SEIHIN
 62
     3
100
AcDbEllipse
 10
195.085494643591
 20
227.2468943954381
 30
0.0
 11
0.0
 21
-2.1000000000672
 31
0.0
210
0.0
220
0.0
230
-1.0
 40
0.4867014234079679
 41
-1.570796326794896
 42
4.712388980384689
  0
ELLIPSE
  5
2BCE
330
1A
100
AcDbEntity
  8
SEIHIN
 62
     3
100
AcDbEllipse
 10
198.056620054807
 20
225.7218944054381
 30
0.0
 11
0.0
 21
-2.874999999613672
 31
0.0
210
0.0
220
0.0
230
-1.0
 40
0.3913043478762229
 41
-1.570796326794896
 42
4.712388980384689
  0
ELLIPSE
  5
2BCF
330
1A
100
AcDbEntity
  8
SEIHIN
 62
     3
100
AcDbEllipse
 10
203.998870876767
 20
227.2468943954381
 30
0.0
 11
0.0
 21
-2.1000000000672
 31
0.0
210
0.0
220
0.0
230
-1.0
 40
0.4867014234079679
 41
-1.570796326794896
 42
4.712388980384689
  0
ELLIPSE
  5
2BD0
330
1A
100
AcDbEntity
  8
SEIHIN
100
AcDbEllipse
 10
192.3999319373726
 20
181.7468943854381
 30
0.0
 11
0.0
 21
-2.0
 31
0.0
210
0.0
220
0.0
230
-1.0
 40
0.371390676096766
 41
0.0
 42
1.570796326794896
  0
ELLIPSE
  5
2BD1
330
1A
100
AcDbEntity
  8
SEIHIN
100
AcDbEllipse
 10
193.5999319373725
 20
181.7468943854381
 30
0.0
 11
0.0
 21
-2.0
 31
0.0
210
0.0
220
0.0
230
-1.0
 40
0.371390676096766
 41
0.0
 42
1.570796326794896
  0
ELLIPSE
  5
2BD2
330
1A
100
AcDbEntity
  8
SEIHIN
100
AcDbEllipse
 10
205.4844335829855
 20
181.746894385438
 30
0.0
 11
0.0
 21
-2.0
 31
0.0
210
0.0
220
0.0
230
-1.0
 40
0.371390676096766
 41
4.712388980384689
 42
6.283185307179586
  0
ELLIPSE
  5
2BD3
330
1A
100
AcDbEntity
  8
SEIHIN
 62
     3
100
AcDbEllipse
 10
199.928654695179
 20
206.2468944054381
 30
0.0
 11
0.0
 21
-2.8559114857152
 31
0.0
210
0.0
220
0.0
230
-1.0
 40
0.4680467910551545
 41
-1.570796326794896
 42
4.712388980384689
  0
ELLIPSE
  5
2BD4
330
1A
100
AcDbEntity
  8
SEIHIN
 62
     3
100
AcDbEllipse
 10
195.085494643591
 20
185.2468943954381
 30
0.0
 11
0.0
 21
2.1000000000672
 31
0.0
210
0.0
220
0.0
230
1.0
 40
0.4867014234079679
 41
-1.570796326794896
 42
4.712388980384689
  0
ELLIPSE
  5
2BD5
330
1A
100
AcDbEntity
  8
SEIHIN
 62
     3
100
AcDbEllipse
 10
198.056620054807
 20
186.7718943854382
 30
0.0
 11
0.0
 21
2.874999999613672
 31
0.0
210
0.0
220
0.0
230
1.0
 40
0.3913043478762229
 41
-1.570796326794896
 42
4.712388980384689
  0
ELLIPSE
  5
2BD6
330
1A
100
AcDbEntity
  8
SEIHIN
 62
     3
100
AcDbEllipse
 10
203.998870876767
 20
185.2468943954381
 30
0.0
 11
0.0
 21
2.1000000000672
 31
0.0
210
0.0
220
0.0
230
1.0
 40
0.4867014234079679
 41
-1.570796326794896
 42
4.712388980384689
  0
ELLIPSE
  5
2BD7
330
1A
100
AcDbEntity
  8
SEIHIN
100
AcDbEllipse
 10
192.3999319373726
 20
230.7468944054381
 30
0.0
 11
0.0
 21
2.0
 31
0.0
210
0.0
220
0.0
230
1.0
 40
0.371390676096766
 41
0.0
 42
1.570796326794896
  0
ELLIPSE
  5
2BD8
330
1A
100
AcDbEntity
  8
SEIHIN
100
AcDbEllipse
 10
193.5999319373725
 20
230.7468944054381
 30
0.0
 11
0.0
 21
2.0
 31
0.0
210
0.0
220
0.0
230
1.0
 40
0.371390676096766
 41
0.0
 42
1.570796326794896
  0
ELLIPSE
  5
2BD9
330
1A
100
AcDbEntity
  8
SEIHIN
100
AcDbEllipse
 10
205.4844335829855
 20
230.7468944054383
 30
0.0
 11
0.0
 21
2.0
 31
0.0
210
0.0
220
0.0
230
1.0
 40
0.371390676096766
 41
4.712388980384689
 42
6.283185307179586
  0
ARC
  5
2BE4
330
1A
100
AcDbEntity
  8
SEIHIN
 62
     3
100
AcDbCircle
 10
199.257497796767
 20
227.2468943954381
 30
0.0
 40
5.185616519156494
100
AcDbArc
 50
336.1109838713467
 51
23.88901612865324
  0
ARC
  5
2BE5
330
1A
100
AcDbEntity
  8
SEIHIN
 62
     3
100
AcDbCircle
 10
190.344121573591
 20
227.2468943954381
 30
0.0
 40
5.185616510013183
100
AcDbArc
 50
336.1109838266001
 51
23.88901617339984
  0
LINE
  5
2BE6
330
1A
100
AcDbEntity
  8
SEIHIN
 62
     3
100
AcDbLine
 10
206.227214935179
 20
216.0699463054381
 30
0.0
 11
206.227214935179
 21
230.7468944054383
 31
0.0
  0
LINE
  5
2BE7
330
1A
100
AcDbEntity
  8
SEIHIN
 62
     3
100
AcDbLine
 10
192.8571505851791
 20
216.0699460054381
 30
0.0
 11
192.8571505851791
 21
230.7468944054381
 31
0.0
  0
LINE
  5
2BE8
330
1A
100
AcDbEntity
  8
SEIHIN
 62
     3
100
AcDbLine
 10
191.657150585179
 20
230.7468944054381
 30
0.0
 11
191.657150585179
 21
215.4482342054381
 31
0.0
  0
LINE
  5
2C2A
330
1A
100
AcDbEntity
  8
SEIHIN
 62
     3
100
AcDbLine
 10
191.657150585179
 20
181.7468943854381
 30
0.0
 11
191.657150585179
 21
196.9119469154382
 31
0.0
  0
LINE
  5
2C2B
330
1A
100
AcDbEntity
  8
SEIHIN
 62
     3
100
AcDbLine
 10
192.8571505851791
 20
196.4238427954381
 30
0.0
 11
192.8571505851791
 21
181.7468943854381
 31
0.0
  0
LINE
  5
2C2C
330
1A
100
AcDbEntity
  8
SEIHIN
 62
     3
100
AcDbLine
 10
206.227214935179
 20
196.4238424154381
 30
0.0
 11
206.227214935179
 21
181.746894385438
 31
0.0
  0
LINE
  5
2C2D
330
1A
100
AcDbEntity
  8
SEIHIN
 62
     3
100
AcDbLine
 10
205.4844335829855
 20
179.7468943854381
 30
0.0
 11
192.3999319373726
 21
179.7468943854381
 31
0.0
  0
ARC
  5
2C2E
330
1A
100
AcDbEntity
  8
SEIHIN
100
AcDbCircle
 10
177.0869427431259
 20
206.2468943754381
 30
0.0
 40
3.25
100
AcDbArc
 50
112.6198649480422
 51
247.3801350519577
  0
LINE
  5
2C2F
330
1A
100
AcDbEntity
  8
SEIHIN
100
AcDbLine
 10
171.415173086532
 20
199.7468943754381
 30
0.0
 11
171.415173086532
 21
198.7468943754381
 31
0.0
  0
LINE
  5
2C30
330
1A
100
AcDbEntity
  8
SEIHIN
100
AcDbLine
 10
175.8369427431259
 20
203.2468943754381
 30
0.0
 11
175.8369427431259
 21
199.7468943754381
 31
0.0
  0
LINE
  5
2C31
330
1A
100
AcDbEntity
  8
SEIHIN
100
AcDbLine
 10
171.415173086532
 20
213.7468944154381
 30
0.0
 11
171.415173086532
 21
212.7468944154382
 31
0.0
  0
LINE
  5
2C32
330
1A
100
AcDbEntity
  8
SEIHIN
100
AcDbLine
 10
175.8369427431259
 20
212.7468944154382
 30
0.0
 11
175.8369427431259
 21
209.2468943754381
 31
0.0
  0
ARC
  5
2C33
330
1A
100
AcDbEntity
  8
SEIHIN
100
AcDbCircle
 10
185.2654344697103
 20
206.2468943754382
 30
0.0
 40
3.25
100
AcDbArc
 50
292.6198649480422
 51
67.38013505195772
  0
LINE
  5
2C34
330
1A
100
AcDbEntity
  8
SEIHIN
 62
     3
100
AcDbLine
 10
204.199547885179
 20
213.7468944054381
 30
0.0
 11
204.199547885179
 21
198.7468943854381
 31
0.0
  0
LINE
  5
2C35
330
1A
100
AcDbEntity
  8
SEIHIN
 62
     3
100
AcDbLine
 10
195.774661625179
 20
195.7468943854381
 30
0.0
 11
197.1640633351791
 21
195.7468943854381
 31
0.0
  0
LINE
  5
2C36
330
1A
100
AcDbEntity
  8
CENTER_L
100
AcDbLine
 10
191.0631939232366
 20
185.2468944054381
 30
0.0
 11
199.1077953639593
 21
185.2468944054381
 31
0.0
  0
LINE
  5
2C37
330
1A
100
AcDbEntity
  8
CENTER_L
100
AcDbLine
 10
193.9311555680441
 20
186.7718943854382
 30
0.0
 11
202.1816200548
 21
186.7718943854382
 31
0.0
  0
LINE
  5
2C38
330
1A
100
AcDbEntity
  8
SEIHIN
 62
     3
100
AcDbLine
 10
197.1640633351791
 20
195.7468943854381
 30
0.0
 11
195.774661625179
 21
197.8180891954381
 31
0.0
  0
ARC
  5
2C39
330
1A
100
AcDbEntity
  8
SEIHIN
 62
     3
100
AcDbCircle
 10
190.344121573591
 20
185.2468943954381
 30
0.0
 40
5.185616510013183
100
AcDbArc
 50
336.1109838266001
 51
23.88901617339984
  0
LINE
  5
2C3A
330
1A
100
AcDbEntity
  8
SEIHIN
100
AcDbLine
 10
186.5154344697104
 20
203.2468944054381
 30
0.0
 11
186.5154344697104
 21
199.7468943854381
 31
0.0
  0
LINE
  5
2C3B
330
1A
100
AcDbEntity
  8
SEIHIN
100
AcDbLine
 10
189.3532285660637
 20
199.7468943854381
 30
0.0
 11
189.3532285660637
 21
198.7468943854381
 31
0.0
  0
ARC
  5
2C3C
330
1A
100
AcDbEntity
  8
SEIHIN
 62
     3
100
AcDbCircle
 10
191.157150585179
 20
196.4238427954381
 30
0.0
 40
1.700000000443591
100
AcDbArc
 50
0.0
 51
81.00000002413239
  0
ARC
  5
2C3D
330
1A
100
AcDbEntity
  8
SEIHIN
 62
     3
100
AcDbCircle
 10
191.157150585179
 20
196.9119469154382
 30
0.0
 40
0.4999999992379602
100
AcDbArc
 50
0.0
 51
86.20816538453839
  0
LINE
  5
2C3E
330
1A
100
AcDbEntity
  8
SEIHIN
 62
     3
100
AcDbLine
 10
191.423089175179
 20
198.1029129754381
 30
0.0
 11
190.779107765179
 21
198.7468943854381
 31
0.0
  0
ARC
  5
2C3F
330
1A
100
AcDbEntity
  8
SEIHIN
 62
     3
100
AcDbCircle
 10
191.3026403451791
 20
199.1071309054381
 30
0.0
 40
1.700000004646646
100
AcDbArc
 50
194.5485455204778
 51
266.2081647342351
  0
LINE
  5
2C40
330
1A
100
AcDbEntity
  8
SEIHIN
 62
     3
100
AcDbLine
 10
194.057150585179
 20
197.2484801654381
 30
0.0
 11
195.433697675179
 21
197.2484801654381
 31
0.0
  0
LINE
  5
2C41
330
1A
100
AcDbEntity
  8
SEIHIN
 62
     3
100
AcDbLine
 10
195.774661625179
 20
195.7468943854381
 30
0.0
 11
195.774661625179
 21
198.7468943854381
 31
0.0
  0
LINE
  5
2C42
330
1A
100
AcDbEntity
  8
CENTER_L
100
AcDbLine
 10
201.0327148947514
 20
185.2468944054381
 30
0.0
 11
209.0773163354742
 21
185.2468944054381
 31
0.0
  0
ARC
  5
2C43
330
1A
100
AcDbEntity
  8
SEIHIN
 62
     3
100
AcDbCircle
 10
190.7771429848069
 20
186.7718943854382
 30
0.0
 40
7.826647520660156
100
AcDbArc
 50
338.4486589066006
 51
21.55134109339934
  0
ARC
  5
2C44
330
1A
100
AcDbEntity
  8
SEIHIN
 62
     3
100
AcDbCircle
 10
199.257497796767
 20
185.2468943954381
 30
0.0
 40
5.185616519156494
100
AcDbArc
 50
336.1109838713467
 51
23.88901612865324
  0
LINE
  5
2C45
330
1A
100
AcDbEntity
  8
SEIHIN
 62
     3
100
AcDbLine
 10
204.7931535251791
 20
198.1029129754381
 30
0.0
 11
204.149172115179
 21
198.7468943854381
 31
0.0
  0
LINE
  5
2C46
330
1A
100
AcDbEntity
  8
SEIHIN
 62
     3
100
AcDbLine
 10
203.9280331851791
 20
197.2468943854381
 30
0.0
 11
205.5328262151789
 21
197.2468943854381
 31
0.0
  0
LINE
  5
2C47
330
1A
100
AcDbEntity
  8
SEIHIN
 62
     3
100
AcDbLine
 10
204.199547885179
 20
198.7468943854381
 30
0.0
 11
204.199547885179
 21
199.7468943854381
 31
0.0
  0
LINE
  5
2C48
330
1A
100
AcDbEntity
  8
SEIHIN
 62
     3
100
AcDbLine
 10
197.591867615179
 20
197.2484801654381
 30
0.0
 11
201.742194405179
 21
197.2484801654381
 31
0.0
  0
LINE
  5
2C49
330
1A
100
AcDbEntity
  8
SEIHIN
 62
     3
100
AcDbLine
 10
197.1640633351791
 20
198.7468943854381
 30
0.0
 11
197.1640633351791
 21
195.7468943854381
 31
0.0
  0
LINE
  5
2C4A
330
1A
100
AcDbEntity
  8
SEIHIN
 62
     3
100
AcDbLine
 10
202.1572257351791
 20
195.7468943854381
 30
0.0
 11
203.5466274451791
 21
195.7468943854381
 31
0.0
  0
LINE
  5
2C4B
330
1A
100
AcDbEntity
  8
SEIHIN
 62
     3
100
AcDbLine
 10
203.5466274451791
 20
195.7468943854381
 30
0.0
 11
202.1572257351791
 21
197.8180891954381
 31
0.0
  0
LINE
  5
2C4C
330
1A
100
AcDbEntity
  8
SEIHIN
 62
     3
100
AcDbLine
 10
202.1572257351791
 20
195.7468943854381
 30
0.0
 11
202.1572257351791
 21
198.7468943854381
 31
0.0
  0
LINE
  5
2C4D
330
1A
100
AcDbEntity
  8
SEIHIN
 62
     3
100
AcDbLine
 10
203.5466274451791
 20
198.7468943854381
 30
0.0
 11
203.5466274451791
 21
195.7468943854381
 31
0.0
  0
ARC
  5
2C4E
330
1A
100
AcDbEntity
  8
SEIHIN
 62
     3
100
AcDbCircle
 10
204.527214935179
 20
196.4238427954381
 30
0.0
 40
1.700000000443612
100
AcDbArc
 50
359.9999871927081
 51
81.00000002413239
  0
LINE
  5
2C4F
330
1A
100
AcDbEntity
  8
CENTER_L
100
AcDbLine
 10
193.9311555680441
 20
225.7218944054381
 30
0.0
 11
202.1816200548
 21
225.7218944054381
 31
0.0
  0
LINE
  5
2C50
330
1A
100
AcDbEntity
  8
CENTER_L
100
AcDbLine
 10
191.0631939232366
 20
227.2468943854381
 30
0.0
 11
199.1077953639593
 21
227.2468943854381
 31
0.0
  0
LINE
  5
2C51
330
1A
100
AcDbEntity
  8
SEIHIN
 62
     3
100
AcDbLine
 10
197.1640633351791
 20
216.7468944054381
 30
0.0
 11
195.774661625179
 21
214.6756996054381
 31
0.0
  0
LINE
  5
2C52
330
1A
100
AcDbEntity
  8
SEIHIN
 62
     3
100
AcDbLine
 10
195.774661625179
 20
216.7468944054381
 30
0.0
 11
197.1640633351791
 21
216.7468944054381
 31
0.0
  0
LINE
  5
2C53
330
1A
100
AcDbEntity
  8
SEIHIN
100
AcDbLine
 10
186.5154344697104
 20
209.2468944054381
 30
0.0
 11
186.5154344697104
 21
212.7468944054381
 31
0.0
  0
ARC
  5
2C54
330
1A
100
AcDbEntity
  8
SEIHIN
 62
     3
100
AcDbCircle
 10
191.157150585179
 20
216.0699460054381
 30
0.0
 40
1.700000010320475
100
AcDbArc
 50
278.9999998704205
 51
0.0
  0
ARC
  5
2C55
330
1A
100
AcDbEntity
  8
SEIHIN
 62
     3
100
AcDbCircle
 10
191.157150585179
 20
215.4482342054381
 30
0.0
 40
0.5000000241832313
100
AcDbArc
 50
273.791834236553
 51
0.0
  0
LINE
  5
2C56
330
1A
100
AcDbEntity
  8
SEIHIN
 62
     3
100
AcDbLine
 10
191.423089175179
 20
214.3908758054381
 30
0.0
 11
190.779107765179
 21
213.7468944054381
 31
0.0
  0
LINE
  5
2C57
330
1A
100
AcDbEntity
  8
SEIHIN
100
AcDbLine
 10
189.3532285660637
 20
212.7468944054381
 30
0.0
 11
189.3532285660637
 21
213.7468944054381
 31
0.0
  0
ARC
  5
2C58
330
1A
100
AcDbEntity
  8
SEIHIN
 62
     3
100
AcDbCircle
 10
191.3026403451791
 20
213.2530502054381
 30
0.0
 40
1.699999989349252
100
AcDbArc
 50
93.79183535491852
 51
163.1123117581124
  0
LINE
  5
2C59
330
1A
100
AcDbEntity
  8
SEIHIN
 62
     3
100
AcDbLine
 10
194.057150585179
 20
215.2453086054382
 30
0.0
 11
195.433697675179
 21
215.2453086054382
 31
0.0
  0
LINE
  5
2C5A
330
1A
100
AcDbEntity
  8
SEIHIN
 62
     3
100
AcDbLine
 10
195.774661625179
 20
216.7468944054381
 30
0.0
 11
195.774661625179
 21
213.7468944054381
 31
0.0
  0
LINE
  5
2C5B
330
1A
100
AcDbEntity
  8
SEIHIN
 62
     3
100
AcDbLine
 10
203.9280331851791
 20
215.2468944054382
 30
0.0
 11
205.5328262151789
 21
215.2468944054382
 31
0.0
  0
LINE
  5
2C5C
330
1A
100
AcDbEntity
  8
SEIHIN
 62
     3
100
AcDbLine
 10
204.7931535251791
 20
214.3908758054381
 30
0.0
 11
204.149172115179
 21
213.7468944054381
 31
0.0
  0
LINE
  5
2C5D
330
1A
100
AcDbEntity
  8
SEIHIN
 62
     3
100
AcDbLine
 10
197.591867615179
 20
215.2453086054382
 30
0.0
 11
201.742194405179
 21
215.2453086054382
 31
0.0
  0
LINE
  5
2C5E
330
1A
100
AcDbEntity
  8
SEIHIN
 62
     3
100
AcDbLine
 10
197.1640633351791
 20
213.7468944054381
 30
0.0
 11
197.1640633351791
 21
216.7468944054381
 31
0.0
  0
LINE
  5
2C5F
330
1A
100
AcDbEntity
  8
SEIHIN
 62
     3
100
AcDbLine
 10
203.5466274451791
 20
216.7468944054381
 30
0.0
 11
202.1572257351791
 21
214.6756996054381
 31
0.0
  0
LINE
  5
2C60
330
1A
100
AcDbEntity
  8
SEIHIN
 62
     3
100
AcDbLine
 10
202.1572257351791
 20
216.7468944054381
 30
0.0
 11
203.5466274451791
 21
216.7468944054381
 31
0.0
  0
LINE
  5
2C61
330
1A
100
AcDbEntity
  8
SEIHIN
 62
     3
100
AcDbLine
 10
204.199547885179
 20
213.7468944054381
 30
0.0
 11
204.199547885179
 21
212.7468944054381
 31
0.0
  0
LINE
  5
2C62
330
1A
100
AcDbEntity
  8
SEIHIN
 62
     3
100
AcDbLine
 10
203.5466274451791
 20
213.7468944054381
 30
0.0
 11
203.5466274451791
 21
216.7468944054381
 31
0.0
  0
LINE
  5
2C63
330
1A
100
AcDbEntity
  8
SEIHIN
 62
     3
100
AcDbLine
 10
202.1572257351791
 20
216.7468944054381
 30
0.0
 11
202.1572257351791
 21
213.7468944054381
 31
0.0
  0
ARC
  5
2C64
330
1A
100
AcDbEntity
  8
SEIHIN
 62
     3
100
AcDbCircle
 10
204.527214935179
 20
216.0699460054381
 30
0.0
 40
1.700000010320488
100
AcDbArc
 50
278.9999998704205
 51
0.0000101110185475
  0
LINE
  5
2C65
330
1A
100
AcDbEntity
  8
CENTER_L
100
AcDbLine
 10
201.0327148947514
 20
227.2468943854381
 30
0.0
 11
209.0773163354742
 21
227.2468943854381
 31
0.0
  0
ARC
  5
2C66
330
1A
100
AcDbEntity
  8
SEIHIN
 62
     3
100
AcDbCircle
 10
190.7771429848069
 20
225.7218944054381
 30
0.0
 40
7.826647520660156
100
AcDbArc
 50
338.4486589066006
 51
21.55134109339934
  0
LINE
  5
2C67
330
1A
100
AcDbEntity
  8
SEIHIN
 62
     3
100
AcDbLine
 10
205.4844335829855
 20
232.7468944054381
 30
0.0
 11
192.3999319373726
 21
232.7468944054381
 31
0.0
  0
LINE
  5
2C68
330
1A
100
AcDbEntity
  8
CENTER_L
100
AcDbLine
 10
343.8111278202681
 20
145.2329518398941
 30
0.0
 11
339.2801614881997
 21
156.5603673755738
 31
0.0
  0
CIRCLE
  5
2C69
330
1A
100
AcDbEntity
  8
SEIHIN
100
AcDbCircle
 10
317.4052506570903
 20
154.7034138239485
 30
0.0
 40
2.999999969510066
  0
LINE
  5
2C6A
330
1A
100
AcDbEntity
  8
SEIHIN
100
AcDbLine
 10
306.4760452680666
 20
159.4865117596409
 30
0.0
 11
312.7896869075886
 21
143.7024080711923
 31
0.0
  0
LINE
  5
2C6B
330
1A
100
AcDbEntity
  8
SEIHIN
100
AcDbLine
 10
307.2848546806607
 20
159.8100355330896
 30
0.0
 11
313.5984963201827
 21
144.025931844641
 31
0.0
  0
LINE
  5
2C6C
330
1A
100
AcDbEntity
  8
SEIHIN
100
AcDbLine
 10
322.020814406592
 20
165.7044195767046
 30
0.0
 11
328.3344560461138
 21
149.9203158882561
 31
0.0
  0
LINE
  5
2C6D
330
1A
100
AcDbEntity
  8
SEIHIN
100
AcDbLine
 10
321.2120049939978
 20
165.380895803256
 30
0.0
 11
327.5256466335196
 21
149.5967921148074
 31
0.0
  0
ARC
  5
2C6E
330
1A
100
AcDbEntity
  8
SEIHIN
100
AcDbCircle
 10
317.4052506570903
 20
154.7034138239485
 30
0.0
 40
5.024896822470276
100
AcDbArc
 50
148.4586907698121
 51
75.14412923018949
  0
LINE
  5
2C6F
330
1A
100
AcDbEntity
  8
CENTER_L
100
AcDbLine
 10
304.5458484704046
 20
153.8677846767027
 30
0.0
 11
291.0829365516777
 21
148.482619769208
 31
0.0
  0
CIRCLE
  5
2C70
330
1A
100
AcDbEntity
  8
SEIHIN
100
AcDbCircle
 10
297.8143925110411
 20
151.1752022229553
 30
0.0
 40
3.249999972626075
  0
LINE
  5
2C71
330
1A
100
AcDbEntity
  8
CENTER_L
100
AcDbLine
 10
300.5069749647885
 20
144.4437462635919
 30
0.0
 11
295.1218100572938
 21
157.9066581823188
 31
0.0
  0
LINE
  5
2C72
330
1A
100
AcDbEntity
  8
CENTER_L
100
AcDbLine
 10
295.5303398259806
 20
152.846460272323
 30
0.0
 11
290.9993734939124
 21
164.1738758080029
 31
0.0
  0
LINE
  5
2C73
330
1A
100
AcDbEntity
  8
SEIHIN
100
AcDbLine
 10
316.2304299852189
 20
140.1386801963342
 30
0.0
 11
298.7428689089337
 21
183.8575817504401
 31
0.0
  0
LINE
  5
2C74
330
1A
100
AcDbEntity
  8
SEIHIN
100
AcDbLine
 10
315.3019532976631
 20
139.7672895116564
 30
0.0
 11
297.814392221378
 21
183.4861910657624
 31
0.0
  0
LINE
  5
2C75
330
1A
100
AcDbEntity
  8
SEIHIN
100
AcDbLine
 10
328.3006269234443
 20
144.9667590971451
 30
0.0
 11
310.813065847159
 21
188.685660651251
 31
0.0
  0
LINE
  5
2C76
330
1A
100
AcDbEntity
  8
SEIHIN
100
AcDbLine
 10
329.229103611
 20
145.3381497818228
 30
0.0
 11
311.7415425347148
 21
189.0570513359288
 31
0.0
  0
DIMENSION
  5
2C77
330
1A
100
AcDbEntity
  8
SUNPOU
100
AcDbDimension
  2
*D6
 10
271.3528539973206
 20
149.7453667472437
 30
0.0
 11
272.6527213333462
 21
153.2271543497166
 31
0.0
 70
    32
  3
STANDARD
100
AcDbAlignedDimension
 13
287.9725394877735
 23
162.3169224253477
 33
0.0
 14
287.6011488921066
 24
156.2446848741288
 34
0.0
 50
111.8014100000027
100
AcDbRotatedDimension
1001
ACAD
1000
DSTYLE
1002
{
1070
    41
1040
3.0
1070
    42
1040
3.0
1070
    43
1040
7.0
1070
    44
1040
1.5
1070
    73
1070
     0
1070
    74
1070
     0
1070
    77
1070
     3
1070
   140
1040
3.0
1070
   141
1040
3.0
1070
   147
1040
1.0
1070
   172
1070
     1
1070
   173
1070
     1
1070
   176
1070
   256
1070
   177
1070
   256
1070
   178
1070
   256
1070
   271
1070
     0
1070
   272
1070
     0
1070
   341
1005
B2
1070
     6
1000
OPEN
1070
     7
1000
OPEN
1002
}
  0
LINE
  5
2C78
330
1A
100
AcDbEntity
  8
SEIHIN
100
AcDbLine
 10
336.0676319224746
 20
179.4008939688019
 30
0.0
 11
347.952133832163
 21
149.6896399670164
 31
0.0
  0
DIMENSION
  5
2C79
330
1A
100
AcDbEntity
  8
SUNPOU
100
AcDbDimension
  2
*D7
 10
273.5130431740361
 20
117.7599369990768
 30
0.0
 11
269.1492025687251
 21
135.4009940867753
 31
0.0
 70
    32
  3
STANDARD
100
AcDbAlignedDimension
 13
287.9725394877735
 23
162.3169224253477
 33
0.0
 14
301.3426041361728
 24
128.891761673339
 34
0.0
 50
111.8014100000027
100
AcDbRotatedDimension
1001
ACAD
1000
DSTYLE
1002
{
1070
    41
1040
3.0
1070
    42
1040
3.0
1070
    43
1040
7.0
1070
    44
1040
1.5
1070
    73
1070
     0
1070
    74
1070
     0
1070
    77
1070
     3
1070
   140
1040
3.0
1070
   141
1040
3.0
1070
   147
1040
1.0
1070
   172
1070
     1
1070
   173
1070
     1
1070
   176
1070
   256
1070
   177
1070
   256
1070
   178
1070
   256
1070
   271
1070
     0
1070
   272
1070
     0
1070
   341
1005
B2
1070
     6
1000
OPEN
1070
     7
1000
OPEN
1002
}
  0
LINE
  5
2C7A
330
1A
100
AcDbEntity
  8
CENTER_L
100
AcDbLine
 10
302.178232585302
 20
192.7709580137362
 30
0.0
 11
326.6900177740341
 21
131.4914966350535
 31
0.0
  0
LINE
  5
2C7B
330
1A
100
AcDbEntity
  8
SEIHIN
100
AcDbLine
 10
286.8583674820174
 20
159.7171876808806
 30
0.0
 11
298.7428693917058
 21
130.0059336790951
 31
0.0
  0
LINE
  5
2C7C
330
1A
100
AcDbEntity
  8
CENTER_L
100
AcDbLine
 10
347.2093524220738
 20
153.1621427737681
 30
0.0
 11
335.8819368863941
 21
148.6311764416998
 31
0.0
  0
LINE
  5
2C7D
330
1A
100
AcDbEntity
  8
SEIHIN
100
AcDbLine
 10
346.837961826407
 20
147.0899052225492
 30
0.0
 11
301.3426041361728
 21
128.891761673339
 31
0.0
  0
DIMENSION
  5
2C7E
330
1A
100
AcDbEntity
  8
SUNPOU
100
AcDbDimension
  2
*D8
 10
282.6802698799924
 20
121.426827776792
 30
0.0
 11
283.980137216018
 21
124.9086153792649
 31
0.0
 70
    32
  3
STANDARD
100
AcDbAlignedDimension
 13
296.8859160090506
 23
133.0327676852339
 33
0.0
 14
301.3426041361728
 24
128.891761673339
 34
0.0
 50
111.8014100000027
100
AcDbRotatedDimension
1001
ACAD
1000
DSTYLE
1002
{
1070
    41
1040
3.0
1070
    42
1040
3.0
1070
    43
1040
7.0
1070
    44
1040
1.5
1070
    73
1070
     0
1070
    74
1070
     0
1070
    77
1070
     3
1070
   140
1040
3.0
1070
   141
1040
3.0
1070
   147
1040
1.0
1070
   172
1070
     1
1070
   173
1070
     1
1070
   176
1070
   256
1070
   177
1070
   256
1070
   178
1070
   256
1070
   271
1070
     0
1070
   272
1070
     0
1070
   341
1005
B2
1070
     6
1000
OPEN
1070
     7
1000
OPEN
1002
}
  0
LINE
  5
2C82
330
1A
100
AcDbEntity
  8
CENTER_L
100
AcDbLine
 10
245.4982077136843
 20
99.01620120610671
 30
0.0
 11
231.3853620104159
 21
93.37106292933658
 31
0.0
  0
LINE
  5
2C85
330
1A
100
AcDbEntity
  8
CENTER_L
100
AcDbLine
 10
222.4719857772399
 20
115.6545035089433
 30
0.0
 11
236.5848314805083
 21
121.2996417857133
 31
0.0
  0
LINE
  5
2C86
330
1A
100
AcDbEntity
  8
CENTER_L
100
AcDbLine
 10
225.4431111884558
 20
108.2266899820145
 30
0.0
 11
239.5559568917243
 21
113.8718282587845
 31
0.0
  0
LINE
  5
2C89
330
1A
100
AcDbEntity
  8
SEIHIN
100
AcDbLine
 10
310.3690333305643
 20
142.7341466152098
 30
0.0
 11
313.5984963201827
 21
144.025931844641
 31
0.0
  0
LINE
  5
2C8A
330
1A
100
AcDbEntity
  8
SEIHIN
100
AcDbLine
 10
310.3690333305643
 20
142.7341466152098
 30
0.0
 11
311.4832053845976
 21
139.9487165525424
 31
0.0
  0
LINE
  5
2C8B
330
1A
100
AcDbEntity
  8
CENTER_L
100
AcDbLine
 10
304.8151069429247
 20
129.6345430834281
 30
0.0
 11
300.2841406108563
 21
140.9619586191079
 31
0.0
  0
ARC
  5
2C8C
330
1A
100
AcDbEntity
  8
SEIHIN
100
AcDbCircle
 10
300.5998227668173
 20
130.7487150484506
 30
0.0
 40
2.0
100
AcDbArc
 50
201.8014099999986
 51
291.8014099999993
  0
LINE
  5
2C8D
330
1A
100
AcDbEntity
  8
CENTER_L
100
AcDbLine
 10
308.2133315447304
 20
137.5637340173022
 30
0.0
 11
296.8859160090506
 21
133.0327676852339
 31
0.0
  0
CIRCLE
  5
2C8E
330
1A
100
AcDbEntity
  8
SEIHIN
100
AcDbCircle
 10
302.5496237768905
 20
135.2982508512681
 30
0.0
 40
2.099999986565482
  0
LINE
  5
2C8F
330
1A
100
AcDbEntity
  8
SEIHIN
100
AcDbLine
 10
327.5256466335196
 20
149.5967921148074
 30
0.0
 11
328.6398186875529
 21
146.81136205214
 31
0.0
  0
LINE
  5
2C90
330
1A
100
AcDbEntity
  8
SEIHIN
100
AcDbLine
 10
330.7551096231381
 20
150.8885773442387
 30
0.0
 11
327.5256466335196
 21
149.5967921148074
 31
0.0
  0
ARC
  5
2C91
330
1A
100
AcDbEntity
  8
SEIHIN
100
AcDbCircle
 10
326.4436735483327
 20
144.2239777277895
 30
0.0
 40
2.0
100
AcDbArc
 50
291.8014099999993
 51
21.80140999999828
  0
LINE
  5
2C92
330
1A
100
AcDbEntity
  8
SEIHIN
100
AcDbLine
 10
313.5984963201827
 20
144.025931844641
 30
0.0
 11
314.7126683742159
 21
141.2405017819737
 31
0.0
  0
LINE
  5
2C93
330
1A
100
AcDbEntity
  8
SEIHIN
100
AcDbLine
 10
327.1864549176882
 20
142.367024352678
 30
0.0
 11
318.830164729686
 21
139.0245081905781
 31
0.0
  0
LINE
  5
2C94
330
1A
100
AcDbEntity
  8
SEIHIN
100
AcDbLine
 10
314.7126683742159
 20
141.2405017819737
 30
0.0
 11
317.1267078246214
 21
135.2054033128609
 31
0.0
  0
LINE
  5
2C95
330
1A
100
AcDbEntity
  8
SEIHIN
100
AcDbLine
 10
313.9038589616217
 20
140.916978008525
 30
0.0
 11
316.3178984120273
 21
134.8818795394123
 31
0.0
  0
LINE
  5
2C96
330
1A
100
AcDbEntity
  8
SEIHIN
100
AcDbLine
 10
311.4832053845976
 20
139.9487165525424
 30
0.0
 11
315.6411450617717
 21
141.6118924666514
 31
0.0
  0
ARC
  5
2C97
330
1A
100
AcDbEntity
  8
SEIHIN
100
AcDbCircle
 10
318.0873833603305
 20
140.8814615656897
 30
0.0
 40
2.0
100
AcDbArc
 50
201.8014099999986
 51
291.8014099999993
  0
LINE
  5
2C98
330
1A
100
AcDbEntity
  8
SEIHIN
100
AcDbLine
 10
328.6398186875529
 20
146.81136205214
 30
0.0
 11
331.0538581379584
 21
140.7762635830273
 31
0.0
  0
LINE
  5
2C99
330
1A
100
AcDbEntity
  8
SEIHIN
100
AcDbLine
 10
329.4486281001471
 20
147.1348858255886
 30
0.0
 11
331.8626675505526
 21
141.099787356476
 31
0.0
  0
LINE
  5
2C9A
330
1A
100
AcDbEntity
  8
SEIHIN
100
AcDbLine
 10
331.8692816771712
 20
148.1031472815713
 30
0.0
 11
327.7113419999971
 21
146.4399713674623
 31
0.0
  0
LINE
  5
2C9B
330
1A
100
AcDbEntity
  8
SEIHIN
100
AcDbLine
 10
330.7551096231381
 20
150.8885773442387
 30
0.0
 11
331.8692816771712
 21
148.1031472815713
 31
0.0
  0
CIRCLE
  5
2C9C
330
1A
100
AcDbEntity
  8
SEIHIN
100
AcDbCircle
 10
341.5456446542339
 20
150.896659607734
 30
0.0
 40
2.099999986565493
  0
ARC
  5
2C9D
330
1A
100
AcDbEntity
  8
SEIHIN
100
AcDbCircle
 10
346.0951804570515
 20
148.9468585976608
 30
0.0
 40
2.0
100
AcDbArc
 50
291.8014099999993
 51
21.80140999999828
  0
LWPOLYLINE
  5
2C9E
330
1A
100
AcDbEntity
  8
SUNPOU
100
AcDbPolyline
 90
        3
 70
     0
 43
0.0
 10
336.8133540865847
 20
171.2122475460525
 10
347.9238893501721
 20
204.8203792326601
 10
363.7733391906765
 20
204.8203792326601
1001
ACAD
1000
DSTYLE
1002
{
1070
    41
1040
3.0
1070
    42
1040
3.0
1070
    43
1040
7.0
1070
    44
1040
1.5
1070
    73
1070
     0
1070
    74
1070
     0
1070
    77
1070
     0
1070
   140
1040
3.0
1070
   141
1040
3.0
1070
   147
1040
1.0
1070
   172
1070
     1
1070
   173
1070
     1
1070
   176
1070
   256
1070
   177
1070
   256
1070
   178
1070
   256
1070
   271
1070
     0
1070
   272
1070
     0
1070
   341
1005
B2
1070
   343
1005
B2
1070
   344
1005
B2
1002
}
  0
DIMENSION
  5
2C9F
330
1A
100
AcDbEntity
  8
SUNPOU
100
AcDbDimension
  2
*D9
 10
355.4495888153794
 20
174.2292813440531
 30
0.0
 11
355.1710457415242
 21
181.6570948686381
 31
0.0
 70
    32
  3
STANDARD
100
AcDbAlignedDimension
 13
333.4678971780076
 23
180.515065974558
 33
0.0
 14
340.5243201386078
 24
168.2591737181323
 34
0.0
 50
111.8014100000027
100
AcDbRotatedDimension
1001
ACAD
1000
DSTYLE
1002
{
1070
    41
1040
3.0
1070
    42
1040
3.0
1070
    43
1040
7.0
1070
    44
1040
1.5
1070
    73
1070
     0
1070
    74
1070
     0
1070
    77
1070
     3
1070
   140
1040
3.0
1070
   141
1040
3.0
1070
   147
1040
1.0
1070
   172
1070
     1
1070
   173
1070
     1
1070
   176
1070
   256
1070
   177
1070
   256
1070
   178
1070
   256
1070
   271
1070
     0
1070
   272
1070
     0
1070
   341
1005
B2
1070
     6
1000
OPEN
1070
     7
1000
OPEN
1002
}
  0
DIMENSION
  5
2CA0
330
1A
100
AcDbEntity
  8
SUNPOU
100
AcDbDimension
  2
*D10
 10
314.2358803265634
 20
219.171068651911
 30
0.0
 11
293.8093931761971
 21
213.6930559925682
 31
0.0
 70
    32
  3
STANDARD
100
AcDbAlignedDimension
 13
290.9993734939124
 23
164.1738758080029
 33
0.0
 14
329.9953943712558
 24
179.7722845644688
 34
0.0
 50
21.80140999999812
100
AcDbRotatedDimension
1001
ACAD
1000
DSTYLE
1002
{
1070
    41
1040
3.0
1070
    42
1040
3.0
1070
    43
1040
7.0
1070
    44
1040
1.5
1070
    73
1070
     0
1070
    74
1070
     0
1070
    77
1070
     3
1070
   140
1040
3.0
1070
   141
1040
3.0
1070
   147
1040
1.0
1070
   172
1070
     1
1070
   173
1070
     1
1070
   176
1070
   256
1070
   177
1070
   256
1070
   178
1070
   256
1070
   271
1070
     0
1070
   272
1070
     0
1070
   341
1005
B2
1070
     6
1000
OPEN
1070
     7
1000
OPEN
1002
}
  0
LWPOLYLINE
  5
2CA1
330
1A
100
AcDbEntity
  8
SUNPOU
100
AcDbPolyline
 90
        3
 70
     0
 43
0.0
 10
289.0449980485755
 20
161.0303074660699
 10
267.6298219738141
 20
179.4796461613951
 10
250.0480353369054
 20
179.4796461613951
1001
ACAD
1000
DSTYLE
1002
{
1070
    41
1040
3.0
1070
    42
1040
3.0
1070
    43
1040
7.0
1070
    44
1040
1.5
1070
    73
1070
     0
1070
    74
1070
     0
1070
    77
1070
     0
1070
   140
1040
3.0
1070
   141
1040
3.0
1070
   147
1040
1.0
1070
   172
1070
     1
1070
   173
1070
     1
1070
   176
1070
   256
1070
   177
1070
   256
1070
   178
1070
   256
1070
   271
1070
     0
1070
   272
1070
     0
1070
   341
1005
B2
1070
   343
1005
B2
1070
   344
1005
B2
1002
}
  0
DIMENSION
  5
2CA2
330
1A
100
AcDbEntity
  8
SUNPOU
100
AcDbDimension
  2
*D11
 10
316.3935477024608
 20
228.5861032401205
 30
0.0
 11
290.8604387705374
 21
221.0654418150502
 31
0.0
 70
    32
  3
STANDARD
100
AcDbAlignedDimension
 13
286.8583674820174
 23
159.7171876808806
 33
0.0
 14
336.0676319224746
 24
179.4008939688019
 34
0.0
 50
21.80140999999812
100
AcDbRotatedDimension
1001
ACAD
1000
DSTYLE
1002
{
1070
    41
1040
3.0
1070
    42
1040
3.0
1070
    43
1040
7.0
1070
    44
1040
1.5
1070
    73
1070
     0
1070
    74
1070
     0
1070
    77
1070
     3
1070
   140
1040
3.0
1070
   141
1040
3.0
1070
   147
1040
1.0
1070
   172
1070
     1
1070
   173
1070
     1
1070
   176
1070
   256
1070
   177
1070
   256
1070
   178
1070
   256
1070
   271
1070
     0
1070
   272
1070
     0
1070
   341
1005
B2
1070
     6
1000
OPEN
1070
     7
1000
OPEN
1002
}
  0
TEXT
  5
2CA3
330
1A
100
AcDbEntity
  8
SUNPOU
100
AcDbText
 10
251.0298219738142
 20
180.188696968009
 30
0.0
 40
3.0
  1
4-φ4.2
100
AcDbText
  0
DIMENSION
  5
2CA4
330
1A
100
AcDbEntity
  8
SUNPOU
100
AcDbDimension
  2
*D12
 10
315.9708440348645
 20
210.7947859790916
 30
0.0
 11
296.9370719158319
 21
205.8738593467654
 31
0.0
 70
    32
  3
STANDARD
100
AcDbAlignedDimension
 13
295.2034022798867
 23
157.7026776311393
 33
0.0
 14
331.4139930945629
 24
172.186914333572
 34
0.0
 50
21.80140999999812
100
AcDbRotatedDimension
1001
ACAD
1000
DSTYLE
1002
{
1070
    41
1040
3.0
1070
    42
1040
3.0
1070
    43
1040
7.0
1070
    44
1040
1.5
1070
    73
1070
     0
1070
    74
1070
     0
1070
    77
1070
     3
1070
   140
1040
3.0
1070
   141
1040
3.0
1070
   147
1040
1.0
1070
   172
1070
     1
1070
   173
1070
     1
1070
   176
1070
   256
1070
   177
1070
   256
1070
   178
1070
   256
1070
   271
1070
     0
1070
   272
1070
     0
1070
   341
1005
B2
1070
     6
1000
OPEN
1070
     7
1000
OPEN
1002
}
  0
LINE
  5
2CA5
330
1A
100
AcDbEntity
  8
SEIHIN
100
AcDbLine
 10
310.813065847159
 20
188.685660651251
 30
0.0
 11
311.7415425347148
 21
189.0570513359288
 31
0.0
  0
LINE
  5
2CA6
330
1A
100
AcDbEntity
  8
SEIHIN
100
AcDbLine
 10
309.4256321176307
 20
182.7302066836227
 30
0.0
 11
312.6753005240761
 21
184.0300740799949
 31
0.0
  0
LINE
  5
2CA7
330
1A
100
AcDbEntity
  8
SEIHIN
100
AcDbLine
 10
303.8547718734509
 20
180.5018628726687
 30
0.0
 11
313.1227158573479
 21
157.3320035152979
 31
0.0
  0
LINE
  5
2CA8
330
1A
100
AcDbEntity
  8
SEIHIN
100
AcDbLine
 10
309.42563198393
 20
182.7302070178744
 30
0.0
 11
318.6935759826827
 21
159.5603476233645
 31
0.0
  0
LINE
  5
2CA9
330
1A
100
AcDbEntity
  8
SEIHIN
100
AcDbLine
 10
303.7566431762221
 20
168.6305640648697
 30
0.0
 11
287.9725394877735
 21
162.3169224253477
 31
0.0
  0
LINE
  5
2CAA
330
1A
100
AcDbEntity
  8
CENTER_L
100
AcDbLine
 10
298.9285644277865
 20
160.7756512061972
 30
0.0
 11
287.6011488921066
 21
156.2446848741288
 31
0.0
  0
CIRCLE
  5
2CAB
330
1A
100
AcDbEntity
  8
SEIHIN
100
AcDbCircle
 10
293.2648566599466
 20
158.510168040163
 30
0.0
 40
2.099999971727392
  0
ARC
  5
2CAC
330
1A
100
AcDbEntity
  8
SEIHIN
100
AcDbCircle
 10
288.715320857129
 20
160.4599690502361
 30
0.0
 40
2.0
100
AcDbArc
 50
111.8014099999993
 51
201.8014099999986
  0
INSERT
  5
2CAD
330
1A
100
AcDbEntity
  8
SUNPOU
100
AcDbBlockReference
  2
_OPEN
 10
291.3178587137366
 20
159.0722205433917
 30
0.0
 41
2.999999999999992
 42
3.0
 43
3.0
 50
319.2548486777223
1001
ACAD
1000
DSTYLE
1002
{
1070
    41
1040
3.0
1070
    42
1040
3.0
1070
    43
1040
7.0
1070
    44
1040
1.5
1070
    73
1070
     0
1070
    74
1070
     0
1070
    77
1070
     0
1070
   140
1040
3.0
1070
   141
1040
3.0
1070
   147
1040
1.0
1070
   172
1070
     1
1070
   173
1070
     1
1070
   176
1070
   256
1070
   177
1070
   256
1070
   178
1070
   256
1070
   271
1070
     0
1070
   272
1070
     0
1070
   341
1005
B2
1070
   343
1005
B2
1070
   344
1005
B2
1002
}
  0
LINE
  5
2CAE
330
1A
100
AcDbEntity
  8
SEIHIN
100
AcDbLine
 10
302.947833763628
 20
168.307040291421
 30
0.0
 11
305.3618732140334
 21
162.2719418223083
 31
0.0
  0
LINE
  5
2CAF
330
1A
100
AcDbEntity
  8
SEIHIN
100
AcDbLine
 10
303.7566431762221
 20
168.6305640648697
 30
0.0
 11
306.1706826266275
 21
162.5954655957569
 31
0.0
  0
LINE
  5
2CB0
330
1A
100
AcDbEntity
  8
SEIHIN
100
AcDbLine
 10
302.9412196370091
 20
161.3036803663256
 30
0.0
 11
304.0553916910425
 21
158.5182503036583
 31
0.0
  0
LINE
  5
2CB1
330
1A
100
AcDbEntity
  8
SEIHIN
100
AcDbLine
 10
306.1706826266275
 20
162.5954655957569
 30
0.0
 11
302.9412196370091
 21
161.3036803663256
 31
0.0
  0
LINE
  5
2CB2
330
1A
100
AcDbEntity
  8
SEIHIN
100
AcDbLine
 10
307.2848546806607
 20
159.8100355330896
 30
0.0
 11
304.0553916910425
 21
158.5182503036583
 31
0.0
  0
LINE
  5
2CB3
330
1A
100
AcDbEntity
  8
SEIHIN
100
AcDbLine
 10
306.1706826266275
 20
162.5954655957569
 30
0.0
 11
307.2848546806607
 21
159.8100355330896
 31
0.0
  0
LINE
  5
2CB4
330
1A
100
AcDbEntity
  8
SEIHIN
100
AcDbLine
 10
300.6051035858507
 20
179.201995179184
 30
0.0
 11
303.8547719922959
 21
180.5018625755562
 31
0.0
  0
ARC
  5
2CB5
330
1A
100
AcDbEntity
  8
SEIHIN
100
AcDbCircle
 10
306.6402020549633
 20
181.6160346295894
 30
0.0
 40
3.000000000000019
100
AcDbArc
 50
21.80141687549187
 51
201.8014038884509
  0
LINE
  5
2CB6
330
1A
100
AcDbEntity
  8
SEIHIN
100
AcDbLine
 10
297.814392221378
 20
183.4861910657624
 30
0.0
 11
298.7428689089337
 21
183.8575817504401
 31
0.0
  0
LINE
  5
2CB7
330
1A
100
AcDbEntity
  8
CENTER_L
100
AcDbLine
 10
334.5263607033241
 20
168.444869028789
 30
0.0
 11
329.9953943712558
 21
179.7722845644688
 31
0.0
  0
LINE
  5
2CB8
330
1A
100
AcDbEntity
  8
SEIHIN
100
AcDbLine
 10
317.683793489559
 20
174.201424335036
 30
0.0
 11
333.4678971780076
 21
180.515065974558
 31
0.0
  0
LINE
  5
2CB9
330
1A
100
AcDbEntity
  8
CENTER_L
100
AcDbLine
 10
337.9245853051299
 20
176.3740599626631
 30
0.0
 11
326.59716976945
 21
171.8430936305947
 31
0.0
  0
LINE
  5
2CBA
330
1A
100
AcDbEntity
  8
CENTER_L
100
AcDbLine
 10
340.7564392850807
 20
168.3520213791353
 30
0.0
 11
327.2935273663537
 21
162.9668564716407
 31
0.0
  0
LINE
  5
2CBB
330
1A
100
AcDbEntity
  8
SEIHIN
100
AcDbLine
 10
318.4926029021532
 20
174.5249481084847
 30
0.0
 11
320.9066423525586
 21
168.489849639372
 31
0.0
  0
LINE
  5
2CBC
330
1A
100
AcDbEntity
  8
SEIHIN
100
AcDbLine
 10
317.683793489559
 20
174.201424335036
 30
0.0
 11
320.0978329399644
 21
168.1663258659233
 31
0.0
  0
LINE
  5
2CBD
330
1A
100
AcDbEntity
  8
SEIHIN
100
AcDbLine
 10
323.3272959295829
 20
169.4581110953546
 30
0.0
 11
324.4414679836161
 21
166.6726810326872
 31
0.0
  0
LINE
  5
2CBE
330
1A
100
AcDbEntity
  8
SEIHIN
100
AcDbLine
 10
321.2120049939978
 20
165.380895803256
 30
0.0
 11
324.4414679836161
 21
166.6726810326872
 31
0.0
  0
LINE
  5
2CBF
330
1A
100
AcDbEntity
  8
SEIHIN
100
AcDbLine
 10
320.0978329399644
 20
168.1663258659233
 30
0.0
 11
321.2120049939978
 21
165.380895803256
 31
0.0
  0
LINE
  5
2CC0
330
1A
100
AcDbEntity
  8
SEIHIN
100
AcDbLine
 10
320.0978329399644
 20
168.1663258659233
 30
0.0
 11
323.3272959295829
 21
169.4581110953546
 31
0.0
  0
CIRCLE
  5
2CC1
330
1A
100
AcDbEntity
  8
SEIHIN
100
AcDbCircle
 10
334.0249833257173
 20
165.659438925388
 30
0.0
 40
3.249999972626095
  0
LINE
  5
2CC2
330
1A
100
AcDbEntity
  8
CENTER_L
100
AcDbLine
 10
336.7175657794645
 20
158.9279829660245
 30
0.0
 11
331.3324008719699
 21
172.3908948847514
 31
0.0
  0
CIRCLE
  5
2CC3
330
1A
100
AcDbEntity
  8
SEIHIN
100
AcDbCircle
 10
332.26087753729
 20
174.1085767966289
 30
0.0
 40
2.099999971727392
  0
INSERT
  5
2CC4
330
1A
100
AcDbEntity
  8
SUNPOU
100
AcDbBlockReference
  2
_OPEN
 10
335.8717045904965
 20
168.3638627008259
 30
0.0
 41
2.999999999999981
 42
3.0
 43
3.0
 50
251.7065953267104
1001
ACAD
1000
DSTYLE
1002
{
1070
    41
1040
3.0
1070
    42
1040
3.0
1070
    43
1040
7.0
1070
    44
1040
1.5
1070
    73
1070
     0
1070
    74
1070
     0
1070
    77
1070
     0
1070
   140
1040
3.0
1070
   141
1040
3.0
1070
   147
1040
1.0
1070
   172
1070
     1
1070
   173
1070
     1
1070
   176
1070
   256
1070
   177
1070
   256
1070
   178
1070
   256
1070
   271
1070
     0
1070
   272
1070
     0
1070
   341
1005
B2
1070
   343
1005
B2
1070
   344
1005
B2
1002
}
  0
ARC
  5
2CC5
330
1A
100
AcDbEntity
  8
SEIHIN
100
AcDbCircle
 10
334.2106785473631
 20
178.6581125994463
 30
0.0
 40
2.0
100
AcDbArc
 50
21.80140999999828
 51
111.8014099999993
  0
TEXT
  5
2CC6
330
1A
100
AcDbEntity
  8
SUNPOU
100
AcDbText
 10
348.263494563998
 20
206.1247261452807
 30
0.0
 40
3.0
  1
2-φ6.5
100
AcDbText
  0
DIMENSION
  5
2E73
330
1A
100
AcDbEntity
  8
SUNPOU
100
AcDbDimension
  2
*D13
 10
189.0099520993565
 20
160.0343795469315
 30
0.0
 11
125.3090650507677
 21
162.5343795469315
 31
0.0
 70
    32
  3
STANDARD
100
AcDbAlignedDimension
 13
61.60817800217898
 23
88.51341591823262
 33
0.0
 14
189.0099520993565
 24
133.8887634113498
 34
0.0
100
AcDbRotatedDimension
1001
ACAD
1000
DSTYLE
1002
{
1070
    41
1040
3.0
1070
    42
1040
3.0
1070
    43
1040
7.0
1070
    44
1040
1.5
1070
    73
1070
     0
1070
    74
1070
     0
1070
    77
1070
     3
1070
   140
1040
3.0
1070
   141
1040
3.0
1070
   147
1040
1.0
1070
   172
1070
     1
1070
   173
1070
     1
1070
   176
1070
   256
1070
   177
1070
   256
1070
   178
1070
   256
1070
   271
1070
     0
1070
   272
1070
     0
1070
   341
1005
B2
1070
     6
1000
OPEN
1070
     7
1000
OPEN
1002
}
  0
TEXT
  5
2E80
330
1A
100
AcDbEntity
  8
SUNPOU
100
AcDbText
 10
206.1092993761903
 20
166.2279987374865
 30
0.0
 40
3.0
  1
（スライド幅）
100
AcDbText
  0
DIMENSION
  5
2EC8
330
1A
100
AcDbEntity
  8
SUNPOU
100
AcDbDimension
  2
*D14
 10
40.15993299874662
 20
90.84560632823274
 30
0.0
 11
37.65993299874661
 21
82.84560632823275
 31
0.0
 70
    32
  3
STANDARD
100
AcDbAlignedDimension
 13
64.78277217328572
 23
93.29417434315072
 33
0.0
 14
206.227214935179
 24
90.84560632823269
 34
0.0
 50
90.0
100
AcDbRotatedDimension
1001
ACAD
1000
DSTYLE
1002
{
1070
    41
1040
3.0
1070
    42
1040
3.0
1070
    43
1040
7.0
1070
    44
1040
1.5
1070
    73
1070
     0
1070
    74
1070
     0
1070
    77
1070
     3
1070
   140
1040
3.0
1070
   141
1040
3.0
1070
   147
1040
1.0
1070
   172
1070
     1
1070
   173
1070
     1
1070
   176
1070
   256
1070
   177
1070
   256
1070
   178
1070
   256
1070
   271
1070
     0
1070
   272
1070
     0
1070
   341
1005
B2
1070
     6
1000
OPEN
1070
     7
1000
OPEN
1002
}
  0
DIMENSION
  5
2F67
330
1A
100
AcDbEntity
  8
SUNPOU
100
AcDbDimension
  2
*D15
 10
189.0099520993565
 20
151.129742243712
 30
0.0
 11
184.2281650482268
 21
153.629742243712
 31
0.0
 70
    32
  3
STANDARD
100
AcDbAlignedDimension
 13
179.446377997097
 23
97.50651591712585
 33
0.0
 14
189.0099520993565
 24
133.8887634113498
 34
0.0
100
AcDbRotatedDimension
1001
ACAD
1000
DSTYLE
1002
{
1070
    41
1040
3.0
1070
    42
1040
3.0
1070
    43
1040
7.0
1070
    44
1040
1.5
1070
    73
1070
     0
1070
    74
1070
     0
1070
    77
1070
     3
1070
   140
1040
3.0
1070
   141
1040
3.0
1070
   147
1040
1.0
1070
   172
1070
     1
1070
   173
1070
     1
1070
   176
1070
   256
1070
   177
1070
   256
1070
   178
1070
   256
1070
   271
1070
     0
1070
   272
1070
     0
1070
   341
1005
B2
1070
     6
1000
OPEN
1070
     7
1000
OPEN
1002
}
  0
LINE
  5
2FC0
330
1A
100
AcDbEntity
  8
SUNPOU
100
AcDbLine
 10
206.227214935179
 20
90.84560632823269
 30
0.0
 11
217.6550284622611
 21
62.27607251052752
 31
0.0
  0
TEXT
  5
2FC1
330
1A
100
AcDbEntity
  8
SUNPOU
100
AcDbText
 10
214.411152673852
 20
57.19267573012992
 30
0.0
 40
3.0
  1
4
100
AcDbText
  0
LINE
  5
2FC2
330
1A
100
AcDbEntity
  8
SUNPOU
100
AcDbLine
 10
217.6550284622611
 20
62.27607251052752
 30
0.0
 11
213.655028462261
 21
62.27607251052752
 31
0.0
  0
TEXT
  5
2FC3
330
1A
100
AcDbEntity
  8
SUNPOU
100
AcDbText
 10
207.9360090760646
 20
66.43521483524359
 30
0.0
 40
3.0
  1
10
100
AcDbText
  0
LINE
  5
2FC4
330
1A
100
AcDbEntity
  8
SUNPOU
100
AcDbLine
 10
213.655028462261
 20
62.27607251052752
 30
0.0
 11
213.655028462261
 21
72.27607251052752
 31
0.0
  0
LINE
  5
3130
330
1A
100
AcDbEntity
  8
ZUWAKU
100
AcDbLine
 10
104.3233009651347
 20
7.600000176923909
 30
0.0
 11
223.7121823055964
 21
7.600000176923906
 31
0.0
  0
LINE
  5
3131
330
1A
100
AcDbEntity
  8
ZUWAKU
100
AcDbLine
 10
104.3233009651347
 20
7.800000176923907
 30
0.0
 11
223.7121823055964
 21
7.80000017692391
 31
0.0
  0
LINE
  5
3132
330
1A
100
AcDbEntity
  8
ZUWAKU
100
AcDbLine
 10
104.3233009651347
 20
7.700000176923907
 30
0.0
 11
223.7121823055964
 21
7.700000176923907
 31
0.0
  0
LINE
  5
3133
330
1A
100
AcDbEntity
  8
ZUWAKU
100
AcDbLine
 10
0.000000320100753
 20
15.40000017692389
 30
0.0
 11
398.7000003201007
 21
15.40000017692389
 31
0.0
  0
LINE
  5
3134
330
1A
100
AcDbEntity
  8
ZUWAKU
100
AcDbLine
 10
0.000000320100753
 20
15.30000017692389
 30
0.0
 11
398.7000003201007
 21
15.30000017692389
 31
0.0
  0
LINE
  5
3135
330
1A
100
AcDbEntity
  8
ZUWAKU
100
AcDbLine
 10
0.000000320100753
 20
15.20000017692389
 30
0.0
 11
398.7000003201007
 21
15.20000017692389
 31
0.0
  0
LINE
  5
3136
330
1A
100
AcDbEntity
  8
ZUWAKU
100
AcDbLine
 10
0.000000320100753
 20
15.10000017692389
 30
0.0
 11
398.7000003201007
 21
15.10000017692389
 31
0.0
  0
LINE
  5
3137
330
1A
100
AcDbEntity
  8
ZUWAKU
100
AcDbLine
 10
0.000000320100753
 20
15.00000017692389
 30
0.0
 11
398.7000003201007
 21
15.00000017692389
 31
0.0
  0
LWPOLYLINE
  5
3138
330
1A
100
AcDbEntity
  8
ZUWAKU
100
AcDbPolyline
 90
        4
 70
     1
 43
0.0
 10
0.1000003201007189
 20
275.7000001769239
 10
0.1000003201007189
 20
0.1000001769239134
 10
398.7000003201007
 20
0.1000001769239249
 10
398.7000003201007
 20
275.7000001769239
  0
LWPOLYLINE
  5
3139
330
1A
100
AcDbEntity
  8
ZUWAKU
100
AcDbPolyline
 90
        4
 70
     1
 43
0.0
 10
0.3000003201007075
 20
275.5000001769239
 10
0.3000003201007075
 20
0.300000176923902
 10
398.5000003201008
 20
0.3000001769239251
 10
398.5000003201007
 20
275.5000001769239
  0
LWPOLYLINE
  5
313A
330
1A
100
AcDbEntity
  8
ZUWAKU
100
AcDbPolyline
 90
        4
 70
     1
 43
0.0
 10
0.000000320100753
 20
275.8000001769238
 10
0.000000320100753
 20
0.0000001769238906
 10
398.8000003201008
 20
0.0000001769239244
 10
398.8000003201008
 20
275.8000001769239
  0
LWPOLYLINE
  5
313B
330
1A
100
AcDbEntity
  8
ZUWAKU
100
AcDbPolyline
 90
        4
 70
     1
 43
0.0
 10
0.2000003201007416
 20
275.6000001769239
 10
0.2000003201007416
 20
0.2000001769239361
 10
398.6000003201007
 20
0.2000001769239246
 10
398.6000003201007
 20
275.6000001769239
  0
LWPOLYLINE
  5
313C
330
1A
100
AcDbEntity
  8
ZUWAKU
100
AcDbPolyline
 90
        4
 70
     1
 43
0.0
 10
0.4000003201007303
 20
275.4000001769239
 10
0.4000003201007303
 20
0.4000001769239248
 10
398.4000003201007
 20
0.4000001769239248
 10
398.4000003201007
 20
275.4000001769239
  0
TEXT
  5
313D
330
1A
100
AcDbEntity
  8
MOJI
100
AcDbText
 10
46.47889511418532
 20
6.370589242061271
 30
0.0
 40
3.0
  1
新・丸トップＲＶ１０５
 41
0.9
  7
ｽﾀｲﾙ1
100
AcDbText
  0
HATCH
  5
313E
330
1A
100
AcDbEntity
  8
ZUWAKU
100
AcDbHatch
 10
0.0
 20
0.0
 30
0.0
210
0.0
220
0.0
230
1.0
  2
ANSI37
 70
     0
 71
     0
 91
        8
 92
        7
 72
     1
 73
     1
 93
       24
 10
7.251131650660681
 20
8.822424417415682
 42
-0.1989123673796348
 10
7.046106397491314
 20
9.317399164246207
 42
0.0
 10
7.046106397491314
 20
9.962500176923896
 42
-0.4142135623730912
 10
7.308606397491303
 20
10.22500017692389
 42
0.0
 10
8.796106397491257
 20
10.22500017692389
 42
0.4142135623731546
 10
9.058606397491303
 20
10.48750017692388
 42
0.0
 10
9.058606397491303
 20
11.36250017692389
 42
0.4142135623731586
 10
8.796106397491257
 20
11.62500017692389
 42
0.0
 10
7.046106397491314
 20
11.62500017692389
 42
0.4142135623730928
 10
5.646106397491337
 20
10.2250001769239
 42
0.0
 10
5.646106397491337
 20
9.317399164246271
 42
0.1989123673796619
 10
6.261182156999552
 20
7.832474923754467
 42
0.0
 10
7.71608114432189
 20
6.377575936432139
 42
-0.1989123673796613
 10
7.921106397491314
 20
5.882601189601546
 42
0.0
 10
7.921106397491314
 20
5.237500176923887
 42
-0.4142135623730911
 10
7.658606397491325
 20
4.975000176923892
 42
0.0
 10
6.171106397491371
 20
4.975000176923892
 42
0.4142135623731526
 10
5.908606397491325
 20
4.712500176923898
 42
0.0
 10
5.908606397491325
 20
3.837500176923887
 42
0.4142135623731526
 10
6.171106397491371
 20
3.575000176923893
 42
0.0
 10
7.921106397491314
 20
3.575000176923893
 42
0.4142135623731044
 10
9.321106397491348
 20
4.975000176923881
 42
0.0
 10
9.321106397491348
 20
5.882601189601517
 42
0.1989123673796604
 10
8.706030637983076
 20
7.367525430093287
 42
0.0
 97
        0
 92
        7
 72
     1
 73
     1
 93
       16
 10
11.77110639749133
 20
9.525000176923896
 42
-0.4142135623730935
 10
12.47110639749132
 20
10.22500017692389
 42
0.0
 10
13.4336063974913
 20
10.22500017692389
 42
0.4142135623731546
 10
13.69610639749134
 20
10.48750017692388
 42
0.0
 10
13.69610639749134
 20
11.36250017692389
 42
0.4142135623730951
 10
13.43360639749135
 20
11.62500017692389
 42
0.0
 10
12.47110639749126
 20
11.62500017692387
 42
0.4142135623730892
 10
10.3711063974913
 20
9.52500017692386
 42
0.0
 10
10.3711063974913
 20
5.675000176923905
 42
0.4142135623730969
 10
12.47110639749132
 20
3.575000176923893
 42
0.0
 10
13.4336063974913
 20
3.575000176923893
 42
0.4142135623731526
 10
13.69610639749134
 20
3.837500176923887
 42
0.0
 10
13.69610639749134
 20
4.712500176923898
 42
0.4142135623730891
 10
13.43360639749135
 20
4.975000176923892
 42
0.0
 10
12.47110639749132
 20
4.975000176923892
 42
-0.4142135623730928
 10
11.77110639749133
 20
5.675000176923886
 42
0.0
 97
        0
 92
        7
 72
     1
 73
     1
 93
        2
 10
12.1211063974913
 20
7.600000176923892
 42
1.0
 10
13.8711063974913
 20
7.600000176923892
 42
1.0
 97
        0
 92
        7
 72
     1
 73
     1
 93
       26
 10
18.65742963858031
 20
9.602523773705605
 42
0.0
 10
19.18824945514922
 20
11.2834531928404
 42
0.5069206636600134
 10
18.93793400555153
 20
11.62500017692389
 42
0.0
 10
18.08848931574692
 20
11.62500017692389
 42
0.3272098845218764
 10
17.83817386614924
 20
11.44154716100737
 42
0.0
 10
16.90403892883336
 20
8.483453192840432
 42
-0.3272098845219541
 10
16.65372347923562
 20
8.300000176923891
 42
0.0
 10
16.58360639749139
 20
8.300000176923891
 42
-0.4142135623731526
 10
16.32110639749134
 20
8.562500176923885
 42
0.0
 10
16.32110639749134
 20
11.36250017692389
 42
0.4142135623730951
 10
16.05860639749136
 20
11.62500017692389
 42
0.0
 10
15.1836063974913
 20
11.62500017692389
 42
0.4142135623730871
 10
14.92110639749131
 20
11.3625001769239
 42
0.0
 10
14.92110639749131
 20
3.837500176923887
 42
0.4142135623730891
 10
15.1836063974913
 20
3.575000176923893
 42
0.0
 10
16.0586063974913
 20
3.575000176923893
 42
0.4142135623731526
 10
16.32110639749134
 20
3.837500176923887
 42
0.0
 10
16.32110639749134
 20
6.637500176923898
 42
-0.4142135623731526
 10
16.58360639749139
 20
6.900000176923892
 42
0.0
 10
16.65372347923567
 20
6.900000176923892
 42
-0.3272098845218915
 10
16.90403892883336
 20
6.716547161007355
 42
0.0
 10
17.83817386614924
 20
3.758453192840429
 42
0.3272098845218902
 10
18.08848931574692
 20
3.575000176923893
 42
0.0
 10
18.93793400555153
 20
3.575000176923893
 42
0.5069206636600335
 10
19.18824945514922
 20
3.916547161007397
 42
0.0
 10
18.02505376591239
 20
7.600000176923961
 42
0.0
 97
        0
 92
        7
 72
     1
 73
     1
 93
        8
 10
21.7461063974913
 20
11.36250017692389
 42
0.4142135623731546
 10
21.48360639749125
 20
11.62500017692389
 42
0.0
 10
20.60860639749137
 20
11.62500017692389
 42
0.4142135623731507
 10
20.34610639749132
 20
11.3625001769239
 42
0.0
 10
20.34610639749132
 20
3.837500176923887
 42
0.4142135623731526
 10
20.60860639749137
 20
3.575000176923893
 42
0.0
 10
21.48360639749125
 20
3.575000176923893
 42
0.4142135623731526
 10
21.7461063974913
 20
3.837500176923887
 42
0.0
 97
        0
 92
        7
 72
     1
 73
     1
 93
       24
 10
24.19610639749135
 20
9.962500176923896
 42
-0.4142135623731546
 10
24.45860639749139
 20
10.22500017692389
 42
0.0
 10
25.94610639749134
 20
10.22500017692389
 42
0.4142135623730911
 10
26.20860639749134
 20
10.48750017692388
 42
0.0
 10
26.20860639749134
 20
11.36250017692389
 42
0.4142135623730952
 10
25.94610639749134
 20
11.62500017692389
 42
0.0
 10
24.19610639749135
 20
11.62500017692389
 42
0.4142135623731048
 10
22.79610639749131
 20
10.2250001769239
 42
0.0
 10
22.79610639749131
 20
9.317399164246271
 42
0.1989123673796613
 10
23.41118215699958
 20
7.832474923754496
 42
0.0
 10
24.86608114432192
 20
6.377575936432162
 42
-0.1989123673796402
 10
25.07110639749134
 20
5.882601189601626
 42
0.0
 10
25.07110639749134
 20
5.237500176923887
 42
-0.4142135623730911
 10
24.80860639749136
 20
4.975000176923892
 42
0.0
 10
23.32110639749135
 20
4.975000176923892
 42
0.4142135623731526
 10
23.0586063974913
 20
4.712500176923898
 42
0.0
 10
23.0586063974913
 20
3.837500176923887
 42
0.4142135623730891
 10
23.32110639749129
 20
3.575000176923893
 42
0.0
 10
25.07110639749134
 20
3.575000176923893
 42
0.4142135623730925
 10
26.47110639749132
 20
4.975000176923881
 42
0.0
 10
26.47110639749132
 20
5.882601189601517
 42
0.1989123673796675
 10
25.85603063798305
 20
7.367525430093344
 42
0.0
 10
24.40113165066077
 20
8.822424417415602
 42
-0.1989123673796652
 10
24.19610639749135
 20
9.317399164246186
 42
0.0
 97
        0
 92
        7
 72
     1
 73
     1
 93
       16
 10
28.92110639749131
 20
11.36250017692388
 42
0.414213562373103
 10
28.65860639749132
 20
11.62500017692389
 42
0.0
 10
27.78360639749132
 20
11.62500017692389
 42
0.4142135623730871
 10
27.52110639749133
 20
11.3625001769239
 42
0.0
 10
27.52110639749133
 20
4.975000176923881
 42
0.4142135623730926
 10
28.92110639749131
 20
3.575000176923893
 42
0.0
 10
30.67110639749131
 20
3.575000176923893
 42
0.4142135623731044
 10
32.07110639749135
 20
4.975000176923881
 42
0.0
 10
32.07110639749135
 20
11.36250017692389
 42
0.4142135623730951
 10
31.80860639749136
 20
11.62500017692389
 42
0.0
 10
30.9336063974913
 20
11.62500017692389
 42
0.4142135623730871
 10
30.67110639749131
 20
11.3625001769239
 42
0.0
 10
30.67110639749131
 20
5.500000176923879
 42
-0.414213562373088
 10
30.14610639749133
 20
4.975000176923892
 42
0.0
 10
29.44610639749134
 20
4.975000176923892
 42
-0.4142135623731197
 10
28.92110639749131
 20
5.500000176923879
 42
0.0
 97
        0
 92
        7
 72
     1
 73
     1
 93
        8
 10
34.52110639749133
 20
11.3625001769239
 42
0.4142135623730871
 10
34.25860639749135
 20
11.62500017692389
 42
0.0
 10
33.38360639749135
 20
11.62500017692389
 42
0.4142135623731507
 10
33.1211063974913
 20
11.3625001769239
 42
0.0
 10
33.1211063974913
 20
3.837500176923887
 42
0.4142135623730891
 10
33.38360639749129
 20
3.575000176923893
 42
0.0
 10
34.25860639749135
 20
3.575000176923893
 42
0.4142135623730891
 10
34.52110639749133
 20
3.837500176923887
 42
0.0
 97
        0
 75
     0
 76
     1
 52
0.0
 41
0.1
 77
     0
 78
     2
 53
45.0
 43
-450.4711518472387
 44
-6.599999823076075
 45
-0.2245064030267288
 46
0.2245064030267288
 79
     0
 53
135.0
 43
-450.4711518472387
 44
-6.599999823076075
 45
-0.2245064030267288
 46
-0.2245064030267288
 79
     0
 47
0.057451373970553
 98
        8
 10
8.039927801612407
 20
7.583586999866668
 10
11.20225782332033
 20
9.422031268149396
 10
12.58218426293058
 20
7.75594099995925
 10
15.45703031091932
 20
8.100649000144642
 10
20.91923632957912
 20
8.33045513391545
 10
23.44910076766552
 20
9.709288335127496
 10
28.27884330630093
 20
9.364579134471398
 10
33.91354012991212
 20
9.594385268242206
  0
LINE
  5
313F
330
1A
100
AcDbEntity
  8
ZUWAKU
100
AcDbLine
 10
12.47110639749132
 20
11.62500017692387
 30
0.0
 11
13.4336063974913
 21
11.62500017692389
 31
0.0
  0
LINE
  5
3140
330
1A
100
AcDbEntity
  8
ZUWAKU
100
AcDbLine
 10
13.4336063974913
 20
10.22500017692389
 30
0.0
 11
12.47110639749132
 21
10.22500017692389
 31
0.0
  0
LINE
  5
3141
330
1A
100
AcDbEntity
  8
ZUWAKU
100
AcDbLine
 10
12.47110639749132
 20
4.975000176923892
 30
0.0
 11
13.4336063974913
 21
4.975000176923892
 31
0.0
  0
LINE
  5
3142
330
1A
100
AcDbEntity
  8
ZUWAKU
100
AcDbLine
 10
13.4336063974913
 20
3.575000176923893
 30
0.0
 11
12.47110639749132
 21
3.575000176923893
 31
0.0
  0
CIRCLE
  5
3143
330
1A
100
AcDbEntity
  8
ZUWAKU
100
AcDbCircle
 10
12.9961063974913
 20
7.600000176923892
 30
0.0
 40
0.875
  0
ARC
  5
3144
330
1A
100
AcDbEntity
  8
ZUWAKU
100
AcDbCircle
 10
7.746106397491303
 20
9.317399164246243
 30
0.0
 40
0.7
100
AcDbArc
 50
180.0000000000016
 51
224.9999999999988
  0
LINE
  5
3145
330
1A
100
AcDbEntity
  8
ZUWAKU
100
AcDbLine
 10
11.77110639749133
 20
9.525000176923892
 30
0.0
 11
11.77110639749133
 21
5.675000176923894
 31
0.0
  0
LINE
  5
3146
330
1A
100
AcDbEntity
  8
ZUWAKU
100
AcDbLine
 10
10.3711063974913
 20
5.675000176923894
 30
0.0
 11
10.3711063974913
 21
9.525000176923871
 31
0.0
  0
ARC
  5
3147
330
1A
100
AcDbEntity
  8
ZUWAKU
100
AcDbCircle
 10
7.746106397491303
 20
9.317399164246243
 30
0.0
 40
2.099999999999999
100
AcDbArc
 50
180.0
 51
225.0
  0
ARC
  5
3148
330
1A
100
AcDbEntity
  8
ZUWAKU
100
AcDbCircle
 10
7.921106397491314
 20
4.975000176923892
 30
0.0
 40
1.399999999999999
100
AcDbArc
 50
270.0
 51
0.0
  0
ARC
  5
3149
330
1A
100
AcDbEntity
  8
ZUWAKU
100
AcDbCircle
 10
12.47110639749132
 20
5.675000176923894
 30
0.0
 40
2.099999999999999
100
AcDbArc
 50
180.0
 51
270.0
  0
ARC
  5
314A
330
1A
100
AcDbEntity
  8
ZUWAKU
100
AcDbCircle
 10
7.221106397491325
 20
5.882601189601544
 30
0.0
 40
2.099999999999999
100
AcDbArc
 50
0.0
 51
45.0
  0
LINE
  5
314B
330
1A
100
AcDbEntity
  8
ZUWAKU
100
AcDbLine
 10
8.706030637983076
 20
7.367525430093305
 30
0.0
 11
7.251131650660738
 21
8.822424417415643
 31
0.0
  0
LINE
  5
314C
330
1A
100
AcDbEntity
  8
ZUWAKU
100
AcDbLine
 10
7.921106397491314
 20
5.237500176923894
 30
0.0
 11
7.921106397491314
 21
5.882601189601565
 31
0.0
  0
ARC
  5
314D
330
1A
100
AcDbEntity
  8
ZUWAKU
100
AcDbCircle
 10
7.658606397491325
 20
5.237500176923894
 30
0.0
 40
0.2625
100
AcDbArc
 50
270.0
 51
0.0
  0
ARC
  5
314E
330
1A
100
AcDbEntity
  8
ZUWAKU
100
AcDbCircle
 10
7.221106397491325
 20
5.882601189601565
 30
0.0
 40
0.7
100
AcDbArc
 50
0.0
 51
45.0
  0
LINE
  5
314F
330
1A
100
AcDbEntity
  8
ZUWAKU
100
AcDbLine
 10
5.908606397491325
 20
3.837500176923892
 30
0.0
 11
5.908606397491325
 21
4.712500176923892
 31
0.0
  0
ARC
  5
3150
330
1A
100
AcDbEntity
  8
ZUWAKU
100
AcDbCircle
 10
6.171106397491314
 20
3.837500176923892
 30
0.0
 40
0.2625
100
AcDbArc
 50
180.0
 51
270.0
  0
ARC
  5
3151
330
1A
100
AcDbEntity
  8
ZUWAKU
100
AcDbCircle
 10
6.171106397491314
 20
4.712500176923892
 30
0.0
 40
0.2625
100
AcDbArc
 50
90.0
 51
180.0
  0
LINE
  5
3152
330
1A
100
AcDbEntity
  8
ZUWAKU
100
AcDbLine
 10
6.171106397491314
 20
3.575000176923893
 30
0.0
 11
7.921106397491314
 21
3.575000176923893
 31
0.0
  0
LINE
  5
3153
330
1A
100
AcDbEntity
  8
ZUWAKU
100
AcDbLine
 10
6.171106397491314
 20
4.975000176923892
 30
0.0
 11
7.658606397491325
 21
4.975000176923892
 31
0.0
  0
LINE
  5
3154
330
1A
100
AcDbEntity
  8
ZUWAKU
100
AcDbLine
 10
6.261182156999552
 20
7.832474923754482
 30
0.0
 11
7.71608114432189
 21
6.377575936432151
 31
0.0
  0
LINE
  5
3155
330
1A
100
AcDbEntity
  8
ZUWAKU
100
AcDbLine
 10
9.321106397491348
 20
4.975000176923892
 30
0.0
 11
9.321106397491348
 21
5.882601189601565
 31
0.0
  0
ARC
  5
3156
330
1A
100
AcDbEntity
  8
ZUWAKU
100
AcDbCircle
 10
12.47110639749132
 20
5.675000176923894
 30
0.0
 40
0.7
100
AcDbArc
 50
180.0
 51
270.0
  0
ARC
  5
3157
330
1A
100
AcDbEntity
  8
ZUWAKU
100
AcDbCircle
 10
8.796106397491314
 20
11.36250017692389
 30
0.0
 40
0.2625
100
AcDbArc
 50
0.0
 51
90.0
  0
ARC
  5
3158
330
1A
100
AcDbEntity
  8
ZUWAKU
100
AcDbCircle
 10
8.796106397491314
 20
10.48750017692389
 30
0.0
 40
0.2625
100
AcDbArc
 50
270.0
 51
0.0
  0
LINE
  5
3159
330
1A
100
AcDbEntity
  8
ZUWAKU
100
AcDbLine
 10
7.046106397491314
 20
11.62500017692389
 30
0.0
 11
8.796106397491314
 21
11.62500017692389
 31
0.0
  0
ARC
  5
315A
330
1A
100
AcDbEntity
  8
ZUWAKU
100
AcDbCircle
 10
7.308606397491303
 20
9.962500176923892
 30
0.0
 40
0.2625
100
AcDbArc
 50
90.0
 51
180.0
  0
LINE
  5
315B
330
1A
100
AcDbEntity
  8
ZUWAKU
100
AcDbLine
 10
7.046106397491314
 20
9.962500176923892
 30
0.0
 11
7.046106397491314
 21
9.317399164246221
 31
0.0
  0
LINE
  5
315C
330
1A
100
AcDbEntity
  8
ZUWAKU
100
AcDbLine
 10
8.796106397491314
 20
10.22500017692389
 30
0.0
 11
7.308606397491303
 21
10.22500017692389
 31
0.0
  0
LINE
  5
315D
330
1A
100
AcDbEntity
  8
ZUWAKU
100
AcDbLine
 10
5.646106397491337
 20
10.22500017692389
 30
0.0
 11
5.646106397491337
 21
9.317399164246221
 31
0.0
  0
ARC
  5
315E
330
1A
100
AcDbEntity
  8
ZUWAKU
100
AcDbCircle
 10
7.046106397491314
 20
10.22500017692389
 30
0.0
 40
1.399999999999999
100
AcDbArc
 50
90.0
 51
180.0
  0
LINE
  5
315F
330
1A
100
AcDbEntity
  8
ZUWAKU
100
AcDbLine
 10
9.058606397491303
 20
11.36250017692389
 30
0.0
 11
9.058606397491303
 21
10.48750017692389
 31
0.0
  0
ARC
  5
3160
330
1A
100
AcDbEntity
  8
ZUWAKU
100
AcDbCircle
 10
12.47110639749132
 20
9.525000176923892
 30
0.0
 40
0.7
100
AcDbArc
 50
90.0
 51
180.0
  0
ARC
  5
3161
330
1A
100
AcDbEntity
  8
ZUWAKU
100
AcDbCircle
 10
12.47110639749132
 20
9.525000176923871
 30
0.0
 40
2.099999999999999
100
AcDbArc
 50
90.0
 51
180.0
  0
LINE
  5
3162
330
1A
100
AcDbEntity
  8
ZUWAKU
100
AcDbLine
 10
39.66331509409485
 20
15.00000017692389
 30
0.0
 11
39.66331509409497
 21
0.4000001769239248
 31
0.0
  0
LINE
  5
3163
330
1A
100
AcDbEntity
  8
ZUWAKU
100
AcDbLine
 10
39.76331509409487
 20
15.00000017692389
 30
0.0
 11
39.76331509409499
 21
0.4000001769239248
 31
0.0
  0
LINE
  5
3164
330
1A
100
AcDbEntity
  8
ZUWAKU
100
AcDbLine
 10
39.56331509409494
 20
15.00000017692389
 30
0.0
 11
39.56331509409494
 21
0.4000001769239248
 31
0.0
  0
LINE
  5
3165
330
1A
100
AcDbEntity
  8
ZUWAKU
100
AcDbLine
 10
32.07110639749135
 20
4.975000176923892
 30
0.0
 11
32.07110639749135
 21
11.36250017692389
 31
0.0
  0
LINE
  5
3166
330
1A
100
AcDbEntity
  8
ZUWAKU
100
AcDbLine
 10
30.67110639749131
 20
11.36250017692389
 30
0.0
 11
30.67110639749131
 21
5.50000017692389
 31
0.0
  0
LINE
  5
3167
330
1A
100
AcDbEntity
  8
ZUWAKU
100
AcDbLine
 10
34.52110639749133
 20
3.837500176923892
 30
0.0
 11
34.52110639749133
 21
11.36250017692389
 31
0.0
  0
LINE
  5
3168
330
1A
100
AcDbEntity
  8
ZUWAKU
100
AcDbLine
 10
33.1211063974913
 20
11.36250017692389
 30
0.0
 11
33.1211063974913
 21
3.837500176923892
 31
0.0
  0
ARC
  5
3169
330
1A
100
AcDbEntity
  8
ZUWAKU
100
AcDbCircle
 10
24.89610639749133
 20
9.317399164246243
 30
0.0
 40
0.7
100
AcDbArc
 50
180.0000000000016
 51
224.9999999999988
  0
ARC
  5
316A
330
1A
100
AcDbEntity
  8
ZUWAKU
100
AcDbCircle
 10
24.89610639749133
 20
9.317399164246243
 30
0.0
 40
2.099999999999999
100
AcDbArc
 50
180.0
 51
225.0
  0
LINE
  5
316B
330
1A
100
AcDbEntity
  8
ZUWAKU
100
AcDbLine
 10
18.65742963858031
 20
9.602523773705605
 30
0.0
 11
18.02505376591239
 21
7.600000176923902
 31
0.0
  0
LINE
  5
316C
330
1A
100
AcDbEntity
  8
ZUWAKU
100
AcDbLine
 10
20.34610639749132
 20
11.36250017692389
 30
0.0
 11
20.34610639749132
 21
3.837500176923892
 31
0.0
  0
LINE
  5
316D
330
1A
100
AcDbEntity
  8
ZUWAKU
100
AcDbLine
 10
21.7461063974913
 20
3.837500176923892
 30
0.0
 11
21.7461063974913
 21
11.36250017692389
 31
0.0
  0
LINE
  5
316E
330
1A
100
AcDbEntity
  8
ZUWAKU
100
AcDbLine
 10
27.52110639749133
 20
11.36250017692389
 30
0.0
 11
27.52110639749133
 21
4.975000176923892
 31
0.0
  0
LINE
  5
316F
330
1A
100
AcDbEntity
  8
ZUWAKU
100
AcDbLine
 10
28.92110639749131
 20
5.50000017692389
 30
0.0
 11
28.92110639749131
 21
11.36250017692389
 31
0.0
  0
LINE
  5
3170
330
1A
100
AcDbEntity
  8
ZUWAKU
100
AcDbLine
 10
16.32110639749134
 20
8.562500176923894
 30
0.0
 11
16.32110639749134
 21
11.36250017692389
 31
0.0
  0
LINE
  5
3171
330
1A
100
AcDbEntity
  8
ZUWAKU
100
AcDbLine
 10
14.92110639749131
 20
11.36250017692389
 30
0.0
 11
14.92110639749131
 21
3.837500176923892
 31
0.0
  0
LINE
  5
3172
330
1A
100
AcDbEntity
  8
ZUWAKU
100
AcDbLine
 10
17.83817386614924
 20
11.44154716100737
 30
0.0
 11
16.90403892883336
 21
8.483453192840407
 31
0.0
  0
LINE
  5
3173
330
1A
100
AcDbEntity
  8
ZUWAKU
100
AcDbLine
 10
30.14610639749133
 20
4.975000176923892
 30
0.0
 11
29.44610639749134
 21
4.975000176923892
 31
0.0
  0
LINE
  5
3174
330
1A
100
AcDbEntity
  8
ZUWAKU
100
AcDbLine
 10
28.92110639749131
 20
3.575000176923893
 30
0.0
 11
30.67110639749131
 21
3.575000176923893
 31
0.0
  0
LINE
  5
3175
330
1A
100
AcDbEntity
  8
ZUWAKU
100
AcDbLine
 10
20.60860639749131
 20
3.575000176923893
 30
0.0
 11
21.48360639749131
 21
3.575000176923893
 31
0.0
  0
LINE
  5
3176
330
1A
100
AcDbEntity
  8
ZUWAKU
100
AcDbLine
 10
17.83817386614924
 20
3.758453192840406
 30
0.0
 11
16.90403892883336
 21
6.716547161007376
 31
0.0
  0
ARC
  5
3177
330
1A
100
AcDbEntity
  8
ZUWAKU
100
AcDbCircle
 10
16.65372347923567
 20
8.562500176923894
 30
0.0
 40
0.2625
100
AcDbArc
 50
270.0
 51
342.4744316262769
  0
LINE
  5
3178
330
1A
100
AcDbEntity
  8
ZUWAKU
100
AcDbLine
 10
16.65372347923567
 20
8.300000176923891
 30
0.0
 11
16.58360639749133
 21
8.300000176923891
 31
0.0
  0
LINE
  5
3179
330
1A
100
AcDbEntity
  8
ZUWAKU
100
AcDbLine
 10
16.58360639749133
 20
6.900000176923892
 30
0.0
 11
16.65372347923567
 21
6.900000176923892
 31
0.0
  0
ARC
  5
317A
330
1A
100
AcDbEntity
  8
ZUWAKU
100
AcDbCircle
 10
16.58360639749133
 20
8.562500176923894
 30
0.0
 40
0.2625
100
AcDbArc
 50
180.0
 51
270.0
  0
LINE
  5
317B
330
1A
100
AcDbEntity
  8
ZUWAKU
100
AcDbLine
 10
15.1836063974913
 20
3.575000176923893
 30
0.0
 11
16.0586063974913
 21
3.575000176923893
 31
0.0
  0
ARC
  5
317C
330
1A
100
AcDbEntity
  8
ZUWAKU
100
AcDbCircle
 10
16.0586063974913
 20
3.837500176923892
 30
0.0
 40
0.2625
100
AcDbArc
 50
270.0
 51
0.0
  0
LINE
  5
317D
330
1A
100
AcDbEntity
  8
ZUWAKU
100
AcDbLine
 10
16.32110639749134
 20
3.837500176923892
 30
0.0
 11
16.32110639749134
 21
6.637500176923893
 31
0.0
  0
LINE
  5
317E
330
1A
100
AcDbEntity
  8
ZUWAKU
100
AcDbLine
 10
13.69610639749134
 20
4.712500176923892
 30
0.0
 11
13.69610639749134
 21
3.837500176923892
 31
0.0
  0
ARC
  5
317F
330
1A
100
AcDbEntity
  8
ZUWAKU
100
AcDbCircle
 10
13.4336063974913
 20
3.837500176923892
 30
0.0
 40
0.2625
100
AcDbArc
 50
270.0
 51
0.0
  0
ARC
  5
3180
330
1A
100
AcDbEntity
  8
ZUWAKU
100
AcDbCircle
 10
13.4336063974913
 20
4.712500176923892
 30
0.0
 40
0.2625
100
AcDbArc
 50
0.0
 51
90.0
  0
ARC
  5
3181
330
1A
100
AcDbEntity
  8
ZUWAKU
100
AcDbCircle
 10
15.1836063974913
 20
3.837500176923892
 30
0.0
 40
0.2625
100
AcDbArc
 50
180.0
 51
270.0
  0
ARC
  5
3182
330
1A
100
AcDbEntity
  8
ZUWAKU
100
AcDbCircle
 10
16.65372347923567
 20
6.637500176923893
 30
0.0
 40
0.2625
100
AcDbArc
 50
17.52556837372303
 51
90.0
  0
ARC
  5
3183
330
1A
100
AcDbEntity
  8
ZUWAKU
100
AcDbCircle
 10
16.58360639749133
 20
6.637500176923893
 30
0.0
 40
0.2625
100
AcDbArc
 50
90.0
 51
180.0
  0
ARC
  5
3184
330
1A
100
AcDbEntity
  8
ZUWAKU
100
AcDbCircle
 10
20.60860639749131
 20
3.837500176923892
 30
0.0
 40
0.2625
100
AcDbArc
 50
180.0
 51
270.0
  0
LINE
  5
3185
330
1A
100
AcDbEntity
  8
ZUWAKU
100
AcDbLine
 10
18.08848931574698
 20
3.575000176923893
 30
0.0
 11
18.93793400555148
 21
3.575000176923893
 31
0.0
  0
ARC
  5
3186
330
1A
100
AcDbEntity
  8
ZUWAKU
100
AcDbCircle
 10
18.93793400555148
 20
3.837500176923892
 30
0.0
 40
0.2625
100
AcDbArc
 50
270.0
 51
17.52556837372303
  0
LINE
  5
3187
330
1A
100
AcDbEntity
  8
ZUWAKU
100
AcDbLine
 10
19.18824945514922
 20
3.916547161007379
 30
0.0
 11
18.02505376591239
 21
7.600000176923902
 31
0.0
  0
ARC
  5
3188
330
1A
100
AcDbEntity
  8
ZUWAKU
100
AcDbCircle
 10
18.08848931574698
 20
3.837500176923892
 30
0.0
 40
0.2625
100
AcDbArc
 50
197.525568373723
 51
270.0
  0
ARC
  5
3189
330
1A
100
AcDbEntity
  8
ZUWAKU
100
AcDbCircle
 10
28.92110639749131
 20
4.975000176923892
 30
0.0
 40
1.399999999999999
100
AcDbArc
 50
180.0
 51
270.0
  0
ARC
  5
318A
330
1A
100
AcDbEntity
  8
ZUWAKU
100
AcDbCircle
 10
25.07110639749134
 20
4.975000176923892
 30
0.0
 40
1.399999999999999
100
AcDbArc
 50
270.0
 51
0.0
  0
LINE
  5
318B
330
1A
100
AcDbEntity
  8
ZUWAKU
100
AcDbLine
 10
25.85603063798311
 20
7.367525430093305
 30
0.0
 11
24.40113165066071
 21
8.822424417415643
 31
0.0
  0
LINE
  5
318C
330
1A
100
AcDbEntity
  8
ZUWAKU
100
AcDbLine
 10
25.07110639749134
 20
5.237500176923894
 30
0.0
 11
25.07110639749134
 21
5.882601189601565
 31
0.0
  0
ARC
  5
318D
330
1A
100
AcDbEntity
  8
ZUWAKU
100
AcDbCircle
 10
24.3711063974913
 20
5.882601189601565
 30
0.0
 40
0.7
100
AcDbArc
 50
0.0
 51
45.0
  0
ARC
  5
318E
330
1A
100
AcDbEntity
  8
ZUWAKU
100
AcDbCircle
 10
24.8086063974913
 20
5.237500176923894
 30
0.0
 40
0.2625
100
AcDbArc
 50
270.0
 51
0.0
  0
LINE
  5
318F
330
1A
100
AcDbEntity
  8
ZUWAKU
100
AcDbLine
 10
23.0586063974913
 20
3.837500176923892
 30
0.0
 11
23.0586063974913
 21
4.712500176923892
 31
0.0
  0
ARC
  5
3190
330
1A
100
AcDbEntity
  8
ZUWAKU
100
AcDbCircle
 10
23.32110639749135
 20
3.837500176923892
 30
0.0
 40
0.2625
100
AcDbArc
 50
180.0
 51
270.0
  0
ARC
  5
3191
330
1A
100
AcDbEntity
  8
ZUWAKU
100
AcDbCircle
 10
21.48360639749131
 20
3.837500176923892
 30
0.0
 40
0.2625
100
AcDbArc
 50
270.0
 51
0.0
  0
ARC
  5
3192
330
1A
100
AcDbEntity
  8
ZUWAKU
100
AcDbCircle
 10
23.32110639749135
 20
4.712500176923892
 30
0.0
 40
0.2625
100
AcDbArc
 50
90.0
 51
180.0
  0
LINE
  5
3193
330
1A
100
AcDbEntity
  8
ZUWAKU
100
AcDbLine
 10
23.32110639749135
 20
4.975000176923892
 30
0.0
 11
24.8086063974913
 21
4.975000176923892
 31
0.0
  0
LINE
  5
3194
330
1A
100
AcDbEntity
  8
ZUWAKU
100
AcDbLine
 10
23.32110639749135
 20
3.575000176923893
 30
0.0
 11
25.07110639749134
 21
3.575000176923893
 31
0.0
  0
LINE
  5
3195
330
1A
100
AcDbEntity
  8
ZUWAKU
100
AcDbLine
 10
23.41118215699958
 20
7.832474923754482
 30
0.0
 11
24.86608114432192
 21
6.377575936432151
 31
0.0
  0
LINE
  5
3196
330
1A
100
AcDbEntity
  8
ZUWAKU
100
AcDbLine
 10
26.47110639749132
 20
4.975000176923892
 30
0.0
 11
26.47110639749132
 21
5.882601189601565
 31
0.0
  0
ARC
  5
3197
330
1A
100
AcDbEntity
  8
ZUWAKU
100
AcDbCircle
 10
24.3711063974913
 20
5.882601189601544
 30
0.0
 40
2.099999999999999
100
AcDbArc
 50
0.0
 51
45.0
  0
ARC
  5
3198
330
1A
100
AcDbEntity
  8
ZUWAKU
100
AcDbCircle
 10
29.44610639749134
 20
5.50000017692389
 30
0.0
 40
0.525
100
AcDbArc
 50
180.0
 51
270.0
  0
ARC
  5
3199
330
1A
100
AcDbEntity
  8
ZUWAKU
100
AcDbCircle
 10
30.67110639749131
 20
4.975000176923892
 30
0.0
 40
1.399999999999999
100
AcDbArc
 50
270.0
 51
0.0
  0
LINE
  5
319A
330
1A
100
AcDbEntity
  8
ZUWAKU
100
AcDbLine
 10
33.38360639749135
 20
3.575000176923893
 30
0.0
 11
34.25860639749135
 21
3.575000176923893
 31
0.0
  0
ARC
  5
319B
330
1A
100
AcDbEntity
  8
ZUWAKU
100
AcDbCircle
 10
33.38360639749135
 20
3.837500176923892
 30
0.0
 40
0.2625
100
AcDbArc
 50
180.0
 51
270.0
  0
ARC
  5
319C
330
1A
100
AcDbEntity
  8
ZUWAKU
100
AcDbCircle
 10
30.14610639749133
 20
5.50000017692389
 30
0.0
 40
0.525
100
AcDbArc
 50
270.0
 51
0.0
  0
ARC
  5
319D
330
1A
100
AcDbEntity
  8
ZUWAKU
100
AcDbCircle
 10
34.25860639749135
 20
3.837500176923892
 30
0.0
 40
0.2625
100
AcDbArc
 50
270.0
 51
0.0
  0
LINE
  5
319E
330
1A
100
AcDbEntity
  8
ZUWAKU
100
AcDbLine
 10
21.48360639749131
 20
11.62500017692389
 30
0.0
 11
20.60860639749131
 21
11.62500017692389
 31
0.0
  0
ARC
  5
319F
330
1A
100
AcDbEntity
  8
ZUWAKU
100
AcDbCircle
 10
16.0586063974913
 20
11.36250017692389
 30
0.0
 40
0.2625
100
AcDbArc
 50
0.0
 51
90.0
  0
LINE
  5
31A0
330
1A
100
AcDbEntity
  8
ZUWAKU
100
AcDbLine
 10
16.0586063974913
 20
11.62500017692389
 30
0.0
 11
15.1836063974913
 21
11.62500017692389
 31
0.0
  0
ARC
  5
31A1
330
1A
100
AcDbEntity
  8
ZUWAKU
100
AcDbCircle
 10
13.4336063974913
 20
11.36250017692389
 30
0.0
 40
0.2625
100
AcDbArc
 50
0.0
 51
90.0
  0
ARC
  5
31A2
330
1A
100
AcDbEntity
  8
ZUWAKU
100
AcDbCircle
 10
15.1836063974913
 20
11.36250017692389
 30
0.0
 40
0.2625
100
AcDbArc
 50
90.0
 51
180.0
  0
ARC
  5
31A3
330
1A
100
AcDbEntity
  8
ZUWAKU
100
AcDbCircle
 10
13.4336063974913
 20
10.48750017692389
 30
0.0
 40
0.2625
100
AcDbArc
 50
270.0
 51
0.0
  0
LINE
  5
31A4
330
1A
100
AcDbEntity
  8
ZUWAKU
100
AcDbLine
 10
13.69610639749134
 20
11.36250017692389
 30
0.0
 11
13.69610639749134
 21
10.48750017692389
 31
0.0
  0
ARC
  5
31A5
330
1A
100
AcDbEntity
  8
ZUWAKU
100
AcDbCircle
 10
20.60860639749131
 20
11.36250017692389
 30
0.0
 40
0.2625
100
AcDbArc
 50
90.0
 51
180.0
  0
LINE
  5
31A6
330
1A
100
AcDbEntity
  8
ZUWAKU
100
AcDbLine
 10
18.08848931574698
 20
11.62500017692389
 30
0.0
 11
18.93793400555148
 21
11.62500017692389
 31
0.0
  0
ARC
  5
31A7
330
1A
100
AcDbEntity
  8
ZUWAKU
100
AcDbCircle
 10
18.93793400555148
 20
11.36250017692389
 30
0.0
 40
0.2625
100
AcDbArc
 50
342.4744316262769
 51
90.0
  0
LINE
  5
31A8
330
1A
100
AcDbEntity
  8
ZUWAKU
100
AcDbLine
 10
19.18824945514922
 20
11.2834531928404
 30
0.0
 11
18.65742963858031
 21
9.602523773705605
 31
0.0
  0
ARC
  5
31A9
330
1A
100
AcDbEntity
  8
ZUWAKU
100
AcDbCircle
 10
18.08848931574698
 20
11.36250017692389
 30
0.0
 40
0.2625
100
AcDbArc
 50
90.0
 51
162.4744316262769
  0
LINE
  5
31AA
330
1A
100
AcDbEntity
  8
ZUWAKU
100
AcDbLine
 10
24.19610639749135
 20
11.62500017692389
 30
0.0
 11
25.94610639749134
 21
11.62500017692389
 31
0.0
  0
LINE
  5
31AB
330
1A
100
AcDbEntity
  8
ZUWAKU
100
AcDbLine
 10
25.94610639749134
 20
10.22500017692389
 30
0.0
 11
24.45860639749133
 21
10.22500017692389
 31
0.0
  0
ARC
  5
31AC
330
1A
100
AcDbEntity
  8
ZUWAKU
100
AcDbCircle
 10
24.45860639749133
 20
9.962500176923892
 30
0.0
 40
0.2625
100
AcDbArc
 50
90.0
 51
180.0
  0
LINE
  5
31AD
330
1A
100
AcDbEntity
  8
ZUWAKU
100
AcDbLine
 10
24.19610639749135
 20
9.962500176923892
 30
0.0
 11
24.19610639749135
 21
9.317399164246221
 31
0.0
  0
ARC
  5
31AE
330
1A
100
AcDbEntity
  8
ZUWAKU
100
AcDbCircle
 10
21.48360639749131
 20
11.36250017692389
 30
0.0
 40
0.2625
100
AcDbArc
 50
0.0
 51
90.0
  0
LINE
  5
31AF
330
1A
100
AcDbEntity
  8
ZUWAKU
100
AcDbLine
 10
22.79610639749131
 20
10.22500017692389
 30
0.0
 11
22.79610639749131
 21
9.317399164246221
 31
0.0
  0
ARC
  5
31B0
330
1A
100
AcDbEntity
  8
ZUWAKU
100
AcDbCircle
 10
24.19610639749135
 20
10.22500017692389
 30
0.0
 40
1.399999999999999
100
AcDbArc
 50
90.0
 51
180.0
  0
ARC
  5
31B1
330
1A
100
AcDbEntity
  8
ZUWAKU
100
AcDbCircle
 10
28.65860639749132
 20
11.36250017692389
 30
0.0
 40
0.2625
100
AcDbArc
 50
0.0
 51
90.0
  0
ARC
  5
31B2
330
1A
100
AcDbEntity
  8
ZUWAKU
100
AcDbCircle
 10
27.78360639749132
 20
11.36250017692389
 30
0.0
 40
0.2625
100
AcDbArc
 50
90.0
 51
180.0
  0
LINE
  5
31B3
330
1A
100
AcDbEntity
  8
ZUWAKU
100
AcDbLine
 10
28.65860639749132
 20
11.62500017692389
 30
0.0
 11
27.78360639749132
 21
11.62500017692389
 31
0.0
  0
ARC
  5
31B4
330
1A
100
AcDbEntity
  8
ZUWAKU
100
AcDbCircle
 10
25.94610639749134
 20
11.36250017692389
 30
0.0
 40
0.2625
100
AcDbArc
 50
0.0
 51
90.0
  0
ARC
  5
31B5
330
1A
100
AcDbEntity
  8
ZUWAKU
100
AcDbCircle
 10
25.94610639749134
 20
10.48750017692389
 30
0.0
 40
0.2625
100
AcDbArc
 50
270.0
 51
0.0
  0
LINE
  5
31B6
330
1A
100
AcDbEntity
  8
ZUWAKU
100
AcDbLine
 10
26.20860639749134
 20
11.36250017692389
 30
0.0
 11
26.20860639749134
 21
10.48750017692389
 31
0.0
  0
LINE
  5
31B7
330
1A
100
AcDbEntity
  8
ZUWAKU
100
AcDbLine
 10
34.25860639749135
 20
11.62500017692389
 30
0.0
 11
33.38360639749135
 21
11.62500017692389
 31
0.0
  0
ARC
  5
31B8
330
1A
100
AcDbEntity
  8
ZUWAKU
100
AcDbCircle
 10
33.38360639749135
 20
11.36250017692389
 30
0.0
 40
0.2625
100
AcDbArc
 50
90.0
 51
180.0
  0
ARC
  5
31B9
330
1A
100
AcDbEntity
  8
ZUWAKU
100
AcDbCircle
 10
31.8086063974913
 20
11.36250017692389
 30
0.0
 40
0.2625
100
AcDbArc
 50
0.0
 51
90.0
  0
LINE
  5
31BA
330
1A
100
AcDbEntity
  8
ZUWAKU
100
AcDbLine
 10
31.8086063974913
 20
11.62500017692389
 30
0.0
 11
30.9336063974913
 21
11.62500017692389
 31
0.0
  0
ARC
  5
31BB
330
1A
100
AcDbEntity
  8
ZUWAKU
100
AcDbCircle
 10
30.9336063974913
 20
11.36250017692389
 30
0.0
 40
0.2625
100
AcDbArc
 50
90.0
 51
180.0
  0
ARC
  5
31BC
330
1A
100
AcDbEntity
  8
ZUWAKU
100
AcDbCircle
 10
34.25860639749135
 20
11.36250017692389
 30
0.0
 40
0.2625
100
AcDbArc
 50
0.0
 51
90.0
  0
TEXT
  5
31BD
330
1A
100
AcDbEntity
  8
MOJI
100
AcDbText
 10
119.9136016605262
 20
9.002460705627584
 30
0.0
 40
2.799999999999999
  1
ブラケット正面打（吊）ワンタッチ自在式
 41
0.9
  7
ｽﾀｲﾙ1
100
AcDbText
  0
TEXT
  5
31BE
330
1A
100
AcDbEntity
  8
MOJI
100
AcDbText
 10
119.9136016605262
 20
1.602460705627601
 30
0.0
 40
2.799999999999999
  1
ＲＶ１０５－４－１０～４５
 41
0.9
  7
ｽﾀｲﾙ1
100
AcDbText
  0
LINE
  5
31BF
330
1A
100
AcDbEntity
  8
ZUWAKU
100
AcDbLine
 10
104.1233009651347
 20
15.00000017692389
 30
0.0
 11
104.1233009651347
 21
0.4000001769239248
 31
0.0
  0
LINE
  5
31C0
330
1A
100
AcDbEntity
  8
ZUWAKU
100
AcDbLine
 10
104.3233009651346
 20
15.00000017692389
 30
0.0
 11
104.3233009651347
 21
0.4000001769239248
 31
0.0
  0
LINE
  5
31C1
330
1A
100
AcDbEntity
  8
ZUWAKU
100
AcDbLine
 10
104.2233009651346
 20
15.00000017692389
 30
0.0
 11
104.2233009651347
 21
0.4000001769239248
 31
0.0
  0
TEXT
  5
31C2
330
1A
100
AcDbEntity
  8
ZUWAKU
100
AcDbText
 10
104.8620234762395
 20
4.827678446116699
 30
0.0
 40
2.0
  1
サイズ
 41
0.9
  7
ｽﾀｲﾙ1
100
AcDbText
  0
TEXT
  5
31C3
330
1A
100
AcDbEntity
  8
ZUWAKU
100
AcDbText
 10
104.8620234762394
 20
12.02767844611668
 30
0.0
 40
2.0
  1
品名
 41
0.9
  7
ｽﾀｲﾙ1
100
AcDbText
  0
LINE
  5
31C4
330
1A
100
AcDbEntity
  8
ZUWAKU
100
AcDbLine
 10
324.4086015752028
 20
7.600000176923906
 30
0.0
 11
348.6245055943713
 21
7.600000176923908
 31
0.0
  0
LINE
  5
31C5
330
1A
100
AcDbEntity
  8
ZUWAKU
100
AcDbLine
 10
324.4086015752029
 20
7.700000176923909
 30
0.0
 11
348.6245055943713
 21
7.700000176923907
 31
0.0
  0
LINE
  5
31C6
330
1A
100
AcDbEntity
  8
ZUWAKU
100
AcDbLine
 10
324.4086015752028
 20
7.800000176923907
 30
0.0
 11
348.6245055943713
 21
7.800000176923907
 31
0.0
  0
TEXT
  5
31C7
330
1A
100
AcDbEntity
  8
ZUWAKU
100
AcDbText
 10
329.1019691637519
 20
9.002460705627584
 30
0.0
 40
2.799999999999999
  1
　　．　　．　　
 41
0.9
  7
ｽﾀｲﾙ1
100
AcDbText
  0
LINE
  5
31C8
330
1A
100
AcDbEntity
  8
ZUWAKU
100
AcDbLine
 10
252.5995900691711
 20
7.600000176923909
 30
0.0
 11
276.2634782031569
 21
7.600000176923909
 31
0.0
  0
LINE
  5
31C9
330
1A
100
AcDbEntity
  8
ZUWAKU
100
AcDbLine
 10
252.5995900691711
 20
7.700000176923907
 30
0.0
 11
276.2634782031569
 21
7.700000176923907
 31
0.0
  0
LINE
  5
31CA
330
1A
100
AcDbEntity
  8
ZUWAKU
100
AcDbLine
 10
252.5995900691711
 20
7.800000176923907
 30
0.0
 11
276.2634782031569
 21
7.800000176923907
 31
0.0
  0
TEXT
  5
31CB
330
1A
100
AcDbEntity
  8
MOJI
100
AcDbText
 10
231.283639481095
 20
5.971309037753883
 30
0.0
 40
2.799999999999999
  1
ＬＫ１２Ｔ
 41
0.9
  7
ｽﾀｲﾙ1
100
AcDbText
  0
LINE
  5
31CC
330
1A
100
AcDbEntity
  8
ZUWAKU
100
AcDbLine
 10
223.8121823055963
 20
15.00000017692389
 30
0.0
 11
223.8121823055964
 21
0.4000001769239248
 31
0.0
  0
LINE
  5
31CD
330
1A
100
AcDbEntity
  8
ZUWAKU
100
AcDbLine
 10
223.9121823055963
 20
15.00000017692389
 30
0.0
 11
223.9121823055965
 21
0.4000001769239248
 31
0.0
  0
LINE
  5
31CE
330
1A
100
AcDbEntity
  8
ZUWAKU
100
AcDbLine
 10
223.7121823055964
 20
15.00000017692389
 30
0.0
 11
223.7121823055964
 21
0.4000001769239248
 31
0.0
  0
TEXT
  5
31CF
330
1A
100
AcDbEntity
  8
MOJI
100
AcDbText
 10
264.0204543062572
 20
9.002460705627584
 30
0.0
 40
2.799999999999999
  1
Ａ３
 41
0.9
  7
ｽﾀｲﾙ1
100
AcDbText
  0
LINE
  5
31D0
330
1A
100
AcDbEntity
  8
ZUWAKU
100
AcDbLine
 10
252.4995900691711
 20
15.00000017692389
 30
0.0
 11
252.4995900691712
 21
0.4000001769239248
 31
0.0
  0
LINE
  5
31D1
330
1A
100
AcDbEntity
  8
ZUWAKU
100
AcDbLine
 10
252.5995900691711
 20
15.00000017692389
 30
0.0
 11
252.5995900691713
 21
0.4000001769239248
 31
0.0
  0
LINE
  5
31D2
330
1A
100
AcDbEntity
  8
ZUWAKU
100
AcDbLine
 10
252.3995900691712
 20
15.00000017692389
 30
0.0
 11
252.3995900691712
 21
0.4000001769239248
 31
0.0
  0
TEXT
  5
31D3
330
1A
100
AcDbEntity
  8
ZUWAKU
100
AcDbText
 10
253.3383125802761
 20
4.827678446116699
 30
0.0
 40
2.0
  1
縮尺
 41
0.9
  7
ｽﾀｲﾙ1
100
AcDbText
  0
TEXT
  5
31D4
330
1A
100
AcDbEntity
  8
MOJI
100
AcDbText
 10
264.0204543062572
 20
1.602460705627601
 30
0.0
 40
2.799999999999999
  1
１/１
 41
0.9
  7
ｽﾀｲﾙ1
100
AcDbText
  0
TEXT
  5
31D5
330
1A
100
AcDbEntity
  8
ZUWAKU
100
AcDbText
 10
224.6509048167012
 20
12.02767844611668
 30
0.0
 40
2.0
  1
品番
 41
0.9
  7
ｽﾀｲﾙ1
100
AcDbText
  0
TEXT
  5
31D6
330
1A
100
AcDbEntity
  8
ZUWAKU
100
AcDbText
 10
253.338312580276
 20
12.02767844611668
 30
0.0
 40
2.0
  1
用紙
 41
0.9
  7
ｽﾀｲﾙ1
100
AcDbText
  0
LINE
  5
31D7
330
1A
100
AcDbEntity
  8
ZUWAKU
100
AcDbLine
 10
324.3086015752029
 20
15.00000017692389
 30
0.0
 11
324.308601575203
 21
0.4000001769239248
 31
0.0
  0
LINE
  5
31D8
330
1A
100
AcDbEntity
  8
ZUWAKU
100
AcDbLine
 10
324.4086015752029
 20
15.00000017692389
 30
0.0
 11
324.4086015752031
 21
0.4000001769239248
 31
0.0
  0
LINE
  5
31D9
330
1A
100
AcDbEntity
  8
ZUWAKU
100
AcDbLine
 10
324.208601575203
 20
15.00000017692389
 30
0.0
 11
324.208601575203
 21
0.4000001769239248
 31
0.0
  0
LINE
  5
31DA
330
1A
100
AcDbEntity
  8
ZUWAKU
100
AcDbLine
 10
276.3634782031568
 20
15.00000017692389
 30
0.0
 11
276.3634782031569
 21
0.4000001769239248
 31
0.0
  0
LINE
  5
31DB
330
1A
100
AcDbEntity
  8
ZUWAKU
100
AcDbLine
 10
276.4634782031569
 20
15.00000017692389
 30
0.0
 11
276.463478203157
 21
0.4000001769239248
 31
0.0
  0
LINE
  5
31DC
330
1A
100
AcDbEntity
  8
ZUWAKU
100
AcDbLine
 10
276.2634782031569
 20
15.00000017692389
 30
0.0
 11
276.2634782031569
 21
0.4000001769239248
 31
0.0
  0
TEXT
  5
31DD
330
1A
100
AcDbEntity
  8
ZUWAKU
100
AcDbText
 10
325.1473240863077
 20
12.02767844611668
 30
0.0
 40
2.0
  1
DATE
 41
0.9
  7
ｽﾀｲﾙ1
100
AcDbText
  0
LINE
  5
31DE
330
1A
100
AcDbEntity
  8
ZUWAKU
100
AcDbLine
 10
348.6245055943713
 20
15.00000017692389
 30
0.0
 11
348.6245055943713
 21
0.4000001769239248
 31
0.0
  0
LINE
  5
31DF
330
1A
100
AcDbEntity
  8
ZUWAKU
100
AcDbLine
 10
348.7245055943714
 20
15.00000017692389
 30
0.0
 11
348.7245055943714
 21
0.4000001769239248
 31
0.0
  0
LINE
  5
31E0
330
1A
100
AcDbEntity
  8
ZUWAKU
100
AcDbLine
 10
348.8245055943713
 20
15.00000017692389
 30
0.0
 11
348.8245055943714
 21
0.4000001769239248
 31
0.0
  0
LINE
  5
31E1
330
1A
100
AcDbEntity
  8
ZUWAKU
100
AcDbLine
 10
348.9245055943713
 20
15.00000017692389
 30
0.0
 11
348.9245055943714
 21
0.4000001769239248
 31
0.0
  0
TEXT
  5
31E2
330
1A
100
AcDbEntity
  8
ZUWAKU
100
AcDbText
 10
354.2640424162226
 20
8.776919844767292
 30
0.0
 40
3.0
  1
積水化学工業株式会社
 41
0.9
  7
ｽﾀｲﾙ1
100
AcDbText
  0
TEXT
  5
31E3
330
1A
100
AcDbEntity
  8
ZUWAKU
100
AcDbText
 10
354.2640424162226
 20
3.324420333850923
 30
0.0
 40
3.0
  1
建材事業部
 41
0.9
  7
ｽﾀｲﾙ1
100
AcDbText
  0
VIEWPORT
  5
22
330
17
100
AcDbEntity
 67
     1
  8
0
100
AcDbViewport
 10
313.6808219178082
 20
148.5
 30
0.0
 40
627.3616438356165
 41
297.0
 68
     2
 69
     1
1001
ACAD
1000
MVIEW
1002
{
1070
    16
1010
0.0
1020
0.0
1030
0.0
1010
0.0
1020
0.0
1030
1.0
1040
0.0
1040
297.0
1040
313.6808219178082
1040
148.5
1040
50.0
1040
0.0
1040
0.0
1070
     0
1070
   100
1070
     1
1070
     0
1070
     0
1070
     0
1070
     0
1070
     0
1040
0.0
1040
0.0
1040
0.0
1040
1.0
1040
1.0
1040
10.0
1040
10.0
1070
     0
1002
{
1002
}
1002
}
  0
VIEWPORT
  5
64
330
17
100
AcDbEntity
 67
     1
  8
VIEWPORT
100
AcDbViewport
 10
210.0
 20
148.5
 30
0.0
 40
420.0
 41
297.0
 68
     1
 69
     2
1001
ACAD
1000
MVIEW
1002
{
1070
    16
1010
0.0
1020
0.0
1030
0.0
1010
0.0
1020
0.0
1030
1.0
1040
0.0
1040
302.9399999999998
1040
210.0
1040
148.5
1040
50.0
1040
0.0
1040
0.0
1070
     0
1070
   100
1070
     1
1070
     0
1070
     0
1070
     0
1070
     0
1070
     0
1040
0.0
1040
0.0
1040
0.0
1040
5.0
1040
5.0
1040
0.0
1040
0.0
1070
     0
1002
{
1002
}
1002
}
  0
ENDSEC
  0
SECTION
  2
OBJECTS
  0
DICTIONARY
  5
C
330
0
100
AcDbDictionary
  3
ACAD_GROUP
350
D
  3
ACAD_LAYOUT
350
141
  3
ACAD_MLINESTYLE
350
E
  3
ACAD_PLOTSETTINGS
350
142
  3
ACAD_PLOTSTYLENAME
350
13F
  3
ACDBHEADERROUNDTRIPXREC
350
3278
  0
DICTIONARY
  5
73C
330
1A
100
AcDbDictionary
280
     1
  3
ACAD_LAYOUTSELFREF
360
329A
  0
DICTIONARY
  5
73A
330
17
100
AcDbDictionary
280
     1
  3
ACAD_LAYOUTSELFREF
360
3299
  0
DICTIONARY
  5
D
102
{ACAD_REACTORS
330
C
102
}
330
C
100
AcDbDictionary
  0
DICTIONARY
  5
141
102
{ACAD_REACTORS
330
C
102
}
330
C
100
AcDbDictionary
  0
DICTIONARY
  5
E
102
{ACAD_REACTORS
330
C
102
}
330
C
100
AcDbDictionary
  3
STANDARD
350
13
  0
DICTIONARY
  5
142
102
{ACAD_REACTORS
330
C
102
}
330
C
100
AcDbDictionary
  0
ACDBDICTIONARYWDFLT
  5
13F
102
{ACAD_REACTORS
330
C
102
}
330
C
100
AcDbDictionary
281
     1
  3
Normal
350
140
100
AcDbDictionaryWithDefault
340
140
1001
ACAD
1000
TREAT_AS_HARD
1070
     0
1000
TREAT_AS_HARD
1070
     0
1000
TREAT_AS_HARD
1070
     0
1000
TREAT_AS_HARD
1070
     0
1000
TREAT_AS_HARD
1070
     0
1000
TREAT_AS_HARD
1070
     0
1000
TREAT_AS_HARD
1070
     0
1000
TREAT_AS_HARD
1070
     0
1000
TREAT_AS_HARD
1070
     0
  0
DICTIONARY
  5
3278
102
{ACAD_REACTORS
330
C
102
}
330
C
100
AcDbDictionary
  3
TSTACKALIGN
350
3279
  3
TSTACKSIZE
350
327A
  3
HYPERLINKBASE
350
327B
  3
STYLESHEET
350
327C
  3
LAYOUTDICT
350
327D
  3
PLOTSETDICT
350
327E
  3
PLOTSTYLNAMDICT
350
327F
  3
LWETCUNION
350
3280
  3
INSUNITS
350
3281
  3
CEPSNTYPE
350
3282
  3
FINGERPRINTGUID
350
3283
  3
VERSIONGUID
350
3284
  3
PSVPSCALE
350
3285
  3
DIMSTYLEDATA
350
3286
  3
PUCSORTHOREF
350
3287
  3
PUCSORTHOVIEW
350
3288
  3
PUCSBASE
350
3289
  3
PUCSORGTOP
350
328A
  3
PUCSORGBOTTOM
350
328B
  3
PUCSORGLEFT
350
328C
  3
PUCSORGRIGHT
350
328D
  3
PUCSORGFRONT
350
328E
  3
PUCSORGBACK
350
328F
  3
UCSORTHOREF
350
3290
  3
UCSORTHOVIEW
350
3291
  3
UCSBASE
350
3292
  3
UCSORGTOP
350
3293
  3
UCSORGBOTTOM
350
3294
  3
UCSORGLEFT
350
3295
  3
UCSORGRIGHT
350
3296
  3
UCSORGFRONT
350
3297
  3
UCSORGBACK
350
3298
  0
XRECORD
  5
329A
102
{ACAD_REACTORS
330
73C
102
}
330
73C
100
AcDbXrecord
340
1A
  0
XRECORD
  5
3299
102
{ACAD_REACTORS
330
73A
102
}
330
73A
100
AcDbXrecord
340
17
  0
MLINESTYLE
  5
13
102
{ACAD_REACTORS
330
E
102
}
330
E
100
AcDbMlineStyle
  2
STANDARD
 70
     0
  3

 62
     0
 51
90.0
 52
90.0
 71
     2
 49
0.5
 62
   256
  6
BYLAYER
 49
-0.5
 62
   256
  6
BYLAYER
  0
ACDBPLACEHOLDER
  5
140
102
{ACAD_REACTORS
330
13F
102
}
330
13F
100
AcDbPlaceHolder
280
     0
  0
XRECORD
  5
3279
102
{ACAD_REACTORS
330
3278
102
}
330
3278
100
AcDbXrecord
 90
        1
  0
XRECORD
  5
327A
102
{ACAD_REACTORS
330
3278
102
}
330
3278
100
AcDbXrecord
 90
       70
  0
XRECORD
  5
327B
102
{ACAD_REACTORS
330
3278
102
}
330
3278
100
AcDbXrecord
  1

  0
XRECORD
  5
327C
102
{ACAD_REACTORS
330
3278
102
}
330
3278
100
AcDbXrecord
  1
systemprinter.ctb
  0
XRECORD
  5
327D
102
{ACAD_REACTORS
330
3278
102
}
330
3278
100
AcDbXrecord
340
141
  0
XRECORD
  5
327E
102
{ACAD_REACTORS
330
3278
102
}
330
3278
100
AcDbXrecord
340
142
  0
XRECORD
  5
327F
102
{ACAD_REACTORS
330
3278
102
}
330
3278
100
AcDbXrecord
340
13F
  0
XRECORD
  5
3280
102
{ACAD_REACTORS
330
3278
102
}
330
3278
100
AcDbXrecord
 90
    10781
  0
XRECORD
  5
3281
102
{ACAD_REACTORS
330
3278
102
}
330
3278
100
AcDbXrecord
 90
        0
  0
XRECORD
  5
3282
102
{ACAD_REACTORS
330
3278
102
}
330
3278
100
AcDbXrecord
 90
        0
  0
XRECORD
  5
3283
102
{ACAD_REACTORS
330
3278
102
}
330
3278
100
AcDbXrecord
  1
{4E8D0500-CDD1-11D3-932C-444553540000}
  0
XRECORD
  5
3284
102
{ACAD_REACTORS
330
3278
102
}
330
3278
100
AcDbXrecord
  1
{A4DFB051-12DB-4238-86E7-5A95E744A829}
  0
XRECORD
  5
3285
102
{ACAD_REACTORS
330
3278
102
}
330
3278
100
AcDbXrecord
 40
0.0
  0
XRECORD
  5
3286
102
{ACAD_REACTORS
330
3278
102
}
330
3278
100
AcDbXrecord
1000
DSTYLE
1002
{
1070
   341
340
B2
1070
   343
340
B2
1070
   344
340
B2
1070
   371
 70
    -1
1070
   372
 70
    -1
1002
}
  0
XRECORD
  5
3287
102
{ACAD_REACTORS
330
3278
102
}
330
3278
100
AcDbXrecord
340
0
  0
XRECORD
  5
3288
102
{ACAD_REACTORS
330
3278
102
}
330
3278
100
AcDbXrecord
 70
     0
  0
XRECORD
  5
3289
102
{ACAD_REACTORS
330
3278
102
}
330
3278
100
AcDbXrecord
340
0
  0
XRECORD
  5
328A
102
{ACAD_REACTORS
330
3278
102
}
330
3278
100
AcDbXrecord
 10
0.0
 20
0.0
 30
0.0
  0
XRECORD
  5
328B
102
{ACAD_REACTORS
330
3278
102
}
330
3278
100
AcDbXrecord
 10
0.0
 20
0.0
 30
0.0
  0
XRECORD
  5
328C
102
{ACAD_REACTORS
330
3278
102
}
330
3278
100
AcDbXrecord
 10
0.0
 20
0.0
 30
0.0
  0
XRECORD
  5
328D
102
{ACAD_REACTORS
330
3278
102
}
330
3278
100
AcDbXrecord
 10
0.0
 20
0.0
 30
0.0
  0
XRECORD
  5
328E
102
{ACAD_REACTORS
330
3278
102
}
330
3278
100
AcDbXrecord
 10
0.0
 20
0.0
 30
0.0
  0
XRECORD
  5
328F
102
{ACAD_REACTORS
330
3278
102
}
330
3278
100
AcDbXrecord
 10
0.0
 20
0.0
 30
0.0
  0
XRECORD
  5
3290
102
{ACAD_REACTORS
330
3278
102
}
330
3278
100
AcDbXrecord
340
0
  0
XRECORD
  5
3291
102
{ACAD_REACTORS
330
3278
102
}
330
3278
100
AcDbXrecord
 70
     0
  0
XRECORD
  5
3292
102
{ACAD_REACTORS
330
3278
102
}
330
3278
100
AcDbXrecord
340
0
  0
XRECORD
  5
3293
102
{ACAD_REACTORS
330
3278
102
}
330
3278
100
AcDbXrecord
 10
0.0
 20
0.0
 30
0.0
  0
XRECORD
  5
3294
102
{ACAD_REACTORS
330
3278
102
}
330
3278
100
AcDbXrecord
 10
0.0
 20
0.0
 30
0.0
  0
XRECORD
  5
3295
102
{ACAD_REACTORS
330
3278
102
}
330
3278
100
AcDbXrecord
 10
0.0
 20
0.0
 30
0.0
  0
XRECORD
  5
3296
102
{ACAD_REACTORS
330
3278
102
}
330
3278
100
AcDbXrecord
 10
0.0
 20
0.0
 30
0.0
  0
XRECORD
  5
3297
102
{ACAD_REACTORS
330
3278
102
}
330
3278
100
AcDbXrecord
 10
0.0
 20
0.0
 30
0.0
  0
XRECORD
  5
3298
102
{ACAD_REACTORS
330
3278
102
}
330
3278
100
AcDbXrecord
 10
0.0
 20
0.0
 30
0.0
  0
ENDSEC
  0
EOF
