  0
SECTION
  2
HEADER
  9
$ACADVER
  1
AC1014
  9
$ACADMAINTVER
 70
     9
  9
$DWGCODEPAGE
  3
ANSI_932
  9
$INSBASE
 10
0.0
 20
0.0
 30
0.0
  9
$EXTMIN
 10
-0.0179276802962249
 20
-0.0122984022716537
 30
-0.0000000000000024
  9
$EXTMAX
 10
398.8318356391198
 20
275.822386554968
 30
0.000000000000013
  9
$LIMMIN
 10
0.0
 20
0.0
  9
$LIMMAX
 10
420.0
 20
297.0
  9
$ORTHOMODE
 70
     1
  9
$REGENMODE
 70
     1
  9
$FILLMODE
 70
     1
  9
$QTEXTMODE
 70
     0
  9
$MIRRTEXT
 70
     1
  9
$DRAGMODE
 70
     2
  9
$LTSCALE
 40
5.0
  9
$OSMODE
 70
    37
  9
$ATTMODE
 70
     1
  9
$TEXTSIZE
 40
3.0
  9
$TRACEWID
 40
1.0
  9
$TEXTSTYLE
  7
STANDARD
  9
$CLAYER
  8
SUNPOU
  9
$CELTYPE
  6
BYLAYER
  9
$CECOLOR
 62
   256
  9
$CELTSCALE
 40
1.0
  9
$DELOBJ
 70
     1
  9
$DISPSILH
 70
     0
  9
$DIMSCALE
 40
1.0
  9
$DIMASZ
 40
3.0
  9
$DIMEXO
 40
3.0
  9
$DIMDLI
 40
7.0
  9
$DIMRND
 40
0.0
  9
$DIMDLE
 40
0.0
  9
$DIMEXE
 40
1.5
  9
$DIMTP
 40
0.0
  9
$DIMTM
 40
0.0
  9
$DIMTXT
 40
3.0
  9
$DIMCEN
 40
3.0
  9
$DIMTSZ
 40
0.0
  9
$DIMTOL
 70
     0
  9
$DIMLIM
 70
     0
  9
$DIMTIH
 70
     0
  9
$DIMTOH
 70
     0
  9
$DIMSE1
 70
     0
  9
$DIMSE2
 70
     0
  9
$DIMTAD
 70
     3
  9
$DIMZIN
 70
     0
  9
$DIMBLK
  1

  9
$DIMASO
 70
     1
  9
$DIMSHO
 70
     1
  9
$DIMPOST
  1

  9
$DIMAPOST
  1

  9
$DIMALT
 70
     0
  9
$DIMALTD
 70
     2
  9
$DIMALTF
 40
25.4
  9
$DIMLFAC
 40
1.0
  9
$DIMTOFL
 70
     1
  9
$DIMTVP
 40
0.0
  9
$DIMTIX
 70
     0
  9
$DIMSOXD
 70
     0
  9
$DIMSAH
 70
     1
  9
$DIMBLK1
  1
OPEN
  9
$DIMBLK2
  1
OPEN
  9
$DIMSTYLE
  2
STANDARD
  9
$DIMCLRD
 70
   256
  9
$DIMCLRE
 70
   256
  9
$DIMCLRT
 70
   256
  9
$DIMTFAC
 40
1.0
  9
$DIMGAP
 40
1.0
  9
$DIMJUST
 70
     0
  9
$DIMSD1
 70
     0
  9
$DIMSD2
 70
     0
  9
$DIMTOLJ
 70
     1
  9
$DIMTZIN
 70
     0
  9
$DIMALTZ
 70
     0
  9
$DIMALTTZ
 70
     0
  9
$DIMFIT
 70
     3
  9
$DIMUPT
 70
     0
  9
$DIMUNIT
 70
     2
  9
$DIMDEC
 70
     0
  9
$DIMTDEC
 70
     0
  9
$DIMALTU
 70
     2
  9
$DIMALTTD
 70
     2
  9
$DIMTXSTY
  7
STANDARD
  9
$DIMAUNIT
 70
     0
  9
$LUNITS
 70
     2
  9
$LUPREC
 70
     4
  9
$SKETCHINC
 40
1.0
  9
$FILLETRAD
 40
2.0
  9
$AUNITS
 70
     0
  9
$AUPREC
 70
     0
  9
$MENU
  1
.
  9
$ELEVATION
 40
0.0
  9
$PELEVATION
 40
0.0
  9
$THICKNESS
 40
0.0
  9
$LIMCHECK
 70
     0
  9
$BLIPMODE
 70
     0
  9
$CHAMFERA
 40
10.0
  9
$CHAMFERB
 40
10.0
  9
$CHAMFERC
 40
20.0
  9
$CHAMFERD
 40
0.0
  9
$SKPOLY
 70
     0
  9
$TDCREATE
 40
2451589.469382176
  9
$TDUPDATE
 40
2454515.392414502
  9
$TDINDWG
 40
0.2578204861
  9
$TDUSRTIMER
 40
0.2578204861
  9
$USRTIMER
 70
     1
  9
$ANGBASE
 50
0.0
  9
$ANGDIR
 70
     0
  9
$PDMODE
 70
     0
  9
$PDSIZE
 40
0.0
  9
$PLINEWID
 40
0.0
  9
$COORDS
 70
     2
  9
$SPLFRAME
 70
     0
  9
$SPLINETYPE
 70
     6
  9
$SPLINESEGS
 70
     8
  9
$ATTDIA
 70
     0
  9
$ATTREQ
 70
     1
  9
$HANDLING
 70
 10241
  9
$HANDSEED
  5
3093
  9
$SURFTAB1
 70
     6
  9
$SURFTAB2
 70
     6
  9
$SURFTYPE
 70
     6
  9
$SURFU
 70
     6
  9
$SURFV
 70
     6
  9
$UCSNAME
  2

  9
$UCSORG
 10
0.0
 20
0.0
 30
0.0
  9
$UCSXDIR
 10
1.0
 20
0.0
 30
0.0
  9
$UCSYDIR
 10
0.0
 20
1.0
 30
0.0
  9
$PUCSNAME
  2

  9
$PUCSORG
 10
0.0
 20
0.0
 30
0.0
  9
$PUCSXDIR
 10
1.0
 20
0.0
 30
0.0
  9
$PUCSYDIR
 10
0.0
 20
1.0
 30
0.0
  9
$USERI1
 70
     0
  9
$USERI2
 70
     0
  9
$USERI3
 70
     0
  9
$USERI4
 70
     0
  9
$USERI5
 70
     0
  9
$USERR1
 40
0.0
  9
$USERR2
 40
0.0
  9
$USERR3
 40
0.0
  9
$USERR4
 40
0.0
  9
$USERR5
 40
0.0
  9
$WORLDVIEW
 70
     1
  9
$SHADEDGE
 70
     3
  9
$SHADEDIF
 70
    70
  9
$TILEMODE
 70
     1
  9
$MAXACTVP
 70
    16
  9
$PINSBASE
 10
0.0
 20
0.0
 30
0.0
  9
$PLIMCHECK
 70
     0
  9
$PEXTMIN
 10
0.0
 20
0.0
 30
0.0
  9
$PEXTMAX
 10
420.0
 20
297.0
 30
0.0
  9
$PLIMMIN
 10
0.0
 20
0.0
  9
$PLIMMAX
 10
420.0
 20
297.0
  9
$UNITMODE
 70
     0
  9
$VISRETAIN
 70
     0
  9
$PLINEGEN
 70
     0
  9
$PSLTSCALE
 70
     1
  9
$TREEDEPTH
 70
  3020
  9
$PICKSTYLE
 70
     1
  9
$CMLSTYLE
  2
STANDARD
  9
$CMLJUST
 70
     0
  9
$CMLSCALE
 40
1.0
  9
$PROXYGRAPHICS
 70
     1
  9
$MEASUREMENT
 70
     0
  0
ENDSEC
  0
SECTION
  2
CLASSES
  0
CLASS
  1
ACDBDICTIONARYWDFLT
  2
AcDbDictionaryWithDefault
  3
AutoCAD 2000
 90
        0
280
     0
281
     0
  0
CLASS
  1
ACDBPLACEHOLDER
  2
AcDbPlaceHolder
  3
AutoCAD 2000
 90
        0
280
     0
281
     0
  0
CLASS
  1
LAYOUT
  2
AcDbLayout
  3
AutoCAD 2000
 90
        0
280
     0
281
     0
  0
CLASS
  1
LONG_TRANSACTION
  2
AcDbLongTransaction
  3
AutoCAD 2000
 90
        0
280
     0
281
     0
  0
CLASS
  1
LWPOLYLINE
  2
AcDbPolyline
  3
AutoCAD 2000
 90
        0
280
     0
281
     1
  0
CLASS
  1
HATCH
  2
AcDbHatch
  3
AutoCAD 2000
 90
        0
280
     0
281
     1
  0
CLASS
  1
XRECORD
  2
AcDbXrecord
  3
AutoCAD 2000
 90
        0
280
     0
281
     0
  0
CLASS
  1
LONG_TRANSACTION
  2
AcDbLongTransaction
  3
AutoCAD 2000
 90
        0
280
     0
281
     0
  0
CLASS
  1
LWPOLYLINE
  2
AcDbPolyline
  3
AutoCAD 2000
 90
        0
280
     0
281
     1
  0
CLASS
  1
HATCH
  2
AcDbHatch
  3
AutoCAD 2000
 90
        0
280
     0
281
     1
  0
CLASS
  1
XRECORD
  2
AcDbXrecord
  3
AutoCAD 2000
 90
        0
280
     0
281
     0
  0
CLASS
  1
DICTIONARYVAR
  2
AcDbDictionaryVar
  3
AutoCAD 2000
 90
        0
280
     0
281
     0
  0
CLASS
  1
LONG_TRANSACTION
  2
AcDbLongTransaction
  3
AutoCAD 2000
 90
        0
280
     0
281
     0
  0
CLASS
  1
LWPOLYLINE
  2
AcDbPolyline
  3
AutoCAD 2000
 90
        0
280
     0
281
     1
  0
CLASS
  1
HATCH
  2
AcDbHatch
  3
AutoCAD 2000
 90
        0
280
     0
281
     1
  0
CLASS
  1
XRECORD
  2
AcDbXrecord
  3
AutoCAD 2000
 90
        0
280
     0
281
     0
  0
CLASS
  1
LONG_TRANSACTION
  2
AcDbLongTransaction
  3
AutoCAD 2000
 90
        0
280
     0
281
     0
  0
CLASS
  1
LWPOLYLINE
  2
AcDbPolyline
  3
AutoCAD 2000
 90
        0
280
     0
281
     1
  0
CLASS
  1
HATCH
  2
AcDbHatch
  3
AutoCAD 2000
 90
        0
280
     0
281
     1
  0
CLASS
  1
XRECORD
  2
AcDbXrecord
  3
AutoCAD 2000
 90
        0
280
     0
281
     0
  0
CLASS
  1
LONG_TRANSACTION
  2
AcDbLongTransaction
  3
AutoCAD 2000
 90
        0
280
     0
281
     0
  0
CLASS
  1
LWPOLYLINE
  2
AcDbPolyline
  3
AutoCAD 2000
 90
        0
280
     0
281
     1
  0
CLASS
  1
HATCH
  2
AcDbHatch
  3
AutoCAD 2000
 90
        0
280
     0
281
     1
  0
CLASS
  1
XRECORD
  2
AcDbXrecord
  3
AutoCAD 2000
 90
        0
280
     0
281
     0
  0
CLASS
  1
LONG_TRANSACTION
  2
AcDbLongTransaction
  3
AutoCAD 2000
 90
        0
280
     0
281
     0
  0
CLASS
  1
LWPOLYLINE
  2
AcDbPolyline
  3
AutoCAD 2000
 90
        0
280
     0
281
     1
  0
CLASS
  1
HATCH
  2
AcDbHatch
  3
AutoCAD 2000
 90
        0
280
     0
281
     1
  0
CLASS
  1
XRECORD
  2
AcDbXrecord
  3
AutoCAD 2000
 90
        0
280
     0
281
     0
  0
CLASS
  1
LONG_TRANSACTION
  2
AcDbLongTransaction
  3
AutoCAD 2000
 90
        0
280
     0
281
     0
  0
CLASS
  1
LWPOLYLINE
  2
AcDbPolyline
  3
AutoCAD 2000
 90
        0
280
     0
281
     1
  0
CLASS
  1
HATCH
  2
AcDbHatch
  3
AutoCAD 2000
 90
        0
280
     0
281
     1
  0
CLASS
  1
XRECORD
  2
AcDbXrecord
  3
AutoCAD 2000
 90
        0
280
     0
281
     0
  0
CLASS
  1
LONG_TRANSACTION
  2
AcDbLongTransaction
  3
AutoCAD 2000
 90
        0
280
     0
281
     0
  0
CLASS
  1
LWPOLYLINE
  2
AcDbPolyline
  3
AutoCAD 2000
 90
        0
280
     0
281
     1
  0
CLASS
  1
HATCH
  2
AcDbHatch
  3
AutoCAD 2000
 90
        0
280
     0
281
     1
  0
CLASS
  1
XRECORD
  2
AcDbXrecord
  3
AutoCAD 2000
 90
        0
280
     0
281
     0
  0
CLASS
  1
LONG_TRANSACTION
  2
AcDbLongTransaction
  3
AutoCAD 2000
 90
        0
280
     0
281
     0
  0
CLASS
  1
LWPOLYLINE
  2
AcDbPolyline
  3
AutoCAD 2000
 90
        0
280
     0
281
     1
  0
CLASS
  1
HATCH
  2
AcDbHatch
  3
AutoCAD 2000
 90
        0
280
     0
281
     1
  0
CLASS
  1
XRECORD
  2
AcDbXrecord
  3
AutoCAD 2000
 90
        0
280
     0
281
     0
  0
CLASS
  1
LONG_TRANSACTION
  2
AcDbLongTransaction
  3
AutoCAD 2000
 90
        0
280
     0
281
     0
  0
CLASS
  1
LWPOLYLINE
  2
AcDbPolyline
  3
AutoCAD 2000
 90
        0
280
     0
281
     1
  0
CLASS
  1
HATCH
  2
AcDbHatch
  3
AutoCAD 2000
 90
        0
280
     0
281
     1
  0
CLASS
  1
XRECORD
  2
AcDbXrecord
  3
AutoCAD 2000
 90
        0
280
     0
281
     0
  0
CLASS
  1
LONG_TRANSACTION
  2
AcDbLongTransaction
  3
AutoCAD 2000
 90
        0
280
     0
281
     0
  0
CLASS
  1
LWPOLYLINE
  2
AcDbPolyline
  3
AutoCAD 2000
 90
        0
280
     0
281
     1
  0
CLASS
  1
HATCH
  2
AcDbHatch
  3
AutoCAD 2000
 90
        0
280
     0
281
     1
  0
CLASS
  1
XRECORD
  2
AcDbXrecord
  3
AutoCAD 2000
 90
        0
280
     0
281
     0
  0
CLASS
  1
LONG_TRANSACTION
  2
AcDbLongTransaction
  3
AutoCAD 2000
 90
        0
280
     0
281
     0
  0
CLASS
  1
LWPOLYLINE
  2
AcDbPolyline
  3
AutoCAD 2000
 90
        0
280
     0
281
     1
  0
CLASS
  1
HATCH
  2
AcDbHatch
  3
AutoCAD 2000
 90
        0
280
     0
281
     1
  0
CLASS
  1
XRECORD
  2
AcDbXrecord
  3
AutoCAD 2000
 90
        0
280
     0
281
     0
  0
ENDSEC
  0
SECTION
  2
TABLES
  0
TABLE
  2
VPORT
  5
8
330
0
100
AcDbSymbolTable
 70
     2
  0
VPORT
  5
306F
330
8
100
AcDbSymbolTableRecord
100
AcDbViewportTableRecord
  2
*ACTIVE
 70
     0
 10
0.0
 20
0.0
 11
1.0
 21
1.0
 12
212.2729881064608
 22
161.2865366678569
 13
0.0
 23
0.0
 14
5.0
 24
5.0
 15
0.0
 25
0.0
 16
0.0
 26
0.0
 36
1.0
 17
0.0
 27
0.0
 37
0.0
 40
353.254736338752
 41
1.570153061224489
 42
50.0
 43
0.0
 44
0.0
 50
0.0
 51
0.0
 71
     0
 72
   100
 73
     1
 74
     0
 75
     0
 76
     0
 77
     0
 78
     0
  0
ENDTAB
  0
TABLE
  2
LTYPE
  5
5
330
0
100
AcDbSymbolTable
 70
     4
  0
LTYPE
  5
14
330
5
100
AcDbSymbolTableRecord
100
AcDbLinetypeTableRecord
  2
BYBLOCK
 70
     0
  3

 72
    65
 73
     0
 40
0.0
  0
LTYPE
  5
15
330
5
100
AcDbSymbolTableRecord
100
AcDbLinetypeTableRecord
  2
BYLAYER
 70
     0
  3

 72
    65
 73
     0
 40
0.0
  0
LTYPE
  5
16
330
5
100
AcDbSymbolTableRecord
100
AcDbLinetypeTableRecord
  2
CONTINUOUS
 70
     0
  3
Solid line
 72
    65
 73
     0
 40
0.0
  0
LTYPE
  5
120
330
5
100
AcDbSymbolTableRecord
100
AcDbLinetypeTableRecord
  2
CENTER
 70
     0
  3
____ _ ____ _ ____ _ ____ _ ____ _ ____ _ ____ 
 72
    65
 73
     4
 40
2.0
 49
1.25
 74
     0
 49
-0.25
 74
     0
 49
0.25
 74
     0
 49
-0.25
 74
     0
  0
LTYPE
  5
122
330
5
100
AcDbSymbolTableRecord
100
AcDbLinetypeTableRecord
  2
PHANTOM
 70
     0
  3
______  __  __  ______  __  __  ______  __  __ 
 72
    65
 73
     6
 40
2.5
 49
1.25
 74
     0
 49
-0.25
 74
     0
 49
0.25
 74
     0
 49
-0.25
 74
     0
 49
0.25
 74
     0
 49
-0.25
 74
     0
  0
LTYPE
  5
2BBB
330
5
100
AcDbSymbolTableRecord
100
AcDbLinetypeTableRecord
  2
DASHED
 70
     0
  3
__ __ __ __ __ __ __ __ __ __ __ __ __ __ __ __
 72
    65
 73
     2
 40
0.75
 49
0.5
 74
     0
 49
-0.25
 74
     0
  0
ENDTAB
  0
TABLE
  2
LAYER
  5
2
330
0
100
AcDbSymbolTable
 70
     9
  0
LAYER
  5
F
330
2
100
AcDbSymbolTableRecord
100
AcDbLayerTableRecord
  2
0
 70
     0
 62
     7
  6
CONTINUOUS
  0
LAYER
  5
62
330
2
100
AcDbSymbolTableRecord
100
AcDbLayerTableRecord
  2
VIEWPORT
 70
     0
 62
     7
  6
CONTINUOUS
  0
LAYER
  5
6B
330
2
100
AcDbSymbolTableRecord
100
AcDbLayerTableRecord
  2
ZUWAKU
 70
     0
 62
     7
  6
CONTINUOUS
  0
LAYER
  5
3EF
330
2
100
AcDbSymbolTableRecord
100
AcDbLayerTableRecord
  2
DEFPOINTS
 70
     0
 62
     7
  6
CONTINUOUS
  0
LAYER
  5
54D
330
2
100
AcDbSymbolTableRecord
100
AcDbLayerTableRecord
  2
SEIHIN
 70
     0
 62
     3
  6
CONTINUOUS
  0
LAYER
  5
54E
330
2
100
AcDbSymbolTableRecord
100
AcDbLayerTableRecord
  2
SUNPOU
 70
     0
 62
     4
  6
CONTINUOUS
  0
LAYER
  5
54F
330
2
100
AcDbSymbolTableRecord
100
AcDbLayerTableRecord
  2
CENTER_L
 70
     0
 62
     1
  6
CENTER
  0
LAYER
  5
550
330
2
100
AcDbSymbolTableRecord
100
AcDbLayerTableRecord
  2
NOKITOI
 70
     0
 62
     8
  6
PHANTOM
  0
LAYER
  5
2988
330
2
100
AcDbSymbolTableRecord
100
AcDbLayerTableRecord
  2
MOJI
 70
     0
 62
     2
  6
CONTINUOUS
  0
ENDTAB
  0
TABLE
  2
STYLE
  5
3
330
0
100
AcDbSymbolTable
 70
     2
  0
STYLE
  5
10
330
3
100
AcDbSymbolTableRecord
100
AcDbTextStyleTableRecord
  2
STANDARD
 70
     0
 40
0.0
 41
1.0
 50
0.0
 71
     0
 42
3.0
  3
TXT
  4
c:\PROGRAM FILES\AUTOCAD LT\ms\bigfont.shx
  0
STYLE
  5
2989
330
3
100
AcDbSymbolTableRecord
100
AcDbTextStyleTableRecord
  2
ｽﾀｲﾙ1
 70
     0
 40
0.0
 41
1.0
 50
0.0
 71
     0
 42
2.5
  3
MS PGothic.ttf
  4

1001
ACAD
1000
MS PGothic
1071
    32818
  0
ENDTAB
  0
TABLE
  2
VIEW
  5
6
330
0
100
AcDbSymbolTable
 70
     0
  0
ENDTAB
  0
TABLE
  2
UCS
  5
7
330
0
100
AcDbSymbolTable
 70
     0
  0
ENDTAB
  0
TABLE
  2
APPID
  5
9
330
0
100
AcDbSymbolTable
 70
     1
  0
APPID
  5
11
330
9
100
AcDbSymbolTableRecord
100
AcDbRegAppTableRecord
  2
ACAD
 70
     0
  0
ENDTAB
  0
TABLE
  2
DIMSTYLE
  5
A
330
0
100
AcDbSymbolTable
 70
     1
  0
DIMSTYLE
105
1D
102
{ACAD_REACTORS
330
2D74
330
2D75
330
2D79
330
2D7A
330
2D7B
330
2D7C
330
2E11
330
2E62
330
2ED1
330
2ED2
330
2ED3
330
2EDE
330
2EDF
330
2EE0
330
2F1F
102
}
330
A
100
AcDbSymbolTableRecord
100
AcDbDimStyleTableRecord
  2
STANDARD
 70
     0
  3

  4

  5

  6

  7

 40
1.0
 41
0.18
 42
0.0625
 43
0.38
 44
0.18
 45
0.0
 46
0.0
 47
0.0
 48
0.0
140
0.18
141
0.09
142
0.0
143
25.4
144
1.0
145
0.0
146
1.0
147
0.09
 71
     0
 72
     0
 73
     1
 74
     1
 75
     0
 76
     0
 77
     0
 78
     0
170
     0
171
     2
172
     0
173
     0
174
     0
175
     0
176
     0
177
     0
178
     0
270
     2
271
     4
272
     4
273
     2
274
     2
340
10
275
     0
280
     0
281
     0
282
     0
283
     1
284
     0
285
     0
286
     0
287
     3
288
     0
  0
ENDTAB
  0
TABLE
  2
BLOCK_RECORD
  5
1
330
0
100
AcDbSymbolTable
 70
    16
  0
BLOCK_RECORD
  5
1A
102
{ACAD_XDICTIONARY
360
7A2
102
}
330
1
100
AcDbSymbolTableRecord
100
AcDbBlockTableRecord
  2
*MODEL_SPACE
  0
BLOCK_RECORD
  5
17
102
{ACAD_XDICTIONARY
360
7A0
102
}
330
1
100
AcDbSymbolTableRecord
100
AcDbBlockTableRecord
  2
*PAPER_SPACE
  0
BLOCK_RECORD
  5
B2
330
1
100
AcDbSymbolTableRecord
100
AcDbBlockTableRecord
  2
_OPEN
  0
BLOCK_RECORD
  5
2F26
330
1
100
AcDbSymbolTableRecord
100
AcDbBlockTableRecord
  2
*D1
  0
BLOCK_RECORD
  5
2F32
330
1
100
AcDbSymbolTableRecord
100
AcDbBlockTableRecord
  2
*D2
  0
BLOCK_RECORD
  5
2F3E
330
1
100
AcDbSymbolTableRecord
100
AcDbBlockTableRecord
  2
*D3
  0
BLOCK_RECORD
  5
2F4A
330
1
100
AcDbSymbolTableRecord
100
AcDbBlockTableRecord
  2
*D4
  0
BLOCK_RECORD
  5
2F56
330
1
100
AcDbSymbolTableRecord
100
AcDbBlockTableRecord
  2
*D5
  0
BLOCK_RECORD
  5
2F62
330
1
100
AcDbSymbolTableRecord
100
AcDbBlockTableRecord
  2
*D6
  0
BLOCK_RECORD
  5
2F6E
330
1
100
AcDbSymbolTableRecord
100
AcDbBlockTableRecord
  2
*D7
  0
BLOCK_RECORD
  5
2F7A
330
1
100
AcDbSymbolTableRecord
100
AcDbBlockTableRecord
  2
*D8
  0
BLOCK_RECORD
  5
2F86
330
1
100
AcDbSymbolTableRecord
100
AcDbBlockTableRecord
  2
*D9
  0
BLOCK_RECORD
  5
2F92
330
1
100
AcDbSymbolTableRecord
100
AcDbBlockTableRecord
  2
*D10
  0
BLOCK_RECORD
  5
2F9E
330
1
100
AcDbSymbolTableRecord
100
AcDbBlockTableRecord
  2
*D11
  0
BLOCK_RECORD
  5
2FAA
330
1
100
AcDbSymbolTableRecord
100
AcDbBlockTableRecord
  2
*D12
  0
BLOCK_RECORD
  5
2FB6
330
1
100
AcDbSymbolTableRecord
100
AcDbBlockTableRecord
  2
*D13
  0
BLOCK_RECORD
  5
2FC4
330
1
100
AcDbSymbolTableRecord
100
AcDbBlockTableRecord
  2
*D14
  0
BLOCK_RECORD
  5
2FD2
330
1
100
AcDbSymbolTableRecord
100
AcDbBlockTableRecord
  2
*D15
  0
ENDTAB
  0
ENDSEC
  0
SECTION
  2
BLOCKS
  0
BLOCK
  5
1B
330
1A
100
AcDbEntity
  8
0
100
AcDbBlockBegin
  2
*MODEL_SPACE
 70
     0
 10
0.0
 20
0.0
 30
0.0
  3
*MODEL_SPACE
  1

  0
ENDBLK
  5
1C
330
1A
100
AcDbEntity
  8
0
100
AcDbBlockEnd
  0
BLOCK
  5
18
330
17
100
AcDbEntity
 67
     1
  8
0
100
AcDbBlockBegin
  2
*PAPER_SPACE
 70
     0
 10
0.0
 20
0.0
 30
0.0
  3
*PAPER_SPACE
  1

  0
ENDBLK
  5
19
330
17
100
AcDbEntity
 67
     1
  8
0
100
AcDbBlockEnd
  0
BLOCK
  5
B3
330
B2
100
AcDbEntity
  8
0
100
AcDbBlockBegin
  2
_OPEN
 70
     0
 10
0.0
 20
0.0
 30
0.0
  3
_OPEN
  1

  0
LINE
  5
B4
330
B2
100
AcDbEntity
  8
0
  6
BYBLOCK
 62
     0
100
AcDbLine
 10
-1.0
 20
0.1666666666666666
 30
0.0
 11
0.0
 21
0.0
 31
0.0
  0
LINE
  5
B5
330
B2
100
AcDbEntity
  8
0
  6
BYBLOCK
 62
     0
100
AcDbLine
 10
0.0
 20
0.0
 30
0.0
 11
-1.0
 21
-0.1666666666666666
 31
0.0
  0
LINE
  5
B6
330
B2
100
AcDbEntity
  8
0
  6
BYBLOCK
 62
     0
100
AcDbLine
 10
0.0
 20
0.0
 30
0.0
 11
-1.0
 21
0.0
 31
0.0
  0
ENDBLK
  5
B7
330
B2
100
AcDbEntity
  8
0
100
AcDbBlockEnd
  0
BLOCK
  5
2F30
330
2F26
100
AcDbEntity
  8
0
100
AcDbBlockBegin
  2
*D1
 70
     1
 10
0.0
 20
0.0
 30
0.0
  3
*D1
  1

  0
LINE
  5
2FDE
330
2F26
100
AcDbEntity
  8
SUNPOU
100
AcDbLine
 10
187.2538519042059
 20
131.8420598594391
 30
0.0
 11
227.50247535785
 21
131.842059859439
 31
0.0
  0
LINE
  5
2FDF
330
2F26
100
AcDbEntity
  8
SUNPOU
100
AcDbLine
 10
196.753851904206
 20
79.84205986226175
 30
0.0
 11
227.50247535785
 21
79.84205986226173
 31
0.0
  0
LINE
  5
2FE0
330
2F26
100
AcDbEntity
  8
SUNPOU
100
AcDbLine
 10
226.00247535785
 20
128.842059859439
 30
0.0
 11
226.00247535785
 21
82.84205986226174
 31
0.0
  0
INSERT
  5
2FE1
330
2F26
100
AcDbEntity
  8
SUNPOU
100
AcDbBlockReference
  2
_OPEN
 10
226.00247535785
 20
131.842059859439
 30
0.0
 41
3.0
 42
3.0
 43
3.0
 50
90.0
  0
INSERT
  5
2FE2
330
2F26
100
AcDbEntity
  8
SUNPOU
100
AcDbBlockReference
  2
_OPEN
 10
226.00247535785
 20
79.84205986226173
 30
0.0
 41
3.0
 42
3.0
 43
3.0
 50
270.0
  0
MTEXT
  5
2FE3
330
2F26
100
AcDbEntity
  8
SUNPOU
100
AcDbMText
 10
223.5024753578499
 20
105.8420598608504
 30
0.0
 40
3.0
 41
0.0
 71
     5
 72
     1
  1
\A1;52
 11
0.0000000000000001
 21
1.0
 31
0.0
1001
ACAD
1000
MTEXTBEGIN
1070
    73
1070
     1
1070
    44
1040
1.0
1070
    74
1070
     0
1000
MTEXTEND
  0
POINT
  5
2FE4
330
2F26
100
AcDbEntity
  8
DEFPOINTS
 62
     0
100
AcDbPoint
 10
184.253851904206
 20
131.8420598594391
 30
0.0
  0
POINT
  5
2FE5
330
2F26
100
AcDbEntity
  8
DEFPOINTS
 62
     0
100
AcDbPoint
 10
193.7538519042059
 20
79.84205986226175
 30
0.0
  0
POINT
  5
2FE6
330
2F26
100
AcDbEntity
  8
DEFPOINTS
 62
     0
100
AcDbPoint
 10
226.00247535785
 20
79.84205986226173
 30
0.0
  0
ENDBLK
  5
2F31
330
2F26
100
AcDbEntity
  8
0
100
AcDbBlockEnd
  0
BLOCK
  5
2F3C
330
2F32
100
AcDbEntity
  8
0
100
AcDbBlockBegin
  2
*D2
 70
     1
 10
0.0
 20
0.0
 30
0.0
  3
*D2
  1

  0
LINE
  5
2FE7
330
2F32
100
AcDbEntity
  8
SUNPOU
100
AcDbLine
 10
196.753851904206
 20
245.8937559748637
 30
0.0
 11
218.1498628216045
 21
245.8937559748637
 31
0.0
  0
LINE
  5
2FE8
330
2F32
100
AcDbEntity
  8
SUNPOU
100
AcDbLine
 10
196.753851904206
 20
192.8937559348637
 30
0.0
 11
218.1498628216045
 21
192.8937559348637
 31
0.0
  0
LINE
  5
2FE9
330
2F32
100
AcDbEntity
  8
SUNPOU
100
AcDbLine
 10
216.6498628216045
 20
242.8937559748638
 30
0.0
 11
216.6498628216045
 21
195.8937559348637
 31
0.0
  0
INSERT
  5
2FEA
330
2F32
100
AcDbEntity
  8
SUNPOU
100
AcDbBlockReference
  2
_OPEN
 10
216.6498628216045
 20
245.8937559748637
 30
0.0
 41
3.0
 42
3.0
 43
3.0
 50
90.0
  0
INSERT
  5
2FEB
330
2F32
100
AcDbEntity
  8
SUNPOU
100
AcDbBlockReference
  2
_OPEN
 10
216.6498628216045
 20
192.8937559348637
 30
0.0
 41
3.0
 42
3.0
 43
3.0
 50
270.0
  0
MTEXT
  5
2FEC
330
2F32
100
AcDbEntity
  8
SUNPOU
100
AcDbMText
 10
214.1498628216044
 20
219.3937559548638
 30
0.0
 40
3.0
 41
0.0
 71
     5
 72
     1
  1
\A1;53
 11
0.0000000000000001
 21
1.0
 31
0.0
1001
ACAD
1000
MTEXTBEGIN
1070
    73
1070
     1
1070
    44
1040
1.0
1070
    74
1070
     0
1000
MTEXTEND
  0
POINT
  5
2FED
330
2F32
100
AcDbEntity
  8
DEFPOINTS
 62
     0
100
AcDbPoint
 10
193.7538519042059
 20
245.8937559748637
 30
0.0
  0
POINT
  5
2FEE
330
2F32
100
AcDbEntity
  8
DEFPOINTS
 62
     0
100
AcDbPoint
 10
193.7538519042059
 20
192.8937559348637
 30
0.0
  0
POINT
  5
2FEF
330
2F32
100
AcDbEntity
  8
DEFPOINTS
 62
     0
100
AcDbPoint
 10
216.6498628216045
 20
192.8937559348637
 30
0.0
  0
ENDBLK
  5
2F3D
330
2F32
100
AcDbEntity
  8
0
100
AcDbBlockEnd
  0
BLOCK
  5
2F48
330
2F3E
100
AcDbEntity
  8
0
100
AcDbBlockBegin
  2
*D3
 70
     1
 10
0.0
 20
0.0
 30
0.0
  3
*D3
  1

  0
LINE
  5
2FF0
330
2F3E
100
AcDbEntity
  8
SUNPOU
100
AcDbLine
 10
182.0521019042062
 20
98.54045986142422
 30
0.0
 11
182.0521019042062
 21
146.8157878492307
 31
0.0
  0
LINE
  5
2FF1
330
2F3E
100
AcDbEntity
  8
SUNPOU
100
AcDbLine
 10
193.7538519042059
 20
118.8420598622617
 30
0.0
 11
193.7538519042059
 21
146.8157878492307
 31
0.0
  0
LINE
  5
2FF2
330
2F3E
100
AcDbEntity
  8
SUNPOU
100
AcDbLine
 10
185.0521019042062
 20
145.3157878492307
 30
0.0
 11
190.7538519042059
 21
145.3157878492307
 31
0.0
  0
INSERT
  5
2FF3
330
2F3E
100
AcDbEntity
  8
SUNPOU
100
AcDbBlockReference
  2
_OPEN
 10
182.0521019042062
 20
145.3157878492307
 30
0.0
 41
3.0
 42
3.0
 43
3.0
 50
180.0
  0
INSERT
  5
2FF4
330
2F3E
100
AcDbEntity
  8
SUNPOU
100
AcDbBlockReference
  2
_OPEN
 10
193.7538519042059
 20
145.3157878492307
 30
0.0
 41
3.0
 42
3.0
 43
3.0
  0
MTEXT
  5
2FF5
330
2F3E
100
AcDbEntity
  8
SUNPOU
100
AcDbMText
 10
187.9029769042061
 20
147.8157878492307
 30
0.0
 40
3.0
 41
0.0
 71
     5
 72
     1
  1
\A1;12
1001
ACAD
1000
MTEXTBEGIN
1070
    73
1070
     1
1070
    44
1040
1.0
1070
    74
1070
     0
1000
MTEXTEND
  0
POINT
  5
2FF6
330
2F3E
100
AcDbEntity
  8
DEFPOINTS
 62
     0
100
AcDbPoint
 10
182.0521019042062
 20
95.54045986142421
 30
0.0
  0
POINT
  5
2FF7
330
2F3E
100
AcDbEntity
  8
DEFPOINTS
 62
     0
100
AcDbPoint
 10
193.7538519042059
 20
115.8420598622617
 30
0.0
  0
POINT
  5
2FF8
330
2F3E
100
AcDbEntity
  8
DEFPOINTS
 62
     0
100
AcDbPoint
 10
193.7538519042059
 20
145.3157878492307
 30
0.0
  0
ENDBLK
  5
2F49
330
2F3E
100
AcDbEntity
  8
0
100
AcDbBlockEnd
  0
BLOCK
  5
2F54
330
2F4A
100
AcDbEntity
  8
0
100
AcDbBlockBegin
  2
*D4
 70
     1
 10
0.0
 20
0.0
 30
0.0
  3
*D4
  1

  0
LINE
  5
2FF9
330
2F4A
100
AcDbEntity
  8
SUNPOU
100
AcDbLine
 10
193.7538519042059
 20
118.8420598622617
 30
0.0
 11
193.7538519042059
 21
156.4667591399626
 31
0.0
  0
LINE
  5
2FFA
330
2F4A
100
AcDbEntity
  8
SUNPOU
100
AcDbLine
 10
213.7538519042059
 20
118.8420598622617
 30
0.0
 11
213.7538519042059
 21
156.4667591399626
 31
0.0
  0
LINE
  5
2FFB
330
2F4A
100
AcDbEntity
  8
SUNPOU
100
AcDbLine
 10
196.753851904206
 20
154.9667591399626
 30
0.0
 11
210.7538519042059
 21
154.9667591399626
 31
0.0
  0
INSERT
  5
2FFC
330
2F4A
100
AcDbEntity
  8
SUNPOU
100
AcDbBlockReference
  2
_OPEN
 10
193.7538519042059
 20
154.9667591399626
 30
0.0
 41
3.0
 42
3.0
 43
3.0
 50
180.0
  0
INSERT
  5
2FFD
330
2F4A
100
AcDbEntity
  8
SUNPOU
100
AcDbBlockReference
  2
_OPEN
 10
213.7538519042059
 20
154.9667591399626
 30
0.0
 41
3.0
 42
3.0
 43
3.0
  0
MTEXT
  5
2FFE
330
2F4A
100
AcDbEntity
  8
SUNPOU
100
AcDbMText
 10
203.753851904206
 20
157.4667591399626
 30
0.0
 40
3.0
 41
0.0
 71
     5
 72
     1
  1
\A1;20
1001
ACAD
1000
MTEXTBEGIN
1070
    73
1070
     1
1070
    44
1040
1.0
1070
    74
1070
     0
1000
MTEXTEND
  0
POINT
  5
2FFF
330
2F4A
100
AcDbEntity
  8
DEFPOINTS
 62
     0
100
AcDbPoint
 10
193.7538519042059
 20
115.8420598622617
 30
0.0
  0
POINT
  5
3000
330
2F4A
100
AcDbEntity
  8
DEFPOINTS
 62
     0
100
AcDbPoint
 10
213.7538519042059
 20
115.8420598622617
 30
0.0
  0
POINT
  5
3001
330
2F4A
100
AcDbEntity
  8
DEFPOINTS
 62
     0
100
AcDbPoint
 10
213.7538519042059
 20
154.9667591399626
 30
0.0
  0
ENDBLK
  5
2F55
330
2F4A
100
AcDbEntity
  8
0
100
AcDbBlockEnd
  0
BLOCK
  5
2F60
330
2F56
100
AcDbEntity
  8
0
100
AcDbBlockBegin
  2
*D5
 70
     1
 10
0.0
 20
0.0
 30
0.0
  3
*D5
  1

  0
LINE
  5
3002
330
2F56
100
AcDbEntity
  8
SUNPOU
100
AcDbLine
 10
69.58385190420603
 20
96.99205986226173
 30
0.0
 11
69.58385190420603
 21
156.4667591399626
 31
0.0
  0
LINE
  5
3003
330
2F56
100
AcDbEntity
  8
SUNPOU
100
AcDbLine
 10
193.7538519042059
 20
118.8420598622617
 30
0.0
 11
193.7538519042059
 21
156.4667591399626
 31
0.0
  0
LINE
  5
3004
330
2F56
100
AcDbEntity
  8
SUNPOU
100
AcDbLine
 10
72.58385190420603
 20
154.9667591399626
 30
0.0
 11
190.7538519042059
 21
154.9667591399626
 31
0.0
  0
INSERT
  5
3005
330
2F56
100
AcDbEntity
  8
SUNPOU
100
AcDbBlockReference
  2
_OPEN
 10
69.58385190420603
 20
154.9667591399626
 30
0.0
 41
3.0
 42
3.0
 43
3.0
 50
180.0
  0
INSERT
  5
3006
330
2F56
100
AcDbEntity
  8
SUNPOU
100
AcDbBlockReference
  2
_OPEN
 10
193.7538519042059
 20
154.9667591399626
 30
0.0
 41
3.0
 42
3.0
 43
3.0
  0
MTEXT
  5
3007
330
2F56
100
AcDbEntity
  8
SUNPOU
100
AcDbMText
 10
131.668851904206
 20
157.4667591399626
 30
0.0
 40
3.0
 41
0.0
 71
     5
 72
     1
  1
\A1;124
1001
ACAD
1000
MTEXTBEGIN
1070
    73
1070
     1
1070
    44
1040
1.0
1070
    74
1070
     0
1000
MTEXTEND
  0
POINT
  5
3008
330
2F56
100
AcDbEntity
  8
DEFPOINTS
 62
     0
100
AcDbPoint
 10
69.58385190420603
 20
93.99205986226172
 30
0.0
  0
POINT
  5
3009
330
2F56
100
AcDbEntity
  8
DEFPOINTS
 62
     0
100
AcDbPoint
 10
193.7538519042059
 20
115.8420598622617
 30
0.0
  0
POINT
  5
300A
330
2F56
100
AcDbEntity
  8
DEFPOINTS
 62
     0
100
AcDbPoint
 10
193.7538519042059
 20
154.9667591399626
 30
0.0
  0
ENDBLK
  5
2F61
330
2F56
100
AcDbEntity
  8
0
100
AcDbBlockEnd
  0
BLOCK
  5
2F6C
330
2F62
100
AcDbEntity
  8
0
100
AcDbBlockBegin
  2
*D6
 70
     1
 10
0.0
 20
0.0
 30
0.0
  3
*D6
  1

  0
LINE
  5
300B
330
2F62
100
AcDbEntity
  8
SUNPOU
100
AcDbLine
 10
67.83385190420602
 20
95.24205986226167
 30
0.0
 11
38.116292320924
 21
95.24205986226167
 31
0.0
  0
LINE
  5
300C
330
2F62
100
AcDbEntity
  8
SUNPOU
100
AcDbLine
 10
184.0538519042059
 20
79.84205986226175
 30
0.0
 11
38.11629232092398
 21
79.84205986226179
 31
0.0
  0
LINE
  5
300D
330
2F62
100
AcDbEntity
  8
SUNPOU
100
AcDbLine
 10
39.616292320924
 20
92.24205986226166
 30
0.0
 11
39.616292320924
 21
82.84205986226179
 31
0.0
  0
INSERT
  5
300E
330
2F62
100
AcDbEntity
  8
SUNPOU
100
AcDbBlockReference
  2
_OPEN
 10
39.616292320924
 20
95.24205986226167
 30
0.0
 41
3.0
 42
3.0
 43
3.0
 50
90.0
  0
INSERT
  5
300F
330
2F62
100
AcDbEntity
  8
SUNPOU
100
AcDbBlockReference
  2
_OPEN
 10
39.61629232092399
 20
79.84205986226179
 30
0.0
 41
3.0
 42
3.0
 43
3.0
 50
270.0
  0
MTEXT
  5
3010
330
2F62
100
AcDbEntity
  8
SUNPOU
100
AcDbMText
 10
37.11629232092398
 20
87.54205986226173
 30
0.0
 40
3.0
 41
0.0
 71
     5
 72
     1
  1
\A1;15
 11
0.0000000000000001
 21
1.0
 31
0.0
1001
ACAD
1000
MTEXTBEGIN
1070
    73
1070
     1
1070
    44
1040
1.0
1070
    74
1070
     0
1000
MTEXTEND
  0
POINT
  5
3011
330
2F62
100
AcDbEntity
  8
DEFPOINTS
 62
     0
100
AcDbPoint
 10
70.83385190420603
 20
95.24205986226167
 30
0.0
  0
POINT
  5
3012
330
2F62
100
AcDbEntity
  8
DEFPOINTS
 62
     0
100
AcDbPoint
 10
187.0538519042059
 20
79.84205986226175
 30
0.0
  0
POINT
  5
3013
330
2F62
100
AcDbEntity
  8
DEFPOINTS
 62
     0
100
AcDbPoint
 10
39.61629232092399
 20
79.84205986226179
 30
0.0
  0
ENDBLK
  5
2F6D
330
2F62
100
AcDbEntity
  8
0
100
AcDbBlockEnd
  0
BLOCK
  5
2F78
330
2F6E
100
AcDbEntity
  8
0
100
AcDbBlockBegin
  2
*D7
 70
     1
 10
0.0
 20
0.0
 30
0.0
  3
*D7
  1

  0
LINE
  5
3014
330
2F6E
100
AcDbEntity
  8
SUNPOU
100
AcDbLine
 10
196.753851904206
 20
115.8420598622617
 30
0.0
 11
204.6129951814796
 21
115.8420598622617
 31
0.0
  0
LINE
  5
3015
330
2F6E
100
AcDbEntity
  8
SUNPOU
100
AcDbLine
 10
196.753851904206
 20
79.84205986226175
 30
0.0
 11
204.6129951814796
 21
79.84205986226175
 31
0.0
  0
LINE
  5
3016
330
2F6E
100
AcDbEntity
  8
SUNPOU
100
AcDbLine
 10
203.1129951814796
 20
112.8420598622617
 30
0.0
 11
203.1129951814796
 21
82.84205986226174
 31
0.0
  0
INSERT
  5
3017
330
2F6E
100
AcDbEntity
  8
SUNPOU
100
AcDbBlockReference
  2
_OPEN
 10
203.1129951814796
 20
115.8420598622617
 30
0.0
 41
3.0
 42
3.0
 43
3.0
 50
90.0
  0
INSERT
  5
3018
330
2F6E
100
AcDbEntity
  8
SUNPOU
100
AcDbBlockReference
  2
_OPEN
 10
203.1129951814796
 20
79.84205986226175
 30
0.0
 41
3.0
 42
3.0
 43
3.0
 50
270.0
  0
MTEXT
  5
3019
330
2F6E
100
AcDbEntity
  8
SUNPOU
100
AcDbMText
 10
200.6129951814795
 20
97.84205986226178
 30
0.0
 40
3.0
 41
0.0
 71
     5
 72
     1
  1
\A1;36
 11
0.0000000000000001
 21
1.0
 31
0.0
1001
ACAD
1000
MTEXTBEGIN
1070
    73
1070
     1
1070
    44
1040
1.0
1070
    74
1070
     0
1000
MTEXTEND
  0
POINT
  5
301A
330
2F6E
100
AcDbEntity
  8
DEFPOINTS
 62
     0
100
AcDbPoint
 10
193.7538519042059
 20
115.8420598622617
 30
0.0
  0
POINT
  5
301B
330
2F6E
100
AcDbEntity
  8
DEFPOINTS
 62
     0
100
AcDbPoint
 10
193.7538519042059
 20
79.84205986226175
 30
0.0
  0
POINT
  5
301C
330
2F6E
100
AcDbEntity
  8
DEFPOINTS
 62
     0
100
AcDbPoint
 10
203.1129951814796
 20
79.84205986226175
 30
0.0
  0
ENDBLK
  5
2F79
330
2F6E
100
AcDbEntity
  8
0
100
AcDbBlockEnd
  0
BLOCK
  5
2F84
330
2F7A
100
AcDbEntity
  8
0
100
AcDbBlockBegin
  2
*D8
 70
     1
 10
0.0
 20
0.0
 30
0.0
  3
*D8
  1

  0
LINE
  5
301D
330
2F7A
100
AcDbEntity
  8
SUNPOU
100
AcDbLine
 10
66.58385190420602
 20
230.3937559748638
 30
0.0
 11
43.68094813238985
 21
230.3937559748638
 31
0.0
  0
LINE
  5
301E
330
2F7A
100
AcDbEntity
  8
SUNPOU
100
AcDbLine
 10
66.58385190420602
 20
208.3937559348637
 30
0.0
 11
43.68094813238985
 21
208.3937559348637
 31
0.0
  0
LINE
  5
301F
330
2F7A
100
AcDbEntity
  8
SUNPOU
100
AcDbLine
 10
45.18094813238985
 20
227.3937559748638
 30
0.0
 11
45.18094813238985
 21
211.3937559348637
 31
0.0
  0
INSERT
  5
3020
330
2F7A
100
AcDbEntity
  8
SUNPOU
100
AcDbBlockReference
  2
_OPEN
 10
45.18094813238985
 20
230.3937559748638
 30
0.0
 41
3.0
 42
3.0
 43
3.0
 50
90.0
  0
INSERT
  5
3021
330
2F7A
100
AcDbEntity
  8
SUNPOU
100
AcDbBlockReference
  2
_OPEN
 10
45.18094813238985
 20
208.3937559348637
 30
0.0
 41
3.0
 42
3.0
 43
3.0
 50
270.0
  0
MTEXT
  5
3022
330
2F7A
100
AcDbEntity
  8
SUNPOU
100
AcDbMText
 10
42.68094813238982
 20
219.3937559548638
 30
0.0
 40
3.0
 41
0.0
 71
     5
 72
     1
  1
\A1;22
 11
0.0000000000000001
 21
1.0
 31
0.0
1001
ACAD
1000
MTEXTBEGIN
1070
    73
1070
     1
1070
    44
1040
1.0
1070
    74
1070
     0
1000
MTEXTEND
  0
POINT
  5
3023
330
2F7A
100
AcDbEntity
  8
DEFPOINTS
 62
     0
100
AcDbPoint
 10
69.58385190420603
 20
230.3937559748638
 30
0.0
  0
POINT
  5
3024
330
2F7A
100
AcDbEntity
  8
DEFPOINTS
 62
     0
100
AcDbPoint
 10
69.58385190420603
 20
208.3937559348637
 30
0.0
  0
POINT
  5
3025
330
2F7A
100
AcDbEntity
  8
DEFPOINTS
 62
     0
100
AcDbPoint
 10
45.18094813238985
 20
208.3937559348637
 30
0.0
  0
ENDBLK
  5
2F85
330
2F7A
100
AcDbEntity
  8
0
100
AcDbBlockEnd
  0
BLOCK
  5
2F90
330
2F86
100
AcDbEntity
  8
0
100
AcDbBlockBegin
  2
*D9
 70
     1
 10
0.0
 20
0.0
 30
0.0
  3
*D9
  1

  0
LINE
  5
3026
330
2F86
100
AcDbEntity
  8
SUNPOU
100
AcDbLine
 10
297.8764652415495
 20
116.8420598622617
 30
0.0
 11
297.8764652415495
 21
168.3161516521131
 31
0.0
  0
LINE
  5
3027
330
2F86
100
AcDbEntity
  8
SUNPOU
100
AcDbLine
 10
350.8764652415495
 20
116.8420598622617
 30
0.0
 11
350.8764652415495
 21
168.3161516521131
 31
0.0
  0
LINE
  5
3028
330
2F86
100
AcDbEntity
  8
SUNPOU
100
AcDbLine
 10
300.8764652415495
 20
166.8161516521131
 30
0.0
 11
347.8764652415495
 21
166.8161516521131
 31
0.0
  0
INSERT
  5
3029
330
2F86
100
AcDbEntity
  8
SUNPOU
100
AcDbBlockReference
  2
_OPEN
 10
297.8764652415495
 20
166.8161516521131
 30
0.0
 41
3.0
 42
3.0
 43
3.0
 50
180.0
  0
INSERT
  5
302A
330
2F86
100
AcDbEntity
  8
SUNPOU
100
AcDbBlockReference
  2
_OPEN
 10
350.8764652415495
 20
166.8161516521131
 30
0.0
 41
3.0
 42
3.0
 43
3.0
  0
MTEXT
  5
302B
330
2F86
100
AcDbEntity
  8
SUNPOU
100
AcDbMText
 10
324.3764652415495
 20
169.3161516521131
 30
0.0
 40
3.0
 41
0.0
 71
     5
 72
     1
  1
\A1;53
1001
ACAD
1000
MTEXTBEGIN
1070
    73
1070
     1
1070
    44
1040
1.0
1070
    74
1070
     0
1000
MTEXTEND
  0
POINT
  5
302C
330
2F86
100
AcDbEntity
  8
DEFPOINTS
 62
     0
100
AcDbPoint
 10
297.8764652415495
 20
113.8420598622617
 30
0.0
  0
POINT
  5
302D
330
2F86
100
AcDbEntity
  8
DEFPOINTS
 62
     0
100
AcDbPoint
 10
350.8764652415495
 20
113.8420598622617
 30
0.0
  0
POINT
  5
302E
330
2F86
100
AcDbEntity
  8
DEFPOINTS
 62
     0
100
AcDbPoint
 10
350.8764652415495
 20
166.8161516521131
 30
0.0
  0
ENDBLK
  5
2F91
330
2F86
100
AcDbEntity
  8
0
100
AcDbBlockEnd
  0
BLOCK
  5
2F9C
330
2F92
100
AcDbEntity
  8
0
100
AcDbBlockBegin
  2
*D10
 70
     1
 10
0.0
 20
0.0
 30
0.0
  3
*D10
  1

  0
LINE
  5
302F
330
2F92
100
AcDbEntity
  8
SUNPOU
100
AcDbLine
 10
303.3764652415495
 20
119.4420598339891
 30
0.0
 11
303.3764652415495
 21
160.3758490884706
 31
0.0
  0
LINE
  5
3030
330
2F92
100
AcDbEntity
  8
SUNPOU
100
AcDbLine
 10
345.3764652415495
 20
119.4420598339891
 30
0.0
 11
345.3764652415495
 21
160.3758490884706
 31
0.0
  0
LINE
  5
3031
330
2F92
100
AcDbEntity
  8
SUNPOU
100
AcDbLine
 10
306.3764652415495
 20
158.8758490884706
 30
0.0
 11
342.3764652415495
 21
158.8758490884706
 31
0.0
  0
INSERT
  5
3032
330
2F92
100
AcDbEntity
  8
SUNPOU
100
AcDbBlockReference
  2
_OPEN
 10
303.3764652415495
 20
158.8758490884706
 30
0.0
 41
3.0
 42
3.0
 43
3.0
 50
180.0
  0
INSERT
  5
3033
330
2F92
100
AcDbEntity
  8
SUNPOU
100
AcDbBlockReference
  2
_OPEN
 10
345.3764652415495
 20
158.8758490884706
 30
0.0
 41
3.0
 42
3.0
 43
3.0
  0
MTEXT
  5
3034
330
2F92
100
AcDbEntity
  8
SUNPOU
100
AcDbMText
 10
324.3764652415495
 20
161.3758490884706
 30
0.0
 40
3.0
 41
0.0
 71
     5
 72
     1
  1
\A1;42
1001
ACAD
1000
MTEXTBEGIN
1070
    73
1070
     1
1070
    44
1040
1.0
1070
    74
1070
     0
1000
MTEXTEND
  0
POINT
  5
3035
330
2F92
100
AcDbEntity
  8
DEFPOINTS
 62
     0
100
AcDbPoint
 10
303.3764652415495
 20
116.4420598339891
 30
0.0
  0
POINT
  5
3036
330
2F92
100
AcDbEntity
  8
DEFPOINTS
 62
     0
100
AcDbPoint
 10
345.3764652415495
 20
116.4420598339891
 30
0.0
  0
POINT
  5
3037
330
2F92
100
AcDbEntity
  8
DEFPOINTS
 62
     0
100
AcDbPoint
 10
345.3764652415495
 20
158.8758490884706
 30
0.0
  0
ENDBLK
  5
2F9D
330
2F92
100
AcDbEntity
  8
0
100
AcDbBlockEnd
  0
BLOCK
  5
2FA8
330
2F9E
100
AcDbEntity
  8
0
100
AcDbBlockBegin
  2
*D11
 70
     1
 10
0.0
 20
0.0
 30
0.0
  3
*D11
  1

  0
LINE
  5
3038
330
2F9E
100
AcDbEntity
  8
SUNPOU
100
AcDbLine
 10
304.8764652415495
 20
111.8723660569896
 30
0.0
 11
304.8764652415495
 21
151.9543165388631
 31
0.0
  0
LINE
  5
3039
330
2F9E
100
AcDbEntity
  8
SUNPOU
100
AcDbLine
 10
343.8764652415495
 20
111.8723660569896
 30
0.0
 11
343.8764652415495
 21
151.9543165388631
 31
0.0
  0
LINE
  5
303A
330
2F9E
100
AcDbEntity
  8
SUNPOU
100
AcDbLine
 10
307.8764652415495
 20
150.4543165388631
 30
0.0
 11
340.8764652415495
 21
150.4543165388631
 31
0.0
  0
INSERT
  5
303B
330
2F9E
100
AcDbEntity
  8
SUNPOU
100
AcDbBlockReference
  2
_OPEN
 10
304.8764652415495
 20
150.4543165388631
 30
0.0
 41
3.0
 42
3.0
 43
3.0
 50
180.0
  0
INSERT
  5
303C
330
2F9E
100
AcDbEntity
  8
SUNPOU
100
AcDbBlockReference
  2
_OPEN
 10
343.8764652415495
 20
150.4543165388631
 30
0.0
 41
3.0
 42
3.0
 43
3.0
  0
MTEXT
  5
303D
330
2F9E
100
AcDbEntity
  8
SUNPOU
100
AcDbMText
 10
324.3764652415495
 20
152.9543165388631
 30
0.0
 40
3.0
 41
0.0
 71
     5
 72
     1
  1
\A1;39
1001
ACAD
1000
MTEXTBEGIN
1070
    73
1070
     1
1070
    44
1040
1.0
1070
    74
1070
     0
1000
MTEXTEND
  0
POINT
  5
303E
330
2F9E
100
AcDbEntity
  8
DEFPOINTS
 62
     0
100
AcDbPoint
 10
304.8764652415495
 20
108.8723660569896
 30
0.0
  0
POINT
  5
303F
330
2F9E
100
AcDbEntity
  8
DEFPOINTS
 62
     0
100
AcDbPoint
 10
343.8764652415495
 20
108.8723660569896
 30
0.0
  0
POINT
  5
3040
330
2F9E
100
AcDbEntity
  8
DEFPOINTS
 62
     0
100
AcDbPoint
 10
343.8764652415495
 20
150.4543165388631
 30
0.0
  0
ENDBLK
  5
2FA9
330
2F9E
100
AcDbEntity
  8
0
100
AcDbBlockEnd
  0
BLOCK
  5
2FB4
330
2FAA
100
AcDbEntity
  8
0
100
AcDbBlockBegin
  2
*D12
 70
     1
 10
0.0
 20
0.0
 30
0.0
  3
*D12
  1

  0
LINE
  5
3041
330
2FAA
100
AcDbEntity
  8
SUNPOU
100
AcDbLine
 10
296.8764652415495
 20
115.8420598622617
 30
0.0
 11
268.4031106758057
 21
115.8420598622617
 31
0.0
  0
LINE
  5
3042
330
2FAA
100
AcDbEntity
  8
SUNPOU
100
AcDbLine
 10
296.8764652415495
 20
79.84205986226175
 30
0.0
 11
268.4031106758057
 21
79.84205986226176
 31
0.0
  0
LINE
  5
3043
330
2FAA
100
AcDbEntity
  8
SUNPOU
100
AcDbLine
 10
269.9031106758056
 20
112.8420598622617
 30
0.0
 11
269.9031106758056
 21
82.84205986226176
 31
0.0
  0
INSERT
  5
3044
330
2FAA
100
AcDbEntity
  8
SUNPOU
100
AcDbBlockReference
  2
_OPEN
 10
269.9031106758056
 20
115.8420598622617
 30
0.0
 41
3.0
 42
3.0
 43
3.0
 50
90.0
  0
INSERT
  5
3045
330
2FAA
100
AcDbEntity
  8
SUNPOU
100
AcDbBlockReference
  2
_OPEN
 10
269.9031106758056
 20
79.84205986226176
 30
0.0
 41
3.0
 42
3.0
 43
3.0
 50
270.0
  0
MTEXT
  5
3046
330
2FAA
100
AcDbEntity
  8
SUNPOU
100
AcDbMText
 10
267.4031106758056
 20
97.84205986226181
 30
0.0
 40
3.0
 41
0.0
 71
     5
 72
     1
  1
\A1;36
 11
0.0000000000000001
 21
1.0
 31
0.0
1001
ACAD
1000
MTEXTBEGIN
1070
    73
1070
     1
1070
    44
1040
1.0
1070
    74
1070
     0
1000
MTEXTEND
  0
POINT
  5
3047
330
2FAA
100
AcDbEntity
  8
DEFPOINTS
 62
     0
100
AcDbPoint
 10
299.8764652415495
 20
115.8420598622617
 30
0.0
  0
POINT
  5
3048
330
2FAA
100
AcDbEntity
  8
DEFPOINTS
 62
     0
100
AcDbPoint
 10
299.8764652415495
 20
79.84205986226175
 30
0.0
  0
POINT
  5
3049
330
2FAA
100
AcDbEntity
  8
DEFPOINTS
 62
     0
100
AcDbPoint
 10
269.9031106758056
 20
79.84205986226176
 30
0.0
  0
ENDBLK
  5
2FB5
330
2FAA
100
AcDbEntity
  8
0
100
AcDbBlockEnd
  0
BLOCK
  5
2FC2
330
2FB6
100
AcDbEntity
  8
0
100
AcDbBlockBegin
  2
*D13
 70
     1
 10
0.0
 20
0.0
 30
0.0
  3
*D13
  1

  0
LINE
  5
304A
330
2FB6
100
AcDbEntity
  8
SUNPOU
100
AcDbLine
 10
294.2764652698221
 20
85.34205986226174
 30
0.0
 11
278.2765160383991
 21
85.34205986226176
 31
0.0
  0
LINE
  5
304B
330
2FB6
100
AcDbEntity
  8
SUNPOU
100
AcDbLine
 10
296.8764652415495
 20
79.84205986226175
 30
0.0
 11
278.2765160383991
 21
79.84205986226176
 31
0.0
  0
LINE
  5
304C
330
2FB6
100
AcDbEntity
  8
SUNPOU
100
AcDbLine
 10
279.7765160383991
 20
88.34205986226177
 30
0.0
 11
279.7765160383991
 21
91.34205986226175
 31
0.0
  0
LINE
  5
304D
330
2FB6
100
AcDbEntity
  8
SUNPOU
100
AcDbLine
 10
279.7765160383991
 20
76.84205986226176
 30
0.0
 11
279.7765160383991
 21
73.84205986226176
 31
0.0
  0
LINE
  5
304E
330
2FB6
100
AcDbEntity
  8
SUNPOU
100
AcDbLine
 10
279.7765160383991
 20
85.34205986226176
 30
0.0
 11
279.7765160383991
 21
79.84205986226176
 31
0.0
  0
INSERT
  5
304F
330
2FB6
100
AcDbEntity
  8
SUNPOU
100
AcDbBlockReference
  2
_OPEN
 10
279.7765160383991
 20
85.34205986226176
 30
0.0
 41
3.0
 42
3.0
 43
3.0
 50
270.0
  0
INSERT
  5
3050
330
2FB6
100
AcDbEntity
  8
SUNPOU
100
AcDbBlockReference
  2
_OPEN
 10
279.7765160383991
 20
79.84205986226176
 30
0.0
 41
3.0
 42
3.0
 43
3.0
 50
90.0
  0
MTEXT
  5
3051
330
2FB6
100
AcDbEntity
  8
SUNPOU
100
AcDbMText
 10
277.2765160383991
 20
82.59205986226181
 30
0.0
 40
3.0
 41
0.0
 71
     5
 72
     1
  1
\A1;6
 11
0.0000000000000001
 21
1.0
 31
0.0
1001
ACAD
1000
MTEXTBEGIN
1070
    73
1070
     1
1070
    44
1040
1.0
1070
    74
1070
     0
1000
MTEXTEND
  0
POINT
  5
3052
330
2FB6
100
AcDbEntity
  8
DEFPOINTS
 62
     0
100
AcDbPoint
 10
297.2764652698221
 20
85.34205986226174
 30
0.0
  0
POINT
  5
3053
330
2FB6
100
AcDbEntity
  8
DEFPOINTS
 62
     0
100
AcDbPoint
 10
299.8764652415495
 20
79.84205986226175
 30
0.0
  0
POINT
  5
3054
330
2FB6
100
AcDbEntity
  8
DEFPOINTS
 62
     0
100
AcDbPoint
 10
279.7765160383991
 20
79.84205986226176
 30
0.0
  0
ENDBLK
  5
2FC3
330
2FB6
100
AcDbEntity
  8
0
100
AcDbBlockEnd
  0
BLOCK
  5
2FD0
330
2FC4
100
AcDbEntity
  8
0
100
AcDbBlockBegin
  2
*D14
 70
     1
 10
0.0
 20
0.0
 30
0.0
  3
*D14
  1

  0
LINE
  5
3055
330
2FC4
100
AcDbEntity
  8
SUNPOU
100
AcDbLine
 10
296.8764652415495
 20
115.8420598622617
 30
0.0
 11
278.2765160383992
 21
115.8420598622617
 31
0.0
  0
LINE
  5
3056
330
2FC4
100
AcDbEntity
  8
SUNPOU
100
AcDbLine
 10
294.2764652698221
 20
110.3420598622617
 30
0.0
 11
278.2765160383992
 21
110.3420598622617
 31
0.0
  0
LINE
  5
3057
330
2FC4
100
AcDbEntity
  8
SUNPOU
100
AcDbLine
 10
279.7765160383992
 20
118.8420598622617
 30
0.0
 11
279.7765160383992
 21
121.8420598622617
 31
0.0
  0
LINE
  5
3058
330
2FC4
100
AcDbEntity
  8
SUNPOU
100
AcDbLine
 10
279.7765160383992
 20
107.3420598622617
 30
0.0
 11
279.7765160383992
 21
104.3420598622617
 31
0.0
  0
LINE
  5
3059
330
2FC4
100
AcDbEntity
  8
SUNPOU
100
AcDbLine
 10
279.7765160383992
 20
115.8420598622617
 30
0.0
 11
279.7765160383992
 21
110.3420598622617
 31
0.0
  0
INSERT
  5
305A
330
2FC4
100
AcDbEntity
  8
SUNPOU
100
AcDbBlockReference
  2
_OPEN
 10
279.7765160383992
 20
115.8420598622617
 30
0.0
 41
3.0
 42
3.0
 43
3.0
 50
270.0
  0
INSERT
  5
305B
330
2FC4
100
AcDbEntity
  8
SUNPOU
100
AcDbBlockReference
  2
_OPEN
 10
279.7765160383992
 20
110.3420598622617
 30
0.0
 41
3.0
 42
3.0
 43
3.0
 50
90.0
  0
MTEXT
  5
305C
330
2FC4
100
AcDbEntity
  8
SUNPOU
100
AcDbMText
 10
277.2765160383992
 20
113.0920598622618
 30
0.0
 40
3.0
 41
0.0
 71
     5
 72
     1
  1
\A1;6
 11
0.0000000000000001
 21
1.0
 31
0.0
1001
ACAD
1000
MTEXTBEGIN
1070
    73
1070
     1
1070
    44
1040
1.0
1070
    74
1070
     0
1000
MTEXTEND
  0
POINT
  5
305D
330
2FC4
100
AcDbEntity
  8
DEFPOINTS
 62
     0
100
AcDbPoint
 10
299.8764652415495
 20
115.8420598622617
 30
0.0
  0
POINT
  5
305E
330
2FC4
100
AcDbEntity
  8
DEFPOINTS
 62
     0
100
AcDbPoint
 10
297.2764652698221
 20
110.3420598622617
 30
0.0
  0
POINT
  5
305F
330
2FC4
100
AcDbEntity
  8
DEFPOINTS
 62
     0
100
AcDbPoint
 10
279.7765160383992
 20
110.3420598622617
 30
0.0
  0
ENDBLK
  5
2FD1
330
2FC4
100
AcDbEntity
  8
0
100
AcDbBlockEnd
  0
BLOCK
  5
2FDC
330
2FD2
100
AcDbEntity
  8
0
100
AcDbBlockBegin
  2
*D15
 70
     1
 10
0.0
 20
0.0
 30
0.0
  3
*D15
  1

  0
LINE
  5
3060
330
2FD2
100
AcDbEntity
  8
SUNPOU
100
AcDbLine
 10
351.8764652415495
 20
115.8420598622617
 30
0.0
 11
368.4514716222293
 21
115.8420598622617
 31
0.0
  0
LINE
  5
3061
330
2FD2
100
AcDbEntity
  8
SUNPOU
100
AcDbLine
 10
353.8764652415495
 20
101.8420598622617
 30
0.0
 11
368.4514716222293
 21
101.8420598622617
 31
0.0
  0
LINE
  5
3062
330
2FD2
100
AcDbEntity
  8
SUNPOU
100
AcDbLine
 10
366.9514716222292
 20
112.8420598622617
 30
0.0
 11
366.9514716222292
 21
104.8420598622617
 31
0.0
  0
INSERT
  5
3063
330
2FD2
100
AcDbEntity
  8
SUNPOU
100
AcDbBlockReference
  2
_OPEN
 10
366.9514716222292
 20
115.8420598622617
 30
0.0
 41
3.0
 42
3.0
 43
3.0
 50
90.0
  0
INSERT
  5
3064
330
2FD2
100
AcDbEntity
  8
SUNPOU
100
AcDbBlockReference
  2
_OPEN
 10
366.9514716222292
 20
101.8420598622617
 30
0.0
 41
3.0
 42
3.0
 43
3.0
 50
270.0
  0
MTEXT
  5
3065
330
2FD2
100
AcDbEntity
  8
SUNPOU
100
AcDbMText
 10
364.4514716222293
 20
108.8420598622617
 30
0.0
 40
3.0
 41
0.0
 71
     5
 72
     1
  1
\A1;14
 11
0.0000000000000001
 21
1.0
 31
0.0
1001
ACAD
1000
MTEXTBEGIN
1070
    73
1070
     1
1070
    44
1040
1.0
1070
    74
1070
     0
1000
MTEXTEND
  0
POINT
  5
3066
330
2FD2
100
AcDbEntity
  8
DEFPOINTS
 62
     0
100
AcDbPoint
 10
348.8764652415495
 20
115.8420598622617
 30
0.0
  0
POINT
  5
3067
330
2FD2
100
AcDbEntity
  8
DEFPOINTS
 62
     0
100
AcDbPoint
 10
350.8764652415495
 20
101.8420598622617
 30
0.0
  0
POINT
  5
3068
330
2FD2
100
AcDbEntity
  8
DEFPOINTS
 62
     0
100
AcDbPoint
 10
366.9514716222292
 20
101.8420598622617
 30
0.0
  0
ENDBLK
  5
2FDD
330
2FD2
100
AcDbEntity
  8
0
100
AcDbBlockEnd
  0
ENDSEC
  0
SECTION
  2
ENTITIES
  0
LWPOLYLINE
  5
2A43
330
1A
100
AcDbEntity
  8
ZUWAKU
100
AcDbPolyline
 90
        4
 70
     1
 43
0.0
 10
0.3999996775634145
 20
275.4000000308041
 10
0.3999996775634145
 20
0.4000000308041649
 10
398.3999996775634
 20
0.4000000308041649
 10
398.3999996775634
 20
275.4000000308041
  0
LWPOLYLINE
  5
2A44
330
1A
100
AcDbEntity
  8
ZUWAKU
100
AcDbPolyline
 90
        4
 70
     1
 43
0.0
 10
0.1999996775634258
 20
275.6000000308041
 10
0.1999996775634258
 20
0.2000000308041763
 10
398.5999996775634
 20
0.2000000308041647
 10
398.5999996775634
 20
275.6000000308041
  0
LWPOLYLINE
  5
2A45
330
1A
100
AcDbEntity
  8
ZUWAKU
100
AcDbPolyline
 90
        4
 70
     1
 43
0.0
 10
-0.0000003224365628
 20
275.8000000308041
 10
-0.0000003224365628
 20
0.0000000308041308
 10
398.7999996775635
 20
0.0000000308041646
 10
398.7999996775635
 20
275.8000000308042
  0
LWPOLYLINE
  5
2A46
330
1A
100
AcDbEntity
  8
ZUWAKU
100
AcDbPolyline
 90
        4
 70
     1
 43
0.0
 10
0.2999996775633917
 20
275.5000000308041
 10
0.2999996775633917
 20
0.3000000308041422
 10
398.4999996775635
 20
0.3000000308041653
 10
398.4999996775634
 20
275.5000000308041
  0
LWPOLYLINE
  5
2A47
330
1A
100
AcDbEntity
  8
ZUWAKU
100
AcDbPolyline
 90
        4
 70
     1
 43
0.0
 10
0.0999996775634031
 20
275.7000000308041
 10
0.0999996775634031
 20
0.1000000308041535
 10
398.6999996775633
 20
0.1000000308041651
 10
398.6999996775634
 20
275.7000000308041
  0
LINE
  5
2A48
330
1A
100
AcDbEntity
  8
ZUWAKU
100
AcDbLine
 10
-0.0000003224365628
 20
15.00000003080413
 30
0.0
 11
398.6999996775633
 21
15.00000003080413
 31
0.0
  0
LINE
  5
2A49
330
1A
100
AcDbEntity
  8
ZUWAKU
100
AcDbLine
 10
-0.0000003224365628
 20
15.10000003080413
 30
0.0
 11
398.6999996775633
 21
15.10000003080413
 31
0.0
  0
LINE
  5
2A4A
330
1A
100
AcDbEntity
  8
ZUWAKU
100
AcDbLine
 10
-0.0000003224365628
 20
15.20000003080413
 30
0.0
 11
398.6999996775633
 21
15.20000003080413
 31
0.0
  0
LINE
  5
2A4B
330
1A
100
AcDbEntity
  8
ZUWAKU
100
AcDbLine
 10
-0.0000003224365628
 20
15.30000003080413
 30
0.0
 11
398.6999996775633
 21
15.30000003080413
 31
0.0
  0
LINE
  5
2A4C
330
1A
100
AcDbEntity
  8
ZUWAKU
100
AcDbLine
 10
-0.0000003224365628
 20
15.40000003080413
 30
0.0
 11
398.6999996775633
 21
15.40000003080413
 31
0.0
  0
LINE
  5
2A4D
330
1A
100
AcDbEntity
  8
ZUWAKU
100
AcDbLine
 10
104.3233003225974
 20
7.700000030804147
 30
0.0
 11
223.7121816630591
 21
7.700000030804147
 31
0.0
  0
LINE
  5
2A4E
330
1A
100
AcDbEntity
  8
ZUWAKU
100
AcDbLine
 10
104.3233003225974
 20
7.800000030804147
 30
0.0
 11
223.7121816630591
 21
7.800000030804151
 31
0.0
  0
LINE
  5
2A4F
330
1A
100
AcDbEntity
  8
ZUWAKU
100
AcDbLine
 10
104.3233003225974
 20
7.600000030804149
 30
0.0
 11
223.7121816630591
 21
7.600000030804146
 31
0.0
  0
TEXT
  5
2A50
330
1A
100
AcDbEntity
  8
MOJI
100
AcDbText
 10
46.478894471648
 20
6.370589095941511
 30
0.0
 40
3.0
  1
ライナートップ
 41
0.9
  7
ｽﾀｲﾙ1
100
AcDbText
  0
CIRCLE
  5
2A51
330
1A
100
AcDbEntity
  8
ZUWAKU
100
AcDbCircle
 10
12.99610575495398
 20
7.600000030804132
 30
0.0
 40
0.875
  0
LINE
  5
2A52
330
1A
100
AcDbEntity
  8
ZUWAKU
100
AcDbLine
 10
13.43360575495398
 20
3.575000030804133
 30
0.0
 11
12.47110575495401
 21
3.575000030804133
 31
0.0
  0
LINE
  5
2A53
330
1A
100
AcDbEntity
  8
ZUWAKU
100
AcDbLine
 10
12.47110575495401
 20
4.975000030804132
 30
0.0
 11
13.43360575495398
 21
4.975000030804132
 31
0.0
  0
LINE
  5
2A54
330
1A
100
AcDbEntity
  8
ZUWAKU
100
AcDbLine
 10
13.43360575495398
 20
10.22500003080413
 30
0.0
 11
12.47110575495401
 21
10.22500003080413
 31
0.0
  0
LINE
  5
2A55
330
1A
100
AcDbEntity
  8
ZUWAKU
100
AcDbLine
 10
12.47110575495401
 20
11.62500003080411
 30
0.0
 11
13.43360575495398
 21
11.62500003080413
 31
0.0
  0
HATCH
  5
2A56
330
1A
100
AcDbEntity
  8
ZUWAKU
100
AcDbHatch
 10
0.0
 20
0.0
 30
0.0
210
0.0
220
0.0
230
1.0
  2
ANSI37
 70
     0
 71
     0
 91
        8
 92
        7
 72
     1
 73
     1
 93
       24
 10
7.251131008123365
 20
8.822424271295922
 42
-0.1989123673796348
 10
7.046105754953998
 20
9.317399018126447
 42
0.0
 10
7.046105754953998
 20
9.962500030804136
 42
-0.4142135623730912
 10
7.308605754953987
 20
10.22500003080413
 42
0.0
 10
8.796105754953941
 20
10.22500003080413
 42
0.4142135623731546
 10
9.058605754953987
 20
10.48750003080412
 42
0.0
 10
9.058605754953987
 20
11.36250003080413
 42
0.4142135623731586
 10
8.796105754953941
 20
11.62500003080413
 42
0.0
 10
7.046105754953998
 20
11.62500003080413
 42
0.4142135623730928
 10
5.646105754954021
 20
10.22500003080414
 42
0.0
 10
5.646105754954021
 20
9.317399018126511
 42
0.1989123673796619
 10
6.261181514462236
 20
7.832474777634708
 42
0.0
 10
7.716080501784574
 20
6.377575790312379
 42
-0.1989123673796613
 10
7.921105754953998
 20
5.882601043481786
 42
0.0
 10
7.921105754953998
 20
5.237500030804127
 42
-0.4142135623730911
 10
7.65860575495401
 20
4.975000030804132
 42
0.0
 10
6.171105754954055
 20
4.975000030804132
 42
0.4142135623731526
 10
5.90860575495401
 20
4.712500030804138
 42
0.0
 10
5.90860575495401
 20
3.837500030804127
 42
0.4142135623731526
 10
6.171105754954055
 20
3.575000030804133
 42
0.0
 10
7.921105754953998
 20
3.575000030804133
 42
0.4142135623731044
 10
9.321105754954032
 20
4.975000030804121
 42
0.0
 10
9.321105754954032
 20
5.882601043481757
 42
0.1989123673796604
 10
8.70602999544576
 20
7.367525283973527
 42
0.0
 97
        0
 92
        7
 72
     1
 73
     1
 93
       16
 10
11.77110575495402
 20
9.525000030804136
 42
-0.4142135623730935
 10
12.47110575495401
 20
10.22500003080413
 42
0.0
 10
13.43360575495398
 20
10.22500003080413
 42
0.4142135623731546
 10
13.69610575495403
 20
10.48750003080412
 42
0.0
 10
13.69610575495403
 20
11.36250003080413
 42
0.4142135623730951
 10
13.43360575495404
 20
11.62500003080413
 42
0.0
 10
12.47110575495395
 20
11.62500003080411
 42
0.4142135623730892
 10
10.37110575495398
 20
9.5250000308041
 42
0.0
 10
10.37110575495398
 20
5.675000030804145
 42
0.4142135623730969
 10
12.47110575495401
 20
3.575000030804133
 42
0.0
 10
13.43360575495398
 20
3.575000030804133
 42
0.4142135623731526
 10
13.69610575495403
 20
3.837500030804127
 42
0.0
 10
13.69610575495403
 20
4.712500030804138
 42
0.4142135623730891
 10
13.43360575495404
 20
4.975000030804132
 42
0.0
 10
12.47110575495401
 20
4.975000030804132
 42
-0.4142135623730928
 10
11.77110575495402
 20
5.675000030804126
 42
0.0
 97
        0
 92
        7
 72
     1
 73
     1
 93
        2
 10
12.12110575495398
 20
7.600000030804132
 42
1.0
 10
13.87110575495398
 20
7.600000030804132
 42
1.0
 97
        0
 92
        7
 72
     1
 73
     1
 93
       26
 10
18.65742899604299
 20
9.602523627585846
 42
0.0
 10
19.1882488126119
 20
11.28345304672064
 42
0.5069206636600134
 10
18.93793336301422
 20
11.62500003080413
 42
0.0
 10
18.08848867320961
 20
11.62500003080413
 42
0.3272098845218764
 10
17.83817322361193
 20
11.44154701488761
 42
0.0
 10
16.90403828629604
 20
8.483453046720672
 42
-0.3272098845219541
 10
16.6537228366983
 20
8.300000030804131
 42
0.0
 10
16.58360575495407
 20
8.300000030804131
 42
-0.4142135623731526
 10
16.32110575495403
 20
8.562500030804125
 42
0.0
 10
16.32110575495403
 20
11.36250003080413
 42
0.4142135623730951
 10
16.05860575495404
 20
11.62500003080413
 42
0.0
 10
15.18360575495398
 20
11.62500003080413
 42
0.4142135623730871
 10
14.921105754954
 20
11.36250003080414
 42
0.0
 10
14.921105754954
 20
3.837500030804127
 42
0.4142135623730891
 10
15.18360575495398
 20
3.575000030804133
 42
0.0
 10
16.05860575495398
 20
3.575000030804133
 42
0.4142135623731526
 10
16.32110575495403
 20
3.837500030804127
 42
0.0
 10
16.32110575495403
 20
6.637500030804138
 42
-0.4142135623731526
 10
16.58360575495407
 20
6.900000030804132
 42
0.0
 10
16.65372283669836
 20
6.900000030804132
 42
-0.3272098845218915
 10
16.90403828629604
 20
6.716547014887595
 42
0.0
 10
17.83817322361193
 20
3.758453046720669
 42
0.3272098845218902
 10
18.08848867320961
 20
3.575000030804133
 42
0.0
 10
18.93793336301422
 20
3.575000030804133
 42
0.5069206636600335
 10
19.1882488126119
 20
3.916547014887637
 42
0.0
 10
18.02505312337507
 20
7.600000030804201
 42
0.0
 97
        0
 92
        7
 72
     1
 73
     1
 93
        8
 10
21.74610575495398
 20
11.36250003080413
 42
0.4142135623731546
 10
21.48360575495394
 20
11.62500003080413
 42
0.0
 10
20.60860575495405
 20
11.62500003080413
 42
0.4142135623731507
 10
20.346105754954
 20
11.36250003080414
 42
0.0
 10
20.346105754954
 20
3.837500030804127
 42
0.4142135623731526
 10
20.60860575495405
 20
3.575000030804133
 42
0.0
 10
21.48360575495394
 20
3.575000030804133
 42
0.4142135623731526
 10
21.74610575495398
 20
3.837500030804127
 42
0.0
 97
        0
 92
        7
 72
     1
 73
     1
 93
       24
 10
24.19610575495403
 20
9.962500030804136
 42
-0.4142135623731546
 10
24.45860575495407
 20
10.22500003080413
 42
0.0
 10
25.94610575495403
 20
10.22500003080413
 42
0.4142135623730911
 10
26.20860575495402
 20
10.48750003080412
 42
0.0
 10
26.20860575495402
 20
11.36250003080413
 42
0.4142135623730952
 10
25.94610575495403
 20
11.62500003080413
 42
0.0
 10
24.19610575495403
 20
11.62500003080413
 42
0.4142135623731048
 10
22.796105754954
 20
10.22500003080414
 42
0.0
 10
22.796105754954
 20
9.317399018126511
 42
0.1989123673796613
 10
23.41118151446227
 20
7.832474777634736
 42
0.0
 10
24.8660805017846
 20
6.377575790312402
 42
-0.1989123673796402
 10
25.07110575495403
 20
5.882601043481866
 42
0.0
 10
25.07110575495403
 20
5.237500030804127
 42
-0.4142135623730911
 10
24.80860575495404
 20
4.975000030804132
 42
0.0
 10
23.32110575495403
 20
4.975000030804132
 42
0.4142135623731526
 10
23.05860575495398
 20
4.712500030804138
 42
0.0
 10
23.05860575495398
 20
3.837500030804127
 42
0.4142135623730891
 10
23.32110575495397
 20
3.575000030804133
 42
0.0
 10
25.07110575495403
 20
3.575000030804133
 42
0.4142135623730925
 10
26.47110575495401
 20
4.975000030804121
 42
0.0
 10
26.47110575495401
 20
5.882601043481757
 42
0.1989123673796675
 10
25.85602999544573
 20
7.367525283973584
 42
0.0
 10
24.40113100812345
 20
8.822424271295842
 42
-0.1989123673796652
 10
24.19610575495403
 20
9.317399018126426
 42
0.0
 97
        0
 92
        7
 72
     1
 73
     1
 93
       16
 10
28.92110575495399
 20
11.36250003080412
 42
0.414213562373103
 10
28.65860575495401
 20
11.62500003080413
 42
0.0
 10
27.78360575495401
 20
11.62500003080413
 42
0.4142135623730871
 10
27.52110575495402
 20
11.36250003080414
 42
0.0
 10
27.52110575495402
 20
4.975000030804121
 42
0.4142135623730926
 10
28.92110575495399
 20
3.575000030804133
 42
0.0
 10
30.671105754954
 20
3.575000030804133
 42
0.4142135623731044
 10
32.07110575495403
 20
4.975000030804121
 42
0.0
 10
32.07110575495403
 20
11.36250003080413
 42
0.4142135623730951
 10
31.80860575495404
 20
11.62500003080413
 42
0.0
 10
30.93360575495399
 20
11.62500003080413
 42
0.4142135623730871
 10
30.671105754954
 20
11.36250003080414
 42
0.0
 10
30.671105754954
 20
5.50000003080412
 42
-0.414213562373088
 10
30.14610575495402
 20
4.975000030804132
 42
0.0
 10
29.44610575495403
 20
4.975000030804132
 42
-0.4142135623731197
 10
28.92110575495399
 20
5.50000003080412
 42
0.0
 97
        0
 92
        7
 72
     1
 73
     1
 93
        8
 10
34.52110575495402
 20
11.36250003080414
 42
0.4142135623730871
 10
34.25860575495403
 20
11.62500003080413
 42
0.0
 10
33.38360575495403
 20
11.62500003080413
 42
0.4142135623731507
 10
33.12110575495399
 20
11.36250003080414
 42
0.0
 10
33.12110575495399
 20
3.837500030804127
 42
0.4142135623730891
 10
33.38360575495397
 20
3.575000030804133
 42
0.0
 10
34.25860575495403
 20
3.575000030804133
 42
0.4142135623730891
 10
34.52110575495402
 20
3.837500030804127
 42
0.0
 97
        0
 75
     0
 76
     1
 52
0.0
 41
0.1
 77
     0
 78
     2
 53
45.0
 43
-450.471152489776
 44
-6.599999969195835
 45
-0.2245064030267288
 46
0.2245064030267288
 79
     0
 53
135.0
 43
-450.471152489776
 44
-6.599999969195835
 45
-0.2245064030267288
 46
-0.2245064030267288
 79
     0
 47
0.057451373970553
 98
        8
 10
8.039927159075091
 20
7.583586853746908
 10
11.20225718078302
 20
9.422031122029636
 10
12.58218362039326
 20
7.75594085383949
 10
15.457029668382
 20
8.100648854024882
 10
20.9192356870418
 20
8.33045498779569
 10
23.44910012512821
 20
9.709288189007736
 10
28.27884266376361
 20
9.364578988351638
 10
33.9135394873748
 20
9.594385122122446
  0
ARC
  5
2A57
330
1A
100
AcDbEntity
  8
ZUWAKU
100
AcDbCircle
 10
7.746105754953987
 20
9.317399018126483
 30
0.0
 40
2.099999999999999
100
AcDbArc
 50
180.0
 51
225.0
  0
LINE
  5
2A58
330
1A
100
AcDbEntity
  8
ZUWAKU
100
AcDbLine
 10
10.37110575495398
 20
5.675000030804135
 30
0.0
 11
10.37110575495398
 21
9.525000030804111
 31
0.0
  0
LINE
  5
2A59
330
1A
100
AcDbEntity
  8
ZUWAKU
100
AcDbLine
 10
11.77110575495402
 20
9.525000030804132
 30
0.0
 11
11.77110575495402
 21
5.675000030804135
 31
0.0
  0
ARC
  5
2A5A
330
1A
100
AcDbEntity
  8
ZUWAKU
100
AcDbCircle
 10
7.746105754953987
 20
9.317399018126483
 30
0.0
 40
0.7
100
AcDbArc
 50
180.0000000000016
 51
224.9999999999988
  0
ARC
  5
2A5B
330
1A
100
AcDbEntity
  8
ZUWAKU
100
AcDbCircle
 10
12.47110575495401
 20
5.675000030804135
 30
0.0
 40
2.099999999999999
100
AcDbArc
 50
180.0
 51
270.0
  0
ARC
  5
2A5C
330
1A
100
AcDbEntity
  8
ZUWAKU
100
AcDbCircle
 10
7.921105754953998
 20
4.975000030804132
 30
0.0
 40
1.399999999999999
100
AcDbArc
 50
270.0
 51
0.0
  0
ARC
  5
2A5D
330
1A
100
AcDbEntity
  8
ZUWAKU
100
AcDbCircle
 10
7.22110575495401
 20
5.882601043481784
 30
0.0
 40
2.099999999999999
100
AcDbArc
 50
0.0
 51
45.0
  0
LINE
  5
2A5E
330
1A
100
AcDbEntity
  8
ZUWAKU
100
AcDbLine
 10
6.261181514462236
 20
7.832474777634722
 30
0.0
 11
7.716080501784574
 21
6.377575790312391
 31
0.0
  0
LINE
  5
2A5F
330
1A
100
AcDbEntity
  8
ZUWAKU
100
AcDbLine
 10
6.171105754953998
 20
4.975000030804132
 30
0.0
 11
7.65860575495401
 21
4.975000030804132
 31
0.0
  0
LINE
  5
2A60
330
1A
100
AcDbEntity
  8
ZUWAKU
100
AcDbLine
 10
6.171105754953998
 20
3.575000030804133
 30
0.0
 11
7.921105754953998
 21
3.575000030804133
 31
0.0
  0
ARC
  5
2A61
330
1A
100
AcDbEntity
  8
ZUWAKU
100
AcDbCircle
 10
6.171105754953998
 20
4.712500030804132
 30
0.0
 40
0.2625
100
AcDbArc
 50
90.0
 51
180.0
  0
ARC
  5
2A62
330
1A
100
AcDbEntity
  8
ZUWAKU
100
AcDbCircle
 10
6.171105754953998
 20
3.837500030804132
 30
0.0
 40
0.2625
100
AcDbArc
 50
180.0
 51
270.0
  0
LINE
  5
2A63
330
1A
100
AcDbEntity
  8
ZUWAKU
100
AcDbLine
 10
5.90860575495401
 20
3.837500030804132
 30
0.0
 11
5.90860575495401
 21
4.712500030804132
 31
0.0
  0
ARC
  5
2A64
330
1A
100
AcDbEntity
  8
ZUWAKU
100
AcDbCircle
 10
7.22110575495401
 20
5.882601043481805
 30
0.0
 40
0.7
100
AcDbArc
 50
0.0
 51
45.0
  0
ARC
  5
2A65
330
1A
100
AcDbEntity
  8
ZUWAKU
100
AcDbCircle
 10
7.65860575495401
 20
5.237500030804135
 30
0.0
 40
0.2625
100
AcDbArc
 50
270.0
 51
0.0
  0
LINE
  5
2A66
330
1A
100
AcDbEntity
  8
ZUWAKU
100
AcDbLine
 10
7.921105754953998
 20
5.237500030804135
 30
0.0
 11
7.921105754953998
 21
5.882601043481805
 31
0.0
  0
LINE
  5
2A67
330
1A
100
AcDbEntity
  8
ZUWAKU
100
AcDbLine
 10
8.70602999544576
 20
7.367525283973545
 30
0.0
 11
7.251131008123422
 21
8.822424271295883
 31
0.0
  0
ARC
  5
2A68
330
1A
100
AcDbEntity
  8
ZUWAKU
100
AcDbCircle
 10
12.47110575495401
 20
5.675000030804135
 30
0.0
 40
0.7
100
AcDbArc
 50
180.0
 51
270.0
  0
LINE
  5
2A69
330
1A
100
AcDbEntity
  8
ZUWAKU
100
AcDbLine
 10
9.321105754954032
 20
4.975000030804132
 30
0.0
 11
9.321105754954032
 21
5.882601043481805
 31
0.0
  0
ARC
  5
2A6A
330
1A
100
AcDbEntity
  8
ZUWAKU
100
AcDbCircle
 10
8.796105754953998
 20
10.48750003080413
 30
0.0
 40
0.2625
100
AcDbArc
 50
270.0
 51
0.0
  0
ARC
  5
2A6B
330
1A
100
AcDbEntity
  8
ZUWAKU
100
AcDbCircle
 10
8.796105754953998
 20
11.36250003080413
 30
0.0
 40
0.2625
100
AcDbArc
 50
0.0
 51
90.0
  0
ARC
  5
2A6C
330
1A
100
AcDbEntity
  8
ZUWAKU
100
AcDbCircle
 10
7.046105754953998
 20
10.22500003080413
 30
0.0
 40
1.399999999999999
100
AcDbArc
 50
90.0
 51
180.0
  0
LINE
  5
2A6D
330
1A
100
AcDbEntity
  8
ZUWAKU
100
AcDbLine
 10
5.646105754954021
 20
10.22500003080413
 30
0.0
 11
5.646105754954021
 21
9.317399018126462
 31
0.0
  0
LINE
  5
2A6E
330
1A
100
AcDbEntity
  8
ZUWAKU
100
AcDbLine
 10
8.796105754953998
 20
10.22500003080413
 30
0.0
 11
7.308605754953987
 21
10.22500003080413
 31
0.0
  0
LINE
  5
2A6F
330
1A
100
AcDbEntity
  8
ZUWAKU
100
AcDbLine
 10
7.046105754953998
 20
9.962500030804132
 30
0.0
 11
7.046105754953998
 21
9.317399018126462
 31
0.0
  0
ARC
  5
2A70
330
1A
100
AcDbEntity
  8
ZUWAKU
100
AcDbCircle
 10
7.308605754953987
 20
9.962500030804132
 30
0.0
 40
0.2625
100
AcDbArc
 50
90.0
 51
180.0
  0
LINE
  5
2A71
330
1A
100
AcDbEntity
  8
ZUWAKU
100
AcDbLine
 10
7.046105754953998
 20
11.62500003080413
 30
0.0
 11
8.796105754953998
 21
11.62500003080413
 31
0.0
  0
ARC
  5
2A72
330
1A
100
AcDbEntity
  8
ZUWAKU
100
AcDbCircle
 10
12.47110575495401
 20
9.525000030804111
 30
0.0
 40
2.099999999999999
100
AcDbArc
 50
90.0
 51
180.0
  0
ARC
  5
2A73
330
1A
100
AcDbEntity
  8
ZUWAKU
100
AcDbCircle
 10
12.47110575495401
 20
9.525000030804132
 30
0.0
 40
0.7
100
AcDbArc
 50
90.0
 51
180.0
  0
LINE
  5
2A74
330
1A
100
AcDbEntity
  8
ZUWAKU
100
AcDbLine
 10
9.058605754953987
 20
11.36250003080413
 30
0.0
 11
9.058605754953987
 21
10.48750003080413
 31
0.0
  0
LINE
  5
2A75
330
1A
100
AcDbEntity
  8
ZUWAKU
100
AcDbLine
 10
17.83817322361193
 20
11.44154701488761
 30
0.0
 11
16.90403828629604
 21
8.483453046720647
 31
0.0
  0
LINE
  5
2A76
330
1A
100
AcDbEntity
  8
ZUWAKU
100
AcDbLine
 10
14.921105754954
 20
11.36250003080413
 30
0.0
 11
14.921105754954
 21
3.837500030804132
 31
0.0
  0
LINE
  5
2A77
330
1A
100
AcDbEntity
  8
ZUWAKU
100
AcDbLine
 10
16.32110575495403
 20
8.562500030804134
 30
0.0
 11
16.32110575495403
 21
11.36250003080413
 31
0.0
  0
LINE
  5
2A78
330
1A
100
AcDbEntity
  8
ZUWAKU
100
AcDbLine
 10
28.92110575495399
 20
5.50000003080413
 30
0.0
 11
28.92110575495399
 21
11.36250003080413
 31
0.0
  0
LINE
  5
2A79
330
1A
100
AcDbEntity
  8
ZUWAKU
100
AcDbLine
 10
27.52110575495402
 20
11.36250003080413
 30
0.0
 11
27.52110575495402
 21
4.975000030804132
 31
0.0
  0
LINE
  5
2A7A
330
1A
100
AcDbEntity
  8
ZUWAKU
100
AcDbLine
 10
21.74610575495398
 20
3.837500030804132
 30
0.0
 11
21.74610575495398
 21
11.36250003080413
 31
0.0
  0
LINE
  5
2A7B
330
1A
100
AcDbEntity
  8
ZUWAKU
100
AcDbLine
 10
20.346105754954
 20
11.36250003080413
 30
0.0
 11
20.346105754954
 21
3.837500030804132
 31
0.0
  0
LINE
  5
2A7C
330
1A
100
AcDbEntity
  8
ZUWAKU
100
AcDbLine
 10
18.65742899604299
 20
9.602523627585846
 30
0.0
 11
18.02505312337507
 21
7.600000030804142
 31
0.0
  0
ARC
  5
2A7D
330
1A
100
AcDbEntity
  8
ZUWAKU
100
AcDbCircle
 10
24.89610575495402
 20
9.317399018126483
 30
0.0
 40
2.099999999999999
100
AcDbArc
 50
180.0
 51
225.0
  0
ARC
  5
2A7E
330
1A
100
AcDbEntity
  8
ZUWAKU
100
AcDbCircle
 10
24.89610575495402
 20
9.317399018126483
 30
0.0
 40
0.7
100
AcDbArc
 50
180.0000000000016
 51
224.9999999999988
  0
LINE
  5
2A7F
330
1A
100
AcDbEntity
  8
ZUWAKU
100
AcDbLine
 10
33.12110575495399
 20
11.36250003080413
 30
0.0
 11
33.12110575495399
 21
3.837500030804132
 31
0.0
  0
LINE
  5
2A80
330
1A
100
AcDbEntity
  8
ZUWAKU
100
AcDbLine
 10
34.52110575495402
 20
3.837500030804132
 30
0.0
 11
34.52110575495402
 21
11.36250003080413
 31
0.0
  0
LINE
  5
2A81
330
1A
100
AcDbEntity
  8
ZUWAKU
100
AcDbLine
 10
30.671105754954
 20
11.36250003080413
 30
0.0
 11
30.671105754954
 21
5.50000003080413
 31
0.0
  0
LINE
  5
2A82
330
1A
100
AcDbEntity
  8
ZUWAKU
100
AcDbLine
 10
32.07110575495403
 20
4.975000030804132
 30
0.0
 11
32.07110575495403
 21
11.36250003080413
 31
0.0
  0
LINE
  5
2A83
330
1A
100
AcDbEntity
  8
ZUWAKU
100
AcDbLine
 10
39.56331445155763
 20
15.00000003080413
 30
0.0
 11
39.56331445155763
 21
0.4000000308041649
 31
0.0
  0
LINE
  5
2A84
330
1A
100
AcDbEntity
  8
ZUWAKU
100
AcDbLine
 10
39.76331445155756
 20
15.00000003080413
 30
0.0
 11
39.76331445155767
 21
0.4000000308041649
 31
0.0
  0
LINE
  5
2A85
330
1A
100
AcDbEntity
  8
ZUWAKU
100
AcDbLine
 10
39.66331445155754
 20
15.00000003080413
 30
0.0
 11
39.66331445155765
 21
0.4000000308041649
 31
0.0
  0
LINE
  5
2A86
330
1A
100
AcDbEntity
  8
ZUWAKU
100
AcDbLine
 10
28.92110575495399
 20
3.575000030804133
 30
0.0
 11
30.671105754954
 21
3.575000030804133
 31
0.0
  0
LINE
  5
2A87
330
1A
100
AcDbEntity
  8
ZUWAKU
100
AcDbLine
 10
30.14610575495402
 20
4.975000030804132
 30
0.0
 11
29.44610575495403
 21
4.975000030804132
 31
0.0
  0
LINE
  5
2A88
330
1A
100
AcDbEntity
  8
ZUWAKU
100
AcDbLine
 10
20.608605754954
 20
3.575000030804133
 30
0.0
 11
21.483605754954
 21
3.575000030804133
 31
0.0
  0
LINE
  5
2A89
330
1A
100
AcDbEntity
  8
ZUWAKU
100
AcDbLine
 10
17.83817322361193
 20
3.758453046720646
 30
0.0
 11
16.90403828629604
 21
6.716547014887616
 31
0.0
  0
ARC
  5
2A8A
330
1A
100
AcDbEntity
  8
ZUWAKU
100
AcDbCircle
 10
16.58360575495402
 20
6.637500030804133
 30
0.0
 40
0.2625
100
AcDbArc
 50
90.0
 51
180.0
  0
ARC
  5
2A8B
330
1A
100
AcDbEntity
  8
ZUWAKU
100
AcDbCircle
 10
16.65372283669836
 20
6.637500030804133
 30
0.0
 40
0.2625
100
AcDbArc
 50
17.52556837372303
 51
90.0
  0
ARC
  5
2A8C
330
1A
100
AcDbEntity
  8
ZUWAKU
100
AcDbCircle
 10
15.18360575495398
 20
3.837500030804132
 30
0.0
 40
0.2625
100
AcDbArc
 50
180.0
 51
270.0
  0
ARC
  5
2A8D
330
1A
100
AcDbEntity
  8
ZUWAKU
100
AcDbCircle
 10
13.43360575495398
 20
4.712500030804132
 30
0.0
 40
0.2625
100
AcDbArc
 50
0.0
 51
90.0
  0
ARC
  5
2A8E
330
1A
100
AcDbEntity
  8
ZUWAKU
100
AcDbCircle
 10
13.43360575495398
 20
3.837500030804132
 30
0.0
 40
0.2625
100
AcDbArc
 50
270.0
 51
0.0
  0
LINE
  5
2A8F
330
1A
100
AcDbEntity
  8
ZUWAKU
100
AcDbLine
 10
13.69610575495403
 20
4.712500030804132
 30
0.0
 11
13.69610575495403
 21
3.837500030804132
 31
0.0
  0
LINE
  5
2A90
330
1A
100
AcDbEntity
  8
ZUWAKU
100
AcDbLine
 10
16.32110575495403
 20
3.837500030804132
 30
0.0
 11
16.32110575495403
 21
6.637500030804133
 31
0.0
  0
ARC
  5
2A91
330
1A
100
AcDbEntity
  8
ZUWAKU
100
AcDbCircle
 10
16.05860575495398
 20
3.837500030804132
 30
0.0
 40
0.2625
100
AcDbArc
 50
270.0
 51
0.0
  0
LINE
  5
2A92
330
1A
100
AcDbEntity
  8
ZUWAKU
100
AcDbLine
 10
15.18360575495398
 20
3.575000030804133
 30
0.0
 11
16.05860575495398
 21
3.575000030804133
 31
0.0
  0
ARC
  5
2A93
330
1A
100
AcDbEntity
  8
ZUWAKU
100
AcDbCircle
 10
16.58360575495402
 20
8.562500030804134
 30
0.0
 40
0.2625
100
AcDbArc
 50
180.0
 51
270.0
  0
LINE
  5
2A94
330
1A
100
AcDbEntity
  8
ZUWAKU
100
AcDbLine
 10
16.58360575495402
 20
6.900000030804132
 30
0.0
 11
16.65372283669836
 21
6.900000030804132
 31
0.0
  0
LINE
  5
2A95
330
1A
100
AcDbEntity
  8
ZUWAKU
100
AcDbLine
 10
16.65372283669836
 20
8.300000030804131
 30
0.0
 11
16.58360575495402
 21
8.300000030804131
 31
0.0
  0
ARC
  5
2A96
330
1A
100
AcDbEntity
  8
ZUWAKU
100
AcDbCircle
 10
16.65372283669836
 20
8.562500030804134
 30
0.0
 40
0.2625
100
AcDbArc
 50
270.0
 51
342.4744316262769
  0
ARC
  5
2A97
330
1A
100
AcDbEntity
  8
ZUWAKU
100
AcDbCircle
 10
18.08848867320966
 20
3.837500030804132
 30
0.0
 40
0.2625
100
AcDbArc
 50
197.525568373723
 51
270.0
  0
LINE
  5
2A98
330
1A
100
AcDbEntity
  8
ZUWAKU
100
AcDbLine
 10
19.1882488126119
 20
3.916547014887619
 30
0.0
 11
18.02505312337507
 21
7.600000030804142
 31
0.0
  0
ARC
  5
2A99
330
1A
100
AcDbEntity
  8
ZUWAKU
100
AcDbCircle
 10
18.93793336301416
 20
3.837500030804132
 30
0.0
 40
0.2625
100
AcDbArc
 50
270.0
 51
17.52556837372303
  0
LINE
  5
2A9A
330
1A
100
AcDbEntity
  8
ZUWAKU
100
AcDbLine
 10
18.08848867320966
 20
3.575000030804133
 30
0.0
 11
18.93793336301416
 21
3.575000030804133
 31
0.0
  0
ARC
  5
2A9B
330
1A
100
AcDbEntity
  8
ZUWAKU
100
AcDbCircle
 10
20.608605754954
 20
3.837500030804132
 30
0.0
 40
0.2625
100
AcDbArc
 50
180.0
 51
270.0
  0
ARC
  5
2A9C
330
1A
100
AcDbEntity
  8
ZUWAKU
100
AcDbCircle
 10
25.07110575495403
 20
4.975000030804132
 30
0.0
 40
1.399999999999999
100
AcDbArc
 50
270.0
 51
0.0
  0
ARC
  5
2A9D
330
1A
100
AcDbEntity
  8
ZUWAKU
100
AcDbCircle
 10
28.92110575495399
 20
4.975000030804132
 30
0.0
 40
1.399999999999999
100
AcDbArc
 50
180.0
 51
270.0
  0
LINE
  5
2A9E
330
1A
100
AcDbEntity
  8
ZUWAKU
100
AcDbLine
 10
25.85602999544579
 20
7.367525283973545
 30
0.0
 11
24.4011310081234
 21
8.822424271295883
 31
0.0
  0
LINE
  5
2A9F
330
1A
100
AcDbEntity
  8
ZUWAKU
100
AcDbLine
 10
23.41118151446227
 20
7.832474777634722
 30
0.0
 11
24.8660805017846
 21
6.377575790312391
 31
0.0
  0
LINE
  5
2AA0
330
1A
100
AcDbEntity
  8
ZUWAKU
100
AcDbLine
 10
23.32110575495403
 20
3.575000030804133
 30
0.0
 11
25.07110575495403
 21
3.575000030804133
 31
0.0
  0
LINE
  5
2AA1
330
1A
100
AcDbEntity
  8
ZUWAKU
100
AcDbLine
 10
23.32110575495403
 20
4.975000030804132
 30
0.0
 11
24.80860575495398
 21
4.975000030804132
 31
0.0
  0
ARC
  5
2AA2
330
1A
100
AcDbEntity
  8
ZUWAKU
100
AcDbCircle
 10
23.32110575495403
 20
4.712500030804132
 30
0.0
 40
0.2625
100
AcDbArc
 50
90.0
 51
180.0
  0
ARC
  5
2AA3
330
1A
100
AcDbEntity
  8
ZUWAKU
100
AcDbCircle
 10
21.483605754954
 20
3.837500030804132
 30
0.0
 40
0.2625
100
AcDbArc
 50
270.0
 51
0.0
  0
ARC
  5
2AA4
330
1A
100
AcDbEntity
  8
ZUWAKU
100
AcDbCircle
 10
23.32110575495403
 20
3.837500030804132
 30
0.0
 40
0.2625
100
AcDbArc
 50
180.0
 51
270.0
  0
LINE
  5
2AA5
330
1A
100
AcDbEntity
  8
ZUWAKU
100
AcDbLine
 10
23.05860575495398
 20
3.837500030804132
 30
0.0
 11
23.05860575495398
 21
4.712500030804132
 31
0.0
  0
ARC
  5
2AA6
330
1A
100
AcDbEntity
  8
ZUWAKU
100
AcDbCircle
 10
24.80860575495398
 20
5.237500030804135
 30
0.0
 40
0.2625
100
AcDbArc
 50
270.0
 51
0.0
  0
ARC
  5
2AA7
330
1A
100
AcDbEntity
  8
ZUWAKU
100
AcDbCircle
 10
24.37110575495399
 20
5.882601043481805
 30
0.0
 40
0.7
100
AcDbArc
 50
0.0
 51
45.0
  0
LINE
  5
2AA8
330
1A
100
AcDbEntity
  8
ZUWAKU
100
AcDbLine
 10
25.07110575495403
 20
5.237500030804135
 30
0.0
 11
25.07110575495403
 21
5.882601043481805
 31
0.0
  0
ARC
  5
2AA9
330
1A
100
AcDbEntity
  8
ZUWAKU
100
AcDbCircle
 10
29.44610575495403
 20
5.50000003080413
 30
0.0
 40
0.525
100
AcDbArc
 50
180.0
 51
270.0
  0
ARC
  5
2AAA
330
1A
100
AcDbEntity
  8
ZUWAKU
100
AcDbCircle
 10
24.37110575495399
 20
5.882601043481784
 30
0.0
 40
2.099999999999999
100
AcDbArc
 50
0.0
 51
45.0
  0
LINE
  5
2AAB
330
1A
100
AcDbEntity
  8
ZUWAKU
100
AcDbLine
 10
26.47110575495401
 20
4.975000030804132
 30
0.0
 11
26.47110575495401
 21
5.882601043481805
 31
0.0
  0
ARC
  5
2AAC
330
1A
100
AcDbEntity
  8
ZUWAKU
100
AcDbCircle
 10
30.671105754954
 20
4.975000030804132
 30
0.0
 40
1.399999999999999
100
AcDbArc
 50
270.0
 51
0.0
  0
LINE
  5
2AAD
330
1A
100
AcDbEntity
  8
ZUWAKU
100
AcDbLine
 10
33.38360575495403
 20
3.575000030804133
 30
0.0
 11
34.25860575495403
 21
3.575000030804133
 31
0.0
  0
ARC
  5
2AAE
330
1A
100
AcDbEntity
  8
ZUWAKU
100
AcDbCircle
 10
30.14610575495402
 20
5.50000003080413
 30
0.0
 40
0.525
100
AcDbArc
 50
270.0
 51
0.0
  0
ARC
  5
2AAF
330
1A
100
AcDbEntity
  8
ZUWAKU
100
AcDbCircle
 10
33.38360575495403
 20
3.837500030804132
 30
0.0
 40
0.2625
100
AcDbArc
 50
180.0
 51
270.0
  0
ARC
  5
2AB0
330
1A
100
AcDbEntity
  8
ZUWAKU
100
AcDbCircle
 10
34.25860575495403
 20
3.837500030804132
 30
0.0
 40
0.2625
100
AcDbArc
 50
270.0
 51
0.0
  0
LINE
  5
2AB1
330
1A
100
AcDbEntity
  8
ZUWAKU
100
AcDbLine
 10
21.483605754954
 20
11.62500003080413
 30
0.0
 11
20.608605754954
 21
11.62500003080413
 31
0.0
  0
LINE
  5
2AB2
330
1A
100
AcDbEntity
  8
ZUWAKU
100
AcDbLine
 10
13.69610575495403
 20
11.36250003080413
 30
0.0
 11
13.69610575495403
 21
10.48750003080413
 31
0.0
  0
ARC
  5
2AB3
330
1A
100
AcDbEntity
  8
ZUWAKU
100
AcDbCircle
 10
13.43360575495398
 20
10.48750003080413
 30
0.0
 40
0.2625
100
AcDbArc
 50
270.0
 51
0.0
  0
ARC
  5
2AB4
330
1A
100
AcDbEntity
  8
ZUWAKU
100
AcDbCircle
 10
15.18360575495398
 20
11.36250003080413
 30
0.0
 40
0.2625
100
AcDbArc
 50
90.0
 51
180.0
  0
ARC
  5
2AB5
330
1A
100
AcDbEntity
  8
ZUWAKU
100
AcDbCircle
 10
13.43360575495398
 20
11.36250003080413
 30
0.0
 40
0.2625
100
AcDbArc
 50
0.0
 51
90.0
  0
LINE
  5
2AB6
330
1A
100
AcDbEntity
  8
ZUWAKU
100
AcDbLine
 10
16.05860575495398
 20
11.62500003080413
 30
0.0
 11
15.18360575495398
 21
11.62500003080413
 31
0.0
  0
ARC
  5
2AB7
330
1A
100
AcDbEntity
  8
ZUWAKU
100
AcDbCircle
 10
16.05860575495398
 20
11.36250003080413
 30
0.0
 40
0.2625
100
AcDbArc
 50
0.0
 51
90.0
  0
ARC
  5
2AB8
330
1A
100
AcDbEntity
  8
ZUWAKU
100
AcDbCircle
 10
18.08848867320966
 20
11.36250003080413
 30
0.0
 40
0.2625
100
AcDbArc
 50
90.0
 51
162.4744316262769
  0
LINE
  5
2AB9
330
1A
100
AcDbEntity
  8
ZUWAKU
100
AcDbLine
 10
19.1882488126119
 20
11.28345304672064
 30
0.0
 11
18.65742899604299
 21
9.602523627585846
 31
0.0
  0
ARC
  5
2ABA
330
1A
100
AcDbEntity
  8
ZUWAKU
100
AcDbCircle
 10
18.93793336301416
 20
11.36250003080413
 30
0.0
 40
0.2625
100
AcDbArc
 50
342.4744316262769
 51
90.0
  0
LINE
  5
2ABB
330
1A
100
AcDbEntity
  8
ZUWAKU
100
AcDbLine
 10
18.08848867320966
 20
11.62500003080413
 30
0.0
 11
18.93793336301416
 21
11.62500003080413
 31
0.0
  0
ARC
  5
2ABC
330
1A
100
AcDbEntity
  8
ZUWAKU
100
AcDbCircle
 10
20.608605754954
 20
11.36250003080413
 30
0.0
 40
0.2625
100
AcDbArc
 50
90.0
 51
180.0
  0
LINE
  5
2ABD
330
1A
100
AcDbEntity
  8
ZUWAKU
100
AcDbLine
 10
25.94610575495403
 20
10.22500003080413
 30
0.0
 11
24.45860575495402
 21
10.22500003080413
 31
0.0
  0
LINE
  5
2ABE
330
1A
100
AcDbEntity
  8
ZUWAKU
100
AcDbLine
 10
24.19610575495403
 20
11.62500003080413
 30
0.0
 11
25.94610575495403
 21
11.62500003080413
 31
0.0
  0
ARC
  5
2ABF
330
1A
100
AcDbEntity
  8
ZUWAKU
100
AcDbCircle
 10
24.19610575495403
 20
10.22500003080413
 30
0.0
 40
1.399999999999999
100
AcDbArc
 50
90.0
 51
180.0
  0
LINE
  5
2AC0
330
1A
100
AcDbEntity
  8
ZUWAKU
100
AcDbLine
 10
22.796105754954
 20
10.22500003080413
 30
0.0
 11
22.796105754954
 21
9.317399018126462
 31
0.0
  0
ARC
  5
2AC1
330
1A
100
AcDbEntity
  8
ZUWAKU
100
AcDbCircle
 10
21.483605754954
 20
11.36250003080413
 30
0.0
 40
0.2625
100
AcDbArc
 50
0.0
 51
90.0
  0
LINE
  5
2AC2
330
1A
100
AcDbEntity
  8
ZUWAKU
100
AcDbLine
 10
24.19610575495403
 20
9.962500030804132
 30
0.0
 11
24.19610575495403
 21
9.317399018126462
 31
0.0
  0
ARC
  5
2AC3
330
1A
100
AcDbEntity
  8
ZUWAKU
100
AcDbCircle
 10
24.45860575495402
 20
9.962500030804132
 30
0.0
 40
0.2625
100
AcDbArc
 50
90.0
 51
180.0
  0
LINE
  5
2AC4
330
1A
100
AcDbEntity
  8
ZUWAKU
100
AcDbLine
 10
26.20860575495402
 20
11.36250003080413
 30
0.0
 11
26.20860575495402
 21
10.48750003080413
 31
0.0
  0
ARC
  5
2AC5
330
1A
100
AcDbEntity
  8
ZUWAKU
100
AcDbCircle
 10
25.94610575495403
 20
10.48750003080413
 30
0.0
 40
0.2625
100
AcDbArc
 50
270.0
 51
0.0
  0
ARC
  5
2AC6
330
1A
100
AcDbEntity
  8
ZUWAKU
100
AcDbCircle
 10
25.94610575495403
 20
11.36250003080413
 30
0.0
 40
0.2625
100
AcDbArc
 50
0.0
 51
90.0
  0
LINE
  5
2AC7
330
1A
100
AcDbEntity
  8
ZUWAKU
100
AcDbLine
 10
28.65860575495401
 20
11.62500003080413
 30
0.0
 11
27.78360575495401
 21
11.62500003080413
 31
0.0
  0
ARC
  5
2AC8
330
1A
100
AcDbEntity
  8
ZUWAKU
100
AcDbCircle
 10
27.78360575495401
 20
11.36250003080413
 30
0.0
 40
0.2625
100
AcDbArc
 50
90.0
 51
180.0
  0
ARC
  5
2AC9
330
1A
100
AcDbEntity
  8
ZUWAKU
100
AcDbCircle
 10
28.65860575495401
 20
11.36250003080413
 30
0.0
 40
0.2625
100
AcDbArc
 50
0.0
 51
90.0
  0
LINE
  5
2ACA
330
1A
100
AcDbEntity
  8
ZUWAKU
100
AcDbLine
 10
34.25860575495403
 20
11.62500003080413
 30
0.0
 11
33.38360575495403
 21
11.62500003080413
 31
0.0
  0
ARC
  5
2ACB
330
1A
100
AcDbEntity
  8
ZUWAKU
100
AcDbCircle
 10
30.93360575495399
 20
11.36250003080413
 30
0.0
 40
0.2625
100
AcDbArc
 50
90.0
 51
180.0
  0
LINE
  5
2ACC
330
1A
100
AcDbEntity
  8
ZUWAKU
100
AcDbLine
 10
31.80860575495398
 20
11.62500003080413
 30
0.0
 11
30.93360575495399
 21
11.62500003080413
 31
0.0
  0
ARC
  5
2ACD
330
1A
100
AcDbEntity
  8
ZUWAKU
100
AcDbCircle
 10
31.80860575495398
 20
11.36250003080413
 30
0.0
 40
0.2625
100
AcDbArc
 50
0.0
 51
90.0
  0
ARC
  5
2ACE
330
1A
100
AcDbEntity
  8
ZUWAKU
100
AcDbCircle
 10
33.38360575495403
 20
11.36250003080413
 30
0.0
 40
0.2625
100
AcDbArc
 50
90.0
 51
180.0
  0
ARC
  5
2ACF
330
1A
100
AcDbEntity
  8
ZUWAKU
100
AcDbCircle
 10
34.25860575495403
 20
11.36250003080413
 30
0.0
 40
0.2625
100
AcDbArc
 50
0.0
 51
90.0
  0
TEXT
  5
2AD0
330
1A
100
AcDbEntity
  8
MOJI
100
AcDbText
 10
119.9136010179889
 20
1.602460559507841
 30
0.0
 40
2.799999999999999
  1
Ｘ７０Ｕ－０－１０～３０
 41
0.9
  7
ｽﾀｲﾙ1
100
AcDbText
  0
TEXT
  5
2AD1
330
1A
100
AcDbEntity
  8
MOJI
100
AcDbText
 10
119.9136010179889
 20
9.002460559507824
 30
0.0
 40
2.799999999999999
  1
ブラケット正面打（吊）ワンタッチ自在式
 41
0.9
  7
ｽﾀｲﾙ1
100
AcDbText
  0
LINE
  5
2AD2
330
1A
100
AcDbEntity
  8
ZUWAKU
100
AcDbLine
 10
104.2233003225973
 20
15.00000003080413
 30
0.0
 11
104.2233003225974
 21
0.4000000308041649
 31
0.0
  0
LINE
  5
2AD3
330
1A
100
AcDbEntity
  8
ZUWAKU
100
AcDbLine
 10
104.3233003225973
 20
15.00000003080413
 30
0.0
 11
104.3233003225974
 21
0.4000000308041649
 31
0.0
  0
LINE
  5
2AD4
330
1A
100
AcDbEntity
  8
ZUWAKU
100
AcDbLine
 10
104.1233003225974
 20
15.00000003080413
 30
0.0
 11
104.1233003225974
 21
0.4000000308041649
 31
0.0
  0
TEXT
  5
2AD5
330
1A
100
AcDbEntity
  8
ZUWAKU
100
AcDbText
 10
104.8620228337022
 20
4.827678299996939
 30
0.0
 40
2.0
  1
サイズ
 41
0.9
  7
ｽﾀｲﾙ1
100
AcDbText
  0
TEXT
  5
2AD6
330
1A
100
AcDbEntity
  8
ZUWAKU
100
AcDbText
 10
104.862022833702
 20
12.02767829999692
 30
0.0
 40
2.0
  1
品名
 41
0.9
  7
ｽﾀｲﾙ1
100
AcDbText
  0
TEXT
  5
2AD7
330
1A
100
AcDbEntity
  8
ZUWAKU
100
AcDbText
 10
329.1019685212146
 20
9.002460559507824
 30
0.0
 40
2.799999999999999
  1
　　．　　．　　
 41
0.9
  7
ｽﾀｲﾙ1
100
AcDbText
  0
LINE
  5
2AD8
330
1A
100
AcDbEntity
  8
ZUWAKU
100
AcDbLine
 10
324.4086009326655
 20
7.800000030804147
 30
0.0
 11
348.624504951834
 21
7.800000030804147
 31
0.0
  0
LINE
  5
2AD9
330
1A
100
AcDbEntity
  8
ZUWAKU
100
AcDbLine
 10
324.4086009326656
 20
7.700000030804149
 30
0.0
 11
348.624504951834
 21
7.700000030804147
 31
0.0
  0
LINE
  5
2ADA
330
1A
100
AcDbEntity
  8
ZUWAKU
100
AcDbLine
 10
324.4086009326655
 20
7.600000030804146
 30
0.0
 11
348.624504951834
 21
7.600000030804148
 31
0.0
  0
LINE
  5
2ADB
330
1A
100
AcDbEntity
  8
ZUWAKU
100
AcDbLine
 10
252.5995894266338
 20
7.800000030804147
 30
0.0
 11
276.2634775606196
 21
7.800000030804147
 31
0.0
  0
LINE
  5
2ADC
330
1A
100
AcDbEntity
  8
ZUWAKU
100
AcDbLine
 10
252.5995894266338
 20
7.700000030804147
 30
0.0
 11
276.2634775606196
 21
7.700000030804147
 31
0.0
  0
LINE
  5
2ADD
330
1A
100
AcDbEntity
  8
ZUWAKU
100
AcDbLine
 10
252.5995894266338
 20
7.600000030804149
 30
0.0
 11
276.2634775606196
 21
7.600000030804149
 31
0.0
  0
LINE
  5
2ADE
330
1A
100
AcDbEntity
  8
ZUWAKU
100
AcDbLine
 10
252.3995894266339
 20
15.00000003080413
 30
0.0
 11
252.3995894266339
 21
0.4000000308041649
 31
0.0
  0
LINE
  5
2ADF
330
1A
100
AcDbEntity
  8
ZUWAKU
100
AcDbLine
 10
252.5995894266338
 20
15.00000003080413
 30
0.0
 11
252.599589426634
 21
0.4000000308041649
 31
0.0
  0
LINE
  5
2AE0
330
1A
100
AcDbEntity
  8
ZUWAKU
100
AcDbLine
 10
252.4995894266338
 20
15.00000003080413
 30
0.0
 11
252.4995894266339
 21
0.4000000308041649
 31
0.0
  0
TEXT
  5
2AE1
330
1A
100
AcDbEntity
  8
MOJI
100
AcDbText
 10
264.0204536637198
 20
9.002460559507824
 30
0.0
 40
2.799999999999999
  1
Ａ３
 41
0.9
  7
ｽﾀｲﾙ1
100
AcDbText
  0
LINE
  5
2AE2
330
1A
100
AcDbEntity
  8
ZUWAKU
100
AcDbLine
 10
223.7121816630591
 20
15.00000003080413
 30
0.0
 11
223.7121816630591
 21
0.4000000308041649
 31
0.0
  0
LINE
  5
2AE3
330
1A
100
AcDbEntity
  8
ZUWAKU
100
AcDbLine
 10
223.912181663059
 20
15.00000003080413
 30
0.0
 11
223.9121816630591
 21
0.4000000308041649
 31
0.0
  0
LINE
  5
2AE4
330
1A
100
AcDbEntity
  8
ZUWAKU
100
AcDbLine
 10
223.812181663059
 20
15.00000003080413
 30
0.0
 11
223.8121816630591
 21
0.4000000308041649
 31
0.0
  0
TEXT
  5
2AE5
330
1A
100
AcDbEntity
  8
MOJI
100
AcDbText
 10
231.2836388385577
 20
5.971308891634123
 30
0.0
 40
2.799999999999999
  1
ＬＫ３１Ｔ
 41
0.9
  7
ｽﾀｲﾙ1
100
AcDbText
  0
TEXT
  5
2AE6
330
1A
100
AcDbEntity
  8
ZUWAKU
100
AcDbText
 10
253.3383119377388
 20
4.827678299996939
 30
0.0
 40
2.0
  1
縮尺
 41
0.9
  7
ｽﾀｲﾙ1
100
AcDbText
  0
TEXT
  5
2AE7
330
1A
100
AcDbEntity
  8
MOJI
100
AcDbText
 10
264.0204536637198
 20
1.602460559507841
 30
0.0
 40
2.799999999999999
  1
１/１
 41
0.9
  7
ｽﾀｲﾙ1
100
AcDbText
  0
TEXT
  5
2AE8
330
1A
100
AcDbEntity
  8
ZUWAKU
100
AcDbText
 10
224.6509041741638
 20
12.02767829999692
 30
0.0
 40
2.0
  1
品番
 41
0.9
  7
ｽﾀｲﾙ1
100
AcDbText
  0
TEXT
  5
2AE9
330
1A
100
AcDbEntity
  8
ZUWAKU
100
AcDbText
 10
253.3383119377386
 20
12.02767829999692
 30
0.0
 40
2.0
  1
用紙
 41
0.9
  7
ｽﾀｲﾙ1
100
AcDbText
  0
LINE
  5
2AEA
330
1A
100
AcDbEntity
  8
ZUWAKU
100
AcDbLine
 10
276.2634775606196
 20
15.00000003080413
 30
0.0
 11
276.2634775606196
 21
0.4000000308041649
 31
0.0
  0
LINE
  5
2AEB
330
1A
100
AcDbEntity
  8
ZUWAKU
100
AcDbLine
 10
276.4634775606196
 20
15.00000003080413
 30
0.0
 11
276.4634775606197
 21
0.4000000308041649
 31
0.0
  0
LINE
  5
2AEC
330
1A
100
AcDbEntity
  8
ZUWAKU
100
AcDbLine
 10
276.3634775606195
 20
15.00000003080413
 30
0.0
 11
276.3634775606196
 21
0.4000000308041649
 31
0.0
  0
LINE
  5
2AED
330
1A
100
AcDbEntity
  8
ZUWAKU
100
AcDbLine
 10
324.2086009326657
 20
15.00000003080413
 30
0.0
 11
324.2086009326657
 21
0.4000000308041649
 31
0.0
  0
LINE
  5
2AEE
330
1A
100
AcDbEntity
  8
ZUWAKU
100
AcDbLine
 10
324.4086009326656
 20
15.00000003080413
 30
0.0
 11
324.4086009326657
 21
0.4000000308041649
 31
0.0
  0
LINE
  5
2AEF
330
1A
100
AcDbEntity
  8
ZUWAKU
100
AcDbLine
 10
324.3086009326656
 20
15.00000003080413
 30
0.0
 11
324.3086009326657
 21
0.4000000308041649
 31
0.0
  0
TEXT
  5
2AF0
330
1A
100
AcDbEntity
  8
ZUWAKU
100
AcDbText
 10
325.1473234437704
 20
12.02767829999692
 30
0.0
 40
2.0
  1
DATE
 41
0.9
  7
ｽﾀｲﾙ1
100
AcDbText
  0
TEXT
  5
2AF1
330
1A
100
AcDbEntity
  8
ZUWAKU
100
AcDbText
 10
354.2640417736853
 20
8.776919698647532
 30
0.0
 40
3.0
  1
積水化学工業株式会社
 41
0.9
  7
ｽﾀｲﾙ1
100
AcDbText
  0
LINE
  5
2AF2
330
1A
100
AcDbEntity
  8
ZUWAKU
100
AcDbLine
 10
348.924504951834
 20
15.00000003080413
 30
0.0
 11
348.9245049518341
 21
0.4000000308041649
 31
0.0
  0
LINE
  5
2AF3
330
1A
100
AcDbEntity
  8
ZUWAKU
100
AcDbLine
 10
348.824504951834
 20
15.00000003080413
 30
0.0
 11
348.8245049518341
 21
0.4000000308041649
 31
0.0
  0
LINE
  5
2AF4
330
1A
100
AcDbEntity
  8
ZUWAKU
100
AcDbLine
 10
348.7245049518341
 20
15.00000003080413
 30
0.0
 11
348.7245049518341
 21
0.4000000308041649
 31
0.0
  0
LINE
  5
2AF5
330
1A
100
AcDbEntity
  8
ZUWAKU
100
AcDbLine
 10
348.624504951834
 20
15.00000003080413
 30
0.0
 11
348.624504951834
 21
0.4000000308041649
 31
0.0
  0
TEXT
  5
2AF6
330
1A
100
AcDbEntity
  8
ZUWAKU
100
AcDbText
 10
354.2640417736853
 20
3.324420187731163
 30
0.0
 40
3.0
  1
建材事業部
 41
0.9
  7
ｽﾀｲﾙ1
100
AcDbText
  0
TEXT
  5
2D73
330
1A
100
AcDbEntity
  8
SUNPOU
100
AcDbText
 10
202.3866935699104
 20
161.2780307273487
 30
0.0
 40
3.0
  1
（スライド幅）
100
AcDbText
  0
DIMENSION
  5
2D74
330
1A
100
AcDbEntity
  8
SUNPOU
100
AcDbDimension
  2
*D1
 10
226.00247535785
 20
79.84205986226173
 30
0.0
 11
223.5024753578499
 21
105.8420598608504
 31
0.0
 70
    32
  3
STANDARD
100
AcDbAlignedDimension
 13
184.253851904206
 23
131.8420598594391
 33
0.0
 14
193.7538519042059
 24
79.84205986226175
 34
0.0
 50
90.0
100
AcDbRotatedDimension
1001
ACAD
1000
DSTYLE
1002
{
1070
    41
1040
3.0
1070
    42
1040
3.0
1070
    43
1040
7.0
1070
    44
1040
1.5
1070
    73
1070
     0
1070
    74
1070
     0
1070
    77
1070
     3
1070
   140
1040
3.0
1070
   141
1040
3.0
1070
   147
1040
1.0
1070
   172
1070
     1
1070
   173
1070
     1
1070
   176
1070
   256
1070
   177
1070
   256
1070
   178
1070
   256
1070
   271
1070
     0
1070
   272
1070
     0
1070
   341
1005
B2
1070
     6
1000
OPEN
1070
     7
1000
OPEN
1002
}
  0
DIMENSION
  5
2D75
330
1A
100
AcDbEntity
  8
SUNPOU
100
AcDbDimension
  2
*D2
 10
216.6498628216045
 20
192.8937559348637
 30
0.0
 11
214.1498628216044
 21
219.3937559548638
 31
0.0
 70
    32
  3
STANDARD
100
AcDbAlignedDimension
 13
193.7538519042059
 23
245.8937559748637
 33
0.0
 14
193.7538519042059
 24
192.8937559348637
 34
0.0
 50
90.0
100
AcDbRotatedDimension
1001
ACAD
1000
DSTYLE
1002
{
1070
    41
1040
3.0
1070
    42
1040
3.0
1070
    43
1040
7.0
1070
    44
1040
1.5
1070
    73
1070
     0
1070
    74
1070
     0
1070
    77
1070
     3
1070
   140
1040
3.0
1070
   141
1040
3.0
1070
   147
1040
1.0
1070
   172
1070
     1
1070
   173
1070
     1
1070
   176
1070
   256
1070
   177
1070
   256
1070
   178
1070
   256
1070
   271
1070
     0
1070
   272
1070
     0
1070
   341
1005
B2
1070
     6
1000
OPEN
1070
     7
1000
OPEN
1002
}
  0
LINE
  5
2D76
330
1A
100
AcDbEntity
  8
CENTER_L
100
AcDbLine
 10
217.0936353842059
 20
110.8420598622617
 30
0.0
 11
201.893635384206
 21
110.8420598622617
 31
0.0
  0
LINE
  5
2D77
330
1A
100
AcDbEntity
  8
CENTER_L
100
AcDbLine
 10
217.0936353842059
 20
102.3420598622617
 30
0.0
 11
201.893635384206
 21
102.3420598622617
 31
0.0
  0
LINE
  5
2D78
330
1A
100
AcDbEntity
  8
CENTER_L
100
AcDbLine
 10
217.0936353842059
 20
85.84205986226175
 30
0.0
 11
201.893635384206
 21
85.84205986226175
 31
0.0
  0
DIMENSION
  5
2D79
330
1A
100
AcDbEntity
  8
SUNPOU
100
AcDbDimension
  2
*D3
 10
193.7538519042059
 20
145.3157878492307
 30
0.0
 11
187.9029769042061
 21
147.8157878492307
 31
0.0
 70
    32
  3
STANDARD
100
AcDbAlignedDimension
 13
182.0521019042062
 23
95.54045986142421
 33
0.0
 14
193.7538519042059
 24
115.8420598622617
 34
0.0
100
AcDbRotatedDimension
1001
ACAD
1000
DSTYLE
1002
{
1070
    41
1040
3.0
1070
    42
1040
3.0
1070
    43
1040
7.0
1070
    44
1040
1.5
1070
    73
1070
     0
1070
    74
1070
     0
1070
    77
1070
     3
1070
   140
1040
3.0
1070
   141
1040
3.0
1070
   147
1040
1.0
1070
   172
1070
     1
1070
   173
1070
     1
1070
   176
1070
   256
1070
   177
1070
   256
1070
   178
1070
   256
1070
   271
1070
     0
1070
   272
1070
     0
1070
   341
1005
B2
1070
     6
1000
OPEN
1070
     7
1000
OPEN
1002
}
  0
DIMENSION
  5
2D7A
330
1A
100
AcDbEntity
  8
SUNPOU
100
AcDbDimension
  2
*D4
 10
213.7538519042059
 20
154.9667591399626
 30
0.0
 11
203.753851904206
 21
157.4667591399626
 31
0.0
 70
    32
  3
STANDARD
100
AcDbAlignedDimension
 13
193.7538519042059
 23
115.8420598622617
 33
0.0
 14
213.7538519042059
 24
115.8420598622617
 34
0.0
100
AcDbRotatedDimension
1001
ACAD
1000
DSTYLE
1002
{
1070
    41
1040
3.0
1070
    42
1040
3.0
1070
    43
1040
7.0
1070
    44
1040
1.5
1070
    73
1070
     0
1070
    74
1070
     0
1070
    77
1070
     3
1070
   140
1040
3.0
1070
   141
1040
3.0
1070
   147
1040
1.0
1070
   172
1070
     1
1070
   173
1070
     1
1070
   176
1070
   256
1070
   177
1070
   256
1070
   178
1070
   256
1070
   271
1070
     0
1070
   272
1070
     0
1070
   341
1005
B2
1070
     6
1000
OPEN
1070
     7
1000
OPEN
1002
}
  0
DIMENSION
  5
2D7B
330
1A
100
AcDbEntity
  8
SUNPOU
100
AcDbDimension
  2
*D5
 10
193.7538519042059
 20
154.9667591399626
 30
0.0
 11
131.668851904206
 21
157.4667591399626
 31
0.0
 70
    32
  3
STANDARD
100
AcDbAlignedDimension
 13
69.58385190420603
 23
93.99205986226172
 33
0.0
 14
193.7538519042059
 24
115.8420598622617
 34
0.0
100
AcDbRotatedDimension
1001
ACAD
1000
DSTYLE
1002
{
1070
    41
1040
3.0
1070
    42
1040
3.0
1070
    43
1040
7.0
1070
    44
1040
1.5
1070
    73
1070
     0
1070
    74
1070
     0
1070
    77
1070
     3
1070
   140
1040
3.0
1070
   141
1040
3.0
1070
   147
1040
1.0
1070
   172
1070
     1
1070
   173
1070
     1
1070
   176
1070
   256
1070
   177
1070
   256
1070
   178
1070
   256
1070
   271
1070
     0
1070
   272
1070
     0
1070
   341
1005
B2
1070
     6
1000
OPEN
1070
     7
1000
OPEN
1002
}
  0
DIMENSION
  5
2D7C
330
1A
100
AcDbEntity
  8
SUNPOU
100
AcDbDimension
  2
*D6
 10
39.61629232092399
 20
79.84205986226179
 30
0.0
 11
37.11629232092398
 21
87.54205986226173
 31
0.0
 70
    32
  3
STANDARD
100
AcDbAlignedDimension
 13
70.83385190420603
 23
95.24205986226167
 33
0.0
 14
187.0538519042059
 24
79.84205986226175
 34
0.0
 50
90.0
100
AcDbRotatedDimension
1001
ACAD
1000
DSTYLE
1002
{
1070
    41
1040
3.0
1070
    42
1040
3.0
1070
    43
1040
7.0
1070
    44
1040
1.5
1070
    73
1070
     0
1070
    74
1070
     0
1070
    77
1070
     3
1070
   140
1040
3.0
1070
   141
1040
3.0
1070
   147
1040
1.0
1070
   172
1070
     1
1070
   173
1070
     1
1070
   176
1070
   256
1070
   177
1070
   256
1070
   178
1070
   256
1070
   271
1070
     0
1070
   272
1070
     0
1070
   341
1005
B2
1070
     6
1000
OPEN
1070
     7
1000
OPEN
1002
}
  0
ARC
  5
2D7D
330
1A
100
AcDbEntity
  8
NOKITOI
  6
PHANTOM
 62
     8
100
AcDbCircle
 10
78.16437574299704
 20
45.43171975194036
 30
0.0
 40
14.22848866365036
100
AcDbArc
 50
51.52529185494234
 51
71.45345265407101
  0
ARC
  5
2D7E
330
1A
100
AcDbEntity
  8
NOKITOI
  6
PHANTOM
 62
     8
100
AcDbCircle
 10
78.16430897399294
 20
45.43175188853047
 30
0.0
 40
12.93471022655885
100
AcDbArc
 50
8.676219579621381
 51
74.45245455808946
  0
LINE
  5
2D7F
330
1A
100
AcDbEntity
  8
SEIHIN
100
AcDbLine
 10
83.69245190420599
 20
86.42935986226177
 30
0.0
 11
90.74765190420601
 21
81.29835986226174
 31
0.0
  0
LINE
  5
2D80
330
1A
100
AcDbEntity
  8
SEIHIN
100
AcDbLine
 10
92.61406842420598
 20
91.34205986226175
 30
0.0
 11
73.08385190420603
 21
91.34205986226175
 31
0.0
  0
LINE
  5
2D81
330
1A
100
AcDbEntity
  8
NOKITOI
  6
PHANTOM
 62
     8
100
AcDbLine
 10
82.03300190420605
 20
59.65965986142413
 30
0.0
 11
76.10200190420613
 21
87.82955986142434
 31
0.0
  0
LINE
  5
2D82
330
1A
100
AcDbEntity
  8
NOKITOI
  6
PHANTOM
 62
     8
100
AcDbLine
 10
80.92440190420616
 20
58.64675986142419
 30
0.0
 11
75.08580190420599
 21
86.37805986142433
 31
0.0
  0
ARC
  5
2D83
330
1A
100
AcDbEntity
  8
NOKITOI
  6
PHANTOM
 62
     8
100
AcDbCircle
 10
81.89804192859361
 20
58.85171719719835
 30
0.0
 40
0.9949785960395137
100
AcDbArc
 50
191.8875585738772
 51
254.4495841050101
  0
ARC
  5
2D84
330
1A
100
AcDbEntity
  8
NOKITOI
  6
PHANTOM
 62
     8
100
AcDbCircle
 10
83.00662178597752
 20
59.86463752434423
 30
0.0
 40
0.995060928010462
100
AcDbArc
 50
191.8877567214151
 51
251.4524867922939
  0
LINE
  5
2D85
330
1A
100
AcDbEntity
  8
NOKITOI
  6
PHANTOM
 62
     8
100
AcDbLine
 10
69.34140190420606
 20
93.74965986142427
 30
0.0
 11
69.34140190420606
 21
89.81945986142426
 31
0.0
  0
LINE
  5
2D86
330
1A
100
AcDbEntity
  8
NOKITOI
  6
PHANTOM
 62
     8
100
AcDbLine
 10
68.04790190420618
 20
87.53105986142413
 30
0.0
 11
68.04790190420618
 21
95.54055986142413
 31
0.0
  0
LINE
  5
2D87
330
1A
100
AcDbEntity
  8
SEIHIN
100
AcDbLine
 10
69.58385190420603
 20
93.99205986226172
 30
0.0
 11
69.58385190420603
 21
90.34205986226174
 31
0.0
  0
LINE
  5
2D88
330
1A
100
AcDbEntity
  8
NOKITOI
  6
PHANTOM
 62
     8
100
AcDbLine
 10
71.33140190420618
 20
87.82955986142434
 30
0.0
 11
76.10200190420613
 21
87.82955986142434
 31
0.0
  0
LINE
  5
2D89
330
1A
100
AcDbEntity
  8
SEIHIN
100
AcDbLine
 10
71.58385190420602
 20
88.34205986226175
 30
0.0
 11
77.81075190420597
 21
88.34205986226175
 31
0.0
  0
LINE
  5
2D8A
330
1A
100
AcDbEntity
  8
NOKITOI
  6
PHANTOM
 62
     8
100
AcDbLine
 10
74.89110190420621
 20
86.53605986142412
 30
0.0
 11
69.04290190420619
 21
86.53605986142412
 31
0.0
  0
ARC
  5
2D8B
330
1A
100
AcDbEntity
  8
NOKITOI
  6
PHANTOM
 62
     8
100
AcDbCircle
 10
71.33135190420609
 20
89.81950986142436
 30
0.0
 40
1.989950000628206
100
AcDbArc
 50
180.0014396286229
 51
270.0014396286237
  0
ARC
  5
2D8C
330
1A
100
AcDbEntity
  8
NOKITOI
  6
PHANTOM
 62
     8
100
AcDbCircle
 10
69.04290190420619
 20
87.53105986142413
 30
0.0
 40
0.9950000000000045
100
AcDbArc
 50
180.0
 51
270.0
  0
ARC
  5
2D8D
330
1A
100
AcDbEntity
  8
SEIHIN
100
AcDbCircle
 10
71.58385190420602
 20
90.34205986226174
 30
0.0
 40
2.0
100
AcDbArc
 50
180.0
 51
270.0
  0
ARC
  5
2D8E
330
1A
100
AcDbEntity
  8
NOKITOI
  6
PHANTOM
 62
     8
100
AcDbCircle
 10
74.8910834615919
 20
86.33707482486101
 30
0.0
 40
0.1989850374177657
100
AcDbArc
 50
11.88631382809262
 51
89.9946896310657
  0
ARC
  5
2D8F
330
1A
100
AcDbEntity
  8
SEIHIN
100
AcDbCircle
 10
77.81066089420597
 20
78.34208946226175
 30
0.0
 40
9.999970400385993
100
AcDbArc
 50
53.97197877308379
 51
89.99947854956749
  0
LINE
  5
2D90
330
1A
100
AcDbEntity
  8
NOKITOI
  6
PHANTOM
 62
     8
100
AcDbLine
 10
69.04290190420619
 20
96.53555986142425
 30
0.0
 11
73.27410190420613
 21
96.53555986142425
 31
0.0
  0
ARC
  5
2D91
330
1A
100
AcDbEntity
  8
NOKITOI
  6
PHANTOM
 62
     8
100
AcDbCircle
 10
71.48310190420608
 20
93.74965986142427
 30
0.0
 40
1.492399999999918
100
AcDbArc
 50
0.0000000000016284
 51
90.00000000000245
  0
LINE
  5
2D92
330
1A
100
AcDbEntity
  8
SEIHIN
100
AcDbLine
 10
72.08385190420603
 20
92.34205986226175
 30
0.0
 11
69.58385190420603
 21
92.34195986226177
 31
0.0
  0
ARC
  5
2D93
330
1A
100
AcDbEntity
  8
SEIHIN
100
AcDbCircle
 10
70.83385190420603
 20
93.99205986226172
 30
0.0
 40
1.25
100
AcDbArc
 50
0.0
 51
180.0
  0
LINE
  5
2D94
330
1A
100
AcDbEntity
  8
NOKITOI
  6
PHANTOM
 62
     8
100
AcDbLine
 10
71.48310190420608
 20
95.24205986142414
 30
0.0
 11
70.83390190420613
 21
95.24205986142414
 31
0.0
  0
ARC
  5
2D95
330
1A
100
AcDbEntity
  8
NOKITOI
  6
PHANTOM
 62
     8
100
AcDbCircle
 10
70.83385190420603
 20
93.74960986142417
 30
0.0
 40
1.49245000083754
100
AcDbArc
 50
89.99808047909004
 51
179.99808047909
  0
ARC
  5
2D96
330
1A
100
AcDbEntity
  8
NOKITOI
  6
PHANTOM
 62
     8
100
AcDbCircle
 10
69.04290190420619
 20
95.54055986142424
 30
0.0
 40
0.9950000000000613
100
AcDbArc
 50
90.00000000000325
 51
180.0000000000032
  0
ARC
  5
2D97
330
1A
100
AcDbEntity
  8
NOKITOI
  6
PHANTOM
 62
     8
100
AcDbCircle
 10
73.27405190420603
 20
95.54060986142429
 30
0.0
 40
0.9949500012563332
100
AcDbArc
 50
359.9971206704047
 51
89.99712067040476
  0
LINE
  5
2D98
330
1A
100
AcDbEntity
  8
NOKITOI
  6
PHANTOM
 62
     8
100
AcDbLine
 10
72.97560190420615
 20
91.33575986142426
 30
0.0
 11
72.97560190420615
 21
93.74965986142427
 31
0.0
  0
LINE
  5
2D99
330
1A
100
AcDbEntity
  8
NOKITOI
  6
PHANTOM
 62
     8
100
AcDbLine
 10
74.26900190420605
 20
91.33575986142426
 30
0.0
 11
72.97560190420615
 21
91.33575986142426
 31
0.0
  0
LINE
  5
2D9A
330
1A
100
AcDbEntity
  8
NOKITOI
  6
PHANTOM
 62
     8
100
AcDbLine
 10
74.26900190420605
 20
95.54055986142413
 30
0.0
 11
74.26900190420605
 21
91.33575986142426
 31
0.0
  0
LINE
  5
2D9B
330
1A
100
AcDbEntity
  8
SEIHIN
100
AcDbLine
 10
72.08385190420603
 20
93.99205986226172
 30
0.0
 11
72.08385190420603
 21
92.34205986226175
 31
0.0
  0
ARC
  5
2D9C
330
1A
100
AcDbEntity
  8
SEIHIN
100
AcDbCircle
 10
73.08385190420603
 20
92.34205986226175
 30
0.0
 40
1.0
100
AcDbArc
 50
180.0
 51
270.0
  0
LINE
  5
2D9D
330
1A
100
AcDbEntity
  8
CENTER_L
  6
CENTER
 62
     1
100
AcDbLine
 10
125.0499019042061
 20
36.53800986142431
 30
0.0
 11
125.0499019042061
 21
57.83800986142432
 31
0.0
  0
LINE
  5
2D9E
330
1A
100
AcDbEntity
  8
NOKITOI
  6
PHANTOM
 62
     8
100
AcDbLine
 10
97.05130190420613
 20
48.03045986142433
 30
0.0
 11
97.05140190420621
 21
56.52775986142427
 31
0.0
  0
LINE
  5
2D9F
330
1A
100
AcDbEntity
  8
NOKITOI
  6
PHANTOM
 62
     8
100
AcDbLine
 10
153.0485019042061
 20
48.03045986142433
 30
0.0
 11
153.048601904206
 21
56.52745986142412
 31
0.0
  0
ARC
  5
2DA0
330
1A
100
AcDbEntity
  8
NOKITOI
  6
PHANTOM
 62
     8
100
AcDbCircle
 10
171.9353907478852
 20
45.43174727995017
 30
0.0
 40
12.93449408578155
100
AcDbArc
 50
105.547333235354
 51
171.3240617643019
  0
ARC
  5
2DA1
330
1A
100
AcDbEntity
  8
NOKITOI
  6
PHANTOM
 62
     8
100
AcDbCircle
 10
171.9354963707942
 20
45.43165362115894
 30
0.0
 40
12.93461262833301
100
AcDbArc
 50
105.5476727870196
 51
171.3237222126368
  0
LINE
  5
2DA2
330
1A
100
AcDbEntity
  8
NOKITOI
  6
PHANTOM
 62
     8
100
AcDbLine
 10
97.2503019042062
 20
47.83145986142426
 30
0.0
 11
152.8495019042061
 21
47.83135986142418
 31
0.0
  0
LINE
  5
2DA3
330
1A
100
AcDbEntity
  8
NOKITOI
  6
PHANTOM
 62
     8
100
AcDbLine
 10
91.93460190420621
 20
46.53805986142424
 30
0.0
 11
158.1652019042062
 21
46.53795986142438
 31
0.0
  0
LINE
  5
2DA4
330
1A
100
AcDbEntity
  8
NOKITOI
  6
PHANTOM
 62
     8
100
AcDbLine
 10
158.1652019042062
 20
46.53795986142438
 30
0.0
 11
91.93460190420621
 21
46.53805986142424
 31
0.0
  0
LINE
  5
2DA5
330
1A
100
AcDbEntity
  8
NOKITOI
  6
PHANTOM
 62
     8
100
AcDbLine
 10
95.38900190420605
 20
55.22775986142431
 30
0.0
 11
89.16810190420614
 21
55.22775986142431
 31
0.0
  0
ARC
  5
2DA6
330
1A
100
AcDbEntity
  8
NOKITOI
  6
PHANTOM
 62
     8
100
AcDbCircle
 10
92.60957886307796
 20
48.33807872571253
 30
0.0
 40
0.5000188648192144
100
AcDbArc
 50
191.386728855441
 51
270.0026402191986
  0
ARC
  5
2DA7
330
1A
100
AcDbEntity
  8
NOKITOI
  6
PHANTOM
 62
     8
100
AcDbCircle
 10
78.16430710121943
 20
45.43174924565619
 30
0.0
 40
14.23472333170272
100
AcDbArc
 50
11.37541821407338
 51
40.79334907830746
  0
ARC
  5
2DA8
330
1A
100
AcDbEntity
  8
NOKITOI
  6
PHANTOM
 62
     8
100
AcDbCircle
 10
91.93460951822379
 20
47.53305332118031
 30
0.0
 40
0.9949934597852239
100
AcDbArc
 50
188.6761125650602
 51
269.9995615538234
  0
ARC
  5
2DA9
330
1A
100
AcDbEntity
  8
NOKITOI
  6
PHANTOM
 62
     8
100
AcDbCircle
 10
89.16810556350929
 20
54.92776785330386
 30
0.0
 40
0.2999920081427447
100
AcDbArc
 50
90.00069889403132
 51
220.7967284175798
  0
LINE
  5
2DAA
330
1A
100
AcDbEntity
  8
NOKITOI
  6
PHANTOM
 62
     8
100
AcDbLine
 10
95.75130190420606
 20
48.33805986142431
 30
0.0
 11
95.75130190420606
 21
54.86535986142434
 31
0.0
  0
ARC
  5
2DAB
330
1A
100
AcDbEntity
  8
NOKITOI
  6
PHANTOM
 62
     8
100
AcDbCircle
 10
95.25130190420595
 20
48.33805986142431
 30
0.0
 40
0.5000000000000569
100
AcDbArc
 50
270.0000000000065
 51
0.0000000000065138
  0
LINE
  5
2DAC
330
1A
100
AcDbEntity
  8
NOKITOI
  6
PHANTOM
 62
     8
100
AcDbLine
 10
92.60950190420606
 20
47.8380598614242
 30
0.0
 11
95.25130190420606
 21
47.8380598614242
 31
0.0
  0
ARC
  5
2DAD
330
1A
100
AcDbEntity
  8
NOKITOI
  6
PHANTOM
 62
     8
100
AcDbCircle
 10
97.2503019042062
 20
48.03045986142433
 30
0.0
 40
0.1990000000000691
100
AcDbArc
 50
179.9999999999837
 51
269.9999999999837
  0
LINE
  5
2DAE
330
1A
100
AcDbEntity
  8
NOKITOI
  6
PHANTOM
 62
     8
100
AcDbLine
 10
96.24630190420607
 20
55.72265986142411
 30
0.0
 11
95.38900190420605
 21
55.22775986142431
 31
0.0
  0
LINE
  5
2DAF
330
1A
100
AcDbEntity
  8
NOKITOI
  6
PHANTOM
 62
     8
100
AcDbLine
 10
96.24630190420607
 20
55.72265986142411
 30
0.0
 11
95.75130190420606
 21
54.86535986142434
 31
0.0
  0
LINE
  5
2DB0
330
1A
100
AcDbEntity
  8
NOKITOI
  6
PHANTOM
 62
     8
100
AcDbLine
 10
148.8495019042062
 20
47.83135986142418
 30
0.0
 11
134.095101904206
 21
47.83135986142418
 31
0.0
  0
LINE
  5
2DB1
330
1A
100
AcDbEntity
  8
NOKITOI
  6
PHANTOM
 62
     8
100
AcDbLine
 10
160.9315019042059
 20
55.22735986142419
 30
0.0
 11
154.7109019042061
 21
55.22735986142419
 31
0.0
  0
ARC
  5
2DB2
330
1A
100
AcDbEntity
  8
NOKITOI
  6
PHANTOM
 62
     8
100
AcDbCircle
 10
157.4903249453344
 20
48.33797872571256
 30
0.0
 40
0.5000188648190603
100
AcDbArc
 50
269.9973597808037
 51
348.6132711445597
  0
ARC
  5
2DB3
330
1A
100
AcDbEntity
  8
NOKITOI
  6
PHANTOM
 62
     8
100
AcDbCircle
 10
171.9354603588969
 20
45.43157499686799
 30
0.0
 40
14.23462403148678
100
AcDbArc
 50
139.2075062369012
 51
168.623785948384
  0
LINE
  5
2DB4
330
1A
100
AcDbEntity
  8
NOKITOI
  6
PHANTOM
 62
     8
100
AcDbLine
 10
154.3486019042061
 20
54.86505986142418
 30
0.0
 11
154.3486019042061
 21
48.33795986142423
 31
0.0
  0
ARC
  5
2DB5
330
1A
100
AcDbEntity
  8
NOKITOI
  6
PHANTOM
 62
     8
100
AcDbCircle
 10
152.849451904206
 20
48.03040986142423
 30
0.0
 40
0.1990500062799141
100
AcDbArc
 50
270.0143923080609
 51
0.0143923080609162
  0
LINE
  5
2DB6
330
1A
100
AcDbEntity
  8
NOKITOI
  6
PHANTOM
 62
     8
100
AcDbLine
 10
157.4903019042062
 20
47.83795986142433
 30
0.0
 11
154.8486019042061
 21
47.83795986142433
 31
0.0
  0
ARC
  5
2DB7
330
1A
100
AcDbEntity
  8
NOKITOI
  6
PHANTOM
 62
     8
100
AcDbCircle
 10
154.848601904206
 20
48.33795986142433
 30
0.0
 40
0.4999999999999432
100
AcDbArc
 50
180.0000000000065
 51
270.0000000000065
  0
LINE
  5
2DB8
330
1A
100
AcDbEntity
  8
NOKITOI
  6
PHANTOM
 62
     8
100
AcDbLine
 10
153.8536019042059
 20
55.7223598614242
 30
0.0
 11
154.7109019042061
 21
55.22735986142419
 31
0.0
  0
LINE
  5
2DB9
330
1A
100
AcDbEntity
  8
NOKITOI
  6
PHANTOM
 62
     8
100
AcDbLine
 10
153.8536019042059
 20
55.7223598614242
 30
0.0
 11
154.3486019042061
 21
54.86505986142418
 31
0.0
  0
ARC
  5
2DBA
330
1A
100
AcDbEntity
  8
NOKITOI
  6
PHANTOM
 62
     8
100
AcDbCircle
 10
158.1652518323021
 20
47.53300274902289
 30
0.0
 40
0.9950428888512103
100
AcDbArc
 50
269.9971250795227
 51
351.3214426795066
  0
ARC
  5
2DBB
330
1A
100
AcDbEntity
  8
NOKITOI
  6
PHANTOM
 62
     8
100
AcDbCircle
 10
160.9315155820574
 20
54.92732999773034
 30
0.0
 40
0.3000298640056128
100
AcDbArc
 50
319.2190584222776
 51
90.00261201719977
  0
LINE
  5
2DBC
330
1A
100
AcDbEntity
  8
SEIHIN
100
AcDbLine
 10
161.9312519042059
 20
109.1434598622617
 30
0.0
 11
148.304051904206
 21
91.91155986226176
 31
0.0
  0
LINE
  5
2DBD
330
1A
100
AcDbEntity
  8
SEIHIN
100
AcDbLine
 10
130.127333298206
 20
111.5345889522617
 30
0.0
 11
174.3023830842059
 21
116.9586030422617
 31
0.0
  0
LINE
  5
2DBE
330
1A
100
AcDbEntity
  8
SEIHIN
100
AcDbLine
 10
117.614068426206
 20
82.84195986226178
 30
0.0
 11
151.4842519042059
 21
82.84195986226178
 31
0.0
  0
LINE
  5
2DBF
330
1A
100
AcDbEntity
  8
SEIHIN
100
AcDbLine
 10
153.716851904206
 20
80.34195986226178
 30
0.0
 11
117.614068426206
 21
80.34195986226178
 31
0.0
  0
LINE
  5
2DC0
330
1A
100
AcDbEntity
  8
SEIHIN
100
AcDbLine
 10
154.647551904206
 20
88.84205986226175
 30
0.0
 11
117.614068426206
 21
88.84205986226175
 31
0.0
  0
LINE
  5
2DC1
330
1A
100
AcDbEntity
  8
SEIHIN
100
AcDbLine
 10
128.2500236622059
 20
117.3491432622617
 30
0.0
 11
173.5711670242059
 21
122.9138799522617
 31
0.0
  0
LINE
  5
2DC2
330
1A
100
AcDbEntity
  8
SEIHIN
100
AcDbLine
 10
119.0469483652059
 20
94.38840421926176
 30
0.0
 11
124.5368847272059
 21
107.3218837872617
 31
0.0
  0
CIRCLE
  5
2DC3
330
1A
100
AcDbEntity
  8
SEIHIN
100
AcDbCircle
 10
107.6140684242059
 20
102.1420598622617
 30
0.0
 40
3.500000004238516
  0
LINE
  5
2DC4
330
1A
100
AcDbEntity
  8
SEIHIN
100
AcDbLine
 10
99.91925876420602
 20
107.4772697042617
 30
0.0
 11
99.15010587420603
 21
102.0313167272617
 31
0.0
  0
ARC
  5
2DC5
330
1A
100
AcDbEntity
  8
SEIHIN
100
AcDbCircle
 10
108.1140684242059
 20
98.64205986226176
 30
0.0
 40
9.535085152808647
100
AcDbArc
 50
4.916661302937096
 51
179.9998615479522
  0
LINE
  5
2DC6
330
1A
100
AcDbEntity
  8
SEIHIN
100
AcDbLine
 10
92.61406842420598
 20
78.14845621226175
 30
0.0
 11
117.614068426206
 21
78.14845621226175
 31
0.0
  0
LINE
  5
2DC7
330
1A
100
AcDbEntity
  8
SEIHIN
100
AcDbLine
 10
92.61406842420598
 20
78.14845621226175
 30
0.0
 11
92.61406842420598
 21
97.14845621426173
 31
0.0
  0
LINE
  5
2DC8
330
1A
100
AcDbEntity
  8
NOKITOI
  6
PHANTOM
 62
     8
100
AcDbLine
 10
97.05140190420621
 20
56.52775986142427
 30
0.0
 11
87.14070190420619
 21
56.52775986142427
 31
0.0
  0
ARC
  5
2DC9
330
1A
100
AcDbEntity
  8
NOKITOI
  6
PHANTOM
 62
     8
100
AcDbCircle
 10
87.14070521656521
 20
56.72675870563882
 30
0.0
 40
0.1989988442421132
100
AcDbArc
 50
231.5280949042405
 51
269.9990463050553
  0
LINE
  5
2DCA
330
1A
100
AcDbEntity
  8
SEIHIN
100
AcDbLine
 10
96.57897975420599
 20
97.14845385626176
 30
0.0
 11
96.57896362420599
 21
90.31033240226173
 31
0.0
  0
LINE
  5
2DCB
330
1A
100
AcDbEntity
  8
SEIHIN
100
AcDbLine
 10
98.57898327420599
 20
98.64208290326178
 30
0.0
 11
98.57896362420598
 21
90.31033240226173
 31
0.0
  0
LINE
  5
2DCC
330
1A
100
AcDbEntity
  8
SEIHIN
100
AcDbLine
 10
92.61406842420598
 20
88.84205986226175
 30
0.0
 11
87.70075190420596
 21
88.84205986226175
 31
0.0
  0
ARC
  5
2DCD
330
1A
100
AcDbEntity
  8
SEIHIN
100
AcDbCircle
 10
93.85095146420599
 20
85.84209252226173
 30
0.0
 40
3.000032662681521
100
AcDbArc
 50
233.9758085673714
 51
245.6512385050324
  0
ARC
  5
2DCE
330
1A
100
AcDbEntity
  8
SEIHIN
100
AcDbCircle
 10
93.68849001420597
 20
85.34207998226174
 30
0.0
 40
5.000020122542945
100
AcDbArc
 50
233.9730830341292
 51
257.5913101544815
  0
LINE
  5
2DCF
330
1A
100
AcDbEntity
  8
SEIHIN
100
AcDbLine
 10
87.11255190420599
 20
87.03325986226174
 30
0.0
 11
92.08655190420598
 21
83.41575986226178
 31
0.0
  0
ARC
  5
2DD0
330
1A
100
AcDbEntity
  8
SEIHIN
100
AcDbCircle
 10
87.700740794206
 20
87.84202569226176
 30
0.0
 40
1.00003416926274
100
AcDbArc
 50
89.99936346563975
 51
233.9728323870002
  0
LINE
  5
2DD1
330
1A
100
AcDbEntity
  8
SEIHIN
100
AcDbLine
 10
96.57896362420599
 20
90.31033240226173
 30
0.0
 11
98.57896362420598
 21
90.31033240226173
 31
0.0
  0
LINE
  5
2DD2
330
1A
100
AcDbEntity
  8
SEIHIN
100
AcDbLine
 10
98.214068424206
 20
97.34205986226175
 30
0.0
 11
98.21405427420598
 21
91.34205750426179
 31
0.0
  0
LINE
  5
2DD3
330
1A
100
AcDbEntity
  8
SEIHIN
100
AcDbLine
 10
97.214068424206
 20
97.34205986226175
 30
0.0
 11
97.21405427420599
 21
91.34205986226175
 31
0.0
  0
LINE
  5
2DD4
330
1A
100
AcDbEntity
  8
SEIHIN
100
AcDbLine
 10
96.5789660578808
 20
91.34205986226175
 30
0.0
 11
98.57896605420599
 21
91.34205986226175
 31
0.0
  0
ARC
  5
2DD5
330
1A
100
AcDbEntity
  8
SEIHIN
100
AcDbCircle
 10
95.57897975420599
 20
97.14845621426173
 30
0.0
 40
1.000000000001389
100
AcDbArc
 50
359.9998648965509
 51
90.0
  0
LINE
  5
2DD6
330
1A
100
AcDbEntity
  8
SEIHIN
100
AcDbLine
 10
95.57897975420599
 20
98.14845621426172
 30
0.0
 11
93.61406842420597
 21
98.14845621426172
 31
0.0
  0
ARC
  5
2DD7
330
1A
100
AcDbEntity
  8
SEIHIN
100
AcDbCircle
 10
93.61406842420597
 20
97.14845621426173
 30
0.0
 40
1.0
100
AcDbArc
 50
90.0
 51
180.0
  0
LINE
  5
2DD8
330
1A
100
AcDbEntity
  8
SEIHIN
100
AcDbLine
 10
97.214068424206
 20
97.34205986226175
 30
0.0
 11
98.578980204206
 21
97.34205986226175
 31
0.0
  0
LINE
  5
2DD9
330
1A
100
AcDbEntity
  8
SEIHIN
100
AcDbLine
 10
105.1140684242059
 20
88.84205986226175
 30
0.0
 11
110.1140684242059
 21
88.84205986226175
 31
0.0
  0
LINE
  5
2DDA
330
1A
100
AcDbEntity
  8
SEIHIN
100
AcDbLine
 10
107.6140684242059
 20
82.84205986226174
 30
0.0
 11
108.7687689642059
 21
80.84205986226175
 31
0.0
  0
LINE
  5
2DDB
330
1A
100
AcDbEntity
  8
SEIHIN
100
AcDbLine
 10
108.7687689642059
 20
80.84205986226175
 30
0.0
 11
106.459367884206
 21
80.84205986226175
 31
0.0
  0
LINE
  5
2DDC
330
1A
100
AcDbEntity
  8
SEIHIN
100
AcDbLine
 10
110.1140684242059
 20
82.84205986226174
 30
0.0
 11
105.1140684242059
 21
82.84205986226174
 31
0.0
  0
MTEXT
  5
2DDD
330
1A
100
AcDbEntity
  8
SEIHIN
100
AcDbMText
 10
105.9602642042059
 20
85.72204710626175
 30
0.0
 40
2.381249964
 41
0.0
 71
     1
 72
     5
  1
{\W1.460317;10}
1001
ACAD
1000
MTEXTBEGIN
1070
    73
1070
     1
1070
    44
1040
1.0
1070
    74
1070
     0
1000
MTEXTEND
1000
MTEXTBEGIN
1070
    73
1070
     1
1070
    44
1040
1.0
1070
    74
1070
     0
1000
MTEXTEND
1000
MTEXTBEGIN
1070
    73
1070
     1
1070
    44
1040
1.0
1070
    74
1070
     0
1000
MTEXTEND
1000
MTEXTBEGIN
1070
    73
1070
     1
1070
    44
1040
1.0
1070
    74
1070
     0
1000
MTEXTEND
1000
MTEXTBEGIN
1070
    73
1070
     1
1070
    44
1040
1.0
1070
    74
1070
     0
1000
MTEXTEND
1000
MTEXTBEGIN
1070
    73
1070
     1
1070
    44
1040
1.0
1070
    74
1070
     0
1000
MTEXTEND
1000
MTEXTBEGIN
1070
    73
1070
     1
1070
    44
1040
1.0
1070
    74
1070
     0
1000
MTEXTEND
1000
MTEXTBEGIN
1070
    73
1070
     1
1070
    44
1040
1.0
1070
    74
1070
     0
1000
MTEXTEND
1000
MTEXTBEGIN
1070
    73
1070
     1
1070
    44
1040
1.0
1070
    74
1070
     0
1000
MTEXTEND
1000
MTEXTBEGIN
1070
    73
1070
     1
1070
    44
1040
1.0
1070
    74
1070
     0
1000
MTEXTEND
  0
LINE
  5
2DDE
330
1A
100
AcDbEntity
  8
SEIHIN
100
AcDbLine
 10
104.1140684242059
 20
87.84205986226174
 30
0.0
 11
104.1140684242059
 21
83.84205986226175
 31
0.0
  0
ARC
  5
2DDF
330
1A
100
AcDbEntity
  8
SEIHIN
100
AcDbCircle
 10
105.1140684242059
 20
83.84205986226175
 30
0.0
 40
1.0
100
AcDbArc
 50
180.0
 51
270.0
  0
LINE
  5
2DE0
330
1A
100
AcDbEntity
  8
SEIHIN
100
AcDbLine
 10
107.6140684242059
 20
82.84205986226174
 30
0.0
 11
106.459367884206
 21
80.84205986226175
 31
0.0
  0
ARC
  5
2DE1
330
1A
100
AcDbEntity
  8
SEIHIN
100
AcDbCircle
 10
105.1140684242059
 20
87.84205986226174
 30
0.0
 40
1.0
100
AcDbArc
 50
90.0
 51
180.0
  0
LINE
  5
2DE2
330
1A
100
AcDbEntity
  8
SEIHIN
100
AcDbLine
 10
107.8640684242059
 20
88.84205986226175
 30
0.0
 11
107.8640684242059
 21
86.84205986226174
 31
0.0
  0
LINE
  5
2DE3
330
1A
100
AcDbEntity
  8
SEIHIN
100
AcDbLine
 10
107.3640684242059
 20
86.84205986226174
 30
0.0
 11
107.3640684242059
 21
88.84205986226175
 31
0.0
  0
LINE
  5
2DE4
330
1A
100
AcDbEntity
  8
SEIHIN
100
AcDbLine
 10
107.8640684242059
 20
86.84205986226174
 30
0.0
 11
107.3640684242059
 21
86.84205986226174
 31
0.0
  0
LINE
  5
2DE5
330
1A
100
AcDbEntity
  8
SEIHIN
100
AcDbLine
 10
107.3640684242059
 20
88.84205986226175
 30
0.0
 11
107.8640684242059
 21
88.84205986226175
 31
0.0
  0
LINE
  5
2DE6
330
1A
100
AcDbEntity
  8
SEIHIN
100
AcDbLine
 10
107.3708184242059
 20
88.84205986226175
 30
0.0
 11
107.870818424206
 21
88.84205986226175
 31
0.0
  0
LINE
  5
2DE7
330
1A
100
AcDbEntity
  8
SEIHIN
100
AcDbLine
 10
111.1140684242059
 20
87.84205986226174
 30
0.0
 11
111.1140684242059
 21
83.84205986226175
 31
0.0
  0
ARC
  5
2DE8
330
1A
100
AcDbEntity
  8
SEIHIN
100
AcDbCircle
 10
110.1140684242059
 20
83.84205986226175
 30
0.0
 40
1.0
100
AcDbArc
 50
270.0
 51
0.0
  0
ARC
  5
2DE9
330
1A
100
AcDbEntity
  8
SEIHIN
100
AcDbCircle
 10
110.1140684242059
 20
87.84205986226174
 30
0.0
 40
1.0
100
AcDbArc
 50
0.0
 51
90.0
  0
LINE
  5
2DEA
330
1A
100
AcDbEntity
  8
SEIHIN
100
AcDbLine
 10
117.614068426206
 20
78.14845621226175
 30
0.0
 11
117.614068426206
 21
99.45928008126173
 31
0.0
  0
LINE
  5
2DEB
330
1A
100
AcDbEntity
  8
SEIHIN
100
AcDbLine
 10
147.127451904206
 20
91.34205986226175
 30
0.0
 11
117.614068426206
 21
91.34205986226175
 31
0.0
  0
MTEXT
  5
2DEC
330
1A
100
AcDbEntity
  8
SEIHIN
100
AcDbMText
 10
118.5628889982059
 20
85.75383708626175
 30
0.0
 40
2.381249964
 41
0.0
 71
     1
 72
     5
  1
{\W1.703704;0}
1001
ACAD
1000
MTEXTBEGIN
1070
    73
1070
     1
1070
    44
1040
1.0
1070
    74
1070
     0
1000
MTEXTEND
1000
MTEXTBEGIN
1070
    73
1070
     1
1070
    44
1040
1.0
1070
    74
1070
     0
1000
MTEXTEND
1000
MTEXTBEGIN
1070
    73
1070
     1
1070
    44
1040
1.0
1070
    74
1070
     0
1000
MTEXTEND
1000
MTEXTBEGIN
1070
    73
1070
     1
1070
    44
1040
1.0
1070
    74
1070
     0
1000
MTEXTEND
1000
MTEXTBEGIN
1070
    73
1070
     1
1070
    44
1040
1.0
1070
    74
1070
     0
1000
MTEXTEND
1000
MTEXTBEGIN
1070
    73
1070
     1
1070
    44
1040
1.0
1070
    74
1070
     0
1000
MTEXTEND
1000
MTEXTBEGIN
1070
    73
1070
     1
1070
    44
1040
1.0
1070
    74
1070
     0
1000
MTEXTEND
1000
MTEXTBEGIN
1070
    73
1070
     1
1070
    44
1040
1.0
1070
    74
1070
     0
1000
MTEXTEND
1000
MTEXTBEGIN
1070
    73
1070
     1
1070
    44
1040
1.0
1070
    74
1070
     0
1000
MTEXTEND
1000
MTEXTBEGIN
1070
    73
1070
     1
1070
    44
1040
1.0
1070
    74
1070
     0
1000
MTEXTEND
  0
LINE
  5
2DED
330
1A
100
AcDbEntity
  8
SEIHIN
100
AcDbLine
 10
117.864068426206
 20
86.84205986226174
 30
0.0
 11
117.614068426206
 21
86.84205986226174
 31
0.0
  0
LINE
  5
2DEE
330
1A
100
AcDbEntity
  8
SEIHIN
100
AcDbLine
 10
117.614068426206
 20
88.84205986226175
 30
0.0
 11
117.864068426206
 21
88.84205986226175
 31
0.0
  0
LINE
  5
2DEF
330
1A
100
AcDbEntity
  8
SEIHIN
100
AcDbLine
 10
117.864068426206
 20
88.84205986226175
 30
0.0
 11
117.864068426206
 21
86.84205986226174
 31
0.0
  0
LINE
  5
2DF0
330
1A
100
AcDbEntity
  8
SEIHIN
100
AcDbLine
 10
122.864068426706
 20
88.84205986226175
 30
0.0
 11
122.864068426706
 21
86.84205986226174
 31
0.0
  0
LINE
  5
2DF1
330
1A
100
AcDbEntity
  8
SEIHIN
100
AcDbLine
 10
122.364068426706
 20
86.84205986226174
 30
0.0
 11
122.364068426706
 21
88.84205986226175
 31
0.0
  0
LINE
  5
2DF2
330
1A
100
AcDbEntity
  8
SEIHIN
100
AcDbLine
 10
122.864068426706
 20
86.84205986226174
 30
0.0
 11
122.364068426706
 21
86.84205986226174
 31
0.0
  0
LINE
  5
2DF3
330
1A
100
AcDbEntity
  8
SEIHIN
100
AcDbLine
 10
122.364068426706
 20
88.84205986226175
 30
0.0
 11
122.864068426706
 21
88.84205986226175
 31
0.0
  0
MTEXT
  5
2DF4
330
1A
100
AcDbEntity
  8
SEIHIN
100
AcDbMText
 10
125.7050606832059
 20
85.75383708626175
 30
0.0
 40
2.381249964
 41
0.0
 71
     1
 72
     5
  1
{\W1.135802;30}
1001
ACAD
1000
MTEXTBEGIN
1070
    73
1070
     1
1070
    44
1040
1.0
1070
    74
1070
     0
1000
MTEXTEND
1000
MTEXTBEGIN
1070
    73
1070
     1
1070
    44
1040
1.0
1070
    74
1070
     0
1000
MTEXTEND
1000
MTEXTBEGIN
1070
    73
1070
     1
1070
    44
1040
1.0
1070
    74
1070
     0
1000
MTEXTEND
1000
MTEXTBEGIN
1070
    73
1070
     1
1070
    44
1040
1.0
1070
    74
1070
     0
1000
MTEXTEND
1000
MTEXTBEGIN
1070
    73
1070
     1
1070
    44
1040
1.0
1070
    74
1070
     0
1000
MTEXTEND
1000
MTEXTBEGIN
1070
    73
1070
     1
1070
    44
1040
1.0
1070
    74
1070
     0
1000
MTEXTEND
1000
MTEXTBEGIN
1070
    73
1070
     1
1070
    44
1040
1.0
1070
    74
1070
     0
1000
MTEXTEND
1000
MTEXTBEGIN
1070
    73
1070
     1
1070
    44
1040
1.0
1070
    74
1070
     0
1000
MTEXTEND
1000
MTEXTBEGIN
1070
    73
1070
     1
1070
    44
1040
1.0
1070
    74
1070
     0
1000
MTEXTEND
1000
MTEXTBEGIN
1070
    73
1070
     1
1070
    44
1040
1.0
1070
    74
1070
     0
1000
MTEXTEND
  0
LINE
  5
2DF5
330
1A
100
AcDbEntity
  8
SEIHIN
100
AcDbLine
 10
127.364068426206
 20
86.84205986226174
 30
0.0
 11
127.364068426206
 21
88.84205986226175
 31
0.0
  0
LINE
  5
2DF6
330
1A
100
AcDbEntity
  8
SEIHIN
100
AcDbLine
 10
127.864068426206
 20
86.84205986226174
 30
0.0
 11
127.364068426206
 21
86.84205986226174
 31
0.0
  0
LINE
  5
2DF7
330
1A
100
AcDbEntity
  8
SEIHIN
100
AcDbLine
 10
127.864068426206
 20
88.84205986226175
 30
0.0
 11
127.864068426206
 21
86.84205986226174
 31
0.0
  0
LINE
  5
2DF8
330
1A
100
AcDbEntity
  8
SEIHIN
100
AcDbLine
 10
127.364068426206
 20
88.84205986226175
 30
0.0
 11
127.864068426206
 21
88.84205986226175
 31
0.0
  0
LINE
  5
2DF9
330
1A
100
AcDbEntity
  8
SEIHIN
100
AcDbLine
 10
132.3640684242059
 20
86.84205986226174
 30
0.0
 11
132.3640684242059
 21
88.84205986226175
 31
0.0
  0
LINE
  5
2DFA
330
1A
100
AcDbEntity
  8
SEIHIN
100
AcDbLine
 10
132.8640684242059
 20
86.84205986226174
 30
0.0
 11
132.3640684242059
 21
86.84205986226174
 31
0.0
  0
LINE
  5
2DFB
330
1A
100
AcDbEntity
  8
SEIHIN
100
AcDbLine
 10
132.8640684242059
 20
88.84205986226175
 30
0.0
 11
132.8640684242059
 21
86.84205986226174
 31
0.0
  0
LINE
  5
2DFC
330
1A
100
AcDbEntity
  8
SEIHIN
100
AcDbLine
 10
132.3640684242059
 20
88.84205986226175
 30
0.0
 11
132.8640684242059
 21
88.84205986226175
 31
0.0
  0
ARC
  5
2DFD
330
1A
100
AcDbEntity
  8
SEIHIN
100
AcDbCircle
 10
114.444424098206
 20
96.34205986226175
 30
0.0
 40
4.999999999848357
100
AcDbArc
 50
309.3405856316245
 51
336.9999999929871
  0
LINE
  5
2DFE
330
1A
100
AcDbEntity
  8
SEIHIN
100
AcDbLine
 10
140.085451904206
 20
88.84205986226175
 30
0.0
 11
140.085451904206
 21
82.84205986226174
 31
0.0
  0
ARC
  5
2DFF
330
1A
100
AcDbEntity
  8
SEIHIN
100
AcDbCircle
 10
147.1275268942059
 20
92.84209616326178
 30
0.0
 40
1.5000363023233
100
AcDbArc
 50
269.9971356623169
 51
321.6588485138866
  0
ARC
  5
2E00
330
1A
100
AcDbEntity
  8
SEIHIN
100
AcDbCircle
 10
117.2303940522059
 20
104.1379261092617
 30
0.0
 40
2.000000000156595
100
AcDbArc
 50
81.39257542428609
 51
140.269156698892
  0
LINE
  5
2E01
330
1A
100
AcDbEntity
  8
SEIHIN
100
AcDbLine
 10
116.3638291762059
 20
103.4231995232617
 30
0.0
 11
119.4650330512059
 21
110.7291780122617
 31
0.0
  0
LINE
  5
2E02
330
1A
100
AcDbEntity
  8
SEIHIN
100
AcDbLine
 10
117.669641436206
 20
107.0923936642617
 30
0.0
 11
105.2633220142059
 21
108.8445858962617
 31
0.0
  0
LINE
  5
2E03
330
1A
100
AcDbEntity
  8
SEIHIN
100
AcDbLine
 10
117.6044158192059
 20
108.1115299842617
 30
0.0
 11
105.9279598242059
 21
109.7606407942617
 31
0.0
  0
ARC
  5
2E04
330
1A
100
AcDbEntity
  8
SEIHIN
100
AcDbCircle
 10
100.909432034206
 20
107.3374237232617
 30
0.0
 40
1.000000000382153
100
AcDbArc
 50
81.96106612019013
 51
171.9610661362135
  0
ARC
  5
2E05
330
1A
100
AcDbEntity
  8
SEIHIN
100
AcDbCircle
 10
104.258992734206
 20
108.8842008852617
 30
0.0
 40
1.000000000947164
100
AcDbArc
 50
261.9610661282031
 51
351.9610660794812
  0
LINE
  5
2E06
330
1A
100
AcDbEntity
  8
SEIHIN
100
AcDbLine
 10
104.1191467542059
 20
107.8940276162617
 30
0.0
 11
101.0492780142059
 21
108.3275969912617
 31
0.0
  0
LINE
  5
2E07
330
1A
100
AcDbEntity
  8
SEIHIN
100
AcDbLine
 10
105.249166004206
 20
108.7443549042617
 30
0.0
 11
105.3290496242059
 21
109.3099673322617
 31
0.0
  0
ARC
  5
2E08
330
1A
100
AcDbEntity
  8
SEIHIN
100
AcDbCircle
 10
105.8538414542059
 20
109.2358489622617
 30
0.0
 40
0.5299999987318778
100
AcDbArc
 50
81.96106605535986
 51
171.9610660251237
  0
LINE
  5
2E09
330
1A
100
AcDbEntity
  8
SEIHIN
100
AcDbLine
 10
115.2851531992059
 20
104.9264366862617
 30
0.0
 11
115.692282885206
 21
105.4162899222617
 31
0.0
  0
ARC
  5
2E0A
330
1A
100
AcDbEntity
  8
SEIHIN
100
AcDbCircle
 10
129.590586439206
 20
106.4311355952617
 30
0.0
 40
11.00000000016632
100
AcDbArc
 50
96.99999999830827
 51
156.9999999827012
  0
ARC
  5
2E0B
330
1A
100
AcDbEntity
  8
SEIHIN
100
AcDbCircle
 10
130.9804187022059
 20
104.5867658882617
 30
0.0
 40
7.000000001556344
100
AcDbArc
 50
96.99999999882718
 51
157.000000005866
  0
LINE
  5
2E0C
330
1A
100
AcDbEntity
  8
SEIHIN
100
AcDbLine
 10
117.6044158192059
 20
108.1115299842617
 30
0.0
 11
118.705658213206
 21
108.9402029982617
 31
0.0
  0
ARC
  5
2E0D
330
1A
100
AcDbEntity
  8
SEIHIN
100
AcDbCircle
 10
117.739564427206
 20
107.5874802992617
 30
0.0
 40
0.5000000001979524
100
AcDbArc
 50
261.9610660227502
 51
306.9610660182878
  0
LINE
  5
2E0E
330
1A
100
AcDbEntity
  8
SEIHIN
100
AcDbLine
 10
128.9263719222059
 20
119.7321329022617
 30
0.0
 11
128.0203515242059
 21
120.1553669322617
 31
0.0
  0
LINE
  5
2E0F
330
1A
100
AcDbEntity
  8
SEIHIN
100
AcDbLine
 10
126.5767004242059
 20
117.0101946822617
 30
0.0
 11
128.0203515242059
 21
120.1553669322617
 31
0.0
  0
LINE
  5
2E10
330
1A
100
AcDbEntity
  8
SEIHIN
100
AcDbLine
 10
127.8092391812059
 20
117.2859410722617
 30
0.0
 11
128.9263719222059
 21
119.7321329022617
 31
0.0
  0
DIMENSION
  5
2E11
330
1A
100
AcDbEntity
  8
SUNPOU
100
AcDbDimension
  2
*D7
 10
203.1129951814796
 20
79.84205986226175
 30
0.0
 11
200.6129951814795
 21
97.84205986226178
 31
0.0
 70
    32
  3
STANDARD
100
AcDbAlignedDimension
 13
193.7538519042059
 23
115.8420598622617
 33
0.0
 14
193.7538519042059
 24
79.84205986226175
 34
0.0
 50
90.0
100
AcDbRotatedDimension
1001
ACAD
1000
DSTYLE
1002
{
1070
    41
1040
3.0
1070
    42
1040
3.0
1070
    43
1040
7.0
1070
    44
1040
1.5
1070
    73
1070
     0
1070
    74
1070
     0
1070
    77
1070
     3
1070
   140
1040
3.0
1070
   141
1040
3.0
1070
   147
1040
1.0
1070
   172
1070
     1
1070
   173
1070
     1
1070
   176
1070
   256
1070
   177
1070
   256
1070
   178
1070
   256
1070
   271
1070
     0
1070
   272
1070
     0
1070
   341
1005
B2
1070
     6
1000
OPEN
1070
     7
1000
OPEN
1002
}
  0
LINE
  5
2E12
330
1A
100
AcDbEntity
  8
SEIHIN
  6
DASHED
 62
     2
100
AcDbLine
 10
213.7538519042059
 20
115.8420598622617
 30
0.0
 11
213.7538519042059
 21
79.84205986226175
 31
0.0
  0
LINE
  5
2E13
330
1A
100
AcDbEntity
  8
SEIHIN
  6
DASHED
 62
     2
100
AcDbLine
 10
207.0538519042059
 20
79.84205986226175
 30
0.0
 11
207.0538519042059
 21
115.8420598622617
 31
0.0
  0
LINE
  5
2E14
330
1A
100
AcDbEntity
  8
SEIHIN
  6
DASHED
 62
     2
100
AcDbLine
 10
212.553851904206
 20
115.8420598622617
 30
0.0
 11
212.553851904206
 21
79.84205986226175
 31
0.0
  0
ARC
  5
2E15
330
1A
100
AcDbEntity
  8
SEIHIN
100
AcDbCircle
 10
179.903851904206
 20
105.5420598622617
 30
0.0
 40
3.0
100
AcDbArc
 50
270.0
 51
90.0
  0
ARC
  5
2E16
330
1A
100
AcDbEntity
  8
SEIHIN
100
AcDbCircle
 10
177.0538519042059
 20
101.0419598620617
 30
0.0
 40
10.0000000001
100
AcDbArc
 50
0.0
 51
90.0
  0
LINE
  5
2E17
330
1A
100
AcDbEntity
  8
SEIHIN
100
AcDbLine
 10
192.553851904206
 20
115.8420598622617
 30
0.0
 11
192.553851904206
 21
79.84205986226175
 31
0.0
  0
LINE
  5
2E18
330
1A
100
AcDbEntity
  8
SEIHIN
100
AcDbLine
 10
193.7538519042059
 20
115.8420598622617
 30
0.0
 11
193.7538519042059
 21
79.84205986226175
 31
0.0
  0
LINE
  5
2E19
330
1A
100
AcDbEntity
  8
SEIHIN
100
AcDbLine
 10
187.0538519042059
 20
79.84205986226175
 30
0.0
 11
187.0538519042059
 21
115.8420598622617
 31
0.0
  0
ARC
  5
2E1A
330
1A
100
AcDbEntity
  8
SEIHIN
100
AcDbCircle
 10
168.9997470142059
 20
99.54195749426174
 30
0.0
 40
3.000002368933987
100
AcDbArc
 50
89.99990660795349
 51
141.6619327663495
  0
LINE
  5
2E1B
330
1A
100
AcDbEntity
  8
SEIHIN
100
AcDbLine
 10
163.7420519042059
 20
107.4028598622617
 30
0.0
 11
152.3222519042059
 21
92.96235986226173
 31
0.0
  0
ARC
  5
2E1C
330
1A
100
AcDbEntity
  8
SEIHIN
100
AcDbCircle
 10
182.553851904206
 20
82.67307648226177
 30
0.0
 40
4.500000000783715
100
AcDbArc
 50
216.0326608768124
 51
0.0
  0
ARC
  5
2E1D
330
1A
100
AcDbEntity
  8
SEIHIN
100
AcDbCircle
 10
176.0538519042059
 20
94.04195986226175
 30
0.0
 40
5.999999999899999
100
AcDbArc
 50
0.0
 51
90.0
  0
LINE
  5
2E1E
330
1A
100
AcDbEntity
  8
CENTER_L
100
AcDbLine
 10
197.0936353842059
 20
102.3420598622617
 30
0.0
 11
181.893635384206
 21
102.3420598622617
 31
0.0
  0
LINE
  5
2E1F
330
1A
100
AcDbEntity
  8
CENTER_L
100
AcDbLine
 10
197.0936353842059
 20
85.84205986226175
 30
0.0
 11
181.893635384206
 21
85.84205986226175
 31
0.0
  0
LINE
  5
2E20
330
1A
100
AcDbEntity
  8
NOKITOI
  6
PHANTOM
 62
     8
100
AcDbLine
 10
169.1755019042062
 20
58.64655986142413
 30
0.0
 11
175.0142019042059
 21
86.37795986142412
 31
0.0
  0
LINE
  5
2E21
330
1A
100
AcDbEntity
  8
NOKITOI
  6
PHANTOM
 62
     8
100
AcDbLine
 10
168.0668019042062
 20
59.65905986142428
 30
0.0
 11
173.521801904206
 21
85.56795986142418
 31
0.0
  0
ARC
  5
2E22
330
1A
100
AcDbEntity
  8
NOKITOI
  6
PHANTOM
 62
     8
100
AcDbCircle
 10
171.9355164077547
 20
45.43166778561271
 30
0.0
 40
14.22809199964113
100
AcDbArc
 50
108.5474584936554
 51
128.7537062451646
  0
LINE
  5
2E23
330
1A
100
AcDbEntity
  8
NOKITOI
  6
PHANTOM
 62
     8
100
AcDbLine
 10
153.048601904206
 20
56.52745986142412
 30
0.0
 11
163.029101904206
 21
56.52735986142426
 31
0.0
  0
ARC
  5
2E24
330
1A
100
AcDbEntity
  8
NOKITOI
  6
PHANTOM
 62
     8
100
AcDbCircle
 10
168.2018762410583
 20
58.85163911281171
 30
0.0
 40
0.9949690575286499
100
AcDbArc
 50
285.5437330810334
 51
348.1110361155306
  0
ARC
  5
2E25
330
1A
100
AcDbEntity
  8
NOKITOI
  6
PHANTOM
 62
     8
100
AcDbCircle
 10
167.0932454737572
 20
59.86410881319312
 30
0.0
 40
0.9950135261271753
100
AcDbArc
 50
288.5445751594485
 51
348.1074736523477
  0
LINE
  5
2E26
330
1A
100
AcDbEntity
  8
SEIHIN
100
AcDbLine
 10
157.6465519042059
 20
83.22755986226173
 30
0.0
 11
171.040951904206
 21
84.93705986226178
 31
0.0
  0
LINE
  5
2E27
330
1A
100
AcDbEntity
  8
SEIHIN
100
AcDbLine
 10
153.716851904206
 20
80.34195986226178
 30
0.0
 11
171.2315519042059
 21
83.75295986226177
 31
0.0
  0
LINE
  5
2E28
330
1A
100
AcDbEntity
  8
SEIHIN
100
AcDbLine
 10
167.256251904206
 20
98.14335986226177
 30
0.0
 11
156.7355519042059
 21
84.83985986226173
 31
0.0
  0
LINE
  5
2E29
330
1A
100
AcDbEntity
  8
SEIHIN
100
AcDbLine
 10
166.646651904206
 20
101.4028598620617
 30
0.0
 11
158.990651904206
 21
91.72175986226177
 31
0.0
  0
LINE
  5
2E2A
330
1A
100
AcDbEntity
  8
SEIHIN
100
AcDbLine
 10
152.2686519042059
 20
83.22165986226172
 30
0.0
 11
155.431951904206
 21
87.22175986226176
 31
0.0
  0
ARC
  5
2E2B
330
1A
100
AcDbEntity
  8
SEIHIN
100
AcDbCircle
 10
151.4842805342059
 20
83.84197372226173
 30
0.0
 40
1.000013862902801
100
AcDbArc
 50
269.9983596445684
 51
321.6615704529417
  0
ARC
  5
2E2C
330
1A
100
AcDbEntity
  8
SEIHIN
100
AcDbCircle
 10
157.5199567042059
 20
84.21955137226177
 30
0.0
 40
1.000036752725678
100
AcDbArc
 50
141.6629998625319
 51
277.2726171970301
  0
ARC
  5
2E2D
330
1A
100
AcDbEntity
  8
SEIHIN
100
AcDbCircle
 10
154.647558614206
 20
87.84204600226178
 30
0.0
 40
1.00001386218148
100
AcDbArc
 50
321.6635952327493
 51
90.0003844493519
  0
LINE
  5
2E2E
330
1A
100
AcDbEntity
  8
SEIHIN
100
AcDbLine
 10
158.206251904206
 20
91.34205986226175
 30
0.0
 11
153.106651904206
 21
91.34205986226175
 31
0.0
  0
ARC
  5
2E2F
330
1A
100
AcDbEntity
  8
SEIHIN
100
AcDbCircle
 10
153.1066602042059
 20
92.34204271226179
 30
0.0
 40
0.9999828485094189
100
AcDbArc
 50
141.6672292746693
 51
269.9995244368737
  0
ARC
  5
2E30
330
1A
100
AcDbEntity
  8
SEIHIN
100
AcDbCircle
 10
158.2062805342059
 20
92.34207372426174
 30
0.0
 40
1.000013864523104
100
AcDbArc
 50
269.9983596445718
 51
321.6615703630643
  0
LINE
  5
2E31
330
1A
100
AcDbEntity
  8
NOKITOI
  6
PHANTOM
 62
     8
100
AcDbLine
 10
180.7521019042061
 20
87.83585986142412
 30
0.0
 11
180.7521019042061
 21
95.23535986142434
 31
0.0
  0
LINE
  5
2E32
330
1A
100
AcDbEntity
  8
NOKITOI
  6
PHANTOM
 62
     8
100
AcDbLine
 10
182.0521019042061
 20
87.53085986142417
 30
0.0
 11
182.0521019042061
 21
95.54045986142416
 31
0.0
  0
LINE
  5
2E33
330
1A
100
AcDbEntity
  8
NOKITOI
  6
PHANTOM
 62
     8
100
AcDbLine
 10
173.521801904206
 20
85.56795986142418
 30
0.0
 11
175.8309019042059
 21
96.53535986142419
 31
0.0
  0
LINE
  5
2E34
330
1A
100
AcDbEntity
  8
NOKITOI
  6
PHANTOM
 62
     8
100
AcDbLine
 10
176.8857019042059
 20
95.23535986142434
 30
0.0
 11
175.3278019042061
 21
87.83595986142421
 31
0.0
  0
LINE
  5
2E35
330
1A
100
AcDbEntity
  8
SEIHIN
100
AcDbLine
 10
182.0538519042059
 20
84.44715870226174
 30
0.0
 11
182.0538519042059
 21
94.04195986226175
 31
0.0
  0
ARC
  5
2E36
330
1A
100
AcDbEntity
  8
SEIHIN
100
AcDbCircle
 10
171.116854424206
 20
84.34192020226175
 30
0.0
 40
0.5999603391169003
100
AcDbArc
 50
269.9997593418182
 51
97.26811277064527
  0
LINE
  5
2E37
330
1A
100
AcDbEntity
  8
SEIHIN
100
AcDbLine
 10
177.9641519042059
 20
86.28245986226176
 30
0.0
 11
181.2727863142059
 21
84.03363466226176
 31
0.0
  0
ARC
  5
2E38
330
1A
100
AcDbEntity
  8
SEIHIN
100
AcDbCircle
 10
177.1209437342059
 20
85.04194866226175
 30
0.0
 40
1.500013201217973
100
AcDbArc
 50
61.61017886408406
 51
226.1911119609332
  0
LINE
  5
2E39
330
1A
100
AcDbEntity
  8
SEIHIN
100
AcDbLine
 10
178.9147837942059
 20
80.02596800226177
 30
0.0
 11
175.907951904206
 21
84.15955986226174
 31
0.0
  0
ARC
  5
2E3A
330
1A
100
AcDbEntity
  8
SEIHIN
100
AcDbCircle
 10
181.553851904206
 20
84.44715870226174
 30
0.0
 40
0.4999999987699835
100
AcDbArc
 50
235.7966882627013
 51
0.0
  0
LINE
  5
2E3B
330
1A
100
AcDbEntity
  8
NOKITOI
  6
PHANTOM
 62
     8
100
AcDbLine
 10
175.208901904206
 20
86.53585986142429
 30
0.0
 11
181.0571019042061
 21
86.53585986142429
 31
0.0
  0
LINE
  5
2E3C
330
1A
100
AcDbEntity
  8
NOKITOI
  6
PHANTOM
 62
     8
100
AcDbLine
 10
180.7521019042061
 20
87.83585986142412
 30
0.0
 11
175.3278019042061
 21
87.83595986142421
 31
0.0
  0
ARC
  5
2E3D
330
1A
100
AcDbEntity
  8
NOKITOI
  6
PHANTOM
 62
     8
100
AcDbCircle
 10
175.2089203468203
 20
86.33697482486098
 30
0.0
 40
0.1989850374179911
100
AcDbArc
 50
90.00531036897097
 51
168.1136861719431
  0
ARC
  5
2E3E
330
1A
100
AcDbEntity
  8
NOKITOI
  6
PHANTOM
 62
     8
100
AcDbCircle
 10
181.0571019042062
 20
87.53085986142423
 30
0.0
 40
0.9949999999999192
100
AcDbArc
 50
269.9999999999951
 51
359.9999999999951
  0
LINE
  5
2E3F
330
1A
100
AcDbEntity
  8
SEIHIN
100
AcDbLine
 10
168.9997519042059
 20
102.5419598622617
 30
0.0
 11
179.903851904206
 21
102.5420598622617
 31
0.0
  0
LINE
  5
2E40
330
1A
100
AcDbEntity
  8
SEIHIN
100
AcDbLine
 10
176.0538519042059
 20
100.0419598620617
 30
0.0
 11
171.178151904206
 21
100.0419598620617
 31
0.0
  0
ARC
  5
2E41
330
1A
100
AcDbEntity
  8
SEIHIN
100
AcDbCircle
 10
171.1780897442059
 20
95.04192976926175
 30
0.0
 40
5.000030094599926
100
AcDbArc
 50
89.99928770315646
 51
141.6617877220316
  0
LINE
  5
2E42
330
1A
100
AcDbEntity
  8
NOKITOI
  6
PHANTOM
 62
     8
100
AcDbLine
 10
180.7521019042061
 20
95.23535986142434
 30
0.0
 11
176.8857019042059
 21
95.23535986142434
 31
0.0
  0
LINE
  5
2E43
330
1A
100
AcDbEntity
  8
NOKITOI
  6
PHANTOM
 62
     8
100
AcDbLine
 10
181.0571019042061
 20
96.53545986142427
 30
0.0
 11
175.8534019042061
 21
96.53535986142419
 31
0.0
  0
ARC
  5
2E44
330
1A
100
AcDbEntity
  8
NOKITOI
  6
PHANTOM
 62
     8
100
AcDbCircle
 10
181.0571019042061
 20
95.54045986142426
 30
0.0
 40
0.9950000000000613
100
AcDbArc
 50
359.9999999999967
 51
89.99999999999674
  0
LINE
  5
2E45
330
1A
100
AcDbEntity
  8
SEIHIN
100
AcDbLine
 10
187.0538519042059
 20
82.67307648226177
 30
0.0
 11
187.0538519042059
 21
101.0419598620617
 31
0.0
  0
LINE
  5
2E46
330
1A
100
AcDbEntity
  8
SEIHIN
100
AcDbLine
 10
193.7538519042059
 20
79.84205986226175
 30
0.0
 11
187.0538519042059
 21
79.84205986226175
 31
0.0
  0
LINE
  5
2E47
330
1A
100
AcDbEntity
  8
SEIHIN
100
AcDbLine
 10
189.5538519042059
 20
87.84205986226174
 30
0.0
 11
192.553851904206
 21
90.84205986226175
 31
0.0
  0
LINE
  5
2E48
330
1A
100
AcDbEntity
  8
SEIHIN
100
AcDbLine
 10
189.5538519042059
 20
87.84205986226174
 30
0.0
 11
192.553851904206
 21
87.84205986226174
 31
0.0
  0
LINE
  5
2E49
330
1A
100
AcDbEntity
  8
SEIHIN
100
AcDbLine
 10
189.5538519042059
 20
87.84205986226174
 30
0.0
 11
192.553851904206
 21
84.84205986226175
 31
0.0
  0
LINE
  5
2E4A
330
1A
100
AcDbEntity
  8
SEIHIN
  6
DASHED
 62
     2
100
AcDbLine
 10
213.7538519042059
 20
79.84205986226175
 30
0.0
 11
207.0538519042059
 21
79.84205986226175
 31
0.0
  0
ARC
  5
2E4B
330
1A
100
AcDbEntity
  8
SEIHIN
100
AcDbCircle
 10
184.253851904206
 20
121.8420598622617
 30
0.0
 40
3.999999999974195
100
AcDbArc
 50
0.0000093105634146
 51
169.1831807905674
  0
ARC
  5
2E4C
330
1A
100
AcDbEntity
  8
SEIHIN
100
AcDbCircle
 10
184.253851904206
 20
121.8420598622617
 30
0.0
 40
9.999999997177344
100
AcDbArc
 50
25.84193274490828
 51
169.1831807570513
  0
LINE
  5
2E4D
330
1A
100
AcDbEntity
  8
CENTER_L
100
AcDbLine
 10
197.0936353842059
 20
110.8420598622617
 30
0.0
 11
181.893635384206
 21
110.8420598622617
 31
0.0
  0
LINE
  5
2E4E
330
1A
100
AcDbEntity
  8
SEIHIN
100
AcDbLine
 10
179.903851904206
 20
108.5420598622617
 30
0.0
 11
166.0951519042059
 21
108.5419598622617
 31
0.0
  0
LINE
  5
2E4F
330
1A
100
AcDbEntity
  8
SEIHIN
100
AcDbLine
 10
165.853151904206
 20
111.0419598622617
 30
0.0
 11
177.0538519042059
 21
111.0419598622617
 31
0.0
  0
ARC
  5
2E50
330
1A
100
AcDbEntity
  8
SEIHIN
100
AcDbCircle
 10
166.0951470142059
 20
105.5419574942617
 30
0.0
 40
3.000002368996017
100
AcDbArc
 50
89.99990660795349
 51
141.6619327633552
  0
ARC
  5
2E51
330
1A
100
AcDbEntity
  8
SEIHIN
100
AcDbCircle
 10
165.8530897442059
 20
106.0419297692617
 30
0.0
 40
5.000030094699926
100
AcDbArc
 50
89.99928770315646
 51
141.6617877220316
  0
ARC
  5
2E52
330
1A
100
AcDbEntity
  8
SEIHIN
100
AcDbCircle
 10
173.4492976742059
 20
123.9064261022617
 30
0.0
 40
1.00000000349881
100
AcDbArc
 50
277.0000003865018
 51
349.1831807305183
  0
ARC
  5
2E53
330
1A
100
AcDbEntity
  8
SEIHIN
100
AcDbCircle
 10
173.4492976742059
 20
123.9064261022617
 30
0.0
 40
7.000000001522868
100
AcDbArc
 50
277.0000000515624
 51
349.1831807341092
  0
LINE
  5
2E54
330
1A
100
AcDbEntity
  8
SEIHIN
  6
DASHED
 62
     2
100
AcDbLine
 10
213.2538519042059
 20
126.2009588102453
 30
0.0
 11
213.2538519042059
 21
115.8420598622617
 31
0.0
  0
LINE
  5
2E55
330
1A
100
AcDbEntity
  8
SEIHIN
100
AcDbLine
 10
193.2538519042059
 20
126.2009588022617
 30
0.0
 11
193.2538519042059
 21
115.8420598622617
 31
0.0
  0
ARC
  5
2E56
330
1A
100
AcDbEntity
  8
SEIHIN
  6
DASHED
 62
     2
100
AcDbCircle
 10
204.2538519042059
 20
121.8420598622617
 30
0.0
 40
10.0000000019366
100
AcDbArc
 50
25.84193278607622
 51
170.7918456273463
  0
ARC
  5
2E57
330
1A
100
AcDbEntity
  8
SEIHIN
  6
DASHED
 62
     2
100
AcDbCircle
 10
204.2538519042059
 20
121.8420598622617
 30
0.0
 40
3.99999999835207
100
AcDbArc
 50
359.9999928380284
 51
170.7918456747324
  0
LINE
  5
2E58
330
1A
100
AcDbEntity
  8
SEIHIN
100
AcDbLine
 10
189.5538519042059
 20
107.8420598622617
 30
0.0
 11
192.553851904206
 21
107.8420598622617
 31
0.0
  0
LINE
  5
2E59
330
1A
100
AcDbEntity
  8
SEIHIN
100
AcDbLine
 10
189.5538519042059
 20
107.8420598622617
 30
0.0
 11
192.553851904206
 21
104.8420598622617
 31
0.0
  0
LINE
  5
2E5A
330
1A
100
AcDbEntity
  8
SEIHIN
100
AcDbLine
 10
189.5538519042059
 20
107.8420598622617
 30
0.0
 11
192.553851904206
 21
110.8420598622617
 31
0.0
  0
LINE
  5
2E5B
330
1A
100
AcDbEntity
  8
SEIHIN
100
AcDbLine
 10
187.0538519042059
 20
115.8420598622617
 30
0.0
 11
193.7538519042059
 21
115.8420598622617
 31
0.0
  0
LINE
  5
2E5C
330
1A
100
AcDbEntity
  8
SEIHIN
100
AcDbLine
 10
188.2538519042059
 20
121.8420605122617
 30
0.0
 11
188.2538519042059
 21
115.8420598622617
 31
0.0
  0
LINE
  5
2E5D
330
1A
100
AcDbEntity
  8
SEIHIN
  6
DASHED
 62
     2
100
AcDbLine
 10
207.0538519042059
 20
115.8420598622617
 30
0.0
 11
213.7538519042059
 21
115.8420598622617
 31
0.0
  0
LINE
  5
2E5E
330
1A
100
AcDbEntity
  8
SEIHIN
  6
DASHED
 62
     2
100
AcDbLine
 10
208.2538519042059
 20
121.8420593622617
 30
0.0
 11
208.2538519042059
 21
115.8420598622617
 31
0.0
  0
LINE
  5
2E5F
330
1A
100
AcDbEntity
  8
SEIHIN
100
AcDbLine
 10
93.48675487420598
 20
226.8937559748637
 30
0.0
 11
72.08385190420603
 21
226.8937559748637
 31
0.0
  0
LINE
  5
2E60
330
1A
100
AcDbEntity
  8
SEIHIN
100
AcDbLine
 10
93.48675487420598
 20
211.8937559348637
 30
0.0
 11
72.08385190420603
 21
211.8937559348637
 31
0.0
  0
LINE
  5
2E61
330
1A
100
AcDbEntity
  8
CENTER_L
100
AcDbLine
 10
64.98038538420601
 20
219.3937559548637
 30
0.0
 11
200.7538519042059
 21
219.3937559548637
 31
0.0
  0
DIMENSION
  5
2E62
330
1A
100
AcDbEntity
  8
SUNPOU
100
AcDbDimension
  2
*D8
 10
45.18094813238985
 20
208.3937559348637
 30
0.0
 11
42.68094813238982
 21
219.3937559548638
 31
0.0
 70
    32
  3
STANDARD
100
AcDbAlignedDimension
 13
69.58385190420603
 23
230.3937559748638
 33
0.0
 14
69.58385190420603
 24
208.3937559348637
 34
0.0
 50
90.0
100
AcDbRotatedDimension
1001
ACAD
1000
DSTYLE
1002
{
1070
    41
1040
3.0
1070
    42
1040
3.0
1070
    43
1040
7.0
1070
    44
1040
1.5
1070
    73
1070
     0
1070
    74
1070
     0
1070
    77
1070
     3
1070
   140
1040
3.0
1070
   141
1040
3.0
1070
   147
1040
1.0
1070
   172
1070
     1
1070
   173
1070
     1
1070
   176
1070
   256
1070
   177
1070
   256
1070
   178
1070
   256
1070
   271
1070
     0
1070
   272
1070
     0
1070
   341
1005
B2
1070
     6
1000
OPEN
1070
     7
1000
OPEN
1002
}
  0
LINE
  5
2E63
330
1A
100
AcDbEntity
  8
SEIHIN
100
AcDbLine
 10
72.08385190420603
 20
226.8937559748637
 30
0.0
 11
72.08385190420603
 21
211.8937559348637
 31
0.0
  0
LINE
  5
2E64
330
1A
100
AcDbEntity
  8
SEIHIN
100
AcDbLine
 10
69.58385190420603
 20
208.3937559348637
 30
0.0
 11
69.58385190420603
 21
230.3937559748638
 31
0.0
  0
LINE
  5
2E65
330
1A
100
AcDbEntity
  8
SEIHIN
100
AcDbLine
 10
69.58385190420603
 20
208.3937559348637
 30
0.0
 11
72.08385190420603
 21
208.3937559348637
 31
0.0
  0
LINE
  5
2E66
330
1A
100
AcDbEntity
  8
SEIHIN
100
AcDbLine
 10
72.08385190420603
 20
208.3937559348637
 30
0.0
 11
72.08385190420603
 21
211.8937559348637
 31
0.0
  0
LINE
  5
2E67
330
1A
100
AcDbEntity
  8
SEIHIN
100
AcDbLine
 10
72.08385190420603
 20
226.8937559748637
 30
0.0
 11
72.08385190420603
 21
230.3937559748638
 31
0.0
  0
LINE
  5
2E68
330
1A
100
AcDbEntity
  8
SEIHIN
100
AcDbLine
 10
72.08385190420603
 20
230.3937559748638
 30
0.0
 11
72.08385190420603
 21
226.8937559748637
 31
0.0
  0
LINE
  5
2E69
330
1A
100
AcDbEntity
  8
SEIHIN
100
AcDbLine
 10
69.58385190420603
 20
230.3937559748638
 30
0.0
 11
72.08385190420603
 21
230.3937559748638
 31
0.0
  0
LINE
  5
2E6A
330
1A
100
AcDbEntity
  8
SEIHIN
100
AcDbLine
 10
192.553851904206
 20
245.8937559748637
 30
0.0
 11
192.553851904206
 21
229.2168074748637
 31
0.0
  0
LINE
  5
2E6B
330
1A
100
AcDbEntity
  8
SEIHIN
100
AcDbLine
 10
193.7538519042059
 20
229.2168074748637
 30
0.0
 11
193.7538519042059
 21
245.8937559748637
 31
0.0
  0
LINE
  5
2E6C
330
1A
100
AcDbEntity
  8
SEIHIN
100
AcDbLine
 10
128.0203515242059
 20
222.3937559348637
 30
0.0
 11
189.2538519042059
 21
222.3937559348637
 31
0.0
  0
LINE
  5
2E6D
330
1A
100
AcDbEntity
  8
SEIHIN
100
AcDbLine
 10
128.0203515242059
 20
216.3937559348637
 30
0.0
 11
189.2538526142059
 21
216.3937559348637
 31
0.0
  0
LINE
  5
2E6E
330
1A
100
AcDbEntity
  8
SEIHIN
100
AcDbLine
 10
98.64697139420599
 20
226.8937559748637
 30
0.0
 11
193.2538519042059
 21
226.8937559748637
 31
0.0
  0
LINE
  5
2E6F
330
1A
100
AcDbEntity
  8
SEIHIN
100
AcDbLine
 10
98.64697139420599
 20
211.8937559348637
 30
0.0
 11
193.2538519042059
 21
211.8937559348637
 31
0.0
  0
LINE
  5
2E70
330
1A
100
AcDbEntity
  8
SEIHIN
100
AcDbLine
 10
98.146971394206
 20
212.8937559348637
 30
0.0
 11
193.2538519042059
 21
212.8937559348637
 31
0.0
  0
LINE
  5
2E71
330
1A
100
AcDbEntity
  8
SEIHIN
100
AcDbLine
 10
98.146971394206
 20
225.8937559748637
 30
0.0
 11
193.2538519042059
 21
225.8937559748637
 31
0.0
  0
LINE
  5
2E72
330
1A
100
AcDbEntity
  8
SEIHIN
100
AcDbLine
 10
117.614068426206
 20
211.3937559348637
 30
0.0
 11
98.57922193420598
 21
211.3938019348637
 31
0.0
  0
LINE
  5
2E73
330
1A
100
AcDbEntity
  8
SEIHIN
100
AcDbLine
 10
98.57926060420595
 20
227.3937559748637
 30
0.0
 11
117.614068426206
 21
227.3937559748637
 31
0.0
  0
LINE
  5
2E74
330
1A
100
AcDbEntity
  8
SEIHIN
100
AcDbLine
 10
98.43335483420601
 20
213.1216822948637
 30
0.0
 11
126.0203515242059
 21
213.1216822948637
 31
0.0
  0
LINE
  5
2E75
330
1A
100
AcDbEntity
  8
SEIHIN
100
AcDbLine
 10
101.2228743842059
 20
215.2393119248637
 30
0.0
 11
123.2815615092059
 21
215.2393119248637
 31
0.0
  0
LINE
  5
2E76
330
1A
100
AcDbEntity
  8
SEIHIN
100
AcDbLine
 10
98.43335483420601
 20
225.6658295748637
 30
0.0
 11
126.0203515242059
 21
225.6658295748637
 31
0.0
  0
LINE
  5
2E77
330
1A
100
AcDbEntity
  8
SEIHIN
100
AcDbLine
 10
101.2228743842059
 20
223.5481999748637
 30
0.0
 11
123.2815615092059
 21
223.5481999748637
 31
0.0
  0
LINE
  5
2E78
330
1A
100
AcDbEntity
  8
SEIHIN
100
AcDbLine
 10
116.7164909132059
 20
216.2393119248637
 30
0.0
 11
116.7164909132059
 21
222.5481999448637
 31
0.0
  0
LINE
  5
2E79
330
1A
100
AcDbEntity
  8
SEIHIN
100
AcDbLine
 10
101.2228743842059
 20
213.1216822948637
 30
0.0
 11
101.2228743842059
 21
225.6658295748637
 31
0.0
  0
ARC
  5
2E7A
330
1A
100
AcDbEntity
  8
SEIHIN
100
AcDbCircle
 10
98.43335483420601
 20
219.3937559348637
 30
0.0
 40
3.000000000000011
100
AcDbArc
 50
90.00000515662017
 51
269.9999952253516
  0
LINE
  5
2E7B
330
1A
100
AcDbEntity
  8
SEIHIN
100
AcDbLine
 10
98.43335483420601
 20
224.6658295748637
 30
0.0
 11
98.43335483420601
 21
214.1216822948637
 31
0.0
  0
LINE
  5
2E7C
330
1A
100
AcDbEntity
  8
SEIHIN
100
AcDbLine
 10
98.43335483420601
 20
217.4691445948637
 30
0.0
 11
101.2228743842059
 21
217.4691445948637
 31
0.0
  0
LINE
  5
2E7D
330
1A
100
AcDbEntity
  8
SEIHIN
100
AcDbLine
 10
101.2228743842059
 20
214.1216822948637
 30
0.0
 11
98.43335483420601
 21
214.1216822948637
 31
0.0
  0
ARC
  5
2E7E
330
1A
100
AcDbEntity
  8
SEIHIN
100
AcDbCircle
 10
98.146971394206
 20
211.8937559348637
 30
0.0
 40
1.0
100
AcDbArc
 50
90.0
 51
180.0
  0
LINE
  5
2E7F
330
1A
100
AcDbEntity
  8
SEIHIN
100
AcDbLine
 10
92.61406842420598
 20
211.3937559348637
 30
0.0
 11
96.578975744206
 21
211.3937559348637
 31
0.0
  0
LINE
  5
2E80
330
1A
100
AcDbEntity
  8
SEIHIN
100
AcDbLine
 10
96.57921736420599
 20
211.8937559348637
 30
0.0
 11
92.61406842420598
 21
211.8937559348637
 31
0.0
  0
LINE
  5
2E81
330
1A
100
AcDbEntity
  8
SEIHIN
100
AcDbLine
 10
92.61406842420598
 20
211.3937559348637
 30
0.0
 11
92.61406842420598
 21
211.8937559348637
 31
0.0
  0
ARC
  5
2E82
330
1A
100
AcDbEntity
  8
SEIHIN
100
AcDbCircle
 10
98.64697139420599
 20
211.3937559348637
 30
0.0
 40
0.5
100
AcDbArc
 50
90.0
 51
180.0
  0
LINE
  5
2E83
330
1A
100
AcDbEntity
  8
SEIHIN
100
AcDbLine
 10
98.146971394206
 20
211.3937559348637
 30
0.0
 11
98.146971394206
 21
208.3937559348637
 31
0.0
  0
LINE
  5
2E84
330
1A
100
AcDbEntity
  8
SEIHIN
100
AcDbLine
 10
97.146971394206
 20
208.3937559348637
 30
0.0
 11
97.146971394206
 21
211.8937559348637
 31
0.0
  0
LINE
  5
2E85
330
1A
100
AcDbEntity
  8
SEIHIN
100
AcDbLine
 10
98.146971394206
 20
208.3937559348637
 30
0.0
 11
97.146971394206
 21
208.3937559348637
 31
0.0
  0
LINE
  5
2E86
330
1A
100
AcDbEntity
  8
SEIHIN
100
AcDbLine
 10
98.57922193420598
 20
211.3938019348637
 30
0.0
 11
98.57922314420598
 21
211.8937559348637
 31
0.0
  0
LINE
  5
2E87
330
1A
100
AcDbEntity
  8
SEIHIN
100
AcDbLine
 10
96.57921618420596
 20
211.3937559348637
 30
0.0
 11
96.57921736420599
 21
211.8937559348637
 31
0.0
  0
LINE
  5
2E88
330
1A
100
AcDbEntity
  8
SEIHIN
100
AcDbLine
 10
98.43335483420601
 20
214.1216822948637
 30
0.0
 11
98.43335483420601
 21
213.1216822948637
 31
0.0
  0
ARC
  5
2E89
330
1A
100
AcDbEntity
  8
SEIHIN
100
AcDbCircle
 10
107.6143095542059
 20
215.9120854348637
 30
0.0
 40
5.715337531631893
100
AcDbArc
 50
232.2375418744902
 51
307.7621812247566
  0
LINE
  5
2E8A
330
1A
100
AcDbEntity
  8
SEIHIN
100
AcDbLine
 10
101.2228743842059
 20
213.1216822948637
 30
0.0
 11
101.2228743842059
 21
214.3216822948637
 31
0.0
  0
LINE
  5
2E8B
330
1A
100
AcDbEntity
  8
SEIHIN
100
AcDbLine
 10
101.2228743842059
 20
224.6658295748637
 30
0.0
 11
98.43335483420601
 21
224.6658295748637
 31
0.0
  0
LINE
  5
2E8C
330
1A
100
AcDbEntity
  8
SEIHIN
100
AcDbLine
 10
98.43335483420601
 20
221.3183672748637
 30
0.0
 11
101.2228743842059
 21
221.3183672748637
 31
0.0
  0
LINE
  5
2E8D
330
1A
100
AcDbEntity
  8
SEIHIN
100
AcDbLine
 10
98.146971394206
 20
227.3937559748637
 30
0.0
 11
98.146971394206
 21
230.3937559748638
 31
0.0
  0
LINE
  5
2E8E
330
1A
100
AcDbEntity
  8
SEIHIN
100
AcDbLine
 10
97.146971394206
 20
230.3937559748638
 30
0.0
 11
97.146971394206
 21
226.8937559748637
 31
0.0
  0
LINE
  5
2E8F
330
1A
100
AcDbEntity
  8
SEIHIN
100
AcDbLine
 10
92.61406842420598
 20
227.3937559748637
 30
0.0
 11
96.578975744206
 21
227.3937559748637
 31
0.0
  0
LINE
  5
2E90
330
1A
100
AcDbEntity
  8
SEIHIN
100
AcDbLine
 10
96.57925273420596
 20
226.8937559748637
 30
0.0
 11
92.61406842420598
 21
226.8937559748637
 31
0.0
  0
LINE
  5
2E91
330
1A
100
AcDbEntity
  8
SEIHIN
100
AcDbLine
 10
92.61406842420598
 20
226.8937559748637
 30
0.0
 11
92.61406842420598
 21
227.3937559748637
 31
0.0
  0
LINE
  5
2E92
330
1A
100
AcDbEntity
  8
SEIHIN
100
AcDbLine
 10
98.57925939420603
 20
226.8937559748637
 30
0.0
 11
98.57926060420595
 21
227.3937559748637
 31
0.0
  0
LINE
  5
2E93
330
1A
100
AcDbEntity
  8
SEIHIN
100
AcDbLine
 10
96.57925273420596
 20
226.8937559748637
 30
0.0
 11
96.57925391420599
 21
227.3937559748637
 31
0.0
  0
LINE
  5
2E94
330
1A
100
AcDbEntity
  8
SEIHIN
100
AcDbLine
 10
98.43335483420601
 20
224.6658295748637
 30
0.0
 11
98.43335483420601
 21
225.6658295748637
 31
0.0
  0
ARC
  5
2E95
330
1A
100
AcDbEntity
  8
SEIHIN
100
AcDbCircle
 10
98.64697139420599
 20
227.3937559748637
 30
0.0
 40
0.5
100
AcDbArc
 50
180.0
 51
270.0
  0
ARC
  5
2E96
330
1A
100
AcDbEntity
  8
SEIHIN
100
AcDbCircle
 10
98.146971394206
 20
226.8937559748637
 30
0.0
 40
1.0
100
AcDbArc
 50
180.0
 51
270.0
  0
LINE
  5
2E97
330
1A
100
AcDbEntity
  8
SEIHIN
100
AcDbLine
 10
98.146971394206
 20
230.3937559748638
 30
0.0
 11
97.146971394206
 21
230.3937559748638
 31
0.0
  0
LINE
  5
2E98
330
1A
100
AcDbEntity
  8
SEIHIN
100
AcDbLine
 10
111.1142986342059
 20
228.4581943748637
 30
0.0
 11
104.1142986342059
 21
228.4581943748637
 31
0.0
  0
LINE
  5
2E99
330
1A
100
AcDbEntity
  8
SEIHIN
100
AcDbLine
 10
104.1142986342059
 20
227.3937559748637
 30
0.0
 11
111.1142986342059
 21
227.3937559748637
 31
0.0
  0
LINE
  5
2E9A
330
1A
100
AcDbEntity
  8
SEIHIN
100
AcDbLine
 10
101.2228743842059
 20
225.6658295748637
 30
0.0
 11
101.2228743842059
 21
224.4658295748637
 31
0.0
  0
LINE
  5
2E9B
330
1A
100
AcDbEntity
  8
SEIHIN
100
AcDbLine
 10
104.1142986342059
 20
228.4581943748637
 30
0.0
 11
104.1142986342059
 21
227.3937559748637
 31
0.0
  0
LINE
  5
2E9C
330
1A
100
AcDbEntity
  8
SEIHIN
100
AcDbLine
 10
111.1142986342059
 20
227.3937559748637
 30
0.0
 11
111.1142986342059
 21
228.4581943748637
 31
0.0
  0
LINE
  5
2E9D
330
1A
100
AcDbEntity
  8
SEIHIN
100
AcDbLine
 10
125.2815615092059
 20
221.5481999448637
 30
0.0
 11
125.2815615092059
 21
217.2393119248637
 31
0.0
  0
LINE
  5
2E9E
330
1A
100
AcDbEntity
  8
SEIHIN
100
AcDbLine
 10
128.0203515242059
 20
215.1216822948637
 30
0.0
 11
128.0203515242059
 21
223.6658295748637
 31
0.0
  0
LINE
  5
2E9F
330
1A
100
AcDbEntity
  8
SEIHIN
100
AcDbLine
 10
126.872785817206
 20
215.1216822948637
 30
0.0
 11
126.872785817206
 21
223.6658295748637
 31
0.0
  0
LINE
  5
2EA0
330
1A
100
AcDbEntity
  8
SEIHIN
100
AcDbLine
 10
121.558411148706
 20
216.2393119248637
 30
0.0
 11
121.558411148706
 21
222.5481999448637
 31
0.0
  0
ARC
  5
2EA1
330
1A
100
AcDbEntity
  8
SEIHIN
100
AcDbCircle
 10
123.2815615092059
 20
217.2393119248637
 30
0.0
 40
2.0
100
AcDbArc
 50
270.0
 51
0.0
  0
ARC
  5
2EA2
330
1A
100
AcDbEntity
  8
SEIHIN
100
AcDbCircle
 10
124.872785817206
 20
215.1216822948637
 30
0.0
 40
2.0
100
AcDbArc
 50
270.0
 51
0.0
  0
LINE
  5
2EA3
330
1A
100
AcDbEntity
  8
SEIHIN
100
AcDbLine
 10
122.1390972300141
 20
212.8937559348637
 30
0.0
 11
122.1390972300141
 21
211.8937559348637
 31
0.0
  0
LINE
  5
2EA4
330
1A
100
AcDbEntity
  8
SEIHIN
100
AcDbLine
 10
117.614068426206
 20
211.3937559348637
 30
0.0
 11
117.614068426206
 21
211.8937559348637
 31
0.0
  0
ARC
  5
2EA5
330
1A
100
AcDbEntity
  8
SEIHIN
100
AcDbCircle
 10
126.0203515242059
 20
215.1216822948637
 30
0.0
 40
2.0
100
AcDbArc
 50
270.0
 51
0.0
  0
ARC
  5
2EA6
330
1A
100
AcDbEntity
  8
SEIHIN
100
AcDbCircle
 10
126.0203515242059
 20
215.1216822948637
 30
0.0
 40
2.0
100
AcDbArc
 50
270.0
 51
0.0
  0
ARC
  5
2EA7
330
1A
100
AcDbEntity
  8
SEIHIN
100
AcDbCircle
 10
124.872785817206
 20
223.6658295748637
 30
0.0
 40
2.0
100
AcDbArc
 50
0.0
 51
90.0
  0
ARC
  5
2EA8
330
1A
100
AcDbEntity
  8
SEIHIN
100
AcDbCircle
 10
123.2815615092059
 20
221.5481999448637
 30
0.0
 40
2.000000014999997
100
AcDbArc
 50
0.0
 51
90.0
  0
LINE
  5
2EA9
330
1A
100
AcDbEntity
  8
SEIHIN
100
AcDbLine
 10
117.614068426206
 20
226.8937559748637
 30
0.0
 11
117.614068426206
 21
227.3937559748637
 31
0.0
  0
LINE
  5
2EAA
330
1A
100
AcDbEntity
  8
SEIHIN
100
AcDbLine
 10
122.1390972300141
 20
226.8937559748637
 30
0.0
 11
122.1390972300141
 21
225.8937559748638
 31
0.0
  0
ARC
  5
2EAB
330
1A
100
AcDbEntity
  8
SEIHIN
100
AcDbCircle
 10
126.0203515242059
 20
223.6658295748637
 30
0.0
 40
2.0
100
AcDbArc
 50
0.0
 51
90.0
  0
ARC
  5
2EAC
330
1A
100
AcDbEntity
  8
SEIHIN
100
AcDbCircle
 10
126.0203515242059
 20
223.6658295748637
 30
0.0
 40
2.0
100
AcDbArc
 50
0.0
 51
90.0
  0
LINE
  5
2EAD
330
1A
100
AcDbEntity
  8
SEIHIN
100
AcDbLine
 10
192.553851904206
 20
192.8937559348637
 30
0.0
 11
192.553851904206
 21
209.5707043448637
 31
0.0
  0
LINE
  5
2EAE
330
1A
100
AcDbEntity
  8
SEIHIN
100
AcDbLine
 10
193.7538519042059
 20
209.5707043448637
 30
0.0
 11
193.7538519042059
 21
192.8937559348637
 31
0.0
  0
LINE
  5
2EAF
330
1A
100
AcDbEntity
  8
SEIHIN
100
AcDbLine
 10
193.7538519042059
 20
192.8937559348637
 30
0.0
 11
192.553851904206
 21
192.8937559348637
 31
0.0
  0
ARC
  5
2EB0
330
1A
100
AcDbEntity
  8
SEIHIN
100
AcDbCircle
 10
177.9652636812009
 20
219.3937559348637
 30
0.0
 40
3.764860600675945
100
AcDbArc
 50
127.170391090011
 51
232.8296089099889
  0
LINE
  5
2EB1
330
1A
100
AcDbEntity
  8
SEIHIN
100
AcDbLine
 10
173.914441065559
 20
212.8937559348637
 30
0.0
 11
173.914441065559
 21
211.8937559348637
 31
0.0
  0
LINE
  5
2EB2
330
1A
100
AcDbEntity
  8
SEIHIN
100
AcDbLine
 10
175.690582309553
 20
212.8937559348637
 30
0.0
 11
175.690582309553
 21
216.3937559348637
 31
0.0
  0
LINE
  5
2EB3
330
1A
100
AcDbEntity
  8
SEIHIN
100
AcDbLine
 10
173.914441065559
 20
226.8937559748637
 30
0.0
 11
173.914441065559
 21
225.8937559748638
 31
0.0
  0
LINE
  5
2EB4
330
1A
100
AcDbEntity
  8
SEIHIN
100
AcDbLine
 10
175.690582309553
 20
222.3937559348637
 30
0.0
 11
175.690582309553
 21
225.8937559748637
 31
0.0
  0
ARC
  5
2EB5
330
1A
100
AcDbEntity
  8
SEIHIN
100
AcDbCircle
 10
189.253852294206
 20
219.3937559348637
 30
0.0
 40
3.000000000000029
100
AcDbArc
 50
270.0000061115495
 51
90.00000954929655
  0
LINE
  5
2EB6
330
1A
100
AcDbEntity
  8
CENTER_L
100
AcDbLine
 10
185.553851904206
 20
199.8937559548637
 30
0.0
 11
200.7538519042059
 21
199.8937559548637
 31
0.0
  0
LINE
  5
2EB7
330
1A
100
AcDbEntity
  8
CENTER_L
100
AcDbLine
 10
185.553851904206
 20
198.3937559548637
 30
0.0
 11
200.7538519042059
 21
198.3937559548637
 31
0.0
  0
LINE
  5
2EB8
330
1A
100
AcDbEntity
  8
SEIHIN
100
AcDbLine
 10
192.553851904206
 20
207.9728144348637
 30
0.0
 11
190.5538519042059
 21
210.3145135748637
 31
0.0
  0
LINE
  5
2EB9
330
1A
100
AcDbEntity
  8
SEIHIN
100
AcDbLine
 10
188.4879133142059
 20
210.6417260948637
 30
0.0
 11
192.132069134206
 21
210.0645485148637
 31
0.0
  0
LINE
  5
2EBA
330
1A
100
AcDbEntity
  8
SEIHIN
100
AcDbLine
 10
188.6756346742059
 20
211.8269521048637
 30
0.0
 11
192.319790494206
 21
211.2497745248637
 31
0.0
  0
ARC
  5
2EBB
330
1A
100
AcDbEntity
  8
SEIHIN
100
AcDbCircle
 10
188.7538519042059
 20
212.3207962748637
 30
0.0
 40
0.499999998318523
100
AcDbArc
 50
238.6583206989034
 51
261.0000002798936
  0
ARC
  5
2EBC
330
1A
100
AcDbEntity
  8
SEIHIN
100
AcDbCircle
 10
188.7538519042059
 20
212.3207962748637
 30
0.0
 40
1.700000000774792
100
AcDbArc
 50
194.5485451942491
 51
261.0000000241312
  0
LINE
  5
2EBD
330
1A
100
AcDbEntity
  8
SEIHIN
100
AcDbLine
 10
189.2538519042059
 20
216.3937559348637
 30
0.0
 11
189.2538519042059
 21
212.8937559348637
 31
0.0
  0
LINE
  5
2EBE
330
1A
100
AcDbEntity
  8
SEIHIN
100
AcDbLine
 10
189.653851904206
 20
215.2229397948637
 30
0.0
 11
189.653851904206
 21
216.4205421348637
 31
0.0
  0
ARC
  5
2EBF
330
1A
100
AcDbEntity
  8
SEIHIN
100
AcDbCircle
 10
188.653851904206
 20
215.2229397948637
 30
0.0
 40
0.9999999999999971
100
AcDbArc
 50
306.8698976458435
 51
0.0
  0
LINE
  5
2EC0
330
1A
100
AcDbEntity
  8
SEIHIN
100
AcDbLine
 10
193.2538519042059
 20
211.8937559348637
 30
0.0
 11
193.2538519042059
 21
212.8937559348637
 31
0.0
  0
ARC
  5
2EC1
330
1A
100
AcDbEntity
  8
SEIHIN
100
AcDbCircle
 10
192.0538519042059
 20
209.5707043448637
 30
0.0
 40
0.4999999996559329
100
AcDbArc
 50
0.0
 51
81.00000027989365
  0
ARC
  5
2EC2
330
1A
100
AcDbEntity
  8
SEIHIN
100
AcDbCircle
 10
192.0538519042059
 20
209.5707043448637
 30
0.0
 40
1.700000000443591
100
AcDbArc
 50
0.0
 51
81.00000002413118
  0
LINE
  5
2EC3
330
1A
100
AcDbEntity
  8
CENTER_L
100
AcDbLine
 10
185.553851904206
 20
238.8937559548637
 30
0.0
 11
200.7538519042059
 21
238.8937559548637
 31
0.0
  0
LINE
  5
2EC4
330
1A
100
AcDbEntity
  8
CENTER_L
100
AcDbLine
 10
185.553851904206
 20
240.3937559548637
 30
0.0
 11
200.7538519042059
 21
240.3937559548637
 31
0.0
  0
LINE
  5
2EC5
330
1A
100
AcDbEntity
  8
SEIHIN
100
AcDbLine
 10
192.553851904206
 20
230.8146974748637
 30
0.0
 11
190.5538519042059
 21
228.4729982748637
 31
0.0
  0
LINE
  5
2EC6
330
1A
100
AcDbEntity
  8
SEIHIN
100
AcDbLine
 10
188.4879133142059
 20
228.1457857748637
 30
0.0
 11
192.132069134206
 21
228.7229633748637
 31
0.0
  0
LINE
  5
2EC7
330
1A
100
AcDbEntity
  8
SEIHIN
100
AcDbLine
 10
188.6756346742059
 20
226.9605597748638
 30
0.0
 11
192.319790494206
 21
227.5377373748637
 31
0.0
  0
LINE
  5
2EC8
330
1A
100
AcDbEntity
  8
SEIHIN
100
AcDbLine
 10
189.2538519042059
 20
222.3937559348637
 30
0.0
 11
189.2538519042059
 21
225.8937559748637
 31
0.0
  0
LINE
  5
2EC9
330
1A
100
AcDbEntity
  8
SEIHIN
100
AcDbLine
 10
189.653851904206
 20
223.5645720748637
 30
0.0
 11
189.653851904206
 21
222.3669697348637
 31
0.0
  0
ARC
  5
2ECA
330
1A
100
AcDbEntity
  8
SEIHIN
100
AcDbCircle
 10
188.653851904206
 20
223.5645720748637
 30
0.0
 40
0.9999999999999971
100
AcDbArc
 50
0.0
 51
53.13010235415639
  0
ARC
  5
2ECB
330
1A
100
AcDbEntity
  8
SEIHIN
100
AcDbCircle
 10
188.7538519042059
 20
226.4667155748637
 30
0.0
 40
1.700000018187683
100
AcDbArc
 50
98.99999987042138
 51
165.4514528483881
  0
ARC
  5
2ECC
330
1A
100
AcDbEntity
  8
SEIHIN
100
AcDbCircle
 10
188.7538519042059
 20
226.4667155748637
 30
0.0
 40
0.5000000387562692
100
AcDbArc
 50
98.99999918232442
 51
121.3416757248727
  0
LINE
  5
2ECD
330
1A
100
AcDbEntity
  8
SEIHIN
100
AcDbLine
 10
193.2538519042059
 20
226.8937559748637
 30
0.0
 11
193.2538519042059
 21
225.8937559748637
 31
0.0
  0
ARC
  5
2ECE
330
1A
100
AcDbEntity
  8
SEIHIN
100
AcDbCircle
 10
192.0538519042059
 20
229.2168074748637
 30
0.0
 40
0.4999999650868415
100
AcDbArc
 50
279.0000009749314
 51
0.0
  0
ARC
  5
2ECF
330
1A
100
AcDbEntity
  8
SEIHIN
100
AcDbCircle
 10
192.0538519042059
 20
229.2168074748637
 30
0.0
 40
1.699999960936061
100
AcDbArc
 50
279.0000003976588
 51
0.0
  0
LINE
  5
2ED0
330
1A
100
AcDbEntity
  8
SEIHIN
100
AcDbLine
 10
193.7538519042059
 20
245.8937559748637
 30
0.0
 11
192.553851904206
 21
245.8937559748637
 31
0.0
  0
DIMENSION
  5
2ED1
330
1A
100
AcDbEntity
  8
SUNPOU
100
AcDbDimension
  2
*D9
 10
350.8764652415495
 20
166.8161516521131
 30
0.0
 11
324.3764652415495
 21
169.3161516521131
 31
0.0
 70
    32
  3
STANDARD
100
AcDbAlignedDimension
 13
297.8764652415495
 23
113.8420598622617
 33
0.0
 14
350.8764652415495
 24
113.8420598622617
 34
0.0
100
AcDbRotatedDimension
1001
ACAD
1000
DSTYLE
1002
{
1070
    41
1040
3.0
1070
    42
1040
3.0
1070
    43
1040
7.0
1070
    44
1040
1.5
1070
    73
1070
     0
1070
    74
1070
     0
1070
    77
1070
     3
1070
   140
1040
3.0
1070
   141
1040
3.0
1070
   147
1040
1.0
1070
   172
1070
     1
1070
   173
1070
     1
1070
   176
1070
   256
1070
   177
1070
   256
1070
   178
1070
   256
1070
   271
1070
     0
1070
   272
1070
     0
1070
   341
1005
B2
1070
     6
1000
OPEN
1070
     7
1000
OPEN
1002
}
  0
DIMENSION
  5
2ED2
330
1A
100
AcDbEntity
  8
SUNPOU
100
AcDbDimension
  2
*D10
 10
345.3764652415495
 20
158.8758490884706
 30
0.0
 11
324.3764652415495
 21
161.3758490884706
 31
0.0
 70
    32
  3
STANDARD
100
AcDbAlignedDimension
 13
303.3764652415495
 23
116.4420598339891
 33
0.0
 14
345.3764652415495
 24
116.4420598339891
 34
0.0
100
AcDbRotatedDimension
1001
ACAD
1000
DSTYLE
1002
{
1070
    41
1040
3.0
1070
    42
1040
3.0
1070
    43
1040
7.0
1070
    44
1040
1.5
1070
    73
1070
     0
1070
    74
1070
     0
1070
    77
1070
     3
1070
   140
1040
3.0
1070
   141
1040
3.0
1070
   147
1040
1.0
1070
   172
1070
     1
1070
   173
1070
     1
1070
   176
1070
   256
1070
   177
1070
   256
1070
   178
1070
   256
1070
   271
1070
     0
1070
   272
1070
     0
1070
   341
1005
B2
1070
     6
1000
OPEN
1070
     7
1000
OPEN
1002
}
  0
DIMENSION
  5
2ED3
330
1A
100
AcDbEntity
  8
SUNPOU
100
AcDbDimension
  2
*D11
 10
343.8764652415495
 20
150.4543165388631
 30
0.0
 11
324.3764652415495
 21
152.9543165388631
 31
0.0
 70
    32
  3
STANDARD
100
AcDbAlignedDimension
 13
304.8764652415495
 23
108.8723660569896
 33
0.0
 14
343.8764652415495
 24
108.8723660569896
 34
0.0
100
AcDbRotatedDimension
1001
ACAD
1000
DSTYLE
1002
{
1070
    41
1040
3.0
1070
    42
1040
3.0
1070
    43
1040
7.0
1070
    44
1040
1.5
1070
    73
1070
     0
1070
    74
1070
     0
1070
    77
1070
     3
1070
   140
1040
3.0
1070
   141
1040
3.0
1070
   147
1040
1.0
1070
   172
1070
     1
1070
   173
1070
     1
1070
   176
1070
   256
1070
   177
1070
   256
1070
   178
1070
   256
1070
   271
1070
     0
1070
   272
1070
     0
1070
   341
1005
B2
1070
     6
1000
OPEN
1070
     7
1000
OPEN
1002
}
  0
LINE
  5
2ED4
330
1A
100
AcDbEntity
  8
CENTER_L
100
AcDbLine
 10
351.1264652141756
 20
101.8420598622617
 30
0.0
 11
336.6264652689234
 21
101.8420598622617
 31
0.0
  0
LINE
  5
2ED5
330
1A
100
AcDbEntity
  8
CENTER_L
100
AcDbLine
 10
351.476465213277
 20
85.34205986226174
 30
0.0
 11
339.2764652698221
 21
85.34205986226174
 31
0.0
  0
LINE
  5
2ED6
330
1A
100
AcDbEntity
  8
CENTER_L
100
AcDbLine
 10
351.476465213277
 20
110.3420598622617
 30
0.0
 11
339.2764652698221
 21
110.3420598622617
 31
0.0
  0
CIRCLE
  5
2ED7
330
1A
100
AcDbEntity
  8
SEIHIN
100
AcDbCircle
 10
345.3764652415495
 20
110.3420598622617
 30
0.0
 40
2.099999971727392
  0
LINE
  5
2ED8
330
1A
100
AcDbEntity
  8
SEIHIN
100
AcDbLine
 10
331.8764652415495
 20
115.8420598622617
 30
0.0
 11
348.8764652415495
 21
115.8420598622617
 31
0.0
  0
CIRCLE
  5
2ED9
330
1A
100
AcDbEntity
  8
SEIHIN
100
AcDbCircle
 10
343.8764652415495
 20
101.8420598622617
 30
0.0
 40
3.249999972626095
  0
CIRCLE
  5
2EDA
330
1A
100
AcDbEntity
  8
SEIHIN
100
AcDbCircle
 10
345.3764652415495
 20
85.34205986226174
 30
0.0
 40
2.099999986565493
  0
LINE
  5
2EDB
330
1A
100
AcDbEntity
  8
SEIHIN
100
AcDbLine
 10
348.8764652415495
 20
79.84205986226175
 30
0.0
 11
299.8764652415495
 21
79.84205986226175
 31
0.0
  0
TEXT
  5
2EDC
330
1A
100
AcDbEntity
  8
SUNPOU
100
AcDbText
 10
269.9193290653362
 20
141.7358601849923
 30
0.0
 40
3.0
  1
4-φ4.2
100
AcDbText
  0
LWPOLYLINE
  5
2EDD
330
1A
100
AcDbEntity
  8
SUNPOU
100
AcDbPolyline
 90
        3
 70
     0
 43
0.0
 10
300.3212693243253
 20
114.3844904341864
 10
287.0009603388148
 20
140.3484769870045
 10
269.0148165640839
 20
140.3484769870045
1001
ACAD
1000
DSTYLE
1002
{
1070
    41
1040
3.0
1070
    42
1040
3.0
1070
    43
1040
7.0
1070
    44
1040
1.5
1070
    73
1070
     0
1070
    74
1070
     0
1070
    77
1070
     0
1070
   140
1040
3.0
1070
   141
1040
3.0
1070
   147
1040
1.0
1070
   172
1070
     1
1070
   173
1070
     1
1070
   176
1070
   256
1070
   177
1070
   256
1070
   178
1070
   256
1070
   271
1070
     0
1070
   272
1070
     0
1070
   341
1005
B2
1070
   343
1005
B2
1070
   344
1005
B2
1002
}
  0
DIMENSION
  5
2EDE
330
1A
100
AcDbEntity
  8
SUNPOU
100
AcDbDimension
  2
*D12
 10
269.9031106758056
 20
79.84205986226176
 30
0.0
 11
267.4031106758056
 21
97.84205986226181
 31
0.0
 70
    32
  3
STANDARD
100
AcDbAlignedDimension
 13
299.8764652415495
 23
115.8420598622617
 33
0.0
 14
299.8764652415495
 24
79.84205986226175
 34
0.0
 50
90.0
100
AcDbRotatedDimension
1001
ACAD
1000
DSTYLE
1002
{
1070
    41
1040
3.0
1070
    42
1040
3.0
1070
    43
1040
7.0
1070
    44
1040
1.5
1070
    73
1070
     0
1070
    74
1070
     0
1070
    77
1070
     3
1070
   140
1040
3.0
1070
   141
1040
3.0
1070
   147
1040
1.0
1070
   172
1070
     1
1070
   173
1070
     1
1070
   176
1070
   256
1070
   177
1070
   256
1070
   178
1070
   256
1070
   271
1070
     0
1070
   272
1070
     0
1070
   341
1005
B2
1070
     6
1000
OPEN
1070
     7
1000
OPEN
1002
}
  0
DIMENSION
  5
2EDF
330
1A
100
AcDbEntity
  8
SUNPOU
100
AcDbDimension
  2
*D13
 10
279.7765160383991
 20
79.84205986226176
 30
0.0
 11
277.2765160383991
 21
82.59205986226181
 31
0.0
 70
    32
  3
STANDARD
100
AcDbAlignedDimension
 13
297.2764652698221
 23
85.34205986226174
 33
0.0
 14
299.8764652415495
 24
79.84205986226175
 34
0.0
 50
90.0
100
AcDbRotatedDimension
1001
ACAD
1000
DSTYLE
1002
{
1070
    41
1040
3.0
1070
    42
1040
3.0
1070
    43
1040
7.0
1070
    44
1040
1.5
1070
    73
1070
     0
1070
    74
1070
     0
1070
    77
1070
     3
1070
   140
1040
3.0
1070
   141
1040
3.0
1070
   147
1040
1.0
1070
   172
1070
     1
1070
   173
1070
     1
1070
   176
1070
   256
1070
   177
1070
   256
1070
   178
1070
   256
1070
   271
1070
     0
1070
   272
1070
     0
1070
   341
1005
B2
1070
     6
1000
OPEN
1070
     7
1000
OPEN
1002
}
  0
DIMENSION
  5
2EE0
330
1A
100
AcDbEntity
  8
SUNPOU
100
AcDbDimension
  2
*D14
 10
279.7765160383992
 20
110.3420598622617
 30
0.0
 11
277.2765160383992
 21
113.0920598622618
 31
0.0
 70
    32
  3
STANDARD
100
AcDbAlignedDimension
 13
299.8764652415495
 23
115.8420598622617
 33
0.0
 14
297.2764652698221
 24
110.3420598622617
 34
0.0
 50
90.0
100
AcDbRotatedDimension
1001
ACAD
1000
DSTYLE
1002
{
1070
    41
1040
3.0
1070
    42
1040
3.0
1070
    43
1040
7.0
1070
    44
1040
1.5
1070
    73
1070
     0
1070
    74
1070
     0
1070
    77
1070
     3
1070
   140
1040
3.0
1070
   141
1040
3.0
1070
   147
1040
1.0
1070
   172
1070
     1
1070
   173
1070
     1
1070
   176
1070
   256
1070
   177
1070
   256
1070
   178
1070
   256
1070
   271
1070
     0
1070
   272
1070
     0
1070
   341
1005
B2
1070
     6
1000
OPEN
1070
     7
1000
OPEN
1002
}
  0
LINE
  5
2EE1
330
1A
100
AcDbEntity
  8
CENTER_L
100
AcDbLine
 10
324.3764652415495
 20
138.8420598622617
 30
0.0
 11
324.3764652415495
 21
72.84205986226175
 31
0.0
  0
LINE
  5
2EE2
330
1A
100
AcDbEntity
  8
CENTER_L
100
AcDbLine
 10
343.8764652415495
 20
94.59205988963567
 30
0.0
 11
343.8764652415495
 21
109.0920598348878
 31
0.0
  0
LINE
  5
2EE3
330
1A
100
AcDbEntity
  8
CENTER_L
100
AcDbLine
 10
304.8764652415495
 20
94.59205988963567
 30
0.0
 11
304.8764652415495
 21
109.0920598348878
 31
0.0
  0
LINE
  5
2EE4
330
1A
100
AcDbEntity
  8
SEIHIN
100
AcDbLine
 10
332.7475796415495
 20
106.3420598622617
 30
0.0
 11
332.7475796415495
 21
89.34205986226174
 31
0.0
  0
LINE
  5
2EE5
330
1A
100
AcDbEntity
  8
SEIHIN
100
AcDbLine
 10
331.8764652415495
 20
106.3420598622617
 30
0.0
 11
331.8764652415495
 21
89.34205986226174
 31
0.0
  0
CIRCLE
  5
2EE6
330
1A
100
AcDbEntity
  8
SEIHIN
100
AcDbCircle
 10
304.8764652415495
 20
101.8420598622617
 30
0.0
 40
3.249999972626075
  0
LINE
  5
2EE7
330
1A
100
AcDbEntity
  8
SEIHIN
100
AcDbLine
 10
316.0053508415495
 20
106.3420598622617
 30
0.0
 11
316.0053508415495
 21
89.34205986226174
 31
0.0
  0
LINE
  5
2EE8
330
1A
100
AcDbEntity
  8
SEIHIN
100
AcDbLine
 10
297.8764652415495
 20
113.8420598622617
 30
0.0
 11
297.8764652415495
 21
81.84205986226174
 31
0.0
  0
LINE
  5
2EE9
330
1A
100
AcDbEntity
  8
SEIHIN
100
AcDbLine
 10
316.8764652415495
 20
106.3420598622617
 30
0.0
 11
316.8764652415495
 21
89.34205986226174
 31
0.0
  0
ARC
  5
2EEA
330
1A
100
AcDbEntity
  8
SEIHIN
100
AcDbCircle
 10
324.3764652415495
 20
97.84205986226176
 30
0.0
 40
5.024896822470276
100
AcDbArc
 50
126.6572807698119
 51
53.34271923018806
  0
LINE
  5
2EEB
330
1A
100
AcDbEntity
  8
SEIHIN
100
AcDbLine
 10
321.3764652415495
 20
126.8278399722617
 30
0.0
 11
321.3764652415495
 21
101.8731376432617
 31
0.0
  0
LINE
  5
2EEC
330
1A
100
AcDbEntity
  8
SEIHIN
100
AcDbLine
 10
327.3764652415495
 20
126.8278400122617
 30
0.0
 11
327.3764652415495
 21
101.8731376432617
 31
0.0
  0
LINE
  5
2EED
330
1A
100
AcDbEntity
  8
SEIHIN
100
AcDbLine
 10
330.8764652415495
 20
84.75536168226176
 30
0.0
 11
330.8764652415495
 21
131.8420598622617
 31
0.0
  0
LINE
  5
2EEE
330
1A
100
AcDbEntity
  8
SEIHIN
100
AcDbLine
 10
317.8764652415495
 20
84.75536168226176
 30
0.0
 11
317.8764652415495
 21
131.8420598622617
 31
0.0
  0
LINE
  5
2EEF
330
1A
100
AcDbEntity
  8
SEIHIN
100
AcDbLine
 10
331.8764652415495
 20
84.75536168226176
 30
0.0
 11
331.8764652415495
 21
131.8420598622617
 31
0.0
  0
LINE
  5
2EF0
330
1A
100
AcDbEntity
  8
SEIHIN
100
AcDbLine
 10
316.8764652415495
 20
84.75536168226176
 30
0.0
 11
316.8764652415495
 21
131.8420598622617
 31
0.0
  0
LINE
  5
2EF1
330
1A
100
AcDbEntity
  8
SEIHIN
100
AcDbLine
 10
313.3982271415495
 20
89.34205986226174
 30
0.0
 11
316.8764652415495
 21
89.34205986226174
 31
0.0
  0
LINE
  5
2EF2
330
1A
100
AcDbEntity
  8
SEIHIN
100
AcDbLine
 10
313.3982271415495
 20
86.34205986226175
 30
0.0
 11
317.8764652415495
 21
86.34205986226175
 31
0.0
  0
LINE
  5
2EF3
330
1A
100
AcDbEntity
  8
CENTER_L
100
AcDbLine
 10
303.3764652415495
 20
79.24205989053437
 30
0.0
 11
303.3764652415495
 21
91.44205983398913
 31
0.0
  0
ARC
  5
2EF4
330
1A
100
AcDbEntity
  8
SEIHIN
100
AcDbCircle
 10
299.8764652415495
 20
81.84205986226174
 30
0.0
 40
2.0
100
AcDbArc
 50
180.0
 51
270.0
  0
LINE
  5
2EF5
330
1A
100
AcDbEntity
  8
CENTER_L
100
AcDbLine
 10
309.476465213277
 20
85.34205986226174
 30
0.0
 11
297.2764652698221
 21
85.34205986226174
 31
0.0
  0
CIRCLE
  5
2EF6
330
1A
100
AcDbEntity
  8
SEIHIN
100
AcDbCircle
 10
303.3764652415495
 20
85.34205986226174
 30
0.0
 40
2.099999986565482
  0
LINE
  5
2EF7
330
1A
100
AcDbEntity
  8
SEIHIN
100
AcDbLine
 10
313.3982271415495
 20
89.34205986226174
 30
0.0
 11
313.3982271415495
 21
86.34205986226175
 31
0.0
  0
LINE
  5
2EF8
330
1A
100
AcDbEntity
  8
CENTER_L
100
AcDbLine
 10
312.1264652141756
 20
101.8420598622617
 30
0.0
 11
297.6264652689234
 21
101.8420598622617
 31
0.0
  0
LINE
  5
2EF9
330
1A
100
AcDbEntity
  8
CENTER_L
100
AcDbLine
 10
345.3764652415495
 20
79.24205989053437
 30
0.0
 11
345.3764652415495
 21
91.44205983398913
 31
0.0
  0
ARC
  5
2EFA
330
1A
100
AcDbEntity
  8
SEIHIN
100
AcDbCircle
 10
328.8764652415495
 20
84.75536168226176
 30
0.0
 40
2.0
100
AcDbArc
 50
270.0
 51
0.0
  0
LINE
  5
2EFB
330
1A
100
AcDbEntity
  8
SEIHIN
100
AcDbLine
 10
328.8764652415495
 20
82.75536168226176
 30
0.0
 11
319.8764652415495
 21
82.75536168226176
 31
0.0
  0
LINE
  5
2EFC
330
1A
100
AcDbEntity
  8
SEIHIN
100
AcDbLine
 10
316.0053508415495
 20
86.34205986226175
 30
0.0
 11
316.0053508415495
 21
79.84205986226175
 31
0.0
  0
LINE
  5
2EFD
330
1A
100
AcDbEntity
  8
SEIHIN
100
AcDbLine
 10
316.8764652415495
 20
86.34205986226175
 30
0.0
 11
316.8764652415495
 21
79.84205986226175
 31
0.0
  0
ARC
  5
2EFE
330
1A
100
AcDbEntity
  8
SEIHIN
100
AcDbCircle
 10
319.8764652415495
 20
84.75536168226176
 30
0.0
 40
2.0
100
AcDbArc
 50
180.0
 51
270.0
  0
LINE
  5
2EFF
330
1A
100
AcDbEntity
  8
SEIHIN
100
AcDbLine
 10
316.8764652415495
 20
89.34205986226174
 30
0.0
 11
316.8764652415495
 21
86.34205986226175
 31
0.0
  0
CIRCLE
  5
2F00
330
1A
100
AcDbEntity
  8
SEIHIN
100
AcDbCircle
 10
324.3764652415495
 20
97.84205986226176
 30
0.0
 40
2.999999969510066
  0
LINE
  5
2F01
330
1A
100
AcDbEntity
  8
SEIHIN
100
AcDbLine
 10
331.8764652415495
 20
86.34205986226175
 30
0.0
 11
331.8764652415495
 21
79.84205986226175
 31
0.0
  0
LINE
  5
2F02
330
1A
100
AcDbEntity
  8
SEIHIN
100
AcDbLine
 10
332.7475796415495
 20
86.34205986226175
 30
0.0
 11
332.7475796415495
 21
79.84205986226175
 31
0.0
  0
LINE
  5
2F03
330
1A
100
AcDbEntity
  8
SEIHIN
100
AcDbLine
 10
335.3547033415495
 20
86.34205986226175
 30
0.0
 11
330.8764652415495
 21
86.34205986226175
 31
0.0
  0
LINE
  5
2F04
330
1A
100
AcDbEntity
  8
SEIHIN
100
AcDbLine
 10
335.3547033415495
 20
89.34205986226174
 30
0.0
 11
331.8764652415495
 21
89.34205986226174
 31
0.0
  0
LINE
  5
2F05
330
1A
100
AcDbEntity
  8
SEIHIN
100
AcDbLine
 10
331.8764652415495
 20
89.34205986226174
 30
0.0
 11
331.8764652415495
 21
86.34205986226175
 31
0.0
  0
LINE
  5
2F06
330
1A
100
AcDbEntity
  8
SEIHIN
100
AcDbLine
 10
335.3547033415495
 20
89.34205986226174
 30
0.0
 11
335.3547033415495
 21
86.34205986226175
 31
0.0
  0
LINE
  5
2F07
330
1A
100
AcDbEntity
  8
SEIHIN
100
AcDbLine
 10
316.8764652415495
 20
109.3420598622617
 30
0.0
 11
313.3982271415495
 21
109.3420598622617
 31
0.0
  0
LINE
  5
2F08
330
1A
100
AcDbEntity
  8
SEIHIN
100
AcDbLine
 10
316.8764652415495
 20
106.3420598622617
 30
0.0
 11
313.3982271415495
 21
106.3420598622617
 31
0.0
  0
LINE
  5
2F09
330
1A
100
AcDbEntity
  8
SEIHIN
100
AcDbLine
 10
316.8764652415495
 20
115.8420598622617
 30
0.0
 11
299.8764652415495
 21
115.8420598622617
 31
0.0
  0
LINE
  5
2F0A
330
1A
100
AcDbEntity
  8
CENTER_L
100
AcDbLine
 10
309.476465213277
 20
110.3420598622617
 30
0.0
 11
297.2764652698221
 21
110.3420598622617
 31
0.0
  0
INSERT
  5
2F0B
330
1A
100
AcDbEntity
  8
SUNPOU
100
AcDbBlockReference
  2
_OPEN
 10
301.6906623879945
 20
111.7152653336797
 30
0.0
 41
2.999999999999996
 42
3.0
 43
3.0
 50
297.1591930257299
1001
ACAD
1000
DSTYLE
1002
{
1070
    41
1040
3.0
1070
    42
1040
3.0
1070
    43
1040
7.0
1070
    44
1040
1.5
1070
    73
1070
     0
1070
    74
1070
     0
1070
    77
1070
     0
1070
   140
1040
3.0
1070
   141
1040
3.0
1070
   147
1040
1.0
1070
   172
1070
     1
1070
   173
1070
     1
1070
   176
1070
   256
1070
   177
1070
   256
1070
   178
1070
   256
1070
   271
1070
     0
1070
   272
1070
     0
1070
   341
1005
B2
1070
   343
1005
B2
1070
   344
1005
B2
1002
}
  0
LINE
  5
2F0C
330
1A
100
AcDbEntity
  8
CENTER_L
100
AcDbLine
 10
303.3764652415495
 20
104.2420598905343
 30
0.0
 11
303.3764652415495
 21
116.4420598339891
 31
0.0
  0
ARC
  5
2F0D
330
1A
100
AcDbEntity
  8
SEIHIN
100
AcDbCircle
 10
299.8764652415495
 20
113.8420598622617
 30
0.0
 40
2.0
100
AcDbArc
 50
90.0
 51
180.0
  0
CIRCLE
  5
2F0E
330
1A
100
AcDbEntity
  8
SEIHIN
100
AcDbCircle
 10
303.3764652415495
 20
110.3420598622617
 30
0.0
 40
2.099999971727392
  0
LINE
  5
2F0F
330
1A
100
AcDbEntity
  8
SEIHIN
100
AcDbLine
 10
313.3982271415495
 20
109.3420598622617
 30
0.0
 11
313.3982271415495
 21
106.3420598622617
 31
0.0
  0
LINE
  5
2F10
330
1A
100
AcDbEntity
  8
SEIHIN
100
AcDbLine
 10
316.0053508415495
 20
115.8420598622617
 30
0.0
 11
316.0053508415495
 21
109.3420598622617
 31
0.0
  0
LINE
  5
2F11
330
1A
100
AcDbEntity
  8
SEIHIN
100
AcDbLine
 10
316.8764652415495
 20
115.8420598622617
 30
0.0
 11
316.8764652415495
 21
109.3420598622617
 31
0.0
  0
LINE
  5
2F12
330
1A
100
AcDbEntity
  8
SEIHIN
100
AcDbLine
 10
316.8764652415495
 20
109.3420598622617
 30
0.0
 11
316.8764652415495
 21
106.3420598622617
 31
0.0
  0
LINE
  5
2F13
330
1A
100
AcDbEntity
  8
CENTER_L
100
AcDbLine
 10
345.3764652415495
 20
104.2420598905343
 30
0.0
 11
345.3764652415495
 21
116.4420598339891
 31
0.0
  0
LINE
  5
2F14
330
1A
100
AcDbEntity
  8
SEIHIN
100
AcDbLine
 10
332.7475796415495
 20
115.8420598622617
 30
0.0
 11
332.7475796415495
 21
109.3420598622617
 31
0.0
  0
LINE
  5
2F15
330
1A
100
AcDbEntity
  8
SEIHIN
100
AcDbLine
 10
331.8764652415495
 20
115.8420598622617
 30
0.0
 11
331.8764652415495
 21
109.3420598622617
 31
0.0
  0
LINE
  5
2F16
330
1A
100
AcDbEntity
  8
SEIHIN
100
AcDbLine
 10
335.3547033415495
 20
109.3420598622617
 30
0.0
 11
335.3547033415495
 21
106.3420598622617
 31
0.0
  0
LINE
  5
2F17
330
1A
100
AcDbEntity
  8
SEIHIN
100
AcDbLine
 10
331.8764652415495
 20
109.3420598622617
 30
0.0
 11
331.8764652415495
 21
106.3420598622617
 31
0.0
  0
LINE
  5
2F18
330
1A
100
AcDbEntity
  8
SEIHIN
100
AcDbLine
 10
331.8764652415495
 20
106.3420598622617
 30
0.0
 11
335.3547033415495
 21
106.3420598622617
 31
0.0
  0
LINE
  5
2F19
330
1A
100
AcDbEntity
  8
SEIHIN
100
AcDbLine
 10
331.8764652415495
 20
109.3420598622617
 30
0.0
 11
335.3547033415495
 21
109.3420598622617
 31
0.0
  0
LINE
  5
2F1A
330
1A
100
AcDbEntity
  8
SEIHIN
100
AcDbLine
 10
327.3764652415495
 20
126.8278396522617
 30
0.0
 11
330.8764652415495
 21
126.8278396522617
 31
0.0
  0
ARC
  5
2F1B
330
1A
100
AcDbEntity
  8
SEIHIN
100
AcDbCircle
 10
324.3764652415495
 20
126.8278396522617
 30
0.0
 40
3.000000000000019
100
AcDbArc
 50
0.0000068754932962
 51
179.99999388845
  0
LINE
  5
2F1C
330
1A
100
AcDbEntity
  8
SEIHIN
100
AcDbLine
 10
317.8764652415495
 20
126.8278396522617
 30
0.0
 11
321.3764652415495
 21
126.8278396522617
 31
0.0
  0
LINE
  5
2F1D
330
1A
100
AcDbEntity
  8
SEIHIN
100
AcDbLine
 10
316.8764652415495
 20
131.8420598622617
 30
0.0
 11
317.8764652415495
 21
131.8420598622617
 31
0.0
  0
LINE
  5
2F1E
330
1A
100
AcDbEntity
  8
SEIHIN
100
AcDbLine
 10
330.8764652415495
 20
131.8420598622617
 30
0.0
 11
331.8764652415495
 21
131.8420598622617
 31
0.0
  0
DIMENSION
  5
2F1F
330
1A
100
AcDbEntity
  8
SUNPOU
100
AcDbDimension
  2
*D15
 10
366.9514716222292
 20
101.8420598622617
 30
0.0
 11
364.4514716222293
 21
108.8420598622617
 31
0.0
 70
    32
  3
STANDARD
100
AcDbAlignedDimension
 13
348.8764652415495
 23
115.8420598622617
 33
0.0
 14
350.8764652415495
 24
101.8420598622617
 34
0.0
 50
90.0
100
AcDbRotatedDimension
1001
ACAD
1000
DSTYLE
1002
{
1070
    41
1040
3.0
1070
    42
1040
3.0
1070
    43
1040
7.0
1070
    44
1040
1.5
1070
    73
1070
     0
1070
    74
1070
     0
1070
    77
1070
     3
1070
   140
1040
3.0
1070
   141
1040
3.0
1070
   147
1040
1.0
1070
   172
1070
     1
1070
   173
1070
     1
1070
   176
1070
   256
1070
   177
1070
   256
1070
   178
1070
   256
1070
   271
1070
     0
1070
   272
1070
     0
1070
   341
1005
B2
1070
     6
1000
OPEN
1070
     7
1000
OPEN
1002
}
  0
LINE
  5
2F20
330
1A
100
AcDbEntity
  8
SEIHIN
100
AcDbLine
 10
350.8764652415495
 20
113.8420598622617
 30
0.0
 11
350.8764652415495
 21
81.84205986226174
 31
0.0
  0
ARC
  5
2F21
330
1A
100
AcDbEntity
  8
SEIHIN
100
AcDbCircle
 10
348.8764652415495
 20
81.84205986226174
 30
0.0
 40
2.0
100
AcDbArc
 50
270.0
 51
0.0
  0
LWPOLYLINE
  5
2F22
330
1A
100
AcDbEntity
  8
SUNPOU
100
AcDbPolyline
 90
        3
 70
     0
 43
0.0
 10
347.9175116614344
 20
106.3594155362671
 10
357.2032713955075
 20
126.0337457051258
 10
372.3470470414997
 20
126.0337457051258
1001
ACAD
1000
DSTYLE
1002
{
1070
    41
1040
3.0
1070
    42
1040
3.0
1070
    43
1040
7.0
1070
    44
1040
1.5
1070
    73
1070
     0
1070
    74
1070
     0
1070
    77
1070
     0
1070
   140
1040
3.0
1070
   141
1040
3.0
1070
   147
1040
1.0
1070
   172
1070
     1
1070
   173
1070
     1
1070
   176
1070
   256
1070
   177
1070
   256
1070
   178
1070
   256
1070
   271
1070
     0
1070
   272
1070
     0
1070
   341
1005
B2
1070
   343
1005
B2
1070
   344
1005
B2
1002
}
  0
ARC
  5
2F23
330
1A
100
AcDbEntity
  8
SEIHIN
100
AcDbCircle
 10
348.8764652415495
 20
113.8420598622617
 30
0.0
 40
2.0
100
AcDbArc
 50
0.0
 51
90.0
  0
INSERT
  5
2F24
330
1A
100
AcDbEntity
  8
SUNPOU
100
AcDbBlockReference
  2
_OPEN
 10
346.637044828727
 20
103.6464089586237
 30
0.0
 41
2.999999999999998
 42
3.0
 43
3.0
 50
244.7339377342673
1001
ACAD
1000
DSTYLE
1002
{
1070
    41
1040
3.0
1070
    42
1040
3.0
1070
    43
1040
7.0
1070
    44
1040
1.5
1070
    73
1070
     0
1070
    74
1070
     0
1070
    77
1070
     0
1070
   140
1040
3.0
1070
   141
1040
3.0
1070
   147
1040
1.0
1070
   172
1070
     1
1070
   173
1070
     1
1070
   176
1070
   256
1070
   177
1070
   256
1070
   178
1070
   256
1070
   271
1070
     0
1070
   272
1070
     0
1070
   341
1005
B2
1070
   343
1005
B2
1070
   344
1005
B2
1002
}
  0
TEXT
  5
2F25
330
1A
100
AcDbEntity
  8
SUNPOU
100
AcDbText
 10
357.3772472163105
 20
127.8351042101086
 30
0.0
 40
3.0
  1
2-φ6.5
100
AcDbText
  0
VIEWPORT
  5
22
330
17
100
AcDbEntity
 67
     1
  8
0
100
AcDbViewport
 10
313.6808219178082
 20
148.5
 30
0.0
 40
627.3616438356165
 41
297.0
 68
     2
 69
     1
1001
ACAD
1000
MVIEW
1002
{
1070
    16
1010
0.0
1020
0.0
1030
0.0
1010
0.0
1020
0.0
1030
1.0
1040
0.0
1040
297.0
1040
313.6808219178082
1040
148.5
1040
50.0
1040
0.0
1040
0.0
1070
     0
1070
   100
1070
     1
1070
     0
1070
     0
1070
     0
1070
     0
1070
     0
1040
0.0
1040
0.0
1040
0.0
1040
1.0
1040
1.0
1040
10.0
1040
10.0
1070
     0
1002
{
1002
}
1002
}
  0
VIEWPORT
  5
64
330
17
100
AcDbEntity
 67
     1
  8
VIEWPORT
100
AcDbViewport
 10
210.0
 20
148.5
 30
0.0
 40
420.0
 41
297.0
 68
     1
 69
     2
1001
ACAD
1000
MVIEW
1002
{
1070
    16
1010
0.0
1020
0.0
1030
0.0
1010
0.0
1020
0.0
1030
1.0
1040
0.0
1040
302.9399999999998
1040
210.0
1040
148.5
1040
50.0
1040
0.0
1040
0.0
1070
     0
1070
   100
1070
     1
1070
     0
1070
     0
1070
     0
1070
     0
1070
     0
1040
0.0
1040
0.0
1040
0.0
1040
5.0
1040
5.0
1040
0.0
1040
0.0
1070
     0
1002
{
1002
}
1002
}
  0
ENDSEC
  0
SECTION
  2
OBJECTS
  0
DICTIONARY
  5
C
330
0
100
AcDbDictionary
  3
ACAD_GROUP
350
D
  3
ACAD_LAYOUT
350
141
  3
ACAD_MLINESTYLE
350
E
  3
ACAD_PLOTSETTINGS
350
142
  3
ACAD_PLOTSTYLENAME
350
13F
  3
ACADDIM
350
1A14
  3
ACDBVARIABLEDICTIONARY
350
120D
  3
ACDBHEADERROUNDTRIPXREC
350
3070
  0
DICTIONARY
  5
7A2
330
1A
100
AcDbDictionary
280
     1
  3
ACAD_LAYOUTSELFREF
360
3092
  0
DICTIONARY
  5
7A0
330
17
100
AcDbDictionary
280
     1
  3
ACAD_LAYOUTSELFREF
360
3091
  0
DICTIONARY
  5
D
102
{ACAD_REACTORS
330
C
102
}
330
C
100
AcDbDictionary
  0
DICTIONARY
  5
141
102
{ACAD_REACTORS
330
C
102
}
330
C
100
AcDbDictionary
  0
DICTIONARY
  5
E
102
{ACAD_REACTORS
330
C
102
}
330
C
100
AcDbDictionary
  3
STANDARD
350
13
  0
DICTIONARY
  5
142
102
{ACAD_REACTORS
330
C
102
}
330
C
100
AcDbDictionary
  0
ACDBDICTIONARYWDFLT
  5
13F
102
{ACAD_REACTORS
330
C
102
}
330
C
100
AcDbDictionary
281
     1
  3
Normal
350
140
100
AcDbDictionaryWithDefault
340
140
1001
ACAD
1000
TREAT_AS_HARD
1070
     0
1000
TREAT_AS_HARD
1070
     0
1000
TREAT_AS_HARD
1070
     0
1000
TREAT_AS_HARD
1070
     0
1000
TREAT_AS_HARD
1070
     0
1000
TREAT_AS_HARD
1070
     0
1000
TREAT_AS_HARD
1070
     0
1000
TREAT_AS_HARD
1070
     0
1000
TREAT_AS_HARD
1070
     0
1000
TREAT_AS_HARD
1070
     0
1000
TREAT_AS_HARD
1070
     0
  0
XRECORD
  5
1A14
102
{ACAD_REACTORS
330
C
102
}
330
C
100
AcDbXrecord
 90
   990106
  3

 60
     0
 61
     0
 62
     1
 63
     3
 64
     0
 65
     0
 66
     0
 67
     3
 68
     1
 69
     0
 70
     0
 71
     0
 72
     0
 40
0.0
170
     0
340
0
  0
DICTIONARY
  5
120D
102
{ACAD_REACTORS
330
C
102
}
330
C
100
AcDbDictionary
  3
SORTENTS
350
120E
  0
DICTIONARY
  5
3070
102
{ACAD_REACTORS
330
C
102
}
330
C
100
AcDbDictionary
  3
TSTACKALIGN
350
3071
  3
TSTACKSIZE
350
3072
  3
HYPERLINKBASE
350
3073
  3
STYLESHEET
350
3074
  3
LAYOUTDICT
350
3075
  3
PLOTSETDICT
350
3076
  3
PLOTSTYLNAMDICT
350
3077
  3
LWETCUNION
350
3078
  3
INSUNITS
350
3079
  3
CEPSNTYPE
350
307A
  3
FINGERPRINTGUID
350
307B
  3
VERSIONGUID
350
307C
  3
PSVPSCALE
350
307D
  3
DIMSTYLEDATA
350
307E
  3
PUCSORTHOREF
350
307F
  3
PUCSORTHOVIEW
350
3080
  3
PUCSBASE
350
3081
  3
PUCSORGTOP
350
3082
  3
PUCSORGBOTTOM
350
3083
  3
PUCSORGLEFT
350
3084
  3
PUCSORGRIGHT
350
3085
  3
PUCSORGFRONT
350
3086
  3
PUCSORGBACK
350
3087
  3
UCSORTHOREF
350
3088
  3
UCSORTHOVIEW
350
3089
  3
UCSBASE
350
308A
  3
UCSORGTOP
350
308B
  3
UCSORGBOTTOM
350
308C
  3
UCSORGLEFT
350
308D
  3
UCSORGRIGHT
350
308E
  3
UCSORGFRONT
350
308F
  3
UCSORGBACK
350
3090
  0
XRECORD
  5
3092
102
{ACAD_REACTORS
330
7A2
102
}
330
7A2
100
AcDbXrecord
340
1A
  0
XRECORD
  5
3091
102
{ACAD_REACTORS
330
7A0
102
}
330
7A0
100
AcDbXrecord
340
17
  0
MLINESTYLE
  5
13
102
{ACAD_REACTORS
330
E
102
}
330
E
100
AcDbMlineStyle
  2
STANDARD
 70
     0
  3

 62
     0
 51
90.0
 52
90.0
 71
     2
 49
0.5
 62
   256
  6
BYLAYER
 49
-0.5
 62
   256
  6
BYLAYER
  0
ACDBPLACEHOLDER
  5
140
102
{ACAD_REACTORS
330
13F
102
}
330
13F
100
AcDbPlaceHolder
280
     0
  0
DICTIONARYVAR
  5
120E
102
{ACAD_REACTORS
330
120D
102
}
330
120D
100
DictionaryVariables
280
     0
  1
96
  0
XRECORD
  5
3071
102
{ACAD_REACTORS
330
3070
102
}
330
3070
100
AcDbXrecord
 90
        1
  0
XRECORD
  5
3072
102
{ACAD_REACTORS
330
3070
102
}
330
3070
100
AcDbXrecord
 90
       70
  0
XRECORD
  5
3073
102
{ACAD_REACTORS
330
3070
102
}
330
3070
100
AcDbXrecord
  1

  0
XRECORD
  5
3074
102
{ACAD_REACTORS
330
3070
102
}
330
3070
100
AcDbXrecord
  1
systemprinter.ctb
  0
XRECORD
  5
3075
102
{ACAD_REACTORS
330
3070
102
}
330
3070
100
AcDbXrecord
340
141
  0
XRECORD
  5
3076
102
{ACAD_REACTORS
330
3070
102
}
330
3070
100
AcDbXrecord
340
142
  0
XRECORD
  5
3077
102
{ACAD_REACTORS
330
3070
102
}
330
3070
100
AcDbXrecord
340
13F
  0
XRECORD
  5
3078
102
{ACAD_REACTORS
330
3070
102
}
330
3070
100
AcDbXrecord
 90
    10781
  0
XRECORD
  5
3079
102
{ACAD_REACTORS
330
3070
102
}
330
3070
100
AcDbXrecord
 90
        0
  0
XRECORD
  5
307A
102
{ACAD_REACTORS
330
3070
102
}
330
3070
100
AcDbXrecord
 90
        0
  0
XRECORD
  5
307B
102
{ACAD_REACTORS
330
3070
102
}
330
3070
100
AcDbXrecord
  1
{4E8D0500-CDD1-11D3-932C-444553540000}
  0
XRECORD
  5
307C
102
{ACAD_REACTORS
330
3070
102
}
330
3070
100
AcDbXrecord
  1
{93D289D9-C978-420C-A7CA-398CE85EAEE0}
  0
XRECORD
  5
307D
102
{ACAD_REACTORS
330
3070
102
}
330
3070
100
AcDbXrecord
 40
0.0
  0
XRECORD
  5
307E
102
{ACAD_REACTORS
330
3070
102
}
330
3070
100
AcDbXrecord
1000
DSTYLE
1002
{
1070
   341
340
B2
1070
   343
340
B2
1070
   344
340
B2
1070
   371
 70
    -1
1070
   372
 70
    -1
1002
}
  0
XRECORD
  5
307F
102
{ACAD_REACTORS
330
3070
102
}
330
3070
100
AcDbXrecord
340
0
  0
XRECORD
  5
3080
102
{ACAD_REACTORS
330
3070
102
}
330
3070
100
AcDbXrecord
 70
     0
  0
XRECORD
  5
3081
102
{ACAD_REACTORS
330
3070
102
}
330
3070
100
AcDbXrecord
340
0
  0
XRECORD
  5
3082
102
{ACAD_REACTORS
330
3070
102
}
330
3070
100
AcDbXrecord
 10
0.0
 20
0.0
 30
0.0
  0
XRECORD
  5
3083
102
{ACAD_REACTORS
330
3070
102
}
330
3070
100
AcDbXrecord
 10
0.0
 20
0.0
 30
0.0
  0
XRECORD
  5
3084
102
{ACAD_REACTORS
330
3070
102
}
330
3070
100
AcDbXrecord
 10
0.0
 20
0.0
 30
0.0
  0
XRECORD
  5
3085
102
{ACAD_REACTORS
330
3070
102
}
330
3070
100
AcDbXrecord
 10
0.0
 20
0.0
 30
0.0
  0
XRECORD
  5
3086
102
{ACAD_REACTORS
330
3070
102
}
330
3070
100
AcDbXrecord
 10
0.0
 20
0.0
 30
0.0
  0
XRECORD
  5
3087
102
{ACAD_REACTORS
330
3070
102
}
330
3070
100
AcDbXrecord
 10
0.0
 20
0.0
 30
0.0
  0
XRECORD
  5
3088
102
{ACAD_REACTORS
330
3070
102
}
330
3070
100
AcDbXrecord
340
0
  0
XRECORD
  5
3089
102
{ACAD_REACTORS
330
3070
102
}
330
3070
100
AcDbXrecord
 70
     0
  0
XRECORD
  5
308A
102
{ACAD_REACTORS
330
3070
102
}
330
3070
100
AcDbXrecord
340
0
  0
XRECORD
  5
308B
102
{ACAD_REACTORS
330
3070
102
}
330
3070
100
AcDbXrecord
 10
0.0
 20
0.0
 30
0.0
  0
XRECORD
  5
308C
102
{ACAD_REACTORS
330
3070
102
}
330
3070
100
AcDbXrecord
 10
0.0
 20
0.0
 30
0.0
  0
XRECORD
  5
308D
102
{ACAD_REACTORS
330
3070
102
}
330
3070
100
AcDbXrecord
 10
0.0
 20
0.0
 30
0.0
  0
XRECORD
  5
308E
102
{ACAD_REACTORS
330
3070
102
}
330
3070
100
AcDbXrecord
 10
0.0
 20
0.0
 30
0.0
  0
XRECORD
  5
308F
102
{ACAD_REACTORS
330
3070
102
}
330
3070
100
AcDbXrecord
 10
0.0
 20
0.0
 30
0.0
  0
XRECORD
  5
3090
102
{ACAD_REACTORS
330
3070
102
}
330
3070
100
AcDbXrecord
 10
0.0
 20
0.0
 30
0.0
  0
ENDSEC
  0
EOF
