  0
SECTION
  2
HEADER
  9
$ACADVER
  1
AC1014
  9
$ACADMAINTVER
 70
     9
  9
$DWGCODEPAGE
  3
ANSI_932
  9
$INSBASE
 10
0.0
 20
0.0
 30
0.0
  9
$EXTMIN
 10
-0.0128165200105741
 20
-0.0090630292066862
 30
-0.0015258207003583
  9
$EXTMAX
 10
398.8000497755253
 20
275.8226172440017
 30
0.0000000349246037
  9
$LIMMIN
 10
0.0
 20
0.0
  9
$LIMMAX
 10
420.0
 20
297.0
  9
$ORTHOMODE
 70
     0
  9
$REGENMODE
 70
     1
  9
$FILLMODE
 70
     1
  9
$QTEXTMODE
 70
     0
  9
$MIRRTEXT
 70
     1
  9
$DRAGMODE
 70
     2
  9
$LTSCALE
 40
5.0
  9
$OSMODE
 70
    35
  9
$ATTMODE
 70
     1
  9
$TEXTSIZE
 40
3.0
  9
$TRACEWID
 40
1.0
  9
$TEXTSTYLE
  7
STANDARD
  9
$CLAYER
  8
SUNPOU
  9
$CELTYPE
  6
BYLAYER
  9
$CECOLOR
 62
   256
  9
$CELTSCALE
 40
1.0
  9
$DELOBJ
 70
     1
  9
$DISPSILH
 70
     0
  9
$DIMSCALE
 40
1.0
  9
$DIMASZ
 40
3.0
  9
$DIMEXO
 40
3.0
  9
$DIMDLI
 40
7.0
  9
$DIMRND
 40
0.0
  9
$DIMDLE
 40
0.0
  9
$DIMEXE
 40
1.5
  9
$DIMTP
 40
0.0
  9
$DIMTM
 40
0.0
  9
$DIMTXT
 40
3.0
  9
$DIMCEN
 40
3.0
  9
$DIMTSZ
 40
0.0
  9
$DIMTOL
 70
     0
  9
$DIMLIM
 70
     0
  9
$DIMTIH
 70
     0
  9
$DIMTOH
 70
     0
  9
$DIMSE1
 70
     0
  9
$DIMSE2
 70
     0
  9
$DIMTAD
 70
     3
  9
$DIMZIN
 70
     0
  9
$DIMBLK
  1

  9
$DIMASO
 70
     1
  9
$DIMSHO
 70
     1
  9
$DIMPOST
  1

  9
$DIMAPOST
  1

  9
$DIMALT
 70
     0
  9
$DIMALTD
 70
     2
  9
$DIMALTF
 40
25.4
  9
$DIMLFAC
 40
1.0
  9
$DIMTOFL
 70
     1
  9
$DIMTVP
 40
0.0
  9
$DIMTIX
 70
     0
  9
$DIMSOXD
 70
     0
  9
$DIMSAH
 70
     1
  9
$DIMBLK1
  1
OPEN
  9
$DIMBLK2
  1
OPEN
  9
$DIMSTYLE
  2
STANDARD
  9
$DIMCLRD
 70
   256
  9
$DIMCLRE
 70
   256
  9
$DIMCLRT
 70
   256
  9
$DIMTFAC
 40
1.0
  9
$DIMGAP
 40
1.0
  9
$DIMJUST
 70
     0
  9
$DIMSD1
 70
     0
  9
$DIMSD2
 70
     0
  9
$DIMTOLJ
 70
     1
  9
$DIMTZIN
 70
     0
  9
$DIMALTZ
 70
     0
  9
$DIMALTTZ
 70
     0
  9
$DIMFIT
 70
     3
  9
$DIMUPT
 70
     0
  9
$DIMUNIT
 70
     2
  9
$DIMDEC
 70
     0
  9
$DIMTDEC
 70
     0
  9
$DIMALTU
 70
     2
  9
$DIMALTTD
 70
     2
  9
$DIMTXSTY
  7
STANDARD
  9
$DIMAUNIT
 70
     0
  9
$LUNITS
 70
     2
  9
$LUPREC
 70
     4
  9
$SKETCHINC
 40
1.0
  9
$FILLETRAD
 40
0.25
  9
$AUNITS
 70
     0
  9
$AUPREC
 70
     0
  9
$MENU
  1
.
  9
$ELEVATION
 40
0.0
  9
$PELEVATION
 40
0.0
  9
$THICKNESS
 40
0.0
  9
$LIMCHECK
 70
     0
  9
$BLIPMODE
 70
     0
  9
$CHAMFERA
 40
10.0
  9
$CHAMFERB
 40
10.0
  9
$CHAMFERC
 40
20.0
  9
$CHAMFERD
 40
0.0
  9
$SKPOLY
 70
     0
  9
$TDCREATE
 40
2451589.469382176
  9
$TDUPDATE
 40
2453802.554819514
  9
$TDINDWG
 40
0.4384174074
  9
$TDUSRTIMER
 40
0.4384174074
  9
$USRTIMER
 70
     1
  9
$ANGBASE
 50
0.0
  9
$ANGDIR
 70
     0
  9
$PDMODE
 70
     0
  9
$PDSIZE
 40
0.0
  9
$PLINEWID
 40
0.0
  9
$COORDS
 70
     1
  9
$SPLFRAME
 70
     0
  9
$SPLINETYPE
 70
     6
  9
$SPLINESEGS
 70
     8
  9
$ATTDIA
 70
     0
  9
$ATTREQ
 70
     1
  9
$HANDLING
 70
 10241
  9
$HANDSEED
  5
2DFC
  9
$SURFTAB1
 70
     6
  9
$SURFTAB2
 70
     6
  9
$SURFTYPE
 70
     6
  9
$SURFU
 70
     6
  9
$SURFV
 70
     6
  9
$UCSNAME
  2

  9
$UCSORG
 10
0.0
 20
0.0
 30
0.0
  9
$UCSXDIR
 10
1.0
 20
0.0
 30
0.0
  9
$UCSYDIR
 10
0.0
 20
1.0
 30
0.0
  9
$PUCSNAME
  2

  9
$PUCSORG
 10
0.0
 20
0.0
 30
0.0
  9
$PUCSXDIR
 10
1.0
 20
0.0
 30
0.0
  9
$PUCSYDIR
 10
0.0
 20
1.0
 30
0.0
  9
$USERI1
 70
     0
  9
$USERI2
 70
     0
  9
$USERI3
 70
     0
  9
$USERI4
 70
     0
  9
$USERI5
 70
     0
  9
$USERR1
 40
0.0
  9
$USERR2
 40
0.0
  9
$USERR3
 40
0.0
  9
$USERR4
 40
0.0
  9
$USERR5
 40
0.0
  9
$WORLDVIEW
 70
     1
  9
$SHADEDGE
 70
     3
  9
$SHADEDIF
 70
    70
  9
$TILEMODE
 70
     1
  9
$MAXACTVP
 70
    16
  9
$PINSBASE
 10
0.0
 20
0.0
 30
0.0
  9
$PLIMCHECK
 70
     0
  9
$PEXTMIN
 10
0.0
 20
0.0
 30
0.0
  9
$PEXTMAX
 10
420.0
 20
297.0
 30
0.0
  9
$PLIMMIN
 10
0.0
 20
0.0
  9
$PLIMMAX
 10
420.0
 20
297.0
  9
$UNITMODE
 70
     0
  9
$VISRETAIN
 70
     0
  9
$PLINEGEN
 70
     0
  9
$PSLTSCALE
 70
     1
  9
$TREEDEPTH
 70
  3020
  9
$PICKSTYLE
 70
     1
  9
$CMLSTYLE
  2
STANDARD
  9
$CMLJUST
 70
     0
  9
$CMLSCALE
 40
1.0
  9
$PROXYGRAPHICS
 70
     1
  9
$MEASUREMENT
 70
     0
  0
ENDSEC
  0
SECTION
  2
CLASSES
  0
CLASS
  1
ACDBDICTIONARYWDFLT
  2
AcDbDictionaryWithDefault
  3
AutoCAD 2000
 90
        0
280
     0
281
     0
  0
CLASS
  1
ACDBPLACEHOLDER
  2
AcDbPlaceHolder
  3
AutoCAD 2000
 90
        0
280
     0
281
     0
  0
CLASS
  1
LAYOUT
  2
AcDbLayout
  3
AutoCAD 2000
 90
        0
280
     0
281
     0
  0
CLASS
  1
LONG_TRANSACTION
  2
AcDbLongTransaction
  3
AutoCAD 2000
 90
        0
280
     0
281
     0
  0
CLASS
  1
LWPOLYLINE
  2
AcDbPolyline
  3
AutoCAD 2000
 90
        0
280
     0
281
     1
  0
CLASS
  1
HATCH
  2
AcDbHatch
  3
AutoCAD 2000
 90
        0
280
     0
281
     1
  0
CLASS
  1
XRECORD
  2
AcDbXrecord
  3
AutoCAD 2000
 90
        0
280
     0
281
     0
  0
CLASS
  1
LONG_TRANSACTION
  2
AcDbLongTransaction
  3
AutoCAD 2000
 90
        0
280
     0
281
     0
  0
CLASS
  1
LWPOLYLINE
  2
AcDbPolyline
  3
AutoCAD 2000
 90
        0
280
     0
281
     1
  0
CLASS
  1
HATCH
  2
AcDbHatch
  3
AutoCAD 2000
 90
        0
280
     0
281
     1
  0
CLASS
  1
XRECORD
  2
AcDbXrecord
  3
AutoCAD 2000
 90
        0
280
     0
281
     0
  0
CLASS
  1
DICTIONARYVAR
  2
AcDbDictionaryVar
  3
AutoCAD 2000
 90
        0
280
     0
281
     0
  0
CLASS
  1
LONG_TRANSACTION
  2
AcDbLongTransaction
  3
AutoCAD 2000
 90
        0
280
     0
281
     0
  0
CLASS
  1
LWPOLYLINE
  2
AcDbPolyline
  3
AutoCAD 2000
 90
        0
280
     0
281
     1
  0
CLASS
  1
HATCH
  2
AcDbHatch
  3
AutoCAD 2000
 90
        0
280
     0
281
     1
  0
CLASS
  1
XRECORD
  2
AcDbXrecord
  3
AutoCAD 2000
 90
        0
280
     0
281
     0
  0
CLASS
  1
LONG_TRANSACTION
  2
AcDbLongTransaction
  3
AutoCAD 2000
 90
        0
280
     0
281
     0
  0
CLASS
  1
LWPOLYLINE
  2
AcDbPolyline
  3
AutoCAD 2000
 90
        0
280
     0
281
     1
  0
CLASS
  1
HATCH
  2
AcDbHatch
  3
AutoCAD 2000
 90
        0
280
     0
281
     1
  0
CLASS
  1
XRECORD
  2
AcDbXrecord
  3
AutoCAD 2000
 90
        0
280
     0
281
     0
  0
CLASS
  1
LONG_TRANSACTION
  2
AcDbLongTransaction
  3
AutoCAD 2000
 90
        0
280
     0
281
     0
  0
CLASS
  1
LWPOLYLINE
  2
AcDbPolyline
  3
AutoCAD 2000
 90
        0
280
     0
281
     1
  0
CLASS
  1
HATCH
  2
AcDbHatch
  3
AutoCAD 2000
 90
        0
280
     0
281
     1
  0
CLASS
  1
XRECORD
  2
AcDbXrecord
  3
AutoCAD 2000
 90
        0
280
     0
281
     0
  0
CLASS
  1
LONG_TRANSACTION
  2
AcDbLongTransaction
  3
AutoCAD 2000
 90
        0
280
     0
281
     0
  0
CLASS
  1
LWPOLYLINE
  2
AcDbPolyline
  3
AutoCAD 2000
 90
        0
280
     0
281
     1
  0
CLASS
  1
HATCH
  2
AcDbHatch
  3
AutoCAD 2000
 90
        0
280
     0
281
     1
  0
CLASS
  1
XRECORD
  2
AcDbXrecord
  3
AutoCAD 2000
 90
        0
280
     0
281
     0
  0
CLASS
  1
LONG_TRANSACTION
  2
AcDbLongTransaction
  3
AutoCAD 2000
 90
        0
280
     0
281
     0
  0
CLASS
  1
LWPOLYLINE
  2
AcDbPolyline
  3
AutoCAD 2000
 90
        0
280
     0
281
     1
  0
CLASS
  1
HATCH
  2
AcDbHatch
  3
AutoCAD 2000
 90
        0
280
     0
281
     1
  0
CLASS
  1
XRECORD
  2
AcDbXrecord
  3
AutoCAD 2000
 90
        0
280
     0
281
     0
  0
CLASS
  1
LONG_TRANSACTION
  2
AcDbLongTransaction
  3
AutoCAD 2000
 90
        0
280
     0
281
     0
  0
CLASS
  1
LWPOLYLINE
  2
AcDbPolyline
  3
AutoCAD 2000
 90
        0
280
     0
281
     1
  0
CLASS
  1
HATCH
  2
AcDbHatch
  3
AutoCAD 2000
 90
        0
280
     0
281
     1
  0
CLASS
  1
XRECORD
  2
AcDbXrecord
  3
AutoCAD 2000
 90
        0
280
     0
281
     0
  0
CLASS
  1
LONG_TRANSACTION
  2
AcDbLongTransaction
  3
AutoCAD 2000
 90
        0
280
     0
281
     0
  0
CLASS
  1
LWPOLYLINE
  2
AcDbPolyline
  3
AutoCAD 2000
 90
        0
280
     0
281
     1
  0
CLASS
  1
HATCH
  2
AcDbHatch
  3
AutoCAD 2000
 90
        0
280
     0
281
     1
  0
CLASS
  1
XRECORD
  2
AcDbXrecord
  3
AutoCAD 2000
 90
        0
280
     0
281
     0
  0
CLASS
  1
LONG_TRANSACTION
  2
AcDbLongTransaction
  3
AutoCAD 2000
 90
        0
280
     0
281
     0
  0
CLASS
  1
LWPOLYLINE
  2
AcDbPolyline
  3
AutoCAD 2000
 90
        0
280
     0
281
     1
  0
CLASS
  1
HATCH
  2
AcDbHatch
  3
AutoCAD 2000
 90
        0
280
     0
281
     1
  0
CLASS
  1
XRECORD
  2
AcDbXrecord
  3
AutoCAD 2000
 90
        0
280
     0
281
     0
  0
CLASS
  1
LONG_TRANSACTION
  2
AcDbLongTransaction
  3
AutoCAD 2000
 90
        0
280
     0
281
     0
  0
CLASS
  1
LWPOLYLINE
  2
AcDbPolyline
  3
AutoCAD 2000
 90
        0
280
     0
281
     1
  0
CLASS
  1
HATCH
  2
AcDbHatch
  3
AutoCAD 2000
 90
        0
280
     0
281
     1
  0
CLASS
  1
XRECORD
  2
AcDbXrecord
  3
AutoCAD 2000
 90
        0
280
     0
281
     0
  0
CLASS
  1
LONG_TRANSACTION
  2
AcDbLongTransaction
  3
AutoCAD 2000
 90
        0
280
     0
281
     0
  0
CLASS
  1
LWPOLYLINE
  2
AcDbPolyline
  3
AutoCAD 2000
 90
        0
280
     0
281
     1
  0
CLASS
  1
HATCH
  2
AcDbHatch
  3
AutoCAD 2000
 90
        0
280
     0
281
     1
  0
CLASS
  1
XRECORD
  2
AcDbXrecord
  3
AutoCAD 2000
 90
        0
280
     0
281
     0
  0
CLASS
  1
LONG_TRANSACTION
  2
AcDbLongTransaction
  3
AutoCAD 2000
 90
        0
280
     0
281
     0
  0
CLASS
  1
LWPOLYLINE
  2
AcDbPolyline
  3
AutoCAD 2000
 90
        0
280
     0
281
     1
  0
CLASS
  1
HATCH
  2
AcDbHatch
  3
AutoCAD 2000
 90
        0
280
     0
281
     1
  0
CLASS
  1
XRECORD
  2
AcDbXrecord
  3
AutoCAD 2000
 90
        0
280
     0
281
     0
  0
CLASS
  1
LONG_TRANSACTION
  2
AcDbLongTransaction
  3
AutoCAD 2000
 90
        0
280
     0
281
     0
  0
CLASS
  1
LWPOLYLINE
  2
AcDbPolyline
  3
AutoCAD 2000
 90
        0
280
     0
281
     1
  0
CLASS
  1
HATCH
  2
AcDbHatch
  3
AutoCAD 2000
 90
        0
280
     0
281
     1
  0
CLASS
  1
XRECORD
  2
AcDbXrecord
  3
AutoCAD 2000
 90
        0
280
     0
281
     0
  0
CLASS
  1
LONG_TRANSACTION
  2
AcDbLongTransaction
  3
AutoCAD 2000
 90
        0
280
     0
281
     0
  0
CLASS
  1
LWPOLYLINE
  2
AcDbPolyline
  3
AutoCAD 2000
 90
        0
280
     0
281
     1
  0
CLASS
  1
HATCH
  2
AcDbHatch
  3
AutoCAD 2000
 90
        0
280
     0
281
     1
  0
CLASS
  1
XRECORD
  2
AcDbXrecord
  3
AutoCAD 2000
 90
        0
280
     0
281
     0
  0
CLASS
  1
LONG_TRANSACTION
  2
AcDbLongTransaction
  3
AutoCAD 2000
 90
        0
280
     0
281
     0
  0
CLASS
  1
LWPOLYLINE
  2
AcDbPolyline
  3
AutoCAD 2000
 90
        0
280
     0
281
     1
  0
CLASS
  1
HATCH
  2
AcDbHatch
  3
AutoCAD 2000
 90
        0
280
     0
281
     1
  0
CLASS
  1
XRECORD
  2
AcDbXrecord
  3
AutoCAD 2000
 90
        0
280
     0
281
     0
  0
CLASS
  1
LONG_TRANSACTION
  2
AcDbLongTransaction
  3
AutoCAD 2000
 90
        0
280
     0
281
     0
  0
CLASS
  1
LWPOLYLINE
  2
AcDbPolyline
  3
AutoCAD 2000
 90
        0
280
     0
281
     1
  0
CLASS
  1
HATCH
  2
AcDbHatch
  3
AutoCAD 2000
 90
        0
280
     0
281
     1
  0
CLASS
  1
XRECORD
  2
AcDbXrecord
  3
AutoCAD 2000
 90
        0
280
     0
281
     0
  0
CLASS
  1
LONG_TRANSACTION
  2
AcDbLongTransaction
  3
AutoCAD 2000
 90
        0
280
     0
281
     0
  0
CLASS
  1
LWPOLYLINE
  2
AcDbPolyline
  3
AutoCAD 2000
 90
        0
280
     0
281
     1
  0
CLASS
  1
HATCH
  2
AcDbHatch
  3
AutoCAD 2000
 90
        0
280
     0
281
     1
  0
CLASS
  1
XRECORD
  2
AcDbXrecord
  3
AutoCAD 2000
 90
        0
280
     0
281
     0
  0
ENDSEC
  0
SECTION
  2
TABLES
  0
TABLE
  2
VPORT
  5
8
330
0
100
AcDbSymbolTable
 70
     2
  0
VPORT
  5
2DD8
330
8
100
AcDbSymbolTableRecord
100
AcDbViewportTableRecord
  2
*ACTIVE
 70
     0
 10
0.0
 20
0.0
 11
1.0
 21
1.0
 12
215.7090168982161
 22
138.4180821278366
 13
0.0
 23
0.0
 14
5.0
 24
5.0
 15
0.0
 25
0.0
 16
0.0
 26
0.0
 36
1.0
 17
0.0
 27
0.0
 37
0.0
 40
310.2543840048542
 41
1.795454545454545
 42
50.0
 43
0.0
 44
0.0
 50
0.0
 51
0.0
 71
     0
 72
   100
 73
     1
 74
     0
 75
     0
 76
     0
 77
     0
 78
     0
  0
ENDTAB
  0
TABLE
  2
LTYPE
  5
5
330
0
100
AcDbSymbolTable
 70
     3
  0
LTYPE
  5
14
330
5
100
AcDbSymbolTableRecord
100
AcDbLinetypeTableRecord
  2
BYBLOCK
 70
     0
  3

 72
    65
 73
     0
 40
0.0
  0
LTYPE
  5
15
330
5
100
AcDbSymbolTableRecord
100
AcDbLinetypeTableRecord
  2
BYLAYER
 70
     0
  3

 72
    65
 73
     0
 40
0.0
  0
LTYPE
  5
16
330
5
100
AcDbSymbolTableRecord
100
AcDbLinetypeTableRecord
  2
CONTINUOUS
 70
     0
  3
Solid line
 72
    65
 73
     0
 40
0.0
  0
LTYPE
  5
120
330
5
100
AcDbSymbolTableRecord
100
AcDbLinetypeTableRecord
  2
CENTER
 70
     0
  3
____ _ ____ _ ____ _ ____ _ ____ _ ____ _ ____ 
 72
    65
 73
     4
 40
2.0
 49
1.25
 74
     0
 49
-0.25
 74
     0
 49
0.25
 74
     0
 49
-0.25
 74
     0
  0
LTYPE
  5
122
330
5
100
AcDbSymbolTableRecord
100
AcDbLinetypeTableRecord
  2
PHANTOM
 70
     0
  3
______  __  __  ______  __  __  ______  __  __ 
 72
    65
 73
     6
 40
2.5
 49
1.25
 74
     0
 49
-0.25
 74
     0
 49
0.25
 74
     0
 49
-0.25
 74
     0
 49
0.25
 74
     0
 49
-0.25
 74
     0
  0
ENDTAB
  0
TABLE
  2
LAYER
  5
2
330
0
100
AcDbSymbolTable
 70
     9
  0
LAYER
  5
F
330
2
100
AcDbSymbolTableRecord
100
AcDbLayerTableRecord
  2
0
 70
     0
 62
     7
  6
CONTINUOUS
  0
LAYER
  5
62
330
2
100
AcDbSymbolTableRecord
100
AcDbLayerTableRecord
  2
VIEWPORT
 70
     0
 62
     7
  6
CONTINUOUS
  0
LAYER
  5
6B
330
2
100
AcDbSymbolTableRecord
100
AcDbLayerTableRecord
  2
ZUWAKU
 70
     0
 62
     7
  6
CONTINUOUS
  0
LAYER
  5
3EF
330
2
100
AcDbSymbolTableRecord
100
AcDbLayerTableRecord
  2
DEFPOINTS
 70
     0
 62
     7
  6
CONTINUOUS
  0
LAYER
  5
54D
330
2
100
AcDbSymbolTableRecord
100
AcDbLayerTableRecord
  2
SEIHIN
 70
     0
 62
     3
  6
CONTINUOUS
  0
LAYER
  5
54E
330
2
100
AcDbSymbolTableRecord
100
AcDbLayerTableRecord
  2
SUNPOU
 70
     0
 62
     4
  6
CONTINUOUS
  0
LAYER
  5
54F
330
2
100
AcDbSymbolTableRecord
100
AcDbLayerTableRecord
  2
CENTER_L
 70
     0
 62
     1
  6
CENTER
  0
LAYER
  5
550
330
2
100
AcDbSymbolTableRecord
100
AcDbLayerTableRecord
  2
NOKITOI
 70
     0
 62
     8
  6
PHANTOM
  0
LAYER
  5
2C61
330
2
100
AcDbSymbolTableRecord
100
AcDbLayerTableRecord
  2
MOJI
 70
     0
 62
     2
  6
CONTINUOUS
  0
ENDTAB
  0
TABLE
  2
STYLE
  5
3
330
0
100
AcDbSymbolTable
 70
     2
  0
STYLE
  5
10
330
3
100
AcDbSymbolTableRecord
100
AcDbTextStyleTableRecord
  2
STANDARD
 70
     0
 40
0.0
 41
1.0
 50
0.0
 71
     0
 42
3.0
  3
TXT
  4
c:\PROGRAM FILES\AUTOCAD LT\ms\bigfont.shx
  0
STYLE
  5
2C62
330
3
100
AcDbSymbolTableRecord
100
AcDbTextStyleTableRecord
  2
ｽﾀｲﾙ1
 70
     0
 40
0.0
 41
1.0
 50
0.0
 71
     0
 42
2.5
  3
MS PGothic.ttf
  4

1001
ACAD
1000
MS PGothic
1071
    32818
  0
ENDTAB
  0
TABLE
  2
VIEW
  5
6
330
0
100
AcDbSymbolTable
 70
     0
  0
ENDTAB
  0
TABLE
  2
UCS
  5
7
330
0
100
AcDbSymbolTable
 70
     0
  0
ENDTAB
  0
TABLE
  2
APPID
  5
9
330
0
100
AcDbSymbolTable
 70
     1
  0
APPID
  5
11
330
9
100
AcDbSymbolTableRecord
100
AcDbRegAppTableRecord
  2
ACAD
 70
     0
  0
ENDTAB
  0
TABLE
  2
DIMSTYLE
  5
A
330
0
100
AcDbSymbolTable
 70
     1
  0
DIMSTYLE
105
1D
102
{ACAD_REACTORS
330
1FF7
330
2006
330
2015
330
2022
330
204C
330
2059
330
2066
330
2073
330
285C
330
2869
330
2876
330
2883
330
2AFF
102
}
330
A
100
AcDbSymbolTableRecord
100
AcDbDimStyleTableRecord
  2
STANDARD
 70
     0
  3

  4

  5

  6

  7

 40
1.0
 41
0.18
 42
0.0625
 43
0.38
 44
0.18
 45
0.0
 46
0.0
 47
0.0
 48
0.0
140
0.18
141
0.09
142
0.0
143
25.4
144
1.0
145
0.0
146
1.0
147
0.09
 71
     0
 72
     0
 73
     1
 74
     1
 75
     0
 76
     0
 77
     0
 78
     0
170
     0
171
     2
172
     0
173
     0
174
     0
175
     0
176
     0
177
     0
178
     0
270
     2
271
     4
272
     4
273
     2
274
     2
340
10
275
     0
280
     0
281
     0
282
     0
283
     1
284
     0
285
     0
286
     0
287
     3
288
     0
  0
ENDTAB
  0
TABLE
  2
BLOCK_RECORD
  5
1
330
0
100
AcDbSymbolTable
 70
    14
  0
BLOCK_RECORD
  5
1A
102
{ACAD_XDICTIONARY
360
7A2
102
}
330
1
100
AcDbSymbolTableRecord
100
AcDbBlockTableRecord
  2
*MODEL_SPACE
  0
BLOCK_RECORD
  5
17
102
{ACAD_XDICTIONARY
360
7A0
102
}
330
1
100
AcDbSymbolTableRecord
100
AcDbBlockTableRecord
  2
*PAPER_SPACE
  0
BLOCK_RECORD
  5
B2
330
1
100
AcDbSymbolTableRecord
100
AcDbBlockTableRecord
  2
_OPEN
  0
BLOCK_RECORD
  5
1FF8
330
1
100
AcDbSymbolTableRecord
100
AcDbBlockTableRecord
  2
*D1
  0
BLOCK_RECORD
  5
2007
330
1
100
AcDbSymbolTableRecord
100
AcDbBlockTableRecord
  2
*D2
  0
BLOCK_RECORD
  5
2016
330
1
100
AcDbSymbolTableRecord
100
AcDbBlockTableRecord
  2
*D3
  0
BLOCK_RECORD
  5
2023
330
1
100
AcDbSymbolTableRecord
100
AcDbBlockTableRecord
  2
*D4
  0
BLOCK_RECORD
  5
204D
330
1
100
AcDbSymbolTableRecord
100
AcDbBlockTableRecord
  2
*D5
  0
BLOCK_RECORD
  5
205A
330
1
100
AcDbSymbolTableRecord
100
AcDbBlockTableRecord
  2
*D6
  0
BLOCK_RECORD
  5
2067
330
1
100
AcDbSymbolTableRecord
100
AcDbBlockTableRecord
  2
*D7
  0
BLOCK_RECORD
  5
2074
330
1
100
AcDbSymbolTableRecord
100
AcDbBlockTableRecord
  2
*D8
  0
BLOCK_RECORD
  5
285D
330
1
100
AcDbSymbolTableRecord
100
AcDbBlockTableRecord
  2
*D9
  0
BLOCK_RECORD
  5
286A
330
1
100
AcDbSymbolTableRecord
100
AcDbBlockTableRecord
  2
*D10
  0
BLOCK_RECORD
  5
2877
330
1
100
AcDbSymbolTableRecord
100
AcDbBlockTableRecord
  2
*D11
  0
BLOCK_RECORD
  5
2884
330
1
100
AcDbSymbolTableRecord
100
AcDbBlockTableRecord
  2
*D12
  0
BLOCK_RECORD
  5
2B00
330
1
100
AcDbSymbolTableRecord
100
AcDbBlockTableRecord
  2
*D13
  0
ENDTAB
  0
ENDSEC
  0
SECTION
  2
BLOCKS
  0
BLOCK
  5
1B
330
1A
100
AcDbEntity
  8
0
100
AcDbBlockBegin
  2
*MODEL_SPACE
 70
     0
 10
0.0
 20
0.0
 30
0.0
  3
*MODEL_SPACE
  1

  0
ENDBLK
  5
1C
330
1A
100
AcDbEntity
  8
0
100
AcDbBlockEnd
  0
BLOCK
  5
18
330
17
100
AcDbEntity
 67
     1
  8
0
100
AcDbBlockBegin
  2
*PAPER_SPACE
 70
     0
 10
0.0
 20
0.0
 30
0.0
  3
*PAPER_SPACE
  1

  0
ENDBLK
  5
19
330
17
100
AcDbEntity
 67
     1
  8
0
100
AcDbBlockEnd
  0
BLOCK
  5
B3
330
B2
100
AcDbEntity
  8
0
100
AcDbBlockBegin
  2
_OPEN
 70
     0
 10
0.0
 20
0.0
 30
0.0
  3
_OPEN
  1

  0
LINE
  5
B4
330
B2
100
AcDbEntity
  8
0
  6
BYBLOCK
 62
     0
100
AcDbLine
 10
-1.0
 20
0.1666666666666666
 30
0.0
 11
0.0
 21
0.0
 31
0.0
  0
LINE
  5
B5
330
B2
100
AcDbEntity
  8
0
  6
BYBLOCK
 62
     0
100
AcDbLine
 10
0.0
 20
0.0
 30
0.0
 11
-1.0
 21
-0.1666666666666666
 31
0.0
  0
LINE
  5
B6
330
B2
100
AcDbEntity
  8
0
  6
BYBLOCK
 62
     0
100
AcDbLine
 10
0.0
 20
0.0
 30
0.0
 11
-1.0
 21
0.0
 31
0.0
  0
ENDBLK
  5
B7
330
B2
100
AcDbEntity
  8
0
100
AcDbBlockEnd
  0
BLOCK
  5
2002
330
1FF8
100
AcDbEntity
  8
0
100
AcDbBlockBegin
  2
*D1
 70
     1
 10
0.0
 20
0.0
 30
0.0
  3
*D1
  1

  0
LINE
  5
2B7E
330
1FF8
100
AcDbEntity
  8
SUNPOU
100
AcDbLine
 10
287.5360292789998
 20
101.7915278866696
 30
0.0
 11
307.0875237399338
 21
101.7915278866696
 31
0.0
  0
LINE
  5
2B7F
330
1FF8
100
AcDbEntity
  8
SUNPOU
100
AcDbLine
 10
287.5360292789998
 20
66.79152788666967
 30
0.0
 11
307.0875237399338
 21
66.79152788666965
 31
0.0
  0
LINE
  5
2B80
330
1FF8
100
AcDbEntity
  8
SUNPOU
100
AcDbLine
 10
305.5875237399338
 20
98.79152788666965
 30
0.0
 11
305.5875237399338
 21
69.79152788666965
 31
0.0
  0
INSERT
  5
2B81
330
1FF8
100
AcDbEntity
  8
SUNPOU
100
AcDbBlockReference
  2
_OPEN
 10
305.5875237399338
 20
101.7915278866696
 30
0.0
 41
3.0
 42
3.0
 43
3.0
 50
90.0
  0
INSERT
  5
2B82
330
1FF8
100
AcDbEntity
  8
SUNPOU
100
AcDbBlockReference
  2
_OPEN
 10
305.5875237399338
 20
66.79152788666965
 30
0.0
 41
3.0
 42
3.0
 43
3.0
 50
270.0
  0
MTEXT
  5
2B83
330
1FF8
100
AcDbEntity
  8
SUNPOU
100
AcDbMText
 10
303.0875237399338
 20
84.29152788666971
 30
0.0
 40
3.0
 41
0.0
 71
     5
 72
     5
  1
\A1;35
 11
0.0000000000000001
 21
1.0
 31
0.0
1001
ACAD
1000
MTEXTBEGIN
1070
    73
1070
     1
1070
    44
1040
1.0
1070
    74
1070
     0
1000
MTEXTEND
1000
MTEXTBEGIN
1070
    73
1070
     1
1070
    44
1040
1.0
1070
    74
1070
     0
1000
MTEXTEND
1000
MTEXTBEGIN
1070
    73
1070
     1
1070
    44
1040
1.0
1070
    74
1070
     0
1000
MTEXTEND
  0
POINT
  5
2B84
330
1FF8
100
AcDbEntity
  8
DEFPOINTS
 62
     0
100
AcDbPoint
 10
284.5360292789998
 20
101.7915278866696
 30
0.0
  0
POINT
  5
2B85
330
1FF8
100
AcDbEntity
  8
DEFPOINTS
 62
     0
100
AcDbPoint
 10
284.5360292789998
 20
66.79152788666967
 30
0.0
  0
POINT
  5
2B86
330
1FF8
100
AcDbEntity
  8
DEFPOINTS
 62
     0
100
AcDbPoint
 10
305.5875237399338
 20
66.79152788666965
 30
0.0
  0
ENDBLK
  5
2003
330
1FF8
100
AcDbEntity
  8
0
100
AcDbBlockEnd
  0
BLOCK
  5
2013
330
2007
100
AcDbEntity
  8
0
100
AcDbBlockBegin
  2
*D2
 70
     1
 10
0.0
 20
0.0
 30
0.0
  3
*D2
  1

  0
LINE
  5
2B87
330
2007
100
AcDbEntity
  8
SUNPOU
100
AcDbLine
 10
309.7807254506772
 20
101.7915278866696
 30
0.0
 11
294.0627076861112
 21
101.7915278866696
 31
0.0
  0
LINE
  5
2B88
330
2007
100
AcDbEntity
  8
SUNPOU
100
AcDbLine
 10
309.680725450677
 20
93.79152788666967
 30
0.0
 11
294.0627076861112
 21
93.79152788666967
 31
0.0
  0
LINE
  5
2B89
330
2007
100
AcDbEntity
  8
SUNPOU
100
AcDbLine
 10
295.5627076861112
 20
104.7915278866696
 30
0.0
 11
295.5627076861112
 21
107.7915278866696
 31
0.0
  0
LINE
  5
2B8A
330
2007
100
AcDbEntity
  8
SUNPOU
100
AcDbLine
 10
295.5627076861112
 20
90.79152788666966
 30
0.0
 11
295.5627076861112
 21
87.79152788666968
 31
0.0
  0
LINE
  5
2B8B
330
2007
100
AcDbEntity
  8
SUNPOU
100
AcDbLine
 10
295.5627076861112
 20
101.7915278866696
 30
0.0
 11
295.5627076861112
 21
93.79152788666967
 31
0.0
  0
INSERT
  5
2B8C
330
2007
100
AcDbEntity
  8
SUNPOU
100
AcDbBlockReference
  2
_OPEN
 10
295.5627076861112
 20
101.7915278866696
 30
0.0
 41
3.0
 42
3.0
 43
3.0
 50
270.0
  0
INSERT
  5
2B8D
330
2007
100
AcDbEntity
  8
SUNPOU
100
AcDbBlockReference
  2
_OPEN
 10
295.5627076861112
 20
93.79152788666967
 30
0.0
 41
3.0
 42
3.0
 43
3.0
 50
90.0
  0
MTEXT
  5
2B8E
330
2007
100
AcDbEntity
  8
SUNPOU
100
AcDbMText
 10
293.0627076861112
 20
97.79152788666973
 30
0.0
 40
3.0
 41
0.0
 71
     5
 72
     5
  1
\A1;8
 11
0.0000000000000001
 21
1.0
 31
0.0
1001
ACAD
1000
MTEXTBEGIN
1070
    73
1070
     1
1070
    44
1040
1.0
1070
    74
1070
     0
1000
MTEXTEND
1000
MTEXTBEGIN
1070
    73
1070
     1
1070
    44
1040
1.0
1070
    74
1070
     0
1000
MTEXTEND
1000
MTEXTBEGIN
1070
    73
1070
     1
1070
    44
1040
1.0
1070
    74
1070
     0
1000
MTEXTEND
  0
POINT
  5
2B8F
330
2007
100
AcDbEntity
  8
DEFPOINTS
 62
     0
100
AcDbPoint
 10
312.7807254506772
 20
101.7915278866696
 30
0.0
  0
POINT
  5
2B90
330
2007
100
AcDbEntity
  8
DEFPOINTS
 62
     0
100
AcDbPoint
 10
312.680725450677
 20
93.79152788666967
 30
0.0
  0
POINT
  5
2B91
330
2007
100
AcDbEntity
  8
DEFPOINTS
 62
     0
100
AcDbPoint
 10
295.5627076861112
 20
93.79152788666967
 30
0.0
  0
ENDBLK
  5
2014
330
2007
100
AcDbEntity
  8
0
100
AcDbBlockEnd
  0
BLOCK
  5
2020
330
2016
100
AcDbEntity
  8
0
100
AcDbBlockBegin
  2
*D3
 70
     1
 10
0.0
 20
0.0
 30
0.0
  3
*D3
  1

  0
LINE
  5
2B92
330
2016
100
AcDbEntity
  8
SUNPOU
100
AcDbLine
 10
309.680725450677
 20
74.79152788666967
 30
0.0
 11
294.0627076861112
 21
74.79152788666967
 31
0.0
  0
LINE
  5
2B93
330
2016
100
AcDbEntity
  8
SUNPOU
100
AcDbLine
 10
309.7807254506772
 20
66.79152788666965
 30
0.0
 11
294.0627076861112
 21
66.79152788666965
 31
0.0
  0
LINE
  5
2B94
330
2016
100
AcDbEntity
  8
SUNPOU
100
AcDbLine
 10
295.5627076861112
 20
71.79152788666967
 30
0.0
 11
295.5627076861112
 21
69.79152788666965
 31
0.0
  0
INSERT
  5
2B95
330
2016
100
AcDbEntity
  8
SUNPOU
100
AcDbBlockReference
  2
_OPEN
 10
295.5627076861112
 20
74.79152788666967
 30
0.0
 41
3.0
 42
3.0
 43
3.0
 50
90.0
  0
INSERT
  5
2B96
330
2016
100
AcDbEntity
  8
SUNPOU
100
AcDbBlockReference
  2
_OPEN
 10
295.5627076861112
 20
66.79152788666965
 30
0.0
 41
3.0
 42
3.0
 43
3.0
 50
270.0
  0
MTEXT
  5
2B97
330
2016
100
AcDbEntity
  8
SUNPOU
100
AcDbMText
 10
293.0627076861112
 20
70.79152788666973
 30
0.0
 40
3.0
 41
0.0
 71
     5
 72
     5
  1
\A1;8
 11
0.0000000000000001
 21
1.0
 31
0.0
1001
ACAD
1000
MTEXTBEGIN
1070
    73
1070
     1
1070
    44
1040
1.0
1070
    74
1070
     0
1000
MTEXTEND
1000
MTEXTBEGIN
1070
    73
1070
     1
1070
    44
1040
1.0
1070
    74
1070
     0
1000
MTEXTEND
1000
MTEXTBEGIN
1070
    73
1070
     1
1070
    44
1040
1.0
1070
    74
1070
     0
1000
MTEXTEND
  0
POINT
  5
2B98
330
2016
100
AcDbEntity
  8
DEFPOINTS
 62
     0
100
AcDbPoint
 10
312.680725450677
 20
74.79152788666967
 30
0.0
  0
POINT
  5
2B99
330
2016
100
AcDbEntity
  8
DEFPOINTS
 62
     0
100
AcDbPoint
 10
312.7807254506772
 20
66.79152788666965
 30
0.0
  0
POINT
  5
2B9A
330
2016
100
AcDbEntity
  8
DEFPOINTS
 62
     0
100
AcDbPoint
 10
295.5627076861112
 20
66.79152788666965
 30
0.0
  0
ENDBLK
  5
2021
330
2016
100
AcDbEntity
  8
0
100
AcDbBlockEnd
  0
BLOCK
  5
202D
330
2023
100
AcDbEntity
  8
0
100
AcDbBlockBegin
  2
*D4
 70
     1
 10
0.0
 20
0.0
 30
0.0
  3
*D4
  1

  0
LINE
  5
2B9B
330
2023
100
AcDbEntity
  8
SUNPOU
100
AcDbLine
 10
309.7807254506772
 20
101.7915278866696
 30
0.0
 11
284.0443286584313
 21
101.7915278866696
 31
0.0
  0
LINE
  5
2B9C
330
2023
100
AcDbEntity
  8
SUNPOU
100
AcDbLine
 10
309.7807254506772
 20
66.79152788666965
 30
0.0
 11
284.0443286584313
 21
66.79152788666967
 31
0.0
  0
LINE
  5
2B9D
330
2023
100
AcDbEntity
  8
SUNPOU
100
AcDbLine
 10
285.5443286584313
 20
98.79152788666969
 30
0.0
 11
285.5443286584313
 21
69.79152788666967
 31
0.0
  0
INSERT
  5
2B9E
330
2023
100
AcDbEntity
  8
SUNPOU
100
AcDbBlockReference
  2
_OPEN
 10
285.5443286584313
 20
101.7915278866696
 30
0.0
 41
3.0
 42
3.0
 43
3.0
 50
90.0
  0
INSERT
  5
2B9F
330
2023
100
AcDbEntity
  8
SUNPOU
100
AcDbBlockReference
  2
_OPEN
 10
285.5443286584313
 20
66.79152788666967
 30
0.0
 41
3.0
 42
3.0
 43
3.0
 50
270.0
  0
MTEXT
  5
2BA0
330
2023
100
AcDbEntity
  8
SUNPOU
100
AcDbMText
 10
283.0443286584313
 20
84.29152788666973
 30
0.0
 40
3.0
 41
0.0
 71
     5
 72
     5
  1
\A1;35
 11
0.0000000000000001
 21
1.0
 31
0.0
1001
ACAD
1000
MTEXTBEGIN
1070
    73
1070
     1
1070
    44
1040
1.0
1070
    74
1070
     0
1000
MTEXTEND
1000
MTEXTBEGIN
1070
    73
1070
     1
1070
    44
1040
1.0
1070
    74
1070
     0
1000
MTEXTEND
1000
MTEXTBEGIN
1070
    73
1070
     1
1070
    44
1040
1.0
1070
    74
1070
     0
1000
MTEXTEND
  0
POINT
  5
2BA1
330
2023
100
AcDbEntity
  8
DEFPOINTS
 62
     0
100
AcDbPoint
 10
312.7807254506772
 20
101.7915278866696
 30
0.0
  0
POINT
  5
2BA2
330
2023
100
AcDbEntity
  8
DEFPOINTS
 62
     0
100
AcDbPoint
 10
312.7807254506772
 20
66.79152788666965
 30
0.0
  0
POINT
  5
2BA3
330
2023
100
AcDbEntity
  8
DEFPOINTS
 62
     0
100
AcDbPoint
 10
285.5443286584313
 20
66.79152788666967
 30
0.0
  0
ENDBLK
  5
202E
330
2023
100
AcDbEntity
  8
0
100
AcDbBlockEnd
  0
BLOCK
  5
2057
330
204D
100
AcDbEntity
  8
0
100
AcDbBlockBegin
  2
*D5
 70
     1
 10
0.0
 20
0.0
 30
0.0
  3
*D5
  1

  0
LINE
  5
2BA4
330
204D
100
AcDbEntity
  8
SUNPOU
100
AcDbLine
 10
318.7807254506772
 20
102.8915278866696
 30
0.0
 11
318.7807254506772
 21
133.5248008960517
 31
0.0
  0
LINE
  5
2BA5
330
204D
100
AcDbEntity
  8
SUNPOU
100
AcDbLine
 10
362.7807254506772
 20
102.8915278866696
 30
0.0
 11
362.7807254506772
 21
133.5248008960517
 31
0.0
  0
LINE
  5
2BA6
330
204D
100
AcDbEntity
  8
SUNPOU
100
AcDbLine
 10
321.7807254506772
 20
132.0248008960517
 30
0.0
 11
359.7807254506772
 21
132.0248008960517
 31
0.0
  0
INSERT
  5
2BA7
330
204D
100
AcDbEntity
  8
SUNPOU
100
AcDbBlockReference
  2
_OPEN
 10
318.7807254506772
 20
132.0248008960517
 30
0.0
 41
3.0
 42
3.0
 43
3.0
 50
180.0
  0
INSERT
  5
2BA8
330
204D
100
AcDbEntity
  8
SUNPOU
100
AcDbBlockReference
  2
_OPEN
 10
362.7807254506772
 20
132.0248008960517
 30
0.0
 41
3.0
 42
3.0
 43
3.0
  0
MTEXT
  5
2BA9
330
204D
100
AcDbEntity
  8
SUNPOU
100
AcDbMText
 10
340.7807254506772
 20
134.5248008960517
 30
0.0
 40
3.0
 41
0.0
 71
     5
 72
     5
  1
\A1;44
1001
ACAD
1000
MTEXTBEGIN
1070
    73
1070
     1
1070
    44
1040
1.0
1070
    74
1070
     0
1000
MTEXTEND
1000
MTEXTBEGIN
1070
    73
1070
     1
1070
    44
1040
1.0
1070
    74
1070
     0
1000
MTEXTEND
1000
MTEXTBEGIN
1070
    73
1070
     1
1070
    44
1040
1.0
1070
    74
1070
     0
1000
MTEXTEND
  0
POINT
  5
2BAA
330
204D
100
AcDbEntity
  8
DEFPOINTS
 62
     0
100
AcDbPoint
 10
318.7807254506772
 20
99.8915278866697
 30
0.0
  0
POINT
  5
2BAB
330
204D
100
AcDbEntity
  8
DEFPOINTS
 62
     0
100
AcDbPoint
 10
362.7807254506772
 20
99.8915278866697
 30
0.0
  0
POINT
  5
2BAC
330
204D
100
AcDbEntity
  8
DEFPOINTS
 62
     0
100
AcDbPoint
 10
362.7807254506772
 20
132.0248008960517
 30
0.0
  0
ENDBLK
  5
2058
330
204D
100
AcDbEntity
  8
0
100
AcDbBlockEnd
  0
BLOCK
  5
2064
330
205A
100
AcDbEntity
  8
0
100
AcDbBlockBegin
  2
*D6
 70
     1
 10
0.0
 20
0.0
 30
0.0
  3
*D6
  1

  0
LINE
  5
2BAD
330
205A
100
AcDbEntity
  8
SUNPOU
100
AcDbLine
 10
309.7807254506772
 20
101.7915278866696
 30
0.0
 11
309.7807254506772
 21
143.8693575795808
 31
0.0
  0
LINE
  5
2BAE
330
205A
100
AcDbEntity
  8
SUNPOU
100
AcDbLine
 10
371.7807254506772
 20
101.7915278866696
 30
0.0
 11
371.7807254506772
 21
143.8693575795808
 31
0.0
  0
LINE
  5
2BAF
330
205A
100
AcDbEntity
  8
SUNPOU
100
AcDbLine
 10
312.7807254506772
 20
142.3693575795808
 30
0.0
 11
368.7807254506772
 21
142.3693575795808
 31
0.0
  0
INSERT
  5
2BB0
330
205A
100
AcDbEntity
  8
SUNPOU
100
AcDbBlockReference
  2
_OPEN
 10
309.7807254506772
 20
142.3693575795808
 30
0.0
 41
3.0
 42
3.0
 43
3.0
 50
180.0
  0
INSERT
  5
2BB1
330
205A
100
AcDbEntity
  8
SUNPOU
100
AcDbBlockReference
  2
_OPEN
 10
371.7807254506772
 20
142.3693575795808
 30
0.0
 41
3.0
 42
3.0
 43
3.0
  0
MTEXT
  5
2BB2
330
205A
100
AcDbEntity
  8
SUNPOU
100
AcDbMText
 10
340.7807254506772
 20
144.8693575795808
 30
0.0
 40
3.0
 41
0.0
 71
     5
 72
     5
  1
\A1;62
1001
ACAD
1000
MTEXTBEGIN
1070
    73
1070
     1
1070
    44
1040
1.0
1070
    74
1070
     0
1000
MTEXTEND
1000
MTEXTBEGIN
1070
    73
1070
     1
1070
    44
1040
1.0
1070
    74
1070
     0
1000
MTEXTEND
1000
MTEXTBEGIN
1070
    73
1070
     1
1070
    44
1040
1.0
1070
    74
1070
     0
1000
MTEXTEND
  0
POINT
  5
2BB3
330
205A
100
AcDbEntity
  8
DEFPOINTS
 62
     0
100
AcDbPoint
 10
309.7807254506772
 20
98.79152788666967
 30
0.0
  0
POINT
  5
2BB4
330
205A
100
AcDbEntity
  8
DEFPOINTS
 62
     0
100
AcDbPoint
 10
371.7807254506772
 20
98.79152788666967
 30
0.0
  0
POINT
  5
2BB5
330
205A
100
AcDbEntity
  8
DEFPOINTS
 62
     0
100
AcDbPoint
 10
371.7807254506772
 20
142.3693575795808
 30
0.0
  0
ENDBLK
  5
2065
330
205A
100
AcDbEntity
  8
0
100
AcDbBlockEnd
  0
BLOCK
  5
2071
330
2067
100
AcDbEntity
  8
0
100
AcDbBlockBegin
  2
*D7
 70
     1
 10
0.0
 20
0.0
 30
0.0
  3
*D7
  1

  0
LINE
  5
2BB6
330
2067
100
AcDbEntity
  8
SUNPOU
100
AcDbLine
 10
252.7263552993352
 20
250.1707035089473
 30
0.0
 11
272.2778497602693
 21
250.1707035089473
 31
0.0
  0
LINE
  5
2BB7
330
2067
100
AcDbEntity
  8
SUNPOU
100
AcDbLine
 10
252.7263552993352
 20
188.1707035089473
 30
0.0
 11
272.2778497602693
 21
188.1707035089473
 31
0.0
  0
LINE
  5
2BB8
330
2067
100
AcDbEntity
  8
SUNPOU
100
AcDbLine
 10
270.7778497602693
 20
247.1707035089473
 30
0.0
 11
270.7778497602693
 21
191.1707035089473
 31
0.0
  0
INSERT
  5
2BB9
330
2067
100
AcDbEntity
  8
SUNPOU
100
AcDbBlockReference
  2
_OPEN
 10
270.7778497602693
 20
250.1707035089473
 30
0.0
 41
3.0
 42
3.0
 43
3.0
 50
90.0
  0
INSERT
  5
2BBA
330
2067
100
AcDbEntity
  8
SUNPOU
100
AcDbBlockReference
  2
_OPEN
 10
270.7778497602693
 20
188.1707035089473
 30
0.0
 41
3.0
 42
3.0
 43
3.0
 50
270.0
  0
MTEXT
  5
2BBB
330
2067
100
AcDbEntity
  8
SUNPOU
100
AcDbMText
 10
268.2778497602692
 20
219.1707035089473
 30
0.0
 40
3.0
 41
0.0
 71
     5
 72
     5
  1
\A1;62
 11
0.0000000000000001
 21
1.0
 31
0.0
1001
ACAD
1000
MTEXTBEGIN
1070
    73
1070
     1
1070
    44
1040
1.0
1070
    74
1070
     0
1000
MTEXTEND
1000
MTEXTBEGIN
1070
    73
1070
     1
1070
    44
1040
1.0
1070
    74
1070
     0
1000
MTEXTEND
1000
MTEXTBEGIN
1070
    73
1070
     1
1070
    44
1040
1.0
1070
    74
1070
     0
1000
MTEXTEND
  0
POINT
  5
2BBC
330
2067
100
AcDbEntity
  8
DEFPOINTS
 62
     0
100
AcDbPoint
 10
249.7263552993352
 20
250.1707035089473
 30
0.0
  0
POINT
  5
2BBD
330
2067
100
AcDbEntity
  8
DEFPOINTS
 62
     0
100
AcDbPoint
 10
249.7263552993352
 20
188.1707035089473
 30
0.0
  0
POINT
  5
2BBE
330
2067
100
AcDbEntity
  8
DEFPOINTS
 62
     0
100
AcDbPoint
 10
270.7778497602693
 20
188.1707035089473
 30
0.0
  0
ENDBLK
  5
2072
330
2067
100
AcDbEntity
  8
0
100
AcDbBlockEnd
  0
BLOCK
  5
207E
330
2074
100
AcDbEntity
  8
0
100
AcDbBlockBegin
  2
*D8
 70
     1
 10
0.0
 20
0.0
 30
0.0
  3
*D8
  1

  0
LINE
  5
2BBF
330
2074
100
AcDbEntity
  8
SUNPOU
100
AcDbLine
 10
52.72606463933522
 20
229.1707035089473
 30
0.0
 11
27.39525187099754
 21
229.1707035089473
 31
0.0
  0
LINE
  5
2BC0
330
2074
100
AcDbEntity
  8
SUNPOU
100
AcDbLine
 10
52.72606463933522
 20
209.1707035089473
 30
0.0
 11
27.39525187099754
 21
209.1707035089473
 31
0.0
  0
LINE
  5
2BC1
330
2074
100
AcDbEntity
  8
SUNPOU
100
AcDbLine
 10
28.89525187099754
 20
226.1707035089473
 30
0.0
 11
28.89525187099754
 21
212.1707035089473
 31
0.0
  0
INSERT
  5
2BC2
330
2074
100
AcDbEntity
  8
SUNPOU
100
AcDbBlockReference
  2
_OPEN
 10
28.89525187099754
 20
229.1707035089473
 30
0.0
 41
3.0
 42
3.0
 43
3.0
 50
90.0
  0
INSERT
  5
2BC3
330
2074
100
AcDbEntity
  8
SUNPOU
100
AcDbBlockReference
  2
_OPEN
 10
28.89525187099754
 20
209.1707035089473
 30
0.0
 41
3.0
 42
3.0
 43
3.0
 50
270.0
  0
MTEXT
  5
2BC4
330
2074
100
AcDbEntity
  8
SUNPOU
100
AcDbMText
 10
26.39525187099751
 20
219.1707035089473
 30
0.0
 40
3.0
 41
0.0
 71
     5
 72
     5
  1
\A1;20
 11
0.0000000000000001
 21
1.0
 31
0.0
1001
ACAD
1000
MTEXTBEGIN
1070
    73
1070
     1
1070
    44
1040
1.0
1070
    74
1070
     0
1000
MTEXTEND
1000
MTEXTBEGIN
1070
    73
1070
     1
1070
    44
1040
1.0
1070
    74
1070
     0
1000
MTEXTEND
1000
MTEXTBEGIN
1070
    73
1070
     1
1070
    44
1040
1.0
1070
    74
1070
     0
1000
MTEXTEND
  0
POINT
  5
2BC5
330
2074
100
AcDbEntity
  8
DEFPOINTS
 62
     0
100
AcDbPoint
 10
55.72606463933522
 20
229.1707035089473
 30
0.0
  0
POINT
  5
2BC6
330
2074
100
AcDbEntity
  8
DEFPOINTS
 62
     0
100
AcDbPoint
 10
55.72606463933522
 20
209.1707035089473
 30
0.0
  0
POINT
  5
2BC7
330
2074
100
AcDbEntity
  8
DEFPOINTS
 62
     0
100
AcDbPoint
 10
28.89525187099754
 20
209.1707035089473
 30
0.0
  0
ENDBLK
  5
207F
330
2074
100
AcDbEntity
  8
0
100
AcDbBlockEnd
  0
BLOCK
  5
2867
330
285D
100
AcDbEntity
  8
0
100
AcDbBlockBegin
  2
*D9
 70
     1
 10
0.0
 20
0.0
 30
0.0
  3
*D9
  1

  0
LINE
  5
2BC8
330
285D
100
AcDbEntity
  8
SUNPOU
100
AcDbLine
 10
252.7263552993352
 20
101.7915278916696
 30
0.0
 11
271.5648201168769
 21
101.7915278916696
 31
0.0
  0
LINE
  5
2BC9
330
285D
100
AcDbEntity
  8
SUNPOU
100
AcDbLine
 10
252.7263552993352
 20
66.79152788666967
 30
0.0
 11
271.5648201168769
 21
66.79152788666967
 31
0.0
  0
LINE
  5
2BCA
330
285D
100
AcDbEntity
  8
SUNPOU
100
AcDbLine
 10
270.0648201168769
 20
98.79152789166965
 30
0.0
 11
270.0648201168769
 21
69.79152788666967
 31
0.0
  0
INSERT
  5
2BCB
330
285D
100
AcDbEntity
  8
SUNPOU
100
AcDbBlockReference
  2
_OPEN
 10
270.0648201168769
 20
101.7915278916696
 30
0.0
 41
3.0
 42
3.0
 43
3.0
 50
90.0
  0
INSERT
  5
2BCC
330
285D
100
AcDbEntity
  8
SUNPOU
100
AcDbBlockReference
  2
_OPEN
 10
270.0648201168769
 20
66.79152788666967
 30
0.0
 41
3.0
 42
3.0
 43
3.0
 50
270.0
  0
MTEXT
  5
2BCD
330
285D
100
AcDbEntity
  8
SUNPOU
100
AcDbMText
 10
267.5648201168769
 20
84.29152788916971
 30
0.0
 40
3.0
 41
0.0
 71
     5
 72
     5
  1
\A1;35
 11
0.0000000000000001
 21
1.0
 31
0.0
1001
ACAD
1000
MTEXTBEGIN
1070
    73
1070
     1
1070
    44
1040
1.0
1070
    74
1070
     0
1000
MTEXTEND
1000
MTEXTBEGIN
1070
    73
1070
     1
1070
    44
1040
1.0
1070
    74
1070
     0
1000
MTEXTEND
1000
MTEXTBEGIN
1070
    73
1070
     1
1070
    44
1040
1.0
1070
    74
1070
     0
1000
MTEXTEND
  0
POINT
  5
2BCE
330
285D
100
AcDbEntity
  8
DEFPOINTS
 62
     0
100
AcDbPoint
 10
249.7263552993352
 20
101.7915278916696
 30
0.0
  0
POINT
  5
2BCF
330
285D
100
AcDbEntity
  8
DEFPOINTS
 62
     0
100
AcDbPoint
 10
249.7263552993352
 20
66.79152788666967
 30
0.0
  0
POINT
  5
2BD0
330
285D
100
AcDbEntity
  8
DEFPOINTS
 62
     0
100
AcDbPoint
 10
270.0648201168769
 20
66.79152788666967
 30
0.0
  0
ENDBLK
  5
2868
330
285D
100
AcDbEntity
  8
0
100
AcDbBlockEnd
  0
BLOCK
  5
2874
330
286A
100
AcDbEntity
  8
0
100
AcDbBlockBegin
  2
*D10
 70
     1
 10
0.0
 20
0.0
 30
0.0
  3
*D10
  1

  0
LINE
  5
2BD1
330
286A
100
AcDbEntity
  8
SUNPOU
100
AcDbLine
 10
172.1850073621739
 20
97.87850258922027
 30
0.0
 11
172.1850073621739
 21
134.3799914063706
 31
0.0
  0
LINE
  5
2BD2
330
286A
100
AcDbEntity
  8
SUNPOU
100
AcDbLine
 10
249.7263552993352
 20
104.7915278916696
 30
0.0
 11
249.7263552993352
 21
134.3799914063706
 31
0.0
  0
LINE
  5
2BD3
330
286A
100
AcDbEntity
  8
SUNPOU
100
AcDbLine
 10
175.1850073621739
 20
132.8799914063706
 30
0.0
 11
246.7263552993352
 21
132.8799914063706
 31
0.0
  0
INSERT
  5
2BD4
330
286A
100
AcDbEntity
  8
SUNPOU
100
AcDbBlockReference
  2
_OPEN
 10
172.1850073621739
 20
132.8799914063706
 30
0.0
 41
3.0
 42
3.0
 43
3.0
 50
180.0
  0
INSERT
  5
2BD5
330
286A
100
AcDbEntity
  8
SUNPOU
100
AcDbBlockReference
  2
_OPEN
 10
249.7263552993352
 20
132.8799914063706
 30
0.0
 41
3.0
 42
3.0
 43
3.0
  0
MTEXT
  5
2BD6
330
286A
100
AcDbEntity
  8
SUNPOU
100
AcDbMText
 10
210.9556813307546
 20
135.3799914063706
 30
0.0
 40
3.0
 41
0.0
 71
     5
 72
     5
  1
\A1;78
1001
ACAD
1000
MTEXTBEGIN
1070
    73
1070
     1
1070
    44
1040
1.0
1070
    74
1070
     0
1000
MTEXTEND
1000
MTEXTBEGIN
1070
    73
1070
     1
1070
    44
1040
1.0
1070
    74
1070
     0
1000
MTEXTEND
1000
MTEXTBEGIN
1070
    73
1070
     1
1070
    44
1040
1.0
1070
    74
1070
     0
1000
MTEXTEND
  0
POINT
  5
2BD7
330
286A
100
AcDbEntity
  8
DEFPOINTS
 62
     0
100
AcDbPoint
 10
172.1850073621739
 20
94.87850258922028
 30
0.0
  0
POINT
  5
2BD8
330
286A
100
AcDbEntity
  8
DEFPOINTS
 62
     0
100
AcDbPoint
 10
249.7263552993352
 20
101.7915278916696
 30
0.0
  0
POINT
  5
2BD9
330
286A
100
AcDbEntity
  8
DEFPOINTS
 62
     0
100
AcDbPoint
 10
249.7263552993352
 20
132.8799914063706
 30
0.0
  0
ENDBLK
  5
2875
330
286A
100
AcDbEntity
  8
0
100
AcDbBlockEnd
  0
BLOCK
  5
2881
330
2877
100
AcDbEntity
  8
0
100
AcDbBlockBegin
  2
*D11
 70
     1
 10
0.0
 20
0.0
 30
0.0
  3
*D11
  1

  0
LINE
  5
2BDA
330
2877
100
AcDbEntity
  8
SUNPOU
100
AcDbLine
 10
108.2260646393352
 20
95.14800260166969
 30
0.0
 11
108.2260646393352
 21
143.7982436964134
 31
0.0
  0
LINE
  5
2BDB
330
2877
100
AcDbEntity
  8
SUNPOU
100
AcDbLine
 10
249.7263552993352
 20
104.7915278916696
 30
0.0
 11
249.7263552993352
 21
143.7982436964134
 31
0.0
  0
LINE
  5
2BDC
330
2877
100
AcDbEntity
  8
SUNPOU
100
AcDbLine
 10
111.2260646393352
 20
142.2982436964134
 30
0.0
 11
246.7263552993352
 21
142.2982436964134
 31
0.0
  0
INSERT
  5
2BDD
330
2877
100
AcDbEntity
  8
SUNPOU
100
AcDbBlockReference
  2
_OPEN
 10
108.2260646393352
 20
142.2982436964134
 30
0.0
 41
3.0
 42
3.0
 43
3.0
 50
180.0
  0
INSERT
  5
2BDE
330
2877
100
AcDbEntity
  8
SUNPOU
100
AcDbBlockReference
  2
_OPEN
 10
249.7263552993352
 20
142.2982436964134
 30
0.0
 41
3.0
 42
3.0
 43
3.0
  0
MTEXT
  5
2BDF
330
2877
100
AcDbEntity
  8
SUNPOU
100
AcDbMText
 10
178.9762099693352
 20
144.7982436964134
 30
0.0
 40
3.0
 41
0.0
 71
     5
 72
     5
  1
\A1;142
1001
ACAD
1000
MTEXTBEGIN
1070
    73
1070
     1
1070
    44
1040
1.0
1070
    74
1070
     0
1000
MTEXTEND
1000
MTEXTBEGIN
1070
    73
1070
     1
1070
    44
1040
1.0
1070
    74
1070
     0
1000
MTEXTEND
1000
MTEXTBEGIN
1070
    73
1070
     1
1070
    44
1040
1.0
1070
    74
1070
     0
1000
MTEXTEND
  0
POINT
  5
2BE0
330
2877
100
AcDbEntity
  8
DEFPOINTS
 62
     0
100
AcDbPoint
 10
108.2260646393352
 20
92.1480026016697
 30
0.0
  0
POINT
  5
2BE1
330
2877
100
AcDbEntity
  8
DEFPOINTS
 62
     0
100
AcDbPoint
 10
249.7263552993352
 20
101.7915278916696
 30
0.0
  0
POINT
  5
2BE2
330
2877
100
AcDbEntity
  8
DEFPOINTS
 62
     0
100
AcDbPoint
 10
249.7263552993352
 20
142.2982436964134
 30
0.0
  0
ENDBLK
  5
2882
330
2877
100
AcDbEntity
  8
0
100
AcDbBlockEnd
  0
BLOCK
  5
288E
330
2884
100
AcDbEntity
  8
0
100
AcDbBlockBegin
  2
*D12
 70
     1
 10
0.0
 20
0.0
 30
0.0
  3
*D12
  1

  0
LINE
  5
2BE3
330
2884
100
AcDbEntity
  8
SUNPOU
100
AcDbLine
 10
55.72606463933522
 20
93.38257322101016
 30
0.0
 11
55.72606463933523
 21
153.464341572409
 31
0.0
  0
LINE
  5
2BE4
330
2884
100
AcDbEntity
  8
SUNPOU
100
AcDbLine
 10
249.7263552993352
 20
104.7915278916696
 30
0.0
 11
249.7263552993352
 21
153.464341572409
 31
0.0
  0
LINE
  5
2BE5
330
2884
100
AcDbEntity
  8
SUNPOU
100
AcDbLine
 10
58.72606463933522
 20
151.964341572409
 30
0.0
 11
246.7263552993352
 21
151.964341572409
 31
0.0
  0
INSERT
  5
2BE6
330
2884
100
AcDbEntity
  8
SUNPOU
100
AcDbBlockReference
  2
_OPEN
 10
55.72606463933523
 20
151.964341572409
 30
0.0
 41
3.0
 42
3.0
 43
3.0
 50
180.0
  0
INSERT
  5
2BE7
330
2884
100
AcDbEntity
  8
SUNPOU
100
AcDbBlockReference
  2
_OPEN
 10
249.7263552993352
 20
151.964341572409
 30
0.0
 41
3.0
 42
3.0
 43
3.0
  0
MTEXT
  5
2BE8
330
2884
100
AcDbEntity
  8
SUNPOU
100
AcDbMText
 10
152.7262099693352
 20
154.464341572409
 30
0.0
 40
3.0
 41
0.0
 71
     5
 72
     5
  1
\A1;194
1001
ACAD
1000
MTEXTBEGIN
1070
    73
1070
     1
1070
    44
1040
1.0
1070
    74
1070
     0
1000
MTEXTEND
1000
MTEXTBEGIN
1070
    73
1070
     1
1070
    44
1040
1.0
1070
    74
1070
     0
1000
MTEXTEND
1000
MTEXTBEGIN
1070
    73
1070
     1
1070
    44
1040
1.0
1070
    74
1070
     0
1000
MTEXTEND
  0
POINT
  5
2BE9
330
2884
100
AcDbEntity
  8
DEFPOINTS
 62
     0
100
AcDbPoint
 10
55.72606463933522
 20
90.38257322101015
 30
0.0
  0
POINT
  5
2BEA
330
2884
100
AcDbEntity
  8
DEFPOINTS
 62
     0
100
AcDbPoint
 10
249.7263552993352
 20
101.7915278916696
 30
0.0
  0
POINT
  5
2BEB
330
2884
100
AcDbEntity
  8
DEFPOINTS
 62
     0
100
AcDbPoint
 10
249.7263552993352
 20
151.964341572409
 30
0.0
  0
ENDBLK
  5
288F
330
2884
100
AcDbEntity
  8
0
100
AcDbBlockEnd
  0
BLOCK
  5
2B0A
330
2B00
100
AcDbEntity
  8
0
100
AcDbBlockBegin
  2
*D13
 70
     1
 10
0.0
 20
0.0
 30
0.0
  3
*D13
  1

  0
LINE
  5
2BEC
330
2B00
100
AcDbEntity
  8
SUNPOU
100
AcDbLine
 10
52.72606463933522
 20
90.84800260166968
 30
0.0
 11
27.39525187099751
 21
90.8480026016697
 31
0.0
  0
LINE
  5
2BED
330
2B00
100
AcDbEntity
  8
SUNPOU
100
AcDbLine
 10
240.1263552593352
 20
66.79152788666967
 30
0.0
 11
27.39525187099751
 21
66.79152788666974
 31
0.0
  0
LINE
  5
2BEE
330
2B00
100
AcDbEntity
  8
SUNPOU
100
AcDbLine
 10
28.89525187099751
 20
87.84800260166969
 30
0.0
 11
28.89525187099751
 21
69.79152788666974
 31
0.0
  0
INSERT
  5
2BEF
330
2B00
100
AcDbEntity
  8
SUNPOU
100
AcDbBlockReference
  2
_OPEN
 10
28.89525187099751
 20
90.8480026016697
 30
0.0
 41
3.0
 42
3.0
 43
3.0
 50
90.0
  0
INSERT
  5
2BF0
330
2B00
100
AcDbEntity
  8
SUNPOU
100
AcDbBlockReference
  2
_OPEN
 10
28.89525187099751
 20
66.79152788666974
 30
0.0
 41
3.0
 42
3.0
 43
3.0
 50
270.0
  0
MTEXT
  5
2BF1
330
2B00
100
AcDbEntity
  8
SUNPOU
100
AcDbMText
 10
26.39525187099749
 20
78.81976524416971
 30
0.0
 40
3.0
 41
0.0
 71
     5
 72
     5
  1
\A1;24
 11
0.0000000000000001
 21
1.0
 31
0.0
1001
ACAD
1000
MTEXTBEGIN
1070
    73
1070
     1
1070
    44
1040
1.0
1070
    74
1070
     0
1000
MTEXTEND
1000
MTEXTBEGIN
1070
    73
1070
     1
1070
    44
1040
1.0
1070
    74
1070
     0
1000
MTEXTEND
1000
MTEXTBEGIN
1070
    73
1070
     1
1070
    44
1040
1.0
1070
    74
1070
     0
1000
MTEXTEND
  0
POINT
  5
2BF2
330
2B00
100
AcDbEntity
  8
DEFPOINTS
 62
     0
100
AcDbPoint
 10
55.72606463933522
 20
90.84800260166968
 30
0.0
  0
POINT
  5
2BF3
330
2B00
100
AcDbEntity
  8
DEFPOINTS
 62
     0
100
AcDbPoint
 10
243.1263552593352
 20
66.79152788666967
 30
0.0
  0
POINT
  5
2BF4
330
2B00
100
AcDbEntity
  8
DEFPOINTS
 62
     0
100
AcDbPoint
 10
28.89525187099751
 20
66.79152788666974
 30
0.0
  0
ENDBLK
  5
2B0B
330
2B00
100
AcDbEntity
  8
0
100
AcDbBlockEnd
  0
ENDSEC
  0
SECTION
  2
ENTITIES
  0
TEXT
  5
9D
330
1A
100
AcDbEntity
  8
ZUWAKU
 48
5.0
100
AcDbText
 10
327.1013476411085
 20
8.060146781246267
 30
0.0
 40
4.0
  1

100
AcDbText
  0
ARC
  5
5A7
330
1A
100
AcDbEntity
  8
NOKITOI
  6
PHANTOM
 62
     8
100
AcDbCircle
 10
104.0630911361056
 20
84.94101707803972
 30
0.0
 40
43.00001447645168
100
AcDbArc
 50
186.5249107071177
 51
269.9998883751437
  0
ARC
  5
5A8
330
1A
100
AcDbEntity
  8
NOKITOI
  6
PHANTOM
 62
     8
100
AcDbCircle
 10
104.0631134445309
 20
84.94099697701333
 30
0.0
 40
41.79999437547816
100
AcDbArc
 50
184.4742952125247
 51
269.999854592109
  0
LINE
  5
5A9
330
1A
100
AcDbEntity
  8
NOKITOI
  6
PHANTOM
 62
     8
100
AcDbLine
 10
53.85210736256272
 20
84.07860260166964
 30
0.0
 11
53.76660736256304
 21
86.8161026016696
 31
0.0
  0
LINE
  5
5AA
330
1A
100
AcDbEntity
  8
NOKITOI
  6
PHANTOM
 62
     8
100
AcDbLine
 10
52.31400736256296
 20
94.87850260166963
 30
0.0
 11
52.70420736256278
 21
82.39420260166955
 31
0.0
  0
LINE
  5
5AB
330
1A
100
AcDbEntity
  8
NOKITOI
  6
PHANTOM
 62
     8
100
AcDbLine
 10
61.89200736256339
 20
82.14100260166967
 30
0.0
 11
55.85110736256297
 21
82.14100260166967
 31
0.0
  0
ARC
  5
5AC
330
1A
100
AcDbEntity
  8
NOKITOI
  6
PHANTOM
 62
     8
100
AcDbCircle
 10
60.34809893840042
 20
79.94101011672611
 30
0.0
 40
0.9999924849789756
100
AcDbArc
 50
6.528264606673934
 51
89.99951732740965
  0
LINE
  5
5AD
330
1A
100
AcDbEntity
  8
NOKITOI
  6
PHANTOM
 62
     8
100
AcDbLine
 10
54.20340736256298
 20
80.94100260166962
 30
0.0
 11
60.34810736256281
 21
80.94100260166962
 31
0.0
  0
ARC
  5
5AE
330
1A
100
AcDbEntity
  8
NOKITOI
  6
PHANTOM
 62
     8
100
AcDbCircle
 10
55.85112093470138
 20
84.14098944658324
 30
0.0
 40
1.999986844959662
100
AcDbArc
 50
181.7875531852356
 51
269.9996111843215
  0
ARC
  5
5AF
330
1A
100
AcDbEntity
  8
NOKITOI
  6
PHANTOM
 62
     8
100
AcDbCircle
 10
54.20344332171385
 20
82.44096774752639
 30
0.0
 40
1.499965146287778
100
AcDbArc
 50
181.7866280217767
 51
269.9986264296971
  0
ARC
  5
5B0
330
1A
100
AcDbEntity
  8
NOKITOI
  6
PHANTOM
 62
     8
100
AcDbCircle
 10
61.89201993227129
 20
81.64099097693995
 30
0.0
 40
0.5000116248877111
100
AcDbArc
 50
4.474846808342103
 51
90.00144034898383
  0
ARC
  5
5B1
330
1A
100
AcDbEntity
  8
NOKITOI
  6
PHANTOM
 62
     8
100
AcDbCircle
 10
54.31302011341291
 20
94.94101575675605
 30
0.0
 40
1.999986844954076
100
AcDbArc
 50
90.00036528735451
 51
181.7883072882703
  0
LINE
  5
5B2
330
1A
100
AcDbEntity
  8
NOKITOI
  6
PHANTOM
 62
     8
100
AcDbLine
 10
60.5909073625628
 20
94.44100260166962
 30
0.0
 11
58.35940736256294
 21
94.44100260166962
 31
0.0
  0
ARC
  5
5B3
330
1A
100
AcDbEntity
  8
NOKITOI
  6
PHANTOM
 62
     8
100
AcDbCircle
 10
60.27510047556802
 20
87.94099606658411
 30
0.0
 40
0.499993464961963
100
AcDbArc
 50
270.0007892017869
 51
356.997036131742
  0
LINE
  5
5B4
330
1A
100
AcDbEntity
  8
NOKITOI
  6
PHANTOM
 62
     8
100
AcDbLine
 10
59.61100736256298
 20
88.64100260166967
 30
0.0
 11
59.79220736256298
 21
92.0825026016698
 31
0.0
  0
LINE
  5
5B5
330
1A
100
AcDbEntity
  8
NOKITOI
  6
PHANTOM
 62
     8
100
AcDbLine
 10
59.23720736256314
 20
91.46940260166955
 30
0.0
 11
59.79220736256298
 21
92.0825026016698
 31
0.0
  0
ARC
  5
5B6
330
1A
100
AcDbEntity
  8
NOKITOI
  6
PHANTOM
 62
     8
100
AcDbCircle
 10
57.7647275752322
 20
86.94106133004968
 30
0.0
 40
5.2000412730095
100
AcDbArc
 50
90.0013245430618
 51
142.0757990790548
  0
LINE
  5
5B7
330
1A
100
AcDbEntity
  8
NOKITOI
  6
PHANTOM
 62
     8
100
AcDbLine
 10
53.51340736256338
 20
94.91600260166952
 30
0.0
 11
53.66280736256271
 21
90.13710260166973
 31
0.0
  0
ARC
  5
5B8
330
1A
100
AcDbEntity
  8
NOKITOI
  6
PHANTOM
 62
     8
100
AcDbCircle
 10
57.76464524400967
 20
86.94104638419501
 30
0.0
 40
3.999989731271038
100
AcDbArc
 50
96.47731142013116
 51
181.7899836067311
  0
ARC
  5
5B9
330
1A
100
AcDbEntity
  8
NOKITOI
  6
PHANTOM
 62
     8
100
AcDbCircle
 10
57.36982158097839
 20
90.41868796736864
 30
0.0
 40
0.5000073448410256
100
AcDbArc
 50
351.872947864124
 51
96.47829282996921
  0
LINE
  5
5BA
330
1A
100
AcDbEntity
  8
NOKITOI
  6
PHANTOM
 62
     8
100
AcDbLine
 10
58.8331073625634
 20
88.64100260166967
 30
0.0
 11
59.23720736256314
 21
91.46940260166955
 31
0.0
  0
LINE
  5
5BB
330
1A
100
AcDbEntity
  8
NOKITOI
  6
PHANTOM
 62
     8
100
AcDbLine
 10
59.61100736256298
 20
88.64100260166967
 30
0.0
 11
58.8331073625634
 21
88.64100260166967
 31
0.0
  0
ARC
  5
5BC
330
1A
100
AcDbEntity
  8
NOKITOI
  6
PHANTOM
 62
     8
100
AcDbCircle
 10
58.02603396316067
 20
87.94097192478758
 30
0.0
 40
0.4999693238254178
100
AcDbArc
 50
171.8555038770531
 51
269.9969516090356
  0
LINE
  5
5BD
330
1A
100
AcDbEntity
  8
NOKITOI
  6
PHANTOM
 62
     8
100
AcDbLine
 10
60.27510736256295
 20
87.44100260166963
 30
0.0
 11
58.02600736256295
 21
87.44100260166963
 31
0.0
  0
LINE
  5
5BE
330
1A
100
AcDbEntity
  8
NOKITOI
  6
PHANTOM
 62
     8
100
AcDbLine
 10
57.53110736256281
 20
88.01180260166981
 30
0.0
 11
57.86480736256294
 21
90.34800260166978
 31
0.0
  0
LINE
  5
5BF
330
1A
100
AcDbEntity
  8
NOKITOI
  6
PHANTOM
 62
     8
100
AcDbLine
 10
56.78580736256321
 20
95.7410026016698
 30
0.0
 11
56.28580736256322
 21
93.2410026016698
 31
0.0
  0
LINE
  5
5C0
330
1A
100
AcDbEntity
  8
NOKITOI
  6
PHANTOM
 62
     8
100
AcDbLine
 10
56.28580736256322
 20
93.2410026016698
 30
0.0
 11
59.22230736256302
 21
93.2410026016698
 31
0.0
  0
LINE
  5
5C1
330
1A
100
AcDbEntity
  8
NOKITOI
  6
PHANTOM
 62
     8
100
AcDbLine
 10
54.31300736256275
 20
96.94100260166962
 30
0.0
 11
57.63960736256308
 21
96.94100260166962
 31
0.0
  0
LINE
  5
5C2
330
1A
100
AcDbEntity
  8
NOKITOI
  6
PHANTOM
 62
     8
100
AcDbLine
 10
54.31300736256275
 20
95.7410026016698
 30
0.0
 11
56.78580736256321
 21
95.7410026016698
 31
0.0
  0
ARC
  5
5C3
330
1A
100
AcDbEntity
  8
NOKITOI
  6
PHANTOM
 62
     8
100
AcDbCircle
 10
54.31301185736106
 20
94.94100723919652
 30
0.0
 40
0.7999953624857498
100
AcDbArc
 50
90.00032191805264
 51
181.7911273464193
  0
ARC
  5
5C4
330
1A
100
AcDbEntity
  8
NOKITOI
  6
PHANTOM
 62
     8
100
AcDbCircle
 10
57.63960657955454
 20
96.44100355667134
 30
0.0
 40
0.4999990449987349
100
AcDbArc
 50
348.6967198015447
 51
89.99991027369492
  0
ARC
  5
5C5
330
1A
100
AcDbEntity
  8
NOKITOI
  6
PHANTOM
 62
     8
100
AcDbCircle
 10
58.35940010800754
 20
94.94101145151304
 30
0.0
 40
0.5000088498959383
100
AcDbArc
 50
168.6864043304892
 51
270.0008312961442
  0
LINE
  5
5C6
330
1A
100
AcDbEntity
  8
NOKITOI
  6
PHANTOM
 62
     8
100
AcDbLine
 10
57.869107362563
 20
95.03910260166955
 30
0.0
 11
58.12990736256302
 21
96.34300260166966
 31
0.0
  0
LINE
  5
5C7
330
1A
100
AcDbEntity
  8
NOKITOI
  6
PHANTOM
 62
     8
100
AcDbLine
 10
58.22650736256332
 20
92.14100260166967
 30
0.0
 11
57.76460736256308
 21
92.14100260166967
 31
0.0
  0
LINE
  5
5C8
330
1A
100
AcDbEntity
  8
NOKITOI
  6
PHANTOM
 62
     8
100
AcDbLine
 10
58.22650736256332
 20
92.14100260166967
 30
0.0
 11
59.22230736256302
 21
93.2410026016698
 31
0.0
  0
LINE
  5
5C9
330
1A
100
AcDbEntity
  8
NOKITOI
  6
PHANTOM
 62
     8
100
AcDbLine
 10
60.77450736256309
 20
87.91480260166961
 30
0.0
 11
61.09030736256295
 21
93.91470260166963
 31
0.0
  0
ARC
  5
5CA
330
1A
100
AcDbEntity
  8
NOKITOI
  6
PHANTOM
 62
     8
100
AcDbCircle
 10
60.59090116140509
 20
93.9410091367549
 30
0.0
 40
0.4999934649531607
100
AcDbArc
 50
356.9955363203376
 51
89.99928939038076
  0
LINE
  5
5CB
330
1A
100
AcDbEntity
  8
NOKITOI
  6
PHANTOM
 62
     8
100
AcDbLine
 10
144.892507362563
 20
41.94090260166965
 30
0.0
 11
124.7346073625633
 21
41.94090260166965
 31
0.0
  0
LINE
  5
5CC
330
1A
100
AcDbEntity
  8
NOKITOI
  6
PHANTOM
 62
     8
100
AcDbLine
 10
144.6427073625629
 20
43.14090260166969
 30
0.0
 11
124.7346073625633
 21
43.14090260166969
 31
0.0
  0
LINE
  5
5CD
330
1A
100
AcDbEntity
  8
NOKITOI
  6
PHANTOM
 62
     8
100
AcDbLine
 10
148.892507362563
 20
41.94090260166965
 30
0.0
 11
104.0631073625629
 21
41.94100260166962
 31
0.0
  0
LINE
  5
5CE
330
1A
100
AcDbEntity
  8
NOKITOI
  6
PHANTOM
 62
     8
100
AcDbLine
 10
104.0631073625629
 20
43.14100260166966
 30
0.0
 11
148.6427073625629
 21
43.14090260166969
 31
0.0
  0
LINE
  5
5CF
330
1A
100
AcDbEntity
  8
NOKITOI
  6
PHANTOM
 62
     8
100
AcDbLine
 10
170.647007362563
 20
84.07840260166969
 30
0.0
 11
170.7325073625627
 21
86.81600260166963
 31
0.0
  0
LINE
  5
5D0
330
1A
100
AcDbEntity
  8
NOKITOI
  6
PHANTOM
 62
     8
100
AcDbLine
 10
172.185007362563
 20
94.87850260166963
 30
0.0
 11
171.7949073625629
 21
82.39410260166957
 31
0.0
  0
LINE
  5
5D1
330
1A
100
AcDbEntity
  8
NOKITOI
  6
PHANTOM
 62
     8
100
AcDbLine
 10
170.295607362563
 20
80.94100260166962
 30
0.0
 11
164.1545073625631
 21
80.94100260166962
 31
0.0
  0
LINE
  5
5D2
330
1A
100
AcDbEntity
  8
NOKITOI
  6
PHANTOM
 62
     8
100
AcDbLine
 10
162.6160073625626
 20
82.14100260166967
 30
0.0
 11
168.647907362563
 21
82.14100260166967
 31
0.0
  0
LINE
  5
5D3
330
1A
100
AcDbEntity
  8
NOKITOI
  6
PHANTOM
 62
     8
100
AcDbLine
 10
163.1595073625632
 20
80.04050260166966
 30
0.0
 11
160.2907073625631
 21
51.35310260166964
 31
0.0
  0
LINE
  5
5D4
330
1A
100
AcDbEntity
  8
NOKITOI
  6
PHANTOM
 62
     8
100
AcDbLine
 10
162.1185073625631
 20
81.69080260166968
 30
0.0
 11
159.1255073625627
 21
51.76100260166956
 31
0.0
  0
LINE
  5
5D5
330
1A
100
AcDbEntity
  8
NOKITOI
  6
PHANTOM
 62
     8
100
AcDbLine
 10
159.9289073625629
 20
50.67860260166978
 30
0.0
 11
149.5258073625629
 21
42.16690260166976
 31
0.0
  0
LINE
  5
5D6
330
1A
100
AcDbEntity
  8
NOKITOI
  6
PHANTOM
 62
     8
100
AcDbLine
 10
158.9446073625633
 20
51.42370260166964
 30
0.0
 11
148.959307362563
 21
43.25390260166952
 31
0.0
  0
ARC
  5
5D7
330
1A
100
AcDbEntity
  8
NOKITOI
  6
PHANTOM
 62
     8
100
AcDbCircle
 10
148.8925004299855
 20
42.94090012666353
 30
0.0
 40
0.9999975250179316
100
AcDbArc
 50
270.0003972084035
 51
309.2946416752299
  0
ARC
  5
5D8
330
1A
100
AcDbEntity
  8
NOKITOI
  6
PHANTOM
 62
     8
100
AcDbCircle
 10
148.6427137503116
 20
43.64090488165922
 30
0.0
 40
0.5000022800304047
100
AcDbArc
 50
269.9992680212791
 51
309.2854498596061
  0
ARC
  5
5D9
330
1A
100
AcDbEntity
  8
NOKITOI
  6
PHANTOM
 62
     8
100
AcDbCircle
 10
159.2956847896941
 20
51.45256052999704
 30
0.0
 40
0.9999908507640039
100
AcDbArc
 50
309.288709223069
 51
354.2862329477532
  0
ARC
  5
5DA
330
1A
100
AcDbEntity
  8
NOKITOI
  6
PHANTOM
 62
     8
100
AcDbCircle
 10
158.6279899366847
 20
51.81067011528168
 30
0.0
 40
0.4999904508696396
100
AcDbArc
 50
309.2900846377951
 51
354.2990110749239
  0
ARC
  5
5DB
330
1A
100
AcDbEntity
  8
NOKITOI
  6
PHANTOM
 62
     8
100
AcDbCircle
 10
164.1545280124039
 20
79.94102128951883
 30
0.0
 40
0.9999813123640345
100
AcDbArc
 50
90.00118317084911
 51
174.2905900333514
  0
ARC
  5
5DC
330
1A
100
AcDbEntity
  8
NOKITOI
  6
PHANTOM
 62
     8
100
AcDbCircle
 10
162.6160204335676
 20
81.64101443194951
 30
0.0
 40
0.499988169890889
100
AcDbArc
 50
90.00149786226634
 51
174.2966061377162
  0
ARC
  5
5DD
330
1A
100
AcDbEntity
  8
NOKITOI
  6
PHANTOM
 62
     8
100
AcDbCircle
 10
170.2956245757411
 20
82.44101928481743
 30
0.0
 40
1.500016683246579
100
AcDbArc
 50
269.9993425123344
 51
358.2076423244113
  0
ARC
  5
5DE
330
1A
100
AcDbEntity
  8
NOKITOI
  6
PHANTOM
 62
     8
100
AcDbCircle
 10
168.6479453503872
 20
84.14093942224187
 30
0.0
 40
2.000036820932882
100
AcDbArc
 50
269.9989117490344
 51
358.2110591274195
  0
LINE
  5
5DF
330
1A
100
AcDbEntity
  8
NOKITOI
  6
PHANTOM
 62
     8
100
AcDbLine
 10
170.1860073625632
 20
96.94090260166966
 30
0.0
 11
166.8594073625629
 21
96.94100260166962
 31
0.0
  0
LINE
  5
5E0
330
1A
100
AcDbEntity
  8
NOKITOI
  6
PHANTOM
 62
     8
100
AcDbLine
 10
168.2133073625629
 20
93.2410026016698
 30
0.0
 11
165.2767073625629
 21
93.2410026016698
 31
0.0
  0
ARC
  5
5E1
330
1A
100
AcDbEntity
  8
NOKITOI
  6
PHANTOM
 62
     8
100
AcDbCircle
 10
167.1292367350626
 20
90.41863283416452
 30
0.0
 40
0.4999578477751074
100
AcDbArc
 50
83.52609071220754
 51
188.1330561712932
  0
ARC
  5
5E2
330
1A
100
AcDbEntity
  8
NOKITOI
  6
PHANTOM
 62
     8
100
AcDbCircle
 10
166.7344894962118
 20
86.94101133004958
 30
0.0
 40
5.199991271650611
100
AcDbArc
 50
37.92532860472995
 51
89.9998031407256
  0
LINE
  5
5E3
330
1A
100
AcDbEntity
  8
NOKITOI
  6
PHANTOM
 62
     8
100
AcDbLine
 10
164.888007362563
 20
88.64100260166967
 30
0.0
 11
164.7069073625627
 21
92.08240260166959
 31
0.0
  0
LINE
  5
5E4
330
1A
100
AcDbEntity
  8
NOKITOI
  6
PHANTOM
 62
     8
100
AcDbLine
 10
165.261907362563
 20
91.46940260166955
 30
0.0
 11
164.7069073625627
 21
92.08240260166959
 31
0.0
  0
LINE
  5
5E5
330
1A
100
AcDbEntity
  8
NOKITOI
  6
PHANTOM
 62
     8
100
AcDbLine
 10
163.724607362563
 20
87.91470260166963
 30
0.0
 11
163.4088073625627
 21
93.91470260166963
 31
0.0
  0
LINE
  5
5E6
330
1A
100
AcDbEntity
  8
NOKITOI
  6
PHANTOM
 62
     8
100
AcDbLine
 10
165.6659073625625
 20
88.64100260166967
 30
0.0
 11
165.261907362563
 21
91.46940260166955
 31
0.0
  0
LINE
  5
5E7
330
1A
100
AcDbEntity
  8
NOKITOI
  6
PHANTOM
 62
     8
100
AcDbLine
 10
164.888007362563
 20
88.64100260166967
 30
0.0
 11
165.6659073625625
 21
88.64100260166967
 31
0.0
  0
LINE
  5
5E8
330
1A
100
AcDbEntity
  8
NOKITOI
  6
PHANTOM
 62
     8
100
AcDbLine
 10
164.223907362563
 20
87.44100260166963
 30
0.0
 11
166.4730073625625
 21
87.44100260166963
 31
0.0
  0
ARC
  5
5E9
330
1A
100
AcDbEntity
  8
NOKITOI
  6
PHANTOM
 62
     8
100
AcDbCircle
 10
164.2239114839696
 20
87.94099869163913
 30
0.0
 40
0.4999960899864752
100
AcDbArc
 50
183.0147243791741
 51
269.9995277178593
  0
ARC
  5
5EA
330
1A
100
AcDbEntity
  8
NOKITOI
  6
PHANTOM
 62
     8
100
AcDbCircle
 10
166.4730175489991
 20
87.94101434639376
 30
0.0
 40
0.5000117448278309
100
AcDbArc
 50
269.9988327478016
 51
8.127314608715551
  0
LINE
  5
5EB
330
1A
100
AcDbEntity
  8
NOKITOI
  6
PHANTOM
 62
     8
100
AcDbLine
 10
166.9680073625629
 20
88.0117026016696
 30
0.0
 11
166.634207362563
 21
90.3479026016698
 31
0.0
  0
LINE
  5
5EC
330
1A
100
AcDbEntity
  8
NOKITOI
  6
PHANTOM
 62
     8
100
AcDbLine
 10
163.9081073625631
 20
94.44100260166962
 30
0.0
 11
166.139607362563
 21
94.44100260166962
 31
0.0
  0
ARC
  5
5ED
330
1A
100
AcDbEntity
  8
NOKITOI
  6
PHANTOM
 62
     8
100
AcDbCircle
 10
163.9081110720582
 20
93.94100651170035
 30
0.0
 40
0.4999960899831856
100
AcDbArc
 50
90.00042508015082
 51
183.0156217414647
  0
ARC
  5
5EE
330
1A
100
AcDbEntity
  8
NOKITOI
  6
PHANTOM
 62
     8
100
AcDbCircle
 10
166.8594001080075
 20
96.44099375182619
 30
0.0
 40
0.500008849895925
100
AcDbArc
 50
89.99916870385415
 51
191.3135956695126
  0
ARC
  5
5EF
330
1A
100
AcDbEntity
  8
NOKITOI
  6
PHANTOM
 62
     8
100
AcDbCircle
 10
166.1396065795545
 20
94.94100164666789
 30
0.0
 40
0.4999990449987399
100
AcDbArc
 50
270.000089726305
 51
11.30328019845521
  0
LINE
  5
5F0
330
1A
100
AcDbEntity
  8
NOKITOI
  6
PHANTOM
 62
     8
100
AcDbLine
 10
166.629907362563
 20
95.03900260166981
 30
0.0
 11
166.3691073625629
 21
96.34300260166966
 31
0.0
  0
LINE
  5
5F1
330
1A
100
AcDbEntity
  8
NOKITOI
  6
PHANTOM
 62
     8
100
AcDbLine
 10
166.2725073625631
 20
92.14100260166967
 30
0.0
 11
166.7345073625631
 21
92.14100260166967
 31
0.0
  0
LINE
  5
5F2
330
1A
100
AcDbEntity
  8
NOKITOI
  6
PHANTOM
 62
     8
100
AcDbLine
 10
166.2725073625631
 20
92.14100260166967
 30
0.0
 11
165.2767073625629
 21
93.2410026016698
 31
0.0
  0
LINE
  5
5F3
330
1A
100
AcDbEntity
  8
NOKITOI
  6
PHANTOM
 62
     8
100
AcDbLine
 10
170.9856073625626
 20
94.91600260166952
 30
0.0
 11
170.836307362563
 21
90.13700260166976
 31
0.0
  0
ARC
  5
5F4
330
1A
100
AcDbEntity
  8
NOKITOI
  6
PHANTOM
 62
     8
100
AcDbCircle
 10
166.7344764356268
 20
86.94103834633343
 30
0.0
 40
3.99998565374706
100
AcDbArc
 50
358.208696659101
 51
83.52422380468341
  0
ARC
  5
5F5
330
1A
100
AcDbEntity
  8
NOKITOI
  6
PHANTOM
 62
     8
100
AcDbCircle
 10
170.1859961255688
 20
94.94101419548675
 30
0.0
 40
1.999988406214315
100
AcDbArc
 50
358.2088726535936
 51
89.99967808195551
  0
LINE
  5
5F6
330
1A
100
AcDbEntity
  8
NOKITOI
  6
PHANTOM
 62
     8
100
AcDbLine
 10
170.1860073625632
 20
95.74090260166959
 30
0.0
 11
167.7133073625629
 21
95.7410026016698
 31
0.0
  0
LINE
  5
5F7
330
1A
100
AcDbEntity
  8
NOKITOI
  6
PHANTOM
 62
     8
100
AcDbLine
 10
167.7133073625629
 20
95.7410026016698
 30
0.0
 11
168.2133073625629
 21
93.2410026016698
 31
0.0
  0
ARC
  5
5F8
330
1A
100
AcDbEntity
  8
NOKITOI
  6
PHANTOM
 62
     8
100
AcDbCircle
 10
170.1860513289159
 20
94.94095723919665
 30
0.0
 40
0.7999453636812564
100
AcDbArc
 50
358.2123436447881
 51
90.00314907315425
  0
LINE
  5
1D19
330
1A
100
AcDbEntity
  8
SEIHIN
100
AcDbLine
 10
131.4407832825505
 20
91.73378904482936
 30
0.0
 11
144.2282698393352
 21
104.5212757016697
 31
0.0
  0
ARC
  5
1D1B
330
1A
100
AcDbEntity
  8
SEIHIN
100
AcDbCircle
 10
130.7407832393352
 20
91.94800260166969
 30
0.0
 40
5.500000002456481
100
AcDbArc
 50
270.0
 51
315.0
  0
LINE
  5
1D1E
330
1A
100
AcDbEntity
  8
SEIHIN
100
AcDbLine
 10
65.62963783933525
 20
78.84800260166968
 30
0.0
 11
134.0544917393352
 21
78.84800260166968
 31
0.0
  0
LINE
  5
1D23
330
1A
100
AcDbEntity
  8
SEIHIN
100
AcDbLine
 10
130.7336764609706
 20
92.44089582324951
 30
0.0
 11
143.5211630393352
 21
105.2283825016696
 31
0.0
  0
LINE
  5
1D24
330
1A
100
AcDbEntity
  8
CENTER_L
100
AcDbLine
 10
118.2260646393352
 20
101.338605475777
 30
0.0
 11
118.2260646393352
 21
76.39958802379474
 31
0.0
  0
LINE
  5
1D2A
330
1A
100
AcDbEntity
  8
SEIHIN
100
AcDbLine
 10
108.2260646393352
 20
92.1480026016697
 30
0.0
 11
108.2260646393352
 21
86.6480026016697
 31
0.0
  0
LINE
  5
1D2C
330
1A
100
AcDbEntity
  8
SEIHIN
100
AcDbLine
 10
58.02606463933523
 20
86.4480026016697
 30
0.0
 11
130.7409476210787
 21
86.4480026016697
 31
0.0
  0
ARC
  5
1D41
330
1A
100
AcDbEntity
  8
SEIHIN
100
AcDbCircle
 10
65.62963783933525
 20
80.44800260166971
 30
0.0
 40
1.599999992064534
100
AcDbArc
 50
185.0000004668387
 51
270.0
  0
LINE
  5
1D42
330
1A
100
AcDbEntity
  8
SEIHIN
100
AcDbLine
 10
58.82606463933519
 20
83.84800260166967
 30
0.0
 11
63.72606463933522
 21
83.84800260166967
 31
0.0
  0
ARC
  5
1D43
330
1A
100
AcDbEntity
  8
SEIHIN
100
AcDbCircle
 10
58.82606463933519
 20
86.94800260166969
 30
0.0
 40
3.100000000000008
100
AcDbArc
 50
180.0
 51
270.0
  0
LINE
  5
1D44
330
1A
100
AcDbEntity
  8
SEIHIN
100
AcDbLine
 10
55.72606463933522
 20
90.84800260166968
 30
0.0
 11
57.52606463933523
 21
90.84800260166968
 31
0.0
  0
ARC
  5
1D45
330
1A
100
AcDbEntity
  8
SEIHIN
100
AcDbCircle
 10
58.02606463933523
 20
86.94800260166969
 30
0.0
 40
0.5
100
AcDbArc
 50
180.0
 51
270.0
  0
LINE
  5
1D46
330
1A
100
AcDbEntity
  8
SEIHIN
100
AcDbLine
 10
55.72606463933522
 20
90.84800260166968
 30
0.0
 11
55.72606463933522
 21
86.94800260166969
 31
0.0
  0
LINE
  5
1D47
330
1A
100
AcDbEntity
  8
SEIHIN
100
AcDbLine
 10
57.52606463933523
 20
90.84800260166968
 30
0.0
 11
57.52606463933523
 21
86.94800260166969
 31
0.0
  0
LINE
  5
1D48
330
1A
100
AcDbEntity
  8
SEIHIN
100
AcDbLine
 10
64.03572633933521
 20
80.3085534016697
 30
0.0
 11
63.49859409956877
 21
86.44800260166968
 31
0.0
  0
LINE
  5
1D4B
330
1A
100
AcDbEntity
  8
SEIHIN
100
AcDbLine
 10
108.2260646393352
 20
91.14800260166971
 30
0.0
 11
130.0265697146446
 21
91.14800260166971
 31
0.0
  0
LINE
  5
1D4D
330
1A
100
AcDbEntity
  8
SEIHIN
100
AcDbLine
 10
108.2260646393352
 20
86.4480026016697
 30
0.0
 11
130.7407832393352
 21
86.4480026016697
 31
0.0
  0
ARC
  5
1D5C
330
1A
100
AcDbEntity
  8
SEIHIN
100
AcDbCircle
 10
118.2260646393352
 20
86.2573776016697
 30
0.0
 40
7.890625
100
AcDbArc
 50
48.29108392084388
 51
131.708916079156
  0
LINE
  5
1D5D
330
1A
100
AcDbEntity
  8
SEIHIN
100
AcDbLine
 10
108.2260646393352
 20
92.1480026016697
 30
0.0
 11
130.0265696770177
 21
92.14800260166969
 31
0.0
  0
LINE
  5
1D60
330
1A
100
AcDbEntity
  8
CENTER_L
100
AcDbLine
 10
340.7807254506772
 20
117.141300588573
 30
0.0
 11
340.7807254506772
 21
58.18440262695727
 31
0.0
  0
LINE
  5
1D61
330
1A
100
AcDbEntity
  8
SEIHIN
100
AcDbLine
 10
350.7807254506772
 20
109.9390831364368
 30
0.0
 11
350.7807254506772
 21
66.79152788666967
 31
0.0
  0
LINE
  5
1D63
330
1A
100
AcDbEntity
  8
SEIHIN
100
AcDbLine
 10
336.7807254506771
 20
105.2678166989889
 30
0.0
 11
336.7807254506771
 21
110.3067111364368
 31
0.0
  0
LINE
  5
1D64
330
1A
100
AcDbEntity
  8
SEIHIN
100
AcDbLine
 10
344.7807254506772
 20
105.2678166989889
 30
0.0
 11
344.7807254506772
 21
110.3067111364368
 31
0.0
  0
LINE
  5
1D65
330
1A
100
AcDbEntity
  8
SEIHIN
100
AcDbLine
 10
177.7260646393352
 20
97.94800260166972
 30
0.0
 11
177.7260646393352
 21
80.92248492424152
 31
0.0
  0
LINE
  5
1D66
330
1A
100
AcDbEntity
  8
SEIHIN
100
AcDbLine
 10
330.7807254506772
 20
109.9390831364368
 30
0.0
 11
330.7807254506771
 21
66.79152788666967
 31
0.0
  0
LINE
  5
1D67
330
1A
100
AcDbEntity
  8
SEIHIN
100
AcDbLine
 10
174.1260646393352
 20
97.94800260166972
 30
0.0
 11
174.1260646393352
 21
80.9748927016697
 31
0.0
  0
LINE
  5
1D68
330
1A
100
AcDbEntity
  8
SEIHIN
100
AcDbLine
 10
176.7260646393352
 20
97.94800260166972
 30
0.0
 11
176.7260646393352
 21
80.9748927016697
 31
0.0
  0
LINE
  5
1D6C
330
1A
100
AcDbEntity
  8
SEIHIN
100
AcDbLine
 10
137.6607363393352
 20
80.34175800166968
 30
0.0
 11
152.0605662983239
 21
94.74158803789839
 31
0.0
  0
LINE
  5
1D6E
330
1A
100
AcDbEntity
  8
SEIHIN
100
AcDbLine
 10
134.6298705393352
 20
88.0589153016697
 30
0.0
 11
146.4604201342801
 21
99.88946489661465
 31
0.0
  0
LINE
  5
1D79
330
1A
100
AcDbEntity
  8
SEIHIN
100
AcDbLine
 10
148.7072909393352
 20
77.44292550166967
 30
0.0
 11
160.6503373393352
 21
83.26793840166969
 31
0.0
  0
LINE
  5
1D7A
330
1A
100
AcDbEntity
  8
SEIHIN
100
AcDbLine
 10
149.3648475393352
 20
76.09473430166968
 30
0.0
 11
160.6503373393352
 21
81.59903550166969
 31
0.0
  0
LINE
  5
1D7B
330
1A
100
AcDbEntity
  8
SEIHIN
100
AcDbLine
 10
148.5319425393352
 20
77.80244310166968
 30
0.0
 11
160.3749888393352
 21
83.57868270166967
 31
0.0
  0
LINE
  5
1D7D
330
1A
100
AcDbEntity
  8
SEIHIN
100
AcDbLine
 10
137.6495925904091
 20
80.33064859830799
 30
0.0
 11
146.7818794393352
 21
76.07219330166969
 31
0.0
  0
ARC
  5
1D7E
330
1A
100
AcDbEntity
  8
SEIHIN
100
AcDbCircle
 10
134.0544917393352
 20
83.9480026016697
 30
0.0
 40
5.100000011277387
100
AcDbArc
 50
270.0
 51
315.0
  0
LINE
  5
1D7F
330
1A
100
AcDbEntity
  8
SEIHIN
100
AcDbLine
 10
139.0793419149533
 20
81.76036358489714
 30
0.0
 11
147.5848542393352
 21
77.79417810166968
 31
0.0
  0
LINE
  5
1D80
330
1A
100
AcDbEntity
  8
SEIHIN
100
AcDbLine
 10
138.7783470052688
 20
81.45936867359809
 30
0.0
 11
147.4158069393352
 21
77.43165500166968
 31
0.0
  0
ARC
  5
1D81
330
1A
100
AcDbEntity
  8
SEIHIN
100
AcDbCircle
 10
148.0497343393352
 20
78.79111660166969
 30
0.0
 40
1.499999997384386
100
AcDbArc
 50
244.9999984438223
 51
295.9999936879063
  0
ARC
  5
1D83
330
1A
100
AcDbEntity
  8
SEIHIN
100
AcDbCircle
 10
148.0497343393352
 20
78.79111660166969
 30
0.0
 40
1.099999981342675
100
AcDbArc
 50
244.9999979823536
 51
295.9999960018844
  0
ARC
  5
1D84
330
1A
100
AcDbEntity
  8
SEIHIN
100
AcDbCircle
 10
148.0497343393352
 20
78.79111660166969
 30
0.0
 40
2.9999999920909
100
AcDbArc
 50
244.9999949819811
 51
295.999994525133
  0
ARC
  5
1D86
330
1A
100
AcDbEntity
  8
SEIHIN
100
AcDbCircle
 10
158.7215042393352
 20
87.2226322016697
 30
0.0
 40
4.400000010194002
100
AcDbArc
 50
296.0000006547247
 51
359.9999934891161
  0
ARC
  5
1D87
330
1A
100
AcDbEntity
  8
SEIHIN
100
AcDbCircle
 10
158.6215042393352
 20
87.17385890166967
 30
0.0
 40
4.000000009467725
100
AcDbArc
 50
296.0000000723986
 51
0.0
  0
LINE
  5
1D88
330
1A
100
AcDbEntity
  8
SEIHIN
100
AcDbLine
 10
163.1215042393352
 20
85.55372880166968
 30
0.0
 11
163.1215042393352
 21
89.68195940166969
 31
0.0
  0
ARC
  5
1D8A
330
1A
100
AcDbEntity
  8
SEIHIN
100
AcDbCircle
 10
158.7215042393352
 20
85.55372930166969
 30
0.0
 40
4.400000010194002
100
AcDbArc
 50
296.0000006547247
 51
359.9999934891161
  0
LINE
  5
1D8B
330
1A
100
AcDbEntity
  8
SEIHIN
100
AcDbLine
 10
162.6215042393352
 20
89.68195940166969
 30
0.0
 11
163.1215042393352
 21
89.68195940166969
 31
0.0
  0
LINE
  5
1D8C
330
1A
100
AcDbEntity
  8
SEIHIN
100
AcDbLine
 10
162.6215042393352
 20
87.17385890166967
 30
0.0
 11
162.6215042393352
 21
89.68195940166969
 31
0.0
  0
LINE
  5
1D92
330
1A
100
AcDbEntity
  8
SEIHIN
100
AcDbLine
 10
167.2356578393352
 20
80.81435430166969
 30
0.0
 11
167.1048179816022
 21
78.31778050469536
 31
0.0
  0
ARC
  5
1D93
330
1A
100
AcDbEntity
  8
SEIHIN
100
AcDbCircle
 10
173.7260646393352
 20
80.9748927016697
 30
0.0
 40
2.999999998689364
100
AcDbArc
 50
266.9999993993207
 51
0.0
  0
LINE
  5
1D94
330
1A
100
AcDbEntity
  8
SEIHIN
100
AcDbLine
 10
174.5690567683058
 20
77.92659632009836
 30
0.0
 11
167.1048180393352
 21
78.3177805016697
 31
0.0
  0
LINE
  5
1D96
330
1A
100
AcDbEntity
  8
SEIHIN
100
AcDbLine
 10
173.7051302393352
 20
80.57544090166969
 30
0.0
 11
167.2408914393352
 21
80.91421730166969
 31
0.0
  0
ARC
  5
1D97
330
1A
100
AcDbEntity
  8
SEIHIN
100
AcDbCircle
 10
173.7260646393352
 20
80.9748927016697
 30
0.0
 40
0.3999999935166316
100
AcDbArc
 50
266.999997392128
 51
0.0
  0
LINE
  5
1D9E
330
1A
100
AcDbEntity
  8
SEIHIN
100
AcDbLine
 10
330.7807254506772
 20
109.9390831364368
 30
0.0
 11
333.3807254506773
 21
109.9390831364368
 31
0.0
  0
LINE
  5
1DA6
330
1A
100
AcDbEntity
  8
SEIHIN
100
AcDbLine
 10
348.1807254506773
 20
109.9390831364368
 30
0.0
 11
350.7807254506772
 21
109.9390831364368
 31
0.0
  0
ARC
  5
1DA7
330
1A
100
AcDbEntity
  8
SEIHIN
100
AcDbCircle
 10
368.7807254506772
 20
98.79152788666967
 30
0.0
 40
3.0
100
AcDbArc
 50
0.0000019098594751
 51
90.0
  0
ARC
  5
1DA8
330
1A
100
AcDbEntity
  8
SEIHIN
100
AcDbCircle
 10
368.7807254506772
 20
69.79152788666967
 30
0.0
 40
3.000000000000003
100
AcDbArc
 50
270.0
 51
0.0000038197189503
  0
LINE
  5
1DAE
330
1A
100
AcDbEntity
  8
SEIHIN
100
AcDbLine
 10
171.9905528393352
 20
102.3847020016696
 30
0.0
 11
149.4067042393352
 21
101.2011327016696
 31
0.0
  0
LINE
  5
1DB3
330
1A
100
AcDbEntity
  8
SEIHIN
100
AcDbLine
 10
172.1266263393352
 20
99.78826520166968
 30
0.0
 11
157.7260646393352
 21
99.03356379151064
 31
0.0
  0
ARC
  5
1DB6
330
1A
100
AcDbEntity
  8
SEIHIN
100
AcDbCircle
 10
149.6422160393352
 20
96.70729980166971
 30
0.0
 40
4.499999985879004
100
AcDbArc
 50
92.99999996493296
 51
135.0
  0
ARC
  5
1DB8
330
1A
100
AcDbEntity
  8
SEIHIN
100
AcDbCircle
 10
148.1173573393352
 20
100.6321885016697
 30
0.0
 40
5.500000065643712
100
AcDbArc
 50
92.99999935063343
 51
135.0000022098678
  0
ARC
  5
1DB9
330
1A
100
AcDbEntity
  8
SEIHIN
100
AcDbCircle
 10
148.1173573393352
 20
100.6321885016697
 30
0.0
 40
6.500000024766264
100
AcDbArc
 50
92.99999897148103
 51
135.000002493184
  0
ARC
  5
1DBB
330
1A
100
AcDbEntity
  8
SEIHIN
100
AcDbCircle
 10
172.2260646393352
 20
97.8908691016697
 30
0.0
 40
4.499999996725646
100
AcDbArc
 50
0.0
 51
92.99999996493296
  0
ARC
  5
1DBC
330
1A
100
AcDbEntity
  8
SEIHIN
100
AcDbCircle
 10
172.2260646393352
 20
97.8908691016697
 30
0.0
 40
5.500000030448694
100
AcDbArc
 50
0.0
 51
68.36289348814613
  0
ARC
  5
1DBD
330
1A
100
AcDbEntity
  8
SEIHIN
100
AcDbCircle
 10
172.2260646393352
 20
97.8908691016697
 30
0.0
 40
1.899999991552915
100
AcDbArc
 50
0.0
 51
92.99999951753015
  0
LINE
  5
1DC4
330
1A
100
AcDbEntity
  8
SEIHIN
100
AcDbLine
 10
351.2807254506772
 20
101.7915278866696
 30
0.0
 11
351.2807254506772
 21
66.79152788666967
 31
0.0
  0
LINE
  5
1DC7
330
1A
100
AcDbEntity
  8
CENTER_L
100
AcDbLine
 10
318.7807254506772
 20
99.8915278866697
 30
0.0
 11
318.7807254506772
 21
87.69152788666964
 31
0.0
  0
LINE
  5
1DC9
330
1A
100
AcDbEntity
  8
SEIHIN
100
AcDbLine
 10
309.7807254506772
 20
98.79152798666964
 30
0.0
 11
309.7807254506772
 21
69.79152808666966
 31
0.0
  0
LINE
  5
1DCA
330
1A
100
AcDbEntity
  8
SEIHIN
100
AcDbLine
 10
330.2807254506772
 20
101.7915278866696
 30
0.0
 11
330.2807254506772
 21
66.79152788666967
 31
0.0
  0
ARC
  5
1DCF
330
1A
100
AcDbEntity
  8
SEIHIN
100
AcDbCircle
 10
312.7807254506772
 20
69.79152788666967
 30
0.0
 40
3.000000000000003
100
AcDbArc
 50
179.999996180281
 51
270.0
  0
LINE
  5
1DD1
330
1A
100
AcDbEntity
  8
SEIHIN
100
AcDbLine
 10
312.7807254506772
 20
66.79152788666967
 30
0.0
 11
340.7807254506772
 21
66.79152788666967
 31
0.0
  0
CIRCLE
  5
1DD8
330
1A
100
AcDbEntity
  8
SEIHIN
100
AcDbCircle
 10
318.7807254506772
 20
74.79152788666967
 30
0.0
 40
2.100000000000022
  0
LINE
  5
1DE0
330
1A
100
AcDbEntity
  8
SEIHIN
100
AcDbLine
 10
340.7807254506772
 20
66.79152788666967
 30
0.0
 11
368.7807254506772
 21
66.79152788666967
 31
0.0
  0
CIRCLE
  5
1DEB
330
1A
100
AcDbEntity
  8
SEIHIN
100
AcDbCircle
 10
362.7807254506772
 20
74.79152788666967
 30
0.0
 40
2.100000000000022
  0
LINE
  5
1DEE
330
1A
100
AcDbEntity
  8
SEIHIN
100
AcDbLine
 10
312.7807254506772
 20
101.7915278866696
 30
0.0
 11
330.7807254506772
 21
101.7915278866696
 31
0.0
  0
LINE
  5
1DEF
330
1A
100
AcDbEntity
  8
CENTER_L
100
AcDbLine
 10
312.680725450677
 20
93.79152788666967
 30
0.0
 11
324.8807254506771
 21
93.79152788666967
 31
0.0
  0
ARC
  5
1DF3
330
1A
100
AcDbEntity
  8
SEIHIN
100
AcDbCircle
 10
312.7807254506772
 20
98.79152788666967
 30
0.0
 40
3.0
100
AcDbArc
 50
90.0
 51
180.0
  0
CIRCLE
  5
1DF4
330
1A
100
AcDbEntity
  8
SEIHIN
100
AcDbCircle
 10
318.7807254506772
 20
93.79152788666967
 30
0.0
 40
2.100000000000022
  0
CIRCLE
  5
1E06
330
1A
100
AcDbEntity
  8
SEIHIN
100
AcDbCircle
 10
362.7807254506772
 20
93.79152788666967
 30
0.0
 40
2.100000000000022
  0
LINE
  5
1E0A
330
1A
100
AcDbEntity
  8
SEIHIN
100
AcDbLine
 10
371.7807254506772
 20
98.79152798666964
 30
0.0
 11
371.7807254506772
 21
69.79152808666966
 31
0.0
  0
LINE
  5
1EC3
330
1A
100
AcDbEntity
  8
SEIHIN
100
AcDbLine
 10
55.72606463933522
 20
229.1707035089473
 30
0.0
 11
63.49859409956872
 21
229.1707035089473
 31
0.0
  0
LINE
  5
1EC4
330
1A
100
AcDbEntity
  8
SEIHIN
100
AcDbLine
 10
248.7263552993352
 20
208.6707035089473
 30
0.0
 11
245.0263552993352
 21
208.6707035089473
 31
0.0
  0
LINE
  5
1EC5
330
1A
100
AcDbEntity
  8
SEIHIN
100
AcDbLine
 10
249.7263552993352
 20
188.1707035089473
 30
0.0
 11
248.1263552993353
 21
188.1707035089473
 31
0.0
  0
LINE
  5
1EC6
330
1A
100
AcDbEntity
  8
CENTER_L
100
AcDbLine
 10
256.7263552993352
 20
219.1707035089473
 30
0.0
 11
48.72606463933522
 21
219.1707035089473
 31
0.0
  0
LINE
  5
1EC7
330
1A
100
AcDbEntity
  8
SEIHIN
100
AcDbLine
 10
249.7263552993352
 20
207.6707035089473
 30
0.0
 11
249.7263552993352
 21
188.1707035089473
 31
0.0
  0
LINE
  5
1EC8
330
1A
100
AcDbEntity
  8
SEIHIN
100
AcDbLine
 10
243.1263552993352
 20
208.0707035089473
 30
0.0
 11
243.1263552993352
 21
209.1707035089473
 31
0.0
  0
LINE
  5
1EC9
330
1A
100
AcDbEntity
  8
SEIHIN
100
AcDbLine
 10
248.1263552993353
 20
188.1707035089473
 30
0.0
 11
248.1263552993353
 21
206.5707035089473
 31
0.0
  0
LINE
  5
1ECB
330
1A
100
AcDbEntity
  8
SEIHIN
100
AcDbLine
 10
55.72606463933522
 20
209.1707035089473
 30
0.0
 11
63.49859409956877
 21
209.1707035089473
 31
0.0
  0
LINE
  5
1ECC
330
1A
100
AcDbEntity
  8
SEIHIN
100
AcDbLine
 10
244.1263552993352
 20
207.0707035089473
 30
0.0
 11
247.6263552993353
 21
207.0707035089473
 31
0.0
  0
LINE
  5
1ECD
330
1A
100
AcDbEntity
  8
SEIHIN
100
AcDbLine
 10
244.7263552993352
 20
208.9707035089473
 30
0.0
 11
244.7263552993352
 21
209.1707035089473
 31
0.0
  0
ARC
  5
1ECE
330
1A
100
AcDbEntity
  8
SEIHIN
100
AcDbCircle
 10
248.7263552993352
 20
207.6707035089473
 30
0.0
 40
1.0
100
AcDbArc
 50
359.9999999999983
 51
90.0
  0
ARC
  5
1ECF
330
1A
100
AcDbEntity
  8
SEIHIN
100
AcDbCircle
 10
244.1263552993352
 20
208.0707035089473
 30
0.0
 40
1.0
100
AcDbArc
 50
180.0000000000016
 51
270.0
  0
ARC
  5
1ED0
330
1A
100
AcDbEntity
  8
SEIHIN
100
AcDbCircle
 10
247.6263552993352
 20
206.5707035089473
 30
0.0
 40
0.5
100
AcDbArc
 50
359.9999999999967
 51
89.99999999999674
  0
LINE
  5
1ED1
330
1A
100
AcDbEntity
  8
CENTER_L
100
AcDbLine
 10
241.1263552993353
 20
197.1707035089473
 30
0.0
 11
256.7263552993352
 21
197.1707035089473
 31
0.0
  0
LINE
  5
1ED8
330
1A
100
AcDbEntity
  8
CENTER_L
100
AcDbLine
 10
118.2260646393352
 20
204.1418317963961
 30
0.0
 11
118.2260646393352
 21
234.1995752214985
 31
0.0
  0
LINE
  5
1EDA
330
1A
100
AcDbEntity
  8
SEIHIN
100
AcDbLine
 10
108.2260646393352
 20
209.1707035089473
 30
0.0
 11
108.2260646393351
 21
229.1707035089473
 31
0.0
  0
LINE
  5
1F11
330
1A
100
AcDbEntity
  8
SEIHIN
100
AcDbLine
 10
157.7260646393352
 20
101.6371319261094
 30
0.0
 11
157.7260646393352
 21
95.98746880105966
 31
0.0
  0
LINE
  5
1F12
330
1A
100
AcDbEntity
  8
SEIHIN
100
AcDbLine
 10
156.7784005976599
 20
94.98883926641418
 30
0.0
 11
152.0605662983239
 21
94.74158803789839
 31
0.0
  0
ARC
  5
1F13
330
1A
100
AcDbEntity
  8
SEIHIN
100
AcDbCircle
 10
156.7260646393352
 20
95.98746880105966
 30
0.0
 40
1.0
100
AcDbArc
 50
273.0000001194438
 51
0.0
  0
ARC
  5
1F15
330
1A
100
AcDbEntity
  8
SEIHIN
100
AcDbCircle
 10
174.7260646393352
 20
80.92248492424152
 30
0.0
 40
3.0
100
AcDbArc
 50
266.9999999560026
 51
0.0
  0
LINE
  5
1F30
330
1A
100
AcDbEntity
  8
CENTER_L
100
AcDbLine
 10
312.680725450677
 20
74.79152788666967
 30
0.0
 11
324.8807254506771
 21
74.79152788666967
 31
0.0
  0
LINE
  5
1F31
330
1A
100
AcDbEntity
  8
CENTER_L
100
AcDbLine
 10
318.7807254506772
 20
80.8915278866697
 30
0.0
 11
318.7807254506772
 21
68.69152788666965
 31
0.0
  0
LINE
  5
1F32
330
1A
100
AcDbEntity
  8
CENTER_L
100
AcDbLine
 10
362.7807254506772
 20
80.8915278866697
 30
0.0
 11
362.7807254506772
 21
68.69152788666965
 31
0.0
  0
LINE
  5
1F33
330
1A
100
AcDbEntity
  8
CENTER_L
100
AcDbLine
 10
362.7807254506772
 20
99.8915278866697
 30
0.0
 11
362.7807254506772
 21
87.69152788666964
 31
0.0
  0
LINE
  5
1F34
330
1A
100
AcDbEntity
  8
CENTER_L
100
AcDbLine
 10
368.8807254506771
 20
74.79152788666967
 30
0.0
 11
356.680725450677
 21
74.79152788666967
 31
0.0
  0
LINE
  5
1F35
330
1A
100
AcDbEntity
  8
CENTER_L
100
AcDbLine
 10
368.8807254506771
 20
93.79152788666967
 30
0.0
 11
356.680725450677
 21
93.79152788666967
 31
0.0
  0
LINE
  5
1F4A
330
1A
100
AcDbEntity
  8
SEIHIN
100
AcDbLine
 10
248.1263552993353
 20
91.79152788666966
 30
0.0
 11
245.6135053310623
 21
91.79152788666964
 31
0.0
  0
LINE
  5
1F4B
330
1A
100
AcDbEntity
  8
SEIHIN
100
AcDbLine
 10
248.1263552993353
 20
95.79152788666966
 30
0.0
 11
245.6135053310623
 21
95.79152788666966
 31
0.0
  0
LINE
  5
1F4C
330
1A
100
AcDbEntity
  8
SEIHIN
100
AcDbLine
 10
329.2807254506772
 20
94.79152788666967
 30
0.0
 11
327.2807254506772
 21
94.79152788666967
 31
0.0
  0
LINE
  5
1F4D
330
1A
100
AcDbEntity
  8
SEIHIN
100
AcDbLine
 10
329.2807254506772
 20
92.79152788666968
 30
0.0
 11
327.2807254506772
 21
92.79152788666964
 31
0.0
  0
LINE
  5
1F4E
330
1A
100
AcDbEntity
  8
SEIHIN
100
AcDbLine
 10
326.7807254506772
 20
93.29152788666965
 30
0.0
 11
326.7807254506772
 21
94.29152788666966
 31
0.0
  0
ARC
  5
1F4F
330
1A
100
AcDbEntity
  8
SEIHIN
100
AcDbCircle
 10
327.2807254506772
 20
93.29152788666965
 30
0.0
 40
0.5
100
AcDbArc
 50
180.0
 51
270.0000000000005
  0
ARC
  5
1F50
330
1A
100
AcDbEntity
  8
SEIHIN
100
AcDbCircle
 10
327.2807254506772
 20
94.29152788666966
 30
0.0
 40
0.5
100
AcDbArc
 50
90.0
 51
180.0
  0
LINE
  5
1F51
330
1A
100
AcDbEntity
  8
SEIHIN
100
AcDbLine
 10
329.2807254506772
 20
75.79152788666966
 30
0.0
 11
327.2807254506772
 21
75.79152788666966
 31
0.0
  0
LINE
  5
1F52
330
1A
100
AcDbEntity
  8
SEIHIN
100
AcDbLine
 10
329.2807254506772
 20
73.79152788666967
 30
0.0
 11
327.2807254506772
 21
73.79152788666964
 31
0.0
  0
LINE
  5
1F53
330
1A
100
AcDbEntity
  8
SEIHIN
100
AcDbLine
 10
326.7807254506772
 20
74.29152788666964
 30
0.0
 11
326.7807254506772
 21
75.29152788666967
 31
0.0
  0
ARC
  5
1F54
330
1A
100
AcDbEntity
  8
SEIHIN
100
AcDbCircle
 10
327.2807254506772
 20
75.29152788666967
 30
0.0
 40
0.5
100
AcDbArc
 50
90.0
 51
180.0
  0
ARC
  5
1F55
330
1A
100
AcDbEntity
  8
SEIHIN
100
AcDbCircle
 10
327.2807254506772
 20
74.29152788666964
 30
0.0
 40
0.5
100
AcDbArc
 50
180.0
 51
270.0000000000005
  0
LINE
  5
1F56
330
1A
100
AcDbEntity
  8
SEIHIN
100
AcDbLine
 10
354.7807254506772
 20
74.29152788666964
 30
0.0
 11
354.7807254506772
 21
75.29152788666967
 31
0.0
  0
LINE
  5
1F57
330
1A
100
AcDbEntity
  8
SEIHIN
100
AcDbLine
 10
352.2807254506772
 20
73.79152788666967
 30
0.0
 11
354.2807254506772
 21
73.79152788666964
 31
0.0
  0
ARC
  5
1F58
330
1A
100
AcDbEntity
  8
SEIHIN
100
AcDbCircle
 10
354.2807254506772
 20
74.29152788666964
 30
0.0
 40
0.5
100
AcDbArc
 50
269.9999999999994
 51
0.000000000000007
  0
LINE
  5
1F59
330
1A
100
AcDbEntity
  8
SEIHIN
100
AcDbLine
 10
352.2807254506772
 20
75.79152788666966
 30
0.0
 11
354.2807254506772
 21
75.79152788666966
 31
0.0
  0
ARC
  5
1F5A
330
1A
100
AcDbEntity
  8
SEIHIN
100
AcDbCircle
 10
354.2807254506772
 20
75.29152788666967
 30
0.0
 40
0.5
100
AcDbArc
 50
0.000000000000007
 51
90.0
  0
LINE
  5
1F5B
330
1A
100
AcDbEntity
  8
SEIHIN
100
AcDbLine
 10
352.2807254506772
 20
94.79152788666967
 30
0.0
 11
354.2807254506772
 21
94.79152788666967
 31
0.0
  0
LINE
  5
1F5C
330
1A
100
AcDbEntity
  8
SEIHIN
100
AcDbLine
 10
352.2807254506772
 20
92.79152788666968
 30
0.0
 11
354.2807254506772
 21
92.79152788666964
 31
0.0
  0
LINE
  5
1F5D
330
1A
100
AcDbEntity
  8
SEIHIN
100
AcDbLine
 10
354.7807254506772
 20
93.29152788666965
 30
0.0
 11
354.7807254506772
 21
94.29152788666966
 31
0.0
  0
ARC
  5
1F5E
330
1A
100
AcDbEntity
  8
SEIHIN
100
AcDbCircle
 10
354.2807254506772
 20
94.29152788666966
 30
0.0
 40
0.5
100
AcDbArc
 50
0.000000000000007
 51
90.0
  0
ARC
  5
1F5F
330
1A
100
AcDbEntity
  8
SEIHIN
100
AcDbCircle
 10
354.2807254506772
 20
93.29152788666965
 30
0.0
 40
0.5
100
AcDbArc
 50
269.9999999999994
 51
0.000000000000007
  0
LINE
  5
1F61
330
1A
100
AcDbEntity
  8
SEIHIN
100
AcDbLine
 10
157.7260646393352
 20
206.6707035089473
 30
0.0
 11
63.49859409956877
 21
206.6707035089473
 31
0.0
  0
LINE
  5
1F62
330
1A
100
AcDbEntity
  8
SEIHIN
100
AcDbLine
 10
157.7260646393352
 20
206.6707035089473
 30
0.0
 11
157.7260646393352
 21
209.1707035089473
 31
0.0
  0
LINE
  5
1F63
330
1A
100
AcDbEntity
  8
SEIHIN
100
AcDbLine
 10
63.49859409956877
 20
206.6707035089473
 30
0.0
 11
63.49859409956877
 21
209.1707035089473
 31
0.0
  0
LINE
  5
1F64
330
1A
100
AcDbEntity
  8
SEIHIN
100
AcDbLine
 10
55.72606463933522
 20
209.1707035089473
 30
0.0
 11
55.72606463933522
 21
229.1707035089473
 31
0.0
  0
LINE
  5
1F67
330
1A
100
AcDbEntity
  8
SEIHIN
100
AcDbLine
 10
57.52606463933523
 20
209.1707035089473
 30
0.0
 11
57.52606463933523
 21
229.1707035089473
 31
0.0
  0
LINE
  5
1F68
330
1A
100
AcDbEntity
  8
SEIHIN
100
AcDbLine
 10
108.2260646393351
 20
209.1707035089473
 30
0.0
 11
249.2263552993353
 21
209.1707035089473
 31
0.0
  0
LINE
  5
1F69
330
1A
100
AcDbEntity
  8
SEIHIN
100
AcDbLine
 10
108.2260646393352
 20
211.1707035089473
 30
0.0
 11
244.5243272009377
 21
211.1707035089473
 31
0.0
  0
CIRCLE
  5
1F6A
330
1A
100
AcDbEntity
  8
SEIHIN
100
AcDbCircle
 10
118.2260646393352
 20
219.1707035089473
 30
0.0
 40
5.0
  0
LINE
  5
1F6B
330
1A
100
AcDbEntity
  8
SEIHIN
100
AcDbLine
 10
249.2263552993352
 20
209.1707035089473
 30
0.0
 11
249.2263552993353
 21
229.1707035089473
 31
0.0
  0
LINE
  5
1F6C
330
1A
100
AcDbEntity
  8
SEIHIN
100
AcDbLine
 10
130.5816474873567
 20
211.6707035089473
 30
0.0
 11
130.5816474873568
 21
226.6707035089473
 31
0.0
  0
LINE
  5
1F6D
330
1A
100
AcDbEntity
  8
SEIHIN
100
AcDbLine
 10
145.3664486933075
 20
211.6707035089473
 30
0.0
 11
145.3664486933075
 21
226.6707035089472
 31
0.0
  0
LINE
  5
1F70
330
1A
100
AcDbEntity
  8
SEIHIN
100
AcDbLine
 10
108.2260646393351
 20
227.1707035089473
 30
0.0
 11
244.5243272009377
 21
227.1707035089473
 31
0.0
  0
LINE
  5
1F71
330
1A
100
AcDbEntity
  8
SEIHIN
100
AcDbLine
 10
108.2260646393351
 20
229.1707035089473
 30
0.0
 11
249.2263552993353
 21
229.1707035089473
 31
0.0
  0
LINE
  5
1F72
330
1A
100
AcDbEntity
  8
SEIHIN
100
AcDbLine
 10
157.7260646393352
 20
231.6707035089473
 30
0.0
 11
63.49859409956877
 21
231.6707035089473
 31
0.0
  0
LINE
  5
1F73
330
1A
100
AcDbEntity
  8
SEIHIN
100
AcDbLine
 10
55.72606463933522
 20
229.1707035089473
 30
0.0
 11
63.49859409956877
 21
229.1707035089473
 31
0.0
  0
LINE
  5
1F74
330
1A
100
AcDbEntity
  8
SEIHIN
100
AcDbLine
 10
63.49859409956877
 20
231.6707035089473
 30
0.0
 11
63.49859409956877
 21
229.1707035089473
 31
0.0
  0
LINE
  5
1F75
330
1A
100
AcDbEntity
  8
SEIHIN
100
AcDbLine
 10
131.5136639589784
 20
227.6707035089474
 30
0.0
 11
131.5136639589784
 21
228.6707035089473
 31
0.0
  0
LINE
  5
1F76
330
1A
100
AcDbEntity
  8
SEIHIN
100
AcDbLine
 10
144.5276342367506
 20
228.6707035089473
 30
0.0
 11
144.5276342367505
 21
227.6707035089473
 31
0.0
  0
LINE
  5
1F77
330
1A
100
AcDbEntity
  8
SEIHIN
100
AcDbLine
 10
157.7260646393352
 20
231.6707035089473
 30
0.0
 11
157.7260646393352
 21
229.1707035089473
 31
0.0
  0
LINE
  5
1F78
330
1A
100
AcDbEntity
  8
SEIHIN
100
AcDbLine
 10
248.1263552993353
 20
250.1707035089473
 30
0.0
 11
248.1263552993353
 21
231.7707035089473
 31
0.0
  0
LINE
  5
1F79
330
1A
100
AcDbEntity
  8
SEIHIN
100
AcDbLine
 10
249.7263552993352
 20
230.6707035089473
 30
0.0
 11
249.7263552993352
 21
250.1707035089473
 31
0.0
  0
LINE
  5
1F7A
330
1A
100
AcDbEntity
  8
CENTER_L
100
AcDbLine
 10
241.1263552993353
 20
241.1707035089473
 30
0.0
 11
256.7263552993352
 21
241.1707035089473
 31
0.0
  0
LINE
  5
1F7B
330
1A
100
AcDbEntity
  8
SEIHIN
100
AcDbLine
 10
249.7263552993352
 20
250.1707035089473
 30
0.0
 11
248.1263552993353
 21
250.1707035089473
 31
0.0
  0
LINE
  5
1F7C
330
1A
100
AcDbEntity
  8
SEIHIN
100
AcDbLine
 10
248.7263552993352
 20
229.6707035089473
 30
0.0
 11
245.0263552993352
 21
229.6707035089473
 31
0.0
  0
LINE
  5
1F7D
330
1A
100
AcDbEntity
  8
SEIHIN
100
AcDbLine
 10
244.1263552993352
 20
231.2707035089473
 30
0.0
 11
247.6263552993353
 21
231.2707035089473
 31
0.0
  0
ARC
  5
1F7F
330
1A
100
AcDbEntity
  8
SEIHIN
100
AcDbCircle
 10
244.1263552993352
 20
230.2707035089472
 30
0.0
 40
1.0
100
AcDbArc
 50
90.00000000000003
 51
179.9999999999983
  0
ARC
  5
1F81
330
1A
100
AcDbEntity
  8
SEIHIN
100
AcDbCircle
 10
247.6263552993352
 20
231.7707035089473
 30
0.0
 40
0.5
100
AcDbArc
 50
270.0000000000032
 51
0.0000000000032709
  0
ARC
  5
1F82
330
1A
100
AcDbEntity
  8
SEIHIN
100
AcDbCircle
 10
248.7263552993352
 20
230.6707035089472
 30
0.0
 40
1.0
100
AcDbArc
 50
270.0
 51
0.0000000000016425
  0
LINE
  5
1F85
330
1A
100
AcDbEntity
  8
SEIHIN
100
AcDbLine
 10
148.1642027239745
 20
229.6707035089473
 30
0.0
 11
148.1642027239745
 21
231.1707035089473
 31
0.0
  0
LINE
  5
1F86
330
1A
100
AcDbEntity
  8
SEIHIN
100
AcDbLine
 10
132.639644861031
 20
229.6707035089473
 30
0.0
 11
132.639644861031
 21
231.1707035089472
 31
0.0
  0
LINE
  5
1F88
330
1A
100
AcDbEntity
  8
SEIHIN
100
AcDbLine
 10
108.2260646393352
 20
86.6480026016697
 30
0.0
 11
130.647890024015
 21
86.64800260166968
 31
0.0
  0
LINE
  5
1F89
330
1A
100
AcDbEntity
  8
SEIHIN
100
AcDbLine
 10
134.1834239437796
 20
88.11246870956884
 30
0.0
 11
146.3245190407618
 21
100.2535639015489
 31
0.0
  0
ARC
  5
1F8B
330
1A
100
AcDbEntity
  8
SEIHIN
100
AcDbCircle
 10
149.8600529605264
 20
96.71803000944809
 30
0.0
 40
5.0
100
AcDbArc
 50
92.99999987887712
 51
135.0000002241552
  0
LINE
  5
1F8E
330
1A
100
AcDbEntity
  8
SEIHIN
100
AcDbLine
 10
248.1263552993353
 20
233.2707035089473
 30
0.0
 11
246.1263552993353
 21
231.2707035089473
 31
0.0
  0
LINE
  5
1F8F
330
1A
100
AcDbEntity
  8
SEIHIN
100
AcDbLine
 10
248.1263552993353
 20
205.0707035089473
 30
0.0
 11
246.1263552993353
 21
207.0707035089473
 31
0.0
  0
ARC
  5
1F91
330
1A
100
AcDbEntity
  8
SEIHIN
100
AcDbCircle
 10
245.0263552993352
 20
229.3707035089473
 30
0.0
 40
0.3
100
AcDbArc
 50
90.0
 51
180.0
  0
ARC
  5
1F92
330
1A
100
AcDbEntity
  8
SEIHIN
100
AcDbCircle
 10
245.0263552993352
 20
208.9707035089473
 30
0.0
 40
0.3
100
AcDbArc
 50
180.0
 51
270.0
  0
ARC
  5
1F93
330
1A
100
AcDbEntity
  8
SEIHIN
100
AcDbCircle
 10
130.647890024015
 20
91.64800260166968
 30
0.0
 40
5.0
100
AcDbArc
 50
270.0
 51
315.0000002241551
  0
ARC
  5
1F94
330
1A
100
AcDbEntity
  8
SEIHIN
100
AcDbCircle
 10
130.0265697146446
 20
93.1480026016697
 30
0.0
 40
2.0
100
AcDbArc
 50
270.0
 51
315.0000002241553
  0
ARC
  5
1F95
330
1A
100
AcDbEntity
  8
SEIHIN
100
AcDbCircle
 10
130.0265696770177
 20
93.14800260166968
 30
0.0
 40
1.0
100
AcDbArc
 50
270.0
 51
315.0000002241551
  0
DIMENSION
  5
1FF7
330
1A
100
AcDbEntity
  8
SUNPOU
100
AcDbDimension
  2
*D1
 10
305.5875237399338
 20
66.79152788666965
 30
0.0
 11
303.0875237399338
 21
84.29152788666971
 31
0.0
 70
    32
  3
STANDARD
100
AcDbAlignedDimension
 13
284.5360292789998
 23
101.7915278866696
 33
0.0
 14
284.5360292789998
 24
66.79152788666967
 34
0.0
 50
90.0
100
AcDbRotatedDimension
1001
ACAD
1000
DSTYLE
1002
{
1070
    41
1040
3.0
1070
    42
1040
3.0
1070
    43
1040
7.0
1070
    44
1040
1.5
1070
    73
1070
     0
1070
    74
1070
     0
1070
    77
1070
     3
1070
   140
1040
3.0
1070
   141
1040
3.0
1070
   147
1040
1.0
1070
   172
1070
     1
1070
   173
1070
     1
1070
   176
1070
   256
1070
   177
1070
   256
1070
   178
1070
   256
1070
   271
1070
     0
1070
   272
1070
     0
1070
   341
1005
B2
1070
     6
1000
OPEN
1070
     7
1000
OPEN
1002
}
  0
LINE
  5
2004
330
1A
100
AcDbEntity
  8
SEIHIN
100
AcDbLine
 10
248.1263552993353
 20
76.79152788666967
 30
0.0
 11
245.6135053310623
 21
76.79152788666967
 31
0.0
  0
LINE
  5
2005
330
1A
100
AcDbEntity
  8
SEIHIN
100
AcDbLine
 10
248.1263552993353
 20
72.79152788666967
 30
0.0
 11
245.6135053310623
 21
72.79152788666964
 31
0.0
  0
DIMENSION
  5
2006
330
1A
100
AcDbEntity
  8
SUNPOU
100
AcDbDimension
  2
*D2
 10
295.5627076861112
 20
93.79152788666967
 30
0.0
 11
293.0627076861112
 21
97.79152788666973
 31
0.0
 70
    32
  3
STANDARD
100
AcDbAlignedDimension
 13
312.7807254506772
 23
101.7915278866696
 33
0.0
 14
312.680725450677
 24
93.79152788666967
 34
0.0
 50
90.0
100
AcDbRotatedDimension
1001
ACAD
1000
DSTYLE
1002
{
1070
    41
1040
3.0
1070
    42
1040
3.0
1070
    43
1040
7.0
1070
    44
1040
1.5
1070
    73
1070
     0
1070
    74
1070
     0
1070
    77
1070
     3
1070
   140
1040
3.0
1070
   141
1040
3.0
1070
   147
1040
1.0
1070
   172
1070
     1
1070
   173
1070
     1
1070
   176
1070
   256
1070
   177
1070
   256
1070
   178
1070
   256
1070
   271
1070
     0
1070
   272
1070
     0
1070
   341
1005
B2
1070
     6
1000
OPEN
1070
     7
1000
OPEN
1002
}
  0
DIMENSION
  5
2015
330
1A
100
AcDbEntity
  8
SUNPOU
100
AcDbDimension
  2
*D3
 10
295.5627076861112
 20
66.79152788666965
 30
0.0
 11
293.0627076861112
 21
70.79152788666973
 31
0.0
 70
    32
  3
STANDARD
100
AcDbAlignedDimension
 13
312.680725450677
 23
74.79152788666967
 33
0.0
 14
312.7807254506772
 24
66.79152788666965
 34
0.0
 50
90.0
100
AcDbRotatedDimension
1001
ACAD
1000
DSTYLE
1002
{
1070
    41
1040
3.0
1070
    42
1040
3.0
1070
    43
1040
7.0
1070
    44
1040
1.5
1070
    73
1070
     0
1070
    74
1070
     0
1070
    77
1070
     3
1070
   140
1040
3.0
1070
   141
1040
3.0
1070
   147
1040
1.0
1070
   172
1070
     1
1070
   173
1070
     1
1070
   176
1070
   256
1070
   177
1070
   256
1070
   178
1070
   256
1070
   271
1070
     0
1070
   272
1070
     0
1070
   341
1005
B2
1070
     6
1000
OPEN
1070
     7
1000
OPEN
1002
}
  0
DIMENSION
  5
2022
330
1A
100
AcDbEntity
  8
SUNPOU
100
AcDbDimension
  2
*D4
 10
285.5443286584313
 20
66.79152788666967
 30
0.0
 11
283.0443286584313
 21
84.29152788666973
 31
0.0
 70
    32
  3
STANDARD
100
AcDbAlignedDimension
 13
312.7807254506772
 23
101.7915278866696
 33
0.0
 14
312.7807254506772
 24
66.79152788666965
 34
0.0
 50
90.0
100
AcDbRotatedDimension
1001
ACAD
1000
DSTYLE
1002
{
1070
    41
1040
3.0
1070
    42
1040
3.0
1070
    43
1040
7.0
1070
    44
1040
1.5
1070
    73
1070
     0
1070
    74
1070
     0
1070
    77
1070
     3
1070
   140
1040
3.0
1070
   141
1040
3.0
1070
   147
1040
1.0
1070
   172
1070
     1
1070
   173
1070
     1
1070
   176
1070
   256
1070
   177
1070
   256
1070
   178
1070
   256
1070
   271
1070
     0
1070
   272
1070
     0
1070
   341
1005
B2
1070
     6
1000
OPEN
1070
     7
1000
OPEN
1002
}
  0
DIMENSION
  5
204C
330
1A
100
AcDbEntity
  8
SUNPOU
100
AcDbDimension
  2
*D5
 10
362.7807254506772
 20
132.0248008960517
 30
0.0
 11
340.7807254506772
 21
134.5248008960517
 31
0.0
 70
    32
  3
STANDARD
100
AcDbAlignedDimension
 13
318.7807254506772
 23
99.8915278866697
 33
0.0
 14
362.7807254506772
 24
99.8915278866697
 34
0.0
100
AcDbRotatedDimension
1001
ACAD
1000
DSTYLE
1002
{
1070
    41
1040
3.0
1070
    42
1040
3.0
1070
    43
1040
7.0
1070
    44
1040
1.5
1070
    73
1070
     0
1070
    74
1070
     0
1070
    77
1070
     3
1070
   140
1040
3.0
1070
   141
1040
3.0
1070
   147
1040
1.0
1070
   172
1070
     1
1070
   173
1070
     1
1070
   176
1070
   256
1070
   177
1070
   256
1070
   178
1070
   256
1070
   271
1070
     0
1070
   272
1070
     0
1070
   341
1005
B2
1070
     6
1000
OPEN
1070
     7
1000
OPEN
1002
}
  0
DIMENSION
  5
2059
330
1A
100
AcDbEntity
  8
SUNPOU
100
AcDbDimension
  2
*D6
 10
371.7807254506772
 20
142.3693575795808
 30
0.0
 11
340.7807254506772
 21
144.8693575795808
 31
0.0
 70
    32
  3
STANDARD
100
AcDbAlignedDimension
 13
309.7807254506772
 23
98.79152788666967
 33
0.0
 14
371.7807254506772
 24
98.79152788666967
 34
0.0
100
AcDbRotatedDimension
1001
ACAD
1000
DSTYLE
1002
{
1070
    41
1040
3.0
1070
    42
1040
3.0
1070
    43
1040
7.0
1070
    44
1040
1.5
1070
    73
1070
     0
1070
    74
1070
     0
1070
    77
1070
     3
1070
   140
1040
3.0
1070
   141
1040
3.0
1070
   147
1040
1.0
1070
   172
1070
     1
1070
   173
1070
     1
1070
   176
1070
   256
1070
   177
1070
   256
1070
   178
1070
   256
1070
   271
1070
     0
1070
   272
1070
     0
1070
   341
1005
B2
1070
     6
1000
OPEN
1070
     7
1000
OPEN
1002
}
  0
DIMENSION
  5
2066
330
1A
100
AcDbEntity
  8
SUNPOU
100
AcDbDimension
  2
*D7
 10
270.7778497602693
 20
188.1707035089473
 30
0.0
 11
268.2778497602692
 21
219.1707035089473
 31
0.0
 70
    32
  3
STANDARD
100
AcDbAlignedDimension
 13
249.7263552993352
 23
250.1707035089473
 33
0.0
 14
249.7263552993352
 24
188.1707035089473
 34
0.0
 50
90.0
100
AcDbRotatedDimension
1001
ACAD
1000
DSTYLE
1002
{
1070
    41
1040
3.0
1070
    42
1040
3.0
1070
    43
1040
7.0
1070
    44
1040
1.5
1070
    73
1070
     0
1070
    74
1070
     0
1070
    77
1070
     3
1070
   140
1040
3.0
1070
   141
1040
3.0
1070
   147
1040
1.0
1070
   172
1070
     1
1070
   173
1070
     1
1070
   176
1070
   256
1070
   177
1070
   256
1070
   178
1070
   256
1070
   271
1070
     0
1070
   272
1070
     0
1070
   341
1005
B2
1070
     6
1000
OPEN
1070
     7
1000
OPEN
1002
}
  0
DIMENSION
  5
2073
330
1A
100
AcDbEntity
  8
SUNPOU
100
AcDbDimension
  2
*D8
 10
28.89525187099754
 20
209.1707035089473
 30
0.0
 11
26.39525187099751
 21
219.1707035089473
 31
0.0
 70
    32
  3
STANDARD
100
AcDbAlignedDimension
 13
55.72606463933522
 23
229.1707035089473
 33
0.0
 14
55.72606463933522
 24
209.1707035089473
 34
0.0
 50
90.0
100
AcDbRotatedDimension
1001
ACAD
1000
DSTYLE
1002
{
1070
    41
1040
3.0
1070
    42
1040
3.0
1070
    43
1040
7.0
1070
    44
1040
1.5
1070
    73
1070
     0
1070
    74
1070
     0
1070
    77
1070
     3
1070
   140
1040
3.0
1070
   141
1040
3.0
1070
   147
1040
1.0
1070
   172
1070
     1
1070
   173
1070
     1
1070
   176
1070
   256
1070
   177
1070
   256
1070
   178
1070
   256
1070
   271
1070
     0
1070
   272
1070
     0
1070
   341
1005
B2
1070
     6
1000
OPEN
1070
     7
1000
OPEN
1002
}
  0
LEADER
  5
2081
330
1A
100
AcDbEntity
  8
SUNPOU
100
AcDbLeader
  3
STANDARD
 73
     0
 40
3.0
 41
15.59999999999999
 76
     3
 10
317.217173174948
 20
95.1934209928166
 30
0.0
 10
302.5943496551299
 20
118.6949491937215
 30
0.0
 10
299.3251296174078
 20
118.7474862369076
 30
0.0
340
2082
213
0.0
223
1.5
233
0.0
1001
ACAD
1000
DSTYLE
1002
{
1070
     6
1000
OPEN
1070
    41
1040
3.0
1070
    42
1040
3.0
1070
    43
1040
7.0
1070
    44
1040
1.5
1070
    73
1070
     0
1070
    74
1070
     0
1070
    77
1070
     0
1070
   140
1040
3.0
1070
   141
1040
3.0
1070
   147
1040
1.0
1070
   172
1070
     1
1070
   173
1070
     1
1070
   176
1070
   256
1070
   177
1070
   256
1070
   178
1070
   256
1070
   271
1070
     0
1070
   272
1070
     0
1070
   341
1005
B2
1070
   343
1005
B2
1070
   344
1005
B2
1002
}
  0
MTEXT
  5
2082
102
{ACAD_REACTORS
330
2081
102
}
330
1A
100
AcDbEntity
  8
SUNPOU
100
AcDbMText
 10
298.3251296174078
 20
117.2474862369076
 30
0.0
 40
3.0
 41
0.0
 71
     9
 72
     5
  1
\A1;4-φ4.2
1001
ACAD
1000
MTEXTBEGIN
1070
    73
1070
     1
1070
    44
1040
1.0
1070
    74
1070
     0
1000
MTEXTEND
1000
MTEXTBEGIN
1070
    73
1070
     1
1070
    44
1040
1.0
1070
    74
1070
     0
1000
MTEXTEND
1000
MTEXTBEGIN
1070
    73
1070
     1
1070
    44
1040
1.0
1070
    74
1070
     0
1000
MTEXTEND
1000
MTEXTBEGIN
1070
    73
1070
     1
1070
    44
1040
1.0
1070
    74
1070
     0
1000
MTEXTEND
1000
MTEXTBEGIN
1070
    73
1070
     1
1070
    44
1040
1.0
1070
    74
1070
     0
1000
MTEXTEND
1000
MTEXTBEGIN
1070
    73
1070
     1
1070
    44
1040
1.0
1070
    74
1070
     0
1000
MTEXTEND
1000
MTEXTBEGIN
1070
    73
1070
     1
1070
    44
1040
1.0
1070
    74
1070
     0
1000
MTEXTEND
1000
MTEXTBEGIN
1070
    73
1070
     1
1070
    44
1040
1.0
1070
    74
1070
     0
1000
MTEXTEND
1000
MTEXTBEGIN
1070
    73
1070
     1
1070
    44
1040
1.0
1070
    74
1070
     0
1000
MTEXTEND
1000
MTEXTBEGIN
1070
    73
1070
     1
1070
    44
1040
1.0
1070
    74
1070
     0
1000
MTEXTEND
  0
LINE
  5
2127
330
1A
100
AcDbEntity
  8
SEIHIN
100
AcDbLine
 10
131.5136639589784
 20
210.6707035089472
 30
0.0
 11
131.5136639589784
 21
209.6707035089473
 31
0.0
  0
LINE
  5
2128
330
1A
100
AcDbEntity
  8
SEIHIN
100
AcDbLine
 10
132.639644861031
 20
208.6707035089473
 30
0.0
 11
132.639644861031
 21
207.1707035089473
 31
0.0
  0
LINE
  5
2129
330
1A
100
AcDbEntity
  8
SEIHIN
100
AcDbLine
 10
144.5276342367506
 20
209.6707035089472
 30
0.0
 11
144.5276342367505
 21
210.6707035089473
 31
0.0
  0
LINE
  5
212A
330
1A
100
AcDbEntity
  8
SEIHIN
100
AcDbLine
 10
148.1642027239745
 20
208.6707035089473
 30
0.0
 11
148.1642027239745
 21
207.1707035089473
 31
0.0
  0
ARC
  5
2604
330
1A
100
AcDbEntity
  8
SEIHIN
100
AcDbCircle
 10
243.7261060593352
 20
104.2990654366696
 30
0.0
 40
5.499999999272874
100
AcDbArc
 50
0.0004095085622128
 51
92.99999792145438
  0
LINE
  5
2609
330
1A
100
AcDbEntity
  8
SEIHIN
100
AcDbLine
 10
249.7263552993352
 20
66.79152788666967
 30
0.0
 11
249.7263552993352
 21
101.7915278916696
 31
0.0
  0
LINE
  5
260B
330
1A
100
AcDbEntity
  8
SEIHIN
100
AcDbLine
 10
243.1263552593352
 20
66.79152788666967
 30
0.0
 11
243.1263552593352
 21
101.7915278916696
 31
0.0
  0
LINE
  5
2610
330
1A
100
AcDbEntity
  8
SEIHIN
100
AcDbLine
 10
248.1263552593352
 20
66.79152788666967
 30
0.0
 11
248.1263552593352
 21
101.7915278916696
 31
0.0
  0
LINE
  5
2614
330
1A
100
AcDbEntity
  8
SEIHIN
100
AcDbLine
 10
243.1263552593352
 20
66.79152788666967
 30
0.0
 11
249.7263552993352
 21
66.79152788666967
 31
0.0
  0
LINE
  5
2623
330
1A
100
AcDbEntity
  8
SEIHIN
100
AcDbLine
 10
244.7261060593352
 20
104.2990725866696
 30
0.0
 11
244.7261239793352
 21
101.7915278916696
 31
0.0
  0
LINE
  5
2624
330
1A
100
AcDbEntity
  8
SEIHIN
100
AcDbLine
 10
249.2261060593353
 20
104.2991047466696
 30
0.0
 11
249.2261060593353
 21
101.6604219386696
 31
0.0
  0
LINE
  5
2625
330
1A
100
AcDbEntity
  8
SEIHIN
100
AcDbLine
 10
249.7263552993352
 20
101.7915278916696
 30
0.0
 11
243.1263552593352
 21
101.7915278916696
 31
0.0
  0
LINE
  5
2626
330
1A
100
AcDbEntity
  8
SEIHIN
100
AcDbLine
 10
244.7264014693352
 20
103.6293609066696
 30
0.0
 11
242.1967996793352
 21
105.2202750066696
 31
0.0
  0
ARC
  5
2627
330
1A
100
AcDbEntity
  8
SEIHIN
100
AcDbCircle
 10
243.7261060593352
 20
104.2990654366696
 30
0.0
 40
1.000000000636776
100
AcDbArc
 50
0.0004096648236276
 51
92.9999956218581
  0
ARC
  5
2666
330
1A
100
AcDbEntity
  8
SEIHIN
100
AcDbCircle
 10
240.0243441593352
 20
105.3067111366696
 30
0.0
 40
5.499999999767214
100
AcDbArc
 50
63.83344115236194
 51
93.00000000753284
  0
LINE
  5
2667
330
1A
100
AcDbEntity
  8
SEIHIN
100
AcDbLine
 10
243.3850956824632
 20
109.7889150370774
 30
0.0
 11
243.3757043593352
 21
109.7948214166696
 31
0.0
  0
LINE
  5
2668
330
1A
100
AcDbEntity
  8
SEIHIN
100
AcDbLine
 10
243.3754137293352
 20
109.7882343366696
 30
0.0
 11
242.4497456293352
 21
110.2430486166696
 31
0.0
  0
LINE
  5
273D
330
1A
100
AcDbEntity
  8
SEIHIN
100
AcDbLine
 10
149.5983731898672
 20
101.7111776837741
 30
0.0
 11
243.6737701793672
 21
105.2976949760592
 31
0.0
  0
LINE
  5
273E
330
1A
100
AcDbEntity
  8
SEIHIN
100
AcDbLine
 10
147.8295096388128
 20
106.1246510116359
 30
0.0
 11
243.4382584992897
 21
109.7915278875361
 31
0.0
  0
LINE
  5
273F
330
1A
100
AcDbEntity
  8
SEIHIN
100
AcDbLine
 10
147.7771737389817
 20
107.1232805084133
 30
0.0
 11
239.7364963992891
 21
110.7991735775495
 31
0.0
  0
LINE
  5
277B
330
1A
100
AcDbEntity
  8
CENTER_L
100
AcDbLine
 10
243.6263552993351
 20
93.79152788666967
 30
0.0
 11
255.8263552993351
 21
93.79152788666967
 31
0.0
  0
LINE
  5
277C
330
1A
100
AcDbEntity
  8
CENTER_L
100
AcDbLine
 10
243.6263552993351
 20
74.79152788666967
 30
0.0
 11
255.8263552993351
 21
74.79152788666967
 31
0.0
  0
DIMENSION
  5
285C
330
1A
100
AcDbEntity
  8
SUNPOU
100
AcDbDimension
  2
*D9
 10
270.0648201168769
 20
66.79152788666967
 30
0.0
 11
267.5648201168769
 21
84.29152788916971
 31
0.0
 70
    32
  3
STANDARD
100
AcDbAlignedDimension
 13
249.7263552993352
 23
101.7915278916696
 33
0.0
 14
249.7263552993352
 24
66.79152788666967
 34
0.0
 50
90.0
100
AcDbRotatedDimension
1001
ACAD
1000
DSTYLE
1002
{
1070
    41
1040
3.0
1070
    42
1040
3.0
1070
    43
1040
7.0
1070
    44
1040
1.5
1070
    73
1070
     0
1070
    74
1070
     0
1070
    77
1070
     3
1070
   140
1040
3.0
1070
   141
1040
3.0
1070
   147
1040
1.0
1070
   172
1070
     1
1070
   173
1070
     1
1070
   176
1070
   256
1070
   177
1070
   256
1070
   178
1070
   256
1070
   271
1070
     0
1070
   272
1070
     0
1070
   341
1005
B2
1070
     6
1000
OPEN
1070
     7
1000
OPEN
1002
}
  0
DIMENSION
  5
2869
330
1A
100
AcDbEntity
  8
SUNPOU
100
AcDbDimension
  2
*D10
 10
249.7263552993352
 20
132.8799914063706
 30
0.0
 11
210.9556813307546
 21
135.3799914063706
 31
0.0
 70
    32
  3
STANDARD
100
AcDbAlignedDimension
 13
172.1850073621739
 23
94.87850258922028
 33
0.0
 14
249.7263552993352
 24
101.7915278916696
 34
0.0
100
AcDbRotatedDimension
1001
ACAD
1000
DSTYLE
1002
{
1070
    41
1040
3.0
1070
    42
1040
3.0
1070
    43
1040
7.0
1070
    44
1040
1.5
1070
    73
1070
     0
1070
    74
1070
     0
1070
    77
1070
     3
1070
   140
1040
3.0
1070
   141
1040
3.0
1070
   147
1040
1.0
1070
   172
1070
     1
1070
   173
1070
     1
1070
   176
1070
   256
1070
   177
1070
   256
1070
   178
1070
   256
1070
   271
1070
     0
1070
   272
1070
     0
1070
   341
1005
B2
1070
     6
1000
OPEN
1070
     7
1000
OPEN
1002
}
  0
DIMENSION
  5
2876
330
1A
100
AcDbEntity
  8
SUNPOU
100
AcDbDimension
  2
*D11
 10
249.7263552993352
 20
142.2982436964134
 30
0.0
 11
178.9762099693352
 21
144.7982436964134
 31
0.0
 70
    32
  3
STANDARD
100
AcDbAlignedDimension
 13
108.2260646393352
 23
92.1480026016697
 33
0.0
 14
249.7263552993352
 24
101.7915278916696
 34
0.0
100
AcDbRotatedDimension
1001
ACAD
1000
DSTYLE
1002
{
1070
    41
1040
3.0
1070
    42
1040
3.0
1070
    43
1040
7.0
1070
    44
1040
1.5
1070
    73
1070
     0
1070
    74
1070
     0
1070
    77
1070
     3
1070
   140
1040
3.0
1070
   141
1040
3.0
1070
   147
1040
1.0
1070
   172
1070
     1
1070
   173
1070
     1
1070
   176
1070
   256
1070
   177
1070
   256
1070
   178
1070
   256
1070
   271
1070
     0
1070
   272
1070
     0
1070
   341
1005
B2
1070
     6
1000
OPEN
1070
     7
1000
OPEN
1002
}
  0
DIMENSION
  5
2883
330
1A
100
AcDbEntity
  8
SUNPOU
100
AcDbDimension
  2
*D12
 10
249.7263552993352
 20
151.964341572409
 30
0.0
 11
152.7262099693352
 21
154.464341572409
 31
0.0
 70
    32
  3
STANDARD
100
AcDbAlignedDimension
 13
55.72606463933522
 23
90.38257322101015
 33
0.0
 14
249.7263552993352
 24
101.7915278916696
 34
0.0
100
AcDbRotatedDimension
1001
ACAD
1000
DSTYLE
1002
{
1070
    41
1040
3.0
1070
    42
1040
3.0
1070
    43
1040
7.0
1070
    44
1040
1.5
1070
    73
1070
     0
1070
    74
1070
     0
1070
    77
1070
     3
1070
   140
1040
3.0
1070
   141
1040
3.0
1070
   147
1040
1.0
1070
   172
1070
     1
1070
   173
1070
     1
1070
   176
1070
   256
1070
   177
1070
   256
1070
   178
1070
   256
1070
   271
1070
     0
1070
   272
1070
     0
1070
   341
1005
B2
1070
     6
1000
OPEN
1070
     7
1000
OPEN
1002
}
  0
LINE
  5
29B3
330
1A
100
AcDbEntity
  8
SEIHIN
100
AcDbLine
 10
243.1263552993352
 20
229.1707035089473
 30
0.0
 11
243.1263552993353
 21
230.2707035089472
 31
0.0
  0
LINE
  5
29B4
330
1A
100
AcDbEntity
  8
SEIHIN
100
AcDbLine
 10
244.7263552993352
 20
229.1707035089473
 30
0.0
 11
244.7263552993352
 21
229.3707035089473
 31
0.0
  0
LINE
  5
29B5
330
1A
100
AcDbEntity
  8
SEIHIN
100
AcDbLine
 10
249.2263552993352
 20
223.1707035089473
 30
0.0
 11
242.7824213877356
 21
223.1707035089473
 31
0.0
  0
LINE
  5
29B6
330
1A
100
AcDbEntity
  8
SEIHIN
100
AcDbLine
 10
249.2263552993352
 20
215.1707035089473
 30
0.0
 11
242.7824213877356
 21
215.1707035089473
 31
0.0
  0
ARC
  5
2AC9
330
1A
100
AcDbEntity
  8
SEIHIN
100
AcDbCircle
 10
340.7807254506773
 20
78.81559377601188
 30
0.0
 40
31.991117360425
100
AcDbArc
 50
76.62554294262021
 51
103.3744570573798
  0
LINE
  5
2ACA
330
1A
100
AcDbEntity
  8
SEIHIN
100
AcDbLine
 10
350.7807254506771
 20
101.7915278866696
 30
0.0
 11
368.7807254506772
 21
101.7915278866696
 31
0.0
  0
DIMENSION
  5
2AFF
330
1A
100
AcDbEntity
  8
SUNPOU
100
AcDbDimension
  2
*D13
 10
28.89525187099751
 20
66.79152788666974
 30
0.0
 11
26.39525187099749
 21
78.81976524416971
 31
0.0
 70
    32
  3
STANDARD
100
AcDbAlignedDimension
 13
55.72606463933522
 23
90.84800260166968
 33
0.0
 14
243.1263552593352
 24
66.79152788666967
 34
0.0
 50
90.0
100
AcDbRotatedDimension
1001
ACAD
1000
DSTYLE
1002
{
1070
    41
1040
3.0
1070
    42
1040
3.0
1070
    43
1040
7.0
1070
    44
1040
1.5
1070
    73
1070
     0
1070
    74
1070
     0
1070
    77
1070
     3
1070
   140
1040
3.0
1070
   141
1040
3.0
1070
   147
1040
1.0
1070
   172
1070
     1
1070
   173
1070
     1
1070
   176
1070
   256
1070
   177
1070
   256
1070
   178
1070
   256
1070
   271
1070
     0
1070
   272
1070
     0
1070
   341
1005
B2
1070
     6
1000
OPEN
1070
     7
1000
OPEN
1002
}
  0
LWPOLYLINE
  5
2D1D
330
1A
100
AcDbEntity
  8
ZUWAKU
100
AcDbPolyline
 90
        4
 70
     1
 43
0.0
 10
0.3999998849316171
 20
275.4000001155457
 10
0.3999998849316171
 20
0.4000001155457654
 10
398.3999998849316
 20
0.4000001155457654
 10
398.3999998849316
 20
275.4000001155457
  0
LWPOLYLINE
  5
2D1E
330
1A
100
AcDbEntity
  8
ZUWAKU
100
AcDbPolyline
 90
        4
 70
     1
 43
0.0
 10
0.1999998849316284
 20
275.6000001155457
 10
0.1999998849316284
 20
0.2000001155457767
 10
398.5999998849316
 20
0.2000001155457651
 10
398.5999998849316
 20
275.6000001155457
  0
LWPOLYLINE
  5
2D1F
330
1A
100
AcDbEntity
  8
ZUWAKU
100
AcDbPolyline
 90
        4
 70
     1
 43
0.0
 10
-0.0000001150683602
 20
275.8000001155457
 10
-0.0000001150683602
 20
0.0000001155457312
 10
398.7999998849317
 20
0.000000115545765
 10
398.7999998849317
 20
275.8000001155457
  0
LWPOLYLINE
  5
2D20
330
1A
100
AcDbEntity
  8
ZUWAKU
100
AcDbPolyline
 90
        4
 70
     1
 43
0.0
 10
0.2999998849315943
 20
275.5000001155457
 10
0.2999998849315943
 20
0.3000001155457426
 10
398.4999998849317
 20
0.3000001155457657
 10
398.4999998849316
 20
275.5000001155457
  0
LWPOLYLINE
  5
2D21
330
1A
100
AcDbEntity
  8
ZUWAKU
100
AcDbPolyline
 90
        4
 70
     1
 43
0.0
 10
0.0999998849316057
 20
275.7000001155457
 10
0.0999998849316057
 20
0.1000001155457539
 10
398.6999998849315
 20
0.1000001155457655
 10
398.6999998849316
 20
275.7000001155457
  0
LINE
  5
2D22
330
1A
100
AcDbEntity
  8
ZUWAKU
100
AcDbLine
 10
-0.0000001150683602
 20
15.00000011554573
 30
0.0
 11
398.6999998849315
 21
15.00000011554573
 31
0.0
  0
LINE
  5
2D23
330
1A
100
AcDbEntity
  8
ZUWAKU
100
AcDbLine
 10
-0.0000001150683602
 20
15.10000011554573
 30
0.0
 11
398.6999998849315
 21
15.10000011554573
 31
0.0
  0
LINE
  5
2D24
330
1A
100
AcDbEntity
  8
ZUWAKU
100
AcDbLine
 10
-0.0000001150683602
 20
15.20000011554573
 30
0.0
 11
398.6999998849315
 21
15.20000011554573
 31
0.0
  0
LINE
  5
2D25
330
1A
100
AcDbEntity
  8
ZUWAKU
100
AcDbLine
 10
-0.0000001150683602
 20
15.30000011554573
 30
0.0
 11
398.6999998849315
 21
15.30000011554573
 31
0.0
  0
LINE
  5
2D26
330
1A
100
AcDbEntity
  8
ZUWAKU
100
AcDbLine
 10
-0.0000001150683602
 20
15.40000011554573
 30
0.0
 11
398.6999998849315
 21
15.40000011554573
 31
0.0
  0
LINE
  5
2D27
330
1A
100
AcDbEntity
  8
ZUWAKU
100
AcDbLine
 10
104.3233005299656
 20
7.700000115545748
 30
0.0
 11
223.7121818704273
 21
7.700000115545748
 31
0.0
  0
LINE
  5
2D28
330
1A
100
AcDbEntity
  8
ZUWAKU
100
AcDbLine
 10
104.3233005299656
 20
7.800000115545747
 30
0.0
 11
223.7121818704273
 21
7.800000115545751
 31
0.0
  0
LINE
  5
2D29
330
1A
100
AcDbEntity
  8
ZUWAKU
100
AcDbLine
 10
104.3233005299656
 20
7.60000011554575
 30
0.0
 11
223.7121818704273
 21
7.600000115545746
 31
0.0
  0
TEXT
  5
2D2A
330
1A
100
AcDbEntity
  8
MOJI
100
AcDbText
 10
46.4788946790162
 20
6.370589180683111
 30
0.0
 40
3.0
  1
新・丸トップＲＶ１０５
 41
0.9
  7
ｽﾀｲﾙ1
100
AcDbText
  0
CIRCLE
  5
2D2B
330
1A
100
AcDbEntity
  8
ZUWAKU
100
AcDbCircle
 10
12.99610596232219
 20
7.600000115545732
 30
0.0
 40
0.875
  0
LINE
  5
2D2C
330
1A
100
AcDbEntity
  8
ZUWAKU
100
AcDbLine
 10
13.43360596232219
 20
3.575000115545734
 30
0.0
 11
12.47110596232221
 21
3.575000115545734
 31
0.0
  0
LINE
  5
2D2D
330
1A
100
AcDbEntity
  8
ZUWAKU
100
AcDbLine
 10
12.47110596232221
 20
4.975000115545732
 30
0.0
 11
13.43360596232219
 21
4.975000115545732
 31
0.0
  0
LINE
  5
2D2E
330
1A
100
AcDbEntity
  8
ZUWAKU
100
AcDbLine
 10
13.43360596232219
 20
10.22500011554573
 30
0.0
 11
12.47110596232221
 21
10.22500011554573
 31
0.0
  0
LINE
  5
2D2F
330
1A
100
AcDbEntity
  8
ZUWAKU
100
AcDbLine
 10
12.47110596232221
 20
11.62500011554571
 30
0.0
 11
13.43360596232219
 21
11.62500011554573
 31
0.0
  0
HATCH
  5
2D30
330
1A
100
AcDbEntity
  8
ZUWAKU
100
AcDbHatch
 10
0.0
 20
0.0
 30
0.0
210
0.0
220
0.0
230
1.0
  2
ANSI37
 70
     0
 71
     0
 91
        8
 92
        7
 72
     1
 73
     1
 93
       24
 10
7.251131215491568
 20
8.822424356037522
 42
-0.1989123673796348
 10
7.046105962322201
 20
9.317399102868048
 42
0.0
 10
7.046105962322201
 20
9.962500115545736
 42
-0.4142135623730912
 10
7.308605962322189
 20
10.22500011554573
 42
0.0
 10
8.796105962322144
 20
10.22500011554573
 42
0.4142135623731546
 10
9.058605962322189
 20
10.48750011554572
 42
0.0
 10
9.058605962322189
 20
11.36250011554573
 42
0.4142135623731586
 10
8.796105962322144
 20
11.62500011554573
 42
0.0
 10
7.046105962322201
 20
11.62500011554573
 42
0.4142135623730928
 10
5.646105962322224
 20
10.22500011554574
 42
0.0
 10
5.646105962322224
 20
9.317399102868112
 42
0.1989123673796619
 10
6.261181721830439
 20
7.832474862376308
 42
0.0
 10
7.716080709152777
 20
6.377575875053979
 42
-0.1989123673796613
 10
7.921105962322201
 20
5.882601128223386
 42
0.0
 10
7.921105962322201
 20
5.237500115545728
 42
-0.4142135623730911
 10
7.658605962322212
 20
4.975000115545732
 42
0.0
 10
6.171105962322258
 20
4.975000115545732
 42
0.4142135623731526
 10
5.908605962322212
 20
4.712500115545738
 42
0.0
 10
5.908605962322212
 20
3.837500115545728
 42
0.4142135623731526
 10
6.171105962322258
 20
3.575000115545734
 42
0.0
 10
7.921105962322201
 20
3.575000115545734
 42
0.4142135623731044
 10
9.321105962322235
 20
4.975000115545721
 42
0.0
 10
9.321105962322235
 20
5.882601128223358
 42
0.1989123673796604
 10
8.706030202813963
 20
7.367525368715128
 42
0.0
 97
        0
 92
        7
 72
     1
 73
     1
 93
       16
 10
11.77110596232222
 20
9.525000115545736
 42
-0.4142135623730935
 10
12.47110596232221
 20
10.22500011554573
 42
0.0
 10
13.43360596232219
 20
10.22500011554573
 42
0.4142135623731546
 10
13.69610596232223
 20
10.48750011554572
 42
0.0
 10
13.69610596232223
 20
11.36250011554573
 42
0.4142135623730951
 10
13.43360596232224
 20
11.62500011554573
 42
0.0
 10
12.47110596232215
 20
11.62500011554571
 42
0.4142135623730892
 10
10.37110596232219
 20
9.525000115545701
 42
0.0
 10
10.37110596232219
 20
5.675000115545746
 42
0.4142135623730969
 10
12.47110596232221
 20
3.575000115545734
 42
0.0
 10
13.43360596232219
 20
3.575000115545734
 42
0.4142135623731526
 10
13.69610596232223
 20
3.837500115545728
 42
0.0
 10
13.69610596232223
 20
4.712500115545738
 42
0.4142135623730891
 10
13.43360596232224
 20
4.975000115545732
 42
0.0
 10
12.47110596232221
 20
4.975000115545732
 42
-0.4142135623730928
 10
11.77110596232222
 20
5.675000115545726
 42
0.0
 97
        0
 92
        7
 72
     1
 73
     1
 93
        2
 10
12.12110596232219
 20
7.600000115545732
 42
1.0
 10
13.87110596232218
 20
7.600000115545732
 42
1.0
 97
        0
 92
        7
 72
     1
 73
     1
 93
       26
 10
18.65742920341119
 20
9.602523712327446
 42
0.0
 10
19.1882490199801
 20
11.28345313146224
 42
0.5069206636600134
 10
18.93793357038242
 20
11.62500011554573
 42
0.0
 10
18.08848888057781
 20
11.62500011554573
 42
0.3272098845218764
 10
17.83817343098013
 20
11.44154709962921
 42
0.0
 10
16.90403849366424
 20
8.483453131462272
 42
-0.3272098845219541
 10
16.65372304406651
 20
8.300000115545731
 42
0.0
 10
16.58360596232228
 20
8.300000115545731
 42
-0.4142135623731526
 10
16.32110596232223
 20
8.562500115545725
 42
0.0
 10
16.32110596232223
 20
11.36250011554573
 42
0.4142135623730951
 10
16.05860596232224
 20
11.62500011554573
 42
0.0
 10
15.18360596232219
 20
11.62500011554573
 42
0.4142135623730871
 10
14.9211059623222
 20
11.36250011554574
 42
0.0
 10
14.9211059623222
 20
3.837500115545728
 42
0.4142135623730891
 10
15.18360596232219
 20
3.575000115545734
 42
0.0
 10
16.05860596232218
 20
3.575000115545734
 42
0.4142135623731526
 10
16.32110596232223
 20
3.837500115545728
 42
0.0
 10
16.32110596232223
 20
6.637500115545739
 42
-0.4142135623731526
 10
16.58360596232228
 20
6.900000115545733
 42
0.0
 10
16.65372304406656
 20
6.900000115545733
 42
-0.3272098845218915
 10
16.90403849366424
 20
6.716547099629195
 42
0.0
 10
17.83817343098013
 20
3.758453131462269
 42
0.3272098845218902
 10
18.08848888057781
 20
3.575000115545734
 42
0.0
 10
18.93793357038242
 20
3.575000115545734
 42
0.5069206636600335
 10
19.1882490199801
 20
3.916547099629237
 42
0.0
 10
18.02505333074327
 20
7.600000115545801
 42
0.0
 97
        0
 92
        7
 72
     1
 73
     1
 93
        8
 10
21.74610596232219
 20
11.36250011554573
 42
0.4142135623731546
 10
21.48360596232214
 20
11.62500011554573
 42
0.0
 10
20.60860596232225
 20
11.62500011554573
 42
0.4142135623731507
 10
20.34610596232221
 20
11.36250011554574
 42
0.0
 10
20.34610596232221
 20
3.837500115545728
 42
0.4142135623731526
 10
20.60860596232225
 20
3.575000115545734
 42
0.0
 10
21.48360596232214
 20
3.575000115545734
 42
0.4142135623731526
 10
21.74610596232219
 20
3.837500115545728
 42
0.0
 97
        0
 92
        7
 72
     1
 73
     1
 93
       24
 10
24.19610596232223
 20
9.962500115545736
 42
-0.4142135623731546
 10
24.45860596232228
 20
10.22500011554573
 42
0.0
 10
25.94610596232223
 20
10.22500011554573
 42
0.4142135623730911
 10
26.20860596232222
 20
10.48750011554572
 42
0.0
 10
26.20860596232222
 20
11.36250011554573
 42
0.4142135623730952
 10
25.94610596232223
 20
11.62500011554573
 42
0.0
 10
24.19610596232223
 20
11.62500011554573
 42
0.4142135623731048
 10
22.7961059623222
 20
10.22500011554574
 42
0.0
 10
22.7961059623222
 20
9.317399102868112
 42
0.1989123673796613
 10
23.41118172183047
 20
7.832474862376336
 42
0.0
 10
24.86608070915281
 20
6.377575875054002
 42
-0.1989123673796402
 10
25.07110596232223
 20
5.882601128223466
 42
0.0
 10
25.07110596232223
 20
5.237500115545728
 42
-0.4142135623730911
 10
24.80860596232224
 20
4.975000115545732
 42
0.0
 10
23.32110596232223
 20
4.975000115545732
 42
0.4142135623731526
 10
23.05860596232219
 20
4.712500115545738
 42
0.0
 10
23.05860596232219
 20
3.837500115545728
 42
0.4142135623730891
 10
23.32110596232217
 20
3.575000115545734
 42
0.0
 10
25.07110596232223
 20
3.575000115545734
 42
0.4142135623730925
 10
26.47110596232221
 20
4.975000115545721
 42
0.0
 10
26.47110596232221
 20
5.882601128223358
 42
0.1989123673796675
 10
25.85603020281394
 20
7.367525368715185
 42
0.0
 10
24.40113121549166
 20
8.822424356037442
 42
-0.1989123673796652
 10
24.19610596232223
 20
9.317399102868026
 42
0.0
 97
        0
 92
        7
 72
     1
 73
     1
 93
       16
 10
28.9211059623222
 20
11.36250011554572
 42
0.414213562373103
 10
28.65860596232221
 20
11.62500011554573
 42
0.0
 10
27.78360596232221
 20
11.62500011554573
 42
0.4142135623730871
 10
27.52110596232222
 20
11.36250011554574
 42
0.0
 10
27.52110596232222
 20
4.975000115545721
 42
0.4142135623730926
 10
28.9211059623222
 20
3.575000115545734
 42
0.0
 10
30.6711059623222
 20
3.575000115545734
 42
0.4142135623731044
 10
32.07110596232223
 20
4.975000115545721
 42
0.0
 10
32.07110596232223
 20
11.36250011554573
 42
0.4142135623730951
 10
31.80860596232224
 20
11.62500011554573
 42
0.0
 10
30.93360596232219
 20
11.62500011554573
 42
0.4142135623730871
 10
30.6711059623222
 20
11.36250011554574
 42
0.0
 10
30.6711059623222
 20
5.50000011554572
 42
-0.414213562373088
 10
30.14610596232222
 20
4.975000115545732
 42
0.0
 10
29.44610596232223
 20
4.975000115545732
 42
-0.4142135623731197
 10
28.9211059623222
 20
5.50000011554572
 42
0.0
 97
        0
 92
        7
 72
     1
 73
     1
 93
        8
 10
34.52110596232222
 20
11.36250011554574
 42
0.4142135623730871
 10
34.25860596232223
 20
11.62500011554573
 42
0.0
 10
33.38360596232223
 20
11.62500011554573
 42
0.4142135623731507
 10
33.12110596232219
 20
11.36250011554574
 42
0.0
 10
33.12110596232219
 20
3.837500115545728
 42
0.4142135623730891
 10
33.38360596232218
 20
3.575000115545734
 42
0.0
 10
34.25860596232223
 20
3.575000115545734
 42
0.4142135623730891
 10
34.52110596232222
 20
3.837500115545728
 42
0.0
 97
        0
 75
     0
 76
     1
 52
0.0
 41
0.1
 77
     0
 78
     2
 53
45.0
 43
-450.4711522824078
 44
-6.599999884454234
 45
-0.2245064030267288
 46
0.2245064030267288
 79
     0
 53
135.0
 43
-450.4711522824078
 44
-6.599999884454234
 45
-0.2245064030267288
 46
-0.2245064030267288
 79
     0
 47
0.057451373970553
 98
        8
 10
8.039927366443293
 20
7.583586938488508
 10
11.20225738815122
 20
9.422031206771237
 10
12.58218382776147
 20
7.75594093858109
 10
15.45702987575021
 20
8.100648938766482
 10
20.91923589441
 20
8.33045507253729
 10
23.44910033249641
 20
9.709288273749336
 10
28.27884287113181
 20
9.364579073093239
 10
33.913539694743
 20
9.594385206864046
  0
ARC
  5
2D31
330
1A
100
AcDbEntity
  8
ZUWAKU
100
AcDbCircle
 10
7.746105962322189
 20
9.317399102868083
 30
0.0
 40
2.099999999999999
100
AcDbArc
 50
180.0
 51
225.0
  0
LINE
  5
2D32
330
1A
100
AcDbEntity
  8
ZUWAKU
100
AcDbLine
 10
10.37110596232219
 20
5.675000115545735
 30
0.0
 11
10.37110596232219
 21
9.525000115545712
 31
0.0
  0
LINE
  5
2D33
330
1A
100
AcDbEntity
  8
ZUWAKU
100
AcDbLine
 10
11.77110596232222
 20
9.525000115545733
 30
0.0
 11
11.77110596232222
 21
5.675000115545735
 31
0.0
  0
ARC
  5
2D34
330
1A
100
AcDbEntity
  8
ZUWAKU
100
AcDbCircle
 10
7.746105962322189
 20
9.317399102868083
 30
0.0
 40
0.7
100
AcDbArc
 50
180.0000000000016
 51
224.9999999999988
  0
ARC
  5
2D35
330
1A
100
AcDbEntity
  8
ZUWAKU
100
AcDbCircle
 10
12.47110596232221
 20
5.675000115545735
 30
0.0
 40
2.099999999999999
100
AcDbArc
 50
180.0
 51
270.0
  0
ARC
  5
2D36
330
1A
100
AcDbEntity
  8
ZUWAKU
100
AcDbCircle
 10
7.921105962322201
 20
4.975000115545732
 30
0.0
 40
1.399999999999999
100
AcDbArc
 50
270.0
 51
0.0
  0
ARC
  5
2D37
330
1A
100
AcDbEntity
  8
ZUWAKU
100
AcDbCircle
 10
7.221105962322212
 20
5.882601128223384
 30
0.0
 40
2.099999999999999
100
AcDbArc
 50
0.0
 51
45.0
  0
LINE
  5
2D38
330
1A
100
AcDbEntity
  8
ZUWAKU
100
AcDbLine
 10
6.261181721830439
 20
7.832474862376322
 30
0.0
 11
7.716080709152777
 21
6.377575875053992
 31
0.0
  0
LINE
  5
2D39
330
1A
100
AcDbEntity
  8
ZUWAKU
100
AcDbLine
 10
6.171105962322201
 20
4.975000115545732
 30
0.0
 11
7.658605962322212
 21
4.975000115545732
 31
0.0
  0
LINE
  5
2D3A
330
1A
100
AcDbEntity
  8
ZUWAKU
100
AcDbLine
 10
6.171105962322201
 20
3.575000115545734
 30
0.0
 11
7.921105962322201
 21
3.575000115545734
 31
0.0
  0
ARC
  5
2D3B
330
1A
100
AcDbEntity
  8
ZUWAKU
100
AcDbCircle
 10
6.171105962322201
 20
4.712500115545733
 30
0.0
 40
0.2625
100
AcDbArc
 50
90.0
 51
180.0
  0
ARC
  5
2D3C
330
1A
100
AcDbEntity
  8
ZUWAKU
100
AcDbCircle
 10
6.171105962322201
 20
3.837500115545733
 30
0.0
 40
0.2625
100
AcDbArc
 50
180.0
 51
270.0
  0
LINE
  5
2D3D
330
1A
100
AcDbEntity
  8
ZUWAKU
100
AcDbLine
 10
5.908605962322212
 20
3.837500115545733
 30
0.0
 11
5.908605962322212
 21
4.712500115545733
 31
0.0
  0
ARC
  5
2D3E
330
1A
100
AcDbEntity
  8
ZUWAKU
100
AcDbCircle
 10
7.221105962322212
 20
5.882601128223406
 30
0.0
 40
0.7
100
AcDbArc
 50
0.0
 51
45.0
  0
ARC
  5
2D3F
330
1A
100
AcDbEntity
  8
ZUWAKU
100
AcDbCircle
 10
7.658605962322212
 20
5.237500115545735
 30
0.0
 40
0.2625
100
AcDbArc
 50
270.0
 51
0.0
  0
LINE
  5
2D40
330
1A
100
AcDbEntity
  8
ZUWAKU
100
AcDbLine
 10
7.921105962322201
 20
5.237500115545735
 30
0.0
 11
7.921105962322201
 21
5.882601128223406
 31
0.0
  0
LINE
  5
2D41
330
1A
100
AcDbEntity
  8
ZUWAKU
100
AcDbLine
 10
8.706030202813963
 20
7.367525368715146
 30
0.0
 11
7.251131215491625
 21
8.822424356037483
 31
0.0
  0
ARC
  5
2D42
330
1A
100
AcDbEntity
  8
ZUWAKU
100
AcDbCircle
 10
12.47110596232221
 20
5.675000115545735
 30
0.0
 40
0.7
100
AcDbArc
 50
180.0
 51
270.0
  0
LINE
  5
2D43
330
1A
100
AcDbEntity
  8
ZUWAKU
100
AcDbLine
 10
9.321105962322235
 20
4.975000115545732
 30
0.0
 11
9.321105962322235
 21
5.882601128223406
 31
0.0
  0
ARC
  5
2D44
330
1A
100
AcDbEntity
  8
ZUWAKU
100
AcDbCircle
 10
8.796105962322201
 20
10.48750011554573
 30
0.0
 40
0.2625
100
AcDbArc
 50
270.0
 51
0.0
  0
ARC
  5
2D45
330
1A
100
AcDbEntity
  8
ZUWAKU
100
AcDbCircle
 10
8.796105962322201
 20
11.36250011554573
 30
0.0
 40
0.2625
100
AcDbArc
 50
0.0
 51
90.0
  0
ARC
  5
2D46
330
1A
100
AcDbEntity
  8
ZUWAKU
100
AcDbCircle
 10
7.046105962322201
 20
10.22500011554573
 30
0.0
 40
1.399999999999999
100
AcDbArc
 50
90.0
 51
180.0
  0
LINE
  5
2D47
330
1A
100
AcDbEntity
  8
ZUWAKU
100
AcDbLine
 10
5.646105962322224
 20
10.22500011554573
 30
0.0
 11
5.646105962322224
 21
9.317399102868062
 31
0.0
  0
LINE
  5
2D48
330
1A
100
AcDbEntity
  8
ZUWAKU
100
AcDbLine
 10
8.796105962322201
 20
10.22500011554573
 30
0.0
 11
7.308605962322189
 21
10.22500011554573
 31
0.0
  0
LINE
  5
2D49
330
1A
100
AcDbEntity
  8
ZUWAKU
100
AcDbLine
 10
7.046105962322201
 20
9.962500115545733
 30
0.0
 11
7.046105962322201
 21
9.317399102868062
 31
0.0
  0
ARC
  5
2D4A
330
1A
100
AcDbEntity
  8
ZUWAKU
100
AcDbCircle
 10
7.308605962322189
 20
9.962500115545733
 30
0.0
 40
0.2625
100
AcDbArc
 50
90.0
 51
180.0
  0
LINE
  5
2D4B
330
1A
100
AcDbEntity
  8
ZUWAKU
100
AcDbLine
 10
7.046105962322201
 20
11.62500011554573
 30
0.0
 11
8.796105962322201
 21
11.62500011554573
 31
0.0
  0
ARC
  5
2D4C
330
1A
100
AcDbEntity
  8
ZUWAKU
100
AcDbCircle
 10
12.47110596232221
 20
9.525000115545712
 30
0.0
 40
2.099999999999999
100
AcDbArc
 50
90.0
 51
180.0
  0
ARC
  5
2D4D
330
1A
100
AcDbEntity
  8
ZUWAKU
100
AcDbCircle
 10
12.47110596232221
 20
9.525000115545733
 30
0.0
 40
0.7
100
AcDbArc
 50
90.0
 51
180.0
  0
LINE
  5
2D4E
330
1A
100
AcDbEntity
  8
ZUWAKU
100
AcDbLine
 10
9.058605962322189
 20
11.36250011554573
 30
0.0
 11
9.058605962322189
 21
10.48750011554573
 31
0.0
  0
LINE
  5
2D4F
330
1A
100
AcDbEntity
  8
ZUWAKU
100
AcDbLine
 10
17.83817343098013
 20
11.44154709962921
 30
0.0
 11
16.90403849366424
 21
8.483453131462248
 31
0.0
  0
LINE
  5
2D50
330
1A
100
AcDbEntity
  8
ZUWAKU
100
AcDbLine
 10
14.9211059623222
 20
11.36250011554573
 30
0.0
 11
14.9211059623222
 21
3.837500115545733
 31
0.0
  0
LINE
  5
2D51
330
1A
100
AcDbEntity
  8
ZUWAKU
100
AcDbLine
 10
16.32110596232223
 20
8.562500115545734
 30
0.0
 11
16.32110596232223
 21
11.36250011554573
 31
0.0
  0
LINE
  5
2D52
330
1A
100
AcDbEntity
  8
ZUWAKU
100
AcDbLine
 10
28.9211059623222
 20
5.500000115545731
 30
0.0
 11
28.9211059623222
 21
11.36250011554573
 31
0.0
  0
LINE
  5
2D53
330
1A
100
AcDbEntity
  8
ZUWAKU
100
AcDbLine
 10
27.52110596232222
 20
11.36250011554573
 30
0.0
 11
27.52110596232222
 21
4.975000115545732
 31
0.0
  0
LINE
  5
2D54
330
1A
100
AcDbEntity
  8
ZUWAKU
100
AcDbLine
 10
21.74610596232219
 20
3.837500115545733
 30
0.0
 11
21.74610596232219
 21
11.36250011554573
 31
0.0
  0
LINE
  5
2D55
330
1A
100
AcDbEntity
  8
ZUWAKU
100
AcDbLine
 10
20.34610596232221
 20
11.36250011554573
 30
0.0
 11
20.34610596232221
 21
3.837500115545733
 31
0.0
  0
LINE
  5
2D56
330
1A
100
AcDbEntity
  8
ZUWAKU
100
AcDbLine
 10
18.65742920341119
 20
9.602523712327446
 30
0.0
 11
18.02505333074327
 21
7.600000115545743
 31
0.0
  0
ARC
  5
2D57
330
1A
100
AcDbEntity
  8
ZUWAKU
100
AcDbCircle
 10
24.89610596232222
 20
9.317399102868083
 30
0.0
 40
2.099999999999999
100
AcDbArc
 50
180.0
 51
225.0
  0
ARC
  5
2D58
330
1A
100
AcDbEntity
  8
ZUWAKU
100
AcDbCircle
 10
24.89610596232222
 20
9.317399102868083
 30
0.0
 40
0.7
100
AcDbArc
 50
180.0000000000016
 51
224.9999999999988
  0
LINE
  5
2D59
330
1A
100
AcDbEntity
  8
ZUWAKU
100
AcDbLine
 10
33.12110596232219
 20
11.36250011554573
 30
0.0
 11
33.12110596232219
 21
3.837500115545733
 31
0.0
  0
LINE
  5
2D5A
330
1A
100
AcDbEntity
  8
ZUWAKU
100
AcDbLine
 10
34.52110596232222
 20
3.837500115545733
 30
0.0
 11
34.52110596232222
 21
11.36250011554573
 31
0.0
  0
LINE
  5
2D5B
330
1A
100
AcDbEntity
  8
ZUWAKU
100
AcDbLine
 10
30.6711059623222
 20
11.36250011554573
 30
0.0
 11
30.6711059623222
 21
5.500000115545731
 31
0.0
  0
LINE
  5
2D5C
330
1A
100
AcDbEntity
  8
ZUWAKU
100
AcDbLine
 10
32.07110596232223
 20
4.975000115545732
 30
0.0
 11
32.07110596232223
 21
11.36250011554573
 31
0.0
  0
LINE
  5
2D5D
330
1A
100
AcDbEntity
  8
ZUWAKU
100
AcDbLine
 10
39.56331465892583
 20
15.00000011554573
 30
0.0
 11
39.56331465892583
 21
0.4000001155457654
 31
0.0
  0
LINE
  5
2D5E
330
1A
100
AcDbEntity
  8
ZUWAKU
100
AcDbLine
 10
39.76331465892576
 20
15.00000011554573
 30
0.0
 11
39.76331465892588
 21
0.4000001155457654
 31
0.0
  0
LINE
  5
2D5F
330
1A
100
AcDbEntity
  8
ZUWAKU
100
AcDbLine
 10
39.66331465892574
 20
15.00000011554573
 30
0.0
 11
39.66331465892585
 21
0.4000001155457654
 31
0.0
  0
LINE
  5
2D60
330
1A
100
AcDbEntity
  8
ZUWAKU
100
AcDbLine
 10
28.9211059623222
 20
3.575000115545734
 30
0.0
 11
30.6711059623222
 21
3.575000115545734
 31
0.0
  0
LINE
  5
2D61
330
1A
100
AcDbEntity
  8
ZUWAKU
100
AcDbLine
 10
30.14610596232222
 20
4.975000115545732
 30
0.0
 11
29.44610596232223
 21
4.975000115545732
 31
0.0
  0
LINE
  5
2D62
330
1A
100
AcDbEntity
  8
ZUWAKU
100
AcDbLine
 10
20.6086059623222
 20
3.575000115545734
 30
0.0
 11
21.4836059623222
 21
3.575000115545734
 31
0.0
  0
LINE
  5
2D63
330
1A
100
AcDbEntity
  8
ZUWAKU
100
AcDbLine
 10
17.83817343098013
 20
3.758453131462246
 30
0.0
 11
16.90403849366424
 21
6.716547099629217
 31
0.0
  0
ARC
  5
2D64
330
1A
100
AcDbEntity
  8
ZUWAKU
100
AcDbCircle
 10
16.58360596232222
 20
6.637500115545734
 30
0.0
 40
0.2625
100
AcDbArc
 50
90.0
 51
180.0
  0
ARC
  5
2D65
330
1A
100
AcDbEntity
  8
ZUWAKU
100
AcDbCircle
 10
16.65372304406656
 20
6.637500115545734
 30
0.0
 40
0.2625
100
AcDbArc
 50
17.52556837372303
 51
90.0
  0
ARC
  5
2D66
330
1A
100
AcDbEntity
  8
ZUWAKU
100
AcDbCircle
 10
15.18360596232219
 20
3.837500115545733
 30
0.0
 40
0.2625
100
AcDbArc
 50
180.0
 51
270.0
  0
ARC
  5
2D67
330
1A
100
AcDbEntity
  8
ZUWAKU
100
AcDbCircle
 10
13.43360596232219
 20
4.712500115545733
 30
0.0
 40
0.2625
100
AcDbArc
 50
0.0
 51
90.0
  0
ARC
  5
2D68
330
1A
100
AcDbEntity
  8
ZUWAKU
100
AcDbCircle
 10
13.43360596232219
 20
3.837500115545733
 30
0.0
 40
0.2625
100
AcDbArc
 50
270.0
 51
0.0
  0
LINE
  5
2D69
330
1A
100
AcDbEntity
  8
ZUWAKU
100
AcDbLine
 10
13.69610596232223
 20
4.712500115545733
 30
0.0
 11
13.69610596232223
 21
3.837500115545733
 31
0.0
  0
LINE
  5
2D6A
330
1A
100
AcDbEntity
  8
ZUWAKU
100
AcDbLine
 10
16.32110596232223
 20
3.837500115545733
 30
0.0
 11
16.32110596232223
 21
6.637500115545734
 31
0.0
  0
ARC
  5
2D6B
330
1A
100
AcDbEntity
  8
ZUWAKU
100
AcDbCircle
 10
16.05860596232218
 20
3.837500115545733
 30
0.0
 40
0.2625
100
AcDbArc
 50
270.0
 51
0.0
  0
LINE
  5
2D6C
330
1A
100
AcDbEntity
  8
ZUWAKU
100
AcDbLine
 10
15.18360596232219
 20
3.575000115545734
 30
0.0
 11
16.05860596232218
 21
3.575000115545734
 31
0.0
  0
ARC
  5
2D6D
330
1A
100
AcDbEntity
  8
ZUWAKU
100
AcDbCircle
 10
16.58360596232222
 20
8.562500115545734
 30
0.0
 40
0.2625
100
AcDbArc
 50
180.0
 51
270.0
  0
LINE
  5
2D6E
330
1A
100
AcDbEntity
  8
ZUWAKU
100
AcDbLine
 10
16.58360596232222
 20
6.900000115545733
 30
0.0
 11
16.65372304406656
 21
6.900000115545733
 31
0.0
  0
LINE
  5
2D6F
330
1A
100
AcDbEntity
  8
ZUWAKU
100
AcDbLine
 10
16.65372304406656
 20
8.300000115545731
 30
0.0
 11
16.58360596232222
 21
8.300000115545731
 31
0.0
  0
ARC
  5
2D70
330
1A
100
AcDbEntity
  8
ZUWAKU
100
AcDbCircle
 10
16.65372304406656
 20
8.562500115545734
 30
0.0
 40
0.2625
100
AcDbArc
 50
270.0
 51
342.4744316262769
  0
ARC
  5
2D71
330
1A
100
AcDbEntity
  8
ZUWAKU
100
AcDbCircle
 10
18.08848888057787
 20
3.837500115545733
 30
0.0
 40
0.2625
100
AcDbArc
 50
197.525568373723
 51
270.0
  0
LINE
  5
2D72
330
1A
100
AcDbEntity
  8
ZUWAKU
100
AcDbLine
 10
19.1882490199801
 20
3.916547099629219
 30
0.0
 11
18.02505333074327
 21
7.600000115545743
 31
0.0
  0
ARC
  5
2D73
330
1A
100
AcDbEntity
  8
ZUWAKU
100
AcDbCircle
 10
18.93793357038236
 20
3.837500115545733
 30
0.0
 40
0.2625
100
AcDbArc
 50
270.0
 51
17.52556837372303
  0
LINE
  5
2D74
330
1A
100
AcDbEntity
  8
ZUWAKU
100
AcDbLine
 10
18.08848888057787
 20
3.575000115545734
 30
0.0
 11
18.93793357038236
 21
3.575000115545734
 31
0.0
  0
ARC
  5
2D75
330
1A
100
AcDbEntity
  8
ZUWAKU
100
AcDbCircle
 10
20.6086059623222
 20
3.837500115545733
 30
0.0
 40
0.2625
100
AcDbArc
 50
180.0
 51
270.0
  0
ARC
  5
2D76
330
1A
100
AcDbEntity
  8
ZUWAKU
100
AcDbCircle
 10
25.07110596232223
 20
4.975000115545732
 30
0.0
 40
1.399999999999999
100
AcDbArc
 50
270.0
 51
0.0
  0
ARC
  5
2D77
330
1A
100
AcDbEntity
  8
ZUWAKU
100
AcDbCircle
 10
28.9211059623222
 20
4.975000115545732
 30
0.0
 40
1.399999999999999
100
AcDbArc
 50
180.0
 51
270.0
  0
LINE
  5
2D78
330
1A
100
AcDbEntity
  8
ZUWAKU
100
AcDbLine
 10
25.85603020281399
 20
7.367525368715146
 30
0.0
 11
24.4011312154916
 21
8.822424356037483
 31
0.0
  0
LINE
  5
2D79
330
1A
100
AcDbEntity
  8
ZUWAKU
100
AcDbLine
 10
23.41118172183047
 20
7.832474862376322
 30
0.0
 11
24.86608070915281
 21
6.377575875053992
 31
0.0
  0
LINE
  5
2D7A
330
1A
100
AcDbEntity
  8
ZUWAKU
100
AcDbLine
 10
23.32110596232223
 20
3.575000115545734
 30
0.0
 11
25.07110596232223
 21
3.575000115545734
 31
0.0
  0
LINE
  5
2D7B
330
1A
100
AcDbEntity
  8
ZUWAKU
100
AcDbLine
 10
23.32110596232223
 20
4.975000115545732
 30
0.0
 11
24.80860596232218
 21
4.975000115545732
 31
0.0
  0
ARC
  5
2D7C
330
1A
100
AcDbEntity
  8
ZUWAKU
100
AcDbCircle
 10
23.32110596232223
 20
4.712500115545733
 30
0.0
 40
0.2625
100
AcDbArc
 50
90.0
 51
180.0
  0
ARC
  5
2D7D
330
1A
100
AcDbEntity
  8
ZUWAKU
100
AcDbCircle
 10
21.4836059623222
 20
3.837500115545733
 30
0.0
 40
0.2625
100
AcDbArc
 50
270.0
 51
0.0
  0
ARC
  5
2D7E
330
1A
100
AcDbEntity
  8
ZUWAKU
100
AcDbCircle
 10
23.32110596232223
 20
3.837500115545733
 30
0.0
 40
0.2625
100
AcDbArc
 50
180.0
 51
270.0
  0
LINE
  5
2D7F
330
1A
100
AcDbEntity
  8
ZUWAKU
100
AcDbLine
 10
23.05860596232219
 20
3.837500115545733
 30
0.0
 11
23.05860596232219
 21
4.712500115545733
 31
0.0
  0
ARC
  5
2D80
330
1A
100
AcDbEntity
  8
ZUWAKU
100
AcDbCircle
 10
24.80860596232218
 20
5.237500115545735
 30
0.0
 40
0.2625
100
AcDbArc
 50
270.0
 51
0.0
  0
ARC
  5
2D81
330
1A
100
AcDbEntity
  8
ZUWAKU
100
AcDbCircle
 10
24.37110596232219
 20
5.882601128223406
 30
0.0
 40
0.7
100
AcDbArc
 50
0.0
 51
45.0
  0
LINE
  5
2D82
330
1A
100
AcDbEntity
  8
ZUWAKU
100
AcDbLine
 10
25.07110596232223
 20
5.237500115545735
 30
0.0
 11
25.07110596232223
 21
5.882601128223406
 31
0.0
  0
ARC
  5
2D83
330
1A
100
AcDbEntity
  8
ZUWAKU
100
AcDbCircle
 10
29.44610596232223
 20
5.500000115545731
 30
0.0
 40
0.525
100
AcDbArc
 50
180.0
 51
270.0
  0
ARC
  5
2D84
330
1A
100
AcDbEntity
  8
ZUWAKU
100
AcDbCircle
 10
24.37110596232219
 20
5.882601128223384
 30
0.0
 40
2.099999999999999
100
AcDbArc
 50
0.0
 51
45.0
  0
LINE
  5
2D85
330
1A
100
AcDbEntity
  8
ZUWAKU
100
AcDbLine
 10
26.47110596232221
 20
4.975000115545732
 30
0.0
 11
26.47110596232221
 21
5.882601128223406
 31
0.0
  0
ARC
  5
2D86
330
1A
100
AcDbEntity
  8
ZUWAKU
100
AcDbCircle
 10
30.6711059623222
 20
4.975000115545732
 30
0.0
 40
1.399999999999999
100
AcDbArc
 50
270.0
 51
0.0
  0
LINE
  5
2D87
330
1A
100
AcDbEntity
  8
ZUWAKU
100
AcDbLine
 10
33.38360596232223
 20
3.575000115545734
 30
0.0
 11
34.25860596232223
 21
3.575000115545734
 31
0.0
  0
ARC
  5
2D88
330
1A
100
AcDbEntity
  8
ZUWAKU
100
AcDbCircle
 10
30.14610596232222
 20
5.500000115545731
 30
0.0
 40
0.525
100
AcDbArc
 50
270.0
 51
0.0
  0
ARC
  5
2D89
330
1A
100
AcDbEntity
  8
ZUWAKU
100
AcDbCircle
 10
33.38360596232223
 20
3.837500115545733
 30
0.0
 40
0.2625
100
AcDbArc
 50
180.0
 51
270.0
  0
ARC
  5
2D8A
330
1A
100
AcDbEntity
  8
ZUWAKU
100
AcDbCircle
 10
34.25860596232223
 20
3.837500115545733
 30
0.0
 40
0.2625
100
AcDbArc
 50
270.0
 51
0.0
  0
LINE
  5
2D8B
330
1A
100
AcDbEntity
  8
ZUWAKU
100
AcDbLine
 10
21.4836059623222
 20
11.62500011554573
 30
0.0
 11
20.6086059623222
 21
11.62500011554573
 31
0.0
  0
LINE
  5
2D8C
330
1A
100
AcDbEntity
  8
ZUWAKU
100
AcDbLine
 10
13.69610596232223
 20
11.36250011554573
 30
0.0
 11
13.69610596232223
 21
10.48750011554573
 31
0.0
  0
ARC
  5
2D8D
330
1A
100
AcDbEntity
  8
ZUWAKU
100
AcDbCircle
 10
13.43360596232219
 20
10.48750011554573
 30
0.0
 40
0.2625
100
AcDbArc
 50
270.0
 51
0.0
  0
ARC
  5
2D8E
330
1A
100
AcDbEntity
  8
ZUWAKU
100
AcDbCircle
 10
15.18360596232219
 20
11.36250011554573
 30
0.0
 40
0.2625
100
AcDbArc
 50
90.0
 51
180.0
  0
ARC
  5
2D8F
330
1A
100
AcDbEntity
  8
ZUWAKU
100
AcDbCircle
 10
13.43360596232219
 20
11.36250011554573
 30
0.0
 40
0.2625
100
AcDbArc
 50
0.0
 51
90.0
  0
LINE
  5
2D90
330
1A
100
AcDbEntity
  8
ZUWAKU
100
AcDbLine
 10
16.05860596232218
 20
11.62500011554573
 30
0.0
 11
15.18360596232219
 21
11.62500011554573
 31
0.0
  0
ARC
  5
2D91
330
1A
100
AcDbEntity
  8
ZUWAKU
100
AcDbCircle
 10
16.05860596232218
 20
11.36250011554573
 30
0.0
 40
0.2625
100
AcDbArc
 50
0.0
 51
90.0
  0
ARC
  5
2D92
330
1A
100
AcDbEntity
  8
ZUWAKU
100
AcDbCircle
 10
18.08848888057787
 20
11.36250011554573
 30
0.0
 40
0.2625
100
AcDbArc
 50
90.0
 51
162.4744316262769
  0
LINE
  5
2D93
330
1A
100
AcDbEntity
  8
ZUWAKU
100
AcDbLine
 10
19.1882490199801
 20
11.28345313146224
 30
0.0
 11
18.65742920341119
 21
9.602523712327446
 31
0.0
  0
ARC
  5
2D94
330
1A
100
AcDbEntity
  8
ZUWAKU
100
AcDbCircle
 10
18.93793357038236
 20
11.36250011554573
 30
0.0
 40
0.2625
100
AcDbArc
 50
342.4744316262769
 51
90.0
  0
LINE
  5
2D95
330
1A
100
AcDbEntity
  8
ZUWAKU
100
AcDbLine
 10
18.08848888057787
 20
11.62500011554573
 30
0.0
 11
18.93793357038236
 21
11.62500011554573
 31
0.0
  0
ARC
  5
2D96
330
1A
100
AcDbEntity
  8
ZUWAKU
100
AcDbCircle
 10
20.6086059623222
 20
11.36250011554573
 30
0.0
 40
0.2625
100
AcDbArc
 50
90.0
 51
180.0
  0
LINE
  5
2D97
330
1A
100
AcDbEntity
  8
ZUWAKU
100
AcDbLine
 10
25.94610596232223
 20
10.22500011554573
 30
0.0
 11
24.45860596232222
 21
10.22500011554573
 31
0.0
  0
LINE
  5
2D98
330
1A
100
AcDbEntity
  8
ZUWAKU
100
AcDbLine
 10
24.19610596232223
 20
11.62500011554573
 30
0.0
 11
25.94610596232223
 21
11.62500011554573
 31
0.0
  0
ARC
  5
2D99
330
1A
100
AcDbEntity
  8
ZUWAKU
100
AcDbCircle
 10
24.19610596232223
 20
10.22500011554573
 30
0.0
 40
1.399999999999999
100
AcDbArc
 50
90.0
 51
180.0
  0
LINE
  5
2D9A
330
1A
100
AcDbEntity
  8
ZUWAKU
100
AcDbLine
 10
22.7961059623222
 20
10.22500011554573
 30
0.0
 11
22.7961059623222
 21
9.317399102868062
 31
0.0
  0
ARC
  5
2D9B
330
1A
100
AcDbEntity
  8
ZUWAKU
100
AcDbCircle
 10
21.4836059623222
 20
11.36250011554573
 30
0.0
 40
0.2625
100
AcDbArc
 50
0.0
 51
90.0
  0
LINE
  5
2D9C
330
1A
100
AcDbEntity
  8
ZUWAKU
100
AcDbLine
 10
24.19610596232223
 20
9.962500115545733
 30
0.0
 11
24.19610596232223
 21
9.317399102868062
 31
0.0
  0
ARC
  5
2D9D
330
1A
100
AcDbEntity
  8
ZUWAKU
100
AcDbCircle
 10
24.45860596232222
 20
9.962500115545733
 30
0.0
 40
0.2625
100
AcDbArc
 50
90.0
 51
180.0
  0
LINE
  5
2D9E
330
1A
100
AcDbEntity
  8
ZUWAKU
100
AcDbLine
 10
26.20860596232222
 20
11.36250011554573
 30
0.0
 11
26.20860596232222
 21
10.48750011554573
 31
0.0
  0
ARC
  5
2D9F
330
1A
100
AcDbEntity
  8
ZUWAKU
100
AcDbCircle
 10
25.94610596232223
 20
10.48750011554573
 30
0.0
 40
0.2625
100
AcDbArc
 50
270.0
 51
0.0
  0
ARC
  5
2DA0
330
1A
100
AcDbEntity
  8
ZUWAKU
100
AcDbCircle
 10
25.94610596232223
 20
11.36250011554573
 30
0.0
 40
0.2625
100
AcDbArc
 50
0.0
 51
90.0
  0
LINE
  5
2DA1
330
1A
100
AcDbEntity
  8
ZUWAKU
100
AcDbLine
 10
28.65860596232221
 20
11.62500011554573
 30
0.0
 11
27.78360596232221
 21
11.62500011554573
 31
0.0
  0
ARC
  5
2DA2
330
1A
100
AcDbEntity
  8
ZUWAKU
100
AcDbCircle
 10
27.78360596232221
 20
11.36250011554573
 30
0.0
 40
0.2625
100
AcDbArc
 50
90.0
 51
180.0
  0
ARC
  5
2DA3
330
1A
100
AcDbEntity
  8
ZUWAKU
100
AcDbCircle
 10
28.65860596232221
 20
11.36250011554573
 30
0.0
 40
0.2625
100
AcDbArc
 50
0.0
 51
90.0
  0
LINE
  5
2DA4
330
1A
100
AcDbEntity
  8
ZUWAKU
100
AcDbLine
 10
34.25860596232223
 20
11.62500011554573
 30
0.0
 11
33.38360596232223
 21
11.62500011554573
 31
0.0
  0
ARC
  5
2DA5
330
1A
100
AcDbEntity
  8
ZUWAKU
100
AcDbCircle
 10
30.93360596232219
 20
11.36250011554573
 30
0.0
 40
0.2625
100
AcDbArc
 50
90.0
 51
180.0
  0
LINE
  5
2DA6
330
1A
100
AcDbEntity
  8
ZUWAKU
100
AcDbLine
 10
31.80860596232219
 20
11.62500011554573
 30
0.0
 11
30.93360596232219
 21
11.62500011554573
 31
0.0
  0
ARC
  5
2DA7
330
1A
100
AcDbEntity
  8
ZUWAKU
100
AcDbCircle
 10
31.80860596232219
 20
11.36250011554573
 30
0.0
 40
0.2625
100
AcDbArc
 50
0.0
 51
90.0
  0
ARC
  5
2DA8
330
1A
100
AcDbEntity
  8
ZUWAKU
100
AcDbCircle
 10
33.38360596232223
 20
11.36250011554573
 30
0.0
 40
0.2625
100
AcDbArc
 50
90.0
 51
180.0
  0
ARC
  5
2DA9
330
1A
100
AcDbEntity
  8
ZUWAKU
100
AcDbCircle
 10
34.25860596232223
 20
11.36250011554573
 30
0.0
 40
0.2625
100
AcDbArc
 50
0.0
 51
90.0
  0
TEXT
  5
2DAA
330
1A
100
AcDbEntity
  8
MOJI
100
AcDbText
 10
119.9136012253571
 20
1.602460644249442
 30
0.0
 40
2.799999999999999
  1
ＲＶ１０５－０－７５
 41
0.9
  7
ｽﾀｲﾙ1
100
AcDbText
  0
TEXT
  5
2DAB
330
1A
100
AcDbEntity
  8
MOJI
100
AcDbText
 10
119.9136012253571
 20
9.002460644249424
 30
0.0
 40
2.799999999999999
  1
亜鉛メッキ金具正面打（吊）ストロング高強度金具（吊）
 41
0.9
  7
ｽﾀｲﾙ1
100
AcDbText
  0
LINE
  5
2DAC
330
1A
100
AcDbEntity
  8
ZUWAKU
100
AcDbLine
 10
104.2233005299655
 20
15.00000011554573
 30
0.0
 11
104.2233005299656
 21
0.4000001155457654
 31
0.0
  0
LINE
  5
2DAD
330
1A
100
AcDbEntity
  8
ZUWAKU
100
AcDbLine
 10
104.3233005299655
 20
15.00000011554573
 30
0.0
 11
104.3233005299656
 21
0.4000001155457654
 31
0.0
  0
LINE
  5
2DAE
330
1A
100
AcDbEntity
  8
ZUWAKU
100
AcDbLine
 10
104.1233005299656
 20
15.00000011554573
 30
0.0
 11
104.1233005299656
 21
0.4000001155457654
 31
0.0
  0
TEXT
  5
2DAF
330
1A
100
AcDbEntity
  8
ZUWAKU
100
AcDbText
 10
104.8620230410704
 20
4.82767838473854
 30
0.0
 40
2.0
  1
サイズ
 41
0.9
  7
ｽﾀｲﾙ1
100
AcDbText
  0
TEXT
  5
2DB0
330
1A
100
AcDbEntity
  8
ZUWAKU
100
AcDbText
 10
104.8620230410703
 20
12.02767838473852
 30
0.0
 40
2.0
  1
品名
 41
0.9
  7
ｽﾀｲﾙ1
100
AcDbText
  0
TEXT
  5
2DB1
330
1A
100
AcDbEntity
  8
ZUWAKU
100
AcDbText
 10
329.1019687285828
 20
9.002460644249424
 30
0.0
 40
2.799999999999999
  1
　　．　　．　　
 41
0.9
  7
ｽﾀｲﾙ1
100
AcDbText
  0
LINE
  5
2DB2
330
1A
100
AcDbEntity
  8
ZUWAKU
100
AcDbLine
 10
324.4086011400337
 20
7.800000115545747
 30
0.0
 11
348.6245051592022
 21
7.800000115545747
 31
0.0
  0
LINE
  5
2DB3
330
1A
100
AcDbEntity
  8
ZUWAKU
100
AcDbLine
 10
324.4086011400338
 20
7.70000011554575
 30
0.0
 11
348.6245051592022
 21
7.700000115545748
 31
0.0
  0
LINE
  5
2DB4
330
1A
100
AcDbEntity
  8
ZUWAKU
100
AcDbLine
 10
324.4086011400337
 20
7.600000115545746
 30
0.0
 11
348.6245051592022
 21
7.600000115545748
 31
0.0
  0
LINE
  5
2DB5
330
1A
100
AcDbEntity
  8
ZUWAKU
100
AcDbLine
 10
252.599589634002
 20
7.800000115545747
 30
0.0
 11
276.2634777679878
 21
7.800000115545747
 31
0.0
  0
LINE
  5
2DB6
330
1A
100
AcDbEntity
  8
ZUWAKU
100
AcDbLine
 10
252.599589634002
 20
7.700000115545748
 30
0.0
 11
276.2634777679878
 21
7.700000115545748
 31
0.0
  0
LINE
  5
2DB7
330
1A
100
AcDbEntity
  8
ZUWAKU
100
AcDbLine
 10
252.599589634002
 20
7.60000011554575
 30
0.0
 11
276.2634777679878
 21
7.60000011554575
 31
0.0
  0
LINE
  5
2DB8
330
1A
100
AcDbEntity
  8
ZUWAKU
100
AcDbLine
 10
252.3995896340021
 20
15.00000011554573
 30
0.0
 11
252.3995896340021
 21
0.4000001155457654
 31
0.0
  0
LINE
  5
2DB9
330
1A
100
AcDbEntity
  8
ZUWAKU
100
AcDbLine
 10
252.599589634002
 20
15.00000011554573
 30
0.0
 11
252.5995896340022
 21
0.4000001155457654
 31
0.0
  0
LINE
  5
2DBA
330
1A
100
AcDbEntity
  8
ZUWAKU
100
AcDbLine
 10
252.499589634002
 20
15.00000011554573
 30
0.0
 11
252.4995896340021
 21
0.4000001155457654
 31
0.0
  0
TEXT
  5
2DBB
330
1A
100
AcDbEntity
  8
MOJI
100
AcDbText
 10
264.0204538710881
 20
9.002460644249424
 30
0.0
 40
2.799999999999999
  1
Ａ３
 41
0.9
  7
ｽﾀｲﾙ1
100
AcDbText
  0
LINE
  5
2DBC
330
1A
100
AcDbEntity
  8
ZUWAKU
100
AcDbLine
 10
223.7121818704273
 20
15.00000011554573
 30
0.0
 11
223.7121818704273
 21
0.4000001155457654
 31
0.0
  0
LINE
  5
2DBD
330
1A
100
AcDbEntity
  8
ZUWAKU
100
AcDbLine
 10
223.9121818704272
 20
15.00000011554573
 30
0.0
 11
223.9121818704274
 21
0.4000001155457654
 31
0.0
  0
LINE
  5
2DBE
330
1A
100
AcDbEntity
  8
ZUWAKU
100
AcDbLine
 10
223.8121818704272
 20
15.00000011554573
 30
0.0
 11
223.8121818704273
 21
0.4000001155457654
 31
0.0
  0
TEXT
  5
2DBF
330
1A
100
AcDbEntity
  8
MOJI
100
AcDbText
 10
231.2836390459259
 20
5.971308976375723
 30
0.0
 40
2.799999999999999
  1
ＬＫ５５□
 41
0.9
  7
ｽﾀｲﾙ1
100
AcDbText
  0
TEXT
  5
2DC0
330
1A
100
AcDbEntity
  8
ZUWAKU
100
AcDbText
 10
231.3468807126852
 20
1.307035571115477
 30
0.0
 40
1.5
  1
□には色品番が入ります
 41
0.9
  7
ｽﾀｲﾙ1
100
AcDbText
  0
TEXT
  5
2DC1
330
1A
100
AcDbEntity
  8
ZUWAKU
100
AcDbText
 10
253.338312145107
 20
4.82767838473854
 30
0.0
 40
2.0
  1
縮尺
 41
0.9
  7
ｽﾀｲﾙ1
100
AcDbText
  0
TEXT
  5
2DC2
330
1A
100
AcDbEntity
  8
MOJI
100
AcDbText
 10
264.0204538710881
 20
1.602460644249442
 30
0.0
 40
2.799999999999999
  1
１/１
 41
0.9
  7
ｽﾀｲﾙ1
100
AcDbText
  0
TEXT
  5
2DC3
330
1A
100
AcDbEntity
  8
ZUWAKU
100
AcDbText
 10
224.650904381532
 20
12.02767838473852
 30
0.0
 40
2.0
  1
品番
 41
0.9
  7
ｽﾀｲﾙ1
100
AcDbText
  0
TEXT
  5
2DC4
330
1A
100
AcDbEntity
  8
ZUWAKU
100
AcDbText
 10
253.3383121451068
 20
12.02767838473852
 30
0.0
 40
2.0
  1
用紙
 41
0.9
  7
ｽﾀｲﾙ1
100
AcDbText
  0
LINE
  5
2DC5
330
1A
100
AcDbEntity
  8
ZUWAKU
100
AcDbLine
 10
276.2634777679878
 20
15.00000011554573
 30
0.0
 11
276.2634777679878
 21
0.4000001155457654
 31
0.0
  0
LINE
  5
2DC6
330
1A
100
AcDbEntity
  8
ZUWAKU
100
AcDbLine
 10
276.4634777679877
 20
15.00000011554573
 30
0.0
 11
276.4634777679879
 21
0.4000001155457654
 31
0.0
  0
LINE
  5
2DC7
330
1A
100
AcDbEntity
  8
ZUWAKU
100
AcDbLine
 10
276.3634777679877
 20
15.00000011554573
 30
0.0
 11
276.3634777679878
 21
0.4000001155457654
 31
0.0
  0
LINE
  5
2DC8
330
1A
100
AcDbEntity
  8
ZUWAKU
100
AcDbLine
 10
324.2086011400339
 20
15.00000011554573
 30
0.0
 11
324.2086011400339
 21
0.4000001155457654
 31
0.0
  0
LINE
  5
2DC9
330
1A
100
AcDbEntity
  8
ZUWAKU
100
AcDbLine
 10
324.4086011400338
 20
15.00000011554573
 30
0.0
 11
324.4086011400339
 21
0.4000001155457654
 31
0.0
  0
LINE
  5
2DCA
330
1A
100
AcDbEntity
  8
ZUWAKU
100
AcDbLine
 10
324.3086011400338
 20
15.00000011554573
 30
0.0
 11
324.3086011400339
 21
0.4000001155457654
 31
0.0
  0
TEXT
  5
2DCB
330
1A
100
AcDbEntity
  8
ZUWAKU
100
AcDbText
 10
325.1473236511386
 20
12.02767838473852
 30
0.0
 40
2.0
  1
DATE
 41
0.9
  7
ｽﾀｲﾙ1
100
AcDbText
  0
TEXT
  5
2DCC
330
1A
100
AcDbEntity
  8
ZUWAKU
100
AcDbText
 10
354.2640419810535
 20
8.776919783389132
 30
0.0
 40
3.0
  1
積水化学工業株式会社
 41
0.9
  7
ｽﾀｲﾙ1
100
AcDbText
  0
LINE
  5
2DCD
330
1A
100
AcDbEntity
  8
ZUWAKU
100
AcDbLine
 10
348.9245051592022
 20
15.00000011554573
 30
0.0
 11
348.9245051592023
 21
0.4000001155457654
 31
0.0
  0
LINE
  5
2DCE
330
1A
100
AcDbEntity
  8
ZUWAKU
100
AcDbLine
 10
348.8245051592022
 20
15.00000011554573
 30
0.0
 11
348.8245051592023
 21
0.4000001155457654
 31
0.0
  0
LINE
  5
2DCF
330
1A
100
AcDbEntity
  8
ZUWAKU
100
AcDbLine
 10
348.7245051592022
 20
15.00000011554573
 30
0.0
 11
348.7245051592022
 21
0.4000001155457654
 31
0.0
  0
LINE
  5
2DD0
330
1A
100
AcDbEntity
  8
ZUWAKU
100
AcDbLine
 10
348.6245051592022
 20
15.00000011554573
 30
0.0
 11
348.6245051592022
 21
0.4000001155457654
 31
0.0
  0
TEXT
  5
2DD1
330
1A
100
AcDbEntity
  8
ZUWAKU
100
AcDbText
 10
354.2640419810535
 20
3.324420272472764
 30
0.0
 40
3.0
  1
建材事業部
 41
0.9
  7
ｽﾀｲﾙ1
100
AcDbText
  0
VIEWPORT
  5
22
330
17
100
AcDbEntity
 67
     1
  8
0
100
AcDbViewport
 10
313.6808219178082
 20
148.5
 30
0.0
 40
627.3616438356165
 41
297.0
 68
     2
 69
     1
1001
ACAD
1000
MVIEW
1002
{
1070
    16
1010
0.0
1020
0.0
1030
0.0
1010
0.0
1020
0.0
1030
1.0
1040
0.0
1040
297.0
1040
313.6808219178082
1040
148.5
1040
50.0
1040
0.0
1040
0.0
1070
     0
1070
   100
1070
     1
1070
     0
1070
     0
1070
     0
1070
     0
1070
     0
1040
0.0
1040
0.0
1040
0.0
1040
1.0
1040
1.0
1040
10.0
1040
10.0
1070
     0
1002
{
1002
}
1002
}
  0
VIEWPORT
  5
64
330
17
100
AcDbEntity
 67
     1
  8
VIEWPORT
100
AcDbViewport
 10
210.0
 20
148.5
 30
0.0
 40
420.0
 41
297.0
 68
     1
 69
     2
1001
ACAD
1000
MVIEW
1002
{
1070
    16
1010
0.0
1020
0.0
1030
0.0
1010
0.0
1020
0.0
1030
1.0
1040
0.0
1040
302.9399999999998
1040
210.0
1040
148.5
1040
50.0
1040
0.0
1040
0.0
1070
     0
1070
   100
1070
     1
1070
     0
1070
     0
1070
     0
1070
     0
1070
     0
1040
0.0
1040
0.0
1040
0.0
1040
5.0
1040
5.0
1040
0.0
1040
0.0
1070
     0
1002
{
1002
}
1002
}
  0
ENDSEC
  0
SECTION
  2
OBJECTS
  0
DICTIONARY
  5
C
330
0
100
AcDbDictionary
  3
ACAD_GROUP
350
D
  3
ACAD_LAYOUT
350
141
  3
ACAD_MLINESTYLE
350
E
  3
ACAD_PLOTSETTINGS
350
142
  3
ACAD_PLOTSTYLENAME
350
13F
  3
ACADDIM
350
1A14
  3
ACDBVARIABLEDICTIONARY
350
120D
  3
ACDBHEADERROUNDTRIPXREC
350
2DD9
  0
DICTIONARY
  5
7A2
330
1A
100
AcDbDictionary
280
     1
  3
ACAD_LAYOUTSELFREF
360
2DFB
  0
DICTIONARY
  5
7A0
330
17
100
AcDbDictionary
280
     1
  3
ACAD_LAYOUTSELFREF
360
2DFA
  0
DICTIONARY
  5
D
102
{ACAD_REACTORS
330
C
102
}
330
C
100
AcDbDictionary
  0
DICTIONARY
  5
141
102
{ACAD_REACTORS
330
C
102
}
330
C
100
AcDbDictionary
  0
DICTIONARY
  5
E
102
{ACAD_REACTORS
330
C
102
}
330
C
100
AcDbDictionary
  3
STANDARD
350
13
  0
DICTIONARY
  5
142
102
{ACAD_REACTORS
330
C
102
}
330
C
100
AcDbDictionary
  0
ACDBDICTIONARYWDFLT
  5
13F
102
{ACAD_REACTORS
330
C
102
}
330
C
100
AcDbDictionary
281
     1
  3
Normal
350
140
100
AcDbDictionaryWithDefault
340
140
1001
ACAD
1000
TREAT_AS_HARD
1070
     0
1000
TREAT_AS_HARD
1070
     0
1000
TREAT_AS_HARD
1070
     0
1000
TREAT_AS_HARD
1070
     0
1000
TREAT_AS_HARD
1070
     0
1000
TREAT_AS_HARD
1070
     0
1000
TREAT_AS_HARD
1070
     0
1000
TREAT_AS_HARD
1070
     0
1000
TREAT_AS_HARD
1070
     0
1000
TREAT_AS_HARD
1070
     0
1000
TREAT_AS_HARD
1070
     0
1000
TREAT_AS_HARD
1070
     0
1000
TREAT_AS_HARD
1070
     0
1000
TREAT_AS_HARD
1070
     0
1000
TREAT_AS_HARD
1070
     0
1000
TREAT_AS_HARD
1070
     0
1000
TREAT_AS_HARD
1070
     0
  0
XRECORD
  5
1A14
102
{ACAD_REACTORS
330
C
102
}
330
C
100
AcDbXrecord
 90
   990106
  3

 60
     0
 61
     0
 62
     1
 63
     3
 64
     0
 65
     0
 66
     0
 67
     3
 68
     1
 69
     0
 70
     0
 71
     0
 72
     0
 40
0.0
170
     0
340
2082
  0
DICTIONARY
  5
120D
102
{ACAD_REACTORS
330
C
102
}
330
C
100
AcDbDictionary
  3
SORTENTS
350
120E
  0
DICTIONARY
  5
2DD9
102
{ACAD_REACTORS
330
C
102
}
330
C
100
AcDbDictionary
  3
TSTACKALIGN
350
2DDA
  3
TSTACKSIZE
350
2DDB
  3
HYPERLINKBASE
350
2DDC
  3
STYLESHEET
350
2DDD
  3
LAYOUTDICT
350
2DDE
  3
PLOTSETDICT
350
2DDF
  3
PLOTSTYLNAMDICT
350
2DE0
  3
LWETCUNION
350
2DE1
  3
INSUNITS
350
2DE2
  3
CEPSNTYPE
350
2DE3
  3
FINGERPRINTGUID
350
2DE4
  3
VERSIONGUID
350
2DE5
  3
PSVPSCALE
350
2DE6
  3
DIMSTYLEDATA
350
2DE7
  3
PUCSORTHOREF
350
2DE8
  3
PUCSORTHOVIEW
350
2DE9
  3
PUCSBASE
350
2DEA
  3
PUCSORGTOP
350
2DEB
  3
PUCSORGBOTTOM
350
2DEC
  3
PUCSORGLEFT
350
2DED
  3
PUCSORGRIGHT
350
2DEE
  3
PUCSORGFRONT
350
2DEF
  3
PUCSORGBACK
350
2DF0
  3
UCSORTHOREF
350
2DF1
  3
UCSORTHOVIEW
350
2DF2
  3
UCSBASE
350
2DF3
  3
UCSORGTOP
350
2DF4
  3
UCSORGBOTTOM
350
2DF5
  3
UCSORGLEFT
350
2DF6
  3
UCSORGRIGHT
350
2DF7
  3
UCSORGFRONT
350
2DF8
  3
UCSORGBACK
350
2DF9
  0
XRECORD
  5
2DFB
102
{ACAD_REACTORS
330
7A2
102
}
330
7A2
100
AcDbXrecord
340
1A
  0
XRECORD
  5
2DFA
102
{ACAD_REACTORS
330
7A0
102
}
330
7A0
100
AcDbXrecord
340
17
  0
MLINESTYLE
  5
13
102
{ACAD_REACTORS
330
E
102
}
330
E
100
AcDbMlineStyle
  2
STANDARD
 70
     0
  3

 62
     0
 51
90.0
 52
90.0
 71
     2
 49
0.5
 62
   256
  6
BYLAYER
 49
-0.5
 62
   256
  6
BYLAYER
  0
ACDBPLACEHOLDER
  5
140
102
{ACAD_REACTORS
330
13F
102
}
330
13F
100
AcDbPlaceHolder
280
     0
  0
DICTIONARYVAR
  5
120E
102
{ACAD_REACTORS
330
120D
102
}
330
120D
100
DictionaryVariables
280
     0
  1
96
  0
XRECORD
  5
2DDA
102
{ACAD_REACTORS
330
2DD9
102
}
330
2DD9
100
AcDbXrecord
 90
        1
  0
XRECORD
  5
2DDB
102
{ACAD_REACTORS
330
2DD9
102
}
330
2DD9
100
AcDbXrecord
 90
       70
  0
XRECORD
  5
2DDC
102
{ACAD_REACTORS
330
2DD9
102
}
330
2DD9
100
AcDbXrecord
  1

  0
XRECORD
  5
2DDD
102
{ACAD_REACTORS
330
2DD9
102
}
330
2DD9
100
AcDbXrecord
  1
systemprinter.ctb
  0
XRECORD
  5
2DDE
102
{ACAD_REACTORS
330
2DD9
102
}
330
2DD9
100
AcDbXrecord
340
141
  0
XRECORD
  5
2DDF
102
{ACAD_REACTORS
330
2DD9
102
}
330
2DD9
100
AcDbXrecord
340
142
  0
XRECORD
  5
2DE0
102
{ACAD_REACTORS
330
2DD9
102
}
330
2DD9
100
AcDbXrecord
340
13F
  0
XRECORD
  5
2DE1
102
{ACAD_REACTORS
330
2DD9
102
}
330
2DD9
100
AcDbXrecord
 90
    10781
  0
XRECORD
  5
2DE2
102
{ACAD_REACTORS
330
2DD9
102
}
330
2DD9
100
AcDbXrecord
 90
        0
  0
XRECORD
  5
2DE3
102
{ACAD_REACTORS
330
2DD9
102
}
330
2DD9
100
AcDbXrecord
 90
        0
  0
XRECORD
  5
2DE4
102
{ACAD_REACTORS
330
2DD9
102
}
330
2DD9
100
AcDbXrecord
  1
{4E8D0500-CDD1-11D3-932C-444553540000}
  0
XRECORD
  5
2DE5
102
{ACAD_REACTORS
330
2DD9
102
}
330
2DD9
100
AcDbXrecord
  1
{8F343458-D88B-4707-A636-0313E13B603C}
  0
XRECORD
  5
2DE6
102
{ACAD_REACTORS
330
2DD9
102
}
330
2DD9
100
AcDbXrecord
 40
0.0
  0
XRECORD
  5
2DE7
102
{ACAD_REACTORS
330
2DD9
102
}
330
2DD9
100
AcDbXrecord
1000
DSTYLE
1002
{
1070
   341
340
B2
1070
   343
340
B2
1070
   344
340
B2
1070
   371
 70
    -1
1070
   372
 70
    -1
1002
}
  0
XRECORD
  5
2DE8
102
{ACAD_REACTORS
330
2DD9
102
}
330
2DD9
100
AcDbXrecord
340
0
  0
XRECORD
  5
2DE9
102
{ACAD_REACTORS
330
2DD9
102
}
330
2DD9
100
AcDbXrecord
 70
     0
  0
XRECORD
  5
2DEA
102
{ACAD_REACTORS
330
2DD9
102
}
330
2DD9
100
AcDbXrecord
340
0
  0
XRECORD
  5
2DEB
102
{ACAD_REACTORS
330
2DD9
102
}
330
2DD9
100
AcDbXrecord
 10
0.0
 20
0.0
 30
0.0
  0
XRECORD
  5
2DEC
102
{ACAD_REACTORS
330
2DD9
102
}
330
2DD9
100
AcDbXrecord
 10
0.0
 20
0.0
 30
0.0
  0
XRECORD
  5
2DED
102
{ACAD_REACTORS
330
2DD9
102
}
330
2DD9
100
AcDbXrecord
 10
0.0
 20
0.0
 30
0.0
  0
XRECORD
  5
2DEE
102
{ACAD_REACTORS
330
2DD9
102
}
330
2DD9
100
AcDbXrecord
 10
0.0
 20
0.0
 30
0.0
  0
XRECORD
  5
2DEF
102
{ACAD_REACTORS
330
2DD9
102
}
330
2DD9
100
AcDbXrecord
 10
0.0
 20
0.0
 30
0.0
  0
XRECORD
  5
2DF0
102
{ACAD_REACTORS
330
2DD9
102
}
330
2DD9
100
AcDbXrecord
 10
0.0
 20
0.0
 30
0.0
  0
XRECORD
  5
2DF1
102
{ACAD_REACTORS
330
2DD9
102
}
330
2DD9
100
AcDbXrecord
340
0
  0
XRECORD
  5
2DF2
102
{ACAD_REACTORS
330
2DD9
102
}
330
2DD9
100
AcDbXrecord
 70
     0
  0
XRECORD
  5
2DF3
102
{ACAD_REACTORS
330
2DD9
102
}
330
2DD9
100
AcDbXrecord
340
0
  0
XRECORD
  5
2DF4
102
{ACAD_REACTORS
330
2DD9
102
}
330
2DD9
100
AcDbXrecord
 10
0.0
 20
0.0
 30
0.0
  0
XRECORD
  5
2DF5
102
{ACAD_REACTORS
330
2DD9
102
}
330
2DD9
100
AcDbXrecord
 10
0.0
 20
0.0
 30
0.0
  0
XRECORD
  5
2DF6
102
{ACAD_REACTORS
330
2DD9
102
}
330
2DD9
100
AcDbXrecord
 10
0.0
 20
0.0
 30
0.0
  0
XRECORD
  5
2DF7
102
{ACAD_REACTORS
330
2DD9
102
}
330
2DD9
100
AcDbXrecord
 10
0.0
 20
0.0
 30
0.0
  0
XRECORD
  5
2DF8
102
{ACAD_REACTORS
330
2DD9
102
}
330
2DD9
100
AcDbXrecord
 10
0.0
 20
0.0
 30
0.0
  0
XRECORD
  5
2DF9
102
{ACAD_REACTORS
330
2DD9
102
}
330
2DD9
100
AcDbXrecord
 10
0.0
 20
0.0
 30
0.0
  0
ENDSEC
  0
EOF
