  0
SECTION
  2
HEADER
  9
$ACADVER
  1
AC1014
  9
$ACADMAINTVER
 70
     9
  9
$DWGCODEPAGE
  3
ANSI_932
  9
$INSBASE
 10
0.0
 20
0.0
 30
0.0
  9
$EXTMIN
 10
-0.05126640194635
 20
-0.0362526699479986
 30
-0.0000000100019834
  9
$EXTMAX
 10
797.6628945888771
 20
551.6439420217511
 30
0.0000000100019837
  9
$LIMMIN
 10
0.0
 20
0.0
  9
$LIMMAX
 10
840.0
 20
594.0
  9
$ORTHOMODE
 70
     0
  9
$REGENMODE
 70
     1
  9
$FILLMODE
 70
     1
  9
$QTEXTMODE
 70
     0
  9
$MIRRTEXT
 70
     1
  9
$DRAGMODE
 70
     2
  9
$LTSCALE
 40
2.0
  9
$OSMODE
 70
    35
  9
$ATTMODE
 70
     1
  9
$TEXTSIZE
 40
5.0
  9
$TRACEWID
 40
1.0
  9
$TEXTSTYLE
  7
STANDARD
  9
$CLAYER
  8
SUNPOU
  9
$CELTYPE
  6
BYLAYER
  9
$CECOLOR
 62
   256
  9
$CELTSCALE
 40
5.0
  9
$DELOBJ
 70
     1
  9
$DISPSILH
 70
     0
  9
$DIMSCALE
 40
1.0
  9
$DIMASZ
 40
7.0
  9
$DIMEXO
 40
6.0
  9
$DIMDLI
 40
14.0
  9
$DIMRND
 40
0.0
  9
$DIMDLE
 40
0.0
  9
$DIMEXE
 40
3.0
  9
$DIMTP
 40
0.0
  9
$DIMTM
 40
0.0
  9
$DIMTXT
 40
6.0
  9
$DIMCEN
 40
150.0
  9
$DIMTSZ
 40
0.0
  9
$DIMTOL
 70
     0
  9
$DIMLIM
 70
     0
  9
$DIMTIH
 70
     0
  9
$DIMTOH
 70
     0
  9
$DIMSE1
 70
     0
  9
$DIMSE2
 70
     0
  9
$DIMTAD
 70
     3
  9
$DIMZIN
 70
     0
  9
$DIMBLK
  1

  9
$DIMASO
 70
     1
  9
$DIMSHO
 70
     1
  9
$DIMPOST
  1

  9
$DIMAPOST
  1

  9
$DIMALT
 70
     0
  9
$DIMALTD
 70
     2
  9
$DIMALTF
 40
25.4
  9
$DIMLFAC
 40
1.0
  9
$DIMTOFL
 70
     1
  9
$DIMTVP
 40
0.0
  9
$DIMTIX
 70
     0
  9
$DIMSOXD
 70
     0
  9
$DIMSAH
 70
     1
  9
$DIMBLK1
  1
OPEN
  9
$DIMBLK2
  1
OPEN
  9
$DIMSTYLE
  2
STANDARD
  9
$DIMCLRD
 70
   256
  9
$DIMCLRE
 70
   256
  9
$DIMCLRT
 70
   256
  9
$DIMTFAC
 40
1.0
  9
$DIMGAP
 40
2.0
  9
$DIMJUST
 70
     0
  9
$DIMSD1
 70
     0
  9
$DIMSD2
 70
     0
  9
$DIMTOLJ
 70
     1
  9
$DIMTZIN
 70
     0
  9
$DIMALTZ
 70
     0
  9
$DIMALTTZ
 70
     0
  9
$DIMFIT
 70
     3
  9
$DIMUPT
 70
     0
  9
$DIMUNIT
 70
     2
  9
$DIMDEC
 70
     0
  9
$DIMTDEC
 70
     0
  9
$DIMALTU
 70
     2
  9
$DIMALTTD
 70
     2
  9
$DIMTXSTY
  7
STANDARD
  9
$DIMAUNIT
 70
     0
  9
$LUNITS
 70
     2
  9
$LUPREC
 70
     4
  9
$SKETCHINC
 40
1.0
  9
$FILLETRAD
 40
20.0
  9
$AUNITS
 70
     0
  9
$AUPREC
 70
     0
  9
$MENU
  1
.
  9
$ELEVATION
 40
0.0
  9
$PELEVATION
 40
0.0
  9
$THICKNESS
 40
0.0
  9
$LIMCHECK
 70
     0
  9
$BLIPMODE
 70
     0
  9
$CHAMFERA
 40
0.0
  9
$CHAMFERB
 40
0.0
  9
$CHAMFERC
 40
40.0
  9
$CHAMFERD
 40
0.0
  9
$SKPOLY
 70
     0
  9
$TDCREATE
 40
2450994.354346065
  9
$TDUPDATE
 40
2453504.436433194
  9
$TDINDWG
 40
0.0507540856
  9
$TDUSRTIMER
 40
0.0507540856
  9
$USRTIMER
 70
     1
  9
$ANGBASE
 50
0.0
  9
$ANGDIR
 70
     0
  9
$PDMODE
 70
     1
  9
$PDSIZE
 40
0.0
  9
$PLINEWID
 40
0.0
  9
$COORDS
 70
     1
  9
$SPLFRAME
 70
     0
  9
$SPLINETYPE
 70
     6
  9
$SPLINESEGS
 70
     8
  9
$ATTDIA
 70
     0
  9
$ATTREQ
 70
     1
  9
$HANDLING
 70
 10241
  9
$HANDSEED
  5
3AF2
  9
$SURFTAB1
 70
     6
  9
$SURFTAB2
 70
     6
  9
$SURFTYPE
 70
     6
  9
$SURFU
 70
     6
  9
$SURFV
 70
     6
  9
$UCSNAME
  2

  9
$UCSORG
 10
0.0
 20
0.0
 30
0.0
  9
$UCSXDIR
 10
1.0
 20
0.0
 30
0.0
  9
$UCSYDIR
 10
0.0
 20
1.0
 30
0.0
  9
$PUCSNAME
  2

  9
$PUCSORG
 10
0.0
 20
0.0
 30
0.0
  9
$PUCSXDIR
 10
1.0
 20
0.0
 30
0.0
  9
$PUCSYDIR
 10
0.0
 20
1.0
 30
0.0
  9
$USERI1
 70
     0
  9
$USERI2
 70
     0
  9
$USERI3
 70
     0
  9
$USERI4
 70
     0
  9
$USERI5
 70
     0
  9
$USERR1
 40
0.0
  9
$USERR2
 40
0.0
  9
$USERR3
 40
0.0
  9
$USERR4
 40
0.0
  9
$USERR5
 40
0.0
  9
$WORLDVIEW
 70
     1
  9
$SHADEDGE
 70
     3
  9
$SHADEDIF
 70
    70
  9
$TILEMODE
 70
     1
  9
$MAXACTVP
 70
    16
  9
$PINSBASE
 10
0.0
 20
0.0
 30
0.0
  9
$PLIMCHECK
 70
     0
  9
$PEXTMIN
 10
0.0
 20
0.0
 30
0.0
  9
$PEXTMAX
 10
420.0
 20
297.0
 30
0.0
  9
$PLIMMIN
 10
0.0
 20
0.0
  9
$PLIMMAX
 10
420.0
 20
297.0
  9
$UNITMODE
 70
     0
  9
$VISRETAIN
 70
     0
  9
$PLINEGEN
 70
     0
  9
$PSLTSCALE
 70
     1
  9
$TREEDEPTH
 70
  3020
  9
$PICKSTYLE
 70
     1
  9
$CMLSTYLE
  2
STANDARD
  9
$CMLJUST
 70
     0
  9
$CMLSCALE
 40
1.0
  9
$PROXYGRAPHICS
 70
     1
  9
$MEASUREMENT
 70
     1
  0
ENDSEC
  0
SECTION
  2
CLASSES
  0
CLASS
  1
XRECORD
  2
AcDbXrecord
  3
AutoCAD 2000
 90
        0
280
     0
281
     0
  0
CLASS
  1
ACDBDICTIONARYWDFLT
  2
AcDbDictionaryWithDefault
  3
AutoCAD 2000
 90
        0
280
     0
281
     0
  0
CLASS
  1
ACDBPLACEHOLDER
  2
AcDbPlaceHolder
  3
AutoCAD 2000
 90
        0
280
     0
281
     0
  0
CLASS
  1
LAYOUT
  2
AcDbLayout
  3
AutoCAD 2000
 90
        0
280
     0
281
     0
  0
CLASS
  1
LONG_TRANSACTION
  2
AcDbLongTransaction
  3
AutoCAD 2000
 90
        0
280
     0
281
     0
  0
CLASS
  1
LWPOLYLINE
  2
AcDbPolyline
  3
AutoCAD 2000
 90
        0
280
     0
281
     1
  0
CLASS
  1
HATCH
  2
AcDbHatch
  3
AutoCAD 2000
 90
        0
280
     0
281
     1
  0
CLASS
  1
XRECORD
  2
AcDbXrecord
  3
AutoCAD 2000
 90
        0
280
     0
281
     0
  0
CLASS
  1
LONG_TRANSACTION
  2
AcDbLongTransaction
  3
AutoCAD 2000
 90
        0
280
     0
281
     0
  0
CLASS
  1
LWPOLYLINE
  2
AcDbPolyline
  3
AutoCAD 2000
 90
        0
280
     0
281
     1
  0
CLASS
  1
HATCH
  2
AcDbHatch
  3
AutoCAD 2000
 90
        0
280
     0
281
     1
  0
CLASS
  1
XRECORD
  2
AcDbXrecord
  3
AutoCAD 2000
 90
        0
280
     0
281
     0
  0
CLASS
  1
LONG_TRANSACTION
  2
AcDbLongTransaction
  3
AutoCAD 2000
 90
        0
280
     0
281
     0
  0
CLASS
  1
LWPOLYLINE
  2
AcDbPolyline
  3
AutoCAD 2000
 90
        0
280
     0
281
     1
  0
CLASS
  1
HATCH
  2
AcDbHatch
  3
AutoCAD 2000
 90
        0
280
     0
281
     1
  0
CLASS
  1
XRECORD
  2
AcDbXrecord
  3
AutoCAD 2000
 90
        0
280
     0
281
     0
  0
ENDSEC
  0
SECTION
  2
TABLES
  0
TABLE
  2
VPORT
  5
8
330
0
100
AcDbSymbolTable
 70
     8
  0
VPORT
  5
3ACE
330
8
100
AcDbSymbolTableRecord
100
AcDbViewportTableRecord
  2
*ACTIVE
 70
     0
 10
0.0
 20
0.0
 11
1.0
 21
1.0
 12
406.2009744130481
 22
276.4015413903478
 13
0.0
 23
0.0
 14
5.0
 24
5.0
 15
0.0
 25
0.0
 16
0.0
 26
0.0
 36
1.0
 17
0.0
 27
0.0
 37
0.0
 40
587.9176113250832
 41
1.752310536044362
 42
50.0
 43
0.0
 44
0.0
 50
0.0
 51
0.0
 71
     0
 72
   100
 73
     1
 74
     0
 75
     0
 76
     0
 77
     0
 78
     0
  0
ENDTAB
  0
TABLE
  2
LTYPE
  5
5
330
0
100
AcDbSymbolTable
 70
     3
  0
LTYPE
  5
14
330
5
100
AcDbSymbolTableRecord
100
AcDbLinetypeTableRecord
  2
BYBLOCK
 70
     0
  3

 72
    65
 73
     0
 40
0.0
  0
LTYPE
  5
15
330
5
100
AcDbSymbolTableRecord
100
AcDbLinetypeTableRecord
  2
BYLAYER
 70
     0
  3

 72
    65
 73
     0
 40
0.0
  0
LTYPE
  5
16
330
5
100
AcDbSymbolTableRecord
100
AcDbLinetypeTableRecord
  2
CONTINUOUS
 70
     0
  3
Solid line
 72
    65
 73
     0
 40
0.0
  0
LTYPE
  5
135
330
5
100
AcDbSymbolTableRecord
100
AcDbLinetypeTableRecord
  2
CENTER
 70
     0
  3
____ _ ____ _ ____ _ ____ _ ____ _ ____ _ ____ 
 72
    65
 73
     4
 40
2.0
 49
1.25
 74
     0
 49
-0.25
 74
     0
 49
0.25
 74
     0
 49
-0.25
 74
     0
  0
LTYPE
  5
2831
330
5
100
AcDbSymbolTableRecord
100
AcDbLinetypeTableRecord
  2
PHANTOM
 70
     0
  3
______  __  __  ______  __  __  ______  __  __ 
 72
    65
 73
     6
 40
2.5
 49
1.25
 74
     0
 49
-0.25
 74
     0
 49
0.25
 74
     0
 49
-0.25
 74
     0
 49
0.25
 74
     0
 49
-0.25
 74
     0
  0
ENDTAB
  0
TABLE
  2
LAYER
  5
2
330
0
100
AcDbSymbolTable
 70
     9
  0
LAYER
  5
F
330
2
100
AcDbSymbolTableRecord
100
AcDbLayerTableRecord
  2
0
 70
     0
 62
     7
  6
CONTINUOUS
  0
LAYER
  5
62
330
2
100
AcDbSymbolTableRecord
100
AcDbLayerTableRecord
  2
VIEWPORT
 70
     0
 62
     7
  6
CONTINUOUS
  0
LAYER
  5
65
330
2
100
AcDbSymbolTableRecord
100
AcDbLayerTableRecord
  2
ZUWAKU
 70
     0
 62
     7
  6
CONTINUOUS
  0
LAYER
  5
159
330
2
100
AcDbSymbolTableRecord
100
AcDbLayerTableRecord
  2
SEIHIN
 70
     0
 62
     3
  6
CONTINUOUS
  0
LAYER
  5
15A
330
2
100
AcDbSymbolTableRecord
100
AcDbLayerTableRecord
  2
SUNPOU
 70
     0
 62
     4
  6
CONTINUOUS
  0
LAYER
  5
15B
330
2
100
AcDbSymbolTableRecord
100
AcDbLayerTableRecord
  2
CENTER_L
 70
     0
 62
     1
  6
CENTER
  0
LAYER
  5
214
330
2
100
AcDbSymbolTableRecord
100
AcDbLayerTableRecord
  2
DEFPOINTS
 70
     0
 62
     7
  6
CONTINUOUS
  0
LAYER
  5
2833
330
2
100
AcDbSymbolTableRecord
100
AcDbLayerTableRecord
  2
S120
 70
     0
 62
     8
  6
PHANTOM
  0
LAYER
  5
38A9
330
2
100
AcDbSymbolTableRecord
100
AcDbLayerTableRecord
  2
MOJI
 70
     0
 62
     2
  6
CONTINUOUS
  0
ENDTAB
  0
TABLE
  2
STYLE
  5
3
330
0
100
AcDbSymbolTable
 70
     2
  0
STYLE
  5
10
330
3
100
AcDbSymbolTableRecord
100
AcDbTextStyleTableRecord
  2
STANDARD
 70
     0
 40
0.0
 41
1.0
 50
0.0
 71
     0
 42
5.0
  3
TXT
  4
bigfont.shx
  0
STYLE
  5
38AA
330
3
100
AcDbSymbolTableRecord
100
AcDbTextStyleTableRecord
  2
ｽﾀｲﾙ1
 70
     0
 40
0.0
 41
1.0
 50
0.0
 71
     0
 42
2.5
  3
MS PGothic.ttf
  4

1001
ACAD
1000
MS PGothic
1071
    32818
  0
ENDTAB
  0
TABLE
  2
VIEW
  5
6
330
0
100
AcDbSymbolTable
 70
     0
  0
ENDTAB
  0
TABLE
  2
UCS
  5
7
330
0
100
AcDbSymbolTable
 70
     0
  0
ENDTAB
  0
TABLE
  2
APPID
  5
9
330
0
100
AcDbSymbolTable
 70
     1
  0
APPID
  5
11
330
9
100
AcDbSymbolTableRecord
100
AcDbRegAppTableRecord
  2
ACAD
 70
     0
  0
ENDTAB
  0
TABLE
  2
DIMSTYLE
  5
A
330
0
100
AcDbSymbolTable
 70
     1
  0
DIMSTYLE
105
1D
102
{ACAD_REACTORS
330
233D
330
233E
330
2345
330
2346
330
2347
330
2387
330
238F
330
25A9
330
25AA
330
25B5
330
25BF
330
25C5
330
25E8
330
25E9
102
}
330
A
100
AcDbSymbolTableRecord
100
AcDbDimStyleTableRecord
  2
STANDARD
 70
     0
  3

  4

  5

  6

  7

 40
1.0
 41
0.18
 42
0.0625
 43
0.38
 44
0.18
 45
0.0
 46
0.0
 47
0.0
 48
0.0
140
0.18
141
0.09
142
0.0
143
25.4
144
1.0
145
0.0
146
1.0
147
0.09
 71
     0
 72
     0
 73
     1
 74
     1
 75
     0
 76
     0
 77
     0
 78
     0
170
     0
171
     2
172
     0
173
     0
174
     0
175
     0
176
     0
177
     0
178
     0
270
     2
271
     4
272
     4
273
     2
274
     2
340
10
275
     0
280
     0
281
     0
282
     0
283
     1
284
     0
285
     0
286
     0
287
     3
288
     0
  0
ENDTAB
  0
TABLE
  2
BLOCK_RECORD
  5
1
330
0
100
AcDbSymbolTable
 70
    15
  0
BLOCK_RECORD
  5
1A
102
{ACAD_XDICTIONARY
360
2B18
102
}
330
1
100
AcDbSymbolTableRecord
100
AcDbBlockTableRecord
  2
*MODEL_SPACE
  0
BLOCK_RECORD
  5
17
102
{ACAD_XDICTIONARY
360
2B16
102
}
330
1
100
AcDbSymbolTableRecord
100
AcDbBlockTableRecord
  2
*PAPER_SPACE
  0
BLOCK_RECORD
  5
6D
330
1
100
AcDbSymbolTableRecord
100
AcDbBlockTableRecord
  2
_OPEN
  0
BLOCK_RECORD
  5
26C9
330
1
100
AcDbSymbolTableRecord
100
AcDbBlockTableRecord
  2
*D1
  0
BLOCK_RECORD
  5
26D5
330
1
100
AcDbSymbolTableRecord
100
AcDbBlockTableRecord
  2
*D2
  0
BLOCK_RECORD
  5
26E1
330
1
100
AcDbSymbolTableRecord
100
AcDbBlockTableRecord
  2
*D3
  0
BLOCK_RECORD
  5
26ED
330
1
100
AcDbSymbolTableRecord
100
AcDbBlockTableRecord
  2
*D4
  0
BLOCK_RECORD
  5
26FB
330
1
100
AcDbSymbolTableRecord
100
AcDbBlockTableRecord
  2
*D5
  0
BLOCK_RECORD
  5
2707
330
1
100
AcDbSymbolTableRecord
100
AcDbBlockTableRecord
  2
*D6
  0
BLOCK_RECORD
  5
2715
330
1
100
AcDbSymbolTableRecord
100
AcDbBlockTableRecord
  2
*D7
  0
BLOCK_RECORD
  5
2723
330
1
100
AcDbSymbolTableRecord
100
AcDbBlockTableRecord
  2
*D8
  0
BLOCK_RECORD
  5
272F
330
1
100
AcDbSymbolTableRecord
100
AcDbBlockTableRecord
  2
*D9
  0
BLOCK_RECORD
  5
273D
330
1
100
AcDbSymbolTableRecord
100
AcDbBlockTableRecord
  2
*D10
  0
BLOCK_RECORD
  5
274B
330
1
100
AcDbSymbolTableRecord
100
AcDbBlockTableRecord
  2
*D11
  0
BLOCK_RECORD
  5
2759
330
1
100
AcDbSymbolTableRecord
100
AcDbBlockTableRecord
  2
*D12
  0
BLOCK_RECORD
  5
2765
330
1
100
AcDbSymbolTableRecord
100
AcDbBlockTableRecord
  2
*D13
  0
BLOCK_RECORD
  5
2771
330
1
100
AcDbSymbolTableRecord
100
AcDbBlockTableRecord
  2
*D14
  0
ENDTAB
  0
ENDSEC
  0
SECTION
  2
BLOCKS
  0
BLOCK
  5
1B
330
1A
100
AcDbEntity
  8
0
100
AcDbBlockBegin
  2
*MODEL_SPACE
 70
     0
 10
0.0
 20
0.0
 30
0.0
  3
*MODEL_SPACE
  1

  0
ENDBLK
  5
1C
330
1A
100
AcDbEntity
  8
0
100
AcDbBlockEnd
  0
BLOCK
  5
18
330
17
100
AcDbEntity
 67
     1
  8
0
100
AcDbBlockBegin
  2
*PAPER_SPACE
 70
     0
 10
0.0
 20
0.0
 30
0.0
  3
*PAPER_SPACE
  1

  0
ENDBLK
  5
19
330
17
100
AcDbEntity
 67
     1
  8
0
100
AcDbBlockEnd
  0
BLOCK
  5
6E
330
6D
100
AcDbEntity
  8
0
100
AcDbBlockBegin
  2
_OPEN
 70
     0
 10
0.0
 20
0.0
 30
0.0
  3
_OPEN
  1

  0
LINE
  5
6F
330
6D
100
AcDbEntity
  8
0
  6
BYBLOCK
 62
     0
100
AcDbLine
 10
-1.0
 20
0.1666666666666666
 30
0.0
 11
0.0
 21
0.0
 31
0.0
  0
LINE
  5
70
330
6D
100
AcDbEntity
  8
0
  6
BYBLOCK
 62
     0
100
AcDbLine
 10
0.0
 20
0.0
 30
0.0
 11
-1.0
 21
-0.1666666666666666
 31
0.0
  0
LINE
  5
71
330
6D
100
AcDbEntity
  8
0
  6
BYBLOCK
 62
     0
100
AcDbLine
 10
0.0
 20
0.0
 30
0.0
 11
-1.0
 21
0.0
 31
0.0
  0
ENDBLK
  5
72
330
6D
100
AcDbEntity
  8
0
100
AcDbBlockEnd
  0
BLOCK
  5
277D
330
26C9
100
AcDbEntity
  8
0
100
AcDbBlockBegin
  2
*D1
 70
     1
 10
0.0
 20
0.0
 30
0.0
  3
*D1
  1

  0
LINE
  5
398D
330
26C9
100
AcDbEntity
  8
SUNPOU
 62
     4
 48
5.0
100
AcDbLine
 10
400.5348614418986
 20
243.193481566523
 30
0.0
 11
424.6843955988964
 21
255.268248645022
 31
0.0
  0
LINE
  5
398E
330
26C9
100
AcDbEntity
  8
SUNPOU
 62
     4
 48
5.0
100
AcDbLine
 10
436.6403726406989
 20
170.9824591689231
 30
0.0
 11
460.7899067976966
 21
183.057226247422
 31
0.0
  0
LINE
  5
398F
330
26C9
100
AcDbEntity
  8
SUNPOU
 62
     4
 48
5.0
100
AcDbLine
 10
425.1316091943964
 20
247.6656175215228
 30
0.0
 11
454.9761300561972
 21
187.9765757979216
 31
0.0
  0
INSERT
  5
3990
330
26C9
100
AcDbEntity
  8
SUNPOU
 62
     4
 48
5.0
100
AcDbBlockReference
  2
_OPEN
 10
422.0011140258966
 20
253.9266078585221
 30
0.0
 41
7.0
 42
7.0
 43
7.0
 50
116.5650511770781
  0
INSERT
  5
3991
330
26C9
100
AcDbEntity
  8
SUNPOU
 62
     4
 48
5.0
100
AcDbBlockReference
  2
_OPEN
 10
458.1066252246968
 20
181.7155854609222
 30
0.0
 41
7.0
 42
7.0
 43
7.0
 50
296.5650511770781
  0
MTEXT
  5
3992
330
26C9
100
AcDbEntity
  8
SUNPOU
 62
     4
 48
5.0
100
AcDbMText
 10
444.5260055802964
 20
220.057164637222
 30
0.0
 40
6.0
 41
0.0
 71
     5
 72
     1
  1
\A1;81
 11
0.4472135954999605
 21
-0.8944271909999146
 31
0.0
1001
ACAD
1000
MTEXTBEGIN
1070
    73
1070
     1
1070
    44
1040
1.0
1070
    74
1070
     0
1000
MTEXTEND
  0
POINT
  5
3993
330
26C9
100
AcDbEntity
  8
DEFPOINTS
 62
     0
 48
5.0
100
AcDbPoint
 10
395.1682982958991
 20
240.5101999935233
 30
0.0
  0
POINT
  5
3994
330
26C9
100
AcDbEntity
  8
DEFPOINTS
 62
     0
 48
5.0
100
AcDbPoint
 10
431.2738094946994
 20
168.2991775959233
 30
0.0
  0
POINT
  5
3995
330
26C9
100
AcDbEntity
  8
DEFPOINTS
 62
     0
 48
5.0
100
AcDbPoint
 10
458.1066252246968
 20
181.7155854609222
 30
0.0
  0
ENDBLK
  5
2787
330
26C9
100
AcDbEntity
  8
0
100
AcDbBlockEnd
  0
BLOCK
  5
2788
330
26D5
100
AcDbEntity
  8
0
100
AcDbBlockBegin
  2
*D2
 70
     1
 10
0.0
 20
0.0
 30
0.0
  3
*D2
  1

  0
LINE
  5
3984
330
26D5
100
AcDbEntity
  8
SUNPOU
 62
     4
 48
5.0
100
AcDbLine
 10
411.7372788605723
 20
419.065592401371
 30
0.0
 11
459.9627038665011
 21
419.065592401371
 31
0.0
  0
LINE
  5
3985
330
26D5
100
AcDbEntity
  8
SUNPOU
 62
     4
 48
5.0
100
AcDbLine
 10
412.6504938577952
 20
339.0488531587179
 30
0.0
 11
459.962703866501
 21
339.0488531587179
 31
0.0
  0
LINE
  5
3986
330
26D5
100
AcDbEntity
  8
SUNPOU
 62
     4
 48
5.0
100
AcDbLine
 10
456.9627038665011
 20
412.065592401371
 30
0.0
 11
456.962703866501
 21
346.0488531587179
 31
0.0
  0
INSERT
  5
3987
330
26D5
100
AcDbEntity
  8
SUNPOU
 62
     4
 48
5.0
100
AcDbBlockReference
  2
_OPEN
 10
456.9627038665011
 20
419.065592401371
 30
0.0
 41
7.0
 42
7.0
 43
7.0
 50
90.0
  0
INSERT
  5
3988
330
26D5
100
AcDbEntity
  8
SUNPOU
 62
     4
 48
5.0
100
AcDbBlockReference
  2
_OPEN
 10
456.962703866501
 20
339.0488531587179
 30
0.0
 41
7.0
 42
7.0
 43
7.0
 50
270.0
  0
MTEXT
  5
3989
330
26D5
100
AcDbEntity
  8
SUNPOU
 62
     4
 48
5.0
100
AcDbMText
 10
451.9627038665009
 20
379.048853158718
 30
0.0
 40
6.0
 41
0.0
 71
     5
 72
     1
  1
\A1;80
 11
0.0000000000000001
 21
1.0
 31
0.0
1001
ACAD
1000
MTEXTBEGIN
1070
    73
1070
     1
1070
    44
1040
1.0
1070
    74
1070
     0
1000
MTEXTEND
  0
POINT
  5
398A
330
26D5
100
AcDbEntity
  8
DEFPOINTS
 62
     0
 48
5.0
100
AcDbPoint
 10
405.7372788605723
 20
419.065592401371
 30
0.0
  0
POINT
  5
398B
330
26D5
100
AcDbEntity
  8
DEFPOINTS
 62
     0
 48
5.0
100
AcDbPoint
 10
406.6504938577952
 20
339.0488531587179
 30
0.0
  0
POINT
  5
398C
330
26D5
100
AcDbEntity
  8
DEFPOINTS
 62
     0
 48
5.0
100
AcDbPoint
 10
456.962703866501
 20
339.0488531587179
 30
0.0
  0
ENDBLK
  5
2792
330
26D5
100
AcDbEntity
  8
0
100
AcDbBlockEnd
  0
BLOCK
  5
2793
330
26E1
100
AcDbEntity
  8
0
100
AcDbBlockBegin
  2
*D3
 70
     1
 10
0.0
 20
0.0
 30
0.0
  3
*D3
  1

  0
LINE
  5
397B
330
26E1
100
AcDbEntity
  8
SUNPOU
 62
     4
 48
5.0
100
AcDbLine
 10
246.1242716819065
 20
240.4735192527853
 30
0.0
 11
192.051197362993
 21
240.4735192527853
 31
0.0
  0
LINE
  5
397C
330
26E1
100
AcDbEntity
  8
SUNPOU
 62
     4
 48
5.0
100
AcDbLine
 10
419.0128191576991
 20
165.1686824274232
 30
0.0
 11
192.051197362993
 21
165.1686824274233
 31
0.0
  0
LINE
  5
397D
330
26E1
100
AcDbEntity
  8
SUNPOU
 62
     4
 48
5.0
100
AcDbLine
 10
195.051197362993
 20
233.4735192527852
 30
0.0
 11
195.051197362993
 21
172.1686824274233
 31
0.0
  0
INSERT
  5
397E
330
26E1
100
AcDbEntity
  8
SUNPOU
 62
     4
 48
5.0
100
AcDbBlockReference
  2
_OPEN
 10
195.051197362993
 20
240.4735192527853
 30
0.0
 41
7.0
 42
7.0
 43
7.0
 50
90.0
  0
INSERT
  5
397F
330
26E1
100
AcDbEntity
  8
SUNPOU
 62
     4
 48
5.0
100
AcDbBlockReference
  2
_OPEN
 10
195.051197362993
 20
165.1686824274233
 30
0.0
 41
7.0
 42
7.0
 43
7.0
 50
270.0
  0
MTEXT
  5
3980
330
26E1
100
AcDbEntity
  8
SUNPOU
 62
     4
 48
5.0
100
AcDbMText
 10
190.0511973629929
 20
203.5005605815583
 30
0.0
 40
6.0
 41
0.0
 71
     5
 72
     1
  1
\A1;75
 11
0.0000000000000001
 21
1.0
 31
0.0
1001
ACAD
1000
MTEXTBEGIN
1070
    73
1070
     1
1070
    44
1040
1.0
1070
    74
1070
     0
1000
MTEXTEND
  0
POINT
  5
3981
330
26E1
100
AcDbEntity
  8
DEFPOINTS
 62
     0
 48
5.0
100
AcDbPoint
 10
252.1242716819065
 20
240.4735192527853
 30
0.0
  0
POINT
  5
3982
330
26E1
100
AcDbEntity
  8
DEFPOINTS
 62
     0
 48
5.0
100
AcDbPoint
 10
425.0128191576991
 20
165.1686824274232
 30
0.0
  0
POINT
  5
3983
330
26E1
100
AcDbEntity
  8
DEFPOINTS
 62
     0
 48
5.0
100
AcDbPoint
 10
195.051197362993
 20
165.1686824274233
 30
0.0
  0
ENDBLK
  5
279D
330
26E1
100
AcDbEntity
  8
0
100
AcDbBlockEnd
  0
BLOCK
  5
279E
330
26ED
100
AcDbEntity
  8
0
100
AcDbBlockBegin
  2
*D4
 70
     1
 10
0.0
 20
0.0
 30
0.0
  3
*D4
  1

  0
LINE
  5
3970
330
26ED
100
AcDbEntity
  8
SUNPOU
 62
     4
 48
5.0
100
AcDbLine
 10
395.1682982958991
 20
246.5726999935233
 30
0.0
 11
395.1682982958991
 21
288.5101999935233
 31
0.0
  0
LINE
  5
3971
330
26ED
100
AcDbEntity
  8
SUNPOU
 62
     4
 48
5.0
100
AcDbLine
 10
381.0237814386064
 20
210.5735192527853
 30
0.0
 11
381.0237814386064
 21
288.5101999935233
 31
0.0
  0
LINE
  5
3972
330
26ED
100
AcDbEntity
  8
SUNPOU
 62
     4
 48
5.0
100
AcDbLine
 10
402.1682982958991
 20
285.5101999935233
 30
0.0
 11
409.1682982958991
 21
285.5101999935233
 31
0.0
  0
LINE
  5
3973
330
26ED
100
AcDbEntity
  8
SUNPOU
 62
     4
 48
5.0
100
AcDbLine
 10
374.0237814386064
 20
285.5101999935233
 30
0.0
 11
367.0237814386064
 21
285.5101999935233
 31
0.0
  0
LINE
  5
3974
330
26ED
100
AcDbEntity
  8
SUNPOU
 62
     4
 48
5.0
100
AcDbLine
 10
395.1682982958991
 20
285.5101999935233
 30
0.0
 11
381.0237814386064
 21
285.5101999935233
 31
0.0
  0
INSERT
  5
3975
330
26ED
100
AcDbEntity
  8
SUNPOU
 62
     4
 48
5.0
100
AcDbBlockReference
  2
_OPEN
 10
395.1682982958991
 20
285.5101999935233
 30
0.0
 41
7.0
 42
7.0
 43
7.0
 50
180.0
  0
INSERT
  5
3976
330
26ED
100
AcDbEntity
  8
SUNPOU
 62
     4
 48
5.0
100
AcDbBlockReference
  2
_OPEN
 10
381.0237814386064
 20
285.5101999935233
 30
0.0
 41
7.0
 42
7.0
 43
7.0
  0
MTEXT
  5
3977
330
26ED
100
AcDbEntity
  8
SUNPOU
 62
     4
 48
5.0
100
AcDbMText
 10
388.0960398672527
 20
290.5101999935233
 30
0.0
 40
6.0
 41
0.0
 71
     5
 72
     1
  1
\A1;14
1001
ACAD
1000
MTEXTBEGIN
1070
    73
1070
     1
1070
    44
1040
1.0
1070
    74
1070
     0
1000
MTEXTEND
  0
POINT
  5
3978
330
26ED
100
AcDbEntity
  8
DEFPOINTS
 62
     0
 48
5.0
100
AcDbPoint
 10
395.1682982958991
 20
240.5726999935233
 30
0.0
  0
POINT
  5
3979
330
26ED
100
AcDbEntity
  8
DEFPOINTS
 62
     0
 48
5.0
100
AcDbPoint
 10
381.0237814386064
 20
204.5735192527853
 30
0.0
  0
POINT
  5
397A
330
26ED
100
AcDbEntity
  8
DEFPOINTS
 62
     0
 48
5.0
100
AcDbPoint
 10
381.0237814386064
 20
285.5101999935233
 30
0.0
  0
ENDBLK
  5
27AA
330
26ED
100
AcDbEntity
  8
0
100
AcDbBlockEnd
  0
BLOCK
  5
27AB
330
26FB
100
AcDbEntity
  8
0
100
AcDbBlockBegin
  2
*D5
 70
     1
 10
0.0
 20
0.0
 30
0.0
  3
*D5
  1

  0
LINE
  5
3996
330
26FB
100
AcDbEntity
  8
SUNPOU
 62
     4
 48
5.0
100
AcDbLine
 10
381.0237814386064
 20
210.5735192527853
 30
0.0
 11
381.0237814386064
 21
288.5101999935233
 31
0.0
  0
LINE
  5
3997
330
26FB
100
AcDbEntity
  8
SUNPOU
 62
     4
 48
5.0
100
AcDbLine
 10
247.7361481802993
 20
240.2245002246232
 30
0.0
 11
247.7361481802993
 21
288.5101999935233
 31
0.0
  0
LINE
  5
3998
330
26FB
100
AcDbEntity
  8
SUNPOU
 62
     4
 48
5.0
100
AcDbLine
 10
374.0237814386064
 20
285.5101999935233
 30
0.0
 11
254.7361481802993
 21
285.5101999935233
 31
0.0
  0
INSERT
  5
3999
330
26FB
100
AcDbEntity
  8
SUNPOU
 62
     4
 48
5.0
100
AcDbBlockReference
  2
_OPEN
 10
381.0237814386064
 20
285.5101999935233
 30
0.0
 41
7.0
 42
7.0
 43
7.0
  0
INSERT
  5
399A
330
26FB
100
AcDbEntity
  8
SUNPOU
 62
     4
 48
5.0
100
AcDbBlockReference
  2
_OPEN
 10
247.7361481802993
 20
285.5101999935233
 30
0.0
 41
7.0
 42
7.0
 43
7.0
 50
180.0
  0
MTEXT
  5
399B
330
26FB
100
AcDbEntity
  8
SUNPOU
 62
     4
 48
5.0
100
AcDbMText
 10
314.379964809453
 20
290.5101999935233
 30
0.0
 40
6.0
 41
0.0
 71
     5
 72
     1
  1
\A1;133
1001
ACAD
1000
MTEXTBEGIN
1070
    73
1070
     1
1070
    44
1040
1.0
1070
    74
1070
     0
1000
MTEXTEND
  0
POINT
  5
399C
330
26FB
100
AcDbEntity
  8
DEFPOINTS
 62
     0
 48
5.0
100
AcDbPoint
 10
381.0237814386064
 20
204.5735192527853
 30
0.0
  0
POINT
  5
399D
330
26FB
100
AcDbEntity
  8
DEFPOINTS
 62
     0
 48
5.0
100
AcDbPoint
 10
247.7361481802993
 20
234.2245002246233
 30
0.0
  0
POINT
  5
399E
330
26FB
100
AcDbEntity
  8
DEFPOINTS
 62
     0
 48
5.0
100
AcDbPoint
 10
247.7361481802993
 20
285.5101999935233
 30
0.0
  0
ENDBLK
  5
27B5
330
26FB
100
AcDbEntity
  8
0
100
AcDbBlockEnd
  0
BLOCK
  5
27B6
330
2707
100
AcDbEntity
  8
0
100
AcDbBlockBegin
  2
*D6
 70
     1
 10
0.0
 20
0.0
 30
0.0
  3
*D6
  1

  0
LINE
  5
3965
330
2707
100
AcDbEntity
  8
SUNPOU
 62
     4
 48
5.0
100
AcDbLine
 10
381.3046768353995
 20
245.8767631395228
 30
0.0
 11
375.9381136893996
 21
256.6098894315226
 31
0.0
  0
LINE
  5
3966
330
2707
100
AcDbEntity
  8
SUNPOU
 62
     4
 48
5.0
100
AcDbLine
 10
390.248948745398
 20
250.348899094522
 30
0.0
 11
384.8823855993981
 21
261.0820253865218
 31
0.0
  0
LINE
  5
3967
330
2707
100
AcDbEntity
  8
SUNPOU
 62
     4
 48
5.0
100
AcDbLine
 10
371.0187641389
 20
250.7961126900232
 30
0.0
 11
364.7577738019005
 21
247.6656175215235
 31
0.0
  0
LINE
  5
3968
330
2707
100
AcDbEntity
  8
SUNPOU
 62
     4
 48
5.0
100
AcDbLine
 10
392.4850167228973
 20
261.5292389820217
 30
0.0
 11
408.5847061608959
 21
269.5790837010209
 31
0.0
  0
LINE
  5
3969
330
2707
100
AcDbEntity
  8
SUNPOU
 62
     4
 48
5.0
100
AcDbLine
 10
377.2797544758994
 20
253.9266078585229
 30
0.0
 11
386.2240263858979
 21
258.398743813522
 31
0.0
  0
INSERT
  5
396A
330
2707
100
AcDbEntity
  8
SUNPOU
 62
     4
 48
5.0
100
AcDbBlockReference
  2
_OPEN
 10
377.2797544758994
 20
253.9266078585229
 30
0.0
 41
7.0
 42
7.0
 43
7.0
 50
26.5650511770777
  0
INSERT
  5
396B
330
2707
100
AcDbEntity
  8
SUNPOU
 62
     4
 48
5.0
100
AcDbBlockReference
  2
_OPEN
 10
386.2240263858979
 20
258.398743813522
 30
0.0
 41
7.0
 42
7.0
 43
7.0
 50
206.5650511770776
  0
MTEXT
  5
396C
330
2707
100
AcDbEntity
  8
SUNPOU
 62
     4
 48
5.0
100
AcDbMText
 10
401.4292886328966
 20
271.5915448807708
 30
0.0
 40
6.0
 41
0.0
 71
     5
 72
     1
  1
\A1;10
 11
0.8944271909999182
 21
0.4472135954999534
 31
0.0
1001
ACAD
1000
MTEXTBEGIN
1070
    73
1070
     1
1070
    44
1040
1.0
1070
    74
1070
     0
1000
MTEXTEND
  0
POINT
  5
396D
330
2707
100
AcDbEntity
  8
DEFPOINTS
 62
     0
 48
5.0
100
AcDbPoint
 10
383.9879584083992
 20
240.5101999935232
 30
0.0
  0
POINT
  5
396E
330
2707
100
AcDbEntity
  8
DEFPOINTS
 62
     0
 48
5.0
100
AcDbPoint
 10
392.9322303183976
 20
244.9823359485224
 30
0.0
  0
POINT
  5
396F
330
2707
100
AcDbEntity
  8
DEFPOINTS
 62
     0
 48
5.0
100
AcDbPoint
 10
386.2240263858979
 20
258.398743813522
 30
0.0
  0
ENDBLK
  5
27C2
330
2707
100
AcDbEntity
  8
0
100
AcDbBlockEnd
  0
BLOCK
  5
27C3
330
2715
100
AcDbEntity
  8
0
100
AcDbBlockBegin
  2
*D7
 70
     1
 10
0.0
 20
0.0
 30
0.0
  3
*D7
  1

  0
LINE
  5
399F
330
2715
100
AcDbEntity
  8
SUNPOU
 62
     4
 48
5.0
100
AcDbLine
 10
241.7361481802993
 20
393.048853158718
 30
0.0
 11
192.051197362993
 21
393.048853158718
 31
0.0
  0
LINE
  5
39A0
330
2715
100
AcDbEntity
  8
SUNPOU
 62
     4
 48
5.0
100
AcDbLine
 10
241.7361481802993
 20
365.0488531587179
 30
0.0
 11
192.051197362993
 21
365.0488531587179
 31
0.0
  0
LINE
  5
39A1
330
2715
100
AcDbEntity
  8
SUNPOU
 62
     4
 48
5.0
100
AcDbLine
 10
195.051197362993
 20
400.0488531587179
 30
0.0
 11
195.051197362993
 21
407.0488531587179
 31
0.0
  0
LINE
  5
39A2
330
2715
100
AcDbEntity
  8
SUNPOU
 62
     4
 48
5.0
100
AcDbLine
 10
195.051197362993
 20
358.0488531587179
 30
0.0
 11
195.051197362993
 21
351.0488531587179
 31
0.0
  0
LINE
  5
39A3
330
2715
100
AcDbEntity
  8
SUNPOU
 62
     4
 48
5.0
100
AcDbLine
 10
195.051197362993
 20
393.048853158718
 30
0.0
 11
195.051197362993
 21
365.0488531587179
 31
0.0
  0
INSERT
  5
39A4
330
2715
100
AcDbEntity
  8
SUNPOU
 62
     4
 48
5.0
100
AcDbBlockReference
  2
_OPEN
 10
195.051197362993
 20
393.048853158718
 30
0.0
 41
7.0
 42
7.0
 43
7.0
 50
270.0
  0
INSERT
  5
39A5
330
2715
100
AcDbEntity
  8
SUNPOU
 62
     4
 48
5.0
100
AcDbBlockReference
  2
_OPEN
 10
195.051197362993
 20
365.0488531587179
 30
0.0
 41
7.0
 42
7.0
 43
7.0
 50
90.0
  0
MTEXT
  5
39A6
330
2715
100
AcDbEntity
  8
SUNPOU
 62
     4
 48
5.0
100
AcDbMText
 10
190.0511973629929
 20
380.241454241441
 30
0.0
 40
6.0
 41
0.0
 71
     5
 72
     1
  1
\A1;28
 11
0.0000000000000001
 21
1.0
 31
0.0
1001
ACAD
1000
MTEXTBEGIN
1070
    73
1070
     1
1070
    44
1040
1.0
1070
    74
1070
     0
1000
MTEXTEND
  0
POINT
  5
39A7
330
2715
100
AcDbEntity
  8
DEFPOINTS
 62
     0
 48
5.0
100
AcDbPoint
 10
247.7361481802993
 20
393.048853158718
 30
0.0
  0
POINT
  5
39A8
330
2715
100
AcDbEntity
  8
DEFPOINTS
 62
     0
 48
5.0
100
AcDbPoint
 10
247.7361481802993
 20
365.0488531587179
 30
0.0
  0
POINT
  5
39A9
330
2715
100
AcDbEntity
  8
DEFPOINTS
 62
     0
 48
5.0
100
AcDbPoint
 10
195.051197362993
 20
365.0488531587179
 30
0.0
  0
ENDBLK
  5
27CF
330
2715
100
AcDbEntity
  8
0
100
AcDbBlockEnd
  0
BLOCK
  5
27D0
330
2723
100
AcDbEntity
  8
0
100
AcDbBlockBegin
  2
*D8
 70
     1
 10
0.0
 20
0.0
 30
0.0
  3
*D8
  1

  0
LINE
  5
39B3
330
2723
100
AcDbEntity
  8
SUNPOU
 62
     4
 48
5.0
100
AcDbLine
 10
536.3419071134999
 20
285.6791977483236
 30
0.0
 11
509.5090913835052
 21
272.2627898833263
 31
0.0
  0
LINE
  5
39B4
330
2723
100
AcDbEntity
  8
SUNPOU
 62
     4
 48
5.0
100
AcDbLine
 10
558.7025868866999
 20
240.9578382019236
 30
0.0
 11
531.8697711567052
 21
227.5414303369263
 31
0.0
  0
LINE
  5
39B5
330
2723
100
AcDbEntity
  8
SUNPOU
 62
     4
 48
5.0
100
AcDbLine
 10
515.3228681250046
 20
267.3434403328267
 30
0.0
 11
531.4225575612052
 21
235.1440614604256
 31
0.0
  0
INSERT
  5
39B6
330
2723
100
AcDbEntity
  8
SUNPOU
 62
     4
 48
5.0
100
AcDbBlockReference
  2
_OPEN
 10
512.1923729565049
 20
273.6044306698261
 30
0.0
 41
7.0
 42
7.0
 43
7.0
 50
116.5650511770779
  0
INSERT
  5
39B7
330
2723
100
AcDbEntity
  8
SUNPOU
 62
     4
 48
5.0
100
AcDbBlockReference
  2
_OPEN
 10
534.5530527297049
 20
228.8830711234262
 30
0.0
 41
7.0
 42
7.0
 43
7.0
 50
296.5650511770779
  0
MTEXT
  5
39B8
330
2723
100
AcDbEntity
  8
SUNPOU
 62
     4
 48
5.0
100
AcDbMText
 10
527.8448487981044
 20
253.479818874126
 30
0.0
 40
6.0
 41
0.0
 71
     5
 72
     1
  1
\A1;50
 11
0.4472135954999581
 21
-0.8944271909999159
 31
0.0
1001
ACAD
1000
MTEXTBEGIN
1070
    73
1070
     1
1070
    44
1040
1.0
1070
    74
1070
     0
1000
MTEXTEND
  0
POINT
  5
39B9
330
2723
100
AcDbEntity
  8
DEFPOINTS
 62
     0
 48
5.0
100
AcDbPoint
 10
541.7084702594994
 20
288.3624793213233
 30
0.0
  0
POINT
  5
39BA
330
2723
100
AcDbEntity
  8
DEFPOINTS
 62
     0
 48
5.0
100
AcDbPoint
 10
564.0691500326994
 20
243.6411197749234
 30
0.0
  0
POINT
  5
39BB
330
2723
100
AcDbEntity
  8
DEFPOINTS
 62
     0
 48
5.0
100
AcDbPoint
 10
534.5530527297049
 20
228.8830711234262
 30
0.0
  0
ENDBLK
  5
27DA
330
2723
100
AcDbEntity
  8
0
100
AcDbBlockEnd
  0
BLOCK
  5
27DB
330
272F
100
AcDbEntity
  8
0
100
AcDbBlockBegin
  2
*D9
 70
     1
 10
0.0
 20
0.0
 30
0.0
  3
*D9
  1

  0
LINE
  5
39AA
330
272F
100
AcDbEntity
  8
SUNPOU
 62
     4
 48
5.0
100
AcDbLine
 10
526.1747844518999
 20
306.0134430715236
 30
0.0
 11
499.3419687219049
 21
292.5970352065263
 31
0.0
  0
LINE
  5
39AB
330
272F
100
AcDbEntity
  8
SUNPOU
 62
     4
 48
5.0
100
AcDbLine
 10
536.3419071134997
 20
285.6791977483235
 30
0.0
 11
509.5090913835049
 21
272.2627898833262
 31
0.0
  0
LINE
  5
39AC
330
272F
100
AcDbEntity
  8
SUNPOU
 62
     4
 48
5.0
100
AcDbLine
 10
505.1557454634044
 20
287.6776856560268
 30
0.0
 11
509.0618777880049
 21
279.8654210068256
 31
0.0
  0
INSERT
  5
39AD
330
272F
100
AcDbEntity
  8
SUNPOU
 62
     4
 48
5.0
100
AcDbBlockReference
  2
_OPEN
 10
502.0252502949047
 20
293.9386759930262
 30
0.0
 41
7.0
 42
7.0
 43
7.0
 50
116.5650511770777
  0
INSERT
  5
39AE
330
272F
100
AcDbEntity
  8
SUNPOU
 62
     4
 48
5.0
100
AcDbBlockReference
  2
_OPEN
 10
512.1923729565046
 20
273.6044306698261
 30
0.0
 41
7.0
 42
7.0
 43
7.0
 50
296.5650511770777
  0
MTEXT
  5
39AF
330
272F
100
AcDbEntity
  8
SUNPOU
 62
     4
 48
5.0
100
AcDbMText
 10
511.5809475807042
 20
286.0076213089259
 30
0.0
 40
6.0
 41
0.0
 71
     5
 72
     1
  1
\A1;23
 11
0.4472135954999541
 21
-0.8944271909999178
 31
0.0
1001
ACAD
1000
MTEXTBEGIN
1070
    73
1070
     1
1070
    44
1040
1.0
1070
    74
1070
     0
1000
MTEXTEND
  0
POINT
  5
39B0
330
272F
100
AcDbEntity
  8
DEFPOINTS
 62
     0
 48
5.0
100
AcDbPoint
 10
531.5413475978994
 20
308.6967246445234
 30
0.0
  0
POINT
  5
39B1
330
272F
100
AcDbEntity
  8
DEFPOINTS
 62
     0
 48
5.0
100
AcDbPoint
 10
541.7084702594993
 20
288.3624793213233
 30
0.0
  0
POINT
  5
39B2
330
272F
100
AcDbEntity
  8
DEFPOINTS
 62
     0
 48
5.0
100
AcDbPoint
 10
512.1923729565046
 20
273.6044306698261
 30
0.0
  0
ENDBLK
  5
27E7
330
272F
100
AcDbEntity
  8
0
100
AcDbBlockEnd
  0
BLOCK
  5
27E8
330
273D
100
AcDbEntity
  8
0
100
AcDbBlockBegin
  2
*D10
 70
     1
 10
0.0
 20
0.0
 30
0.0
  3
*D10
  1

  0
LINE
  5
39BC
330
273D
100
AcDbEntity
  8
SUNPOU
 62
     4
 48
5.0
100
AcDbLine
 10
587.3242569986996
 20
255.2686732579234
 30
0.0
 11
531.869771156705
 21
227.5414303369257
 31
0.0
  0
LINE
  5
39BD
330
273D
100
AcDbEntity
  8
SUNPOU
 62
     4
 48
5.0
100
AcDbLine
 10
590.9019657626997
 20
248.1132557299233
 30
0.0
 11
535.4474799207052
 21
220.3860128089256
 31
0.0
  0
LINE
  5
39BE
330
273D
100
AcDbEntity
  8
SUNPOU
 62
     4
 48
5.0
100
AcDbLine
 10
531.4225575612049
 20
235.1440614604249
 30
0.0
 11
528.2920623927052
 21
241.4050517974243
 31
0.0
  0
LINE
  5
39BF
330
273D
100
AcDbEntity
  8
SUNPOU
 62
     4
 48
5.0
100
AcDbLine
 10
541.2612566622045
 20
215.466663258426
 30
0.0
 11
544.3917518307044
 21
209.2056729214267
 31
0.0
  0
LINE
  5
39C0
330
273D
100
AcDbEntity
  8
SUNPOU
 62
     4
 48
5.0
100
AcDbLine
 10
534.5530527297047
 20
228.8830711234255
 30
0.0
 11
538.1307614937049
 21
221.7276535954254
 31
0.0
  0
INSERT
  5
39C1
330
273D
100
AcDbEntity
  8
SUNPOU
 62
     4
 48
5.0
100
AcDbBlockReference
  2
_OPEN
 10
534.5530527297047
 20
228.8830711234255
 30
0.0
 41
7.0
 42
7.0
 43
7.0
 50
296.5650511770783
  0
INSERT
  5
39C2
330
273D
100
AcDbEntity
  8
SUNPOU
 62
     4
 48
5.0
100
AcDbBlockReference
  2
_OPEN
 10
538.1307614937049
 20
221.7276535954254
 30
0.0
 41
7.0
 42
7.0
 43
7.0
 50
116.5650511770783
  0
MTEXT
  5
39C3
330
273D
100
AcDbEntity
  8
SUNPOU
 62
     4
 48
5.0
100
AcDbMText
 10
540.8140430667044
 20
227.5414303369254
 30
0.0
 40
6.0
 41
0.0
 71
     5
 72
     1
  1
\A1;8
 11
0.4472135954999636
 21
-0.894427190999913
 31
0.0
1001
ACAD
1000
MTEXTBEGIN
1070
    73
1070
     1
1070
    44
1040
1.0
1070
    74
1070
     0
1000
MTEXTEND
  0
POINT
  5
39C4
330
273D
100
AcDbEntity
  8
DEFPOINTS
 62
     0
 48
5.0
100
AcDbPoint
 10
592.6908201446991
 20
257.9519548309232
 30
0.0
  0
POINT
  5
39C5
330
273D
100
AcDbEntity
  8
DEFPOINTS
 62
     0
 48
5.0
100
AcDbPoint
 10
596.2685289086993
 20
250.7965373029231
 30
0.0
  0
POINT
  5
39C6
330
273D
100
AcDbEntity
  8
DEFPOINTS
 62
     0
 48
5.0
100
AcDbPoint
 10
538.1307614937049
 20
221.7276535954254
 30
0.0
  0
ENDBLK
  5
27F4
330
273D
100
AcDbEntity
  8
0
100
AcDbBlockEnd
  0
BLOCK
  5
27F5
330
274B
100
AcDbEntity
  8
0
100
AcDbBlockBegin
  2
*D11
 70
     1
 10
0.0
 20
0.0
 30
0.0
  3
*D11
  1

  0
LINE
  5
39C7
330
274B
100
AcDbEntity
  8
SUNPOU
 62
     4
 48
5.0
100
AcDbLine
 10
427.7063635231934
 20
159.8072629557615
 30
0.0
 11
433.1123042375898
 21
149.0468997034951
 31
0.0
  0
LINE
  5
39C8
330
274B
100
AcDbEntity
  8
SUNPOU
 62
     4
 48
5.0
100
AcDbLine
 10
433.961364355388
 20
162.9497371338727
 30
0.0
 11
439.3673050697843
 21
152.1893738816063
 31
0.0
  0
LINE
  5
39C9
330
274B
100
AcDbEntity
  8
SUNPOU
 62
     4
 48
5.0
100
AcDbLine
 10
425.5105426712372
 20
148.585141012916
 30
0.0
 11
419.2555532876318
 21
145.442672586506
 31
0.0
  0
LINE
  5
39CA
330
274B
100
AcDbEntity
  8
SUNPOU
 62
     4
 48
5.0
100
AcDbLine
 10
444.2755222706426
 20
158.0125520438472
 30
0.0
 11
469.2954798050645
 21
170.5824257494873
 31
0.0
  0
LINE
  5
39CB
330
274B
100
AcDbEntity
  8
SUNPOU
 62
     4
 48
5.0
100
AcDbLine
 10
431.7655320548426
 20
151.727609439326
 30
0.0
 11
438.0205328870372
 21
154.8700836174372
 31
0.0
  0
INSERT
  5
39CC
330
274B
100
AcDbEntity
  8
SUNPOU
 62
     4
 48
5.0
100
AcDbBlockReference
  2
_OPEN
 10
431.7655320548426
 20
151.727609439326
 30
0.0
 41
7.0
 42
7.0
 43
7.0
 50
26.67467374779548
  0
INSERT
  5
39CD
330
274B
100
AcDbEntity
  8
SUNPOU
 62
     4
 48
5.0
100
AcDbBlockReference
  2
_OPEN
 10
438.0205328870372
 20
154.8700836174372
 30
0.0
 41
7.0
 42
7.0
 43
7.0
 50
206.6746737477954
  0
MTEXT
  5
39CE
330
274B
100
AcDbEntity
  8
SUNPOU
 62
     4
 48
5.0
100
AcDbMText
 10
457.6683754250778
 20
170.3365726695905
 30
0.0
 40
6.0
 41
0.0
 71
     5
 72
     1
  1
\A1;t7.0
 11
0.8935699119436293
 21
0.4489240609157127
 31
0.0
1001
ACAD
1000
MTEXTBEGIN
1070
    73
1070
     1
1070
    44
1040
1.0
1070
    74
1070
     0
1000
MTEXTEND
  0
POINT
  5
39CF
330
274B
100
AcDbEntity
  8
DEFPOINTS
 62
     0
 48
5.0
100
AcDbPoint
 10
425.0128191576991
 20
165.1686824274232
 30
0.0
  0
POINT
  5
39D0
330
274B
100
AcDbEntity
  8
DEFPOINTS
 62
     0
 48
5.0
100
AcDbPoint
 10
431.2678199898937
 20
168.3111566055344
 30
0.0
  0
POINT
  5
39D1
330
274B
100
AcDbEntity
  8
DEFPOINTS
 62
     0
 48
5.0
100
AcDbPoint
 10
438.0205328870372
 20
154.8700836174372
 30
0.0
  0
ENDBLK
  5
2801
330
274B
100
AcDbEntity
  8
0
100
AcDbBlockEnd
  0
BLOCK
  5
2802
330
2759
100
AcDbEntity
  8
0
100
AcDbBlockBegin
  2
*D12
 70
     1
 10
0.0
 20
0.0
 30
0.0
  3
*D12
  1

  0
LINE
  5
39D2
330
2759
100
AcDbEntity
  8
SUNPOU
 62
     4
 48
5.0
100
AcDbLine
 10
585.0084468596914
 20
241.8749551995498
 30
0.0
 11
596.66923070125
 21
217.946510120478
 31
0.0
  0
LINE
  5
39D3
330
2759
100
AcDbEntity
  8
SUNPOU
 62
     4
 48
5.0
100
AcDbLine
 10
610.1800897266913
 20
254.1415728355498
 30
0.0
 11
621.8408735682499
 21
230.213127756478
 31
0.0
  0
LINE
  5
39D4
330
2759
100
AcDbEntity
  8
SUNPOU
 62
     4
 48
5.0
100
AcDbLine
 10
601.6476021619064
 20
223.7098266656386
 30
0.0
 11
614.2340778213017
 21
229.8434543002907
 31
0.0
  0
INSERT
  5
39D5
330
2759
100
AcDbEntity
  8
SUNPOU
 62
     4
 48
5.0
100
AcDbBlockReference
  2
_OPEN
 10
595.3550185581041
 20
220.6433316649647
 30
0.0
 41
7.0
 42
7.0
 43
7.0
 50
205.9808497770841
  0
INSERT
  5
39D6
330
2759
100
AcDbEntity
  8
SUNPOU
 62
     4
 48
5.0
100
AcDbBlockReference
  2
_OPEN
 10
620.5266614251041
 20
232.9099493009647
 30
0.0
 41
7.0
 42
7.0
 43
7.0
 50
25.98084977708413
  0
MTEXT
  5
39D7
330
2759
100
AcDbEntity
  8
SUNPOU
 62
     4
 48
5.0
100
AcDbMText
 10
605.7504864196941
 20
231.2713430571093
 30
0.0
 40
6.0
 41
0.0
 71
     5
 72
     1
  1
\A1;28
 11
0.8989405148289007
 21
0.4380707143819942
 31
0.0
1001
ACAD
1000
MTEXTBEGIN
1070
    73
1070
     1
1070
    44
1040
1.0
1070
    74
1070
     0
1000
MTEXTEND
  0
POINT
  5
39D8
330
2759
100
AcDbEntity
  8
DEFPOINTS
 62
     0
 48
5.0
100
AcDbPoint
 10
582.3800225733994
 20
247.2685982885233
 30
0.0
  0
POINT
  5
39D9
330
2759
100
AcDbEntity
  8
DEFPOINTS
 62
     0
 48
5.0
100
AcDbPoint
 10
607.5516654403993
 20
259.5352159245233
 30
0.0
  0
POINT
  5
39DA
330
2759
100
AcDbEntity
  8
DEFPOINTS
 62
     0
 48
5.0
100
AcDbPoint
 10
620.5266614251041
 20
232.9099493009647
 30
0.0
  0
ENDBLK
  5
280C
330
2759
100
AcDbEntity
  8
0
100
AcDbBlockEnd
  0
BLOCK
  5
280D
330
2765
100
AcDbEntity
  8
0
100
AcDbBlockBegin
  2
*D13
 70
     1
 10
0.0
 20
0.0
 30
0.0
  3
*D13
  1

  0
LINE
  5
39E4
330
2765
100
AcDbEntity
  8
SUNPOU
 62
     4
 48
5.0
100
AcDbLine
 10
539.0251886864996
 20
293.7290424673228
 30
0.0
 11
516.7832989464007
 21
338.2128219475207
 31
0.0
  0
LINE
  5
39E5
330
2765
100
AcDbEntity
  8
SUNPOU
 62
     4
 48
5.0
100
AcDbLine
 10
596.2685289104995
 20
322.3507125793227
 30
0.0
 11
574.0266391704006
 21
366.8344920595206
 31
0.0
  0
LINE
  5
39E6
330
2765
100
AcDbEntity
  8
SUNPOU
 62
     4
 48
5.0
100
AcDbLine
 10
524.3859300698999
 20
338.6600355430207
 30
0.0
 11
569.107289619901
 21
361.0207153180212
 31
0.0
  0
INSERT
  5
39E7
330
2765
100
AcDbEntity
  8
SUNPOU
 62
     4
 48
5.0
100
AcDbBlockReference
  2
_OPEN
 10
518.1249397329005
 20
335.5295403745209
 30
0.0
 41
7.0
 42
7.0
 43
7.0
 50
206.565051177078
  0
INSERT
  5
39E8
330
2765
100
AcDbEntity
  8
SUNPOU
 62
     4
 48
5.0
100
AcDbBlockReference
  2
_OPEN
 10
575.3682799569004
 20
364.1512104865209
 30
0.0
 41
7.0
 42
7.0
 43
7.0
 50
26.56505117707799
  0
MTEXT
  5
39E9
330
2765
100
AcDbEntity
  8
SUNPOU
 62
     4
 48
5.0
100
AcDbMText
 10
544.5105418674006
 20
354.3125113855205
 30
0.0
 40
6.0
 41
0.0
 71
     5
 72
     1
  1
\A1;64
 11
0.8944271909999159
 21
0.447213595499958
 31
0.0
1001
ACAD
1000
MTEXTBEGIN
1070
    73
1070
     1
1070
    44
1040
1.0
1070
    74
1070
     0
1000
MTEXTEND
  0
POINT
  5
39EA
330
2765
100
AcDbEntity
  8
DEFPOINTS
 62
     0
 48
5.0
100
AcDbPoint
 10
541.7084702594993
 20
288.3624793213233
 30
0.0
  0
POINT
  5
39EB
330
2765
100
AcDbEntity
  8
DEFPOINTS
 62
     0
 48
5.0
100
AcDbPoint
 10
598.9518104834992
 20
316.9841494333232
 30
0.0
  0
POINT
  5
39EC
330
2765
100
AcDbEntity
  8
DEFPOINTS
 62
     0
 48
5.0
100
AcDbPoint
 10
575.3682799569004
 20
364.1512104865209
 30
0.0
  0
ENDBLK
  5
2817
330
2765
100
AcDbEntity
  8
0
100
AcDbBlockEnd
  0
BLOCK
  5
2818
330
2771
100
AcDbEntity
  8
0
100
AcDbBlockBegin
  2
*D14
 70
     1
 10
0.0
 20
0.0
 30
0.0
  3
*D14
  1

  0
LINE
  5
39DB
330
2771
100
AcDbEntity
  8
SUNPOU
 62
     4
 48
5.0
100
AcDbLine
 10
526.6817834912443
 20
300.6165664992737
 30
0.0
 11
503.1633196296313
 21
348.446386821282
 31
0.0
  0
LINE
  5
39DC
330
2771
100
AcDbEntity
  8
SUNPOU
 62
     4
 48
5.0
100
AcDbLine
 10
598.4739839362973
 20
335.9176038091661
 30
0.0
 11
574.9555200746843
 21
383.7474241311742
 31
0.0
  0
LINE
  5
39DD
330
2771
100
AcDbEntity
  8
SUNPOU
 62
     4
 48
5.0
100
AcDbLine
 10
510.7687577517656
 20
348.8430112915131
 30
0.0
 11
569.9976011585522
 21
377.9665037874003
 31
0.0
  0
INSERT
  5
39DE
330
2771
100
AcDbEntity
  8
SUNPOU
 62
     4
 48
5.0
100
AcDbBlockReference
  2
_OPEN
 10
504.4870792326324
 20
345.7542388845106
 30
0.0
 41
7.0
 42
7.0
 43
7.0
 50
206.1838676580839
  0
INSERT
  5
39DF
330
2771
100
AcDbEntity
  8
SUNPOU
 62
     4
 48
5.0
100
AcDbBlockReference
  2
_OPEN
 10
576.2792796776854
 20
381.0552761944029
 30
0.0
 41
7.0
 42
7.0
 43
7.0
 50
26.18386765808392
  0
MTEXT
  5
39E0
330
2771
100
AcDbEntity
  8
SUNPOU
 62
     4
 48
5.0
100
AcDbMText
 10
538.1769134501571
 20
367.891670767409
 30
0.0
 40
6.0
 41
0.0
 71
     5
 72
     1
  1
\A1;80
 11
0.8973826455904641
 21
0.4412532010003554
 31
0.0
1001
ACAD
1000
MTEXTBEGIN
1070
    73
1070
     1
1070
    44
1040
1.0
1070
    74
1070
     0
1000
MTEXTEND
  0
POINT
  5
39E1
330
2771
100
AcDbEntity
  8
DEFPOINTS
 62
     0
 48
5.0
100
AcDbPoint
 10
529.3293026972464
 20
295.232270625731
 30
0.0
  0
POINT
  5
39E2
330
2771
100
AcDbEntity
  8
DEFPOINTS
 62
     0
 48
5.0
100
AcDbPoint
 10
601.1215031422993
 20
330.5333079356233
 30
0.0
  0
POINT
  5
39E3
330
2771
100
AcDbEntity
  8
DEFPOINTS
 62
     0
 48
5.0
100
AcDbPoint
 10
576.2792796776854
 20
381.0552761944029
 30
0.0
  0
ENDBLK
  5
2822
330
2771
100
AcDbEntity
  8
0
100
AcDbBlockEnd
  0
ENDSEC
  0
SECTION
  2
ENTITIES
  0
LINE
  5
232E
330
1A
100
AcDbEntity
  8
SEIHIN
100
AcDbLine
 10
409.0150326788291
 20
417.3464889962184
 30
0.0
 11
409.3017729785294
 21
416.3684380162186
 31
0.0
  0
LINE
  5
232F
330
1A
100
AcDbEntity
  8
SEIHIN
100
AcDbLine
 10
409.0967872688672
 20
400.7222054393298
 30
0.0
 11
409.2535914866086
 21
399.2700969530704
 31
0.0
  0
LINE
  5
2330
330
1A
100
AcDbEntity
  8
SEIHIN
100
AcDbLine
 10
408.9682198102934
 20
395.2543605068947
 30
0.0
 11
409.3973482617445
 21
394.1996210303233
 31
0.0
  0
LINE
  5
2332
330
1A
100
AcDbEntity
  8
SEIHIN
100
AcDbLine
 10
410.8121196522335
 20
394.0488531587185
 30
0.0
 11
405.3408192820399
 21
394.0488531587186
 31
0.0
  0
LINE
  5
2333
330
1A
100
AcDbEntity
  8
SEIHIN
100
AcDbLine
 10
427.3498879048893
 20
391.0488531587184
 30
0.0
 11
405.3813180266504
 21
391.0488531587188
 31
0.0
  0
LINE
  5
2334
330
1A
100
AcDbEntity
  8
SEIHIN
100
AcDbLine
 10
408.968219810293
 20
362.8433458105419
 30
0.0
 11
409.3973482617441
 21
363.8980852871132
 31
0.0
  0
LINE
  5
2335
330
1A
100
AcDbEntity
  8
SEIHIN
100
AcDbLine
 10
409.0967872688668
 20
357.3755008781067
 30
0.0
 11
409.2535914866082
 21
358.8276093643661
 31
0.0
  0
LINE
  5
2336
330
1A
100
AcDbEntity
  8
SEIHIN
100
AcDbLine
 10
410.8121196522335
 20
364.048853158718
 30
0.0
 11
405.3408192820395
 21
364.048853158718
 31
0.0
  0
LINE
  5
2337
330
1A
100
AcDbEntity
  8
SEIHIN
100
AcDbLine
 10
427.3498879048893
 20
367.0488531587179
 30
0.0
 11
405.3813180266504
 21
367.0488531587178
 31
0.0
  0
LINE
  5
2338
330
1A
100
AcDbEntity
  8
SEIHIN
100
AcDbLine
 10
426.20523486946
 20
376.5488531587178
 30
0.0
 11
405.3534481634862
 21
376.5488531587178
 31
0.0
  0
LINE
  5
2339
330
1A
100
AcDbEntity
  8
SEIHIN
100
AcDbLine
 10
409.0150326788282
 20
340.751217321218
 30
0.0
 11
409.3017729785286
 21
341.7292683012179
 31
0.0
  0
LINE
  5
233A
330
1A
100
AcDbEntity
  8
CENTER_L
 48
3.0
100
AcDbLine
 10
396.5685901814245
 20
347.0488531587179
 30
0.0
 11
427.9797955892202
 21
347.0488531587179
 31
0.0
  0
LINE
  5
233B
330
1A
100
AcDbEntity
  8
CENTER_L
 48
3.0
100
AcDbLine
 10
396.5685901814245
 20
411.048853158718
 30
0.0
 11
427.9797955892202
 21
411.048853158718
 31
0.0
  0
LINE
  5
233C
330
1A
100
AcDbEntity
  8
CENTER_L
 48
3.0
100
AcDbLine
 10
391.9190130925003
 20
213.4677507378238
 30
0.0
 11
409.8075569124989
 21
222.412022647823
 31
0.0
  0
DIMENSION
  5
233D
330
1A
100
AcDbEntity
  8
SUNPOU
100
AcDbDimension
  2
*D1
 10
458.1066252246968
 20
181.7155854609222
 30
0.0
 11
444.5260055802964
 21
220.057164637222
 31
0.0
 70
    33
  3
STANDARD
100
AcDbAlignedDimension
 13
395.1682982958991
 23
240.5101999935232
 33
0.0
 14
431.2738094946994
 24
168.2991775959233
 34
0.0
1001
ACAD
1000
DSTYLE
1002
{
1070
    41
1040
7.0
1070
    42
1040
6.0
1070
    43
1040
14.0
1070
    44
1040
3.0
1070
    73
1070
     0
1070
    74
1070
     0
1070
    77
1070
     3
1070
   140
1040
6.0
1070
   141
1040
150.0
1070
   147
1040
2.0
1070
   172
1070
     1
1070
   173
1070
     1
1070
   176
1070
     4
1070
   177
1070
     4
1070
   178
1070
     4
1070
   271
1070
     0
1070
   272
1070
     0
1070
   341
1005
6D
1070
     6
1000
OPEN
1070
     7
1000
OPEN
1002
}
  0
DIMENSION
  5
233E
330
1A
100
AcDbEntity
  8
SUNPOU
100
AcDbDimension
  2
*D2
 10
456.962703866501
 20
339.0488531587179
 30
0.0
 11
456.962703866501
 21
379.048853158718
 31
0.0
 70
   160
  3
STANDARD
100
AcDbAlignedDimension
 13
405.7372788605723
 23
419.065592401371
 33
0.0
 14
406.6504938577952
 24
339.0488531587179
 34
0.0
 50
90.0
100
AcDbRotatedDimension
1001
ACAD
1000
DSTYLE
1002
{
1070
    41
1040
7.0
1070
    42
1040
6.0
1070
    43
1040
14.0
1070
    44
1040
3.0
1070
    73
1070
     0
1070
    74
1070
     0
1070
    77
1070
     3
1070
   140
1040
6.0
1070
   141
1040
150.0
1070
   147
1040
2.0
1070
   172
1070
     1
1070
   173
1070
     1
1070
   176
1070
     4
1070
   177
1070
     4
1070
   178
1070
     4
1070
   271
1070
     0
1070
   272
1070
     0
1070
   341
1005
6D
1070
     6
1000
OPEN
1070
     7
1000
OPEN
1002
}
  0
LINE
  5
233F
330
1A
100
AcDbEntity
  8
SEIHIN
100
AcDbLine
 10
395.1682982958991
 20
240.5101999935232
 30
0.0
 11
429.4849551126993
 21
171.8768863599233
 31
0.0
  0
LINE
  5
2340
330
1A
100
AcDbEntity
  8
SEIHIN
100
AcDbLine
 10
390.1842195898993
 20
186.9745002246233
 30
0.0
 11
412.4918762702991
 21
186.9745002246233
 31
0.0
  0
LINE
  5
2341
330
1A
100
AcDbEntity
  8
SEIHIN
100
AcDbLine
 10
386.7412730182993
 20
183.4745002246232
 30
0.0
 11
414.0058082927992
 21
183.4745002246232
 31
0.0
  0
LINE
  5
2342
330
1A
100
AcDbEntity
  8
SEIHIN
100
AcDbLine
 10
387.4398169619992
 20
240.5101999935232
 30
0.0
 11
414.2436109051991
 21
193.4153028648232
 31
0.0
  0
LINE
  5
2343
330
1A
100
AcDbEntity
  8
CENTER_L
 48
3.0
100
AcDbLine
 10
233.6937870691992
 20
379.048853158718
 30
0.0
 11
444.6961763330496
 21
379.0488531587179
 31
0.0
  0
LINE
  5
2344
330
1A
100
AcDbEntity
  8
SEIHIN
100
AcDbLine
 10
385.4718833554993
 20
237.9029089183233
 30
0.0
 11
411.5964112926993
 21
192.0014981574232
 31
0.0
  0
DIMENSION
  5
2345
330
1A
100
AcDbEntity
  8
SUNPOU
100
AcDbDimension
  2
*D3
 10
195.051197362993
 20
165.1686824274233
 30
0.0
 11
195.0511973629929
 21
203.5005605815583
 31
0.0
 70
   160
  3
STANDARD
100
AcDbAlignedDimension
 13
252.1242716819065
 23
240.4735192527853
 33
0.0
 14
425.0128191576991
 24
165.1686824274232
 34
0.0
 50
90.0
100
AcDbRotatedDimension
1001
ACAD
1000
DSTYLE
1002
{
1070
    41
1040
7.0
1070
    42
1040
6.0
1070
    43
1040
14.0
1070
    44
1040
3.0
1070
    73
1070
     0
1070
    74
1070
     0
1070
    77
1070
     3
1070
   140
1040
6.0
1070
   141
1040
150.0
1070
   147
1040
2.0
1070
   172
1070
     1
1070
   173
1070
     1
1070
   176
1070
     4
1070
   177
1070
     4
1070
   178
1070
     4
1070
   271
1070
     0
1070
   272
1070
     0
1070
   341
1005
6D
1070
     6
1000
OPEN
1070
     7
1000
OPEN
1002
}
  0
DIMENSION
  5
2346
330
1A
100
AcDbEntity
  8
SUNPOU
100
AcDbDimension
  2
*D4
 10
381.0237814386064
 20
285.5101999935233
 30
0.0
 11
388.0960398672527
 21
285.5101999935233
 31
0.0
 70
   160
  3
STANDARD
100
AcDbAlignedDimension
 13
395.1682982958991
 23
240.5726999935233
 33
0.0
 14
381.0237814386064
 24
204.5735192527853
 34
0.0
100
AcDbRotatedDimension
1001
ACAD
1000
DSTYLE
1002
{
1070
    41
1040
7.0
1070
    42
1040
6.0
1070
    43
1040
14.0
1070
    44
1040
3.0
1070
    73
1070
     0
1070
    74
1070
     0
1070
    77
1070
     3
1070
   140
1040
6.0
1070
   141
1040
150.0
1070
   147
1040
2.0
1070
   172
1070
     1
1070
   173
1070
     1
1070
   176
1070
     4
1070
   177
1070
     4
1070
   178
1070
     4
1070
   271
1070
     0
1070
   272
1070
     0
1070
   341
1005
6D
1070
     6
1000
OPEN
1070
     7
1000
OPEN
1002
}
  0
DIMENSION
  5
2347
330
1A
100
AcDbEntity
  8
SUNPOU
100
AcDbDimension
  2
*D5
 10
247.7361481802993
 20
285.5101999935233
 30
0.0
 11
314.379964809453
 21
285.5101999935233
 31
0.0
 70
   160
  3
STANDARD
100
AcDbAlignedDimension
 13
381.0237814386064
 23
204.5735192527853
 33
0.0
 14
247.7361481802993
 24
234.2245002246233
 34
0.0
100
AcDbRotatedDimension
1001
ACAD
1000
DSTYLE
1002
{
1070
    41
1040
7.0
1070
    42
1040
6.0
1070
    43
1040
14.0
1070
    44
1040
3.0
1070
    73
1070
     0
1070
    74
1070
     0
1070
    77
1070
     3
1070
   140
1040
6.0
1070
   141
1040
150.0
1070
   147
1040
2.0
1070
   172
1070
     1
1070
   173
1070
     1
1070
   176
1070
     4
1070
   177
1070
     4
1070
   178
1070
     4
1070
   271
1070
     0
1070
   272
1070
     0
1070
   341
1005
6D
1070
     6
1000
OPEN
1070
     7
1000
OPEN
1002
}
  0
ARC
  5
234A
330
1A
100
AcDbEntity
  8
SEIHIN
100
AcDbCircle
 10
316.6381812225993
 20
274.4430478474232
 30
0.0
 40
59.4906107345
100
AcDbArc
 50
228.2657563722006
 51
314.4052601452981
  0
ARC
  5
234B
330
1A
100
AcDbEntity
  8
SEIHIN
100
AcDbCircle
 10
316.6381812225993
 20
274.4430478474232
 30
0.0
 40
62.99061073449999
100
AcDbArc
 50
231.3055937370978
 51
314.4052601452981
  0
ARC
  5
234C
330
1A
100
AcDbEntity
  8
SEIHIN
100
AcDbCircle
 10
254.4861481802993
 20
234.2245002246233
 30
0.0
 40
6.75
100
AcDbArc
 50
112.1916065662978
 51
270.0
  0
ARC
  5
234D
330
1A
100
AcDbEntity
  8
SEIHIN
100
AcDbCircle
 10
255.8551101903992
 20
235.4745002246232
 30
0.0
 40
2.0
100
AcDbArc
 50
160.7099537807992
 51
270.0
  0
ARC
  5
234E
330
1A
100
AcDbEntity
  8
SEIHIN
100
AcDbCircle
 10
255.2361481802993
 20
214.1745002246233
 30
0.0
 40
4.5
100
AcDbArc
 50
117.8966750511002
 51
270.0
  0
LINE
  5
234F
330
1A
100
AcDbEntity
  8
SEIHIN
100
AcDbLine
 10
255.2361481802993
 20
209.6745002246233
 30
0.0
 11
276.2278394755992
 21
209.6745002246233
 31
0.0
  0
LINE
  5
2350
330
1A
100
AcDbEntity
  8
SEIHIN
100
AcDbLine
 10
268.0500491667992
 20
233.4745002246232
 30
0.0
 11
255.8551101903992
 21
233.4745002246232
 31
0.0
  0
ARC
  5
2351
330
1A
100
AcDbEntity
  8
SEIHIN
100
AcDbCircle
 10
254.6361481802991
 20
223.4745002246232
 30
0.0
 40
7.5
100
AcDbArc
 50
297.8966750511002
 51
0.0000024778998239
  0
LINE
  5
2352
330
1A
100
AcDbEntity
  8
SEIHIN
100
AcDbLine
 10
255.2361481802993
 20
213.1745002246233
 30
0.0
 11
276.2278380360992
 21
213.1745002246233
 31
0.0
  0
LINE
  5
2353
330
1A
100
AcDbEntity
  8
SEIHIN
100
AcDbLine
 10
271.0068998780993
 20
227.4745002246232
 30
0.0
 11
254.4861481802993
 21
227.4745002246233
 31
0.0
  0
ARC
  5
2354
330
1A
100
AcDbEntity
  8
SEIHIN
100
AcDbCircle
 10
254.6361481802991
 20
223.4745002246232
 30
0.0
 40
4.0
100
AcDbArc
 50
297.8966750511002
 51
90.0
  0
LINE
  5
2355
330
1A
100
AcDbEntity
  8
SEIHIN
100
AcDbLine
 10
253.1306948069991
 20
218.1515677489233
 30
0.0
 11
256.5076622898991
 21
219.9393290919232
 31
0.0
  0
LINE
  5
2356
330
1A
100
AcDbEntity
  8
SEIHIN
100
AcDbLine
 10
254.768269652899
 20
215.0582930078233
 30
0.0
 11
258.1452371357991
 21
216.8460543508233
 31
0.0
  0
ARC
  5
2357
330
1A
100
AcDbEntity
  8
SEIHIN
100
AcDbCircle
 10
255.2361481802993
 20
214.1745002246233
 30
0.0
 40
1.0
100
AcDbArc
 50
117.8966750511002
 51
270.0
  0
LINE
  5
2359
330
1A
100
AcDbEntity
  8
SEIHIN
100
AcDbLine
 10
262.1361481802991
 20
223.4745005490232
 30
0.0
 11
262.1361481802991
 21
226.4745002246232
 31
0.0
  0
LINE
  5
235C
330
1A
100
AcDbEntity
  8
SEIHIN
100
AcDbLine
 10
254.7814076777992
 20
240.4745002246233
 30
0.0
 11
251.9366384235991
 21
240.4745002246233
 31
0.0
  0
LINE
  5
235E
330
1A
100
AcDbEntity
  8
SEIHIN
100
AcDbLine
 10
255.2533368559993
 20
239.8093250122233
 30
0.0
 11
253.9673934776992
 21
236.1352010741232
 31
0.0
  0
LINE
  5
235F
330
1A
100
AcDbEntity
  8
SEIHIN
100
AcDbLine
 10
382.8361481802992
 20
189.3883504191233
 30
0.0
 11
382.8361481802992
 21
187.5606500301232
 31
0.0
  0
ARC
  5
2360
330
1A
100
AcDbEntity
  8
SEIHIN
100
AcDbCircle
 10
366.4852952192991
 20
193.1745002246233
 30
0.0
 40
5.0
100
AcDbArc
 50
270.0
 51
329.9999932511005
  0
LINE
  5
2361
330
1A
100
AcDbEntity
  8
SEIHIN
100
AcDbLine
 10
388.0265325887992
 20
206.6981947898233
 30
0.0
 11
389.1861193598992
 21
187.9128890993233
 31
0.0
  0
LINE
  5
2362
330
1A
100
AcDbEntity
  8
SEIHIN
100
AcDbLine
 10
384.5331817835992
 20
206.4825558512233
 30
0.0
 11
385.6927685546993
 21
187.6972501607232
 31
0.0
  0
LINE
  5
2365
330
1A
100
AcDbEntity
  8
SEIHIN
100
AcDbLine
 10
366.4852952192991
 20
188.1745002246233
 30
0.0
 11
347.8361451236992
 21
188.1745002246233
 31
0.0
  0
ARC
  5
2366
330
1A
100
AcDbEntity
  8
SEIHIN
100
AcDbCircle
 10
386.7412730182993
 20
186.4745002246232
 30
0.0
 40
3.0
100
AcDbArc
 50
219.8055710922989
 51
270.0
  0
ARC
  5
2367
330
1A
100
AcDbEntity
  8
SEIHIN
100
AcDbCircle
 10
385.8361481802992
 20
187.5606500301232
 30
0.0
 40
3.0
100
AcDbArc
 50
180.0
 51
219.8055777680007
  0
LINE
  5
2368
330
1A
100
AcDbEntity
  8
SEIHIN
100
AcDbLine
 10
383.5314845652992
 20
185.6400965626232
 30
0.0
 11
384.4366091794993
 21
184.5539470256233
 31
0.0
  0
ARC
  5
2369
330
1A
100
AcDbEntity
  8
SEIHIN
100
AcDbCircle
 10
390.1842195898993
 20
187.9745002246233
 30
0.0
 40
1.0
100
AcDbArc
 50
183.5322945839
 51
270.0
  0
ARC
  5
236A
330
1A
100
AcDbEntity
  8
SEIHIN
100
AcDbCircle
 10
390.1842195898993
 20
187.9745002246233
 30
0.0
 40
4.5
100
AcDbArc
 50
183.5322945839
 51
270.0
  0
ARC
  5
236B
330
1A
100
AcDbEntity
  8
SEIHIN
100
AcDbCircle
 10
-347.8361481802992
 20
308.1745002246233
 30
0.0
 40
116.5
210
0.0
220
0.0
230
-1.0
100
AcDbArc
 50
303.4241891158988
 51
303.4241893624987
  0
ARC
  5
236C
330
1A
100
AcDbEntity
  8
SEIHIN
100
AcDbCircle
 10
-347.8361481802992
 20
308.1745002246233
 30
0.0
 40
120.0
210
0.0
220
0.0
230
-1.0
100
AcDbArc
 50
303.4241893819
 51
303.4241894726986
  0
LINE
  5
2370
330
1A
100
AcDbEntity
  8
SEIHIN
100
AcDbLine
 10
379.5426806333991
 20
214.6745002246233
 30
0.0
 11
373.2279188158993
 21
214.6745002246233
 31
0.0
  0
LINE
  5
2371
330
1A
100
AcDbEntity
  8
SEIHIN
100
AcDbLine
 10
379.5426806333991
 20
211.1745002246233
 30
0.0
 11
373.2279193915992
 21
211.1745002246233
 31
0.0
  0
ARC
  5
2374
330
1A
100
AcDbEntity
  8
SEIHIN
100
AcDbCircle
 10
359.7754815798994
 20
192.6745002246233
 30
0.0
 40
1.0
100
AcDbArc
 50
270.0
 51
345.0
  0
LINE
  5
2375
330
1A
100
AcDbEntity
  8
SEIHIN
100
AcDbLine
 10
359.7754815798994
 20
191.6745002246233
 30
0.0
 11
347.8361453071993
 21
191.6745002246233
 31
0.0
  0
LINE
  5
2376
330
1A
100
AcDbEntity
  8
SEIHIN
100
AcDbLine
 10
360.7414074060993
 20
192.4156811795232
 30
0.0
 11
365.0175500121993
 21
208.3744626456233
 31
0.0
  0
LINE
  5
2377
330
1A
100
AcDbEntity
  8
SEIHIN
100
AcDbLine
 10
365.0047979535993
 20
194.8039097472233
 30
0.0
 11
368.3982901567992
 21
207.4685950644233
 31
0.0
  0
LINE
  5
2378
330
1A
100
AcDbEntity
  8
SEIHIN
100
AcDbLine
 10
371.9701227765992
 20
194.1745002246233
 30
0.0
 11
365.4877608667993
 21
194.1745002246233
 31
0.0
  0
ARC
  5
2379
330
1A
100
AcDbEntity
  8
SEIHIN
100
AcDbCircle
 10
365.4877608667993
 20
194.6745002246233
 30
0.0
 40
0.5
100
AcDbArc
 50
165.0
 51
270.0
  0
LINE
  5
237A
330
1A
100
AcDbEntity
  8
SEIHIN
100
AcDbLine
 10
372.4031355438992
 20
193.4245003379232
 30
0.0
 11
370.8154219436992
 21
190.6744997146232
 31
0.0
  0
ARC
  5
237F
330
1A
100
AcDbEntity
  8
SEIHIN
100
AcDbCircle
 10
382.2684094238993
 20
194.4793635224232
 30
0.0
 40
3.0
100
AcDbArc
 50
320.194428907701
 51
3.532294583900077
  0
LINE
  5
2380
330
1A
100
AcDbEntity
  8
SEIHIN
100
AcDbLine
 10
383.5314845191992
 20
191.3089038312232
 30
0.0
 11
384.5730732626993
 21
192.5588103234233
 31
0.0
  0
LINE
  5
2383
330
1A
100
AcDbEntity
  8
SEIHIN
100
AcDbLine
 10
382.0361481802992
 20
203.6745002246233
 30
0.0
 11
383.7272482089993
 21
202.4061752031233
 31
0.0
  0
LINE
  5
2384
330
1A
100
AcDbEntity
  8
SEIHIN
100
AcDbLine
 10
380.8361481802992
 20
206.5064083988232
 30
0.0
 11
380.8361481802992
 21
206.7171411405232
 31
0.0
  0
LINE
  5
2385
330
1A
100
AcDbEntity
  8
SEIHIN
100
AcDbLine
 10
380.8361481802992
 20
206.0745002246233
 30
0.0
 11
380.8361481802992
 21
208.1745006716232
 31
0.0
  0
ARC
  5
2386
330
1A
100
AcDbEntity
  8
SEIHIN
100
AcDbCircle
 10
383.8361481802992
 20
206.0745002246233
 30
0.0
 40
3.0
100
AcDbArc
 50
180.0
 51
233.1301023542017
  0
DIMENSION
  5
2387
330
1A
100
AcDbEntity
  8
SUNPOU
100
AcDbDimension
  2
*D6
 10
386.2240263858979
 20
258.398743813522
 30
0.0
 11
403.6653566103964
 21
267.1194089257712
 31
0.0
 70
   161
  3
STANDARD
100
AcDbAlignedDimension
 13
383.9879584083992
 23
240.5101999935232
 33
0.0
 14
392.9322303183976
 24
244.9823359485224
 34
0.0
1001
ACAD
1000
DSTYLE
1002
{
1070
    41
1040
7.0
1070
    42
1040
6.0
1070
    43
1040
14.0
1070
    44
1040
3.0
1070
    73
1070
     0
1070
    74
1070
     0
1070
    77
1070
     3
1070
   140
1040
6.0
1070
   141
1040
150.0
1070
   147
1040
2.0
1070
   172
1070
     1
1070
   173
1070
     1
1070
   176
1070
     4
1070
   177
1070
     4
1070
   178
1070
     4
1070
   271
1070
     0
1070
   272
1070
     0
1070
   341
1005
6D
1070
     6
1000
OPEN
1070
     7
1000
OPEN
1002
}
  0
LINE
  5
2388
330
1A
100
AcDbEntity
  8
SEIHIN
100
AcDbLine
 10
395.1682982958991
 20
240.5101999935232
 30
0.0
 11
379.2573490750992
 21
240.5101999935232
 31
0.0
  0
LINE
  5
2389
330
1A
100
AcDbEntity
  8
SEIHIN
100
AcDbLine
 10
385.4718833554993
 20
237.9029089183233
 30
0.0
 11
381.3337645967992
 21
239.5078896648233
 31
0.0
  0
LINE
  5
238A
330
1A
100
AcDbEntity
  8
SEIHIN
100
AcDbLine
 10
379.2573496460993
 20
240.5101999935232
 30
0.0
 11
379.2573490750992
 21
240.5101999935232
 31
0.0
  0
LINE
  5
238B
330
1A
100
AcDbEntity
  8
SEIHIN
100
AcDbLine
 10
381.3281621263993
 20
237.0101999935233
 30
0.0
 11
379.2573490723993
 21
237.0101999935233
 31
0.0
  0
LINE
  5
238C
330
1A
100
AcDbEntity
  8
SEIHIN
100
AcDbLine
 10
385.4718833554993
 20
237.9029089183233
 30
0.0
 11
387.4398169619992
 21
240.5101999935232
 31
0.0
  0
LINE
  5
238D
330
1A
100
AcDbEntity
  8
SEIHIN
100
AcDbLine
 10
247.7361481802993
 20
393.048853158718
 30
0.0
 11
383.4879773051991
 21
393.048853158718
 31
0.0
  0
LINE
  5
238E
330
1A
100
AcDbEntity
  8
SEIHIN
100
AcDbLine
 10
247.7361481802993
 20
365.0488531587179
 30
0.0
 11
382.3298565691523
 21
365.0488531587179
 31
0.0
  0
DIMENSION
  5
238F
330
1A
100
AcDbEntity
  8
SUNPOU
100
AcDbDimension
  2
*D7
 10
195.051197362993
 20
365.0488531587179
 30
0.0
 11
195.0511973629929
 21
380.241454241441
 31
0.0
 70
   160
  3
STANDARD
100
AcDbAlignedDimension
 13
247.7361481802993
 23
393.048853158718
 33
0.0
 14
247.7361481802993
 24
365.0488531587179
 34
0.0
 50
90.0
100
AcDbRotatedDimension
1001
ACAD
1000
DSTYLE
1002
{
1070
    41
1040
7.0
1070
    42
1040
6.0
1070
    43
1040
14.0
1070
    44
1040
3.0
1070
    73
1070
     0
1070
    74
1070
     0
1070
    77
1070
     3
1070
   140
1040
6.0
1070
   141
1040
150.0
1070
   147
1040
2.0
1070
   172
1070
     1
1070
   173
1070
     1
1070
   176
1070
     4
1070
   177
1070
     4
1070
   178
1070
     4
1070
   271
1070
     0
1070
   272
1070
     0
1070
   341
1005
6D
1070
     6
1000
OPEN
1070
     7
1000
OPEN
1002
}
  0
LINE
  5
2390
330
1A
100
AcDbEntity
  8
SEIHIN
100
AcDbLine
 10
268.0500491667992
 20
390.236948396818
 30
0.0
 11
268.0500491667992
 21
367.860757920618
 31
0.0
  0
LINE
  5
2391
330
1A
100
AcDbEntity
  8
SEIHIN
100
AcDbLine
 10
255.8361481802992
 20
365.0488531587179
 30
0.0
 11
255.8361481802992
 21
393.048853158718
 31
0.0
  0
LINE
  5
2392
330
1A
100
AcDbEntity
  8
SEIHIN
100
AcDbLine
 10
247.7361481802993
 20
365.0488531587179
 30
0.0
 11
247.7361481802993
 21
393.048853158718
 31
0.0
  0
LWPOLYLINE
  5
2393
330
1A
100
AcDbEntity
  8
SEIHIN
100
AcDbPolyline
 90
        9
 70
   128
 43
0.0
 10
401.3738483513077
 20
376.5488531587178
 10
401.2287868716077
 20
376.4886272726179
 10
401.0895496960077
 20
376.3103677191178
 10
400.9617272793077
 20
376.0212317246179
 10
400.8504517672077
 20
375.6328282701179
 10
400.7601909371076
 20
375.1607519837178
 10
400.6945688147077
 20
374.6239570073179
 10
400.6562201670078
 20
374.0439959763179
 10
400.6466847148078
 20
373.4441546686178
  0
LWPOLYLINE
  5
239E
330
1A
100
AcDbEntity
  8
SEIHIN
100
AcDbPolyline
 90
        8
 70
   128
 43
0.0
 10
401.1676041518041
 20
376.4102975861163
 10
401.2456586076004
 20
376.3103677191178
 10
401.3734810243006
 20
376.0212317246179
 10
401.4847565364004
 20
375.6328282701179
 10
401.5750173665005
 20
375.1607519837178
 10
401.6406394889006
 20
374.6239570073179
 10
401.6789881366005
 20
374.0439959763179
 10
401.6885235888005
 20
373.4441546686178
  0
LWPOLYLINE
  5
23A8
330
1A
100
AcDbEntity
  8
SEIHIN
100
AcDbPolyline
 90
        9
 70
   128
 43
0.0
 10
402.0967599523005
 20
376.5488531587178
 10
402.2418214320005
 20
376.4886272726179
 10
402.3810586076006
 20
376.3103677191178
 10
402.5088810243005
 20
376.0212317246179
 10
402.6201565364005
 20
375.6328282701179
 10
402.7104173665004
 20
375.1607519837178
 10
402.7760394889005
 20
374.6239570073179
 10
402.8143881366006
 20
374.0439959763179
 10
402.8239235888007
 20
373.4441546686178
  0
LWPOLYLINE
  5
23B3
330
1A
100
AcDbEntity
  8
SEIHIN
100
AcDbPolyline
 90
        9
 70
   128
 43
0.0
 10
405.3534481634867
 20
376.5488531587179
 10
405.2083866837863
 20
376.488627272618
 10
405.0691495081866
 20
376.3103677191178
 10
404.9413270914867
 20
376.0212317246179
 10
404.8300515793864
 20
375.6328282701179
 10
404.7397907492865
 20
375.1607519837179
 10
404.6741686268867
 20
374.6239570073179
 10
404.6358199791864
 20
374.0439959763179
 10
404.6262845269864
 20
373.4441546686179
  0
LINE
  5
23BE
330
1A
100
AcDbEntity
  8
SEIHIN
100
AcDbLine
 10
395.1682982958991
 20
347.0488531587173
 30
0.0
 11
395.1682982958991
 21
379.0488531587173
 31
0.0
  0
LINE
  5
23BF
330
1A
100
AcDbEntity
  8
SEIHIN
100
AcDbLine
 10
398.9587780522308
 20
347.048853158718
 30
0.0
 11
398.9587780522308
 21
379.048853158718
 31
0.0
  0
LINE
  5
23C0
330
1A
100
AcDbEntity
  8
SEIHIN
100
AcDbLine
 10
387.5434378706097
 20
345.2003704793911
 30
0.0
 11
387.3361960533886
 21
360.0150988029695
 31
0.0
  0
LINE
  5
23C1
330
1A
100
AcDbEntity
  8
SEIHIN
100
AcDbLine
 10
385.7667043111885
 20
346.6527401264258
 30
0.0
 11
385.7667043111885
 21
360.0150988029695
 31
0.0
  0
LINE
  5
23C2
330
1A
100
AcDbEntity
  8
SEIHIN
100
AcDbLine
 10
408.953757767533
 20
354.2812772319354
 30
0.0
 11
408.9054984671331
 21
348.5832872977354
 31
0.0
  0
LINE
  5
23C3
330
1A
100
AcDbEntity
  8
SEIHIN
100
AcDbLine
 10
407.9621182746088
 20
351.094304898618
 30
0.0
 11
408.1093725292086
 21
349.8948946442181
 31
0.0
  0
LINE
  5
23C4
330
1A
100
AcDbEntity
  8
SEIHIN
100
AcDbLine
 10
402.8017592551536
 20
361.5439959763181
 30
0.0
 11
402.6474582544627
 21
340.1864393575813
 31
0.0
  0
LINE
  5
23C5
330
1A
100
AcDbEntity
  8
SEIHIN
100
AcDbLine
 10
401.6663888854672
 20
361.5521986367312
 30
0.0
 11
401.5316541249394
 21
342.9029010716015
 31
0.0
  0
LINE
  5
23C6
330
1A
100
AcDbEntity
  8
SEIHIN
100
AcDbLine
 10
400.7213358755634
 20
350.6396751585463
 30
0.0
 11
400.6340597067244
 21
360.9443983281007
 31
0.0
  0
LINE
  5
23C7
330
1A
100
AcDbEntity
  8
CENTER_L
 48
3.0
100
AcDbLine
 10
405.3569920263996
 20
336.1959943161803
 30
0.0
 11
405.3569920263996
 21
357.9692207127529
 31
0.0
  0
ARC
  5
23C8
330
1A
100
AcDbEntity
  8
SEIHIN
100
AcDbCircle
 10
393.7688685887703
 20
347.6753818367742
 30
0.0
 40
8.662986939268673
100
AcDbArc
 50
234.5558833701378
 51
273.2605460534906
  0
ARC
  5
23C9
330
1A
100
AcDbEntity
  8
SEIHIN
100
AcDbCircle
 10
391.806500709921
 20
345.3975150507965
 30
0.0
 40
6.679868790919538
100
AcDbArc
 50
225.6874133873147
 51
287.0840006500594
  0
LWPOLYLINE
  5
23CA
330
1A
100
AcDbEntity
  8
SEIHIN
100
AcDbPolyline
 90
       11
 70
   128
 43
0.0
 10
387.5434378706097
 20
345.2003704793911
 10
387.5434378706097
 20
345.2003704793911
 10
387.5434378706097
 20
345.2003704793911
 10
387.445454428763
 20
345.9001122169384
 10
387.6414213124562
 20
344.5006287418439
 10
387.8801003860989
 20
343.2410394211793
 10
388.1535178642479
 20
342.1523903229508
 10
388.4492927438104
 20
341.2663636669265
 10
388.7451276749038
 20
340.6178064783182
 10
388.7451276749038
 20
340.6178064783182
 10
388.5972102093569
 20
340.9420850726223
  0
LWPOLYLINE
  5
23D7
330
1A
100
AcDbEntity
  8
SEIHIN
100
AcDbPolyline
 90
       11
 70
   128
 43
0.0
 10
385.6927079267893
 20
347.4078765243193
 10
385.6927079267893
 20
347.4078765243193
 10
385.6927079267893
 20
347.4078765243193
 10
385.8404548869193
 20
345.9001122169384
 10
386.0364217706126
 20
344.5006287418439
 10
386.2751008442553
 20
343.2410394211793
 10
386.5485183224043
 20
342.1523903229508
 10
386.8442932019665
 20
341.2663636669265
 10
387.1401281330599
 20
340.6178064783182
 10
387.1401281330599
 20
340.6178064783182
 10
386.9922106675133
 20
340.9420850726223
  0
ARC
  5
23E4
330
1A
100
AcDbEntity
  8
SEIHIN
100
AcDbCircle
 10
404.9164107182198
 20
346.2812170523279
 30
0.0
 40
7.245771137616057
100
AcDbArc
 50
231.125242443039
 51
273.4860376238366
  0
LWPOLYLINE
  5
23E5
330
1A
100
AcDbEntity
  8
SEIHIN
100
AcDbPolyline
 90
        7
 70
   128
 43
0.0
 10
395.1452193024065
 20
347.137740348383
 10
395.2990298597274
 20
345.5680967616535
 10
395.5136358372378
 20
344.0355035320113
 10
395.7821868664662
 20
342.6182699081887
 10
396.1049215611501
 20
341.3332575647451
 10
396.487151232427
 20
340.1882459330061
 10
397.0117100589104
 20
339.0382586867188
  0
ARC
  5
23EE
330
1A
100
AcDbEntity
  8
SEIHIN
100
AcDbCircle
 10
405.7372788605714
 20
343.360215297316
 30
0.0
 40
4.328101381250355
100
AcDbArc
 50
264.9592298876391
 51
316.086791244509
  0
LINE
  5
23EF
330
1A
100
AcDbEntity
  8
SEIHIN
100
AcDbLine
 10
394.2615894325642
 20
339.0264183798026
 30
0.0
 11
405.7372788605714
 21
339.0321139160656
 31
0.0
  0
LWPOLYLINE
  5
23F0
330
1A
100
AcDbEntity
  8
SEIHIN
100
AcDbPolyline
 90
       11
 70
   128
 43
0.0
 10
400.721007874373
 20
350.6589928724082
 10
400.762945745515
 20
349.013823463945
 10
400.8587021874537
 20
347.430311303235
 10
401.0064491475836
 20
345.922546995854
 10
401.2024160312769
 20
344.5230635207595
 10
401.4410951049196
 20
343.2634742000949
 10
401.7145125830686
 20
342.1748251018664
 10
402.0102874626308
 20
341.2887984458421
 10
402.3061223937243
 20
340.6402412572337
 10
402.5538539873102
 20
340.2684734966133
 10
402.6474582544627
 20
340.1864393575813
  0
LWPOLYLINE
  5
23FD
330
1A
100
AcDbEntity
  8
SEIHIN
100
AcDbPolyline
 90
       11
 70
   128
 43
0.0
 10
398.9213986813349
 20
347.430311303235
 10
398.9213986813349
 20
347.430311303235
 10
398.9213986813349
 20
347.430311303235
 10
399.0691456414649
 20
345.922546995854
 10
399.2651125251581
 20
344.5230635207595
 10
399.5037915988009
 20
343.2634742000949
 10
399.7772090769499
 20
342.1748251018664
 10
400.0729839565122
 20
341.2887984458421
 10
400.3688188876055
 20
340.6402412572337
 10
400.3688188876055
 20
340.6402412572337
 10
400.2209014220588
 20
340.9645198515379
  0
LINE
  5
240A
330
1A
100
AcDbEntity
  8
SEIHIN
100
AcDbLine
 10
408.8649914335653
 20
347.1016391374955
 30
0.0
 11
408.90587766669
 21
348.604548163287
 31
0.0
  0
LINE
  5
240B
330
1A
100
AcDbEntity
  8
SEIHIN
100
AcDbLine
 10
408.770420253463
 20
345.666469483068
 30
0.0
 11
408.8649914335653
 21
347.1016391374955
 31
0.0
  0
LINE
  5
240C
330
1A
100
AcDbEntity
  8
SEIHIN
100
AcDbLine
 10
408.2475152896088
 20
347.277151035218
 30
0.0
 11
408.2344411941087
 21
345.933907208418
 31
0.0
  0
LINE
  5
240D
330
1A
100
AcDbEntity
  8
SEIHIN
100
AcDbLine
 10
408.2054232672087
 20
348.610226528018
 30
0.0
 11
408.2475152896088
 21
347.277151035218
 31
0.0
  0
LINE
  5
240E
330
1A
100
AcDbEntity
  8
SEIHIN
100
AcDbLine
 10
408.4320705653111
 20
343.0840182828394
 30
0.0
 11
408.624496937213
 21
344.3151251830094
 31
0.0
  0
LINE
  5
240F
330
1A
100
AcDbEntity
  8
SEIHIN
100
AcDbLine
 10
408.20055332494
 20
342.0088601747713
 30
0.0
 11
408.4320705653111
 21
343.0840182828394
 31
0.0
  0
LINE
  5
2410
330
1A
100
AcDbEntity
  8
SEIHIN
100
AcDbLine
 10
408.8552051739282
 20
340.3583830117179
 30
0.0
 11
409.0150326788282
 21
340.751217321218
 31
0.0
  0
LINE
  5
2411
330
1A
100
AcDbEntity
  8
SEIHIN
100
AcDbLine
 10
408.624496937213
 20
344.3151251830094
 30
0.0
 11
408.770420253463
 21
345.666469483068
 31
0.0
  0
LINE
  5
2412
330
1A
100
AcDbEntity
  8
SEIHIN
100
AcDbLine
 10
408.2344411941087
 20
345.933907208418
 30
0.0
 11
408.1665760087087
 21
344.619025767318
 31
0.0
  0
LINE
  5
2413
330
1A
100
AcDbEntity
  8
SEIHIN
100
AcDbLine
 10
406.0002760232289
 20
346.288598620618
 30
0.0
 11
406.0245512705289
 21
347.048853158718
 31
0.0
  0
LINE
  5
2414
330
1A
100
AcDbEntity
  8
SEIHIN
100
AcDbLine
 10
405.9291045993289
 20
345.580154172818
 30
0.0
 11
406.0002760232289
 21
346.288598620618
 31
0.0
  0
LINE
  5
2415
330
1A
100
AcDbEntity
  8
SEIHIN
100
AcDbLine
 10
405.8158872137289
 20
344.971799133818
 30
0.0
 11
405.9291045993289
 21
345.580154172818
 31
0.0
  0
LINE
  5
2416
330
1A
100
AcDbEntity
  8
SEIHIN
100
AcDbLine
 10
404.6951506360289
 20
345.580154172818
 30
0.0
 11
404.8083680217289
 21
344.971799133818
 31
0.0
  0
LINE
  5
2417
330
1A
100
AcDbEntity
  8
SEIHIN
100
AcDbLine
 10
404.6239792121289
 20
346.288598620618
 30
0.0
 11
404.6951506360289
 21
345.580154172818
 31
0.0
  0
LINE
  5
2418
330
1A
100
AcDbEntity
  8
SEIHIN
100
AcDbLine
 10
404.5997039648288
 20
347.048853158718
 30
0.0
 11
404.6239792121289
 21
346.288598620618
 31
0.0
  0
LINE
  5
2419
330
1A
100
AcDbEntity
  8
SEIHIN
100
AcDbLine
 10
404.6239792121289
 20
347.8091076968181
 30
0.0
 11
404.5997039648288
 21
347.048853158718
 31
0.0
  0
LINE
  5
241A
330
1A
100
AcDbEntity
  8
SEIHIN
100
AcDbLine
 10
404.6951506360289
 20
348.517552144618
 30
0.0
 11
404.6239792121289
 21
347.8091076968181
 31
0.0
  0
LINE
  5
241B
330
1A
100
AcDbEntity
  8
SEIHIN
100
AcDbLine
 10
404.8083680217289
 20
349.125907183618
 30
0.0
 11
404.6951506360289
 21
348.517552144618
 31
0.0
  0
LINE
  5
241C
330
1A
100
AcDbEntity
  8
SEIHIN
100
AcDbLine
 10
404.9559157912288
 20
349.592714423218
 30
0.0
 11
404.8083680217289
 21
349.125907183618
 31
0.0
  0
LINE
  5
241D
330
1A
100
AcDbEntity
  8
SEIHIN
100
AcDbLine
 10
405.1277388081291
 20
349.8861617217181
 30
0.0
 11
404.9559157912288
 21
349.592714423218
 31
0.0
  0
LINE
  5
241E
330
1A
100
AcDbEntity
  8
SEIHIN
100
AcDbLine
 10
405.3121276177291
 20
349.9862511304181
 30
0.0
 11
405.1277388081291
 21
349.8861617217181
 31
0.0
  0
LINE
  5
241F
330
1A
100
AcDbEntity
  8
SEIHIN
100
AcDbLine
 10
405.4965164272291
 20
349.8861617217181
 30
0.0
 11
405.3121276177291
 21
349.9862511304181
 31
0.0
  0
LINE
  5
2420
330
1A
100
AcDbEntity
  8
SEIHIN
100
AcDbLine
 10
405.668339444129
 20
349.592714423218
 30
0.0
 11
405.4965164272291
 21
349.8861617217181
 31
0.0
  0
LINE
  5
2421
330
1A
100
AcDbEntity
  8
SEIHIN
100
AcDbLine
 10
405.8158872137289
 20
349.125907183618
 30
0.0
 11
405.668339444129
 21
349.592714423218
 31
0.0
  0
LINE
  5
2422
330
1A
100
AcDbEntity
  8
SEIHIN
100
AcDbLine
 10
405.9291045993289
 20
348.517552144618
 30
0.0
 11
405.8158872137289
 21
349.125907183618
 31
0.0
  0
LINE
  5
2423
330
1A
100
AcDbEntity
  8
SEIHIN
100
AcDbLine
 10
406.0002760232289
 20
347.8091076968181
 30
0.0
 11
405.9291045993289
 21
348.517552144618
 31
0.0
  0
LINE
  5
2424
330
1A
100
AcDbEntity
  8
SEIHIN
100
AcDbLine
 10
406.0245512705289
 20
347.048853158718
 30
0.0
 11
406.0002760232289
 21
347.8091076968181
 31
0.0
  0
LINE
  5
2425
330
1A
100
AcDbEntity
  8
SEIHIN
100
AcDbLine
 10
405.4965164272291
 20
344.211544595718
 30
0.0
 11
405.668339444129
 21
344.504991894118
 31
0.0
  0
LINE
  5
2426
330
1A
100
AcDbEntity
  8
SEIHIN
100
AcDbLine
 10
405.3121276177291
 20
344.111455187018
 30
0.0
 11
405.4965164272291
 21
344.211544595718
 31
0.0
  0
LINE
  5
2427
330
1A
100
AcDbEntity
  8
SEIHIN
100
AcDbLine
 10
405.1277388081291
 20
344.211544595718
 30
0.0
 11
405.3121276177291
 21
344.111455187018
 31
0.0
  0
LINE
  5
2428
330
1A
100
AcDbEntity
  8
SEIHIN
100
AcDbLine
 10
404.9559157912288
 20
344.504991894118
 30
0.0
 11
405.1277388081291
 21
344.211544595718
 31
0.0
  0
LINE
  5
2429
330
1A
100
AcDbEntity
  8
SEIHIN
100
AcDbLine
 10
407.4537090857281
 20
340.1031428966382
 30
0.0
 11
407.6767532376818
 21
340.4746993922797
 31
0.0
  0
LINE
  5
242A
330
1A
100
AcDbEntity
  8
SEIHIN
100
AcDbLine
 10
408.0458664348086
 20
343.370223861418
 30
0.0
 11
407.4537090857281
 21
340.1031428966382
 31
0.0
  0
LINE
  5
242B
330
1A
100
AcDbEntity
  8
SEIHIN
100
AcDbLine
 10
407.3904522771893
 20
340.0419694071729
 30
0.0
 11
407.4537090857281
 21
340.1031428966382
 31
0.0
  0
LINE
  5
242C
330
1A
100
AcDbEntity
  8
SEIHIN
100
AcDbLine
 10
407.2736318006739
 20
340.0049074465686
 30
0.0
 11
407.3904522771893
 21
340.0419694071729
 31
0.0
  0
LINE
  5
242D
330
1A
100
AcDbEntity
  8
SEIHIN
100
AcDbLine
 10
407.6767532376818
 20
340.4746993922797
 30
0.0
 11
407.9416715267136
 21
341.12583258247
 31
0.0
  0
LINE
  5
242E
330
1A
100
AcDbEntity
  8
SEIHIN
100
AcDbLine
 10
405.668339444129
 20
344.504991894118
 30
0.0
 11
405.8158872137289
 21
344.971799133818
 31
0.0
  0
LINE
  5
242F
330
1A
100
AcDbEntity
  8
SEIHIN
100
AcDbLine
 10
404.8083680217289
 20
344.971799133818
 30
0.0
 11
404.9559157912288
 21
344.504991894118
 31
0.0
  0
LINE
  5
2430
330
1A
100
AcDbEntity
  8
SEIHIN
100
AcDbLine
 10
407.9416715267136
 20
341.12583258247
 30
0.0
 11
408.20055332494
 21
342.0088601747713
 31
0.0
  0
LINE
  5
2431
330
1A
100
AcDbEntity
  8
SEIHIN
100
AcDbLine
 10
408.1665760087087
 20
344.619025767318
 30
0.0
 11
408.0458664348086
 21
343.370223861418
 31
0.0
  0
LINE
  5
2432
330
1A
100
AcDbEntity
  8
SEIHIN
100
AcDbLine
 10
408.1093725292086
 20
349.8948946442181
 30
0.0
 11
408.2054232672087
 21
348.610226528018
 31
0.0
  0
ARC
  5
2433
330
1A
100
AcDbEntity
  8
SEIHIN
100
AcDbCircle
 10
382.3361960533886
 20
360.0150988029695
 30
0.0
 40
5.0
100
AcDbArc
 50
0.0000000000002036
 51
90.0
  0
ARC
  5
2434
330
1A
100
AcDbEntity
  8
SEIHIN
100
AcDbCircle
 10
380.7667043111885
 20
360.0150988029694
 30
0.0
 40
5.0
100
AcDbArc
 50
0.0000000000002036
 51
90.0
  0
LINE
  5
2435
330
1A
100
AcDbEntity
  8
SEIHIN
100
AcDbLine
 10
408.6257625077567
 20
361.6752480551129
 30
0.0
 11
408.968219810293
 21
362.8433458105419
 31
0.0
  0
LWPOLYLINE
  5
2436
330
1A
100
AcDbEntity
  8
SEIHIN
100
AcDbPolyline
 90
        9
 70
   128
 43
0.0
 10
401.361219469861
 20
364.048853158718
 10
401.216157990161
 20
363.9886272726181
 10
401.0769208145608
 20
363.810367719118
 10
400.949098397861
 20
363.5212317246181
 10
400.8378228857609
 20
363.1328282701181
 10
400.747562055661
 20
362.6607519837181
 10
400.6819399332609
 20
362.1239570073181
 10
400.6435912855608
 20
361.5439959763181
 10
400.6340558333609
 20
360.9441546686181
  0
LWPOLYLINE
  5
2441
330
1A
100
AcDbEntity
  8
SEIHIN
100
AcDbPolyline
 90
        6
 70
   128
 43
0.0
 10
401.3743869467727
 20
364.048853158718
 10
401.4626218330672
 20
363.7408722382312
 10
401.5528826631673
 20
363.2687959518312
 10
401.6185047855672
 20
362.7320009754313
 10
401.6568534332673
 20
362.1520399444312
 10
401.6663888854672
 20
361.5521986367312
  0
LWPOLYLINE
  5
2449
330
1A
100
AcDbEntity
  8
SEIHIN
100
AcDbPolyline
 90
        9
 70
   128
 43
0.0
 10
402.0841310708537
 20
364.048853158718
 10
402.2291925505538
 20
363.9886272726181
 10
402.3684297261538
 20
363.810367719118
 10
402.4962521428538
 20
363.5212317246181
 10
402.6075276549538
 20
363.1328282701181
 10
402.6977884850539
 20
362.6607519837181
 10
402.7634106074538
 20
362.1239570073181
 10
402.8017592551536
 20
361.5439959763181
 10
402.8112947073537
 20
360.9441546686181
  0
LINE
  5
2454
330
1A
100
AcDbEntity
  8
SEIHIN
100
AcDbLine
 10
404.7271618678398
 20
362.660751983718
 30
0.0
 11
404.6615397454395
 21
362.1239570073181
 31
0.0
  0
LINE
  5
2455
330
1A
100
AcDbEntity
  8
SEIHIN
100
AcDbLine
 10
408.3475726048902
 20
360.38334370687
 30
0.0
 11
408.6257625077567
 21
361.6752480551129
 31
0.0
  0
LINE
  5
2456
330
1A
100
AcDbEntity
  8
SEIHIN
100
AcDbLine
 10
404.6231910977396
 20
361.543995976318
 30
0.0
 11
404.5997039648288
 21
360.0665041674574
 31
0.0
  0
LINE
  5
2457
330
1A
100
AcDbEntity
  8
SEIHIN
100
AcDbLine
 10
404.6615397454395
 20
362.1239570073181
 30
0.0
 11
404.6231910977396
 21
361.543995976318
 31
0.0
  0
LINE
  5
2458
330
1A
100
AcDbEntity
  8
SEIHIN
100
AcDbLine
 10
407.9654036333056
 20
357.4738197540954
 30
0.0
 11
408.1276483017879
 21
358.9763103334143
 31
0.0
  0
LINE
  5
2459
330
1A
100
AcDbEntity
  8
SEIHIN
100
AcDbLine
 10
408.1276483017879
 20
358.9763103334143
 30
0.0
 11
408.3475726048902
 21
360.38334370687
 31
0.0
  0
LINE
  5
245A
330
1A
100
AcDbEntity
  8
SEIHIN
100
AcDbLine
 10
408.9541369670875
 20
354.3025380974125
 30
0.0
 11
408.996215265264
 21
355.8492654292966
 31
0.0
  0
LINE
  5
245B
330
1A
100
AcDbEntity
  8
SEIHIN
100
AcDbLine
 10
407.7678844667087
 20
352.174052412918
 30
0.0
 11
407.9621182746088
 21
351.094304898618
 31
0.0
  0
LINE
  5
245C
330
1A
100
AcDbEntity
  8
SEIHIN
100
AcDbLine
 10
406.649209835509
 20
354.7462228243181
 30
0.0
 11
406.9647663730091
 21
354.407963990618
 31
0.0
  0
LINE
  5
245D
330
1A
100
AcDbEntity
  8
SEIHIN
100
AcDbLine
 10
405.3121276177291
 20
354.9862511304181
 30
0.0
 11
406.649209835509
 21
354.7462228243181
 31
0.0
  0
LINE
  5
245E
330
1A
100
AcDbEntity
  8
SEIHIN
100
AcDbLine
 10
404.5997039648288
 20
354.9862511304181
 30
0.0
 11
405.3121276177291
 21
354.9862511304181
 31
0.0
  0
LINE
  5
245F
330
1A
100
AcDbEntity
  8
SEIHIN
100
AcDbLine
 10
407.8191568872473
 20
354.333414923107
 30
0.0
 11
407.8618312179994
 21
355.9020514080752
 31
0.0
  0
LINE
  5
2460
330
1A
100
AcDbEntity
  8
SEIHIN
100
AcDbLine
 10
407.5322426689088
 20
353.1031648143181
 30
0.0
 11
407.7678844667087
 21
352.174052412918
 31
0.0
  0
LINE
  5
2461
330
1A
100
AcDbEntity
  8
SEIHIN
100
AcDbLine
 10
407.2619522259089
 20
353.854990672218
 30
0.0
 11
407.5322426689088
 21
353.1031648143181
 31
0.0
  0
LINE
  5
2462
330
1A
100
AcDbEntity
  8
SEIHIN
100
AcDbLine
 10
406.9647663730091
 20
354.407963990618
 30
0.0
 11
407.2619522259089
 21
353.854990672218
 31
0.0
  0
LINE
  5
2463
330
1A
100
AcDbEntity
  8
SEIHIN
100
AcDbLine
 10
407.8183984881377
 20
354.2908931921528
 30
0.0
 11
407.7990046343672
 21
352.0010551163238
 31
0.0
  0
LINE
  5
2464
330
1A
100
AcDbEntity
  8
SEIHIN
100
AcDbLine
 10
404.5997039648288
 20
354.9862511304181
 30
0.0
 11
404.5997039648288
 21
360.0665041674565
 31
0.0
  0
LINE
  5
2465
330
1A
100
AcDbEntity
  8
SEIHIN
100
AcDbLine
 10
408.996215265264
 20
355.8492654292966
 30
0.0
 11
409.0967872688668
 21
357.3755008781067
 31
0.0
  0
LINE
  5
2466
330
1A
100
AcDbEntity
  8
SEIHIN
100
AcDbLine
 10
407.8618312179994
 20
355.9020514080752
 30
0.0
 11
407.9654036333056
 21
357.4738197540954
 31
0.0
  0
LWPOLYLINE
  5
2467
330
1A
100
AcDbEntity
  8
SEIHIN
100
AcDbPolyline
 90
        9
 70
   128
 43
0.0
 10
401.4017182144718
 20
367.0488531587177
 10
401.2566567347719
 20
367.1090790448177
 10
401.1174195591718
 20
367.2873385983177
 10
400.9895971424718
 20
367.5764745928177
 10
400.8783216303718
 20
367.9648780473177
 10
400.7880608002717
 20
368.4369543337177
 10
400.7224386778719
 20
368.9737493101176
 10
400.6840900301719
 20
369.5537103411177
 10
400.674554577972
 20
370.1535516488177
  0
LINE
  5
2472
330
1A
100
AcDbEntity
  8
SEIHIN
100
AcDbLine
 10
400.6466847148078
 20
373.4441546686178
 30
0.0
 11
400.674554577972
 21
370.1535516488179
 31
0.0
  0
LINE
  5
2473
330
1A
100
AcDbEntity
  8
SEIHIN
100
AcDbLine
 10
401.6885235888005
 20
373.4441546686178
 30
0.0
 11
401.6885235888005
 21
370.1535516488177
 31
0.0
  0
LINE
  5
2474
330
1A
100
AcDbEntity
  8
SEIHIN
100
AcDbLine
 10
402.8239235888007
 20
373.4441546686178
 30
0.0
 11
402.8239235888007
 21
370.1535516488177
 31
0.0
  0
LINE
  5
2475
330
1A
100
AcDbEntity
  8
SEIHIN
100
AcDbLine
 10
404.6262845269864
 20
373.4441546686179
 30
0.0
 11
404.6541543901505
 21
370.1535516488179
 31
0.0
  0
LINE
  5
2476
330
1A
100
AcDbEntity
  8
SEIHIN
100
AcDbLine
 10
404.9286982100396
 20
363.521231724618
 30
0.0
 11
404.8174226979397
 21
363.132828270118
 31
0.0
  0
LINE
  5
2477
330
1A
100
AcDbEntity
  8
SEIHIN
100
AcDbLine
 10
404.8174226979397
 20
363.132828270118
 30
0.0
 11
404.7271618678398
 21
362.660751983718
 31
0.0
  0
LINE
  5
2478
330
1A
100
AcDbEntity
  8
SEIHIN
100
AcDbLine
 10
402.0841310708537
 20
364.0488531587181
 30
0.0
 11
401.361219469861
 21
364.048853158718
 31
0.0
  0
LINE
  5
2479
330
1A
100
AcDbEntity
  8
SEIHIN
100
AcDbLine
 10
402.0967599523007
 20
367.0488531587178
 30
0.0
 11
401.3738483513074
 21
367.0488531587178
 31
0.0
  0
LINE
  5
247A
330
1A
100
AcDbEntity
  8
SEIHIN
100
AcDbLine
 10
405.0565206267399
 20
363.810367719118
 30
0.0
 11
404.9286982100396
 21
363.521231724618
 31
0.0
  0
LINE
  5
247B
330
1A
100
AcDbEntity
  8
SEIHIN
100
AcDbLine
 10
405.1957578023396
 20
363.988627272618
 30
0.0
 11
405.0565206267399
 21
363.810367719118
 31
0.0
  0
LINE
  5
247C
330
1A
100
AcDbEntity
  8
SEIHIN
100
AcDbLine
 10
405.3408192820395
 20
364.048853158718
 30
0.0
 11
405.1957578023396
 21
363.988627272618
 31
0.0
  0
LWPOLYLINE
  5
247D
330
1A
100
AcDbEntity
  8
SEIHIN
100
AcDbPolyline
 90
        8
 70
   128
 43
0.0
 10
401.1815390833862
 20
367.2052490435143
 10
401.2456586076004
 20
367.2873385983177
 10
401.3734810243006
 20
367.5764745928177
 10
401.4847565364004
 20
367.9648780473177
 10
401.5750173665005
 20
368.4369543337177
 10
401.6406394889006
 20
368.9737493101176
 10
401.6789881366005
 20
369.5537103411177
 10
401.6885235888005
 20
370.1535516488177
  0
LWPOLYLINE
  5
2487
330
1A
100
AcDbEntity
  8
SEIHIN
100
AcDbPolyline
 90
        9
 70
   128
 43
0.0
 10
402.0967599523005
 20
367.0488531587177
 10
402.2418214320005
 20
367.1090790448177
 10
402.3810586076006
 20
367.2873385983177
 10
402.5088810243005
 20
367.5764745928177
 10
402.6201565364005
 20
367.9648780473177
 10
402.7104173665004
 20
368.4369543337177
 10
402.7760394889005
 20
368.9737493101176
 10
402.8143881366006
 20
369.5537103411177
 10
402.8239235888007
 20
370.1535516488177
  0
LWPOLYLINE
  5
2492
330
1A
100
AcDbEntity
  8
SEIHIN
100
AcDbPolyline
 90
        9
 70
   128
 43
0.0
 10
405.3813180266509
 20
367.0488531587178
 10
405.2362565469504
 20
367.1090790448177
 10
405.0970193713508
 20
367.2873385983178
 10
404.9691969546509
 20
367.5764745928177
 10
404.8579214425505
 20
367.9648780473177
 10
404.7676606124507
 20
368.4369543337177
 10
404.7020384900508
 20
368.9737493101177
 10
404.6636898423505
 20
369.5537103411177
 10
404.6541543901505
 20
370.1535516488177
  0
LINE
  5
249D
330
1A
100
AcDbEntity
  8
CENTER_L
 48
3.0
100
AcDbLine
 10
405.3569920263996
 20
421.9017120012559
 30
0.0
 11
405.3569920263996
 21
400.1284856046833
 31
0.0
  0
ARC
  5
249E
330
1A
100
AcDbEntity
  8
SEIHIN
100
AcDbCircle
 10
380.7667043111885
 20
398.0826075144664
 30
0.0
 40
5.0
100
AcDbArc
 50
270.0
 51
359.9999999999997
  0
ARC
  5
249F
330
1A
100
AcDbEntity
  8
SEIHIN
100
AcDbCircle
 10
382.3361960533886
 20
398.0826075144664
 30
0.0
 40
5.0
100
AcDbArc
 50
270.0
 51
359.9999999999997
  0
LINE
  5
24A0
330
1A
100
AcDbEntity
  8
SEIHIN
100
AcDbLine
 10
408.3475726048907
 20
397.7143626105665
 30
0.0
 11
408.6257625077571
 21
396.4224582623237
 31
0.0
  0
LWPOLYLINE
  5
24A1
330
1A
100
AcDbEntity
  8
SEIHIN
100
AcDbPolyline
 90
        9
 70
   128
 43
0.0
 10
401.3612194698612
 20
394.0488531587186
 10
401.2161579901612
 20
394.1090790448185
 10
401.0769208145614
 20
394.2873385983186
 10
400.9490983978614
 20
394.5764745928186
 10
400.8378228857611
 20
394.9648780473186
 10
400.7475620556613
 20
395.4369543337186
 10
400.6819399332614
 20
395.9737493101186
 10
400.6435912855611
 20
396.5537103411186
 10
400.6340558333613
 20
397.1535516488186
  0
LWPOLYLINE
  5
24AC
330
1A
100
AcDbEntity
  8
SEIHIN
100
AcDbPolyline
 90
        9
 70
   128
 43
0.0
 10
402.084131070854
 20
394.0488531587186
 10
402.2291925505539
 20
394.1090790448185
 10
402.368429726154
 20
394.2873385983186
 10
402.4962521428539
 20
394.5764745928186
 10
402.6075276549542
 20
394.9648780473186
 10
402.6977884850541
 20
395.4369543337185
 10
402.763410607454
 20
395.9737493101185
 10
402.8017592551539
 20
396.5537103411185
 10
402.8112947073541
 20
397.1535516488185
  0
LINE
  5
24B7
330
1A
100
AcDbEntity
  8
SEIHIN
100
AcDbLine
 10
404.6231910977401
 20
396.5537103411186
 30
0.0
 11
404.5997039648293
 21
398.0312021499792
 31
0.0
  0
LINE
  5
24B8
330
1A
100
AcDbEntity
  8
SEIHIN
100
AcDbLine
 10
395.1682982958998
 20
411.0488531587179
 30
0.0
 11
395.1682982958991
 21
379.0488531587179
 31
0.0
  0
LINE
  5
24B9
330
1A
100
AcDbEntity
  8
SEIHIN
100
AcDbLine
 10
398.9587780522315
 20
411.0488531587186
 30
0.0
 11
398.9587780522308
 21
379.0488531587187
 31
0.0
  0
LINE
  5
24BA
330
1A
100
AcDbEntity
  8
SEIHIN
100
AcDbLine
 10
402.8017592551539
 20
396.5537103411185
 30
0.0
 11
402.6474582544635
 21
417.9112669598553
 31
0.0
  0
LINE
  5
24BB
330
1A
100
AcDbEntity
  8
SEIHIN
100
AcDbLine
 10
401.6663888854675
 20
396.5455076807054
 30
0.0
 11
401.5316541249401
 21
415.1948052458352
 31
0.0
  0
LINE
  5
24BC
330
1A
100
AcDbEntity
  8
SEIHIN
100
AcDbLine
 10
400.6466847148078
 20
384.6535516488188
 30
0.0
 11
400.6745545779722
 21
387.9441546686188
 31
0.0
  0
LINE
  5
24BD
330
1A
100
AcDbEntity
  8
SEIHIN
100
AcDbLine
 10
401.6885235888005
 20
384.6535516488188
 30
0.0
 11
401.6885235888008
 21
387.944154668619
 31
0.0
  0
LINE
  5
24BE
330
1A
100
AcDbEntity
  8
SEIHIN
100
AcDbLine
 10
402.8239235888007
 20
384.6535516488188
 30
0.0
 11
402.8239235888008
 21
387.9441546686189
 31
0.0
  0
LINE
  5
24BF
330
1A
100
AcDbEntity
  8
SEIHIN
100
AcDbLine
 10
404.6262845269868
 20
384.6535516488187
 30
0.0
 11
404.6541543901509
 21
387.9441546686187
 31
0.0
  0
LWPOLYLINE
  5
24C0
330
1A
100
AcDbEntity
  8
SEIHIN
100
AcDbPolyline
 90
        9
 70
   128
 43
0.0
 10
401.3738483513077
 20
381.5488531587188
 10
401.2287868716077
 20
381.6090790448188
 10
401.0895496960077
 20
381.7873385983189
 10
400.9617272793077
 20
382.0764745928188
 10
400.8504517672077
 20
382.4648780473188
 10
400.7601909371076
 20
382.9369543337188
 10
400.6945688147077
 20
383.4737493101188
 10
400.6562201670078
 20
384.0537103411188
 10
400.6466847148078
 20
384.6535516488188
  0
LINE
  5
24CB
330
1A
100
AcDbEntity
  8
SEIHIN
100
AcDbLine
 10
402.0967599523005
 20
381.5488531587188
 30
0.0
 11
401.3738483513077
 21
381.5488531587188
 31
0.0
  0
LWPOLYLINE
  5
24CC
330
1A
100
AcDbEntity
  8
SEIHIN
100
AcDbPolyline
 90
        8
 70
   128
 43
0.0
 10
401.1676041518041
 20
381.6874087313203
 10
401.2456586076004
 20
381.7873385983189
 10
401.3734810243006
 20
382.0764745928188
 10
401.4847565364004
 20
382.4648780473188
 10
401.5750173665005
 20
382.9369543337188
 10
401.6406394889006
 20
383.4737493101188
 10
401.6789881366005
 20
384.0537103411188
 10
401.6885235888005
 20
384.6535516488188
  0
LWPOLYLINE
  5
24D6
330
1A
100
AcDbEntity
  8
SEIHIN
100
AcDbPolyline
 90
        9
 70
   128
 43
0.0
 10
402.0967599523005
 20
381.5488531587188
 10
402.2418214320005
 20
381.6090790448188
 10
402.3810586076006
 20
381.7873385983189
 10
402.5088810243005
 20
382.0764745928188
 10
402.6201565364005
 20
382.4648780473188
 10
402.7104173665004
 20
382.9369543337188
 10
402.7760394889005
 20
383.4737493101187
 10
402.8143881366006
 20
384.0537103411188
 10
402.8239235888007
 20
384.6535516488188
  0
LWPOLYLINE
  5
24E1
330
1A
100
AcDbEntity
  8
SEIHIN
100
AcDbPolyline
 90
        9
 70
   128
 43
0.0
 10
405.3534481634867
 20
381.5488531587187
 10
405.2083866837863
 20
381.6090790448187
 10
405.0691495081866
 20
381.7873385983188
 10
404.9413270914867
 20
382.0764745928187
 10
404.8300515793864
 20
382.4648780473187
 10
404.7397907492865
 20
382.9369543337187
 10
404.6741686268867
 20
383.4737493101187
 10
404.6358199791868
 20
384.0537103411187
 10
404.6262845269868
 20
384.6535516488187
  0
LINE
  5
24EC
330
1A
100
AcDbEntity
  8
SEIHIN
100
AcDbLine
 10
402.0967599523005
 20
376.5488531587179
 30
0.0
 11
401.3738483513077
 21
376.5488531587178
 31
0.0
  0
LWPOLYLINE
  5
24ED
330
1A
100
AcDbEntity
  8
SEIHIN
100
AcDbPolyline
 90
        9
 70
   128
 43
0.0
 10
401.4017182144721
 20
391.048853158719
 10
401.2566567347721
 20
390.988627272619
 10
401.117419559172
 20
390.8103677191189
 10
400.9895971424721
 20
390.521231724619
 10
400.878321630372
 20
390.132828270119
 10
400.788060800272
 20
389.660751983719
 10
400.722438677872
 20
389.123957007319
 10
400.6840900301722
 20
388.543995976319
 10
400.6745545779722
 20
387.944154668619
  0
LINE
  5
24F8
330
1A
100
AcDbEntity
  8
SEIHIN
100
AcDbLine
 10
408.6257625077571
 20
396.4224582623237
 30
0.0
 11
408.9682198102934
 21
395.2543605068947
 31
0.0
  0
LINE
  5
24F9
330
1A
100
AcDbEntity
  8
SEIHIN
100
AcDbLine
 10
402.084131070854
 20
394.0488531587186
 30
0.0
 11
401.3612194698612
 21
394.0488531587186
 31
0.0
  0
LWPOLYLINE
  5
24FA
330
1A
100
AcDbEntity
  8
SEIHIN
100
AcDbPolyline
 90
        6
 70
   128
 43
0.0
 10
401.374386946773
 20
394.0488531587186
 10
401.4626218330675
 20
394.3568340792054
 10
401.5528826631678
 20
394.8289103656055
 10
401.6185047855676
 20
395.3657053420054
 10
401.6568534332675
 20
395.9456663730055
 10
401.6663888854675
 20
396.5455076807054
  0
LINE
  5
2502
330
1A
100
AcDbEntity
  8
SEIHIN
100
AcDbLine
 10
404.66153974544
 20
395.9737493101186
 30
0.0
 11
404.6231910977401
 21
396.5537103411186
 31
0.0
  0
LINE
  5
2503
330
1A
100
AcDbEntity
  8
SEIHIN
100
AcDbLine
 10
404.7271618678403
 20
395.4369543337186
 30
0.0
 11
404.66153974544
 21
395.9737493101186
 31
0.0
  0
LINE
  5
2504
330
1A
100
AcDbEntity
  8
SEIHIN
100
AcDbLine
 10
404.8174226979401
 20
394.9648780473186
 30
0.0
 11
404.7271618678403
 21
395.4369543337186
 31
0.0
  0
LINE
  5
2505
330
1A
100
AcDbEntity
  8
SEIHIN
100
AcDbLine
 10
404.92869821004
 20
394.5764745928186
 30
0.0
 11
404.8174226979401
 21
394.9648780473186
 31
0.0
  0
LINE
  5
2506
330
1A
100
AcDbEntity
  8
SEIHIN
100
AcDbLine
 10
405.0565206267403
 20
394.2873385983186
 30
0.0
 11
404.92869821004
 21
394.5764745928186
 31
0.0
  0
LINE
  5
2507
330
1A
100
AcDbEntity
  8
SEIHIN
100
AcDbLine
 10
405.19575780234
 20
394.1090790448185
 30
0.0
 11
405.0565206267403
 21
394.2873385983186
 31
0.0
  0
LINE
  5
2508
330
1A
100
AcDbEntity
  8
SEIHIN
100
AcDbLine
 10
405.3408192820399
 20
394.0488531587186
 30
0.0
 11
405.19575780234
 21
394.1090790448185
 31
0.0
  0
LINE
  5
2509
330
1A
100
AcDbEntity
  8
SEIHIN
100
AcDbLine
 10
402.0967599523009
 20
391.0488531587188
 30
0.0
 11
401.3738483513077
 21
391.0488531587188
 31
0.0
  0
LWPOLYLINE
  5
250A
330
1A
100
AcDbEntity
  8
SEIHIN
100
AcDbPolyline
 90
        8
 70
   128
 43
0.0
 10
401.1815390833865
 20
390.8924572739223
 10
401.2456586076007
 20
390.8103677191189
 10
401.3734810243009
 20
390.521231724619
 10
401.4847565364006
 20
390.132828270119
 10
401.5750173665008
 20
389.660751983719
 10
401.6406394889008
 20
389.123957007319
 10
401.6789881366007
 20
388.543995976319
 10
401.6885235888008
 20
387.944154668619
  0
LWPOLYLINE
  5
2514
330
1A
100
AcDbEntity
  8
SEIHIN
100
AcDbPolyline
 90
        9
 70
   128
 43
0.0
 10
402.0967599523007
 20
391.048853158719
 10
402.2418214320007
 20
390.988627272619
 10
402.3810586076008
 20
390.8103677191189
 10
402.5088810243008
 20
390.521231724619
 10
402.6201565364008
 20
390.132828270119
 10
402.7104173665007
 20
389.6607519837189
 10
402.7760394889007
 20
389.123957007319
 10
402.8143881366008
 20
388.5439959763189
 10
402.8239235888008
 20
387.9441546686189
  0
LWPOLYLINE
  5
251F
330
1A
100
AcDbEntity
  8
SEIHIN
100
AcDbPolyline
 90
        9
 70
   128
 43
0.0
 10
405.3813180266509
 20
391.0488531587188
 10
405.2362565469509
 20
390.9886272726189
 10
405.0970193713508
 20
390.8103677191188
 10
404.9691969546509
 20
390.5212317246189
 10
404.857921442551
 20
390.1328282701189
 10
404.7676606124507
 20
389.6607519837189
 10
404.7020384900508
 20
389.1239570073189
 10
404.663689842351
 20
388.5439959763189
 10
404.6541543901509
 20
387.9441546686189
  0
ARC
  5
252A
330
1A
100
AcDbEntity
  8
SEIHIN
100
AcDbCircle
 10
393.7688685887703
 20
410.4223244806616
 30
0.0
 40
8.662986939268673
100
AcDbArc
 50
86.73945394650942
 51
125.4441166298621
  0
ARC
  5
252B
330
1A
100
AcDbEntity
  8
SEIHIN
100
AcDbCircle
 10
391.806500709921
 20
412.7001912666393
 30
0.0
 40
6.679868790919538
100
AcDbArc
 50
72.91599934994059
 51
134.3125866126852
  0
LINE
  5
252C
330
1A
100
AcDbEntity
  8
SEIHIN
100
AcDbLine
 10
385.7667043111885
 20
411.44496619101
 30
0.0
 11
385.7667043111885
 21
398.0826075144664
 31
0.0
  0
LINE
  5
252D
330
1A
100
AcDbEntity
  8
SEIHIN
100
AcDbLine
 10
387.5434378706097
 20
412.8973358380448
 30
0.0
 11
387.3361960533886
 21
398.0826075144664
 31
0.0
  0
LWPOLYLINE
  5
252E
330
1A
100
AcDbEntity
  8
SEIHIN
100
AcDbPolyline
 90
       11
 70
   128
 43
0.0
 10
385.6927079267893
 20
410.6898297931166
 10
385.6927079267893
 20
410.6898297931166
 10
385.6927079267893
 20
410.6898297931166
 10
385.8404548869193
 20
412.1975941004975
 10
386.0364217706126
 20
413.597077575592
 10
386.2751008442553
 20
414.8566668962565
 10
386.5485183224043
 20
415.9453159944851
 10
386.8442932019665
 20
416.8313426505094
 10
387.1401281330599
 20
417.4798998391177
 10
387.1401281330599
 20
417.4798998391177
 10
386.9922106675133
 20
417.1556212448136
  0
LWPOLYLINE
  5
253B
330
1A
100
AcDbEntity
  8
SEIHIN
100
AcDbPolyline
 90
       11
 70
   128
 43
0.0
 10
387.5434378706097
 20
412.8973358380448
 10
387.5434378706097
 20
412.8973358380448
 10
387.5434378706097
 20
412.8973358380448
 10
387.445454428763
 20
412.1975941004975
 10
387.6414213124562
 20
413.597077575592
 10
387.8801003860989
 20
414.8566668962565
 10
388.1535178642479
 20
415.9453159944851
 10
388.4492927438104
 20
416.8313426505094
 10
388.7451276749038
 20
417.4798998391177
 10
388.7451276749038
 20
417.4798998391177
 10
388.5972102093569
 20
417.1556212448136
  0
LINE
  5
2548
330
1A
100
AcDbEntity
  8
SEIHIN
100
AcDbLine
 10
408.9537577675335
 20
403.8164290855012
 30
0.0
 11
408.9054984671336
 21
409.5144190197012
 31
0.0
  0
LINE
  5
2549
330
1A
100
AcDbEntity
  8
SEIHIN
100
AcDbLine
 10
404.9559157912296
 20
408.5049918942186
 30
0.0
 11
404.8083680217298
 21
408.9717991338186
 31
0.0
  0
LINE
  5
254A
330
1A
100
AcDbEntity
  8
SEIHIN
100
AcDbLine
 10
405.8158872137298
 20
408.9717991338186
 30
0.0
 11
405.6683394441299
 21
408.5049918942186
 31
0.0
  0
LWPOLYLINE
  5
254B
330
1A
100
AcDbEntity
  8
SEIHIN
100
AcDbPolyline
 90
       11
 70
   128
 43
0.0
 10
400.7210078743737
 20
407.4387134450285
 10
400.7629457455156
 20
409.0838828534916
 10
400.8587021874543
 20
410.6673950142017
 10
401.0064491475843
 20
412.1751593215827
 10
401.2024160312775
 20
413.5746427966772
 10
401.4410951049203
 20
414.8342321173418
 10
401.7145125830695
 20
415.9228812155703
 10
402.0102874626315
 20
416.8089078715946
 10
402.306122393725
 20
417.4574650602029
 10
402.5538539873111
 20
417.8292328208233
 10
402.6474582544635
 20
417.9112669598553
  0
LINE
  5
2558
330
1A
100
AcDbEntity
  8
SEIHIN
100
AcDbLine
 10
408.1093725292096
 20
408.2028116732185
 30
0.0
 11
408.2054232672096
 21
409.4874797894185
 31
0.0
  0
LINE
  5
2559
330
1A
100
AcDbEntity
  8
SEIHIN
100
AcDbLine
 10
400.7213358755641
 20
407.4580311588904
 30
0.0
 11
400.6340597067248
 21
397.1533079893359
 31
0.0
  0
LINE
  5
255A
330
1A
100
AcDbEntity
  8
SEIHIN
100
AcDbLine
 10
406.6492098355094
 20
403.3514834931184
 30
0.0
 11
406.9647663730095
 21
403.6897423268185
 31
0.0
  0
LINE
  5
255B
330
1A
100
AcDbEntity
  8
SEIHIN
100
AcDbLine
 10
405.1277388081295
 20
408.2115445957185
 30
0.0
 11
404.9559157912296
 21
408.5049918942186
 31
0.0
  0
LINE
  5
255C
330
1A
100
AcDbEntity
  8
SEIHIN
100
AcDbLine
 10
405.3121276177296
 20
408.1114551870185
 30
0.0
 11
405.1277388081295
 21
408.2115445957185
 31
0.0
  0
LINE
  5
255D
330
1A
100
AcDbEntity
  8
SEIHIN
100
AcDbLine
 10
405.4965164272296
 20
408.2115445957185
 30
0.0
 11
405.3121276177296
 21
408.1114551870185
 31
0.0
  0
LINE
  5
255E
330
1A
100
AcDbEntity
  8
SEIHIN
100
AcDbLine
 10
405.6683394441299
 20
408.5049918942186
 30
0.0
 11
405.4965164272296
 21
408.2115445957185
 31
0.0
  0
LINE
  5
255F
330
1A
100
AcDbEntity
  8
SEIHIN
100
AcDbLine
 10
405.3121276177296
 20
403.1114551870185
 30
0.0
 11
406.6492098355094
 21
403.3514834931184
 31
0.0
  0
LINE
  5
2560
330
1A
100
AcDbEntity
  8
SEIHIN
100
AcDbLine
 10
404.5997039648293
 20
403.1114551870185
 30
0.0
 11
405.3121276177296
 21
403.1114551870185
 31
0.0
  0
LINE
  5
2561
330
1A
100
AcDbEntity
  8
SEIHIN
100
AcDbLine
 10
407.9621182746093
 20
407.0034014188186
 30
0.0
 11
408.1093725292096
 21
408.2028116732185
 31
0.0
  0
LINE
  5
2562
330
1A
100
AcDbEntity
  8
SEIHIN
100
AcDbLine
 10
407.7678844667095
 20
405.9236539045185
 30
0.0
 11
407.9621182746093
 21
407.0034014188186
 31
0.0
  0
LINE
  5
2563
330
1A
100
AcDbEntity
  8
SEIHIN
100
AcDbLine
 10
407.5322426689092
 20
404.9945415031185
 30
0.0
 11
407.7678844667095
 21
405.9236539045185
 31
0.0
  0
LINE
  5
2564
330
1A
100
AcDbEntity
  8
SEIHIN
100
AcDbLine
 10
407.2619522259094
 20
404.2427156452186
 30
0.0
 11
407.5322426689092
 21
404.9945415031185
 31
0.0
  0
LINE
  5
2565
330
1A
100
AcDbEntity
  8
SEIHIN
100
AcDbLine
 10
406.9647663730095
 20
403.6897423268185
 30
0.0
 11
407.2619522259094
 21
404.2427156452186
 31
0.0
  0
LINE
  5
2566
330
1A
100
AcDbEntity
  8
SEIHIN
100
AcDbLine
 10
407.8183984881381
 20
403.8068131252838
 30
0.0
 11
407.7990046343677
 21
406.0966512011127
 31
0.0
  0
LINE
  5
2567
330
1A
100
AcDbEntity
  8
SEIHIN
100
AcDbLine
 10
408.9962152652645
 20
402.2484408881399
 30
0.0
 11
409.0967872688672
 21
400.7222054393298
 31
0.0
  0
LINE
  5
2568
330
1A
100
AcDbEntity
  8
SEIHIN
100
AcDbLine
 10
407.965403633306
 20
400.6238865633411
 30
0.0
 11
408.1276483017884
 21
399.1213959840223
 31
0.0
  0
LINE
  5
2569
330
1A
100
AcDbEntity
  8
SEIHIN
100
AcDbLine
 10
407.8618312179998
 20
402.1956549093614
 30
0.0
 11
407.965403633306
 21
400.6238865633411
 31
0.0
  0
LINE
  5
256A
330
1A
100
AcDbEntity
  8
SEIHIN
100
AcDbLine
 10
408.1276483017884
 20
399.1213959840223
 30
0.0
 11
408.3475726048907
 21
397.7143626105665
 31
0.0
  0
LINE
  5
256B
330
1A
100
AcDbEntity
  8
SEIHIN
100
AcDbLine
 10
408.9541369670881
 20
403.795168220024
 30
0.0
 11
408.9962152652645
 21
402.2484408881399
 31
0.0
  0
LINE
  5
256C
330
1A
100
AcDbEntity
  8
SEIHIN
100
AcDbLine
 10
407.8191568872478
 20
403.7642913943296
 30
0.0
 11
407.8618312179998
 21
402.1956549093614
 31
0.0
  0
LINE
  5
256D
330
1A
100
AcDbEntity
  8
SEIHIN
100
AcDbLine
 10
404.5997039648293
 20
403.1114551870185
 30
0.0
 11
404.5997039648293
 21
398.0312021499801
 31
0.0
  0
ARC
  5
256E
330
1A
100
AcDbEntity
  8
SEIHIN
100
AcDbCircle
 10
404.9164107182207
 20
411.8164892651085
 30
0.0
 40
7.245771137616154
100
AcDbArc
 50
86.51396237616332
 51
128.8747575569604
  0
LINE
  5
256F
330
1A
100
AcDbEntity
  8
SEIHIN
100
AcDbLine
 10
394.2615894325642
 20
419.0712879376333
 30
0.0
 11
405.3569920263996
 21
419.0488531587186
 31
0.0
  0
LWPOLYLINE
  5
2570
330
1A
100
AcDbEntity
  8
SEIHIN
100
AcDbPolyline
 90
       11
 70
   128
 43
0.0
 10
398.9213986813356
 20
410.6673950142018
 10
398.9213986813356
 20
410.6673950142018
 10
398.9213986813356
 20
410.6673950142018
 10
399.0691456414656
 20
412.1751593215828
 10
399.2651125251589
 20
413.5746427966772
 10
399.5037915988016
 20
414.8342321173418
 10
399.7772090769506
 20
415.9228812155704
 10
400.0729839565129
 20
416.8089078715946
 10
400.3688188876062
 20
417.4574650602029
 10
400.3688188876062
 20
417.4574650602029
 10
400.2209014220595
 20
417.1331864658988
  0
LWPOLYLINE
  5
257D
330
1A
100
AcDbEntity
  8
SEIHIN
100
AcDbPolyline
 90
        7
 70
   128
 43
0.0
 10
395.1452193024065
 20
410.9599659690516
 10
395.2990298597274
 20
412.5296095557811
 10
395.5136358372378
 20
414.0622027854233
 10
395.7821868664662
 20
415.4794364092459
 10
396.1049215611501
 20
416.7644487526896
 10
396.487151232427
 20
417.9094603844285
 10
397.0117100589104
 20
419.0594476307158
  0
LINE
  5
2586
330
1A
100
AcDbEntity
  8
SEIHIN
100
AcDbLine
 10
408.2005533249409
 20
416.0888461426653
 30
0.0
 11
408.4320705653119
 21
415.0136880345971
 31
0.0
  0
LINE
  5
2587
330
1A
100
AcDbEntity
  8
SEIHIN
100
AcDbLine
 10
408.8552051739291
 20
417.7393233057187
 30
0.0
 11
409.0150326788291
 21
417.3464889962184
 31
0.0
  0
LINE
  5
2588
330
1A
100
AcDbEntity
  8
SEIHIN
100
AcDbLine
 10
408.8649914335658
 20
410.9960671799411
 30
0.0
 11
408.9058776666904
 21
409.4931581541496
 31
0.0
  0
LINE
  5
2589
330
1A
100
AcDbEntity
  8
SEIHIN
100
AcDbLine
 10
408.2054232672096
 20
409.4874797894185
 30
0.0
 11
408.2475152896092
 21
410.8205552822186
 31
0.0
  0
LINE
  5
258A
330
1A
100
AcDbEntity
  8
SEIHIN
100
AcDbLine
 10
408.7704202534634
 20
412.4312368343685
 30
0.0
 11
408.8649914335658
 21
410.9960671799411
 31
0.0
  0
LINE
  5
258B
330
1A
100
AcDbEntity
  8
SEIHIN
100
AcDbLine
 10
408.6244969372135
 20
413.7825811344272
 30
0.0
 11
408.7704202534634
 21
412.4312368343685
 31
0.0
  0
LINE
  5
258C
330
1A
100
AcDbEntity
  8
SEIHIN
100
AcDbLine
 10
408.2344411941096
 20
412.1637991090185
 30
0.0
 11
408.1665760087096
 21
413.4786805501185
 31
0.0
  0
LINE
  5
258D
330
1A
100
AcDbEntity
  8
SEIHIN
100
AcDbLine
 10
408.2475152896092
 20
410.8205552822186
 30
0.0
 11
408.2344411941096
 21
412.1637991090185
 31
0.0
  0
LINE
  5
258E
330
1A
100
AcDbEntity
  8
SEIHIN
100
AcDbLine
 10
408.4320705653119
 20
415.0136880345971
 30
0.0
 11
408.6244969372135
 21
413.7825811344272
 31
0.0
  0
LINE
  5
258F
330
1A
100
AcDbEntity
  8
SEIHIN
100
AcDbLine
 10
407.6767532376827
 20
417.6230069251568
 30
0.0
 11
407.9416715267146
 21
416.9718737349666
 31
0.0
  0
LINE
  5
2590
330
1A
100
AcDbEntity
  8
SEIHIN
100
AcDbLine
 10
407.453709085729
 20
417.9945634207983
 30
0.0
 11
407.6767532376827
 21
417.6230069251568
 31
0.0
  0
LINE
  5
2591
330
1A
100
AcDbEntity
  8
SEIHIN
100
AcDbLine
 10
407.3904522771901
 20
418.0557369102636
 30
0.0
 11
407.453709085729
 21
417.9945634207983
 31
0.0
  0
LINE
  5
2592
330
1A
100
AcDbEntity
  8
SEIHIN
100
AcDbLine
 10
407.2736318006747
 20
418.0927988708679
 30
0.0
 11
407.3904522771901
 21
418.0557369102636
 31
0.0
  0
LINE
  5
2593
330
1A
100
AcDbEntity
  8
SEIHIN
100
AcDbLine
 10
408.0458664348095
 20
414.7274824560185
 30
0.0
 11
407.453709085729
 21
417.9945634207983
 31
0.0
  0
LINE
  5
2594
330
1A
100
AcDbEntity
  8
SEIHIN
100
AcDbLine
 10
404.6951506360299
 20
409.5801541728186
 30
0.0
 11
404.6239792121298
 21
410.2885986206185
 31
0.0
  0
LINE
  5
2595
330
1A
100
AcDbEntity
  8
SEIHIN
100
AcDbLine
 10
406.0002760232298
 20
410.2885986206185
 30
0.0
 11
405.9291045993298
 21
409.5801541728186
 31
0.0
  0
LINE
  5
2596
330
1A
100
AcDbEntity
  8
SEIHIN
100
AcDbLine
 10
404.8083680217298
 20
408.9717991338186
 30
0.0
 11
404.6951506360299
 21
409.5801541728186
 31
0.0
  0
LINE
  5
2597
330
1A
100
AcDbEntity
  8
SEIHIN
100
AcDbLine
 10
405.9291045993298
 20
409.5801541728186
 30
0.0
 11
405.8158872137298
 21
408.9717991338186
 31
0.0
  0
LINE
  5
2598
330
1A
100
AcDbEntity
  8
SEIHIN
100
AcDbLine
 10
406.0002760232298
 20
411.8091076968186
 30
0.0
 11
406.0245512705298
 21
411.0488531587186
 31
0.0
  0
LINE
  5
2599
330
1A
100
AcDbEntity
  8
SEIHIN
100
AcDbLine
 10
405.9291045993298
 20
412.5175521446186
 30
0.0
 11
406.0002760232298
 21
411.8091076968186
 31
0.0
  0
LINE
  5
259A
330
1A
100
AcDbEntity
  8
SEIHIN
100
AcDbLine
 10
405.8158872137298
 20
413.1259071836186
 30
0.0
 11
405.9291045993298
 21
412.5175521446186
 31
0.0
  0
LINE
  5
259B
330
1A
100
AcDbEntity
  8
SEIHIN
100
AcDbLine
 10
405.6683394441299
 20
413.5927144233185
 30
0.0
 11
405.8158872137298
 21
413.1259071836186
 31
0.0
  0
LINE
  5
259C
330
1A
100
AcDbEntity
  8
SEIHIN
100
AcDbLine
 10
405.4965164272296
 20
413.8861617217186
 30
0.0
 11
405.6683394441299
 21
413.5927144233185
 31
0.0
  0
LINE
  5
259D
330
1A
100
AcDbEntity
  8
SEIHIN
100
AcDbLine
 10
405.3121276177296
 20
413.9862511304186
 30
0.0
 11
405.4965164272296
 21
413.8861617217186
 31
0.0
  0
LINE
  5
259E
330
1A
100
AcDbEntity
  8
SEIHIN
100
AcDbLine
 10
405.1277388081295
 20
413.8861617217186
 30
0.0
 11
405.3121276177296
 21
413.9862511304186
 31
0.0
  0
LINE
  5
259F
330
1A
100
AcDbEntity
  8
SEIHIN
100
AcDbLine
 10
404.9559157912296
 20
413.5927144233185
 30
0.0
 11
405.1277388081295
 21
413.8861617217186
 31
0.0
  0
LINE
  5
25A0
330
1A
100
AcDbEntity
  8
SEIHIN
100
AcDbLine
 10
404.8083680217298
 20
413.1259071836186
 30
0.0
 11
404.9559157912296
 21
413.5927144233185
 31
0.0
  0
LINE
  5
25A1
330
1A
100
AcDbEntity
  8
SEIHIN
100
AcDbLine
 10
404.6951506360299
 20
412.5175521446186
 30
0.0
 11
404.8083680217298
 21
413.1259071836186
 31
0.0
  0
LINE
  5
25A2
330
1A
100
AcDbEntity
  8
SEIHIN
100
AcDbLine
 10
404.6239792121298
 20
411.8091076968186
 30
0.0
 11
404.6951506360299
 21
412.5175521446186
 31
0.0
  0
LINE
  5
25A3
330
1A
100
AcDbEntity
  8
SEIHIN
100
AcDbLine
 10
404.5997039648297
 20
411.0488531587186
 30
0.0
 11
404.6239792121298
 21
411.8091076968186
 31
0.0
  0
LINE
  5
25A4
330
1A
100
AcDbEntity
  8
SEIHIN
100
AcDbLine
 10
404.6239792121298
 20
410.2885986206185
 30
0.0
 11
404.5997039648297
 21
411.0488531587186
 31
0.0
  0
LINE
  5
25A5
330
1A
100
AcDbEntity
  8
SEIHIN
100
AcDbLine
 10
406.0245512705298
 20
411.0488531587186
 30
0.0
 11
406.0002760232298
 21
410.2885986206185
 31
0.0
  0
ARC
  5
25A6
330
1A
100
AcDbEntity
  8
SEIHIN
100
AcDbCircle
 10
405.7372788605723
 20
414.7374910201206
 30
0.0
 40
4.328101381250355
100
AcDbArc
 50
43.91320875549062
 51
95.04077011236084
  0
LINE
  5
25A7
330
1A
100
AcDbEntity
  8
SEIHIN
100
AcDbLine
 10
407.9416715267146
 20
416.9718737349666
 30
0.0
 11
408.2005533249409
 21
416.0888461426653
 31
0.0
  0
LINE
  5
25A8
330
1A
100
AcDbEntity
  8
SEIHIN
100
AcDbLine
 10
408.1665760087096
 20
413.4786805501185
 30
0.0
 11
408.0458664348095
 21
414.7274824560185
 31
0.0
  0
DIMENSION
  5
25A9
330
1A
100
AcDbEntity
  8
SUNPOU
100
AcDbDimension
  2
*D8
 10
534.5530527297049
 20
228.8830711234262
 30
0.0
 11
527.8448487981044
 21
253.479818874126
 31
0.0
 70
    33
  3
STANDARD
100
AcDbAlignedDimension
 13
541.7084702594993
 23
288.3624793213233
 33
0.0
 14
564.0691500326993
 24
243.6411197749233
 34
0.0
1001
ACAD
1000
DSTYLE
1002
{
1070
    41
1040
7.0
1070
    42
1040
6.0
1070
    43
1040
14.0
1070
    44
1040
3.0
1070
    73
1070
     0
1070
    74
1070
     0
1070
    77
1070
     3
1070
   140
1040
6.0
1070
   141
1040
150.0
1070
   147
1040
2.0
1070
   172
1070
     1
1070
   173
1070
     1
1070
   176
1070
     4
1070
   177
1070
     4
1070
   178
1070
     4
1070
   271
1070
     0
1070
   272
1070
     0
1070
   341
1005
6D
1070
     6
1000
OPEN
1070
     7
1000
OPEN
1002
}
  0
DIMENSION
  5
25AA
330
1A
100
AcDbEntity
  8
SUNPOU
100
AcDbDimension
  2
*D9
 10
512.1923729565046
 20
273.6044306698261
 30
0.0
 11
511.5809475807042
 21
286.0076213089259
 31
0.0
 70
    33
  3
STANDARD
100
AcDbAlignedDimension
 13
531.5413475978994
 23
308.6967246445234
 33
0.0
 14
541.7084702594993
 24
288.3624793213233
 34
0.0
1001
ACAD
1000
DSTYLE
1002
{
1070
    41
1040
7.0
1070
    42
1040
6.0
1070
    43
1040
14.0
1070
    44
1040
3.0
1070
    73
1070
     0
1070
    74
1070
     0
1070
    77
1070
     3
1070
   140
1040
6.0
1070
   141
1040
150.0
1070
   147
1040
2.0
1070
   172
1070
     1
1070
   173
1070
     1
1070
   176
1070
     4
1070
   177
1070
     4
1070
   178
1070
     4
1070
   271
1070
     0
1070
   272
1070
     0
1070
   341
1005
6D
1070
     6
1000
OPEN
1070
     7
1000
OPEN
1002
}
  0
LINE
  5
25AB
330
1A
100
AcDbEntity
  8
SEIHIN
100
AcDbLine
 10
571.3587316409825
 20
306.206301782112
 30
0.0
 11
591.3648662243993
 21
266.1940326151233
 31
0.0
  0
LINE
  5
25AC
330
1A
100
AcDbEntity
  8
SEIHIN
100
AcDbLine
 10
559.2839645624144
 20
300.168918242993
 30
0.0
 11
582.6152914024992
 21
253.5062645628233
 31
0.0
  0
LINE
  5
25AD
330
1A
100
AcDbEntity
  8
SEIHIN
100
AcDbLine
 10
595.3741017194992
 20
283.8903433663233
 30
0.0
 11
606.7830166002991
 21
261.0725136046232
 31
0.0
  0
ARC
  5
25AE
330
1A
100
AcDbEntity
  8
SEIHIN
100
AcDbCircle
 10
563.7923471622993
 20
282.2078811332232
 30
0.0
 40
1.0
100
AcDbArc
 50
253.1325146489015
 51
26.56505117709983
  0
ARC
  5
25AF
330
1A
100
AcDbEntity
  8
SEIHIN
100
AcDbCircle
 10
559.1498004839993
 20
266.8962267373233
 30
0.0
 40
15.0
100
AcDbArc
 50
73.1325146253987
 51
116.5650511887979
  0
ARC
  5
25B0
330
1A
100
AcDbEntity
  8
SEIHIN
100
AcDbCircle
 10
541.7084702594993
 20
288.3624793213233
 30
0.0
 40
7.7
100
AcDbArc
 50
275.5108196503975
 51
51.73390466146141
  0
LINE
  5
25B1
330
1A
100
AcDbEntity
  8
SEIHIN
100
AcDbLine
 10
536.7891207089992
 20
280.3126346023233
 30
0.0
 11
529.3293026972992
 21
295.2322706257233
 31
0.0
  0
LINE
  5
25B2
330
1A
100
AcDbEntity
  8
SEIHIN
100
AcDbLine
 10
586.8927302693991
 20
263.9579646376232
 30
0.0
 11
566.8865956859088
 21
303.9702338046822
 31
0.0
  0
LINE
  5
25B3
330
1A
100
AcDbEntity
  8
CENTER_L
 48
3.0
100
AcDbLine
 10
559.6382866840992
 20
324.0570217521233
 30
0.0
 11
598.5200054667993
 21
246.2935841867232
 31
0.0
  0
LINE
  5
25B4
330
1A
100
AcDbEntity
  8
SEIHIN
100
AcDbLine
 10
602.3722584308993
 20
263.1858260110233
 30
0.0
 11
578.9613627644714
 21
310.0076173437984
 31
0.0
  0
DIMENSION
  5
25B5
330
1A
100
AcDbEntity
  8
SUNPOU
100
AcDbDimension
  2
*D10
 10
538.1307614937049
 20
221.7276535954254
 30
0.0
 11
540.8140430667044
 21
227.5414303369254
 31
0.0
 70
    33
  3
STANDARD
100
AcDbAlignedDimension
 13
592.6908201446992
 23
257.9519548309233
 33
0.0
 14
596.2685289086993
 24
250.7965373029231
 34
0.0
1001
ACAD
1000
DSTYLE
1002
{
1070
    41
1040
7.0
1070
    42
1040
6.0
1070
    43
1040
14.0
1070
    44
1040
3.0
1070
    73
1070
     0
1070
    74
1070
     0
1070
    77
1070
     3
1070
   140
1040
6.0
1070
   141
1040
150.0
1070
   147
1040
2.0
1070
   172
1070
     1
1070
   173
1070
     1
1070
   176
1070
     4
1070
   177
1070
     4
1070
   178
1070
     4
1070
   271
1070
     0
1070
   272
1070
     0
1070
   341
1005
6D
1070
     6
1000
OPEN
1070
     7
1000
OPEN
1002
}
  0
ARC
  5
25B6
330
1A
100
AcDbEntity
  8
SEIHIN
100
AcDbCircle
 10
545.7333926189992
 20
284.7847705573233
 30
0.0
 40
10.0
100
AcDbArc
 50
206.5650512005987
 51
296.5650512122989
  0
ARC
  5
25B7
330
1A
100
AcDbEntity
  8
SEIHIN
100
AcDbCircle
 10
412.4918762702991
 20
187.9745002246233
 30
0.0
 40
1.0
100
AcDbArc
 50
270.0
 51
26.56505117709983
  0
LINE
  5
25B8
330
1A
100
AcDbEntity
  8
SEIHIN
100
AcDbLine
 10
414.2436109051991
 20
193.4153028648232
 30
0.0
 11
426.9805589778993
 21
167.9414067195232
 31
0.0
  0
LINE
  5
25B9
330
1A
100
AcDbEntity
  8
SEIHIN
100
AcDbLine
 10
411.5964112926993
 20
192.0014981574232
 30
0.0
 11
425.0128191576991
 21
165.1686824274232
 31
0.0
  0
LINE
  5
25BA
330
1A
100
AcDbEntity
  8
SUNPOU
100
AcDbLine
 10
429.4849551126993
 20
171.8768863599233
 30
0.0
 11
449.0589219789992
 21
132.7289526273233
 31
0.0
  0
LINE
  5
25BB
330
1A
100
AcDbEntity
  8
SUNPOU
100
AcDbLine
 10
444.0589219789992
 20
142.7289526273233
 30
0.0
 11
444.0589219789992
 21
132.7289526273233
 31
0.0
  0
LINE
  5
25BE
330
1A
100
AcDbEntity
  8
SUNPOU
100
AcDbLine
 10
444.0589219789992
 20
132.7289526273233
 30
0.0
 11
449.0589219789992
 21
132.7289526273233
 31
0.0
  0
DIMENSION
  5
25BF
330
1A
100
AcDbEntity
  8
SUNPOU
100
AcDbDimension
  2
*D11
 10
438.0205328870372
 20
154.8700836174372
 30
0.0
 11
459.9129957296564
 21
165.8687231098723
 31
0.0
 70
   161
  1
t7.0
  3
STANDARD
100
AcDbAlignedDimension
 13
425.0128191576991
 23
165.1686824274232
 33
0.0
 14
431.2678199898937
 24
168.3111566055344
 34
0.0
1001
ACAD
1000
DSTYLE
1002
{
1070
    41
1040
7.0
1070
    42
1040
6.0
1070
    43
1040
14.0
1070
    44
1040
3.0
1070
    73
1070
     0
1070
    74
1070
     0
1070
    77
1070
     3
1070
   140
1040
6.0
1070
   141
1040
150.0
1070
   147
1040
2.0
1070
   172
1070
     1
1070
   173
1070
     1
1070
   176
1070
     4
1070
   177
1070
     4
1070
   178
1070
     4
1070
   271
1070
     0
1070
   272
1070
     0
1070
   341
1005
6D
1070
     6
1000
OPEN
1070
     7
1000
OPEN
1002
}
  0
LINE
  5
25C0
330
1A
100
AcDbEntity
  8
CENTER_L
 48
3.0
100
AcDbLine
 10
414.2796928657005
 20
168.7463911914239
 30
0.0
 11
432.1682366856989
 21
177.6906631014231
 31
0.0
  0
LINE
  5
25C1
330
1A
100
AcDbEntity
  8
SEIHIN
100
AcDbLine
 10
426.8016735396993
 20
166.0631096184233
 30
0.0
 11
425.0128191576991
 21
165.1686824274232
 31
0.0
  0
ARC
  5
25C2
330
1A
100
AcDbEntity
  8
SEIHIN
100
AcDbCircle
 10
-414.0058082927992
 20
180.4745002246232
 30
0.0
 40
3.0
210
0.0
220
0.0
230
-1.0
100
AcDbArc
 50
90.0
 51
153.4349488229001
  0
LINE
  5
25C3
330
1A
100
AcDbEntity
  8
SEIHIN
100
AcDbLine
 10
426.3544599441993
 20
166.9575368094232
 30
0.0
 11
426.8016735396993
 21
166.0631096184233
 31
0.0
  0
LINE
  5
25C4
330
1A
100
AcDbEntity
  8
SEIHIN
100
AcDbLine
 10
429.4849551126993
 20
171.8768863599233
 30
0.0
 11
426.3544599441993
 21
166.9575368094232
 31
0.0
  0
DIMENSION
  5
25C5
330
1A
100
AcDbEntity
  8
SUNPOU
100
AcDbDimension
  2
*D12
 10
620.5266614251041
 20
232.9099493009647
 30
0.0
 11
605.7504864196941
 21
231.2713430571093
 31
0.0
 70
    33
  3
STANDARD
100
AcDbAlignedDimension
 13
582.3800225733994
 23
247.2685982885233
 33
0.0
 14
607.5516654403993
 24
259.5352159245233
 34
0.0
1001
ACAD
1000
DSTYLE
1002
{
1070
    41
1040
7.0
1070
    42
1040
6.0
1070
    43
1040
14.0
1070
    44
1040
3.0
1070
    73
1070
     0
1070
    74
1070
     0
1070
    77
1070
     3
1070
   140
1040
6.0
1070
   141
1040
150.0
1070
   147
1040
2.0
1070
   172
1070
     1
1070
   173
1070
     1
1070
   176
1070
     4
1070
   177
1070
     4
1070
   178
1070
     4
1070
   271
1070
     0
1070
   272
1070
     0
1070
   341
1005
6D
1070
     6
1000
OPEN
1070
     7
1000
OPEN
1002
}
  0
LINE
  5
25C6
330
1A
100
AcDbEntity
  8
SEIHIN
100
AcDbLine
 10
606.4584121231992
 20
256.3441814746232
 30
0.0
 11
606.0897532188992
 21
257.0814992833232
 31
0.0
  0
LINE
  5
25C7
330
1A
100
AcDbEntity
  8
SEIHIN
100
AcDbLine
 10
606.4584121231992
 20
256.3441814746232
 30
0.0
 11
596.2685289086993
 21
250.7965373029232
 31
0.0
  0
LINE
  5
25C8
330
1A
100
AcDbEntity
  8
SEIHIN
100
AcDbLine
 10
606.0897532188992
 20
257.0814992833232
 30
0.0
 11
607.5516654403993
 21
259.5352159245233
 31
0.0
  0
LINE
  5
25C9
330
1A
100
AcDbEntity
  8
SEIHIN
100
AcDbLine
 10
594.4796745266992
 20
254.3742460669233
 30
0.0
 11
606.7830166002991
 21
261.0725136046232
 31
0.0
  0
LINE
  5
25CA
330
1A
100
AcDbEntity
  8
SEIHIN
100
AcDbLine
 10
581.6295692529993
 20
248.7695049292232
 30
0.0
 11
570.3301403714992
 21
271.3683626923233
 31
0.0
  0
ARC
  5
25CB
330
1A
100
AcDbEntity
  8
SEIHIN
100
AcDbCircle
 10
558.7025868884993
 20
265.5545859508232
 30
0.0
 40
13.0
100
AcDbArc
 50
26.56505117709983
 51
116.5650511887979
  0
ARC
  5
25CC
330
1A
100
AcDbEntity
  8
SEIHIN
100
AcDbCircle
 10
545.7333926189992
 20
284.7847705573233
 30
0.0
 40
7.0
100
AcDbArc
 50
237.8883036526026
 51
296.5650512122989
  0
ARC
  5
25CD
330
1A
100
AcDbEntity
  8
SEIHIN
100
AcDbCircle
 10
542.5439636181993
 20
279.7026900139233
 30
0.0
 40
1.0
100
AcDbArc
 50
95.51081962689792
 51
237.8883036526026
  0
LINE
  5
25CE
330
1A
100
AcDbEntity
  8
SEIHIN
100
AcDbLine
 10
552.8888101469992
 20
277.1821394338232
 30
0.0
 11
550.2055285739993
 21
275.8404986473233
 31
0.0
  0
LINE
  5
25CF
330
1A
100
AcDbEntity
  8
SEIHIN
100
AcDbLine
 10
548.8638877874991
 20
278.5237802203232
 30
0.0
 11
552.4415965514992
 21
280.3126346023233
 31
0.0
  0
LINE
  5
25D0
330
1A
100
AcDbEntity
  8
CENTER_L
 48
3.0
100
AcDbLine
 10
598.3136054479309
 20
260.7670446855113
 30
0.0
 11
587.0733772154799
 21
255.1457169480092
 31
0.0
  0
CIRCLE
  5
25D1
330
1A
100
AcDbEntity
  8
SEIHIN
100
AcDbCircle
 10
592.6908201446992
 20
257.9519548309233
 30
0.0
 40
2.7
  0
ARC
  5
25D2
330
1A
100
AcDbEntity
  8
SEIHIN
100
AcDbCircle
 10
592.6908201446992
 20
257.9519548309233
 30
0.0
 40
7.7
100
AcDbArc
 50
140.2870207841008
 51
203.5289491636004
  0
LINE
  5
25D3
330
1A
100
AcDbEntity
  8
SEIHIN
100
AcDbLine
 10
594.4796745266992
 20
254.3742460669233
 30
0.0
 11
581.6295692529993
 21
248.7695049292232
 31
0.0
  0
LINE
  5
25D4
330
1A
100
AcDbEntity
  8
SEIHIN
100
AcDbLine
 10
585.4713660289992
 20
246.8942672955232
 30
0.0
 11
595.8213153131992
 21
251.6909644939232
 31
0.0
  0
LINE
  5
25D5
330
1A
100
AcDbEntity
  8
SEIHIN
100
AcDbLine
 10
585.8026466093993
 20
246.2317061349232
 30
0.0
 11
596.2685289086993
 21
250.7965373029232
 31
0.0
  0
LINE
  5
25D6
330
1A
100
AcDbEntity
  8
SEIHIN
100
AcDbLine
 10
585.4713660289992
 20
246.8942672955232
 30
0.0
 11
585.8026466093993
 21
246.2317061349232
 31
0.0
  0
LINE
  5
25D7
330
1A
100
AcDbEntity
  8
SEIHIN
100
AcDbLine
 10
583.9095085959993
 20
253.0368713975233
 30
0.0
 11
585.1139413181993
 21
253.5622004498232
 31
0.0
  0
ARC
  5
25D8
330
1A
100
AcDbEntity
  8
SEIHIN
100
AcDbCircle
 10
583.5097185934992
 20
253.9534781583232
 30
0.0
 40
1.0
100
AcDbArc
 50
206.5650511770998
 51
293.5650511764006
  0
ARC
  5
25D9
330
1A
100
AcDbEntity
  8
SEIHIN
100
AcDbCircle
 10
584.7141513156993
 20
254.4788072106233
 30
0.0
 40
1.0
100
AcDbArc
 50
293.5650511764006
 51
23.52894916360047
  0
LINE
  5
25DA
330
1A
100
AcDbEntity
  8
SEIHIN
100
AcDbLine
 10
582.3800225733994
 20
247.2685982885233
 30
0.0
 11
585.4713660289992
 21
246.8942672955232
 31
0.0
  0
LINE
  5
25DB
330
1A
100
AcDbEntity
  8
SEIHIN
100
AcDbLine
 10
582.3800225733994
 20
247.2685982885233
 30
0.0
 11
581.6295692529993
 21
248.7695049292232
 31
0.0
  0
LINE
  5
25DC
330
1A
100
AcDbEntity
  8
SEIHIN
100
AcDbLine
 10
606.0897532188992
 20
257.0814992833232
 30
0.0
 11
595.8213153131992
 21
251.6909644939232
 31
0.0
  0
LINE
  5
25DD
330
1A
100
AcDbEntity
  8
SEIHIN
100
AcDbLine
 10
594.4796745266992
 20
254.3742460669233
 30
0.0
 11
595.8213153131992
 21
251.6909644939232
 31
0.0
  0
LINE
  5
25DE
330
1A
100
AcDbEntity
  8
SEIHIN
100
AcDbLine
 10
595.8213153131992
 20
251.6909644939232
 30
0.0
 11
596.2685289086993
 21
250.7965373029232
 31
0.0
  0
ARC
  5
25DF
330
1A
100
AcDbEntity
  8
SEIHIN
100
AcDbCircle
 10
585.9983030783991
 20
263.5107510421232
 30
0.0
 40
1.0
100
AcDbArc
 50
320.2870207841009
 51
26.56505117709983
  0
ARC
  5
25E0
330
1A
100
AcDbEntity
  8
SEIHIN
100
AcDbCircle
 10
592.6908201446992
 20
257.9519548309233
 30
0.0
 40
7.7
100
AcDbArc
 50
28.58109855220145
 51
92.84308157000102
  0
ARC
  5
25E1
330
1A
100
AcDbEntity
  8
SEIHIN
100
AcDbCircle
 10
592.2592934153993
 20
266.6412462106233
 30
0.0
 40
1.0
100
AcDbArc
 50
206.5650511770998
 51
272.843081570001
  0
ARC
  5
25E2
330
1A
100
AcDbEntity
  8
SEIHIN
100
AcDbCircle
 10
600.3306454918993
 20
262.1140539004233
 30
0.0
 40
1.0
100
AcDbArc
 50
208.5810985522014
 51
298.5650511775986
  0
LINE
  5
25E3
330
1A
100
AcDbEntity
  8
SEIHIN
100
AcDbLine
 10
600.8088017156993
 20
261.2357790997233
 30
0.0
 11
601.9559874637991
 21
261.8603376148232
 31
0.0
  0
ARC
  5
25E4
330
1A
100
AcDbEntity
  8
SEIHIN
100
AcDbCircle
 10
601.4778312398991
 20
262.7386124155233
 30
0.0
 40
1.0
100
AcDbArc
 50
298.5650511775986
 51
26.56505117709983
  0
LINE
  5
25E5
330
1A
100
AcDbEntity
  8
SEIHIN
100
AcDbLine
 10
607.5516654403993
 20
259.5352159245233
 30
0.0
 11
606.7830166002991
 21
261.0725136046232
 31
0.0
  0
LINE
  5
25E6
330
1A
100
AcDbEntity
  8
CENTER_L
 48
3.0
100
AcDbLine
 10
539.1805165714913
 20
293.417295147967
 30
0.0
 11
544.5196037836413
 21
282.7414260971096
 31
0.0
  0
LINE
  5
25E7
330
1A
100
AcDbEntity
  8
CENTER_L
 48
3.0
100
AcDbLine
 10
536.2552937680668
 20
285.6353022894296
 30
0.0
 11
547.6937185054957
 21
291.3557496789413
 31
0.0
  0
DIMENSION
  5
25E8
330
1A
100
AcDbEntity
  8
SUNPOU
100
AcDbDimension
  2
*D13
 10
575.3682799569004
 20
364.1512104865209
 30
0.0
 11
544.5105418674006
 21
354.3125113855205
 31
0.0
 70
    33
  3
STANDARD
100
AcDbAlignedDimension
 13
541.7084702594993
 23
288.3624793213233
 33
0.0
 14
598.9518104834992
 24
316.9841494333232
 34
0.0
1001
ACAD
1000
DSTYLE
1002
{
1070
    41
1040
7.0
1070
    42
1040
6.0
1070
    43
1040
14.0
1070
    44
1040
3.0
1070
    73
1070
     0
1070
    74
1070
     0
1070
    77
1070
     3
1070
   140
1040
6.0
1070
   141
1040
150.0
1070
   147
1040
2.0
1070
   172
1070
     1
1070
   173
1070
     1
1070
   176
1070
     4
1070
   177
1070
     4
1070
   178
1070
     4
1070
   271
1070
     0
1070
   272
1070
     0
1070
   341
1005
6D
1070
     6
1000
OPEN
1070
     7
1000
OPEN
1002
}
  0
DIMENSION
  5
25E9
330
1A
100
AcDbEntity
  8
SUNPOU
100
AcDbDimension
  2
*D14
 10
576.2792796776854
 20
381.0552761944029
 30
0.0
 11
538.1769134501571
 21
367.891670767409
 31
0.0
 70
    33
  3
STANDARD
100
AcDbAlignedDimension
 13
529.3293026972464
 23
295.232270625731
 33
0.0
 14
601.1215031422993
 24
330.5333079356232
 34
0.0
1001
ACAD
1000
DSTYLE
1002
{
1070
    41
1040
7.0
1070
    42
1040
6.0
1070
    43
1040
14.0
1070
    44
1040
3.0
1070
    73
1070
     0
1070
    74
1070
     0
1070
    77
1070
     3
1070
   140
1040
6.0
1070
   141
1040
150.0
1070
   147
1040
2.0
1070
   172
1070
     1
1070
   173
1070
     1
1070
   176
1070
     4
1070
   177
1070
     4
1070
   178
1070
     4
1070
   271
1070
     0
1070
   272
1070
     0
1070
   341
1005
6D
1070
     6
1000
OPEN
1070
     7
1000
OPEN
1002
}
  0
LINE
  5
25EA
330
1A
100
AcDbEntity
  8
SEIHIN
100
AcDbLine
 10
534.6872168100992
 20
293.4607143100232
 30
0.0
 11
552.5757606301067
 21
302.404986220027
 31
0.0
  0
LINE
  5
25EB
330
1A
100
AcDbEntity
  8
SEIHIN
100
AcDbLine
 10
548.2781462362991
 20
310.8441397137232
 30
0.0
 11
532.3696948640993
 21
302.1831545308232
 31
0.0
  0
CIRCLE
  5
25EC
330
1A
100
AcDbEntity
  8
SEIHIN
100
AcDbCircle
 10
541.7084702594993
 20
288.3624793213233
 30
0.0
 40
2.7
  0
LINE
  5
25ED
330
1A
100
AcDbEntity
  8
SEIHIN
100
AcDbLine
 10
533.4920129475992
 20
308.4871534298232
 30
0.0
 11
560.1630177098991
 21
323.0075597005233
 31
0.0
  0
ELLIPSE
  5
25EE
330
1A
100
AcDbEntity
  8
SEIHIN
100
AcDbEllipse
 10
427.5281625347283
 20
378.8909718669503
 30
0.0
 11
0.5091598755672184
 21
8.030211518536036
 31
0.0
210
0.0
220
0.0
230
1.0
 40
0.3005395739229382
 41
1.885759924007487
 42
3.143846711997319
  0
ARC
  5
25EF
330
1A
100
AcDbEntity
  8
SEIHIN
100
AcDbCircle
 10
328.3576956483138
 20
379.0488531587179
 30
0.0
 40
101.1272594643853
100
AcDbArc
 50
356.0308285751273
 51
0.0
  0
ELLIPSE
  5
25F1
330
1A
100
AcDbEntity
  8
SEIHIN
100
AcDbEllipse
 10
428.6576390884829
 20
378.8909718669504
 30
0.0
 11
0.5091598755672866
 21
8.030211518536033
 31
0.0
210
0.0
220
0.0
230
0.9999999999999998
 40
0.3005395739229355
 41
1.88575992400749
 42
3.143846711997441
  0
LINE
  5
25F2
330
1A
100
AcDbEntity
  8
SEIHIN
100
AcDbLine
 10
410.0891170469282
 20
354.271661271718
 30
0.0
 11
410.0408577465284
 21
348.573671337518
 31
0.0
  0
LINE
  5
25F3
330
1A
100
AcDbEntity
  8
SEIHIN
100
AcDbLine
 10
409.9993754808281
 20
347.048853158718
 30
0.0
 11
410.0408577465284
 21
348.573671337518
 31
0.0
  0
LINE
  5
25F4
330
1A
100
AcDbEntity
  8
SEIHIN
100
AcDbLine
 10
409.9018038890283
 20
345.568150607118
 30
0.0
 11
409.9993754808281
 21
347.048853158718
 31
0.0
  0
LINE
  5
25F5
330
1A
100
AcDbEntity
  8
SEIHIN
100
AcDbLine
 10
409.5488477730284
 20
342.8766751560181
 30
0.0
 11
409.7504401220282
 21
344.166424213918
 31
0.0
  0
LINE
  5
25F6
330
1A
100
AcDbEntity
  8
SEIHIN
100
AcDbLine
 10
409.3017729785286
 20
341.7292683012179
 30
0.0
 11
409.5488477730284
 21
342.8766751560181
 31
0.0
  0
LINE
  5
25F7
330
1A
100
AcDbEntity
  8
SEIHIN
100
AcDbLine
 10
409.7504401220282
 20
344.166424213918
 30
0.0
 11
409.9018038890283
 21
345.568150607118
 31
0.0
  0
LINE
  5
25F8
330
1A
100
AcDbEntity
  8
SEIHIN
100
AcDbLine
 10
426.8683138352416
 20
364.048853158718
 30
0.0
 11
412.8299628164961
 21
364.048853158718
 31
0.0
  0
LINE
  5
25F9
330
1A
100
AcDbEntity
  8
SEIHIN
100
AcDbLine
 10
409.7269821613424
 20
361.3956561815655
 30
0.0
 11
410.0415809624108
 21
362.4687305492798
 31
0.0
  0
LINE
  5
25FA
330
1A
100
AcDbEntity
  8
SEIHIN
100
AcDbLine
 10
411.1149421145285
 20
362.0941152880181
 30
0.0
 11
411.4345971244281
 21
362.8797839070181
 31
0.0
  0
LINE
  5
25FB
330
1A
100
AcDbEntity
  8
SEIHIN
100
AcDbLine
 10
409.4643498126094
 20
360.176000580044
 30
0.0
 11
409.7269821613424
 21
361.3956561815655
 31
0.0
  0
LINE
  5
25FC
330
1A
100
AcDbEntity
  8
SEIHIN
100
AcDbLine
 10
409.2535914866082
 20
358.8276093643661
 30
0.0
 11
409.4643498126094
 21
360.176000580044
 31
0.0
  0
LINE
  5
25FD
330
1A
100
AcDbEntity
  8
SEIHIN
100
AcDbLine
 10
410.8282018149282
 20
361.116064308018
 30
0.0
 11
411.1149421145285
 21
362.0941152880181
 31
0.0
  0
LINE
  5
25FE
330
1A
100
AcDbEntity
  8
SEIHIN
100
AcDbLine
 10
410.5811270203282
 20
359.968657453218
 30
0.0
 11
410.8282018149282
 21
361.116064308018
 31
0.0
  0
LINE
  5
25FF
330
1A
100
AcDbEntity
  8
SEIHIN
100
AcDbLine
 10
410.3795346714284
 20
358.6789083953179
 30
0.0
 11
410.5811270203282
 21
359.968657453218
 31
0.0
  0
LINE
  5
2600
330
1A
100
AcDbEntity
  8
SEIHIN
100
AcDbLine
 10
410.2281709044284
 20
357.277182002118
 30
0.0
 11
410.3795346714284
 21
358.6789083953179
 31
0.0
  0
LINE
  5
2601
330
1A
100
AcDbEntity
  8
SEIHIN
100
AcDbLine
 10
410.0891170469282
 20
354.271661271718
 30
0.0
 11
410.1305993125281
 21
355.796479450518
 31
0.0
  0
LINE
  5
2602
330
1A
100
AcDbEntity
  8
SEIHIN
100
AcDbLine
 10
410.1305993125281
 20
355.796479450518
 30
0.0
 11
410.2281709044284
 21
357.277182002118
 31
0.0
  0
LINE
  5
2603
330
1A
100
AcDbEntity
  8
SEIHIN
100
AcDbLine
 10
410.0415809624108
 20
362.4687305492798
 30
0.0
 11
410.4159726930864
 21
363.3889345970656
 31
0.0
  0
LINE
  5
2604
330
1A
100
AcDbEntity
  8
SEIHIN
100
AcDbLine
 10
411.4345971244281
 20
362.8797839070181
 30
0.0
 11
411.7796411308283
 21
363.454572982518
 31
0.0
  0
LINE
  5
2605
330
1A
100
AcDbEntity
  8
SEIHIN
100
AcDbLine
 10
410.4159726930864
 20
363.3889345970656
 30
0.0
 11
410.8121196522335
 21
364.048853158718
 31
0.0
  0
LINE
  5
2606
330
1A
100
AcDbEntity
  8
SEIHIN
100
AcDbLine
 10
412.1419506809282
 20
363.804950119118
 30
0.0
 11
412.8299628164961
 21
364.048853158718
 31
0.0
  0
LINE
  5
2607
330
1A
100
AcDbEntity
  8
SEIHIN
100
AcDbLine
 10
411.7796411308283
 20
363.454572982518
 30
0.0
 11
412.1419506809282
 21
363.804950119118
 31
0.0
  0
LINE
  5
2608
330
1A
100
AcDbEntity
  8
SEIHIN
100
AcDbLine
 10
409.3973482617441
 20
363.8980852871132
 30
0.0
 11
409.48785372309
 21
364.048853158718
 31
0.0
  0
LINE
  5
2609
330
1A
100
AcDbEntity
  8
SEIHIN
100
AcDbLine
 10
427.0244438843483
 20
370.8604358264785
 30
0.0
 11
428.1539204381024
 21
370.8604358264785
 31
0.0
  0
LWPOLYLINE
  5
260A
330
1A
100
AcDbEntity
  8
SEIHIN
100
AcDbPolyline
 90
       10
 70
   128
 43
0.0
 10
426.8683138352416
 20
364.048853158718
 10
427.2393589893417
 20
364.1665693442181
 10
427.6016685394416
 20
364.516946480818
 10
427.9467125459413
 20
365.091735556318
 10
428.2663675557414
 20
365.877404175318
 10
428.5531078554417
 20
366.8554551553179
 10
428.8001826499416
 20
368.0028620101181
 10
429.0017749989415
 20
369.292611068018
 10
429.1531387659415
 20
370.694337461218
 10
429.2423952155777
 20
372.0488531587182
  0
LWPOLYLINE
  5
2616
330
1A
100
AcDbEntity
  8
SEIHIN
100
AcDbPolyline
 90
        8
 70
   128
 43
0.0
 10
426.2144879048892
 20
367.0488531587178
 10
426.3595493845891
 20
367.1090790448177
 10
426.4987865601892
 20
367.2873385983178
 10
426.6266089768891
 20
367.5764745928177
 10
426.737884488989
 20
367.9648780473177
 10
426.8281453190889
 20
368.4369543337177
 10
426.8937674414892
 20
368.9737493101177
 10
427.0185204381022
 20
370.8604358264785
  0
LWPOLYLINE
  5
2620
330
1A
100
AcDbEntity
  8
SEIHIN
100
AcDbPolyline
 90
        8
 70
   128
 43
0.0
 10
427.3498879048888
 20
367.0488531587178
 10
427.4949493845893
 20
367.1090790448177
 10
427.6341865601889
 20
367.2873385983178
 10
427.7620089768888
 20
367.5764745928177
 10
427.8732844889892
 20
367.9648780473177
 10
427.963545319089
 20
368.4369543337177
 10
428.0291674414889
 20
368.9737493101177
 10
428.1539204381024
 20
370.8604358264785
  0
ARC
  5
262A
330
1A
100
AcDbEntity
  8
SEIHIN
100
AcDbCircle
 10
538.2735751862992
 20
299.7044054226232
 30
0.0
 40
10.0
100
AcDbArc
 50
118.5650511891012
 51
206.565043758401
  0
LINE
  5
262B
330
1A
100
AcDbEntity
  8
SEIHIN
100
AcDbLine
 10
533.3455760235993
 20
293.9079279055232
 30
0.0
 11
532.0125844242993
 21
296.5739111042232
 31
0.0
  0
ARC
  5
262C
330
1A
100
AcDbEntity
  8
SEIHIN
100
AcDbCircle
 10
533.3260073117992
 20
300.4266049294233
 30
0.0
 40
2.0
100
AcDbArc
 50
118.5650511891012
 51
171.6951535501995
  0
ARC
  5
262D
330
1A
100
AcDbEntity
  8
SEIHIN
100
AcDbCircle
 10
538.2735751862992
 20
299.7044054226232
 30
0.0
 40
7.0
100
AcDbArc
 50
171.6951535501995
 51
206.5650433973009
  0
ARC
  5
262E
330
1A
100
AcDbEntity
  8
SEIHIN
100
AcDbCircle
 10
534.2400032145993
 20
294.3551415010232
 30
0.0
 40
1.0
100
AcDbArc
 50
206.5650511770998
 51
296.5650511771012
  0
LINE
  5
262F
330
1A
100
AcDbEntity
  8
SEIHIN
100
AcDbLine
 10
410.5811270203287
 20
398.1290488642185
 30
0.0
 11
410.8282018149286
 21
396.9816420094185
 31
0.0
  0
LINE
  5
2630
330
1A
100
AcDbEntity
  8
SEIHIN
100
AcDbLine
 10
409.4643498126099
 20
397.9217057373925
 30
0.0
 11
409.7269821613428
 21
396.7020501358709
 31
0.0
  0
LINE
  5
2632
330
1A
100
AcDbEntity
  8
SEIHIN
100
AcDbLine
 10
426.8683138352421
 20
394.0488531587183
 30
0.0
 11
412.8299628164961
 21
394.0488531587185
 31
0.0
  0
LINE
  5
2633
330
1A
100
AcDbEntity
  8
SEIHIN
100
AcDbLine
 10
410.4159726930868
 20
394.7087717203709
 30
0.0
 11
410.8121196522335
 21
394.0488531587185
 31
0.0
  0
LINE
  5
2634
330
1A
100
AcDbEntity
  8
SEIHIN
100
AcDbLine
 10
410.0415809624112
 20
395.6289757681567
 30
0.0
 11
410.4159726930868
 21
394.7087717203709
 31
0.0
  0
LINE
  5
2635
330
1A
100
AcDbEntity
  8
SEIHIN
100
AcDbLine
 10
409.7269821613428
 20
396.7020501358709
 30
0.0
 11
410.0415809624112
 21
395.6289757681567
 31
0.0
  0
LINE
  5
2636
330
1A
100
AcDbEntity
  8
SEIHIN
100
AcDbLine
 10
412.1419506809286
 20
394.2927561983184
 30
0.0
 11
412.8299628164961
 21
394.0488531587185
 31
0.0
  0
LINE
  5
2637
330
1A
100
AcDbEntity
  8
SEIHIN
100
AcDbLine
 10
411.7796411308288
 20
394.6431333349185
 30
0.0
 11
412.1419506809286
 21
394.2927561983184
 31
0.0
  0
LINE
  5
2638
330
1A
100
AcDbEntity
  8
SEIHIN
100
AcDbLine
 10
411.4345971244286
 20
395.2179224104184
 30
0.0
 11
411.7796411308288
 21
394.6431333349185
 31
0.0
  0
LINE
  5
2639
330
1A
100
AcDbEntity
  8
SEIHIN
100
AcDbLine
 10
411.1149421145289
 20
396.0035910294184
 30
0.0
 11
411.4345971244286
 21
395.2179224104184
 31
0.0
  0
LINE
  5
263A
330
1A
100
AcDbEntity
  8
SEIHIN
100
AcDbLine
 10
410.8282018149286
 20
396.9816420094185
 30
0.0
 11
411.1149421145289
 21
396.0035910294184
 31
0.0
  0
LINE
  5
263B
330
1A
100
AcDbEntity
  8
SEIHIN
100
AcDbLine
 10
409.3973482617445
 20
394.1996210303233
 30
0.0
 11
409.4878537230904
 21
394.0488531587185
 31
0.0
  0
ARC
  5
263C
330
1A
100
AcDbEntity
  8
SEIHIN
100
AcDbCircle
 10
328.3576956483138
 20
379.0488531587205
 30
0.0
 40
101.1272594643853
100
AcDbArc
 50
359.9999999999987
 51
3.969171424871205
  0
LWPOLYLINE
  5
263F
330
1A
100
AcDbEntity
  8
SEIHIN
100
AcDbPolyline
 90
       14
 70
   128
 43
0.0
 10
427.8023646878778
 20
379.048853158718
 10
427.8023646878778
 20
379.048853158718
 10
427.8266399351777
 20
378.288598620618
 10
427.8978113590778
 20
377.580154172818
 10
428.0110287446778
 20
376.971799133818
 10
428.1585765142777
 20
376.5049918942181
 10
428.330399531178
 20
376.211544595718
 10
428.5147883406779
 20
376.111455187018
 10
428.699177150278
 20
376.211544595718
 10
428.8710001670779
 20
376.5049918942181
 10
429.0185479366778
 20
376.971799133818
 10
429.1317653222777
 20
377.580154172818
 10
429.2029367462778
 20
378.288598620618
 10
429.2272119935778
 20
379.048853158718
  0
LWPOLYLINE
  5
264F
330
1A
100
AcDbEntity
  8
SEIHIN
100
AcDbPolyline
 90
       14
 70
   128
 43
0.0
 10
427.8023646878778
 20
379.0488531587182
 10
427.8023646878778
 20
379.0488531587182
 10
427.8266399351777
 20
379.8091076968182
 10
427.8978113590778
 20
380.5175521446182
 10
428.0110287446778
 20
381.1259071836182
 10
428.1585765142781
 20
381.5927144232182
 10
428.330399531178
 20
381.8861617217182
 10
428.5147883406779
 20
381.9862511304182
 10
428.699177150278
 20
381.8861617217182
 10
428.8710001670779
 20
381.5927144232182
 10
429.0185479366778
 20
381.1259071836182
 10
429.1317653222777
 20
380.5175521446182
 10
429.2029367462778
 20
379.8091076968182
 10
429.2272119935778
 20
379.0488531587182
  0
LINE
  5
265F
330
1A
100
AcDbEntity
  8
SEIHIN
100
AcDbLine
 10
427.0244438843483
 20
387.2372704909578
 30
0.0
 11
428.1539204381028
 21
387.2372704909577
 31
0.0
  0
LWPOLYLINE
  5
2660
330
1A
100
AcDbEntity
  8
SEIHIN
100
AcDbPolyline
 90
        8
 70
   128
 43
0.0
 10
426.2144879048892
 20
391.0488531587185
 10
426.3595493845891
 20
390.9886272726186
 10
426.4987865601892
 20
390.8103677191185
 10
426.6266089768891
 20
390.5212317246185
 10
426.737884488989
 20
390.1328282701186
 10
426.8281453190893
 20
389.6607519837185
 10
426.8937674414892
 20
389.1239570073186
 10
427.0185204381028
 20
387.2372704909578
  0
LWPOLYLINE
  5
266A
330
1A
100
AcDbEntity
  8
SEIHIN
100
AcDbPolyline
 90
        8
 70
   128
 43
0.0
 10
427.3498879048893
 20
391.0488531587185
 10
427.4949493845893
 20
390.9886272726186
 10
427.6341865601893
 20
390.8103677191184
 10
427.7620089768893
 20
390.5212317246185
 10
427.8732844889892
 20
390.1328282701185
 10
427.9635453190894
 20
389.6607519837185
 10
428.0291674414893
 20
389.1239570073185
 10
428.1539204381028
 20
387.2372704909577
  0
LWPOLYLINE
  5
2674
330
1A
100
AcDbEntity
  8
SEIHIN
100
AcDbPolyline
 90
       10
 70
   128
 43
0.0
 10
426.8683138352421
 20
394.0488531587183
 10
427.2393589893422
 20
393.9311369732182
 10
427.601668539442
 20
393.5807598366182
 10
427.9467125459418
 20
393.0059707611182
 10
428.2663675557419
 20
392.2203021421182
 10
428.5531078554417
 20
391.2422511621183
 10
428.8001826499416
 20
390.0948443073181
 10
429.0017749989419
 20
388.8050952494182
 10
429.153138765942
 20
387.4033688562182
 10
429.2423952155782
 20
386.048853158718
  0
LINE
  5
2680
330
1A
100
AcDbEntity
  8
SEIHIN
100
AcDbLine
 10
410.0891170469287
 20
403.8260450457185
 30
0.0
 11
410.0408577465288
 21
409.5240349799185
 31
0.0
  0
LINE
  5
2681
330
1A
100
AcDbEntity
  8
SEIHIN
100
AcDbLine
 10
410.3795346714289
 20
399.4187979221186
 30
0.0
 11
410.5811270203287
 21
398.1290488642185
 31
0.0
  0
LINE
  5
2682
330
1A
100
AcDbEntity
  8
SEIHIN
100
AcDbLine
 10
410.2281709044289
 20
400.8205243153185
 30
0.0
 11
410.3795346714289
 21
399.4187979221186
 31
0.0
  0
LINE
  5
2683
330
1A
100
AcDbEntity
  8
SEIHIN
100
AcDbLine
 10
410.1305993125285
 20
402.3012268669185
 30
0.0
 11
410.2281709044289
 21
400.8205243153185
 31
0.0
  0
LINE
  5
2684
330
1A
100
AcDbEntity
  8
SEIHIN
100
AcDbLine
 10
409.2535914866086
 20
399.2700969530704
 30
0.0
 11
409.4643498126099
 21
397.9217057373925
 31
0.0
  0
LINE
  5
2685
330
1A
100
AcDbEntity
  8
SEIHIN
100
AcDbLine
 10
410.0891170469287
 20
403.8260450457185
 30
0.0
 11
410.1305993125285
 21
402.3012268669185
 31
0.0
  0
LINE
  5
2686
330
1A
100
AcDbEntity
  8
SEIHIN
100
AcDbLine
 10
409.3017729785294
 20
416.3684380162186
 30
0.0
 11
409.5488477730294
 21
415.2210311614184
 31
0.0
  0
LINE
  5
2687
330
1A
100
AcDbEntity
  8
SEIHIN
100
AcDbLine
 10
409.999375480829
 20
411.0488531587185
 30
0.0
 11
410.0408577465288
 21
409.5240349799185
 31
0.0
  0
LINE
  5
2688
330
1A
100
AcDbEntity
  8
SEIHIN
100
AcDbLine
 10
409.9018038890291
 20
412.5295557103185
 30
0.0
 11
409.999375480829
 21
411.0488531587185
 31
0.0
  0
LINE
  5
2689
330
1A
100
AcDbEntity
  8
SEIHIN
100
AcDbLine
 10
409.7504401220292
 20
413.9312821035185
 30
0.0
 11
409.9018038890291
 21
412.5295557103185
 31
0.0
  0
LINE
  5
268A
330
1A
100
AcDbEntity
  8
SEIHIN
100
AcDbLine
 10
409.5488477730294
 20
415.2210311614184
 30
0.0
 11
409.7504401220292
 21
413.9312821035185
 31
0.0
  0
ARC
  5
268C
330
1A
100
AcDbEntity
  8
SEIHIN
100
AcDbCircle
 10
605.3783459140993
 20
311.1198811619233
 30
0.0
 40
1.0
100
AcDbArc
 50
355.2417987720999
 51
137.6192827508015
  0
ARC
  5
268D
330
1A
100
AcDbEntity
  8
SEIHIN
100
AcDbCircle
 10
599.3990240789992
 20
311.6175862873233
 30
0.0
 40
7.0
100
AcDbArc
 50
296.5650512122989
 51
355.2417987720999
  0
ARC
  5
268E
330
1A
100
AcDbEntity
  8
SEIHIN
100
AcDbCircle
 10
599.3990240789992
 20
311.6175862873233
 30
0.0
 40
10.0
100
AcDbArc
 50
296.5650512122989
 51
26.56505117709983
  0
LINE
  5
268F
330
1A
100
AcDbEntity
  8
SEIHIN
100
AcDbLine
 10
608.3432959889992
 20
316.0897222423233
 30
0.0
 11
601.1215031422993
 21
330.5333079356232
 31
0.0
  0
LINE
  5
2690
330
1A
100
AcDbEntity
  8
SEIHIN
100
AcDbLine
 10
593.8447078855992
 20
332.2433665493233
 30
0.0
 11
577.1840635943992
 21
324.9766090831233
 31
0.0
  0
LINE
  5
2691
330
1A
100
AcDbEntity
  8
SEIHIN
100
AcDbLine
 10
599.5331881575993
 20
327.0017339725233
 30
0.0
 11
598.4382217362992
 21
329.1916668151233
 31
0.0
  0
LINE
  5
2692
330
1A
100
AcDbEntity
  8
SEIHIN
100
AcDbLine
 10
588.1793308300993
 20
335.2272403432233
 30
0.0
 11
560.1630177098991
 21
323.0075597005233
 31
0.0
  0
LINE
  5
2693
330
1A
100
AcDbEntity
  8
SEIHIN
100
AcDbLine
 10
572.2531588320038
 20
308.8895833551189
 30
0.0
 11
576.2780811914922
 21
310.902044534807
 31
0.0
  0
LINE
  5
2694
330
1A
100
AcDbEntity
  8
SEIHIN
100
AcDbLine
 10
570.9115180454739
 20
311.5728649281037
 30
0.0
 11
574.9364404049479
 21
313.5853261077846
 31
0.0
  0
ARC
  5
2695
330
1A
100
AcDbEntity
  8
SEIHIN
100
AcDbCircle
 10
571.5585909625993
 20
320.3410249926232
 30
0.0
 40
2.0
100
AcDbArc
 50
26.56501847080157
 51
113.5650511884028
  0
ARC
  5
2696
330
1A
100
AcDbEntity
  8
SEIHIN
100
AcDbCircle
 10
565.0977413039083
 20
303.0758066136836
 30
0.0
 40
2.0
100
AcDbArc
 50
26.56505117703326
 51
116.5650511764384
  0
ARC
  5
2697
330
1A
100
AcDbEntity
  8
SEIHIN
100
AcDbCircle
 10
551.681333439107
 20
304.1938406020268
 30
0.0
 40
2.0
100
AcDbArc
 50
296.5650511770779
 51
26.56505117716259
  0
LINE
  5
2698
330
1A
100
AcDbEntity
  8
SEIHIN
100
AcDbLine
 10
560.1783917534344
 20
302.8521998160027
 30
0.0
 11
564.2033141129283
 21
304.8646609956934
 31
0.0
  0
LINE
  5
2699
330
1A
100
AcDbEntity
  8
SEIHIN
100
AcDbLine
 10
564.6867743532993
 20
282.6550947287232
 30
0.0
 11
556.6006829896143
 21
298.8272774560345
 31
0.0
  0
LINE
  5
269A
330
1A
100
AcDbEntity
  8
SEIHIN
100
AcDbLine
 10
546.6492931052934
 20
296.0876504913706
 30
0.0
 11
553.917401416616
 21
299.7217046470318
 31
0.0
  0
ARC
  5
269B
330
1A
100
AcDbEntity
  8
SEIHIN
100
AcDbCircle
 10
547.0965067007933
 20
295.1932233003706
 30
0.0
 40
1.0
100
AcDbArc
 50
116.5650511770721
 51
231.7339046614641
  0
ARC
  5
269C
330
1A
100
AcDbEntity
  8
SEIHIN
100
AcDbCircle
 10
554.8118286076157
 20
297.9328502650319
 30
0.0
 40
2.0
100
AcDbArc
 50
26.56505117716191
 51
116.5650511770779
  0
ARC
  5
269D
330
1A
100
AcDbEntity
  8
SEIHIN
100
AcDbCircle
 10
561.0728189444143
 20
301.0633454339929
 30
0.0
 40
2.0
100
AcDbArc
 50
116.5650511764377
 51
206.5650511770778
  0
ARC
  5
269E
330
1A
100
AcDbEntity
  8
SEIHIN
100
AcDbCircle
 10
557.9423237759145
 20
307.3243357709923
 30
0.0
 40
2.0
100
AcDbArc
 50
206.5650511770783
 51
296.5650511764384
  0
LINE
  5
269F
330
1A
100
AcDbEntity
  8
SEIHIN
100
AcDbLine
 10
558.3844629395992
 20
316.3462880483232
 30
0.0
 11
554.4298172730991
 21
314.1932734826233
 31
0.0
  0
ARC
  5
26A0
330
1A
100
AcDbEntity
  8
SEIHIN
100
AcDbCircle
 10
549.2344586839992
 20
309.0875901123232
 30
0.0
 40
2.0
100
AcDbArc
 50
26.56504804190007
 51
118.5650511891012
  0
LINE
  5
26A1
330
1A
100
AcDbEntity
  8
SEIHIN
100
AcDbLine
 10
553.4701878211053
 20
305.0882677930294
 30
0.0
 11
551.0233131148993
 21
309.9820172054232
 31
0.0
  0
ARC
  5
26A2
330
1A
100
AcDbEntity
  8
SEIHIN
100
AcDbCircle
 10
555.3861297207993
 20
312.4367238812233
 30
0.0
 40
2.0
100
AcDbArc
 50
118.5650511891012
 51
206.565023393701
  0
LINE
  5
26A3
330
1A
100
AcDbEntity
  8
SEIHIN
100
AcDbLine
 10
553.5972749050992
 20
311.5422975576233
 30
0.0
 11
556.1534693939147
 21
306.4299085799924
 31
0.0
  0
ARC
  5
26A4
330
1A
100
AcDbEntity
  8
SEIHIN
100
AcDbCircle
 10
559.3407753872993
 20
314.5897384469233
 30
0.0
 40
2.0
100
AcDbArc
 50
26.56504304820114
 51
118.5650511891012
  0
LINE
  5
26A5
330
1A
100
AcDbEntity
  8
SEIHIN
100
AcDbLine
 10
565.6393458694992
 20
317.6450733251232
 30
0.0
 11
568.2282364724926
 21
312.4672921191164
 31
0.0
  0
ARC
  5
26A6
330
1A
100
AcDbEntity
  8
SEIHIN
100
AcDbCircle
 10
561.9672461354134
 20
309.3367969506856
 30
0.0
 40
2.0
100
AcDbArc
 50
296.5650511764382
 51
26.56505117703415
  0
LINE
  5
26A7
330
1A
100
AcDbEntity
  8
SEIHIN
100
AcDbLine
 10
563.7561005174139
 20
310.2312241416842
 30
0.0
 11
561.1296298961993
 21
315.4841653841233
 31
0.0
  0
LINE
  5
26A8
330
1A
100
AcDbEntity
  8
SEIHIN
100
AcDbLine
 10
558.8367509668944
 20
305.5354813889826
 30
0.0
 11
562.8616733263934
 21
307.5479425686758
 31
0.0
  0
ARC
  5
26A9
330
1A
100
AcDbEntity
  8
SEIHIN
100
AcDbCircle
 10
573.1475860229839
 20
307.1007289731091
 30
0.0
 40
2.0
100
AcDbArc
 50
116.5650511764382
 51
206.5650511769891
  0
ARC
  5
26AA
330
1A
100
AcDbEntity
  8
SEIHIN
100
AcDbCircle
 10
570.0170908544939
 20
313.3617193101135
 30
0.0
 40
2.0
100
AcDbArc
 50
206.5650511769886
 51
296.5650511764384
  0
ARC
  5
26AB
330
1A
100
AcDbEntity
  8
SEIHIN
100
AcDbCircle
 10
567.4281999816992
 20
318.5395010556232
 30
0.0
 40
2.0
100
AcDbArc
 50
113.5650511884028
 51
206.5650684564999
  0
LINE
  5
26AC
330
1A
100
AcDbEntity
  8
SEIHIN
100
AcDbLine
 10
570.7590109575992
 20
322.1742385142232
 30
0.0
 11
566.6286199767991
 21
320.3727145771232
 31
0.0
  0
LINE
  5
26AD
330
1A
100
AcDbEntity
  8
SEIHIN
100
AcDbLine
 10
581.6446443375164
 20
311.3492581302287
 30
0.0
 11
589.7307357012992
 21
295.1770754027232
 31
0.0
  0
ARC
  5
26AE
330
1A
100
AcDbEntity
  8
SEIHIN
100
AcDbCircle
 10
605.6600144159992
 20
290.1513337033232
 30
0.0
 40
15.0
100
AcDbArc
 50
116.5650511887979
 51
159.9975877523013
  0
LINE
  5
26AF
330
1A
100
AcDbEntity
  8
SEIHIN
100
AcDbLine
 10
598.9518104834992
 20
303.5677415683232
 30
0.0
 11
602.5295192474991
 21
305.3565959503232
 31
0.0
  0
ARC
  5
26B0
330
1A
100
AcDbEntity
  8
SEIHIN
100
AcDbCircle
 10
607.0016552024992
 20
289.7041201078233
 30
0.0
 40
13.0
100
AcDbArc
 50
116.5650511887979
 51
206.5650512005987
  0
ARC
  5
26B1
330
1A
100
AcDbEntity
  8
SEIHIN
100
AcDbCircle
 10
590.6251628922992
 20
295.6242889982232
 30
0.0
 40
1.0
100
AcDbArc
 50
206.5650512005987
 51
339.9975877758012
  0
LINE
  5
26B2
330
1A
100
AcDbEntity
  8
SEIHIN
100
AcDbLine
 10
603.8711600339993
 20
302.6733143773233
 30
0.0
 11
601.1878784609991
 21
301.3316735908232
 31
0.0
  0
LINE
  5
26B3
330
1A
100
AcDbEntity
  8
SEIHIN
100
AcDbLine
 10
582.539071528535
 20
314.0325397032411
 30
0.0
 11
589.8071798399914
 21
317.6665938588679
 31
0.0
  0
LINE
  5
26B4
330
1A
100
AcDbEntity
  8
SEIHIN
100
AcDbLine
 10
581.1974307419862
 20
316.7158212762163
 30
0.0
 11
599.0859745620991
 21
325.6600931860232
 31
0.0
  0
ARC
  5
26B5
330
1A
100
AcDbEntity
  8
SEIHIN
100
AcDbCircle
 10
598.9518104834992
 20
316.9841494333232
 30
0.0
 40
7.7
100
AcDbArc
 50
181.3961976917294
 51
317.6192827742982
  0
ARC
  5
26B6
330
1A
100
AcDbEntity
  8
SEIHIN
100
AcDbCircle
 10
574.0420132139679
 20
315.3741804897944
 30
0.0
 40
2.0
100
AcDbArc
 50
296.5650511764383
 51
26.56505117711636
  0
ARC
  5
26B7
330
1A
100
AcDbEntity
  8
SEIHIN
100
AcDbCircle
 10
583.4334987195149
 20
312.2436853212312
 30
0.0
 40
2.0
100
AcDbArc
 50
116.5650511764383
 51
206.5650511771627
  0
ARC
  5
26B8
330
1A
100
AcDbEntity
  8
SEIHIN
100
AcDbCircle
 10
577.1725083824722
 20
309.1131901527972
 30
0.0
 40
2.0
100
AcDbArc
 50
26.56505117711763
 51
116.5650511764384
  0
ARC
  5
26B9
330
1A
100
AcDbEntity
  8
SEIHIN
100
AcDbCircle
 10
580.3030035510062
 20
318.5046756582261
 30
0.0
 40
2.0
100
AcDbArc
 50
206.5650511771627
 51
296.5650511764384
  0
LINE
  5
26BA
330
1A
100
AcDbEntity
  8
SEIHIN
100
AcDbLine
 10
575.8308675959672
 20
316.2686076807955
 30
0.0
 11
573.3474458550992
 21
321.2354511625233
 31
0.0
  0
ARC
  5
26BB
330
1A
100
AcDbEntity
  8
SEIHIN
100
AcDbCircle
 10
577.9836435993993
 20
323.1433955615232
 30
0.0
 40
2.0
100
AcDbArc
 50
113.5650511884028
 51
206.5649905496017
  0
LINE
  5
26BC
330
1A
100
AcDbEntity
  8
SEIHIN
100
AcDbLine
 10
576.1947882708991
 20
322.2489702634232
 30
0.0
 11
578.5141491690078
 21
317.6102484672235
 31
0.0
  0
LINE
  5
26BD
330
1A
100
AcDbEntity
  8
CENTER_L
 48
3.0
100
AcDbLine
 10
596.4213844351766
 20
322.0439094467645
 30
0.0
 11
601.7604716473265
 21
311.368040395907
 31
0.0
  0
LINE
  5
26BE
330
1A
100
AcDbEntity
  8
CENTER_L
 48
3.0
100
AcDbLine
 10
593.496161631752
 20
314.261916588227
 30
0.0
 11
604.9345863691812
 21
319.9823639777387
 31
0.0
  0
CIRCLE
  5
26BF
330
1A
100
AcDbEntity
  8
SEIHIN
100
AcDbCircle
 10
598.9518104834992
 20
316.9841494333232
 30
0.0
 40
2.7
  0
ARC
  5
26C0
330
1A
100
AcDbEntity
  8
SEIHIN
100
AcDbCircle
 10
590.2543934354814
 20
316.7721666678629
 30
0.0
 40
1.0
100
AcDbArc
 50
1.396197691731441
 51
116.5650511764385
  0
ARC
  5
26C1
330
1A
100
AcDbEntity
  8
SEIHIN
100
AcDbCircle
 10
598.6387609665994
 20
326.5545203770233
 30
0.0
 40
1.0
100
AcDbArc
 50
296.5650511771012
 51
26.56505117709983
  0
ARC
  5
26C2
330
1A
100
AcDbEntity
  8
SEIHIN
100
AcDbCircle
 10
592.1772308548993
 20
326.0611727354232
 30
0.0
 40
10.0
100
AcDbArc
 50
26.56504634180014
 51
113.5650511884028
  0
ARC
  5
26C3
330
1A
100
AcDbEntity
  8
SEIHIN
100
AcDbCircle
 10
592.1772308548993
 20
326.0611727354232
 30
0.0
 40
7.0
100
AcDbArc
 50
26.56504121270124
 51
60.43494882729814
  0
ARC
  5
26C4
330
1A
100
AcDbEntity
  8
SEIHIN
100
AcDbCircle
 10
594.644287890599
 20
330.4101530277232
 30
0.0
 40
2.0
100
AcDbArc
 50
60.43494882729814
 51
113.5650511884028
  0
MTEXT
  5
26C5
330
1A
100
AcDbEntity
  8
SUNPOU
100
AcDbMText
 10
609.7925097558404
 20
367.4289449883464
 30
0.0
 40
6.0
 41
33.36028036838114
 71
     1
 72
     5
  1
3-φ4.2
1001
ACAD
1000
MTEXTBEGIN
1070
    73
1070
     1
1070
    44
1040
1.0
1070
    74
1070
     0
1000
MTEXTEND
1000
MTEXTBEGIN
1070
    73
1070
     1
1070
    44
1040
1.0
1070
    74
1070
     0
1000
MTEXTEND
1000
MTEXTBEGIN
1070
    73
1070
     1
1070
    44
1040
1.0
1070
    74
1070
     0
1000
MTEXTEND
1000
MTEXTBEGIN
1070
    73
1070
     1
1070
    44
1040
1.0
1070
    74
1070
     0
1000
MTEXTEND
  0
LINE
  5
282F
330
1A
100
AcDbEntity
  8
SEIHIN
100
AcDbLine
 10
407.8439271437463
 20
204.6596979321975
 30
0.0
 11
412.043624889999
 21
206.7595468053238
 31
0.0
  0
LINE
  5
2830
330
1A
100
AcDbEntity
  8
SEIHIN
100
AcDbLine
 10
407.8439271437463
 20
204.6596979321975
 30
0.0
 11
404.4447478412058
 21
204.56713924766
 31
0.0
  0
POINT
  5
29AA
330
1A
100
AcDbEntity
  8
S120
  6
PHANTOM
 62
     8
 48
5.0
100
AcDbPoint
 10
718.0405746679203
 20
198.5087005685032
 30
0.0
  0
POINT
  5
29D0
330
1A
100
AcDbEntity
  8
S120
  6
PHANTOM
 62
     8
 48
5.0
100
AcDbPoint
 10
688.0405746679202
 20
215.0089005685033
 30
0.0
  0
POINT
  5
29D3
330
1A
100
AcDbEntity
  8
S120
  6
PHANTOM
 62
     8
 48
5.0
100
AcDbPoint
 10
695.0405746679202
 20
216.5089005685032
 30
0.0
  0
POINT
  5
2A6D
330
1A
100
AcDbEntity
  8
S120
  6
PHANTOM
 62
     8
 48
5.0
100
AcDbPoint
 10
718.0406746679202
 20
296.5089005685033
 30
0.0
  0
POINT
  5
2A71
330
1A
100
AcDbEntity
  8
S120
  6
PHANTOM
 62
     8
 48
5.0
100
AcDbPoint
 10
729.3812746679202
 20
289.6831005685033
 30
0.0
  0
POINT
  5
2A96
330
1A
100
AcDbEntity
  8
S120
  6
PHANTOM
 62
     8
 48
5.0
100
AcDbPoint
 10
780.0405746679203
 20
196.5088005685032
 30
0.0
  0
POINT
  5
2A97
330
1A
100
AcDbEntity
  8
S120
  6
PHANTOM
 62
     8
 48
5.0
100
AcDbPoint
 10
845.0391746679201
 20
196.5087005685033
 30
0.0
  0
POINT
  5
2AB1
330
1A
100
AcDbEntity
  8
S120
  6
PHANTOM
 62
     8
 48
5.0
100
AcDbPoint
 10
835.8688746679202
 20
241.5088005685032
 30
0.0
  0
POINT
  5
2ACC
330
1A
100
AcDbEntity
  8
S120
  6
PHANTOM
 62
     8
 48
5.0
100
AcDbPoint
 10
840.8688746679203
 20
256.5088005685032
 30
0.0
  0
TEXT
  5
39ED
330
1A
100
AcDbEntity
  8
SUNPOU
100
AcDbText
 10
434.9066323481475
 20
134.4718439511144
 30
0.0
 40
5.0
  1
10
100
AcDbText
1001
ACAD
1000
MTEXTBEGIN
1070
    73
1070
     1
1070
    44
1040
1.0
1070
    74
1070
     0
1000
MTEXTEND
1000
MTEXTBEGIN
1070
    73
1070
     1
1070
    44
1040
1.0
1070
    74
1070
     0
1000
MTEXTEND
1000
MTEXTBEGIN
1070
    73
1070
     1
1070
    44
1040
1.0
1070
    74
1070
     0
1000
MTEXTEND
  0
TEXT
  5
39EE
330
1A
100
AcDbEntity
  8
SUNPOU
100
AcDbText
 10
445.2782910213246
 20
125.6481069850211
 30
0.0
 40
5.0
  1
5
100
AcDbText
1001
ACAD
1000
MTEXTBEGIN
1070
    73
1070
     1
1070
    44
1040
1.0
1070
    74
1070
     0
1000
MTEXTEND
1000
MTEXTBEGIN
1070
    73
1070
     1
1070
    44
1040
1.0
1070
    74
1070
     0
1000
MTEXTEND
1000
MTEXTBEGIN
1070
    73
1070
     1
1070
    44
1040
1.0
1070
    74
1070
     0
1000
MTEXTEND
  0
LINE
  5
39EF
330
1A
100
AcDbEntity
  8
ZUWAKU
100
AcDbLine
 10
208.6466024889079
 20
15.19999935047882
 30
0.0
 11
447.4243651698313
 21
15.19999935047881
 31
0.0
  0
LINE
  5
39F0
330
1A
100
AcDbEntity
  8
ZUWAKU
100
AcDbLine
 10
208.6466024889079
 20
15.59999935047881
 30
0.0
 11
447.4243651698313
 21
15.59999935047882
 31
0.0
  0
LINE
  5
39F1
330
1A
100
AcDbEntity
  8
ZUWAKU
100
AcDbLine
 10
208.6466024889079
 20
15.39999935047881
 30
0.0
 11
447.4243651698313
 21
15.39999935047881
 31
0.0
  0
LINE
  5
39F2
330
1A
100
AcDbEntity
  8
ZUWAKU
100
AcDbLine
 10
0.0000011988399819
 20
30.79999935047879
 30
0.0
 11
797.4000011988398
 21
30.79999935047879
 31
0.0
  0
LINE
  5
39F3
330
1A
100
AcDbEntity
  8
ZUWAKU
100
AcDbLine
 10
0.0000011988399819
 20
30.5999993504788
 30
0.0
 11
797.4000011988398
 21
30.5999993504788
 31
0.0
  0
LINE
  5
39F4
330
1A
100
AcDbEntity
  8
ZUWAKU
100
AcDbLine
 10
0.0000011988399819
 20
30.39999935047879
 30
0.0
 11
797.4000011988398
 21
30.39999935047879
 31
0.0
  0
LINE
  5
39F5
330
1A
100
AcDbEntity
  8
ZUWAKU
100
AcDbLine
 10
0.0000011988399819
 20
30.19999935047878
 30
0.0
 11
797.4000011988398
 21
30.19999935047878
 31
0.0
  0
LINE
  5
39F6
330
1A
100
AcDbEntity
  8
ZUWAKU
100
AcDbLine
 10
0.0000011988399819
 20
29.99999935047878
 30
0.0
 11
797.4000011988398
 21
29.99999935047878
 31
0.0
  0
LWPOLYLINE
  5
39F7
330
1A
100
AcDbEntity
  8
ZUWAKU
100
AcDbPolyline
 90
        4
 70
     1
 43
0.0
 10
0.2000011988399137
 20
551.3999993504787
 10
0.2000011988399137
 20
0.1999993504788336
 10
797.4000011988398
 20
0.1999993504788566
 10
797.40000119884
 20
551.3999993504787
  0
LWPOLYLINE
  5
39F8
330
1A
100
AcDbEntity
  8
ZUWAKU
100
AcDbPolyline
 90
        4
 70
     1
 43
0.0
 10
0.600001198839891
 20
550.9999993504789
 10
0.600001198839891
 20
0.5999993504788109
 10
797.0000011988402
 20
0.5999993504788571
 10
797.00000119884
 20
550.9999993504789
  0
LWPOLYLINE
  5
39F9
330
1A
100
AcDbEntity
  8
ZUWAKU
100
AcDbPolyline
 90
        4
 70
     1
 43
0.0
 10
0.0000011988399819
 20
551.5999993504788
 10
0.0000011988399819
 20
-0.0000006495212119
 10
797.60000119884
 20
-0.0000006495211444
 10
797.60000119884
 20
551.5999993504789
  0
LWPOLYLINE
  5
39FA
330
1A
100
AcDbEntity
  8
ZUWAKU
100
AcDbPolyline
 90
        4
 70
     1
 43
0.0
 10
0.4000011988399593
 20
551.1999993504787
 10
0.4000011988399593
 20
0.399999350478879
 10
797.20000119884
 20
0.3999993504788559
 10
797.20000119884
 20
551.1999993504787
  0
LWPOLYLINE
  5
39FB
330
1A
100
AcDbEntity
  8
ZUWAKU
100
AcDbPolyline
 90
        4
 70
     1
 43
0.0
 10
0.8000011988399364
 20
550.7999993504787
 10
0.8000011988399364
 20
0.7999993504788563
 10
796.8000011988398
 20
0.7999993504788563
 10
796.8000011988398
 20
550.7999993504787
  0
TEXT
  5
39FC
330
1A
100
AcDbEntity
  8
MOJI
100
AcDbText
 10
129.5810018416712
 20
8.554222766009161
 30
0.0
 40
5.799999999999999
  1
Ｓ１２０Ｈ・Ｍ１２０Ｈ
 41
0.9
  7
ｽﾀｲﾙ1
100
AcDbText
  0
TEXT
  5
39FD
330
1A
100
AcDbEntity
  8
MOJI
100
AcDbText
 10
81.66226515300536
 20
17.85856729940519
 30
0.0
 40
5.799999999999999
  1
アートフェイスＴ１２０・Ｈ１２０・
 41
0.9
  7
ｽﾀｲﾙ1
100
AcDbText
  0
HATCH
  5
39FE
330
1A
100
AcDbEntity
  8
ZUWAKU
100
AcDbHatch
 10
0.0
 20
0.0
 30
0.0
210
0.0
220
0.0
230
1.0
  2
ANSI37
 70
     0
 71
     0
 91
        8
 92
        7
 72
     1
 73
     1
 93
       24
 10
14.50226385995983
 20
17.64484783146236
 42
-0.1989123673796348
 10
14.0922133536211
 20
18.63479732512341
 42
0.0
 10
14.0922133536211
 20
19.92499935047879
 42
-0.4142135623730912
 10
14.61721335362107
 20
20.44999935047878
 42
0.0
 10
17.59221335362098
 20
20.44999935047878
 42
0.4142135623731546
 10
18.11721335362108
 20
20.97499935047877
 42
0.0
 10
18.11721335362108
 20
22.7249993504788
 42
0.4142135623731586
 10
17.59221335362098
 20
23.24999935047878
 42
0.0
 10
14.0922133536211
 20
23.24999935047878
 42
0.4142135623730928
 10
11.29221335362114
 20
20.44999935047881
 42
0.0
 10
11.29221335362114
 20
18.63479732512354
 42
0.1989123673796619
 10
12.52236487263757
 20
15.66494884413993
 42
0.0
 10
15.43216284728225
 20
12.75515086949528
 42
-0.1989123673796613
 10
15.8422133536211
 20
11.76520137583409
 42
0.0
 10
15.8422133536211
 20
10.47499935047877
 42
-0.4142135623730911
 10
15.31721335362112
 20
9.949999350478789
 42
0.0
 10
12.34221335362121
 20
9.949999350478789
 42
0.4142135623731526
 10
11.81721335362112
 20
9.424999350478801
 42
0.0
 10
11.81721335362112
 20
7.67499935047878
 42
0.4142135623731526
 10
12.34221335362121
 20
7.149999350478792
 42
0.0
 10
15.8422133536211
 20
7.149999350478792
 42
0.4142135623731045
 10
18.64221335362117
 20
9.949999350478769
 42
0.0
 10
18.64221335362117
 20
11.76520137583403
 42
0.1989123673796604
 10
17.41206183460462
 20
14.73504985681757
 42
0.0
 97
        0
 92
        7
 72
     1
 73
     1
 93
       16
 10
23.54221335362114
 20
19.04999935047879
 42
-0.4142135623730935
 10
24.94221335362112
 20
20.44999935047878
 42
0.0
 10
26.86721335362108
 20
20.44999935047878
 42
0.4142135623731546
 10
27.39221335362117
 20
20.97499935047877
 42
0.0
 10
27.39221335362117
 20
22.7249993504788
 42
0.4142135623730951
 10
26.86721335362119
 20
23.24999935047878
 42
0.0
 10
24.94221335362101
 20
23.24999935047874
 42
0.4142135623730893
 10
20.74221335362107
 20
19.04999935047873
 42
0.0
 10
20.74221335362107
 20
11.34999935047881
 42
0.4142135623730969
 10
24.94221335362112
 20
7.149999350478792
 42
0.0
 10
26.86721335362108
 20
7.149999350478792
 42
0.4142135623731526
 10
27.39221335362117
 20
7.67499935047878
 42
0.0
 10
27.39221335362117
 20
9.424999350478801
 42
0.4142135623730891
 10
26.86721335362119
 20
9.949999350478789
 42
0.0
 10
24.94221335362112
 20
9.949999350478789
 42
-0.4142135623730928
 10
23.54221335362114
 20
11.34999935047877
 42
0.0
 97
        0
 92
        7
 72
     1
 73
     1
 93
        2
 10
24.24221335362108
 20
15.19999935047878
 42
1.0
 10
27.74221335362108
 20
15.19999935047878
 42
1.0
 97
        0
 92
        7
 72
     1
 73
     1
 93
       26
 10
37.3148598357991
 20
19.20504654404221
 42
0.0
 10
38.37649946893692
 20
22.5669053823118
 42
0.5069206636600134
 10
37.87586856974155
 20
23.24999935047878
 42
0.0
 10
36.17697919013232
 20
23.24999935047878
 42
0.3272098845218764
 10
35.67634829093696
 20
22.88309331864575
 42
0.0
 10
33.80807841630518
 20
16.96690538231186
 42
-0.3272098845219541
 10
33.30744751710971
 20
16.59999935047878
 42
0.0
 10
33.16721335362126
 20
16.59999935047878
 42
-0.4142135623731526
 10
32.64221335362117
 20
17.12499935047877
 42
0.0
 10
32.64221335362117
 20
22.7249993504788
 42
0.4142135623730951
 10
32.11721335362119
 20
23.24999935047878
 42
0.0
 10
30.36721335362107
 20
23.24999935047878
 42
0.4142135623730871
 10
29.8422133536211
 20
22.7249993504788
 42
0.0
 10
29.8422133536211
 20
7.67499935047878
 42
0.4142135623730891
 10
30.36721335362107
 20
7.149999350478792
 42
0.0
 10
32.11721335362108
 20
7.149999350478792
 42
0.4142135623731526
 10
32.64221335362117
 20
7.67499935047878
 42
0.0
 10
32.64221335362117
 20
13.27499935047879
 42
-0.4142135623731526
 10
33.16721335362126
 20
13.79999935047878
 42
0.0
 10
33.30744751710983
 20
13.79999935047878
 42
-0.3272098845218915
 10
33.80807841630518
 20
13.43309331864571
 42
0.0
 10
35.67634829093696
 20
7.516905382311864
 42
0.3272098845218902
 10
36.17697919013232
 20
7.149999350478792
 42
0.0
 10
37.87586856974155
 20
7.149999350478792
 42
0.5069206636600336
 10
38.37649946893692
 20
7.833093318645801
 42
0.0
 10
36.05010809046325
 20
15.19999935047892
 42
0.0
 97
        0
 92
        7
 72
     1
 73
     1
 93
        8
 10
43.49221335362106
 20
22.7249993504788
 42
0.4142135623731546
 10
42.96721335362098
 20
23.24999935047878
 42
0.0
 10
41.21721335362122
 20
23.24999935047878
 42
0.4142135623731507
 10
40.69221335362112
 20
22.7249993504788
 42
0.0
 10
40.69221335362112
 20
7.67499935047878
 42
0.4142135623731526
 10
41.21721335362122
 20
7.149999350478792
 42
0.0
 10
42.96721335362098
 20
7.149999350478792
 42
0.4142135623731526
 10
43.49221335362106
 20
7.67499935047878
 42
0.0
 97
        0
 92
        7
 72
     1
 73
     1
 93
       24
 10
48.39221335362116
 20
19.92499935047879
 42
-0.4142135623731546
 10
48.91721335362126
 20
20.44999935047878
 42
0.0
 10
51.89221335362117
 20
20.44999935047878
 42
0.4142135623730911
 10
52.41721335362115
 20
20.97499935047877
 42
0.0
 10
52.41721335362115
 20
22.7249993504788
 42
0.4142135623730952
 10
51.89221335362117
 20
23.24999935047878
 42
0.0
 10
48.39221335362116
 20
23.24999935047878
 42
0.4142135623731048
 10
45.5922133536211
 20
20.44999935047881
 42
0.0
 10
45.5922133536211
 20
18.63479732512354
 42
0.1989123673796613
 10
46.82236487263764
 20
15.66494884413999
 42
0.0
 10
49.73216284728231
 20
12.75515086949532
 42
-0.1989123673796402
 10
50.14221335362117
 20
11.76520137583425
 42
0.0
 10
50.14221335362117
 20
10.47499935047877
 42
-0.4142135623730911
 10
49.6172133536212
 20
9.949999350478789
 42
0.0
 10
46.64221335362117
 20
9.949999350478789
 42
0.4142135623731526
 10
46.11721335362108
 20
9.424999350478801
 42
0.0
 10
46.11721335362108
 20
7.67499935047878
 42
0.4142135623730891
 10
46.64221335362106
 20
7.149999350478792
 42
0.0
 10
50.14221335362117
 20
7.149999350478792
 42
0.4142135623730925
 10
52.94221335362112
 20
9.949999350478769
 42
0.0
 10
52.94221335362112
 20
11.76520137583403
 42
0.1989123673796675
 10
51.71206183460459
 20
14.73504985681769
 42
0.0
 10
48.80226385996
 20
17.6448478314622
 42
-0.1989123673796652
 10
48.39221335362116
 20
18.63479732512337
 42
0.0
 97
        0
 92
        7
 72
     1
 73
     1
 93
       16
 10
57.84221335362111
 20
22.72499935047877
 42
0.414213562373103
 10
57.31721335362112
 20
23.24999935047878
 42
0.0
 10
55.56721335362112
 20
23.24999935047878
 42
0.4142135623730871
 10
55.04221335362114
 20
22.7249993504788
 42
0.0
 10
55.04221335362114
 20
9.949999350478769
 42
0.4142135623730927
 10
57.84221335362111
 20
7.149999350478792
 42
0.0
 10
61.3422133536211
 20
7.149999350478792
 42
0.4142135623731045
 10
64.14221335362118
 20
9.949999350478769
 42
0.0
 10
64.14221335362118
 20
22.7249993504788
 42
0.4142135623730951
 10
63.61721335362119
 20
23.24999935047878
 42
0.0
 10
61.86721335362108
 20
23.24999935047878
 42
0.4142135623730871
 10
61.3422133536211
 20
22.7249993504788
 42
0.0
 10
61.3422133536211
 20
10.99999935047876
 42
-0.4142135623730879
 10
60.29221335362114
 20
9.949999350478789
 42
0.0
 10
58.89221335362117
 20
9.949999350478789
 42
-0.4142135623731197
 10
57.84221335362111
 20
10.99999935047876
 42
0.0
 97
        0
 92
        7
 72
     1
 73
     1
 93
        8
 10
69.04221335362115
 20
22.7249993504788
 42
0.4142135623730871
 10
68.51721335362118
 20
23.24999935047878
 42
0.0
 10
66.76721335362117
 20
23.24999935047878
 42
0.4142135623731507
 10
66.24221335362108
 20
22.7249993504788
 42
0.0
 10
66.24221335362108
 20
7.67499935047878
 42
0.4142135623730891
 10
66.76721335362106
 20
7.149999350478792
 42
0.0
 10
68.51721335362118
 20
7.149999350478792
 42
0.4142135623730891
 10
69.04221335362115
 20
7.67499935047878
 42
0.0
 97
        0
 75
     0
 76
     1
 52
0.0
 41
0.2
 77
     0
 78
     2
 53
45.0
 43
-900.9423031358391
 44
-13.20000064952113
 45
-0.4490128060534576
 46
0.4490128060534577
 79
     0
 53
135.0
 43
-900.9423031358391
 44
-13.20000064952113
 45
-0.4490128060534577
 46
-0.4490128060534576
 79
     0
 47
0.057451373970553
 98
        8
 10
16.07985616186328
 20
15.16717299636433
 10
22.40451620527915
 20
18.84406153292979
 10
25.16436908449963
 20
15.5118809965495
 10
30.91406118047711
 20
16.20129699692028
 10
41.83847321779671
 20
16.6609092644619
 10
46.89820209396953
 20
19.41857566688599
 10
56.55768717124033
 20
18.72915726557379
 10
67.82708081846272
 20
19.18876953311541
  0
LINE
  5
39FF
330
1A
100
AcDbEntity
  8
ZUWAKU
100
AcDbLine
 10
24.94221335362112
 20
23.24999935047874
 30
0.0
 11
26.86721335362108
 21
23.24999935047878
 31
0.0
  0
LINE
  5
3A00
330
1A
100
AcDbEntity
  8
ZUWAKU
100
AcDbLine
 10
26.86721335362108
 20
20.44999935047878
 30
0.0
 11
24.94221335362112
 21
20.44999935047878
 31
0.0
  0
LINE
  5
3A01
330
1A
100
AcDbEntity
  8
ZUWAKU
100
AcDbLine
 10
24.94221335362112
 20
9.949999350478789
 30
0.0
 11
26.86721335362108
 21
9.949999350478789
 31
0.0
  0
LINE
  5
3A02
330
1A
100
AcDbEntity
  8
ZUWAKU
100
AcDbLine
 10
26.86721335362108
 20
7.149999350478792
 30
0.0
 11
24.94221335362112
 21
7.149999350478792
 31
0.0
  0
CIRCLE
  5
3A03
330
1A
100
AcDbEntity
  8
ZUWAKU
100
AcDbCircle
 10
25.99221335362107
 20
15.19999935047878
 30
0.0
 40
1.75
  0
ARC
  5
3A04
330
1A
100
AcDbEntity
  8
ZUWAKU
100
AcDbCircle
 10
15.49221335362108
 20
18.63479732512348
 30
0.0
 40
1.399999999999999
100
AcDbArc
 50
180.0000000000015
 51
224.9999999999988
  0
LINE
  5
3A05
330
1A
100
AcDbEntity
  8
ZUWAKU
100
AcDbLine
 10
23.54221335362114
 20
19.04999935047878
 30
0.0
 11
23.54221335362114
 21
11.34999935047879
 31
0.0
  0
LINE
  5
3A06
330
1A
100
AcDbEntity
  8
ZUWAKU
100
AcDbLine
 10
20.74221335362107
 20
11.34999935047879
 30
0.0
 11
20.74221335362107
 21
19.04999935047874
 31
0.0
  0
ARC
  5
3A07
330
1A
100
AcDbEntity
  8
ZUWAKU
100
AcDbCircle
 10
15.49221335362108
 20
18.63479732512348
 30
0.0
 40
4.199999999999998
100
AcDbArc
 50
180.0
 51
225.0
  0
ARC
  5
3A08
330
1A
100
AcDbEntity
  8
ZUWAKU
100
AcDbCircle
 10
15.8422133536211
 20
9.949999350478789
 30
0.0
 40
2.799999999999998
100
AcDbArc
 50
270.0
 51
0.0
  0
ARC
  5
3A09
330
1A
100
AcDbEntity
  8
ZUWAKU
100
AcDbCircle
 10
24.94221335362112
 20
11.34999935047879
 30
0.0
 40
4.199999999999998
100
AcDbArc
 50
180.0
 51
270.0
  0
ARC
  5
3A0A
330
1A
100
AcDbEntity
  8
ZUWAKU
100
AcDbCircle
 10
14.44221335362112
 20
11.76520137583409
 30
0.0
 40
4.199999999999998
100
AcDbArc
 50
0.0
 51
45.0
  0
LINE
  5
3A0B
330
1A
100
AcDbEntity
  8
ZUWAKU
100
AcDbLine
 10
17.41206183460462
 20
14.73504985681761
 30
0.0
 11
14.50226385995994
 21
17.64484783146228
 31
0.0
  0
LINE
  5
3A0C
330
1A
100
AcDbEntity
  8
ZUWAKU
100
AcDbLine
 10
15.8422133536211
 20
10.47499935047879
 30
0.0
 11
15.8422133536211
 21
11.76520137583413
 31
0.0
  0
ARC
  5
3A0D
330
1A
100
AcDbEntity
  8
ZUWAKU
100
AcDbCircle
 10
15.31721335362112
 20
10.47499935047879
 30
0.0
 40
0.525
100
AcDbArc
 50
270.0
 51
0.0
  0
ARC
  5
3A0E
330
1A
100
AcDbEntity
  8
ZUWAKU
100
AcDbCircle
 10
14.44221335362112
 20
11.76520137583413
 30
0.0
 40
1.399999999999999
100
AcDbArc
 50
0.0
 51
45.0
  0
LINE
  5
3A0F
330
1A
100
AcDbEntity
  8
ZUWAKU
100
AcDbLine
 10
11.81721335362112
 20
7.674999350478791
 30
0.0
 11
11.81721335362112
 21
9.42499935047879
 31
0.0
  0
ARC
  5
3A10
330
1A
100
AcDbEntity
  8
ZUWAKU
100
AcDbCircle
 10
12.3422133536211
 20
7.674999350478791
 30
0.0
 40
0.525
100
AcDbArc
 50
180.0
 51
270.0
  0
ARC
  5
3A11
330
1A
100
AcDbEntity
  8
ZUWAKU
100
AcDbCircle
 10
12.3422133536211
 20
9.42499935047879
 30
0.0
 40
0.525
100
AcDbArc
 50
90.0
 51
180.0
  0
LINE
  5
3A12
330
1A
100
AcDbEntity
  8
ZUWAKU
100
AcDbLine
 10
12.3422133536211
 20
7.149999350478792
 30
0.0
 11
15.8422133536211
 21
7.149999350478792
 31
0.0
  0
LINE
  5
3A13
330
1A
100
AcDbEntity
  8
ZUWAKU
100
AcDbLine
 10
12.3422133536211
 20
9.949999350478789
 30
0.0
 11
15.31721335362112
 21
9.949999350478789
 31
0.0
  0
LINE
  5
3A14
330
1A
100
AcDbEntity
  8
ZUWAKU
100
AcDbLine
 10
12.52236487263757
 20
15.66494884413996
 30
0.0
 11
15.43216284728225
 21
12.7551508694953
 31
0.0
  0
LINE
  5
3A15
330
1A
100
AcDbEntity
  8
ZUWAKU
100
AcDbLine
 10
18.64221335362117
 20
9.949999350478789
 30
0.0
 11
18.64221335362117
 21
11.76520137583413
 31
0.0
  0
ARC
  5
3A16
330
1A
100
AcDbEntity
  8
ZUWAKU
100
AcDbCircle
 10
24.94221335362112
 20
11.34999935047879
 30
0.0
 40
1.399999999999999
100
AcDbArc
 50
180.0
 51
270.0
  0
ARC
  5
3A17
330
1A
100
AcDbEntity
  8
ZUWAKU
100
AcDbCircle
 10
17.5922133536211
 20
22.72499935047878
 30
0.0
 40
0.525
100
AcDbArc
 50
0.0
 51
90.0
  0
ARC
  5
3A18
330
1A
100
AcDbEntity
  8
ZUWAKU
100
AcDbCircle
 10
17.5922133536211
 20
20.97499935047878
 30
0.0
 40
0.525
100
AcDbArc
 50
270.0
 51
0.0
  0
LINE
  5
3A19
330
1A
100
AcDbEntity
  8
ZUWAKU
100
AcDbLine
 10
14.0922133536211
 20
23.24999935047878
 30
0.0
 11
17.5922133536211
 21
23.24999935047878
 31
0.0
  0
ARC
  5
3A1A
330
1A
100
AcDbEntity
  8
ZUWAKU
100
AcDbCircle
 10
14.61721335362107
 20
19.92499935047878
 30
0.0
 40
0.525
100
AcDbArc
 50
90.0
 51
180.0
  0
LINE
  5
3A1B
330
1A
100
AcDbEntity
  8
ZUWAKU
100
AcDbLine
 10
14.0922133536211
 20
19.92499935047878
 30
0.0
 11
14.0922133536211
 21
18.63479732512344
 31
0.0
  0
LINE
  5
3A1C
330
1A
100
AcDbEntity
  8
ZUWAKU
100
AcDbLine
 10
17.5922133536211
 20
20.44999935047878
 30
0.0
 11
14.61721335362107
 21
20.44999935047878
 31
0.0
  0
LINE
  5
3A1D
330
1A
100
AcDbEntity
  8
ZUWAKU
100
AcDbLine
 10
11.29221335362114
 20
20.44999935047878
 30
0.0
 11
11.29221335362114
 21
18.63479732512344
 31
0.0
  0
ARC
  5
3A1E
330
1A
100
AcDbEntity
  8
ZUWAKU
100
AcDbCircle
 10
14.0922133536211
 20
20.44999935047878
 30
0.0
 40
2.799999999999998
100
AcDbArc
 50
90.0
 51
180.0
  0
LINE
  5
3A1F
330
1A
100
AcDbEntity
  8
ZUWAKU
100
AcDbLine
 10
18.11721335362108
 20
22.72499935047878
 30
0.0
 11
18.11721335362108
 21
20.97499935047878
 31
0.0
  0
ARC
  5
3A20
330
1A
100
AcDbEntity
  8
ZUWAKU
100
AcDbCircle
 10
24.94221335362112
 20
19.04999935047878
 30
0.0
 40
1.399999999999999
100
AcDbArc
 50
90.0
 51
180.0
  0
ARC
  5
3A21
330
1A
100
AcDbEntity
  8
ZUWAKU
100
AcDbCircle
 10
24.94221335362112
 20
19.04999935047874
 30
0.0
 40
4.199999999999998
100
AcDbArc
 50
90.0
 51
180.0
  0
LINE
  5
3A22
330
1A
100
AcDbEntity
  8
ZUWAKU
100
AcDbLine
 10
79.32663074682818
 20
29.99999935047878
 30
0.0
 11
79.32663074682841
 21
0.7999993504788563
 31
0.0
  0
LINE
  5
3A23
330
1A
100
AcDbEntity
  8
ZUWAKU
100
AcDbLine
 10
79.52663074682823
 20
29.99999935047878
 30
0.0
 11
79.52663074682845
 21
0.7999993504788563
 31
0.0
  0
LINE
  5
3A24
330
1A
100
AcDbEntity
  8
ZUWAKU
100
AcDbLine
 10
79.12663074682837
 20
29.99999935047878
 30
0.0
 11
79.12663074682837
 21
0.7999993504788563
 31
0.0
  0
LINE
  5
3A25
330
1A
100
AcDbEntity
  8
ZUWAKU
100
AcDbLine
 10
64.14221335362118
 20
9.949999350478789
 30
0.0
 11
64.14221335362118
 21
22.72499935047878
 31
0.0
  0
LINE
  5
3A26
330
1A
100
AcDbEntity
  8
ZUWAKU
100
AcDbLine
 10
61.3422133536211
 20
22.72499935047878
 30
0.0
 11
61.3422133536211
 21
10.99999935047878
 31
0.0
  0
LINE
  5
3A27
330
1A
100
AcDbEntity
  8
ZUWAKU
100
AcDbLine
 10
69.04221335362115
 20
7.674999350478791
 30
0.0
 11
69.04221335362115
 21
22.72499935047878
 31
0.0
  0
LINE
  5
3A28
330
1A
100
AcDbEntity
  8
ZUWAKU
100
AcDbLine
 10
66.24221335362108
 20
22.72499935047878
 30
0.0
 11
66.24221335362108
 21
7.674999350478791
 31
0.0
  0
ARC
  5
3A29
330
1A
100
AcDbEntity
  8
ZUWAKU
100
AcDbCircle
 10
49.79221335362114
 20
18.63479732512348
 30
0.0
 40
1.399999999999999
100
AcDbArc
 50
180.0000000000015
 51
224.9999999999988
  0
ARC
  5
3A2A
330
1A
100
AcDbEntity
  8
ZUWAKU
100
AcDbCircle
 10
49.79221335362114
 20
18.63479732512348
 30
0.0
 40
4.199999999999998
100
AcDbArc
 50
180.0
 51
225.0
  0
LINE
  5
3A2B
330
1A
100
AcDbEntity
  8
ZUWAKU
100
AcDbLine
 10
37.3148598357991
 20
19.20504654404221
 30
0.0
 11
36.05010809046325
 21
15.1999993504788
 31
0.0
  0
LINE
  5
3A2C
330
1A
100
AcDbEntity
  8
ZUWAKU
100
AcDbLine
 10
40.69221335362112
 20
22.72499935047878
 30
0.0
 11
40.69221335362112
 21
7.674999350478791
 31
0.0
  0
LINE
  5
3A2D
330
1A
100
AcDbEntity
  8
ZUWAKU
100
AcDbLine
 10
43.49221335362106
 20
7.674999350478791
 30
0.0
 11
43.49221335362106
 21
22.72499935047878
 31
0.0
  0
LINE
  5
3A2E
330
1A
100
AcDbEntity
  8
ZUWAKU
100
AcDbLine
 10
55.04221335362114
 20
22.72499935047878
 30
0.0
 11
55.04221335362114
 21
9.949999350478789
 31
0.0
  0
LINE
  5
3A2F
330
1A
100
AcDbEntity
  8
ZUWAKU
100
AcDbLine
 10
57.84221335362111
 20
10.99999935047878
 30
0.0
 11
57.84221335362111
 21
22.72499935047878
 31
0.0
  0
LINE
  5
3A30
330
1A
100
AcDbEntity
  8
ZUWAKU
100
AcDbLine
 10
32.64221335362117
 20
17.12499935047879
 30
0.0
 11
32.64221335362117
 21
22.72499935047878
 31
0.0
  0
LINE
  5
3A31
330
1A
100
AcDbEntity
  8
ZUWAKU
100
AcDbLine
 10
29.8422133536211
 20
22.72499935047878
 30
0.0
 11
29.8422133536211
 21
7.674999350478791
 31
0.0
  0
LINE
  5
3A32
330
1A
100
AcDbEntity
  8
ZUWAKU
100
AcDbLine
 10
35.67634829093696
 20
22.88309331864575
 30
0.0
 11
33.80807841630518
 21
16.96690538231181
 31
0.0
  0
LINE
  5
3A33
330
1A
100
AcDbEntity
  8
ZUWAKU
100
AcDbLine
 10
60.29221335362114
 20
9.949999350478789
 30
0.0
 11
58.89221335362117
 21
9.949999350478789
 31
0.0
  0
LINE
  5
3A34
330
1A
100
AcDbEntity
  8
ZUWAKU
100
AcDbLine
 10
57.84221335362111
 20
7.149999350478792
 30
0.0
 11
61.3422133536211
 21
7.149999350478792
 31
0.0
  0
LINE
  5
3A35
330
1A
100
AcDbEntity
  8
ZUWAKU
100
AcDbLine
 10
41.2172133536211
 20
7.149999350478792
 30
0.0
 11
42.9672133536211
 21
7.149999350478792
 31
0.0
  0
LINE
  5
3A36
330
1A
100
AcDbEntity
  8
ZUWAKU
100
AcDbLine
 10
35.67634829093696
 20
7.516905382311818
 30
0.0
 11
33.80807841630518
 21
13.43309331864575
 31
0.0
  0
ARC
  5
3A37
330
1A
100
AcDbEntity
  8
ZUWAKU
100
AcDbCircle
 10
33.30744751710983
 20
17.12499935047879
 30
0.0
 40
0.525
100
AcDbArc
 50
270.0
 51
342.4744316262769
  0
LINE
  5
3A38
330
1A
100
AcDbEntity
  8
ZUWAKU
100
AcDbLine
 10
33.30744751710983
 20
16.59999935047878
 30
0.0
 11
33.16721335362114
 21
16.59999935047878
 31
0.0
  0
LINE
  5
3A39
330
1A
100
AcDbEntity
  8
ZUWAKU
100
AcDbLine
 10
33.16721335362114
 20
13.79999935047878
 30
0.0
 11
33.30744751710983
 21
13.79999935047878
 31
0.0
  0
ARC
  5
3A3A
330
1A
100
AcDbEntity
  8
ZUWAKU
100
AcDbCircle
 10
33.16721335362114
 20
17.12499935047879
 30
0.0
 40
0.525
100
AcDbArc
 50
180.0
 51
270.0
  0
LINE
  5
3A3B
330
1A
100
AcDbEntity
  8
ZUWAKU
100
AcDbLine
 10
30.36721335362107
 20
7.149999350478792
 30
0.0
 11
32.11721335362108
 21
7.149999350478792
 31
0.0
  0
ARC
  5
3A3C
330
1A
100
AcDbEntity
  8
ZUWAKU
100
AcDbCircle
 10
32.11721335362108
 20
7.674999350478791
 30
0.0
 40
0.525
100
AcDbArc
 50
270.0
 51
0.0
  0
LINE
  5
3A3D
330
1A
100
AcDbEntity
  8
ZUWAKU
100
AcDbLine
 10
32.64221335362117
 20
7.674999350478791
 30
0.0
 11
32.64221335362117
 21
13.27499935047878
 31
0.0
  0
LINE
  5
3A3E
330
1A
100
AcDbEntity
  8
ZUWAKU
100
AcDbLine
 10
27.39221335362117
 20
9.42499935047879
 30
0.0
 11
27.39221335362117
 21
7.674999350478791
 31
0.0
  0
ARC
  5
3A3F
330
1A
100
AcDbEntity
  8
ZUWAKU
100
AcDbCircle
 10
26.86721335362108
 20
7.674999350478791
 30
0.0
 40
0.525
100
AcDbArc
 50
270.0
 51
0.0
  0
ARC
  5
3A40
330
1A
100
AcDbEntity
  8
ZUWAKU
100
AcDbCircle
 10
26.86721335362108
 20
9.42499935047879
 30
0.0
 40
0.525
100
AcDbArc
 50
0.0
 51
90.0
  0
ARC
  5
3A41
330
1A
100
AcDbEntity
  8
ZUWAKU
100
AcDbCircle
 10
30.36721335362107
 20
7.674999350478791
 30
0.0
 40
0.525
100
AcDbArc
 50
180.0
 51
270.0
  0
ARC
  5
3A42
330
1A
100
AcDbEntity
  8
ZUWAKU
100
AcDbCircle
 10
33.30744751710983
 20
13.27499935047878
 30
0.0
 40
0.525
100
AcDbArc
 50
17.52556837372303
 51
90.0
  0
ARC
  5
3A43
330
1A
100
AcDbEntity
  8
ZUWAKU
100
AcDbCircle
 10
33.16721335362114
 20
13.27499935047878
 30
0.0
 40
0.525
100
AcDbArc
 50
90.0
 51
180.0
  0
ARC
  5
3A44
330
1A
100
AcDbEntity
  8
ZUWAKU
100
AcDbCircle
 10
41.2172133536211
 20
7.674999350478791
 30
0.0
 40
0.525
100
AcDbArc
 50
180.0
 51
270.0
  0
LINE
  5
3A45
330
1A
100
AcDbEntity
  8
ZUWAKU
100
AcDbLine
 10
36.17697919013243
 20
7.149999350478792
 30
0.0
 11
37.87586856974144
 21
7.149999350478792
 31
0.0
  0
ARC
  5
3A46
330
1A
100
AcDbEntity
  8
ZUWAKU
100
AcDbCircle
 10
37.87586856974144
 20
7.674999350478791
 30
0.0
 40
0.525
100
AcDbArc
 50
270.0
 51
17.52556837372303
  0
LINE
  5
3A47
330
1A
100
AcDbEntity
  8
ZUWAKU
100
AcDbLine
 10
38.37649946893692
 20
7.833093318645765
 30
0.0
 11
36.05010809046325
 21
15.1999993504788
 31
0.0
  0
ARC
  5
3A48
330
1A
100
AcDbEntity
  8
ZUWAKU
100
AcDbCircle
 10
36.17697919013243
 20
7.674999350478791
 30
0.0
 40
0.525
100
AcDbArc
 50
197.5255683737229
 51
270.0
  0
ARC
  5
3A49
330
1A
100
AcDbEntity
  8
ZUWAKU
100
AcDbCircle
 10
57.84221335362111
 20
9.949999350478789
 30
0.0
 40
2.799999999999998
100
AcDbArc
 50
180.0
 51
270.0
  0
ARC
  5
3A4A
330
1A
100
AcDbEntity
  8
ZUWAKU
100
AcDbCircle
 10
50.14221335362117
 20
9.949999350478789
 30
0.0
 40
2.799999999999998
100
AcDbArc
 50
270.0
 51
0.0
  0
LINE
  5
3A4B
330
1A
100
AcDbEntity
  8
ZUWAKU
100
AcDbLine
 10
51.71206183460469
 20
14.73504985681761
 30
0.0
 11
48.80226385995992
 21
17.64484783146228
 31
0.0
  0
LINE
  5
3A4C
330
1A
100
AcDbEntity
  8
ZUWAKU
100
AcDbLine
 10
50.14221335362117
 20
10.47499935047879
 30
0.0
 11
50.14221335362117
 21
11.76520137583413
 31
0.0
  0
ARC
  5
3A4D
330
1A
100
AcDbEntity
  8
ZUWAKU
100
AcDbCircle
 10
48.74221335362108
 20
11.76520137583413
 30
0.0
 40
1.399999999999999
100
AcDbArc
 50
0.0
 51
45.0
  0
ARC
  5
3A4E
330
1A
100
AcDbEntity
  8
ZUWAKU
100
AcDbCircle
 10
49.61721335362108
 20
10.47499935047879
 30
0.0
 40
0.525
100
AcDbArc
 50
270.0
 51
0.0
  0
LINE
  5
3A4F
330
1A
100
AcDbEntity
  8
ZUWAKU
100
AcDbLine
 10
46.11721335362108
 20
7.674999350478791
 30
0.0
 11
46.11721335362108
 21
9.42499935047879
 31
0.0
  0
ARC
  5
3A50
330
1A
100
AcDbEntity
  8
ZUWAKU
100
AcDbCircle
 10
46.64221335362117
 20
7.674999350478791
 30
0.0
 40
0.525
100
AcDbArc
 50
180.0
 51
270.0
  0
ARC
  5
3A51
330
1A
100
AcDbEntity
  8
ZUWAKU
100
AcDbCircle
 10
42.9672133536211
 20
7.674999350478791
 30
0.0
 40
0.525
100
AcDbArc
 50
270.0
 51
0.0
  0
ARC
  5
3A52
330
1A
100
AcDbEntity
  8
ZUWAKU
100
AcDbCircle
 10
46.64221335362117
 20
9.42499935047879
 30
0.0
 40
0.525
100
AcDbArc
 50
90.0
 51
180.0
  0
LINE
  5
3A53
330
1A
100
AcDbEntity
  8
ZUWAKU
100
AcDbLine
 10
46.64221335362117
 20
9.949999350478789
 30
0.0
 11
49.61721335362108
 21
9.949999350478789
 31
0.0
  0
LINE
  5
3A54
330
1A
100
AcDbEntity
  8
ZUWAKU
100
AcDbLine
 10
46.64221335362117
 20
7.149999350478792
 30
0.0
 11
50.14221335362117
 21
7.149999350478792
 31
0.0
  0
LINE
  5
3A55
330
1A
100
AcDbEntity
  8
ZUWAKU
100
AcDbLine
 10
46.82236487263764
 20
15.66494884413996
 30
0.0
 11
49.73216284728231
 21
12.7551508694953
 31
0.0
  0
LINE
  5
3A56
330
1A
100
AcDbEntity
  8
ZUWAKU
100
AcDbLine
 10
52.94221335362112
 20
9.949999350478789
 30
0.0
 11
52.94221335362112
 21
11.76520137583413
 31
0.0
  0
ARC
  5
3A57
330
1A
100
AcDbEntity
  8
ZUWAKU
100
AcDbCircle
 10
48.74221335362108
 20
11.76520137583409
 30
0.0
 40
4.199999999999998
100
AcDbArc
 50
0.0
 51
45.0
  0
ARC
  5
3A58
330
1A
100
AcDbEntity
  8
ZUWAKU
100
AcDbCircle
 10
58.89221335362117
 20
10.99999935047878
 30
0.0
 40
1.049999999999998
100
AcDbArc
 50
180.0
 51
270.0
  0
ARC
  5
3A59
330
1A
100
AcDbEntity
  8
ZUWAKU
100
AcDbCircle
 10
61.3422133536211
 20
9.949999350478789
 30
0.0
 40
2.799999999999998
100
AcDbArc
 50
270.0
 51
0.0
  0
LINE
  5
3A5A
330
1A
100
AcDbEntity
  8
ZUWAKU
100
AcDbLine
 10
66.76721335362117
 20
7.149999350478792
 30
0.0
 11
68.51721335362118
 21
7.149999350478792
 31
0.0
  0
ARC
  5
3A5B
330
1A
100
AcDbEntity
  8
ZUWAKU
100
AcDbCircle
 10
66.76721335362117
 20
7.674999350478791
 30
0.0
 40
0.525
100
AcDbArc
 50
180.0
 51
270.0
  0
ARC
  5
3A5C
330
1A
100
AcDbEntity
  8
ZUWAKU
100
AcDbCircle
 10
60.29221335362114
 20
10.99999935047878
 30
0.0
 40
1.049999999999998
100
AcDbArc
 50
270.0
 51
0.0
  0
ARC
  5
3A5D
330
1A
100
AcDbEntity
  8
ZUWAKU
100
AcDbCircle
 10
68.51721335362118
 20
7.674999350478791
 30
0.0
 40
0.525
100
AcDbArc
 50
270.0
 51
0.0
  0
LINE
  5
3A5E
330
1A
100
AcDbEntity
  8
ZUWAKU
100
AcDbLine
 10
42.9672133536211
 20
23.24999935047878
 30
0.0
 11
41.2172133536211
 21
23.24999935047878
 31
0.0
  0
ARC
  5
3A5F
330
1A
100
AcDbEntity
  8
ZUWAKU
100
AcDbCircle
 10
32.11721335362108
 20
22.72499935047878
 30
0.0
 40
0.525
100
AcDbArc
 50
0.0
 51
90.0
  0
LINE
  5
3A60
330
1A
100
AcDbEntity
  8
ZUWAKU
100
AcDbLine
 10
32.11721335362108
 20
23.24999935047878
 30
0.0
 11
30.36721335362107
 21
23.24999935047878
 31
0.0
  0
ARC
  5
3A61
330
1A
100
AcDbEntity
  8
ZUWAKU
100
AcDbCircle
 10
26.86721335362108
 20
22.72499935047878
 30
0.0
 40
0.525
100
AcDbArc
 50
0.0
 51
90.0
  0
ARC
  5
3A62
330
1A
100
AcDbEntity
  8
ZUWAKU
100
AcDbCircle
 10
30.36721335362107
 20
22.72499935047878
 30
0.0
 40
0.525
100
AcDbArc
 50
90.0
 51
180.0
  0
ARC
  5
3A63
330
1A
100
AcDbEntity
  8
ZUWAKU
100
AcDbCircle
 10
26.86721335362108
 20
20.97499935047878
 30
0.0
 40
0.525
100
AcDbArc
 50
270.0
 51
0.0
  0
LINE
  5
3A64
330
1A
100
AcDbEntity
  8
ZUWAKU
100
AcDbLine
 10
27.39221335362117
 20
22.72499935047878
 30
0.0
 11
27.39221335362117
 21
20.97499935047878
 31
0.0
  0
ARC
  5
3A65
330
1A
100
AcDbEntity
  8
ZUWAKU
100
AcDbCircle
 10
41.2172133536211
 20
22.72499935047878
 30
0.0
 40
0.525
100
AcDbArc
 50
90.0
 51
180.0
  0
LINE
  5
3A66
330
1A
100
AcDbEntity
  8
ZUWAKU
100
AcDbLine
 10
36.17697919013243
 20
23.24999935047878
 30
0.0
 11
37.87586856974144
 21
23.24999935047878
 31
0.0
  0
ARC
  5
3A67
330
1A
100
AcDbEntity
  8
ZUWAKU
100
AcDbCircle
 10
37.87586856974144
 20
22.72499935047878
 30
0.0
 40
0.525
100
AcDbArc
 50
342.4744316262769
 51
90.0
  0
LINE
  5
3A68
330
1A
100
AcDbEntity
  8
ZUWAKU
100
AcDbLine
 10
38.37649946893692
 20
22.56690538231182
 30
0.0
 11
37.3148598357991
 21
19.20504654404221
 31
0.0
  0
ARC
  5
3A69
330
1A
100
AcDbEntity
  8
ZUWAKU
100
AcDbCircle
 10
36.17697919013243
 20
22.72499935047878
 30
0.0
 40
0.525
100
AcDbArc
 50
90.0
 51
162.4744316262769
  0
LINE
  5
3A6A
330
1A
100
AcDbEntity
  8
ZUWAKU
100
AcDbLine
 10
48.39221335362116
 20
23.24999935047878
 30
0.0
 11
51.89221335362117
 21
23.24999935047878
 31
0.0
  0
LINE
  5
3A6B
330
1A
100
AcDbEntity
  8
ZUWAKU
100
AcDbLine
 10
51.89221335362117
 20
20.44999935047878
 30
0.0
 11
48.91721335362114
 21
20.44999935047878
 31
0.0
  0
ARC
  5
3A6C
330
1A
100
AcDbEntity
  8
ZUWAKU
100
AcDbCircle
 10
48.91721335362114
 20
19.92499935047878
 30
0.0
 40
0.525
100
AcDbArc
 50
90.0
 51
180.0
  0
LINE
  5
3A6D
330
1A
100
AcDbEntity
  8
ZUWAKU
100
AcDbLine
 10
48.39221335362116
 20
19.92499935047878
 30
0.0
 11
48.39221335362116
 21
18.63479732512344
 31
0.0
  0
ARC
  5
3A6E
330
1A
100
AcDbEntity
  8
ZUWAKU
100
AcDbCircle
 10
42.9672133536211
 20
22.72499935047878
 30
0.0
 40
0.525
100
AcDbArc
 50
0.0
 51
90.0
  0
LINE
  5
3A6F
330
1A
100
AcDbEntity
  8
ZUWAKU
100
AcDbLine
 10
45.5922133536211
 20
20.44999935047878
 30
0.0
 11
45.5922133536211
 21
18.63479732512344
 31
0.0
  0
ARC
  5
3A70
330
1A
100
AcDbEntity
  8
ZUWAKU
100
AcDbCircle
 10
48.39221335362116
 20
20.44999935047878
 30
0.0
 40
2.799999999999998
100
AcDbArc
 50
90.0
 51
180.0
  0
ARC
  5
3A71
330
1A
100
AcDbEntity
  8
ZUWAKU
100
AcDbCircle
 10
57.31721335362112
 20
22.72499935047878
 30
0.0
 40
0.525
100
AcDbArc
 50
0.0
 51
90.0
  0
ARC
  5
3A72
330
1A
100
AcDbEntity
  8
ZUWAKU
100
AcDbCircle
 10
55.56721335362112
 20
22.72499935047878
 30
0.0
 40
0.525
100
AcDbArc
 50
90.0
 51
180.0
  0
LINE
  5
3A73
330
1A
100
AcDbEntity
  8
ZUWAKU
100
AcDbLine
 10
57.31721335362112
 20
23.24999935047878
 30
0.0
 11
55.56721335362112
 21
23.24999935047878
 31
0.0
  0
ARC
  5
3A74
330
1A
100
AcDbEntity
  8
ZUWAKU
100
AcDbCircle
 10
51.89221335362117
 20
22.72499935047878
 30
0.0
 40
0.525
100
AcDbArc
 50
0.0
 51
90.0
  0
ARC
  5
3A75
330
1A
100
AcDbEntity
  8
ZUWAKU
100
AcDbCircle
 10
51.89221335362117
 20
20.97499935047878
 30
0.0
 40
0.525
100
AcDbArc
 50
270.0
 51
0.0
  0
LINE
  5
3A76
330
1A
100
AcDbEntity
  8
ZUWAKU
100
AcDbLine
 10
52.41721335362115
 20
22.72499935047878
 30
0.0
 11
52.41721335362115
 21
20.97499935047878
 31
0.0
  0
LINE
  5
3A77
330
1A
100
AcDbEntity
  8
ZUWAKU
100
AcDbLine
 10
68.51721335362118
 20
23.24999935047878
 30
0.0
 11
66.76721335362117
 21
23.24999935047878
 31
0.0
  0
ARC
  5
3A78
330
1A
100
AcDbEntity
  8
ZUWAKU
100
AcDbCircle
 10
66.76721335362117
 20
22.72499935047878
 30
0.0
 40
0.525
100
AcDbArc
 50
90.0
 51
180.0
  0
ARC
  5
3A79
330
1A
100
AcDbEntity
  8
ZUWAKU
100
AcDbCircle
 10
63.61721335362108
 20
22.72499935047878
 30
0.0
 40
0.525
100
AcDbArc
 50
0.0
 51
90.0
  0
LINE
  5
3A7A
330
1A
100
AcDbEntity
  8
ZUWAKU
100
AcDbLine
 10
63.61721335362108
 20
23.24999935047878
 30
0.0
 11
61.86721335362108
 21
23.24999935047878
 31
0.0
  0
ARC
  5
3A7B
330
1A
100
AcDbEntity
  8
ZUWAKU
100
AcDbCircle
 10
61.86721335362108
 20
22.72499935047878
 30
0.0
 40
0.525
100
AcDbArc
 50
90.0
 51
180.0
  0
ARC
  5
3A7C
330
1A
100
AcDbEntity
  8
ZUWAKU
100
AcDbCircle
 10
68.51721335362118
 20
22.72499935047878
 30
0.0
 40
0.525
100
AcDbArc
 50
0.0
 51
90.0
  0
TEXT
  5
3A7D
330
1A
100
AcDbEntity
  8
MOJI
100
AcDbText
 10
239.8272038796909
 20
18.00492040788617
 30
0.0
 40
5.599999999999998
  1
ブラケット正面打（吊）固定式
 41
0.9
  7
ｽﾀｲﾙ1
100
AcDbText
  0
TEXT
  5
3A7E
330
1A
100
AcDbEntity
  8
MOJI
100
AcDbText
 10
239.8272038796909
 20
3.204920407886209
 30
0.0
 40
5.599999999999998
  1
１２０－５－３０
 41
0.9
  7
ｽﾀｲﾙ1
100
AcDbText
  0
LINE
  5
3A7F
330
1A
100
AcDbEntity
  8
ZUWAKU
100
AcDbLine
 10
208.2466024889078
 20
29.99999935047878
 30
0.0
 11
208.2466024889078
 21
0.7999993504788563
 31
0.0
  0
LINE
  5
3A80
330
1A
100
AcDbEntity
  8
ZUWAKU
100
AcDbLine
 10
208.6466024889077
 20
29.99999935047878
 30
0.0
 11
208.6466024889079
 21
0.7999993504788563
 31
0.0
  0
LINE
  5
3A81
330
1A
100
AcDbEntity
  8
ZUWAKU
100
AcDbLine
 10
208.4466024889076
 20
29.99999935047878
 30
0.0
 11
208.4466024889079
 21
0.7999993504788563
 31
0.0
  0
TEXT
  5
3A82
330
1A
100
AcDbEntity
  8
ZUWAKU
100
AcDbText
 10
209.7240475111174
 20
9.655355888864406
 30
0.0
 40
4.0
  1
サイズ
 41
0.9
  7
ｽﾀｲﾙ1
100
AcDbText
  0
TEXT
  5
3A83
330
1A
100
AcDbEntity
  8
ZUWAKU
100
AcDbText
 10
209.7240475111172
 20
24.05535588886436
 30
0.0
 40
4.0
  1
品名
 41
0.9
  7
ｽﾀｲﾙ1
100
AcDbText
  0
LINE
  5
3A84
330
1A
100
AcDbEntity
  8
ZUWAKU
100
AcDbLine
 10
648.8172037090442
 20
15.19999935047881
 30
0.0
 11
697.2490117473812
 21
15.19999935047881
 31
0.0
  0
LINE
  5
3A85
330
1A
100
AcDbEntity
  8
ZUWAKU
100
AcDbLine
 10
648.8172037090443
 20
15.39999935047882
 30
0.0
 11
697.2490117473812
 21
15.39999935047881
 31
0.0
  0
LINE
  5
3A86
330
1A
100
AcDbEntity
  8
ZUWAKU
100
AcDbLine
 10
648.8172037090442
 20
15.59999935047881
 30
0.0
 11
697.2490117473812
 21
15.59999935047881
 31
0.0
  0
TEXT
  5
3A87
330
1A
100
AcDbEntity
  8
ZUWAKU
100
AcDbText
 10
654.5120771985268
 20
18.00492040788617
 30
0.0
 40
5.599999999999998
  1
　　．　．　　
 41
0.9
  7
ｽﾀｲﾙ1
100
AcDbText
  0
LINE
  5
3A88
330
1A
100
AcDbEntity
  8
ZUWAKU
100
AcDbLine
 10
505.1991806969807
 20
15.19999935047882
 30
0.0
 11
552.5269569649524
 21
15.19999935047882
 31
0.0
  0
LINE
  5
3A89
330
1A
100
AcDbEntity
  8
ZUWAKU
100
AcDbLine
 10
505.1991806969807
 20
15.39999935047881
 30
0.0
 11
552.5269569649524
 21
15.39999935047881
 31
0.0
  0
LINE
  5
3A8A
330
1A
100
AcDbEntity
  8
ZUWAKU
100
AcDbLine
 10
505.1991806969807
 20
15.59999935047881
 30
0.0
 11
552.5269569649524
 21
15.59999935047881
 31
0.0
  0
LINE
  5
3A8B
330
1A
100
AcDbEntity
  8
ZUWAKU
100
AcDbLine
 10
447.6243651698311
 20
29.99999935047878
 30
0.0
 11
447.6243651698313
 21
0.7999993504788563
 31
0.0
  0
LINE
  5
3A8C
330
1A
100
AcDbEntity
  8
ZUWAKU
100
AcDbLine
 10
447.8243651698311
 20
29.99999935047878
 30
0.0
 11
447.8243651698314
 21
0.7999993504788563
 31
0.0
  0
LINE
  5
3A8D
330
1A
100
AcDbEntity
  8
ZUWAKU
100
AcDbLine
 10
447.4243651698313
 20
29.99999935047878
 30
0.0
 11
447.4243651698313
 21
0.7999993504788563
 31
0.0
  0
TEXT
  5
3A8E
330
1A
100
AcDbEntity
  8
MOJI
100
AcDbText
 10
528.0409091711528
 20
18.00492040788617
 30
0.0
 40
5.599999999999998
  1
Ａ３
 41
0.9
  7
ｽﾀｲﾙ1
100
AcDbText
  0
LINE
  5
3A8F
330
1A
100
AcDbEntity
  8
ZUWAKU
100
AcDbLine
 10
504.9991806969808
 20
29.99999935047878
 30
0.0
 11
504.9991806969809
 21
0.7999993504788563
 31
0.0
  0
LINE
  5
3A90
330
1A
100
AcDbEntity
  8
ZUWAKU
100
AcDbLine
 10
505.1991806969807
 20
29.99999935047878
 30
0.0
 11
505.1991806969811
 21
0.7999993504788563
 31
0.0
  0
LINE
  5
3A91
330
1A
100
AcDbEntity
  8
ZUWAKU
100
AcDbLine
 10
504.7991806969809
 20
29.99999935047878
 30
0.0
 11
504.7991806969809
 21
0.7999993504788563
 31
0.0
  0
TEXT
  5
3A92
330
1A
100
AcDbEntity
  8
MOJI
100
AcDbText
 10
463.2464331898419
 20
11.94261707213876
 30
0.0
 40
5.599999999999998
  1
ＬＬ６８Ｔ
 41
0.9
  7
ｽﾀｲﾙ1
100
AcDbText
  0
TEXT
  5
3A93
330
1A
100
AcDbEntity
  8
ZUWAKU
100
AcDbText
 10
506.6766257191907
 20
9.655355888864406
 30
0.0
 40
4.0
  1
縮尺
 41
0.9
  7
ｽﾀｲﾙ1
100
AcDbText
  0
TEXT
  5
3A94
330
1A
100
AcDbEntity
  8
MOJI
100
AcDbText
 10
528.0409091711528
 20
3.204920407886209
 30
0.0
 40
5.599999999999998
  1
１/２
 41
0.9
  7
ｽﾀｲﾙ1
100
AcDbText
  0
TEXT
  5
3A95
330
1A
100
AcDbEntity
  8
ZUWAKU
100
AcDbText
 10
449.3018101920409
 20
24.05535588886436
 30
0.0
 40
4.0
  1
品番
 41
0.9
  7
ｽﾀｲﾙ1
100
AcDbText
  0
TEXT
  5
3A96
330
1A
100
AcDbEntity
  8
ZUWAKU
100
AcDbText
 10
506.6766257191904
 20
24.05535588886436
 30
0.0
 40
4.0
  1
用紙
 41
0.9
  7
ｽﾀｲﾙ1
100
AcDbText
  0
LINE
  5
3A97
330
1A
100
AcDbEntity
  8
ZUWAKU
100
AcDbLine
 10
648.6172037090441
 20
29.99999935047878
 30
0.0
 11
648.6172037090446
 21
0.7999993504788563
 31
0.0
  0
LINE
  5
3A98
330
1A
100
AcDbEntity
  8
ZUWAKU
100
AcDbLine
 10
648.8172037090443
 20
29.99999935047878
 30
0.0
 11
648.8172037090447
 21
0.7999993504788563
 31
0.0
  0
LINE
  5
3A99
330
1A
100
AcDbEntity
  8
ZUWAKU
100
AcDbLine
 10
648.4172037090445
 20
29.99999935047878
 30
0.0
 11
648.4172037090445
 21
0.7999993504788563
 31
0.0
  0
LINE
  5
3A9A
330
1A
100
AcDbEntity
  8
ZUWAKU
100
AcDbLine
 10
552.7269569649523
 20
29.99999935047878
 30
0.0
 11
552.7269569649523
 21
0.7999993504788563
 31
0.0
  0
LINE
  5
3A9B
330
1A
100
AcDbEntity
  8
ZUWAKU
100
AcDbLine
 10
552.9269569649523
 20
29.99999935047878
 30
0.0
 11
552.9269569649524
 21
0.7999993504788563
 31
0.0
  0
LINE
  5
3A9C
330
1A
100
AcDbEntity
  8
ZUWAKU
100
AcDbLine
 10
552.5269569649524
 20
29.99999935047878
 30
0.0
 11
552.5269569649524
 21
0.7999993504788563
 31
0.0
  0
TEXT
  5
3A9D
330
1A
100
AcDbEntity
  8
ZUWAKU
100
AcDbText
 10
650.2946487312539
 20
24.05535588886436
 30
0.0
 40
4.0
  1
DATE
 41
0.9
  7
ｽﾀｲﾙ1
100
AcDbText
  0
LINE
  5
3A9E
330
1A
100
AcDbEntity
  8
ZUWAKU
100
AcDbLine
 10
697.2490117473812
 20
29.99999935047878
 30
0.0
 11
697.2490117473812
 21
0.7999993504788563
 31
0.0
  0
LINE
  5
3A9F
330
1A
100
AcDbEntity
  8
ZUWAKU
100
AcDbLine
 10
697.4490117473813
 20
29.99999935047878
 30
0.0
 11
697.4490117473813
 21
0.7999993504788563
 31
0.0
  0
LINE
  5
3AA0
330
1A
100
AcDbEntity
  8
ZUWAKU
100
AcDbLine
 10
697.6490117473811
 20
29.99999935047878
 30
0.0
 11
697.6490117473813
 21
0.7999993504788563
 31
0.0
  0
LINE
  5
3AA1
330
1A
100
AcDbEntity
  8
ZUWAKU
100
AcDbLine
 10
697.8490117473812
 20
29.99999935047878
 30
0.0
 11
697.8490117473812
 21
0.7999993504788563
 31
0.0
  0
TEXT
  5
3AA2
330
1A
100
AcDbEntity
  8
ZUWAKU
100
AcDbText
 10
708.5280853910837
 20
17.55383868616558
 30
0.0
 40
6.0
  1
積水化学工業株式会社
 41
0.9
  7
ｽﾀｲﾙ1
100
AcDbText
  0
TEXT
  5
3AA3
330
1A
100
AcDbEntity
  8
ZUWAKU
100
AcDbText
 10
708.5280853910837
 20
6.648839664332853
 30
0.0
 40
6.0
  1
建材事業部
 41
0.9
  7
ｽﾀｲﾙ1
100
AcDbText
  0
ELLIPSE
  5
3AAA
330
1A
100
AcDbEntity
  8
SEIHIN
100
AcDbEllipse
 10
428.5300545239891
 20
381.5488531587184
 30
0.0
 11
0.030404244925883
 21
5.775061517835979
 31
0.0
210
0.0
220
0.0
230
1.0
 40
0.4025516319906965
 41
0.1755727945437719
 42
1.572915656615399
  0
LWPOLYLINE
  5
3AAB
330
1A
100
AcDbEntity
  8
SEIHIN
100
AcDbPolyline
 90
        2
 70
   128
 43
0.0
 10
426.2052348694601
 20
381.5488531587185
 10
405.3534481634862
 20
381.5488531587188
  0
ELLIPSE
  5
3AAC
330
1A
100
AcDbEntity
  8
SEIHIN
100
AcDbEllipse
 10
427.3946545239891
 20
381.5488531587185
 30
0.0
 11
0.030404244925883
 21
5.775061517835979
 31
0.0
210
0.0
220
0.0
230
1.0
 40
0.4025516319906965
 41
0.1755727945437719
 42
1.572915656615399
  0
ARC
  5
3AAE
330
1A
100
AcDbEntity
  8
SEIHIN
100
AcDbCircle
 10
381.3281621263247
 20
229.0101999932469
 30
0.0
 40
8.000000000276386
100
AcDbArc
 50
29.64612304866498
 51
89.99999999946629
  0
ARC
  5
3AAF
330
1A
100
AcDbEntity
  8
SEIHIN
100
AcDbCircle
 10
379.2573506112993
 20
210.510199993523
 30
0.0
 40
30.00000000000026
100
AcDbArc
 50
90.00000293392607
 51
134.405260145298
  0
ARC
  5
3AB0
330
1A
100
AcDbEntity
  8
SEIHIN
100
AcDbCircle
 10
379.2573506112992
 20
210.5101999935231
 30
0.0
 40
26.50000000000016
100
AcDbArc
 50
90.0000033273019
 51
134.4052601452978
  0
ARC
  5
3AB1
330
1A
100
AcDbEntity
  8
SEIHIN
100
AcDbCircle
 10
268.0500491814469
 20
219.974500224883
 30
0.0
 40
13.4999999997403
100
AcDbArc
 50
48.26575860563998
 51
90.00000000020287
  0
ARC
  5
3AB2
330
1A
100
AcDbEntity
  8
SEIHIN
100
AcDbCircle
 10
271.0068998780993
 20
217.474500224623
 30
0.0
 40
10.00000000000019
100
AcDbArc
 50
51.30559686789974
 51
89.99999999999969
  0
ARC
  5
3AB4
330
1A
100
AcDbEntity
  8
SEIHIN
100
AcDbCircle
 10
254.781407677782
 20
239.97450022459
 30
0.0
 40
0.5000000000332534
100
AcDbArc
 50
340.7099537855448
 51
89.99999999802957
  0
ARC
  5
3AB5
330
1A
100
AcDbEntity
  8
SEIHIN
100
AcDbCircle
 10
263.1361481802991
 20
226.4745002246232
 30
0.0
 40
0.9999999999999431
100
AcDbArc
 50
89.99999999999671
 51
180.0
  0
ARC
  5
3AB6
330
1A
100
AcDbEntity
  8
SEIHIN
100
AcDbCircle
 10
276.2278386067757
 20
199.6745002251445
 30
0.0
 40
13.49999999947876
100
AcDbArc
 50
56.57580842661841
 51
90.00000242202315
  0
ARC
  5
3AB7
330
1A
100
AcDbEntity
  8
SEIHIN
100
AcDbCircle
 10
276.2278386067756
 20
199.6745002251447
 30
0.0
 40
9.999999999478612
100
AcDbArc
 50
56.57581184809711
 51
89.99999502200758
  0
ARC
  5
3AB8
330
1A
100
AcDbEntity
  8
SEIHIN
100
AcDbCircle
 10
347.8361481802993
 20
308.1745002246236
 30
0.0
 40
116.5000000000004
100
AcDbArc
 50
236.5758103176015
 51
269.9999985869013
  0
ARC
  5
3AB9
330
1A
100
AcDbEntity
  8
SEIHIN
100
AcDbCircle
 10
347.8361481802992
 20
308.1745002246233
 30
0.0
 40
119.9999999999999
100
AcDbArc
 50
236.575810628901
 51
269.9999985406015
  0
ARC
  5
3ABA
330
1A
100
AcDbEntity
  8
SEIHIN
100
AcDbCircle
 10
371.9701227765992
 20
193.6745002246233
 30
0.0
 40
0.5
100
AcDbArc
 50
330.0000149929029
 51
89.99999999999351
  0
ARC
  5
3ABB
330
1A
100
AcDbEntity
  8
SEIHIN
100
AcDbCircle
 10
373.2279193915993
 20
206.1745002246231
 30
0.0
 40
5.000000000000142
100
AcDbArc
 50
90.00000000000129
 51
165.0000045756989
  0
ARC
  5
3ABC
330
1A
100
AcDbEntity
  8
SEIHIN
100
AcDbCircle
 10
373.2279193915991
 20
206.1745002246233
 30
0.0
 40
8.499999999999991
100
AcDbArc
 50
90.00000388069851
 51
164.999996247799
  0
ARC
  5
3ABD
330
1A
100
AcDbEntity
  8
SEIHIN
100
AcDbCircle
 10
385.8361481802995
 20
189.3883504191231
 30
0.0
 40
3.000000000000326
100
AcDbArc
 50
140.1944236084028
 51
179.9999999999983
  0
ARC
  5
3ABE
330
1A
100
AcDbEntity
  8
SEIHIN
100
AcDbCircle
 10
381.9272482088945
 20
200.006175203033
 30
0.0
 40
3.000000000135075
100
AcDbArc
 50
3.532294585737141
 51
53.13010235359082
  0
ARC
  5
3ABF
330
1A
100
AcDbEntity
  8
SEIHIN
100
AcDbCircle
 10
379.5426806333991
 20
206.1745002246233
 30
0.0
 40
8.499999999999992
100
AcDbArc
 50
3.532294583899914
 51
90.0
  0
ARC
  5
3AC2
330
1A
100
AcDbEntity
  8
SEIHIN
100
AcDbCircle
 10
379.5426806334554
 20
206.1745002247654
 30
0.0
 40
4.999999999857966
100
AcDbArc
 50
3.532294582813614
 51
90.00000000064423
  0
ARC
  5
3AC3
330
1A
100
AcDbEntity
  8
SEIHIN
100
AcDbCircle
 10
377.8361481802992
 20
208.1745002246232
 30
0.0
 40
3.00000000000009
100
AcDbArc
 50
0.0000085370720701
 51
89.99999999999893
  0
LINE
  5
3AC9
330
1A
100
AcDbEntity
  8
SUNPOU
100
AcDbLine
 10
601.4062070825824
 20
323.2656875305603
 30
0.0
 11
598.8756635246068
 21
316.6356452673241
 31
0.0
  0
LINE
  5
3ACA
330
1A
100
AcDbEntity
  8
SUNPOU
100
AcDbLine
 10
598.8756635246068
 20
316.6356452673241
 30
0.0
 11
599.1191369670477
 21
323.7280236972964
 31
0.0
  0
LINE
  5
3ACB
330
1A
100
AcDbEntity
  8
SUNPOU
100
AcDbLine
 10
598.8756635246068
 20
316.6356452673241
 30
0.0
 11
600.2626720248151
 21
323.4968556139284
 31
0.0
  0
LINE
  5
3ACC
330
1A
100
AcDbEntity
  8
SUNPOU
100
AcDbLine
 10
600.2626720248151
 20
323.4968556139284
 30
0.0
 11
607.3391694157835
 21
358.5026519802387
 31
0.0
1001
ACAD
1000
DSTYLE
1002
{
1070
     6
1000
OPEN
1070
    41
1040
7.0
1070
    42
1040
6.0
1070
    43
1040
14.0
1070
    44
1040
3.0
1070
    73
1070
     0
1070
    74
1070
     0
1070
    77
1070
     0
1070
   140
1040
6.0
1070
   141
1040
150.0
1070
   147
1040
2.0
1070
   172
1070
     1
1070
   173
1070
     1
1070
   176
1070
     4
1070
   177
1070
     4
1070
   178
1070
     4
1070
   271
1070
     0
1070
   272
1070
     0
1070
   341
1005
6D
1070
   343
1005
6D
1070
   344
1005
6D
1002
}
  0
LINE
  5
3ACD
330
1A
100
AcDbEntity
  8
SUNPOU
100
AcDbLine
 10
607.3391694157835
 20
358.5026519802387
 30
0.0
 11
642.3118348827338
 21
358.5026519802387
 31
0.0
1001
ACAD
1000
DSTYLE
1002
{
1070
     6
1000
OPEN
1070
    41
1040
7.0
1070
    42
1040
6.0
1070
    43
1040
14.0
1070
    44
1040
3.0
1070
    73
1070
     0
1070
    74
1070
     0
1070
    77
1070
     0
1070
   140
1040
6.0
1070
   141
1040
150.0
1070
   147
1040
2.0
1070
   172
1070
     1
1070
   173
1070
     1
1070
   176
1070
     4
1070
   177
1070
     4
1070
   178
1070
     4
1070
   271
1070
     0
1070
   272
1070
     0
1070
   341
1005
6D
1070
   343
1005
6D
1070
   344
1005
6D
1002
}
  0
VIEWPORT
  5
22
330
17
100
AcDbEntity
 67
     1
  8
0
100
AcDbViewport
 10
313.6808219178082
 20
148.5
 30
0.0
 40
627.3616438356165
 41
297.0
 68
     2
 69
     1
1001
ACAD
1000
MVIEW
1002
{
1070
    16
1010
0.0
1020
0.0
1030
0.0
1010
0.0
1020
0.0
1030
1.0
1040
0.0
1040
297.0
1040
313.6808219178082
1040
148.5
1040
50.0
1040
0.0
1040
0.0
1070
     0
1070
   100
1070
     1
1070
     0
1070
     0
1070
     0
1070
     0
1070
     0
1040
0.0
1040
0.0
1040
0.0
1040
1.0
1040
1.0
1040
10.0
1040
10.0
1070
     0
1002
{
1002
}
1002
}
  0
VIEWPORT
  5
64
330
17
100
AcDbEntity
 67
     1
  8
VIEWPORT
100
AcDbViewport
 10
210.0
 20
148.5
 30
0.0
 40
420.0
 41
297.0
 68
     1
 69
     2
1001
ACAD
1000
MVIEW
1002
{
1070
    16
1010
0.0
1020
0.0
1030
0.0
1010
0.0
1020
0.0
1030
1.0
1040
0.0
1040
605.8799999999998
1040
420.0
1040
297.0
1040
50.0
1040
0.0
1040
0.0
1070
     0
1070
   100
1070
     1
1070
     0
1070
     0
1070
     0
1070
     0
1070
     0
1040
0.0
1040
0.0
1040
0.0
1040
10.0
1040
10.0
1040
0.0
1040
0.0
1070
     0
1002
{
1002
}
1002
}
  0
ENDSEC
  0
SECTION
  2
OBJECTS
  0
DICTIONARY
  5
C
330
0
100
AcDbDictionary
  3
ACAD_GROUP
350
D
  3
ACAD_LAYOUT
350
2827
  3
ACAD_MLINESTYLE
350
E
  3
ACAD_PLOTSETTINGS
350
2828
  3
ACAD_PLOTSTYLENAME
350
2825
  3
ACDBHEADERROUNDTRIPXREC
350
3ACF
  0
DICTIONARY
  5
2B18
330
1A
100
AcDbDictionary
280
     1
  3
ACAD_LAYOUTSELFREF
360
3AF1
  0
DICTIONARY
  5
2B16
330
17
100
AcDbDictionary
280
     1
  3
ACAD_LAYOUTSELFREF
360
3AF0
  0
DICTIONARY
  5
D
102
{ACAD_REACTORS
330
C
102
}
330
C
100
AcDbDictionary
  0
DICTIONARY
  5
2827
102
{ACAD_REACTORS
330
C
102
}
330
C
100
AcDbDictionary
  0
DICTIONARY
  5
E
102
{ACAD_REACTORS
330
C
102
}
330
C
100
AcDbDictionary
  3
STANDARD
350
13
  0
DICTIONARY
  5
2828
102
{ACAD_REACTORS
330
C
102
}
330
C
100
AcDbDictionary
  0
ACDBDICTIONARYWDFLT
  5
2825
102
{ACAD_REACTORS
330
C
102
}
330
C
100
AcDbDictionary
281
     1
  3
Normal
350
2826
100
AcDbDictionaryWithDefault
340
2826
1001
ACAD
1000
TREAT_AS_HARD
1070
     0
1000
TREAT_AS_HARD
1070
     0
  0
DICTIONARY
  5
3ACF
102
{ACAD_REACTORS
330
C
102
}
330
C
100
AcDbDictionary
  3
TSTACKALIGN
350
3AD0
  3
TSTACKSIZE
350
3AD1
  3
HYPERLINKBASE
350
3AD2
  3
STYLESHEET
350
3AD3
  3
LAYOUTDICT
350
3AD4
  3
PLOTSETDICT
350
3AD5
  3
PLOTSTYLNAMDICT
350
3AD6
  3
LWETCUNION
350
3AD7
  3
INSUNITS
350
3AD8
  3
CEPSNTYPE
350
3AD9
  3
FINGERPRINTGUID
350
3ADA
  3
VERSIONGUID
350
3ADB
  3
PSVPSCALE
350
3ADC
  3
DIMSTYLEDATA
350
3ADD
  3
PUCSORTHOREF
350
3ADE
  3
PUCSORTHOVIEW
350
3ADF
  3
PUCSBASE
350
3AE0
  3
PUCSORGTOP
350
3AE1
  3
PUCSORGBOTTOM
350
3AE2
  3
PUCSORGLEFT
350
3AE3
  3
PUCSORGRIGHT
350
3AE4
  3
PUCSORGFRONT
350
3AE5
  3
PUCSORGBACK
350
3AE6
  3
UCSORTHOREF
350
3AE7
  3
UCSORTHOVIEW
350
3AE8
  3
UCSBASE
350
3AE9
  3
UCSORGTOP
350
3AEA
  3
UCSORGBOTTOM
350
3AEB
  3
UCSORGLEFT
350
3AEC
  3
UCSORGRIGHT
350
3AED
  3
UCSORGFRONT
350
3AEE
  3
UCSORGBACK
350
3AEF
  0
XRECORD
  5
3AF1
102
{ACAD_REACTORS
330
2B18
102
}
330
2B18
100
AcDbXrecord
340
1A
  0
XRECORD
  5
3AF0
102
{ACAD_REACTORS
330
2B16
102
}
330
2B16
100
AcDbXrecord
340
17
  0
MLINESTYLE
  5
13
102
{ACAD_REACTORS
330
E
102
}
330
E
100
AcDbMlineStyle
  2
STANDARD
 70
     0
  3

 62
     0
 51
90.0
 52
90.0
 71
     2
 49
0.5
 62
   256
  6
BYLAYER
 49
-0.5
 62
   256
  6
BYLAYER
  0
ACDBPLACEHOLDER
  5
2826
102
{ACAD_REACTORS
330
2825
102
}
330
2825
100
AcDbPlaceHolder
280
     0
  0
XRECORD
  5
3AD0
102
{ACAD_REACTORS
330
3ACF
102
}
330
3ACF
100
AcDbXrecord
 90
        1
  0
XRECORD
  5
3AD1
102
{ACAD_REACTORS
330
3ACF
102
}
330
3ACF
100
AcDbXrecord
 90
       70
  0
XRECORD
  5
3AD2
102
{ACAD_REACTORS
330
3ACF
102
}
330
3ACF
100
AcDbXrecord
  1

  0
XRECORD
  5
3AD3
102
{ACAD_REACTORS
330
3ACF
102
}
330
3ACF
100
AcDbXrecord
  1

  0
XRECORD
  5
3AD4
102
{ACAD_REACTORS
330
3ACF
102
}
330
3ACF
100
AcDbXrecord
340
2827
  0
XRECORD
  5
3AD5
102
{ACAD_REACTORS
330
3ACF
102
}
330
3ACF
100
AcDbXrecord
340
2828
  0
XRECORD
  5
3AD6
102
{ACAD_REACTORS
330
3ACF
102
}
330
3ACF
100
AcDbXrecord
340
2825
  0
XRECORD
  5
3AD7
102
{ACAD_REACTORS
330
3ACF
102
}
330
3ACF
100
AcDbXrecord
 90
    14877
  0
XRECORD
  5
3AD8
102
{ACAD_REACTORS
330
3ACF
102
}
330
3ACF
100
AcDbXrecord
 90
        0
  0
XRECORD
  5
3AD9
102
{ACAD_REACTORS
330
3ACF
102
}
330
3ACF
100
AcDbXrecord
 90
        0
  0
XRECORD
  5
3ADA
102
{ACAD_REACTORS
330
3ACF
102
}
330
3ACF
100
AcDbXrecord
  1
{75EA589B-CC6C-4DD9-9995-2048CBD52AB8}
  0
XRECORD
  5
3ADB
102
{ACAD_REACTORS
330
3ACF
102
}
330
3ACF
100
AcDbXrecord
  1
{A3C52799-0E3B-4616-9C3D-C5C86D583DCB}
  0
XRECORD
  5
3ADC
102
{ACAD_REACTORS
330
3ACF
102
}
330
3ACF
100
AcDbXrecord
 40
0.0
  0
XRECORD
  5
3ADD
102
{ACAD_REACTORS
330
3ACF
102
}
330
3ACF
100
AcDbXrecord
1000
DSTYLE
1002
{
1070
   341
340
6D
1070
   343
340
6D
1070
   344
340
6D
1070
   371
 70
    -1
1070
   372
 70
    -1
1002
}
  0
XRECORD
  5
3ADE
102
{ACAD_REACTORS
330
3ACF
102
}
330
3ACF
100
AcDbXrecord
340
0
  0
XRECORD
  5
3ADF
102
{ACAD_REACTORS
330
3ACF
102
}
330
3ACF
100
AcDbXrecord
 70
     0
  0
XRECORD
  5
3AE0
102
{ACAD_REACTORS
330
3ACF
102
}
330
3ACF
100
AcDbXrecord
340
0
  0
XRECORD
  5
3AE1
102
{ACAD_REACTORS
330
3ACF
102
}
330
3ACF
100
AcDbXrecord
 10
0.0
 20
0.0
 30
0.0
  0
XRECORD
  5
3AE2
102
{ACAD_REACTORS
330
3ACF
102
}
330
3ACF
100
AcDbXrecord
 10
0.0
 20
0.0
 30
0.0
  0
XRECORD
  5
3AE3
102
{ACAD_REACTORS
330
3ACF
102
}
330
3ACF
100
AcDbXrecord
 10
0.0
 20
0.0
 30
0.0
  0
XRECORD
  5
3AE4
102
{ACAD_REACTORS
330
3ACF
102
}
330
3ACF
100
AcDbXrecord
 10
0.0
 20
0.0
 30
0.0
  0
XRECORD
  5
3AE5
102
{ACAD_REACTORS
330
3ACF
102
}
330
3ACF
100
AcDbXrecord
 10
0.0
 20
0.0
 30
0.0
  0
XRECORD
  5
3AE6
102
{ACAD_REACTORS
330
3ACF
102
}
330
3ACF
100
AcDbXrecord
 10
0.0
 20
0.0
 30
0.0
  0
XRECORD
  5
3AE7
102
{ACAD_REACTORS
330
3ACF
102
}
330
3ACF
100
AcDbXrecord
340
0
  0
XRECORD
  5
3AE8
102
{ACAD_REACTORS
330
3ACF
102
}
330
3ACF
100
AcDbXrecord
 70
     0
  0
XRECORD
  5
3AE9
102
{ACAD_REACTORS
330
3ACF
102
}
330
3ACF
100
AcDbXrecord
340
0
  0
XRECORD
  5
3AEA
102
{ACAD_REACTORS
330
3ACF
102
}
330
3ACF
100
AcDbXrecord
 10
0.0
 20
0.0
 30
0.0
  0
XRECORD
  5
3AEB
102
{ACAD_REACTORS
330
3ACF
102
}
330
3ACF
100
AcDbXrecord
 10
0.0
 20
0.0
 30
0.0
  0
XRECORD
  5
3AEC
102
{ACAD_REACTORS
330
3ACF
102
}
330
3ACF
100
AcDbXrecord
 10
0.0
 20
0.0
 30
0.0
  0
XRECORD
  5
3AED
102
{ACAD_REACTORS
330
3ACF
102
}
330
3ACF
100
AcDbXrecord
 10
0.0
 20
0.0
 30
0.0
  0
XRECORD
  5
3AEE
102
{ACAD_REACTORS
330
3ACF
102
}
330
3ACF
100
AcDbXrecord
 10
0.0
 20
0.0
 30
0.0
  0
XRECORD
  5
3AEF
102
{ACAD_REACTORS
330
3ACF
102
}
330
3ACF
100
AcDbXrecord
 10
0.0
 20
0.0
 30
0.0
  0
ENDSEC
  0
EOF
