  0
SECTION
  2
HEADER
  9
$ACADVER
  1
AC1014
  9
$ACADMAINTVER
 70
     9
  9
$DWGCODEPAGE
  3
ANSI_932
  9
$INSBASE
 10
0.0
 20
0.0
 30
0.0
  9
$EXTMIN
 10
-0.05126640194635
 20
-0.0362533195086599
 30
-0.0000000100019834
  9
$EXTMAX
 10
797.6628945888771
 20
551.6439419754362
 30
0.0000000100019837
  9
$LIMMIN
 10
0.0
 20
0.0
  9
$LIMMAX
 10
840.0
 20
594.0
  9
$ORTHOMODE
 70
     0
  9
$REGENMODE
 70
     1
  9
$FILLMODE
 70
     1
  9
$QTEXTMODE
 70
     0
  9
$MIRRTEXT
 70
     1
  9
$DRAGMODE
 70
     2
  9
$LTSCALE
 40
2.0
  9
$OSMODE
 70
    35
  9
$ATTMODE
 70
     1
  9
$TEXTSIZE
 40
5.0
  9
$TRACEWID
 40
1.0
  9
$TEXTSTYLE
  7
STANDARD
  9
$CLAYER
  8
SUNPOU
  9
$CELTYPE
  6
BYLAYER
  9
$CECOLOR
 62
   256
  9
$CELTSCALE
 40
1.0
  9
$DELOBJ
 70
     1
  9
$DISPSILH
 70
     0
  9
$DIMSCALE
 40
1.0
  9
$DIMASZ
 40
7.0
  9
$DIMEXO
 40
6.0
  9
$DIMDLI
 40
14.0
  9
$DIMRND
 40
0.0
  9
$DIMDLE
 40
0.0
  9
$DIMEXE
 40
3.0
  9
$DIMTP
 40
0.0
  9
$DIMTM
 40
0.0
  9
$DIMTXT
 40
6.0
  9
$DIMCEN
 40
150.0
  9
$DIMTSZ
 40
0.0
  9
$DIMTOL
 70
     0
  9
$DIMLIM
 70
     0
  9
$DIMTIH
 70
     0
  9
$DIMTOH
 70
     0
  9
$DIMSE1
 70
     0
  9
$DIMSE2
 70
     0
  9
$DIMTAD
 70
     3
  9
$DIMZIN
 70
     0
  9
$DIMBLK
  1

  9
$DIMASO
 70
     1
  9
$DIMSHO
 70
     1
  9
$DIMPOST
  1

  9
$DIMAPOST
  1

  9
$DIMALT
 70
     0
  9
$DIMALTD
 70
     2
  9
$DIMALTF
 40
25.4
  9
$DIMLFAC
 40
1.0
  9
$DIMTOFL
 70
     1
  9
$DIMTVP
 40
0.0
  9
$DIMTIX
 70
     0
  9
$DIMSOXD
 70
     0
  9
$DIMSAH
 70
     1
  9
$DIMBLK1
  1
OPEN
  9
$DIMBLK2
  1
OPEN
  9
$DIMSTYLE
  2
STANDARD
  9
$DIMCLRD
 70
   256
  9
$DIMCLRE
 70
   256
  9
$DIMCLRT
 70
   256
  9
$DIMTFAC
 40
1.0
  9
$DIMGAP
 40
2.0
  9
$DIMJUST
 70
     0
  9
$DIMSD1
 70
     0
  9
$DIMSD2
 70
     0
  9
$DIMTOLJ
 70
     1
  9
$DIMTZIN
 70
     0
  9
$DIMALTZ
 70
     0
  9
$DIMALTTZ
 70
     0
  9
$DIMFIT
 70
     3
  9
$DIMUPT
 70
     0
  9
$DIMUNIT
 70
     2
  9
$DIMDEC
 70
     0
  9
$DIMTDEC
 70
     0
  9
$DIMALTU
 70
     2
  9
$DIMALTTD
 70
     2
  9
$DIMTXSTY
  7
STANDARD
  9
$DIMAUNIT
 70
     0
  9
$LUNITS
 70
     2
  9
$LUPREC
 70
     4
  9
$SKETCHINC
 40
1.0
  9
$FILLETRAD
 40
20.0
  9
$AUNITS
 70
     0
  9
$AUPREC
 70
     0
  9
$MENU
  1
.
  9
$ELEVATION
 40
0.0
  9
$PELEVATION
 40
0.0
  9
$THICKNESS
 40
0.0
  9
$LIMCHECK
 70
     0
  9
$BLIPMODE
 70
     0
  9
$CHAMFERA
 40
0.0
  9
$CHAMFERB
 40
0.0
  9
$CHAMFERC
 40
40.0
  9
$CHAMFERD
 40
0.0
  9
$SKPOLY
 70
     0
  9
$TDCREATE
 40
2450994.354346065
  9
$TDUPDATE
 40
2453503.669999814
  9
$TDINDWG
 40
0.0575612616
  9
$TDUSRTIMER
 40
0.0575612616
  9
$USRTIMER
 70
     1
  9
$ANGBASE
 50
0.0
  9
$ANGDIR
 70
     0
  9
$PDMODE
 70
     1
  9
$PDSIZE
 40
0.0
  9
$PLINEWID
 40
0.0
  9
$COORDS
 70
     1
  9
$SPLFRAME
 70
     0
  9
$SPLINETYPE
 70
     6
  9
$SPLINESEGS
 70
     8
  9
$ATTDIA
 70
     0
  9
$ATTREQ
 70
     1
  9
$HANDLING
 70
 10241
  9
$HANDSEED
  5
1918
  9
$SURFTAB1
 70
     6
  9
$SURFTAB2
 70
     6
  9
$SURFTYPE
 70
     6
  9
$SURFU
 70
     6
  9
$SURFV
 70
     6
  9
$UCSNAME
  2

  9
$UCSORG
 10
0.0
 20
0.0
 30
0.0
  9
$UCSXDIR
 10
1.0
 20
0.0
 30
0.0
  9
$UCSYDIR
 10
0.0
 20
1.0
 30
0.0
  9
$PUCSNAME
  2

  9
$PUCSORG
 10
0.0
 20
0.0
 30
0.0
  9
$PUCSXDIR
 10
1.0
 20
0.0
 30
0.0
  9
$PUCSYDIR
 10
0.0
 20
1.0
 30
0.0
  9
$USERI1
 70
     0
  9
$USERI2
 70
     0
  9
$USERI3
 70
     0
  9
$USERI4
 70
     0
  9
$USERI5
 70
     0
  9
$USERR1
 40
0.0
  9
$USERR2
 40
0.0
  9
$USERR3
 40
0.0
  9
$USERR4
 40
0.0
  9
$USERR5
 40
0.0
  9
$WORLDVIEW
 70
     1
  9
$SHADEDGE
 70
     3
  9
$SHADEDIF
 70
    70
  9
$TILEMODE
 70
     1
  9
$MAXACTVP
 70
    16
  9
$PINSBASE
 10
0.0
 20
0.0
 30
0.0
  9
$PLIMCHECK
 70
     0
  9
$PEXTMIN
 10
0.0
 20
0.0
 30
0.0
  9
$PEXTMAX
 10
420.0
 20
297.0
 30
0.0
  9
$PLIMMIN
 10
0.0
 20
0.0
  9
$PLIMMAX
 10
420.0
 20
297.0
  9
$UNITMODE
 70
     0
  9
$VISRETAIN
 70
     0
  9
$PLINEGEN
 70
     0
  9
$PSLTSCALE
 70
     1
  9
$TREEDEPTH
 70
  3020
  9
$PICKSTYLE
 70
     1
  9
$CMLSTYLE
  2
STANDARD
  9
$CMLJUST
 70
     0
  9
$CMLSCALE
 40
1.0
  9
$PROXYGRAPHICS
 70
     1
  9
$MEASUREMENT
 70
     1
  0
ENDSEC
  0
SECTION
  2
CLASSES
  0
CLASS
  1
XRECORD
  2
AcDbXrecord
  3
AutoCAD 2000
 90
        0
280
     0
281
     0
  0
CLASS
  1
ACDBDICTIONARYWDFLT
  2
AcDbDictionaryWithDefault
  3
AutoCAD 2000
 90
        0
280
     0
281
     0
  0
CLASS
  1
ACDBPLACEHOLDER
  2
AcDbPlaceHolder
  3
AutoCAD 2000
 90
        0
280
     0
281
     0
  0
CLASS
  1
LAYOUT
  2
AcDbLayout
  3
AutoCAD 2000
 90
        0
280
     0
281
     0
  0
CLASS
  1
LONG_TRANSACTION
  2
AcDbLongTransaction
  3
AutoCAD 2000
 90
        0
280
     0
281
     0
  0
CLASS
  1
LWPOLYLINE
  2
AcDbPolyline
  3
AutoCAD 2000
 90
        0
280
     0
281
     1
  0
CLASS
  1
HATCH
  2
AcDbHatch
  3
AutoCAD 2000
 90
        0
280
     0
281
     1
  0
CLASS
  1
XRECORD
  2
AcDbXrecord
  3
AutoCAD 2000
 90
        0
280
     0
281
     0
  0
CLASS
  1
LONG_TRANSACTION
  2
AcDbLongTransaction
  3
AutoCAD 2000
 90
        0
280
     0
281
     0
  0
CLASS
  1
LWPOLYLINE
  2
AcDbPolyline
  3
AutoCAD 2000
 90
        0
280
     0
281
     1
  0
CLASS
  1
HATCH
  2
AcDbHatch
  3
AutoCAD 2000
 90
        0
280
     0
281
     1
  0
CLASS
  1
XRECORD
  2
AcDbXrecord
  3
AutoCAD 2000
 90
        0
280
     0
281
     0
  0
CLASS
  1
LONG_TRANSACTION
  2
AcDbLongTransaction
  3
AutoCAD 2000
 90
        0
280
     0
281
     0
  0
CLASS
  1
LWPOLYLINE
  2
AcDbPolyline
  3
AutoCAD 2000
 90
        0
280
     0
281
     1
  0
CLASS
  1
HATCH
  2
AcDbHatch
  3
AutoCAD 2000
 90
        0
280
     0
281
     1
  0
CLASS
  1
XRECORD
  2
AcDbXrecord
  3
AutoCAD 2000
 90
        0
280
     0
281
     0
  0
ENDSEC
  0
SECTION
  2
TABLES
  0
TABLE
  2
VPORT
  5
8
330
0
100
AcDbSymbolTable
 70
     5
  0
VPORT
  5
18F4
330
8
100
AcDbSymbolTableRecord
100
AcDbViewportTableRecord
  2
*ACTIVE
 70
     0
 10
0.0
 20
0.0
 11
1.0
 21
1.0
 12
449.9494727737042
 22
284.7697929391856
 13
0.0
 23
0.0
 14
5.0
 24
5.0
 15
0.0
 25
0.0
 16
0.0
 26
0.0
 36
1.0
 17
0.0
 27
0.0
 37
0.0
 40
600.6123009568999
 41
1.752310536044362
 42
50.0
 43
0.0
 44
0.0
 50
0.0
 51
0.0
 71
     0
 72
   100
 73
     1
 74
     0
 75
     0
 76
     0
 77
     0
 78
     0
  0
ENDTAB
  0
TABLE
  2
LTYPE
  5
5
330
0
100
AcDbSymbolTable
 70
     3
  0
LTYPE
  5
14
330
5
100
AcDbSymbolTableRecord
100
AcDbLinetypeTableRecord
  2
BYBLOCK
 70
     0
  3

 72
    65
 73
     0
 40
0.0
  0
LTYPE
  5
15
330
5
100
AcDbSymbolTableRecord
100
AcDbLinetypeTableRecord
  2
BYLAYER
 70
     0
  3

 72
    65
 73
     0
 40
0.0
  0
LTYPE
  5
16
330
5
100
AcDbSymbolTableRecord
100
AcDbLinetypeTableRecord
  2
CONTINUOUS
 70
     0
  3
Solid line
 72
    65
 73
     0
 40
0.0
  0
LTYPE
  5
135
330
5
100
AcDbSymbolTableRecord
100
AcDbLinetypeTableRecord
  2
CENTER
 70
     0
  3
____ _ ____ _ ____ _ ____ _ ____ _ ____ _ ____ 
 72
    65
 73
     4
 40
2.0
 49
1.25
 74
     0
 49
-0.25
 74
     0
 49
0.25
 74
     0
 49
-0.25
 74
     0
  0
LTYPE
  5
B46
330
5
100
AcDbSymbolTableRecord
100
AcDbLinetypeTableRecord
  2
PHANTOM
 70
     0
  3
______  __  __  ______  __  __  ______  __  __ 
 72
    65
 73
     6
 40
2.5
 49
1.25
 74
     0
 49
-0.25
 74
     0
 49
0.25
 74
     0
 49
-0.25
 74
     0
 49
0.25
 74
     0
 49
-0.25
 74
     0
  0
ENDTAB
  0
TABLE
  2
LAYER
  5
2
330
0
100
AcDbSymbolTable
 70
     9
  0
LAYER
  5
F
330
2
100
AcDbSymbolTableRecord
100
AcDbLayerTableRecord
  2
0
 70
     0
 62
     7
  6
CONTINUOUS
  0
LAYER
  5
62
330
2
100
AcDbSymbolTableRecord
100
AcDbLayerTableRecord
  2
VIEWPORT
 70
     0
 62
     7
  6
CONTINUOUS
  0
LAYER
  5
65
330
2
100
AcDbSymbolTableRecord
100
AcDbLayerTableRecord
  2
ZUWAKU
 70
     0
 62
     7
  6
CONTINUOUS
  0
LAYER
  5
159
330
2
100
AcDbSymbolTableRecord
100
AcDbLayerTableRecord
  2
SEIHIN
 70
     0
 62
     3
  6
CONTINUOUS
  0
LAYER
  5
15A
330
2
100
AcDbSymbolTableRecord
100
AcDbLayerTableRecord
  2
SUNPOU
 70
     0
 62
     4
  6
CONTINUOUS
  0
LAYER
  5
15B
330
2
100
AcDbSymbolTableRecord
100
AcDbLayerTableRecord
  2
CENTER_L
 70
     0
 62
     1
  6
CENTER
  0
LAYER
  5
214
330
2
100
AcDbSymbolTableRecord
100
AcDbLayerTableRecord
  2
DEFPOINTS
 70
     0
 62
     7
  6
CONTINUOUS
  0
LAYER
  5
B48
330
2
100
AcDbSymbolTableRecord
100
AcDbLayerTableRecord
  2
S120
 70
     0
 62
     8
  6
PHANTOM
  0
LAYER
  5
1703
330
2
100
AcDbSymbolTableRecord
100
AcDbLayerTableRecord
  2
MOJI
 70
     0
 62
     2
  6
CONTINUOUS
  0
ENDTAB
  0
TABLE
  2
STYLE
  5
3
330
0
100
AcDbSymbolTable
 70
     2
  0
STYLE
  5
10
330
3
100
AcDbSymbolTableRecord
100
AcDbTextStyleTableRecord
  2
STANDARD
 70
     0
 40
0.0
 41
1.0
 50
0.0
 71
     0
 42
5.0
  3
TXT
  4
bigfont.shx
  0
STYLE
  5
1704
330
3
100
AcDbSymbolTableRecord
100
AcDbTextStyleTableRecord
  2
ｽﾀｲﾙ1
 70
     0
 40
0.0
 41
1.0
 50
0.0
 71
     0
 42
2.5
  3
MS PGothic.ttf
  4

1001
ACAD
1000
MS PGothic
1071
    32818
  0
ENDTAB
  0
TABLE
  2
VIEW
  5
6
330
0
100
AcDbSymbolTable
 70
     0
  0
ENDTAB
  0
TABLE
  2
UCS
  5
7
330
0
100
AcDbSymbolTable
 70
     0
  0
ENDTAB
  0
TABLE
  2
APPID
  5
9
330
0
100
AcDbSymbolTable
 70
     1
  0
APPID
  5
11
330
9
100
AcDbSymbolTableRecord
100
AcDbRegAppTableRecord
  2
ACAD
 70
     0
  0
ENDTAB
  0
TABLE
  2
DIMSTYLE
  5
A
330
0
100
AcDbSymbolTable
 70
     1
  0
DIMSTYLE
105
1D
102
{ACAD_REACTORS
330
60A
330
60B
330
60C
330
60D
330
64E
330
655
330
656
330
660
330
663
330
66A
330
679
330
69A
330
69B
330
6CF
102
}
330
A
100
AcDbSymbolTableRecord
100
AcDbDimStyleTableRecord
  2
STANDARD
 70
     0
  3

  4

  5

  6

  7

 40
1.0
 41
0.18
 42
0.0625
 43
0.38
 44
0.18
 45
0.0
 46
0.0
 47
0.0
 48
0.0
140
0.18
141
0.09
142
0.0
143
25.4
144
1.0
145
0.0
146
1.0
147
0.09
 71
     0
 72
     0
 73
     1
 74
     1
 75
     0
 76
     0
 77
     0
 78
     0
170
     0
171
     2
172
     0
173
     0
174
     0
175
     0
176
     0
177
     0
178
     0
270
     2
271
     4
272
     4
273
     2
274
     2
340
10
275
     0
280
     0
281
     0
282
     0
283
     1
284
     0
285
     0
286
     0
287
     3
288
     0
  0
ENDTAB
  0
TABLE
  2
BLOCK_RECORD
  5
1
330
0
100
AcDbSymbolTable
 70
    15
  0
BLOCK_RECORD
  5
1A
102
{ACAD_XDICTIONARY
360
E2F
102
}
330
1
100
AcDbSymbolTableRecord
100
AcDbBlockTableRecord
  2
*MODEL_SPACE
  0
BLOCK_RECORD
  5
17
102
{ACAD_XDICTIONARY
360
E2D
102
}
330
1
100
AcDbSymbolTableRecord
100
AcDbBlockTableRecord
  2
*PAPER_SPACE
  0
BLOCK_RECORD
  5
6D
330
1
100
AcDbSymbolTableRecord
100
AcDbBlockTableRecord
  2
_OPEN
  0
BLOCK_RECORD
  5
9E4
330
1
100
AcDbSymbolTableRecord
100
AcDbBlockTableRecord
  2
*D1
  0
BLOCK_RECORD
  5
9F2
330
1
100
AcDbSymbolTableRecord
100
AcDbBlockTableRecord
  2
*D2
  0
BLOCK_RECORD
  5
9FE
330
1
100
AcDbSymbolTableRecord
100
AcDbBlockTableRecord
  2
*D3
  0
BLOCK_RECORD
  5
A0A
330
1
100
AcDbSymbolTableRecord
100
AcDbBlockTableRecord
  2
*D4
  0
BLOCK_RECORD
  5
A16
330
1
100
AcDbSymbolTableRecord
100
AcDbBlockTableRecord
  2
*D5
  0
BLOCK_RECORD
  5
A24
330
1
100
AcDbSymbolTableRecord
100
AcDbBlockTableRecord
  2
*D6
  0
BLOCK_RECORD
  5
A30
330
1
100
AcDbSymbolTableRecord
100
AcDbBlockTableRecord
  2
*D7
  0
BLOCK_RECORD
  5
A3E
330
1
100
AcDbSymbolTableRecord
100
AcDbBlockTableRecord
  2
*D8
  0
BLOCK_RECORD
  5
A4C
330
1
100
AcDbSymbolTableRecord
100
AcDbBlockTableRecord
  2
*D9
  0
BLOCK_RECORD
  5
A58
330
1
100
AcDbSymbolTableRecord
100
AcDbBlockTableRecord
  2
*D10
  0
BLOCK_RECORD
  5
A66
330
1
100
AcDbSymbolTableRecord
100
AcDbBlockTableRecord
  2
*D11
  0
BLOCK_RECORD
  5
A72
330
1
100
AcDbSymbolTableRecord
100
AcDbBlockTableRecord
  2
*D12
  0
BLOCK_RECORD
  5
A7E
330
1
100
AcDbSymbolTableRecord
100
AcDbBlockTableRecord
  2
*D13
  0
BLOCK_RECORD
  5
A8A
330
1
100
AcDbSymbolTableRecord
100
AcDbBlockTableRecord
  2
*D14
  0
ENDTAB
  0
ENDSEC
  0
SECTION
  2
BLOCKS
  0
BLOCK
  5
1B
330
1A
100
AcDbEntity
  8
0
100
AcDbBlockBegin
  2
*MODEL_SPACE
 70
     0
 10
0.0
 20
0.0
 30
0.0
  3
*MODEL_SPACE
  1

  0
ENDBLK
  5
1C
330
1A
100
AcDbEntity
  8
0
100
AcDbBlockEnd
  0
BLOCK
  5
18
330
17
100
AcDbEntity
 67
     1
  8
0
100
AcDbBlockBegin
  2
*PAPER_SPACE
 70
     0
 10
0.0
 20
0.0
 30
0.0
  3
*PAPER_SPACE
  1

  0
ENDBLK
  5
19
330
17
100
AcDbEntity
 67
     1
  8
0
100
AcDbBlockEnd
  0
BLOCK
  5
6E
330
6D
100
AcDbEntity
  8
0
100
AcDbBlockBegin
  2
_OPEN
 70
     0
 10
0.0
 20
0.0
 30
0.0
  3
_OPEN
  1

  0
LINE
  5
6F
330
6D
100
AcDbEntity
  8
0
  6
BYBLOCK
 62
     0
100
AcDbLine
 10
-1.0
 20
0.1666666666666666
 30
0.0
 11
0.0
 21
0.0
 31
0.0
  0
LINE
  5
70
330
6D
100
AcDbEntity
  8
0
  6
BYBLOCK
 62
     0
100
AcDbLine
 10
0.0
 20
0.0
 30
0.0
 11
-1.0
 21
-0.1666666666666666
 31
0.0
  0
LINE
  5
71
330
6D
100
AcDbEntity
  8
0
  6
BYBLOCK
 62
     0
100
AcDbLine
 10
0.0
 20
0.0
 30
0.0
 11
-1.0
 21
0.0
 31
0.0
  0
ENDBLK
  5
72
330
6D
100
AcDbEntity
  8
0
100
AcDbBlockEnd
  0
BLOCK
  5
A96
330
9E4
100
AcDbEntity
  8
0
100
AcDbBlockBegin
  2
*D1
 70
     1
 10
0.0
 20
0.0
 30
0.0
  3
*D1
  1

  0
LINE
  5
13D4
330
9E4
100
AcDbEntity
  8
SUNPOU
 62
     4
100
AcDbLine
 10
422.3201351422678
 20
261.8313702963626
 30
0.0
 11
416.1461860771319
 21
272.1212854049122
 31
0.0
  0
LINE
  5
13D5
330
9E4
100
AcDbEntity
  8
SUNPOU
 62
     4
100
AcDbLine
 10
430.895064399391
 20
266.9763278506416
 30
0.0
 11
424.7211153342551
 21
277.2662429591913
 31
0.0
  0
LINE
  5
13D6
330
9E4
100
AcDbEntity
  8
SUNPOU
 62
     4
100
AcDbLine
 10
411.6872228634293
 20
265.94733633978
 30
0.0
 11
405.6847723834431
 21
262.3458660517846
 31
0.0
  0
LINE
  5
13D7
330
9E4
100
AcDbEntity
  8
SUNPOU
 62
     4
100
AcDbLine
 10
432.2670530805249
 20
278.2952344700496
 30
0.0
 11
452.4181368347647
 21
290.3858847226056
 31
0.0
  0
LINE
  5
13D8
330
9E4
100
AcDbEntity
  8
SUNPOU
 62
     4
100
AcDbLine
 10
417.6896733434156
 20
269.5488066277753
 30
0.0
 11
426.2646026005388
 21
274.6937641820543
 31
0.0
  0
INSERT
  5
13D9
330
9E4
100
AcDbEntity
  8
SUNPOU
 62
     4
100
AcDbBlockReference
  2
_OPEN
 10
417.6896733434156
 20
269.5488066277753
 30
0.0
 41
7.0
 42
7.0
 43
7.0
 50
30.96375653209877
  0
INSERT
  5
13DA
330
9E4
100
AcDbEntity
  8
SUNPOU
 62
     4
100
AcDbBlockReference
  2
_OPEN
 10
426.2646026005388
 20
274.6937641820543
 30
0.0
 41
7.0
 42
7.0
 43
7.0
 50
210.9637565320988
  0
MTEXT
  5
13DB
330
9E4
100
AcDbEntity
  8
SUNPOU
 62
     4
100
AcDbMText
 10
445.1294469662074
 20
291.8436226963136
 30
0.0
 40
6.0
 41
0.0
 71
     5
 72
     5
  1
\A1;10
 11
0.8574929257123175
 21
0.5144957554279044
 31
0.0
1001
ACAD
1000
MTEXTBEGIN
1070
    73
1070
     1
1070
    44
1040
1.0
1070
    74
1070
     0
1000
MTEXTEND
1000
MTEXTBEGIN
1070
    73
1070
     1
1070
    44
1040
1.0
1070
    74
1070
     0
1000
MTEXTEND
  0
POINT
  5
13DC
330
9E4
100
AcDbEntity
  8
DEFPOINTS
 62
     0
100
AcDbPoint
 10
425.4071096748353
 20
256.6864127420886
 30
0.0
  0
POINT
  5
13DD
330
9E4
100
AcDbEntity
  8
DEFPOINTS
 62
     0
100
AcDbPoint
 10
433.9820389319585
 20
261.8313702963677
 30
0.0
  0
POINT
  5
13DE
330
9E4
100
AcDbEntity
  8
DEFPOINTS
 62
     0
100
AcDbPoint
 10
426.2646026005388
 20
274.6937641820543
 30
0.0
  0
ENDBLK
  5
AA2
330
9E4
100
AcDbEntity
  8
0
100
AcDbBlockEnd
  0
BLOCK
  5
AA3
330
9F2
100
AcDbEntity
  8
0
100
AcDbBlockBegin
  2
*D2
 70
     1
 10
0.0
 20
0.0
 30
0.0
  3
*D2
  1

  0
LINE
  5
13CB
330
9F2
100
AcDbEntity
  8
SUNPOU
 62
     4
100
AcDbLine
 10
396.2455665841425
 20
226.7497320013507
 30
0.0
 11
396.2455665841425
 21
304.7185687268048
 31
0.0
  0
LINE
  5
13CC
330
9F2
100
AcDbEntity
  8
SUNPOU
 62
     4
100
AcDbLine
 10
437.0690134645354
 20
262.6864127420887
 30
0.0
 11
437.0690134645354
 21
304.7185687268048
 31
0.0
  0
LINE
  5
13CD
330
9F2
100
AcDbEntity
  8
SUNPOU
 62
     4
100
AcDbLine
 10
403.2455665841426
 20
301.7185687268049
 30
0.0
 11
430.0690134645353
 21
301.7185687268049
 31
0.0
  0
INSERT
  5
13CE
330
9F2
100
AcDbEntity
  8
SUNPOU
 62
     4
100
AcDbBlockReference
  2
_OPEN
 10
396.2455665841425
 20
301.7185687268049
 30
0.0
 41
7.0
 42
7.0
 43
7.0
 50
180.0
  0
INSERT
  5
13CF
330
9F2
100
AcDbEntity
  8
SUNPOU
 62
     4
100
AcDbBlockReference
  2
_OPEN
 10
437.0690134645354
 20
301.7185687268049
 30
0.0
 41
7.0
 42
7.0
 43
7.0
  0
MTEXT
  5
13D0
330
9F2
100
AcDbEntity
  8
SUNPOU
 62
     4
100
AcDbMText
 10
416.6572900243391
 20
306.7185687268048
 30
0.0
 40
6.0
 41
0.0
 71
     5
 72
     5
  1
\A1;41
1001
ACAD
1000
MTEXTBEGIN
1070
    73
1070
     1
1070
    44
1040
1.0
1070
    74
1070
     0
1000
MTEXTEND
1000
MTEXTBEGIN
1070
    73
1070
     1
1070
    44
1040
1.0
1070
    74
1070
     0
1000
MTEXTEND
  0
POINT
  5
13D1
330
9F2
100
AcDbEntity
  8
DEFPOINTS
 62
     0
100
AcDbPoint
 10
396.2455665841425
 20
220.7497320013507
 30
0.0
  0
POINT
  5
13D2
330
9F2
100
AcDbEntity
  8
DEFPOINTS
 62
     0
100
AcDbPoint
 10
437.0690134645354
 20
256.6864127420886
 30
0.0
  0
POINT
  5
13D3
330
9F2
100
AcDbEntity
  8
DEFPOINTS
 62
     0
100
AcDbPoint
 10
437.0690134645354
 20
301.7185687268049
 30
0.0
  0
ENDBLK
  5
AAD
330
9F2
100
AcDbEntity
  8
0
100
AcDbBlockEnd
  0
BLOCK
  5
AAE
330
9FE
100
AcDbEntity
  8
0
100
AcDbBlockBegin
  2
*D3
 70
     1
 10
0.0
 20
0.0
 30
0.0
  3
*D3
  1

  0
LINE
  5
13C2
330
9FE
100
AcDbEntity
  8
SUNPOU
 62
     4
100
AcDbLine
 10
261.3460568274426
 20
256.6497320013507
 30
0.0
 11
199.921816214777
 21
256.6497320013507
 31
0.0
  0
LINE
  5
13C3
330
9FE
100
AcDbEntity
  8
SUNPOU
 62
     4
100
AcDbLine
 10
467.4429388689354
 20
182.5618159800887
 30
0.0
 11
199.9218162147769
 21
182.5618159800888
 31
0.0
  0
LINE
  5
13C4
330
9FE
100
AcDbEntity
  8
SUNPOU
 62
     4
100
AcDbLine
 10
202.921816214777
 20
249.6497320013507
 30
0.0
 11
202.921816214777
 21
189.5618159800888
 31
0.0
  0
INSERT
  5
13C5
330
9FE
100
AcDbEntity
  8
SUNPOU
 62
     4
100
AcDbBlockReference
  2
_OPEN
 10
202.921816214777
 20
256.6497320013507
 30
0.0
 41
7.0
 42
7.0
 43
7.0
 50
90.0
  0
INSERT
  5
13C6
330
9FE
100
AcDbEntity
  8
SUNPOU
 62
     4
100
AcDbBlockReference
  2
_OPEN
 10
202.921816214777
 20
182.5618159800888
 30
0.0
 41
7.0
 42
7.0
 43
7.0
 50
270.0
  0
MTEXT
  5
13C7
330
9FE
100
AcDbEntity
  8
SUNPOU
 62
     4
100
AcDbMText
 10
197.9218162147769
 20
211.3285604784187
 30
0.0
 40
6.0
 41
0.0
 71
     5
 72
     5
  1
\A1;74
 11
0.0000000000000001
 21
1.0
 31
0.0
1001
ACAD
1000
MTEXTBEGIN
1070
    73
1070
     1
1070
    44
1040
1.0
1070
    74
1070
     0
1000
MTEXTEND
1000
MTEXTBEGIN
1070
    73
1070
     1
1070
    44
1040
1.0
1070
    74
1070
     0
1000
MTEXTEND
  0
POINT
  5
13C8
330
9FE
100
AcDbEntity
  8
DEFPOINTS
 62
     0
100
AcDbPoint
 10
267.3460568274427
 20
256.6497320013507
 30
0.0
  0
POINT
  5
13C9
330
9FE
100
AcDbEntity
  8
DEFPOINTS
 62
     0
100
AcDbPoint
 10
473.4429388689354
 20
182.5618159800887
 30
0.0
  0
POINT
  5
13CA
330
9FE
100
AcDbEntity
  8
DEFPOINTS
 62
     0
100
AcDbPoint
 10
202.921816214777
 20
182.5618159800888
 30
0.0
  0
ENDBLK
  5
AB8
330
9FE
100
AcDbEntity
  8
0
100
AcDbBlockEnd
  0
BLOCK
  5
AB9
330
A0A
100
AcDbEntity
  8
0
100
AcDbBlockBegin
  2
*D4
 70
     1
 10
0.0
 20
0.0
 30
0.0
  3
*D4
  1

  0
LINE
  5
13DF
330
A0A
100
AcDbEntity
  8
SUNPOU
 62
     4
100
AcDbLine
 10
396.2455665841425
 20
226.7497320013507
 30
0.0
 11
396.2455665841425
 21
304.7185687268048
 31
0.0
  0
LINE
  5
13E0
330
A0A
100
AcDbEntity
  8
SUNPOU
 62
     4
100
AcDbLine
 10
262.7704333258354
 20
256.4007129731887
 30
0.0
 11
262.7704333258354
 21
304.7185687268048
 31
0.0
  0
LINE
  5
13E1
330
A0A
100
AcDbEntity
  8
SUNPOU
 62
     4
100
AcDbLine
 10
389.2455665841426
 20
301.7185687268049
 30
0.0
 11
269.7704333258355
 21
301.7185687268049
 31
0.0
  0
INSERT
  5
13E2
330
A0A
100
AcDbEntity
  8
SUNPOU
 62
     4
100
AcDbBlockReference
  2
_OPEN
 10
396.2455665841425
 20
301.7185687268049
 30
0.0
 41
7.0
 42
7.0
 43
7.0
  0
INSERT
  5
13E3
330
A0A
100
AcDbEntity
  8
SUNPOU
 62
     4
100
AcDbBlockReference
  2
_OPEN
 10
262.7704333258354
 20
301.7185687268049
 30
0.0
 41
7.0
 42
7.0
 43
7.0
 50
180.0
  0
MTEXT
  5
13E4
330
A0A
100
AcDbEntity
  8
SUNPOU
 62
     4
100
AcDbMText
 10
329.5079999549889
 20
306.7185687268048
 30
0.0
 40
6.0
 41
0.0
 71
     5
 72
     5
  1
\A1;133
1001
ACAD
1000
MTEXTBEGIN
1070
    73
1070
     1
1070
    44
1040
1.0
1070
    74
1070
     0
1000
MTEXTEND
1000
MTEXTBEGIN
1070
    73
1070
     1
1070
    44
1040
1.0
1070
    74
1070
     0
1000
MTEXTEND
  0
POINT
  5
13E5
330
A0A
100
AcDbEntity
  8
DEFPOINTS
 62
     0
100
AcDbPoint
 10
396.2455665841425
 20
220.7497320013507
 30
0.0
  0
POINT
  5
13E6
330
A0A
100
AcDbEntity
  8
DEFPOINTS
 62
     0
100
AcDbPoint
 10
262.7704333258354
 20
250.4007129731887
 30
0.0
  0
POINT
  5
13E7
330
A0A
100
AcDbEntity
  8
DEFPOINTS
 62
     0
100
AcDbPoint
 10
262.7704333258354
 20
301.7185687268049
 30
0.0
  0
ENDBLK
  5
AC3
330
A0A
100
AcDbEntity
  8
0
100
AcDbBlockEnd
  0
BLOCK
  5
AC4
330
A16
100
AcDbEntity
  8
0
100
AcDbBlockBegin
  2
*D5
 70
     1
 10
0.0
 20
0.0
 30
0.0
  3
*D5
  1

  0
LINE
  5
187A
330
A16
100
AcDbEntity
  8
SUNPOU
 62
     4
100
AcDbLine
 10
256.7704333258354
 20
409.2250659072837
 30
0.0
 11
199.921816214777
 21
409.2250659072837
 31
0.0
  0
LINE
  5
187B
330
A16
100
AcDbEntity
  8
SUNPOU
 62
     4
100
AcDbLine
 10
256.7704333258354
 20
381.2250659072838
 30
0.0
 11
199.921816214777
 21
381.2250659072838
 31
0.0
  0
LINE
  5
187C
330
A16
100
AcDbEntity
  8
SUNPOU
 62
     4
100
AcDbLine
 10
202.921816214777
 20
416.2250659072837
 30
0.0
 11
202.921816214777
 21
423.2250659072837
 31
0.0
  0
LINE
  5
187D
330
A16
100
AcDbEntity
  8
SUNPOU
 62
     4
100
AcDbLine
 10
202.921816214777
 20
374.2250659072837
 30
0.0
 11
202.921816214777
 21
367.2250659072838
 31
0.0
  0
LINE
  5
187E
330
A16
100
AcDbEntity
  8
SUNPOU
 62
     4
100
AcDbLine
 10
202.921816214777
 20
409.2250659072837
 30
0.0
 11
202.921816214777
 21
381.2250659072838
 31
0.0
  0
INSERT
  5
187F
330
A16
100
AcDbEntity
  8
SUNPOU
 62
     4
100
AcDbBlockReference
  2
_OPEN
 10
202.921816214777
 20
409.2250659072837
 30
0.0
 41
7.0
 42
7.0
 43
7.0
 50
270.0
  0
INSERT
  5
1880
330
A16
100
AcDbEntity
  8
SUNPOU
 62
     4
100
AcDbBlockReference
  2
_OPEN
 10
202.921816214777
 20
381.2250659072838
 30
0.0
 41
7.0
 42
7.0
 43
7.0
 50
90.0
  0
MTEXT
  5
1881
330
A16
100
AcDbEntity
  8
SUNPOU
 62
     4
100
AcDbMText
 10
197.921816214777
 20
395.2250659072838
 30
0.0
 40
6.0
 41
0.0
 71
     5
 72
     1
  1
\A1;28
 11
0.0000000000000001
 21
1.0
 31
0.0
1001
ACAD
1000
MTEXTBEGIN
1070
    73
1070
     1
1070
    44
1040
1.0
1070
    74
1070
     0
1000
MTEXTEND
  0
POINT
  5
1882
330
A16
100
AcDbEntity
  8
DEFPOINTS
 62
     0
100
AcDbPoint
 10
262.7704333258354
 20
409.2250659072837
 30
0.0
  0
POINT
  5
1883
330
A16
100
AcDbEntity
  8
DEFPOINTS
 62
     0
100
AcDbPoint
 10
262.7704333258354
 20
381.2250659072838
 30
0.0
  0
POINT
  5
1884
330
A16
100
AcDbEntity
  8
DEFPOINTS
 62
     0
100
AcDbPoint
 10
202.921816214777
 20
381.2250659072838
 30
0.0
  0
ENDBLK
  5
AD0
330
A16
100
AcDbEntity
  8
0
100
AcDbBlockEnd
  0
BLOCK
  5
AD1
330
A24
100
AcDbEntity
  8
0
100
AcDbBlockBegin
  2
*D6
 70
     1
 10
0.0
 20
0.0
 30
0.0
  3
*D6
  1

  0
LINE
  5
13FC
330
A24
100
AcDbEntity
  8
SUNPOU
 62
     4
100
AcDbLine
 10
547.1334072629532
 20
294.5255258907798
 30
0.0
 11
521.4086194916164
 21
279.090653227984
 31
0.0
  0
LINE
  5
13FD
330
A24
100
AcDbEntity
  8
SUNPOU
 62
     4
100
AcDbLine
 10
572.8581950322721
 20
251.6508796085643
 30
0.0
 11
547.1334072609352
 21
236.2160069457685
 31
0.0
  0
LINE
  5
13FE
330
A24
100
AcDbEntity
  8
SUNPOU
 62
     4
100
AcDbLine
 10
527.5825685567459
 20
274.6316900142776
 30
0.0
 11
546.1044157500817
 21
243.7619446920391
 31
0.0
  0
INSERT
  5
13FF
330
A24
100
AcDbEntity
  8
SUNPOU
 62
     4
100
AcDbBlockReference
  2
_OPEN
 10
523.9810982687543
 20
280.6341404942661
 30
0.0
 41
7.0
 42
7.0
 43
7.0
 50
120.9637565320633
  0
INSERT
  5
1400
330
A24
100
AcDbEntity
  8
SUNPOU
 62
     4
100
AcDbBlockReference
  2
_OPEN
 10
549.7058860380731
 20
237.7594942120506
 30
0.0
 41
7.0
 42
7.0
 43
7.0
 50
300.9637565320633
  0
MTEXT
  5
1401
330
A24
100
AcDbEntity
  8
SUNPOU
 62
     4
100
AcDbMText
 10
541.1309567819769
 20
261.7692961302953
 30
0.0
 40
6.0
 41
0.0
 71
     5
 72
     5
  1
\A1;50
 11
0.5144957554273738
 21
-0.8574929257126358
 31
0.0
1001
ACAD
1000
MTEXTBEGIN
1070
    73
1070
     1
1070
    44
1040
1.0
1070
    74
1070
     0
1000
MTEXTEND
1000
MTEXTBEGIN
1070
    73
1070
     1
1070
    44
1040
1.0
1070
    74
1070
     0
1000
MTEXTEND
  0
POINT
  5
1402
330
A24
100
AcDbEntity
  8
DEFPOINTS
 62
     0
100
AcDbPoint
 10
552.2783648172289
 20
297.6125004233441
 30
0.0
  0
POINT
  5
1403
330
A24
100
AcDbEntity
  8
DEFPOINTS
 62
     0
100
AcDbPoint
 10
578.0031525865478
 20
254.7378541411286
 30
0.0
  0
POINT
  5
1404
330
A24
100
AcDbEntity
  8
DEFPOINTS
 62
     0
100
AcDbPoint
 10
549.7058860380731
 20
237.7594942120506
 30
0.0
  0
ENDBLK
  5
ADB
330
A24
100
AcDbEntity
  8
0
100
AcDbBlockEnd
  0
BLOCK
  5
ADC
330
A30
100
AcDbEntity
  8
0
100
AcDbBlockBegin
  2
*D7
 70
     1
 10
0.0
 20
0.0
 30
0.0
  3
*D7
  1

  0
LINE
  5
13F3
330
A30
100
AcDbEntity
  8
SUNPOU
 62
     4
100
AcDbLine
 10
534.6602851912982
 20
315.3140626768802
 30
0.0
 11
508.9354974199604
 21
299.8791900140838
 31
0.0
  0
LINE
  5
13F4
330
A30
100
AcDbEntity
  8
SUNPOU
 62
     4
100
AcDbLine
 10
547.1334072629534
 20
294.52552589078
 30
0.0
 11
521.4086194916156
 21
279.0906532279836
 31
0.0
  0
LINE
  5
13F5
330
A30
100
AcDbEntity
  8
SUNPOU
 62
     4
100
AcDbLine
 10
515.10944648509
 20
295.4202268003774
 30
0.0
 11
520.3796279807619
 21
286.6365909742541
 31
0.0
  0
INSERT
  5
13F6
330
A30
100
AcDbEntity
  8
SUNPOU
 62
     4
100
AcDbBlockReference
  2
_OPEN
 10
511.5079761970983
 20
301.4226772803659
 30
0.0
 41
7.0
 42
7.0
 43
7.0
 50
120.9637565320633
  0
INSERT
  5
13F7
330
A30
100
AcDbEntity
  8
SUNPOU
 62
     4
100
AcDbBlockReference
  2
_OPEN
 10
523.9810982687535
 20
280.6341404942657
 30
0.0
 41
7.0
 42
7.0
 43
7.0
 50
300.9637565320633
  0
MTEXT
  5
13F8
330
A30
100
AcDbEntity
  8
SUNPOU
 62
     4
100
AcDbMText
 10
522.0320018614891
 20
293.6008876644527
 30
0.0
 40
6.0
 41
0.0
 71
     5
 72
     5
  1
\A1;24
 11
0.514495755427375
 21
-0.8574929257126351
 31
0.0
1001
ACAD
1000
MTEXTBEGIN
1070
    73
1070
     1
1070
    44
1040
1.0
1070
    74
1070
     0
1000
MTEXTEND
1000
MTEXTBEGIN
1070
    73
1070
     1
1070
    44
1040
1.0
1070
    74
1070
     0
1000
MTEXTEND
  0
POINT
  5
13F9
330
A30
100
AcDbEntity
  8
DEFPOINTS
 62
     0
100
AcDbPoint
 10
539.805242745574
 20
318.4010372094444
 30
0.0
  0
POINT
  5
13FA
330
A30
100
AcDbEntity
  8
DEFPOINTS
 62
     0
100
AcDbPoint
 10
552.2783648172292
 20
297.6125004233442
 30
0.0
  0
POINT
  5
13FB
330
A30
100
AcDbEntity
  8
DEFPOINTS
 62
     0
100
AcDbPoint
 10
523.9810982687535
 20
280.6341404942657
 30
0.0
  0
ENDBLK
  5
AE8
330
A30
100
AcDbEntity
  8
0
100
AcDbBlockEnd
  0
BLOCK
  5
AE9
330
A3E
100
AcDbEntity
  8
0
100
AcDbBlockBegin
  2
*D8
 70
     1
 10
0.0
 20
0.0
 30
0.0
  3
*D8
  1

  0
LINE
  5
1405
330
A3E
100
AcDbEntity
  8
SUNPOU
 62
     4
100
AcDbLine
 10
600.2979686551027
 20
268.1147437822285
 30
0.0
 11
547.1334072610458
 21
236.2160069455211
 31
0.0
  0
LINE
  5
1406
330
A3E
100
AcDbEntity
  8
SUNPOU
 62
     4
100
AcDbLine
 10
604.4139346985437
 20
261.2548003765522
 30
0.0
 11
551.2493733044867
 21
229.3560635398449
 31
0.0
  0
LINE
  5
1407
330
A3E
100
AcDbEntity
  8
SUNPOU
 62
     4
100
AcDbLine
 10
546.1044157501621
 20
243.7619446917876
 30
0.0
 11
542.5029454621468
 21
249.7643951717618
 31
0.0
  0
LINE
  5
1408
330
A3E
100
AcDbEntity
  8
SUNPOU
 62
     4
100
AcDbLine
 10
557.4233223696338
 20
224.897100326163
 30
0.0
 11
565.1407587010953
 21
212.034706440504
 31
0.0
  0
LINE
  5
1409
330
A3E
100
AcDbEntity
  8
SUNPOU
 62
     4
100
AcDbLine
 10
549.7058860381776
 20
237.7594942118134
 30
0.0
 11
553.8218520816185
 21
230.8995508061372
 31
0.0
  0
INSERT
  5
140A
330
A3E
100
AcDbEntity
  8
SUNPOU
 62
     4
100
AcDbBlockReference
  2
_OPEN
 10
549.7058860381776
 20
237.7594942118134
 30
0.0
 41
7.0
 42
7.0
 43
7.0
 50
300.9637565322899
  0
INSERT
  5
140B
330
A3E
100
AcDbEntity
  8
SUNPOU
 62
     4
100
AcDbBlockReference
  2
_OPEN
 10
553.8218520816185
 20
230.8995508061372
 30
0.0
 41
7.0
 42
7.0
 43
7.0
 50
120.9637565322899
  0
MTEXT
  5
140C
330
A3E
100
AcDbEntity
  8
SUNPOU
 62
     4
100
AcDbMText
 10
567.3702403079253
 20
218.0371569205002
 30
0.0
 40
6.0
 41
0.0
 71
     5
 72
     5
  1
\A1;8
 11
0.5144957554307657
 21
-0.8574929257106006
 31
0.0
1001
ACAD
1000
MTEXTBEGIN
1070
    73
1070
     1
1070
    44
1040
1.0
1070
    74
1070
     0
1000
MTEXTEND
1000
MTEXTBEGIN
1070
    73
1070
     1
1070
    44
1040
1.0
1070
    74
1070
     0
1000
MTEXTEND
  0
POINT
  5
140D
330
A3E
100
AcDbEntity
  8
DEFPOINTS
 62
     0
100
AcDbPoint
 10
605.4429262093663
 20
271.201718314813
 30
0.0
  0
POINT
  5
140E
330
A3E
100
AcDbEntity
  8
DEFPOINTS
 62
     0
100
AcDbPoint
 10
609.5588922528072
 20
264.3417749091368
 30
0.0
  0
POINT
  5
140F
330
A3E
100
AcDbEntity
  8
DEFPOINTS
 62
     0
100
AcDbPoint
 10
553.8218520816185
 20
230.8995508061372
 30
0.0
  0
ENDBLK
  5
AF5
330
A3E
100
AcDbEntity
  8
0
100
AcDbBlockEnd
  0
BLOCK
  5
AF6
330
A4C
100
AcDbEntity
  8
0
100
AcDbBlockBegin
  2
*D9
 70
     1
 10
0.0
 20
0.0
 30
0.0
  3
*D9
  1

  0
LINE
  5
1410
330
A4C
100
AcDbEntity
  8
SUNPOU
 62
     4
100
AcDbLine
 10
442.2699078384802
 20
259.8016340415666
 30
0.0
 11
465.3769323800932
 21
273.6419874572618
 31
0.0
  0
LINE
  5
1411
330
A4C
100
AcDbEntity
  8
SUNPOU
 62
     4
100
AcDbLine
 10
484.546734532688
 20
189.2187780534555
 30
0.0
 11
507.653759074301
 21
203.0591314691507
 31
0.0
  0
LINE
  5
1412
330
A4C
100
AcDbEntity
  8
SUNPOU
 62
     4
100
AcDbLine
 10
466.4001913809395
 20
266.0952702227825
 30
0.0
 11
501.4831990073702
 21
207.5227833888684
 31
0.0
  0
INSERT
  5
1413
330
A4C
100
AcDbEntity
  8
SUNPOU
 62
     4
100
AcDbBlockReference
  2
_OPEN
 10
462.803281847051
 20
272.100454799881
 30
0.0
 41
7.0
 42
7.0
 43
7.0
 50
120.9202322331164
  0
INSERT
  5
1414
330
A4C
100
AcDbEntity
  8
SUNPOU
 62
     4
100
AcDbBlockReference
  2
_OPEN
 10
505.0801085412587
 20
201.5175988117699
 30
0.0
 41
7.0
 42
7.0
 43
7.0
 50
300.9202322331164
  0
MTEXT
  5
1415
330
A4C
100
AcDbEntity
  8
SUNPOU
 62
     4
100
AcDbMText
 10
488.2311127492251
 20
239.3782479014602
 30
0.0
 40
6.0
 41
0.0
 71
     5
 72
     5
  1
\A1;82
 11
0.5138442191269407
 21
-0.857883511014068
 31
0.0
1001
ACAD
1000
MTEXTBEGIN
1070
    73
1070
     1
1070
    44
1040
1.0
1070
    74
1070
     0
1000
MTEXTEND
1000
MTEXTBEGIN
1070
    73
1070
     1
1070
    44
1040
1.0
1070
    74
1070
     0
1000
MTEXTEND
  0
POINT
  5
1416
330
A4C
100
AcDbEntity
  8
DEFPOINTS
 62
     0
100
AcDbPoint
 10
437.1226067723958
 20
256.7185687268049
 30
0.0
  0
POINT
  5
1417
330
A4C
100
AcDbEntity
  8
DEFPOINTS
 62
     0
100
AcDbPoint
 10
479.3994334666035
 20
186.1357127386938
 30
0.0
  0
POINT
  5
1418
330
A4C
100
AcDbEntity
  8
DEFPOINTS
 62
     0
100
AcDbPoint
 10
505.0801085412587
 20
201.5175988117699
 30
0.0
  0
ENDBLK
  5
B00
330
A4C
100
AcDbEntity
  8
0
100
AcDbBlockEnd
  0
BLOCK
  5
B01
330
A58
100
AcDbEntity
  8
0
100
AcDbBlockBegin
  2
*D10
 70
     1
 10
0.0
 20
0.0
 30
0.0
  3
*D10
  1

  0
LINE
  5
1419
330
A58
100
AcDbEntity
  8
SUNPOU
 62
     4
100
AcDbLine
 10
476.5299134014115
 20
177.41685842576
 30
0.0
 11
482.7038624662141
 21
167.1269433173523
 31
0.0
  0
LINE
  5
141A
330
A58
100
AcDbEntity
  8
SUNPOU
 62
     4
100
AcDbLine
 10
482.5323638814968
 20
181.0183287136699
 30
0.0
 11
488.7063129462993
 21
170.7284136052622
 31
0.0
  0
LINE
  5
141B
330
A58
100
AcDbEntity
  8
SUNPOU
 62
     4
100
AcDbLine
 10
475.1579247199259
 20
166.0979518066278
 30
0.0
 11
469.1554742398758
 21
162.496481518739
 31
0.0
  0
LINE
  5
141C
330
A58
100
AcDbEntity
  8
SUNPOU
 62
     4
100
AcDbLine
 10
493.1652761601113
 20
176.9023626703154
 30
0.0
 11
517.1750780803119
 21
191.3082438218709
 31
0.0
  0
LINE
  5
141D
330
A58
100
AcDbEntity
  8
SUNPOU
 62
     4
100
AcDbLine
 10
481.160375199976
 20
169.6994220945167
 30
0.0
 11
487.1628256800612
 21
173.3008923824265
 31
0.0
  0
INSERT
  5
141E
330
A58
100
AcDbEntity
  8
SUNPOU
 62
     4
100
AcDbBlockReference
  2
_OPEN
 10
481.160375199976
 20
169.6994220945167
 30
0.0
 41
7.0
 42
7.0
 43
7.0
 50
30.96375653108238
  0
INSERT
  5
141F
330
A58
100
AcDbEntity
  8
SUNPOU
 62
     4
100
AcDbBlockReference
  2
_OPEN
 10
487.1628256800612
 20
173.3008923824265
 30
0.0
 41
7.0
 42
7.0
 43
7.0
 50
210.9637565310823
  0
MTEXT
  5
1420
330
A58
100
AcDbEntity
  8
SUNPOU
 62
     4
100
AcDbMText
 10
505.5989235831732
 20
190.1935030186448
 30
0.0
 40
6.0
 41
0.0
 71
     5
 72
     5
  1
\A1;t7.0
 11
0.857492925721444
 21
0.5144957554126934
 31
0.0
1001
ACAD
1000
MTEXTBEGIN
1070
    73
1070
     1
1070
    44
1040
1.0
1070
    74
1070
     0
1000
MTEXTEND
1000
MTEXTBEGIN
1070
    73
1070
     1
1070
    44
1040
1.0
1070
    74
1070
     0
1000
MTEXTEND
  0
POINT
  5
1421
330
A58
100
AcDbEntity
  8
DEFPOINTS
 62
     0
100
AcDbPoint
 10
473.4429388689354
 20
182.5618159800887
 30
0.0
  0
POINT
  5
1422
330
A58
100
AcDbEntity
  8
DEFPOINTS
 62
     0
100
AcDbPoint
 10
479.4453893490206
 20
186.1632862679985
 30
0.0
  0
POINT
  5
1423
330
A58
100
AcDbEntity
  8
DEFPOINTS
 62
     0
100
AcDbPoint
 10
487.1628256800612
 20
173.3008923824265
 30
0.0
  0
ENDBLK
  5
B0D
330
A58
100
AcDbEntity
  8
0
100
AcDbBlockEnd
  0
BLOCK
  5
B0E
330
A66
100
AcDbEntity
  8
0
100
AcDbBlockBegin
  2
*D11
 70
     1
 10
0.0
 20
0.0
 30
0.0
  3
*D11
  1

  0
LINE
  5
1424
330
A66
100
AcDbEntity
  8
SUNPOU
 62
     4
100
AcDbLine
 10
599.0162310506192
 20
254.5828625849273
 30
0.0
 11
612.5930091981835
 21
231.4228739168526
 31
0.0
  0
LINE
  5
1425
330
A66
100
AcDbEntity
  8
SUNPOU
 62
     4
100
AcDbLine
 10
623.1729238527191
 20
268.7439255998273
 30
0.0
 11
636.7497020002835
 21
245.5839369317525
 31
0.0
  0
LINE
  5
1426
330
A66
100
AcDbEntity
  8
SUNPOU
 62
     4
100
AcDbLine
 10
617.1146905925561
 20
237.5510381907429
 30
0.0
 11
629.193664840313
 21
244.6319377525806
 31
0.0
  0
INSERT
  5
1427
330
A66
100
AcDbEntity
  8
SUNPOU
 62
     4
100
AcDbBlockReference
  2
_OPEN
 10
611.0758313153845
 20
234.0109564642118
 30
0.0
 41
7.0
 42
7.0
 43
7.0
 50
210.379555131983
  0
INSERT
  5
1428
330
A66
100
AcDbEntity
  8
SUNPOU
 62
     4
100
AcDbBlockReference
  2
_OPEN
 10
635.2325241174844
 20
248.1720194791118
 30
0.0
 41
7.0
 42
7.0
 43
7.0
 50
30.37955513198306
  0
MTEXT
  5
1429
330
A66
100
AcDbEntity
  8
SUNPOU
 62
     4
100
AcDbMText
 10
620.6255479117694
 20
245.4049588839271
 30
0.0
 40
6.0
 41
0.0
 71
     5
 72
     5
  1
\A1;28
 11
0.8626941824530746
 21
0.5057259609330146
 31
0.0
1001
ACAD
1000
MTEXTBEGIN
1070
    73
1070
     1
1070
    44
1040
1.0
1070
    74
1070
     0
1000
MTEXTEND
1000
MTEXTBEGIN
1070
    73
1070
     1
1070
    44
1040
1.0
1070
    74
1070
     0
1000
MTEXTEND
  0
POINT
  5
142A
330
A66
100
AcDbEntity
  8
DEFPOINTS
 62
     0
100
AcDbPoint
 10
595.9818752850211
 20
259.7590276796458
 30
0.0
  0
POINT
  5
142B
330
A66
100
AcDbEntity
  8
DEFPOINTS
 62
     0
100
AcDbPoint
 10
620.138568087121
 20
273.9200906945458
 30
0.0
  0
POINT
  5
142C
330
A66
100
AcDbEntity
  8
DEFPOINTS
 62
     0
100
AcDbPoint
 10
635.2325241174844
 20
248.1720194791118
 30
0.0
  0
ENDBLK
  5
B18
330
A66
100
AcDbEntity
  8
0
100
AcDbBlockEnd
  0
BLOCK
  5
B19
330
A72
100
AcDbEntity
  8
0
100
AcDbBlockBegin
  2
*D12
 70
     1
 10
0.0
 20
0.0
 30
0.0
  3
*D12
  1

  0
LINE
  5
1436
330
A72
100
AcDbEntity
  8
SUNPOU
 62
     4
100
AcDbLine
 10
549.1913902847532
 20
302.7574579776193
 30
0.0
 11
522.8268828165158
 21
346.6983037579613
 31
0.0
  0
LINE
  5
1437
330
A72
100
AcDbEntity
  8
SUNPOU
 62
     4
100
AcDbLine
 10
604.0709375303531
 20
335.6851863250194
 30
0.0
 11
577.7064300621158
 21
379.6260321053614
 31
0.0
  0
LINE
  5
1438
330
A72
100
AcDbEntity
  8
SUNPOU
 62
     4
100
AcDbLine
 10
530.3728205627858
 20
347.7272952688205
 30
0.0
 11
573.2474668484139
 21
373.4520830402287
 31
0.0
  0
INSERT
  5
1439
330
A72
100
AcDbEntity
  8
SUNPOU
 62
     4
100
AcDbBlockReference
  2
_OPEN
 10
524.3703700827999
 20
344.1258249808246
 30
0.0
 41
7.0
 42
7.0
 43
7.0
 50
210.9637565321042
  0
INSERT
  5
143A
330
A72
100
AcDbEntity
  8
SUNPOU
 62
     4
100
AcDbBlockReference
  2
_OPEN
 10
579.2499173283998
 20
377.0535533282246
 30
0.0
 41
7.0
 42
7.0
 43
7.0
 50
30.96375653210428
  0
MTEXT
  5
143B
330
A72
100
AcDbEntity
  8
SUNPOU
 62
     4
100
AcDbMText
 10
549.2376649284598
 20
364.877153783086
 30
0.0
 40
6.0
 41
0.0
 71
     5
 72
     5
  1
\A1;64
 11
0.8574929257122679
 21
0.5144957554279869
 31
0.0
1001
ACAD
1000
MTEXTBEGIN
1070
    73
1070
     1
1070
    44
1040
1.0
1070
    74
1070
     0
1000
MTEXTEND
1000
MTEXTBEGIN
1070
    73
1070
     1
1070
    44
1040
1.0
1070
    74
1070
     0
1000
MTEXTEND
  0
POINT
  5
143C
330
A72
100
AcDbEntity
  8
DEFPOINTS
 62
     0
100
AcDbPoint
 10
552.2783648173211
 20
297.6125004233456
 30
0.0
  0
POINT
  5
143D
330
A72
100
AcDbEntity
  8
DEFPOINTS
 62
     0
100
AcDbPoint
 10
607.1579120629211
 20
330.5402287707457
 30
0.0
  0
POINT
  5
143E
330
A72
100
AcDbEntity
  8
DEFPOINTS
 62
     0
100
AcDbPoint
 10
579.2499173283998
 20
377.0535533282246
 30
0.0
  0
ENDBLK
  5
B23
330
A72
100
AcDbEntity
  8
0
100
AcDbBlockEnd
  0
BLOCK
  5
B24
330
A7E
100
AcDbEntity
  8
0
100
AcDbBlockBegin
  2
*D13
 70
     1
 10
0.0
 20
0.0
 30
0.0
  3
*D13
  1

  0
LINE
  5
142D
330
A7E
100
AcDbEntity
  8
SUNPOU
 62
     4
100
AcDbLine
 10
535.5797126120988
 20
309.9719685299227
 30
0.0
 11
508.4741843585761
 21
355.8367569446883
 31
0.0
  0
LINE
  5
142E
330
A7E
100
AcDbEntity
  8
SUNPOU
 62
     4
100
AcDbLine
 10
604.4529862030986
 20
350.6752297409227
 30
0.0
 11
577.347457949576
 21
396.5400181556883
 31
0.0
  0
LINE
  5
142F
330
A7E
100
AcDbEntity
  8
SUNPOU
 62
     4
100
AcDbLine
 10
516.0268009412772
 20
356.8155228792758
 30
0.0
 11
572.8475183968973
 21
390.3958710202237
 31
0.0
  0
INSERT
  5
1430
330
A7E
100
AcDbEntity
  8
SUNPOU
 62
     4
100
AcDbBlockReference
  2
_OPEN
 10
510.0005228735873
 20
353.2540663442497
 30
0.0
 41
7.0
 42
7.0
 43
7.0
 50
210.5825673312441
  0
INSERT
  5
1431
330
A7E
100
AcDbEntity
  8
SUNPOU
 62
     4
100
AcDbBlockReference
  2
_OPEN
 10
578.8737964645872
 20
393.9573275552497
 30
0.0
 41
7.0
 42
7.0
 43
7.0
 50
30.58256733124411
  0
MTEXT
  5
1432
330
A7E
100
AcDbEntity
  8
SUNPOU
 62
     4
100
AcDbMText
 10
541.8932621440687
 20
377.9101812838139
 30
0.0
 40
6.0
 41
0.0
 71
     5
 72
     5
  1
\A1;80
 11
0.8608968668128438
 21
0.5087795050037182
 31
0.0
1001
ACAD
1000
MTEXTBEGIN
1070
    73
1070
     1
1070
    44
1040
1.0
1070
    74
1070
     0
1000
MTEXTEND
1000
MTEXTBEGIN
1070
    73
1070
     1
1070
    44
1040
1.0
1070
    74
1070
     0
1000
MTEXTEND
  0
POINT
  5
1433
330
A7E
100
AcDbEntity
  8
DEFPOINTS
 62
     0
100
AcDbPoint
 10
538.6323896421211
 20
304.8065873290457
 30
0.0
  0
POINT
  5
1434
330
A7E
100
AcDbEntity
  8
DEFPOINTS
 62
     0
100
AcDbPoint
 10
607.505663233121
 20
345.5098485400457
 30
0.0
  0
POINT
  5
1435
330
A7E
100
AcDbEntity
  8
DEFPOINTS
 62
     0
100
AcDbPoint
 10
578.8737964645872
 20
393.9573275552497
 30
0.0
  0
ENDBLK
  5
B2E
330
A7E
100
AcDbEntity
  8
0
100
AcDbBlockEnd
  0
BLOCK
  5
B2F
330
A8A
100
AcDbEntity
  8
0
100
AcDbBlockBegin
  2
*D14
 70
     1
 10
0.0
 20
0.0
 30
0.0
  3
*D14
  1

  0
LINE
  5
1448
330
A8A
100
AcDbEntity
  8
SUNPOU
 62
     4
100
AcDbLine
 10
450.440965275131
 20
435.2250659072837
 30
0.0
 11
502.4349863705539
 21
435.2250659072837
 31
0.0
  0
LINE
  5
1449
330
A8A
100
AcDbEntity
  8
SUNPOU
 62
     4
100
AcDbLine
 10
450.440965275131
 20
355.2250659072837
 30
0.0
 11
502.4349863705539
 21
355.2250659072837
 31
0.0
  0
LINE
  5
144A
330
A8A
100
AcDbEntity
  8
SUNPOU
 62
     4
100
AcDbLine
 10
499.4349863705539
 20
428.2250659072837
 30
0.0
 11
499.4349863705538
 21
362.2250659072838
 31
0.0
  0
INSERT
  5
144B
330
A8A
100
AcDbEntity
  8
SUNPOU
 62
     4
100
AcDbBlockReference
  2
_OPEN
 10
499.4349863705539
 20
435.2250659072837
 30
0.0
 41
7.0
 42
7.0
 43
7.0
 50
90.0
  0
INSERT
  5
144C
330
A8A
100
AcDbEntity
  8
SUNPOU
 62
     4
100
AcDbBlockReference
  2
_OPEN
 10
499.4349863705538
 20
355.2250659072837
 30
0.0
 41
7.0
 42
7.0
 43
7.0
 50
270.0
  0
MTEXT
  5
144D
330
A8A
100
AcDbEntity
  8
SUNPOU
 62
     4
100
AcDbMText
 10
494.4349863705538
 20
395.2250659072838
 30
0.0
 40
6.0
 41
0.0
 71
     5
 72
     5
  1
\A1;80
 11
0.0000000000000001
 21
1.0
 31
0.0
1001
ACAD
1000
MTEXTBEGIN
1070
    73
1070
     1
1070
    44
1040
1.0
1070
    74
1070
     0
1000
MTEXTEND
1000
MTEXTBEGIN
1070
    73
1070
     1
1070
    44
1040
1.0
1070
    74
1070
     0
1000
MTEXTEND
  0
POINT
  5
144E
330
A8A
100
AcDbEntity
  8
DEFPOINTS
 62
     0
100
AcDbPoint
 10
444.440965275131
 20
435.2250659072837
 30
0.0
  0
POINT
  5
144F
330
A8A
100
AcDbEntity
  8
DEFPOINTS
 62
     0
100
AcDbPoint
 10
444.440965275131
 20
355.2250659072837
 30
0.0
  0
POINT
  5
1450
330
A8A
100
AcDbEntity
  8
DEFPOINTS
 62
     0
100
AcDbPoint
 10
499.4349863705538
 20
355.2250659072837
 30
0.0
  0
ENDBLK
  5
B39
330
A8A
100
AcDbEntity
  8
0
100
AcDbBlockEnd
  0
ENDSEC
  0
SECTION
  2
ENTITIES
  0
LINE
  5
601
330
1A
100
AcDbEntity
  8
CENTER_L
 48
5.0
100
AcDbLine
 10
248.7280722147354
 20
395.2250659072837
 30
0.0
 11
483.7117493482842
 21
395.2250659072838
 31
0.0
  0
LINE
  5
605
330
1A
100
AcDbEntity
  8
SEIHIN
100
AcDbLine
 10
262.7704333258354
 20
409.2250659072838
 30
0.0
 11
426.0776973682688
 21
409.2250659072837
 31
0.0
  0
LINE
  5
606
330
1A
100
AcDbEntity
  8
SEIHIN
100
AcDbLine
 10
262.7704333258354
 20
381.2250659072838
 30
0.0
 11
426.0074840809923
 21
381.2250659072838
 31
0.0
  0
LINE
  5
607
330
1A
100
AcDbEntity
  8
SEIHIN
100
AcDbLine
 10
405.2185047354355
 20
203.1507129731887
 30
0.0
 11
459.2609105117353
 21
203.1507129731887
 31
0.0
  0
LINE
  5
608
330
1A
100
AcDbEntity
  8
SEIHIN
100
AcDbLine
 10
401.7755581638355
 20
199.6507129731887
 30
0.0
 11
461.4285295362353
 21
199.6507129731887
 31
0.0
  0
LINE
  5
609
330
1A
100
AcDbEntity
  8
SEIHIN
100
AcDbLine
 10
437.0690134645354
 20
256.6864127420886
 30
0.0
 11
394.2916342206353
 21
256.6864127420886
 31
0.0
  0
DIMENSION
  5
60A
330
1A
100
AcDbEntity
  8
SUNPOU
100
AcDbDimension
  2
*D1
 10
426.2646026005388
 20
274.6937641820543
 30
0.0
 11
447.7019257433469
 21
287.5561580677521
 31
0.0
 70
   161
  3
STANDARD
100
AcDbAlignedDimension
 13
425.4071096748353
 23
256.6864127420886
 33
0.0
 14
433.9820389319584
 24
261.8313702963677
 34
0.0
1001
ACAD
1000
DSTYLE
1002
{
1070
    41
1040
7.0
1070
    42
1040
6.0
1070
    43
1040
14.0
1070
    44
1040
3.0
1070
    73
1070
     0
1070
    74
1070
     0
1070
    77
1070
     3
1070
   140
1040
6.0
1070
   141
1040
150.0
1070
   147
1040
2.0
1070
   172
1070
     1
1070
   173
1070
     1
1070
   176
1070
     4
1070
   177
1070
     4
1070
   178
1070
     4
1070
   271
1070
     0
1070
   272
1070
     0
1070
   341
1005
6D
1070
     6
1000
OPEN
1070
     7
1000
OPEN
1002
}
  0
DIMENSION
  5
60B
330
1A
100
AcDbEntity
  8
SUNPOU
100
AcDbDimension
  2
*D2
 10
437.0690134645354
 20
301.7185687268049
 30
0.0
 11
416.6572900243391
 21
301.7185687268049
 31
0.0
 70
   160
  3
STANDARD
100
AcDbAlignedDimension
 13
396.2455665841425
 23
220.7497320013507
 33
0.0
 14
437.0690134645354
 24
256.6864127420886
 34
0.0
100
AcDbRotatedDimension
1001
ACAD
1000
DSTYLE
1002
{
1070
    41
1040
7.0
1070
    42
1040
6.0
1070
    43
1040
14.0
1070
    44
1040
3.0
1070
    73
1070
     0
1070
    74
1070
     0
1070
    77
1070
     3
1070
   140
1040
6.0
1070
   141
1040
150.0
1070
   147
1040
2.0
1070
   172
1070
     1
1070
   173
1070
     1
1070
   176
1070
     4
1070
   177
1070
     4
1070
   178
1070
     4
1070
   271
1070
     0
1070
   272
1070
     0
1070
   341
1005
6D
1070
     6
1000
OPEN
1070
     7
1000
OPEN
1002
}
  0
DIMENSION
  5
60C
330
1A
100
AcDbEntity
  8
SUNPOU
100
AcDbDimension
  2
*D3
 10
202.921816214777
 20
182.5618159800888
 30
0.0
 11
202.921816214777
 21
211.3285604784187
 31
0.0
 70
   160
  3
STANDARD
100
AcDbAlignedDimension
 13
267.3460568274427
 23
256.6497320013507
 33
0.0
 14
473.4429388689354
 24
182.5618159800887
 34
0.0
 50
90.0
100
AcDbRotatedDimension
1001
ACAD
1000
DSTYLE
1002
{
1070
    41
1040
7.0
1070
    42
1040
6.0
1070
    43
1040
14.0
1070
    44
1040
3.0
1070
    73
1070
     0
1070
    74
1070
     0
1070
    77
1070
     3
1070
   140
1040
6.0
1070
   141
1040
150.0
1070
   147
1040
2.0
1070
   172
1070
     1
1070
   173
1070
     1
1070
   176
1070
     4
1070
   177
1070
     4
1070
   178
1070
     4
1070
   271
1070
     0
1070
   272
1070
     0
1070
   341
1005
6D
1070
     6
1000
OPEN
1070
     7
1000
OPEN
1002
}
  0
DIMENSION
  5
60D
330
1A
100
AcDbEntity
  8
SUNPOU
100
AcDbDimension
  2
*D4
 10
262.7704333258354
 20
301.7185687268049
 30
0.0
 11
329.5079999549889
 21
301.7185687268049
 31
0.0
 70
   160
  3
STANDARD
100
AcDbAlignedDimension
 13
396.2455665841425
 23
220.7497320013507
 33
0.0
 14
262.7704333258354
 24
250.4007129731887
 34
0.0
100
AcDbRotatedDimension
1001
ACAD
1000
DSTYLE
1002
{
1070
    41
1040
7.0
1070
    42
1040
6.0
1070
    43
1040
14.0
1070
    44
1040
3.0
1070
    73
1070
     0
1070
    74
1070
     0
1070
    77
1070
     3
1070
   140
1040
6.0
1070
   141
1040
150.0
1070
   147
1040
2.0
1070
   172
1070
     1
1070
   173
1070
     1
1070
   176
1070
     4
1070
   177
1070
     4
1070
   178
1070
     4
1070
   271
1070
     0
1070
   272
1070
     0
1070
   341
1005
6D
1070
     6
1000
OPEN
1070
     7
1000
OPEN
1002
}
  0
ARC
  5
60E
330
1A
100
AcDbEntity
  8
SEIHIN
100
AcDbCircle
 10
-291.2621237522353
 20
215.8507129731887
 30
0.0
 40
10.0
210
0.0
220
0.0
230
-1.0
100
AcDbArc
 50
90.00000497840083
 51
123.4241893709974
  0
ARC
  5
60F
330
1A
100
AcDbEntity
  8
SEIHIN
100
AcDbCircle
 10
-291.2621237522353
 20
215.8507129731887
 30
0.0
 40
13.5
210
0.0
220
0.0
230
-1.0
100
AcDbArc
 50
89.99999757830185
 51
123.4241866837033
  0
ARC
  5
610
330
1A
100
AcDbEntity
  8
SEIHIN
100
AcDbCircle
 10
331.6724663681354
 20
290.6192605959887
 30
0.0
 40
62.99061073449999
100
AcDbArc
 50
231.3055937370978
 51
314.4052601452975
  0
ARC
  5
611
330
1A
100
AcDbEntity
  8
SEIHIN
100
AcDbCircle
 10
331.6724663681354
 20
290.6192605959887
 30
0.0
 40
59.4906107345
100
AcDbArc
 50
228.2657563722006
 51
314.4052601452975
  0
ARC
  5
612
330
1A
100
AcDbEntity
  8
SEIHIN
100
AcDbCircle
 10
270.8893953359354
 20
251.6507129731887
 30
0.0
 40
2.0
100
AcDbArc
 50
160.7099537807992
 51
270.0
  0
LINE
  5
615
330
1A
100
AcDbEntity
  8
SEIHIN
100
AcDbLine
 10
270.2704333258354
 20
225.8507129731887
 30
0.0
 11
291.2621246211354
 21
225.8507129731887
 31
0.0
  0
LINE
  5
616
330
1A
100
AcDbEntity
  8
SEIHIN
100
AcDbLine
 10
283.0843343123353
 20
249.6507129731887
 30
0.0
 11
270.8893953359354
 21
249.6507129731887
 31
0.0
  0
LINE
  5
617
330
1A
100
AcDbEntity
  8
SEIHIN
100
AcDbLine
 10
270.2704333258354
 20
229.3507129731887
 30
0.0
 11
291.2621231816353
 21
229.3507129731887
 31
0.0
  0
LINE
  5
619
330
1A
100
AcDbEntity
  8
SEIHIN
100
AcDbLine
 10
286.0411850236355
 20
243.6507129731887
 30
0.0
 11
269.5204343862353
 21
243.6507129731887
 31
0.0
  0
LINE
  5
61B
330
1A
100
AcDbEntity
  8
SEIHIN
100
AcDbLine
 10
268.1649799525353
 20
234.3277804974887
 30
0.0
 11
271.5419474354352
 21
236.1155418404887
 31
0.0
  0
LINE
  5
61D
330
1A
100
AcDbEntity
  8
SEIHIN
100
AcDbLine
 10
269.8025547984352
 20
231.2345057563887
 30
0.0
 11
273.1795222813352
 21
233.0222670992887
 31
0.0
  0
LINE
  5
620
330
1A
100
AcDbEntity
  8
SEIHIN
100
AcDbLine
 10
277.1704333258353
 20
239.6507132974887
 30
0.0
 11
277.1704333258353
 21
242.6507129731887
 31
0.0
  0
LINE
  5
622
330
1A
100
AcDbEntity
  8
SEIHIN
100
AcDbLine
 10
269.8156928233354
 20
256.6507129731887
 30
0.0
 11
266.9709235691352
 21
256.6507129731887
 31
0.0
  0
LINE
  5
624
330
1A
100
AcDbEntity
  8
SEIHIN
100
AcDbLine
 10
270.2876220015355
 20
255.9855377607887
 30
0.0
 11
269.0016786232354
 21
252.3114138225887
 31
0.0
  0
LINE
  5
625
330
1A
100
AcDbEntity
  8
SEIHIN
100
AcDbLine
 10
397.8704333258353
 20
205.5645631675887
 30
0.0
 11
397.8704333258353
 21
203.7368627786887
 31
0.0
  0
LINE
  5
627
330
1A
100
AcDbEntity
  8
SEIHIN
100
AcDbLine
 10
403.0608177343354
 20
222.8744075382887
 30
0.0
 11
404.2204045054354
 21
204.0891018478887
 31
0.0
  0
LINE
  5
628
330
1A
100
AcDbEntity
  8
SEIHIN
100
AcDbLine
 10
399.5674669291354
 20
222.6587685996887
 30
0.0
 11
400.7270537002354
 21
203.8734629092887
 31
0.0
  0
LINE
  5
62B
330
1A
100
AcDbEntity
  8
SEIHIN
100
AcDbLine
 10
381.5195803648352
 20
204.3507129731887
 30
0.0
 11
362.8704302692353
 21
204.3507129731887
 31
0.0
  0
LINE
  5
62E
330
1A
100
AcDbEntity
  8
SEIHIN
100
AcDbLine
 10
398.5657697108354
 20
201.8163093111887
 30
0.0
 11
399.4708943250354
 21
200.7301597741887
 31
0.0
  0
ARC
  5
62F
330
1A
100
AcDbEntity
  8
SEIHIN
100
AcDbCircle
 10
405.2185047354355
 20
204.1507129731887
 30
0.0
 40
1.0
100
AcDbArc
 50
183.5322945839
 51
270.0
  0
ARC
  5
631
330
1A
100
AcDbEntity
  8
SEIHIN
100
AcDbCircle
 10
-362.8704333258354
 20
324.3507129731887
 30
0.0
 40
116.5
210
0.0
220
0.0
230
-1.0
100
AcDbArc
 50
303.4241891158988
 51
303.4241893624983
  0
ARC
  5
632
330
1A
100
AcDbEntity
  8
SEIHIN
100
AcDbCircle
 10
-362.8704333258354
 20
324.3507129731887
 30
0.0
 40
120.0
210
0.0
220
0.0
230
-1.0
100
AcDbArc
 50
303.4241893819004
 51
303.4241894726982
  0
LINE
  5
635
330
1A
100
AcDbEntity
  8
SEIHIN
100
AcDbLine
 10
394.5769657789353
 20
230.8507129731887
 30
0.0
 11
388.2622039614354
 21
230.8507129731887
 31
0.0
  0
LINE
  5
636
330
1A
100
AcDbEntity
  8
SEIHIN
100
AcDbLine
 10
394.5769657789353
 20
227.3507129731887
 30
0.0
 11
388.2622045371354
 21
227.3507129731888
 31
0.0
  0
ARC
  5
639
330
1A
100
AcDbEntity
  8
SEIHIN
100
AcDbCircle
 10
374.8097667254355
 20
208.8507129731887
 30
0.0
 40
1.0
100
AcDbArc
 50
270.0
 51
345.0000000000008
  0
LINE
  5
63A
330
1A
100
AcDbEntity
  8
SEIHIN
100
AcDbLine
 10
374.8097667254355
 20
207.8507129731887
 30
0.0
 11
362.8704304527354
 21
207.8507129731887
 31
0.0
  0
LINE
  5
63B
330
1A
100
AcDbEntity
  8
SEIHIN
100
AcDbLine
 10
375.7756925516355
 20
208.5918939280887
 30
0.0
 11
380.0518351577354
 21
224.5506753941887
 31
0.0
  0
LINE
  5
63C
330
1A
100
AcDbEntity
  8
SEIHIN
100
AcDbLine
 10
380.0390830991354
 20
210.9801224956886
 30
0.0
 11
383.4325753023354
 21
223.6448078129887
 31
0.0
  0
LINE
  5
63D
330
1A
100
AcDbEntity
  8
SEIHIN
100
AcDbLine
 10
387.0044079221354
 20
210.3507129731887
 30
0.0
 11
380.5220460123355
 21
210.3507129731887
 31
0.0
  0
LINE
  5
640
330
1A
100
AcDbEntity
  8
SEIHIN
100
AcDbLine
 10
387.4374206894353
 20
209.6007130864887
 30
0.0
 11
385.8497070892354
 21
206.8507124630887
 31
0.0
  0
LINE
  5
645
330
1A
100
AcDbEntity
  8
SEIHIN
100
AcDbLine
 10
398.5657696647354
 20
207.4851165797887
 30
0.0
 11
399.6073584082355
 21
208.7350230719887
 31
0.0
  0
LINE
  5
648
330
1A
100
AcDbEntity
  8
SEIHIN
100
AcDbLine
 10
395.8704333258353
 20
222.2507129731887
 30
0.0
 11
395.8704333258353
 21
224.3507134201887
 31
0.0
  0
LINE
  5
649
330
1A
100
AcDbEntity
  8
SEIHIN
100
AcDbLine
 10
395.8704333258353
 20
222.6826211472887
 30
0.0
 11
395.8704333258353
 21
222.8933538890887
 31
0.0
  0
LINE
  5
64A
330
1A
100
AcDbEntity
  8
SEIHIN
100
AcDbLine
 10
397.0704333258354
 20
219.8507129731887
 30
0.0
 11
398.7615333545354
 21
218.5823879516887
 31
0.0
  0
LINE
  5
64C
330
1A
100
AcDbEntity
  8
SEIHIN
100
AcDbLine
 10
423.4985779888354
 20
253.1864127420886
 30
0.0
 11
394.2916342179355
 21
253.1864127420886
 31
0.0
  0
LINE
  5
64D
330
1A
100
AcDbEntity
  8
SEIHIN
100
AcDbLine
 10
394.2916347916355
 20
256.6864127420886
 30
0.0
 11
394.2916342206353
 21
256.6864127420886
 31
0.0
  0
DIMENSION
  5
64E
330
1A
100
AcDbEntity
  8
SUNPOU
100
AcDbDimension
  2
*D5
 10
202.921816214777
 20
381.2250659072838
 30
0.0
 11
202.921816214777
 21
395.2250659072838
 31
0.0
 70
   160
  3
STANDARD
100
AcDbAlignedDimension
 13
262.7704333258354
 23
409.2250659072837
 33
0.0
 14
262.7704333258354
 24
381.2250659072838
 34
0.0
 50
90.0
100
AcDbRotatedDimension
1001
ACAD
1000
DSTYLE
1002
{
1070
    41
1040
7.0
1070
    42
1040
6.0
1070
    43
1040
14.0
1070
    44
1040
3.0
1070
    73
1070
     0
1070
    74
1070
     0
1070
    77
1070
     3
1070
   140
1040
6.0
1070
   141
1040
150.0
1070
   147
1040
2.0
1070
   172
1070
     1
1070
   173
1070
     1
1070
   176
1070
     4
1070
   177
1070
     4
1070
   178
1070
     4
1070
   271
1070
     0
1070
   272
1070
     0
1070
   341
1005
6D
1070
     6
1000
OPEN
1070
     7
1000
OPEN
1002
}
  0
LINE
  5
64F
330
1A
100
AcDbEntity
  8
SEIHIN
100
AcDbLine
 10
283.0843343123353
 20
406.3442524611838
 30
0.0
 11
283.0843343123353
 21
383.9680619849838
 31
0.0
  0
LINE
  5
650
330
1A
100
AcDbEntity
  8
SEIHIN
100
AcDbLine
 10
270.8704333258353
 20
381.2250659072838
 30
0.0
 11
270.8704333258353
 21
409.2250659072837
 31
0.0
  0
LINE
  5
651
330
1A
100
AcDbEntity
  8
SEIHIN
100
AcDbLine
 10
262.7704333258354
 20
381.2250659072838
 30
0.0
 11
262.7704333258354
 21
409.2250659072837
 31
0.0
  0
LINE
  5
652
330
1A
100
AcDbEntity
  8
CENTER_L
 48
5.0
100
AcDbLine
 10
549.3709069042479
 20
302.4589838261555
 30
0.0
 11
555.5115143992311
 21
292.2231168944998
 31
0.0
  0
LINE
  5
653
330
1A
100
AcDbEntity
  8
CENTER_L
 48
5.0
100
AcDbLine
 10
547.0499390418426
 20
294.4759111419264
 30
0.0
 11
558.0169332005689
 21
301.0551297834114
 31
0.0
  0
LINE
  5
654
330
1A
100
AcDbEntity
  8
CENTER_L
 48
5.0
100
AcDbLine
 10
564.483001740921
 20
339.4682590956457
 30
0.0
 11
612.1490977927212
 21
260.0247656759457
 31
0.0
  0
DIMENSION
  5
655
330
1A
100
AcDbEntity
  8
SUNPOU
100
AcDbDimension
  2
*D6
 10
549.7058860380731
 20
237.7594942120506
 30
0.0
 11
541.1309567819769
 21
261.7692961302953
 31
0.0
 70
    33
  3
STANDARD
100
AcDbAlignedDimension
 13
552.2783648172289
 23
297.6125004233441
 33
0.0
 14
578.0031525865479
 24
254.7378541411286
 34
0.0
1001
ACAD
1000
DSTYLE
1002
{
1070
    41
1040
7.0
1070
    42
1040
6.0
1070
    43
1040
14.0
1070
    44
1040
3.0
1070
    73
1070
     0
1070
    74
1070
     0
1070
    77
1070
     3
1070
   140
1040
6.0
1070
   141
1040
150.0
1070
   147
1040
2.0
1070
   172
1070
     1
1070
   173
1070
     1
1070
   176
1070
     4
1070
   177
1070
     4
1070
   178
1070
     4
1070
   271
1070
     0
1070
   272
1070
     0
1070
   341
1005
6D
1070
     6
1000
OPEN
1070
     7
1000
OPEN
1002
}
  0
DIMENSION
  5
656
330
1A
100
AcDbEntity
  8
SUNPOU
100
AcDbDimension
  2
*D7
 10
523.9810982687535
 20
280.6341404942657
 30
0.0
 11
522.0320018614891
 21
293.6008876644527
 31
0.0
 70
    33
  3
STANDARD
100
AcDbAlignedDimension
 13
539.805242745574
 23
318.4010372094444
 33
0.0
 14
552.2783648172292
 24
297.6125004233443
 34
0.0
1001
ACAD
1000
DSTYLE
1002
{
1070
    41
1040
7.0
1070
    42
1040
6.0
1070
    43
1040
14.0
1070
    44
1040
3.0
1070
    73
1070
     0
1070
    74
1070
     0
1070
    77
1070
     3
1070
   140
1040
6.0
1070
   141
1040
150.0
1070
   147
1040
2.0
1070
   172
1070
     1
1070
   173
1070
     1
1070
   176
1070
     4
1070
   177
1070
     4
1070
   178
1070
     4
1070
   271
1070
     0
1070
   272
1070
     0
1070
   341
1005
6D
1070
     6
1000
OPEN
1070
     7
1000
OPEN
1002
}
  0
LINE
  5
657
330
1A
100
AcDbEntity
  8
SEIHIN
100
AcDbLine
 10
580.4727322148712
 20
317.6778348847954
 30
0.0
 11
603.4887393961209
 21
279.3178229160456
 31
0.0
  0
LINE
  5
658
330
1A
100
AcDbEntity
  8
SEIHIN
100
AcDbLine
 10
568.8965777175935
 20
310.7321421867993
 30
0.0
 11
595.7380439619212
 21
265.9963651129457
 31
0.0
  0
CIRCLE
  5
659
330
1A
100
AcDbEntity
  8
SEIHIN
100
AcDbCircle
 10
552.278364817321
 20
297.6125004233456
 30
0.0
 40
2.7
  0
LINE
  5
65A
330
1A
100
AcDbEntity
  8
SEIHIN
100
AcDbLine
 10
547.990900188721
 20
289.2090697513457
 30
0.0
 11
538.6323896421211
 21
304.8065873290457
 31
0.0
  0
ARC
  5
65B
330
1A
100
AcDbEntity
  8
SEIHIN
100
AcDbCircle
 10
552.278364817321
 20
297.6125004233456
 30
0.0
 40
7.7
100
AcDbArc
 50
279.9095250053965
 51
56.13261001664894
  0
LINE
  5
65C
330
1A
100
AcDbEntity
  8
SEIHIN
100
AcDbLine
 10
575.6267223993211
 20
293.6842824891457
 30
0.0
 11
566.3240989404764
 21
309.1886549205535
 31
0.0
  0
LINE
  5
65D
330
1A
100
AcDbEntity
  8
SEIHIN
100
AcDbLine
 10
599.201274767521
 20
276.7453441389457
 30
0.0
 11
576.1852675861125
 21
315.1053561079346
 31
0.0
  0
LINE
  5
65E
330
1A
100
AcDbEntity
  8
SEIHIN
100
AcDbLine
 10
614.6944280836212
 20
277.1627054722457
 30
0.0
 11
587.761422083372
 21
322.0510488059419
 31
0.0
  0
LINE
  5
65F
330
1A
100
AcDbEntity
  8
SEIHIN
100
AcDbLine
 10
606.128920552021
 20
297.2695032530457
 30
0.0
 11
619.2542779636212
 21
275.3939075671457
 31
0.0
  0
DIMENSION
  5
660
330
1A
100
AcDbEntity
  8
SUNPOU
100
AcDbDimension
  2
*D8
 10
553.8218520816185
 20
230.8995508061372
 30
0.0
 11
567.3702403079253
 21
218.0371569205002
 31
0.0
 70
    33
  3
STANDARD
100
AcDbAlignedDimension
 13
605.4429262093663
 23
271.201718314813
 33
0.0
 14
609.5588922528072
 24
264.3417749091368
 34
0.0
1001
ACAD
1000
DSTYLE
1002
{
1070
    41
1040
7.0
1070
    42
1040
6.0
1070
    43
1040
14.0
1070
    44
1040
3.0
1070
    73
1070
     0
1070
    74
1070
     0
1070
    77
1070
     3
1070
   140
1040
6.0
1070
   141
1040
150.0
1070
   147
1040
2.0
1070
   172
1070
     1
1070
   173
1070
     1
1070
   176
1070
     4
1070
   177
1070
     4
1070
   178
1070
     4
1070
   271
1070
     0
1070
   272
1070
     0
1070
   341
1005
6D
1070
     6
1000
OPEN
1070
     7
1000
OPEN
1002
}
  0
ARC
  5
661
330
1A
100
AcDbEntity
  8
SEIHIN
100
AcDbCircle
 10
556.565829445921
 20
294.3540273056457
 30
0.0
 40
7.0
100
AcDbArc
 50
242.2870090075965
 51
300.9637565672997
  0
ARC
  5
662
330
1A
100
AcDbEntity
  8
SEIHIN
100
AcDbCircle
 10
556.565829445921
 20
294.3540273056457
 30
0.0
 40
10.0
100
AcDbArc
 50
210.9637565555983
 51
300.9637565672997
  0
DIMENSION
  5
663
330
1A
100
AcDbEntity
  8
SUNPOU
100
AcDbDimension
  2
*D9
 10
505.0801085412587
 20
201.5175988117699
 30
0.0
 11
488.2311127492251
 21
239.3782479014602
 31
0.0
 70
    33
  3
STANDARD
100
AcDbAlignedDimension
 13
437.1226067723958
 23
256.7185687268048
 33
0.0
 14
479.3994334666035
 24
186.1357127386938
 34
0.0
1001
ACAD
1000
DSTYLE
1002
{
1070
    41
1040
7.0
1070
    42
1040
6.0
1070
    43
1040
14.0
1070
    44
1040
3.0
1070
    73
1070
     0
1070
    74
1070
     0
1070
    77
1070
     3
1070
   140
1040
6.0
1070
   141
1040
150.0
1070
   147
1040
2.0
1070
   172
1070
     1
1070
   173
1070
     1
1070
   176
1070
     4
1070
   177
1070
     4
1070
   178
1070
     4
1070
   271
1070
     0
1070
   272
1070
     0
1070
   341
1005
6D
1070
     6
1000
OPEN
1070
     7
1000
OPEN
1002
}
  0
LINE
  5
665
330
1A
100
AcDbEntity
  8
SEIHIN
100
AcDbLine
 10
460.4783203509355
 20
209.8962987382887
 30
0.0
 11
475.1297244374354
 21
185.4772919274886
 31
0.0
  0
LINE
  5
666
330
1A
100
AcDbEntity
  8
SEIHIN
100
AcDbLine
 10
437.0690134645354
 20
256.6864127420886
 30
0.0
 11
477.3249063272353
 21
189.5932579709887
 31
0.0
  0
LINE
  5
667
330
1A
100
AcDbEntity
  8
SEIHIN
100
AcDbLine
 10
457.9455662061355
 20
208.2866037514887
 30
0.0
 11
473.3804388689354
 21
182.5618159800887
 31
0.0
  0
LINE
  5
669
330
1A
100
AcDbEntity
  8
SUNPOU
100
AcDbLine
 10
477.3249063272353
 20
189.5932579709887
 30
0.0
 11
500.6157445189355
 21
150.7751943179887
 31
0.0
  0
DIMENSION
  5
66A
330
1A
100
AcDbEntity
  8
SUNPOU
100
AcDbDimension
  2
*D10
 10
487.1628256800612
 20
173.3008923824265
 30
0.0
 11
508.1714023602367
 21
185.9060383900376
 31
0.0
 70
   161
  1
t7.0
  3
STANDARD
100
AcDbAlignedDimension
 13
473.4429388689354
 23
182.5618159800887
 33
0.0
 14
479.4453893490206
 24
186.1632862679986
 34
0.0
1001
ACAD
1000
DSTYLE
1002
{
1070
    41
1040
7.0
1070
    42
1040
6.0
1070
    43
1040
14.0
1070
    44
1040
3.0
1070
    73
1070
     0
1070
    74
1070
     0
1070
    77
1070
     3
1070
   140
1040
6.0
1070
   141
1040
150.0
1070
   147
1040
2.0
1070
   172
1070
     1
1070
   173
1070
     1
1070
   176
1070
     4
1070
   177
1070
     4
1070
   178
1070
     4
1070
   271
1070
     0
1070
   272
1070
     0
1070
   341
1005
6D
1070
     6
1000
OPEN
1070
     7
1000
OPEN
1002
}
  0
LINE
  5
66B
330
1A
100
AcDbEntity
  8
CENTER_L
 48
5.0
100
AcDbLine
 10
462.3723734351747
 20
185.3593866501934
 30
0.0
 11
479.5222319494198
 21
195.6493017587531
 31
0.0
  0
LINE
  5
66C
330
1A
100
AcDbEntity
  8
SEIHIN
100
AcDbLine
 10
475.0954247203353
 20
183.5908074909887
 30
0.0
 11
473.3804388689354
 21
182.5618159800887
 31
0.0
  0
LINE
  5
66E
330
1A
100
AcDbEntity
  8
SEIHIN
100
AcDbLine
 10
474.5809289649355
 20
184.4483004166887
 30
0.0
 11
475.0954247203353
 21
183.5908074909887
 31
0.0
  0
LINE
  5
66F
330
1A
100
AcDbEntity
  8
SEIHIN
100
AcDbLine
 10
477.3249063272353
 20
189.5932579709887
 30
0.0
 11
474.5809289649355
 21
184.4483004166887
 31
0.0
  0
LINE
  5
670
330
1A
100
AcDbEntity
  8
SUNPOU
100
AcDbLine
 10
494.6157445189355
 20
160.7751943179887
 30
0.0
 11
494.6157445189355
 21
150.7751943179887
 31
0.0
  0
LINE
  5
672
330
1A
100
AcDbEntity
  8
SUNPOU
100
AcDbLine
 10
494.6157445189355
 20
150.7751943179887
 30
0.0
 11
500.6157445189355
 21
150.7751943179887
 31
0.0
  0
LINE
  5
673
330
1A
100
AcDbEntity
  8
SEIHIN
100
AcDbLine
 10
460.4783203509355
 20
209.8962987382887
 30
0.0
 11
430.6958089402355
 21
254.1967363497886
 31
0.0
  0
LINE
  5
674
330
1A
100
AcDbEntity
  8
SEIHIN
100
AcDbLine
 10
457.9455662061355
 20
208.2866037514887
 30
0.0
 11
430.1377150351354
 21
249.6498037489887
 31
0.0
  0
LINE
  5
675
330
1A
100
AcDbEntity
  8
CENTER_L
 48
5.0
100
AcDbLine
 10
436.6475856658412
 20
228.2340329323732
 30
0.0
 11
453.7974441800863
 21
238.523948040933
 31
0.0
  0
LINE
  5
676
330
1A
100
AcDbEntity
  8
SEIHIN
100
AcDbLine
 10
432.0220373126353
 20
256.6864127420886
 30
0.0
 11
430.6958089402355
 21
254.1967363497886
 31
0.0
  0
LINE
  5
677
330
1A
100
AcDbEntity
  8
SEIHIN
100
AcDbLine
 10
430.6958089402355
 20
254.1967363497886
 30
0.0
 11
424.9049625415355
 21
255.8017170962887
 31
0.0
  0
ARC
  5
678
330
1A
100
AcDbEntity
  8
SEIHIN
100
AcDbCircle
 10
553.7755727392212
 20
289.0422980663457
 30
0.0
 40
1.0
100
AcDbArc
 50
99.90952498190251
 51
242.2870090075965
  0
DIMENSION
  5
679
330
1A
100
AcDbEntity
  8
SUNPOU
100
AcDbDimension
  2
*D11
 10
635.2325241174844
 20
248.1720194791118
 30
0.0
 11
620.6255479117694
 21
245.4049588839271
 31
0.0
 70
    33
  3
STANDARD
100
AcDbAlignedDimension
 13
595.981875285021
 23
259.7590276796457
 33
0.0
 14
620.138568087121
 24
273.9200906945457
 34
0.0
1001
ACAD
1000
DSTYLE
1002
{
1070
    41
1040
7.0
1070
    42
1040
6.0
1070
    43
1040
14.0
1070
    44
1040
3.0
1070
    73
1070
     0
1070
    74
1070
     0
1070
    77
1070
     3
1070
   140
1040
6.0
1070
   141
1040
150.0
1070
   147
1040
2.0
1070
   172
1070
     1
1070
   173
1070
     1
1070
   176
1070
     4
1070
   177
1070
     4
1070
   178
1070
     4
1070
   271
1070
     0
1070
   272
1070
     0
1070
   341
1005
6D
1070
     6
1000
OPEN
1070
     7
1000
OPEN
1002
}
  0
LINE
  5
67A
330
1A
100
AcDbEntity
  8
SEIHIN
100
AcDbLine
 10
595.1185181513213
 20
261.1979562357457
 30
0.0
 11
582.1191186321209
 21
282.8636221010457
 31
0.0
  0
ARC
  5
67B
330
1A
100
AcDbEntity
  8
SEIHIN
100
AcDbCircle
 10
571.3147077681212
 20
277.5471659616457
 30
0.0
 40
15.0
100
AcDbArc
 50
77.53121998039609
 51
120.9637565438036
  0
ARC
  5
67C
330
1A
100
AcDbEntity
  8
SEIHIN
100
AcDbCircle
 10
570.9717105978211
 20
276.1751772805457
 30
0.0
 40
13.0
100
AcDbArc
 50
30.96375653209949
 51
120.9637565438036
  0
LINE
  5
67D
330
1A
100
AcDbEntity
  8
SEIHIN
100
AcDbLine
 10
564.283265777321
 20
287.3225853147457
 30
0.0
 11
561.7107870001212
 21
285.7790980485457
 31
0.0
  0
LINE
  5
67E
330
1A
100
AcDbEntity
  8
SEIHIN
100
AcDbLine
 10
560.167299733921
 20
288.3515768256457
 30
0.0
 11
563.597271436721
 21
290.4095598473457
 31
0.0
  0
ARC
  5
67F
330
1A
100
AcDbEntity
  8
SEIHIN
100
AcDbCircle
 10
574.7692294736209
 20
293.1697867336457
 30
0.0
 40
1.0
100
AcDbArc
 50
257.5312200038984
 51
30.96375653209949
  0
LINE
  5
680
330
1A
100
AcDbEntity
  8
CENTER_L
 48
5.0
100
AcDbLine
 10
610.8297205067828
 20
274.4308678370474
 30
0.0
 11
600.0527542550689
 21
267.9656489962484
 31
0.0
  0
LINE
  5
681
330
1A
100
AcDbEntity
  8
SEIHIN
100
AcDbLine
 10
620.138568087121
 20
273.9200906945457
 30
0.0
 11
619.2542779636212
 21
275.3939075671457
 31
0.0
  0
ARC
  5
682
330
1A
100
AcDbEntity
  8
SEIHIN
100
AcDbCircle
 10
605.4429262094211
 20
271.2017183148457
 30
0.0
 40
7.7
100
AcDbArc
 50
144.6857261390992
 51
207.9276545186007
  0
LINE
  5
683
330
1A
100
AcDbEntity
  8
SEIHIN
100
AcDbLine
 10
607.5009092311211
 20
267.7717466119457
 30
0.0
 11
619.2542779636212
 21
275.3939075671457
 31
0.0
  0
LINE
  5
684
330
1A
100
AcDbEntity
  8
SEIHIN
100
AcDbLine
 10
599.4739439302211
 20
258.9876929874457
 30
0.0
 11
609.5588922528211
 21
264.3417749091457
 31
0.0
  0
LINE
  5
685
330
1A
100
AcDbEntity
  8
SEIHIN
100
AcDbLine
 10
599.092823020321
 20
259.6228945038457
 30
0.0
 11
609.0443964974211
 21
265.1992678348457
 31
0.0
  0
LINE
  5
686
330
1A
100
AcDbEntity
  8
SEIHIN
100
AcDbLine
 10
607.5009092311211
 20
267.7717466119457
 30
0.0
 11
595.1185181513213
 21
261.1979562357457
 31
0.0
  0
CIRCLE
  5
687
330
1A
100
AcDbEntity
  8
SEIHIN
100
AcDbCircle
 10
605.4429262094211
 20
271.2017183148457
 30
0.0
 40
2.7
  0
LINE
  5
688
330
1A
100
AcDbEntity
  8
SEIHIN
100
AcDbLine
 10
595.981875285021
 20
259.7590276796457
 30
0.0
 11
599.092823020321
 21
259.6228945038457
 31
0.0
  0
LINE
  5
689
330
1A
100
AcDbEntity
  8
SEIHIN
100
AcDbLine
 10
595.981875285021
 20
259.7590276796457
 30
0.0
 11
595.1185181513213
 21
261.1979562357457
 31
0.0
  0
LINE
  5
68A
330
1A
100
AcDbEntity
  8
SEIHIN
100
AcDbLine
 10
599.092823020321
 20
259.6228945038457
 30
0.0
 11
599.4739439302211
 21
258.9876929874457
 31
0.0
  0
ARC
  5
68B
330
1A
100
AcDbEntity
  8
SEIHIN
100
AcDbCircle
 10
596.5955368876211
 20
266.5108608683457
 30
0.0
 40
1.0
100
AcDbArc
 50
210.9637565320995
 51
297.9637565314011
  0
LINE
  5
68C
330
1A
100
AcDbEntity
  8
SEIHIN
100
AcDbLine
 10
597.064449832221
 20
265.6276164795457
 30
0.0
 11
598.2250439813213
 21
266.2437739404457
 31
0.0
  0
ARC
  5
68D
330
1A
100
AcDbEntity
  8
SEIHIN
100
AcDbCircle
 10
597.7561310367211
 20
267.1270183292457
 30
0.0
 40
1.0
100
AcDbArc
 50
297.9637565314011
 51
27.92765451860077
  0
LINE
  5
68E
330
1A
100
AcDbEntity
  8
SEIHIN
100
AcDbLine
 10
619.2932761336209
 20
270.6546067811457
 30
0.0
 11
609.5588922528211
 21
264.3417749091457
 31
0.0
  0
LINE
  5
68F
330
1A
100
AcDbEntity
  8
SEIHIN
100
AcDbLine
 10
618.869153424921
 20
271.3614779622457
 30
0.0
 11
609.0443964974211
 21
265.1992678348457
 31
0.0
  0
LINE
  5
690
330
1A
100
AcDbEntity
  8
SEIHIN
100
AcDbLine
 10
609.0443964974211
 20
265.1992678348457
 30
0.0
 11
609.5588922528211
 21
264.3417749091457
 31
0.0
  0
LINE
  5
691
330
1A
100
AcDbEntity
  8
SEIHIN
100
AcDbLine
 10
607.5009092311211
 20
267.7717466119457
 30
0.0
 11
609.0443964974211
 21
265.1992678348457
 31
0.0
  0
LINE
  5
692
330
1A
100
AcDbEntity
  8
SEIHIN
100
AcDbLine
 10
619.2932761336209
 20
270.6546067811457
 30
0.0
 11
618.869153424921
 21
271.3614779622457
 31
0.0
  0
LINE
  5
693
330
1A
100
AcDbEntity
  8
SEIHIN
100
AcDbLine
 10
618.869153424921
 20
271.3614779622457
 30
0.0
 11
620.138568087121
 21
273.9200906945457
 31
0.0
  0
ARC
  5
694
330
1A
100
AcDbEntity
  8
SEIHIN
100
AcDbCircle
 10
605.4429262094211
 20
271.2017183148457
 30
0.0
 40
7.7
100
AcDbArc
 50
32.97980390719946
 51
97.24178692500396
  0
ARC
  5
695
330
1A
100
AcDbEntity
  8
SEIHIN
100
AcDbCircle
 10
604.3462323218212
 20
279.8323186715457
 30
0.0
 40
1.0
100
AcDbArc
 50
210.9637565320995
 51
277.2417869250039
  0
ARC
  5
696
330
1A
100
AcDbEntity
  8
SEIHIN
100
AcDbCircle
 10
598.343781841821
 20
276.2308483835457
 30
0.0
 40
1.0
100
AcDbArc
 50
324.6857261390992
 51
30.96375653209949
  0
ARC
  5
697
330
1A
100
AcDbEntity
  8
SEIHIN
100
AcDbCircle
 10
612.7410299136211
 20
275.9375057174457
 30
0.0
 40
1.0
100
AcDbArc
 50
212.9798039071994
 51
302.9637565325978
  0
ARC
  5
698
330
1A
100
AcDbEntity
  8
SEIHIN
100
AcDbCircle
 10
613.8369351579211
 20
276.6482097167457
 30
0.0
 40
1.0
100
AcDbArc
 50
302.9637565325978
 51
30.96375653209949
  0
LINE
  5
699
330
1A
100
AcDbEntity
  8
SEIHIN
100
AcDbLine
 10
613.2851383237212
 20
275.0984907961457
 30
0.0
 11
614.3810435680211
 21
275.8091947955457
 31
0.0
  0
DIMENSION
  5
69A
330
1A
100
AcDbEntity
  8
SUNPOU
100
AcDbDimension
  2
*D12
 10
579.2499173283998
 20
377.0535533282246
 30
0.0
 11
549.2376649284598
 21
364.877153783086
 31
0.0
 70
    33
  3
STANDARD
100
AcDbAlignedDimension
 13
552.278364817321
 23
297.6125004233456
 33
0.0
 14
607.157912062921
 24
330.5402287707457
 34
0.0
1001
ACAD
1000
DSTYLE
1002
{
1070
    41
1040
7.0
1070
    42
1040
6.0
1070
    43
1040
14.0
1070
    44
1040
3.0
1070
    73
1070
     0
1070
    74
1070
     0
1070
    77
1070
     3
1070
   140
1040
6.0
1070
   141
1040
150.0
1070
   147
1040
2.0
1070
   172
1070
     1
1070
   173
1070
     1
1070
   176
1070
     4
1070
   177
1070
     4
1070
   178
1070
     4
1070
   271
1070
     0
1070
   272
1070
     0
1070
   341
1005
6D
1070
     6
1000
OPEN
1070
     7
1000
OPEN
1002
}
  0
DIMENSION
  5
69B
330
1A
100
AcDbEntity
  8
SUNPOU
100
AcDbDimension
  2
*D13
 10
578.8737964645872
 20
393.9573275552497
 30
0.0
 11
541.8932621440687
 21
377.9101812838139
 31
0.0
 70
    33
  3
STANDARD
100
AcDbAlignedDimension
 13
538.6323896421211
 23
304.8065873290457
 33
0.0
 14
607.5056632331211
 24
345.5098485400457
 34
0.0
1001
ACAD
1000
DSTYLE
1002
{
1070
    41
1040
7.0
1070
    42
1040
6.0
1070
    43
1040
14.0
1070
    44
1040
3.0
1070
    73
1070
     0
1070
    74
1070
     0
1070
    77
1070
     3
1070
   140
1040
6.0
1070
   141
1040
150.0
1070
   147
1040
2.0
1070
   172
1070
     1
1070
   173
1070
     1
1070
   176
1070
     4
1070
   177
1070
     4
1070
   178
1070
     4
1070
   271
1070
     0
1070
   272
1070
     0
1070
   341
1005
6D
1070
     6
1000
OPEN
1070
     7
1000
OPEN
1002
}
  0
LINE
  5
69C
330
1A
100
AcDbEntity
  8
SEIHIN
100
AcDbLine
 10
541.7662357608212
 20
318.3416924925457
 30
0.0
 11
567.2450163684211
 21
334.8649013831457
 31
0.0
  0
LINE
  5
69D
330
1A
100
AcDbEntity
  8
SEIHIN
100
AcDbLine
 10
544.8867757977211
 20
302.1572129296457
 30
0.0
 11
562.036634311921
 21
312.4471280382656
 31
0.0
  0
LINE
  5
69E
330
1A
100
AcDbEntity
  8
SEIHIN
100
AcDbLine
 10
556.3280436835209
 20
321.8257808945457
 30
0.0
 11
541.1307181260211
 21
311.9701842460457
 31
0.0
  0
ARC
  5
69F
330
1A
100
AcDbEntity
  8
SEIHIN
100
AcDbCircle
 10
374.1075078564731
 20
395.2250659072816
 30
0.0
 40
101.1272594643853
100
AcDbArc
 50
356.0308285751285
 51
0.0000000000012213
  0
LWPOLYLINE
  5
6A0
330
1A
100
AcDbEntity
  8
SEIHIN
100
AcDbPolyline
 90
        8
 70
   128
 43
0.0
 10
442.1374355865737
 20
392.5865103346802
 10
442.2154900423702
 20
392.4865804676816
 10
442.3433124590701
 20
392.1974444731817
 10
442.45458797117
 20
391.8090410186816
 10
442.5448488012703
 20
391.3369647322817
 10
442.6104709236701
 20
390.8001697558817
 10
442.64881957137
 20
390.2202087248817
 10
442.65835502357
 20
389.6203674171817
  0
LWPOLYLINE
  5
6AA
330
1A
100
AcDbEntity
  8
SEIHIN
100
AcDbPolyline
 90
        9
 70
   128
 43
0.0
 10
443.0665913870702
 20
392.7250659072817
 10
443.2116528667702
 20
392.6648400211817
 10
443.3508900423703
 20
392.4865804676816
 10
443.4787124590703
 20
392.1974444731817
 10
443.58998797117
 20
391.8090410186816
 10
443.6802488012699
 20
391.3369647322817
 10
443.7458709236702
 20
390.8001697558817
 10
443.7842195713701
 20
390.2202087248817
 10
443.7937550235701
 20
389.6203674171817
  0
LWPOLYLINE
  5
6B5
330
1A
100
AcDbEntity
  8
SEIHIN
100
AcDbPolyline
 90
        9
 70
   128
 43
0.0
 10
445.1784555663111
 20
392.7250659072817
 10
445.0333940866112
 20
392.6648400211817
 10
444.8941569110111
 20
392.4865804676816
 10
444.7663344943111
 20
392.1974444731817
 10
444.6550589822114
 20
391.8090410186816
 10
444.564798152111
 20
391.3369647322817
 10
444.4991760297112
 20
390.8001697558817
 10
444.4608273820112
 20
390.2202087248817
 10
444.4512919298112
 20
389.6203674171817
  0
LWPOLYLINE
  5
6C0
330
1A
100
AcDbEntity
  8
SEIHIN
100
AcDbPolyline
 90
        9
 70
   128
 43
0.0
 10
442.3436797860772
 20
392.7250659072817
 10
442.1986183063772
 20
392.6648400211817
 10
442.0593811307772
 20
392.4865804676816
 10
441.9315587140772
 20
392.1974444731817
 10
441.8202832019773
 20
391.8090410186816
 10
441.7300223718771
 20
391.3369647322817
 10
441.6644002494772
 20
390.8001697558817
 10
441.6260516017773
 20
390.2202087248817
 10
441.6165161495773
 20
389.6203674171817
  0
LINE
  5
6CB
330
1A
100
AcDbEntity
  8
SEIHIN
100
AcDbLine
 10
440.5592568226493
 20
363.2250659072818
 30
0.0
 11
440.5592568226493
 21
395.2250659072818
 31
0.0
  0
LINE
  5
6CC
330
1A
100
AcDbEntity
  8
SEIHIN
100
AcDbLine
 10
437.0368574798422
 20
363.2250659072818
 30
0.0
 11
437.0368574798422
 21
395.2250659072818
 31
0.0
  0
DIMENSION
  5
6CF
330
1A
100
AcDbEntity
  8
SUNPOU
100
AcDbDimension
  2
*D14
 10
499.4349863705538
 20
355.2250659072837
 30
0.0
 11
499.4349863705537
 21
395.2250659072838
 31
0.0
 70
   160
  3
STANDARD
100
AcDbAlignedDimension
 13
444.440965275131
 23
435.2250659072837
 33
0.0
 14
444.440965275131
 24
355.2250659072837
 34
0.0
 50
90.0
100
AcDbRotatedDimension
1001
ACAD
1000
DSTYLE
1002
{
1070
    41
1040
7.0
1070
    42
1040
6.0
1070
    43
1040
14.0
1070
    44
1040
3.0
1070
    73
1070
     0
1070
    74
1070
     0
1070
    77
1070
     3
1070
   140
1040
6.0
1070
   141
1040
150.0
1070
   147
1040
2.0
1070
   172
1070
     1
1070
   173
1070
     1
1070
   176
1070
     4
1070
   177
1070
     4
1070
   178
1070
     4
1070
   271
1070
     0
1070
   272
1070
     0
1070
   341
1005
6D
1070
     6
1000
OPEN
1070
     7
1000
OPEN
1002
}
  0
LINE
  5
6D0
330
1A
100
AcDbEntity
  8
SEIHIN
100
AcDbLine
 10
473.099700113049
 20
383.2250659072789
 30
0.0
 11
445.2063254294748
 21
383.2250659072814
 31
0.0
  0
LINE
  5
6D1
330
1A
100
AcDbEntity
  8
SEIHIN
100
AcDbLine
 10
472.6181260434009
 20
380.2250659072791
 30
0.0
 11
451.3663120506126
 21
380.2250659072817
 31
0.0
  0
LINE
  5
6D2
330
1A
100
AcDbEntity
  8
CENTER_L
 48
5.0
100
AcDbLine
 10
445.2225149229639
 20
352.3722070647439
 30
0.0
 11
445.2225149229639
 21
374.1454334613164
 31
0.0
  0
LINE
  5
6D3
330
1A
100
AcDbEntity
  8
SEIHIN
100
AcDbLine
 10
442.6767358139763
 20
377.7284113852948
 30
0.0
 11
442.5420010534485
 21
359.0791138201651
 31
0.0
  0
LINE
  5
6D4
330
1A
100
AcDbEntity
  8
SEIHIN
100
AcDbLine
 10
443.8121061836628
 20
377.7202087248817
 30
0.0
 11
443.6578051829719
 21
356.3626521061449
 31
0.0
  0
LINE
  5
6D5
330
1A
100
AcDbEntity
  8
SEIHIN
100
AcDbLine
 10
441.7316828040725
 20
366.8158879071099
 30
0.0
 11
441.6444066352337
 21
377.1206110766642
 31
0.0
  0
LWPOLYLINE
  5
6D6
330
1A
100
AcDbEntity
  8
SEIHIN
100
AcDbPolyline
 90
       13
 70
   128
 43
0.0
 10
445.1776505142934
 20
371.1624638789816
 10
445.5025260509933
 20
371.0486224269818
 10
445.8180825884933
 20
370.7103635932816
 10
446.1152684413932
 20
370.1573902748815
 10
446.385558884393
 20
369.4055644169818
 10
446.6212006821933
 20
368.4764520155817
 10
446.8154344900931
 20
367.3967045012815
 10
446.9626887446934
 20
366.1972942468816
 10
447.0587394826934
 20
364.9126261306816
 10
447.100831505093
 20
363.5795506378816
 10
447.0877574095935
 20
362.2363068110816
 10
447.0198922241934
 20
360.9214253699817
 10
446.8991826502933
 20
359.6726234640815
  0
LINE
  5
6E5
330
1A
100
AcDbEntity
  8
SEIHIN
100
AcDbLine
 10
447.8070739830172
 20
370.583676834599
 30
0.0
 11
447.7588146826174
 21
364.885686900399
 31
0.0
  0
LINE
  5
6E6
330
1A
100
AcDbEntity
  8
SEIHIN
100
AcDbLine
 10
448.9424332624126
 20
370.5740608743817
 30
0.0
 11
448.8941739620127
 21
364.8760709401817
 31
0.0
  0
LINE
  5
6E7
330
1A
100
AcDbEntity
  8
SEIHIN
100
AcDbLine
 10
428.9282020044907
 20
366.7725175911332
 30
0.0
 11
428.9282020044907
 21
376.1913115515331
 31
0.0
  0
LINE
  5
6E8
330
1A
100
AcDbEntity
  8
SEIHIN
100
AcDbLine
 10
430.4976937467504
 20
366.7725175911332
 30
0.0
 11
430.4976937467504
 21
376.1913115515331
 31
0.0
  0
LINE
  5
6E9
330
1A
100
AcDbEntity
  8
CENTER_L
 48
5.0
100
AcDbLine
 10
439.0368574798421
 20
363.2250659072837
 30
0.0
 11
453.4293879872794
 21
363.2250659072838
 31
0.0
  0
LINE
  5
6EA
330
1A
100
AcDbEntity
  8
CENTER_L
 48
5.0
100
AcDbLine
 10
439.0368574798421
 20
363.2250659072838
 30
0.0
 11
446.2991392371472
 21
363.2250659072838
 31
0.0
  0
LINE
  5
6EB
330
1A
100
AcDbEntity
  8
SEIHIN
100
AcDbLine
 10
437.0993574798421
 20
355.2250659072837
 30
0.0
 11
442.8424623684472
 21
355.2250659072837
 31
0.0
  0
LINE
  5
6EC
330
1A
100
AcDbEntity
  8
SEIHIN
100
AcDbLine
 10
439.9544703404585
 20
355.2250659072817
 30
0.0
 11
445.6975752290641
 21
355.2250659072817
 31
0.0
  0
LINE
  5
6ED
330
1A
100
AcDbEntity
  8
SEIHIN
100
AcDbLine
 10
443.5049780704771
 20
355.2250659072817
 30
0.0
 11
440.1212198875104
 21
355.2250659072817
 31
0.0
  0
LINE
  5
6EE
330
1A
100
AcDbEntity
  8
SEIHIN
100
AcDbLine
 10
439.1623748256583
 20
355.236385484115
 30
0.0
 11
440.8684286738867
 21
355.2116586632753
 31
0.0
  0
LWPOLYLINE
  5
6EF
330
1A
100
AcDbEntity
  8
SEIHIN
100
AcDbPolyline
 90
        7
 70
   128
 43
0.0
 10
440.5361778291567
 20
363.3139530969475
 10
440.6899883864776
 20
361.744309510218
 10
440.904594363988
 20
360.2117162805758
 10
441.1731453932161
 20
358.7944826567532
 10
441.4958800879003
 20
357.5094703133096
 10
441.8781097591772
 20
356.3644586815706
 10
442.4026685856606
 20
355.2144714352833
  0
LINE
  5
6F8
330
1A
100
AcDbEntity
  8
SEIHIN
100
AcDbLine
 10
437.1226067723923
 20
355.2250659072837
 30
0.0
 11
444.440965275131
 21
355.2250659072837
 31
0.0
  0
LWPOLYLINE
  5
6F9
330
1A
100
AcDbEntity
  8
SEIHIN
100
AcDbPolyline
 90
        7
 70
   128
 43
0.0
 10
437.0137784863495
 20
363.3139530969475
 10
437.1675890436704
 20
361.744309510218
 10
437.3821950211809
 20
360.2117162805758
 10
437.650746050409
 20
358.7944826567532
 10
437.9734807450931
 20
357.5094703133096
 10
438.3557104163701
 20
356.3644586815706
 10
438.8802692428535
 20
355.2144714352833
  0
LWPOLYLINE
  5
702
330
1A
100
AcDbEntity
  8
SEIHIN
100
AcDbPolyline
 90
       12
 70
   128
 43
0.0
 10
428.9282020044907
 20
366.7725175911332
 10
428.970644984091
 20
365.1075334195332
 10
429.0688755115906
 20
363.4831076190331
 10
429.2209816414906
 20
361.9308577900331
 10
429.4240028008907
 20
360.4809967098331
 10
429.6739874139907
 20
359.1617442752331
 10
429.9660698146908
 20
357.9987782341332
 10
430.2945649510907
 20
357.0147343976331
 10
430.6530790391907
 20
356.2287660598331
 10
431.0346340099909
 20
355.6561712002331
 10
431.431803330091
 20
355.3080947266332
 10
431.836856550291
 20
355.1913115515331
  0
LWPOLYLINE
  5
710
330
1A
100
AcDbEntity
  8
SEIHIN
100
AcDbPolyline
 90
       12
 70
   128
 43
0.0
 10
430.4976937467504
 20
366.7725175911332
 10
430.5401367263507
 20
365.1075334195332
 10
430.6383672538504
 20
363.4831076190331
 10
430.7904733837504
 20
361.9308577900331
 10
430.9934945431505
 20
360.4809967098331
 10
431.2434791562504
 20
359.1617442752331
 10
431.5355615569505
 20
357.9987782341332
 10
431.8640566933504
 20
357.0147343976331
 10
432.2225707814505
 20
356.2287660598331
 10
432.6041257522506
 20
355.6561712002331
 10
433.0012950723507
 20
355.3080947266332
 10
433.4063482925508
 20
355.1913115515331
  0
LINE
  5
71E
330
1A
100
AcDbEntity
  8
SEIHIN
100
AcDbLine
 10
431.836856550291
 20
355.1913115515331
 30
0.0
 11
437.0993574798421
 21
355.2250659072837
 31
0.0
  0
LWPOLYLINE
  5
71F
330
1A
100
AcDbEntity
  8
SEIHIN
100
AcDbPolyline
 90
       11
 70
   128
 43
0.0
 10
446.4702951738127
 20
355.2250659072817
 10
446.8413403279128
 20
355.3427820927817
 10
447.203649878013
 20
355.6931592293817
 10
447.5486938845128
 20
356.2679483048816
 10
447.8683488943129
 20
357.0536169238816
 10
448.1550891940128
 20
358.0316679038816
 10
448.4021639885127
 20
359.1790747586816
 10
448.603756337513
 20
360.4688238165817
 10
448.755120104513
 20
361.8705502097816
 10
448.8526916963128
 20
363.3512527613817
 10
448.8941739620127
 20
364.8760709401817
  0
LINE
  5
72C
330
1A
100
AcDbEntity
  8
SEIHIN
100
AcDbLine
 10
446.1641952020772
 20
355.2250659072817
 30
0.0
 11
443.5049780704771
 21
355.2250659072817
 31
0.0
  0
LINE
  5
72D
330
1A
100
AcDbEntity
  8
SEIHIN
100
AcDbLine
 10
441.9308832920105
 20
355.2250659072817
 30
0.0
 11
446.4702951738127
 21
355.2250659072817
 31
0.0
  0
LWPOLYLINE
  5
72E
330
1A
100
AcDbEntity
  8
SEIHIN
100
AcDbPolyline
 90
       11
 70
   128
 43
0.0
 10
446.1269480161586
 20
356.3073070492322
 10
446.2437684926735
 20
356.3443690098366
 10
446.3070253012124
 20
356.4055424993019
 10
446.5300694531661
 20
356.7770989949433
 10
446.7949877421979
 20
357.4282321851337
 10
447.0538695404248
 20
358.3112597774349
 10
447.2853867807957
 20
359.3864178855031
 10
447.4778131526973
 20
360.6175247856731
 10
447.6237364689473
 20
361.9688690857316
 10
447.7183076490496
 20
363.4040387401591
 10
447.7591938821742
 20
364.9069477659506
  0
LWPOLYLINE
  5
73B
330
1A
100
AcDbEntity
  8
SEIHIN
100
AcDbPolyline
 90
       11
 70
   128
 43
0.0
 10
441.7313548028824
 20
366.8352056209717
 10
441.773292674024
 20
365.1900362125085
 10
441.8690491159627
 20
363.6065240517985
 10
442.0167960760927
 20
362.0987597444175
 10
442.2127629597862
 20
360.6992762693231
 10
442.4514420334289
 20
359.4396869486585
 10
442.7248595115779
 20
358.3510378504299
 10
443.0206343911399
 20
357.4650111944055
 10
443.3164693222334
 20
356.8164540057973
 10
443.5642009158195
 20
356.4446862451769
 10
443.6578051829719
 20
356.3626521061449
  0
LWPOLYLINE
  5
748
330
1A
100
AcDbEntity
  8
SEIHIN
100
AcDbPolyline
 90
       25
 70
   128
 43
0.0
 10
445.8900741670931
 20
363.2250659072817
 10
445.8657989197932
 20
363.9853204453817
 10
445.794627495893
 20
364.6937648931816
 10
445.6814101102931
 20
365.3021199321817
 10
445.5338623406933
 20
365.7689271717817
 10
445.3620393237933
 20
366.0623744702817
 10
445.1776505142934
 20
366.1624638789816
 10
444.9932617046933
 20
366.0623744702817
 10
444.821438687793
 20
365.7689271717817
 10
444.6738909182932
 20
365.3021199321817
 10
444.5606735325932
 20
364.6937648931816
 10
444.4895021086932
 20
363.9853204453817
 10
444.4652268613931
 20
363.2250659072817
 10
444.4895021086932
 20
362.4648113691816
 10
444.5606735325932
 20
361.7563669213816
 10
444.6738909182932
 20
361.1480118823816
 10
444.821438687793
 20
360.6812046426816
 10
444.9932617046933
 20
360.3877573442816
 10
445.1776505142934
 20
360.2876679355817
 10
445.3620393237933
 20
360.3877573442816
 10
445.5338623406933
 20
360.6812046426816
 10
445.6814101102931
 20
361.1480118823816
 10
445.794627495893
 20
361.7563669213816
 10
445.8657989197932
 20
362.4648113691816
 10
445.8900741670931
 20
363.2250659072817
  0
LINE
  5
763
330
1A
100
AcDbEntity
  8
SEIHIN
100
AcDbLine
 10
446.8991826502933
 20
359.6726234640815
 30
0.0
 11
446.3070253012124
 21
356.4055424993019
 31
0.0
  0
LWPOLYLINE
  5
765
330
1A
100
AcDbEntity
  8
SEIHIN
100
AcDbPolyline
 90
       11
 70
   128
 43
0.0
 10
448.9424332624126
 20
370.5740608743817
 10
448.9839155280129
 20
372.0988790531816
 10
449.0814871199127
 20
373.5795816047815
 10
449.2328508869127
 20
374.9813079979816
 10
449.4344432358129
 20
376.2710570558817
 10
449.6815180304129
 20
377.4184639106817
 10
449.9682583300127
 20
378.3965148906817
 10
450.2879133399128
 20
379.1821835096818
 10
450.6329573463126
 20
379.7569725851817
 10
450.9952668964128
 20
380.1073497217816
 10
451.3663120506126
 20
380.2250659072817
  0
LWPOLYLINE
  5
772
330
1A
100
AcDbEntity
  8
SEIHIN
100
AcDbPolyline
 90
        9
 70
   128
 43
0.0
 10
446.6724731027316
 20
370.6358145257706
 10
446.7151474334841
 20
372.2044510107388
 10
446.8187198487899
 20
373.776219356759
 10
446.9809645172727
 20
375.2787099360779
 10
447.200888820375
 20
376.6857433095337
 10
447.4790787232413
 20
377.9776476577764
 10
447.8215360257772
 20
379.1457454132054
 10
448.2506644772288
 20
380.2004848897767
 10
448.2654203818251
 20
380.2250659072817
  0
LWPOLYLINE
  5
77D
330
1A
100
AcDbEntity
  8
SEIHIN
100
AcDbPolyline
 90
        6
 70
   128
 43
0.0
 10
442.384733875282
 20
380.2250659072817
 10
442.4729687615763
 20
379.9170849867948
 10
442.5632295916766
 20
379.4450087003947
 10
442.6288517140765
 20
378.9082137239948
 10
442.6672003617763
 20
378.3282526929947
 10
442.6767358139763
 20
377.7284113852948
  0
LWPOLYLINE
  5
785
330
1A
100
AcDbEntity
  8
SEIHIN
100
AcDbPolyline
 90
        9
 70
   128
 43
0.0
 10
442.3715663983703
 20
380.2250659072817
 10
442.2265049186703
 20
380.1648400211817
 10
442.0872677430702
 20
379.9865804676816
 10
441.9594453263703
 20
379.6974444731817
 10
441.8481698142699
 20
379.3090410186816
 10
441.7579089841702
 20
378.8369647322817
 10
441.6922868617702
 20
378.3001697558817
 10
441.6539382140699
 20
377.7202087248817
 10
441.6444027618699
 20
377.1203674171817
  0
LWPOLYLINE
  5
790
330
1A
100
AcDbEntity
  8
SEIHIN
100
AcDbPolyline
 90
        9
 70
   128
 43
0.0
 10
443.0944779993629
 20
380.2250659072817
 10
443.2395394790628
 20
380.1648400211817
 10
443.3787766546629
 20
379.9865804676816
 10
443.5065990713629
 20
379.6974444731817
 10
443.6178745834631
 20
379.3090410186816
 10
443.708135413563
 20
378.8369647322817
 10
443.7737575359628
 20
378.3001697558817
 10
443.8121061836628
 20
377.7202087248817
 10
443.8216416358627
 20
377.1203674171817
  0
LWPOLYLINE
  5
79B
330
1A
100
AcDbEntity
  8
SEIHIN
100
AcDbPolyline
 90
        9
 70
   128
 43
0.0
 10
445.2063421786037
 20
380.2250659072817
 10
445.0612806989038
 20
380.1648400211817
 10
444.9220435233042
 20
379.9865804676816
 10
444.7942211066037
 20
379.6974444731817
 10
444.682945594504
 20
379.3090410186816
 10
444.5926847644041
 20
378.8369647322817
 10
444.5270626420038
 20
378.3001697558817
 10
444.4887139943038
 20
377.7202087248817
 10
444.4652268613931
 20
376.242716916021
  0
LWPOLYLINE
  5
7A6
330
1A
100
AcDbEntity
  8
SEIHIN
100
AcDbPolyline
 90
        9
 70
   128
 43
0.0
 10
447.8074531825723
 20
370.6049377000761
 10
447.8495314807482
 20
372.1516650319602
 10
447.9501034843515
 20
373.6779004807703
 10
448.1069077020925
 20
375.1300089670298
 10
448.3176660280937
 20
376.4784001827076
 10
448.5802983768271
 20
377.6980557842292
 10
448.894897177895
 20
378.7711301519434
 10
449.2692889085706
 20
379.6913341997292
 10
449.5896863109683
 20
380.2250659072817
  0
LINE
  5
7B1
330
1A
100
AcDbEntity
  8
SEIHIN
100
AcDbLine
 10
444.4652268613931
 20
371.1624638789816
 30
0.0
 11
444.4652268613931
 21
376.2427169160202
 31
0.0
  0
LINE
  5
7B2
330
1A
100
AcDbEntity
  8
SEIHIN
100
AcDbLine
 10
443.8216416358627
 20
375.0235630831716
 30
0.0
 11
443.8216416358627
 21
377.120367417182
 31
0.0
  0
LINE
  5
7B3
330
1A
100
AcDbEntity
  8
SEIHIN
100
AcDbLine
 10
446.6717147036219
 20
370.5932927948164
 30
0.0
 11
446.6523208498515
 21
368.3034547189874
 31
0.0
  0
LINE
  5
7B4
330
1A
100
AcDbEntity
  8
SEIHIN
100
AcDbLine
 10
444.4652268613931
 20
371.1624638789816
 30
0.0
 11
445.1776505142934
 21
371.1624638789816
 31
0.0
  0
LINE
  5
7B5
330
1A
100
AcDbEntity
  8
SEIHIN
100
AcDbLine
 10
449.5896863109683
 20
380.2250659072817
 30
0.0
 11
445.2063421786037
 21
380.2250659072817
 31
0.0
  0
LINE
  5
7B6
330
1A
100
AcDbEntity
  8
SEIHIN
100
AcDbLine
 10
442.65835502357
 20
389.6203674171817
 30
0.0
 11
442.65835502357
 21
386.3297643973814
 31
0.0
  0
LINE
  5
7B7
330
1A
100
AcDbEntity
  8
SEIHIN
100
AcDbLine
 10
443.7937550235701
 20
389.6203674171817
 30
0.0
 11
443.7937550235701
 21
386.3297643973814
 31
0.0
  0
LINE
  5
7B8
330
1A
100
AcDbEntity
  8
SEIHIN
100
AcDbLine
 10
444.4512919298112
 20
389.6203674171817
 30
0.0
 11
444.4791617929754
 21
386.3297643973816
 31
0.0
  0
LINE
  5
7B9
330
1A
100
AcDbEntity
  8
SEIHIN
100
AcDbLine
 10
441.6165161495773
 20
389.6203674171817
 30
0.0
 11
441.6443860127414
 21
386.3297643973816
 31
0.0
  0
LINE
  5
7BA
330
1A
100
AcDbEntity
  8
SEIHIN
100
AcDbLine
 10
443.0944779993629
 20
380.2250659072817
 30
0.0
 11
442.3715663983703
 21
380.2250659072817
 31
0.0
  0
LWPOLYLINE
  5
7BB
330
1A
100
AcDbEntity
  8
SEIHIN
100
AcDbPolyline
 90
        8
 70
   128
 43
0.0
 10
442.151370518156
 20
383.3814617920781
 10
442.2154900423702
 20
383.4635513468814
 10
442.3433124590701
 20
383.7526873413814
 10
442.45458797117
 20
384.1410907958815
 10
442.5448488012703
 20
384.6131670822814
 10
442.6104709236701
 20
385.1499620586814
 10
442.64881957137
 20
385.7299230896814
 10
442.65835502357
 20
386.3297643973814
  0
LWPOLYLINE
  5
7C5
330
1A
100
AcDbEntity
  8
SEIHIN
100
AcDbPolyline
 90
        9
 70
   128
 43
0.0
 10
443.0665913870702
 20
383.2250659072814
 10
443.2116528667702
 20
383.2852917933814
 10
443.3508900423703
 20
383.4635513468814
 10
443.4787124590703
 20
383.7526873413814
 10
443.58998797117
 20
384.1410907958815
 10
443.6802488012699
 20
384.6131670822814
 10
443.7458709236702
 20
385.1499620586814
 10
443.7842195713701
 20
385.7299230896814
 10
443.7937550235701
 20
386.3297643973814
  0
LWPOLYLINE
  5
7D0
330
1A
100
AcDbEntity
  8
SEIHIN
100
AcDbPolyline
 90
        9
 70
   128
 43
0.0
 10
442.3715496492413
 20
383.2250659072814
 10
442.2264881695414
 20
383.2852917933814
 10
442.0872509939413
 20
383.4635513468814
 10
441.9594285772413
 20
383.7526873413814
 10
441.8481530651416
 20
384.1410907958815
 10
441.7578922350412
 20
384.6131670822814
 10
441.6922701126414
 20
385.1499620586814
 10
441.6539214649414
 20
385.7299230896814
 10
441.6443860127414
 20
386.3297643973814
  0
LINE
  5
7DB
330
1A
100
AcDbEntity
  8
SEIHIN
100
AcDbLine
 10
443.0665913870702
 20
383.2250659072816
 30
0.0
 11
442.3436797860772
 21
383.2250659072816
 31
0.0
  0
LWPOLYLINE
  5
7DC
330
1A
100
AcDbEntity
  8
SEIHIN
100
AcDbPolyline
 90
        9
 70
   128
 43
0.0
 10
445.2063254294753
 20
383.2250659072814
 10
445.0612639497753
 20
383.2852917933814
 10
444.9220267741752
 20
383.4635513468814
 10
444.7942043574753
 20
383.7526873413814
 10
444.6829288453755
 20
384.1410907958815
 10
444.5926680152751
 20
384.6131670822814
 10
444.5270458928753
 20
385.1499620586814
 10
444.4886972451754
 20
385.7299230896814
 10
444.4791617929754
 20
386.3297643973814
  0
LWPOLYLINE
  5
7E7
330
1A
100
AcDbEntity
  8
SEIHIN
100
AcDbPolyline
 90
       10
 70
   128
 43
0.0
 10
472.6181260434009
 20
380.2250659072842
 10
472.989171197501
 20
380.3427820927843
 10
473.3514807476012
 20
380.6931592293842
 10
473.6965247541011
 20
381.2679483048841
 10
474.0161797639011
 20
382.0536169238842
 10
474.302920063601
 20
383.0316679038842
 10
474.5499948581009
 20
384.1790747586842
 10
474.7515872071012
 20
385.4688238165842
 10
474.9029509741013
 20
386.8705502097841
 10
474.9922074237374
 20
388.2250659072845
  0
LINE
  5
7FD
330
1A
100
AcDbEntity
  8
SEIHIN
100
AcDbLine
 10
472.7742560925076
 20
387.0366485750395
 30
0.0
 11
473.9037326462621
 21
387.0366485750395
 31
0.0
  0
LWPOLYLINE
  5
7FE
330
1A
100
AcDbEntity
  8
SEIHIN
100
AcDbPolyline
 90
        8
 70
   128
 43
0.0
 10
471.9643001130484
 20
383.2250659072789
 10
472.1093615927484
 20
383.2852917933788
 10
472.2485987683485
 20
383.4635513468789
 10
472.3764211850484
 20
383.7526873413788
 10
472.4876966971487
 20
384.1410907958787
 10
472.5779575272485
 20
384.6131670822789
 10
472.6435796496485
 20
385.1499620586788
 10
472.768332646262
 20
387.0366485750395
  0
ARC
  5
808
330
1A
100
AcDbEntity
  8
SEIHIN
100
AcDbCircle
 10
547.2073198613211
 20
309.9515432798457
 30
0.0
 40
10.0
100
AcDbArc
 50
122.9637565441013
 51
210.9637458181979
  0
ARC
  5
809
330
1A
100
AcDbEntity
  8
SEIHIN
100
AcDbCircle
 10
547.2073198613211
 20
309.9515432798457
 30
0.0
 40
7.0
100
AcDbArc
 50
176.0938589051995
 51
210.963755767698
  0
ARC
  5
80A
330
1A
100
AcDbEntity
  8
SEIHIN
100
AcDbCircle
 10
544.372280042221
 20
303.0147058553457
 30
0.0
 40
1.0
100
AcDbArc
 50
210.9637565320995
 51
300.9637565320989
  0
LINE
  5
80B
330
1A
100
AcDbEntity
  8
SEIHIN
100
AcDbLine
 10
543.5147871165211
 20
302.5002100999457
 30
0.0
 11
541.204869333321
 21
306.3500730719457
 31
0.0
  0
ARC
  5
80C
330
1A
100
AcDbEntity
  8
SEIHIN
100
AcDbCircle
 10
542.2189349460211
 20
310.2921544035457
 30
0.0
 40
2.0
100
AcDbArc
 50
122.9637565441013
 51
176.0938589051995
  0
LINE
  5
80D
330
1A
100
AcDbEntity
  8
CENTER_L
 48
5.0
100
AcDbLine
 10
445.2225149229639
 20
438.0779247498194
 30
0.0
 11
445.2225149229639
 21
416.3046983532469
 31
0.0
  0
LINE
  5
80E
330
1A
100
AcDbEntity
  8
SEIHIN
100
AcDbLine
 10
471.9550470776193
 20
397.7250659072793
 30
0.0
 11
445.1784555663111
 21
397.7250659072819
 31
0.0
  0
LINE
  5
810
330
1A
100
AcDbEntity
  8
SEIHIN
100
AcDbLine
 10
472.6181260434009
 20
410.2250659072791
 30
0.0
 11
451.3663120506126
 21
410.2250659072817
 31
0.0
  0
LINE
  5
811
330
1A
100
AcDbEntity
  8
SEIHIN
100
AcDbLine
 10
473.099700113049
 20
407.2250659072794
 30
0.0
 11
445.2063254294748
 21
407.2250659072819
 31
0.0
  0
LWPOLYLINE
  5
812
330
1A
100
AcDbEntity
  8
SEIHIN
100
AcDbPolyline
 90
        9
 70
   128
 43
0.0
 10
443.0944779993629
 20
410.2250659072817
 10
443.2395394790628
 20
410.2852917933816
 10
443.3787766546629
 20
410.4635513468817
 10
443.5065990713629
 20
410.7526873413816
 10
443.6178745834631
 20
411.1410907958817
 10
443.708135413563
 20
411.6131670822817
 10
443.7737575359628
 20
412.1499620586816
 10
443.8121061836628
 20
412.7299230896817
 10
443.8216416358627
 20
413.3297643973817
  0
LWPOLYLINE
  5
81D
330
1A
100
AcDbEntity
  8
SEIHIN
100
AcDbPolyline
 90
        9
 70
   128
 43
0.0
 10
442.3715663983703
 20
410.2250659072817
 10
442.2265049186703
 20
410.2852917933816
 10
442.0872677430702
 20
410.4635513468817
 10
441.9594453263703
 20
410.7526873413816
 10
441.8481698142699
 20
411.1410907958817
 10
441.7579089841702
 20
411.6131670822817
 10
441.6922868617702
 20
412.1499620586816
 10
441.6539382140699
 20
412.7299230896817
 10
441.6444027618699
 20
413.3297643973817
  0
LINE
  5
828
330
1A
100
AcDbEntity
  8
SEIHIN
100
AcDbLine
 10
443.8121061836628
 20
412.7299230896817
 30
0.0
 11
443.6578051829719
 21
434.0874797084184
 31
0.0
  0
LINE
  5
829
330
1A
100
AcDbEntity
  8
SEIHIN
100
AcDbLine
 10
442.6767358139763
 20
412.7217204292685
 30
0.0
 11
442.5420010534485
 21
431.3710179943982
 31
0.0
  0
LINE
  5
82A
330
1A
100
AcDbEntity
  8
SEIHIN
100
AcDbLine
 10
440.5592568226498
 20
427.2250659072825
 30
0.0
 11
440.5592568226493
 21
395.2250659072825
 31
0.0
  0
LWPOLYLINE
  5
82B
330
1A
100
AcDbEntity
  8
SEIHIN
100
AcDbPolyline
 90
        9
 70
   128
 43
0.0
 10
445.2063421786037
 20
410.2250659072817
 10
445.0612806989038
 20
410.2852917933816
 10
444.9220435233042
 20
410.4635513468817
 10
444.7942211066037
 20
410.7526873413816
 10
444.682945594504
 20
411.1410907958817
 10
444.5926847644041
 20
411.6131670822817
 10
444.5270626420038
 20
412.1499620586816
 10
444.4887139943038
 20
412.7299230896817
 10
444.4652268613931
 20
414.2074148985424
  0
LWPOLYLINE
  5
836
330
1A
100
AcDbEntity
  8
SEIHIN
100
AcDbPolyline
 90
       11
 70
   128
 43
0.0
 10
448.9424332624126
 20
419.8760709401817
 10
448.9839155280129
 20
418.3512527613817
 10
449.0814871199127
 20
416.8705502097818
 10
449.2328508869127
 20
415.4688238165817
 10
449.4344432358129
 20
414.1790747586816
 10
449.6815180304129
 20
413.0316679038816
 10
449.9682583300127
 20
412.0536169238816
 10
450.2879133399128
 20
411.2679483048816
 10
450.6329573463126
 20
410.6931592293816
 10
450.9952668964128
 20
410.3427820927818
 10
451.3663120506126
 20
410.2250659072817
  0
LWPOLYLINE
  5
843
330
1A
100
AcDbEntity
  8
SEIHIN
100
AcDbPolyline
 90
        9
 70
   128
 43
0.0
 10
447.8074531825723
 20
419.8451941144872
 10
447.8495314807482
 20
418.2984667826032
 10
447.9501034843515
 20
416.7722313337931
 10
448.1069077020925
 20
415.3201228475335
 10
448.3176660280937
 20
413.9717316318558
 10
448.5802983768271
 20
412.7520760303341
 10
448.894897177895
 20
411.6790016626199
 10
449.2692889085706
 20
410.7587976148341
 10
449.5896863109683
 20
410.2250659072817
  0
LWPOLYLINE
  5
84E
330
1A
100
AcDbEntity
  8
SEIHIN
100
AcDbPolyline
 90
        9
 70
   128
 43
0.0
 10
446.6724731027316
 20
419.8143172887927
 10
446.7151474334841
 20
418.2456808038245
 10
446.8187198487899
 20
416.6739124578042
 10
446.9809645172727
 20
415.1714218784854
 10
447.200888820375
 20
413.7643885050296
 10
447.4790787232413
 20
412.4724841567869
 10
447.8215360257772
 20
411.3043864013579
 10
448.2506644772288
 20
410.2496469247866
 10
448.2654203818251
 20
410.2250659072817
  0
LINE
  5
859
330
1A
100
AcDbEntity
  8
SEIHIN
100
AcDbLine
 10
437.0368574798426
 20
427.2250659072825
 30
0.0
 11
437.0368574798422
 21
395.2250659072825
 31
0.0
  0
LINE
  5
85B
330
1A
100
AcDbEntity
  8
SEIHIN
100
AcDbLine
 10
441.6165161495773
 20
400.8297643973817
 30
0.0
 11
441.6443860127414
 21
404.1203674171817
 31
0.0
  0
LINE
  5
85C
330
1A
100
AcDbEntity
  8
SEIHIN
100
AcDbLine
 10
444.4512919298112
 20
400.8297643973817
 30
0.0
 11
444.4791617929754
 21
404.1203674171817
 31
0.0
  0
LINE
  5
85D
330
1A
100
AcDbEntity
  8
SEIHIN
100
AcDbLine
 10
443.7937550235701
 20
400.8297643973817
 30
0.0
 11
443.7937550235701
 21
404.120367417182
 31
0.0
  0
LINE
  5
85E
330
1A
100
AcDbEntity
  8
SEIHIN
100
AcDbLine
 10
442.65835502357
 20
400.8297643973817
 30
0.0
 11
442.65835502357
 21
404.120367417182
 31
0.0
  0
LWPOLYLINE
  5
85F
330
1A
100
AcDbEntity
  8
SEIHIN
100
AcDbPolyline
 90
        9
 70
   128
 43
0.0
 10
442.3436797860772
 20
397.7250659072817
 10
442.1986183063772
 20
397.7852917933816
 10
442.0593811307772
 20
397.9635513468817
 10
441.9315587140772
 20
398.2526873413816
 10
441.8202832019773
 20
398.6410907958817
 10
441.7300223718771
 20
399.1131670822817
 10
441.6644002494772
 20
399.6499620586816
 10
441.6260516017773
 20
400.2299230896817
 10
441.6165161495773
 20
400.8297643973817
  0
LWPOLYLINE
  5
86A
330
1A
100
AcDbEntity
  8
SEIHIN
100
AcDbPolyline
 90
        9
 70
   128
 43
0.0
 10
445.1784555663111
 20
397.7250659072817
 10
445.0333940866112
 20
397.7852917933816
 10
444.8941569110111
 20
397.9635513468817
 10
444.7663344943111
 20
398.2526873413816
 10
444.6550589822114
 20
398.6410907958817
 10
444.564798152111
 20
399.1131670822817
 10
444.4991760297112
 20
399.6499620586816
 10
444.4608273820112
 20
400.2299230896817
 10
444.4512919298112
 20
400.8297643973817
  0
LWPOLYLINE
  5
875
330
1A
100
AcDbEntity
  8
SEIHIN
100
AcDbPolyline
 90
        9
 70
   128
 43
0.0
 10
443.0665913870702
 20
397.7250659072817
 10
443.2116528667702
 20
397.7852917933816
 10
443.3508900423703
 20
397.9635513468817
 10
443.4787124590703
 20
398.2526873413816
 10
443.58998797117
 20
398.6410907958817
 10
443.6802488012699
 20
399.1131670822817
 10
443.7458709236702
 20
399.6499620586816
 10
443.7842195713701
 20
400.2299230896817
 10
443.7937550235701
 20
400.8297643973817
  0
LWPOLYLINE
  5
880
330
1A
100
AcDbEntity
  8
SEIHIN
100
AcDbPolyline
 90
        8
 70
   128
 43
0.0
 10
442.1374355865737
 20
397.8636214798831
 10
442.2154900423702
 20
397.9635513468817
 10
442.3433124590701
 20
398.2526873413816
 10
442.45458797117
 20
398.6410907958817
 10
442.5448488012703
 20
399.1131670822817
 10
442.6104709236701
 20
399.6499620586816
 10
442.64881957137
 20
400.2299230896817
 10
442.65835502357
 20
400.8297643973817
  0
LINE
  5
88A
330
1A
100
AcDbEntity
  8
SEIHIN
100
AcDbLine
 10
443.0665913870702
 20
397.7250659072817
 30
0.0
 11
442.3436797860772
 21
397.7250659072817
 31
0.0
  0
LINE
  5
88B
330
1A
100
AcDbEntity
  8
SEIHIN
100
AcDbLine
 10
443.0665913870702
 20
392.7250659072817
 30
0.0
 11
442.3436797860772
 21
392.7250659072817
 31
0.0
  0
LINE
  5
88C
330
1A
100
AcDbEntity
  8
SEIHIN
100
AcDbLine
 10
449.5896863109683
 20
410.2250659072817
 30
0.0
 11
445.2063421786037
 21
410.2250659072817
 31
0.0
  0
LWPOLYLINE
  5
88D
330
1A
100
AcDbEntity
  8
SEIHIN
100
AcDbPolyline
 90
        6
 70
   128
 43
0.0
 10
442.384733875282
 20
410.2250659072817
 10
442.4729687615763
 20
410.5330468277686
 10
442.5632295916766
 20
411.0051231141686
 10
442.6288517140765
 20
411.5419180905686
 10
442.6672003617763
 20
412.1218791215686
 10
442.6767358139763
 20
412.7217204292685
  0
LWPOLYLINE
  5
895
330
1A
100
AcDbEntity
  8
SEIHIN
100
AcDbPolyline
 90
        9
 70
   128
 43
0.0
 10
445.2063254294753
 20
407.2250659072819
 10
445.0612639497753
 20
407.1648400211819
 10
444.9220267741752
 20
406.9865804676819
 10
444.7942043574753
 20
406.6974444731819
 10
444.6829288453755
 20
406.3090410186818
 10
444.5926680152751
 20
405.8369647322819
 10
444.5270458928753
 20
405.3001697558819
 10
444.4886972451754
 20
404.7202087248819
 10
444.4791617929754
 20
404.120367417182
  0
LINE
  5
8A0
330
1A
100
AcDbEntity
  8
SEIHIN
100
AcDbLine
 10
443.0665913870702
 20
407.2250659072817
 30
0.0
 11
442.3436797860772
 21
407.2250659072817
 31
0.0
  0
LWPOLYLINE
  5
8A1
330
1A
100
AcDbEntity
  8
SEIHIN
100
AcDbPolyline
 90
        9
 70
   128
 43
0.0
 10
442.3715496492413
 20
407.2250659072819
 10
442.2264881695414
 20
407.1648400211819
 10
442.0872509939413
 20
406.9865804676819
 10
441.9594285772413
 20
406.6974444731819
 10
441.8481530651416
 20
406.3090410186818
 10
441.7578922350412
 20
405.8369647322819
 10
441.6922701126414
 20
405.3001697558819
 10
441.6539214649414
 20
404.7202087248819
 10
441.6443860127414
 20
404.120367417182
  0
LWPOLYLINE
  5
8AC
330
1A
100
AcDbEntity
  8
SEIHIN
100
AcDbPolyline
 90
        9
 70
   128
 43
0.0
 10
443.0665913870702
 20
407.2250659072819
 10
443.2116528667702
 20
407.1648400211819
 10
443.3508900423703
 20
406.9865804676819
 10
443.4787124590703
 20
406.6974444731819
 10
443.58998797117
 20
406.3090410186818
 10
443.6802488012699
 20
405.8369647322819
 10
443.7458709236702
 20
405.3001697558819
 10
443.7842195713701
 20
404.7202087248819
 10
443.7937550235701
 20
404.120367417182
  0
LWPOLYLINE
  5
8B7
330
1A
100
AcDbEntity
  8
SEIHIN
100
AcDbPolyline
 90
        8
 70
   128
 43
0.0
 10
442.151370518156
 20
407.0686700224852
 10
442.2154900423702
 20
406.9865804676819
 10
442.3433124590701
 20
406.6974444731819
 10
442.45458797117
 20
406.3090410186818
 10
442.5448488012703
 20
405.8369647322819
 10
442.6104709236701
 20
405.3001697558819
 10
442.64881957137
 20
404.7202087248819
 10
442.65835502357
 20
404.120367417182
  0
LINE
  5
8C1
330
1A
100
AcDbEntity
  8
SEIHIN
100
AcDbLine
 10
443.0944779993629
 20
410.2250659072817
 30
0.0
 11
442.3715663983703
 21
410.2250659072817
 31
0.0
  0
LINE
  5
8C2
330
1A
100
AcDbEntity
  8
CENTER_L
 48
5.0
100
AcDbLine
 10
440.3608651240097
 20
427.2250659072817
 30
0.0
 11
453.4293879872794
 21
427.2250659072817
 31
0.0
  0
LINE
  5
8C3
330
1A
100
AcDbEntity
  8
CENTER_L
 48
5.0
100
AcDbLine
 10
439.0368574798428
 20
427.2250659072838
 30
0.0
 11
447.897642143831
 21
427.2250659072838
 31
0.0
  0
LINE
  5
8C4
330
1A
100
AcDbEntity
  8
CENTER_L
 48
5.0
100
AcDbLine
 10
439.0368574798428
 20
427.2250659072837
 30
0.0
 11
446.2991392371472
 21
427.2250659072838
 31
0.0
  0
LWPOLYLINE
  5
8C5
330
1A
100
AcDbEntity
  8
SEIHIN
100
AcDbPolyline
 90
        7
 70
   128
 43
0.0
 10
440.5361778291567
 20
427.1361787176162
 10
440.6899883864776
 20
428.7058223043456
 10
440.904594363988
 20
430.2384155339878
 10
441.1731453932161
 20
431.6556491578104
 10
441.4958800879003
 20
432.940661501254
 10
441.8781097591772
 20
434.0856731329931
 10
442.4026685856606
 20
435.2356603792803
  0
LINE
  5
8CE
330
1A
100
AcDbEntity
  8
SEIHIN
100
AcDbLine
 10
437.0993574798421
 20
435.2250659072837
 30
0.0
 11
447.1299269970086
 21
435.2250659072837
 31
0.0
  0
LINE
  5
8CF
330
1A
100
AcDbEntity
  8
SEIHIN
100
AcDbLine
 10
439.9544703404585
 20
435.2250659072817
 30
0.0
 11
449.9850398576255
 21
435.2250659072817
 31
0.0
  0
LINE
  5
8D0
330
1A
100
AcDbEntity
  8
SEIHIN
100
AcDbLine
 10
439.9544703404585
 20
435.2250659072816
 30
0.0
 11
449.9850398576255
 21
435.2250659072816
 31
0.0
  0
LINE
  5
8D1
330
1A
100
AcDbEntity
  8
SEIHIN
100
AcDbLine
 10
437.1226067723923
 20
435.2250659072837
 30
0.0
 11
448.7284299036923
 21
435.2250659072837
 31
0.0
  0
LWPOLYLINE
  5
8D2
330
1A
100
AcDbEntity
  8
SEIHIN
100
AcDbPolyline
 90
       12
 70
   128
 43
0.0
 10
428.9282020044879
 20
423.6101055119332
 10
428.9706449840878
 20
425.2750896835332
 10
429.0688755115874
 20
426.8995154840331
 10
429.2209816414874
 20
428.4517653130333
 10
429.4240028008871
 20
429.9016263932332
 10
429.6739874139871
 20
431.2208788278333
 10
429.9660698146872
 20
432.3838448689332
 10
430.2945649510871
 20
433.3678887054333
 10
430.6530790391867
 20
434.1538570432334
 10
431.0346340099868
 20
434.7264519028334
 10
431.4318033300869
 20
435.0745283764334
 10
431.8368565502869
 20
435.1913115515335
  0
LWPOLYLINE
  5
8E0
330
1A
100
AcDbEntity
  8
SEIHIN
100
AcDbPolyline
 90
       12
 70
   128
 43
0.0
 10
430.4976937467476
 20
423.6101055119333
 10
430.5401367263475
 20
425.2750896835332
 10
430.6383672538472
 20
426.8995154840333
 10
430.7904733837472
 20
428.4517653130334
 10
430.9934945431469
 20
429.9016263932334
 10
431.2434791562468
 20
431.2208788278335
 10
431.5355615569469
 20
432.3838448689333
 10
431.8640566933468
 20
433.3678887054335
 10
432.2225707814468
 20
434.1538570432335
 10
432.6041257522465
 20
434.7264519028335
 10
433.0012950723467
 20
435.0745283764336
 10
433.4063482925467
 20
435.1913115515337
  0
LINE
  5
8EE
330
1A
100
AcDbEntity
  8
SEIHIN
100
AcDbLine
 10
428.9282020044879
 20
423.6101055119332
 30
0.0
 11
428.9282020044888
 21
414.1913115515333
 31
0.0
  0
LINE
  5
8EF
330
1A
100
AcDbEntity
  8
SEIHIN
100
AcDbLine
 10
430.4976937467476
 20
423.6101055119333
 30
0.0
 11
430.4976937467485
 21
414.1913115515333
 31
0.0
  0
LINE
  5
8F0
330
1A
100
AcDbEntity
  8
SEIHIN
100
AcDbLine
 10
431.8368565502869
 20
435.1913115515335
 30
0.0
 11
437.0993574798421
 21
435.2250659072837
 31
0.0
  0
LWPOLYLINE
  5
8F1
330
1A
100
AcDbEntity
  8
SEIHIN
100
AcDbPolyline
 90
        7
 70
   128
 43
0.0
 10
437.0137784863495
 20
427.1361787176162
 10
437.1675890436704
 20
428.7058223043456
 10
437.3821950211809
 20
430.2384155339878
 10
437.650746050409
 20
431.6556491578104
 10
437.9734807450931
 20
432.940661501254
 10
438.3557104163701
 20
434.0856731329931
 10
438.8802692428535
 20
435.2356603792803
  0
LINE
  5
8FA
330
1A
100
AcDbEntity
  8
SEIHIN
100
AcDbLine
 10
448.9424332624126
 20
419.8760709401817
 30
0.0
 11
448.8941739620127
 21
425.5740608743817
 31
0.0
  0
LINE
  5
8FB
330
1A
100
AcDbEntity
  8
SEIHIN
100
AcDbLine
 10
447.8070739830172
 20
419.8664549799643
 30
0.0
 11
447.7588146826174
 21
425.5644449141643
 31
0.0
  0
LWPOLYLINE
  5
8FC
330
1A
100
AcDbEntity
  8
SEIHIN
100
AcDbPolyline
 90
       13
 70
   128
 43
0.0
 10
445.1776505142934
 20
419.2876679355817
 10
445.5025260509933
 20
419.4015093875815
 10
445.8180825884933
 20
419.7397682212817
 10
446.1152684413932
 20
420.2927415396818
 10
446.385558884393
 20
421.0445673975816
 10
446.6212006821933
 20
421.9736797989816
 10
446.8154344900931
 20
423.0534273132818
 10
446.9626887446934
 20
424.2528375676817
 10
447.0587394826934
 20
425.5375056838818
 10
447.100831505093
 20
426.8705811766817
 10
447.0877574095935
 20
428.2138250034817
 10
447.0198922241934
 20
429.5287064445816
 10
446.8991826502933
 20
430.7775083504818
  0
LWPOLYLINE
  5
90B
330
1A
100
AcDbEntity
  8
SEIHIN
100
AcDbPolyline
 90
       11
 70
   128
 43
0.0
 10
441.7313548028824
 20
423.6149261935916
 10
441.773292674024
 20
425.2600956020548
 10
441.8690491159627
 20
426.8436077627648
 10
442.0167960760927
 20
428.3513720701458
 10
442.2127629597862
 20
429.7508555452402
 10
442.4514420334289
 20
431.0104448659048
 10
442.7248595115779
 20
432.0990939641334
 10
443.0206343911399
 20
432.9851206201578
 10
443.3164693222334
 20
433.6336778087661
 10
443.5642009158195
 20
434.0054455693865
 10
443.6578051829719
 20
434.0874797084184
  0
LWPOLYLINE
  5
918
330
1A
100
AcDbEntity
  8
SEIHIN
100
AcDbPolyline
 90
       25
 70
   128
 43
0.0
 10
445.8900741670931
 20
427.2250659072817
 10
445.8657989197932
 20
426.4648113691816
 10
445.794627495893
 20
425.7563669213817
 10
445.6814101102931
 20
425.1480118823817
 10
445.5338623406933
 20
424.6812046427816
 10
445.3620393237933
 20
424.3877573442816
 10
445.1776505142934
 20
424.2876679355817
 10
444.9932617046933
 20
424.3877573442816
 10
444.821438687793
 20
424.6812046427816
 10
444.6738909182932
 20
425.1480118823817
 10
444.5606735325932
 20
425.7563669213817
 10
444.4895021086932
 20
426.4648113691816
 10
444.4652268613931
 20
427.2250659072817
 10
444.4895021086932
 20
427.9853204453817
 10
444.5606735325932
 20
428.6937648931818
 10
444.6738909182932
 20
429.3021199321817
 10
444.821438687793
 20
429.7689271718818
 10
444.9932617046933
 20
430.0623744702817
 10
445.1776505142934
 20
430.1624638789816
 10
445.3620393237933
 20
430.0623744702817
 10
445.5338623406933
 20
429.7689271718818
 10
445.6814101102931
 20
429.3021199321817
 10
445.794627495893
 20
428.6937648931818
 10
445.8657989197932
 20
427.9853204453817
 10
445.8900741670931
 20
427.2250659072817
  0
LINE
  5
933
330
1A
100
AcDbEntity
  8
SEIHIN
100
AcDbLine
 10
444.4652268613931
 20
419.2876679355817
 30
0.0
 11
445.1776505142934
 21
419.2876679355817
 31
0.0
  0
LINE
  5
934
330
1A
100
AcDbEntity
  8
SEIHIN
100
AcDbLine
 10
444.4652268613931
 20
419.2876679355817
 30
0.0
 11
444.4652268613931
 21
414.2074148985432
 31
0.0
  0
LINE
  5
935
330
1A
100
AcDbEntity
  8
SEIHIN
100
AcDbLine
 10
446.6717147036219
 20
419.8568390197469
 30
0.0
 11
446.6523208498515
 21
422.146677095576
 31
0.0
  0
LINE
  5
936
330
1A
100
AcDbEntity
  8
SEIHIN
100
AcDbLine
 10
441.7316828040725
 20
423.6342439074534
 30
0.0
 11
441.6444066352337
 21
413.3295207378991
 31
0.0
  0
LINE
  5
937
330
1A
100
AcDbEntity
  8
SEIHIN
100
AcDbLine
 10
443.8216416358627
 20
415.4265687313918
 30
0.0
 11
443.8216416358627
 21
413.3297643973813
 31
0.0
  0
LINE
  5
938
330
1A
100
AcDbEntity
  8
SEIHIN
100
AcDbLine
 10
446.2183479205719
 20
435.2250659072817
 30
0.0
 11
450.757759802374
 21
435.2250659072817
 31
0.0
  0
LINE
  5
939
330
1A
100
AcDbEntity
  8
SEIHIN
100
AcDbLine
 10
450.4516598306386
 20
435.2250659072817
 30
0.0
 11
447.7924426990385
 21
435.2250659072817
 31
0.0
  0
LINE
  5
93A
330
1A
100
AcDbEntity
  8
SEIHIN
100
AcDbLine
 10
446.8991826502933
 20
430.7775083504818
 30
0.0
 11
446.3070253012124
 21
434.0445893152614
 31
0.0
  0
LINE
  5
93B
330
1A
100
AcDbEntity
  8
SEIHIN
100
AcDbLine
 10
443.4498394542197
 20
435.2137463304483
 30
0.0
 11
445.155893302448
 21
435.2384731512881
 31
0.0
  0
LINE
  5
93C
330
1A
100
AcDbEntity
  8
SEIHIN
100
AcDbLine
 10
447.7924426990385
 20
435.2250659072817
 30
0.0
 11
444.4086845160718
 21
435.2250659072817
 31
0.0
  0
LINE
  5
93D
330
1A
100
AcDbEntity
  8
SEIHIN
100
AcDbLine
 10
443.4498394542197
 20
435.2137463304488
 30
0.0
 11
445.155893302448
 21
435.2384731512885
 31
0.0
  0
LWPOLYLINE
  5
93E
330
1A
100
AcDbEntity
  8
SEIHIN
100
AcDbPolyline
 90
       11
 70
   128
 43
0.0
 10
446.1269480161586
 20
434.142824765331
 10
446.2437684926735
 20
434.1057628047267
 10
446.3070253012124
 20
434.0445893152614
 10
446.5300694531661
 20
433.67303281962
 10
446.7949877421979
 20
433.0218996294297
 10
447.0538695404248
 20
432.1388720371285
 10
447.2853867807957
 20
431.0637139290602
 10
447.4778131526973
 20
429.8326070288903
 10
447.6237364689473
 20
428.4812627288316
 10
447.7183076490496
 20
427.0460930744042
 10
447.7591938821742
 20
425.5431840486127
  0
LWPOLYLINE
  5
94B
330
1A
100
AcDbEntity
  8
SEIHIN
100
AcDbPolyline
 90
       11
 70
   128
 43
0.0
 10
446.4702951738127
 20
435.2250659072817
 10
446.8413403279128
 20
435.1073497217816
 10
447.203649878013
 20
434.7569725851816
 10
447.5486938845128
 20
434.1821835096817
 10
447.8683488943129
 20
433.3965148906817
 10
448.1550891940128
 20
432.4184639106817
 10
448.4021639885127
 20
431.2710570558817
 10
448.603756337513
 20
429.9813079979816
 10
448.755120104513
 20
428.5795816047818
 10
448.8526916963128
 20
427.0988790531816
 10
448.8941739620127
 20
425.5740608743817
  0
LWPOLYLINE
  5
958
330
1A
100
AcDbEntity
  8
SEIHIN
100
AcDbPolyline
 90
        8
 70
   128
 43
0.0
 10
473.0997001130486
 20
407.2250659072794
 10
473.2447615927485
 20
407.1648400211794
 10
473.3839987683486
 20
406.9865804676793
 10
473.5118211850485
 20
406.6974444731794
 10
473.6230966971484
 20
406.3090410186795
 10
473.7133575272487
 20
405.8369647322794
 10
473.7789796496485
 20
405.3001697558794
 10
473.9037326462621
 20
403.4134832395187
  0
LINE
  5
962
330
1A
100
AcDbEntity
  8
SEIHIN
100
AcDbLine
 10
472.7742560925076
 20
403.4134832395187
 30
0.0
 11
473.9037326462621
 21
403.4134832395187
 31
0.0
  0
LWPOLYLINE
  5
963
330
1A
100
AcDbEntity
  8
SEIHIN
100
AcDbPolyline
 90
       25
 70
   128
 43
0.0
 10
474.9770242017375
 20
395.2250659072791
 10
474.9527489544375
 20
395.9853204453792
 10
474.8815775304374
 20
396.693764893179
 10
474.7683601448374
 20
397.3021199321791
 10
474.6208123752372
 20
397.7689271717792
 10
474.4489893584373
 20
398.0623744702792
 10
474.2646005488373
 20
398.1624638789791
 10
474.0802117393372
 20
398.0623744702792
 10
473.9083887224373
 20
397.7689271717792
 10
473.7608409528375
 20
397.3021199321791
 10
473.6476235672371
 20
396.693764893179
 10
473.5764521433375
 20
395.9853204453792
 10
473.5521768960374
 20
395.2250659072791
 10
473.5764521433375
 20
394.4648113691791
 10
473.6476235672371
 20
393.756366921379
 10
473.7608409528375
 20
393.1480118823791
 10
473.9083887224373
 20
392.6812046427791
 10
474.0802117393372
 20
392.387757344279
 10
474.2646005488373
 20
392.2876679355792
 10
474.4489893584373
 20
392.387757344279
 10
474.6208123752372
 20
392.6812046427791
 10
474.7683601448374
 20
393.1480118823791
 10
474.8815775304374
 20
393.756366921379
 10
474.9527489544375
 20
394.4648113691791
 10
474.9770242017375
 20
395.2250659072791
  0
LWPOLYLINE
  5
97E
330
1A
100
AcDbEntity
  8
SEIHIN
100
AcDbPolyline
 90
       14
 70
   128
 43
0.0
 10
473.552176896037
 20
395.2250659072794
 10
473.552176896037
 20
395.2250659072794
 10
473.576452143337
 20
395.9853204453794
 10
473.6476235672371
 20
396.6937648931795
 10
473.760840952837
 20
397.3021199321795
 10
473.9083887224373
 20
397.7689271717794
 10
474.0802117393372
 20
398.0623744702794
 10
474.2646005488373
 20
398.1624638789794
 10
474.4489893584373
 20
398.0623744702794
 10
474.6208123752372
 20
397.7689271717794
 10
474.768360144837
 20
397.3021199321795
 10
474.8815775304369
 20
396.6937648931795
 10
474.952748954437
 20
395.9853204453794
 10
474.9770242017371
 20
395.2250659072794
  0
LWPOLYLINE
  5
98E
330
1A
100
AcDbEntity
  8
SEIHIN
100
AcDbPolyline
 90
       10
 70
   128
 43
0.0
 10
472.6181260434009
 20
410.2250659072791
 10
472.989171197501
 20
410.107349721779
 10
473.3514807476012
 20
409.7569725851791
 10
473.6965247541011
 20
409.1821835096792
 10
474.0161797639011
 20
408.3965148906791
 10
474.302920063601
 20
407.4184639106792
 10
474.5499948581009
 20
406.2710570558791
 10
474.7515872071012
 20
404.9813079979791
 10
474.9029509741013
 20
403.5795816047793
 10
474.9922074237374
 20
402.2250659072788
  0
LWPOLYLINE
  5
99C
330
1A
100
AcDbEntity
  8
SEIHIN
100
AcDbPolyline
 90
        8
 70
   128
 43
0.0
 10
471.9643001130484
 20
407.2250659072794
 10
472.1093615927484
 20
407.1648400211794
 10
472.2485987683485
 20
406.9865804676793
 10
472.3764211850484
 20
406.6974444731794
 10
472.4876966971487
 20
406.3090410186795
 10
472.5779575272485
 20
405.8369647322794
 10
472.6435796496485
 20
405.3001697558794
 10
472.768332646262
 20
403.4134832395187
  0
ARC
  5
9A6
330
1A
100
AcDbEntity
  8
SEIHIN
100
AcDbCircle
 10
374.1075078564731
 20
395.2250659072817
 30
0.0
 40
101.1272594643853
100
AcDbArc
 50
359.9999999999987
 51
3.969171424871408
  0
MTEXT
  5
9A7
330
1A
100
AcDbEntity
  8
SUNPOU
100
AcDbMText
 10
617.5202393959271
 20
381.432696650294
 30
0.0
 40
6.0
 41
33.36028036838114
 71
     1
 72
     5
  1
3-φ4.2
1001
ACAD
1000
MTEXTBEGIN
1070
    73
1070
     1
1070
    44
1040
1.0
1070
    74
1070
     0
1000
MTEXTEND
1000
MTEXTBEGIN
1070
    73
1070
     1
1070
    44
1040
1.0
1070
    74
1070
     0
1000
MTEXTEND
1000
MTEXTBEGIN
1070
    73
1070
     1
1070
    44
1040
1.0
1070
    74
1070
     0
1000
MTEXTEND
1000
MTEXTBEGIN
1070
    73
1070
     1
1070
    44
1040
1.0
1070
    74
1070
     0
1000
MTEXTEND
  0
LINE
  5
9A9
330
1A
100
AcDbEntity
  8
SEIHIN
100
AcDbLine
 10
606.9692636192209
 20
340.5728960015457
 30
0.0
 11
604.933180140221
 21
343.9663684665457
 31
0.0
  0
LINE
  5
9AA
330
1A
100
AcDbEntity
  8
SEIHIN
100
AcDbLine
 10
600.1191425878212
 20
346.6567717418457
 30
0.0
 11
584.064907321821
 21
338.1336055289457
 31
0.0
  0
LINE
  5
9AB
330
1A
100
AcDbEntity
  8
SEIHIN
100
AcDbLine
 10
594.241600309421
 20
349.1973419073457
 30
0.0
 11
567.2450163684211
 21
334.8649013831457
 31
0.0
  0
LINE
  5
9AC
330
1A
100
AcDbEntity
  8
SEIHIN
100
AcDbLine
 10
616.5903342457211
 20
330.3687301855457
 30
0.0
 11
607.5056632331211
 21
345.5098485400457
 31
0.0
  0
ARC
  5
9AD
330
1A
100
AcDbEntity
  8
SEIHIN
100
AcDbCircle
 10
588.4474164239377
 20
330.6259780631339
 30
0.0
 40
2.0
100
AcDbArc
 50
210.9637565320119
 51
300.9637565325649
  0
ARC
  5
9AE
330
1A
100
AcDbEntity
  8
SEIHIN
100
AcDbCircle
 10
570.8688114466934
 20
320.0788150770658
 30
0.0
 40
2.0
100
AcDbArc
 50
300.9637565323192
 51
30.96375653208972
  0
ARC
  5
9AF
330
1A
100
AcDbEntity
  8
SEIHIN
100
AcDbCircle
 10
582.1877180662964
 20
318.7068263956505
 30
0.0
 40
2.0
100
AcDbArc
 50
120.9637565325648
 51
210.9637565320734
  0
LINE
  5
9B0
330
1A
100
AcDbEntity
  8
SEIHIN
100
AcDbLine
 10
562.7226286524837
 20
315.1911054005414
 30
0.0
 11
559.131246255021
 21
321.1767427296456
 31
0.0
  0
LINE
  5
9B1
330
1A
100
AcDbEntity
  8
SEIHIN
100
AcDbLine
 10
581.1587265554266
 20
320.4218122470667
 30
0.0
 11
585.0174447210776
 21
322.7370431465023
 31
0.0
  0
LINE
  5
9B2
330
1A
100
AcDbEntity
  8
SEIHIN
100
AcDbLine
 10
561.5779597348212
 20
322.9298388247457
 30
0.0
 11
565.2951074295993
 21
316.7345926667861
 31
0.0
  0
LINE
  5
9B3
330
1A
100
AcDbEntity
  8
SEIHIN
100
AcDbLine
 10
569.5825720581559
 20
313.4761195490755
 30
0.0
 11
573.4412902238254
 21
315.7913504484997
 31
0.0
  0
LINE
  5
9B4
330
1A
100
AcDbEntity
  8
SEIHIN
100
AcDbLine
 10
556.6121408157328
 20
305.6938608036049
 30
0.0
 11
563.5801215781889
 21
309.8746492611192
 31
0.0
  0
ARC
  5
9B5
330
1A
100
AcDbEntity
  8
SEIHIN
100
AcDbCircle
 10
557.126636571164
 20
304.8363678778946
 30
0.0
 40
1.0
100
AcDbArc
 50
120.9637565323131
 51
236.1326100166518
  0
ARC
  5
9B6
330
1A
100
AcDbEntity
  8
SEIHIN
100
AcDbCircle
 10
564.6091130890513
 20
308.1596634096985
 30
0.0
 40
2.0
100
AcDbArc
 50
30.96375653207372
 51
120.9637565323194
  0
ARC
  5
9B7
330
1A
100
AcDbEntity
  8
SEIHIN
100
AcDbCircle
 10
561.0076428010586
 20
314.1621138896863
 30
0.0
 40
2.0
100
AcDbArc
 50
300.9637565323192
 51
30.96375653207346
  0
ARC
  5
9B8
330
1A
100
AcDbEntity
  8
SEIHIN
100
AcDbCircle
 10
570.6115635690182
 20
311.7611336976548
 30
0.0
 40
2.0
100
AcDbArc
 50
120.9637565323192
 51
210.9637565320882
  0
ARC
  5
9B9
330
1A
100
AcDbEntity
  8
SEIHIN
100
AcDbCircle
 10
567.0100932810239
 20
317.7635841776417
 30
0.0
 40
2.0
100
AcDbArc
 50
210.9637565320883
 51
300.9637565323192
  0
LINE
  5
9BA
330
1A
100
AcDbEntity
  8
SEIHIN
100
AcDbLine
 10
568.0390847918864
 20
316.0485983262209
 30
0.0
 11
571.8978029575557
 21
318.3638292256452
 31
0.0
  0
ARC
  5
9BB
330
1A
100
AcDbEntity
  8
SEIHIN
100
AcDbCircle
 10
574.4702817346879
 20
314.076364597079
 30
0.0
 40
2.0
100
AcDbArc
 50
30.9637565320901
 51
120.9637565323193
  0
LINE
  5
9BC
330
1A
100
AcDbEntity
  8
SEIHIN
100
AcDbLine
 10
572.583797298118
 20
321.1078065879214
 30
0.0
 11
568.785798743921
 21
327.4378041782457
 31
0.0
  0
LINE
  5
9BD
330
1A
100
AcDbEntity
  8
SEIHIN
100
AcDbLine
 10
565.9825965709212
 20
328.0868416791457
 30
0.0
 11
562.2047280497211
 21
325.6368613721457
 31
0.0
  0
ARC
  5
9BE
330
1A
100
AcDbEntity
  8
SEIHIN
100
AcDbCircle
 10
563.2929448698212
 20
323.9588315296457
 30
0.0
 40
2.0
100
AcDbArc
 50
122.9637565441013
 51
210.9637964232993
  0
ARC
  5
9BF
330
1A
100
AcDbEntity
  8
SEIHIN
100
AcDbCircle
 10
557.416260503621
 20
320.1477510520457
 30
0.0
 40
2.0
100
AcDbArc
 50
30.96376210269768
 51
122.9637565441013
  0
ARC
  5
9C0
330
1A
100
AcDbEntity
  8
SEIHIN
100
AcDbCircle
 10
567.0708133910211
 20
326.4088118366457
 30
0.0
 40
2.0
100
AcDbArc
 50
30.96378428740172
 51
122.9637565441013
  0
LINE
  5
9C1
330
1A
100
AcDbEntity
  8
SEIHIN
100
AcDbLine
 10
584.1599517953762
 20
328.053499285928
 30
0.0
 11
580.5265230030211
 21
334.1092139398457
 31
0.0
  0
ARC
  5
9C2
330
1A
100
AcDbEntity
  8
SEIHIN
100
AcDbCircle
 10
574.8314833955212
 20
330.9672175136457
 30
0.0
 40
2.0
100
AcDbArc
 50
117.9637565434006
 51
210.9637504616003
  0
LINE
  5
9C3
330
1A
100
AcDbEntity
  8
SEIHIN
100
AcDbLine
 10
583.287732481421
 20
335.3381500374457
 30
0.0
 11
586.7324305725117
 21
329.5969865522807
 31
0.0
  0
LINE
  5
9C4
330
1A
100
AcDbEntity
  8
SEIHIN
100
AcDbLine
 10
579.6152392891733
 20
322.9942910242219
 30
0.0
 11
583.4739574548214
 21
325.3095219236558
 31
0.0
  0
ARC
  5
9C5
330
1A
100
AcDbEntity
  8
SEIHIN
100
AcDbCircle
 10
578.5862477783034
 20
324.7092768756382
 30
0.0
 40
2.0
100
AcDbArc
 50
210.9637565320729
 51
300.9637565325649
  0
LINE
  5
9C6
330
1A
100
AcDbEntity
  8
SEIHIN
100
AcDbLine
 10
573.116497435021
 20
329.9382261845457
 30
0.0
 11
576.8712619268785
 21
323.6802853647832
 31
0.0
  0
ARC
  5
9C7
330
1A
100
AcDbEntity
  8
SEIHIN
100
AcDbCircle
 10
586.0464362319476
 20
321.0220572950861
 30
0.0
 40
2.0
100
AcDbArc
 50
30.96375653210305
 51
120.9637565325649
  0
ARC
  5
9C8
330
1A
100
AcDbEntity
  8
SEIHIN
100
AcDbCircle
 10
582.4449659439514
 20
327.0245077750721
 30
0.0
 40
2.0
100
AcDbArc
 50
300.963756532565
 51
30.96375653210402
  0
ARC
  5
9C9
330
1A
100
AcDbEntity
  8
SEIHIN
100
AcDbCircle
 10
578.811537671121
 20
333.0802215631457
 30
0.0
 40
2.0
100
AcDbArc
 50
30.96378546019912
 51
117.9637565434006
  0
LINE
  5
9CA
330
1A
100
AcDbEntity
  8
SEIHIN
100
AcDbLine
 10
577.8737117819211
 20
334.8467103407457
 30
0.0
 11
573.8936575062211
 21
332.7337062913457
 31
0.0
  0
ARC
  5
9CB
330
1A
100
AcDbEntity
  8
SEIHIN
100
AcDbCircle
 10
585.002733211021
 20
336.3671167513457
 30
0.0
 40
2.0
100
AcDbArc
 50
117.9637565434006
 51
210.962928090601
  0
LINE
  5
9CC
330
1A
100
AcDbEntity
  8
SEIHIN
100
AcDbLine
 10
590.333900860498
 20
323.5945360722888
 30
0.0
 11
599.636524319221
 21
308.0901636410457
 31
0.0
  0
ARC
  5
9CD
330
1A
100
AcDbEntity
  8
SEIHIN
100
AcDbCircle
 10
608.0154049886211
 20
325.2237726312457
 30
0.0
 40
7.0
100
AcDbArc
 50
300.9637565672997
 51
359.6405041270992
  0
ARC
  5
9CE
330
1A
100
AcDbEntity
  8
SEIHIN
100
AcDbCircle
 10
608.0154049886211
 20
325.2237726312457
 30
0.0
 40
10.0
100
AcDbArc
 50
300.9637565672997
 51
30.96375653209949
  0
ARC
  5
9CF
330
1A
100
AcDbEntity
  8
SEIHIN
100
AcDbCircle
 10
615.9043399052211
 20
304.3009452439457
 30
0.0
 40
15.0
100
AcDbArc
 50
120.9637565438036
 51
164.396293107299
  0
ARC
  5
9D0
330
1A
100
AcDbEntity
  8
SEIHIN
100
AcDbCircle
 10
617.2763285863211
 20
303.9579480736457
 30
0.0
 40
13.0
100
AcDbArc
 50
120.9637565438036
 51
210.9637565555983
  0
ARC
  5
9D1
330
1A
100
AcDbEntity
  8
SEIHIN
100
AcDbCircle
 10
600.4940172449209
 20
308.6046593965457
 30
0.0
 40
1.0
100
AcDbArc
 50
210.9637565555983
 51
344.3962931307999
  0
LINE
  5
9D2
330
1A
100
AcDbEntity
  8
SEIHIN
100
AcDbLine
 10
613.1603625429211
 20
316.6488433741457
 30
0.0
 11
610.587883765821
 21
315.1053561078457
 31
0.0
  0
LINE
  5
9D3
330
1A
100
AcDbEntity
  8
SEIHIN
100
AcDbLine
 10
608.1869035738211
 20
317.1633391295457
 30
0.0
 11
611.6168752766212
 21
319.2213221512457
 31
0.0
  0
LINE
  5
9D4
330
1A
100
AcDbEntity
  8
CENTER_L
 48
5.0
100
AcDbLine
 10
604.2526129006419
 20
335.3831139881719
 30
0.0
 11
610.3932203956246
 21
325.1472470565163
 31
0.0
  0
LINE
  5
9D5
330
1A
100
AcDbEntity
  8
CENTER_L
 48
5.0
100
AcDbLine
 10
601.9316450382364
 20
327.4000413039428
 30
0.0
 11
612.8986391969626
 21
333.9792599454278
 31
0.0
  0
LINE
  5
9D6
330
1A
100
AcDbEntity
  8
SEIHIN
100
AcDbLine
 10
589.4764079348076
 20
328.9109922117176
 30
0.0
 11
606.6262664490211
 21
339.2009073204457
 31
0.0
  0
ARC
  5
9D7
330
1A
100
AcDbEntity
  8
SEIHIN
100
AcDbCircle
 10
607.157912062921
 20
330.5402287707457
 30
0.0
 40
7.7
100
AcDbArc
 50
185.7949030487344
 51
322.0179881292992
  0
CIRCLE
  5
9D8
330
1A
100
AcDbEntity
  8
SEIHIN
100
AcDbCircle
 10
607.157912062921
 20
330.5402287707457
 30
0.0
 40
2.7
  0
LINE
  5
9D9
330
1A
100
AcDbEntity
  8
SEIHIN
100
AcDbLine
 10
591.0198952010546
 20
326.3385134345582
 30
0.0
 11
597.987875963448
 21
330.5193018920753
 31
0.0
  0
ARC
  5
9DA
330
1A
100
AcDbEntity
  8
SEIHIN
100
AcDbCircle
 10
592.0488867119242
 20
324.6235275831419
 30
0.0
 40
2.0
100
AcDbArc
 50
120.9637565325636
 51
210.9637565320112
  0
ARC
  5
9DB
330
1A
100
AcDbEntity
  8
SEIHIN
100
AcDbCircle
 10
598.5023717188823
 20
329.6618089663675
 30
0.0
 40
1.0
100
AcDbArc
 50
5.794903048734032
 51
120.9637565325628
  0
ARC
  5
9DC
330
1A
100
AcDbEntity
  8
SEIHIN
100
AcDbCircle
 10
614.0152868851211
 20
325.1861265539456
 30
0.0
 40
1.0
100
AcDbArc
 50
359.6405041270992
 51
142.0179881058009
  0
ARC
  5
9DD
330
1A
100
AcDbEntity
  8
SEIHIN
100
AcDbCircle
 10
606.1117706935211
 20
340.0584002461457
 30
0.0
 40
1.0
100
AcDbArc
 50
300.9637565320989
 51
30.96375653209949
  0
ARC
  5
9DE
330
1A
100
AcDbEntity
  8
SEIHIN
100
AcDbCircle
 10
598.9307297558212
 20
340.3648980193457
 30
0.0
 40
10.0
100
AcDbArc
 50
30.96370953510176
 51
117.9637565434006
  0
ARC
  5
9DF
330
1A
100
AcDbEntity
  8
SEIHIN
100
AcDbCircle
 10
598.9307297558212
 20
340.3648980193457
 30
0.0
 40
7.0
100
AcDbArc
 50
30.96375805210099
 51
64.83365418229858
  0
ARC
  5
9E0
330
1A
100
AcDbEntity
  8
SEIHIN
100
AcDbCircle
 10
601.0569684770212
 20
344.8902829642457
 30
0.0
 40
2.0
100
AcDbArc
 50
64.83365418229858
 51
117.9637565434006
  0
POINT
  5
CBF
330
1A
100
AcDbEntity
  8
S120
  6
PHANTOM
 62
     8
 48
5.0
100
AcDbPoint
 10
732.7152702019625
 20
221.3684586541611
 30
0.0
  0
POINT
  5
CE5
330
1A
100
AcDbEntity
  8
S120
  6
PHANTOM
 62
     8
 48
5.0
100
AcDbPoint
 10
702.7152702019625
 20
237.8686586541612
 30
0.0
  0
POINT
  5
CE8
330
1A
100
AcDbEntity
  8
S120
  6
PHANTOM
 62
     8
 48
5.0
100
AcDbPoint
 10
709.7152702019625
 20
239.3686586541611
 30
0.0
  0
POINT
  5
D82
330
1A
100
AcDbEntity
  8
S120
  6
PHANTOM
 62
     8
 48
5.0
100
AcDbPoint
 10
732.7153702019625
 20
319.3686586541612
 30
0.0
  0
POINT
  5
D86
330
1A
100
AcDbEntity
  8
S120
  6
PHANTOM
 62
     8
 48
5.0
100
AcDbPoint
 10
744.0559702019625
 20
312.5428586541612
 30
0.0
  0
POINT
  5
DAB
330
1A
100
AcDbEntity
  8
S120
  6
PHANTOM
 62
     8
 48
5.0
100
AcDbPoint
 10
794.7152702019625
 20
219.3685586541611
 30
0.0
  0
POINT
  5
DAC
330
1A
100
AcDbEntity
  8
S120
  6
PHANTOM
 62
     8
 48
5.0
100
AcDbPoint
 10
859.7138702019623
 20
219.3684586541611
 30
0.0
  0
POINT
  5
DC6
330
1A
100
AcDbEntity
  8
S120
  6
PHANTOM
 62
     8
 48
5.0
100
AcDbPoint
 10
850.5435702019624
 20
264.3685586541611
 30
0.0
  0
POINT
  5
DE1
330
1A
100
AcDbEntity
  8
S120
  6
PHANTOM
 62
     8
 48
5.0
100
AcDbPoint
 10
855.5435702019627
 20
279.3685586541611
 30
0.0
  0
LINE
  5
DF1
330
1A
100
AcDbEntity
  8
SEIHIN
100
AcDbLine
 10
453.2239133480419
 20
220.686973856595
 30
0.0
 11
457.2274158831858
 21
223.0890753777047
 31
0.0
  0
LINE
  5
DF2
330
1A
100
AcDbEntity
  8
SEIHIN
100
AcDbLine
 10
453.2239133480419
 20
220.6869738565951
 30
0.0
 11
449.6540684153513
 21
220.6199149192603
 31
0.0
  0
TEXT
  5
1701
330
1A
100
AcDbEntity
  8
SUNPOU
100
AcDbText
 10
484.8638312372899
 20
152.2290558989869
 30
0.0
 40
6.0
  1
10
100
AcDbText
1001
ACAD
1000
MTEXTBEGIN
1070
    73
1070
     1
1070
    44
1040
1.0
1070
    74
1070
     0
1000
MTEXTEND
1000
MTEXTBEGIN
1070
    73
1070
     1
1070
    44
1040
1.0
1070
    74
1070
     0
1000
MTEXTEND
1000
MTEXTBEGIN
1070
    73
1070
     1
1070
    44
1040
1.0
1070
    74
1070
     0
1000
MTEXTEND
  0
TEXT
  5
1702
330
1A
100
AcDbEntity
  8
SUNPOU
100
AcDbText
 10
495.2378346050511
 20
143.2585886683236
 30
0.0
 40
6.0
  1
6
100
AcDbText
1001
ACAD
1000
MTEXTBEGIN
1070
    73
1070
     1
1070
    44
1040
1.0
1070
    74
1070
     0
1000
MTEXTEND
1000
MTEXTBEGIN
1070
    73
1070
     1
1070
    44
1040
1.0
1070
    74
1070
     0
1000
MTEXTEND
1000
MTEXTBEGIN
1070
    73
1070
     1
1070
    44
1040
1.0
1070
    74
1070
     0
1000
MTEXTEND
  0
LINE
  5
17BF
330
1A
100
AcDbEntity
  8
ZUWAKU
100
AcDbLine
 10
208.6466024889079
 20
15.19999935047882
 30
0.0
 11
447.4243651698313
 21
15.19999935047881
 31
0.0
  0
LINE
  5
17C0
330
1A
100
AcDbEntity
  8
ZUWAKU
100
AcDbLine
 10
208.6466024889079
 20
15.59999935047881
 30
0.0
 11
447.4243651698313
 21
15.59999935047882
 31
0.0
  0
LINE
  5
17C1
330
1A
100
AcDbEntity
  8
ZUWAKU
100
AcDbLine
 10
208.6466024889079
 20
15.39999935047881
 30
0.0
 11
447.4243651698313
 21
15.39999935047881
 31
0.0
  0
LINE
  5
17C2
330
1A
100
AcDbEntity
  8
ZUWAKU
100
AcDbLine
 10
0.0000011988399819
 20
30.79999935047879
 30
0.0
 11
797.4000011988398
 21
30.79999935047879
 31
0.0
  0
LINE
  5
17C3
330
1A
100
AcDbEntity
  8
ZUWAKU
100
AcDbLine
 10
0.0000011988399819
 20
30.5999993504788
 30
0.0
 11
797.4000011988398
 21
30.5999993504788
 31
0.0
  0
LINE
  5
17C4
330
1A
100
AcDbEntity
  8
ZUWAKU
100
AcDbLine
 10
0.0000011988399819
 20
30.39999935047879
 30
0.0
 11
797.4000011988398
 21
30.39999935047879
 31
0.0
  0
LINE
  5
17C5
330
1A
100
AcDbEntity
  8
ZUWAKU
100
AcDbLine
 10
0.0000011988399819
 20
30.19999935047878
 30
0.0
 11
797.4000011988398
 21
30.19999935047878
 31
0.0
  0
LINE
  5
17C6
330
1A
100
AcDbEntity
  8
ZUWAKU
100
AcDbLine
 10
0.0000011988399819
 20
29.99999935047878
 30
0.0
 11
797.4000011988398
 21
29.99999935047878
 31
0.0
  0
LWPOLYLINE
  5
17C7
330
1A
100
AcDbEntity
  8
ZUWAKU
100
AcDbPolyline
 90
        4
 70
     1
 43
0.0
 10
0.2000011988399137
 20
551.3999993504787
 10
0.2000011988399137
 20
0.1999993504788336
 10
797.4000011988398
 20
0.1999993504788566
 10
797.40000119884
 20
551.3999993504787
  0
LWPOLYLINE
  5
17C8
330
1A
100
AcDbEntity
  8
ZUWAKU
100
AcDbPolyline
 90
        4
 70
     1
 43
0.0
 10
0.600001198839891
 20
550.9999993504789
 10
0.600001198839891
 20
0.5999993504788109
 10
797.0000011988402
 20
0.5999993504788571
 10
797.00000119884
 20
550.9999993504789
  0
LWPOLYLINE
  5
17C9
330
1A
100
AcDbEntity
  8
ZUWAKU
100
AcDbPolyline
 90
        4
 70
     1
 43
0.0
 10
0.0000011988399819
 20
551.5999993504788
 10
0.0000011988399819
 20
-0.0000006495212119
 10
797.60000119884
 20
-0.0000006495211444
 10
797.60000119884
 20
551.5999993504789
  0
LWPOLYLINE
  5
17CA
330
1A
100
AcDbEntity
  8
ZUWAKU
100
AcDbPolyline
 90
        4
 70
     1
 43
0.0
 10
0.4000011988399593
 20
551.1999993504787
 10
0.4000011988399593
 20
0.399999350478879
 10
797.20000119884
 20
0.3999993504788559
 10
797.20000119884
 20
551.1999993504787
  0
LWPOLYLINE
  5
17CB
330
1A
100
AcDbEntity
  8
ZUWAKU
100
AcDbPolyline
 90
        4
 70
     1
 43
0.0
 10
0.8000011988399364
 20
550.7999993504787
 10
0.8000011988399364
 20
0.7999993504788563
 10
796.8000011988398
 20
0.7999993504788563
 10
796.8000011988398
 20
550.7999993504787
  0
TEXT
  5
17CC
330
1A
100
AcDbEntity
  8
MOJI
100
AcDbText
 10
129.5810018416712
 20
8.554222766009161
 30
0.0
 40
5.799999999999999
  1
Ｓ１２０Ｈ・Ｍ１２０Ｈ
 41
0.9
  7
ｽﾀｲﾙ1
100
AcDbText
  0
TEXT
  5
17CD
330
1A
100
AcDbEntity
  8
MOJI
100
AcDbText
 10
81.66226515300536
 20
17.85856729940519
 30
0.0
 40
5.799999999999999
  1
アートフェイスＴ１２０・Ｈ１２０・
 41
0.9
  7
ｽﾀｲﾙ1
100
AcDbText
  0
HATCH
  5
17CE
330
1A
100
AcDbEntity
  8
ZUWAKU
100
AcDbHatch
 10
0.0
 20
0.0
 30
0.0
210
0.0
220
0.0
230
1.0
  2
ANSI37
 70
     0
 71
     0
 91
        8
 92
        7
 72
     1
 73
     1
 93
       24
 10
14.50226385995983
 20
17.64484783146236
 42
-0.1989123673796348
 10
14.0922133536211
 20
18.63479732512341
 42
0.0
 10
14.0922133536211
 20
19.92499935047879
 42
-0.4142135623730912
 10
14.61721335362107
 20
20.44999935047878
 42
0.0
 10
17.59221335362098
 20
20.44999935047878
 42
0.4142135623731546
 10
18.11721335362108
 20
20.97499935047877
 42
0.0
 10
18.11721335362108
 20
22.7249993504788
 42
0.4142135623731586
 10
17.59221335362098
 20
23.24999935047878
 42
0.0
 10
14.0922133536211
 20
23.24999935047878
 42
0.4142135623730928
 10
11.29221335362114
 20
20.44999935047881
 42
0.0
 10
11.29221335362114
 20
18.63479732512354
 42
0.1989123673796619
 10
12.52236487263757
 20
15.66494884413993
 42
0.0
 10
15.43216284728225
 20
12.75515086949528
 42
-0.1989123673796613
 10
15.8422133536211
 20
11.76520137583409
 42
0.0
 10
15.8422133536211
 20
10.47499935047877
 42
-0.4142135623730911
 10
15.31721335362112
 20
9.949999350478789
 42
0.0
 10
12.34221335362121
 20
9.949999350478789
 42
0.4142135623731526
 10
11.81721335362112
 20
9.424999350478801
 42
0.0
 10
11.81721335362112
 20
7.67499935047878
 42
0.4142135623731526
 10
12.34221335362121
 20
7.149999350478792
 42
0.0
 10
15.8422133536211
 20
7.149999350478792
 42
0.4142135623731045
 10
18.64221335362117
 20
9.949999350478769
 42
0.0
 10
18.64221335362117
 20
11.76520137583403
 42
0.1989123673796604
 10
17.41206183460462
 20
14.73504985681757
 42
0.0
 97
        0
 92
        7
 72
     1
 73
     1
 93
       16
 10
23.54221335362114
 20
19.04999935047879
 42
-0.4142135623730935
 10
24.94221335362112
 20
20.44999935047878
 42
0.0
 10
26.86721335362108
 20
20.44999935047878
 42
0.4142135623731546
 10
27.39221335362117
 20
20.97499935047877
 42
0.0
 10
27.39221335362117
 20
22.7249993504788
 42
0.4142135623730951
 10
26.86721335362119
 20
23.24999935047878
 42
0.0
 10
24.94221335362101
 20
23.24999935047874
 42
0.4142135623730893
 10
20.74221335362107
 20
19.04999935047873
 42
0.0
 10
20.74221335362107
 20
11.34999935047881
 42
0.4142135623730969
 10
24.94221335362112
 20
7.149999350478792
 42
0.0
 10
26.86721335362108
 20
7.149999350478792
 42
0.4142135623731526
 10
27.39221335362117
 20
7.67499935047878
 42
0.0
 10
27.39221335362117
 20
9.424999350478801
 42
0.4142135623730891
 10
26.86721335362119
 20
9.949999350478789
 42
0.0
 10
24.94221335362112
 20
9.949999350478789
 42
-0.4142135623730928
 10
23.54221335362114
 20
11.34999935047877
 42
0.0
 97
        0
 92
        7
 72
     1
 73
     1
 93
        2
 10
24.24221335362108
 20
15.19999935047878
 42
1.0
 10
27.74221335362108
 20
15.19999935047878
 42
1.0
 97
        0
 92
        7
 72
     1
 73
     1
 93
       26
 10
37.3148598357991
 20
19.20504654404221
 42
0.0
 10
38.37649946893692
 20
22.5669053823118
 42
0.5069206636600134
 10
37.87586856974155
 20
23.24999935047878
 42
0.0
 10
36.17697919013232
 20
23.24999935047878
 42
0.3272098845218764
 10
35.67634829093696
 20
22.88309331864575
 42
0.0
 10
33.80807841630518
 20
16.96690538231186
 42
-0.3272098845219541
 10
33.30744751710971
 20
16.59999935047878
 42
0.0
 10
33.16721335362126
 20
16.59999935047878
 42
-0.4142135623731526
 10
32.64221335362117
 20
17.12499935047877
 42
0.0
 10
32.64221335362117
 20
22.7249993504788
 42
0.4142135623730951
 10
32.11721335362119
 20
23.24999935047878
 42
0.0
 10
30.36721335362107
 20
23.24999935047878
 42
0.4142135623730871
 10
29.8422133536211
 20
22.7249993504788
 42
0.0
 10
29.8422133536211
 20
7.67499935047878
 42
0.4142135623730891
 10
30.36721335362107
 20
7.149999350478792
 42
0.0
 10
32.11721335362108
 20
7.149999350478792
 42
0.4142135623731526
 10
32.64221335362117
 20
7.67499935047878
 42
0.0
 10
32.64221335362117
 20
13.27499935047879
 42
-0.4142135623731526
 10
33.16721335362126
 20
13.79999935047878
 42
0.0
 10
33.30744751710983
 20
13.79999935047878
 42
-0.3272098845218915
 10
33.80807841630518
 20
13.43309331864571
 42
0.0
 10
35.67634829093696
 20
7.516905382311864
 42
0.3272098845218902
 10
36.17697919013232
 20
7.149999350478792
 42
0.0
 10
37.87586856974155
 20
7.149999350478792
 42
0.5069206636600336
 10
38.37649946893692
 20
7.833093318645801
 42
0.0
 10
36.05010809046325
 20
15.19999935047892
 42
0.0
 97
        0
 92
        7
 72
     1
 73
     1
 93
        8
 10
43.49221335362106
 20
22.7249993504788
 42
0.4142135623731546
 10
42.96721335362098
 20
23.24999935047878
 42
0.0
 10
41.21721335362122
 20
23.24999935047878
 42
0.4142135623731507
 10
40.69221335362112
 20
22.7249993504788
 42
0.0
 10
40.69221335362112
 20
7.67499935047878
 42
0.4142135623731526
 10
41.21721335362122
 20
7.149999350478792
 42
0.0
 10
42.96721335362098
 20
7.149999350478792
 42
0.4142135623731526
 10
43.49221335362106
 20
7.67499935047878
 42
0.0
 97
        0
 92
        7
 72
     1
 73
     1
 93
       24
 10
48.39221335362116
 20
19.92499935047879
 42
-0.4142135623731546
 10
48.91721335362126
 20
20.44999935047878
 42
0.0
 10
51.89221335362117
 20
20.44999935047878
 42
0.4142135623730911
 10
52.41721335362115
 20
20.97499935047877
 42
0.0
 10
52.41721335362115
 20
22.7249993504788
 42
0.4142135623730952
 10
51.89221335362117
 20
23.24999935047878
 42
0.0
 10
48.39221335362116
 20
23.24999935047878
 42
0.4142135623731048
 10
45.5922133536211
 20
20.44999935047881
 42
0.0
 10
45.5922133536211
 20
18.63479732512354
 42
0.1989123673796613
 10
46.82236487263764
 20
15.66494884413999
 42
0.0
 10
49.73216284728231
 20
12.75515086949532
 42
-0.1989123673796402
 10
50.14221335362117
 20
11.76520137583425
 42
0.0
 10
50.14221335362117
 20
10.47499935047877
 42
-0.4142135623730911
 10
49.6172133536212
 20
9.949999350478789
 42
0.0
 10
46.64221335362117
 20
9.949999350478789
 42
0.4142135623731526
 10
46.11721335362108
 20
9.424999350478801
 42
0.0
 10
46.11721335362108
 20
7.67499935047878
 42
0.4142135623730891
 10
46.64221335362106
 20
7.149999350478792
 42
0.0
 10
50.14221335362117
 20
7.149999350478792
 42
0.4142135623730925
 10
52.94221335362112
 20
9.949999350478769
 42
0.0
 10
52.94221335362112
 20
11.76520137583403
 42
0.1989123673796675
 10
51.71206183460459
 20
14.73504985681769
 42
0.0
 10
48.80226385996
 20
17.6448478314622
 42
-0.1989123673796652
 10
48.39221335362116
 20
18.63479732512337
 42
0.0
 97
        0
 92
        7
 72
     1
 73
     1
 93
       16
 10
57.84221335362111
 20
22.72499935047877
 42
0.414213562373103
 10
57.31721335362112
 20
23.24999935047878
 42
0.0
 10
55.56721335362112
 20
23.24999935047878
 42
0.4142135623730871
 10
55.04221335362114
 20
22.7249993504788
 42
0.0
 10
55.04221335362114
 20
9.949999350478769
 42
0.4142135623730927
 10
57.84221335362111
 20
7.149999350478792
 42
0.0
 10
61.3422133536211
 20
7.149999350478792
 42
0.4142135623731045
 10
64.14221335362118
 20
9.949999350478769
 42
0.0
 10
64.14221335362118
 20
22.7249993504788
 42
0.4142135623730951
 10
63.61721335362119
 20
23.24999935047878
 42
0.0
 10
61.86721335362108
 20
23.24999935047878
 42
0.4142135623730871
 10
61.3422133536211
 20
22.7249993504788
 42
0.0
 10
61.3422133536211
 20
10.99999935047876
 42
-0.4142135623730879
 10
60.29221335362114
 20
9.949999350478789
 42
0.0
 10
58.89221335362117
 20
9.949999350478789
 42
-0.4142135623731197
 10
57.84221335362111
 20
10.99999935047876
 42
0.0
 97
        0
 92
        7
 72
     1
 73
     1
 93
        8
 10
69.04221335362115
 20
22.7249993504788
 42
0.4142135623730871
 10
68.51721335362118
 20
23.24999935047878
 42
0.0
 10
66.76721335362117
 20
23.24999935047878
 42
0.4142135623731507
 10
66.24221335362108
 20
22.7249993504788
 42
0.0
 10
66.24221335362108
 20
7.67499935047878
 42
0.4142135623730891
 10
66.76721335362106
 20
7.149999350478792
 42
0.0
 10
68.51721335362118
 20
7.149999350478792
 42
0.4142135623730891
 10
69.04221335362115
 20
7.67499935047878
 42
0.0
 97
        0
 75
     0
 76
     1
 52
0.0
 41
0.2
 77
     0
 78
     2
 53
45.0
 43
-900.9423031358391
 44
-13.20000064952113
 45
-0.4490128060534576
 46
0.4490128060534577
 79
     0
 53
135.0
 43
-900.9423031358391
 44
-13.20000064952113
 45
-0.4490128060534577
 46
-0.4490128060534576
 79
     0
 47
0.057451373970553
 98
        8
 10
16.07985616186328
 20
15.16717299636433
 10
22.40451620527915
 20
18.84406153292979
 10
25.16436908449963
 20
15.5118809965495
 10
30.91406118047711
 20
16.20129699692028
 10
41.83847321779671
 20
16.6609092644619
 10
46.89820209396953
 20
19.41857566688599
 10
56.55768717124033
 20
18.72915726557379
 10
67.82708081846272
 20
19.18876953311541
  0
LINE
  5
17CF
330
1A
100
AcDbEntity
  8
ZUWAKU
100
AcDbLine
 10
24.94221335362112
 20
23.24999935047874
 30
0.0
 11
26.86721335362108
 21
23.24999935047878
 31
0.0
  0
LINE
  5
17D0
330
1A
100
AcDbEntity
  8
ZUWAKU
100
AcDbLine
 10
26.86721335362108
 20
20.44999935047878
 30
0.0
 11
24.94221335362112
 21
20.44999935047878
 31
0.0
  0
LINE
  5
17D1
330
1A
100
AcDbEntity
  8
ZUWAKU
100
AcDbLine
 10
24.94221335362112
 20
9.949999350478789
 30
0.0
 11
26.86721335362108
 21
9.949999350478789
 31
0.0
  0
LINE
  5
17D2
330
1A
100
AcDbEntity
  8
ZUWAKU
100
AcDbLine
 10
26.86721335362108
 20
7.149999350478792
 30
0.0
 11
24.94221335362112
 21
7.149999350478792
 31
0.0
  0
CIRCLE
  5
17D3
330
1A
100
AcDbEntity
  8
ZUWAKU
100
AcDbCircle
 10
25.99221335362107
 20
15.19999935047878
 30
0.0
 40
1.75
  0
ARC
  5
17D4
330
1A
100
AcDbEntity
  8
ZUWAKU
100
AcDbCircle
 10
15.49221335362108
 20
18.63479732512348
 30
0.0
 40
1.399999999999999
100
AcDbArc
 50
180.0000000000015
 51
224.9999999999988
  0
LINE
  5
17D5
330
1A
100
AcDbEntity
  8
ZUWAKU
100
AcDbLine
 10
23.54221335362114
 20
19.04999935047878
 30
0.0
 11
23.54221335362114
 21
11.34999935047879
 31
0.0
  0
LINE
  5
17D6
330
1A
100
AcDbEntity
  8
ZUWAKU
100
AcDbLine
 10
20.74221335362107
 20
11.34999935047879
 30
0.0
 11
20.74221335362107
 21
19.04999935047874
 31
0.0
  0
ARC
  5
17D7
330
1A
100
AcDbEntity
  8
ZUWAKU
100
AcDbCircle
 10
15.49221335362108
 20
18.63479732512348
 30
0.0
 40
4.199999999999998
100
AcDbArc
 50
180.0
 51
225.0
  0
ARC
  5
17D8
330
1A
100
AcDbEntity
  8
ZUWAKU
100
AcDbCircle
 10
15.8422133536211
 20
9.949999350478789
 30
0.0
 40
2.799999999999998
100
AcDbArc
 50
270.0
 51
0.0
  0
ARC
  5
17D9
330
1A
100
AcDbEntity
  8
ZUWAKU
100
AcDbCircle
 10
24.94221335362112
 20
11.34999935047879
 30
0.0
 40
4.199999999999998
100
AcDbArc
 50
180.0
 51
270.0
  0
ARC
  5
17DA
330
1A
100
AcDbEntity
  8
ZUWAKU
100
AcDbCircle
 10
14.44221335362112
 20
11.76520137583409
 30
0.0
 40
4.199999999999998
100
AcDbArc
 50
0.0
 51
45.0
  0
LINE
  5
17DB
330
1A
100
AcDbEntity
  8
ZUWAKU
100
AcDbLine
 10
17.41206183460462
 20
14.73504985681761
 30
0.0
 11
14.50226385995994
 21
17.64484783146228
 31
0.0
  0
LINE
  5
17DC
330
1A
100
AcDbEntity
  8
ZUWAKU
100
AcDbLine
 10
15.8422133536211
 20
10.47499935047879
 30
0.0
 11
15.8422133536211
 21
11.76520137583413
 31
0.0
  0
ARC
  5
17DD
330
1A
100
AcDbEntity
  8
ZUWAKU
100
AcDbCircle
 10
15.31721335362112
 20
10.47499935047879
 30
0.0
 40
0.525
100
AcDbArc
 50
270.0
 51
0.0
  0
ARC
  5
17DE
330
1A
100
AcDbEntity
  8
ZUWAKU
100
AcDbCircle
 10
14.44221335362112
 20
11.76520137583413
 30
0.0
 40
1.399999999999999
100
AcDbArc
 50
0.0
 51
45.0
  0
LINE
  5
17DF
330
1A
100
AcDbEntity
  8
ZUWAKU
100
AcDbLine
 10
11.81721335362112
 20
7.674999350478791
 30
0.0
 11
11.81721335362112
 21
9.42499935047879
 31
0.0
  0
ARC
  5
17E0
330
1A
100
AcDbEntity
  8
ZUWAKU
100
AcDbCircle
 10
12.3422133536211
 20
7.674999350478791
 30
0.0
 40
0.525
100
AcDbArc
 50
180.0
 51
270.0
  0
ARC
  5
17E1
330
1A
100
AcDbEntity
  8
ZUWAKU
100
AcDbCircle
 10
12.3422133536211
 20
9.42499935047879
 30
0.0
 40
0.525
100
AcDbArc
 50
90.0
 51
180.0
  0
LINE
  5
17E2
330
1A
100
AcDbEntity
  8
ZUWAKU
100
AcDbLine
 10
12.3422133536211
 20
7.149999350478792
 30
0.0
 11
15.8422133536211
 21
7.149999350478792
 31
0.0
  0
LINE
  5
17E3
330
1A
100
AcDbEntity
  8
ZUWAKU
100
AcDbLine
 10
12.3422133536211
 20
9.949999350478789
 30
0.0
 11
15.31721335362112
 21
9.949999350478789
 31
0.0
  0
LINE
  5
17E4
330
1A
100
AcDbEntity
  8
ZUWAKU
100
AcDbLine
 10
12.52236487263757
 20
15.66494884413996
 30
0.0
 11
15.43216284728225
 21
12.7551508694953
 31
0.0
  0
LINE
  5
17E5
330
1A
100
AcDbEntity
  8
ZUWAKU
100
AcDbLine
 10
18.64221335362117
 20
9.949999350478789
 30
0.0
 11
18.64221335362117
 21
11.76520137583413
 31
0.0
  0
ARC
  5
17E6
330
1A
100
AcDbEntity
  8
ZUWAKU
100
AcDbCircle
 10
24.94221335362112
 20
11.34999935047879
 30
0.0
 40
1.399999999999999
100
AcDbArc
 50
180.0
 51
270.0
  0
ARC
  5
17E7
330
1A
100
AcDbEntity
  8
ZUWAKU
100
AcDbCircle
 10
17.5922133536211
 20
22.72499935047878
 30
0.0
 40
0.525
100
AcDbArc
 50
0.0
 51
90.0
  0
ARC
  5
17E8
330
1A
100
AcDbEntity
  8
ZUWAKU
100
AcDbCircle
 10
17.5922133536211
 20
20.97499935047878
 30
0.0
 40
0.525
100
AcDbArc
 50
270.0
 51
0.0
  0
LINE
  5
17E9
330
1A
100
AcDbEntity
  8
ZUWAKU
100
AcDbLine
 10
14.0922133536211
 20
23.24999935047878
 30
0.0
 11
17.5922133536211
 21
23.24999935047878
 31
0.0
  0
ARC
  5
17EA
330
1A
100
AcDbEntity
  8
ZUWAKU
100
AcDbCircle
 10
14.61721335362107
 20
19.92499935047878
 30
0.0
 40
0.525
100
AcDbArc
 50
90.0
 51
180.0
  0
LINE
  5
17EB
330
1A
100
AcDbEntity
  8
ZUWAKU
100
AcDbLine
 10
14.0922133536211
 20
19.92499935047878
 30
0.0
 11
14.0922133536211
 21
18.63479732512344
 31
0.0
  0
LINE
  5
17EC
330
1A
100
AcDbEntity
  8
ZUWAKU
100
AcDbLine
 10
17.5922133536211
 20
20.44999935047878
 30
0.0
 11
14.61721335362107
 21
20.44999935047878
 31
0.0
  0
LINE
  5
17ED
330
1A
100
AcDbEntity
  8
ZUWAKU
100
AcDbLine
 10
11.29221335362114
 20
20.44999935047878
 30
0.0
 11
11.29221335362114
 21
18.63479732512344
 31
0.0
  0
ARC
  5
17EE
330
1A
100
AcDbEntity
  8
ZUWAKU
100
AcDbCircle
 10
14.0922133536211
 20
20.44999935047878
 30
0.0
 40
2.799999999999998
100
AcDbArc
 50
90.0
 51
180.0
  0
LINE
  5
17EF
330
1A
100
AcDbEntity
  8
ZUWAKU
100
AcDbLine
 10
18.11721335362108
 20
22.72499935047878
 30
0.0
 11
18.11721335362108
 21
20.97499935047878
 31
0.0
  0
ARC
  5
17F0
330
1A
100
AcDbEntity
  8
ZUWAKU
100
AcDbCircle
 10
24.94221335362112
 20
19.04999935047878
 30
0.0
 40
1.399999999999999
100
AcDbArc
 50
90.0
 51
180.0
  0
ARC
  5
17F1
330
1A
100
AcDbEntity
  8
ZUWAKU
100
AcDbCircle
 10
24.94221335362112
 20
19.04999935047874
 30
0.0
 40
4.199999999999998
100
AcDbArc
 50
90.0
 51
180.0
  0
LINE
  5
17F2
330
1A
100
AcDbEntity
  8
ZUWAKU
100
AcDbLine
 10
79.32663074682818
 20
29.99999935047878
 30
0.0
 11
79.32663074682841
 21
0.7999993504788563
 31
0.0
  0
LINE
  5
17F3
330
1A
100
AcDbEntity
  8
ZUWAKU
100
AcDbLine
 10
79.52663074682823
 20
29.99999935047878
 30
0.0
 11
79.52663074682845
 21
0.7999993504788563
 31
0.0
  0
LINE
  5
17F4
330
1A
100
AcDbEntity
  8
ZUWAKU
100
AcDbLine
 10
79.12663074682837
 20
29.99999935047878
 30
0.0
 11
79.12663074682837
 21
0.7999993504788563
 31
0.0
  0
LINE
  5
17F5
330
1A
100
AcDbEntity
  8
ZUWAKU
100
AcDbLine
 10
64.14221335362118
 20
9.949999350478789
 30
0.0
 11
64.14221335362118
 21
22.72499935047878
 31
0.0
  0
LINE
  5
17F6
330
1A
100
AcDbEntity
  8
ZUWAKU
100
AcDbLine
 10
61.3422133536211
 20
22.72499935047878
 30
0.0
 11
61.3422133536211
 21
10.99999935047878
 31
0.0
  0
LINE
  5
17F7
330
1A
100
AcDbEntity
  8
ZUWAKU
100
AcDbLine
 10
69.04221335362115
 20
7.674999350478791
 30
0.0
 11
69.04221335362115
 21
22.72499935047878
 31
0.0
  0
LINE
  5
17F8
330
1A
100
AcDbEntity
  8
ZUWAKU
100
AcDbLine
 10
66.24221335362108
 20
22.72499935047878
 30
0.0
 11
66.24221335362108
 21
7.674999350478791
 31
0.0
  0
ARC
  5
17F9
330
1A
100
AcDbEntity
  8
ZUWAKU
100
AcDbCircle
 10
49.79221335362114
 20
18.63479732512348
 30
0.0
 40
1.399999999999999
100
AcDbArc
 50
180.0000000000015
 51
224.9999999999988
  0
ARC
  5
17FA
330
1A
100
AcDbEntity
  8
ZUWAKU
100
AcDbCircle
 10
49.79221335362114
 20
18.63479732512348
 30
0.0
 40
4.199999999999998
100
AcDbArc
 50
180.0
 51
225.0
  0
LINE
  5
17FB
330
1A
100
AcDbEntity
  8
ZUWAKU
100
AcDbLine
 10
37.3148598357991
 20
19.20504654404221
 30
0.0
 11
36.05010809046325
 21
15.1999993504788
 31
0.0
  0
LINE
  5
17FC
330
1A
100
AcDbEntity
  8
ZUWAKU
100
AcDbLine
 10
40.69221335362112
 20
22.72499935047878
 30
0.0
 11
40.69221335362112
 21
7.674999350478791
 31
0.0
  0
LINE
  5
17FD
330
1A
100
AcDbEntity
  8
ZUWAKU
100
AcDbLine
 10
43.49221335362106
 20
7.674999350478791
 30
0.0
 11
43.49221335362106
 21
22.72499935047878
 31
0.0
  0
LINE
  5
17FE
330
1A
100
AcDbEntity
  8
ZUWAKU
100
AcDbLine
 10
55.04221335362114
 20
22.72499935047878
 30
0.0
 11
55.04221335362114
 21
9.949999350478789
 31
0.0
  0
LINE
  5
17FF
330
1A
100
AcDbEntity
  8
ZUWAKU
100
AcDbLine
 10
57.84221335362111
 20
10.99999935047878
 30
0.0
 11
57.84221335362111
 21
22.72499935047878
 31
0.0
  0
LINE
  5
1800
330
1A
100
AcDbEntity
  8
ZUWAKU
100
AcDbLine
 10
32.64221335362117
 20
17.12499935047879
 30
0.0
 11
32.64221335362117
 21
22.72499935047878
 31
0.0
  0
LINE
  5
1801
330
1A
100
AcDbEntity
  8
ZUWAKU
100
AcDbLine
 10
29.8422133536211
 20
22.72499935047878
 30
0.0
 11
29.8422133536211
 21
7.674999350478791
 31
0.0
  0
LINE
  5
1802
330
1A
100
AcDbEntity
  8
ZUWAKU
100
AcDbLine
 10
35.67634829093696
 20
22.88309331864575
 30
0.0
 11
33.80807841630518
 21
16.96690538231181
 31
0.0
  0
LINE
  5
1803
330
1A
100
AcDbEntity
  8
ZUWAKU
100
AcDbLine
 10
60.29221335362114
 20
9.949999350478789
 30
0.0
 11
58.89221335362117
 21
9.949999350478789
 31
0.0
  0
LINE
  5
1804
330
1A
100
AcDbEntity
  8
ZUWAKU
100
AcDbLine
 10
57.84221335362111
 20
7.149999350478792
 30
0.0
 11
61.3422133536211
 21
7.149999350478792
 31
0.0
  0
LINE
  5
1805
330
1A
100
AcDbEntity
  8
ZUWAKU
100
AcDbLine
 10
41.2172133536211
 20
7.149999350478792
 30
0.0
 11
42.9672133536211
 21
7.149999350478792
 31
0.0
  0
LINE
  5
1806
330
1A
100
AcDbEntity
  8
ZUWAKU
100
AcDbLine
 10
35.67634829093696
 20
7.516905382311818
 30
0.0
 11
33.80807841630518
 21
13.43309331864575
 31
0.0
  0
ARC
  5
1807
330
1A
100
AcDbEntity
  8
ZUWAKU
100
AcDbCircle
 10
33.30744751710983
 20
17.12499935047879
 30
0.0
 40
0.525
100
AcDbArc
 50
270.0
 51
342.4744316262769
  0
LINE
  5
1808
330
1A
100
AcDbEntity
  8
ZUWAKU
100
AcDbLine
 10
33.30744751710983
 20
16.59999935047878
 30
0.0
 11
33.16721335362114
 21
16.59999935047878
 31
0.0
  0
LINE
  5
1809
330
1A
100
AcDbEntity
  8
ZUWAKU
100
AcDbLine
 10
33.16721335362114
 20
13.79999935047878
 30
0.0
 11
33.30744751710983
 21
13.79999935047878
 31
0.0
  0
ARC
  5
180A
330
1A
100
AcDbEntity
  8
ZUWAKU
100
AcDbCircle
 10
33.16721335362114
 20
17.12499935047879
 30
0.0
 40
0.525
100
AcDbArc
 50
180.0
 51
270.0
  0
LINE
  5
180B
330
1A
100
AcDbEntity
  8
ZUWAKU
100
AcDbLine
 10
30.36721335362107
 20
7.149999350478792
 30
0.0
 11
32.11721335362108
 21
7.149999350478792
 31
0.0
  0
ARC
  5
180C
330
1A
100
AcDbEntity
  8
ZUWAKU
100
AcDbCircle
 10
32.11721335362108
 20
7.674999350478791
 30
0.0
 40
0.525
100
AcDbArc
 50
270.0
 51
0.0
  0
LINE
  5
180D
330
1A
100
AcDbEntity
  8
ZUWAKU
100
AcDbLine
 10
32.64221335362117
 20
7.674999350478791
 30
0.0
 11
32.64221335362117
 21
13.27499935047878
 31
0.0
  0
LINE
  5
180E
330
1A
100
AcDbEntity
  8
ZUWAKU
100
AcDbLine
 10
27.39221335362117
 20
9.42499935047879
 30
0.0
 11
27.39221335362117
 21
7.674999350478791
 31
0.0
  0
ARC
  5
180F
330
1A
100
AcDbEntity
  8
ZUWAKU
100
AcDbCircle
 10
26.86721335362108
 20
7.674999350478791
 30
0.0
 40
0.525
100
AcDbArc
 50
270.0
 51
0.0
  0
ARC
  5
1810
330
1A
100
AcDbEntity
  8
ZUWAKU
100
AcDbCircle
 10
26.86721335362108
 20
9.42499935047879
 30
0.0
 40
0.525
100
AcDbArc
 50
0.0
 51
90.0
  0
ARC
  5
1811
330
1A
100
AcDbEntity
  8
ZUWAKU
100
AcDbCircle
 10
30.36721335362107
 20
7.674999350478791
 30
0.0
 40
0.525
100
AcDbArc
 50
180.0
 51
270.0
  0
ARC
  5
1812
330
1A
100
AcDbEntity
  8
ZUWAKU
100
AcDbCircle
 10
33.30744751710983
 20
13.27499935047878
 30
0.0
 40
0.525
100
AcDbArc
 50
17.52556837372303
 51
90.0
  0
ARC
  5
1813
330
1A
100
AcDbEntity
  8
ZUWAKU
100
AcDbCircle
 10
33.16721335362114
 20
13.27499935047878
 30
0.0
 40
0.525
100
AcDbArc
 50
90.0
 51
180.0
  0
ARC
  5
1814
330
1A
100
AcDbEntity
  8
ZUWAKU
100
AcDbCircle
 10
41.2172133536211
 20
7.674999350478791
 30
0.0
 40
0.525
100
AcDbArc
 50
180.0
 51
270.0
  0
LINE
  5
1815
330
1A
100
AcDbEntity
  8
ZUWAKU
100
AcDbLine
 10
36.17697919013243
 20
7.149999350478792
 30
0.0
 11
37.87586856974144
 21
7.149999350478792
 31
0.0
  0
ARC
  5
1816
330
1A
100
AcDbEntity
  8
ZUWAKU
100
AcDbCircle
 10
37.87586856974144
 20
7.674999350478791
 30
0.0
 40
0.525
100
AcDbArc
 50
270.0
 51
17.52556837372303
  0
LINE
  5
1817
330
1A
100
AcDbEntity
  8
ZUWAKU
100
AcDbLine
 10
38.37649946893692
 20
7.833093318645765
 30
0.0
 11
36.05010809046325
 21
15.1999993504788
 31
0.0
  0
ARC
  5
1818
330
1A
100
AcDbEntity
  8
ZUWAKU
100
AcDbCircle
 10
36.17697919013243
 20
7.674999350478791
 30
0.0
 40
0.525
100
AcDbArc
 50
197.5255683737229
 51
270.0
  0
ARC
  5
1819
330
1A
100
AcDbEntity
  8
ZUWAKU
100
AcDbCircle
 10
57.84221335362111
 20
9.949999350478789
 30
0.0
 40
2.799999999999998
100
AcDbArc
 50
180.0
 51
270.0
  0
ARC
  5
181A
330
1A
100
AcDbEntity
  8
ZUWAKU
100
AcDbCircle
 10
50.14221335362117
 20
9.949999350478789
 30
0.0
 40
2.799999999999998
100
AcDbArc
 50
270.0
 51
0.0
  0
LINE
  5
181B
330
1A
100
AcDbEntity
  8
ZUWAKU
100
AcDbLine
 10
51.71206183460469
 20
14.73504985681761
 30
0.0
 11
48.80226385995992
 21
17.64484783146228
 31
0.0
  0
LINE
  5
181C
330
1A
100
AcDbEntity
  8
ZUWAKU
100
AcDbLine
 10
50.14221335362117
 20
10.47499935047879
 30
0.0
 11
50.14221335362117
 21
11.76520137583413
 31
0.0
  0
ARC
  5
181D
330
1A
100
AcDbEntity
  8
ZUWAKU
100
AcDbCircle
 10
48.74221335362108
 20
11.76520137583413
 30
0.0
 40
1.399999999999999
100
AcDbArc
 50
0.0
 51
45.0
  0
ARC
  5
181E
330
1A
100
AcDbEntity
  8
ZUWAKU
100
AcDbCircle
 10
49.61721335362108
 20
10.47499935047879
 30
0.0
 40
0.525
100
AcDbArc
 50
270.0
 51
0.0
  0
LINE
  5
181F
330
1A
100
AcDbEntity
  8
ZUWAKU
100
AcDbLine
 10
46.11721335362108
 20
7.674999350478791
 30
0.0
 11
46.11721335362108
 21
9.42499935047879
 31
0.0
  0
ARC
  5
1820
330
1A
100
AcDbEntity
  8
ZUWAKU
100
AcDbCircle
 10
46.64221335362117
 20
7.674999350478791
 30
0.0
 40
0.525
100
AcDbArc
 50
180.0
 51
270.0
  0
ARC
  5
1821
330
1A
100
AcDbEntity
  8
ZUWAKU
100
AcDbCircle
 10
42.9672133536211
 20
7.674999350478791
 30
0.0
 40
0.525
100
AcDbArc
 50
270.0
 51
0.0
  0
ARC
  5
1822
330
1A
100
AcDbEntity
  8
ZUWAKU
100
AcDbCircle
 10
46.64221335362117
 20
9.42499935047879
 30
0.0
 40
0.525
100
AcDbArc
 50
90.0
 51
180.0
  0
LINE
  5
1823
330
1A
100
AcDbEntity
  8
ZUWAKU
100
AcDbLine
 10
46.64221335362117
 20
9.949999350478789
 30
0.0
 11
49.61721335362108
 21
9.949999350478789
 31
0.0
  0
LINE
  5
1824
330
1A
100
AcDbEntity
  8
ZUWAKU
100
AcDbLine
 10
46.64221335362117
 20
7.149999350478792
 30
0.0
 11
50.14221335362117
 21
7.149999350478792
 31
0.0
  0
LINE
  5
1825
330
1A
100
AcDbEntity
  8
ZUWAKU
100
AcDbLine
 10
46.82236487263764
 20
15.66494884413996
 30
0.0
 11
49.73216284728231
 21
12.7551508694953
 31
0.0
  0
LINE
  5
1826
330
1A
100
AcDbEntity
  8
ZUWAKU
100
AcDbLine
 10
52.94221335362112
 20
9.949999350478789
 30
0.0
 11
52.94221335362112
 21
11.76520137583413
 31
0.0
  0
ARC
  5
1827
330
1A
100
AcDbEntity
  8
ZUWAKU
100
AcDbCircle
 10
48.74221335362108
 20
11.76520137583409
 30
0.0
 40
4.199999999999998
100
AcDbArc
 50
0.0
 51
45.0
  0
ARC
  5
1828
330
1A
100
AcDbEntity
  8
ZUWAKU
100
AcDbCircle
 10
58.89221335362117
 20
10.99999935047878
 30
0.0
 40
1.049999999999998
100
AcDbArc
 50
180.0
 51
270.0
  0
ARC
  5
1829
330
1A
100
AcDbEntity
  8
ZUWAKU
100
AcDbCircle
 10
61.3422133536211
 20
9.949999350478789
 30
0.0
 40
2.799999999999998
100
AcDbArc
 50
270.0
 51
0.0
  0
LINE
  5
182A
330
1A
100
AcDbEntity
  8
ZUWAKU
100
AcDbLine
 10
66.76721335362117
 20
7.149999350478792
 30
0.0
 11
68.51721335362118
 21
7.149999350478792
 31
0.0
  0
ARC
  5
182B
330
1A
100
AcDbEntity
  8
ZUWAKU
100
AcDbCircle
 10
66.76721335362117
 20
7.674999350478791
 30
0.0
 40
0.525
100
AcDbArc
 50
180.0
 51
270.0
  0
ARC
  5
182C
330
1A
100
AcDbEntity
  8
ZUWAKU
100
AcDbCircle
 10
60.29221335362114
 20
10.99999935047878
 30
0.0
 40
1.049999999999998
100
AcDbArc
 50
270.0
 51
0.0
  0
ARC
  5
182D
330
1A
100
AcDbEntity
  8
ZUWAKU
100
AcDbCircle
 10
68.51721335362118
 20
7.674999350478791
 30
0.0
 40
0.525
100
AcDbArc
 50
270.0
 51
0.0
  0
LINE
  5
182E
330
1A
100
AcDbEntity
  8
ZUWAKU
100
AcDbLine
 10
42.9672133536211
 20
23.24999935047878
 30
0.0
 11
41.2172133536211
 21
23.24999935047878
 31
0.0
  0
ARC
  5
182F
330
1A
100
AcDbEntity
  8
ZUWAKU
100
AcDbCircle
 10
32.11721335362108
 20
22.72499935047878
 30
0.0
 40
0.525
100
AcDbArc
 50
0.0
 51
90.0
  0
LINE
  5
1830
330
1A
100
AcDbEntity
  8
ZUWAKU
100
AcDbLine
 10
32.11721335362108
 20
23.24999935047878
 30
0.0
 11
30.36721335362107
 21
23.24999935047878
 31
0.0
  0
ARC
  5
1831
330
1A
100
AcDbEntity
  8
ZUWAKU
100
AcDbCircle
 10
26.86721335362108
 20
22.72499935047878
 30
0.0
 40
0.525
100
AcDbArc
 50
0.0
 51
90.0
  0
ARC
  5
1832
330
1A
100
AcDbEntity
  8
ZUWAKU
100
AcDbCircle
 10
30.36721335362107
 20
22.72499935047878
 30
0.0
 40
0.525
100
AcDbArc
 50
90.0
 51
180.0
  0
ARC
  5
1833
330
1A
100
AcDbEntity
  8
ZUWAKU
100
AcDbCircle
 10
26.86721335362108
 20
20.97499935047878
 30
0.0
 40
0.525
100
AcDbArc
 50
270.0
 51
0.0
  0
LINE
  5
1834
330
1A
100
AcDbEntity
  8
ZUWAKU
100
AcDbLine
 10
27.39221335362117
 20
22.72499935047878
 30
0.0
 11
27.39221335362117
 21
20.97499935047878
 31
0.0
  0
ARC
  5
1835
330
1A
100
AcDbEntity
  8
ZUWAKU
100
AcDbCircle
 10
41.2172133536211
 20
22.72499935047878
 30
0.0
 40
0.525
100
AcDbArc
 50
90.0
 51
180.0
  0
LINE
  5
1836
330
1A
100
AcDbEntity
  8
ZUWAKU
100
AcDbLine
 10
36.17697919013243
 20
23.24999935047878
 30
0.0
 11
37.87586856974144
 21
23.24999935047878
 31
0.0
  0
ARC
  5
1837
330
1A
100
AcDbEntity
  8
ZUWAKU
100
AcDbCircle
 10
37.87586856974144
 20
22.72499935047878
 30
0.0
 40
0.525
100
AcDbArc
 50
342.4744316262769
 51
90.0
  0
LINE
  5
1838
330
1A
100
AcDbEntity
  8
ZUWAKU
100
AcDbLine
 10
38.37649946893692
 20
22.56690538231182
 30
0.0
 11
37.3148598357991
 21
19.20504654404221
 31
0.0
  0
ARC
  5
1839
330
1A
100
AcDbEntity
  8
ZUWAKU
100
AcDbCircle
 10
36.17697919013243
 20
22.72499935047878
 30
0.0
 40
0.525
100
AcDbArc
 50
90.0
 51
162.4744316262769
  0
LINE
  5
183A
330
1A
100
AcDbEntity
  8
ZUWAKU
100
AcDbLine
 10
48.39221335362116
 20
23.24999935047878
 30
0.0
 11
51.89221335362117
 21
23.24999935047878
 31
0.0
  0
LINE
  5
183B
330
1A
100
AcDbEntity
  8
ZUWAKU
100
AcDbLine
 10
51.89221335362117
 20
20.44999935047878
 30
0.0
 11
48.91721335362114
 21
20.44999935047878
 31
0.0
  0
ARC
  5
183C
330
1A
100
AcDbEntity
  8
ZUWAKU
100
AcDbCircle
 10
48.91721335362114
 20
19.92499935047878
 30
0.0
 40
0.525
100
AcDbArc
 50
90.0
 51
180.0
  0
LINE
  5
183D
330
1A
100
AcDbEntity
  8
ZUWAKU
100
AcDbLine
 10
48.39221335362116
 20
19.92499935047878
 30
0.0
 11
48.39221335362116
 21
18.63479732512344
 31
0.0
  0
ARC
  5
183E
330
1A
100
AcDbEntity
  8
ZUWAKU
100
AcDbCircle
 10
42.9672133536211
 20
22.72499935047878
 30
0.0
 40
0.525
100
AcDbArc
 50
0.0
 51
90.0
  0
LINE
  5
183F
330
1A
100
AcDbEntity
  8
ZUWAKU
100
AcDbLine
 10
45.5922133536211
 20
20.44999935047878
 30
0.0
 11
45.5922133536211
 21
18.63479732512344
 31
0.0
  0
ARC
  5
1840
330
1A
100
AcDbEntity
  8
ZUWAKU
100
AcDbCircle
 10
48.39221335362116
 20
20.44999935047878
 30
0.0
 40
2.799999999999998
100
AcDbArc
 50
90.0
 51
180.0
  0
ARC
  5
1841
330
1A
100
AcDbEntity
  8
ZUWAKU
100
AcDbCircle
 10
57.31721335362112
 20
22.72499935047878
 30
0.0
 40
0.525
100
AcDbArc
 50
0.0
 51
90.0
  0
ARC
  5
1842
330
1A
100
AcDbEntity
  8
ZUWAKU
100
AcDbCircle
 10
55.56721335362112
 20
22.72499935047878
 30
0.0
 40
0.525
100
AcDbArc
 50
90.0
 51
180.0
  0
LINE
  5
1843
330
1A
100
AcDbEntity
  8
ZUWAKU
100
AcDbLine
 10
57.31721335362112
 20
23.24999935047878
 30
0.0
 11
55.56721335362112
 21
23.24999935047878
 31
0.0
  0
ARC
  5
1844
330
1A
100
AcDbEntity
  8
ZUWAKU
100
AcDbCircle
 10
51.89221335362117
 20
22.72499935047878
 30
0.0
 40
0.525
100
AcDbArc
 50
0.0
 51
90.0
  0
ARC
  5
1845
330
1A
100
AcDbEntity
  8
ZUWAKU
100
AcDbCircle
 10
51.89221335362117
 20
20.97499935047878
 30
0.0
 40
0.525
100
AcDbArc
 50
270.0
 51
0.0
  0
LINE
  5
1846
330
1A
100
AcDbEntity
  8
ZUWAKU
100
AcDbLine
 10
52.41721335362115
 20
22.72499935047878
 30
0.0
 11
52.41721335362115
 21
20.97499935047878
 31
0.0
  0
LINE
  5
1847
330
1A
100
AcDbEntity
  8
ZUWAKU
100
AcDbLine
 10
68.51721335362118
 20
23.24999935047878
 30
0.0
 11
66.76721335362117
 21
23.24999935047878
 31
0.0
  0
ARC
  5
1848
330
1A
100
AcDbEntity
  8
ZUWAKU
100
AcDbCircle
 10
66.76721335362117
 20
22.72499935047878
 30
0.0
 40
0.525
100
AcDbArc
 50
90.0
 51
180.0
  0
ARC
  5
1849
330
1A
100
AcDbEntity
  8
ZUWAKU
100
AcDbCircle
 10
63.61721335362108
 20
22.72499935047878
 30
0.0
 40
0.525
100
AcDbArc
 50
0.0
 51
90.0
  0
LINE
  5
184A
330
1A
100
AcDbEntity
  8
ZUWAKU
100
AcDbLine
 10
63.61721335362108
 20
23.24999935047878
 30
0.0
 11
61.86721335362108
 21
23.24999935047878
 31
0.0
  0
ARC
  5
184B
330
1A
100
AcDbEntity
  8
ZUWAKU
100
AcDbCircle
 10
61.86721335362108
 20
22.72499935047878
 30
0.0
 40
0.525
100
AcDbArc
 50
90.0
 51
180.0
  0
ARC
  5
184C
330
1A
100
AcDbEntity
  8
ZUWAKU
100
AcDbCircle
 10
68.51721335362118
 20
22.72499935047878
 30
0.0
 40
0.525
100
AcDbArc
 50
0.0
 51
90.0
  0
TEXT
  5
184D
330
1A
100
AcDbEntity
  8
MOJI
100
AcDbText
 10
239.8272038796909
 20
18.00492040788617
 30
0.0
 40
5.599999999999998
  1
ブラケット正面打（吊）固定式
 41
0.9
  7
ｽﾀｲﾙ1
100
AcDbText
  0
TEXT
  5
184E
330
1A
100
AcDbEntity
  8
MOJI
100
AcDbText
 10
239.8272038796909
 20
3.204920407886209
 30
0.0
 40
5.599999999999998
  1
１２０－６－６０
 41
0.9
  7
ｽﾀｲﾙ1
100
AcDbText
  0
LINE
  5
184F
330
1A
100
AcDbEntity
  8
ZUWAKU
100
AcDbLine
 10
208.2466024889078
 20
29.99999935047878
 30
0.0
 11
208.2466024889078
 21
0.7999993504788563
 31
0.0
  0
LINE
  5
1850
330
1A
100
AcDbEntity
  8
ZUWAKU
100
AcDbLine
 10
208.6466024889077
 20
29.99999935047878
 30
0.0
 11
208.6466024889079
 21
0.7999993504788563
 31
0.0
  0
LINE
  5
1851
330
1A
100
AcDbEntity
  8
ZUWAKU
100
AcDbLine
 10
208.4466024889076
 20
29.99999935047878
 30
0.0
 11
208.4466024889079
 21
0.7999993504788563
 31
0.0
  0
TEXT
  5
1852
330
1A
100
AcDbEntity
  8
ZUWAKU
100
AcDbText
 10
209.7240475111174
 20
9.655355888864406
 30
0.0
 40
4.0
  1
サイズ
 41
0.9
  7
ｽﾀｲﾙ1
100
AcDbText
  0
TEXT
  5
1853
330
1A
100
AcDbEntity
  8
ZUWAKU
100
AcDbText
 10
209.7240475111172
 20
24.05535588886436
 30
0.0
 40
4.0
  1
品名
 41
0.9
  7
ｽﾀｲﾙ1
100
AcDbText
  0
LINE
  5
1854
330
1A
100
AcDbEntity
  8
ZUWAKU
100
AcDbLine
 10
648.8172037090442
 20
15.19999935047881
 30
0.0
 11
697.2490117473812
 21
15.19999935047881
 31
0.0
  0
LINE
  5
1855
330
1A
100
AcDbEntity
  8
ZUWAKU
100
AcDbLine
 10
648.8172037090443
 20
15.39999935047882
 30
0.0
 11
697.2490117473812
 21
15.39999935047881
 31
0.0
  0
LINE
  5
1856
330
1A
100
AcDbEntity
  8
ZUWAKU
100
AcDbLine
 10
648.8172037090442
 20
15.59999935047881
 30
0.0
 11
697.2490117473812
 21
15.59999935047881
 31
0.0
  0
TEXT
  5
1857
330
1A
100
AcDbEntity
  8
ZUWAKU
100
AcDbText
 10
654.5120771985268
 20
18.00492040788617
 30
0.0
 40
5.599999999999998
  1
　　．　．　　
 41
0.9
  7
ｽﾀｲﾙ1
100
AcDbText
  0
LINE
  5
1858
330
1A
100
AcDbEntity
  8
ZUWAKU
100
AcDbLine
 10
505.1991806969807
 20
15.19999935047882
 30
0.0
 11
552.5269569649524
 21
15.19999935047882
 31
0.0
  0
LINE
  5
1859
330
1A
100
AcDbEntity
  8
ZUWAKU
100
AcDbLine
 10
505.1991806969807
 20
15.39999935047881
 30
0.0
 11
552.5269569649524
 21
15.39999935047881
 31
0.0
  0
LINE
  5
185A
330
1A
100
AcDbEntity
  8
ZUWAKU
100
AcDbLine
 10
505.1991806969807
 20
15.59999935047881
 30
0.0
 11
552.5269569649524
 21
15.59999935047881
 31
0.0
  0
LINE
  5
185B
330
1A
100
AcDbEntity
  8
ZUWAKU
100
AcDbLine
 10
447.6243651698311
 20
29.99999935047878
 30
0.0
 11
447.6243651698313
 21
0.7999993504788563
 31
0.0
  0
LINE
  5
185C
330
1A
100
AcDbEntity
  8
ZUWAKU
100
AcDbLine
 10
447.8243651698311
 20
29.99999935047878
 30
0.0
 11
447.8243651698314
 21
0.7999993504788563
 31
0.0
  0
LINE
  5
185D
330
1A
100
AcDbEntity
  8
ZUWAKU
100
AcDbLine
 10
447.4243651698313
 20
29.99999935047878
 30
0.0
 11
447.4243651698313
 21
0.7999993504788563
 31
0.0
  0
TEXT
  5
185E
330
1A
100
AcDbEntity
  8
MOJI
100
AcDbText
 10
528.0409091711528
 20
18.00492040788617
 30
0.0
 40
5.599999999999998
  1
Ａ３
 41
0.9
  7
ｽﾀｲﾙ1
100
AcDbText
  0
LINE
  5
185F
330
1A
100
AcDbEntity
  8
ZUWAKU
100
AcDbLine
 10
504.9991806969808
 20
29.99999935047878
 30
0.0
 11
504.9991806969809
 21
0.7999993504788563
 31
0.0
  0
LINE
  5
1860
330
1A
100
AcDbEntity
  8
ZUWAKU
100
AcDbLine
 10
505.1991806969807
 20
29.99999935047878
 30
0.0
 11
505.1991806969811
 21
0.7999993504788563
 31
0.0
  0
LINE
  5
1861
330
1A
100
AcDbEntity
  8
ZUWAKU
100
AcDbLine
 10
504.7991806969809
 20
29.99999935047878
 30
0.0
 11
504.7991806969809
 21
0.7999993504788563
 31
0.0
  0
TEXT
  5
1862
330
1A
100
AcDbEntity
  8
MOJI
100
AcDbText
 10
463.2464331898419
 20
11.94261707213876
 30
0.0
 40
5.599999999999998
  1
ＬＬ７１Ｔ
 41
0.9
  7
ｽﾀｲﾙ1
100
AcDbText
  0
TEXT
  5
1863
330
1A
100
AcDbEntity
  8
ZUWAKU
100
AcDbText
 10
506.6766257191907
 20
9.655355888864406
 30
0.0
 40
4.0
  1
縮尺
 41
0.9
  7
ｽﾀｲﾙ1
100
AcDbText
  0
TEXT
  5
1864
330
1A
100
AcDbEntity
  8
MOJI
100
AcDbText
 10
528.0409091711528
 20
3.204920407886209
 30
0.0
 40
5.599999999999998
  1
１/２
 41
0.9
  7
ｽﾀｲﾙ1
100
AcDbText
  0
TEXT
  5
1865
330
1A
100
AcDbEntity
  8
ZUWAKU
100
AcDbText
 10
449.3018101920409
 20
24.05535588886436
 30
0.0
 40
4.0
  1
品番
 41
0.9
  7
ｽﾀｲﾙ1
100
AcDbText
  0
TEXT
  5
1866
330
1A
100
AcDbEntity
  8
ZUWAKU
100
AcDbText
 10
506.6766257191904
 20
24.05535588886436
 30
0.0
 40
4.0
  1
用紙
 41
0.9
  7
ｽﾀｲﾙ1
100
AcDbText
  0
LINE
  5
1867
330
1A
100
AcDbEntity
  8
ZUWAKU
100
AcDbLine
 10
648.6172037090441
 20
29.99999935047878
 30
0.0
 11
648.6172037090446
 21
0.7999993504788563
 31
0.0
  0
LINE
  5
1868
330
1A
100
AcDbEntity
  8
ZUWAKU
100
AcDbLine
 10
648.8172037090443
 20
29.99999935047878
 30
0.0
 11
648.8172037090447
 21
0.7999993504788563
 31
0.0
  0
LINE
  5
1869
330
1A
100
AcDbEntity
  8
ZUWAKU
100
AcDbLine
 10
648.4172037090445
 20
29.99999935047878
 30
0.0
 11
648.4172037090445
 21
0.7999993504788563
 31
0.0
  0
LINE
  5
186A
330
1A
100
AcDbEntity
  8
ZUWAKU
100
AcDbLine
 10
552.7269569649523
 20
29.99999935047878
 30
0.0
 11
552.7269569649523
 21
0.7999993504788563
 31
0.0
  0
LINE
  5
186B
330
1A
100
AcDbEntity
  8
ZUWAKU
100
AcDbLine
 10
552.9269569649523
 20
29.99999935047878
 30
0.0
 11
552.9269569649524
 21
0.7999993504788563
 31
0.0
  0
LINE
  5
186C
330
1A
100
AcDbEntity
  8
ZUWAKU
100
AcDbLine
 10
552.5269569649524
 20
29.99999935047878
 30
0.0
 11
552.5269569649524
 21
0.7999993504788563
 31
0.0
  0
TEXT
  5
186D
330
1A
100
AcDbEntity
  8
ZUWAKU
100
AcDbText
 10
650.2946487312539
 20
24.05535588886436
 30
0.0
 40
4.0
  1
DATE
 41
0.9
  7
ｽﾀｲﾙ1
100
AcDbText
  0
LINE
  5
186E
330
1A
100
AcDbEntity
  8
ZUWAKU
100
AcDbLine
 10
697.2490117473812
 20
29.99999935047878
 30
0.0
 11
697.2490117473812
 21
0.7999993504788563
 31
0.0
  0
LINE
  5
186F
330
1A
100
AcDbEntity
  8
ZUWAKU
100
AcDbLine
 10
697.4490117473813
 20
29.99999935047878
 30
0.0
 11
697.4490117473813
 21
0.7999993504788563
 31
0.0
  0
LINE
  5
1870
330
1A
100
AcDbEntity
  8
ZUWAKU
100
AcDbLine
 10
697.6490117473811
 20
29.99999935047878
 30
0.0
 11
697.6490117473813
 21
0.7999993504788563
 31
0.0
  0
LINE
  5
1871
330
1A
100
AcDbEntity
  8
ZUWAKU
100
AcDbLine
 10
697.8490117473812
 20
29.99999935047878
 30
0.0
 11
697.8490117473812
 21
0.7999993504788563
 31
0.0
  0
TEXT
  5
1872
330
1A
100
AcDbEntity
  8
ZUWAKU
100
AcDbText
 10
708.5280853910837
 20
17.55383868616558
 30
0.0
 40
6.0
  1
積水化学工業株式会社
 41
0.9
  7
ｽﾀｲﾙ1
100
AcDbText
  0
TEXT
  5
1873
330
1A
100
AcDbEntity
  8
ZUWAKU
100
AcDbText
 10
708.5280853910837
 20
6.648839664332853
 30
0.0
 40
6.0
  1
建材事業部
 41
0.9
  7
ｽﾀｲﾙ1
100
AcDbText
  0
ARC
  5
1893
330
1A
100
AcDbEntity
  8
SEIHIN
100
AcDbCircle
 10
425.4976937467486
 20
414.1913115515328
 30
0.0
 40
5.000000000000031
100
AcDbArc
 50
276.6613486491095
 51
0.0000000000052161
  0
ARC
  5
1894
330
1A
100
AcDbEntity
  8
SEIHIN
100
AcDbCircle
 10
423.9282020045483
 20
414.1913115515326
 30
0.0
 40
5.000000000000053
100
AcDbArc
 50
276.6613486491284
 51
0.0000000000052161
  0
ARC
  5
1895
330
1A
100
AcDbEntity
  8
SEIHIN
100
AcDbCircle
 10
425.3732594027104
 20
376.1397691586069
 30
0.0
 40
5.124693548364184
100
AcDbArc
 50
0.5762708235343178
 51
82.8909303322453
  0
ARC
  5
1896
330
1A
100
AcDbEntity
  8
SEIHIN
100
AcDbCircle
 10
423.9282020045506
 20
376.1913115515332
 30
0.0
 40
5.000000000000056
100
AcDbArc
 50
0.0
 51
89.99999999999934
  0
ELLIPSE
  5
189B
330
1A
100
AcDbEntity
  8
SEIHIN
100
AcDbEllipse
 10
474.9770242017369
 20
395.2250659072838
 30
0.0
 11
-1.073291555473019
 21
8.188417332234962
 31
0.0
210
0.0
220
0.0
230
1.0
 40
0.3468345121197704
 41
6.283185307179586
 42
7.498619358718201
  0
ELLIPSE
  5
189D
330
1A
100
AcDbEntity
  8
SEIHIN
100
AcDbEllipse
 10
473.8475476479806
 20
395.2250659072838
 30
0.0
 11
-1.073291555473019
 21
8.188417332234962
 31
0.0
210
0.0
220
0.0
230
1.0
 40
0.3468345121197704
 41
6.283185307179586
 42
7.498619358718201
  0
ARC
  5
18A0
330
1A
100
AcDbEntity
  8
SEIHIN
100
AcDbCircle
 10
423.4985779888354
 20
245.1864127420886
 30
0.0
 40
8.000000000000072
100
AcDbArc
 50
33.91234117810165
 51
90.0
  0
ARC
  5
18A1
330
1A
100
AcDbEntity
  8
SEIHIN
100
AcDbCircle
 10
394.2916357568353
 20
226.6864127420885
 30
0.0
 40
26.50000000000016
100
AcDbArc
 50
90.00000332730191
 51
134.4052601452973
  0
ARC
  5
18A2
330
1A
100
AcDbEntity
  8
SEIHIN
100
AcDbCircle
 10
394.2916357568356
 20
226.6864127420882
 30
0.0
 40
30.00000000000051
100
AcDbArc
 50
89.99999571069851
 51
134.4052601452972
  0
ARC
  5
18A3
330
1A
100
AcDbEntity
  8
SEIHIN
100
AcDbCircle
 10
286.0411850236353
 20
233.6507129731884
 30
0.0
 40
10.00000000000035
100
AcDbArc
 50
51.30559686789965
 51
89.99999999999904
  0
ARC
  5
18A4
330
1A
100
AcDbEntity
  8
SEIHIN
100
AcDbCircle
 10
283.0843343269352
 20
236.1507129731886
 30
0.0
 40
13.50000000000005
100
AcDbArc
 50
48.26575678540256
 51
90.0
  0
ARC
  5
18A6
330
1A
100
AcDbEntity
  8
SEIHIN
100
AcDbCircle
 10
291.2621237522352
 20
215.8507129731882
 30
0.0
 40
13.50000000000055
100
AcDbArc
 50
56.5758133162974
 51
90.00000242169765
  0
ARC
  5
18A7
330
1A
100
AcDbEntity
  8
SEIHIN
100
AcDbCircle
 10
291.2621237523118
 20
215.8507129737107
 30
0.0
 40
9.999999999478072
100
AcDbArc
 50
56.57581184809008
 51
89.99999502203788
  0
ARC
  5
18AE
330
1A
100
AcDbEntity
  8
SEIHIN
100
AcDbCircle
 10
362.8704333257585
 20
324.3507129726659
 30
0.0
 40
119.9999999994772
100
AcDbArc
 50
236.5758106288923
 51
269.9999985406382
  0
ARC
  5
18AF
330
1A
100
AcDbEntity
  8
SEIHIN
100
AcDbCircle
 10
362.8704333258356
 20
324.3507129731892
 30
0.0
 40
116.5000000000005
100
AcDbArc
 50
236.5758103176016
 51
269.9999985869013
  0
ARC
  5
18B2
330
1A
100
AcDbEntity
  8
SEIHIN
100
AcDbCircle
 10
394.576965778996
 20
222.3507129733421
 30
0.0
 40
4.999999999846579
100
AcDbArc
 50
3.532294581542796
 51
90.00000000069496
  0
ARC
  5
18B3
330
1A
100
AcDbEntity
  8
SEIHIN
100
AcDbCircle
 10
394.5769657789353
 20
222.3507129731887
 30
0.0
 40
8.5
100
AcDbArc
 50
3.53229458390003
 51
89.9999999999996
  0
ARC
  5
18B4
330
1A
100
AcDbEntity
  8
SEIHIN
100
AcDbCircle
 10
459.2609102941355
 20
204.1507129731887
 30
0.0
 40
1.000000000000028
100
AcDbArc
 50
270.0000000000032
 51
30.96375653209504
  0
ARC
  5
18B5
330
1A
100
AcDbEntity
  8
SEIHIN
100
AcDbCircle
 10
461.4285295362354
 20
196.6507129731887
 30
0.0
 40
2.999999999999882
100
AcDbArc
 50
30.9637565320993
 51
90.00000000000216
  0
ARC
  5
18BC
330
1A
100
AcDbEntity
  8
SEIHIN
100
AcDbCircle
 10
269.8156928233184
 20
256.1507129731556
 30
0.0
 40
0.5000000000330829
100
AcDbArc
 50
340.709953786006
 51
89.99999999804588
  0
ARC
  5
18BD
330
1A
100
AcDbEntity
  8
SEIHIN
100
AcDbCircle
 10
269.5204333258355
 20
250.4007129731887
 30
0.0
 40
6.749999999999975
100
AcDbArc
 50
112.1916065662984
 51
270.0000090003959
  0
ARC
  5
18BE
330
1A
100
AcDbEntity
  8
SEIHIN
100
AcDbCircle
 10
269.6704333258413
 20
239.6507129731964
 30
0.0
 40
3.999999999992326
100
AcDbArc
 50
297.8966750511987
 51
90.00000000008553
  0
ARC
  5
18BF
330
1A
100
AcDbEntity
  8
SEIHIN
100
AcDbCircle
 10
270.2704333258354
 20
230.3507129731887
 30
0.0
 40
4.5
100
AcDbArc
 50
117.8966750511002
 51
270.0
  0
ARC
  5
18C1
330
1A
100
AcDbEntity
  8
SEIHIN
100
AcDbCircle
 10
270.2704333258453
 20
230.3507129732015
 30
0.0
 40
1.000000000012634
100
AcDbArc
 50
117.8966750508422
 51
269.9999999994333
  0
ARC
  5
18C2
330
1A
100
AcDbEntity
  8
SEIHIN
100
AcDbCircle
 10
269.670433325835
 20
239.6507129731887
 30
0.0
 40
7.500000000000158
100
AcDbArc
 50
297.896675051102
 51
0.000002477469304
  0
ARC
  5
18C3
330
1A
100
AcDbEntity
  8
SEIHIN
100
AcDbCircle
 10
278.1704333258353
 20
242.6507129731887
 30
0.0
 40
1.0
100
AcDbArc
 50
90.0
 51
180.0000000000016
  0
ARC
  5
18C4
330
1A
100
AcDbEntity
  8
SEIHIN
100
AcDbCircle
 10
381.519580364849
 20
209.3507129731379
 30
0.0
 40
4.999999999949181
100
AcDbArc
 50
269.9999999998429
 51
329.9999932507468
  0
ARC
  5
18C5
330
1A
100
AcDbEntity
  8
SEIHIN
100
AcDbCircle
 10
387.0044079221354
 20
209.8507129731888
 30
0.0
 40
0.5000000000000153
100
AcDbArc
 50
330.0000149928997
 51
90.0
  0
ARC
  5
18C6
330
1A
100
AcDbEntity
  8
SEIHIN
100
AcDbCircle
 10
380.5220460123609
 20
210.8507129732402
 30
0.0
 40
0.5000000000515286
100
AcDbArc
 50
165.0000000137833
 51
269.9999999970883
  0
ARC
  5
18C7
330
1A
100
AcDbEntity
  8
SEIHIN
100
AcDbCircle
 10
388.2622045371384
 20
222.3507129731806
 30
0.0
 40
5.000000000008157
100
AcDbArc
 50
90.00000000003389
 51
165.000004575789
  0
ARC
  5
18C8
330
1A
100
AcDbEntity
  8
SEIHIN
100
AcDbCircle
 10
388.2622045371354
 20
222.3507129731887
 30
0.0
 40
8.500000000000047
100
AcDbArc
 50
90.00000388069933
 51
164.9999962477981
  0
ARC
  5
18C9
330
1A
100
AcDbEntity
  8
SEIHIN
100
AcDbCircle
 10
392.8704333258352
 20
224.3507129731886
 30
0.0
 40
3.000000000000113
100
AcDbArc
 50
0.0000085370715297
 51
89.99999999999785
  0
ARC
  5
18CA
330
1A
100
AcDbEntity
  8
SEIHIN
100
AcDbCircle
 10
398.8704333258352
 20
222.2507129731887
 30
0.0
 40
2.999999999999829
100
AcDbArc
 50
179.9999999999994
 51
233.1301023541587
  0
ARC
  5
18CB
330
1A
100
AcDbEntity
  8
SEIHIN
100
AcDbCircle
 10
396.9615333544478
 20
216.1823879516133
 30
0.0
 40
3.000000000112947
100
AcDbArc
 50
3.532294585492357
 51
53.13010235372711
  0
ARC
  5
18CD
330
1A
100
AcDbEntity
  8
SEIHIN
100
AcDbCircle
 10
397.3026945693617
 20
210.6555762709982
 30
0.0
 40
3.000000000073034
100
AcDbArc
 50
320.1944289084951
 51
3.532294583633843
  0
ARC
  5
18CE
330
1A
100
AcDbEntity
  8
SEIHIN
100
AcDbCircle
 10
400.870433325707
 20
205.5645631676112
 30
0.0
 40
2.999999999871639
100
AcDbArc
 50
140.1944236057661
 51
180.0000000004294
  0
ARC
  5
18CF
330
1A
100
AcDbEntity
  8
SEIHIN
100
AcDbCircle
 10
400.8704333258347
 20
203.7368627786884
 30
0.0
 40
2.999999999999374
100
AcDbArc
 50
179.9999999999962
 51
219.8055777680059
  0
ARC
  5
18D0
330
1A
100
AcDbEntity
  8
SEIHIN
100
AcDbCircle
 10
401.7755581638355
 20
202.6507129731887
 30
0.0
 40
3.000000000000036
100
AcDbArc
 50
219.8055710923001
 51
270.0
  0
ARC
  5
18D1
330
1A
100
AcDbEntity
  8
SEIHIN
100
AcDbCircle
 10
405.2185047353976
 20
204.1507129730929
 30
0.0
 40
4.499999999904268
100
AcDbArc
 50
183.532294582688
 51
270.0000000004826
  0
ELLIPSE
  5
18E0
330
1A
100
AcDbEntity
  8
SEIHIN
100
AcDbEllipse
 10
474.2798667321483
 20
392.7250659072786
 30
0.0
 11
-0.3761340858133053
 21
-5.688417332239168
 31
0.0
210
0.0
220
0.0
230
1.0
 40
0.410265072806275
 41
4.739510204319676
 42
6.283185307179586
  0
LINE
  5
18E2
330
1A
100
AcDbEntity
  8
SEIHIN
100
AcDbLine
 10
473.0997001130486
 20
383.2250659072789
 30
0.0
 11
473.2447615927485
 21
383.2852917933788
 31
0.0
  0
LINE
  5
18E3
330
1A
100
AcDbEntity
  8
SEIHIN
100
AcDbLine
 10
473.2447615927485
 20
383.2852917933788
 30
0.0
 11
473.3839987683486
 21
383.4635513468789
 31
0.0
  0
LINE
  5
18E4
330
1A
100
AcDbEntity
  8
SEIHIN
100
AcDbLine
 10
473.3839987683486
 20
383.4635513468789
 30
0.0
 11
473.5118211850485
 21
383.7526873413788
 31
0.0
  0
LINE
  5
18E5
330
1A
100
AcDbEntity
  8
SEIHIN
100
AcDbLine
 10
473.5118211850485
 20
383.7526873413788
 30
0.0
 11
473.6230966971484
 21
384.1410907958787
 31
0.0
  0
LINE
  5
18E6
330
1A
100
AcDbEntity
  8
SEIHIN
100
AcDbLine
 10
473.6230966971484
 20
384.1410907958787
 30
0.0
 11
473.7133575272487
 21
384.6131670822789
 31
0.0
  0
LINE
  5
18E7
330
1A
100
AcDbEntity
  8
SEIHIN
100
AcDbLine
 10
473.7133575272487
 20
384.6131670822789
 30
0.0
 11
473.7789796496485
 21
385.1499620586788
 31
0.0
  0
LINE
  5
18E8
330
1A
100
AcDbEntity
  8
SEIHIN
100
AcDbLine
 10
473.7789796496485
 20
385.1499620586788
 30
0.0
 11
473.9037326462621
 21
387.0366485750395
 31
0.0
  0
LINE
  5
18E9
330
1A
100
AcDbEntity
  8
SEIHIN
100
AcDbLine
 10
471.9367660731462
 20
392.7250659072789
 30
0.0
 11
445.1784555663111
 21
392.7250659072814
 31
0.0
  0
ELLIPSE
  5
18EB
330
1A
100
AcDbEntity
  8
SEIHIN
100
AcDbEllipse
 10
473.1503901783209
 20
392.7250659072786
 30
0.0
 11
-0.3761340858133053
 21
-5.688417332239168
 31
0.0
210
0.0
220
0.0
230
1.0
 40
0.410265072806275
 41
4.739510204319676
 42
6.283185307179586
  0
LINE
  5
18EF
330
1A
100
AcDbEntity
  8
SUNPOU
100
AcDbLine
 10
609.1339367226691
 20
337.269439192508
 30
0.0
 11
606.6033931646934
 21
330.6393969292717
 31
0.0
  0
LINE
  5
18F0
330
1A
100
AcDbEntity
  8
SUNPOU
100
AcDbLine
 10
606.6033931646934
 20
330.6393969292717
 30
0.0
 11
606.8468666071343
 21
337.7317753592441
 31
0.0
  0
LINE
  5
18F1
330
1A
100
AcDbEntity
  8
SUNPOU
100
AcDbLine
 10
606.6033931646934
 20
330.6393969292717
 30
0.0
 11
607.9904016649017
 21
337.500607275876
 31
0.0
  0
LINE
  5
18F2
330
1A
100
AcDbEntity
  8
SUNPOU
100
AcDbLine
 10
607.9904016649017
 20
337.500607275876
 30
0.0
 11
615.0668990558702
 21
372.5064036421863
 31
0.0
1001
ACAD
1000
DSTYLE
1002
{
1070
     6
1000
OPEN
1070
    41
1040
7.0
1070
    42
1040
6.0
1070
    43
1040
14.0
1070
    44
1040
3.0
1070
    73
1070
     0
1070
    74
1070
     0
1070
    77
1070
     0
1070
   140
1040
6.0
1070
   141
1040
150.0
1070
   147
1040
2.0
1070
   172
1070
     1
1070
   173
1070
     1
1070
   176
1070
     4
1070
   177
1070
     4
1070
   178
1070
     4
1070
   271
1070
     0
1070
   272
1070
     0
1070
   341
1005
6D
1070
   343
1005
6D
1070
   344
1005
6D
1002
}
  0
LINE
  5
18F3
330
1A
100
AcDbEntity
  8
SUNPOU
100
AcDbLine
 10
615.0668990558702
 20
372.5064036421863
 30
0.0
 11
650.0395645228204
 21
372.5064036421863
 31
0.0
1001
ACAD
1000
DSTYLE
1002
{
1070
     6
1000
OPEN
1070
    41
1040
7.0
1070
    42
1040
6.0
1070
    43
1040
14.0
1070
    44
1040
3.0
1070
    73
1070
     0
1070
    74
1070
     0
1070
    77
1070
     0
1070
   140
1040
6.0
1070
   141
1040
150.0
1070
   147
1040
2.0
1070
   172
1070
     1
1070
   173
1070
     1
1070
   176
1070
     4
1070
   177
1070
     4
1070
   178
1070
     4
1070
   271
1070
     0
1070
   272
1070
     0
1070
   341
1005
6D
1070
   343
1005
6D
1070
   344
1005
6D
1002
}
  0
VIEWPORT
  5
22
330
17
100
AcDbEntity
 67
     1
  8
0
100
AcDbViewport
 10
313.6808219178082
 20
148.5
 30
0.0
 40
627.3616438356165
 41
297.0
 68
     2
 69
     1
1001
ACAD
1000
MVIEW
1002
{
1070
    16
1010
0.0
1020
0.0
1030
0.0
1010
0.0
1020
0.0
1030
1.0
1040
0.0
1040
297.0
1040
313.6808219178082
1040
148.5
1040
50.0
1040
0.0
1040
0.0
1070
     0
1070
   100
1070
     1
1070
     0
1070
     0
1070
     0
1070
     0
1070
     0
1040
0.0
1040
0.0
1040
0.0
1040
1.0
1040
1.0
1040
10.0
1040
10.0
1070
     0
1002
{
1002
}
1002
}
  0
VIEWPORT
  5
64
330
17
100
AcDbEntity
 67
     1
  8
VIEWPORT
100
AcDbViewport
 10
210.0
 20
148.5
 30
0.0
 40
420.0
 41
297.0
 68
     1
 69
     2
1001
ACAD
1000
MVIEW
1002
{
1070
    16
1010
0.0
1020
0.0
1030
0.0
1010
0.0
1020
0.0
1030
1.0
1040
0.0
1040
605.8799999999998
1040
420.0
1040
297.0
1040
50.0
1040
0.0
1040
0.0
1070
     0
1070
   100
1070
     1
1070
     0
1070
     0
1070
     0
1070
     0
1070
     0
1040
0.0
1040
0.0
1040
0.0
1040
10.0
1040
10.0
1040
0.0
1040
0.0
1070
     0
1002
{
1002
}
1002
}
  0
ENDSEC
  0
SECTION
  2
OBJECTS
  0
DICTIONARY
  5
C
330
0
100
AcDbDictionary
  3
ACAD_GROUP
350
D
  3
ACAD_LAYOUT
350
B3E
  3
ACAD_MLINESTYLE
350
E
  3
ACAD_PLOTSETTINGS
350
B3F
  3
ACAD_PLOTSTYLENAME
350
B3C
  3
ACDBHEADERROUNDTRIPXREC
350
18F5
  0
DICTIONARY
  5
E2F
330
1A
100
AcDbDictionary
280
     1
  3
ACAD_LAYOUTSELFREF
360
1917
  0
DICTIONARY
  5
E2D
330
17
100
AcDbDictionary
280
     1
  3
ACAD_LAYOUTSELFREF
360
1916
  0
DICTIONARY
  5
D
102
{ACAD_REACTORS
330
C
102
}
330
C
100
AcDbDictionary
  0
DICTIONARY
  5
B3E
102
{ACAD_REACTORS
330
C
102
}
330
C
100
AcDbDictionary
  0
DICTIONARY
  5
E
102
{ACAD_REACTORS
330
C
102
}
330
C
100
AcDbDictionary
  3
STANDARD
350
13
  0
DICTIONARY
  5
B3F
102
{ACAD_REACTORS
330
C
102
}
330
C
100
AcDbDictionary
  0
ACDBDICTIONARYWDFLT
  5
B3C
102
{ACAD_REACTORS
330
C
102
}
330
C
100
AcDbDictionary
281
     1
  3
Normal
350
B3D
100
AcDbDictionaryWithDefault
340
B3D
1001
ACAD
1000
TREAT_AS_HARD
1070
     0
1000
TREAT_AS_HARD
1070
     0
  0
DICTIONARY
  5
18F5
102
{ACAD_REACTORS
330
C
102
}
330
C
100
AcDbDictionary
  3
TSTACKALIGN
350
18F6
  3
TSTACKSIZE
350
18F7
  3
HYPERLINKBASE
350
18F8
  3
STYLESHEET
350
18F9
  3
LAYOUTDICT
350
18FA
  3
PLOTSETDICT
350
18FB
  3
PLOTSTYLNAMDICT
350
18FC
  3
LWETCUNION
350
18FD
  3
INSUNITS
350
18FE
  3
CEPSNTYPE
350
18FF
  3
FINGERPRINTGUID
350
1900
  3
VERSIONGUID
350
1901
  3
PSVPSCALE
350
1902
  3
DIMSTYLEDATA
350
1903
  3
PUCSORTHOREF
350
1904
  3
PUCSORTHOVIEW
350
1905
  3
PUCSBASE
350
1906
  3
PUCSORGTOP
350
1907
  3
PUCSORGBOTTOM
350
1908
  3
PUCSORGLEFT
350
1909
  3
PUCSORGRIGHT
350
190A
  3
PUCSORGFRONT
350
190B
  3
PUCSORGBACK
350
190C
  3
UCSORTHOREF
350
190D
  3
UCSORTHOVIEW
350
190E
  3
UCSBASE
350
190F
  3
UCSORGTOP
350
1910
  3
UCSORGBOTTOM
350
1911
  3
UCSORGLEFT
350
1912
  3
UCSORGRIGHT
350
1913
  3
UCSORGFRONT
350
1914
  3
UCSORGBACK
350
1915
  0
XRECORD
  5
1917
102
{ACAD_REACTORS
330
E2F
102
}
330
E2F
100
AcDbXrecord
340
1A
  0
XRECORD
  5
1916
102
{ACAD_REACTORS
330
E2D
102
}
330
E2D
100
AcDbXrecord
340
17
  0
MLINESTYLE
  5
13
102
{ACAD_REACTORS
330
E
102
}
330
E
100
AcDbMlineStyle
  2
STANDARD
 70
     0
  3

 62
     0
 51
90.0
 52
90.0
 71
     2
 49
0.5
 62
   256
  6
BYLAYER
 49
-0.5
 62
   256
  6
BYLAYER
  0
ACDBPLACEHOLDER
  5
B3D
102
{ACAD_REACTORS
330
B3C
102
}
330
B3C
100
AcDbPlaceHolder
280
     0
  0
XRECORD
  5
18F6
102
{ACAD_REACTORS
330
18F5
102
}
330
18F5
100
AcDbXrecord
 90
        1
  0
XRECORD
  5
18F7
102
{ACAD_REACTORS
330
18F5
102
}
330
18F5
100
AcDbXrecord
 90
       70
  0
XRECORD
  5
18F8
102
{ACAD_REACTORS
330
18F5
102
}
330
18F5
100
AcDbXrecord
  1

  0
XRECORD
  5
18F9
102
{ACAD_REACTORS
330
18F5
102
}
330
18F5
100
AcDbXrecord
  1

  0
XRECORD
  5
18FA
102
{ACAD_REACTORS
330
18F5
102
}
330
18F5
100
AcDbXrecord
340
B3E
  0
XRECORD
  5
18FB
102
{ACAD_REACTORS
330
18F5
102
}
330
18F5
100
AcDbXrecord
340
B3F
  0
XRECORD
  5
18FC
102
{ACAD_REACTORS
330
18F5
102
}
330
18F5
100
AcDbXrecord
340
B3C
  0
XRECORD
  5
18FD
102
{ACAD_REACTORS
330
18F5
102
}
330
18F5
100
AcDbXrecord
 90
    14877
  0
XRECORD
  5
18FE
102
{ACAD_REACTORS
330
18F5
102
}
330
18F5
100
AcDbXrecord
 90
        0
  0
XRECORD
  5
18FF
102
{ACAD_REACTORS
330
18F5
102
}
330
18F5
100
AcDbXrecord
 90
        0
  0
XRECORD
  5
1900
102
{ACAD_REACTORS
330
18F5
102
}
330
18F5
100
AcDbXrecord
  1
{7D861993-D00B-4840-8DCB-8F3C3D161287}
  0
XRECORD
  5
1901
102
{ACAD_REACTORS
330
18F5
102
}
330
18F5
100
AcDbXrecord
  1
{221295E5-4640-4B32-849E-A86EAE3B528E}
  0
XRECORD
  5
1902
102
{ACAD_REACTORS
330
18F5
102
}
330
18F5
100
AcDbXrecord
 40
0.0
  0
XRECORD
  5
1903
102
{ACAD_REACTORS
330
18F5
102
}
330
18F5
100
AcDbXrecord
1000
DSTYLE
1002
{
1070
   341
340
6D
1070
   343
340
6D
1070
   344
340
6D
1070
   371
 70
    -1
1070
   372
 70
    -1
1002
}
  0
XRECORD
  5
1904
102
{ACAD_REACTORS
330
18F5
102
}
330
18F5
100
AcDbXrecord
340
0
  0
XRECORD
  5
1905
102
{ACAD_REACTORS
330
18F5
102
}
330
18F5
100
AcDbXrecord
 70
     0
  0
XRECORD
  5
1906
102
{ACAD_REACTORS
330
18F5
102
}
330
18F5
100
AcDbXrecord
340
0
  0
XRECORD
  5
1907
102
{ACAD_REACTORS
330
18F5
102
}
330
18F5
100
AcDbXrecord
 10
0.0
 20
0.0
 30
0.0
  0
XRECORD
  5
1908
102
{ACAD_REACTORS
330
18F5
102
}
330
18F5
100
AcDbXrecord
 10
0.0
 20
0.0
 30
0.0
  0
XRECORD
  5
1909
102
{ACAD_REACTORS
330
18F5
102
}
330
18F5
100
AcDbXrecord
 10
0.0
 20
0.0
 30
0.0
  0
XRECORD
  5
190A
102
{ACAD_REACTORS
330
18F5
102
}
330
18F5
100
AcDbXrecord
 10
0.0
 20
0.0
 30
0.0
  0
XRECORD
  5
190B
102
{ACAD_REACTORS
330
18F5
102
}
330
18F5
100
AcDbXrecord
 10
0.0
 20
0.0
 30
0.0
  0
XRECORD
  5
190C
102
{ACAD_REACTORS
330
18F5
102
}
330
18F5
100
AcDbXrecord
 10
0.0
 20
0.0
 30
0.0
  0
XRECORD
  5
190D
102
{ACAD_REACTORS
330
18F5
102
}
330
18F5
100
AcDbXrecord
340
0
  0
XRECORD
  5
190E
102
{ACAD_REACTORS
330
18F5
102
}
330
18F5
100
AcDbXrecord
 70
     0
  0
XRECORD
  5
190F
102
{ACAD_REACTORS
330
18F5
102
}
330
18F5
100
AcDbXrecord
340
0
  0
XRECORD
  5
1910
102
{ACAD_REACTORS
330
18F5
102
}
330
18F5
100
AcDbXrecord
 10
0.0
 20
0.0
 30
0.0
  0
XRECORD
  5
1911
102
{ACAD_REACTORS
330
18F5
102
}
330
18F5
100
AcDbXrecord
 10
0.0
 20
0.0
 30
0.0
  0
XRECORD
  5
1912
102
{ACAD_REACTORS
330
18F5
102
}
330
18F5
100
AcDbXrecord
 10
0.0
 20
0.0
 30
0.0
  0
XRECORD
  5
1913
102
{ACAD_REACTORS
330
18F5
102
}
330
18F5
100
AcDbXrecord
 10
0.0
 20
0.0
 30
0.0
  0
XRECORD
  5
1914
102
{ACAD_REACTORS
330
18F5
102
}
330
18F5
100
AcDbXrecord
 10
0.0
 20
0.0
 30
0.0
  0
XRECORD
  5
1915
102
{ACAD_REACTORS
330
18F5
102
}
330
18F5
100
AcDbXrecord
 10
0.0
 20
0.0
 30
0.0
  0
ENDSEC
  0
EOF
