  0
SECTION
  2
HEADER
  9
$ACADVER
  1
AC1014
  9
$ACADMAINTVER
 70
     9
  9
$DWGCODEPAGE
  3
ANSI_932
  9
$INSBASE
 10
0.0
 20
0.0
 30
0.0
  9
$EXTMIN
 10
-0.0256335853011933
 20
-0.0181260584133725
 30
-0.0000000100021362
  9
$EXTMAX
 10
797.6000995235279
 20
551.6452344880035
 30
0.0000000100021363
  9
$LIMMIN
 10
0.0
 20
0.0
  9
$LIMMAX
 10
840.0
 20
594.0
  9
$ORTHOMODE
 70
     0
  9
$REGENMODE
 70
     1
  9
$FILLMODE
 70
     1
  9
$QTEXTMODE
 70
     0
  9
$MIRRTEXT
 70
     1
  9
$DRAGMODE
 70
     2
  9
$LTSCALE
 40
2.0
  9
$OSMODE
 70
    35
  9
$ATTMODE
 70
     1
  9
$TEXTSIZE
 40
6.0
  9
$TRACEWID
 40
1.0
  9
$TEXTSTYLE
  7
STANDARD
  9
$CLAYER
  8
SUNPOU
  9
$CELTYPE
  6
BYLAYER
  9
$CECOLOR
 62
   256
  9
$CELTSCALE
 40
5.0
  9
$DELOBJ
 70
     1
  9
$DISPSILH
 70
     0
  9
$DIMSCALE
 40
1.0
  9
$DIMASZ
 40
7.0
  9
$DIMEXO
 40
6.0
  9
$DIMDLI
 40
14.0
  9
$DIMRND
 40
0.0
  9
$DIMDLE
 40
0.0
  9
$DIMEXE
 40
3.0
  9
$DIMTP
 40
0.0
  9
$DIMTM
 40
0.0
  9
$DIMTXT
 40
6.0
  9
$DIMCEN
 40
150.0
  9
$DIMTSZ
 40
0.0
  9
$DIMTOL
 70
     0
  9
$DIMLIM
 70
     0
  9
$DIMTIH
 70
     0
  9
$DIMTOH
 70
     0
  9
$DIMSE1
 70
     0
  9
$DIMSE2
 70
     0
  9
$DIMTAD
 70
     3
  9
$DIMZIN
 70
     0
  9
$DIMBLK
  1

  9
$DIMASO
 70
     1
  9
$DIMSHO
 70
     1
  9
$DIMPOST
  1

  9
$DIMAPOST
  1

  9
$DIMALT
 70
     0
  9
$DIMALTD
 70
     2
  9
$DIMALTF
 40
25.4
  9
$DIMLFAC
 40
1.0
  9
$DIMTOFL
 70
     1
  9
$DIMTVP
 40
0.0
  9
$DIMTIX
 70
     0
  9
$DIMSOXD
 70
     0
  9
$DIMSAH
 70
     1
  9
$DIMBLK1
  1
OPEN
  9
$DIMBLK2
  1
OPEN
  9
$DIMSTYLE
  2
STANDARD
  9
$DIMCLRD
 70
   256
  9
$DIMCLRE
 70
   256
  9
$DIMCLRT
 70
   256
  9
$DIMTFAC
 40
1.0
  9
$DIMGAP
 40
2.0
  9
$DIMJUST
 70
     0
  9
$DIMSD1
 70
     0
  9
$DIMSD2
 70
     0
  9
$DIMTOLJ
 70
     1
  9
$DIMTZIN
 70
     0
  9
$DIMALTZ
 70
     0
  9
$DIMALTTZ
 70
     0
  9
$DIMFIT
 70
     3
  9
$DIMUPT
 70
     0
  9
$DIMUNIT
 70
     2
  9
$DIMDEC
 70
     0
  9
$DIMTDEC
 70
     0
  9
$DIMALTU
 70
     2
  9
$DIMALTTD
 70
     2
  9
$DIMTXSTY
  7
STANDARD
  9
$DIMAUNIT
 70
     0
  9
$LUNITS
 70
     2
  9
$LUPREC
 70
     4
  9
$SKETCHINC
 40
1.0
  9
$FILLETRAD
 40
1.0
  9
$AUNITS
 70
     0
  9
$AUPREC
 70
     0
  9
$MENU
  1
.
  9
$ELEVATION
 40
0.0
  9
$PELEVATION
 40
0.0
  9
$THICKNESS
 40
0.0
  9
$LIMCHECK
 70
     0
  9
$BLIPMODE
 70
     0
  9
$CHAMFERA
 40
1.0
  9
$CHAMFERB
 40
1.0
  9
$CHAMFERC
 40
40.0
  9
$CHAMFERD
 40
0.0
  9
$SKPOLY
 70
     0
  9
$TDCREATE
 40
2451199.484270833
  9
$TDUPDATE
 40
2453802.429000822
  9
$TDINDWG
 40
0.3669758681
  9
$TDUSRTIMER
 40
0.3669758681
  9
$USRTIMER
 70
     1
  9
$ANGBASE
 50
0.0
  9
$ANGDIR
 70
     0
  9
$PDMODE
 70
     0
  9
$PDSIZE
 40
0.0
  9
$PLINEWID
 40
0.0
  9
$COORDS
 70
     1
  9
$SPLFRAME
 70
     0
  9
$SPLINETYPE
 70
     6
  9
$SPLINESEGS
 70
     8
  9
$ATTDIA
 70
     0
  9
$ATTREQ
 70
     1
  9
$HANDLING
 70
 10241
  9
$HANDSEED
  5
803A
  9
$SURFTAB1
 70
     6
  9
$SURFTAB2
 70
     6
  9
$SURFTYPE
 70
     6
  9
$SURFU
 70
     6
  9
$SURFV
 70
     6
  9
$UCSNAME
  2

  9
$UCSORG
 10
0.0
 20
0.0
 30
0.0
  9
$UCSXDIR
 10
1.0
 20
0.0
 30
0.0
  9
$UCSYDIR
 10
0.0
 20
1.0
 30
0.0
  9
$PUCSNAME
  2

  9
$PUCSORG
 10
0.0
 20
0.0
 30
0.0
  9
$PUCSXDIR
 10
1.0
 20
0.0
 30
0.0
  9
$PUCSYDIR
 10
0.0
 20
1.0
 30
0.0
  9
$USERI1
 70
     0
  9
$USERI2
 70
     0
  9
$USERI3
 70
     0
  9
$USERI4
 70
     0
  9
$USERI5
 70
     0
  9
$USERR1
 40
0.0
  9
$USERR2
 40
0.0
  9
$USERR3
 40
0.0
  9
$USERR4
 40
0.0
  9
$USERR5
 40
0.0
  9
$WORLDVIEW
 70
     1
  9
$SHADEDGE
 70
     3
  9
$SHADEDIF
 70
    70
  9
$TILEMODE
 70
     1
  9
$MAXACTVP
 70
    16
  9
$PINSBASE
 10
0.0
 20
0.0
 30
0.0
  9
$PLIMCHECK
 70
     0
  9
$PEXTMIN
 10
0.0
 20
0.0
 30
0.0
  9
$PEXTMAX
 10
420.0
 20
297.0
 30
0.0
  9
$PLIMMIN
 10
0.0
 20
0.0
  9
$PLIMMAX
 10
420.0
 20
297.0
  9
$UNITMODE
 70
     0
  9
$VISRETAIN
 70
     0
  9
$PLINEGEN
 70
     0
  9
$PSLTSCALE
 70
     1
  9
$TREEDEPTH
 70
  3020
  9
$PICKSTYLE
 70
     1
  9
$CMLSTYLE
  2
STANDARD
  9
$CMLJUST
 70
     0
  9
$CMLSCALE
 40
1.0
  9
$PROXYGRAPHICS
 70
     1
  9
$MEASUREMENT
 70
     1
  0
ENDSEC
  0
SECTION
  2
CLASSES
  0
CLASS
  1
ACDBDICTIONARYWDFLT
  2
AcDbDictionaryWithDefault
  3
AutoCAD 2000
 90
        0
280
     0
281
     0
  0
CLASS
  1
ACDBPLACEHOLDER
  2
AcDbPlaceHolder
  3
AutoCAD 2000
 90
        0
280
     0
281
     0
  0
CLASS
  1
LAYOUT
  2
AcDbLayout
  3
AutoCAD 2000
 90
        0
280
     0
281
     0
  0
CLASS
  1
LONG_TRANSACTION
  2
AcDbLongTransaction
  3
AutoCAD 2000
 90
        0
280
     0
281
     0
  0
CLASS
  1
LWPOLYLINE
  2
AcDbPolyline
  3
AutoCAD 2000
 90
        0
280
     0
281
     1
  0
CLASS
  1
HATCH
  2
AcDbHatch
  3
AutoCAD 2000
 90
        0
280
     0
281
     1
  0
CLASS
  1
XRECORD
  2
AcDbXrecord
  3
AutoCAD 2000
 90
        0
280
     0
281
     0
  0
CLASS
  1
LONG_TRANSACTION
  2
AcDbLongTransaction
  3
AutoCAD 2000
 90
        0
280
     0
281
     0
  0
CLASS
  1
LWPOLYLINE
  2
AcDbPolyline
  3
AutoCAD 2000
 90
        0
280
     0
281
     1
  0
CLASS
  1
HATCH
  2
AcDbHatch
  3
AutoCAD 2000
 90
        0
280
     0
281
     1
  0
CLASS
  1
XRECORD
  2
AcDbXrecord
  3
AutoCAD 2000
 90
        0
280
     0
281
     0
  0
CLASS
  1
LONG_TRANSACTION
  2
AcDbLongTransaction
  3
AutoCAD 2000
 90
        0
280
     0
281
     0
  0
CLASS
  1
LWPOLYLINE
  2
AcDbPolyline
  3
AutoCAD 2000
 90
        0
280
     0
281
     1
  0
CLASS
  1
HATCH
  2
AcDbHatch
  3
AutoCAD 2000
 90
        0
280
     0
281
     1
  0
CLASS
  1
XRECORD
  2
AcDbXrecord
  3
AutoCAD 2000
 90
        0
280
     0
281
     0
  0
CLASS
  1
LONG_TRANSACTION
  2
AcDbLongTransaction
  3
AutoCAD 2000
 90
        0
280
     0
281
     0
  0
CLASS
  1
LWPOLYLINE
  2
AcDbPolyline
  3
AutoCAD 2000
 90
        0
280
     0
281
     1
  0
CLASS
  1
HATCH
  2
AcDbHatch
  3
AutoCAD 2000
 90
        0
280
     0
281
     1
  0
CLASS
  1
XRECORD
  2
AcDbXrecord
  3
AutoCAD 2000
 90
        0
280
     0
281
     0
  0
CLASS
  1
LONG_TRANSACTION
  2
AcDbLongTransaction
  3
AutoCAD 2000
 90
        0
280
     0
281
     0
  0
CLASS
  1
LWPOLYLINE
  2
AcDbPolyline
  3
AutoCAD 2000
 90
        0
280
     0
281
     1
  0
CLASS
  1
HATCH
  2
AcDbHatch
  3
AutoCAD 2000
 90
        0
280
     0
281
     1
  0
CLASS
  1
XRECORD
  2
AcDbXrecord
  3
AutoCAD 2000
 90
        0
280
     0
281
     0
  0
CLASS
  1
LONG_TRANSACTION
  2
AcDbLongTransaction
  3
AutoCAD 2000
 90
        0
280
     0
281
     0
  0
CLASS
  1
LWPOLYLINE
  2
AcDbPolyline
  3
AutoCAD 2000
 90
        0
280
     0
281
     1
  0
CLASS
  1
HATCH
  2
AcDbHatch
  3
AutoCAD 2000
 90
        0
280
     0
281
     1
  0
CLASS
  1
XRECORD
  2
AcDbXrecord
  3
AutoCAD 2000
 90
        0
280
     0
281
     0
  0
CLASS
  1
LONG_TRANSACTION
  2
AcDbLongTransaction
  3
AutoCAD 2000
 90
        0
280
     0
281
     0
  0
CLASS
  1
LWPOLYLINE
  2
AcDbPolyline
  3
AutoCAD 2000
 90
        0
280
     0
281
     1
  0
CLASS
  1
HATCH
  2
AcDbHatch
  3
AutoCAD 2000
 90
        0
280
     0
281
     1
  0
CLASS
  1
XRECORD
  2
AcDbXrecord
  3
AutoCAD 2000
 90
        0
280
     0
281
     0
  0
CLASS
  1
LONG_TRANSACTION
  2
AcDbLongTransaction
  3
AutoCAD 2000
 90
        0
280
     0
281
     0
  0
CLASS
  1
LWPOLYLINE
  2
AcDbPolyline
  3
AutoCAD 2000
 90
        0
280
     0
281
     1
  0
CLASS
  1
HATCH
  2
AcDbHatch
  3
AutoCAD 2000
 90
        0
280
     0
281
     1
  0
CLASS
  1
XRECORD
  2
AcDbXrecord
  3
AutoCAD 2000
 90
        0
280
     0
281
     0
  0
CLASS
  1
LONG_TRANSACTION
  2
AcDbLongTransaction
  3
AutoCAD 2000
 90
        0
280
     0
281
     0
  0
CLASS
  1
LWPOLYLINE
  2
AcDbPolyline
  3
AutoCAD 2000
 90
        0
280
     0
281
     1
  0
CLASS
  1
HATCH
  2
AcDbHatch
  3
AutoCAD 2000
 90
        0
280
     0
281
     1
  0
CLASS
  1
XRECORD
  2
AcDbXrecord
  3
AutoCAD 2000
 90
        0
280
     0
281
     0
  0
CLASS
  1
LONG_TRANSACTION
  2
AcDbLongTransaction
  3
AutoCAD 2000
 90
        0
280
     0
281
     0
  0
CLASS
  1
LWPOLYLINE
  2
AcDbPolyline
  3
AutoCAD 2000
 90
        0
280
     0
281
     1
  0
CLASS
  1
HATCH
  2
AcDbHatch
  3
AutoCAD 2000
 90
        0
280
     0
281
     1
  0
CLASS
  1
XRECORD
  2
AcDbXrecord
  3
AutoCAD 2000
 90
        0
280
     0
281
     0
  0
CLASS
  1
LONG_TRANSACTION
  2
AcDbLongTransaction
  3
AutoCAD 2000
 90
        0
280
     0
281
     0
  0
CLASS
  1
LWPOLYLINE
  2
AcDbPolyline
  3
AutoCAD 2000
 90
        0
280
     0
281
     1
  0
CLASS
  1
HATCH
  2
AcDbHatch
  3
AutoCAD 2000
 90
        0
280
     0
281
     1
  0
CLASS
  1
XRECORD
  2
AcDbXrecord
  3
AutoCAD 2000
 90
        0
280
     0
281
     0
  0
CLASS
  1
LONG_TRANSACTION
  2
AcDbLongTransaction
  3
AutoCAD 2000
 90
        0
280
     0
281
     0
  0
CLASS
  1
LWPOLYLINE
  2
AcDbPolyline
  3
AutoCAD 2000
 90
        0
280
     0
281
     1
  0
CLASS
  1
HATCH
  2
AcDbHatch
  3
AutoCAD 2000
 90
        0
280
     0
281
     1
  0
CLASS
  1
XRECORD
  2
AcDbXrecord
  3
AutoCAD 2000
 90
        0
280
     0
281
     0
  0
CLASS
  1
LONG_TRANSACTION
  2
AcDbLongTransaction
  3
AutoCAD 2000
 90
        0
280
     0
281
     0
  0
CLASS
  1
LWPOLYLINE
  2
AcDbPolyline
  3
AutoCAD 2000
 90
        0
280
     0
281
     1
  0
CLASS
  1
HATCH
  2
AcDbHatch
  3
AutoCAD 2000
 90
        0
280
     0
281
     1
  0
CLASS
  1
XRECORD
  2
AcDbXrecord
  3
AutoCAD 2000
 90
        0
280
     0
281
     0
  0
CLASS
  1
LONG_TRANSACTION
  2
AcDbLongTransaction
  3
AutoCAD 2000
 90
        0
280
     0
281
     0
  0
CLASS
  1
LWPOLYLINE
  2
AcDbPolyline
  3
AutoCAD 2000
 90
        0
280
     0
281
     1
  0
CLASS
  1
HATCH
  2
AcDbHatch
  3
AutoCAD 2000
 90
        0
280
     0
281
     1
  0
CLASS
  1
XRECORD
  2
AcDbXrecord
  3
AutoCAD 2000
 90
        0
280
     0
281
     0
  0
CLASS
  1
LONG_TRANSACTION
  2
AcDbLongTransaction
  3
AutoCAD 2000
 90
        0
280
     0
281
     0
  0
CLASS
  1
LWPOLYLINE
  2
AcDbPolyline
  3
AutoCAD 2000
 90
        0
280
     0
281
     1
  0
CLASS
  1
HATCH
  2
AcDbHatch
  3
AutoCAD 2000
 90
        0
280
     0
281
     1
  0
CLASS
  1
XRECORD
  2
AcDbXrecord
  3
AutoCAD 2000
 90
        0
280
     0
281
     0
  0
CLASS
  1
LONG_TRANSACTION
  2
AcDbLongTransaction
  3
AutoCAD 2000
 90
        0
280
     0
281
     0
  0
CLASS
  1
LWPOLYLINE
  2
AcDbPolyline
  3
AutoCAD 2000
 90
        0
280
     0
281
     1
  0
CLASS
  1
HATCH
  2
AcDbHatch
  3
AutoCAD 2000
 90
        0
280
     0
281
     1
  0
CLASS
  1
XRECORD
  2
AcDbXrecord
  3
AutoCAD 2000
 90
        0
280
     0
281
     0
  0
CLASS
  1
LONG_TRANSACTION
  2
AcDbLongTransaction
  3
AutoCAD 2000
 90
        0
280
     0
281
     0
  0
CLASS
  1
LWPOLYLINE
  2
AcDbPolyline
  3
AutoCAD 2000
 90
        0
280
     0
281
     1
  0
CLASS
  1
HATCH
  2
AcDbHatch
  3
AutoCAD 2000
 90
        0
280
     0
281
     1
  0
CLASS
  1
XRECORD
  2
AcDbXrecord
  3
AutoCAD 2000
 90
        0
280
     0
281
     0
  0
CLASS
  1
LONG_TRANSACTION
  2
AcDbLongTransaction
  3
AutoCAD 2000
 90
        0
280
     0
281
     0
  0
CLASS
  1
LWPOLYLINE
  2
AcDbPolyline
  3
AutoCAD 2000
 90
        0
280
     0
281
     1
  0
CLASS
  1
HATCH
  2
AcDbHatch
  3
AutoCAD 2000
 90
        0
280
     0
281
     1
  0
CLASS
  1
XRECORD
  2
AcDbXrecord
  3
AutoCAD 2000
 90
        0
280
     0
281
     0
  0
ENDSEC
  0
SECTION
  2
TABLES
  0
TABLE
  2
VPORT
  5
8
330
0
100
AcDbSymbolTable
 70
     2
  0
VPORT
  5
8016
330
8
100
AcDbSymbolTableRecord
100
AcDbViewportTableRecord
  2
*ACTIVE
 70
     0
 10
0.0
 20
0.0
 11
1.0
 21
1.0
 12
412.500377319865
 22
274.7799883422497
 13
0.0
 23
0.0
 14
5.0
 24
5.0
 15
0.0
 25
0.0
 16
0.0
 26
0.0
 36
1.0
 17
0.0
 27
0.0
 37
0.0
 40
650.5021990054355
 41
1.795454545454545
 42
50.0
 43
0.0
 44
0.0
 50
0.0
 51
0.0
 71
     0
 72
   100
 73
     1
 74
     0
 75
     0
 76
     0
 77
     0
 78
     0
  0
ENDTAB
  0
TABLE
  2
LTYPE
  5
5
330
0
100
AcDbSymbolTable
 70
     3
  0
LTYPE
  5
14
330
5
100
AcDbSymbolTableRecord
100
AcDbLinetypeTableRecord
  2
BYBLOCK
 70
     0
  3

 72
    65
 73
     0
 40
0.0
  0
LTYPE
  5
15
330
5
100
AcDbSymbolTableRecord
100
AcDbLinetypeTableRecord
  2
BYLAYER
 70
     0
  3

 72
    65
 73
     0
 40
0.0
  0
LTYPE
  5
16
330
5
100
AcDbSymbolTableRecord
100
AcDbLinetypeTableRecord
  2
CONTINUOUS
 70
     0
  3
Solid line
 72
    65
 73
     0
 40
0.0
  0
LTYPE
  5
115
330
5
100
AcDbSymbolTableRecord
100
AcDbLinetypeTableRecord
  2
PHANTOM
 70
     0
  3
______  __  __  ______  __  __  ______  __  __ 
 72
    65
 73
     6
 40
2.5
 49
1.25
 74
     0
 49
-0.25
 74
     0
 49
0.25
 74
     0
 49
-0.25
 74
     0
 49
0.25
 74
     0
 49
-0.25
 74
     0
  0
LTYPE
  5
135
330
5
100
AcDbSymbolTableRecord
100
AcDbLinetypeTableRecord
  2
CENTER
 70
     0
  3
____ _ ____ _ ____ _ ____ _ ____ _ ____ _ ____ 
 72
    65
 73
     4
 40
2.0
 49
1.25
 74
     0
 49
-0.25
 74
     0
 49
0.25
 74
     0
 49
-0.25
 74
     0
  0
ENDTAB
  0
TABLE
  2
LAYER
  5
2
330
0
100
AcDbSymbolTable
 70
     9
  0
LAYER
  5
F
330
2
100
AcDbSymbolTableRecord
100
AcDbLayerTableRecord
  2
0
 70
     0
 62
     7
  6
CONTINUOUS
  0
LAYER
  5
62
330
2
100
AcDbSymbolTableRecord
100
AcDbLayerTableRecord
  2
VIEWPORT
 70
     0
 62
     7
  6
CONTINUOUS
  0
LAYER
  5
65
330
2
100
AcDbSymbolTableRecord
100
AcDbLayerTableRecord
  2
ZUWAKU
 70
     0
 62
     7
  6
CONTINUOUS
  0
LAYER
  5
143
330
2
100
AcDbSymbolTableRecord
100
AcDbLayerTableRecord
  2
SEIHIN
 70
     0
 62
     3
  6
CONTINUOUS
  0
LAYER
  5
144
330
2
100
AcDbSymbolTableRecord
100
AcDbLayerTableRecord
  2
SUNPOU
 70
     0
 62
     4
  6
CONTINUOUS
  0
LAYER
  5
145
330
2
100
AcDbSymbolTableRecord
100
AcDbLayerTableRecord
  2
CENTER_L
 70
     0
 62
     1
  6
CENTER
  0
LAYER
  5
146
330
2
100
AcDbSymbolTableRecord
100
AcDbLayerTableRecord
  2
NOKITOI
 70
     0
 62
     8
  6
PHANTOM
  0
LAYER
  5
532
330
2
100
AcDbSymbolTableRecord
100
AcDbLayerTableRecord
  2
DEFPOINTS
 70
     0
 62
     7
  6
CONTINUOUS
  0
LAYER
  5
7E10
330
2
100
AcDbSymbolTableRecord
100
AcDbLayerTableRecord
  2
MOJI
 70
     0
 62
     2
  6
CONTINUOUS
  0
ENDTAB
  0
TABLE
  2
STYLE
  5
3
330
0
100
AcDbSymbolTable
 70
     2
  0
STYLE
  5
10
330
3
100
AcDbSymbolTableRecord
100
AcDbTextStyleTableRecord
  2
STANDARD
 70
     0
 40
0.0
 41
1.0
 50
0.0
 71
     0
 42
6.0
  3
TXT
  4
bigfont.shx
  0
STYLE
  5
7E11
330
3
100
AcDbSymbolTableRecord
100
AcDbTextStyleTableRecord
  2
ｽﾀｲﾙ1
 70
     0
 40
0.0
 41
1.0
 50
0.0
 71
     0
 42
2.5
  3
MS PGothic.ttf
  4

1001
ACAD
1000
MS PGothic
1071
    32818
  0
ENDTAB
  0
TABLE
  2
VIEW
  5
6
330
0
100
AcDbSymbolTable
 70
     0
  0
ENDTAB
  0
TABLE
  2
UCS
  5
7
330
0
100
AcDbSymbolTable
 70
     0
  0
ENDTAB
  0
TABLE
  2
APPID
  5
9
330
0
100
AcDbSymbolTable
 70
     1
  0
APPID
  5
11
330
9
100
AcDbSymbolTableRecord
100
AcDbRegAppTableRecord
  2
ACAD
 70
     0
  0
ENDTAB
  0
TABLE
  2
DIMSTYLE
  5
A
330
0
100
AcDbSymbolTable
 70
     1
  0
DIMSTYLE
105
1D
102
{ACAD_REACTORS
330
7542
330
7551
330
757A
330
7587
330
7596
330
75A3
330
75B0
330
75C6
330
7663
330
7670
330
767D
330
768A
330
7699
330
7C2C
330
7C39
102
}
330
A
100
AcDbSymbolTableRecord
100
AcDbDimStyleTableRecord
  2
STANDARD
 70
     0
  3

  4

  5

  6

  7

 40
1.0
 41
0.18
 42
0.0625
 43
0.38
 44
0.18
 45
0.0
 46
0.0
 47
0.0
 48
0.0
140
0.18
141
0.09
142
0.0
143
25.4
144
1.0
145
0.0
146
1.0
147
0.09
 71
     0
 72
     0
 73
     1
 74
     1
 75
     0
 76
     0
 77
     0
 78
     0
170
     0
171
     2
172
     0
173
     0
174
     0
175
     0
176
     0
177
     0
178
     0
270
     2
271
     4
272
     4
273
     2
274
     2
340
10
275
     0
280
     0
281
     0
282
     0
283
     1
284
     0
285
     0
286
     0
287
     3
288
     0
  0
ENDTAB
  0
TABLE
  2
BLOCK_RECORD
  5
1
330
0
100
AcDbSymbolTable
 70
    16
  0
BLOCK_RECORD
  5
1A
102
{ACAD_XDICTIONARY
360
94A
102
}
330
1
100
AcDbSymbolTableRecord
100
AcDbBlockTableRecord
  2
*MODEL_SPACE
  0
BLOCK_RECORD
  5
17
102
{ACAD_XDICTIONARY
360
948
102
}
330
1
100
AcDbSymbolTableRecord
100
AcDbBlockTableRecord
  2
*PAPER_SPACE
  0
BLOCK_RECORD
  5
6D
330
1
100
AcDbSymbolTableRecord
100
AcDbBlockTableRecord
  2
_OPEN
  0
BLOCK_RECORD
  5
7543
330
1
100
AcDbSymbolTableRecord
100
AcDbBlockTableRecord
  2
*D1
  0
BLOCK_RECORD
  5
7552
330
1
100
AcDbSymbolTableRecord
100
AcDbBlockTableRecord
  2
*D2
  0
BLOCK_RECORD
  5
757B
330
1
100
AcDbSymbolTableRecord
100
AcDbBlockTableRecord
  2
*D3
  0
BLOCK_RECORD
  5
7588
330
1
100
AcDbSymbolTableRecord
100
AcDbBlockTableRecord
  2
*D4
  0
BLOCK_RECORD
  5
7597
330
1
100
AcDbSymbolTableRecord
100
AcDbBlockTableRecord
  2
*D5
  0
BLOCK_RECORD
  5
75A4
330
1
100
AcDbSymbolTableRecord
100
AcDbBlockTableRecord
  2
*D6
  0
BLOCK_RECORD
  5
75B1
330
1
100
AcDbSymbolTableRecord
100
AcDbBlockTableRecord
  2
*D7
  0
BLOCK_RECORD
  5
75C7
330
1
100
AcDbSymbolTableRecord
100
AcDbBlockTableRecord
  2
*D8
  0
BLOCK_RECORD
  5
7664
330
1
100
AcDbSymbolTableRecord
100
AcDbBlockTableRecord
  2
*D9
  0
BLOCK_RECORD
  5
7671
330
1
100
AcDbSymbolTableRecord
100
AcDbBlockTableRecord
  2
*D10
  0
BLOCK_RECORD
  5
767E
330
1
100
AcDbSymbolTableRecord
100
AcDbBlockTableRecord
  2
*D11
  0
BLOCK_RECORD
  5
768B
330
1
100
AcDbSymbolTableRecord
100
AcDbBlockTableRecord
  2
*D12
  0
BLOCK_RECORD
  5
769A
330
1
100
AcDbSymbolTableRecord
100
AcDbBlockTableRecord
  2
*D13
  0
BLOCK_RECORD
  5
7C2D
330
1
100
AcDbSymbolTableRecord
100
AcDbBlockTableRecord
  2
*D14
  0
BLOCK_RECORD
  5
7C3A
330
1
100
AcDbSymbolTableRecord
100
AcDbBlockTableRecord
  2
*D15
  0
ENDTAB
  0
ENDSEC
  0
SECTION
  2
BLOCKS
  0
BLOCK
  5
1B
330
1A
100
AcDbEntity
  8
0
100
AcDbBlockBegin
  2
*MODEL_SPACE
 70
     0
 10
0.0
 20
0.0
 30
0.0
  3
*MODEL_SPACE
  1

  0
ENDBLK
  5
1C
330
1A
100
AcDbEntity
  8
0
100
AcDbBlockEnd
  0
BLOCK
  5
18
330
17
100
AcDbEntity
 67
     1
  8
0
100
AcDbBlockBegin
  2
*PAPER_SPACE
 70
     0
 10
0.0
 20
0.0
 30
0.0
  3
*PAPER_SPACE
  1

  0
ENDBLK
  5
19
330
17
100
AcDbEntity
 67
     1
  8
0
100
AcDbBlockEnd
  0
BLOCK
  5
6E
330
6D
100
AcDbEntity
  8
0
100
AcDbBlockBegin
  2
_OPEN
 70
     0
 10
0.0
 20
0.0
 30
0.0
  3
_OPEN
  1

  0
LINE
  5
6F
330
6D
100
AcDbEntity
  8
0
  6
BYBLOCK
 62
     0
100
AcDbLine
 10
-1.0
 20
0.1666666666666666
 30
0.0
 11
0.0
 21
0.0
 31
0.0
  0
LINE
  5
70
330
6D
100
AcDbEntity
  8
0
  6
BYBLOCK
 62
     0
100
AcDbLine
 10
0.0
 20
0.0
 30
0.0
 11
-1.0
 21
-0.1666666666666666
 31
0.0
  0
LINE
  5
71
330
6D
100
AcDbEntity
  8
0
  6
BYBLOCK
 62
     0
100
AcDbLine
 10
0.0
 20
0.0
 30
0.0
 11
-1.0
 21
0.0
 31
0.0
  0
ENDBLK
  5
72
330
6D
100
AcDbEntity
  8
0
100
AcDbBlockEnd
  0
BLOCK
  5
754F
330
7543
100
AcDbEntity
  8
0
 48
5.0
100
AcDbBlockBegin
  2
*D1
 70
     1
 10
0.0
 20
0.0
 30
0.0
  3
*D1
  1

  0
LINE
  5
7F91
330
7543
100
AcDbEntity
  8
SUNPOU
 48
5.0
100
AcDbLine
 10
254.875358562171
 20
464.5960175458917
 30
0.0
 11
221.7120807564378
 21
464.5960175458917
 31
0.0
  0
LINE
  5
7F92
330
7543
100
AcDbEntity
  8
SUNPOU
 48
5.0
100
AcDbLine
 10
254.875358562171
 20
448.0960175458917
 30
0.0
 11
221.7120807564378
 21
448.0960175458917
 31
0.0
  0
LINE
  5
7F93
330
7543
100
AcDbEntity
  8
SUNPOU
 48
5.0
100
AcDbLine
 10
224.7120807564379
 20
471.5960175458916
 30
0.0
 11
224.7120807564379
 21
478.5960175458916
 31
0.0
  0
LINE
  5
7F94
330
7543
100
AcDbEntity
  8
SUNPOU
 48
5.0
100
AcDbLine
 10
224.7120807564378
 20
441.0960175458916
 30
0.0
 11
224.7120807564378
 21
434.0960175458916
 31
0.0
  0
LINE
  5
7F95
330
7543
100
AcDbEntity
  8
SUNPOU
 48
5.0
100
AcDbLine
 10
224.7120807564379
 20
464.5960175458917
 30
0.0
 11
224.7120807564379
 21
448.0960175458917
 31
0.0
  0
INSERT
  5
7F96
330
7543
100
AcDbEntity
  8
SUNPOU
 48
5.0
100
AcDbBlockReference
  2
_OPEN
 10
224.7120807564379
 20
464.5960175458917
 30
0.0
 41
7.0
 42
7.0
 43
7.0
 50
270.0
  0
INSERT
  5
7F97
330
7543
100
AcDbEntity
  8
SUNPOU
 48
5.0
100
AcDbBlockReference
  2
_OPEN
 10
224.7120807564379
 20
448.0960175458917
 30
0.0
 41
7.0
 42
7.0
 43
7.0
 50
90.0
  0
MTEXT
  5
7F98
330
7543
100
AcDbEntity
  8
SUNPOU
 48
5.0
100
AcDbMText
 10
219.7120807564377
 20
456.3460175458917
 30
0.0
 40
6.0
 41
0.0
 71
     5
 72
     1
  1
\A1;17
 11
0.0000000000000001
 21
1.0
 31
0.0
1001
ACAD
1000
MTEXTBEGIN
1070
    73
1070
     1
1070
    44
1040
1.0
1070
    74
1070
     0
1000
MTEXTEND
  0
POINT
  5
7F99
330
7543
100
AcDbEntity
  8
DEFPOINTS
 62
     0
 48
5.0
100
AcDbPoint
 10
260.875358562171
 20
464.5960175458917
 30
0.0
  0
POINT
  5
7F9A
330
7543
100
AcDbEntity
  8
DEFPOINTS
 62
     0
 48
5.0
100
AcDbPoint
 10
260.875358562171
 20
448.0960175458917
 30
0.0
  0
POINT
  5
7F9B
330
7543
100
AcDbEntity
  8
DEFPOINTS
 62
     0
 48
5.0
100
AcDbPoint
 10
224.7120807564379
 20
448.0960175458917
 30
0.0
  0
ENDBLK
  5
7550
330
7543
100
AcDbEntity
  8
0
 48
5.0
100
AcDbBlockEnd
  0
BLOCK
  5
755C
330
7552
100
AcDbEntity
  8
0
 48
5.0
100
AcDbBlockBegin
  2
*D2
 70
     1
 10
0.0
 20
0.0
 30
0.0
  3
*D2
  1

  0
LINE
  5
7F88
330
7552
100
AcDbEntity
  8
SUNPOU
 48
5.0
100
AcDbLine
 10
404.7439975621708
 20
481.9980835458917
 30
0.0
 11
440.9500260421687
 21
481.9980835458917
 31
0.0
  0
LINE
  5
7F89
330
7552
100
AcDbEntity
  8
SUNPOU
 48
5.0
100
AcDbLine
 10
404.7439975621708
 20
430.6943565458917
 30
0.0
 11
440.9500260421687
 21
430.6943565458917
 31
0.0
  0
LINE
  5
7F8A
330
7552
100
AcDbEntity
  8
SUNPOU
 48
5.0
100
AcDbLine
 10
437.9500260421687
 20
474.9980835458917
 30
0.0
 11
437.9500260421687
 21
437.6943565458916
 31
0.0
  0
INSERT
  5
7F8B
330
7552
100
AcDbEntity
  8
SUNPOU
 48
5.0
100
AcDbBlockReference
  2
_OPEN
 10
437.9500260421687
 20
481.9980835458917
 30
0.0
 41
7.0
 42
7.0
 43
7.0
 50
90.0
  0
INSERT
  5
7F8C
330
7552
100
AcDbEntity
  8
SUNPOU
 48
5.0
100
AcDbBlockReference
  2
_OPEN
 10
437.9500260421687
 20
430.6943565458917
 30
0.0
 41
7.0
 42
7.0
 43
7.0
 50
270.0
  0
MTEXT
  5
7F8D
330
7552
100
AcDbEntity
  8
SUNPOU
 48
5.0
100
AcDbMText
 10
432.9500260421686
 20
456.3462200458918
 30
0.0
 40
6.0
 41
0.0
 71
     5
 72
     1
  1
\A1;51
 11
0.0000000000000001
 21
1.0
 31
0.0
1001
ACAD
1000
MTEXTBEGIN
1070
    73
1070
     1
1070
    44
1040
1.0
1070
    74
1070
     0
1000
MTEXTEND
  0
POINT
  5
7F8E
330
7552
100
AcDbEntity
  8
DEFPOINTS
 62
     0
 48
5.0
100
AcDbPoint
 10
398.7439975621708
 20
481.9980835458917
 30
0.0
  0
POINT
  5
7F8F
330
7552
100
AcDbEntity
  8
DEFPOINTS
 62
     0
 48
5.0
100
AcDbPoint
 10
398.7439975621708
 20
430.6943565458917
 30
0.0
  0
POINT
  5
7F90
330
7552
100
AcDbEntity
  8
DEFPOINTS
 62
     0
 48
5.0
100
AcDbPoint
 10
437.9500260421687
 20
430.6943565458917
 30
0.0
  0
ENDBLK
  5
755D
330
7552
100
AcDbEntity
  8
0
 48
5.0
100
AcDbBlockEnd
  0
BLOCK
  5
7585
330
757B
100
AcDbEntity
  8
0
 48
5.0
100
AcDbBlockBegin
  2
*D3
 70
     1
 10
0.0
 20
0.0
 30
0.0
  3
*D3
  1

  0
LINE
  5
7F9C
330
757B
100
AcDbEntity
  8
SUNPOU
 48
5.0
100
AcDbLine
 10
260.2032140228998
 20
299.3509768585326
 30
0.0
 11
260.2032140228998
 21
380.5758188760969
 31
0.0
  0
LINE
  5
7F9D
330
757B
100
AcDbEntity
  8
SUNPOU
 48
5.0
100
AcDbLine
 10
388.0056299275338
 20
326.640969713619
 30
0.0
 11
388.0056299275338
 21
380.5758188760969
 31
0.0
  0
LINE
  5
7F9E
330
757B
100
AcDbEntity
  8
SUNPOU
 48
5.0
100
AcDbLine
 10
267.2032140228998
 20
377.5758188760969
 30
0.0
 11
381.0056299275338
 21
377.5758188760969
 31
0.0
  0
INSERT
  5
7F9F
330
757B
100
AcDbEntity
  8
SUNPOU
 48
5.0
100
AcDbBlockReference
  2
_OPEN
 10
260.2032140228998
 20
377.5758188760969
 30
0.0
 41
7.0
 42
7.0
 43
7.0
 50
180.0
  0
INSERT
  5
7FA0
330
757B
100
AcDbEntity
  8
SUNPOU
 48
5.0
100
AcDbBlockReference
  2
_OPEN
 10
388.0056299275338
 20
377.5758188760969
 30
0.0
 41
7.0
 42
7.0
 43
7.0
  0
MTEXT
  5
7FA1
330
757B
100
AcDbEntity
  8
SUNPOU
 48
5.0
100
AcDbMText
 10
324.1044219752168
 20
382.5758188760969
 30
0.0
 40
6.0
 41
0.0
 71
     5
 72
     1
  1
\A1;128
1001
ACAD
1000
MTEXTBEGIN
1070
    73
1070
     1
1070
    44
1040
1.0
1070
    74
1070
     0
1000
MTEXTEND
  0
POINT
  5
7FA2
330
757B
100
AcDbEntity
  8
DEFPOINTS
 62
     0
 48
5.0
100
AcDbPoint
 10
260.2032140228998
 20
293.3509768585325
 30
0.0
  0
POINT
  5
7FA3
330
757B
100
AcDbEntity
  8
DEFPOINTS
 62
     0
 48
5.0
100
AcDbPoint
 10
388.0056299275338
 20
320.640969713619
 30
0.0
  0
POINT
  5
7FA4
330
757B
100
AcDbEntity
  8
DEFPOINTS
 62
     0
 48
5.0
100
AcDbPoint
 10
388.0056299275338
 20
377.5758188760969
 30
0.0
  0
ENDBLK
  5
7586
330
757B
100
AcDbEntity
  8
0
 48
5.0
100
AcDbBlockEnd
  0
BLOCK
  5
7594
330
7588
100
AcDbEntity
  8
0
 48
5.0
100
AcDbBlockBegin
  2
*D4
 70
     1
 10
0.0
 20
0.0
 30
0.0
  3
*D4
  1

  0
LINE
  5
7FA5
330
7588
100
AcDbEntity
  8
SUNPOU
 48
5.0
100
AcDbLine
 10
388.0056299275338
 20
326.640969713619
 30
0.0
 11
388.0056299275338
 21
364.2334824878898
 31
0.0
  0
LINE
  5
7FA6
330
7588
100
AcDbEntity
  8
SUNPOU
 48
5.0
100
AcDbLine
 10
376.5371004507617
 20
310.0884900136189
 30
0.0
 11
376.5371004507617
 21
364.2334824878898
 31
0.0
  0
LINE
  5
7FA7
330
7588
100
AcDbEntity
  8
SUNPOU
 48
5.0
100
AcDbLine
 10
395.0056299275337
 20
361.2334824878899
 30
0.0
 11
402.0056299275338
 21
361.2334824878899
 31
0.0
  0
LINE
  5
7FA8
330
7588
100
AcDbEntity
  8
SUNPOU
 48
5.0
100
AcDbLine
 10
369.5371004507618
 20
361.2334824878899
 30
0.0
 11
362.5371004507617
 21
361.2334824878899
 31
0.0
  0
LINE
  5
7FA9
330
7588
100
AcDbEntity
  8
SUNPOU
 48
5.0
100
AcDbLine
 10
388.0056299275338
 20
361.2334824878899
 30
0.0
 11
376.5371004507617
 21
361.2334824878899
 31
0.0
  0
INSERT
  5
7FAA
330
7588
100
AcDbEntity
  8
SUNPOU
 48
5.0
100
AcDbBlockReference
  2
_OPEN
 10
388.0056299275338
 20
361.2334824878899
 30
0.0
 41
7.0
 42
7.0
 43
7.0
 50
180.0
  0
INSERT
  5
7FAB
330
7588
100
AcDbEntity
  8
SUNPOU
 48
5.0
100
AcDbBlockReference
  2
_OPEN
 10
376.5371004507617
 20
361.2334824878899
 30
0.0
 41
7.0
 42
7.0
 43
7.0
  0
MTEXT
  5
7FAC
330
7588
100
AcDbEntity
  8
SUNPOU
 48
5.0
100
AcDbMText
 10
382.2713651891477
 20
366.2334824878898
 30
0.0
 40
6.0
 41
0.0
 71
     5
 72
     1
  1
\A1;11
1001
ACAD
1000
MTEXTBEGIN
1070
    73
1070
     1
1070
    44
1040
1.0
1070
    74
1070
     0
1000
MTEXTEND
  0
POINT
  5
7FAD
330
7588
100
AcDbEntity
  8
DEFPOINTS
 62
     0
 48
5.0
100
AcDbPoint
 10
388.0056299275338
 20
320.640969713619
 30
0.0
  0
POINT
  5
7FAE
330
7588
100
AcDbEntity
  8
DEFPOINTS
 62
     0
 48
5.0
100
AcDbPoint
 10
376.5371004507617
 20
304.0884900136189
 30
0.0
  0
POINT
  5
7FAF
330
7588
100
AcDbEntity
  8
DEFPOINTS
 62
     0
 48
5.0
100
AcDbPoint
 10
376.5371004507617
 20
361.2334824878899
 30
0.0
  0
ENDBLK
  5
7595
330
7588
100
AcDbEntity
  8
0
 48
5.0
100
AcDbBlockEnd
  0
BLOCK
  5
75A1
330
7597
100
AcDbEntity
  8
0
 48
5.0
100
AcDbBlockBegin
  2
*D5
 70
     1
 10
0.0
 20
0.0
 30
0.0
  3
*D5
  1

  0
LINE
  5
7FB9
330
7597
100
AcDbEntity
  8
SUNPOU
 48
5.0
100
AcDbLine
 10
390.3884335909847
 20
330.9691341444422
 30
0.0
 11
402.8640848942252
 21
335.8796513910226
 31
0.0
  0
LINE
  5
7FBA
330
7597
100
AcDbEntity
  8
SUNPOU
 48
5.0
100
AcDbLine
 10
406.773985838967
 20
289.3400295120918
 30
0.0
 11
419.2496371422076
 21
294.2505467586722
 31
0.0
  0
LINE
  5
7FBB
330
7597
100
AcDbEntity
  8
SUNPOU
 48
5.0
100
AcDbLine
 10
402.6363478700601
 20
328.2672840951137
 30
0.0
 11
413.8942932549391
 21
299.6653682561083
 31
0.0
  0
INSERT
  5
7FBC
330
7597
100
AcDbEntity
  8
SUNPOU
 48
5.0
100
AcDbBlockReference
  2
_OPEN
 10
400.0725444385085
 20
334.7808784917862
 30
0.0
 41
7.0
 42
7.0
 43
7.0
 50
111.4850001022886
  0
INSERT
  5
7FBD
330
7597
100
AcDbEntity
  8
SUNPOU
 48
5.0
100
AcDbBlockReference
  2
_OPEN
 10
416.4580966864908
 20
293.1517738594357
 30
0.0
 41
7.0
 42
7.0
 43
7.0
 50
291.4850001022886
  0
MTEXT
  5
7FBE
330
7597
100
AcDbEntity
  8
SUNPOU
 48
5.0
100
AcDbMText
 10
412.9178879886945
 20
315.7976143410049
 30
0.0
 40
6.0
 41
0.0
 71
     5
 72
     1
  1
\A1;45
 11
0.3662576330788074
 21
-0.9305134852389349
 31
0.0
1001
ACAD
1000
MTEXTBEGIN
1070
    73
1070
     1
1070
    44
1040
1.0
1070
    74
1070
     0
1000
MTEXTEND
  0
POINT
  5
7FBF
330
7597
100
AcDbEntity
  8
DEFPOINTS
 62
     0
 48
5.0
100
AcDbPoint
 10
384.8053526795511
 20
328.7715883459694
 30
0.0
  0
POINT
  5
7FC0
330
7597
100
AcDbEntity
  8
DEFPOINTS
 62
     0
 48
5.0
100
AcDbPoint
 10
401.1909049275335
 20
287.1424837136189
 30
0.0
  0
POINT
  5
7FC1
330
7597
100
AcDbEntity
  8
DEFPOINTS
 62
     0
 48
5.0
100
AcDbPoint
 10
416.4580966864908
 20
293.1517738594357
 30
0.0
  0
ENDBLK
  5
75A2
330
7597
100
AcDbEntity
  8
0
 48
5.0
100
AcDbBlockEnd
  0
BLOCK
  5
75AE
330
75A4
100
AcDbEntity
  8
0
 48
5.0
100
AcDbBlockBegin
  2
*D6
 70
     1
 10
0.0
 20
0.0
 30
0.0
  3
*D6
  1

  0
LINE
  5
7FB0
330
75A4
100
AcDbEntity
  8
SUNPOU
 48
5.0
100
AcDbLine
 10
393.5887108389673
 20
322.8385155120918
 30
0.0
 11
396.1453957100002
 21
323.8448473538624
 31
0.0
  0
LINE
  5
7FB1
330
75A4
100
AcDbEntity
  8
SUNPOU
 48
5.0
100
AcDbLine
 10
406.773985838967
 20
289.3400295120918
 30
0.0
 11
409.3306707099999
 21
290.3463613538624
 31
0.0
  0
LINE
  5
7FB2
330
75A4
100
AcDbEntity
  8
SUNPOU
 48
5.0
100
AcDbLine
 10
395.9176586858351
 20
316.2324800579534
 30
0.0
 11
403.9753268227315
 21
295.7611828512985
 31
0.0
  0
INSERT
  5
7FB3
330
75A4
100
AcDbEntity
  8
SUNPOU
 48
5.0
100
AcDbBlockReference
  2
_OPEN
 10
393.3538552542834
 20
322.746074454626
 30
0.0
 41
7.0
 42
7.0
 43
7.0
 50
111.4850001022886
  0
INSERT
  5
7FB4
330
75A4
100
AcDbEntity
  8
SUNPOU
 48
5.0
100
AcDbBlockReference
  2
_OPEN
 10
406.5391302542831
 20
289.2475884546259
 30
0.0
 41
7.0
 42
7.0
 43
7.0
 50
291.4850001022886
  0
MTEXT
  5
7FB5
330
75A4
100
AcDbEntity
  8
SUNPOU
 48
5.0
100
AcDbMText
 10
404.599060180478
 20
307.82811962002
 30
0.0
 40
6.0
 41
0.0
 71
     5
 72
     1
  1
\A1;36
 11
0.3662576330788074
 21
-0.9305134852389349
 31
0.0
1001
ACAD
1000
MTEXTBEGIN
1070
    73
1070
     1
1070
    44
1040
1.0
1070
    74
1070
     0
1000
MTEXTEND
  0
POINT
  5
7FB6
330
75A4
100
AcDbEntity
  8
DEFPOINTS
 62
     0
 48
5.0
100
AcDbPoint
 10
388.0056299275337
 20
320.6409697136189
 30
0.0
  0
POINT
  5
7FB7
330
75A4
100
AcDbEntity
  8
DEFPOINTS
 62
     0
 48
5.0
100
AcDbPoint
 10
401.1909049275335
 20
287.1424837136189
 30
0.0
  0
POINT
  5
7FB8
330
75A4
100
AcDbEntity
  8
DEFPOINTS
 62
     0
 48
5.0
100
AcDbPoint
 10
406.5391302542831
 20
289.2475884546259
 30
0.0
  0
ENDBLK
  5
75AF
330
75A4
100
AcDbEntity
  8
0
 48
5.0
100
AcDbBlockEnd
  0
BLOCK
  5
75BB
330
75B1
100
AcDbEntity
  8
0
 48
5.0
100
AcDbBlockBegin
  2
*D7
 70
     1
 10
0.0
 20
0.0
 30
0.0
  3
*D7
  1

  0
LINE
  5
7F7F
330
75B1
100
AcDbEntity
  8
SUNPOU
 48
5.0
100
AcDbLine
 10
425.3884335909847
 20
330.9691341444422
 30
0.0
 11
437.8640848942253
 21
335.8796513910226
 31
0.0
  0
LINE
  5
7F80
330
75B1
100
AcDbEntity
  8
SUNPOU
 48
5.0
100
AcDbLine
 10
441.773985838967
 20
289.3400295120917
 30
0.0
 11
454.2496371422076
 21
294.2505467586721
 31
0.0
  0
LINE
  5
7F81
330
75B1
100
AcDbEntity
  8
SUNPOU
 48
5.0
100
AcDbLine
 10
437.6363478700601
 20
328.2672840951136
 30
0.0
 11
448.8942932549392
 21
299.6653682561083
 31
0.0
  0
INSERT
  5
7F82
330
75B1
100
AcDbEntity
  8
SUNPOU
 48
5.0
100
AcDbBlockReference
  2
_OPEN
 10
435.0725444385085
 20
334.7808784917862
 30
0.0
 41
7.0
 42
7.0
 43
7.0
 50
111.4850001022886
  0
INSERT
  5
7F83
330
75B1
100
AcDbEntity
  8
SUNPOU
 48
5.0
100
AcDbBlockReference
  2
_OPEN
 10
451.4580966864908
 20
293.1517738594357
 30
0.0
 41
7.0
 42
7.0
 43
7.0
 50
291.4850001022886
  0
MTEXT
  5
7F84
330
75B1
100
AcDbEntity
  8
SUNPOU
 48
5.0
100
AcDbMText
 10
447.9178879886943
 20
315.7976143410049
 30
0.0
 40
6.0
 41
0.0
 71
     5
 72
     1
  1
\A1;45
 11
0.3662576330788074
 21
-0.9305134852389349
 31
0.0
1001
ACAD
1000
MTEXTBEGIN
1070
    73
1070
     1
1070
    44
1040
1.0
1070
    74
1070
     0
1000
MTEXTEND
  0
POINT
  5
7F85
330
75B1
100
AcDbEntity
  8
DEFPOINTS
 62
     0
 48
5.0
100
AcDbPoint
 10
419.8053526795511
 20
328.7715883459694
 30
0.0
  0
POINT
  5
7F86
330
75B1
100
AcDbEntity
  8
DEFPOINTS
 62
     0
 48
5.0
100
AcDbPoint
 10
436.1909049275334
 20
287.1424837136189
 30
0.0
  0
POINT
  5
7F87
330
75B1
100
AcDbEntity
  8
DEFPOINTS
 62
     0
 48
5.0
100
AcDbPoint
 10
451.4580966864908
 20
293.1517738594357
 30
0.0
  0
ENDBLK
  5
75BC
330
75B1
100
AcDbEntity
  8
0
 48
5.0
100
AcDbBlockEnd
  0
BLOCK
  5
75D1
330
75C7
100
AcDbEntity
  8
0
 48
5.0
100
AcDbBlockBegin
  2
*D8
 70
     1
 10
0.0
 20
0.0
 30
0.0
  3
*D8
  1

  0
LINE
  5
7FC2
330
75C7
100
AcDbEntity
  8
SUNPOU
 48
5.0
100
AcDbLine
 10
384.8053526795512
 20
334.7715883459694
 30
0.0
 11
384.8053526795512
 21
351.1629013304152
 31
0.0
  0
LINE
  5
7FC3
330
75C7
100
AcDbEntity
  8
SUNPOU
 48
5.0
100
AcDbLine
 10
419.7336999780008
 20
334.7715883459694
 30
0.0
 11
419.7336999780008
 21
351.1629013304152
 31
0.0
  0
LINE
  5
7FC4
330
75C7
100
AcDbEntity
  8
SUNPOU
 48
5.0
100
AcDbLine
 10
391.8053526795512
 20
348.1629013304152
 30
0.0
 11
412.7336999780009
 21
348.1629013304152
 31
0.0
  0
INSERT
  5
7FC5
330
75C7
100
AcDbEntity
  8
SUNPOU
 48
5.0
100
AcDbBlockReference
  2
_OPEN
 10
384.8053526795512
 20
348.1629013304152
 30
0.0
 41
7.0
 42
7.0
 43
7.0
 50
180.0
  0
INSERT
  5
7FC6
330
75C7
100
AcDbEntity
  8
SUNPOU
 48
5.0
100
AcDbBlockReference
  2
_OPEN
 10
419.7336999780008
 20
348.1629013304152
 30
0.0
 41
7.0
 42
7.0
 43
7.0
  0
MTEXT
  5
7FC7
330
75C7
100
AcDbEntity
  8
SUNPOU
 48
5.0
100
AcDbMText
 10
402.2695263287761
 20
353.1629013304152
 30
0.0
 40
6.0
 41
0.0
 71
     5
 72
     1
  1
\A1;35
1001
ACAD
1000
MTEXTBEGIN
1070
    73
1070
     1
1070
    44
1040
1.0
1070
    74
1070
     0
1000
MTEXTEND
  0
POINT
  5
7FC8
330
75C7
100
AcDbEntity
  8
DEFPOINTS
 62
     0
 48
5.0
100
AcDbPoint
 10
384.8053526795512
 20
328.7715883459694
 30
0.0
  0
POINT
  5
7FC9
330
75C7
100
AcDbEntity
  8
DEFPOINTS
 62
     0
 48
5.0
100
AcDbPoint
 10
419.7336999780008
 20
328.7715883459694
 30
0.0
  0
POINT
  5
7FCA
330
75C7
100
AcDbEntity
  8
DEFPOINTS
 62
     0
 48
5.0
100
AcDbPoint
 10
419.7336999780008
 20
348.1629013304152
 30
0.0
  0
ENDBLK
  5
75D2
330
75C7
100
AcDbEntity
  8
0
 48
5.0
100
AcDbBlockEnd
  0
BLOCK
  5
766E
330
7664
100
AcDbEntity
  8
0
 48
5.0
100
AcDbBlockBegin
  2
*D9
 70
     1
 10
0.0
 20
0.0
 30
0.0
  3
*D9
  1

  0
LINE
  5
7FE8
330
7664
100
AcDbEntity
  8
SUNPOU
 48
5.0
100
AcDbLine
 10
501.1876124982157
 20
348.1899935818038
 30
0.0
 11
486.8536519176272
 21
384.6068282969456
 31
0.0
  0
LINE
  5
7FE9
330
7664
100
AcDbEntity
  8
SUNPOU
 48
5.0
100
AcDbLine
 10
535.9888164067286
 20
361.8880288142354
 30
0.0
 11
521.6548558261401
 21
398.3048635293772
 31
0.0
  0
LINE
  5
7FEA
330
7664
100
AcDbEntity
  8
SUNPOU
 48
5.0
100
AcDbLine
 10
494.4660192131295
 20
384.3790912591903
 30
0.0
 11
516.2400343191432
 21
392.9495196517757
 31
0.0
  0
INSERT
  5
7FEB
330
7664
100
AcDbEntity
  8
SUNPOU
 48
5.0
100
AcDbBlockReference
  2
_OPEN
 10
487.9524248118799
 20
381.8152878392671
 30
0.0
 41
7.0
 42
7.0
 43
7.0
 50
201.485
  0
INSERT
  5
7FEC
330
7664
100
AcDbEntity
  8
SUNPOU
 48
5.0
100
AcDbBlockReference
  2
_OPEN
 10
522.7536287203928
 20
395.5133230716987
 30
0.0
 41
7.0
 42
7.0
 43
7.0
 50
21.48500000000007
  0
MTEXT
  5
7FED
330
7664
100
AcDbEntity
  8
SUNPOU
 48
5.0
100
AcDbMText
 10
503.5217386090486
 20
393.316872884947
 30
0.0
 40
6.0
 41
0.0
 71
     5
 72
     1
  1
\A1;37
 11
0.9305134858928049
 21
0.3662576314175868
 31
0.0
1001
ACAD
1000
MTEXTBEGIN
1070
    73
1070
     1
1070
    44
1040
1.0
1070
    74
1070
     0
1000
MTEXTEND
  0
POINT
  5
7FEE
330
7664
100
AcDbEntity
  8
DEFPOINTS
 62
     0
 48
5.0
100
AcDbPoint
 10
503.3851582867213
 20
342.606912666447
 30
0.0
  0
POINT
  5
7FEF
330
7664
100
AcDbEntity
  8
DEFPOINTS
 62
     0
 48
5.0
100
AcDbPoint
 10
538.1863621952342
 20
356.3049478988785
 30
0.0
  0
POINT
  5
7FF0
330
7664
100
AcDbEntity
  8
DEFPOINTS
 62
     0
 48
5.0
100
AcDbPoint
 10
522.7536287203928
 20
395.5133230716987
 30
0.0
  0
ENDBLK
  5
766F
330
7664
100
AcDbEntity
  8
0
 48
5.0
100
AcDbBlockEnd
  0
BLOCK
  5
767B
330
7671
100
AcDbEntity
  8
0
 48
5.0
100
AcDbBlockBegin
  2
*D10
 70
     1
 10
0.0
 20
0.0
 30
0.0
  3
*D10
  1

  0
LINE
  5
7FDF
330
7671
100
AcDbEntity
  8
SUNPOU
 48
5.0
100
AcDbLine
 10
497.387037761051
 20
353.6794466100183
 30
0.0
 11
480.0318838612348
 21
397.7719196897443
 31
0.0
  0
LINE
  5
7FE0
330
7671
100
AcDbEntity
  8
SUNPOU
 48
5.0
100
AcDbLine
 10
535.0280427943321
 20
368.4952505254654
 30
0.0
 11
517.6728888945159
 21
412.5877236051914
 31
0.0
  0
LINE
  5
7FE1
330
7671
100
AcDbEntity
  8
SUNPOU
 48
5.0
100
AcDbLine
 10
487.6442511567372
 20
397.544182651989
 30
0.0
 11
512.258067387519
 21
407.2323797275899
 31
0.0
  0
INSERT
  5
7FE2
330
7671
100
AcDbEntity
  8
SUNPOU
 48
5.0
100
AcDbBlockReference
  2
_OPEN
 10
481.1306567554876
 20
394.9803792320659
 30
0.0
 41
7.0
 42
7.0
 43
7.0
 50
201.485
  0
INSERT
  5
7FE3
330
7671
100
AcDbEntity
  8
SUNPOU
 48
5.0
100
AcDbBlockReference
  2
_OPEN
 10
518.7716617887686
 20
409.796183147513
 30
0.0
 41
7.0
 42
7.0
 43
7.0
 50
21.48499999999998
  0
MTEXT
  5
7FE4
330
7671
100
AcDbEntity
  8
SUNPOU
 48
5.0
100
AcDbMText
 10
498.11987111504
 20
407.0408486192534
 30
0.0
 40
6.0
 41
0.0
 71
     5
 72
     1
  1
\A1;40
 11
0.9305134858928054
 21
0.3662576314175853
 31
0.0
1001
ACAD
1000
MTEXTBEGIN
1070
    73
1070
     1
1070
    44
1040
1.0
1070
    74
1070
     0
1000
MTEXTEND
  0
POINT
  5
7FE5
330
7671
100
AcDbEntity
  8
DEFPOINTS
 62
     0
 48
5.0
100
AcDbPoint
 10
499.5845835495566
 20
348.0963656946614
 30
0.0
  0
POINT
  5
7FE6
330
7671
100
AcDbEntity
  8
DEFPOINTS
 62
     0
 48
5.0
100
AcDbPoint
 10
537.2255885828376
 20
362.9121696101085
 30
0.0
  0
POINT
  5
7FE7
330
7671
100
AcDbEntity
  8
DEFPOINTS
 62
     0
 48
5.0
100
AcDbPoint
 10
518.7716617887686
 20
409.796183147513
 30
0.0
  0
ENDBLK
  5
767C
330
7671
100
AcDbEntity
  8
0
 48
5.0
100
AcDbBlockEnd
  0
BLOCK
  5
7688
330
767E
100
AcDbEntity
  8
0
 48
5.0
100
AcDbBlockBegin
  2
*D11
 70
     1
 10
0.0
 20
0.0
 30
0.0
  3
*D11
  1

  0
LINE
  5
7FD6
330
767E
100
AcDbEntity
  8
SUNPOU
 48
5.0
100
AcDbLine
 10
491.3776994970385
 20
354.0008108059281
 30
0.0
 11
469.4285298056985
 21
409.7648310892244
 31
0.0
  0
LINE
  5
7FD7
330
767E
100
AcDbEntity
  8
SUNPOU
 48
5.0
100
AcDbLine
 10
539.2060922820795
 20
372.8264532895527
 30
0.0
 11
517.2569225907396
 21
428.5904735728491
 31
0.0
  0
LINE
  5
7FD8
330
767E
100
AcDbEntity
  8
SUNPOU
 48
5.0
100
AcDbLine
 10
477.0408971027767
 20
409.5370941041411
 30
0.0
 11
511.8421011207976
 21
423.235129657781
 31
0.0
  0
INSERT
  5
7FD9
330
767E
100
AcDbEntity
  8
SUNPOU
 48
5.0
100
AcDbBlockReference
  2
_OPEN
 10
470.5273027192666
 20
406.9732906391488
 30
0.0
 41
7.0
 42
7.0
 43
7.0
 50
201.4850003964446
  0
INSERT
  5
7FDA
330
767E
100
AcDbEntity
  8
SUNPOU
 48
5.0
100
AcDbBlockReference
  2
_OPEN
 10
518.3556955043077
 20
425.7989331227734
 30
0.0
 41
7.0
 42
7.0
 43
7.0
 50
21.48500039644464
  0
MTEXT
  5
7FDB
330
767E
100
AcDbEntity
  8
SUNPOU
 48
5.0
100
AcDbMText
 10
492.6102109225068
 20
421.0386792977539
 30
0.0
 40
6.0
 41
0.0
 71
     5
 72
     1
  1
\A1;51
 11
0.930513483358572
 21
0.3662576378560542
 31
0.0
1001
ACAD
1000
MTEXTBEGIN
1070
    73
1070
     1
1070
    44
1040
1.0
1070
    74
1070
     0
1000
MTEXTEND
  0
POINT
  5
7FDC
330
767E
100
AcDbEntity
  8
DEFPOINTS
 62
     0
 48
5.0
100
AcDbPoint
 10
493.5752453241748
 20
348.4177299057766
 30
0.0
  0
POINT
  5
7FDD
330
767E
100
AcDbEntity
  8
DEFPOINTS
 62
     0
 48
5.0
100
AcDbPoint
 10
541.4036381092159
 20
367.2433723894013
 30
0.0
  0
POINT
  5
7FDE
330
767E
100
AcDbEntity
  8
DEFPOINTS
 62
     0
 48
5.0
100
AcDbPoint
 10
518.3556955043077
 20
425.7989331227734
 30
0.0
  0
ENDBLK
  5
7689
330
767E
100
AcDbEntity
  8
0
 48
5.0
100
AcDbBlockEnd
  0
BLOCK
  5
7697
330
768B
100
AcDbEntity
  8
0
 48
5.0
100
AcDbBlockBegin
  2
*D12
 70
     1
 10
0.0
 20
0.0
 30
0.0
  3
*D12
  1

  0
LINE
  5
8005
330
768B
100
AcDbEntity
  8
SUNPOU
 48
5.0
100
AcDbLine
 10
490.0065811965334
 20
341.102360247814
 30
0.0
 11
474.8948179834766
 21
335.1542482602109
 31
0.0
  0
LINE
  5
8006
330
768B
100
AcDbEntity
  8
SUNPOU
 48
5.0
100
AcDbLine
 10
487.9921643843407
 20
346.2201841794585
 30
0.0
 11
472.8804011712838
 21
340.2720721918554
 31
0.0
  0
LINE
  5
8007
330
768B
100
AcDbEntity
  8
SUNPOU
 48
5.0
100
AcDbLine
 10
480.2501618007649
 20
329.7394266935634
 30
0.0
 11
482.8139651481362
 21
323.2258322637568
 31
0.0
  0
LINE
  5
8008
330
768B
100
AcDbEntity
  8
SUNPOU
 48
5.0
100
AcDbLine
 10
473.1081382938296
 20
347.8844394848211
 30
0.0
 11
467.614273978034
 21
361.8421418344067
 31
0.0
  0
LINE
  5
8009
330
768B
100
AcDbEntity
  8
SUNPOU
 48
5.0
100
AcDbLine
 10
477.6863584533936
 20
336.2530211233701
 30
0.0
 11
475.671941641201
 21
341.3708450550145
 31
0.0
  0
INSERT
  5
800A
330
768B
100
AcDbEntity
  8
SUNPOU
 48
5.0
100
AcDbBlockReference
  2
_OPEN
 10
477.6863584533936
 20
336.2530211233701
 30
0.0
 41
7.0
 42
7.0
 43
7.0
 50
111.4849993618098
  0
INSERT
  5
800B
330
768B
100
AcDbEntity
  8
SUNPOU
 48
5.0
100
AcDbBlockReference
  2
_OPEN
 10
475.671941641201
 20
341.3708450550145
 30
0.0
 41
7.0
 42
7.0
 43
7.0
 50
291.4849993618097
  0
MTEXT
  5
800C
330
768B
100
AcDbEntity
  8
SUNPOU
 48
5.0
100
AcDbMText
 10
473.731871912108
 20
359.9513759797825
 30
0.0
 40
6.0
 41
0.0
 71
     5
 72
     1
  1
\A1;5
 11
0.3662576210530424
 21
-0.9305134899723732
 31
0.0
1001
ACAD
1000
MTEXTBEGIN
1070
    73
1070
     1
1070
    44
1040
1.0
1070
    74
1070
     0
1000
MTEXTEND
  0
POINT
  5
800D
330
768B
100
AcDbEntity
  8
DEFPOINTS
 62
     0
 48
5.0
100
AcDbPoint
 10
495.5896621363677
 20
343.2999059741323
 30
0.0
  0
POINT
  5
800E
330
768B
100
AcDbEntity
  8
DEFPOINTS
 62
     0
 48
5.0
100
AcDbPoint
 10
493.575245324175
 20
348.4177299057768
 30
0.0
  0
POINT
  5
800F
330
768B
100
AcDbEntity
  8
DEFPOINTS
 62
     0
 48
5.0
100
AcDbPoint
 10
475.671941641201
 20
341.3708450550145
 30
0.0
  0
ENDBLK
  5
7698
330
768B
100
AcDbEntity
  8
0
 48
5.0
100
AcDbBlockEnd
  0
BLOCK
  5
76A6
330
769A
100
AcDbEntity
  8
0
 48
5.0
100
AcDbBlockBegin
  2
*D13
 70
     1
 10
0.0
 20
0.0
 30
0.0
  3
*D13
  1

  0
LINE
  5
7FFA
330
769A
100
AcDbEntity
  8
SUNPOU
 48
5.0
100
AcDbLine
 10
499.1630217014337
 20
317.8395230529388
 30
0.0
 11
484.0512584883766
 21
311.8914110653357
 31
0.0
  0
LINE
  5
7FFB
330
769A
100
AcDbEntity
  8
SUNPOU
 48
5.0
100
AcDbLine
 10
501.1774386123405
 20
312.7216988705014
 30
0.0
 11
486.0656753992834
 21
306.7735868828984
 31
0.0
  0
LINE
  5
7FFC
330
769A
100
AcDbEntity
  8
SUNPOU
 48
5.0
100
AcDbLine
 10
484.2789956109225
 20
319.5037783583014
 30
0.0
 11
481.7151922635512
 21
326.0173727881081
 31
0.0
  0
LINE
  5
7FFD
330
769A
100
AcDbEntity
  8
SUNPOU
 48
5.0
100
AcDbLine
 10
491.4210192165717
 20
301.3587653162509
 30
0.0
 11
496.9148835323672
 21
287.4010629666652
 31
0.0
  0
LINE
  5
7FFE
330
769A
100
AcDbEntity
  8
SUNPOU
 48
5.0
100
AcDbLine
 10
486.8427989582937
 20
312.9901839284948
 30
0.0
 11
488.8572158692005
 21
307.8723597460575
 31
0.0
  0
INSERT
  5
7FFF
330
769A
100
AcDbEntity
  8
SUNPOU
 48
5.0
100
AcDbBlockReference
  2
_OPEN
 10
486.8427989582937
 20
312.9901839284948
 30
0.0
 41
7.0
 42
7.0
 43
7.0
 50
291.4849993618093
  0
INSERT
  5
8000
330
769A
100
AcDbEntity
  8
SUNPOU
 48
5.0
100
AcDbBlockReference
  2
_OPEN
 10
488.8572158692005
 20
307.8723597460575
 30
0.0
 41
7.0
 42
7.0
 43
7.0
 50
111.4849993618093
  0
MTEXT
  5
8001
330
769A
100
AcDbEntity
  8
SUNPOU
 48
5.0
100
AcDbMText
 10
500.1024204980169
 20
292.9544050318199
 30
0.0
 40
6.0
 41
0.0
 71
     5
 72
     1
  1
\A1;6
 11
0.3662576210530353
 21
-0.9305134899723761
 31
0.0
1001
ACAD
1000
MTEXTBEGIN
1070
    73
1070
     1
1070
    44
1040
1.0
1070
    74
1070
     0
1000
MTEXTEND
  0
POINT
  5
8002
330
769A
100
AcDbEntity
  8
DEFPOINTS
 62
     0
 48
5.0
100
AcDbPoint
 10
504.7461026412679
 20
320.037068779257
 30
0.0
  0
POINT
  5
8003
330
769A
100
AcDbEntity
  8
DEFPOINTS
 62
     0
 48
5.0
100
AcDbPoint
 10
506.7605195521746
 20
314.9192445968196
 30
0.0
  0
POINT
  5
8004
330
769A
100
AcDbEntity
  8
DEFPOINTS
 62
     0
 48
5.0
100
AcDbPoint
 10
488.8572158692005
 20
307.8723597460575
 30
0.0
  0
ENDBLK
  5
76A7
330
769A
100
AcDbEntity
  8
0
 48
5.0
100
AcDbBlockEnd
  0
BLOCK
  5
7C37
330
7C2D
100
AcDbEntity
  8
0
 48
5.0
100
AcDbBlockBegin
  2
*D14
 70
     1
 10
0.0
 20
0.0
 30
0.0
  3
*D14
  1

  0
LINE
  5
7FF1
330
7C2D
100
AcDbEntity
  8
SUNPOU
 48
5.0
100
AcDbLine
 10
487.9921643843407
 20
346.2201841794585
 30
0.0
 11
457.3812747127632
 21
334.1714909039188
 31
0.0
  0
LINE
  5
7FF2
330
7C2D
100
AcDbEntity
  8
SUNPOU
 48
5.0
100
AcDbLine
 10
501.1774386123404
 20
312.7216988705014
 30
0.0
 11
470.566548940763
 21
300.6730055949617
 31
0.0
  0
LINE
  5
7FF3
330
7C2D
100
AcDbEntity
  8
SUNPOU
 48
5.0
100
AcDbLine
 10
462.7366185300516
 20
328.7566693372713
 30
0.0
 11
470.7942860633088
 21
308.2853728879275
 31
0.0
  0
INSERT
  5
7FF4
330
7C2D
100
AcDbEntity
  8
SUNPOU
 48
5.0
100
AcDbBlockReference
  2
_OPEN
 10
460.1728151826804
 20
335.270263767078
 30
0.0
 41
7.0
 42
7.0
 43
7.0
 50
111.4849993618097
  0
INSERT
  5
7FF5
330
7C2D
100
AcDbEntity
  8
SUNPOU
 48
5.0
100
AcDbBlockReference
  2
_OPEN
 10
473.35808941068
 20
301.7717784581209
 30
0.0
 41
7.0
 42
7.0
 43
7.0
 50
291.4849993618097
  0
MTEXT
  5
7FF6
330
7C2D
100
AcDbEntity
  8
SUNPOU
 48
5.0
100
AcDbMText
 10
471.4180197465421
 20
320.3523092178646
 30
0.0
 40
6.0
 41
0.0
 71
     5
 72
     1
  1
\A1;36
 11
0.3662576210530415
 21
-0.9305134899723736
 31
0.0
1001
ACAD
1000
MTEXTBEGIN
1070
    73
1070
     1
1070
    44
1040
1.0
1070
    74
1070
     0
1000
MTEXTEND
  0
POINT
  5
7FF7
330
7C2D
100
AcDbEntity
  8
DEFPOINTS
 62
     0
 48
5.0
100
AcDbPoint
 10
493.5752453241748
 20
348.4177299057767
 30
0.0
  0
POINT
  5
7FF8
330
7C2D
100
AcDbEntity
  8
DEFPOINTS
 62
     0
 48
5.0
100
AcDbPoint
 10
506.7605195521746
 20
314.9192445968196
 30
0.0
  0
POINT
  5
7FF9
330
7C2D
100
AcDbEntity
  8
DEFPOINTS
 62
     0
 48
5.0
100
AcDbPoint
 10
473.35808941068
 20
301.7717784581209
 30
0.0
  0
ENDBLK
  5
7C38
330
7C2D
100
AcDbEntity
  8
0
 48
5.0
100
AcDbBlockEnd
  0
BLOCK
  5
7C46
330
7C3A
100
AcDbEntity
  8
0
 48
5.0
100
AcDbBlockBegin
  2
*D15
 70
     1
 10
0.0
 20
0.0
 30
0.0
  3
*D15
  1

  0
LINE
  5
7FCB
330
7C3A
100
AcDbEntity
  8
SUNPOU
 48
5.0
100
AcDbLine
 10
552.1143257384476
 20
356.4137297071861
 30
0.0
 11
575.7842210406607
 21
365.7303918819239
 31
0.0
  0
LINE
  5
7FCC
330
7C3A
100
AcDbEntity
  8
SUNPOU
 48
5.0
100
AcDbLine
 10
546.9867190238979
 20
369.4409181796211
 30
0.0
 11
570.6566143261111
 21
378.7575803543588
 31
0.0
  0
LINE
  5
7FCD
330
7C3A
100
AcDbEntity
  8
SUNPOU
 48
5.0
100
AcDbLine
 10
575.5564840052427
 20
358.1180245863516
 30
0.0
 11
578.1202874271657
 21
351.6044301858891
 31
0.0
  0
LINE
  5
7FCE
330
7C3A
100
AcDbEntity
  8
SUNPOU
 48
5.0
100
AcDbLine
 10
565.3012704468472
 20
384.1724018597115
 30
0.0
 11
562.7374670249241
 21
390.6859962601739
 31
0.0
  0
LINE
  5
7FCF
330
7C3A
100
AcDbEntity
  8
SUNPOU
 48
5.0
100
AcDbLine
 10
572.9926805833197
 20
364.631618986814
 30
0.0
 11
567.86507386877
 21
377.658807459249
 31
0.0
  0
INSERT
  5
7FD0
330
7C3A
100
AcDbEntity
  8
SUNPOU
 48
5.0
100
AcDbBlockReference
  2
_OPEN
 10
572.9926805833197
 20
364.631618986814
 30
0.0
 41
7.0
 42
7.0
 43
7.0
 50
111.4850000175916
  0
INSERT
  5
7FD1
330
7C3A
100
AcDbEntity
  8
SUNPOU
 48
5.0
100
AcDbBlockReference
  2
_OPEN
 10
567.86507386877
 20
377.658807459249
 30
0.0
 41
7.0
 42
7.0
 43
7.0
 50
291.4850000175916
  0
MTEXT
  5
7FD2
330
7C3A
100
AcDbEntity
  8
SUNPOU
 48
5.0
100
AcDbMText
 10
575.0814446549467
 20
372.9765013815479
 30
0.0
 40
6.0
 41
0.0
 71
     5
 72
     1
  1
\A1;14
 11
0.366257631703283
 21
-0.9305134857803524
 31
0.0
1001
ACAD
1000
MTEXTBEGIN
1070
    73
1070
     1
1070
    44
1040
1.0
1070
    74
1070
     0
1000
MTEXTEND
  0
POINT
  5
7FD3
330
7C3A
100
AcDbEntity
  8
DEFPOINTS
 62
     0
 48
5.0
100
AcDbPoint
 10
546.5312448237654
 20
354.2161839169664
 30
0.0
  0
POINT
  5
7FD4
330
7C3A
100
AcDbEntity
  8
DEFPOINTS
 62
     0
 48
5.0
100
AcDbPoint
 10
541.4036381092159
 20
367.2433723894013
 30
0.0
  0
POINT
  5
7FD5
330
7C3A
100
AcDbEntity
  8
DEFPOINTS
 62
     0
 48
5.0
100
AcDbPoint
 10
567.86507386877
 20
377.658807459249
 30
0.0
  0
ENDBLK
  5
7C47
330
7C3A
100
AcDbEntity
  8
0
 48
5.0
100
AcDbBlockEnd
  0
ENDSEC
  0
SECTION
  2
ENTITIES
  0
TEXT
  5
7D7
330
1A
100
AcDbEntity
  8
SUNPOU
 62
     4
100
AcDbText
 10
294.8075353676772
 20
56.03564290668851
 30
0.0
 40
8.0
  1
軒樋の差し替え
100
AcDbText
  0
ARC
  5
5A67
330
1A
100
AcDbEntity
  8
NOKITOI
  6
PHANTOM
 62
     8
100
AcDbCircle
 10
264.9429942496035
 20
303.1509965487042
 30
0.0
 40
0.4999934649531607
100
AcDbArc
 50
356.9955363203376
 51
89.99928939038239
  0
LINE
  5
5A68
330
1A
100
AcDbEntity
  8
NOKITOI
  6
PHANTOM
 62
     8
100
AcDbLine
 10
265.1266004507615
 20
297.1247900136189
 30
0.0
 11
265.4424004507613
 21
303.1246900136189
 31
0.0
  0
ARC
  5
5A69
330
1A
100
AcDbEntity
  8
NOKITOI
  6
PHANTOM
 62
     8
100
AcDbCircle
 10
264.7001920265988
 20
289.1509975286755
 30
0.0
 40
0.9999924849789756
100
AcDbArc
 50
6.528264606673934
 51
89.99951732741129
  0
LINE
  5
5A6A
330
1A
100
AcDbEntity
  8
NOKITOI
  6
PHANTOM
 62
     8
100
AcDbLine
 10
266.2441004507618
 20
291.350990013619
 30
0.0
 11
260.2032004507614
 21
291.350990013619
 31
0.0
  0
ARC
  5
5A6B
330
1A
100
AcDbEntity
  8
NOKITOI
  6
PHANTOM
 62
     8
100
AcDbCircle
 10
308.4152065327293
 20
294.1509843889626
 30
0.0
 40
41.79999437547816
100
AcDbArc
 50
184.4742952125247
 51
269.999854592109
  0
ARC
  5
5A6C
330
1A
100
AcDbEntity
  8
NOKITOI
  6
PHANTOM
 62
     8
100
AcDbCircle
 10
308.415184224304
 20
294.151004489989
 30
0.0
 40
43.00001447645168
100
AcDbArc
 50
186.5249107071174
 51
269.9998883751437
  0
LINE
  5
5A72
330
1A
100
AcDbEntity
  8
NOKITOI
  6
PHANTOM
 62
     8
100
AcDbLine
 10
263.1852004507618
 20
297.850990013619
 30
0.0
 11
263.5893004507615
 21
300.6793900136189
 31
0.0
  0
ARC
  5
5A73
330
1A
100
AcDbEntity
  8
NOKITOI
  6
PHANTOM
 62
     8
100
AcDbCircle
 10
261.7219146691768
 20
299.6286753793179
 30
0.0
 40
0.5000073448410256
100
AcDbArc
 50
351.8729478641237
 51
96.47829282996754
  0
ARC
  5
5A74
330
1A
100
AcDbEntity
  8
NOKITOI
  6
PHANTOM
 62
     8
100
AcDbCircle
 10
262.116738332208
 20
296.1510337961443
 30
0.0
 40
3.999989731271038
100
AcDbArc
 50
96.47731142013277
 51
181.7899836067311
  0
LINE
  5
5A75
330
1A
100
AcDbEntity
  8
NOKITOI
  6
PHANTOM
 62
     8
100
AcDbLine
 10
257.8655004507618
 20
304.1259900136188
 30
0.0
 11
258.0149004507611
 21
299.3470900136191
 31
0.0
  0
ARC
  5
5A76
330
1A
100
AcDbEntity
  8
NOKITOI
  6
PHANTOM
 62
     8
100
AcDbCircle
 10
262.1168206634306
 20
296.151048741999
 30
0.0
 40
5.2000412730095
100
AcDbArc
 50
90.0013245430618
 51
142.0757990790546
  0
LINE
  5
5A77
330
1A
100
AcDbEntity
  8
NOKITOI
  6
PHANTOM
 62
     8
100
AcDbLine
 10
263.9631004507614
 20
297.850990013619
 30
0.0
 11
264.1443004507614
 21
301.2924900136191
 31
0.0
  0
LINE
  5
5A78
330
1A
100
AcDbEntity
  8
NOKITOI
  6
PHANTOM
 62
     8
100
AcDbLine
 10
256.6661004507614
 20
304.0884900136189
 30
0.0
 11
257.0563004507612
 21
291.6041900136189
 31
0.0
  0
ARC
  5
5A79
330
1A
100
AcDbEntity
  8
NOKITOI
  6
PHANTOM
 62
     8
100
AcDbCircle
 10
258.5555364099123
 20
291.6509551594757
 30
0.0
 40
1.499965146287778
100
AcDbArc
 50
181.7866280217766
 51
269.9986264296971
  0
LINE
  5
5A7B
330
1A
100
AcDbEntity
  8
NOKITOI
  6
PHANTOM
 62
     8
100
AcDbLine
 10
258.2042004507611
 20
293.288590013619
 30
0.0
 11
258.1187004507615
 21
296.0260900136189
 31
0.0
  0
LINE
  5
5A7C
330
1A
100
AcDbEntity
  8
NOKITOI
  6
PHANTOM
 62
     8
100
AcDbLine
 10
258.5555004507614
 20
290.150990013619
 30
0.0
 11
264.7002004507612
 21
290.150990013619
 31
0.0
  0
ARC
  5
5A7D
330
1A
100
AcDbEntity
  8
NOKITOI
  6
PHANTOM
 62
     8
100
AcDbCircle
 10
260.2032140228998
 20
293.3509768585325
 30
0.0
 40
1.999986844959662
100
AcDbArc
 50
181.7875531852355
 51
269.9996111843215
  0
LINE
  5
5A7F
330
1A
100
AcDbEntity
  8
NOKITOI
  6
PHANTOM
 62
     8
100
AcDbLine
 10
261.8832004507612
 20
297.2217900136191
 30
0.0
 11
262.2169004507613
 21
299.5579900136191
 31
0.0
  0
LINE
  5
5A80
330
1A
100
AcDbEntity
  8
NOKITOI
  6
PHANTOM
 62
     8
100
AcDbLine
 10
264.6272004507614
 20
296.6509900136189
 30
0.0
 11
262.3781004507613
 21
296.6509900136189
 31
0.0
  0
ARC
  5
5A81
330
1A
100
AcDbEntity
  8
NOKITOI
  6
PHANTOM
 62
     8
100
AcDbCircle
 10
262.3781270513591
 20
297.1509593367369
 30
0.0
 40
0.4999693238254178
100
AcDbArc
 50
171.8555038770529
 51
269.9969516090372
  0
LINE
  5
5A82
330
1A
100
AcDbEntity
  8
NOKITOI
  6
PHANTOM
 62
     8
100
AcDbLine
 10
263.9631004507614
 20
297.850990013619
 30
0.0
 11
263.1852004507618
 21
297.850990013619
 31
0.0
  0
ARC
  5
5A83
330
1A
100
AcDbEntity
  8
NOKITOI
  6
PHANTOM
 62
     8
100
AcDbCircle
 10
264.6271935637664
 20
297.1509834785334
 30
0.0
 40
0.499993464961963
100
AcDbArc
 50
270.0007892017869
 51
356.997036131742
  0
ARC
  5
5A84
330
1A
100
AcDbEntity
  8
NOKITOI
  6
PHANTOM
 62
     8
100
AcDbCircle
 10
258.6651132016113
 20
304.1510031687054
 30
0.0
 40
1.999986844954076
100
AcDbArc
 50
90.00036528735288
 51
181.7883072882704
  0
LINE
  5
5A85
330
1A
100
AcDbEntity
  8
NOKITOI
  6
PHANTOM
 62
     8
100
AcDbLine
 10
262.2212004507614
 20
304.2490900136189
 30
0.0
 11
262.4820004507614
 21
305.552990013619
 31
0.0
  0
LINE
  5
5A87
330
1A
100
AcDbEntity
  8
NOKITOI
  6
PHANTOM
 62
     8
100
AcDbLine
 10
260.6379004507616
 20
302.4509900136191
 30
0.0
 11
263.5744004507614
 21
302.4509900136191
 31
0.0
  0
ARC
  5
5A88
330
1A
100
AcDbEntity
  8
NOKITOI
  6
PHANTOM
 62
     8
100
AcDbCircle
 10
258.6651049455594
 20
304.1509946511459
 30
0.0
 40
0.7999953624857498
100
AcDbArc
 50
90.00032191805264
 51
181.7911273464193
  0
LINE
  5
5A89
330
1A
100
AcDbEntity
  8
NOKITOI
  6
PHANTOM
 62
     8
100
AcDbLine
 10
258.6651004507611
 20
304.9509900136191
 30
0.0
 11
261.1379004507616
 21
304.9509900136191
 31
0.0
  0
LINE
  5
5A8A
330
1A
100
AcDbEntity
  8
NOKITOI
  6
PHANTOM
 62
     8
100
AcDbLine
 10
261.1379004507616
 20
304.9509900136191
 30
0.0
 11
260.6379004507616
 21
302.4509900136191
 31
0.0
  0
LINE
  5
5A8B
330
1A
100
AcDbEntity
  8
NOKITOI
  6
PHANTOM
 62
     8
100
AcDbLine
 10
262.5786004507617
 20
301.350990013619
 30
0.0
 11
263.5744004507614
 21
302.4509900136191
 31
0.0
  0
LINE
  5
5A8C
330
1A
100
AcDbEntity
  8
NOKITOI
  6
PHANTOM
 62
     8
100
AcDbLine
 10
262.5786004507617
 20
301.350990013619
 30
0.0
 11
262.1167004507615
 21
301.350990013619
 31
0.0
  0
ARC
  5
5A8D
330
1A
100
AcDbEntity
  8
NOKITOI
  6
PHANTOM
 62
     8
100
AcDbCircle
 10
262.711493196206
 20
304.1509988634623
 30
0.0
 40
0.5000088498959383
100
AcDbArc
 50
168.6864043304891
 51
270.0008312961425
  0
LINE
  5
5A8E
330
1A
100
AcDbEntity
  8
NOKITOI
  6
PHANTOM
 62
     8
100
AcDbLine
 10
263.5893004507615
 20
300.6793900136189
 30
0.0
 11
264.1443004507614
 21
301.2924900136191
 31
0.0
  0
LINE
  5
5A8F
330
1A
100
AcDbEntity
  8
NOKITOI
  6
PHANTOM
 62
     8
100
AcDbLine
 10
264.9430004507612
 20
303.6509900136189
 30
0.0
 11
262.7115004507613
 21
303.6509900136189
 31
0.0
  0
LINE
  5
5A90
330
1A
100
AcDbEntity
  8
NOKITOI
  6
PHANTOM
 62
     8
100
AcDbLine
 10
258.6651004507611
 20
306.150990013619
 30
0.0
 11
261.9917004507615
 21
306.150990013619
 31
0.0
  0
ARC
  5
5A91
330
1A
100
AcDbEntity
  8
NOKITOI
  6
PHANTOM
 62
     8
100
AcDbCircle
 10
261.9916996677529
 20
305.6509909686206
 30
0.0
 40
0.4999990449987349
100
AcDbArc
 50
348.6967198015448
 51
89.99991027369329
  0
LINE
  5
5A92
330
1A
100
AcDbEntity
  8
NOKITOI
  6
PHANTOM
 62
     8
100
AcDbLine
 10
366.4706004507615
 20
290.900790013619
 30
0.0
 11
363.4776004507612
 21
260.9709900136189
 31
0.0
  0
LINE
  5
5A93
330
1A
100
AcDbEntity
  8
NOKITOI
  6
PHANTOM
 62
     8
100
AcDbLine
 10
367.5116004507617
 20
289.250490013619
 30
0.0
 11
364.6428004507615
 21
260.563090013619
 31
0.0
  0
LINE
  5
5A94
330
1A
100
AcDbEntity
  8
NOKITOI
  6
PHANTOM
 62
     8
100
AcDbLine
 10
308.4152004507614
 20
252.350990013619
 30
0.0
 11
352.9948004507614
 21
252.350890013619
 31
0.0
  0
LINE
  5
5A95
330
1A
100
AcDbEntity
  8
NOKITOI
  6
PHANTOM
 62
     8
100
AcDbLine
 10
353.2446004507614
 20
251.150890013619
 30
0.0
 11
308.4152004507614
 21
251.1509900136189
 31
0.0
  0
LINE
  5
5A96
330
1A
100
AcDbEntity
  8
NOKITOI
  6
PHANTOM
 62
     8
100
AcDbLine
 10
348.9948004507614
 20
252.350890013619
 30
0.0
 11
329.0867004507617
 21
252.350890013619
 31
0.0
  0
LINE
  5
5A97
330
1A
100
AcDbEntity
  8
NOKITOI
  6
PHANTOM
 62
     8
100
AcDbLine
 10
349.2446004507614
 20
251.150890013619
 30
0.0
 11
329.0867004507617
 21
251.150890013619
 31
0.0
  0
LINE
  5
5A9B
330
1A
100
AcDbEntity
  8
NOKITOI
  6
PHANTOM
 62
     8
100
AcDbLine
 10
364.2810004507614
 20
259.8885900136191
 30
0.0
 11
353.8779004507614
 21
251.3768900136191
 31
0.0
  0
LINE
  5
5A9C
330
1A
100
AcDbEntity
  8
NOKITOI
  6
PHANTOM
 62
     8
100
AcDbLine
 10
363.2967004507618
 20
260.633690013619
 30
0.0
 11
353.3114004507615
 21
252.4638900136188
 31
0.0
  0
ARC
  5
5A9D
330
1A
100
AcDbEntity
  8
NOKITOI
  6
PHANTOM
 62
     8
100
AcDbCircle
 10
352.9948068385101
 20
252.8508922936085
 30
0.0
 40
0.5000022800304047
100
AcDbArc
 50
269.9992680212791
 51
309.2854498596061
  0
ARC
  5
5A9E
330
1A
100
AcDbEntity
  8
NOKITOI
  6
PHANTOM
 62
     8
100
AcDbCircle
 10
353.244593518184
 20
252.1508875386128
 30
0.0
 40
0.9999975250179316
100
AcDbArc
 50
270.0003972084019
 51
309.2946416752287
  0
ARC
  5
5A9F
330
1A
100
AcDbEntity
  8
NOKITOI
  6
PHANTOM
 62
     8
100
AcDbCircle
 10
362.9800830248832
 20
261.020657527231
 30
0.0
 40
0.4999904508696396
100
AcDbArc
 50
309.2900846377951
 51
354.2990110749239
  0
ARC
  5
5AA0
330
1A
100
AcDbEntity
  8
NOKITOI
  6
PHANTOM
 62
     8
100
AcDbCircle
 10
363.6477778778926
 20
260.6625479419463
 30
0.0
 40
0.9999908507640039
100
AcDbArc
 50
309.288709223069
 51
354.286232947753
  0
ARC
  5
5AA8
330
1A
100
AcDbEntity
  8
NOKITOI
  6
PHANTOM
 62
     8
100
AcDbCircle
 10
266.2441130204697
 20
290.8509783888892
 30
0.0
 40
0.5000116248877111
100
AcDbArc
 50
4.47484680834223
 51
90.00144034898383
  0
ARC
  5
5ACE
330
1A
100
AcDbEntity
  8
NOKITOI
  6
PHANTOM
 62
     8
100
AcDbCircle
 10
371.0865695238253
 20
296.1510257582828
 30
0.0
 40
3.99998565374706
100
AcDbArc
 50
358.208696659101
 51
83.52422380468341
  0
LINE
  5
5ACF
330
1A
100
AcDbEntity
  8
NOKITOI
  6
PHANTOM
 62
     8
100
AcDbLine
 10
375.337700450761
 20
304.1259900136188
 30
0.0
 11
375.1884004507615
 21
299.346990013619
 31
0.0
  0
LINE
  5
5AD0
330
1A
100
AcDbEntity
  8
NOKITOI
  6
PHANTOM
 62
     8
100
AcDbLine
 10
370.018000450761
 20
297.850990013619
 30
0.0
 11
369.6140004507615
 21
300.6793900136189
 31
0.0
  0
LINE
  5
5AD1
330
1A
100
AcDbEntity
  8
NOKITOI
  6
PHANTOM
 62
     8
100
AcDbLine
 10
368.0767004507615
 20
297.1246900136189
 30
0.0
 11
367.7609004507612
 21
303.1246900136189
 31
0.0
  0
LINE
  5
5AD2
330
1A
100
AcDbEntity
  8
NOKITOI
  6
PHANTOM
 62
     8
100
AcDbLine
 10
369.2401004507614
 20
297.850990013619
 30
0.0
 11
369.0590004507612
 21
301.2923900136189
 31
0.0
  0
ARC
  5
5AD3
330
1A
100
AcDbEntity
  8
NOKITOI
  6
PHANTOM
 62
     8
100
AcDbCircle
 10
371.0865825844102
 20
296.1509987419989
 30
0.0
 40
5.199991271650611
100
AcDbArc
 50
37.92532860473095
 51
89.99980314072399
  0
ARC
  5
5AD4
330
1A
100
AcDbEntity
  8
NOKITOI
  6
PHANTOM
 62
     8
100
AcDbCircle
 10
371.4813298232611
 20
299.6286202461138
 30
0.0
 40
0.4999578477751074
100
AcDbArc
 50
83.52609071220754
 51
188.1330561712932
  0
LINE
  5
5AD5
330
1A
100
AcDbEntity
  8
NOKITOI
  6
PHANTOM
 62
     8
100
AcDbLine
 10
376.5371004507615
 20
304.0884900136189
 30
0.0
 11
376.1470004507614
 21
291.6040900136189
 31
0.0
  0
LINE
  5
5AD7
330
1A
100
AcDbEntity
  8
NOKITOI
  6
PHANTOM
 62
     8
100
AcDbLine
 10
366.968100450761
 20
291.350990013619
 30
0.0
 11
373.0000004507615
 21
291.350990013619
 31
0.0
  0
LINE
  5
5AD8
330
1A
100
AcDbEntity
  8
NOKITOI
  6
PHANTOM
 62
     8
100
AcDbLine
 10
374.6477004507614
 20
290.150990013619
 30
0.0
 11
368.5066004507616
 21
290.150990013619
 31
0.0
  0
ARC
  5
5ADC
330
1A
100
AcDbEntity
  8
NOKITOI
  6
PHANTOM
 62
     8
100
AcDbCircle
 10
368.5066211006024
 20
289.1510087014681
 30
0.0
 40
0.9999813123640345
100
AcDbArc
 50
90.00118317084911
 51
174.2905900333514
  0
ARC
  5
5ADD
330
1A
100
AcDbEntity
  8
NOKITOI
  6
PHANTOM
 62
     8
100
AcDbCircle
 10
366.9681135217661
 20
290.8510018438988
 30
0.0
 40
0.499988169890889
100
AcDbArc
 50
90.00149786226472
 51
174.2966061377164
  0
LINE
  5
5AE1
330
1A
100
AcDbEntity
  8
NOKITOI
  6
PHANTOM
 62
     8
100
AcDbLine
 10
371.3201004507614
 20
297.2216900136189
 30
0.0
 11
370.9863004507615
 21
299.5578900136191
 31
0.0
  0
ARC
  5
5AE2
330
1A
100
AcDbEntity
  8
NOKITOI
  6
PHANTOM
 62
     8
100
AcDbCircle
 10
370.8251106371976
 20
297.1510017583431
 30
0.0
 40
0.5000117448278309
100
AcDbArc
 50
269.9988327478
 51
8.12731460871532
  0
ARC
  5
5AE3
330
1A
100
AcDbEntity
  8
NOKITOI
  6
PHANTOM
 62
     8
100
AcDbCircle
 10
368.5760045721681
 20
297.1509861035885
 30
0.0
 40
0.4999960899864752
100
AcDbArc
 50
183.014724379174
 51
269.9995277178578
  0
LINE
  5
5AE4
330
1A
100
AcDbEntity
  8
NOKITOI
  6
PHANTOM
 62
     8
100
AcDbLine
 10
368.5760004507615
 20
296.6509900136189
 30
0.0
 11
370.825100450761
 21
296.6509900136189
 31
0.0
  0
LINE
  5
5AE5
330
1A
100
AcDbEntity
  8
NOKITOI
  6
PHANTOM
 62
     8
100
AcDbLine
 10
369.2401004507614
 20
297.850990013619
 30
0.0
 11
370.018000450761
 21
297.850990013619
 31
0.0
  0
LINE
  5
5AE6
330
1A
100
AcDbEntity
  8
NOKITOI
  6
PHANTOM
 62
     8
100
AcDbLine
 10
374.9991004507614
 20
293.288390013619
 30
0.0
 11
375.0846004507611
 21
296.0259900136189
 31
0.0
  0
ARC
  5
5AE7
330
1A
100
AcDbEntity
  8
NOKITOI
  6
PHANTOM
 62
     8
100
AcDbCircle
 10
374.6477176639396
 20
291.6510066967667
 30
0.0
 40
1.500016683246579
100
AcDbArc
 50
269.999342512336
 51
358.2076423244113
  0
ARC
  5
5AE8
330
1A
100
AcDbEntity
  8
NOKITOI
  6
PHANTOM
 62
     8
100
AcDbCircle
 10
373.0000384385857
 20
293.3509268341912
 30
0.0
 40
2.000036820932882
100
AcDbArc
 50
269.9989117490344
 51
358.2110591274195
  0
LINE
  5
5AEA
330
1A
100
AcDbEntity
  8
NOKITOI
  6
PHANTOM
 62
     8
100
AcDbLine
 10
372.5654004507614
 20
302.4509900136191
 30
0.0
 11
369.6288004507614
 21
302.4509900136191
 31
0.0
  0
LINE
  5
5AEB
330
1A
100
AcDbEntity
  8
NOKITOI
  6
PHANTOM
 62
     8
100
AcDbLine
 10
374.5381004507617
 20
306.1508900136189
 30
0.0
 11
371.2115004507613
 21
306.150990013619
 31
0.0
  0
LINE
  5
5AEC
330
1A
100
AcDbEntity
  8
NOKITOI
  6
PHANTOM
 62
     8
100
AcDbLine
 10
370.9820004507614
 20
304.2489900136191
 30
0.0
 11
370.7212004507614
 21
305.552990013619
 31
0.0
  0
ARC
  5
5AED
330
1A
100
AcDbEntity
  8
NOKITOI
  6
PHANTOM
 62
     8
100
AcDbCircle
 10
368.2602041602567
 20
303.1509939236497
 30
0.0
 40
0.4999960899831856
100
AcDbArc
 50
90.00042508014919
 51
183.0156217414647
  0
LINE
  5
5AEE
330
1A
100
AcDbEntity
  8
NOKITOI
  6
PHANTOM
 62
     8
100
AcDbLine
 10
370.6246004507615
 20
301.350990013619
 30
0.0
 11
369.6288004507614
 21
302.4509900136191
 31
0.0
  0
LINE
  5
5AEF
330
1A
100
AcDbEntity
  8
NOKITOI
  6
PHANTOM
 62
     8
100
AcDbLine
 10
370.6246004507615
 20
301.350990013619
 30
0.0
 11
371.0866004507615
 21
301.350990013619
 31
0.0
  0
ARC
  5
5AF0
330
1A
100
AcDbEntity
  8
NOKITOI
  6
PHANTOM
 62
     8
100
AcDbCircle
 10
370.4916996677529
 20
304.1509890586172
 30
0.0
 40
0.4999990449987399
100
AcDbArc
 50
270.0000897263034
 51
11.30328019845509
  0
LINE
  5
5AF1
330
1A
100
AcDbEntity
  8
NOKITOI
  6
PHANTOM
 62
     8
100
AcDbLine
 10
368.2602004507616
 20
303.6509900136189
 30
0.0
 11
370.4917004507615
 21
303.6509900136189
 31
0.0
  0
LINE
  5
5AF2
330
1A
100
AcDbEntity
  8
NOKITOI
  6
PHANTOM
 62
     8
100
AcDbLine
 10
369.6140004507615
 20
300.6793900136189
 30
0.0
 11
369.0590004507612
 21
301.2923900136189
 31
0.0
  0
ARC
  5
5AF3
330
1A
100
AcDbEntity
  8
NOKITOI
  6
PHANTOM
 62
     8
100
AcDbCircle
 10
371.211493196206
 20
305.6509811637755
 30
0.0
 40
0.500008849895925
100
AcDbArc
 50
89.99916870385415
 51
191.3135956695126
  0
ARC
  5
5AF4
330
1A
100
AcDbEntity
  8
NOKITOI
  6
PHANTOM
 62
     8
100
AcDbCircle
 10
374.5380892137673
 20
304.1510016074361
 30
0.0
 40
1.999988406214315
100
AcDbArc
 50
358.2088726535938
 51
89.99967808195389
  0
ARC
  5
5AF5
330
1A
100
AcDbEntity
  8
NOKITOI
  6
PHANTOM
 62
     8
100
AcDbCircle
 10
374.5381444171143
 20
304.150944651146
 30
0.0
 40
0.7999453636812564
100
AcDbArc
 50
358.2123436447881
 51
90.00314907315425
  0
LINE
  5
5AF6
330
1A
100
AcDbEntity
  8
NOKITOI
  6
PHANTOM
 62
     8
100
AcDbLine
 10
372.0654004507614
 20
304.9509900136191
 30
0.0
 11
372.5654004507614
 21
302.4509900136191
 31
0.0
  0
LINE
  5
5AF7
330
1A
100
AcDbEntity
  8
NOKITOI
  6
PHANTOM
 62
     8
100
AcDbLine
 10
374.5381004507617
 20
304.9508900136189
 30
0.0
 11
372.0654004507614
 21
304.9509900136191
 31
0.0
  0
LINE
  5
5F48
330
1A
100
AcDbEntity
  8
NOKITOI
  6
PHANTOM
 62
     8
100
AcDbLine
 10
269.9065004507612
 20
99.72682477521278
 30
0.0
 11
279.8918004507614
 21
91.55702477521264
 31
0.0
  0
LINE
  5
5F49
330
1A
100
AcDbEntity
  8
NOKITOI
  6
PHANTOM
 62
     8
100
AcDbLine
 10
268.9222004507616
 20
98.98172477521292
 30
0.0
 11
279.3253004507615
 21
90.47002477521289
 31
0.0
  0
ARC
  5
5F4A
330
1A
100
AcDbEntity
  8
NOKITOI
  6
PHANTOM
 62
     8
100
AcDbCircle
 10
324.7880166772189
 20
133.2441392515828
 30
0.0
 40
43.00001447645168
100
AcDbArc
 50
270.0001116248562
 51
353.4750892928824
  0
ARC
  5
5F4B
330
1A
100
AcDbEntity
  8
NOKITOI
  6
PHANTOM
 62
     8
100
AcDbCircle
 10
324.7879943687936
 20
133.2441191505564
 30
0.0
 40
41.79999437547816
100
AcDbArc
 50
270.0001454078909
 51
355.5257047874752
  0
LINE
  5
5F4C
330
1A
100
AcDbEntity
  8
NOKITOI
  6
PHANTOM
 62
     8
100
AcDbLine
 10
283.9586004507615
 20
90.24402477521277
 30
0.0
 11
304.1165004507612
 21
90.24402477521277
 31
0.0
  0
LINE
  5
5F4D
330
1A
100
AcDbEntity
  8
NOKITOI
  6
PHANTOM
 62
     8
100
AcDbLine
 10
284.2084004507615
 20
91.44402477521282
 30
0.0
 11
304.1165004507612
 21
91.44402477521282
 31
0.0
  0
LINE
  5
5F4E
330
1A
100
AcDbEntity
  8
NOKITOI
  6
PHANTOM
 62
     8
100
AcDbLine
 10
279.9586004507615
 20
90.24402477521277
 30
0.0
 11
324.7880004507616
 21
90.24412477521275
 31
0.0
  0
LINE
  5
5F4F
330
1A
100
AcDbEntity
  8
NOKITOI
  6
PHANTOM
 62
     8
100
AcDbLine
 10
324.7880004507616
 20
91.4441247752128
 30
0.0
 11
280.2084004507615
 21
91.44402477521282
 31
0.0
  0
ARC
  5
5F50
330
1A
100
AcDbEntity
  8
NOKITOI
  6
PHANTOM
 62
     8
100
AcDbCircle
 10
279.9586073833389
 20
91.24402230020667
 30
0.0
 40
0.9999975250179316
100
AcDbArc
 50
230.7053583247713
 51
269.999602791598
  0
ARC
  5
5F51
330
1A
100
AcDbEntity
  8
NOKITOI
  6
PHANTOM
 62
     8
100
AcDbCircle
 10
280.2083940630128
 20
91.94402705520236
 30
0.0
 40
0.5000022800304047
100
AcDbArc
 50
230.7145501403939
 51
270.0007319787208
  0
LINE
  5
5F58
330
1A
100
AcDbEntity
  8
NOKITOI
  6
PHANTOM
 62
     8
100
AcDbLine
 10
376.5371004507616
 20
143.1816247752127
 30
0.0
 11
376.1469004507617
 21
130.6973247752126
 31
0.0
  0
LINE
  5
5F59
330
1A
100
AcDbEntity
  8
NOKITOI
  6
PHANTOM
 62
     8
100
AcDbLine
 10
369.2401004507615
 20
136.9441247752128
 30
0.0
 11
369.0589004507616
 21
140.3856247752129
 31
0.0
  0
ARC
  5
5F5A
330
1A
100
AcDbEntity
  8
NOKITOI
  6
PHANTOM
 62
     8
100
AcDbCircle
 10
371.0863802380923
 20
135.2441835035928
 30
0.0
 40
5.2000412730095
100
AcDbArc
 50
37.92420092094534
 51
89.9986754569382
  0
LINE
  5
5F5B
330
1A
100
AcDbEntity
  8
NOKITOI
  6
PHANTOM
 62
     8
100
AcDbLine
 10
375.3377004507612
 20
143.2191247752126
 30
0.0
 11
375.1883004507618
 21
138.4402247752128
 31
0.0
  0
ARC
  5
5F5C
330
1A
100
AcDbEntity
  8
NOKITOI
  6
PHANTOM
 62
     8
100
AcDbCircle
 10
371.0864625693149
 20
135.2441685577381
 30
0.0
 40
3.999989731271038
100
AcDbArc
 50
358.2100163932688
 51
83.52268857986723
  0
ARC
  5
5F5D
330
1A
100
AcDbEntity
  8
NOKITOI
  6
PHANTOM
 62
     8
100
AcDbCircle
 10
371.4812862323461
 20
138.7218101409117
 30
0.0
 40
0.5000073448410256
100
AcDbArc
 50
83.52170717003247
 51
188.1270521358762
  0
LINE
  5
5F5E
330
1A
100
AcDbEntity
  8
NOKITOI
  6
PHANTOM
 62
     8
100
AcDbLine
 10
370.0180004507611
 20
136.9441247752128
 30
0.0
 11
369.6139004507614
 21
139.7725247752126
 31
0.0
  0
LINE
  5
5F5F
330
1A
100
AcDbEntity
  8
NOKITOI
  6
PHANTOM
 62
     8
100
AcDbLine
 10
368.0766004507614
 20
136.2179247752127
 30
0.0
 11
367.7608004507616
 21
142.2178247752127
 31
0.0
  0
ARC
  5
5F61
330
1A
100
AcDbEntity
  8
NOKITOI
  6
PHANTOM
 62
     8
100
AcDbCircle
 10
366.9590878810532
 20
129.944113150483
 30
0.0
 40
0.5000116248877111
100
AcDbArc
 50
89.99855965101618
 51
175.5251531916577
  0
ARC
  5
5F62
330
1A
100
AcDbEntity
  8
NOKITOI
  6
PHANTOM
 62
     8
100
AcDbCircle
 10
372.9999868786232
 20
132.4441116201263
 30
0.0
 40
1.999986844959662
100
AcDbArc
 50
270.0003888156784
 51
358.2124468147644
  0
ARC
  5
5F63
330
1A
100
AcDbEntity
  8
NOKITOI
  6
PHANTOM
 62
     8
100
AcDbCircle
 10
374.6476644916107
 20
130.7440899210695
 30
0.0
 40
1.499965146287778
100
AcDbArc
 50
270.0013735703027
 51
358.2133719782233
  0
LINE
  5
5F64
330
1A
100
AcDbEntity
  8
NOKITOI
  6
PHANTOM
 62
     8
100
AcDbLine
 10
374.9990004507618
 20
132.3817247752127
 30
0.0
 11
375.0845004507615
 21
135.1192247752127
 31
0.0
  0
ARC
  5
5F67
330
1A
100
AcDbEntity
  8
NOKITOI
  6
PHANTOM
 62
     8
100
AcDbCircle
 10
368.5760073377565
 20
136.2441182401272
 30
0.0
 40
0.499993464961963
100
AcDbArc
 50
183.0029638682579
 51
269.999210798213
  0
LINE
  5
5F68
330
1A
100
AcDbEntity
  8
NOKITOI
  6
PHANTOM
 62
     8
100
AcDbLine
 10
369.2401004507615
 20
136.9441247752128
 30
0.0
 11
370.0180004507611
 21
136.9441247752128
 31
0.0
  0
ARC
  5
5F69
330
1A
100
AcDbEntity
  8
NOKITOI
  6
PHANTOM
 62
     8
100
AcDbCircle
 10
370.8250738501638
 20
136.2440940983307
 30
0.0
 40
0.4999693238254178
100
AcDbArc
 50
270.0030483909627
 51
8.144496122947039
  0
LINE
  5
5F6A
330
1A
100
AcDbEntity
  8
NOKITOI
  6
PHANTOM
 62
     8
100
AcDbLine
 10
368.5760004507616
 20
135.7441247752127
 30
0.0
 11
370.8251004507616
 21
135.7441247752127
 31
0.0
  0
LINE
  5
5F6B
330
1A
100
AcDbEntity
  8
NOKITOI
  6
PHANTOM
 62
     8
100
AcDbLine
 10
371.3200004507617
 20
136.3149247752129
 30
0.0
 11
370.9863004507616
 21
138.6511247752129
 31
0.0
  0
LINE
  5
5F6C
330
1A
100
AcDbEntity
  8
NOKITOI
  6
PHANTOM
 62
     8
100
AcDbLine
 10
374.6477004507616
 20
129.2441247752127
 30
0.0
 11
368.5030004507617
 21
129.2441247752127
 31
0.0
  0
LINE
  5
5F6D
330
1A
100
AcDbEntity
  8
NOKITOI
  6
PHANTOM
 62
     8
100
AcDbLine
 10
366.9591004507612
 20
130.4441247752128
 30
0.0
 11
373.0000004507616
 21
130.4441247752128
 31
0.0
  0
ARC
  5
5F6E
330
1A
100
AcDbEntity
  8
NOKITOI
  6
PHANTOM
 62
     8
100
AcDbCircle
 10
368.5030088749241
 20
128.2441322902692
 30
0.0
 40
0.9999924849789756
100
AcDbArc
 50
90.00048267258872
 51
173.471735393326
  0
ARC
  5
5F71
330
1A
100
AcDbEntity
  8
NOKITOI
  6
PHANTOM
 62
     8
100
AcDbCircle
 10
374.5380959559635
 20
143.2441294127396
 30
0.0
 40
0.7999953624857498
100
AcDbArc
 50
358.2088726535806
 51
89.99967808194737
  0
ARC
  5
5F72
330
1A
100
AcDbEntity
  8
NOKITOI
  6
PHANTOM
 62
     8
100
AcDbCircle
 10
374.5380876999116
 20
143.2441379302991
 30
0.0
 40
1.999986844954076
100
AcDbArc
 50
358.2116927117295
 51
89.99963471264713
  0
ARC
  5
5F74
330
1A
100
AcDbEntity
  8
NOKITOI
  6
PHANTOM
 62
     8
100
AcDbCircle
 10
371.21150123377
 20
144.7441257302144
 30
0.0
 40
0.4999990449987349
100
AcDbArc
 50
90.0000897263067
 51
191.3032801984551
  0
LINE
  5
5F75
330
1A
100
AcDbEntity
  8
NOKITOI
  6
PHANTOM
 62
     8
100
AcDbLine
 10
374.5381004507618
 20
145.2441247752127
 30
0.0
 11
371.2115004507615
 21
145.2441247752127
 31
0.0
  0
LINE
  5
5F76
330
1A
100
AcDbEntity
  8
NOKITOI
  6
PHANTOM
 62
     8
100
AcDbLine
 10
368.2602004507617
 20
142.7441247752127
 30
0.0
 11
370.4917004507616
 21
142.7441247752127
 31
0.0
  0
LINE
  5
5F77
330
1A
100
AcDbEntity
  8
NOKITOI
  6
PHANTOM
 62
     8
100
AcDbLine
 10
369.6139004507614
 20
139.7725247752126
 30
0.0
 11
369.0589004507616
 21
140.3856247752129
 31
0.0
  0
ARC
  5
5F78
330
1A
100
AcDbEntity
  8
NOKITOI
  6
PHANTOM
 62
     8
100
AcDbCircle
 10
370.491707705317
 20
143.2441336250561
 30
0.0
 40
0.5000088498959383
100
AcDbArc
 50
269.9991687038574
 51
11.31359566951083
  0
LINE
  5
5F79
330
1A
100
AcDbEntity
  8
NOKITOI
  6
PHANTOM
 62
     8
100
AcDbLine
 10
370.6246004507612
 20
140.4441247752127
 30
0.0
 11
371.0865004507614
 21
140.4441247752127
 31
0.0
  0
LINE
  5
5F7A
330
1A
100
AcDbEntity
  8
NOKITOI
  6
PHANTOM
 62
     8
100
AcDbLine
 10
370.6246004507612
 20
140.4441247752127
 30
0.0
 11
369.6288004507615
 21
141.5441247752129
 31
0.0
  0
LINE
  5
5F7B
330
1A
100
AcDbEntity
  8
NOKITOI
  6
PHANTOM
 62
     8
100
AcDbLine
 10
372.0653004507613
 20
144.0441247752129
 30
0.0
 11
372.5653004507613
 21
141.5441247752129
 31
0.0
  0
LINE
  5
5F7C
330
1A
100
AcDbEntity
  8
NOKITOI
  6
PHANTOM
 62
     8
100
AcDbLine
 10
374.5381004507618
 20
144.0441247752129
 30
0.0
 11
372.0653004507613
 21
144.0441247752129
 31
0.0
  0
LINE
  5
5F7D
330
1A
100
AcDbEntity
  8
NOKITOI
  6
PHANTOM
 62
     8
100
AcDbLine
 10
372.5653004507613
 20
141.5441247752129
 30
0.0
 11
369.6288004507615
 21
141.5441247752129
 31
0.0
  0
LINE
  5
5F7E
330
1A
100
AcDbEntity
  8
NOKITOI
  6
PHANTOM
 62
     8
100
AcDbLine
 10
370.9820004507615
 20
143.3422247752126
 30
0.0
 11
370.7212004507615
 21
144.6461247752127
 31
0.0
  0
ARC
  5
5F7F
330
1A
100
AcDbEntity
  8
NOKITOI
  6
PHANTOM
 62
     8
100
AcDbCircle
 10
368.2602066519194
 20
142.244131310298
 30
0.0
 40
0.4999934649531607
100
AcDbArc
 50
90.00071060961758
 51
183.0044636796624
  0
LINE
  5
5F8D
330
1A
100
AcDbEntity
  8
NOKITOI
  6
PHANTOM
 62
     8
100
AcDbLine
 10
265.6916004507612
 20
128.3436247752127
 30
0.0
 11
268.5604004507614
 21
99.65622477521277
 31
0.0
  0
LINE
  5
5F8E
330
1A
100
AcDbEntity
  8
NOKITOI
  6
PHANTOM
 62
     8
100
AcDbLine
 10
266.7326004507614
 20
129.9939247752128
 30
0.0
 11
269.7256004507618
 21
100.0641247752126
 31
0.0
  0
ARC
  5
5F96
330
1A
100
AcDbEntity
  8
NOKITOI
  6
PHANTOM
 62
     8
100
AcDbCircle
 10
269.5554230236303
 20
99.75568270354017
 30
0.0
 40
0.9999908507640039
100
AcDbArc
 50
185.713767052247
 51
230.7112907769309
  0
ARC
  5
5F97
330
1A
100
AcDbEntity
  8
NOKITOI
  6
PHANTOM
 62
     8
100
AcDbCircle
 10
270.2231178766397
 20
100.1137922888248
 30
0.0
 40
0.4999904508696396
100
AcDbArc
 50
185.700988925076
 51
230.7099153622048
  0
LINE
  5
5FB3
330
1A
100
AcDbEntity
  8
NOKITOI
  6
PHANTOM
 62
     8
100
AcDbLine
 10
256.6661004507615
 20
143.1816247752127
 30
0.0
 11
257.0562004507615
 21
130.6972247752127
 31
0.0
  0
ARC
  5
5FB4
330
1A
100
AcDbEntity
  8
NOKITOI
  6
PHANTOM
 62
     8
100
AcDbCircle
 10
261.7218710782618
 20
138.7217550077076
 30
0.0
 40
0.4999578477751074
100
AcDbArc
 50
351.8669438287067
 51
96.47390928779245
  0
ARC
  5
5FB5
330
1A
100
AcDbEntity
  8
NOKITOI
  6
PHANTOM
 62
     8
100
AcDbCircle
 10
262.1166183171127
 20
135.2441335035927
 30
0.0
 40
5.199991271650611
100
AcDbArc
 50
90.00019685927602
 51
142.074671395269
  0
LINE
  5
5FB6
330
1A
100
AcDbEntity
  8
NOKITOI
  6
PHANTOM
 62
     8
100
AcDbLine
 10
263.9631004507615
 20
136.9441247752128
 30
0.0
 11
264.1442004507617
 21
140.3855247752127
 31
0.0
  0
LINE
  5
5FB7
330
1A
100
AcDbEntity
  8
NOKITOI
  6
PHANTOM
 62
     8
100
AcDbLine
 10
265.1265004507614
 20
136.2178247752127
 30
0.0
 11
265.4423004507617
 21
142.2178247752127
 31
0.0
  0
LINE
  5
5FB8
330
1A
100
AcDbEntity
  8
NOKITOI
  6
PHANTOM
 62
     8
100
AcDbLine
 10
263.1852004507619
 20
136.9441247752128
 30
0.0
 11
263.5892004507614
 21
139.7725247752126
 31
0.0
  0
LINE
  5
5FB9
330
1A
100
AcDbEntity
  8
NOKITOI
  6
PHANTOM
 62
     8
100
AcDbLine
 10
257.8655004507619
 20
143.2191247752126
 30
0.0
 11
258.0148004507615
 21
138.4401247752129
 31
0.0
  0
ARC
  5
5FBA
330
1A
100
AcDbEntity
  8
NOKITOI
  6
PHANTOM
 62
     8
100
AcDbCircle
 10
262.1166313776976
 20
135.2441605198765
 30
0.0
 40
3.99998565374706
100
AcDbArc
 50
96.47577619531659
 51
181.791303340899
  0
ARC
  5
5FC0
330
1A
100
AcDbEntity
  8
NOKITOI
  6
PHANTOM
 62
     8
100
AcDbCircle
 10
260.2031624629372
 20
132.444061595785
 30
0.0
 40
2.000036820932882
100
AcDbArc
 50
181.7889408725805
 51
270.0010882509654
  0
LINE
  5
5FC1
330
1A
100
AcDbEntity
  8
NOKITOI
  6
PHANTOM
 62
     8
100
AcDbLine
 10
258.5555004507615
 20
129.2441247752127
 30
0.0
 11
264.6966004507613
 21
129.2441247752127
 31
0.0
  0
LINE
  5
5FC7
330
1A
100
AcDbEntity
  8
NOKITOI
  6
PHANTOM
 62
     8
100
AcDbLine
 10
263.9631004507615
 20
136.9441247752128
 30
0.0
 11
263.1852004507619
 21
136.9441247752128
 31
0.0
  0
LINE
  5
5FC8
330
1A
100
AcDbEntity
  8
NOKITOI
  6
PHANTOM
 62
     8
100
AcDbLine
 10
264.6272004507614
 20
135.7441247752127
 30
0.0
 11
262.3781004507619
 21
135.7441247752127
 31
0.0
  0
ARC
  5
5FC9
330
1A
100
AcDbEntity
  8
NOKITOI
  6
PHANTOM
 62
     8
100
AcDbCircle
 10
264.6271963293548
 20
136.2441208651822
 30
0.0
 40
0.4999960899864752
100
AcDbArc
 50
270.0004722821422
 51
356.9852756208259
  0
ARC
  5
5FCA
330
1A
100
AcDbEntity
  8
NOKITOI
  6
PHANTOM
 62
     8
100
AcDbCircle
 10
262.3780902643253
 20
136.2441365199368
 30
0.0
 40
0.5000117448278309
100
AcDbArc
 50
171.8726853912846
 51
270.0011672521999
  0
LINE
  5
5FCB
330
1A
100
AcDbEntity
  8
NOKITOI
  6
PHANTOM
 62
     8
100
AcDbLine
 10
261.8831004507616
 20
136.3148247752127
 30
0.0
 11
262.2169004507615
 21
138.6510247752129
 31
0.0
  0
ARC
  5
5FCC
330
1A
100
AcDbEntity
  8
NOKITOI
  6
PHANTOM
 62
     8
100
AcDbCircle
 10
266.2350873797569
 20
129.9441366054926
 30
0.0
 40
0.499988169890889
100
AcDbArc
 50
5.703393862283578
 51
89.99850213773529
  0
ARC
  5
5FCD
330
1A
100
AcDbEntity
  8
NOKITOI
  6
PHANTOM
 62
     8
100
AcDbCircle
 10
264.6965798009206
 20
128.2441434630619
 30
0.0
 40
0.9999813123640345
100
AcDbArc
 50
5.709409966648592
 51
89.9988168291509
  0
LINE
  5
5FCE
330
1A
100
AcDbEntity
  8
NOKITOI
  6
PHANTOM
 62
     8
100
AcDbLine
 10
266.2351004507619
 20
130.4441247752128
 30
0.0
 11
260.2032004507615
 21
130.4441247752128
 31
0.0
  0
ARC
  5
5FD0
330
1A
100
AcDbEntity
  8
NOKITOI
  6
PHANTOM
 62
     8
100
AcDbCircle
 10
258.5554832375834
 20
130.7441414583605
 30
0.0
 40
1.500016683246579
100
AcDbArc
 50
181.7923576755886
 51
270.0006574876639
  0
LINE
  5
5FD1
330
1A
100
AcDbEntity
  8
NOKITOI
  6
PHANTOM
 62
     8
100
AcDbLine
 10
258.2041004507615
 20
132.3815247752128
 30
0.0
 11
258.1186004507618
 21
135.1191247752127
 31
0.0
  0
LINE
  5
5FD5
330
1A
100
AcDbEntity
  8
NOKITOI
  6
PHANTOM
 62
     8
100
AcDbLine
 10
258.6651004507613
 20
144.0440247752127
 30
0.0
 11
261.1378004507615
 21
144.0441247752129
 31
0.0
  0
LINE
  5
5FD6
330
1A
100
AcDbEntity
  8
NOKITOI
  6
PHANTOM
 62
     8
100
AcDbLine
 10
258.6651004507613
 20
145.2440247752127
 30
0.0
 11
261.9917004507616
 21
145.2441247752127
 31
0.0
  0
LINE
  5
5FD7
330
1A
100
AcDbEntity
  8
NOKITOI
  6
PHANTOM
 62
     8
100
AcDbLine
 10
261.1378004507615
 20
144.0441247752129
 30
0.0
 11
260.6378004507615
 21
141.5441247752129
 31
0.0
  0
ARC
  5
5FD8
330
1A
100
AcDbEntity
  8
NOKITOI
  6
PHANTOM
 62
     8
100
AcDbCircle
 10
261.991707705317
 20
144.7441159253693
 30
0.0
 40
0.500008849895925
100
AcDbArc
 50
348.6864043304874
 51
90.00083129614585
  0
LINE
  5
5FD9
330
1A
100
AcDbEntity
  8
NOKITOI
  6
PHANTOM
 62
     8
100
AcDbLine
 10
263.5892004507614
 20
139.7725247752126
 30
0.0
 11
264.1442004507617
 21
140.3855247752127
 31
0.0
  0
LINE
  5
5FDA
330
1A
100
AcDbEntity
  8
NOKITOI
  6
PHANTOM
 62
     8
100
AcDbLine
 10
264.9430004507613
 20
142.7441247752127
 30
0.0
 11
262.7115004507615
 21
142.7441247752127
 31
0.0
  0
ARC
  5
5FDB
330
1A
100
AcDbEntity
  8
NOKITOI
  6
PHANTOM
 62
     8
100
AcDbCircle
 10
262.71150123377
 20
143.244123820211
 30
0.0
 40
0.4999990449987399
100
AcDbArc
 50
168.6967198015449
 51
269.9999102736965
  0
LINE
  5
5FDC
330
1A
100
AcDbEntity
  8
NOKITOI
  6
PHANTOM
 62
     8
100
AcDbLine
 10
262.5786004507614
 20
140.4441247752127
 30
0.0
 11
262.1166004507614
 21
140.4441247752127
 31
0.0
  0
LINE
  5
5FDD
330
1A
100
AcDbEntity
  8
NOKITOI
  6
PHANTOM
 62
     8
100
AcDbLine
 10
262.5786004507614
 20
140.4441247752127
 30
0.0
 11
263.5744004507615
 21
141.5441247752129
 31
0.0
  0
ARC
  5
5FDE
330
1A
100
AcDbEntity
  8
NOKITOI
  6
PHANTOM
 62
     8
100
AcDbCircle
 10
264.9429967412662
 20
142.2441286852434
 30
0.0
 40
0.4999960899831856
100
AcDbArc
 50
356.9843782585352
 51
89.99957491985082
  0
LINE
  5
5FDF
330
1A
100
AcDbEntity
  8
NOKITOI
  6
PHANTOM
 62
     8
100
AcDbLine
 10
262.2212004507615
 20
143.3421247752129
 30
0.0
 11
262.4820004507615
 21
144.6461247752127
 31
0.0
  0
LINE
  5
5FE0
330
1A
100
AcDbEntity
  8
NOKITOI
  6
PHANTOM
 62
     8
100
AcDbLine
 10
260.6378004507615
 20
141.5441247752129
 30
0.0
 11
263.5744004507615
 21
141.5441247752129
 31
0.0
  0
ARC
  5
5FE2
330
1A
100
AcDbEntity
  8
NOKITOI
  6
PHANTOM
 62
     8
100
AcDbCircle
 10
258.6650564844086
 20
143.2440794127397
 30
0.0
 40
0.7999453636812564
100
AcDbArc
 50
89.99685092684577
 51
181.7876563552118
  0
ARC
  5
5FE3
330
1A
100
AcDbEntity
  8
NOKITOI
  6
PHANTOM
 62
     8
100
AcDbCircle
 10
258.6651116877557
 20
143.2441363690298
 30
0.0
 40
1.999988406214315
100
AcDbArc
 50
90.00032191804612
 51
181.7911273464062
  0
LINE
  5
6F3E
330
1A
100
AcDbEntity
  8
CENTER_L
100
AcDbLine
 10
406.7439975621709
 20
456.3359015458916
 30
0.0
 11
255.875358562171
 21
456.3359015458916
 31
0.0
  0
LINE
  5
6F3F
330
1A
100
AcDbEntity
  8
SEIHIN
100
AcDbLine
 10
400.744000562171
 20
448.8462555458916
 30
0.0
 11
308.8002145621709
 21
448.8459855458916
 31
0.0
  0
LINE
  5
6F40
330
1A
100
AcDbEntity
  8
SEIHIN
100
AcDbLine
 10
400.743994562171
 20
463.8462555458916
 30
0.0
 11
308.800350562171
 21
463.8459855458917
 31
0.0
  0
LINE
  5
6F41
330
1A
100
AcDbEntity
  8
SEIHIN
100
AcDbLine
 10
389.0598625621709
 20
451.3462195458917
 30
0.0
 11
319.2176105621709
 21
451.3462195458917
 31
0.0
  0
LINE
  5
6F42
330
1A
100
AcDbEntity
  8
SEIHIN
100
AcDbLine
 10
389.0591185621709
 20
461.3462195458916
 30
0.0
 11
319.2176105621709
 21
461.3462195458916
 31
0.0
  0
LINE
  5
6F43
330
1A
100
AcDbEntity
  8
SEIHIN
100
AcDbLine
 10
362.1635499275336
 20
156.3203034752127
 30
0.0
 11
379.2115809275336
 21
162.9912714752127
 31
0.0
  0
LINE
  5
6F44
330
1A
100
AcDbEntity
  8
SEIHIN
100
AcDbLine
 10
380.3047789275336
 20
160.1975434752128
 30
0.0
 11
362.9234819275335
 21
153.3961654752127
 31
0.0
  0
ARC
  5
6F45
330
1A
100
AcDbEntity
  8
SEIHIN
100
AcDbCircle
 10
372.6714709275337
 20
142.5716264752127
 30
0.0
 40
6.999999905160891
100
AcDbArc
 50
358.2105332175278
 51
98.0636774698533
  0
ARC
  5
6F46
330
1A
100
AcDbEntity
  8
SEIHIN
100
AcDbCircle
 10
372.6714709275337
 20
142.5716264752127
 30
0.0
 40
4.99999999040965
100
AcDbArc
 50
358.2105332175278
 51
98.06367557684319
  0
LINE
  5
6F47
330
1A
100
AcDbEntity
  8
SEIHIN
100
AcDbLine
 10
376.6995579275336
 20
128.4326954752127
 30
0.0
 11
369.5877509275336
 21
129.1174764752128
 31
0.0
  0
ARC
  5
6F48
330
1A
100
AcDbEntity
  8
SEIHIN
100
AcDbCircle
 10
376.7474809275337
 20
128.9303934752127
 30
0.0
 40
2.50000021673958
100
AcDbArc
 50
264.5000418283991
 51
358.2104961264324
  0
LINE
  5
6F49
330
1A
100
AcDbEntity
  8
SEIHIN
100
AcDbLine
 10
361.5302739275335
 20
158.7570834752127
 30
0.0
 11
378.3011978923886
 21
165.3196190266857
 31
0.0
  0
LINE
  5
6F53
330
1A
100
AcDbEntity
  8
SEIHIN
100
AcDbLine
 10
317.7215759275337
 20
161.3186174752128
 30
0.0
 11
309.6173279275336
 21
138.3565824752128
 31
0.0
  0
LINE
  5
6F54
330
1A
100
AcDbEntity
  8
SEIHIN
100
AcDbLine
 10
314.4970929275335
 20
153.6848964752127
 30
0.0
 11
309.1458329275336
 21
138.5229924752127
 31
0.0
  0
LINE
  5
6F55
330
1A
100
AcDbEntity
  8
SEIHIN
100
AcDbLine
 10
318.6645669275336
 20
160.9857974752127
 30
0.0
 11
310.5035199275336
 21
137.8628324752127
 31
0.0
  0
LINE
  5
6F56
330
1A
100
AcDbEntity
  8
SEIHIN
100
AcDbLine
 10
314.7043579275335
 20
148.2628944752128
 30
0.0
 11
308.1585969275337
 21
129.7165724752127
 31
0.0
  0
LINE
  5
6F57
330
1A
100
AcDbEntity
  8
SEIHIN
100
AcDbLine
 10
317.0618339275337
 20
147.4308444752127
 30
0.0
 11
310.8097379275335
 21
129.7165724752127
 31
0.0
  0
LINE
  5
6F58
330
1A
100
AcDbEntity
  8
SEIHIN
100
AcDbLine
 10
297.6181149275335
 20
124.7165724752127
 30
0.0
 11
334.7206419275336
 21
124.7165724752127
 31
0.0
  0
LINE
  5
6F59
330
1A
100
AcDbEntity
  8
SEIHIN
100
AcDbLine
 10
297.6181319275336
 20
129.7165724752127
 30
0.0
 11
334.7206419275336
 21
129.7165724752127
 31
0.0
  0
LINE
  5
6F5A
330
1A
100
AcDbEntity
  8
SEIHIN
100
AcDbLine
 10
264.0632899275336
 20
131.5062574752128
 30
0.0
 11
264.0632899275336
 21
130.5062574752128
 31
0.0
  0
LINE
  5
6F5B
330
1A
100
AcDbEntity
  8
SEIHIN
100
AcDbLine
 10
266.9252619275336
 20
131.5062574752128
 30
0.0
 11
266.9252619275336
 21
130.5062574752128
 31
0.0
  0
ARC
  5
6F5C
330
1A
100
AcDbEntity
  8
SEIHIN
100
AcDbCircle
 10
267.4755539275337
 20
130.0062574752128
 30
0.0
 40
1.499999818375477
100
AcDbArc
 50
4.583278706660171
 51
90.0
  0
ARC
  5
6F5D
330
1A
100
AcDbEntity
  8
SEIHIN
100
AcDbCircle
 10
262.3222659275337
 20
132.5062574752128
 30
0.0
 40
2.000000158243612
100
AcDbArc
 50
175.5000039676397
 51
269.9999977523173
  0
LINE
  5
6F5E
330
1A
100
AcDbEntity
  8
SEIHIN
100
AcDbLine
 10
276.6180569275337
 20
135.5166114752128
 30
0.0
 11
276.6180569275337
 21
128.0166114752128
 31
0.0
  0
LINE
  5
6F5F
330
1A
100
AcDbEntity
  8
SEIHIN
100
AcDbLine
 10
274.6181069275336
 20
122.7166554752127
 30
0.0
 11
274.6181569275337
 21
136.7166124752128
 31
0.0
  0
LINE
  5
6F60
330
1A
100
AcDbEntity
  8
SEIHIN
100
AcDbLine
 10
280.1180569275337
 20
135.5166144752128
 30
0.0
 11
280.1180569275337
 21
128.0166144752127
 31
0.0
  0
LINE
  5
6F61
330
1A
100
AcDbEntity
  8
SEIHIN
100
AcDbLine
 10
279.8680569275337
 20
135.2165794752127
 30
0.0
 11
279.8680569275337
 21
128.0166144752127
 31
0.0
  0
LINE
  5
6F62
330
1A
100
AcDbEntity
  8
SEIHIN
100
AcDbLine
 10
297.6181069275336
 20
122.7166554752127
 30
0.0
 11
297.6181569275337
 21
136.7166144752127
 31
0.0
  0
LINE
  5
6F63
330
1A
100
AcDbEntity
  8
SEIHIN
100
AcDbLine
 10
276.8680569275337
 20
128.0166144752127
 30
0.0
 11
276.8680569275337
 21
135.2165794752127
 31
0.0
  0
LINE
  5
6F64
330
1A
100
AcDbEntity
  8
SEIHIN
100
AcDbLine
 10
276.6180569275337
 20
128.0166114752128
 30
0.0
 11
280.1180569275337
 21
128.0166144752127
 31
0.0
  0
LINE
  5
6F65
330
1A
100
AcDbEntity
  8
SEIHIN
100
AcDbLine
 10
274.6181069275336
 20
122.7166554752127
 30
0.0
 11
297.6181069275336
 21
122.7166554752127
 31
0.0
  0
LINE
  5
6F66
330
1A
100
AcDbEntity
  8
SEIHIN
100
AcDbLine
 10
268.5515569275336
 20
129.7165724752127
 30
0.0
 11
274.6181319275336
 21
129.7165724752127
 31
0.0
  0
ARC
  5
6F67
330
1A
100
AcDbEntity
  8
SEIHIN
100
AcDbCircle
 10
269.9882989275337
 20
126.2165724752127
 30
0.0
 40
1.500000051426164
100
AcDbArc
 50
190.3932883742413
 51
269.9999965545381
  0
LINE
  5
6F68
330
1A
100
AcDbEntity
  8
SEIHIN
100
AcDbLine
 10
262.3222659275337
 20
130.5062574752128
 30
0.0
 11
267.4755539275337
 21
130.5062574752128
 31
0.0
  0
ARC
  5
6F69
330
1A
100
AcDbEntity
  8
SEIHIN
100
AcDbCircle
 10
308.6434819275335
 20
133.3064484752128
 30
0.0
 40
39.79999425007106
100
AcDbArc
 50
184.5832787066593
 51
185.1750064315923
  0
ARC
  5
6F6A
330
1A
100
AcDbEntity
  8
SEIHIN
100
AcDbCircle
 10
268.5515569275336
 20
129.2165724752127
 30
0.0
 40
0.4999997593863843
100
AcDbArc
 50
89.99999418527593
 51
185.8247471985338
  0
ARC
  5
6F6B
330
1A
100
AcDbEntity
  8
SEIHIN
100
AcDbCircle
 10
267.4755539275337
 20
130.0062574752128
 30
0.0
 40
0.4999999394584927
100
AcDbArc
 50
4.583221594081382
 51
89.99994288741406
  0
ARC
  5
6F6C
330
1A
100
AcDbEntity
  8
SEIHIN
100
AcDbCircle
 10
308.6434819275335
 20
133.3064484752128
 30
0.0
 40
40.79999412073524
100
AcDbArc
 50
184.5832787066593
 51
190.3933058531252
  0
LINE
  5
6F6D
330
1A
100
AcDbEntity
  8
SEIHIN
100
AcDbLine
 10
269.9882989275337
 20
124.7165724752127
 30
0.0
 11
274.6181149275336
 21
124.7165724752127
 31
0.0
  0
LINE
  5
6F6E
330
1A
100
AcDbEntity
  8
SEIHIN
100
AcDbLine
 10
274.6181069275336
 20
130.7166554752128
 30
0.0
 11
276.6180319275337
 21
130.7166554752128
 31
0.0
  0
LINE
  5
6F6F
330
1A
100
AcDbEntity
  8
SEIHIN
100
AcDbLine
 10
280.1180319275337
 20
130.7166554752128
 30
0.0
 11
297.6181069275336
 21
130.7166554752128
 31
0.0
  0
LINE
  5
6F70
330
1A
100
AcDbEntity
  8
SEIHIN
100
AcDbLine
 10
276.6180569275337
 20
135.5166114752128
 30
0.0
 11
280.1180569275337
 21
135.5166144752128
 31
0.0
  0
LINE
  5
6F71
330
1A
100
AcDbEntity
  8
SEIHIN
100
AcDbLine
 10
279.8680569275337
 20
135.2165794752127
 30
0.0
 11
276.8680569275337
 21
135.2165794752127
 31
0.0
  0
ARC
  5
6F72
330
1A
100
AcDbEntity
  8
SEIHIN
100
AcDbCircle
 10
286.1181589275337
 20
125.9917444752127
 30
0.0
 40
15.72491078112709
100
AcDbArc
 50
43.00252833503147
 51
136.9974830730985
  0
LINE
  5
6F73
330
1A
100
AcDbEntity
  8
SEIHIN
100
AcDbLine
 10
261.3253489275336
 20
132.5847164752128
 30
0.0
 11
261.7856669275337
 21
138.4336104752127
 31
0.0
  0
LINE
  5
6F74
330
1A
100
AcDbEntity
  8
SEIHIN
100
AcDbLine
 10
261.7856669275337
 20
138.4336104752127
 30
0.0
 11
260.7887489275336
 21
138.5120694752127
 31
0.0
  0
LINE
  5
6F75
330
1A
100
AcDbEntity
  8
SEIHIN
100
AcDbLine
 10
261.3953489275337
 20
133.4741484752128
 30
0.0
 11
263.3632389275336
 21
131.5062574752128
 31
0.0
  0
ARC
  5
6F76
330
1A
100
AcDbEntity
  8
SEIHIN
100
AcDbCircle
 10
262.3222659275337
 20
132.5062574752128
 30
0.0
 40
0.999999829892471
100
AcDbArc
 50
175.5000039676389
 51
270.0
  0
LINE
  5
6F77
330
1A
100
AcDbEntity
  8
SEIHIN
100
AcDbLine
 10
260.3284319275336
 20
132.6631754752127
 30
0.0
 11
260.7887489275336
 21
138.5120694752127
 31
0.0
  0
LINE
  5
6F78
330
1A
100
AcDbEntity
  8
SEIHIN
100
AcDbLine
 10
267.4755539275337
 20
131.5062574752128
 30
0.0
 11
262.3222659275337
 21
131.5062574752128
 31
0.0
  0
LINE
  5
6F79
330
1A
100
AcDbEntity
  8
SEIHIN
100
AcDbLine
 10
295.9213779275336
 20
142.0632594752128
 30
0.0
 11
280.3600959275337
 21
142.0632384752128
 31
0.0
  0
CIRCLE
  5
6F7A
330
1A
100
AcDbEntity
  8
SEIHIN
100
AcDbCircle
 10
286.1181769275336
 20
136.7166144752127
 30
0.0
 40
2.149999999999999
  0
LINE
  5
6F7B
330
1A
100
AcDbEntity
  8
SEIHIN
100
AcDbLine
 10
280.3601029275336
 20
141.0632544752127
 30
0.0
 11
280.3600959275337
 21
142.0632384752128
 31
0.0
  0
LINE
  5
6F7C
330
1A
100
AcDbEntity
  8
SEIHIN
100
AcDbLine
 10
281.3381289275336
 20
141.0632554752127
 30
0.0
 11
280.3601029275336
 21
141.0632544752127
 31
0.0
  0
LINE
  5
6F7D
330
1A
100
AcDbEntity
  8
SEIHIN
100
AcDbLine
 10
306.4378439275336
 20
137.4162924752128
 30
0.0
 11
296.7588709275336
 21
141.8794674752127
 31
0.0
  0
LINE
  5
6F7E
330
1A
100
AcDbEntity
  8
SEIHIN
100
AcDbLine
 10
307.6745479275335
 20
135.8612924752127
 30
0.0
 11
297.5915429275336
 21
135.8612944752127
 31
0.0
  0
ARC
  5
6F7F
330
1A
100
AcDbEntity
  8
SEIHIN
100
AcDbCircle
 10
295.9213809275337
 20
140.0632594752128
 30
0.0
 40
1.999999844935612
100
AcDbArc
 50
65.24462387884947
 51
90.00010203811193
  0
ARC
  5
6F80
330
1A
100
AcDbEntity
  8
SEIHIN
100
AcDbCircle
 10
307.6745489275336
 20
138.8612924752127
 30
0.0
 40
2.999999940870082
100
AcDbArc
 50
269.9999883784531
 51
340.5599599066715
  0
ARC
  5
6F81
330
1A
100
AcDbEntity
  8
SEIHIN
100
AcDbCircle
 10
307.7313479275336
 20
139.0222224752128
 30
0.0
 40
2.00000009820312
100
AcDbArc
 50
245.2446238788494
 51
340.5599821720822
  0
ARC
  5
6F82
330
1A
100
AcDbEntity
  8
SEIHIN
100
AcDbCircle
 10
307.2753349275336
 20
139.2324994752128
 30
0.0
 40
2.00000009820312
100
AcDbArc
 50
245.2446238788494
 51
340.5599821720822
  0
LINE
  5
6F83
330
1A
100
AcDbEntity
  8
SEIHIN
100
AcDbLine
 10
355.2775419275336
 20
145.0011994752127
 30
0.0
 11
348.6820359275335
 21
126.2842224752128
 31
0.0
  0
LINE
  5
6F84
330
1A
100
AcDbEntity
  8
SEIHIN
100
AcDbLine
 10
357.1638539275337
 20
144.3364984752128
 30
0.0
 11
350.5683479275336
 21
125.6195214752127
 31
0.0
  0
LINE
  5
6F85
330
1A
100
AcDbEntity
  8
SEIHIN
100
AcDbLine
 10
320.0853839275335
 20
147.0063144752127
 30
0.0
 11
313.9928079275335
 21
129.7165724752127
 31
0.0
  0
LINE
  5
6F86
330
1A
100
AcDbEntity
  8
SEIHIN
100
AcDbLine
 10
339.7119159275336
 20
127.2165724752127
 30
0.0
 11
344.2827719275336
 21
127.2165724752127
 31
0.0
  0
LINE
  5
6F87
330
1A
100
AcDbEntity
  8
SEIHIN
100
AcDbLine
 10
338.4447419275337
 20
122.2165724752127
 30
0.0
 11
348.2827719275336
 21
122.2165724752127
 31
0.0
  0
LINE
  5
6F88
330
1A
100
AcDbEntity
  8
SEIHIN
100
AcDbLine
 10
340.8952509275335
 20
121.2165724752127
 30
0.0
 11
345.8952509275335
 21
121.2165724752127
 31
0.0
  0
ARC
  5
6F89
330
1A
100
AcDbEntity
  8
SEIHIN
100
AcDbCircle
 10
334.7206419275336
 20
124.2165724752127
 30
0.0
 40
5.499999922058408
100
AcDbArc
 50
50.19443624371243
 51
90.00000600216448
  0
LINE
  5
6F8A
330
1A
100
AcDbEntity
  8
SEIHIN
100
AcDbLine
 10
335.0407339275335
 20
124.6006834752128
 30
0.0
 11
337.4844649275336
 21
122.5642404752127
 31
0.0
  0
ARC
  5
6F8B
330
1A
100
AcDbEntity
  8
SEIHIN
100
AcDbCircle
 10
334.7206419275336
 20
124.2165724752127
 30
0.0
 40
0.500000074392489
100
AcDbArc
 50
50.19443624372004
 51
89.99996332013925
  0
ARC
  5
6F8C
330
1A
100
AcDbEntity
  8
SEIHIN
100
AcDbCircle
 10
338.4447419275337
 20
123.7165724752127
 30
0.0
 40
1.500000159158816
100
AcDbArc
 50
230.1944362437119
 51
270.0000171172718
  0
LINE
  5
6F8D
330
1A
100
AcDbEntity
  8
SEIHIN
100
AcDbLine
 10
340.3952509275335
 20
122.2165724752127
 30
0.0
 11
340.3952509275335
 21
121.7165724752127
 31
0.0
  0
ARC
  5
6F8E
330
1A
100
AcDbEntity
  8
SEIHIN
100
AcDbCircle
 10
340.8952509275335
 20
121.7165724752127
 30
0.0
 40
0.5
100
AcDbArc
 50
180.0000000235017
 51
270.0000000235017
  0
LINE
  5
6F8F
330
1A
100
AcDbEntity
  8
SEIHIN
100
AcDbLine
 10
338.2416559275335
 20
128.4417894752127
 30
0.0
 11
339.7119159275336
 21
127.2165724752127
 31
0.0
  0
LINE
  5
6F90
330
1A
100
AcDbEntity
  8
SEIHIN
100
AcDbLine
 10
369.5877509275336
 20
125.8147384752127
 30
0.0
 11
369.5877509275336
 21
107.3456154752128
 31
0.0
  0
LINE
  5
6F91
330
1A
100
AcDbEntity
  8
SEIHIN
100
AcDbLine
 10
371.5877509275336
 20
107.3456154752128
 30
0.0
 11
371.5877509275336
 21
125.8147384752127
 31
0.0
  0
LINE
  5
6F92
330
1A
100
AcDbEntity
  8
SEIHIN
100
AcDbLine
 10
371.5877509275336
 20
107.3456154752128
 30
0.0
 11
369.5877509275336
 21
107.3456154752128
 31
0.0
  0
LINE
  5
6F93
330
1A
100
AcDbEntity
  8
SEIHIN
100
AcDbLine
 10
348.2827719275336
 20
123.6165724752127
 30
0.0
 11
363.3749649275336
 21
123.6165724752127
 31
0.0
  0
LINE
  5
6F94
330
1A
100
AcDbEntity
  8
SEIHIN
100
AcDbLine
 10
348.2827719275336
 20
123.2165724752127
 30
0.0
 11
364.4717409275337
 21
123.2165724752127
 31
0.0
  0
ARC
  5
6F95
330
1A
100
AcDbEntity
  8
SEIHIN
100
AcDbCircle
 10
347.7388799275337
 20
126.6165724752127
 30
0.0
 40
3.00000013857666
100
AcDbArc
 50
279.962986694496
 51
340.5885311066116
  0
ARC
  5
6F96
330
1A
100
AcDbEntity
  8
SEIHIN
100
AcDbCircle
 10
344.2827719275336
 20
123.2165724752127
 30
0.0
 40
4.0
100
AcDbArc
 50
0.0
 51
90.0
  0
LINE
  5
6F97
330
1A
100
AcDbEntity
  8
SEIHIN
100
AcDbLine
 10
346.3952509275335
 20
122.2165724752127
 30
0.0
 11
346.3952509275335
 21
121.7165724752127
 31
0.0
  0
ARC
  5
6F98
330
1A
100
AcDbEntity
  8
SEIHIN
100
AcDbCircle
 10
345.8952509275335
 20
121.7165724752127
 30
0.0
 40
0.5
100
AcDbArc
 50
270.0000000352525
 51
0.0000000352525556
  0
LINE
  5
6F99
330
1A
100
AcDbEntity
  8
SEIHIN
100
AcDbLine
 10
351.3174449275337
 20
123.2165724752127
 30
0.0
 11
351.3174449275337
 21
122.2165724752127
 31
0.0
  0
LINE
  5
6F9A
330
1A
100
AcDbEntity
  8
SEIHIN
100
AcDbLine
 10
348.2827719275336
 20
123.2165724752127
 30
0.0
 11
348.2827719275336
 21
122.2165724752127
 31
0.0
  0
LINE
  5
6F9B
330
1A
100
AcDbEntity
  8
SEIHIN
100
AcDbLine
 10
351.3174449275337
 20
122.2165724752127
 30
0.0
 11
348.2827719275336
 21
122.2165724752127
 31
0.0
  0
ARC
  5
6F9C
330
1A
100
AcDbEntity
  8
SEIHIN
100
AcDbCircle
 10
347.7388799275337
 20
126.6165724752127
 30
0.0
 40
0.9999999407089966
100
AcDbArc
 50
270.0000000354349
 51
340.5885244991829
  0
LINE
  5
6F9D
330
1A
100
AcDbEntity
  8
SEIHIN
100
AcDbLine
 10
347.7388799275337
 20
125.6165724752127
 30
0.0
 11
347.4827719275336
 21
125.6165724752127
 31
0.0
  0
LINE
  5
6F9E
330
1A
100
AcDbEntity
  8
SEIHIN
100
AcDbLine
 10
369.5877509275336
 20
125.8147384752127
 30
0.0
 11
369.5877509275336
 21
112.3456154752128
 31
0.0
  0
LINE
  5
6F9F
330
1A
100
AcDbEntity
  8
SEIHIN
100
AcDbLine
 10
371.5877509275336
 20
112.3456154752128
 30
0.0
 11
371.5877509275336
 21
125.8147384752127
 31
0.0
  0
LINE
  5
6FA0
330
1A
100
AcDbEntity
  8
SEIHIN
100
AcDbLine
 10
365.8717409275335
 20
128.2165724752127
 30
0.0
 11
365.8717409275335
 21
124.6165724752127
 31
0.0
  0
LINE
  5
6FA1
330
1A
100
AcDbEntity
  8
SEIHIN
100
AcDbLine
 10
363.8629459275335
 20
124.6165724752127
 30
0.0
 11
363.8629459275335
 21
127.4165724752127
 31
0.0
  0
ARC
  5
6FA2
330
1A
100
AcDbEntity
  8
SEIHIN
100
AcDbCircle
 10
362.6434419275336
 20
124.6165724752127
 30
0.0
 40
1.219504113536517
100
AcDbArc
 50
333.491986632192
 51
0.0000129482833926
  0
ARC
  5
6FA3
330
1A
100
AcDbEntity
  8
SEIHIN
100
AcDbCircle
 10
362.4625459275335
 20
124.7067954752127
 30
0.0
 40
1.421652073219743
100
AcDbArc
 50
309.9262992300506
 51
333.4919521171928
  0
ARC
  5
6FA4
330
1A
100
AcDbEntity
  8
SEIHIN
100
AcDbCircle
 10
364.4717409275337
 20
124.6165724752127
 30
0.0
 40
1.399999999999999
100
AcDbArc
 50
270.0000000882616
 51
0.0000000882616646
  0
LINE
  5
6FA5
330
1A
100
AcDbEntity
  8
SEIHIN
100
AcDbLine
 10
364.2928739275336
 20
128.2165724752127
 30
0.0
 11
365.8717409275335
 21
128.2165724752127
 31
0.0
  0
ARC
  5
6FA6
330
1A
100
AcDbEntity
  8
SEIHIN
100
AcDbCircle
 10
365.2202619275336
 20
127.4165724752127
 30
0.0
 40
1.357314988733639
100
AcDbArc
 50
152.007703562615
 51
179.9999691711857
  0
ARC
  5
6FA7
330
1A
100
AcDbEntity
  8
SEIHIN
100
AcDbCircle
 10
364.2928749275337
 20
127.9095124752128
 30
0.0
 40
0.3070597682291614
100
AcDbArc
 50
90.00000001175086
 51
152.0077599357389
  0
ARC
  5
6FA8
330
1A
100
AcDbEntity
  8
SEIHIN
100
AcDbCircle
 10
372.5877509275336
 20
125.8147384752127
 30
0.0
 40
0.9999998652102316
100
AcDbArc
 50
84.50004182839899
 51
180.0
  0
ARC
  5
6FA9
330
1A
100
AcDbEntity
  8
SEIHIN
100
AcDbCircle
 10
372.5877509275336
 20
125.8147384752127
 30
0.0
 40
0.9999998652102316
100
AcDbArc
 50
84.50004182839899
 51
180.0
  0
LINE
  5
6FAA
330
1A
100
AcDbEntity
  8
SEIHIN
100
AcDbLine
 10
376.5078689275336
 20
126.4419034752127
 30
0.0
 11
369.3960609275335
 21
127.1266844752128
 31
0.0
  0
ARC
  5
6FAB
330
1A
100
AcDbEntity
  8
SEIHIN
100
AcDbCircle
 10
372.5877509275336
 20
125.8147384752127
 30
0.0
 40
2.99999990174308
100
AcDbArc
 50
155.0288311702726
 51
179.9999919372969
  0
LINE
  5
6FAC
330
1A
100
AcDbEntity
  8
SEIHIN
100
AcDbLine
 10
369.3960609275335
 20
127.1266844752128
 30
0.0
 11
369.5877509275336
 21
129.1174764752128
 31
0.0
  0
ARC
  5
6FAD
330
1A
100
AcDbEntity
  8
SEIHIN
100
AcDbCircle
 10
372.5877509275336
 20
125.8147384752127
 30
0.0
 40
2.99999990174308
100
AcDbArc
 50
155.0288311702726
 51
179.9999919372969
  0
LINE
  5
6FAE
330
1A
100
AcDbEntity
  8
SEIHIN
100
AcDbLine
 10
361.5302739275335
 20
158.7570834752127
 30
0.0
 11
320.7634369275337
 21
153.1979694752128
 31
0.0
  0
LINE
  5
6FAF
330
1A
100
AcDbEntity
  8
SEIHIN
100
AcDbLine
 10
362.1635499275336
 20
156.3203034752127
 30
0.0
 11
321.1012199275336
 21
150.7208944752127
 31
0.0
  0
LINE
  5
6FB0
330
1A
100
AcDbEntity
  8
SEIHIN
100
AcDbLine
 10
362.9234819275335
 20
153.3961654752127
 30
0.0
 11
320.8934269275335
 21
147.6647944752127
 31
0.0
  0
ARC
  5
6FB1
330
1A
100
AcDbEntity
  8
SEIHIN
100
AcDbCircle
 10
321.7767859275337
 20
145.7667434752127
 30
0.0
 40
7.500000197431461
100
AcDbArc
 50
97.76515569653575
 51
160.5599559187044
  0
ARC
  5
6FB2
330
1A
100
AcDbEntity
  8
SEIHIN
100
AcDbCircle
 10
321.7767859275337
 20
145.7667434752127
 30
0.0
 40
4.999999758966238
100
AcDbArc
 50
97.76515569653575
 51
160.5599558232775
  0
ARC
  5
6FB3
330
1A
100
AcDbEntity
  8
SEIHIN
100
AcDbCircle
 10
314.9685889275336
 20
153.5184864752127
 30
0.0
 40
0.5
100
AcDbArc
 50
70.55996517182028
 51
160.5599651718251
  0
ARC
  5
6FB4
330
1A
100
AcDbEntity
  8
SEIHIN
100
AcDbCircle
 10
321.0285399275336
 20
146.6739644752128
 30
0.0
 40
1.000000089458491
100
AcDbArc
 50
97.76515569653586
 51
160.5885380977532
  0
LINE
  5
6FB5
330
1A
100
AcDbEntity
  8
SEIHIN
100
AcDbLine
 10
318.6645669275336
 20
160.9857974752127
 30
0.0
 11
317.7215759275337
 21
161.3186174752128
 31
0.0
  0
LINE
  5
6FB6
330
1A
100
AcDbEntity
  8
SEIHIN
100
AcDbLine
 10
358.7696199275336
 20
145.6520244752127
 30
0.0
 11
371.9701039275336
 21
147.5221904752127
 31
0.0
  0
LINE
  5
6FB7
330
1A
100
AcDbEntity
  8
SEIHIN
100
AcDbLine
 10
371.6895579275336
 20
149.5024164752127
 30
0.0
 11
358.4890729275335
 21
147.6322494752128
 31
0.0
  0
ARC
  5
6FB8
330
1A
100
AcDbEntity
  8
SEIHIN
100
AcDbCircle
 10
359.0501659275336
 20
143.6717984752127
 30
0.0
 40
3.999999868335057
100
AcDbArc
 50
98.0636427983102
 51
160.5884979740773
  0
ARC
  5
6FB9
330
1A
100
AcDbEntity
  8
SEIHIN
100
AcDbCircle
 10
359.0501659275336
 20
143.6717984752127
 30
0.0
 40
2.000000049508498
100
AcDbArc
 50
98.0636427983102
 51
160.588485265716
  0
LINE
  5
6FBB
330
1A
100
AcDbEntity
  8
SEIHIN
100
AcDbLine
 10
307.553134562171
 20
464.4384135458917
 30
0.0
 11
311.958177562171
 21
462.3460175458917
 31
0.0
  0
LINE
  5
6FBC
330
1A
100
AcDbEntity
  8
SEIHIN
100
AcDbLine
 10
308.7255195621709
 20
453.3460175458917
 30
0.0
 11
315.688042562171
 21
453.3460175458917
 31
0.0
  0
LINE
  5
6FBD
330
1A
100
AcDbEntity
  8
SEIHIN
100
AcDbLine
 10
308.7255195621709
 20
459.3460175458917
 30
0.0
 11
315.688042562171
 21
459.3460175458917
 31
0.0
  0
LINE
  5
6FBE
330
1A
100
AcDbEntity
  8
SEIHIN
100
AcDbLine
 10
307.553134562171
 20
448.2536225458916
 30
0.0
 11
311.9581745621709
 21
450.3460175458917
 31
0.0
  0
LINE
  5
6FBF
330
1A
100
AcDbEntity
  8
SEIHIN
100
AcDbLine
 10
298.1715075621711
 20
446.8460465458917
 30
0.0
 11
348.8361745621708
 21
446.8462275458916
 31
0.0
  0
LINE
  5
6FC0
330
1A
100
AcDbEntity
  8
SEIHIN
100
AcDbLine
 10
298.1715075621711
 20
464.8459895458916
 30
0.0
 11
348.8361745621708
 21
464.8459895458916
 31
0.0
  0
LINE
  5
6FC1
330
1A
100
AcDbEntity
  8
SEIHIN
100
AcDbLine
 10
298.1715075621711
 20
465.8459895458916
 30
0.0
 11
348.8361745621708
 21
465.8459895458916
 31
0.0
  0
LINE
  5
6FC2
330
1A
100
AcDbEntity
  8
SEIHIN
100
AcDbLine
 10
298.1715035621708
 20
447.8460465458916
 30
0.0
 11
348.8361745621708
 21
447.8462275458916
 31
0.0
  0
LINE
  5
6FC3
330
1A
100
AcDbEntity
  8
SEIHIN
100
AcDbLine
 10
277.1714595621709
 20
464.8460175458916
 30
0.0
 11
280.6714595621709
 21
464.8460175458916
 31
0.0
  0
LINE
  5
6FC4
330
1A
100
AcDbEntity
  8
SEIHIN
100
AcDbLine
 10
277.1714595621709
 20
465.9460175458916
 30
0.0
 11
280.6714595621709
 21
465.9460175458916
 31
0.0
  0
LINE
  5
6FC5
330
1A
100
AcDbEntity
  8
SEIHIN
100
AcDbLine
 10
280.4214595621709
 20
463.8460175458916
 30
0.0
 11
277.4214595621709
 21
463.8460175458916
 31
0.0
  0
LINE
  5
6FC6
330
1A
100
AcDbEntity
  8
SEIHIN
100
AcDbLine
 10
275.1714935621709
 20
461.9460175458916
 30
0.0
 11
298.1714935621709
 21
461.9460175458916
 31
0.0
  0
LINE
  5
6FC7
330
1A
100
AcDbEntity
  8
SEIHIN
100
AcDbLine
 10
275.1714915621708
 20
461.4460175458916
 30
0.0
 11
298.1714915621708
 21
461.4460175458916
 31
0.0
  0
LINE
  5
6FC8
330
1A
100
AcDbEntity
  8
SEIHIN
100
AcDbLine
 10
275.171509562171
 20
466.4460175458916
 30
0.0
 11
298.171509562171
 21
466.4460175458916
 31
0.0
  0
LINE
  5
6FC9
330
1A
100
AcDbEntity
  8
SEIHIN
100
AcDbLine
 10
277.1714595621709
 20
447.8460175458916
 30
0.0
 11
280.6714595621709
 21
447.8460175458916
 31
0.0
  0
LINE
  5
6FCA
330
1A
100
AcDbEntity
  8
SEIHIN
100
AcDbLine
 10
280.4214595621709
 20
448.8460175458917
 30
0.0
 11
277.4214595621709
 21
448.8460175458917
 31
0.0
  0
LINE
  5
6FCB
330
1A
100
AcDbEntity
  8
SEIHIN
100
AcDbLine
 10
277.1714595621709
 20
446.7460175458916
 30
0.0
 11
280.6714595621709
 21
446.7460175458916
 31
0.0
  0
LINE
  5
6FCC
330
1A
100
AcDbEntity
  8
SEIHIN
100
AcDbLine
 10
275.1714915621708
 20
451.2460175458916
 30
0.0
 11
298.1714915621708
 21
451.2460175458916
 31
0.0
  0
LINE
  5
6FCD
330
1A
100
AcDbEntity
  8
SEIHIN
100
AcDbLine
 10
275.171509562171
 20
446.2460175458916
 30
0.0
 11
298.171509562171
 21
446.2460175458916
 31
0.0
  0
LINE
  5
6FCE
330
1A
100
AcDbEntity
  8
SEIHIN
100
AcDbLine
 10
275.1714935621709
 20
450.7460175458916
 30
0.0
 11
298.1714935621709
 21
450.7460175458916
 31
0.0
  0
LINE
  5
6FCF
330
1A
100
AcDbEntity
  8
SEIHIN
100
AcDbLine
 10
277.1714595621709
 20
461.9460175458916
 30
0.0
 11
277.1714595621709
 21
466.4460175458916
 31
0.0
  0
LINE
  5
6FD0
330
1A
100
AcDbEntity
  8
SEIHIN
100
AcDbLine
 10
275.1714915621708
 20
461.4460175458916
 30
0.0
 11
275.171509562171
 21
466.4460175458916
 31
0.0
  0
LINE
  5
6FD1
330
1A
100
AcDbEntity
  8
SEIHIN
100
AcDbLine
 10
260.875358562171
 20
464.5960175458917
 30
0.0
 11
264.054829562171
 21
464.5960175458917
 31
0.0
  0
LINE
  5
6FD2
330
1A
100
AcDbEntity
  8
SEIHIN
100
AcDbLine
 10
260.875358562171
 20
448.0960175458917
 30
0.0
 11
264.054829562171
 21
448.0960175458917
 31
0.0
  0
LINE
  5
6FD3
330
1A
100
AcDbEntity
  8
SEIHIN
100
AcDbLine
 10
260.875358562171
 20
448.0960175458917
 30
0.0
 11
260.875358562171
 21
464.5960175458917
 31
0.0
  0
LINE
  5
6FD4
330
1A
100
AcDbEntity
  8
SEIHIN
100
AcDbLine
 10
273.030125562171
 20
453.3460175458917
 30
0.0
 11
273.030125562171
 21
459.3460175458917
 31
0.0
  0
LINE
  5
6FD5
330
1A
100
AcDbEntity
  8
SEIHIN
100
AcDbLine
 10
275.530125562171
 20
453.3460175458917
 30
0.0
 11
275.530125562171
 21
459.3460175458917
 31
0.0
  0
LINE
  5
6FD6
330
1A
100
AcDbEntity
  8
SEIHIN
100
AcDbLine
 10
276.030125562171
 20
453.3460175458917
 30
0.0
 11
276.030125562171
 21
459.3460175458917
 31
0.0
  0
LINE
  5
6FD7
330
1A
100
AcDbEntity
  8
SEIHIN
100
AcDbLine
 10
273.530125562171
 20
453.3460175458917
 30
0.0
 11
273.530125562171
 21
459.3460175458917
 31
0.0
  0
LINE
  5
6FD8
330
1A
100
AcDbEntity
  8
SEIHIN
100
AcDbLine
 10
271.030125562171
 20
453.3460175458917
 30
0.0
 11
271.030125562171
 21
459.3460175458917
 31
0.0
  0
LINE
  5
6FD9
330
1A
100
AcDbEntity
  8
SEIHIN
100
AcDbLine
 10
261.875358562171
 20
448.0960175458917
 30
0.0
 11
261.875358562171
 21
464.5960175458917
 31
0.0
  0
LINE
  5
6FDA
330
1A
100
AcDbEntity
  8
SEIHIN
100
AcDbLine
 10
269.740280562171
 20
463.0029985458916
 30
0.0
 11
269.740280562171
 21
450.1570215458916
 31
0.0
  0
LINE
  5
6FDB
330
1A
100
AcDbEntity
  8
SEIHIN
100
AcDbLine
 10
277.4214595621709
 20
461.4460175458916
 30
0.0
 11
277.4214595621709
 21
451.2460175458916
 31
0.0
  0
LINE
  5
6FDC
330
1A
100
AcDbEntity
  8
SEIHIN
100
AcDbLine
 10
268.6072305621709
 20
446.8460175458917
 30
0.0
 11
275.1715075621711
 21
446.8460465458917
 31
0.0
  0
LINE
  5
6FDD
330
1A
100
AcDbEntity
  8
SEIHIN
100
AcDbLine
 10
268.3524505621709
 20
447.8460175458916
 30
0.0
 11
275.1715035621708
 21
447.8460475458916
 31
0.0
  0
ARC
  5
6FDE
330
1A
100
AcDbEntity
  8
SEIHIN
100
AcDbCircle
 10
266.1163825621709
 20
447.4710175458916
 30
0.0
 40
1.624999817959517
100
AcDbArc
 50
31.58817135149953
 51
141.7534063919613
  0
ARC
  5
6FDF
330
1A
100
AcDbEntity
  8
SEIHIN
100
AcDbCircle
 10
264.054829562171
 20
449.0960175458917
 30
0.0
 40
0.9999999402282464
100
AcDbArc
 50
270.0
 51
321.7533469301778
  0
LINE
  5
6FE0
330
1A
100
AcDbEntity
  8
SEIHIN
100
AcDbLine
 10
268.6072305621709
 20
447.8460185458916
 30
0.0
 11
268.6072305621709
 21
446.8460175458917
 31
0.0
  0
ARC
  5
6FE1
330
1A
100
AcDbEntity
  8
SEIHIN
100
AcDbCircle
 10
268.3524505621709
 20
448.8460175458917
 30
0.0
 40
0.9999999458312471
100
AcDbArc
 50
211.5881713514863
 51
269.999999999987
  0
LINE
  5
6FE2
330
1A
100
AcDbEntity
  8
SEIHIN
100
AcDbLine
 10
261.875358562171
 20
449.4300615458917
 30
0.0
 11
263.607409562171
 21
450.4300615458917
 31
0.0
  0
LINE
  5
6FE3
330
1A
100
AcDbEntity
  8
SEIHIN
100
AcDbLine
 10
261.875358562171
 20
451.4300615458917
 30
0.0
 11
263.607409562171
 21
450.4300615458917
 31
0.0
  0
LINE
  5
6FE4
330
1A
100
AcDbEntity
  8
SEIHIN
100
AcDbLine
 10
275.1714915621708
 20
451.2460175458916
 30
0.0
 11
275.171509562171
 21
446.2460175458916
 31
0.0
  0
LINE
  5
6FE5
330
1A
100
AcDbEntity
  8
SEIHIN
100
AcDbLine
 10
277.4214595621709
 20
448.8460175458917
 30
0.0
 11
277.4214595621709
 21
450.7460175458916
 31
0.0
  0
LINE
  5
6FE6
330
1A
100
AcDbEntity
  8
SEIHIN
100
AcDbLine
 10
277.1714595621709
 20
450.7460175458916
 30
0.0
 11
277.1714595621709
 21
446.2460175458916
 31
0.0
  0
ARC
  5
6FE7
330
1A
100
AcDbEntity
  8
SEIHIN
100
AcDbCircle
 10
274.530125562171
 20
454.0960175458916
 30
0.0
 40
1.25
100
AcDbArc
 50
216.8698976458453
 51
323.1301023541546
  0
ARC
  5
6FE8
330
1A
100
AcDbEntity
  8
SEIHIN
100
AcDbCircle
 10
272.030125562171
 20
454.0960175458916
 30
0.0
 40
1.25
100
AcDbArc
 50
216.8698976458453
 51
323.1301023541546
  0
ARC
  5
6FE9
330
1A
100
AcDbEntity
  8
SEIHIN
100
AcDbCircle
 10
277.030125562171
 20
454.0960175458916
 30
0.0
 40
1.249999816264372
100
AcDbArc
 50
216.8698976458453
 51
288.2441676844587
  0
LINE
  5
6FEA
330
1A
100
AcDbEntity
  8
SEIHIN
100
AcDbLine
 10
268.6072305621709
 20
465.8460185458917
 30
0.0
 11
275.1715075621711
 21
465.8459895458916
 31
0.0
  0
LINE
  5
6FEB
330
1A
100
AcDbEntity
  8
SEIHIN
100
AcDbLine
 10
268.3524505621709
 20
464.8460175458916
 30
0.0
 11
275.1715035621708
 21
464.8460175458916
 31
0.0
  0
ARC
  5
6FEC
330
1A
100
AcDbEntity
  8
SEIHIN
100
AcDbCircle
 10
266.1163825621709
 20
465.2210175458916
 30
0.0
 40
1.624999817959517
100
AcDbArc
 50
218.2466530698202
 51
328.4118881102776
  0
LINE
  5
6FED
330
1A
100
AcDbEntity
  8
SEIHIN
100
AcDbLine
 10
261.875358562171
 20
461.2619735458917
 30
0.0
 11
263.607409562171
 21
462.2619735458917
 31
0.0
  0
LINE
  5
6FEE
330
1A
100
AcDbEntity
  8
SEIHIN
100
AcDbLine
 10
261.875358562171
 20
463.2619735458916
 30
0.0
 11
263.607409562171
 21
462.2619735458917
 31
0.0
  0
ARC
  5
6FEF
330
1A
100
AcDbEntity
  8
SEIHIN
100
AcDbCircle
 10
264.054829562171
 20
463.5960175458917
 30
0.0
 40
1.000000332904889
100
AcDbArc
 50
38.24661760100019
 51
90.0
  0
LINE
  5
6FF0
330
1A
100
AcDbEntity
  8
SEIHIN
100
AcDbLine
 10
268.6072305621709
 20
464.8460175458916
 30
0.0
 11
268.6072305621709
 21
465.8460185458917
 31
0.0
  0
ARC
  5
6FF1
330
1A
100
AcDbEntity
  8
SEIHIN
100
AcDbCircle
 10
268.3524505621709
 20
463.8460175458916
 30
0.0
 40
0.9999999458312471
100
AcDbArc
 50
90.0
 51
148.4118286484977
  0
ARC
  5
6FF2
330
1A
100
AcDbEntity
  8
SEIHIN
100
AcDbCircle
 10
274.530125562171
 20
458.5960175458916
 30
0.0
 40
1.25
100
AcDbArc
 50
36.86989764584533
 51
143.1301023541546
  0
ARC
  5
6FF3
330
1A
100
AcDbEntity
  8
SEIHIN
100
AcDbCircle
 10
272.030125562171
 20
458.5960175458916
 30
0.0
 40
1.25
100
AcDbArc
 50
36.86989764584533
 51
143.1301023541546
  0
ARC
  5
6FF4
330
1A
100
AcDbEntity
  8
SEIHIN
100
AcDbCircle
 10
277.030125562171
 20
458.5960175458916
 30
0.0
 40
1.249999816264372
100
AcDbArc
 50
71.75583951464338
 51
143.1301095532567
  0
LINE
  5
6FF5
330
1A
100
AcDbEntity
  8
SEIHIN
100
AcDbLine
 10
277.4214595621709
 20
463.8460175458916
 30
0.0
 11
277.4214595621709
 21
461.9460175458916
 31
0.0
  0
LINE
  5
6FF6
330
1A
100
AcDbEntity
  8
SEIHIN
100
AcDbLine
 10
298.1714915621708
 20
461.4460175458916
 30
0.0
 11
298.171509562171
 21
466.4460175458916
 31
0.0
  0
LINE
  5
6FF7
330
1A
100
AcDbEntity
  8
SEIHIN
100
AcDbLine
 10
280.6714595621709
 20
461.9460175458916
 30
0.0
 11
280.6714595621709
 21
466.4460175458916
 31
0.0
  0
LINE
  5
6FF8
330
1A
100
AcDbEntity
  8
SEIHIN
100
AcDbLine
 10
281.913100562171
 20
461.3460175458917
 30
0.0
 11
298.650304562171
 21
461.3460175458917
 31
0.0
  0
LINE
  5
6FF9
330
1A
100
AcDbEntity
  8
SEIHIN
100
AcDbLine
 10
281.913100562171
 20
451.3460175458916
 30
0.0
 11
298.650304562171
 21
451.3460175458916
 31
0.0
  0
LINE
  5
6FFA
330
1A
100
AcDbEntity
  8
SEIHIN
100
AcDbLine
 10
280.4214595621709
 20
461.4460175458916
 30
0.0
 11
280.4214595621709
 21
451.2460175458916
 31
0.0
  0
LINE
  5
6FFB
330
1A
100
AcDbEntity
  8
SEIHIN
100
AcDbLine
 10
280.913100562171
 20
460.3460175458916
 30
0.0
 11
280.913100562171
 21
452.3460175458916
 31
0.0
  0
LINE
  5
6FFC
330
1A
100
AcDbEntity
  8
SEIHIN
100
AcDbLine
 10
284.1715795621709
 20
450.2460175458916
 30
0.0
 11
289.1715795621708
 21
450.2460175458916
 31
0.0
  0
LINE
  5
6FFD
330
1A
100
AcDbEntity
  8
SEIHIN
100
AcDbLine
 10
280.4214595621709
 20
448.8460175458917
 30
0.0
 11
280.4214595621709
 21
450.7460175458916
 31
0.0
  0
LINE
  5
6FFE
330
1A
100
AcDbEntity
  8
SEIHIN
100
AcDbLine
 10
280.6714595621709
 20
450.7460175458916
 30
0.0
 11
280.6714595621709
 21
446.2460175458916
 31
0.0
  0
LINE
  5
6FFF
330
1A
100
AcDbEntity
  8
SEIHIN
100
AcDbLine
 10
281.913100562171
 20
452.3460175458916
 30
0.0
 11
281.913100562171
 21
451.3460175458916
 31
0.0
  0
LINE
  5
7000
330
1A
100
AcDbEntity
  8
SEIHIN
100
AcDbLine
 10
280.913100562171
 20
452.3460175458916
 30
0.0
 11
281.913100562171
 21
452.3460175458916
 31
0.0
  0
LINE
  5
7001
330
1A
100
AcDbEntity
  8
SEIHIN
100
AcDbLine
 10
284.1715795621709
 20
450.2460175458916
 30
0.0
 11
284.1715795621709
 21
450.7460175458916
 31
0.0
  0
LINE
  5
7002
330
1A
100
AcDbEntity
  8
SEIHIN
100
AcDbLine
 10
289.1715795621708
 20
450.2460175458916
 30
0.0
 11
289.1715795621708
 21
450.7460175458916
 31
0.0
  0
LINE
  5
7003
330
1A
100
AcDbEntity
  8
SEIHIN
100
AcDbLine
 10
284.1715795621709
 20
462.4460175458916
 30
0.0
 11
289.1715795621708
 21
462.4460175458916
 31
0.0
  0
LINE
  5
7004
330
1A
100
AcDbEntity
  8
SEIHIN
100
AcDbLine
 10
281.913100562171
 20
460.3460175458916
 30
0.0
 11
281.913100562171
 21
461.3460175458917
 31
0.0
  0
LINE
  5
7005
330
1A
100
AcDbEntity
  8
SEIHIN
100
AcDbLine
 10
280.913100562171
 20
460.3460175458916
 30
0.0
 11
281.913100562171
 21
460.3460175458916
 31
0.0
  0
LINE
  5
7006
330
1A
100
AcDbEntity
  8
SEIHIN
100
AcDbLine
 10
280.4214595621709
 20
463.8460175458916
 30
0.0
 11
280.4214595621709
 21
461.9460175458916
 31
0.0
  0
LINE
  5
7007
330
1A
100
AcDbEntity
  8
SEIHIN
100
AcDbLine
 10
284.1715795621709
 20
462.4460175458916
 30
0.0
 11
284.1715795621709
 21
461.9460175458916
 31
0.0
  0
LINE
  5
7008
330
1A
100
AcDbEntity
  8
SEIHIN
100
AcDbLine
 10
289.1715795621708
 20
462.4460175458916
 30
0.0
 11
289.1715795621708
 21
461.9460175458916
 31
0.0
  0
LINE
  5
7009
330
1A
100
AcDbEntity
  8
SEIHIN
100
AcDbLine
 10
297.2541025621709
 20
451.3460175458916
 30
0.0
 11
297.2541025621709
 21
461.3460175458917
 31
0.0
  0
ARC
  5
700A
330
1A
100
AcDbEntity
  8
SEIHIN
100
AcDbCircle
 10
308.7255195621709
 20
454.8460175458917
 30
0.0
 40
1.5
100
AcDbArc
 50
180.0
 51
270.0
  0
LINE
  5
700B
330
1A
100
AcDbEntity
  8
SEIHIN
100
AcDbLine
 10
299.9374745621709
 20
451.0558505458917
 30
0.0
 11
305.8369075621709
 21
448.2536215458917
 31
0.0
  0
LINE
  5
700C
330
1A
100
AcDbEntity
  8
SEIHIN
100
AcDbLine
 10
304.5898245621709
 20
448.8459855458916
 30
0.0
 11
298.1714995621708
 21
448.8459625458916
 31
0.0
  0
LINE
  5
700D
330
1A
100
AcDbEntity
  8
SEIHIN
100
AcDbLine
 10
298.1714915621708
 20
451.2460175458916
 30
0.0
 11
298.171509562171
 21
446.2460175458916
 31
0.0
  0
ARC
  5
700E
330
1A
100
AcDbEntity
  8
SEIHIN
100
AcDbCircle
 10
298.650304562171
 20
448.3460175458916
 30
0.0
 40
3.000000124732411
100
AcDbArc
 50
64.59228447874967
 51
89.99999094305044
  0
ARC
  5
700F
330
1A
100
AcDbEntity
  8
SEIHIN
100
AcDbCircle
 10
306.6950205621709
 20
450.0601765458917
 30
0.0
 40
1.999999816165233
100
AcDbArc
 50
244.5922844787499
 51
295.4077120920546
  0
LINE
  5
7010
330
1A
100
AcDbEntity
  8
SEIHIN
100
AcDbLine
 10
304.5896885621708
 20
463.8459855458917
 30
0.0
 11
298.1714995621708
 21
463.8460085458916
 31
0.0
  0
LINE
  5
7011
330
1A
100
AcDbEntity
  8
SEIHIN
100
AcDbLine
 10
299.9374745621709
 20
461.6361855458917
 30
0.0
 11
305.8369075621709
 21
464.4384145458917
 31
0.0
  0
ARC
  5
7012
330
1A
100
AcDbEntity
  8
SEIHIN
100
AcDbCircle
 10
298.650304562171
 20
464.3460175458916
 30
0.0
 40
3.000000124732411
100
AcDbArc
 50
270.0
 51
295.4077064643025
  0
LINE
  5
7013
330
1A
100
AcDbEntity
  8
SEIHIN
100
AcDbLine
 10
307.2255195621709
 20
454.8460175458917
 30
0.0
 11
307.2255195621709
 21
457.8460175458917
 31
0.0
  0
ARC
  5
7014
330
1A
100
AcDbEntity
  8
SEIHIN
100
AcDbCircle
 10
308.7255195621709
 20
457.8460175458917
 30
0.0
 40
1.5
100
AcDbArc
 50
90.0
 51
180.0
  0
ARC
  5
7015
330
1A
100
AcDbEntity
  8
SEIHIN
100
AcDbCircle
 10
306.6950205621709
 20
462.6318585458917
 30
0.0
 40
1.999999816165233
100
AcDbArc
 50
64.59225989560046
 51
115.4076875089041
  0
LINE
  5
7016
330
1A
100
AcDbEntity
  8
SEIHIN
100
AcDbLine
 10
315.688042562171
 20
453.3460175458917
 30
0.0
 11
315.688042562171
 21
459.3460175458917
 31
0.0
  0
LINE
  5
7017
330
1A
100
AcDbEntity
  8
SEIHIN
100
AcDbLine
 10
315.0501365621709
 20
453.3460175458917
 30
0.0
 11
315.0501365621709
 21
459.3460175458917
 31
0.0
  0
LINE
  5
7018
330
1A
100
AcDbEntity
  8
SEIHIN
100
AcDbLine
 10
319.2176105621709
 20
450.3460175458917
 30
0.0
 11
319.2176105621709
 21
462.3460175458917
 31
0.0
  0
LINE
  5
7019
330
1A
100
AcDbEntity
  8
SEIHIN
100
AcDbLine
 10
318.2746195621708
 20
450.3853565458917
 30
0.0
 11
318.2746195621708
 21
462.3066785458916
 31
0.0
  0
LINE
  5
701A
330
1A
100
AcDbEntity
  8
SEIHIN
100
AcDbLine
 10
311.9581745621709
 20
450.3460175458917
 30
0.0
 11
319.2176105621709
 21
450.3460175458917
 31
0.0
  0
LINE
  5
701B
330
1A
100
AcDbEntity
  8
SEIHIN
100
AcDbLine
 10
312.0409935621708
 20
450.3853565458917
 30
0.0
 11
312.040994562171
 21
453.3460175458917
 31
0.0
  0
LINE
  5
701C
330
1A
100
AcDbEntity
  8
SEIHIN
100
AcDbLine
 10
311.958177562171
 20
462.3460175458917
 30
0.0
 11
319.2176105621709
 21
462.3460175458917
 31
0.0
  0
LINE
  5
701D
330
1A
100
AcDbEntity
  8
SEIHIN
100
AcDbLine
 10
312.040996562171
 20
459.3460175458917
 30
0.0
 11
312.040996562171
 21
462.3066785458916
 31
0.0
  0
LINE
  5
701E
330
1A
100
AcDbEntity
  8
SEIHIN
100
AcDbLine
 10
348.8361745621708
 20
448.8461085458917
 30
0.0
 11
348.8361745621708
 21
446.8462275458916
 31
0.0
  0
LINE
  5
701F
330
1A
100
AcDbEntity
  8
SEIHIN
100
AcDbLine
 10
348.8361745621708
 20
465.8459895458916
 30
0.0
 11
348.8361745621708
 21
463.8461085458916
 31
0.0
  0
LINE
  5
7020
330
1A
100
AcDbEntity
  8
SEIHIN
100
AcDbLine
 10
362.083676562171
 20
460.5451625458917
 30
0.0
 11
362.083676562171
 21
451.9808035458916
 31
0.0
  0
LINE
  5
7021
330
1A
100
AcDbEntity
  8
SEIHIN
100
AcDbLine
 10
363.5874755621709
 20
449.2604925458916
 30
0.0
 11
363.5874755621709
 21
450.9098415458916
 31
0.0
  0
LINE
  5
7022
330
1A
100
AcDbEntity
  8
SEIHIN
100
AcDbLine
 10
363.5874755621709
 20
463.4319475458916
 30
0.0
 11
363.5874755621709
 21
461.7825985458916
 31
0.0
  0
LINE
  5
7028
330
1A
100
AcDbEntity
  8
CENTER_L
100
AcDbLine
 10
499.5845835495565
 20
348.0963656946614
 30
0.0
 11
501.782129338062
 21
342.5132847793046
 31
0.0
  0
LINE
  5
7029
330
1A
100
AcDbEntity
  8
CENTER_L
100
AcDbLine
 10
512.8443992867214
 20
369.631738166447
 30
0.0
 11
537.4903263729542
 21
307.0163397177988
 31
0.0
  0
LINE
  5
702A
330
1A
100
AcDbEntity
  8
SEIHIN
100
AcDbLine
 10
530.9797834438093
 20
352.931042236983
 30
0.0
 11
537.2061634438093
 21
337.1123132369829
 31
0.0
  0
LINE
  5
702B
330
1A
100
AcDbEntity
  8
SEIHIN
100
AcDbLine
 10
529.4163054438093
 20
352.315644236983
 30
0.0
 11
535.6426844438094
 21
336.496915236983
 31
0.0
  0
LINE
  5
702C
330
1A
100
AcDbEntity
  8
SEIHIN
100
AcDbLine
 10
508.1607444438093
 20
359.688474236983
 30
0.0
 11
519.4517354438094
 21
331.002604236983
 31
0.0
  0
LINE
  5
702D
330
1A
100
AcDbEntity
  8
SEIHIN
100
AcDbLine
 10
542.1361534438094
 20
365.382345236983
 30
0.0
 11
553.8563974438093
 21
335.6059142369829
 31
0.0
  0
LINE
  5
702E
330
1A
100
AcDbEntity
  8
SEIHIN
100
AcDbLine
 10
523.0489604438093
 20
365.5485962369829
 30
0.0
 11
534.3399594438094
 21
336.862705236983
 31
0.0
  0
CIRCLE
  5
702F
330
1A
100
AcDbEntity
  8
SEIHIN
100
AcDbCircle
 10
500.6833564438093
 20
345.304825236983
 30
0.0
 40
2.1
  0
LINE
  5
7030
330
1A
100
AcDbEntity
  8
SEIHIN
100
AcDbLine
 10
494.3077604438094
 20
346.5567032369829
 30
0.0
 11
506.0280044438093
 21
316.780271236983
 31
0.0
  0
LINE
  5
7031
330
1A
100
AcDbEntity
  8
SEIHIN
100
AcDbLine
 10
510.9387934438093
 20
345.042746236983
 30
0.0
 11
517.1651724438093
 21
329.224017236983
 31
0.0
  0
LINE
  5
7032
330
1A
100
AcDbEntity
  8
SEIHIN
100
AcDbLine
 10
512.5013014438093
 20
345.657762236983
 30
0.0
 11
518.7276814438093
 21
329.8390332369829
 31
0.0
  0
LINE
  5
703E
330
1A
100
AcDbEntity
  8
CENTER_L
100
AcDbLine
 10
391.0810204009591
 20
128.1670018179332
 30
0.0
 11
401.9680281807994
 21
132.4522161035095
 31
0.0
  0
LINE
  5
703F
330
1A
100
AcDbEntity
  8
SEIHIN
100
AcDbLine
 10
379.6680569275337
 20
142.3530354752127
 30
0.0
 11
379.2462609275336
 21
128.8523254752128
 31
0.0
  0
LINE
  5
7040
330
1A
100
AcDbEntity
  8
SEIHIN
100
AcDbLine
 10
395.8869779275336
 20
124.1479504752127
 30
0.0
 11
382.7017029275335
 21
157.6464354752127
 31
0.0
  0
LINE
  5
7041
330
1A
100
AcDbEntity
  8
SEIHIN
100
AcDbLine
 10
386.8890139275336
 20
159.2945954752128
 30
0.0
 11
400.0742879275336
 21
125.7961094752128
 31
0.0
  0
LINE
  5
7042
330
1A
100
AcDbEntity
  8
SEIHIN
100
AcDbLine
 10
387.3634072666858
 20
161.3657342146985
 30
0.0
 11
401.1909049275335
 21
126.2356184752127
 31
0.0
  0
LINE
  5
7043
330
1A
100
AcDbEntity
  8
SEIHIN
100
AcDbLine
 10
377.6690329275337
 20
142.4154904752127
 30
0.0
 11
377.2472369275336
 21
128.9147804752128
 31
0.0
  0
LINE
  5
7044
330
1A
100
AcDbEntity
  8
SEIHIN
100
AcDbLine
 10
386.1446029275335
 20
159.0015894752127
 30
0.0
 11
399.3298779275336
 21
125.5031034752128
 31
0.0
  0
ARC
  5
704A
330
1A
100
AcDbEntity
  8
SEIHIN
100
AcDbCircle
 10
376.7474809275337
 20
128.9303934752127
 30
0.0
 40
0.5000000368764974
100
AcDbArc
 50
264.5000418284121
 51
358.2104732561619
  0
LINE
  5
704B
330
1A
100
AcDbEntity
  8
SEIHIN
100
AcDbLine
 10
395.8869779275336
 20
124.1479504752127
 30
0.0
 11
401.1909049275335
 21
126.2356184752127
 31
0.0
  0
LINE
  5
7050
330
1A
100
AcDbEntity
  8
CENTER_L
100
AcDbLine
 10
381.9245793587423
 20
151.4298388013165
 30
0.0
 11
392.8115873752548
 21
155.7150531800488
 31
0.0
  0
LINE
  5
7051
330
1A
100
AcDbEntity
  8
CENTER_L
100
AcDbLine
 10
385.0377691644238
 20
143.5204746046826
 30
0.0
 11
395.9247771004678
 21
147.8056889517418
 31
0.0
  0
ARC
  5
7052
330
1A
100
AcDbEntity
  8
SEIHIN
100
AcDbCircle
 10
394.5874539275336
 20
142.8075594752127
 30
0.0
 40
6.624999944286225
100
AcDbArc
 50
169.5941816919564
 51
233.3757628202734
  0
ARC
  5
7053
330
1A
100
AcDbEntity
  8
SEIHIN
100
AcDbCircle
 10
380.8504489275336
 20
158.8003154752128
 30
0.0
 40
6.999999974031142
100
AcDbArc
 50
21.48502984726429
 51
111.3706510243158
  0
LINE
  5
7054
330
1A
100
AcDbEntity
  8
SEIHIN
100
AcDbLine
 10
382.7017029275335
 20
157.6464354752127
 30
0.0
 11
388.0056299275337
 21
159.7341044752128
 31
0.0
  0
ARC
  5
7055
330
1A
100
AcDbEntity
  8
SEIHIN
100
AcDbCircle
 10
381.0335779275336
 20
158.3350574752128
 30
0.0
 40
4.99999997902705
100
AcDbArc
 50
21.48495554775248
 51
111.3706045541269
  0
ARC
  5
7056
330
1A
100
AcDbEntity
  8
SEIHIN
100
AcDbCircle
 10
381.0335779275336
 20
158.3350574752128
 30
0.0
 40
1.999999993008124
100
AcDbArc
 50
21.48502984726353
 51
111.3706387466694
  0
LINE
  5
7057
330
1A
100
AcDbEntity
  8
SEIHIN
100
AcDbLine
 10
382.8946049275335
 20
159.0675724752127
 30
0.0
 11
383.3530619275337
 21
157.9028164752127
 31
0.0
  0
LINE
  5
7058
330
1A
100
AcDbEntity
  8
SEIHIN
100
AcDbLine
 10
387.3640429275336
 20
161.3641184752128
 30
0.0
 11
388.0056299275337
 21
159.7341044752128
 31
0.0
  0
LINE
  5
7059
330
1A
100
AcDbEntity
  8
SEIHIN
100
AcDbLine
 10
385.6861459275336
 20
160.1663434752127
 30
0.0
 11
386.1446029275335
 21
159.0015894752127
 31
0.0
  0
CIRCLE
  5
7064
330
1A
100
AcDbEntity
  8
SEIHIN
100
AcDbCircle
 10
524.0820794438093
 20
341.081308236983
 30
0.0
 40
2.1
  0
LINE
  5
7065
330
1A
100
AcDbEntity
  8
SEIHIN
100
AcDbLine
 10
523.0920884438094
 20
329.944885236983
 30
0.0
 11
526.0221494438094
 21
322.500777236983
 31
0.0
  0
LINE
  5
7066
330
1A
100
AcDbEntity
  8
SEIHIN
100
AcDbLine
 10
552.7278864438094
 20
333.012372236983
 30
0.0
 11
508.6215474438092
 21
315.651760236983
 31
0.0
  0
ARC
  5
7067
330
1A
100
AcDbEntity
  8
SEIHIN
100
AcDbCircle
 10
529.6675084438093
 20
326.890978236983
 30
0.0
 40
7.249999838287754
100
AcDbArc
 50
67.88221105080959
 51
155.0878510541562
  0
LINE
  5
7069
330
1A
100
AcDbEntity
  8
CENTER_L
100
AcDbLine
 10
508.7410243135705
 20
324.8335286017753
 30
0.0
 11
510.938570102076
 21
319.2504476864185
 31
0.0
  0
LINE
  5
706A
330
1A
100
AcDbEntity
  8
SEIHIN
100
AcDbLine
 10
518.2639454438095
 20
326.432476236983
 30
0.0
 11
520.6446204438093
 21
320.384139236983
 31
0.0
  0
CIRCLE
  5
706B
330
1A
100
AcDbEntity
  8
SEIHIN
100
AcDbCircle
 10
509.8397974438094
 20
322.041988236983
 30
0.0
 40
2.1
  0
ARC
  5
706C
330
1A
100
AcDbEntity
  8
SEIHIN
100
AcDbCircle
 10
507.8890311487125
 20
317.5127871208303
 30
0.0
 40
2.0
100
AcDbArc
 50
201.4850298472635
 51
291.4850298472629
  0
LINE
  5
706D
330
1A
100
AcDbEntity
  8
CENTER_L
100
AcDbLine
 10
507.0482567501449
 20
320.9432152498442
 30
0.0
 11
512.6313376655016
 21
323.1407610383497
 31
0.0
  0
LINE
  5
706E
330
1A
100
AcDbEntity
  8
CENTER_L
100
AcDbLine
 10
500.5638790143454
 20
336.1230570798952
 30
0.0
 11
509.8690138732735
 21
339.785633394071
 31
0.0
  0
CIRCLE
  5
706F
330
1A
100
AcDbEntity
  8
SEIHIN
100
AcDbCircle
 10
505.2164464438094
 20
337.954345236983
 30
0.0
 40
3.25
  0
LINE
  5
7070
330
1A
100
AcDbEntity
  8
CENTER_L
100
AcDbLine
 10
503.3851582867214
 20
342.606912666447
 30
0.0
 11
507.0477346008974
 21
333.3017778075189
 31
0.0
  0
LINE
  5
7071
330
1A
100
AcDbEntity
  8
SEIHIN
100
AcDbLine
 10
517.1894864438093
 20
326.009561236983
 30
0.0
 11
516.0907134438093
 21
328.801101236983
 31
0.0
  0
LINE
  5
7072
330
1A
100
AcDbEntity
  8
SEIHIN
100
AcDbLine
 10
520.0112004438095
 20
327.120210236983
 30
0.0
 11
517.1894864438093
 21
326.009561236983
 31
0.0
  0
LINE
  5
7073
330
1A
100
AcDbEntity
  8
SEIHIN
100
AcDbLine
 10
519.8264544438093
 20
327.047492236983
 30
0.0
 11
522.2071284438093
 21
320.999154236983
 31
0.0
  0
LINE
  5
7074
330
1A
100
AcDbEntity
  8
SEIHIN
100
AcDbLine
 10
519.4517354438094
 20
331.002604236983
 30
0.0
 11
523.2306084438094
 21
321.4020052369829
 31
0.0
  0
LINE
  5
7075
330
1A
100
AcDbEntity
  8
SEIHIN
100
AcDbLine
 10
520.0112004438095
 20
327.120210236983
 30
0.0
 11
518.9124274438093
 21
329.911750236983
 31
0.0
  0
LINE
  5
7076
330
1A
100
AcDbEntity
  8
SEIHIN
100
AcDbLine
 10
518.9124274438093
 20
329.911750236983
 30
0.0
 11
516.0907134438093
 21
328.801101236983
 31
0.0
  0
LINE
  5
7077
330
1A
100
AcDbEntity
  8
SEIHIN
100
AcDbLine
 10
528.1158044438093
 20
323.324857236983
 30
0.0
 11
532.7338684438093
 21
311.5922122369831
 31
0.0
  0
LINE
  5
7078
330
1A
100
AcDbEntity
  8
SEIHIN
100
AcDbLine
 10
533.2336284438095
 20
325.3392742369829
 30
0.0
 11
537.8516924438095
 21
313.606629236983
 31
0.0
  0
LINE
  5
7079
330
1A
100
AcDbEntity
  8
SEIHIN
100
AcDbLine
 10
534.0306391487124
 20
311.0279561208303
 30
0.0
 11
537.2874371487125
 21
312.3098581208303
 31
0.0
  0
ARC
  5
707A
330
1A
100
AcDbEntity
  8
SEIHIN
100
AcDbCircle
 10
533.6643821487125
 20
311.9584691208302
 30
0.0
 40
1.0
100
AcDbArc
 50
201.485029847265
 51
291.4850298472626
  0
ARC
  5
707B
330
1A
100
AcDbEntity
  8
SEIHIN
100
AcDbCircle
 10
536.9211791487125
 20
313.2403711208302
 30
0.0
 40
1.0
100
AcDbArc
 50
291.4850298472626
 51
21.48502984726504
  0
LINE
  5
707C
330
1A
100
AcDbEntity
  8
SEIHIN
100
AcDbLine
 10
538.3049364438092
 20
334.320772236983
 30
0.0
 11
540.6856104438093
 21
328.2724342369829
 31
0.0
  0
LINE
  5
707D
330
1A
100
AcDbEntity
  8
SEIHIN
100
AcDbLine
 10
536.7414574438093
 20
333.705374236983
 30
0.0
 11
539.1221324438093
 21
327.657037236983
 31
0.0
  0
LINE
  5
707E
330
1A
100
AcDbEntity
  8
SEIHIN
100
AcDbLine
 10
534.3399594438094
 20
336.862705236983
 30
0.0
 11
538.1188244438094
 21
327.262127236983
 31
0.0
  0
LINE
  5
707F
330
1A
100
AcDbEntity
  8
SEIHIN
100
AcDbLine
 10
532.3972234438095
 20
333.607462236983
 30
0.0
 11
535.3272844438093
 21
326.1633542369829
 31
0.0
  0
LINE
  5
7080
330
1A
100
AcDbEntity
  8
SEIHIN
100
AcDbLine
 10
536.5768834438094
 20
333.640597236983
 30
0.0
 11
535.4781104438093
 21
336.4321372369829
 31
0.0
  0
LINE
  5
7081
330
1A
100
AcDbEntity
  8
SEIHIN
100
AcDbLine
 10
538.2998244438095
 20
337.5427862369829
 30
0.0
 11
535.4781104438093
 21
336.4321372369829
 31
0.0
  0
LINE
  5
7082
330
1A
100
AcDbEntity
  8
SEIHIN
100
AcDbLine
 10
539.3985974438094
 20
334.751246236983
 30
0.0
 11
538.2998244438095
 21
337.5427862369829
 31
0.0
  0
LINE
  5
7083
330
1A
100
AcDbEntity
  8
SEIHIN
100
AcDbLine
 10
539.3985974438094
 20
334.751246236983
 30
0.0
 11
536.5768834438094
 21
333.640597236983
 31
0.0
  0
LINE
  5
7084
330
1A
100
AcDbEntity
  8
CENTER_L
100
AcDbLine
 10
546.3820293468513
 20
339.6493325172225
 30
0.0
 11
548.5795751353569
 21
334.0662516018655
 31
0.0
  0
LINE
  5
7085
330
1A
100
AcDbEntity
  8
CENTER_L
100
AcDbLine
 10
544.6892617834257
 20
335.7590191652912
 30
0.0
 11
550.2723426987826
 21
337.9565649537967
 31
0.0
  0
CIRCLE
  5
7086
330
1A
100
AcDbEntity
  8
SEIHIN
100
AcDbCircle
 10
547.4808024438093
 20
336.857792236983
 30
0.0
 40
2.1
  0
ARC
  5
7087
330
1A
100
AcDbEntity
  8
SEIHIN
100
AcDbCircle
 10
551.9953714438092
 20
334.873398236983
 30
0.0
 40
2.0
100
AcDbArc
 50
291.4850298472629
 51
21.48502984726353
  0
LEADER
  5
708C
330
1A
100
AcDbEntity
  8
SUNPOU
100
AcDbLeader
  3
STANDARD
 76
     3
 10
543.1967950620844
 20
350.9774435761825
 30
0.0
 10
568.768677689972
 20
340.8037723559386
 30
0.0
 10
606.2586488372546
 20
340.8037723559386
 30
0.0
1001
ACAD
1000
DSTYLE
1002
{
1070
     6
1000
OPEN
1070
    41
1040
3.0
1070
    42
1040
3.0
1070
    43
1040
7.0
1070
    44
1040
1.5
1070
    73
1070
     0
1070
    74
1070
     0
1070
    77
1070
     3
1070
   140
1040
3.0
1070
   141
1040
3.0
1070
   147
1040
1.0
1070
   172
1070
     1
1070
   173
1070
     1
1070
   176
1070
   256
1070
   177
1070
   256
1070
   178
1070
   256
1070
   271
1070
     0
1070
   272
1070
     1
1070
   341
1005
6D
1070
   343
1005
6D
1070
   344
1005
6D
1002
}
  0
LEADER
  5
708D
330
1A
100
AcDbEntity
  8
SUNPOU
100
AcDbLeader
  3
STANDARD
 76
     3
 10
498.8988792063844
 20
346.4119119495363
 30
0.0
 10
474.9994935223979
 20
364.2398383730918
 30
0.0
 10
441.6099632083758
 20
364.2398383730918
 30
0.0
1001
ACAD
1000
DSTYLE
1002
{
1070
     6
1000
OPEN
1070
    41
1040
3.0
1070
    42
1040
3.0
1070
    43
1040
7.0
1070
    44
1040
1.5
1070
    73
1070
     0
1070
    74
1070
     0
1070
    77
1070
     3
1070
   140
1040
3.0
1070
   141
1040
3.0
1070
   147
1040
1.0
1070
   172
1070
     1
1070
   173
1070
     1
1070
   176
1070
   256
1070
   177
1070
   256
1070
   178
1070
   256
1070
   271
1070
     0
1070
   272
1070
     1
1070
   341
1005
6D
1070
   343
1005
6D
1070
   344
1005
6D
1002
}
  0
LINE
  5
7091
330
1A
100
AcDbEntity
  8
SEIHIN
100
AcDbLine
 10
387.442106562171
 20
445.8671205458917
 30
0.0
 11
387.442106562171
 21
433.6943565458916
 31
0.0
  0
LINE
  5
7092
330
1A
100
AcDbEntity
  8
SEIHIN
100
AcDbLine
 10
388.6421065621711
 20
445.8671205458917
 30
0.0
 11
388.6421065621711
 21
433.6943565458916
 31
0.0
  0
LINE
  5
7093
330
1A
100
AcDbEntity
  8
SEIHIN
100
AcDbLine
 10
401.7439975621709
 20
445.8671215458917
 30
0.0
 11
401.7439975621709
 21
433.6943565458916
 31
0.0
  0
LINE
  5
7095
330
1A
100
AcDbEntity
  8
CENTER_L
100
AcDbLine
 10
387.0569728734757
 20
435.9237195458915
 30
0.0
 11
394.1188417428339
 21
435.9237195458915
 31
0.0
  0
LINE
  5
7096
330
1A
100
AcDbEntity
  8
CENTER_L
100
AcDbLine
 10
389.4202062468501
 20
437.6737195458916
 30
0.0
 11
398.1069822014725
 21
437.6737195458916
 31
0.0
  0
LINE
  5
7097
330
1A
100
AcDbEntity
  8
SEIHIN
100
AcDbLine
 10
390.442106562171
 20
430.6943565458917
 30
0.0
 11
398.7439975621708
 21
430.6943565458917
 31
0.0
  0
ARC
  5
7098
330
1A
100
AcDbEntity
  8
SEIHIN
100
AcDbCircle
 10
390.442106562171
 20
433.6943565458916
 30
0.0
 40
3.0
100
AcDbArc
 50
180.0
 51
270.0
  0
ARC
  5
7099
330
1A
100
AcDbEntity
  8
SEIHIN
100
AcDbCircle
 10
391.642106562171
 20
433.6943565458916
 30
0.0
 40
3.0
100
AcDbArc
 50
180.0
 51
270.0
  0
ELLIPSE
  5
709A
330
1A
100
AcDbEntity
  8
SEIHIN
100
AcDbEllipse
 10
391.192106562171
 20
435.9443595458917
 30
0.0
 11
0.0
 21
2.100001711502092
 31
0.0
210
0.0
220
0.0
230
1.0
 40
0.3571425437499017
 41
-1.570796326794896
 42
4.712388980384689
  0
ELLIPSE
  5
709B
330
1A
100
AcDbEntity
  8
SEIHIN
100
AcDbEllipse
 10
390.518366562171
 20
435.9443595458917
 30
0.0
 11
0.0
 21
2.100001711502092
 31
0.0
210
0.0
220
0.0
230
1.0
 40
0.3571425437499017
 41
-2.675767399566848
 42
-0.4658252540229443
  0
ARC
  5
709C
330
1A
100
AcDbEntity
  8
SEIHIN
100
AcDbCircle
 10
398.7439975621708
 20
433.6943565458916
 30
0.0
 40
3.0
100
AcDbArc
 50
270.0
 51
0.0
  0
LINE
  5
709D
330
1A
100
AcDbEntity
  8
CENTER_L
100
AcDbLine
 10
396.0790252444793
 20
435.9237195458915
 30
0.0
 11
402.4598976232891
 21
435.9237195458915
 31
0.0
  0
ELLIPSE
  5
709E
330
1A
100
AcDbEntity
  8
SEIHIN
100
AcDbEllipse
 10
399.4053025621709
 20
435.9443595458917
 30
0.0
 11
0.0
 21
2.100001711502092
 31
0.0
210
0.0
220
0.0
230
1.0
 40
0.3571425437499017
 41
-1.570796326794896
 42
4.712388980384689
  0
ELLIPSE
  5
709F
330
1A
100
AcDbEntity
  8
SEIHIN
100
AcDbEllipse
 10
394.2856055621708
 20
437.6943595458917
 30
0.0
 11
0.0000000000000001
 21
3.249992382839279
 31
0.0
210
0.0
220
0.0
230
1.0
 40
0.384616286056636
 41
-1.570796326794896
 42
4.712388980384689
  0
ELLIPSE
  5
70A0
330
1A
100
AcDbEntity
  8
SEIHIN
100
AcDbEllipse
 10
393.6118655621709
 20
437.6943595458917
 30
0.0
 11
0.0000000000000001
 21
3.249992382839279
 31
0.0
210
0.0
220
0.0
230
1.0
 40
0.384616286056636
 41
-2.868723640393516
 42
-0.2728690131962772
  0
ELLIPSE
  5
70A1
330
1A
100
AcDbEntity
  8
SEIHIN
100
AcDbEllipse
 10
398.731562562171
 20
435.9443595458917
 30
0.0
 11
0.0
 21
2.100001711502092
 31
0.0
210
0.0
220
0.0
230
1.0
 40
0.3571425437499017
 41
-2.675767399566848
 42
-0.4658252540229443
  0
TEXT
  5
70A2
330
1A
100
AcDbEntity
  8
SUNPOU
100
AcDbText
 10
442.9783864559261
 20
366.9741187123087
 30
0.0
 40
6.0
  1
4-φ4.2
100
AcDbText
  0
LINE
  5
70A3
330
1A
100
AcDbEntity
  8
SEIHIN
100
AcDbLine
 10
384.4364115621709
 20
465.7792795458916
 30
0.0
 11
387.0201015621709
 21
466.3314385458916
 31
0.0
  0
ARC
  5
70A4
330
1A
100
AcDbEntity
  8
SEIHIN
100
AcDbCircle
 10
386.942106562171
 20
466.8046815458916
 30
0.0
 40
1.700000040122499
100
AcDbArc
 50
278.7461491942068
 51
359.9999946189175
  0
ARC
  5
70A5
330
1A
100
AcDbEntity
  8
SEIHIN
100
AcDbCircle
 10
386.942106562171
 20
466.8253175458916
 30
0.0
 40
0.4999998433329509
100
AcDbArc
 50
278.9742142431743
 51
359.9999910624259
  0
LINE
  5
70A6
330
1A
100
AcDbEntity
  8
SEIHIN
100
AcDbLine
 10
399.891696562171
 20
467.7022915458916
 30
0.0
 11
398.569166562171
 21
465.2113945458916
 31
0.0
  0
LINE
  5
70A7
330
1A
100
AcDbEntity
  8
SEIHIN
100
AcDbLine
 10
392.4978615621709
 20
467.7022915458916
 30
0.0
 11
391.1753315621709
 21
465.2113945458916
 31
0.0
  0
LINE
  5
70A8
330
1A
100
AcDbEntity
  8
SEIHIN
100
AcDbLine
 10
392.4978615621709
 20
467.7022915458916
 30
0.0
 11
392.4978615621709
 21
465.2113945458916
 31
0.0
  0
LINE
  5
70A9
330
1A
100
AcDbEntity
  8
SEIHIN
100
AcDbLine
 10
390.553976562171
 20
465.2113945458916
 30
0.0
 11
390.553976562171
 21
467.7022915458916
 31
0.0
  0
LINE
  5
70AA
330
1A
100
AcDbEntity
  8
SEIHIN
100
AcDbLine
 10
397.947811562171
 20
465.2113945458916
 30
0.0
 11
397.947811562171
 21
467.7022915458916
 31
0.0
  0
LINE
  5
70AB
330
1A
100
AcDbEntity
  8
SEIHIN
100
AcDbLine
 10
399.891696562171
 20
467.7022915458916
 30
0.0
 11
399.891696562171
 21
465.2113945458916
 31
0.0
  0
ARC
  5
70AC
330
1A
100
AcDbEntity
  8
SEIHIN
100
AcDbCircle
 10
400.043997562171
 20
466.8046825458916
 30
0.0
 40
1.700000040122499
100
AcDbArc
 50
278.7461491942068
 51
359.9999946189175
  0
LINE
  5
70AD
330
1A
100
AcDbEntity
  8
SEIHIN
100
AcDbLine
 10
384.6243855621709
 20
464.5876945458916
 30
0.0
 11
397.7262765621709
 21
464.5876955458916
 31
0.0
  0
ELLIPSE
  5
70AE
330
1A
100
AcDbEntity
  8
SEIHIN
100
AcDbEllipse
 10
393.442840562171
 20
456.3462215458916
 30
0.0
 11
0.0000000000000001
 21
-3.000001500001125
 31
0.0
210
0.0
220
0.0
230
-1.0
 40
0.4166664583332813
 41
-1.570796326794896
 42
4.712388980384689
  0
LINE
  5
70AF
330
1A
100
AcDbEntity
  8
SEIHIN
100
AcDbLine
 10
397.7254905621709
 20
448.0984695458917
 30
0.0
 11
384.6235995621711
 21
448.0984695458917
 31
0.0
  0
LINE
  5
70B0
330
1A
100
AcDbEntity
  8
SEIHIN
100
AcDbLine
 10
392.4978615621709
 20
445.8877615458916
 30
0.0
 11
397.947811562171
 21
445.8877615458916
 31
0.0
  0
LINE
  5
70B1
330
1A
100
AcDbEntity
  8
SEIHIN
100
AcDbLine
 10
390.0608665621708
 20
460.3462215458916
 30
0.0
 11
390.0608665621708
 21
452.3462215458916
 31
0.0
  0
LINE
  5
70B2
330
1A
100
AcDbEntity
  8
SEIHIN
100
AcDbLine
 10
384.6235995621711
 20
448.0984695458917
 30
0.0
 11
387.2072885621708
 21
447.5463105458916
 31
0.0
  0
LINE
  5
70B3
330
1A
100
AcDbEntity
  8
SEIHIN
100
AcDbLine
 10
384.4364115621709
 20
446.9131585458916
 30
0.0
 11
387.0201015621709
 21
446.3609995458917
 31
0.0
  0
LINE
  5
70B4
330
1A
100
AcDbEntity
  8
SEIHIN
100
AcDbLine
 10
383.2547975621709
 20
448.2960205458916
 30
0.0
 11
383.2547955621709
 21
448.8462045458916
 31
0.0
  0
LINE
  5
70B5
330
1A
100
AcDbEntity
  8
SEIHIN
100
AcDbLine
 10
384.6235995621711
 20
448.0984695458917
 30
0.0
 11
384.6235965621709
 21
448.8462085458916
 31
0.0
  0
ARC
  5
70B6
330
1A
100
AcDbEntity
  8
SEIHIN
100
AcDbCircle
 10
384.6547975621709
 20
448.2960205458916
 30
0.0
 40
1.399999956435712
100
AcDbArc
 50
179.9999974854031
 51
261.0257794118533
  0
ARC
  5
70B7
330
1A
100
AcDbEntity
  8
SEIHIN
100
AcDbCircle
 10
386.942106562171
 20
445.8671205458917
 30
0.0
 40
1.700000158763073
100
AcDbArc
 50
0.0000066132454181
 51
81.02579079286194
  0
LINE
  5
70B8
330
1A
100
AcDbEntity
  8
SEIHIN
100
AcDbLine
 10
388.6421065621711
 20
445.8877615458916
 30
0.0
 11
390.553976562171
 21
445.8877615458916
 31
0.0
  0
ARC
  5
70B9
330
1A
100
AcDbEntity
  8
SEIHIN
100
AcDbCircle
 10
386.942106562171
 20
445.8671205458917
 30
0.0
 40
0.4999998433329509
100
AcDbArc
 50
0.0000000000781653
 51
81.02577681933052
  0
LINE
  5
70BA
330
1A
100
AcDbEntity
  8
SEIHIN
100
AcDbLine
 10
392.4978615621709
 20
447.4810475458916
 30
0.0
 11
390.553976562171
 21
447.4810475458916
 31
0.0
  0
LINE
  5
70BB
330
1A
100
AcDbEntity
  8
SEIHIN
100
AcDbLine
 10
390.553976562171
 20
444.9901515458916
 30
0.0
 11
392.4978615621709
 21
444.9901515458916
 31
0.0
  0
LINE
  5
70BC
330
1A
100
AcDbEntity
  8
SEIHIN
100
AcDbLine
 10
390.553976562171
 20
447.4810475458916
 30
0.0
 11
390.553976562171
 21
444.9901515458916
 31
0.0
  0
LINE
  5
70BD
330
1A
100
AcDbEntity
  8
SEIHIN
100
AcDbLine
 10
392.4978615621709
 20
444.9901515458916
 30
0.0
 11
392.4978615621709
 21
447.4810475458916
 31
0.0
  0
LINE
  5
70BE
330
1A
100
AcDbEntity
  8
SEIHIN
100
AcDbLine
 10
392.4978615621709
 20
444.9901515458916
 30
0.0
 11
391.1753315621709
 21
447.4810485458916
 31
0.0
  0
ARC
  5
70BF
330
1A
100
AcDbEntity
  8
SEIHIN
100
AcDbCircle
 10
389.0608665621708
 20
452.3462215458916
 30
0.0
 40
0.9999997520041885
100
AcDbArc
 50
269.9424749991761
 51
0.0
  0
LINE
  5
70C0
330
1A
100
AcDbEntity
  8
SEIHIN
100
AcDbLine
 10
387.200603562171
 20
465.1244495458917
 30
0.0
 11
384.6243855621709
 21
464.5876945458916
 31
0.0
  0
LINE
  5
70C1
330
1A
100
AcDbEntity
  8
SEIHIN
100
AcDbLine
 10
384.6243855621709
 20
464.5876945458916
 30
0.0
 11
384.6243875621709
 21
463.8462085458916
 31
0.0
  0
LINE
  5
70C2
330
1A
100
AcDbEntity
  8
SEIHIN
100
AcDbLine
 10
383.2547975621709
 20
464.3964175458917
 30
0.0
 11
383.254798562171
 21
463.8462045458917
 31
0.0
  0
ARC
  5
70C3
330
1A
100
AcDbEntity
  8
SEIHIN
100
AcDbCircle
 10
384.6547975621709
 20
464.3964175458917
 30
0.0
 40
1.399999956435712
100
AcDbArc
 50
98.97421424316121
 51
179.9999961696147
  0
ARC
  5
70C4
330
1A
100
AcDbEntity
  8
SEIHIN
100
AcDbCircle
 10
389.0608665621708
 20
460.3462215458916
 30
0.0
 40
0.9999997638769443
100
AcDbArc
 50
0.0
 51
90.10015312088318
  0
LINE
  5
70C5
330
1A
100
AcDbEntity
  8
SEIHIN
100
AcDbLine
 10
392.4978615621709
 20
465.2113945458916
 30
0.0
 11
390.553976562171
 21
465.2113945458916
 31
0.0
  0
ARC
  5
70C6
330
1A
100
AcDbEntity
  8
SEIHIN
100
AcDbCircle
 10
413.651069562171
 20
456.3359015458916
 30
0.0
 40
17.43067870772648
100
AcDbArc
 50
163.3304729704052
 51
196.6694668411141
  0
LINE
  5
70C7
330
1A
100
AcDbEntity
  8
SEIHIN
100
AcDbLine
 10
401.7439975621709
 20
460.3359015458917
 30
0.0
 11
401.7439975621709
 21
452.3359015458916
 31
0.0
  0
ARC
  5
70C8
330
1A
100
AcDbEntity
  8
SEIHIN
100
AcDbCircle
 10
400.7439975621708
 20
452.3359015458916
 30
0.0
 40
1.000000000002249
100
AcDbArc
 50
270.0001718873445
 51
0.0
  0
LINE
  5
70C9
330
1A
100
AcDbEntity
  8
SEIHIN
100
AcDbLine
 10
399.891696562171
 20
445.8877615458916
 30
0.0
 11
401.7439975621709
 21
445.8877605458916
 31
0.0
  0
ARC
  5
70CA
330
1A
100
AcDbEntity
  8
SEIHIN
100
AcDbCircle
 10
400.043997562171
 20
445.8671215458917
 30
0.0
 40
1.700000158763073
100
AcDbArc
 50
0.0000066132454181
 51
81.02579079286194
  0
LINE
  5
70CB
330
1A
100
AcDbEntity
  8
SEIHIN
100
AcDbLine
 10
400.744000562171
 20
451.3359015458916
 30
0.0
 11
400.744000562171
 21
448.8462555458916
 31
0.0
  0
LINE
  5
70CC
330
1A
100
AcDbEntity
  8
SEIHIN
100
AcDbLine
 10
397.7254905621709
 20
448.0984695458917
 30
0.0
 11
400.3091795621709
 21
447.5463115458916
 31
0.0
  0
LINE
  5
70CD
330
1A
100
AcDbEntity
  8
SEIHIN
100
AcDbLine
 10
397.7254905621709
 20
448.0984695458917
 30
0.0
 11
397.725487562171
 21
448.8462465458916
 31
0.0
  0
LINE
  5
70CE
330
1A
100
AcDbEntity
  8
SEIHIN
100
AcDbLine
 10
399.891696562171
 20
447.4810475458916
 30
0.0
 11
397.947811562171
 21
447.4810475458916
 31
0.0
  0
LINE
  5
70CF
330
1A
100
AcDbEntity
  8
SEIHIN
100
AcDbLine
 10
397.947811562171
 20
444.9901515458916
 30
0.0
 11
399.891696562171
 21
444.9901515458916
 31
0.0
  0
LINE
  5
70D0
330
1A
100
AcDbEntity
  8
SEIHIN
100
AcDbLine
 10
399.891696562171
 20
444.9901515458916
 30
0.0
 11
398.569166562171
 21
447.4810485458916
 31
0.0
  0
LINE
  5
70D1
330
1A
100
AcDbEntity
  8
SEIHIN
100
AcDbLine
 10
399.891696562171
 20
444.9901515458916
 30
0.0
 11
399.891696562171
 21
447.4810475458916
 31
0.0
  0
LINE
  5
70D2
330
1A
100
AcDbEntity
  8
SEIHIN
100
AcDbLine
 10
397.947811562171
 20
447.4810475458916
 30
0.0
 11
397.947811562171
 21
444.9901515458916
 31
0.0
  0
LINE
  5
70D3
330
1A
100
AcDbEntity
  8
SEIHIN
100
AcDbLine
 10
400.744000562171
 20
451.3359015458916
 30
0.0
 11
396.9529095621709
 21
451.3359015458916
 31
0.0
  0
ARC
  5
70D4
330
1A
100
AcDbEntity
  8
SEIHIN
100
AcDbCircle
 10
400.7439975621708
 20
460.3359015458917
 30
0.0
 40
1.000000000002249
100
AcDbArc
 50
0.0000031708051873
 51
90.00017505814657
  0
LINE
  5
70D5
330
1A
100
AcDbEntity
  8
SEIHIN
100
AcDbLine
 10
396.9529095621709
 20
461.3359015458916
 30
0.0
 11
400.743994562171
 21
461.3359015458916
 31
0.0
  0
LINE
  5
70D6
330
1A
100
AcDbEntity
  8
SEIHIN
100
AcDbLine
 10
400.3024935621709
 20
465.1244505458917
 30
0.0
 11
397.7262765621709
 21
464.5876955458916
 31
0.0
  0
LINE
  5
70D7
330
1A
100
AcDbEntity
  8
SEIHIN
100
AcDbLine
 10
400.743994562171
 20
461.3359015458916
 30
0.0
 11
400.743994562171
 21
463.8462555458916
 31
0.0
  0
LINE
  5
70D8
330
1A
100
AcDbEntity
  8
SEIHIN
100
AcDbLine
 10
397.7262765621709
 20
464.5876955458916
 30
0.0
 11
397.7262785621709
 21
463.8462465458917
 31
0.0
  0
LINE
  5
70D9
330
1A
100
AcDbEntity
  8
SEIHIN
100
AcDbLine
 10
399.891696562171
 20
465.2113945458916
 30
0.0
 11
397.947811562171
 21
465.2113945458916
 31
0.0
  0
LINE
  5
70DA
330
1A
100
AcDbEntity
  8
CENTER_L
100
AcDbLine
 10
387.0569728734757
 20
476.7480835458917
 30
0.0
 11
394.1188417428339
 21
476.7480835458917
 31
0.0
  0
LINE
  5
70DB
330
1A
100
AcDbEntity
  8
CENTER_L
100
AcDbLine
 10
389.4202062468501
 20
474.9980835458917
 30
0.0
 11
398.1069822014725
 21
474.9980835458917
 31
0.0
  0
LINE
  5
70DC
330
1A
100
AcDbEntity
  8
SEIHIN
100
AcDbLine
 10
390.442106562171
 20
481.9980835458917
 30
0.0
 11
398.7439975621708
 21
481.9980835458917
 31
0.0
  0
LINE
  5
70DD
330
1A
100
AcDbEntity
  8
SEIHIN
100
AcDbLine
 10
392.4978615621709
 20
466.8046815458916
 30
0.0
 11
397.947811562171
 21
466.8046815458916
 31
0.0
  0
ELLIPSE
  5
70DE
330
1A
100
AcDbEntity
  8
SEIHIN
100
AcDbEllipse
 10
390.518366562171
 20
476.7480835458917
 30
0.0
 11
0.0
 21
-2.100001711502092
 31
0.0
210
0.0
220
0.0
230
-1.0
 40
0.3571425437499017
 41
-2.675767399566848
 42
-0.4658252540229443
  0
ELLIPSE
  5
70DF
330
1A
100
AcDbEntity
  8
SEIHIN
100
AcDbEllipse
 10
391.192106562171
 20
476.7480835458917
 30
0.0
 11
0.0
 21
-2.100001711502092
 31
0.0
210
0.0
220
0.0
230
-1.0
 40
0.3571425437499017
 41
-1.570796326794896
 42
4.712388980384689
  0
LINE
  5
70E0
330
1A
100
AcDbEntity
  8
SEIHIN
100
AcDbLine
 10
388.6421065621711
 20
466.8046815458916
 30
0.0
 11
388.6421065621711
 21
478.9980835458917
 31
0.0
  0
LINE
  5
70E1
330
1A
100
AcDbEntity
  8
SEIHIN
100
AcDbLine
 10
387.442106562171
 20
466.8253175458916
 30
0.0
 11
387.442106562171
 21
478.9980835458917
 31
0.0
  0
LINE
  5
70E2
330
1A
100
AcDbEntity
  8
SEIHIN
100
AcDbLine
 10
388.6421065621711
 20
466.8046815458916
 30
0.0
 11
390.553976562171
 21
466.8046815458916
 31
0.0
  0
LINE
  5
70E3
330
1A
100
AcDbEntity
  8
SEIHIN
100
AcDbLine
 10
390.553976562171
 20
467.7022915458916
 30
0.0
 11
392.4978615621709
 21
467.7022915458916
 31
0.0
  0
ARC
  5
70E4
330
1A
100
AcDbEntity
  8
SEIHIN
100
AcDbCircle
 10
391.642106562171
 20
478.9980835458917
 30
0.0
 40
3.0
100
AcDbArc
 50
90.0
 51
180.0
  0
ARC
  5
70E5
330
1A
100
AcDbEntity
  8
SEIHIN
100
AcDbCircle
 10
390.442106562171
 20
478.9980835458917
 30
0.0
 40
3.0
100
AcDbArc
 50
90.0
 51
180.0
  0
ELLIPSE
  5
70E6
330
1A
100
AcDbEntity
  8
SEIHIN
100
AcDbEllipse
 10
398.731562562171
 20
476.7480835458917
 30
0.0
 11
0.0
 21
-2.100001711502092
 31
0.0
210
0.0
220
0.0
230
-1.0
 40
0.3571425437499017
 41
-2.675767399566848
 42
-0.4658252540229443
  0
ELLIPSE
  5
70E7
330
1A
100
AcDbEntity
  8
SEIHIN
100
AcDbEllipse
 10
393.6118655621709
 20
474.9980835458917
 30
0.0
 11
0.0000000000000001
 21
-3.249992382839279
 31
0.0
210
0.0
220
0.0
230
-1.0
 40
0.384616286056636
 41
-2.868723640393516
 42
-0.2728690131962772
  0
ELLIPSE
  5
70E8
330
1A
100
AcDbEntity
  8
SEIHIN
100
AcDbEllipse
 10
394.2856055621708
 20
474.9980835458917
 30
0.0
 11
0.0000000000000001
 21
-3.249992382839279
 31
0.0
210
0.0
220
0.0
230
-1.0
 40
0.384616286056636
 41
-1.570796326794896
 42
4.712388980384689
  0
ELLIPSE
  5
70E9
330
1A
100
AcDbEntity
  8
SEIHIN
100
AcDbEllipse
 10
399.4053025621709
 20
476.7480835458917
 30
0.0
 11
0.0
 21
-2.100001711502092
 31
0.0
210
0.0
220
0.0
230
-1.0
 40
0.3571425437499017
 41
-1.570796326794896
 42
4.712388980384689
  0
LINE
  5
70EA
330
1A
100
AcDbEntity
  8
SEIHIN
100
AcDbLine
 10
401.7439975621709
 20
466.8046815458916
 30
0.0
 11
401.7439975621709
 21
478.9980835458917
 31
0.0
  0
LINE
  5
70EB
330
1A
100
AcDbEntity
  8
CENTER_L
100
AcDbLine
 10
396.0790252444793
 20
476.7480835458917
 30
0.0
 11
402.4598976232891
 21
476.7480835458917
 31
0.0
  0
LINE
  5
70EC
330
1A
100
AcDbEntity
  8
SEIHIN
100
AcDbLine
 10
399.891696562171
 20
466.8046815458916
 30
0.0
 11
401.7439975621709
 21
466.8046815458916
 31
0.0
  0
LINE
  5
70ED
330
1A
100
AcDbEntity
  8
SEIHIN
100
AcDbLine
 10
397.947811562171
 20
467.7022915458916
 30
0.0
 11
399.891696562171
 21
467.7022915458916
 31
0.0
  0
ARC
  5
70EE
330
1A
100
AcDbEntity
  8
SEIHIN
100
AcDbCircle
 10
398.7439975621708
 20
478.9980835458917
 30
0.0
 40
3.0
100
AcDbArc
 50
0.0
 51
90.0
  0
LINE
  5
70EF
330
1A
100
AcDbEntity
  8
SEIHIN
100
AcDbLine
 10
516.2000464438095
 20
347.4547952369829
 30
0.0
 11
525.5051804438094
 21
351.117372236983
 31
0.0
  0
LINE
  5
70F0
330
1A
100
AcDbEntity
  8
SEIHIN
100
AcDbLine
 10
519.8776414438093
 20
365.414689236983
 30
0.0
 11
525.5051804438094
 21
351.117372236983
 31
0.0
  0
LINE
  5
70F1
330
1A
100
AcDbEntity
  8
SEIHIN
100
AcDbLine
 10
510.0453344438094
 20
354.900490236983
 30
0.0
 11
495.4362724438095
 21
349.150245236983
 31
0.0
  0
LINE
  5
70F2
330
1A
100
AcDbEntity
  8
CENTER_L
100
AcDbLine
 10
497.8918159861309
 20
344.2060523427302
 30
0.0
 11
503.4748969014876
 21
346.4035981312358
 31
0.0
  0
ARC
  5
70F3
330
1A
100
AcDbEntity
  8
SEIHIN
100
AcDbCircle
 10
496.1687874438093
 20
347.289218236983
 30
0.0
 40
2.0
100
AcDbArc
 50
111.4850298472629
 51
201.4850298472635
  0
LINE
  5
70F4
330
1A
100
AcDbEntity
  8
SEIHIN
100
AcDbLine
 10
510.5725064438092
 20
361.752112236983
 30
0.0
 11
516.2000464438095
 21
347.4547952369829
 31
0.0
  0
LINE
  5
70F5
330
1A
100
AcDbEntity
  8
SEIHIN
100
AcDbLine
 10
507.4593454438093
 20
353.882624236983
 30
0.0
 11
509.8400204438093
 21
347.834286236983
 31
0.0
  0
LINE
  5
70F6
330
1A
100
AcDbEntity
  8
SEIHIN
100
AcDbLine
 10
509.0218534438093
 20
354.497640236983
 30
0.0
 11
511.4025284438094
 21
348.449302236983
 31
0.0
  0
LINE
  5
70F7
330
1A
100
AcDbEntity
  8
SEIHIN
100
AcDbLine
 10
511.5872744438092
 20
348.522020236983
 30
0.0
 11
508.7655614438094
 21
347.411371236983
 31
0.0
  0
LINE
  5
70F8
330
1A
100
AcDbEntity
  8
SEIHIN
100
AcDbLine
 10
512.6860474438094
 20
345.730480236983
 30
0.0
 11
509.8643344438094
 21
344.6198302369829
 31
0.0
  0
LINE
  5
70F9
330
1A
100
AcDbEntity
  8
SEIHIN
100
AcDbLine
 10
508.7655614438094
 20
347.411371236983
 30
0.0
 11
509.8643344438094
 21
344.6198302369829
 31
0.0
  0
LINE
  5
70FA
330
1A
100
AcDbEntity
  8
SEIHIN
100
AcDbLine
 10
511.5872744438092
 20
348.522020236983
 30
0.0
 11
512.6860474438094
 21
345.730480236983
 31
0.0
  0
LINE
  5
70FB
330
1A
100
AcDbEntity
  8
SEIHIN
100
AcDbLine
 10
511.4188904438094
 20
363.697269236983
 30
0.0
 11
517.9324844438094
 21
366.261072236983
 31
0.0
  0
LINE
  5
70FC
330
1A
100
AcDbEntity
  8
SEIHIN
100
AcDbLine
 10
508.1607444438093
 20
359.688474236983
 30
0.0
 11
510.9522854438093
 21
360.7872472369829
 31
0.0
  0
ARC
  5
70FD
330
1A
100
AcDbEntity
  8
SEIHIN
100
AcDbCircle
 10
511.9682764438094
 20
362.301499236983
 30
0.0
 40
1.5
100
AcDbArc
 50
111.4850298472629
 51
201.4850298472658
  0
ARC
  5
70FE
330
1A
100
AcDbEntity
  8
SEIHIN
100
AcDbCircle
 10
518.4818714438095
 20
364.865302236983
 30
0.0
 40
1.5
100
AcDbArc
 50
21.4850298472658
 51
111.4850298472629
  0
LINE
  5
70FF
330
1A
100
AcDbEntity
  8
SEIHIN
100
AcDbLine
 10
520.2574204438094
 20
364.449823236983
 30
0.0
 11
523.0489604438093
 21
365.5485962369829
 31
0.0
  0
ARC
  5
7101
330
1A
100
AcDbEntity
  8
SEIHIN
100
AcDbCircle
 10
540.2751264438093
 20
364.649830236983
 30
0.0
 40
2.0
100
AcDbArc
 50
21.48502984726353
 51
111.4850298472629
  0
LINE
  5
7102
330
1A
100
AcDbEntity
  8
CENTER_L
100
AcDbLine
 10
535.5328210194118
 20
359.0218562581773
 30
0.0
 11
541.1159019347687
 21
361.2194020466827
 31
0.0
  0
LINE
  5
7103
330
1A
100
AcDbEntity
  8
CENTER_L
100
AcDbLine
 10
538.1863621952343
 20
356.3049478988786
 30
0.0
 11
541.8489385094103
 21
346.9998130399505
 31
0.0
  0
LINE
  5
7104
330
1A
100
AcDbEntity
  8
CENTER_L
100
AcDbLine
 10
535.3650829228583
 20
349.8210923123266
 30
0.0
 11
544.6702177817862
 21
353.4836686265025
 31
0.0
  0
CIRCLE
  5
7105
330
1A
100
AcDbEntity
  8
SEIHIN
100
AcDbCircle
 10
540.0176504438093
 20
351.6523802369829
 30
0.0
 40
3.25
  0
CIRCLE
  5
7106
330
1A
100
AcDbEntity
  8
SEIHIN
100
AcDbCircle
 10
538.3243614438095
 20
360.120629236983
 30
0.0
 40
2.1
  0
LINE
  5
7107
330
1A
100
AcDbEntity
  8
SEIHIN
100
AcDbLine
 10
530.9746714438094
 20
356.153056236983
 30
0.0
 11
528.1529584438094
 21
355.042407236983
 31
0.0
  0
LINE
  5
7108
330
1A
100
AcDbEntity
  8
SEIHIN
100
AcDbLine
 10
525.9368574438094
 20
361.155522236983
 30
0.0
 11
528.3175324438093
 21
355.107185236983
 31
0.0
  0
LINE
  5
7109
330
1A
100
AcDbEntity
  8
SEIHIN
100
AcDbLine
 10
530.9746714438094
 20
356.153056236983
 30
0.0
 11
532.0734444438094
 21
353.361516236983
 31
0.0
  0
LINE
  5
710A
330
1A
100
AcDbEntity
  8
SEIHIN
100
AcDbLine
 10
532.0734444438094
 20
353.361516236983
 30
0.0
 11
529.2517314438093
 21
352.2508662369829
 31
0.0
  0
LINE
  5
710B
330
1A
100
AcDbEntity
  8
SEIHIN
100
AcDbLine
 10
528.1529584438094
 20
355.042407236983
 30
0.0
 11
529.2517314438093
 21
352.2508662369829
 31
0.0
  0
LINE
  5
710C
330
1A
100
AcDbEntity
  8
SEIHIN
100
AcDbLine
 10
539.5426114438094
 20
366.5108572369829
 30
0.0
 11
524.9335494438094
 21
360.760612236983
 31
0.0
  0
LINE
  5
710D
330
1A
100
AcDbEntity
  8
SEIHIN
100
AcDbLine
 10
527.5003364438093
 20
361.770920236983
 30
0.0
 11
529.8810104438094
 21
355.7225822369829
 31
0.0
  0
LINE
  5
710E
330
1A
100
AcDbEntity
  8
CENTER_L
100
AcDbLine
 10
537.2255885828376
 20
362.9121696101084
 30
0.0
 11
539.4231343713429
 21
357.3290886947516
 31
0.0
  0
TEXT
  5
710F
330
1A
100
AcDbEntity
  8
SUNPOU
100
AcDbText
 10
573.062568409088
 20
343.2875081668123
 30
0.0
 40
6.0
  1
2-φ6.5
100
AcDbText
  0
LINE
  5
73CA
330
1A
100
AcDbEntity
  8
SEIHIN
100
AcDbLine
 10
362.1635499275336
 20
317.227168713619
 30
0.0
 11
379.2115809275336
 21
323.898136713619
 31
0.0
  0
LINE
  5
73CB
330
1A
100
AcDbEntity
  8
SEIHIN
100
AcDbLine
 10
380.3047789275336
 20
321.104408713619
 30
0.0
 11
362.9234819275335
 21
314.303030713619
 31
0.0
  0
LINE
  5
73CC
330
1A
100
AcDbEntity
  8
SEIHIN
100
AcDbLine
 10
361.5302739275335
 20
319.6639487136189
 30
0.0
 11
378.3011978923886
 21
326.226484265092
 31
0.0
  0
LINE
  5
73CD
330
1A
100
AcDbEntity
  8
SEIHIN
100
AcDbLine
 10
358.7696199275336
 20
306.558889713619
 30
0.0
 11
371.9701039275336
 21
308.4290557136189
 31
0.0
  0
LINE
  5
73CE
330
1A
100
AcDbEntity
  8
SEIHIN
100
AcDbLine
 10
371.6895579275336
 20
310.409281713619
 30
0.0
 11
358.4890729275335
 21
308.539114713619
 31
0.0
  0
ARC
  5
73CF
330
1A
100
AcDbEntity
  8
SEIHIN
100
AcDbCircle
 10
362.4625459275335
 20
285.613660713619
 30
0.0
 40
1.421652073219743
100
AcDbArc
 50
309.9262992300506
 51
333.4919521171928
  0
LINE
  5
73D0
330
1A
100
AcDbEntity
  8
SEIHIN
100
AcDbLine
 10
348.2827719275336
 20
284.123437713619
 30
0.0
 11
364.4717409275337
 21
284.123437713619
 31
0.0
  0
LINE
  5
73D2
330
1A
100
AcDbEntity
  8
SEIHIN
100
AcDbLine
 10
306.4378439275336
 20
298.323157713619
 30
0.0
 11
296.7588709275336
 21
302.786332713619
 31
0.0
  0
LINE
  5
73D3
330
1A
100
AcDbEntity
  8
SEIHIN
100
AcDbLine
 10
307.6745479275335
 20
296.768157713619
 30
0.0
 11
297.5915429275336
 21
296.768159713619
 31
0.0
  0
LINE
  5
73D4
330
1A
100
AcDbEntity
  8
SEIHIN
100
AcDbLine
 10
297.6181149275335
 20
285.6234377136189
 30
0.0
 11
334.7206419275336
 21
285.6234377136189
 31
0.0
  0
LINE
  5
73D5
330
1A
100
AcDbEntity
  8
SEIHIN
100
AcDbLine
 10
297.6181319275336
 20
290.623437713619
 30
0.0
 11
334.7206419275336
 21
290.623437713619
 31
0.0
  0
LINE
  5
73D6
330
1A
100
AcDbEntity
  8
SEIHIN
100
AcDbLine
 10
262.3222659275337
 20
291.413122713619
 30
0.0
 11
267.4755539275337
 21
291.413122713619
 31
0.0
  0
LINE
  5
73D7
330
1A
100
AcDbEntity
  8
SEIHIN
100
AcDbLine
 10
267.4755539275337
 20
292.413122713619
 30
0.0
 11
262.3222659275337
 21
292.413122713619
 31
0.0
  0
LINE
  5
73D8
330
1A
100
AcDbEntity
  8
SEIHIN
100
AcDbLine
 10
261.7856669275337
 20
299.340475713619
 30
0.0
 11
260.7887489275336
 21
299.418934713619
 31
0.0
  0
LINE
  5
73D9
330
1A
100
AcDbEntity
  8
SEIHIN
100
AcDbLine
 10
264.0632899275336
 20
292.413122713619
 30
0.0
 11
264.0632899275336
 21
291.413122713619
 31
0.0
  0
ARC
  5
73DA
330
1A
100
AcDbEntity
  8
SEIHIN
100
AcDbCircle
 10
262.3222659275337
 20
293.413122713619
 30
0.0
 40
2.000000158243612
100
AcDbArc
 50
175.5000039676397
 51
269.9999977523173
  0
LINE
  5
73DB
330
1A
100
AcDbEntity
  8
SEIHIN
100
AcDbLine
 10
261.3953489275337
 20
294.381013713619
 30
0.0
 11
263.3632389275336
 21
292.413122713619
 31
0.0
  0
ARC
  5
73DC
330
1A
100
AcDbEntity
  8
SEIHIN
100
AcDbCircle
 10
262.3222659275337
 20
293.413122713619
 30
0.0
 40
0.999999829892471
100
AcDbArc
 50
175.5000039676389
 51
270.0
  0
LINE
  5
73DD
330
1A
100
AcDbEntity
  8
SEIHIN
100
AcDbLine
 10
261.3253489275336
 20
293.491581713619
 30
0.0
 11
261.7856669275337
 21
299.340475713619
 31
0.0
  0
LINE
  5
73DE
330
1A
100
AcDbEntity
  8
SEIHIN
100
AcDbLine
 10
260.3284319275336
 20
293.5700407136189
 30
0.0
 11
260.7887489275336
 21
299.418934713619
 31
0.0
  0
ARC
  5
73DF
330
1A
100
AcDbEntity
  8
SEIHIN
100
AcDbCircle
 10
286.1181589275337
 20
286.898609713619
 30
0.0
 40
15.72491078112709
100
AcDbArc
 50
43.00252833503147
 51
136.9974830730985
  0
LINE
  5
73E0
330
1A
100
AcDbEntity
  8
SEIHIN
100
AcDbLine
 10
274.6181069275336
 20
283.623520713619
 30
0.0
 11
297.6181069275336
 21
283.623520713619
 31
0.0
  0
LINE
  5
73E1
330
1A
100
AcDbEntity
  8
SEIHIN
100
AcDbLine
 10
280.1180319275337
 20
291.623520713619
 30
0.0
 11
297.6181069275336
 21
291.623520713619
 31
0.0
  0
ARC
  5
73E2
330
1A
100
AcDbEntity
  8
SEIHIN
100
AcDbCircle
 10
308.6434819275335
 20
294.213313713619
 30
0.0
 40
40.79999412073524
100
AcDbArc
 50
184.5832787066593
 51
190.3933058531252
  0
LINE
  5
73E3
330
1A
100
AcDbEntity
  8
SEIHIN
100
AcDbLine
 10
276.6180569275337
 20
296.423476713619
 30
0.0
 11
276.6180569275337
 21
288.923476713619
 31
0.0
  0
LINE
  5
73E4
330
1A
100
AcDbEntity
  8
SEIHIN
100
AcDbLine
 10
274.6181069275336
 20
283.623520713619
 30
0.0
 11
274.6181569275337
 21
297.623477713619
 31
0.0
  0
LINE
  5
73E5
330
1A
100
AcDbEntity
  8
SEIHIN
100
AcDbLine
 10
280.1180569275337
 20
296.423479713619
 30
0.0
 11
280.1180569275337
 21
288.923479713619
 31
0.0
  0
LINE
  5
73E6
330
1A
100
AcDbEntity
  8
SEIHIN
100
AcDbLine
 10
279.8680569275337
 20
296.123444713619
 30
0.0
 11
279.8680569275337
 21
288.923479713619
 31
0.0
  0
LINE
  5
73E7
330
1A
100
AcDbEntity
  8
SEIHIN
100
AcDbLine
 10
276.8680569275337
 20
288.923479713619
 30
0.0
 11
276.8680569275337
 21
296.123444713619
 31
0.0
  0
LINE
  5
73E8
330
1A
100
AcDbEntity
  8
SEIHIN
100
AcDbLine
 10
269.9882989275337
 20
285.6234377136189
 30
0.0
 11
274.6181149275336
 21
285.6234377136189
 31
0.0
  0
ARC
  5
73E9
330
1A
100
AcDbEntity
  8
SEIHIN
100
AcDbCircle
 10
269.9882989275337
 20
287.123437713619
 30
0.0
 40
1.500000051426164
100
AcDbArc
 50
190.3932883742413
 51
269.9999965545381
  0
LINE
  5
73EA
330
1A
100
AcDbEntity
  8
SEIHIN
100
AcDbLine
 10
276.6180569275337
 20
288.923476713619
 30
0.0
 11
280.1180569275337
 21
288.923479713619
 31
0.0
  0
LINE
  5
73EB
330
1A
100
AcDbEntity
  8
SEIHIN
100
AcDbLine
 10
268.5515569275336
 20
290.623437713619
 30
0.0
 11
274.6181319275336
 21
290.623437713619
 31
0.0
  0
ARC
  5
73EC
330
1A
100
AcDbEntity
  8
SEIHIN
100
AcDbCircle
 10
267.4755539275337
 20
290.913122713619
 30
0.0
 40
1.499999818375477
100
AcDbArc
 50
4.583278706660171
 51
90.0
  0
ARC
  5
73ED
330
1A
100
AcDbEntity
  8
SEIHIN
100
AcDbCircle
 10
308.6434819275335
 20
294.213313713619
 30
0.0
 40
39.79999425007106
100
AcDbArc
 50
184.5832787066593
 51
185.1750064315923
  0
ARC
  5
73EE
330
1A
100
AcDbEntity
  8
SEIHIN
100
AcDbCircle
 10
268.5515569275336
 20
290.123437713619
 30
0.0
 40
0.4999997593863843
100
AcDbArc
 50
89.99999418527593
 51
185.8247471985338
  0
ARC
  5
73EF
330
1A
100
AcDbEntity
  8
SEIHIN
100
AcDbCircle
 10
267.4755539275337
 20
290.913122713619
 30
0.0
 40
0.4999999394584927
100
AcDbArc
 50
4.583221594081382
 51
89.99994288741406
  0
LINE
  5
73F0
330
1A
100
AcDbEntity
  8
SEIHIN
100
AcDbLine
 10
266.9252619275336
 20
292.413122713619
 30
0.0
 11
266.9252619275336
 21
291.413122713619
 31
0.0
  0
LINE
  5
73F1
330
1A
100
AcDbEntity
  8
SEIHIN
100
AcDbLine
 10
276.6180569275337
 20
296.423476713619
 30
0.0
 11
280.1180569275337
 21
296.423479713619
 31
0.0
  0
LINE
  5
73F2
330
1A
100
AcDbEntity
  8
SEIHIN
100
AcDbLine
 10
279.8680569275337
 20
296.123444713619
 30
0.0
 11
276.8680569275337
 21
296.123444713619
 31
0.0
  0
LINE
  5
73F3
330
1A
100
AcDbEntity
  8
SEIHIN
100
AcDbLine
 10
274.6181069275336
 20
291.623520713619
 30
0.0
 11
276.6180319275337
 21
291.623520713619
 31
0.0
  0
LINE
  5
73F4
330
1A
100
AcDbEntity
  8
SEIHIN
100
AcDbLine
 10
297.6181069275336
 20
283.623520713619
 30
0.0
 11
297.6181569275337
 21
297.623479713619
 31
0.0
  0
CIRCLE
  5
73F5
330
1A
100
AcDbEntity
  8
SEIHIN
100
AcDbCircle
 10
286.1181769275336
 20
297.623479713619
 30
0.0
 40
2.149999999999999
  0
LINE
  5
73F6
330
1A
100
AcDbEntity
  8
SEIHIN
100
AcDbLine
 10
295.9213779275336
 20
302.970124713619
 30
0.0
 11
280.3600959275337
 21
302.970103713619
 31
0.0
  0
LINE
  5
73F7
330
1A
100
AcDbEntity
  8
SEIHIN
100
AcDbLine
 10
280.3601029275336
 20
301.970119713619
 30
0.0
 11
280.3600959275337
 21
302.970103713619
 31
0.0
  0
LINE
  5
73F8
330
1A
100
AcDbEntity
  8
SEIHIN
100
AcDbLine
 10
281.3381289275336
 20
301.9701207136189
 30
0.0
 11
280.3601029275336
 21
301.970119713619
 31
0.0
  0
ARC
  5
73F9
330
1A
100
AcDbEntity
  8
SEIHIN
100
AcDbCircle
 10
295.9213809275337
 20
300.970124713619
 30
0.0
 40
1.999999844935612
100
AcDbArc
 50
65.24462387884947
 51
90.00010203811193
  0
LINE
  5
73FA
330
1A
100
AcDbEntity
  8
SEIHIN
100
AcDbLine
 10
361.5302739275335
 20
319.6639487136189
 30
0.0
 11
320.7634369275337
 21
314.104834713619
 31
0.0
  0
LINE
  5
73FB
330
1A
100
AcDbEntity
  8
SEIHIN
100
AcDbLine
 10
362.1635499275336
 20
317.227168713619
 30
0.0
 11
321.1012199275336
 21
311.627759713619
 31
0.0
  0
LINE
  5
73FC
330
1A
100
AcDbEntity
  8
SEIHIN
100
AcDbLine
 10
362.9234819275335
 20
314.303030713619
 30
0.0
 11
320.8934269275335
 21
308.5716597136189
 31
0.0
  0
LINE
  5
73FD
330
1A
100
AcDbEntity
  8
SEIHIN
100
AcDbLine
 10
314.4970929275335
 20
314.591761713619
 30
0.0
 11
309.1458329275336
 21
299.429857713619
 31
0.0
  0
LINE
  5
73FE
330
1A
100
AcDbEntity
  8
SEIHIN
100
AcDbLine
 10
314.7043579275335
 20
309.169759713619
 30
0.0
 11
308.1585969275337
 21
290.623437713619
 31
0.0
  0
LINE
  5
73FF
330
1A
100
AcDbEntity
  8
SEIHIN
100
AcDbLine
 10
317.7215759275337
 20
322.225482713619
 30
0.0
 11
309.6173279275336
 21
299.263447713619
 31
0.0
  0
LINE
  5
7400
330
1A
100
AcDbEntity
  8
SEIHIN
100
AcDbLine
 10
318.6645669275336
 20
321.892662713619
 30
0.0
 11
310.5035199275336
 21
298.7696977136189
 31
0.0
  0
LINE
  5
7401
330
1A
100
AcDbEntity
  8
SEIHIN
100
AcDbLine
 10
317.0618339275337
 20
308.337709713619
 30
0.0
 11
310.8097379275335
 21
290.623437713619
 31
0.0
  0
LINE
  5
7402
330
1A
100
AcDbEntity
  8
SEIHIN
100
AcDbLine
 10
320.0853839275335
 20
307.913179713619
 30
0.0
 11
313.9928079275335
 21
290.623437713619
 31
0.0
  0
ARC
  5
7403
330
1A
100
AcDbEntity
  8
SEIHIN
100
AcDbCircle
 10
307.6745489275336
 20
299.768157713619
 30
0.0
 40
2.999999940870082
100
AcDbArc
 50
269.9999883784531
 51
340.5599599066715
  0
ARC
  5
7404
330
1A
100
AcDbEntity
  8
SEIHIN
100
AcDbCircle
 10
307.7313479275336
 20
299.929087713619
 30
0.0
 40
2.00000009820312
100
AcDbArc
 50
245.2446238788494
 51
340.5599821720822
  0
ARC
  5
7405
330
1A
100
AcDbEntity
  8
SEIHIN
100
AcDbCircle
 10
307.2753349275336
 20
300.139364713619
 30
0.0
 40
2.00000009820312
100
AcDbArc
 50
245.2446238788494
 51
340.5599821720822
  0
ARC
  5
7406
330
1A
100
AcDbEntity
  8
SEIHIN
100
AcDbCircle
 10
321.7767859275337
 20
306.6736087136189
 30
0.0
 40
7.500000197431461
100
AcDbArc
 50
97.76515569653575
 51
160.5599559187044
  0
ARC
  5
7407
330
1A
100
AcDbEntity
  8
SEIHIN
100
AcDbCircle
 10
321.7767859275337
 20
306.6736087136189
 30
0.0
 40
4.999999758966238
100
AcDbArc
 50
97.76515569653575
 51
160.5599558232775
  0
ARC
  5
7408
330
1A
100
AcDbEntity
  8
SEIHIN
100
AcDbCircle
 10
321.0285399275336
 20
307.580829713619
 30
0.0
 40
1.000000089458491
100
AcDbArc
 50
97.76515569653586
 51
160.5885380977532
  0
LINE
  5
7409
330
1A
100
AcDbEntity
  8
SEIHIN
100
AcDbLine
 10
318.6645669275336
 20
321.892662713619
 30
0.0
 11
317.7215759275337
 21
322.225482713619
 31
0.0
  0
ARC
  5
740A
330
1A
100
AcDbEntity
  8
SEIHIN
100
AcDbCircle
 10
314.9685889275336
 20
314.425351713619
 30
0.0
 40
0.5
100
AcDbArc
 50
70.55996517182028
 51
160.5599651718251
  0
LINE
  5
740B
330
1A
100
AcDbEntity
  8
SEIHIN
100
AcDbLine
 10
357.1638539275337
 20
305.243363713619
 30
0.0
 11
350.5683479275336
 21
286.526386713619
 31
0.0
  0
LINE
  5
740C
330
1A
100
AcDbEntity
  8
SEIHIN
100
AcDbLine
 10
355.2775419275336
 20
305.908064713619
 30
0.0
 11
348.6820359275335
 21
287.191087713619
 31
0.0
  0
ARC
  5
740D
330
1A
100
AcDbEntity
  8
SEIHIN
100
AcDbCircle
 10
344.2827719275336
 20
284.123437713619
 30
0.0
 40
4.0
100
AcDbArc
 50
0.0
 51
90.0
  0
LINE
  5
740E
330
1A
100
AcDbEntity
  8
SEIHIN
100
AcDbLine
 10
338.4447419275337
 20
283.123437713619
 30
0.0
 11
348.2827719275336
 21
283.123437713619
 31
0.0
  0
ARC
  5
740F
330
1A
100
AcDbEntity
  8
SEIHIN
100
AcDbCircle
 10
334.7206419275336
 20
285.123437713619
 30
0.0
 40
5.499999922058408
100
AcDbArc
 50
50.19443624371243
 51
90.00000600216448
  0
LINE
  5
7410
330
1A
100
AcDbEntity
  8
SEIHIN
100
AcDbLine
 10
338.2416559275335
 20
289.3486547136189
 30
0.0
 11
339.7119159275336
 21
288.123437713619
 31
0.0
  0
LINE
  5
7411
330
1A
100
AcDbEntity
  8
SEIHIN
100
AcDbLine
 10
335.0407339275335
 20
285.507548713619
 30
0.0
 11
337.4844649275336
 21
283.4711057136189
 31
0.0
  0
ARC
  5
7412
330
1A
100
AcDbEntity
  8
SEIHIN
100
AcDbCircle
 10
334.7206419275336
 20
285.123437713619
 30
0.0
 40
0.500000074392489
100
AcDbArc
 50
50.19443624372004
 51
89.99996332013925
  0
ARC
  5
7413
330
1A
100
AcDbEntity
  8
SEIHIN
100
AcDbCircle
 10
338.4447419275337
 20
284.623437713619
 30
0.0
 40
1.500000159158816
100
AcDbArc
 50
230.1944362437119
 51
270.0000171172718
  0
LINE
  5
7414
330
1A
100
AcDbEntity
  8
SEIHIN
100
AcDbLine
 10
339.7119159275336
 20
288.123437713619
 30
0.0
 11
344.2827719275336
 21
288.123437713619
 31
0.0
  0
LINE
  5
7415
330
1A
100
AcDbEntity
  8
SEIHIN
100
AcDbLine
 10
346.3952509275335
 20
283.123437713619
 30
0.0
 11
346.3952509275335
 21
282.623437713619
 31
0.0
  0
ARC
  5
7416
330
1A
100
AcDbEntity
  8
SEIHIN
100
AcDbCircle
 10
345.8952509275335
 20
282.623437713619
 30
0.0
 40
0.5
100
AcDbArc
 50
270.0000000352525
 51
0.0000000352525556
  0
LINE
  5
7417
330
1A
100
AcDbEntity
  8
SEIHIN
100
AcDbLine
 10
340.3952509275335
 20
283.123437713619
 30
0.0
 11
340.3952509275335
 21
282.623437713619
 31
0.0
  0
ARC
  5
7418
330
1A
100
AcDbEntity
  8
SEIHIN
100
AcDbCircle
 10
340.8952509275335
 20
282.623437713619
 30
0.0
 40
0.5
100
AcDbArc
 50
180.0000000235017
 51
270.0000000235017
  0
LINE
  5
7419
330
1A
100
AcDbEntity
  8
SEIHIN
100
AcDbLine
 10
340.8952509275335
 20
282.123437713619
 30
0.0
 11
345.8952509275335
 21
282.123437713619
 31
0.0
  0
LINE
  5
741A
330
1A
100
AcDbEntity
  8
SEIHIN
100
AcDbLine
 10
348.2827719275336
 20
284.5234377136189
 30
0.0
 11
363.3749649275336
 21
284.5234377136189
 31
0.0
  0
ARC
  5
741B
330
1A
100
AcDbEntity
  8
SEIHIN
100
AcDbCircle
 10
347.7388799275337
 20
287.523437713619
 30
0.0
 40
0.9999999407089966
100
AcDbArc
 50
270.0000000354349
 51
340.5885244991829
  0
LINE
  5
741C
330
1A
100
AcDbEntity
  8
SEIHIN
100
AcDbLine
 10
347.7388799275337
 20
286.5234377136189
 30
0.0
 11
347.4827719275336
 21
286.5234377136189
 31
0.0
  0
ARC
  5
741D
330
1A
100
AcDbEntity
  8
SEIHIN
100
AcDbCircle
 10
347.7388799275337
 20
287.523437713619
 30
0.0
 40
3.00000013857666
100
AcDbArc
 50
279.962986694496
 51
340.5885311066116
  0
LINE
  5
741E
330
1A
100
AcDbEntity
  8
SEIHIN
100
AcDbLine
 10
351.3174449275337
 20
283.123437713619
 30
0.0
 11
348.2827719275336
 21
283.123437713619
 31
0.0
  0
LINE
  5
741F
330
1A
100
AcDbEntity
  8
SEIHIN
100
AcDbLine
 10
351.3174449275337
 20
284.123437713619
 30
0.0
 11
351.3174449275337
 21
283.123437713619
 31
0.0
  0
LINE
  5
7420
330
1A
100
AcDbEntity
  8
SEIHIN
100
AcDbLine
 10
348.2827719275336
 20
284.123437713619
 30
0.0
 11
348.2827719275336
 21
283.123437713619
 31
0.0
  0
ARC
  5
7421
330
1A
100
AcDbEntity
  8
SEIHIN
100
AcDbCircle
 10
359.0501659275336
 20
304.578663713619
 30
0.0
 40
3.999999868335057
100
AcDbArc
 50
98.0636427983102
 51
160.5884979740773
  0
ARC
  5
7422
330
1A
100
AcDbEntity
  8
SEIHIN
100
AcDbCircle
 10
359.0501659275336
 20
304.578663713619
 30
0.0
 40
2.000000049508498
100
AcDbArc
 50
98.0636427983102
 51
160.588485265716
  0
LINE
  5
7423
330
1A
100
AcDbEntity
  8
SUNPOU
100
AcDbLine
 10
401.1909049275335
 20
287.142483713619
 30
0.0
 11
420.1525026786461
 21
238.9686822471637
 31
0.0
  0
LINE
  5
7424
330
1A
100
AcDbEntity
  8
SEIHIN
100
AcDbLine
 10
369.5877509275336
 20
286.721603713619
 30
0.0
 11
369.5877509275336
 21
268.252480713619
 31
0.0
  0
LINE
  5
7425
330
1A
100
AcDbEntity
  8
SEIHIN
100
AcDbLine
 10
371.5877509275336
 20
268.252480713619
 30
0.0
 11
371.5877509275336
 21
286.721603713619
 31
0.0
  0
LINE
  5
7426
330
1A
100
AcDbEntity
  8
SEIHIN
100
AcDbLine
 10
369.5877509275336
 20
286.721603713619
 30
0.0
 11
369.5877509275336
 21
273.252480713619
 31
0.0
  0
LINE
  5
7427
330
1A
100
AcDbEntity
  8
SEIHIN
100
AcDbLine
 10
371.5877509275336
 20
273.252480713619
 30
0.0
 11
371.5877509275336
 21
286.721603713619
 31
0.0
  0
LINE
  5
7428
330
1A
100
AcDbEntity
  8
SEIHIN
100
AcDbLine
 10
371.5877509275336
 20
268.252480713619
 30
0.0
 11
369.5877509275336
 21
268.252480713619
 31
0.0
  0
LINE
  5
7429
330
1A
100
AcDbEntity
  8
SUNPOU
100
AcDbLine
 10
410.152502678646
 20
264.3746644321983
 30
0.0
 11
410.152502678646
 21
238.9686822471637
 31
0.0
  0
LINE
  5
742A
330
1A
100
AcDbEntity
  8
SUNPOU
100
AcDbLine
 10
420.1525026786461
 20
238.9686822471637
 30
0.0
 11
410.152502678646
 21
238.9686822471637
 31
0.0
  0
TEXT
  5
742B
330
1A
100
AcDbEntity
  8
SUNPOU
100
AcDbText
 10
413.2344832608417
 20
231.8833007391959
 30
0.0
 40
6.0
  1
4
100
AcDbText
  0
TEXT
  5
742C
330
1A
100
AcDbEntity
  8
SUNPOU
100
AcDbText
 10
400.7849300945166
 20
245.9435073569009
 30
0.0
 40
6.0
  1
10
100
AcDbText
  0
LINE
  5
742D
330
1A
100
AcDbEntity
  8
CENTER_L
100
AcDbLine
 10
426.0810204009591
 20
289.0738670563395
 30
0.0
 11
436.9680281807994
 21
293.3590813419157
 31
0.0
  0
LINE
  5
742E
330
1A
100
AcDbEntity
  8
SEIHIN
 62
     6
100
AcDbLine
 10
421.1446029275335
 20
319.908454713619
 30
0.0
 11
434.3298779275336
 21
286.409968713619
 31
0.0
  0
LINE
  5
742F
330
1A
100
AcDbEntity
  8
SEIHIN
 62
     6
100
AcDbLine
 10
423.0056299275337
 20
320.640969713619
 30
0.0
 11
436.1909049275335
 21
287.142483713619
 31
0.0
  0
LINE
  5
7430
330
1A
100
AcDbEntity
  8
SEIHIN
 62
     6
100
AcDbLine
 10
421.8890139275337
 20
320.201460713619
 30
0.0
 11
435.0742879275336
 21
286.702974713619
 31
0.0
  0
LINE
  5
7431
330
1A
100
AcDbEntity
  8
SEIHIN
 62
     6
100
AcDbLine
 10
430.8869779275336
 20
285.054815713619
 30
0.0
 11
417.7017029275336
 21
318.553300713619
 31
0.0
  0
LINE
  5
7432
330
1A
100
AcDbEntity
  8
CENTER_L
100
AcDbLine
 10
420.0377691644238
 20
304.4273398430888
 30
0.0
 11
430.9247771004678
 21
308.712554190148
 31
0.0
  0
LINE
  5
7433
330
1A
100
AcDbEntity
  8
SEIHIN
 62
     6
100
AcDbLine
 10
396.5302739275335
 20
319.6639487136189
 30
0.0
 11
413.2996529275336
 21
326.225879713619
 31
0.0
  0
ARC
  5
7434
330
1A
100
AcDbEntity
  8
SEIHIN
 62
     6
100
AcDbCircle
 10
415.8504489275336
 20
319.707180713619
 30
0.0
 40
6.999999974031142
100
AcDbArc
 50
21.48502984726429
 51
111.3706510243158
  0
ARC
  5
7435
330
1A
100
AcDbEntity
  8
SEIHIN
 62
     6
100
AcDbCircle
 10
416.0335779275336
 20
319.241922713619
 30
0.0
 40
4.99999997902705
100
AcDbArc
 50
21.48495554775248
 51
111.3706045541269
  0
ARC
  5
7436
330
1A
100
AcDbEntity
  8
SEIHIN
100
AcDbCircle
 10
380.8504489275336
 20
319.707180713619
 30
0.0
 40
6.999999974031142
100
AcDbArc
 50
21.48502984726429
 51
111.3706510243158
  0
ARC
  5
7437
330
1A
100
AcDbEntity
  8
SEIHIN
100
AcDbCircle
 10
381.0335779275336
 20
319.241922713619
 30
0.0
 40
4.99999997902705
100
AcDbArc
 50
21.48495554775248
 51
111.3706045541269
  0
LINE
  5
743A
330
1A
100
AcDbEntity
  8
CENTER_L
100
AcDbLine
 10
391.0810204009591
 20
289.0738670563395
 30
0.0
 11
401.9680281807994
 21
293.3590813419157
 31
0.0
  0
LINE
  5
743B
330
1A
100
AcDbEntity
  8
SEIHIN
100
AcDbLine
 10
395.8869779275336
 20
285.054815713619
 30
0.0
 11
401.1909049275335
 21
287.142483713619
 31
0.0
  0
LINE
  5
743D
330
1A
100
AcDbEntity
  8
SEIHIN
100
AcDbLine
 10
386.8890139275336
 20
320.201460713619
 30
0.0
 11
400.0742879275336
 21
286.702974713619
 31
0.0
  0
LINE
  5
743E
330
1A
100
AcDbEntity
  8
SEIHIN
100
AcDbLine
 10
387.3634072666858
 20
322.2725994531048
 30
0.0
 11
401.1909049275335
 21
287.142483713619
 31
0.0
  0
LINE
  5
743F
330
1A
100
AcDbEntity
  8
SEIHIN
100
AcDbLine
 10
386.1446029275335
 20
319.908454713619
 30
0.0
 11
399.3298779275336
 21
286.409968713619
 31
0.0
  0
ARC
  5
7440
330
1A
100
AcDbEntity
  8
SEIHIN
100
AcDbCircle
 10
394.5874539275336
 20
303.714424713619
 30
0.0
 40
6.624999944286225
100
AcDbArc
 50
169.5941816919564
 51
233.3757628202734
  0
LINE
  5
7441
330
1A
100
AcDbEntity
  8
SEIHIN
100
AcDbLine
 10
395.8869779275336
 20
285.054815713619
 30
0.0
 11
382.7017029275335
 21
318.553300713619
 31
0.0
  0
LINE
  5
7442
330
1A
100
AcDbEntity
  8
SEIHIN
100
AcDbLine
 10
379.6680569275337
 20
303.259900713619
 30
0.0
 11
379.2462609275336
 21
289.759190713619
 31
0.0
  0
LINE
  5
7443
330
1A
100
AcDbEntity
  8
SEIHIN
100
AcDbLine
 10
377.6690329275337
 20
303.322355713619
 30
0.0
 11
377.2472369275336
 21
289.821645713619
 31
0.0
  0
ARC
  5
7444
330
1A
100
AcDbEntity
  8
SEIHIN
100
AcDbCircle
 10
376.7474809275337
 20
289.837258713619
 30
0.0
 40
2.50000021673958
100
AcDbArc
 50
264.5000418283991
 51
358.2104961264324
  0
ARC
  5
7445
330
1A
100
AcDbEntity
  8
SEIHIN
100
AcDbCircle
 10
376.7474809275337
 20
289.837258713619
 30
0.0
 40
0.5000000368764974
100
AcDbArc
 50
264.5000418284121
 51
358.2104732561619
  0
LINE
  5
7446
330
1A
100
AcDbEntity
  8
SEIHIN
100
AcDbLine
 10
369.3960609275335
 20
288.033549713619
 30
0.0
 11
369.5877509275336
 21
290.024341713619
 31
0.0
  0
LINE
  5
7447
330
1A
100
AcDbEntity
  8
SEIHIN
100
AcDbLine
 10
376.6995579275336
 20
289.339560713619
 30
0.0
 11
369.5877509275336
 21
290.024341713619
 31
0.0
  0
ARC
  5
7448
330
1A
100
AcDbEntity
  8
SEIHIN
100
AcDbCircle
 10
372.5877509275336
 20
286.721603713619
 30
0.0
 40
0.9999998652102316
100
AcDbArc
 50
84.50004182839899
 51
180.0
  0
ARC
  5
7449
330
1A
100
AcDbEntity
  8
SEIHIN
100
AcDbCircle
 10
372.5877509275336
 20
286.721603713619
 30
0.0
 40
0.9999998652102316
100
AcDbArc
 50
84.50004182839899
 51
180.0
  0
LINE
  5
744A
330
1A
100
AcDbEntity
  8
SEIHIN
100
AcDbLine
 10
376.5078689275336
 20
287.348768713619
 30
0.0
 11
369.3960609275335
 21
288.033549713619
 31
0.0
  0
LINE
  5
744B
330
1A
100
AcDbEntity
  8
SEIHIN
100
AcDbLine
 10
365.8717409275335
 20
289.123437713619
 30
0.0
 11
365.8717409275335
 21
285.523437713619
 31
0.0
  0
ARC
  5
744C
330
1A
100
AcDbEntity
  8
SEIHIN
100
AcDbCircle
 10
372.5877509275336
 20
286.721603713619
 30
0.0
 40
2.99999990174308
100
AcDbArc
 50
155.0288311702726
 51
179.9999919372969
  0
ARC
  5
744D
330
1A
100
AcDbEntity
  8
SEIHIN
100
AcDbCircle
 10
372.5877509275336
 20
286.721603713619
 30
0.0
 40
2.99999990174308
100
AcDbArc
 50
155.0288311702726
 51
179.9999919372969
  0
LINE
  5
744E
330
1A
100
AcDbEntity
  8
SEIHIN
100
AcDbLine
 10
363.8629459275335
 20
285.523437713619
 30
0.0
 11
363.8629459275335
 21
288.323437713619
 31
0.0
  0
ARC
  5
744F
330
1A
100
AcDbEntity
  8
SEIHIN
100
AcDbCircle
 10
362.6434419275336
 20
285.523437713619
 30
0.0
 40
1.219504113536517
100
AcDbArc
 50
333.491986632192
 51
0.0000129482833926
  0
ARC
  5
7450
330
1A
100
AcDbEntity
  8
SEIHIN
100
AcDbCircle
 10
365.2202619275336
 20
288.323437713619
 30
0.0
 40
1.357314988733639
100
AcDbArc
 50
152.007703562615
 51
179.9999691711857
  0
ARC
  5
7451
330
1A
100
AcDbEntity
  8
SEIHIN
100
AcDbCircle
 10
364.2928749275337
 20
288.816377713619
 30
0.0
 40
0.3070597682291614
100
AcDbArc
 50
90.00000001175086
 51
152.0077599357389
  0
ARC
  5
7452
330
1A
100
AcDbEntity
  8
SEIHIN
100
AcDbCircle
 10
364.4717409275337
 20
285.523437713619
 30
0.0
 40
1.399999999999999
100
AcDbArc
 50
270.0000000882616
 51
0.0000000882616646
  0
LINE
  5
7453
330
1A
100
AcDbEntity
  8
SEIHIN
100
AcDbLine
 10
364.2928739275336
 20
289.123437713619
 30
0.0
 11
365.8717409275335
 21
289.123437713619
 31
0.0
  0
ARC
  5
7454
330
1A
100
AcDbEntity
  8
SEIHIN
100
AcDbCircle
 10
372.6714709275337
 20
303.478491713619
 30
0.0
 40
6.999999905160891
100
AcDbArc
 50
358.2105332175278
 51
98.0636774698533
  0
ARC
  5
7455
330
1A
100
AcDbEntity
  8
SEIHIN
100
AcDbCircle
 10
372.6714709275337
 20
303.478491713619
 30
0.0
 40
4.99999999040965
100
AcDbArc
 50
358.2105332175278
 51
98.06367557684319
  0
LINE
  5
7456
330
1A
100
AcDbEntity
  8
CENTER_L
100
AcDbLine
 10
381.9245793587423
 20
312.3367040397228
 30
0.0
 11
392.8115873752548
 21
316.6219184184551
 31
0.0
  0
LINE
  5
7457
330
1A
100
AcDbEntity
  8
CENTER_L
100
AcDbLine
 10
385.0377691644238
 20
304.4273398430888
 30
0.0
 11
395.9247771004678
 21
308.712554190148
 31
0.0
  0
LINE
  5
7458
330
1A
100
AcDbEntity
  8
SEIHIN
100
AcDbLine
 10
382.7017029275335
 20
318.553300713619
 30
0.0
 11
388.0056299275337
 21
320.640969713619
 31
0.0
  0
LINE
  5
7459
330
1A
100
AcDbEntity
  8
SEIHIN
100
AcDbLine
 10
382.8946049275335
 20
319.974437713619
 30
0.0
 11
383.3530619275337
 21
318.809681713619
 31
0.0
  0
LINE
  5
745A
330
1A
100
AcDbEntity
  8
SEIHIN
100
AcDbLine
 10
387.3640429275336
 20
322.270983713619
 30
0.0
 11
388.0056299275337
 21
320.640969713619
 31
0.0
  0
LINE
  5
745B
330
1A
100
AcDbEntity
  8
SEIHIN
100
AcDbLine
 10
385.6861459275336
 20
321.0732087136189
 30
0.0
 11
386.1446029275335
 21
319.908454713619
 31
0.0
  0
ARC
  5
745C
330
1A
100
AcDbEntity
  8
SEIHIN
100
AcDbCircle
 10
381.0335779275336
 20
319.241922713619
 30
0.0
 40
1.999999993008124
100
AcDbArc
 50
21.48502984726353
 51
111.3706387466694
  0
ARC
  5
745D
330
1A
100
AcDbEntity
  8
SEIHIN
 62
     6
100
AcDbCircle
 10
429.5874539275335
 20
303.714424713619
 30
0.0
 40
6.624999944286225
100
AcDbArc
 50
169.5941816919564
 51
233.3757628202734
  0
LINE
  5
745E
330
1A
100
AcDbEntity
  8
SEIHIN
 62
     6
100
AcDbLine
 10
397.1635499275336
 20
317.227168713619
 30
0.0
 11
414.2115809275336
 21
323.898136713619
 31
0.0
  0
LINE
  5
745F
330
1A
100
AcDbEntity
  8
SEIHIN
 62
     6
100
AcDbLine
 10
415.3047789275336
 20
321.104408713619
 30
0.0
 11
397.9234819275335
 21
314.303030713619
 31
0.0
  0
LINE
  5
7460
330
1A
100
AcDbEntity
  8
CENTER_L
100
AcDbLine
 10
416.9245793587423
 20
312.3367040397228
 30
0.0
 11
427.8115873752548
 21
316.6219184184551
 31
0.0
  0
LINE
  5
7461
330
1A
100
AcDbEntity
  8
SEIHIN
 62
     6
100
AcDbLine
 10
420.6861459275335
 20
321.0732087136189
 30
0.0
 11
421.1446029275335
 21
319.908454713619
 31
0.0
  0
LINE
  5
7462
330
1A
100
AcDbEntity
  8
SEIHIN
 62
     6
100
AcDbLine
 10
417.7017029275336
 20
318.553300713619
 30
0.0
 11
423.0056299275337
 21
320.640969713619
 31
0.0
  0
ARC
  5
7463
330
1A
100
AcDbEntity
  8
SEIHIN
 62
     6
100
AcDbCircle
 10
416.0335779275336
 20
319.241922713619
 30
0.0
 40
1.999999993008124
100
AcDbArc
 50
21.48502984726353
 51
111.3706387466694
  0
LINE
  5
7464
330
1A
100
AcDbEntity
  8
SEIHIN
100
AcDbLine
 10
417.8946049275335
 20
319.974437713619
 30
0.0
 11
418.3530619275337
 21
318.809681713619
 31
0.0
  0
LINE
  5
7465
330
1A
100
AcDbEntity
  8
SEIHIN
 62
     6
100
AcDbLine
 10
422.3640429275336
 20
322.270983713619
 30
0.0
 11
423.0056299275337
 21
320.640969713619
 31
0.0
  0
TEXT
  5
7467
330
1A
100
AcDbEntity
  8
SUNPOU
100
AcDbText
 10
398.0359669262982
 20
351.3306246297603
 30
0.0
 40
6.0
  1
スライド幅
100
AcDbText
  0
LINE
  5
7468
330
1A
100
AcDbEntity
  8
SEIHIN
 62
     6
100
AcDbLine
 10
430.8869779275336
 20
285.054815713619
 30
0.0
 11
436.1909049275335
 21
287.142483713619
 31
0.0
  0
DIMENSION
  5
7542
330
1A
100
AcDbEntity
  8
SUNPOU
 48
5.0
100
AcDbDimension
  2
*D1
 10
224.7120807564379
 20
448.0960175458917
 30
0.0
 11
219.7120807564377
 21
456.3460175458917
 31
0.0
 70
    32
  3
STANDARD
100
AcDbAlignedDimension
 13
260.875358562171
 23
464.5960175458917
 33
0.0
 14
260.875358562171
 24
448.0960175458917
 34
0.0
 50
90.0
100
AcDbRotatedDimension
1001
ACAD
1000
DSTYLE
1002
{
1070
    41
1040
7.0
1070
    42
1040
6.0
1070
    43
1040
14.0
1070
    44
1040
3.0
1070
    73
1070
     0
1070
    74
1070
     0
1070
    77
1070
     3
1070
   140
1040
6.0
1070
   141
1040
150.0
1070
   147
1040
2.0
1070
   172
1070
     1
1070
   173
1070
     1
1070
   176
1070
   256
1070
   177
1070
   256
1070
   178
1070
   256
1070
   271
1070
     0
1070
   272
1070
     0
1070
   341
1005
6D
1070
     6
1000
OPEN
1070
     7
1000
OPEN
1070
   371
1070
    -1
1070
   372
1070
    -1
1002
}
  0
DIMENSION
  5
7551
330
1A
100
AcDbEntity
  8
SUNPOU
 48
5.0
100
AcDbDimension
  2
*D2
 10
437.9500260421687
 20
430.6943565458917
 30
0.0
 11
432.9500260421686
 21
456.3462200458918
 31
0.0
 70
    32
  3
STANDARD
100
AcDbAlignedDimension
 13
398.7439975621708
 23
481.9980835458917
 33
0.0
 14
398.7439975621708
 24
430.6943565458917
 34
0.0
 50
90.0
100
AcDbRotatedDimension
1001
ACAD
1000
DSTYLE
1002
{
1070
    41
1040
7.0
1070
    42
1040
6.0
1070
    43
1040
14.0
1070
    44
1040
3.0
1070
    73
1070
     0
1070
    74
1070
     0
1070
    77
1070
     3
1070
   140
1040
6.0
1070
   141
1040
150.0
1070
   147
1040
2.0
1070
   172
1070
     1
1070
   173
1070
     1
1070
   176
1070
   256
1070
   177
1070
   256
1070
   178
1070
   256
1070
   271
1070
     0
1070
   272
1070
     0
1070
   341
1005
6D
1070
     6
1000
OPEN
1070
     7
1000
OPEN
1070
   371
1070
    -1
1070
   372
1070
    -1
1002
}
  0
DIMENSION
  5
757A
330
1A
100
AcDbEntity
  8
SUNPOU
 48
5.0
100
AcDbDimension
  2
*D3
 10
388.0056299275338
 20
377.5758188760969
 30
0.0
 11
324.1044219752168
 21
382.5758188760969
 31
0.0
 70
    32
  3
STANDARD
100
AcDbAlignedDimension
 13
260.2032140228998
 23
293.3509768585325
 33
0.0
 14
388.0056299275338
 24
320.640969713619
 34
0.0
100
AcDbRotatedDimension
1001
ACAD
1000
DSTYLE
1002
{
1070
    41
1040
7.0
1070
    42
1040
6.0
1070
    43
1040
14.0
1070
    44
1040
3.0
1070
    73
1070
     0
1070
    74
1070
     0
1070
    77
1070
     3
1070
   140
1040
6.0
1070
   141
1040
150.0
1070
   147
1040
2.0
1070
   172
1070
     1
1070
   173
1070
     1
1070
   176
1070
   256
1070
   177
1070
   256
1070
   178
1070
   256
1070
   271
1070
     0
1070
   272
1070
     0
1070
   341
1005
6D
1070
     6
1000
OPEN
1070
     7
1000
OPEN
1070
   371
1070
    -1
1070
   372
1070
    -1
1002
}
  0
DIMENSION
  5
7587
330
1A
100
AcDbEntity
  8
SUNPOU
 48
5.0
100
AcDbDimension
  2
*D4
 10
376.5371004507617
 20
361.2334824878899
 30
0.0
 11
382.2713651891477
 21
366.2334824878898
 31
0.0
 70
    32
  3
STANDARD
100
AcDbAlignedDimension
 13
388.0056299275338
 23
320.640969713619
 33
0.0
 14
376.5371004507617
 24
304.0884900136189
 34
0.0
100
AcDbRotatedDimension
1001
ACAD
1000
DSTYLE
1002
{
1070
    41
1040
7.0
1070
    42
1040
6.0
1070
    43
1040
14.0
1070
    44
1040
3.0
1070
    73
1070
     0
1070
    74
1070
     0
1070
    77
1070
     3
1070
   140
1040
6.0
1070
   141
1040
150.0
1070
   147
1040
2.0
1070
   172
1070
     1
1070
   173
1070
     1
1070
   176
1070
   256
1070
   177
1070
   256
1070
   178
1070
   256
1070
   271
1070
     0
1070
   272
1070
     0
1070
   341
1005
6D
1070
     6
1000
OPEN
1070
     7
1000
OPEN
1070
   371
1070
    -1
1070
   372
1070
    -1
1002
}
  0
DIMENSION
  5
7596
330
1A
100
AcDbEntity
  8
SUNPOU
 48
5.0
100
AcDbDimension
  2
*D5
 10
416.4580966864908
 20
293.1517738594357
 30
0.0
 11
412.9178879886945
 21
315.7976143410049
 31
0.0
 70
    33
  3
STANDARD
100
AcDbAlignedDimension
 13
384.8053526795512
 23
328.7715883459694
 33
0.0
 14
401.1909049275335
 24
287.142483713619
 34
0.0
1001
ACAD
1000
DSTYLE
1002
{
1070
    41
1040
7.0
1070
    42
1040
6.0
1070
    43
1040
14.0
1070
    44
1040
3.0
1070
    73
1070
     0
1070
    74
1070
     0
1070
    77
1070
     3
1070
   140
1040
6.0
1070
   141
1040
150.0
1070
   147
1040
2.0
1070
   172
1070
     1
1070
   173
1070
     1
1070
   176
1070
   256
1070
   177
1070
   256
1070
   178
1070
   256
1070
   271
1070
     0
1070
   272
1070
     0
1070
   341
1005
6D
1070
     6
1000
OPEN
1070
     7
1000
OPEN
1070
   371
1070
    -1
1070
   372
1070
    -1
1002
}
  0
DIMENSION
  5
75A3
330
1A
100
AcDbEntity
  8
SUNPOU
 48
5.0
100
AcDbDimension
  2
*D6
 10
406.5391302542831
 20
289.2475884546259
 30
0.0
 11
404.599060180478
 21
307.82811962002
 31
0.0
 70
    33
  3
STANDARD
100
AcDbAlignedDimension
 13
388.0056299275338
 23
320.640969713619
 33
0.0
 14
401.1909049275335
 24
287.142483713619
 34
0.0
1001
ACAD
1000
DSTYLE
1002
{
1070
    41
1040
7.0
1070
    42
1040
6.0
1070
    43
1040
14.0
1070
    44
1040
3.0
1070
    73
1070
     0
1070
    74
1070
     0
1070
    77
1070
     3
1070
   140
1040
6.0
1070
   141
1040
150.0
1070
   147
1040
2.0
1070
   172
1070
     1
1070
   173
1070
     1
1070
   176
1070
   256
1070
   177
1070
   256
1070
   178
1070
   256
1070
   271
1070
     0
1070
   272
1070
     0
1070
   341
1005
6D
1070
     6
1000
OPEN
1070
     7
1000
OPEN
1070
   371
1070
    -1
1070
   372
1070
    -1
1002
}
  0
DIMENSION
  5
75B0
330
1A
100
AcDbEntity
  8
SUNPOU
 62
     6
 48
5.0
100
AcDbDimension
  2
*D7
 10
451.4580966864908
 20
293.1517738594357
 30
0.0
 11
447.9178879886943
 21
315.7976143410049
 31
0.0
 70
    33
  3
STANDARD
100
AcDbAlignedDimension
 13
419.8053526795511
 23
328.7715883459694
 33
0.0
 14
436.1909049275335
 24
287.142483713619
 34
0.0
1001
ACAD
1000
DSTYLE
1002
{
1070
    41
1040
7.0
1070
    42
1040
6.0
1070
    43
1040
14.0
1070
    44
1040
3.0
1070
    73
1070
     0
1070
    74
1070
     0
1070
    77
1070
     3
1070
   140
1040
6.0
1070
   141
1040
150.0
1070
   147
1040
2.0
1070
   172
1070
     1
1070
   173
1070
     1
1070
   176
1070
   256
1070
   177
1070
   256
1070
   178
1070
   256
1070
   271
1070
     0
1070
   272
1070
     0
1070
   341
1005
6D
1070
     6
1000
OPEN
1070
     7
1000
OPEN
1070
   371
1070
    -1
1070
   372
1070
    -1
1002
}
  0
DIMENSION
  5
75C6
330
1A
100
AcDbEntity
  8
SUNPOU
 48
5.0
100
AcDbDimension
  2
*D8
 10
419.7336999780008
 20
348.1629013304152
 30
0.0
 11
402.2695263287761
 21
353.1629013304152
 31
0.0
 70
    32
  3
STANDARD
100
AcDbAlignedDimension
 13
384.8053526795512
 23
328.7715883459694
 33
0.0
 14
419.7336999780008
 24
328.7715883459694
 34
0.0
100
AcDbRotatedDimension
1001
ACAD
1000
DSTYLE
1002
{
1070
    41
1040
7.0
1070
    42
1040
6.0
1070
    43
1040
14.0
1070
    44
1040
3.0
1070
    73
1070
     0
1070
    74
1070
     0
1070
    77
1070
     3
1070
   140
1040
6.0
1070
   141
1040
150.0
1070
   147
1040
2.0
1070
   172
1070
     1
1070
   173
1070
     1
1070
   176
1070
   256
1070
   177
1070
   256
1070
   178
1070
   256
1070
   271
1070
     0
1070
   272
1070
     0
1070
   341
1005
6D
1070
     6
1000
OPEN
1070
     7
1000
OPEN
1070
   371
1070
    -1
1070
   372
1070
    -1
1002
}
  0
DIMENSION
  5
7663
330
1A
100
AcDbEntity
  8
SUNPOU
 48
5.0
100
AcDbDimension
  2
*D9
 10
522.7536287203928
 20
395.5133230716987
 30
0.0
 11
503.5217386090486
 21
393.316872884947
 31
0.0
 70
    33
  3
STANDARD
100
AcDbAlignedDimension
 13
503.3851582867214
 23
342.606912666447
 33
0.0
 14
538.1863621952343
 24
356.3049478988786
 34
0.0
1001
ACAD
1000
DSTYLE
1002
{
1070
    41
1040
7.0
1070
    42
1040
6.0
1070
    43
1040
14.0
1070
    44
1040
3.0
1070
    73
1070
     0
1070
    74
1070
     0
1070
    77
1070
     3
1070
   140
1040
6.0
1070
   141
1040
150.0
1070
   147
1040
2.0
1070
   172
1070
     1
1070
   173
1070
     1
1070
   176
1070
   256
1070
   177
1070
   256
1070
   178
1070
   256
1070
   271
1070
     0
1070
   272
1070
     0
1070
   341
1005
6D
1070
     6
1000
OPEN
1070
     7
1000
OPEN
1070
   371
1070
    -1
1070
   372
1070
    -1
1002
}
  0
DIMENSION
  5
7670
330
1A
100
AcDbEntity
  8
SUNPOU
 48
5.0
100
AcDbDimension
  2
*D10
 10
518.7716617887686
 20
409.796183147513
 30
0.0
 11
498.11987111504
 21
407.0408486192534
 31
0.0
 70
    33
  3
STANDARD
100
AcDbAlignedDimension
 13
499.5845835495565
 23
348.0963656946614
 33
0.0
 14
537.2255885828376
 24
362.9121696101084
 34
0.0
1001
ACAD
1000
DSTYLE
1002
{
1070
    41
1040
7.0
1070
    42
1040
6.0
1070
    43
1040
14.0
1070
    44
1040
3.0
1070
    73
1070
     0
1070
    74
1070
     0
1070
    77
1070
     3
1070
   140
1040
6.0
1070
   141
1040
150.0
1070
   147
1040
2.0
1070
   172
1070
     1
1070
   173
1070
     1
1070
   176
1070
   256
1070
   177
1070
   256
1070
   178
1070
   256
1070
   271
1070
     0
1070
   272
1070
     0
1070
   341
1005
6D
1070
     6
1000
OPEN
1070
     7
1000
OPEN
1070
   371
1070
    -1
1070
   372
1070
    -1
1002
}
  0
DIMENSION
  5
767D
330
1A
100
AcDbEntity
  8
SUNPOU
 48
5.0
100
AcDbDimension
  2
*D11
 10
518.3556955043077
 20
425.7989331227734
 30
0.0
 11
492.6102109225068
 21
421.0386792977539
 31
0.0
 70
    33
  3
STANDARD
100
AcDbAlignedDimension
 13
493.5752453241748
 23
348.4177299057767
 33
0.0
 14
541.4036381092159
 24
367.2433723894013
 34
0.0
1001
ACAD
1000
DSTYLE
1002
{
1070
    41
1040
7.0
1070
    42
1040
6.0
1070
    43
1040
14.0
1070
    44
1040
3.0
1070
    73
1070
     0
1070
    74
1070
     0
1070
    77
1070
     3
1070
   140
1040
6.0
1070
   141
1040
150.0
1070
   147
1040
2.0
1070
   172
1070
     1
1070
   173
1070
     1
1070
   176
1070
   256
1070
   177
1070
   256
1070
   178
1070
   256
1070
   271
1070
     0
1070
   272
1070
     0
1070
   341
1005
6D
1070
     6
1000
OPEN
1070
     7
1000
OPEN
1070
   371
1070
    -1
1070
   372
1070
    -1
1002
}
  0
DIMENSION
  5
768A
330
1A
100
AcDbEntity
  8
SUNPOU
 48
5.0
100
AcDbDimension
  2
*D12
 10
475.671941641201
 20
341.3708450550145
 30
0.0
 11
473.731871912108
 21
359.9513759797825
 31
0.0
 70
    33
  3
STANDARD
100
AcDbAlignedDimension
 13
495.5896621363676
 23
343.2999059741323
 33
0.0
 14
493.5752453241748
 24
348.4177299057767
 34
0.0
1001
ACAD
1000
DSTYLE
1002
{
1070
    41
1040
7.0
1070
    42
1040
6.0
1070
    43
1040
14.0
1070
    44
1040
3.0
1070
    73
1070
     0
1070
    74
1070
     0
1070
    77
1070
     3
1070
   140
1040
6.0
1070
   141
1040
150.0
1070
   147
1040
2.0
1070
   172
1070
     1
1070
   173
1070
     1
1070
   176
1070
   256
1070
   177
1070
   256
1070
   178
1070
   256
1070
   271
1070
     0
1070
   272
1070
     0
1070
   341
1005
6D
1070
     6
1000
OPEN
1070
     7
1000
OPEN
1070
   371
1070
    -1
1070
   372
1070
    -1
1002
}
  0
DIMENSION
  5
7699
330
1A
100
AcDbEntity
  8
SUNPOU
 48
5.0
100
AcDbDimension
  2
*D13
 10
488.8572158692005
 20
307.8723597460575
 30
0.0
 11
500.1024204980169
 21
292.9544050318199
 31
0.0
 70
    33
  3
STANDARD
100
AcDbAlignedDimension
 13
504.7461026412679
 23
320.037068779257
 33
0.0
 14
506.7605195521746
 24
314.9192445968196
 34
0.0
1001
ACAD
1000
DSTYLE
1002
{
1070
    41
1040
7.0
1070
    42
1040
6.0
1070
    43
1040
14.0
1070
    44
1040
3.0
1070
    73
1070
     0
1070
    74
1070
     0
1070
    77
1070
     3
1070
   140
1040
6.0
1070
   141
1040
150.0
1070
   147
1040
2.0
1070
   172
1070
     1
1070
   173
1070
     1
1070
   176
1070
   256
1070
   177
1070
   256
1070
   178
1070
   256
1070
   271
1070
     0
1070
   272
1070
     0
1070
   341
1005
6D
1070
     6
1000
OPEN
1070
     7
1000
OPEN
1070
   371
1070
    -1
1070
   372
1070
    -1
1002
}
  0
DIMENSION
  5
7C2C
330
1A
100
AcDbEntity
  8
SUNPOU
 48
5.0
100
AcDbDimension
  2
*D14
 10
473.35808941068
 20
301.7717784581209
 30
0.0
 11
471.4180197465421
 21
320.3523092178646
 31
0.0
 70
    33
  3
STANDARD
100
AcDbAlignedDimension
 13
493.5752453241748
 23
348.4177299057767
 33
0.0
 14
506.7605195521746
 24
314.9192445968196
 34
0.0
1001
ACAD
1000
DSTYLE
1002
{
1070
    41
1040
7.0
1070
    42
1040
6.0
1070
    43
1040
14.0
1070
    44
1040
3.0
1070
    73
1070
     0
1070
    74
1070
     0
1070
    77
1070
     3
1070
   140
1040
6.0
1070
   141
1040
150.0
1070
   147
1040
2.0
1070
   172
1070
     1
1070
   173
1070
     1
1070
   176
1070
   256
1070
   177
1070
   256
1070
   178
1070
   256
1070
   271
1070
     0
1070
   272
1070
     0
1070
   341
1005
6D
1070
     6
1000
OPEN
1070
     7
1000
OPEN
1070
   371
1070
    -1
1070
   372
1070
    -1
1002
}
  0
DIMENSION
  5
7C39
330
1A
100
AcDbEntity
  8
SUNPOU
 48
5.0
100
AcDbDimension
  2
*D15
 10
567.86507386877
 20
377.658807459249
 30
0.0
 11
575.0814446549467
 21
372.9765013815479
 31
0.0
 70
    33
  3
STANDARD
100
AcDbAlignedDimension
 13
546.5312448237654
 23
354.2161839169664
 33
0.0
 14
541.4036381092159
 24
367.2433723894013
 34
0.0
1001
ACAD
1000
DSTYLE
1002
{
1070
    41
1040
7.0
1070
    42
1040
6.0
1070
    43
1040
14.0
1070
    44
1040
3.0
1070
    73
1070
     0
1070
    74
1070
     0
1070
    77
1070
     3
1070
   140
1040
6.0
1070
   141
1040
150.0
1070
   147
1040
2.0
1070
   172
1070
     1
1070
   173
1070
     1
1070
   176
1070
   256
1070
   177
1070
   256
1070
   178
1070
   256
1070
   271
1070
     0
1070
   272
1070
     0
1070
   341
1005
6D
1070
     6
1000
OPEN
1070
     7
1000
OPEN
1070
   371
1070
    -1
1070
   372
1070
    -1
1002
}
  0
LWPOLYLINE
  5
7ECB
330
1A
100
AcDbEntity
  8
ZUWAKU
100
AcDbPolyline
 90
        4
 70
     1
 43
0.0
 10
0.7999992246000148
 20
550.8000001839607
 10
0.7999992246000148
 20
0.8000001839607193
 10
796.7999992246
 20
0.8000001839607193
 10
796.7999992246
 20
550.8000001839607
  0
LWPOLYLINE
  5
7ECC
330
1A
100
AcDbEntity
  8
ZUWAKU
100
AcDbPolyline
 90
        4
 70
     1
 43
0.0
 10
0.3999992246000374
 20
551.2000001839607
 10
0.3999992246000374
 20
0.4000001839607421
 10
797.1999992246001
 20
0.4000001839607191
 10
797.1999992246001
 20
551.2000001839607
  0
LWPOLYLINE
  5
7ECD
330
1A
100
AcDbEntity
  8
ZUWAKU
100
AcDbPolyline
 90
        4
 70
     1
 43
0.0
 10
-0.0000007753999398
 20
551.6000001839606
 10
-0.0000007753999398
 20
0.0000001839606512
 10
797.5999992246002
 20
0.0000001839607187
 10
797.5999992246002
 20
551.6000001839607
  0
LWPOLYLINE
  5
7ECE
330
1A
100
AcDbEntity
  8
ZUWAKU
100
AcDbPolyline
 90
        4
 70
     1
 43
0.0
 10
0.5999992245999693
 20
551.0000001839607
 10
0.5999992245999693
 20
0.6000001839606739
 10
796.9999992246003
 20
0.6000001839607201
 10
796.9999992246
 20
551.0000001839607
  0
LWPOLYLINE
  5
7ECF
330
1A
100
AcDbEntity
  8
ZUWAKU
100
AcDbPolyline
 90
        4
 70
     1
 43
0.0
 10
0.199999224599992
 20
551.4000001839607
 10
0.199999224599992
 20
0.2000001839606966
 10
797.3999992245999
 20
0.2000001839607197
 10
797.3999992246001
 20
551.4000001839607
  0
LINE
  5
7ED0
330
1A
100
AcDbEntity
  8
ZUWAKU
100
AcDbLine
 10
-0.0000007753999398
 20
30.00000018396065
 30
0.0
 11
797.3999992245999
 21
30.00000018396065
 31
0.0
  0
LINE
  5
7ED1
330
1A
100
AcDbEntity
  8
ZUWAKU
100
AcDbLine
 10
-0.0000007753999398
 20
30.20000018396065
 30
0.0
 11
797.3999992245999
 21
30.20000018396065
 31
0.0
  0
LINE
  5
7ED2
330
1A
100
AcDbEntity
  8
ZUWAKU
100
AcDbLine
 10
-0.0000007753999398
 20
30.40000018396066
 30
0.0
 11
797.3999992245999
 21
30.40000018396066
 31
0.0
  0
LINE
  5
7ED3
330
1A
100
AcDbEntity
  8
ZUWAKU
100
AcDbLine
 10
-0.0000007753999398
 20
30.60000018396066
 30
0.0
 11
797.3999992245999
 21
30.60000018396066
 31
0.0
  0
LINE
  5
7ED4
330
1A
100
AcDbEntity
  8
ZUWAKU
100
AcDbLine
 10
-0.0000007753999398
 20
30.80000018396066
 30
0.0
 11
797.3999992245999
 21
30.80000018396066
 31
0.0
  0
LINE
  5
7ED5
330
1A
100
AcDbEntity
  8
ZUWAKU
100
AcDbLine
 10
208.6466005146681
 20
15.40000018396068
 30
0.0
 11
447.4243631955914
 21
15.40000018396068
 31
0.0
  0
LINE
  5
7ED6
330
1A
100
AcDbEntity
  8
ZUWAKU
100
AcDbLine
 10
208.6466005146681
 20
15.60000018396068
 30
0.0
 11
447.4243631955914
 21
15.60000018396069
 31
0.0
  0
LINE
  5
7ED7
330
1A
100
AcDbEntity
  8
ZUWAKU
100
AcDbLine
 10
208.6466005146681
 20
15.20000018396069
 30
0.0
 11
447.4243631955914
 21
15.20000018396068
 31
0.0
  0
TEXT
  5
7ED8
330
1A
100
AcDbEntity
  8
MOJI
100
AcDbText
 10
92.9577888127692
 20
12.74117831423541
 30
0.0
 40
6.0
  1
新・丸トップＲＶ１０５
 41
0.9
  7
ｽﾀｲﾙ1
100
AcDbText
  0
CIRCLE
  5
7ED9
330
1A
100
AcDbEntity
  8
ZUWAKU
100
AcDbCircle
 10
25.99221137938116
 20
15.20000018396065
 30
0.0
 40
1.75
  0
LINE
  5
7EDA
330
1A
100
AcDbEntity
  8
ZUWAKU
100
AcDbLine
 10
26.86721137938116
 20
7.150000183960656
 30
0.0
 11
24.9422113793812
 21
7.150000183960656
 31
0.0
  0
LINE
  5
7EDB
330
1A
100
AcDbEntity
  8
ZUWAKU
100
AcDbLine
 10
24.9422113793812
 20
9.950000183960653
 30
0.0
 11
26.86721137938116
 21
9.950000183960653
 31
0.0
  0
LINE
  5
7EDC
330
1A
100
AcDbEntity
  8
ZUWAKU
100
AcDbLine
 10
26.86721137938116
 20
20.45000018396065
 30
0.0
 11
24.9422113793812
 21
20.45000018396065
 31
0.0
  0
LINE
  5
7EDD
330
1A
100
AcDbEntity
  8
ZUWAKU
100
AcDbLine
 10
24.9422113793812
 20
23.25000018396061
 30
0.0
 11
26.86721137938116
 21
23.25000018396065
 31
0.0
  0
HATCH
  5
7EDE
330
1A
100
AcDbEntity
  8
ZUWAKU
100
AcDbHatch
 10
0.0
 20
0.0
 30
0.0
210
0.0
220
0.0
230
1.0
  2
ANSI37
 70
     0
 71
     0
 91
        8
 92
        7
 72
     1
 73
     1
 93
       24
 10
14.50226188571991
 20
17.64484866494423
 42
-0.1989123673796348
 10
14.09221137938118
 20
18.63479815860528
 42
0.0
 10
14.09221137938118
 20
19.92500018396066
 42
-0.4142135623730912
 10
14.61721137938116
 20
20.45000018396065
 42
0.0
 10
17.59221137938107
 20
20.45000018396065
 42
0.4142135623731546
 10
18.11721137938116
 20
20.97500018396064
 42
0.0
 10
18.11721137938116
 20
22.72500018396065
 42
0.4142135623731586
 10
17.59221137938107
 20
23.25000018396065
 42
0.0
 10
14.09221137938118
 20
23.25000018396065
 42
0.4142135623730928
 10
11.29221137938122
 20
20.45000018396068
 42
0.0
 10
11.29221137938122
 20
18.63479815860541
 42
0.1989123673796619
 10
12.52236289839766
 20
15.6649496776218
 42
0.0
 10
15.43216087304233
 20
12.75515170297714
 42
-0.1989123673796613
 10
15.84221137938118
 20
11.76520220931596
 42
0.0
 10
15.84221137938118
 20
10.47500018396064
 42
-0.4142135623730911
 10
15.3172113793812
 20
9.950000183960653
 42
0.0
 10
12.34221137938129
 20
9.950000183960653
 42
0.4142135623731526
 10
11.8172113793812
 20
9.425000183960666
 42
0.0
 10
11.8172113793812
 20
7.675000183960644
 42
0.4142135623731526
 10
12.34221137938129
 20
7.150000183960656
 42
0.0
 10
15.84221137938118
 20
7.150000183960656
 42
0.4142135623731044
 10
18.64221137938125
 20
9.950000183960632
 42
0.0
 10
18.64221137938125
 20
11.7652022093159
 42
0.1989123673796604
 10
17.4120598603647
 20
14.73505069029944
 42
0.0
 97
        0
 92
        7
 72
     1
 73
     1
 93
       16
 10
23.54221137938123
 20
19.05000018396066
 42
-0.4142135623730935
 10
24.9422113793812
 20
20.45000018396065
 42
0.0
 10
26.86721137938116
 20
20.45000018396065
 42
0.4142135623731546
 10
27.39221137938125
 20
20.97500018396064
 42
0.0
 10
27.39221137938125
 20
22.72500018396065
 42
0.4142135623730951
 10
26.86721137938127
 20
23.25000018396065
 42
0.0
 10
24.94221137938109
 20
23.25000018396061
 42
0.4142135623730892
 10
20.74221137938116
 20
19.05000018396059
 42
0.0
 10
20.74221137938116
 20
11.35000018396068
 42
0.4142135623730969
 10
24.9422113793812
 20
7.150000183960656
 42
0.0
 10
26.86721137938116
 20
7.150000183960656
 42
0.4142135623731526
 10
27.39221137938125
 20
7.675000183960644
 42
0.0
 10
27.39221137938125
 20
9.425000183960666
 42
0.4142135623730891
 10
26.86721137938127
 20
9.950000183960653
 42
0.0
 10
24.9422113793812
 20
9.950000183960653
 42
-0.4142135623730928
 10
23.54221137938123
 20
11.35000018396064
 42
0.0
 97
        0
 92
        7
 72
     1
 73
     1
 93
        2
 10
24.24221137938116
 20
15.20000018396065
 42
1.0
 10
27.74221137938116
 20
15.20000018396065
 42
1.0
 97
        0
 92
        7
 72
     1
 73
     1
 93
       26
 10
37.31485786155917
 20
19.20504737752408
 42
0.0
 10
38.37649749469699
 20
22.56690621579367
 42
0.5069206636600134
 10
37.87586659550163
 20
23.25000018396065
 42
0.0
 10
36.1769772158924
 20
23.25000018396065
 42
0.3272098845218764
 10
35.67634631669704
 20
22.88309415212762
 42
0.0
 10
33.80807644206527
 20
16.96690621579373
 42
-0.3272098845219541
 10
33.3074455428698
 20
16.60000018396065
 42
0.0
 10
33.16721137938134
 20
16.60000018396065
 42
-0.4142135623731526
 10
32.64221137938125
 20
17.12500018396064
 42
0.0
 10
32.64221137938125
 20
22.72500018396065
 42
0.4142135623730951
 10
32.11721137938127
 20
23.25000018396065
 42
0.0
 10
30.36721137938116
 20
23.25000018396065
 42
0.4142135623730871
 10
29.84221137938118
 20
22.72500018396067
 42
0.0
 10
29.84221137938118
 20
7.675000183960644
 42
0.4142135623730891
 10
30.36721137938116
 20
7.150000183960656
 42
0.0
 10
32.11721137938116
 20
7.150000183960656
 42
0.4142135623731526
 10
32.64221137938125
 20
7.675000183960644
 42
0.0
 10
32.64221137938125
 20
13.27500018396066
 42
-0.4142135623731526
 10
33.16721137938134
 20
13.80000018396065
 42
0.0
 10
33.30744554286991
 20
13.80000018396065
 42
-0.3272098845218915
 10
33.80807644206527
 20
13.43309415212758
 42
0.0
 10
35.67634631669704
 20
7.516906215793728
 42
0.3272098845218902
 10
36.1769772158924
 20
7.150000183960656
 42
0.0
 10
37.87586659550163
 20
7.150000183960656
 42
0.5069206636600335
 10
38.37649749469699
 20
7.833094152127664
 42
0.0
 10
36.05010611622333
 20
15.20000018396079
 42
0.0
 97
        0
 92
        7
 72
     1
 73
     1
 93
        8
 10
43.49221137938116
 20
22.72500018396066
 42
0.4142135623731546
 10
42.96721137938106
 20
23.25000018396065
 42
0.0
 10
41.2172113793813
 20
23.25000018396065
 42
0.4142135623731507
 10
40.69221137938121
 20
22.72500018396067
 42
0.0
 10
40.69221137938121
 20
7.675000183960644
 42
0.4142135623731526
 10
41.2172113793813
 20
7.150000183960656
 42
0.0
 10
42.96721137938106
 20
7.150000183960656
 42
0.4142135623731526
 10
43.49221137938116
 20
7.675000183960644
 42
0.0
 97
        0
 92
        7
 72
     1
 73
     1
 93
       24
 10
48.39221137938125
 20
19.92500018396066
 42
-0.4142135623731546
 10
48.91721137938134
 20
20.45000018396065
 42
0.0
 10
51.89221137938125
 20
20.45000018396065
 42
0.4142135623730911
 10
52.41721137938123
 20
20.97500018396064
 42
0.0
 10
52.41721137938123
 20
22.72500018396065
 42
0.4142135623730952
 10
51.89221137938125
 20
23.25000018396065
 42
0.0
 10
48.39221137938125
 20
23.25000018396065
 42
0.4142135623731048
 10
45.59221137938118
 20
20.45000018396068
 42
0.0
 10
45.59221137938118
 20
18.63479815860541
 42
0.1989123673796613
 10
46.82236289839773
 20
15.66494967762186
 42
0.0
 10
49.73216087304241
 20
12.75515170297719
 42
-0.1989123673796402
 10
50.14221137938125
 20
11.76520220931612
 42
0.0
 10
50.14221137938125
 20
10.47500018396064
 42
-0.4142135623730911
 10
49.61721137938127
 20
9.950000183960653
 42
0.0
 10
46.64221137938125
 20
9.950000183960653
 42
0.4142135623731526
 10
46.11721137938116
 20
9.425000183960666
 42
0.0
 10
46.11721137938116
 20
7.675000183960644
 42
0.4142135623730891
 10
46.64221137938113
 20
7.150000183960656
 42
0.0
 10
50.14221137938125
 20
7.150000183960656
 42
0.4142135623730925
 10
52.9422113793812
 20
9.950000183960632
 42
0.0
 10
52.9422113793812
 20
11.7652022093159
 42
0.1989123673796675
 10
51.71205986036466
 20
14.73505069029956
 42
0.0
 10
48.80226188572009
 20
17.64484866494407
 42
-0.1989123673796652
 10
48.39221137938125
 20
18.63479815860524
 42
0.0
 97
        0
 92
        7
 72
     1
 73
     1
 93
       16
 10
57.84221137938118
 20
22.72500018396064
 42
0.414213562373103
 10
57.3172113793812
 20
23.25000018396065
 42
0.0
 10
55.5672113793812
 20
23.25000018396065
 42
0.4142135623730871
 10
55.04221137938123
 20
22.72500018396067
 42
0.0
 10
55.04221137938123
 20
9.950000183960632
 42
0.4142135623730926
 10
57.84221137938118
 20
7.150000183960656
 42
0.0
 10
61.34221137938118
 20
7.150000183960656
 42
0.4142135623731044
 10
64.14221137938125
 20
9.950000183960632
 42
0.0
 10
64.14221137938125
 20
22.72500018396065
 42
0.4142135623730951
 10
63.61721137938127
 20
23.25000018396065
 42
0.0
 10
61.86721137938116
 20
23.25000018396065
 42
0.4142135623730871
 10
61.34221137938118
 20
22.72500018396067
 42
0.0
 10
61.34221137938118
 20
11.00000018396062
 42
-0.414213562373088
 10
60.29221137938122
 20
9.950000183960653
 42
0.0
 10
58.89221137938125
 20
9.950000183960653
 42
-0.4142135623731197
 10
57.84221137938118
 20
11.00000018396062
 42
0.0
 97
        0
 92
        7
 72
     1
 73
     1
 93
        8
 10
69.04221137938122
 20
22.72500018396067
 42
0.4142135623730871
 10
68.51721137938125
 20
23.25000018396065
 42
0.0
 10
66.76721137938125
 20
23.25000018396065
 42
0.4142135623731507
 10
66.24221137938116
 20
22.72500018396067
 42
0.0
 10
66.24221137938116
 20
7.675000183960644
 42
0.4142135623730891
 10
66.76721137938113
 20
7.150000183960656
 42
0.0
 10
68.51721137938125
 20
7.150000183960656
 42
0.4142135623730891
 10
69.04221137938122
 20
7.675000183960644
 42
0.0
 97
        0
 75
     0
 76
     1
 52
0.0
 41
0.2
 77
     0
 78
     2
 53
45.0
 43
-900.9423051100789
 44
-13.19999981603928
 45
-0.4490128060534576
 46
0.4490128060534577
 79
     0
 53
135.0
 43
-900.9423051100789
 44
-13.19999981603928
 45
-0.4490128060534577
 46
-0.4490128060534576
 79
     0
 47
0.057451373970553
 98
        8
 10
16.07985418762337
 20
15.1671738298462
 10
22.40451423103923
 20
18.84406236641166
 10
25.16436711025971
 20
15.51188183003137
 10
30.91405920623719
 20
16.20129783040215
 10
41.83847124355679
 20
16.66091009794377
 10
46.89820011972961
 20
19.41857650036786
 10
56.55768519700041
 20
18.72915809905566
 10
67.82707884422279
 20
19.18877036659728
  0
ARC
  5
7EDF
330
1A
100
AcDbEntity
  8
ZUWAKU
100
AcDbCircle
 10
15.49221137938116
 20
18.63479815860535
 30
0.0
 40
4.199999999999999
100
AcDbArc
 50
180.0
 51
225.0
  0
LINE
  5
7EE0
330
1A
100
AcDbEntity
  8
ZUWAKU
100
AcDbLine
 10
20.74221137938116
 20
11.35000018396066
 30
0.0
 11
20.74221137938116
 21
19.05000018396061
 31
0.0
  0
LINE
  5
7EE1
330
1A
100
AcDbEntity
  8
ZUWAKU
100
AcDbLine
 10
23.54221137938123
 20
19.05000018396065
 30
0.0
 11
23.54221137938123
 21
11.35000018396066
 31
0.0
  0
ARC
  5
7EE2
330
1A
100
AcDbEntity
  8
ZUWAKU
100
AcDbCircle
 10
15.49221137938116
 20
18.63479815860535
 30
0.0
 40
1.399999999999999
100
AcDbArc
 50
180.0000000000016
 51
224.9999999999988
  0
ARC
  5
7EE3
330
1A
100
AcDbEntity
  8
ZUWAKU
100
AcDbCircle
 10
24.9422113793812
 20
11.35000018396066
 30
0.0
 40
4.199999999999999
100
AcDbArc
 50
180.0
 51
270.0
  0
ARC
  5
7EE4
330
1A
100
AcDbEntity
  8
ZUWAKU
100
AcDbCircle
 10
15.84221137938118
 20
9.950000183960653
 30
0.0
 40
2.799999999999999
100
AcDbArc
 50
270.0
 51
0.0
  0
ARC
  5
7EE5
330
1A
100
AcDbEntity
  8
ZUWAKU
100
AcDbCircle
 10
14.4422113793812
 20
11.76520220931595
 30
0.0
 40
4.199999999999999
100
AcDbArc
 50
0.0
 51
45.0
  0
LINE
  5
7EE6
330
1A
100
AcDbEntity
  8
ZUWAKU
100
AcDbLine
 10
12.52236289839766
 20
15.66494967762183
 30
0.0
 11
15.43216087304233
 21
12.75515170297717
 31
0.0
  0
LINE
  5
7EE7
330
1A
100
AcDbEntity
  8
ZUWAKU
100
AcDbLine
 10
12.34221137938118
 20
9.950000183960653
 30
0.0
 11
15.3172113793812
 21
9.950000183960653
 31
0.0
  0
LINE
  5
7EE8
330
1A
100
AcDbEntity
  8
ZUWAKU
100
AcDbLine
 10
12.34221137938118
 20
7.150000183960656
 30
0.0
 11
15.84221137938118
 21
7.150000183960656
 31
0.0
  0
ARC
  5
7EE9
330
1A
100
AcDbEntity
  8
ZUWAKU
100
AcDbCircle
 10
12.34221137938118
 20
9.425000183960655
 30
0.0
 40
0.525
100
AcDbArc
 50
90.0
 51
180.0
  0
ARC
  5
7EEA
330
1A
100
AcDbEntity
  8
ZUWAKU
100
AcDbCircle
 10
12.34221137938118
 20
7.675000183960655
 30
0.0
 40
0.525
100
AcDbArc
 50
180.0
 51
270.0
  0
LINE
  5
7EEB
330
1A
100
AcDbEntity
  8
ZUWAKU
100
AcDbLine
 10
11.8172113793812
 20
7.675000183960655
 30
0.0
 11
11.8172113793812
 21
9.425000183960655
 31
0.0
  0
ARC
  5
7EEC
330
1A
100
AcDbEntity
  8
ZUWAKU
100
AcDbCircle
 10
14.4422113793812
 20
11.765202209316
 30
0.0
 40
1.399999999999999
100
AcDbArc
 50
0.0
 51
45.0
  0
ARC
  5
7EED
330
1A
100
AcDbEntity
  8
ZUWAKU
100
AcDbCircle
 10
15.3172113793812
 20
10.47500018396066
 30
0.0
 40
0.525
100
AcDbArc
 50
270.0
 51
0.0
  0
LINE
  5
7EEE
330
1A
100
AcDbEntity
  8
ZUWAKU
100
AcDbLine
 10
15.84221137938118
 20
10.47500018396066
 30
0.0
 11
15.84221137938118
 21
11.765202209316
 31
0.0
  0
LINE
  5
7EEF
330
1A
100
AcDbEntity
  8
ZUWAKU
100
AcDbLine
 10
17.4120598603647
 20
14.73505069029948
 30
0.0
 11
14.50226188572003
 21
17.64484866494415
 31
0.0
  0
ARC
  5
7EF0
330
1A
100
AcDbEntity
  8
ZUWAKU
100
AcDbCircle
 10
24.9422113793812
 20
11.35000018396066
 30
0.0
 40
1.399999999999999
100
AcDbArc
 50
180.0
 51
270.0
  0
LINE
  5
7EF1
330
1A
100
AcDbEntity
  8
ZUWAKU
100
AcDbLine
 10
18.64221137938125
 20
9.950000183960653
 30
0.0
 11
18.64221137938125
 21
11.765202209316
 31
0.0
  0
ARC
  5
7EF2
330
1A
100
AcDbEntity
  8
ZUWAKU
100
AcDbCircle
 10
17.59221137938118
 20
20.97500018396065
 30
0.0
 40
0.525
100
AcDbArc
 50
270.0
 51
0.0
  0
ARC
  5
7EF3
330
1A
100
AcDbEntity
  8
ZUWAKU
100
AcDbCircle
 10
17.59221137938118
 20
22.72500018396065
 30
0.0
 40
0.525
100
AcDbArc
 50
0.0
 51
90.0
  0
ARC
  5
7EF4
330
1A
100
AcDbEntity
  8
ZUWAKU
100
AcDbCircle
 10
14.09221137938118
 20
20.45000018396065
 30
0.0
 40
2.799999999999999
100
AcDbArc
 50
90.0
 51
180.0
  0
LINE
  5
7EF5
330
1A
100
AcDbEntity
  8
ZUWAKU
100
AcDbLine
 10
11.29221137938122
 20
20.45000018396065
 30
0.0
 11
11.29221137938122
 21
18.63479815860531
 31
0.0
  0
LINE
  5
7EF6
330
1A
100
AcDbEntity
  8
ZUWAKU
100
AcDbLine
 10
17.59221137938118
 20
20.45000018396065
 30
0.0
 11
14.61721137938116
 21
20.45000018396065
 31
0.0
  0
LINE
  5
7EF7
330
1A
100
AcDbEntity
  8
ZUWAKU
100
AcDbLine
 10
14.09221137938118
 20
19.92500018396065
 30
0.0
 11
14.09221137938118
 21
18.63479815860531
 31
0.0
  0
ARC
  5
7EF8
330
1A
100
AcDbEntity
  8
ZUWAKU
100
AcDbCircle
 10
14.61721137938116
 20
19.92500018396065
 30
0.0
 40
0.525
100
AcDbArc
 50
90.0
 51
180.0
  0
LINE
  5
7EF9
330
1A
100
AcDbEntity
  8
ZUWAKU
100
AcDbLine
 10
14.09221137938118
 20
23.25000018396065
 30
0.0
 11
17.59221137938118
 21
23.25000018396065
 31
0.0
  0
ARC
  5
7EFA
330
1A
100
AcDbEntity
  8
ZUWAKU
100
AcDbCircle
 10
24.9422113793812
 20
19.05000018396061
 30
0.0
 40
4.199999999999999
100
AcDbArc
 50
90.0
 51
180.0
  0
ARC
  5
7EFB
330
1A
100
AcDbEntity
  8
ZUWAKU
100
AcDbCircle
 10
24.9422113793812
 20
19.05000018396065
 30
0.0
 40
1.399999999999999
100
AcDbArc
 50
90.0
 51
180.0
  0
LINE
  5
7EFC
330
1A
100
AcDbEntity
  8
ZUWAKU
100
AcDbLine
 10
18.11721137938116
 20
22.72500018396065
 30
0.0
 11
18.11721137938116
 21
20.97500018396065
 31
0.0
  0
LINE
  5
7EFD
330
1A
100
AcDbEntity
  8
ZUWAKU
100
AcDbLine
 10
35.67634631669704
 20
22.88309415212762
 30
0.0
 11
33.80807644206527
 21
16.96690621579368
 31
0.0
  0
LINE
  5
7EFE
330
1A
100
AcDbEntity
  8
ZUWAKU
100
AcDbLine
 10
29.84221137938118
 20
22.72500018396065
 30
0.0
 11
29.84221137938118
 21
7.675000183960655
 31
0.0
  0
LINE
  5
7EFF
330
1A
100
AcDbEntity
  8
ZUWAKU
100
AcDbLine
 10
32.64221137938125
 20
17.12500018396065
 30
0.0
 11
32.64221137938125
 21
22.72500018396065
 31
0.0
  0
LINE
  5
7F00
330
1A
100
AcDbEntity
  8
ZUWAKU
100
AcDbLine
 10
57.84221137938118
 20
11.00000018396065
 30
0.0
 11
57.84221137938118
 21
22.72500018396065
 31
0.0
  0
LINE
  5
7F01
330
1A
100
AcDbEntity
  8
ZUWAKU
100
AcDbLine
 10
55.04221137938123
 20
22.72500018396065
 30
0.0
 11
55.04221137938123
 21
9.950000183960653
 31
0.0
  0
LINE
  5
7F02
330
1A
100
AcDbEntity
  8
ZUWAKU
100
AcDbLine
 10
43.49221137938116
 20
7.675000183960655
 30
0.0
 11
43.49221137938116
 21
22.72500018396065
 31
0.0
  0
LINE
  5
7F03
330
1A
100
AcDbEntity
  8
ZUWAKU
100
AcDbLine
 10
40.69221137938121
 20
22.72500018396065
 30
0.0
 11
40.69221137938121
 21
7.675000183960655
 31
0.0
  0
LINE
  5
7F04
330
1A
100
AcDbEntity
  8
ZUWAKU
100
AcDbLine
 10
37.31485786155917
 20
19.20504737752408
 30
0.0
 11
36.05010611622333
 21
15.20000018396067
 31
0.0
  0
ARC
  5
7F05
330
1A
100
AcDbEntity
  8
ZUWAKU
100
AcDbCircle
 10
49.79221137938123
 20
18.63479815860535
 30
0.0
 40
4.199999999999999
100
AcDbArc
 50
180.0
 51
225.0
  0
ARC
  5
7F06
330
1A
100
AcDbEntity
  8
ZUWAKU
100
AcDbCircle
 10
49.79221137938123
 20
18.63479815860535
 30
0.0
 40
1.399999999999999
100
AcDbArc
 50
180.0000000000016
 51
224.9999999999988
  0
LINE
  5
7F07
330
1A
100
AcDbEntity
  8
ZUWAKU
100
AcDbLine
 10
66.24221137938116
 20
22.72500018396065
 30
0.0
 11
66.24221137938116
 21
7.675000183960655
 31
0.0
  0
LINE
  5
7F08
330
1A
100
AcDbEntity
  8
ZUWAKU
100
AcDbLine
 10
69.04221137938122
 20
7.675000183960655
 30
0.0
 11
69.04221137938122
 21
22.72500018396065
 31
0.0
  0
LINE
  5
7F09
330
1A
100
AcDbEntity
  8
ZUWAKU
100
AcDbLine
 10
61.34221137938118
 20
22.72500018396065
 30
0.0
 11
61.34221137938118
 21
11.00000018396065
 31
0.0
  0
LINE
  5
7F0A
330
1A
100
AcDbEntity
  8
ZUWAKU
100
AcDbLine
 10
64.14221137938125
 20
9.950000183960653
 30
0.0
 11
64.14221137938125
 21
22.72500018396065
 31
0.0
  0
LINE
  5
7F0B
330
1A
100
AcDbEntity
  8
ZUWAKU
100
AcDbLine
 10
79.12662877258845
 20
30.00000018396065
 30
0.0
 11
79.12662877258845
 21
0.8000001839607193
 31
0.0
  0
LINE
  5
7F0C
330
1A
100
AcDbEntity
  8
ZUWAKU
100
AcDbLine
 10
79.52662877258831
 20
30.00000018396065
 30
0.0
 11
79.52662877258854
 21
0.8000001839607193
 31
0.0
  0
LINE
  5
7F0D
330
1A
100
AcDbEntity
  8
ZUWAKU
100
AcDbLine
 10
79.32662877258827
 20
30.00000018396065
 30
0.0
 11
79.32662877258849
 21
0.8000001839607193
 31
0.0
  0
LINE
  5
7F0E
330
1A
100
AcDbEntity
  8
ZUWAKU
100
AcDbLine
 10
57.84221137938118
 20
7.150000183960656
 30
0.0
 11
61.34221137938118
 21
7.150000183960656
 31
0.0
  0
LINE
  5
7F0F
330
1A
100
AcDbEntity
  8
ZUWAKU
100
AcDbLine
 10
60.29221137938122
 20
9.950000183960653
 30
0.0
 11
58.89221137938125
 21
9.950000183960653
 31
0.0
  0
LINE
  5
7F10
330
1A
100
AcDbEntity
  8
ZUWAKU
100
AcDbLine
 10
41.21721137938118
 20
7.150000183960656
 30
0.0
 11
42.96721137938118
 21
7.150000183960656
 31
0.0
  0
LINE
  5
7F11
330
1A
100
AcDbEntity
  8
ZUWAKU
100
AcDbLine
 10
35.67634631669704
 20
7.516906215793682
 30
0.0
 11
33.80807644206527
 21
13.43309415212762
 31
0.0
  0
ARC
  5
7F12
330
1A
100
AcDbEntity
  8
ZUWAKU
100
AcDbCircle
 10
33.16721137938122
 20
13.27500018396065
 30
0.0
 40
0.525
100
AcDbArc
 50
90.0
 51
180.0
  0
ARC
  5
7F13
330
1A
100
AcDbEntity
  8
ZUWAKU
100
AcDbCircle
 10
33.30744554286991
 20
13.27500018396065
 30
0.0
 40
0.525
100
AcDbArc
 50
17.52556837372303
 51
90.0
  0
ARC
  5
7F14
330
1A
100
AcDbEntity
  8
ZUWAKU
100
AcDbCircle
 10
30.36721137938116
 20
7.675000183960655
 30
0.0
 40
0.525
100
AcDbArc
 50
180.0
 51
270.0
  0
ARC
  5
7F15
330
1A
100
AcDbEntity
  8
ZUWAKU
100
AcDbCircle
 10
26.86721137938116
 20
9.425000183960655
 30
0.0
 40
0.525
100
AcDbArc
 50
0.0
 51
90.0
  0
ARC
  5
7F16
330
1A
100
AcDbEntity
  8
ZUWAKU
100
AcDbCircle
 10
26.86721137938116
 20
7.675000183960655
 30
0.0
 40
0.525
100
AcDbArc
 50
270.0
 51
0.0
  0
LINE
  5
7F17
330
1A
100
AcDbEntity
  8
ZUWAKU
100
AcDbLine
 10
27.39221137938125
 20
9.425000183960655
 30
0.0
 11
27.39221137938125
 21
7.675000183960655
 31
0.0
  0
LINE
  5
7F18
330
1A
100
AcDbEntity
  8
ZUWAKU
100
AcDbLine
 10
32.64221137938125
 20
7.675000183960655
 30
0.0
 11
32.64221137938125
 21
13.27500018396065
 31
0.0
  0
ARC
  5
7F19
330
1A
100
AcDbEntity
  8
ZUWAKU
100
AcDbCircle
 10
32.11721137938116
 20
7.675000183960655
 30
0.0
 40
0.525
100
AcDbArc
 50
270.0
 51
0.0
  0
LINE
  5
7F1A
330
1A
100
AcDbEntity
  8
ZUWAKU
100
AcDbLine
 10
30.36721137938116
 20
7.150000183960656
 30
0.0
 11
32.11721137938116
 21
7.150000183960656
 31
0.0
  0
ARC
  5
7F1B
330
1A
100
AcDbEntity
  8
ZUWAKU
100
AcDbCircle
 10
33.16721137938122
 20
17.12500018396065
 30
0.0
 40
0.525
100
AcDbArc
 50
180.0
 51
270.0
  0
LINE
  5
7F1C
330
1A
100
AcDbEntity
  8
ZUWAKU
100
AcDbLine
 10
33.16721137938122
 20
13.80000018396065
 30
0.0
 11
33.30744554286991
 21
13.80000018396065
 31
0.0
  0
LINE
  5
7F1D
330
1A
100
AcDbEntity
  8
ZUWAKU
100
AcDbLine
 10
33.30744554286991
 20
16.60000018396065
 30
0.0
 11
33.16721137938122
 21
16.60000018396065
 31
0.0
  0
ARC
  5
7F1E
330
1A
100
AcDbEntity
  8
ZUWAKU
100
AcDbCircle
 10
33.30744554286991
 20
17.12500018396065
 30
0.0
 40
0.525
100
AcDbArc
 50
270.0
 51
342.4744316262769
  0
ARC
  5
7F1F
330
1A
100
AcDbEntity
  8
ZUWAKU
100
AcDbCircle
 10
36.17697721589252
 20
7.675000183960655
 30
0.0
 40
0.525
100
AcDbArc
 50
197.525568373723
 51
270.0
  0
LINE
  5
7F20
330
1A
100
AcDbEntity
  8
ZUWAKU
100
AcDbLine
 10
38.37649749469699
 20
7.833094152127628
 30
0.0
 11
36.05010611622333
 21
15.20000018396067
 31
0.0
  0
ARC
  5
7F21
330
1A
100
AcDbEntity
  8
ZUWAKU
100
AcDbCircle
 10
37.87586659550152
 20
7.675000183960655
 30
0.0
 40
0.525
100
AcDbArc
 50
270.0
 51
17.52556837372303
  0
LINE
  5
7F22
330
1A
100
AcDbEntity
  8
ZUWAKU
100
AcDbLine
 10
36.17697721589252
 20
7.150000183960656
 30
0.0
 11
37.87586659550152
 21
7.150000183960656
 31
0.0
  0
ARC
  5
7F23
330
1A
100
AcDbEntity
  8
ZUWAKU
100
AcDbCircle
 10
41.21721137938118
 20
7.675000183960655
 30
0.0
 40
0.525
100
AcDbArc
 50
180.0
 51
270.0
  0
ARC
  5
7F24
330
1A
100
AcDbEntity
  8
ZUWAKU
100
AcDbCircle
 10
50.14221137938125
 20
9.950000183960653
 30
0.0
 40
2.799999999999999
100
AcDbArc
 50
270.0
 51
0.0
  0
ARC
  5
7F25
330
1A
100
AcDbEntity
  8
ZUWAKU
100
AcDbCircle
 10
57.84221137938118
 20
9.950000183960653
 30
0.0
 40
2.799999999999999
100
AcDbArc
 50
180.0
 51
270.0
  0
LINE
  5
7F26
330
1A
100
AcDbEntity
  8
ZUWAKU
100
AcDbLine
 10
51.71205986036477
 20
14.73505069029948
 30
0.0
 11
48.80226188571999
 21
17.64484866494415
 31
0.0
  0
LINE
  5
7F27
330
1A
100
AcDbEntity
  8
ZUWAKU
100
AcDbLine
 10
46.82236289839773
 20
15.66494967762183
 30
0.0
 11
49.73216087304241
 21
12.75515170297717
 31
0.0
  0
LINE
  5
7F28
330
1A
100
AcDbEntity
  8
ZUWAKU
100
AcDbLine
 10
46.64221137938125
 20
7.150000183960656
 30
0.0
 11
50.14221137938125
 21
7.150000183960656
 31
0.0
  0
LINE
  5
7F29
330
1A
100
AcDbEntity
  8
ZUWAKU
100
AcDbLine
 10
46.64221137938125
 20
9.950000183960653
 30
0.0
 11
49.61721137938116
 21
9.950000183960653
 31
0.0
  0
ARC
  5
7F2A
330
1A
100
AcDbEntity
  8
ZUWAKU
100
AcDbCircle
 10
46.64221137938125
 20
9.425000183960655
 30
0.0
 40
0.525
100
AcDbArc
 50
90.0
 51
180.0
  0
ARC
  5
7F2B
330
1A
100
AcDbEntity
  8
ZUWAKU
100
AcDbCircle
 10
42.96721137938118
 20
7.675000183960655
 30
0.0
 40
0.525
100
AcDbArc
 50
270.0
 51
0.0
  0
ARC
  5
7F2C
330
1A
100
AcDbEntity
  8
ZUWAKU
100
AcDbCircle
 10
46.64221137938125
 20
7.675000183960655
 30
0.0
 40
0.525
100
AcDbArc
 50
180.0
 51
270.0
  0
LINE
  5
7F2D
330
1A
100
AcDbEntity
  8
ZUWAKU
100
AcDbLine
 10
46.11721137938116
 20
7.675000183960655
 30
0.0
 11
46.11721137938116
 21
9.425000183960655
 31
0.0
  0
ARC
  5
7F2E
330
1A
100
AcDbEntity
  8
ZUWAKU
100
AcDbCircle
 10
49.61721137938116
 20
10.47500018396066
 30
0.0
 40
0.525
100
AcDbArc
 50
270.0
 51
0.0
  0
ARC
  5
7F2F
330
1A
100
AcDbEntity
  8
ZUWAKU
100
AcDbCircle
 10
48.74221137938116
 20
11.765202209316
 30
0.0
 40
1.399999999999999
100
AcDbArc
 50
0.0
 51
45.0
  0
LINE
  5
7F30
330
1A
100
AcDbEntity
  8
ZUWAKU
100
AcDbLine
 10
50.14221137938125
 20
10.47500018396066
 30
0.0
 11
50.14221137938125
 21
11.765202209316
 31
0.0
  0
ARC
  5
7F31
330
1A
100
AcDbEntity
  8
ZUWAKU
100
AcDbCircle
 10
58.89221137938125
 20
11.00000018396065
 30
0.0
 40
1.049999999999999
100
AcDbArc
 50
180.0
 51
270.0
  0
ARC
  5
7F32
330
1A
100
AcDbEntity
  8
ZUWAKU
100
AcDbCircle
 10
48.74221137938116
 20
11.76520220931595
 30
0.0
 40
4.199999999999999
100
AcDbArc
 50
0.0
 51
45.0
  0
LINE
  5
7F33
330
1A
100
AcDbEntity
  8
ZUWAKU
100
AcDbLine
 10
52.9422113793812
 20
9.950000183960653
 30
0.0
 11
52.9422113793812
 21
11.765202209316
 31
0.0
  0
ARC
  5
7F34
330
1A
100
AcDbEntity
  8
ZUWAKU
100
AcDbCircle
 10
61.34221137938118
 20
9.950000183960653
 30
0.0
 40
2.799999999999999
100
AcDbArc
 50
270.0
 51
0.0
  0
LINE
  5
7F35
330
1A
100
AcDbEntity
  8
ZUWAKU
100
AcDbLine
 10
66.76721137938125
 20
7.150000183960656
 30
0.0
 11
68.51721137938125
 21
7.150000183960656
 31
0.0
  0
ARC
  5
7F36
330
1A
100
AcDbEntity
  8
ZUWAKU
100
AcDbCircle
 10
60.29221137938122
 20
11.00000018396065
 30
0.0
 40
1.049999999999999
100
AcDbArc
 50
270.0
 51
0.0
  0
ARC
  5
7F37
330
1A
100
AcDbEntity
  8
ZUWAKU
100
AcDbCircle
 10
66.76721137938125
 20
7.675000183960655
 30
0.0
 40
0.525
100
AcDbArc
 50
180.0
 51
270.0
  0
ARC
  5
7F38
330
1A
100
AcDbEntity
  8
ZUWAKU
100
AcDbCircle
 10
68.51721137938125
 20
7.675000183960655
 30
0.0
 40
0.525
100
AcDbArc
 50
270.0
 51
0.0
  0
LINE
  5
7F39
330
1A
100
AcDbEntity
  8
ZUWAKU
100
AcDbLine
 10
42.96721137938118
 20
23.25000018396065
 30
0.0
 11
41.21721137938118
 21
23.25000018396065
 31
0.0
  0
LINE
  5
7F3A
330
1A
100
AcDbEntity
  8
ZUWAKU
100
AcDbLine
 10
27.39221137938125
 20
22.72500018396065
 30
0.0
 11
27.39221137938125
 21
20.97500018396065
 31
0.0
  0
ARC
  5
7F3B
330
1A
100
AcDbEntity
  8
ZUWAKU
100
AcDbCircle
 10
26.86721137938116
 20
20.97500018396065
 30
0.0
 40
0.525
100
AcDbArc
 50
270.0
 51
0.0
  0
ARC
  5
7F3C
330
1A
100
AcDbEntity
  8
ZUWAKU
100
AcDbCircle
 10
30.36721137938116
 20
22.72500018396065
 30
0.0
 40
0.525
100
AcDbArc
 50
90.0
 51
180.0
  0
ARC
  5
7F3D
330
1A
100
AcDbEntity
  8
ZUWAKU
100
AcDbCircle
 10
26.86721137938116
 20
22.72500018396065
 30
0.0
 40
0.525
100
AcDbArc
 50
0.0
 51
90.0
  0
LINE
  5
7F3E
330
1A
100
AcDbEntity
  8
ZUWAKU
100
AcDbLine
 10
32.11721137938116
 20
23.25000018396065
 30
0.0
 11
30.36721137938116
 21
23.25000018396065
 31
0.0
  0
ARC
  5
7F3F
330
1A
100
AcDbEntity
  8
ZUWAKU
100
AcDbCircle
 10
32.11721137938116
 20
22.72500018396065
 30
0.0
 40
0.525
100
AcDbArc
 50
0.0
 51
90.0
  0
ARC
  5
7F40
330
1A
100
AcDbEntity
  8
ZUWAKU
100
AcDbCircle
 10
36.17697721589252
 20
22.72500018396065
 30
0.0
 40
0.525
100
AcDbArc
 50
90.0
 51
162.4744316262769
  0
LINE
  5
7F41
330
1A
100
AcDbEntity
  8
ZUWAKU
100
AcDbLine
 10
38.37649749469699
 20
22.56690621579368
 30
0.0
 11
37.31485786155917
 21
19.20504737752408
 31
0.0
  0
ARC
  5
7F42
330
1A
100
AcDbEntity
  8
ZUWAKU
100
AcDbCircle
 10
37.87586659550152
 20
22.72500018396065
 30
0.0
 40
0.525
100
AcDbArc
 50
342.4744316262769
 51
90.0
  0
LINE
  5
7F43
330
1A
100
AcDbEntity
  8
ZUWAKU
100
AcDbLine
 10
36.17697721589252
 20
23.25000018396065
 30
0.0
 11
37.87586659550152
 21
23.25000018396065
 31
0.0
  0
ARC
  5
7F44
330
1A
100
AcDbEntity
  8
ZUWAKU
100
AcDbCircle
 10
41.21721137938118
 20
22.72500018396065
 30
0.0
 40
0.525
100
AcDbArc
 50
90.0
 51
180.0
  0
LINE
  5
7F45
330
1A
100
AcDbEntity
  8
ZUWAKU
100
AcDbLine
 10
51.89221137938125
 20
20.45000018396065
 30
0.0
 11
48.91721137938123
 21
20.45000018396065
 31
0.0
  0
LINE
  5
7F46
330
1A
100
AcDbEntity
  8
ZUWAKU
100
AcDbLine
 10
48.39221137938125
 20
23.25000018396065
 30
0.0
 11
51.89221137938125
 21
23.25000018396065
 31
0.0
  0
ARC
  5
7F47
330
1A
100
AcDbEntity
  8
ZUWAKU
100
AcDbCircle
 10
48.39221137938125
 20
20.45000018396065
 30
0.0
 40
2.799999999999999
100
AcDbArc
 50
90.0
 51
180.0
  0
LINE
  5
7F48
330
1A
100
AcDbEntity
  8
ZUWAKU
100
AcDbLine
 10
45.59221137938118
 20
20.45000018396065
 30
0.0
 11
45.59221137938118
 21
18.63479815860531
 31
0.0
  0
ARC
  5
7F49
330
1A
100
AcDbEntity
  8
ZUWAKU
100
AcDbCircle
 10
42.96721137938118
 20
22.72500018396065
 30
0.0
 40
0.525
100
AcDbArc
 50
0.0
 51
90.0
  0
LINE
  5
7F4A
330
1A
100
AcDbEntity
  8
ZUWAKU
100
AcDbLine
 10
48.39221137938125
 20
19.92500018396065
 30
0.0
 11
48.39221137938125
 21
18.63479815860531
 31
0.0
  0
ARC
  5
7F4B
330
1A
100
AcDbEntity
  8
ZUWAKU
100
AcDbCircle
 10
48.91721137938123
 20
19.92500018396065
 30
0.0
 40
0.525
100
AcDbArc
 50
90.0
 51
180.0
  0
LINE
  5
7F4C
330
1A
100
AcDbEntity
  8
ZUWAKU
100
AcDbLine
 10
52.41721137938123
 20
22.72500018396065
 30
0.0
 11
52.41721137938123
 21
20.97500018396065
 31
0.0
  0
ARC
  5
7F4D
330
1A
100
AcDbEntity
  8
ZUWAKU
100
AcDbCircle
 10
51.89221137938125
 20
20.97500018396065
 30
0.0
 40
0.525
100
AcDbArc
 50
270.0
 51
0.0
  0
ARC
  5
7F4E
330
1A
100
AcDbEntity
  8
ZUWAKU
100
AcDbCircle
 10
51.89221137938125
 20
22.72500018396065
 30
0.0
 40
0.525
100
AcDbArc
 50
0.0
 51
90.0
  0
LINE
  5
7F4F
330
1A
100
AcDbEntity
  8
ZUWAKU
100
AcDbLine
 10
57.3172113793812
 20
23.25000018396065
 30
0.0
 11
55.5672113793812
 21
23.25000018396065
 31
0.0
  0
ARC
  5
7F50
330
1A
100
AcDbEntity
  8
ZUWAKU
100
AcDbCircle
 10
55.5672113793812
 20
22.72500018396065
 30
0.0
 40
0.525
100
AcDbArc
 50
90.0
 51
180.0
  0
ARC
  5
7F51
330
1A
100
AcDbEntity
  8
ZUWAKU
100
AcDbCircle
 10
57.3172113793812
 20
22.72500018396065
 30
0.0
 40
0.525
100
AcDbArc
 50
0.0
 51
90.0
  0
LINE
  5
7F52
330
1A
100
AcDbEntity
  8
ZUWAKU
100
AcDbLine
 10
68.51721137938125
 20
23.25000018396065
 30
0.0
 11
66.76721137938125
 21
23.25000018396065
 31
0.0
  0
ARC
  5
7F53
330
1A
100
AcDbEntity
  8
ZUWAKU
100
AcDbCircle
 10
61.86721137938116
 20
22.72500018396065
 30
0.0
 40
0.525
100
AcDbArc
 50
90.0
 51
180.0
  0
LINE
  5
7F54
330
1A
100
AcDbEntity
  8
ZUWAKU
100
AcDbLine
 10
63.61721137938116
 20
23.25000018396065
 30
0.0
 11
61.86721137938116
 21
23.25000018396065
 31
0.0
  0
ARC
  5
7F55
330
1A
100
AcDbEntity
  8
ZUWAKU
100
AcDbCircle
 10
63.61721137938116
 20
22.72500018396065
 30
0.0
 40
0.525
100
AcDbArc
 50
0.0
 51
90.0
  0
ARC
  5
7F56
330
1A
100
AcDbEntity
  8
ZUWAKU
100
AcDbCircle
 10
66.76721137938125
 20
22.72500018396065
 30
0.0
 40
0.525
100
AcDbArc
 50
90.0
 51
180.0
  0
ARC
  5
7F57
330
1A
100
AcDbEntity
  8
ZUWAKU
100
AcDbCircle
 10
68.51721137938125
 20
22.72500018396065
 30
0.0
 40
0.525
100
AcDbArc
 50
0.0
 51
90.0
  0
TEXT
  5
7F58
330
1A
100
AcDbEntity
  8
MOJI
100
AcDbText
 10
239.8272019054511
 20
18.00492124136803
 30
0.0
 40
5.599999999999999
  1
ステンレス金具正面打（吊）ワンタッチ自在式
 41
0.9
  7
ｽﾀｲﾙ1
100
AcDbText
  0
TEXT
  5
7F59
330
1A
100
AcDbEntity
  8
MOJI
100
AcDbText
 10
239.8272019054511
 20
3.204921241368072
 30
0.0
 40
5.599999999999999
  1
ＲＶ１０５－４－１０～４５
 41
0.9
  7
ｽﾀｲﾙ1
100
AcDbText
  0
LINE
  5
7F5A
330
1A
100
AcDbEntity
  8
ZUWAKU
100
AcDbLine
 10
208.4466005146678
 20
30.00000018396065
 30
0.0
 11
208.446600514668
 21
0.8000001839607193
 31
0.0
  0
LINE
  5
7F5B
330
1A
100
AcDbEntity
  8
ZUWAKU
100
AcDbLine
 10
208.6466005146678
 20
30.00000018396065
 30
0.0
 11
208.6466005146681
 21
0.8000001839607193
 31
0.0
  0
LINE
  5
7F5C
330
1A
100
AcDbEntity
  8
ZUWAKU
100
AcDbLine
 10
208.246600514668
 20
30.00000018396065
 30
0.0
 11
208.246600514668
 21
0.8000001839607193
 31
0.0
  0
TEXT
  5
7F5D
330
1A
100
AcDbEntity
  8
ZUWAKU
100
AcDbText
 10
209.7240455368776
 20
9.655356722346269
 30
0.0
 40
4.0
  1
サイズ
 41
0.9
  7
ｽﾀｲﾙ1
100
AcDbText
  0
TEXT
  5
7F5E
330
1A
100
AcDbEntity
  8
ZUWAKU
100
AcDbText
 10
209.7240455368774
 20
24.05535672234623
 30
0.0
 40
4.0
  1
品名
 41
0.9
  7
ｽﾀｲﾙ1
100
AcDbText
  0
TEXT
  5
7F5F
330
1A
100
AcDbEntity
  8
ZUWAKU
100
AcDbText
 10
658.2039369119025
 20
18.00492124136803
 30
0.0
 40
5.599999999999999
  1
　　．　　．　　
 41
0.9
  7
ｽﾀｲﾙ1
100
AcDbText
  0
LINE
  5
7F60
330
1A
100
AcDbEntity
  8
ZUWAKU
100
AcDbLine
 10
648.8172017348042
 20
15.60000018396068
 30
0.0
 11
697.2490097731413
 21
15.60000018396068
 31
0.0
  0
LINE
  5
7F61
330
1A
100
AcDbEntity
  8
ZUWAKU
100
AcDbLine
 10
648.8172017348045
 20
15.40000018396068
 30
0.0
 11
697.2490097731413
 21
15.40000018396068
 31
0.0
  0
LINE
  5
7F62
330
1A
100
AcDbEntity
  8
ZUWAKU
100
AcDbLine
 10
648.8172017348042
 20
15.20000018396068
 30
0.0
 11
697.2490097731413
 21
15.20000018396068
 31
0.0
  0
LINE
  5
7F63
330
1A
100
AcDbEntity
  8
ZUWAKU
100
AcDbLine
 10
505.1991787227409
 20
15.60000018396068
 30
0.0
 11
552.5269549907124
 21
15.60000018396068
 31
0.0
  0
LINE
  5
7F64
330
1A
100
AcDbEntity
  8
ZUWAKU
100
AcDbLine
 10
505.1991787227409
 20
15.40000018396068
 30
0.0
 11
552.5269549907124
 21
15.40000018396068
 31
0.0
  0
LINE
  5
7F65
330
1A
100
AcDbEntity
  8
ZUWAKU
100
AcDbLine
 10
505.1991787227409
 20
15.20000018396069
 30
0.0
 11
552.5269549907124
 21
15.20000018396069
 31
0.0
  0
LINE
  5
7F66
330
1A
100
AcDbEntity
  8
ZUWAKU
100
AcDbLine
 10
504.799178722741
 20
30.00000018396065
 30
0.0
 11
504.799178722741
 21
0.8000001839607193
 31
0.0
  0
LINE
  5
7F67
330
1A
100
AcDbEntity
  8
ZUWAKU
100
AcDbLine
 10
505.1991787227409
 20
30.00000018396065
 30
0.0
 11
505.1991787227412
 21
0.8000001839607193
 31
0.0
  0
LINE
  5
7F68
330
1A
100
AcDbEntity
  8
ZUWAKU
100
AcDbLine
 10
504.9991787227408
 20
30.00000018396065
 30
0.0
 11
504.9991787227411
 21
0.8000001839607193
 31
0.0
  0
TEXT
  5
7F69
330
1A
100
AcDbEntity
  8
MOJI
100
AcDbText
 10
528.0409071969129
 20
18.00492124136803
 30
0.0
 40
5.599999999999999
  1
Ａ３
 41
0.9
  7
ｽﾀｲﾙ1
100
AcDbText
  0
LINE
  5
7F6A
330
1A
100
AcDbEntity
  8
ZUWAKU
100
AcDbLine
 10
447.4243631955914
 20
30.00000018396065
 30
0.0
 11
447.4243631955914
 21
0.8000001839607193
 31
0.0
  0
LINE
  5
7F6B
330
1A
100
AcDbEntity
  8
ZUWAKU
100
AcDbLine
 10
447.8243631955913
 20
30.00000018396065
 30
0.0
 11
447.8243631955916
 21
0.8000001839607193
 31
0.0
  0
LINE
  5
7F6C
330
1A
100
AcDbEntity
  8
ZUWAKU
100
AcDbLine
 10
447.6243631955912
 20
30.00000018396065
 30
0.0
 11
447.6243631955915
 21
0.8000001839607193
 31
0.0
  0
TEXT
  5
7F6D
330
1A
100
AcDbEntity
  8
MOJI
100
AcDbText
 10
464.594625227839
 20
11.94261790562063
 30
0.0
 40
5.599999999999999
  1
ＬＬ７６Ｇ
 41
0.9
  7
ｽﾀｲﾙ1
100
AcDbText
  0
TEXT
  5
7F6E
330
1A
100
AcDbEntity
  8
ZUWAKU
100
AcDbText
 10
506.6766237449508
 20
9.655356722346269
 30
0.0
 40
4.0
  1
縮尺
 41
0.9
  7
ｽﾀｲﾙ1
100
AcDbText
  0
TEXT
  5
7F6F
330
1A
100
AcDbEntity
  8
MOJI
100
AcDbText
 10
528.0409071969129
 20
3.204921241368072
 30
0.0
 40
5.599999999999999
  1
１/２
 41
0.9
  7
ｽﾀｲﾙ1
100
AcDbText
  0
TEXT
  5
7F70
330
1A
100
AcDbEntity
  8
ZUWAKU
100
AcDbText
 10
449.3018082178009
 20
24.05535672234623
 30
0.0
 40
4.0
  1
品番
 41
0.9
  7
ｽﾀｲﾙ1
100
AcDbText
  0
TEXT
  5
7F71
330
1A
100
AcDbEntity
  8
ZUWAKU
100
AcDbText
 10
506.6766237449505
 20
24.05535672234623
 30
0.0
 40
4.0
  1
用紙
 41
0.9
  7
ｽﾀｲﾙ1
100
AcDbText
  0
LINE
  5
7F72
330
1A
100
AcDbEntity
  8
ZUWAKU
100
AcDbLine
 10
552.5269549907124
 20
30.00000018396065
 30
0.0
 11
552.5269549907124
 21
0.8000001839607193
 31
0.0
  0
LINE
  5
7F73
330
1A
100
AcDbEntity
  8
ZUWAKU
100
AcDbLine
 10
552.9269549907123
 20
30.00000018396065
 30
0.0
 11
552.9269549907126
 21
0.8000001839607193
 31
0.0
  0
LINE
  5
7F74
330
1A
100
AcDbEntity
  8
ZUWAKU
100
AcDbLine
 10
552.7269549907123
 20
30.00000018396065
 30
0.0
 11
552.7269549907125
 21
0.8000001839607193
 31
0.0
  0
LINE
  5
7F75
330
1A
100
AcDbEntity
  8
ZUWAKU
100
AcDbLine
 10
648.4172017348046
 20
30.00000018396065
 30
0.0
 11
648.4172017348046
 21
0.8000001839607193
 31
0.0
  0
LINE
  5
7F76
330
1A
100
AcDbEntity
  8
ZUWAKU
100
AcDbLine
 10
648.8172017348045
 20
30.00000018396065
 30
0.0
 11
648.8172017348047
 21
0.8000001839607193
 31
0.0
  0
LINE
  5
7F77
330
1A
100
AcDbEntity
  8
ZUWAKU
100
AcDbLine
 10
648.6172017348044
 20
30.00000018396065
 30
0.0
 11
648.6172017348046
 21
0.8000001839607193
 31
0.0
  0
TEXT
  5
7F78
330
1A
100
AcDbEntity
  8
ZUWAKU
100
AcDbText
 10
650.2946467570141
 20
24.05535672234623
 30
0.0
 40
4.0
  1
DATE
 41
0.9
  7
ｽﾀｲﾙ1
100
AcDbText
  0
TEXT
  5
7F79
330
1A
100
AcDbEntity
  8
ZUWAKU
100
AcDbText
 10
708.5280834168438
 20
17.55383951964745
 30
0.0
 40
6.0
  1
積水化学工業株式会社
 41
0.9
  7
ｽﾀｲﾙ1
100
AcDbText
  0
LINE
  5
7F7A
330
1A
100
AcDbEntity
  8
ZUWAKU
100
AcDbLine
 10
697.8490097731412
 20
30.00000018396065
 30
0.0
 11
697.8490097731414
 21
0.8000001839607193
 31
0.0
  0
LINE
  5
7F7B
330
1A
100
AcDbEntity
  8
ZUWAKU
100
AcDbLine
 10
697.6490097731412
 20
30.00000018396065
 30
0.0
 11
697.6490097731414
 21
0.8000001839607193
 31
0.0
  0
LINE
  5
7F7C
330
1A
100
AcDbEntity
  8
ZUWAKU
100
AcDbLine
 10
697.4490097731413
 20
30.00000018396065
 30
0.0
 11
697.4490097731413
 21
0.8000001839607193
 31
0.0
  0
LINE
  5
7F7D
330
1A
100
AcDbEntity
  8
ZUWAKU
100
AcDbLine
 10
697.2490097731413
 20
30.00000018396065
 30
0.0
 11
697.2490097731413
 21
0.8000001839607193
 31
0.0
  0
TEXT
  5
7F7E
330
1A
100
AcDbEntity
  8
ZUWAKU
100
AcDbText
 10
708.5280834168438
 20
6.648840497814717
 30
0.0
 40
6.0
  1
建材事業部
 41
0.9
  7
ｽﾀｲﾙ1
100
AcDbText
  0
VIEWPORT
  5
22
330
17
100
AcDbEntity
 67
     1
  8
0
100
AcDbViewport
 10
313.6808219178082
 20
148.5
 30
0.0
 40
627.3616438356165
 41
297.0
 68
     2
 69
     1
1001
ACAD
1000
MVIEW
1002
{
1070
    16
1010
0.0
1020
0.0
1030
0.0
1010
0.0
1020
0.0
1030
1.0
1040
0.0
1040
297.0
1040
313.6808219178082
1040
148.5
1040
50.0
1040
0.0
1040
0.0
1070
     0
1070
   100
1070
     1
1070
     0
1070
     0
1070
     0
1070
     0
1070
     0
1040
0.0
1040
0.0
1040
0.0
1040
1.0
1040
1.0
1040
10.0
1040
10.0
1070
     0
1002
{
1002
}
1002
}
  0
VIEWPORT
  5
64
330
17
100
AcDbEntity
 67
     1
  8
VIEWPORT
100
AcDbViewport
 10
210.0
 20
148.5
 30
0.0
 40
420.0
 41
297.0
 68
     1
 69
     2
1001
ACAD
1000
MVIEW
1002
{
1070
    16
1010
0.0
1020
0.0
1030
0.0
1010
0.0
1020
0.0
1030
1.0
1040
0.0
1040
605.8799999999998
1040
420.0
1040
297.0
1040
50.0
1040
0.0
1040
0.0
1070
     0
1070
   100
1070
     1
1070
     0
1070
     0
1070
     0
1070
     0
1070
     0
1040
0.0
1040
0.0
1040
0.0
1040
10.0
1040
10.0
1040
0.0
1040
0.0
1070
     0
1002
{
1002
}
1002
}
  0
ENDSEC
  0
SECTION
  2
OBJECTS
  0
DICTIONARY
  5
C
330
0
100
AcDbDictionary
  3
ACAD_GROUP
350
D
  3
ACAD_LAYOUT
350
911
  3
ACAD_MLINESTYLE
350
E
  3
ACAD_PLOTSETTINGS
350
912
  3
ACAD_PLOTSTYLENAME
350
90F
  3
ACDBHEADERROUNDTRIPXREC
350
8017
  0
DICTIONARY
  5
94A
330
1A
100
AcDbDictionary
280
     1
  3
ACAD_LAYOUTSELFREF
360
8039
  0
DICTIONARY
  5
948
330
17
100
AcDbDictionary
280
     1
  3
ACAD_LAYOUTSELFREF
360
8038
  0
DICTIONARY
  5
D
102
{ACAD_REACTORS
330
C
102
}
330
C
100
AcDbDictionary
  0
DICTIONARY
  5
911
102
{ACAD_REACTORS
330
C
102
}
330
C
100
AcDbDictionary
  0
DICTIONARY
  5
E
102
{ACAD_REACTORS
330
C
102
}
330
C
100
AcDbDictionary
  3
STANDARD
350
13
  0
DICTIONARY
  5
912
102
{ACAD_REACTORS
330
C
102
}
330
C
100
AcDbDictionary
  0
ACDBDICTIONARYWDFLT
  5
90F
102
{ACAD_REACTORS
330
C
102
}
330
C
100
AcDbDictionary
281
     1
  3
Normal
350
910
100
AcDbDictionaryWithDefault
340
910
1001
ACAD
1000
TREAT_AS_HARD
1070
     0
1000
TREAT_AS_HARD
1070
     0
1000
TREAT_AS_HARD
1070
     0
1000
TREAT_AS_HARD
1070
     0
1000
TREAT_AS_HARD
1070
     0
1000
TREAT_AS_HARD
1070
     0
1000
TREAT_AS_HARD
1070
     0
1000
TREAT_AS_HARD
1070
     0
1000
TREAT_AS_HARD
1070
     0
1000
TREAT_AS_HARD
1070
     0
1000
TREAT_AS_HARD
1070
     0
1000
TREAT_AS_HARD
1070
     0
1000
TREAT_AS_HARD
1070
     0
1000
TREAT_AS_HARD
1070
     0
1000
TREAT_AS_HARD
1070
     0
1000
TREAT_AS_HARD
1070
     0
1000
TREAT_AS_HARD
1070
     0
  0
DICTIONARY
  5
8017
102
{ACAD_REACTORS
330
C
102
}
330
C
100
AcDbDictionary
  3
TSTACKALIGN
350
8018
  3
TSTACKSIZE
350
8019
  3
HYPERLINKBASE
350
801A
  3
STYLESHEET
350
801B
  3
LAYOUTDICT
350
801C
  3
PLOTSETDICT
350
801D
  3
PLOTSTYLNAMDICT
350
801E
  3
LWETCUNION
350
801F
  3
INSUNITS
350
8020
  3
CEPSNTYPE
350
8021
  3
FINGERPRINTGUID
350
8022
  3
VERSIONGUID
350
8023
  3
PSVPSCALE
350
8024
  3
DIMSTYLEDATA
350
8025
  3
PUCSORTHOREF
350
8026
  3
PUCSORTHOVIEW
350
8027
  3
PUCSBASE
350
8028
  3
PUCSORGTOP
350
8029
  3
PUCSORGBOTTOM
350
802A
  3
PUCSORGLEFT
350
802B
  3
PUCSORGRIGHT
350
802C
  3
PUCSORGFRONT
350
802D
  3
PUCSORGBACK
350
802E
  3
UCSORTHOREF
350
802F
  3
UCSORTHOVIEW
350
8030
  3
UCSBASE
350
8031
  3
UCSORGTOP
350
8032
  3
UCSORGBOTTOM
350
8033
  3
UCSORGLEFT
350
8034
  3
UCSORGRIGHT
350
8035
  3
UCSORGFRONT
350
8036
  3
UCSORGBACK
350
8037
  0
XRECORD
  5
8039
102
{ACAD_REACTORS
330
94A
102
}
330
94A
100
AcDbXrecord
340
1A
  0
XRECORD
  5
8038
102
{ACAD_REACTORS
330
948
102
}
330
948
100
AcDbXrecord
340
17
  0
MLINESTYLE
  5
13
102
{ACAD_REACTORS
330
E
102
}
330
E
100
AcDbMlineStyle
  2
STANDARD
 70
     0
  3

 62
     0
 51
90.0
 52
90.0
 71
     2
 49
0.5
 62
   256
  6
BYLAYER
 49
-0.5
 62
   256
  6
BYLAYER
  0
ACDBPLACEHOLDER
  5
910
102
{ACAD_REACTORS
330
90F
102
}
330
90F
100
AcDbPlaceHolder
280
     0
  0
XRECORD
  5
8018
102
{ACAD_REACTORS
330
8017
102
}
330
8017
100
AcDbXrecord
 90
        1
  0
XRECORD
  5
8019
102
{ACAD_REACTORS
330
8017
102
}
330
8017
100
AcDbXrecord
 90
       70
  0
XRECORD
  5
801A
102
{ACAD_REACTORS
330
8017
102
}
330
8017
100
AcDbXrecord
  1

  0
XRECORD
  5
801B
102
{ACAD_REACTORS
330
8017
102
}
330
8017
100
AcDbXrecord
  1
systemprinter.ctb
  0
XRECORD
  5
801C
102
{ACAD_REACTORS
330
8017
102
}
330
8017
100
AcDbXrecord
340
911
  0
XRECORD
  5
801D
102
{ACAD_REACTORS
330
8017
102
}
330
8017
100
AcDbXrecord
340
912
  0
XRECORD
  5
801E
102
{ACAD_REACTORS
330
8017
102
}
330
8017
100
AcDbXrecord
340
90F
  0
XRECORD
  5
801F
102
{ACAD_REACTORS
330
8017
102
}
330
8017
100
AcDbXrecord
 90
    10781
  0
XRECORD
  5
8020
102
{ACAD_REACTORS
330
8017
102
}
330
8017
100
AcDbXrecord
 90
        0
  0
XRECORD
  5
8021
102
{ACAD_REACTORS
330
8017
102
}
330
8017
100
AcDbXrecord
 90
        0
  0
XRECORD
  5
8022
102
{ACAD_REACTORS
330
8017
102
}
330
8017
100
AcDbXrecord
  1
{E41105DB-D30E-11D3-932C-444553540000}
  0
XRECORD
  5
8023
102
{ACAD_REACTORS
330
8017
102
}
330
8017
100
AcDbXrecord
  1
{0A94A34D-563D-44F4-99AF-E01B00AE2CFC}
  0
XRECORD
  5
8024
102
{ACAD_REACTORS
330
8017
102
}
330
8017
100
AcDbXrecord
 40
0.0
  0
XRECORD
  5
8025
102
{ACAD_REACTORS
330
8017
102
}
330
8017
100
AcDbXrecord
1000
DSTYLE
1002
{
1070
   341
340
6D
1070
   343
340
6D
1070
   344
340
6D
1070
   371
 70
    -1
1070
   372
 70
    -1
1002
}
  0
XRECORD
  5
8026
102
{ACAD_REACTORS
330
8017
102
}
330
8017
100
AcDbXrecord
340
0
  0
XRECORD
  5
8027
102
{ACAD_REACTORS
330
8017
102
}
330
8017
100
AcDbXrecord
 70
     0
  0
XRECORD
  5
8028
102
{ACAD_REACTORS
330
8017
102
}
330
8017
100
AcDbXrecord
340
0
  0
XRECORD
  5
8029
102
{ACAD_REACTORS
330
8017
102
}
330
8017
100
AcDbXrecord
 10
0.0
 20
0.0
 30
0.0
  0
XRECORD
  5
802A
102
{ACAD_REACTORS
330
8017
102
}
330
8017
100
AcDbXrecord
 10
0.0
 20
0.0
 30
0.0
  0
XRECORD
  5
802B
102
{ACAD_REACTORS
330
8017
102
}
330
8017
100
AcDbXrecord
 10
0.0
 20
0.0
 30
0.0
  0
XRECORD
  5
802C
102
{ACAD_REACTORS
330
8017
102
}
330
8017
100
AcDbXrecord
 10
0.0
 20
0.0
 30
0.0
  0
XRECORD
  5
802D
102
{ACAD_REACTORS
330
8017
102
}
330
8017
100
AcDbXrecord
 10
0.0
 20
0.0
 30
0.0
  0
XRECORD
  5
802E
102
{ACAD_REACTORS
330
8017
102
}
330
8017
100
AcDbXrecord
 10
0.0
 20
0.0
 30
0.0
  0
XRECORD
  5
802F
102
{ACAD_REACTORS
330
8017
102
}
330
8017
100
AcDbXrecord
340
0
  0
XRECORD
  5
8030
102
{ACAD_REACTORS
330
8017
102
}
330
8017
100
AcDbXrecord
 70
     0
  0
XRECORD
  5
8031
102
{ACAD_REACTORS
330
8017
102
}
330
8017
100
AcDbXrecord
340
0
  0
XRECORD
  5
8032
102
{ACAD_REACTORS
330
8017
102
}
330
8017
100
AcDbXrecord
 10
0.0
 20
0.0
 30
0.0
  0
XRECORD
  5
8033
102
{ACAD_REACTORS
330
8017
102
}
330
8017
100
AcDbXrecord
 10
0.0
 20
0.0
 30
0.0
  0
XRECORD
  5
8034
102
{ACAD_REACTORS
330
8017
102
}
330
8017
100
AcDbXrecord
 10
0.0
 20
0.0
 30
0.0
  0
XRECORD
  5
8035
102
{ACAD_REACTORS
330
8017
102
}
330
8017
100
AcDbXrecord
 10
0.0
 20
0.0
 30
0.0
  0
XRECORD
  5
8036
102
{ACAD_REACTORS
330
8017
102
}
330
8017
100
AcDbXrecord
 10
0.0
 20
0.0
 30
0.0
  0
XRECORD
  5
8037
102
{ACAD_REACTORS
330
8017
102
}
330
8017
100
AcDbXrecord
 10
0.0
 20
0.0
 30
0.0
  0
ENDSEC
  0
EOF
