  0
SECTION
  2
HEADER
  9
$ACADVER
  1
AC1015
  9
$ACADMAINTVER
 70
     6
  9
$DWGCODEPAGE
  3
ANSI_932
  9
$INSBASE
 10
0.0
 20
0.0
 30
0.0
  9
$EXTMIN
 10
-0.0000004828989404
 20
-0.0000000386436341
 30
0.0
  9
$EXTMAX
 10
398.7999995171011
 20
275.7999999613564
 30
0.0
  9
$LIMMIN
 10
0.0
 20
0.0
  9
$LIMMAX
 10
420.0
 20
297.0
  9
$ORTHOMODE
 70
     1
  9
$REGENMODE
 70
     1
  9
$FILLMODE
 70
     1
  9
$QTEXTMODE
 70
     0
  9
$MIRRTEXT
 70
     1
  9
$LTSCALE
 40
1.0
  9
$ATTMODE
 70
     1
  9
$TEXTSIZE
 40
2.5
  9
$TRACEWID
 40
1.0
  9
$TEXTSTYLE
  7
STANDARD
  9
$CLAYER
  8
SUNPOU
  9
$CELTYPE
  6
BYLAYER
  9
$CECOLOR
 62
   256
  9
$CELTSCALE
 40
1.0
  9
$DISPSILH
 70
     0
  9
$DIMSCALE
 40
1.0
  9
$DIMASZ
 40
3.0
  9
$DIMEXO
 40
3.0
  9
$DIMDLI
 40
7.0
  9
$DIMRND
 40
0.0
  9
$DIMDLE
 40
0.0
  9
$DIMEXE
 40
1.5
  9
$DIMTP
 40
0.0
  9
$DIMTM
 40
0.0
  9
$DIMTXT
 40
3.0
  9
$DIMCEN
 40
150.0
  9
$DIMTSZ
 40
0.0
  9
$DIMTOL
 70
     0
  9
$DIMLIM
 70
     0
  9
$DIMTIH
 70
     0
  9
$DIMTOH
 70
     0
  9
$DIMSE1
 70
     0
  9
$DIMSE2
 70
     0
  9
$DIMTAD
 70
     3
  9
$DIMZIN
 70
     0
  9
$DIMBLK
  1

  9
$DIMASO
 70
     1
  9
$DIMSHO
 70
     1
  9
$DIMPOST
  1

  9
$DIMAPOST
  1

  9
$DIMALT
 70
     0
  9
$DIMALTD
 70
     2
  9
$DIMALTF
 40
25.4
  9
$DIMLFAC
 40
1.0
  9
$DIMTOFL
 70
     1
  9
$DIMTVP
 40
0.0
  9
$DIMTIX
 70
     0
  9
$DIMSOXD
 70
     0
  9
$DIMSAH
 70
     1
  9
$DIMBLK1
  1
OPEN
  9
$DIMBLK2
  1
OPEN
  9
$DIMSTYLE
  2
STANDARD
  9
$DIMCLRD
 70
   256
  9
$DIMCLRE
 70
   256
  9
$DIMCLRT
 70
   256
  9
$DIMTFAC
 40
1.0
  9
$DIMGAP
 40
1.0
  9
$DIMJUST
 70
     0
  9
$DIMSD1
 70
     0
  9
$DIMSD2
 70
     0
  9
$DIMTOLJ
 70
     1
  9
$DIMTZIN
 70
     0
  9
$DIMALTZ
 70
     0
  9
$DIMALTTZ
 70
     0
  9
$DIMUPT
 70
     1
  9
$DIMDEC
 70
     0
  9
$DIMTDEC
 70
     0
  9
$DIMALTU
 70
     2
  9
$DIMALTTD
 70
     2
  9
$DIMTXSTY
  7
STANDARD
  9
$DIMAUNIT
 70
     0
  9
$DIMADEC
 70
     0
  9
$DIMALTRND
 40
0.0
  9
$DIMAZIN
 70
     0
  9
$DIMDSEP
 70
    46
  9
$DIMATFIT
 70
     3
  9
$DIMFRAC
 70
     0
  9
$DIMLDRBLK
  1
OPEN
  9
$DIMLUNIT
 70
     2
  9
$DIMLWD
 70
    -1
  9
$DIMLWE
 70
    -1
  9
$DIMTMOVE
 70
     0
  9
$LUNITS
 70
     2
  9
$LUPREC
 70
     4
  9
$SKETCHINC
 40
1.0
  9
$FILLETRAD
 40
0.6
  9
$AUNITS
 70
     0
  9
$AUPREC
 70
     0
  9
$MENU
  1
.
  9
$ELEVATION
 40
0.0
  9
$PELEVATION
 40
0.0
  9
$THICKNESS
 40
0.0
  9
$LIMCHECK
 70
     0
  9
$CHAMFERA
 40
10.0
  9
$CHAMFERB
 40
10.0
  9
$CHAMFERC
 40
20.0
  9
$CHAMFERD
 40
0.0
  9
$SKPOLY
 70
     0
  9
$TDCREATE
 40
2451100.394552546
  9
$TDUCREATE
 40
2451100.019552546
  9
$TDUPDATE
 40
2455609.40445603
  9
$TDUUPDATE
 40
2455609.02945603
  9
$TDINDWG
 40
0.1094729051
  9
$TDUSRTIMER
 40
0.1094729051
  9
$USRTIMER
 70
     1
  9
$ANGBASE
 50
0.0
  9
$ANGDIR
 70
     0
  9
$PDMODE
 70
     0
  9
$PDSIZE
 40
0.0
  9
$PLINEWID
 40
0.0
  9
$SPLFRAME
 70
     0
  9
$SPLINETYPE
 70
     6
  9
$SPLINESEGS
 70
     8
  9
$HANDSEED
  5
3C6B
  9
$SURFTAB1
 70
     6
  9
$SURFTAB2
 70
     6
  9
$SURFTYPE
 70
     6
  9
$SURFU
 70
     6
  9
$SURFV
 70
     6
  9
$UCSBASE
  2

  9
$UCSNAME
  2

  9
$UCSORG
 10
0.0
 20
0.0
 30
0.0
  9
$UCSXDIR
 10
1.0
 20
0.0
 30
0.0
  9
$UCSYDIR
 10
0.0
 20
1.0
 30
0.0
  9
$UCSORTHOREF
  2

  9
$UCSORTHOVIEW
 70
     0
  9
$UCSORGTOP
 10
0.0
 20
0.0
 30
0.0
  9
$UCSORGBOTTOM
 10
0.0
 20
0.0
 30
0.0
  9
$UCSORGLEFT
 10
0.0
 20
0.0
 30
0.0
  9
$UCSORGRIGHT
 10
0.0
 20
0.0
 30
0.0
  9
$UCSORGFRONT
 10
0.0
 20
0.0
 30
0.0
  9
$UCSORGBACK
 10
0.0
 20
0.0
 30
0.0
  9
$PUCSBASE
  2

  9
$PUCSNAME
  2

  9
$PUCSORG
 10
0.0
 20
0.0
 30
0.0
  9
$PUCSXDIR
 10
1.0
 20
0.0
 30
0.0
  9
$PUCSYDIR
 10
0.0
 20
1.0
 30
0.0
  9
$PUCSORTHOREF
  2

  9
$PUCSORTHOVIEW
 70
     0
  9
$PUCSORGTOP
 10
0.0
 20
0.0
 30
0.0
  9
$PUCSORGBOTTOM
 10
0.0
 20
0.0
 30
0.0
  9
$PUCSORGLEFT
 10
0.0
 20
0.0
 30
0.0
  9
$PUCSORGRIGHT
 10
0.0
 20
0.0
 30
0.0
  9
$PUCSORGFRONT
 10
0.0
 20
0.0
 30
0.0
  9
$PUCSORGBACK
 10
0.0
 20
0.0
 30
0.0
  9
$USERI1
 70
     0
  9
$USERI2
 70
     0
  9
$USERI3
 70
     0
  9
$USERI4
 70
     0
  9
$USERI5
 70
     0
  9
$USERR1
 40
0.0
  9
$USERR2
 40
0.0
  9
$USERR3
 40
0.0
  9
$USERR4
 40
0.0
  9
$USERR5
 40
0.0
  9
$WORLDVIEW
 70
     1
  9
$SHADEDGE
 70
     3
  9
$SHADEDIF
 70
    70
  9
$TILEMODE
 70
     1
  9
$MAXACTVP
 70
    16
  9
$PINSBASE
 10
0.0
 20
0.0
 30
0.0
  9
$PLIMCHECK
 70
     0
  9
$PEXTMIN
 10
0.0
 20
0.0
 30
0.0
  9
$PEXTMAX
 10
420.0
 20
297.0
 30
0.0
  9
$PLIMMIN
 10
0.0
 20
0.0
  9
$PLIMMAX
 10
420.0
 20
297.0
  9
$UNITMODE
 70
     0
  9
$VISRETAIN
 70
     0
  9
$PLINEGEN
 70
     0
  9
$PSLTSCALE
 70
     1
  9
$TREEDEPTH
 70
  3020
  9
$CMLSTYLE
  2
STANDARD
  9
$CMLJUST
 70
     0
  9
$CMLSCALE
 40
1.0
  9
$PROXYGRAPHICS
 70
     1
  9
$MEASUREMENT
 70
     1
  9
$CELWEIGHT
370
    -1
  9
$ENDCAPS
280
     0
  9
$JOINSTYLE
280
     0
  9
$LWDISPLAY
290
     0
  9
$INSUNITS
 70
     0
  9
$HYPERLINKBASE
  1

  9
$STYLESHEET
  1
print.ctb
  9
$XEDIT
290
     1
  9
$CEPSNTYPE
380
     0
  9
$PSTYLEMODE
290
     1
  9
$FINGERPRINTGUID
  2
{137E7082-72B8-11D5-AA3E-50A453C10000}
  9
$VERSIONGUID
  2
{5F176D16-8B0B-46B4-ADE7-E2A7636726F4}
  9
$EXTNAMES
290
     1
  9
$PSVPSCALE
 40
0.0
  9
$OLESTARTUP
290
     0
  0
ENDSEC
  0
SECTION
  2
CLASSES
  0
CLASS
  1
ACDBDICTIONARYWDFLT
  2
AcDbDictionaryWithDefault
  3
ObjectDBX Classes
 90
        0
280
     0
281
     0
  0
CLASS
  1
ACDBPLACEHOLDER
  2
AcDbPlaceHolder
  3
ObjectDBX Classes
 90
        0
280
     0
281
     0
  0
CLASS
  1
LAYOUT
  2
AcDbLayout
  3
ObjectDBX Classes
 90
        0
280
     0
281
     0
  0
CLASS
  1
DUMMY
  2
AcDbLongTransaction
  3
DUMMY
 90
        0
280
     0
281
     0
  0
CLASS
  1
LWPOLYLINE
  2
AcDbPolyline
  3
AutoCAD 2000
 90
        0
280
     0
281
     1
  0
CLASS
  1
HATCH
  2
AcDbHatch
  3
AutoCAD 2000
 90
        0
280
     0
281
     1
  0
CLASS
  1
XRECORD
  2
AcDbXrecord
  3
AutoCAD 2000
 90
        0
280
     0
281
     0
  0
CLASS
  1
DUMMY
  2
AcDbLongTransaction
  3
DUMMY
 90
        0
280
     0
281
     0
  0
CLASS
  1
LWPOLYLINE
  2
AcDbPolyline
  3
AutoCAD 2000
 90
        0
280
     0
281
     1
  0
CLASS
  1
HATCH
  2
AcDbHatch
  3
AutoCAD 2000
 90
        0
280
     0
281
     1
  0
CLASS
  1
XRECORD
  2
AcDbXrecord
  3
AutoCAD 2000
 90
        0
280
     0
281
     0
  0
CLASS
  1
DUMMY
  2
AcDbLongTransaction
  3
DUMMY
 90
        0
280
     0
281
     0
  0
CLASS
  1
LWPOLYLINE
  2
AcDbPolyline
  3
AutoCAD 2000
 90
        0
280
     0
281
     1
  0
CLASS
  1
HATCH
  2
AcDbHatch
  3
AutoCAD 2000
 90
        0
280
     0
281
     1
  0
CLASS
  1
XRECORD
  2
AcDbXrecord
  3
AutoCAD 2000
 90
        0
280
     0
281
     0
  0
CLASS
  1
DUMMY
  2
AcDbLongTransaction
  3
DUMMY
 90
        0
280
     0
281
     0
  0
CLASS
  1
LWPOLYLINE
  2
AcDbPolyline
  3
AutoCAD 2000
 90
        0
280
     0
281
     1
  0
CLASS
  1
HATCH
  2
AcDbHatch
  3
AutoCAD 2000
 90
        0
280
     0
281
     1
  0
CLASS
  1
XRECORD
  2
AcDbXrecord
  3
AutoCAD 2000
 90
        0
280
     0
281
     0
  0
ENDSEC
  0
SECTION
  2
TABLES
  0
TABLE
  2
VPORT
  5
8
330
0
100
AcDbSymbolTable
 70
     2
  0
VPORT
  5
3C6A
330
8
100
AcDbSymbolTableRecord
100
AcDbViewportTableRecord
  2
*Active
 70
     0
 10
0.0
 20
0.0
 11
1.0
 21
1.0
 12
207.2214526828674
 22
142.6109616070742
 13
0.0
 23
0.0
 14
5.0
 24
5.0
 15
0.0
 25
0.0
 16
0.0
 26
0.0
 36
1.0
 17
0.0
 27
0.0
 37
0.0
 40
318.9217131972309
 41
1.651537335285505
 42
50.0
 43
0.0
 44
0.0
 50
0.0
 51
0.0
 71
     0
 72
   100
 73
     1
 74
     0
 75
     0
 76
     0
 77
     0
 78
     0
281
     0
 65
     1
110
0.0
120
0.0
130
0.0
111
1.0
121
0.0
131
0.0
112
0.0
122
1.0
132
0.0
 79
     0
146
0.0
  0
ENDTAB
  0
TABLE
  2
LTYPE
  5
5
330
0
100
AcDbSymbolTable
 70
     3
  0
LTYPE
  5
14
330
5
100
AcDbSymbolTableRecord
100
AcDbLinetypeTableRecord
  2
BYBLOCK
 70
     0
  3

 72
    65
 73
     0
 40
0.0
  0
LTYPE
  5
15
330
5
100
AcDbSymbolTableRecord
100
AcDbLinetypeTableRecord
  2
BYLAYER
 70
     0
  3

 72
    65
 73
     0
 40
0.0
  0
LTYPE
  5
16
330
5
100
AcDbSymbolTableRecord
100
AcDbLinetypeTableRecord
  2
CONTINUOUS
 70
     0
  3
Solid line
 72
    65
 73
     0
 40
0.0
  0
LTYPE
  5
120
330
5
100
AcDbSymbolTableRecord
100
AcDbLinetypeTableRecord
  2
CENTER
 70
     0
  3
____ _ ____ _ ____ _ ____ _ ____ _ ____ _ ____ 
 72
    65
 73
     4
 40
2.0
 49
1.25
 74
     0
 49
-0.25
 74
     0
 49
0.25
 74
     0
 49
-0.25
 74
     0
  0
LTYPE
  5
3812
330
5
100
AcDbSymbolTableRecord
100
AcDbLinetypeTableRecord
  2
PHANTOM
 70
     0
  3
______  __  __  ______  __  __  ______  __  __ 
 72
    65
 73
     6
 40
2.5
 49
1.25
 74
     0
 49
-0.25
 74
     0
 49
0.25
 74
     0
 49
-0.25
 74
     0
 49
0.25
 74
     0
 49
-0.25
 74
     0
  0
ENDTAB
  0
TABLE
  2
LAYER
  5
2
330
0
100
AcDbSymbolTable
 70
     8
  0
LAYER
  5
F
330
2
100
AcDbSymbolTableRecord
100
AcDbLayerTableRecord
  2
0
 70
     0
 62
     7
  6
CONTINUOUS
370
    -3
390
623
  0
LAYER
  5
62
330
2
100
AcDbSymbolTableRecord
100
AcDbLayerTableRecord
  2
VIEWPORT
 70
     0
 62
     7
  6
CONTINUOUS
370
    -3
390
623
  0
LAYER
  5
6B
330
2
100
AcDbSymbolTableRecord
100
AcDbLayerTableRecord
  2
ZUWAKU
 70
     0
 62
     7
  6
CONTINUOUS
370
    -3
390
623
  0
LAYER
  5
1F2
330
2
100
AcDbSymbolTableRecord
100
AcDbLayerTableRecord
  2
SEIHIN
 70
     0
 62
     3
  6
CONTINUOUS
370
    -3
390
623
  0
LAYER
  5
1F3
330
2
100
AcDbSymbolTableRecord
100
AcDbLayerTableRecord
  2
SUNPOU
 70
     0
 62
     4
  6
CONTINUOUS
370
    -3
390
623
  0
LAYER
  5
1F4
330
2
100
AcDbSymbolTableRecord
100
AcDbLayerTableRecord
  2
CENTER L
 70
     0
 62
     1
  6
CENTER
370
    -3
390
623
  0
LAYER
  5
1F5
330
2
100
AcDbSymbolTableRecord
100
AcDbLayerTableRecord
  2
DEFPOINTS
 70
     0
 62
     7
  6
CONTINUOUS
290
     0
370
    -3
390
623
  0
LAYER
  5
A03
330
2
100
AcDbSymbolTableRecord
100
AcDbLayerTableRecord
  2
moji
 70
     0
 62
     2
  6
CONTINUOUS
370
    -3
390
623
  0
ENDTAB
  0
TABLE
  2
STYLE
  5
3
330
0
100
AcDbSymbolTable
 70
     2
  0
STYLE
  5
10
330
3
100
AcDbSymbolTableRecord
100
AcDbTextStyleTableRecord
  2
STANDARD
 70
     0
 40
0.0
 41
1.0
 50
0.0
 71
     0
 42
2.5
  3
TXT
  4
bigfont.shx
  0
STYLE
  5
A04
330
3
100
AcDbSymbolTableRecord
100
AcDbTextStyleTableRecord
  2
ｽﾀｲﾙ1
 70
     0
 40
0.0
 41
1.0
 50
0.0
 71
     0
 42
2.5
  3
MS PGothic.ttf
  4

1001
ACAD
1000
MS PGothic
1071
    32818
  0
ENDTAB
  0
TABLE
  2
VIEW
  5
6
330
0
100
AcDbSymbolTable
 70
     0
  0
ENDTAB
  0
TABLE
  2
UCS
  5
7
330
0
100
AcDbSymbolTable
 70
     0
  0
ENDTAB
  0
TABLE
  2
APPID
  5
9
330
0
100
AcDbSymbolTable
 70
     1
  0
APPID
  5
11
330
9
100
AcDbSymbolTableRecord
100
AcDbRegAppTableRecord
  2
ACAD
 70
     0
  0
ENDTAB
  0
TABLE
  2
DIMSTYLE
  5
A
330
0
100
AcDbSymbolTable
 70
     1
100
AcDbDimStyleTable
  0
DIMSTYLE
105
1D
102
{ACAD_REACTORS
330
399C
330
399D
330
399E
330
399F
330
39A0
330
39A1
330
39A2
330
3A28
330
3AB8
330
3AB9
330
3ABA
330
3AD3
330
3AD4
330
3AF1
330
3B1B
102
}
330
A
100
AcDbSymbolTableRecord
100
AcDbDimStyleTableRecord
  2
STANDARD
 70
     0
340
10
  0
ENDTAB
  0
TABLE
  2
BLOCK_RECORD
  5
1
330
0
100
AcDbSymbolTable
 70
    16
  0
BLOCK_RECORD
  5
1A
330
1
100
AcDbSymbolTableRecord
100
AcDbBlockTableRecord
  2
*MODEL_SPACE
340
626
  0
BLOCK_RECORD
  5
17
330
1
100
AcDbSymbolTableRecord
100
AcDbBlockTableRecord
  2
*PAPER_SPACE
340
627
  0
BLOCK_RECORD
  5
B2
330
1
100
AcDbSymbolTableRecord
100
AcDbBlockTableRecord
  2
_OPEN
340
0
102
{BLKREFS
331
3BDC
331
3BDD
331
3BE5
331
3BE6
331
3BEE
331
3BEF
331
3BF7
331
3BF8
331
3C00
331
3C01
331
3C09
331
3C0A
331
3C12
331
3C13
331
3C1B
331
3C1C
331
3C24
331
3C25
331
3C2D
331
3C2E
331
3C36
331
3C37
331
3C3F
331
3C40
331
3C4A
331
3C4B
331
3C55
331
3C56
331
3C5E
331
3C5F
102
}
  0
BLOCK_RECORD
  5
3B21
330
1
100
AcDbSymbolTableRecord
100
AcDbBlockTableRecord
  2
*D1
340
0
  0
BLOCK_RECORD
  5
3B2D
330
1
100
AcDbSymbolTableRecord
100
AcDbBlockTableRecord
  2
*D2
340
0
  0
BLOCK_RECORD
  5
3B39
330
1
100
AcDbSymbolTableRecord
100
AcDbBlockTableRecord
  2
*D3
340
0
  0
BLOCK_RECORD
  5
3B45
330
1
100
AcDbSymbolTableRecord
100
AcDbBlockTableRecord
  2
*D4
340
0
  0
BLOCK_RECORD
  5
3B51
330
1
100
AcDbSymbolTableRecord
100
AcDbBlockTableRecord
  2
*D5
340
0
  0
BLOCK_RECORD
  5
3B5D
330
1
100
AcDbSymbolTableRecord
100
AcDbBlockTableRecord
  2
*D6
340
0
  0
BLOCK_RECORD
  5
3B69
330
1
100
AcDbSymbolTableRecord
100
AcDbBlockTableRecord
  2
*D7
340
0
  0
BLOCK_RECORD
  5
3B75
330
1
100
AcDbSymbolTableRecord
100
AcDbBlockTableRecord
  2
*D8
340
0
  0
BLOCK_RECORD
  5
3B81
330
1
100
AcDbSymbolTableRecord
100
AcDbBlockTableRecord
  2
*D9
340
0
  0
BLOCK_RECORD
  5
3B8D
330
1
100
AcDbSymbolTableRecord
100
AcDbBlockTableRecord
  2
*D10
340
0
  0
BLOCK_RECORD
  5
3B99
330
1
100
AcDbSymbolTableRecord
100
AcDbBlockTableRecord
  2
*D11
340
0
  0
BLOCK_RECORD
  5
3BA5
330
1
100
AcDbSymbolTableRecord
100
AcDbBlockTableRecord
  2
*D12
340
0
  0
BLOCK_RECORD
  5
3BB1
330
1
100
AcDbSymbolTableRecord
100
AcDbBlockTableRecord
  2
*D13
340
0
  0
BLOCK_RECORD
  5
3BBF
330
1
100
AcDbSymbolTableRecord
100
AcDbBlockTableRecord
  2
*D14
340
0
  0
BLOCK_RECORD
  5
3BCD
330
1
100
AcDbSymbolTableRecord
100
AcDbBlockTableRecord
  2
*D15
340
0
  0
ENDTAB
  0
ENDSEC
  0
SECTION
  2
BLOCKS
  0
BLOCK
  5
1B
330
1A
100
AcDbEntity
  8
0
100
AcDbBlockBegin
  2
*MODEL_SPACE
 70
     0
 71
     0
 10
0.0
 20
0.0
 30
0.0
  3
*MODEL_SPACE
  1

  0
ENDBLK
  5
1C
330
1A
100
AcDbEntity
  8
0
100
AcDbBlockEnd
  0
BLOCK
  5
18
330
17
100
AcDbEntity
 67
     1
  8
0
100
AcDbBlockBegin
  2
*PAPER_SPACE
 70
     0
 71
     0
 10
0.0
 20
0.0
 30
0.0
  3
*PAPER_SPACE
  1

  0
ENDBLK
  5
19
330
17
100
AcDbEntity
 67
     1
  8
0
100
AcDbBlockEnd
  0
BLOCK
  5
B3
330
B2
100
AcDbEntity
  8
0
100
AcDbBlockBegin
  2
_OPEN
 70
     0
 71
     0
 10
0.0
 20
0.0
 30
0.0
  3
_OPEN
  1

  0
LINE
  5
B4
330
B2
100
AcDbEntity
  8
0
  6
ByBlock
 62
     0
100
AcDbLine
 10
-1.0
 20
0.1666666666666667
 30
0.0
 11
0.0
 21
0.0
 31
0.0
  0
LINE
  5
B5
330
B2
100
AcDbEntity
  8
0
  6
ByBlock
 62
     0
100
AcDbLine
 10
0.0
 20
0.0
 30
0.0
 11
-1.0
 21
-0.1666666666666667
 31
0.0
  0
LINE
  5
B6
330
B2
100
AcDbEntity
  8
0
  6
ByBlock
 62
     0
100
AcDbLine
 10
0.0
 20
0.0
 30
0.0
 11
-1.0
 21
0.0
 31
0.0
  0
ENDBLK
  5
B7
330
B2
100
AcDbEntity
  8
0
100
AcDbBlockEnd
  0
BLOCK
  5
3B2B
330
3B21
100
AcDbEntity
  8
0
100
AcDbBlockBegin
  2
*D1
 70
     1
 71
     0
 10
0.0
 20
0.0
 30
0.0
  3
*D1
  1

  0
LINE
  5
3BD9
330
3B21
100
AcDbEntity
  8
SUNPOU
370
    -2
100
AcDbLine
 10
200.3920785191558
 20
229.3373504521341
 30
0.0
 11
218.470634577614
 21
229.3373504521341
 31
0.0
  0
LINE
  5
3BDA
330
3B21
100
AcDbEntity
  8
SUNPOU
370
    -2
100
AcDbLine
 10
200.3920785191558
 20
178.0336234521341
 30
0.0
 11
218.470634577614
 21
178.0336234521341
 31
0.0
  0
LINE
  5
3BDB
330
3B21
100
AcDbEntity
  8
SUNPOU
370
    -2
100
AcDbLine
 10
216.970634577614
 20
226.3373504521341
 30
0.0
 11
216.970634577614
 21
181.0336234521341
 31
0.0
  0
INSERT
  5
3BDC
330
3B21
100
AcDbEntity
  8
SUNPOU
370
    -2
100
AcDbBlockReference
  2
_OPEN
 10
216.970634577614
 20
229.3373504521341
 30
0.0
 41
3.0
 42
3.0
 43
3.0
 50
90.0
  0
INSERT
  5
3BDD
330
3B21
100
AcDbEntity
  8
SUNPOU
370
    -2
100
AcDbBlockReference
  2
_OPEN
 10
216.970634577614
 20
178.0336234521341
 30
0.0
 41
3.0
 42
3.0
 43
3.0
 50
270.0
  0
MTEXT
  5
3BDE
330
3B21
100
AcDbEntity
  8
SUNPOU
100
AcDbMText
 10
214.4706345776139
 20
203.6854869521341
 30
0.0
 40
3.0
 41
0.0
 71
     5
 72
     1
  1
\A1;51
 11
6.123031769111886E-17
 21
1.0
 31
0.0
 73
     1
 44
1.0
  0
POINT
  5
3BDF
330
3B21
100
AcDbEntity
  8
DEFPOINTS
 62
     0
100
AcDbPoint
 10
197.3920785191558
 20
229.3373504521341
 30
0.0
  0
POINT
  5
3BE0
330
3B21
100
AcDbEntity
  8
DEFPOINTS
 62
     0
100
AcDbPoint
 10
197.3920785191558
 20
178.0336234521341
 30
0.0
  0
POINT
  5
3BE1
330
3B21
100
AcDbEntity
  8
DEFPOINTS
 62
     0
100
AcDbPoint
 10
216.970634577614
 20
178.0336234521341
 30
0.0
  0
ENDBLK
  5
3B2C
330
3B21
100
AcDbEntity
  8
0
100
AcDbBlockEnd
  0
BLOCK
  5
3B37
330
3B2D
100
AcDbEntity
  8
0
100
AcDbBlockBegin
  2
*D2
 70
     1
 71
     0
 10
0.0
 20
0.0
 30
0.0
  3
*D2
  1

  0
LINE
  5
3BE2
330
3B2D
100
AcDbEntity
  8
SUNPOU
370
    -2
100
AcDbLine
 10
197.3917685191559
 20
122.5590495020553
 30
0.0
 11
197.3917685191559
 21
147.8685186567851
 31
0.0
  0
LINE
  5
3BE3
330
3B2D
100
AcDbEntity
  8
SUNPOU
370
    -2
100
AcDbLine
 10
232.3917685191559
 20
124.7804825020551
 30
0.0
 11
232.3917685191559
 21
147.8685186567851
 31
0.0
  0
LINE
  5
3BE4
330
3B2D
100
AcDbEntity
  8
SUNPOU
370
    -2
100
AcDbLine
 10
200.3917685191559
 20
146.3685186567851
 30
0.0
 11
229.3917685191559
 21
146.3685186567851
 31
0.0
  0
INSERT
  5
3BE5
330
3B2D
100
AcDbEntity
  8
SUNPOU
370
    -2
100
AcDbBlockReference
  2
_OPEN
 10
197.3917685191559
 20
146.3685186567851
 30
0.0
 41
3.0
 42
3.0
 43
3.0
 50
180.0
  0
INSERT
  5
3BE6
330
3B2D
100
AcDbEntity
  8
SUNPOU
370
    -2
100
AcDbBlockReference
  2
_OPEN
 10
232.3917685191559
 20
146.3685186567851
 30
0.0
 41
3.0
 42
3.0
 43
3.0
  0
MTEXT
  5
3BE7
330
3B2D
100
AcDbEntity
  8
SUNPOU
100
AcDbMText
 10
214.8917685191559
 20
148.8685186567851
 30
0.0
 40
3.0
 41
0.0
 71
     5
 72
     1
  1
\A1;35
 73
     1
 44
1.0
  0
POINT
  5
3BE8
330
3B2D
100
AcDbEntity
  8
DEFPOINTS
 62
     0
100
AcDbPoint
 10
197.3917685191559
 20
119.5590495020553
 30
0.0
  0
POINT
  5
3BE9
330
3B2D
100
AcDbEntity
  8
DEFPOINTS
 62
     0
100
AcDbPoint
 10
232.3917685191559
 20
121.7804825020551
 30
0.0
  0
POINT
  5
3BEA
330
3B2D
100
AcDbEntity
  8
DEFPOINTS
 62
     0
100
AcDbPoint
 10
232.3917685191559
 20
146.3685186567851
 30
0.0
  0
ENDBLK
  5
3B38
330
3B2D
100
AcDbEntity
  8
0
100
AcDbBlockEnd
  0
BLOCK
  5
3B43
330
3B39
100
AcDbEntity
  8
0
100
AcDbBlockBegin
  2
*D3
 70
     1
 71
     0
 10
0.0
 20
0.0
 30
0.0
  3
*D3
  1

  0
LINE
  5
3BEB
330
3B39
100
AcDbEntity
  8
SUNPOU
370
    -2
100
AcDbLine
 10
192.3552575191559
 20
127.4242955020553
 30
0.0
 11
218.5494927320888
 21
127.4242955020553
 31
0.0
  0
LINE
  5
3BEC
330
3B39
100
AcDbEntity
  8
SUNPOU
370
    -2
100
AcDbLine
 10
200.3917685191559
 20
83.5590495020553
 30
0.0
 11
218.5494927320888
 21
83.5590495020553
 31
0.0
  0
LINE
  5
3BED
330
3B39
100
AcDbEntity
  8
SUNPOU
370
    -2
100
AcDbLine
 10
217.0494927320888
 20
124.4242955020553
 30
0.0
 11
217.0494927320888
 21
86.5590495020553
 31
0.0
  0
INSERT
  5
3BEE
330
3B39
100
AcDbEntity
  8
SUNPOU
370
    -2
100
AcDbBlockReference
  2
_OPEN
 10
217.0494927320888
 20
127.4242955020553
 30
0.0
 41
3.0
 42
3.0
 43
3.0
 50
90.0
  0
INSERT
  5
3BEF
330
3B39
100
AcDbEntity
  8
SUNPOU
370
    -2
100
AcDbBlockReference
  2
_OPEN
 10
217.0494927320888
 20
83.5590495020553
 30
0.0
 41
3.0
 42
3.0
 43
3.0
 50
270.0
  0
MTEXT
  5
3BF0
330
3B39
100
AcDbEntity
  8
SUNPOU
100
AcDbMText
 10
214.5494927320887
 20
105.4916725020553
 30
0.0
 40
3.0
 41
0.0
 71
     5
 72
     1
  1
\A1;44
 11
6.123031769111886E-17
 21
1.0
 31
0.0
 73
     1
 44
1.0
  0
POINT
  5
3BF1
330
3B39
100
AcDbEntity
  8
DEFPOINTS
 62
     0
100
AcDbPoint
 10
189.3552575191559
 20
127.4242955020553
 30
0.0
  0
POINT
  5
3BF2
330
3B39
100
AcDbEntity
  8
DEFPOINTS
 62
     0
100
AcDbPoint
 10
197.3917685191559
 20
83.5590495020553
 30
0.0
  0
POINT
  5
3BF3
330
3B39
100
AcDbEntity
  8
DEFPOINTS
 62
     0
100
AcDbPoint
 10
217.0494927320888
 20
83.5590495020553
 30
0.0
  0
ENDBLK
  5
3B44
330
3B39
100
AcDbEntity
  8
0
100
AcDbBlockEnd
  0
BLOCK
  5
3B4F
330
3B45
100
AcDbEntity
  8
0
100
AcDbBlockBegin
  2
*D4
 70
     1
 71
     0
 10
0.0
 20
0.0
 30
0.0
  3
*D4
  1

  0
LINE
  5
3BF4
330
3B45
100
AcDbEntity
  8
SUNPOU
370
    -2
100
AcDbLine
 10
200.3917685191559
 20
119.5590495020553
 30
0.0
 11
209.3317950411015
 21
119.5590495020553
 31
0.0
  0
LINE
  5
3BF5
330
3B45
100
AcDbEntity
  8
SUNPOU
370
    -2
100
AcDbLine
 10
200.3917685191559
 20
83.5590495020553
 30
0.0
 11
209.3317950411015
 21
83.5590495020553
 31
0.0
  0
LINE
  5
3BF6
330
3B45
100
AcDbEntity
  8
SUNPOU
370
    -2
100
AcDbLine
 10
207.8317950411015
 20
116.5590495020553
 30
0.0
 11
207.8317950411015
 21
86.5590495020553
 31
0.0
  0
INSERT
  5
3BF7
330
3B45
100
AcDbEntity
  8
SUNPOU
370
    -2
100
AcDbBlockReference
  2
_OPEN
 10
207.8317950411015
 20
119.5590495020553
 30
0.0
 41
3.0
 42
3.0
 43
3.0
 50
90.0
  0
INSERT
  5
3BF8
330
3B45
100
AcDbEntity
  8
SUNPOU
370
    -2
100
AcDbBlockReference
  2
_OPEN
 10
207.8317950411015
 20
83.5590495020553
 30
0.0
 41
3.0
 42
3.0
 43
3.0
 50
270.0
  0
MTEXT
  5
3BF9
330
3B45
100
AcDbEntity
  8
SUNPOU
100
AcDbMText
 10
205.3317950411015
 20
101.5590495020553
 30
0.0
 40
3.0
 41
0.0
 71
     5
 72
     1
  1
\A1;36
 11
6.123031769111886E-17
 21
1.0
 31
0.0
 73
     1
 44
1.0
  0
POINT
  5
3BFA
330
3B45
100
AcDbEntity
  8
DEFPOINTS
 62
     0
100
AcDbPoint
 10
197.3917685191559
 20
119.5590495020553
 30
0.0
  0
POINT
  5
3BFB
330
3B45
100
AcDbEntity
  8
DEFPOINTS
 62
     0
100
AcDbPoint
 10
197.3917685191559
 20
83.5590495020553
 30
0.0
  0
POINT
  5
3BFC
330
3B45
100
AcDbEntity
  8
DEFPOINTS
 62
     0
100
AcDbPoint
 10
207.8317950411015
 20
83.5590495020553
 30
0.0
  0
ENDBLK
  5
3B50
330
3B45
100
AcDbEntity
  8
0
100
AcDbBlockEnd
  0
BLOCK
  5
3B5B
330
3B51
100
AcDbEntity
  8
0
100
AcDbBlockBegin
  2
*D5
 70
     1
 71
     0
 10
0.0
 20
0.0
 30
0.0
  3
*D5
  1

  0
LINE
  5
3BFD
330
3B51
100
AcDbEntity
  8
SUNPOU
370
    -2
100
AcDbLine
 10
197.3917685191559
 20
124.7804825020553
 30
0.0
 11
197.3917685191559
 21
147.4715752010342
 31
0.0
  0
LINE
  5
3BFE
330
3B51
100
AcDbEntity
  8
SUNPOU
370
    -2
100
AcDbLine
 10
65.93234168306751
 20
118.6097325678568
 30
0.0
 11
65.93234168306751
 21
147.4715752010342
 31
0.0
  0
LINE
  5
3BFF
330
3B51
100
AcDbEntity
  8
SUNPOU
370
    -2
100
AcDbLine
 10
194.3917685191559
 20
145.9715752010342
 30
0.0
 11
68.93234168306751
 21
145.9715752010342
 31
0.0
  0
INSERT
  5
3C00
330
3B51
100
AcDbEntity
  8
SUNPOU
370
    -2
100
AcDbBlockReference
  2
_OPEN
 10
197.3917685191559
 20
145.9715752010342
 30
0.0
 41
3.0
 42
3.0
 43
3.0
  0
INSERT
  5
3C01
330
3B51
100
AcDbEntity
  8
SUNPOU
370
    -2
100
AcDbBlockReference
  2
_OPEN
 10
65.93234168306751
 20
145.9715752010342
 30
0.0
 41
3.0
 42
3.0
 43
3.0
 50
180.0
  0
MTEXT
  5
3C02
330
3B51
100
AcDbEntity
  8
SUNPOU
100
AcDbMText
 10
131.6620551011117
 20
148.4715752010342
 30
0.0
 40
3.0
 41
0.0
 71
     5
 72
     1
  1
\A1;131
 73
     1
 44
1.0
  0
POINT
  5
3C03
330
3B51
100
AcDbEntity
  8
DEFPOINTS
 62
     0
100
AcDbPoint
 10
197.3917685191559
 20
121.7804825020553
 30
0.0
  0
POINT
  5
3C04
330
3B51
100
AcDbEntity
  8
DEFPOINTS
 62
     0
100
AcDbPoint
 10
65.93234168306751
 20
115.6097325678568
 30
0.0
  0
POINT
  5
3C05
330
3B51
100
AcDbEntity
  8
DEFPOINTS
 62
     0
100
AcDbPoint
 10
65.93234168306751
 20
145.9715752010342
 30
0.0
  0
ENDBLK
  5
3B5C
330
3B51
100
AcDbEntity
  8
0
100
AcDbBlockEnd
  0
BLOCK
  5
3B67
330
3B5D
100
AcDbEntity
  8
0
100
AcDbBlockBegin
  2
*D6
 70
     1
 71
     0
 10
0.0
 20
0.0
 30
0.0
  3
*D6
  1

  0
LINE
  5
3C06
330
3B5D
100
AcDbEntity
  8
SUNPOU
370
    -2
100
AcDbLine
 10
188.2709486986784
 20
94.51942747292961
 30
0.0
 11
188.2709486986784
 21
137.8655810326956
 31
0.0
  0
LINE
  5
3C07
330
3B5D
100
AcDbEntity
  8
SUNPOU
370
    -2
100
AcDbLine
 10
197.3917685191559
 20
122.5590495020553
 30
0.0
 11
197.3917685191559
 21
137.8655810326956
 31
0.0
  0
LINE
  5
3C08
330
3B5D
100
AcDbEntity
  8
SUNPOU
370
    -2
100
AcDbLine
 10
191.2709486986784
 20
136.3655810326956
 30
0.0
 11
194.3917685191559
 21
136.3655810326956
 31
0.0
  0
INSERT
  5
3C09
330
3B5D
100
AcDbEntity
  8
SUNPOU
370
    -2
100
AcDbBlockReference
  2
_OPEN
 10
188.2709486986784
 20
136.3655810326956
 30
0.0
 41
3.0
 42
3.0
 43
3.0
 50
180.0
  0
INSERT
  5
3C0A
330
3B5D
100
AcDbEntity
  8
SUNPOU
370
    -2
100
AcDbBlockReference
  2
_OPEN
 10
197.3917685191559
 20
136.3655810326956
 30
0.0
 41
3.0
 42
3.0
 43
3.0
  0
MTEXT
  5
3C0B
330
3B5D
100
AcDbEntity
  8
SUNPOU
100
AcDbMText
 10
192.8313586089172
 20
138.8655810326956
 30
0.0
 40
3.0
 41
0.0
 71
     5
 72
     1
  1
\A1;10
 73
     1
 44
1.0
  0
POINT
  5
3C0C
330
3B5D
100
AcDbEntity
  8
DEFPOINTS
 62
     0
100
AcDbPoint
 10
188.2709486986784
 20
91.51942747292961
 30
0.0
  0
POINT
  5
3C0D
330
3B5D
100
AcDbEntity
  8
DEFPOINTS
 62
     0
100
AcDbPoint
 10
197.3917685191559
 20
119.5590495020553
 30
0.0
  0
POINT
  5
3C0E
330
3B5D
100
AcDbEntity
  8
DEFPOINTS
 62
     0
100
AcDbPoint
 10
197.3917685191559
 20
136.3655810326956
 30
0.0
  0
ENDBLK
  5
3B68
330
3B5D
100
AcDbEntity
  8
0
100
AcDbBlockEnd
  0
BLOCK
  5
3B73
330
3B69
100
AcDbEntity
  8
0
100
AcDbBlockBegin
  2
*D7
 70
     1
 71
     0
 10
0.0
 20
0.0
 30
0.0
  3
*D7
  1

  0
LINE
  5
3C0F
330
3B69
100
AcDbEntity
  8
SUNPOU
370
    -2
100
AcDbLine
 10
63.50074451915589
 20
122.8319885020553
 30
0.0
 11
40.9962896565671
 21
122.8319885020553
 31
0.0
  0
LINE
  5
3C10
330
3B69
100
AcDbEntity
  8
SUNPOU
370
    -2
100
AcDbLine
 10
188.6917685191559
 20
83.5590495020553
 30
0.0
 11
40.99628965656711
 21
83.55904950205535
 31
0.0
  0
LINE
  5
3C11
330
3B69
100
AcDbEntity
  8
SUNPOU
370
    -2
100
AcDbLine
 10
42.4962896565671
 20
119.8319885020553
 30
0.0
 11
42.49628965656709
 21
86.55904950205535
 31
0.0
  0
INSERT
  5
3C12
330
3B69
100
AcDbEntity
  8
SUNPOU
370
    -2
100
AcDbBlockReference
  2
_OPEN
 10
42.4962896565671
 20
122.8319885020553
 30
0.0
 41
3.0
 42
3.0
 43
3.0
 50
90.0
  0
INSERT
  5
3C13
330
3B69
100
AcDbEntity
  8
SUNPOU
370
    -2
100
AcDbBlockReference
  2
_OPEN
 10
42.49628965656709
 20
83.55904950205535
 30
0.0
 41
3.0
 42
3.0
 43
3.0
 50
270.0
  0
MTEXT
  5
3C14
330
3B69
100
AcDbEntity
  8
SUNPOU
100
AcDbMText
 10
39.99628965656708
 20
103.1955190020553
 30
0.0
 40
3.0
 41
0.0
 71
     5
 72
     1
  1
\A1;39
 11
6.123031769111886E-17
 21
1.0
 31
0.0
 73
     1
 44
1.0
  0
POINT
  5
3C15
330
3B69
100
AcDbEntity
  8
DEFPOINTS
 62
     0
100
AcDbPoint
 10
66.50074451915589
 20
122.8319885020553
 30
0.0
  0
POINT
  5
3C16
330
3B69
100
AcDbEntity
  8
DEFPOINTS
 62
     0
100
AcDbPoint
 10
191.6917685191559
 20
83.5590495020553
 30
0.0
  0
POINT
  5
3C17
330
3B69
100
AcDbEntity
  8
DEFPOINTS
 62
     0
100
AcDbPoint
 10
42.49628965656709
 20
83.55904950205535
 30
0.0
  0
ENDBLK
  5
3B74
330
3B69
100
AcDbEntity
  8
0
100
AcDbBlockEnd
  0
BLOCK
  5
3B7F
330
3B75
100
AcDbEntity
  8
0
100
AcDbBlockBegin
  2
*D8
 70
     1
 71
     0
 10
0.0
 20
0.0
 30
0.0
  3
*D8
  1

  0
LINE
  5
3C18
330
3B75
100
AcDbEntity
  8
SUNPOU
370
    -2
100
AcDbLine
 10
63.50074451915589
 20
211.9352854521341
 30
0.0
 11
40.99628965656712
 21
211.9352854521341
 31
0.0
  0
LINE
  5
3C19
330
3B75
100
AcDbEntity
  8
SUNPOU
370
    -2
100
AcDbLine
 10
63.50074451915589
 20
195.4352854521341
 30
0.0
 11
40.99628965656711
 21
195.4352854521341
 31
0.0
  0
LINE
  5
3C1A
330
3B75
100
AcDbEntity
  8
SUNPOU
370
    -2
100
AcDbLine
 10
42.49628965656712
 20
208.9352854521341
 30
0.0
 11
42.49628965656711
 21
198.4352854521341
 31
0.0
  0
INSERT
  5
3C1B
330
3B75
100
AcDbEntity
  8
SUNPOU
370
    -2
100
AcDbBlockReference
  2
_OPEN
 10
42.49628965656712
 20
211.9352854521341
 30
0.0
 41
3.0
 42
3.0
 43
3.0
 50
90.0
  0
INSERT
  5
3C1C
330
3B75
100
AcDbEntity
  8
SUNPOU
370
    -2
100
AcDbBlockReference
  2
_OPEN
 10
42.49628965656711
 20
195.4352854521341
 30
0.0
 41
3.0
 42
3.0
 43
3.0
 50
270.0
  0
MTEXT
  5
3C1D
330
3B75
100
AcDbEntity
  8
SUNPOU
100
AcDbMText
 10
39.99628965656709
 20
203.6852854521341
 30
0.0
 40
3.0
 41
0.0
 71
     5
 72
     1
  1
\A1;17
 11
6.123031769111886E-17
 21
1.0
 31
0.0
 73
     1
 44
1.0
  0
POINT
  5
3C1E
330
3B75
100
AcDbEntity
  8
DEFPOINTS
 62
     0
100
AcDbPoint
 10
66.50074451915589
 20
211.9352854521341
 30
0.0
  0
POINT
  5
3C1F
330
3B75
100
AcDbEntity
  8
DEFPOINTS
 62
     0
100
AcDbPoint
 10
66.50074451915589
 20
195.4352854521341
 30
0.0
  0
POINT
  5
3C20
330
3B75
100
AcDbEntity
  8
DEFPOINTS
 62
     0
100
AcDbPoint
 10
42.49628965656711
 20
195.4352854521341
 30
0.0
  0
ENDBLK
  5
3B80
330
3B75
100
AcDbEntity
  8
0
100
AcDbBlockEnd
  0
BLOCK
  5
3B8B
330
3B81
100
AcDbEntity
  8
0
100
AcDbBlockBegin
  2
*D9
 70
     1
 71
     0
 10
0.0
 20
0.0
 30
0.0
  3
*D9
  1

  0
LINE
  5
3C21
330
3B81
100
AcDbEntity
  8
SUNPOU
370
    -2
100
AcDbLine
 10
345.1869175191557
 20
120.5590495020553
 30
0.0
 11
345.1869175191557
 21
153.5844828362043
 31
0.0
  0
LINE
  5
3C22
330
3B81
100
AcDbEntity
  8
SUNPOU
370
    -2
100
AcDbLine
 10
293.7869175191559
 20
120.5590495020553
 30
0.0
 11
293.7869175191559
 21
153.5844828362043
 31
0.0
  0
LINE
  5
3C23
330
3B81
100
AcDbEntity
  8
SUNPOU
370
    -2
100
AcDbLine
 10
342.1869175191557
 20
152.0844828362043
 30
0.0
 11
296.7869175191559
 21
152.0844828362043
 31
0.0
  0
INSERT
  5
3C24
330
3B81
100
AcDbEntity
  8
SUNPOU
370
    -2
100
AcDbBlockReference
  2
_OPEN
 10
345.1869175191557
 20
152.0844828362043
 30
0.0
 41
3.0
 42
3.0
 43
3.0
  0
INSERT
  5
3C25
330
3B81
100
AcDbEntity
  8
SUNPOU
370
    -2
100
AcDbBlockReference
  2
_OPEN
 10
293.7869175191559
 20
152.0844828362043
 30
0.0
 41
3.0
 42
3.0
 43
3.0
 50
180.0
  0
MTEXT
  5
3C26
330
3B81
100
AcDbEntity
  8
SUNPOU
100
AcDbMText
 10
319.4869175191558
 20
154.5844828362043
 30
0.0
 40
3.0
 41
0.0
 71
     5
 72
     1
  1
\A1;51
 73
     1
 44
1.0
  0
POINT
  5
3C27
330
3B81
100
AcDbEntity
  8
DEFPOINTS
 62
     0
100
AcDbPoint
 10
345.1869175191557
 20
117.5590495020553
 30
0.0
  0
POINT
  5
3C28
330
3B81
100
AcDbEntity
  8
DEFPOINTS
 62
     0
100
AcDbPoint
 10
293.7869175191559
 20
117.5590495020553
 30
0.0
  0
POINT
  5
3C29
330
3B81
100
AcDbEntity
  8
DEFPOINTS
 62
     0
100
AcDbPoint
 10
293.7869175191559
 20
152.0844828362043
 30
0.0
  0
ENDBLK
  5
3B8C
330
3B81
100
AcDbEntity
  8
0
100
AcDbBlockEnd
  0
BLOCK
  5
3B97
330
3B8D
100
AcDbEntity
  8
0
100
AcDbBlockBegin
  2
*D10
 70
     1
 71
     0
 10
0.0
 20
0.0
 30
0.0
  3
*D10
  1

  0
LINE
  5
3C2A
330
3B8D
100
AcDbEntity
  8
SUNPOU
370
    -2
100
AcDbLine
 10
299.2609865191557
 20
120.0590495020553
 30
0.0
 11
299.2609865191557
 21
145.4868666052543
 31
0.0
  0
LINE
  5
3C2B
330
3B8D
100
AcDbEntity
  8
SUNPOU
370
    -2
100
AcDbLine
 10
339.7128495191557
 20
120.0590495020553
 30
0.0
 11
339.7128495191557
 21
145.4868666052543
 31
0.0
  0
LINE
  5
3C2C
330
3B8D
100
AcDbEntity
  8
SUNPOU
370
    -2
100
AcDbLine
 10
302.2609865191557
 20
143.9868666052543
 30
0.0
 11
336.7128495191557
 21
143.9868666052543
 31
0.0
  0
INSERT
  5
3C2D
330
3B8D
100
AcDbEntity
  8
SUNPOU
370
    -2
100
AcDbBlockReference
  2
_OPEN
 10
299.2609865191557
 20
143.9868666052543
 30
0.0
 41
3.0
 42
3.0
 43
3.0
 50
180.0
  0
INSERT
  5
3C2E
330
3B8D
100
AcDbEntity
  8
SUNPOU
370
    -2
100
AcDbBlockReference
  2
_OPEN
 10
339.7128495191557
 20
143.9868666052543
 30
0.0
 41
3.0
 42
3.0
 43
3.0
  0
MTEXT
  5
3C2F
330
3B8D
100
AcDbEntity
  8
SUNPOU
100
AcDbMText
 10
319.4869180191557
 20
146.4868666052543
 30
0.0
 40
3.0
 41
0.0
 71
     5
 72
     1
  1
\A1;40
 73
     1
 44
1.0
  0
POINT
  5
3C30
330
3B8D
100
AcDbEntity
  8
DEFPOINTS
 62
     0
100
AcDbPoint
 10
299.2609865191557
 20
117.0590495020553
 30
0.0
  0
POINT
  5
3C31
330
3B8D
100
AcDbEntity
  8
DEFPOINTS
 62
     0
100
AcDbPoint
 10
339.7128495191557
 20
117.0590495020553
 30
0.0
  0
POINT
  5
3C32
330
3B8D
100
AcDbEntity
  8
DEFPOINTS
 62
     0
100
AcDbPoint
 10
339.7128495191557
 20
143.9868666052543
 30
0.0
  0
ENDBLK
  5
3B98
330
3B8D
100
AcDbEntity
  8
0
100
AcDbBlockEnd
  0
BLOCK
  5
3BA3
330
3B99
100
AcDbEntity
  8
0
100
AcDbBlockBegin
  2
*D11
 70
     1
 71
     0
 10
0.0
 20
0.0
 30
0.0
  3
*D11
  1

  0
LINE
  5
3C33
330
3B99
100
AcDbEntity
  8
SUNPOU
370
    -2
100
AcDbLine
 10
300.7869175191559
 20
113.5590495020553
 30
0.0
 11
300.7869175191559
 21
137.5165886877643
 31
0.0
  0
LINE
  5
3C34
330
3B99
100
AcDbEntity
  8
SUNPOU
370
    -2
100
AcDbLine
 10
338.1869175191557
 20
113.5590495020553
 30
0.0
 11
338.1869175191557
 21
137.5165886877643
 31
0.0
  0
LINE
  5
3C35
330
3B99
100
AcDbEntity
  8
SUNPOU
370
    -2
100
AcDbLine
 10
303.7869175191559
 20
136.0165886877643
 30
0.0
 11
335.1869175191557
 21
136.0165886877643
 31
0.0
  0
INSERT
  5
3C36
330
3B99
100
AcDbEntity
  8
SUNPOU
370
    -2
100
AcDbBlockReference
  2
_OPEN
 10
300.7869175191559
 20
136.0165886877643
 30
0.0
 41
3.0
 42
3.0
 43
3.0
 50
180.0
  0
INSERT
  5
3C37
330
3B99
100
AcDbEntity
  8
SUNPOU
370
    -2
100
AcDbBlockReference
  2
_OPEN
 10
338.1869175191557
 20
136.0165886877643
 30
0.0
 41
3.0
 42
3.0
 43
3.0
  0
MTEXT
  5
3C38
330
3B99
100
AcDbEntity
  8
SUNPOU
100
AcDbMText
 10
319.4869175191558
 20
138.5165886877643
 30
0.0
 40
3.0
 41
0.0
 71
     5
 72
     1
  1
\A1;37
 73
     1
 44
1.0
  0
POINT
  5
3C39
330
3B99
100
AcDbEntity
  8
DEFPOINTS
 62
     0
100
AcDbPoint
 10
300.7869175191559
 20
110.5590495020553
 30
0.0
  0
POINT
  5
3C3A
330
3B99
100
AcDbEntity
  8
DEFPOINTS
 62
     0
100
AcDbPoint
 10
338.1869175191557
 20
110.5590495020553
 30
0.0
  0
POINT
  5
3C3B
330
3B99
100
AcDbEntity
  8
DEFPOINTS
 62
     0
100
AcDbPoint
 10
338.1869175191557
 20
136.0165886877643
 30
0.0
  0
ENDBLK
  5
3BA4
330
3B99
100
AcDbEntity
  8
0
100
AcDbBlockEnd
  0
BLOCK
  5
3BAF
330
3BA5
100
AcDbEntity
  8
0
100
AcDbBlockBegin
  2
*D12
 70
     1
 71
     0
 10
0.0
 20
0.0
 30
0.0
  3
*D12
  1

  0
LINE
  5
3C3C
330
3BA5
100
AcDbEntity
  8
SUNPOU
370
    -2
100
AcDbLine
 10
292.7869175191559
 20
119.5590495020553
 30
0.0
 11
276.4727997823443
 21
119.5590495020553
 31
0.0
  0
LINE
  5
3C3D
330
3BA5
100
AcDbEntity
  8
SUNPOU
370
    -2
100
AcDbLine
 10
292.7869175191559
 20
83.5590495020553
 30
0.0
 11
276.4727997823443
 21
83.55904950205532
 31
0.0
  0
LINE
  5
3C3E
330
3BA5
100
AcDbEntity
  8
SUNPOU
370
    -2
100
AcDbLine
 10
277.9727997823443
 20
116.5590495020553
 30
0.0
 11
277.9727997823443
 21
86.55904950205532
 31
0.0
  0
INSERT
  5
3C3F
330
3BA5
100
AcDbEntity
  8
SUNPOU
370
    -2
100
AcDbBlockReference
  2
_OPEN
 10
277.9727997823443
 20
119.5590495020553
 30
0.0
 41
3.0
 42
3.0
 43
3.0
 50
90.0
  0
INSERT
  5
3C40
330
3BA5
100
AcDbEntity
  8
SUNPOU
370
    -2
100
AcDbBlockReference
  2
_OPEN
 10
277.9727997823443
 20
83.55904950205532
 30
0.0
 41
3.0
 42
3.0
 43
3.0
 50
270.0
  0
MTEXT
  5
3C41
330
3BA5
100
AcDbEntity
  8
SUNPOU
100
AcDbMText
 10
275.4727997823443
 20
101.5590495020554
 30
0.0
 40
3.0
 41
0.0
 71
     5
 72
     1
  1
\A1;36
 11
6.123031769111886E-17
 21
1.0
 31
0.0
 73
     1
 44
1.0
  0
POINT
  5
3C42
330
3BA5
100
AcDbEntity
  8
DEFPOINTS
 62
     0
100
AcDbPoint
 10
295.7869175191559
 20
119.5590495020553
 30
0.0
  0
POINT
  5
3C43
330
3BA5
100
AcDbEntity
  8
DEFPOINTS
 62
     0
100
AcDbPoint
 10
295.7869175191559
 20
83.5590495020553
 30
0.0
  0
POINT
  5
3C44
330
3BA5
100
AcDbEntity
  8
DEFPOINTS
 62
     0
100
AcDbPoint
 10
277.9727997823443
 20
83.55904950205532
 30
0.0
  0
ENDBLK
  5
3BB0
330
3BA5
100
AcDbEntity
  8
0
100
AcDbBlockEnd
  0
BLOCK
  5
3BBD
330
3BB1
100
AcDbEntity
  8
0
100
AcDbBlockBegin
  2
*D13
 70
     1
 71
     0
 10
0.0
 20
0.0
 30
0.0
  3
*D13
  1

  0
LINE
  5
3C45
330
3BB1
100
AcDbEntity
  8
SUNPOU
370
    -2
100
AcDbLine
 10
293.2609865191557
 20
89.0590495020553
 30
0.0
 11
286.6440512673344
 21
89.05904950205532
 31
0.0
  0
LINE
  5
3C46
330
3BB1
100
AcDbEntity
  8
SUNPOU
370
    -2
100
AcDbLine
 10
292.7869175191559
 20
83.5590495020553
 30
0.0
 11
286.6440512673344
 21
83.55904950205532
 31
0.0
  0
LINE
  5
3C47
330
3BB1
100
AcDbEntity
  8
SUNPOU
370
    -2
100
AcDbLine
 10
288.1440512673344
 20
92.0590495020553
 30
0.0
 11
288.1440512673344
 21
95.0590495020553
 31
0.0
  0
LINE
  5
3C48
330
3BB1
100
AcDbEntity
  8
SUNPOU
370
    -2
100
AcDbLine
 10
288.1440512673344
 20
80.5590495020553
 30
0.0
 11
288.1440512673344
 21
77.5590495020553
 31
0.0
  0
LINE
  5
3C49
330
3BB1
100
AcDbEntity
  8
SUNPOU
370
    -2
100
AcDbLine
 10
288.1440512673344
 20
89.0590495020553
 30
0.0
 11
288.1440512673344
 21
83.5590495020553
 31
0.0
  0
INSERT
  5
3C4A
330
3BB1
100
AcDbEntity
  8
SUNPOU
370
    -2
100
AcDbBlockReference
  2
_OPEN
 10
288.1440512673344
 20
89.0590495020553
 30
0.0
 41
3.0
 42
3.0
 43
3.0
 50
270.0
  0
INSERT
  5
3C4B
330
3BB1
100
AcDbEntity
  8
SUNPOU
370
    -2
100
AcDbBlockReference
  2
_OPEN
 10
288.1440512673344
 20
83.5590495020553
 30
0.0
 41
3.0
 42
3.0
 43
3.0
 50
90.0
  0
MTEXT
  5
3C4C
330
3BB1
100
AcDbEntity
  8
SUNPOU
100
AcDbMText
 10
285.6440512673344
 20
86.30904950205536
 30
0.0
 40
3.0
 41
0.0
 71
     5
 72
     1
  1
\A1;6
 11
6.123031769111886E-17
 21
1.0
 31
0.0
 73
     1
 44
1.0
  0
POINT
  5
3C4D
330
3BB1
100
AcDbEntity
  8
DEFPOINTS
 62
     0
100
AcDbPoint
 10
296.2609865191557
 20
89.0590495020553
 30
0.0
  0
POINT
  5
3C4E
330
3BB1
100
AcDbEntity
  8
DEFPOINTS
 62
     0
100
AcDbPoint
 10
295.7869175191559
 20
83.5590495020553
 30
0.0
  0
POINT
  5
3C4F
330
3BB1
100
AcDbEntity
  8
DEFPOINTS
 62
     0
100
AcDbPoint
 10
288.1440512673344
 20
83.5590495020553
 30
0.0
  0
ENDBLK
  5
3BBE
330
3BB1
100
AcDbEntity
  8
0
100
AcDbBlockEnd
  0
BLOCK
  5
3BCB
330
3BBF
100
AcDbEntity
  8
0
100
AcDbBlockBegin
  2
*D14
 70
     1
 71
     0
 10
0.0
 20
0.0
 30
0.0
  3
*D14
  1

  0
LINE
  5
3C50
330
3BBF
100
AcDbEntity
  8
SUNPOU
370
    -2
100
AcDbLine
 10
292.7869175191559
 20
119.5590495020553
 30
0.0
 11
286.6440512673344
 21
119.5590495020553
 31
0.0
  0
LINE
  5
3C51
330
3BBF
100
AcDbEntity
  8
SUNPOU
370
    -2
100
AcDbLine
 10
293.2609865191557
 20
114.0590495020553
 30
0.0
 11
286.6440512673344
 21
114.0590495020553
 31
0.0
  0
LINE
  5
3C52
330
3BBF
100
AcDbEntity
  8
SUNPOU
370
    -2
100
AcDbLine
 10
288.1440512673344
 20
122.5590495020553
 30
0.0
 11
288.1440512673344
 21
125.5590495020553
 31
0.0
  0
LINE
  5
3C53
330
3BBF
100
AcDbEntity
  8
SUNPOU
370
    -2
100
AcDbLine
 10
288.1440512673344
 20
111.0590495020553
 30
0.0
 11
288.1440512673344
 21
108.0590495020553
 31
0.0
  0
LINE
  5
3C54
330
3BBF
100
AcDbEntity
  8
SUNPOU
370
    -2
100
AcDbLine
 10
288.1440512673344
 20
119.5590495020553
 30
0.0
 11
288.1440512673344
 21
114.0590495020553
 31
0.0
  0
INSERT
  5
3C55
330
3BBF
100
AcDbEntity
  8
SUNPOU
370
    -2
100
AcDbBlockReference
  2
_OPEN
 10
288.1440512673344
 20
119.5590495020553
 30
0.0
 41
3.0
 42
3.0
 43
3.0
 50
270.0
  0
INSERT
  5
3C56
330
3BBF
100
AcDbEntity
  8
SUNPOU
370
    -2
100
AcDbBlockReference
  2
_OPEN
 10
288.1440512673344
 20
114.0590495020553
 30
0.0
 41
3.0
 42
3.0
 43
3.0
 50
90.0
  0
MTEXT
  5
3C57
330
3BBF
100
AcDbEntity
  8
SUNPOU
100
AcDbMText
 10
285.6440512673344
 20
116.8090495020554
 30
0.0
 40
3.0
 41
0.0
 71
     5
 72
     1
  1
\A1;6
 11
6.123031769111886E-17
 21
1.0
 31
0.0
 73
     1
 44
1.0
  0
POINT
  5
3C58
330
3BBF
100
AcDbEntity
  8
DEFPOINTS
 62
     0
100
AcDbPoint
 10
295.7869175191559
 20
119.5590495020553
 30
0.0
  0
POINT
  5
3C59
330
3BBF
100
AcDbEntity
  8
DEFPOINTS
 62
     0
100
AcDbPoint
 10
296.2609865191557
 20
114.0590495020553
 30
0.0
  0
POINT
  5
3C5A
330
3BBF
100
AcDbEntity
  8
DEFPOINTS
 62
     0
100
AcDbPoint
 10
288.1440512673344
 20
114.0590495020553
 30
0.0
  0
ENDBLK
  5
3BCC
330
3BBF
100
AcDbEntity
  8
0
100
AcDbBlockEnd
  0
BLOCK
  5
3BD7
330
3BCD
100
AcDbEntity
  8
0
100
AcDbBlockBegin
  2
*D15
 70
     1
 71
     0
 10
0.0
 20
0.0
 30
0.0
  3
*D15
  1

  0
LINE
  5
3C5B
330
3BCD
100
AcDbEntity
  8
SUNPOU
370
    -2
100
AcDbLine
 10
346.1869175191557
 20
119.5590495020553
 30
0.0
 11
356.2339675377534
 21
119.5590495020553
 31
0.0
  0
LINE
  5
3C5C
330
3BCD
100
AcDbEntity
  8
SUNPOU
370
    -2
100
AcDbLine
 10
346.1869175191557
 20
105.5590495020553
 30
0.0
 11
356.2339675377534
 21
105.5590495020553
 31
0.0
  0
LINE
  5
3C5D
330
3BCD
100
AcDbEntity
  8
SUNPOU
370
    -2
100
AcDbLine
 10
354.7339675377534
 20
116.5590495020553
 30
0.0
 11
354.7339675377534
 21
108.5590495020553
 31
0.0
  0
INSERT
  5
3C5E
330
3BCD
100
AcDbEntity
  8
SUNPOU
370
    -2
100
AcDbBlockReference
  2
_OPEN
 10
354.7339675377534
 20
119.5590495020553
 30
0.0
 41
3.0
 42
3.0
 43
3.0
 50
90.0
  0
INSERT
  5
3C5F
330
3BCD
100
AcDbEntity
  8
SUNPOU
370
    -2
100
AcDbBlockReference
  2
_OPEN
 10
354.7339675377534
 20
105.5590495020553
 30
0.0
 41
3.0
 42
3.0
 43
3.0
 50
270.0
  0
MTEXT
  5
3C60
330
3BCD
100
AcDbEntity
  8
SUNPOU
100
AcDbMText
 10
352.2339675377534
 20
112.5590495020553
 30
0.0
 40
3.0
 41
0.0
 71
     5
 72
     1
  1
\A1;14
 11
6.123031769111886E-17
 21
1.0
 31
0.0
 73
     1
 44
1.0
  0
POINT
  5
3C61
330
3BCD
100
AcDbEntity
  8
DEFPOINTS
 62
     0
100
AcDbPoint
 10
343.1869175191557
 20
119.5590495020553
 30
0.0
  0
POINT
  5
3C62
330
3BCD
100
AcDbEntity
  8
DEFPOINTS
 62
     0
100
AcDbPoint
 10
343.1869175191557
 20
105.5590495020553
 30
0.0
  0
POINT
  5
3C63
330
3BCD
100
AcDbEntity
  8
DEFPOINTS
 62
     0
100
AcDbPoint
 10
354.7339675377534
 20
105.5590495020553
 30
0.0
  0
ENDBLK
  5
3BD8
330
3BCD
100
AcDbEntity
  8
0
100
AcDbBlockEnd
  0
ENDSEC
  0
SECTION
  2
ENTITIES
  0
LWPOLYLINE
  5
ABF
330
1A
100
AcDbEntity
  8
ZUWAKU
100
AcDbPolyline
 90
        4
 70
     1
 43
0.0
 10
0.3999995171010369
 20
275.3999999613564
 10
0.3999995171010369
 20
0.3999999613564
 10
398.399999517101
 20
0.3999999613564
 10
398.399999517101
 20
275.3999999613564
  0
LWPOLYLINE
  5
AC0
330
1A
100
AcDbEntity
  8
ZUWAKU
100
AcDbPolyline
 90
        4
 70
     1
 43
0.0
 10
0.1999995171010482
 20
275.5999999613564
 10
0.1999995171010482
 20
0.1999999613564114
 10
398.5999995171011
 20
0.1999999613563999
 10
398.5999995171011
 20
275.5999999613564
  0
LWPOLYLINE
  5
AC1
330
1A
100
AcDbEntity
  8
ZUWAKU
100
AcDbPolyline
 90
        4
 70
     1
 43
0.0
 10
-0.0000004828989404
 20
275.7999999613564
 10
-0.0000004828989404
 20
-0.0000000386436341
 10
398.7999995171011
 20
-0.0000000386436003
 10
398.7999995171011
 20
275.7999999613564
  0
LWPOLYLINE
  5
AC2
330
1A
100
AcDbEntity
  8
ZUWAKU
100
AcDbPolyline
 90
        4
 70
     1
 43
0.0
 10
0.2999995171010141
 20
275.4999999613564
 10
0.2999995171010141
 20
0.2999999613563773
 10
398.4999995171012
 20
0.2999999613564004
 10
398.4999995171011
 20
275.4999999613564
  0
LWPOLYLINE
  5
AC3
330
1A
100
AcDbEntity
  8
ZUWAKU
100
AcDbPolyline
 90
        4
 70
     1
 43
0.0
 10
0.0999995171010255
 20
275.6999999613564
 10
0.0999995171010255
 20
0.0999999613563887
 10
398.699999517101
 20
0.0999999613564002
 10
398.6999995171011
 20
275.6999999613564
  0
LINE
  5
AC4
330
1A
100
AcDbEntity
  8
ZUWAKU
100
AcDbLine
 10
-0.0000004828989404
 20
14.99999996135637
 30
0.0
 11
398.699999517101
 21
14.99999996135637
 31
0.0
  0
LINE
  5
AC5
330
1A
100
AcDbEntity
  8
ZUWAKU
100
AcDbLine
 10
-0.0000004828989404
 20
15.09999996135637
 30
0.0
 11
398.699999517101
 21
15.09999996135637
 31
0.0
  0
LINE
  5
AC6
330
1A
100
AcDbEntity
  8
ZUWAKU
100
AcDbLine
 10
-0.0000004828989404
 20
15.19999996135637
 30
0.0
 11
398.699999517101
 21
15.19999996135637
 31
0.0
  0
LINE
  5
AC7
330
1A
100
AcDbEntity
  8
ZUWAKU
100
AcDbLine
 10
-0.0000004828989404
 20
15.29999996135637
 30
0.0
 11
398.699999517101
 21
15.29999996135637
 31
0.0
  0
LINE
  5
AC8
330
1A
100
AcDbEntity
  8
ZUWAKU
100
AcDbLine
 10
-0.0000004828989404
 20
15.39999996135637
 30
0.0
 11
398.699999517101
 21
15.39999996135637
 31
0.0
  0
LINE
  5
AC9
330
1A
100
AcDbEntity
  8
ZUWAKU
100
AcDbLine
 10
104.3233001621351
 20
7.699999961356383
 30
0.0
 11
223.7121815025968
 21
7.699999961356383
 31
0.0
  0
LINE
  5
ACA
330
1A
100
AcDbEntity
  8
ZUWAKU
100
AcDbLine
 10
104.3233001621351
 20
7.799999961356383
 30
0.0
 11
223.7121815025968
 21
7.799999961356386
 31
0.0
  0
LINE
  5
ACB
330
1A
100
AcDbEntity
  8
ZUWAKU
100
AcDbLine
 10
104.3233001621351
 20
7.599999961356385
 30
0.0
 11
223.7121815025968
 21
7.599999961356382
 31
0.0
  0
TEXT
  5
ACC
330
1A
100
AcDbEntity
  8
moji
100
AcDbText
 10
46.47889431118563
 20
6.370589026493747
 30
0.0
 40
3.0
  1
アーバントップΣ９０
 41
0.9
  7
ｽﾀｲﾙ1
100
AcDbText
  0
CIRCLE
  5
ACD
330
1A
100
AcDbEntity
  8
ZUWAKU
100
AcDbCircle
 10
12.99610559449161
 20
7.599999961356367
 30
0.0
 40
0.875
  0
LINE
  5
ACE
330
1A
100
AcDbEntity
  8
ZUWAKU
100
AcDbLine
 10
13.43360559449161
 20
3.574999961356369
 30
0.0
 11
12.47110559449163
 21
3.574999961356369
 31
0.0
  0
LINE
  5
ACF
330
1A
100
AcDbEntity
  8
ZUWAKU
100
AcDbLine
 10
12.47110559449163
 20
4.974999961356367
 30
0.0
 11
13.43360559449161
 21
4.974999961356367
 31
0.0
  0
LINE
  5
AD0
330
1A
100
AcDbEntity
  8
ZUWAKU
100
AcDbLine
 10
13.43360559449161
 20
10.22499996135637
 30
0.0
 11
12.47110559449163
 21
10.22499996135637
 31
0.0
  0
LINE
  5
AD1
330
1A
100
AcDbEntity
  8
ZUWAKU
100
AcDbLine
 10
12.47110559449163
 20
11.62499996135635
 30
0.0
 11
13.43360559449161
 21
11.62499996135637
 31
0.0
  0
HATCH
  5
AD2
330
1A
100
AcDbEntity
  8
ZUWAKU
100
AcDbHatch
 10
0.0
 20
0.0
 30
0.0
210
0.0
220
0.0
230
1.0
  2
ANSI37
 70
     0
 71
     0
 91
        8
 92
        7
 72
     1
 73
     1
 93
       24
 10
7.251130847660988
 20
8.822424201848158
 42
-0.1989123673796348
 10
7.046105594491621
 20
9.317398948678683
 42
0.0
 10
7.046105594491621
 20
9.962499961356372
 42
-0.4142135623730912
 10
7.30860559449161
 20
10.22499996135637
 42
0.0
 10
8.796105594491564
 20
10.22499996135637
 42
0.4142135623731546
 10
9.05860559449161
 20
10.48749996135636
 42
0.0
 10
9.05860559449161
 20
11.36249996135637
 42
0.4142135623731586
 10
8.796105594491564
 20
11.62499996135637
 42
0.0
 10
7.046105594491621
 20
11.62499996135637
 42
0.4142135623730928
 10
5.646105594491644
 20
10.22499996135638
 42
0.0
 10
5.646105594491644
 20
9.317398948678747
 42
0.1989123673796619
 10
6.261181353999859
 20
7.832474708186943
 42
0.0
 10
7.716080341322197
 20
6.377575720864614
 42
-0.1989123673796613
 10
7.921105594491621
 20
5.882600974034022
 42
0.0
 10
7.921105594491621
 20
5.237499961356363
 42
-0.4142135623730911
 10
7.658605594491633
 20
4.974999961356367
 42
0.0
 10
6.171105594491678
 20
4.974999961356367
 42
0.4142135623731526
 10
5.908605594491633
 20
4.712499961356373
 42
0.0
 10
5.908605594491633
 20
3.837499961356363
 42
0.4142135623731526
 10
6.171105594491678
 20
3.574999961356369
 42
0.0
 10
7.921105594491621
 20
3.574999961356369
 42
0.4142135623731044
 10
9.321105594491655
 20
4.974999961356357
 42
0.0
 10
9.321105594491655
 20
5.882600974033993
 42
0.1989123673796604
 10
8.706029834983383
 20
7.367525214525763
 42
0.0
 97
        0
 92
        7
 72
     1
 73
     1
 93
       16
 10
11.77110559449164
 20
9.524999961356372
 42
-0.4142135623730935
 10
12.47110559449163
 20
10.22499996135637
 42
0.0
 10
13.43360559449161
 20
10.22499996135637
 42
0.4142135623731546
 10
13.69610559449166
 20
10.48749996135636
 42
0.0
 10
13.69610559449166
 20
11.36249996135637
 42
0.4142135623730952
 10
13.43360559449167
 20
11.62499996135637
 42
0.0
 10
12.47110559449158
 20
11.62499996135635
 42
0.4142135623730892
 10
10.37110559449161
 20
9.524999961356336
 42
0.0
 10
10.37110559449161
 20
5.674999961356381
 42
0.4142135623730969
 10
12.47110559449163
 20
3.574999961356369
 42
0.0
 10
13.43360559449161
 20
3.574999961356369
 42
0.4142135623731526
 10
13.69610559449166
 20
3.837499961356363
 42
0.0
 10
13.69610559449166
 20
4.712499961356373
 42
0.414213562373089
 10
13.43360559449167
 20
4.974999961356367
 42
0.0
 10
12.47110559449163
 20
4.974999961356367
 42
-0.4142135623730928
 10
11.77110559449164
 20
5.674999961356361
 42
0.0
 97
        0
 92
        7
 72
     1
 73
     1
 93
        2
 10
12.12110559449161
 20
7.599999961356367
 42
1.0
 10
13.87110559449161
 20
7.599999961356367
 42
1.0
 97
        0
 92
        7
 72
     1
 73
     1
 93
       26
 10
18.65742883558062
 20
9.602523558138081
 42
0.0
 10
19.18824865214953
 20
11.28345297727288
 42
0.5069206636600134
 10
18.93793320255185
 20
11.62499996135637
 42
0.0
 10
18.08848851274723
 20
11.62499996135637
 42
0.3272098845218764
 10
17.83817306314955
 20
11.44154694543985
 42
0.0
 10
16.90403812583367
 20
8.483452977272908
 42
-0.3272098845219541
 10
16.65372267623593
 20
8.299999961356367
 42
0.0
 10
16.5836055944917
 20
8.299999961356367
 42
-0.4142135623731526
 10
16.32110559449166
 20
8.562499961356361
 42
0.0
 10
16.32110559449166
 20
11.36249996135637
 42
0.4142135623730952
 10
16.05860559449167
 20
11.62499996135637
 42
0.0
 10
15.18360559449161
 20
11.62499996135637
 42
0.4142135623730872
 10
14.92110559449162
 20
11.36249996135638
 42
0.0
 10
14.92110559449162
 20
3.837499961356363
 42
0.414213562373089
 10
15.18360559449161
 20
3.574999961356369
 42
0.0
 10
16.05860559449161
 20
3.574999961356369
 42
0.4142135623731526
 10
16.32110559449166
 20
3.837499961356363
 42
0.0
 10
16.32110559449166
 20
6.637499961356374
 42
-0.4142135623731526
 10
16.5836055944917
 20
6.899999961356368
 42
0.0
 10
16.65372267623599
 20
6.899999961356368
 42
-0.3272098845218915
 10
16.90403812583367
 20
6.716546945439831
 42
0.0
 10
17.83817306314955
 20
3.758452977272905
 42
0.3272098845218902
 10
18.08848851274723
 20
3.574999961356369
 42
0.0
 10
18.93793320255185
 20
3.574999961356369
 42
0.5069206636600334
 10
19.18824865214953
 20
3.916546945439873
 42
0.0
 10
18.0250529629127
 20
7.599999961356437
 42
0.0
 97
        0
 92
        7
 72
     1
 73
     1
 93
        8
 10
21.74610559449161
 20
11.36249996135637
 42
0.4142135623731546
 10
21.48360559449156
 20
11.62499996135637
 42
0.0
 10
20.60860559449168
 20
11.62499996135637
 42
0.4142135623731506
 10
20.34610559449163
 20
11.36249996135638
 42
0.0
 10
20.34610559449163
 20
3.837499961356363
 42
0.4142135623731526
 10
20.60860559449168
 20
3.574999961356369
 42
0.0
 10
21.48360559449156
 20
3.574999961356369
 42
0.4142135623731526
 10
21.74610559449161
 20
3.837499961356363
 42
0.0
 97
        0
 92
        7
 72
     1
 73
     1
 93
       24
 10
24.19610559449166
 20
9.962499961356372
 42
-0.4142135623731547
 10
24.4586055944917
 20
10.22499996135637
 42
0.0
 10
25.94610559449166
 20
10.22499996135637
 42
0.4142135623730911
 10
26.20860559449164
 20
10.48749996135636
 42
0.0
 10
26.20860559449164
 20
11.36249996135637
 42
0.4142135623730952
 10
25.94610559449166
 20
11.62499996135637
 42
0.0
 10
24.19610559449166
 20
11.62499996135637
 42
0.4142135623731048
 10
22.79610559449162
 20
10.22499996135638
 42
0.0
 10
22.79610559449162
 20
9.317398948678747
 42
0.1989123673796613
 10
23.41118135399989
 20
7.832474708186972
 42
0.0
 10
24.86608034132223
 20
6.377575720864638
 42
-0.1989123673796402
 10
25.07110559449166
 20
5.882600974034101
 42
0.0
 10
25.07110559449166
 20
5.237499961356363
 42
-0.4142135623730911
 10
24.80860559449167
 20
4.974999961356367
 42
0.0
 10
23.32110559449166
 20
4.974999961356367
 42
0.4142135623731526
 10
23.05860559449161
 20
4.712499961356373
 42
0.0
 10
23.05860559449161
 20
3.837499961356363
 42
0.414213562373089
 10
23.3211055944916
 20
3.574999961356369
 42
0.0
 10
25.07110559449166
 20
3.574999961356369
 42
0.4142135623730925
 10
26.47110559449163
 20
4.974999961356357
 42
0.0
 10
26.47110559449163
 20
5.882600974033993
 42
0.1989123673796675
 10
25.85602983498336
 20
7.36752521452582
 42
0.0
 10
24.40113084766108
 20
8.822424201848078
 42
-0.1989123673796653
 10
24.19610559449166
 20
9.317398948678662
 42
0.0
 97
        0
 92
        7
 72
     1
 73
     1
 93
       16
 10
28.92110559449162
 20
11.36249996135636
 42
0.414213562373103
 10
28.65860559449163
 20
11.62499996135637
 42
0.0
 10
27.78360559449163
 20
11.62499996135637
 42
0.4142135623730872
 10
27.52110559449164
 20
11.36249996135638
 42
0.0
 10
27.52110559449164
 20
4.974999961356357
 42
0.4142135623730925
 10
28.92110559449162
 20
3.574999961356369
 42
0.0
 10
30.67110559449162
 20
3.574999961356369
 42
0.4142135623731044
 10
32.07110559449166
 20
4.974999961356357
 42
0.0
 10
32.07110559449166
 20
11.36249996135637
 42
0.4142135623730952
 10
31.80860559449167
 20
11.62499996135637
 42
0.0
 10
30.93360559449161
 20
11.62499996135637
 42
0.4142135623730872
 10
30.67110559449162
 20
11.36249996135638
 42
0.0
 10
30.67110559449162
 20
5.499999961356355
 42
-0.414213562373088
 10
30.14610559449164
 20
4.974999961356367
 42
0.0
 10
29.44610559449166
 20
4.974999961356367
 42
-0.4142135623731197
 10
28.92110559449162
 20
5.499999961356355
 42
0.0
 97
        0
 92
        7
 72
     1
 73
     1
 93
        8
 10
34.52110559449164
 20
11.36249996135638
 42
0.4142135623730872
 10
34.25860559449166
 20
11.62499996135637
 42
0.0
 10
33.38360559449166
 20
11.62499996135637
 42
0.4142135623731506
 10
33.12110559449161
 20
11.36249996135638
 42
0.0
 10
33.12110559449161
 20
3.837499961356363
 42
0.414213562373089
 10
33.3836055944916
 20
3.574999961356369
 42
0.0
 10
34.25860559449166
 20
3.574999961356369
 42
0.414213562373089
 10
34.52110559449164
 20
3.837499961356363
 42
0.0
 97
        0
 75
     0
 76
     1
 52
0.0
 41
0.1
 77
     0
 78
     2
 53
45.0
 43
-450.4711526502384
 44
-6.6000000386436
 45
-0.2245064030267288
 46
0.2245064030267289
 79
     0
 53
135.0
 43
-450.4711526502384
 44
-6.6000000386436
 45
-0.2245064030267289
 46
-0.2245064030267288
 79
     0
 47
0.057451373970553
 98
        8
 10
8.039926998612714
 20
7.583586784299143
 10
11.20225702032064
 20
9.422031052581872
 10
12.58218345993089
 20
7.755940784391726
 10
15.45702950791963
 20
8.100648784577118
 10
20.91923552657943
 20
8.330454918347925
 10
23.44909996466583
 20
9.709288119559972
 10
28.27884250330124
 20
9.364578918903874
 10
33.91353932691243
 20
9.594385052674681
  0
ARC
  5
AD3
330
1A
100
AcDbEntity
  8
ZUWAKU
100
AcDbCircle
 10
7.74610559449161
 20
9.317398948678719
 30
0.0
 40
2.1
100
AcDbArc
 50
180.0
 51
225.0
  0
LINE
  5
AD4
330
1A
100
AcDbEntity
  8
ZUWAKU
100
AcDbLine
 10
10.37110559449161
 20
5.67499996135637
 30
0.0
 11
10.37110559449161
 21
9.524999961356347
 31
0.0
  0
LINE
  5
AD5
330
1A
100
AcDbEntity
  8
ZUWAKU
100
AcDbLine
 10
11.77110559449164
 20
9.524999961356368
 30
0.0
 11
11.77110559449164
 21
5.67499996135637
 31
0.0
  0
ARC
  5
AD6
330
1A
100
AcDbEntity
  8
ZUWAKU
100
AcDbCircle
 10
7.74610559449161
 20
9.317398948678719
 30
0.0
 40
0.7
100
AcDbArc
 50
180.0000000000016
 51
224.9999999999988
  0
ARC
  5
AD7
330
1A
100
AcDbEntity
  8
ZUWAKU
100
AcDbCircle
 10
12.47110559449163
 20
5.67499996135637
 30
0.0
 40
2.1
100
AcDbArc
 50
180.0
 51
270.0
  0
ARC
  5
AD8
330
1A
100
AcDbEntity
  8
ZUWAKU
100
AcDbCircle
 10
7.921105594491621
 20
4.974999961356367
 30
0.0
 40
1.4
100
AcDbArc
 50
270.0
 51
0.0
  0
ARC
  5
AD9
330
1A
100
AcDbEntity
  8
ZUWAKU
100
AcDbCircle
 10
7.221105594491633
 20
5.88260097403402
 30
0.0
 40
2.1
100
AcDbArc
 50
0.0
 51
45.0
  0
LINE
  5
ADA
330
1A
100
AcDbEntity
  8
ZUWAKU
100
AcDbLine
 10
6.261181353999859
 20
7.832474708186958
 30
0.0
 11
7.716080341322197
 21
6.377575720864627
 31
0.0
  0
LINE
  5
ADB
330
1A
100
AcDbEntity
  8
ZUWAKU
100
AcDbLine
 10
6.171105594491621
 20
4.974999961356367
 30
0.0
 11
7.658605594491633
 21
4.974999961356367
 31
0.0
  0
LINE
  5
ADC
330
1A
100
AcDbEntity
  8
ZUWAKU
100
AcDbLine
 10
6.171105594491621
 20
3.574999961356369
 30
0.0
 11
7.921105594491621
 21
3.574999961356369
 31
0.0
  0
ARC
  5
ADD
330
1A
100
AcDbEntity
  8
ZUWAKU
100
AcDbCircle
 10
6.171105594491621
 20
4.712499961356368
 30
0.0
 40
0.2625
100
AcDbArc
 50
90.0
 51
180.0
  0
ARC
  5
ADE
330
1A
100
AcDbEntity
  8
ZUWAKU
100
AcDbCircle
 10
6.171105594491621
 20
3.837499961356368
 30
0.0
 40
0.2625
100
AcDbArc
 50
180.0
 51
270.0
  0
LINE
  5
ADF
330
1A
100
AcDbEntity
  8
ZUWAKU
100
AcDbLine
 10
5.908605594491633
 20
3.837499961356368
 30
0.0
 11
5.908605594491633
 21
4.712499961356368
 31
0.0
  0
ARC
  5
AE0
330
1A
100
AcDbEntity
  8
ZUWAKU
100
AcDbCircle
 10
7.221105594491633
 20
5.882600974034041
 30
0.0
 40
0.7
100
AcDbArc
 50
0.0
 51
45.0
  0
ARC
  5
AE1
330
1A
100
AcDbEntity
  8
ZUWAKU
100
AcDbCircle
 10
7.658605594491633
 20
5.23749996135637
 30
0.0
 40
0.2625
100
AcDbArc
 50
270.0
 51
0.0
  0
LINE
  5
AE2
330
1A
100
AcDbEntity
  8
ZUWAKU
100
AcDbLine
 10
7.921105594491621
 20
5.23749996135637
 30
0.0
 11
7.921105594491621
 21
5.882600974034041
 31
0.0
  0
LINE
  5
AE3
330
1A
100
AcDbEntity
  8
ZUWAKU
100
AcDbLine
 10
8.706029834983383
 20
7.367525214525781
 30
0.0
 11
7.251130847661045
 21
8.822424201848119
 31
0.0
  0
ARC
  5
AE4
330
1A
100
AcDbEntity
  8
ZUWAKU
100
AcDbCircle
 10
12.47110559449163
 20
5.67499996135637
 30
0.0
 40
0.7
100
AcDbArc
 50
180.0
 51
270.0
  0
LINE
  5
AE5
330
1A
100
AcDbEntity
  8
ZUWAKU
100
AcDbLine
 10
9.321105594491655
 20
4.974999961356367
 30
0.0
 11
9.321105594491655
 21
5.882600974034041
 31
0.0
  0
ARC
  5
AE6
330
1A
100
AcDbEntity
  8
ZUWAKU
100
AcDbCircle
 10
8.796105594491621
 20
10.48749996135637
 30
0.0
 40
0.2625
100
AcDbArc
 50
270.0
 51
0.0
  0
ARC
  5
AE7
330
1A
100
AcDbEntity
  8
ZUWAKU
100
AcDbCircle
 10
8.796105594491621
 20
11.36249996135637
 30
0.0
 40
0.2625
100
AcDbArc
 50
0.0
 51
90.0
  0
ARC
  5
AE8
330
1A
100
AcDbEntity
  8
ZUWAKU
100
AcDbCircle
 10
7.046105594491621
 20
10.22499996135637
 30
0.0
 40
1.4
100
AcDbArc
 50
90.0
 51
180.0
  0
LINE
  5
AE9
330
1A
100
AcDbEntity
  8
ZUWAKU
100
AcDbLine
 10
5.646105594491644
 20
10.22499996135637
 30
0.0
 11
5.646105594491644
 21
9.317398948678697
 31
0.0
  0
LINE
  5
AEA
330
1A
100
AcDbEntity
  8
ZUWAKU
100
AcDbLine
 10
8.796105594491621
 20
10.22499996135637
 30
0.0
 11
7.30860559449161
 21
10.22499996135637
 31
0.0
  0
LINE
  5
AEB
330
1A
100
AcDbEntity
  8
ZUWAKU
100
AcDbLine
 10
7.046105594491621
 20
9.962499961356368
 30
0.0
 11
7.046105594491621
 21
9.317398948678697
 31
0.0
  0
ARC
  5
AEC
330
1A
100
AcDbEntity
  8
ZUWAKU
100
AcDbCircle
 10
7.30860559449161
 20
9.962499961356368
 30
0.0
 40
0.2625
100
AcDbArc
 50
90.0
 51
180.0
  0
LINE
  5
AED
330
1A
100
AcDbEntity
  8
ZUWAKU
100
AcDbLine
 10
7.046105594491621
 20
11.62499996135637
 30
0.0
 11
8.796105594491621
 21
11.62499996135637
 31
0.0
  0
ARC
  5
AEE
330
1A
100
AcDbEntity
  8
ZUWAKU
100
AcDbCircle
 10
12.47110559449163
 20
9.524999961356347
 30
0.0
 40
2.1
100
AcDbArc
 50
90.0
 51
180.0
  0
ARC
  5
AEF
330
1A
100
AcDbEntity
  8
ZUWAKU
100
AcDbCircle
 10
12.47110559449163
 20
9.524999961356368
 30
0.0
 40
0.7
100
AcDbArc
 50
90.0
 51
180.0
  0
LINE
  5
AF0
330
1A
100
AcDbEntity
  8
ZUWAKU
100
AcDbLine
 10
9.05860559449161
 20
11.36249996135637
 30
0.0
 11
9.05860559449161
 21
10.48749996135637
 31
0.0
  0
LINE
  5
AF1
330
1A
100
AcDbEntity
  8
ZUWAKU
100
AcDbLine
 10
17.83817306314955
 20
11.44154694543985
 30
0.0
 11
16.90403812583367
 21
8.483452977272883
 31
0.0
  0
LINE
  5
AF2
330
1A
100
AcDbEntity
  8
ZUWAKU
100
AcDbLine
 10
14.92110559449162
 20
11.36249996135637
 30
0.0
 11
14.92110559449162
 21
3.837499961356368
 31
0.0
  0
LINE
  5
AF3
330
1A
100
AcDbEntity
  8
ZUWAKU
100
AcDbLine
 10
16.32110559449166
 20
8.56249996135637
 30
0.0
 11
16.32110559449166
 21
11.36249996135637
 31
0.0
  0
LINE
  5
AF4
330
1A
100
AcDbEntity
  8
ZUWAKU
100
AcDbLine
 10
28.92110559449162
 20
5.499999961356366
 30
0.0
 11
28.92110559449162
 21
11.36249996135637
 31
0.0
  0
LINE
  5
AF5
330
1A
100
AcDbEntity
  8
ZUWAKU
100
AcDbLine
 10
27.52110559449164
 20
11.36249996135637
 30
0.0
 11
27.52110559449164
 21
4.974999961356367
 31
0.0
  0
LINE
  5
AF6
330
1A
100
AcDbEntity
  8
ZUWAKU
100
AcDbLine
 10
21.74610559449161
 20
3.837499961356368
 30
0.0
 11
21.74610559449161
 21
11.36249996135637
 31
0.0
  0
LINE
  5
AF7
330
1A
100
AcDbEntity
  8
ZUWAKU
100
AcDbLine
 10
20.34610559449163
 20
11.36249996135637
 30
0.0
 11
20.34610559449163
 21
3.837499961356368
 31
0.0
  0
LINE
  5
AF8
330
1A
100
AcDbEntity
  8
ZUWAKU
100
AcDbLine
 10
18.65742883558062
 20
9.602523558138081
 30
0.0
 11
18.0250529629127
 21
7.599999961356378
 31
0.0
  0
ARC
  5
AF9
330
1A
100
AcDbEntity
  8
ZUWAKU
100
AcDbCircle
 10
24.89610559449164
 20
9.317398948678719
 30
0.0
 40
2.1
100
AcDbArc
 50
180.0
 51
225.0
  0
ARC
  5
AFA
330
1A
100
AcDbEntity
  8
ZUWAKU
100
AcDbCircle
 10
24.89610559449164
 20
9.317398948678719
 30
0.0
 40
0.7
100
AcDbArc
 50
180.0000000000016
 51
224.9999999999988
  0
LINE
  5
AFB
330
1A
100
AcDbEntity
  8
ZUWAKU
100
AcDbLine
 10
33.12110559449161
 20
11.36249996135637
 30
0.0
 11
33.12110559449161
 21
3.837499961356368
 31
0.0
  0
LINE
  5
AFC
330
1A
100
AcDbEntity
  8
ZUWAKU
100
AcDbLine
 10
34.52110559449164
 20
3.837499961356368
 30
0.0
 11
34.52110559449164
 21
11.36249996135637
 31
0.0
  0
LINE
  5
AFD
330
1A
100
AcDbEntity
  8
ZUWAKU
100
AcDbLine
 10
30.67110559449162
 20
11.36249996135637
 30
0.0
 11
30.67110559449162
 21
5.499999961356366
 31
0.0
  0
LINE
  5
AFE
330
1A
100
AcDbEntity
  8
ZUWAKU
100
AcDbLine
 10
32.07110559449166
 20
4.974999961356367
 30
0.0
 11
32.07110559449166
 21
11.36249996135637
 31
0.0
  0
LINE
  5
AFF
330
1A
100
AcDbEntity
  8
ZUWAKU
100
AcDbLine
 10
39.56331429109525
 20
14.99999996135637
 30
0.0
 11
39.56331429109525
 21
0.3999999613564
 31
0.0
  0
LINE
  5
B00
330
1A
100
AcDbEntity
  8
ZUWAKU
100
AcDbLine
 10
39.76331429109519
 20
14.99999996135637
 30
0.0
 11
39.7633142910953
 21
0.3999999613564
 31
0.0
  0
LINE
  5
B01
330
1A
100
AcDbEntity
  8
ZUWAKU
100
AcDbLine
 10
39.66331429109516
 20
14.99999996135637
 30
0.0
 11
39.66331429109528
 21
0.3999999613564
 31
0.0
  0
LINE
  5
B02
330
1A
100
AcDbEntity
  8
ZUWAKU
100
AcDbLine
 10
28.92110559449162
 20
3.574999961356369
 30
0.0
 11
30.67110559449162
 21
3.574999961356369
 31
0.0
  0
LINE
  5
B03
330
1A
100
AcDbEntity
  8
ZUWAKU
100
AcDbLine
 10
30.14610559449164
 20
4.974999961356367
 30
0.0
 11
29.44610559449166
 21
4.974999961356367
 31
0.0
  0
LINE
  5
B04
330
1A
100
AcDbEntity
  8
ZUWAKU
100
AcDbLine
 10
20.60860559449162
 20
3.574999961356369
 30
0.0
 11
21.48360559449162
 21
3.574999961356369
 31
0.0
  0
LINE
  5
B05
330
1A
100
AcDbEntity
  8
ZUWAKU
100
AcDbLine
 10
17.83817306314955
 20
3.758452977272881
 30
0.0
 11
16.90403812583367
 21
6.716546945439852
 31
0.0
  0
ARC
  5
B06
330
1A
100
AcDbEntity
  8
ZUWAKU
100
AcDbCircle
 10
16.58360559449164
 20
6.637499961356369
 30
0.0
 40
0.2625
100
AcDbArc
 50
90.0
 51
180.0
  0
ARC
  5
B07
330
1A
100
AcDbEntity
  8
ZUWAKU
100
AcDbCircle
 10
16.65372267623599
 20
6.637499961356369
 30
0.0
 40
0.2625
100
AcDbArc
 50
17.52556837372303
 51
90.0
  0
ARC
  5
B08
330
1A
100
AcDbEntity
  8
ZUWAKU
100
AcDbCircle
 10
15.18360559449161
 20
3.837499961356368
 30
0.0
 40
0.2625
100
AcDbArc
 50
180.0
 51
270.0
  0
ARC
  5
B09
330
1A
100
AcDbEntity
  8
ZUWAKU
100
AcDbCircle
 10
13.43360559449161
 20
4.712499961356368
 30
0.0
 40
0.2625
100
AcDbArc
 50
0.0
 51
90.0
  0
ARC
  5
B0A
330
1A
100
AcDbEntity
  8
ZUWAKU
100
AcDbCircle
 10
13.43360559449161
 20
3.837499961356368
 30
0.0
 40
0.2625
100
AcDbArc
 50
270.0
 51
0.0
  0
LINE
  5
B0B
330
1A
100
AcDbEntity
  8
ZUWAKU
100
AcDbLine
 10
13.69610559449166
 20
4.712499961356368
 30
0.0
 11
13.69610559449166
 21
3.837499961356368
 31
0.0
  0
LINE
  5
B0C
330
1A
100
AcDbEntity
  8
ZUWAKU
100
AcDbLine
 10
16.32110559449166
 20
3.837499961356368
 30
0.0
 11
16.32110559449166
 21
6.637499961356369
 31
0.0
  0
ARC
  5
B0D
330
1A
100
AcDbEntity
  8
ZUWAKU
100
AcDbCircle
 10
16.05860559449161
 20
3.837499961356368
 30
0.0
 40
0.2625
100
AcDbArc
 50
270.0
 51
0.0
  0
LINE
  5
B0E
330
1A
100
AcDbEntity
  8
ZUWAKU
100
AcDbLine
 10
15.18360559449161
 20
3.574999961356369
 30
0.0
 11
16.05860559449161
 21
3.574999961356369
 31
0.0
  0
ARC
  5
B0F
330
1A
100
AcDbEntity
  8
ZUWAKU
100
AcDbCircle
 10
16.58360559449164
 20
8.56249996135637
 30
0.0
 40
0.2625
100
AcDbArc
 50
180.0
 51
270.0
  0
LINE
  5
B10
330
1A
100
AcDbEntity
  8
ZUWAKU
100
AcDbLine
 10
16.58360559449164
 20
6.899999961356368
 30
0.0
 11
16.65372267623599
 21
6.899999961356368
 31
0.0
  0
LINE
  5
B11
330
1A
100
AcDbEntity
  8
ZUWAKU
100
AcDbLine
 10
16.65372267623599
 20
8.299999961356367
 30
0.0
 11
16.58360559449164
 21
8.299999961356367
 31
0.0
  0
ARC
  5
B12
330
1A
100
AcDbEntity
  8
ZUWAKU
100
AcDbCircle
 10
16.65372267623599
 20
8.56249996135637
 30
0.0
 40
0.2625
100
AcDbArc
 50
270.0
 51
342.474431626277
  0
ARC
  5
B13
330
1A
100
AcDbEntity
  8
ZUWAKU
100
AcDbCircle
 10
18.08848851274729
 20
3.837499961356368
 30
0.0
 40
0.2625
100
AcDbArc
 50
197.525568373723
 51
270.0
  0
LINE
  5
B14
330
1A
100
AcDbEntity
  8
ZUWAKU
100
AcDbLine
 10
19.18824865214953
 20
3.916546945439855
 30
0.0
 11
18.0250529629127
 21
7.599999961356378
 31
0.0
  0
ARC
  5
B15
330
1A
100
AcDbEntity
  8
ZUWAKU
100
AcDbCircle
 10
18.93793320255179
 20
3.837499961356368
 30
0.0
 40
0.2625
100
AcDbArc
 50
270.0
 51
17.52556837372303
  0
LINE
  5
B16
330
1A
100
AcDbEntity
  8
ZUWAKU
100
AcDbLine
 10
18.08848851274729
 20
3.574999961356369
 30
0.0
 11
18.93793320255179
 21
3.574999961356369
 31
0.0
  0
ARC
  5
B17
330
1A
100
AcDbEntity
  8
ZUWAKU
100
AcDbCircle
 10
20.60860559449162
 20
3.837499961356368
 30
0.0
 40
0.2625
100
AcDbArc
 50
180.0
 51
270.0
  0
ARC
  5
B18
330
1A
100
AcDbEntity
  8
ZUWAKU
100
AcDbCircle
 10
25.07110559449166
 20
4.974999961356367
 30
0.0
 40
1.4
100
AcDbArc
 50
270.0
 51
0.0
  0
ARC
  5
B19
330
1A
100
AcDbEntity
  8
ZUWAKU
100
AcDbCircle
 10
28.92110559449162
 20
4.974999961356367
 30
0.0
 40
1.4
100
AcDbArc
 50
180.0
 51
270.0
  0
LINE
  5
B1A
330
1A
100
AcDbEntity
  8
ZUWAKU
100
AcDbLine
 10
25.85602983498342
 20
7.367525214525781
 30
0.0
 11
24.40113084766102
 21
8.822424201848119
 31
0.0
  0
LINE
  5
B1B
330
1A
100
AcDbEntity
  8
ZUWAKU
100
AcDbLine
 10
23.41118135399989
 20
7.832474708186958
 30
0.0
 11
24.86608034132223
 21
6.377575720864627
 31
0.0
  0
LINE
  5
B1C
330
1A
100
AcDbEntity
  8
ZUWAKU
100
AcDbLine
 10
23.32110559449166
 20
3.574999961356369
 30
0.0
 11
25.07110559449166
 21
3.574999961356369
 31
0.0
  0
LINE
  5
B1D
330
1A
100
AcDbEntity
  8
ZUWAKU
100
AcDbLine
 10
23.32110559449166
 20
4.974999961356367
 30
0.0
 11
24.80860559449161
 21
4.974999961356367
 31
0.0
  0
ARC
  5
B1E
330
1A
100
AcDbEntity
  8
ZUWAKU
100
AcDbCircle
 10
23.32110559449166
 20
4.712499961356368
 30
0.0
 40
0.2625
100
AcDbArc
 50
90.0
 51
180.0
  0
ARC
  5
B1F
330
1A
100
AcDbEntity
  8
ZUWAKU
100
AcDbCircle
 10
21.48360559449162
 20
3.837499961356368
 30
0.0
 40
0.2625
100
AcDbArc
 50
270.0
 51
0.0
  0
ARC
  5
B20
330
1A
100
AcDbEntity
  8
ZUWAKU
100
AcDbCircle
 10
23.32110559449166
 20
3.837499961356368
 30
0.0
 40
0.2625
100
AcDbArc
 50
180.0
 51
270.0
  0
LINE
  5
B21
330
1A
100
AcDbEntity
  8
ZUWAKU
100
AcDbLine
 10
23.05860559449161
 20
3.837499961356368
 30
0.0
 11
23.05860559449161
 21
4.712499961356368
 31
0.0
  0
ARC
  5
B22
330
1A
100
AcDbEntity
  8
ZUWAKU
100
AcDbCircle
 10
24.80860559449161
 20
5.23749996135637
 30
0.0
 40
0.2625
100
AcDbArc
 50
270.0
 51
0.0
  0
ARC
  5
B23
330
1A
100
AcDbEntity
  8
ZUWAKU
100
AcDbCircle
 10
24.37110559449161
 20
5.882600974034041
 30
0.0
 40
0.7
100
AcDbArc
 50
0.0
 51
45.0
  0
LINE
  5
B24
330
1A
100
AcDbEntity
  8
ZUWAKU
100
AcDbLine
 10
25.07110559449166
 20
5.23749996135637
 30
0.0
 11
25.07110559449166
 21
5.882600974034041
 31
0.0
  0
ARC
  5
B25
330
1A
100
AcDbEntity
  8
ZUWAKU
100
AcDbCircle
 10
29.44610559449166
 20
5.499999961356366
 30
0.0
 40
0.5249999999999999
100
AcDbArc
 50
180.0
 51
270.0
  0
ARC
  5
B26
330
1A
100
AcDbEntity
  8
ZUWAKU
100
AcDbCircle
 10
24.37110559449161
 20
5.88260097403402
 30
0.0
 40
2.1
100
AcDbArc
 50
0.0
 51
45.0
  0
LINE
  5
B27
330
1A
100
AcDbEntity
  8
ZUWAKU
100
AcDbLine
 10
26.47110559449163
 20
4.974999961356367
 30
0.0
 11
26.47110559449163
 21
5.882600974034041
 31
0.0
  0
ARC
  5
B28
330
1A
100
AcDbEntity
  8
ZUWAKU
100
AcDbCircle
 10
30.67110559449162
 20
4.974999961356367
 30
0.0
 40
1.4
100
AcDbArc
 50
270.0
 51
0.0
  0
LINE
  5
B29
330
1A
100
AcDbEntity
  8
ZUWAKU
100
AcDbLine
 10
33.38360559449166
 20
3.574999961356369
 30
0.0
 11
34.25860559449166
 21
3.574999961356369
 31
0.0
  0
ARC
  5
B2A
330
1A
100
AcDbEntity
  8
ZUWAKU
100
AcDbCircle
 10
30.14610559449164
 20
5.499999961356366
 30
0.0
 40
0.5249999999999999
100
AcDbArc
 50
270.0
 51
0.0
  0
ARC
  5
B2B
330
1A
100
AcDbEntity
  8
ZUWAKU
100
AcDbCircle
 10
33.38360559449166
 20
3.837499961356368
 30
0.0
 40
0.2625
100
AcDbArc
 50
180.0
 51
270.0
  0
ARC
  5
B2C
330
1A
100
AcDbEntity
  8
ZUWAKU
100
AcDbCircle
 10
34.25860559449166
 20
3.837499961356368
 30
0.0
 40
0.2625
100
AcDbArc
 50
270.0
 51
0.0
  0
LINE
  5
B2D
330
1A
100
AcDbEntity
  8
ZUWAKU
100
AcDbLine
 10
21.48360559449162
 20
11.62499996135637
 30
0.0
 11
20.60860559449162
 21
11.62499996135637
 31
0.0
  0
LINE
  5
B2E
330
1A
100
AcDbEntity
  8
ZUWAKU
100
AcDbLine
 10
13.69610559449166
 20
11.36249996135637
 30
0.0
 11
13.69610559449166
 21
10.48749996135637
 31
0.0
  0
ARC
  5
B2F
330
1A
100
AcDbEntity
  8
ZUWAKU
100
AcDbCircle
 10
13.43360559449161
 20
10.48749996135637
 30
0.0
 40
0.2625
100
AcDbArc
 50
270.0
 51
0.0
  0
ARC
  5
B30
330
1A
100
AcDbEntity
  8
ZUWAKU
100
AcDbCircle
 10
15.18360559449161
 20
11.36249996135637
 30
0.0
 40
0.2625
100
AcDbArc
 50
90.0
 51
180.0
  0
ARC
  5
B31
330
1A
100
AcDbEntity
  8
ZUWAKU
100
AcDbCircle
 10
13.43360559449161
 20
11.36249996135637
 30
0.0
 40
0.2625
100
AcDbArc
 50
0.0
 51
90.0
  0
LINE
  5
B32
330
1A
100
AcDbEntity
  8
ZUWAKU
100
AcDbLine
 10
16.05860559449161
 20
11.62499996135637
 30
0.0
 11
15.18360559449161
 21
11.62499996135637
 31
0.0
  0
ARC
  5
B33
330
1A
100
AcDbEntity
  8
ZUWAKU
100
AcDbCircle
 10
16.05860559449161
 20
11.36249996135637
 30
0.0
 40
0.2625
100
AcDbArc
 50
0.0
 51
90.0
  0
ARC
  5
B34
330
1A
100
AcDbEntity
  8
ZUWAKU
100
AcDbCircle
 10
18.08848851274729
 20
11.36249996135637
 30
0.0
 40
0.2625
100
AcDbArc
 50
90.0
 51
162.474431626277
  0
LINE
  5
B35
330
1A
100
AcDbEntity
  8
ZUWAKU
100
AcDbLine
 10
19.18824865214953
 20
11.28345297727288
 30
0.0
 11
18.65742883558062
 21
9.602523558138081
 31
0.0
  0
ARC
  5
B36
330
1A
100
AcDbEntity
  8
ZUWAKU
100
AcDbCircle
 10
18.93793320255179
 20
11.36249996135637
 30
0.0
 40
0.2625
100
AcDbArc
 50
342.474431626277
 51
90.0
  0
LINE
  5
B37
330
1A
100
AcDbEntity
  8
ZUWAKU
100
AcDbLine
 10
18.08848851274729
 20
11.62499996135637
 30
0.0
 11
18.93793320255179
 21
11.62499996135637
 31
0.0
  0
ARC
  5
B38
330
1A
100
AcDbEntity
  8
ZUWAKU
100
AcDbCircle
 10
20.60860559449162
 20
11.36249996135637
 30
0.0
 40
0.2625
100
AcDbArc
 50
90.0
 51
180.0
  0
LINE
  5
B39
330
1A
100
AcDbEntity
  8
ZUWAKU
100
AcDbLine
 10
25.94610559449166
 20
10.22499996135637
 30
0.0
 11
24.45860559449164
 21
10.22499996135637
 31
0.0
  0
LINE
  5
B3A
330
1A
100
AcDbEntity
  8
ZUWAKU
100
AcDbLine
 10
24.19610559449166
 20
11.62499996135637
 30
0.0
 11
25.94610559449166
 21
11.62499996135637
 31
0.0
  0
ARC
  5
B3B
330
1A
100
AcDbEntity
  8
ZUWAKU
100
AcDbCircle
 10
24.19610559449166
 20
10.22499996135637
 30
0.0
 40
1.4
100
AcDbArc
 50
90.0
 51
180.0
  0
LINE
  5
B3C
330
1A
100
AcDbEntity
  8
ZUWAKU
100
AcDbLine
 10
22.79610559449162
 20
10.22499996135637
 30
0.0
 11
22.79610559449162
 21
9.317398948678697
 31
0.0
  0
ARC
  5
B3D
330
1A
100
AcDbEntity
  8
ZUWAKU
100
AcDbCircle
 10
21.48360559449162
 20
11.36249996135637
 30
0.0
 40
0.2625
100
AcDbArc
 50
0.0
 51
90.0
  0
LINE
  5
B3E
330
1A
100
AcDbEntity
  8
ZUWAKU
100
AcDbLine
 10
24.19610559449166
 20
9.962499961356368
 30
0.0
 11
24.19610559449166
 21
9.317398948678697
 31
0.0
  0
ARC
  5
B3F
330
1A
100
AcDbEntity
  8
ZUWAKU
100
AcDbCircle
 10
24.45860559449164
 20
9.962499961356368
 30
0.0
 40
0.2625
100
AcDbArc
 50
90.0
 51
180.0
  0
LINE
  5
B40
330
1A
100
AcDbEntity
  8
ZUWAKU
100
AcDbLine
 10
26.20860559449164
 20
11.36249996135637
 30
0.0
 11
26.20860559449164
 21
10.48749996135637
 31
0.0
  0
ARC
  5
B41
330
1A
100
AcDbEntity
  8
ZUWAKU
100
AcDbCircle
 10
25.94610559449166
 20
10.48749996135637
 30
0.0
 40
0.2625
100
AcDbArc
 50
270.0
 51
0.0
  0
ARC
  5
B42
330
1A
100
AcDbEntity
  8
ZUWAKU
100
AcDbCircle
 10
25.94610559449166
 20
11.36249996135637
 30
0.0
 40
0.2625
100
AcDbArc
 50
0.0
 51
90.0
  0
LINE
  5
B43
330
1A
100
AcDbEntity
  8
ZUWAKU
100
AcDbLine
 10
28.65860559449163
 20
11.62499996135637
 30
0.0
 11
27.78360559449163
 21
11.62499996135637
 31
0.0
  0
ARC
  5
B44
330
1A
100
AcDbEntity
  8
ZUWAKU
100
AcDbCircle
 10
27.78360559449163
 20
11.36249996135637
 30
0.0
 40
0.2625
100
AcDbArc
 50
90.0
 51
180.0
  0
ARC
  5
B45
330
1A
100
AcDbEntity
  8
ZUWAKU
100
AcDbCircle
 10
28.65860559449163
 20
11.36249996135637
 30
0.0
 40
0.2625
100
AcDbArc
 50
0.0
 51
90.0
  0
LINE
  5
B46
330
1A
100
AcDbEntity
  8
ZUWAKU
100
AcDbLine
 10
34.25860559449166
 20
11.62499996135637
 30
0.0
 11
33.38360559449166
 21
11.62499996135637
 31
0.0
  0
ARC
  5
B47
330
1A
100
AcDbEntity
  8
ZUWAKU
100
AcDbCircle
 10
30.93360559449161
 20
11.36249996135637
 30
0.0
 40
0.2625
100
AcDbArc
 50
90.0
 51
180.0
  0
LINE
  5
B48
330
1A
100
AcDbEntity
  8
ZUWAKU
100
AcDbLine
 10
31.80860559449161
 20
11.62499996135637
 30
0.0
 11
30.93360559449161
 21
11.62499996135637
 31
0.0
  0
ARC
  5
B49
330
1A
100
AcDbEntity
  8
ZUWAKU
100
AcDbCircle
 10
31.80860559449161
 20
11.36249996135637
 30
0.0
 40
0.2625
100
AcDbArc
 50
0.0
 51
90.0
  0
ARC
  5
B4A
330
1A
100
AcDbEntity
  8
ZUWAKU
100
AcDbCircle
 10
33.38360559449166
 20
11.36249996135637
 30
0.0
 40
0.2625
100
AcDbArc
 50
90.0
 51
180.0
  0
ARC
  5
B4B
330
1A
100
AcDbEntity
  8
ZUWAKU
100
AcDbCircle
 10
34.25860559449166
 20
11.36249996135637
 30
0.0
 40
0.2625
100
AcDbArc
 50
0.0
 51
90.0
  0
LINE
  5
B4C
330
1A
100
AcDbEntity
  8
ZUWAKU
100
AcDbLine
 10
104.2233001621349
 20
14.99999996135637
 30
0.0
 11
104.2233001621351
 21
0.3999999613564
 31
0.0
  0
LINE
  5
B4D
330
1A
100
AcDbEntity
  8
ZUWAKU
100
AcDbLine
 10
104.323300162135
 20
14.99999996135637
 30
0.0
 11
104.3233001621351
 21
0.3999999613564
 31
0.0
  0
LINE
  5
B4E
330
1A
100
AcDbEntity
  8
ZUWAKU
100
AcDbLine
 10
104.123300162135
 20
14.99999996135637
 30
0.0
 11
104.123300162135
 21
0.3999999613564
 31
0.0
  0
TEXT
  5
B4F
330
1A
100
AcDbEntity
  8
moji
100
AcDbText
 10
119.9136008575266
 20
9.002460490060059
 30
0.0
 40
2.8
  1
ステンレス金具正面打（吊）ワンタッチ自在式
 41
0.9
  7
ｽﾀｲﾙ1
100
AcDbText
  0
TEXT
  5
B50
330
1A
100
AcDbEntity
  8
ZUWAKU
100
AcDbText
 10
104.8620226732398
 20
4.827678230549175
 30
0.0
 40
2.0
  1
サイズ
 41
0.9
  7
ｽﾀｲﾙ1
100
AcDbText
  0
TEXT
  5
B51
330
1A
100
AcDbEntity
  8
moji
100
AcDbText
 10
119.9136008575266
 20
1.602460490060077
 30
0.0
 40
2.8
  1
Σ９０－０－１０～４５
 41
0.9
  7
ｽﾀｲﾙ1
100
AcDbText
  0
TEXT
  5
B52
330
1A
100
AcDbEntity
  8
ZUWAKU
100
AcDbText
 10
104.8620226732397
 20
12.02767823054916
 30
0.0
 40
2.0
  1
品名
 41
0.9
  7
ｽﾀｲﾙ1
100
AcDbText
  0
TEXT
  5
B53
330
1A
100
AcDbEntity
  8
ZUWAKU
100
AcDbText
 10
329.1019683607523
 20
9.002460490060059
 30
0.0
 40
2.8
  1
　　．　　．　　
 41
0.9
  7
ｽﾀｲﾙ1
100
AcDbText
  0
LINE
  5
B54
330
1A
100
AcDbEntity
  8
ZUWAKU
100
AcDbLine
 10
324.4086007722032
 20
7.799999961356383
 30
0.0
 11
348.6245047913717
 21
7.799999961356383
 31
0.0
  0
LINE
  5
B55
330
1A
100
AcDbEntity
  8
ZUWAKU
100
AcDbLine
 10
324.4086007722033
 20
7.699999961356385
 30
0.0
 11
348.6245047913717
 21
7.699999961356383
 31
0.0
  0
LINE
  5
B56
330
1A
100
AcDbEntity
  8
ZUWAKU
100
AcDbLine
 10
324.4086007722032
 20
7.599999961356382
 30
0.0
 11
348.6245047913717
 21
7.599999961356383
 31
0.0
  0
LINE
  5
B57
330
1A
100
AcDbEntity
  8
ZUWAKU
100
AcDbLine
 10
252.5995892661715
 20
7.799999961356383
 30
0.0
 11
276.2634774001573
 21
7.799999961356383
 31
0.0
  0
LINE
  5
B58
330
1A
100
AcDbEntity
  8
ZUWAKU
100
AcDbLine
 10
252.5995892661715
 20
7.699999961356383
 30
0.0
 11
276.2634774001573
 21
7.699999961356383
 31
0.0
  0
LINE
  5
B59
330
1A
100
AcDbEntity
  8
ZUWAKU
100
AcDbLine
 10
252.5995892661715
 20
7.599999961356385
 30
0.0
 11
276.2634774001573
 21
7.599999961356385
 31
0.0
  0
LINE
  5
B5A
330
1A
100
AcDbEntity
  8
ZUWAKU
100
AcDbLine
 10
252.3995892661716
 20
14.99999996135637
 30
0.0
 11
252.3995892661716
 21
0.3999999613564
 31
0.0
  0
LINE
  5
B5B
330
1A
100
AcDbEntity
  8
ZUWAKU
100
AcDbLine
 10
252.5995892661715
 20
14.99999996135637
 30
0.0
 11
252.5995892661716
 21
0.3999999613564
 31
0.0
  0
LINE
  5
B5C
330
1A
100
AcDbEntity
  8
ZUWAKU
100
AcDbLine
 10
252.4995892661715
 20
14.99999996135637
 30
0.0
 11
252.4995892661716
 21
0.3999999613564
 31
0.0
  0
TEXT
  5
B5D
330
1A
100
AcDbEntity
  8
moji
100
AcDbText
 10
264.0204535032575
 20
9.002460490060059
 30
0.0
 40
2.8
  1
Ａ３
 41
0.9
  7
ｽﾀｲﾙ1
100
AcDbText
  0
LINE
  5
B5E
330
1A
100
AcDbEntity
  8
ZUWAKU
100
AcDbLine
 10
223.7121815025968
 20
14.99999996135637
 30
0.0
 11
223.7121815025968
 21
0.3999999613564
 31
0.0
  0
LINE
  5
B5F
330
1A
100
AcDbEntity
  8
ZUWAKU
100
AcDbLine
 10
223.9121815025967
 20
14.99999996135637
 30
0.0
 11
223.9121815025968
 21
0.3999999613564
 31
0.0
  0
LINE
  5
B60
330
1A
100
AcDbEntity
  8
ZUWAKU
100
AcDbLine
 10
223.8121815025967
 20
14.99999996135637
 30
0.0
 11
223.8121815025968
 21
0.3999999613564
 31
0.0
  0
TEXT
  5
B61
330
1A
100
AcDbEntity
  8
moji
100
AcDbText
 10
231.2836386780954
 20
5.971308822186359
 30
0.0
 40
2.8
  1
ＬＬ８０Ｇ
 41
0.9
  7
ｽﾀｲﾙ1
100
AcDbText
  0
TEXT
  5
B63
330
1A
100
AcDbEntity
  8
ZUWAKU
100
AcDbText
 10
253.3383117772764
 20
4.827678230549175
 30
0.0
 40
2.0
  1
縮尺
 41
0.9
  7
ｽﾀｲﾙ1
100
AcDbText
  0
TEXT
  5
B64
330
1A
100
AcDbEntity
  8
moji
100
AcDbText
 10
264.0204535032575
 20
1.602460490060077
 30
0.0
 40
2.8
  1
１/１
 41
0.9
  7
ｽﾀｲﾙ1
100
AcDbText
  0
TEXT
  5
B65
330
1A
100
AcDbEntity
  8
ZUWAKU
100
AcDbText
 10
224.6509040137015
 20
12.02767823054916
 30
0.0
 40
2.0
  1
品番
 41
0.9
  7
ｽﾀｲﾙ1
100
AcDbText
  0
TEXT
  5
B66
330
1A
100
AcDbEntity
  8
ZUWAKU
100
AcDbText
 10
253.3383117772763
 20
12.02767823054916
 30
0.0
 40
2.0
  1
用紙
 41
0.9
  7
ｽﾀｲﾙ1
100
AcDbText
  0
LINE
  5
B67
330
1A
100
AcDbEntity
  8
ZUWAKU
100
AcDbLine
 10
276.2634774001573
 20
14.99999996135637
 30
0.0
 11
276.2634774001573
 21
0.3999999613564
 31
0.0
  0
LINE
  5
B68
330
1A
100
AcDbEntity
  8
ZUWAKU
100
AcDbLine
 10
276.4634774001572
 20
14.99999996135637
 30
0.0
 11
276.4634774001573
 21
0.3999999613564
 31
0.0
  0
LINE
  5
B69
330
1A
100
AcDbEntity
  8
ZUWAKU
100
AcDbLine
 10
276.3634774001572
 20
14.99999996135637
 30
0.0
 11
276.3634774001573
 21
0.3999999613564
 31
0.0
  0
LINE
  5
B6A
330
1A
100
AcDbEntity
  8
ZUWAKU
100
AcDbLine
 10
324.2086007722033
 20
14.99999996135637
 30
0.0
 11
324.2086007722033
 21
0.3999999613564
 31
0.0
  0
LINE
  5
B6B
330
1A
100
AcDbEntity
  8
ZUWAKU
100
AcDbLine
 10
324.4086007722033
 20
14.99999996135637
 30
0.0
 11
324.4086007722034
 21
0.3999999613564
 31
0.0
  0
LINE
  5
B6C
330
1A
100
AcDbEntity
  8
ZUWAKU
100
AcDbLine
 10
324.3086007722033
 20
14.99999996135637
 30
0.0
 11
324.3086007722034
 21
0.3999999613564
 31
0.0
  0
TEXT
  5
B6D
330
1A
100
AcDbEntity
  8
ZUWAKU
100
AcDbText
 10
325.1473232833081
 20
12.02767823054916
 30
0.0
 40
2.0
  1
DATE
 41
0.9
  7
ｽﾀｲﾙ1
100
AcDbText
  0
TEXT
  5
B6E
330
1A
100
AcDbEntity
  8
ZUWAKU
100
AcDbText
 10
354.264041613223
 20
8.776919629199767
 30
0.0
 40
3.0
  1
積水化学工業株式会社
 41
0.9
  7
ｽﾀｲﾙ1
100
AcDbText
  0
LINE
  5
B6F
330
1A
100
AcDbEntity
  8
ZUWAKU
100
AcDbLine
 10
348.9245047913717
 20
14.99999996135637
 30
0.0
 11
348.9245047913718
 21
0.3999999613564
 31
0.0
  0
LINE
  5
B70
330
1A
100
AcDbEntity
  8
ZUWAKU
100
AcDbLine
 10
348.8245047913716
 20
14.99999996135637
 30
0.0
 11
348.8245047913717
 21
0.3999999613564
 31
0.0
  0
LINE
  5
B71
330
1A
100
AcDbEntity
  8
ZUWAKU
100
AcDbLine
 10
348.7245047913717
 20
14.99999996135637
 30
0.0
 11
348.7245047913717
 21
0.3999999613564
 31
0.0
  0
LINE
  5
B72
330
1A
100
AcDbEntity
  8
ZUWAKU
100
AcDbLine
 10
348.6245047913717
 20
14.99999996135637
 30
0.0
 11
348.6245047913717
 21
0.3999999613564
 31
0.0
  0
TEXT
  5
B73
330
1A
100
AcDbEntity
  8
ZUWAKU
100
AcDbText
 10
354.264041613223
 20
3.324420118283399
 30
0.0
 40
3.0
  1
建材事業部
 41
0.9
  7
ｽﾀｲﾙ1
100
AcDbText
  0
DIMENSION
  5
399C
330
1A
100
AcDbEntity
  8
SUNPOU
100
AcDbDimension
  2
*D1
 10
216.970634577614
 20
178.0336234521341
 30
0.0
 11
214.4706345776139
 21
203.6854869521341
 31
0.0
 70
    32
 71
     5
 42
51.30372699999998
  3
STANDARD
100
AcDbAlignedDimension
 13
197.3920785191558
 23
229.3373504521341
 33
0.0
 14
197.3920785191558
 24
178.0336234521341
 34
0.0
 50
90.0
100
AcDbRotatedDimension
1001
ACAD
1000
DSTYLE
1002
{
1070
   140
1040
3.0
1070
    74
1070
     0
1070
   172
1070
     1
1070
    73
1070
     0
1070
   272
1070
     0
1070
    77
1070
     3
1070
   173
1070
     1
1070
   147
1040
1.0
1070
    42
1040
3.0
1070
    44
1040
1.5
1070
    43
1040
7.0
1070
   271
1070
     0
1070
   178
1070
   256
1070
   177
1070
   256
1070
   176
1070
   256
1070
   141
1040
3.0
1070
     7
1000
OPEN
1070
     6
1000
OPEN
1070
    41
1040
3.0
1002
}
  0
DIMENSION
  5
399D
330
1A
100
AcDbEntity
  8
SUNPOU
100
AcDbDimension
  2
*D2
 10
232.3917685191559
 20
146.3685186567851
 30
0.0
 11
214.8917685191559
 21
148.8685186567851
 31
0.0
 70
    32
 71
     5
 42
35.0
  3
STANDARD
100
AcDbAlignedDimension
 13
197.3917685191559
 23
119.5590495020553
 33
0.0
 14
232.3917685191559
 24
121.7804825020551
 34
0.0
100
AcDbRotatedDimension
1001
ACAD
1000
DSTYLE
1002
{
1070
   140
1040
3.0
1070
    74
1070
     0
1070
   172
1070
     1
1070
    73
1070
     0
1070
   272
1070
     0
1070
    77
1070
     3
1070
   173
1070
     1
1070
   147
1040
1.0
1070
    42
1040
3.0
1070
    44
1040
1.5
1070
    43
1040
7.0
1070
   271
1070
     0
1070
   178
1070
   256
1070
   177
1070
   256
1070
   176
1070
   256
1070
   141
1040
3.0
1070
     7
1000
OPEN
1070
     6
1000
OPEN
1070
    41
1040
3.0
1002
}
  0
DIMENSION
  5
399E
330
1A
100
AcDbEntity
  8
SUNPOU
100
AcDbDimension
  2
*D3
 10
217.0494927320888
 20
83.5590495020553
 30
0.0
 11
214.5494927320887
 21
105.4916725020553
 31
0.0
 70
    32
 71
     5
 42
43.86524599999996
  3
STANDARD
100
AcDbAlignedDimension
 13
189.3552575191559
 23
127.4242955020553
 33
0.0
 14
197.3917685191559
 24
83.5590495020553
 34
0.0
 50
90.0
100
AcDbRotatedDimension
1001
ACAD
1000
DSTYLE
1002
{
1070
   140
1040
3.0
1070
    74
1070
     0
1070
   172
1070
     1
1070
    73
1070
     0
1070
   272
1070
     0
1070
    77
1070
     3
1070
   173
1070
     1
1070
   147
1040
1.0
1070
    42
1040
3.0
1070
    44
1040
1.5
1070
    43
1040
7.0
1070
   271
1070
     0
1070
   178
1070
   256
1070
   177
1070
   256
1070
   176
1070
   256
1070
   141
1040
3.0
1070
     7
1000
OPEN
1070
     6
1000
OPEN
1070
    41
1040
3.0
1002
}
  0
DIMENSION
  5
399F
330
1A
100
AcDbEntity
  8
SUNPOU
100
AcDbDimension
  2
*D4
 10
207.8317950411015
 20
83.5590495020553
 30
0.0
 11
205.3317950411015
 21
101.5590495020553
 31
0.0
 70
    32
 71
     5
 42
36.0
  3
STANDARD
100
AcDbAlignedDimension
 13
197.3917685191559
 23
119.5590495020553
 33
0.0
 14
197.3917685191559
 24
83.5590495020553
 34
0.0
 50
90.0
100
AcDbRotatedDimension
1001
ACAD
1000
DSTYLE
1002
{
1070
   140
1040
3.0
1070
    74
1070
     0
1070
   172
1070
     1
1070
    73
1070
     0
1070
   272
1070
     0
1070
    77
1070
     3
1070
   173
1070
     1
1070
   147
1040
1.0
1070
    42
1040
3.0
1070
    44
1040
1.5
1070
    43
1040
7.0
1070
   271
1070
     0
1070
   178
1070
   256
1070
   177
1070
   256
1070
   176
1070
   256
1070
   141
1040
3.0
1070
     7
1000
OPEN
1070
     6
1000
OPEN
1070
    41
1040
3.0
1002
}
  0
DIMENSION
  5
39A0
330
1A
100
AcDbEntity
  8
SUNPOU
100
AcDbDimension
  2
*D5
 10
65.93234168306751
 20
145.9715752010342
 30
0.0
 11
131.6620551011117
 21
148.4715752010342
 31
0.0
 70
    32
 71
     5
 42
131.4594268360884
  3
STANDARD
100
AcDbAlignedDimension
 13
197.3917685191559
 23
121.7804825020553
 33
0.0
 14
65.93234168306751
 24
115.6097325678568
 34
0.0
100
AcDbRotatedDimension
1001
ACAD
1000
DSTYLE
1002
{
1070
   140
1040
3.0
1070
    74
1070
     0
1070
   172
1070
     1
1070
    73
1070
     0
1070
   272
1070
     0
1070
    77
1070
     3
1070
   173
1070
     1
1070
   147
1040
1.0
1070
    42
1040
3.0
1070
    44
1040
1.5
1070
    43
1040
7.0
1070
   271
1070
     0
1070
   178
1070
   256
1070
   177
1070
   256
1070
   176
1070
   256
1070
   141
1040
3.0
1070
     7
1000
OPEN
1070
     6
1000
OPEN
1070
    41
1040
3.0
1002
}
  0
DIMENSION
  5
39A1
330
1A
100
AcDbEntity
  8
SUNPOU
100
AcDbDimension
  2
*D6
 10
197.3917685191559
 20
136.3655810326956
 30
0.0
 11
192.8313586089172
 21
138.8655810326956
 31
0.0
 70
    32
  1
10
 71
     5
 42
9.120819820477493
  3
STANDARD
100
AcDbAlignedDimension
 13
188.2709486986784
 23
91.51942747292961
 33
0.0
 14
197.3917685191559
 24
119.5590495020553
 34
0.0
100
AcDbRotatedDimension
1001
ACAD
1000
DSTYLE
1002
{
1070
   140
1040
3.0
1070
    74
1070
     0
1070
   172
1070
     1
1070
    73
1070
     0
1070
   272
1070
     0
1070
    77
1070
     3
1070
   173
1070
     1
1070
   147
1040
1.0
1070
    42
1040
3.0
1070
    44
1040
1.5
1070
    43
1040
7.0
1070
   271
1070
     0
1070
   178
1070
   256
1070
   177
1070
   256
1070
   176
1070
   256
1070
   141
1040
3.0
1070
     7
1000
OPEN
1070
     6
1000
OPEN
1070
    41
1040
3.0
1002
}
  0
DIMENSION
  5
39A2
330
1A
100
AcDbEntity
  8
SUNPOU
100
AcDbDimension
  2
*D7
 10
42.49628965656709
 20
83.55904950205535
 30
0.0
 11
39.99628965656708
 21
103.1955190020553
 31
0.0
 70
    32
 71
     5
 42
39.27293899999992
  3
STANDARD
100
AcDbAlignedDimension
 13
66.50074451915589
 23
122.8319885020553
 33
0.0
 14
191.6917685191559
 24
83.5590495020553
 34
0.0
 50
90.0
100
AcDbRotatedDimension
1001
ACAD
1000
DSTYLE
1002
{
1070
    41
1040
3.0
1070
    42
1040
3.0
1070
    43
1040
7.0
1070
    44
1040
1.5
1070
    73
1070
     0
1070
    74
1070
     0
1070
    77
1070
     3
1070
   140
1040
3.0
1070
   141
1040
3.0
1070
   147
1040
1.0
1070
   172
1070
     1
1070
   173
1070
     1
1070
   176
1070
   256
1070
   177
1070
   256
1070
   178
1070
   256
1070
   271
1070
     0
1070
   272
1070
     0
1070
   341
1005
B2
1070
     6
1000
OPEN
1070
     7
1000
OPEN
1002
}
  0
LINE
  5
39A3
330
1A
100
AcDbEntity
  8
SEIHIN
100
AcDbLine
 10
76.05861351915587
 20
114.4528145020553
 30
0.0
 11
68.88935951915573
 21
114.4528145020553
 31
0.0
  0
LINE
  5
39A4
330
1A
100
AcDbEntity
  8
SEIHIN
100
AcDbLine
 10
73.8797025191559
 20
112.5914595020553
 30
0.0
 11
76.69394851915581
 21
92.4893475020553
 31
0.0
  0
ARC
  5
39A5
330
1A
100
AcDbEntity
  8
SEIHIN
100
AcDbCircle
 10
67.92617651915589
 20
115.4528145020553
 30
0.0
 40
2.000000158243612
100
AcDbArc
 50
175.5000039676388
 51
269.999997752317
  0
LINE
  5
39A6
330
1A
100
AcDbEntity
  8
SEIHIN
100
AcDbLine
 10
67.0197805191558
 20
116.6814595020553
 30
0.0
 11
69.34366751915582
 21
114.4528145020553
 31
0.0
  0
LINE
  5
39A7
330
1A
100
AcDbEntity
  8
SEIHIN
100
AcDbLine
 10
66.92925851915584
 20
115.5312735020553
 30
0.0
 11
67.49766251915571
 21
122.7535295020553
 31
0.0
  0
LINE
  5
39A8
330
1A
100
AcDbEntity
  8
SEIHIN
100
AcDbLine
 10
72.88935951915573
 20
113.4528145020553
 30
0.0
 11
67.92617651915589
 21
113.4528145020553
 31
0.0
  0
ARC
  5
39A9
330
1A
100
AcDbEntity
  8
SEIHIN
100
AcDbCircle
 10
67.92617651915589
 20
115.4528145020553
 30
0.0
 40
0.9999998298924711
100
AcDbArc
 50
175.5000039676388
 51
270.0
  0
LINE
  5
39AA
330
1A
100
AcDbEntity
  8
SEIHIN
100
AcDbLine
 10
67.92617651915589
 20
114.4528145020553
 30
0.0
 11
68.88935951915573
 21
114.4528145020553
 31
0.0
  0
LINE
  5
39AB
330
1A
100
AcDbEntity
  8
SEIHIN
100
AcDbLine
 10
73.05122851915576
 20
113.4528145020553
 30
0.0
 11
73.05311851915576
 21
113.4393145020553
 31
0.0
  0
LINE
  5
39AC
330
1A
100
AcDbEntity
  8
SEIHIN
100
AcDbLine
 10
72.88935951915573
 20
114.4528145020553
 30
0.0
 11
72.88935951915573
 21
113.4528145020553
 31
0.0
  0
LINE
  5
39AD
330
1A
100
AcDbEntity
  8
SEIHIN
100
AcDbLine
 10
71.18215251915581
 20
114.4528145020553
 30
0.0
 11
71.18215251915581
 21
113.4528145020553
 31
0.0
  0
ARC
  5
39AE
330
1A
100
AcDbEntity
  8
SEIHIN
100
AcDbCircle
 10
72.88935951915573
 20
112.4528145020553
 30
0.0
 40
0.9999999282472448
100
AcDbArc
 50
7.969446976178607
 51
90.0
  0
LINE
  5
39AF
330
1A
100
AcDbEntity
  8
SEIHIN
100
AcDbLine
 10
65.9323415191559
 20
115.6097325020553
 30
0.0
 11
66.50074451915589
 21
122.8319885020553
 31
0.0
  0
LINE
  5
39B0
330
1A
100
AcDbEntity
  8
SEIHIN
100
AcDbLine
 10
67.49766251915571
 20
122.7535295020553
 30
0.0
 11
66.50074451915589
 21
122.8319885020553
 31
0.0
  0
LINE
  5
39B1
330
1A
100
AcDbEntity
  8
SEIHIN
100
AcDbLine
 10
173.6517005191558
 20
115.9605195020553
 30
0.0
 11
131.9171385191557
 21
110.2694425020553
 31
0.0
  0
LINE
  5
39B2
330
1A
100
AcDbEntity
  8
SEIHIN
100
AcDbLine
 10
172.8917685191559
 20
118.8846565020553
 30
0.0
 11
132.1249315191558
 21
113.3255425020553
 31
0.0
  0
LINE
  5
39B3
330
1A
100
AcDbEntity
  8
SEIHIN
100
AcDbLine
 10
172.5539855191557
 20
121.3617315020553
 30
0.0
 11
131.7871485191558
 21
115.8026175020553
 31
0.0
  0
LINE
  5
39B4
330
1A
100
AcDbEntity
  8
SEIHIN
100
AcDbLine
 10
108.6418435191558
 20
92.32122050205527
 30
0.0
 11
145.7443535191558
 21
92.32122050205527
 31
0.0
  0
LINE
  5
39B5
330
1A
100
AcDbEntity
  8
SEIHIN
100
AcDbLine
 10
108.6418265191558
 20
87.32122050205527
 30
0.0
 11
145.7443535191558
 21
87.32122050205527
 31
0.0
  0
LINE
  5
39B6
330
1A
100
AcDbEntity
  8
SEIHIN
100
AcDbLine
 10
125.7280695191557
 20
110.8675425020553
 30
0.0
 11
119.1823085191559
 21
92.32122050205527
 31
0.0
  0
LINE
  5
39B7
330
1A
100
AcDbEntity
  8
SEIHIN
100
AcDbLine
 10
131.1090955191557
 20
109.6109625020553
 30
0.0
 11
125.0165195191557
 21
92.32122050205527
 31
0.0
  0
LINE
  5
39B8
330
1A
100
AcDbEntity
  8
SEIHIN
100
AcDbLine
 10
128.0855455191559
 20
110.0354925020553
 30
0.0
 11
121.8334495191557
 21
92.32122050205527
 31
0.0
  0
ARC
  5
39B9
330
1A
100
AcDbEntity
  8
SEIHIN
100
AcDbCircle
 10
82.63600051915569
 20
93.32122050205527
 30
0.0
 40
0.9999999282472448
100
AcDbArc
 50
187.9694469761786
 51
270.0
  0
LINE
  5
39BA
330
1A
100
AcDbEntity
  8
SEIHIN
100
AcDbLine
 10
90.8917685191559
 20
97.82122750205525
 30
0.0
 11
90.8917685191559
 21
90.62126250205529
 31
0.0
  0
LINE
  5
39BB
330
1A
100
AcDbEntity
  8
SEIHIN
100
AcDbLine
 10
91.1417685191559
 20
98.12126250205529
 30
0.0
 11
91.1417685191559
 21
90.62126250205529
 31
0.0
  0
LINE
  5
39BC
330
1A
100
AcDbEntity
  8
SEIHIN
100
AcDbLine
 10
87.6417685191559
 20
98.1212595020553
 30
0.0
 11
87.6417685191559
 21
90.6212595020553
 31
0.0
  0
LINE
  5
39BD
330
1A
100
AcDbEntity
  8
SEIHIN
100
AcDbLine
 10
87.8917685191559
 20
90.62126250205529
 30
0.0
 11
87.8917685191559
 21
97.82122750205525
 31
0.0
  0
LINE
  5
39BE
330
1A
100
AcDbEntity
  8
SEIHIN
100
AcDbLine
 10
108.6418185191558
 20
85.32130350205529
 30
0.0
 11
108.6418685191559
 21
99.32126250205528
 31
0.0
  0
ARC
  5
39BF
330
1A
100
AcDbEntity
  8
SEIHIN
100
AcDbCircle
 10
82.63600051915569
 20
93.32122050205527
 30
0.0
 40
5.999999777451366
100
AcDbArc
 50
187.9694469761786
 51
269.9999716287842
  0
LINE
  5
39C0
330
1A
100
AcDbEntity
  8
SEIHIN
100
AcDbLine
 10
85.64181851915578
 20
85.32130350205529
 30
0.0
 11
85.64186851915588
 21
99.32126050205528
 31
0.0
  0
LINE
  5
39C1
330
1A
100
AcDbEntity
  8
SEIHIN
100
AcDbLine
 10
85.64181851915578
 20
85.32130350205529
 30
0.0
 11
108.6418185191558
 21
85.32130350205529
 31
0.0
  0
LINE
  5
39C2
330
1A
100
AcDbEntity
  8
SEIHIN
100
AcDbLine
 10
87.6417685191559
 20
90.6212595020553
 30
0.0
 11
91.1417685191559
 21
90.62126250205529
 31
0.0
  0
LINE
  5
39C3
330
1A
100
AcDbEntity
  8
SEIHIN
100
AcDbLine
 10
82.63600051915569
 20
92.32122050205527
 30
0.0
 11
85.64184351915583
 21
92.32122050205527
 31
0.0
  0
LINE
  5
39C4
330
1A
100
AcDbEntity
  8
SEIHIN
100
AcDbLine
 10
82.63600051915569
 20
87.32122050205527
 30
0.0
 11
85.64182651915576
 21
87.32122050205527
 31
0.0
  0
ARC
  5
39C5
330
1A
100
AcDbEntity
  8
SEIHIN
100
AcDbCircle
 10
106.9450925191559
 20
102.6679075020553
 30
0.0
 40
1.999999844935613
100
AcDbArc
 50
65.24462387884947
 51
90.00010203811519
  0
ARC
  5
39C6
330
1A
100
AcDbEntity
  8
SEIHIN
100
AcDbCircle
 10
97.14187051915587
 20
88.59639250205527
 30
0.0
 40
15.72491078112709
100
AcDbArc
 50
43.00252833503259
 51
136.9974830730986
  0
LINE
  5
39C7
330
1A
100
AcDbEntity
  8
SEIHIN
100
AcDbLine
 10
91.14174351915585
 20
93.32130350205529
 30
0.0
 11
108.6418185191558
 21
93.32130350205529
 31
0.0
  0
LINE
  5
39C8
330
1A
100
AcDbEntity
  8
SEIHIN
100
AcDbLine
 10
90.8917685191559
 20
97.82122750205525
 30
0.0
 11
87.8917685191559
 21
97.82122750205525
 31
0.0
  0
LINE
  5
39C9
330
1A
100
AcDbEntity
  8
SEIHIN
100
AcDbLine
 10
87.6417685191559
 20
98.1212595020553
 30
0.0
 11
91.1417685191559
 21
98.12126250205529
 31
0.0
  0
LINE
  5
39CA
330
1A
100
AcDbEntity
  8
SEIHIN
100
AcDbLine
 10
79.02964051915569
 20
111.8687505020553
 30
0.0
 11
81.64565851915586
 21
93.18257450205527
 31
0.0
  0
LINE
  5
39CB
330
1A
100
AcDbEntity
  8
SEIHIN
100
AcDbLine
 10
85.64181851915578
 20
93.32130350205529
 30
0.0
 11
87.64174351915585
 21
93.32130350205529
 31
0.0
  0
ARC
  5
39CC
330
1A
100
AcDbEntity
  8
SEIHIN
100
AcDbCircle
 10
76.05861351915587
 20
111.4528145020553
 30
0.0
 40
2.999999854064327
100
AcDbArc
 50
7.96944697617947
 51
89.99998108585706
  0
LINE
  5
39CD
330
1A
100
AcDbEntity
  8
SEIHIN
100
AcDbLine
 10
91.38381451915575
 20
103.6679025020553
 30
0.0
 11
91.38380751915588
 21
104.6678865020553
 31
0.0
  0
CIRCLE
  5
39CE
330
1A
100
AcDbEntity
  8
SEIHIN
100
AcDbCircle
 10
97.14188851915583
 20
99.32126250205528
 30
0.0
 40
2.15
  0
LINE
  5
39CF
330
1A
100
AcDbEntity
  8
SEIHIN
100
AcDbLine
 10
92.36184051915575
 20
103.6679035020553
 30
0.0
 11
91.38381451915575
 21
103.6679025020553
 31
0.0
  0
LINE
  5
39D0
330
1A
100
AcDbEntity
  8
SEIHIN
100
AcDbLine
 10
106.9450895191558
 20
104.6679075020553
 30
0.0
 11
91.38380751915588
 21
104.6678865020553
 31
0.0
  0
ARC
  5
39D1
330
1A
100
AcDbEntity
  8
SEIHIN
100
AcDbCircle
 10
132.8004975191559
 20
108.3713915020553
 30
0.0
 40
7.500000197431461
100
AcDbArc
 50
97.76515569653493
 51
160.5599559187035
  0
LINE
  5
39D2
330
1A
100
AcDbEntity
  8
SEIHIN
100
AcDbLine
 10
125.5208045191557
 20
116.2895445020553
 30
0.0
 11
120.1695445191558
 21
101.1276405020553
 31
0.0
  0
LINE
  5
39D3
330
1A
100
AcDbEntity
  8
SEIHIN
100
AcDbLine
 10
128.7452875191559
 20
123.9232655020553
 30
0.0
 11
120.6410395191558
 21
100.9612305020553
 31
0.0
  0
LINE
  5
39D4
330
1A
100
AcDbEntity
  8
SEIHIN
100
AcDbLine
 10
129.6882785191558
 20
123.5904455020553
 30
0.0
 11
121.5272315191558
 21
100.4674805020553
 31
0.0
  0
LINE
  5
39D5
330
1A
100
AcDbEntity
  8
SEIHIN
100
AcDbLine
 10
117.4615555191558
 20
100.0209405020553
 30
0.0
 11
107.7825825191558
 21
104.4841155020553
 31
0.0
  0
LINE
  5
39D6
330
1A
100
AcDbEntity
  8
SEIHIN
100
AcDbLine
 10
118.6982595191557
 20
98.46594050205528
 30
0.0
 11
108.6152545191558
 21
98.46594250205527
 31
0.0
  0
ARC
  5
39D7
330
1A
100
AcDbEntity
  8
SEIHIN
100
AcDbCircle
 10
118.6982605191558
 20
101.4659405020553
 30
0.0
 40
2.999999940870082
100
AcDbArc
 50
269.9999883784511
 51
340.5599599066717
  0
ARC
  5
39D8
330
1A
100
AcDbEntity
  8
SEIHIN
100
AcDbCircle
 10
118.2990465191558
 20
101.8371475020553
 30
0.0
 40
2.00000009820312
100
AcDbArc
 50
245.2446238788494
 51
340.5599821720813
  0
ARC
  5
39D9
330
1A
100
AcDbEntity
  8
SEIHIN
100
AcDbCircle
 10
118.7550595191558
 20
101.6268705020553
 30
0.0
 40
2.00000009820312
100
AcDbArc
 50
245.2446238788494
 51
340.5599821720813
  0
ARC
  5
39DA
330
1A
100
AcDbEntity
  8
SEIHIN
100
AcDbCircle
 10
132.0522515191558
 20
109.2786125020553
 30
0.0
 40
1.000000089458492
100
AcDbArc
 50
97.76515569653746
 51
160.5885380977539
  0
ARC
  5
39DB
330
1A
100
AcDbEntity
  8
SEIHIN
100
AcDbCircle
 10
132.8004975191559
 20
108.3713915020553
 30
0.0
 40
4.999999758966238
100
AcDbArc
 50
97.76515569653493
 51
160.559955823277
  0
ARC
  5
39DC
330
1A
100
AcDbEntity
  8
SEIHIN
100
AcDbCircle
 10
125.9923005191558
 20
116.1231345020553
 30
0.0
 40
0.5
100
AcDbArc
 50
70.55996517181951
 51
160.5599651718254
  0
LINE
  5
39DD
330
1A
100
AcDbEntity
  8
SEIHIN
100
AcDbLine
 10
129.6882785191558
 20
123.5904455020553
 30
0.0
 11
128.7452875191559
 21
123.9232655020553
 31
0.0
  0
ARC
  5
39DE
330
1A
100
AcDbEntity
  8
SEIHIN
100
AcDbCircle
 10
145.7443535191558
 20
86.82122050205527
 30
0.0
 40
5.499999922058408
100
AcDbArc
 50
50.19443624371149
 51
90.00000600216328
  0
LINE
  5
39DF
330
1A
100
AcDbEntity
  8
SEIHIN
100
AcDbLine
 10
188.6927445191559
 20
105.0201385020553
 30
0.0
 11
188.2709485191558
 21
91.51942850205529
 31
0.0
  0
LINE
  5
39E0
330
1A
100
AcDbEntity
  8
SEIHIN
100
AcDbLine
 10
190.6917685191559
 20
104.9576835020553
 30
0.0
 11
190.2699725191558
 21
91.45697350205529
 31
0.0
  0
LINE
  5
39E1
330
1A
100
AcDbEntity
  8
SEIHIN
100
AcDbLine
 10
166.3012535191558
 20
107.6058475020553
 30
0.0
 11
159.7057475191557
 21
88.88887050205528
 31
0.0
  0
LINE
  5
39E2
330
1A
100
AcDbEntity
  8
SEIHIN
100
AcDbLine
 10
168.1875655191559
 20
106.9411465020553
 30
0.0
 11
161.5920595191558
 21
88.22416950205525
 31
0.0
  0
LINE
  5
39E3
330
1A
100
AcDbEntity
  8
SEIHIN
100
AcDbLine
 10
196.1917685191559
 20
119.5590495020553
 30
0.0
 11
196.1917685191559
 21
83.5590495020553
 31
0.0
  0
LINE
  5
39E4
330
1A
100
AcDbEntity
  8
SEIHIN
100
AcDbLine
 10
191.6917685191559
 20
83.5590495020553
 30
0.0
 11
191.6917685191559
 21
119.5590495020553
 31
0.0
  0
LINE
  5
39E5
330
1A
100
AcDbEntity
  8
SEIHIN
100
AcDbLine
 10
197.3917685191559
 20
119.5590495020553
 30
0.0
 11
197.3917685191559
 21
83.5590495020553
 31
0.0
  0
LINE
  5
39E6
330
1A
100
AcDbEntity
  8
SEIHIN
100
AcDbLine
 10
159.3064835191558
 20
86.22122050205525
 30
0.0
 11
174.3986765191557
 21
86.22122050205525
 31
0.0
  0
LINE
  5
39E7
330
1A
100
AcDbEntity
  8
SEIHIN
100
AcDbLine
 10
159.3064835191558
 20
85.82122050205527
 30
0.0
 11
175.4954525191558
 21
85.82122050205527
 31
0.0
  0
LINE
  5
39E8
330
1A
100
AcDbEntity
  8
SEIHIN
100
AcDbLine
 10
151.9189625191557
 20
83.82122050205527
 30
0.0
 11
156.9189625191557
 21
83.82122050205527
 31
0.0
  0
LINE
  5
39E9
330
1A
100
AcDbEntity
  8
SEIHIN
100
AcDbLine
 10
149.4684535191559
 20
84.82122050205527
 30
0.0
 11
159.3064835191558
 21
84.82122050205527
 31
0.0
  0
ARC
  5
39EA
330
1A
100
AcDbEntity
  8
SEIHIN
100
AcDbCircle
 10
155.3064835191558
 20
85.82122050205527
 30
0.0
 40
4.0
100
AcDbArc
 50
0.0
 51
90.0
  0
LINE
  5
39EB
330
1A
100
AcDbEntity
  8
SEIHIN
100
AcDbLine
 10
146.0644455191557
 20
87.20533150205529
 30
0.0
 11
148.5081765191558
 21
85.16888850205527
 31
0.0
  0
ARC
  5
39EC
330
1A
100
AcDbEntity
  8
SEIHIN
100
AcDbCircle
 10
145.7443535191558
 20
86.82122050205527
 30
0.0
 40
0.500000074392489
100
AcDbArc
 50
50.19443624371816
 51
89.99996332013924
  0
ARC
  5
39ED
330
1A
100
AcDbEntity
  8
SEIHIN
100
AcDbCircle
 10
151.9189625191557
 20
84.32122050205527
 30
0.0
 40
0.5
100
AcDbArc
 50
180.0000000235017
 51
270.0000000235017
  0
LINE
  5
39EE
330
1A
100
AcDbEntity
  8
SEIHIN
100
AcDbLine
 10
151.4189625191557
 20
84.82122050205527
 30
0.0
 11
151.4189625191557
 21
84.32122050205527
 31
0.0
  0
ARC
  5
39EF
330
1A
100
AcDbEntity
  8
SEIHIN
100
AcDbCircle
 10
149.4684535191559
 20
86.32122050205527
 30
0.0
 40
1.500000159158816
100
AcDbArc
 50
230.1944362437104
 51
270.0000171172698
  0
LINE
  5
39F0
330
1A
100
AcDbEntity
  8
SEIHIN
100
AcDbLine
 10
150.7356275191557
 20
89.82122050205527
 30
0.0
 11
155.3064835191558
 21
89.82122050205527
 31
0.0
  0
LINE
  5
39F1
330
1A
100
AcDbEntity
  8
SEIHIN
100
AcDbLine
 10
149.2653675191557
 20
91.04643750205526
 30
0.0
 11
150.7356275191557
 21
89.82122050205527
 31
0.0
  0
ARC
  5
39F2
330
1A
100
AcDbEntity
  8
SEIHIN
100
AcDbCircle
 10
158.7625915191559
 20
89.22122050205525
 30
0.0
 40
3.00000013857666
100
AcDbArc
 50
279.9629866944945
 51
340.5885311066115
  0
LINE
  5
39F3
330
1A
100
AcDbEntity
  8
SEIHIN
100
AcDbLine
 10
162.3411565191559
 20
84.82122050205527
 30
0.0
 11
159.3064835191558
 21
84.82122050205527
 31
0.0
  0
ARC
  5
39F4
330
1A
100
AcDbEntity
  8
SEIHIN
100
AcDbCircle
 10
156.9189625191557
 20
84.32122050205527
 30
0.0
 40
0.5
100
AcDbArc
 50
270.0000000352525
 51
0.0000000352525556
  0
LINE
  5
39F5
330
1A
100
AcDbEntity
  8
SEIHIN
100
AcDbLine
 10
157.4189625191557
 20
84.82122050205527
 30
0.0
 11
157.4189625191557
 21
84.32122050205527
 31
0.0
  0
LINE
  5
39F6
330
1A
100
AcDbEntity
  8
SEIHIN
100
AcDbLine
 10
159.3064835191558
 20
85.82122050205527
 30
0.0
 11
159.3064835191558
 21
84.82122050205527
 31
0.0
  0
LINE
  5
39F7
330
1A
100
AcDbEntity
  8
SEIHIN
100
AcDbLine
 10
162.3411565191559
 20
85.82122050205527
 30
0.0
 11
162.3411565191559
 21
84.82122050205527
 31
0.0
  0
ARC
  5
39F8
330
1A
100
AcDbEntity
  8
SEIHIN
100
AcDbCircle
 10
158.7625915191559
 20
89.22122050205525
 30
0.0
 40
0.9999999407089966
100
AcDbArc
 50
270.0000000354349
 51
340.5885244991819
  0
LINE
  5
39F9
330
1A
100
AcDbEntity
  8
SEIHIN
100
AcDbLine
 10
158.7625915191559
 20
88.22122050205525
 30
0.0
 11
158.5064835191558
 21
88.22122050205525
 31
0.0
  0
LINE
  5
39FA
330
1A
100
AcDbEntity
  8
CENTER L
 48
3.0
100
AcDbLine
 10
186.6917685191559
 20
89.0590495020553
 30
0.0
 11
202.3917685191559
 21
89.0590495020553
 31
0.0
  0
ARC
  5
39FB
330
1A
100
AcDbEntity
  8
SEIHIN
100
AcDbCircle
 10
187.7711925191559
 20
91.53504150205527
 30
0.0
 40
2.500000216739581
100
AcDbArc
 50
264.5000418284002
 51
358.2104961264325
  0
LINE
  5
39FC
330
1A
100
AcDbEntity
  8
SEIHIN
100
AcDbLine
 10
182.6114625191558
 20
74.95026350205529
 30
0.0
 11
182.6114625191558
 21
88.41938650205526
 31
0.0
  0
LINE
  5
39FD
330
1A
100
AcDbEntity
  8
SEIHIN
100
AcDbLine
 10
180.6114625191558
 20
88.41938650205526
 30
0.0
 11
180.6114625191558
 21
74.95026350205529
 31
0.0
  0
LINE
  5
39FE
330
1A
100
AcDbEntity
  8
SEIHIN
100
AcDbLine
 10
180.6114625191558
 20
88.41938650205526
 30
0.0
 11
180.6114625191558
 21
69.95026350205529
 31
0.0
  0
LINE
  5
39FF
330
1A
100
AcDbEntity
  8
SEIHIN
100
AcDbLine
 10
182.6114625191558
 20
69.95026350205529
 30
0.0
 11
182.6114625191558
 21
88.41938650205526
 31
0.0
  0
LINE
  5
3A00
330
1A
100
AcDbEntity
  8
SEIHIN
100
AcDbLine
 10
182.6114625191558
 20
69.95026350205529
 30
0.0
 11
180.6114625191558
 21
69.95026350205529
 31
0.0
  0
LINE
  5
3A01
330
1A
100
AcDbEntity
  8
SEIHIN
100
AcDbLine
 10
187.5315805191558
 20
89.04655150205525
 30
0.0
 11
180.4197725191557
 21
89.7313325020553
 31
0.0
  0
LINE
  5
3A02
330
1A
100
AcDbEntity
  8
SEIHIN
100
AcDbLine
 10
187.7232695191558
 20
91.03734350205525
 30
0.0
 11
180.6114625191558
 21
91.72212450205529
 31
0.0
  0
ARC
  5
3A03
330
1A
100
AcDbEntity
  8
SEIHIN
100
AcDbCircle
 10
175.4954525191558
 20
87.22122050205525
 30
0.0
 40
1.4
100
AcDbArc
 50
270.0000000882617
 51
0.0000000882616646
  0
ARC
  5
3A04
330
1A
100
AcDbEntity
  8
SEIHIN
100
AcDbCircle
 10
173.4862575191557
 20
87.31144350205528
 30
0.0
 40
1.421652073219744
100
AcDbArc
 50
309.926299230051
 51
333.4919521171932
  0
LINE
  5
3A05
330
1A
100
AcDbEntity
  8
SEIHIN
100
AcDbLine
 10
175.3165855191558
 20
90.82122050205527
 30
0.0
 11
176.8954525191557
 21
90.82122050205527
 31
0.0
  0
ARC
  5
3A06
330
1A
100
AcDbEntity
  8
SEIHIN
100
AcDbCircle
 10
176.2439735191558
 20
90.02122050205526
 30
0.0
 40
1.35731498873364
100
AcDbArc
 50
152.0077035626141
 51
179.9999691711857
  0
ARC
  5
3A07
330
1A
100
AcDbEntity
  8
SEIHIN
100
AcDbCircle
 10
175.3165865191559
 20
90.51416050205529
 30
0.0
 40
0.3070597682291614
100
AcDbArc
 50
90.00000001175208
 51
152.0077599357387
  0
ARC
  5
3A08
330
1A
100
AcDbEntity
  8
SEIHIN
100
AcDbCircle
 10
173.6671535191558
 20
87.22122050205525
 30
0.0
 40
1.219504113536517
100
AcDbArc
 50
333.4919866321936
 51
0.0000129482833926
  0
LINE
  5
3A09
330
1A
100
AcDbEntity
  8
SEIHIN
100
AcDbLine
 10
176.8954525191557
 20
90.82122050205527
 30
0.0
 11
176.8954525191557
 21
87.22122050205525
 31
0.0
  0
LINE
  5
3A0A
330
1A
100
AcDbEntity
  8
SEIHIN
100
AcDbLine
 10
174.8866575191557
 20
87.22122050205525
 30
0.0
 11
174.8866575191557
 21
90.02122050205526
 31
0.0
  0
ARC
  5
3A0B
330
1A
100
AcDbEntity
  8
SEIHIN
100
AcDbCircle
 10
183.6114625191558
 20
88.41938650205526
 30
0.0
 40
2.99999990174308
100
AcDbArc
 50
155.0288311702728
 51
179.9999919372969
  0
LINE
  5
3A0C
330
1A
100
AcDbEntity
  8
SEIHIN
100
AcDbLine
 10
180.4197725191557
 20
89.7313325020553
 30
0.0
 11
180.6114625191558
 21
91.72212450205529
 31
0.0
  0
ARC
  5
3A0D
330
1A
100
AcDbEntity
  8
SEIHIN
100
AcDbCircle
 10
183.6114625191558
 20
88.41938650205526
 30
0.0
 40
2.99999990174308
100
AcDbArc
 50
155.0288311702728
 51
179.9999919372969
  0
ARC
  5
3A0E
330
1A
100
AcDbEntity
  8
SEIHIN
100
AcDbCircle
 10
183.6114625191558
 20
88.41938650205526
 30
0.0
 40
0.9999998652102318
100
AcDbArc
 50
84.50004182839777
 51
180.0
  0
ARC
  5
3A0F
330
1A
100
AcDbEntity
  8
SEIHIN
100
AcDbCircle
 10
183.6114625191558
 20
88.41938650205526
 30
0.0
 40
0.9999998652102318
100
AcDbArc
 50
84.50004182839777
 51
180.0
  0
ARC
  5
3A10
330
1A
100
AcDbEntity
  8
SEIHIN
100
AcDbCircle
 10
187.7711925191559
 20
91.53504150205527
 30
0.0
 40
0.5000000368764973
100
AcDbArc
 50
264.5000418284109
 51
358.210473256162
  0
LINE
  5
3A11
330
1A
100
AcDbEntity
  8
SEIHIN
100
AcDbLine
 10
191.6917685191559
 20
83.5590495020553
 30
0.0
 11
197.3917685191559
 21
83.5590495020553
 31
0.0
  0
LINE
  5
3A12
330
1A
100
AcDbEntity
  8
SEIHIN
100
AcDbLine
 10
169.7933315191558
 20
108.2566725020553
 30
0.0
 11
182.9938155191558
 21
110.1268385020553
 31
0.0
  0
LINE
  5
3A13
330
1A
100
AcDbEntity
  8
SEIHIN
100
AcDbLine
 10
182.7132695191558
 20
112.1070645020553
 30
0.0
 11
169.5127845191557
 21
110.2368975020553
 31
0.0
  0
LINE
  5
3A14
330
1A
100
AcDbEntity
  8
SEIHIN
100
AcDbLine
 10
172.5539855191557
 20
121.3617315020553
 30
0.0
 11
189.3552575191559
 21
127.4242955020553
 31
0.0
  0
ARC
  5
3A15
330
1A
100
AcDbEntity
  8
SEIHIN
100
AcDbCircle
 10
170.0738775191558
 20
106.2764465020553
 30
0.0
 40
3.999999868335058
100
AcDbArc
 50
98.06364279830778
 51
160.5884979740769
  0
ARC
  5
3A16
330
1A
100
AcDbEntity
  8
SEIHIN
100
AcDbCircle
 10
170.0738775191558
 20
106.2764465020553
 30
0.0
 40
2.000000049508499
100
AcDbArc
 50
98.06364279830778
 51
160.5884852657151
  0
LINE
  5
3A17
330
1A
100
AcDbEntity
  8
CENTER L
 48
3.0
100
AcDbLine
 10
186.6917685191559
 20
114.0590495020553
 30
0.0
 11
202.3917685191559
 21
114.0590495020553
 31
0.0
  0
LINE
  5
3A18
330
1A
100
AcDbEntity
  8
CENTER L
 48
3.0
100
AcDbLine
 10
186.6917685191559
 20
105.5590495020554
 30
0.0
 11
202.3917685191559
 21
105.5590495020554
 31
0.0
  0
ARC
  5
3A19
330
1A
100
AcDbEntity
  8
SEIHIN
100
AcDbCircle
 10
183.6951825191559
 20
105.1762745020553
 30
0.0
 40
4.99999999040965
100
AcDbArc
 50
358.2105332175277
 51
98.06367557684359
  0
ARC
  5
3A1A
330
1A
100
AcDbEntity
  8
SEIHIN
100
AcDbCircle
 10
183.6951825191559
 20
105.1762745020553
 30
0.0
 40
6.999999905160892
100
AcDbArc
 50
358.2105332175277
 51
98.0636774698533
  0
ARC
  5
3A1B
330
1A
100
AcDbEntity
  8
SEIHIN
100
AcDbCircle
 10
197.3167685191559
 20
104.0590075020553
 30
0.0
 40
6.624999944286226
100
AcDbArc
 50
148.1092146844664
 51
211.8907958127827
  0
ARC
  5
3A1C
330
1A
100
AcDbEntity
  8
SEIHIN
100
AcDbCircle
 10
190.8917685191559
 20
120.5589655020553
 30
0.0
 40
5.000000094090249
100
AcDbArc
 50
0.0000000470009649
 51
111.3706246361832
  0
LINE
  5
3A1D
330
1A
100
AcDbEntity
  8
SEIHIN
100
AcDbLine
 10
190.1629705191558
 20
122.4214515020553
 30
0.0
 11
173.6517005191558
 21
115.9605195020553
 31
0.0
  0
LINE
  5
3A1E
330
1A
100
AcDbEntity
  8
SEIHIN
100
AcDbLine
 10
172.8917685191559
 20
118.8846565020553
 30
0.0
 11
189.0697715191559
 21
125.2151795020553
 31
0.0
  0
ARC
  5
3A1F
330
1A
100
AcDbEntity
  8
SEIHIN
100
AcDbCircle
 10
190.4579872630959
 20
120.450824304685
 30
0.0
 40
7.060121346600383
100
AcDbArc
 50
10.85555200528534
 51
98.9858960233264
  0
LINE
  5
3A20
330
1A
100
AcDbEntity
  8
SEIHIN
100
AcDbLine
 10
197.3917685191559
 20
119.5590495020553
 30
0.0
 11
197.3917685191559
 21
121.7804825020553
 31
0.0
  0
ARC
  5
3A21
330
1A
100
AcDbEntity
  8
SEIHIN
100
AcDbCircle
 10
190.8917685191559
 20
120.5589655020553
 30
0.0
 40
2.000000260324591
100
AcDbArc
 50
0.0000000470001506
 51
111.3706257960968
  0
LINE
  5
3A22
330
1A
100
AcDbEntity
  8
SEIHIN
100
AcDbLine
 10
191.6917685191559
 20
119.5590495020553
 30
0.0
 11
197.3917685191559
 21
119.5590495020553
 31
0.0
  0
LINE
  5
3A23
330
1A
100
AcDbEntity
  8
SEIHIN
100
AcDbLine
 10
192.8917685191559
 20
119.5590495020553
 30
0.0
 11
192.8917685191559
 21
120.5589655020553
 31
0.0
  0
LINE
  5
3A24
330
1A
100
AcDbEntity
  8
SEIHIN
100
AcDbLine
 10
195.8917685191559
 20
119.5590495020553
 30
0.0
 11
195.8917685191559
 21
120.5589655020553
 31
0.0
  0
LINE
  5
3A25
330
1A
100
AcDbEntity
  8
CENTER L
 48
3.0
100
AcDbLine
 10
202.3920785191558
 20
203.6854884521341
 30
0.0
 11
61.50074451915589
 21
203.6854884521341
 31
0.0
  0
ARC
  5
3A26
330
1A
100
AcDbEntity
  8
SEIHIN
100
AcDbCircle
 10
75.03610051915575
 20
212.5602854521341
 30
0.0
 40
1.624999817959518
100
AcDbArc
 50
218.2466530698185
 51
328.4118881102794
  0
ARC
  5
3A27
330
1A
100
AcDbEntity
  8
SEIHIN
100
AcDbCircle
 10
75.03610051915575
 20
194.8102854521341
 30
0.0
 40
1.624999817959518
100
AcDbArc
 50
31.58817135149911
 51
141.7534063919598
  0
DIMENSION
  5
3A28
330
1A
100
AcDbEntity
  8
SUNPOU
100
AcDbDimension
  2
*D8
 10
42.49628965656711
 20
195.4352854521341
 30
0.0
 11
39.99628965656709
 21
203.6852854521341
 31
0.0
 70
    32
 71
     5
 42
16.5
  3
STANDARD
100
AcDbAlignedDimension
 13
66.50074451915589
 23
211.9352854521341
 33
0.0
 14
66.50074451915589
 24
195.4352854521341
 34
0.0
 50
90.0
100
AcDbRotatedDimension
1001
ACAD
1000
DSTYLE
1002
{
1070
   140
1040
3.0
1070
    74
1070
     0
1070
   172
1070
     1
1070
    73
1070
     0
1070
   272
1070
     0
1070
    77
1070
     3
1070
   173
1070
     1
1070
   147
1040
1.0
1070
    42
1040
3.0
1070
    44
1040
1.5
1070
    43
1040
7.0
1070
   271
1070
     0
1070
   178
1070
   256
1070
   177
1070
   256
1070
   176
1070
   256
1070
   141
1040
3.0
1070
     7
1000
OPEN
1070
     6
1000
OPEN
1070
    41
1040
3.0
1002
}
  0
LINE
  5
3A29
330
1A
100
AcDbEntity
  8
SEIHIN
100
AcDbLine
 10
67.50074451915589
 20
195.4352854521341
 30
0.0
 11
67.50074451915589
 21
211.9352854521341
 31
0.0
  0
LINE
  5
3A2A
330
1A
100
AcDbEntity
  8
SEIHIN
100
AcDbLine
 10
66.50074451915589
 20
195.4352854521341
 30
0.0
 11
66.50074451915589
 21
211.9352854521341
 31
0.0
  0
LINE
  5
3A2B
330
1A
100
AcDbEntity
  8
SEIHIN
100
AcDbLine
 10
66.50074451915589
 20
195.4352854521341
 30
0.0
 11
72.97454751915575
 21
195.4352854521341
 31
0.0
  0
ARC
  5
3A2C
330
1A
100
AcDbEntity
  8
SEIHIN
100
AcDbCircle
 10
72.97454751915575
 20
196.4352854521341
 30
0.0
 40
0.9999999402282465
100
AcDbArc
 50
270.0000000234496
 51
321.7533469536269
  0
LINE
  5
3A2D
330
1A
100
AcDbEntity
  8
SEIHIN
100
AcDbLine
 10
67.50074451915589
 20
198.7693284521341
 30
0.0
 11
69.23279551915584
 21
197.7693284521341
 31
0.0
  0
LINE
  5
3A2E
330
1A
100
AcDbEntity
  8
SEIHIN
100
AcDbLine
 10
67.50074451915589
 20
196.7693284521341
 30
0.0
 11
69.23279551915584
 21
197.7693284521341
 31
0.0
  0
LINE
  5
3A2F
330
1A
100
AcDbEntity
  8
SEIHIN
100
AcDbLine
 10
66.50074451915589
 20
211.9352854521341
 30
0.0
 11
72.97454751915575
 21
211.9352854521341
 31
0.0
  0
LINE
  5
3A30
330
1A
100
AcDbEntity
  8
SEIHIN
100
AcDbLine
 10
67.50074451915589
 20
208.6012414521341
 30
0.0
 11
69.23279551915584
 21
209.6012414521341
 31
0.0
  0
LINE
  5
3A31
330
1A
100
AcDbEntity
  8
SEIHIN
100
AcDbLine
 10
67.50074451915589
 20
210.6012414521341
 30
0.0
 11
69.23279551915584
 21
209.6012414521341
 31
0.0
  0
ARC
  5
3A32
330
1A
100
AcDbEntity
  8
SEIHIN
100
AcDbCircle
 10
72.97454751915575
 20
210.9352854521341
 30
0.0
 40
1.000000332904889
100
AcDbArc
 50
38.24661760099893
 51
90.0
  0
LINE
  5
3A33
330
1A
100
AcDbEntity
  8
SEIHIN
100
AcDbLine
 10
195.8920785191558
 20
211.1854874521341
 30
0.0
 11
119.2709695191559
 21
211.1852534521341
 31
0.0
  0
LINE
  5
3A34
330
1A
100
AcDbEntity
  8
SEIHIN
100
AcDbLine
 10
196.3920755191557
 20
208.6854884521341
 30
0.0
 11
129.6882135191559
 21
208.6852854521341
 31
0.0
  0
LINE
  5
3A35
330
1A
100
AcDbEntity
  8
SEIHIN
100
AcDbLine
 10
195.8920785191558
 20
196.1854874521341
 30
0.0
 11
119.2708335191558
 21
196.1852534521341
 31
0.0
  0
LINE
  5
3A36
330
1A
100
AcDbEntity
  8
SEIHIN
100
AcDbLine
 10
196.3920815191559
 20
198.6854884521341
 30
0.0
 11
129.6882445191559
 21
198.6852854521341
 31
0.0
  0
LINE
  5
3A37
330
1A
100
AcDbEntity
  8
SEIHIN
100
AcDbLine
 10
108.6421265191559
 20
194.185313452134
 30
0.0
 11
159.3067935191557
 21
194.185494452134
 31
0.0
  0
LINE
  5
3A38
330
1A
100
AcDbEntity
  8
SEIHIN
100
AcDbLine
 10
108.6421265191559
 20
213.1852564521341
 30
0.0
 11
159.3067935191557
 21
213.1852564521341
 31
0.0
  0
LINE
  5
3A39
330
1A
100
AcDbEntity
  8
SEIHIN
100
AcDbLine
 10
108.6421265191559
 20
212.1852564521341
 30
0.0
 11
159.3067935191557
 21
212.1852564521341
 31
0.0
  0
LINE
  5
3A3A
330
1A
100
AcDbEntity
  8
SEIHIN
100
AcDbLine
 10
108.6421225191557
 20
195.185313452134
 30
0.0
 11
159.3067935191557
 21
195.185494452134
 31
0.0
  0
LINE
  5
3A3B
330
1A
100
AcDbEntity
  8
SEIHIN
100
AcDbLine
 10
92.38371951915588
 20
208.6852854521341
 30
0.0
 11
109.1209235191559
 21
208.6852854521341
 31
0.0
  0
LINE
  5
3A3C
330
1A
100
AcDbEntity
  8
SEIHIN
100
AcDbLine
 10
85.6421285191559
 20
213.7852854521341
 30
0.0
 11
108.6421285191559
 21
213.7852854521341
 31
0.0
  0
LINE
  5
3A3D
330
1A
100
AcDbEntity
  8
SEIHIN
100
AcDbLine
 10
85.64211051915572
 20
208.7852854521341
 30
0.0
 11
108.6421105191557
 21
208.7852854521341
 31
0.0
  0
LINE
  5
3A3E
330
1A
100
AcDbEntity
  8
SEIHIN
100
AcDbLine
 10
85.64211251915572
 20
209.2852854521341
 30
0.0
 11
108.6421125191557
 21
209.2852854521341
 31
0.0
  0
LINE
  5
3A3F
330
1A
100
AcDbEntity
  8
SEIHIN
100
AcDbLine
 10
85.64211251915572
 20
198.085285452134
 30
0.0
 11
108.6421125191557
 21
198.085285452134
 31
0.0
  0
LINE
  5
3A40
330
1A
100
AcDbEntity
  8
SEIHIN
100
AcDbLine
 10
85.6421285191559
 20
193.585285452134
 30
0.0
 11
108.6421285191559
 21
193.585285452134
 31
0.0
  0
LINE
  5
3A41
330
1A
100
AcDbEntity
  8
SEIHIN
100
AcDbLine
 10
92.38371951915588
 20
198.6852854521341
 30
0.0
 11
109.1209235191559
 21
198.6852854521341
 31
0.0
  0
LINE
  5
3A42
330
1A
100
AcDbEntity
  8
SEIHIN
100
AcDbLine
 10
85.64211051915572
 20
198.585285452134
 30
0.0
 11
108.6421105191557
 21
198.585285452134
 31
0.0
  0
LINE
  5
3A43
330
1A
100
AcDbEntity
  8
SEIHIN
100
AcDbLine
 10
92.38371951915588
 20
207.6852854521341
 30
0.0
 11
92.38371951915588
 21
208.6852854521341
 31
0.0
  0
LINE
  5
3A44
330
1A
100
AcDbEntity
  8
SEIHIN
100
AcDbLine
 10
90.8920785191558
 20
208.7852854521341
 30
0.0
 11
90.8920785191558
 21
198.585285452134
 31
0.0
  0
LINE
  5
3A45
330
1A
100
AcDbEntity
  8
SEIHIN
100
AcDbLine
 10
78.6599975191557
 20
210.3422654521341
 30
0.0
 11
78.6599975191557
 21
197.4962884521341
 31
0.0
  0
LINE
  5
3A46
330
1A
100
AcDbEntity
  8
SEIHIN
100
AcDbLine
 10
76.43965351915585
 20
197.1852854521341
 30
0.0
 11
76.43965351915585
 21
210.4170034521341
 31
0.0
  0
LINE
  5
3A47
330
1A
100
AcDbEntity
  8
SEIHIN
100
AcDbLine
 10
87.8920785191558
 20
208.7852854521341
 30
0.0
 11
87.8920785191558
 21
198.585285452134
 31
0.0
  0
LINE
  5
3A48
330
1A
100
AcDbEntity
  8
SEIHIN
100
AcDbLine
 10
87.6420785191558
 20
195.1852854521341
 30
0.0
 11
91.1420785191558
 21
195.1852854521341
 31
0.0
  0
LINE
  5
3A49
330
1A
100
AcDbEntity
  8
SEIHIN
100
AcDbLine
 10
87.6420785191558
 20
194.085285452134
 30
0.0
 11
91.1420785191558
 21
194.085285452134
 31
0.0
  0
LINE
  5
3A4A
330
1A
100
AcDbEntity
  8
SEIHIN
100
AcDbLine
 10
90.8920785191558
 20
196.1852854521341
 30
0.0
 11
87.8920785191558
 21
196.1852854521341
 31
0.0
  0
LINE
  5
3A4B
330
1A
100
AcDbEntity
  8
SEIHIN
100
AcDbLine
 10
85.64211051915572
 20
198.585285452134
 30
0.0
 11
85.6421285191559
 21
193.585285452134
 31
0.0
  0
LINE
  5
3A4C
330
1A
100
AcDbEntity
  8
SEIHIN
100
AcDbLine
 10
87.6420785191558
 20
198.085285452134
 30
0.0
 11
87.6420785191558
 21
193.585285452134
 31
0.0
  0
LINE
  5
3A4D
330
1A
100
AcDbEntity
  8
SEIHIN
100
AcDbLine
 10
87.8920785191558
 20
196.1852854521341
 30
0.0
 11
87.8920785191558
 21
198.085285452134
 31
0.0
  0
LINE
  5
3A4E
330
1A
100
AcDbEntity
  8
SEIHIN
100
AcDbLine
 10
77.6657195191558
 20
194.1852854521341
 30
0.0
 11
85.64212651915591
 21
194.185313452134
 31
0.0
  0
LINE
  5
3A4F
330
1A
100
AcDbEntity
  8
SEIHIN
100
AcDbLine
 10
77.27216851915568
 20
195.1852854521341
 30
0.0
 11
85.64212251915569
 21
195.185314452134
 31
0.0
  0
ARC
  5
3A50
330
1A
100
AcDbEntity
  8
SEIHIN
100
AcDbCircle
 10
75.54281951915573
 20
195.1761544521341
 30
0.0
 40
1.000000052812247
100
AcDbArc
 50
16.67956996948384
 51
35.83063548330045
  0
ARC
  5
3A51
330
1A
100
AcDbEntity
  8
SEIHIN
100
AcDbCircle
 10
77.6657195191558
 20
195.1852854521341
 30
0.0
 40
0.999999936306246
100
AcDbArc
 50
203.5781816636463
 51
270.0
  0
ARC
  5
3A52
330
1A
100
AcDbEntity
  8
SEIHIN
100
AcDbCircle
 10
82.24829451915571
 20
197.1852854521341
 30
0.0
 40
5.999999821933536
100
AcDbArc
 50
196.6795699694838
 51
203.5781945536695
  0
ARC
  5
3A53
330
1A
100
AcDbEntity
  8
SEIHIN
100
AcDbCircle
 10
77.27216851915568
 20
196.1852854521341
 30
0.0
 40
0.9999999458312471
100
AcDbArc
 50
211.5881713514856
 51
269.999999999987
  0
LINE
  5
3A54
330
1A
100
AcDbEntity
  8
SEIHIN
100
AcDbLine
 10
76.50074451915589
 20
195.4352854521341
 30
0.0
 11
76.50917451915575
 21
195.4352854521341
 31
0.0
  0
ARC
  5
3A55
330
1A
100
AcDbEntity
  8
SEIHIN
100
AcDbCircle
 10
82.50074451915589
 20
201.4352854521341
 30
0.0
 40
1.25
100
AcDbArc
 50
216.8698976458436
 51
323.1301023541564
  0
ARC
  5
3A56
330
1A
100
AcDbEntity
  8
SEIHIN
100
AcDbCircle
 10
82.50074451915589
 20
205.9352854521341
 30
0.0
 40
1.25
100
AcDbArc
 50
36.86989764584362
 51
143.1301023541564
  0
LINE
  5
3A57
330
1A
100
AcDbEntity
  8
SEIHIN
100
AcDbLine
 10
81.50074451915589
 20
200.6852854521341
 30
0.0
 11
81.50074451915589
 21
206.6852854521341
 31
0.0
  0
LINE
  5
3A58
330
1A
100
AcDbEntity
  8
SEIHIN
100
AcDbLine
 10
83.50074451915589
 20
200.6852854521341
 30
0.0
 11
83.50074451915589
 21
206.6852854521341
 31
0.0
  0
LINE
  5
3A59
330
1A
100
AcDbEntity
  8
SEIHIN
100
AcDbLine
 10
84.00074451915589
 20
200.6852854521341
 30
0.0
 11
84.00074451915589
 21
206.6852854521341
 31
0.0
  0
LINE
  5
3A5A
330
1A
100
AcDbEntity
  8
SEIHIN
100
AcDbLine
 10
86.50074451915589
 20
200.6852854521341
 30
0.0
 11
86.50074451915589
 21
206.6852854521341
 31
0.0
  0
LINE
  5
3A5B
330
1A
100
AcDbEntity
  8
SEIHIN
100
AcDbLine
 10
86.00074451915589
 20
200.6852854521341
 30
0.0
 11
86.00074451915589
 21
206.6852854521341
 31
0.0
  0
ARC
  5
3A5C
330
1A
100
AcDbEntity
  8
SEIHIN
100
AcDbCircle
 10
87.50074451915589
 20
201.4352854521341
 30
0.0
 40
1.249999816264373
100
AcDbArc
 50
216.8698976458436
 51
288.2441676844565
  0
ARC
  5
3A5D
330
1A
100
AcDbEntity
  8
SEIHIN
100
AcDbCircle
 10
85.00074451915589
 20
201.4352854521341
 30
0.0
 40
1.25
100
AcDbArc
 50
216.8698976458436
 51
323.1301023541564
  0
ARC
  5
3A5E
330
1A
100
AcDbEntity
  8
SEIHIN
100
AcDbCircle
 10
87.50074451915589
 20
205.9352854521341
 30
0.0
 40
1.249999816264373
100
AcDbArc
 50
71.75583951464338
 51
143.1301095532587
  0
ARC
  5
3A5F
330
1A
100
AcDbEntity
  8
SEIHIN
100
AcDbCircle
 10
85.00074451915589
 20
205.9352854521341
 30
0.0
 40
1.25
100
AcDbArc
 50
36.86989764584362
 51
143.1301023541564
  0
LINE
  5
3A60
330
1A
100
AcDbEntity
  8
SEIHIN
100
AcDbLine
 10
91.1420785191558
 20
198.085285452134
 30
0.0
 11
91.1420785191558
 21
193.585285452134
 31
0.0
  0
LINE
  5
3A61
330
1A
100
AcDbEntity
  8
SEIHIN
100
AcDbLine
 10
90.8920785191558
 20
196.1852854521341
 30
0.0
 11
90.8920785191558
 21
198.085285452134
 31
0.0
  0
LINE
  5
3A62
330
1A
100
AcDbEntity
  8
SEIHIN
100
AcDbLine
 10
94.64219851915573
 20
197.585285452134
 30
0.0
 11
99.64219851915573
 21
197.585285452134
 31
0.0
  0
LINE
  5
3A63
330
1A
100
AcDbEntity
  8
SEIHIN
100
AcDbLine
 10
91.38371951915588
 20
207.6852854521341
 30
0.0
 11
91.38371951915588
 21
199.6852854521341
 31
0.0
  0
LINE
  5
3A64
330
1A
100
AcDbEntity
  8
SEIHIN
100
AcDbLine
 10
91.38371951915588
 20
199.6852854521341
 30
0.0
 11
92.38371951915588
 21
199.6852854521341
 31
0.0
  0
LINE
  5
3A65
330
1A
100
AcDbEntity
  8
SEIHIN
100
AcDbLine
 10
94.64219851915573
 20
197.585285452134
 30
0.0
 11
94.64219851915573
 21
198.085285452134
 31
0.0
  0
LINE
  5
3A66
330
1A
100
AcDbEntity
  8
SEIHIN
100
AcDbLine
 10
92.38371951915588
 20
199.6852854521341
 30
0.0
 11
92.38371951915588
 21
198.6852854521341
 31
0.0
  0
LINE
  5
3A67
330
1A
100
AcDbEntity
  8
SEIHIN
100
AcDbLine
 10
91.38371951915588
 20
207.6852854521341
 30
0.0
 11
92.38371951915588
 21
207.6852854521341
 31
0.0
  0
LINE
  5
3A68
330
1A
100
AcDbEntity
  8
SEIHIN
100
AcDbLine
 10
99.64219851915573
 20
197.585285452134
 30
0.0
 11
99.64219851915573
 21
198.085285452134
 31
0.0
  0
LINE
  5
3A69
330
1A
100
AcDbEntity
  8
SEIHIN
100
AcDbLine
 10
90.8920785191558
 20
211.1852854521341
 30
0.0
 11
87.8920785191558
 21
211.1852854521341
 31
0.0
  0
LINE
  5
3A6A
330
1A
100
AcDbEntity
  8
SEIHIN
100
AcDbLine
 10
87.6420785191558
 20
213.2852854521341
 30
0.0
 11
91.1420785191558
 21
213.2852854521341
 31
0.0
  0
LINE
  5
3A6B
330
1A
100
AcDbEntity
  8
SEIHIN
100
AcDbLine
 10
87.6420785191558
 20
212.1852854521341
 30
0.0
 11
91.1420785191558
 21
212.1852854521341
 31
0.0
  0
LINE
  5
3A6C
330
1A
100
AcDbEntity
  8
SEIHIN
100
AcDbLine
 10
77.27216851915568
 20
212.1852854521341
 30
0.0
 11
85.64212251915569
 21
212.1852854521341
 31
0.0
  0
LINE
  5
3A6D
330
1A
100
AcDbEntity
  8
SEIHIN
100
AcDbLine
 10
77.67799151915574
 20
213.1852854521341
 30
0.0
 11
85.64212651915591
 21
213.1852564521341
 31
0.0
  0
ARC
  5
3A6E
330
1A
100
AcDbEntity
  8
SEIHIN
100
AcDbCircle
 10
82.24829451915571
 20
210.157396452134
 30
0.0
 40
5.999999971785416
100
AcDbArc
 50
156.0726603748118
 51
163.3204385656306
  0
ARC
  5
3A6F
330
1A
100
AcDbEntity
  8
SEIHIN
100
AcDbCircle
 10
77.27216851915568
 20
211.1852854521341
 30
0.0
 40
0.9999999458312471
100
AcDbArc
 50
90.0
 51
148.4118286484971
  0
LINE
  5
3A70
330
1A
100
AcDbEntity
  8
SEIHIN
100
AcDbLine
 10
76.50074451915589
 20
211.9352854521341
 30
0.0
 11
76.51775251915569
 21
211.9352854521341
 31
0.0
  0
ARC
  5
3A71
330
1A
100
AcDbEntity
  8
SEIHIN
100
AcDbCircle
 10
77.67799151915574
 20
212.1852854521341
 30
0.0
 40
1.000000256451184
100
AcDbArc
 50
90.0
 51
156.0726603748118
  0
ARC
  5
3A72
330
1A
100
AcDbEntity
  8
SEIHIN
100
AcDbCircle
 10
75.54281951915573
 20
212.1944154521341
 30
0.0
 40
1.000000052812247
100
AcDbArc
 50
324.1693788329692
 51
343.3204443467876
  0
LINE
  5
3A73
330
1A
100
AcDbEntity
  8
SEIHIN
100
AcDbLine
 10
85.64211051915572
 20
208.7852854521341
 30
0.0
 11
85.6421285191559
 21
213.7852854521341
 31
0.0
  0
LINE
  5
3A74
330
1A
100
AcDbEntity
  8
SEIHIN
100
AcDbLine
 10
87.8920785191558
 20
211.1852854521341
 30
0.0
 11
87.8920785191558
 21
209.2852854521341
 31
0.0
  0
LINE
  5
3A75
330
1A
100
AcDbEntity
  8
SEIHIN
100
AcDbLine
 10
87.6420785191558
 20
209.2852854521341
 30
0.0
 11
87.6420785191558
 21
213.7852854521341
 31
0.0
  0
LINE
  5
3A76
330
1A
100
AcDbEntity
  8
SEIHIN
100
AcDbLine
 10
94.64219851915573
 20
209.7852854521341
 30
0.0
 11
99.64219851915573
 21
209.7852854521341
 31
0.0
  0
LINE
  5
3A77
330
1A
100
AcDbEntity
  8
SEIHIN
100
AcDbLine
 10
94.64219851915573
 20
209.7852854521341
 30
0.0
 11
94.64219851915573
 21
209.2852854521341
 31
0.0
  0
LINE
  5
3A78
330
1A
100
AcDbEntity
  8
SEIHIN
100
AcDbLine
 10
90.8920785191558
 20
211.1852854521341
 30
0.0
 11
90.8920785191558
 21
209.2852854521341
 31
0.0
  0
LINE
  5
3A79
330
1A
100
AcDbEntity
  8
SEIHIN
100
AcDbLine
 10
91.1420785191558
 20
209.2852854521341
 30
0.0
 11
91.1420785191558
 21
213.7852854521341
 31
0.0
  0
LINE
  5
3A7A
330
1A
100
AcDbEntity
  8
SEIHIN
100
AcDbLine
 10
99.64219851915573
 20
209.7852854521341
 30
0.0
 11
99.64219851915573
 21
209.2852854521341
 31
0.0
  0
LINE
  5
3A7B
330
1A
100
AcDbEntity
  8
SEIHIN
100
AcDbLine
 10
122.5116155191558
 20
206.6852854521341
 30
0.0
 11
122.5116155191558
 21
209.6459464521341
 31
0.0
  0
LINE
  5
3A7C
330
1A
100
AcDbEntity
  8
SEIHIN
100
AcDbLine
 10
129.6882295191558
 20
197.6852854521341
 30
0.0
 11
129.6882295191558
 21
209.6852854521341
 31
0.0
  0
LINE
  5
3A7D
330
1A
100
AcDbEntity
  8
SEIHIN
100
AcDbLine
 10
128.7452385191557
 20
197.724624452134
 30
0.0
 11
128.7452385191557
 21
209.6459454521341
 31
0.0
  0
LINE
  5
3A7E
330
1A
100
AcDbEntity
  8
SEIHIN
100
AcDbLine
 10
107.7247215191558
 20
198.6852854521341
 30
0.0
 11
107.7247215191558
 21
208.6852854521341
 31
0.0
  0
LINE
  5
3A7F
330
1A
100
AcDbEntity
  8
SEIHIN
100
AcDbLine
 10
119.1961385191557
 20
206.6852854521341
 30
0.0
 11
126.1586615191559
 21
206.6852854521341
 31
0.0
  0
LINE
  5
3A80
330
1A
100
AcDbEntity
  8
SEIHIN
100
AcDbLine
 10
119.1961385191557
 20
200.6852854521341
 30
0.0
 11
126.1586615191559
 21
200.6852854521341
 31
0.0
  0
LINE
  5
3A81
330
1A
100
AcDbEntity
  8
SEIHIN
100
AcDbLine
 10
122.4287935191558
 20
197.6852854521341
 30
0.0
 11
129.6882295191558
 21
197.6852854521341
 31
0.0
  0
LINE
  5
3A82
330
1A
100
AcDbEntity
  8
SEIHIN
100
AcDbLine
 10
118.0237535191559
 20
195.592890452134
 30
0.0
 11
122.4287935191558
 21
197.6852854521341
 31
0.0
  0
LINE
  5
3A83
330
1A
100
AcDbEntity
  8
SEIHIN
100
AcDbLine
 10
108.6421105191557
 20
198.585285452134
 30
0.0
 11
108.6421285191559
 21
193.585285452134
 31
0.0
  0
LINE
  5
3A84
330
1A
100
AcDbEntity
  8
SEIHIN
100
AcDbLine
 10
110.4080935191557
 20
198.3951184521341
 30
0.0
 11
116.3075265191558
 21
195.5928894521341
 31
0.0
  0
LINE
  5
3A85
330
1A
100
AcDbEntity
  8
SEIHIN
100
AcDbLine
 10
115.0604435191558
 20
196.1852534521341
 30
0.0
 11
108.6421185191557
 21
196.1852304521341
 31
0.0
  0
ARC
  5
3A86
330
1A
100
AcDbEntity
  8
SEIHIN
100
AcDbCircle
 10
117.1656395191558
 20
197.3994444521341
 30
0.0
 40
1.999999816165233
100
AcDbArc
 50
244.5922844787526
 51
295.4077120920528
  0
ARC
  5
3A87
330
1A
100
AcDbEntity
  8
SEIHIN
100
AcDbCircle
 10
109.1209235191559
 20
195.6852854521341
 30
0.0
 40
3.000000124732412
100
AcDbArc
 50
64.59228447875078
 51
89.99999094305167
  0
LINE
  5
3A88
330
1A
100
AcDbEntity
  8
SEIHIN
100
AcDbLine
 10
117.6961385191557
 20
202.1852854521341
 30
0.0
 11
117.6961385191557
 21
205.1852854521341
 31
0.0
  0
ARC
  5
3A89
330
1A
100
AcDbEntity
  8
SEIHIN
100
AcDbCircle
 10
119.1961385191557
 20
202.1852854521341
 30
0.0
 40
1.5
100
AcDbArc
 50
180.0
 51
270.0
  0
LINE
  5
3A8A
330
1A
100
AcDbEntity
  8
SEIHIN
100
AcDbLine
 10
122.5116125191557
 20
197.724624452134
 30
0.0
 11
122.5116135191558
 21
200.6852854521341
 31
0.0
  0
ARC
  5
3A8B
330
1A
100
AcDbEntity
  8
SEIHIN
100
AcDbCircle
 10
119.1961385191557
 20
205.1852854521341
 30
0.0
 40
1.5
100
AcDbArc
 50
90.0
 51
180.0
  0
LINE
  5
3A8C
330
1A
100
AcDbEntity
  8
SEIHIN
100
AcDbLine
 10
125.5207555191557
 20
200.6852854521341
 30
0.0
 11
125.5207555191557
 21
206.6852854521341
 31
0.0
  0
LINE
  5
3A8D
330
1A
100
AcDbEntity
  8
SEIHIN
100
AcDbLine
 10
126.1586615191559
 20
200.6852854521341
 30
0.0
 11
126.1586615191559
 21
206.6852854521341
 31
0.0
  0
LINE
  5
3A8E
330
1A
100
AcDbEntity
  8
SEIHIN
100
AcDbLine
 10
122.4287965191559
 20
209.6852854521341
 30
0.0
 11
129.6882295191558
 21
209.6852854521341
 31
0.0
  0
LINE
  5
3A8F
330
1A
100
AcDbEntity
  8
SEIHIN
100
AcDbLine
 10
110.4080935191557
 20
208.9754534521341
 30
0.0
 11
116.3075265191558
 21
211.7776824521341
 31
0.0
  0
LINE
  5
3A90
330
1A
100
AcDbEntity
  8
SEIHIN
100
AcDbLine
 10
115.0603075191557
 20
211.1852534521341
 30
0.0
 11
108.6421185191557
 21
211.1852764521341
 31
0.0
  0
ARC
  5
3A91
330
1A
100
AcDbEntity
  8
SEIHIN
100
AcDbCircle
 10
109.1209235191559
 20
211.6852854521341
 30
0.0
 40
3.000000124732412
100
AcDbArc
 50
270.0
 51
295.4077064643029
  0
LINE
  5
3A92
330
1A
100
AcDbEntity
  8
SEIHIN
100
AcDbLine
 10
108.6421105191557
 20
208.7852854521341
 30
0.0
 11
108.6421285191559
 21
213.7852854521341
 31
0.0
  0
LINE
  5
3A93
330
1A
100
AcDbEntity
  8
SEIHIN
100
AcDbLine
 10
118.0237535191559
 20
211.7776814521341
 30
0.0
 11
122.4287965191559
 21
209.6852854521341
 31
0.0
  0
ARC
  5
3A94
330
1A
100
AcDbEntity
  8
SEIHIN
100
AcDbCircle
 10
117.1656395191558
 20
209.9711264521341
 30
0.0
 40
1.999999816165233
100
AcDbArc
 50
64.59225989560119
 51
115.4076875089022
  0
LINE
  5
3A95
330
1A
100
AcDbEntity
  8
SEIHIN
100
AcDbLine
 10
197.3920785191558
 20
193.206388452134
 30
0.0
 11
197.3920785191558
 21
178.0336234521341
 31
0.0
  0
LINE
  5
3A96
330
1A
100
AcDbEntity
  8
SEIHIN
100
AcDbLine
 10
196.1920785191558
 20
193.206388452134
 30
0.0
 11
196.1920785191558
 21
178.0336234521341
 31
0.0
  0
LINE
  5
3A97
330
1A
100
AcDbEntity
  8
CENTER L
 48
3.0
100
AcDbLine
 10
191.1920785191558
 20
183.533623452134
 30
0.0
 11
202.3920785191558
 21
183.5336234521341
 31
0.0
  0
LINE
  5
3A98
330
1A
100
AcDbEntity
  8
CENTER L
 48
3.0
100
AcDbLine
 10
191.1920785191558
 20
185.0336234521341
 30
0.0
 11
202.3920785191558
 21
185.0336234521341
 31
0.0
  0
LINE
  5
3A99
330
1A
100
AcDbEntity
  8
SEIHIN
100
AcDbLine
 10
196.1920785191558
 20
178.0336234521341
 30
0.0
 11
197.3920785191558
 21
178.0336234521341
 31
0.0
  0
LINE
  5
3A9A
330
1A
100
AcDbEntity
  8
SEIHIN
100
AcDbLine
 10
159.3067935191557
 20
196.1853754521341
 30
0.0
 11
159.3067935191557
 21
194.185494452134
 31
0.0
  0
LINE
  5
3A9B
330
1A
100
AcDbEntity
  8
SEIHIN
100
AcDbLine
 10
172.5542955191559
 20
207.884430452134
 30
0.0
 11
172.5542955191559
 21
199.3200714521341
 31
0.0
  0
LINE
  5
3A9C
330
1A
100
AcDbEntity
  8
SEIHIN
100
AcDbLine
 10
159.3067935191557
 20
213.1852564521341
 30
0.0
 11
159.3067935191557
 21
211.1853754521341
 31
0.0
  0
ARC
  5
3A9D
330
1A
100
AcDbEntity
  8
SEIHIN
100
AcDbCircle
 10
196.3920785191558
 20
207.6854884521341
 30
0.0
 40
1.00000000000225
100
AcDbArc
 50
0.0000031708051873
 51
90.00017505814657
  0
LINE
  5
3A9E
330
1A
100
AcDbEntity
  8
SEIHIN
100
AcDbLine
 10
174.0580945191557
 20
196.599759452134
 30
0.0
 11
174.0580945191557
 21
198.2491084521341
 31
0.0
  0
LINE
  5
3A9F
330
1A
100
AcDbEntity
  8
SEIHIN
100
AcDbLine
 10
195.8920785191558
 20
198.6854874521341
 30
0.0
 11
195.8920785191558
 21
196.1854874521341
 31
0.0
  0
ARC
  5
3AA0
330
1A
100
AcDbEntity
  8
SEIHIN
100
AcDbCircle
 10
195.6920785191558
 20
193.206388452134
 30
0.0
 40
1.700000158763074
100
AcDbArc
 50
0.0000066132454181
 51
81.02579079286475
  0
LINE
  5
3AA1
330
1A
100
AcDbEntity
  8
SEIHIN
100
AcDbLine
 10
192.2736925191557
 20
194.252427452134
 30
0.0
 11
195.7700735191559
 21
193.7002684521341
 31
0.0
  0
LINE
  5
3AA2
330
1A
100
AcDbEntity
  8
SEIHIN
100
AcDbLine
 10
192.4608805191558
 20
195.4377374521341
 30
0.0
 11
195.9572615191557
 21
194.885578452134
 31
0.0
  0
LINE
  5
3AA3
330
1A
100
AcDbEntity
  8
SEIHIN
100
AcDbLine
 10
191.0920785191559
 20
195.635289452134
 30
0.0
 11
191.0920765191559
 21
196.185472452134
 31
0.0
  0
LINE
  5
3AA4
330
1A
100
AcDbEntity
  8
SEIHIN
100
AcDbLine
 10
192.4608805191558
 20
195.4377374521341
 30
0.0
 11
192.4608785191558
 21
196.1854764521341
 31
0.0
  0
ARC
  5
3AA5
330
1A
100
AcDbEntity
  8
SEIHIN
100
AcDbCircle
 10
192.4920785191557
 20
195.635289452134
 30
0.0
 40
1.399999956435713
100
AcDbArc
 50
179.9999974854032
 51
261.0257794118542
  0
ARC
  5
3AA6
330
1A
100
AcDbEntity
  8
SEIHIN
100
AcDbCircle
 10
195.6920785191558
 20
193.206388452134
 30
0.0
 40
0.4999998433329509
100
AcDbArc
 50
0.0000000000781653
 51
81.02577681933373
  0
ARC
  5
3AA7
330
1A
100
AcDbEntity
  8
SEIHIN
100
AcDbCircle
 10
196.3920785191558
 20
199.6854884521341
 30
0.0
 40
1.00000000000225
100
AcDbArc
 50
270.0001718873446
 51
0.0
  0
LINE
  5
3AA8
330
1A
100
AcDbEntity
  8
SEIHIN
100
AcDbLine
 10
197.3920785191558
 20
207.6854884521341
 30
0.0
 11
197.3920785191558
 21
199.6854884521341
 31
0.0
  0
LINE
  5
3AA9
330
1A
100
AcDbEntity
  8
SEIHIN
100
AcDbLine
 10
174.0580945191557
 20
210.7712154521341
 30
0.0
 11
174.0580945191557
 21
209.121866452134
 31
0.0
  0
LINE
  5
3AAA
330
1A
100
AcDbEntity
  8
SEIHIN
100
AcDbLine
 10
197.3920785191558
 20
214.1439494521341
 30
0.0
 11
197.3920785191558
 21
229.3373504521341
 31
0.0
  0
LINE
  5
3AAB
330
1A
100
AcDbEntity
  8
SEIHIN
100
AcDbLine
 10
196.1920785191558
 20
214.1645854521341
 30
0.0
 11
196.1920785191558
 21
229.3373504521341
 31
0.0
  0
ARC
  5
3AAC
330
1A
100
AcDbEntity
  8
SEIHIN
100
AcDbCircle
 10
195.6920785191558
 20
214.1439494521341
 30
0.0
 40
1.700000040122499
100
AcDbArc
 50
278.7461491942049
 51
359.9999946189175
  0
ARC
  5
3AAD
330
1A
100
AcDbEntity
  8
SEIHIN
100
AcDbCircle
 10
195.6920785191558
 20
214.1645854521341
 30
0.0
 40
0.4999998433329509
100
AcDbArc
 50
278.9742142431747
 51
359.999991062426
  0
LINE
  5
3AAE
330
1A
100
AcDbEntity
  8
SEIHIN
100
AcDbLine
 10
192.2736925191557
 20
213.1185474521341
 30
0.0
 11
195.7700735191559
 21
213.6707064521341
 31
0.0
  0
LINE
  5
3AAF
330
1A
100
AcDbEntity
  8
SEIHIN
100
AcDbLine
 10
195.9505755191558
 20
212.4637174521341
 30
0.0
 11
192.4616675191558
 21
211.926962452134
 31
0.0
  0
ARC
  5
3AB0
330
1A
100
AcDbEntity
  8
SEIHIN
100
AcDbCircle
 10
192.4920785191557
 20
211.7356854521341
 30
0.0
 40
1.399999956435713
100
AcDbArc
 50
98.97421424316363
 51
179.9999961696148
  0
LINE
  5
3AB1
330
1A
100
AcDbEntity
  8
SEIHIN
100
AcDbLine
 10
191.0920785191559
 20
211.7356854521341
 30
0.0
 11
191.0920805191558
 21
211.185472452134
 31
0.0
  0
LINE
  5
3AB2
330
1A
100
AcDbEntity
  8
SEIHIN
100
AcDbLine
 10
192.4616675191558
 20
211.926962452134
 30
0.0
 11
192.4616695191558
 21
211.1854764521341
 31
0.0
  0
LINE
  5
3AB3
330
1A
100
AcDbEntity
  8
SEIHIN
100
AcDbLine
 10
195.8920785191558
 20
211.1854874521341
 30
0.0
 11
195.8920785191558
 21
208.6854874521341
 31
0.0
  0
LINE
  5
3AB4
330
1A
100
AcDbEntity
  8
CENTER L
 48
3.0
100
AcDbLine
 10
191.1920785191558
 20
223.8373534521341
 30
0.0
 11
202.3920785191558
 21
223.837353452134
 31
0.0
  0
LINE
  5
3AB5
330
1A
100
AcDbEntity
  8
CENTER L
 48
3.0
100
AcDbLine
 10
191.1920785191558
 20
222.337353452134
 30
0.0
 11
202.3920785191558
 21
222.337353452134
 31
0.0
  0
LINE
  5
3AB6
330
1A
100
AcDbEntity
  8
SEIHIN
100
AcDbLine
 10
196.1920785191558
 20
229.3373504521341
 30
0.0
 11
197.3920785191558
 21
229.3373504521341
 31
0.0
  0
TEXT
  5
3AB7
330
1A
100
AcDbEntity
  8
SUNPOU
100
AcDbText
 10
265.2270871294936
 20
137.5564076786733
 30
0.0
 40
3.0
  1
4-φ4.2
100
AcDbText
  0
DIMENSION
  5
3AB8
330
1A
100
AcDbEntity
  8
SUNPOU
100
AcDbDimension
  2
*D9
 10
293.7869175191559
 20
152.0844828362043
 30
0.0
 11
319.4869175191558
 21
154.5844828362043
 31
0.0
 70
    32
 71
     5
 42
51.39999999999986
  3
STANDARD
100
AcDbAlignedDimension
 13
345.1869175191557
 23
117.5590495020553
 33
0.0
 14
293.7869175191559
 24
117.5590495020553
 34
0.0
100
AcDbRotatedDimension
1001
ACAD
1000
DSTYLE
1002
{
1070
   140
1040
3.0
1070
    74
1070
     0
1070
   172
1070
     1
1070
    73
1070
     0
1070
   272
1070
     0
1070
    77
1070
     3
1070
   173
1070
     1
1070
   147
1040
1.0
1070
    42
1040
3.0
1070
    44
1040
1.5
1070
    43
1040
7.0
1070
   271
1070
     0
1070
   178
1070
   256
1070
   177
1070
   256
1070
   176
1070
   256
1070
   141
1040
3.0
1070
     7
1000
OPEN
1070
     6
1000
OPEN
1070
    41
1040
3.0
1002
}
  0
DIMENSION
  5
3AB9
330
1A
100
AcDbEntity
  8
SUNPOU
100
AcDbDimension
  2
*D10
 10
339.7128495191557
 20
143.9868666052543
 30
0.0
 11
319.4869180191557
 21
146.4868666052543
 31
0.0
 70
    32
 71
     5
 42
40.45186299999995
  3
STANDARD
100
AcDbAlignedDimension
 13
299.2609865191557
 23
117.0590495020553
 33
0.0
 14
339.7128495191557
 24
117.0590495020553
 34
0.0
100
AcDbRotatedDimension
1001
ACAD
1000
DSTYLE
1002
{
1070
   140
1040
3.0
1070
    74
1070
     0
1070
   172
1070
     1
1070
    73
1070
     0
1070
   272
1070
     0
1070
    77
1070
     3
1070
   173
1070
     1
1070
   147
1040
1.0
1070
    42
1040
3.0
1070
    44
1040
1.5
1070
    43
1040
7.0
1070
   271
1070
     0
1070
   178
1070
   256
1070
   177
1070
   256
1070
   176
1070
   256
1070
   141
1040
3.0
1070
     7
1000
OPEN
1070
     6
1000
OPEN
1070
    41
1040
3.0
1002
}
  0
DIMENSION
  5
3ABA
330
1A
100
AcDbEntity
  8
SUNPOU
100
AcDbDimension
  2
*D11
 10
338.1869175191557
 20
136.0165886877643
 30
0.0
 11
319.4869175191558
 21
138.5165886877643
 31
0.0
 70
    32
 71
     5
 42
37.39999999999986
  3
STANDARD
100
AcDbAlignedDimension
 13
300.7869175191559
 23
110.5590495020553
 33
0.0
 14
338.1869175191557
 24
110.5590495020553
 34
0.0
100
AcDbRotatedDimension
1001
ACAD
1000
DSTYLE
1002
{
1070
   140
1040
3.0
1070
    74
1070
     0
1070
   172
1070
     1
1070
    73
1070
     0
1070
   272
1070
     0
1070
    77
1070
     3
1070
   173
1070
     1
1070
   147
1040
1.0
1070
    42
1040
3.0
1070
    44
1040
1.5
1070
    43
1040
7.0
1070
   271
1070
     0
1070
   178
1070
   256
1070
   177
1070
   256
1070
   176
1070
   256
1070
   141
1040
3.0
1070
     7
1000
OPEN
1070
     6
1000
OPEN
1070
    41
1040
3.0
1002
}
  0
LINE
  5
3ABB
330
1A
100
AcDbEntity
  8
CENTER L
 48
3.0
100
AcDbLine
 10
336.7128495191557
 20
114.0590495020553
 30
0.0
 11
342.7128495191557
 21
114.0590495020553
 31
0.0
  0
LINE
  5
3ABC
330
1A
100
AcDbEntity
  8
CENTER L
 48
3.0
100
AcDbLine
 10
336.7128495191557
 20
89.0590495020553
 30
0.0
 11
342.7128495191557
 21
89.0590495020553
 31
0.0
  0
LINE
  5
3ABD
330
1A
100
AcDbEntity
  8
CENTER L
 48
3.0
100
AcDbLine
 10
333.1869175191557
 20
105.5590495020553
 30
0.0
 11
343.1869175191557
 21
105.5590495020553
 31
0.0
  0
LINE
  5
3ABE
330
1A
100
AcDbEntity
  8
SEIHIN
100
AcDbLine
 10
343.1869175191557
 20
119.5590495020553
 30
0.0
 11
327.4869175191559
 21
119.5590495020553
 31
0.0
  0
CIRCLE
  5
3ABF
330
1A
100
AcDbEntity
  8
SEIHIN
100
AcDbCircle
 10
338.1869175191557
 20
105.5590495020553
 30
0.0
 40
3.25
  0
LINE
  5
3AC0
330
1A
100
AcDbEntity
  8
SEIHIN
100
AcDbLine
 10
343.1869185191558
 20
83.5590495020553
 30
0.0
 11
295.7869185191557
 21
83.5590495020553
 31
0.0
  0
LEADER
  5
3AC1
330
1A
100
AcDbEntity
  8
SUNPOU
100
AcDbLeader
  3
STANDARD
 76
     3
 10
297.9608157638859
 20
115.708157141702
 30
0.0
 10
281.7711642545128
 20
136.2068066274152
 30
0.0
 10
263.9714729755347
 20
136.2068066274152
 30
0.0
1001
ACAD
1000
DSTYLE
1002
{
1070
     6
1000
OPEN
1070
    41
1040
3.0
1070
    42
1040
3.0
1070
    43
1040
7.0
1070
    44
1040
1.5
1070
    73
1070
     0
1070
    74
1070
     0
1070
    77
1070
     3
1070
   140
1040
3.0
1070
   141
1040
3.0
1070
   147
1040
1.0
1070
   172
1070
     1
1070
   173
1070
     1
1070
   176
1070
   256
1070
   177
1070
   256
1070
   178
1070
   256
1070
   271
1070
     0
1070
   272
1070
     0
1070
   341
1005
B2
1070
   343
1005
B2
1070
   344
1005
B2
1002
}
  0
LINE
  5
3AC2
330
1A
100
AcDbEntity
  8
SEIHIN
  6
PHANTOM
 62
     6
 48
3.0
100
AcDbLine
 10
232.3917685191559
 20
119.5590495020553
 30
0.0
 11
232.3917685191559
 21
83.5590495020553
 31
0.0
  0
LINE
  5
3AC3
330
1A
100
AcDbEntity
  8
SEIHIN
  6
PHANTOM
 62
     6
 48
3.0
100
AcDbLine
 10
226.6917685191559
 20
83.5590495020553
 30
0.0
 11
226.6917685191559
 21
119.5590495020553
 31
0.0
  0
LINE
  5
3AC4
330
1A
100
AcDbEntity
  8
SEIHIN
  6
PHANTOM
 62
     6
 48
3.0
100
AcDbLine
 10
231.1917685191559
 20
119.5590495020553
 30
0.0
 11
231.1917685191559
 21
83.5590495020553
 31
0.0
  0
LINE
  5
3AC5
330
1A
100
AcDbEntity
  8
CENTER L
 48
3.0
100
AcDbLine
 10
221.6917685191559
 20
89.0590495020553
 30
0.0
 11
237.3917685191559
 21
89.0590495020553
 31
0.0
  0
LINE
  5
3AC6
330
1A
100
AcDbEntity
  8
SEIHIN
  6
PHANTOM
 62
     6
 48
3.0
100
AcDbLine
 10
226.6917685191559
 20
83.5590495020553
 30
0.0
 11
232.3917685191559
 21
83.5590495020553
 31
0.0
  0
LINE
  5
3AC7
330
1A
100
AcDbEntity
  8
CENTER L
 48
3.0
100
AcDbLine
 10
221.6917685191559
 20
105.5590495020554
 30
0.0
 11
237.3917685191559
 21
105.5590495020554
 31
0.0
  0
LINE
  5
3AC8
330
1A
100
AcDbEntity
  8
CENTER L
 48
3.0
100
AcDbLine
 10
221.6917685191559
 20
114.0590495020553
 30
0.0
 11
237.3917685191559
 21
114.0590495020553
 31
0.0
  0
LINE
  5
3AC9
330
1A
100
AcDbEntity
  8
SEIHIN
  6
PHANTOM
 62
     6
 48
3.0
100
AcDbLine
 10
225.1629705191558
 20
122.4214515020553
 30
0.0
 11
208.6517005191558
 21
115.9605195020553
 31
0.0
  0
LINE
  5
3ACA
330
1A
100
AcDbEntity
  8
SEIHIN
  6
PHANTOM
 62
     6
 48
3.0
100
AcDbLine
 10
207.5539855191557
 20
121.3617315020553
 30
0.0
 11
224.3552575191559
 21
127.4242955020553
 31
0.0
  0
LINE
  5
3ACB
330
1A
100
AcDbEntity
  8
SEIHIN
  6
PHANTOM
 62
     6
 48
3.0
100
AcDbLine
 10
207.8917685191559
 20
118.8846565020553
 30
0.0
 11
224.0697715191559
 21
125.2151795020553
 31
0.0
  0
ARC
  5
3ACC
330
1A
100
AcDbEntity
  8
SEIHIN
  6
PHANTOM
 62
     6
 48
3.0
100
AcDbCircle
 10
225.4579872630959
 20
120.450824304685
 30
0.0
 40
7.060121346600383
100
AcDbArc
 50
10.85555200528534
 51
98.9858960233264
  0
ARC
  5
3ACD
330
1A
100
AcDbEntity
  8
SEIHIN
  6
PHANTOM
 62
     6
 48
3.0
100
AcDbCircle
 10
225.8917685191559
 20
120.5589655020553
 30
0.0
 40
5.000000094090249
100
AcDbArc
 50
0.0000000470009649
 51
111.3706246361832
  0
LINE
  5
3ACE
330
1A
100
AcDbEntity
  8
SEIHIN
  6
PHANTOM
 62
     6
 48
3.0
100
AcDbLine
 10
226.6917685191559
 20
119.5590495020553
 30
0.0
 11
232.3917685191559
 21
119.5590495020553
 31
0.0
  0
ARC
  5
3ACF
330
1A
100
AcDbEntity
  8
SEIHIN
  6
PHANTOM
 62
     6
 48
3.0
100
AcDbCircle
 10
225.8917685191559
 20
120.5589655020553
 30
0.0
 40
2.000000260324591
100
AcDbArc
 50
0.0000000470001506
 51
111.3706257960968
  0
LINE
  5
3AD0
330
1A
100
AcDbEntity
  8
SEIHIN
  6
PHANTOM
 62
     6
 48
3.0
100
AcDbLine
 10
227.8917685191559
 20
119.5590495020553
 30
0.0
 11
227.8917685191559
 21
120.5589655020553
 31
0.0
  0
LINE
  5
3AD1
330
1A
100
AcDbEntity
  8
SEIHIN
  6
PHANTOM
 62
     6
100
AcDbLine
 10
232.3917685191559
 20
119.5590495020553
 30
0.0
 11
232.3917685191559
 21
121.7804825020553
 31
0.0
  0
LINE
  5
3AD2
330
1A
100
AcDbEntity
  8
SEIHIN
  6
PHANTOM
 62
     6
 48
3.0
100
AcDbLine
 10
230.8917685191559
 20
119.5590495020553
 30
0.0
 11
230.8917685191559
 21
120.5589655020553
 31
0.0
  0
DIMENSION
  5
3AD3
330
1A
100
AcDbEntity
  8
SUNPOU
100
AcDbDimension
  2
*D12
 10
277.9727997823443
 20
83.55904950205532
 30
0.0
 11
275.4727997823443
 21
101.5590495020554
 31
0.0
 70
    32
 71
     5
 42
36.0
  3
STANDARD
100
AcDbAlignedDimension
 13
295.7869175191559
 23
119.5590495020553
 33
0.0
 14
295.7869175191559
 24
83.5590495020553
 34
0.0
 50
90.0
100
AcDbRotatedDimension
1001
ACAD
1000
DSTYLE
1002
{
1070
   140
1040
3.0
1070
    74
1070
     0
1070
   172
1070
     1
1070
    73
1070
     0
1070
   272
1070
     0
1070
    77
1070
     3
1070
   173
1070
     1
1070
   147
1040
1.0
1070
    42
1040
3.0
1070
    44
1040
1.5
1070
    43
1040
7.0
1070
   271
1070
     0
1070
   178
1070
   256
1070
   177
1070
   256
1070
   176
1070
   256
1070
   141
1040
3.0
1070
     7
1000
OPEN
1070
     6
1000
OPEN
1070
    41
1040
3.0
1002
}
  0
DIMENSION
  5
3AD4
330
1A
100
AcDbEntity
  8
SUNPOU
100
AcDbDimension
  2
*D13
 10
288.1440512673344
 20
83.5590495020553
 30
0.0
 11
285.6440512673344
 21
86.30904950205536
 31
0.0
 70
    32
 71
     5
 42
5.5
  3
STANDARD
100
AcDbAlignedDimension
 13
296.2609865191557
 23
89.0590495020553
 33
0.0
 14
295.7869175191559
 24
83.5590495020553
 34
0.0
 50
90.0
100
AcDbRotatedDimension
1001
ACAD
1000
DSTYLE
1002
{
1070
   140
1040
3.0
1070
    74
1070
     0
1070
   172
1070
     1
1070
    73
1070
     0
1070
   272
1070
     0
1070
    77
1070
     3
1070
   173
1070
     1
1070
   147
1040
1.0
1070
    42
1040
3.0
1070
    44
1040
1.5
1070
    43
1040
7.0
1070
   271
1070
     0
1070
   178
1070
   256
1070
   177
1070
   256
1070
   176
1070
   256
1070
   141
1040
3.0
1070
     7
1000
OPEN
1070
     6
1000
OPEN
1070
    41
1040
3.0
1002
}
  0
LINE
  5
3AD5
330
1A
100
AcDbEntity
  8
CENTER L
 48
3.0
100
AcDbLine
 10
319.4869175191559
 20
132.2414955020553
 30
0.0
 11
319.4869175191559
 21
64.95026350205529
 31
0.0
  0
LINE
  5
3AD6
330
1A
100
AcDbEntity
  8
SEIHIN
100
AcDbLine
 10
328.3882845191558
 20
90.0590495020553
 30
0.0
 11
328.3882845191558
 21
93.0590495020553
 31
0.0
  0
LINE
  5
3AD7
330
1A
100
AcDbEntity
  8
SEIHIN
100
AcDbLine
 10
331.4207105191558
 20
90.0590495020553
 30
0.0
 11
331.4207105191558
 21
93.0590495020553
 31
0.0
  0
LINE
  5
3AD8
330
1A
100
AcDbEntity
  8
SEIHIN
100
AcDbLine
 10
327.4869175191559
 20
93.87655450205529
 30
0.0
 11
327.4869175191559
 21
83.5590495020553
 31
0.0
  0
LINE
  5
3AD9
330
1A
100
AcDbEntity
  8
SEIHIN
100
AcDbLine
 10
307.5531255191559
 20
90.0590495020553
 30
0.0
 11
307.5531255191559
 21
93.0590495020553
 31
0.0
  0
LINE
  5
3ADA
330
1A
100
AcDbEntity
  8
SEIHIN
100
AcDbLine
 10
310.5855515191558
 20
90.0590495020553
 30
0.0
 11
310.5855515191558
 21
93.0590495020553
 31
0.0
  0
LINE
  5
3ADB
330
1A
100
AcDbEntity
  8
SEIHIN
100
AcDbLine
 10
311.4869175191559
 20
93.87657850205528
 30
0.0
 11
311.4869175191559
 21
83.5590495020553
 31
0.0
  0
LINE
  5
3ADC
330
1A
100
AcDbEntity
  8
SEIHIN
100
AcDbLine
 10
293.7869175191559
 20
117.5590495020553
 30
0.0
 11
293.7869175191559
 21
85.5590495020553
 31
0.0
  0
ARC
  5
3ADD
330
1A
100
AcDbEntity
  8
SEIHIN
100
AcDbCircle
 10
319.4869175191559
 20
86.3090495020553
 30
0.0
 40
7.249999838287755
100
AcDbArc
 50
46.39719090587919
 51
133.6028309092281
  0
ARC
  5
3ADE
330
1A
100
AcDbEntity
  8
SEIHIN
100
AcDbCircle
 10
295.7869175191559
 20
85.5590495020553
 30
0.0
 40
2.0
100
AcDbArc
 50
180.0
 51
270.0
  0
LINE
  5
3ADF
330
1A
100
AcDbEntity
  8
CENTER L
 48
3.0
100
AcDbLine
 10
299.2609865191557
 20
92.0590495020553
 30
0.0
 11
299.2609865191557
 21
86.0590495020553
 31
0.0
  0
LINE
  5
3AE0
330
1A
100
AcDbEntity
  8
CENTER L
 48
3.0
100
AcDbLine
 10
296.2609865191557
 20
89.0590495020553
 30
0.0
 11
302.2609865191557
 21
89.0590495020553
 31
0.0
  0
CIRCLE
  5
3AE1
330
1A
100
AcDbEntity
  8
SEIHIN
100
AcDbCircle
 10
299.2609865191557
 20
89.0590495020553
 30
0.0
 40
2.1
  0
LINE
  5
3AE2
330
1A
100
AcDbEntity
  8
SEIHIN
100
AcDbLine
 10
317.7369175191559
 20
69.95026350205529
 30
0.0
 11
321.2369175191559
 21
69.95026350205529
 31
0.0
  0
LINE
  5
3AE3
330
1A
100
AcDbEntity
  8
SEIHIN
100
AcDbLine
 10
316.7369175191559
 20
83.5590495020553
 30
0.0
 11
316.7369175191559
 21
70.95026350205529
 31
0.0
  0
ARC
  5
3AE4
330
1A
100
AcDbEntity
  8
SEIHIN
100
AcDbCircle
 10
317.7369175191559
 20
70.95026350205529
 30
0.0
 40
1.0
100
AcDbArc
 50
180.0
 51
270.0
  0
LINE
  5
3AE5
330
1A
100
AcDbEntity
  8
SEIHIN
100
AcDbLine
 10
308.7078195191557
 20
90.0590495020553
 30
0.0
 11
308.7078195191557
 21
83.5590495020553
 31
0.0
  0
LINE
  5
3AE6
330
1A
100
AcDbEntity
  8
SEIHIN
100
AcDbLine
 10
310.3870085191559
 20
90.0590495020553
 30
0.0
 11
310.3870085191559
 21
83.5590495020553
 31
0.0
  0
LINE
  5
3AE7
330
1A
100
AcDbEntity
  8
SEIHIN
100
AcDbLine
 10
310.5855515191558
 20
90.0590495020553
 30
0.0
 11
307.5531255191559
 21
90.0590495020553
 31
0.0
  0
LINE
  5
3AE8
330
1A
100
AcDbEntity
  8
SEIHIN
100
AcDbLine
 10
314.4869175191559
 20
91.5590495020553
 30
0.0
 11
314.4869175191559
 21
83.5590495020553
 31
0.0
  0
LINE
  5
3AE9
330
1A
100
AcDbEntity
  8
SEIHIN
100
AcDbLine
 10
322.2369175191559
 20
83.5590495020553
 30
0.0
 11
322.2369175191559
 21
70.95026350205529
 31
0.0
  0
ARC
  5
3AEA
330
1A
100
AcDbEntity
  8
SEIHIN
100
AcDbCircle
 10
321.2369175191559
 20
70.95026350205529
 30
0.0
 40
1.0
100
AcDbArc
 50
270.0
 51
0.0
  0
LINE
  5
3AEB
330
1A
100
AcDbEntity
  8
SEIHIN
100
AcDbLine
 10
331.4207105191558
 20
90.0590495020553
 30
0.0
 11
328.3882845191558
 21
90.0590495020553
 31
0.0
  0
LINE
  5
3AEC
330
1A
100
AcDbEntity
  8
SEIHIN
100
AcDbLine
 10
324.4869175191559
 20
91.5590495020553
 30
0.0
 11
324.4869175191559
 21
83.5590495020553
 31
0.0
  0
LINE
  5
3AED
330
1A
100
AcDbEntity
  8
SEIHIN
100
AcDbLine
 10
328.5651485191559
 20
90.0590495020553
 30
0.0
 11
328.5651485191559
 21
83.5590495020553
 31
0.0
  0
LINE
  5
3AEE
330
1A
100
AcDbEntity
  8
SEIHIN
100
AcDbLine
 10
330.2453805191558
 20
90.0590495020553
 30
0.0
 11
330.2453805191558
 21
83.5590495020553
 31
0.0
  0
LINE
  5
3AEF
330
1A
100
AcDbEntity
  8
CENTER L
 48
3.0
100
AcDbLine
 10
295.7869175191559
 20
105.5590495020553
 30
0.0
 11
305.7869175191559
 21
105.5590495020553
 31
0.0
  0
LINE
  5
3AF0
330
1A
100
AcDbEntity
  8
SEIHIN
100
AcDbLine
 10
311.4869175191559
 20
119.5590495020553
 30
0.0
 11
295.7869175191559
 21
119.5590495020553
 31
0.0
  0
DIMENSION
  5
3AF1
330
1A
100
AcDbEntity
  8
SUNPOU
100
AcDbDimension
  2
*D14
 10
288.1440512673344
 20
114.0590495020553
 30
0.0
 11
285.6440512673344
 21
116.8090495020554
 31
0.0
 70
    32
 71
     5
 42
5.5
  3
STANDARD
100
AcDbAlignedDimension
 13
295.7869175191559
 23
119.5590495020553
 33
0.0
 14
296.2609865191557
 24
114.0590495020553
 34
0.0
 50
90.0
100
AcDbRotatedDimension
1001
ACAD
1000
DSTYLE
1002
{
1070
   140
1040
3.0
1070
    74
1070
     0
1070
   172
1070
     1
1070
    73
1070
     0
1070
   272
1070
     0
1070
    77
1070
     3
1070
   173
1070
     1
1070
   147
1040
1.0
1070
    42
1040
3.0
1070
    44
1040
1.5
1070
    43
1040
7.0
1070
   271
1070
     0
1070
   178
1070
   256
1070
   177
1070
   256
1070
   176
1070
   256
1070
   141
1040
3.0
1070
     7
1000
OPEN
1070
     6
1000
OPEN
1070
    41
1040
3.0
1002
}
  0
LINE
  5
3AF2
330
1A
100
AcDbEntity
  8
CENTER L
 48
3.0
100
AcDbLine
 10
299.2609865191557
 20
117.0590495020553
 30
0.0
 11
299.2609865191557
 21
111.0590495020553
 31
0.0
  0
CIRCLE
  5
3AF3
330
1A
100
AcDbEntity
  8
SEIHIN
100
AcDbCircle
 10
299.2609865191557
 20
114.0590495020553
 30
0.0
 40
2.1
  0
LINE
  5
3AF4
330
1A
100
AcDbEntity
  8
CENTER L
 48
3.0
100
AcDbLine
 10
300.7869175191559
 20
110.5590495020553
 30
0.0
 11
300.7869175191559
 21
100.5590495020553
 31
0.0
  0
CIRCLE
  5
3AF5
330
1A
100
AcDbEntity
  8
SEIHIN
100
AcDbCircle
 10
300.7869175191559
 20
105.5590495020553
 30
0.0
 40
3.25
  0
LINE
  5
3AF6
330
1A
100
AcDbEntity
  8
CENTER L
 48
3.0
100
AcDbLine
 10
296.2609865191557
 20
114.0590495020553
 30
0.0
 11
302.2609865191557
 21
114.0590495020553
 31
0.0
  0
ARC
  5
3AF7
330
1A
100
AcDbEntity
  8
SEIHIN
100
AcDbCircle
 10
295.7869175191559
 20
117.5590495020553
 30
0.0
 40
2.0
100
AcDbArc
 50
90.0
 51
180.0
  0
LINE
  5
3AF8
330
1A
100
AcDbEntity
  8
SEIHIN
100
AcDbLine
 10
330.2453805191558
 20
119.5590495020553
 30
0.0
 11
330.2453805191558
 21
113.0590495020553
 31
0.0
  0
LINE
  5
3AF9
330
1A
100
AcDbEntity
  8
SEIHIN
100
AcDbLine
 10
328.5651485191559
 20
119.5590495020553
 30
0.0
 11
328.5651485191559
 21
113.0590495020553
 31
0.0
  0
LINE
  5
3AFA
330
1A
100
AcDbEntity
  8
SEIHIN
100
AcDbLine
 10
324.4869175191559
 20
125.7414955020553
 30
0.0
 11
324.4869175191559
 21
110.3765195020553
 31
0.0
  0
LINE
  5
3AFB
330
1A
100
AcDbEntity
  8
SEIHIN
100
AcDbLine
 10
327.4869175191559
 20
124.7045785020553
 30
0.0
 11
327.4869175191559
 21
93.87655450205529
 31
0.0
  0
LINE
  5
3AFC
330
1A
100
AcDbEntity
  8
SEIHIN
100
AcDbLine
 10
310.3870085191559
 20
119.5590495020553
 30
0.0
 11
310.3870085191559
 21
113.0590495020553
 31
0.0
  0
LINE
  5
3AFD
330
1A
100
AcDbEntity
  8
SEIHIN
100
AcDbLine
 10
308.7078195191557
 20
119.5590495020553
 30
0.0
 11
308.7078195191557
 21
113.0590495020553
 31
0.0
  0
LINE
  5
3AFE
330
1A
100
AcDbEntity
  8
SEIHIN
100
AcDbLine
 10
314.4869175191559
 20
125.7414955020553
 30
0.0
 11
314.4869175191559
 21
110.3765195020553
 31
0.0
  0
LINE
  5
3AFF
330
1A
100
AcDbEntity
  8
SEIHIN
100
AcDbLine
 10
311.4869175191559
 20
124.7045785020553
 30
0.0
 11
311.4869175191559
 21
93.87657850205528
 31
0.0
  0
CIRCLE
  5
3B00
330
1A
100
AcDbEntity
  8
SEIHIN
100
AcDbCircle
 10
319.4869175191559
 20
101.5590495020553
 30
0.0
 40
2.1
  0
LINE
  5
3B01
330
1A
100
AcDbEntity
  8
SEIHIN
100
AcDbLine
 10
314.4869175191559
 20
110.3765195020553
 30
0.0
 11
324.4869175191559
 21
110.3765195020553
 31
0.0
  0
LINE
  5
3B02
330
1A
100
AcDbEntity
  8
SEIHIN
100
AcDbLine
 10
310.3870085191559
 20
110.0590495020553
 30
0.0
 11
310.3870085191559
 21
93.0590495020553
 31
0.0
  0
LINE
  5
3B03
330
1A
100
AcDbEntity
  8
SEIHIN
100
AcDbLine
 10
308.7078195191557
 20
110.0590495020553
 30
0.0
 11
308.7078195191557
 21
93.0590495020553
 31
0.0
  0
LINE
  5
3B04
330
1A
100
AcDbEntity
  8
SEIHIN
100
AcDbLine
 10
310.5855515191558
 20
93.0590495020553
 30
0.0
 11
307.5531255191559
 21
93.0590495020553
 31
0.0
  0
LINE
  5
3B05
330
1A
100
AcDbEntity
  8
SEIHIN
100
AcDbLine
 10
310.5855515191558
 20
113.0590495020553
 30
0.0
 11
307.5531255191559
 21
113.0590495020553
 31
0.0
  0
LINE
  5
3B06
330
1A
100
AcDbEntity
  8
SEIHIN
100
AcDbLine
 10
310.5855515191558
 20
110.0590495020553
 30
0.0
 11
307.5531255191559
 21
110.0590495020553
 31
0.0
  0
LINE
  5
3B07
330
1A
100
AcDbEntity
  8
SEIHIN
100
AcDbLine
 10
307.5531255191559
 20
113.0590495020553
 30
0.0
 11
307.5531255191559
 21
110.0590495020553
 31
0.0
  0
LINE
  5
3B08
330
1A
100
AcDbEntity
  8
SEIHIN
100
AcDbLine
 10
310.5855515191558
 20
113.0590495020553
 30
0.0
 11
310.5855515191558
 21
110.0590495020553
 31
0.0
  0
LINE
  5
3B09
330
1A
100
AcDbEntity
  8
SEIHIN
100
AcDbLine
 10
328.5651485191559
 20
110.0590495020553
 30
0.0
 11
328.5651485191559
 21
93.0590495020553
 31
0.0
  0
LINE
  5
3B0A
330
1A
100
AcDbEntity
  8
SEIHIN
100
AcDbLine
 10
330.2453805191558
 20
110.0590495020553
 30
0.0
 11
330.2453805191558
 21
93.0590495020553
 31
0.0
  0
LINE
  5
3B0B
330
1A
100
AcDbEntity
  8
SEIHIN
100
AcDbLine
 10
331.4207105191558
 20
93.0590495020553
 30
0.0
 11
328.3882845191558
 21
93.0590495020553
 31
0.0
  0
LINE
  5
3B0C
330
1A
100
AcDbEntity
  8
SEIHIN
100
AcDbLine
 10
331.4207105191558
 20
113.0590495020553
 30
0.0
 11
328.3882845191558
 21
113.0590495020553
 31
0.0
  0
LINE
  5
3B0D
330
1A
100
AcDbEntity
  8
SEIHIN
100
AcDbLine
 10
331.4207105191558
 20
110.0590495020553
 30
0.0
 11
328.3882845191558
 21
110.0590495020553
 31
0.0
  0
LINE
  5
3B0E
330
1A
100
AcDbEntity
  8
SEIHIN
100
AcDbLine
 10
328.3882845191558
 20
113.0590495020553
 30
0.0
 11
328.3882845191558
 21
110.0590495020553
 31
0.0
  0
LINE
  5
3B0F
330
1A
100
AcDbEntity
  8
SEIHIN
100
AcDbLine
 10
331.4207105191558
 20
113.0590495020553
 30
0.0
 11
331.4207105191558
 21
110.0590495020553
 31
0.0
  0
LINE
  5
3B10
330
1A
100
AcDbEntity
  8
SEIHIN
100
AcDbLine
 10
315.9869175191559
 20
127.2414955020553
 30
0.0
 11
322.9869175191559
 21
127.2414955020553
 31
0.0
  0
ARC
  5
3B11
330
1A
100
AcDbEntity
  8
SEIHIN
100
AcDbCircle
 10
315.9869175191559
 20
125.7414955020553
 30
0.0
 40
1.5
100
AcDbArc
 50
90.0
 51
180.0
  0
LINE
  5
3B12
330
1A
100
AcDbEntity
  8
SEIHIN
100
AcDbLine
 10
311.4869175191559
 20
124.7045785020553
 30
0.0
 11
314.4869175191559
 21
124.7045785020553
 31
0.0
  0
ARC
  5
3B13
330
1A
100
AcDbEntity
  8
SEIHIN
100
AcDbCircle
 10
322.9869175191559
 20
125.7414955020553
 30
0.0
 40
1.5
100
AcDbArc
 50
0.0
 51
90.0
  0
LINE
  5
3B14
330
1A
100
AcDbEntity
  8
SEIHIN
100
AcDbLine
 10
324.4869175191559
 20
124.7045785020553
 30
0.0
 11
327.4869175191559
 21
124.7045785020553
 31
0.0
  0
LINE
  5
3B15
330
1A
100
AcDbEntity
  8
SEIHIN
100
AcDbLine
 10
345.1869175191557
 20
117.5590495020553
 30
0.0
 11
345.1869175191557
 21
85.5590495020553
 31
0.0
  0
ARC
  5
3B16
330
1A
100
AcDbEntity
  8
SEIHIN
100
AcDbCircle
 10
343.1869175191557
 20
85.5590495020553
 30
0.0
 40
2.0
100
AcDbArc
 50
270.0
 51
0.0
  0
LINE
  5
3B17
330
1A
100
AcDbEntity
  8
CENTER L
 48
3.0
100
AcDbLine
 10
339.7128495191557
 20
92.0590495020553
 30
0.0
 11
339.7128495191557
 21
86.0590495020553
 31
0.0
  0
CIRCLE
  5
3B18
330
1A
100
AcDbEntity
  8
SEIHIN
100
AcDbCircle
 10
339.7128495191557
 20
89.0590495020553
 30
0.0
 40
2.1
  0
LEADER
  5
3B19
330
1A
100
AcDbEntity
  8
SUNPOU
100
AcDbLeader
  3
STANDARD
 76
     3
 10
340.9153757976198
 20
107.3248398131288
 30
0.0
 10
353.9234855249201
 20
130.3320655618658
 30
0.0
 10
373.9798897819092
 20
130.3320655618658
 30
0.0
1001
ACAD
1000
DSTYLE
1002
{
1070
     6
1000
OPEN
1070
    41
1040
3.0
1070
    42
1040
3.0
1070
    43
1040
7.0
1070
    44
1040
1.5
1070
    73
1070
     0
1070
    74
1070
     0
1070
    77
1070
     3
1070
   140
1040
3.0
1070
   141
1040
3.0
1070
   147
1040
1.0
1070
   172
1070
     1
1070
   173
1070
     1
1070
   176
1070
   256
1070
   177
1070
   256
1070
   178
1070
   256
1070
   271
1070
     0
1070
   272
1070
     0
1070
   341
1005
B2
1070
   343
1005
B2
1070
   344
1005
B2
1002
}
  0
TEXT
  5
3B1A
330
1A
100
AcDbEntity
  8
SUNPOU
100
AcDbText
 10
355.5922046644246
 20
131.3641140812882
 30
0.0
 40
3.0
  1
2-φ6.5
100
AcDbText
  0
DIMENSION
  5
3B1B
330
1A
100
AcDbEntity
  8
SUNPOU
100
AcDbDimension
  2
*D15
 10
354.7339675377534
 20
105.5590495020553
 30
0.0
 11
352.2339675377534
 21
112.5590495020553
 31
0.0
 70
    32
 71
     5
 42
14.0
  3
STANDARD
100
AcDbAlignedDimension
 13
343.1869175191557
 23
119.5590495020553
 33
0.0
 14
343.1869175191557
 24
105.5590495020553
 34
0.0
 50
90.0
100
AcDbRotatedDimension
1001
ACAD
1000
DSTYLE
1002
{
1070
   140
1040
3.0
1070
    74
1070
     0
1070
   172
1070
     1
1070
    73
1070
     0
1070
   272
1070
     0
1070
    77
1070
     3
1070
   173
1070
     1
1070
   147
1040
1.0
1070
    42
1040
3.0
1070
    44
1040
1.5
1070
    43
1040
7.0
1070
   271
1070
     0
1070
   178
1070
   256
1070
   177
1070
   256
1070
   176
1070
   256
1070
   141
1040
3.0
1070
     7
1000
OPEN
1070
     6
1000
OPEN
1070
    41
1040
3.0
1002
}
  0
LINE
  5
3B1C
330
1A
100
AcDbEntity
  8
CENTER L
 48
3.0
100
AcDbLine
 10
339.7128495191557
 20
117.0590495020553
 30
0.0
 11
339.7128495191557
 21
111.0590495020553
 31
0.0
  0
CIRCLE
  5
3B1D
330
1A
100
AcDbEntity
  8
SEIHIN
100
AcDbCircle
 10
339.7128495191557
 20
114.0590495020553
 30
0.0
 40
2.1
  0
LINE
  5
3B1E
330
1A
100
AcDbEntity
  8
CENTER L
 48
3.0
100
AcDbLine
 10
338.1869175191557
 20
110.5590495020553
 30
0.0
 11
338.1869175191557
 21
100.5590495020553
 31
0.0
  0
ARC
  5
3B1F
330
1A
100
AcDbEntity
  8
SEIHIN
100
AcDbCircle
 10
343.1869175191557
 20
117.5590495020553
 30
0.0
 40
2.0
100
AcDbArc
 50
0.0
 51
90.0
  0
TEXT
  5
3B20
330
1A
100
AcDbEntity
  8
SUNPOU
100
AcDbText
 10
216.6204426230215
 20
153.9104157862788
 30
0.0
 40
3.0
  1
スライド幅
100
AcDbText
  0
VIEWPORT
  5
22
330
17
100
AcDbEntity
 67
     1
  8
0
100
AcDbViewport
 10
313.6808219178083
 20
148.5
 30
0.0
 40
627.3616438356165
 41
297.0
 68
     2
 69
     1
 12
313.6808219178083
 22
148.5
 13
0.0
 23
0.0
 14
1.0
 24
1.0
 15
10.0
 25
10.0
 16
0.0
 26
0.0
 36
1.0
 17
0.0
 27
0.0
 37
0.0
 42
50.0
 43
0.0
 44
0.0
 45
297.0
 50
0.0
 51
0.0
 72
   100
 90
    32768
  1

281
     0
 71
     1
 74
     0
110
0.0
120
0.0
130
0.0
111
1.0
121
0.0
131
0.0
112
0.0
122
1.0
132
0.0
 79
     0
146
0.0
  0
VIEWPORT
  5
64
330
17
100
AcDbEntity
 67
     1
  8
VIEWPORT
100
AcDbViewport
 10
210.0
 20
148.5
 30
0.0
 40
420.0
 41
297.0
 68
     1
 69
     2
 12
210.0
 22
148.5
 13
0.0
 23
0.0
 14
5.0
 24
5.0
 15
0.0
 25
0.0
 16
0.0
 26
0.0
 36
1.0
 17
0.0
 27
0.0
 37
0.0
 42
50.0
 43
0.0
 44
0.0
 45
302.9399999999999
 50
0.0
 51
0.0
 72
   100
 90
    32768
  1

281
     0
 71
     1
 74
     0
110
0.0
120
0.0
130
0.0
111
1.0
121
0.0
131
0.0
112
0.0
122
1.0
132
0.0
 79
     0
146
0.0
  0
ENDSEC
  0
SECTION
  2
OBJECTS
  0
DICTIONARY
  5
C
330
0
100
AcDbDictionary
281
     1
  3
ACAD_GROUP
350
D
  3
ACAD_LAYOUT
350
624
  3
ACAD_MLINESTYLE
350
E
  3
ACAD_PLOTSETTINGS
350
625
  3
ACAD_PLOTSTYLENAME
350
622
  0
DICTIONARY
  5
D
102
{ACAD_REACTORS
330
C
102
}
330
C
100
AcDbDictionary
281
     1
  0
DICTIONARY
  5
624
102
{ACAD_REACTORS
330
C
102
}
330
C
100
AcDbDictionary
281
     1
  3
Model
350
626
  3
ﾚｲｱｳﾄ1
350
627
  0
DICTIONARY
  5
E
102
{ACAD_REACTORS
330
C
102
}
330
C
100
AcDbDictionary
281
     1
  3
STANDARD
350
13
  0
DICTIONARY
  5
625
102
{ACAD_REACTORS
330
C
102
}
330
C
100
AcDbDictionary
281
     1
  0
ACDBDICTIONARYWDFLT
  5
622
102
{ACAD_REACTORS
330
C
102
}
330
C
100
AcDbDictionary
281
     1
  3
Normal
350
623
100
AcDbDictionaryWithDefault
340
623
1001
ACAD
1000
TREAT_AS_HARD
1070
     0
1000
TREAT_AS_HARD
1070
     0
1000
TREAT_AS_HARD
1070
     0
1000
TREAT_AS_HARD
1070
     0
  0
LAYOUT
  5
626
102
{ACAD_REACTORS
330
624
102
}
330
624
100
AcDbPlotSettings
  1

  2
Acrobat PDFWriter
  4
A3
  6

 40
7.143749713897705
 41
7.14375638961792
 42
7.143768310546875
 43
7.14373779296875
 44
297.1270751953125
 45
420.1583251953125
 46
0.0
 47
0.0
 48
0.0
 49
0.0
140
0.0
141
0.0
142
1.0
143
1.0
 70
 11952
 72
     1
 73
     1
 74
     0
  7
print.ctb
 75
    16
147
1.0
148
52.88505331185908
149
1.640883977900558
100
AcDbLayout
  1
Model
 70
     1
 71
     0
 10
0.0
 20
0.0
 11
12.0
 21
9.0
 12
0.0
 22
0.0
 32
0.0
 14
0.0
 24
0.0
 34
0.0
 15
0.0
 25
0.0
 35
0.0
146
0.0
 13
0.0
 23
0.0
 33
0.0
 16
1.0
 26
0.0
 36
0.0
 17
0.0
 27
1.0
 37
0.0
 76
     0
330
1A
  0
LAYOUT
  5
627
102
{ACAD_REACTORS
330
624
102
}
330
624
100
AcDbPlotSettings
  1

  2
EPSON PM-2000C
  4

  6

 40
0.0
 41
0.0
 42
0.0
 43
0.0
 44
0.0
 45
0.0
 46
0.0
 47
0.0
 48
0.0
 49
0.0
140
0.0
141
0.0
142
1.0
143
1.0
 70
   688
 72
     0
 73
     0
 74
     5
  7
print.ctb
 75
    16
147
1.0
148
0.0
149
0.0
100
AcDbLayout
  1
ﾚｲｱｳﾄ1
 70
     1
 71
     1
 10
0.0
 20
0.0
 11
420.0
 21
297.0
 12
0.0
 22
0.0
 32
0.0
 14
0.0
 24
0.0
 34
0.0
 15
420.0
 25
297.0
 35
0.0
146
0.0
 13
0.0
 23
0.0
 33
0.0
 16
1.0
 26
0.0
 36
0.0
 17
0.0
 27
1.0
 37
0.0
 76
     0
330
17
331
64
  0
MLINESTYLE
  5
13
102
{ACAD_REACTORS
330
E
102
}
330
E
100
AcDbMlineStyle
  2
STANDARD
 70
     0
  3

 62
     0
 51
90.0
 52
90.0
 71
     2
 49
0.5
 62
   256
  6
BYLAYER
 49
-0.5
 62
   256
  6
BYLAYER
  0
ACDBPLACEHOLDER
  5
623
102
{ACAD_REACTORS
330
622
102
}
330
622
  0
ENDSEC
  0
EOF
