  0
SECTION
  2
HEADER
  9
$ACADVER
  1
AC1015
  9
$ACADMAINTVER
 70
     6
  9
$DWGCODEPAGE
  3
ANSI_932
  9
$INSBASE
 10
0.0
 20
0.0
 30
0.0
  9
$EXTMIN
 10
-0.0000004828989404
 20
-0.0000000386436341
 30
0.0
  9
$EXTMAX
 10
398.7999995171011
 20
275.7999999613564
 30
0.0
  9
$LIMMIN
 10
0.0
 20
0.0
  9
$LIMMAX
 10
420.0
 20
297.0
  9
$ORTHOMODE
 70
     1
  9
$REGENMODE
 70
     1
  9
$FILLMODE
 70
     1
  9
$QTEXTMODE
 70
     0
  9
$MIRRTEXT
 70
     1
  9
$LTSCALE
 40
1.0
  9
$ATTMODE
 70
     1
  9
$TEXTSIZE
 40
2.5
  9
$TRACEWID
 40
1.0
  9
$TEXTSTYLE
  7
STANDARD
  9
$CLAYER
  8
SUNPOU
  9
$CELTYPE
  6
BYLAYER
  9
$CECOLOR
 62
   256
  9
$CELTSCALE
 40
1.0
  9
$DISPSILH
 70
     0
  9
$DIMSCALE
 40
1.0
  9
$DIMASZ
 40
3.0
  9
$DIMEXO
 40
3.0
  9
$DIMDLI
 40
7.0
  9
$DIMRND
 40
0.0
  9
$DIMDLE
 40
0.0
  9
$DIMEXE
 40
1.5
  9
$DIMTP
 40
0.0
  9
$DIMTM
 40
0.0
  9
$DIMTXT
 40
3.0
  9
$DIMCEN
 40
150.0
  9
$DIMTSZ
 40
0.0
  9
$DIMTOL
 70
     0
  9
$DIMLIM
 70
     0
  9
$DIMTIH
 70
     0
  9
$DIMTOH
 70
     0
  9
$DIMSE1
 70
     0
  9
$DIMSE2
 70
     0
  9
$DIMTAD
 70
     3
  9
$DIMZIN
 70
     0
  9
$DIMBLK
  1

  9
$DIMASO
 70
     1
  9
$DIMSHO
 70
     1
  9
$DIMPOST
  1

  9
$DIMAPOST
  1

  9
$DIMALT
 70
     0
  9
$DIMALTD
 70
     2
  9
$DIMALTF
 40
25.4
  9
$DIMLFAC
 40
1.0
  9
$DIMTOFL
 70
     1
  9
$DIMTVP
 40
0.0
  9
$DIMTIX
 70
     0
  9
$DIMSOXD
 70
     0
  9
$DIMSAH
 70
     1
  9
$DIMBLK1
  1
OPEN
  9
$DIMBLK2
  1
OPEN
  9
$DIMSTYLE
  2
STANDARD
  9
$DIMCLRD
 70
   256
  9
$DIMCLRE
 70
   256
  9
$DIMCLRT
 70
   256
  9
$DIMTFAC
 40
1.0
  9
$DIMGAP
 40
1.0
  9
$DIMJUST
 70
     0
  9
$DIMSD1
 70
     0
  9
$DIMSD2
 70
     0
  9
$DIMTOLJ
 70
     1
  9
$DIMTZIN
 70
     0
  9
$DIMALTZ
 70
     0
  9
$DIMALTTZ
 70
     0
  9
$DIMUPT
 70
     1
  9
$DIMDEC
 70
     0
  9
$DIMTDEC
 70
     0
  9
$DIMALTU
 70
     2
  9
$DIMALTTD
 70
     2
  9
$DIMTXSTY
  7
STANDARD
  9
$DIMAUNIT
 70
     0
  9
$DIMADEC
 70
     0
  9
$DIMALTRND
 40
0.0
  9
$DIMAZIN
 70
     0
  9
$DIMDSEP
 70
    46
  9
$DIMATFIT
 70
     3
  9
$DIMFRAC
 70
     0
  9
$DIMLDRBLK
  1
OPEN
  9
$DIMLUNIT
 70
     2
  9
$DIMLWD
 70
    -1
  9
$DIMLWE
 70
    -1
  9
$DIMTMOVE
 70
     0
  9
$LUNITS
 70
     2
  9
$LUPREC
 70
     4
  9
$SKETCHINC
 40
1.0
  9
$FILLETRAD
 40
0.6
  9
$AUNITS
 70
     0
  9
$AUPREC
 70
     0
  9
$MENU
  1
.
  9
$ELEVATION
 40
0.0
  9
$PELEVATION
 40
0.0
  9
$THICKNESS
 40
0.0
  9
$LIMCHECK
 70
     0
  9
$CHAMFERA
 40
10.0
  9
$CHAMFERB
 40
10.0
  9
$CHAMFERC
 40
20.0
  9
$CHAMFERD
 40
0.0
  9
$SKPOLY
 70
     0
  9
$TDCREATE
 40
2451100.394552546
  9
$TDUCREATE
 40
2451100.019552546
  9
$TDUPDATE
 40
2455609.40457375
  9
$TDUUPDATE
 40
2455609.02957375
  9
$TDINDWG
 40
0.1115808333
  9
$TDUSRTIMER
 40
0.1115808333
  9
$USRTIMER
 70
     1
  9
$ANGBASE
 50
0.0
  9
$ANGDIR
 70
     0
  9
$PDMODE
 70
     0
  9
$PDSIZE
 40
0.0
  9
$PLINEWID
 40
0.0
  9
$SPLFRAME
 70
     0
  9
$SPLINETYPE
 70
     6
  9
$SPLINESEGS
 70
     8
  9
$HANDSEED
  5
4203
  9
$SURFTAB1
 70
     6
  9
$SURFTAB2
 70
     6
  9
$SURFTYPE
 70
     6
  9
$SURFU
 70
     6
  9
$SURFV
 70
     6
  9
$UCSBASE
  2

  9
$UCSNAME
  2

  9
$UCSORG
 10
0.0
 20
0.0
 30
0.0
  9
$UCSXDIR
 10
1.0
 20
0.0
 30
0.0
  9
$UCSYDIR
 10
0.0
 20
1.0
 30
0.0
  9
$UCSORTHOREF
  2

  9
$UCSORTHOVIEW
 70
     0
  9
$UCSORGTOP
 10
0.0
 20
0.0
 30
0.0
  9
$UCSORGBOTTOM
 10
0.0
 20
0.0
 30
0.0
  9
$UCSORGLEFT
 10
0.0
 20
0.0
 30
0.0
  9
$UCSORGRIGHT
 10
0.0
 20
0.0
 30
0.0
  9
$UCSORGFRONT
 10
0.0
 20
0.0
 30
0.0
  9
$UCSORGBACK
 10
0.0
 20
0.0
 30
0.0
  9
$PUCSBASE
  2

  9
$PUCSNAME
  2

  9
$PUCSORG
 10
0.0
 20
0.0
 30
0.0
  9
$PUCSXDIR
 10
1.0
 20
0.0
 30
0.0
  9
$PUCSYDIR
 10
0.0
 20
1.0
 30
0.0
  9
$PUCSORTHOREF
  2

  9
$PUCSORTHOVIEW
 70
     0
  9
$PUCSORGTOP
 10
0.0
 20
0.0
 30
0.0
  9
$PUCSORGBOTTOM
 10
0.0
 20
0.0
 30
0.0
  9
$PUCSORGLEFT
 10
0.0
 20
0.0
 30
0.0
  9
$PUCSORGRIGHT
 10
0.0
 20
0.0
 30
0.0
  9
$PUCSORGFRONT
 10
0.0
 20
0.0
 30
0.0
  9
$PUCSORGBACK
 10
0.0
 20
0.0
 30
0.0
  9
$USERI1
 70
     0
  9
$USERI2
 70
     0
  9
$USERI3
 70
     0
  9
$USERI4
 70
     0
  9
$USERI5
 70
     0
  9
$USERR1
 40
0.0
  9
$USERR2
 40
0.0
  9
$USERR3
 40
0.0
  9
$USERR4
 40
0.0
  9
$USERR5
 40
0.0
  9
$WORLDVIEW
 70
     1
  9
$SHADEDGE
 70
     3
  9
$SHADEDIF
 70
    70
  9
$TILEMODE
 70
     1
  9
$MAXACTVP
 70
    16
  9
$PINSBASE
 10
0.0
 20
0.0
 30
0.0
  9
$PLIMCHECK
 70
     0
  9
$PEXTMIN
 10
0.0
 20
0.0
 30
0.0
  9
$PEXTMAX
 10
420.0
 20
297.0
 30
0.0
  9
$PLIMMIN
 10
0.0
 20
0.0
  9
$PLIMMAX
 10
420.0
 20
297.0
  9
$UNITMODE
 70
     0
  9
$VISRETAIN
 70
     0
  9
$PLINEGEN
 70
     0
  9
$PSLTSCALE
 70
     1
  9
$TREEDEPTH
 70
  3020
  9
$CMLSTYLE
  2
STANDARD
  9
$CMLJUST
 70
     0
  9
$CMLSCALE
 40
1.0
  9
$PROXYGRAPHICS
 70
     1
  9
$MEASUREMENT
 70
     1
  9
$CELWEIGHT
370
    -1
  9
$ENDCAPS
280
     0
  9
$JOINSTYLE
280
     0
  9
$LWDISPLAY
290
     0
  9
$INSUNITS
 70
     0
  9
$HYPERLINKBASE
  1

  9
$STYLESHEET
  1
print.ctb
  9
$XEDIT
290
     1
  9
$CEPSNTYPE
380
     0
  9
$PSTYLEMODE
290
     1
  9
$FINGERPRINTGUID
  2
{137E7082-72B8-11D5-AA3E-50A453C10000}
  9
$VERSIONGUID
  2
{47EF2C82-9FCD-433B-B9BA-1F12A3474E7C}
  9
$EXTNAMES
290
     1
  9
$PSVPSCALE
 40
0.0
  9
$OLESTARTUP
290
     0
  0
ENDSEC
  0
SECTION
  2
CLASSES
  0
CLASS
  1
ACDBDICTIONARYWDFLT
  2
AcDbDictionaryWithDefault
  3
ObjectDBX Classes
 90
        0
280
     0
281
     0
  0
CLASS
  1
ACDBPLACEHOLDER
  2
AcDbPlaceHolder
  3
ObjectDBX Classes
 90
        0
280
     0
281
     0
  0
CLASS
  1
LAYOUT
  2
AcDbLayout
  3
ObjectDBX Classes
 90
        0
280
     0
281
     0
  0
CLASS
  1
DUMMY
  2
AcDbLongTransaction
  3
DUMMY
 90
        0
280
     0
281
     0
  0
CLASS
  1
LWPOLYLINE
  2
AcDbPolyline
  3
AutoCAD 2000
 90
        0
280
     0
281
     1
  0
CLASS
  1
HATCH
  2
AcDbHatch
  3
AutoCAD 2000
 90
        0
280
     0
281
     1
  0
CLASS
  1
XRECORD
  2
AcDbXrecord
  3
AutoCAD 2000
 90
        0
280
     0
281
     0
  0
CLASS
  1
DUMMY
  2
AcDbLongTransaction
  3
DUMMY
 90
        0
280
     0
281
     0
  0
CLASS
  1
LWPOLYLINE
  2
AcDbPolyline
  3
AutoCAD 2000
 90
        0
280
     0
281
     1
  0
CLASS
  1
HATCH
  2
AcDbHatch
  3
AutoCAD 2000
 90
        0
280
     0
281
     1
  0
CLASS
  1
XRECORD
  2
AcDbXrecord
  3
AutoCAD 2000
 90
        0
280
     0
281
     0
  0
CLASS
  1
DUMMY
  2
AcDbLongTransaction
  3
DUMMY
 90
        0
280
     0
281
     0
  0
CLASS
  1
LWPOLYLINE
  2
AcDbPolyline
  3
AutoCAD 2000
 90
        0
280
     0
281
     1
  0
CLASS
  1
HATCH
  2
AcDbHatch
  3
AutoCAD 2000
 90
        0
280
     0
281
     1
  0
CLASS
  1
XRECORD
  2
AcDbXrecord
  3
AutoCAD 2000
 90
        0
280
     0
281
     0
  0
CLASS
  1
DUMMY
  2
AcDbLongTransaction
  3
DUMMY
 90
        0
280
     0
281
     0
  0
CLASS
  1
LWPOLYLINE
  2
AcDbPolyline
  3
AutoCAD 2000
 90
        0
280
     0
281
     1
  0
CLASS
  1
HATCH
  2
AcDbHatch
  3
AutoCAD 2000
 90
        0
280
     0
281
     1
  0
CLASS
  1
XRECORD
  2
AcDbXrecord
  3
AutoCAD 2000
 90
        0
280
     0
281
     0
  0
ENDSEC
  0
SECTION
  2
TABLES
  0
TABLE
  2
VPORT
  5
8
330
0
100
AcDbSymbolTable
 70
     2
  0
VPORT
  5
4202
330
8
100
AcDbSymbolTableRecord
100
AcDbViewportTableRecord
  2
*Active
 70
     0
 10
0.0
 20
0.0
 11
1.0
 21
1.0
 12
207.2214526828674
 22
142.612219782438
 13
0.0
 23
0.0
 14
5.0
 24
5.0
 15
0.0
 25
0.0
 16
0.0
 26
0.0
 36
1.0
 17
0.0
 27
0.0
 37
0.0
 40
318.9654691547616
 41
1.651537335285505
 42
50.0
 43
0.0
 44
0.0
 50
0.0
 51
0.0
 71
     0
 72
   100
 73
     1
 74
     0
 75
     0
 76
     0
 77
     0
 78
     0
281
     0
 65
     1
110
0.0
120
0.0
130
0.0
111
1.0
121
0.0
131
0.0
112
0.0
122
1.0
132
0.0
 79
     0
146
0.0
  0
ENDTAB
  0
TABLE
  2
LTYPE
  5
5
330
0
100
AcDbSymbolTable
 70
     2
  0
LTYPE
  5
14
330
5
100
AcDbSymbolTableRecord
100
AcDbLinetypeTableRecord
  2
BYBLOCK
 70
     0
  3

 72
    65
 73
     0
 40
0.0
  0
LTYPE
  5
15
330
5
100
AcDbSymbolTableRecord
100
AcDbLinetypeTableRecord
  2
BYLAYER
 70
     0
  3

 72
    65
 73
     0
 40
0.0
  0
LTYPE
  5
16
330
5
100
AcDbSymbolTableRecord
100
AcDbLinetypeTableRecord
  2
CONTINUOUS
 70
     0
  3
Solid line
 72
    65
 73
     0
 40
0.0
  0
LTYPE
  5
120
330
5
100
AcDbSymbolTableRecord
100
AcDbLinetypeTableRecord
  2
CENTER
 70
     0
  3
____ _ ____ _ ____ _ ____ _ ____ _ ____ _ ____ 
 72
    65
 73
     4
 40
2.0
 49
1.25
 74
     0
 49
-0.25
 74
     0
 49
0.25
 74
     0
 49
-0.25
 74
     0
  0
ENDTAB
  0
TABLE
  2
LAYER
  5
2
330
0
100
AcDbSymbolTable
 70
     8
  0
LAYER
  5
F
330
2
100
AcDbSymbolTableRecord
100
AcDbLayerTableRecord
  2
0
 70
     0
 62
     7
  6
CONTINUOUS
370
    -3
390
623
  0
LAYER
  5
62
330
2
100
AcDbSymbolTableRecord
100
AcDbLayerTableRecord
  2
VIEWPORT
 70
     0
 62
     7
  6
CONTINUOUS
370
    -3
390
623
  0
LAYER
  5
6B
330
2
100
AcDbSymbolTableRecord
100
AcDbLayerTableRecord
  2
ZUWAKU
 70
     0
 62
     7
  6
CONTINUOUS
370
    -3
390
623
  0
LAYER
  5
1F2
330
2
100
AcDbSymbolTableRecord
100
AcDbLayerTableRecord
  2
SEIHIN
 70
     0
 62
     3
  6
CONTINUOUS
370
    -3
390
623
  0
LAYER
  5
1F3
330
2
100
AcDbSymbolTableRecord
100
AcDbLayerTableRecord
  2
SUNPOU
 70
     0
 62
     4
  6
CONTINUOUS
370
    -3
390
623
  0
LAYER
  5
1F4
330
2
100
AcDbSymbolTableRecord
100
AcDbLayerTableRecord
  2
CENTER L
 70
     0
 62
     1
  6
CENTER
370
    -3
390
623
  0
LAYER
  5
1F5
330
2
100
AcDbSymbolTableRecord
100
AcDbLayerTableRecord
  2
DEFPOINTS
 70
     0
 62
     7
  6
CONTINUOUS
290
     0
370
    -3
390
623
  0
LAYER
  5
A03
330
2
100
AcDbSymbolTableRecord
100
AcDbLayerTableRecord
  2
moji
 70
     0
 62
     2
  6
CONTINUOUS
370
    -3
390
623
  0
ENDTAB
  0
TABLE
  2
STYLE
  5
3
330
0
100
AcDbSymbolTable
 70
     2
  0
STYLE
  5
10
330
3
100
AcDbSymbolTableRecord
100
AcDbTextStyleTableRecord
  2
STANDARD
 70
     0
 40
0.0
 41
1.0
 50
0.0
 71
     0
 42
2.5
  3
TXT
  4
bigfont.shx
  0
STYLE
  5
A04
330
3
100
AcDbSymbolTableRecord
100
AcDbTextStyleTableRecord
  2
ｽﾀｲﾙ1
 70
     0
 40
0.0
 41
1.0
 50
0.0
 71
     0
 42
2.5
  3
MS PGothic.ttf
  4

1001
ACAD
1000
MS PGothic
1071
    32818
  0
ENDTAB
  0
TABLE
  2
VIEW
  5
6
330
0
100
AcDbSymbolTable
 70
     0
  0
ENDTAB
  0
TABLE
  2
UCS
  5
7
330
0
100
AcDbSymbolTable
 70
     0
  0
ENDTAB
  0
TABLE
  2
APPID
  5
9
330
0
100
AcDbSymbolTable
 70
     1
  0
APPID
  5
11
330
9
100
AcDbSymbolTableRecord
100
AcDbRegAppTableRecord
  2
ACAD
 70
     0
  0
ENDTAB
  0
TABLE
  2
DIMSTYLE
  5
A
330
0
100
AcDbSymbolTable
 70
     1
100
AcDbDimStyleTable
  0
DIMSTYLE
105
1D
102
{ACAD_REACTORS
330
3EED
330
3EEF
330
3EF0
330
3EF1
330
3F06
330
3F07
330
3F87
330
3FFF
330
4021
330
402C
330
4030
330
4034
330
4035
330
4071
330
4072
102
}
330
A
100
AcDbSymbolTableRecord
100
AcDbDimStyleTableRecord
  2
STANDARD
 70
     0
340
10
  0
ENDTAB
  0
TABLE
  2
BLOCK_RECORD
  5
1
330
0
100
AcDbSymbolTable
 70
    16
  0
BLOCK_RECORD
  5
1A
330
1
100
AcDbSymbolTableRecord
100
AcDbBlockTableRecord
  2
*MODEL_SPACE
340
626
  0
BLOCK_RECORD
  5
17
330
1
100
AcDbSymbolTableRecord
100
AcDbBlockTableRecord
  2
*PAPER_SPACE
340
627
  0
BLOCK_RECORD
  5
B2
330
1
100
AcDbSymbolTableRecord
100
AcDbBlockTableRecord
  2
_OPEN
340
0
102
{BLKREFS
331
4174
331
4175
331
417D
331
417E
331
4186
331
4187
331
418F
331
4190
331
4198
331
4199
331
41A1
331
41A2
331
41AA
331
41AB
331
41B3
331
41B4
331
41BE
331
41BF
331
41C7
331
41C8
331
41D0
331
41D1
331
41D9
331
41DA
331
41E4
331
41E5
331
41ED
331
41EE
331
41F6
331
41F7
102
}
  0
BLOCK_RECORD
  5
40B9
330
1
100
AcDbSymbolTableRecord
100
AcDbBlockTableRecord
  2
*D1
340
0
  0
BLOCK_RECORD
  5
40C5
330
1
100
AcDbSymbolTableRecord
100
AcDbBlockTableRecord
  2
*D2
340
0
  0
BLOCK_RECORD
  5
40D1
330
1
100
AcDbSymbolTableRecord
100
AcDbBlockTableRecord
  2
*D3
340
0
  0
BLOCK_RECORD
  5
40DD
330
1
100
AcDbSymbolTableRecord
100
AcDbBlockTableRecord
  2
*D4
340
0
  0
BLOCK_RECORD
  5
40E9
330
1
100
AcDbSymbolTableRecord
100
AcDbBlockTableRecord
  2
*D5
340
0
  0
BLOCK_RECORD
  5
40F5
330
1
100
AcDbSymbolTableRecord
100
AcDbBlockTableRecord
  2
*D6
340
0
  0
BLOCK_RECORD
  5
4101
330
1
100
AcDbSymbolTableRecord
100
AcDbBlockTableRecord
  2
*D7
340
0
  0
BLOCK_RECORD
  5
410D
330
1
100
AcDbSymbolTableRecord
100
AcDbBlockTableRecord
  2
*D8
340
0
  0
BLOCK_RECORD
  5
4119
330
1
100
AcDbSymbolTableRecord
100
AcDbBlockTableRecord
  2
*D9
340
0
  0
BLOCK_RECORD
  5
4127
330
1
100
AcDbSymbolTableRecord
100
AcDbBlockTableRecord
  2
*D10
340
0
  0
BLOCK_RECORD
  5
4133
330
1
100
AcDbSymbolTableRecord
100
AcDbBlockTableRecord
  2
*D11
340
0
  0
BLOCK_RECORD
  5
413F
330
1
100
AcDbSymbolTableRecord
100
AcDbBlockTableRecord
  2
*D12
340
0
  0
BLOCK_RECORD
  5
414B
330
1
100
AcDbSymbolTableRecord
100
AcDbBlockTableRecord
  2
*D13
340
0
  0
BLOCK_RECORD
  5
4159
330
1
100
AcDbSymbolTableRecord
100
AcDbBlockTableRecord
  2
*D14
340
0
  0
BLOCK_RECORD
  5
4165
330
1
100
AcDbSymbolTableRecord
100
AcDbBlockTableRecord
  2
*D15
340
0
  0
ENDTAB
  0
ENDSEC
  0
SECTION
  2
BLOCKS
  0
BLOCK
  5
1B
330
1A
100
AcDbEntity
  8
0
100
AcDbBlockBegin
  2
*MODEL_SPACE
 70
     0
 71
     0
 10
0.0
 20
0.0
 30
0.0
  3
*MODEL_SPACE
  1

  0
ENDBLK
  5
1C
330
1A
100
AcDbEntity
  8
0
100
AcDbBlockEnd
  0
BLOCK
  5
18
330
17
100
AcDbEntity
 67
     1
  8
0
100
AcDbBlockBegin
  2
*PAPER_SPACE
 70
     0
 71
     0
 10
0.0
 20
0.0
 30
0.0
  3
*PAPER_SPACE
  1

  0
ENDBLK
  5
19
330
17
100
AcDbEntity
 67
     1
  8
0
100
AcDbBlockEnd
  0
BLOCK
  5
B3
330
B2
100
AcDbEntity
  8
0
100
AcDbBlockBegin
  2
_OPEN
 70
     0
 71
     0
 10
0.0
 20
0.0
 30
0.0
  3
_OPEN
  1

  0
LINE
  5
B4
330
B2
100
AcDbEntity
  8
0
  6
ByBlock
 62
     0
100
AcDbLine
 10
-1.0
 20
0.1666666666666667
 30
0.0
 11
0.0
 21
0.0
 31
0.0
  0
LINE
  5
B5
330
B2
100
AcDbEntity
  8
0
  6
ByBlock
 62
     0
100
AcDbLine
 10
0.0
 20
0.0
 30
0.0
 11
-1.0
 21
-0.1666666666666667
 31
0.0
  0
LINE
  5
B6
330
B2
100
AcDbEntity
  8
0
  6
ByBlock
 62
     0
100
AcDbLine
 10
0.0
 20
0.0
 30
0.0
 11
-1.0
 21
0.0
 31
0.0
  0
ENDBLK
  5
B7
330
B2
100
AcDbEntity
  8
0
100
AcDbBlockEnd
  0
BLOCK
  5
40C3
330
40B9
100
AcDbEntity
  8
0
100
AcDbBlockBegin
  2
*D1
 70
     1
 71
     0
 10
0.0
 20
0.0
 30
0.0
  3
*D1
  1

  0
LINE
  5
4171
330
40B9
100
AcDbEntity
  8
SUNPOU
370
    -2
100
AcDbLine
 10
79.99898850485579
 20
117.6438996600684
 30
0.0
 11
53.18518951873623
 21
117.6438996600684
 31
0.0
  0
LINE
  5
4172
330
40B9
100
AcDbEntity
  8
SUNPOU
370
    -2
100
AcDbLine
 10
225.7128605048556
 20
83.65217766006839
 30
0.0
 11
53.18518951873622
 21
83.65217766006845
 31
0.0
  0
LINE
  5
4173
330
40B9
100
AcDbEntity
  8
SUNPOU
370
    -2
100
AcDbLine
 10
54.68518951873623
 20
114.6438996600684
 30
0.0
 11
54.68518951873622
 21
86.65217766006845
 31
0.0
  0
INSERT
  5
4174
330
40B9
100
AcDbEntity
  8
SUNPOU
370
    -2
100
AcDbBlockReference
  2
_OPEN
 10
54.68518951873623
 20
117.6438996600684
 30
0.0
 41
3.0
 42
3.0
 43
3.0
 50
90.0
  0
INSERT
  5
4175
330
40B9
100
AcDbEntity
  8
SUNPOU
370
    -2
100
AcDbBlockReference
  2
_OPEN
 10
54.68518951873622
 20
83.65217766006845
 30
0.0
 41
3.0
 42
3.0
 43
3.0
 50
270.0
  0
MTEXT
  5
4176
330
40B9
100
AcDbEntity
  8
SUNPOU
100
AcDbMText
 10
52.18518951873621
 20
100.6480386600684
 30
0.0
 40
3.0
 41
0.0
 71
     5
 72
     1
  1
\A1;34
 11
6.123031769111886E-17
 21
1.0
 31
0.0
 73
     1
 44
1.0
  0
POINT
  5
4177
330
40B9
100
AcDbEntity
  8
DEFPOINTS
 62
     0
100
AcDbPoint
 10
82.99898850485579
 20
117.6438996600684
 30
0.0
  0
POINT
  5
4178
330
40B9
100
AcDbEntity
  8
DEFPOINTS
 62
     0
100
AcDbPoint
 10
228.7128605048556
 20
83.65217766006839
 30
0.0
  0
POINT
  5
4179
330
40B9
100
AcDbEntity
  8
DEFPOINTS
 62
     0
100
AcDbPoint
 10
54.68518951873622
 20
83.65217766006845
 30
0.0
  0
ENDBLK
  5
40C4
330
40B9
100
AcDbEntity
  8
0
100
AcDbBlockEnd
  0
BLOCK
  5
40CF
330
40C5
100
AcDbEntity
  8
0
100
AcDbBlockBegin
  2
*D2
 70
     1
 71
     0
 10
0.0
 20
0.0
 30
0.0
  3
*D2
  1

  0
LINE
  5
417A
330
40C5
100
AcDbEntity
  8
SUNPOU
370
    -2
100
AcDbLine
 10
214.8859975463702
 20
121.7806814636263
 30
0.0
 11
214.8859975463702
 21
143.1449531443542
 31
0.0
  0
LINE
  5
417B
330
40C5
100
AcDbEntity
  8
SUNPOU
370
    -2
100
AcDbLine
 10
249.8859975463702
 20
121.7806814636263
 30
0.0
 11
249.8859975463702
 21
143.1449531443542
 31
0.0
  0
LINE
  5
417C
330
40C5
100
AcDbEntity
  8
SUNPOU
370
    -2
100
AcDbLine
 10
217.8859975463702
 20
141.6449531443542
 30
0.0
 11
246.8859975463702
 21
141.6449531443542
 31
0.0
  0
INSERT
  5
417D
330
40C5
100
AcDbEntity
  8
SUNPOU
370
    -2
100
AcDbBlockReference
  2
_OPEN
 10
214.8859975463702
 20
141.6449531443542
 30
0.0
 41
3.0
 42
3.0
 43
3.0
 50
180.0
  0
INSERT
  5
417E
330
40C5
100
AcDbEntity
  8
SUNPOU
370
    -2
100
AcDbBlockReference
  2
_OPEN
 10
249.8859975463702
 20
141.6449531443542
 30
0.0
 41
3.0
 42
3.0
 43
3.0
  0
MTEXT
  5
417F
330
40C5
100
AcDbEntity
  8
SUNPOU
100
AcDbMText
 10
232.3859975463702
 20
144.1449531443542
 30
0.0
 40
3.0
 41
0.0
 71
     5
 72
     1
  1
\A1;35
 73
     1
 44
1.0
  0
POINT
  5
4180
330
40C5
100
AcDbEntity
  8
DEFPOINTS
 62
     0
100
AcDbPoint
 10
214.8859975463702
 20
118.7806814636263
 30
0.0
  0
POINT
  5
4181
330
40C5
100
AcDbEntity
  8
DEFPOINTS
 62
     0
100
AcDbPoint
 10
249.8859975463702
 20
118.7806814636263
 30
0.0
  0
POINT
  5
4182
330
40C5
100
AcDbEntity
  8
DEFPOINTS
 62
     0
100
AcDbPoint
 10
249.8859975463702
 20
141.6449531443542
 30
0.0
  0
ENDBLK
  5
40D0
330
40C5
100
AcDbEntity
  8
0
100
AcDbBlockEnd
  0
BLOCK
  5
40DB
330
40D1
100
AcDbEntity
  8
0
100
AcDbBlockBegin
  2
*D3
 70
     1
 71
     0
 10
0.0
 20
0.0
 30
0.0
  3
*D3
  1

  0
LINE
  5
4183
330
40D1
100
AcDbEntity
  8
SUNPOU
370
    -2
100
AcDbLine
 10
215.1188473493909
 20
126.3800547609301
 30
0.0
 11
230.3031791776219
 21
132.3567311269744
 31
0.0
  0
LINE
  5
4184
330
40D1
100
AcDbEntity
  8
SUNPOU
370
    -2
100
AcDbLine
 10
231.5044009255437
 20
84.75095064829858
 30
0.0
 11
246.6887327537748
 21
90.72762701434289
 31
0.0
  0
LINE
  5
4185
330
40D1
100
AcDbEntity
  8
SUNPOU
370
    -2
100
AcDbLine
 10
230.006181955508
 20
129.0158042121712
 30
0.0
 11
244.1941895552005
 21
92.96978094091593
 31
0.0
  0
INSERT
  5
4186
330
40D1
100
AcDbEntity
  8
SUNPOU
370
    -2
100
AcDbBlockReference
  2
_OPEN
 10
228.9074089672778
 20
131.8073446328593
 30
0.0
 41
3.0
 42
3.0
 43
3.0
 50
111.485001928867
  0
INSERT
  5
4187
330
40D1
100
AcDbEntity
  8
SUNPOU
370
    -2
100
AcDbBlockReference
  2
_OPEN
 10
245.2929625434307
 20
90.17824052022779
 30
0.0
 41
3.0
 42
3.0
 43
3.0
 50
291.485001928867
  0
MTEXT
  5
4188
330
40D1
100
AcDbEntity
  8
SUNPOU
100
AcDbMText
 10
239.426469439261
 20
111.908436733402
 30
0.0
 40
3.0
 41
0.0
 71
     5
 72
     1
  1
\A1;45
 11
0.3662576627433957
 21
-0.9305134735627125
 31
0.0
 73
     1
 44
1.0
  0
POINT
  5
4189
330
40D1
100
AcDbEntity
  8
DEFPOINTS
 62
     0
100
AcDbPoint
 10
212.3273069287028
 20
125.2812817726999
 30
0.0
  0
POINT
  5
418A
330
40D1
100
AcDbEntity
  8
DEFPOINTS
 62
     0
100
AcDbPoint
 10
228.7128605048556
 20
83.6521776600684
 30
0.0
  0
POINT
  5
418B
330
40D1
100
AcDbEntity
  8
DEFPOINTS
 62
     0
100
AcDbPoint
 10
245.2929625434307
 20
90.17824052022779
 30
0.0
  0
ENDBLK
  5
40DC
330
40D1
100
AcDbEntity
  8
0
100
AcDbBlockEnd
  0
BLOCK
  5
40E7
330
40DD
100
AcDbEntity
  8
0
100
AcDbBlockBegin
  2
*D4
 70
     1
 71
     0
 10
0.0
 20
0.0
 30
0.0
  3
*D4
  1

  0
LINE
  5
418C
330
40DD
100
AcDbEntity
  8
SUNPOU
370
    -2
100
AcDbLine
 10
218.3191259605726
 20
118.2494365593048
 30
0.0
 11
225.4123099328564
 21
121.0413711350989
 31
0.0
  0
LINE
  5
418D
330
40DD
100
AcDbEntity
  8
SUNPOU
370
    -2
100
AcDbLine
 10
231.5044009605724
 20
84.75095055930484
 30
0.0
 11
238.5975849328563
 21
87.5428851350989
 31
0.0
  0
LINE
  5
418E
330
40DD
100
AcDbEntity
  8
SUNPOU
370
    -2
100
AcDbLine
 10
225.1153126042345
 20
117.7004442297639
 30
0.0
 11
236.1030418057614
 21
89.78503914119749
 31
0.0
  0
INSERT
  5
418F
330
40DD
100
AcDbEntity
  8
SUNPOU
370
    -2
100
AcDbBlockReference
  2
_OPEN
 10
224.016539704998
 20
120.4919846854807
 30
0.0
 41
3.0
 42
3.0
 43
3.0
 50
111.4850001022888
  0
INSERT
  5
4190
330
40DD
100
AcDbEntity
  8
SUNPOU
370
    -2
100
AcDbBlockReference
  2
_OPEN
 10
237.2018147049979
 20
86.99349868548069
 30
0.0
 41
3.0
 42
3.0
 43
3.0
 50
291.4850001022888
  0
MTEXT
  5
4191
330
40DD
100
AcDbEntity
  8
SUNPOU
100
AcDbMText
 10
232.9354609180953
 20
104.6583857681777
 30
0.0
 40
3.0
 41
0.0
 71
     5
 72
     1
  1
\A1;36
 11
0.3662576330788099
 21
-0.930513485238934
 31
0.0
 73
     1
 44
1.0
  0
POINT
  5
4192
330
40DD
100
AcDbEntity
  8
DEFPOINTS
 62
     0
100
AcDbPoint
 10
215.5275855048558
 20
117.1506636600684
 30
0.0
  0
POINT
  5
4193
330
40DD
100
AcDbEntity
  8
DEFPOINTS
 62
     0
100
AcDbPoint
 10
228.7128605048557
 20
83.6521776600684
 30
0.0
  0
POINT
  5
4194
330
40DD
100
AcDbEntity
  8
DEFPOINTS
 62
     0
100
AcDbPoint
 10
237.2018147049979
 20
86.99349868548069
 30
0.0
  0
ENDBLK
  5
40E8
330
40DD
100
AcDbEntity
  8
0
100
AcDbBlockEnd
  0
BLOCK
  5
40F3
330
40E9
100
AcDbEntity
  8
0
100
AcDbBlockBegin
  2
*D5
 70
     1
 71
     0
 10
0.0
 20
0.0
 30
0.0
  3
*D5
  1

  0
LINE
  5
4195
330
40E9
100
AcDbEntity
  8
SUNPOU
370
    -2
100
AcDbLine
 10
214.8859975463702
 20
121.7806814636263
 30
0.0
 11
214.8859975463702
 21
143.1449531443542
 31
0.0
  0
LINE
  5
4196
330
40E9
100
AcDbEntity
  8
SUNPOU
370
    -2
100
AcDbLine
 10
82.43058566876741
 20
113.4216437258699
 30
0.0
 11
82.43058566876741
 21
143.1449531443542
 31
0.0
  0
LINE
  5
4197
330
40E9
100
AcDbEntity
  8
SUNPOU
370
    -2
100
AcDbLine
 10
211.8859975463702
 20
141.6449531443542
 30
0.0
 11
85.43058566876741
 21
141.6449531443542
 31
0.0
  0
INSERT
  5
4198
330
40E9
100
AcDbEntity
  8
SUNPOU
370
    -2
100
AcDbBlockReference
  2
_OPEN
 10
214.8859975463702
 20
141.6449531443542
 30
0.0
 41
3.0
 42
3.0
 43
3.0
  0
INSERT
  5
4199
330
40E9
100
AcDbEntity
  8
SUNPOU
370
    -2
100
AcDbBlockReference
  2
_OPEN
 10
82.43058566876741
 20
141.6449531443542
 30
0.0
 41
3.0
 42
3.0
 43
3.0
 50
180.0
  0
MTEXT
  5
419A
330
40E9
100
AcDbEntity
  8
SUNPOU
100
AcDbMText
 10
148.6582916075688
 20
144.1449531443542
 30
0.0
 40
3.0
 41
0.0
 71
     5
 72
     1
  1
\A1;132
 73
     1
 44
1.0
  0
POINT
  5
419B
330
40E9
100
AcDbEntity
  8
DEFPOINTS
 62
     0
100
AcDbPoint
 10
214.8859975463702
 20
118.7806814636263
 30
0.0
  0
POINT
  5
419C
330
40E9
100
AcDbEntity
  8
DEFPOINTS
 62
     0
100
AcDbPoint
 10
82.43058566876741
 20
110.4216437258699
 30
0.0
  0
POINT
  5
419D
330
40E9
100
AcDbEntity
  8
DEFPOINTS
 62
     0
100
AcDbPoint
 10
82.43058566876741
 20
141.6449531443542
 30
0.0
  0
ENDBLK
  5
40F4
330
40E9
100
AcDbEntity
  8
0
100
AcDbBlockEnd
  0
BLOCK
  5
40FF
330
40F5
100
AcDbEntity
  8
0
100
AcDbBlockBegin
  2
*D6
 70
     1
 71
     0
 10
0.0
 20
0.0
 30
0.0
  3
*D6
  1

  0
LINE
  5
419E
330
40F5
100
AcDbEntity
  8
SUNPOU
370
    -2
100
AcDbLine
 10
204.7691925048557
 20
89.33133966006841
 30
0.0
 11
204.7691925048557
 21
134.1715157604715
 31
0.0
  0
LINE
  5
419F
330
40F5
100
AcDbEntity
  8
SUNPOU
370
    -2
100
AcDbLine
 10
214.8859975463702
 20
121.7806814636263
 30
0.0
 11
214.8859975463702
 21
134.1715157604715
 31
0.0
  0
LINE
  5
41A0
330
40F5
100
AcDbEntity
  8
SUNPOU
370
    -2
100
AcDbLine
 10
207.7691925048557
 20
132.6715157604715
 30
0.0
 11
211.8859975463702
 21
132.6715157604715
 31
0.0
  0
INSERT
  5
41A1
330
40F5
100
AcDbEntity
  8
SUNPOU
370
    -2
100
AcDbBlockReference
  2
_OPEN
 10
204.7691925048557
 20
132.6715157604715
 30
0.0
 41
3.0
 42
3.0
 43
3.0
 50
180.0
  0
INSERT
  5
41A2
330
40F5
100
AcDbEntity
  8
SUNPOU
370
    -2
100
AcDbBlockReference
  2
_OPEN
 10
214.8859975463702
 20
132.6715157604715
 30
0.0
 41
3.0
 42
3.0
 43
3.0
  0
MTEXT
  5
41A3
330
40F5
100
AcDbEntity
  8
SUNPOU
100
AcDbMText
 10
209.827595025613
 20
135.1715157604715
 30
0.0
 40
3.0
 41
0.0
 71
     5
 72
     1
  1
\A1;10
 73
     1
 44
1.0
  0
POINT
  5
41A4
330
40F5
100
AcDbEntity
  8
DEFPOINTS
 62
     0
100
AcDbPoint
 10
204.7691925048557
 20
86.33133966006841
 30
0.0
  0
POINT
  5
41A5
330
40F5
100
AcDbEntity
  8
DEFPOINTS
 62
     0
100
AcDbPoint
 10
214.8859975463702
 20
118.7806814636263
 30
0.0
  0
POINT
  5
41A6
330
40F5
100
AcDbEntity
  8
DEFPOINTS
 62
     0
100
AcDbPoint
 10
214.8859975463702
 20
132.6715157604715
 30
0.0
  0
ENDBLK
  5
4100
330
40F5
100
AcDbEntity
  8
0
100
AcDbBlockEnd
  0
BLOCK
  5
410B
330
4101
100
AcDbEntity
  8
0
100
AcDbBlockBegin
  2
*D7
 70
     1
 71
     0
 10
0.0
 20
0.0
 30
0.0
  3
*D7
  1

  0
LINE
  5
41A7
330
4101
100
AcDbEntity
  8
SUNPOU
370
    -2
100
AcDbLine
 10
79.99898850485579
 20
210.5967176600684
 30
0.0
 11
53.18518951873626
 21
210.5967176600684
 31
0.0
  0
LINE
  5
41A8
330
4101
100
AcDbEntity
  8
SUNPOU
370
    -2
100
AcDbLine
 10
79.99898850485579
 20
194.0967176600684
 30
0.0
 11
53.18518951873625
 21
194.0967176600684
 31
0.0
  0
LINE
  5
41A9
330
4101
100
AcDbEntity
  8
SUNPOU
370
    -2
100
AcDbLine
 10
54.68518951873625
 20
207.5967176600684
 30
0.0
 11
54.68518951873625
 21
197.0967176600684
 31
0.0
  0
INSERT
  5
41AA
330
4101
100
AcDbEntity
  8
SUNPOU
370
    -2
100
AcDbBlockReference
  2
_OPEN
 10
54.68518951873626
 20
210.5967176600684
 30
0.0
 41
3.0
 42
3.0
 43
3.0
 50
90.0
  0
INSERT
  5
41AB
330
4101
100
AcDbEntity
  8
SUNPOU
370
    -2
100
AcDbBlockReference
  2
_OPEN
 10
54.68518951873625
 20
194.0967176600684
 30
0.0
 41
3.0
 42
3.0
 43
3.0
 50
270.0
  0
MTEXT
  5
41AC
330
4101
100
AcDbEntity
  8
SUNPOU
100
AcDbMText
 10
52.18518951873622
 20
202.3467176600684
 30
0.0
 40
3.0
 41
0.0
 71
     5
 72
     1
  1
\A1;17
 11
6.123031769111886E-17
 21
1.0
 31
0.0
 73
     1
 44
1.0
  0
POINT
  5
41AD
330
4101
100
AcDbEntity
  8
DEFPOINTS
 62
     0
100
AcDbPoint
 10
82.99898850485579
 20
210.5967176600684
 30
0.0
  0
POINT
  5
41AE
330
4101
100
AcDbEntity
  8
DEFPOINTS
 62
     0
100
AcDbPoint
 10
82.99898850485579
 20
194.0967176600684
 30
0.0
  0
POINT
  5
41AF
330
4101
100
AcDbEntity
  8
DEFPOINTS
 62
     0
100
AcDbPoint
 10
54.68518951873625
 20
194.0967176600684
 30
0.0
  0
ENDBLK
  5
410C
330
4101
100
AcDbEntity
  8
0
100
AcDbBlockEnd
  0
BLOCK
  5
4117
330
410D
100
AcDbEntity
  8
0
100
AcDbBlockBegin
  2
*D8
 70
     1
 71
     0
 10
0.0
 20
0.0
 30
0.0
  3
*D8
  1

  0
LINE
  5
41B0
330
410D
100
AcDbEntity
  8
SUNPOU
370
    -2
100
AcDbLine
 10
290.4166774338669
 20
146.6276154200214
 30
0.0
 11
273.1984733033166
 21
139.8503910619358
 31
0.0
  0
LINE
  5
41B1
330
410D
100
AcDbEntity
  8
SUNPOU
370
    -2
100
AcDbLine
 10
303.6019520328438
 20
113.1291302633825
 30
0.0
 11
286.3837479022935
 21
106.3519059052969
 31
0.0
  0
LINE
  5
41B2
330
410D
100
AcDbEntity
  8
SUNPOU
370
    -2
100
AcDbLine
 10
275.6930164264086
 20
137.6082370513838
 30
0.0
 11
286.6807452368799
 21
109.6928328101017
 31
0.0
  0
INSERT
  5
41B3
330
410D
100
AcDbEntity
  8
SUNPOU
370
    -2
100
AcDbBlockReference
  2
_OPEN
 10
274.5942435321558
 20
140.3997775090622
 30
0.0
 41
3.0
 42
3.0
 43
3.0
 50
111.4850000000001
  0
INSERT
  5
41B4
330
410D
100
AcDbEntity
  8
SUNPOU
370
    -2
100
AcDbBlockReference
  2
_OPEN
 10
287.7795181311327
 20
106.9012923524232
 30
0.0
 41
3.0
 42
3.0
 43
3.0
 50
291.4850000000001
  0
MTEXT
  5
41B5
330
410D
100
AcDbEntity
  8
SUNPOU
100
AcDbMText
 10
283.5131645463763
 20
124.5661790092867
 30
0.0
 40
3.0
 41
0.0
 71
     5
 72
     1
  1
\A1;36
 11
0.3662576314175878
 21
-0.9305134858928045
 31
0.0
 73
     1
 44
1.0
  0
POINT
  5
41B6
330
410D
100
AcDbEntity
  8
DEFPOINTS
 62
     0
100
AcDbPoint
 10
293.2082178915453
 20
147.7263883142742
 30
0.0
  0
POINT
  5
41B7
330
410D
100
AcDbEntity
  8
DEFPOINTS
 62
     0
100
AcDbPoint
 10
306.3934924905222
 20
114.2279031576352
 30
0.0
  0
POINT
  5
41B8
330
410D
100
AcDbEntity
  8
DEFPOINTS
 62
     0
100
AcDbPoint
 10
287.7795181311327
 20
106.9012923524232
 30
0.0
  0
ENDBLK
  5
4118
330
410D
100
AcDbEntity
  8
0
100
AcDbBlockEnd
  0
BLOCK
  5
4125
330
4119
100
AcDbEntity
  8
0
100
AcDbBlockBegin
  2
*D9
 70
     1
 71
     0
 10
0.0
 20
0.0
 30
0.0
  3
*D9
  1

  0
LINE
  5
41B9
330
4119
100
AcDbEntity
  8
SUNPOU
370
    -2
100
AcDbLine
 10
303.6019520328438
 20
113.1291302633825
 30
0.0
 11
296.0800987323959
 21
110.1684679887791
 31
0.0
  0
LINE
  5
41BA
330
4119
100
AcDbEntity
  8
SUNPOU
370
    -2
100
AcDbLine
 10
301.587535071369
 20
118.2469544070286
 30
0.0
 11
294.0656817709211
 21
115.2862921324252
 31
0.0
  0
LINE
  5
41BB
330
4119
100
AcDbEntity
  8
SUNPOU
370
    -2
100
AcDbLine
 10
298.5746418554878
 20
107.926313978227
 30
0.0
 11
299.6734147497406
 21
105.1347735205486
 31
0.0
  0
LINE
  5
41BC
330
4119
100
AcDbEntity
  8
SUNPOU
370
    -2
100
AcDbLine
 10
294.3626791055075
 20
118.62721903723
 30
0.0
 11
293.2639062112548
 21
121.4187594949084
 31
0.0
  0
LINE
  5
41BD
330
4119
100
AcDbEntity
  8
SUNPOU
370
    -2
100
AcDbLine
 10
297.4758689612351
 20
110.7178544359055
 30
0.0
 11
295.4614519997603
 21
115.8356785795515
 31
0.0
  0
INSERT
  5
41BE
330
4119
100
AcDbEntity
  8
SUNPOU
370
    -2
100
AcDbBlockReference
  2
_OPEN
 10
297.4758689612351
 20
110.7178544359055
 30
0.0
 41
3.0
 42
3.0
 43
3.0
 50
111.4849999999997
  0
INSERT
  5
41BF
330
4119
100
AcDbEntity
  8
SUNPOU
370
    -2
100
AcDbBlockReference
  2
_OPEN
 10
295.4614519997603
 20
115.8356785795515
 30
0.0
 41
3.0
 42
3.0
 43
3.0
 50
291.4849999999997
  0
MTEXT
  5
41C0
330
4119
100
AcDbEntity
  8
SUNPOU
100
AcDbMText
 10
298.7949441952297
 20
114.1924105862725
 30
0.0
 40
3.0
 41
0.0
 71
     5
 72
     1
  1
\A1;6
 11
0.36625763141758
 21
-0.9305134858928076
 31
0.0
 73
     1
 44
1.0
  0
POINT
  5
41C1
330
4119
100
AcDbEntity
  8
DEFPOINTS
 62
     0
100
AcDbPoint
 10
306.3934924905222
 20
114.2279031576352
 30
0.0
  0
POINT
  5
41C2
330
4119
100
AcDbEntity
  8
DEFPOINTS
 62
     0
100
AcDbPoint
 10
304.3790755290474
 20
119.3457273012813
 30
0.0
  0
POINT
  5
41C3
330
4119
100
AcDbEntity
  8
DEFPOINTS
 62
     0
100
AcDbPoint
 10
295.4614519997603
 20
115.8356785795515
 30
0.0
  0
ENDBLK
  5
4126
330
4119
100
AcDbEntity
  8
0
100
AcDbBlockEnd
  0
BLOCK
  5
4131
330
4127
100
AcDbEntity
  8
0
100
AcDbBlockBegin
  2
*D10
 70
     1
 71
     0
 10
0.0
 20
0.0
 30
0.0
  3
*D10
  1

  0
LINE
  5
41C4
330
4127
100
AcDbEntity
  8
SUNPOU
370
    -2
100
AcDbLine
 10
339.6649703112854
 20
166.0121420373903
 30
0.0
 11
346.9196367635068
 21
168.8676374082777
 31
0.0
  0
LINE
  5
41C5
330
4127
100
AcDbEntity
  8
SUNPOU
370
    -2
100
AcDbLine
 10
344.7925770183671
 20
152.9849535721923
 30
0.0
 11
352.0472434705885
 21
155.8404489430797
 31
0.0
  0
LINE
  5
41C6
330
4127
100
AcDbEntity
  8
SUNPOU
370
    -2
100
AcDbLine
 10
346.6226394289204
 20
165.5267105034729
 30
0.0
 11
349.5527003474965
 21
158.0826029536318
 31
0.0
  0
INSERT
  5
41C7
330
4127
100
AcDbEntity
  8
SUNPOU
370
    -2
100
AcDbBlockReference
  2
_OPEN
 10
345.5238665346676
 20
168.3182509611513
 30
0.0
 41
3.0
 42
3.0
 43
3.0
 50
111.4850000000001
  0
INSERT
  5
41C8
330
4127
100
AcDbEntity
  8
SUNPOU
370
    -2
100
AcDbBlockReference
  2
_OPEN
 10
350.6514732417493
 20
155.2910624959533
 30
0.0
 41
3.0
 42
3.0
 43
3.0
 50
291.4850000000001
  0
MTEXT
  5
41C9
330
4127
100
AcDbEntity
  8
SUNPOU
100
AcDbMText
 10
350.4139536029405
 20
162.7203008070963
 30
0.0
 40
3.0
 41
0.0
 71
     5
 72
     1
  1
\A1;14
 11
0.3662576314175878
 21
-0.9305134858928045
 31
0.0
 73
     1
 44
1.0
  0
POINT
  5
41CA
330
4127
100
AcDbEntity
  8
DEFPOINTS
 62
     0
100
AcDbPoint
 10
336.873429853607
 20
164.9133691431375
 30
0.0
  0
POINT
  5
41CB
330
4127
100
AcDbEntity
  8
DEFPOINTS
 62
     0
100
AcDbPoint
 10
342.0010365606887
 20
151.8861806779395
 30
0.0
  0
POINT
  5
41CC
330
4127
100
AcDbEntity
  8
DEFPOINTS
 62
     0
100
AcDbPoint
 10
350.6514732417493
 20
155.2910624959533
 30
0.0
  0
ENDBLK
  5
4132
330
4127
100
AcDbEntity
  8
0
100
AcDbBlockEnd
  0
BLOCK
  5
413D
330
4133
100
AcDbEntity
  8
0
100
AcDbBlockBegin
  2
*D11
 70
     1
 71
     0
 10
0.0
 20
0.0
 30
0.0
  3
*D11
  1

  0
LINE
  5
41CD
330
4133
100
AcDbEntity
  8
SUNPOU
370
    -2
100
AcDbLine
 10
228.7128605048556
 20
227.9987836600684
 30
0.0
 11
245.529903287008
 21
227.9987836600684
 31
0.0
  0
LINE
  5
41CE
330
4133
100
AcDbEntity
  8
SUNPOU
370
    -2
100
AcDbLine
 10
228.7128605048556
 20
176.6950566600684
 30
0.0
 11
245.529903287008
 21
176.6950566600684
 31
0.0
  0
LINE
  5
41CF
330
4133
100
AcDbEntity
  8
SUNPOU
370
    -2
100
AcDbLine
 10
244.029903287008
 20
224.9987836600684
 30
0.0
 11
244.029903287008
 21
179.6950566600684
 31
0.0
  0
INSERT
  5
41D0
330
4133
100
AcDbEntity
  8
SUNPOU
370
    -2
100
AcDbBlockReference
  2
_OPEN
 10
244.029903287008
 20
227.9987836600684
 30
0.0
 41
3.0
 42
3.0
 43
3.0
 50
90.0
  0
INSERT
  5
41D1
330
4133
100
AcDbEntity
  8
SUNPOU
370
    -2
100
AcDbBlockReference
  2
_OPEN
 10
244.029903287008
 20
176.6950566600684
 30
0.0
 41
3.0
 42
3.0
 43
3.0
 50
270.0
  0
MTEXT
  5
41D2
330
4133
100
AcDbEntity
  8
SUNPOU
100
AcDbMText
 10
241.529903287008
 20
202.3469201600684
 30
0.0
 40
3.0
 41
0.0
 71
     5
 72
     1
  1
\A1;51
 11
6.123031769111886E-17
 21
1.0
 31
0.0
 73
     1
 44
1.0
  0
POINT
  5
41D3
330
4133
100
AcDbEntity
  8
DEFPOINTS
 62
     0
100
AcDbPoint
 10
225.7128605048556
 20
227.9987836600684
 30
0.0
  0
POINT
  5
41D4
330
4133
100
AcDbEntity
  8
DEFPOINTS
 62
     0
100
AcDbPoint
 10
225.7128605048556
 20
176.6950566600684
 30
0.0
  0
POINT
  5
41D5
330
4133
100
AcDbEntity
  8
DEFPOINTS
 62
     0
100
AcDbPoint
 10
244.029903287008
 20
176.6950566600684
 30
0.0
  0
ENDBLK
  5
413E
330
4133
100
AcDbEntity
  8
0
100
AcDbBlockEnd
  0
BLOCK
  5
4149
330
413F
100
AcDbEntity
  8
0
100
AcDbBlockBegin
  2
*D12
 70
     1
 71
     0
 10
0.0
 20
0.0
 30
0.0
  3
*D12
  1

  0
LINE
  5
41D6
330
413F
100
AcDbEntity
  8
SUNPOU
370
    -2
100
AcDbLine
 10
338.3681993378603
 20
166.5763977497988
 30
0.0
 11
324.6910577446296
 21
201.3245196591437
 31
0.0
  0
LINE
  5
41D7
330
413F
100
AcDbEntity
  8
SUNPOU
370
    -2
100
AcDbLine
 10
290.5398063378602
 20
147.7507557497988
 30
0.0
 11
276.8626647446295
 21
182.4988776591436
 31
0.0
  0
LINE
  5
41D8
330
413F
100
AcDbEntity
  8
SUNPOU
370
    -2
100
AcDbLine
 10
322.4489037256767
 20
198.8299765436026
 30
0.0
 11
280.2035916484341
 21
182.2018803133059
 31
0.0
  0
INSERT
  5
41D9
330
413F
100
AcDbEntity
  8
SUNPOU
370
    -2
100
AcDbBlockReference
  2
_OPEN
 10
325.2404441870555
 20
199.9287494284543
 30
0.0
 41
3.0
 42
3.0
 43
3.0
 50
21.48499980704546
  0
INSERT
  5
41DA
330
413F
100
AcDbEntity
  8
SUNPOU
370
    -2
100
AcDbBlockReference
  2
_OPEN
 10
277.4120511870554
 20
181.1031074284542
 30
0.0
 41
3.0
 42
3.0
 43
3.0
 50
201.4849998070454
  0
MTEXT
  5
41DB
330
413F
100
AcDbEntity
  8
SUNPOU
100
AcDbMText
 10
300.4106036163457
 20
192.8422121462699
 30
0.0
 40
3.0
 41
0.0
 71
     5
 72
     1
  1
\A1;51
 11
0.9305134871262485
 21
0.3662576282839022
 31
0.0
 73
     1
 44
1.0
  0
POINT
  5
41DC
330
413F
100
AcDbEntity
  8
DEFPOINTS
 62
     0
100
AcDbPoint
 10
339.466972222712
 20
163.7848572884201
 30
0.0
  0
POINT
  5
41DD
330
413F
100
AcDbEntity
  8
DEFPOINTS
 62
     0
100
AcDbPoint
 10
291.6385792227119
 20
144.9592152884201
 30
0.0
  0
POINT
  5
41DE
330
413F
100
AcDbEntity
  8
DEFPOINTS
 62
     0
100
AcDbPoint
 10
277.4120511870554
 20
181.1031074284542
 30
0.0
  0
ENDBLK
  5
414A
330
413F
100
AcDbEntity
  8
0
100
AcDbBlockEnd
  0
BLOCK
  5
4157
330
414B
100
AcDbEntity
  8
0
100
AcDbBlockBegin
  2
*D13
 70
     1
 71
     0
 10
0.0
 20
0.0
 30
0.0
  3
*D13
  1

  0
LINE
  5
41DF
330
414B
100
AcDbEntity
  8
SUNPOU
370
    -2
100
AcDbLine
 10
290.416677433867
 20
146.6276154200215
 30
0.0
 11
281.8818335197284
 21
143.2682318496568
 31
0.0
  0
LINE
  5
41E0
330
414B
100
AcDbEntity
  8
SUNPOU
370
    -2
100
AcDbLine
 10
292.431094307355
 20
141.5097914999146
 30
0.0
 11
283.8962503932164
 21
138.1504079295499
 31
0.0
  0
LINE
  5
41E1
330
414B
100
AcDbEntity
  8
SUNPOU
370
    -2
100
AcDbLine
 10
282.1788308543148
 20
146.6091587544616
 30
0.0
 11
281.0800579600621
 21
149.40069921214
 31
0.0
  0
LINE
  5
41E2
330
414B
100
AcDbEntity
  8
SUNPOU
370
    -2
100
AcDbLine
 10
286.3907935163082
 20
135.9082539189978
 30
0.0
 11
287.489566410561
 21
133.1167134613194
 31
0.0
  0
LINE
  5
41E3
330
414B
100
AcDbEntity
  8
SUNPOU
370
    -2
100
AcDbLine
 10
283.2776037485676
 20
143.8176182967831
 30
0.0
 11
285.2920206220555
 21
138.6997943766762
 31
0.0
  0
INSERT
  5
41E4
330
414B
100
AcDbEntity
  8
SUNPOU
370
    -2
100
AcDbBlockReference
  2
_OPEN
 10
283.2776037485676
 20
143.8176182967831
 30
0.0
 41
3.0
 42
3.0
 43
3.0
 50
291.4849999999995
  0
INSERT
  5
41E5
330
414B
100
AcDbEntity
  8
SUNPOU
370
    -2
100
AcDbBlockReference
  2
_OPEN
 10
285.2920206220555
 20
138.6997943766762
 30
0.0
 41
3.0
 42
3.0
 43
3.0
 50
111.4849999999995
  0
MTEXT
  5
41E6
330
414B
100
AcDbEntity
  8
SUNPOU
100
AcDbMText
 10
286.6110959000436
 20
142.1743504152736
 30
0.0
 40
3.0
 41
0.0
 71
     5
 72
     1
  1
\A1;6
 11
0.3662576314175775
 21
-0.9305134858928085
 31
0.0
 73
     1
 44
1.0
  0
POINT
  5
41E7
330
414B
100
AcDbEntity
  8
DEFPOINTS
 62
     0
100
AcDbPoint
 10
293.2082178915454
 20
147.7263883142743
 30
0.0
  0
POINT
  5
41E8
330
414B
100
AcDbEntity
  8
DEFPOINTS
 62
     0
100
AcDbPoint
 10
295.2226347650334
 20
142.6085643941674
 30
0.0
  0
POINT
  5
41E9
330
414B
100
AcDbEntity
  8
DEFPOINTS
 62
     0
100
AcDbPoint
 10
285.2920206220555
 20
138.6997943766762
 30
0.0
  0
ENDBLK
  5
4158
330
414B
100
AcDbEntity
  8
0
100
AcDbBlockEnd
  0
BLOCK
  5
4163
330
4159
100
AcDbEntity
  8
0
100
AcDbBlockBegin
  2
*D14
 70
     1
 71
     0
 10
0.0
 20
0.0
 30
0.0
  3
*D14
  1

  0
LINE
  5
41EA
330
4159
100
AcDbEntity
  8
SUNPOU
370
    -2
100
AcDbLine
 10
295.8166294342061
 20
149.2904182037769
 30
0.0
 11
285.2555595776898
 21
176.1218534667326
 31
0.0
  0
LINE
  5
41EB
330
4159
100
AcDbEntity
  8
SUNPOU
370
    -2
100
AcDbLine
 10
333.4576344674871
 20
164.1062221192239
 30
0.0
 11
322.8965646109708
 21
190.9376573821796
 31
0.0
  0
LINE
  5
41EC
330
4159
100
AcDbEntity
  8
SUNPOU
370
    -2
100
AcDbLine
 10
288.5964864824946
 20
175.8248561321461
 30
0.0
 11
320.6544106004188
 21
188.4431142590876
 31
0.0
  0
INSERT
  5
41ED
330
4159
100
AcDbEntity
  8
SUNPOU
370
    -2
100
AcDbBlockReference
  2
_OPEN
 10
285.8049460248162
 20
174.7260832378933
 30
0.0
 41
3.0
 42
3.0
 43
3.0
 50
201.4849999999999
  0
INSERT
  5
41EE
330
4159
100
AcDbEntity
  8
SUNPOU
370
    -2
100
AcDbBlockReference
  2
_OPEN
 10
323.4459510580972
 20
189.5418871533404
 30
0.0
 41
3.0
 42
3.0
 43
3.0
 50
21.48499999999996
  0
MTEXT
  5
41EF
330
4159
100
AcDbEntity
  8
SUNPOU
100
AcDbMText
 10
303.7098044629128
 20
184.4602689103489
 30
0.0
 40
3.0
 41
0.0
 71
     5
 72
     1
  1
\A1;40
 11
0.9305134858928056
 21
0.3662576314175849
 31
0.0
 73
     1
 44
1.0
  0
POINT
  5
41F0
330
4159
100
AcDbEntity
  8
DEFPOINTS
 62
     0
100
AcDbPoint
 10
296.9154023284589
 20
146.4988777460985
 30
0.0
  0
POINT
  5
41F1
330
4159
100
AcDbEntity
  8
DEFPOINTS
 62
     0
100
AcDbPoint
 10
334.5564073617398
 20
161.3146816615455
 30
0.0
  0
POINT
  5
41F2
330
4159
100
AcDbEntity
  8
DEFPOINTS
 62
     0
100
AcDbPoint
 10
323.4459510580972
 20
189.5418871533404
 30
0.0
  0
ENDBLK
  5
4164
330
4159
100
AcDbEntity
  8
0
100
AcDbBlockEnd
  0
BLOCK
  5
416F
330
4165
100
AcDbEntity
  8
0
100
AcDbBlockBegin
  2
*D15
 70
     1
 71
     0
 10
0.0
 20
0.0
 30
0.0
  3
*D15
  1

  0
LINE
  5
41F3
330
4165
100
AcDbEntity
  8
SUNPOU
370
    -2
100
AcDbLine
 10
299.6172041713712
 20
143.8009651755626
 30
0.0
 11
290.0795807318623
 21
168.0322342947356
 31
0.0
  0
LINE
  5
41F4
330
4165
100
AcDbEntity
  8
SUNPOU
370
    -2
100
AcDbLine
 10
334.4184080798841
 20
157.4990004079942
 30
0.0
 11
324.8807846403752
 21
181.7302695271671
 31
0.0
  0
LINE
  5
41F5
330
4165
100
AcDbEntity
  8
SUNPOU
370
    -2
100
AcDbLine
 10
293.4205076366671
 20
167.7352369601491
 30
0.0
 11
322.6386306298231
 21
179.2357264040751
 31
0.0
  0
INSERT
  5
41F6
330
4165
100
AcDbEntity
  8
SUNPOU
370
    -2
100
AcDbBlockReference
  2
_OPEN
 10
290.6289671789887
 20
166.6364640658964
 30
0.0
 41
3.0
 42
3.0
 43
3.0
 50
201.485
  0
INSERT
  5
41F7
330
4165
100
AcDbEntity
  8
SUNPOU
370
    -2
100
AcDbBlockReference
  2
_OPEN
 10
325.4301710875016
 20
180.3344992983279
 30
0.0
 41
3.0
 42
3.0
 43
3.0
 50
21.48499999999999
  0
MTEXT
  5
41F8
330
4165
100
AcDbEntity
  8
SUNPOU
100
AcDbMText
 10
307.1139250547011
 20
175.8117653968442
 30
0.0
 40
3.0
 41
0.0
 71
     5
 72
     1
  1
\A1;37
 11
0.9305134858928055
 21
0.3662576314175853
 31
0.0
 73
     1
 44
1.0
  0
POINT
  5
41F9
330
4165
100
AcDbEntity
  8
DEFPOINTS
 62
     0
100
AcDbPoint
 10
300.715977065624
 20
141.0094247178841
 30
0.0
  0
POINT
  5
41FA
330
4165
100
AcDbEntity
  8
DEFPOINTS
 62
     0
100
AcDbPoint
 10
335.5171809741369
 20
154.7074599503157
 30
0.0
  0
POINT
  5
41FB
330
4165
100
AcDbEntity
  8
DEFPOINTS
 62
     0
100
AcDbPoint
 10
325.4301710875016
 20
180.3344992983279
 30
0.0
  0
ENDBLK
  5
4170
330
4165
100
AcDbEntity
  8
0
100
AcDbBlockEnd
  0
ENDSEC
  0
SECTION
  2
ENTITIES
  0
LWPOLYLINE
  5
ABF
330
1A
100
AcDbEntity
  8
ZUWAKU
100
AcDbPolyline
 90
        4
 70
     1
 43
0.0
 10
0.3999995171010369
 20
275.3999999613564
 10
0.3999995171010369
 20
0.3999999613564
 10
398.399999517101
 20
0.3999999613564
 10
398.399999517101
 20
275.3999999613564
  0
LWPOLYLINE
  5
AC0
330
1A
100
AcDbEntity
  8
ZUWAKU
100
AcDbPolyline
 90
        4
 70
     1
 43
0.0
 10
0.1999995171010482
 20
275.5999999613564
 10
0.1999995171010482
 20
0.1999999613564114
 10
398.5999995171011
 20
0.1999999613563999
 10
398.5999995171011
 20
275.5999999613564
  0
LWPOLYLINE
  5
AC1
330
1A
100
AcDbEntity
  8
ZUWAKU
100
AcDbPolyline
 90
        4
 70
     1
 43
0.0
 10
-0.0000004828989404
 20
275.7999999613564
 10
-0.0000004828989404
 20
-0.0000000386436341
 10
398.7999995171011
 20
-0.0000000386436003
 10
398.7999995171011
 20
275.7999999613564
  0
LWPOLYLINE
  5
AC2
330
1A
100
AcDbEntity
  8
ZUWAKU
100
AcDbPolyline
 90
        4
 70
     1
 43
0.0
 10
0.2999995171010141
 20
275.4999999613564
 10
0.2999995171010141
 20
0.2999999613563773
 10
398.4999995171012
 20
0.2999999613564004
 10
398.4999995171011
 20
275.4999999613564
  0
LWPOLYLINE
  5
AC3
330
1A
100
AcDbEntity
  8
ZUWAKU
100
AcDbPolyline
 90
        4
 70
     1
 43
0.0
 10
0.0999995171010255
 20
275.6999999613564
 10
0.0999995171010255
 20
0.0999999613563887
 10
398.699999517101
 20
0.0999999613564002
 10
398.6999995171011
 20
275.6999999613564
  0
LINE
  5
AC4
330
1A
100
AcDbEntity
  8
ZUWAKU
100
AcDbLine
 10
-0.0000004828989404
 20
14.99999996135637
 30
0.0
 11
398.699999517101
 21
14.99999996135637
 31
0.0
  0
LINE
  5
AC5
330
1A
100
AcDbEntity
  8
ZUWAKU
100
AcDbLine
 10
-0.0000004828989404
 20
15.09999996135637
 30
0.0
 11
398.699999517101
 21
15.09999996135637
 31
0.0
  0
LINE
  5
AC6
330
1A
100
AcDbEntity
  8
ZUWAKU
100
AcDbLine
 10
-0.0000004828989404
 20
15.19999996135637
 30
0.0
 11
398.699999517101
 21
15.19999996135637
 31
0.0
  0
LINE
  5
AC7
330
1A
100
AcDbEntity
  8
ZUWAKU
100
AcDbLine
 10
-0.0000004828989404
 20
15.29999996135637
 30
0.0
 11
398.699999517101
 21
15.29999996135637
 31
0.0
  0
LINE
  5
AC8
330
1A
100
AcDbEntity
  8
ZUWAKU
100
AcDbLine
 10
-0.0000004828989404
 20
15.39999996135637
 30
0.0
 11
398.699999517101
 21
15.39999996135637
 31
0.0
  0
LINE
  5
AC9
330
1A
100
AcDbEntity
  8
ZUWAKU
100
AcDbLine
 10
104.3233001621351
 20
7.699999961356383
 30
0.0
 11
223.7121815025968
 21
7.699999961356383
 31
0.0
  0
LINE
  5
ACA
330
1A
100
AcDbEntity
  8
ZUWAKU
100
AcDbLine
 10
104.3233001621351
 20
7.799999961356383
 30
0.0
 11
223.7121815025968
 21
7.799999961356386
 31
0.0
  0
LINE
  5
ACB
330
1A
100
AcDbEntity
  8
ZUWAKU
100
AcDbLine
 10
104.3233001621351
 20
7.599999961356385
 30
0.0
 11
223.7121815025968
 21
7.599999961356382
 31
0.0
  0
TEXT
  5
ACC
330
1A
100
AcDbEntity
  8
moji
100
AcDbText
 10
46.47889431118563
 20
6.370589026493747
 30
0.0
 40
3.0
  1
アーバントップΣ９０
 41
0.9
  7
ｽﾀｲﾙ1
100
AcDbText
  0
CIRCLE
  5
ACD
330
1A
100
AcDbEntity
  8
ZUWAKU
100
AcDbCircle
 10
12.99610559449161
 20
7.599999961356367
 30
0.0
 40
0.875
  0
LINE
  5
ACE
330
1A
100
AcDbEntity
  8
ZUWAKU
100
AcDbLine
 10
13.43360559449161
 20
3.574999961356369
 30
0.0
 11
12.47110559449163
 21
3.574999961356369
 31
0.0
  0
LINE
  5
ACF
330
1A
100
AcDbEntity
  8
ZUWAKU
100
AcDbLine
 10
12.47110559449163
 20
4.974999961356367
 30
0.0
 11
13.43360559449161
 21
4.974999961356367
 31
0.0
  0
LINE
  5
AD0
330
1A
100
AcDbEntity
  8
ZUWAKU
100
AcDbLine
 10
13.43360559449161
 20
10.22499996135637
 30
0.0
 11
12.47110559449163
 21
10.22499996135637
 31
0.0
  0
LINE
  5
AD1
330
1A
100
AcDbEntity
  8
ZUWAKU
100
AcDbLine
 10
12.47110559449163
 20
11.62499996135635
 30
0.0
 11
13.43360559449161
 21
11.62499996135637
 31
0.0
  0
HATCH
  5
AD2
330
1A
100
AcDbEntity
  8
ZUWAKU
100
AcDbHatch
 10
0.0
 20
0.0
 30
0.0
210
0.0
220
0.0
230
1.0
  2
ANSI37
 70
     0
 71
     0
 91
        8
 92
        7
 72
     1
 73
     1
 93
       24
 10
7.251130847660988
 20
8.822424201848158
 42
-0.1989123673796348
 10
7.046105594491621
 20
9.317398948678683
 42
0.0
 10
7.046105594491621
 20
9.962499961356372
 42
-0.4142135623730912
 10
7.30860559449161
 20
10.22499996135637
 42
0.0
 10
8.796105594491564
 20
10.22499996135637
 42
0.4142135623731546
 10
9.05860559449161
 20
10.48749996135636
 42
0.0
 10
9.05860559449161
 20
11.36249996135637
 42
0.4142135623731586
 10
8.796105594491564
 20
11.62499996135637
 42
0.0
 10
7.046105594491621
 20
11.62499996135637
 42
0.4142135623730928
 10
5.646105594491644
 20
10.22499996135638
 42
0.0
 10
5.646105594491644
 20
9.317398948678747
 42
0.1989123673796619
 10
6.261181353999859
 20
7.832474708186943
 42
0.0
 10
7.716080341322197
 20
6.377575720864614
 42
-0.1989123673796613
 10
7.921105594491621
 20
5.882600974034022
 42
0.0
 10
7.921105594491621
 20
5.237499961356363
 42
-0.4142135623730911
 10
7.658605594491633
 20
4.974999961356367
 42
0.0
 10
6.171105594491678
 20
4.974999961356367
 42
0.4142135623731526
 10
5.908605594491633
 20
4.712499961356373
 42
0.0
 10
5.908605594491633
 20
3.837499961356363
 42
0.4142135623731526
 10
6.171105594491678
 20
3.574999961356369
 42
0.0
 10
7.921105594491621
 20
3.574999961356369
 42
0.4142135623731044
 10
9.321105594491655
 20
4.974999961356357
 42
0.0
 10
9.321105594491655
 20
5.882600974033993
 42
0.1989123673796604
 10
8.706029834983383
 20
7.367525214525763
 42
0.0
 97
        0
 92
        7
 72
     1
 73
     1
 93
       16
 10
11.77110559449164
 20
9.524999961356372
 42
-0.4142135623730935
 10
12.47110559449163
 20
10.22499996135637
 42
0.0
 10
13.43360559449161
 20
10.22499996135637
 42
0.4142135623731546
 10
13.69610559449166
 20
10.48749996135636
 42
0.0
 10
13.69610559449166
 20
11.36249996135637
 42
0.4142135623730952
 10
13.43360559449167
 20
11.62499996135637
 42
0.0
 10
12.47110559449158
 20
11.62499996135635
 42
0.4142135623730892
 10
10.37110559449161
 20
9.524999961356336
 42
0.0
 10
10.37110559449161
 20
5.674999961356381
 42
0.4142135623730969
 10
12.47110559449163
 20
3.574999961356369
 42
0.0
 10
13.43360559449161
 20
3.574999961356369
 42
0.4142135623731526
 10
13.69610559449166
 20
3.837499961356363
 42
0.0
 10
13.69610559449166
 20
4.712499961356373
 42
0.414213562373089
 10
13.43360559449167
 20
4.974999961356367
 42
0.0
 10
12.47110559449163
 20
4.974999961356367
 42
-0.4142135623730928
 10
11.77110559449164
 20
5.674999961356361
 42
0.0
 97
        0
 92
        7
 72
     1
 73
     1
 93
        2
 10
12.12110559449161
 20
7.599999961356367
 42
1.0
 10
13.87110559449161
 20
7.599999961356367
 42
1.0
 97
        0
 92
        7
 72
     1
 73
     1
 93
       26
 10
18.65742883558062
 20
9.602523558138081
 42
0.0
 10
19.18824865214953
 20
11.28345297727288
 42
0.5069206636600134
 10
18.93793320255185
 20
11.62499996135637
 42
0.0
 10
18.08848851274723
 20
11.62499996135637
 42
0.3272098845218764
 10
17.83817306314955
 20
11.44154694543985
 42
0.0
 10
16.90403812583367
 20
8.483452977272908
 42
-0.3272098845219541
 10
16.65372267623593
 20
8.299999961356367
 42
0.0
 10
16.5836055944917
 20
8.299999961356367
 42
-0.4142135623731526
 10
16.32110559449166
 20
8.562499961356361
 42
0.0
 10
16.32110559449166
 20
11.36249996135637
 42
0.4142135623730952
 10
16.05860559449167
 20
11.62499996135637
 42
0.0
 10
15.18360559449161
 20
11.62499996135637
 42
0.4142135623730872
 10
14.92110559449162
 20
11.36249996135638
 42
0.0
 10
14.92110559449162
 20
3.837499961356363
 42
0.414213562373089
 10
15.18360559449161
 20
3.574999961356369
 42
0.0
 10
16.05860559449161
 20
3.574999961356369
 42
0.4142135623731526
 10
16.32110559449166
 20
3.837499961356363
 42
0.0
 10
16.32110559449166
 20
6.637499961356374
 42
-0.4142135623731526
 10
16.5836055944917
 20
6.899999961356368
 42
0.0
 10
16.65372267623599
 20
6.899999961356368
 42
-0.3272098845218915
 10
16.90403812583367
 20
6.716546945439831
 42
0.0
 10
17.83817306314955
 20
3.758452977272905
 42
0.3272098845218902
 10
18.08848851274723
 20
3.574999961356369
 42
0.0
 10
18.93793320255185
 20
3.574999961356369
 42
0.5069206636600334
 10
19.18824865214953
 20
3.916546945439873
 42
0.0
 10
18.0250529629127
 20
7.599999961356437
 42
0.0
 97
        0
 92
        7
 72
     1
 73
     1
 93
        8
 10
21.74610559449161
 20
11.36249996135637
 42
0.4142135623731546
 10
21.48360559449156
 20
11.62499996135637
 42
0.0
 10
20.60860559449168
 20
11.62499996135637
 42
0.4142135623731506
 10
20.34610559449163
 20
11.36249996135638
 42
0.0
 10
20.34610559449163
 20
3.837499961356363
 42
0.4142135623731526
 10
20.60860559449168
 20
3.574999961356369
 42
0.0
 10
21.48360559449156
 20
3.574999961356369
 42
0.4142135623731526
 10
21.74610559449161
 20
3.837499961356363
 42
0.0
 97
        0
 92
        7
 72
     1
 73
     1
 93
       24
 10
24.19610559449166
 20
9.962499961356372
 42
-0.4142135623731547
 10
24.4586055944917
 20
10.22499996135637
 42
0.0
 10
25.94610559449166
 20
10.22499996135637
 42
0.4142135623730911
 10
26.20860559449164
 20
10.48749996135636
 42
0.0
 10
26.20860559449164
 20
11.36249996135637
 42
0.4142135623730952
 10
25.94610559449166
 20
11.62499996135637
 42
0.0
 10
24.19610559449166
 20
11.62499996135637
 42
0.4142135623731048
 10
22.79610559449162
 20
10.22499996135638
 42
0.0
 10
22.79610559449162
 20
9.317398948678747
 42
0.1989123673796613
 10
23.41118135399989
 20
7.832474708186972
 42
0.0
 10
24.86608034132223
 20
6.377575720864638
 42
-0.1989123673796402
 10
25.07110559449166
 20
5.882600974034101
 42
0.0
 10
25.07110559449166
 20
5.237499961356363
 42
-0.4142135623730911
 10
24.80860559449167
 20
4.974999961356367
 42
0.0
 10
23.32110559449166
 20
4.974999961356367
 42
0.4142135623731526
 10
23.05860559449161
 20
4.712499961356373
 42
0.0
 10
23.05860559449161
 20
3.837499961356363
 42
0.414213562373089
 10
23.3211055944916
 20
3.574999961356369
 42
0.0
 10
25.07110559449166
 20
3.574999961356369
 42
0.4142135623730925
 10
26.47110559449163
 20
4.974999961356357
 42
0.0
 10
26.47110559449163
 20
5.882600974033993
 42
0.1989123673796675
 10
25.85602983498336
 20
7.36752521452582
 42
0.0
 10
24.40113084766108
 20
8.822424201848078
 42
-0.1989123673796653
 10
24.19610559449166
 20
9.317398948678662
 42
0.0
 97
        0
 92
        7
 72
     1
 73
     1
 93
       16
 10
28.92110559449162
 20
11.36249996135636
 42
0.414213562373103
 10
28.65860559449163
 20
11.62499996135637
 42
0.0
 10
27.78360559449163
 20
11.62499996135637
 42
0.4142135623730872
 10
27.52110559449164
 20
11.36249996135638
 42
0.0
 10
27.52110559449164
 20
4.974999961356357
 42
0.4142135623730925
 10
28.92110559449162
 20
3.574999961356369
 42
0.0
 10
30.67110559449162
 20
3.574999961356369
 42
0.4142135623731044
 10
32.07110559449166
 20
4.974999961356357
 42
0.0
 10
32.07110559449166
 20
11.36249996135637
 42
0.4142135623730952
 10
31.80860559449167
 20
11.62499996135637
 42
0.0
 10
30.93360559449161
 20
11.62499996135637
 42
0.4142135623730872
 10
30.67110559449162
 20
11.36249996135638
 42
0.0
 10
30.67110559449162
 20
5.499999961356355
 42
-0.414213562373088
 10
30.14610559449164
 20
4.974999961356367
 42
0.0
 10
29.44610559449166
 20
4.974999961356367
 42
-0.4142135623731197
 10
28.92110559449162
 20
5.499999961356355
 42
0.0
 97
        0
 92
        7
 72
     1
 73
     1
 93
        8
 10
34.52110559449164
 20
11.36249996135638
 42
0.4142135623730872
 10
34.25860559449166
 20
11.62499996135637
 42
0.0
 10
33.38360559449166
 20
11.62499996135637
 42
0.4142135623731506
 10
33.12110559449161
 20
11.36249996135638
 42
0.0
 10
33.12110559449161
 20
3.837499961356363
 42
0.414213562373089
 10
33.3836055944916
 20
3.574999961356369
 42
0.0
 10
34.25860559449166
 20
3.574999961356369
 42
0.414213562373089
 10
34.52110559449164
 20
3.837499961356363
 42
0.0
 97
        0
 75
     0
 76
     1
 52
0.0
 41
0.1
 77
     0
 78
     2
 53
45.0
 43
-450.4711526502384
 44
-6.6000000386436
 45
-0.2245064030267288
 46
0.2245064030267289
 79
     0
 53
135.0
 43
-450.4711526502384
 44
-6.6000000386436
 45
-0.2245064030267289
 46
-0.2245064030267288
 79
     0
 47
0.057451373970553
 98
        8
 10
8.039926998612714
 20
7.583586784299143
 10
11.20225702032064
 20
9.422031052581872
 10
12.58218345993089
 20
7.755940784391726
 10
15.45702950791963
 20
8.100648784577118
 10
20.91923552657943
 20
8.330454918347925
 10
23.44909996466583
 20
9.709288119559972
 10
28.27884250330124
 20
9.364578918903874
 10
33.91353932691243
 20
9.594385052674681
  0
ARC
  5
AD3
330
1A
100
AcDbEntity
  8
ZUWAKU
100
AcDbCircle
 10
7.74610559449161
 20
9.317398948678719
 30
0.0
 40
2.1
100
AcDbArc
 50
180.0
 51
225.0
  0
LINE
  5
AD4
330
1A
100
AcDbEntity
  8
ZUWAKU
100
AcDbLine
 10
10.37110559449161
 20
5.67499996135637
 30
0.0
 11
10.37110559449161
 21
9.524999961356347
 31
0.0
  0
LINE
  5
AD5
330
1A
100
AcDbEntity
  8
ZUWAKU
100
AcDbLine
 10
11.77110559449164
 20
9.524999961356368
 30
0.0
 11
11.77110559449164
 21
5.67499996135637
 31
0.0
  0
ARC
  5
AD6
330
1A
100
AcDbEntity
  8
ZUWAKU
100
AcDbCircle
 10
7.74610559449161
 20
9.317398948678719
 30
0.0
 40
0.7
100
AcDbArc
 50
180.0000000000016
 51
224.9999999999988
  0
ARC
  5
AD7
330
1A
100
AcDbEntity
  8
ZUWAKU
100
AcDbCircle
 10
12.47110559449163
 20
5.67499996135637
 30
0.0
 40
2.1
100
AcDbArc
 50
180.0
 51
270.0
  0
ARC
  5
AD8
330
1A
100
AcDbEntity
  8
ZUWAKU
100
AcDbCircle
 10
7.921105594491621
 20
4.974999961356367
 30
0.0
 40
1.4
100
AcDbArc
 50
270.0
 51
0.0
  0
ARC
  5
AD9
330
1A
100
AcDbEntity
  8
ZUWAKU
100
AcDbCircle
 10
7.221105594491633
 20
5.88260097403402
 30
0.0
 40
2.1
100
AcDbArc
 50
0.0
 51
45.0
  0
LINE
  5
ADA
330
1A
100
AcDbEntity
  8
ZUWAKU
100
AcDbLine
 10
6.261181353999859
 20
7.832474708186958
 30
0.0
 11
7.716080341322197
 21
6.377575720864627
 31
0.0
  0
LINE
  5
ADB
330
1A
100
AcDbEntity
  8
ZUWAKU
100
AcDbLine
 10
6.171105594491621
 20
4.974999961356367
 30
0.0
 11
7.658605594491633
 21
4.974999961356367
 31
0.0
  0
LINE
  5
ADC
330
1A
100
AcDbEntity
  8
ZUWAKU
100
AcDbLine
 10
6.171105594491621
 20
3.574999961356369
 30
0.0
 11
7.921105594491621
 21
3.574999961356369
 31
0.0
  0
ARC
  5
ADD
330
1A
100
AcDbEntity
  8
ZUWAKU
100
AcDbCircle
 10
6.171105594491621
 20
4.712499961356368
 30
0.0
 40
0.2625
100
AcDbArc
 50
90.0
 51
180.0
  0
ARC
  5
ADE
330
1A
100
AcDbEntity
  8
ZUWAKU
100
AcDbCircle
 10
6.171105594491621
 20
3.837499961356368
 30
0.0
 40
0.2625
100
AcDbArc
 50
180.0
 51
270.0
  0
LINE
  5
ADF
330
1A
100
AcDbEntity
  8
ZUWAKU
100
AcDbLine
 10
5.908605594491633
 20
3.837499961356368
 30
0.0
 11
5.908605594491633
 21
4.712499961356368
 31
0.0
  0
ARC
  5
AE0
330
1A
100
AcDbEntity
  8
ZUWAKU
100
AcDbCircle
 10
7.221105594491633
 20
5.882600974034041
 30
0.0
 40
0.7
100
AcDbArc
 50
0.0
 51
45.0
  0
ARC
  5
AE1
330
1A
100
AcDbEntity
  8
ZUWAKU
100
AcDbCircle
 10
7.658605594491633
 20
5.23749996135637
 30
0.0
 40
0.2625
100
AcDbArc
 50
270.0
 51
0.0
  0
LINE
  5
AE2
330
1A
100
AcDbEntity
  8
ZUWAKU
100
AcDbLine
 10
7.921105594491621
 20
5.23749996135637
 30
0.0
 11
7.921105594491621
 21
5.882600974034041
 31
0.0
  0
LINE
  5
AE3
330
1A
100
AcDbEntity
  8
ZUWAKU
100
AcDbLine
 10
8.706029834983383
 20
7.367525214525781
 30
0.0
 11
7.251130847661045
 21
8.822424201848119
 31
0.0
  0
ARC
  5
AE4
330
1A
100
AcDbEntity
  8
ZUWAKU
100
AcDbCircle
 10
12.47110559449163
 20
5.67499996135637
 30
0.0
 40
0.7
100
AcDbArc
 50
180.0
 51
270.0
  0
LINE
  5
AE5
330
1A
100
AcDbEntity
  8
ZUWAKU
100
AcDbLine
 10
9.321105594491655
 20
4.974999961356367
 30
0.0
 11
9.321105594491655
 21
5.882600974034041
 31
0.0
  0
ARC
  5
AE6
330
1A
100
AcDbEntity
  8
ZUWAKU
100
AcDbCircle
 10
8.796105594491621
 20
10.48749996135637
 30
0.0
 40
0.2625
100
AcDbArc
 50
270.0
 51
0.0
  0
ARC
  5
AE7
330
1A
100
AcDbEntity
  8
ZUWAKU
100
AcDbCircle
 10
8.796105594491621
 20
11.36249996135637
 30
0.0
 40
0.2625
100
AcDbArc
 50
0.0
 51
90.0
  0
ARC
  5
AE8
330
1A
100
AcDbEntity
  8
ZUWAKU
100
AcDbCircle
 10
7.046105594491621
 20
10.22499996135637
 30
0.0
 40
1.4
100
AcDbArc
 50
90.0
 51
180.0
  0
LINE
  5
AE9
330
1A
100
AcDbEntity
  8
ZUWAKU
100
AcDbLine
 10
5.646105594491644
 20
10.22499996135637
 30
0.0
 11
5.646105594491644
 21
9.317398948678697
 31
0.0
  0
LINE
  5
AEA
330
1A
100
AcDbEntity
  8
ZUWAKU
100
AcDbLine
 10
8.796105594491621
 20
10.22499996135637
 30
0.0
 11
7.30860559449161
 21
10.22499996135637
 31
0.0
  0
LINE
  5
AEB
330
1A
100
AcDbEntity
  8
ZUWAKU
100
AcDbLine
 10
7.046105594491621
 20
9.962499961356368
 30
0.0
 11
7.046105594491621
 21
9.317398948678697
 31
0.0
  0
ARC
  5
AEC
330
1A
100
AcDbEntity
  8
ZUWAKU
100
AcDbCircle
 10
7.30860559449161
 20
9.962499961356368
 30
0.0
 40
0.2625
100
AcDbArc
 50
90.0
 51
180.0
  0
LINE
  5
AED
330
1A
100
AcDbEntity
  8
ZUWAKU
100
AcDbLine
 10
7.046105594491621
 20
11.62499996135637
 30
0.0
 11
8.796105594491621
 21
11.62499996135637
 31
0.0
  0
ARC
  5
AEE
330
1A
100
AcDbEntity
  8
ZUWAKU
100
AcDbCircle
 10
12.47110559449163
 20
9.524999961356347
 30
0.0
 40
2.1
100
AcDbArc
 50
90.0
 51
180.0
  0
ARC
  5
AEF
330
1A
100
AcDbEntity
  8
ZUWAKU
100
AcDbCircle
 10
12.47110559449163
 20
9.524999961356368
 30
0.0
 40
0.7
100
AcDbArc
 50
90.0
 51
180.0
  0
LINE
  5
AF0
330
1A
100
AcDbEntity
  8
ZUWAKU
100
AcDbLine
 10
9.05860559449161
 20
11.36249996135637
 30
0.0
 11
9.05860559449161
 21
10.48749996135637
 31
0.0
  0
LINE
  5
AF1
330
1A
100
AcDbEntity
  8
ZUWAKU
100
AcDbLine
 10
17.83817306314955
 20
11.44154694543985
 30
0.0
 11
16.90403812583367
 21
8.483452977272883
 31
0.0
  0
LINE
  5
AF2
330
1A
100
AcDbEntity
  8
ZUWAKU
100
AcDbLine
 10
14.92110559449162
 20
11.36249996135637
 30
0.0
 11
14.92110559449162
 21
3.837499961356368
 31
0.0
  0
LINE
  5
AF3
330
1A
100
AcDbEntity
  8
ZUWAKU
100
AcDbLine
 10
16.32110559449166
 20
8.56249996135637
 30
0.0
 11
16.32110559449166
 21
11.36249996135637
 31
0.0
  0
LINE
  5
AF4
330
1A
100
AcDbEntity
  8
ZUWAKU
100
AcDbLine
 10
28.92110559449162
 20
5.499999961356366
 30
0.0
 11
28.92110559449162
 21
11.36249996135637
 31
0.0
  0
LINE
  5
AF5
330
1A
100
AcDbEntity
  8
ZUWAKU
100
AcDbLine
 10
27.52110559449164
 20
11.36249996135637
 30
0.0
 11
27.52110559449164
 21
4.974999961356367
 31
0.0
  0
LINE
  5
AF6
330
1A
100
AcDbEntity
  8
ZUWAKU
100
AcDbLine
 10
21.74610559449161
 20
3.837499961356368
 30
0.0
 11
21.74610559449161
 21
11.36249996135637
 31
0.0
  0
LINE
  5
AF7
330
1A
100
AcDbEntity
  8
ZUWAKU
100
AcDbLine
 10
20.34610559449163
 20
11.36249996135637
 30
0.0
 11
20.34610559449163
 21
3.837499961356368
 31
0.0
  0
LINE
  5
AF8
330
1A
100
AcDbEntity
  8
ZUWAKU
100
AcDbLine
 10
18.65742883558062
 20
9.602523558138081
 30
0.0
 11
18.0250529629127
 21
7.599999961356378
 31
0.0
  0
ARC
  5
AF9
330
1A
100
AcDbEntity
  8
ZUWAKU
100
AcDbCircle
 10
24.89610559449164
 20
9.317398948678719
 30
0.0
 40
2.1
100
AcDbArc
 50
180.0
 51
225.0
  0
ARC
  5
AFA
330
1A
100
AcDbEntity
  8
ZUWAKU
100
AcDbCircle
 10
24.89610559449164
 20
9.317398948678719
 30
0.0
 40
0.7
100
AcDbArc
 50
180.0000000000016
 51
224.9999999999988
  0
LINE
  5
AFB
330
1A
100
AcDbEntity
  8
ZUWAKU
100
AcDbLine
 10
33.12110559449161
 20
11.36249996135637
 30
0.0
 11
33.12110559449161
 21
3.837499961356368
 31
0.0
  0
LINE
  5
AFC
330
1A
100
AcDbEntity
  8
ZUWAKU
100
AcDbLine
 10
34.52110559449164
 20
3.837499961356368
 30
0.0
 11
34.52110559449164
 21
11.36249996135637
 31
0.0
  0
LINE
  5
AFD
330
1A
100
AcDbEntity
  8
ZUWAKU
100
AcDbLine
 10
30.67110559449162
 20
11.36249996135637
 30
0.0
 11
30.67110559449162
 21
5.499999961356366
 31
0.0
  0
LINE
  5
AFE
330
1A
100
AcDbEntity
  8
ZUWAKU
100
AcDbLine
 10
32.07110559449166
 20
4.974999961356367
 30
0.0
 11
32.07110559449166
 21
11.36249996135637
 31
0.0
  0
LINE
  5
AFF
330
1A
100
AcDbEntity
  8
ZUWAKU
100
AcDbLine
 10
39.56331429109525
 20
14.99999996135637
 30
0.0
 11
39.56331429109525
 21
0.3999999613564
 31
0.0
  0
LINE
  5
B00
330
1A
100
AcDbEntity
  8
ZUWAKU
100
AcDbLine
 10
39.76331429109519
 20
14.99999996135637
 30
0.0
 11
39.7633142910953
 21
0.3999999613564
 31
0.0
  0
LINE
  5
B01
330
1A
100
AcDbEntity
  8
ZUWAKU
100
AcDbLine
 10
39.66331429109516
 20
14.99999996135637
 30
0.0
 11
39.66331429109528
 21
0.3999999613564
 31
0.0
  0
LINE
  5
B02
330
1A
100
AcDbEntity
  8
ZUWAKU
100
AcDbLine
 10
28.92110559449162
 20
3.574999961356369
 30
0.0
 11
30.67110559449162
 21
3.574999961356369
 31
0.0
  0
LINE
  5
B03
330
1A
100
AcDbEntity
  8
ZUWAKU
100
AcDbLine
 10
30.14610559449164
 20
4.974999961356367
 30
0.0
 11
29.44610559449166
 21
4.974999961356367
 31
0.0
  0
LINE
  5
B04
330
1A
100
AcDbEntity
  8
ZUWAKU
100
AcDbLine
 10
20.60860559449162
 20
3.574999961356369
 30
0.0
 11
21.48360559449162
 21
3.574999961356369
 31
0.0
  0
LINE
  5
B05
330
1A
100
AcDbEntity
  8
ZUWAKU
100
AcDbLine
 10
17.83817306314955
 20
3.758452977272881
 30
0.0
 11
16.90403812583367
 21
6.716546945439852
 31
0.0
  0
ARC
  5
B06
330
1A
100
AcDbEntity
  8
ZUWAKU
100
AcDbCircle
 10
16.58360559449164
 20
6.637499961356369
 30
0.0
 40
0.2625
100
AcDbArc
 50
90.0
 51
180.0
  0
ARC
  5
B07
330
1A
100
AcDbEntity
  8
ZUWAKU
100
AcDbCircle
 10
16.65372267623599
 20
6.637499961356369
 30
0.0
 40
0.2625
100
AcDbArc
 50
17.52556837372303
 51
90.0
  0
ARC
  5
B08
330
1A
100
AcDbEntity
  8
ZUWAKU
100
AcDbCircle
 10
15.18360559449161
 20
3.837499961356368
 30
0.0
 40
0.2625
100
AcDbArc
 50
180.0
 51
270.0
  0
ARC
  5
B09
330
1A
100
AcDbEntity
  8
ZUWAKU
100
AcDbCircle
 10
13.43360559449161
 20
4.712499961356368
 30
0.0
 40
0.2625
100
AcDbArc
 50
0.0
 51
90.0
  0
ARC
  5
B0A
330
1A
100
AcDbEntity
  8
ZUWAKU
100
AcDbCircle
 10
13.43360559449161
 20
3.837499961356368
 30
0.0
 40
0.2625
100
AcDbArc
 50
270.0
 51
0.0
  0
LINE
  5
B0B
330
1A
100
AcDbEntity
  8
ZUWAKU
100
AcDbLine
 10
13.69610559449166
 20
4.712499961356368
 30
0.0
 11
13.69610559449166
 21
3.837499961356368
 31
0.0
  0
LINE
  5
B0C
330
1A
100
AcDbEntity
  8
ZUWAKU
100
AcDbLine
 10
16.32110559449166
 20
3.837499961356368
 30
0.0
 11
16.32110559449166
 21
6.637499961356369
 31
0.0
  0
ARC
  5
B0D
330
1A
100
AcDbEntity
  8
ZUWAKU
100
AcDbCircle
 10
16.05860559449161
 20
3.837499961356368
 30
0.0
 40
0.2625
100
AcDbArc
 50
270.0
 51
0.0
  0
LINE
  5
B0E
330
1A
100
AcDbEntity
  8
ZUWAKU
100
AcDbLine
 10
15.18360559449161
 20
3.574999961356369
 30
0.0
 11
16.05860559449161
 21
3.574999961356369
 31
0.0
  0
ARC
  5
B0F
330
1A
100
AcDbEntity
  8
ZUWAKU
100
AcDbCircle
 10
16.58360559449164
 20
8.56249996135637
 30
0.0
 40
0.2625
100
AcDbArc
 50
180.0
 51
270.0
  0
LINE
  5
B10
330
1A
100
AcDbEntity
  8
ZUWAKU
100
AcDbLine
 10
16.58360559449164
 20
6.899999961356368
 30
0.0
 11
16.65372267623599
 21
6.899999961356368
 31
0.0
  0
LINE
  5
B11
330
1A
100
AcDbEntity
  8
ZUWAKU
100
AcDbLine
 10
16.65372267623599
 20
8.299999961356367
 30
0.0
 11
16.58360559449164
 21
8.299999961356367
 31
0.0
  0
ARC
  5
B12
330
1A
100
AcDbEntity
  8
ZUWAKU
100
AcDbCircle
 10
16.65372267623599
 20
8.56249996135637
 30
0.0
 40
0.2625
100
AcDbArc
 50
270.0
 51
342.474431626277
  0
ARC
  5
B13
330
1A
100
AcDbEntity
  8
ZUWAKU
100
AcDbCircle
 10
18.08848851274729
 20
3.837499961356368
 30
0.0
 40
0.2625
100
AcDbArc
 50
197.525568373723
 51
270.0
  0
LINE
  5
B14
330
1A
100
AcDbEntity
  8
ZUWAKU
100
AcDbLine
 10
19.18824865214953
 20
3.916546945439855
 30
0.0
 11
18.0250529629127
 21
7.599999961356378
 31
0.0
  0
ARC
  5
B15
330
1A
100
AcDbEntity
  8
ZUWAKU
100
AcDbCircle
 10
18.93793320255179
 20
3.837499961356368
 30
0.0
 40
0.2625
100
AcDbArc
 50
270.0
 51
17.52556837372303
  0
LINE
  5
B16
330
1A
100
AcDbEntity
  8
ZUWAKU
100
AcDbLine
 10
18.08848851274729
 20
3.574999961356369
 30
0.0
 11
18.93793320255179
 21
3.574999961356369
 31
0.0
  0
ARC
  5
B17
330
1A
100
AcDbEntity
  8
ZUWAKU
100
AcDbCircle
 10
20.60860559449162
 20
3.837499961356368
 30
0.0
 40
0.2625
100
AcDbArc
 50
180.0
 51
270.0
  0
ARC
  5
B18
330
1A
100
AcDbEntity
  8
ZUWAKU
100
AcDbCircle
 10
25.07110559449166
 20
4.974999961356367
 30
0.0
 40
1.4
100
AcDbArc
 50
270.0
 51
0.0
  0
ARC
  5
B19
330
1A
100
AcDbEntity
  8
ZUWAKU
100
AcDbCircle
 10
28.92110559449162
 20
4.974999961356367
 30
0.0
 40
1.4
100
AcDbArc
 50
180.0
 51
270.0
  0
LINE
  5
B1A
330
1A
100
AcDbEntity
  8
ZUWAKU
100
AcDbLine
 10
25.85602983498342
 20
7.367525214525781
 30
0.0
 11
24.40113084766102
 21
8.822424201848119
 31
0.0
  0
LINE
  5
B1B
330
1A
100
AcDbEntity
  8
ZUWAKU
100
AcDbLine
 10
23.41118135399989
 20
7.832474708186958
 30
0.0
 11
24.86608034132223
 21
6.377575720864627
 31
0.0
  0
LINE
  5
B1C
330
1A
100
AcDbEntity
  8
ZUWAKU
100
AcDbLine
 10
23.32110559449166
 20
3.574999961356369
 30
0.0
 11
25.07110559449166
 21
3.574999961356369
 31
0.0
  0
LINE
  5
B1D
330
1A
100
AcDbEntity
  8
ZUWAKU
100
AcDbLine
 10
23.32110559449166
 20
4.974999961356367
 30
0.0
 11
24.80860559449161
 21
4.974999961356367
 31
0.0
  0
ARC
  5
B1E
330
1A
100
AcDbEntity
  8
ZUWAKU
100
AcDbCircle
 10
23.32110559449166
 20
4.712499961356368
 30
0.0
 40
0.2625
100
AcDbArc
 50
90.0
 51
180.0
  0
ARC
  5
B1F
330
1A
100
AcDbEntity
  8
ZUWAKU
100
AcDbCircle
 10
21.48360559449162
 20
3.837499961356368
 30
0.0
 40
0.2625
100
AcDbArc
 50
270.0
 51
0.0
  0
ARC
  5
B20
330
1A
100
AcDbEntity
  8
ZUWAKU
100
AcDbCircle
 10
23.32110559449166
 20
3.837499961356368
 30
0.0
 40
0.2625
100
AcDbArc
 50
180.0
 51
270.0
  0
LINE
  5
B21
330
1A
100
AcDbEntity
  8
ZUWAKU
100
AcDbLine
 10
23.05860559449161
 20
3.837499961356368
 30
0.0
 11
23.05860559449161
 21
4.712499961356368
 31
0.0
  0
ARC
  5
B22
330
1A
100
AcDbEntity
  8
ZUWAKU
100
AcDbCircle
 10
24.80860559449161
 20
5.23749996135637
 30
0.0
 40
0.2625
100
AcDbArc
 50
270.0
 51
0.0
  0
ARC
  5
B23
330
1A
100
AcDbEntity
  8
ZUWAKU
100
AcDbCircle
 10
24.37110559449161
 20
5.882600974034041
 30
0.0
 40
0.7
100
AcDbArc
 50
0.0
 51
45.0
  0
LINE
  5
B24
330
1A
100
AcDbEntity
  8
ZUWAKU
100
AcDbLine
 10
25.07110559449166
 20
5.23749996135637
 30
0.0
 11
25.07110559449166
 21
5.882600974034041
 31
0.0
  0
ARC
  5
B25
330
1A
100
AcDbEntity
  8
ZUWAKU
100
AcDbCircle
 10
29.44610559449166
 20
5.499999961356366
 30
0.0
 40
0.5249999999999999
100
AcDbArc
 50
180.0
 51
270.0
  0
ARC
  5
B26
330
1A
100
AcDbEntity
  8
ZUWAKU
100
AcDbCircle
 10
24.37110559449161
 20
5.88260097403402
 30
0.0
 40
2.1
100
AcDbArc
 50
0.0
 51
45.0
  0
LINE
  5
B27
330
1A
100
AcDbEntity
  8
ZUWAKU
100
AcDbLine
 10
26.47110559449163
 20
4.974999961356367
 30
0.0
 11
26.47110559449163
 21
5.882600974034041
 31
0.0
  0
ARC
  5
B28
330
1A
100
AcDbEntity
  8
ZUWAKU
100
AcDbCircle
 10
30.67110559449162
 20
4.974999961356367
 30
0.0
 40
1.4
100
AcDbArc
 50
270.0
 51
0.0
  0
LINE
  5
B29
330
1A
100
AcDbEntity
  8
ZUWAKU
100
AcDbLine
 10
33.38360559449166
 20
3.574999961356369
 30
0.0
 11
34.25860559449166
 21
3.574999961356369
 31
0.0
  0
ARC
  5
B2A
330
1A
100
AcDbEntity
  8
ZUWAKU
100
AcDbCircle
 10
30.14610559449164
 20
5.499999961356366
 30
0.0
 40
0.5249999999999999
100
AcDbArc
 50
270.0
 51
0.0
  0
ARC
  5
B2B
330
1A
100
AcDbEntity
  8
ZUWAKU
100
AcDbCircle
 10
33.38360559449166
 20
3.837499961356368
 30
0.0
 40
0.2625
100
AcDbArc
 50
180.0
 51
270.0
  0
ARC
  5
B2C
330
1A
100
AcDbEntity
  8
ZUWAKU
100
AcDbCircle
 10
34.25860559449166
 20
3.837499961356368
 30
0.0
 40
0.2625
100
AcDbArc
 50
270.0
 51
0.0
  0
LINE
  5
B2D
330
1A
100
AcDbEntity
  8
ZUWAKU
100
AcDbLine
 10
21.48360559449162
 20
11.62499996135637
 30
0.0
 11
20.60860559449162
 21
11.62499996135637
 31
0.0
  0
LINE
  5
B2E
330
1A
100
AcDbEntity
  8
ZUWAKU
100
AcDbLine
 10
13.69610559449166
 20
11.36249996135637
 30
0.0
 11
13.69610559449166
 21
10.48749996135637
 31
0.0
  0
ARC
  5
B2F
330
1A
100
AcDbEntity
  8
ZUWAKU
100
AcDbCircle
 10
13.43360559449161
 20
10.48749996135637
 30
0.0
 40
0.2625
100
AcDbArc
 50
270.0
 51
0.0
  0
ARC
  5
B30
330
1A
100
AcDbEntity
  8
ZUWAKU
100
AcDbCircle
 10
15.18360559449161
 20
11.36249996135637
 30
0.0
 40
0.2625
100
AcDbArc
 50
90.0
 51
180.0
  0
ARC
  5
B31
330
1A
100
AcDbEntity
  8
ZUWAKU
100
AcDbCircle
 10
13.43360559449161
 20
11.36249996135637
 30
0.0
 40
0.2625
100
AcDbArc
 50
0.0
 51
90.0
  0
LINE
  5
B32
330
1A
100
AcDbEntity
  8
ZUWAKU
100
AcDbLine
 10
16.05860559449161
 20
11.62499996135637
 30
0.0
 11
15.18360559449161
 21
11.62499996135637
 31
0.0
  0
ARC
  5
B33
330
1A
100
AcDbEntity
  8
ZUWAKU
100
AcDbCircle
 10
16.05860559449161
 20
11.36249996135637
 30
0.0
 40
0.2625
100
AcDbArc
 50
0.0
 51
90.0
  0
ARC
  5
B34
330
1A
100
AcDbEntity
  8
ZUWAKU
100
AcDbCircle
 10
18.08848851274729
 20
11.36249996135637
 30
0.0
 40
0.2625
100
AcDbArc
 50
90.0
 51
162.474431626277
  0
LINE
  5
B35
330
1A
100
AcDbEntity
  8
ZUWAKU
100
AcDbLine
 10
19.18824865214953
 20
11.28345297727288
 30
0.0
 11
18.65742883558062
 21
9.602523558138081
 31
0.0
  0
ARC
  5
B36
330
1A
100
AcDbEntity
  8
ZUWAKU
100
AcDbCircle
 10
18.93793320255179
 20
11.36249996135637
 30
0.0
 40
0.2625
100
AcDbArc
 50
342.474431626277
 51
90.0
  0
LINE
  5
B37
330
1A
100
AcDbEntity
  8
ZUWAKU
100
AcDbLine
 10
18.08848851274729
 20
11.62499996135637
 30
0.0
 11
18.93793320255179
 21
11.62499996135637
 31
0.0
  0
ARC
  5
B38
330
1A
100
AcDbEntity
  8
ZUWAKU
100
AcDbCircle
 10
20.60860559449162
 20
11.36249996135637
 30
0.0
 40
0.2625
100
AcDbArc
 50
90.0
 51
180.0
  0
LINE
  5
B39
330
1A
100
AcDbEntity
  8
ZUWAKU
100
AcDbLine
 10
25.94610559449166
 20
10.22499996135637
 30
0.0
 11
24.45860559449164
 21
10.22499996135637
 31
0.0
  0
LINE
  5
B3A
330
1A
100
AcDbEntity
  8
ZUWAKU
100
AcDbLine
 10
24.19610559449166
 20
11.62499996135637
 30
0.0
 11
25.94610559449166
 21
11.62499996135637
 31
0.0
  0
ARC
  5
B3B
330
1A
100
AcDbEntity
  8
ZUWAKU
100
AcDbCircle
 10
24.19610559449166
 20
10.22499996135637
 30
0.0
 40
1.4
100
AcDbArc
 50
90.0
 51
180.0
  0
LINE
  5
B3C
330
1A
100
AcDbEntity
  8
ZUWAKU
100
AcDbLine
 10
22.79610559449162
 20
10.22499996135637
 30
0.0
 11
22.79610559449162
 21
9.317398948678697
 31
0.0
  0
ARC
  5
B3D
330
1A
100
AcDbEntity
  8
ZUWAKU
100
AcDbCircle
 10
21.48360559449162
 20
11.36249996135637
 30
0.0
 40
0.2625
100
AcDbArc
 50
0.0
 51
90.0
  0
LINE
  5
B3E
330
1A
100
AcDbEntity
  8
ZUWAKU
100
AcDbLine
 10
24.19610559449166
 20
9.962499961356368
 30
0.0
 11
24.19610559449166
 21
9.317398948678697
 31
0.0
  0
ARC
  5
B3F
330
1A
100
AcDbEntity
  8
ZUWAKU
100
AcDbCircle
 10
24.45860559449164
 20
9.962499961356368
 30
0.0
 40
0.2625
100
AcDbArc
 50
90.0
 51
180.0
  0
LINE
  5
B40
330
1A
100
AcDbEntity
  8
ZUWAKU
100
AcDbLine
 10
26.20860559449164
 20
11.36249996135637
 30
0.0
 11
26.20860559449164
 21
10.48749996135637
 31
0.0
  0
ARC
  5
B41
330
1A
100
AcDbEntity
  8
ZUWAKU
100
AcDbCircle
 10
25.94610559449166
 20
10.48749996135637
 30
0.0
 40
0.2625
100
AcDbArc
 50
270.0
 51
0.0
  0
ARC
  5
B42
330
1A
100
AcDbEntity
  8
ZUWAKU
100
AcDbCircle
 10
25.94610559449166
 20
11.36249996135637
 30
0.0
 40
0.2625
100
AcDbArc
 50
0.0
 51
90.0
  0
LINE
  5
B43
330
1A
100
AcDbEntity
  8
ZUWAKU
100
AcDbLine
 10
28.65860559449163
 20
11.62499996135637
 30
0.0
 11
27.78360559449163
 21
11.62499996135637
 31
0.0
  0
ARC
  5
B44
330
1A
100
AcDbEntity
  8
ZUWAKU
100
AcDbCircle
 10
27.78360559449163
 20
11.36249996135637
 30
0.0
 40
0.2625
100
AcDbArc
 50
90.0
 51
180.0
  0
ARC
  5
B45
330
1A
100
AcDbEntity
  8
ZUWAKU
100
AcDbCircle
 10
28.65860559449163
 20
11.36249996135637
 30
0.0
 40
0.2625
100
AcDbArc
 50
0.0
 51
90.0
  0
LINE
  5
B46
330
1A
100
AcDbEntity
  8
ZUWAKU
100
AcDbLine
 10
34.25860559449166
 20
11.62499996135637
 30
0.0
 11
33.38360559449166
 21
11.62499996135637
 31
0.0
  0
ARC
  5
B47
330
1A
100
AcDbEntity
  8
ZUWAKU
100
AcDbCircle
 10
30.93360559449161
 20
11.36249996135637
 30
0.0
 40
0.2625
100
AcDbArc
 50
90.0
 51
180.0
  0
LINE
  5
B48
330
1A
100
AcDbEntity
  8
ZUWAKU
100
AcDbLine
 10
31.80860559449161
 20
11.62499996135637
 30
0.0
 11
30.93360559449161
 21
11.62499996135637
 31
0.0
  0
ARC
  5
B49
330
1A
100
AcDbEntity
  8
ZUWAKU
100
AcDbCircle
 10
31.80860559449161
 20
11.36249996135637
 30
0.0
 40
0.2625
100
AcDbArc
 50
0.0
 51
90.0
  0
ARC
  5
B4A
330
1A
100
AcDbEntity
  8
ZUWAKU
100
AcDbCircle
 10
33.38360559449166
 20
11.36249996135637
 30
0.0
 40
0.2625
100
AcDbArc
 50
90.0
 51
180.0
  0
ARC
  5
B4B
330
1A
100
AcDbEntity
  8
ZUWAKU
100
AcDbCircle
 10
34.25860559449166
 20
11.36249996135637
 30
0.0
 40
0.2625
100
AcDbArc
 50
0.0
 51
90.0
  0
LINE
  5
B4C
330
1A
100
AcDbEntity
  8
ZUWAKU
100
AcDbLine
 10
104.2233001621349
 20
14.99999996135637
 30
0.0
 11
104.2233001621351
 21
0.3999999613564
 31
0.0
  0
LINE
  5
B4D
330
1A
100
AcDbEntity
  8
ZUWAKU
100
AcDbLine
 10
104.323300162135
 20
14.99999996135637
 30
0.0
 11
104.3233001621351
 21
0.3999999613564
 31
0.0
  0
LINE
  5
B4E
330
1A
100
AcDbEntity
  8
ZUWAKU
100
AcDbLine
 10
104.123300162135
 20
14.99999996135637
 30
0.0
 11
104.123300162135
 21
0.3999999613564
 31
0.0
  0
TEXT
  5
B4F
330
1A
100
AcDbEntity
  8
moji
100
AcDbText
 10
119.9136008575266
 20
9.002460490060059
 30
0.0
 40
2.8
  1
ステンレス金具正面打（吊）ワンタッチ自在式
 41
0.9
  7
ｽﾀｲﾙ1
100
AcDbText
  0
TEXT
  5
B50
330
1A
100
AcDbEntity
  8
ZUWAKU
100
AcDbText
 10
104.8620226732398
 20
4.827678230549175
 30
0.0
 40
2.0
  1
サイズ
 41
0.9
  7
ｽﾀｲﾙ1
100
AcDbText
  0
TEXT
  5
B51
330
1A
100
AcDbEntity
  8
moji
100
AcDbText
 10
119.9136008575266
 20
1.602460490060077
 30
0.0
 40
2.8
  1
Σ９０－４－１０～４５
 41
0.9
  7
ｽﾀｲﾙ1
100
AcDbText
  0
TEXT
  5
B52
330
1A
100
AcDbEntity
  8
ZUWAKU
100
AcDbText
 10
104.8620226732397
 20
12.02767823054916
 30
0.0
 40
2.0
  1
品名
 41
0.9
  7
ｽﾀｲﾙ1
100
AcDbText
  0
TEXT
  5
B53
330
1A
100
AcDbEntity
  8
ZUWAKU
100
AcDbText
 10
329.1019683607523
 20
9.002460490060059
 30
0.0
 40
2.8
  1
　　．　　．　　
 41
0.9
  7
ｽﾀｲﾙ1
100
AcDbText
  0
LINE
  5
B54
330
1A
100
AcDbEntity
  8
ZUWAKU
100
AcDbLine
 10
324.4086007722032
 20
7.799999961356383
 30
0.0
 11
348.6245047913717
 21
7.799999961356383
 31
0.0
  0
LINE
  5
B55
330
1A
100
AcDbEntity
  8
ZUWAKU
100
AcDbLine
 10
324.4086007722033
 20
7.699999961356385
 30
0.0
 11
348.6245047913717
 21
7.699999961356383
 31
0.0
  0
LINE
  5
B56
330
1A
100
AcDbEntity
  8
ZUWAKU
100
AcDbLine
 10
324.4086007722032
 20
7.599999961356382
 30
0.0
 11
348.6245047913717
 21
7.599999961356383
 31
0.0
  0
LINE
  5
B57
330
1A
100
AcDbEntity
  8
ZUWAKU
100
AcDbLine
 10
252.5995892661715
 20
7.799999961356383
 30
0.0
 11
276.2634774001573
 21
7.799999961356383
 31
0.0
  0
LINE
  5
B58
330
1A
100
AcDbEntity
  8
ZUWAKU
100
AcDbLine
 10
252.5995892661715
 20
7.699999961356383
 30
0.0
 11
276.2634774001573
 21
7.699999961356383
 31
0.0
  0
LINE
  5
B59
330
1A
100
AcDbEntity
  8
ZUWAKU
100
AcDbLine
 10
252.5995892661715
 20
7.599999961356385
 30
0.0
 11
276.2634774001573
 21
7.599999961356385
 31
0.0
  0
LINE
  5
B5A
330
1A
100
AcDbEntity
  8
ZUWAKU
100
AcDbLine
 10
252.3995892661716
 20
14.99999996135637
 30
0.0
 11
252.3995892661716
 21
0.3999999613564
 31
0.0
  0
LINE
  5
B5B
330
1A
100
AcDbEntity
  8
ZUWAKU
100
AcDbLine
 10
252.5995892661715
 20
14.99999996135637
 30
0.0
 11
252.5995892661716
 21
0.3999999613564
 31
0.0
  0
LINE
  5
B5C
330
1A
100
AcDbEntity
  8
ZUWAKU
100
AcDbLine
 10
252.4995892661715
 20
14.99999996135637
 30
0.0
 11
252.4995892661716
 21
0.3999999613564
 31
0.0
  0
TEXT
  5
B5D
330
1A
100
AcDbEntity
  8
moji
100
AcDbText
 10
264.0204535032575
 20
9.002460490060059
 30
0.0
 40
2.8
  1
Ａ３
 41
0.9
  7
ｽﾀｲﾙ1
100
AcDbText
  0
LINE
  5
B5E
330
1A
100
AcDbEntity
  8
ZUWAKU
100
AcDbLine
 10
223.7121815025968
 20
14.99999996135637
 30
0.0
 11
223.7121815025968
 21
0.3999999613564
 31
0.0
  0
LINE
  5
B5F
330
1A
100
AcDbEntity
  8
ZUWAKU
100
AcDbLine
 10
223.9121815025967
 20
14.99999996135637
 30
0.0
 11
223.9121815025968
 21
0.3999999613564
 31
0.0
  0
LINE
  5
B60
330
1A
100
AcDbEntity
  8
ZUWAKU
100
AcDbLine
 10
223.8121815025967
 20
14.99999996135637
 30
0.0
 11
223.8121815025968
 21
0.3999999613564
 31
0.0
  0
TEXT
  5
B61
330
1A
100
AcDbEntity
  8
moji
100
AcDbText
 10
231.2836386780954
 20
5.971308822186359
 30
0.0
 40
2.8
  1
ＬＬ８１Ｇ
 41
0.9
  7
ｽﾀｲﾙ1
100
AcDbText
  0
TEXT
  5
B63
330
1A
100
AcDbEntity
  8
ZUWAKU
100
AcDbText
 10
253.3383117772764
 20
4.827678230549175
 30
0.0
 40
2.0
  1
縮尺
 41
0.9
  7
ｽﾀｲﾙ1
100
AcDbText
  0
TEXT
  5
B64
330
1A
100
AcDbEntity
  8
moji
100
AcDbText
 10
264.0204535032575
 20
1.602460490060077
 30
0.0
 40
2.8
  1
１/１
 41
0.9
  7
ｽﾀｲﾙ1
100
AcDbText
  0
TEXT
  5
B65
330
1A
100
AcDbEntity
  8
ZUWAKU
100
AcDbText
 10
224.6509040137015
 20
12.02767823054916
 30
0.0
 40
2.0
  1
品番
 41
0.9
  7
ｽﾀｲﾙ1
100
AcDbText
  0
TEXT
  5
B66
330
1A
100
AcDbEntity
  8
ZUWAKU
100
AcDbText
 10
253.3383117772763
 20
12.02767823054916
 30
0.0
 40
2.0
  1
用紙
 41
0.9
  7
ｽﾀｲﾙ1
100
AcDbText
  0
LINE
  5
B67
330
1A
100
AcDbEntity
  8
ZUWAKU
100
AcDbLine
 10
276.2634774001573
 20
14.99999996135637
 30
0.0
 11
276.2634774001573
 21
0.3999999613564
 31
0.0
  0
LINE
  5
B68
330
1A
100
AcDbEntity
  8
ZUWAKU
100
AcDbLine
 10
276.4634774001572
 20
14.99999996135637
 30
0.0
 11
276.4634774001573
 21
0.3999999613564
 31
0.0
  0
LINE
  5
B69
330
1A
100
AcDbEntity
  8
ZUWAKU
100
AcDbLine
 10
276.3634774001572
 20
14.99999996135637
 30
0.0
 11
276.3634774001573
 21
0.3999999613564
 31
0.0
  0
LINE
  5
B6A
330
1A
100
AcDbEntity
  8
ZUWAKU
100
AcDbLine
 10
324.2086007722033
 20
14.99999996135637
 30
0.0
 11
324.2086007722033
 21
0.3999999613564
 31
0.0
  0
LINE
  5
B6B
330
1A
100
AcDbEntity
  8
ZUWAKU
100
AcDbLine
 10
324.4086007722033
 20
14.99999996135637
 30
0.0
 11
324.4086007722034
 21
0.3999999613564
 31
0.0
  0
LINE
  5
B6C
330
1A
100
AcDbEntity
  8
ZUWAKU
100
AcDbLine
 10
324.3086007722033
 20
14.99999996135637
 30
0.0
 11
324.3086007722034
 21
0.3999999613564
 31
0.0
  0
TEXT
  5
B6D
330
1A
100
AcDbEntity
  8
ZUWAKU
100
AcDbText
 10
325.1473232833081
 20
12.02767823054916
 30
0.0
 40
2.0
  1
DATE
 41
0.9
  7
ｽﾀｲﾙ1
100
AcDbText
  0
TEXT
  5
B6E
330
1A
100
AcDbEntity
  8
ZUWAKU
100
AcDbText
 10
354.264041613223
 20
8.776919629199767
 30
0.0
 40
3.0
  1
積水化学工業株式会社
 41
0.9
  7
ｽﾀｲﾙ1
100
AcDbText
  0
LINE
  5
B6F
330
1A
100
AcDbEntity
  8
ZUWAKU
100
AcDbLine
 10
348.9245047913717
 20
14.99999996135637
 30
0.0
 11
348.9245047913718
 21
0.3999999613564
 31
0.0
  0
LINE
  5
B70
330
1A
100
AcDbEntity
  8
ZUWAKU
100
AcDbLine
 10
348.8245047913716
 20
14.99999996135637
 30
0.0
 11
348.8245047913717
 21
0.3999999613564
 31
0.0
  0
LINE
  5
B71
330
1A
100
AcDbEntity
  8
ZUWAKU
100
AcDbLine
 10
348.7245047913717
 20
14.99999996135637
 30
0.0
 11
348.7245047913717
 21
0.3999999613564
 31
0.0
  0
LINE
  5
B72
330
1A
100
AcDbEntity
  8
ZUWAKU
100
AcDbLine
 10
348.6245047913717
 20
14.99999996135637
 30
0.0
 11
348.6245047913717
 21
0.3999999613564
 31
0.0
  0
TEXT
  5
B73
330
1A
100
AcDbEntity
  8
ZUWAKU
100
AcDbText
 10
354.264041613223
 20
3.324420118283399
 30
0.0
 40
3.0
  1
建材事業部
 41
0.9
  7
ｽﾀｲﾙ1
100
AcDbText
  0
DIMENSION
  5
3EED
330
1A
100
AcDbEntity
  8
SUNPOU
100
AcDbDimension
  2
*D1
 10
54.68518951873622
 20
83.65217766006845
 30
0.0
 11
52.18518951873621
 21
100.6480386600684
 31
0.0
 70
    32
 71
     5
 42
33.99172199999994
  3
STANDARD
100
AcDbAlignedDimension
 13
82.99898850485579
 23
117.6438996600684
 33
0.0
 14
228.7128605048556
 24
83.65217766006839
 34
0.0
 50
90.0
100
AcDbRotatedDimension
1001
ACAD
1000
DSTYLE
1002
{
1070
    41
1040
3.0
1070
    42
1040
3.0
1070
    43
1040
7.0
1070
    44
1040
1.5
1070
    73
1070
     0
1070
    74
1070
     0
1070
    77
1070
     3
1070
   140
1040
3.0
1070
   141
1040
3.0
1070
   147
1040
1.0
1070
   172
1070
     1
1070
   173
1070
     1
1070
   176
1070
   256
1070
   177
1070
   256
1070
   178
1070
   256
1070
   271
1070
     0
1070
   272
1070
     0
1070
   341
1005
B2
1070
     6
1000
OPEN
1070
     7
1000
OPEN
1002
}
  0
LINE
  5
3EEE
330
1A
100
AcDbEntity
  8
CENTER L
100
AcDbLine
 10
233.7128605048556
 20
202.3366016600684
 30
0.0
 11
77.99898850485579
 21
202.3366016600683
 31
0.0
  0
DIMENSION
  5
3EEF
330
1A
100
AcDbEntity
  8
SUNPOU
100
AcDbDimension
  2
*D2
 10
249.8859975463702
 20
141.6449531443542
 30
0.0
 11
232.3859975463702
 21
144.1449531443542
 31
0.0
 70
    32
 71
     5
 42
35.0
  3
STANDARD
100
AcDbAlignedDimension
 13
214.8859975463702
 23
118.7806814636263
 33
0.0
 14
249.8859975463702
 24
118.7806814636263
 34
0.0
100
AcDbRotatedDimension
1001
ACAD
1000
DSTYLE
1002
{
1070
   140
1040
3.0
1070
    74
1070
     0
1070
   172
1070
     1
1070
    73
1070
     0
1070
   272
1070
     0
1070
    77
1070
     3
1070
   173
1070
     1
1070
   147
1040
1.0
1070
    42
1040
3.0
1070
    44
1040
1.5
1070
    43
1040
7.0
1070
   271
1070
     0
1070
   178
1070
   256
1070
   177
1070
   256
1070
   176
1070
   256
1070
   141
1040
3.0
1070
     7
1000
OPEN
1070
     6
1000
OPEN
1070
    41
1040
3.0
1002
}
  0
DIMENSION
  5
3EF0
330
1A
100
AcDbEntity
  8
SUNPOU
100
AcDbDimension
  2
*D3
 10
245.2929625434307
 20
90.17824052022779
 30
0.0
 11
239.426469439261
 21
111.908436733402
 31
0.0
 70
    33
 71
     5
 42
44.73777682470697
  3
STANDARD
100
AcDbAlignedDimension
 13
212.3273069287028
 23
125.2812817726999
 33
0.0
 14
228.7128605048556
 24
83.6521776600684
 34
0.0
1001
ACAD
1000
DSTYLE
1002
{
1070
   140
1040
3.0
1070
    74
1070
     0
1070
   172
1070
     1
1070
    73
1070
     0
1070
   272
1070
     0
1070
    77
1070
     3
1070
   173
1070
     1
1070
   147
1040
1.0
1070
    42
1040
3.0
1070
    44
1040
1.5
1070
    43
1040
7.0
1070
   271
1070
     0
1070
   178
1070
   256
1070
   177
1070
   256
1070
   176
1070
   256
1070
   141
1040
3.0
1070
     7
1000
OPEN
1070
     6
1000
OPEN
1070
    41
1040
3.0
1002
}
  0
DIMENSION
  5
3EF1
330
1A
100
AcDbEntity
  8
SUNPOU
100
AcDbDimension
  2
*D4
 10
237.2018147049979
 20
86.99349868548069
 30
0.0
 11
232.9354609180953
 21
104.6583857681777
 31
0.0
 70
    33
 71
     5
 42
36.00000057108078
  3
STANDARD
100
AcDbAlignedDimension
 13
215.5275855048558
 23
117.1506636600684
 33
0.0
 14
228.7128605048556
 24
83.6521776600684
 34
0.0
1001
ACAD
1000
DSTYLE
1002
{
1070
   140
1040
3.0
1070
    74
1070
     0
1070
   172
1070
     1
1070
    73
1070
     0
1070
   272
1070
     0
1070
    77
1070
     3
1070
   173
1070
     1
1070
   147
1040
1.0
1070
    42
1040
3.0
1070
    44
1040
1.5
1070
    43
1040
7.0
1070
   271
1070
     0
1070
   178
1070
   256
1070
   177
1070
   256
1070
   176
1070
   256
1070
   141
1040
3.0
1070
     7
1000
OPEN
1070
     6
1000
OPEN
1070
    41
1040
3.0
1002
}
  0
LINE
  5
3EF2
330
1A
100
AcDbEntity
  8
CENTER L
100
AcDbLine
 10
210.6986977699604
 20
100.2045185267029
 30
0.0
 11
225.3077596495756
 21
105.9547633994325
 31
0.0
  0
LINE
  5
3EF3
330
1A
100
AcDbEntity
  8
CENTER L
100
AcDbLine
 10
207.585507964279
 20
108.113882723337
 30
0.0
 11
222.1945699243626
 21
113.8641276277396
 31
0.0
  0
ARC
  5
3EF4
330
1A
100
AcDbEntity
  8
SEIHIN
100
AcDbCircle
 10
217.4109695048558
 20
224.9987836600684
 30
0.0
 40
3.0
100
AcDbArc
 50
90.0
 51
180.0
  0
ARC
  5
3EF5
330
1A
100
AcDbEntity
  8
SEIHIN
100
AcDbCircle
 10
218.6109695048558
 20
224.9987836600684
 30
0.0
 40
3.0
100
AcDbArc
 50
90.0
 51
180.0
  0
ARC
  5
3EF6
330
1A
100
AcDbEntity
  8
SEIHIN
100
AcDbCircle
 10
213.9109695048558
 20
212.8053816600684
 30
0.0
 40
1.700000040122499
100
AcDbArc
 50
278.7461491942049
 51
359.9999946189175
  0
LINE
  5
3EF7
330
1A
100
AcDbEntity
  8
SEIHIN
100
AcDbLine
 10
211.5932485048556
 20
210.5883946600684
 30
0.0
 11
224.6951395048557
 21
210.5883956600684
 31
0.0
  0
ARC
  5
3EF8
330
1A
100
AcDbEntity
  8
SEIHIN
100
AcDbCircle
 10
213.9109695048558
 20
191.8678206600684
 30
0.0
 40
1.700000158763074
100
AcDbArc
 50
0.0000066132454181
 51
81.02579079286475
  0
LINE
  5
3EF9
330
1A
100
AcDbEntity
  8
SEIHIN
100
AcDbLine
 10
224.6943535048556
 20
194.0991696600684
 30
0.0
 11
211.5924625048558
 21
194.0991696600684
 31
0.0
  0
LINE
  5
3EFA
330
1A
100
AcDbEntity
  8
SEIHIN
100
AcDbLine
 10
216.0279815048557
 20
207.3469196600684
 30
0.0
 11
146.1864735048557
 21
207.3469196600684
 31
0.0
  0
LINE
  5
3EFB
330
1A
100
AcDbEntity
  8
SEIHIN
100
AcDbLine
 10
216.0287255048556
 20
197.3469196600684
 30
0.0
 11
146.1864735048557
 21
197.3469196600684
 31
0.0
  0
LINE
  5
3EFC
330
1A
100
AcDbEntity
  8
SEIHIN
100
AcDbLine
 10
227.7128575048557
 20
209.8469556600684
 30
0.0
 11
135.7692135048558
 21
209.8466856600684
 31
0.0
  0
LINE
  5
3EFD
330
1A
100
AcDbEntity
  8
SEIHIN
100
AcDbLine
 10
227.7128635048557
 20
194.8469556600684
 30
0.0
 11
135.7690775048557
 21
194.8466856600684
 31
0.0
  0
ARC
  5
3EFE
330
1A
100
AcDbEntity
  8
SEIHIN
100
AcDbCircle
 10
218.6109695048558
 20
179.6950566600684
 30
0.0
 40
3.0
100
AcDbArc
 50
180.0
 51
270.0
  0
ARC
  5
3EFF
330
1A
100
AcDbEntity
  8
SEIHIN
100
AcDbCircle
 10
217.4109695048558
 20
179.6950566600684
 30
0.0
 40
3.0
100
AcDbArc
 50
180.0
 51
270.0
  0
ARC
  5
3F00
330
1A
100
AcDbEntity
  8
SEIHIN
100
AcDbCircle
 10
222.1094095048557
 20
100.2241186600684
 30
0.0
 40
6.624999944286226
100
AcDbArc
 50
169.5941816919566
 51
233.3757628202731
  0
LINE
  5
3F01
330
1A
100
AcDbEntity
  8
SEIHIN
100
AcDbLine
 10
213.6665585048556
 20
116.4181486600684
 30
0.0
 11
226.8518335048557
 21
82.91966266006841
 31
0.0
  0
LINE
  5
3F02
330
1A
100
AcDbEntity
  8
SEIHIN
100
AcDbLine
 10
215.5275855048558
 20
117.1506636600684
 30
0.0
 11
228.7128605048556
 21
83.65217766006839
 31
0.0
  0
LINE
  5
3F03
330
1A
100
AcDbEntity
  8
SEIHIN
100
AcDbLine
 10
214.4109695048558
 20
116.7111546600684
 30
0.0
 11
227.5962435048557
 21
83.2126686600684
 31
0.0
  0
LINE
  5
3F04
330
1A
100
AcDbEntity
  8
SEIHIN
100
AcDbLine
 10
223.4089335048557
 20
81.56450966006838
 30
0.0
 11
210.2236585048556
 21
115.0629946600684
 31
0.0
  0
ARC
  5
3F05
330
1A
100
AcDbEntity
  8
SEIHIN
100
AcDbCircle
 10
208.3724045048557
 20
116.2168746600684
 30
0.0
 40
6.999999974031143
100
AcDbArc
 50
21.4850298472634
 51
111.3706510243148
  0
DIMENSION
  5
3F06
330
1A
100
AcDbEntity
  8
SUNPOU
100
AcDbDimension
  2
*D5
 10
82.43058566876741
 20
141.6449531443542
 30
0.0
 11
148.6582916075688
 21
144.1449531443542
 31
0.0
 70
    32
 71
     5
 42
132.4554118776028
  3
STANDARD
100
AcDbAlignedDimension
 13
214.8859975463702
 23
118.7806814636263
 33
0.0
 14
82.43058566876741
 24
110.4216437258699
 34
0.0
100
AcDbRotatedDimension
1001
ACAD
1000
DSTYLE
1002
{
1070
   140
1040
3.0
1070
    74
1070
     0
1070
   172
1070
     1
1070
    73
1070
     0
1070
   272
1070
     0
1070
    77
1070
     3
1070
   173
1070
     1
1070
   147
1040
1.0
1070
    42
1040
3.0
1070
    44
1040
1.5
1070
    43
1040
7.0
1070
   271
1070
     0
1070
   178
1070
   256
1070
   177
1070
   256
1070
   176
1070
   256
1070
   141
1040
3.0
1070
     7
1000
OPEN
1070
     6
1000
OPEN
1070
    41
1040
3.0
1002
}
  0
DIMENSION
  5
3F07
330
1A
100
AcDbEntity
  8
SUNPOU
100
AcDbDimension
  2
*D6
 10
214.8859975463702
 20
132.6715157604715
 30
0.0
 11
209.827595025613
 21
135.1715157604715
 31
0.0
 70
    32
 71
     5
 42
10.11680504151451
  3
STANDARD
100
AcDbAlignedDimension
 13
204.7691925048557
 23
86.33133966006841
 33
0.0
 14
214.8859975463702
 24
118.7806814636263
 34
0.0
100
AcDbRotatedDimension
1001
ACAD
1000
DSTYLE
1002
{
1070
   140
1040
3.0
1070
    74
1070
     0
1070
   172
1070
     1
1070
    73
1070
     0
1070
   272
1070
     0
1070
    77
1070
     3
1070
   173
1070
     1
1070
   147
1040
1.0
1070
    42
1040
3.0
1070
    44
1040
1.5
1070
    43
1040
7.0
1070
   271
1070
     0
1070
   178
1070
   256
1070
   177
1070
   256
1070
   176
1070
   256
1070
   141
1040
3.0
1070
     7
1000
OPEN
1070
     6
1000
OPEN
1070
    41
1040
3.0
1002
}
  0
ARC
  5
3F08
330
1A
100
AcDbEntity
  8
SEIHIN
100
AcDbCircle
 10
84.42442050485579
 20
110.2647256600684
 30
0.0
 40
2.000000158243612
100
AcDbArc
 50
175.5000039676388
 51
269.999997752317
  0
LINE
  5
3F09
330
1A
100
AcDbEntity
  8
SEIHIN
100
AcDbLine
 10
83.5180245048557
 20
111.4933706600684
 30
0.0
 11
85.84191150485572
 21
109.2647256600684
 31
0.0
  0
ARC
  5
3F0A
330
1A
100
AcDbEntity
  8
SEIHIN
100
AcDbCircle
 10
84.42442050485579
 20
110.2647256600684
 30
0.0
 40
0.9999998298924711
100
AcDbArc
 50
175.5000039676388
 51
270.0
  0
LINE
  5
3F0B
330
1A
100
AcDbEntity
  8
SEIHIN
100
AcDbLine
 10
82.4305855048558
 20
110.4216436600684
 30
0.0
 11
82.99898850485579
 21
117.6438996600684
 31
0.0
  0
LINE
  5
3F0C
330
1A
100
AcDbEntity
  8
SEIHIN
100
AcDbLine
 10
83.42750250485574
 20
110.3431846600684
 30
0.0
 11
83.99590650485561
 21
117.5654406600684
 31
0.0
  0
LINE
  5
3F0D
330
1A
100
AcDbEntity
  8
SEIHIN
100
AcDbLine
 10
83.99590650485561
 20
117.5654406600684
 30
0.0
 11
82.99898850485579
 21
117.6438996600684
 31
0.0
  0
LINE
  5
3F0E
330
1A
100
AcDbEntity
  8
SEIHIN
100
AcDbLine
 10
189.0522295048556
 20
116.1736426600684
 30
0.0
 11
148.2853925048557
 21
110.6145286600684
 31
0.0
  0
LINE
  5
3F0F
330
1A
100
AcDbEntity
  8
SEIHIN
100
AcDbLine
 10
189.6855055048557
 20
113.7368626600684
 30
0.0
 11
148.6231755048557
 21
108.1374536600684
 31
0.0
  0
LINE
  5
3F10
330
1A
100
AcDbEntity
  8
SEIHIN
100
AcDbLine
 10
190.4454375048556
 20
110.8127246600684
 30
0.0
 11
148.4153825048556
 21
105.0813536600684
 31
0.0
  0
LINE
  5
3F11
330
1A
100
AcDbEntity
  8
SEIHIN
100
AcDbLine
 10
125.1400875048557
 20
87.13313166006839
 30
0.0
 11
162.2425975048557
 21
87.13313166006839
 31
0.0
  0
LINE
  5
3F12
330
1A
100
AcDbEntity
  8
SEIHIN
100
AcDbLine
 10
125.1400705048557
 20
82.13313166006839
 30
0.0
 11
162.2425975048557
 21
82.13313166006839
 31
0.0
  0
LINE
  5
3F13
330
1A
100
AcDbEntity
  8
SEIHIN
100
AcDbLine
 10
123.4433335048557
 20
99.47981866006842
 30
0.0
 11
107.8820515048558
 21
99.47979766006841
 31
0.0
  0
ARC
  5
3F14
330
1A
100
AcDbEntity
  8
SEIHIN
100
AcDbCircle
 10
113.6401145048558
 20
83.40830366006838
 30
0.0
 40
15.72491078112709
100
AcDbArc
 50
43.00252833503259
 51
136.9974830730986
  0
LINE
  5
3F15
330
1A
100
AcDbEntity
  8
SEIHIN
100
AcDbLine
 10
107.6399875048558
 20
88.1332146600684
 30
0.0
 11
125.1400625048557
 21
88.1332146600684
 31
0.0
  0
LINE
  5
3F16
330
1A
100
AcDbEntity
  8
SEIHIN
100
AcDbLine
 10
102.1400625048557
 20
80.1332146600684
 30
0.0
 11
125.1400625048557
 21
80.1332146600684
 31
0.0
  0
LINE
  5
3F17
330
1A
100
AcDbEntity
  8
SEIHIN
100
AcDbLine
 10
90.3779465048558
 20
107.4033706600684
 30
0.0
 11
93.19219250485571
 21
87.30125866006841
 31
0.0
  0
LINE
  5
3F18
330
1A
100
AcDbEntity
  8
SEIHIN
100
AcDbLine
 10
95.52788450485559
 20
106.6806616600684
 30
0.0
 11
98.14390250485576
 21
87.99448566006839
 31
0.0
  0
LINE
  5
3F19
330
1A
100
AcDbEntity
  8
SEIHIN
100
AcDbLine
 10
99.13424450485559
 20
82.13313166006839
 30
0.0
 11
102.1400705048557
 21
82.13313166006839
 31
0.0
  0
LINE
  5
3F1A
330
1A
100
AcDbEntity
  8
SEIHIN
100
AcDbLine
 10
99.13424450485559
 20
87.13313166006839
 30
0.0
 11
102.1400875048557
 21
87.13313166006839
 31
0.0
  0
ARC
  5
3F1B
330
1A
100
AcDbEntity
  8
SEIHIN
100
AcDbCircle
 10
99.13424450485559
 20
88.13313166006839
 30
0.0
 40
5.999999777451366
100
AcDbArc
 50
187.9694469761786
 51
269.9999716287842
  0
ARC
  5
3F1C
330
1A
100
AcDbEntity
  8
SEIHIN
100
AcDbCircle
 10
99.13424450485559
 20
88.13313166006839
 30
0.0
 40
0.9999999282472448
100
AcDbArc
 50
187.9694469761786
 51
270.0
  0
LINE
  5
3F1D
330
1A
100
AcDbEntity
  8
SEIHIN
100
AcDbLine
 10
104.3900125048558
 20
85.43317366006841
 30
0.0
 11
104.3900125048558
 21
92.63313866006837
 31
0.0
  0
LINE
  5
3F1E
330
1A
100
AcDbEntity
  8
SEIHIN
100
AcDbLine
 10
107.3900125048558
 20
92.63313866006837
 30
0.0
 11
107.3900125048558
 21
85.43317366006841
 31
0.0
  0
LINE
  5
3F1F
330
1A
100
AcDbEntity
  8
SEIHIN
100
AcDbLine
 10
107.6400125048558
 20
92.93317366006841
 30
0.0
 11
107.6400125048558
 21
85.43317366006841
 31
0.0
  0
LINE
  5
3F20
330
1A
100
AcDbEntity
  8
SEIHIN
100
AcDbLine
 10
102.1400625048557
 20
80.1332146600684
 30
0.0
 11
102.1401125048558
 21
94.1331716600684
 31
0.0
  0
LINE
  5
3F21
330
1A
100
AcDbEntity
  8
SEIHIN
100
AcDbLine
 10
104.1400125048558
 20
92.93317066006841
 30
0.0
 11
104.1400125048558
 21
85.43317066006841
 31
0.0
  0
LINE
  5
3F22
330
1A
100
AcDbEntity
  8
SEIHIN
100
AcDbLine
 10
104.1400125048558
 20
85.43317066006841
 30
0.0
 11
107.6400125048558
 21
85.43317366006841
 31
0.0
  0
LINE
  5
3F23
330
1A
100
AcDbEntity
  8
SEIHIN
100
AcDbLine
 10
102.1400625048557
 20
88.1332146600684
 30
0.0
 11
104.1399875048558
 21
88.1332146600684
 31
0.0
  0
LINE
  5
3F24
330
1A
100
AcDbEntity
  8
SEIHIN
100
AcDbLine
 10
107.3900125048558
 20
92.63313866006837
 30
0.0
 11
104.3900125048558
 21
92.63313866006837
 31
0.0
  0
LINE
  5
3F25
330
1A
100
AcDbEntity
  8
SEIHIN
100
AcDbLine
 10
104.1400125048558
 20
92.93317066006841
 30
0.0
 11
107.6400125048558
 21
92.93317366006841
 31
0.0
  0
LINE
  5
3F26
330
1A
100
AcDbEntity
  8
SEIHIN
100
AcDbLine
 10
108.8600845048557
 20
98.47981466006837
 30
0.0
 11
107.8820585048557
 21
98.47981366006837
 31
0.0
  0
LINE
  5
3F27
330
1A
100
AcDbEntity
  8
SEIHIN
100
AcDbLine
 10
107.8820585048557
 20
98.47981366006837
 30
0.0
 11
107.8820515048558
 21
99.47979766006841
 31
0.0
  0
CIRCLE
  5
3F28
330
1A
100
AcDbEntity
  8
SEIHIN
100
AcDbCircle
 10
113.6401325048557
 20
94.13317366006839
 30
0.0
 40
2.15
  0
LINE
  5
3F29
330
1A
100
AcDbEntity
  8
SEIHIN
100
AcDbLine
 10
92.55685750485577
 20
109.2647256600684
 30
0.0
 11
85.38760350485563
 21
109.2647256600684
 31
0.0
  0
LINE
  5
3F2A
330
1A
100
AcDbEntity
  8
SEIHIN
100
AcDbLine
 10
89.38760350485563
 20
108.2647256600684
 30
0.0
 11
84.42442050485579
 21
108.2647256600684
 31
0.0
  0
LINE
  5
3F2B
330
1A
100
AcDbEntity
  8
SEIHIN
100
AcDbLine
 10
84.42442050485579
 20
109.2647256600684
 30
0.0
 11
85.38760350485563
 21
109.2647256600684
 31
0.0
  0
LINE
  5
3F2C
330
1A
100
AcDbEntity
  8
SEIHIN
100
AcDbLine
 10
87.68039650485571
 20
109.2647256600684
 30
0.0
 11
87.68039650485571
 21
108.2647256600684
 31
0.0
  0
ARC
  5
3F2D
330
1A
100
AcDbEntity
  8
SEIHIN
100
AcDbCircle
 10
89.38760350485563
 20
107.2647256600684
 30
0.0
 40
0.9999999282472448
100
AcDbArc
 50
7.969446976178607
 51
90.0
  0
LINE
  5
3F2E
330
1A
100
AcDbEntity
  8
SEIHIN
100
AcDbLine
 10
89.54947250485566
 20
108.2647256600684
 30
0.0
 11
89.55136250485566
 21
108.2512256600684
 31
0.0
  0
LINE
  5
3F2F
330
1A
100
AcDbEntity
  8
SEIHIN
100
AcDbLine
 10
89.38760350485563
 20
109.2647256600684
 30
0.0
 11
89.38760350485563
 21
108.2647256600684
 31
0.0
  0
ARC
  5
3F30
330
1A
100
AcDbEntity
  8
SEIHIN
100
AcDbCircle
 10
92.55685750485577
 20
106.2647256600684
 30
0.0
 40
2.999999854064327
100
AcDbArc
 50
7.96944697617947
 51
89.99998108585706
  0
LINE
  5
3F31
330
1A
100
AcDbEntity
  8
SEIHIN
100
AcDbLine
 10
146.1865225048557
 20
118.4023566600684
 30
0.0
 11
138.0254755048557
 21
95.27939166006837
 31
0.0
  0
LINE
  5
3F32
330
1A
100
AcDbEntity
  8
SEIHIN
100
AcDbLine
 10
142.0190485048556
 20
111.1014556600684
 30
0.0
 11
136.6677885048557
 21
95.93955166006839
 31
0.0
  0
LINE
  5
3F33
330
1A
100
AcDbEntity
  8
SEIHIN
100
AcDbLine
 10
145.2435315048558
 20
118.7351766600684
 30
0.0
 11
137.1392835048557
 21
95.7731416600684
 31
0.0
  0
LINE
  5
3F34
330
1A
100
AcDbEntity
  8
SEIHIN
100
AcDbLine
 10
144.5837895048558
 20
104.8474036600684
 30
0.0
 11
138.3316935048556
 21
87.13313166006839
 31
0.0
  0
LINE
  5
3F35
330
1A
100
AcDbEntity
  8
SEIHIN
100
AcDbLine
 10
147.6073395048556
 20
104.4228736600684
 30
0.0
 11
141.5147635048556
 21
87.13313166006839
 31
0.0
  0
LINE
  5
3F36
330
1A
100
AcDbEntity
  8
SEIHIN
100
AcDbLine
 10
142.2263135048556
 20
105.6794536600684
 30
0.0
 11
135.6805525048558
 21
87.13313166006839
 31
0.0
  0
LINE
  5
3F37
330
1A
100
AcDbEntity
  8
SEIHIN
100
AcDbLine
 10
135.1965035048556
 20
93.27785166006839
 30
0.0
 11
125.1134985048557
 21
93.27785366006839
 31
0.0
  0
LINE
  5
3F38
330
1A
100
AcDbEntity
  8
SEIHIN
100
AcDbLine
 10
133.9597995048557
 20
94.8328516600684
 30
0.0
 11
124.2808265048557
 21
99.29602666006838
 31
0.0
  0
LINE
  5
3F39
330
1A
100
AcDbEntity
  8
SEIHIN
100
AcDbLine
 10
125.1400625048557
 20
80.1332146600684
 30
0.0
 11
125.1401125048558
 21
94.13317366006839
 31
0.0
  0
ARC
  5
3F3A
330
1A
100
AcDbEntity
  8
SEIHIN
100
AcDbCircle
 10
123.4433365048558
 20
97.47981866006842
 30
0.0
 40
1.999999844935613
100
AcDbArc
 50
65.24462387884964
 51
90.00010203811519
  0
ARC
  5
3F3B
330
1A
100
AcDbEntity
  8
SEIHIN
100
AcDbCircle
 10
134.7972905048557
 20
96.64905866006842
 30
0.0
 40
2.00000009820312
100
AcDbArc
 50
245.2446238788496
 51
340.5599821720813
  0
ARC
  5
3F3C
330
1A
100
AcDbEntity
  8
SEIHIN
100
AcDbCircle
 10
135.2533035048557
 20
96.4387816600684
 30
0.0
 40
2.00000009820312
100
AcDbArc
 50
245.2446238788496
 51
340.5599821720813
  0
ARC
  5
3F3D
330
1A
100
AcDbEntity
  8
SEIHIN
100
AcDbCircle
 10
135.1965045048557
 20
96.27785166006839
 30
0.0
 40
2.999999940870082
100
AcDbArc
 50
269.9999883784511
 51
340.5599599066717
  0
ARC
  5
3F3E
330
1A
100
AcDbEntity
  8
SEIHIN
100
AcDbCircle
 10
149.2987415048558
 20
103.1833026600684
 30
0.0
 40
7.500000197431461
100
AcDbArc
 50
97.76515569653493
 51
160.5599559187035
  0
ARC
  5
3F3F
330
1A
100
AcDbEntity
  8
SEIHIN
100
AcDbCircle
 10
149.2987415048558
 20
103.1833026600684
 30
0.0
 40
4.999999758966238
100
AcDbArc
 50
97.76515569653493
 51
160.559955823277
  0
ARC
  5
3F40
330
1A
100
AcDbEntity
  8
SEIHIN
100
AcDbCircle
 10
148.5504955048557
 20
104.0905236600684
 30
0.0
 40
1.000000089458492
100
AcDbArc
 50
97.76515569653742
 51
160.5885380977539
  0
ARC
  5
3F41
330
1A
100
AcDbEntity
  8
SEIHIN
100
AcDbCircle
 10
142.4905445048557
 20
110.9350456600684
 30
0.0
 40
0.5
100
AcDbArc
 50
70.55996517181939
 51
160.5599651718254
  0
LINE
  5
3F42
330
1A
100
AcDbEntity
  8
SEIHIN
100
AcDbLine
 10
146.1865225048557
 20
118.4023566600684
 30
0.0
 11
145.2435315048558
 21
118.7351766600684
 31
0.0
  0
LINE
  5
3F43
330
1A
100
AcDbEntity
  8
SEIHIN
100
AcDbLine
 10
197.1097065048557
 20
83.23129766006838
 30
0.0
 11
197.1097065048557
 21
69.76217466006841
 31
0.0
  0
LINE
  5
3F44
330
1A
100
AcDbEntity
  8
SEIHIN
100
AcDbLine
 10
199.1097065048557
 20
64.76217466006841
 30
0.0
 11
199.1097065048557
 21
83.23129766006838
 31
0.0
  0
LINE
  5
3F45
330
1A
100
AcDbEntity
  8
SEIHIN
100
AcDbLine
 10
197.1097065048557
 20
83.23129766006838
 30
0.0
 11
197.1097065048557
 21
64.76217466006841
 31
0.0
  0
LINE
  5
3F46
330
1A
100
AcDbEntity
  8
SEIHIN
100
AcDbLine
 10
199.1097065048557
 20
69.76217466006841
 30
0.0
 11
199.1097065048557
 21
83.23129766006838
 31
0.0
  0
LINE
  5
3F47
330
1A
100
AcDbEntity
  8
SEIHIN
100
AcDbLine
 10
199.1097065048557
 20
64.76217466006841
 30
0.0
 11
197.1097065048557
 21
64.76217466006841
 31
0.0
  0
ARC
  5
3F48
330
1A
100
AcDbEntity
  8
SEIHIN
100
AcDbCircle
 10
186.5721215048557
 20
101.0883576600684
 30
0.0
 40
3.999999868335058
100
AcDbArc
 50
98.06364279830783
 51
160.5884979740769
  0
LINE
  5
3F49
330
1A
100
AcDbEntity
  8
SEIHIN
100
AcDbLine
 10
175.8047275048557
 20
81.03313166006836
 30
0.0
 11
190.8969205048556
 21
81.03313166006836
 31
0.0
  0
LINE
  5
3F4A
330
1A
100
AcDbEntity
  8
SEIHIN
100
AcDbLine
 10
175.8047275048557
 20
80.63313166006839
 30
0.0
 11
191.9936965048557
 21
80.63313166006839
 31
0.0
  0
LINE
  5
3F4B
330
1A
100
AcDbEntity
  8
SEIHIN
100
AcDbLine
 10
184.6858095048558
 20
101.7530576600684
 30
0.0
 11
178.0903035048557
 21
83.03608066006837
 31
0.0
  0
LINE
  5
3F4C
330
1A
100
AcDbEntity
  8
SEIHIN
100
AcDbLine
 10
182.7994975048557
 20
102.4177586600684
 30
0.0
 11
176.2039915048556
 21
83.7007816600684
 31
0.0
  0
LINE
  5
3F4D
330
1A
100
AcDbEntity
  8
SEIHIN
100
AcDbLine
 10
165.9666975048558
 20
79.63313166006839
 30
0.0
 11
175.8047275048557
 21
79.63313166006839
 31
0.0
  0
LINE
  5
3F4E
330
1A
100
AcDbEntity
  8
SEIHIN
100
AcDbLine
 10
165.7636115048556
 20
85.85834866006837
 30
0.0
 11
167.2338715048556
 21
84.63313166006839
 31
0.0
  0
ARC
  5
3F4F
330
1A
100
AcDbEntity
  8
SEIHIN
100
AcDbCircle
 10
162.2425975048557
 20
81.63313166006839
 30
0.0
 40
0.500000074392489
100
AcDbArc
 50
50.19443624371842
 51
89.99996332013924
  0
ARC
  5
3F50
330
1A
100
AcDbEntity
  8
SEIHIN
100
AcDbCircle
 10
165.9666975048558
 20
81.13313166006839
 30
0.0
 40
1.500000159158816
100
AcDbArc
 50
230.1944362437104
 51
270.0000171172698
  0
LINE
  5
3F51
330
1A
100
AcDbEntity
  8
SEIHIN
100
AcDbLine
 10
162.5626895048556
 20
82.01724266006841
 30
0.0
 11
165.0064205048557
 21
79.98079966006839
 31
0.0
  0
ARC
  5
3F52
330
1A
100
AcDbEntity
  8
SEIHIN
100
AcDbCircle
 10
162.2425975048557
 20
81.63313166006839
 30
0.0
 40
5.499999922058408
100
AcDbArc
 50
50.19443624371149
 51
90.00000600216328
  0
ARC
  5
3F53
330
1A
100
AcDbEntity
  8
SEIHIN
100
AcDbCircle
 10
171.8047275048557
 20
80.63313166006839
 30
0.0
 40
4.0
100
AcDbArc
 50
0.0
 51
90.0
  0
LINE
  5
3F54
330
1A
100
AcDbEntity
  8
SEIHIN
100
AcDbLine
 10
168.4172065048556
 20
78.63313166006839
 30
0.0
 11
173.4172065048556
 21
78.63313166006839
 31
0.0
  0
ARC
  5
3F55
330
1A
100
AcDbEntity
  8
SEIHIN
100
AcDbCircle
 10
168.4172065048556
 20
79.13313166006839
 30
0.0
 40
0.5
100
AcDbArc
 50
180.0000000235017
 51
270.0000000235017
  0
LINE
  5
3F56
330
1A
100
AcDbEntity
  8
SEIHIN
100
AcDbLine
 10
167.9172065048556
 20
79.63313166006839
 30
0.0
 11
167.9172065048556
 21
79.13313166006839
 31
0.0
  0
LINE
  5
3F57
330
1A
100
AcDbEntity
  8
SEIHIN
100
AcDbLine
 10
173.9172065048556
 20
79.63313166006839
 30
0.0
 11
173.9172065048556
 21
79.13313166006839
 31
0.0
  0
ARC
  5
3F58
330
1A
100
AcDbEntity
  8
SEIHIN
100
AcDbCircle
 10
173.4172065048556
 20
79.13313166006839
 30
0.0
 40
0.5
100
AcDbArc
 50
270.0000000352525
 51
0.0000000352525556
  0
LINE
  5
3F59
330
1A
100
AcDbEntity
  8
SEIHIN
100
AcDbLine
 10
167.2338715048556
 20
84.63313166006839
 30
0.0
 11
171.8047275048557
 21
84.63313166006839
 31
0.0
  0
LINE
  5
3F5A
330
1A
100
AcDbEntity
  8
SEIHIN
100
AcDbLine
 10
178.8394005048558
 20
79.63313166006839
 30
0.0
 11
175.8047275048557
 21
79.63313166006839
 31
0.0
  0
LINE
  5
3F5B
330
1A
100
AcDbEntity
  8
SEIHIN
100
AcDbLine
 10
175.2608355048558
 20
83.03313166006836
 30
0.0
 11
175.0047275048557
 21
83.03313166006836
 31
0.0
  0
ARC
  5
3F5C
330
1A
100
AcDbEntity
  8
SEIHIN
100
AcDbCircle
 10
175.2608355048558
 20
84.03313166006836
 30
0.0
 40
0.9999999407089966
100
AcDbArc
 50
270.0000000354349
 51
340.5885244991819
  0
LINE
  5
3F5D
330
1A
100
AcDbEntity
  8
SEIHIN
100
AcDbLine
 10
175.8047275048557
 20
80.63313166006839
 30
0.0
 11
175.8047275048557
 21
79.63313166006839
 31
0.0
  0
ARC
  5
3F5E
330
1A
100
AcDbEntity
  8
SEIHIN
100
AcDbCircle
 10
175.2608355048558
 20
84.03313166006836
 30
0.0
 40
3.00000013857666
100
AcDbArc
 50
279.9629866944945
 51
340.5885311066115
  0
LINE
  5
3F5F
330
1A
100
AcDbEntity
  8
SEIHIN
100
AcDbLine
 10
178.8394005048558
 20
80.63313166006839
 30
0.0
 11
178.8394005048558
 21
79.63313166006839
 31
0.0
  0
ARC
  5
3F60
330
1A
100
AcDbEntity
  8
SEIHIN
100
AcDbCircle
 10
200.1934265048558
 20
99.98818566006838
 30
0.0
 40
4.99999999040965
100
AcDbArc
 50
358.2105332175277
 51
98.06367557684359
  0
ARC
  5
3F61
330
1A
100
AcDbEntity
  8
SEIHIN
100
AcDbCircle
 10
200.1934265048558
 20
99.98818566006838
 30
0.0
 40
6.999999905160892
100
AcDbArc
 50
358.2105332175277
 51
98.06367746985326
  0
LINE
  5
3F62
330
1A
100
AcDbEntity
  8
SEIHIN
100
AcDbLine
 10
204.0298245048557
 20
83.85846266006837
 30
0.0
 11
196.9180165048556
 21
84.54324366006841
 31
0.0
  0
ARC
  5
3F63
330
1A
100
AcDbEntity
  8
SEIHIN
100
AcDbCircle
 10
200.1097065048557
 20
83.23129766006838
 30
0.0
 40
0.9999998652102318
100
AcDbArc
 50
84.50004182839781
 51
180.0
  0
LINE
  5
3F64
330
1A
100
AcDbEntity
  8
SEIHIN
100
AcDbLine
 10
204.2215135048557
 20
85.84925466006837
 30
0.0
 11
197.1097065048557
 21
86.53403566006841
 31
0.0
  0
ARC
  5
3F65
330
1A
100
AcDbEntity
  8
SEIHIN
100
AcDbCircle
 10
200.1097065048557
 20
83.23129766006838
 30
0.0
 40
0.9999998652102318
100
AcDbArc
 50
84.50004182839781
 51
180.0
  0
ARC
  5
3F66
330
1A
100
AcDbEntity
  8
SEIHIN
100
AcDbCircle
 10
189.9845015048556
 20
82.1233546600684
 30
0.0
 40
1.421652073219744
100
AcDbArc
 50
309.926299230051
 51
333.4919521171932
  0
ARC
  5
3F67
330
1A
100
AcDbEntity
  8
SEIHIN
100
AcDbCircle
 10
200.1097065048557
 20
83.23129766006838
 30
0.0
 40
2.99999990174308
100
AcDbArc
 50
155.0288311702728
 51
179.9999919372969
  0
LINE
  5
3F68
330
1A
100
AcDbEntity
  8
SEIHIN
100
AcDbLine
 10
193.3936965048556
 20
85.63313166006839
 30
0.0
 11
193.3936965048556
 21
82.03313166006836
 31
0.0
  0
ARC
  5
3F69
330
1A
100
AcDbEntity
  8
SEIHIN
100
AcDbCircle
 10
200.1097065048557
 20
83.23129766006838
 30
0.0
 40
2.99999990174308
100
AcDbArc
 50
155.0288311702728
 51
179.9999919372969
  0
LINE
  5
3F6A
330
1A
100
AcDbEntity
  8
SEIHIN
100
AcDbLine
 10
191.3849015048556
 20
82.03313166006836
 30
0.0
 11
191.3849015048556
 21
84.83313166006838
 31
0.0
  0
ARC
  5
3F6B
330
1A
100
AcDbEntity
  8
SEIHIN
100
AcDbCircle
 10
190.1653975048557
 20
82.03313166006836
 30
0.0
 40
1.219504113536517
100
AcDbArc
 50
333.4919866321936
 51
0.0000129482833926
  0
ARC
  5
3F6C
330
1A
100
AcDbEntity
  8
SEIHIN
100
AcDbCircle
 10
191.9936965048557
 20
82.03313166006836
 30
0.0
 40
1.4
100
AcDbArc
 50
270.0000000882617
 51
0.0000000882616646
  0
LINE
  5
3F6D
330
1A
100
AcDbEntity
  8
SEIHIN
100
AcDbLine
 10
191.8148295048557
 20
85.63313166006839
 30
0.0
 11
193.3936965048556
 21
85.63313166006839
 31
0.0
  0
ARC
  5
3F6E
330
1A
100
AcDbEntity
  8
SEIHIN
100
AcDbCircle
 10
191.8148305048558
 20
85.32607166006841
 30
0.0
 40
0.3070597682291614
100
AcDbArc
 50
90.00000001175208
 51
152.0077599357387
  0
ARC
  5
3F6F
330
1A
100
AcDbEntity
  8
SEIHIN
100
AcDbCircle
 10
192.7422175048557
 20
84.83313166006838
 30
0.0
 40
1.35731498873364
100
AcDbArc
 50
152.0077035626141
 51
179.9999691711857
  0
LINE
  5
3F70
330
1A
100
AcDbEntity
  8
SEIHIN
100
AcDbLine
 10
196.9180165048556
 20
84.54324366006841
 30
0.0
 11
197.1097065048557
 21
86.53403566006841
 31
0.0
  0
LINE
  5
3F71
330
1A
100
AcDbEntity
  8
SEIHIN
100
AcDbLine
 10
205.1909885048558
 20
99.83204966006838
 30
0.0
 11
204.7691925048557
 21
86.33133966006841
 31
0.0
  0
LINE
  5
3F72
330
1A
100
AcDbEntity
  8
SEIHIN
100
AcDbLine
 10
207.1900125048558
 20
99.76959466006838
 30
0.0
 11
206.7682165048557
 21
86.26888466006841
 31
0.0
  0
ARC
  5
3F73
330
1A
100
AcDbEntity
  8
SEIHIN
100
AcDbCircle
 10
204.2694365048558
 20
86.34695266006838
 30
0.0
 40
2.500000216739581
100
AcDbArc
 50
264.5000418284002
 51
358.2104961264325
  0
ARC
  5
3F74
330
1A
100
AcDbEntity
  8
SEIHIN
100
AcDbCircle
 10
204.2694365048558
 20
86.34695266006838
 30
0.0
 40
0.5000000368764973
100
AcDbArc
 50
264.5000418284109
 51
358.210473256162
  0
LINE
  5
3F75
330
1A
100
AcDbEntity
  8
SEIHIN
100
AcDbLine
 10
186.2915755048557
 20
103.0685836600684
 30
0.0
 11
199.4920595048557
 21
104.9387496600684
 31
0.0
  0
LINE
  5
3F76
330
1A
100
AcDbEntity
  8
SEIHIN
100
AcDbLine
 10
199.2115135048557
 20
106.9189756600684
 30
0.0
 11
186.0110285048556
 21
105.0488086600684
 31
0.0
  0
LINE
  5
3F77
330
1A
100
AcDbEntity
  8
SEIHIN
100
AcDbLine
 10
189.6855055048557
 20
113.7368626600684
 30
0.0
 11
206.7335365048557
 21
120.4078306600684
 31
0.0
  0
LINE
  5
3F78
330
1A
100
AcDbEntity
  8
SEIHIN
100
AcDbLine
 10
207.8267345048557
 20
117.6141026600684
 30
0.0
 11
190.4454375048556
 21
110.8127246600684
 31
0.0
  0
LINE
  5
3F79
330
1A
100
AcDbEntity
  8
SEIHIN
100
AcDbLine
 10
189.0522295048556
 20
116.1736426600684
 30
0.0
 11
205.8216085048557
 21
122.7355736600684
 31
0.0
  0
ARC
  5
3F7A
330
1A
100
AcDbEntity
  8
SEIHIN
100
AcDbCircle
 10
186.5721215048557
 20
101.0883576600684
 30
0.0
 40
2.000000049508499
100
AcDbArc
 50
98.06364279830783
 51
160.5884852657151
  0
ARC
  5
3F7B
330
1A
100
AcDbEntity
  8
SEIHIN
100
AcDbCircle
 10
208.5555335048557
 20
115.7516166600684
 30
0.0
 40
4.99999997902705
100
AcDbArc
 50
21.48495554775323
 51
111.3706045541262
  0
LINE
  5
3F7C
330
1A
100
AcDbEntity
  8
SEIHIN
100
AcDbLine
 10
214.8859985048557
 20
118.7806776600684
 30
0.0
 11
215.5275855048558
 21
117.1506636600684
 31
0.0
  0
LINE
  5
3F7D
330
1A
100
AcDbEntity
  8
SEIHIN
100
AcDbLine
 10
210.2236585048556
 20
115.0629946600684
 30
0.0
 11
215.5275855048558
 21
117.1506636600684
 31
0.0
  0
LINE
  5
3F7E
330
1A
100
AcDbEntity
  8
SEIHIN
100
AcDbLine
 10
210.4165605048556
 20
116.4841316600684
 30
0.0
 11
210.8750175048558
 21
115.3193756600684
 31
0.0
  0
ARC
  5
3F7F
330
1A
100
AcDbEntity
  8
SEIHIN
100
AcDbCircle
 10
208.5555335048557
 20
115.7516166600684
 30
0.0
 40
1.999999993008125
100
AcDbArc
 50
21.48502984726249
 51
111.3706387466693
  0
LINE
  5
3F80
330
1A
100
AcDbEntity
  8
SEIHIN
100
AcDbLine
 10
213.2081015048557
 20
117.5829026600684
 30
0.0
 11
213.6665585048556
 21
116.4181486600684
 31
0.0
  0
LINE
  5
3F81
330
1A
100
AcDbEntity
  8
SEIHIN
100
AcDbLine
 10
83.99898850485579
 20
209.2626736600684
 30
0.0
 11
85.73103950485574
 21
208.2626736600684
 31
0.0
  0
LINE
  5
3F82
330
1A
100
AcDbEntity
  8
SEIHIN
100
AcDbLine
 10
82.99898850485579
 20
210.5967176600684
 30
0.0
 11
89.47279150485565
 21
210.5967176600684
 31
0.0
  0
LINE
  5
3F83
330
1A
100
AcDbEntity
  8
SEIHIN
100
AcDbLine
 10
83.99898850485579
 20
207.2626736600684
 30
0.0
 11
85.73103950485574
 21
208.2626736600684
 31
0.0
  0
LINE
  5
3F84
330
1A
100
AcDbEntity
  8
SEIHIN
100
AcDbLine
 10
82.99898850485579
 20
194.0967176600684
 30
0.0
 11
89.47279150485565
 21
194.0967176600684
 31
0.0
  0
LINE
  5
3F85
330
1A
100
AcDbEntity
  8
SEIHIN
100
AcDbLine
 10
83.99898850485579
 20
197.4307616600684
 30
0.0
 11
85.73103950485574
 21
196.4307616600684
 31
0.0
  0
LINE
  5
3F86
330
1A
100
AcDbEntity
  8
SEIHIN
100
AcDbLine
 10
83.99898850485579
 20
195.4307616600684
 30
0.0
 11
85.73103950485574
 21
196.4307616600684
 31
0.0
  0
DIMENSION
  5
3F87
330
1A
100
AcDbEntity
  8
SUNPOU
100
AcDbDimension
  2
*D7
 10
54.68518951873625
 20
194.0967176600684
 30
0.0
 11
52.18518951873622
 21
202.3467176600684
 31
0.0
 70
    32
 71
     5
 42
16.5
  3
STANDARD
100
AcDbAlignedDimension
 13
82.99898850485579
 23
210.5967176600684
 33
0.0
 14
82.99898850485579
 24
194.0967176600684
 34
0.0
 50
90.0
100
AcDbRotatedDimension
1001
ACAD
1000
DSTYLE
1002
{
1070
   140
1040
3.0
1070
    74
1070
     0
1070
   172
1070
     1
1070
    73
1070
     0
1070
   272
1070
     0
1070
    77
1070
     3
1070
   173
1070
     1
1070
   147
1040
1.0
1070
    42
1040
3.0
1070
    44
1040
1.5
1070
    43
1040
7.0
1070
   271
1070
     0
1070
   178
1070
   256
1070
   177
1070
   256
1070
   176
1070
   256
1070
   141
1040
3.0
1070
     7
1000
OPEN
1070
     6
1000
OPEN
1070
    41
1040
3.0
1002
}
  0
LINE
  5
3F88
330
1A
100
AcDbEntity
  8
SEIHIN
100
AcDbLine
 10
83.99898850485579
 20
194.0967176600684
 30
0.0
 11
83.99898850485579
 21
210.5967176600684
 31
0.0
  0
LINE
  5
3F89
330
1A
100
AcDbEntity
  8
SEIHIN
100
AcDbLine
 10
82.99898850485579
 20
194.0967176600684
 30
0.0
 11
82.99898850485579
 21
210.5967176600684
 31
0.0
  0
LINE
  5
3F8A
330
1A
100
AcDbEntity
  8
SEIHIN
100
AcDbLine
 10
214.4109695048558
 20
212.8260176600684
 30
0.0
 11
214.4109695048558
 21
224.9987836600684
 31
0.0
  0
LINE
  5
3F8B
330
1A
100
AcDbEntity
  8
SEIHIN
100
AcDbLine
 10
125.1403665048556
 20
193.8467466600684
 30
0.0
 11
175.8050375048556
 21
193.8469276600684
 31
0.0
  0
LINE
  5
3F8C
330
1A
100
AcDbEntity
  8
SEIHIN
100
AcDbLine
 10
125.1403705048558
 20
211.8466896600684
 30
0.0
 11
175.8050375048556
 21
211.8466896600684
 31
0.0
  0
LINE
  5
3F8D
330
1A
100
AcDbEntity
  8
SEIHIN
100
AcDbLine
 10
125.1403705048558
 20
210.8466896600684
 30
0.0
 11
175.8050375048556
 21
210.8466896600684
 31
0.0
  0
LINE
  5
3F8E
330
1A
100
AcDbEntity
  8
SEIHIN
100
AcDbLine
 10
125.1403705048558
 20
192.8467466600684
 30
0.0
 11
175.8050375048556
 21
192.8469276600684
 31
0.0
  0
LINE
  5
3F8F
330
1A
100
AcDbEntity
  8
SEIHIN
100
AcDbLine
 10
102.1403545048556
 20
207.4467176600684
 30
0.0
 11
125.1403545048556
 21
207.4467176600684
 31
0.0
  0
LINE
  5
3F90
330
1A
100
AcDbEntity
  8
SEIHIN
100
AcDbLine
 10
102.1403565048556
 20
207.9467176600684
 30
0.0
 11
125.1403565048556
 21
207.9467176600684
 31
0.0
  0
LINE
  5
3F91
330
1A
100
AcDbEntity
  8
SEIHIN
100
AcDbLine
 10
108.8819635048558
 20
207.3467176600684
 30
0.0
 11
125.6191675048558
 21
207.3467176600684
 31
0.0
  0
LINE
  5
3F92
330
1A
100
AcDbEntity
  8
SEIHIN
100
AcDbLine
 10
102.1403725048558
 20
212.4467176600684
 30
0.0
 11
125.1403725048558
 21
212.4467176600684
 31
0.0
  0
LINE
  5
3F93
330
1A
100
AcDbEntity
  8
SEIHIN
100
AcDbLine
 10
102.1403565048556
 20
196.7467176600684
 30
0.0
 11
125.1403565048556
 21
196.7467176600684
 31
0.0
  0
LINE
  5
3F94
330
1A
100
AcDbEntity
  8
SEIHIN
100
AcDbLine
 10
102.1403725048558
 20
192.2467176600684
 30
0.0
 11
125.1403725048558
 21
192.2467176600684
 31
0.0
  0
LINE
  5
3F95
330
1A
100
AcDbEntity
  8
SEIHIN
100
AcDbLine
 10
108.8819635048558
 20
197.3467176600684
 30
0.0
 11
125.6191675048558
 21
197.3467176600684
 31
0.0
  0
LINE
  5
3F96
330
1A
100
AcDbEntity
  8
SEIHIN
100
AcDbLine
 10
102.1403545048556
 20
197.2467176600684
 30
0.0
 11
125.1403545048556
 21
197.2467176600684
 31
0.0
  0
ARC
  5
3F97
330
1A
100
AcDbEntity
  8
SEIHIN
100
AcDbCircle
 10
93.77041250485559
 20
194.8467176600684
 30
0.0
 40
0.9999999458312471
100
AcDbArc
 50
211.5881713514856
 51
269.999999999987
  0
LINE
  5
3F98
330
1A
100
AcDbEntity
  8
SEIHIN
100
AcDbLine
 10
107.6403225048557
 20
196.7467176600684
 30
0.0
 11
107.6403225048557
 21
192.2467176600684
 31
0.0
  0
LINE
  5
3F99
330
1A
100
AcDbEntity
  8
SEIHIN
100
AcDbLine
 10
104.1403225048557
 20
196.7467176600684
 30
0.0
 11
104.1403225048557
 21
192.2467176600684
 31
0.0
  0
ARC
  5
3F9A
330
1A
100
AcDbEntity
  8
SEIHIN
100
AcDbCircle
 10
98.74653850485561
 20
195.8467176600684
 30
0.0
 40
5.999999821933536
100
AcDbArc
 50
196.6795699694838
 51
203.5781945536695
  0
LINE
  5
3F9B
330
1A
100
AcDbEntity
  8
SEIHIN
100
AcDbLine
 10
102.1403545048556
 20
197.2467176600684
 30
0.0
 11
102.1403725048558
 21
192.2467176600684
 31
0.0
  0
ARC
  5
3F9C
330
1A
100
AcDbEntity
  8
SEIHIN
100
AcDbCircle
 10
89.47279150485565
 20
195.0967176600684
 30
0.0
 40
0.9999999402282465
100
AcDbArc
 50
270.0000000234496
 51
321.7533469536269
  0
LINE
  5
3F9D
330
1A
100
AcDbEntity
  8
SEIHIN
100
AcDbLine
 10
94.1639635048557
 20
192.8467176600684
 30
0.0
 11
102.1403705048558
 21
192.8467466600684
 31
0.0
  0
LINE
  5
3F9E
330
1A
100
AcDbEntity
  8
SEIHIN
100
AcDbLine
 10
93.77041250485559
 20
193.8467176600684
 30
0.0
 11
102.1403665048556
 21
193.8467476600684
 31
0.0
  0
ARC
  5
3F9F
330
1A
100
AcDbEntity
  8
SEIHIN
100
AcDbCircle
 10
94.1639635048557
 20
193.8467176600684
 30
0.0
 40
0.999999936306246
100
AcDbArc
 50
203.5781816636463
 51
270.0
  0
LINE
  5
3FA0
330
1A
100
AcDbEntity
  8
SEIHIN
100
AcDbLine
 10
104.1403225048557
 20
193.8467176600684
 30
0.0
 11
107.6403225048557
 21
193.8467176600684
 31
0.0
  0
LINE
  5
3FA1
330
1A
100
AcDbEntity
  8
SEIHIN
100
AcDbLine
 10
104.1403225048557
 20
192.7467176600684
 30
0.0
 11
107.6403225048557
 21
192.7467176600684
 31
0.0
  0
LINE
  5
3FA2
330
1A
100
AcDbEntity
  8
SEIHIN
100
AcDbLine
 10
93.77041250485559
 20
210.8467176600684
 30
0.0
 11
102.1403665048556
 21
210.8467176600684
 31
0.0
  0
LINE
  5
3FA3
330
1A
100
AcDbEntity
  8
SEIHIN
100
AcDbLine
 10
94.17623550485564
 20
211.8467176600684
 30
0.0
 11
102.1403705048558
 21
211.8466896600684
 31
0.0
  0
ARC
  5
3FA4
330
1A
100
AcDbEntity
  8
SEIHIN
100
AcDbCircle
 10
101.4989885048558
 20
204.5967176600684
 30
0.0
 40
1.25
100
AcDbArc
 50
36.86989764584362
 51
143.1301023541564
  0
ARC
  5
3FA5
330
1A
100
AcDbEntity
  8
SEIHIN
100
AcDbCircle
 10
101.4989885048558
 20
200.0967176600684
 30
0.0
 40
1.25
100
AcDbArc
 50
216.8698976458436
 51
323.1301023541561
  0
ARC
  5
3FA6
330
1A
100
AcDbEntity
  8
SEIHIN
100
AcDbCircle
 10
98.99898850485579
 20
204.5967176600684
 30
0.0
 40
1.25
100
AcDbArc
 50
36.86989764584362
 51
143.1301023541564
  0
LINE
  5
3FA7
330
1A
100
AcDbEntity
  8
SEIHIN
100
AcDbLine
 10
95.1582415048556
 20
209.0036986600684
 30
0.0
 11
95.1582415048556
 21
196.1577216600684
 31
0.0
  0
LINE
  5
3FA8
330
1A
100
AcDbEntity
  8
SEIHIN
100
AcDbLine
 10
92.93789750485576
 20
195.8467176600684
 30
0.0
 11
92.93789750485576
 21
209.0784366600684
 31
0.0
  0
ARC
  5
3FA9
330
1A
100
AcDbEntity
  8
SEIHIN
100
AcDbCircle
 10
91.53434450485565
 20
193.4717176600684
 30
0.0
 40
1.624999817959518
100
AcDbArc
 50
31.58817135149911
 51
141.7534063919598
  0
LINE
  5
3FAA
330
1A
100
AcDbEntity
  8
SEIHIN
100
AcDbLine
 10
99.99898850485579
 20
199.3467176600684
 30
0.0
 11
99.99898850485579
 21
205.3467176600684
 31
0.0
  0
LINE
  5
3FAB
330
1A
100
AcDbEntity
  8
SEIHIN
100
AcDbLine
 10
97.99898850485579
 20
199.3467176600684
 30
0.0
 11
97.99898850485579
 21
205.3467176600684
 31
0.0
  0
LINE
  5
3FAC
330
1A
100
AcDbEntity
  8
SEIHIN
100
AcDbLine
 10
100.4989885048558
 20
199.3467176600684
 30
0.0
 11
100.4989885048558
 21
205.3467176600684
 31
0.0
  0
LINE
  5
3FAD
330
1A
100
AcDbEntity
  8
SEIHIN
100
AcDbLine
 10
92.99898850485579
 20
194.0967176600684
 30
0.0
 11
93.00741850485565
 21
194.0967176600684
 31
0.0
  0
ARC
  5
3FAE
330
1A
100
AcDbEntity
  8
SEIHIN
100
AcDbCircle
 10
92.04106350485563
 20
193.8375876600684
 30
0.0
 40
1.000000052812247
100
AcDbArc
 50
16.67956996948384
 51
35.83063548330045
  0
ARC
  5
3FAF
330
1A
100
AcDbEntity
  8
SEIHIN
100
AcDbCircle
 10
98.99898850485579
 20
200.0967176600684
 30
0.0
 40
1.25
100
AcDbArc
 50
216.8698976458436
 51
323.1301023541561
  0
ARC
  5
3FB0
330
1A
100
AcDbEntity
  8
SEIHIN
100
AcDbCircle
 10
91.53434450485565
 20
211.2217176600684
 30
0.0
 40
1.624999817959518
100
AcDbArc
 50
218.2466530698185
 51
328.4118881102794
  0
ARC
  5
3FB1
330
1A
100
AcDbEntity
  8
SEIHIN
100
AcDbCircle
 10
89.47279150485565
 20
209.5967176600684
 30
0.0
 40
1.000000332904889
100
AcDbArc
 50
38.24661760099893
 51
90.0
  0
ARC
  5
3FB2
330
1A
100
AcDbEntity
  8
SEIHIN
100
AcDbCircle
 10
94.17623550485564
 20
210.8467176600684
 30
0.0
 40
1.000000256451184
100
AcDbArc
 50
90.0
 51
156.0726603748118
  0
ARC
  5
3FB3
330
1A
100
AcDbEntity
  8
SEIHIN
100
AcDbCircle
 10
92.04106350485563
 20
210.8558486600684
 30
0.0
 40
1.000000052812247
100
AcDbArc
 50
324.1693788329692
 51
343.3204443467876
  0
ARC
  5
3FB4
330
1A
100
AcDbEntity
  8
SEIHIN
100
AcDbCircle
 10
93.77041250485559
 20
209.8467176600684
 30
0.0
 40
0.9999999458312471
100
AcDbArc
 50
90.0
 51
148.4118286484971
  0
LINE
  5
3FB5
330
1A
100
AcDbEntity
  8
SEIHIN
100
AcDbLine
 10
92.99898850485579
 20
210.5967176600684
 30
0.0
 11
93.01599650485559
 21
210.5967176600684
 31
0.0
  0
ARC
  5
3FB6
330
1A
100
AcDbEntity
  8
SEIHIN
100
AcDbCircle
 10
98.74653850485561
 20
208.8188296600684
 30
0.0
 40
5.999999971785416
100
AcDbArc
 50
156.0726603748118
 51
163.3204385656306
  0
ARC
  5
3FB7
330
1A
100
AcDbEntity
  8
SEIHIN
100
AcDbCircle
 10
103.9989885048558
 20
204.5967176600684
 30
0.0
 40
1.249999816264373
100
AcDbArc
 50
71.75583951464351
 51
143.1301095532587
  0
LINE
  5
3FB8
330
1A
100
AcDbEntity
  8
SEIHIN
100
AcDbLine
 10
107.8819635048558
 20
206.3467176600684
 30
0.0
 11
107.8819635048558
 21
198.3467176600684
 31
0.0
  0
LINE
  5
3FB9
330
1A
100
AcDbEntity
  8
SEIHIN
100
AcDbLine
 10
104.3903225048557
 20
207.4467176600684
 30
0.0
 11
104.3903225048557
 21
197.2467176600684
 31
0.0
  0
LINE
  5
3FBA
330
1A
100
AcDbEntity
  8
SEIHIN
100
AcDbLine
 10
107.3903225048557
 20
207.4467176600684
 30
0.0
 11
107.3903225048557
 21
197.2467176600684
 31
0.0
  0
LINE
  5
3FBB
330
1A
100
AcDbEntity
  8
SEIHIN
100
AcDbLine
 10
102.9989885048558
 20
199.3467176600684
 30
0.0
 11
102.9989885048558
 21
205.3467176600684
 31
0.0
  0
LINE
  5
3FBC
330
1A
100
AcDbEntity
  8
SEIHIN
100
AcDbLine
 10
102.4989885048558
 20
199.3467176600684
 30
0.0
 11
102.4989885048558
 21
205.3467176600684
 31
0.0
  0
LINE
  5
3FBD
330
1A
100
AcDbEntity
  8
SEIHIN
100
AcDbLine
 10
107.3903225048557
 20
194.8467176600684
 30
0.0
 11
104.3903225048557
 21
194.8467176600684
 31
0.0
  0
LINE
  5
3FBE
330
1A
100
AcDbEntity
  8
SEIHIN
100
AcDbLine
 10
104.3903225048557
 20
194.8467176600684
 30
0.0
 11
104.3903225048557
 21
196.7467176600684
 31
0.0
  0
ARC
  5
3FBF
330
1A
100
AcDbEntity
  8
SEIHIN
100
AcDbCircle
 10
103.9989885048558
 20
200.0967176600684
 30
0.0
 40
1.249999816264373
100
AcDbArc
 50
216.8698976458436
 51
288.2441676844565
  0
LINE
  5
3FC0
330
1A
100
AcDbEntity
  8
SEIHIN
100
AcDbLine
 10
107.8819635048558
 20
198.3467176600684
 30
0.0
 11
108.8819635048558
 21
198.3467176600684
 31
0.0
  0
LINE
  5
3FC1
330
1A
100
AcDbEntity
  8
SEIHIN
100
AcDbLine
 10
108.8819635048558
 20
198.3467176600684
 30
0.0
 11
108.8819635048558
 21
197.3467176600684
 31
0.0
  0
LINE
  5
3FC2
330
1A
100
AcDbEntity
  8
SEIHIN
100
AcDbLine
 10
107.3903225048557
 20
194.8467176600684
 30
0.0
 11
107.3903225048557
 21
196.7467176600684
 31
0.0
  0
LINE
  5
3FC3
330
1A
100
AcDbEntity
  8
SEIHIN
100
AcDbLine
 10
111.1404425048556
 20
196.2467176600684
 30
0.0
 11
116.1404425048556
 21
196.2467176600684
 31
0.0
  0
LINE
  5
3FC4
330
1A
100
AcDbEntity
  8
SEIHIN
100
AcDbLine
 10
111.1404425048556
 20
196.2467176600684
 30
0.0
 11
111.1404425048556
 21
196.7467176600684
 31
0.0
  0
LINE
  5
3FC5
330
1A
100
AcDbEntity
  8
SEIHIN
100
AcDbLine
 10
116.1404425048556
 20
196.2467176600684
 30
0.0
 11
116.1404425048556
 21
196.7467176600684
 31
0.0
  0
LINE
  5
3FC6
330
1A
100
AcDbEntity
  8
SEIHIN
100
AcDbLine
 10
102.1403545048556
 20
207.4467176600684
 30
0.0
 11
102.1403725048558
 21
212.4467176600684
 31
0.0
  0
LINE
  5
3FC7
330
1A
100
AcDbEntity
  8
SEIHIN
100
AcDbLine
 10
107.6403225048557
 20
207.9467176600684
 30
0.0
 11
107.6403225048557
 21
212.4467176600684
 31
0.0
  0
LINE
  5
3FC8
330
1A
100
AcDbEntity
  8
SEIHIN
100
AcDbLine
 10
104.1403225048557
 20
207.9467176600684
 30
0.0
 11
104.1403225048557
 21
212.4467176600684
 31
0.0
  0
LINE
  5
3FC9
330
1A
100
AcDbEntity
  8
SEIHIN
100
AcDbLine
 10
107.3903225048557
 20
209.8467176600684
 30
0.0
 11
104.3903225048557
 21
209.8467176600684
 31
0.0
  0
LINE
  5
3FCA
330
1A
100
AcDbEntity
  8
SEIHIN
100
AcDbLine
 10
104.1403225048557
 20
210.8467176600684
 30
0.0
 11
107.6403225048557
 21
210.8467176600684
 31
0.0
  0
LINE
  5
3FCB
330
1A
100
AcDbEntity
  8
SEIHIN
100
AcDbLine
 10
104.3903225048557
 20
209.8467176600684
 30
0.0
 11
104.3903225048557
 21
207.9467176600684
 31
0.0
  0
LINE
  5
3FCC
330
1A
100
AcDbEntity
  8
SEIHIN
100
AcDbLine
 10
107.3903225048557
 20
209.8467176600684
 30
0.0
 11
107.3903225048557
 21
207.9467176600684
 31
0.0
  0
LINE
  5
3FCD
330
1A
100
AcDbEntity
  8
SEIHIN
100
AcDbLine
 10
107.8819635048558
 20
206.3467176600684
 30
0.0
 11
108.8819635048558
 21
206.3467176600684
 31
0.0
  0
LINE
  5
3FCE
330
1A
100
AcDbEntity
  8
SEIHIN
100
AcDbLine
 10
108.8819635048558
 20
206.3467176600684
 30
0.0
 11
108.8819635048558
 21
207.3467176600684
 31
0.0
  0
LINE
  5
3FCF
330
1A
100
AcDbEntity
  8
SEIHIN
100
AcDbLine
 10
104.1403225048557
 20
211.9467176600684
 30
0.0
 11
107.6403225048557
 21
211.9467176600684
 31
0.0
  0
LINE
  5
3FD0
330
1A
100
AcDbEntity
  8
SEIHIN
100
AcDbLine
 10
111.1404425048556
 20
208.4467176600684
 30
0.0
 11
116.1404425048556
 21
208.4467176600684
 31
0.0
  0
LINE
  5
3FD1
330
1A
100
AcDbEntity
  8
SEIHIN
100
AcDbLine
 10
111.1404425048556
 20
208.4467176600684
 30
0.0
 11
111.1404425048556
 21
207.9467176600684
 31
0.0
  0
LINE
  5
3FD2
330
1A
100
AcDbEntity
  8
SEIHIN
100
AcDbLine
 10
116.1404425048556
 20
208.4467176600684
 30
0.0
 11
116.1404425048556
 21
207.9467176600684
 31
0.0
  0
LINE
  5
3FD3
330
1A
100
AcDbEntity
  8
SEIHIN
100
AcDbLine
 10
125.1403545048556
 20
197.2467176600684
 30
0.0
 11
125.1403725048558
 21
192.2467176600684
 31
0.0
  0
ARC
  5
3FD4
330
1A
100
AcDbEntity
  8
SEIHIN
100
AcDbCircle
 10
133.6638835048557
 20
208.6325586600684
 30
0.0
 40
1.999999816165233
100
AcDbArc
 50
64.59225989560119
 51
115.4076875089021
  0
ARC
  5
3FD5
330
1A
100
AcDbEntity
  8
SEIHIN
100
AcDbCircle
 10
133.6638835048557
 20
196.0608766600684
 30
0.0
 40
1.999999816165233
100
AcDbArc
 50
244.5922844787526
 51
295.4077120920526
  0
LINE
  5
3FD6
330
1A
100
AcDbEntity
  8
SEIHIN
100
AcDbLine
 10
124.2229655048557
 20
197.3467176600684
 30
0.0
 11
124.2229655048557
 21
207.3467176600684
 31
0.0
  0
LINE
  5
3FD7
330
1A
100
AcDbEntity
  8
SEIHIN
100
AcDbLine
 10
131.5586875048557
 20
194.8466856600684
 30
0.0
 11
125.1403625048556
 21
194.8466626600684
 31
0.0
  0
LINE
  5
3FD8
330
1A
100
AcDbEntity
  8
SEIHIN
100
AcDbLine
 10
126.9063375048556
 20
197.0565506600684
 30
0.0
 11
132.8057705048557
 21
194.2543216600684
 31
0.0
  0
ARC
  5
3FD9
330
1A
100
AcDbEntity
  8
SEIHIN
100
AcDbCircle
 10
125.6191675048558
 20
194.3467176600684
 30
0.0
 40
3.000000124732412
100
AcDbArc
 50
64.59228447875078
 51
89.99999094305167
  0
LINE
  5
3FDA
330
1A
100
AcDbEntity
  8
SEIHIN
100
AcDbLine
 10
131.5585515048556
 20
209.8466856600684
 30
0.0
 11
125.1403625048556
 21
209.8467086600684
 31
0.0
  0
LINE
  5
3FDB
330
1A
100
AcDbEntity
  8
SEIHIN
100
AcDbLine
 10
125.1403545048556
 20
207.4467176600684
 30
0.0
 11
125.1403725048558
 21
212.4467176600684
 31
0.0
  0
LINE
  5
3FDC
330
1A
100
AcDbEntity
  8
SEIHIN
100
AcDbLine
 10
126.9063375048556
 20
207.6368856600684
 30
0.0
 11
132.8057705048557
 21
210.4391146600684
 31
0.0
  0
ARC
  5
3FDD
330
1A
100
AcDbEntity
  8
SEIHIN
100
AcDbCircle
 10
125.6191675048558
 20
210.3467176600684
 30
0.0
 40
3.000000124732412
100
AcDbArc
 50
270.0
 51
295.4077064643031
  0
ARC
  5
3FDE
330
1A
100
AcDbEntity
  8
SEIHIN
100
AcDbCircle
 10
135.6943825048556
 20
203.8467176600684
 30
0.0
 40
1.5
100
AcDbArc
 50
90.0
 51
180.0
  0
LINE
  5
3FDF
330
1A
100
AcDbEntity
  8
SEIHIN
100
AcDbLine
 10
139.0098595048557
 20
205.3467176600684
 30
0.0
 11
139.0098595048557
 21
208.3073786600684
 31
0.0
  0
LINE
  5
3FE0
330
1A
100
AcDbEntity
  8
SEIHIN
100
AcDbLine
 10
145.2434825048556
 20
196.3860566600684
 30
0.0
 11
145.2434825048556
 21
208.3073786600684
 31
0.0
  0
LINE
  5
3FE1
330
1A
100
AcDbEntity
  8
SEIHIN
100
AcDbLine
 10
146.1864735048557
 20
196.3467176600684
 30
0.0
 11
146.1864735048557
 21
208.3467176600684
 31
0.0
  0
LINE
  5
3FE2
330
1A
100
AcDbEntity
  8
SEIHIN
100
AcDbLine
 10
135.6943825048556
 20
205.3467176600684
 30
0.0
 11
142.6569055048558
 21
205.3467176600684
 31
0.0
  0
LINE
  5
3FE3
330
1A
100
AcDbEntity
  8
SEIHIN
100
AcDbLine
 10
135.6943825048556
 20
199.3467176600684
 30
0.0
 11
142.6569055048558
 21
199.3467176600684
 31
0.0
  0
LINE
  5
3FE4
330
1A
100
AcDbEntity
  8
SEIHIN
100
AcDbLine
 10
138.9270375048557
 20
196.3467176600684
 30
0.0
 11
146.1864735048557
 21
196.3467176600684
 31
0.0
  0
ARC
  5
3FE5
330
1A
100
AcDbEntity
  8
SEIHIN
100
AcDbCircle
 10
135.6943825048556
 20
200.8467176600684
 30
0.0
 40
1.5
100
AcDbArc
 50
180.0
 51
270.0
  0
LINE
  5
3FE6
330
1A
100
AcDbEntity
  8
SEIHIN
100
AcDbLine
 10
134.5219975048558
 20
194.2543226600684
 30
0.0
 11
138.9270375048557
 21
196.3467176600684
 31
0.0
  0
LINE
  5
3FE7
330
1A
100
AcDbEntity
  8
SEIHIN
100
AcDbLine
 10
139.0098565048556
 20
196.3860566600684
 30
0.0
 11
139.0098575048557
 21
199.3467176600684
 31
0.0
  0
LINE
  5
3FE8
330
1A
100
AcDbEntity
  8
SEIHIN
100
AcDbLine
 10
134.1943825048556
 20
200.8467176600684
 30
0.0
 11
134.1943825048556
 21
203.8467176600684
 31
0.0
  0
LINE
  5
3FE9
330
1A
100
AcDbEntity
  8
SEIHIN
100
AcDbLine
 10
142.0189995048556
 20
199.3467176600684
 30
0.0
 11
142.0189995048556
 21
205.3467176600684
 31
0.0
  0
LINE
  5
3FEA
330
1A
100
AcDbEntity
  8
SEIHIN
100
AcDbLine
 10
142.6569055048558
 20
199.3467176600684
 30
0.0
 11
142.6569055048558
 21
205.3467176600684
 31
0.0
  0
LINE
  5
3FEB
330
1A
100
AcDbEntity
  8
SEIHIN
100
AcDbLine
 10
138.9270405048558
 20
208.3467176600684
 30
0.0
 11
146.1864735048557
 21
208.3467176600684
 31
0.0
  0
LINE
  5
3FEC
330
1A
100
AcDbEntity
  8
SEIHIN
100
AcDbLine
 10
134.5219975048558
 20
210.4391136600684
 30
0.0
 11
138.9270405048558
 21
208.3467176600684
 31
0.0
  0
LINE
  5
3FED
330
1A
100
AcDbEntity
  8
SEIHIN
100
AcDbLine
 10
175.8050375048556
 20
194.8468086600684
 30
0.0
 11
175.8050375048556
 21
192.8469276600684
 31
0.0
  0
LINE
  5
3FEE
330
1A
100
AcDbEntity
  8
SEIHIN
100
AcDbLine
 10
175.8050375048556
 20
211.8466896600684
 30
0.0
 11
175.8050375048556
 21
209.8468086600684
 31
0.0
  0
ARC
  5
3FEF
330
1A
100
AcDbEntity
  8
SEIHIN
100
AcDbCircle
 10
211.6236605048557
 20
194.2967206600684
 30
0.0
 40
1.399999956435713
100
AcDbArc
 50
179.9999974854032
 51
261.0257794118542
  0
LINE
  5
3FF0
330
1A
100
AcDbEntity
  8
SEIHIN
100
AcDbLine
 10
211.5924625048558
 20
194.0991696600684
 30
0.0
 11
214.1761515048556
 21
193.5470106600684
 31
0.0
  0
LINE
  5
3FF1
330
1A
100
AcDbEntity
  8
SEIHIN
100
AcDbLine
 10
214.4109695048558
 20
191.8678206600684
 30
0.0
 11
214.4109695048558
 21
179.6950566600684
 31
0.0
  0
LINE
  5
3FF2
330
1A
100
AcDbEntity
  8
SEIHIN
100
AcDbLine
 10
211.4052745048557
 20
192.9138586600684
 30
0.0
 11
213.9889645048556
 21
192.3616996600684
 31
0.0
  0
ARC
  5
3FF3
330
1A
100
AcDbEntity
  8
SEIHIN
100
AcDbCircle
 10
213.9109695048558
 20
191.8678206600684
 30
0.0
 40
0.4999998433329509
100
AcDbArc
 50
0.0000000000781653
 51
81.0257768193338
  0
LINE
  5
3FF4
330
1A
100
AcDbEntity
  8
SEIHIN
100
AcDbLine
 10
189.0525395048558
 20
206.5458626600684
 30
0.0
 11
189.0525395048558
 21
197.9815036600684
 31
0.0
  0
LINE
  5
3FF5
330
1A
100
AcDbEntity
  8
SEIHIN
100
AcDbLine
 10
190.5563385048556
 20
195.2611926600684
 30
0.0
 11
190.5563385048556
 21
196.9105416600684
 31
0.0
  0
LINE
  5
3FF6
330
1A
100
AcDbEntity
  8
SEIHIN
100
AcDbLine
 10
190.5563385048556
 20
209.4326476600684
 30
0.0
 11
190.5563385048556
 21
207.7832986600684
 31
0.0
  0
LINE
  5
3FF7
330
1A
100
AcDbEntity
  8
SEIHIN
100
AcDbLine
 10
210.2236605048556
 20
194.2967206600684
 30
0.0
 11
210.2236585048556
 21
194.8469046600684
 31
0.0
  0
LINE
  5
3FF8
330
1A
100
AcDbEntity
  8
SEIHIN
100
AcDbLine
 10
211.5924625048558
 20
194.0991696600684
 30
0.0
 11
211.5924595048557
 21
194.8469086600684
 31
0.0
  0
ARC
  5
3FF9
330
1A
100
AcDbEntity
  8
SEIHIN
100
AcDbCircle
 10
211.6236605048557
 20
210.3971176600684
 30
0.0
 40
1.399999956435713
100
AcDbArc
 50
98.97421424316363
 51
179.9999961696148
  0
LINE
  5
3FFA
330
1A
100
AcDbEntity
  8
SEIHIN
100
AcDbLine
 10
210.2236605048556
 20
210.3971176600684
 30
0.0
 11
210.2236615048557
 21
209.8469046600684
 31
0.0
  0
LINE
  5
3FFB
330
1A
100
AcDbEntity
  8
SEIHIN
100
AcDbLine
 10
211.5932485048556
 20
210.5883946600684
 30
0.0
 11
211.5932505048556
 21
209.8469086600684
 31
0.0
  0
LINE
  5
3FFC
330
1A
100
AcDbEntity
  8
SEIHIN
100
AcDbLine
 10
214.1694665048558
 20
211.1251496600684
 30
0.0
 11
211.5932485048556
 21
210.5883946600684
 31
0.0
  0
LINE
  5
3FFD
330
1A
100
AcDbEntity
  8
SEIHIN
100
AcDbLine
 10
211.4052745048557
 20
211.7799796600684
 30
0.0
 11
213.9889645048556
 21
212.3321386600684
 31
0.0
  0
ARC
  5
3FFE
330
1A
100
AcDbEntity
  8
SEIHIN
100
AcDbCircle
 10
213.9109695048558
 20
212.8260176600684
 30
0.0
 40
0.4999998433329509
100
AcDbArc
 50
278.9742142431747
 51
359.999991062426
  0
DIMENSION
  5
3FFF
330
1A
100
AcDbEntity
  8
SUNPOU
100
AcDbDimension
  2
*D8
 10
287.7795181311327
 20
106.9012923524232
 30
0.0
 11
283.5131645463763
 21
124.5661790092867
 31
0.0
 70
    33
 71
     5
 42
35.99999963944426
  3
STANDARD
100
AcDbAlignedDimension
 13
293.2082178915453
 23
147.7263883142742
 33
0.0
 14
306.3934924905222
 24
114.2279031576352
 34
0.0
1001
ACAD
1000
DSTYLE
1002
{
1070
   140
1040
3.0
1070
    74
1070
     0
1070
   172
1070
     1
1070
    73
1070
     0
1070
   272
1070
     0
1070
    77
1070
     3
1070
   173
1070
     1
1070
   147
1040
1.0
1070
    42
1040
3.0
1070
    44
1040
1.5
1070
    43
1040
7.0
1070
   271
1070
     0
1070
   178
1070
   256
1070
   177
1070
   256
1070
   176
1070
   256
1070
   141
1040
3.0
1070
     7
1000
OPEN
1070
     6
1000
OPEN
1070
    41
1040
3.0
1002
}
  0
ARC
  5
4000
330
1A
100
AcDbEntity
  8
SEIHIN
100
AcDbCircle
 10
243.3724045048557
 20
116.2168746600684
 30
0.0
 40
6.999999974031143
100
AcDbArc
 50
21.4850298472634
 51
111.3706510243148
  0
LINE
  5
4001
330
1A
100
AcDbEntity
  8
CENTER L
100
AcDbLine
 10
310.1752180656239
 20
168.0342502178842
 30
0.0
 11
334.8211451518566
 21
105.4188517692358
 31
0.0
  0
LINE
  5
4002
330
1A
100
AcDbEntity
  8
SEIHIN
100
AcDbLine
 10
320.4229072227118
 20
128.3473972884201
 30
0.0
 11
323.3529682227119
 21
120.9032892884201
 31
0.0
  0
LINE
  5
4003
330
1A
100
AcDbEntity
  8
SEIHIN
100
AcDbLine
 10
315.5947642227119
 20
124.8349882884201
 30
0.0
 11
317.9754392227118
 21
118.7866512884201
 31
0.0
  0
LINE
  5
4004
330
1A
100
AcDbEntity
  8
SEIHIN
100
AcDbLine
 10
317.1572732227118
 20
125.4500042884201
 30
0.0
 11
319.5379472227118
 21
119.4016662884201
 31
0.0
  0
LINE
  5
4005
330
1A
100
AcDbEntity
  8
SEIHIN
100
AcDbLine
 10
350.0587052227119
 20
131.4148842884201
 30
0.0
 11
305.9523662227117
 21
114.0542722884201
 31
0.0
  0
LINE
  5
4006
330
1A
100
AcDbEntity
  8
SEIHIN
100
AcDbLine
 10
316.7825542227118
 20
129.4051162884201
 30
0.0
 11
320.5614272227118
 21
119.8045172884201
 31
0.0
  0
LINE
  5
4007
330
1A
100
AcDbEntity
  8
SEIHIN
100
AcDbLine
 10
291.6385792227119
 20
144.9592152884201
 30
0.0
 11
303.3588232227118
 21
115.1827832884201
 31
0.0
  0
LINE
  5
4008
330
1A
100
AcDbEntity
  8
SUNPOU
100
AcDbLine
 10
228.7128605048556
 20
83.65217766006839
 30
0.0
 11
239.0553231219899
 21
57.37613556003862
 31
0.0
  0
TEXT
  5
4009
330
1A
100
AcDbEntity
  8
SUNPOU
100
AcDbText
 10
235.7025937599965
 20
52.73849118569831
 30
0.0
 40
3.0
  1
4
100
AcDbText
  0
TEXT
  5
400A
330
1A
100
AcDbEntity
  8
SUNPOU
100
AcDbText
 10
228.9531122407061
 20
61.70194916990306
 30
0.0
 40
3.0
  1
10
100
AcDbText
  0
LINE
  5
400B
330
1A
100
AcDbEntity
  8
SUNPOU
100
AcDbLine
 10
234.1386891977747
 20
69.86732694893333
 30
0.0
 11
234.1386891977748
 21
57.37613556003862
 31
0.0
  0
LINE
  5
400C
330
1A
100
AcDbEntity
  8
SUNPOU
100
AcDbLine
 10
234.1386891977748
 20
57.37613556003862
 30
0.0
 11
239.05532312199
 21
57.37613556003862
 31
0.0
  0
LINE
  5
400D
330
1A
100
AcDbEntity
  8
SEIHIN
100
AcDbLine
 10
248.2081015048557
 20
117.5829026600684
 30
0.0
 11
248.6665585048556
 21
116.4181486600684
 31
0.0
  0
LINE
  5
400E
330
1A
100
AcDbEntity
  8
SEIHIN
100
AcDbLine
 10
245.2236585048556
 20
115.0629946600684
 30
0.0
 11
250.5275855048558
 21
117.1506636600684
 31
0.0
  0
LINE
  5
400F
330
1A
100
AcDbEntity
  8
SEIHIN
100
AcDbLine
 10
258.4089335048557
 20
81.56450966006838
 30
0.0
 11
245.2236585048556
 21
115.0629946600684
 31
0.0
  0
ARC
  5
4010
330
1A
100
AcDbEntity
  8
SEIHIN
100
AcDbCircle
 10
243.5555335048557
 20
115.7516166600684
 30
0.0
 40
4.99999997902705
100
AcDbArc
 50
21.48495554775323
 51
111.3706045541262
  0
LINE
  5
4011
330
1A
100
AcDbEntity
  8
CENTER L
100
AcDbLine
 10
242.585507964279
 20
108.113882723337
 30
0.0
 11
257.1945699243627
 21
113.8641276277396
 31
0.0
  0
LINE
  5
4012
330
1A
100
AcDbEntity
  8
CENTER L
100
AcDbLine
 10
245.6986977699604
 20
100.2045185267029
 30
0.0
 11
260.3077596495756
 21
105.9547633994325
 31
0.0
  0
LINE
  5
4013
330
1A
100
AcDbEntity
  8
CENTER L
100
AcDbLine
 10
216.7419490064956
 20
84.85104573995395
 30
0.0
 11
231.3510107299071
 21
90.60129055120045
 31
0.0
  0
LINE
  5
4014
330
1A
100
AcDbEntity
  8
SEIHIN
100
AcDbLine
 10
223.4089335048557
 20
81.56450966006838
 30
0.0
 11
228.7128605048556
 21
83.65217766006839
 31
0.0
  0
LINE
  5
4015
330
1A
100
AcDbEntity
  8
SEIHIN
100
AcDbLine
 10
224.6855055048557
 20
113.7368626600684
 30
0.0
 11
241.7335365048557
 21
120.4078306600684
 31
0.0
  0
LINE
  5
4016
330
1A
100
AcDbEntity
  8
SEIHIN
100
AcDbLine
 10
242.8267345048557
 20
117.6141026600684
 30
0.0
 11
225.4454375048556
 21
110.8127246600684
 31
0.0
  0
LINE
  5
4017
330
1A
100
AcDbEntity
  8
SEIHIN
100
AcDbLine
 10
224.0522295048556
 20
116.1736426600684
 30
0.0
 11
240.8216085048557
 21
122.7355736600684
 31
0.0
  0
ARC
  5
4018
330
1A
100
AcDbEntity
  8
SEIHIN
100
AcDbCircle
 10
243.5555335048557
 20
115.7516166600684
 30
0.0
 40
1.999999993008125
100
AcDbArc
 50
21.48502984726249
 51
111.3706387466693
  0
LINE
  5
4019
330
1A
100
AcDbEntity
  8
SEIHIN
100
AcDbLine
 10
245.4165605048556
 20
116.4841316600684
 30
0.0
 11
245.8750175048558
 21
115.3193756600684
 31
0.0
  0
ARC
  5
401A
330
1A
100
AcDbEntity
  8
SEIHIN
100
AcDbCircle
 10
257.1094095048557
 20
100.2241186600684
 30
0.0
 40
6.624999944286226
100
AcDbArc
 50
169.5941816919566
 51
233.3757628202731
  0
LINE
  5
401B
330
1A
100
AcDbEntity
  8
SEIHIN
100
AcDbLine
 10
248.6665585048556
 20
116.4181486600684
 30
0.0
 11
261.8518335048557
 21
82.91966266006841
 31
0.0
  0
LINE
  5
401C
330
1A
100
AcDbEntity
  8
SEIHIN
100
AcDbLine
 10
250.5275855048558
 20
117.1506636600684
 30
0.0
 11
263.7128605048556
 21
83.65217766006839
 31
0.0
  0
LINE
  5
401D
330
1A
100
AcDbEntity
  8
SEIHIN
100
AcDbLine
 10
249.4109695048558
 20
116.7111546600684
 30
0.0
 11
262.5962435048557
 21
83.2126686600684
 31
0.0
  0
LINE
  5
401E
330
1A
100
AcDbEntity
  8
CENTER L
100
AcDbLine
 10
251.7419490064956
 20
84.85104573995395
 30
0.0
 11
266.3510107299071
 21
90.60129055120045
 31
0.0
  0
LINE
  5
401F
330
1A
100
AcDbEntity
  8
SEIHIN
100
AcDbLine
 10
258.4089335048557
 20
81.56450966006838
 30
0.0
 11
263.7128605048556
 21
83.65217766006839
 31
0.0
  0
LINE
  5
4020
330
1A
100
AcDbEntity
  8
SEIHIN
100
AcDbLine
 10
249.8859985048557
 20
118.7806776600684
 30
0.0
 11
250.5275855048558
 21
117.1506636600684
 31
0.0
  0
DIMENSION
  5
4021
330
1A
100
AcDbEntity
  8
SUNPOU
100
AcDbDimension
  2
*D9
 10
295.4614519997603
 20
115.8356785795515
 30
0.0
 11
298.7949441952297
 21
114.1924105862725
 31
0.0
 70
    33
  1
6
 71
     5
 42
5.499999969087654
  3
STANDARD
100
AcDbAlignedDimension
 13
306.3934924905222
 23
114.2279031576352
 33
0.0
 14
304.3790755290474
 24
119.3457273012813
 34
0.0
1001
ACAD
1000
DSTYLE
1002
{
1070
   140
1040
3.0
1070
    74
1070
     0
1070
   172
1070
     1
1070
    73
1070
     0
1070
   272
1070
     0
1070
    77
1070
     3
1070
   173
1070
     1
1070
   147
1040
1.0
1070
    42
1040
3.0
1070
    44
1040
1.5
1070
    43
1040
7.0
1070
   271
1070
     0
1070
   178
1070
   256
1070
   177
1070
   256
1070
   176
1070
   256
1070
   141
1040
3.0
1070
     7
1000
OPEN
1070
     6
1000
OPEN
1070
    41
1040
3.0
1002
}
  0
LINE
  5
4022
330
1A
100
AcDbEntity
  8
CENTER L
100
AcDbLine
 10
304.3790755290473
 20
119.3457273012813
 30
0.0
 11
309.9621564444042
 21
121.5432730897869
 31
0.0
  0
ARC
  5
4023
330
1A
100
AcDbEntity
  8
SEIHIN
100
AcDbCircle
 10
305.2198502227119
 20
115.9152992884201
 30
0.0
 40
2.0
100
AcDbArc
 50
201.4850298472625
 51
291.4850298472646
  0
CIRCLE
  5
4024
330
1A
100
AcDbEntity
  8
SEIHIN
100
AcDbCircle
 10
307.1706162227118
 20
120.4445002884201
 30
0.0
 40
2.1
  0
LINE
  5
4025
330
1A
100
AcDbEntity
  8
CENTER L
100
AcDbLine
 10
306.071843092473
 20
123.2360406532125
 30
0.0
 11
308.2693888809785
 21
117.6529597378557
 31
0.0
  0
ARC
  5
4026
330
1A
100
AcDbEntity
  8
SEIHIN
100
AcDbCircle
 10
330.9952012227119
 20
110.3609812884201
 30
0.0
 40
1.0
100
AcDbArc
 50
201.4850298472643
 51
291.4850298472638
  0
LINE
  5
4027
330
1A
100
AcDbEntity
  8
SEIHIN
100
AcDbLine
 10
325.4466232227118
 20
121.7273692884201
 30
0.0
 11
330.0646872227118
 21
109.9947242884201
 31
0.0
  0
LINE
  5
4028
330
1A
100
AcDbEntity
  8
SEIHIN
100
AcDbLine
 10
330.5644472227119
 20
123.7417862884201
 30
0.0
 11
335.1825112227119
 21
112.0091412884201
 31
0.0
  0
LINE
  5
4029
330
1A
100
AcDbEntity
  8
SEIHIN
100
AcDbLine
 10
331.3614582227118
 20
109.4304682884201
 30
0.0
 11
334.6182562227119
 21
110.7123702884201
 31
0.0
  0
ARC
  5
402A
330
1A
100
AcDbEntity
  8
SEIHIN
100
AcDbCircle
 10
334.2519982227119
 20
111.6428832884201
 30
0.0
 40
1.0
100
AcDbArc
 50
291.4850298472638
 51
21.48502984726431
  0
LEADER
  5
402B
330
1A
100
AcDbEntity
  8
SUNPOU
100
AcDbLeader
  3
STANDARD
 76
     3
 10
340.5726451670567
 20
149.646004186481
 30
0.0
 10
355.9906325747578
 20
143.1692268923147
 30
0.0
 10
377.1307740031995
 20
143.1692268923147
 30
0.0
1001
ACAD
1000
DSTYLE
1002
{
1070
     6
1000
OPEN
1070
    41
1040
3.0
1070
    42
1040
3.0
1070
    43
1040
7.0
1070
    44
1040
1.5
1070
    73
1070
     0
1070
    74
1070
     0
1070
    77
1070
     3
1070
   140
1040
3.0
1070
   141
1040
3.0
1070
   147
1040
1.0
1070
   172
1070
     1
1070
   173
1070
     1
1070
   176
1070
   256
1070
   177
1070
   256
1070
   178
1070
   256
1070
   271
1070
     0
1070
   272
1070
     0
1070
   341
1005
B2
1070
   343
1005
B2
1070
   344
1005
B2
1002
}
  0
DIMENSION
  5
402C
330
1A
100
AcDbEntity
  8
SUNPOU
100
AcDbDimension
  2
*D10
 10
350.6514732417493
 20
155.2910624959533
 30
0.0
 11
350.4139536029405
 21
162.7203008070963
 31
0.0
 70
    33
 71
     5
 42
13.99999963751058
  3
STANDARD
100
AcDbAlignedDimension
 13
336.873429853607
 23
164.9133691431375
 33
0.0
 14
342.0010365606887
 24
151.8861806779395
 34
0.0
1001
ACAD
1000
DSTYLE
1002
{
1070
   140
1040
3.0
1070
    74
1070
     0
1070
   172
1070
     1
1070
    73
1070
     0
1070
   272
1070
     0
1070
    77
1070
     3
1070
   173
1070
     1
1070
   147
1040
1.0
1070
    42
1040
3.0
1070
    44
1040
1.5
1070
    43
1040
7.0
1070
   271
1070
     0
1070
   178
1070
   256
1070
   177
1070
   256
1070
   176
1070
   256
1070
   141
1040
3.0
1070
     7
1000
OPEN
1070
     6
1000
OPEN
1070
    41
1040
3.0
1002
}
  0
LINE
  5
402D
330
1A
100
AcDbEntity
  8
CENTER L
100
AcDbLine
 10
342.0200805623283
 20
134.1615312167284
 30
0.0
 11
347.603161477685
 21
136.3590770052339
 31
0.0
  0
CIRCLE
  5
402E
330
1A
100
AcDbEntity
  8
SEIHIN
100
AcDbCircle
 10
344.8116212227118
 20
135.2603042884201
 30
0.0
 40
2.1
  0
LINE
  5
402F
330
1A
100
AcDbEntity
  8
SEIHIN
100
AcDbLine
 10
339.4669722227119
 20
163.7848572884201
 30
0.0
 11
351.1872162227118
 21
134.0084262884201
 31
0.0
  0
DIMENSION
  5
4030
330
1A
100
AcDbEntity
  8
SUNPOU
100
AcDbDimension
  2
*D11
 10
244.029903287008
 20
176.6950566600684
 30
0.0
 11
241.529903287008
 21
202.3469201600684
 31
0.0
 70
    32
 71
     5
 42
51.30372699999998
  3
STANDARD
100
AcDbAlignedDimension
 13
225.7128605048556
 23
227.9987836600684
 33
0.0
 14
225.7128605048556
 24
176.6950566600684
 34
0.0
 50
90.0
100
AcDbRotatedDimension
1001
ACAD
1000
DSTYLE
1002
{
1070
   140
1040
3.0
1070
    74
1070
     0
1070
   172
1070
     1
1070
    73
1070
     0
1070
   272
1070
     0
1070
    77
1070
     3
1070
   173
1070
     1
1070
   147
1040
1.0
1070
    42
1040
3.0
1070
    44
1040
1.5
1070
    43
1040
7.0
1070
   271
1070
     0
1070
   178
1070
   256
1070
   177
1070
   256
1070
   176
1070
   256
1070
   141
1040
3.0
1070
     7
1000
OPEN
1070
     6
1000
OPEN
1070
    41
1040
3.0
1002
}
  0
LINE
  5
4031
330
1A
100
AcDbEntity
  8
SEIHIN
100
AcDbLine
 10
228.7128605048556
 20
212.8053816600684
 30
0.0
 11
228.7128605048556
 21
224.9987836600684
 31
0.0
  0
LINE
  5
4032
330
1A
100
AcDbEntity
  8
SEIHIN
100
AcDbLine
 10
215.6109695048558
 20
212.8053816600684
 30
0.0
 11
215.6109695048558
 21
224.9987836600684
 31
0.0
  0
LEADER
  5
4033
330
1A
100
AcDbEntity
  8
SUNPOU
100
AcDbLeader
  3
STANDARD
 76
     3
 10
296.0892109390373
 20
144.5466897212979
 30
0.0
 10
275.0585993718361
 20
160.0339579774152
 30
0.0
 10
248.3967791327899
 20
160.0339579774152
 30
0.0
1001
ACAD
1000
DSTYLE
1002
{
1070
     6
1000
OPEN
1070
    41
1040
3.0
1070
    42
1040
3.0
1070
    43
1040
7.0
1070
    44
1040
1.5
1070
    73
1070
     0
1070
    74
1070
     0
1070
    77
1070
     3
1070
   140
1040
3.0
1070
   141
1040
3.0
1070
   147
1040
1.0
1070
   172
1070
     1
1070
   173
1070
     1
1070
   176
1070
   256
1070
   177
1070
   256
1070
   178
1070
   256
1070
   271
1070
     0
1070
   272
1070
     0
1070
   341
1005
B2
1070
   343
1005
B2
1070
   344
1005
B2
1002
}
  0
DIMENSION
  5
4034
330
1A
100
AcDbEntity
  8
SUNPOU
100
AcDbDimension
  2
*D12
 10
277.4120511870554
 20
181.1031074284542
 30
0.0
 11
300.4106036163457
 21
192.8422121462699
 31
0.0
 70
    33
 71
     5
 42
51.39999974391657
  3
STANDARD
100
AcDbAlignedDimension
 13
339.466972222712
 23
163.7848572884201
 33
0.0
 14
291.6385792227119
 24
144.9592152884201
 34
0.0
1001
ACAD
1000
DSTYLE
1002
{
1070
   140
1040
3.0
1070
    74
1070
     0
1070
   172
1070
     1
1070
    73
1070
     0
1070
   272
1070
     0
1070
    77
1070
     3
1070
   173
1070
     1
1070
   147
1040
1.0
1070
    42
1040
3.0
1070
    44
1040
1.5
1070
    43
1040
7.0
1070
   271
1070
     0
1070
   178
1070
   256
1070
   177
1070
   256
1070
   176
1070
   256
1070
   141
1040
3.0
1070
     7
1000
OPEN
1070
     6
1000
OPEN
1070
    41
1040
3.0
1002
}
  0
DIMENSION
  5
4035
330
1A
100
AcDbEntity
  8
SUNPOU
100
AcDbDimension
  2
*D13
 10
285.2920206220555
 20
138.6997943766762
 30
0.0
 11
286.6110959000436
 21
142.1743504152736
 31
0.0
 70
    33
  1
6
 71
     5
 42
5.499999728855556
  3
STANDARD
100
AcDbAlignedDimension
 13
293.2082178915454
 23
147.7263883142742
 33
0.0
 14
295.2226347650333
 24
142.6085643941673
 34
0.0
1001
ACAD
1000
DSTYLE
1002
{
1070
   140
1040
3.0
1070
    74
1070
     0
1070
   172
1070
     1
1070
    73
1070
     0
1070
   272
1070
     0
1070
    77
1070
     3
1070
   173
1070
     1
1070
   147
1040
1.0
1070
    42
1040
3.0
1070
    44
1040
1.5
1070
    43
1040
7.0
1070
   271
1070
     0
1070
   178
1070
   256
1070
   177
1070
   256
1070
   176
1070
   256
1070
   141
1040
3.0
1070
     7
1000
OPEN
1070
     6
1000
OPEN
1070
    41
1040
3.0
1002
}
  0
TEXT
  5
4036
330
1A
100
AcDbEntity
  8
SUNPOU
100
AcDbText
 10
234.9926640636106
 20
146.8770760388807
 30
0.0
 40
3.0
  1
スライド幅
100
AcDbText
  0
TEXT
  5
4037
330
1A
100
AcDbEntity
  8
SUNPOU
100
AcDbText
 10
250.4476881776101
 20
161.1372581549069
 30
0.0
 40
3.0
  1
4-φ4.2
100
AcDbText
  0
LINE
  5
4038
330
1A
100
AcDbEntity
  8
SEIHIN
100
AcDbLine
 10
224.6943535048556
 20
194.0991696600684
 30
0.0
 11
227.2780425048557
 21
193.5470116600684
 31
0.0
  0
ELLIPSE
  5
4039
330
1A
100
AcDbEntity
  8
SEIHIN
100
AcDbEllipse
 10
225.7004255048557
 20
181.9450596600684
 30
0.0
 11
4.592277442707641E-17
 21
2.100001711502093
 31
0.0
210
0.0
220
0.0
230
1.0
 40
0.3571425437499017
 41
-2.675767399566849
 42
-0.4658252540229442
  0
ELLIPSE
  5
403A
330
1A
100
AcDbEntity
  8
SEIHIN
100
AcDbEllipse
 10
220.5807285048556
 20
183.6950596600684
 30
0.0
 11
7.653771061495095E-17
 21
3.249992382839279
 31
0.0
210
0.0
220
0.0
230
1.0
 40
0.384616286056636
 41
-2.868723640393516
 42
-0.272869013196277
  0
ELLIPSE
  5
403B
330
1A
100
AcDbEntity
  8
SEIHIN
100
AcDbEllipse
 10
217.4872295048558
 20
181.9450596600684
 30
0.0
 11
4.592277442707641E-17
 21
2.100001711502093
 31
0.0
210
0.0
220
0.0
230
1.0
 40
0.3571425437499017
 41
-2.675767399566849
 42
-0.4658252540229442
  0
ELLIPSE
  5
403C
330
1A
100
AcDbEntity
  8
SEIHIN
100
AcDbEllipse
 10
218.1609695048558
 20
181.9450596600684
 30
0.0
 11
4.592277442707641E-17
 21
2.100001711502093
 31
0.0
210
0.0
220
0.0
230
1.0
 40
0.3571425437499017
 41
-1.570796326794897
 42
4.71238898038469
  0
ELLIPSE
  5
403D
330
1A
100
AcDbEntity
  8
SEIHIN
100
AcDbEllipse
 10
221.2544685048556
 20
183.6950596600684
 30
0.0
 11
7.653771061495095E-17
 21
3.249992382839279
 31
0.0
210
0.0
220
0.0
230
1.0
 40
0.384616286056636
 41
-1.570796326794897
 42
4.71238898038469
  0
ELLIPSE
  5
403E
330
1A
100
AcDbEntity
  8
SEIHIN
100
AcDbEllipse
 10
226.3741655048557
 20
181.9450596600684
 30
0.0
 11
4.592277442707641E-17
 21
2.100001711502093
 31
0.0
210
0.0
220
0.0
230
1.0
 40
0.3571425437499017
 41
-1.570796326794897
 42
4.71238898038469
  0
LINE
  5
403F
330
1A
100
AcDbEntity
  8
SEIHIN
100
AcDbLine
 10
215.6109695048558
 20
191.8678206600684
 30
0.0
 11
215.6109695048558
 21
179.6950566600684
 31
0.0
  0
LINE
  5
4040
330
1A
100
AcDbEntity
  8
SEIHIN
100
AcDbLine
 10
228.7128605048556
 20
191.8678216600684
 30
0.0
 11
228.7128605048556
 21
179.6950566600684
 31
0.0
  0
LINE
  5
4041
330
1A
100
AcDbEntity
  8
SEIHIN
100
AcDbLine
 10
217.4109695048558
 20
176.6950566600684
 30
0.0
 11
225.7128605048556
 21
176.6950566600684
 31
0.0
  0
LINE
  5
4042
330
1A
100
AcDbEntity
  8
CENTER L
100
AcDbLine
 10
215.976336184757
 20
181.9450596600684
 30
0.0
 11
220.8174383606513
 21
181.9450596600684
 31
0.0
  0
ARC
  5
4043
330
1A
100
AcDbEntity
  8
SEIHIN
100
AcDbCircle
 10
225.7128605048556
 20
179.6950566600684
 30
0.0
 40
3.0
100
AcDbArc
 50
270.0
 51
0.0
  0
LINE
  5
4044
330
1A
100
AcDbEntity
  8
CENTER L
100
AcDbLine
 10
224.0448406967096
 20
181.9450596600684
 30
0.0
 11
228.7128605048556
 21
181.9450596600684
 31
0.0
  0
LINE
  5
4045
330
1A
100
AcDbEntity
  8
CENTER L
100
AcDbLine
 10
217.4488340073674
 20
183.6950596600684
 30
0.0
 11
225.2712541156886
 21
183.6950596600684
 31
0.0
  0
LINE
  5
4046
330
1A
100
AcDbEntity
  8
SEIHIN
100
AcDbLine
 10
219.4667245048556
 20
191.8884616600684
 30
0.0
 11
224.9166745048558
 21
191.8884616600684
 31
0.0
  0
LINE
  5
4047
330
1A
100
AcDbEntity
  8
SEIHIN
100
AcDbLine
 10
215.6109695048558
 20
191.8884616600684
 30
0.0
 11
217.5228395048557
 21
191.8884616600684
 31
0.0
  0
LINE
  5
4048
330
1A
100
AcDbEntity
  8
SEIHIN
100
AcDbLine
 10
219.4667245048556
 20
193.4817476600684
 30
0.0
 11
217.5228395048557
 21
193.4817476600684
 31
0.0
  0
LINE
  5
4049
330
1A
100
AcDbEntity
  8
SEIHIN
100
AcDbLine
 10
217.5228395048557
 20
190.9908516600684
 30
0.0
 11
219.4667245048556
 21
190.9908516600684
 31
0.0
  0
LINE
  5
404A
330
1A
100
AcDbEntity
  8
SEIHIN
100
AcDbLine
 10
219.4667245048556
 20
190.9908516600684
 30
0.0
 11
218.1441945048557
 21
193.4817486600684
 31
0.0
  0
LINE
  5
404B
330
1A
100
AcDbEntity
  8
SEIHIN
100
AcDbLine
 10
219.4667245048556
 20
190.9908516600684
 30
0.0
 11
219.4667245048556
 21
193.4817476600684
 31
0.0
  0
LINE
  5
404C
330
1A
100
AcDbEntity
  8
SEIHIN
100
AcDbLine
 10
217.5228395048557
 20
193.4817476600684
 30
0.0
 11
217.5228395048557
 21
190.9908516600684
 31
0.0
  0
LINE
  5
404D
330
1A
100
AcDbEntity
  8
SEIHIN
100
AcDbLine
 10
226.8605595048557
 20
191.8884616600684
 30
0.0
 11
228.7128605048556
 21
191.8884606600684
 31
0.0
  0
ARC
  5
404E
330
1A
100
AcDbEntity
  8
SEIHIN
100
AcDbCircle
 10
227.0128605048558
 20
191.8678216600684
 30
0.0
 40
1.700000158763074
100
AcDbArc
 50
0.0000066132454181
 51
81.02579079286475
  0
LINE
  5
404F
330
1A
100
AcDbEntity
  8
SEIHIN
100
AcDbLine
 10
226.8605595048557
 20
193.4817476600684
 30
0.0
 11
224.9166745048558
 21
193.4817476600684
 31
0.0
  0
LINE
  5
4050
330
1A
100
AcDbEntity
  8
SEIHIN
100
AcDbLine
 10
224.9166745048558
 20
190.9908516600684
 30
0.0
 11
226.8605595048557
 21
190.9908516600684
 31
0.0
  0
LINE
  5
4051
330
1A
100
AcDbEntity
  8
SEIHIN
100
AcDbLine
 10
224.9166745048558
 20
193.4817476600684
 30
0.0
 11
224.9166745048558
 21
190.9908516600684
 31
0.0
  0
LINE
  5
4052
330
1A
100
AcDbEntity
  8
SEIHIN
100
AcDbLine
 10
226.8605595048557
 20
190.9908516600684
 30
0.0
 11
226.8605595048557
 21
193.4817476600684
 31
0.0
  0
LINE
  5
4053
330
1A
100
AcDbEntity
  8
SEIHIN
100
AcDbLine
 10
226.8605595048557
 20
190.9908516600684
 30
0.0
 11
225.5380295048558
 21
193.4817486600684
 31
0.0
  0
LINE
  5
4054
330
1A
100
AcDbEntity
  8
SEIHIN
100
AcDbLine
 10
228.7128605048556
 20
206.3366016600684
 30
0.0
 11
228.7128605048556
 21
198.3366016600684
 31
0.0
  0
ARC
  5
4055
330
1A
100
AcDbEntity
  8
SEIHIN
100
AcDbCircle
 10
240.6199325048558
 20
202.3366016600684
 30
0.0
 40
17.43067870772649
100
AcDbArc
 50
163.3304729704061
 51
196.6694668411142
  0
LINE
  5
4056
330
1A
100
AcDbEntity
  8
SEIHIN
100
AcDbLine
 10
217.0297295048556
 20
206.3469216600684
 30
0.0
 11
217.0297295048556
 21
198.3469216600684
 31
0.0
  0
ELLIPSE
  5
4057
330
1A
100
AcDbEntity
  8
SEIHIN
100
AcDbEllipse
 10
220.4117035048557
 20
202.3469216600684
 30
0.0
 11
7.653792826897370E-17
 21
-3.000001500001125
 31
0.0
210
0.0
220
0.0
230
-1.0
 40
0.4166664583332813
 41
-1.570796326794897
 42
4.71238898038469
  0
ARC
  5
4058
330
1A
100
AcDbEntity
  8
SEIHIN
100
AcDbCircle
 10
216.0297295048556
 20
198.3469216600684
 30
0.0
 40
0.9999997520041886
100
AcDbArc
 50
269.9424749991745
 51
0.0
  0
ARC
  5
4059
330
1A
100
AcDbEntity
  8
SEIHIN
100
AcDbCircle
 10
227.7128605048556
 20
198.3366016600684
 30
0.0
 40
1.00000000000225
100
AcDbArc
 50
270.0001718873446
 51
0.0
  0
LINE
  5
405A
330
1A
100
AcDbEntity
  8
SEIHIN
100
AcDbLine
 10
224.6943535048556
 20
194.0991696600684
 30
0.0
 11
224.6943505048557
 21
194.8469466600684
 31
0.0
  0
LINE
  5
405B
330
1A
100
AcDbEntity
  8
SEIHIN
100
AcDbLine
 10
227.7128635048557
 20
197.3366016600684
 30
0.0
 11
227.7128635048557
 21
194.8469556600684
 31
0.0
  0
LINE
  5
405C
330
1A
100
AcDbEntity
  8
SEIHIN
100
AcDbLine
 10
227.7128635048557
 20
197.3366016600684
 30
0.0
 11
223.9217725048557
 21
197.3366016600684
 31
0.0
  0
LINE
  5
405D
330
1A
100
AcDbEntity
  8
SEIHIN
100
AcDbLine
 10
219.4667245048556
 20
212.8053816600684
 30
0.0
 11
224.9166745048558
 21
212.8053816600684
 31
0.0
  0
LINE
  5
405E
330
1A
100
AcDbEntity
  8
SEIHIN
100
AcDbLine
 10
217.5228395048557
 20
211.2120946600684
 30
0.0
 11
217.5228395048557
 21
213.7029916600684
 31
0.0
  0
LINE
  5
405F
330
1A
100
AcDbEntity
  8
SEIHIN
100
AcDbLine
 10
219.4667245048556
 20
213.7029916600684
 30
0.0
 11
219.4667245048556
 21
211.2120946600684
 31
0.0
  0
LINE
  5
4060
330
1A
100
AcDbEntity
  8
SEIHIN
100
AcDbLine
 10
219.4667245048556
 20
213.7029916600684
 30
0.0
 11
218.1441945048557
 21
211.2120946600684
 31
0.0
  0
LINE
  5
4061
330
1A
100
AcDbEntity
  8
SEIHIN
100
AcDbLine
 10
219.4667245048556
 20
211.2120946600684
 30
0.0
 11
217.5228395048557
 21
211.2120946600684
 31
0.0
  0
ARC
  5
4062
330
1A
100
AcDbEntity
  8
SEIHIN
100
AcDbCircle
 10
216.0297295048556
 20
206.3469216600684
 30
0.0
 40
0.9999997638769442
100
AcDbArc
 50
0.0
 51
90.10015312088359
  0
LINE
  5
4063
330
1A
100
AcDbEntity
  8
SEIHIN
100
AcDbLine
 10
215.6109695048558
 20
212.8053816600684
 30
0.0
 11
217.5228395048557
 21
212.8053816600684
 31
0.0
  0
LINE
  5
4064
330
1A
100
AcDbEntity
  8
SEIHIN
100
AcDbLine
 10
217.5228395048557
 20
213.7029916600684
 30
0.0
 11
219.4667245048556
 21
213.7029916600684
 31
0.0
  0
LINE
  5
4065
330
1A
100
AcDbEntity
  8
SEIHIN
100
AcDbLine
 10
224.9166745048558
 20
211.2120946600684
 30
0.0
 11
224.9166745048558
 21
213.7029916600684
 31
0.0
  0
LINE
  5
4066
330
1A
100
AcDbEntity
  8
SEIHIN
100
AcDbLine
 10
226.8605595048557
 20
213.7029916600684
 30
0.0
 11
225.5380295048558
 21
211.2120946600684
 31
0.0
  0
LINE
  5
4067
330
1A
100
AcDbEntity
  8
SEIHIN
100
AcDbLine
 10
226.8605595048557
 20
213.7029916600684
 30
0.0
 11
226.8605595048557
 21
211.2120946600684
 31
0.0
  0
ARC
  5
4068
330
1A
100
AcDbEntity
  8
SEIHIN
100
AcDbCircle
 10
227.0128605048558
 20
212.8053826600684
 30
0.0
 40
1.700000040122499
100
AcDbArc
 50
278.7461491942049
 51
359.9999946189175
  0
ARC
  5
4069
330
1A
100
AcDbEntity
  8
SEIHIN
100
AcDbCircle
 10
227.7128605048556
 20
206.3366016600684
 30
0.0
 40
1.00000000000225
100
AcDbArc
 50
0.0000031708051873
 51
90.00017505814657
  0
LINE
  5
406A
330
1A
100
AcDbEntity
  8
SEIHIN
100
AcDbLine
 10
224.6951395048557
 20
210.5883956600684
 30
0.0
 11
224.6951415048557
 21
209.8469466600684
 31
0.0
  0
LINE
  5
406B
330
1A
100
AcDbEntity
  8
SEIHIN
100
AcDbLine
 10
226.8605595048557
 20
211.2120946600684
 30
0.0
 11
224.9166745048558
 21
211.2120946600684
 31
0.0
  0
LINE
  5
406C
330
1A
100
AcDbEntity
  8
SEIHIN
100
AcDbLine
 10
227.7128575048557
 20
207.3366016600684
 30
0.0
 11
227.7128575048557
 21
209.8469556600684
 31
0.0
  0
LINE
  5
406D
330
1A
100
AcDbEntity
  8
SEIHIN
100
AcDbLine
 10
227.2713565048557
 20
211.1251506600684
 30
0.0
 11
224.6951395048557
 21
210.5883956600684
 31
0.0
  0
LINE
  5
406E
330
1A
100
AcDbEntity
  8
SEIHIN
100
AcDbLine
 10
223.9217725048557
 20
207.3366016600684
 30
0.0
 11
227.7128575048557
 21
207.3366016600684
 31
0.0
  0
LINE
  5
406F
330
1A
100
AcDbEntity
  8
SEIHIN
100
AcDbLine
 10
226.8605595048557
 20
212.8053816600684
 30
0.0
 11
228.7128605048556
 21
212.8053816600684
 31
0.0
  0
LINE
  5
4070
330
1A
100
AcDbEntity
  8
SEIHIN
100
AcDbLine
 10
224.9166745048558
 20
213.7029916600684
 30
0.0
 11
226.8605595048557
 21
213.7029916600684
 31
0.0
  0
DIMENSION
  5
4071
330
1A
100
AcDbEntity
  8
SUNPOU
100
AcDbDimension
  2
*D14
 10
323.4459510580972
 20
189.5418871533404
 30
0.0
 11
303.7098044629128
 21
184.4602689103489
 31
0.0
 70
    33
 71
     5
 42
40.45186405564596
  3
STANDARD
100
AcDbAlignedDimension
 13
296.9154023284589
 23
146.4988777460985
 33
0.0
 14
334.5564073617399
 24
161.3146816615455
 34
0.0
1001
ACAD
1000
DSTYLE
1002
{
1070
   140
1040
3.0
1070
    74
1070
     0
1070
   172
1070
     1
1070
    73
1070
     0
1070
   272
1070
     0
1070
    77
1070
     3
1070
   173
1070
     1
1070
   147
1040
1.0
1070
    42
1040
3.0
1070
    44
1040
1.5
1070
    43
1040
7.0
1070
   271
1070
     0
1070
   178
1070
   256
1070
   177
1070
   256
1070
   176
1070
   256
1070
   141
1040
3.0
1070
     7
1000
OPEN
1070
     6
1000
OPEN
1070
    41
1040
3.0
1002
}
  0
DIMENSION
  5
4072
330
1A
100
AcDbEntity
  8
SUNPOU
100
AcDbDimension
  2
*D15
 10
325.4301710875016
 20
180.3344992983279
 30
0.0
 11
307.1139250547011
 21
175.8117653968442
 31
0.0
 70
    33
 71
     5
 42
37.39999950148166
  3
STANDARD
100
AcDbAlignedDimension
 13
300.7159770656239
 23
141.0094247178841
 33
0.0
 14
335.5171809741368
 24
154.7074599503157
 34
0.0
1001
ACAD
1000
DSTYLE
1002
{
1070
   140
1040
3.0
1070
    74
1070
     0
1070
   172
1070
     1
1070
    73
1070
     0
1070
   272
1070
     0
1070
    77
1070
     3
1070
   173
1070
     1
1070
   147
1040
1.0
1070
    42
1040
3.0
1070
    44
1040
1.5
1070
    43
1040
7.0
1070
   271
1070
     0
1070
   178
1070
   256
1070
   177
1070
   256
1070
   176
1070
   256
1070
   141
1040
3.0
1070
     7
1000
OPEN
1070
     6
1000
OPEN
1070
    41
1040
3.0
1002
}
  0
LINE
  5
4073
330
1A
100
AcDbEntity
  8
SEIHIN
100
AcDbLine
 10
308.7497092227119
 20
162.0997812884201
 30
0.0
 11
315.2633032227119
 21
164.6635842884201
 31
0.0
  0
LINE
  5
4074
330
1A
100
AcDbEntity
  8
SEIHIN
100
AcDbLine
 10
313.5308652227119
 20
145.8573072884201
 30
0.0
 11
322.8359992227119
 21
149.5198842884201
 31
0.0
  0
LINE
  5
4075
330
1A
100
AcDbEntity
  8
SEIHIN
100
AcDbLine
 10
305.4915632227118
 20
158.0909862884201
 30
0.0
 11
316.7825542227118
 21
129.4051162884201
 31
0.0
  0
LINE
  5
4076
330
1A
100
AcDbEntity
  8
SEIHIN
100
AcDbLine
 10
316.2432462227117
 20
128.3142622884201
 30
0.0
 11
313.4215322227118
 21
127.2036132884201
 31
0.0
  0
LINE
  5
4077
330
1A
100
AcDbEntity
  8
SEIHIN
100
AcDbLine
 10
314.5203052227117
 20
124.4120732884201
 30
0.0
 11
313.4215322227118
 21
127.2036132884201
 31
0.0
  0
LINE
  5
4078
330
1A
100
AcDbEntity
  8
SEIHIN
100
AcDbLine
 10
309.8321202227118
 20
144.0602742884201
 30
0.0
 11
316.0585002227118
 21
128.2415452884201
 31
0.0
  0
LINE
  5
4079
330
1A
100
AcDbEntity
  8
SEIHIN
100
AcDbLine
 10
308.2696122227118
 20
143.4452582884201
 30
0.0
 11
314.4959912227117
 21
127.6265292884201
 31
0.0
  0
LINE
  5
407A
330
1A
100
AcDbEntity
  8
SEIHIN
100
AcDbLine
 10
304.7901642227117
 20
152.2851362884201
 30
0.0
 11
307.1708392227118
 21
146.2367982884201
 31
0.0
  0
LINE
  5
407B
330
1A
100
AcDbEntity
  8
SEIHIN
100
AcDbLine
 10
306.3526722227117
 20
152.9001522884201
 30
0.0
 11
308.7333472227118
 21
146.8518142884201
 31
0.0
  0
LINE
  5
407C
330
1A
100
AcDbEntity
  8
SEIHIN
100
AcDbLine
 10
307.9033252227117
 20
160.1546242884201
 30
0.0
 11
313.5308652227119
 21
145.8573072884201
 31
0.0
  0
ARC
  5
407D
330
1A
100
AcDbEntity
  8
SEIHIN
100
AcDbCircle
 10
293.4996062227118
 20
145.6917302884201
 30
0.0
 40
2.0
100
AcDbArc
 50
111.4850298472647
 51
201.4850298472625
  0
LINE
  5
407E
330
1A
100
AcDbEntity
  8
SEIHIN
100
AcDbLine
 10
307.3761532227119
 20
153.3030022884201
 30
0.0
 11
292.7670912227119
 21
147.5527572884201
 31
0.0
  0
LINE
  5
407F
330
1A
100
AcDbEntity
  8
CENTER L
100
AcDbLine
 10
295.2226347650333
 20
142.6085643941673
 30
0.0
 11
300.8057156803902
 21
144.8061101826729
 31
0.0
  0
LINE
  5
4080
330
1A
100
AcDbEntity
  8
CENTER L
100
AcDbLine
 10
296.915402328459
 20
146.4988777460985
 30
0.0
 11
299.1129481169645
 21
140.9157968307417
 31
0.0
  0
CIRCLE
  5
4081
330
1A
100
AcDbEntity
  8
SEIHIN
100
AcDbCircle
 10
298.0141752227117
 20
143.7073372884201
 30
0.0
 40
2.1
  0
LINE
  5
4082
330
1A
100
AcDbEntity
  8
CENTER L
100
AcDbLine
 10
297.8946977932479
 20
134.5255691313322
 30
0.0
 11
307.1998326521759
 21
138.188145445508
 31
0.0
  0
LINE
  5
4083
330
1A
100
AcDbEntity
  8
CENTER L
100
AcDbLine
 10
300.7159770656239
 20
141.0094247178841
 30
0.0
 11
304.3785533797998
 21
131.704289858956
 31
0.0
  0
CIRCLE
  5
4084
330
1A
100
AcDbEntity
  8
SEIHIN
100
AcDbCircle
 10
302.5472652227119
 20
136.3568572884201
 30
0.0
 40
3.25
  0
LINE
  5
4085
330
1A
100
AcDbEntity
  8
SEIHIN
100
AcDbLine
 10
310.0168662227119
 20
144.1329922884201
 30
0.0
 11
307.1951532227118
 21
143.0223422884201
 31
0.0
  0
LINE
  5
4086
330
1A
100
AcDbEntity
  8
SEIHIN
100
AcDbLine
 10
308.9180932227117
 20
146.9245322884201
 30
0.0
 11
310.0168662227119
 21
144.1329922884201
 31
0.0
  0
LINE
  5
4087
330
1A
100
AcDbEntity
  8
SEIHIN
100
AcDbLine
 10
308.9180932227117
 20
146.9245322884201
 30
0.0
 11
306.0963802227119
 21
145.8138832884201
 31
0.0
  0
LINE
  5
4088
330
1A
100
AcDbEntity
  8
SEIHIN
100
AcDbLine
 10
306.0963802227119
 20
145.8138832884201
 30
0.0
 11
307.1951532227118
 21
143.0223422884201
 31
0.0
  0
LINE
  5
4089
330
1A
100
AcDbEntity
  8
SEIHIN
100
AcDbLine
 10
305.4915632227118
 20
158.0909862884201
 30
0.0
 11
308.2831042227118
 21
159.1897592884201
 31
0.0
  0
ARC
  5
408A
330
1A
100
AcDbEntity
  8
SEIHIN
100
AcDbCircle
 10
309.2990952227118
 20
160.7040112884201
 30
0.0
 40
1.5
100
AcDbArc
 50
111.4850298472647
 51
201.4850298472652
  0
LINE
  5
408B
330
1A
100
AcDbEntity
  8
CENTER L
100
AcDbLine
 10
335.5171809741368
 20
154.7074599503158
 30
0.0
 11
339.1797572883128
 21
145.4023250913876
 31
0.0
  0
CIRCLE
  5
408C
330
1A
100
AcDbEntity
  8
SEIHIN
100
AcDbCircle
 10
337.3484692227117
 20
150.0548922884201
 30
0.0
 40
3.25
  0
LINE
  5
408D
330
1A
100
AcDbEntity
  8
SEIHIN
100
AcDbLine
 10
326.7471242227117
 20
150.7181562884201
 30
0.0
 11
332.9735032227119
 21
134.8994272884201
 31
0.0
  0
LINE
  5
408E
330
1A
100
AcDbEntity
  8
SEIHIN
100
AcDbLine
 10
328.3106022227117
 20
151.3335542884201
 30
0.0
 11
334.5369822227118
 21
135.5148252884201
 31
0.0
  0
LINE
  5
408F
330
1A
100
AcDbEntity
  8
SEIHIN
100
AcDbLine
 10
320.3797792227118
 20
163.9511082884201
 30
0.0
 11
331.6707782227119
 21
135.2652172884201
 31
0.0
  0
LINE
  5
4090
330
1A
100
AcDbEntity
  8
SEIHIN
100
AcDbLine
 10
329.7280422227119
 20
132.0099742884201
 30
0.0
 11
332.6581032227117
 21
124.5658662884201
 31
0.0
  0
ARC
  5
4091
330
1A
100
AcDbEntity
  8
SEIHIN
100
AcDbCircle
 10
326.9983272227117
 20
125.2934902884201
 30
0.0
 40
7.249999838287755
100
AcDbArc
 50
67.88221105080885
 51
155.0878510541568
  0
LINE
  5
4092
330
1A
100
AcDbEntity
  8
SEIHIN
100
AcDbLine
 10
317.3420192227119
 20
125.5227222884201
 30
0.0
 11
314.5203052227117
 21
124.4120732884201
 31
0.0
  0
LINE
  5
4093
330
1A
100
AcDbEntity
  8
SEIHIN
100
AcDbLine
 10
317.3420192227119
 20
125.5227222884201
 30
0.0
 11
316.2432462227117
 21
128.3142622884201
 31
0.0
  0
CIRCLE
  5
4094
330
1A
100
AcDbEntity
  8
SEIHIN
100
AcDbCircle
 10
321.4128982227118
 20
139.4838202884201
 30
0.0
 40
2.1
  0
LINE
  5
4095
330
1A
100
AcDbEntity
  8
CENTER L
100
AcDbLine
 10
343.7128481257539
 20
138.0518445686595
 30
0.0
 11
345.9103939142594
 21
132.4687636533027
 31
0.0
  0
LINE
  5
4096
330
1A
100
AcDbEntity
  8
SEIHIN
100
AcDbLine
 10
335.6357552227117
 20
132.7232842884201
 30
0.0
 11
338.0164292227117
 21
126.6749462884201
 31
0.0
  0
LINE
  5
4097
330
1A
100
AcDbEntity
  8
SEIHIN
100
AcDbLine
 10
331.6707782227119
 20
135.2652172884201
 30
0.0
 11
335.4496432227119
 21
125.6646392884201
 31
0.0
  0
LINE
  5
4098
330
1A
100
AcDbEntity
  8
SEIHIN
100
AcDbLine
 10
334.0722762227118
 20
132.1078862884201
 30
0.0
 11
336.4529512227117
 21
126.0595492884201
 31
0.0
  0
LINE
  5
4099
330
1A
100
AcDbEntity
  8
SEIHIN
100
AcDbLine
 10
336.7294162227119
 20
133.1537582884201
 30
0.0
 11
333.9077022227119
 21
132.0431092884201
 31
0.0
  0
LINE
  5
409A
330
1A
100
AcDbEntity
  8
SEIHIN
100
AcDbLine
 10
335.6306432227119
 20
135.9452982884201
 30
0.0
 11
332.8089292227118
 21
134.8346492884201
 31
0.0
  0
LINE
  5
409B
330
1A
100
AcDbEntity
  8
SEIHIN
100
AcDbLine
 10
333.9077022227119
 20
132.0431092884201
 30
0.0
 11
332.8089292227118
 21
134.8346492884201
 31
0.0
  0
LINE
  5
409C
330
1A
100
AcDbEntity
  8
SEIHIN
100
AcDbLine
 10
336.7294162227119
 20
133.1537582884201
 30
0.0
 11
335.6306432227119
 21
135.9452982884201
 31
0.0
  0
LINE
  5
409D
330
1A
100
AcDbEntity
  8
SEIHIN
100
AcDbLine
 10
336.8734302227118
 20
164.9133692884201
 30
0.0
 11
322.2643682227118
 21
159.1631242884201
 31
0.0
  0
LINE
  5
409E
330
1A
100
AcDbEntity
  8
SEIHIN
100
AcDbLine
 10
324.8311552227118
 20
160.1734322884201
 30
0.0
 11
327.2118292227118
 21
154.1250942884201
 31
0.0
  0
LINE
  5
409F
330
1A
100
AcDbEntity
  8
SEIHIN
100
AcDbLine
 10
323.2676762227119
 20
159.5580342884201
 30
0.0
 11
325.6483512227118
 21
153.5096972884201
 31
0.0
  0
LINE
  5
40A0
330
1A
100
AcDbEntity
  8
SEIHIN
100
AcDbLine
 10
317.2084602227118
 20
163.8172012884201
 30
0.0
 11
322.8359992227119
 21
149.5198842884201
 31
0.0
  0
LINE
  5
40A1
330
1A
100
AcDbEntity
  8
SEIHIN
100
AcDbLine
 10
328.3054902227119
 20
154.5555682884201
 30
0.0
 11
329.4042632227119
 21
151.7640282884201
 31
0.0
  0
LINE
  5
40A2
330
1A
100
AcDbEntity
  8
SEIHIN
100
AcDbLine
 10
325.4837772227119
 20
153.4449192884201
 30
0.0
 11
326.5825502227118
 21
150.6533782884201
 31
0.0
  0
LINE
  5
40A3
330
1A
100
AcDbEntity
  8
SEIHIN
100
AcDbLine
 10
329.4042632227119
 20
151.7640282884201
 30
0.0
 11
326.5825502227118
 21
150.6533782884201
 31
0.0
  0
LINE
  5
40A4
330
1A
100
AcDbEntity
  8
SEIHIN
100
AcDbLine
 10
328.3054902227119
 20
154.5555682884201
 30
0.0
 11
325.4837772227119
 21
153.4449192884201
 31
0.0
  0
ARC
  5
40A5
330
1A
100
AcDbEntity
  8
SEIHIN
100
AcDbCircle
 10
315.8126902227119
 20
163.2678142884201
 30
0.0
 40
1.5
100
AcDbArc
 50
21.48502984726521
 51
111.4850298472647
  0
LINE
  5
40A6
330
1A
100
AcDbEntity
  8
SEIHIN
100
AcDbLine
 10
317.5882392227119
 20
162.8523352884201
 30
0.0
 11
320.3797792227118
 21
163.9511082884201
 31
0.0
  0
LINE
  5
40A7
330
1A
100
AcDbEntity
  8
CENTER L
100
AcDbLine
 10
332.8636397983143
 20
157.4243683096144
 30
0.0
 11
338.446720713671
 21
159.6219140981199
 31
0.0
  0
LINE
  5
40A8
330
1A
100
AcDbEntity
  8
CENTER L
100
AcDbLine
 10
334.5564073617399
 20
161.3146816615455
 30
0.0
 11
336.7539531502454
 21
155.7316007461887
 31
0.0
  0
CIRCLE
  5
40A9
330
1A
100
AcDbEntity
  8
SEIHIN
100
AcDbCircle
 10
335.6551802227119
 20
158.5231412884201
 30
0.0
 40
2.1
  0
LINE
  5
40AA
330
1A
100
AcDbEntity
  8
CENTER L
100
AcDbLine
 10
332.6959017017608
 20
148.2236043637637
 30
0.0
 11
342.0010365606888
 21
151.8861806779396
 31
0.0
  0
ARC
  5
40AB
330
1A
100
AcDbEntity
  8
SEIHIN
100
AcDbCircle
 10
337.6059452227117
 20
163.0523422884201
 30
0.0
 40
2.0
100
AcDbArc
 50
21.48502984726249
 51
111.4850298472647
  0
LINE
  5
40AC
330
1A
100
AcDbEntity
  8
CENTER L
100
AcDbLine
 10
217.4488340073674
 20
220.9781436600684
 30
0.0
 11
225.2712541156886
 21
220.9781436600684
 31
0.0
  0
LINE
  5
40AD
330
1A
100
AcDbEntity
  8
SEIHIN
100
AcDbLine
 10
217.4109695048558
 20
227.9987836600684
 30
0.0
 11
225.7128605048556
 21
227.9987836600684
 31
0.0
  0
ELLIPSE
  5
40AE
330
1A
100
AcDbEntity
  8
SEIHIN
100
AcDbEllipse
 10
221.2544685048556
 20
220.9987836600684
 30
0.0
 11
7.653771061495095E-17
 21
-3.249992382839279
 31
0.0
210
0.0
220
0.0
230
-1.0
 40
0.384616286056636
 41
-1.570796326794897
 42
4.71238898038469
  0
ELLIPSE
  5
40AF
330
1A
100
AcDbEntity
  8
SEIHIN
100
AcDbEllipse
 10
218.1609695048558
 20
222.7487836600684
 30
0.0
 11
4.592277442707641E-17
 21
-2.100001711502093
 31
0.0
210
0.0
220
0.0
230
-1.0
 40
0.3571425437499017
 41
-1.570796326794897
 42
4.71238898038469
  0
ELLIPSE
  5
40B0
330
1A
100
AcDbEntity
  8
SEIHIN
100
AcDbEllipse
 10
217.4872295048558
 20
222.7487836600684
 30
0.0
 11
4.592277442707641E-17
 21
-2.100001711502093
 31
0.0
210
0.0
220
0.0
230
-1.0
 40
0.3571425437499017
 41
-2.675767399566849
 42
-0.4658252540229442
  0
ELLIPSE
  5
40B1
330
1A
100
AcDbEntity
  8
SEIHIN
100
AcDbEllipse
 10
220.5807285048556
 20
220.9987836600684
 30
0.0
 11
7.653771061495095E-17
 21
-3.249992382839279
 31
0.0
210
0.0
220
0.0
230
-1.0
 40
0.384616286056636
 41
-2.868723640393516
 42
-0.272869013196277
  0
LINE
  5
40B2
330
1A
100
AcDbEntity
  8
CENTER L
100
AcDbLine
 10
215.976336184757
 20
222.7281436600684
 30
0.0
 11
220.8174383606513
 21
222.7281436600684
 31
0.0
  0
ELLIPSE
  5
40B3
330
1A
100
AcDbEntity
  8
SEIHIN
100
AcDbEllipse
 10
226.3741655048557
 20
222.7487836600684
 30
0.0
 11
4.592277442707641E-17
 21
-2.100001711502093
 31
0.0
210
0.0
220
0.0
230
-1.0
 40
0.3571425437499017
 41
-1.570796326794897
 42
4.71238898038469
  0
ELLIPSE
  5
40B4
330
1A
100
AcDbEntity
  8
SEIHIN
100
AcDbEllipse
 10
225.7004255048557
 20
222.7487836600684
 30
0.0
 11
4.592277442707641E-17
 21
-2.100001711502093
 31
0.0
210
0.0
220
0.0
230
-1.0
 40
0.3571425437499017
 41
-2.675767399566849
 42
-0.4658252540229442
  0
LINE
  5
40B5
330
1A
100
AcDbEntity
  8
CENTER L
100
AcDbLine
 10
224.0448406967096
 20
222.7281436600684
 30
0.0
 11
228.7128605048556
 21
222.7281436600684
 31
0.0
  0
ARC
  5
40B6
330
1A
100
AcDbEntity
  8
SEIHIN
100
AcDbCircle
 10
225.7128605048556
 20
224.9987836600684
 30
0.0
 40
3.0
100
AcDbArc
 50
0.0
 51
90.0
  0
TEXT
  5
40B7
330
1A
100
AcDbEntity
  8
SUNPOU
100
AcDbText
 10
357.252730550662
 20
143.9572986470824
 30
0.0
 40
3.0
  1
2-φ6.5
100
AcDbText
  0
ARC
  5
40B8
330
1A
100
AcDbEntity
  8
SEIHIN
100
AcDbCircle
 10
349.3261902227117
 20
133.2759102884201
 30
0.0
 40
2.0
100
AcDbArc
 50
291.4850298472646
 51
21.48502984726249
  0
VIEWPORT
  5
22
330
17
100
AcDbEntity
 67
     1
  8
0
100
AcDbViewport
 10
313.6808219178083
 20
148.5
 30
0.0
 40
627.3616438356165
 41
297.0
 68
     2
 69
     1
 12
313.6808219178083
 22
148.5
 13
0.0
 23
0.0
 14
1.0
 24
1.0
 15
10.0
 25
10.0
 16
0.0
 26
0.0
 36
1.0
 17
0.0
 27
0.0
 37
0.0
 42
50.0
 43
0.0
 44
0.0
 45
297.0
 50
0.0
 51
0.0
 72
   100
 90
    32768
  1

281
     0
 71
     1
 74
     0
110
0.0
120
0.0
130
0.0
111
1.0
121
0.0
131
0.0
112
0.0
122
1.0
132
0.0
 79
     0
146
0.0
  0
VIEWPORT
  5
64
330
17
100
AcDbEntity
 67
     1
  8
VIEWPORT
100
AcDbViewport
 10
210.0
 20
148.5
 30
0.0
 40
420.0
 41
297.0
 68
     1
 69
     2
 12
210.0
 22
148.5
 13
0.0
 23
0.0
 14
5.0
 24
5.0
 15
0.0
 25
0.0
 16
0.0
 26
0.0
 36
1.0
 17
0.0
 27
0.0
 37
0.0
 42
50.0
 43
0.0
 44
0.0
 45
302.9399999999999
 50
0.0
 51
0.0
 72
   100
 90
    32768
  1

281
     0
 71
     1
 74
     0
110
0.0
120
0.0
130
0.0
111
1.0
121
0.0
131
0.0
112
0.0
122
1.0
132
0.0
 79
     0
146
0.0
  0
ENDSEC
  0
SECTION
  2
OBJECTS
  0
DICTIONARY
  5
C
330
0
100
AcDbDictionary
281
     1
  3
ACAD_GROUP
350
D
  3
ACAD_LAYOUT
350
624
  3
ACAD_MLINESTYLE
350
E
  3
ACAD_PLOTSETTINGS
350
625
  3
ACAD_PLOTSTYLENAME
350
622
  0
DICTIONARY
  5
D
102
{ACAD_REACTORS
330
C
102
}
330
C
100
AcDbDictionary
281
     1
  0
DICTIONARY
  5
624
102
{ACAD_REACTORS
330
C
102
}
330
C
100
AcDbDictionary
281
     1
  3
Model
350
626
  3
ﾚｲｱｳﾄ1
350
627
  0
DICTIONARY
  5
E
102
{ACAD_REACTORS
330
C
102
}
330
C
100
AcDbDictionary
281
     1
  3
STANDARD
350
13
  0
DICTIONARY
  5
625
102
{ACAD_REACTORS
330
C
102
}
330
C
100
AcDbDictionary
281
     1
  0
ACDBDICTIONARYWDFLT
  5
622
102
{ACAD_REACTORS
330
C
102
}
330
C
100
AcDbDictionary
281
     1
  3
Normal
350
623
100
AcDbDictionaryWithDefault
340
623
1001
ACAD
1000
TREAT_AS_HARD
1070
     0
1000
TREAT_AS_HARD
1070
     0
1000
TREAT_AS_HARD
1070
     0
1000
TREAT_AS_HARD
1070
     0
  0
LAYOUT
  5
626
102
{ACAD_REACTORS
330
624
102
}
330
624
100
AcDbPlotSettings
  1

  2
Acrobat PDFWriter
  4
A3
  6

 40
7.143749713897705
 41
7.14375638961792
 42
7.143768310546875
 43
7.14373779296875
 44
297.1270751953125
 45
420.1583251953125
 46
0.0
 47
0.0
 48
0.0
 49
0.0
140
0.0
141
0.0
142
1.0
143
1.0
 70
 11952
 72
     1
 73
     1
 74
     0
  7
print.ctb
 75
    16
147
1.0
148
52.88505331185908
149
1.640883977900558
100
AcDbLayout
  1
Model
 70
     1
 71
     0
 10
0.0
 20
0.0
 11
12.0
 21
9.0
 12
0.0
 22
0.0
 32
0.0
 14
0.0
 24
0.0
 34
0.0
 15
0.0
 25
0.0
 35
0.0
146
0.0
 13
0.0
 23
0.0
 33
0.0
 16
1.0
 26
0.0
 36
0.0
 17
0.0
 27
1.0
 37
0.0
 76
     0
330
1A
  0
LAYOUT
  5
627
102
{ACAD_REACTORS
330
624
102
}
330
624
100
AcDbPlotSettings
  1

  2
EPSON PM-2000C
  4

  6

 40
0.0
 41
0.0
 42
0.0
 43
0.0
 44
0.0
 45
0.0
 46
0.0
 47
0.0
 48
0.0
 49
0.0
140
0.0
141
0.0
142
1.0
143
1.0
 70
   688
 72
     0
 73
     0
 74
     5
  7
print.ctb
 75
    16
147
1.0
148
0.0
149
0.0
100
AcDbLayout
  1
ﾚｲｱｳﾄ1
 70
     1
 71
     1
 10
0.0
 20
0.0
 11
420.0
 21
297.0
 12
0.0
 22
0.0
 32
0.0
 14
0.0
 24
0.0
 34
0.0
 15
420.0
 25
297.0
 35
0.0
146
0.0
 13
0.0
 23
0.0
 33
0.0
 16
1.0
 26
0.0
 36
0.0
 17
0.0
 27
1.0
 37
0.0
 76
     0
330
17
331
64
  0
MLINESTYLE
  5
13
102
{ACAD_REACTORS
330
E
102
}
330
E
100
AcDbMlineStyle
  2
STANDARD
 70
     0
  3

 62
     0
 51
90.0
 52
90.0
 71
     2
 49
0.5
 62
   256
  6
BYLAYER
 49
-0.5
 62
   256
  6
BYLAYER
  0
ACDBPLACEHOLDER
  5
623
102
{ACAD_REACTORS
330
622
102
}
330
622
  0
ENDSEC
  0
EOF
