  0
SECTION
  2
HEADER
  9
$ACADVER
  1
AC1015
  9
$ACADMAINTVER
 70
     6
  9
$DWGCODEPAGE
  3
ANSI_932
  9
$INSBASE
 10
0.0
 20
0.0
 30
0.0
  9
$EXTMIN
 10
-0.0000004828989404
 20
-0.0000000386436341
 30
0.0
  9
$EXTMAX
 10
398.7999995171011
 20
275.7999999613564
 30
0.0
  9
$LIMMIN
 10
0.0
 20
0.0
  9
$LIMMAX
 10
420.0
 20
297.0
  9
$ORTHOMODE
 70
     1
  9
$REGENMODE
 70
     1
  9
$FILLMODE
 70
     1
  9
$QTEXTMODE
 70
     0
  9
$MIRRTEXT
 70
     1
  9
$LTSCALE
 40
1.0
  9
$ATTMODE
 70
     1
  9
$TEXTSIZE
 40
2.5
  9
$TRACEWID
 40
1.0
  9
$TEXTSTYLE
  7
STANDARD
  9
$CLAYER
  8
SUNPOU
  9
$CELTYPE
  6
BYLAYER
  9
$CECOLOR
 62
   256
  9
$CELTSCALE
 40
1.0
  9
$DISPSILH
 70
     0
  9
$DIMSCALE
 40
1.0
  9
$DIMASZ
 40
3.0
  9
$DIMEXO
 40
3.0
  9
$DIMDLI
 40
7.0
  9
$DIMRND
 40
0.0
  9
$DIMDLE
 40
0.0
  9
$DIMEXE
 40
1.5
  9
$DIMTP
 40
0.0
  9
$DIMTM
 40
0.0
  9
$DIMTXT
 40
3.0
  9
$DIMCEN
 40
150.0
  9
$DIMTSZ
 40
0.0
  9
$DIMTOL
 70
     0
  9
$DIMLIM
 70
     0
  9
$DIMTIH
 70
     0
  9
$DIMTOH
 70
     0
  9
$DIMSE1
 70
     0
  9
$DIMSE2
 70
     0
  9
$DIMTAD
 70
     3
  9
$DIMZIN
 70
     0
  9
$DIMBLK
  1

  9
$DIMASO
 70
     1
  9
$DIMSHO
 70
     1
  9
$DIMPOST
  1

  9
$DIMAPOST
  1

  9
$DIMALT
 70
     0
  9
$DIMALTD
 70
     2
  9
$DIMALTF
 40
25.4
  9
$DIMLFAC
 40
1.0
  9
$DIMTOFL
 70
     1
  9
$DIMTVP
 40
0.0
  9
$DIMTIX
 70
     0
  9
$DIMSOXD
 70
     0
  9
$DIMSAH
 70
     1
  9
$DIMBLK1
  1
OPEN
  9
$DIMBLK2
  1
OPEN
  9
$DIMSTYLE
  2
STANDARD
  9
$DIMCLRD
 70
   256
  9
$DIMCLRE
 70
   256
  9
$DIMCLRT
 70
   256
  9
$DIMTFAC
 40
1.0
  9
$DIMGAP
 40
1.0
  9
$DIMJUST
 70
     0
  9
$DIMSD1
 70
     0
  9
$DIMSD2
 70
     0
  9
$DIMTOLJ
 70
     1
  9
$DIMTZIN
 70
     0
  9
$DIMALTZ
 70
     0
  9
$DIMALTTZ
 70
     0
  9
$DIMUPT
 70
     1
  9
$DIMDEC
 70
     0
  9
$DIMTDEC
 70
     0
  9
$DIMALTU
 70
     2
  9
$DIMALTTD
 70
     2
  9
$DIMTXSTY
  7
STANDARD
  9
$DIMAUNIT
 70
     0
  9
$DIMADEC
 70
     0
  9
$DIMALTRND
 40
0.0
  9
$DIMAZIN
 70
     0
  9
$DIMDSEP
 70
    46
  9
$DIMATFIT
 70
     3
  9
$DIMFRAC
 70
     0
  9
$DIMLDRBLK
  1
OPEN
  9
$DIMLUNIT
 70
     2
  9
$DIMLWD
 70
    -1
  9
$DIMLWE
 70
    -1
  9
$DIMTMOVE
 70
     0
  9
$LUNITS
 70
     2
  9
$LUPREC
 70
     4
  9
$SKETCHINC
 40
1.0
  9
$FILLETRAD
 40
0.6
  9
$AUNITS
 70
     0
  9
$AUPREC
 70
     0
  9
$MENU
  1
.
  9
$ELEVATION
 40
0.0
  9
$PELEVATION
 40
0.0
  9
$THICKNESS
 40
0.0
  9
$LIMCHECK
 70
     0
  9
$CHAMFERA
 40
10.0
  9
$CHAMFERB
 40
10.0
  9
$CHAMFERC
 40
20.0
  9
$CHAMFERD
 40
0.0
  9
$SKPOLY
 70
     0
  9
$TDCREATE
 40
2451100.394552546
  9
$TDUCREATE
 40
2451100.019552546
  9
$TDUPDATE
 40
2455609.404681528
  9
$TDUUPDATE
 40
2455609.029681528
  9
$TDINDWG
 40
0.1125286343
  9
$TDUSRTIMER
 40
0.1125286343
  9
$USRTIMER
 70
     1
  9
$ANGBASE
 50
0.0
  9
$ANGDIR
 70
     0
  9
$PDMODE
 70
     0
  9
$PDSIZE
 40
0.0
  9
$PLINEWID
 40
0.0
  9
$SPLFRAME
 70
     0
  9
$SPLINETYPE
 70
     6
  9
$SPLINESEGS
 70
     8
  9
$HANDSEED
  5
479D
  9
$SURFTAB1
 70
     6
  9
$SURFTAB2
 70
     6
  9
$SURFTYPE
 70
     6
  9
$SURFU
 70
     6
  9
$SURFV
 70
     6
  9
$UCSBASE
  2

  9
$UCSNAME
  2

  9
$UCSORG
 10
0.0
 20
0.0
 30
0.0
  9
$UCSXDIR
 10
1.0
 20
0.0
 30
0.0
  9
$UCSYDIR
 10
0.0
 20
1.0
 30
0.0
  9
$UCSORTHOREF
  2

  9
$UCSORTHOVIEW
 70
     0
  9
$UCSORGTOP
 10
0.0
 20
0.0
 30
0.0
  9
$UCSORGBOTTOM
 10
0.0
 20
0.0
 30
0.0
  9
$UCSORGLEFT
 10
0.0
 20
0.0
 30
0.0
  9
$UCSORGRIGHT
 10
0.0
 20
0.0
 30
0.0
  9
$UCSORGFRONT
 10
0.0
 20
0.0
 30
0.0
  9
$UCSORGBACK
 10
0.0
 20
0.0
 30
0.0
  9
$PUCSBASE
  2

  9
$PUCSNAME
  2

  9
$PUCSORG
 10
0.0
 20
0.0
 30
0.0
  9
$PUCSXDIR
 10
1.0
 20
0.0
 30
0.0
  9
$PUCSYDIR
 10
0.0
 20
1.0
 30
0.0
  9
$PUCSORTHOREF
  2

  9
$PUCSORTHOVIEW
 70
     0
  9
$PUCSORGTOP
 10
0.0
 20
0.0
 30
0.0
  9
$PUCSORGBOTTOM
 10
0.0
 20
0.0
 30
0.0
  9
$PUCSORGLEFT
 10
0.0
 20
0.0
 30
0.0
  9
$PUCSORGRIGHT
 10
0.0
 20
0.0
 30
0.0
  9
$PUCSORGFRONT
 10
0.0
 20
0.0
 30
0.0
  9
$PUCSORGBACK
 10
0.0
 20
0.0
 30
0.0
  9
$USERI1
 70
     0
  9
$USERI2
 70
     0
  9
$USERI3
 70
     0
  9
$USERI4
 70
     0
  9
$USERI5
 70
     0
  9
$USERR1
 40
0.0
  9
$USERR2
 40
0.0
  9
$USERR3
 40
0.0
  9
$USERR4
 40
0.0
  9
$USERR5
 40
0.0
  9
$WORLDVIEW
 70
     1
  9
$SHADEDGE
 70
     3
  9
$SHADEDIF
 70
    70
  9
$TILEMODE
 70
     1
  9
$MAXACTVP
 70
    16
  9
$PINSBASE
 10
0.0
 20
0.0
 30
0.0
  9
$PLIMCHECK
 70
     0
  9
$PEXTMIN
 10
0.0
 20
0.0
 30
0.0
  9
$PEXTMAX
 10
420.0
 20
297.0
 30
0.0
  9
$PLIMMIN
 10
0.0
 20
0.0
  9
$PLIMMAX
 10
420.0
 20
297.0
  9
$UNITMODE
 70
     0
  9
$VISRETAIN
 70
     0
  9
$PLINEGEN
 70
     0
  9
$PSLTSCALE
 70
     1
  9
$TREEDEPTH
 70
  3020
  9
$CMLSTYLE
  2
STANDARD
  9
$CMLJUST
 70
     0
  9
$CMLSCALE
 40
1.0
  9
$PROXYGRAPHICS
 70
     1
  9
$MEASUREMENT
 70
     1
  9
$CELWEIGHT
370
    -1
  9
$ENDCAPS
280
     0
  9
$JOINSTYLE
280
     0
  9
$LWDISPLAY
290
     0
  9
$INSUNITS
 70
     0
  9
$HYPERLINKBASE
  1

  9
$STYLESHEET
  1
print.ctb
  9
$XEDIT
290
     1
  9
$CEPSNTYPE
380
     0
  9
$PSTYLEMODE
290
     1
  9
$FINGERPRINTGUID
  2
{137E7082-72B8-11D5-AA3E-50A453C10000}
  9
$VERSIONGUID
  2
{AA6C8458-D939-41EC-85A9-33D6C1081149}
  9
$EXTNAMES
290
     1
  9
$PSVPSCALE
 40
0.0
  9
$OLESTARTUP
290
     0
  0
ENDSEC
  0
SECTION
  2
CLASSES
  0
CLASS
  1
ACDBDICTIONARYWDFLT
  2
AcDbDictionaryWithDefault
  3
ObjectDBX Classes
 90
        0
280
     0
281
     0
  0
CLASS
  1
ACDBPLACEHOLDER
  2
AcDbPlaceHolder
  3
ObjectDBX Classes
 90
        0
280
     0
281
     0
  0
CLASS
  1
LAYOUT
  2
AcDbLayout
  3
ObjectDBX Classes
 90
        0
280
     0
281
     0
  0
CLASS
  1
DUMMY
  2
AcDbLongTransaction
  3
DUMMY
 90
        0
280
     0
281
     0
  0
CLASS
  1
LWPOLYLINE
  2
AcDbPolyline
  3
AutoCAD 2000
 90
        0
280
     0
281
     1
  0
CLASS
  1
HATCH
  2
AcDbHatch
  3
AutoCAD 2000
 90
        0
280
     0
281
     1
  0
CLASS
  1
XRECORD
  2
AcDbXrecord
  3
AutoCAD 2000
 90
        0
280
     0
281
     0
  0
CLASS
  1
DUMMY
  2
AcDbLongTransaction
  3
DUMMY
 90
        0
280
     0
281
     0
  0
CLASS
  1
LWPOLYLINE
  2
AcDbPolyline
  3
AutoCAD 2000
 90
        0
280
     0
281
     1
  0
CLASS
  1
HATCH
  2
AcDbHatch
  3
AutoCAD 2000
 90
        0
280
     0
281
     1
  0
CLASS
  1
XRECORD
  2
AcDbXrecord
  3
AutoCAD 2000
 90
        0
280
     0
281
     0
  0
CLASS
  1
DUMMY
  2
AcDbLongTransaction
  3
DUMMY
 90
        0
280
     0
281
     0
  0
CLASS
  1
LWPOLYLINE
  2
AcDbPolyline
  3
AutoCAD 2000
 90
        0
280
     0
281
     1
  0
CLASS
  1
HATCH
  2
AcDbHatch
  3
AutoCAD 2000
 90
        0
280
     0
281
     1
  0
CLASS
  1
XRECORD
  2
AcDbXrecord
  3
AutoCAD 2000
 90
        0
280
     0
281
     0
  0
CLASS
  1
DUMMY
  2
AcDbLongTransaction
  3
DUMMY
 90
        0
280
     0
281
     0
  0
CLASS
  1
LWPOLYLINE
  2
AcDbPolyline
  3
AutoCAD 2000
 90
        0
280
     0
281
     1
  0
CLASS
  1
HATCH
  2
AcDbHatch
  3
AutoCAD 2000
 90
        0
280
     0
281
     1
  0
CLASS
  1
XRECORD
  2
AcDbXrecord
  3
AutoCAD 2000
 90
        0
280
     0
281
     0
  0
ENDSEC
  0
SECTION
  2
TABLES
  0
TABLE
  2
VPORT
  5
8
330
0
100
AcDbSymbolTable
 70
     2
  0
VPORT
  5
479C
330
8
100
AcDbSymbolTableRecord
100
AcDbViewportTableRecord
  2
*Active
 70
     0
 10
0.0
 20
0.0
 11
1.0
 21
1.0
 12
207.2214526828674
 22
142.6134781304232
 13
0.0
 23
0.0
 14
5.0
 24
5.0
 15
0.0
 25
0.0
 16
0.0
 26
0.0
 36
1.0
 17
0.0
 27
0.0
 37
0.0
 40
319.0092311155958
 41
1.651537335285505
 42
50.0
 43
0.0
 44
0.0
 50
0.0
 51
0.0
 71
     0
 72
   100
 73
     1
 74
     0
 75
     0
 76
     0
 77
     0
 78
     0
281
     0
 65
     1
110
0.0
120
0.0
130
0.0
111
1.0
121
0.0
131
0.0
112
0.0
122
1.0
132
0.0
 79
     0
146
0.0
  0
ENDTAB
  0
TABLE
  2
LTYPE
  5
5
330
0
100
AcDbSymbolTable
 70
     2
  0
LTYPE
  5
14
330
5
100
AcDbSymbolTableRecord
100
AcDbLinetypeTableRecord
  2
BYBLOCK
 70
     0
  3

 72
    65
 73
     0
 40
0.0
  0
LTYPE
  5
15
330
5
100
AcDbSymbolTableRecord
100
AcDbLinetypeTableRecord
  2
BYLAYER
 70
     0
  3

 72
    65
 73
     0
 40
0.0
  0
LTYPE
  5
16
330
5
100
AcDbSymbolTableRecord
100
AcDbLinetypeTableRecord
  2
CONTINUOUS
 70
     0
  3
Solid line
 72
    65
 73
     0
 40
0.0
  0
LTYPE
  5
120
330
5
100
AcDbSymbolTableRecord
100
AcDbLinetypeTableRecord
  2
CENTER
 70
     0
  3
____ _ ____ _ ____ _ ____ _ ____ _ ____ _ ____ 
 72
    65
 73
     4
 40
2.0
 49
1.25
 74
     0
 49
-0.25
 74
     0
 49
0.25
 74
     0
 49
-0.25
 74
     0
  0
ENDTAB
  0
TABLE
  2
LAYER
  5
2
330
0
100
AcDbSymbolTable
 70
     8
  0
LAYER
  5
F
330
2
100
AcDbSymbolTableRecord
100
AcDbLayerTableRecord
  2
0
 70
     0
 62
     7
  6
CONTINUOUS
370
    -3
390
623
  0
LAYER
  5
62
330
2
100
AcDbSymbolTableRecord
100
AcDbLayerTableRecord
  2
VIEWPORT
 70
     0
 62
     7
  6
CONTINUOUS
370
    -3
390
623
  0
LAYER
  5
6B
330
2
100
AcDbSymbolTableRecord
100
AcDbLayerTableRecord
  2
ZUWAKU
 70
     0
 62
     7
  6
CONTINUOUS
370
    -3
390
623
  0
LAYER
  5
1F2
330
2
100
AcDbSymbolTableRecord
100
AcDbLayerTableRecord
  2
SEIHIN
 70
     0
 62
     3
  6
CONTINUOUS
370
    -3
390
623
  0
LAYER
  5
1F3
330
2
100
AcDbSymbolTableRecord
100
AcDbLayerTableRecord
  2
SUNPOU
 70
     0
 62
     4
  6
CONTINUOUS
370
    -3
390
623
  0
LAYER
  5
1F4
330
2
100
AcDbSymbolTableRecord
100
AcDbLayerTableRecord
  2
CENTER L
 70
     0
 62
     1
  6
CENTER
370
    -3
390
623
  0
LAYER
  5
1F5
330
2
100
AcDbSymbolTableRecord
100
AcDbLayerTableRecord
  2
DEFPOINTS
 70
     0
 62
     7
  6
CONTINUOUS
290
     0
370
    -3
390
623
  0
LAYER
  5
A03
330
2
100
AcDbSymbolTableRecord
100
AcDbLayerTableRecord
  2
moji
 70
     0
 62
     2
  6
CONTINUOUS
370
    -3
390
623
  0
ENDTAB
  0
TABLE
  2
STYLE
  5
3
330
0
100
AcDbSymbolTable
 70
     2
  0
STYLE
  5
10
330
3
100
AcDbSymbolTableRecord
100
AcDbTextStyleTableRecord
  2
STANDARD
 70
     0
 40
0.0
 41
1.0
 50
0.0
 71
     0
 42
2.5
  3
TXT
  4
bigfont.shx
  0
STYLE
  5
A04
330
3
100
AcDbSymbolTableRecord
100
AcDbTextStyleTableRecord
  2
ｽﾀｲﾙ1
 70
     0
 40
0.0
 41
1.0
 50
0.0
 71
     0
 42
2.5
  3
MS PGothic.ttf
  4

1001
ACAD
1000
MS PGothic
1071
    32818
  0
ENDTAB
  0
TABLE
  2
VIEW
  5
6
330
0
100
AcDbSymbolTable
 70
     0
  0
ENDTAB
  0
TABLE
  2
UCS
  5
7
330
0
100
AcDbSymbolTable
 70
     0
  0
ENDTAB
  0
TABLE
  2
APPID
  5
9
330
0
100
AcDbSymbolTable
 70
     1
  0
APPID
  5
11
330
9
100
AcDbSymbolTableRecord
100
AcDbRegAppTableRecord
  2
ACAD
 70
     0
  0
ENDTAB
  0
TABLE
  2
DIMSTYLE
  5
A
330
0
100
AcDbSymbolTable
 70
     1
100
AcDbDimStyleTable
  0
DIMSTYLE
105
1D
102
{ACAD_REACTORS
330
4486
330
4487
330
4488
330
4489
330
44A1
330
44A2
330
4520
330
45B1
330
45D4
330
45DA
330
45DC
330
45E3
330
45E4
330
45E5
330
4606
102
}
330
A
100
AcDbSymbolTableRecord
100
AcDbDimStyleTableRecord
  2
STANDARD
 70
     0
340
10
  0
ENDTAB
  0
TABLE
  2
BLOCK_RECORD
  5
1
330
0
100
AcDbSymbolTable
 70
    16
  0
BLOCK_RECORD
  5
1A
330
1
100
AcDbSymbolTableRecord
100
AcDbBlockTableRecord
  2
*MODEL_SPACE
340
626
  0
BLOCK_RECORD
  5
17
330
1
100
AcDbSymbolTableRecord
100
AcDbBlockTableRecord
  2
*PAPER_SPACE
340
627
  0
BLOCK_RECORD
  5
B2
330
1
100
AcDbSymbolTableRecord
100
AcDbBlockTableRecord
  2
_OPEN
340
0
102
{BLKREFS
331
470E
331
470F
331
4717
331
4718
331
4720
331
4721
331
4729
331
472A
331
4732
331
4733
331
473B
331
473C
331
4744
331
4745
331
474D
331
474E
331
4758
331
4759
331
4761
331
4762
331
476A
331
476B
331
4773
331
4774
331
477C
331
477D
331
4787
331
4788
331
4790
331
4791
102
}
  0
BLOCK_RECORD
  5
4653
330
1
100
AcDbSymbolTableRecord
100
AcDbBlockTableRecord
  2
*D1
340
0
  0
BLOCK_RECORD
  5
465F
330
1
100
AcDbSymbolTableRecord
100
AcDbBlockTableRecord
  2
*D2
340
0
  0
BLOCK_RECORD
  5
466B
330
1
100
AcDbSymbolTableRecord
100
AcDbBlockTableRecord
  2
*D3
340
0
  0
BLOCK_RECORD
  5
4677
330
1
100
AcDbSymbolTableRecord
100
AcDbBlockTableRecord
  2
*D4
340
0
  0
BLOCK_RECORD
  5
4683
330
1
100
AcDbSymbolTableRecord
100
AcDbBlockTableRecord
  2
*D5
340
0
  0
BLOCK_RECORD
  5
468F
330
1
100
AcDbSymbolTableRecord
100
AcDbBlockTableRecord
  2
*D6
340
0
  0
BLOCK_RECORD
  5
469B
330
1
100
AcDbSymbolTableRecord
100
AcDbBlockTableRecord
  2
*D7
340
0
  0
BLOCK_RECORD
  5
46A7
330
1
100
AcDbSymbolTableRecord
100
AcDbBlockTableRecord
  2
*D8
340
0
  0
BLOCK_RECORD
  5
46B3
330
1
100
AcDbSymbolTableRecord
100
AcDbBlockTableRecord
  2
*D9
340
0
  0
BLOCK_RECORD
  5
46C1
330
1
100
AcDbSymbolTableRecord
100
AcDbBlockTableRecord
  2
*D10
340
0
  0
BLOCK_RECORD
  5
46CD
330
1
100
AcDbSymbolTableRecord
100
AcDbBlockTableRecord
  2
*D11
340
0
  0
BLOCK_RECORD
  5
46D9
330
1
100
AcDbSymbolTableRecord
100
AcDbBlockTableRecord
  2
*D12
340
0
  0
BLOCK_RECORD
  5
46E5
330
1
100
AcDbSymbolTableRecord
100
AcDbBlockTableRecord
  2
*D13
340
0
  0
BLOCK_RECORD
  5
46F1
330
1
100
AcDbSymbolTableRecord
100
AcDbBlockTableRecord
  2
*D14
340
0
  0
BLOCK_RECORD
  5
46FF
330
1
100
AcDbSymbolTableRecord
100
AcDbBlockTableRecord
  2
*D15
340
0
  0
ENDTAB
  0
ENDSEC
  0
SECTION
  2
BLOCKS
  0
BLOCK
  5
1B
330
1A
100
AcDbEntity
  8
0
100
AcDbBlockBegin
  2
*MODEL_SPACE
 70
     0
 71
     0
 10
0.0
 20
0.0
 30
0.0
  3
*MODEL_SPACE
  1

  0
ENDBLK
  5
1C
330
1A
100
AcDbEntity
  8
0
100
AcDbBlockEnd
  0
BLOCK
  5
18
330
17
100
AcDbEntity
 67
     1
  8
0
100
AcDbBlockBegin
  2
*PAPER_SPACE
 70
     0
 71
     0
 10
0.0
 20
0.0
 30
0.0
  3
*PAPER_SPACE
  1

  0
ENDBLK
  5
19
330
17
100
AcDbEntity
 67
     1
  8
0
100
AcDbBlockEnd
  0
BLOCK
  5
B3
330
B2
100
AcDbEntity
  8
0
100
AcDbBlockBegin
  2
_OPEN
 70
     0
 71
     0
 10
0.0
 20
0.0
 30
0.0
  3
_OPEN
  1

  0
LINE
  5
B4
330
B2
100
AcDbEntity
  8
0
  6
ByBlock
 62
     0
100
AcDbLine
 10
-1.0
 20
0.1666666666666667
 30
0.0
 11
0.0
 21
0.0
 31
0.0
  0
LINE
  5
B5
330
B2
100
AcDbEntity
  8
0
  6
ByBlock
 62
     0
100
AcDbLine
 10
0.0
 20
0.0
 30
0.0
 11
-1.0
 21
-0.1666666666666667
 31
0.0
  0
LINE
  5
B6
330
B2
100
AcDbEntity
  8
0
  6
ByBlock
 62
     0
100
AcDbLine
 10
0.0
 20
0.0
 30
0.0
 11
-1.0
 21
0.0
 31
0.0
  0
ENDBLK
  5
B7
330
B2
100
AcDbEntity
  8
0
100
AcDbBlockEnd
  0
BLOCK
  5
465D
330
4653
100
AcDbEntity
  8
0
100
AcDbBlockBegin
  2
*D1
 70
     1
 71
     0
 10
0.0
 20
0.0
 30
0.0
  3
*D1
  1

  0
LINE
  5
470B
330
4653
100
AcDbEntity
  8
SUNPOU
100
AcDbLine
 10
72.78536434628586
 20
113.4008141895969
 30
0.0
 11
50.38786570392379
 21
113.4008141895969
 31
0.0
  0
LINE
  5
470C
330
4653
100
AcDbEntity
  8
SUNPOU
100
AcDbLine
 10
221.7067643462858
 20
81.37229318959699
 30
0.0
 11
50.38786570392377
 21
81.37229318959703
 31
0.0
  0
LINE
  5
470D
330
4653
100
AcDbEntity
  8
SUNPOU
100
AcDbLine
 10
51.88786570392378
 20
110.4008141895969
 30
0.0
 11
51.88786570392378
 21
84.37229318959703
 31
0.0
  0
INSERT
  5
470E
330
4653
100
AcDbEntity
  8
SUNPOU
100
AcDbBlockReference
  2
_OPEN
 10
51.88786570392379
 20
113.4008141895969
 30
0.0
 41
3.0
 42
3.0
 43
3.0
 50
90.0
  0
INSERT
  5
470F
330
4653
100
AcDbEntity
  8
SUNPOU
100
AcDbBlockReference
  2
_OPEN
 10
51.88786570392378
 20
81.37229318959703
 30
0.0
 41
3.0
 42
3.0
 43
3.0
 50
270.0
  0
MTEXT
  5
4710
330
4653
100
AcDbEntity
  8
SUNPOU
100
AcDbMText
 10
49.38786570392377
 20
97.38655368959699
 30
0.0
 40
3.0
 41
0.0
 71
     5
 72
     1
  1
\A1;32
 11
6.123031769111886E-17
 21
1.0
 31
0.0
 73
     1
 44
1.0
  0
POINT
  5
4711
330
4653
100
AcDbEntity
  8
DEFPOINTS
 62
     0
100
AcDbPoint
 10
75.78536434628586
 20
113.4008141895969
 30
0.0
  0
POINT
  5
4712
330
4653
100
AcDbEntity
  8
DEFPOINTS
 62
     0
100
AcDbPoint
 10
224.7067643462858
 20
81.37229318959697
 30
0.0
  0
POINT
  5
4713
330
4653
100
AcDbEntity
  8
DEFPOINTS
 62
     0
100
AcDbPoint
 10
51.88786570392378
 20
81.37229318959703
 30
0.0
  0
ENDBLK
  5
465E
330
4653
100
AcDbEntity
  8
0
100
AcDbBlockEnd
  0
BLOCK
  5
4669
330
465F
100
AcDbEntity
  8
0
100
AcDbBlockBegin
  2
*D2
 70
     1
 71
     0
 10
0.0
 20
0.0
 30
0.0
  3
*D2
  1

  0
LINE
  5
4714
330
465F
100
AcDbEntity
  8
SUNPOU
370
    -2
100
AcDbLine
 10
207.5239799536075
 20
118.1931189900956
 30
0.0
 11
207.5239799536075
 21
145.8117219112124
 31
0.0
  0
LINE
  5
4715
330
465F
100
AcDbEntity
  8
SUNPOU
370
    -2
100
AcDbLine
 10
242.5239799536075
 20
118.1931189900956
 30
0.0
 11
242.5239799536075
 21
145.8117219112124
 31
0.0
  0
LINE
  5
4716
330
465F
100
AcDbEntity
  8
SUNPOU
370
    -2
100
AcDbLine
 10
210.5239799536075
 20
144.3117219112124
 30
0.0
 11
239.5239799536075
 21
144.3117219112124
 31
0.0
  0
INSERT
  5
4717
330
465F
100
AcDbEntity
  8
SUNPOU
370
    -2
100
AcDbBlockReference
  2
_OPEN
 10
207.5239799536075
 20
144.3117219112124
 30
0.0
 41
3.0
 42
3.0
 43
3.0
 50
180.0
  0
INSERT
  5
4718
330
465F
100
AcDbEntity
  8
SUNPOU
370
    -2
100
AcDbBlockReference
  2
_OPEN
 10
242.5239799536075
 20
144.3117219112124
 30
0.0
 41
3.0
 42
3.0
 43
3.0
  0
MTEXT
  5
4719
330
465F
100
AcDbEntity
  8
SUNPOU
100
AcDbMText
 10
225.0239799536075
 20
146.8117219112124
 30
0.0
 40
3.0
 41
0.0
 71
     5
 72
     1
  1
\A1;35
 73
     1
 44
1.0
  0
POINT
  5
471A
330
465F
100
AcDbEntity
  8
DEFPOINTS
 62
     0
100
AcDbPoint
 10
207.5239799536075
 20
115.1931189900956
 30
0.0
  0
POINT
  5
471B
330
465F
100
AcDbEntity
  8
DEFPOINTS
 62
     0
100
AcDbPoint
 10
242.5239799536075
 20
115.1931189900956
 30
0.0
  0
POINT
  5
471C
330
465F
100
AcDbEntity
  8
DEFPOINTS
 62
     0
100
AcDbPoint
 10
242.5239799536075
 20
144.3117219112124
 30
0.0
  0
ENDBLK
  5
466A
330
465F
100
AcDbEntity
  8
0
100
AcDbBlockEnd
  0
BLOCK
  5
4675
330
466B
100
AcDbEntity
  8
0
100
AcDbBlockBegin
  2
*D3
 70
     1
 71
     0
 10
0.0
 20
0.0
 30
0.0
  3
*D3
  1

  0
LINE
  5
471D
330
466B
100
AcDbEntity
  8
SUNPOU
370
    -2
100
AcDbLine
 10
207.3217320436648
 20
122.2144741834929
 30
0.0
 11
222.1787653407876
 21
129.7626402793592
 31
0.0
  0
LINE
  5
471E
330
466B
100
AcDbEntity
  8
SUNPOU
370
    -2
100
AcDbLine
 10
227.3813747189746
 20
82.73113804987548
 30
0.0
 11
242.2384080160974
 21
90.2793041457418
 31
0.0
  0
LINE
  5
471F
330
466B
100
AcDbEntity
  8
SUNPOU
370
    -2
100
AcDbLine
 10
222.2003050147217
 20
126.4086074765311
 30
0.0
 11
239.5422579694745
 21
92.27449208829137
 31
0.0
  0
INSERT
  5
4720
330
466B
100
AcDbEntity
  8
SUNPOU
370
    -2
100
AcDbBlockReference
  2
_OPEN
 10
220.8414601544431
 20
129.08321784922
 30
0.0
 41
3.0
 42
3.0
 43
3.0
 50
116.933000900679
  0
INSERT
  5
4721
330
466B
100
AcDbEntity
  8
SUNPOU
370
    -2
100
AcDbBlockReference
  2
_OPEN
 10
240.901102829753
 20
89.59988171560255
 30
0.0
 41
3.0
 42
3.0
 43
3.0
 50
296.933000900679
  0
MTEXT
  5
4722
330
466B
100
AcDbEntity
  8
SUNPOU
100
AcDbMText
 10
233.1001234693388
 20
110.47392049931
 30
0.0
 40
3.0
 41
0.0
 71
     5
 72
     1
  1
\A1;44
 11
0.4529482867595066
 21
-0.8915367908962747
 31
0.0
 73
     1
 44
1.0
  0
POINT
  5
4723
330
466B
100
AcDbEntity
  8
DEFPOINTS
 62
     0
100
AcDbPoint
 10
204.6471216709759
 20
120.8556293232144
 30
0.0
  0
POINT
  5
4724
330
466B
100
AcDbEntity
  8
DEFPOINTS
 62
     0
100
AcDbPoint
 10
224.7067643462858
 20
81.37229318959697
 30
0.0
  0
POINT
  5
4725
330
466B
100
AcDbEntity
  8
DEFPOINTS
 62
     0
100
AcDbPoint
 10
240.901102829753
 20
89.59988171560255
 30
0.0
  0
ENDBLK
  5
4676
330
466B
100
AcDbEntity
  8
0
100
AcDbBlockEnd
  0
BLOCK
  5
4681
330
4677
100
AcDbEntity
  8
0
100
AcDbBlockBegin
  2
*D4
 70
     1
 71
     0
 10
0.0
 20
0.0
 30
0.0
  3
*D4
  1

  0
LINE
  5
4726
330
4677
100
AcDbEntity
  8
SUNPOU
370
    -2
100
AcDbLine
 10
211.0752377725298
 20
114.8264629444628
 30
0.0
 11
218.8481540526789
 21
118.7755190064794
 31
0.0
  0
LINE
  5
4727
330
4677
100
AcDbEntity
  8
SUNPOU
370
    -2
100
AcDbLine
 10
227.3813747725299
 20
82.73113794446282
 30
0.0
 11
235.154291052679
 21
86.68019400647937
 31
0.0
  0
LINE
  5
4728
330
4677
100
AcDbEntity
  8
SUNPOU
370
    -2
100
AcDbLine
 10
218.8696935944227
 20
115.4214862028024
 30
0.0
 11
232.4581410846911
 21
88.67538205529053
 31
0.0
  0
INSERT
  5
4729
330
4677
100
AcDbEntity
  8
SUNPOU
370
    -2
100
AcDbBlockReference
  2
_OPEN
 10
217.5108488395568
 20
118.0960966290464
 30
0.0
 41
3.0
 42
3.0
 43
3.0
 50
116.9329986425178
  0
INSERT
  5
472A
330
4677
100
AcDbEntity
  8
SUNPOU
370
    -2
100
AcDbBlockReference
  2
_OPEN
 10
233.8169858395569
 20
86.00077162904644
 30
0.0
 41
3.0
 42
3.0
 43
3.0
 50
296.9329986425179
  0
MTEXT
  5
472B
330
4677
100
AcDbEntity
  8
SUNPOU
100
AcDbMText
 10
227.892759361427
 20
103.1808047581013
 30
0.0
 40
3.0
 41
0.0
 71
     5
 72
     1
  1
\A1;36
 11
0.4529482516219484
 21
-0.8915368087480293
 31
0.0
 73
     1
 44
1.0
  0
POINT
  5
472C
330
4677
100
AcDbEntity
  8
DEFPOINTS
 62
     0
100
AcDbPoint
 10
208.4006273462858
 20
113.467618189597
 30
0.0
  0
POINT
  5
472D
330
4677
100
AcDbEntity
  8
DEFPOINTS
 62
     0
100
AcDbPoint
 10
224.7067643462858
 20
81.37229318959697
 30
0.0
  0
POINT
  5
472E
330
4677
100
AcDbEntity
  8
DEFPOINTS
 62
     0
100
AcDbPoint
 10
233.8169858395569
 20
86.00077162904644
 30
0.0
  0
ENDBLK
  5
4682
330
4677
100
AcDbEntity
  8
0
100
AcDbBlockEnd
  0
BLOCK
  5
468D
330
4683
100
AcDbEntity
  8
0
100
AcDbBlockBegin
  2
*D5
 70
     1
 71
     0
 10
0.0
 20
0.0
 30
0.0
  3
*D5
  1

  0
LINE
  5
472F
330
4683
100
AcDbEntity
  8
SUNPOU
370
    -2
100
AcDbLine
 10
207.5239803462857
 20
118.1931191895969
 30
0.0
 11
207.5239803462857
 21
145.8342978765023
 31
0.0
  0
LINE
  5
4730
330
4683
100
AcDbEntity
  8
SUNPOU
370
    -2
100
AcDbLine
 10
75.21696151019748
 20
109.1785582553985
 30
0.0
 11
75.21696151019748
 21
145.8342978765023
 31
0.0
  0
LINE
  5
4731
330
4683
100
AcDbEntity
  8
SUNPOU
370
    -2
100
AcDbLine
 10
204.5239803462857
 20
144.3342978765023
 30
0.0
 11
78.21696151019748
 21
144.3342978765023
 31
0.0
  0
INSERT
  5
4732
330
4683
100
AcDbEntity
  8
SUNPOU
370
    -2
100
AcDbBlockReference
  2
_OPEN
 10
207.5239803462857
 20
144.3342978765023
 30
0.0
 41
3.0
 42
3.0
 43
3.0
  0
INSERT
  5
4733
330
4683
100
AcDbEntity
  8
SUNPOU
370
    -2
100
AcDbBlockReference
  2
_OPEN
 10
75.21696151019748
 20
144.3342978765023
 30
0.0
 41
3.0
 42
3.0
 43
3.0
 50
180.0
  0
MTEXT
  5
4734
330
4683
100
AcDbEntity
  8
SUNPOU
100
AcDbMText
 10
141.3704709282416
 20
146.8342978765023
 30
0.0
 40
3.0
 41
0.0
 71
     5
 72
     1
  1
\A1;132
 73
     1
 44
1.0
  0
POINT
  5
4735
330
4683
100
AcDbEntity
  8
DEFPOINTS
 62
     0
100
AcDbPoint
 10
207.5239803462857
 20
115.1931191895969
 30
0.0
  0
POINT
  5
4736
330
4683
100
AcDbEntity
  8
DEFPOINTS
 62
     0
100
AcDbPoint
 10
75.21696151019748
 20
106.1785582553985
 30
0.0
  0
POINT
  5
4737
330
4683
100
AcDbEntity
  8
DEFPOINTS
 62
     0
100
AcDbPoint
 10
75.21696151019748
 20
144.3342978765023
 30
0.0
  0
ENDBLK
  5
468E
330
4683
100
AcDbEntity
  8
0
100
AcDbBlockEnd
  0
BLOCK
  5
4699
330
468F
100
AcDbEntity
  8
0
100
AcDbBlockBegin
  2
*D6
 70
     1
 71
     0
 10
0.0
 20
0.0
 30
0.0
  3
*D6
  1

  0
LINE
  5
4738
330
468F
100
AcDbEntity
  8
SUNPOU
370
    -2
100
AcDbLine
 10
197.5555683462858
 20
85.08825418959697
 30
0.0
 11
197.5555683462858
 21
133.9563428392727
 31
0.0
  0
LINE
  5
4739
330
468F
100
AcDbEntity
  8
SUNPOU
370
    -2
100
AcDbLine
 10
207.5239799536075
 20
118.1931189900956
 30
0.0
 11
207.5239799536075
 21
133.9563428392727
 31
0.0
  0
LINE
  5
473A
330
468F
100
AcDbEntity
  8
SUNPOU
370
    -2
100
AcDbLine
 10
200.5555683462858
 20
132.4563428392727
 30
0.0
 11
204.5239799536075
 21
132.4563428392727
 31
0.0
  0
INSERT
  5
473B
330
468F
100
AcDbEntity
  8
SUNPOU
370
    -2
100
AcDbBlockReference
  2
_OPEN
 10
197.5555683462858
 20
132.4563428392727
 30
0.0
 41
3.0
 42
3.0
 43
3.0
 50
180.0
  0
INSERT
  5
473C
330
468F
100
AcDbEntity
  8
SUNPOU
370
    -2
100
AcDbBlockReference
  2
_OPEN
 10
207.5239799536075
 20
132.4563428392727
 30
0.0
 41
3.0
 42
3.0
 43
3.0
  0
MTEXT
  5
473D
330
468F
100
AcDbEntity
  8
SUNPOU
100
AcDbMText
 10
202.5397741499467
 20
134.9563428392727
 30
0.0
 40
3.0
 41
0.0
 71
     5
 72
     1
  1
\A1;10
 73
     1
 44
1.0
  0
POINT
  5
473E
330
468F
100
AcDbEntity
  8
DEFPOINTS
 62
     0
100
AcDbPoint
 10
197.5555683462858
 20
82.08825418959697
 30
0.0
  0
POINT
  5
473F
330
468F
100
AcDbEntity
  8
DEFPOINTS
 62
     0
100
AcDbPoint
 10
207.5239799536075
 20
115.1931189900956
 30
0.0
  0
POINT
  5
4740
330
468F
100
AcDbEntity
  8
DEFPOINTS
 62
     0
100
AcDbPoint
 10
207.5239799536075
 20
132.4563428392727
 30
0.0
  0
ENDBLK
  5
469A
330
468F
100
AcDbEntity
  8
0
100
AcDbBlockEnd
  0
BLOCK
  5
46A5
330
469B
100
AcDbEntity
  8
0
100
AcDbBlockBegin
  2
*D7
 70
     1
 71
     0
 10
0.0
 20
0.0
 30
0.0
  3
*D7
  1

  0
LINE
  5
4741
330
469B
100
AcDbEntity
  8
SUNPOU
370
    -2
100
AcDbLine
 10
72.78536434628586
 20
219.872822189597
 30
0.0
 11
50.38786570392382
 21
219.872822189597
 31
0.0
  0
LINE
  5
4742
330
469B
100
AcDbEntity
  8
SUNPOU
370
    -2
100
AcDbLine
 10
72.78536434628586
 20
203.372822189597
 30
0.0
 11
50.38786570392381
 21
203.372822189597
 31
0.0
  0
LINE
  5
4743
330
469B
100
AcDbEntity
  8
SUNPOU
370
    -2
100
AcDbLine
 10
51.88786570392382
 20
216.872822189597
 30
0.0
 11
51.88786570392381
 21
206.372822189597
 31
0.0
  0
INSERT
  5
4744
330
469B
100
AcDbEntity
  8
SUNPOU
370
    -2
100
AcDbBlockReference
  2
_OPEN
 10
51.88786570392382
 20
219.872822189597
 30
0.0
 41
3.0
 42
3.0
 43
3.0
 50
90.0
  0
INSERT
  5
4745
330
469B
100
AcDbEntity
  8
SUNPOU
370
    -2
100
AcDbBlockReference
  2
_OPEN
 10
51.88786570392381
 20
203.372822189597
 30
0.0
 41
3.0
 42
3.0
 43
3.0
 50
270.0
  0
MTEXT
  5
4746
330
469B
100
AcDbEntity
  8
SUNPOU
100
AcDbMText
 10
49.38786570392378
 20
211.622822189597
 30
0.0
 40
3.0
 41
0.0
 71
     5
 72
     1
  1
\A1;17
 11
6.123031769111886E-17
 21
1.0
 31
0.0
 73
     1
 44
1.0
  0
POINT
  5
4747
330
469B
100
AcDbEntity
  8
DEFPOINTS
 62
     0
100
AcDbPoint
 10
75.78536434628586
 20
219.872822189597
 30
0.0
  0
POINT
  5
4748
330
469B
100
AcDbEntity
  8
DEFPOINTS
 62
     0
100
AcDbPoint
 10
75.78536434628586
 20
203.372822189597
 30
0.0
  0
POINT
  5
4749
330
469B
100
AcDbEntity
  8
DEFPOINTS
 62
     0
100
AcDbPoint
 10
51.88786570392381
 20
203.372822189597
 30
0.0
  0
ENDBLK
  5
46A6
330
469B
100
AcDbEntity
  8
0
100
AcDbBlockEnd
  0
BLOCK
  5
46B1
330
46A7
100
AcDbEntity
  8
0
100
AcDbBlockBegin
  2
*D8
 70
     1
 71
     0
 10
0.0
 20
0.0
 30
0.0
  3
*D8
  1

  0
LINE
  5
474A
330
46A7
100
AcDbEntity
  8
SUNPOU
370
    -2
100
AcDbLine
 10
285.2276951273847
 20
152.4998681826415
 30
0.0
 11
268.1770396793364
 21
143.8372252591628
 31
0.0
  0
LINE
  5
474B
330
46A7
100
AcDbEntity
  8
SUNPOU
370
    -2
100
AcDbLine
 10
301.5338328975163
 20
120.4045435498592
 30
0.0
 11
284.483177449468
 21
111.7419006263806
 31
0.0
  0
LINE
  5
474C
330
46A7
100
AcDbEntity
  8
SUNPOU
370
    -2
100
AcDbLine
 10
270.8731896945954
 20
141.8420372742303
 30
0.0
 11
284.4616378282587
 21
115.0959334295473
 31
0.0
  0
INSERT
  5
474D
330
46A7
100
AcDbEntity
  8
SUNPOU
370
    -2
100
AcDbBlockReference
  2
_OPEN
 10
269.5143448763612
 20
144.5166476682799
 30
0.0
 41
3.0
 42
3.0
 43
3.0
 50
116.9330000000001
  0
INSERT
  5
474E
330
46A7
100
AcDbEntity
  8
SUNPOU
370
    -2
100
AcDbBlockReference
  2
_OPEN
 10
285.8204826464929
 20
112.4213230354977
 30
0.0
 41
3.0
 42
3.0
 43
3.0
 50
296.9330000000002
  0
MTEXT
  5
474F
330
46A7
100
AcDbEntity
  8
SUNPOU
100
AcDbMText
 10
279.8962557564684
 20
129.6013560337505
 30
0.0
 40
3.0
 41
0.0
 71
     5
 72
     1
  1
\A1;36
 11
0.4529482727447157
 21
-0.8915367980165365
 31
0.0
 73
     1
 44
1.0
  0
POINT
  5
4750
330
46A7
100
AcDbEntity
  8
DEFPOINTS
 62
     0
100
AcDbPoint
 10
287.9023055214343
 20
153.8587130008756
 30
0.0
  0
POINT
  5
4751
330
46A7
100
AcDbEntity
  8
DEFPOINTS
 62
     0
100
AcDbPoint
 10
304.2084432915659
 20
121.7633883680934
 30
0.0
  0
POINT
  5
4752
330
46A7
100
AcDbEntity
  8
DEFPOINTS
 62
     0
100
AcDbPoint
 10
285.8204826464929
 20
112.4213230354977
 30
0.0
  0
ENDBLK
  5
46B2
330
46A7
100
AcDbEntity
  8
0
100
AcDbBlockEnd
  0
BLOCK
  5
46BF
330
46B3
100
AcDbEntity
  8
0
100
AcDbBlockBegin
  2
*D9
 70
     1
 71
     0
 10
0.0
 20
0.0
 30
0.0
  3
*D9
  1

  0
LINE
  5
4753
330
46B3
100
AcDbEntity
  8
SUNPOU
370
    -2
100
AcDbLine
 10
299.0426173943718
 20
125.3079959449505
 30
0.0
 11
291.1245684847457
 21
121.2852045300561
 31
0.0
  0
LINE
  5
4754
330
46B3
100
AcDbEntity
  8
SUNPOU
370
    -2
100
AcDbLine
 10
301.5338328975162
 20
120.4045435498592
 30
0.0
 11
293.6157839878902
 21
116.3817521349648
 31
0.0
  0
LINE
  5
4755
330
46B3
100
AcDbEntity
  8
SUNPOU
370
    -2
100
AcDbLine
 10
291.1030288635363
 20
124.6392373332228
 30
0.0
 11
289.7441840453022
 21
127.3138477272724
 31
0.0
  0
LINE
  5
4756
330
46B3
100
AcDbEntity
  8
SUNPOU
370
    -2
100
AcDbLine
 10
296.311934003149
 20
114.3865641500323
 30
0.0
 11
297.6707788213832
 21
111.7119537559827
 31
0.0
  0
LINE
  5
4757
330
46B3
100
AcDbEntity
  8
SUNPOU
370
    -2
100
AcDbLine
 10
292.4618736817705
 20
121.9646269391731
 30
0.0
 11
294.9530891849149
 21
117.0611745440819
 31
0.0
  0
INSERT
  5
4758
330
46B3
100
AcDbEntity
  8
SUNPOU
370
    -2
100
AcDbBlockReference
  2
_OPEN
 10
292.4618736817705
 20
121.9646269391731
 30
0.0
 41
3.0
 42
3.0
 43
3.0
 50
296.9330000000002
  0
INSERT
  5
4759
330
46B3
100
AcDbEntity
  8
SUNPOU
370
    -2
100
AcDbBlockReference
  2
_OPEN
 10
294.9530891849149
 20
117.0611745440819
 30
0.0
 41
3.0
 42
3.0
 43
3.0
 50
116.9330000000002
  0
MTEXT
  5
475A
330
46B3
100
AcDbEntity
  8
SUNPOU
100
AcDbMText
 10
295.9363234283841
 20
120.6452714234893
 30
0.0
 40
3.0
 41
0.0
 71
     5
 72
     1
  1
\A1;6
 11
0.4529482727447169
 21
-0.891536798016536
 31
0.0
 73
     1
 44
1.0
  0
POINT
  5
475B
330
46B3
100
AcDbEntity
  8
DEFPOINTS
 62
     0
100
AcDbPoint
 10
301.7172277884214
 20
126.6668407631846
 30
0.0
  0
POINT
  5
475C
330
46B3
100
AcDbEntity
  8
DEFPOINTS
 62
     0
100
AcDbPoint
 10
304.2084432915659
 20
121.7633883680934
 30
0.0
  0
POINT
  5
475D
330
46B3
100
AcDbEntity
  8
DEFPOINTS
 62
     0
100
AcDbPoint
 10
294.9530891849149
 20
117.0611745440819
 30
0.0
  0
ENDBLK
  5
46C0
330
46B3
100
AcDbEntity
  8
0
100
AcDbBlockEnd
  0
BLOCK
  5
46CB
330
46C1
100
AcDbEntity
  8
0
100
AcDbBlockBegin
  2
*D10
 70
     1
 71
     0
 10
0.0
 20
0.0
 30
0.0
  3
*D10
  1

  0
LINE
  5
475E
330
46C1
100
AcDbEntity
  8
SUNPOU
370
    -2
100
AcDbLine
 10
332.4131108548768
 20
176.4725780330193
 30
0.0
 11
339.7853727376238
 21
180.2180805108094
 31
0.0
  0
LINE
  5
475F
330
46C1
100
AcDbEntity
  8
SUNPOU
370
    -2
100
AcDbLine
 10
338.7543865793901
 20
163.9910630456361
 30
0.0
 11
346.126648462137
 21
167.7365655234262
 31
0.0
  0
LINE
  5
4760
330
46C1
100
AcDbEntity
  8
SUNPOU
370
    -2
100
AcDbLine
 10
339.8069123588331
 20
176.8640477076427
 30
0.0
 11
343.4304984468781
 21
169.7317535083587
 31
0.0
  0
INSERT
  5
4761
330
46C1
100
AcDbEntity
  8
SUNPOU
370
    -2
100
AcDbBlockReference
  2
_OPEN
 10
338.448067540599
 20
179.5386581016923
 30
0.0
 41
3.0
 42
3.0
 43
3.0
 50
116.9330000000003
  0
INSERT
  5
4762
330
46C1
100
AcDbEntity
  8
SUNPOU
370
    -2
100
AcDbBlockReference
  2
_OPEN
 10
344.7893432651122
 20
167.0571431143091
 30
0.0
 41
3.0
 42
3.0
 43
3.0
 50
296.9330000000003
  0
MTEXT
  5
4763
330
46C1
100
AcDbEntity
  8
SUNPOU
100
AcDbMText
 10
343.8475473978969
 20
174.4302712898625
 30
0.0
 40
3.0
 41
0.0
 71
     5
 72
     1
  1
\A1;14
 11
0.4529482727447184
 21
-0.8915367980165351
 31
0.0
 73
     1
 44
1.0
  0
POINT
  5
4764
330
46C1
100
AcDbEntity
  8
DEFPOINTS
 62
     0
100
AcDbPoint
 10
329.7385004608273
 20
175.1137332147851
 30
0.0
  0
POINT
  5
4765
330
46C1
100
AcDbEntity
  8
DEFPOINTS
 62
     0
100
AcDbPoint
 10
336.0797761853405
 20
162.632218227402
 30
0.0
  0
POINT
  5
4766
330
46C1
100
AcDbEntity
  8
DEFPOINTS
 62
     0
100
AcDbPoint
 10
344.7893432651122
 20
167.0571431143091
 30
0.0
  0
ENDBLK
  5
46CC
330
46C1
100
AcDbEntity
  8
0
100
AcDbBlockEnd
  0
BLOCK
  5
46D7
330
46CD
100
AcDbEntity
  8
0
100
AcDbBlockBegin
  2
*D11
 70
     1
 71
     0
 10
0.0
 20
0.0
 30
0.0
  3
*D11
  1

  0
LINE
  5
4767
330
46CD
100
AcDbEntity
  8
SUNPOU
370
    -2
100
AcDbLine
 10
224.7067643462858
 20
237.285207189597
 30
0.0
 11
241.3301780596189
 21
237.285207189597
 31
0.0
  0
LINE
  5
4768
330
46CD
100
AcDbEntity
  8
SUNPOU
370
    -2
100
AcDbLine
 10
224.7067643462858
 20
185.9814801895969
 30
0.0
 11
241.3301780596189
 21
185.9814801895969
 31
0.0
  0
LINE
  5
4769
330
46CD
100
AcDbEntity
  8
SUNPOU
370
    -2
100
AcDbLine
 10
239.8301780596189
 20
234.285207189597
 30
0.0
 11
239.8301780596189
 21
188.9814801895969
 31
0.0
  0
INSERT
  5
476A
330
46CD
100
AcDbEntity
  8
SUNPOU
370
    -2
100
AcDbBlockReference
  2
_OPEN
 10
239.8301780596189
 20
237.285207189597
 30
0.0
 41
3.0
 42
3.0
 43
3.0
 50
90.0
  0
INSERT
  5
476B
330
46CD
100
AcDbEntity
  8
SUNPOU
370
    -2
100
AcDbBlockReference
  2
_OPEN
 10
239.8301780596189
 20
185.9814801895969
 30
0.0
 41
3.0
 42
3.0
 43
3.0
 50
270.0
  0
MTEXT
  5
476C
330
46CD
100
AcDbEntity
  8
SUNPOU
100
AcDbMText
 10
237.3301780596189
 20
211.633343689597
 30
0.0
 40
3.0
 41
0.0
 71
     5
 72
     1
  1
\A1;51
 11
6.123031769111886E-17
 21
1.0
 31
0.0
 73
     1
 44
1.0
  0
POINT
  5
476D
330
46CD
100
AcDbEntity
  8
DEFPOINTS
 62
     0
100
AcDbPoint
 10
221.7067643462858
 20
237.285207189597
 30
0.0
  0
POINT
  5
476E
330
46CD
100
AcDbEntity
  8
DEFPOINTS
 62
     0
100
AcDbPoint
 10
221.7067643462858
 20
185.9814801895969
 30
0.0
  0
POINT
  5
476F
330
46CD
100
AcDbEntity
  8
DEFPOINTS
 62
     0
100
AcDbPoint
 10
239.8301780596189
 20
185.9814801895969
 30
0.0
  0
ENDBLK
  5
46D8
330
46CD
100
AcDbEntity
  8
0
100
AcDbBlockEnd
  0
BLOCK
  5
46E3
330
46D9
100
AcDbEntity
  8
0
100
AcDbBlockBegin
  2
*D12
 70
     1
 71
     0
 10
0.0
 20
0.0
 30
0.0
  3
*D12
  1

  0
LINE
  5
4770
330
46D9
100
AcDbEntity
  8
SUNPOU
370
    -2
100
AcDbLine
 10
285.2436345122618
 20
153.6296250506728
 30
0.0
 11
269.1679734406741
 21
185.2713037522767
 31
0.0
  0
LINE
  5
4771
330
46D9
100
AcDbEntity
  8
SUNPOU
370
    -2
100
AcDbLine
 10
331.0686264114528
 20
176.9111659994566
 30
0.0
 11
314.9929653398651
 21
208.5528447010605
 31
0.0
  0
LINE
  5
4772
330
46D9
100
AcDbEntity
  8
SUNPOU
370
    -2
100
AcDbLine
 10
272.5220062440331
 20
185.2928433435405
 30
0.0
 11
312.9977773308609
 21
205.8566947036149
 31
0.0
  0
INSERT
  5
4773
330
46D9
100
AcDbEntity
  8
SUNPOU
370
    -2
100
AcDbBlockReference
  2
_OPEN
 10
269.8473958378514
 20
183.9339985491858
 30
0.0
 41
3.0
 42
3.0
 43
3.0
 50
206.9329994884518
  0
INSERT
  5
4774
330
46D9
100
AcDbEntity
  8
SUNPOU
370
    -2
100
AcDbBlockReference
  2
_OPEN
 10
315.6723877370425
 20
207.2155394979696
 30
0.0
 41
3.0
 42
3.0
 43
3.0
 50
26.9329994884518
  0
MTEXT
  5
4775
330
46D9
100
AcDbEntity
  8
SUNPOU
100
AcDbMText
 10
291.6275211254848
 20
197.8036110287291
 30
0.0
 40
3.0
 41
0.0
 71
     5
 72
     1
  1
\A1;51
 11
0.8915368020605505
 21
0.4529482647848943
 31
0.0
 73
     1
 44
1.0
  0
POINT
  5
4776
330
46D9
100
AcDbEntity
  8
DEFPOINTS
 62
     0
100
AcDbPoint
 10
286.6024793066165
 20
150.9550146444912
 30
0.0
  0
POINT
  5
4777
330
46D9
100
AcDbEntity
  8
DEFPOINTS
 62
     0
100
AcDbPoint
 10
332.4274712058075
 20
174.2365555932749
 30
0.0
  0
POINT
  5
4778
330
46D9
100
AcDbEntity
  8
DEFPOINTS
 62
     0
100
AcDbPoint
 10
315.6723877370425
 20
207.2155394979696
 30
0.0
  0
ENDBLK
  5
46E4
330
46D9
100
AcDbEntity
  8
0
100
AcDbBlockEnd
  0
BLOCK
  5
46EF
330
46E5
100
AcDbEntity
  8
0
100
AcDbBlockBegin
  2
*D13
 70
     1
 71
     0
 10
0.0
 20
0.0
 30
0.0
  3
*D13
  1

  0
LINE
  5
4779
330
46E5
100
AcDbEntity
  8
SUNPOU
370
    -2
100
AcDbLine
 10
290.3504416701482
 20
155.6633264325904
 30
0.0
 11
277.8274065737122
 21
180.3123808238803
 31
0.0
  0
LINE
  5
477A
330
46E5
100
AcDbEntity
  8
SUNPOU
370
    -2
100
AcDbLine
 10
326.4147667616245
 20
173.985928252538
 30
0.0
 11
313.8917316651885
 21
198.6349826438279
 31
0.0
  0
LINE
  5
477B
330
46E5
100
AcDbEntity
  8
SUNPOU
370
    -2
100
AcDbLine
 10
281.1814393768789
 20
180.3339204450896
 30
0.0
 11
311.896543680256
 21
195.9388326285689
 31
0.0
  0
INSERT
  5
477C
330
46E5
100
AcDbEntity
  8
SUNPOU
370
    -2
100
AcDbBlockReference
  2
_OPEN
 10
278.5068289828293
 20
178.9750756268555
 30
0.0
 41
3.0
 42
3.0
 43
3.0
 50
206.9330000000001
  0
INSERT
  5
477D
330
46E5
100
AcDbEntity
  8
SUNPOU
370
    -2
100
AcDbBlockReference
  2
_OPEN
 10
314.5711540743056
 20
197.2976774468031
 30
0.0
 41
3.0
 42
3.0
 43
3.0
 50
26.93300000000005
  0
MTEXT
  5
477E
330
46E5
100
AcDbEntity
  8
SUNPOU
100
AcDbMText
 10
295.4066208467056
 20
190.3652185318706
 30
0.0
 40
3.0
 41
0.0
 71
     5
 72
     1
  1
\A1;40
 11
0.8915367980165373
 21
0.4529482727447142
 31
0.0
 73
     1
 44
1.0
  0
POINT
  5
477F
330
46E5
100
AcDbEntity
  8
DEFPOINTS
 62
     0
100
AcDbPoint
 10
291.7092864883823
 20
152.9887160385408
 30
0.0
  0
POINT
  5
4780
330
46E5
100
AcDbEntity
  8
DEFPOINTS
 62
     0
100
AcDbPoint
 10
327.7736115798586
 20
171.3113178584884
 30
0.0
  0
POINT
  5
4781
330
46E5
100
AcDbEntity
  8
DEFPOINTS
 62
     0
100
AcDbPoint
 10
314.5711540743056
 20
197.2976774468031
 30
0.0
  0
ENDBLK
  5
46F0
330
46E5
100
AcDbEntity
  8
0
100
AcDbBlockEnd
  0
BLOCK
  5
46FD
330
46F1
100
AcDbEntity
  8
0
100
AcDbBlockBegin
  2
*D14
 70
     1
 71
     0
 10
0.0
 20
0.0
 30
0.0
  3
*D14
  1

  0
LINE
  5
4782
330
46F1
100
AcDbEntity
  8
SUNPOU
370
    -2
100
AcDbLine
 10
285.2276951273847
 20
152.4998681826414
 30
0.0
 11
276.7644438524171
 21
148.2000848699059
 31
0.0
  0
LINE
  5
4783
330
46F1
100
AcDbEntity
  8
SUNPOU
370
    -2
100
AcDbLine
 10
287.7189105185172
 20
147.5964160080229
 30
0.0
 11
279.2556592435496
 21
143.2966326952875
 31
0.0
  0
LINE
  5
4784
330
46F1
100
AcDbEntity
  8
SUNPOU
370
    -2
100
AcDbLine
 10
276.7429042312078
 20
151.5541176730726
 30
0.0
 11
275.3840594129736
 21
154.2287280671222
 31
0.0
  0
LINE
  5
4785
330
46F1
100
AcDbEntity
  8
SUNPOU
370
    -2
100
AcDbLine
 10
281.9518092588086
 20
141.3014447103549
 30
0.0
 11
283.3106540770428
 21
138.6268343163053
 31
0.0
  0
LINE
  5
4786
330
46F1
100
AcDbEntity
  8
SUNPOU
370
    -2
100
AcDbLine
 10
278.1017490494419
 20
148.879507279023
 30
0.0
 11
280.5929644405745
 21
143.9760551044045
 31
0.0
  0
INSERT
  5
4787
330
46F1
100
AcDbEntity
  8
SUNPOU
370
    -2
100
AcDbBlockReference
  2
_OPEN
 10
278.1017490494419
 20
148.879507279023
 30
0.0
 41
3.0
 42
3.0
 43
3.0
 50
296.9330000000005
  0
INSERT
  5
4788
330
46F1
100
AcDbEntity
  8
SUNPOU
370
    -2
100
AcDbBlockReference
  2
_OPEN
 10
280.5929644405745
 20
143.9760551044045
 30
0.0
 41
3.0
 42
3.0
 43
3.0
 50
116.9330000000005
  0
MTEXT
  5
4789
330
46F1
100
AcDbEntity
  8
SUNPOU
100
AcDbMText
 10
281.5761987400496
 20
147.5601518735756
 30
0.0
 40
3.0
 41
0.0
 71
     5
 72
     1
  1
\A1;6
 11
0.4529482727447208
 21
-0.891536798016534
 31
0.0
 73
     1
 44
1.0
  0
POINT
  5
478A
330
46F1
100
AcDbEntity
  8
DEFPOINTS
 62
     0
100
AcDbPoint
 10
287.9023055214343
 20
153.8587130008756
 30
0.0
  0
POINT
  5
478B
330
46F1
100
AcDbEntity
  8
DEFPOINTS
 62
     0
100
AcDbPoint
 10
290.3935209125668
 20
148.9552608262571
 30
0.0
  0
POINT
  5
478C
330
46F1
100
AcDbEntity
  8
DEFPOINTS
 62
     0
100
AcDbPoint
 10
280.5929644405745
 20
143.9760551044045
 30
0.0
  0
ENDBLK
  5
46FE
330
46F1
100
AcDbEntity
  8
0
100
AcDbBlockEnd
  0
BLOCK
  5
4709
330
46FF
100
AcDbEntity
  8
0
100
AcDbBlockBegin
  2
*D15
 70
     1
 71
     0
 10
0.0
 20
0.0
 30
0.0
  3
*D15
  1

  0
LINE
  5
478D
330
46FF
100
AcDbEntity
  8
SUNPOU
370
    -2
100
AcDbLine
 10
294.6550301246588
 20
150.5595060286236
 30
0.0
 11
283.0738246164817
 21
173.354759917915
 31
0.0
  0
LINE
  5
478E
330
46FF
100
AcDbEntity
  8
SUNPOU
370
    -2
100
AcDbLine
 10
327.9985060133001
 20
167.4997712478107
 30
0.0
 11
316.417300505123
 21
190.2950251371021
 31
0.0
  0
LINE
  5
478F
330
46FF
100
AcDbEntity
  8
SUNPOU
370
    -2
100
AcDbLine
 10
286.4278574196484
 20
173.3762995391243
 30
0.0
 11
314.4221125201904
 21
187.5988751218432
 31
0.0
  0
INSERT
  5
4790
330
46FF
100
AcDbEntity
  8
SUNPOU
370
    -2
100
AcDbBlockReference
  2
_OPEN
 10
283.7532470255987
 20
172.0174547208902
 30
0.0
 41
3.0
 42
3.0
 43
3.0
 50
206.9329999999999
  0
INSERT
  5
4791
330
46FF
100
AcDbEntity
  8
SUNPOU
370
    -2
100
AcDbBlockReference
  2
_OPEN
 10
317.09672291424
 20
188.9577199400773
 30
0.0
 41
3.0
 42
3.0
 43
3.0
 50
26.93299999999997
  0
MTEXT
  5
4792
330
46FF
100
AcDbEntity
  8
SUNPOU
100
AcDbMText
 10
299.2926142880576
 20
182.7164293255251
 30
0.0
 40
3.0
 41
0.0
 71
     5
 72
     1
  1
\A1;37
 11
0.8915367980165379
 21
0.4529482727447131
 31
0.0
 73
     1
 44
1.0
  0
POINT
  5
4793
330
46FF
100
AcDbEntity
  8
DEFPOINTS
 62
     0
100
AcDbPoint
 10
296.013874942893
 20
147.8848956345739
 30
0.0
  0
POINT
  5
4794
330
46FF
100
AcDbEntity
  8
DEFPOINTS
 62
     0
100
AcDbPoint
 10
329.3573508315342
 20
164.8251608537611
 30
0.0
  0
POINT
  5
4795
330
46FF
100
AcDbEntity
  8
DEFPOINTS
 62
     0
100
AcDbPoint
 10
317.09672291424
 20
188.9577199400773
 30
0.0
  0
ENDBLK
  5
470A
330
46FF
100
AcDbEntity
  8
0
100
AcDbBlockEnd
  0
ENDSEC
  0
SECTION
  2
ENTITIES
  0
LWPOLYLINE
  5
ABF
330
1A
100
AcDbEntity
  8
ZUWAKU
100
AcDbPolyline
 90
        4
 70
     1
 43
0.0
 10
0.3999995171010369
 20
275.3999999613564
 10
0.3999995171010369
 20
0.3999999613564
 10
398.399999517101
 20
0.3999999613564
 10
398.399999517101
 20
275.3999999613564
  0
LWPOLYLINE
  5
AC0
330
1A
100
AcDbEntity
  8
ZUWAKU
100
AcDbPolyline
 90
        4
 70
     1
 43
0.0
 10
0.1999995171010482
 20
275.5999999613564
 10
0.1999995171010482
 20
0.1999999613564114
 10
398.5999995171011
 20
0.1999999613563999
 10
398.5999995171011
 20
275.5999999613564
  0
LWPOLYLINE
  5
AC1
330
1A
100
AcDbEntity
  8
ZUWAKU
100
AcDbPolyline
 90
        4
 70
     1
 43
0.0
 10
-0.0000004828989404
 20
275.7999999613564
 10
-0.0000004828989404
 20
-0.0000000386436341
 10
398.7999995171011
 20
-0.0000000386436003
 10
398.7999995171011
 20
275.7999999613564
  0
LWPOLYLINE
  5
AC2
330
1A
100
AcDbEntity
  8
ZUWAKU
100
AcDbPolyline
 90
        4
 70
     1
 43
0.0
 10
0.2999995171010141
 20
275.4999999613564
 10
0.2999995171010141
 20
0.2999999613563773
 10
398.4999995171012
 20
0.2999999613564004
 10
398.4999995171011
 20
275.4999999613564
  0
LWPOLYLINE
  5
AC3
330
1A
100
AcDbEntity
  8
ZUWAKU
100
AcDbPolyline
 90
        4
 70
     1
 43
0.0
 10
0.0999995171010255
 20
275.6999999613564
 10
0.0999995171010255
 20
0.0999999613563887
 10
398.699999517101
 20
0.0999999613564002
 10
398.6999995171011
 20
275.6999999613564
  0
LINE
  5
AC4
330
1A
100
AcDbEntity
  8
ZUWAKU
100
AcDbLine
 10
-0.0000004828989404
 20
14.99999996135637
 30
0.0
 11
398.699999517101
 21
14.99999996135637
 31
0.0
  0
LINE
  5
AC5
330
1A
100
AcDbEntity
  8
ZUWAKU
100
AcDbLine
 10
-0.0000004828989404
 20
15.09999996135637
 30
0.0
 11
398.699999517101
 21
15.09999996135637
 31
0.0
  0
LINE
  5
AC6
330
1A
100
AcDbEntity
  8
ZUWAKU
100
AcDbLine
 10
-0.0000004828989404
 20
15.19999996135637
 30
0.0
 11
398.699999517101
 21
15.19999996135637
 31
0.0
  0
LINE
  5
AC7
330
1A
100
AcDbEntity
  8
ZUWAKU
100
AcDbLine
 10
-0.0000004828989404
 20
15.29999996135637
 30
0.0
 11
398.699999517101
 21
15.29999996135637
 31
0.0
  0
LINE
  5
AC8
330
1A
100
AcDbEntity
  8
ZUWAKU
100
AcDbLine
 10
-0.0000004828989404
 20
15.39999996135637
 30
0.0
 11
398.699999517101
 21
15.39999996135637
 31
0.0
  0
LINE
  5
AC9
330
1A
100
AcDbEntity
  8
ZUWAKU
100
AcDbLine
 10
104.3233001621351
 20
7.699999961356383
 30
0.0
 11
223.7121815025968
 21
7.699999961356383
 31
0.0
  0
LINE
  5
ACA
330
1A
100
AcDbEntity
  8
ZUWAKU
100
AcDbLine
 10
104.3233001621351
 20
7.799999961356383
 30
0.0
 11
223.7121815025968
 21
7.799999961356386
 31
0.0
  0
LINE
  5
ACB
330
1A
100
AcDbEntity
  8
ZUWAKU
100
AcDbLine
 10
104.3233001621351
 20
7.599999961356385
 30
0.0
 11
223.7121815025968
 21
7.599999961356382
 31
0.0
  0
TEXT
  5
ACC
330
1A
100
AcDbEntity
  8
moji
100
AcDbText
 10
46.47889431118563
 20
6.370589026493747
 30
0.0
 40
3.0
  1
アーバントップΣ９０
 41
0.9
  7
ｽﾀｲﾙ1
100
AcDbText
  0
CIRCLE
  5
ACD
330
1A
100
AcDbEntity
  8
ZUWAKU
100
AcDbCircle
 10
12.99610559449161
 20
7.599999961356367
 30
0.0
 40
0.875
  0
LINE
  5
ACE
330
1A
100
AcDbEntity
  8
ZUWAKU
100
AcDbLine
 10
13.43360559449161
 20
3.574999961356369
 30
0.0
 11
12.47110559449163
 21
3.574999961356369
 31
0.0
  0
LINE
  5
ACF
330
1A
100
AcDbEntity
  8
ZUWAKU
100
AcDbLine
 10
12.47110559449163
 20
4.974999961356367
 30
0.0
 11
13.43360559449161
 21
4.974999961356367
 31
0.0
  0
LINE
  5
AD0
330
1A
100
AcDbEntity
  8
ZUWAKU
100
AcDbLine
 10
13.43360559449161
 20
10.22499996135637
 30
0.0
 11
12.47110559449163
 21
10.22499996135637
 31
0.0
  0
LINE
  5
AD1
330
1A
100
AcDbEntity
  8
ZUWAKU
100
AcDbLine
 10
12.47110559449163
 20
11.62499996135635
 30
0.0
 11
13.43360559449161
 21
11.62499996135637
 31
0.0
  0
HATCH
  5
AD2
330
1A
100
AcDbEntity
  8
ZUWAKU
100
AcDbHatch
 10
0.0
 20
0.0
 30
0.0
210
0.0
220
0.0
230
1.0
  2
ANSI37
 70
     0
 71
     0
 91
        8
 92
        7
 72
     1
 73
     1
 93
       24
 10
7.251130847660988
 20
8.822424201848158
 42
-0.1989123673796348
 10
7.046105594491621
 20
9.317398948678683
 42
0.0
 10
7.046105594491621
 20
9.962499961356372
 42
-0.4142135623730912
 10
7.30860559449161
 20
10.22499996135637
 42
0.0
 10
8.796105594491564
 20
10.22499996135637
 42
0.4142135623731546
 10
9.05860559449161
 20
10.48749996135636
 42
0.0
 10
9.05860559449161
 20
11.36249996135637
 42
0.4142135623731586
 10
8.796105594491564
 20
11.62499996135637
 42
0.0
 10
7.046105594491621
 20
11.62499996135637
 42
0.4142135623730928
 10
5.646105594491644
 20
10.22499996135638
 42
0.0
 10
5.646105594491644
 20
9.317398948678747
 42
0.1989123673796619
 10
6.261181353999859
 20
7.832474708186943
 42
0.0
 10
7.716080341322197
 20
6.377575720864614
 42
-0.1989123673796613
 10
7.921105594491621
 20
5.882600974034022
 42
0.0
 10
7.921105594491621
 20
5.237499961356363
 42
-0.4142135623730911
 10
7.658605594491633
 20
4.974999961356367
 42
0.0
 10
6.171105594491678
 20
4.974999961356367
 42
0.4142135623731526
 10
5.908605594491633
 20
4.712499961356373
 42
0.0
 10
5.908605594491633
 20
3.837499961356363
 42
0.4142135623731526
 10
6.171105594491678
 20
3.574999961356369
 42
0.0
 10
7.921105594491621
 20
3.574999961356369
 42
0.4142135623731044
 10
9.321105594491655
 20
4.974999961356357
 42
0.0
 10
9.321105594491655
 20
5.882600974033993
 42
0.1989123673796604
 10
8.706029834983383
 20
7.367525214525763
 42
0.0
 97
        0
 92
        7
 72
     1
 73
     1
 93
       16
 10
11.77110559449164
 20
9.524999961356372
 42
-0.4142135623730935
 10
12.47110559449163
 20
10.22499996135637
 42
0.0
 10
13.43360559449161
 20
10.22499996135637
 42
0.4142135623731546
 10
13.69610559449166
 20
10.48749996135636
 42
0.0
 10
13.69610559449166
 20
11.36249996135637
 42
0.4142135623730952
 10
13.43360559449167
 20
11.62499996135637
 42
0.0
 10
12.47110559449158
 20
11.62499996135635
 42
0.4142135623730892
 10
10.37110559449161
 20
9.524999961356336
 42
0.0
 10
10.37110559449161
 20
5.674999961356381
 42
0.4142135623730969
 10
12.47110559449163
 20
3.574999961356369
 42
0.0
 10
13.43360559449161
 20
3.574999961356369
 42
0.4142135623731526
 10
13.69610559449166
 20
3.837499961356363
 42
0.0
 10
13.69610559449166
 20
4.712499961356373
 42
0.414213562373089
 10
13.43360559449167
 20
4.974999961356367
 42
0.0
 10
12.47110559449163
 20
4.974999961356367
 42
-0.4142135623730928
 10
11.77110559449164
 20
5.674999961356361
 42
0.0
 97
        0
 92
        7
 72
     1
 73
     1
 93
        2
 10
12.12110559449161
 20
7.599999961356367
 42
1.0
 10
13.87110559449161
 20
7.599999961356367
 42
1.0
 97
        0
 92
        7
 72
     1
 73
     1
 93
       26
 10
18.65742883558062
 20
9.602523558138081
 42
0.0
 10
19.18824865214953
 20
11.28345297727288
 42
0.5069206636600134
 10
18.93793320255185
 20
11.62499996135637
 42
0.0
 10
18.08848851274723
 20
11.62499996135637
 42
0.3272098845218764
 10
17.83817306314955
 20
11.44154694543985
 42
0.0
 10
16.90403812583367
 20
8.483452977272908
 42
-0.3272098845219541
 10
16.65372267623593
 20
8.299999961356367
 42
0.0
 10
16.5836055944917
 20
8.299999961356367
 42
-0.4142135623731526
 10
16.32110559449166
 20
8.562499961356361
 42
0.0
 10
16.32110559449166
 20
11.36249996135637
 42
0.4142135623730952
 10
16.05860559449167
 20
11.62499996135637
 42
0.0
 10
15.18360559449161
 20
11.62499996135637
 42
0.4142135623730872
 10
14.92110559449162
 20
11.36249996135638
 42
0.0
 10
14.92110559449162
 20
3.837499961356363
 42
0.414213562373089
 10
15.18360559449161
 20
3.574999961356369
 42
0.0
 10
16.05860559449161
 20
3.574999961356369
 42
0.4142135623731526
 10
16.32110559449166
 20
3.837499961356363
 42
0.0
 10
16.32110559449166
 20
6.637499961356374
 42
-0.4142135623731526
 10
16.5836055944917
 20
6.899999961356368
 42
0.0
 10
16.65372267623599
 20
6.899999961356368
 42
-0.3272098845218915
 10
16.90403812583367
 20
6.716546945439831
 42
0.0
 10
17.83817306314955
 20
3.758452977272905
 42
0.3272098845218902
 10
18.08848851274723
 20
3.574999961356369
 42
0.0
 10
18.93793320255185
 20
3.574999961356369
 42
0.5069206636600334
 10
19.18824865214953
 20
3.916546945439873
 42
0.0
 10
18.0250529629127
 20
7.599999961356437
 42
0.0
 97
        0
 92
        7
 72
     1
 73
     1
 93
        8
 10
21.74610559449161
 20
11.36249996135637
 42
0.4142135623731546
 10
21.48360559449156
 20
11.62499996135637
 42
0.0
 10
20.60860559449168
 20
11.62499996135637
 42
0.4142135623731506
 10
20.34610559449163
 20
11.36249996135638
 42
0.0
 10
20.34610559449163
 20
3.837499961356363
 42
0.4142135623731526
 10
20.60860559449168
 20
3.574999961356369
 42
0.0
 10
21.48360559449156
 20
3.574999961356369
 42
0.4142135623731526
 10
21.74610559449161
 20
3.837499961356363
 42
0.0
 97
        0
 92
        7
 72
     1
 73
     1
 93
       24
 10
24.19610559449166
 20
9.962499961356372
 42
-0.4142135623731547
 10
24.4586055944917
 20
10.22499996135637
 42
0.0
 10
25.94610559449166
 20
10.22499996135637
 42
0.4142135623730911
 10
26.20860559449164
 20
10.48749996135636
 42
0.0
 10
26.20860559449164
 20
11.36249996135637
 42
0.4142135623730952
 10
25.94610559449166
 20
11.62499996135637
 42
0.0
 10
24.19610559449166
 20
11.62499996135637
 42
0.4142135623731048
 10
22.79610559449162
 20
10.22499996135638
 42
0.0
 10
22.79610559449162
 20
9.317398948678747
 42
0.1989123673796613
 10
23.41118135399989
 20
7.832474708186972
 42
0.0
 10
24.86608034132223
 20
6.377575720864638
 42
-0.1989123673796402
 10
25.07110559449166
 20
5.882600974034101
 42
0.0
 10
25.07110559449166
 20
5.237499961356363
 42
-0.4142135623730911
 10
24.80860559449167
 20
4.974999961356367
 42
0.0
 10
23.32110559449166
 20
4.974999961356367
 42
0.4142135623731526
 10
23.05860559449161
 20
4.712499961356373
 42
0.0
 10
23.05860559449161
 20
3.837499961356363
 42
0.414213562373089
 10
23.3211055944916
 20
3.574999961356369
 42
0.0
 10
25.07110559449166
 20
3.574999961356369
 42
0.4142135623730925
 10
26.47110559449163
 20
4.974999961356357
 42
0.0
 10
26.47110559449163
 20
5.882600974033993
 42
0.1989123673796675
 10
25.85602983498336
 20
7.36752521452582
 42
0.0
 10
24.40113084766108
 20
8.822424201848078
 42
-0.1989123673796653
 10
24.19610559449166
 20
9.317398948678662
 42
0.0
 97
        0
 92
        7
 72
     1
 73
     1
 93
       16
 10
28.92110559449162
 20
11.36249996135636
 42
0.414213562373103
 10
28.65860559449163
 20
11.62499996135637
 42
0.0
 10
27.78360559449163
 20
11.62499996135637
 42
0.4142135623730872
 10
27.52110559449164
 20
11.36249996135638
 42
0.0
 10
27.52110559449164
 20
4.974999961356357
 42
0.4142135623730925
 10
28.92110559449162
 20
3.574999961356369
 42
0.0
 10
30.67110559449162
 20
3.574999961356369
 42
0.4142135623731044
 10
32.07110559449166
 20
4.974999961356357
 42
0.0
 10
32.07110559449166
 20
11.36249996135637
 42
0.4142135623730952
 10
31.80860559449167
 20
11.62499996135637
 42
0.0
 10
30.93360559449161
 20
11.62499996135637
 42
0.4142135623730872
 10
30.67110559449162
 20
11.36249996135638
 42
0.0
 10
30.67110559449162
 20
5.499999961356355
 42
-0.414213562373088
 10
30.14610559449164
 20
4.974999961356367
 42
0.0
 10
29.44610559449166
 20
4.974999961356367
 42
-0.4142135623731197
 10
28.92110559449162
 20
5.499999961356355
 42
0.0
 97
        0
 92
        7
 72
     1
 73
     1
 93
        8
 10
34.52110559449164
 20
11.36249996135638
 42
0.4142135623730872
 10
34.25860559449166
 20
11.62499996135637
 42
0.0
 10
33.38360559449166
 20
11.62499996135637
 42
0.4142135623731506
 10
33.12110559449161
 20
11.36249996135638
 42
0.0
 10
33.12110559449161
 20
3.837499961356363
 42
0.414213562373089
 10
33.3836055944916
 20
3.574999961356369
 42
0.0
 10
34.25860559449166
 20
3.574999961356369
 42
0.414213562373089
 10
34.52110559449164
 20
3.837499961356363
 42
0.0
 97
        0
 75
     0
 76
     1
 52
0.0
 41
0.1
 77
     0
 78
     2
 53
45.0
 43
-450.4711526502384
 44
-6.6000000386436
 45
-0.2245064030267288
 46
0.2245064030267289
 79
     0
 53
135.0
 43
-450.4711526502384
 44
-6.6000000386436
 45
-0.2245064030267289
 46
-0.2245064030267288
 79
     0
 47
0.057451373970553
 98
        8
 10
8.039926998612714
 20
7.583586784299143
 10
11.20225702032064
 20
9.422031052581872
 10
12.58218345993089
 20
7.755940784391726
 10
15.45702950791963
 20
8.100648784577118
 10
20.91923552657943
 20
8.330454918347925
 10
23.44909996466583
 20
9.709288119559972
 10
28.27884250330124
 20
9.364578918903874
 10
33.91353932691243
 20
9.594385052674681
  0
ARC
  5
AD3
330
1A
100
AcDbEntity
  8
ZUWAKU
100
AcDbCircle
 10
7.74610559449161
 20
9.317398948678719
 30
0.0
 40
2.1
100
AcDbArc
 50
180.0
 51
225.0
  0
LINE
  5
AD4
330
1A
100
AcDbEntity
  8
ZUWAKU
100
AcDbLine
 10
10.37110559449161
 20
5.67499996135637
 30
0.0
 11
10.37110559449161
 21
9.524999961356347
 31
0.0
  0
LINE
  5
AD5
330
1A
100
AcDbEntity
  8
ZUWAKU
100
AcDbLine
 10
11.77110559449164
 20
9.524999961356368
 30
0.0
 11
11.77110559449164
 21
5.67499996135637
 31
0.0
  0
ARC
  5
AD6
330
1A
100
AcDbEntity
  8
ZUWAKU
100
AcDbCircle
 10
7.74610559449161
 20
9.317398948678719
 30
0.0
 40
0.7
100
AcDbArc
 50
180.0000000000016
 51
224.9999999999988
  0
ARC
  5
AD7
330
1A
100
AcDbEntity
  8
ZUWAKU
100
AcDbCircle
 10
12.47110559449163
 20
5.67499996135637
 30
0.0
 40
2.1
100
AcDbArc
 50
180.0
 51
270.0
  0
ARC
  5
AD8
330
1A
100
AcDbEntity
  8
ZUWAKU
100
AcDbCircle
 10
7.921105594491621
 20
4.974999961356367
 30
0.0
 40
1.4
100
AcDbArc
 50
270.0
 51
0.0
  0
ARC
  5
AD9
330
1A
100
AcDbEntity
  8
ZUWAKU
100
AcDbCircle
 10
7.221105594491633
 20
5.88260097403402
 30
0.0
 40
2.1
100
AcDbArc
 50
0.0
 51
45.0
  0
LINE
  5
ADA
330
1A
100
AcDbEntity
  8
ZUWAKU
100
AcDbLine
 10
6.261181353999859
 20
7.832474708186958
 30
0.0
 11
7.716080341322197
 21
6.377575720864627
 31
0.0
  0
LINE
  5
ADB
330
1A
100
AcDbEntity
  8
ZUWAKU
100
AcDbLine
 10
6.171105594491621
 20
4.974999961356367
 30
0.0
 11
7.658605594491633
 21
4.974999961356367
 31
0.0
  0
LINE
  5
ADC
330
1A
100
AcDbEntity
  8
ZUWAKU
100
AcDbLine
 10
6.171105594491621
 20
3.574999961356369
 30
0.0
 11
7.921105594491621
 21
3.574999961356369
 31
0.0
  0
ARC
  5
ADD
330
1A
100
AcDbEntity
  8
ZUWAKU
100
AcDbCircle
 10
6.171105594491621
 20
4.712499961356368
 30
0.0
 40
0.2625
100
AcDbArc
 50
90.0
 51
180.0
  0
ARC
  5
ADE
330
1A
100
AcDbEntity
  8
ZUWAKU
100
AcDbCircle
 10
6.171105594491621
 20
3.837499961356368
 30
0.0
 40
0.2625
100
AcDbArc
 50
180.0
 51
270.0
  0
LINE
  5
ADF
330
1A
100
AcDbEntity
  8
ZUWAKU
100
AcDbLine
 10
5.908605594491633
 20
3.837499961356368
 30
0.0
 11
5.908605594491633
 21
4.712499961356368
 31
0.0
  0
ARC
  5
AE0
330
1A
100
AcDbEntity
  8
ZUWAKU
100
AcDbCircle
 10
7.221105594491633
 20
5.882600974034041
 30
0.0
 40
0.7
100
AcDbArc
 50
0.0
 51
45.0
  0
ARC
  5
AE1
330
1A
100
AcDbEntity
  8
ZUWAKU
100
AcDbCircle
 10
7.658605594491633
 20
5.23749996135637
 30
0.0
 40
0.2625
100
AcDbArc
 50
270.0
 51
0.0
  0
LINE
  5
AE2
330
1A
100
AcDbEntity
  8
ZUWAKU
100
AcDbLine
 10
7.921105594491621
 20
5.23749996135637
 30
0.0
 11
7.921105594491621
 21
5.882600974034041
 31
0.0
  0
LINE
  5
AE3
330
1A
100
AcDbEntity
  8
ZUWAKU
100
AcDbLine
 10
8.706029834983383
 20
7.367525214525781
 30
0.0
 11
7.251130847661045
 21
8.822424201848119
 31
0.0
  0
ARC
  5
AE4
330
1A
100
AcDbEntity
  8
ZUWAKU
100
AcDbCircle
 10
12.47110559449163
 20
5.67499996135637
 30
0.0
 40
0.7
100
AcDbArc
 50
180.0
 51
270.0
  0
LINE
  5
AE5
330
1A
100
AcDbEntity
  8
ZUWAKU
100
AcDbLine
 10
9.321105594491655
 20
4.974999961356367
 30
0.0
 11
9.321105594491655
 21
5.882600974034041
 31
0.0
  0
ARC
  5
AE6
330
1A
100
AcDbEntity
  8
ZUWAKU
100
AcDbCircle
 10
8.796105594491621
 20
10.48749996135637
 30
0.0
 40
0.2625
100
AcDbArc
 50
270.0
 51
0.0
  0
ARC
  5
AE7
330
1A
100
AcDbEntity
  8
ZUWAKU
100
AcDbCircle
 10
8.796105594491621
 20
11.36249996135637
 30
0.0
 40
0.2625
100
AcDbArc
 50
0.0
 51
90.0
  0
ARC
  5
AE8
330
1A
100
AcDbEntity
  8
ZUWAKU
100
AcDbCircle
 10
7.046105594491621
 20
10.22499996135637
 30
0.0
 40
1.4
100
AcDbArc
 50
90.0
 51
180.0
  0
LINE
  5
AE9
330
1A
100
AcDbEntity
  8
ZUWAKU
100
AcDbLine
 10
5.646105594491644
 20
10.22499996135637
 30
0.0
 11
5.646105594491644
 21
9.317398948678697
 31
0.0
  0
LINE
  5
AEA
330
1A
100
AcDbEntity
  8
ZUWAKU
100
AcDbLine
 10
8.796105594491621
 20
10.22499996135637
 30
0.0
 11
7.30860559449161
 21
10.22499996135637
 31
0.0
  0
LINE
  5
AEB
330
1A
100
AcDbEntity
  8
ZUWAKU
100
AcDbLine
 10
7.046105594491621
 20
9.962499961356368
 30
0.0
 11
7.046105594491621
 21
9.317398948678697
 31
0.0
  0
ARC
  5
AEC
330
1A
100
AcDbEntity
  8
ZUWAKU
100
AcDbCircle
 10
7.30860559449161
 20
9.962499961356368
 30
0.0
 40
0.2625
100
AcDbArc
 50
90.0
 51
180.0
  0
LINE
  5
AED
330
1A
100
AcDbEntity
  8
ZUWAKU
100
AcDbLine
 10
7.046105594491621
 20
11.62499996135637
 30
0.0
 11
8.796105594491621
 21
11.62499996135637
 31
0.0
  0
ARC
  5
AEE
330
1A
100
AcDbEntity
  8
ZUWAKU
100
AcDbCircle
 10
12.47110559449163
 20
9.524999961356347
 30
0.0
 40
2.1
100
AcDbArc
 50
90.0
 51
180.0
  0
ARC
  5
AEF
330
1A
100
AcDbEntity
  8
ZUWAKU
100
AcDbCircle
 10
12.47110559449163
 20
9.524999961356368
 30
0.0
 40
0.7
100
AcDbArc
 50
90.0
 51
180.0
  0
LINE
  5
AF0
330
1A
100
AcDbEntity
  8
ZUWAKU
100
AcDbLine
 10
9.05860559449161
 20
11.36249996135637
 30
0.0
 11
9.05860559449161
 21
10.48749996135637
 31
0.0
  0
LINE
  5
AF1
330
1A
100
AcDbEntity
  8
ZUWAKU
100
AcDbLine
 10
17.83817306314955
 20
11.44154694543985
 30
0.0
 11
16.90403812583367
 21
8.483452977272883
 31
0.0
  0
LINE
  5
AF2
330
1A
100
AcDbEntity
  8
ZUWAKU
100
AcDbLine
 10
14.92110559449162
 20
11.36249996135637
 30
0.0
 11
14.92110559449162
 21
3.837499961356368
 31
0.0
  0
LINE
  5
AF3
330
1A
100
AcDbEntity
  8
ZUWAKU
100
AcDbLine
 10
16.32110559449166
 20
8.56249996135637
 30
0.0
 11
16.32110559449166
 21
11.36249996135637
 31
0.0
  0
LINE
  5
AF4
330
1A
100
AcDbEntity
  8
ZUWAKU
100
AcDbLine
 10
28.92110559449162
 20
5.499999961356366
 30
0.0
 11
28.92110559449162
 21
11.36249996135637
 31
0.0
  0
LINE
  5
AF5
330
1A
100
AcDbEntity
  8
ZUWAKU
100
AcDbLine
 10
27.52110559449164
 20
11.36249996135637
 30
0.0
 11
27.52110559449164
 21
4.974999961356367
 31
0.0
  0
LINE
  5
AF6
330
1A
100
AcDbEntity
  8
ZUWAKU
100
AcDbLine
 10
21.74610559449161
 20
3.837499961356368
 30
0.0
 11
21.74610559449161
 21
11.36249996135637
 31
0.0
  0
LINE
  5
AF7
330
1A
100
AcDbEntity
  8
ZUWAKU
100
AcDbLine
 10
20.34610559449163
 20
11.36249996135637
 30
0.0
 11
20.34610559449163
 21
3.837499961356368
 31
0.0
  0
LINE
  5
AF8
330
1A
100
AcDbEntity
  8
ZUWAKU
100
AcDbLine
 10
18.65742883558062
 20
9.602523558138081
 30
0.0
 11
18.0250529629127
 21
7.599999961356378
 31
0.0
  0
ARC
  5
AF9
330
1A
100
AcDbEntity
  8
ZUWAKU
100
AcDbCircle
 10
24.89610559449164
 20
9.317398948678719
 30
0.0
 40
2.1
100
AcDbArc
 50
180.0
 51
225.0
  0
ARC
  5
AFA
330
1A
100
AcDbEntity
  8
ZUWAKU
100
AcDbCircle
 10
24.89610559449164
 20
9.317398948678719
 30
0.0
 40
0.7
100
AcDbArc
 50
180.0000000000016
 51
224.9999999999988
  0
LINE
  5
AFB
330
1A
100
AcDbEntity
  8
ZUWAKU
100
AcDbLine
 10
33.12110559449161
 20
11.36249996135637
 30
0.0
 11
33.12110559449161
 21
3.837499961356368
 31
0.0
  0
LINE
  5
AFC
330
1A
100
AcDbEntity
  8
ZUWAKU
100
AcDbLine
 10
34.52110559449164
 20
3.837499961356368
 30
0.0
 11
34.52110559449164
 21
11.36249996135637
 31
0.0
  0
LINE
  5
AFD
330
1A
100
AcDbEntity
  8
ZUWAKU
100
AcDbLine
 10
30.67110559449162
 20
11.36249996135637
 30
0.0
 11
30.67110559449162
 21
5.499999961356366
 31
0.0
  0
LINE
  5
AFE
330
1A
100
AcDbEntity
  8
ZUWAKU
100
AcDbLine
 10
32.07110559449166
 20
4.974999961356367
 30
0.0
 11
32.07110559449166
 21
11.36249996135637
 31
0.0
  0
LINE
  5
AFF
330
1A
100
AcDbEntity
  8
ZUWAKU
100
AcDbLine
 10
39.56331429109525
 20
14.99999996135637
 30
0.0
 11
39.56331429109525
 21
0.3999999613564
 31
0.0
  0
LINE
  5
B00
330
1A
100
AcDbEntity
  8
ZUWAKU
100
AcDbLine
 10
39.76331429109519
 20
14.99999996135637
 30
0.0
 11
39.7633142910953
 21
0.3999999613564
 31
0.0
  0
LINE
  5
B01
330
1A
100
AcDbEntity
  8
ZUWAKU
100
AcDbLine
 10
39.66331429109516
 20
14.99999996135637
 30
0.0
 11
39.66331429109528
 21
0.3999999613564
 31
0.0
  0
LINE
  5
B02
330
1A
100
AcDbEntity
  8
ZUWAKU
100
AcDbLine
 10
28.92110559449162
 20
3.574999961356369
 30
0.0
 11
30.67110559449162
 21
3.574999961356369
 31
0.0
  0
LINE
  5
B03
330
1A
100
AcDbEntity
  8
ZUWAKU
100
AcDbLine
 10
30.14610559449164
 20
4.974999961356367
 30
0.0
 11
29.44610559449166
 21
4.974999961356367
 31
0.0
  0
LINE
  5
B04
330
1A
100
AcDbEntity
  8
ZUWAKU
100
AcDbLine
 10
20.60860559449162
 20
3.574999961356369
 30
0.0
 11
21.48360559449162
 21
3.574999961356369
 31
0.0
  0
LINE
  5
B05
330
1A
100
AcDbEntity
  8
ZUWAKU
100
AcDbLine
 10
17.83817306314955
 20
3.758452977272881
 30
0.0
 11
16.90403812583367
 21
6.716546945439852
 31
0.0
  0
ARC
  5
B06
330
1A
100
AcDbEntity
  8
ZUWAKU
100
AcDbCircle
 10
16.58360559449164
 20
6.637499961356369
 30
0.0
 40
0.2625
100
AcDbArc
 50
90.0
 51
180.0
  0
ARC
  5
B07
330
1A
100
AcDbEntity
  8
ZUWAKU
100
AcDbCircle
 10
16.65372267623599
 20
6.637499961356369
 30
0.0
 40
0.2625
100
AcDbArc
 50
17.52556837372303
 51
90.0
  0
ARC
  5
B08
330
1A
100
AcDbEntity
  8
ZUWAKU
100
AcDbCircle
 10
15.18360559449161
 20
3.837499961356368
 30
0.0
 40
0.2625
100
AcDbArc
 50
180.0
 51
270.0
  0
ARC
  5
B09
330
1A
100
AcDbEntity
  8
ZUWAKU
100
AcDbCircle
 10
13.43360559449161
 20
4.712499961356368
 30
0.0
 40
0.2625
100
AcDbArc
 50
0.0
 51
90.0
  0
ARC
  5
B0A
330
1A
100
AcDbEntity
  8
ZUWAKU
100
AcDbCircle
 10
13.43360559449161
 20
3.837499961356368
 30
0.0
 40
0.2625
100
AcDbArc
 50
270.0
 51
0.0
  0
LINE
  5
B0B
330
1A
100
AcDbEntity
  8
ZUWAKU
100
AcDbLine
 10
13.69610559449166
 20
4.712499961356368
 30
0.0
 11
13.69610559449166
 21
3.837499961356368
 31
0.0
  0
LINE
  5
B0C
330
1A
100
AcDbEntity
  8
ZUWAKU
100
AcDbLine
 10
16.32110559449166
 20
3.837499961356368
 30
0.0
 11
16.32110559449166
 21
6.637499961356369
 31
0.0
  0
ARC
  5
B0D
330
1A
100
AcDbEntity
  8
ZUWAKU
100
AcDbCircle
 10
16.05860559449161
 20
3.837499961356368
 30
0.0
 40
0.2625
100
AcDbArc
 50
270.0
 51
0.0
  0
LINE
  5
B0E
330
1A
100
AcDbEntity
  8
ZUWAKU
100
AcDbLine
 10
15.18360559449161
 20
3.574999961356369
 30
0.0
 11
16.05860559449161
 21
3.574999961356369
 31
0.0
  0
ARC
  5
B0F
330
1A
100
AcDbEntity
  8
ZUWAKU
100
AcDbCircle
 10
16.58360559449164
 20
8.56249996135637
 30
0.0
 40
0.2625
100
AcDbArc
 50
180.0
 51
270.0
  0
LINE
  5
B10
330
1A
100
AcDbEntity
  8
ZUWAKU
100
AcDbLine
 10
16.58360559449164
 20
6.899999961356368
 30
0.0
 11
16.65372267623599
 21
6.899999961356368
 31
0.0
  0
LINE
  5
B11
330
1A
100
AcDbEntity
  8
ZUWAKU
100
AcDbLine
 10
16.65372267623599
 20
8.299999961356367
 30
0.0
 11
16.58360559449164
 21
8.299999961356367
 31
0.0
  0
ARC
  5
B12
330
1A
100
AcDbEntity
  8
ZUWAKU
100
AcDbCircle
 10
16.65372267623599
 20
8.56249996135637
 30
0.0
 40
0.2625
100
AcDbArc
 50
270.0
 51
342.474431626277
  0
ARC
  5
B13
330
1A
100
AcDbEntity
  8
ZUWAKU
100
AcDbCircle
 10
18.08848851274729
 20
3.837499961356368
 30
0.0
 40
0.2625
100
AcDbArc
 50
197.525568373723
 51
270.0
  0
LINE
  5
B14
330
1A
100
AcDbEntity
  8
ZUWAKU
100
AcDbLine
 10
19.18824865214953
 20
3.916546945439855
 30
0.0
 11
18.0250529629127
 21
7.599999961356378
 31
0.0
  0
ARC
  5
B15
330
1A
100
AcDbEntity
  8
ZUWAKU
100
AcDbCircle
 10
18.93793320255179
 20
3.837499961356368
 30
0.0
 40
0.2625
100
AcDbArc
 50
270.0
 51
17.52556837372303
  0
LINE
  5
B16
330
1A
100
AcDbEntity
  8
ZUWAKU
100
AcDbLine
 10
18.08848851274729
 20
3.574999961356369
 30
0.0
 11
18.93793320255179
 21
3.574999961356369
 31
0.0
  0
ARC
  5
B17
330
1A
100
AcDbEntity
  8
ZUWAKU
100
AcDbCircle
 10
20.60860559449162
 20
3.837499961356368
 30
0.0
 40
0.2625
100
AcDbArc
 50
180.0
 51
270.0
  0
ARC
  5
B18
330
1A
100
AcDbEntity
  8
ZUWAKU
100
AcDbCircle
 10
25.07110559449166
 20
4.974999961356367
 30
0.0
 40
1.4
100
AcDbArc
 50
270.0
 51
0.0
  0
ARC
  5
B19
330
1A
100
AcDbEntity
  8
ZUWAKU
100
AcDbCircle
 10
28.92110559449162
 20
4.974999961356367
 30
0.0
 40
1.4
100
AcDbArc
 50
180.0
 51
270.0
  0
LINE
  5
B1A
330
1A
100
AcDbEntity
  8
ZUWAKU
100
AcDbLine
 10
25.85602983498342
 20
7.367525214525781
 30
0.0
 11
24.40113084766102
 21
8.822424201848119
 31
0.0
  0
LINE
  5
B1B
330
1A
100
AcDbEntity
  8
ZUWAKU
100
AcDbLine
 10
23.41118135399989
 20
7.832474708186958
 30
0.0
 11
24.86608034132223
 21
6.377575720864627
 31
0.0
  0
LINE
  5
B1C
330
1A
100
AcDbEntity
  8
ZUWAKU
100
AcDbLine
 10
23.32110559449166
 20
3.574999961356369
 30
0.0
 11
25.07110559449166
 21
3.574999961356369
 31
0.0
  0
LINE
  5
B1D
330
1A
100
AcDbEntity
  8
ZUWAKU
100
AcDbLine
 10
23.32110559449166
 20
4.974999961356367
 30
0.0
 11
24.80860559449161
 21
4.974999961356367
 31
0.0
  0
ARC
  5
B1E
330
1A
100
AcDbEntity
  8
ZUWAKU
100
AcDbCircle
 10
23.32110559449166
 20
4.712499961356368
 30
0.0
 40
0.2625
100
AcDbArc
 50
90.0
 51
180.0
  0
ARC
  5
B1F
330
1A
100
AcDbEntity
  8
ZUWAKU
100
AcDbCircle
 10
21.48360559449162
 20
3.837499961356368
 30
0.0
 40
0.2625
100
AcDbArc
 50
270.0
 51
0.0
  0
ARC
  5
B20
330
1A
100
AcDbEntity
  8
ZUWAKU
100
AcDbCircle
 10
23.32110559449166
 20
3.837499961356368
 30
0.0
 40
0.2625
100
AcDbArc
 50
180.0
 51
270.0
  0
LINE
  5
B21
330
1A
100
AcDbEntity
  8
ZUWAKU
100
AcDbLine
 10
23.05860559449161
 20
3.837499961356368
 30
0.0
 11
23.05860559449161
 21
4.712499961356368
 31
0.0
  0
ARC
  5
B22
330
1A
100
AcDbEntity
  8
ZUWAKU
100
AcDbCircle
 10
24.80860559449161
 20
5.23749996135637
 30
0.0
 40
0.2625
100
AcDbArc
 50
270.0
 51
0.0
  0
ARC
  5
B23
330
1A
100
AcDbEntity
  8
ZUWAKU
100
AcDbCircle
 10
24.37110559449161
 20
5.882600974034041
 30
0.0
 40
0.7
100
AcDbArc
 50
0.0
 51
45.0
  0
LINE
  5
B24
330
1A
100
AcDbEntity
  8
ZUWAKU
100
AcDbLine
 10
25.07110559449166
 20
5.23749996135637
 30
0.0
 11
25.07110559449166
 21
5.882600974034041
 31
0.0
  0
ARC
  5
B25
330
1A
100
AcDbEntity
  8
ZUWAKU
100
AcDbCircle
 10
29.44610559449166
 20
5.499999961356366
 30
0.0
 40
0.5249999999999999
100
AcDbArc
 50
180.0
 51
270.0
  0
ARC
  5
B26
330
1A
100
AcDbEntity
  8
ZUWAKU
100
AcDbCircle
 10
24.37110559449161
 20
5.88260097403402
 30
0.0
 40
2.1
100
AcDbArc
 50
0.0
 51
45.0
  0
LINE
  5
B27
330
1A
100
AcDbEntity
  8
ZUWAKU
100
AcDbLine
 10
26.47110559449163
 20
4.974999961356367
 30
0.0
 11
26.47110559449163
 21
5.882600974034041
 31
0.0
  0
ARC
  5
B28
330
1A
100
AcDbEntity
  8
ZUWAKU
100
AcDbCircle
 10
30.67110559449162
 20
4.974999961356367
 30
0.0
 40
1.4
100
AcDbArc
 50
270.0
 51
0.0
  0
LINE
  5
B29
330
1A
100
AcDbEntity
  8
ZUWAKU
100
AcDbLine
 10
33.38360559449166
 20
3.574999961356369
 30
0.0
 11
34.25860559449166
 21
3.574999961356369
 31
0.0
  0
ARC
  5
B2A
330
1A
100
AcDbEntity
  8
ZUWAKU
100
AcDbCircle
 10
30.14610559449164
 20
5.499999961356366
 30
0.0
 40
0.5249999999999999
100
AcDbArc
 50
270.0
 51
0.0
  0
ARC
  5
B2B
330
1A
100
AcDbEntity
  8
ZUWAKU
100
AcDbCircle
 10
33.38360559449166
 20
3.837499961356368
 30
0.0
 40
0.2625
100
AcDbArc
 50
180.0
 51
270.0
  0
ARC
  5
B2C
330
1A
100
AcDbEntity
  8
ZUWAKU
100
AcDbCircle
 10
34.25860559449166
 20
3.837499961356368
 30
0.0
 40
0.2625
100
AcDbArc
 50
270.0
 51
0.0
  0
LINE
  5
B2D
330
1A
100
AcDbEntity
  8
ZUWAKU
100
AcDbLine
 10
21.48360559449162
 20
11.62499996135637
 30
0.0
 11
20.60860559449162
 21
11.62499996135637
 31
0.0
  0
LINE
  5
B2E
330
1A
100
AcDbEntity
  8
ZUWAKU
100
AcDbLine
 10
13.69610559449166
 20
11.36249996135637
 30
0.0
 11
13.69610559449166
 21
10.48749996135637
 31
0.0
  0
ARC
  5
B2F
330
1A
100
AcDbEntity
  8
ZUWAKU
100
AcDbCircle
 10
13.43360559449161
 20
10.48749996135637
 30
0.0
 40
0.2625
100
AcDbArc
 50
270.0
 51
0.0
  0
ARC
  5
B30
330
1A
100
AcDbEntity
  8
ZUWAKU
100
AcDbCircle
 10
15.18360559449161
 20
11.36249996135637
 30
0.0
 40
0.2625
100
AcDbArc
 50
90.0
 51
180.0
  0
ARC
  5
B31
330
1A
100
AcDbEntity
  8
ZUWAKU
100
AcDbCircle
 10
13.43360559449161
 20
11.36249996135637
 30
0.0
 40
0.2625
100
AcDbArc
 50
0.0
 51
90.0
  0
LINE
  5
B32
330
1A
100
AcDbEntity
  8
ZUWAKU
100
AcDbLine
 10
16.05860559449161
 20
11.62499996135637
 30
0.0
 11
15.18360559449161
 21
11.62499996135637
 31
0.0
  0
ARC
  5
B33
330
1A
100
AcDbEntity
  8
ZUWAKU
100
AcDbCircle
 10
16.05860559449161
 20
11.36249996135637
 30
0.0
 40
0.2625
100
AcDbArc
 50
0.0
 51
90.0
  0
ARC
  5
B34
330
1A
100
AcDbEntity
  8
ZUWAKU
100
AcDbCircle
 10
18.08848851274729
 20
11.36249996135637
 30
0.0
 40
0.2625
100
AcDbArc
 50
90.0
 51
162.474431626277
  0
LINE
  5
B35
330
1A
100
AcDbEntity
  8
ZUWAKU
100
AcDbLine
 10
19.18824865214953
 20
11.28345297727288
 30
0.0
 11
18.65742883558062
 21
9.602523558138081
 31
0.0
  0
ARC
  5
B36
330
1A
100
AcDbEntity
  8
ZUWAKU
100
AcDbCircle
 10
18.93793320255179
 20
11.36249996135637
 30
0.0
 40
0.2625
100
AcDbArc
 50
342.474431626277
 51
90.0
  0
LINE
  5
B37
330
1A
100
AcDbEntity
  8
ZUWAKU
100
AcDbLine
 10
18.08848851274729
 20
11.62499996135637
 30
0.0
 11
18.93793320255179
 21
11.62499996135637
 31
0.0
  0
ARC
  5
B38
330
1A
100
AcDbEntity
  8
ZUWAKU
100
AcDbCircle
 10
20.60860559449162
 20
11.36249996135637
 30
0.0
 40
0.2625
100
AcDbArc
 50
90.0
 51
180.0
  0
LINE
  5
B39
330
1A
100
AcDbEntity
  8
ZUWAKU
100
AcDbLine
 10
25.94610559449166
 20
10.22499996135637
 30
0.0
 11
24.45860559449164
 21
10.22499996135637
 31
0.0
  0
LINE
  5
B3A
330
1A
100
AcDbEntity
  8
ZUWAKU
100
AcDbLine
 10
24.19610559449166
 20
11.62499996135637
 30
0.0
 11
25.94610559449166
 21
11.62499996135637
 31
0.0
  0
ARC
  5
B3B
330
1A
100
AcDbEntity
  8
ZUWAKU
100
AcDbCircle
 10
24.19610559449166
 20
10.22499996135637
 30
0.0
 40
1.4
100
AcDbArc
 50
90.0
 51
180.0
  0
LINE
  5
B3C
330
1A
100
AcDbEntity
  8
ZUWAKU
100
AcDbLine
 10
22.79610559449162
 20
10.22499996135637
 30
0.0
 11
22.79610559449162
 21
9.317398948678697
 31
0.0
  0
ARC
  5
B3D
330
1A
100
AcDbEntity
  8
ZUWAKU
100
AcDbCircle
 10
21.48360559449162
 20
11.36249996135637
 30
0.0
 40
0.2625
100
AcDbArc
 50
0.0
 51
90.0
  0
LINE
  5
B3E
330
1A
100
AcDbEntity
  8
ZUWAKU
100
AcDbLine
 10
24.19610559449166
 20
9.962499961356368
 30
0.0
 11
24.19610559449166
 21
9.317398948678697
 31
0.0
  0
ARC
  5
B3F
330
1A
100
AcDbEntity
  8
ZUWAKU
100
AcDbCircle
 10
24.45860559449164
 20
9.962499961356368
 30
0.0
 40
0.2625
100
AcDbArc
 50
90.0
 51
180.0
  0
LINE
  5
B40
330
1A
100
AcDbEntity
  8
ZUWAKU
100
AcDbLine
 10
26.20860559449164
 20
11.36249996135637
 30
0.0
 11
26.20860559449164
 21
10.48749996135637
 31
0.0
  0
ARC
  5
B41
330
1A
100
AcDbEntity
  8
ZUWAKU
100
AcDbCircle
 10
25.94610559449166
 20
10.48749996135637
 30
0.0
 40
0.2625
100
AcDbArc
 50
270.0
 51
0.0
  0
ARC
  5
B42
330
1A
100
AcDbEntity
  8
ZUWAKU
100
AcDbCircle
 10
25.94610559449166
 20
11.36249996135637
 30
0.0
 40
0.2625
100
AcDbArc
 50
0.0
 51
90.0
  0
LINE
  5
B43
330
1A
100
AcDbEntity
  8
ZUWAKU
100
AcDbLine
 10
28.65860559449163
 20
11.62499996135637
 30
0.0
 11
27.78360559449163
 21
11.62499996135637
 31
0.0
  0
ARC
  5
B44
330
1A
100
AcDbEntity
  8
ZUWAKU
100
AcDbCircle
 10
27.78360559449163
 20
11.36249996135637
 30
0.0
 40
0.2625
100
AcDbArc
 50
90.0
 51
180.0
  0
ARC
  5
B45
330
1A
100
AcDbEntity
  8
ZUWAKU
100
AcDbCircle
 10
28.65860559449163
 20
11.36249996135637
 30
0.0
 40
0.2625
100
AcDbArc
 50
0.0
 51
90.0
  0
LINE
  5
B46
330
1A
100
AcDbEntity
  8
ZUWAKU
100
AcDbLine
 10
34.25860559449166
 20
11.62499996135637
 30
0.0
 11
33.38360559449166
 21
11.62499996135637
 31
0.0
  0
ARC
  5
B47
330
1A
100
AcDbEntity
  8
ZUWAKU
100
AcDbCircle
 10
30.93360559449161
 20
11.36249996135637
 30
0.0
 40
0.2625
100
AcDbArc
 50
90.0
 51
180.0
  0
LINE
  5
B48
330
1A
100
AcDbEntity
  8
ZUWAKU
100
AcDbLine
 10
31.80860559449161
 20
11.62499996135637
 30
0.0
 11
30.93360559449161
 21
11.62499996135637
 31
0.0
  0
ARC
  5
B49
330
1A
100
AcDbEntity
  8
ZUWAKU
100
AcDbCircle
 10
31.80860559449161
 20
11.36249996135637
 30
0.0
 40
0.2625
100
AcDbArc
 50
0.0
 51
90.0
  0
ARC
  5
B4A
330
1A
100
AcDbEntity
  8
ZUWAKU
100
AcDbCircle
 10
33.38360559449166
 20
11.36249996135637
 30
0.0
 40
0.2625
100
AcDbArc
 50
90.0
 51
180.0
  0
ARC
  5
B4B
330
1A
100
AcDbEntity
  8
ZUWAKU
100
AcDbCircle
 10
34.25860559449166
 20
11.36249996135637
 30
0.0
 40
0.2625
100
AcDbArc
 50
0.0
 51
90.0
  0
LINE
  5
B4C
330
1A
100
AcDbEntity
  8
ZUWAKU
100
AcDbLine
 10
104.2233001621349
 20
14.99999996135637
 30
0.0
 11
104.2233001621351
 21
0.3999999613564
 31
0.0
  0
LINE
  5
B4D
330
1A
100
AcDbEntity
  8
ZUWAKU
100
AcDbLine
 10
104.323300162135
 20
14.99999996135637
 30
0.0
 11
104.3233001621351
 21
0.3999999613564
 31
0.0
  0
LINE
  5
B4E
330
1A
100
AcDbEntity
  8
ZUWAKU
100
AcDbLine
 10
104.123300162135
 20
14.99999996135637
 30
0.0
 11
104.123300162135
 21
0.3999999613564
 31
0.0
  0
TEXT
  5
B4F
330
1A
100
AcDbEntity
  8
moji
100
AcDbText
 10
119.9136008575266
 20
9.002460490060059
 30
0.0
 40
2.8
  1
ステンレス金具正面打（吊）ワンタッチ自在式
 41
0.9
  7
ｽﾀｲﾙ1
100
AcDbText
  0
TEXT
  5
B50
330
1A
100
AcDbEntity
  8
ZUWAKU
100
AcDbText
 10
104.8620226732398
 20
4.827678230549175
 30
0.0
 40
2.0
  1
サイズ
 41
0.9
  7
ｽﾀｲﾙ1
100
AcDbText
  0
TEXT
  5
B51
330
1A
100
AcDbEntity
  8
moji
100
AcDbText
 10
119.9136008575266
 20
1.602460490060077
 30
0.0
 40
2.8
  1
Σ９０－５－１０～４５
 41
0.9
  7
ｽﾀｲﾙ1
100
AcDbText
  0
TEXT
  5
B52
330
1A
100
AcDbEntity
  8
ZUWAKU
100
AcDbText
 10
104.8620226732397
 20
12.02767823054916
 30
0.0
 40
2.0
  1
品名
 41
0.9
  7
ｽﾀｲﾙ1
100
AcDbText
  0
TEXT
  5
B53
330
1A
100
AcDbEntity
  8
ZUWAKU
100
AcDbText
 10
329.1019683607523
 20
9.002460490060059
 30
0.0
 40
2.8
  1
　　．　　．　　
 41
0.9
  7
ｽﾀｲﾙ1
100
AcDbText
  0
LINE
  5
B54
330
1A
100
AcDbEntity
  8
ZUWAKU
100
AcDbLine
 10
324.4086007722032
 20
7.799999961356383
 30
0.0
 11
348.6245047913717
 21
7.799999961356383
 31
0.0
  0
LINE
  5
B55
330
1A
100
AcDbEntity
  8
ZUWAKU
100
AcDbLine
 10
324.4086007722033
 20
7.699999961356385
 30
0.0
 11
348.6245047913717
 21
7.699999961356383
 31
0.0
  0
LINE
  5
B56
330
1A
100
AcDbEntity
  8
ZUWAKU
100
AcDbLine
 10
324.4086007722032
 20
7.599999961356382
 30
0.0
 11
348.6245047913717
 21
7.599999961356383
 31
0.0
  0
LINE
  5
B57
330
1A
100
AcDbEntity
  8
ZUWAKU
100
AcDbLine
 10
252.5995892661715
 20
7.799999961356383
 30
0.0
 11
276.2634774001573
 21
7.799999961356383
 31
0.0
  0
LINE
  5
B58
330
1A
100
AcDbEntity
  8
ZUWAKU
100
AcDbLine
 10
252.5995892661715
 20
7.699999961356383
 30
0.0
 11
276.2634774001573
 21
7.699999961356383
 31
0.0
  0
LINE
  5
B59
330
1A
100
AcDbEntity
  8
ZUWAKU
100
AcDbLine
 10
252.5995892661715
 20
7.599999961356385
 30
0.0
 11
276.2634774001573
 21
7.599999961356385
 31
0.0
  0
LINE
  5
B5A
330
1A
100
AcDbEntity
  8
ZUWAKU
100
AcDbLine
 10
252.3995892661716
 20
14.99999996135637
 30
0.0
 11
252.3995892661716
 21
0.3999999613564
 31
0.0
  0
LINE
  5
B5B
330
1A
100
AcDbEntity
  8
ZUWAKU
100
AcDbLine
 10
252.5995892661715
 20
14.99999996135637
 30
0.0
 11
252.5995892661716
 21
0.3999999613564
 31
0.0
  0
LINE
  5
B5C
330
1A
100
AcDbEntity
  8
ZUWAKU
100
AcDbLine
 10
252.4995892661715
 20
14.99999996135637
 30
0.0
 11
252.4995892661716
 21
0.3999999613564
 31
0.0
  0
TEXT
  5
B5D
330
1A
100
AcDbEntity
  8
moji
100
AcDbText
 10
264.0204535032575
 20
9.002460490060059
 30
0.0
 40
2.8
  1
Ａ３
 41
0.9
  7
ｽﾀｲﾙ1
100
AcDbText
  0
LINE
  5
B5E
330
1A
100
AcDbEntity
  8
ZUWAKU
100
AcDbLine
 10
223.7121815025968
 20
14.99999996135637
 30
0.0
 11
223.7121815025968
 21
0.3999999613564
 31
0.0
  0
LINE
  5
B5F
330
1A
100
AcDbEntity
  8
ZUWAKU
100
AcDbLine
 10
223.9121815025967
 20
14.99999996135637
 30
0.0
 11
223.9121815025968
 21
0.3999999613564
 31
0.0
  0
LINE
  5
B60
330
1A
100
AcDbEntity
  8
ZUWAKU
100
AcDbLine
 10
223.8121815025967
 20
14.99999996135637
 30
0.0
 11
223.8121815025968
 21
0.3999999613564
 31
0.0
  0
TEXT
  5
B61
330
1A
100
AcDbEntity
  8
moji
100
AcDbText
 10
231.2836386780954
 20
5.971308822186359
 30
0.0
 40
2.8
  1
ＬＬ８２Ｇ
 41
0.9
  7
ｽﾀｲﾙ1
100
AcDbText
  0
TEXT
  5
B63
330
1A
100
AcDbEntity
  8
ZUWAKU
100
AcDbText
 10
253.3383117772764
 20
4.827678230549175
 30
0.0
 40
2.0
  1
縮尺
 41
0.9
  7
ｽﾀｲﾙ1
100
AcDbText
  0
TEXT
  5
B64
330
1A
100
AcDbEntity
  8
moji
100
AcDbText
 10
264.0204535032575
 20
1.602460490060077
 30
0.0
 40
2.8
  1
１/１
 41
0.9
  7
ｽﾀｲﾙ1
100
AcDbText
  0
TEXT
  5
B65
330
1A
100
AcDbEntity
  8
ZUWAKU
100
AcDbText
 10
224.6509040137015
 20
12.02767823054916
 30
0.0
 40
2.0
  1
品番
 41
0.9
  7
ｽﾀｲﾙ1
100
AcDbText
  0
TEXT
  5
B66
330
1A
100
AcDbEntity
  8
ZUWAKU
100
AcDbText
 10
253.3383117772763
 20
12.02767823054916
 30
0.0
 40
2.0
  1
用紙
 41
0.9
  7
ｽﾀｲﾙ1
100
AcDbText
  0
LINE
  5
B67
330
1A
100
AcDbEntity
  8
ZUWAKU
100
AcDbLine
 10
276.2634774001573
 20
14.99999996135637
 30
0.0
 11
276.2634774001573
 21
0.3999999613564
 31
0.0
  0
LINE
  5
B68
330
1A
100
AcDbEntity
  8
ZUWAKU
100
AcDbLine
 10
276.4634774001572
 20
14.99999996135637
 30
0.0
 11
276.4634774001573
 21
0.3999999613564
 31
0.0
  0
LINE
  5
B69
330
1A
100
AcDbEntity
  8
ZUWAKU
100
AcDbLine
 10
276.3634774001572
 20
14.99999996135637
 30
0.0
 11
276.3634774001573
 21
0.3999999613564
 31
0.0
  0
LINE
  5
B6A
330
1A
100
AcDbEntity
  8
ZUWAKU
100
AcDbLine
 10
324.2086007722033
 20
14.99999996135637
 30
0.0
 11
324.2086007722033
 21
0.3999999613564
 31
0.0
  0
LINE
  5
B6B
330
1A
100
AcDbEntity
  8
ZUWAKU
100
AcDbLine
 10
324.4086007722033
 20
14.99999996135637
 30
0.0
 11
324.4086007722034
 21
0.3999999613564
 31
0.0
  0
LINE
  5
B6C
330
1A
100
AcDbEntity
  8
ZUWAKU
100
AcDbLine
 10
324.3086007722033
 20
14.99999996135637
 30
0.0
 11
324.3086007722034
 21
0.3999999613564
 31
0.0
  0
TEXT
  5
B6D
330
1A
100
AcDbEntity
  8
ZUWAKU
100
AcDbText
 10
325.1473232833081
 20
12.02767823054916
 30
0.0
 40
2.0
  1
DATE
 41
0.9
  7
ｽﾀｲﾙ1
100
AcDbText
  0
TEXT
  5
B6E
330
1A
100
AcDbEntity
  8
ZUWAKU
100
AcDbText
 10
354.264041613223
 20
8.776919629199767
 30
0.0
 40
3.0
  1
積水化学工業株式会社
 41
0.9
  7
ｽﾀｲﾙ1
100
AcDbText
  0
LINE
  5
B6F
330
1A
100
AcDbEntity
  8
ZUWAKU
100
AcDbLine
 10
348.9245047913717
 20
14.99999996135637
 30
0.0
 11
348.9245047913718
 21
0.3999999613564
 31
0.0
  0
LINE
  5
B70
330
1A
100
AcDbEntity
  8
ZUWAKU
100
AcDbLine
 10
348.8245047913716
 20
14.99999996135637
 30
0.0
 11
348.8245047913717
 21
0.3999999613564
 31
0.0
  0
LINE
  5
B71
330
1A
100
AcDbEntity
  8
ZUWAKU
100
AcDbLine
 10
348.7245047913717
 20
14.99999996135637
 30
0.0
 11
348.7245047913717
 21
0.3999999613564
 31
0.0
  0
LINE
  5
B72
330
1A
100
AcDbEntity
  8
ZUWAKU
100
AcDbLine
 10
348.6245047913717
 20
14.99999996135637
 30
0.0
 11
348.6245047913717
 21
0.3999999613564
 31
0.0
  0
TEXT
  5
B73
330
1A
100
AcDbEntity
  8
ZUWAKU
100
AcDbText
 10
354.264041613223
 20
3.324420118283399
 30
0.0
 40
3.0
  1
建材事業部
 41
0.9
  7
ｽﾀｲﾙ1
100
AcDbText
  0
DIMENSION
  5
4486
330
1A
100
AcDbEntity
  8
SUNPOU
100
AcDbDimension
  2
*D1
 10
51.88786570392378
 20
81.37229318959703
 30
0.0
 11
49.38786570392377
 21
97.38655368959699
 31
0.0
 70
    32
 71
     5
 42
32.02852099999991
  3
STANDARD
100
AcDbAlignedDimension
 13
75.78536434628586
 23
113.4008141895969
 33
0.0
 14
224.7067643462858
 24
81.37229318959697
 34
0.0
 50
90.0
100
AcDbRotatedDimension
1001
ACAD
1000
DSTYLE
1002
{
1070
    41
1040
3.0
1070
    42
1040
3.0
1070
    43
1040
7.0
1070
    44
1040
1.5
1070
    73
1070
     0
1070
    74
1070
     0
1070
    77
1070
     3
1070
   140
1040
3.0
1070
   141
1040
3.0
1070
   147
1040
1.0
1070
   172
1070
     1
1070
   173
1070
     1
1070
   176
1070
   256
1070
   177
1070
   256
1070
   178
1070
   256
1070
   271
1070
     0
1070
   272
1070
     0
1070
   341
1005
B2
1070
     6
1000
OPEN
1070
     7
1000
OPEN
1070
   371
1070
    -1
1070
   372
1070
    -1
1002
}
  0
DIMENSION
  5
4487
330
1A
100
AcDbEntity
  8
SUNPOU
100
AcDbDimension
  2
*D2
 10
242.5239799536075
 20
144.3117219112124
 30
0.0
 11
225.0239799536075
 21
146.8117219112124
 31
0.0
 70
    32
 71
     5
 42
35.0
  3
STANDARD
100
AcDbAlignedDimension
 13
207.5239799536075
 23
115.1931189900956
 33
0.0
 14
242.5239799536075
 24
115.1931189900956
 34
0.0
100
AcDbRotatedDimension
1001
ACAD
1000
DSTYLE
1002
{
1070
   140
1040
3.0
1070
    74
1070
     0
1070
   172
1070
     1
1070
    73
1070
     0
1070
   272
1070
     0
1070
    77
1070
     3
1070
   173
1070
     1
1070
   147
1040
1.0
1070
    42
1040
3.0
1070
    44
1040
1.5
1070
    43
1040
7.0
1070
   271
1070
     0
1070
   178
1070
   256
1070
   177
1070
   256
1070
   176
1070
   256
1070
   141
1040
3.0
1070
     7
1000
OPEN
1070
     6
1000
OPEN
1070
    41
1040
3.0
1002
}
  0
DIMENSION
  5
4488
330
1A
100
AcDbEntity
  8
SUNPOU
100
AcDbDimension
  2
*D3
 10
240.901102829753
 20
89.59988171560255
 30
0.0
 11
233.1001234693388
 21
110.47392049931
 31
0.0
 70
    33
 71
     5
 42
44.28682757323368
  3
STANDARD
100
AcDbAlignedDimension
 13
204.647121670976
 23
120.8556293232144
 33
0.0
 14
224.7067643462858
 24
81.37229318959697
 34
0.0
1001
ACAD
1000
DSTYLE
1002
{
1070
   140
1040
3.0
1070
    74
1070
     0
1070
   172
1070
     1
1070
    73
1070
     0
1070
   272
1070
     0
1070
    77
1070
     3
1070
   173
1070
     1
1070
   147
1040
1.0
1070
    42
1040
3.0
1070
    44
1040
1.5
1070
    43
1040
7.0
1070
   271
1070
     0
1070
   178
1070
   256
1070
   177
1070
   256
1070
   176
1070
   256
1070
   141
1040
3.0
1070
     7
1000
OPEN
1070
     6
1000
OPEN
1070
    41
1040
3.0
1002
}
  0
DIMENSION
  5
4489
330
1A
100
AcDbEntity
  8
SUNPOU
100
AcDbDimension
  2
*D4
 10
233.8169858395569
 20
86.00077162904644
 30
0.0
 11
227.892759361427
 21
103.1808047581013
 31
0.0
 70
    33
 71
     5
 42
35.99999987108883
  3
STANDARD
100
AcDbAlignedDimension
 13
208.4006273462858
 23
113.467618189597
 33
0.0
 14
224.7067643462858
 24
81.37229318959697
 34
0.0
1001
ACAD
1000
DSTYLE
1002
{
1070
   140
1040
3.0
1070
    74
1070
     0
1070
   172
1070
     1
1070
    73
1070
     0
1070
   272
1070
     0
1070
    77
1070
     3
1070
   173
1070
     1
1070
   147
1040
1.0
1070
    42
1040
3.0
1070
    44
1040
1.5
1070
    43
1040
7.0
1070
   271
1070
     0
1070
   178
1070
   256
1070
   177
1070
   256
1070
   176
1070
   256
1070
   141
1040
3.0
1070
     7
1000
OPEN
1070
     6
1000
OPEN
1070
    41
1040
3.0
1002
}
  0
LINE
  5
448A
330
1A
100
AcDbEntity
  8
CENTER L
100
AcDbLine
 10
211.4799022982991
 20
230.264567189597
 30
0.0
 11
219.8998991709147
 21
230.264567189597
 31
0.0
  0
LINE
  5
448B
330
1A
100
AcDbEntity
  8
CENTER L
100
AcDbLine
 10
209.1096069005925
 20
232.014567189597
 30
0.0
 11
214.0173155912783
 21
232.014567189597
 31
0.0
  0
LINE
  5
448C
330
1A
100
AcDbEntity
  8
CENTER L
100
AcDbLine
 10
209.1096069005925
 20
191.2314831895969
 30
0.0
 11
214.0173155912783
 21
191.2314831895969
 31
0.0
  0
LINE
  5
448D
330
1A
100
AcDbEntity
  8
CENTER L
100
AcDbLine
 10
211.4799022982991
 20
192.9814831895969
 30
0.0
 11
219.8998991709147
 21
192.9814831895969
 31
0.0
  0
LINE
  5
448E
330
1A
100
AcDbEntity
  8
CENTER L
100
AcDbLine
 10
229.7067643462858
 20
211.6230251895969
 30
0.0
 11
70.78536434628586
 21
211.6230251895969
 31
0.0
  0
LINE
  5
448F
330
1A
100
AcDbEntity
  8
CENTER L
100
AcDbLine
 10
212.6761059190473
 20
81.42919892528001
 30
0.0
 11
226.6732331734961
 21
88.54048656634596
 31
0.0
  0
LINE
  5
4490
330
1A
100
AcDbEntity
  8
CENTER L
100
AcDbLine
 10
201.3523987388608
 20
103.7176188337348
 30
0.0
 11
215.3495268257109
 21
110.8289068977051
 31
0.0
  0
LINE
  5
4491
330
1A
100
AcDbEntity
  8
CENTER L
100
AcDbLine
 10
205.20245898218
 20
96.13955645447324
 30
0.0
 11
219.1995867860136
 21
103.250844374656
 31
0.0
  0
LINE
  5
4492
330
1A
100
AcDbEntity
  8
SEIHIN
100
AcDbLine
 10
210.2006273462857
 20
237.285207189597
 30
0.0
 11
221.7067643462858
 21
237.285207189597
 31
0.0
  0
LINE
  5
4493
330
1A
100
AcDbEntity
  8
SEIHIN
100
AcDbLine
 10
213.5928413462857
 20
220.498519189597
 30
0.0
 11
211.6489553462857
 21
220.498519189597
 31
0.0
  0
LINE
  5
4494
330
1A
100
AcDbEntity
  8
SEIHIN
100
AcDbLine
 10
213.5928413462857
 20
222.989415189597
 30
0.0
 11
212.2703103462857
 21
220.498519189597
 31
0.0
  0
LINE
  5
4495
330
1A
100
AcDbEntity
  8
SEIHIN
100
AcDbLine
 10
211.6489553462857
 20
222.989415189597
 30
0.0
 11
213.5928413462857
 21
222.989415189597
 31
0.0
  0
LINE
  5
4496
330
1A
100
AcDbEntity
  8
SEIHIN
100
AcDbLine
 10
207.5871533462857
 20
219.874818189597
 30
0.0
 11
220.6890443462858
 21
219.874819189597
 31
0.0
  0
LINE
  5
4497
330
1A
100
AcDbEntity
  8
SEIHIN
100
AcDbLine
 10
211.6489553462857
 20
200.2566341895969
 30
0.0
 11
213.5928413462857
 21
200.2566341895969
 31
0.0
  0
LINE
  5
4498
330
1A
100
AcDbEntity
  8
SEIHIN
100
AcDbLine
 10
213.5928413462857
 20
200.2566341895969
 30
0.0
 11
212.2703103462857
 21
202.7475301895969
 31
0.0
  0
LINE
  5
4499
330
1A
100
AcDbEntity
  8
SEIHIN
100
AcDbLine
 10
213.5928413462857
 20
202.7475301895969
 30
0.0
 11
211.6489553462857
 21
202.7475301895969
 31
0.0
  0
LINE
  5
449A
330
1A
100
AcDbEntity
  8
SEIHIN
100
AcDbLine
 10
220.6882583462857
 20
203.3855941895969
 30
0.0
 11
207.5863673462857
 21
203.3855931895969
 31
0.0
  0
LINE
  5
449B
330
1A
100
AcDbEntity
  8
SEIHIN
100
AcDbLine
 10
223.7067613462857
 20
219.123080189597
 30
0.0
 11
128.5555893462858
 21
219.122790189597
 31
0.0
  0
LINE
  5
449C
330
1A
100
AcDbEntity
  8
SEIHIN
100
AcDbLine
 10
223.7067683462858
 20
204.123080189597
 30
0.0
 11
128.5554533462857
 21
204.122790189597
 31
0.0
  0
LINE
  5
449D
330
1A
100
AcDbEntity
  8
SEIHIN
100
AcDbLine
 10
210.2006273462857
 20
185.9814801895969
 30
0.0
 11
221.7067643462858
 21
185.9814801895969
 31
0.0
  0
LINE
  5
449E
330
1A
100
AcDbEntity
  8
SEIHIN
100
AcDbLine
 10
208.4006273462858
 20
113.467618189597
 30
0.0
 11
224.7067643462858
 21
81.37229318959697
 31
0.0
  0
LINE
  5
449F
330
1A
100
AcDbEntity
  8
SEIHIN
100
AcDbLine
 10
207.3307833462857
 20
112.924080189597
 30
0.0
 11
223.6369203462857
 21
80.82875518959696
 31
0.0
  0
LINE
  5
44A0
330
1A
100
AcDbEntity
  8
SEIHIN
100
AcDbLine
 10
219.6250053462857
 20
78.79048818959694
 30
0.0
 11
203.3188673462857
 21
110.885812189597
 31
0.0
  0
DIMENSION
  5
44A1
330
1A
100
AcDbEntity
  8
SUNPOU
100
AcDbDimension
  2
*D5
 10
75.21696151019748
 20
144.3342978765023
 30
0.0
 11
141.3704709282416
 21
146.8342978765023
 31
0.0
 70
    32
 71
     5
 42
132.3070188360883
  3
STANDARD
100
AcDbAlignedDimension
 13
207.5239803462857
 23
115.1931191895969
 33
0.0
 14
75.21696151019748
 24
106.1785582553985
 34
0.0
100
AcDbRotatedDimension
1001
ACAD
1000
DSTYLE
1002
{
1070
   140
1040
3.0
1070
    74
1070
     0
1070
   172
1070
     1
1070
    73
1070
     0
1070
   272
1070
     0
1070
    77
1070
     3
1070
   173
1070
     1
1070
   147
1040
1.0
1070
    42
1040
3.0
1070
    44
1040
1.5
1070
    43
1040
7.0
1070
   271
1070
     0
1070
   178
1070
   256
1070
   177
1070
   256
1070
   176
1070
   256
1070
   141
1040
3.0
1070
     7
1000
OPEN
1070
     6
1000
OPEN
1070
    41
1040
3.0
1002
}
  0
DIMENSION
  5
44A2
330
1A
100
AcDbEntity
  8
SUNPOU
100
AcDbDimension
  2
*D6
 10
207.5239799536075
 20
132.4563428392727
 30
0.0
 11
202.5397741499467
 21
134.9563428392727
 31
0.0
 70
    32
 71
     5
 42
9.968411607321713
  3
STANDARD
100
AcDbAlignedDimension
 13
197.5555683462858
 23
82.08825418959697
 33
0.0
 14
207.5239799536075
 24
115.1931189900956
 34
0.0
100
AcDbRotatedDimension
1001
ACAD
1000
DSTYLE
1002
{
1070
   140
1040
3.0
1070
    74
1070
     0
1070
   172
1070
     1
1070
    73
1070
     0
1070
   272
1070
     0
1070
    77
1070
     3
1070
   173
1070
     1
1070
   147
1040
1.0
1070
    42
1040
3.0
1070
    44
1040
1.5
1070
    43
1040
7.0
1070
   271
1070
     0
1070
   178
1070
   256
1070
   177
1070
   256
1070
   176
1070
   256
1070
   141
1040
3.0
1070
     7
1000
OPEN
1070
     6
1000
OPEN
1070
    41
1040
3.0
1002
}
  0
LINE
  5
44A3
330
1A
100
AcDbEntity
  8
SEIHIN
100
AcDbLine
 10
82.17397934628571
 20
104.021640189597
 30
0.0
 11
77.21079634628586
 21
104.021640189597
 31
0.0
  0
LINE
  5
44A4
330
1A
100
AcDbEntity
  8
SEIHIN
100
AcDbLine
 10
85.34323334628584
 20
105.021640189597
 30
0.0
 11
78.17397934628571
 21
105.021640189597
 31
0.0
  0
LINE
  5
44A5
330
1A
100
AcDbEntity
  8
SEIHIN
100
AcDbLine
 10
80.46677234628578
 20
105.021640189597
 30
0.0
 11
80.46677234628578
 21
104.021640189597
 31
0.0
  0
ARC
  5
44A6
330
1A
100
AcDbEntity
  8
SEIHIN
100
AcDbCircle
 10
77.21079634628586
 20
106.021640189597
 30
0.0
 40
2.000000158243612
100
AcDbArc
 50
175.5000039676388
 51
269.999997752317
  0
LINE
  5
44A7
330
1A
100
AcDbEntity
  8
SEIHIN
100
AcDbLine
 10
75.21696134628587
 20
106.178558189597
 30
0.0
 11
75.78536434628586
 21
113.4008141895969
 31
0.0
  0
LINE
  5
44A8
330
1A
100
AcDbEntity
  8
SEIHIN
100
AcDbLine
 10
76.21387834628581
 20
106.100099189597
 30
0.0
 11
76.78228234628568
 21
113.322355189597
 31
0.0
  0
LINE
  5
44A9
330
1A
100
AcDbEntity
  8
SEIHIN
100
AcDbLine
 10
77.21079634628586
 20
105.021640189597
 30
0.0
 11
78.17397934628571
 21
105.021640189597
 31
0.0
  0
LINE
  5
44AA
330
1A
100
AcDbEntity
  8
SEIHIN
100
AcDbLine
 10
76.30440034628578
 20
107.2502851895969
 30
0.0
 11
78.62828734628579
 21
105.021640189597
 31
0.0
  0
ARC
  5
44AB
330
1A
100
AcDbEntity
  8
SEIHIN
100
AcDbCircle
 10
77.21079634628586
 20
106.021640189597
 30
0.0
 40
0.9999998298924711
100
AcDbArc
 50
175.5000039676388
 51
270.0
  0
LINE
  5
44AC
330
1A
100
AcDbEntity
  8
SEIHIN
100
AcDbLine
 10
76.78228234628568
 20
113.322355189597
 30
0.0
 11
75.78536434628586
 21
113.4008141895969
 31
0.0
  0
LINE
  5
44AD
330
1A
100
AcDbEntity
  8
SEIHIN
100
AcDbLine
 10
182.4718813462857
 20
109.4937771895969
 30
0.0
 11
141.4095513462858
 21
103.894368189597
 31
0.0
  0
LINE
  5
44AE
330
1A
100
AcDbEntity
  8
SEIHIN
100
AcDbLine
 10
183.2318133462857
 20
106.569639189597
 30
0.0
 11
141.2017583462857
 21
100.8382681895969
 31
0.0
  0
LINE
  5
44AF
330
1A
100
AcDbEntity
  8
SEIHIN
100
AcDbLine
 10
181.8386053462857
 20
111.9305571895969
 30
0.0
 11
141.0717683462858
 21
106.371443189597
 31
0.0
  0
LINE
  5
44B0
330
1A
100
AcDbEntity
  8
SEIHIN
100
AcDbLine
 10
117.9264633462858
 20
82.89004618959694
 30
0.0
 11
155.0289733462857
 21
82.89004618959694
 31
0.0
  0
LINE
  5
44B1
330
1A
100
AcDbEntity
  8
SEIHIN
100
AcDbLine
 10
117.9264463462857
 20
77.89004618959694
 30
0.0
 11
155.0289733462857
 21
77.89004618959694
 31
0.0
  0
LINE
  5
44B2
330
1A
100
AcDbEntity
  8
SEIHIN
100
AcDbLine
 10
100.4263883462859
 20
88.69008818959696
 30
0.0
 11
100.4263883462859
 21
81.19008818959696
 31
0.0
  0
LINE
  5
44B3
330
1A
100
AcDbEntity
  8
SEIHIN
100
AcDbLine
 10
96.92638834628588
 20
88.69008518959697
 30
0.0
 11
96.92638834628588
 21
81.19008518959697
 31
0.0
  0
LINE
  5
44B4
330
1A
100
AcDbEntity
  8
SEIHIN
100
AcDbLine
 10
97.17638834628588
 20
81.19008818959696
 30
0.0
 11
97.17638834628588
 21
88.39005318959693
 31
0.0
  0
LINE
  5
44B5
330
1A
100
AcDbEntity
  8
SEIHIN
100
AcDbLine
 10
100.1763883462859
 20
88.39005318959693
 30
0.0
 11
100.1763883462859
 21
81.19008818959696
 31
0.0
  0
LINE
  5
44B6
330
1A
100
AcDbEntity
  8
SEIHIN
100
AcDbLine
 10
117.9264383462858
 20
75.89012918959696
 30
0.0
 11
117.9264883462859
 21
89.89008818959695
 31
0.0
  0
ARC
  5
44B7
330
1A
100
AcDbEntity
  8
SEIHIN
100
AcDbCircle
 10
91.92062034628566
 20
83.89004618959694
 30
0.0
 40
5.999999777451366
100
AcDbArc
 50
187.9694469761786
 51
269.9999716287842
  0
LINE
  5
44B8
330
1A
100
AcDbEntity
  8
SEIHIN
100
AcDbLine
 10
94.92643834628575
 20
75.89012918959696
 30
0.0
 11
94.92648834628585
 21
89.89008618959696
 31
0.0
  0
LINE
  5
44B9
330
1A
100
AcDbEntity
  8
SEIHIN
100
AcDbLine
 10
94.92643834628575
 20
75.89012918959696
 30
0.0
 11
117.9264383462858
 21
75.89012918959696
 31
0.0
  0
LINE
  5
44BA
330
1A
100
AcDbEntity
  8
SEIHIN
100
AcDbLine
 10
96.92638834628588
 20
81.19008518959697
 30
0.0
 11
100.4263883462859
 21
81.19008818959696
 31
0.0
  0
LINE
  5
44BB
330
1A
100
AcDbEntity
  8
SEIHIN
100
AcDbLine
 10
91.92062034628566
 20
77.89004618959694
 30
0.0
 11
94.92644634628573
 21
77.89004618959694
 31
0.0
  0
LINE
  5
44BC
330
1A
100
AcDbEntity
  8
SEIHIN
100
AcDbLine
 10
116.2297093462857
 20
95.23673318959698
 30
0.0
 11
100.6684273462859
 21
95.23671218959697
 31
0.0
  0
ARC
  5
44BD
330
1A
100
AcDbEntity
  8
SEIHIN
100
AcDbCircle
 10
106.4264903462859
 20
79.16521818959694
 30
0.0
 40
15.72491078112709
100
AcDbArc
 50
43.00252833503259
 51
136.9974830730986
  0
LINE
  5
44BE
330
1A
100
AcDbEntity
  8
SEIHIN
100
AcDbLine
 10
100.4263633462858
 20
83.89012918959696
 30
0.0
 11
117.9264383462858
 21
83.89012918959696
 31
0.0
  0
ARC
  5
44BF
330
1A
100
AcDbEntity
  8
SEIHIN
100
AcDbCircle
 10
85.34323334628584
 20
102.021640189597
 30
0.0
 40
2.999999854064327
100
AcDbArc
 50
7.96944697617947
 51
89.99998108585706
  0
LINE
  5
44C0
330
1A
100
AcDbEntity
  8
SEIHIN
100
AcDbLine
 10
82.17397934628571
 20
105.021640189597
 30
0.0
 11
82.17397934628571
 21
104.021640189597
 31
0.0
  0
LINE
  5
44C1
330
1A
100
AcDbEntity
  8
SEIHIN
100
AcDbLine
 10
96.92638834628588
 20
88.69008518959697
 30
0.0
 11
100.4263883462859
 21
88.69008818959696
 31
0.0
  0
LINE
  5
44C2
330
1A
100
AcDbEntity
  8
SEIHIN
100
AcDbLine
 10
100.1763883462859
 20
88.39005318959693
 30
0.0
 11
97.17638834628588
 21
88.39005318959693
 31
0.0
  0
LINE
  5
44C3
330
1A
100
AcDbEntity
  8
SEIHIN
100
AcDbLine
 10
88.31426034628566
 20
102.4375761895969
 30
0.0
 11
90.93027834628583
 21
83.75140018959695
 31
0.0
  0
LINE
  5
44C4
330
1A
100
AcDbEntity
  8
SEIHIN
100
AcDbLine
 10
83.16432234628587
 20
103.160285189597
 30
0.0
 11
85.97856834628578
 21
83.05817318959697
 31
0.0
  0
LINE
  5
44C5
330
1A
100
AcDbEntity
  8
SEIHIN
100
AcDbLine
 10
91.92062034628566
 20
82.89004618959694
 30
0.0
 11
94.9264633462858
 21
82.89004618959694
 31
0.0
  0
ARC
  5
44C6
330
1A
100
AcDbEntity
  8
SEIHIN
100
AcDbCircle
 10
91.92062034628566
 20
83.89004618959694
 30
0.0
 40
0.9999999282472448
100
AcDbArc
 50
187.9694469761786
 51
270.0
  0
LINE
  5
44C7
330
1A
100
AcDbEntity
  8
SEIHIN
100
AcDbLine
 10
94.92643834628575
 20
83.89012918959696
 30
0.0
 11
96.92636334628583
 21
83.89012918959696
 31
0.0
  0
LINE
  5
44C8
330
1A
100
AcDbEntity
  8
SEIHIN
100
AcDbLine
 10
82.33584834628573
 20
104.021640189597
 30
0.0
 11
82.33773834628573
 21
104.0081401895969
 31
0.0
  0
ARC
  5
44C9
330
1A
100
AcDbEntity
  8
SEIHIN
100
AcDbCircle
 10
82.17397934628571
 20
103.021640189597
 30
0.0
 40
0.9999999282472448
100
AcDbArc
 50
7.969446976178607
 51
90.0
  0
CIRCLE
  5
44CA
330
1A
100
AcDbEntity
  8
SEIHIN
100
AcDbCircle
 10
106.4265083462858
 20
89.89008818959695
 30
0.0
 40
2.15
  0
LINE
  5
44CB
330
1A
100
AcDbEntity
  8
SEIHIN
100
AcDbLine
 10
101.6464603462857
 20
94.23672918959693
 30
0.0
 11
100.6684343462857
 21
94.23672818959693
 31
0.0
  0
LINE
  5
44CC
330
1A
100
AcDbEntity
  8
SEIHIN
100
AcDbLine
 10
100.6684343462857
 20
94.23672818959693
 30
0.0
 11
100.6684273462859
 21
95.23671218959697
 31
0.0
  0
ARC
  5
44CD
330
1A
100
AcDbEntity
  8
SEIHIN
100
AcDbCircle
 10
142.0851173462859
 20
98.94021718959692
 30
0.0
 40
7.500000197431461
100
AcDbArc
 50
97.76515569653493
 51
160.5599559187035
  0
LINE
  5
44CE
330
1A
100
AcDbEntity
  8
SEIHIN
100
AcDbLine
 10
138.9728983462858
 20
114.159271189597
 30
0.0
 11
130.8118513462857
 21
91.03630618959693
 31
0.0
  0
LINE
  5
44CF
330
1A
100
AcDbEntity
  8
SEIHIN
100
AcDbLine
 10
134.8054243462857
 20
106.8583701895969
 30
0.0
 11
129.4541643462858
 21
91.69646618959695
 31
0.0
  0
LINE
  5
44D0
330
1A
100
AcDbEntity
  8
SEIHIN
100
AcDbLine
 10
138.0299073462859
 20
114.492091189597
 30
0.0
 11
129.9256593462858
 21
91.53005618959696
 31
0.0
  0
LINE
  5
44D1
330
1A
100
AcDbEntity
  8
SEIHIN
100
AcDbLine
 10
137.3701653462858
 20
100.6043181895969
 30
0.0
 11
131.1180693462857
 21
82.89004618959694
 31
0.0
  0
LINE
  5
44D2
330
1A
100
AcDbEntity
  8
SEIHIN
100
AcDbLine
 10
135.0126893462857
 20
101.436368189597
 30
0.0
 11
128.4669283462858
 21
82.89004618959694
 31
0.0
  0
LINE
  5
44D3
330
1A
100
AcDbEntity
  8
SEIHIN
100
AcDbLine
 10
126.7461753462858
 20
90.58976618959696
 30
0.0
 11
117.0672023462857
 21
95.05294118959694
 31
0.0
  0
LINE
  5
44D4
330
1A
100
AcDbEntity
  8
SEIHIN
100
AcDbLine
 10
127.9828793462857
 20
89.03476618959695
 30
0.0
 11
117.8998743462857
 21
89.03476818959695
 31
0.0
  0
ARC
  5
44D5
330
1A
100
AcDbEntity
  8
SEIHIN
100
AcDbCircle
 10
127.5836663462858
 20
92.40597318959698
 30
0.0
 40
2.00000009820312
100
AcDbArc
 50
245.2446238788496
 51
340.5599821720813
  0
ARC
  5
44D6
330
1A
100
AcDbEntity
  8
SEIHIN
100
AcDbCircle
 10
128.0396793462858
 20
92.19569618959696
 30
0.0
 40
2.00000009820312
100
AcDbArc
 50
245.2446238788496
 51
340.5599821720813
  0
ARC
  5
44D7
330
1A
100
AcDbEntity
  8
SEIHIN
100
AcDbCircle
 10
127.9828803462858
 20
92.03476618959695
 30
0.0
 40
2.999999940870082
100
AcDbArc
 50
269.9999883784511
 51
340.5599599066717
  0
ARC
  5
44D8
330
1A
100
AcDbEntity
  8
SEIHIN
100
AcDbCircle
 10
116.2297123462859
 20
93.23673318959698
 30
0.0
 40
1.999999844935613
100
AcDbArc
 50
65.24462387884964
 51
90.00010203811519
  0
LINE
  5
44D9
330
1A
100
AcDbEntity
  8
SEIHIN
100
AcDbLine
 10
140.3937153462857
 20
100.1797881895969
 30
0.0
 11
134.3011393462857
 21
82.89004618959694
 31
0.0
  0
ARC
  5
44DA
330
1A
100
AcDbEntity
  8
SEIHIN
100
AcDbCircle
 10
142.0851173462859
 20
98.94021718959692
 30
0.0
 40
4.999999758966238
100
AcDbArc
 50
97.76515569653493
 51
160.559955823277
  0
ARC
  5
44DB
330
1A
100
AcDbEntity
  8
SEIHIN
100
AcDbCircle
 10
141.3368713462858
 20
99.84743818959697
 30
0.0
 40
1.000000089458492
100
AcDbArc
 50
97.76515569653742
 51
160.5885380977539
  0
ARC
  5
44DC
330
1A
100
AcDbEntity
  8
SEIHIN
100
AcDbCircle
 10
135.2769203462858
 20
106.691960189597
 30
0.0
 40
0.5
100
AcDbArc
 50
70.55996517181939
 51
160.5599651718254
  0
LINE
  5
44DD
330
1A
100
AcDbEntity
  8
SEIHIN
100
AcDbLine
 10
138.9728983462858
 20
114.159271189597
 30
0.0
 11
138.0299073462859
 21
114.492091189597
 31
0.0
  0
ARC
  5
44DE
330
1A
100
AcDbEntity
  8
SEIHIN
100
AcDbCircle
 10
184.6012063462858
 20
81.08298618959697
 30
0.0
 40
0.3070597682291614
100
AcDbArc
 50
90.00000001175208
 51
152.0077599357387
  0
LINE
  5
44DF
330
1A
100
AcDbEntity
  8
SEIHIN
100
AcDbLine
 10
189.7043923462857
 20
80.30015818959697
 30
0.0
 11
189.8960823462858
 21
82.29095018959697
 31
0.0
  0
LINE
  5
44E0
330
1A
100
AcDbEntity
  8
SEIHIN
100
AcDbLine
 10
158.5499873462857
 20
81.61526318959693
 30
0.0
 11
160.0202473462857
 21
80.39004618959694
 31
0.0
  0
LINE
  5
44E1
330
1A
100
AcDbEntity
  8
SEIHIN
100
AcDbLine
 10
186.1800723462857
 20
81.39004618959694
 30
0.0
 11
186.1800723462857
 21
77.79004618959692
 31
0.0
  0
ARC
  5
44E2
330
1A
100
AcDbEntity
  8
SEIHIN
100
AcDbCircle
 10
197.0558123462859
 20
82.10386718959694
 30
0.0
 40
2.500000216739581
100
AcDbArc
 50
264.5000418284002
 51
358.2104961264325
  0
LINE
  5
44E3
330
1A
100
AcDbEntity
  8
SEIHIN
100
AcDbLine
 10
177.4721853462859
 20
97.50997218959697
 30
0.0
 11
170.8766793462858
 21
78.79299518959692
 31
0.0
  0
LINE
  5
44E4
330
1A
100
AcDbEntity
  8
SEIHIN
100
AcDbLine
 10
175.5858733462858
 20
98.17467318959695
 30
0.0
 11
168.9903673462857
 21
79.45769618959696
 31
0.0
  0
LINE
  5
44E5
330
1A
100
AcDbEntity
  8
SEIHIN
100
AcDbLine
 10
168.5911033462858
 20
76.79004618959692
 30
0.0
 11
183.6832963462857
 21
76.79004618959692
 31
0.0
  0
LINE
  5
44E6
330
1A
100
AcDbEntity
  8
SEIHIN
100
AcDbLine
 10
168.5911033462858
 20
76.39004618959694
 30
0.0
 11
184.7800723462858
 21
76.39004618959694
 31
0.0
  0
LINE
  5
44E7
330
1A
100
AcDbEntity
  8
SEIHIN
100
AcDbLine
 10
160.0202473462857
 20
80.39004618959694
 30
0.0
 11
164.5911033462858
 21
80.39004618959694
 31
0.0
  0
LINE
  5
44E8
330
1A
100
AcDbEntity
  8
SEIHIN
100
AcDbLine
 10
161.2035823462857
 20
74.39004618959694
 30
0.0
 11
166.2035823462857
 21
74.39004618959694
 31
0.0
  0
LINE
  5
44E9
330
1A
100
AcDbEntity
  8
SEIHIN
100
AcDbLine
 10
158.7530733462859
 20
75.39004618959694
 30
0.0
 11
168.5911033462858
 21
75.39004618959694
 31
0.0
  0
LINE
  5
44EA
330
1A
100
AcDbEntity
  8
SEIHIN
100
AcDbLine
 10
155.3490653462857
 20
77.77415718959696
 30
0.0
 11
157.7927963462857
 21
75.73771418959694
 31
0.0
  0
ARC
  5
44EB
330
1A
100
AcDbEntity
  8
SEIHIN
100
AcDbCircle
 10
155.0289733462857
 20
77.39004618959694
 30
0.0
 40
0.500000074392489
100
AcDbArc
 50
50.19443624371842
 51
89.99996332013924
  0
ARC
  5
44EC
330
1A
100
AcDbEntity
  8
SEIHIN
100
AcDbCircle
 10
158.7530733462859
 20
76.89004618959694
 30
0.0
 40
1.500000159158816
100
AcDbArc
 50
230.1944362437104
 51
270.0000171172698
  0
ARC
  5
44ED
330
1A
100
AcDbEntity
  8
SEIHIN
100
AcDbCircle
 10
161.2035823462857
 20
74.89004618959694
 30
0.0
 40
0.5
100
AcDbArc
 50
180.0000000235017
 51
270.0000000235017
  0
LINE
  5
44EE
330
1A
100
AcDbEntity
  8
SEIHIN
100
AcDbLine
 10
160.7035823462857
 20
75.39004618959694
 30
0.0
 11
160.7035823462857
 21
74.89004618959694
 31
0.0
  0
LINE
  5
44EF
330
1A
100
AcDbEntity
  8
SEIHIN
100
AcDbLine
 10
168.5911033462858
 20
76.39004618959694
 30
0.0
 11
168.5911033462858
 21
75.39004618959694
 31
0.0
  0
LINE
  5
44F0
330
1A
100
AcDbEntity
  8
SEIHIN
100
AcDbLine
 10
171.6257763462859
 20
76.39004618959694
 30
0.0
 11
171.6257763462859
 21
75.39004618959694
 31
0.0
  0
ARC
  5
44F1
330
1A
100
AcDbEntity
  8
SEIHIN
100
AcDbCircle
 10
166.2035823462857
 20
74.89004618959694
 30
0.0
 40
0.5
100
AcDbArc
 50
270.0000000352525
 51
0.0000000352525556
  0
LINE
  5
44F2
330
1A
100
AcDbEntity
  8
SEIHIN
100
AcDbLine
 10
166.7035823462857
 20
75.39004618959694
 30
0.0
 11
166.7035823462857
 21
74.89004618959694
 31
0.0
  0
LINE
  5
44F3
330
1A
100
AcDbEntity
  8
SEIHIN
100
AcDbLine
 10
171.6257763462859
 20
75.39004618959694
 30
0.0
 11
168.5911033462858
 21
75.39004618959694
 31
0.0
  0
ARC
  5
44F4
330
1A
100
AcDbEntity
  8
SEIHIN
100
AcDbCircle
 10
168.0472113462859
 20
79.79004618959692
 30
0.0
 40
0.9999999407089966
100
AcDbArc
 50
270.0000000354349
 51
340.5885244991819
  0
ARC
  5
44F5
330
1A
100
AcDbEntity
  8
SEIHIN
100
AcDbCircle
 10
164.5911033462858
 20
76.39004618959694
 30
0.0
 40
4.0
100
AcDbArc
 50
0.0
 51
90.0
  0
LINE
  5
44F6
330
1A
100
AcDbEntity
  8
SEIHIN
100
AcDbLine
 10
168.0472113462859
 20
78.79004618959692
 30
0.0
 11
167.7911033462858
 21
78.79004618959692
 31
0.0
  0
ARC
  5
44F7
330
1A
100
AcDbEntity
  8
SEIHIN
100
AcDbCircle
 10
168.0472113462859
 20
79.79004618959692
 30
0.0
 40
3.00000013857666
100
AcDbArc
 50
279.9629866944945
 51
340.5885311066115
  0
LINE
  5
44F8
330
1A
100
AcDbEntity
  8
SEIHIN
100
AcDbLine
 10
191.8960823462858
 20
65.51908918959697
 30
0.0
 11
191.8960823462858
 21
78.98821218959694
 31
0.0
  0
LINE
  5
44F9
330
1A
100
AcDbEntity
  8
SEIHIN
100
AcDbLine
 10
189.8960823462858
 20
78.98821218959694
 30
0.0
 11
189.8960823462858
 21
65.51908918959697
 31
0.0
  0
LINE
  5
44FA
330
1A
100
AcDbEntity
  8
SEIHIN
100
AcDbLine
 10
191.8960823462858
 20
60.51908918959697
 30
0.0
 11
191.8960823462858
 21
78.98821218959694
 31
0.0
  0
LINE
  5
44FB
330
1A
100
AcDbEntity
  8
SEIHIN
100
AcDbLine
 10
189.8960823462858
 20
78.98821218959694
 30
0.0
 11
189.8960823462858
 21
60.51908918959697
 31
0.0
  0
LINE
  5
44FC
330
1A
100
AcDbEntity
  8
SEIHIN
100
AcDbLine
 10
191.8960823462858
 20
60.51908918959697
 30
0.0
 11
189.8960823462858
 21
60.51908918959697
 31
0.0
  0
ARC
  5
44FD
330
1A
100
AcDbEntity
  8
SEIHIN
100
AcDbCircle
 10
185.5285933462858
 20
80.59004618959693
 30
0.0
 40
1.35731498873364
100
AcDbArc
 50
152.0077035626141
 51
179.9999691711857
  0
ARC
  5
44FE
330
1A
100
AcDbEntity
  8
SEIHIN
100
AcDbCircle
 10
182.7708773462857
 20
77.88026918959696
 30
0.0
 40
1.421652073219744
100
AcDbArc
 50
309.926299230051
 51
333.4919521171932
  0
ARC
  5
44FF
330
1A
100
AcDbEntity
  8
SEIHIN
100
AcDbCircle
 10
182.9517733462858
 20
77.79004618959692
 30
0.0
 40
1.219504113536517
100
AcDbArc
 50
333.4919866321936
 51
0.0000129482833926
  0
LINE
  5
4500
330
1A
100
AcDbEntity
  8
SEIHIN
100
AcDbLine
 10
184.1712773462857
 20
77.79004618959692
 30
0.0
 11
184.1712773462857
 21
80.59004618959693
 31
0.0
  0
ARC
  5
4501
330
1A
100
AcDbEntity
  8
SEIHIN
100
AcDbCircle
 10
184.7800723462858
 20
77.79004618959692
 30
0.0
 40
1.4
100
AcDbArc
 50
270.0000000882617
 51
0.0000000882616646
  0
LINE
  5
4502
330
1A
100
AcDbEntity
  8
SEIHIN
100
AcDbLine
 10
196.8162003462858
 20
79.61537718959693
 30
0.0
 11
189.7043923462857
 21
80.30015818959697
 31
0.0
  0
ARC
  5
4503
330
1A
100
AcDbEntity
  8
SEIHIN
100
AcDbCircle
 10
192.8960823462858
 20
78.98821218959694
 30
0.0
 40
0.9999998652102318
100
AcDbArc
 50
84.50004182839781
 51
180.0
  0
ARC
  5
4504
330
1A
100
AcDbEntity
  8
SEIHIN
100
AcDbCircle
 10
192.8960823462858
 20
78.98821218959694
 30
0.0
 40
0.9999998652102318
100
AcDbArc
 50
84.50004182839781
 51
180.0
  0
ARC
  5
4505
330
1A
100
AcDbEntity
  8
SEIHIN
100
AcDbCircle
 10
192.8960823462858
 20
78.98821218959694
 30
0.0
 40
2.99999990174308
100
AcDbArc
 50
155.0288311702728
 51
179.9999919372969
  0
ARC
  5
4506
330
1A
100
AcDbEntity
  8
SEIHIN
100
AcDbCircle
 10
192.8960823462858
 20
78.98821218959694
 30
0.0
 40
2.99999990174308
100
AcDbArc
 50
155.0288311702728
 51
179.9999919372969
  0
LINE
  5
4507
330
1A
100
AcDbEntity
  8
SEIHIN
100
AcDbLine
 10
179.0779513462858
 20
98.82549818959694
 30
0.0
 11
192.2784353462857
 21
100.6956641895969
 31
0.0
  0
LINE
  5
4508
330
1A
100
AcDbEntity
  8
SEIHIN
100
AcDbLine
 10
191.9978893462858
 20
102.6758901895969
 30
0.0
 11
178.7974043462857
 21
100.805723189597
 31
0.0
  0
ARC
  5
4509
330
1A
100
AcDbEntity
  8
SEIHIN
100
AcDbCircle
 10
155.0289733462857
 20
77.39004618959694
 30
0.0
 40
5.499999922058408
100
AcDbArc
 50
50.19443624371149
 51
90.00000600216328
  0
ARC
  5
450A
330
1A
100
AcDbEntity
  8
SEIHIN
100
AcDbCircle
 10
179.3584973462857
 20
96.84527218959693
 30
0.0
 40
3.999999868335058
100
AcDbArc
 50
98.06364279830783
 51
160.5884979740769
  0
ARC
  5
450B
330
1A
100
AcDbEntity
  8
SEIHIN
100
AcDbCircle
 10
179.3584973462857
 20
96.84527218959693
 30
0.0
 40
2.000000049508499
100
AcDbArc
 50
98.06364279830783
 51
160.5884852657151
  0
ARC
  5
450C
330
1A
100
AcDbEntity
  8
SEIHIN
100
AcDbCircle
 10
192.9798023462859
 20
95.74510018959694
 30
0.0
 40
6.999999905160892
100
AcDbArc
 50
358.2105332175277
 51
98.06367746985326
  0
ARC
  5
450D
330
1A
100
AcDbEntity
  8
SEIHIN
100
AcDbCircle
 10
192.9798023462859
 20
95.74510018959694
 30
0.0
 40
4.99999999040965
100
AcDbArc
 50
358.2105332175277
 51
98.06367557684359
  0
LINE
  5
450E
330
1A
100
AcDbEntity
  8
SEIHIN
100
AcDbLine
 10
197.0078893462858
 20
81.60616918959693
 30
0.0
 11
189.8960823462858
 21
82.29095018959697
 31
0.0
  0
LINE
  5
450F
330
1A
100
AcDbEntity
  8
SEIHIN
100
AcDbLine
 10
184.6012053462857
 20
81.39004618959694
 30
0.0
 11
186.1800723462857
 21
81.39004618959694
 31
0.0
  0
ARC
  5
4510
330
1A
100
AcDbEntity
  8
SEIHIN
100
AcDbCircle
 10
216.5597653462858
 20
97.24242718959692
 30
0.0
 40
6.624999944286226
100
AcDbArc
 50
175.0422014758799
 51
238.8237826041952
  0
LINE
  5
4511
330
1A
100
AcDbEntity
  8
SEIHIN
100
AcDbLine
 10
197.9773643462859
 20
95.58896418959694
 30
0.0
 11
197.5555683462858
 21
82.08825418959697
 31
0.0
  0
LINE
  5
4512
330
1A
100
AcDbEntity
  8
SEIHIN
100
AcDbLine
 10
199.9763883462858
 20
95.52650918959694
 30
0.0
 11
199.5545923462857
 21
82.02579918959697
 31
0.0
  0
ARC
  5
4513
330
1A
100
AcDbEntity
  8
SEIHIN
100
AcDbCircle
 10
197.0558123462859
 20
82.10386718959694
 30
0.0
 40
0.5000000368764973
100
AcDbArc
 50
264.5000418284109
 51
358.210473256162
  0
LINE
  5
4514
330
1A
100
AcDbEntity
  8
SEIHIN
100
AcDbLine
 10
181.8386053462857
 20
111.9305571895969
 30
0.0
 11
198.7324263462858
 21
118.541183189597
 31
0.0
  0
LINE
  5
4515
330
1A
100
AcDbEntity
  8
SEIHIN
100
AcDbLine
 10
182.4718813462857
 20
109.4937771895969
 30
0.0
 11
199.6887703462858
 21
116.230820189597
 31
0.0
  0
LINE
  5
4516
330
1A
100
AcDbEntity
  8
SEIHIN
100
AcDbLine
 10
200.7819683462858
 20
113.437092189597
 30
0.0
 11
183.2318133462857
 21
106.569639189597
 31
0.0
  0
ARC
  5
4517
330
1A
100
AcDbEntity
  8
SEIHIN
100
AcDbCircle
 10
201.5107673462858
 20
111.574606189597
 30
0.0
 40
5.000000252443687
100
AcDbArc
 50
26.9329808259677
 51
111.3706255422678
  0
ARC
  5
4518
330
1A
100
AcDbEntity
  8
SEIHIN
100
AcDbCircle
 10
201.2832213462857
 20
112.0224831895969
 30
0.0
 40
6.999999955304642
100
AcDbArc
 50
26.9329808259677
 51
111.3706249075694
  0
LINE
  5
4519
330
1A
100
AcDbEntity
  8
SEIHIN
100
AcDbLine
 10
203.3188673462857
 20
110.885812189597
 30
0.0
 11
208.4006273462858
 21
113.467618189597
 31
0.0
  0
ARC
  5
451A
330
1A
100
AcDbEntity
  8
SEIHIN
100
AcDbCircle
 10
201.5107673462858
 20
111.574606189597
 30
0.0
 40
2.000000248971219
100
AcDbArc
 50
26.93298082596861
 51
111.370597584645
  0
LINE
  5
451B
330
1A
100
AcDbEntity
  8
SEIHIN
100
AcDbLine
 10
203.2938403462858
 20
112.480503189597
 30
0.0
 11
203.9429433462858
 21
111.202876189597
 31
0.0
  0
LINE
  5
451C
330
1A
100
AcDbEntity
  8
SEIHIN
100
AcDbLine
 10
205.9684523462859
 20
113.8393451895969
 30
0.0
 11
206.6175533462858
 21
112.5617211895969
 31
0.0
  0
LINE
  5
451D
330
1A
100
AcDbEntity
  8
SEIHIN
100
AcDbLine
 10
207.5239803462857
 20
115.1931191895969
 30
0.0
 11
208.4006273462858
 21
113.467618189597
 31
0.0
  0
LINE
  5
451E
330
1A
100
AcDbEntity
  8
SEIHIN
100
AcDbLine
 10
75.78536434628586
 20
219.872822189597
 30
0.0
 11
82.25916734628572
 21
219.872822189597
 31
0.0
  0
LINE
  5
451F
330
1A
100
AcDbEntity
  8
SEIHIN
100
AcDbLine
 10
75.78536434628586
 20
203.372822189597
 30
0.0
 11
82.25916734628572
 21
203.372822189597
 31
0.0
  0
DIMENSION
  5
4520
330
1A
100
AcDbEntity
  8
SUNPOU
100
AcDbDimension
  2
*D7
 10
51.88786570392381
 20
203.372822189597
 30
0.0
 11
49.38786570392378
 21
211.622822189597
 31
0.0
 70
    32
 71
     5
 42
16.5
  3
STANDARD
100
AcDbAlignedDimension
 13
75.78536434628586
 23
219.872822189597
 33
0.0
 14
75.78536434628586
 24
203.372822189597
 34
0.0
 50
90.0
100
AcDbRotatedDimension
1001
ACAD
1000
DSTYLE
1002
{
1070
   140
1040
3.0
1070
    74
1070
     0
1070
   172
1070
     1
1070
    73
1070
     0
1070
   272
1070
     0
1070
    77
1070
     3
1070
   173
1070
     1
1070
   147
1040
1.0
1070
    42
1040
3.0
1070
    44
1040
1.5
1070
    43
1040
7.0
1070
   271
1070
     0
1070
   178
1070
   256
1070
   177
1070
   256
1070
   176
1070
   256
1070
   141
1040
3.0
1070
     7
1000
OPEN
1070
     6
1000
OPEN
1070
    41
1040
3.0
1002
}
  0
LINE
  5
4521
330
1A
100
AcDbEntity
  8
SEIHIN
100
AcDbLine
 10
76.78536434628586
 20
203.372822189597
 30
0.0
 11
76.78536434628586
 21
219.872822189597
 31
0.0
  0
LINE
  5
4522
330
1A
100
AcDbEntity
  8
SEIHIN
100
AcDbLine
 10
75.78536434628586
 20
203.372822189597
 30
0.0
 11
75.78536434628586
 21
219.872822189597
 31
0.0
  0
LINE
  5
4523
330
1A
100
AcDbEntity
  8
SEIHIN
100
AcDbLine
 10
76.78536434628586
 20
206.706865189597
 30
0.0
 11
78.51741534628582
 21
205.706865189597
 31
0.0
  0
LINE
  5
4524
330
1A
100
AcDbEntity
  8
SEIHIN
100
AcDbLine
 10
76.78536434628586
 20
204.706865189597
 30
0.0
 11
78.51741534628582
 21
205.706865189597
 31
0.0
  0
LINE
  5
4525
330
1A
100
AcDbEntity
  8
SEIHIN
100
AcDbLine
 10
76.78536434628586
 20
218.5387781895969
 30
0.0
 11
78.51741534628582
 21
217.5387781895969
 31
0.0
  0
LINE
  5
4526
330
1A
100
AcDbEntity
  8
SEIHIN
100
AcDbLine
 10
76.78536434628586
 20
216.5387781895969
 30
0.0
 11
78.51741534628582
 21
217.5387781895969
 31
0.0
  0
LINE
  5
4527
330
1A
100
AcDbEntity
  8
SEIHIN
100
AcDbLine
 10
211.6489553462857
 20
220.498519189597
 30
0.0
 11
211.6489553462857
 21
222.989415189597
 31
0.0
  0
ARC
  5
4528
330
1A
100
AcDbEntity
  8
SEIHIN
100
AcDbCircle
 10
206.7006273462857
 20
222.0918051895969
 30
0.0
 40
1.700000040122499
100
AcDbArc
 50
278.7461491942049
 51
359.9999946189175
  0
ARC
  5
4529
330
1A
100
AcDbEntity
  8
SEIHIN
100
AcDbCircle
 10
204.4133183462857
 20
219.683541189597
 30
0.0
 40
1.399999956435713
100
AcDbArc
 50
98.97421424316363
 51
179.9999961696148
  0
LINE
  5
452A
330
1A
100
AcDbEntity
  8
SEIHIN
100
AcDbLine
 10
168.5914133462857
 20
221.122793189597
 30
0.0
 11
168.5914133462857
 21
219.122912189597
 31
0.0
  0
LINE
  5
452B
330
1A
100
AcDbEntity
  8
SEIHIN
100
AcDbLine
 10
117.9267303462857
 20
216.722822189597
 30
0.0
 11
117.9267483462859
 21
221.722822189597
 31
0.0
  0
ARC
  5
452C
330
1A
100
AcDbEntity
  8
SEIHIN
100
AcDbCircle
 10
86.96261134628571
 20
220.122822189597
 30
0.0
 40
1.000000256451184
100
AcDbArc
 50
90.0
 51
156.0726603748118
  0
LINE
  5
452D
330
1A
100
AcDbEntity
  8
SEIHIN
100
AcDbLine
 10
96.92669834628578
 20
217.222822189597
 30
0.0
 11
96.92669834628578
 21
221.722822189597
 31
0.0
  0
LINE
  5
452E
330
1A
100
AcDbEntity
  8
SEIHIN
100
AcDbLine
 10
100.4266983462858
 20
217.222822189597
 30
0.0
 11
100.4266983462858
 21
221.722822189597
 31
0.0
  0
LINE
  5
452F
330
1A
100
AcDbEntity
  8
SEIHIN
100
AcDbLine
 10
94.92673034628569
 20
216.722822189597
 30
0.0
 11
94.92674834628588
 21
221.722822189597
 31
0.0
  0
LINE
  5
4530
330
1A
100
AcDbEntity
  8
SEIHIN
100
AcDbLine
 10
212.1667913462857
 20
216.623045189597
 30
0.0
 11
138.9728333462858
 21
216.622822189597
 31
0.0
  0
LINE
  5
4531
330
1A
100
AcDbEntity
  8
SEIHIN
100
AcDbLine
 10
212.0236373462858
 20
206.623045189597
 30
0.0
 11
138.9728643462859
 21
206.622822189597
 31
0.0
  0
LINE
  5
4532
330
1A
100
AcDbEntity
  8
SEIHIN
100
AcDbLine
 10
117.9267463462859
 20
202.1228501895969
 30
0.0
 11
168.5914133462857
 21
202.1230311895969
 31
0.0
  0
LINE
  5
4533
330
1A
100
AcDbEntity
  8
SEIHIN
100
AcDbLine
 10
117.9267423462857
 20
203.1228501895969
 30
0.0
 11
168.5914133462857
 21
203.1230311895969
 31
0.0
  0
LINE
  5
4534
330
1A
100
AcDbEntity
  8
SEIHIN
100
AcDbLine
 10
117.9267463462859
 20
220.122793189597
 30
0.0
 11
168.5914133462857
 21
220.122793189597
 31
0.0
  0
LINE
  5
4535
330
1A
100
AcDbEntity
  8
SEIHIN
100
AcDbLine
 10
101.6683393462859
 20
216.622822189597
 30
0.0
 11
118.4055433462859
 21
216.622822189597
 31
0.0
  0
LINE
  5
4536
330
1A
100
AcDbEntity
  8
SEIHIN
100
AcDbLine
 10
94.92673034628569
 20
216.722822189597
 30
0.0
 11
117.9267303462857
 21
216.722822189597
 31
0.0
  0
LINE
  5
4537
330
1A
100
AcDbEntity
  8
SEIHIN
100
AcDbLine
 10
94.92673234628569
 20
217.222822189597
 30
0.0
 11
117.9267323462857
 21
217.222822189597
 31
0.0
  0
LINE
  5
4538
330
1A
100
AcDbEntity
  8
SEIHIN
100
AcDbLine
 10
94.92673234628569
 20
206.0228221895969
 30
0.0
 11
117.9267323462857
 21
206.0228221895969
 31
0.0
  0
LINE
  5
4539
330
1A
100
AcDbEntity
  8
SEIHIN
100
AcDbLine
 10
94.92674834628588
 20
201.5228221895969
 30
0.0
 11
117.9267483462859
 21
201.5228221895969
 31
0.0
  0
LINE
  5
453A
330
1A
100
AcDbEntity
  8
SEIHIN
100
AcDbLine
 10
101.6683393462859
 20
206.622822189597
 30
0.0
 11
118.4055433462859
 21
206.622822189597
 31
0.0
  0
LINE
  5
453B
330
1A
100
AcDbEntity
  8
SEIHIN
100
AcDbLine
 10
94.92673034628569
 20
206.5228221895969
 30
0.0
 11
117.9267303462857
 21
206.5228221895969
 31
0.0
  0
LINE
  5
453C
330
1A
100
AcDbEntity
  8
SEIHIN
100
AcDbLine
 10
100.1766983462858
 20
219.122822189597
 30
0.0
 11
97.17669834628578
 21
219.122822189597
 31
0.0
  0
LINE
  5
453D
330
1A
100
AcDbEntity
  8
SEIHIN
100
AcDbLine
 10
96.92669834628578
 20
220.122822189597
 30
0.0
 11
100.4266983462858
 21
220.122822189597
 31
0.0
  0
LINE
  5
453E
330
1A
100
AcDbEntity
  8
SEIHIN
100
AcDbLine
 10
96.92669834628578
 20
202.0228221895969
 30
0.0
 11
100.4266983462858
 21
202.0228221895969
 31
0.0
  0
LINE
  5
453F
330
1A
100
AcDbEntity
  8
SEIHIN
100
AcDbLine
 10
100.1766983462858
 20
204.122822189597
 30
0.0
 11
97.17669834628578
 21
204.122822189597
 31
0.0
  0
LINE
  5
4540
330
1A
100
AcDbEntity
  8
SEIHIN
100
AcDbLine
 10
96.92669834628578
 20
203.122822189597
 30
0.0
 11
100.4266983462858
 21
203.122822189597
 31
0.0
  0
LINE
  5
4541
330
1A
100
AcDbEntity
  8
SEIHIN
100
AcDbLine
 10
90.78536434628586
 20
208.622822189597
 30
0.0
 11
90.78536434628586
 21
214.622822189597
 31
0.0
  0
LINE
  5
4542
330
1A
100
AcDbEntity
  8
SEIHIN
100
AcDbLine
 10
93.28536434628586
 20
208.622822189597
 30
0.0
 11
93.28536434628586
 21
214.622822189597
 31
0.0
  0
LINE
  5
4543
330
1A
100
AcDbEntity
  8
SEIHIN
100
AcDbLine
 10
95.78536434628586
 20
208.622822189597
 30
0.0
 11
95.78536434628586
 21
214.622822189597
 31
0.0
  0
LINE
  5
4544
330
1A
100
AcDbEntity
  8
SEIHIN
100
AcDbLine
 10
95.28536434628586
 20
208.622822189597
 30
0.0
 11
95.28536434628586
 21
214.622822189597
 31
0.0
  0
LINE
  5
4545
330
1A
100
AcDbEntity
  8
SEIHIN
100
AcDbLine
 10
92.78536434628586
 20
208.622822189597
 30
0.0
 11
92.78536434628586
 21
214.622822189597
 31
0.0
  0
LINE
  5
4546
330
1A
100
AcDbEntity
  8
SEIHIN
100
AcDbLine
 10
87.94461734628567
 20
218.279802189597
 30
0.0
 11
87.94461734628567
 21
205.433825189597
 31
0.0
  0
LINE
  5
4547
330
1A
100
AcDbEntity
  8
SEIHIN
100
AcDbLine
 10
85.72427334628583
 20
205.122822189597
 30
0.0
 11
85.72427334628583
 21
218.354540189597
 31
0.0
  0
LINE
  5
4548
330
1A
100
AcDbEntity
  8
SEIHIN
100
AcDbLine
 10
97.17669834628578
 20
216.722822189597
 30
0.0
 11
97.17669834628578
 21
206.5228221895969
 31
0.0
  0
LINE
  5
4549
330
1A
100
AcDbEntity
  8
SEIHIN
100
AcDbLine
 10
86.95033934628577
 20
202.122822189597
 30
0.0
 11
94.92674634628588
 21
202.1228501895969
 31
0.0
  0
LINE
  5
454A
330
1A
100
AcDbEntity
  8
SEIHIN
100
AcDbLine
 10
86.55678834628566
 20
203.122822189597
 30
0.0
 11
94.92674234628566
 21
203.1228511895969
 31
0.0
  0
ARC
  5
454B
330
1A
100
AcDbEntity
  8
SEIHIN
100
AcDbCircle
 10
86.55678834628566
 20
204.122822189597
 30
0.0
 40
0.9999999458312471
100
AcDbArc
 50
211.5881713514856
 51
269.999999999987
  0
ARC
  5
454C
330
1A
100
AcDbEntity
  8
SEIHIN
100
AcDbCircle
 10
91.53291434628568
 20
205.122822189597
 30
0.0
 40
5.999999821933536
100
AcDbArc
 50
196.6795699694838
 51
203.5781945536695
  0
ARC
  5
454D
330
1A
100
AcDbEntity
  8
SEIHIN
100
AcDbCircle
 10
86.95033934628577
 20
203.122822189597
 30
0.0
 40
0.999999936306246
100
AcDbArc
 50
203.5781816636463
 51
270.0
  0
LINE
  5
454E
330
1A
100
AcDbEntity
  8
SEIHIN
100
AcDbLine
 10
85.78536434628586
 20
203.372822189597
 30
0.0
 11
85.79379434628572
 21
203.372822189597
 31
0.0
  0
ARC
  5
454F
330
1A
100
AcDbEntity
  8
SEIHIN
100
AcDbCircle
 10
84.8274393462857
 20
203.113691189597
 30
0.0
 40
1.000000052812247
100
AcDbArc
 50
16.67956996948384
 51
35.83063548330045
  0
ARC
  5
4550
330
1A
100
AcDbEntity
  8
SEIHIN
100
AcDbCircle
 10
82.25916734628572
 20
204.372822189597
 30
0.0
 40
0.9999999402282465
100
AcDbArc
 50
270.0000000234496
 51
321.7533469536269
  0
ARC
  5
4551
330
1A
100
AcDbEntity
  8
SEIHIN
100
AcDbCircle
 10
84.32072034628573
 20
202.747822189597
 30
0.0
 40
1.624999817959518
100
AcDbArc
 50
31.58817135149911
 51
141.7534063919598
  0
LINE
  5
4552
330
1A
100
AcDbEntity
  8
SEIHIN
100
AcDbLine
 10
96.92669834628578
 20
206.0228221895969
 30
0.0
 11
96.92669834628578
 21
201.5228221895969
 31
0.0
  0
LINE
  5
4553
330
1A
100
AcDbEntity
  8
SEIHIN
100
AcDbLine
 10
94.92673034628569
 20
206.5228221895969
 30
0.0
 11
94.92674834628588
 21
201.5228221895969
 31
0.0
  0
ARC
  5
4554
330
1A
100
AcDbEntity
  8
SEIHIN
100
AcDbCircle
 10
94.28536434628586
 20
209.372822189597
 30
0.0
 40
1.25
100
AcDbArc
 50
216.8698976458436
 51
323.1301023541561
  0
ARC
  5
4555
330
1A
100
AcDbEntity
  8
SEIHIN
100
AcDbCircle
 10
91.78536434628586
 20
209.372822189597
 30
0.0
 40
1.25
100
AcDbArc
 50
216.8698976458436
 51
323.1301023541561
  0
ARC
  5
4556
330
1A
100
AcDbEntity
  8
SEIHIN
100
AcDbCircle
 10
96.78536434628586
 20
209.372822189597
 30
0.0
 40
1.249999816264373
100
AcDbArc
 50
216.8698976458436
 51
288.2441676844565
  0
LINE
  5
4557
330
1A
100
AcDbEntity
  8
SEIHIN
100
AcDbLine
 10
97.17669834628578
 20
204.122822189597
 30
0.0
 11
97.17669834628578
 21
206.0228221895969
 31
0.0
  0
LINE
  5
4558
330
1A
100
AcDbEntity
  8
SEIHIN
100
AcDbLine
 10
86.55678834628566
 20
220.122822189597
 30
0.0
 11
94.92674234628566
 21
220.122822189597
 31
0.0
  0
ARC
  5
4559
330
1A
100
AcDbEntity
  8
SEIHIN
100
AcDbCircle
 10
86.55678834628566
 20
219.122822189597
 30
0.0
 40
0.9999999458312471
100
AcDbArc
 50
90.0
 51
148.4118286484971
  0
ARC
  5
455A
330
1A
100
AcDbEntity
  8
SEIHIN
100
AcDbCircle
 10
91.53291434628568
 20
218.0949331895969
 30
0.0
 40
5.999999971785416
100
AcDbArc
 50
156.0726603748118
 51
163.3204385656306
  0
LINE
  5
455B
330
1A
100
AcDbEntity
  8
SEIHIN
100
AcDbLine
 10
85.78536434628586
 20
219.872822189597
 30
0.0
 11
85.80237234628567
 21
219.872822189597
 31
0.0
  0
ARC
  5
455C
330
1A
100
AcDbEntity
  8
SEIHIN
100
AcDbCircle
 10
84.8274393462857
 20
220.131952189597
 30
0.0
 40
1.000000052812247
100
AcDbArc
 50
324.1693788329692
 51
343.3204443467876
  0
ARC
  5
455D
330
1A
100
AcDbEntity
  8
SEIHIN
100
AcDbCircle
 10
82.25916734628572
 20
218.872822189597
 30
0.0
 40
1.000000332904889
100
AcDbArc
 50
38.24661760099893
 51
90.0
  0
ARC
  5
455E
330
1A
100
AcDbEntity
  8
SEIHIN
100
AcDbCircle
 10
84.32072034628573
 20
220.497822189597
 30
0.0
 40
1.624999817959518
100
AcDbArc
 50
218.2466530698185
 51
328.4118881102794
  0
ARC
  5
455F
330
1A
100
AcDbEntity
  8
SEIHIN
100
AcDbCircle
 10
94.28536434628586
 20
213.872822189597
 30
0.0
 40
1.25
100
AcDbArc
 50
36.86989764584362
 51
143.1301023541564
  0
ARC
  5
4560
330
1A
100
AcDbEntity
  8
SEIHIN
100
AcDbCircle
 10
91.78536434628586
 20
213.872822189597
 30
0.0
 40
1.25
100
AcDbArc
 50
36.86989764584362
 51
143.1301023541564
  0
ARC
  5
4561
330
1A
100
AcDbEntity
  8
SEIHIN
100
AcDbCircle
 10
96.78536434628586
 20
213.872822189597
 30
0.0
 40
1.249999816264373
100
AcDbArc
 50
71.75583951464351
 51
143.1301095532587
  0
LINE
  5
4562
330
1A
100
AcDbEntity
  8
SEIHIN
100
AcDbLine
 10
97.17669834628578
 20
219.122822189597
 30
0.0
 11
97.17669834628578
 21
217.222822189597
 31
0.0
  0
LINE
  5
4563
330
1A
100
AcDbEntity
  8
SEIHIN
100
AcDbLine
 10
100.6683393462859
 20
215.622822189597
 30
0.0
 11
100.6683393462859
 21
207.622822189597
 31
0.0
  0
LINE
  5
4564
330
1A
100
AcDbEntity
  8
SEIHIN
100
AcDbLine
 10
100.1766983462858
 20
216.722822189597
 30
0.0
 11
100.1766983462858
 21
206.5228221895969
 31
0.0
  0
LINE
  5
4565
330
1A
100
AcDbEntity
  8
SEIHIN
100
AcDbLine
 10
103.9268183462857
 20
205.5228221895969
 30
0.0
 11
108.9268183462857
 21
205.5228221895969
 31
0.0
  0
LINE
  5
4566
330
1A
100
AcDbEntity
  8
SEIHIN
100
AcDbLine
 10
100.4266983462858
 20
206.0228221895969
 30
0.0
 11
100.4266983462858
 21
201.5228221895969
 31
0.0
  0
LINE
  5
4567
330
1A
100
AcDbEntity
  8
SEIHIN
100
AcDbLine
 10
100.6683393462859
 20
207.622822189597
 30
0.0
 11
101.6683393462859
 21
207.622822189597
 31
0.0
  0
LINE
  5
4568
330
1A
100
AcDbEntity
  8
SEIHIN
100
AcDbLine
 10
100.1766983462858
 20
204.122822189597
 30
0.0
 11
100.1766983462858
 21
206.0228221895969
 31
0.0
  0
LINE
  5
4569
330
1A
100
AcDbEntity
  8
SEIHIN
100
AcDbLine
 10
101.6683393462859
 20
207.622822189597
 30
0.0
 11
101.6683393462859
 21
206.622822189597
 31
0.0
  0
LINE
  5
456A
330
1A
100
AcDbEntity
  8
SEIHIN
100
AcDbLine
 10
103.9268183462857
 20
205.5228221895969
 30
0.0
 11
103.9268183462857
 21
206.0228221895969
 31
0.0
  0
LINE
  5
456B
330
1A
100
AcDbEntity
  8
SEIHIN
100
AcDbLine
 10
108.9268183462857
 20
205.5228221895969
 30
0.0
 11
108.9268183462857
 21
206.0228221895969
 31
0.0
  0
LINE
  5
456C
330
1A
100
AcDbEntity
  8
SEIHIN
100
AcDbLine
 10
103.9268183462857
 20
217.722822189597
 30
0.0
 11
108.9268183462857
 21
217.722822189597
 31
0.0
  0
LINE
  5
456D
330
1A
100
AcDbEntity
  8
SEIHIN
100
AcDbLine
 10
100.1766983462858
 20
219.122822189597
 30
0.0
 11
100.1766983462858
 21
217.222822189597
 31
0.0
  0
LINE
  5
456E
330
1A
100
AcDbEntity
  8
SEIHIN
100
AcDbLine
 10
100.6683393462859
 20
215.622822189597
 30
0.0
 11
101.6683393462859
 21
215.622822189597
 31
0.0
  0
LINE
  5
456F
330
1A
100
AcDbEntity
  8
SEIHIN
100
AcDbLine
 10
101.6683393462859
 20
215.622822189597
 30
0.0
 11
101.6683393462859
 21
216.622822189597
 31
0.0
  0
LINE
  5
4570
330
1A
100
AcDbEntity
  8
SEIHIN
100
AcDbLine
 10
103.9268183462857
 20
217.722822189597
 30
0.0
 11
103.9268183462857
 21
217.222822189597
 31
0.0
  0
LINE
  5
4571
330
1A
100
AcDbEntity
  8
SEIHIN
100
AcDbLine
 10
108.9268183462857
 20
217.722822189597
 30
0.0
 11
108.9268183462857
 21
217.222822189597
 31
0.0
  0
LINE
  5
4572
330
1A
100
AcDbEntity
  8
SEIHIN
100
AcDbLine
 10
127.3083733462859
 20
219.715218189597
 30
0.0
 11
131.7134163462858
 21
217.622822189597
 31
0.0
  0
LINE
  5
4573
330
1A
100
AcDbEntity
  8
SEIHIN
100
AcDbLine
 10
128.4807583462857
 20
214.622822189597
 30
0.0
 11
135.4432813462859
 21
214.622822189597
 31
0.0
  0
LINE
  5
4574
330
1A
100
AcDbEntity
  8
SEIHIN
100
AcDbLine
 10
128.4807583462857
 20
208.622822189597
 30
0.0
 11
135.4432813462859
 21
208.622822189597
 31
0.0
  0
LINE
  5
4575
330
1A
100
AcDbEntity
  8
SEIHIN
100
AcDbLine
 10
127.3083733462859
 20
203.5304271895969
 30
0.0
 11
131.7134133462857
 21
205.622822189597
 31
0.0
  0
ARC
  5
4576
330
1A
100
AcDbEntity
  8
SEIHIN
100
AcDbCircle
 10
128.4807583462857
 20
210.122822189597
 30
0.0
 40
1.5
100
AcDbArc
 50
180.0
 51
270.0
  0
LINE
  5
4577
330
1A
100
AcDbEntity
  8
SEIHIN
100
AcDbLine
 10
117.0093413462857
 20
206.622822189597
 30
0.0
 11
117.0093413462857
 21
216.622822189597
 31
0.0
  0
LINE
  5
4578
330
1A
100
AcDbEntity
  8
SEIHIN
100
AcDbLine
 10
119.6927133462857
 20
206.332655189597
 30
0.0
 11
125.5921463462857
 21
203.5304261895969
 31
0.0
  0
LINE
  5
4579
330
1A
100
AcDbEntity
  8
SEIHIN
100
AcDbLine
 10
124.3450633462858
 20
204.122790189597
 30
0.0
 11
117.9267383462857
 21
204.122767189597
 31
0.0
  0
LINE
  5
457A
330
1A
100
AcDbEntity
  8
SEIHIN
100
AcDbLine
 10
117.9267303462857
 20
206.5228221895969
 30
0.0
 11
117.9267483462859
 21
201.5228221895969
 31
0.0
  0
ARC
  5
457B
330
1A
100
AcDbEntity
  8
SEIHIN
100
AcDbCircle
 10
118.4055433462859
 20
203.622822189597
 30
0.0
 40
3.000000124732412
100
AcDbArc
 50
64.59228447875078
 51
89.99999094305167
  0
ARC
  5
457C
330
1A
100
AcDbEntity
  8
SEIHIN
100
AcDbCircle
 10
126.4502593462858
 20
205.3369811895969
 30
0.0
 40
1.999999816165233
100
AcDbArc
 50
244.5922844787526
 51
295.4077120920526
  0
LINE
  5
457D
330
1A
100
AcDbEntity
  8
SEIHIN
100
AcDbLine
 10
119.6927133462857
 20
216.9129901895969
 30
0.0
 11
125.5921463462857
 21
219.715219189597
 31
0.0
  0
LINE
  5
457E
330
1A
100
AcDbEntity
  8
SEIHIN
100
AcDbLine
 10
124.3449273462857
 20
219.122790189597
 30
0.0
 11
117.9267383462857
 21
219.122813189597
 31
0.0
  0
ARC
  5
457F
330
1A
100
AcDbEntity
  8
SEIHIN
100
AcDbCircle
 10
118.4055433462859
 20
219.622822189597
 30
0.0
 40
3.000000124732412
100
AcDbArc
 50
270.0
 51
295.4077064643031
  0
ARC
  5
4580
330
1A
100
AcDbEntity
  8
SEIHIN
100
AcDbCircle
 10
128.4807583462857
 20
213.122822189597
 30
0.0
 40
1.5
100
AcDbArc
 50
90.0
 51
180.0
  0
LINE
  5
4581
330
1A
100
AcDbEntity
  8
SEIHIN
100
AcDbLine
 10
126.9807583462857
 20
210.122822189597
 30
0.0
 11
126.9807583462857
 21
213.122822189597
 31
0.0
  0
ARC
  5
4582
330
1A
100
AcDbEntity
  8
SEIHIN
100
AcDbCircle
 10
126.4502593462858
 20
217.908663189597
 30
0.0
 40
1.999999816165233
100
AcDbArc
 50
64.59225989560119
 51
115.4076875089021
  0
LINE
  5
4583
330
1A
100
AcDbEntity
  8
SEIHIN
100
AcDbLine
 10
134.8053753462857
 20
208.622822189597
 30
0.0
 11
134.8053753462857
 21
214.622822189597
 31
0.0
  0
LINE
  5
4584
330
1A
100
AcDbEntity
  8
SEIHIN
100
AcDbLine
 10
135.4432813462859
 20
208.622822189597
 30
0.0
 11
135.4432813462859
 21
214.622822189597
 31
0.0
  0
LINE
  5
4585
330
1A
100
AcDbEntity
  8
SEIHIN
100
AcDbLine
 10
138.9728493462858
 20
205.622822189597
 30
0.0
 11
138.9728493462858
 21
217.622822189597
 31
0.0
  0
LINE
  5
4586
330
1A
100
AcDbEntity
  8
SEIHIN
100
AcDbLine
 10
138.0298583462857
 20
205.6621611895969
 30
0.0
 11
138.0298583462857
 21
217.583482189597
 31
0.0
  0
LINE
  5
4587
330
1A
100
AcDbEntity
  8
SEIHIN
100
AcDbLine
 10
131.7134133462857
 20
205.622822189597
 30
0.0
 11
138.9728493462858
 21
205.622822189597
 31
0.0
  0
LINE
  5
4588
330
1A
100
AcDbEntity
  8
SEIHIN
100
AcDbLine
 10
131.7962323462857
 20
205.6621611895969
 30
0.0
 11
131.7962333462858
 21
208.622822189597
 31
0.0
  0
LINE
  5
4589
330
1A
100
AcDbEntity
  8
SEIHIN
100
AcDbLine
 10
131.7962353462858
 20
214.622822189597
 30
0.0
 11
131.7962353462858
 21
217.583483189597
 31
0.0
  0
LINE
  5
458A
330
1A
100
AcDbEntity
  8
SEIHIN
100
AcDbLine
 10
131.7134163462858
 20
217.622822189597
 30
0.0
 11
138.9728493462858
 21
217.622822189597
 31
0.0
  0
LINE
  5
458B
330
1A
100
AcDbEntity
  8
SEIHIN
100
AcDbLine
 10
168.5914133462857
 20
204.122912189597
 30
0.0
 11
168.5914133462857
 21
202.1230311895969
 31
0.0
  0
LINE
  5
458C
330
1A
100
AcDbEntity
  8
SEIHIN
100
AcDbLine
 10
207.2006273462857
 20
201.154244189597
 30
0.0
 11
207.2006273462857
 21
188.9814801895969
 31
0.0
  0
LINE
  5
458D
330
1A
100
AcDbEntity
  8
SEIHIN
100
AcDbLine
 10
208.4006273462858
 20
201.154244189597
 30
0.0
 11
208.4006273462858
 21
188.9814801895969
 31
0.0
  0
ARC
  5
458E
330
1A
100
AcDbEntity
  8
SEIHIN
100
AcDbCircle
 10
210.2006273462857
 20
188.9814801895969
 30
0.0
 40
3.0
100
AcDbArc
 50
180.0
 51
270.0
  0
ARC
  5
458F
330
1A
100
AcDbEntity
  8
SEIHIN
100
AcDbCircle
 10
211.4006273462858
 20
188.9814801895969
 30
0.0
 40
3.0
100
AcDbArc
 50
180.0
 51
270.0
  0
ELLIPSE
  5
4590
330
1A
100
AcDbEntity
  8
SEIHIN
100
AcDbEllipse
 10
211.4517843462859
 20
191.2314831895969
 30
0.0
 11
4.592277442707641E-17
 21
2.100001711502093
 31
0.0
210
0.0
220
0.0
230
1.0
 40
0.3571425437499017
 41
-1.570796326794897
 42
4.71238898038469
  0
ELLIPSE
  5
4591
330
1A
100
AcDbEntity
  8
SEIHIN
100
AcDbEllipse
 10
210.7780443462857
 20
191.2314831895969
 30
0.0
 11
4.592277442707641E-17
 21
2.100001711502093
 31
0.0
210
0.0
220
0.0
230
1.0
 40
0.3571425437499017
 41
-2.675767399566849
 42
-0.4658252540229442
  0
LINE
  5
4592
330
1A
100
AcDbEntity
  8
SEIHIN
100
AcDbLine
 10
181.8389153462858
 20
215.8219671895969
 30
0.0
 11
181.8389153462858
 21
207.257608189597
 31
0.0
  0
LINE
  5
4593
330
1A
100
AcDbEntity
  8
SEIHIN
100
AcDbLine
 10
183.3427143462857
 20
204.5372961895969
 30
0.0
 11
183.3427143462857
 21
206.186645189597
 31
0.0
  0
LINE
  5
4594
330
1A
100
AcDbEntity
  8
SEIHIN
100
AcDbLine
 10
183.3427143462857
 20
218.708752189597
 30
0.0
 11
183.3427143462857
 21
217.0594031895969
 31
0.0
  0
LINE
  5
4595
330
1A
100
AcDbEntity
  8
SEIHIN
100
AcDbLine
 10
213.0236343462857
 20
215.6333451895969
 30
0.0
 11
213.0236343462857
 21
207.623045189597
 31
0.0
  0
LINE
  5
4596
330
1A
100
AcDbEntity
  8
SEIHIN
100
AcDbLine
 10
204.3821203462858
 20
203.3855931895969
 30
0.0
 11
206.9658093462858
 21
202.833434189597
 31
0.0
  0
LINE
  5
4597
330
1A
100
AcDbEntity
  8
SEIHIN
100
AcDbLine
 10
204.1949323462857
 20
202.200282189597
 30
0.0
 11
206.7786223462858
 21
201.648123189597
 31
0.0
  0
ARC
  5
4598
330
1A
100
AcDbEntity
  8
SEIHIN
100
AcDbCircle
 10
204.4133183462857
 20
203.583144189597
 30
0.0
 40
1.399999956435713
100
AcDbArc
 50
179.9999974854032
 51
261.0257794118542
  0
LINE
  5
4599
330
1A
100
AcDbEntity
  8
SEIHIN
100
AcDbLine
 10
203.0133183462858
 20
203.583145189597
 30
0.0
 11
203.0133163462858
 21
204.133328189597
 31
0.0
  0
LINE
  5
459A
330
1A
100
AcDbEntity
  8
SEIHIN
100
AcDbLine
 10
204.3821203462858
 20
203.3855931895969
 30
0.0
 11
204.3821173462857
 21
204.133332189597
 31
0.0
  0
LINE
  5
459B
330
1A
100
AcDbEntity
  8
SEIHIN
100
AcDbLine
 10
208.4006273462858
 20
201.154244189597
 30
0.0
 11
211.6489553462857
 21
201.154244189597
 31
0.0
  0
ARC
  5
459C
330
1A
100
AcDbEntity
  8
SEIHIN
100
AcDbCircle
 10
206.7006273462857
 20
201.154244189597
 30
0.0
 40
1.700000158763074
100
AcDbArc
 50
0.0000066132454181
 51
81.02579079286475
  0
ARC
  5
459D
330
1A
100
AcDbEntity
  8
SEIHIN
100
AcDbCircle
 10
206.7006273462857
 20
201.154244189597
 30
0.0
 40
0.4999998433329509
100
AcDbArc
 50
0.0000000000781653
 51
81.0257768193338
  0
LINE
  5
459E
330
1A
100
AcDbEntity
  8
SEIHIN
100
AcDbLine
 10
211.6489553462857
 20
202.7475301895969
 30
0.0
 11
211.6489553462857
 21
200.2566341895969
 31
0.0
  0
ARC
  5
459F
330
1A
100
AcDbEntity
  8
SEIHIN
100
AcDbCircle
 10
212.0236343462857
 20
207.623045189597
 30
0.0
 40
1.00000000000225
100
AcDbArc
 50
270.0001750581466
 51
0.0000031708051873
  0
LINE
  5
45A0
330
1A
100
AcDbEntity
  8
SEIHIN
100
AcDbLine
 10
206.9591243462858
 20
220.4115731895969
 30
0.0
 11
204.3829063462858
 21
219.874818189597
 31
0.0
  0
LINE
  5
45A1
330
1A
100
AcDbEntity
  8
SEIHIN
100
AcDbLine
 10
204.3829063462858
 20
219.874818189597
 30
0.0
 11
204.3829083462858
 21
219.133332189597
 31
0.0
  0
LINE
  5
45A2
330
1A
100
AcDbEntity
  8
SEIHIN
100
AcDbLine
 10
203.0133183462858
 20
219.683541189597
 30
0.0
 11
203.0133193462857
 21
219.133328189597
 31
0.0
  0
ARC
  5
45A3
330
1A
100
AcDbEntity
  8
SEIHIN
100
AcDbCircle
 10
212.0236343462857
 20
215.6333451895969
 30
0.0
 40
0.9999999325839954
100
AcDbArc
 50
0.0
 51
81.76948710279484
  0
LINE
  5
45A4
330
1A
100
AcDbEntity
  8
SEIHIN
100
AcDbLine
 10
117.9267463462859
 20
221.122793189597
 30
0.0
 11
168.5914133462857
 21
221.122793189597
 31
0.0
  0
LINE
  5
45A5
330
1A
100
AcDbEntity
  8
SEIHIN
100
AcDbLine
 10
94.92674834628588
 20
221.722822189597
 30
0.0
 11
117.9267483462859
 21
221.722822189597
 31
0.0
  0
LINE
  5
45A6
330
1A
100
AcDbEntity
  8
SEIHIN
100
AcDbLine
 10
96.92669834628578
 20
221.222822189597
 30
0.0
 11
100.4266983462858
 21
221.222822189597
 31
0.0
  0
LINE
  5
45A7
330
1A
100
AcDbEntity
  8
SEIHIN
100
AcDbLine
 10
86.96261134628571
 20
221.122822189597
 30
0.0
 11
94.92674634628588
 21
221.122793189597
 31
0.0
  0
ELLIPSE
  5
45A8
330
1A
100
AcDbEntity
  8
SEIHIN
100
AcDbEllipse
 10
211.4517843462859
 20
232.035207189597
 30
0.0
 11
4.592277442707641E-17
 21
-2.100001711502093
 31
0.0
210
0.0
220
0.0
230
-1.0
 40
0.3571425437499017
 41
-1.570796326794897
 42
4.71238898038469
  0
ELLIPSE
  5
45A9
330
1A
100
AcDbEntity
  8
SEIHIN
100
AcDbEllipse
 10
210.7780443462857
 20
232.035207189597
 30
0.0
 11
4.592277442707641E-17
 21
-2.100001711502093
 31
0.0
210
0.0
220
0.0
230
-1.0
 40
0.3571425437499017
 41
-2.675767399566849
 42
-0.4658252540229442
  0
LINE
  5
45AA
330
1A
100
AcDbEntity
  8
SEIHIN
100
AcDbLine
 10
208.4006273462858
 20
222.0918051895969
 30
0.0
 11
208.4006273462858
 21
234.285207189597
 31
0.0
  0
LINE
  5
45AB
330
1A
100
AcDbEntity
  8
SEIHIN
100
AcDbLine
 10
207.2006273462857
 20
222.112441189597
 30
0.0
 11
207.2006273462857
 21
234.285207189597
 31
0.0
  0
LINE
  5
45AC
330
1A
100
AcDbEntity
  8
SEIHIN
100
AcDbLine
 10
204.1949323462857
 20
221.0664031895969
 30
0.0
 11
206.7786223462858
 21
221.618562189597
 31
0.0
  0
LINE
  5
45AD
330
1A
100
AcDbEntity
  8
SEIHIN
100
AcDbLine
 10
208.4006273462858
 20
222.0918051895969
 30
0.0
 11
211.6489553462857
 21
222.0918051895969
 31
0.0
  0
ARC
  5
45AE
330
1A
100
AcDbEntity
  8
SEIHIN
100
AcDbCircle
 10
206.7006273462857
 20
222.112441189597
 30
0.0
 40
0.4999998433329509
100
AcDbArc
 50
278.9742142431747
 51
359.999991062426
  0
ARC
  5
45AF
330
1A
100
AcDbEntity
  8
SEIHIN
100
AcDbCircle
 10
210.2006273462857
 20
234.285207189597
 30
0.0
 40
3.000000000000084
100
AcDbArc
 50
89.99998090140484
 51
180.0
  0
ARC
  5
45B0
330
1A
100
AcDbEntity
  8
SEIHIN
100
AcDbCircle
 10
211.4006273462858
 20
234.285207189597
 30
0.0
 40
3.0
100
AcDbArc
 50
90.0
 51
180.0
  0
DIMENSION
  5
45B1
330
1A
100
AcDbEntity
  8
SUNPOU
100
AcDbDimension
  2
*D8
 10
285.8204826464929
 20
112.4213230354977
 30
0.0
 11
279.8962557564684
 21
129.6013560337505
 31
0.0
 70
    33
 71
     5
 42
35.99999989253041
  3
STANDARD
100
AcDbAlignedDimension
 13
287.9023055214343
 23
153.8587130008756
 33
0.0
 14
304.2084432915659
 24
121.7633883680934
 34
0.0
1001
ACAD
1000
DSTYLE
1002
{
1070
   140
1040
3.0
1070
    74
1070
     0
1070
   172
1070
     1
1070
    73
1070
     0
1070
   272
1070
     0
1070
    77
1070
     3
1070
   173
1070
     1
1070
   147
1040
1.0
1070
    42
1040
3.0
1070
    44
1040
1.5
1070
    43
1040
7.0
1070
   271
1070
     0
1070
   178
1070
   256
1070
   177
1070
   256
1070
   176
1070
   256
1070
   141
1040
3.0
1070
     7
1000
OPEN
1070
     6
1000
OPEN
1070
    41
1040
3.0
1002
}
  0
LINE
  5
45B2
330
1A
100
AcDbEntity
  8
CENTER L
100
AcDbLine
 10
301.7172277884215
 20
126.6668407631846
 30
0.0
 11
307.0664485765207
 21
129.3845303996529
 31
0.0
  0
LINE
  5
45B3
330
1A
100
AcDbEntity
  8
CENTER L
100
AcDbLine
 10
303.0329933642369
 20
130.7002959754684
 30
0.0
 11
305.7506830007052
 21
125.3510751873691
 31
0.0
  0
LINE
  5
45B4
330
1A
100
AcDbEntity
  8
CENTER L
100
AcDbLine
 10
287.9023055214343
 20
153.8587130008756
 30
0.0
 11
304.2084432915659
 21
121.7633883680934
 31
0.0
  0
LINE
  5
45B5
330
1A
100
AcDbEntity
  8
CENTER L
100
AcDbLine
 10
302.864586942893
 20
175.6857266345739
 30
0.0
 11
333.3440342193896
 21
115.6931171793283
 31
0.0
  0
LINE
  5
45B6
330
1A
100
AcDbEntity
  8
SEIHIN
100
AcDbLine
 10
312.3610903066166
 20
133.1961496444912
 30
0.0
 11
315.3052533066165
 21
127.4011606444912
 31
0.0
  0
CIRCLE
  5
45B7
330
1A
100
AcDbEntity
  8
SEIHIN
100
AcDbCircle
 10
304.3918383066165
 20
128.0256856444912
 30
0.0
 40
2.1
  0
LINE
  5
45B8
330
1A
100
AcDbEntity
  8
SEIHIN
100
AcDbLine
 10
327.3669423066166
 20
133.5291416444912
 30
0.0
 11
333.0780703066165
 21
122.2879456444912
 31
0.0
  0
LINE
  5
45B9
330
1A
100
AcDbEntity
  8
SEIHIN
100
AcDbLine
 10
322.4634903066166
 20
131.0379266444912
 30
0.0
 11
328.1746183066165
 21
119.7967296444912
 31
0.0
  0
LINE
  5
45BA
330
1A
100
AcDbEntity
  8
SEIHIN
100
AcDbLine
 10
346.0456442375448
 20
143.0189191946234
 30
0.0
 11
303.7847891775314
 21
121.5481494688115
 31
0.0
  0
LINE
  5
45BB
330
1A
100
AcDbEntity
  8
SEIHIN
100
AcDbLine
 10
286.6024793066166
 20
150.9550146444912
 30
0.0
 11
301.0968243066167
 21
122.4258376444912
 31
0.0
  0
LINE
  5
45BC
330
1A
100
AcDbEntity
  8
SUNPOU
100
AcDbLine
 10
224.7067643462858
 20
81.37229318959697
 30
0.0
 11
235.7249766386481
 21
59.68517724703202
 31
0.0
  0
LINE
  5
45BD
330
1A
100
AcDbEntity
  8
SEIHIN
 62
     6
 48
3.0
100
AcDbLine
 10
254.6250053462857
 20
78.79048818959694
 30
0.0
 11
259.7067643462858
 21
81.37229318959697
 31
0.0
  0
LINE
  5
45BE
330
1A
100
AcDbEntity
  8
SEIHIN
 62
     6
 48
3.0
100
AcDbLine
 10
242.3307833462857
 20
112.924080189597
 30
0.0
 11
258.6369203462857
 21
80.82875518959696
 31
0.0
  0
LINE
  5
45BF
330
1A
100
AcDbEntity
  8
SEIHIN
 62
     6
 48
3.0
100
AcDbLine
 10
254.6250053462857
 20
78.79048818959694
 30
0.0
 11
238.3188673462857
 21
110.885812189597
 31
0.0
  0
LINE
  5
45C0
330
1A
100
AcDbEntity
  8
SEIHIN
100
AcDbLine
 10
219.6250053462857
 20
78.79048818959694
 30
0.0
 11
224.7067643462858
 21
81.37229318959697
 31
0.0
  0
TEXT
  5
45C1
330
1A
100
AcDbEntity
  8
SUNPOU
100
AcDbText
 10
232.2092690513846
 20
55.50106636699059
 30
0.0
 40
3.0
  1
5
100
AcDbText
  0
TEXT
  5
45C2
330
1A
100
AcDbEntity
  8
SUNPOU
100
AcDbText
 10
225.8387318045193
 20
62.57280323908651
 30
0.0
 40
3.0
  1
10
100
AcDbText
  0
LINE
  5
45C3
330
1A
100
AcDbEntity
  8
SUNPOU
100
AcDbLine
 10
231.0295392168671
 20
59.68517724703202
 30
0.0
 11
231.0295392168671
 21
68.92719338043061
 31
0.0
  0
LINE
  5
45C4
330
1A
100
AcDbEntity
  8
SUNPOU
100
AcDbLine
 10
231.0295392168671
 20
59.68517724703202
 30
0.0
 11
235.7249766386481
 21
59.68517724703202
 31
0.0
  0
LINE
  5
45C5
330
1A
100
AcDbEntity
  8
SEIHIN
 62
     6
 48
3.0
100
AcDbLine
 10
243.4006273462858
 20
113.467618189597
 30
0.0
 11
259.7067643462858
 21
81.37229318959697
 31
0.0
  0
ARC
  5
45C6
330
1A
100
AcDbEntity
  8
SEIHIN
 62
     6
 48
3.0
100
AcDbCircle
 10
251.5597653462858
 20
97.24242718959692
 30
0.0
 40
6.624999944286226
100
AcDbArc
 50
175.0422014758799
 51
238.8237826041952
  0
LINE
  5
45C7
330
1A
100
AcDbEntity
  8
CENTER L
100
AcDbLine
 10
240.20245898218
 20
96.13955645447324
 30
0.0
 11
254.1995867860136
 21
103.250844374656
 31
0.0
  0
LINE
  5
45C8
330
1A
100
AcDbEntity
  8
CENTER L
100
AcDbLine
 10
236.3523987388608
 20
103.7176188337348
 30
0.0
 11
250.3495268257109
 21
110.8289068977051
 31
0.0
  0
LINE
  5
45C9
330
1A
100
AcDbEntity
  8
SEIHIN
 62
     6
 48
3.0
100
AcDbLine
 10
216.8386053462857
 20
111.9305571895969
 30
0.0
 11
233.7324263462858
 21
118.541183189597
 31
0.0
  0
LINE
  5
45CA
330
1A
100
AcDbEntity
  8
SEIHIN
 62
     6
 48
3.0
100
AcDbLine
 10
217.4718813462857
 20
109.4937771895969
 30
0.0
 11
234.6887703462858
 21
116.230820189597
 31
0.0
  0
LINE
  5
45CB
330
1A
100
AcDbEntity
  8
SEIHIN
 62
     6
 48
3.0
100
AcDbLine
 10
235.7819683462858
 20
113.437092189597
 30
0.0
 11
218.2318133462857
 21
106.569639189597
 31
0.0
  0
ARC
  5
45CC
330
1A
100
AcDbEntity
  8
SEIHIN
 62
     6
 48
3.0
100
AcDbCircle
 10
236.5107673462858
 20
111.574606189597
 30
0.0
 40
5.000000252443687
100
AcDbArc
 50
26.9329808259677
 51
111.3706255422678
  0
ARC
  5
45CD
330
1A
100
AcDbEntity
  8
SEIHIN
 62
     6
 48
3.0
100
AcDbCircle
 10
236.2832213462857
 20
112.0224831895969
 30
0.0
 40
6.999999955304642
100
AcDbArc
 50
26.9329808259677
 51
111.3706249075694
  0
ARC
  5
45CE
330
1A
100
AcDbEntity
  8
SEIHIN
 62
     6
 48
3.0
100
AcDbCircle
 10
236.5107673462858
 20
111.574606189597
 30
0.0
 40
2.000000248971219
100
AcDbArc
 50
26.93298082596861
 51
111.370597584645
  0
LINE
  5
45CF
330
1A
100
AcDbEntity
  8
SEIHIN
 62
     6
 48
3.0
100
AcDbLine
 10
238.3188673462857
 20
110.885812189597
 30
0.0
 11
243.4006273462858
 21
113.467618189597
 31
0.0
  0
LINE
  5
45D0
330
1A
100
AcDbEntity
  8
SEIHIN
 62
     6
 48
3.0
100
AcDbLine
 10
240.9684523462859
 20
113.8393451895969
 30
0.0
 11
241.6175533462858
 21
112.5617211895969
 31
0.0
  0
LINE
  5
45D1
330
1A
100
AcDbEntity
  8
SEIHIN
 62
     6
 48
3.0
100
AcDbLine
 10
238.2938403462858
 20
112.480503189597
 30
0.0
 11
238.9429433462858
 21
111.202876189597
 31
0.0
  0
LINE
  5
45D2
330
1A
100
AcDbEntity
  8
SEIHIN
 62
     6
 48
3.0
100
AcDbLine
 10
242.5239803462857
 20
115.1931191895969
 30
0.0
 11
243.4006273462858
 21
113.467618189597
 31
0.0
  0
LINE
  5
45D3
330
1A
100
AcDbEntity
  8
CENTER L
100
AcDbLine
 10
247.6761059190473
 20
81.42919892528001
 30
0.0
 11
261.6732331734961
 21
88.54048656634596
 31
0.0
  0
DIMENSION
  5
45D4
330
1A
100
AcDbEntity
  8
SUNPOU
100
AcDbDimension
  2
*D9
 10
294.9530891849149
 20
117.0611745440819
 30
0.0
 11
295.9363234283841
 21
120.6452714234893
 31
0.0
 70
    33
 71
     5
 42
5.500000006730289
  3
STANDARD
100
AcDbAlignedDimension
 13
301.7172277884214
 23
126.6668407631846
 33
0.0
 14
304.2084432915659
 24
121.7633883680934
 34
0.0
1001
ACAD
1000
DSTYLE
1002
{
1070
   140
1040
3.0
1070
    74
1070
     0
1070
   172
1070
     1
1070
    73
1070
     0
1070
   272
1070
     0
1070
    77
1070
     3
1070
   173
1070
     1
1070
   147
1040
1.0
1070
    42
1040
3.0
1070
    44
1040
1.5
1070
    43
1040
7.0
1070
   271
1070
     0
1070
   178
1070
   256
1070
   177
1070
   256
1070
   176
1070
   256
1070
   141
1040
3.0
1070
     7
1000
OPEN
1070
     6
1000
OPEN
1070
    41
1040
3.0
1002
}
  0
ARC
  5
45D5
330
1A
100
AcDbEntity
  8
SEIHIN
100
AcDbCircle
 10
302.8798983066166
 20
123.3317336444912
 30
0.0
 40
2.0
100
AcDbArc
 50
206.9329808259686
 51
296.9329808259677
  0
ARC
  5
45D6
330
1A
100
AcDbEntity
  8
SEIHIN
100
AcDbCircle
 10
329.0661553066167
 20
120.2496786444912
 30
0.0
 40
1.0
100
AcDbArc
 50
206.9329808259686
 51
296.9329808259728
  0
ARC
  5
45D7
330
1A
100
AcDbEntity
  8
SEIHIN
100
AcDbCircle
 10
332.1865343066166
 20
121.8349976444912
 30
0.0
 40
1.0
100
AcDbArc
 50
296.9329808259728
 51
26.93298082596861
  0
LINE
  5
45D8
330
1A
100
AcDbEntity
  8
SEIHIN
100
AcDbLine
 10
329.5191033066166
 20
119.3581416444912
 30
0.0
 11
332.6394823066165
 21
120.9434606444912
 31
0.0
  0
LEADER
  5
45D9
330
1A
100
AcDbEntity
  8
SUNPOU
100
AcDbLeader
  3
STANDARD
 76
     3
 10
334.6266518398906
 20
159.1284762364961
 30
0.0
 10
351.0258728153976
 20
154.7791975523461
 30
0.0
 10
371.654651229268
 20
154.7791975523461
 30
0.0
1001
ACAD
1000
DSTYLE
1002
{
1070
     6
1000
OPEN
1070
    41
1040
3.0
1070
    42
1040
3.0
1070
    43
1040
7.0
1070
    44
1040
1.5
1070
    73
1070
     0
1070
    74
1070
     0
1070
    77
1070
     3
1070
   140
1040
3.0
1070
   141
1040
3.0
1070
   147
1040
1.0
1070
   172
1070
     1
1070
   173
1070
     1
1070
   176
1070
   256
1070
   177
1070
   256
1070
   178
1070
   256
1070
   271
1070
     0
1070
   272
1070
     0
1070
   341
1005
B2
1070
   343
1005
B2
1070
   344
1005
B2
1002
}
  0
DIMENSION
  5
45DA
330
1A
100
AcDbEntity
  8
SUNPOU
100
AcDbDimension
  2
*D10
 10
344.7893432651122
 20
167.0571431143091
 30
0.0
 11
343.8475473978969
 21
174.4302712898625
 31
0.0
 70
    33
 71
     5
 42
13.99999979266329
  3
STANDARD
100
AcDbAlignedDimension
 13
329.7385004608273
 23
175.1137332147852
 33
0.0
 14
336.0797761853405
 24
162.632218227402
 34
0.0
1001
ACAD
1000
DSTYLE
1002
{
1070
   140
1040
3.0
1070
    74
1070
     0
1070
   172
1070
     1
1070
    73
1070
     0
1070
   272
1070
     0
1070
    77
1070
     3
1070
   173
1070
     1
1070
   147
1040
1.0
1070
    42
1040
3.0
1070
    44
1040
1.5
1070
    43
1040
7.0
1070
   271
1070
     0
1070
   178
1070
   256
1070
   177
1070
   256
1070
   176
1070
   256
1070
   141
1040
3.0
1070
     7
1000
OPEN
1070
     6
1000
OPEN
1070
    41
1040
3.0
1002
}
  0
LINE
  5
45DB
330
1A
100
AcDbEntity
  8
SEIHIN
100
AcDbLine
 10
332.4274713066167
 20
174.2365556444912
 30
0.0
 11
346.9218153066166
 21
145.7073786444912
 31
0.0
  0
DIMENSION
  5
45DC
330
1A
100
AcDbEntity
  8
SUNPOU
100
AcDbDimension
  2
*D11
 10
239.8301780596189
 20
185.9814801895969
 30
0.0
 11
237.3301780596189
 21
211.633343689597
 31
0.0
 70
    32
 71
     5
 42
51.30372700000004
  3
STANDARD
100
AcDbAlignedDimension
 13
221.7067643462858
 23
237.285207189597
 33
0.0
 14
221.7067643462858
 24
185.9814801895969
 34
0.0
 50
90.0
100
AcDbRotatedDimension
1001
ACAD
1000
DSTYLE
1002
{
1070
   140
1040
3.0
1070
    74
1070
     0
1070
   172
1070
     1
1070
    73
1070
     0
1070
   272
1070
     0
1070
    77
1070
     3
1070
   173
1070
     1
1070
   147
1040
1.0
1070
    42
1040
3.0
1070
    44
1040
1.5
1070
    43
1040
7.0
1070
   271
1070
     0
1070
   178
1070
   256
1070
   177
1070
   256
1070
   176
1070
   256
1070
   141
1040
3.0
1070
     7
1000
OPEN
1070
     6
1000
OPEN
1070
    41
1040
3.0
1002
}
  0
LINE
  5
45DD
330
1A
100
AcDbEntity
  8
SEIHIN
100
AcDbLine
 10
219.3749543462857
 20
220.498519189597
 30
0.0
 11
219.3749543462857
 21
222.989415189597
 31
0.0
  0
LINE
  5
45DE
330
1A
100
AcDbEntity
  8
SEIHIN
100
AcDbLine
 10
221.3188393462858
 20
222.989415189597
 30
0.0
 11
221.3188393462858
 21
220.498519189597
 31
0.0
  0
LINE
  5
45DF
330
1A
100
AcDbEntity
  8
SEIHIN
100
AcDbLine
 10
221.3188393462858
 20
222.989415189597
 30
0.0
 11
219.9963093462857
 21
220.498519189597
 31
0.0
  0
ARC
  5
45E0
330
1A
100
AcDbEntity
  8
SEIHIN
100
AcDbCircle
 10
223.0067643462858
 20
222.0918061895969
 30
0.0
 40
1.700000040122499
100
AcDbArc
 50
278.7461491942049
 51
359.9999946189175
  0
LINE
  5
45E1
330
1A
100
AcDbEntity
  8
SEIHIN
100
AcDbLine
 10
213.5928413462857
 20
222.989415189597
 30
0.0
 11
213.5928413462857
 21
220.498519189597
 31
0.0
  0
LEADER
  5
45E2
330
1A
100
AcDbEntity
  8
SUNPOU
100
AcDbLeader
  3
STANDARD
 76
     3
 10
291.096304324727
 20
151.0365309717691
 30
0.0
 10
271.0303059955872
 20
162.8027180351545
 30
0.0
 10
245.6773790037851
 20
162.8027180351545
 30
0.0
1001
ACAD
1000
DSTYLE
1002
{
1070
     6
1000
OPEN
1070
    41
1040
3.0
1070
    42
1040
3.0
1070
    43
1040
7.0
1070
    44
1040
1.5
1070
    73
1070
     0
1070
    74
1070
     0
1070
    77
1070
     3
1070
   140
1040
3.0
1070
   141
1040
3.0
1070
   147
1040
1.0
1070
   172
1070
     1
1070
   173
1070
     1
1070
   176
1070
   256
1070
   177
1070
   256
1070
   178
1070
   256
1070
   271
1070
     0
1070
   272
1070
     0
1070
   341
1005
B2
1070
   343
1005
B2
1070
   344
1005
B2
1002
}
  0
DIMENSION
  5
45E3
330
1A
100
AcDbEntity
  8
SUNPOU
100
AcDbDimension
  2
*D12
 10
315.6723877370425
 20
207.2155394979696
 30
0.0
 11
291.6275211254848
 21
197.8036110287291
 31
0.0
 70
    33
 71
     5
 42
51.4000003065255
  3
STANDARD
100
AcDbAlignedDimension
 13
286.6024793066165
 23
150.9550146444912
 33
0.0
 14
332.4274712058076
 24
174.2365555932749
 34
0.0
1001
ACAD
1000
DSTYLE
1002
{
1070
   140
1040
3.0
1070
    74
1070
     0
1070
   172
1070
     1
1070
    73
1070
     0
1070
   272
1070
     0
1070
    77
1070
     3
1070
   173
1070
     1
1070
   147
1040
1.0
1070
    42
1040
3.0
1070
    44
1040
1.5
1070
    43
1040
7.0
1070
   271
1070
     0
1070
   178
1070
   256
1070
   177
1070
   256
1070
   176
1070
   256
1070
   141
1040
3.0
1070
     7
1000
OPEN
1070
     6
1000
OPEN
1070
    41
1040
3.0
1002
}
  0
DIMENSION
  5
45E4
330
1A
100
AcDbEntity
  8
SUNPOU
100
AcDbDimension
  2
*D13
 10
314.5711540743056
 20
197.2976774468031
 30
0.0
 11
295.4066208467056
 21
190.3652185318706
 31
0.0
 70
    33
 71
     5
 42
40.4518637612166
  3
STANDARD
100
AcDbAlignedDimension
 13
291.7092864883824
 23
152.9887160385408
 33
0.0
 14
327.7736115798586
 24
171.3113178584884
 34
0.0
1001
ACAD
1000
DSTYLE
1002
{
1070
   140
1040
3.0
1070
    74
1070
     0
1070
   172
1070
     1
1070
    73
1070
     0
1070
   272
1070
     0
1070
    77
1070
     3
1070
   173
1070
     1
1070
   147
1040
1.0
1070
    42
1040
3.0
1070
    44
1040
1.5
1070
    43
1040
7.0
1070
   271
1070
     0
1070
   178
1070
   256
1070
   177
1070
   256
1070
   176
1070
   256
1070
   141
1040
3.0
1070
     7
1000
OPEN
1070
     6
1000
OPEN
1070
    41
1040
3.0
1002
}
  0
DIMENSION
  5
45E5
330
1A
100
AcDbEntity
  8
SUNPOU
100
AcDbDimension
  2
*D14
 10
280.5929644405745
 20
143.9760551044045
 30
0.0
 11
281.5761987400496
 21
147.5601518735756
 31
0.0
 70
    33
  1
6
 71
     5
 42
5.499999759435127
  3
STANDARD
100
AcDbAlignedDimension
 13
287.9023055214343
 23
153.8587130008756
 33
0.0
 14
290.3935209125668
 24
148.9552608262571
 34
0.0
1001
ACAD
1000
DSTYLE
1002
{
1070
   140
1040
3.0
1070
    74
1070
     0
1070
   172
1070
     1
1070
    73
1070
     0
1070
   272
1070
     0
1070
    77
1070
     3
1070
   173
1070
     1
1070
   147
1040
1.0
1070
    42
1040
3.0
1070
    44
1040
1.5
1070
    43
1040
7.0
1070
   271
1070
     0
1070
   178
1070
   256
1070
   177
1070
   256
1070
   176
1070
   256
1070
   141
1040
3.0
1070
     7
1000
OPEN
1070
     6
1000
OPEN
1070
    41
1040
3.0
1002
}
  0
TEXT
  5
45E6
330
1A
100
AcDbEntity
  8
SUNPOU
100
AcDbText
 10
228.7435260199236
 20
151.1204851273579
 30
0.0
 40
3.0
  1
スライド幅
100
AcDbText
  0
TEXT
  5
45E7
330
1A
100
AcDbEntity
  8
SUNPOU
100
AcDbText
 10
248.2826376293479
 20
163.8781656713276
 30
0.0
 40
3.0
  1
4-φ4.2
100
AcDbText
  0
LINE
  5
45E8
330
1A
100
AcDbEntity
  8
SEIHIN
100
AcDbLine
 10
224.7067643462858
 20
201.154245189597
 30
0.0
 11
224.7067643462858
 21
188.9814801895969
 31
0.0
  0
ARC
  5
45E9
330
1A
100
AcDbEntity
  8
SEIHIN
100
AcDbCircle
 10
221.7067643462858
 20
188.9814801895969
 30
0.0
 40
3.0
100
AcDbArc
 50
270.0
 51
0.0
  0
LINE
  5
45EA
330
1A
100
AcDbEntity
  8
CENTER L
100
AcDbLine
 10
219.8835288824295
 20
191.231483189597
 30
0.0
 11
224.7067643462858
 21
191.231483189597
 31
0.0
  0
ELLIPSE
  5
45EB
330
1A
100
AcDbEntity
  8
SEIHIN
100
AcDbEllipse
 10
215.0983693462858
 20
192.9814831895969
 30
0.0
 11
7.653771061495095E-17
 21
3.249992382839279
 31
0.0
210
0.0
220
0.0
230
1.0
 40
0.384616286056636
 41
-2.868723640393516
 42
-0.272869013196277
  0
ELLIPSE
  5
45EC
330
1A
100
AcDbEntity
  8
SEIHIN
100
AcDbEllipse
 10
215.7721093462858
 20
192.9814831895969
 30
0.0
 11
7.653771061495095E-17
 21
3.249992382839279
 31
0.0
210
0.0
220
0.0
230
1.0
 40
0.384616286056636
 41
-1.570796326794897
 42
4.71238898038469
  0
ELLIPSE
  5
45ED
330
1A
100
AcDbEntity
  8
SEIHIN
100
AcDbEllipse
 10
221.6943303462858
 20
191.2314831895969
 30
0.0
 11
4.592277442707641E-17
 21
2.100001711502093
 31
0.0
210
0.0
220
0.0
230
1.0
 40
0.3571425437499017
 41
-2.675767399566849
 42
-0.4658252540229442
  0
ELLIPSE
  5
45EE
330
1A
100
AcDbEntity
  8
SEIHIN
100
AcDbEllipse
 10
222.3680703462858
 20
191.2314831895969
 30
0.0
 11
4.592277442707641E-17
 21
2.100001711502093
 31
0.0
210
0.0
220
0.0
230
1.0
 40
0.3571425437499017
 41
-1.570796326794897
 42
4.71238898038469
  0
LINE
  5
45EF
330
1A
100
AcDbEntity
  8
SEIHIN
100
AcDbLine
 10
224.7067643462858
 20
215.6230251895969
 30
0.0
 11
224.7067643462858
 21
207.6230251895969
 31
0.0
  0
ELLIPSE
  5
45F0
330
1A
100
AcDbEntity
  8
SEIHIN
100
AcDbEllipse
 10
216.4056083462858
 20
211.6333451895969
 30
0.0
 11
7.653792826897370E-17
 21
-3.000001500001125
 31
0.0
210
0.0
220
0.0
230
-1.0
 40
0.4166664583332813
 41
-1.570796326794897
 42
4.71238898038469
  0
ARC
  5
45F1
330
1A
100
AcDbEntity
  8
SEIHIN
100
AcDbCircle
 10
236.6138373462857
 20
211.6230251895969
 30
0.0
 40
17.43067870772649
100
AcDbArc
 50
163.3304729704061
 51
196.6694668411142
  0
LINE
  5
45F2
330
1A
100
AcDbEntity
  8
SEIHIN
100
AcDbLine
 10
221.3188393462858
 20
201.174885189597
 30
0.0
 11
224.7067643462858
 21
201.174885189597
 31
0.0
  0
LINE
  5
45F3
330
1A
100
AcDbEntity
  8
SEIHIN
100
AcDbLine
 10
223.7067683462858
 20
206.6230251895969
 30
0.0
 11
219.9156763462859
 21
206.6230251895969
 31
0.0
  0
LINE
  5
45F4
330
1A
100
AcDbEntity
  8
SEIHIN
100
AcDbLine
 10
220.6882583462857
 20
203.3855941895969
 30
0.0
 11
223.2719473462857
 21
202.833435189597
 31
0.0
  0
LINE
  5
45F5
330
1A
100
AcDbEntity
  8
SEIHIN
100
AcDbLine
 10
213.5928413462857
 20
201.154244189597
 30
0.0
 11
219.3749543462857
 21
201.174885189597
 31
0.0
  0
LINE
  5
45F6
330
1A
100
AcDbEntity
  8
SEIHIN
100
AcDbLine
 10
213.5928413462857
 20
200.2566341895969
 30
0.0
 11
213.5928413462857
 21
202.7475301895969
 31
0.0
  0
LINE
  5
45F7
330
1A
100
AcDbEntity
  8
SEIHIN
100
AcDbLine
 10
221.3188393462858
 20
200.2772751895969
 30
0.0
 11
221.3188393462858
 21
202.768172189597
 31
0.0
  0
LINE
  5
45F8
330
1A
100
AcDbEntity
  8
SEIHIN
100
AcDbLine
 10
219.3749543462857
 20
202.768172189597
 30
0.0
 11
219.3749543462857
 21
200.2772751895969
 31
0.0
  0
LINE
  5
45F9
330
1A
100
AcDbEntity
  8
SEIHIN
100
AcDbLine
 10
219.3749543462857
 20
200.2772751895969
 30
0.0
 11
221.3188393462858
 21
200.2772751895969
 31
0.0
  0
LINE
  5
45FA
330
1A
100
AcDbEntity
  8
SEIHIN
100
AcDbLine
 10
221.3188393462858
 20
200.2772751895969
 30
0.0
 11
219.9963093462857
 21
202.768172189597
 31
0.0
  0
LINE
  5
45FB
330
1A
100
AcDbEntity
  8
SEIHIN
100
AcDbLine
 10
221.3188393462858
 20
202.768172189597
 30
0.0
 11
219.3749543462857
 21
202.768172189597
 31
0.0
  0
LINE
  5
45FC
330
1A
100
AcDbEntity
  8
SEIHIN
100
AcDbLine
 10
220.6882583462857
 20
203.3855941895969
 30
0.0
 11
220.6882553462858
 21
204.133370189597
 31
0.0
  0
ARC
  5
45FD
330
1A
100
AcDbEntity
  8
SEIHIN
100
AcDbCircle
 10
223.0067643462858
 20
201.154245189597
 30
0.0
 40
1.700000158763074
100
AcDbArc
 50
0.0000066132454181
 51
81.02579079286475
  0
LINE
  5
45FE
330
1A
100
AcDbEntity
  8
SEIHIN
100
AcDbLine
 10
223.7067683462858
 20
206.6230251895969
 30
0.0
 11
223.7067683462858
 21
204.123080189597
 31
0.0
  0
ARC
  5
45FF
330
1A
100
AcDbEntity
  8
SEIHIN
100
AcDbCircle
 10
223.7067643462858
 20
207.6230251895969
 30
0.0
 40
1.00000000000225
100
AcDbArc
 50
270.0001718873446
 51
0.0
  0
LINE
  5
4600
330
1A
100
AcDbEntity
  8
SEIHIN
100
AcDbLine
 10
219.9156763462859
 20
216.6230251895969
 30
0.0
 11
223.7067613462857
 21
216.6230251895969
 31
0.0
  0
LINE
  5
4601
330
1A
100
AcDbEntity
  8
SEIHIN
100
AcDbLine
 10
223.2652613462858
 20
220.4115741895969
 30
0.0
 11
220.6890443462858
 21
219.874819189597
 31
0.0
  0
LINE
  5
4602
330
1A
100
AcDbEntity
  8
SEIHIN
100
AcDbLine
 10
221.3188393462858
 20
220.498519189597
 30
0.0
 11
219.3749543462857
 21
220.498519189597
 31
0.0
  0
LINE
  5
4603
330
1A
100
AcDbEntity
  8
SEIHIN
100
AcDbLine
 10
220.6890443462858
 20
219.874819189597
 30
0.0
 11
220.6890463462858
 21
219.133370189597
 31
0.0
  0
LINE
  5
4604
330
1A
100
AcDbEntity
  8
SEIHIN
100
AcDbLine
 10
223.7067613462857
 20
216.6230251895969
 30
0.0
 11
223.7067613462857
 21
219.123080189597
 31
0.0
  0
ARC
  5
4605
330
1A
100
AcDbEntity
  8
SEIHIN
100
AcDbCircle
 10
223.7067643462858
 20
215.6230251895969
 30
0.0
 40
1.00000000000225
100
AcDbArc
 50
0.0000031708051873
 51
90.00017505814657
  0
DIMENSION
  5
4606
330
1A
100
AcDbEntity
  8
SUNPOU
100
AcDbDimension
  2
*D15
 10
317.09672291424
 20
188.9577199400773
 30
0.0
 11
299.2926142880576
 21
182.7164293255251
 31
0.0
 70
    33
 71
     5
 42
37.39999959936904
  3
STANDARD
100
AcDbAlignedDimension
 13
296.013874942893
 23
147.884895634574
 33
0.0
 14
329.3573508315342
 24
164.8251608537611
 34
0.0
1001
ACAD
1000
DSTYLE
1002
{
1070
   140
1040
3.0
1070
    74
1070
     0
1070
   172
1070
     1
1070
    73
1070
     0
1070
   272
1070
     0
1070
    77
1070
     3
1070
   173
1070
     1
1070
   147
1040
1.0
1070
    42
1040
3.0
1070
    44
1040
1.5
1070
    43
1040
7.0
1070
   271
1070
     0
1070
   178
1070
   256
1070
   177
1070
   256
1070
   176
1070
   256
1070
   141
1040
3.0
1070
     7
1000
OPEN
1070
     6
1000
OPEN
1070
    41
1040
3.0
1002
}
  0
LINE
  5
4607
330
1A
100
AcDbEntity
  8
CENTER L
100
AcDbLine
 10
329.7385004608273
 20
175.1137332147852
 30
0.0
 11
338.3445175490641
 21
158.1745342373193
 31
0.0
  0
LINE
  5
4608
330
1A
100
AcDbEntity
  8
SEIHIN
100
AcDbLine
 10
329.7385013066165
 20
175.1137336444912
 30
0.0
 11
315.7413733066165
 21
168.0024456444912
 31
0.0
  0
LINE
  5
4609
330
1A
100
AcDbEntity
  8
SEIHIN
100
AcDbLine
 10
310.7361043066165
 20
171.2310286444912
 30
0.0
 11
313.4107143066166
 21
172.5898736444912
 31
0.0
  0
LINE
  5
460A
330
1A
100
AcDbEntity
  8
SEIHIN
100
AcDbLine
 10
308.3106053066166
 20
153.9275546444912
 30
0.0
 11
317.2259733066165
 21
158.4570376444912
 31
0.0
  0
LINE
  5
460B
330
1A
100
AcDbEntity
  8
SEIHIN
100
AcDbLine
 10
299.1461263066166
 20
165.3427016444912
 30
0.0
 11
313.1096153066166
 21
137.8584046444912
 31
0.0
  0
LINE
  5
460C
330
1A
100
AcDbEntity
  8
SEIHIN
100
AcDbLine
 10
310.2664343066166
 20
172.1554786444912
 30
0.0
 11
317.2259733066165
 21
158.4570376444912
 31
0.0
  0
LINE
  5
460D
330
1A
100
AcDbEntity
  8
SEIHIN
100
AcDbLine
 10
314.0351573066165
 20
134.0466646444912
 30
0.0
 11
311.3316373066165
 21
132.6731326444912
 31
0.0
  0
LINE
  5
460E
330
1A
100
AcDbEntity
  8
SEIHIN
100
AcDbLine
 10
312.6763123066165
 20
136.7212756444912
 30
0.0
 11
309.9727923066165
 21
135.3477426444912
 31
0.0
  0
LINE
  5
460F
330
1A
100
AcDbEntity
  8
SEIHIN
100
AcDbLine
 10
304.7991833066166
 20
151.7874716444912
 30
0.0
 11
312.4993043066166
 21
136.6313456444912
 31
0.0
  0
LINE
  5
4610
330
1A
100
AcDbEntity
  8
CENTER L
100
AcDbLine
 10
290.3935209125668
 20
148.9552608262571
 30
0.0
 11
295.742741700666
 21
151.6729504627254
 31
0.0
  0
LINE
  5
4611
330
1A
100
AcDbEntity
  8
CENTER L
100
AcDbLine
 10
291.7092864883823
 20
152.9887160385408
 30
0.0
 11
294.4269761248506
 21
147.6394952504416
 31
0.0
  0
LINE
  5
4612
330
1A
100
AcDbEntity
  8
SEIHIN
100
AcDbLine
 10
304.9761913066167
 20
151.8774006444912
 30
0.0
 11
302.2726723066165
 21
150.5038686444912
 31
0.0
  0
LINE
  5
4613
330
1A
100
AcDbEntity
  8
SEIHIN
100
AcDbLine
 10
300.9138273066166
 20
153.1784786444912
 30
0.0
 11
302.2726723066165
 21
150.5038686444912
 31
0.0
  0
CIRCLE
  5
4614
330
1A
100
AcDbEntity
  8
SEIHIN
100
AcDbCircle
 10
293.0681313066165
 20
150.3141056444912
 30
0.0
 40
2.1
  0
LINE
  5
4615
330
1A
100
AcDbEntity
  8
SEIHIN
100
AcDbLine
 10
303.3021243066165
 20
151.0268856444912
 30
0.0
 11
311.0022453066166
 21
135.8707596444912
 31
0.0
  0
LINE
  5
4616
330
1A
100
AcDbEntity
  8
CENTER L
100
AcDbLine
 10
293.8209323165339
 20
141.1624702807677
 30
0.0
 11
302.7363002966993
 21
145.6919530082148
 31
0.0
  0
LINE
  5
4617
330
1A
100
AcDbEntity
  8
CENTER L
100
AcDbLine
 10
293.8209323165339
 20
141.1624702807677
 30
0.0
 11
298.350415043981
 21
132.2471023006023
 31
0.0
  0
CIRCLE
  5
4618
330
1A
100
AcDbEntity
  8
SEIHIN
100
AcDbCircle
 10
298.2786163066165
 20
143.4272116444912
 30
0.0
 40
3.25
  0
LINE
  5
4619
330
1A
100
AcDbEntity
  8
CENTER L
100
AcDbLine
 10
296.013874942893
 20
147.8848956345739
 30
0.0
 11
300.5433576703401
 21
138.9695276544085
 31
0.0
  0
LINE
  5
461A
330
1A
100
AcDbEntity
  8
SEIHIN
100
AcDbLine
 10
311.3316373066165
 20
132.6731326444912
 30
0.0
 11
309.9727923066165
 21
135.3477426444912
 31
0.0
  0
LINE
  5
461B
330
1A
100
AcDbEntity
  8
SEIHIN
100
AcDbLine
 10
301.4767843066167
 20
160.7552726444912
 30
0.0
 11
287.4796563066167
 21
153.6439846444912
 31
0.0
  0
ARC
  5
461C
330
1A
100
AcDbEntity
  8
SEIHIN
100
AcDbCircle
 10
288.3855533066165
 20
151.8609116444912
 30
0.0
 40
2.0
100
AcDbArc
 50
116.9329808259677
 51
206.9329808259686
  0
LINE
  5
461D
330
1A
100
AcDbEntity
  8
SEIHIN
100
AcDbLine
 10
301.3510663066166
 20
167.6259956444912
 30
0.0
 11
308.3106053066166
 21
153.9275546444912
 31
0.0
  0
LINE
  5
461E
330
1A
100
AcDbEntity
  8
SEIHIN
100
AcDbLine
 10
303.6173463066165
 20
154.5520116444912
 30
0.0
 11
300.9138273066166
 21
153.1784786444912
 31
0.0
  0
LINE
  5
461F
330
1A
100
AcDbEntity
  8
SEIHIN
100
AcDbLine
 10
300.4961753066165
 20
160.2570706444912
 30
0.0
 11
303.4403393066165
 21
154.4620816444912
 31
0.0
  0
LINE
  5
4620
330
1A
100
AcDbEntity
  8
SEIHIN
100
AcDbLine
 10
298.9991163066167
 20
159.4964846444912
 30
0.0
 11
301.9432793066166
 21
153.7014956444912
 31
0.0
  0
LINE
  5
4621
330
1A
100
AcDbEntity
  8
SEIHIN
100
AcDbLine
 10
303.6173463066165
 20
154.5520116444912
 30
0.0
 11
304.9761913066167
 21
151.8774006444912
 31
0.0
  0
LINE
  5
4622
330
1A
100
AcDbEntity
  8
SEIHIN
100
AcDbLine
 10
302.0089493066165
 20
169.6427236444912
 30
0.0
 11
308.2497073066166
 21
172.8133616444912
 31
0.0
  0
ARC
  5
4623
330
1A
100
AcDbEntity
  8
SEIHIN
100
AcDbCircle
 10
302.6883713066167
 20
168.3054186444912
 30
0.0
 40
1.5
100
AcDbArc
 50
116.9329808259653
 51
206.9329808259686
  0
LINE
  5
4624
330
1A
100
AcDbEntity
  8
SEIHIN
100
AcDbLine
 10
299.1461263066166
 20
165.3427016444912
 30
0.0
 11
301.8207363066166
 21
166.7015466444912
 31
0.0
  0
ARC
  5
4625
330
1A
100
AcDbEntity
  8
SEIHIN
100
AcDbCircle
 10
308.9291293066166
 20
171.4760556444912
 30
0.0
 40
1.5
100
AcDbArc
 50
26.93298082596861
 51
116.9329808259653
  0
LINE
  5
4626
330
1A
100
AcDbEntity
  8
SEIHIN
100
AcDbLine
 10
321.0056643066165
 20
160.0212286444912
 30
0.0
 11
328.7057843066165
 21
144.8651026444912
 31
0.0
  0
LINE
  5
4627
330
1A
100
AcDbEntity
  8
SEIHIN
100
AcDbLine
 10
322.5036523066166
 20
160.7822866444912
 30
0.0
 11
330.2037733066167
 21
145.6261606444912
 31
0.0
  0
LINE
  5
4628
330
1A
100
AcDbEntity
  8
SEIHIN
100
AcDbLine
 10
313.4107143066166
 20
172.5898736444912
 30
0.0
 11
327.3742143066166
 21
145.1055566444912
 31
0.0
  0
LINE
  5
4629
330
1A
100
AcDbEntity
  8
SEIHIN
100
AcDbLine
 10
325.7493143066166
 20
141.6805696444912
 30
0.0
 11
329.3729003066165
 21
134.5482756444912
 31
0.0
  0
LINE
  5
462A
330
1A
100
AcDbEntity
  8
SEIHIN
100
AcDbLine
 10
327.3742143066166
 20
145.1055566444912
 30
0.0
 11
332.0475113066165
 21
135.9071206444912
 31
0.0
  0
ARC
  5
462B
330
1A
100
AcDbEntity
  8
SEIHIN
100
AcDbCircle
 10
323.6696093066165
 20
134.7352606444912
 30
0.0
 40
7.249999838287755
100
AcDbArc
 50
73.33018209545372
 51
160.5358220988013
  0
LINE
  5
462C
330
1A
100
AcDbEntity
  8
SEIHIN
100
AcDbLine
 10
316.8339463066167
 20
137.1510876444912
 30
0.0
 11
320.4575323066166
 21
130.0187926444912
 31
0.0
  0
LINE
  5
462D
330
1A
100
AcDbEntity
  8
SEIHIN
100
AcDbLine
 10
313.8581493066166
 20
133.9567356444912
 30
0.0
 11
316.8023133066166
 21
128.1617466444912
 31
0.0
  0
LINE
  5
462E
330
1A
100
AcDbEntity
  8
SEIHIN
100
AcDbLine
 10
313.1096153066166
 20
137.8584046444912
 30
0.0
 11
317.7829223066166
 21
128.6599486444912
 31
0.0
  0
LINE
  5
462F
330
1A
100
AcDbEntity
  8
SEIHIN
100
AcDbLine
 10
314.0351573066165
 20
134.0466646444912
 30
0.0
 11
312.6763123066165
 21
136.7212756444912
 31
0.0
  0
CIRCLE
  5
4630
330
1A
100
AcDbEntity
  8
SEIHIN
100
AcDbCircle
 10
316.7621473066166
 20
148.3311966444912
 30
0.0
 40
2.1
  0
LINE
  5
4631
330
1A
100
AcDbEntity
  8
SEIHIN
100
AcDbLine
 10
331.5626173066165
 20
142.9515506444912
 30
0.0
 11
334.5067813066165
 21
137.1565616444912
 31
0.0
  0
LINE
  5
4632
330
1A
100
AcDbEntity
  8
SEIHIN
100
AcDbLine
 10
330.0646293066167
 20
142.1904926444912
 30
0.0
 11
333.0087933066167
 21
136.3955036444912
 31
0.0
  0
LINE
  5
4633
330
1A
100
AcDbEntity
  8
SEIHIN
100
AcDbLine
 10
332.6104683066166
 20
143.4839146444912
 30
0.0
 11
331.2516233066166
 21
146.1585246444912
 31
0.0
  0
LINE
  5
4634
330
1A
100
AcDbEntity
  8
SEIHIN
100
AcDbLine
 10
331.2516233066166
 20
146.1585246444912
 30
0.0
 11
328.5481043066167
 21
144.7849926444912
 31
0.0
  0
LINE
  5
4635
330
1A
100
AcDbEntity
  8
SEIHIN
100
AcDbLine
 10
332.6104683066166
 20
143.4839146444912
 30
0.0
 11
329.9069483066165
 21
142.1103826444912
 31
0.0
  0
LINE
  5
4636
330
1A
100
AcDbEntity
  8
SEIHIN
100
AcDbLine
 10
329.9069483066165
 20
142.1103826444912
 30
0.0
 11
328.5481043066167
 21
144.7849926444912
 31
0.0
  0
LINE
  5
4637
330
1A
100
AcDbEntity
  8
CENTER L
100
AcDbLine
 10
339.0973184557133
 20
149.0228977954159
 30
0.0
 11
341.8150080921816
 21
143.6736770073167
 31
0.0
  0
LINE
  5
4638
330
1A
100
AcDbEntity
  8
CENTER L
100
AcDbLine
 10
337.7815528798977
 20
144.9894425831322
 30
0.0
 11
343.1307736679971
 21
147.7071322196005
 31
0.0
  0
CIRCLE
  5
4639
330
1A
100
AcDbEntity
  8
SEIHIN
100
AcDbCircle
 10
340.4561633066165
 20
146.3482876444912
 30
0.0
 40
2.1
  0
LINE
  5
463A
330
1A
100
AcDbEntity
  8
CENTER L
100
AcDbLine
 10
326.4578460040432
 20
167.2778626462046
 30
0.0
 11
331.8070667921424
 21
169.9955522826729
 31
0.0
  0
LINE
  5
463B
330
1A
100
AcDbEntity
  8
CENTER L
100
AcDbLine
 10
327.7736115798586
 20
171.3113178584884
 30
0.0
 11
330.4913012163269
 21
165.9620970703892
 31
0.0
  0
LINE
  5
463C
330
1A
100
AcDbEntity
  8
CENTER L
100
AcDbLine
 10
327.1644082051751
 20
158.1027354999549
 30
0.0
 11
336.0797761853405
 21
162.632218227402
 31
0.0
  0
CIRCLE
  5
463D
330
1A
100
AcDbEntity
  8
SEIHIN
100
AcDbCircle
 10
329.1324563066165
 20
168.6367076444912
 30
0.0
 40
2.1
  0
LINE
  5
463E
330
1A
100
AcDbEntity
  8
SEIHIN
100
AcDbLine
 10
319.4891383066166
 20
162.6157286444912
 30
0.0
 11
320.8479833066166
 21
159.9411176444912
 31
0.0
  0
LINE
  5
463F
330
1A
100
AcDbEntity
  8
SEIHIN
100
AcDbLine
 10
322.1926583066166
 20
163.9892606444912
 30
0.0
 11
323.5515033066166
 21
161.3146506444912
 31
0.0
  0
LINE
  5
4640
330
1A
100
AcDbEntity
  8
SEIHIN
100
AcDbLine
 10
323.5515033066166
 20
161.3146506444912
 30
0.0
 11
320.8479833066166
 21
159.9411176444912
 31
0.0
  0
LINE
  5
4641
330
1A
100
AcDbEntity
  8
SEIHIN
100
AcDbLine
 10
318.2006433066166
 20
169.2518856444912
 30
0.0
 11
321.1448073066166
 21
163.4568966444912
 31
0.0
  0
LINE
  5
4642
330
1A
100
AcDbEntity
  8
SEIHIN
100
AcDbLine
 10
322.1926583066166
 20
163.9892606444912
 30
0.0
 11
319.4891383066166
 21
162.6157286444912
 31
0.0
  0
LINE
  5
4643
330
1A
100
AcDbEntity
  8
SEIHIN
100
AcDbLine
 10
316.7026553066165
 20
168.4908276444912
 30
0.0
 11
319.6468193066165
 21
162.6958386444912
 31
0.0
  0
LINE
  5
4644
330
1A
100
AcDbEntity
  8
CENTER L
100
AcDbLine
 10
329.3573508315342
 20
164.8251608537611
 30
0.0
 11
333.8868335589814
 21
155.9097928735957
 31
0.0
  0
CIRCLE
  5
4645
330
1A
100
AcDbEntity
  8
SEIHIN
100
AcDbCircle
 10
331.6220923066165
 20
160.3674766444912
 30
0.0
 40
3.25
  0
ARC
  5
4646
330
1A
100
AcDbEntity
  8
SEIHIN
100
AcDbCircle
 10
330.6443973066165
 20
173.3306596444912
 30
0.0
 40
2.0
100
AcDbArc
 50
26.93298082596861
 51
116.9329808259677
  0
ELLIPSE
  5
4647
330
1A
100
AcDbEntity
  8
SEIHIN
100
AcDbEllipse
 10
215.7721093462858
 20
230.285207189597
 30
0.0
 11
7.653771061495095E-17
 21
-3.249992382839279
 31
0.0
210
0.0
220
0.0
230
-1.0
 40
0.384616286056636
 41
-1.570796326794897
 42
4.71238898038469
  0
ELLIPSE
  5
4648
330
1A
100
AcDbEntity
  8
SEIHIN
100
AcDbEllipse
 10
215.0983693462858
 20
230.285207189597
 30
0.0
 11
7.653771061495095E-17
 21
-3.249992382839279
 31
0.0
210
0.0
220
0.0
230
-1.0
 40
0.384616286056636
 41
-2.868723640393516
 42
-0.272869013196277
  0
ELLIPSE
  5
4649
330
1A
100
AcDbEntity
  8
SEIHIN
100
AcDbEllipse
 10
222.3680703462858
 20
232.035207189597
 30
0.0
 11
4.592277442707641E-17
 21
-2.100001711502093
 31
0.0
210
0.0
220
0.0
230
-1.0
 40
0.3571425437499017
 41
-1.570796326794897
 42
4.71238898038469
  0
ELLIPSE
  5
464A
330
1A
100
AcDbEntity
  8
SEIHIN
100
AcDbEllipse
 10
221.6943303462858
 20
232.035207189597
 30
0.0
 11
4.592277442707641E-17
 21
-2.100001711502093
 31
0.0
210
0.0
220
0.0
230
-1.0
 40
0.3571425437499017
 41
-2.675767399566849
 42
-0.4658252540229442
  0
LINE
  5
464B
330
1A
100
AcDbEntity
  8
SEIHIN
100
AcDbLine
 10
224.7067643462858
 20
222.0918061895969
 30
0.0
 11
224.7067643462858
 21
234.285207189597
 31
0.0
  0
LINE
  5
464C
330
1A
100
AcDbEntity
  8
CENTER L
100
AcDbLine
 10
219.8835288824295
 20
232.0145671895969
 30
0.0
 11
224.7067643462858
 21
232.0145671895969
 31
0.0
  0
LINE
  5
464D
330
1A
100
AcDbEntity
  8
SEIHIN
100
AcDbLine
 10
221.3188393462858
 20
222.0918051895969
 30
0.0
 11
224.7067643462858
 21
222.0918061895969
 31
0.0
  0
LINE
  5
464E
330
1A
100
AcDbEntity
  8
SEIHIN
100
AcDbLine
 10
213.5928413462857
 20
222.0918051895969
 30
0.0
 11
219.3749543462857
 21
222.0918051895969
 31
0.0
  0
LINE
  5
464F
330
1A
100
AcDbEntity
  8
SEIHIN
100
AcDbLine
 10
219.3749543462857
 20
222.989415189597
 30
0.0
 11
221.3188393462858
 21
222.989415189597
 31
0.0
  0
ARC
  5
4650
330
1A
100
AcDbEntity
  8
SEIHIN
100
AcDbCircle
 10
221.7067643462858
 20
234.285207189597
 30
0.0
 40
3.0
100
AcDbArc
 50
0.0
 51
90.0
  0
ARC
  5
4651
330
1A
100
AcDbEntity
  8
SEIHIN
100
AcDbCircle
 10
345.1387423066166
 20
144.8014816444912
 30
0.0
 40
2.0
100
AcDbArc
 50
296.9329808259677
 51
26.93298082596861
  0
TEXT
  5
4652
330
1A
100
AcDbEntity
  8
SUNPOU
100
AcDbText
 10
352.6399032372028
 20
155.7316951827228
 30
0.0
 40
3.0
  1
2-φ6.5
100
AcDbText
  0
VIEWPORT
  5
22
330
17
100
AcDbEntity
 67
     1
  8
0
100
AcDbViewport
 10
313.6808219178083
 20
148.5
 30
0.0
 40
627.3616438356165
 41
297.0
 68
     2
 69
     1
 12
313.6808219178083
 22
148.5
 13
0.0
 23
0.0
 14
1.0
 24
1.0
 15
10.0
 25
10.0
 16
0.0
 26
0.0
 36
1.0
 17
0.0
 27
0.0
 37
0.0
 42
50.0
 43
0.0
 44
0.0
 45
297.0
 50
0.0
 51
0.0
 72
   100
 90
    32768
  1

281
     0
 71
     1
 74
     0
110
0.0
120
0.0
130
0.0
111
1.0
121
0.0
131
0.0
112
0.0
122
1.0
132
0.0
 79
     0
146
0.0
  0
VIEWPORT
  5
64
330
17
100
AcDbEntity
 67
     1
  8
VIEWPORT
100
AcDbViewport
 10
210.0
 20
148.5
 30
0.0
 40
420.0
 41
297.0
 68
     1
 69
     2
 12
210.0
 22
148.5
 13
0.0
 23
0.0
 14
5.0
 24
5.0
 15
0.0
 25
0.0
 16
0.0
 26
0.0
 36
1.0
 17
0.0
 27
0.0
 37
0.0
 42
50.0
 43
0.0
 44
0.0
 45
302.9399999999999
 50
0.0
 51
0.0
 72
   100
 90
    32768
  1

281
     0
 71
     1
 74
     0
110
0.0
120
0.0
130
0.0
111
1.0
121
0.0
131
0.0
112
0.0
122
1.0
132
0.0
 79
     0
146
0.0
  0
ENDSEC
  0
SECTION
  2
OBJECTS
  0
DICTIONARY
  5
C
330
0
100
AcDbDictionary
281
     1
  3
ACAD_GROUP
350
D
  3
ACAD_LAYOUT
350
624
  3
ACAD_MLINESTYLE
350
E
  3
ACAD_PLOTSETTINGS
350
625
  3
ACAD_PLOTSTYLENAME
350
622
  0
DICTIONARY
  5
D
102
{ACAD_REACTORS
330
C
102
}
330
C
100
AcDbDictionary
281
     1
  0
DICTIONARY
  5
624
102
{ACAD_REACTORS
330
C
102
}
330
C
100
AcDbDictionary
281
     1
  3
Model
350
626
  3
ﾚｲｱｳﾄ1
350
627
  0
DICTIONARY
  5
E
102
{ACAD_REACTORS
330
C
102
}
330
C
100
AcDbDictionary
281
     1
  3
STANDARD
350
13
  0
DICTIONARY
  5
625
102
{ACAD_REACTORS
330
C
102
}
330
C
100
AcDbDictionary
281
     1
  0
ACDBDICTIONARYWDFLT
  5
622
102
{ACAD_REACTORS
330
C
102
}
330
C
100
AcDbDictionary
281
     1
  3
Normal
350
623
100
AcDbDictionaryWithDefault
340
623
1001
ACAD
1000
TREAT_AS_HARD
1070
     0
1000
TREAT_AS_HARD
1070
     0
1000
TREAT_AS_HARD
1070
     0
1000
TREAT_AS_HARD
1070
     0
  0
LAYOUT
  5
626
102
{ACAD_REACTORS
330
624
102
}
330
624
100
AcDbPlotSettings
  1

  2
Acrobat PDFWriter
  4
A3
  6

 40
7.143749713897705
 41
7.14375638961792
 42
7.143768310546875
 43
7.14373779296875
 44
297.1270751953125
 45
420.1583251953125
 46
0.0
 47
0.0
 48
0.0
 49
0.0
140
0.0
141
0.0
142
1.0
143
1.0
 70
 11952
 72
     1
 73
     1
 74
     0
  7
print.ctb
 75
    16
147
1.0
148
52.88505331185908
149
1.640883977900558
100
AcDbLayout
  1
Model
 70
     1
 71
     0
 10
0.0
 20
0.0
 11
12.0
 21
9.0
 12
0.0
 22
0.0
 32
0.0
 14
0.0
 24
0.0
 34
0.0
 15
0.0
 25
0.0
 35
0.0
146
0.0
 13
0.0
 23
0.0
 33
0.0
 16
1.0
 26
0.0
 36
0.0
 17
0.0
 27
1.0
 37
0.0
 76
     0
330
1A
  0
LAYOUT
  5
627
102
{ACAD_REACTORS
330
624
102
}
330
624
100
AcDbPlotSettings
  1

  2
EPSON PM-2000C
  4

  6

 40
0.0
 41
0.0
 42
0.0
 43
0.0
 44
0.0
 45
0.0
 46
0.0
 47
0.0
 48
0.0
 49
0.0
140
0.0
141
0.0
142
1.0
143
1.0
 70
   688
 72
     0
 73
     0
 74
     5
  7
print.ctb
 75
    16
147
1.0
148
0.0
149
0.0
100
AcDbLayout
  1
ﾚｲｱｳﾄ1
 70
     1
 71
     1
 10
0.0
 20
0.0
 11
420.0
 21
297.0
 12
0.0
 22
0.0
 32
0.0
 14
0.0
 24
0.0
 34
0.0
 15
420.0
 25
297.0
 35
0.0
146
0.0
 13
0.0
 23
0.0
 33
0.0
 16
1.0
 26
0.0
 36
0.0
 17
0.0
 27
1.0
 37
0.0
 76
     0
330
17
331
64
  0
MLINESTYLE
  5
13
102
{ACAD_REACTORS
330
E
102
}
330
E
100
AcDbMlineStyle
  2
STANDARD
 70
     0
  3

 62
     0
 51
90.0
 52
90.0
 71
     2
 49
0.5
 62
   256
  6
BYLAYER
 49
-0.5
 62
   256
  6
BYLAYER
  0
ACDBPLACEHOLDER
  5
623
102
{ACAD_REACTORS
330
622
102
}
330
622
  0
ENDSEC
  0
EOF
