  0
SECTION
  2
HEADER
  9
$ACADVER
  1
AC1015
  9
$ACADMAINTVER
 70
     6
  9
$DWGCODEPAGE
  3
ANSI_932
  9
$INSBASE
 10
0.0
 20
0.0
 30
0.0
  9
$EXTMIN
 10
-0.0000004828989404
 20
-0.0000000386436341
 30
0.0
  9
$EXTMAX
 10
398.7999995171011
 20
275.7999999613564
 30
0.0
  9
$LIMMIN
 10
0.0
 20
0.0
  9
$LIMMAX
 10
420.0
 20
297.0
  9
$ORTHOMODE
 70
     1
  9
$REGENMODE
 70
     1
  9
$FILLMODE
 70
     1
  9
$QTEXTMODE
 70
     0
  9
$MIRRTEXT
 70
     1
  9
$LTSCALE
 40
1.0
  9
$ATTMODE
 70
     1
  9
$TEXTSIZE
 40
2.5
  9
$TRACEWID
 40
1.0
  9
$TEXTSTYLE
  7
STANDARD
  9
$CLAYER
  8
SUNPOU
  9
$CELTYPE
  6
BYLAYER
  9
$CECOLOR
 62
   256
  9
$CELTSCALE
 40
1.0
  9
$DISPSILH
 70
     0
  9
$DIMSCALE
 40
1.0
  9
$DIMASZ
 40
3.0
  9
$DIMEXO
 40
3.0
  9
$DIMDLI
 40
7.0
  9
$DIMRND
 40
0.0
  9
$DIMDLE
 40
0.0
  9
$DIMEXE
 40
1.5
  9
$DIMTP
 40
0.0
  9
$DIMTM
 40
0.0
  9
$DIMTXT
 40
3.0
  9
$DIMCEN
 40
150.0
  9
$DIMTSZ
 40
0.0
  9
$DIMTOL
 70
     0
  9
$DIMLIM
 70
     0
  9
$DIMTIH
 70
     0
  9
$DIMTOH
 70
     0
  9
$DIMSE1
 70
     0
  9
$DIMSE2
 70
     0
  9
$DIMTAD
 70
     3
  9
$DIMZIN
 70
     0
  9
$DIMBLK
  1

  9
$DIMASO
 70
     1
  9
$DIMSHO
 70
     1
  9
$DIMPOST
  1

  9
$DIMAPOST
  1

  9
$DIMALT
 70
     0
  9
$DIMALTD
 70
     2
  9
$DIMALTF
 40
25.4
  9
$DIMLFAC
 40
1.0
  9
$DIMTOFL
 70
     1
  9
$DIMTVP
 40
0.0
  9
$DIMTIX
 70
     0
  9
$DIMSOXD
 70
     0
  9
$DIMSAH
 70
     1
  9
$DIMBLK1
  1
OPEN
  9
$DIMBLK2
  1
OPEN
  9
$DIMSTYLE
  2
STANDARD
  9
$DIMCLRD
 70
   256
  9
$DIMCLRE
 70
   256
  9
$DIMCLRT
 70
   256
  9
$DIMTFAC
 40
1.0
  9
$DIMGAP
 40
1.0
  9
$DIMJUST
 70
     0
  9
$DIMSD1
 70
     0
  9
$DIMSD2
 70
     0
  9
$DIMTOLJ
 70
     1
  9
$DIMTZIN
 70
     0
  9
$DIMALTZ
 70
     0
  9
$DIMALTTZ
 70
     0
  9
$DIMUPT
 70
     1
  9
$DIMDEC
 70
     0
  9
$DIMTDEC
 70
     0
  9
$DIMALTU
 70
     2
  9
$DIMALTTD
 70
     2
  9
$DIMTXSTY
  7
STANDARD
  9
$DIMAUNIT
 70
     0
  9
$DIMADEC
 70
     0
  9
$DIMALTRND
 40
0.0
  9
$DIMAZIN
 70
     0
  9
$DIMDSEP
 70
    46
  9
$DIMATFIT
 70
     3
  9
$DIMFRAC
 70
     0
  9
$DIMLDRBLK
  1
OPEN
  9
$DIMLUNIT
 70
     2
  9
$DIMLWD
 70
    -1
  9
$DIMLWE
 70
    -1
  9
$DIMTMOVE
 70
     0
  9
$LUNITS
 70
     2
  9
$LUPREC
 70
     4
  9
$SKETCHINC
 40
1.0
  9
$FILLETRAD
 40
0.6
  9
$AUNITS
 70
     0
  9
$AUPREC
 70
     0
  9
$MENU
  1
.
  9
$ELEVATION
 40
0.0
  9
$PELEVATION
 40
0.0
  9
$THICKNESS
 40
0.0
  9
$LIMCHECK
 70
     0
  9
$CHAMFERA
 40
10.0
  9
$CHAMFERB
 40
10.0
  9
$CHAMFERC
 40
20.0
  9
$CHAMFERD
 40
0.0
  9
$SKPOLY
 70
     0
  9
$TDCREATE
 40
2451100.394552546
  9
$TDUCREATE
 40
2451100.019552546
  9
$TDUPDATE
 40
2455609.40477882
  9
$TDUUPDATE
 40
2455609.02977882
  9
$TDINDWG
 40
0.1136950926
  9
$TDUSRTIMER
 40
0.1136950926
  9
$USRTIMER
 70
     1
  9
$ANGBASE
 50
0.0
  9
$ANGDIR
 70
     0
  9
$PDMODE
 70
     0
  9
$PDSIZE
 40
0.0
  9
$PLINEWID
 40
0.0
  9
$SPLFRAME
 70
     0
  9
$SPLINETYPE
 70
     6
  9
$SPLINESEGS
 70
     8
  9
$HANDSEED
  5
4DBD
  9
$SURFTAB1
 70
     6
  9
$SURFTAB2
 70
     6
  9
$SURFTYPE
 70
     6
  9
$SURFU
 70
     6
  9
$SURFV
 70
     6
  9
$UCSBASE
  2

  9
$UCSNAME
  2

  9
$UCSORG
 10
0.0
 20
0.0
 30
0.0
  9
$UCSXDIR
 10
1.0
 20
0.0
 30
0.0
  9
$UCSYDIR
 10
0.0
 20
1.0
 30
0.0
  9
$UCSORTHOREF
  2

  9
$UCSORTHOVIEW
 70
     0
  9
$UCSORGTOP
 10
0.0
 20
0.0
 30
0.0
  9
$UCSORGBOTTOM
 10
0.0
 20
0.0
 30
0.0
  9
$UCSORGLEFT
 10
0.0
 20
0.0
 30
0.0
  9
$UCSORGRIGHT
 10
0.0
 20
0.0
 30
0.0
  9
$UCSORGFRONT
 10
0.0
 20
0.0
 30
0.0
  9
$UCSORGBACK
 10
0.0
 20
0.0
 30
0.0
  9
$PUCSBASE
  2

  9
$PUCSNAME
  2

  9
$PUCSORG
 10
0.0
 20
0.0
 30
0.0
  9
$PUCSXDIR
 10
1.0
 20
0.0
 30
0.0
  9
$PUCSYDIR
 10
0.0
 20
1.0
 30
0.0
  9
$PUCSORTHOREF
  2

  9
$PUCSORTHOVIEW
 70
     0
  9
$PUCSORGTOP
 10
0.0
 20
0.0
 30
0.0
  9
$PUCSORGBOTTOM
 10
0.0
 20
0.0
 30
0.0
  9
$PUCSORGLEFT
 10
0.0
 20
0.0
 30
0.0
  9
$PUCSORGRIGHT
 10
0.0
 20
0.0
 30
0.0
  9
$PUCSORGFRONT
 10
0.0
 20
0.0
 30
0.0
  9
$PUCSORGBACK
 10
0.0
 20
0.0
 30
0.0
  9
$USERI1
 70
     0
  9
$USERI2
 70
     0
  9
$USERI3
 70
     0
  9
$USERI4
 70
     0
  9
$USERI5
 70
     0
  9
$USERR1
 40
0.0
  9
$USERR2
 40
0.0
  9
$USERR3
 40
0.0
  9
$USERR4
 40
0.0
  9
$USERR5
 40
0.0
  9
$WORLDVIEW
 70
     1
  9
$SHADEDGE
 70
     3
  9
$SHADEDIF
 70
    70
  9
$TILEMODE
 70
     1
  9
$MAXACTVP
 70
    16
  9
$PINSBASE
 10
0.0
 20
0.0
 30
0.0
  9
$PLIMCHECK
 70
     0
  9
$PEXTMIN
 10
0.0
 20
0.0
 30
0.0
  9
$PEXTMAX
 10
420.0
 20
297.0
 30
0.0
  9
$PLIMMIN
 10
0.0
 20
0.0
  9
$PLIMMAX
 10
420.0
 20
297.0
  9
$UNITMODE
 70
     0
  9
$VISRETAIN
 70
     0
  9
$PLINEGEN
 70
     0
  9
$PSLTSCALE
 70
     1
  9
$TREEDEPTH
 70
  3020
  9
$CMLSTYLE
  2
STANDARD
  9
$CMLJUST
 70
     0
  9
$CMLSCALE
 40
1.0
  9
$PROXYGRAPHICS
 70
     1
  9
$MEASUREMENT
 70
     1
  9
$CELWEIGHT
370
    -1
  9
$ENDCAPS
280
     0
  9
$JOINSTYLE
280
     0
  9
$LWDISPLAY
290
     0
  9
$INSUNITS
 70
     0
  9
$HYPERLINKBASE
  1

  9
$STYLESHEET
  1
print.ctb
  9
$XEDIT
290
     1
  9
$CEPSNTYPE
380
     0
  9
$PSTYLEMODE
290
     1
  9
$FINGERPRINTGUID
  2
{137E7082-72B8-11D5-AA3E-50A453C10000}
  9
$VERSIONGUID
  2
{D6527971-6347-4A8B-BAE2-45A2AE1F50DD}
  9
$EXTNAMES
290
     1
  9
$PSVPSCALE
 40
0.0
  9
$OLESTARTUP
290
     0
  0
ENDSEC
  0
SECTION
  2
CLASSES
  0
CLASS
  1
ACDBDICTIONARYWDFLT
  2
AcDbDictionaryWithDefault
  3
ObjectDBX Classes
 90
        0
280
     0
281
     0
  0
CLASS
  1
ACDBPLACEHOLDER
  2
AcDbPlaceHolder
  3
ObjectDBX Classes
 90
        0
280
     0
281
     0
  0
CLASS
  1
LAYOUT
  2
AcDbLayout
  3
ObjectDBX Classes
 90
        0
280
     0
281
     0
  0
CLASS
  1
DUMMY
  2
AcDbLongTransaction
  3
DUMMY
 90
        0
280
     0
281
     0
  0
CLASS
  1
LWPOLYLINE
  2
AcDbPolyline
  3
AutoCAD 2000
 90
        0
280
     0
281
     1
  0
CLASS
  1
HATCH
  2
AcDbHatch
  3
AutoCAD 2000
 90
        0
280
     0
281
     1
  0
CLASS
  1
XRECORD
  2
AcDbXrecord
  3
AutoCAD 2000
 90
        0
280
     0
281
     0
  0
CLASS
  1
DUMMY
  2
AcDbLongTransaction
  3
DUMMY
 90
        0
280
     0
281
     0
  0
CLASS
  1
LWPOLYLINE
  2
AcDbPolyline
  3
AutoCAD 2000
 90
        0
280
     0
281
     1
  0
CLASS
  1
HATCH
  2
AcDbHatch
  3
AutoCAD 2000
 90
        0
280
     0
281
     1
  0
CLASS
  1
XRECORD
  2
AcDbXrecord
  3
AutoCAD 2000
 90
        0
280
     0
281
     0
  0
CLASS
  1
DUMMY
  2
AcDbLongTransaction
  3
DUMMY
 90
        0
280
     0
281
     0
  0
CLASS
  1
LWPOLYLINE
  2
AcDbPolyline
  3
AutoCAD 2000
 90
        0
280
     0
281
     1
  0
CLASS
  1
HATCH
  2
AcDbHatch
  3
AutoCAD 2000
 90
        0
280
     0
281
     1
  0
CLASS
  1
XRECORD
  2
AcDbXrecord
  3
AutoCAD 2000
 90
        0
280
     0
281
     0
  0
CLASS
  1
DUMMY
  2
AcDbLongTransaction
  3
DUMMY
 90
        0
280
     0
281
     0
  0
CLASS
  1
LWPOLYLINE
  2
AcDbPolyline
  3
AutoCAD 2000
 90
        0
280
     0
281
     1
  0
CLASS
  1
HATCH
  2
AcDbHatch
  3
AutoCAD 2000
 90
        0
280
     0
281
     1
  0
CLASS
  1
XRECORD
  2
AcDbXrecord
  3
AutoCAD 2000
 90
        0
280
     0
281
     0
  0
ENDSEC
  0
SECTION
  2
TABLES
  0
TABLE
  2
VPORT
  5
8
330
0
100
AcDbSymbolTable
 70
     2
  0
VPORT
  5
4DBC
330
8
100
AcDbSymbolTableRecord
100
AcDbViewportTableRecord
  2
*Active
 70
     0
 10
0.0
 20
0.0
 11
1.0
 21
1.0
 12
207.2182040952706
 22
146.5556499191352
 13
0.0
 23
0.0
 14
5.0
 24
5.0
 15
0.0
 25
0.0
 16
0.0
 26
0.0
 36
1.0
 17
0.0
 27
0.0
 37
0.0
 40
318.6204526262144
 41
1.651537335285505
 42
50.0
 43
0.0
 44
0.0
 50
0.0
 51
0.0
 71
     0
 72
   100
 73
     1
 74
     0
 75
     0
 76
     0
 77
     0
 78
     0
281
     0
 65
     1
110
0.0
120
0.0
130
0.0
111
1.0
121
0.0
131
0.0
112
0.0
122
1.0
132
0.0
 79
     0
146
0.0
  0
ENDTAB
  0
TABLE
  2
LTYPE
  5
5
330
0
100
AcDbSymbolTable
 70
     3
  0
LTYPE
  5
14
330
5
100
AcDbSymbolTableRecord
100
AcDbLinetypeTableRecord
  2
BYBLOCK
 70
     0
  3

 72
    65
 73
     0
 40
0.0
  0
LTYPE
  5
15
330
5
100
AcDbSymbolTableRecord
100
AcDbLinetypeTableRecord
  2
BYLAYER
 70
     0
  3

 72
    65
 73
     0
 40
0.0
  0
LTYPE
  5
16
330
5
100
AcDbSymbolTableRecord
100
AcDbLinetypeTableRecord
  2
CONTINUOUS
 70
     0
  3
Solid line
 72
    65
 73
     0
 40
0.0
  0
LTYPE
  5
120
330
5
100
AcDbSymbolTableRecord
100
AcDbLinetypeTableRecord
  2
CENTER
 70
     0
  3
____ _ ____ _ ____ _ ____ _ ____ _ ____ _ ____ 
 72
    65
 73
     4
 40
2.0
 49
1.25
 74
     0
 49
-0.25
 74
     0
 49
0.25
 74
     0
 49
-0.25
 74
     0
  0
LTYPE
  5
484F
330
5
100
AcDbSymbolTableRecord
100
AcDbLinetypeTableRecord
  2
DASHED
 70
     0
  3
__ __ __ __ __ __ __ __ __ __ __ __ __ __ __ __
 72
    65
 73
     2
 40
0.75
 49
0.5
 74
     0
 49
-0.25
 74
     0
  0
ENDTAB
  0
TABLE
  2
LAYER
  5
2
330
0
100
AcDbSymbolTable
 70
     8
  0
LAYER
  5
F
330
2
100
AcDbSymbolTableRecord
100
AcDbLayerTableRecord
  2
0
 70
     0
 62
     7
  6
CONTINUOUS
370
    -3
390
623
  0
LAYER
  5
62
330
2
100
AcDbSymbolTableRecord
100
AcDbLayerTableRecord
  2
VIEWPORT
 70
     0
 62
     7
  6
CONTINUOUS
370
    -3
390
623
  0
LAYER
  5
6B
330
2
100
AcDbSymbolTableRecord
100
AcDbLayerTableRecord
  2
ZUWAKU
 70
     0
 62
     7
  6
CONTINUOUS
370
    -3
390
623
  0
LAYER
  5
1F2
330
2
100
AcDbSymbolTableRecord
100
AcDbLayerTableRecord
  2
SEIHIN
 70
     0
 62
     3
  6
CONTINUOUS
370
    -3
390
623
  0
LAYER
  5
1F3
330
2
100
AcDbSymbolTableRecord
100
AcDbLayerTableRecord
  2
SUNPOU
 70
     0
 62
     4
  6
CONTINUOUS
370
    -3
390
623
  0
LAYER
  5
1F4
330
2
100
AcDbSymbolTableRecord
100
AcDbLayerTableRecord
  2
CENTER L
 70
     0
 62
     1
  6
CENTER
370
    -3
390
623
  0
LAYER
  5
1F5
330
2
100
AcDbSymbolTableRecord
100
AcDbLayerTableRecord
  2
DEFPOINTS
 70
     0
 62
     7
  6
CONTINUOUS
290
     0
370
    -3
390
623
  0
LAYER
  5
A03
330
2
100
AcDbSymbolTableRecord
100
AcDbLayerTableRecord
  2
moji
 70
     0
 62
     2
  6
CONTINUOUS
370
    -3
390
623
  0
ENDTAB
  0
TABLE
  2
STYLE
  5
3
330
0
100
AcDbSymbolTable
 70
     2
  0
STYLE
  5
10
330
3
100
AcDbSymbolTableRecord
100
AcDbTextStyleTableRecord
  2
STANDARD
 70
     0
 40
0.0
 41
1.0
 50
0.0
 71
     0
 42
2.5
  3
TXT
  4
bigfont.shx
  0
STYLE
  5
A04
330
3
100
AcDbSymbolTableRecord
100
AcDbTextStyleTableRecord
  2
ｽﾀｲﾙ1
 70
     0
 40
0.0
 41
1.0
 50
0.0
 71
     0
 42
2.5
  3
MS PGothic.ttf
  4

1001
ACAD
1000
MS PGothic
1071
    32818
  0
ENDTAB
  0
TABLE
  2
VIEW
  5
6
330
0
100
AcDbSymbolTable
 70
     0
  0
ENDTAB
  0
TABLE
  2
UCS
  5
7
330
0
100
AcDbSymbolTable
 70
     0
  0
ENDTAB
  0
TABLE
  2
APPID
  5
9
330
0
100
AcDbSymbolTable
 70
     1
  0
APPID
  5
11
330
9
100
AcDbSymbolTableRecord
100
AcDbRegAppTableRecord
  2
ACAD
 70
     0
  0
ENDTAB
  0
TABLE
  2
DIMSTYLE
  5
A
330
0
100
AcDbSymbolTable
 70
     1
100
AcDbDimStyleTable
  0
DIMSTYLE
105
1D
102
{ACAD_REACTORS
330
4A1E
330
4A1F
330
4A20
330
4A21
330
4A39
330
4A3A
330
4AB7
330
4B41
330
4B42
330
4B5D
330
4B5F
330
4B60
330
4B61
330
4B6A
330
4B9C
102
}
330
A
100
AcDbSymbolTableRecord
100
AcDbDimStyleTableRecord
  2
STANDARD
 70
     0
340
10
  0
ENDTAB
  0
TABLE
  2
BLOCK_RECORD
  5
1
330
0
100
AcDbSymbolTable
 70
    16
  0
BLOCK_RECORD
  5
1A
330
1
100
AcDbSymbolTableRecord
100
AcDbBlockTableRecord
  2
*MODEL_SPACE
340
626
  0
BLOCK_RECORD
  5
17
330
1
100
AcDbSymbolTableRecord
100
AcDbBlockTableRecord
  2
*PAPER_SPACE
340
627
  0
BLOCK_RECORD
  5
B2
330
1
100
AcDbSymbolTableRecord
100
AcDbBlockTableRecord
  2
_OPEN
340
0
102
{BLKREFS
331
4D40
331
4D41
331
4D5B
331
4D5C
331
4D6D
331
4D6E
331
4D64
331
4D65
331
4D37
331
4D38
331
4D2E
331
4D2F
331
4D49
331
4D4A
331
4D52
331
4D53
331
4D78
331
4D79
331
4DA7
331
4DA8
331
4D9E
331
4D9F
331
4D95
331
4D96
331
4D8C
331
4D8D
331
4D83
331
4D84
331
4DB0
331
4DB1
102
}
  0
BLOCK_RECORD
  5
4BE8
330
1
100
AcDbSymbolTableRecord
100
AcDbBlockTableRecord
  2
*D1
340
0
  0
BLOCK_RECORD
  5
4BF4
330
1
100
AcDbSymbolTableRecord
100
AcDbBlockTableRecord
  2
*D2
340
0
  0
BLOCK_RECORD
  5
4C00
330
1
100
AcDbSymbolTableRecord
100
AcDbBlockTableRecord
  2
*D3
340
0
  0
BLOCK_RECORD
  5
4C0C
330
1
100
AcDbSymbolTableRecord
100
AcDbBlockTableRecord
  2
*D4
340
0
  0
BLOCK_RECORD
  5
4C18
330
1
100
AcDbSymbolTableRecord
100
AcDbBlockTableRecord
  2
*D5
340
0
  0
BLOCK_RECORD
  5
4C24
330
1
100
AcDbSymbolTableRecord
100
AcDbBlockTableRecord
  2
*D6
340
0
  0
BLOCK_RECORD
  5
4C30
330
1
100
AcDbSymbolTableRecord
100
AcDbBlockTableRecord
  2
*D7
340
0
  0
BLOCK_RECORD
  5
4C3C
330
1
100
AcDbSymbolTableRecord
100
AcDbBlockTableRecord
  2
*D8
340
0
  0
BLOCK_RECORD
  5
4C48
330
1
100
AcDbSymbolTableRecord
100
AcDbBlockTableRecord
  2
*D9
340
0
  0
BLOCK_RECORD
  5
4C56
330
1
100
AcDbSymbolTableRecord
100
AcDbBlockTableRecord
  2
*D10
340
0
  0
BLOCK_RECORD
  5
4C62
330
1
100
AcDbSymbolTableRecord
100
AcDbBlockTableRecord
  2
*D11
340
0
  0
BLOCK_RECORD
  5
4C6E
330
1
100
AcDbSymbolTableRecord
100
AcDbBlockTableRecord
  2
*D12
340
0
  0
BLOCK_RECORD
  5
4C7A
330
1
100
AcDbSymbolTableRecord
100
AcDbBlockTableRecord
  2
*D13
340
0
  0
BLOCK_RECORD
  5
4C86
330
1
100
AcDbSymbolTableRecord
100
AcDbBlockTableRecord
  2
*D14
340
0
  0
BLOCK_RECORD
  5
4C94
330
1
100
AcDbSymbolTableRecord
100
AcDbBlockTableRecord
  2
*D15
340
0
  0
ENDTAB
  0
ENDSEC
  0
SECTION
  2
BLOCKS
  0
BLOCK
  5
1B
330
1A
100
AcDbEntity
  8
0
100
AcDbBlockBegin
  2
*MODEL_SPACE
 70
     0
 71
     0
 10
0.0
 20
0.0
 30
0.0
  3
*MODEL_SPACE
  1

  0
ENDBLK
  5
1C
330
1A
100
AcDbEntity
  8
0
100
AcDbBlockEnd
  0
BLOCK
  5
18
330
17
100
AcDbEntity
 67
     1
  8
0
100
AcDbBlockBegin
  2
*PAPER_SPACE
 70
     0
 71
     0
 10
0.0
 20
0.0
 30
0.0
  3
*PAPER_SPACE
  1

  0
ENDBLK
  5
19
330
17
100
AcDbEntity
 67
     1
  8
0
100
AcDbBlockEnd
  0
BLOCK
  5
B3
330
B2
100
AcDbEntity
  8
0
100
AcDbBlockBegin
  2
_OPEN
 70
     0
 71
     0
 10
0.0
 20
0.0
 30
0.0
  3
_OPEN
  1

  0
LINE
  5
B4
330
B2
100
AcDbEntity
  8
0
  6
ByBlock
 62
     0
100
AcDbLine
 10
-1.0
 20
0.1666666666666667
 30
0.0
 11
0.0
 21
0.0
 31
0.0
  0
LINE
  5
B5
330
B2
100
AcDbEntity
  8
0
  6
ByBlock
 62
     0
100
AcDbLine
 10
0.0
 20
0.0
 30
0.0
 11
-1.0
 21
-0.1666666666666667
 31
0.0
  0
LINE
  5
B6
330
B2
100
AcDbEntity
  8
0
  6
ByBlock
 62
     0
100
AcDbLine
 10
0.0
 20
0.0
 30
0.0
 11
-1.0
 21
0.0
 31
0.0
  0
ENDBLK
  5
B7
330
B2
100
AcDbEntity
  8
0
100
AcDbBlockEnd
  0
BLOCK
  5
4BF2
330
4BE8
100
AcDbEntity
  8
0
100
AcDbBlockBegin
  2
*D1
 70
     1
 71
     0
 10
0.0
 20
0.0
 30
0.0
  3
*D1
  1

  0
LINE
  5
4D3D
330
4BE8
100
AcDbEntity
  8
SUNPOU
100
AcDbLine
 10
79.17945331467172
 20
123.2695535105172
 30
0.0
 11
57.02895108281699
 21
123.2695535105172
 31
0.0
  0
LINE
  5
4D3E
330
4BE8
100
AcDbEntity
  8
SUNPOU
100
AcDbLine
 10
230.4114113146716
 20
92.93635851051721
 30
0.0
 11
57.028951082817
 21
92.93635851051727
 31
0.0
  0
LINE
  5
4D3F
330
4BE8
100
AcDbEntity
  8
SUNPOU
100
AcDbLine
 10
58.52895108281699
 20
120.2695535105172
 30
0.0
 11
58.52895108281698
 21
95.93635851051727
 31
0.0
  0
INSERT
  5
4D40
330
4BE8
100
AcDbEntity
  8
SUNPOU
100
AcDbBlockReference
  2
_OPEN
 10
58.52895108281699
 20
123.2695535105172
 30
0.0
 41
3.0
 42
3.0
 43
3.0
 50
90.0
  0
INSERT
  5
4D41
330
4BE8
100
AcDbEntity
  8
SUNPOU
100
AcDbBlockReference
  2
_OPEN
 10
58.52895108281698
 20
92.93635851051727
 30
0.0
 41
3.0
 42
3.0
 43
3.0
 50
270.0
  0
MTEXT
  5
4D42
330
4BE8
100
AcDbEntity
  8
SUNPOU
100
AcDbMText
 10
56.02895108281697
 20
108.1029560105173
 30
0.0
 40
3.0
 41
0.0
 71
     5
 72
     1
  1
\A1;30
 11
6.123031769111886E-17
 21
1.0
 31
0.0
 73
     1
 44
1.0
  0
POINT
  5
4D43
330
4BE8
100
AcDbEntity
  8
DEFPOINTS
 62
     0
100
AcDbPoint
 10
82.17945331467172
 20
123.2695535105172
 30
0.0
  0
POINT
  5
4D44
330
4BE8
100
AcDbEntity
  8
DEFPOINTS
 62
     0
100
AcDbPoint
 10
233.4114113146716
 20
92.93635851051721
 30
0.0
  0
POINT
  5
4D45
330
4BE8
100
AcDbEntity
  8
DEFPOINTS
 62
     0
100
AcDbPoint
 10
58.52895108281698
 20
92.93635851051727
 30
0.0
  0
ENDBLK
  5
4BF3
330
4BE8
100
AcDbEntity
  8
0
100
AcDbBlockEnd
  0
BLOCK
  5
4BFE
330
4BF4
100
AcDbEntity
  8
0
100
AcDbBlockBegin
  2
*D2
 70
     1
 71
     0
 10
0.0
 20
0.0
 30
0.0
  3
*D2
  1

  0
LINE
  5
4D58
330
4BF4
100
AcDbEntity
  8
SUNPOU
  6
Continuous
370
    -2
100
AcDbLine
 10
213.7569805711195
 20
128.5384608708343
 30
0.0
 11
213.7569805711195
 21
150.5930855255041
 31
0.0
  0
LINE
  5
4D59
330
4BF4
100
AcDbEntity
  8
SUNPOU
  6
Continuous
370
    -2
100
AcDbLine
 10
248.7569803146716
 20
128.5384615105172
 30
0.0
 11
248.7569803146716
 21
150.5930855255041
 31
0.0
  0
LINE
  5
4D5A
330
4BF4
100
AcDbEntity
  8
SUNPOU
  6
Continuous
370
    -2
100
AcDbLine
 10
216.7569805711195
 20
149.0930855255041
 30
0.0
 11
245.7569803146716
 21
149.0930855255041
 31
0.0
  0
INSERT
  5
4D5B
330
4BF4
100
AcDbEntity
  8
SUNPOU
  6
Continuous
370
    -2
100
AcDbBlockReference
  2
_OPEN
 10
213.7569805711195
 20
149.0930855255041
 30
0.0
 41
3.0
 42
3.0
 43
3.0
 50
180.0
  0
INSERT
  5
4D5C
330
4BF4
100
AcDbEntity
  8
SUNPOU
  6
Continuous
370
    -2
100
AcDbBlockReference
  2
_OPEN
 10
248.7569803146716
 20
149.0930855255041
 30
0.0
 41
3.0
 42
3.0
 43
3.0
  0
MTEXT
  5
4D5D
330
4BF4
100
AcDbEntity
  8
SUNPOU
  6
Continuous
100
AcDbMText
 10
231.2569804428956
 20
151.5930855255041
 30
0.0
 40
3.0
 41
0.0
 71
     5
 72
     1
  1
\A1;35
 73
     1
 44
1.0
  0
POINT
  5
4D5E
330
4BF4
100
AcDbEntity
  8
DEFPOINTS
  6
Continuous
 62
     0
100
AcDbPoint
 10
213.7569805711195
 20
125.5384608708343
 30
0.0
  0
POINT
  5
4D5F
330
4BF4
100
AcDbEntity
  8
DEFPOINTS
  6
Continuous
 62
     0
100
AcDbPoint
 10
248.7569803146716
 20
125.5384615105172
 30
0.0
  0
POINT
  5
4D60
330
4BF4
100
AcDbEntity
  8
DEFPOINTS
  6
Continuous
 62
     0
100
AcDbPoint
 10
248.7569803146716
 20
149.0930855255041
 30
0.0
  0
ENDBLK
  5
4BFF
330
4BF4
100
AcDbEntity
  8
0
100
AcDbBlockEnd
  0
BLOCK
  5
4C0A
330
4C00
100
AcDbEntity
  8
0
100
AcDbBlockBegin
  2
*D3
 70
     1
 71
     0
 10
0.0
 20
0.0
 30
0.0
  3
*D3
  1

  0
LINE
  5
4D6A
330
4C00
100
AcDbEntity
  8
SUNPOU
  6
Continuous
370
    -2
100
AcDbLine
 10
213.2782204795013
 20
132.1432504844668
 30
0.0
 11
228.9219535666728
 21
141.5741970071877
 31
0.0
  0
LINE
  5
4D6B
330
4C00
100
AcDbEntity
  8
SUNPOU
  6
Continuous
370
    -2
100
AcDbLine
 10
235.9806451510193
 20
94.48524117042592
 30
0.0
 11
251.6243782381907
 21
103.9161876931468
 31
0.0
  0
LINE
  5
4D6C
330
4C00
100
AcDbEntity
  8
SUNPOU
  6
Continuous
370
    -2
100
AcDbLine
 10
229.1862193084077
 20
138.2305218408855
 30
0.0
 11
248.7908786601081
 21
105.7109801995401
 31
0.0
  0
INSERT
  5
4D6D
330
4C00
100
AcDbEntity
  8
SUNPOU
  6
Continuous
370
    -2
100
AcDbBlockReference
  2
_OPEN
 10
227.6373366484989
 20
140.7997556772333
 30
0.0
 41
3.0
 42
3.0
 43
3.0
 50
121.0840017473802
  0
INSERT
  5
4D6E
330
4C00
100
AcDbEntity
  8
SUNPOU
  6
Continuous
370
    -2
100
AcDbBlockReference
  2
_OPEN
 10
250.3397613200169
 20
103.1417463631924
 30
0.0
 41
3.0
 42
3.0
 43
3.0
 50
301.0840017473802
  0
MTEXT
  5
4D6F
330
4C00
100
AcDbEntity
  8
SUNPOU
  6
Continuous
100
AcDbMText
 10
241.1295771812143
 20
123.2614865701368
 30
0.0
 40
3.0
 41
0.0
 71
     5
 72
     1
  1
\A1;44
 11
0.516294219969576
 21
-0.856411278782576
 31
0.0
 73
     1
 44
1.0
  0
POINT
  5
4D70
330
4C00
100
AcDbEntity
  8
DEFPOINTS
  6
Continuous
 62
     0
100
AcDbPoint
 10
210.7089866431536
 20
130.5943678245581
 30
0.0
  0
POINT
  5
4D71
330
4C00
100
AcDbEntity
  8
DEFPOINTS
  6
Continuous
 62
     0
100
AcDbPoint
 10
233.4114113146716
 20
92.9363585105172
 30
0.0
  0
POINT
  5
4D72
330
4C00
100
AcDbEntity
  8
DEFPOINTS
  6
Continuous
 62
     0
100
AcDbPoint
 10
250.3397613200169
 20
103.1417463631924
 30
0.0
  0
ENDBLK
  5
4C0B
330
4C00
100
AcDbEntity
  8
0
100
AcDbBlockEnd
  0
BLOCK
  5
4C16
330
4C0C
100
AcDbEntity
  8
0
100
AcDbBlockBegin
  2
*D4
 70
     1
 71
     0
 10
0.0
 20
0.0
 30
0.0
  3
*D4
  1

  0
LINE
  5
4D61
330
4C0C
100
AcDbEntity
  8
SUNPOU
  6
Continuous
370
    -2
100
AcDbLine
 10
217.3940542062877
 20
125.3160480787486
 30
0.0
 11
225.3334715601308
 21
130.102387376782
 31
0.0
  0
LINE
  5
4D62
330
4C0C
100
AcDbEntity
  8
SUNPOU
  6
Continuous
370
    -2
100
AcDbLine
 10
235.9806452062877
 20
94.48524107874866
 30
0.0
 11
243.9200625601308
 21
99.27158037678206
 31
0.0
  0
LINE
  5
4D63
330
4C0C
100
AcDbEntity
  8
SUNPOU
  6
Continuous
370
    -2
100
AcDbLine
 10
225.5977371825541
 20
126.7587122010502
 30
0.0
 11
241.0865630460913
 21
101.0663729842825
 31
0.0
  0
INSERT
  5
4D64
330
4C0C
100
AcDbEntity
  8
SUNPOU
  6
Continuous
370
    -2
100
AcDbBlockReference
  2
_OPEN
 10
224.0488546143227
 20
129.3279460926663
 30
0.0
 41
3.0
 42
3.0
 43
3.0
 50
121.0839997029096
  0
INSERT
  5
4D65
330
4C0C
100
AcDbEntity
  8
SUNPOU
  6
Continuous
370
    -2
100
AcDbBlockReference
  2
_OPEN
 10
242.6354456143227
 20
98.49713909266635
 30
0.0
 41
3.0
 42
3.0
 43
3.0
 50
301.0839997029096
  0
MTEXT
  5
4D66
330
4C0C
100
AcDbEntity
  8
SUNPOU
  6
Continuous
100
AcDbMText
 10
235.4831783573361
 20
115.2032780661925
 30
0.0
 40
3.0
 41
0.0
 71
     5
 72
     1
  1
\A1;36
 11
0.5162941894104706
 21
-0.8564112972053704
 31
0.0
 73
     1
 44
1.0
  0
POINT
  5
4D67
330
4C0C
100
AcDbEntity
  8
DEFPOINTS
  6
Continuous
 62
     0
100
AcDbPoint
 10
214.8248203146716
 20
123.7671655105172
 30
0.0
  0
POINT
  5
4D68
330
4C0C
100
AcDbEntity
  8
DEFPOINTS
  6
Continuous
 62
     0
100
AcDbPoint
 10
233.4114113146716
 20
92.93635851051724
 30
0.0
  0
POINT
  5
4D69
330
4C0C
100
AcDbEntity
  8
DEFPOINTS
  6
Continuous
 62
     0
100
AcDbPoint
 10
242.6354456143227
 20
98.49713909266635
 30
0.0
  0
ENDBLK
  5
4C17
330
4C0C
100
AcDbEntity
  8
0
100
AcDbBlockEnd
  0
BLOCK
  5
4C22
330
4C18
100
AcDbEntity
  8
0
100
AcDbBlockBegin
  2
*D5
 70
     1
 71
     0
 10
0.0
 20
0.0
 30
0.0
  3
*D5
  1

  0
LINE
  5
4D34
330
4C18
100
AcDbEntity
  8
SUNPOU
  6
Continuous
370
    -2
100
AcDbLine
 10
213.7569805711195
 20
128.5384608708343
 30
0.0
 11
213.7569805711195
 21
150.755388342654
 31
0.0
  0
LINE
  5
4D35
330
4C18
100
AcDbEntity
  8
SUNPOU
  6
Continuous
370
    -2
100
AcDbLine
 10
81.61105031467173
 20
119.0472975105172
 30
0.0
 11
81.61105031467173
 21
150.755388342654
 31
0.0
  0
LINE
  5
4D36
330
4C18
100
AcDbEntity
  8
SUNPOU
  6
Continuous
370
    -2
100
AcDbLine
 10
210.7569805711195
 20
149.255388342654
 30
0.0
 11
84.61105031467173
 21
149.255388342654
 31
0.0
  0
INSERT
  5
4D37
330
4C18
100
AcDbEntity
  8
SUNPOU
  6
Continuous
370
    -2
100
AcDbBlockReference
  2
_OPEN
 10
213.7569805711195
 20
149.255388342654
 30
0.0
 41
3.0
 42
3.0
 43
3.0
  0
INSERT
  5
4D38
330
4C18
100
AcDbEntity
  8
SUNPOU
  6
Continuous
370
    -2
100
AcDbBlockReference
  2
_OPEN
 10
81.61105031467173
 20
149.255388342654
 30
0.0
 41
3.0
 42
3.0
 43
3.0
 50
180.0
  0
MTEXT
  5
4D39
330
4C18
100
AcDbEntity
  8
SUNPOU
  6
Continuous
100
AcDbMText
 10
147.6840154428956
 20
151.755388342654
 30
0.0
 40
3.0
 41
0.0
 71
     5
 72
     1
  1
\A1;132
 73
     1
 44
1.0
  0
POINT
  5
4D3A
330
4C18
100
AcDbEntity
  8
DEFPOINTS
  6
Continuous
 62
     0
100
AcDbPoint
 10
213.7569805711195
 20
125.5384608708343
 30
0.0
  0
POINT
  5
4D3B
330
4C18
100
AcDbEntity
  8
DEFPOINTS
  6
Continuous
 62
     0
100
AcDbPoint
 10
81.61105031467173
 20
116.0472975105172
 30
0.0
  0
POINT
  5
4D3C
330
4C18
100
AcDbEntity
  8
DEFPOINTS
  6
Continuous
 62
     0
100
AcDbPoint
 10
81.61105031467173
 20
149.255388342654
 30
0.0
  0
ENDBLK
  5
4C23
330
4C18
100
AcDbEntity
  8
0
100
AcDbBlockEnd
  0
BLOCK
  5
4C2E
330
4C24
100
AcDbEntity
  8
0
100
AcDbBlockBegin
  2
*D6
 70
     1
 71
     0
 10
0.0
 20
0.0
 30
0.0
  3
*D6
  1

  0
LINE
  5
4D2B
330
4C24
100
AcDbEntity
  8
SUNPOU
  6
Continuous
370
    -2
100
AcDbLine
 10
203.9496573146716
 20
94.95699351051724
 30
0.0
 11
203.9496573146716
 21
142.9648035244666
 31
0.0
  0
LINE
  5
4D2C
330
4C24
100
AcDbEntity
  8
SUNPOU
  6
Continuous
370
    -2
100
AcDbLine
 10
213.7569805711195
 20
128.5384608708343
 30
0.0
 11
213.7569805711195
 21
142.9648035244666
 31
0.0
  0
LINE
  5
4D2D
330
4C24
100
AcDbEntity
  8
SUNPOU
  6
Continuous
370
    -2
100
AcDbLine
 10
206.9496573146716
 20
141.4648035244666
 30
0.0
 11
210.7569805711195
 21
141.4648035244666
 31
0.0
  0
INSERT
  5
4D2E
330
4C24
100
AcDbEntity
  8
SUNPOU
  6
Continuous
370
    -2
100
AcDbBlockReference
  2
_OPEN
 10
203.9496573146716
 20
141.4648035244666
 30
0.0
 41
3.0
 42
3.0
 43
3.0
 50
180.0
  0
INSERT
  5
4D2F
330
4C24
100
AcDbEntity
  8
SUNPOU
  6
Continuous
370
    -2
100
AcDbBlockReference
  2
_OPEN
 10
213.7569805711195
 20
141.4648035244666
 30
0.0
 41
3.0
 42
3.0
 43
3.0
  0
MTEXT
  5
4D30
330
4C24
100
AcDbEntity
  8
SUNPOU
  6
Continuous
100
AcDbMText
 10
208.8533189428956
 20
143.9648035244666
 30
0.0
 40
3.0
 41
0.0
 71
     5
 72
     1
  1
\A1;10
 73
     1
 44
1.0
  0
POINT
  5
4D31
330
4C24
100
AcDbEntity
  8
DEFPOINTS
  6
Continuous
 62
     0
100
AcDbPoint
 10
203.9496573146716
 20
91.95699351051724
 30
0.0
  0
POINT
  5
4D32
330
4C24
100
AcDbEntity
  8
DEFPOINTS
  6
Continuous
 62
     0
100
AcDbPoint
 10
213.7569805711195
 20
125.5384608708343
 30
0.0
  0
POINT
  5
4D33
330
4C24
100
AcDbEntity
  8
DEFPOINTS
  6
Continuous
 62
     0
100
AcDbPoint
 10
213.7569805711195
 20
141.4648035244666
 30
0.0
  0
ENDBLK
  5
4C2F
330
4C24
100
AcDbEntity
  8
0
100
AcDbBlockEnd
  0
BLOCK
  5
4C3A
330
4C30
100
AcDbEntity
  8
0
100
AcDbBlockBegin
  2
*D7
 70
     1
 71
     0
 10
0.0
 20
0.0
 30
0.0
  3
*D7
  1

  0
LINE
  5
4D46
330
4C30
100
AcDbEntity
  8
SUNPOU
  6
Continuous
370
    -2
100
AcDbLine
 10
79.17945331467172
 20
213.7868565105172
 30
0.0
 11
57.02895108281701
 21
213.7868565105173
 31
0.0
  0
LINE
  5
4D47
330
4C30
100
AcDbEntity
  8
SUNPOU
  6
Continuous
370
    -2
100
AcDbLine
 10
79.17945331467172
 20
197.2868565105172
 30
0.0
 11
57.028951082817
 21
197.2868565105173
 31
0.0
  0
LINE
  5
4D48
330
4C30
100
AcDbEntity
  8
SUNPOU
  6
Continuous
370
    -2
100
AcDbLine
 10
58.52895108281701
 20
210.7868565105173
 30
0.0
 11
58.528951082817
 21
200.2868565105173
 31
0.0
  0
INSERT
  5
4D49
330
4C30
100
AcDbEntity
  8
SUNPOU
  6
Continuous
370
    -2
100
AcDbBlockReference
  2
_OPEN
 10
58.52895108281701
 20
213.7868565105173
 30
0.0
 41
3.0
 42
3.0
 43
3.0
 50
90.0
  0
INSERT
  5
4D4A
330
4C30
100
AcDbEntity
  8
SUNPOU
  6
Continuous
370
    -2
100
AcDbBlockReference
  2
_OPEN
 10
58.528951082817
 20
197.2868565105173
 30
0.0
 41
3.0
 42
3.0
 43
3.0
 50
270.0
  0
MTEXT
  5
4D4B
330
4C30
100
AcDbEntity
  8
SUNPOU
  6
Continuous
100
AcDbMText
 10
56.02895108281697
 20
205.5368565105173
 30
0.0
 40
3.0
 41
0.0
 71
     5
 72
     1
  1
\A1;17
 11
6.123031769111886E-17
 21
1.0
 31
0.0
 73
     1
 44
1.0
  0
POINT
  5
4D4C
330
4C30
100
AcDbEntity
  8
DEFPOINTS
  6
Continuous
 62
     0
100
AcDbPoint
 10
82.17945331467172
 20
213.7868565105172
 30
0.0
  0
POINT
  5
4D4D
330
4C30
100
AcDbEntity
  8
DEFPOINTS
  6
Continuous
 62
     0
100
AcDbPoint
 10
82.17945331467172
 20
197.2868565105172
 30
0.0
  0
POINT
  5
4D4E
330
4C30
100
AcDbEntity
  8
DEFPOINTS
  6
Continuous
 62
     0
100
AcDbPoint
 10
58.528951082817
 20
197.2868565105173
 30
0.0
  0
ENDBLK
  5
4C3B
330
4C30
100
AcDbEntity
  8
0
100
AcDbBlockEnd
  0
BLOCK
  5
4C46
330
4C3C
100
AcDbEntity
  8
0
100
AcDbBlockBegin
  2
*D8
 70
     1
 71
     0
 10
0.0
 20
0.0
 30
0.0
  3
*D8
  1

  0
LINE
  5
4D4F
330
4C3C
100
AcDbEntity
  8
SUNPOU
  6
Continuous
370
    -2
100
AcDbLine
 10
272.4317945197421
 20
158.495976403584
 30
0.0
 11
254.8173834550539
 21
147.8769918090791
 31
0.0
  0
LINE
  5
4D50
330
4C3C
100
AcDbEntity
  8
SUNPOU
  6
Continuous
370
    -2
100
AcDbLine
 10
291.0183855135891
 20
127.6651703935376
 30
0.0
 11
273.403974448901
 21
117.0461857990326
 31
0.0
  0
LINE
  5
4D51
330
4C3C
100
AcDbEntity
  8
SUNPOU
  6
Continuous
370
    -2
100
AcDbLine
 10
257.6508829943121
 20
146.0821992413923
 30
0.0
 11
273.1397087794954
 21
120.3898609710512
 31
0.0
  0
INSERT
  5
4D52
330
4C3C
100
AcDbEntity
  8
SUNPOU
  6
Continuous
370
    -2
100
AcDbBlockReference
  2
_OPEN
 10
256.1020003899803
 20
148.651433111245
 30
0.0
 41
3.0
 42
3.0
 43
3.0
 50
121.0840005079754
  0
INSERT
  5
4D53
330
4C3C
100
AcDbEntity
  8
SUNPOU
  6
Continuous
370
    -2
100
AcDbBlockReference
  2
_OPEN
 10
274.6885913838273
 20
117.8206271011985
 30
0.0
 41
3.0
 42
3.0
 43
3.0
 50
301.0840005079754
  0
MTEXT
  5
4D54
330
4C3C
100
AcDbEntity
  8
SUNPOU
  6
Continuous
100
AcDbMText
 10
267.536324111781
 20
134.5267656098316
 30
0.0
 40
3.0
 41
0.0
 71
     5
 72
     1
  1
\A1;36
 11
0.5162942014439482
 21
-0.8564112899508949
 31
0.0
 73
     1
 44
1.0
  0
POINT
  5
4D55
330
4C3C
100
AcDbEntity
  8
DEFPOINTS
  6
Continuous
 62
     0
100
AcDbPoint
 10
275.0010283895948
 20
160.0448590079158
 30
0.0
  0
POINT
  5
4D56
330
4C3C
100
AcDbEntity
  8
DEFPOINTS
  6
Continuous
 62
     0
100
AcDbPoint
 10
293.5876193834418
 20
129.2140529978694
 30
0.0
  0
POINT
  5
4D57
330
4C3C
100
AcDbEntity
  8
DEFPOINTS
  6
Continuous
 62
     0
100
AcDbPoint
 10
274.6885913838273
 20
117.8206271011985
 30
0.0
  0
ENDBLK
  5
4C47
330
4C3C
100
AcDbEntity
  8
0
100
AcDbBlockEnd
  0
BLOCK
  5
4C54
330
4C48
100
AcDbEntity
  8
0
100
AcDbBlockBegin
  2
*D9
 70
     1
 71
     0
 10
0.0
 20
0.0
 30
0.0
  3
*D9
  1

  0
LINE
  5
4D73
330
4C48
100
AcDbEntity
  8
SUNPOU
  6
Continuous
370
    -2
100
AcDbLine
 10
288.1787675475021
 20
132.3754323474104
 30
0.0
 11
280.6719905398044
 21
127.8499135828029
 31
0.0
  0
LINE
  5
4D74
330
4C48
100
AcDbEntity
  8
SUNPOU
  6
Continuous
370
    -2
100
AcDbLine
 10
291.018385499857
 20
127.665170416316
 30
0.0
 11
283.5116084921594
 21
123.1396516517086
 31
0.0
  0
LINE
  5
4D75
330
4C48
100
AcDbEntity
  8
SUNPOU
  6
Continuous
370
    -2
100
AcDbLine
 10
280.4077249000434
 20
131.1935887571645
 30
0.0
 11
278.8588423184901
 21
133.7628226407493
 31
0.0
  0
LINE
  5
4D76
330
4C48
100
AcDbEntity
  8
SUNPOU
  6
Continuous
370
    -2
100
AcDbLine
 10
286.3451080155052
 20
121.3448590589005
 30
0.0
 11
287.8939905970586
 21
118.7756251753156
 31
0.0
  0
LINE
  5
4D77
330
4C48
100
AcDbEntity
  8
SUNPOU
  6
Continuous
370
    -2
100
AcDbLine
 10
281.9566074815969
 20
128.6243548735797
 30
0.0
 11
284.7962254339518
 21
123.9140929424853
 31
0.0
  0
INSERT
  5
4D78
330
4C48
100
AcDbEntity
  8
SUNPOU
  6
Continuous
370
    -2
100
AcDbBlockReference
  2
_OPEN
 10
281.9566074815969
 20
128.6243548735797
 30
0.0
 41
3.0
 42
3.0
 43
3.0
 50
301.0839999999997
  0
INSERT
  5
4D79
330
4C48
100
AcDbEntity
  8
SUNPOU
  6
Continuous
370
    -2
100
AcDbBlockReference
  2
_OPEN
 10
284.7962254339518
 20
123.9140929424853
 30
0.0
 41
3.0
 42
3.0
 43
3.0
 50
121.0839999999997
  0
MTEXT
  5
4D7A
330
4C48
100
AcDbEntity
  8
SUNPOU
  6
Continuous
100
AcDbMText
 10
285.517444694095
 20
127.5599593926603
 30
0.0
 40
3.0
 41
0.0
 71
     5
 72
     1
  1
\A1;6
 11
0.5162941938511354
 21
-0.856411294528281
 31
0.0
 73
     1
 44
1.0
  0
POINT
  5
4D7B
330
4C48
100
AcDbEntity
  8
DEFPOINTS
  6
Continuous
 62
     0
100
AcDbPoint
 10
290.7480014310869
 20
133.9243149289638
 30
0.0
  0
POINT
  5
4D7C
330
4C48
100
AcDbEntity
  8
DEFPOINTS
  6
Continuous
 62
     0
100
AcDbPoint
 10
293.5876193834419
 20
129.2140529978694
 30
0.0
  0
POINT
  5
4D7D
330
4C48
100
AcDbEntity
  8
DEFPOINTS
  6
Continuous
 62
     0
100
AcDbPoint
 10
284.7962254339518
 20
123.9140929424853
 30
0.0
  0
ENDBLK
  5
4C55
330
4C48
100
AcDbEntity
  8
0
100
AcDbBlockEnd
  0
BLOCK
  5
4C60
330
4C56
100
AcDbEntity
  8
0
100
AcDbBlockBegin
  2
*D10
 70
     1
 71
     0
 10
0.0
 20
0.0
 30
0.0
  3
*D10
  1

  0
LINE
  5
4DA4
330
4C56
100
AcDbEntity
  8
SUNPOU
  6
Continuous
370
    -2
100
AcDbLine
 10
233.4114113146716
 20
231.1992415105172
 30
0.0
 11
249.7762862409702
 21
231.1992415105172
 31
0.0
  0
LINE
  5
4DA5
330
4C56
100
AcDbEntity
  8
SUNPOU
  6
Continuous
370
    -2
100
AcDbLine
 10
233.4114113146716
 20
179.8955145105172
 30
0.0
 11
249.7762862409702
 21
179.8955145105172
 31
0.0
  0
LINE
  5
4DA6
330
4C56
100
AcDbEntity
  8
SUNPOU
  6
Continuous
370
    -2
100
AcDbLine
 10
248.2762862409702
 20
228.1992415105172
 30
0.0
 11
248.2762862409702
 21
182.8955145105172
 31
0.0
  0
INSERT
  5
4DA7
330
4C56
100
AcDbEntity
  8
SUNPOU
  6
Continuous
370
    -2
100
AcDbBlockReference
  2
_OPEN
 10
248.2762862409702
 20
231.1992415105172
 30
0.0
 41
3.0
 42
3.0
 43
3.0
 50
90.0
  0
INSERT
  5
4DA8
330
4C56
100
AcDbEntity
  8
SUNPOU
  6
Continuous
370
    -2
100
AcDbBlockReference
  2
_OPEN
 10
248.2762862409702
 20
179.8955145105172
 30
0.0
 41
3.0
 42
3.0
 43
3.0
 50
270.0
  0
MTEXT
  5
4DA9
330
4C56
100
AcDbEntity
  8
SUNPOU
  6
Continuous
100
AcDbMText
 10
245.7762862409702
 20
205.5473780105172
 30
0.0
 40
3.0
 41
0.0
 71
     5
 72
     1
  1
\A1;51
 11
6.123031769111886E-17
 21
1.0
 31
0.0
 73
     1
 44
1.0
  0
POINT
  5
4DAA
330
4C56
100
AcDbEntity
  8
DEFPOINTS
  6
Continuous
 62
     0
100
AcDbPoint
 10
230.4114113146716
 20
231.1992415105172
 30
0.0
  0
POINT
  5
4DAB
330
4C56
100
AcDbEntity
  8
DEFPOINTS
  6
Continuous
 62
     0
100
AcDbPoint
 10
230.4114113146716
 20
179.8955145105172
 30
0.0
  0
POINT
  5
4DAC
330
4C56
100
AcDbEntity
  8
DEFPOINTS
  6
Continuous
 62
     0
100
AcDbPoint
 10
248.2762862409702
 20
179.8955145105172
 30
0.0
  0
ENDBLK
  5
4C61
330
4C56
100
AcDbEntity
  8
0
100
AcDbBlockEnd
  0
BLOCK
  5
4C6C
330
4C62
100
AcDbEntity
  8
0
100
AcDbBlockBegin
  2
*D11
 70
     1
 71
     0
 10
0.0
 20
0.0
 30
0.0
  3
*D11
  1

  0
LINE
  5
4D9B
330
4C62
100
AcDbEntity
  8
SUNPOU
  6
Continuous
370
    -2
100
AcDbLine
 10
272.3659137263553
 20
159.6239233900249
 30
0.0
 11
252.7788004721508
 21
192.1143622096365
 31
0.0
  0
LINE
  5
4D9C
330
4C62
100
AcDbEntity
  8
SUNPOU
  6
Continuous
370
    -2
100
AcDbLine
 10
316.3854547263554
 20
186.161445390025
 30
0.0
 11
296.7983414721509
 21
218.6518842096366
 31
0.0
  0
LINE
  5
4D9D
330
4C62
100
AcDbEntity
  8
SUNPOU
  6
Continuous
370
    -2
100
AcDbLine
 10
256.1224756458167
 20
192.3786278581991
 30
0.0
 11
295.0035488868015
 21
215.8183846815664
 31
0.0
  0
INSERT
  5
4D9E
330
4C62
100
AcDbEntity
  8
SUNPOU
  6
Continuous
370
    -2
100
AcDbBlockReference
  2
_OPEN
 10
253.553241766309
 20
190.8297452698827
 30
0.0
 41
3.0
 42
3.0
 43
3.0
 50
211.08400015082
  0
INSERT
  5
4D9F
330
4C62
100
AcDbEntity
  8
SUNPOU
  6
Continuous
370
    -2
100
AcDbBlockReference
  2
_OPEN
 10
297.5727827663092
 20
217.3672672698828
 30
0.0
 41
3.0
 42
3.0
 43
3.0
 50
31.08400015081997
  0
MTEXT
  5
4DA0
330
4C62
100
AcDbEntity
  8
SUNPOU
  6
Continuous
100
AcDbMText
 10
274.2722767760454
 20
206.2395345028058
 30
0.0
 40
3.0
 41
0.0
 71
     5
 72
     1
  1
\A1;51
 11
0.8564112931692347
 21
0.5162941961054756
 31
0.0
 73
     1
 44
1.0
  0
POINT
  5
4DA1
330
4C62
100
AcDbEntity
  8
DEFPOINTS
  6
Continuous
 62
     0
100
AcDbPoint
 10
273.9147963146717
 20
157.0546895105173
 30
0.0
  0
POINT
  5
4DA2
330
4C62
100
AcDbEntity
  8
DEFPOINTS
  6
Continuous
 62
     0
100
AcDbPoint
 10
317.9343373146718
 20
183.5922115105173
 30
0.0
  0
POINT
  5
4DA3
330
4C62
100
AcDbEntity
  8
DEFPOINTS
  6
Continuous
 62
     0
100
AcDbPoint
 10
297.5727827663092
 20
217.3672672698828
 30
0.0
  0
ENDBLK
  5
4C6D
330
4C62
100
AcDbEntity
  8
0
100
AcDbBlockEnd
  0
BLOCK
  5
4C78
330
4C6E
100
AcDbEntity
  8
0
100
AcDbBlockBegin
  2
*D12
 70
     1
 71
     0
 10
0.0
 20
0.0
 30
0.0
  3
*D12
  1

  0
LINE
  5
4D92
330
4C6E
100
AcDbEntity
  8
SUNPOU
  6
Continuous
370
    -2
100
AcDbLine
 10
277.3121151180831
 20
162.0219472575022
 30
0.0
 11
262.3411766787201
 21
186.8552313501191
 31
0.0
  0
LINE
  5
4D93
330
4C6E
100
AcDbEntity
  8
SUNPOU
  6
Continuous
370
    -2
100
AcDbLine
 10
311.9555481180829
 20
182.907010257502
 30
0.0
 11
296.9846096787199
 21
207.7402943501189
 31
0.0
  0
LINE
  5
4D94
330
4C6E
100
AcDbEntity
  8
SUNPOU
  6
Continuous
370
    -2
100
AcDbLine
 10
265.6848518496377
 20
187.1194970334545
 30
0.0
 11
295.1898171228376
 21
204.9067948033836
 31
0.0
  0
INSERT
  5
4D95
330
4C6E
100
AcDbEntity
  8
SUNPOU
  6
Continuous
370
    -2
100
AcDbBlockReference
  2
_OPEN
 10
263.1156179862377
 20
185.5706144184191
 30
0.0
 41
3.0
 42
3.0
 43
3.0
 50
211.0840007466714
  0
INSERT
  5
4D96
330
4C6E
100
AcDbEntity
  8
SUNPOU
  6
Continuous
370
    -2
100
AcDbBlockReference
  2
_OPEN
 10
297.7590509862376
 20
206.4556774184189
 30
0.0
 41
3.0
 42
3.0
 43
3.0
 50
31.08400074667136
  0
MTEXT
  5
4D97
330
4C6E
100
AcDbEntity
  8
SUNPOU
  6
Continuous
100
AcDbMText
 10
279.1465989737082
 20
198.154174137919
 30
0.0
 40
3.0
 41
0.0
 71
     5
 72
     1
  1
\A1;40
 11
0.8564112877999978
 21
0.5162942050117835
 31
0.0
 73
     1
 44
1.0
  0
POINT
  5
4D98
330
4C6E
100
AcDbEntity
  8
DEFPOINTS
  6
Continuous
 62
     0
100
AcDbPoint
 10
278.8609977331184
 20
159.4527133941023
 30
0.0
  0
POINT
  5
4D99
330
4C6E
100
AcDbEntity
  8
DEFPOINTS
  6
Continuous
 62
     0
100
AcDbPoint
 10
313.5044307331183
 20
180.3377763941021
 30
0.0
  0
POINT
  5
4D9A
330
4C6E
100
AcDbEntity
  8
DEFPOINTS
  6
Continuous
 62
     0
100
AcDbPoint
 10
297.7590509862376
 20
206.4556774184189
 30
0.0
  0
ENDBLK
  5
4C79
330
4C6E
100
AcDbEntity
  8
0
100
AcDbBlockEnd
  0
BLOCK
  5
4C84
330
4C7A
100
AcDbEntity
  8
0
100
AcDbBlockBegin
  2
*D13
 70
     1
 71
     0
 10
0.0
 20
0.0
 30
0.0
  3
*D13
  1

  0
LINE
  5
4D89
330
4C7A
100
AcDbEntity
  8
SUNPOU
  6
Continuous
370
    -2
100
AcDbLine
 10
281.9748527638625
 20
157.2431038667434
 30
0.0
 11
268.9164851189535
 21
178.9038811375163
 31
0.0
  0
LINE
  5
4D8A
330
4C7A
100
AcDbEntity
  8
SUNPOU
  6
Continuous
370
    -2
100
AcDbLine
 10
314.0046349408896
 20
176.5525065730967
 30
0.0
 11
300.9462672959805
 21
198.2132838438695
 31
0.0
  0
LINE
  5
4D8B
330
4C7A
100
AcDbEntity
  8
SUNPOU
  6
Continuous
370
    -2
100
AcDbLine
 10
272.260160293315
 20
179.1681467772773
 30
0.0
 11
299.1514747031724
 21
195.3797843205236
 31
0.0
  0
INSERT
  5
4D8C
330
4C7A
100
AcDbEntity
  8
SUNPOU
  6
Continuous
370
    -2
100
AcDbBlockReference
  2
_OPEN
 10
269.6909264097302
 20
177.6192641957238
 30
0.0
 41
3.0
 42
3.0
 43
3.0
 50
211.084
  0
INSERT
  5
4D8D
330
4C7A
100
AcDbEntity
  8
SUNPOU
  6
Continuous
370
    -2
100
AcDbBlockReference
  2
_OPEN
 10
301.7207085867572
 20
196.9286669020771
 30
0.0
 41
3.0
 42
3.0
 43
3.0
 50
31.08400000000004
  0
MTEXT
  5
4D8E
330
4C7A
100
AcDbEntity
  8
SUNPOU
  6
Continuous
100
AcDbMText
 10
284.4150820136159
 20
189.4149937852211
 30
0.0
 40
3.0
 41
0.0
 71
     5
 72
     1
  1
\A1;37
 11
0.8564112945282781
 21
0.5162941938511403
 31
0.0
 73
     1
 44
1.0
  0
POINT
  5
4D8F
330
4C7A
100
AcDbEntity
  8
DEFPOINTS
  6
Continuous
 62
     0
100
AcDbPoint
 10
283.523735345416
 20
154.6738699831586
 30
0.0
  0
POINT
  5
4D90
330
4C7A
100
AcDbEntity
  8
DEFPOINTS
  6
Continuous
 62
     0
100
AcDbPoint
 10
315.553517522443
 20
173.9832726895118
 30
0.0
  0
POINT
  5
4D91
330
4C7A
100
AcDbEntity
  8
DEFPOINTS
  6
Continuous
 62
     0
100
AcDbPoint
 10
301.7207085867572
 20
196.9286669020771
 30
0.0
  0
ENDBLK
  5
4C85
330
4C7A
100
AcDbEntity
  8
0
100
AcDbBlockEnd
  0
BLOCK
  5
4C92
330
4C86
100
AcDbEntity
  8
0
100
AcDbBlockBegin
  2
*D14
 70
     1
 71
     0
 10
0.0
 20
0.0
 30
0.0
  3
*D14
  1

  0
LINE
  5
4D7E
330
4C86
100
AcDbEntity
  8
SUNPOU
  6
Continuous
370
    -2
100
AcDbLine
 10
272.43179450601
 20
158.4959764263624
 30
0.0
 11
264.8969562274387
 21
153.9535407068799
 31
0.0
  0
LINE
  5
4D7F
330
4C86
100
AcDbEntity
  8
SUNPOU
  6
Continuous
370
    -2
100
AcDbLine
 10
275.271412547502
 20
153.7857143474105
 30
0.0
 11
267.7365742689307
 21
149.2432786279279
 31
0.0
  0
LINE
  5
4D80
330
4C86
100
AcDbEntity
  8
SUNPOU
  6
Continuous
370
    -2
100
AcDbLine
 10
264.6326905876778
 20
157.2972158812415
 30
0.0
 11
263.0838080061244
 21
159.8664497648263
 31
0.0
  0
LINE
  5
4D81
330
4C86
100
AcDbEntity
  8
SUNPOU
  6
Continuous
370
    -2
100
AcDbLine
 10
270.5700737922766
 20
147.4484860351197
 30
0.0
 11
272.11895637383
 21
144.8792521515349
 31
0.0
  0
LINE
  5
4D82
330
4C86
100
AcDbEntity
  8
SUNPOU
  6
Continuous
370
    -2
100
AcDbLine
 10
266.1815731692312
 20
154.7279819976566
 30
0.0
 11
269.0211912107232
 21
150.0177199187046
 31
0.0
  0
INSERT
  5
4D83
330
4C86
100
AcDbEntity
  8
SUNPOU
  6
Continuous
370
    -2
100
AcDbBlockReference
  2
_OPEN
 10
266.1815731692312
 20
154.7279819976566
 30
0.0
 41
3.0
 42
3.0
 43
3.0
 50
301.0839999999992
  0
INSERT
  5
4D84
330
4C86
100
AcDbEntity
  8
SUNPOU
  6
Continuous
370
    -2
100
AcDbBlockReference
  2
_OPEN
 10
269.0211912107232
 20
150.0177199187046
 30
0.0
 41
3.0
 42
3.0
 43
3.0
 50
121.0839999999992
  0
MTEXT
  5
4D85
330
4C86
100
AcDbEntity
  8
SUNPOU
  6
Continuous
100
AcDbMText
 10
269.7424104262979
 20
153.6635864428085
 30
0.0
 40
3.0
 41
0.0
 71
     5
 72
     1
  1
\A1;6
 11
0.5162941938511271
 21
-0.8564112945282861
 31
0.0
 73
     1
 44
1.0
  0
POINT
  5
4D86
330
4C86
100
AcDbEntity
  8
DEFPOINTS
  6
Continuous
 62
     0
100
AcDbPoint
 10
275.0010283895948
 20
160.0448590079158
 30
0.0
  0
POINT
  5
4D87
330
4C86
100
AcDbEntity
  8
DEFPOINTS
  6
Continuous
 62
     0
100
AcDbPoint
 10
277.8406464310868
 20
155.3345969289638
 30
0.0
  0
POINT
  5
4D88
330
4C86
100
AcDbEntity
  8
DEFPOINTS
  6
Continuous
 62
     0
100
AcDbPoint
 10
269.0211912107232
 20
150.0177199187046
 30
0.0
  0
ENDBLK
  5
4C93
330
4C86
100
AcDbEntity
  8
0
100
AcDbBlockEnd
  0
BLOCK
  5
4C9E
330
4C94
100
AcDbEntity
  8
0
100
AcDbBlockBegin
  2
*D15
 70
     1
 71
     0
 10
0.0
 20
0.0
 30
0.0
  3
*D15
  1

  0
LINE
  5
4DAD
330
4C94
100
AcDbEntity
  8
SUNPOU
  6
Continuous
370
    -2
100
AcDbLine
 10
317.7581600622626
 20
185.8213280100858
 30
0.0
 11
326.1637944737398
 21
190.8887299348485
 31
0.0
  0
LINE
  5
4DAE
330
4C94
100
AcDbEntity
  8
SUNPOU
  6
Continuous
370
    -2
100
AcDbLine
 10
324.9862788479251
 20
173.8315697676796
 30
0.0
 11
333.3919132594021
 21
178.8989716924422
 31
0.0
  0
LINE
  5
4DAF
330
4C94
100
AcDbEntity
  8
SUNPOU
  6
Continuous
370
    -2
100
AcDbLine
 10
326.4280601135008
 20
187.545054760487
 30
0.0
 11
330.5584137360563
 21
180.6937642852504
 31
0.0
  0
INSERT
  5
4DB0
330
4C94
100
AcDbEntity
  8
SUNPOU
  6
Continuous
370
    -2
100
AcDbBlockReference
  2
_OPEN
 10
324.8791775319474
 20
190.1142886440718
 30
0.0
 41
3.0
 42
3.0
 43
3.0
 50
121.0840000000004
  0
INSERT
  5
4DB1
330
4C94
100
AcDbEntity
  8
SUNPOU
  6
Continuous
370
    -2
100
AcDbBlockReference
  2
_OPEN
 10
332.1072963176098
 20
178.1245304016655
 30
0.0
 41
3.0
 42
3.0
 43
3.0
 50
301.0840000000004
  0
MTEXT
  5
4DB2
330
4C94
100
AcDbEntity
  8
SUNPOU
  6
Continuous
100
AcDbMText
 10
330.6342651610993
 20
185.4101450074965
 30
0.0
 40
3.0
 41
0.0
 71
     5
 72
     1
  1
\A1;14
 11
0.5162941938511457
 21
-0.8564112945282749
 31
0.0
 73
     1
 44
1.0
  0
POINT
  5
4DB3
330
4C94
100
AcDbEntity
  8
DEFPOINTS
  6
Continuous
 62
     0
100
AcDbPoint
 10
315.1889261786778
 20
184.2724454285324
 30
0.0
  0
POINT
  5
4DB4
330
4C94
100
AcDbEntity
  8
DEFPOINTS
  6
Continuous
 62
     0
100
AcDbPoint
 10
322.4170449643402
 20
172.2826871861261
 30
0.0
  0
POINT
  5
4DB5
330
4C94
100
AcDbEntity
  8
DEFPOINTS
  6
Continuous
 62
     0
100
AcDbPoint
 10
332.1072963176098
 20
178.1245304016655
 30
0.0
  0
ENDBLK
  5
4C9F
330
4C94
100
AcDbEntity
  8
0
100
AcDbBlockEnd
  0
ENDSEC
  0
SECTION
  2
ENTITIES
  0
LWPOLYLINE
  5
ABF
330
1A
100
AcDbEntity
  8
ZUWAKU
100
AcDbPolyline
 90
        4
 70
     1
 43
0.0
 10
0.3999995171010369
 20
275.3999999613564
 10
0.3999995171010369
 20
0.3999999613564
 10
398.399999517101
 20
0.3999999613564
 10
398.399999517101
 20
275.3999999613564
  0
LWPOLYLINE
  5
AC0
330
1A
100
AcDbEntity
  8
ZUWAKU
100
AcDbPolyline
 90
        4
 70
     1
 43
0.0
 10
0.1999995171010482
 20
275.5999999613564
 10
0.1999995171010482
 20
0.1999999613564114
 10
398.5999995171011
 20
0.1999999613563999
 10
398.5999995171011
 20
275.5999999613564
  0
LWPOLYLINE
  5
AC1
330
1A
100
AcDbEntity
  8
ZUWAKU
100
AcDbPolyline
 90
        4
 70
     1
 43
0.0
 10
-0.0000004828989404
 20
275.7999999613564
 10
-0.0000004828989404
 20
-0.0000000386436341
 10
398.7999995171011
 20
-0.0000000386436003
 10
398.7999995171011
 20
275.7999999613564
  0
LWPOLYLINE
  5
AC2
330
1A
100
AcDbEntity
  8
ZUWAKU
100
AcDbPolyline
 90
        4
 70
     1
 43
0.0
 10
0.2999995171010141
 20
275.4999999613564
 10
0.2999995171010141
 20
0.2999999613563773
 10
398.4999995171012
 20
0.2999999613564004
 10
398.4999995171011
 20
275.4999999613564
  0
LWPOLYLINE
  5
AC3
330
1A
100
AcDbEntity
  8
ZUWAKU
100
AcDbPolyline
 90
        4
 70
     1
 43
0.0
 10
0.0999995171010255
 20
275.6999999613564
 10
0.0999995171010255
 20
0.0999999613563887
 10
398.699999517101
 20
0.0999999613564002
 10
398.6999995171011
 20
275.6999999613564
  0
LINE
  5
AC4
330
1A
100
AcDbEntity
  8
ZUWAKU
100
AcDbLine
 10
-0.0000004828989404
 20
14.99999996135637
 30
0.0
 11
398.699999517101
 21
14.99999996135637
 31
0.0
  0
LINE
  5
AC5
330
1A
100
AcDbEntity
  8
ZUWAKU
100
AcDbLine
 10
-0.0000004828989404
 20
15.09999996135637
 30
0.0
 11
398.699999517101
 21
15.09999996135637
 31
0.0
  0
LINE
  5
AC6
330
1A
100
AcDbEntity
  8
ZUWAKU
100
AcDbLine
 10
-0.0000004828989404
 20
15.19999996135637
 30
0.0
 11
398.699999517101
 21
15.19999996135637
 31
0.0
  0
LINE
  5
AC7
330
1A
100
AcDbEntity
  8
ZUWAKU
100
AcDbLine
 10
-0.0000004828989404
 20
15.29999996135637
 30
0.0
 11
398.699999517101
 21
15.29999996135637
 31
0.0
  0
LINE
  5
AC8
330
1A
100
AcDbEntity
  8
ZUWAKU
100
AcDbLine
 10
-0.0000004828989404
 20
15.39999996135637
 30
0.0
 11
398.699999517101
 21
15.39999996135637
 31
0.0
  0
LINE
  5
AC9
330
1A
100
AcDbEntity
  8
ZUWAKU
100
AcDbLine
 10
104.3233001621351
 20
7.699999961356383
 30
0.0
 11
223.7121815025968
 21
7.699999961356383
 31
0.0
  0
LINE
  5
ACA
330
1A
100
AcDbEntity
  8
ZUWAKU
100
AcDbLine
 10
104.3233001621351
 20
7.799999961356383
 30
0.0
 11
223.7121815025968
 21
7.799999961356386
 31
0.0
  0
LINE
  5
ACB
330
1A
100
AcDbEntity
  8
ZUWAKU
100
AcDbLine
 10
104.3233001621351
 20
7.599999961356385
 30
0.0
 11
223.7121815025968
 21
7.599999961356382
 31
0.0
  0
TEXT
  5
ACC
330
1A
100
AcDbEntity
  8
moji
100
AcDbText
 10
46.47889431118563
 20
6.370589026493747
 30
0.0
 40
3.0
  1
アーバントップΣ９０
 41
0.9
  7
ｽﾀｲﾙ1
100
AcDbText
  0
CIRCLE
  5
ACD
330
1A
100
AcDbEntity
  8
ZUWAKU
100
AcDbCircle
 10
12.99610559449161
 20
7.599999961356367
 30
0.0
 40
0.875
  0
LINE
  5
ACE
330
1A
100
AcDbEntity
  8
ZUWAKU
100
AcDbLine
 10
13.43360559449161
 20
3.574999961356369
 30
0.0
 11
12.47110559449163
 21
3.574999961356369
 31
0.0
  0
LINE
  5
ACF
330
1A
100
AcDbEntity
  8
ZUWAKU
100
AcDbLine
 10
12.47110559449163
 20
4.974999961356367
 30
0.0
 11
13.43360559449161
 21
4.974999961356367
 31
0.0
  0
LINE
  5
AD0
330
1A
100
AcDbEntity
  8
ZUWAKU
100
AcDbLine
 10
13.43360559449161
 20
10.22499996135637
 30
0.0
 11
12.47110559449163
 21
10.22499996135637
 31
0.0
  0
LINE
  5
AD1
330
1A
100
AcDbEntity
  8
ZUWAKU
100
AcDbLine
 10
12.47110559449163
 20
11.62499996135635
 30
0.0
 11
13.43360559449161
 21
11.62499996135637
 31
0.0
  0
HATCH
  5
AD2
330
1A
100
AcDbEntity
  8
ZUWAKU
100
AcDbHatch
 10
0.0
 20
0.0
 30
0.0
210
0.0
220
0.0
230
1.0
  2
ANSI37
 70
     0
 71
     0
 91
        8
 92
        7
 72
     1
 73
     1
 93
       24
 10
7.251130847660988
 20
8.822424201848158
 42
-0.1989123673796348
 10
7.046105594491621
 20
9.317398948678683
 42
0.0
 10
7.046105594491621
 20
9.962499961356372
 42
-0.4142135623730912
 10
7.30860559449161
 20
10.22499996135637
 42
0.0
 10
8.796105594491564
 20
10.22499996135637
 42
0.4142135623731546
 10
9.05860559449161
 20
10.48749996135636
 42
0.0
 10
9.05860559449161
 20
11.36249996135637
 42
0.4142135623731586
 10
8.796105594491564
 20
11.62499996135637
 42
0.0
 10
7.046105594491621
 20
11.62499996135637
 42
0.4142135623730928
 10
5.646105594491644
 20
10.22499996135638
 42
0.0
 10
5.646105594491644
 20
9.317398948678747
 42
0.1989123673796619
 10
6.261181353999859
 20
7.832474708186943
 42
0.0
 10
7.716080341322197
 20
6.377575720864614
 42
-0.1989123673796613
 10
7.921105594491621
 20
5.882600974034022
 42
0.0
 10
7.921105594491621
 20
5.237499961356363
 42
-0.4142135623730911
 10
7.658605594491633
 20
4.974999961356367
 42
0.0
 10
6.171105594491678
 20
4.974999961356367
 42
0.4142135623731526
 10
5.908605594491633
 20
4.712499961356373
 42
0.0
 10
5.908605594491633
 20
3.837499961356363
 42
0.4142135623731526
 10
6.171105594491678
 20
3.574999961356369
 42
0.0
 10
7.921105594491621
 20
3.574999961356369
 42
0.4142135623731044
 10
9.321105594491655
 20
4.974999961356357
 42
0.0
 10
9.321105594491655
 20
5.882600974033993
 42
0.1989123673796604
 10
8.706029834983383
 20
7.367525214525763
 42
0.0
 97
        0
 92
        7
 72
     1
 73
     1
 93
       16
 10
11.77110559449164
 20
9.524999961356372
 42
-0.4142135623730935
 10
12.47110559449163
 20
10.22499996135637
 42
0.0
 10
13.43360559449161
 20
10.22499996135637
 42
0.4142135623731546
 10
13.69610559449166
 20
10.48749996135636
 42
0.0
 10
13.69610559449166
 20
11.36249996135637
 42
0.4142135623730952
 10
13.43360559449167
 20
11.62499996135637
 42
0.0
 10
12.47110559449158
 20
11.62499996135635
 42
0.4142135623730892
 10
10.37110559449161
 20
9.524999961356336
 42
0.0
 10
10.37110559449161
 20
5.674999961356381
 42
0.4142135623730969
 10
12.47110559449163
 20
3.574999961356369
 42
0.0
 10
13.43360559449161
 20
3.574999961356369
 42
0.4142135623731526
 10
13.69610559449166
 20
3.837499961356363
 42
0.0
 10
13.69610559449166
 20
4.712499961356373
 42
0.414213562373089
 10
13.43360559449167
 20
4.974999961356367
 42
0.0
 10
12.47110559449163
 20
4.974999961356367
 42
-0.4142135623730928
 10
11.77110559449164
 20
5.674999961356361
 42
0.0
 97
        0
 92
        7
 72
     1
 73
     1
 93
        2
 10
12.12110559449161
 20
7.599999961356367
 42
1.0
 10
13.87110559449161
 20
7.599999961356367
 42
1.0
 97
        0
 92
        7
 72
     1
 73
     1
 93
       26
 10
18.65742883558062
 20
9.602523558138081
 42
0.0
 10
19.18824865214953
 20
11.28345297727288
 42
0.5069206636600134
 10
18.93793320255185
 20
11.62499996135637
 42
0.0
 10
18.08848851274723
 20
11.62499996135637
 42
0.3272098845218764
 10
17.83817306314955
 20
11.44154694543985
 42
0.0
 10
16.90403812583367
 20
8.483452977272908
 42
-0.3272098845219541
 10
16.65372267623593
 20
8.299999961356367
 42
0.0
 10
16.5836055944917
 20
8.299999961356367
 42
-0.4142135623731526
 10
16.32110559449166
 20
8.562499961356361
 42
0.0
 10
16.32110559449166
 20
11.36249996135637
 42
0.4142135623730952
 10
16.05860559449167
 20
11.62499996135637
 42
0.0
 10
15.18360559449161
 20
11.62499996135637
 42
0.4142135623730872
 10
14.92110559449162
 20
11.36249996135638
 42
0.0
 10
14.92110559449162
 20
3.837499961356363
 42
0.414213562373089
 10
15.18360559449161
 20
3.574999961356369
 42
0.0
 10
16.05860559449161
 20
3.574999961356369
 42
0.4142135623731526
 10
16.32110559449166
 20
3.837499961356363
 42
0.0
 10
16.32110559449166
 20
6.637499961356374
 42
-0.4142135623731526
 10
16.5836055944917
 20
6.899999961356368
 42
0.0
 10
16.65372267623599
 20
6.899999961356368
 42
-0.3272098845218915
 10
16.90403812583367
 20
6.716546945439831
 42
0.0
 10
17.83817306314955
 20
3.758452977272905
 42
0.3272098845218902
 10
18.08848851274723
 20
3.574999961356369
 42
0.0
 10
18.93793320255185
 20
3.574999961356369
 42
0.5069206636600334
 10
19.18824865214953
 20
3.916546945439873
 42
0.0
 10
18.0250529629127
 20
7.599999961356437
 42
0.0
 97
        0
 92
        7
 72
     1
 73
     1
 93
        8
 10
21.74610559449161
 20
11.36249996135637
 42
0.4142135623731546
 10
21.48360559449156
 20
11.62499996135637
 42
0.0
 10
20.60860559449168
 20
11.62499996135637
 42
0.4142135623731506
 10
20.34610559449163
 20
11.36249996135638
 42
0.0
 10
20.34610559449163
 20
3.837499961356363
 42
0.4142135623731526
 10
20.60860559449168
 20
3.574999961356369
 42
0.0
 10
21.48360559449156
 20
3.574999961356369
 42
0.4142135623731526
 10
21.74610559449161
 20
3.837499961356363
 42
0.0
 97
        0
 92
        7
 72
     1
 73
     1
 93
       24
 10
24.19610559449166
 20
9.962499961356372
 42
-0.4142135623731547
 10
24.4586055944917
 20
10.22499996135637
 42
0.0
 10
25.94610559449166
 20
10.22499996135637
 42
0.4142135623730911
 10
26.20860559449164
 20
10.48749996135636
 42
0.0
 10
26.20860559449164
 20
11.36249996135637
 42
0.4142135623730952
 10
25.94610559449166
 20
11.62499996135637
 42
0.0
 10
24.19610559449166
 20
11.62499996135637
 42
0.4142135623731048
 10
22.79610559449162
 20
10.22499996135638
 42
0.0
 10
22.79610559449162
 20
9.317398948678747
 42
0.1989123673796613
 10
23.41118135399989
 20
7.832474708186972
 42
0.0
 10
24.86608034132223
 20
6.377575720864638
 42
-0.1989123673796402
 10
25.07110559449166
 20
5.882600974034101
 42
0.0
 10
25.07110559449166
 20
5.237499961356363
 42
-0.4142135623730911
 10
24.80860559449167
 20
4.974999961356367
 42
0.0
 10
23.32110559449166
 20
4.974999961356367
 42
0.4142135623731526
 10
23.05860559449161
 20
4.712499961356373
 42
0.0
 10
23.05860559449161
 20
3.837499961356363
 42
0.414213562373089
 10
23.3211055944916
 20
3.574999961356369
 42
0.0
 10
25.07110559449166
 20
3.574999961356369
 42
0.4142135623730925
 10
26.47110559449163
 20
4.974999961356357
 42
0.0
 10
26.47110559449163
 20
5.882600974033993
 42
0.1989123673796675
 10
25.85602983498336
 20
7.36752521452582
 42
0.0
 10
24.40113084766108
 20
8.822424201848078
 42
-0.1989123673796653
 10
24.19610559449166
 20
9.317398948678662
 42
0.0
 97
        0
 92
        7
 72
     1
 73
     1
 93
       16
 10
28.92110559449162
 20
11.36249996135636
 42
0.414213562373103
 10
28.65860559449163
 20
11.62499996135637
 42
0.0
 10
27.78360559449163
 20
11.62499996135637
 42
0.4142135623730872
 10
27.52110559449164
 20
11.36249996135638
 42
0.0
 10
27.52110559449164
 20
4.974999961356357
 42
0.4142135623730925
 10
28.92110559449162
 20
3.574999961356369
 42
0.0
 10
30.67110559449162
 20
3.574999961356369
 42
0.4142135623731044
 10
32.07110559449166
 20
4.974999961356357
 42
0.0
 10
32.07110559449166
 20
11.36249996135637
 42
0.4142135623730952
 10
31.80860559449167
 20
11.62499996135637
 42
0.0
 10
30.93360559449161
 20
11.62499996135637
 42
0.4142135623730872
 10
30.67110559449162
 20
11.36249996135638
 42
0.0
 10
30.67110559449162
 20
5.499999961356355
 42
-0.414213562373088
 10
30.14610559449164
 20
4.974999961356367
 42
0.0
 10
29.44610559449166
 20
4.974999961356367
 42
-0.4142135623731197
 10
28.92110559449162
 20
5.499999961356355
 42
0.0
 97
        0
 92
        7
 72
     1
 73
     1
 93
        8
 10
34.52110559449164
 20
11.36249996135638
 42
0.4142135623730872
 10
34.25860559449166
 20
11.62499996135637
 42
0.0
 10
33.38360559449166
 20
11.62499996135637
 42
0.4142135623731506
 10
33.12110559449161
 20
11.36249996135638
 42
0.0
 10
33.12110559449161
 20
3.837499961356363
 42
0.414213562373089
 10
33.3836055944916
 20
3.574999961356369
 42
0.0
 10
34.25860559449166
 20
3.574999961356369
 42
0.414213562373089
 10
34.52110559449164
 20
3.837499961356363
 42
0.0
 97
        0
 75
     0
 76
     1
 52
0.0
 41
0.1
 77
     0
 78
     2
 53
45.0
 43
-450.4711526502384
 44
-6.6000000386436
 45
-0.2245064030267288
 46
0.2245064030267289
 79
     0
 53
135.0
 43
-450.4711526502384
 44
-6.6000000386436
 45
-0.2245064030267289
 46
-0.2245064030267288
 79
     0
 47
0.057451373970553
 98
        8
 10
8.039926998612714
 20
7.583586784299143
 10
11.20225702032064
 20
9.422031052581872
 10
12.58218345993089
 20
7.755940784391726
 10
15.45702950791963
 20
8.100648784577118
 10
20.91923552657943
 20
8.330454918347925
 10
23.44909996466583
 20
9.709288119559972
 10
28.27884250330124
 20
9.364578918903874
 10
33.91353932691243
 20
9.594385052674681
  0
ARC
  5
AD3
330
1A
100
AcDbEntity
  8
ZUWAKU
100
AcDbCircle
 10
7.74610559449161
 20
9.317398948678719
 30
0.0
 40
2.1
100
AcDbArc
 50
180.0
 51
225.0
  0
LINE
  5
AD4
330
1A
100
AcDbEntity
  8
ZUWAKU
100
AcDbLine
 10
10.37110559449161
 20
5.67499996135637
 30
0.0
 11
10.37110559449161
 21
9.524999961356347
 31
0.0
  0
LINE
  5
AD5
330
1A
100
AcDbEntity
  8
ZUWAKU
100
AcDbLine
 10
11.77110559449164
 20
9.524999961356368
 30
0.0
 11
11.77110559449164
 21
5.67499996135637
 31
0.0
  0
ARC
  5
AD6
330
1A
100
AcDbEntity
  8
ZUWAKU
100
AcDbCircle
 10
7.74610559449161
 20
9.317398948678719
 30
0.0
 40
0.7
100
AcDbArc
 50
180.0000000000016
 51
224.9999999999988
  0
ARC
  5
AD7
330
1A
100
AcDbEntity
  8
ZUWAKU
100
AcDbCircle
 10
12.47110559449163
 20
5.67499996135637
 30
0.0
 40
2.1
100
AcDbArc
 50
180.0
 51
270.0
  0
ARC
  5
AD8
330
1A
100
AcDbEntity
  8
ZUWAKU
100
AcDbCircle
 10
7.921105594491621
 20
4.974999961356367
 30
0.0
 40
1.4
100
AcDbArc
 50
270.0
 51
0.0
  0
ARC
  5
AD9
330
1A
100
AcDbEntity
  8
ZUWAKU
100
AcDbCircle
 10
7.221105594491633
 20
5.88260097403402
 30
0.0
 40
2.1
100
AcDbArc
 50
0.0
 51
45.0
  0
LINE
  5
ADA
330
1A
100
AcDbEntity
  8
ZUWAKU
100
AcDbLine
 10
6.261181353999859
 20
7.832474708186958
 30
0.0
 11
7.716080341322197
 21
6.377575720864627
 31
0.0
  0
LINE
  5
ADB
330
1A
100
AcDbEntity
  8
ZUWAKU
100
AcDbLine
 10
6.171105594491621
 20
4.974999961356367
 30
0.0
 11
7.658605594491633
 21
4.974999961356367
 31
0.0
  0
LINE
  5
ADC
330
1A
100
AcDbEntity
  8
ZUWAKU
100
AcDbLine
 10
6.171105594491621
 20
3.574999961356369
 30
0.0
 11
7.921105594491621
 21
3.574999961356369
 31
0.0
  0
ARC
  5
ADD
330
1A
100
AcDbEntity
  8
ZUWAKU
100
AcDbCircle
 10
6.171105594491621
 20
4.712499961356368
 30
0.0
 40
0.2625
100
AcDbArc
 50
90.0
 51
180.0
  0
ARC
  5
ADE
330
1A
100
AcDbEntity
  8
ZUWAKU
100
AcDbCircle
 10
6.171105594491621
 20
3.837499961356368
 30
0.0
 40
0.2625
100
AcDbArc
 50
180.0
 51
270.0
  0
LINE
  5
ADF
330
1A
100
AcDbEntity
  8
ZUWAKU
100
AcDbLine
 10
5.908605594491633
 20
3.837499961356368
 30
0.0
 11
5.908605594491633
 21
4.712499961356368
 31
0.0
  0
ARC
  5
AE0
330
1A
100
AcDbEntity
  8
ZUWAKU
100
AcDbCircle
 10
7.221105594491633
 20
5.882600974034041
 30
0.0
 40
0.7
100
AcDbArc
 50
0.0
 51
45.0
  0
ARC
  5
AE1
330
1A
100
AcDbEntity
  8
ZUWAKU
100
AcDbCircle
 10
7.658605594491633
 20
5.23749996135637
 30
0.0
 40
0.2625
100
AcDbArc
 50
270.0
 51
0.0
  0
LINE
  5
AE2
330
1A
100
AcDbEntity
  8
ZUWAKU
100
AcDbLine
 10
7.921105594491621
 20
5.23749996135637
 30
0.0
 11
7.921105594491621
 21
5.882600974034041
 31
0.0
  0
LINE
  5
AE3
330
1A
100
AcDbEntity
  8
ZUWAKU
100
AcDbLine
 10
8.706029834983383
 20
7.367525214525781
 30
0.0
 11
7.251130847661045
 21
8.822424201848119
 31
0.0
  0
ARC
  5
AE4
330
1A
100
AcDbEntity
  8
ZUWAKU
100
AcDbCircle
 10
12.47110559449163
 20
5.67499996135637
 30
0.0
 40
0.7
100
AcDbArc
 50
180.0
 51
270.0
  0
LINE
  5
AE5
330
1A
100
AcDbEntity
  8
ZUWAKU
100
AcDbLine
 10
9.321105594491655
 20
4.974999961356367
 30
0.0
 11
9.321105594491655
 21
5.882600974034041
 31
0.0
  0
ARC
  5
AE6
330
1A
100
AcDbEntity
  8
ZUWAKU
100
AcDbCircle
 10
8.796105594491621
 20
10.48749996135637
 30
0.0
 40
0.2625
100
AcDbArc
 50
270.0
 51
0.0
  0
ARC
  5
AE7
330
1A
100
AcDbEntity
  8
ZUWAKU
100
AcDbCircle
 10
8.796105594491621
 20
11.36249996135637
 30
0.0
 40
0.2625
100
AcDbArc
 50
0.0
 51
90.0
  0
ARC
  5
AE8
330
1A
100
AcDbEntity
  8
ZUWAKU
100
AcDbCircle
 10
7.046105594491621
 20
10.22499996135637
 30
0.0
 40
1.4
100
AcDbArc
 50
90.0
 51
180.0
  0
LINE
  5
AE9
330
1A
100
AcDbEntity
  8
ZUWAKU
100
AcDbLine
 10
5.646105594491644
 20
10.22499996135637
 30
0.0
 11
5.646105594491644
 21
9.317398948678697
 31
0.0
  0
LINE
  5
AEA
330
1A
100
AcDbEntity
  8
ZUWAKU
100
AcDbLine
 10
8.796105594491621
 20
10.22499996135637
 30
0.0
 11
7.30860559449161
 21
10.22499996135637
 31
0.0
  0
LINE
  5
AEB
330
1A
100
AcDbEntity
  8
ZUWAKU
100
AcDbLine
 10
7.046105594491621
 20
9.962499961356368
 30
0.0
 11
7.046105594491621
 21
9.317398948678697
 31
0.0
  0
ARC
  5
AEC
330
1A
100
AcDbEntity
  8
ZUWAKU
100
AcDbCircle
 10
7.30860559449161
 20
9.962499961356368
 30
0.0
 40
0.2625
100
AcDbArc
 50
90.0
 51
180.0
  0
LINE
  5
AED
330
1A
100
AcDbEntity
  8
ZUWAKU
100
AcDbLine
 10
7.046105594491621
 20
11.62499996135637
 30
0.0
 11
8.796105594491621
 21
11.62499996135637
 31
0.0
  0
ARC
  5
AEE
330
1A
100
AcDbEntity
  8
ZUWAKU
100
AcDbCircle
 10
12.47110559449163
 20
9.524999961356347
 30
0.0
 40
2.1
100
AcDbArc
 50
90.0
 51
180.0
  0
ARC
  5
AEF
330
1A
100
AcDbEntity
  8
ZUWAKU
100
AcDbCircle
 10
12.47110559449163
 20
9.524999961356368
 30
0.0
 40
0.7
100
AcDbArc
 50
90.0
 51
180.0
  0
LINE
  5
AF0
330
1A
100
AcDbEntity
  8
ZUWAKU
100
AcDbLine
 10
9.05860559449161
 20
11.36249996135637
 30
0.0
 11
9.05860559449161
 21
10.48749996135637
 31
0.0
  0
LINE
  5
AF1
330
1A
100
AcDbEntity
  8
ZUWAKU
100
AcDbLine
 10
17.83817306314955
 20
11.44154694543985
 30
0.0
 11
16.90403812583367
 21
8.483452977272883
 31
0.0
  0
LINE
  5
AF2
330
1A
100
AcDbEntity
  8
ZUWAKU
100
AcDbLine
 10
14.92110559449162
 20
11.36249996135637
 30
0.0
 11
14.92110559449162
 21
3.837499961356368
 31
0.0
  0
LINE
  5
AF3
330
1A
100
AcDbEntity
  8
ZUWAKU
100
AcDbLine
 10
16.32110559449166
 20
8.56249996135637
 30
0.0
 11
16.32110559449166
 21
11.36249996135637
 31
0.0
  0
LINE
  5
AF4
330
1A
100
AcDbEntity
  8
ZUWAKU
100
AcDbLine
 10
28.92110559449162
 20
5.499999961356366
 30
0.0
 11
28.92110559449162
 21
11.36249996135637
 31
0.0
  0
LINE
  5
AF5
330
1A
100
AcDbEntity
  8
ZUWAKU
100
AcDbLine
 10
27.52110559449164
 20
11.36249996135637
 30
0.0
 11
27.52110559449164
 21
4.974999961356367
 31
0.0
  0
LINE
  5
AF6
330
1A
100
AcDbEntity
  8
ZUWAKU
100
AcDbLine
 10
21.74610559449161
 20
3.837499961356368
 30
0.0
 11
21.74610559449161
 21
11.36249996135637
 31
0.0
  0
LINE
  5
AF7
330
1A
100
AcDbEntity
  8
ZUWAKU
100
AcDbLine
 10
20.34610559449163
 20
11.36249996135637
 30
0.0
 11
20.34610559449163
 21
3.837499961356368
 31
0.0
  0
LINE
  5
AF8
330
1A
100
AcDbEntity
  8
ZUWAKU
100
AcDbLine
 10
18.65742883558062
 20
9.602523558138081
 30
0.0
 11
18.0250529629127
 21
7.599999961356378
 31
0.0
  0
ARC
  5
AF9
330
1A
100
AcDbEntity
  8
ZUWAKU
100
AcDbCircle
 10
24.89610559449164
 20
9.317398948678719
 30
0.0
 40
2.1
100
AcDbArc
 50
180.0
 51
225.0
  0
ARC
  5
AFA
330
1A
100
AcDbEntity
  8
ZUWAKU
100
AcDbCircle
 10
24.89610559449164
 20
9.317398948678719
 30
0.0
 40
0.7
100
AcDbArc
 50
180.0000000000016
 51
224.9999999999988
  0
LINE
  5
AFB
330
1A
100
AcDbEntity
  8
ZUWAKU
100
AcDbLine
 10
33.12110559449161
 20
11.36249996135637
 30
0.0
 11
33.12110559449161
 21
3.837499961356368
 31
0.0
  0
LINE
  5
AFC
330
1A
100
AcDbEntity
  8
ZUWAKU
100
AcDbLine
 10
34.52110559449164
 20
3.837499961356368
 30
0.0
 11
34.52110559449164
 21
11.36249996135637
 31
0.0
  0
LINE
  5
AFD
330
1A
100
AcDbEntity
  8
ZUWAKU
100
AcDbLine
 10
30.67110559449162
 20
11.36249996135637
 30
0.0
 11
30.67110559449162
 21
5.499999961356366
 31
0.0
  0
LINE
  5
AFE
330
1A
100
AcDbEntity
  8
ZUWAKU
100
AcDbLine
 10
32.07110559449166
 20
4.974999961356367
 30
0.0
 11
32.07110559449166
 21
11.36249996135637
 31
0.0
  0
LINE
  5
AFF
330
1A
100
AcDbEntity
  8
ZUWAKU
100
AcDbLine
 10
39.56331429109525
 20
14.99999996135637
 30
0.0
 11
39.56331429109525
 21
0.3999999613564
 31
0.0
  0
LINE
  5
B00
330
1A
100
AcDbEntity
  8
ZUWAKU
100
AcDbLine
 10
39.76331429109519
 20
14.99999996135637
 30
0.0
 11
39.7633142910953
 21
0.3999999613564
 31
0.0
  0
LINE
  5
B01
330
1A
100
AcDbEntity
  8
ZUWAKU
100
AcDbLine
 10
39.66331429109516
 20
14.99999996135637
 30
0.0
 11
39.66331429109528
 21
0.3999999613564
 31
0.0
  0
LINE
  5
B02
330
1A
100
AcDbEntity
  8
ZUWAKU
100
AcDbLine
 10
28.92110559449162
 20
3.574999961356369
 30
0.0
 11
30.67110559449162
 21
3.574999961356369
 31
0.0
  0
LINE
  5
B03
330
1A
100
AcDbEntity
  8
ZUWAKU
100
AcDbLine
 10
30.14610559449164
 20
4.974999961356367
 30
0.0
 11
29.44610559449166
 21
4.974999961356367
 31
0.0
  0
LINE
  5
B04
330
1A
100
AcDbEntity
  8
ZUWAKU
100
AcDbLine
 10
20.60860559449162
 20
3.574999961356369
 30
0.0
 11
21.48360559449162
 21
3.574999961356369
 31
0.0
  0
LINE
  5
B05
330
1A
100
AcDbEntity
  8
ZUWAKU
100
AcDbLine
 10
17.83817306314955
 20
3.758452977272881
 30
0.0
 11
16.90403812583367
 21
6.716546945439852
 31
0.0
  0
ARC
  5
B06
330
1A
100
AcDbEntity
  8
ZUWAKU
100
AcDbCircle
 10
16.58360559449164
 20
6.637499961356369
 30
0.0
 40
0.2625
100
AcDbArc
 50
90.0
 51
180.0
  0
ARC
  5
B07
330
1A
100
AcDbEntity
  8
ZUWAKU
100
AcDbCircle
 10
16.65372267623599
 20
6.637499961356369
 30
0.0
 40
0.2625
100
AcDbArc
 50
17.52556837372303
 51
90.0
  0
ARC
  5
B08
330
1A
100
AcDbEntity
  8
ZUWAKU
100
AcDbCircle
 10
15.18360559449161
 20
3.837499961356368
 30
0.0
 40
0.2625
100
AcDbArc
 50
180.0
 51
270.0
  0
ARC
  5
B09
330
1A
100
AcDbEntity
  8
ZUWAKU
100
AcDbCircle
 10
13.43360559449161
 20
4.712499961356368
 30
0.0
 40
0.2625
100
AcDbArc
 50
0.0
 51
90.0
  0
ARC
  5
B0A
330
1A
100
AcDbEntity
  8
ZUWAKU
100
AcDbCircle
 10
13.43360559449161
 20
3.837499961356368
 30
0.0
 40
0.2625
100
AcDbArc
 50
270.0
 51
0.0
  0
LINE
  5
B0B
330
1A
100
AcDbEntity
  8
ZUWAKU
100
AcDbLine
 10
13.69610559449166
 20
4.712499961356368
 30
0.0
 11
13.69610559449166
 21
3.837499961356368
 31
0.0
  0
LINE
  5
B0C
330
1A
100
AcDbEntity
  8
ZUWAKU
100
AcDbLine
 10
16.32110559449166
 20
3.837499961356368
 30
0.0
 11
16.32110559449166
 21
6.637499961356369
 31
0.0
  0
ARC
  5
B0D
330
1A
100
AcDbEntity
  8
ZUWAKU
100
AcDbCircle
 10
16.05860559449161
 20
3.837499961356368
 30
0.0
 40
0.2625
100
AcDbArc
 50
270.0
 51
0.0
  0
LINE
  5
B0E
330
1A
100
AcDbEntity
  8
ZUWAKU
100
AcDbLine
 10
15.18360559449161
 20
3.574999961356369
 30
0.0
 11
16.05860559449161
 21
3.574999961356369
 31
0.0
  0
ARC
  5
B0F
330
1A
100
AcDbEntity
  8
ZUWAKU
100
AcDbCircle
 10
16.58360559449164
 20
8.56249996135637
 30
0.0
 40
0.2625
100
AcDbArc
 50
180.0
 51
270.0
  0
LINE
  5
B10
330
1A
100
AcDbEntity
  8
ZUWAKU
100
AcDbLine
 10
16.58360559449164
 20
6.899999961356368
 30
0.0
 11
16.65372267623599
 21
6.899999961356368
 31
0.0
  0
LINE
  5
B11
330
1A
100
AcDbEntity
  8
ZUWAKU
100
AcDbLine
 10
16.65372267623599
 20
8.299999961356367
 30
0.0
 11
16.58360559449164
 21
8.299999961356367
 31
0.0
  0
ARC
  5
B12
330
1A
100
AcDbEntity
  8
ZUWAKU
100
AcDbCircle
 10
16.65372267623599
 20
8.56249996135637
 30
0.0
 40
0.2625
100
AcDbArc
 50
270.0
 51
342.474431626277
  0
ARC
  5
B13
330
1A
100
AcDbEntity
  8
ZUWAKU
100
AcDbCircle
 10
18.08848851274729
 20
3.837499961356368
 30
0.0
 40
0.2625
100
AcDbArc
 50
197.525568373723
 51
270.0
  0
LINE
  5
B14
330
1A
100
AcDbEntity
  8
ZUWAKU
100
AcDbLine
 10
19.18824865214953
 20
3.916546945439855
 30
0.0
 11
18.0250529629127
 21
7.599999961356378
 31
0.0
  0
ARC
  5
B15
330
1A
100
AcDbEntity
  8
ZUWAKU
100
AcDbCircle
 10
18.93793320255179
 20
3.837499961356368
 30
0.0
 40
0.2625
100
AcDbArc
 50
270.0
 51
17.52556837372303
  0
LINE
  5
B16
330
1A
100
AcDbEntity
  8
ZUWAKU
100
AcDbLine
 10
18.08848851274729
 20
3.574999961356369
 30
0.0
 11
18.93793320255179
 21
3.574999961356369
 31
0.0
  0
ARC
  5
B17
330
1A
100
AcDbEntity
  8
ZUWAKU
100
AcDbCircle
 10
20.60860559449162
 20
3.837499961356368
 30
0.0
 40
0.2625
100
AcDbArc
 50
180.0
 51
270.0
  0
ARC
  5
B18
330
1A
100
AcDbEntity
  8
ZUWAKU
100
AcDbCircle
 10
25.07110559449166
 20
4.974999961356367
 30
0.0
 40
1.4
100
AcDbArc
 50
270.0
 51
0.0
  0
ARC
  5
B19
330
1A
100
AcDbEntity
  8
ZUWAKU
100
AcDbCircle
 10
28.92110559449162
 20
4.974999961356367
 30
0.0
 40
1.4
100
AcDbArc
 50
180.0
 51
270.0
  0
LINE
  5
B1A
330
1A
100
AcDbEntity
  8
ZUWAKU
100
AcDbLine
 10
25.85602983498342
 20
7.367525214525781
 30
0.0
 11
24.40113084766102
 21
8.822424201848119
 31
0.0
  0
LINE
  5
B1B
330
1A
100
AcDbEntity
  8
ZUWAKU
100
AcDbLine
 10
23.41118135399989
 20
7.832474708186958
 30
0.0
 11
24.86608034132223
 21
6.377575720864627
 31
0.0
  0
LINE
  5
B1C
330
1A
100
AcDbEntity
  8
ZUWAKU
100
AcDbLine
 10
23.32110559449166
 20
3.574999961356369
 30
0.0
 11
25.07110559449166
 21
3.574999961356369
 31
0.0
  0
LINE
  5
B1D
330
1A
100
AcDbEntity
  8
ZUWAKU
100
AcDbLine
 10
23.32110559449166
 20
4.974999961356367
 30
0.0
 11
24.80860559449161
 21
4.974999961356367
 31
0.0
  0
ARC
  5
B1E
330
1A
100
AcDbEntity
  8
ZUWAKU
100
AcDbCircle
 10
23.32110559449166
 20
4.712499961356368
 30
0.0
 40
0.2625
100
AcDbArc
 50
90.0
 51
180.0
  0
ARC
  5
B1F
330
1A
100
AcDbEntity
  8
ZUWAKU
100
AcDbCircle
 10
21.48360559449162
 20
3.837499961356368
 30
0.0
 40
0.2625
100
AcDbArc
 50
270.0
 51
0.0
  0
ARC
  5
B20
330
1A
100
AcDbEntity
  8
ZUWAKU
100
AcDbCircle
 10
23.32110559449166
 20
3.837499961356368
 30
0.0
 40
0.2625
100
AcDbArc
 50
180.0
 51
270.0
  0
LINE
  5
B21
330
1A
100
AcDbEntity
  8
ZUWAKU
100
AcDbLine
 10
23.05860559449161
 20
3.837499961356368
 30
0.0
 11
23.05860559449161
 21
4.712499961356368
 31
0.0
  0
ARC
  5
B22
330
1A
100
AcDbEntity
  8
ZUWAKU
100
AcDbCircle
 10
24.80860559449161
 20
5.23749996135637
 30
0.0
 40
0.2625
100
AcDbArc
 50
270.0
 51
0.0
  0
ARC
  5
B23
330
1A
100
AcDbEntity
  8
ZUWAKU
100
AcDbCircle
 10
24.37110559449161
 20
5.882600974034041
 30
0.0
 40
0.7
100
AcDbArc
 50
0.0
 51
45.0
  0
LINE
  5
B24
330
1A
100
AcDbEntity
  8
ZUWAKU
100
AcDbLine
 10
25.07110559449166
 20
5.23749996135637
 30
0.0
 11
25.07110559449166
 21
5.882600974034041
 31
0.0
  0
ARC
  5
B25
330
1A
100
AcDbEntity
  8
ZUWAKU
100
AcDbCircle
 10
29.44610559449166
 20
5.499999961356366
 30
0.0
 40
0.5249999999999999
100
AcDbArc
 50
180.0
 51
270.0
  0
ARC
  5
B26
330
1A
100
AcDbEntity
  8
ZUWAKU
100
AcDbCircle
 10
24.37110559449161
 20
5.88260097403402
 30
0.0
 40
2.1
100
AcDbArc
 50
0.0
 51
45.0
  0
LINE
  5
B27
330
1A
100
AcDbEntity
  8
ZUWAKU
100
AcDbLine
 10
26.47110559449163
 20
4.974999961356367
 30
0.0
 11
26.47110559449163
 21
5.882600974034041
 31
0.0
  0
ARC
  5
B28
330
1A
100
AcDbEntity
  8
ZUWAKU
100
AcDbCircle
 10
30.67110559449162
 20
4.974999961356367
 30
0.0
 40
1.4
100
AcDbArc
 50
270.0
 51
0.0
  0
LINE
  5
B29
330
1A
100
AcDbEntity
  8
ZUWAKU
100
AcDbLine
 10
33.38360559449166
 20
3.574999961356369
 30
0.0
 11
34.25860559449166
 21
3.574999961356369
 31
0.0
  0
ARC
  5
B2A
330
1A
100
AcDbEntity
  8
ZUWAKU
100
AcDbCircle
 10
30.14610559449164
 20
5.499999961356366
 30
0.0
 40
0.5249999999999999
100
AcDbArc
 50
270.0
 51
0.0
  0
ARC
  5
B2B
330
1A
100
AcDbEntity
  8
ZUWAKU
100
AcDbCircle
 10
33.38360559449166
 20
3.837499961356368
 30
0.0
 40
0.2625
100
AcDbArc
 50
180.0
 51
270.0
  0
ARC
  5
B2C
330
1A
100
AcDbEntity
  8
ZUWAKU
100
AcDbCircle
 10
34.25860559449166
 20
3.837499961356368
 30
0.0
 40
0.2625
100
AcDbArc
 50
270.0
 51
0.0
  0
LINE
  5
B2D
330
1A
100
AcDbEntity
  8
ZUWAKU
100
AcDbLine
 10
21.48360559449162
 20
11.62499996135637
 30
0.0
 11
20.60860559449162
 21
11.62499996135637
 31
0.0
  0
LINE
  5
B2E
330
1A
100
AcDbEntity
  8
ZUWAKU
100
AcDbLine
 10
13.69610559449166
 20
11.36249996135637
 30
0.0
 11
13.69610559449166
 21
10.48749996135637
 31
0.0
  0
ARC
  5
B2F
330
1A
100
AcDbEntity
  8
ZUWAKU
100
AcDbCircle
 10
13.43360559449161
 20
10.48749996135637
 30
0.0
 40
0.2625
100
AcDbArc
 50
270.0
 51
0.0
  0
ARC
  5
B30
330
1A
100
AcDbEntity
  8
ZUWAKU
100
AcDbCircle
 10
15.18360559449161
 20
11.36249996135637
 30
0.0
 40
0.2625
100
AcDbArc
 50
90.0
 51
180.0
  0
ARC
  5
B31
330
1A
100
AcDbEntity
  8
ZUWAKU
100
AcDbCircle
 10
13.43360559449161
 20
11.36249996135637
 30
0.0
 40
0.2625
100
AcDbArc
 50
0.0
 51
90.0
  0
LINE
  5
B32
330
1A
100
AcDbEntity
  8
ZUWAKU
100
AcDbLine
 10
16.05860559449161
 20
11.62499996135637
 30
0.0
 11
15.18360559449161
 21
11.62499996135637
 31
0.0
  0
ARC
  5
B33
330
1A
100
AcDbEntity
  8
ZUWAKU
100
AcDbCircle
 10
16.05860559449161
 20
11.36249996135637
 30
0.0
 40
0.2625
100
AcDbArc
 50
0.0
 51
90.0
  0
ARC
  5
B34
330
1A
100
AcDbEntity
  8
ZUWAKU
100
AcDbCircle
 10
18.08848851274729
 20
11.36249996135637
 30
0.0
 40
0.2625
100
AcDbArc
 50
90.0
 51
162.474431626277
  0
LINE
  5
B35
330
1A
100
AcDbEntity
  8
ZUWAKU
100
AcDbLine
 10
19.18824865214953
 20
11.28345297727288
 30
0.0
 11
18.65742883558062
 21
9.602523558138081
 31
0.0
  0
ARC
  5
B36
330
1A
100
AcDbEntity
  8
ZUWAKU
100
AcDbCircle
 10
18.93793320255179
 20
11.36249996135637
 30
0.0
 40
0.2625
100
AcDbArc
 50
342.474431626277
 51
90.0
  0
LINE
  5
B37
330
1A
100
AcDbEntity
  8
ZUWAKU
100
AcDbLine
 10
18.08848851274729
 20
11.62499996135637
 30
0.0
 11
18.93793320255179
 21
11.62499996135637
 31
0.0
  0
ARC
  5
B38
330
1A
100
AcDbEntity
  8
ZUWAKU
100
AcDbCircle
 10
20.60860559449162
 20
11.36249996135637
 30
0.0
 40
0.2625
100
AcDbArc
 50
90.0
 51
180.0
  0
LINE
  5
B39
330
1A
100
AcDbEntity
  8
ZUWAKU
100
AcDbLine
 10
25.94610559449166
 20
10.22499996135637
 30
0.0
 11
24.45860559449164
 21
10.22499996135637
 31
0.0
  0
LINE
  5
B3A
330
1A
100
AcDbEntity
  8
ZUWAKU
100
AcDbLine
 10
24.19610559449166
 20
11.62499996135637
 30
0.0
 11
25.94610559449166
 21
11.62499996135637
 31
0.0
  0
ARC
  5
B3B
330
1A
100
AcDbEntity
  8
ZUWAKU
100
AcDbCircle
 10
24.19610559449166
 20
10.22499996135637
 30
0.0
 40
1.4
100
AcDbArc
 50
90.0
 51
180.0
  0
LINE
  5
B3C
330
1A
100
AcDbEntity
  8
ZUWAKU
100
AcDbLine
 10
22.79610559449162
 20
10.22499996135637
 30
0.0
 11
22.79610559449162
 21
9.317398948678697
 31
0.0
  0
ARC
  5
B3D
330
1A
100
AcDbEntity
  8
ZUWAKU
100
AcDbCircle
 10
21.48360559449162
 20
11.36249996135637
 30
0.0
 40
0.2625
100
AcDbArc
 50
0.0
 51
90.0
  0
LINE
  5
B3E
330
1A
100
AcDbEntity
  8
ZUWAKU
100
AcDbLine
 10
24.19610559449166
 20
9.962499961356368
 30
0.0
 11
24.19610559449166
 21
9.317398948678697
 31
0.0
  0
ARC
  5
B3F
330
1A
100
AcDbEntity
  8
ZUWAKU
100
AcDbCircle
 10
24.45860559449164
 20
9.962499961356368
 30
0.0
 40
0.2625
100
AcDbArc
 50
90.0
 51
180.0
  0
LINE
  5
B40
330
1A
100
AcDbEntity
  8
ZUWAKU
100
AcDbLine
 10
26.20860559449164
 20
11.36249996135637
 30
0.0
 11
26.20860559449164
 21
10.48749996135637
 31
0.0
  0
ARC
  5
B41
330
1A
100
AcDbEntity
  8
ZUWAKU
100
AcDbCircle
 10
25.94610559449166
 20
10.48749996135637
 30
0.0
 40
0.2625
100
AcDbArc
 50
270.0
 51
0.0
  0
ARC
  5
B42
330
1A
100
AcDbEntity
  8
ZUWAKU
100
AcDbCircle
 10
25.94610559449166
 20
11.36249996135637
 30
0.0
 40
0.2625
100
AcDbArc
 50
0.0
 51
90.0
  0
LINE
  5
B43
330
1A
100
AcDbEntity
  8
ZUWAKU
100
AcDbLine
 10
28.65860559449163
 20
11.62499996135637
 30
0.0
 11
27.78360559449163
 21
11.62499996135637
 31
0.0
  0
ARC
  5
B44
330
1A
100
AcDbEntity
  8
ZUWAKU
100
AcDbCircle
 10
27.78360559449163
 20
11.36249996135637
 30
0.0
 40
0.2625
100
AcDbArc
 50
90.0
 51
180.0
  0
ARC
  5
B45
330
1A
100
AcDbEntity
  8
ZUWAKU
100
AcDbCircle
 10
28.65860559449163
 20
11.36249996135637
 30
0.0
 40
0.2625
100
AcDbArc
 50
0.0
 51
90.0
  0
LINE
  5
B46
330
1A
100
AcDbEntity
  8
ZUWAKU
100
AcDbLine
 10
34.25860559449166
 20
11.62499996135637
 30
0.0
 11
33.38360559449166
 21
11.62499996135637
 31
0.0
  0
ARC
  5
B47
330
1A
100
AcDbEntity
  8
ZUWAKU
100
AcDbCircle
 10
30.93360559449161
 20
11.36249996135637
 30
0.0
 40
0.2625
100
AcDbArc
 50
90.0
 51
180.0
  0
LINE
  5
B48
330
1A
100
AcDbEntity
  8
ZUWAKU
100
AcDbLine
 10
31.80860559449161
 20
11.62499996135637
 30
0.0
 11
30.93360559449161
 21
11.62499996135637
 31
0.0
  0
ARC
  5
B49
330
1A
100
AcDbEntity
  8
ZUWAKU
100
AcDbCircle
 10
31.80860559449161
 20
11.36249996135637
 30
0.0
 40
0.2625
100
AcDbArc
 50
0.0
 51
90.0
  0
ARC
  5
B4A
330
1A
100
AcDbEntity
  8
ZUWAKU
100
AcDbCircle
 10
33.38360559449166
 20
11.36249996135637
 30
0.0
 40
0.2625
100
AcDbArc
 50
90.0
 51
180.0
  0
ARC
  5
B4B
330
1A
100
AcDbEntity
  8
ZUWAKU
100
AcDbCircle
 10
34.25860559449166
 20
11.36249996135637
 30
0.0
 40
0.2625
100
AcDbArc
 50
0.0
 51
90.0
  0
LINE
  5
B4C
330
1A
100
AcDbEntity
  8
ZUWAKU
100
AcDbLine
 10
104.2233001621349
 20
14.99999996135637
 30
0.0
 11
104.2233001621351
 21
0.3999999613564
 31
0.0
  0
LINE
  5
B4D
330
1A
100
AcDbEntity
  8
ZUWAKU
100
AcDbLine
 10
104.323300162135
 20
14.99999996135637
 30
0.0
 11
104.3233001621351
 21
0.3999999613564
 31
0.0
  0
LINE
  5
B4E
330
1A
100
AcDbEntity
  8
ZUWAKU
100
AcDbLine
 10
104.123300162135
 20
14.99999996135637
 30
0.0
 11
104.123300162135
 21
0.3999999613564
 31
0.0
  0
TEXT
  5
B4F
330
1A
100
AcDbEntity
  8
moji
100
AcDbText
 10
119.9136008575266
 20
9.002460490060059
 30
0.0
 40
2.8
  1
ステンレス金具正面打（吊）ワンタッチ自在式
 41
0.9
  7
ｽﾀｲﾙ1
100
AcDbText
  0
TEXT
  5
B50
330
1A
100
AcDbEntity
  8
ZUWAKU
100
AcDbText
 10
104.8620226732398
 20
4.827678230549175
 30
0.0
 40
2.0
  1
サイズ
 41
0.9
  7
ｽﾀｲﾙ1
100
AcDbText
  0
TEXT
  5
B51
330
1A
100
AcDbEntity
  8
moji
100
AcDbText
 10
119.9136008575266
 20
1.602460490060077
 30
0.0
 40
2.8
  1
Σ９０－６－１０～４５
 41
0.9
  7
ｽﾀｲﾙ1
100
AcDbText
  0
TEXT
  5
B52
330
1A
100
AcDbEntity
  8
ZUWAKU
100
AcDbText
 10
104.8620226732397
 20
12.02767823054916
 30
0.0
 40
2.0
  1
品名
 41
0.9
  7
ｽﾀｲﾙ1
100
AcDbText
  0
TEXT
  5
B53
330
1A
100
AcDbEntity
  8
ZUWAKU
100
AcDbText
 10
329.1019683607523
 20
9.002460490060059
 30
0.0
 40
2.8
  1
　　．　　．　　
 41
0.9
  7
ｽﾀｲﾙ1
100
AcDbText
  0
LINE
  5
B54
330
1A
100
AcDbEntity
  8
ZUWAKU
100
AcDbLine
 10
324.4086007722032
 20
7.799999961356383
 30
0.0
 11
348.6245047913717
 21
7.799999961356383
 31
0.0
  0
LINE
  5
B55
330
1A
100
AcDbEntity
  8
ZUWAKU
100
AcDbLine
 10
324.4086007722033
 20
7.699999961356385
 30
0.0
 11
348.6245047913717
 21
7.699999961356383
 31
0.0
  0
LINE
  5
B56
330
1A
100
AcDbEntity
  8
ZUWAKU
100
AcDbLine
 10
324.4086007722032
 20
7.599999961356382
 30
0.0
 11
348.6245047913717
 21
7.599999961356383
 31
0.0
  0
LINE
  5
B57
330
1A
100
AcDbEntity
  8
ZUWAKU
100
AcDbLine
 10
252.5995892661715
 20
7.799999961356383
 30
0.0
 11
276.2634774001573
 21
7.799999961356383
 31
0.0
  0
LINE
  5
B58
330
1A
100
AcDbEntity
  8
ZUWAKU
100
AcDbLine
 10
252.5995892661715
 20
7.699999961356383
 30
0.0
 11
276.2634774001573
 21
7.699999961356383
 31
0.0
  0
LINE
  5
B59
330
1A
100
AcDbEntity
  8
ZUWAKU
100
AcDbLine
 10
252.5995892661715
 20
7.599999961356385
 30
0.0
 11
276.2634774001573
 21
7.599999961356385
 31
0.0
  0
LINE
  5
B5A
330
1A
100
AcDbEntity
  8
ZUWAKU
100
AcDbLine
 10
252.3995892661716
 20
14.99999996135637
 30
0.0
 11
252.3995892661716
 21
0.3999999613564
 31
0.0
  0
LINE
  5
B5B
330
1A
100
AcDbEntity
  8
ZUWAKU
100
AcDbLine
 10
252.5995892661715
 20
14.99999996135637
 30
0.0
 11
252.5995892661716
 21
0.3999999613564
 31
0.0
  0
LINE
  5
B5C
330
1A
100
AcDbEntity
  8
ZUWAKU
100
AcDbLine
 10
252.4995892661715
 20
14.99999996135637
 30
0.0
 11
252.4995892661716
 21
0.3999999613564
 31
0.0
  0
TEXT
  5
B5D
330
1A
100
AcDbEntity
  8
moji
100
AcDbText
 10
264.0204535032575
 20
9.002460490060059
 30
0.0
 40
2.8
  1
Ａ３
 41
0.9
  7
ｽﾀｲﾙ1
100
AcDbText
  0
LINE
  5
B5E
330
1A
100
AcDbEntity
  8
ZUWAKU
100
AcDbLine
 10
223.7121815025968
 20
14.99999996135637
 30
0.0
 11
223.7121815025968
 21
0.3999999613564
 31
0.0
  0
LINE
  5
B5F
330
1A
100
AcDbEntity
  8
ZUWAKU
100
AcDbLine
 10
223.9121815025967
 20
14.99999996135637
 30
0.0
 11
223.9121815025968
 21
0.3999999613564
 31
0.0
  0
LINE
  5
B60
330
1A
100
AcDbEntity
  8
ZUWAKU
100
AcDbLine
 10
223.8121815025967
 20
14.99999996135637
 30
0.0
 11
223.8121815025968
 21
0.3999999613564
 31
0.0
  0
TEXT
  5
B61
330
1A
100
AcDbEntity
  8
moji
100
AcDbText
 10
231.2836386780954
 20
5.971308822186359
 30
0.0
 40
2.8
  1
ＬＬ８３Ｇ
 41
0.9
  7
ｽﾀｲﾙ1
100
AcDbText
  0
TEXT
  5
B63
330
1A
100
AcDbEntity
  8
ZUWAKU
100
AcDbText
 10
253.3383117772764
 20
4.827678230549175
 30
0.0
 40
2.0
  1
縮尺
 41
0.9
  7
ｽﾀｲﾙ1
100
AcDbText
  0
TEXT
  5
B64
330
1A
100
AcDbEntity
  8
moji
100
AcDbText
 10
264.0204535032575
 20
1.602460490060077
 30
0.0
 40
2.8
  1
１/１
 41
0.9
  7
ｽﾀｲﾙ1
100
AcDbText
  0
TEXT
  5
B65
330
1A
100
AcDbEntity
  8
ZUWAKU
100
AcDbText
 10
224.6509040137015
 20
12.02767823054916
 30
0.0
 40
2.0
  1
品番
 41
0.9
  7
ｽﾀｲﾙ1
100
AcDbText
  0
TEXT
  5
B66
330
1A
100
AcDbEntity
  8
ZUWAKU
100
AcDbText
 10
253.3383117772763
 20
12.02767823054916
 30
0.0
 40
2.0
  1
用紙
 41
0.9
  7
ｽﾀｲﾙ1
100
AcDbText
  0
LINE
  5
B67
330
1A
100
AcDbEntity
  8
ZUWAKU
100
AcDbLine
 10
276.2634774001573
 20
14.99999996135637
 30
0.0
 11
276.2634774001573
 21
0.3999999613564
 31
0.0
  0
LINE
  5
B68
330
1A
100
AcDbEntity
  8
ZUWAKU
100
AcDbLine
 10
276.4634774001572
 20
14.99999996135637
 30
0.0
 11
276.4634774001573
 21
0.3999999613564
 31
0.0
  0
LINE
  5
B69
330
1A
100
AcDbEntity
  8
ZUWAKU
100
AcDbLine
 10
276.3634774001572
 20
14.99999996135637
 30
0.0
 11
276.3634774001573
 21
0.3999999613564
 31
0.0
  0
LINE
  5
B6A
330
1A
100
AcDbEntity
  8
ZUWAKU
100
AcDbLine
 10
324.2086007722033
 20
14.99999996135637
 30
0.0
 11
324.2086007722033
 21
0.3999999613564
 31
0.0
  0
LINE
  5
B6B
330
1A
100
AcDbEntity
  8
ZUWAKU
100
AcDbLine
 10
324.4086007722033
 20
14.99999996135637
 30
0.0
 11
324.4086007722034
 21
0.3999999613564
 31
0.0
  0
LINE
  5
B6C
330
1A
100
AcDbEntity
  8
ZUWAKU
100
AcDbLine
 10
324.3086007722033
 20
14.99999996135637
 30
0.0
 11
324.3086007722034
 21
0.3999999613564
 31
0.0
  0
TEXT
  5
B6D
330
1A
100
AcDbEntity
  8
ZUWAKU
100
AcDbText
 10
325.1473232833081
 20
12.02767823054916
 30
0.0
 40
2.0
  1
DATE
 41
0.9
  7
ｽﾀｲﾙ1
100
AcDbText
  0
TEXT
  5
B6E
330
1A
100
AcDbEntity
  8
ZUWAKU
100
AcDbText
 10
354.264041613223
 20
8.776919629199767
 30
0.0
 40
3.0
  1
積水化学工業株式会社
 41
0.9
  7
ｽﾀｲﾙ1
100
AcDbText
  0
LINE
  5
B6F
330
1A
100
AcDbEntity
  8
ZUWAKU
100
AcDbLine
 10
348.9245047913717
 20
14.99999996135637
 30
0.0
 11
348.9245047913718
 21
0.3999999613564
 31
0.0
  0
LINE
  5
B70
330
1A
100
AcDbEntity
  8
ZUWAKU
100
AcDbLine
 10
348.8245047913716
 20
14.99999996135637
 30
0.0
 11
348.8245047913717
 21
0.3999999613564
 31
0.0
  0
LINE
  5
B71
330
1A
100
AcDbEntity
  8
ZUWAKU
100
AcDbLine
 10
348.7245047913717
 20
14.99999996135637
 30
0.0
 11
348.7245047913717
 21
0.3999999613564
 31
0.0
  0
LINE
  5
B72
330
1A
100
AcDbEntity
  8
ZUWAKU
100
AcDbLine
 10
348.6245047913717
 20
14.99999996135637
 30
0.0
 11
348.6245047913717
 21
0.3999999613564
 31
0.0
  0
TEXT
  5
B73
330
1A
100
AcDbEntity
  8
ZUWAKU
100
AcDbText
 10
354.264041613223
 20
3.324420118283399
 30
0.0
 40
3.0
  1
建材事業部
 41
0.9
  7
ｽﾀｲﾙ1
100
AcDbText
  0
DIMENSION
  5
4A1E
330
1A
100
AcDbEntity
  8
SUNPOU
100
AcDbDimension
  2
*D1
 10
58.52895108281698
 20
92.93635851051727
 30
0.0
 11
56.02895108281697
 21
108.1029560105173
 31
0.0
 70
    32
 71
     5
 42
30.33319499999995
  3
STANDARD
100
AcDbAlignedDimension
 13
82.17945331467172
 23
123.2695535105172
 33
0.0
 14
233.4114113146716
 24
92.93635851051721
 34
0.0
 50
90.0
100
AcDbRotatedDimension
1001
ACAD
1000
DSTYLE
1002
{
1070
    41
1040
3.0
1070
    42
1040
3.0
1070
    43
1040
7.0
1070
    44
1040
1.5
1070
    73
1070
     0
1070
    74
1070
     0
1070
    77
1070
     3
1070
   140
1040
3.0
1070
   141
1040
3.0
1070
   147
1040
1.0
1070
   172
1070
     1
1070
   173
1070
     1
1070
   176
1070
   256
1070
   177
1070
   256
1070
   178
1070
   256
1070
   271
1070
     0
1070
   272
1070
     0
1070
   341
1005
B2
1070
     6
1000
OPEN
1070
     7
1000
OPEN
1070
   371
1070
    -1
1070
   372
1070
    -1
1002
}
  0
DIMENSION
  5
4A1F
330
1A
100
AcDbEntity
  8
SUNPOU
  6
Continuous
100
AcDbDimension
  2
*D2
 10
248.7569803146716
 20
149.0930855255041
 30
0.0
 11
231.2569804428956
 21
151.5930855255041
 31
0.0
 70
    32
 71
     5
 42
34.99999974355217
  3
STANDARD
100
AcDbAlignedDimension
 13
213.7569805711195
 23
125.5384608708343
 33
0.0
 14
248.7569803146716
 24
125.5384615105172
 34
0.0
100
AcDbRotatedDimension
1001
ACAD
1000
DSTYLE
1002
{
1070
   140
1040
3.0
1070
    74
1070
     0
1070
   172
1070
     1
1070
    73
1070
     0
1070
   272
1070
     0
1070
    77
1070
     3
1070
   173
1070
     1
1070
   147
1040
1.0
1070
    42
1040
3.0
1070
    44
1040
1.5
1070
    43
1040
7.0
1070
   271
1070
     0
1070
   178
1070
   256
1070
   177
1070
   256
1070
   176
1070
   256
1070
   141
1040
3.0
1070
     7
1000
OPEN
1070
     6
1000
OPEN
1070
    41
1040
3.0
1002
}
  0
DIMENSION
  5
4A20
330
1A
100
AcDbEntity
  8
SUNPOU
  6
Continuous
100
AcDbDimension
  2
*D3
 10
250.3397613200169
 20
103.1417463631924
 30
0.0
 11
241.1295771812143
 21
123.2614865701368
 31
0.0
 70
    33
 71
     5
 42
43.97187455024333
  3
STANDARD
100
AcDbAlignedDimension
 13
210.7089866431537
 23
130.5943678245581
 33
0.0
 14
233.4114113146716
 24
92.93635851051721
 34
0.0
1001
ACAD
1000
DSTYLE
1002
{
1070
   140
1040
3.0
1070
    74
1070
     0
1070
   172
1070
     1
1070
    73
1070
     0
1070
   272
1070
     0
1070
    77
1070
     3
1070
   173
1070
     1
1070
   147
1040
1.0
1070
    42
1040
3.0
1070
    44
1040
1.5
1070
    43
1040
7.0
1070
   271
1070
     0
1070
   178
1070
   256
1070
   177
1070
   256
1070
   176
1070
   256
1070
   141
1040
3.0
1070
     7
1000
OPEN
1070
     6
1000
OPEN
1070
    41
1040
3.0
1002
}
  0
DIMENSION
  5
4A21
330
1A
100
AcDbEntity
  8
SUNPOU
  6
Continuous
100
AcDbDimension
  2
*D4
 10
242.6354456143227
 20
98.49713909266635
 30
0.0
 11
235.4831783573361
 21
115.2032780661925
 31
0.0
 70
    33
 71
     5
 42
36.00000035100734
  3
STANDARD
100
AcDbAlignedDimension
 13
214.8248203146716
 23
123.7671655105172
 33
0.0
 14
233.4114113146716
 24
92.93635851051721
 34
0.0
1001
ACAD
1000
DSTYLE
1002
{
1070
   140
1040
3.0
1070
    74
1070
     0
1070
   172
1070
     1
1070
    73
1070
     0
1070
   272
1070
     0
1070
    77
1070
     3
1070
   173
1070
     1
1070
   147
1040
1.0
1070
    42
1040
3.0
1070
    44
1040
1.5
1070
    43
1040
7.0
1070
   271
1070
     0
1070
   178
1070
   256
1070
   177
1070
   256
1070
   176
1070
   256
1070
   141
1040
3.0
1070
     7
1000
OPEN
1070
     6
1000
OPEN
1070
    41
1040
3.0
1002
}
  0
LINE
  5
4A22
330
1A
100
AcDbEntity
  8
CENTER L
  6
CENTER
100
AcDbLine
 10
221.4037115798751
 20
225.9286015105172
 30
0.0
 11
215.7336516528856
 21
225.9286015105173
 31
0.0
  0
LINE
  5
4A23
330
1A
100
AcDbEntity
  8
CENTER L
  6
CENTER
100
AcDbLine
 10
221.4037115798751
 20
185.1455175105172
 30
0.0
 11
215.7336516528856
 21
185.1455175105172
 31
0.0
  0
LINE
  5
4A24
330
1A
100
AcDbEntity
  8
CENTER L
  6
CENTER
100
AcDbLine
 10
238.4114113146716
 20
205.5370595105172
 30
0.0
 11
77.17945331467172
 21
205.5370595105172
 31
0.0
  0
LINE
  5
4A25
330
1A
100
AcDbEntity
  8
CENTER L
  6
CENTER
100
AcDbLine
 10
208.5008371821798
 20
113.5325549116695
 30
0.0
 11
221.9464950039053
 21
121.6383740551335
 31
0.0
  0
LINE
  5
4A26
330
1A
100
AcDbEntity
  8
CENTER L
  6
CENTER
100
AcDbLine
 10
212.889337703673
 20
106.2530590322176
 30
0.0
 11
226.3349955253985
 21
114.3588781756816
 31
0.0
  0
ELLIPSE
  5
4A27
330
1A
100
AcDbEntity
  8
SEIHIN
  6
Continuous
 62
     3
100
AcDbEllipse
 10
218.4337733146717
 20
225.9492415105172
 30
0.0
 11
4.592277442707641E-17
 21
-2.100001711502093
 31
0.0
210
0.0
220
0.0
230
-1.0
 40
0.3571425437499017
 41
-1.570796326794897
 42
4.71238898038469
  0
LINE
  5
4A28
330
1A
100
AcDbEntity
  8
SEIHIN
  6
Continuous
 62
     3
100
AcDbLine
 10
216.6248203146715
 20
231.1992415105172
 30
0.0
 11
230.4114113146716
 21
231.1992415105172
 31
0.0
  0
LINE
  5
4A29
330
1A
100
AcDbEntity
  8
SEIHIN
  6
Continuous
 62
     3
100
AcDbLine
 10
217.7841903146716
 20
216.9034495105172
 30
0.0
 11
219.7280753146717
 21
216.9034495105172
 31
0.0
  0
LINE
  5
4A2A
330
1A
100
AcDbEntity
  8
SEIHIN
  6
Continuous
 62
     3
100
AcDbLine
 10
219.7280753146717
 20
214.4125535105172
 30
0.0
 11
217.7841903146716
 21
214.4125535105172
 31
0.0
  0
LINE
  5
4A2B
330
1A
100
AcDbEntity
  8
SEIHIN
  6
Continuous
 62
     3
100
AcDbLine
 10
210.8070993146716
 20
213.7888525105172
 30
0.0
 11
229.3936903146716
 21
213.7888535105172
 31
0.0
  0
LINE
  5
4A2C
330
1A
100
AcDbEntity
  8
SEIHIN
  6
Continuous
 62
     3
100
AcDbLine
 10
217.7841903146716
 20
194.1913095105172
 30
0.0
 11
219.7280753146717
 21
194.1913095105172
 31
0.0
  0
LINE
  5
4A2D
330
1A
100
AcDbEntity
  8
SEIHIN
  6
Continuous
 62
     3
100
AcDbLine
 10
219.7280753146717
 20
196.6822065105172
 30
0.0
 11
217.7841903146716
 21
196.6822065105172
 31
0.0
  0
LINE
  5
4A2E
330
1A
100
AcDbEntity
  8
SEIHIN
  6
Continuous
 62
     3
100
AcDbLine
 10
229.3929043146716
 20
197.2996285105172
 30
0.0
 11
210.8063133146716
 21
197.2996275105172
 31
0.0
  0
LINE
  5
4A2F
330
1A
100
AcDbEntity
  8
SEIHIN
  6
Continuous
 62
     3
100
AcDbLine
 10
232.4114083146717
 20
213.0371225105172
 30
0.0
 11
134.9496783146717
 21
213.0368245105172
 31
0.0
  0
LINE
  5
4A30
330
1A
100
AcDbEntity
  8
SEIHIN
  6
Continuous
 62
     3
100
AcDbLine
 10
232.4114143146717
 20
198.0371225105172
 30
0.0
 11
134.9495423146716
 21
198.0368245105172
 31
0.0
  0
LINE
  5
4A31
330
1A
100
AcDbEntity
  8
SEIHIN
  6
Continuous
 62
     3
100
AcDbLine
 10
220.8713883146716
 20
210.5370865105172
 30
0.0
 11
145.3669223146717
 21
210.5368565105172
 31
0.0
  0
LINE
  5
4A32
330
1A
100
AcDbEntity
  8
SEIHIN
  6
Continuous
 62
     3
100
AcDbLine
 10
220.7282843146716
 20
200.5370865105172
 30
0.0
 11
145.3669533146717
 21
200.5368565105172
 31
0.0
  0
ELLIPSE
  5
4A33
330
1A
100
AcDbEntity
  8
SEIHIN
  6
Continuous
 62
     3
100
AcDbEllipse
 10
218.4337733146717
 20
185.1455175105172
 30
0.0
 11
4.592277442707641E-17
 21
2.100001711502093
 31
0.0
210
0.0
220
0.0
230
1.0
 40
0.3571425437499017
 41
-1.570796326794897
 42
4.71238898038469
  0
LINE
  5
4A34
330
1A
100
AcDbEntity
  8
SEIHIN
  6
Continuous
 62
     3
100
AcDbLine
 10
216.6248193146716
 20
179.8955145105172
 30
0.0
 11
230.4114113146716
 21
179.8955145105172
 31
0.0
  0
ARC
  5
4A35
330
1A
100
AcDbEntity
  8
SEIHIN
  6
Continuous
 62
     3
100
AcDbCircle
 10
224.1370193146715
 20
108.1751385105172
 30
0.0
 40
6.624999944286226
100
AcDbArc
 50
179.1931915802974
 51
242.9747727086138
  0
LINE
  5
4A36
330
1A
100
AcDbEntity
  8
SEIHIN
  6
Continuous
 62
     3
100
AcDbLine
 10
228.5298663146716
 20
89.9934815105172
 30
0.0
 11
209.9432753146716
 21
120.8242885105172
 31
0.0
  0
LINE
  5
4A37
330
1A
100
AcDbEntity
  8
SEIHIN
  6
Continuous
 62
     3
100
AcDbLine
 10
213.7971263146717
 20
123.1476125105172
 30
0.0
 11
232.3837173146717
 21
92.31680551051721
 31
0.0
  0
LINE
  5
4A38
330
1A
100
AcDbEntity
  8
SEIHIN
  6
Continuous
 62
     3
100
AcDbLine
 10
214.8248203146716
 20
123.7671655105172
 30
0.0
 11
233.4114113146716
 21
92.93635851051721
 31
0.0
  0
DIMENSION
  5
4A39
330
1A
100
AcDbEntity
  8
SUNPOU
  6
Continuous
100
AcDbDimension
  2
*D5
 10
81.61105031467173
 20
149.255388342654
 30
0.0
 11
147.6840154428956
 21
151.755388342654
 31
0.0
 70
    32
 71
     5
 42
132.1459302564477
  3
STANDARD
100
AcDbAlignedDimension
 13
213.7569805711195
 23
125.5384608708343
 33
0.0
 14
81.61105031467173
 24
116.0472975105172
 34
0.0
100
AcDbRotatedDimension
1001
ACAD
1000
DSTYLE
1002
{
1070
   140
1040
3.0
1070
    74
1070
     0
1070
   172
1070
     1
1070
    73
1070
     0
1070
   272
1070
     0
1070
    77
1070
     3
1070
   173
1070
     1
1070
   147
1040
1.0
1070
    42
1040
3.0
1070
    44
1040
1.5
1070
    43
1040
7.0
1070
   271
1070
     0
1070
   178
1070
   256
1070
   177
1070
   256
1070
   176
1070
   256
1070
   141
1040
3.0
1070
     7
1000
OPEN
1070
     6
1000
OPEN
1070
    41
1040
3.0
1002
}
  0
DIMENSION
  5
4A3A
330
1A
100
AcDbEntity
  8
SUNPOU
  6
Continuous
100
AcDbDimension
  2
*D6
 10
213.7569805711195
 20
141.4648035244666
 30
0.0
 11
208.8533189428956
 21
143.9648035244666
 31
0.0
 70
    32
 71
     5
 42
9.80732325644783
  3
STANDARD
100
AcDbAlignedDimension
 13
203.9496573146716
 23
91.95699351051724
 33
0.0
 14
213.7569805711195
 24
125.5384608708343
 34
0.0
100
AcDbRotatedDimension
1001
ACAD
1000
DSTYLE
1002
{
1070
   140
1040
3.0
1070
    74
1070
     0
1070
   172
1070
     1
1070
    73
1070
     0
1070
   272
1070
     0
1070
    77
1070
     3
1070
   173
1070
     1
1070
   147
1040
1.0
1070
    42
1040
3.0
1070
    44
1040
1.5
1070
    43
1040
7.0
1070
   271
1070
     0
1070
   178
1070
   256
1070
   177
1070
   256
1070
   176
1070
   256
1070
   141
1040
3.0
1070
     7
1000
OPEN
1070
     6
1000
OPEN
1070
    41
1040
3.0
1002
}
  0
LINE
  5
4A3B
330
1A
100
AcDbEntity
  8
SEIHIN
  6
Continuous
 62
     3
100
AcDbLine
 10
188.2326943146716
 20
121.7992965105172
 30
0.0
 11
205.2113063146717
 21
128.4431015105172
 31
0.0
  0
ARC
  5
4A3C
330
1A
100
AcDbEntity
  8
SEIHIN
  6
Continuous
 62
     3
100
AcDbCircle
 10
207.7621013146716
 20
121.9244015105172
 30
0.0
 40
7.000000168520353
100
AcDbArc
 50
31.08399920054774
 51
111.3706190912372
  0
LINE
  5
4A3D
330
1A
100
AcDbEntity
  8
SEIHIN
  6
Continuous
 62
     3
100
AcDbLine
 10
91.7373223146717
 20
114.8903795105172
 30
0.0
 11
84.56806831467156
 21
114.8903795105172
 31
0.0
  0
LINE
  5
4A3E
330
1A
100
AcDbEntity
  8
SEIHIN
  6
Continuous
 62
     3
100
AcDbLine
 10
88.56806831467156
 20
113.8903795105172
 30
0.0
 11
83.60488531467172
 21
113.8903795105172
 31
0.0
  0
LINE
  5
4A3F
330
1A
100
AcDbEntity
  8
SEIHIN
  6
Continuous
 62
     3
100
AcDbLine
 10
82.69848931467163
 20
117.1190245105172
 30
0.0
 11
85.02237631467165
 21
114.8903795105172
 31
0.0
  0
LINE
  5
4A40
330
1A
100
AcDbEntity
  8
SEIHIN
  6
Continuous
 62
     3
100
AcDbLine
 10
82.60796731467167
 20
115.9688385105172
 30
0.0
 11
83.17637131467154
 21
123.1910945105173
 31
0.0
  0
LINE
  5
4A41
330
1A
100
AcDbEntity
  8
SEIHIN
  6
Continuous
 62
     3
100
AcDbLine
 10
81.61105031467173
 20
116.0472975105172
 30
0.0
 11
82.17945331467172
 21
123.2695535105172
 31
0.0
  0
ARC
  5
4A42
330
1A
100
AcDbEntity
  8
SEIHIN
  6
Continuous
 62
     3
100
AcDbCircle
 10
83.60488531467172
 20
115.8903795105172
 30
0.0
 40
0.9999998298924711
100
AcDbArc
 50
175.5000039676388
 51
270.0
  0
ARC
  5
4A43
330
1A
100
AcDbEntity
  8
SEIHIN
  6
Continuous
 62
     3
100
AcDbCircle
 10
83.60488531467172
 20
115.8903795105172
 30
0.0
 40
2.000000158243612
100
AcDbArc
 50
175.5000039676388
 51
269.999997752317
  0
LINE
  5
4A44
330
1A
100
AcDbEntity
  8
SEIHIN
  6
Continuous
 62
     3
100
AcDbLine
 10
83.60488531467172
 20
114.8903795105172
 30
0.0
 11
84.56806831467156
 21
114.8903795105172
 31
0.0
  0
LINE
  5
4A45
330
1A
100
AcDbEntity
  8
SEIHIN
  6
Continuous
 62
     3
100
AcDbLine
 10
83.17637131467154
 20
123.1910945105173
 30
0.0
 11
82.17945331467172
 21
123.2695535105172
 31
0.0
  0
LINE
  5
4A46
330
1A
100
AcDbEntity
  8
SEIHIN
  6
Continuous
 62
     3
100
AcDbLine
 10
189.6259023146715
 20
116.4383785105172
 30
0.0
 11
147.5958473146716
 21
110.7070075105172
 31
0.0
  0
LINE
  5
4A47
330
1A
100
AcDbEntity
  8
SEIHIN
  6
Continuous
 62
     3
100
AcDbLine
 10
188.8659703146716
 20
119.3625165105172
 30
0.0
 11
147.8036403146716
 21
113.7631075105172
 31
0.0
  0
LINE
  5
4A48
330
1A
100
AcDbEntity
  8
SEIHIN
  6
Continuous
 62
     3
100
AcDbLine
 10
188.2326943146716
 20
121.7992965105172
 30
0.0
 11
147.4658573146717
 21
116.2401825105172
 31
0.0
  0
LINE
  5
4A49
330
1A
100
AcDbEntity
  8
SEIHIN
  6
Continuous
 62
     3
100
AcDbLine
 10
124.3205353146716
 20
87.75878551051721
 30
0.0
 11
161.4230623146716
 21
87.75878551051721
 31
0.0
  0
LINE
  5
4A4A
330
1A
100
AcDbEntity
  8
SEIHIN
  6
Continuous
 62
     3
100
AcDbLine
 10
124.3205523146717
 20
92.75878551051721
 30
0.0
 11
161.4230623146716
 21
92.75878551051721
 31
0.0
  0
LINE
  5
4A4B
330
1A
100
AcDbEntity
  8
SEIHIN
  6
Continuous
 62
     3
100
AcDbLine
 10
122.6237983146716
 20
105.1054725105173
 30
0.0
 11
107.0625163146717
 21
105.1054515105172
 31
0.0
  0
LINE
  5
4A4C
330
1A
100
AcDbEntity
  8
SEIHIN
  6
Continuous
 62
     3
100
AcDbLine
 10
106.8204523146717
 20
93.75886851051723
 30
0.0
 11
124.3205273146716
 21
93.75886851051723
 31
0.0
  0
LINE
  5
4A4D
330
1A
100
AcDbEntity
  8
SEIHIN
  6
Continuous
 62
     3
100
AcDbLine
 10
101.3205273146716
 20
85.75886851051723
 30
0.0
 11
124.3205273146716
 21
85.75886851051723
 31
0.0
  0
ARC
  5
4A4E
330
1A
100
AcDbEntity
  8
SEIHIN
  6
Continuous
 62
     3
100
AcDbCircle
 10
112.8205793146717
 20
89.03395751051721
 30
0.0
 40
15.72491078112709
100
AcDbArc
 50
43.00252833503259
 51
136.9974830730986
  0
LINE
  5
4A4F
330
1A
100
AcDbEntity
  8
SEIHIN
  6
Continuous
 62
     3
100
AcDbLine
 10
89.55841131467173
 20
113.0290245105172
 30
0.0
 11
92.37265731467164
 21
92.92691251051724
 31
0.0
  0
LINE
  5
4A50
330
1A
100
AcDbEntity
  8
SEIHIN
  6
Continuous
 62
     3
100
AcDbLine
 10
107.0625233146716
 20
104.1054675105172
 30
0.0
 11
107.0625163146717
 21
105.1054515105172
 31
0.0
  0
LINE
  5
4A51
330
1A
100
AcDbEntity
  8
SEIHIN
  6
Continuous
 62
     3
100
AcDbLine
 10
94.70834931467152
 20
112.3063155105172
 30
0.0
 11
97.32436731467169
 21
93.62013951051722
 31
0.0
  0
LINE
  5
4A52
330
1A
100
AcDbEntity
  8
SEIHIN
  6
Continuous
 62
     3
100
AcDbLine
 10
101.3205273146716
 20
93.75886851051723
 30
0.0
 11
103.3204523146717
 21
93.75886851051723
 31
0.0
  0
ARC
  5
4A53
330
1A
100
AcDbEntity
  8
SEIHIN
  6
Continuous
 62
     3
100
AcDbCircle
 10
98.31470931467152
 20
93.75878551051721
 30
0.0
 40
0.9999999282472448
100
AcDbArc
 50
187.9694469761786
 51
270.0
  0
LINE
  5
4A54
330
1A
100
AcDbEntity
  8
SEIHIN
  6
Continuous
 62
     3
100
AcDbLine
 10
101.3205273146716
 20
85.75886851051723
 30
0.0
 11
101.3205773146717
 21
99.75882551051723
 31
0.0
  0
ARC
  5
4A55
330
1A
100
AcDbEntity
  8
SEIHIN
  6
Continuous
 62
     3
100
AcDbCircle
 10
98.31470931467152
 20
93.75878551051721
 30
0.0
 40
5.999999777451366
100
AcDbArc
 50
187.9694469761786
 51
269.9999716287842
  0
LINE
  5
4A56
330
1A
100
AcDbEntity
  8
SEIHIN
  6
Continuous
 62
     3
100
AcDbLine
 10
98.31470931467152
 20
92.75878551051721
 30
0.0
 11
101.3205523146717
 21
92.75878551051721
 31
0.0
  0
LINE
  5
4A57
330
1A
100
AcDbEntity
  8
SEIHIN
  6
Continuous
 62
     3
100
AcDbLine
 10
98.31470931467152
 20
87.75878551051721
 30
0.0
 11
101.3205353146716
 21
87.75878551051721
 31
0.0
  0
LINE
  5
4A58
330
1A
100
AcDbEntity
  8
SEIHIN
  6
Continuous
 62
     3
100
AcDbLine
 10
103.3204773146717
 20
98.55882451051724
 30
0.0
 11
103.3204773146717
 21
91.05882451051724
 31
0.0
  0
LINE
  5
4A59
330
1A
100
AcDbEntity
  8
SEIHIN
  6
Continuous
 62
     3
100
AcDbLine
 10
106.8204773146717
 20
98.55882751051723
 30
0.0
 11
106.8204773146717
 21
91.05882751051723
 31
0.0
  0
LINE
  5
4A5A
330
1A
100
AcDbEntity
  8
SEIHIN
  6
Continuous
 62
     3
100
AcDbLine
 10
106.5704773146717
 20
98.2587925105172
 30
0.0
 11
106.5704773146717
 21
91.05882751051723
 31
0.0
  0
LINE
  5
4A5B
330
1A
100
AcDbEntity
  8
SEIHIN
  6
Continuous
 62
     3
100
AcDbLine
 10
103.5704773146717
 20
91.05882751051723
 30
0.0
 11
103.5704773146717
 21
98.2587925105172
 31
0.0
  0
LINE
  5
4A5C
330
1A
100
AcDbEntity
  8
SEIHIN
  6
Continuous
 62
     3
100
AcDbLine
 10
103.3204773146717
 20
91.05882451051724
 30
0.0
 11
106.8204773146717
 21
91.05882751051723
 31
0.0
  0
CIRCLE
  5
4A5D
330
1A
100
AcDbEntity
  8
SEIHIN
  6
Continuous
 62
     3
100
AcDbCircle
 10
112.8205973146717
 20
99.75882751051722
 30
0.0
 40
2.15
  0
LINE
  5
4A5E
330
1A
100
AcDbEntity
  8
SEIHIN
  6
Continuous
 62
     3
100
AcDbLine
 10
103.3204773146717
 20
98.55882451051724
 30
0.0
 11
106.8204773146717
 21
98.55882751051723
 31
0.0
  0
LINE
  5
4A5F
330
1A
100
AcDbEntity
  8
SEIHIN
  6
Continuous
 62
     3
100
AcDbLine
 10
106.5704773146717
 20
98.2587925105172
 30
0.0
 11
103.5704773146717
 21
98.2587925105172
 31
0.0
  0
LINE
  5
4A60
330
1A
100
AcDbEntity
  8
SEIHIN
  6
Continuous
 62
     3
100
AcDbLine
 10
108.0405493146716
 20
104.1054685105172
 30
0.0
 11
107.0625233146716
 21
104.1054675105172
 31
0.0
  0
ARC
  5
4A61
330
1A
100
AcDbEntity
  8
SEIHIN
  6
Continuous
 62
     3
100
AcDbCircle
 10
91.7373223146717
 20
111.8903795105172
 30
0.0
 40
2.999999854064327
100
AcDbArc
 50
7.96944697617947
 51
89.99998108585706
  0
ARC
  5
4A62
330
1A
100
AcDbEntity
  8
SEIHIN
  6
Continuous
 62
     3
100
AcDbCircle
 10
88.56806831467156
 20
112.8903795105172
 30
0.0
 40
0.9999999282472448
100
AcDbArc
 50
7.969446976178607
 51
90.0
  0
LINE
  5
4A63
330
1A
100
AcDbEntity
  8
SEIHIN
  6
Continuous
 62
     3
100
AcDbLine
 10
86.86086131467164
 20
114.8903795105172
 30
0.0
 11
86.86086131467164
 21
113.8903795105172
 31
0.0
  0
LINE
  5
4A64
330
1A
100
AcDbEntity
  8
SEIHIN
  6
Continuous
 62
     3
100
AcDbLine
 10
88.56806831467156
 20
114.8903795105172
 30
0.0
 11
88.56806831467156
 21
113.8903795105172
 31
0.0
  0
LINE
  5
4A65
330
1A
100
AcDbEntity
  8
SEIHIN
  6
Continuous
 62
     3
100
AcDbLine
 10
88.72993731467159
 20
113.8903795105172
 30
0.0
 11
88.73182731467159
 21
113.8768795105172
 31
0.0
  0
LINE
  5
4A66
330
1A
100
AcDbEntity
  8
SEIHIN
  6
Continuous
 62
     3
100
AcDbLine
 10
144.4239963146717
 20
124.3608305105173
 30
0.0
 11
136.3197483146716
 21
101.3987955105172
 31
0.0
  0
LINE
  5
4A67
330
1A
100
AcDbEntity
  8
SEIHIN
  6
Continuous
 62
     3
100
AcDbLine
 10
141.1995133146716
 20
116.7271095105172
 30
0.0
 11
135.8482533146716
 21
101.5652055105172
 31
0.0
  0
LINE
  5
4A68
330
1A
100
AcDbEntity
  8
SEIHIN
  6
Continuous
 62
     3
100
AcDbLine
 10
141.4067783146716
 20
111.3051075105173
 30
0.0
 11
134.8610173146717
 21
92.75878551051721
 31
0.0
  0
LINE
  5
4A69
330
1A
100
AcDbEntity
  8
SEIHIN
  6
Continuous
 62
     3
100
AcDbLine
 10
146.7878043146716
 20
110.0485275105172
 30
0.0
 11
140.6952283146716
 21
92.75878551051721
 31
0.0
  0
LINE
  5
4A6A
330
1A
100
AcDbEntity
  8
SEIHIN
  6
Continuous
 62
     3
100
AcDbLine
 10
145.3669873146716
 20
124.0280105105172
 30
0.0
 11
137.2059403146716
 21
100.9050455105172
 31
0.0
  0
LINE
  5
4A6B
330
1A
100
AcDbEntity
  8
SEIHIN
  6
Continuous
 62
     3
100
AcDbLine
 10
143.7642543146717
 20
110.4730575105172
 30
0.0
 11
137.5121583146715
 21
92.75878551051721
 31
0.0
  0
LINE
  5
4A6C
330
1A
100
AcDbEntity
  8
SEIHIN
  6
Continuous
 62
     3
100
AcDbLine
 10
133.1402643146716
 20
100.4585055105172
 30
0.0
 11
123.4612913146716
 21
104.9216805105172
 31
0.0
  0
ARC
  5
4A6D
330
1A
100
AcDbEntity
  8
SEIHIN
  6
Continuous
 62
     3
100
AcDbCircle
 10
133.9777553146716
 20
102.2747125105173
 30
0.0
 40
2.00000009820312
100
AcDbArc
 50
245.2446238788496
 51
340.5599821720813
  0
ARC
  5
4A6E
330
1A
100
AcDbEntity
  8
SEIHIN
  6
Continuous
 62
     3
100
AcDbCircle
 10
134.4337683146716
 20
102.0644355105172
 30
0.0
 40
2.00000009820312
100
AcDbArc
 50
245.2446238788496
 51
340.5599821720813
  0
ARC
  5
4A6F
330
1A
100
AcDbEntity
  8
SEIHIN
  6
Continuous
 62
     3
100
AcDbCircle
 10
134.3769693146717
 20
101.9035055105172
 30
0.0
 40
2.999999940870082
100
AcDbArc
 50
269.9999883784511
 51
340.5599599066717
  0
LINE
  5
4A70
330
1A
100
AcDbEntity
  8
SEIHIN
  6
Continuous
 62
     3
100
AcDbLine
 10
124.3205273146716
 20
85.75886851051723
 30
0.0
 11
124.3205773146717
 21
99.75882751051722
 31
0.0
  0
LINE
  5
4A71
330
1A
100
AcDbEntity
  8
SEIHIN
  6
Continuous
 62
     3
100
AcDbLine
 10
134.3769683146716
 20
98.90350551051722
 30
0.0
 11
124.2939633146716
 21
98.90350751051722
 31
0.0
  0
ARC
  5
4A72
330
1A
100
AcDbEntity
  8
SEIHIN
  6
Continuous
 62
     3
100
AcDbCircle
 10
122.6238013146717
 20
103.1054725105173
 30
0.0
 40
1.999999844935613
100
AcDbArc
 50
65.24462387884964
 51
90.00010203811519
  0
ARC
  5
4A73
330
1A
100
AcDbEntity
  8
SEIHIN
  6
Continuous
 62
     3
100
AcDbCircle
 10
148.4792063146717
 20
108.8089565105172
 30
0.0
 40
7.500000197431461
100
AcDbArc
 50
97.76515569653493
 51
160.5599559187035
  0
ARC
  5
4A74
330
1A
100
AcDbEntity
  8
SEIHIN
  6
Continuous
 62
     3
100
AcDbCircle
 10
148.4792063146717
 20
108.8089565105172
 30
0.0
 40
4.999999758966238
100
AcDbArc
 50
97.76515569653493
 51
160.559955823277
  0
ARC
  5
4A75
330
1A
100
AcDbEntity
  8
SEIHIN
  6
Continuous
 62
     3
100
AcDbCircle
 10
147.7309603146716
 20
109.7161775105172
 30
0.0
 40
1.000000089458492
100
AcDbArc
 50
97.76515569653742
 51
160.5885380977539
  0
ARC
  5
4A76
330
1A
100
AcDbEntity
  8
SEIHIN
  6
Continuous
 62
     3
100
AcDbCircle
 10
141.6710093146717
 20
116.5606995105172
 30
0.0
 40
0.5
100
AcDbArc
 50
70.55996517181939
 51
160.5599651718254
  0
LINE
  5
4A77
330
1A
100
AcDbEntity
  8
SEIHIN
  6
Continuous
 62
     3
100
AcDbLine
 10
145.3669873146716
 20
124.0280105105172
 30
0.0
 11
144.4239963146717
 21
124.3608305105173
 31
0.0
  0
LINE
  5
4A78
330
1A
100
AcDbEntity
  8
SEIHIN
  6
Continuous
 62
     3
100
AcDbLine
 10
196.2901713146716
 20
88.85695151051721
 30
0.0
 11
196.2901713146716
 21
75.38782851051724
 31
0.0
  0
LINE
  5
4A79
330
1A
100
AcDbEntity
  8
SEIHIN
  6
Continuous
 62
     3
100
AcDbLine
 10
198.2901713146716
 20
75.38782851051724
 30
0.0
 11
198.2901713146716
 21
88.85695151051721
 31
0.0
  0
LINE
  5
4A7A
330
1A
100
AcDbEntity
  8
SEIHIN
  6
Continuous
 62
     3
100
AcDbLine
 10
196.2901713146716
 20
88.85695151051721
 30
0.0
 11
196.2901713146716
 21
70.38782851051724
 31
0.0
  0
LINE
  5
4A7B
330
1A
100
AcDbEntity
  8
SEIHIN
  6
Continuous
 62
     3
100
AcDbLine
 10
198.2901713146716
 20
70.38782851051724
 30
0.0
 11
198.2901713146716
 21
88.85695151051721
 31
0.0
  0
LINE
  5
4A7C
330
1A
100
AcDbEntity
  8
SEIHIN
  6
Continuous
 62
     3
100
AcDbLine
 10
198.2901713146716
 20
70.38782851051724
 30
0.0
 11
196.2901713146716
 21
70.38782851051724
 31
0.0
  0
ARC
  5
4A7D
330
1A
100
AcDbEntity
  8
SEIHIN
  6
Continuous
 62
     3
100
AcDbCircle
 10
185.7525863146716
 20
106.7140115105172
 30
0.0
 40
2.000000049508499
100
AcDbArc
 50
98.06364279830783
 51
160.5884852657151
  0
LINE
  5
4A7E
330
1A
100
AcDbEntity
  8
SEIHIN
  6
Continuous
 62
     3
100
AcDbLine
 10
198.3919783146716
 20
112.5446295105172
 30
0.0
 11
185.1914933146716
 21
110.6744625105172
 31
0.0
  0
LINE
  5
4A7F
330
1A
100
AcDbEntity
  8
SEIHIN
  6
Continuous
 62
     3
100
AcDbLine
 10
174.9851923146716
 20
86.25878551051721
 30
0.0
 11
191.1741613146717
 21
86.25878551051721
 31
0.0
  0
LINE
  5
4A80
330
1A
100
AcDbEntity
  8
SEIHIN
  6
Continuous
 62
     3
100
AcDbLine
 10
174.9851923146716
 20
86.65878551051719
 30
0.0
 11
190.0773853146716
 21
86.65878551051719
 31
0.0
  0
LINE
  5
4A81
330
1A
100
AcDbEntity
  8
SEIHIN
  6
Continuous
 62
     3
100
AcDbLine
 10
181.9799623146716
 20
108.0434125105172
 30
0.0
 11
175.3844563146715
 21
89.32643551051723
 31
0.0
  0
LINE
  5
4A82
330
1A
100
AcDbEntity
  8
SEIHIN
  6
Continuous
 62
     3
100
AcDbLine
 10
183.8662743146717
 20
107.3787115105172
 30
0.0
 11
177.2707683146716
 21
88.66173451051719
 31
0.0
  0
LINE
  5
4A83
330
1A
100
AcDbEntity
  8
SEIHIN
  6
Continuous
 62
     3
100
AcDbLine
 10
166.4143363146716
 20
90.25878551051721
 30
0.0
 11
170.9851923146716
 21
90.25878551051721
 31
0.0
  0
LINE
  5
4A84
330
1A
100
AcDbEntity
  8
SEIHIN
  6
Continuous
 62
     3
100
AcDbLine
 10
165.1471623146717
 20
85.25878551051721
 30
0.0
 11
174.9851923146716
 21
85.25878551051721
 31
0.0
  0
LINE
  5
4A85
330
1A
100
AcDbEntity
  8
SEIHIN
  6
Continuous
 62
     3
100
AcDbLine
 10
167.5976713146715
 20
84.25878551051721
 30
0.0
 11
172.5976713146715
 21
84.25878551051721
 31
0.0
  0
LINE
  5
4A86
330
1A
100
AcDbEntity
  8
SEIHIN
  6
Continuous
 62
     3
100
AcDbLine
 10
161.7431543146715
 20
87.64289651051723
 30
0.0
 11
164.1868853146716
 21
85.60645351051721
 31
0.0
  0
ARC
  5
4A87
330
1A
100
AcDbEntity
  8
SEIHIN
  6
Continuous
 62
     3
100
AcDbCircle
 10
165.1471623146717
 20
86.75878551051721
 30
0.0
 40
1.500000159158816
100
AcDbArc
 50
230.1944362437104
 51
270.0000171172698
  0
LINE
  5
4A88
330
1A
100
AcDbEntity
  8
SEIHIN
  6
Continuous
 62
     3
100
AcDbLine
 10
167.0976713146715
 20
85.25878551051721
 30
0.0
 11
167.0976713146715
 21
84.75878551051721
 31
0.0
  0
ARC
  5
4A89
330
1A
100
AcDbEntity
  8
SEIHIN
  6
Continuous
 62
     3
100
AcDbCircle
 10
167.5976713146715
 20
84.75878551051721
 30
0.0
 40
0.5
100
AcDbArc
 50
180.0000000235017
 51
270.0000000235017
  0
ARC
  5
4A8A
330
1A
100
AcDbEntity
  8
SEIHIN
  6
Continuous
 62
     3
100
AcDbCircle
 10
161.4230623146716
 20
87.25878551051721
 30
0.0
 40
5.499999922058408
100
AcDbArc
 50
50.19443624371149
 51
90.00000600216328
  0
ARC
  5
4A8B
330
1A
100
AcDbEntity
  8
SEIHIN
  6
Continuous
 62
     3
100
AcDbCircle
 10
161.4230623146716
 20
87.25878551051721
 30
0.0
 40
0.500000074392489
100
AcDbArc
 50
50.19443624371842
 51
89.99996332013924
  0
LINE
  5
4A8C
330
1A
100
AcDbEntity
  8
SEIHIN
  6
Continuous
 62
     3
100
AcDbLine
 10
164.9440763146715
 20
91.4840025105172
 30
0.0
 11
166.4143363146716
 21
90.25878551051721
 31
0.0
  0
LINE
  5
4A8D
330
1A
100
AcDbEntity
  8
SEIHIN
  6
Continuous
 62
     3
100
AcDbLine
 10
178.0198653146717
 20
85.25878551051721
 30
0.0
 11
174.9851923146716
 21
85.25878551051721
 31
0.0
  0
ARC
  5
4A8E
330
1A
100
AcDbEntity
  8
SEIHIN
  6
Continuous
 62
     3
100
AcDbCircle
 10
174.4413003146717
 20
89.65878551051719
 30
0.0
 40
3.00000013857666
100
AcDbArc
 50
279.9629866944945
 51
340.5885311066115
  0
ARC
  5
4A8F
330
1A
100
AcDbEntity
  8
SEIHIN
  6
Continuous
 62
     3
100
AcDbCircle
 10
170.9851923146716
 20
86.25878551051721
 30
0.0
 40
4.0
100
AcDbArc
 50
0.0
 51
90.0
  0
ARC
  5
4A90
330
1A
100
AcDbEntity
  8
SEIHIN
  6
Continuous
 62
     3
100
AcDbCircle
 10
172.5976713146715
 20
84.75878551051721
 30
0.0
 40
0.5
100
AcDbArc
 50
270.0000000352525
 51
0.0000000352525556
  0
LINE
  5
4A91
330
1A
100
AcDbEntity
  8
SEIHIN
  6
Continuous
 62
     3
100
AcDbLine
 10
173.0976713146715
 20
85.25878551051721
 30
0.0
 11
173.0976713146715
 21
84.75878551051721
 31
0.0
  0
LINE
  5
4A92
330
1A
100
AcDbEntity
  8
SEIHIN
  6
Continuous
 62
     3
100
AcDbLine
 10
174.9851923146716
 20
86.25878551051721
 30
0.0
 11
174.9851923146716
 21
85.25878551051721
 31
0.0
  0
ARC
  5
4A93
330
1A
100
AcDbEntity
  8
SEIHIN
  6
Continuous
 62
     3
100
AcDbCircle
 10
174.4413003146717
 20
89.65878551051719
 30
0.0
 40
0.9999999407089966
100
AcDbArc
 50
270.0000000354349
 51
340.5885244991819
  0
LINE
  5
4A94
330
1A
100
AcDbEntity
  8
SEIHIN
  6
Continuous
 62
     3
100
AcDbLine
 10
174.4413003146717
 20
88.65878551051719
 30
0.0
 11
174.1851923146717
 21
88.65878551051719
 31
0.0
  0
LINE
  5
4A95
330
1A
100
AcDbEntity
  8
SEIHIN
  6
Continuous
 62
     3
100
AcDbLine
 10
178.0198653146717
 20
86.25878551051721
 30
0.0
 11
178.0198653146717
 21
85.25878551051721
 31
0.0
  0
ARC
  5
4A96
330
1A
100
AcDbEntity
  8
SEIHIN
  6
Continuous
 62
     3
100
AcDbCircle
 10
185.7525863146716
 20
106.7140115105172
 30
0.0
 40
3.999999868335058
100
AcDbArc
 50
98.06364279830783
 51
160.5884979740769
  0
LINE
  5
4A97
330
1A
100
AcDbEntity
  8
SEIHIN
  6
Continuous
 62
     3
100
AcDbLine
 10
206.3704773146717
 20
105.3952485105172
 30
0.0
 11
205.9486813146716
 21
91.89453851051724
 31
0.0
  0
LINE
  5
4A98
330
1A
100
AcDbEntity
  8
SEIHIN
  6
Continuous
 62
     3
100
AcDbLine
 10
204.3714533146717
 20
105.4577035105172
 30
0.0
 11
203.9496573146716
 21
91.95699351051724
 31
0.0
  0
LINE
  5
4A99
330
1A
100
AcDbEntity
  8
SEIHIN
  6
Continuous
 62
     3
100
AcDbLine
 10
203.2102893146716
 20
89.4841165105172
 30
0.0
 11
196.0984813146715
 21
90.16889751051724
 31
0.0
  0
LINE
  5
4A9A
330
1A
100
AcDbEntity
  8
SEIHIN
  6
Continuous
 62
     3
100
AcDbLine
 10
203.4019783146716
 20
91.4749085105172
 30
0.0
 11
196.2901713146716
 21
92.15968951051724
 31
0.0
  0
ARC
  5
4A9B
330
1A
100
AcDbEntity
  8
SEIHIN
  6
Continuous
 62
     3
100
AcDbCircle
 10
191.1741613146717
 20
87.65878551051719
 30
0.0
 40
1.4
100
AcDbArc
 50
270.0000000882617
 51
0.0000000882616646
  0
ARC
  5
4A9C
330
1A
100
AcDbEntity
  8
SEIHIN
  6
Continuous
 62
     3
100
AcDbCircle
 10
189.3458623146717
 20
87.65878551051719
 30
0.0
 40
1.219504113536517
100
AcDbArc
 50
333.4919866321936
 51
0.0000129482833926
  0
ARC
  5
4A9D
330
1A
100
AcDbEntity
  8
SEIHIN
  6
Continuous
 62
     3
100
AcDbCircle
 10
189.1649663146716
 20
87.74900851051723
 30
0.0
 40
1.421652073219744
100
AcDbArc
 50
309.926299230051
 51
333.4919521171932
  0
LINE
  5
4A9E
330
1A
100
AcDbEntity
  8
SEIHIN
  6
Continuous
 62
     3
100
AcDbLine
 10
190.9952943146716
 20
91.25878551051721
 30
0.0
 11
192.5741613146715
 21
91.25878551051721
 31
0.0
  0
ARC
  5
4A9F
330
1A
100
AcDbEntity
  8
SEIHIN
  6
Continuous
 62
     3
100
AcDbCircle
 10
191.9226823146717
 20
90.4587855105172
 30
0.0
 40
1.35731498873364
100
AcDbArc
 50
152.0077035626141
 51
179.9999691711857
  0
ARC
  5
4AA0
330
1A
100
AcDbEntity
  8
SEIHIN
  6
Continuous
 62
     3
100
AcDbCircle
 10
190.9952953146717
 20
90.95172551051724
 30
0.0
 40
0.3070597682291614
100
AcDbArc
 50
90.00000001175208
 51
152.0077599357387
  0
LINE
  5
4AA1
330
1A
100
AcDbEntity
  8
SEIHIN
  6
Continuous
 62
     3
100
AcDbLine
 10
192.5741613146715
 20
91.25878551051721
 30
0.0
 11
192.5741613146715
 21
87.65878551051719
 31
0.0
  0
LINE
  5
4AA2
330
1A
100
AcDbEntity
  8
SEIHIN
  6
Continuous
 62
     3
100
AcDbLine
 10
190.5653663146716
 20
87.65878551051719
 30
0.0
 11
190.5653663146716
 21
90.4587855105172
 31
0.0
  0
LINE
  5
4AA3
330
1A
100
AcDbEntity
  8
SEIHIN
  6
Continuous
 62
     3
100
AcDbLine
 10
196.0984813146715
 20
90.16889751051724
 30
0.0
 11
196.2901713146716
 21
92.15968951051724
 31
0.0
  0
ARC
  5
4AA4
330
1A
100
AcDbEntity
  8
SEIHIN
  6
Continuous
 62
     3
100
AcDbCircle
 10
199.2901713146716
 20
88.85695151051721
 30
0.0
 40
2.99999990174308
100
AcDbArc
 50
155.0288311702728
 51
179.9999919372969
  0
ARC
  5
4AA5
330
1A
100
AcDbEntity
  8
SEIHIN
  6
Continuous
 62
     3
100
AcDbCircle
 10
199.2901713146716
 20
88.85695151051721
 30
0.0
 40
2.99999990174308
100
AcDbArc
 50
155.0288311702728
 51
179.9999919372969
  0
ARC
  5
4AA6
330
1A
100
AcDbEntity
  8
SEIHIN
  6
Continuous
 62
     3
100
AcDbCircle
 10
199.2901713146716
 20
88.85695151051721
 30
0.0
 40
0.9999998652102318
100
AcDbArc
 50
84.50004182839781
 51
180.0
  0
ARC
  5
4AA7
330
1A
100
AcDbEntity
  8
SEIHIN
  6
Continuous
 62
     3
100
AcDbCircle
 10
199.2901713146716
 20
88.85695151051721
 30
0.0
 40
0.9999998652102318
100
AcDbArc
 50
84.50004182839781
 51
180.0
  0
ARC
  5
4AA8
330
1A
100
AcDbEntity
  8
SEIHIN
  6
Continuous
 62
     3
100
AcDbCircle
 10
203.4499013146717
 20
91.97260651051721
 30
0.0
 40
2.500000216739581
100
AcDbArc
 50
264.5000418284002
 51
358.2104961264325
  0
ARC
  5
4AA9
330
1A
100
AcDbEntity
  8
SEIHIN
  6
Continuous
 62
     3
100
AcDbCircle
 10
203.4499013146717
 20
91.97260651051721
 30
0.0
 40
0.5000000368764973
100
AcDbArc
 50
264.5000418284109
 51
358.210473256162
  0
ARC
  5
4AAA
330
1A
100
AcDbEntity
  8
SEIHIN
  6
Continuous
 62
     3
100
AcDbCircle
 10
199.3738913146717
 20
105.6138395105172
 30
0.0
 40
4.99999999040965
100
AcDbArc
 50
358.2105332175277
 51
98.06367557684359
  0
LINE
  5
4AAB
330
1A
100
AcDbEntity
  8
SEIHIN
  6
Continuous
 62
     3
100
AcDbLine
 10
207.2952043146715
 20
123.3524535105172
 30
0.0
 11
189.6259023146715
 21
116.4383785105172
 31
0.0
  0
LINE
  5
4AAC
330
1A
100
AcDbEntity
  8
SEIHIN
  6
Continuous
 62
     3
100
AcDbLine
 10
188.8659703146716
 20
119.3625165105172
 30
0.0
 11
206.2020063146717
 21
126.1461825105172
 31
0.0
  0
ARC
  5
4AAD
330
1A
100
AcDbEntity
  8
SEIHIN
  6
Continuous
 62
     3
100
AcDbCircle
 10
199.3738913146717
 20
105.6138395105172
 30
0.0
 40
6.999999905160892
100
AcDbArc
 50
358.2105332175277
 51
98.06367746985326
  0
LINE
  5
4AAE
330
1A
100
AcDbEntity
  8
SEIHIN
  6
Continuous
 62
     3
100
AcDbLine
 10
185.4720403146716
 20
108.6942375105172
 30
0.0
 11
198.6725243146716
 21
110.5644035105172
 31
0.0
  0
LINE
  5
4AAF
330
1A
100
AcDbEntity
  8
SEIHIN
  6
Continuous
 62
     3
100
AcDbLine
 10
209.7368253146717
 20
122.5225565105172
 30
0.0
 11
210.5427633146717
 21
121.1856945105172
 31
0.0
  0
ARC
  5
4AB0
330
1A
100
AcDbEntity
  8
SEIHIN
  6
Continuous
 62
     3
100
AcDbCircle
 10
208.0240033146715
 20
121.4899685105172
 30
0.0
 40
5.000000104512848
100
AcDbArc
 50
31.08396961908544
 51
111.3706110383726
  0
ARC
  5
4AB1
330
1A
100
AcDbEntity
  8
SEIHIN
  6
Continuous
 62
     3
100
AcDbCircle
 10
208.0240033146715
 20
121.4899685105172
 30
0.0
 40
1.99999989528812
100
AcDbArc
 50
31.08399920054795
 51
111.3706217441361
  0
LINE
  5
4AB2
330
1A
100
AcDbEntity
  8
SEIHIN
  6
Continuous
 62
     3
100
AcDbLine
 10
209.9432753146716
 20
120.8242885105172
 30
0.0
 11
214.8248203146716
 21
123.7671655105172
 31
0.0
  0
LINE
  5
4AB3
330
1A
100
AcDbEntity
  8
SEIHIN
  6
Continuous
 62
     3
100
AcDbLine
 10
213.7569803146716
 20
125.5384615105172
 30
0.0
 11
214.8248203146716
 21
123.7671655105172
 31
0.0
  0
LINE
  5
4AB4
330
1A
100
AcDbEntity
  8
SEIHIN
  6
Continuous
 62
     3
100
AcDbLine
 10
212.3060603146716
 20
124.0714375105172
 30
0.0
 11
213.1119973146717
 21
122.7345765105172
 31
0.0
  0
LINE
  5
4AB5
330
1A
100
AcDbEntity
  8
SEIHIN
  6
Continuous
 62
     3
100
AcDbLine
 10
82.17945331467172
 20
213.7868565105172
 30
0.0
 11
88.65325631467158
 21
213.7868565105172
 31
0.0
  0
LINE
  5
4AB6
330
1A
100
AcDbEntity
  8
SEIHIN
  6
Continuous
 62
     3
100
AcDbLine
 10
82.17945331467172
 20
197.2868565105172
 30
0.0
 11
88.65325631467158
 21
197.2868565105172
 31
0.0
  0
DIMENSION
  5
4AB7
330
1A
100
AcDbEntity
  8
SUNPOU
  6
Continuous
100
AcDbDimension
  2
*D7
 10
58.528951082817
 20
197.2868565105173
 30
0.0
 11
56.02895108281697
 21
205.5368565105173
 31
0.0
 70
    32
 71
     5
 42
16.5
  3
STANDARD
100
AcDbAlignedDimension
 13
82.17945331467172
 23
213.7868565105172
 33
0.0
 14
82.17945331467172
 24
197.2868565105172
 34
0.0
 50
90.0
100
AcDbRotatedDimension
1001
ACAD
1000
DSTYLE
1002
{
1070
   140
1040
3.0
1070
    74
1070
     0
1070
   172
1070
     1
1070
    73
1070
     0
1070
   272
1070
     0
1070
    77
1070
     3
1070
   173
1070
     1
1070
   147
1040
1.0
1070
    42
1040
3.0
1070
    44
1040
1.5
1070
    43
1040
7.0
1070
   271
1070
     0
1070
   178
1070
   256
1070
   177
1070
   256
1070
   176
1070
   256
1070
   141
1040
3.0
1070
     7
1000
OPEN
1070
     6
1000
OPEN
1070
    41
1040
3.0
1002
}
  0
LINE
  5
4AB8
330
1A
100
AcDbEntity
  8
SEIHIN
  6
Continuous
 62
     3
100
AcDbLine
 10
82.17945331467172
 20
197.2868565105172
 30
0.0
 11
82.17945331467172
 21
213.7868565105172
 31
0.0
  0
LINE
  5
4AB9
330
1A
100
AcDbEntity
  8
SEIHIN
  6
Continuous
 62
     3
100
AcDbLine
 10
83.17945331467172
 20
197.2868565105172
 30
0.0
 11
83.17945331467172
 21
213.7868565105172
 31
0.0
  0
LINE
  5
4ABA
330
1A
100
AcDbEntity
  8
SEIHIN
  6
Continuous
 62
     3
100
AcDbLine
 10
83.17945331467172
 20
200.6208995105172
 30
0.0
 11
84.91150431467167
 21
199.6208995105172
 31
0.0
  0
LINE
  5
4ABB
330
1A
100
AcDbEntity
  8
SEIHIN
  6
Continuous
 62
     3
100
AcDbLine
 10
83.17945331467172
 20
198.6208995105172
 30
0.0
 11
84.91150431467167
 21
199.6208995105172
 31
0.0
  0
LINE
  5
4ABC
330
1A
100
AcDbEntity
  8
SEIHIN
  6
Continuous
 62
     3
100
AcDbLine
 10
83.17945331467172
 20
210.4528125105172
 30
0.0
 11
84.91150431467167
 21
211.4528125105172
 31
0.0
  0
LINE
  5
4ABD
330
1A
100
AcDbEntity
  8
SEIHIN
  6
Continuous
 62
     3
100
AcDbLine
 10
83.17945331467172
 20
212.4528125105172
 30
0.0
 11
84.91150431467167
 21
211.4528125105172
 31
0.0
  0
LINE
  5
4ABE
330
1A
100
AcDbEntity
  8
SEIHIN
  6
Continuous
 62
     3
100
AcDbLine
 10
213.6248203146715
 20
216.0264755105172
 30
0.0
 11
213.6248203146715
 21
228.1992415105172
 31
0.0
  0
LINE
  5
4ABF
330
1A
100
AcDbEntity
  8
SEIHIN
  6
Continuous
 62
     3
100
AcDbLine
 10
214.8248203146716
 20
216.0058395105172
 30
0.0
 11
214.8248203146716
 21
228.1992415105172
 31
0.0
  0
LINE
  5
4AC0
330
1A
100
AcDbEntity
  8
SEIHIN
  6
Continuous
 62
     3
100
AcDbLine
 10
124.3208353146717
 20
215.0368275105172
 30
0.0
 11
174.9855023146715
 21
215.0368275105172
 31
0.0
  0
LINE
  5
4AC1
330
1A
100
AcDbEntity
  8
SEIHIN
  6
Continuous
 62
     3
100
AcDbLine
 10
124.3208353146717
 20
196.0368845105172
 30
0.0
 11
174.9855023146715
 21
196.0370655105172
 31
0.0
  0
LINE
  5
4AC2
330
1A
100
AcDbEntity
  8
SEIHIN
  6
Continuous
 62
     3
100
AcDbLine
 10
124.3208313146715
 20
197.0368845105172
 30
0.0
 11
174.9855023146715
 21
197.0370655105172
 31
0.0
  0
LINE
  5
4AC3
330
1A
100
AcDbEntity
  8
SEIHIN
  6
Continuous
 62
     3
100
AcDbLine
 10
124.3208353146717
 20
214.0368275105172
 30
0.0
 11
174.9855023146715
 21
214.0368275105172
 31
0.0
  0
LINE
  5
4AC4
330
1A
100
AcDbEntity
  8
SEIHIN
  6
Continuous
 62
     3
100
AcDbLine
 10
101.3208373146717
 20
215.6368565105172
 30
0.0
 11
124.3208373146717
 21
215.6368565105172
 31
0.0
  0
LINE
  5
4AC5
330
1A
100
AcDbEntity
  8
SEIHIN
  6
Continuous
 62
     3
100
AcDbLine
 10
101.3208193146716
 20
210.6368565105172
 30
0.0
 11
124.3208193146716
 21
210.6368565105172
 31
0.0
  0
LINE
  5
4AC6
330
1A
100
AcDbEntity
  8
SEIHIN
  6
Continuous
 62
     3
100
AcDbLine
 10
108.0624283146717
 20
210.5368565105172
 30
0.0
 11
124.7996323146717
 21
210.5368565105172
 31
0.0
  0
LINE
  5
4AC7
330
1A
100
AcDbEntity
  8
SEIHIN
  6
Continuous
 62
     3
100
AcDbLine
 10
101.3208213146716
 20
211.1368565105172
 30
0.0
 11
124.3208213146716
 21
211.1368565105172
 31
0.0
  0
LINE
  5
4AC8
330
1A
100
AcDbEntity
  8
SEIHIN
  6
Continuous
 62
     3
100
AcDbLine
 10
101.3208193146716
 20
200.4368565105172
 30
0.0
 11
124.3208193146716
 21
200.4368565105172
 31
0.0
  0
LINE
  5
4AC9
330
1A
100
AcDbEntity
  8
SEIHIN
  6
Continuous
 62
     3
100
AcDbLine
 10
108.0624283146717
 20
200.5368565105172
 30
0.0
 11
124.7996323146717
 21
200.5368565105172
 31
0.0
  0
LINE
  5
4ACA
330
1A
100
AcDbEntity
  8
SEIHIN
  6
Continuous
 62
     3
100
AcDbLine
 10
101.3208213146716
 20
199.9368565105172
 30
0.0
 11
124.3208213146716
 21
199.9368565105172
 31
0.0
  0
LINE
  5
4ACB
330
1A
100
AcDbEntity
  8
SEIHIN
  6
Continuous
 62
     3
100
AcDbLine
 10
101.3208373146717
 20
195.4368565105172
 30
0.0
 11
124.3208373146717
 21
195.4368565105172
 31
0.0
  0
LINE
  5
4ACC
330
1A
100
AcDbEntity
  8
SEIHIN
  6
Continuous
 62
     3
100
AcDbLine
 10
106.8207873146716
 20
199.9368565105172
 30
0.0
 11
106.8207873146716
 21
195.4368565105172
 31
0.0
  0
LINE
  5
4ACD
330
1A
100
AcDbEntity
  8
SEIHIN
  6
Continuous
 62
     3
100
AcDbLine
 10
101.3208193146716
 20
200.4368565105172
 30
0.0
 11
101.3208373146717
 21
195.4368565105172
 31
0.0
  0
LINE
  5
4ACE
330
1A
100
AcDbEntity
  8
SEIHIN
  6
Continuous
 62
     3
100
AcDbLine
 10
103.3207873146716
 20
199.9368565105172
 30
0.0
 11
103.3207873146716
 21
195.4368565105172
 31
0.0
  0
ARC
  5
4ACF
330
1A
100
AcDbEntity
  8
SEIHIN
  6
Continuous
 62
     3
100
AcDbCircle
 10
90.71480931467158
 20
196.6618565105172
 30
0.0
 40
1.624999817959518
100
AcDbArc
 50
31.58817135149911
 51
141.7534063919598
  0
ARC
  5
4AD0
330
1A
100
AcDbEntity
  8
SEIHIN
  6
Continuous
 62
     3
100
AcDbCircle
 10
88.65325631467158
 20
198.2868565105172
 30
0.0
 40
0.9999999402282465
100
AcDbArc
 50
270.0000000234496
 51
321.7533469536269
  0
LINE
  5
4AD1
330
1A
100
AcDbEntity
  8
SEIHIN
  6
Continuous
 62
     3
100
AcDbLine
 10
92.95087731467152
 20
197.0368565105172
 30
0.0
 11
101.3208313146715
 21
197.0368865105172
 31
0.0
  0
LINE
  5
4AD2
330
1A
100
AcDbEntity
  8
SEIHIN
  6
Continuous
 62
     3
100
AcDbLine
 10
93.34442831467163
 20
196.0368565105172
 30
0.0
 11
101.3208353146717
 21
196.0368845105172
 31
0.0
  0
ARC
  5
4AD3
330
1A
100
AcDbEntity
  8
SEIHIN
  6
Continuous
 62
     3
100
AcDbCircle
 10
97.92700331467154
 20
199.0368565105172
 30
0.0
 40
5.999999821933536
100
AcDbArc
 50
196.6795699694838
 51
203.5781945536695
  0
ARC
  5
4AD4
330
1A
100
AcDbEntity
  8
SEIHIN
  6
Continuous
 62
     3
100
AcDbCircle
 10
93.34442831467163
 20
197.0368565105172
 30
0.0
 40
0.999999936306246
100
AcDbArc
 50
203.5781816636463
 51
270.0
  0
ARC
  5
4AD5
330
1A
100
AcDbEntity
  8
SEIHIN
  6
Continuous
 62
     3
100
AcDbCircle
 10
91.22152831467156
 20
197.0277255105172
 30
0.0
 40
1.000000052812247
100
AcDbArc
 50
16.67956996948384
 51
35.83063548330045
  0
LINE
  5
4AD6
330
1A
100
AcDbEntity
  8
SEIHIN
  6
Continuous
 62
     3
100
AcDbLine
 10
92.17945331467172
 20
197.2868565105172
 30
0.0
 11
92.18788331467158
 21
197.2868565105172
 31
0.0
  0
ARC
  5
4AD7
330
1A
100
AcDbEntity
  8
SEIHIN
  6
Continuous
 62
     3
100
AcDbCircle
 10
92.95087731467152
 20
198.0368565105172
 30
0.0
 40
0.9999999458312471
100
AcDbArc
 50
211.5881713514856
 51
269.999999999987
  0
LINE
  5
4AD8
330
1A
100
AcDbEntity
  8
SEIHIN
  6
Continuous
 62
     3
100
AcDbLine
 10
103.3207873146716
 20
195.9368565105172
 30
0.0
 11
106.8207873146716
 21
195.9368565105172
 31
0.0
  0
LINE
  5
4AD9
330
1A
100
AcDbEntity
  8
SEIHIN
  6
Continuous
 62
     3
100
AcDbLine
 10
103.3207873146716
 20
197.0368565105172
 30
0.0
 11
106.8207873146716
 21
197.0368565105172
 31
0.0
  0
ARC
  5
4ADA
330
1A
100
AcDbEntity
  8
SEIHIN
  6
Continuous
 62
     3
100
AcDbCircle
 10
103.1794533146717
 20
207.7868565105172
 30
0.0
 40
1.249999816264373
100
AcDbArc
 50
71.75583951464351
 51
143.1301095532587
  0
ARC
  5
4ADB
330
1A
100
AcDbEntity
  8
SEIHIN
  6
Continuous
 62
     3
100
AcDbCircle
 10
103.1794533146717
 20
203.2868565105172
 30
0.0
 40
1.249999816264373
100
AcDbArc
 50
216.8698976458436
 51
288.2441676844565
  0
LINE
  5
4ADC
330
1A
100
AcDbEntity
  8
SEIHIN
  6
Continuous
 62
     3
100
AcDbLine
 10
94.33870631467153
 20
212.1938365105172
 30
0.0
 11
94.33870631467153
 21
199.3478595105172
 31
0.0
  0
LINE
  5
4ADD
330
1A
100
AcDbEntity
  8
SEIHIN
  6
Continuous
 62
     3
100
AcDbLine
 10
92.11836231467169
 20
199.0368565105172
 30
0.0
 11
92.11836231467169
 21
212.2685745105172
 31
0.0
  0
LINE
  5
4ADE
330
1A
100
AcDbEntity
  8
SEIHIN
  6
Continuous
 62
     3
100
AcDbLine
 10
99.17945331467172
 20
202.5368565105172
 30
0.0
 11
99.17945331467172
 21
208.5368565105172
 31
0.0
  0
LINE
  5
4ADF
330
1A
100
AcDbEntity
  8
SEIHIN
  6
Continuous
 62
     3
100
AcDbLine
 10
101.6794533146717
 20
202.5368565105172
 30
0.0
 11
101.6794533146717
 21
208.5368565105172
 31
0.0
  0
LINE
  5
4AE0
330
1A
100
AcDbEntity
  8
SEIHIN
  6
Continuous
 62
     3
100
AcDbLine
 10
102.1794533146717
 20
202.5368565105172
 30
0.0
 11
102.1794533146717
 21
208.5368565105172
 31
0.0
  0
LINE
  5
4AE1
330
1A
100
AcDbEntity
  8
SEIHIN
  6
Continuous
 62
     3
100
AcDbLine
 10
99.67945331467172
 20
202.5368565105172
 30
0.0
 11
99.67945331467172
 21
208.5368565105172
 31
0.0
  0
LINE
  5
4AE2
330
1A
100
AcDbEntity
  8
SEIHIN
  6
Continuous
 62
     3
100
AcDbLine
 10
97.17945331467172
 20
202.5368565105172
 30
0.0
 11
97.17945331467172
 21
208.5368565105172
 31
0.0
  0
ARC
  5
4AE3
330
1A
100
AcDbEntity
  8
SEIHIN
  6
Continuous
 62
     3
100
AcDbCircle
 10
98.17945331467172
 20
203.2868565105172
 30
0.0
 40
1.25
100
AcDbArc
 50
216.8698976458436
 51
323.1301023541561
  0
ARC
  5
4AE4
330
1A
100
AcDbEntity
  8
SEIHIN
  6
Continuous
 62
     3
100
AcDbCircle
 10
100.6794533146717
 20
203.2868565105172
 30
0.0
 40
1.25
100
AcDbArc
 50
216.8698976458436
 51
323.1301023541561
  0
ARC
  5
4AE5
330
1A
100
AcDbEntity
  8
SEIHIN
  6
Continuous
 62
     3
100
AcDbCircle
 10
98.17945331467172
 20
207.7868565105172
 30
0.0
 40
1.25
100
AcDbArc
 50
36.86989764584362
 51
143.1301023541564
  0
ARC
  5
4AE6
330
1A
100
AcDbEntity
  8
SEIHIN
  6
Continuous
 62
     3
100
AcDbCircle
 10
100.6794533146717
 20
207.7868565105172
 30
0.0
 40
1.25
100
AcDbArc
 50
36.86989764584362
 51
143.1301023541564
  0
LINE
  5
4AE7
330
1A
100
AcDbEntity
  8
SEIHIN
  6
Continuous
 62
     3
100
AcDbLine
 10
93.35670031467157
 20
215.0368565105172
 30
0.0
 11
101.3208353146717
 21
215.0368275105172
 31
0.0
  0
LINE
  5
4AE8
330
1A
100
AcDbEntity
  8
SEIHIN
  6
Continuous
 62
     3
100
AcDbLine
 10
92.95087731467152
 20
214.0368565105172
 30
0.0
 11
101.3208313146715
 21
214.0368565105172
 31
0.0
  0
ARC
  5
4AE9
330
1A
100
AcDbEntity
  8
SEIHIN
  6
Continuous
 62
     3
100
AcDbCircle
 10
93.35670031467157
 20
214.0368565105172
 30
0.0
 40
1.000000256451184
100
AcDbArc
 50
90.0
 51
156.0726603748118
  0
ARC
  5
4AEA
330
1A
100
AcDbEntity
  8
SEIHIN
  6
Continuous
 62
     3
100
AcDbCircle
 10
90.71480931467158
 20
214.4118565105172
 30
0.0
 40
1.624999817959518
100
AcDbArc
 50
218.2466530698185
 51
328.4118881102794
  0
ARC
  5
4AEB
330
1A
100
AcDbEntity
  8
SEIHIN
  6
Continuous
 62
     3
100
AcDbCircle
 10
88.65325631467158
 20
212.7868565105172
 30
0.0
 40
1.000000332904889
100
AcDbArc
 50
38.24661760099893
 51
90.0
  0
LINE
  5
4AEC
330
1A
100
AcDbEntity
  8
SEIHIN
  6
Continuous
 62
     3
100
AcDbLine
 10
92.17945331467172
 20
213.7868565105172
 30
0.0
 11
92.19646131467152
 21
213.7868565105172
 31
0.0
  0
ARC
  5
4AED
330
1A
100
AcDbEntity
  8
SEIHIN
  6
Continuous
 62
     3
100
AcDbCircle
 10
92.95087731467152
 20
213.0368565105172
 30
0.0
 40
0.9999999458312471
100
AcDbArc
 50
90.0
 51
148.4118286484971
  0
ARC
  5
4AEE
330
1A
100
AcDbEntity
  8
SEIHIN
  6
Continuous
 62
     3
100
AcDbCircle
 10
97.92700331467154
 20
212.0089675105172
 30
0.0
 40
5.999999971785416
100
AcDbArc
 50
156.0726603748118
 51
163.3204385656306
  0
ARC
  5
4AEF
330
1A
100
AcDbEntity
  8
SEIHIN
  6
Continuous
 62
     3
100
AcDbCircle
 10
91.22152831467156
 20
214.0459865105172
 30
0.0
 40
1.000000052812247
100
AcDbArc
 50
324.1693788329692
 51
343.3204443467876
  0
LINE
  5
4AF0
330
1A
100
AcDbEntity
  8
SEIHIN
  6
Continuous
 62
     3
100
AcDbLine
 10
101.3208193146716
 20
210.6368565105172
 30
0.0
 11
101.3208373146717
 21
215.6368565105172
 31
0.0
  0
LINE
  5
4AF1
330
1A
100
AcDbEntity
  8
SEIHIN
  6
Continuous
 62
     3
100
AcDbLine
 10
106.5707873146716
 20
210.6368565105172
 30
0.0
 11
106.5707873146716
 21
200.4368565105172
 31
0.0
  0
LINE
  5
4AF2
330
1A
100
AcDbEntity
  8
SEIHIN
  6
Continuous
 62
     3
100
AcDbLine
 10
107.0624283146717
 20
209.5368565105172
 30
0.0
 11
107.0624283146717
 21
201.5368565105172
 31
0.0
  0
LINE
  5
4AF3
330
1A
100
AcDbEntity
  8
SEIHIN
  6
Continuous
 62
     3
100
AcDbLine
 10
103.5707873146716
 20
210.6368565105172
 30
0.0
 11
103.5707873146716
 21
200.4368565105172
 31
0.0
  0
LINE
  5
4AF4
330
1A
100
AcDbEntity
  8
SEIHIN
  6
Continuous
 62
     3
100
AcDbLine
 10
110.3209073146716
 20
199.4368565105172
 30
0.0
 11
115.3209073146716
 21
199.4368565105172
 31
0.0
  0
LINE
  5
4AF5
330
1A
100
AcDbEntity
  8
SEIHIN
  6
Continuous
 62
     3
100
AcDbLine
 10
107.0624283146717
 20
201.5368565105172
 30
0.0
 11
108.0624283146717
 21
201.5368565105172
 31
0.0
  0
LINE
  5
4AF6
330
1A
100
AcDbEntity
  8
SEIHIN
  6
Continuous
 62
     3
100
AcDbLine
 10
106.5707873146716
 20
198.0368565105172
 30
0.0
 11
103.5707873146716
 21
198.0368565105172
 31
0.0
  0
LINE
  5
4AF7
330
1A
100
AcDbEntity
  8
SEIHIN
  6
Continuous
 62
     3
100
AcDbLine
 10
103.5707873146716
 20
198.0368565105172
 30
0.0
 11
103.5707873146716
 21
199.9368565105172
 31
0.0
  0
LINE
  5
4AF8
330
1A
100
AcDbEntity
  8
SEIHIN
  6
Continuous
 62
     3
100
AcDbLine
 10
106.5707873146716
 20
198.0368565105172
 30
0.0
 11
106.5707873146716
 21
199.9368565105172
 31
0.0
  0
LINE
  5
4AF9
330
1A
100
AcDbEntity
  8
SEIHIN
  6
Continuous
 62
     3
100
AcDbLine
 10
108.0624283146717
 20
201.5368565105172
 30
0.0
 11
108.0624283146717
 21
200.5368565105172
 31
0.0
  0
LINE
  5
4AFA
330
1A
100
AcDbEntity
  8
SEIHIN
  6
Continuous
 62
     3
100
AcDbLine
 10
110.3209073146716
 20
199.4368565105172
 30
0.0
 11
110.3209073146716
 21
199.9368565105172
 31
0.0
  0
LINE
  5
4AFB
330
1A
100
AcDbEntity
  8
SEIHIN
  6
Continuous
 62
     3
100
AcDbLine
 10
115.3209073146716
 20
199.4368565105172
 30
0.0
 11
115.3209073146716
 21
199.9368565105172
 31
0.0
  0
LINE
  5
4AFC
330
1A
100
AcDbEntity
  8
SEIHIN
  6
Continuous
 62
     3
100
AcDbLine
 10
110.3209073146716
 20
211.6368565105172
 30
0.0
 11
115.3209073146716
 21
211.6368565105172
 31
0.0
  0
LINE
  5
4AFD
330
1A
100
AcDbEntity
  8
SEIHIN
  6
Continuous
 62
     3
100
AcDbLine
 10
106.8207873146716
 20
211.1368565105172
 30
0.0
 11
106.8207873146716
 21
215.6368565105172
 31
0.0
  0
LINE
  5
4AFE
330
1A
100
AcDbEntity
  8
SEIHIN
  6
Continuous
 62
     3
100
AcDbLine
 10
103.3207873146716
 20
211.1368565105172
 30
0.0
 11
103.3207873146716
 21
215.6368565105172
 31
0.0
  0
LINE
  5
4AFF
330
1A
100
AcDbEntity
  8
SEIHIN
  6
Continuous
 62
     3
100
AcDbLine
 10
107.0624283146717
 20
209.5368565105172
 30
0.0
 11
108.0624283146717
 21
209.5368565105172
 31
0.0
  0
LINE
  5
4B00
330
1A
100
AcDbEntity
  8
SEIHIN
  6
Continuous
 62
     3
100
AcDbLine
 10
103.3207873146716
 20
214.0368565105172
 30
0.0
 11
106.8207873146716
 21
214.0368565105172
 31
0.0
  0
LINE
  5
4B01
330
1A
100
AcDbEntity
  8
SEIHIN
  6
Continuous
 62
     3
100
AcDbLine
 10
106.5707873146716
 20
213.0368565105172
 30
0.0
 11
106.5707873146716
 21
211.1368565105172
 31
0.0
  0
LINE
  5
4B02
330
1A
100
AcDbEntity
  8
SEIHIN
  6
Continuous
 62
     3
100
AcDbLine
 10
106.5707873146716
 20
213.0368565105172
 30
0.0
 11
103.5707873146716
 21
213.0368565105172
 31
0.0
  0
LINE
  5
4B03
330
1A
100
AcDbEntity
  8
SEIHIN
  6
Continuous
 62
     3
100
AcDbLine
 10
103.5707873146716
 20
213.0368565105172
 30
0.0
 11
103.5707873146716
 21
211.1368565105172
 31
0.0
  0
LINE
  5
4B04
330
1A
100
AcDbEntity
  8
SEIHIN
  6
Continuous
 62
     3
100
AcDbLine
 10
108.0624283146717
 20
209.5368565105172
 30
0.0
 11
108.0624283146717
 21
210.5368565105172
 31
0.0
  0
LINE
  5
4B05
330
1A
100
AcDbEntity
  8
SEIHIN
  6
Continuous
 62
     3
100
AcDbLine
 10
110.3209073146716
 20
211.6368565105172
 30
0.0
 11
110.3209073146716
 21
211.1368565105172
 31
0.0
  0
LINE
  5
4B06
330
1A
100
AcDbEntity
  8
SEIHIN
  6
Continuous
 62
     3
100
AcDbLine
 10
103.3207873146716
 20
215.1368565105172
 30
0.0
 11
106.8207873146716
 21
215.1368565105172
 31
0.0
  0
LINE
  5
4B07
330
1A
100
AcDbEntity
  8
SEIHIN
  6
Continuous
 62
     3
100
AcDbLine
 10
115.3209073146716
 20
211.6368565105172
 30
0.0
 11
115.3209073146716
 21
211.1368565105172
 31
0.0
  0
LINE
  5
4B08
330
1A
100
AcDbEntity
  8
SEIHIN
  6
Continuous
 62
     3
100
AcDbLine
 10
133.7024623146717
 20
197.4444615105172
 30
0.0
 11
138.1075023146716
 21
199.5368565105172
 31
0.0
  0
LINE
  5
4B09
330
1A
100
AcDbEntity
  8
SEIHIN
  6
Continuous
 62
     3
100
AcDbLine
 10
124.3208193146716
 20
200.4368565105172
 30
0.0
 11
124.3208373146717
 21
195.4368565105172
 31
0.0
  0
LINE
  5
4B0A
330
1A
100
AcDbEntity
  8
SEIHIN
  6
Continuous
 62
     3
100
AcDbLine
 10
126.0868023146716
 20
200.2466895105172
 30
0.0
 11
131.9862353146716
 21
197.4444605105172
 31
0.0
  0
ARC
  5
4B0B
330
1A
100
AcDbEntity
  8
SEIHIN
  6
Continuous
 62
     3
100
AcDbCircle
 10
132.8443483146716
 20
199.2510155105172
 30
0.0
 40
1.999999816165233
100
AcDbArc
 50
244.5922844787526
 51
295.4077120920526
  0
LINE
  5
4B0C
330
1A
100
AcDbEntity
  8
SEIHIN
  6
Continuous
 62
     3
100
AcDbLine
 10
134.8748473146716
 20
208.5368565105172
 30
0.0
 11
141.8373703146717
 21
208.5368565105172
 31
0.0
  0
LINE
  5
4B0D
330
1A
100
AcDbEntity
  8
SEIHIN
  6
Continuous
 62
     3
100
AcDbLine
 10
133.7024623146717
 20
213.6292525105172
 30
0.0
 11
138.1075053146717
 21
211.5368565105172
 31
0.0
  0
LINE
  5
4B0E
330
1A
100
AcDbEntity
  8
SEIHIN
  6
Continuous
 62
     3
100
AcDbLine
 10
134.8748473146716
 20
202.5368565105172
 30
0.0
 11
141.8373703146717
 21
202.5368565105172
 31
0.0
  0
LINE
  5
4B0F
330
1A
100
AcDbEntity
  8
SEIHIN
  6
Continuous
 62
     3
100
AcDbLine
 10
123.4034303146716
 20
200.5368565105172
 30
0.0
 11
123.4034303146716
 21
210.5368565105172
 31
0.0
  0
LINE
  5
4B10
330
1A
100
AcDbEntity
  8
SEIHIN
  6
Continuous
 62
     3
100
AcDbLine
 10
130.7391523146716
 20
198.0368245105172
 30
0.0
 11
124.3208273146715
 21
198.0368015105172
 31
0.0
  0
ARC
  5
4B11
330
1A
100
AcDbEntity
  8
SEIHIN
  6
Continuous
 62
     3
100
AcDbCircle
 10
124.7996323146717
 20
197.5368565105172
 30
0.0
 40
3.000000124732412
100
AcDbArc
 50
64.59228447875078
 51
89.99999094305167
  0
ARC
  5
4B12
330
1A
100
AcDbEntity
  8
SEIHIN
  6
Continuous
 62
     3
100
AcDbCircle
 10
134.8748473146716
 20
204.0368565105172
 30
0.0
 40
1.5
100
AcDbArc
 50
180.0
 51
270.0
  0
LINE
  5
4B13
330
1A
100
AcDbEntity
  8
SEIHIN
  6
Continuous
 62
     3
100
AcDbLine
 10
133.3748473146716
 20
204.0368565105172
 30
0.0
 11
133.3748473146716
 21
207.0368565105172
 31
0.0
  0
ARC
  5
4B14
330
1A
100
AcDbEntity
  8
SEIHIN
  6
Continuous
 62
     3
100
AcDbCircle
 10
134.8748473146716
 20
207.0368565105172
 30
0.0
 40
1.5
100
AcDbArc
 50
90.0
 51
180.0
  0
LINE
  5
4B15
330
1A
100
AcDbEntity
  8
SEIHIN
  6
Continuous
 62
     3
100
AcDbLine
 10
130.7390163146715
 20
213.0368245105172
 30
0.0
 11
124.3208273146715
 21
213.0368475105173
 31
0.0
  0
LINE
  5
4B16
330
1A
100
AcDbEntity
  8
SEIHIN
  6
Continuous
 62
     3
100
AcDbLine
 10
126.0868023146716
 20
210.8270245105172
 30
0.0
 11
131.9862353146716
 21
213.6292535105172
 31
0.0
  0
LINE
  5
4B17
330
1A
100
AcDbEntity
  8
SEIHIN
  6
Continuous
 62
     3
100
AcDbLine
 10
124.3208193146716
 20
210.6368565105172
 30
0.0
 11
124.3208373146717
 21
215.6368565105172
 31
0.0
  0
ARC
  5
4B18
330
1A
100
AcDbEntity
  8
SEIHIN
  6
Continuous
 62
     3
100
AcDbCircle
 10
124.7996323146717
 20
213.5368565105172
 30
0.0
 40
3.000000124732412
100
AcDbArc
 50
270.0
 51
295.4077064643031
  0
ARC
  5
4B19
330
1A
100
AcDbEntity
  8
SEIHIN
  6
Continuous
 62
     3
100
AcDbCircle
 10
132.8443483146716
 20
211.8226975105172
 30
0.0
 40
1.999999816165233
100
AcDbArc
 50
64.59225989560119
 51
115.4076875089021
  0
LINE
  5
4B1A
330
1A
100
AcDbEntity
  8
SEIHIN
  6
Continuous
 62
     3
100
AcDbLine
 10
138.1903243146717
 20
208.5368565105172
 30
0.0
 11
138.1903243146717
 21
211.4975175105172
 31
0.0
  0
LINE
  5
4B1B
330
1A
100
AcDbEntity
  8
SEIHIN
  6
Continuous
 62
     3
100
AcDbLine
 10
144.4239473146715
 20
199.5761955105172
 30
0.0
 11
144.4239473146715
 21
211.4975165105172
 31
0.0
  0
LINE
  5
4B1C
330
1A
100
AcDbEntity
  8
SEIHIN
  6
Continuous
 62
     3
100
AcDbLine
 10
145.3669383146716
 20
199.5368565105172
 30
0.0
 11
145.3669383146716
 21
211.5368565105172
 31
0.0
  0
LINE
  5
4B1D
330
1A
100
AcDbEntity
  8
SEIHIN
  6
Continuous
 62
     3
100
AcDbLine
 10
138.1075023146716
 20
199.5368565105172
 30
0.0
 11
145.3669383146716
 21
199.5368565105172
 31
0.0
  0
LINE
  5
4B1E
330
1A
100
AcDbEntity
  8
SEIHIN
  6
Continuous
 62
     3
100
AcDbLine
 10
141.8373703146717
 20
202.5368565105172
 30
0.0
 11
141.8373703146717
 21
208.5368565105172
 31
0.0
  0
LINE
  5
4B1F
330
1A
100
AcDbEntity
  8
SEIHIN
  6
Continuous
 62
     3
100
AcDbLine
 10
141.1994643146716
 20
202.5368565105172
 30
0.0
 11
141.1994643146716
 21
208.5368565105172
 31
0.0
  0
LINE
  5
4B20
330
1A
100
AcDbEntity
  8
SEIHIN
  6
Continuous
 62
     3
100
AcDbLine
 10
138.1903213146716
 20
199.5761955105172
 30
0.0
 11
138.1903223146717
 21
202.5368565105172
 31
0.0
  0
LINE
  5
4B21
330
1A
100
AcDbEntity
  8
SEIHIN
  6
Continuous
 62
     3
100
AcDbLine
 10
138.1075053146717
 20
211.5368565105172
 30
0.0
 11
145.3669383146716
 21
211.5368565105172
 31
0.0
  0
LINE
  5
4B22
330
1A
100
AcDbEntity
  8
SEIHIN
  6
Continuous
 62
     3
100
AcDbLine
 10
174.9855023146715
 20
198.0369465105172
 30
0.0
 11
174.9855023146715
 21
196.0370655105172
 31
0.0
  0
LINE
  5
4B23
330
1A
100
AcDbEntity
  8
SEIHIN
  6
Continuous
 62
     3
100
AcDbLine
 10
174.9855023146715
 20
215.0368275105172
 30
0.0
 11
174.9855023146715
 21
213.0369465105172
 31
0.0
  0
LINE
  5
4B24
330
1A
100
AcDbEntity
  8
SEIHIN
  6
Continuous
 62
     3
100
AcDbLine
 10
210.8063133146716
 20
197.2996275105172
 30
0.0
 11
210.8063103146717
 21
198.0473665105172
 31
0.0
  0
LINE
  5
4B25
330
1A
100
AcDbEntity
  8
SEIHIN
  6
Continuous
 62
     3
100
AcDbLine
 10
209.4375113146716
 20
197.4971795105172
 30
0.0
 11
209.4375093146716
 21
198.0473625105173
 31
0.0
  0
LINE
  5
4B26
330
1A
100
AcDbEntity
  8
SEIHIN
  6
Continuous
 62
     3
100
AcDbLine
 10
214.8248203146716
 20
195.0682785105173
 30
0.0
 11
214.8248203146716
 21
182.8955145105172
 31
0.0
  0
LINE
  5
4B27
330
1A
100
AcDbEntity
  8
SEIHIN
  6
Continuous
 62
     3
100
AcDbLine
 10
213.6248203146715
 20
195.0682785105173
 30
0.0
 11
213.6248203146715
 21
182.8955145105172
 31
0.0
  0
ARC
  5
4B28
330
1A
100
AcDbEntity
  8
SEIHIN
  6
Continuous
 62
     3
100
AcDbCircle
 10
217.8248203146716
 20
182.8955145105172
 30
0.0
 40
3.0
100
AcDbArc
 50
180.0
 51
270.0
  0
ARC
  5
4B29
330
1A
100
AcDbEntity
  8
SEIHIN
  6
Continuous
 62
     3
100
AcDbCircle
 10
216.6248203146715
 20
182.8955145105172
 30
0.0
 40
3.0
100
AcDbArc
 50
180.0
 51
270.0
  0
ARC
  5
4B2A
330
1A
100
AcDbEntity
  8
SEIHIN
  6
Continuous
 62
     3
100
AcDbCircle
 10
210.8375113146717
 20
197.4971795105172
 30
0.0
 40
1.399999956435713
100
AcDbArc
 50
179.9999974854032
 51
261.0257794118542
  0
ARC
  5
4B2B
330
1A
100
AcDbEntity
  8
SEIHIN
  6
Continuous
 62
     3
100
AcDbCircle
 10
213.1248203146715
 20
195.0682785105173
 30
0.0
 40
1.700000158763074
100
AcDbArc
 50
0.0000066132454181
 51
81.02579079286475
  0
ARC
  5
4B2C
330
1A
100
AcDbEntity
  8
SEIHIN
  6
Continuous
 62
     3
100
AcDbCircle
 10
213.1248203146715
 20
195.0682785105173
 30
0.0
 40
0.4999998433329509
100
AcDbArc
 50
0.0000000000781653
 51
81.0257768193338
  0
LINE
  5
4B2D
330
1A
100
AcDbEntity
  8
SEIHIN
  6
Continuous
 62
     3
100
AcDbLine
 10
210.6191253146717
 20
196.1143165105172
 30
0.0
 11
213.2028153146716
 21
195.5621575105172
 31
0.0
  0
LINE
  5
4B2E
330
1A
100
AcDbEntity
  8
SEIHIN
  6
Continuous
 62
     3
100
AcDbLine
 10
210.8063133146716
 20
197.2996275105172
 30
0.0
 11
213.3900023146716
 21
196.7474685105172
 31
0.0
  0
LINE
  5
4B2F
330
1A
100
AcDbEntity
  8
SEIHIN
  6
Continuous
 62
     3
100
AcDbLine
 10
217.7841903146716
 20
196.6822065105172
 30
0.0
 11
217.7841903146716
 21
194.1913095105172
 31
0.0
  0
LINE
  5
4B30
330
1A
100
AcDbEntity
  8
SEIHIN
  6
Continuous
 62
     3
100
AcDbLine
 10
214.8248203146716
 20
195.0682785105173
 30
0.0
 11
217.7841903146716
 21
195.0889195105172
 31
0.0
  0
LINE
  5
4B31
330
1A
100
AcDbEntity
  8
SEIHIN
  6
Continuous
 62
     3
100
AcDbLine
 10
188.2330043146717
 20
209.7360015105172
 30
0.0
 11
188.2330043146717
 21
201.1716425105172
 31
0.0
  0
LINE
  5
4B32
330
1A
100
AcDbEntity
  8
SEIHIN
  6
Continuous
 62
     3
100
AcDbLine
 10
189.7368033146715
 20
198.4513305105172
 30
0.0
 11
189.7368033146715
 21
200.1006795105172
 31
0.0
  0
LINE
  5
4B33
330
1A
100
AcDbEntity
  8
SEIHIN
  6
Continuous
 62
     3
100
AcDbLine
 10
189.7368033146715
 20
212.6227865105172
 30
0.0
 11
189.7368033146715
 21
210.9734375105172
 31
0.0
  0
ARC
  5
4B34
330
1A
100
AcDbEntity
  8
SEIHIN
  6
Continuous
 62
     3
100
AcDbCircle
 10
210.8375113146717
 20
213.5975755105172
 30
0.0
 40
1.399999956435713
100
AcDbArc
 50
98.97421424316363
 51
179.9999961696148
  0
LINE
  5
4B35
330
1A
100
AcDbEntity
  8
SEIHIN
  6
Continuous
 62
     3
100
AcDbLine
 10
209.4375113146716
 20
213.5975755105172
 30
0.0
 11
209.4375123146717
 21
213.0473625105173
 31
0.0
  0
LINE
  5
4B36
330
1A
100
AcDbEntity
  8
SEIHIN
  6
Continuous
 62
     3
100
AcDbLine
 10
217.7841903146716
 20
214.4125535105172
 30
0.0
 11
217.7841903146716
 21
216.9034495105172
 31
0.0
  0
ARC
  5
4B37
330
1A
100
AcDbEntity
  8
SEIHIN
  6
Continuous
 62
     3
100
AcDbCircle
 10
213.1248203146715
 20
216.0058395105172
 30
0.0
 40
1.700000040122499
100
AcDbArc
 50
278.7461491942049
 51
359.9999946189175
  0
LINE
  5
4B38
330
1A
100
AcDbEntity
  8
SEIHIN
  6
Continuous
 62
     3
100
AcDbLine
 10
210.6191253146717
 20
214.9804375105172
 30
0.0
 11
213.2028153146716
 21
215.5325965105172
 31
0.0
  0
LINE
  5
4B39
330
1A
100
AcDbEntity
  8
SEIHIN
  6
Continuous
 62
     3
100
AcDbLine
 10
213.3833173146716
 20
214.3256075105172
 30
0.0
 11
210.8070993146716
 21
213.7888525105172
 31
0.0
  0
LINE
  5
4B3A
330
1A
100
AcDbEntity
  8
SEIHIN
  6
Continuous
 62
     3
100
AcDbLine
 10
210.8070993146716
 20
213.7888525105172
 30
0.0
 11
210.8071013146716
 21
213.0473665105172
 31
0.0
  0
ARC
  5
4B3B
330
1A
100
AcDbEntity
  8
SEIHIN
  6
Continuous
 62
     3
100
AcDbCircle
 10
213.1248203146715
 20
216.0264755105172
 30
0.0
 40
0.4999998433329509
100
AcDbArc
 50
278.9742142431747
 51
359.999991062426
  0
LINE
  5
4B3C
330
1A
100
AcDbEntity
  8
SEIHIN
  6
Continuous
 62
     3
100
AcDbLine
 10
214.8248203146716
 20
216.0058395105172
 30
0.0
 11
217.7841903146716
 21
216.0058395105172
 31
0.0
  0
ARC
  5
4B3D
330
1A
100
AcDbEntity
  8
SEIHIN
  6
Continuous
 62
     3
100
AcDbCircle
 10
216.6248203146715
 20
228.1992415105172
 30
0.0
 40
3.0
100
AcDbArc
 50
90.0
 51
180.0
  0
ARC
  5
4B3E
330
1A
100
AcDbEntity
  8
SEIHIN
  6
Continuous
 62
     3
100
AcDbCircle
 10
217.8248203146716
 20
228.1992415105172
 30
0.0
 40
3.0
100
AcDbArc
 50
90.0
 51
180.0
  0
LINE
  5
4B3F
330
1A
100
AcDbEntity
  8
SEIHIN
  6
DASHED
 62
     6
100
AcDbLine
 10
223.2326943146716
 20
121.7992965105172
 30
0.0
 11
240.2113063146717
 21
128.4431015105172
 31
0.0
  0
ARC
  5
4B40
330
1A
100
AcDbEntity
  8
SEIHIN
  6
DASHED
 62
     6
100
AcDbCircle
 10
242.7621013146716
 20
121.9244015105172
 30
0.0
 40
7.000000168520353
100
AcDbArc
 50
31.08399920054774
 51
111.3706190912372
  0
DIMENSION
  5
4B41
330
1A
100
AcDbEntity
  8
SUNPOU
  6
Continuous
100
AcDbDimension
  2
*D8
 10
274.6885913838273
 20
117.8206271011985
 30
0.0
 11
267.536324111781
 21
134.5267656098316
 31
0.0
 70
    33
 71
     5
 42
35.99999950002321
  3
STANDARD
100
AcDbAlignedDimension
 13
275.0010283895948
 23
160.0448590079158
 33
0.0
 14
293.5876193834419
 24
129.2140529978694
 34
0.0
1001
ACAD
1000
DSTYLE
1002
{
1070
   140
1040
3.0
1070
    74
1070
     0
1070
   172
1070
     1
1070
    73
1070
     0
1070
   272
1070
     0
1070
    77
1070
     3
1070
   173
1070
     1
1070
   147
1040
1.0
1070
    42
1040
3.0
1070
    44
1040
1.5
1070
    43
1040
7.0
1070
   271
1070
     0
1070
   178
1070
   256
1070
   177
1070
   256
1070
   176
1070
   256
1070
   141
1040
3.0
1070
     7
1000
OPEN
1070
     6
1000
OPEN
1070
    41
1040
3.0
1002
}
  0
DIMENSION
  5
4B42
330
1A
100
AcDbEntity
  8
SUNPOU
  6
Continuous
100
AcDbDimension
  2
*D9
 10
284.7962254339518
 20
123.9140929424853
 30
0.0
 11
285.517444694095
 21
127.5599593926603
 31
0.0
 70
    33
  1
6
 71
     5
 42
5.499999779532104
  3
STANDARD
100
AcDbAlignedDimension
 13
290.7480014310869
 23
133.9243149289638
 33
0.0
 14
293.5876193834419
 24
129.2140529978694
 34
0.0
1001
ACAD
1000
DSTYLE
1002
{
1070
   140
1040
3.0
1070
    74
1070
     0
1070
   172
1070
     1
1070
    73
1070
     0
1070
   272
1070
     0
1070
    77
1070
     3
1070
   173
1070
     1
1070
   147
1040
1.0
1070
    42
1040
3.0
1070
    44
1040
1.5
1070
    43
1040
7.0
1070
   271
1070
     0
1070
   178
1070
   256
1070
   177
1070
   256
1070
   176
1070
   256
1070
   141
1040
3.0
1070
     7
1000
OPEN
1070
     6
1000
OPEN
1070
    41
1040
3.0
1002
}
  0
LINE
  5
4B43
330
1A
100
AcDbEntity
  8
CENTER L
  6
CENTER
100
AcDbLine
 10
288.344105845416
 20
182.8976629831587
 30
0.0
 11
323.0861780350355
 21
125.2686921892583
 31
0.0
  0
LINE
  5
4B44
330
1A
100
AcDbEntity
  8
SUNPOU
  6
Continuous
100
AcDbLine
 10
233.4114113146716
 20
92.93635851051721
 30
0.0
 11
252.4788747647641
 21
61.30789696447744
 31
0.0
  0
LINE
  5
4B45
330
1A
100
AcDbEntity
  8
SUNPOU
  6
Continuous
100
AcDbLine
 10
245.4841920876925
 20
61.30789696447744
 30
0.0
 11
252.4788747647641
 21
61.30789696447744
 31
0.0
  0
TEXT
  5
4B46
330
1A
100
AcDbEntity
  8
SUNPOU
  6
Continuous
100
AcDbText
 10
247.7221637313371
 20
57.00814138190606
 30
0.0
 40
3.0
  1
6
100
AcDbText
  0
LINE
  5
4B47
330
1A
100
AcDbEntity
  8
SUNPOU
  6
Continuous
100
AcDbLine
 10
245.4841920876924
 20
61.30789696447744
 30
0.0
 11
245.4841920876925
 21
72.91043930879948
 31
0.0
  0
TEXT
  5
4B48
330
1A
100
AcDbEntity
  8
SUNPOU
  6
Continuous
100
AcDbText
 10
240.8360976038832
 20
65.26367206844668
 30
0.0
 40
3.0
  1
10
100
AcDbText
  0
LINE
  5
4B49
330
1A
100
AcDbEntity
  8
CENTER L
  6
CENTER
 62
     1
100
AcDbLine
 10
243.5008371821798
 20
113.5325549116695
 30
0.0
 11
256.9464950039053
 21
121.6383740551335
 31
0.0
  0
LINE
  5
4B4A
330
1A
100
AcDbEntity
  8
SEIHIN
  6
DASHED
 62
     6
100
AcDbLine
 10
249.8248203146716
 20
123.7671655105172
 30
0.0
 11
268.4114113146716
 21
92.93635851051721
 31
0.0
  0
LINE
  5
4B4B
330
1A
100
AcDbEntity
  8
SEIHIN
  6
DASHED
 62
     6
100
AcDbLine
 10
248.7971263146717
 20
123.1476125105172
 30
0.0
 11
267.3837173146717
 21
92.31680551051721
 31
0.0
  0
LINE
  5
4B4C
330
1A
100
AcDbEntity
  8
SEIHIN
  6
DASHED
 62
     6
100
AcDbLine
 10
263.5298663146716
 20
89.9934815105172
 30
0.0
 11
244.9432753146716
 21
120.8242885105172
 31
0.0
  0
LINE
  5
4B4D
330
1A
100
AcDbEntity
  8
CENTER L
  6
CENTER
 62
     1
100
AcDbLine
 10
247.889337703673
 20
106.2530590322176
 30
0.0
 11
261.3349955253985
 21
114.3588781756816
 31
0.0
  0
LINE
  5
4B4E
330
1A
100
AcDbEntity
  8
CENTER L
  6
CENTER
100
AcDbLine
 10
221.4081917978216
 20
92.12227267995678
 30
0.0
 11
234.8538496195471
 21
100.2280918234206
 31
0.0
  0
LINE
  5
4B4F
330
1A
100
AcDbEntity
  8
SEIHIN
  6
Continuous
 62
     3
100
AcDbLine
 10
228.5298663146716
 20
89.9934815105172
 30
0.0
 11
233.4114113146716
 21
92.93635851051721
 31
0.0
  0
LINE
  5
4B50
330
1A
100
AcDbEntity
  8
SEIHIN
  6
DASHED
 62
     6
100
AcDbLine
 10
223.8659703146716
 20
119.3625165105172
 30
0.0
 11
241.2020063146717
 21
126.1461825105172
 31
0.0
  0
LINE
  5
4B51
330
1A
100
AcDbEntity
  8
SEIHIN
  6
DASHED
 62
     6
100
AcDbLine
 10
242.2952043146715
 20
123.3524535105172
 30
0.0
 11
224.6259023146715
 21
116.4383785105172
 31
0.0
  0
ARC
  5
4B52
330
1A
100
AcDbEntity
  8
SEIHIN
  6
DASHED
 62
     6
100
AcDbCircle
 10
243.0240033146715
 20
121.4899685105172
 30
0.0
 40
1.99999989528812
100
AcDbArc
 50
31.08399920054795
 51
111.3706217441361
  0
ARC
  5
4B53
330
1A
100
AcDbEntity
  8
SEIHIN
  6
DASHED
 62
     6
100
AcDbCircle
 10
243.0240033146715
 20
121.4899685105172
 30
0.0
 40
5.000000104512848
100
AcDbArc
 50
31.08396961908544
 51
111.3706110383726
  0
LINE
  5
4B54
330
1A
100
AcDbEntity
  8
SEIHIN
  6
DASHED
 62
     6
100
AcDbLine
 10
244.7368253146717
 20
122.5225565105172
 30
0.0
 11
245.5427633146717
 21
121.1856945105172
 31
0.0
  0
LINE
  5
4B55
330
1A
100
AcDbEntity
  8
SEIHIN
  6
DASHED
 62
     6
100
AcDbLine
 10
244.9432753146716
 20
120.8242885105172
 30
0.0
 11
249.8248203146716
 21
123.7671655105172
 31
0.0
  0
LINE
  5
4B56
330
1A
100
AcDbEntity
  8
SEIHIN
  6
DASHED
 62
     6
100
AcDbLine
 10
248.7569803146716
 20
125.5384615105172
 30
0.0
 11
249.8248203146716
 21
123.7671655105172
 31
0.0
  0
LINE
  5
4B57
330
1A
100
AcDbEntity
  8
SEIHIN
  6
DASHED
 62
     6
100
AcDbLine
 10
247.3060603146716
 20
124.0714375105172
 30
0.0
 11
248.1119973146717
 21
122.7345765105172
 31
0.0
  0
ARC
  5
4B58
330
1A
100
AcDbEntity
  8
SEIHIN
  6
DASHED
 62
     6
100
AcDbCircle
 10
259.1370193146715
 20
108.1751385105172
 30
0.0
 40
6.624999944286226
100
AcDbArc
 50
179.1931915802974
 51
242.9747727086138
  0
LINE
  5
4B59
330
1A
100
AcDbEntity
  8
SEIHIN
  6
DASHED
 62
     6
100
AcDbLine
 10
263.5298663146716
 20
89.9934815105172
 30
0.0
 11
268.4114113146716
 21
92.93635851051721
 31
0.0
  0
LINE
  5
4B5A
330
1A
100
AcDbEntity
  8
CENTER L
  6
CENTER
 62
     1
100
AcDbLine
 10
256.4081917978216
 20
92.12227267995678
 30
0.0
 11
269.8538496195471
 21
100.2280918234206
 31
0.0
  0
TEXT
  5
4B5B
330
1A
100
AcDbEntity
  8
SUNPOU
  6
Continuous
100
AcDbText
 10
340.2751798546692
 20
162.9371217081701
 30
0.0
 40
3.0
  1
2-φ6.5
100
AcDbText
  0
LEADER
  5
4B5C
330
1A
100
AcDbEntity
  8
SUNPOU
  6
Continuous
100
AcDbLeader
  3
STANDARD
 76
     3
 10
321.3833769468136
 20
169.5988871668741
 30
0.0
 10
337.8383222192545
 20
161.8170603671879
 30
0.0
 10
362.8565770835519
 20
161.8170603671879
 30
0.0
1001
ACAD
1000
DSTYLE
1002
{
1070
     6
1000
OPEN
1070
    41
1040
3.0
1070
    42
1040
3.0
1070
    43
1040
7.0
1070
    44
1040
1.5
1070
    73
1070
     0
1070
    74
1070
     0
1070
    77
1070
     3
1070
   140
1040
3.0
1070
   141
1040
3.0
1070
   147
1040
1.0
1070
   172
1070
     1
1070
   173
1070
     1
1070
   176
1070
   256
1070
   177
1070
   256
1070
   178
1070
   256
1070
   271
1070
     0
1070
   272
1070
     0
1070
   341
1005
B2
1070
   343
1005
B2
1070
   344
1005
B2
1002
}
  0
DIMENSION
  5
4B5D
330
1A
100
AcDbEntity
  8
SUNPOU
  6
Continuous
100
AcDbDimension
  2
*D10
 10
248.2762862409702
 20
179.8955145105172
 30
0.0
 11
245.7762862409702
 21
205.5473780105172
 31
0.0
 70
    32
 71
     5
 42
51.30372699999998
  3
STANDARD
100
AcDbAlignedDimension
 13
230.4114113146716
 23
231.1992415105172
 33
0.0
 14
230.4114113146716
 24
179.8955145105172
 34
0.0
 50
90.0
100
AcDbRotatedDimension
1001
ACAD
1000
DSTYLE
1002
{
1070
   140
1040
3.0
1070
    74
1070
     0
1070
   172
1070
     1
1070
    73
1070
     0
1070
   272
1070
     0
1070
    77
1070
     3
1070
   173
1070
     1
1070
   147
1040
1.0
1070
    42
1040
3.0
1070
    44
1040
1.5
1070
    43
1040
7.0
1070
   271
1070
     0
1070
   178
1070
   256
1070
   177
1070
   256
1070
   176
1070
   256
1070
   141
1040
3.0
1070
     7
1000
OPEN
1070
     6
1000
OPEN
1070
    41
1040
3.0
1002
}
  0
LINE
  5
4B5E
330
1A
100
AcDbEntity
  8
SEIHIN
  6
Continuous
 62
     3
100
AcDbLine
 10
233.4114113146716
 20
216.0058405105172
 30
0.0
 11
233.4114113146716
 21
228.1992415105172
 31
0.0
  0
DIMENSION
  5
4B5F
330
1A
100
AcDbEntity
  8
SUNPOU
  6
Continuous
100
AcDbDimension
  2
*D11
 10
297.5727827663092
 20
217.3672672698828
 30
0.0
 11
274.2722767760454
 21
206.2395345028058
 31
0.0
 70
    33
 71
     5
 42
51.40000062014769
  3
STANDARD
100
AcDbAlignedDimension
 13
273.9147963146717
 23
157.0546895105173
 33
0.0
 14
317.9343373146718
 24
183.5922115105174
 34
0.0
1001
ACAD
1000
DSTYLE
1002
{
1070
   140
1040
3.0
1070
    74
1070
     0
1070
   172
1070
     1
1070
    73
1070
     0
1070
   272
1070
     0
1070
    77
1070
     3
1070
   173
1070
     1
1070
   147
1040
1.0
1070
    42
1040
3.0
1070
    44
1040
1.5
1070
    43
1040
7.0
1070
   271
1070
     0
1070
   178
1070
   256
1070
   177
1070
   256
1070
   176
1070
   256
1070
   141
1040
3.0
1070
     7
1000
OPEN
1070
     6
1000
OPEN
1070
    41
1040
3.0
1002
}
  0
DIMENSION
  5
4B60
330
1A
100
AcDbEntity
  8
SUNPOU
  6
Continuous
100
AcDbDimension
  2
*D12
 10
297.7590509862376
 20
206.4556774184189
 30
0.0
 11
279.1465989737082
 21
198.154174137919
 31
0.0
 70
    33
 71
     5
 42
40.45186406754874
  3
STANDARD
100
AcDbAlignedDimension
 13
278.8609977331184
 23
159.4527133941022
 33
0.0
 14
313.5044307331183
 24
180.3377763941021
 34
0.0
1001
ACAD
1000
DSTYLE
1002
{
1070
   140
1040
3.0
1070
    74
1070
     0
1070
   172
1070
     1
1070
    73
1070
     0
1070
   272
1070
     0
1070
    77
1070
     3
1070
   173
1070
     1
1070
   147
1040
1.0
1070
    42
1040
3.0
1070
    44
1040
1.5
1070
    43
1040
7.0
1070
   271
1070
     0
1070
   178
1070
   256
1070
   177
1070
   256
1070
   176
1070
   256
1070
   141
1040
3.0
1070
     7
1000
OPEN
1070
     6
1000
OPEN
1070
    41
1040
3.0
1002
}
  0
DIMENSION
  5
4B61
330
1A
100
AcDbEntity
  8
SUNPOU
  6
Continuous
100
AcDbDimension
  2
*D13
 10
301.7207085867572
 20
196.9286669020771
 30
0.0
 11
284.4150820136159
 21
189.4149937852211
 31
0.0
 70
    33
 71
     5
 42
37.39999972171017
  3
STANDARD
100
AcDbAlignedDimension
 13
283.523735345416
 23
154.6738699831586
 33
0.0
 14
315.553517522443
 24
173.9832726895118
 34
0.0
1001
ACAD
1000
DSTYLE
1002
{
1070
   140
1040
3.0
1070
    74
1070
     0
1070
   172
1070
     1
1070
    73
1070
     0
1070
   272
1070
     0
1070
    77
1070
     3
1070
   173
1070
     1
1070
   147
1040
1.0
1070
    42
1040
3.0
1070
    44
1040
1.5
1070
    43
1040
7.0
1070
   271
1070
     0
1070
   178
1070
   256
1070
   177
1070
   256
1070
   176
1070
   256
1070
   141
1040
3.0
1070
     7
1000
OPEN
1070
     6
1000
OPEN
1070
    41
1040
3.0
1002
}
  0
LINE
  5
4B62
330
1A
100
AcDbEntity
  8
CENTER L
  6
CENTER
100
AcDbLine
 10
281.8231498420303
 20
147.8103425412616
 30
0.0
 11
290.3872627873131
 21
152.9732844797729
 31
0.0
  0
LINE
  5
4B63
330
1A
100
AcDbEntity
  8
CENTER L
  6
CENTER
100
AcDbLine
 10
283.523735345416
 20
154.6738699831587
 30
0.0
 11
288.6866772839273
 21
146.1097570378758
 31
0.0
  0
CIRCLE
  5
4B64
330
1A
100
AcDbEntity
  8
SEIHIN
  6
Continuous
 62
     3
100
AcDbCircle
 10
286.1052063146717
 20
150.3918135105172
 30
0.0
 40
3.25
  0
LINE
  5
4B65
330
1A
100
AcDbEntity
  8
SEIHIN
  6
Continuous
 62
     3
100
AcDbLine
 10
288.0406883146716
 20
167.9059195105172
 30
0.0
 11
274.5950313146716
 21
159.8001005105172
 31
0.0
  0
LINE
  5
4B66
330
1A
100
AcDbEntity
  8
SEIHIN
  6
Continuous
 62
     3
100
AcDbLine
 10
273.9147963146716
 20
157.0546895105172
 30
0.0
 11
290.4362113146717
 21
129.6495285105172
 31
0.0
  0
TEXT
  5
4B67
330
1A
100
AcDbEntity
  8
SUNPOU
  6
Continuous
100
AcDbText
 10
240.4459260777071
 20
165.2093755468148
 30
0.0
 40
3.0
  1
4-φ4.2
100
AcDbText
  0
LEADER
  5
4B68
330
1A
100
AcDbEntity
  8
SUNPOU
  6
Continuous
100
AcDbLeader
  3
STANDARD
 76
     3
 10
278.325184275603
 20
157.1365455585985
 30
0.0
 10
260.0218013691924
 20
164.251618622821
 30
0.0
 10
238.7400397273407
 20
164.251618622821
 30
0.0
1001
ACAD
1000
DSTYLE
1002
{
1070
     6
1000
OPEN
1070
    41
1040
3.0
1070
    42
1040
3.0
1070
    43
1040
7.0
1070
    44
1040
1.5
1070
    73
1070
     0
1070
    74
1070
     0
1070
    77
1070
     3
1070
   140
1040
3.0
1070
   141
1040
3.0
1070
   147
1040
1.0
1070
   172
1070
     1
1070
   173
1070
     1
1070
   176
1070
   256
1070
   177
1070
   256
1070
   178
1070
   256
1070
   271
1070
     0
1070
   272
1070
     0
1070
   341
1005
B2
1070
   343
1005
B2
1070
   344
1005
B2
1002
}
  0
TEXT
  5
4B69
330
1A
100
AcDbEntity
  8
SUNPOU
  6
Continuous
100
AcDbText
 10
230.6985549027286
 20
154.8219288559252
 30
0.0
 40
3.0
  1
スライド幅
100
AcDbText
  0
DIMENSION
  5
4B6A
330
1A
100
AcDbEntity
  8
SUNPOU
  6
Continuous
100
AcDbDimension
  2
*D14
 10
269.0211912107232
 20
150.0177199187046
 30
0.0
 11
269.7424104262979
 21
153.6635864428085
 31
0.0
 70
    33
  1
6
 71
     5
 42
5.499999952180019
  3
STANDARD
100
AcDbAlignedDimension
 13
275.0010283895949
 23
160.0448590079159
 33
0.0
 14
277.8406464310869
 24
155.3345969289638
 34
0.0
1001
ACAD
1000
DSTYLE
1002
{
1070
   140
1040
3.0
1070
    74
1070
     0
1070
   172
1070
     1
1070
    73
1070
     0
1070
   272
1070
     0
1070
    77
1070
     3
1070
   173
1070
     1
1070
   147
1040
1.0
1070
    42
1040
3.0
1070
    44
1040
1.5
1070
    43
1040
7.0
1070
   271
1070
     0
1070
   178
1070
   256
1070
   177
1070
   256
1070
   176
1070
   256
1070
   141
1040
3.0
1070
     7
1000
OPEN
1070
     6
1000
OPEN
1070
    41
1040
3.0
1002
}
  0
ARC
  5
4B6B
330
1A
100
AcDbEntity
  8
SEIHIN
  6
Continuous
 62
     3
100
AcDbCircle
 10
275.6276193146716
 20
158.0872785105172
 30
0.0
 40
2.0
100
AcDbArc
 50
121.0839992005483
 51
211.0839992005479
  0
LINE
  5
4B6C
330
1A
100
AcDbEntity
  8
CENTER L
  6
CENTER
100
AcDbLine
 10
277.8406464310868
 20
155.3345969289638
 30
0.0
 11
282.9791141982565
 21
158.4323620920707
 31
0.0
  0
LINE
  5
4B6D
330
1A
100
AcDbEntity
  8
CENTER L
  6
CENTER
100
AcDbLine
 10
278.8609977331183
 20
159.4527133941021
 30
0.0
 11
281.9587628962251
 21
154.3142456269324
 31
0.0
  0
CIRCLE
  5
4B6E
330
1A
100
AcDbEntity
  8
SEIHIN
  6
Continuous
 62
     3
100
AcDbCircle
 10
280.4098803146717
 20
156.8834795105173
 30
0.0
 40
2.1
  0
LINE
  5
4B6F
330
1A
100
AcDbEntity
  8
SEIHIN
  6
Continuous
 62
     3
100
AcDbLine
 10
229.3929043146716
 20
197.2996285105172
 30
0.0
 11
229.3929013146717
 21
198.0474055105172
 31
0.0
  0
ELLIPSE
  5
4B70
330
1A
100
AcDbEntity
  8
SEIHIN
  6
Continuous
 62
     3
100
AcDbEllipse
 10
231.0727163146717
 20
185.1455175105172
 30
0.0
 11
4.592277442707641E-17
 21
2.100001711502093
 31
0.0
210
0.0
220
0.0
230
1.0
 40
0.3571425437499017
 41
-1.570796326794897
 42
4.71238898038469
  0
ELLIPSE
  5
4B71
330
1A
100
AcDbEntity
  8
SEIHIN
  6
Continuous
 62
     3
100
AcDbEllipse
 10
230.3989763146717
 20
185.1455175105172
 30
0.0
 11
4.592277442707641E-17
 21
2.100001711502093
 31
0.0
210
0.0
220
0.0
230
1.0
 40
0.3571425437499017
 41
-2.675767399566849
 42
-0.4658252540229442
  0
ELLIPSE
  5
4B72
330
1A
100
AcDbEntity
  8
SEIHIN
  6
Continuous
 62
     3
100
AcDbEllipse
 10
217.7600343146717
 20
185.1455175105172
 30
0.0
 11
4.592277442707641E-17
 21
2.100001711502093
 31
0.0
210
0.0
220
0.0
230
1.0
 40
0.3571425437499017
 41
-2.675767399566849
 42
-0.4658252540229442
  0
ELLIPSE
  5
4B73
330
1A
100
AcDbEntity
  8
SEIHIN
  6
Continuous
 62
     3
100
AcDbEllipse
 10
222.3814013146716
 20
186.8955175105172
 30
0.0
 11
7.653771061495095E-17
 21
3.249992382839279
 31
0.0
210
0.0
220
0.0
230
1.0
 40
0.384616286056636
 41
-2.868723640393516
 42
-0.272869013196277
  0
ELLIPSE
  5
4B74
330
1A
100
AcDbEntity
  8
SEIHIN
  6
Continuous
 62
     3
100
AcDbEllipse
 10
223.0551413146716
 20
186.8955175105172
 30
0.0
 11
7.653771061495095E-17
 21
3.249992382839279
 31
0.0
210
0.0
220
0.0
230
1.0
 40
0.384616286056636
 41
-1.570796326794897
 42
4.71238898038469
  0
LINE
  5
4B75
330
1A
100
AcDbEntity
  8
SEIHIN
  6
Continuous
 62
     3
100
AcDbLine
 10
233.4114113146716
 20
195.0682795105172
 30
0.0
 11
233.4114113146716
 21
182.8955145105172
 31
0.0
  0
ARC
  5
4B76
330
1A
100
AcDbEntity
  8
SEIHIN
  6
Continuous
 62
     3
100
AcDbCircle
 10
230.4114113146716
 20
182.8955145105172
 30
0.0
 40
3.0
100
AcDbArc
 50
270.0
 51
0.0
  0
LINE
  5
4B77
330
1A
100
AcDbEntity
  8
CENTER L
  6
CENTER
100
AcDbLine
 10
233.4114113146716
 20
185.1455175105172
 30
0.0
 11
228.6728212724854
 21
185.1455175105172
 31
0.0
  0
LINE
  5
4B78
330
1A
100
AcDbEntity
  8
CENTER L
  6
CENTER
100
AcDbLine
 10
226.7844837602497
 20
186.8955175105172
 30
0.0
 11
218.5590598363206
 21
186.8955175105172
 31
0.0
  0
LINE
  5
4B79
330
1A
100
AcDbEntity
  8
SEIHIN
  6
Continuous
 62
     3
100
AcDbLine
 10
219.7280753146717
 20
195.0889195105172
 30
0.0
 11
228.1042863146715
 21
195.0889195105172
 31
0.0
  0
LINE
  5
4B7A
330
1A
100
AcDbEntity
  8
SEIHIN
  6
Continuous
 62
     3
100
AcDbLine
 10
219.7280753146717
 20
194.1913095105172
 30
0.0
 11
218.4055453146716
 21
196.6822065105172
 31
0.0
  0
LINE
  5
4B7B
330
1A
100
AcDbEntity
  8
SEIHIN
  6
Continuous
 62
     3
100
AcDbLine
 10
219.7280753146717
 20
194.1913095105172
 30
0.0
 11
219.7280753146717
 21
196.6822065105172
 31
0.0
  0
LINE
  5
4B7C
330
1A
100
AcDbEntity
  8
SEIHIN
  6
Continuous
 62
     3
100
AcDbLine
 10
230.0481713146717
 20
195.0889195105172
 30
0.0
 11
233.4114113146716
 21
195.0889195105172
 31
0.0
  0
LINE
  5
4B7D
330
1A
100
AcDbEntity
  8
SEIHIN
  6
Continuous
 62
     3
100
AcDbLine
 10
229.3929043146716
 20
197.2996285105172
 30
0.0
 11
231.9765933146716
 21
196.7474695105172
 31
0.0
  0
LINE
  5
4B7E
330
1A
100
AcDbEntity
  8
SEIHIN
  6
Continuous
 62
     3
100
AcDbLine
 10
228.1042863146715
 20
196.6822065105172
 30
0.0
 11
228.1042863146715
 21
194.1913095105172
 31
0.0
  0
LINE
  5
4B7F
330
1A
100
AcDbEntity
  8
SEIHIN
  6
Continuous
 62
     3
100
AcDbLine
 10
230.0481713146717
 20
194.1913095105172
 30
0.0
 11
230.0481713146717
 21
196.6822065105172
 31
0.0
  0
LINE
  5
4B80
330
1A
100
AcDbEntity
  8
SEIHIN
  6
Continuous
 62
     3
100
AcDbLine
 10
230.0481713146717
 20
196.6822065105172
 30
0.0
 11
228.1042863146715
 21
196.6822065105172
 31
0.0
  0
LINE
  5
4B81
330
1A
100
AcDbEntity
  8
SEIHIN
  6
Continuous
 62
     3
100
AcDbLine
 10
230.0481713146717
 20
194.1913095105172
 30
0.0
 11
228.7256413146715
 21
196.6822065105172
 31
0.0
  0
LINE
  5
4B82
330
1A
100
AcDbEntity
  8
SEIHIN
  6
Continuous
 62
     3
100
AcDbLine
 10
228.1042863146715
 20
194.1913095105172
 30
0.0
 11
230.0481713146717
 21
194.1913095105172
 31
0.0
  0
ARC
  5
4B83
330
1A
100
AcDbEntity
  8
SEIHIN
  6
Continuous
 62
     3
100
AcDbCircle
 10
231.7114113146715
 20
195.0682795105172
 30
0.0
 40
1.700000158763074
100
AcDbArc
 50
0.0000066132454181
 51
81.02579079286475
  0
LINE
  5
4B84
330
1A
100
AcDbEntity
  8
SEIHIN
  6
Continuous
 62
     3
100
AcDbLine
 10
221.7282803146716
 20
209.5473795105172
 30
0.0
 11
221.7282803146716
 21
201.5370865105172
 31
0.0
  0
ARC
  5
4B85
330
1A
100
AcDbEntity
  8
SEIHIN
  6
Continuous
 62
     3
100
AcDbCircle
 10
245.3184833146715
 20
205.5370595105172
 30
0.0
 40
17.43067870772649
100
AcDbArc
 50
163.3304729704061
 51
196.6694668411142
  0
LINE
  5
4B86
330
1A
100
AcDbEntity
  8
SEIHIN
  6
Continuous
 62
     3
100
AcDbLine
 10
233.4114113146716
 20
209.5370595105172
 30
0.0
 11
233.4114113146716
 21
201.5370595105172
 31
0.0
  0
ELLIPSE
  5
4B87
330
1A
100
AcDbEntity
  8
SEIHIN
  6
Continuous
 62
     3
100
AcDbEllipse
 10
225.1102543146717
 20
205.5473795105172
 30
0.0
 11
7.653792826897370E-17
 21
-3.000001500001125
 31
0.0
210
0.0
220
0.0
230
-1.0
 40
0.4166664583332813
 41
-1.570796326794897
 42
4.71238898038469
  0
ARC
  5
4B88
330
1A
100
AcDbEntity
  8
SEIHIN
  6
Continuous
 62
     3
100
AcDbCircle
 10
220.7282803146716
 20
201.5370865105172
 30
0.0
 40
1.00000000000225
100
AcDbArc
 50
270.0001750581466
 51
0.0000031708051873
  0
LINE
  5
4B89
330
1A
100
AcDbEntity
  8
SEIHIN
  6
Continuous
 62
     3
100
AcDbLine
 10
232.4114143146717
 20
200.5370595105172
 30
0.0
 11
228.6203233146716
 21
200.5370595105172
 31
0.0
  0
ARC
  5
4B8A
330
1A
100
AcDbEntity
  8
SEIHIN
  6
Continuous
 62
     3
100
AcDbCircle
 10
232.4114113146716
 20
201.5370595105172
 30
0.0
 40
1.00000000000225
100
AcDbArc
 50
270.0001718873446
 51
0.0
  0
LINE
  5
4B8B
330
1A
100
AcDbEntity
  8
SEIHIN
  6
Continuous
 62
     3
100
AcDbLine
 10
232.4114143146717
 20
200.5370595105172
 30
0.0
 11
232.4114143146717
 21
198.0371225105172
 31
0.0
  0
LINE
  5
4B8C
330
1A
100
AcDbEntity
  8
SEIHIN
  6
Continuous
 62
     3
100
AcDbLine
 10
219.7280753146717
 20
216.0058395105172
 30
0.0
 11
228.1042863146715
 21
216.0058395105172
 31
0.0
  0
LINE
  5
4B8D
330
1A
100
AcDbEntity
  8
SEIHIN
  6
Continuous
 62
     3
100
AcDbLine
 10
219.7280753146717
 20
216.9034495105172
 30
0.0
 11
219.7280753146717
 21
214.4125535105172
 31
0.0
  0
LINE
  5
4B8E
330
1A
100
AcDbEntity
  8
SEIHIN
  6
Continuous
 62
     3
100
AcDbLine
 10
219.7280753146717
 20
216.9034495105172
 30
0.0
 11
218.4055453146716
 21
214.4125535105172
 31
0.0
  0
ARC
  5
4B8F
330
1A
100
AcDbEntity
  8
SEIHIN
  6
Continuous
 62
     3
100
AcDbCircle
 10
220.7282803146716
 20
209.5473795105172
 30
0.0
 40
0.9999998898244878
100
AcDbArc
 50
0.0
 51
81.77232309546089
  0
LINE
  5
4B90
330
1A
100
AcDbEntity
  8
SEIHIN
  6
Continuous
 62
     3
100
AcDbLine
 10
230.0481713146717
 20
216.9034495105172
 30
0.0
 11
228.7256413146715
 21
214.4125535105172
 31
0.0
  0
LINE
  5
4B91
330
1A
100
AcDbEntity
  8
SEIHIN
  6
Continuous
 62
     3
100
AcDbLine
 10
230.0481713146717
 20
216.9034495105172
 30
0.0
 11
230.0481713146717
 21
214.4125535105172
 31
0.0
  0
LINE
  5
4B92
330
1A
100
AcDbEntity
  8
SEIHIN
  6
Continuous
 62
     3
100
AcDbLine
 10
228.1042863146715
 20
214.4125535105172
 30
0.0
 11
228.1042863146715
 21
216.9034495105172
 31
0.0
  0
ARC
  5
4B93
330
1A
100
AcDbEntity
  8
SEIHIN
  6
Continuous
 62
     3
100
AcDbCircle
 10
231.7114113146715
 20
216.0058405105172
 30
0.0
 40
1.700000040122499
100
AcDbArc
 50
278.7461491942049
 51
359.9999946189175
  0
LINE
  5
4B94
330
1A
100
AcDbEntity
  8
SEIHIN
  6
Continuous
 62
     3
100
AcDbLine
 10
228.6203233146716
 20
210.5370595105172
 30
0.0
 11
232.4114083146717
 21
210.5370595105172
 31
0.0
  0
LINE
  5
4B95
330
1A
100
AcDbEntity
  8
SEIHIN
  6
Continuous
 62
     3
100
AcDbLine
 10
231.9699083146716
 20
214.3256085105172
 30
0.0
 11
229.3936903146716
 21
213.7888535105172
 31
0.0
  0
LINE
  5
4B96
330
1A
100
AcDbEntity
  8
SEIHIN
  6
Continuous
 62
     3
100
AcDbLine
 10
230.0481713146717
 20
214.4125535105172
 30
0.0
 11
228.1042863146715
 21
214.4125535105172
 31
0.0
  0
LINE
  5
4B97
330
1A
100
AcDbEntity
  8
SEIHIN
  6
Continuous
 62
     3
100
AcDbLine
 10
229.3936903146716
 20
213.7888535105172
 30
0.0
 11
229.3936923146716
 21
213.0474055105172
 31
0.0
  0
LINE
  5
4B98
330
1A
100
AcDbEntity
  8
SEIHIN
  6
Continuous
 62
     3
100
AcDbLine
 10
232.4114083146717
 20
210.5370595105172
 30
0.0
 11
232.4114083146717
 21
213.0371225105172
 31
0.0
  0
ARC
  5
4B99
330
1A
100
AcDbEntity
  8
SEIHIN
  6
Continuous
 62
     3
100
AcDbCircle
 10
232.4114113146716
 20
209.5370595105172
 30
0.0
 40
1.00000000000225
100
AcDbArc
 50
0.0000031708051873
 51
90.00017505814657
  0
LINE
  5
4B9A
330
1A
100
AcDbEntity
  8
SEIHIN
  6
Continuous
 62
     3
100
AcDbLine
 10
230.0481713146717
 20
216.0058405105172
 30
0.0
 11
233.4114113146716
 21
216.0058405105172
 31
0.0
  0
LINE
  5
4B9B
330
1A
100
AcDbEntity
  8
SEIHIN
  6
Continuous
 62
     3
100
AcDbLine
 10
228.1042863146715
 20
216.9034495105172
 30
0.0
 11
230.0481713146717
 21
216.9034495105172
 31
0.0
  0
DIMENSION
  5
4B9C
330
1A
100
AcDbEntity
  8
SUNPOU
  6
Continuous
100
AcDbDimension
  2
*D15
 10
332.1072963176098
 20
178.1245304016655
 30
0.0
 11
330.6342651610993
 21
185.4101450074965
 31
0.0
 70
    33
 71
     5
 42
14.00000013896408
  3
STANDARD
100
AcDbAlignedDimension
 13
315.1889261786778
 23
184.2724454285324
 33
0.0
 14
322.4170449643402
 24
172.2826871861262
 34
0.0
1001
ACAD
1000
DSTYLE
1002
{
1070
   140
1040
3.0
1070
    74
1070
     0
1070
   172
1070
     1
1070
    73
1070
     0
1070
   272
1070
     0
1070
    77
1070
     3
1070
   173
1070
     1
1070
   147
1040
1.0
1070
    42
1040
3.0
1070
    44
1040
1.5
1070
    43
1040
7.0
1070
   271
1070
     0
1070
   178
1070
   256
1070
   177
1070
   256
1070
   176
1070
   256
1070
   141
1040
3.0
1070
     7
1000
OPEN
1070
     6
1000
OPEN
1070
    41
1040
3.0
1002
}
  0
LINE
  5
4B9D
330
1A
100
AcDbEntity
  8
SEIHIN
  6
Continuous
 62
     3
100
AcDbLine
 10
302.6666773146717
 20
176.7233105105172
 30
0.0
 11
306.0225903146716
 21
171.1566375105172
 31
0.0
  0
LINE
  5
4B9E
330
1A
100
AcDbEntity
  8
SEIHIN
  6
Continuous
 62
     3
100
AcDbLine
 10
304.1056473146716
 20
177.5908045105172
 30
0.0
 11
307.4615593146716
 21
172.0241315105172
 31
0.0
  0
LINE
  5
4B9F
330
1A
100
AcDbEntity
  8
SEIHIN
  6
Continuous
 62
     3
100
AcDbLine
 10
317.9343373146717
 20
183.5922115105173
 30
0.0
 11
334.4557513146717
 21
156.1870495105172
 31
0.0
  0
LINE
  5
4BA0
330
1A
100
AcDbEntity
  8
SEIHIN
  6
Continuous
 62
     3
100
AcDbLine
 10
287.4179613146716
 20
174.7495185105172
 30
0.0
 11
295.3508083146717
 21
161.5907805105172
 31
0.0
  0
LINE
  5
4BA1
330
1A
100
AcDbEntity
  8
SEIHIN
  6
Continuous
 62
     3
100
AcDbLine
 10
295.9820743146715
 20
179.9124605105172
 30
0.0
 11
303.9149213146716
 21
166.7537225105172
 31
0.0
  0
LINE
  5
4BA2
330
1A
100
AcDbEntity
  8
SEIHIN
  6
Continuous
 62
     3
100
AcDbLine
 10
299.0866623146717
 20
180.5733155105172
 30
0.0
 11
315.0029913146716
 21
154.1718485105172
 31
0.0
  0
LINE
  5
4BA3
330
1A
100
AcDbEntity
  8
CENTER L
  6
CENTER
100
AcDbLine
 10
313.8529320190575
 20
167.1197452476148
 30
0.0
 11
322.4170449643402
 21
172.2826871861262
 31
0.0
  0
LINE
  5
4BA4
330
1A
100
AcDbEntity
  8
CENTER L
  6
CENTER
100
AcDbLine
 10
315.5535175224431
 20
173.9832726895118
 30
0.0
 11
320.7164594609545
 21
165.4191597442291
 31
0.0
  0
LINE
  5
4BA5
330
1A
100
AcDbEntity
  8
SEIHIN
  6
Continuous
 62
     3
100
AcDbLine
 10
309.0104423146715
 20
169.4548975105172
 30
0.0
 11
317.7874433146717
 21
154.8959055105172
 31
0.0
  0
LINE
  5
4BA6
330
1A
100
AcDbEntity
  8
SEIHIN
  6
Continuous
 62
     3
100
AcDbLine
 10
317.7458883146717
 20
151.3678635105172
 30
0.0
 11
316.1970053146717
 21
153.9370975105172
 31
0.0
  0
LINE
  5
4BA7
330
1A
100
AcDbEntity
  8
SEIHIN
  6
Continuous
 62
     3
100
AcDbLine
 10
313.6302723146716
 20
150.6382275105172
 30
0.0
 11
317.7606263146715
 21
143.7869375105172
 31
0.0
  0
LINE
  5
4BA8
330
1A
100
AcDbEntity
  8
SEIHIN
  6
Continuous
 62
     3
100
AcDbLine
 10
315.0029913146716
 20
154.1718485105172
 30
0.0
 11
320.3298603146716
 21
145.3358205105172
 31
0.0
  0
LINE
  5
4BA9
330
1A
100
AcDbEntity
  8
SEIHIN
  6
Continuous
 62
     3
100
AcDbLine
 10
318.7940093146717
 20
155.5027215105172
 30
0.0
 11
316.1970053146717
 21
153.9370975105172
 31
0.0
  0
CIRCLE
  5
4BAA
330
1A
100
AcDbEntity
  8
SEIHIN
  6
Continuous
 62
     3
100
AcDbCircle
 10
318.1349883146716
 20
169.7012165105172
 30
0.0
 40
3.25
  0
LINE
  5
4BAB
330
1A
100
AcDbEntity
  8
SEIHIN
  6
Continuous
 62
     3
100
AcDbLine
 10
333.7755173146716
 20
153.4416395105172
 30
0.0
 11
293.1816223146716
 21
128.9692945105172
 31
0.0
  0
LINE
  5
4BAC
330
1A
100
AcDbEntity
  8
SEIHIN
  6
Continuous
 62
     3
100
AcDbLine
 10
315.8337003146717
 20
142.6252755105172
 30
0.0
 11
322.3435433146717
 21
131.8269685105173
 31
0.0
  0
LINE
  5
4BAD
330
1A
100
AcDbEntity
  8
SEIHIN
  6
Continuous
 62
     3
100
AcDbLine
 10
311.1234383146716
 20
139.7856575105172
 30
0.0
 11
317.6332813146717
 21
128.9873505105172
 31
0.0
  0
ARC
  5
4BAE
330
1A
100
AcDbEntity
  8
SEIHIN
  6
Continuous
 62
     3
100
AcDbCircle
 10
312.0587603146716
 20
143.5605975105172
 30
0.0
 40
7.249999838287755
100
AcDbArc
 50
77.48119779590094
 51
164.6868377992484
  0
LINE
  5
4BAF
330
1A
100
AcDbEntity
  8
SEIHIN
  6
Continuous
 62
     3
100
AcDbLine
 10
292.0035083146715
 20
159.2021355105172
 30
0.0
 11
300.7805103146716
 21
144.6431435105172
 31
0.0
  0
LINE
  5
4BB0
330
1A
100
AcDbEntity
  8
SEIHIN
  6
Continuous
 62
     3
100
AcDbLine
 10
290.5654323146716
 20
158.3351795105172
 30
0.0
 11
299.3424333146716
 21
143.7761875105172
 31
0.0
  0
LINE
  5
4BB1
330
1A
100
AcDbEntity
  8
SEIHIN
  6
Continuous
 62
     3
100
AcDbLine
 10
285.3840813146717
 20
172.3126085105172
 30
0.0
 11
301.3003993146717
 21
145.9111615105172
 31
0.0
  0
LINE
  5
4BB2
330
1A
100
AcDbEntity
  8
SEIHIN
  6
Continuous
 62
     3
100
AcDbLine
 10
302.4994263146716
 20
142.1764165105172
 30
0.0
 11
299.9024223146716
 21
140.6107925105172
 31
0.0
  0
LINE
  5
4BB3
330
1A
100
AcDbEntity
  8
SEIHIN
  6
Continuous
 62
     3
100
AcDbLine
 10
300.9505443146716
 20
144.7456505105172
 30
0.0
 11
298.3535393146717
 21
143.1800255105172
 31
0.0
  0
LINE
  5
4BB4
330
1A
100
AcDbEntity
  8
CENTER L
  6
CENTER
100
AcDbLine
 10
290.7480014310869
 20
133.9243149289638
 30
0.0
 11
295.8864691982565
 21
137.0220800920706
 31
0.0
  0
LINE
  5
4BB5
330
1A
100
AcDbEntity
  8
CENTER L
  6
CENTER
100
AcDbLine
 10
291.7683527331183
 20
138.042431394102
 30
0.0
 11
294.8661178962252
 21
132.9039636269324
 31
0.0
  0
CIRCLE
  5
4BB6
330
1A
100
AcDbEntity
  8
SEIHIN
  6
Continuous
 62
     3
100
AcDbCircle
 10
293.3172353146717
 20
135.4731975105172
 30
0.0
 40
2.1
  0
ARC
  5
4BB7
330
1A
100
AcDbEntity
  8
SEIHIN
  6
Continuous
 62
     3
100
AcDbCircle
 10
292.1490333146717
 20
130.6821165105172
 30
0.0
 40
2.0
100
AcDbArc
 50
211.0839992005479
 51
301.0839992005483
  0
LINE
  5
4BB8
330
1A
100
AcDbEntity
  8
SEIHIN
  6
Continuous
 62
     3
100
AcDbLine
 10
299.9024223146716
 20
140.6107925105172
 30
0.0
 11
298.3535393146717
 21
143.1800255105172
 31
0.0
  0
LINE
  5
4BB9
330
1A
100
AcDbEntity
  8
SEIHIN
  6
Continuous
 62
     3
100
AcDbLine
 10
305.0661593146717
 20
145.4752855105172
 30
0.0
 11
309.1965133146716
 21
138.6239955105172
 31
0.0
  0
LINE
  5
4BBA
330
1A
100
AcDbEntity
  8
SEIHIN
  6
Continuous
 62
     3
100
AcDbLine
 10
301.3003993146717
 20
145.9111615105172
 30
0.0
 11
306.6272793146716
 21
137.0751135105172
 31
0.0
  0
LINE
  5
4BBB
330
1A
100
AcDbEntity
  8
SEIHIN
  6
Continuous
 62
     3
100
AcDbLine
 10
300.8913153146716
 20
141.2069545105172
 30
0.0
 11
304.2472283146717
 21
135.6402805105172
 31
0.0
  0
LINE
  5
4BBC
330
1A
100
AcDbEntity
  8
SEIHIN
  6
Continuous
 62
     3
100
AcDbLine
 10
302.3293923146716
 20
142.0739095105172
 30
0.0
 11
305.6853043146716
 21
136.5072365105172
 31
0.0
  0
LINE
  5
4BBD
330
1A
100
AcDbEntity
  8
SEIHIN
  6
Continuous
 62
     3
100
AcDbLine
 10
302.4994263146716
 20
142.1764165105172
 30
0.0
 11
300.9505443146716
 21
144.7456505105172
 31
0.0
  0
LINE
  5
4BBE
330
1A
100
AcDbEntity
  8
SEIHIN
  6
Continuous
 62
     3
100
AcDbLine
 10
295.3508083146717
 20
161.5907805105172
 30
0.0
 11
303.9149213146716
 21
166.7537225105172
 31
0.0
  0
LINE
  5
4BBF
330
1A
100
AcDbEntity
  8
SEIHIN
  6
Continuous
 62
     3
100
AcDbLine
 10
285.6606373146717
 20
166.4710875105172
 30
0.0
 11
289.0165493146717
 21
160.9044135105172
 31
0.0
  0
LINE
  5
4BC0
330
1A
100
AcDbEntity
  8
SEIHIN
  6
Continuous
 62
     3
100
AcDbLine
 10
287.0987133146716
 20
167.3380435105172
 30
0.0
 11
290.4546263146717
 21
161.7713695105172
 31
0.0
  0
LINE
  5
4BC1
330
1A
100
AcDbEntity
  8
SEIHIN
  6
Continuous
 62
     3
100
AcDbLine
 10
292.1735423146715
 20
159.3046425105172
 30
0.0
 11
289.5765383146716
 21
157.7390175105172
 31
0.0
  0
LINE
  5
4BC2
330
1A
100
AcDbEntity
  8
SEIHIN
  6
Continuous
 62
     3
100
AcDbLine
 10
290.6246603146717
 20
161.8738755105172
 30
0.0
 11
292.1735423146715
 21
159.3046425105172
 31
0.0
  0
LINE
  5
4BC3
330
1A
100
AcDbEntity
  8
SEIHIN
  6
Continuous
 62
     3
100
AcDbLine
 10
290.6246603146717
 20
161.8738755105172
 30
0.0
 11
288.0276563146717
 21
160.3082515105172
 31
0.0
  0
LINE
  5
4BC4
330
1A
100
AcDbEntity
  8
SEIHIN
  6
Continuous
 62
     3
100
AcDbLine
 10
288.0276563146717
 20
160.3082515105172
 30
0.0
 11
289.5765383146716
 21
157.7390175105172
 31
0.0
  0
LINE
  5
4BC5
330
1A
100
AcDbEntity
  8
SEIHIN
  6
Continuous
 62
     3
100
AcDbLine
 10
285.3840813146717
 20
172.3126085105172
 30
0.0
 11
287.9533153146717
 21
173.8614915105172
 31
0.0
  0
LINE
  5
4BC6
330
1A
100
AcDbEntity
  8
SEIHIN
  6
Continuous
 62
     3
100
AcDbLine
 10
307.5714723146716
 20
168.5874035105172
 30
0.0
 11
316.3484733146715
 21
154.0284115105172
 31
0.0
  0
CIRCLE
  5
4BC7
330
1A
100
AcDbEntity
  8
SEIHIN
  6
Continuous
 62
     3
100
AcDbCircle
 10
304.1852743146717
 20
156.6208695105172
 30
0.0
 40
2.1
  0
LINE
  5
4BC8
330
1A
100
AcDbEntity
  8
SEIHIN
  6
Continuous
 62
     3
100
AcDbLine
 10
308.4681263146717
 20
172.6309475105172
 30
0.0
 11
305.8711213146717
 21
171.0653235105172
 31
0.0
  0
LINE
  5
4BC9
330
1A
100
AcDbEntity
  8
SEIHIN
  6
Continuous
 62
     3
100
AcDbLine
 10
310.0170083146716
 20
170.0617135105172
 30
0.0
 11
307.4200043146716
 21
168.4960895105172
 31
0.0
  0
LINE
  5
4BCA
330
1A
100
AcDbEntity
  8
SEIHIN
  6
Continuous
 62
     3
100
AcDbLine
 10
305.8711213146717
 20
171.0653235105172
 30
0.0
 11
307.4200043146716
 21
168.4960895105172
 31
0.0
  0
LINE
  5
4BCB
330
1A
100
AcDbEntity
  8
SEIHIN
  6
Continuous
 62
     3
100
AcDbLine
 10
308.4681263146717
 20
172.6309475105172
 30
0.0
 11
310.0170083146716
 21
170.0617135105172
 31
0.0
  0
LINE
  5
4BCC
330
1A
100
AcDbEntity
  8
SEIHIN
  6
Continuous
 62
     3
100
AcDbLine
 10
317.8973563146717
 20
151.4591775105172
 30
0.0
 11
321.2532683146717
 21
145.8925045105172
 31
0.0
  0
LINE
  5
4BCD
330
1A
100
AcDbEntity
  8
SEIHIN
  6
Continuous
 62
     3
100
AcDbLine
 10
319.3363263146716
 20
152.3266715105172
 30
0.0
 11
322.6922383146716
 21
146.7599985105172
 31
0.0
  0
LINE
  5
4BCE
330
1A
100
AcDbEntity
  8
SEIHIN
  6
Continuous
 62
     3
100
AcDbLine
 10
319.0059873146715
 20
128.6472335105172
 30
0.0
 11
322.0034263146717
 21
130.4542635105172
 31
0.0
  0
ARC
  5
4BCF
330
1A
100
AcDbEntity
  8
SEIHIN
  6
Continuous
 62
     3
100
AcDbCircle
 10
318.4896933146717
 20
129.5036455105172
 30
0.0
 40
1.0
100
AcDbArc
 50
211.0839992005498
 51
301.0839992005494
  0
ARC
  5
4BD0
330
1A
100
AcDbEntity
  8
SEIHIN
  6
Continuous
 62
     3
100
AcDbCircle
 10
321.4871323146717
 20
131.3106745105172
 30
0.0
 40
1.0
100
AcDbArc
 50
301.0839992005494
 51
31.08399920054976
  0
LINE
  5
4BD1
330
1A
100
AcDbEntity
  8
SEIHIN
  6
Continuous
 62
     3
100
AcDbLine
 10
320.3428923146716
 20
152.9334885105172
 30
0.0
 11
317.7458883146717
 21
151.3678635105172
 31
0.0
  0
LINE
  5
4BD2
330
1A
100
AcDbEntity
  8
SEIHIN
  6
Continuous
 62
     3
100
AcDbLine
 10
320.3428923146716
 20
152.9334885105172
 30
0.0
 11
318.7940093146717
 21
155.5027215105172
 31
0.0
  0
LINE
  5
4BD3
330
1A
100
AcDbEntity
  8
CENTER L
  6
CENTER
100
AcDbLine
 10
326.4117857331182
 20
158.927493394102
 30
0.0
 11
329.5095508962251
 21
153.7890256269324
 31
0.0
  0
LINE
  5
4BD4
330
1A
100
AcDbEntity
  8
CENTER L
  6
CENTER
100
AcDbLine
 10
325.3914344310868
 20
154.8093769289638
 30
0.0
 11
330.5299021982565
 21
157.9071420920706
 31
0.0
  0
CIRCLE
  5
4BD5
330
1A
100
AcDbEntity
  8
SEIHIN
  6
Continuous
 62
     3
100
AcDbCircle
 10
327.9606683146717
 20
156.3582595105172
 30
0.0
 40
2.1
  0
ARC
  5
4BD6
330
1A
100
AcDbEntity
  8
SEIHIN
  6
Continuous
 62
     3
100
AcDbCircle
 10
332.7429293146715
 20
155.1544615105172
 30
0.0
 40
2.0
100
AcDbArc
 50
301.0839992005483
 51
31.08399920054795
  0
LINE
  5
4BD7
330
1A
100
AcDbEntity
  8
CENTER L
  6
CENTER
100
AcDbLine
 10
312.4840794310868
 20
176.2196599289638
 30
0.0
 11
317.6225471982564
 21
179.3174250920706
 31
0.0
  0
LINE
  5
4BD8
330
1A
100
AcDbEntity
  8
CENTER L
  6
CENTER
100
AcDbLine
 10
313.5044307331182
 20
180.337776394102
 30
0.0
 11
316.6021958962251
 21
175.1993086269324
 31
0.0
  0
ARC
  5
4BD9
330
1A
100
AcDbEntity
  8
SEIHIN
  6
Continuous
 62
     3
100
AcDbCircle
 10
316.2215143146716
 20
182.5596235105172
 30
0.0
 40
2.0
100
AcDbArc
 50
31.08399920054795
 51
121.0839992005483
  0
CIRCLE
  5
4BDA
330
1A
100
AcDbEntity
  8
SEIHIN
  6
Continuous
 62
     3
100
AcDbCircle
 10
315.0533133146716
 20
177.7685425105172
 30
0.0
 40
2.1
  0
LINE
  5
4BDB
330
1A
100
AcDbEntity
  8
SEIHIN
  6
Continuous
 62
     3
100
AcDbLine
 10
287.9281373146716
 20
176.8085765105172
 30
0.0
 11
293.9230163146717
 21
180.4226365105172
 31
0.0
  0
ARC
  5
4BDC
330
1A
100
AcDbEntity
  8
SEIHIN
  6
Continuous
 62
     3
100
AcDbCircle
 10
288.7025783146717
 20
175.5239605105172
 30
0.0
 40
1.5
100
AcDbArc
 50
121.0839992005483
 51
211.0839992005471
  0
ARC
  5
4BDD
330
1A
100
AcDbEntity
  8
SEIHIN
  6
Continuous
 62
     3
100
AcDbCircle
 10
294.6974573146717
 20
179.1380195105172
 30
0.0
 40
1.5
100
AcDbArc
 50
31.08399920054704
 51
121.0839992005483
  0
LINE
  5
4BDE
330
1A
100
AcDbEntity
  8
SEIHIN
  6
Continuous
 62
     3
100
AcDbLine
 10
296.5174283146716
 20
179.0244335105172
 30
0.0
 11
299.0866623146717
 21
180.5733155105172
 31
0.0
  0
LINE
  5
4BDF
330
1A
100
AcDbEntity
  8
SEIHIN
  6
Continuous
 62
     3
100
AcDbLine
 10
315.1889263146716
 20
184.2724455105172
 30
0.0
 11
301.7432693146716
 21
176.1666265105172
 31
0.0
  0
LINE
  5
4BE0
330
1A
100
AcDbEntity
  8
CENTER L
  6
CENTER
100
AcDbLine
 10
226.7844837602497
 20
224.1786015105172
 30
0.0
 11
218.5590598363206
 21
224.1786015105172
 31
0.0
  0
ELLIPSE
  5
4BE1
330
1A
100
AcDbEntity
  8
SEIHIN
  6
Continuous
 62
     3
100
AcDbEllipse
 10
217.7600343146717
 20
225.9492415105172
 30
0.0
 11
4.592277442707641E-17
 21
-2.100001711502093
 31
0.0
210
0.0
220
0.0
230
-1.0
 40
0.3571425437499017
 41
-2.675767399566849
 42
-0.4658252540229442
  0
ELLIPSE
  5
4BE2
330
1A
100
AcDbEntity
  8
SEIHIN
  6
Continuous
 62
     3
100
AcDbEllipse
 10
222.3814013146716
 20
224.1992415105172
 30
0.0
 11
7.653771061495095E-17
 21
-3.249992382839279
 31
0.0
210
0.0
220
0.0
230
-1.0
 40
0.384616286056636
 41
-2.868723640393516
 42
-0.272869013196277
  0
ELLIPSE
  5
4BE3
330
1A
100
AcDbEntity
  8
SEIHIN
  6
Continuous
 62
     3
100
AcDbEllipse
 10
223.0551413146716
 20
224.1992415105172
 30
0.0
 11
7.653771061495095E-17
 21
-3.249992382839279
 31
0.0
210
0.0
220
0.0
230
-1.0
 40
0.384616286056636
 41
-1.570796326794897
 42
4.71238898038469
  0
ELLIPSE
  5
4BE4
330
1A
100
AcDbEntity
  8
SEIHIN
  6
Continuous
 62
     3
100
AcDbEllipse
 10
230.3989763146717
 20
225.9492415105172
 30
0.0
 11
4.592277442707641E-17
 21
-2.100001711502093
 31
0.0
210
0.0
220
0.0
230
-1.0
 40
0.3571425437499017
 41
-2.675767399566849
 42
-0.4658252540229442
  0
ELLIPSE
  5
4BE5
330
1A
100
AcDbEntity
  8
SEIHIN
  6
Continuous
 62
     3
100
AcDbEllipse
 10
231.0727163146717
 20
225.9492415105172
 30
0.0
 11
4.592277442707641E-17
 21
-2.100001711502093
 31
0.0
210
0.0
220
0.0
230
-1.0
 40
0.3571425437499017
 41
-1.570796326794897
 42
4.71238898038469
  0
LINE
  5
4BE6
330
1A
100
AcDbEntity
  8
CENTER L
  6
CENTER
100
AcDbLine
 10
233.4114113146716
 20
225.9286015105172
 30
0.0
 11
228.6728212724854
 21
225.9286015105172
 31
0.0
  0
ARC
  5
4BE7
330
1A
100
AcDbEntity
  8
SEIHIN
  6
Continuous
 62
     3
100
AcDbCircle
 10
230.4114113146716
 20
228.1992415105172
 30
0.0
 40
3.0
100
AcDbArc
 50
0.0
 51
90.0
  0
VIEWPORT
  5
22
330
17
100
AcDbEntity
 67
     1
  8
0
100
AcDbViewport
 10
313.6808219178083
 20
148.5
 30
0.0
 40
627.3616438356165
 41
297.0
 68
     2
 69
     1
 12
313.6808219178083
 22
148.5
 13
0.0
 23
0.0
 14
1.0
 24
1.0
 15
10.0
 25
10.0
 16
0.0
 26
0.0
 36
1.0
 17
0.0
 27
0.0
 37
0.0
 42
50.0
 43
0.0
 44
0.0
 45
297.0
 50
0.0
 51
0.0
 72
   100
 90
    32768
  1

281
     0
 71
     1
 74
     0
110
0.0
120
0.0
130
0.0
111
1.0
121
0.0
131
0.0
112
0.0
122
1.0
132
0.0
 79
     0
146
0.0
  0
VIEWPORT
  5
64
330
17
100
AcDbEntity
 67
     1
  8
VIEWPORT
100
AcDbViewport
 10
210.0
 20
148.5
 30
0.0
 40
420.0
 41
297.0
 68
     1
 69
     2
 12
210.0
 22
148.5
 13
0.0
 23
0.0
 14
5.0
 24
5.0
 15
0.0
 25
0.0
 16
0.0
 26
0.0
 36
1.0
 17
0.0
 27
0.0
 37
0.0
 42
50.0
 43
0.0
 44
0.0
 45
302.9399999999999
 50
0.0
 51
0.0
 72
   100
 90
    32768
  1

281
     0
 71
     1
 74
     0
110
0.0
120
0.0
130
0.0
111
1.0
121
0.0
131
0.0
112
0.0
122
1.0
132
0.0
 79
     0
146
0.0
  0
ENDSEC
  0
SECTION
  2
OBJECTS
  0
DICTIONARY
  5
C
330
0
100
AcDbDictionary
281
     1
  3
ACAD_GROUP
350
D
  3
ACAD_LAYOUT
350
624
  3
ACAD_MLINESTYLE
350
E
  3
ACAD_PLOTSETTINGS
350
625
  3
ACAD_PLOTSTYLENAME
350
622
  0
DICTIONARY
  5
D
102
{ACAD_REACTORS
330
C
102
}
330
C
100
AcDbDictionary
281
     1
  0
DICTIONARY
  5
624
102
{ACAD_REACTORS
330
C
102
}
330
C
100
AcDbDictionary
281
     1
  3
Model
350
626
  3
ﾚｲｱｳﾄ1
350
627
  0
DICTIONARY
  5
E
102
{ACAD_REACTORS
330
C
102
}
330
C
100
AcDbDictionary
281
     1
  3
STANDARD
350
13
  0
DICTIONARY
  5
625
102
{ACAD_REACTORS
330
C
102
}
330
C
100
AcDbDictionary
281
     1
  0
ACDBDICTIONARYWDFLT
  5
622
102
{ACAD_REACTORS
330
C
102
}
330
C
100
AcDbDictionary
281
     1
  3
Normal
350
623
100
AcDbDictionaryWithDefault
340
623
1001
ACAD
1000
TREAT_AS_HARD
1070
     0
1000
TREAT_AS_HARD
1070
     0
1000
TREAT_AS_HARD
1070
     0
1000
TREAT_AS_HARD
1070
     0
  0
LAYOUT
  5
626
102
{ACAD_REACTORS
330
624
102
}
330
624
100
AcDbPlotSettings
  1

  2
Acrobat PDFWriter
  4
A3
  6

 40
7.143749713897705
 41
7.14375638961792
 42
7.143768310546875
 43
7.14373779296875
 44
297.1270751953125
 45
420.1583251953125
 46
0.0
 47
0.0
 48
0.0
 49
0.0
140
0.0
141
0.0
142
1.0
143
1.0
 70
 11952
 72
     1
 73
     1
 74
     0
  7
print.ctb
 75
    16
147
1.0
148
52.88505331185908
149
1.640883977900558
100
AcDbLayout
  1
Model
 70
     1
 71
     0
 10
0.0
 20
0.0
 11
12.0
 21
9.0
 12
0.0
 22
0.0
 32
0.0
 14
0.0
 24
0.0
 34
0.0
 15
0.0
 25
0.0
 35
0.0
146
0.0
 13
0.0
 23
0.0
 33
0.0
 16
1.0
 26
0.0
 36
0.0
 17
0.0
 27
1.0
 37
0.0
 76
     0
330
1A
  0
LAYOUT
  5
627
102
{ACAD_REACTORS
330
624
102
}
330
624
100
AcDbPlotSettings
  1

  2
EPSON PM-2000C
  4

  6

 40
0.0
 41
0.0
 42
0.0
 43
0.0
 44
0.0
 45
0.0
 46
0.0
 47
0.0
 48
0.0
 49
0.0
140
0.0
141
0.0
142
1.0
143
1.0
 70
   688
 72
     0
 73
     0
 74
     5
  7
print.ctb
 75
    16
147
1.0
148
0.0
149
0.0
100
AcDbLayout
  1
ﾚｲｱｳﾄ1
 70
     1
 71
     1
 10
0.0
 20
0.0
 11
420.0
 21
297.0
 12
0.0
 22
0.0
 32
0.0
 14
0.0
 24
0.0
 34
0.0
 15
420.0
 25
297.0
 35
0.0
146
0.0
 13
0.0
 23
0.0
 33
0.0
 16
1.0
 26
0.0
 36
0.0
 17
0.0
 27
1.0
 37
0.0
 76
     0
330
17
331
64
  0
MLINESTYLE
  5
13
102
{ACAD_REACTORS
330
E
102
}
330
E
100
AcDbMlineStyle
  2
STANDARD
 70
     0
  3

 62
     0
 51
90.0
 52
90.0
 71
     2
 49
0.5
 62
   256
  6
BYLAYER
 49
-0.5
 62
   256
  6
BYLAYER
  0
ACDBPLACEHOLDER
  5
623
102
{ACAD_REACTORS
330
622
102
}
330
622
  0
ENDSEC
  0
EOF
