  0
SECTION
  2
HEADER
  9
$ACADVER
  1
AC1014
  9
$ACADMAINTVER
 70
     9
  9
$DWGCODEPAGE
  3
ANSI_932
  9
$INSBASE
 10
0.0
 20
0.0
 30
0.0
  9
$EXTMIN
 10
1289.264991661019
 20
-851.453590012948
 30
-0.0015258207003583
  9
$EXTMAX
 10
2086.935605695562
 20
-299.742802833432
 30
0.0000000349246037
  9
$LIMMIN
 10
0.0
 20
0.0
  9
$LIMMAX
 10
840.0
 20
594.0
  9
$ORTHOMODE
 70
     0
  9
$REGENMODE
 70
     1
  9
$FILLMODE
 70
     1
  9
$QTEXTMODE
 70
     0
  9
$MIRRTEXT
 70
     1
  9
$DRAGMODE
 70
     2
  9
$LTSCALE
 40
2.0
  9
$OSMODE
 70
    37
  9
$ATTMODE
 70
     1
  9
$TEXTSIZE
 40
5.0
  9
$TRACEWID
 40
1.0
  9
$TEXTSTYLE
  7
STANDARD
  9
$CLAYER
  8
KEIJYO
  9
$CELTYPE
  6
BYLAYER
  9
$CECOLOR
 62
   256
  9
$CELTSCALE
 40
1.0
  9
$DELOBJ
 70
     1
  9
$DISPSILH
 70
     0
  9
$DIMSCALE
 40
1.0
  9
$DIMASZ
 40
7.0
  9
$DIMEXO
 40
6.0
  9
$DIMDLI
 40
14.0
  9
$DIMRND
 40
0.0
  9
$DIMDLE
 40
0.0
  9
$DIMEXE
 40
3.0
  9
$DIMTP
 40
0.0
  9
$DIMTM
 40
0.0
  9
$DIMTXT
 40
6.0
  9
$DIMCEN
 40
150.0
  9
$DIMTSZ
 40
0.0
  9
$DIMTOL
 70
     0
  9
$DIMLIM
 70
     0
  9
$DIMTIH
 70
     0
  9
$DIMTOH
 70
     0
  9
$DIMSE1
 70
     0
  9
$DIMSE2
 70
     0
  9
$DIMTAD
 70
     3
  9
$DIMZIN
 70
     0
  9
$DIMBLK
  1

  9
$DIMASO
 70
     1
  9
$DIMSHO
 70
     1
  9
$DIMPOST
  1

  9
$DIMAPOST
  1

  9
$DIMALT
 70
     0
  9
$DIMALTD
 70
     2
  9
$DIMALTF
 40
25.4
  9
$DIMLFAC
 40
1.0
  9
$DIMTOFL
 70
     1
  9
$DIMTVP
 40
0.0
  9
$DIMTIX
 70
     0
  9
$DIMSOXD
 70
     0
  9
$DIMSAH
 70
     1
  9
$DIMBLK1
  1
OPEN
  9
$DIMBLK2
  1
OPEN
  9
$DIMSTYLE
  2
STANDARD
  9
$DIMCLRD
 70
   256
  9
$DIMCLRE
 70
   256
  9
$DIMCLRT
 70
   256
  9
$DIMTFAC
 40
1.0
  9
$DIMGAP
 40
2.0
  9
$DIMJUST
 70
     0
  9
$DIMSD1
 70
     0
  9
$DIMSD2
 70
     0
  9
$DIMTOLJ
 70
     1
  9
$DIMTZIN
 70
     0
  9
$DIMALTZ
 70
     0
  9
$DIMALTTZ
 70
     0
  9
$DIMFIT
 70
     3
  9
$DIMUPT
 70
     0
  9
$DIMUNIT
 70
     2
  9
$DIMDEC
 70
     0
  9
$DIMTDEC
 70
     0
  9
$DIMALTU
 70
     2
  9
$DIMALTTD
 70
     2
  9
$DIMTXSTY
  7
STANDARD
  9
$DIMAUNIT
 70
     0
  9
$LUNITS
 70
     2
  9
$LUPREC
 70
     4
  9
$SKETCHINC
 40
1.0
  9
$FILLETRAD
 40
0.1
  9
$AUNITS
 70
     0
  9
$AUPREC
 70
     0
  9
$MENU
  1
.
  9
$ELEVATION
 40
0.0
  9
$PELEVATION
 40
0.0
  9
$THICKNESS
 40
0.0
  9
$LIMCHECK
 70
     0
  9
$BLIPMODE
 70
     0
  9
$CHAMFERA
 40
0.0
  9
$CHAMFERB
 40
0.0
  9
$CHAMFERC
 40
40.0
  9
$CHAMFERD
 40
0.0
  9
$SKPOLY
 70
     0
  9
$TDCREATE
 40
2451029.942521990
  9
$TDUPDATE
 40
2454484.373029734
  9
$TDINDWG
 40
0.2069277431
  9
$TDUSRTIMER
 40
0.2069271991
  9
$USRTIMER
 70
     1
  9
$ANGBASE
 50
0.0
  9
$ANGDIR
 70
     0
  9
$PDMODE
 70
     0
  9
$PDSIZE
 40
0.0
  9
$PLINEWID
 40
0.0
  9
$COORDS
 70
     1
  9
$SPLFRAME
 70
     0
  9
$SPLINETYPE
 70
     6
  9
$SPLINESEGS
 70
     8
  9
$ATTDIA
 70
     0
  9
$ATTREQ
 70
     1
  9
$HANDLING
 70
 10241
  9
$HANDSEED
  5
638B
  9
$SURFTAB1
 70
     6
  9
$SURFTAB2
 70
     6
  9
$SURFTYPE
 70
     6
  9
$SURFU
 70
     6
  9
$SURFV
 70
     6
  9
$UCSNAME
  2

  9
$UCSORG
 10
0.0
 20
0.0
 30
0.0
  9
$UCSXDIR
 10
1.0
 20
0.0
 30
0.0
  9
$UCSYDIR
 10
0.0
 20
1.0
 30
0.0
  9
$PUCSNAME
  2

  9
$PUCSORG
 10
0.0
 20
0.0
 30
0.0
  9
$PUCSXDIR
 10
1.0
 20
0.0
 30
0.0
  9
$PUCSYDIR
 10
0.0
 20
1.0
 30
0.0
  9
$USERI1
 70
     0
  9
$USERI2
 70
     0
  9
$USERI3
 70
     0
  9
$USERI4
 70
     0
  9
$USERI5
 70
     0
  9
$USERR1
 40
0.0
  9
$USERR2
 40
0.0
  9
$USERR3
 40
0.0
  9
$USERR4
 40
0.0
  9
$USERR5
 40
0.0
  9
$WORLDVIEW
 70
     1
  9
$SHADEDGE
 70
     3
  9
$SHADEDIF
 70
    70
  9
$TILEMODE
 70
     1
  9
$MAXACTVP
 70
    16
  9
$PINSBASE
 10
0.0
 20
0.0
 30
0.0
  9
$PLIMCHECK
 70
     0
  9
$PEXTMIN
 10
0.0
 20
0.0
 30
0.0
  9
$PEXTMAX
 10
420.0
 20
297.0
 30
0.0
  9
$PLIMMIN
 10
0.0
 20
0.0
  9
$PLIMMAX
 10
420.0
 20
297.0
  9
$UNITMODE
 70
     0
  9
$VISRETAIN
 70
     0
  9
$PLINEGEN
 70
     0
  9
$PSLTSCALE
 70
     1
  9
$TREEDEPTH
 70
  3020
  9
$PICKSTYLE
 70
     1
  9
$CMLSTYLE
  2
STANDARD
  9
$CMLJUST
 70
     0
  9
$CMLSCALE
 40
1.0
  9
$PROXYGRAPHICS
 70
     1
  9
$MEASUREMENT
 70
     1
  0
ENDSEC
  0
SECTION
  2
CLASSES
  0
CLASS
  1
ACDBDICTIONARYWDFLT
  2
AcDbDictionaryWithDefault
  3
AutoCAD 2000
 90
        0
280
     0
281
     0
  0
CLASS
  1
ACDBPLACEHOLDER
  2
AcDbPlaceHolder
  3
AutoCAD 2000
 90
        0
280
     0
281
     0
  0
CLASS
  1
LAYOUT
  2
AcDbLayout
  3
AutoCAD 2000
 90
        0
280
     0
281
     0
  0
CLASS
  1
LONG_TRANSACTION
  2
AcDbLongTransaction
  3
AutoCAD 2000
 90
        0
280
     0
281
     0
  0
CLASS
  1
LWPOLYLINE
  2
AcDbPolyline
  3
AutoCAD 2000
 90
        0
280
     0
281
     1
  0
CLASS
  1
HATCH
  2
AcDbHatch
  3
AutoCAD 2000
 90
        0
280
     0
281
     1
  0
CLASS
  1
XRECORD
  2
AcDbXrecord
  3
AutoCAD 2000
 90
        0
280
     0
281
     0
  0
CLASS
  1
LONG_TRANSACTION
  2
AcDbLongTransaction
  3
AutoCAD 2000
 90
        0
280
     0
281
     0
  0
CLASS
  1
LWPOLYLINE
  2
AcDbPolyline
  3
AutoCAD 2000
 90
        0
280
     0
281
     1
  0
CLASS
  1
HATCH
  2
AcDbHatch
  3
AutoCAD 2000
 90
        0
280
     0
281
     1
  0
CLASS
  1
XRECORD
  2
AcDbXrecord
  3
AutoCAD 2000
 90
        0
280
     0
281
     0
  0
CLASS
  1
LONG_TRANSACTION
  2
AcDbLongTransaction
  3
AutoCAD 2000
 90
        0
280
     0
281
     0
  0
CLASS
  1
LWPOLYLINE
  2
AcDbPolyline
  3
AutoCAD 2000
 90
        0
280
     0
281
     1
  0
CLASS
  1
HATCH
  2
AcDbHatch
  3
AutoCAD 2000
 90
        0
280
     0
281
     1
  0
CLASS
  1
XRECORD
  2
AcDbXrecord
  3
AutoCAD 2000
 90
        0
280
     0
281
     0
  0
CLASS
  1
LONG_TRANSACTION
  2
AcDbLongTransaction
  3
AutoCAD 2000
 90
        0
280
     0
281
     0
  0
CLASS
  1
LWPOLYLINE
  2
AcDbPolyline
  3
AutoCAD 2000
 90
        0
280
     0
281
     1
  0
CLASS
  1
HATCH
  2
AcDbHatch
  3
AutoCAD 2000
 90
        0
280
     0
281
     1
  0
CLASS
  1
XRECORD
  2
AcDbXrecord
  3
AutoCAD 2000
 90
        0
280
     0
281
     0
  0
CLASS
  1
LONG_TRANSACTION
  2
AcDbLongTransaction
  3
AutoCAD 2000
 90
        0
280
     0
281
     0
  0
CLASS
  1
LWPOLYLINE
  2
AcDbPolyline
  3
AutoCAD 2000
 90
        0
280
     0
281
     1
  0
CLASS
  1
HATCH
  2
AcDbHatch
  3
AutoCAD 2000
 90
        0
280
     0
281
     1
  0
CLASS
  1
XRECORD
  2
AcDbXrecord
  3
AutoCAD 2000
 90
        0
280
     0
281
     0
  0
CLASS
  1
LONG_TRANSACTION
  2
AcDbLongTransaction
  3
AutoCAD 2000
 90
        0
280
     0
281
     0
  0
CLASS
  1
LWPOLYLINE
  2
AcDbPolyline
  3
AutoCAD 2000
 90
        0
280
     0
281
     1
  0
CLASS
  1
HATCH
  2
AcDbHatch
  3
AutoCAD 2000
 90
        0
280
     0
281
     1
  0
CLASS
  1
XRECORD
  2
AcDbXrecord
  3
AutoCAD 2000
 90
        0
280
     0
281
     0
  0
CLASS
  1
LONG_TRANSACTION
  2
AcDbLongTransaction
  3
AutoCAD 2000
 90
        0
280
     0
281
     0
  0
CLASS
  1
LWPOLYLINE
  2
AcDbPolyline
  3
AutoCAD 2000
 90
        0
280
     0
281
     1
  0
CLASS
  1
HATCH
  2
AcDbHatch
  3
AutoCAD 2000
 90
        0
280
     0
281
     1
  0
CLASS
  1
XRECORD
  2
AcDbXrecord
  3
AutoCAD 2000
 90
        0
280
     0
281
     0
  0
CLASS
  1
LONG_TRANSACTION
  2
AcDbLongTransaction
  3
AutoCAD 2000
 90
        0
280
     0
281
     0
  0
CLASS
  1
LWPOLYLINE
  2
AcDbPolyline
  3
AutoCAD 2000
 90
        0
280
     0
281
     1
  0
CLASS
  1
HATCH
  2
AcDbHatch
  3
AutoCAD 2000
 90
        0
280
     0
281
     1
  0
CLASS
  1
XRECORD
  2
AcDbXrecord
  3
AutoCAD 2000
 90
        0
280
     0
281
     0
  0
CLASS
  1
LONG_TRANSACTION
  2
AcDbLongTransaction
  3
AutoCAD 2000
 90
        0
280
     0
281
     0
  0
CLASS
  1
LWPOLYLINE
  2
AcDbPolyline
  3
AutoCAD 2000
 90
        0
280
     0
281
     1
  0
CLASS
  1
HATCH
  2
AcDbHatch
  3
AutoCAD 2000
 90
        0
280
     0
281
     1
  0
CLASS
  1
XRECORD
  2
AcDbXrecord
  3
AutoCAD 2000
 90
        0
280
     0
281
     0
  0
CLASS
  1
LONG_TRANSACTION
  2
AcDbLongTransaction
  3
AutoCAD 2000
 90
        0
280
     0
281
     0
  0
CLASS
  1
LWPOLYLINE
  2
AcDbPolyline
  3
AutoCAD 2000
 90
        0
280
     0
281
     1
  0
CLASS
  1
HATCH
  2
AcDbHatch
  3
AutoCAD 2000
 90
        0
280
     0
281
     1
  0
CLASS
  1
XRECORD
  2
AcDbXrecord
  3
AutoCAD 2000
 90
        0
280
     0
281
     0
  0
CLASS
  1
LONG_TRANSACTION
  2
AcDbLongTransaction
  3
AutoCAD 2000
 90
        0
280
     0
281
     0
  0
CLASS
  1
LWPOLYLINE
  2
AcDbPolyline
  3
AutoCAD 2000
 90
        0
280
     0
281
     1
  0
CLASS
  1
HATCH
  2
AcDbHatch
  3
AutoCAD 2000
 90
        0
280
     0
281
     1
  0
CLASS
  1
XRECORD
  2
AcDbXrecord
  3
AutoCAD 2000
 90
        0
280
     0
281
     0
  0
ENDSEC
  0
SECTION
  2
TABLES
  0
TABLE
  2
VPORT
  5
8
330
0
100
AcDbSymbolTable
 70
     2
  0
VPORT
  5
6367
330
8
100
AcDbSymbolTableRecord
100
AcDbViewportTableRecord
  2
*ACTIVE
 70
     0
 10
0.0
 20
0.0
 11
1.0
 21
1.0
 12
1712.811841837743
 22
-562.1677263754979
 13
0.0
 23
0.0
 14
5.0
 24
5.0
 15
0.0
 25
0.0
 16
0.0
 26
0.0
 36
1.0
 17
0.0
 27
0.0
 37
0.0
 40
684.5647480946836
 41
1.570153061224489
 42
50.0
 43
0.0
 44
0.0
 50
0.0
 51
0.0
 71
     0
 72
   100
 73
     1
 74
     0
 75
     0
 76
     0
 77
     0
 78
     0
  0
ENDTAB
  0
TABLE
  2
LTYPE
  5
5
330
0
100
AcDbSymbolTable
 70
     2
  0
LTYPE
  5
14
330
5
100
AcDbSymbolTableRecord
100
AcDbLinetypeTableRecord
  2
BYBLOCK
 70
     0
  3

 72
    65
 73
     0
 40
0.0
  0
LTYPE
  5
15
330
5
100
AcDbSymbolTableRecord
100
AcDbLinetypeTableRecord
  2
BYLAYER
 70
     0
  3

 72
    65
 73
     0
 40
0.0
  0
LTYPE
  5
16
330
5
100
AcDbSymbolTableRecord
100
AcDbLinetypeTableRecord
  2
CONTINUOUS
 70
     0
  3
Solid line
 72
    65
 73
     0
 40
0.0
  0
LTYPE
  5
135
330
5
100
AcDbSymbolTableRecord
100
AcDbLinetypeTableRecord
  2
CENTER
 70
     0
  3
____ _ ____ _ ____ _ ____ _ ____ _ ____ _ ____ 
 72
    65
 73
     4
 40
2.0
 49
1.25
 74
     0
 49
-0.25
 74
     0
 49
0.25
 74
     0
 49
-0.25
 74
     0
  0
ENDTAB
  0
TABLE
  2
LAYER
  5
2
102
{ACAD_XDICTIONARY
360
4C3C
102
}
330
0
100
AcDbSymbolTable
 70
     9
  0
LAYER
  5
F
330
2
100
AcDbSymbolTableRecord
100
AcDbLayerTableRecord
  2
0
 70
     0
 62
     7
  6
CONTINUOUS
  0
LAYER
  5
62
330
2
100
AcDbSymbolTableRecord
100
AcDbLayerTableRecord
  2
VIEWPORT
 70
     0
 62
     7
  6
CONTINUOUS
  0
LAYER
  5
65
330
2
100
AcDbSymbolTableRecord
100
AcDbLayerTableRecord
  2
ZUWAKU
 70
     0
 62
     7
  6
CONTINUOUS
  0
LAYER
  5
145
330
2
100
AcDbSymbolTableRecord
100
AcDbLayerTableRecord
  2
SEIHIN
 70
     0
 62
     3
  6
CONTINUOUS
  0
LAYER
  5
146
330
2
100
AcDbSymbolTableRecord
100
AcDbLayerTableRecord
  2
SUNPOU
 70
     0
 62
     4
  6
CONTINUOUS
  0
LAYER
  5
381
330
2
100
AcDbSymbolTableRecord
100
AcDbLayerTableRecord
  2
DEFPOINTS
 70
     0
 62
     7
  6
CONTINUOUS
  0
LAYER
  5
3AB9
330
2
100
AcDbSymbolTableRecord
100
AcDbLayerTableRecord
  2
MOJI
 70
     0
 62
     2
  6
CONTINUOUS
  0
LAYER
  5
3D7D
330
2
100
AcDbSymbolTableRecord
100
AcDbLayerTableRecord
  2
CENTER_L
 70
     0
 62
     1
  6
CENTER
  0
LAYER
  5
4C3F
330
2
100
AcDbSymbolTableRecord
100
AcDbLayerTableRecord
  2
KEIJYO
 70
     0
 62
    -7
  6
CONTINUOUS
  0
ENDTAB
  0
TABLE
  2
STYLE
  5
3
330
0
100
AcDbSymbolTable
 70
     3
  0
STYLE
  5
10
330
3
100
AcDbSymbolTableRecord
100
AcDbTextStyleTableRecord
  2
STANDARD
 70
     0
 40
0.0
 41
1.0
 50
0.0
 71
     0
 42
5.0
  3
TXT
  4
bigfont.shx
  0
STYLE
  5
3ABA
330
3
100
AcDbSymbolTableRecord
100
AcDbTextStyleTableRecord
  2
ｽﾀｲﾙ1
 70
     0
 40
0.0
 41
1.0
 50
0.0
 71
     0
 42
2.5
  3
MS PGothic.ttf
  4

1001
ACAD
1000
MS PGothic
1071
    32818
  0
STYLE
  5
4304
330
3
100
AcDbSymbolTableRecord
100
AcDbTextStyleTableRecord
  2
GO
 70
     0
 40
0.0
 41
1.0
 50
0.0
 71
     0
 42
3.0
  3
MS Gothic.ttf
  4

1001
ACAD
1000
MS Gothic
1071
    32817
  0
ENDTAB
  0
TABLE
  2
VIEW
  5
6
330
0
100
AcDbSymbolTable
 70
     0
  0
ENDTAB
  0
TABLE
  2
UCS
  5
7
330
0
100
AcDbSymbolTable
 70
     0
  0
ENDTAB
  0
TABLE
  2
APPID
  5
9
330
0
100
AcDbSymbolTable
 70
     1
  0
APPID
  5
11
330
9
100
AcDbSymbolTableRecord
100
AcDbRegAppTableRecord
  2
ACAD
 70
     0
  0
ENDTAB
  0
TABLE
  2
DIMSTYLE
  5
A
330
0
100
AcDbSymbolTable
 70
     1
  0
DIMSTYLE
105
1D
102
{ACAD_REACTORS
330
5F45
330
5F46
330
5F47
330
5F48
330
5F52
330
602C
330
602D
330
602E
330
602F
330
6038
330
6039
330
603F
330
6054
330
60F0
330
60FE
102
}
330
A
100
AcDbSymbolTableRecord
100
AcDbDimStyleTableRecord
  2
STANDARD
 70
     0
  3

  4

  5

  6

  7

 40
1.0
 41
0.18
 42
0.0625
 43
0.38
 44
0.18
 45
0.0
 46
0.0
 47
0.0
 48
0.0
140
0.18
141
0.09
142
0.0
143
25.4
144
1.0
145
0.0
146
1.0
147
0.09
 71
     0
 72
     0
 73
     1
 74
     1
 75
     0
 76
     0
 77
     0
 78
     0
170
     0
171
     2
172
     0
173
     0
174
     0
175
     0
176
     0
177
     0
178
     0
270
     2
271
     4
272
     4
273
     2
274
     2
340
10
275
     0
280
     0
281
     0
282
     0
283
     1
284
     0
285
     0
286
     0
287
     3
288
     0
  0
ENDTAB
  0
TABLE
  2
BLOCK_RECORD
  5
1
330
0
100
AcDbSymbolTable
 70
    32
  0
BLOCK_RECORD
  5
1A
102
{ACAD_XDICTIONARY
360
88E
102
}
330
1
100
AcDbSymbolTableRecord
100
AcDbBlockTableRecord
  2
*MODEL_SPACE
  0
BLOCK_RECORD
  5
17
102
{ACAD_XDICTIONARY
360
88C
102
}
330
1
100
AcDbSymbolTableRecord
100
AcDbBlockTableRecord
  2
*PAPER_SPACE
  0
BLOCK_RECORD
  5
6D
330
1
100
AcDbSymbolTableRecord
100
AcDbBlockTableRecord
  2
_OPEN
  0
BLOCK_RECORD
  5
5476
330
1
100
AcDbSymbolTableRecord
100
AcDbBlockTableRecord
  2
*D1
  0
BLOCK_RECORD
  5
5482
330
1
100
AcDbSymbolTableRecord
100
AcDbBlockTableRecord
  2
*D2
  0
BLOCK_RECORD
  5
5490
330
1
100
AcDbSymbolTableRecord
100
AcDbBlockTableRecord
  2
*D3
  0
BLOCK_RECORD
  5
549C
330
1
100
AcDbSymbolTableRecord
100
AcDbBlockTableRecord
  2
*D4
  0
BLOCK_RECORD
  5
54A8
330
1
100
AcDbSymbolTableRecord
100
AcDbBlockTableRecord
  2
*D5
  0
BLOCK_RECORD
  5
54B4
330
1
100
AcDbSymbolTableRecord
100
AcDbBlockTableRecord
  2
*D6
  0
BLOCK_RECORD
  5
54C2
330
1
100
AcDbSymbolTableRecord
100
AcDbBlockTableRecord
  2
*D7
  0
BLOCK_RECORD
  5
54D0
330
1
100
AcDbSymbolTableRecord
100
AcDbBlockTableRecord
  2
*D8
  0
BLOCK_RECORD
  5
54DC
330
1
100
AcDbSymbolTableRecord
100
AcDbBlockTableRecord
  2
*D9
  0
BLOCK_RECORD
  5
54E8
330
1
100
AcDbSymbolTableRecord
100
AcDbBlockTableRecord
  2
*D10
  0
BLOCK_RECORD
  5
54F4
330
1
100
AcDbSymbolTableRecord
100
AcDbBlockTableRecord
  2
*D11
  0
BLOCK_RECORD
  5
5500
330
1
100
AcDbSymbolTableRecord
100
AcDbBlockTableRecord
  2
*D12
  0
BLOCK_RECORD
  5
550C
330
1
100
AcDbSymbolTableRecord
100
AcDbBlockTableRecord
  2
*D13
  0
BLOCK_RECORD
  5
551A
330
1
100
AcDbSymbolTableRecord
100
AcDbBlockTableRecord
  2
*D14
  0
BLOCK_RECORD
  5
5526
330
1
100
AcDbSymbolTableRecord
100
AcDbBlockTableRecord
  2
*D15
  0
BLOCK_RECORD
  5
5532
330
1
100
AcDbSymbolTableRecord
100
AcDbBlockTableRecord
  2
A$C3897793F
  0
BLOCK_RECORD
  5
6134
330
1
100
AcDbSymbolTableRecord
100
AcDbBlockTableRecord
  2
*D17
  0
BLOCK_RECORD
  5
6140
330
1
100
AcDbSymbolTableRecord
100
AcDbBlockTableRecord
  2
*D18
  0
BLOCK_RECORD
  5
614E
330
1
100
AcDbSymbolTableRecord
100
AcDbBlockTableRecord
  2
*D19
  0
BLOCK_RECORD
  5
615A
330
1
100
AcDbSymbolTableRecord
100
AcDbBlockTableRecord
  2
*D20
  0
BLOCK_RECORD
  5
6166
330
1
100
AcDbSymbolTableRecord
100
AcDbBlockTableRecord
  2
*D21
  0
BLOCK_RECORD
  5
6172
330
1
100
AcDbSymbolTableRecord
100
AcDbBlockTableRecord
  2
*D22
  0
BLOCK_RECORD
  5
617E
330
1
100
AcDbSymbolTableRecord
100
AcDbBlockTableRecord
  2
*D23
  0
BLOCK_RECORD
  5
618A
330
1
100
AcDbSymbolTableRecord
100
AcDbBlockTableRecord
  2
*D24
  0
BLOCK_RECORD
  5
6198
330
1
100
AcDbSymbolTableRecord
100
AcDbBlockTableRecord
  2
*D25
  0
BLOCK_RECORD
  5
61A4
330
1
100
AcDbSymbolTableRecord
100
AcDbBlockTableRecord
  2
*D26
  0
BLOCK_RECORD
  5
61B2
330
1
100
AcDbSymbolTableRecord
100
AcDbBlockTableRecord
  2
*D27
  0
BLOCK_RECORD
  5
61BE
330
1
100
AcDbSymbolTableRecord
100
AcDbBlockTableRecord
  2
*D28
  0
BLOCK_RECORD
  5
61CC
330
1
100
AcDbSymbolTableRecord
100
AcDbBlockTableRecord
  2
*D29
  0
BLOCK_RECORD
  5
61D8
330
1
100
AcDbSymbolTableRecord
100
AcDbBlockTableRecord
  2
*D30
  0
BLOCK_RECORD
  5
61E4
330
1
100
AcDbSymbolTableRecord
100
AcDbBlockTableRecord
  2
*D31
  0
ENDTAB
  0
ENDSEC
  0
SECTION
  2
BLOCKS
  0
BLOCK
  5
1B
330
1A
100
AcDbEntity
  8
0
100
AcDbBlockBegin
  2
*MODEL_SPACE
 70
     0
 10
0.0
 20
0.0
 30
0.0
  3
*MODEL_SPACE
  1

  0
ENDBLK
  5
1C
330
1A
100
AcDbEntity
  8
0
100
AcDbBlockEnd
  0
BLOCK
  5
18
330
17
100
AcDbEntity
 67
     1
  8
0
100
AcDbBlockBegin
  2
*PAPER_SPACE
 70
     0
 10
0.0
 20
0.0
 30
0.0
  3
*PAPER_SPACE
  1

  0
ENDBLK
  5
19
330
17
100
AcDbEntity
 67
     1
  8
0
100
AcDbBlockEnd
  0
BLOCK
  5
6E
330
6D
100
AcDbEntity
  8
0
100
AcDbBlockBegin
  2
_OPEN
 70
     0
 10
0.0
 20
0.0
 30
0.0
  3
_OPEN
  1

  0
LINE
  5
6F
330
6D
100
AcDbEntity
  8
0
  6
BYBLOCK
 62
     0
100
AcDbLine
 10
-1.0
 20
0.1666666666666666
 30
0.0
 11
0.0
 21
0.0
 31
0.0
  0
LINE
  5
70
330
6D
100
AcDbEntity
  8
0
  6
BYBLOCK
 62
     0
100
AcDbLine
 10
0.0
 20
0.0
 30
0.0
 11
-1.0
 21
-0.1666666666666666
 31
0.0
  0
LINE
  5
71
330
6D
100
AcDbEntity
  8
0
  6
BYBLOCK
 62
     0
100
AcDbLine
 10
0.0
 20
0.0
 30
0.0
 11
-1.0
 21
0.0
 31
0.0
  0
ENDBLK
  5
72
330
6D
100
AcDbEntity
  8
0
100
AcDbBlockEnd
  0
BLOCK
  5
5480
330
5476
100
AcDbEntity
  8
0
100
AcDbBlockBegin
  2
*D1
 70
     1
 10
0.0
 20
0.0
 30
0.0
  3
*D1
  1

  0
LINE
  5
5477
330
5476
100
AcDbEntity
  8
SUNPOU
100
AcDbLine
 10
379.894771355498
 20
426.6949193041482
 30
0.0
 11
399.4368932902962
 21
426.6949193041482
 31
0.0
  0
LINE
  5
5478
330
5476
100
AcDbEntity
  8
SUNPOU
100
AcDbLine
 10
379.894771355498
 20
346.6949193041482
 30
0.0
 11
399.4368932902962
 21
346.6949193041482
 31
0.0
  0
LINE
  5
5479
330
5476
100
AcDbEntity
  8
SUNPOU
100
AcDbLine
 10
396.4368932902962
 20
419.6949193041482
 30
0.0
 11
396.4368932902962
 21
353.6949193041482
 31
0.0
  0
INSERT
  5
547A
330
5476
100
AcDbEntity
  8
SUNPOU
100
AcDbBlockReference
  2
_OPEN
 10
396.4368932902962
 20
426.6949193041482
 30
0.0
 41
7.0
 42
7.0
 43
7.0
 50
90.0
  0
INSERT
  5
547B
330
5476
100
AcDbEntity
  8
SUNPOU
100
AcDbBlockReference
  2
_OPEN
 10
396.4368932902962
 20
346.6949193041482
 30
0.0
 41
7.0
 42
7.0
 43
7.0
 50
270.0
  0
MTEXT
  5
547C
330
5476
100
AcDbEntity
  8
SUNPOU
100
AcDbMText
 10
391.4368932902961
 20
386.6949193041483
 30
0.0
 40
6.0
 41
0.0
 71
     5
 72
     1
  1
\A1;80
 11
0.0000000000000001
 21
1.0
 31
0.0
1001
ACAD
1000
MTEXTBEGIN
1070
    73
1070
     1
1070
    44
1040
1.0
1070
    74
1070
     0
1000
MTEXTEND
  0
POINT
  5
547D
330
5476
100
AcDbEntity
  8
DEFPOINTS
 62
     0
100
AcDbPoint
 10
373.894771355498
 20
426.6949193041482
 30
0.0
  0
POINT
  5
547E
330
5476
100
AcDbEntity
  8
DEFPOINTS
 62
     0
100
AcDbPoint
 10
373.894771355498
 20
346.6949193041482
 30
0.0
  0
POINT
  5
547F
330
5476
100
AcDbEntity
  8
DEFPOINTS
 62
     0
100
AcDbPoint
 10
396.4368932902962
 20
346.6949193041482
 30
0.0
  0
ENDBLK
  5
5481
330
5476
100
AcDbEntity
  8
0
100
AcDbBlockEnd
  0
BLOCK
  5
548E
330
5482
100
AcDbEntity
  8
0
100
AcDbBlockBegin
  2
*D2
 70
     1
 10
0.0
 20
0.0
 30
0.0
  3
*D2
  1

  0
LINE
  5
5483
330
5482
100
AcDbEntity
  8
SUNPOU
100
AcDbLine
 10
373.894771355498
 20
282.9881724091483
 30
0.0
 11
373.894771355498
 21
305.9991344930618
 31
0.0
  0
LINE
  5
5484
330
5482
100
AcDbEntity
  8
SUNPOU
100
AcDbLine
 10
364.1022811408979
 20
279.6887668230482
 30
0.0
 11
364.1022811408979
 21
305.9991344930618
 31
0.0
  0
LINE
  5
5485
330
5482
100
AcDbEntity
  8
SUNPOU
100
AcDbLine
 10
380.894771355498
 20
302.9991344930619
 30
0.0
 11
387.894771355498
 21
302.9991344930619
 31
0.0
  0
LINE
  5
5486
330
5482
100
AcDbEntity
  8
SUNPOU
100
AcDbLine
 10
357.1022811408979
 20
302.9991344930619
 30
0.0
 11
339.1022811408979
 21
302.9991344930619
 31
0.0
  0
LINE
  5
5487
330
5482
100
AcDbEntity
  8
SUNPOU
100
AcDbLine
 10
373.894771355498
 20
302.9991344930619
 30
0.0
 11
364.1022811408979
 21
302.9991344930619
 31
0.0
  0
INSERT
  5
5488
330
5482
100
AcDbEntity
  8
SUNPOU
100
AcDbBlockReference
  2
_OPEN
 10
373.894771355498
 20
302.9991344930619
 30
0.0
 41
7.0
 42
7.0
 43
7.0
 50
180.0
  0
INSERT
  5
5489
330
5482
100
AcDbEntity
  8
SUNPOU
100
AcDbBlockReference
  2
_OPEN
 10
364.1022811408979
 20
302.9991344930619
 30
0.0
 41
7.0
 42
7.0
 43
7.0
  0
MTEXT
  5
548A
330
5482
100
AcDbEntity
  8
SUNPOU
100
AcDbMText
 10
344.6022811408979
 20
307.9991344930618
 30
0.0
 40
6.0
 41
0.0
 71
     5
 72
     1
  1
\A1;10
1001
ACAD
1000
MTEXTBEGIN
1070
    73
1070
     1
1070
    44
1040
1.0
1070
    74
1070
     0
1000
MTEXTEND
  0
POINT
  5
548B
330
5482
100
AcDbEntity
  8
DEFPOINTS
 62
     0
100
AcDbPoint
 10
373.894771355498
 20
276.9881724091483
 30
0.0
  0
POINT
  5
548C
330
5482
100
AcDbEntity
  8
DEFPOINTS
 62
     0
100
AcDbPoint
 10
364.1022811408979
 20
273.6887668230483
 30
0.0
  0
POINT
  5
548D
330
5482
100
AcDbEntity
  8
DEFPOINTS
 62
     0
100
AcDbPoint
 10
364.1022811408979
 20
302.9991344930619
 30
0.0
  0
ENDBLK
  5
548F
330
5482
100
AcDbEntity
  8
0
100
AcDbBlockEnd
  0
BLOCK
  5
549A
330
5490
100
AcDbEntity
  8
0
100
AcDbBlockBegin
  2
*D3
 70
     1
 10
0.0
 20
0.0
 30
0.0
  3
*D3
  1

  0
LINE
  5
5491
330
5490
100
AcDbEntity
  8
SUNPOU
100
AcDbLine
 10
373.894771355498
 20
282.9881724091483
 30
0.0
 11
373.894771355498
 21
321.8559367111044
 31
0.0
  0
LINE
  5
5492
330
5490
100
AcDbEntity
  8
SUNPOU
100
AcDbLine
 10
229.2948376349636
 20
276.0082597296575
 30
0.0
 11
229.2948376349636
 21
321.8559367111044
 31
0.0
  0
LINE
  5
5493
330
5490
100
AcDbEntity
  8
SUNPOU
100
AcDbLine
 10
366.894771355498
 20
318.8559367111043
 30
0.0
 11
236.2948376349636
 21
318.8559367111043
 31
0.0
  0
INSERT
  5
5494
330
5490
100
AcDbEntity
  8
SUNPOU
100
AcDbBlockReference
  2
_OPEN
 10
373.894771355498
 20
318.8559367111043
 30
0.0
 41
7.0
 42
7.0
 43
7.0
  0
INSERT
  5
5495
330
5490
100
AcDbEntity
  8
SUNPOU
100
AcDbBlockReference
  2
_OPEN
 10
229.2948376349636
 20
318.8559367111043
 30
0.0
 41
7.0
 42
7.0
 43
7.0
 50
180.0
  0
MTEXT
  5
5496
330
5490
100
AcDbEntity
  8
SUNPOU
100
AcDbMText
 10
301.5948044952308
 20
323.8559367111044
 30
0.0
 40
6.0
 41
0.0
 71
     5
 72
     1
  1
\A1;145
1001
ACAD
1000
MTEXTBEGIN
1070
    73
1070
     1
1070
    44
1040
1.0
1070
    74
1070
     0
1000
MTEXTEND
  0
POINT
  5
5497
330
5490
100
AcDbEntity
  8
DEFPOINTS
 62
     0
100
AcDbPoint
 10
373.894771355498
 20
276.9881724091483
 30
0.0
  0
POINT
  5
5498
330
5490
100
AcDbEntity
  8
DEFPOINTS
 62
     0
100
AcDbPoint
 10
229.2948376349636
 20
270.0082597296574
 30
0.0
  0
POINT
  5
5499
330
5490
100
AcDbEntity
  8
DEFPOINTS
 62
     0
100
AcDbPoint
 10
229.2948376349636
 20
318.8559367111043
 30
0.0
  0
ENDBLK
  5
549B
330
5490
100
AcDbEntity
  8
0
100
AcDbBlockEnd
  0
BLOCK
  5
54A6
330
549C
100
AcDbEntity
  8
0
100
AcDbBlockBegin
  2
*D4
 70
     1
 10
0.0
 20
0.0
 30
0.0
  3
*D4
  1

  0
LINE
  5
549D
330
549C
100
AcDbEntity
  8
SUNPOU
100
AcDbLine
 10
227.9228050667979
 20
276.2881724091482
 30
0.0
 11
204.493023810216
 21
276.2881724091482
 31
0.0
  0
LINE
  5
549E
330
549C
100
AcDbEntity
  8
SUNPOU
100
AcDbLine
 10
360.894771355498
 20
199.2881724091483
 30
0.0
 11
204.493023810216
 21
199.2881724091483
 31
0.0
  0
LINE
  5
549F
330
549C
100
AcDbEntity
  8
SUNPOU
100
AcDbLine
 10
207.493023810216
 20
269.2881724091482
 30
0.0
 11
207.493023810216
 21
206.2881724091483
 31
0.0
  0
INSERT
  5
54A0
330
549C
100
AcDbEntity
  8
SUNPOU
100
AcDbBlockReference
  2
_OPEN
 10
207.493023810216
 20
276.2881724091482
 30
0.0
 41
7.0
 42
7.0
 43
7.0
 50
90.0
  0
INSERT
  5
54A1
330
549C
100
AcDbEntity
  8
SUNPOU
100
AcDbBlockReference
  2
_OPEN
 10
207.493023810216
 20
199.2881724091483
 30
0.0
 41
7.0
 42
7.0
 43
7.0
 50
270.0
  0
MTEXT
  5
54A2
330
549C
100
AcDbEntity
  8
SUNPOU
100
AcDbMText
 10
202.493023810216
 20
237.7881724091483
 30
0.0
 40
6.0
 41
0.0
 71
     5
 72
     1
  1
\A1;77
 11
0.0000000000000001
 21
1.0
 31
0.0
1001
ACAD
1000
MTEXTBEGIN
1070
    73
1070
     1
1070
    44
1040
1.0
1070
    74
1070
     0
1000
MTEXTEND
  0
POINT
  5
54A3
330
549C
100
AcDbEntity
  8
DEFPOINTS
 62
     0
100
AcDbPoint
 10
233.9228050667979
 20
276.2881724091482
 30
0.0
  0
POINT
  5
54A4
330
549C
100
AcDbEntity
  8
DEFPOINTS
 62
     0
100
AcDbPoint
 10
366.894771355498
 20
199.2881724091483
 30
0.0
  0
POINT
  5
54A5
330
549C
100
AcDbEntity
  8
DEFPOINTS
 62
     0
100
AcDbPoint
 10
207.493023810216
 20
199.2881724091483
 30
0.0
  0
ENDBLK
  5
54A7
330
549C
100
AcDbEntity
  8
0
100
AcDbBlockEnd
  0
BLOCK
  5
54B2
330
54A8
100
AcDbEntity
  8
0
100
AcDbBlockBegin
  2
*D5
 70
     1
 10
0.0
 20
0.0
 30
0.0
  3
*D5
  1

  0
LINE
  5
54A9
330
54A8
100
AcDbEntity
  8
SUNPOU
100
AcDbLine
 10
379.894771355498
 20
276.9881724091483
 30
0.0
 11
416.2815774688024
 21
276.9881724091482
 31
0.0
  0
LINE
  5
54AA
330
54A8
100
AcDbEntity
  8
SUNPOU
100
AcDbLine
 10
374.894771355498
 20
199.2881724091483
 30
0.0
 11
416.2815774688024
 21
199.2881724091483
 31
0.0
  0
LINE
  5
54AB
330
54A8
100
AcDbEntity
  8
SUNPOU
100
AcDbLine
 10
413.2815774688024
 20
269.9881724091482
 30
0.0
 11
413.2815774688024
 21
206.2881724091483
 31
0.0
  0
INSERT
  5
54AC
330
54A8
100
AcDbEntity
  8
SUNPOU
100
AcDbBlockReference
  2
_OPEN
 10
413.2815774688024
 20
276.9881724091482
 30
0.0
 41
7.0
 42
7.0
 43
7.0
 50
90.0
  0
INSERT
  5
54AD
330
54A8
100
AcDbEntity
  8
SUNPOU
100
AcDbBlockReference
  2
_OPEN
 10
413.2815774688024
 20
199.2881724091483
 30
0.0
 41
7.0
 42
7.0
 43
7.0
 50
270.0
  0
MTEXT
  5
54AE
330
54A8
100
AcDbEntity
  8
SUNPOU
100
AcDbMText
 10
408.2815774688024
 20
238.1381724091483
 30
0.0
 40
6.0
 41
0.0
 71
     5
 72
     1
  1
\A1;78
 11
0.0000000000000001
 21
1.0
 31
0.0
1001
ACAD
1000
MTEXTBEGIN
1070
    73
1070
     1
1070
    44
1040
1.0
1070
    74
1070
     0
1000
MTEXTEND
  0
POINT
  5
54AF
330
54A8
100
AcDbEntity
  8
DEFPOINTS
 62
     0
100
AcDbPoint
 10
373.894771355498
 20
276.9881724091483
 30
0.0
  0
POINT
  5
54B0
330
54A8
100
AcDbEntity
  8
DEFPOINTS
 62
     0
100
AcDbPoint
 10
368.894771355498
 20
199.2881724091483
 30
0.0
  0
POINT
  5
54B1
330
54A8
100
AcDbEntity
  8
DEFPOINTS
 62
     0
100
AcDbPoint
 10
413.2815774688024
 20
199.2881724091483
 30
0.0
  0
ENDBLK
  5
54B3
330
54A8
100
AcDbEntity
  8
0
100
AcDbBlockEnd
  0
BLOCK
  5
54C0
330
54B4
100
AcDbEntity
  8
0
100
AcDbBlockBegin
  2
*D6
 70
     1
 10
0.0
 20
0.0
 30
0.0
  3
*D6
  1

  0
LINE
  5
54B5
330
54B4
100
AcDbEntity
  8
SUNPOU
100
AcDbLine
 10
373.894771355498
 20
197.2881724091482
 30
0.0
 11
373.894771355498
 21
171.6044320219968
 31
0.0
  0
LINE
  5
54B6
330
54B4
100
AcDbEntity
  8
SUNPOU
100
AcDbLine
 10
366.894771355498
 20
193.6245615747482
 30
0.0
 11
366.894771355498
 21
171.6044320219968
 31
0.0
  0
LINE
  5
54B7
330
54B4
100
AcDbEntity
  8
SUNPOU
100
AcDbLine
 10
380.894771355498
 20
174.6044320219968
 30
0.0
 11
387.894771355498
 21
174.6044320219968
 31
0.0
  0
LINE
  5
54B8
330
54B4
100
AcDbEntity
  8
SUNPOU
100
AcDbLine
 10
359.894771355498
 20
174.6044320219968
 30
0.0
 11
344.894771355498
 21
174.6044320219968
 31
0.0
  0
LINE
  5
54B9
330
54B4
100
AcDbEntity
  8
SUNPOU
100
AcDbLine
 10
373.894771355498
 20
174.6044320219968
 30
0.0
 11
366.894771355498
 21
174.6044320219968
 31
0.0
  0
INSERT
  5
54BA
330
54B4
100
AcDbEntity
  8
SUNPOU
100
AcDbBlockReference
  2
_OPEN
 10
373.894771355498
 20
174.6044320219968
 30
0.0
 41
7.0
 42
7.0
 43
7.0
 50
180.0
  0
INSERT
  5
54BB
330
54B4
100
AcDbEntity
  8
SUNPOU
100
AcDbBlockReference
  2
_OPEN
 10
366.894771355498
 20
174.6044320219968
 30
0.0
 41
7.0
 42
7.0
 43
7.0
  0
MTEXT
  5
54BC
330
54B4
100
AcDbEntity
  8
SUNPOU
100
AcDbMText
 10
348.894771355498
 20
179.6044320219968
 30
0.0
 40
6.0
 41
0.0
 71
     5
 72
     1
  1
\A1;7
1001
ACAD
1000
MTEXTBEGIN
1070
    73
1070
     1
1070
    44
1040
1.0
1070
    74
1070
     0
1000
MTEXTEND
  0
POINT
  5
54BD
330
54B4
100
AcDbEntity
  8
DEFPOINTS
 62
     0
100
AcDbPoint
 10
373.894771355498
 20
203.2881724091482
 30
0.0
  0
POINT
  5
54BE
330
54B4
100
AcDbEntity
  8
DEFPOINTS
 62
     0
100
AcDbPoint
 10
366.894771355498
 20
199.6245615747483
 30
0.0
  0
POINT
  5
54BF
330
54B4
100
AcDbEntity
  8
DEFPOINTS
 62
     0
100
AcDbPoint
 10
366.894771355498
 20
174.6044320219968
 30
0.0
  0
ENDBLK
  5
54C1
330
54B4
100
AcDbEntity
  8
0
100
AcDbBlockEnd
  0
BLOCK
  5
54CE
330
54C2
100
AcDbEntity
  8
0
100
AcDbBlockBegin
  2
*D7
 70
     1
 10
0.0
 20
0.0
 30
0.0
  3
*D7
  1

  0
LINE
  5
54C3
330
54C2
100
AcDbEntity
  8
SUNPOU
100
AcDbLine
 10
386.894771355498
 20
207.2881724091483
 30
0.0
 11
399.4368932902959
 21
207.2881724091483
 31
0.0
  0
LINE
  5
54C4
330
54C2
100
AcDbEntity
  8
SUNPOU
100
AcDbLine
 10
374.894771355498
 20
199.2881724091483
 30
0.0
 11
399.4368932902959
 21
199.2881724091483
 31
0.0
  0
LINE
  5
54C5
330
54C2
100
AcDbEntity
  8
SUNPOU
100
AcDbLine
 10
396.436893290296
 20
214.2881724091483
 30
0.0
 11
396.436893290296
 21
221.2881724091483
 31
0.0
  0
LINE
  5
54C6
330
54C2
100
AcDbEntity
  8
SUNPOU
100
AcDbLine
 10
396.436893290296
 20
192.2881724091483
 30
0.0
 11
396.436893290296
 21
185.2881724091482
 31
0.0
  0
LINE
  5
54C7
330
54C2
100
AcDbEntity
  8
SUNPOU
100
AcDbLine
 10
396.436893290296
 20
207.2881724091483
 30
0.0
 11
396.436893290296
 21
199.2881724091483
 31
0.0
  0
INSERT
  5
54C8
330
54C2
100
AcDbEntity
  8
SUNPOU
100
AcDbBlockReference
  2
_OPEN
 10
396.436893290296
 20
207.2881724091483
 30
0.0
 41
7.0
 42
7.0
 43
7.0
 50
270.0
  0
INSERT
  5
54C9
330
54C2
100
AcDbEntity
  8
SUNPOU
100
AcDbBlockReference
  2
_OPEN
 10
396.436893290296
 20
199.2881724091483
 30
0.0
 41
7.0
 42
7.0
 43
7.0
 50
90.0
  0
MTEXT
  5
54CA
330
54C2
100
AcDbEntity
  8
SUNPOU
100
AcDbMText
 10
391.4368932902959
 20
203.2881724091483
 30
0.0
 40
6.0
 41
0.0
 71
     5
 72
     1
  1
\A1;8
 11
0.0000000000000001
 21
1.0
 31
0.0
1001
ACAD
1000
MTEXTBEGIN
1070
    73
1070
     1
1070
    44
1040
1.0
1070
    74
1070
     0
1000
MTEXTEND
  0
POINT
  5
54CB
330
54C2
100
AcDbEntity
  8
DEFPOINTS
 62
     0
100
AcDbPoint
 10
380.894771355498
 20
207.2881724091483
 30
0.0
  0
POINT
  5
54CC
330
54C2
100
AcDbEntity
  8
DEFPOINTS
 62
     0
100
AcDbPoint
 10
368.894771355498
 20
199.2881724091483
 30
0.0
  0
POINT
  5
54CD
330
54C2
100
AcDbEntity
  8
DEFPOINTS
 62
     0
100
AcDbPoint
 10
396.436893290296
 20
199.2881724091483
 30
0.0
  0
ENDBLK
  5
54CF
330
54C2
100
AcDbEntity
  8
0
100
AcDbBlockEnd
  0
BLOCK
  5
54DA
330
54D0
100
AcDbEntity
  8
0
100
AcDbBlockBegin
  2
*D8
 70
     1
 10
0.0
 20
0.0
 30
0.0
  3
*D8
  1

  0
LINE
  5
54D1
330
54D0
100
AcDbEntity
  8
SUNPOU
100
AcDbLine
 10
379.894771355498
 20
276.9881724091483
 30
0.0
 11
399.4368932902959
 21
276.9881724091482
 31
0.0
  0
LINE
  5
54D2
330
54D0
100
AcDbEntity
  8
SUNPOU
100
AcDbLine
 10
386.894771355498
 20
257.2881724091482
 30
0.0
 11
399.4368932902959
 21
257.2881724091482
 31
0.0
  0
LINE
  5
54D3
330
54D0
100
AcDbEntity
  8
SUNPOU
100
AcDbLine
 10
396.436893290296
 20
269.9881724091482
 30
0.0
 11
396.436893290296
 21
264.2881724091482
 31
0.0
  0
INSERT
  5
54D4
330
54D0
100
AcDbEntity
  8
SUNPOU
100
AcDbBlockReference
  2
_OPEN
 10
396.436893290296
 20
276.9881724091482
 30
0.0
 41
7.0
 42
7.0
 43
7.0
 50
90.0
  0
INSERT
  5
54D5
330
54D0
100
AcDbEntity
  8
SUNPOU
100
AcDbBlockReference
  2
_OPEN
 10
396.436893290296
 20
257.2881724091482
 30
0.0
 41
7.0
 42
7.0
 43
7.0
 50
270.0
  0
MTEXT
  5
54D6
330
54D0
100
AcDbEntity
  8
SUNPOU
100
AcDbMText
 10
391.4368932902959
 20
267.1381724091483
 30
0.0
 40
6.0
 41
0.0
 71
     5
 72
     1
  1
\A1;20
 11
0.0000000000000001
 21
1.0
 31
0.0
1001
ACAD
1000
MTEXTBEGIN
1070
    73
1070
     1
1070
    44
1040
1.0
1070
    74
1070
     0
1000
MTEXTEND
  0
POINT
  5
54D7
330
54D0
100
AcDbEntity
  8
DEFPOINTS
 62
     0
100
AcDbPoint
 10
373.894771355498
 20
276.9881724091483
 30
0.0
  0
POINT
  5
54D8
330
54D0
100
AcDbEntity
  8
DEFPOINTS
 62
     0
100
AcDbPoint
 10
380.894771355498
 20
257.2881724091482
 30
0.0
  0
POINT
  5
54D9
330
54D0
100
AcDbEntity
  8
DEFPOINTS
 62
     0
100
AcDbPoint
 10
396.436893290296
 20
257.2881724091482
 30
0.0
  0
ENDBLK
  5
54DB
330
54D0
100
AcDbEntity
  8
0
100
AcDbBlockEnd
  0
BLOCK
  5
54E6
330
54DC
100
AcDbEntity
  8
0
100
AcDbBlockBegin
  2
*D9
 70
     1
 10
0.0
 20
0.0
 30
0.0
  3
*D9
  1

  0
LINE
  5
54DD
330
54DC
100
AcDbEntity
  8
SUNPOU
100
AcDbLine
 10
230.090999246898
 20
400.6949193041482
 30
0.0
 11
204.493023810216
 21
400.6949193041482
 31
0.0
  0
LINE
  5
54DE
330
54DC
100
AcDbEntity
  8
SUNPOU
100
AcDbLine
 10
228.8465348684981
 20
372.6949193041483
 30
0.0
 11
204.493023810216
 21
372.6949193041483
 31
0.0
  0
LINE
  5
54DF
330
54DC
100
AcDbEntity
  8
SUNPOU
100
AcDbLine
 10
207.493023810216
 20
393.6949193041483
 30
0.0
 11
207.493023810216
 21
379.6949193041482
 31
0.0
  0
INSERT
  5
54E0
330
54DC
100
AcDbEntity
  8
SUNPOU
100
AcDbBlockReference
  2
_OPEN
 10
207.493023810216
 20
400.6949193041482
 30
0.0
 41
7.0
 42
7.0
 43
7.0
 50
90.0
  0
INSERT
  5
54E1
330
54DC
100
AcDbEntity
  8
SUNPOU
100
AcDbBlockReference
  2
_OPEN
 10
207.493023810216
 20
372.6949193041483
 30
0.0
 41
7.0
 42
7.0
 43
7.0
 50
270.0
  0
MTEXT
  5
54E2
330
54DC
100
AcDbEntity
  8
SUNPOU
100
AcDbMText
 10
202.493023810216
 20
386.6949193041483
 30
0.0
 40
6.0
 41
0.0
 71
     5
 72
     1
  1
\A1;28
 11
0.0000000000000001
 21
1.0
 31
0.0
1001
ACAD
1000
MTEXTBEGIN
1070
    73
1070
     1
1070
    44
1040
1.0
1070
    74
1070
     0
1000
MTEXTEND
  0
POINT
  5
54E3
330
54DC
100
AcDbEntity
  8
DEFPOINTS
 62
     0
100
AcDbPoint
 10
236.090999246898
 20
400.6949193041482
 30
0.0
  0
POINT
  5
54E4
330
54DC
100
AcDbEntity
  8
DEFPOINTS
 62
     0
100
AcDbPoint
 10
234.8465348684981
 20
372.6949193041483
 30
0.0
  0
POINT
  5
54E5
330
54DC
100
AcDbEntity
  8
DEFPOINTS
 62
     0
100
AcDbPoint
 10
207.493023810216
 20
372.6949193041483
 30
0.0
  0
ENDBLK
  5
54E7
330
54DC
100
AcDbEntity
  8
0
100
AcDbBlockEnd
  0
BLOCK
  5
54F2
330
54E8
100
AcDbEntity
  8
0
100
AcDbBlockBegin
  2
*D10
 70
     1
 10
0.0
 20
0.0
 30
0.0
  3
*D10
  1

  0
LINE
  5
54E9
330
54E8
100
AcDbEntity
  8
SUNPOU
100
AcDbLine
 10
530.8769374353223
 20
271.9344538813483
 30
0.0
 11
530.8769374353223
 21
321.8559367111044
 31
0.0
  0
LINE
  5
54EA
330
54E8
100
AcDbEntity
  8
SUNPOU
100
AcDbLine
 10
610.8769374353223
 20
271.4022155706483
 30
0.0
 11
610.8769374353223
 21
321.8559367111044
 31
0.0
  0
LINE
  5
54EB
330
54E8
100
AcDbEntity
  8
SUNPOU
100
AcDbLine
 10
537.8769374353224
 20
318.8559367111043
 30
0.0
 11
603.8769374353223
 21
318.8559367111043
 31
0.0
  0
INSERT
  5
54EC
330
54E8
100
AcDbEntity
  8
SUNPOU
100
AcDbBlockReference
  2
_OPEN
 10
530.8769374353223
 20
318.8559367111043
 30
0.0
 41
7.0
 42
7.0
 43
7.0
 50
180.0
  0
INSERT
  5
54ED
330
54E8
100
AcDbEntity
  8
SUNPOU
100
AcDbBlockReference
  2
_OPEN
 10
610.8769374353223
 20
318.8559367111043
 30
0.0
 41
7.0
 42
7.0
 43
7.0
  0
MTEXT
  5
54EE
330
54E8
100
AcDbEntity
  8
SUNPOU
100
AcDbMText
 10
570.8769374353223
 20
323.8559367111044
 30
0.0
 40
6.0
 41
0.0
 71
     5
 72
     1
  1
\A1;80
1001
ACAD
1000
MTEXTBEGIN
1070
    73
1070
     1
1070
    44
1040
1.0
1070
    74
1070
     0
1000
MTEXTEND
  0
POINT
  5
54EF
330
54E8
100
AcDbEntity
  8
DEFPOINTS
 62
     0
100
AcDbPoint
 10
530.8769374353223
 20
265.9344538813483
 30
0.0
  0
POINT
  5
54F0
330
54E8
100
AcDbEntity
  8
DEFPOINTS
 62
     0
100
AcDbPoint
 10
610.8769374353223
 20
265.4022155706483
 30
0.0
  0
POINT
  5
54F1
330
54E8
100
AcDbEntity
  8
DEFPOINTS
 62
     0
100
AcDbPoint
 10
610.8769374353223
 20
318.8559367111043
 30
0.0
  0
ENDBLK
  5
54F3
330
54E8
100
AcDbEntity
  8
0
100
AcDbBlockEnd
  0
BLOCK
  5
54FE
330
54F4
100
AcDbEntity
  8
0
100
AcDbBlockBegin
  2
*D11
 70
     1
 10
0.0
 20
0.0
 30
0.0
  3
*D11
  1

  0
LINE
  5
54F5
330
54F4
100
AcDbEntity
  8
SUNPOU
100
AcDbLine
 10
538.8769374353223
 20
268.9398724091483
 30
0.0
 11
538.8769374353223
 21
305.9991344930618
 31
0.0
  0
LINE
  5
54F6
330
54F4
100
AcDbEntity
  8
SUNPOU
100
AcDbLine
 10
602.8769374353223
 20
268.9398724091483
 30
0.0
 11
602.8769374353223
 21
305.9991344930618
 31
0.0
  0
LINE
  5
54F7
330
54F4
100
AcDbEntity
  8
SUNPOU
100
AcDbLine
 10
545.8769374353223
 20
302.9991344930619
 30
0.0
 11
595.8769374353223
 21
302.9991344930619
 31
0.0
  0
INSERT
  5
54F8
330
54F4
100
AcDbEntity
  8
SUNPOU
100
AcDbBlockReference
  2
_OPEN
 10
538.8769374353223
 20
302.9991344930619
 30
0.0
 41
7.0
 42
7.0
 43
7.0
 50
180.0
  0
INSERT
  5
54F9
330
54F4
100
AcDbEntity
  8
SUNPOU
100
AcDbBlockReference
  2
_OPEN
 10
602.8769374353223
 20
302.9991344930619
 30
0.0
 41
7.0
 42
7.0
 43
7.0
  0
MTEXT
  5
54FA
330
54F4
100
AcDbEntity
  8
SUNPOU
100
AcDbMText
 10
570.8769374353223
 20
307.9991344930618
 30
0.0
 40
6.0
 41
0.0
 71
     5
 72
     1
  1
\A1;64
1001
ACAD
1000
MTEXTBEGIN
1070
    73
1070
     1
1070
    44
1040
1.0
1070
    74
1070
     0
1000
MTEXTEND
  0
POINT
  5
54FB
330
54F4
100
AcDbEntity
  8
DEFPOINTS
 62
     0
100
AcDbPoint
 10
538.8769374353223
 20
262.9398724091483
 30
0.0
  0
POINT
  5
54FC
330
54F4
100
AcDbEntity
  8
DEFPOINTS
 62
     0
100
AcDbPoint
 10
602.8769374353223
 20
262.9398724091483
 30
0.0
  0
POINT
  5
54FD
330
54F4
100
AcDbEntity
  8
DEFPOINTS
 62
     0
100
AcDbPoint
 10
602.8769374353223
 20
302.9991344930619
 30
0.0
  0
ENDBLK
  5
54FF
330
54F4
100
AcDbEntity
  8
0
100
AcDbBlockEnd
  0
BLOCK
  5
550A
330
5500
100
AcDbEntity
  8
0
100
AcDbBlockBegin
  2
*D12
 70
     1
 10
0.0
 20
0.0
 30
0.0
  3
*D12
  1

  0
LINE
  5
5501
330
5500
100
AcDbEntity
  8
SUNPOU
100
AcDbLine
 10
564.8770332991493
 20
276.988167385138
 30
0.0
 11
486.3122667886423
 21
276.988167385138
 31
0.0
  0
LINE
  5
5502
330
5500
100
AcDbEntity
  8
SUNPOU
100
AcDbLine
 10
564.8769374353223
 20
199.2881724091483
 30
0.0
 11
486.3122667886423
 21
199.2881724091483
 31
0.0
  0
LINE
  5
5503
330
5500
100
AcDbEntity
  8
SUNPOU
100
AcDbLine
 10
489.3122667886423
 20
269.988167385138
 30
0.0
 11
489.3122667886423
 21
206.2881724091483
 31
0.0
  0
INSERT
  5
5504
330
5500
100
AcDbEntity
  8
SUNPOU
100
AcDbBlockReference
  2
_OPEN
 10
489.3122667886423
 20
276.988167385138
 30
0.0
 41
7.0
 42
7.0
 43
7.0
 50
90.0
  0
INSERT
  5
5505
330
5500
100
AcDbEntity
  8
SUNPOU
100
AcDbBlockReference
  2
_OPEN
 10
489.3122667886423
 20
199.2881724091483
 30
0.0
 41
7.0
 42
7.0
 43
7.0
 50
270.0
  0
MTEXT
  5
5506
330
5500
100
AcDbEntity
  8
SUNPOU
100
AcDbMText
 10
484.3122667886422
 20
238.1381698971432
 30
0.0
 40
6.0
 41
0.0
 71
     5
 72
     1
  1
\A1;78
 11
0.0000000000000001
 21
1.0
 31
0.0
1001
ACAD
1000
MTEXTBEGIN
1070
    73
1070
     1
1070
    44
1040
1.0
1070
    74
1070
     0
1000
MTEXTEND
  0
POINT
  5
5507
330
5500
100
AcDbEntity
  8
DEFPOINTS
 62
     0
100
AcDbPoint
 10
570.8770332991494
 20
276.988167385138
 30
0.0
  0
POINT
  5
5508
330
5500
100
AcDbEntity
  8
DEFPOINTS
 62
     0
100
AcDbPoint
 10
570.8769374353223
 20
199.2881724091483
 30
0.0
  0
POINT
  5
5509
330
5500
100
AcDbEntity
  8
DEFPOINTS
 62
     0
100
AcDbPoint
 10
489.3122667886423
 20
199.2881724091483
 30
0.0
  0
ENDBLK
  5
550B
330
5500
100
AcDbEntity
  8
0
100
AcDbBlockEnd
  0
BLOCK
  5
5518
330
550C
100
AcDbEntity
  8
0
100
AcDbBlockBegin
  2
*D13
 70
     1
 10
0.0
 20
0.0
 30
0.0
  3
*D13
  1

  0
LINE
  5
550D
330
550C
100
AcDbEntity
  8
SUNPOU
100
AcDbLine
 10
564.8769430212805
 20
199.2881726042142
 30
0.0
 11
507.4221430837351
 21
199.2881726042142
 31
0.0
  0
LINE
  5
550E
330
550C
100
AcDbEntity
  8
SUNPOU
100
AcDbLine
 10
557.6576011393528
 20
207.2881724091482
 30
0.0
 11
507.4221430837351
 21
207.2881724091482
 31
0.0
  0
LINE
  5
550F
330
550C
100
AcDbEntity
  8
SUNPOU
100
AcDbLine
 10
510.4221430837351
 20
192.2881726042142
 30
0.0
 11
510.4221430837351
 21
185.2881726042142
 31
0.0
  0
LINE
  5
5510
330
550C
100
AcDbEntity
  8
SUNPOU
100
AcDbLine
 10
510.4221430837351
 20
214.2881724091483
 30
0.0
 11
510.4221430837351
 21
229.2881724091483
 31
0.0
  0
LINE
  5
5511
330
550C
100
AcDbEntity
  8
SUNPOU
100
AcDbLine
 10
510.4221430837351
 20
199.2881726042142
 30
0.0
 11
510.4221430837351
 21
207.2881724091482
 31
0.0
  0
INSERT
  5
5512
330
550C
100
AcDbEntity
  8
SUNPOU
100
AcDbBlockReference
  2
_OPEN
 10
510.4221430837351
 20
199.2881726042142
 30
0.0
 41
7.0
 42
7.0
 43
7.0
 50
90.0
  0
INSERT
  5
5513
330
550C
100
AcDbEntity
  8
SUNPOU
100
AcDbBlockReference
  2
_OPEN
 10
510.4221430837351
 20
207.2881724091482
 30
0.0
 41
7.0
 42
7.0
 43
7.0
 50
270.0
  0
MTEXT
  5
5514
330
550C
100
AcDbEntity
  8
SUNPOU
100
AcDbMText
 10
505.422143083735
 20
225.2881724091484
 30
0.0
 40
6.0
 41
0.0
 71
     5
 72
     1
  1
\A1;8
 11
0.0000000000000001
 21
1.0
 31
0.0
1001
ACAD
1000
MTEXTBEGIN
1070
    73
1070
     1
1070
    44
1040
1.0
1070
    74
1070
     0
1000
MTEXTEND
  0
POINT
  5
5515
330
550C
100
AcDbEntity
  8
DEFPOINTS
 62
     0
100
AcDbPoint
 10
570.8769430212806
 20
199.2881726042142
 30
0.0
  0
POINT
  5
5516
330
550C
100
AcDbEntity
  8
DEFPOINTS
 62
     0
100
AcDbPoint
 10
563.6576011393528
 20
207.2881724091482
 30
0.0
  0
POINT
  5
5517
330
550C
100
AcDbEntity
  8
DEFPOINTS
 62
     0
100
AcDbPoint
 10
510.4221430837351
 20
207.2881724091482
 30
0.0
  0
ENDBLK
  5
5519
330
550C
100
AcDbEntity
  8
0
100
AcDbBlockEnd
  0
BLOCK
  5
5524
330
551A
100
AcDbEntity
  8
0
100
AcDbBlockBegin
  2
*D14
 70
     1
 10
0.0
 20
0.0
 30
0.0
  3
*D14
  1

  0
LINE
  5
551B
330
551A
100
AcDbEntity
  8
SUNPOU
100
AcDbLine
 10
556.8769374354224
 20
201.6135978528482
 30
0.0
 11
556.8769374354224
 21
171.6044320219968
 31
0.0
  0
LINE
  5
551C
330
551A
100
AcDbEntity
  8
SUNPOU
100
AcDbLine
 10
584.8769374353223
 20
201.5025733804483
 30
0.0
 11
584.8769374353223
 21
171.6044320219968
 31
0.0
  0
LINE
  5
551D
330
551A
100
AcDbEntity
  8
SUNPOU
100
AcDbLine
 10
563.8769374354223
 20
174.6044320219968
 30
0.0
 11
577.8769374353223
 21
174.6044320219968
 31
0.0
  0
INSERT
  5
551E
330
551A
100
AcDbEntity
  8
SUNPOU
100
AcDbBlockReference
  2
_OPEN
 10
556.8769374354224
 20
174.6044320219968
 30
0.0
 41
7.0
 42
7.0
 43
7.0
 50
180.0
  0
INSERT
  5
551F
330
551A
100
AcDbEntity
  8
SUNPOU
100
AcDbBlockReference
  2
_OPEN
 10
584.8769374353223
 20
174.6044320219968
 30
0.0
 41
7.0
 42
7.0
 43
7.0
  0
MTEXT
  5
5520
330
551A
100
AcDbEntity
  8
SUNPOU
100
AcDbMText
 10
570.8769374353724
 20
179.6044320219968
 30
0.0
 40
6.0
 41
0.0
 71
     5
 72
     1
  1
\A1;28
1001
ACAD
1000
MTEXTBEGIN
1070
    73
1070
     1
1070
    44
1040
1.0
1070
    74
1070
     0
1000
MTEXTEND
  0
POINT
  5
5521
330
551A
100
AcDbEntity
  8
DEFPOINTS
 62
     0
100
AcDbPoint
 10
556.8769374354224
 20
207.6135978528482
 30
0.0
  0
POINT
  5
5522
330
551A
100
AcDbEntity
  8
DEFPOINTS
 62
     0
100
AcDbPoint
 10
584.8769374353223
 20
207.5025733804483
 30
0.0
  0
POINT
  5
5523
330
551A
100
AcDbEntity
  8
DEFPOINTS
 62
     0
100
AcDbPoint
 10
584.8769374353223
 20
174.6044320219968
 30
0.0
  0
ENDBLK
  5
5525
330
551A
100
AcDbEntity
  8
0
100
AcDbBlockEnd
  0
BLOCK
  5
5530
330
5526
100
AcDbEntity
  8
0
100
AcDbBlockBegin
  2
*D15
 70
     1
 10
0.0
 20
0.0
 30
0.0
  3
*D15
  1

  0
LINE
  5
5527
330
5526
100
AcDbEntity
  8
SUNPOU
100
AcDbLine
 10
564.8770332991493
 20
276.988167385138
 30
0.0
 11
507.4221430837351
 21
276.988167385138
 31
0.0
  0
LINE
  5
5528
330
5526
100
AcDbEntity
  8
SUNPOU
100
AcDbLine
 10
526.7798374353223
 20
257.2881724091482
 30
0.0
 11
507.4221430837351
 21
257.2881724091482
 31
0.0
  0
LINE
  5
5529
330
5526
100
AcDbEntity
  8
SUNPOU
100
AcDbLine
 10
510.4221430837351
 20
269.988167385138
 30
0.0
 11
510.4221430837351
 21
264.2881724091482
 31
0.0
  0
INSERT
  5
552A
330
5526
100
AcDbEntity
  8
SUNPOU
100
AcDbBlockReference
  2
_OPEN
 10
510.4221430837351
 20
276.988167385138
 30
0.0
 41
7.0
 42
7.0
 43
7.0
 50
90.0
  0
INSERT
  5
552B
330
5526
100
AcDbEntity
  8
SUNPOU
100
AcDbBlockReference
  2
_OPEN
 10
510.4221430837351
 20
257.2881724091482
 30
0.0
 41
7.0
 42
7.0
 43
7.0
 50
270.0
  0
MTEXT
  5
552C
330
5526
100
AcDbEntity
  8
SUNPOU
100
AcDbMText
 10
505.422143083735
 20
267.1381698971432
 30
0.0
 40
6.0
 41
0.0
 71
     5
 72
     1
  1
\A1;20
 11
0.0000000000000001
 21
1.0
 31
0.0
1001
ACAD
1000
MTEXTBEGIN
1070
    73
1070
     1
1070
    44
1040
1.0
1070
    74
1070
     0
1000
MTEXTEND
  0
POINT
  5
552D
330
5526
100
AcDbEntity
  8
DEFPOINTS
 62
     0
100
AcDbPoint
 10
570.8770332991494
 20
276.988167385138
 30
0.0
  0
POINT
  5
552E
330
5526
100
AcDbEntity
  8
DEFPOINTS
 62
     0
100
AcDbPoint
 10
532.7798374353224
 20
257.2881724091482
 30
0.0
  0
POINT
  5
552F
330
5526
100
AcDbEntity
  8
DEFPOINTS
 62
     0
100
AcDbPoint
 10
510.4221430837351
 20
257.2881724091482
 30
0.0
  0
ENDBLK
  5
5531
330
5526
100
AcDbEntity
  8
0
100
AcDbBlockEnd
  0
BLOCK
  5
570E
330
5532
100
AcDbEntity
  8
0
100
AcDbBlockBegin
  2
A$C3897793F
 70
     0
 10
0.0
 20
0.0
 30
0.0
  3
A$C3897793F
  1

  0
TEXT
  5
5533
330
5532
100
AcDbEntity
  8
ZUWAKU
100
AcDbText
 10
708.5280832282746
 20
17.55383746775862
 30
0.0
 40
6.0
  1
積水化学工業株式会社
 41
0.9
  7
ｽﾀｲﾙ1
100
AcDbText
  0
LINE
  5
5534
330
5532
100
AcDbEntity
  8
ZUWAKU
100
AcDbLine
 10
-0.0000009639691143
 20
30.79999813207189
 30
0.0
 11
797.3999990360307
 21
30.79999813207189
 31
0.0
  0
LINE
  5
5535
330
5532
100
AcDbEntity
  8
ZUWAKU
100
AcDbLine
 10
-0.0000009639691143
 20
30.59999813207184
 30
0.0
 11
797.3999990360307
 21
30.59999813207184
 31
0.0
  0
LINE
  5
5536
330
5532
100
AcDbEntity
  8
ZUWAKU
100
AcDbLine
 10
-0.0000009639691143
 20
30.3999981320718
 30
0.0
 11
797.3999990360307
 21
30.3999981320718
 31
0.0
  0
LINE
  5
5537
330
5532
100
AcDbEntity
  8
ZUWAKU
100
AcDbLine
 10
-0.0000009639691143
 20
30.19999813207187
 30
0.0
 11
797.3999990360307
 21
30.19999813207187
 31
0.0
  0
LINE
  5
5538
330
5532
100
AcDbEntity
  8
ZUWAKU
100
AcDbLine
 10
-0.0000009639691143
 20
29.99999813207182
 30
0.0
 11
797.3999990360307
 21
29.99999813207182
 31
0.0
  0
LWPOLYLINE
  5
5539
330
5532
100
AcDbEntity
  8
ZUWAKU
100
AcDbPolyline
 90
        4
 70
     1
 43
0.0
 10
0.1999990360308175
 20
551.3999981320718
 10
0.1999990360308175
 20
0.1999981320718689
 10
797.3999990360307
 20
0.1999981320718902
 10
797.399999036031
 20
551.3999981320718
  0
LWPOLYLINE
  5
553A
330
5532
100
AcDbEntity
  8
ZUWAKU
100
AcDbPolyline
 90
        4
 70
     1
 43
0.0
 10
0.5999990360307948
 20
550.9999981320719
 10
0.5999990360307948
 20
0.5999981320718462
 10
796.9999990360311
 20
0.5999981320718959
 10
796.9999990360308
 20
550.9999981320719
  0
LWPOLYLINE
  5
553B
330
5532
100
AcDbEntity
  8
ZUWAKU
100
AcDbPolyline
 90
        4
 70
     1
 43
0.0
 10
-0.0000009639691143
 20
551.5999981320718
 10
-0.0000009639691143
 20
-0.0000018679281766
 10
797.599999036031
 20
-0.0000018679281055
 10
797.599999036031
 20
551.5999981320719
  0
LWPOLYLINE
  5
553C
330
5532
100
AcDbEntity
  8
ZUWAKU
100
AcDbPolyline
 90
        4
 70
     1
 43
0.0
 10
0.3999990360308629
 20
551.1999981320717
 10
0.3999990360308629
 20
0.3999981320719144
 10
797.1999990360309
 20
0.399998132071893
 10
797.1999990360309
 20
551.1999981320717
  0
LWPOLYLINE
  5
553D
330
5532
100
AcDbEntity
  8
ZUWAKU
100
AcDbPolyline
 90
        4
 70
     1
 43
0.0
 10
0.7999990360308403
 20
550.7999981320717
 10
0.7999990360308403
 20
0.7999981320718917
 10
796.7999990360308
 20
0.7999981320718917
 10
796.7999990360308
 20
550.7999981320717
  0
DIMENSION
  5
553E
330
5532
100
AcDbEntity
  8
SUNPOU
100
AcDbDimension
  2
*D4
 10
206.693023279603
 20
200.0881699009231
 30
0.0
 11
201.693023279603
 21
238.5881699009231
 31
0.0
 12
-0.8000005306130333
 22
0.799997491774775
 32
0.0
  3
STANDARD
100
AcDbAlignedDimension
 13
233.1228045361849
 23
277.088169900923
 33
0.0
 14
366.094770824885
 24
200.088169900923
 34
0.0
 50
90.0
100
AcDbRotatedDimension
1001
ACAD
1000
DSTYLE
1002
{
1070
    41
1040
7.0
1070
    42
1040
6.0
1070
    43
1040
14.0
1070
    44
1040
3.0
1070
    73
1070
     0
1070
    74
1070
     0
1070
    77
1070
     3
1070
   140
1040
6.0
1070
   141
1040
150.0
1070
   147
1040
2.0
1070
   172
1070
     1
1070
   173
1070
     1
1070
   176
1070
   256
1070
   177
1070
   256
1070
   178
1070
   256
1070
   271
1070
     0
1070
   272
1070
     0
1070
   341
1005
6D
1070
     6
1000
OPEN
1070
     7
1000
OPEN
1070
   371
1070
    -1
1070
   372
1070
    -1
1002
}
  0
LINE
  5
553F
330
5532
100
AcDbEntity
  8
ZUWAKU
100
AcDbLine
 10
208.6466003260988
 20
15.19999813207187
 30
0.0
 11
447.4243630070223
 21
15.19999813207187
 31
0.0
  0
LINE
  5
5540
330
5532
100
AcDbEntity
  8
ZUWAKU
100
AcDbLine
 10
208.6466003260988
 20
15.59999813207184
 30
0.0
 11
447.4243630070223
 21
15.59999813207184
 31
0.0
  0
LINE
  5
5541
330
5532
100
AcDbEntity
  8
ZUWAKU
100
AcDbLine
 10
208.6466003260988
 20
15.3999981320718
 30
0.0
 11
447.4243630070223
 21
15.3999981320718
 31
0.0
  0
LINE
  5
5542
330
5532
100
AcDbEntity
  8
ZUWAKU
100
AcDbLine
 10
208.2466003260988
 20
29.99999813207182
 30
0.0
 11
208.2466003260988
 21
0.7999981320718917
 31
0.0
  0
LINE
  5
5543
330
5532
100
AcDbEntity
  8
ZUWAKU
100
AcDbLine
 10
208.6466003260986
 20
29.99999813207182
 30
0.0
 11
208.6466003260988
 21
0.7999981320718917
 31
0.0
  0
LINE
  5
5544
330
5532
100
AcDbEntity
  8
ZUWAKU
100
AcDbLine
 10
208.4466003260986
 20
29.99999813207182
 30
0.0
 11
208.4466003260988
 21
0.7999981320718917
 31
0.0
  0
LINE
  5
5545
330
5532
100
AcDbEntity
  8
ZUWAKU
100
AcDbLine
 10
79.32662858401909
 20
29.99999813207182
 30
0.0
 11
79.32662858401932
 21
0.7999981320718917
 31
0.0
  0
LINE
  5
5546
330
5532
100
AcDbEntity
  8
ZUWAKU
100
AcDbLine
 10
79.52662858401914
 20
29.99999813207182
 30
0.0
 11
79.52662858401936
 21
0.7999981320718917
 31
0.0
  0
LINE
  5
5547
330
5532
100
AcDbEntity
  8
ZUWAKU
100
AcDbLine
 10
79.12662858401927
 20
29.99999813207182
 30
0.0
 11
79.12662858401927
 21
0.7999981320718917
 31
0.0
  0
LINE
  5
5548
330
5532
100
AcDbEntity
  8
ZUWAKU
100
AcDbLine
 10
64.14221119081208
 20
9.949998132071868
 30
0.0
 11
64.14221119081208
 21
22.72499813207184
 31
0.0
  0
LINE
  5
5549
330
5532
100
AcDbEntity
  8
ZUWAKU
100
AcDbLine
 10
61.34221119081201
 20
22.72499813207184
 30
0.0
 11
61.34221119081201
 21
10.99999813207182
 31
0.0
  0
LINE
  5
554A
330
5532
100
AcDbEntity
  8
ZUWAKU
100
AcDbLine
 10
69.04221119081205
 20
7.674998132071777
 30
0.0
 11
69.04221119081205
 21
22.72499813207184
 31
0.0
  0
LINE
  5
554B
330
5532
100
AcDbEntity
  8
ZUWAKU
100
AcDbLine
 10
66.24221119081198
 20
22.72499813207184
 30
0.0
 11
66.24221119081198
 21
7.674998132071777
 31
0.0
  0
LINE
  5
554C
330
5532
100
AcDbEntity
  8
ZUWAKU
100
AcDbLine
 10
57.84221119081201
 20
10.99999813207182
 30
0.0
 11
57.84221119081201
 21
22.72499813207184
 31
0.0
  0
ARC
  5
554D
330
5532
100
AcDbEntity
  8
ZUWAKU
100
AcDbCircle
 10
49.79221119081206
 20
18.63479610671652
 30
0.0
 40
4.199999999999998
100
AcDbArc
 50
180.0
 51
224.9999999999996
  0
LINE
  5
554E
330
5532
100
AcDbEntity
  8
ZUWAKU
100
AcDbLine
 10
37.31485767299
 20
19.20504532563529
 30
0.0
 11
36.05010592765415
 21
15.19999813207187
 31
0.0
  0
ARC
  5
554F
330
5532
100
AcDbEntity
  8
ZUWAKU
100
AcDbCircle
 10
15.49221119081198
 20
18.63479610671652
 30
0.0
 40
4.199999999999998
100
AcDbArc
 50
180.0
 51
224.9999999999996
  0
CIRCLE
  5
5550
330
5532
100
AcDbEntity
  8
ZUWAKU
100
AcDbCircle
 10
25.99221119081198
 20
15.19999813207187
 30
0.0
 40
1.75
  0
LINE
  5
5551
330
5532
100
AcDbEntity
  8
ZUWAKU
100
AcDbLine
 10
23.54221119081205
 20
19.04999813207177
 30
0.0
 11
23.54221119081205
 21
11.34999813207184
 31
0.0
  0
LINE
  5
5552
330
5532
100
AcDbEntity
  8
ZUWAKU
100
AcDbLine
 10
20.74221119081198
 20
11.34999813207184
 30
0.0
 11
20.74221119081198
 21
19.04999813207177
 31
0.0
  0
LINE
  5
5553
330
5532
100
AcDbEntity
  8
ZUWAKU
100
AcDbLine
 10
17.41205967179553
 20
14.7350486384106
 30
0.0
 11
14.50226169715085
 21
17.64484661305528
 31
0.0
  0
LINE
  5
5554
330
5532
100
AcDbEntity
  8
ZUWAKU
100
AcDbLine
 10
40.69221119081203
 20
22.72499813207184
 30
0.0
 11
40.69221119081203
 21
7.674998132071777
 31
0.0
  0
LINE
  5
5555
330
5532
100
AcDbEntity
  8
ZUWAKU
100
AcDbLine
 10
43.49221119081199
 20
7.674998132071777
 30
0.0
 11
43.49221119081199
 21
22.72499813207184
 31
0.0
  0
LINE
  5
5556
330
5532
100
AcDbEntity
  8
ZUWAKU
100
AcDbLine
 10
55.04221119081205
 20
22.72499813207184
 30
0.0
 11
55.04221119081205
 21
9.949998132071868
 31
0.0
  0
LINE
  5
5557
330
5532
100
AcDbEntity
  8
ZUWAKU
100
AcDbLine
 10
29.84221119081201
 20
22.72499813207184
 30
0.0
 11
29.84221119081201
 21
7.674998132071777
 31
0.0
  0
LINE
  5
5558
330
5532
100
AcDbEntity
  8
ZUWAKU
100
AcDbLine
 10
51.7120596717956
 20
14.7350486384106
 30
0.0
 11
48.80226169715081
 21
17.64484661305528
 31
0.0
  0
HATCH
  5
5559
330
5532
100
AcDbEntity
  8
ZUWAKU
100
AcDbHatch
 10
0.0
 20
0.0
 30
0.0
210
0.0
220
0.0
230
1.0
  2
ANSI37
 70
     0
 71
     0
 91
        8
 92
        7
 72
     1
 73
     1
 93
       24
 10
14.50226169715074
 20
17.6448466130554
 42
-0.1989123673796348
 10
14.092211190812
 20
18.63479610671645
 42
0.0
 10
14.092211190812
 20
19.92499813207183
 42
-0.4142135623730912
 10
14.61721119081198
 20
20.44999813207181
 42
0.0
 10
17.59221119081189
 20
20.44999813207181
 42
0.4142135623731546
 10
18.11721119081198
 20
20.97499813207181
 42
0.0
 10
18.11721119081198
 20
22.72499813207183
 42
0.4142135623731586
 10
17.59221119081189
 20
23.24999813207182
 42
0.0
 10
14.092211190812
 20
23.24999813207182
 42
0.4142135623730928
 10
11.29221119081205
 20
20.44999813207185
 42
0.0
 10
11.29221119081205
 20
18.63479610671658
 42
0.1989123673796619
 10
12.52236270982848
 20
15.66494762573297
 42
0.0
 10
15.43216068447316
 20
12.75514965108831
 42
-0.1989123673796613
 10
15.84221119081201
 20
11.76520015742713
 42
0.0
 10
15.84221119081201
 20
10.47499813207181
 42
-0.4142135623730911
 10
15.31721119081203
 20
9.949998132071826
 42
0.0
 10
12.34221119081212
 20
9.949998132071826
 42
0.4142135623731526
 10
11.81721119081203
 20
9.424998132071834
 42
0.0
 10
11.81721119081203
 20
7.674998132071813
 42
0.4142135623731526
 10
12.34221119081212
 20
7.149998132071829
 42
0.0
 10
15.84221119081201
 20
7.149998132071829
 42
0.4142135623731045
 10
18.64221119081207
 20
9.949998132071804
 42
0.0
 10
18.64221119081207
 20
11.76520015742707
 42
0.1989123673796604
 10
17.41205967179553
 20
14.73504863841061
 42
0.0
 97
        0
 92
        7
 72
     1
 73
     1
 93
       16
 10
23.54221119081205
 20
19.04999813207183
 42
-0.4142135623730935
 10
24.94221119081203
 20
20.44999813207181
 42
0.0
 10
26.86721119081198
 20
20.44999813207181
 42
0.4142135623731546
 10
27.39221119081207
 20
20.97499813207181
 42
0.0
 10
27.39221119081207
 20
22.72499813207183
 42
0.4142135623730951
 10
26.8672111908121
 20
23.24999813207182
 42
0.0
 10
24.94221119081192
 20
23.24999813207178
 42
0.4142135623730893
 10
20.74221119081198
 20
19.04999813207176
 42
0.0
 10
20.74221119081198
 20
11.34999813207185
 42
0.4142135623730969
 10
24.94221119081203
 20
7.149998132071829
 42
0.0
 10
26.86721119081198
 20
7.149998132071829
 42
0.4142135623731526
 10
27.39221119081207
 20
7.674998132071813
 42
0.0
 10
27.39221119081207
 20
9.424998132071834
 42
0.4142135623730891
 10
26.8672111908121
 20
9.949998132071826
 42
0.0
 10
24.94221119081203
 20
9.949998132071826
 42
-0.4142135623730928
 10
23.54221119081205
 20
11.34999813207181
 42
0.0
 97
        0
 92
        7
 72
     1
 73
     1
 93
        2
 10
24.24221119081198
 20
15.19999813207181
 42
1.0
 10
27.74221119081198
 20
15.19999813207181
 42
1.0
 97
        0
 92
        7
 72
     1
 73
     1
 93
       26
 10
37.31485767299
 20
19.20504532563525
 42
0.0
 10
38.37649730612781
 20
22.56690416390484
 42
0.5069206636600134
 10
37.87586640693246
 20
23.24999813207182
 42
0.0
 10
36.17697702732323
 20
23.24999813207182
 42
0.3272098845218764
 10
35.67634612812787
 20
22.88309210023879
 42
0.0
 10
33.80807625349609
 20
16.9669041639049
 42
-0.3272098845219541
 10
33.30744535430062
 20
16.59999813207181
 42
0.0
 10
33.16721119081217
 20
16.59999813207181
 42
-0.4142135623731526
 10
32.64221119081208
 20
17.1249981320718
 42
0.0
 10
32.64221119081208
 20
22.72499813207183
 42
0.4142135623730951
 10
32.1172111908121
 20
23.24999813207182
 42
0.0
 10
30.36721119081198
 20
23.24999813207182
 42
0.4142135623730871
 10
29.84221119081201
 20
22.72499813207184
 42
0.0
 10
29.84221119081201
 20
7.674998132071813
 42
0.4142135623730891
 10
30.36721119081198
 20
7.149998132071829
 42
0.0
 10
32.11721119081198
 20
7.149998132071829
 42
0.4142135623731526
 10
32.64221119081208
 20
7.674998132071813
 42
0.0
 10
32.64221119081208
 20
13.27499813207182
 42
-0.4142135623731526
 10
33.16721119081217
 20
13.79999813207182
 42
0.0
 10
33.30744535430074
 20
13.79999813207182
 42
-0.3272098845218915
 10
33.80807625349609
 20
13.43309210023875
 42
0.0
 10
35.67634612812787
 20
7.516904163904897
 42
0.3272098845218902
 10
36.17697702732323
 20
7.149998132071829
 42
0.0
 10
37.87586640693246
 20
7.149998132071829
 42
0.5069206636600336
 10
38.37649730612781
 20
7.833092100238836
 42
0.0
 10
36.05010592765415
 20
15.19999813207196
 42
0.0
 97
        0
 92
        7
 72
     1
 73
     1
 93
        8
 10
43.49221119081199
 20
22.72499813207184
 42
0.4142135623731546
 10
42.9672111908119
 20
23.24999813207182
 42
0.0
 10
41.21721119081212
 20
23.24999813207182
 42
0.4142135623731507
 10
40.69221119081203
 20
22.72499813207184
 42
0.0
 10
40.69221119081203
 20
7.674998132071813
 42
0.4142135623731526
 10
41.21721119081212
 20
7.149998132071829
 42
0.0
 10
42.9672111908119
 20
7.149998132071829
 42
0.4142135623731526
 10
43.49221119081199
 20
7.674998132071813
 42
0.0
 97
        0
 92
        7
 72
     1
 73
     1
 93
       24
 10
48.39221119081208
 20
19.92499813207183
 42
-0.4142135623731546
 10
48.91721119081217
 20
20.44999813207181
 42
0.0
 10
51.89221119081207
 20
20.44999813207181
 42
0.4142135623730911
 10
52.41721119081205
 20
20.97499813207181
 42
0.0
 10
52.41721119081205
 20
22.72499813207183
 42
0.4142135623730952
 10
51.89221119081207
 20
23.24999813207182
 42
0.0
 10
48.39221119081208
 20
23.24999813207182
 42
0.4142135623731048
 10
45.592211190812
 20
20.44999813207185
 42
0.0
 10
45.592211190812
 20
18.63479610671658
 42
0.1989123673796613
 10
46.82236270982855
 20
15.66494762573303
 42
0.0
 10
49.73216068447323
 20
12.75514965108835
 42
-0.1989123673796402
 10
50.14221119081208
 20
11.76520015742728
 42
0.0
 10
50.14221119081208
 20
10.47499813207181
 42
-0.4142135623730911
 10
49.6172111908121
 20
9.949998132071826
 42
0.0
 10
46.64221119081207
 20
9.949998132071826
 42
0.4142135623731526
 10
46.11721119081198
 20
9.424998132071834
 42
0.0
 10
46.11721119081198
 20
7.674998132071813
 42
0.4142135623730891
 10
46.64221119081196
 20
7.149998132071829
 42
0.0
 10
50.14221119081208
 20
7.149998132071829
 42
0.4142135623730925
 10
52.94221119081203
 20
9.949998132071804
 42
0.0
 10
52.94221119081203
 20
11.76520015742707
 42
0.1989123673796675
 10
51.71205967179549
 20
14.73504863841073
 42
0.0
 10
48.80226169715093
 20
17.64484661305524
 42
-0.1989123673796652
 10
48.39221119081208
 20
18.6347961067164
 42
0.0
 97
        0
 92
        7
 72
     1
 73
     1
 93
       16
 10
57.84221119081201
 20
22.7249981320718
 42
0.414213562373103
 10
57.31721119081203
 20
23.24999813207182
 42
0.0
 10
55.56721119081203
 20
23.24999813207182
 42
0.4142135623730871
 10
55.04221119081205
 20
22.72499813207184
 42
0.0
 10
55.04221119081205
 20
9.949998132071804
 42
0.4142135623730927
 10
57.84221119081201
 20
7.149998132071829
 42
0.0
 10
61.34221119081201
 20
7.149998132071829
 42
0.4142135623731045
 10
64.14221119081208
 20
9.949998132071804
 42
0.0
 10
64.14221119081208
 20
22.72499813207183
 42
0.4142135623730951
 10
63.61721119081209
 20
23.24999813207182
 42
0.0
 10
61.86721119081198
 20
23.24999813207182
 42
0.4142135623730871
 10
61.34221119081201
 20
22.72499813207184
 42
0.0
 10
61.34221119081201
 20
10.9999981320718
 42
-0.4142135623730879
 10
60.29221119081205
 20
9.949998132071826
 42
0.0
 10
58.89221119081208
 20
9.949998132071826
 42
-0.4142135623731197
 10
57.84221119081201
 20
10.9999981320718
 42
0.0
 97
        0
 92
        7
 72
     1
 73
     1
 93
        8
 10
69.04221119081205
 20
22.72499813207184
 42
0.4142135623730871
 10
68.51721119081208
 20
23.24999813207182
 42
0.0
 10
66.76721119081207
 20
23.24999813207182
 42
0.4142135623731507
 10
66.24221119081198
 20
22.72499813207184
 42
0.0
 10
66.24221119081198
 20
7.674998132071813
 42
0.4142135623730891
 10
66.76721119081197
 20
7.149998132071829
 42
0.0
 10
68.51721119081208
 20
7.149998132071829
 42
0.4142135623730891
 10
69.04221119081205
 20
7.674998132071813
 42
0.0
 97
        0
 75
     0
 76
     1
 52
0.0
 41
0.2
 77
     0
 78
     2
 53
45.0
 43
-900.9423052986482
 44
-13.20000186792809
 45
-0.4490128060534576
 46
0.4490128060534577
 79
     0
 53
135.0
 43
-900.9423052986482
 44
-13.20000186792809
 45
-0.4490128060534577
 46
-0.4490128060534576
 79
     0
 47
0.057451373970553
 98
        8
 10
16.07985399905419
 20
15.16717177795737
 10
22.40451404247005
 20
18.84406031452283
 10
25.16436692169054
 20
15.51187977814254
 10
30.91405901766802
 20
16.20129577851332
 10
41.83847105498762
 20
16.66090804605494
 10
46.89819993116043
 20
19.41857444847903
 10
56.55768500843123
 20
18.72915604716683
 10
67.82707865565362
 20
19.18876831470845
  0
LINE
  5
555A
330
5532
100
AcDbEntity
  8
ZUWAKU
100
AcDbLine
 10
35.67634612812787
 20
7.516904163904882
 30
0.0
 11
33.80807625349609
 21
13.43309210023881
 31
0.0
  0
ARC
  5
555B
330
5532
100
AcDbEntity
  8
ZUWAKU
100
AcDbCircle
 10
15.84221119081201
 20
9.949998132071868
 30
0.0
 40
2.799999999999998
100
AcDbArc
 50
270.0
 51
0.0
  0
LINE
  5
555C
330
5532
100
AcDbEntity
  8
ZUWAKU
100
AcDbLine
 10
11.81721119081203
 20
7.674998132071777
 30
0.0
 11
11.81721119081203
 21
9.424998132071777
 31
0.0
  0
LINE
  5
555D
330
5532
100
AcDbEntity
  8
ZUWAKU
100
AcDbLine
 10
12.342211190812
 20
7.1499981320718
 30
0.0
 11
15.84221119081201
 21
7.1499981320718
 31
0.0
  0
ARC
  5
555E
330
5532
100
AcDbEntity
  8
ZUWAKU
100
AcDbCircle
 10
12.342211190812
 20
7.674998132071777
 30
0.0
 40
0.525
100
AcDbArc
 50
180.0
 51
270.0
  0
ARC
  5
555F
330
5532
100
AcDbEntity
  8
ZUWAKU
100
AcDbCircle
 10
15.31721119081203
 20
10.47499813207184
 30
0.0
 40
0.525
100
AcDbArc
 50
270.0
 51
0.0
  0
ARC
  5
5560
330
5532
100
AcDbEntity
  8
ZUWAKU
100
AcDbCircle
 10
12.342211190812
 20
9.424998132071777
 30
0.0
 40
0.525
100
AcDbArc
 50
90.0
 51
180.0
  0
LINE
  5
5561
330
5532
100
AcDbEntity
  8
ZUWAKU
100
AcDbLine
 10
12.342211190812
 20
9.949998132071868
 30
0.0
 11
15.31721119081203
 21
9.949998132071868
 31
0.0
  0
LINE
  5
5562
330
5532
100
AcDbEntity
  8
ZUWAKU
100
AcDbLine
 10
15.84221119081201
 20
10.47499813207184
 30
0.0
 11
15.84221119081201
 21
11.76520015742721
 31
0.0
  0
ARC
  5
5563
330
5532
100
AcDbEntity
  8
ZUWAKU
100
AcDbCircle
 10
14.44221119081203
 20
11.76520015742721
 30
0.0
 40
1.399999999999999
100
AcDbArc
 50
0.0
 51
44.99999999999964
  0
LINE
  5
5564
330
5532
100
AcDbEntity
  8
ZUWAKU
100
AcDbLine
 10
12.52236270982848
 20
15.66494762573302
 30
0.0
 11
15.43216068447316
 21
12.75514965108834
 31
0.0
  0
LINE
  5
5565
330
5532
100
AcDbEntity
  8
ZUWAKU
100
AcDbLine
 10
27.39221119081207
 20
9.424998132071777
 30
0.0
 11
27.39221119081207
 21
7.674998132071777
 31
0.0
  0
LINE
  5
5566
330
5532
100
AcDbEntity
  8
ZUWAKU
100
AcDbLine
 10
26.86721119081198
 20
7.1499981320718
 30
0.0
 11
24.94221119081203
 21
7.1499981320718
 31
0.0
  0
ARC
  5
5567
330
5532
100
AcDbEntity
  8
ZUWAKU
100
AcDbCircle
 10
26.86721119081198
 20
7.674998132071777
 30
0.0
 40
0.525
100
AcDbArc
 50
270.0
 51
0.0
  0
ARC
  5
5568
330
5532
100
AcDbEntity
  8
ZUWAKU
100
AcDbCircle
 10
24.94221119081203
 20
11.34999813207184
 30
0.0
 40
1.399999999999999
100
AcDbArc
 50
180.0
 51
270.0
  0
LINE
  5
5569
330
5532
100
AcDbEntity
  8
ZUWAKU
100
AcDbLine
 10
24.94221119081203
 20
9.949998132071868
 30
0.0
 11
26.86721119081198
 21
9.949998132071868
 31
0.0
  0
ARC
  5
556A
330
5532
100
AcDbEntity
  8
ZUWAKU
100
AcDbCircle
 10
26.86721119081198
 20
9.424998132071777
 30
0.0
 40
0.525
100
AcDbArc
 50
0.0
 51
90.0
  0
LINE
  5
556B
330
5532
100
AcDbEntity
  8
ZUWAKU
100
AcDbLine
 10
32.64221119081208
 20
7.674998132071777
 30
0.0
 11
32.64221119081208
 21
13.2749981320718
 31
0.0
  0
LINE
  5
556C
330
5532
100
AcDbEntity
  8
ZUWAKU
100
AcDbLine
 10
30.36721119081198
 20
7.1499981320718
 30
0.0
 11
32.11721119081198
 21
7.1499981320718
 31
0.0
  0
ARC
  5
556D
330
5532
100
AcDbEntity
  8
ZUWAKU
100
AcDbCircle
 10
30.36721119081198
 20
7.674998132071777
 30
0.0
 40
0.525
100
AcDbArc
 50
180.0
 51
270.0
  0
ARC
  5
556E
330
5532
100
AcDbEntity
  8
ZUWAKU
100
AcDbCircle
 10
32.11721119081198
 20
7.674998132071777
 30
0.0
 40
0.525
100
AcDbArc
 50
270.0
 51
0.0
  0
LINE
  5
556F
330
5532
100
AcDbEntity
  8
ZUWAKU
100
AcDbLine
 10
33.16721119081205
 20
13.79999813207177
 30
0.0
 11
33.30744535430074
 21
13.79999813207177
 31
0.0
  0
ARC
  5
5570
330
5532
100
AcDbEntity
  8
ZUWAKU
100
AcDbCircle
 10
33.30744535430074
 20
13.2749981320718
 30
0.0
 40
0.525
100
AcDbArc
 50
17.52556837372287
 51
90.0
  0
ARC
  5
5571
330
5532
100
AcDbEntity
  8
ZUWAKU
100
AcDbCircle
 10
33.16721119081205
 20
13.2749981320718
 30
0.0
 40
0.525
100
AcDbArc
 50
90.0
 51
180.0
  0
ARC
  5
5572
330
5532
100
AcDbEntity
  8
ZUWAKU
100
AcDbCircle
 10
14.44221119081203
 20
11.7652001574271
 30
0.0
 40
4.199999999999998
100
AcDbArc
 50
0.0
 51
44.99999999999964
  0
LINE
  5
5573
330
5532
100
AcDbEntity
  8
ZUWAKU
100
AcDbLine
 10
18.64221119081207
 20
9.949998132071868
 30
0.0
 11
18.64221119081207
 21
11.76520015742721
 31
0.0
  0
ARC
  5
5574
330
5532
100
AcDbEntity
  8
ZUWAKU
100
AcDbCircle
 10
24.94221119081203
 20
11.34999813207184
 30
0.0
 40
4.199999999999998
100
AcDbArc
 50
180.0
 51
270.0
  0
ARC
  5
5575
330
5532
100
AcDbEntity
  8
ZUWAKU
100
AcDbCircle
 10
50.14221119081208
 20
9.949998132071868
 30
0.0
 40
2.799999999999998
100
AcDbArc
 50
270.0
 51
0.0
  0
ARC
  5
5576
330
5532
100
AcDbEntity
  8
ZUWAKU
100
AcDbCircle
 10
48.74221119081198
 20
11.7652001574271
 30
0.0
 40
4.199999999999998
100
AcDbArc
 50
0.0
 51
44.99999999999964
  0
LINE
  5
5577
330
5532
100
AcDbEntity
  8
ZUWAKU
100
AcDbLine
 10
41.217211190812
 20
7.1499981320718
 30
0.0
 11
42.967211190812
 21
7.1499981320718
 31
0.0
  0
ARC
  5
5578
330
5532
100
AcDbEntity
  8
ZUWAKU
100
AcDbCircle
 10
41.217211190812
 20
7.674998132071777
 30
0.0
 40
0.525
100
AcDbArc
 50
180.0
 51
270.0
  0
ARC
  5
5579
330
5532
100
AcDbEntity
  8
ZUWAKU
100
AcDbCircle
 10
42.967211190812
 20
7.674998132071777
 30
0.0
 40
0.525
100
AcDbArc
 50
270.0
 51
0.0
  0
LINE
  5
557A
330
5532
100
AcDbEntity
  8
ZUWAKU
100
AcDbLine
 10
46.11721119081198
 20
7.674998132071777
 30
0.0
 11
46.11721119081198
 21
9.424998132071777
 31
0.0
  0
LINE
  5
557B
330
5532
100
AcDbEntity
  8
ZUWAKU
100
AcDbLine
 10
46.64221119081207
 20
7.1499981320718
 30
0.0
 11
50.14221119081208
 21
7.1499981320718
 31
0.0
  0
ARC
  5
557C
330
5532
100
AcDbEntity
  8
ZUWAKU
100
AcDbCircle
 10
46.64221119081207
 20
7.674998132071777
 30
0.0
 40
0.525
100
AcDbArc
 50
180.0
 51
270.0
  0
LINE
  5
557D
330
5532
100
AcDbEntity
  8
ZUWAKU
100
AcDbLine
 10
46.64221119081207
 20
9.949998132071868
 30
0.0
 11
49.61721119081198
 21
9.949998132071868
 31
0.0
  0
ARC
  5
557E
330
5532
100
AcDbEntity
  8
ZUWAKU
100
AcDbCircle
 10
46.64221119081207
 20
9.424998132071777
 30
0.0
 40
0.525
100
AcDbArc
 50
90.0
 51
180.0
  0
LINE
  5
557F
330
5532
100
AcDbEntity
  8
ZUWAKU
100
AcDbLine
 10
50.14221119081208
 20
10.47499813207184
 30
0.0
 11
50.14221119081208
 21
11.76520015742721
 31
0.0
  0
ARC
  5
5580
330
5532
100
AcDbEntity
  8
ZUWAKU
100
AcDbCircle
 10
48.74221119081198
 20
11.76520015742721
 30
0.0
 40
1.399999999999999
100
AcDbArc
 50
0.0
 51
44.99999999999964
  0
ARC
  5
5581
330
5532
100
AcDbEntity
  8
ZUWAKU
100
AcDbCircle
 10
49.61721119081198
 20
10.47499813207184
 30
0.0
 40
0.525
100
AcDbArc
 50
270.0
 51
0.0
  0
ARC
  5
5582
330
5532
100
AcDbEntity
  8
ZUWAKU
100
AcDbCircle
 10
36.17697702732334
 20
7.674998132071777
 30
0.0
 40
0.525
100
AcDbArc
 50
197.5255683737229
 51
270.0
  0
LINE
  5
5583
330
5532
100
AcDbEntity
  8
ZUWAKU
100
AcDbLine
 10
36.17697702732334
 20
7.1499981320718
 30
0.0
 11
37.87586640693234
 21
7.1499981320718
 31
0.0
  0
ARC
  5
5584
330
5532
100
AcDbEntity
  8
ZUWAKU
100
AcDbCircle
 10
37.87586640693234
 20
7.674998132071777
 30
0.0
 40
0.525
100
AcDbArc
 50
270.0
 51
17.52556837372287
  0
LINE
  5
5585
330
5532
100
AcDbEntity
  8
ZUWAKU
100
AcDbLine
 10
38.37649730612781
 20
7.833092100238786
 30
0.0
 11
36.05010592765415
 21
15.19999813207187
 31
0.0
  0
LINE
  5
5586
330
5532
100
AcDbEntity
  8
ZUWAKU
100
AcDbLine
 10
46.82236270982855
 20
15.66494762573302
 30
0.0
 11
49.73216068447323
 21
12.75514965108834
 31
0.0
  0
LINE
  5
5587
330
5532
100
AcDbEntity
  8
ZUWAKU
100
AcDbLine
 10
57.84221119081201
 20
7.1499981320718
 30
0.0
 11
61.34221119081201
 21
7.1499981320718
 31
0.0
  0
ARC
  5
5588
330
5532
100
AcDbEntity
  8
ZUWAKU
100
AcDbCircle
 10
60.29221119081205
 20
10.99999813207182
 30
0.0
 40
1.049999999999998
100
AcDbArc
 50
270.0
 51
0.0
  0
LINE
  5
5589
330
5532
100
AcDbEntity
  8
ZUWAKU
100
AcDbLine
 10
60.29221119081205
 20
9.949998132071868
 30
0.0
 11
58.89221119081208
 21
9.949998132071868
 31
0.0
  0
ARC
  5
558A
330
5532
100
AcDbEntity
  8
ZUWAKU
100
AcDbCircle
 10
58.89221119081208
 20
10.99999813207182
 30
0.0
 40
1.049999999999998
100
AcDbArc
 50
180.0
 51
270.0
  0
ARC
  5
558B
330
5532
100
AcDbEntity
  8
ZUWAKU
100
AcDbCircle
 10
68.51721119081208
 20
7.674998132071777
 30
0.0
 40
0.525
100
AcDbArc
 50
270.0
 51
0.0
  0
ARC
  5
558C
330
5532
100
AcDbEntity
  8
ZUWAKU
100
AcDbCircle
 10
61.34221119081201
 20
9.949998132071868
 30
0.0
 40
2.799999999999998
100
AcDbArc
 50
270.0
 51
0.0
  0
LINE
  5
558D
330
5532
100
AcDbEntity
  8
ZUWAKU
100
AcDbLine
 10
66.76721119081207
 20
7.1499981320718
 30
0.0
 11
68.51721119081208
 21
7.1499981320718
 31
0.0
  0
ARC
  5
558E
330
5532
100
AcDbEntity
  8
ZUWAKU
100
AcDbCircle
 10
66.76721119081207
 20
7.674998132071777
 30
0.0
 40
0.525
100
AcDbArc
 50
180.0
 51
270.0
  0
LINE
  5
558F
330
5532
100
AcDbEntity
  8
ZUWAKU
100
AcDbLine
 10
52.94221119081203
 20
9.949998132071868
 30
0.0
 11
52.94221119081203
 21
11.76520015742721
 31
0.0
  0
ARC
  5
5590
330
5532
100
AcDbEntity
  8
ZUWAKU
100
AcDbCircle
 10
57.84221119081201
 20
9.949998132071868
 30
0.0
 40
2.799999999999998
100
AcDbArc
 50
180.0
 51
270.0
  0
TEXT
  5
5591
330
5532
100
AcDbEntity
  8
MOJI
100
AcDbText
 10
129.580999678862
 20
8.554221547602196
 30
0.0
 40
5.799999999999999
  1
Ｓ１２０Ｈ・Ｍ１２０Ｈ
 41
0.9
  7
ｽﾀｲﾙ1
100
AcDbText
  0
LINE
  5
5592
330
5532
100
AcDbEntity
  8
ZUWAKU
100
AcDbLine
 10
35.67634612812787
 20
22.88309210023874
 30
0.0
 11
33.80807625349609
 21
16.96690416390481
 31
0.0
  0
LINE
  5
5593
330
5532
100
AcDbEntity
  8
ZUWAKU
100
AcDbLine
 10
17.59221119081201
 20
20.44999813207187
 30
0.0
 11
14.61721119081198
 21
20.44999813207187
 31
0.0
  0
LINE
  5
5594
330
5532
100
AcDbEntity
  8
ZUWAKU
100
AcDbLine
 10
14.092211190812
 20
23.24999813207182
 30
0.0
 11
17.59221119081201
 21
23.24999813207182
 31
0.0
  0
ARC
  5
5595
330
5532
100
AcDbEntity
  8
ZUWAKU
100
AcDbCircle
 10
14.092211190812
 20
20.44999813207187
 30
0.0
 40
2.799999999999998
100
AcDbArc
 50
90.0
 51
180.0
  0
ARC
  5
5596
330
5532
100
AcDbEntity
  8
ZUWAKU
100
AcDbCircle
 10
15.49221119081198
 20
18.63479610671652
 30
0.0
 40
1.399999999999999
100
AcDbArc
 50
180.0000000000016
 51
224.9999999999995
  0
ARC
  5
5597
330
5532
100
AcDbEntity
  8
ZUWAKU
100
AcDbCircle
 10
14.61721119081198
 20
19.92499813207177
 30
0.0
 40
0.525
100
AcDbArc
 50
90.0
 51
180.0
  0
LINE
  5
5598
330
5532
100
AcDbEntity
  8
ZUWAKU
100
AcDbLine
 10
14.092211190812
 20
19.92499813207177
 30
0.0
 11
14.092211190812
 21
18.63479610671652
 31
0.0
  0
LINE
  5
5599
330
5532
100
AcDbEntity
  8
ZUWAKU
100
AcDbLine
 10
11.29221119081205
 20
20.44999813207187
 30
0.0
 11
11.29221119081205
 21
18.63479610671652
 31
0.0
  0
ARC
  5
559A
330
5532
100
AcDbEntity
  8
ZUWAKU
100
AcDbCircle
 10
26.86721119081198
 20
20.97499813207184
 30
0.0
 40
0.525
100
AcDbArc
 50
270.0
 51
0.0
  0
ARC
  5
559B
330
5532
100
AcDbEntity
  8
ZUWAKU
100
AcDbCircle
 10
24.94221119081203
 20
19.04999813207177
 30
0.0
 40
1.399999999999999
100
AcDbArc
 50
90.0
 51
180.0
  0
LINE
  5
559C
330
5532
100
AcDbEntity
  8
ZUWAKU
100
AcDbLine
 10
26.86721119081198
 20
20.44999813207187
 30
0.0
 11
24.94221119081203
 21
20.44999813207187
 31
0.0
  0
LINE
  5
559D
330
5532
100
AcDbEntity
  8
ZUWAKU
100
AcDbLine
 10
24.94221119081203
 20
23.24999813207182
 30
0.0
 11
26.86721119081198
 21
23.24999813207182
 31
0.0
  0
ARC
  5
559E
330
5532
100
AcDbEntity
  8
ZUWAKU
100
AcDbCircle
 10
26.86721119081198
 20
22.72499813207184
 30
0.0
 40
0.525
100
AcDbArc
 50
0.0
 51
90.0
  0
LINE
  5
559F
330
5532
100
AcDbEntity
  8
ZUWAKU
100
AcDbLine
 10
27.39221119081207
 20
22.72499813207184
 30
0.0
 11
27.39221119081207
 21
20.97499813207184
 31
0.0
  0
LINE
  5
55A0
330
5532
100
AcDbEntity
  8
ZUWAKU
100
AcDbLine
 10
32.64221119081208
 20
17.12499813207182
 30
0.0
 11
32.64221119081208
 21
22.72499813207184
 31
0.0
  0
ARC
  5
55A1
330
5532
100
AcDbEntity
  8
ZUWAKU
100
AcDbCircle
 10
33.30744535430074
 20
17.12499813207182
 30
0.0
 40
0.525
100
AcDbArc
 50
270.0
 51
342.4744316262771
  0
LINE
  5
55A2
330
5532
100
AcDbEntity
  8
ZUWAKU
100
AcDbLine
 10
33.30744535430074
 20
16.59999813207184
 30
0.0
 11
33.16721119081205
 21
16.59999813207184
 31
0.0
  0
ARC
  5
55A3
330
5532
100
AcDbEntity
  8
ZUWAKU
100
AcDbCircle
 10
33.16721119081205
 20
17.12499813207182
 30
0.0
 40
0.525
100
AcDbArc
 50
180.0
 51
270.0
  0
LINE
  5
55A4
330
5532
100
AcDbEntity
  8
ZUWAKU
100
AcDbLine
 10
32.11721119081198
 20
23.24999813207182
 30
0.0
 11
30.36721119081198
 21
23.24999813207182
 31
0.0
  0
ARC
  5
55A5
330
5532
100
AcDbEntity
  8
ZUWAKU
100
AcDbCircle
 10
30.36721119081198
 20
22.72499813207184
 30
0.0
 40
0.525
100
AcDbArc
 50
90.0
 51
180.0
  0
ARC
  5
55A6
330
5532
100
AcDbEntity
  8
ZUWAKU
100
AcDbCircle
 10
32.11721119081198
 20
22.72499813207184
 30
0.0
 40
0.525
100
AcDbArc
 50
0.0
 51
90.0
  0
ARC
  5
55A7
330
5532
100
AcDbEntity
  8
ZUWAKU
100
AcDbCircle
 10
17.59221119081201
 20
20.97499813207184
 30
0.0
 40
0.525
100
AcDbArc
 50
270.0
 51
0.0
  0
ARC
  5
55A8
330
5532
100
AcDbEntity
  8
ZUWAKU
100
AcDbCircle
 10
17.59221119081201
 20
22.72499813207184
 30
0.0
 40
0.525
100
AcDbArc
 50
0.0
 51
90.0
  0
LINE
  5
55A9
330
5532
100
AcDbEntity
  8
ZUWAKU
100
AcDbLine
 10
18.11721119081198
 20
22.72499813207184
 30
0.0
 11
18.11721119081198
 21
20.97499813207184
 31
0.0
  0
ARC
  5
55AA
330
5532
100
AcDbEntity
  8
ZUWAKU
100
AcDbCircle
 10
24.94221119081203
 20
19.04999813207177
 30
0.0
 40
4.199999999999998
100
AcDbArc
 50
90.0
 51
180.0
  0
ARC
  5
55AB
330
5532
100
AcDbEntity
  8
ZUWAKU
100
AcDbCircle
 10
51.89221119081207
 20
22.72499813207184
 30
0.0
 40
0.525
100
AcDbArc
 50
0.0
 51
90.0
  0
ARC
  5
55AC
330
5532
100
AcDbEntity
  8
ZUWAKU
100
AcDbCircle
 10
51.89221119081207
 20
20.97499813207184
 30
0.0
 40
0.525
100
AcDbArc
 50
270.0
 51
0.0
  0
LINE
  5
55AD
330
5532
100
AcDbEntity
  8
ZUWAKU
100
AcDbLine
 10
42.967211190812
 20
23.24999813207182
 30
0.0
 11
41.217211190812
 21
23.24999813207182
 31
0.0
  0
ARC
  5
55AE
330
5532
100
AcDbEntity
  8
ZUWAKU
100
AcDbCircle
 10
41.217211190812
 20
22.72499813207184
 30
0.0
 40
0.525
100
AcDbArc
 50
90.0
 51
180.0
  0
ARC
  5
55AF
330
5532
100
AcDbEntity
  8
ZUWAKU
100
AcDbCircle
 10
42.967211190812
 20
22.72499813207184
 30
0.0
 40
0.525
100
AcDbArc
 50
0.0
 51
90.0
  0
ARC
  5
55B0
330
5532
100
AcDbEntity
  8
ZUWAKU
100
AcDbCircle
 10
48.39221119081208
 20
20.44999813207187
 30
0.0
 40
2.799999999999998
100
AcDbArc
 50
90.0
 51
180.0
  0
LINE
  5
55B1
330
5532
100
AcDbEntity
  8
ZUWAKU
100
AcDbLine
 10
45.592211190812
 20
20.44999813207187
 30
0.0
 11
45.592211190812
 21
18.63479610671652
 31
0.0
  0
ARC
  5
55B2
330
5532
100
AcDbEntity
  8
ZUWAKU
100
AcDbCircle
 10
49.79221119081206
 20
18.63479610671652
 30
0.0
 40
1.399999999999999
100
AcDbArc
 50
180.0000000000016
 51
224.9999999999995
  0
LINE
  5
55B3
330
5532
100
AcDbEntity
  8
ZUWAKU
100
AcDbLine
 10
51.89221119081207
 20
20.44999813207187
 30
0.0
 11
48.91721119081205
 21
20.44999813207187
 31
0.0
  0
ARC
  5
55B4
330
5532
100
AcDbEntity
  8
ZUWAKU
100
AcDbCircle
 10
48.91721119081205
 20
19.92499813207177
 30
0.0
 40
0.525
100
AcDbArc
 50
90.0
 51
180.0
  0
LINE
  5
55B5
330
5532
100
AcDbEntity
  8
ZUWAKU
100
AcDbLine
 10
48.39221119081208
 20
19.92499813207177
 30
0.0
 11
48.39221119081208
 21
18.63479610671652
 31
0.0
  0
LINE
  5
55B6
330
5532
100
AcDbEntity
  8
ZUWAKU
100
AcDbLine
 10
48.39221119081208
 20
23.24999813207182
 30
0.0
 11
51.89221119081207
 21
23.24999813207182
 31
0.0
  0
ARC
  5
55B7
330
5532
100
AcDbEntity
  8
ZUWAKU
100
AcDbCircle
 10
36.17697702732334
 20
22.72499813207184
 30
0.0
 40
0.525
100
AcDbArc
 50
90.0
 51
162.4744316262771
  0
LINE
  5
55B8
330
5532
100
AcDbEntity
  8
ZUWAKU
100
AcDbLine
 10
38.37649730612781
 20
22.56690416390483
 30
0.0
 11
37.31485767299
 21
19.20504532563529
 31
0.0
  0
LINE
  5
55B9
330
5532
100
AcDbEntity
  8
ZUWAKU
100
AcDbLine
 10
36.17697702732334
 20
23.24999813207182
 30
0.0
 11
37.87586640693234
 21
23.24999813207182
 31
0.0
  0
ARC
  5
55BA
330
5532
100
AcDbEntity
  8
ZUWAKU
100
AcDbCircle
 10
37.87586640693234
 20
22.72499813207184
 30
0.0
 40
0.525
100
AcDbArc
 50
342.4744316262771
 51
90.0
  0
ARC
  5
55BB
330
5532
100
AcDbEntity
  8
ZUWAKU
100
AcDbCircle
 10
68.51721119081208
 20
22.72499813207184
 30
0.0
 40
0.525
100
AcDbArc
 50
0.0
 51
90.0
  0
ARC
  5
55BC
330
5532
100
AcDbEntity
  8
ZUWAKU
100
AcDbCircle
 10
63.61721119081199
 20
22.72499813207184
 30
0.0
 40
0.525
100
AcDbArc
 50
0.0
 51
90.0
  0
LINE
  5
55BD
330
5532
100
AcDbEntity
  8
ZUWAKU
100
AcDbLine
 10
63.61721119081199
 20
23.24999813207182
 30
0.0
 11
61.86721119081198
 21
23.24999813207182
 31
0.0
  0
ARC
  5
55BE
330
5532
100
AcDbEntity
  8
ZUWAKU
100
AcDbCircle
 10
61.86721119081198
 20
22.72499813207184
 30
0.0
 40
0.525
100
AcDbArc
 50
90.0
 51
180.0
  0
LINE
  5
55BF
330
5532
100
AcDbEntity
  8
ZUWAKU
100
AcDbLine
 10
68.51721119081208
 20
23.24999813207182
 30
0.0
 11
66.76721119081207
 21
23.24999813207182
 31
0.0
  0
ARC
  5
55C0
330
5532
100
AcDbEntity
  8
ZUWAKU
100
AcDbCircle
 10
66.76721119081207
 20
22.72499813207184
 30
0.0
 40
0.525
100
AcDbArc
 50
90.0
 51
180.0
  0
LINE
  5
55C1
330
5532
100
AcDbEntity
  8
ZUWAKU
100
AcDbLine
 10
57.31721119081203
 20
23.24999813207182
 30
0.0
 11
55.56721119081203
 21
23.24999813207182
 31
0.0
  0
ARC
  5
55C2
330
5532
100
AcDbEntity
  8
ZUWAKU
100
AcDbCircle
 10
55.56721119081203
 20
22.72499813207184
 30
0.0
 40
0.525
100
AcDbArc
 50
90.0
 51
180.0
  0
LINE
  5
55C3
330
5532
100
AcDbEntity
  8
ZUWAKU
100
AcDbLine
 10
52.41721119081205
 20
22.72499813207184
 30
0.0
 11
52.41721119081205
 21
20.97499813207184
 31
0.0
  0
ARC
  5
55C4
330
5532
100
AcDbEntity
  8
ZUWAKU
100
AcDbCircle
 10
57.31721119081203
 20
22.72499813207184
 30
0.0
 40
0.525
100
AcDbArc
 50
0.0
 51
90.0
  0
TEXT
  5
55C5
330
5532
100
AcDbEntity
  8
MOJI
100
AcDbText
 10
81.66226299019626
 20
17.85856608099823
 30
0.0
 40
5.799999999999999
  1
アートフェイスＴ１２０・Ｈ１２０・
 41
0.9
  7
ｽﾀｲﾙ1
100
AcDbText
  0
TEXT
  5
55C6
330
5532
100
AcDbEntity
  8
MOJI
100
AcDbText
 10
463.2464310270329
 20
11.9426158537318
 30
0.0
 40
5.599999999999998
  1
ＬＭ０１Ｔ
 41
0.9
  7
ｽﾀｲﾙ1
100
AcDbText
  0
LINE
  5
55C7
330
5532
100
AcDbEntity
  8
ZUWAKU
100
AcDbLine
 10
447.6243630070221
 20
29.99999813207182
 30
0.0
 11
447.6243630070221
 21
0.7999981320718917
 31
0.0
  0
LINE
  5
55C8
330
5532
100
AcDbEntity
  8
ZUWAKU
100
AcDbLine
 10
447.8243630070219
 20
29.99999813207182
 30
0.0
 11
447.8243630070223
 21
0.7999981320718917
 31
0.0
  0
LINE
  5
55C9
330
5532
100
AcDbEntity
  8
ZUWAKU
100
AcDbLine
 10
447.4243630070223
 20
29.99999813207182
 30
0.0
 11
447.4243630070223
 21
0.7999981320718917
 31
0.0
  0
TEXT
  5
55CA
330
5532
100
AcDbEntity
  8
MOJI
100
AcDbText
 10
239.8272017168819
 20
3.204919189479255
 30
0.0
 40
5.599999999999998
  1
１２０－０－１０
 41
0.9
  7
ｽﾀｲﾙ1
100
AcDbText
  0
TEXT
  5
55CB
330
5532
100
AcDbEntity
  8
ZUWAKU
100
AcDbText
 10
209.7240453483084
 20
9.655354670457427
 30
0.0
 40
4.0
  1
サイズ
 41
0.9
  7
ｽﾀｲﾙ1
100
AcDbText
  0
TEXT
  5
55CC
330
5532
100
AcDbEntity
  8
MOJI
100
AcDbText
 10
239.8272017168819
 20
18.00491918947921
 30
0.0
 40
5.599999999999998
  1
ブラケット正面打（吊）固定式
 41
0.9
  7
ｽﾀｲﾙ1
100
AcDbText
  0
TEXT
  5
55CD
330
5532
100
AcDbEntity
  8
ZUWAKU
100
AcDbText
 10
209.7240453483081
 20
24.0553546704574
 30
0.0
 40
4.0
  1
品名
 41
0.9
  7
ｽﾀｲﾙ1
100
AcDbText
  0
TEXT
  5
55CE
330
5532
100
AcDbEntity
  8
ZUWAKU
100
AcDbText
 10
449.3018080292317
 20
24.0553546704574
 30
0.0
 40
4.0
  1
品番
 41
0.9
  7
ｽﾀｲﾙ1
100
AcDbText
  0
LINE
  5
55CF
330
5532
100
AcDbEntity
  8
ZUWAKU
100
AcDbLine
 10
697.2490095845721
 20
29.99999813207182
 30
0.0
 11
697.2490095845721
 21
0.7999981320718917
 31
0.0
  0
LINE
  5
55D0
330
5532
100
AcDbEntity
  8
ZUWAKU
100
AcDbLine
 10
697.4490095845721
 20
29.99999813207182
 30
0.0
 11
697.4490095845721
 21
0.7999981320718917
 31
0.0
  0
LINE
  5
55D1
330
5532
100
AcDbEntity
  8
ZUWAKU
100
AcDbLine
 10
697.6490095845719
 20
29.99999813207182
 30
0.0
 11
697.6490095845722
 21
0.7999981320718917
 31
0.0
  0
LINE
  5
55D2
330
5532
100
AcDbEntity
  8
ZUWAKU
100
AcDbLine
 10
697.8490095845723
 20
29.99999813207182
 30
0.0
 11
697.8490095845723
 21
0.7999981320718917
 31
0.0
  0
LINE
  5
55D3
330
5532
100
AcDbEntity
  8
ZUWAKU
100
AcDbLine
 10
648.617201546235
 20
29.99999813207182
 30
0.0
 11
648.6172015462354
 21
0.7999981320718917
 31
0.0
  0
LINE
  5
55D4
330
5532
100
AcDbEntity
  8
ZUWAKU
100
AcDbLine
 10
648.8172015462351
 20
29.99999813207182
 30
0.0
 11
648.8172015462355
 21
0.7999981320718917
 31
0.0
  0
LINE
  5
55D5
330
5532
100
AcDbEntity
  8
ZUWAKU
100
AcDbLine
 10
648.4172015462354
 20
29.99999813207182
 30
0.0
 11
648.4172015462354
 21
0.7999981320718917
 31
0.0
  0
LINE
  5
55D6
330
5532
100
AcDbEntity
  8
ZUWAKU
100
AcDbLine
 10
552.7269548021431
 20
29.99999813207182
 30
0.0
 11
552.7269548021431
 21
0.7999981320718917
 31
0.0
  0
LINE
  5
55D7
330
5532
100
AcDbEntity
  8
ZUWAKU
100
AcDbLine
 10
552.9269548021432
 20
29.99999813207182
 30
0.0
 11
552.9269548021434
 21
0.7999981320718917
 31
0.0
  0
LINE
  5
55D8
330
5532
100
AcDbEntity
  8
ZUWAKU
100
AcDbLine
 10
552.5269548021433
 20
29.99999813207182
 30
0.0
 11
552.5269548021433
 21
0.7999981320718917
 31
0.0
  0
LINE
  5
55D9
330
5532
100
AcDbEntity
  8
ZUWAKU
100
AcDbLine
 10
504.9991785341717
 20
29.99999813207182
 30
0.0
 11
504.9991785341717
 21
0.7999981320718917
 31
0.0
  0
LINE
  5
55DA
330
5532
100
AcDbEntity
  8
ZUWAKU
100
AcDbLine
 10
505.1991785341715
 20
29.99999813207182
 30
0.0
 11
505.1991785341719
 21
0.7999981320718917
 31
0.0
  0
LINE
  5
55DB
330
5532
100
AcDbEntity
  8
ZUWAKU
100
AcDbLine
 10
504.7991785341719
 20
29.99999813207182
 30
0.0
 11
504.7991785341719
 21
0.7999981320718917
 31
0.0
  0
LINE
  5
55DC
330
5532
100
AcDbEntity
  8
ZUWAKU
100
AcDbLine
 10
505.1991785341715
 20
15.19999813207187
 30
0.0
 11
552.5269548021433
 21
15.19999813207187
 31
0.0
  0
LINE
  5
55DD
330
5532
100
AcDbEntity
  8
ZUWAKU
100
AcDbLine
 10
505.1991785341715
 20
15.3999981320718
 30
0.0
 11
552.5269548021433
 21
15.3999981320718
 31
0.0
  0
LINE
  5
55DE
330
5532
100
AcDbEntity
  8
ZUWAKU
100
AcDbLine
 10
505.1991785341715
 20
15.59999813207184
 30
0.0
 11
552.5269548021433
 21
15.59999813207184
 31
0.0
  0
TEXT
  5
55DF
330
5532
100
AcDbEntity
  8
ZUWAKU
100
AcDbText
 10
506.6766235563816
 20
9.655354670457427
 30
0.0
 40
4.0
  1
縮尺
 41
0.9
  7
ｽﾀｲﾙ1
100
AcDbText
  0
TEXT
  5
55E0
330
5532
100
AcDbEntity
  8
MOJI
100
AcDbText
 10
528.0409070083437
 20
3.204919189479255
 30
0.0
 40
5.599999999999998
  1
１/２
 41
0.9
  7
ｽﾀｲﾙ1
100
AcDbText
  0
LINE
  5
55E1
330
5532
100
AcDbEntity
  8
ZUWAKU
100
AcDbLine
 10
648.8172015462351
 20
15.19999813207187
 30
0.0
 11
697.2490095845721
 21
15.19999813207187
 31
0.0
  0
LINE
  5
55E2
330
5532
100
AcDbEntity
  8
ZUWAKU
100
AcDbLine
 10
648.8172015462351
 20
15.3999981320718
 30
0.0
 11
697.2490095845721
 21
15.3999981320718
 31
0.0
  0
LINE
  5
55E3
330
5532
100
AcDbEntity
  8
ZUWAKU
100
AcDbLine
 10
648.8172015462351
 20
15.59999813207184
 30
0.0
 11
697.2490095845721
 21
15.59999813207184
 31
0.0
  0
TEXT
  5
55E4
330
5532
100
AcDbEntity
  8
ZUWAKU
100
AcDbText
 10
708.5280832282746
 20
6.648838445925889
 30
0.0
 40
6.0
  1
建材事業部
 41
0.9
  7
ｽﾀｲﾙ1
100
AcDbText
  0
TEXT
  5
55E5
330
5532
100
AcDbEntity
  8
ZUWAKU
100
AcDbText
 10
506.6766235563814
 20
24.0553546704574
 30
0.0
 40
4.0
  1
用紙
 41
0.9
  7
ｽﾀｲﾙ1
100
AcDbText
  0
TEXT
  5
55E6
330
5532
100
AcDbEntity
  8
MOJI
100
AcDbText
 10
528.0409070083437
 20
18.00491918947921
 30
0.0
 40
5.599999999999998
  1
Ａ３
 41
0.9
  7
ｽﾀｲﾙ1
100
AcDbText
  0
TEXT
  5
55E7
330
5532
100
AcDbEntity
  8
ZUWAKU
100
AcDbText
 10
654.5120750357177
 20
18.00491918947921
 30
0.0
 40
5.599999999999998
  1
　　．　．　　
 41
0.9
  7
ｽﾀｲﾙ1
100
AcDbText
  0
TEXT
  5
55E8
330
5532
100
AcDbEntity
  8
ZUWAKU
100
AcDbText
 10
650.2946465684449
 20
24.0553546704574
 30
0.0
 40
4.0
  1
DATE
 41
0.9
  7
ｽﾀｲﾙ1
100
AcDbText
  0
TEXT
  5
55E9
330
5532
100
AcDbEntity
  8
SUNPOU
100
AcDbText
 10
476.5951638652891
 20
306.9202331468175
 30
0.0
 40
6.0
  1
3-φ4.2
100
AcDbText
  0
DIMENSION
  5
55EA
330
5532
100
AcDbEntity
  8
SUNPOU
100
AcDbDimension
  2
*D12
 10
488.5122662580292
 20
200.088169900923
 30
0.0
 11
483.5122662580292
 21
238.938167388918
 31
0.0
 12
-0.8000005306130333
 22
0.799997491774775
 32
0.0
  3
STANDARD
100
AcDbAlignedDimension
 13
570.0770327685363
 23
277.7881648769128
 33
0.0
 14
570.0769369047093
 24
200.088169900923
 34
0.0
 50
90.0
100
AcDbRotatedDimension
1001
ACAD
1000
DSTYLE
1002
{
1070
    41
1040
7.0
1070
    42
1040
6.0
1070
    43
1040
14.0
1070
    44
1040
3.0
1070
    73
1070
     0
1070
    74
1070
     0
1070
    77
1070
     3
1070
   140
1040
6.0
1070
   141
1040
150.0
1070
   147
1040
2.0
1070
   172
1070
     1
1070
   173
1070
     1
1070
   176
1070
   256
1070
   177
1070
   256
1070
   178
1070
   256
1070
   271
1070
     0
1070
   272
1070
     0
1070
   341
1005
6D
1070
     6
1000
OPEN
1070
     7
1000
OPEN
1070
   371
1070
    -1
1070
   372
1070
    -1
1002
}
  0
LEADER
  5
55EB
330
5532
100
AcDbEntity
  8
SUNPOU
100
AcDbLeader
  3
STANDARD
 40
6.0
 41
31.19999999999999
 76
     3
 10
536.8615664737348
 20
259.7262232656353
 30
0.0
 10
510.7301220762026
 20
304.7784290766844
 30
0.0
 10
474.9837186775887
 20
304.7784290766844
 30
0.0
213
0.0
223
3.0
233
0.0
1001
ACAD
1000
DSTYLE
1002
{
1070
     6
1000
OPEN
1070
    41
1040
7.0
1070
    42
1040
6.0
1070
    43
1040
14.0
1070
    44
1040
3.0
1070
    73
1070
     0
1070
    74
1070
     0
1070
    77
1070
     0
1070
   140
1040
6.0
1070
   141
1040
150.0
1070
   147
1040
2.0
1070
   172
1070
     1
1070
   173
1070
     1
1070
   176
1070
   256
1070
   177
1070
   256
1070
   178
1070
   256
1070
   271
1070
     0
1070
   272
1070
     0
1070
   341
1005
6D
1070
   343
1005
6D
1070
   344
1005
6D
1070
   371
1070
    -1
1070
   372
1070
    -1
1002
}
  0
LINE
  5
55EC
330
5532
100
AcDbEntity
  8
SEIHIN
100
AcDbLine
 10
353.1617581228849
 20
230.038169900823
 30
0.0
 11
351.574044882785
 21
227.288169901023
 31
0.0
  0
LINE
  5
55ED
330
5532
100
AcDbEntity
  8
SEIHIN
100
AcDbLine
 10
365.330405638985
 20
229.170931677923
 30
0.0
 11
364.290106986085
 21
227.922573294323
 31
0.0
  0
ARC
  5
55EE
330
5532
100
AcDbEntity
  8
SEIHIN
100
AcDbCircle
 10
340.5341042243849
 20
229.288169900923
 30
0.0
 40
1.0
100
AcDbArc
 50
270.0
 51
344.9999999997007
  0
LINE
  5
55EF
330
5532
100
AcDbEntity
  8
SEIHIN
100
AcDbLine
 10
373.094770824885
 20
204.088169900923
 30
0.0
 11
373.094770824885
 21
277.7881699009231
 31
0.0
  0
LINE
  5
55F0
330
5532
100
AcDbEntity
  8
SEIHIN
100
AcDbLine
 10
366.094770824885
 20
203.143456547823
 30
0.0
 11
366.094770824885
 21
230.088199454923
 31
0.0
  0
DIMENSION
  5
55F1
330
5532
100
AcDbEntity
  8
SUNPOU
100
AcDbDimension
  2
*D5
 10
412.4815769381894
 20
200.088169900923
 30
0.0
 11
407.4815769381893
 21
238.9381699009231
 31
0.0
 12
-0.8000005306130333
 22
0.799997491774775
 32
0.0
  3
STANDARD
100
AcDbAlignedDimension
 13
373.094770824885
 23
277.7881699009231
 33
0.0
 14
368.094770824885
 24
200.088169900923
 34
0.0
 50
90.0
100
AcDbRotatedDimension
1001
ACAD
1000
DSTYLE
1002
{
1070
    41
1040
7.0
1070
    42
1040
6.0
1070
    43
1040
14.0
1070
    44
1040
3.0
1070
    73
1070
     0
1070
    74
1070
     0
1070
    77
1070
     3
1070
   140
1040
6.0
1070
   141
1040
150.0
1070
   147
1040
2.0
1070
   172
1070
     1
1070
   173
1070
     1
1070
   176
1070
   256
1070
   177
1070
   256
1070
   178
1070
   256
1070
   271
1070
     0
1070
   272
1070
     0
1070
   341
1005
6D
1070
     6
1000
OPEN
1070
     7
1000
OPEN
1070
   371
1070
    -1
1070
   372
1070
    -1
1002
}
  0
LINE
  5
55F2
330
5532
100
AcDbEntity
  8
SEIHIN
100
AcDbLine
 10
369.094770824885
 20
208.0414496536005
 30
0.0
 11
369.094770824885
 21
238.1481488659603
 31
0.0
  0
ARC
  5
55F3
330
5532
100
AcDbEntity
  8
SEIHIN
100
AcDbCircle
 10
328.594770824885
 20
344.7881699009231
 30
0.0
 40
116.5
100
AcDbArc
 50
225.0204654645004
 51
269.9999985406015
  0
ARC
  5
55F4
330
5532
100
AcDbEntity
  8
SEIHIN
100
AcDbCircle
 10
328.594770824885
 20
344.7881699009231
 30
0.0
 40
120.0
100
AcDbArc
 50
224.8321080703962
 51
269.9999985406015
  0
DIMENSION
  5
55F5
330
5532
100
AcDbEntity
  8
SUNPOU
100
AcDbDimension
  2
*D6
 10
366.094770824885
 20
175.4044295137716
 30
0.0
 11
348.094770824885
 21
180.4044295137716
 31
0.0
 12
-0.8000005306130333
 22
0.799997491774775
 32
0.0
  3
STANDARD
100
AcDbAlignedDimension
 13
373.094770824885
 23
204.088169900923
 33
0.0
 14
366.094770824885
 24
200.424559066523
 34
0.0
100
AcDbRotatedDimension
1001
ACAD
1000
DSTYLE
1002
{
1070
    41
1040
7.0
1070
    42
1040
6.0
1070
    43
1040
14.0
1070
    44
1040
3.0
1070
    73
1070
     0
1070
    74
1070
     0
1070
    77
1070
     3
1070
   140
1040
6.0
1070
   141
1040
150.0
1070
   147
1040
2.0
1070
   172
1070
     1
1070
   173
1070
     1
1070
   176
1070
   256
1070
   177
1070
   256
1070
   178
1070
   256
1070
   271
1070
     0
1070
   272
1070
     0
1070
   341
1005
6D
1070
     6
1000
OPEN
1070
     7
1000
OPEN
1070
   371
1070
    -1
1070
   372
1070
    -1
1002
}
  0
ARC
  5
55F6
330
5532
100
AcDbEntity
  8
SEIHIN
100
AcDbCircle
 10
347.2439178637851
 20
229.788169900923
 30
0.0
 40
5.0
100
AcDbArc
 50
270.0
 51
330.0000000010006
  0
LINE
  5
55F7
330
5532
100
AcDbEntity
  8
SEIHIN
100
AcDbLine
 10
328.594767768285
 20
224.788169900923
 30
0.0
 11
347.2439178637851
 21
224.788169900923
 31
0.0
  0
LINE
  5
55F8
330
5532
100
AcDbEntity
  8
SEIHIN
100
AcDbLine
 10
328.594767768285
 20
228.2881699009231
 30
0.0
 11
340.5341042243849
 21
228.2881699009231
 31
0.0
  0
LINE
  5
55F9
330
5532
100
AcDbEntity
  8
SEIHIN
100
AcDbLine
 10
366.094770824885
 20
200.4245590665231
 30
0.0
 11
366.094770824885
 21
203.143456547823
 31
0.0
  0
LINE
  5
55FA
330
5532
100
AcDbEntity
  8
SEIHIN
100
AcDbLine
 10
373.094770824885
 20
204.088169900923
 30
0.0
 11
368.094770824885
 21
201.088169900923
 31
0.0
  0
DIMENSION
  5
55FB
330
5532
100
AcDbEntity
  8
SUNPOU
100
AcDbDimension
  2
*D7
 10
395.6368927596829
 20
200.088169900923
 30
0.0
 11
390.6368927596829
 21
204.0881699009231
 31
0.0
 12
-0.8000005306130333
 22
0.799997491774775
 32
0.0
  3
STANDARD
100
AcDbAlignedDimension
 13
380.094770824885
 23
208.0881699009231
 33
0.0
 14
368.094770824885
 24
200.088169900923
 34
0.0
 50
90.0
100
AcDbRotatedDimension
1001
ACAD
1000
DSTYLE
1002
{
1070
    41
1040
7.0
1070
    42
1040
6.0
1070
    43
1040
14.0
1070
    44
1040
3.0
1070
    73
1070
     0
1070
    74
1070
     0
1070
    77
1070
     3
1070
   140
1040
6.0
1070
   141
1040
150.0
1070
   147
1040
2.0
1070
   172
1070
     1
1070
   173
1070
     1
1070
   176
1070
   256
1070
   177
1070
   256
1070
   178
1070
   256
1070
   271
1070
     0
1070
   272
1070
     0
1070
   341
1005
6D
1070
     6
1000
OPEN
1070
     7
1000
OPEN
1070
   371
1070
    -1
1070
   372
1070
    -1
1002
}
  0
LINE
  5
55FC
330
5532
100
AcDbEntity
  8
SEIHIN
100
AcDbLine
 10
368.094770824885
 20
200.088169900923
 30
0.0
 11
366.094770824885
 21
200.088169900923
 31
0.0
  0
LINE
  5
55FD
330
5532
100
AcDbEntity
  8
SEIHIN
100
AcDbLine
 10
366.094770824885
 20
200.4245590665231
 30
0.0
 11
366.094770824885
 21
200.088169900923
 31
0.0
  0
LINE
  5
55FE
330
5532
100
AcDbEntity
  8
SEIHIN
100
AcDbLine
 10
368.094770824885
 20
201.088169900923
 30
0.0
 11
368.094770824885
 21
200.088169900923
 31
0.0
  0
ARC
  5
55FF
330
5532
100
AcDbEntity
  8
SEIHIN
100
AcDbCircle
 10
363.558242172649
 20
208.0648097772503
 30
0.0
 40
5.536577933381693
100
AcDbArc
 50
297.2671598356301
 51
0.2417450783892399
  0
LINE
  5
5600
330
5532
100
AcDbEntity
  8
CENTER_L
  6
CENTER
 62
     1
 48
5.0
100
AcDbLine
 10
359.094770824885
 20
208.088169900923
 30
0.0
 11
380.094770824885
 21
208.0881699009231
 31
0.0
  0
LINE
  5
5601
330
5532
100
AcDbEntity
  8
SEIHIN
100
AcDbLine
 10
373.094770824885
 20
204.893951923723
 30
0.0
 11
373.094770824885
 21
208.4135953446231
 31
0.0
  0
LINE
  5
5602
330
5532
100
AcDbEntity
  8
SEIHIN
100
AcDbLine
 10
373.094770824885
 20
204.088169900923
 30
0.0
 11
373.094770824885
 21
204.893951923723
 31
0.0
  0
ARC
  5
5603
330
5532
100
AcDbEntity
  8
SEIHIN
100
AcDbCircle
 10
366.594770824885
 20
224.174319706423
 30
0.0
 40
3.0
100
AcDbArc
 50
179.9999964821001
 51
219.8055623932019
  0
LINE
  5
5604
330
5532
100
AcDbEntity
  8
SEIHIN
100
AcDbLine
 10
364.290106694485
 20
222.253766857323
 30
0.0
 11
365.399434940185
 21
220.922572962623
 31
0.0
  0
LINE
  5
5605
330
5532
100
AcDbEntity
  8
SEIHIN
100
AcDbLine
 10
363.594770824885
 20
226.002020673423
 30
0.0
 11
363.594770824885
 21
224.174319890623
 31
0.0
  0
ARC
  5
5606
330
5532
100
AcDbEntity
  8
SEIHIN
100
AcDbCircle
 10
363.094770824885
 20
219.002020095423
 30
0.0
 40
3.0
100
AcDbArc
 50
0.0
 51
39.8055628427985
  0
ARC
  5
5607
330
5532
100
AcDbEntity
  8
SEIHIN
100
AcDbCircle
 10
366.594770824885
 20
226.002020095423
 30
0.0
 40
3.0
100
AcDbArc
 50
140.1944289077021
 51
179.9999889610989
  0
ARC
  5
5608
330
5532
100
AcDbEntity
  8
SEIHIN
100
AcDbCircle
 10
360.3719389031851
 20
247.788169900923
 30
0.0
 40
30.0
100
AcDbArc
 50
90.0
 51
134.6746095643968
  0
ARC
  5
5609
330
5532
100
AcDbEntity
  8
SEIHIN
100
AcDbCircle
 10
360.3719389031851
 20
247.788169900923
 30
0.0
 40
26.5
100
AcDbArc
 50
104.1873164804007
 51
134.6746095644974
  0
ARC
  5
560A
330
5532
100
AcDbEntity
  8
SEIHIN
100
AcDbCircle
 10
353.986542036185
 20
242.788169900823
 30
0.0
 40
8.5
100
AcDbArc
 50
90.0
 51
164.9999999997012
  0
ARC
  5
560B
330
5532
100
AcDbEntity
  8
SEIHIN
100
AcDbCircle
 10
353.986542036185
 20
242.788169900823
 30
0.0
 40
5.0
100
AcDbArc
 50
90.0
 51
164.9999999997012
  0
LINE
  5
560C
330
5532
100
AcDbEntity
  8
SEIHIN
100
AcDbLine
 10
352.728745420985
 20
230.788169900823
 30
0.0
 11
342.3549676873849
 21
230.788169900823
 31
0.0
  0
DIMENSION
  5
560D
330
5532
100
AcDbEntity
  8
SUNPOU
100
AcDbDimension
  2
*D3
 10
228.4948371043506
 20
319.6559342028791
 30
0.0
 11
300.7948039646178
 21
324.6559342028791
 31
0.0
 12
-0.8000005306130333
 22
0.799997491774775
 32
0.0
  3
STANDARD
100
AcDbAlignedDimension
 13
373.094770824885
 23
277.7881699009231
 33
0.0
 14
228.4948371043506
 24
270.8082572214322
 34
0.0
100
AcDbRotatedDimension
1001
ACAD
1000
DSTYLE
1002
{
1070
    41
1040
7.0
1070
    42
1040
6.0
1070
    43
1040
14.0
1070
    44
1040
3.0
1070
    73
1070
     0
1070
    74
1070
     0
1070
    77
1070
     3
1070
   140
1040
6.0
1070
   141
1040
150.0
1070
   147
1040
2.0
1070
   172
1070
     1
1070
   173
1070
     1
1070
   176
1070
   256
1070
   177
1070
   256
1070
   178
1070
   256
1070
   271
1070
     0
1070
   272
1070
     0
1070
   341
1005
6D
1070
     6
1000
OPEN
1070
     7
1000
OPEN
1070
   371
1070
    -1
1070
   372
1070
    -1
1002
}
  0
DIMENSION
  5
560E
330
5532
100
AcDbEntity
  8
SUNPOU
100
AcDbDimension
  2
*D2
 10
363.3022806102849
 20
303.7991319848366
 30
0.0
 11
343.8022806102849
 21
308.7991319848366
 31
0.0
 12
-0.8000005306130333
 22
0.799997491774775
 32
0.0
  3
STANDARD
100
AcDbAlignedDimension
 13
373.094770824885
 23
277.7881699009231
 33
0.0
 14
363.3022806102849
 24
274.488764314823
 34
0.0
100
AcDbRotatedDimension
1001
ACAD
1000
DSTYLE
1002
{
1070
    41
1040
7.0
1070
    42
1040
6.0
1070
    43
1040
14.0
1070
    44
1040
3.0
1070
    73
1070
     0
1070
    74
1070
     0
1070
    77
1070
     3
1070
   140
1040
6.0
1070
   141
1040
150.0
1070
   147
1040
2.0
1070
   172
1070
     1
1070
   173
1070
     1
1070
   176
1070
   256
1070
   177
1070
   256
1070
   178
1070
   256
1070
   271
1070
     0
1070
   272
1070
     0
1070
   341
1005
6D
1070
     6
1000
OPEN
1070
     7
1000
OPEN
1070
   371
1070
    -1
1070
   372
1070
    -1
1002
}
  0
ARC
  5
560F
330
5532
100
AcDbEntity
  8
SEIHIN
100
AcDbCircle
 10
297.094770824885
 20
311.7881699009231
 30
0.0
 40
60.0
100
AcDbArc
 50
228.6788462656025
 51
314.6746095643968
  0
ARC
  5
5610
330
5532
100
AcDbEntity
  8
SEIHIN
100
AcDbCircle
 10
297.094770824885
 20
311.7881699009231
 30
0.0
 40
63.5
100
AcDbArc
 50
231.723824213897
 51
314.6746095643968
  0
LINE
  5
5611
330
5532
100
AcDbEntity
  8
SEIHIN
100
AcDbLine
 10
242.5557216059851
 20
257.513099791623
 30
0.0
 11
238.4468649324849
 21
252.678588722423
 31
0.0
  0
LINE
  5
5612
330
5532
100
AcDbEntity
  8
SEIHIN
100
AcDbLine
 10
241.4947708248851
 20
246.088169900923
 30
0.0
 11
259.1058508447849
 21
246.088169900923
 31
0.0
  0
ARC
  5
5613
330
5532
100
AcDbEntity
  8
SEIHIN
100
AcDbCircle
 10
241.4947708248851
 20
250.088169900923
 30
0.0
 40
4.0
100
AcDbArc
 50
139.6387505755017
 51
270.0
  0
ARC
  5
5614
330
5532
100
AcDbEntity
  8
SEIHIN
100
AcDbCircle
 10
259.1058508447849
 20
242.088169900923
 30
0.0
 40
4.0
100
AcDbArc
 50
55.9169144584996
 51
90.0
  0
LINE
  5
5615
330
5532
100
AcDbEntity
  8
SEIHIN
100
AcDbLine
 10
235.2447718852849
 20
264.088169900923
 30
0.0
 11
251.5649999873849
 21
264.088169900923
 31
0.0
  0
LINE
  5
5616
330
5532
100
AcDbEntity
  8
SEIHIN
100
AcDbLine
 10
248.5642649548849
 20
270.088169900923
 30
0.0
 11
236.6137328349216
 21
270.088169900923
 31
0.0
  0
ARC
  5
5617
330
5532
100
AcDbEntity
  8
SEIHIN
100
AcDbCircle
 10
235.2447708248851
 20
270.838169900923
 30
0.0
 40
6.75
100
AcDbArc
 50
180.2539075404997
 51
270.0000090010027
  0
ARC
  5
5618
330
5532
100
AcDbEntity
  8
SEIHIN
100
AcDbCircle
 10
238.030373846785
 20
260.088169900923
 30
0.0
 40
4.0
100
AcDbArc
 50
43.0835817764983
 51
90.0
  0
ARC
  5
5619
330
5532
100
AcDbEntity
  8
SEIHIN
100
AcDbCircle
 10
239.4948371043849
 20
260.088169900923
 30
0.0
 40
4.0
100
AcDbArc
 50
319.9266683214971
 51
1.377975881900074
  0
ARC
  5
561A
330
5532
100
AcDbEntity
  8
SEIHIN
100
AcDbCircle
 10
239.4948371043849
 20
260.088169900923
 30
0.0
 40
4.0
100
AcDbArc
 50
319.3508328298971
 51
319.9266683214971
  0
ARC
  5
561B
330
5532
100
AcDbEntity
  8
SEIHIN
100
AcDbCircle
 10
328.594770824885
 20
344.7881699009231
 30
0.0
 40
120.0
100
AcDbArc
 50
223.0835817764982
 51
224.8321080703962
  0
ARC
  5
561C
330
5532
100
AcDbEntity
  8
SEIHIN
100
AcDbCircle
 10
243.4936801907849
 20
256.184361491823
 30
0.0
 40
4.0
100
AcDbArc
 50
89.99999794360091
 51
90.00000464929879
  0
ARC
  5
561D
330
5532
100
AcDbEntity
  8
SEIHIN
100
AcDbCircle
 10
233.123450481285
 20
275.088169900923
 30
0.0
 40
2.0
100
AcDbArc
 50
90.0
 51
116.5253520166007
  0
ARC
  5
561E
330
5532
100
AcDbEntity
  8
SEIHIN
100
AcDbCircle
 10
235.2447708248851
 20
270.838169900923
 30
0.0
 40
6.75
100
AcDbArc
 50
116.5175626991003
 51
116.5218888107022
  0
LINE
  5
561F
330
5532
100
AcDbEntity
  8
SEIHIN
100
AcDbLine
 10
233.123163333885
 20
277.088169900923
 30
0.0
 11
233.1228045361849
 21
277.088169900923
 31
0.0
  0
ARC
  5
5620
330
5532
100
AcDbEntity
  8
SEIHIN
100
AcDbCircle
 10
235.5400302620537
 20
276.5881697286918
 30
0.0
 40
0.5
100
AcDbArc
 50
340.7099537812961
 51
89.99999591649428
  0
LINE
  5
5621
330
5532
100
AcDbEntity
  8
SEIHIN
100
AcDbLine
 10
234.7260161221838
 20
272.7488707503631
 30
0.0
 11
236.0119594402381
 21
276.4229945163317
 31
0.0
  0
LINE
  5
5622
330
5532
100
AcDbEntity
  8
SEIHIN
100
AcDbLine
 10
235.5400302976891
 20
277.0881697286918
 30
0.0
 11
233.123450481285
 21
277.088169900923
 31
0.0
  0
ARC
  5
5623
330
5532
100
AcDbEntity
  8
SEIHIN
100
AcDbCircle
 10
236.6137328349216
 20
272.088169900923
 30
0.0
 40
2.0
100
AcDbArc
 50
160.7099537812993
 51
270.0
  0
LINE
  5
5624
330
5532
100
AcDbEntity
  8
SEIHIN
100
AcDbLine
 10
228.4948371043849
 20
270.8082572214231
 30
0.0
 11
228.4948371043849
 21
270.868082580323
 31
0.0
  0
ARC
  5
5625
330
5532
100
AcDbEntity
  8
SEIHIN
100
AcDbCircle
 10
235.2447708248851
 20
270.838169900923
 30
0.0
 40
6.75
100
AcDbArc
 50
116.5253520166007
 51
179.7460924595995
  0
ARC
  5
5626
330
5532
100
AcDbEntity
  8
SEIHIN
100
AcDbCircle
 10
248.5642649548849
 20
256.588169900923
 30
0.0
 40
13.5
100
AcDbArc
 50
48.67884626560253
 51
90.0
  0
ARC
  5
5627
330
5532
100
AcDbEntity
  8
SEIHIN
100
AcDbCircle
 10
251.565000344485
 20
254.088169900923
 30
0.0
 40
10.0
100
AcDbArc
 50
51.72382421389702
 51
90.00000204599656
  0
ARC
  5
5628
330
5532
100
AcDbEntity
  8
SEIHIN
100
AcDbCircle
 10
246.953114790685
 20
263.088169900923
 30
0.0
 40
1.0
100
AcDbArc
 50
90.0
 51
225.0204654645004
  0
LINE
  5
5629
330
5532
100
AcDbEntity
  8
SEIHIN
100
AcDbLine
 10
345.9320703714849
 20
232.046988945923
 30
0.0
 11
349.156912904785
 21
244.082265126323
 31
0.0
  0
LINE
  5
562A
330
5532
100
AcDbEntity
  8
SEIHIN
100
AcDbLine
 10
341.5000300506849
 20
229.029350855823
 30
0.0
 11
345.776172512785
 21
244.988131784223
 31
0.0
  0
ARC
  5
562B
330
5532
100
AcDbEntity
  8
SEIHIN
100
AcDbCircle
 10
342.3549676873849
 20
230.288169900823
 30
0.0
 40
0.5
100
AcDbArc
 50
90.0
 51
164.9999999997012
  0
ARC
  5
562C
330
5532
100
AcDbEntity
  8
SEIHIN
100
AcDbCircle
 10
346.8979961976849
 20
231.788169900823
 30
0.0
 40
1.0
100
AcDbArc
 50
164.9999999997012
 51
270.0
  0
LINE
  5
562D
330
5532
100
AcDbEntity
  8
SEIHIN
100
AcDbLine
 10
345.931864897685
 20
232.046222107423
 30
0.0
 11
345.931608333085
 21
232.0452634557231
 31
0.0
  0
LINE
  5
562E
330
5532
100
AcDbEntity
  8
SEIHIN
100
AcDbLine
 10
346.896209917885
 20
230.788170195823
 30
0.0
 11
346.897202308085
 21
230.788169900823
 31
0.0
  0
LINE
  5
562F
330
5532
100
AcDbEntity
  8
SEIHIN
100
AcDbLine
 10
366.0947689660849
 20
230.088199454923
 30
0.0
 11
363.3022806102849
 21
274.488764314823
 31
0.0
  0
ARC
  5
5630
330
5532
100
AcDbEntity
  8
SEIHIN
100
AcDbCircle
 10
359.4370929930851
 20
256.288169900823
 30
0.0
 40
5.0
100
AcDbArc
 50
270.0
 51
3.598768116600047
  0
LINE
  5
5631
330
5532
100
AcDbEntity
  8
SEIHIN
100
AcDbLine
 10
369.094770824885
 20
238.1481488659611
 30
0.0
 11
366.6016861963851
 21
277.7881699009231
 31
0.0
  0
ARC
  5
5632
330
5532
100
AcDbEntity
  8
SEIHIN
100
AcDbCircle
 10
364.594770824885
 20
242.6860531014231
 30
0.0
 40
3.0
100
AcDbArc
 50
180.0
 51
233.0653994738027
  0
ARC
  5
5633
330
5532
100
AcDbEntity
  8
SEIHIN
100
AcDbCircle
 10
352.728745420985
 20
230.288169900823
 30
0.0
 40
0.5
100
AcDbArc
 50
330.0000000010006
 51
90.0
  0
LINE
  5
5634
330
5532
100
AcDbEntity
  8
SEIHIN
100
AcDbLine
 10
353.161494108785
 20
230.037712614923
 30
0.0
 11
353.069801455985
 21
229.878896281623
 31
0.0
  0
LINE
  5
5635
330
5532
100
AcDbEntity
  8
SEIHIN
100
AcDbLine
 10
352.729141023585
 20
230.788169900823
 30
0.0
 11
352.728921274185
 21
230.788169900823
 31
0.0
  0
LINE
  5
5636
330
5532
100
AcDbEntity
  8
SEIHIN
100
AcDbLine
 10
362.792061705285
 20
240.2880873322231
 30
0.0
 11
364.480704236585
 21
239.018623301423
 31
0.0
  0
ARC
  5
5637
330
5532
100
AcDbEntity
  8
SEIHIN
100
AcDbCircle
 10
363.0257418002849
 20
231.091484876923
 30
0.0
 40
3.0
100
AcDbArc
 50
320.1944289077021
 51
3.598768116799192
  0
ARC
  5
5638
330
5532
100
AcDbEntity
  8
SEIHIN
100
AcDbCircle
 10
362.677995091085
 20
236.620657551723
 30
0.0
 40
3.0
100
AcDbArc
 50
3.598768116600047
 51
53.06539885499889
  0
ARC
  5
5639
330
5532
100
AcDbEntity
  8
SEIHIN
100
AcDbCircle
 10
358.594770824885
 20
244.788169900823
 30
0.0
 40
3.0
100
AcDbArc
 50
0.0
 51
90.0
  0
LINE
  5
563A
330
5532
100
AcDbEntity
  8
SEIHIN
100
AcDbLine
 10
361.594770824885
 20
244.788169900823
 30
0.0
 11
361.594770824885
 21
242.6860531014231
 31
0.0
  0
LINE
  5
563B
330
5532
100
AcDbEntity
  8
SEIHIN
100
AcDbLine
 10
353.986542036185
 20
251.288169900823
 30
0.0
 11
359.4370929930851
 21
251.288169900823
 31
0.0
  0
LINE
  5
563C
330
5532
100
AcDbEntity
  8
SEIHIN
100
AcDbLine
 10
353.986542036185
 20
247.788169900823
 30
0.0
 11
360.2861495967849
 21
247.788169900823
 31
0.0
  0
LINE
  5
563D
330
5532
100
AcDbEntity
  8
SEIHIN
100
AcDbLine
 10
353.984204861885
 20
247.788169900823
 30
0.0
 11
353.9812838008849
 21
247.788169388923
 31
0.0
  0
ARC
  5
563E
330
5532
100
AcDbEntity
  8
SEIHIN
100
AcDbCircle
 10
360.2861495967849
 20
242.788169900823
 30
0.0
 40
5.0
100
AcDbArc
 50
3.598768116600047
 51
90.0
  0
LINE
  5
563F
330
5532
100
AcDbEntity
  8
SEIHIN
100
AcDbLine
 10
373.094770824885
 20
243.2130431124669
 30
0.0
 11
368.7762238195793
 21
243.2130431124669
 31
0.0
  0
DIMENSION
  5
5640
330
5532
100
AcDbEntity
  8
SUNPOU
100
AcDbDimension
  2
*D8
 10
395.6368927596829
 20
258.0881699009229
 30
0.0
 11
390.6368927596829
 21
267.9381699009231
 31
0.0
 12
-0.8000005306130333
 22
0.799997491774775
 32
0.0
  3
STANDARD
100
AcDbAlignedDimension
 13
373.094770824885
 23
277.7881699009231
 33
0.0
 14
380.094770824885
 24
258.088169900923
 34
0.0
 50
90.0
100
AcDbRotatedDimension
1001
ACAD
1000
DSTYLE
1002
{
1070
    41
1040
7.0
1070
    42
1040
6.0
1070
    43
1040
14.0
1070
    44
1040
3.0
1070
    73
1070
     0
1070
    74
1070
     0
1070
    77
1070
     3
1070
   140
1040
6.0
1070
   141
1040
150.0
1070
   147
1040
2.0
1070
   172
1070
     1
1070
   173
1070
     1
1070
   176
1070
   256
1070
   177
1070
   256
1070
   178
1070
   256
1070
   271
1070
     0
1070
   272
1070
     0
1070
   341
1005
6D
1070
     6
1000
OPEN
1070
     7
1000
OPEN
1070
   371
1070
    -1
1070
   372
1070
    -1
1002
}
  0
ARC
  5
5641
330
5532
100
AcDbEntity
  8
SEIHIN
100
AcDbCircle
 10
355.837722573985
 20
265.723913049223
 30
0.0
 40
8.0
100
AcDbArc
 50
3.598768116600047
 51
104.1873164804007
  0
LINE
  5
5642
330
5532
100
AcDbEntity
  8
CENTER_L
  6
CENTER
 62
     1
 48
5.0
100
AcDbLine
 10
359.094770824885
 20
258.0881699009229
 30
0.0
 11
380.094770824885
 21
258.088169900923
 31
0.0
  0
LINE
  5
5643
330
5532
100
AcDbEntity
  8
SEIHIN
100
AcDbLine
 10
373.094770824885
 20
277.7881699009231
 30
0.0
 11
360.3719389031851
 21
277.7881699009231
 31
0.0
  0
LINE
  5
5644
330
5532
100
AcDbEntity
  8
SEIHIN
100
AcDbLine
 10
363.3022806102849
 20
274.488764314823
 30
0.0
 11
358.553190991885
 21
277.3505352398231
 31
0.0
  0
LINE
  5
5645
330
5532
100
AcDbEntity
  8
SEIHIN
100
AcDbLine
 10
366.6016861963851
 20
277.7881699009231
 30
0.0
 11
363.3022806102849
 21
274.488764314823
 31
0.0
  0
LINE
  5
5646
330
5532
100
AcDbEntity
  8
CENTER_L
  6
CENTER
 62
     1
 48
5.0
100
AcDbLine
 10
570.0769343463641
 20
193.0785636130173
 30
0.0
 11
570.0770409066458
 21
284.7924403428422
 31
0.0
  0
LINE
  5
5647
330
5532
100
AcDbEntity
  8
SEIHIN
100
AcDbLine
 10
559.0769369048094
 20
260.188169900923
 30
0.0
 11
559.0769369048094
 21
208.706808102223
 31
0.0
  0
LINE
  5
5648
330
5532
100
AcDbEntity
  8
SEIHIN
100
AcDbLine
 10
572.5769369047092
 20
260.188169900923
 30
0.0
 11
572.5769369047092
 21
215.3929628480231
 31
0.0
  0
LINE
  5
5649
330
5532
100
AcDbEntity
  8
SEIHIN
100
AcDbLine
 10
567.5769369047093
 20
215.3929628480231
 30
0.0
 11
567.5769369047093
 21
260.188169900923
 31
0.0
  0
LINE
  5
564A
330
5532
100
AcDbEntity
  8
SEIHIN
100
AcDbLine
 10
581.0769369047092
 20
208.498728112423
 30
0.0
 11
581.0769369047092
 21
260.188169900923
 31
0.0
  0
LINE
  5
564B
330
5532
100
AcDbEntity
  8
SEIHIN
100
AcDbLine
 10
556.0769369048093
 20
208.4135953446231
 30
0.0
 11
556.0769369048093
 21
230.088169900923
 31
0.0
  0
LINE
  5
564C
330
5532
100
AcDbEntity
  8
SEIHIN
100
AcDbLine
 10
584.0769369047093
 20
230.088169900923
 30
0.0
 11
584.0769369047093
 21
208.3025708722231
 31
0.0
  0
DIMENSION
  5
564D
330
5532
100
AcDbEntity
  8
SUNPOU
100
AcDbDimension
  2
*D13
 10
509.622142553122
 20
208.088169900923
 30
0.0
 11
504.622142553122
 21
226.0881699009231
 31
0.0
 12
-0.8000005306130333
 22
0.799997491774775
 32
0.0
  3
STANDARD
100
AcDbAlignedDimension
 13
570.0769424906675
 23
200.088170095989
 33
0.0
 14
562.8576006087398
 24
208.088169900923
 34
0.0
 50
90.0
100
AcDbRotatedDimension
1001
ACAD
1000
DSTYLE
1002
{
1070
    41
1040
7.0
1070
    42
1040
6.0
1070
    43
1040
14.0
1070
    44
1040
3.0
1070
    73
1070
     0
1070
    74
1070
     0
1070
    77
1070
     3
1070
   140
1040
6.0
1070
   141
1040
150.0
1070
   147
1040
2.0
1070
   172
1070
     1
1070
   173
1070
     1
1070
   176
1070
   256
1070
   177
1070
   256
1070
   178
1070
   256
1070
   271
1070
     0
1070
   272
1070
     0
1070
   341
1005
6D
1070
     6
1000
OPEN
1070
     7
1000
OPEN
1070
   371
1070
    -1
1070
   372
1070
    -1
1002
}
  0
DIMENSION
  5
564E
330
5532
100
AcDbEntity
  8
SUNPOU
100
AcDbDimension
  2
*D14
 10
584.0769369047093
 20
175.4044295137716
 30
0.0
 11
570.0769369047593
 21
180.4044295137716
 31
0.0
 12
-0.8000005306130333
 22
0.799997491774775
 32
0.0
  3
STANDARD
100
AcDbAlignedDimension
 13
556.0769369048093
 23
208.413595344623
 33
0.0
 14
584.0769369047093
 24
208.302570872223
 34
0.0
100
AcDbRotatedDimension
1001
ACAD
1000
DSTYLE
1002
{
1070
    41
1040
7.0
1070
    42
1040
6.0
1070
    43
1040
14.0
1070
    44
1040
3.0
1070
    73
1070
     0
1070
    74
1070
     0
1070
    77
1070
     3
1070
   140
1040
6.0
1070
   141
1040
150.0
1070
   147
1040
2.0
1070
   172
1070
     1
1070
   173
1070
     1
1070
   176
1070
   256
1070
   177
1070
   256
1070
   178
1070
   256
1070
   271
1070
     0
1070
   272
1070
     0
1070
   341
1005
6D
1070
     6
1000
OPEN
1070
     7
1000
OPEN
1070
   371
1070
    -1
1070
   372
1070
    -1
1002
}
  0
LINE
  5
564F
330
5532
100
AcDbEntity
  8
SEIHIN
100
AcDbLine
 10
570.0769369047093
 20
204.088169900923
 30
0.0
 11
556.8927800169092
 21
204.893951923723
 31
0.0
  0
LINE
  5
5650
330
5532
100
AcDbEntity
  8
SEIHIN
100
AcDbLine
 10
559.4274220792092
 20
201.903448503923
 30
0.0
 11
558.6593170603094
 21
202.5272216544231
 31
0.0
  0
ARC
  5
5651
330
5532
100
AcDbEntity
  8
SEIHIN
100
AcDbCircle
 10
560.0769369048093
 20
208.706808102223
 30
0.0
 40
1.0
100
AcDbArc
 50
180.0
 51
266.5025785356003
  0
ARC
  5
5652
330
5532
100
AcDbEntity
  8
SEIHIN
100
AcDbCircle
 10
564.0769369048094
 20
208.4135953446231
 30
0.0
 40
8.0
100
AcDbArc
 50
180.0
 51
206.1010372787014
  0
LINE
  5
5653
330
5532
100
AcDbEntity
  8
SEIHIN
100
AcDbLine
 10
557.3822275087093
 20
204.0339987762231
 30
0.0
 11
556.8927800169092
 21
204.893951923723
 31
0.0
  0
LINE
  5
5654
330
5532
100
AcDbEntity
  8
SEIHIN
100
AcDbLine
 10
558.6593170603094
 20
202.5272216544231
 30
0.0
 11
557.9740913200094
 21
203.2410451255231
 31
0.0
  0
LINE
  5
5655
330
5532
100
AcDbEntity
  8
SEIHIN
100
AcDbLine
 10
557.9740913200094
 20
203.2410451255231
 30
0.0
 11
557.3822275087093
 21
204.0339987762231
 31
0.0
  0
LINE
  5
5656
330
5532
100
AcDbEntity
  8
SEIHIN
100
AcDbLine
 10
580.7167132455092
 20
201.785479841223
 30
0.0
 11
581.4546367351092
 21
202.379704629123
 31
0.0
  0
LINE
  5
5657
330
5532
100
AcDbEntity
  8
SEIHIN
100
AcDbLine
 10
570.0769369047093
 20
204.088169900923
 30
0.0
 11
570.0769369047093
 21
201.088169900923
 31
0.0
  0
LINE
  5
5658
330
5532
100
AcDbEntity
  8
SEIHIN
100
AcDbLine
 10
576.3561328783094
 20
200.307444256123
 30
0.0
 11
577.5878310431092
 21
200.446541410623
 31
0.0
  0
LINE
  5
5659
330
5532
100
AcDbEntity
  8
SEIHIN
100
AcDbLine
 10
579.9137144152093
 20
201.282660735023
 30
0.0
 11
570.0769369047093
 21
201.088169900923
 31
0.0
  0
LINE
  5
565A
330
5532
100
AcDbEntity
  8
SEIHIN
100
AcDbLine
 10
562.4845905137092
 20
200.573669772823
 30
0.0
 11
561.3457571057092
 21
200.894243184623
 31
0.0
  0
LINE
  5
565B
330
5532
100
AcDbEntity
  8
SEIHIN
100
AcDbLine
 10
570.0769369047093
 20
201.088169900923
 30
0.0
 11
570.0769369047093
 21
200.088169900923
 31
0.0
  0
LINE
  5
565C
330
5532
100
AcDbEntity
  8
SEIHIN
100
AcDbLine
 10
563.6582492548093
 20
200.4245590665231
 30
0.0
 11
570.0769369047093
 21
200.088169900923
 31
0.0
  0
LINE
  5
565D
330
5532
100
AcDbEntity
  8
SEIHIN
100
AcDbLine
 10
563.6582492548093
 20
200.4245590665231
 30
0.0
 11
562.4845905137092
 21
200.573669772823
 31
0.0
  0
LINE
  5
565E
330
5532
100
AcDbEntity
  8
SEIHIN
100
AcDbLine
 10
560.2666558309092
 20
201.379268217023
 30
0.0
 11
570.0769369047093
 21
201.088169900923
 31
0.0
  0
LINE
  5
565F
330
5532
100
AcDbEntity
  8
SEIHIN
100
AcDbLine
 10
561.3457571057092
 20
200.894243184623
 30
0.0
 11
560.2666558309092
 21
201.379268217023
 31
0.0
  0
LINE
  5
5660
330
5532
100
AcDbEntity
  8
SEIHIN
100
AcDbLine
 10
560.2666558309092
 20
201.379268217023
 30
0.0
 11
559.4274220792092
 21
201.903448503923
 31
0.0
  0
LINE
  5
5661
330
5532
100
AcDbEntity
  8
SEIHIN
100
AcDbLine
 10
576.3561328783094
 20
200.307444256123
 30
0.0
 11
570.0769369047093
 21
200.088169900923
 31
0.0
  0
LINE
  5
5662
330
5532
100
AcDbEntity
  8
SEIHIN
100
AcDbLine
 10
577.5878310431092
 20
200.446541410623
 30
0.0
 11
578.7832576354092
 21
200.774235856923
 31
0.0
  0
LINE
  5
5663
330
5532
100
AcDbEntity
  8
SEIHIN
100
AcDbLine
 10
578.7832576354092
 20
200.774235856923
 30
0.0
 11
579.9137144152093
 21
201.282660735023
 31
0.0
  0
LINE
  5
5664
330
5532
100
AcDbEntity
  8
SEIHIN
100
AcDbLine
 10
579.9137144152093
 20
201.282660735023
 30
0.0
 11
580.7167132455092
 21
201.785479841223
 31
0.0
  0
ARC
  5
5665
330
5532
100
AcDbEntity
  8
SEIHIN
100
AcDbCircle
 10
570.0769369047093
 20
208.088169900923
 30
0.0
 40
7.099999999999999
100
AcDbArc
 50
2.35547324710087
 51
64.39917301660042
  0
LINE
  5
5666
330
5532
100
AcDbEntity
  8
CENTER_L
  6
CENTER
 62
     1
 48
5.0
100
AcDbLine
 10
560.9769369047094
 20
208.088169900923
 30
0.0
 11
579.1769369047092
 21
208.088169900923
 31
0.0
  0
LINE
  5
5667
330
5532
100
AcDbEntity
  8
SEIHIN
100
AcDbLine
 10
570.0769369047093
 20
204.088169900923
 30
0.0
 11
583.1798771607093
 21
204.621777517523
 31
0.0
  0
ARC
  5
5668
330
5532
100
AcDbEntity
  8
SEIHIN
100
AcDbCircle
 10
573.5769369047093
 20
215.3929628480231
 30
0.0
 40
1.0
100
AcDbArc
 50
180.0
 51
244.3991730166003
  0
ARC
  5
5669
330
5532
100
AcDbEntity
  8
SEIHIN
100
AcDbCircle
 10
566.5769369047093
 20
215.3929628480231
 30
0.0
 40
1.0
100
AcDbArc
 50
295.6008269833996
 51
0.0
  0
LINE
  5
566A
330
5532
100
AcDbEntity
  8
SEIHIN
100
AcDbLine
 10
560.0159332853093
 20
207.708670557423
 30
0.0
 11
561.9314770576092
 21
207.591597410523
 31
0.0
  0
ARC
  5
566B
330
5532
100
AcDbEntity
  8
SEIHIN
100
AcDbCircle
 10
561.9924806771093
 20
208.589734955423
 30
0.0
 40
1.0
100
AcDbArc
 50
266.5025785356982
 51
356.4498818264997
  0
ARC
  5
566C
330
5532
100
AcDbEntity
  8
SEIHIN
100
AcDbCircle
 10
570.0769369047093
 20
208.088169900923
 30
0.0
 40
7.099999999999999
100
AcDbArc
 50
115.6008269833995
 51
176.4498818264996
  0
CIRCLE
  5
566D
330
5532
100
AcDbEntity
  8
SEIHIN
100
AcDbCircle
 10
570.0769369047093
 20
208.088169900923
 30
0.0
 40
2.1
  0
ARC
  5
566E
330
5532
100
AcDbEntity
  8
SEIHIN
100
AcDbCircle
 10
578.1700929844094
 20
208.421073294523
 30
0.0
 40
1.0
100
AcDbArc
 50
182.3554732470991
 51
272.3320398984995
  0
ARC
  5
566F
330
5532
100
AcDbEntity
  8
SEIHIN
100
AcDbCircle
 10
576.0769369047093
 20
208.3025708722231
 30
0.0
 40
8.0
100
AcDbArc
 50
332.6064930964012
 51
0.0
  0
LINE
  5
5670
330
5532
100
AcDbEntity
  8
SEIHIN
100
AcDbLine
 10
582.6949164856094
 20
203.807868850223
 30
0.0
 11
583.1798771607093
 21
204.621777517523
 31
0.0
  0
LINE
  5
5671
330
5532
100
AcDbEntity
  8
SEIHIN
100
AcDbLine
 10
581.4546367351092
 20
202.379704629123
 30
0.0
 11
582.1171351130094
 21
203.057000778923
 31
0.0
  0
LINE
  5
5672
330
5532
100
AcDbEntity
  8
SEIHIN
100
AcDbLine
 10
582.1171351130094
 20
203.057000778923
 30
0.0
 11
582.6949164856094
 21
203.807868850223
 31
0.0
  0
LINE
  5
5673
330
5532
100
AcDbEntity
  8
SEIHIN
100
AcDbLine
 10
578.2107835219091
 20
207.421901497423
 30
0.0
 11
580.1176274422093
 21
207.499556315323
 31
0.0
  0
ARC
  5
5674
330
5532
100
AcDbEntity
  8
SEIHIN
100
AcDbCircle
 10
580.0769369047093
 20
208.498728112423
 30
0.0
 40
1.0
100
AcDbArc
 50
272.3320398984995
 51
0.0
  0
DIMENSION
  5
5675
330
5532
100
AcDbEntity
  8
SUNPOU
100
AcDbDimension
  2
*D11
 10
602.0769369047093
 20
303.7991319848366
 30
0.0
 11
570.0769369047093
 21
308.7991319848366
 31
0.0
 12
-0.8000005306130333
 22
0.799997491774775
 32
0.0
  3
STANDARD
100
AcDbAlignedDimension
 13
538.0769369047093
 23
263.7398699009231
 33
0.0
 14
602.0769369047093
 24
263.7398699009231
 34
0.0
100
AcDbRotatedDimension
1001
ACAD
1000
DSTYLE
1002
{
1070
    41
1040
7.0
1070
    42
1040
6.0
1070
    43
1040
14.0
1070
    44
1040
3.0
1070
    73
1070
     0
1070
    74
1070
     0
1070
    77
1070
     3
1070
   140
1040
6.0
1070
   141
1040
150.0
1070
   147
1040
2.0
1070
   172
1070
     1
1070
   173
1070
     1
1070
   176
1070
   256
1070
   177
1070
   256
1070
   178
1070
   256
1070
   271
1070
     0
1070
   272
1070
     0
1070
   341
1005
6D
1070
     6
1000
OPEN
1070
     7
1000
OPEN
1070
   371
1070
    -1
1070
   372
1070
    -1
1002
}
  0
DIMENSION
  5
5676
330
5532
100
AcDbEntity
  8
SUNPOU
100
AcDbDimension
  2
*D10
 10
610.0769369047092
 20
319.6559342028791
 30
0.0
 11
570.0769369047093
 21
324.6559342028791
 31
0.0
 12
-0.8000005306130333
 22
0.799997491774775
 32
0.0
  3
STANDARD
100
AcDbAlignedDimension
 13
530.0769369047093
 23
266.734451373123
 33
0.0
 14
610.0769369047092
 24
266.202213062423
 34
0.0
100
AcDbRotatedDimension
1001
ACAD
1000
DSTYLE
1002
{
1070
    41
1040
7.0
1070
    42
1040
6.0
1070
    43
1040
14.0
1070
    44
1040
3.0
1070
    73
1070
     0
1070
    74
1070
     0
1070
    77
1070
     3
1070
   140
1040
6.0
1070
   141
1040
150.0
1070
   147
1040
2.0
1070
   172
1070
     1
1070
   173
1070
     1
1070
   176
1070
   256
1070
   177
1070
   256
1070
   178
1070
   256
1070
   271
1070
     0
1070
   272
1070
     0
1070
   341
1005
6D
1070
     6
1000
OPEN
1070
     7
1000
OPEN
1070
   371
1070
    -1
1070
   372
1070
    -1
1002
}
  0
LINE
  5
5677
330
5532
100
AcDbEntity
  8
SEIHIN
100
AcDbLine
 10
539.7279475279094
 20
276.728359838623
 30
0.0
 11
570.0769369047093
 21
277.7881699009231
 31
0.0
  0
ARC
  5
5678
330
5532
100
AcDbEntity
  8
SEIHIN
100
AcDbCircle
 10
561.0769369048093
 20
260.188169900923
 30
0.0
 40
2.0
100
AcDbArc
 50
90.0
 51
180.0
  0
ARC
  5
5679
330
5532
100
AcDbEntity
  8
SEIHIN
100
AcDbCircle
 10
561.0769369048093
 20
267.188169900923
 30
0.0
 40
2.0
100
AcDbArc
 50
180.0
 51
270.0
  0
ARC
  5
567A
330
5532
100
AcDbEntity
  8
SEIHIN
100
AcDbCircle
 10
561.0769369048093
 20
270.469616165423
 30
0.0
 40
2.0
100
AcDbArc
 50
91.99999999999715
 51
180.0
  0
DIMENSION
  5
567B
330
5532
100
AcDbEntity
  8
SUNPOU
100
AcDbDimension
  2
*D15
 10
509.622142553122
 20
258.088169900923
 30
0.0
 11
504.622142553122
 21
267.9381673889179
 31
0.0
 12
-0.8000005306130333
 22
0.799997491774775
 32
0.0
  3
STANDARD
100
AcDbAlignedDimension
 13
570.0770327685363
 23
277.7881648769128
 33
0.0
 14
531.9798369047093
 24
258.088169900923
 34
0.0
 50
90.0
100
AcDbRotatedDimension
1001
ACAD
1000
DSTYLE
1002
{
1070
    41
1040
7.0
1070
    42
1040
6.0
1070
    43
1040
14.0
1070
    44
1040
3.0
1070
    73
1070
     0
1070
    74
1070
     0
1070
    77
1070
     3
1070
   140
1040
6.0
1070
   141
1040
150.0
1070
   147
1040
2.0
1070
   172
1070
     1
1070
   173
1070
     1
1070
   176
1070
   256
1070
   177
1070
   256
1070
   178
1070
   256
1070
   271
1070
     0
1070
   272
1070
     0
1070
   341
1005
6D
1070
     6
1000
OPEN
1070
     7
1000
OPEN
1070
   371
1070
    -1
1070
   372
1070
    -1
1002
}
  0
LINE
  5
567C
330
5532
100
AcDbEntity
  8
SEIHIN
100
AcDbLine
 10
556.0769369048093
 20
242.129764479623
 30
0.0
 11
556.0769369048093
 21
260.188169900923
 31
0.0
  0
LINE
  5
567D
330
5532
100
AcDbEntity
  8
CENTER_L
  6
CENTER
 62
     1
 48
5.0
100
AcDbLine
 10
538.0769369047093
 20
263.7398699009231
 30
0.0
 11
538.0769369047093
 21
251.8033699009231
 31
0.0
  0
LINE
  5
567E
330
5532
100
AcDbEntity
  8
SEIHIN
100
AcDbLine
 10
530.0769369047093
 20
253.206950420923
 30
0.0
 11
530.0769369047093
 21
266.734452262823
 31
0.0
  0
ARC
  5
567F
330
5532
100
AcDbEntity
  8
SEIHIN
100
AcDbCircle
 10
538.0769369047093
 20
258.088169900923
 30
0.0
 40
7.099999999999999
100
AcDbArc
 50
244.5110969290966
 51
22.50202280819717
  0
ARC
  5
5680
330
5532
100
AcDbEntity
  8
SEIHIN
100
AcDbCircle
 10
543.0769369048094
 20
230.088169900923
 30
0.0
 40
16.0
100
AcDbArc
 50
45.09912784399673
 51
88.00000000000286
  0
ARC
  5
5681
330
5532
100
AcDbEntity
  8
SEIHIN
100
AcDbCircle
 10
543.0769369048094
 20
230.088169900923
 30
0.0
 40
13.0
100
AcDbArc
 50
0.0
 51
87.99984215870036
  0
ARC
  5
5682
330
5532
100
AcDbEntity
  8
SEIHIN
100
AcDbCircle
 10
555.0769369048094
 20
242.129764479623
 30
0.0
 40
1.0
100
AcDbArc
 50
225.0991278439967
 51
0.0
  0
ARC
  5
5683
330
5532
100
AcDbEntity
  8
SEIHIN
100
AcDbCircle
 10
540.0769369047093
 20
253.206951728223
 30
0.0
 40
10.0
100
AcDbArc
 50
180.0000074901991
 51
268.0000567334975
  0
LINE
  5
5684
330
5532
100
AcDbEntity
  8
SEIHIN
100
AcDbLine
 10
539.8326404278093
 20
246.2112159391231
 30
0.0
 11
543.6353288520092
 21
246.078423133223
 31
0.0
  0
LINE
  5
5685
330
5532
100
AcDbEntity
  8
SEIHIN
100
AcDbLine
 10
543.5306661532092
 20
243.0802494022231
 30
0.0
 11
539.7279518335092
 21
243.213043112423
 31
0.0
  0
ARC
  5
5686
330
5532
100
AcDbEntity
  8
SEIHIN
100
AcDbCircle
 10
534.5912130540093
 20
250.776553852623
 30
0.0
 40
1.0
100
AcDbArc
 50
64.51109692909669
 51
203.8952826952004
  0
ARC
  5
5687
330
5532
100
AcDbEntity
  8
SEIHIN
100
AcDbCircle
 10
540.0769369047093
 20
253.206951728223
 30
0.0
 40
7.0
100
AcDbArc
 50
203.8952826952004
 51
268.0000000000029
  0
LINE
  5
5688
330
5532
100
AcDbEntity
  8
SEIHIN
100
AcDbLine
 10
556.0769369048093
 20
267.188169900923
 30
0.0
 11
556.0769369048093
 21
270.225170778923
 31
0.0
  0
ARC
  5
5689
330
5532
100
AcDbEntity
  8
SEIHIN
100
AcDbCircle
 10
540.0769369047093
 20
266.734451373123
 30
0.0
 40
7.0
100
AcDbArc
 50
145.1301023538007
 51
180.0
  0
ARC
  5
568A
330
5532
100
AcDbEntity
  8
SEIHIN
100
AcDbCircle
 10
540.0769369047093
 20
266.734451373123
 30
0.0
 40
10.0
100
AcDbArc
 50
91.99996795099989
 51
179.999994902099
  0
LINE
  5
568B
330
5532
100
AcDbEntity
  8
SEIHIN
100
AcDbLine
 10
538.0769369047093
 20
265.188169900923
 30
0.0
 11
554.0769369048093
 21
265.188169900923
 31
0.0
  0
LINE
  5
568C
330
5532
100
AcDbEntity
  8
CENTER_L
  6
CENTER
 62
     1
 48
5.0
100
AcDbLine
 10
531.9798369047093
 20
258.088169900923
 30
0.0
 11
544.7689369047093
 21
258.088169900923
 31
0.0
  0
ARC
  5
568D
330
5532
100
AcDbEntity
  8
SEIHIN
100
AcDbCircle
 10
534.0769369047093
 20
265.1316065620231
 30
0.0
 40
1.0
100
AcDbArc
 50
180.0
 51
299.5924416712982
  0
LINE
  5
568E
330
5532
100
AcDbEntity
  8
SEIHIN
100
AcDbLine
 10
533.0769369047093
 20
266.734451373123
 30
0.0
 11
533.0769369047093
 21
265.1316065620231
 31
0.0
  0
ARC
  5
568F
330
5532
100
AcDbEntity
  8
SEIHIN
100
AcDbCircle
 10
538.0769369047093
 20
258.088169900923
 30
0.0
 40
7.099999999999999
100
AcDbArc
 50
90.0
 51
119.5924416712982
  0
CIRCLE
  5
5690
330
5532
100
AcDbEntity
  8
SEIHIN
100
AcDbCircle
 10
538.0769369047093
 20
258.088169900923
 30
0.0
 40
2.1
  0
LINE
  5
5691
330
5532
100
AcDbEntity
  8
SEIHIN
100
AcDbLine
 10
554.0769369048093
 20
262.188169900923
 30
0.0
 11
545.5602516782094
 21
262.188169900923
 31
0.0
  0
ARC
  5
5692
330
5532
100
AcDbEntity
  8
SEIHIN
100
AcDbCircle
 10
545.5602516782094
 20
261.188169900923
 30
0.0
 40
1.0
100
AcDbArc
 50
90.0
 51
202.5020228081972
  0
ARC
  5
5693
330
5532
100
AcDbEntity
  8
SEIHIN
100
AcDbCircle
 10
554.0769369048093
 20
260.188169900923
 30
0.0
 40
2.0
100
AcDbArc
 50
0.0
 51
90.0
  0
ARC
  5
5694
330
5532
100
AcDbEntity
  8
SEIHIN
100
AcDbCircle
 10
554.0769369048093
 20
267.188169900923
 30
0.0
 40
2.0
100
AcDbArc
 50
270.0
 51
0.0
  0
LINE
  5
5695
330
5532
100
AcDbEntity
  8
SEIHIN
100
AcDbLine
 10
554.0071379114092
 20
272.223952433023
 30
0.0
 11
535.9048761131093
 21
271.5918075214231
 31
0.0
  0
ARC
  5
5696
330
5532
100
AcDbEntity
  8
SEIHIN
100
AcDbCircle
 10
535.9746751065093
 20
269.593025867423
 30
0.0
 40
2.0
100
AcDbArc
 50
91.99999999999715
 51
145.1301023538007
  0
ARC
  5
5697
330
5532
100
AcDbEntity
  8
SEIHIN
100
AcDbCircle
 10
554.0769369048093
 20
270.225170778923
 30
0.0
 40
2.0
100
AcDbArc
 50
0.0
 51
91.99999999999715
  0
LINE
  5
5698
330
5532
100
AcDbEntity
  8
SEIHIN
100
AcDbLine
 10
610.0769369047092
 20
254.374126739323
 30
0.0
 11
610.0769369047092
 21
266.202213062423
 31
0.0
  0
LINE
  5
5699
330
5532
100
AcDbEntity
  8
SEIHIN
100
AcDbLine
 10
584.0769369047093
 20
260.188169900923
 30
0.0
 11
584.0769369047093
 21
242.621898877723
 31
0.0
  0
ARC
  5
569A
330
5532
100
AcDbEntity
  8
SEIHIN
100
AcDbCircle
 10
602.0769369047093
 20
258.088169900923
 30
0.0
 40
7.099999999999999
100
AcDbArc
 50
157.4979771918024
 51
287.775094675002
  0
LINE
  5
569B
330
5532
100
AcDbEntity
  8
CENTER_L
  6
CENTER
 62
     1
 48
5.0
100
AcDbLine
 10
602.0769369047093
 20
263.7398699009231
 30
0.0
 11
602.0769369047093
 21
251.8033699009231
 31
0.0
  0
ARC
  5
569C
330
5532
100
AcDbEntity
  8
SEIHIN
100
AcDbCircle
 10
598.2863731112092
 20
230.088169900923
 30
0.0
 40
17.2094362065
100
AcDbArc
 50
97.38926037350184
 51
136.5035557899984
  0
ARC
  5
569D
330
5532
100
AcDbEntity
  8
SEIHIN
100
AcDbCircle
 10
598.2863731112092
 20
230.088169900923
 30
0.0
 40
14.2094362065
100
AcDbArc
 50
97.83068455660135
 51
180.0
  0
ARC
  5
569E
330
5532
100
AcDbEntity
  8
SEIHIN
100
AcDbCircle
 10
585.0769369047092
 20
242.621898877723
 30
0.0
 40
1.0
100
AcDbArc
 50
180.0
 51
316.5035557899983
  0
ARC
  5
569F
330
5532
100
AcDbEntity
  8
SEIHIN
100
AcDbCircle
 10
600.0769369047093
 20
254.374126739323
 30
0.0
 40
10.0
100
AcDbArc
 50
272.9999999999991
 51
0.0
  0
ARC
  5
56A0
330
5532
100
AcDbEntity
  8
SEIHIN
100
AcDbCircle
 10
600.0769369047093
 20
254.374126739323
 30
0.0
 40
7.0
100
AcDbArc
 50
272.9999999999991
 51
318.198902274199
  0
LINE
  5
56A1
330
5532
100
AcDbEntity
  8
SEIHIN
100
AcDbLine
 10
600.6002964671092
 20
244.387831391823
 30
0.0
 11
596.3503922122092
 21
244.165103347623
 31
0.0
  0
LINE
  5
56A2
330
5532
100
AcDbEntity
  8
SEIHIN
100
AcDbLine
 10
596.0730724487093
 20
247.154686672623
 30
0.0
 11
600.4432885984092
 21
247.383719996023
 31
0.0
  0
ARC
  5
56A3
330
5532
100
AcDbEntity
  8
SEIHIN
100
AcDbCircle
 10
604.5497162817094
 20
250.3748462234231
 30
0.0
 40
1.0
100
AcDbArc
 50
318.198902274199
 51
107.775094675002
  0
LINE
  5
56A4
330
5532
100
AcDbEntity
  8
SEIHIN
100
AcDbLine
 10
586.0769369047093
 20
265.188169900923
 30
0.0
 11
602.0769369047093
 21
265.188169900923
 31
0.0
  0
LINE
  5
56A5
330
5532
100
AcDbEntity
  8
SEIHIN
100
AcDbLine
 10
594.5936221312092
 20
262.188169900923
 30
0.0
 11
586.0769369047093
 21
262.188169900923
 31
0.0
  0
LINE
  5
56A6
330
5532
100
AcDbEntity
  8
SEIHIN
100
AcDbLine
 10
605.2308822904095
 20
270.938967960223
 30
0.0
 11
586.1816088172092
 21
271.937298079923
 31
0.0
  0
LINE
  5
56A7
330
5532
100
AcDbEntity
  8
SEIHIN
100
AcDbLine
 10
570.0769369047093
 20
277.7881699009231
 30
0.0
 11
600.6002964671092
 21
276.1885084099231
 31
0.0
  0
LINE
  5
56A8
330
5532
100
AcDbEntity
  8
SEIHIN
100
AcDbLine
 10
572.5769369047092
 20
270.542728472123
 30
0.0
 11
572.5769369047092
 21
267.188169900923
 31
0.0
  0
LINE
  5
56A9
330
5532
100
AcDbEntity
  8
SEIHIN
100
AcDbLine
 10
581.0769369047092
 20
267.188169900923
 30
0.0
 11
581.0769369047092
 21
270.306893465423
 31
0.0
  0
LINE
  5
56AA
330
5532
100
AcDbEntity
  8
SEIHIN
100
AcDbLine
 10
584.0769369047093
 20
269.940039010423
 30
0.0
 11
584.0769369047093
 21
267.188169900923
 31
0.0
  0
LINE
  5
56AB
330
5532
100
AcDbEntity
  8
SEIHIN
100
AcDbLine
 10
559.0769369048094
 20
270.469616165423
 30
0.0
 11
559.0769369048094
 21
267.188169900923
 31
0.0
  0
LINE
  5
56AC
330
5532
100
AcDbEntity
  8
SEIHIN
100
AcDbLine
 10
567.5769369047093
 20
267.188169900923
 30
0.0
 11
567.5769369047093
 21
270.626759628123
 31
0.0
  0
LINE
  5
56AD
330
5532
100
AcDbEntity
  8
SEIHIN
100
AcDbLine
 10
579.0769369047093
 20
262.188169900923
 30
0.0
 11
574.5769369047093
 21
262.188169900923
 31
0.0
  0
LINE
  5
56AE
330
5532
100
AcDbEntity
  8
SEIHIN
100
AcDbLine
 10
574.5769369047093
 20
265.188169900923
 30
0.0
 11
579.0769369047093
 21
265.188169900923
 31
0.0
  0
ARC
  5
56AF
330
5532
100
AcDbEntity
  8
SEIHIN
100
AcDbCircle
 10
574.5769369047093
 20
260.188169900923
 30
0.0
 40
2.0
100
AcDbArc
 50
90.0
 51
180.0
  0
ARC
  5
56B0
330
5532
100
AcDbEntity
  8
SEIHIN
100
AcDbCircle
 10
574.5769369047093
 20
267.188169900923
 30
0.0
 40
2.0
100
AcDbArc
 50
180.0
 51
270.0
  0
LINE
  5
56B1
330
5532
100
AcDbEntity
  8
SEIHIN
100
AcDbLine
 10
565.5769369047093
 20
262.188169900923
 30
0.0
 11
561.0769369048093
 21
262.188169900923
 31
0.0
  0
ARC
  5
56B2
330
5532
100
AcDbEntity
  8
SEIHIN
100
AcDbCircle
 10
565.5769369047093
 20
260.188169900923
 30
0.0
 40
2.0
100
AcDbArc
 50
0.0
 51
90.0
  0
LINE
  5
56B3
330
5532
100
AcDbEntity
  8
SEIHIN
100
AcDbLine
 10
561.0769369048093
 20
265.188169900923
 30
0.0
 11
565.5769369047093
 21
265.188169900923
 31
0.0
  0
ARC
  5
56B4
330
5532
100
AcDbEntity
  8
SEIHIN
100
AcDbCircle
 10
565.5769369047093
 20
267.188169900923
 30
0.0
 40
2.0
100
AcDbArc
 50
270.0
 51
0.0
  0
ARC
  5
56B5
330
5532
100
AcDbEntity
  8
SEIHIN
100
AcDbCircle
 10
586.0769369047093
 20
267.188169900923
 30
0.0
 40
2.0
100
AcDbArc
 50
180.0
 51
270.0
  0
ARC
  5
56B6
330
5532
100
AcDbEntity
  8
SEIHIN
100
AcDbCircle
 10
586.0769369047093
 20
260.188169900923
 30
0.0
 40
2.0
100
AcDbArc
 50
90.0
 51
180.0
  0
ARC
  5
56B7
330
5532
100
AcDbEntity
  8
SEIHIN
100
AcDbCircle
 10
579.0769369047093
 20
260.188169900923
 30
0.0
 40
2.0
100
AcDbArc
 50
0.0
 51
90.0
  0
ARC
  5
56B8
330
5532
100
AcDbEntity
  8
SEIHIN
100
AcDbCircle
 10
579.0769369047093
 20
267.188169900923
 30
0.0
 40
2.0
100
AcDbArc
 50
270.0
 51
0.0
  0
LINE
  5
56B9
330
5532
100
AcDbEntity
  8
SEIHIN
100
AcDbLine
 10
579.1816088172092
 20
272.3041525349231
 30
0.0
 11
574.6816088172092
 21
272.539987541623
 31
0.0
  0
ARC
  5
56BA
330
5532
100
AcDbEntity
  8
SEIHIN
100
AcDbCircle
 10
574.5769369047093
 20
270.542728472123
 30
0.0
 40
2.0
100
AcDbArc
 50
86.99999999990309
 51
180.0
  0
LINE
  5
56BB
330
5532
100
AcDbEntity
  8
SEIHIN
100
AcDbLine
 10
565.5071379113094
 20
272.6255412821231
 30
0.0
 11
561.0071379114092
 21
272.4683978194231
 31
0.0
  0
ARC
  5
56BC
330
5532
100
AcDbEntity
  8
SEIHIN
100
AcDbCircle
 10
565.5769369047093
 20
270.626759628123
 30
0.0
 40
2.0
100
AcDbArc
 50
0.0
 51
91.99999999999715
  0
ARC
  5
56BD
330
5532
100
AcDbEntity
  8
SEIHIN
100
AcDbCircle
 10
586.0769369047093
 20
269.940039010423
 30
0.0
 40
2.0
100
AcDbArc
 50
86.99999999990309
 51
180.0
  0
ARC
  5
56BE
330
5532
100
AcDbEntity
  8
SEIHIN
100
AcDbCircle
 10
579.0769369047093
 20
270.306893465423
 30
0.0
 40
2.0
100
AcDbArc
 50
0.0
 51
86.99999999990309
  0
ARC
  5
56BF
330
5532
100
AcDbEntity
  8
SEIHIN
100
AcDbCircle
 10
600.0769369047093
 20
266.202213062423
 30
0.0
 40
10.0
100
AcDbArc
 50
0.0
 51
87.00000000000093
  0
ARC
  5
56C0
330
5532
100
AcDbEntity
  8
SEIHIN
100
AcDbCircle
 10
600.0769369047093
 20
266.202213062423
 30
0.0
 40
7.0
100
AcDbArc
 50
0.0
 51
42.5846914026972
  0
LINE
  5
56C1
330
5532
100
AcDbEntity
  8
SEIHIN
100
AcDbLine
 10
607.0769369047093
 20
265.1316065620231
 30
0.0
 11
607.0769369047093
 21
266.202213062423
 31
0.0
  0
ARC
  5
56C2
330
5532
100
AcDbEntity
  8
SEIHIN
100
AcDbCircle
 10
594.5936221312092
 20
261.188169900923
 30
0.0
 40
1.0
100
AcDbArc
 50
337.4979771918028
 51
90.0
  0
ARC
  5
56C3
330
5532
100
AcDbEntity
  8
SEIHIN
100
AcDbCircle
 10
602.0769369047093
 20
258.088169900923
 30
0.0
 40
7.099999999999999
100
AcDbArc
 50
60.40755832889653
 51
90.0
  0
CIRCLE
  5
56C4
330
5532
100
AcDbEntity
  8
SEIHIN
100
AcDbCircle
 10
602.0769369047093
 20
258.088169900923
 30
0.0
 40
2.1
  0
LINE
  5
56C5
330
5532
100
AcDbEntity
  8
CENTER_L
  6
CENTER
 62
     1
 48
5.0
100
AcDbLine
 10
595.9798369047093
 20
258.088169900923
 30
0.0
 11
608.7689369047093
 21
258.088169900923
 31
0.0
  0
ARC
  5
56C6
330
5532
100
AcDbEntity
  8
SEIHIN
100
AcDbCircle
 10
606.0769369047093
 20
265.1316065620231
 30
0.0
 40
1.0
100
AcDbArc
 50
240.4075583288965
 51
0.0
  0
DIMENSION
  5
56C7
330
5532
100
AcDbEntity
  8
SUNPOU
100
AcDbDimension
  2
*D9
 10
206.693023279603
 20
373.494916795923
 30
0.0
 11
201.6930232796029
 21
387.4949167959231
 31
0.0
 12
-0.8000005306130333
 22
0.799997491774775
 32
0.0
  3
STANDARD
100
AcDbAlignedDimension
 13
235.290998716285
 23
401.4949167959231
 33
0.0
 14
234.046534337885
 24
373.494916795923
 34
0.0
 50
90.0
100
AcDbRotatedDimension
1001
ACAD
1000
DSTYLE
1002
{
1070
    41
1040
7.0
1070
    42
1040
6.0
1070
    43
1040
14.0
1070
    44
1040
3.0
1070
    73
1070
     0
1070
    74
1070
     0
1070
    77
1070
     3
1070
   140
1040
6.0
1070
   141
1040
150.0
1070
   147
1040
2.0
1070
   172
1070
     1
1070
   173
1070
     1
1070
   176
1070
   256
1070
   177
1070
   256
1070
   178
1070
   256
1070
   271
1070
     0
1070
   272
1070
     0
1070
   341
1005
6D
1070
     6
1000
OPEN
1070
     7
1000
OPEN
1070
   371
1070
    -1
1070
   372
1070
    -1
1002
}
  0
LINE
  5
56C8
330
5532
100
AcDbEntity
  8
CENTER_L
  6
CENTER
 62
     1
 48
5.0
100
AcDbLine
 10
223.9474708248849
 20
387.4948167959231
 30
0.0
 11
379.4438708248849
 21
387.4948167959231
 31
0.0
  0
LINE
  5
56C9
330
5532
100
AcDbEntity
  8
SEIHIN
100
AcDbLine
 10
361.157385564285
 20
401.4949167959231
 30
0.0
 11
235.5757207736851
 21
401.4949167959231
 31
0.0
  0
LINE
  5
56CA
330
5532
100
AcDbEntity
  8
SEIHIN
100
AcDbLine
 10
361.1364952138849
 20
373.494916795923
 30
0.0
 11
235.922933341485
 21
373.494916795923
 31
0.0
  0
LINE
  5
56CB
330
5532
100
AcDbEntity
  8
SEIHIN
100
AcDbLine
 10
235.5757207736851
 20
401.4949167959231
 30
0.0
 11
236.6098705161848
 21
387.4949036550231
 31
0.0
  0
ARC
  5
56CC
330
5532
100
AcDbEntity
  8
SEIHIN
100
AcDbCircle
 10
258.4948371043851
 20
387.4949167959231
 30
0.0
 40
30.0
100
AcDbArc
 50
154.6230664748017
 51
205.3769335251982
  0
LINE
  5
56CD
330
5532
100
AcDbEntity
  8
SEIHIN
100
AcDbLine
 10
236.6120155993848
 20
387.4949167959231
 30
0.0
 11
235.922933341485
 21
373.494916795923
 31
0.0
  0
ARC
  5
56CE
330
5532
100
AcDbEntity
  8
SEIHIN
100
AcDbCircle
 10
233.196615823085
 20
375.494916795923
 30
0.0
 40
2.0
100
AcDbArc
 50
205.3769335251982
 51
270.0
  0
LINE
  5
56CF
330
5532
100
AcDbEntity
  8
SEIHIN
100
AcDbLine
 10
235.351123783585
 20
373.494916795923
 30
0.0
 11
234.851377373285
 21
373.494916795923
 31
0.0
  0
LINE
  5
56D0
330
5532
100
AcDbEntity
  8
SEIHIN
100
AcDbLine
 10
235.922933341485
 20
373.494916795923
 30
0.0
 11
235.351123783585
 21
373.494916795923
 31
0.0
  0
LINE
  5
56D1
330
5532
100
AcDbEntity
  8
SEIHIN
100
AcDbLine
 10
233.2416913024849
 20
373.494916795923
 30
0.0
 11
233.130668503785
 21
373.494916795923
 31
0.0
  0
LINE
  5
56D2
330
5532
100
AcDbEntity
  8
SEIHIN
100
AcDbLine
 10
234.851377373285
 20
373.494916795923
 30
0.0
 11
233.2416913024849
 21
373.494916795923
 31
0.0
  0
ARC
  5
56D3
330
5532
100
AcDbEntity
  8
SEIHIN
100
AcDbCircle
 10
233.196615823085
 20
399.494916795923
 30
0.0
 40
2.0
100
AcDbArc
 50
90.0
 51
154.6230664748017
  0
LINE
  5
56D4
330
5532
100
AcDbEntity
  8
SEIHIN
100
AcDbLine
 10
235.0062766588848
 20
401.4949167959231
 30
0.0
 11
235.5757207736851
 21
401.4949167959231
 31
0.0
  0
LINE
  5
56D5
330
5532
100
AcDbEntity
  8
SEIHIN
100
AcDbLine
 10
233.262856097785
 20
401.4949167959231
 30
0.0
 11
233.3033713243849
 21
401.4949167959231
 31
0.0
  0
LINE
  5
56D6
330
5532
100
AcDbEntity
  8
SEIHIN
100
AcDbLine
 10
234.5068473728849
 20
401.4949167959231
 30
0.0
 11
233.196615823085
 21
401.4949167959231
 31
0.0
  0
LINE
  5
56D7
330
5532
100
AcDbEntity
  8
SEIHIN
100
AcDbLine
 10
234.5068473728849
 20
401.4949167959231
 30
0.0
 11
235.0062766588848
 21
401.4949167959231
 31
0.0
  0
LINE
  5
56D8
330
5532
100
AcDbEntity
  8
SEIHIN
100
AcDbLine
 10
373.094770824885
 20
347.4949167959231
 30
0.0
 11
373.094770824885
 21
427.494916795923
 31
0.0
  0
DIMENSION
  5
56D9
330
5532
100
AcDbEntity
  8
SUNPOU
100
AcDbDimension
  2
*D1
 10
395.6368927596831
 20
347.494916795923
 30
0.0
 11
390.6368927596831
 21
387.4949167959231
 31
0.0
 12
-0.8000005306130333
 22
0.799997491774775
 32
0.0
  3
STANDARD
100
AcDbAlignedDimension
 13
373.094770824885
 23
427.494916795923
 33
0.0
 14
373.094770824885
 24
347.4949167959231
 34
0.0
 50
90.0
100
AcDbRotatedDimension
1001
ACAD
1000
DSTYLE
1002
{
1070
    41
1040
7.0
1070
    42
1040
6.0
1070
    43
1040
14.0
1070
    44
1040
3.0
1070
    73
1070
     0
1070
    74
1070
     0
1070
    77
1070
     3
1070
   140
1040
6.0
1070
   141
1040
150.0
1070
   147
1040
2.0
1070
   172
1070
     1
1070
   173
1070
     1
1070
   176
1070
   256
1070
   177
1070
   256
1070
   178
1070
   256
1070
   271
1070
     0
1070
   272
1070
     0
1070
   341
1005
6D
1070
     6
1000
OPEN
1070
     7
1000
OPEN
1070
   371
1070
    -1
1070
   372
1070
    -1
1002
}
  0
LINE
  5
56DA
330
5532
100
AcDbEntity
  8
SEIHIN
100
AcDbLine
 10
366.136483154785
 20
368.5058981435231
 30
0.0
 11
366.161432784685
 21
357.145921828923
 31
0.0
  0
LINE
  5
56DB
330
5532
100
AcDbEntity
  8
SEIHIN
100
AcDbLine
 10
363.3388522324851
 20
357.238237094723
 30
0.0
 11
363.3141053522849
 21
368.5058981435231
 31
0.0
  0
LINE
  5
56DC
330
5532
100
AcDbEntity
  8
SEIHIN
100
AcDbLine
 10
366.426159938185
 20
348.470588756523
 30
0.0
 11
366.515715420485
 21
347.776959581223
 31
0.0
  0
LINE
  5
56DD
330
5532
100
AcDbEntity
  8
SEIHIN
100
AcDbLine
 10
363.7736329854849
 20
350.152155593223
 30
0.0
 11
366.6030621157849
 21
347.503757092923
 31
0.0
  0
LINE
  5
56DE
330
5532
100
AcDbEntity
  8
SEIHIN
100
AcDbLine
 10
366.623718629685
 20
347.4949167959231
 30
0.0
 11
373.094770824885
 21
347.4949167959231
 31
0.0
  0
LINE
  5
56DF
330
5532
100
AcDbEntity
  8
SEIHIN
100
AcDbLine
 10
366.515715420485
 20
347.776959581223
 30
0.0
 11
366.623718629685
 21
347.4949167959231
 31
0.0
  0
LINE
  5
56E0
330
5532
100
AcDbEntity
  8
CENTER_L
  6
CENTER
 62
     1
 48
5.0
100
AcDbLine
 10
356.1778243237413
 20
355.4948167959231
 30
0.0
 11
379.4438708248849
 21
355.494816795923
 31
0.0
  0
LINE
  5
56E1
330
5532
100
AcDbEntity
  8
SEIHIN
100
AcDbLine
 10
366.253306268685
 20
351.510505671323
 30
0.0
 11
366.2765433357849
 21
350.888142000323
 31
0.0
  0
LINE
  5
56E2
330
5532
100
AcDbEntity
  8
SEIHIN
100
AcDbLine
 10
366.2765433357849
 20
350.888142000323
 30
0.0
 11
366.302392154485
 21
350.301518792523
 31
0.0
  0
LINE
  5
56E3
330
5532
100
AcDbEntity
  8
SEIHIN
100
AcDbLine
 10
366.302392154485
 20
350.301518792523
 30
0.0
 11
366.3550521828849
 21
349.367996947323
 31
0.0
  0
LINE
  5
56E4
330
5532
100
AcDbEntity
  8
SEIHIN
100
AcDbLine
 10
366.3550521828849
 20
349.367996947323
 30
0.0
 11
366.426159938185
 21
348.470588756523
 31
0.0
  0
LINE
  5
56E5
330
5532
100
AcDbEntity
  8
SEIHIN
100
AcDbLine
 10
366.172187456885
 20
355.3335162743231
 30
0.0
 11
366.199265575985
 21
353.537875883623
 31
0.0
  0
LINE
  5
56E6
330
5532
100
AcDbEntity
  8
SEIHIN
100
AcDbLine
 10
366.199265575985
 20
353.537875883623
 30
0.0
 11
366.214667388685
 21
352.840702768823
 31
0.0
  0
LINE
  5
56E7
330
5532
100
AcDbEntity
  8
SEIHIN
100
AcDbLine
 10
366.2326809528849
 20
352.163154715323
 30
0.0
 11
366.253306268685
 21
351.510505671323
 31
0.0
  0
LINE
  5
56E8
330
5532
100
AcDbEntity
  8
SEIHIN
100
AcDbLine
 10
366.214667388685
 20
352.840702768823
 30
0.0
 11
366.2326809528849
 21
352.163154715323
 31
0.0
  0
LINE
  5
56E9
330
5532
100
AcDbEntity
  8
SEIHIN
100
AcDbLine
 10
366.161432784685
 20
357.145921828923
 30
0.0
 11
366.172187456885
 21
355.3335162743231
 31
0.0
  0
LINE
  5
56EA
330
5532
100
AcDbEntity
  8
SEIHIN
100
AcDbLine
 10
363.548938799385
 20
351.330379311523
 30
0.0
 11
363.479811602285
 21
352.204298235123
 31
0.0
  0
LINE
  5
56EB
330
5532
100
AcDbEntity
  8
SEIHIN
100
AcDbLine
 10
363.7739501098849
 20
350.181039945023
 30
0.0
 11
363.7134939366849
 21
350.272094428723
 31
0.0
  0
LINE
  5
56EC
330
5532
100
AcDbEntity
  8
SEIHIN
100
AcDbLine
 10
363.7134939366849
 20
350.272094428723
 30
0.0
 11
363.627996927885
 21
350.678442283323
 31
0.0
  0
LINE
  5
56ED
330
5532
100
AcDbEntity
  8
SEIHIN
100
AcDbLine
 10
363.627996927885
 20
350.678442283323
 30
0.0
 11
363.548938799385
 21
351.330379311523
 31
0.0
  0
LINE
  5
56EE
330
5532
100
AcDbEntity
  8
SEIHIN
100
AcDbLine
 10
363.378732685685
 20
354.505758005523
 30
0.0
 11
363.3502089154849
 21
355.849676362823
 31
0.0
  0
LINE
  5
56EF
330
5532
100
AcDbEntity
  8
SEIHIN
100
AcDbLine
 10
363.422503549985
 20
353.271465066523
 30
0.0
 11
363.378732685685
 21
354.505758005523
 31
0.0
  0
LINE
  5
56F0
330
5532
100
AcDbEntity
  8
SEIHIN
100
AcDbLine
 10
363.479811602285
 20
352.204298235123
 30
0.0
 11
363.422503549985
 21
353.271465066523
 31
0.0
  0
LINE
  5
56F1
330
5532
100
AcDbEntity
  8
SEIHIN
100
AcDbLine
 10
363.3502089154849
 20
355.849676362823
 30
0.0
 11
363.3388522324851
 21
357.238237094723
 31
0.0
  0
ARC
  5
56F2
330
5532
100
AcDbEntity
  8
SEIHIN
100
AcDbCircle
 10
361.1364952138849
 20
368.494916795923
 30
0.0
 40
5.0
100
AcDbArc
 50
0.1258370751010428
 51
90.0
  0
ARC
  5
56F3
330
5532
100
AcDbEntity
  8
SEIHIN
100
AcDbCircle
 10
358.314117411385
 20
368.494916795923
 30
0.0
 40
5.0
100
AcDbArc
 50
0.1258370751010428
 51
90.0
  0
LINE
  5
56F4
330
5532
100
AcDbEntity
  8
SEIHIN
100
AcDbLine
 10
366.1953947173849
 20
418.018276358323
 30
0.0
 11
366.157358404085
 21
406.478436451723
 31
0.0
  0
LINE
  5
56F5
330
5532
100
AcDbEntity
  8
SEIHIN
100
AcDbLine
 10
363.345908781185
 20
406.478436451723
 30
0.0
 11
363.383459066385
 21
417.8708202452231
 31
0.0
  0
ARC
  5
56F6
330
5532
100
AcDbEntity
  8
SEIHIN
100
AcDbCircle
 10
358.345935941385
 20
406.494916795923
 30
0.0
 40
5.0
100
AcDbArc
 50
270.0
 51
359.8111488244
  0
ARC
  5
56F7
330
5532
100
AcDbEntity
  8
SEIHIN
100
AcDbCircle
 10
361.157385564285
 20
406.494916795923
 30
0.0
 40
5.0
100
AcDbArc
 50
270.0
 51
359.8111488246003
  0
LINE
  5
56F8
330
5532
100
AcDbEntity
  8
SEIHIN
100
AcDbLine
 10
366.6465057298851
 20
427.494916795923
 30
0.0
 11
373.094770824885
 21
427.494916795923
 31
0.0
  0
LINE
  5
56F9
330
5532
100
AcDbEntity
  8
CENTER_L
  6
CENTER
 62
     1
 48
5.0
100
AcDbLine
 10
356.2021027916776
 20
419.494816795923
 30
0.0
 11
379.4438708248849
 21
419.494816795923
 31
0.0
  0
LINE
  5
56FA
330
5532
100
AcDbEntity
  8
SEIHIN
100
AcDbLine
 10
366.5421771697849
 20
427.219169368223
 30
0.0
 11
366.455575903685
 21
426.540816672123
 31
0.0
  0
LINE
  5
56FB
330
5532
100
AcDbEntity
  8
SEIHIN
100
AcDbLine
 10
366.3355552534849
 20
424.748660506023
 30
0.0
 11
366.277167449085
 21
423.245528580923
 31
0.0
  0
LINE
  5
56FC
330
5532
100
AcDbEntity
  8
SEIHIN
100
AcDbLine
 10
366.353886649485
 20
425.109906477223
 30
0.0
 11
366.3355552534849
 21
424.748660506023
 31
0.0
  0
LINE
  5
56FD
330
5532
100
AcDbEntity
  8
SEIHIN
100
AcDbLine
 10
366.455575903685
 20
426.540816672123
 30
0.0
 11
366.4258990395849
 21
426.2034019849231
 31
0.0
  0
LINE
  5
56FE
330
5532
100
AcDbEntity
  8
SEIHIN
100
AcDbLine
 10
366.4258990395849
 20
426.2034019849231
 30
0.0
 11
366.3990585424849
 21
425.8458175797231
 31
0.0
  0
LINE
  5
56FF
330
5532
100
AcDbEntity
  8
SEIHIN
100
AcDbLine
 10
366.3990585424849
 20
425.8458175797231
 30
0.0
 11
366.375054412485
 21
425.478287392023
 31
0.0
  0
LINE
  5
5700
330
5532
100
AcDbEntity
  8
SEIHIN
100
AcDbLine
 10
366.375054412485
 20
425.478287392023
 30
0.0
 11
366.353886649485
 21
425.109906477223
 31
0.0
  0
LINE
  5
5701
330
5532
100
AcDbEntity
  8
SEIHIN
100
AcDbLine
 10
366.6465057298851
 20
427.494916795923
 30
0.0
 11
366.5421771697849
 21
427.219169368223
 31
0.0
  0
LINE
  5
5702
330
5532
100
AcDbEntity
  8
SEIHIN
100
AcDbLine
 10
366.234344758285
 20
421.571086176823
 30
0.0
 11
366.2070871810849
 21
419.8045709898231
 31
0.0
  0
LINE
  5
5703
330
5532
100
AcDbEntity
  8
SEIHIN
100
AcDbLine
 10
366.2070871810849
 20
419.8045709898231
 30
0.0
 11
366.1953947173849
 21
418.018276358323
 31
0.0
  0
LINE
  5
5704
330
5532
100
AcDbEntity
  8
SEIHIN
100
AcDbLine
 10
366.277167449085
 20
423.245528580923
 30
0.0
 11
366.234344758285
 21
421.571086176823
 31
0.0
  0
LINE
  5
5705
330
5532
100
AcDbEntity
  8
SEIHIN
100
AcDbLine
 10
363.749897764985
 20
424.5513471465231
 30
0.0
 11
363.8063013969849
 21
424.635332854123
 31
0.0
  0
LINE
  5
5706
330
5532
100
AcDbEntity
  8
SEIHIN
100
AcDbLine
 10
363.5907213534849
 20
423.540144025323
 30
0.0
 11
363.667307430685
 21
424.163466986023
 31
0.0
  0
LINE
  5
5707
330
5532
100
AcDbEntity
  8
SEIHIN
100
AcDbLine
 10
363.667307430685
 20
424.163466986023
 30
0.0
 11
363.749897764985
 21
424.5513471465231
 31
0.0
  0
LINE
  5
5708
330
5532
100
AcDbEntity
  8
SEIHIN
100
AcDbLine
 10
363.5236196023849
 20
422.704924364023
 30
0.0
 11
363.5907213534849
 21
423.540144025323
 31
0.0
  0
LINE
  5
5709
330
5532
100
AcDbEntity
  8
SEIHIN
100
AcDbLine
 10
363.424493037985
 20
420.499753131523
 30
0.0
 11
363.4676152238851
 21
421.6823994231231
 31
0.0
  0
LINE
  5
570A
330
5532
100
AcDbEntity
  8
SEIHIN
100
AcDbLine
 10
363.383459066385
 20
417.8708202452231
 30
0.0
 11
363.3958075887851
 21
419.2081918037231
 31
0.0
  0
LINE
  5
570B
330
5532
100
AcDbEntity
  8
SEIHIN
100
AcDbLine
 10
363.3958075887851
 20
419.2081918037231
 30
0.0
 11
363.424493037985
 21
420.499753131523
 31
0.0
  0
LINE
  5
570C
330
5532
100
AcDbEntity
  8
SEIHIN
100
AcDbLine
 10
363.4676152238851
 20
421.6823994231231
 30
0.0
 11
363.5236196023849
 21
422.704924364023
 31
0.0
  0
LINE
  5
570D
330
5532
100
AcDbEntity
  8
SEIHIN
100
AcDbLine
 10
366.6255425302849
 20
427.485257876023
 30
0.0
 11
363.805983384185
 21
424.6639347158231
 31
0.0
  0
ENDBLK
  5
570F
330
5532
100
AcDbEntity
  8
0
100
AcDbBlockEnd
  0
BLOCK
  5
613E
330
6134
100
AcDbEntity
  8
0
100
AcDbBlockBegin
  2
*D17
 70
     1
 10
0.0
 20
0.0
 30
0.0
  3
*D17
  1

  0
LINE
  5
6300
330
6134
100
AcDbEntity
  8
SUNPOU
100
AcDbLine
 10
1662.366686348774
 20
-567.6213112125823
 30
0.0
 11
1662.366686348774
 21
-541.9122660014352
 31
0.0
  0
LINE
  5
6301
330
6134
100
AcDbEntity
  8
SUNPOU
100
AcDbLine
 10
1517.76675262824
 20
-574.6012238920732
 30
0.0
 11
1517.76675262824
 21
-541.9122660014352
 31
0.0
  0
LINE
  5
6302
330
6134
100
AcDbEntity
  8
SUNPOU
100
AcDbLine
 10
1655.366686348775
 20
-544.9122660014352
 30
0.0
 11
1524.76675262824
 21
-544.9122660014352
 31
0.0
  0
INSERT
  5
6303
330
6134
100
AcDbEntity
  8
SUNPOU
100
AcDbBlockReference
  2
_OPEN
 10
1662.366686348774
 20
-544.9122660014352
 30
0.0
 41
7.0
 42
7.0
 43
7.0
  0
INSERT
  5
6304
330
6134
100
AcDbEntity
  8
SUNPOU
100
AcDbBlockReference
  2
_OPEN
 10
1517.76675262824
 20
-544.9122660014352
 30
0.0
 41
7.0
 42
7.0
 43
7.0
 50
180.0
  0
MTEXT
  5
6305
330
6134
100
AcDbEntity
  8
SUNPOU
100
AcDbMText
 10
1590.066719488507
 20
-539.9122660014352
 30
0.0
 40
6.0
 41
0.0
 71
     5
 72
     1
  1
\A1;145
1001
ACAD
1000
MTEXTBEGIN
1070
    73
1070
     1
1070
    44
1040
1.0
1070
    74
1070
     0
1000
MTEXTEND
  0
POINT
  5
6306
330
6134
100
AcDbEntity
  8
DEFPOINTS
 62
     0
100
AcDbPoint
 10
1662.366686348774
 20
-573.6213112125823
 30
0.0
  0
POINT
  5
6307
330
6134
100
AcDbEntity
  8
DEFPOINTS
 62
     0
100
AcDbPoint
 10
1517.76675262824
 20
-580.6012238920732
 30
0.0
  0
POINT
  5
6308
330
6134
100
AcDbEntity
  8
DEFPOINTS
 62
     0
100
AcDbPoint
 10
1517.76675262824
 20
-544.9122660014352
 30
0.0
  0
ENDBLK
  5
613F
330
6134
100
AcDbEntity
  8
0
100
AcDbBlockEnd
  0
BLOCK
  5
614C
330
6140
100
AcDbEntity
  8
0
100
AcDbBlockBegin
  2
*D18
 70
     1
 10
0.0
 20
0.0
 30
0.0
  3
*D18
  1

  0
LINE
  5
62F5
330
6140
100
AcDbEntity
  8
SUNPOU
100
AcDbLine
 10
1662.366686348774
 20
-567.6213112125823
 30
0.0
 11
1662.366686348774
 21
-554.9214732235302
 31
0.0
  0
LINE
  5
62F6
330
6140
100
AcDbEntity
  8
SUNPOU
100
AcDbLine
 10
1652.574196134174
 20
-570.9207167986824
 30
0.0
 11
1652.574196134174
 21
-554.9214732235302
 31
0.0
  0
LINE
  5
62F7
330
6140
100
AcDbEntity
  8
SUNPOU
100
AcDbLine
 10
1669.366686348775
 20
-557.9214732235302
 30
0.0
 11
1676.366686348774
 21
-557.9214732235302
 31
0.0
  0
LINE
  5
62F8
330
6140
100
AcDbEntity
  8
SUNPOU
100
AcDbLine
 10
1645.574196134174
 20
-557.9214732235302
 30
0.0
 11
1627.574196134174
 21
-557.9214732235302
 31
0.0
  0
LINE
  5
62F9
330
6140
100
AcDbEntity
  8
SUNPOU
100
AcDbLine
 10
1662.366686348774
 20
-557.9214732235302
 30
0.0
 11
1652.574196134174
 21
-557.9214732235302
 31
0.0
  0
INSERT
  5
62FA
330
6140
100
AcDbEntity
  8
SUNPOU
100
AcDbBlockReference
  2
_OPEN
 10
1662.366686348774
 20
-557.9214732235302
 30
0.0
 41
7.0
 42
7.0
 43
7.0
 50
180.0
  0
INSERT
  5
62FB
330
6140
100
AcDbEntity
  8
SUNPOU
100
AcDbBlockReference
  2
_OPEN
 10
1652.574196134174
 20
-557.9214732235302
 30
0.0
 41
7.0
 42
7.0
 43
7.0
  0
MTEXT
  5
62FC
330
6140
100
AcDbEntity
  8
SUNPOU
100
AcDbMText
 10
1633.074196134174
 20
-552.9214732235302
 30
0.0
 40
6.0
 41
0.0
 71
     5
 72
     1
  1
\A1;10
1001
ACAD
1000
MTEXTBEGIN
1070
    73
1070
     1
1070
    44
1040
1.0
1070
    74
1070
     0
1000
MTEXTEND
  0
POINT
  5
62FD
330
6140
100
AcDbEntity
  8
DEFPOINTS
 62
     0
100
AcDbPoint
 10
1662.366686348774
 20
-573.6213112125823
 30
0.0
  0
POINT
  5
62FE
330
6140
100
AcDbEntity
  8
DEFPOINTS
 62
     0
100
AcDbPoint
 10
1652.574196134174
 20
-576.9207167986824
 30
0.0
  0
POINT
  5
62FF
330
6140
100
AcDbEntity
  8
DEFPOINTS
 62
     0
100
AcDbPoint
 10
1652.574196134174
 20
-557.9214732235302
 30
0.0
  0
ENDBLK
  5
614D
330
6140
100
AcDbEntity
  8
0
100
AcDbBlockEnd
  0
BLOCK
  5
6158
330
614E
100
AcDbEntity
  8
0
100
AcDbBlockBegin
  2
*D19
 70
     1
 10
0.0
 20
0.0
 30
0.0
  3
*D19
  1

  0
LINE
  5
62EC
330
614E
100
AcDbEntity
  8
SUNPOU
100
AcDbLine
 10
1819.348852428599
 20
-578.6750297403823
 30
0.0
 11
1819.348852428599
 21
-541.9122660014352
 31
0.0
  0
LINE
  5
62ED
330
614E
100
AcDbEntity
  8
SUNPOU
100
AcDbLine
 10
1899.348852428599
 20
-579.2072680510823
 30
0.0
 11
1899.348852428599
 21
-541.9122660014352
 31
0.0
  0
LINE
  5
62EE
330
614E
100
AcDbEntity
  8
SUNPOU
100
AcDbLine
 10
1826.348852428599
 20
-544.9122660014352
 30
0.0
 11
1892.348852428599
 21
-544.9122660014352
 31
0.0
  0
INSERT
  5
62EF
330
614E
100
AcDbEntity
  8
SUNPOU
100
AcDbBlockReference
  2
_OPEN
 10
1819.348852428599
 20
-544.9122660014352
 30
0.0
 41
7.0
 42
7.0
 43
7.0
 50
180.0
  0
INSERT
  5
62F0
330
614E
100
AcDbEntity
  8
SUNPOU
100
AcDbBlockReference
  2
_OPEN
 10
1899.348852428599
 20
-544.9122660014352
 30
0.0
 41
7.0
 42
7.0
 43
7.0
  0
MTEXT
  5
62F1
330
614E
100
AcDbEntity
  8
SUNPOU
100
AcDbMText
 10
1859.348852428599
 20
-539.9122660014352
 30
0.0
 40
6.0
 41
0.0
 71
     5
 72
     1
  1
\A1;80
1001
ACAD
1000
MTEXTBEGIN
1070
    73
1070
     1
1070
    44
1040
1.0
1070
    74
1070
     0
1000
MTEXTEND
  0
POINT
  5
62F2
330
614E
100
AcDbEntity
  8
DEFPOINTS
 62
     0
100
AcDbPoint
 10
1819.348852428599
 20
-584.6750297403823
 30
0.0
  0
POINT
  5
62F3
330
614E
100
AcDbEntity
  8
DEFPOINTS
 62
     0
100
AcDbPoint
 10
1899.348852428599
 20
-585.2072680510823
 30
0.0
  0
POINT
  5
62F4
330
614E
100
AcDbEntity
  8
DEFPOINTS
 62
     0
100
AcDbPoint
 10
1899.348852428599
 20
-544.9122660014352
 30
0.0
  0
ENDBLK
  5
6159
330
614E
100
AcDbEntity
  8
0
100
AcDbBlockEnd
  0
BLOCK
  5
6164
330
615A
100
AcDbEntity
  8
0
100
AcDbBlockBegin
  2
*D20
 70
     1
 10
0.0
 20
0.0
 30
0.0
  3
*D20
  1

  0
LINE
  5
62E3
330
615A
100
AcDbEntity
  8
SUNPOU
100
AcDbLine
 10
1827.348852428599
 20
-581.6696112125822
 30
0.0
 11
1827.348852428599
 21
-554.9214732235302
 31
0.0
  0
LINE
  5
62E4
330
615A
100
AcDbEntity
  8
SUNPOU
100
AcDbLine
 10
1891.348852428599
 20
-581.6696112125822
 30
0.0
 11
1891.348852428599
 21
-554.9214732235302
 31
0.0
  0
LINE
  5
62E5
330
615A
100
AcDbEntity
  8
SUNPOU
100
AcDbLine
 10
1834.348852428599
 20
-557.9214732235302
 30
0.0
 11
1884.348852428599
 21
-557.9214732235302
 31
0.0
  0
INSERT
  5
62E6
330
615A
100
AcDbEntity
  8
SUNPOU
100
AcDbBlockReference
  2
_OPEN
 10
1827.348852428599
 20
-557.9214732235302
 30
0.0
 41
7.0
 42
7.0
 43
7.0
 50
180.0
  0
INSERT
  5
62E7
330
615A
100
AcDbEntity
  8
SUNPOU
100
AcDbBlockReference
  2
_OPEN
 10
1891.348852428599
 20
-557.9214732235302
 30
0.0
 41
7.0
 42
7.0
 43
7.0
  0
MTEXT
  5
62E8
330
615A
100
AcDbEntity
  8
SUNPOU
100
AcDbMText
 10
1859.348852428599
 20
-552.9214732235302
 30
0.0
 40
6.0
 41
0.0
 71
     5
 72
     1
  1
\A1;64
1001
ACAD
1000
MTEXTBEGIN
1070
    73
1070
     1
1070
    44
1040
1.0
1070
    74
1070
     0
1000
MTEXTEND
  0
POINT
  5
62E9
330
615A
100
AcDbEntity
  8
DEFPOINTS
 62
     0
100
AcDbPoint
 10
1827.348852428599
 20
-587.6696112125822
 30
0.0
  0
POINT
  5
62EA
330
615A
100
AcDbEntity
  8
DEFPOINTS
 62
     0
100
AcDbPoint
 10
1891.348852428599
 20
-587.6696112125822
 30
0.0
  0
POINT
  5
62EB
330
615A
100
AcDbEntity
  8
DEFPOINTS
 62
     0
100
AcDbPoint
 10
1891.348852428599
 20
-557.9214732235302
 30
0.0
  0
ENDBLK
  5
6165
330
615A
100
AcDbEntity
  8
0
100
AcDbBlockEnd
  0
BLOCK
  5
6170
330
6166
100
AcDbEntity
  8
0
100
AcDbBlockBegin
  2
*D21
 70
     1
 10
0.0
 20
0.0
 30
0.0
  3
*D21
  1

  0
LINE
  5
628C
330
6166
100
AcDbEntity
  8
SUNPOU
100
AcDbLine
 10
1516.394720060074
 20
-574.3213112125824
 30
0.0
 11
1495.729440363693
 21
-574.3213112125824
 31
0.0
  0
LINE
  5
628D
330
6166
100
AcDbEntity
  8
SUNPOU
100
AcDbLine
 10
1649.366686348774
 20
-651.3213112125823
 30
0.0
 11
1495.729440363693
 21
-651.3213112125823
 31
0.0
  0
LINE
  5
628E
330
6166
100
AcDbEntity
  8
SUNPOU
100
AcDbLine
 10
1498.729440363693
 20
-581.3213112125823
 30
0.0
 11
1498.729440363693
 21
-644.3213112125824
 31
0.0
  0
INSERT
  5
628F
330
6166
100
AcDbEntity
  8
SUNPOU
100
AcDbBlockReference
  2
_OPEN
 10
1498.729440363693
 20
-574.3213112125824
 30
0.0
 41
7.0
 42
7.0
 43
7.0
 50
90.0
  0
INSERT
  5
6290
330
6166
100
AcDbEntity
  8
SUNPOU
100
AcDbBlockReference
  2
_OPEN
 10
1498.729440363693
 20
-651.3213112125823
 30
0.0
 41
7.0
 42
7.0
 43
7.0
 50
270.0
  0
MTEXT
  5
6291
330
6166
100
AcDbEntity
  8
SUNPOU
100
AcDbMText
 10
1493.729440363693
 20
-612.8213112125821
 30
0.0
 40
6.0
 41
0.0
 71
     5
 72
     1
  1
\A1;77
 11
0.0000000000000001
 21
1.0
 31
0.0
1001
ACAD
1000
MTEXTBEGIN
1070
    73
1070
     1
1070
    44
1040
1.0
1070
    74
1070
     0
1000
MTEXTEND
  0
POINT
  5
6292
330
6166
100
AcDbEntity
  8
DEFPOINTS
 62
     0
100
AcDbPoint
 10
1522.394720060074
 20
-574.3213112125824
 30
0.0
  0
POINT
  5
6293
330
6166
100
AcDbEntity
  8
DEFPOINTS
 62
     0
100
AcDbPoint
 10
1655.366686348775
 20
-651.3213112125823
 30
0.0
  0
POINT
  5
6294
330
6166
100
AcDbEntity
  8
DEFPOINTS
 62
     0
100
AcDbPoint
 10
1498.729440363693
 20
-651.3213112125823
 30
0.0
  0
ENDBLK
  5
6171
330
6166
100
AcDbEntity
  8
0
100
AcDbBlockEnd
  0
BLOCK
  5
617C
330
6172
100
AcDbEntity
  8
0
100
AcDbBlockBegin
  2
*D22
 70
     1
 10
0.0
 20
0.0
 30
0.0
  3
*D22
  1

  0
LINE
  5
62A0
330
6172
100
AcDbEntity
  8
SUNPOU
100
AcDbLine
 10
1845.348852428699
 20
-648.9958857688823
 30
0.0
 11
1845.348852428699
 21
-673.0938011562891
 31
0.0
  0
LINE
  5
62A1
330
6172
100
AcDbEntity
  8
SUNPOU
100
AcDbLine
 10
1873.348852428599
 20
-649.1069102412823
 30
0.0
 11
1873.348852428599
 21
-673.0938011562891
 31
0.0
  0
LINE
  5
62A2
330
6172
100
AcDbEntity
  8
SUNPOU
100
AcDbLine
 10
1852.348852428699
 20
-670.0938011562891
 30
0.0
 11
1866.348852428599
 21
-670.0938011562891
 31
0.0
  0
INSERT
  5
62A3
330
6172
100
AcDbEntity
  8
SUNPOU
100
AcDbBlockReference
  2
_OPEN
 10
1845.348852428699
 20
-670.0938011562891
 30
0.0
 41
7.0
 42
7.0
 43
7.0
 50
180.0
  0
INSERT
  5
62A4
330
6172
100
AcDbEntity
  8
SUNPOU
100
AcDbBlockReference
  2
_OPEN
 10
1873.348852428599
 20
-670.0938011562891
 30
0.0
 41
7.0
 42
7.0
 43
7.0
  0
MTEXT
  5
62A5
330
6172
100
AcDbEntity
  8
SUNPOU
100
AcDbMText
 10
1859.348852428649
 20
-665.0938011562891
 30
0.0
 40
6.0
 41
0.0
 71
     5
 72
     1
  1
\A1;28
1001
ACAD
1000
MTEXTBEGIN
1070
    73
1070
     1
1070
    44
1040
1.0
1070
    74
1070
     0
1000
MTEXTEND
  0
POINT
  5
62A6
330
6172
100
AcDbEntity
  8
DEFPOINTS
 62
     0
100
AcDbPoint
 10
1845.348852428699
 20
-642.9958857688823
 30
0.0
  0
POINT
  5
62A7
330
6172
100
AcDbEntity
  8
DEFPOINTS
 62
     0
100
AcDbPoint
 10
1873.348852428599
 20
-643.1069102412823
 30
0.0
  0
POINT
  5
62A8
330
6172
100
AcDbEntity
  8
DEFPOINTS
 62
     0
100
AcDbPoint
 10
1873.348852428599
 20
-670.0938011562891
 30
0.0
  0
ENDBLK
  5
617D
330
6172
100
AcDbEntity
  8
0
100
AcDbBlockEnd
  0
BLOCK
  5
6188
330
617E
100
AcDbEntity
  8
0
100
AcDbBlockBegin
  2
*D23
 70
     1
 10
0.0
 20
0.0
 30
0.0
  3
*D23
  1

  0
LINE
  5
62DA
330
617E
100
AcDbEntity
  8
SUNPOU
100
AcDbLine
 10
1853.348948292426
 20
-573.6213162365926
 30
0.0
 11
1779.071282121918
 21
-573.6213162365925
 31
0.0
  0
LINE
  5
62DB
330
617E
100
AcDbEntity
  8
SUNPOU
100
AcDbLine
 10
1853.348852428599
 20
-651.3213112125823
 30
0.0
 11
1779.071282121918
 21
-651.3213112125822
 31
0.0
  0
LINE
  5
62DC
330
617E
100
AcDbEntity
  8
SUNPOU
100
AcDbLine
 10
1782.071282121918
 20
-580.6213162365925
 30
0.0
 11
1782.071282121918
 21
-644.3213112125822
 31
0.0
  0
INSERT
  5
62DD
330
617E
100
AcDbEntity
  8
SUNPOU
100
AcDbBlockReference
  2
_OPEN
 10
1782.071282121918
 20
-573.6213162365925
 30
0.0
 41
7.0
 42
7.0
 43
7.0
 50
90.0
  0
INSERT
  5
62DE
330
617E
100
AcDbEntity
  8
SUNPOU
100
AcDbBlockReference
  2
_OPEN
 10
1782.071282121918
 20
-651.3213112125822
 30
0.0
 41
7.0
 42
7.0
 43
7.0
 50
270.0
  0
MTEXT
  5
62DF
330
617E
100
AcDbEntity
  8
SUNPOU
100
AcDbMText
 10
1777.071282121918
 20
-612.4713137245871
 30
0.0
 40
6.0
 41
0.0
 71
     5
 72
     1
  1
\A1;78
 11
0.0000000000000001
 21
1.0
 31
0.0
1001
ACAD
1000
MTEXTBEGIN
1070
    73
1070
     1
1070
    44
1040
1.0
1070
    74
1070
     0
1000
MTEXTEND
  0
POINT
  5
62E0
330
617E
100
AcDbEntity
  8
DEFPOINTS
 62
     0
100
AcDbPoint
 10
1859.348948292426
 20
-573.6213162365926
 30
0.0
  0
POINT
  5
62E1
330
617E
100
AcDbEntity
  8
DEFPOINTS
 62
     0
100
AcDbPoint
 10
1859.348852428599
 20
-651.3213112125823
 30
0.0
  0
POINT
  5
62E2
330
617E
100
AcDbEntity
  8
DEFPOINTS
 62
     0
100
AcDbPoint
 10
1782.071282121918
 20
-651.3213112125822
 30
0.0
  0
ENDBLK
  5
6189
330
617E
100
AcDbEntity
  8
0
100
AcDbBlockEnd
  0
BLOCK
  5
6196
330
618A
100
AcDbEntity
  8
0
100
AcDbBlockBegin
  2
*D24
 70
     1
 10
0.0
 20
0.0
 30
0.0
  3
*D24
  1

  0
LINE
  5
62CF
330
618A
100
AcDbEntity
  8
SUNPOU
100
AcDbLine
 10
1853.348858014557
 20
-651.3213110175163
 30
0.0
 11
1795.894058077012
 21
-651.3213110175163
 31
0.0
  0
LINE
  5
62D0
330
618A
100
AcDbEntity
  8
SUNPOU
100
AcDbLine
 10
1846.129516132629
 20
-643.3213112125823
 30
0.0
 11
1795.894058077012
 21
-643.3213112125823
 31
0.0
  0
LINE
  5
62D1
330
618A
100
AcDbEntity
  8
SUNPOU
100
AcDbLine
 10
1798.894058077012
 20
-658.3213110175163
 30
0.0
 11
1798.894058077012
 21
-665.3213110175163
 31
0.0
  0
LINE
  5
62D2
330
618A
100
AcDbEntity
  8
SUNPOU
100
AcDbLine
 10
1798.894058077012
 20
-636.3213112125824
 30
0.0
 11
1798.894058077012
 21
-621.3213112125823
 31
0.0
  0
LINE
  5
62D3
330
618A
100
AcDbEntity
  8
SUNPOU
100
AcDbLine
 10
1798.894058077012
 20
-651.3213110175163
 30
0.0
 11
1798.894058077012
 21
-643.3213112125823
 31
0.0
  0
INSERT
  5
62D4
330
618A
100
AcDbEntity
  8
SUNPOU
100
AcDbBlockReference
  2
_OPEN
 10
1798.894058077012
 20
-651.3213110175163
 30
0.0
 41
7.0
 42
7.0
 43
7.0
 50
90.0
  0
INSERT
  5
62D5
330
618A
100
AcDbEntity
  8
SUNPOU
100
AcDbBlockReference
  2
_OPEN
 10
1798.894058077012
 20
-643.3213112125823
 30
0.0
 41
7.0
 42
7.0
 43
7.0
 50
270.0
  0
MTEXT
  5
62D6
330
618A
100
AcDbEntity
  8
SUNPOU
100
AcDbMText
 10
1793.894058077011
 20
-625.321311212582
 30
0.0
 40
6.0
 41
0.0
 71
     5
 72
     1
  1
\A1;8
 11
0.0000000000000001
 21
1.0
 31
0.0
1001
ACAD
1000
MTEXTBEGIN
1070
    73
1070
     1
1070
    44
1040
1.0
1070
    74
1070
     0
1000
MTEXTEND
  0
POINT
  5
62D7
330
618A
100
AcDbEntity
  8
DEFPOINTS
 62
     0
100
AcDbPoint
 10
1859.348858014557
 20
-651.3213110175163
 30
0.0
  0
POINT
  5
62D8
330
618A
100
AcDbEntity
  8
DEFPOINTS
 62
     0
100
AcDbPoint
 10
1852.129516132629
 20
-643.3213112125823
 30
0.0
  0
POINT
  5
62D9
330
618A
100
AcDbEntity
  8
DEFPOINTS
 62
     0
100
AcDbPoint
 10
1798.894058077012
 20
-643.3213112125823
 30
0.0
  0
ENDBLK
  5
6197
330
618A
100
AcDbEntity
  8
0
100
AcDbBlockEnd
  0
BLOCK
  5
61A2
330
6198
100
AcDbEntity
  8
0
100
AcDbBlockBegin
  2
*D25
 70
     1
 10
0.0
 20
0.0
 30
0.0
  3
*D25
  1

  0
LINE
  5
62C6
330
6198
100
AcDbEntity
  8
SUNPOU
100
AcDbLine
 10
1853.348948292426
 20
-573.6213162365926
 30
0.0
 11
1795.894058077012
 21
-573.6213162365926
 31
0.0
  0
LINE
  5
62C7
330
6198
100
AcDbEntity
  8
SUNPOU
100
AcDbLine
 10
1815.251752428599
 20
-593.3213112125823
 30
0.0
 11
1795.894058077012
 21
-593.3213112125823
 31
0.0
  0
LINE
  5
62C8
330
6198
100
AcDbEntity
  8
SUNPOU
100
AcDbLine
 10
1798.894058077012
 20
-580.6213162365926
 30
0.0
 11
1798.894058077012
 21
-586.3213112125824
 31
0.0
  0
INSERT
  5
62C9
330
6198
100
AcDbEntity
  8
SUNPOU
100
AcDbBlockReference
  2
_OPEN
 10
1798.894058077012
 20
-573.6213162365926
 30
0.0
 41
7.0
 42
7.0
 43
7.0
 50
90.0
  0
INSERT
  5
62CA
330
6198
100
AcDbEntity
  8
SUNPOU
100
AcDbBlockReference
  2
_OPEN
 10
1798.894058077012
 20
-593.3213112125823
 30
0.0
 41
7.0
 42
7.0
 43
7.0
 50
270.0
  0
MTEXT
  5
62CB
330
6198
100
AcDbEntity
  8
SUNPOU
100
AcDbMText
 10
1793.894058077011
 20
-583.4713137245871
 30
0.0
 40
6.0
 41
0.0
 71
     5
 72
     1
  1
\A1;20
 11
0.0000000000000001
 21
1.0
 31
0.0
1001
ACAD
1000
MTEXTBEGIN
1070
    73
1070
     1
1070
    44
1040
1.0
1070
    74
1070
     0
1000
MTEXTEND
  0
POINT
  5
62CC
330
6198
100
AcDbEntity
  8
DEFPOINTS
 62
     0
100
AcDbPoint
 10
1859.348948292426
 20
-573.6213162365926
 30
0.0
  0
POINT
  5
62CD
330
6198
100
AcDbEntity
  8
DEFPOINTS
 62
     0
100
AcDbPoint
 10
1821.251752428599
 20
-593.3213112125823
 30
0.0
  0
POINT
  5
62CE
330
6198
100
AcDbEntity
  8
DEFPOINTS
 62
     0
100
AcDbPoint
 10
1798.894058077012
 20
-593.3213112125823
 30
0.0
  0
ENDBLK
  5
61A3
330
6198
100
AcDbEntity
  8
0
100
AcDbBlockEnd
  0
BLOCK
  5
61B0
330
61A4
100
AcDbEntity
  8
0
100
AcDbBlockBegin
  2
*D26
 70
     1
 10
0.0
 20
0.0
 30
0.0
  3
*D26
  1

  0
LINE
  5
6312
330
61A4
100
AcDbEntity
  8
SUNPOU
100
AcDbLine
 10
1675.366686348774
 20
-643.3213112125822
 30
0.0
 11
1686.736433980747
 21
-643.3213112125822
 31
0.0
  0
LINE
  5
6313
330
61A4
100
AcDbEntity
  8
SUNPOU
100
AcDbLine
 10
1663.366686348775
 20
-651.3213112125823
 30
0.0
 11
1686.736433980747
 21
-651.3213112125823
 31
0.0
  0
LINE
  5
6314
330
61A4
100
AcDbEntity
  8
SUNPOU
100
AcDbLine
 10
1683.736433980747
 20
-636.3213112125822
 30
0.0
 11
1683.736433980747
 21
-629.3213112125823
 31
0.0
  0
LINE
  5
6315
330
61A4
100
AcDbEntity
  8
SUNPOU
100
AcDbLine
 10
1683.736433980747
 20
-658.3213112125823
 30
0.0
 11
1683.736433980747
 21
-665.3213112125824
 31
0.0
  0
LINE
  5
6316
330
61A4
100
AcDbEntity
  8
SUNPOU
100
AcDbLine
 10
1683.736433980747
 20
-643.3213112125822
 30
0.0
 11
1683.736433980747
 21
-651.3213112125823
 31
0.0
  0
INSERT
  5
6317
330
61A4
100
AcDbEntity
  8
SUNPOU
100
AcDbBlockReference
  2
_OPEN
 10
1683.736433980747
 20
-643.3213112125822
 30
0.0
 41
7.0
 42
7.0
 43
7.0
 50
270.0
  0
INSERT
  5
6318
330
61A4
100
AcDbEntity
  8
SUNPOU
100
AcDbBlockReference
  2
_OPEN
 10
1683.736433980747
 20
-651.3213112125823
 30
0.0
 41
7.0
 42
7.0
 43
7.0
 50
90.0
  0
MTEXT
  5
6319
330
61A4
100
AcDbEntity
  8
SUNPOU
100
AcDbMText
 10
1678.736433980748
 20
-647.3213112125821
 30
0.0
 40
6.0
 41
0.0
 71
     5
 72
     1
  1
\A1;8
 11
0.0000000000000001
 21
1.0
 31
0.0
1001
ACAD
1000
MTEXTBEGIN
1070
    73
1070
     1
1070
    44
1040
1.0
1070
    74
1070
     0
1000
MTEXTEND
  0
POINT
  5
631A
330
61A4
100
AcDbEntity
  8
DEFPOINTS
 62
     0
100
AcDbPoint
 10
1669.366686348775
 20
-643.3213112125822
 30
0.0
  0
POINT
  5
631B
330
61A4
100
AcDbEntity
  8
DEFPOINTS
 62
     0
100
AcDbPoint
 10
1657.366686348774
 20
-651.3213112125823
 30
0.0
  0
POINT
  5
631C
330
61A4
100
AcDbEntity
  8
DEFPOINTS
 62
     0
100
AcDbPoint
 10
1683.736433980747
 20
-651.3213112125823
 30
0.0
  0
ENDBLK
  5
61B1
330
61A4
100
AcDbEntity
  8
0
100
AcDbBlockEnd
  0
BLOCK
  5
61BC
330
61B2
100
AcDbEntity
  8
0
100
AcDbBlockBegin
  2
*D27
 70
     1
 10
0.0
 20
0.0
 30
0.0
  3
*D27
  1

  0
LINE
  5
631D
330
61B2
100
AcDbEntity
  8
SUNPOU
100
AcDbLine
 10
1668.366686348775
 20
-573.6213112125823
 30
0.0
 11
1701.951644267313
 21
-573.6213112125823
 31
0.0
  0
LINE
  5
631E
330
61B2
100
AcDbEntity
  8
SUNPOU
100
AcDbLine
 10
1663.366686348775
 20
-651.3213112125823
 30
0.0
 11
1701.951644267313
 21
-651.3213112125823
 31
0.0
  0
LINE
  5
631F
330
61B2
100
AcDbEntity
  8
SUNPOU
100
AcDbLine
 10
1698.951644267312
 20
-580.6213112125823
 30
0.0
 11
1698.951644267312
 21
-644.3213112125824
 31
0.0
  0
INSERT
  5
6320
330
61B2
100
AcDbEntity
  8
SUNPOU
100
AcDbBlockReference
  2
_OPEN
 10
1698.951644267312
 20
-573.6213112125823
 30
0.0
 41
7.0
 42
7.0
 43
7.0
 50
90.0
  0
INSERT
  5
6321
330
61B2
100
AcDbEntity
  8
SUNPOU
100
AcDbBlockReference
  2
_OPEN
 10
1698.951644267312
 20
-651.3213112125823
 30
0.0
 41
7.0
 42
7.0
 43
7.0
 50
270.0
  0
MTEXT
  5
6322
330
61B2
100
AcDbEntity
  8
SUNPOU
100
AcDbMText
 10
1693.951644267313
 20
-612.4713112125821
 30
0.0
 40
6.0
 41
0.0
 71
     5
 72
     1
  1
\A1;78
 11
0.0000000000000001
 21
1.0
 31
0.0
1001
ACAD
1000
MTEXTBEGIN
1070
    73
1070
     1
1070
    44
1040
1.0
1070
    74
1070
     0
1000
MTEXTEND
  0
POINT
  5
6323
330
61B2
100
AcDbEntity
  8
DEFPOINTS
 62
     0
100
AcDbPoint
 10
1662.366686348774
 20
-573.6213112125823
 30
0.0
  0
POINT
  5
6324
330
61B2
100
AcDbEntity
  8
DEFPOINTS
 62
     0
100
AcDbPoint
 10
1657.366686348774
 20
-651.3213112125823
 30
0.0
  0
POINT
  5
6325
330
61B2
100
AcDbEntity
  8
DEFPOINTS
 62
     0
100
AcDbPoint
 10
1698.951644267312
 20
-651.3213112125823
 30
0.0
  0
ENDBLK
  5
61BD
330
61B2
100
AcDbEntity
  8
0
100
AcDbBlockEnd
  0
BLOCK
  5
61CA
330
61BE
100
AcDbEntity
  8
0
100
AcDbBlockBegin
  2
*D28
 70
     1
 10
0.0
 20
0.0
 30
0.0
  3
*D28
  1

  0
LINE
  5
6295
330
61BE
100
AcDbEntity
  8
SUNPOU
100
AcDbLine
 10
1662.366686348774
 20
-653.3213112125824
 30
0.0
 11
1662.366686348774
 21
-673.0938011562891
 31
0.0
  0
LINE
  5
6296
330
61BE
100
AcDbEntity
  8
SUNPOU
100
AcDbLine
 10
1655.366686348775
 20
-656.9849220469823
 30
0.0
 11
1655.366686348775
 21
-673.0938011562891
 31
0.0
  0
LINE
  5
6297
330
61BE
100
AcDbEntity
  8
SUNPOU
100
AcDbLine
 10
1669.366686348775
 20
-670.0938011562891
 30
0.0
 11
1676.366686348774
 21
-670.0938011562891
 31
0.0
  0
LINE
  5
6298
330
61BE
100
AcDbEntity
  8
SUNPOU
100
AcDbLine
 10
1648.366686348774
 20
-670.0938011562891
 30
0.0
 11
1633.366686348774
 21
-670.0938011562891
 31
0.0
  0
LINE
  5
6299
330
61BE
100
AcDbEntity
  8
SUNPOU
100
AcDbLine
 10
1662.366686348774
 20
-670.0938011562891
 30
0.0
 11
1655.366686348775
 21
-670.0938011562891
 31
0.0
  0
INSERT
  5
629A
330
61BE
100
AcDbEntity
  8
SUNPOU
100
AcDbBlockReference
  2
_OPEN
 10
1662.366686348774
 20
-670.0938011562891
 30
0.0
 41
7.0
 42
7.0
 43
7.0
 50
180.0
  0
INSERT
  5
629B
330
61BE
100
AcDbEntity
  8
SUNPOU
100
AcDbBlockReference
  2
_OPEN
 10
1655.366686348775
 20
-670.0938011562891
 30
0.0
 41
7.0
 42
7.0
 43
7.0
  0
MTEXT
  5
629C
330
61BE
100
AcDbEntity
  8
SUNPOU
100
AcDbMText
 10
1637.366686348775
 20
-665.0938011562891
 30
0.0
 40
6.0
 41
0.0
 71
     5
 72
     1
  1
\A1;7
1001
ACAD
1000
MTEXTBEGIN
1070
    73
1070
     1
1070
    44
1040
1.0
1070
    74
1070
     0
1000
MTEXTEND
  0
POINT
  5
629D
330
61BE
100
AcDbEntity
  8
DEFPOINTS
 62
     0
100
AcDbPoint
 10
1662.366686348774
 20
-647.3213112125823
 30
0.0
  0
POINT
  5
629E
330
61BE
100
AcDbEntity
  8
DEFPOINTS
 62
     0
100
AcDbPoint
 10
1655.366686348775
 20
-650.9849220469823
 30
0.0
  0
POINT
  5
629F
330
61BE
100
AcDbEntity
  8
DEFPOINTS
 62
     0
100
AcDbPoint
 10
1655.366686348775
 20
-670.0938011562891
 30
0.0
  0
ENDBLK
  5
61CB
330
61BE
100
AcDbEntity
  8
0
100
AcDbBlockEnd
  0
BLOCK
  5
61D6
330
61CC
100
AcDbEntity
  8
0
100
AcDbBlockBegin
  2
*D29
 70
     1
 10
0.0
 20
0.0
 30
0.0
  3
*D29
  1

  0
LINE
  5
6309
330
61CC
100
AcDbEntity
  8
SUNPOU
100
AcDbLine
 10
1668.366686348775
 20
-573.6213112125823
 30
0.0
 11
1686.736433980747
 21
-573.6213112125823
 31
0.0
  0
LINE
  5
630A
330
61CC
100
AcDbEntity
  8
SUNPOU
100
AcDbLine
 10
1675.366686348774
 20
-593.3213112125823
 30
0.0
 11
1686.736433980747
 21
-593.3213112125823
 31
0.0
  0
LINE
  5
630B
330
61CC
100
AcDbEntity
  8
SUNPOU
100
AcDbLine
 10
1683.736433980747
 20
-580.6213112125823
 30
0.0
 11
1683.736433980747
 21
-586.3213112125824
 31
0.0
  0
INSERT
  5
630C
330
61CC
100
AcDbEntity
  8
SUNPOU
100
AcDbBlockReference
  2
_OPEN
 10
1683.736433980747
 20
-573.6213112125823
 30
0.0
 41
7.0
 42
7.0
 43
7.0
 50
90.0
  0
INSERT
  5
630D
330
61CC
100
AcDbEntity
  8
SUNPOU
100
AcDbBlockReference
  2
_OPEN
 10
1683.736433980747
 20
-593.3213112125823
 30
0.0
 41
7.0
 42
7.0
 43
7.0
 50
270.0
  0
MTEXT
  5
630E
330
61CC
100
AcDbEntity
  8
SUNPOU
100
AcDbMText
 10
1678.736433980748
 20
-583.4713112125821
 30
0.0
 40
6.0
 41
0.0
 71
     5
 72
     1
  1
\A1;20
 11
0.0000000000000001
 21
1.0
 31
0.0
1001
ACAD
1000
MTEXTBEGIN
1070
    73
1070
     1
1070
    44
1040
1.0
1070
    74
1070
     0
1000
MTEXTEND
  0
POINT
  5
630F
330
61CC
100
AcDbEntity
  8
DEFPOINTS
 62
     0
100
AcDbPoint
 10
1662.366686348774
 20
-573.6213112125823
 30
0.0
  0
POINT
  5
6310
330
61CC
100
AcDbEntity
  8
DEFPOINTS
 62
     0
100
AcDbPoint
 10
1669.366686348775
 20
-593.3213112125823
 30
0.0
  0
POINT
  5
6311
330
61CC
100
AcDbEntity
  8
DEFPOINTS
 62
     0
100
AcDbPoint
 10
1683.736433980747
 20
-593.3213112125823
 30
0.0
  0
ENDBLK
  5
61D7
330
61CC
100
AcDbEntity
  8
0
100
AcDbBlockEnd
  0
BLOCK
  5
61E2
330
61D8
100
AcDbEntity
  8
0
100
AcDbBlockBegin
  2
*D30
 70
     1
 10
0.0
 20
0.0
 30
0.0
  3
*D30
  1

  0
LINE
  5
6283
330
61D8
100
AcDbEntity
  8
SUNPOU
100
AcDbLine
 10
1518.562914240175
 20
-449.9145643175823
 30
0.0
 11
1495.729440363693
 21
-449.9145643175823
 31
0.0
  0
LINE
  5
6284
330
61D8
100
AcDbEntity
  8
SUNPOU
100
AcDbLine
 10
1517.318449861775
 20
-477.9145643175823
 30
0.0
 11
1495.729440363693
 21
-477.9145643175823
 31
0.0
  0
LINE
  5
6285
330
61D8
100
AcDbEntity
  8
SUNPOU
100
AcDbLine
 10
1498.729440363693
 20
-456.9145643175823
 30
0.0
 11
1498.729440363693
 21
-470.9145643175823
 31
0.0
  0
INSERT
  5
6286
330
61D8
100
AcDbEntity
  8
SUNPOU
100
AcDbBlockReference
  2
_OPEN
 10
1498.729440363693
 20
-449.9145643175823
 30
0.0
 41
7.0
 42
7.0
 43
7.0
 50
90.0
  0
INSERT
  5
6287
330
61D8
100
AcDbEntity
  8
SUNPOU
100
AcDbBlockReference
  2
_OPEN
 10
1498.729440363693
 20
-477.9145643175823
 30
0.0
 41
7.0
 42
7.0
 43
7.0
 50
270.0
  0
MTEXT
  5
6288
330
61D8
100
AcDbEntity
  8
SUNPOU
100
AcDbMText
 10
1493.729440363693
 20
-463.9145643175821
 30
0.0
 40
6.0
 41
0.0
 71
     5
 72
     1
  1
\A1;28
 11
0.0000000000000001
 21
1.0
 31
0.0
1001
ACAD
1000
MTEXTBEGIN
1070
    73
1070
     1
1070
    44
1040
1.0
1070
    74
1070
     0
1000
MTEXTEND
  0
POINT
  5
6289
330
61D8
100
AcDbEntity
  8
DEFPOINTS
 62
     0
100
AcDbPoint
 10
1524.562914240175
 20
-449.9145643175823
 30
0.0
  0
POINT
  5
628A
330
61D8
100
AcDbEntity
  8
DEFPOINTS
 62
     0
100
AcDbPoint
 10
1523.318449861775
 20
-477.9145643175823
 30
0.0
  0
POINT
  5
628B
330
61D8
100
AcDbEntity
  8
DEFPOINTS
 62
     0
100
AcDbPoint
 10
1498.729440363693
 20
-477.9145643175823
 30
0.0
  0
ENDBLK
  5
61E3
330
61D8
100
AcDbEntity
  8
0
100
AcDbBlockEnd
  0
BLOCK
  5
61EE
330
61E4
100
AcDbEntity
  8
0
100
AcDbBlockBegin
  2
*D31
 70
     1
 10
0.0
 20
0.0
 30
0.0
  3
*D31
  1

  0
LINE
  5
6326
330
61E4
100
AcDbEntity
  8
SUNPOU
100
AcDbLine
 10
1668.366686348775
 20
-423.9145643175824
 30
0.0
 11
1701.450930218371
 21
-423.9145643175824
 31
0.0
  0
LINE
  5
6327
330
61E4
100
AcDbEntity
  8
SUNPOU
100
AcDbLine
 10
1668.366686348775
 20
-503.9145643175824
 30
0.0
 11
1701.450930218371
 21
-503.9145643175824
 31
0.0
  0
LINE
  5
6328
330
61E4
100
AcDbEntity
  8
SUNPOU
100
AcDbLine
 10
1698.450930218371
 20
-430.9145643175823
 30
0.0
 11
1698.450930218371
 21
-496.9145643175823
 31
0.0
  0
INSERT
  5
6329
330
61E4
100
AcDbEntity
  8
SUNPOU
100
AcDbBlockReference
  2
_OPEN
 10
1698.450930218371
 20
-423.9145643175824
 30
0.0
 41
7.0
 42
7.0
 43
7.0
 50
90.0
  0
INSERT
  5
632A
330
61E4
100
AcDbEntity
  8
SUNPOU
100
AcDbBlockReference
  2
_OPEN
 10
1698.450930218371
 20
-503.9145643175824
 30
0.0
 41
7.0
 42
7.0
 43
7.0
 50
270.0
  0
MTEXT
  5
632B
330
61E4
100
AcDbEntity
  8
SUNPOU
100
AcDbMText
 10
1693.450930218371
 20
-463.9145643175821
 30
0.0
 40
6.0
 41
0.0
 71
     5
 72
     1
  1
\A1;80
 11
0.0000000000000001
 21
1.0
 31
0.0
1001
ACAD
1000
MTEXTBEGIN
1070
    73
1070
     1
1070
    44
1040
1.0
1070
    74
1070
     0
1000
MTEXTEND
  0
POINT
  5
632C
330
61E4
100
AcDbEntity
  8
DEFPOINTS
 62
     0
100
AcDbPoint
 10
1662.366686348774
 20
-423.9145643175823
 30
0.0
  0
POINT
  5
632D
330
61E4
100
AcDbEntity
  8
DEFPOINTS
 62
     0
100
AcDbPoint
 10
1662.366686348774
 20
-503.9145643175823
 30
0.0
  0
POINT
  5
632E
330
61E4
100
AcDbEntity
  8
DEFPOINTS
 62
     0
100
AcDbPoint
 10
1698.450930218371
 20
-503.9145643175824
 30
0.0
  0
ENDBLK
  5
61EF
330
61E4
100
AcDbEntity
  8
0
100
AcDbBlockEnd
  0
ENDSEC
  0
SECTION
  2
ENTITIES
  0
TEXT
  5
5F3F
330
1A
100
AcDbEntity
  8
SUNPOU
100
AcDbText
 10
1765.867079389179
 20
-544.4892479666878
 30
0.0
 40
6.0
  1
3-φ4.2
100
AcDbText
  0
LWPOLYLINE
  5
5F40
330
1A
100
AcDbEntity
  8
ZUWAKU
100
AcDbPolyline
 90
        4
 70
     1
 43
0.0
 10
1289.47191455992
 20
-300.0094829814336
 10
1289.47191455992
 20
-851.2094829814335
 10
2086.671914559921
 20
-851.2094829814335
 10
2086.671914559921
 20
-300.0094829814336
  0
LWPOLYLINE
  5
5F41
330
1A
100
AcDbEntity
  8
ZUWAKU
100
AcDbPolyline
 90
        4
 70
     1
 43
0.0
 10
1289.87191455992
 20
-300.4094829814334
 10
1289.87191455992
 20
-850.8094829814336
 10
2086.271914559921
 20
-850.8094829814336
 10
2086.27191455992
 20
-300.4094829814334
  0
LWPOLYLINE
  5
5F42
330
1A
100
AcDbEntity
  8
ZUWAKU
100
AcDbPolyline
 90
        4
 70
     1
 43
0.0
 10
1289.27191455992
 20
-299.8094829814336
 10
1289.27191455992
 20
-851.4094829814336
 10
2086.871914559921
 20
-851.4094829814334
 10
2086.871914559921
 20
-299.8094829814334
  0
LWPOLYLINE
  5
5F43
330
1A
100
AcDbEntity
  8
ZUWAKU
100
AcDbPolyline
 90
        4
 70
     1
 43
0.0
 10
1289.67191455992
 20
-300.2094829814336
 10
1289.67191455992
 20
-851.0094829814335
 10
2086.471914559921
 20
-851.0094829814335
 10
2086.471914559921
 20
-300.2094829814336
  0
LWPOLYLINE
  5
5F44
330
1A
100
AcDbEntity
  8
ZUWAKU
100
AcDbPolyline
 90
        4
 70
     1
 43
0.0
 10
1290.07191455992
 20
-300.6094829814336
 10
1290.07191455992
 20
-850.6094829814335
 10
2086.07191455992
 20
-850.6094829814335
 10
2086.07191455992
 20
-300.6094829814336
  0
DIMENSION
  5
5F45
330
1A
100
AcDbEntity
  8
SUNPOU
100
AcDbDimension
  2
*D17
 10
1517.76675262824
 20
-544.9122660014352
 30
0.0
 11
1590.066719488507
 21
-539.9122660014352
 31
0.0
 70
    32
  3
STANDARD
100
AcDbAlignedDimension
 13
1662.366686348774
 23
-573.6213112125823
 33
0.0
 14
1517.76675262824
 24
-580.6012238920732
 34
0.0
100
AcDbRotatedDimension
1001
ACAD
1000
DSTYLE
1002
{
1070
    41
1040
7.0
1070
    42
1040
6.0
1070
    43
1040
14.0
1070
    44
1040
3.0
1070
    73
1070
     0
1070
    74
1070
     0
1070
    77
1070
     3
1070
   140
1040
6.0
1070
   141
1040
150.0
1070
   147
1040
2.0
1070
   172
1070
     1
1070
   173
1070
     1
1070
   176
1070
   256
1070
   177
1070
   256
1070
   178
1070
   256
1070
   271
1070
     0
1070
   272
1070
     0
1070
   341
1005
6D
1070
     6
1000
OPEN
1070
     7
1000
OPEN
1070
   371
1070
    -1
1070
   372
1070
    -1
1002
}
  0
DIMENSION
  5
5F46
330
1A
100
AcDbEntity
  8
SUNPOU
100
AcDbDimension
  2
*D18
 10
1652.574196134174
 20
-557.9214732235302
 30
0.0
 11
1633.074196134174
 21
-552.9214732235302
 31
0.0
 70
    32
  3
STANDARD
100
AcDbAlignedDimension
 13
1662.366686348774
 23
-573.6213112125823
 33
0.0
 14
1652.574196134174
 24
-576.9207167986824
 34
0.0
100
AcDbRotatedDimension
1001
ACAD
1000
DSTYLE
1002
{
1070
    41
1040
7.0
1070
    42
1040
6.0
1070
    43
1040
14.0
1070
    44
1040
3.0
1070
    73
1070
     0
1070
    74
1070
     0
1070
    77
1070
     3
1070
   140
1040
6.0
1070
   141
1040
150.0
1070
   147
1040
2.0
1070
   172
1070
     1
1070
   173
1070
     1
1070
   176
1070
   256
1070
   177
1070
   256
1070
   178
1070
   256
1070
   271
1070
     0
1070
   272
1070
     0
1070
   341
1005
6D
1070
     6
1000
OPEN
1070
     7
1000
OPEN
1070
   371
1070
    -1
1070
   372
1070
    -1
1002
}
  0
DIMENSION
  5
5F47
330
1A
100
AcDbEntity
  8
SUNPOU
100
AcDbDimension
  2
*D19
 10
1899.348852428599
 20
-544.9122660014352
 30
0.0
 11
1859.348852428599
 21
-539.9122660014352
 31
0.0
 70
    32
  3
STANDARD
100
AcDbAlignedDimension
 13
1819.348852428599
 23
-584.6750297403823
 33
0.0
 14
1899.348852428599
 24
-585.2072680510823
 34
0.0
100
AcDbRotatedDimension
1001
ACAD
1000
DSTYLE
1002
{
1070
    41
1040
7.0
1070
    42
1040
6.0
1070
    43
1040
14.0
1070
    44
1040
3.0
1070
    73
1070
     0
1070
    74
1070
     0
1070
    77
1070
     3
1070
   140
1040
6.0
1070
   141
1040
150.0
1070
   147
1040
2.0
1070
   172
1070
     1
1070
   173
1070
     1
1070
   176
1070
   256
1070
   177
1070
   256
1070
   178
1070
   256
1070
   271
1070
     0
1070
   272
1070
     0
1070
   341
1005
6D
1070
     6
1000
OPEN
1070
     7
1000
OPEN
1070
   371
1070
    -1
1070
   372
1070
    -1
1002
}
  0
DIMENSION
  5
5F48
330
1A
100
AcDbEntity
  8
SUNPOU
100
AcDbDimension
  2
*D20
 10
1891.348852428599
 20
-557.9214732235302
 30
0.0
 11
1859.348852428599
 21
-552.9214732235302
 31
0.0
 70
    32
  3
STANDARD
100
AcDbAlignedDimension
 13
1827.348852428599
 23
-587.6696112125822
 33
0.0
 14
1891.348852428599
 24
-587.6696112125822
 34
0.0
100
AcDbRotatedDimension
1001
ACAD
1000
DSTYLE
1002
{
1070
    41
1040
7.0
1070
    42
1040
6.0
1070
    43
1040
14.0
1070
    44
1040
3.0
1070
    73
1070
     0
1070
    74
1070
     0
1070
    77
1070
     3
1070
   140
1040
6.0
1070
   141
1040
150.0
1070
   147
1040
2.0
1070
   172
1070
     1
1070
   173
1070
     1
1070
   176
1070
   256
1070
   177
1070
   256
1070
   178
1070
   256
1070
   271
1070
     0
1070
   272
1070
     0
1070
   341
1005
6D
1070
     6
1000
OPEN
1070
     7
1000
OPEN
1070
   371
1070
    -1
1070
   372
1070
    -1
1002
}
  0
TEXT
  5
5F49
330
1A
100
AcDbEntity
  8
MOJI
100
AcDbText
 10
1529.099117240771
 20
-833.4045619240262
 30
0.0
 40
5.599999999999998
  1
ブラケット正面打（吊）固定式
 41
0.9
  7
ｽﾀｲﾙ1
100
AcDbText
  0
LINE
  5
5F4A
330
1A
100
AcDbEntity
  8
ZUWAKU
100
AcDbLine
 10
1497.918515849988
 20
-836.2094829814335
 30
0.0
 11
1736.696278530912
 21
-836.2094829814335
 31
0.0
  0
LINE
  5
5F4B
330
1A
100
AcDbEntity
  8
ZUWAKU
100
AcDbLine
 10
1497.918515849988
 20
-835.8094829814335
 30
0.0
 11
1736.696278530912
 21
-835.8094829814335
 31
0.0
  0
LINE
  5
5F4C
330
1A
100
AcDbEntity
  8
ZUWAKU
100
AcDbLine
 10
1497.918515849988
 20
-836.0094829814336
 30
0.0
 11
1736.696278530912
 21
-836.0094829814336
 31
0.0
  0
LINE
  5
5F4D
330
1A
100
AcDbEntity
  8
ZUWAKU
100
AcDbLine
 10
1289.27191455992
 20
-820.6094829814334
 30
0.0
 11
2086.671914559921
 21
-820.6094829814334
 31
0.0
  0
LINE
  5
5F4E
330
1A
100
AcDbEntity
  8
ZUWAKU
100
AcDbLine
 10
1289.27191455992
 20
-820.8094829814335
 30
0.0
 11
2086.671914559921
 21
-820.8094829814335
 31
0.0
  0
LINE
  5
5F4F
330
1A
100
AcDbEntity
  8
ZUWAKU
100
AcDbLine
 10
1289.27191455992
 20
-821.0094829814336
 30
0.0
 11
2086.671914559921
 21
-821.0094829814336
 31
0.0
  0
LINE
  5
5F50
330
1A
100
AcDbEntity
  8
ZUWAKU
100
AcDbLine
 10
1289.27191455992
 20
-821.2094829814335
 30
0.0
 11
2086.671914559921
 21
-821.2094829814335
 31
0.0
  0
LINE
  5
5F51
330
1A
100
AcDbEntity
  8
ZUWAKU
100
AcDbLine
 10
1289.27191455992
 20
-821.4094829814335
 30
0.0
 11
2086.671914559921
 21
-821.4094829814335
 31
0.0
  0
DIMENSION
  5
5F52
330
1A
100
AcDbEntity
  8
SUNPOU
100
AcDbDimension
  2
*D21
 10
1498.729440363693
 20
-651.3213112125823
 30
0.0
 11
1493.729440363693
 21
-612.8213112125821
 31
0.0
 70
    32
  3
STANDARD
100
AcDbAlignedDimension
 13
1522.394720060074
 23
-574.3213112125824
 33
0.0
 14
1655.366686348775
 24
-651.3213112125823
 34
0.0
 50
90.0
100
AcDbRotatedDimension
1001
ACAD
1000
DSTYLE
1002
{
1070
    41
1040
7.0
1070
    42
1040
6.0
1070
    43
1040
14.0
1070
    44
1040
3.0
1070
    73
1070
     0
1070
    74
1070
     0
1070
    77
1070
     3
1070
   140
1040
6.0
1070
   141
1040
150.0
1070
   147
1040
2.0
1070
   172
1070
     1
1070
   173
1070
     1
1070
   176
1070
   256
1070
   177
1070
   256
1070
   178
1070
   256
1070
   271
1070
     0
1070
   272
1070
     0
1070
   341
1005
6D
1070
     6
1000
OPEN
1070
     7
1000
OPEN
1070
   371
1070
    -1
1070
   372
1070
    -1
1002
}
  0
ARC
  5
5F53
330
1A
100
AcDbEntity
  8
SEIHIN
100
AcDbCircle
 10
1586.366686348775
 20
-539.6213112125823
 30
0.0
 40
60.0
100
AcDbArc
 50
228.6788462656005
 51
314.674609564404
  0
ARC
  5
5F54
330
1A
100
AcDbEntity
  8
SEIHIN
100
AcDbCircle
 10
1617.866686348774
 20
-506.6213112125823
 30
0.0
 40
116.5
100
AcDbArc
 50
225.0204654645016
 51
269.9999985406015
  0
ARC
  5
5F55
330
1A
100
AcDbEntity
  8
SEIHIN
100
AcDbCircle
 10
1617.866686348774
 20
-506.6213112125823
 30
0.0
 40
120.0
100
AcDbArc
 50
224.8321080704016
 51
269.9999985406015
  0
ARC
  5
5F56
330
1A
100
AcDbEntity
  8
SEIHIN
100
AcDbCircle
 10
1586.366686348775
 20
-539.6213112125823
 30
0.0
 40
63.5
100
AcDbArc
 50
231.7238242139026
 51
314.674609564404
  0
LINE
  5
5F57
330
1A
100
AcDbEntity
  8
ZUWAKU
100
AcDbLine
 10
1337.664126714702
 20
-828.1594829814336
 30
0.0
 11
1341.164126714702
 21
-828.1594829814336
 31
0.0
  0
LINE
  5
5F58
330
1A
100
AcDbEntity
  8
ZUWAKU
100
AcDbLine
 10
1341.164126714702
 20
-830.9594829814335
 30
0.0
 11
1338.189126714701
 21
-830.9594829814335
 31
0.0
  0
LINE
  5
5F59
330
1A
100
AcDbEntity
  8
ZUWAKU
100
AcDbLine
 10
1340.983975195685
 20
-836.6744324750948
 30
0.0
 11
1338.07417722104
 21
-833.76463450045
 31
0.0
  0
ARC
  5
5F5A
330
1A
100
AcDbEntity
  8
ZUWAKU
100
AcDbCircle
 10
1339.414126714702
 20
-841.4594829814335
 30
0.0
 40
2.799999999999998
100
AcDbArc
 50
270.0
 51
0.0
  0
HATCH
  5
5F5B
330
1A
100
AcDbEntity
  8
ZUWAKU
100
AcDbHatch
 10
0.0
 20
0.0
 30
0.0
210
0.0
220
0.0
230
1.0
  2
ANSI37
 70
     0
 71
     0
 91
        8
 92
        7
 72
     1
 73
     1
 93
       24
 10
1303.77417722104
 20
-833.76463450045
 42
-0.1989123673796348
 10
1303.364126714702
 20
-832.7746850067891
 42
0.0
 10
1303.364126714702
 20
-831.4844829814337
 42
-0.4142135623730912
 10
1303.889126714701
 20
-830.9594829814335
 42
0.0
 10
1306.864126714701
 20
-830.9594829814335
 42
0.4142135623731546
 10
1307.389126714701
 20
-830.4344829814336
 42
0.0
 10
1307.389126714701
 20
-828.6844829814336
 42
0.4142135623731586
 10
1306.864126714701
 20
-828.1594829814336
 42
0.0
 10
1303.364126714702
 20
-828.1594829814336
 42
0.4142135623730928
 10
1300.564126714701
 20
-830.9594829814335
 42
0.0
 10
1300.564126714701
 20
-832.7746850067887
 42
0.1989123673796619
 10
1301.794278233718
 20
-835.7445334877724
 42
0.0
 10
1304.704076208363
 20
-838.6543314624171
 42
-0.1989123673796613
 10
1305.114126714701
 20
-839.6442809560783
 42
0.0
 10
1305.114126714701
 20
-840.9344829814335
 42
-0.4142135623730911
 10
1304.589126714702
 20
-841.4594829814335
 42
0.0
 10
1301.614126714702
 20
-841.4594829814335
 42
0.4142135623731526
 10
1301.089126714702
 20
-841.9844829814335
 42
0.0
 10
1301.089126714702
 20
-843.7344829814335
 42
0.4142135623731526
 10
1301.614126714702
 20
-844.2594829814336
 42
0.0
 10
1305.114126714701
 20
-844.2594829814336
 42
0.4142135623731045
 10
1307.914126714702
 20
-841.4594829814337
 42
0.0
 10
1307.914126714702
 20
-839.6442809560783
 42
0.1989123673796604
 10
1306.683975195685
 20
-836.6744324750948
 42
0.0
 97
        0
 92
        7
 72
     1
 73
     1
 93
       16
 10
1312.814126714701
 20
-832.3594829814336
 42
-0.4142135623730935
 10
1314.214126714702
 20
-830.9594829814335
 42
0.0
 10
1316.139126714702
 20
-830.9594829814335
 42
0.4142135623731546
 10
1316.664126714702
 20
-830.4344829814336
 42
0.0
 10
1316.664126714702
 20
-828.6844829814336
 42
0.4142135623730951
 10
1316.139126714702
 20
-828.1594829814336
 42
0.0
 10
1314.214126714701
 20
-828.1594829814336
 42
0.4142135623730893
 10
1310.014126714702
 20
-832.3594829814336
 42
0.0
 10
1310.014126714702
 20
-840.0594829814336
 42
0.4142135623730969
 10
1314.214126714702
 20
-844.2594829814336
 42
0.0
 10
1316.139126714702
 20
-844.2594829814336
 42
0.4142135623731526
 10
1316.664126714702
 20
-843.7344829814335
 42
0.0
 10
1316.664126714702
 20
-841.9844829814335
 42
0.4142135623730891
 10
1316.139126714702
 20
-841.4594829814335
 42
0.0
 10
1314.214126714702
 20
-841.4594829814335
 42
-0.4142135623730928
 10
1312.814126714701
 20
-840.0594829814336
 42
0.0
 97
        0
 92
        7
 72
     1
 73
     1
 93
        2
 10
1313.514126714702
 20
-836.2094829814335
 42
1.0
 10
1317.014126714701
 20
-836.2094829814335
 42
1.0
 97
        0
 92
        7
 72
     1
 73
     1
 93
       26
 10
1326.586773196879
 20
-832.20443578787
 42
0.0
 10
1327.648412830018
 20
-828.8425769496006
 42
0.5069206636600134
 10
1327.147781930822
 20
-828.1594829814336
 42
0.0
 10
1325.448892551213
 20
-828.1594829814336
 42
0.3272098845218764
 10
1324.948261652017
 20
-828.5263890132666
 42
0.0
 10
1323.079991777386
 20
-834.4425769496005
 42
-0.3272098845219541
 10
1322.57936087819
 20
-834.8094829814336
 42
0.0
 10
1322.439126714702
 20
-834.8094829814336
 42
-0.4142135623731526
 10
1321.914126714702
 20
-834.2844829814335
 42
0.0
 10
1321.914126714702
 20
-828.6844829814336
 42
0.4142135623730951
 10
1321.389126714701
 20
-828.1594829814336
 42
0.0
 10
1319.639126714702
 20
-828.1594829814336
 42
0.4142135623730871
 10
1319.114126714701
 20
-828.6844829814336
 42
0.0
 10
1319.114126714701
 20
-843.7344829814335
 42
0.4142135623730891
 10
1319.639126714702
 20
-844.2594829814336
 42
0.0
 10
1321.389126714701
 20
-844.2594829814336
 42
0.4142135623731526
 10
1321.914126714702
 20
-843.7344829814335
 42
0.0
 10
1321.914126714702
 20
-838.1344829814336
 42
-0.4142135623731526
 10
1322.439126714702
 20
-837.6094829814336
 42
0.0
 10
1322.57936087819
 20
-837.6094829814336
 42
-0.3272098845218915
 10
1323.079991777386
 20
-837.9763890132666
 42
0.0
 10
1324.948261652017
 20
-843.8925769496005
 42
0.3272098845218902
 10
1325.448892551213
 20
-844.2594829814336
 42
0.0
 10
1327.147781930822
 20
-844.2594829814336
 42
0.5069206636600336
 10
1327.648412830018
 20
-843.5763890132665
 42
0.0
 10
1325.322021451544
 20
-836.2094829814335
 42
0.0
 97
        0
 92
        7
 72
     1
 73
     1
 93
        8
 10
1332.764126714701
 20
-828.6844829814336
 42
0.4142135623731546
 10
1332.239126714702
 20
-828.1594829814336
 42
0.0
 10
1330.489126714702
 20
-828.1594829814336
 42
0.4142135623731507
 10
1329.964126714702
 20
-828.6844829814336
 42
0.0
 10
1329.964126714702
 20
-843.7344829814335
 42
0.4142135623731526
 10
1330.489126714702
 20
-844.2594829814336
 42
0.0
 10
1332.239126714702
 20
-844.2594829814336
 42
0.4142135623731526
 10
1332.764126714701
 20
-843.7344829814335
 42
0.0
 97
        0
 92
        7
 72
     1
 73
     1
 93
       24
 10
1337.664126714702
 20
-831.4844829814337
 42
-0.4142135623731546
 10
1338.189126714702
 20
-830.9594829814335
 42
0.0
 10
1341.164126714702
 20
-830.9594829814335
 42
0.4142135623730911
 10
1341.689126714701
 20
-830.4344829814336
 42
0.0
 10
1341.689126714701
 20
-828.6844829814336
 42
0.4142135623730952
 10
1341.164126714702
 20
-828.1594829814336
 42
0.0
 10
1337.664126714702
 20
-828.1594829814336
 42
0.4142135623731048
 10
1334.864126714701
 20
-830.9594829814335
 42
0.0
 10
1334.864126714701
 20
-832.7746850067887
 42
0.1989123673796613
 10
1336.094278233718
 20
-835.7445334877724
 42
0.0
 10
1339.004076208363
 20
-838.6543314624171
 42
-0.1989123673796402
 10
1339.414126714702
 20
-839.6442809560781
 42
0.0
 10
1339.414126714702
 20
-840.9344829814335
 42
-0.4142135623730911
 10
1338.889126714701
 20
-841.4594829814335
 42
0.0
 10
1335.914126714702
 20
-841.4594829814335
 42
0.4142135623731526
 10
1335.389126714702
 20
-841.9844829814335
 42
0.0
 10
1335.389126714702
 20
-843.7344829814335
 42
0.4142135623730891
 10
1335.914126714702
 20
-844.2594829814336
 42
0.0
 10
1339.414126714702
 20
-844.2594829814336
 42
0.4142135623730925
 10
1342.214126714702
 20
-841.4594829814337
 42
0.0
 10
1342.214126714702
 20
-839.6442809560783
 42
0.1989123673796675
 10
1340.983975195685
 20
-836.6744324750946
 42
0.0
 10
1338.07417722104
 20
-833.76463450045
 42
-0.1989123673796652
 10
1337.664126714702
 20
-832.7746850067891
 42
0.0
 97
        0
 92
        7
 72
     1
 73
     1
 93
       16
 10
1347.114126714701
 20
-828.6844829814336
 42
0.414213562373103
 10
1346.589126714702
 20
-828.1594829814336
 42
0.0
 10
1344.839126714702
 20
-828.1594829814336
 42
0.4142135623730871
 10
1344.314126714701
 20
-828.6844829814336
 42
0.0
 10
1344.314126714701
 20
-841.4594829814337
 42
0.4142135623730927
 10
1347.114126714701
 20
-844.2594829814336
 42
0.0
 10
1350.614126714702
 20
-844.2594829814336
 42
0.4142135623731045
 10
1353.414126714702
 20
-841.4594829814337
 42
0.0
 10
1353.414126714702
 20
-828.6844829814336
 42
0.4142135623730951
 10
1352.889126714702
 20
-828.1594829814336
 42
0.0
 10
1351.139126714701
 20
-828.1594829814336
 42
0.4142135623730871
 10
1350.614126714702
 20
-828.6844829814336
 42
0.0
 10
1350.614126714702
 20
-840.4094829814336
 42
-0.4142135623730879
 10
1349.564126714701
 20
-841.4594829814335
 42
0.0
 10
1348.164126714702
 20
-841.4594829814335
 42
-0.4142135623731197
 10
1347.114126714701
 20
-840.4094829814336
 42
0.0
 97
        0
 92
        7
 72
     1
 73
     1
 93
        8
 10
1358.314126714702
 20
-828.6844829814336
 42
0.4142135623730871
 10
1357.789126714702
 20
-828.1594829814336
 42
0.0
 10
1356.039126714702
 20
-828.1594829814336
 42
0.4142135623731507
 10
1355.514126714702
 20
-828.6844829814336
 42
0.0
 10
1355.514126714702
 20
-843.7344829814335
 42
0.4142135623730891
 10
1356.039126714702
 20
-844.2594829814336
 42
0.0
 10
1357.789126714702
 20
-844.2594829814336
 42
0.4142135623730891
 10
1358.314126714702
 20
-843.7344829814335
 42
0.0
 97
        0
 75
     0
 76
     1
 52
0.0
 41
0.2
 77
     0
 78
     2
 53
45.0
 43
388.3296102252417
 44
-864.6094829814336
 45
-0.4490128060534576
 46
0.4490128060534577
 79
     0
 53
135.0
 43
388.3296102252417
 44
-864.6094829814336
 45
-0.4490128060534577
 46
-0.4490128060534576
 79
     0
 47
0.057451373970553
 98
        8
 10
1305.351769522944
 20
-836.2423093355481
 10
1311.67642956636
 20
-832.5654207989826
 10
1314.43628244558
 20
-835.8976013353629
 10
1320.185974541558
 20
-835.208185334992
 10
1331.110386578877
 20
-834.7485730674504
 10
1336.17011545505
 20
-831.9909066650264
 10
1345.829600532321
 20
-832.6803250663385
 10
1357.098994179543
 20
-832.2207127987969
  0
LINE
  5
5F5C
330
1A
100
AcDbEntity
  8
ZUWAKU
100
AcDbLine
 10
1337.664126714702
 20
-831.4844829814337
 30
0.0
 11
1337.664126714702
 21
-832.7746850067889
 31
0.0
  0
LINE
  5
5F5D
330
1A
100
AcDbEntity
  8
ZUWAKU
100
AcDbLine
 10
1334.864126714701
 20
-830.9594829814335
 30
0.0
 11
1334.864126714701
 21
-832.7746850067889
 31
0.0
  0
LINE
  5
5F5E
330
1A
100
AcDbEntity
  8
ZUWAKU
100
AcDbLine
 10
1326.586773196879
 20
-832.20443578787
 30
0.0
 11
1325.322021451544
 21
-836.2094829814335
 31
0.0
  0
LINE
  5
5F5F
330
1A
100
AcDbEntity
  8
ZUWAKU
100
AcDbLine
 10
1329.964126714702
 20
-828.6844829814336
 30
0.0
 11
1329.964126714702
 21
-843.7344829814335
 31
0.0
  0
LINE
  5
5F60
330
1A
100
AcDbEntity
  8
ZUWAKU
100
AcDbLine
 10
1332.764126714701
 20
-843.7344829814335
 30
0.0
 11
1332.764126714701
 21
-828.6844829814336
 31
0.0
  0
LINE
  5
5F61
330
1A
100
AcDbEntity
  8
ZUWAKU
100
AcDbLine
 10
1321.914126714702
 20
-834.2844829814335
 30
0.0
 11
1321.914126714702
 21
-828.6844829814336
 31
0.0
  0
LINE
  5
5F62
330
1A
100
AcDbEntity
  8
ZUWAKU
100
AcDbLine
 10
1319.114126714701
 20
-828.6844829814336
 30
0.0
 11
1319.114126714701
 21
-843.7344829814335
 31
0.0
  0
LINE
  5
5F63
330
1A
100
AcDbEntity
  8
ZUWAKU
100
AcDbLine
 10
1324.948261652017
 20
-828.5263890132666
 30
0.0
 11
1323.079991777386
 21
-834.4425769496005
 31
0.0
  0
ARC
  5
5F64
330
1A
100
AcDbEntity
  8
ZUWAKU
100
AcDbCircle
 10
1314.214126714702
 20
-832.3594829814336
 30
0.0
 40
1.399999999999999
100
AcDbArc
 50
90.0
 51
180.0
  0
ARC
  5
5F65
330
1A
100
AcDbEntity
  8
ZUWAKU
100
AcDbCircle
 10
1314.214126714702
 20
-832.3594829814336
 30
0.0
 40
4.199999999999998
100
AcDbArc
 50
90.0
 51
180.0
  0
LINE
  5
5F66
330
1A
100
AcDbEntity
  8
ZUWAKU
100
AcDbLine
 10
1303.364126714702
 20
-831.4844829814337
 30
0.0
 11
1303.364126714702
 21
-832.7746850067889
 31
0.0
  0
LINE
  5
5F67
330
1A
100
AcDbEntity
  8
ZUWAKU
100
AcDbLine
 10
1300.564126714701
 20
-830.9594829814335
 30
0.0
 11
1300.564126714701
 21
-832.7746850067889
 31
0.0
  0
ARC
  5
5F68
330
1A
100
AcDbEntity
  8
ZUWAKU
100
AcDbCircle
 10
1305.114126714701
 20
-841.4594829814335
 30
0.0
 40
2.799999999999998
100
AcDbArc
 50
270.0
 51
0.0
  0
ARC
  5
5F69
330
1A
100
AcDbEntity
  8
ZUWAKU
100
AcDbCircle
 10
1301.614126714701
 20
-843.7344829814335
 30
0.0
 40
0.525
100
AcDbArc
 50
180.0
 51
270.0
  0
LINE
  5
5F6A
330
1A
100
AcDbEntity
  8
ZUWAKU
100
AcDbLine
 10
1301.614126714701
 20
-844.2594829814336
 30
0.0
 11
1305.114126714701
 21
-844.2594829814336
 31
0.0
  0
LINE
  5
5F6B
330
1A
100
AcDbEntity
  8
ZUWAKU
100
AcDbLine
 10
1307.914126714702
 20
-841.4594829814335
 30
0.0
 11
1307.914126714702
 21
-839.6442809560781
 31
0.0
  0
LINE
  5
5F6C
330
1A
100
AcDbEntity
  8
ZUWAKU
100
AcDbLine
 10
1306.683975195685
 20
-836.6744324750948
 30
0.0
 11
1303.77417722104
 21
-833.76463450045
 31
0.0
  0
LINE
  5
5F6D
330
1A
100
AcDbEntity
  8
ZUWAKU
100
AcDbLine
 10
1305.114126714701
 20
-840.9344829814335
 30
0.0
 11
1305.114126714701
 21
-839.6442809560781
 31
0.0
  0
ARC
  5
5F6E
330
1A
100
AcDbEntity
  8
ZUWAKU
100
AcDbCircle
 10
1304.589126714702
 20
-840.9344829814335
 30
0.0
 40
0.525
100
AcDbArc
 50
270.0
 51
0.0
  0
ARC
  5
5F6F
330
1A
100
AcDbEntity
  8
ZUWAKU
100
AcDbCircle
 10
1303.714126714702
 20
-839.6442809560781
 30
0.0
 40
1.399999999999999
100
AcDbArc
 50
0.0
 51
45.0000000000046
  0
LINE
  5
5F70
330
1A
100
AcDbEntity
  8
ZUWAKU
100
AcDbLine
 10
1301.089126714702
 20
-843.7344829814335
 30
0.0
 11
1301.089126714702
 21
-841.9844829814335
 31
0.0
  0
ARC
  5
5F71
330
1A
100
AcDbEntity
  8
ZUWAKU
100
AcDbCircle
 10
1301.614126714701
 20
-841.9844829814335
 30
0.0
 40
0.525
100
AcDbArc
 50
90.0
 51
180.0
  0
LINE
  5
5F72
330
1A
100
AcDbEntity
  8
ZUWAKU
100
AcDbLine
 10
1301.614126714701
 20
-841.4594829814335
 30
0.0
 11
1304.589126714702
 21
-841.4594829814335
 31
0.0
  0
LINE
  5
5F73
330
1A
100
AcDbEntity
  8
ZUWAKU
100
AcDbLine
 10
1301.794278233718
 20
-835.7445334877724
 30
0.0
 11
1304.704076208363
 21
-838.6543314624171
 31
0.0
  0
ARC
  5
5F74
330
1A
100
AcDbEntity
  8
ZUWAKU
100
AcDbCircle
 10
1303.714126714702
 20
-839.6442809560783
 30
0.0
 40
4.199999999999998
100
AcDbArc
 50
0.0
 51
45.0000000000046
  0
ARC
  5
5F75
330
1A
100
AcDbEntity
  8
ZUWAKU
100
AcDbCircle
 10
1304.764126714702
 20
-832.7746850067889
 30
0.0
 40
1.399999999999999
100
AcDbArc
 50
180.0
 51
224.9999999999953
  0
ARC
  5
5F76
330
1A
100
AcDbEntity
  8
ZUWAKU
100
AcDbCircle
 10
1304.764126714702
 20
-832.7746850067889
 30
0.0
 40
4.199999999999998
100
AcDbArc
 50
180.0
 51
225.0000000000046
  0
ARC
  5
5F77
330
1A
100
AcDbEntity
  8
ZUWAKU
100
AcDbCircle
 10
1335.914126714702
 20
-843.7344829814335
 30
0.0
 40
0.525
100
AcDbArc
 50
180.0
 51
270.0
  0
ARC
  5
5F78
330
1A
100
AcDbEntity
  8
ZUWAKU
100
AcDbCircle
 10
1332.239126714702
 20
-843.7344829814335
 30
0.0
 40
0.525
100
AcDbArc
 50
270.0
 51
0.0
  0
ARC
  5
5F79
330
1A
100
AcDbEntity
  8
ZUWAKU
100
AcDbCircle
 10
1330.489126714701
 20
-843.7344829814335
 30
0.0
 40
0.525
100
AcDbArc
 50
180.0
 51
270.0
  0
ARC
  5
5F7A
330
1A
100
AcDbEntity
  8
ZUWAKU
100
AcDbCircle
 10
1327.147781930822
 20
-843.7344829814335
 30
0.0
 40
0.525
100
AcDbArc
 50
270.0
 51
17.52556837372188
  0
ARC
  5
5F7B
330
1A
100
AcDbEntity
  8
ZUWAKU
100
AcDbCircle
 10
1325.448892551213
 20
-843.7344829814335
 30
0.0
 40
0.525
100
AcDbArc
 50
197.5255683737218
 51
270.0
  0
ARC
  5
5F7C
330
1A
100
AcDbEntity
  8
ZUWAKU
100
AcDbCircle
 10
1321.389126714701
 20
-843.7344829814335
 30
0.0
 40
0.525
100
AcDbArc
 50
270.0
 51
0.0
  0
ARC
  5
5F7D
330
1A
100
AcDbEntity
  8
ZUWAKU
100
AcDbCircle
 10
1316.139126714702
 20
-843.7344829814335
 30
0.0
 40
0.525
100
AcDbArc
 50
270.0
 51
0.0
  0
ARC
  5
5F7E
330
1A
100
AcDbEntity
  8
ZUWAKU
100
AcDbCircle
 10
1319.639126714702
 20
-843.7344829814335
 30
0.0
 40
0.525
100
AcDbArc
 50
180.0
 51
270.0
  0
ARC
  5
5F7F
330
1A
100
AcDbEntity
  8
ZUWAKU
100
AcDbCircle
 10
1314.214126714702
 20
-840.0594829814336
 30
0.0
 40
4.199999999999998
100
AcDbArc
 50
180.0
 51
270.0
  0
LINE
  5
5F80
330
1A
100
AcDbEntity
  8
ZUWAKU
100
AcDbLine
 10
1319.639126714702
 20
-844.2594829814336
 30
0.0
 11
1321.389126714701
 21
-844.2594829814336
 31
0.0
  0
LINE
  5
5F81
330
1A
100
AcDbEntity
  8
ZUWAKU
100
AcDbLine
 10
1316.139126714702
 20
-844.2594829814336
 30
0.0
 11
1314.214126714702
 21
-844.2594829814336
 31
0.0
  0
LINE
  5
5F82
330
1A
100
AcDbEntity
  8
ZUWAKU
100
AcDbLine
 10
1335.914126714702
 20
-844.2594829814336
 30
0.0
 11
1339.414126714702
 21
-844.2594829814336
 31
0.0
  0
LINE
  5
5F83
330
1A
100
AcDbEntity
  8
ZUWAKU
100
AcDbLine
 10
1325.448892551213
 20
-844.2594829814336
 30
0.0
 11
1327.147781930822
 21
-844.2594829814336
 31
0.0
  0
LINE
  5
5F84
330
1A
100
AcDbEntity
  8
ZUWAKU
100
AcDbLine
 10
1330.489126714701
 20
-844.2594829814336
 30
0.0
 11
1332.239126714702
 21
-844.2594829814336
 31
0.0
  0
LINE
  5
5F85
330
1A
100
AcDbEntity
  8
ZUWAKU
100
AcDbLine
 10
1324.948261652017
 20
-843.8925769496005
 30
0.0
 11
1323.079991777386
 21
-837.9763890132666
 31
0.0
  0
ARC
  5
5F86
330
1A
100
AcDbEntity
  8
ZUWAKU
100
AcDbCircle
 10
1322.57936087819
 20
-834.2844829814335
 30
0.0
 40
0.525
100
AcDbArc
 50
270.0
 51
342.474431626278
  0
LINE
  5
5F87
330
1A
100
AcDbEntity
  8
ZUWAKU
100
AcDbLine
 10
1322.57936087819
 20
-834.8094829814336
 30
0.0
 11
1322.439126714701
 21
-834.8094829814336
 31
0.0
  0
LINE
  5
5F88
330
1A
100
AcDbEntity
  8
ZUWAKU
100
AcDbLine
 10
1322.439126714701
 20
-837.6094829814336
 30
0.0
 11
1322.57936087819
 21
-837.6094829814336
 31
0.0
  0
ARC
  5
5F89
330
1A
100
AcDbEntity
  8
ZUWAKU
100
AcDbCircle
 10
1322.439126714701
 20
-834.2844829814335
 30
0.0
 40
0.525
100
AcDbArc
 50
180.0
 51
270.0
  0
LINE
  5
5F8A
330
1A
100
AcDbEntity
  8
ZUWAKU
100
AcDbLine
 10
1321.914126714702
 20
-843.7344829814335
 30
0.0
 11
1321.914126714702
 21
-838.1344829814336
 31
0.0
  0
LINE
  5
5F8B
330
1A
100
AcDbEntity
  8
ZUWAKU
100
AcDbLine
 10
1316.664126714702
 20
-841.9844829814335
 30
0.0
 11
1316.664126714702
 21
-843.7344829814335
 31
0.0
  0
ARC
  5
5F8C
330
1A
100
AcDbEntity
  8
ZUWAKU
100
AcDbCircle
 10
1316.139126714702
 20
-841.9844829814335
 30
0.0
 40
0.525
100
AcDbArc
 50
0.0
 51
90.0
  0
ARC
  5
5F8D
330
1A
100
AcDbEntity
  8
ZUWAKU
100
AcDbCircle
 10
1322.57936087819
 20
-838.1344829814336
 30
0.0
 40
0.525
100
AcDbArc
 50
17.52556837372188
 51
90.0
  0
ARC
  5
5F8E
330
1A
100
AcDbEntity
  8
ZUWAKU
100
AcDbCircle
 10
1322.439126714701
 20
-838.1344829814336
 30
0.0
 40
0.525
100
AcDbArc
 50
90.0
 51
180.0
  0
ARC
  5
5F8F
330
1A
100
AcDbEntity
  8
ZUWAKU
100
AcDbCircle
 10
1314.214126714702
 20
-840.0594829814336
 30
0.0
 40
1.399999999999999
100
AcDbArc
 50
180.0
 51
270.0
  0
LINE
  5
5F90
330
1A
100
AcDbEntity
  8
ZUWAKU
100
AcDbLine
 10
1312.814126714701
 20
-832.3594829814336
 30
0.0
 11
1312.814126714701
 21
-840.0594829814336
 31
0.0
  0
LINE
  5
5F91
330
1A
100
AcDbEntity
  8
ZUWAKU
100
AcDbLine
 10
1310.014126714702
 20
-840.0594829814336
 30
0.0
 11
1310.014126714702
 21
-832.3594829814336
 31
0.0
  0
LINE
  5
5F92
330
1A
100
AcDbEntity
  8
ZUWAKU
100
AcDbLine
 10
1314.214126714702
 20
-841.4594829814335
 30
0.0
 11
1316.139126714702
 21
-841.4594829814335
 31
0.0
  0
CIRCLE
  5
5F93
330
1A
100
AcDbEntity
  8
ZUWAKU
100
AcDbCircle
 10
1315.264126714701
 20
-836.2094829814335
 30
0.0
 40
1.75
  0
LINE
  5
5F94
330
1A
100
AcDbEntity
  8
ZUWAKU
100
AcDbLine
 10
1339.414126714702
 20
-840.9344829814335
 30
0.0
 11
1339.414126714702
 21
-839.6442809560781
 31
0.0
  0
ARC
  5
5F95
330
1A
100
AcDbEntity
  8
ZUWAKU
100
AcDbCircle
 10
1338.014126714702
 20
-839.6442809560781
 30
0.0
 40
1.399999999999999
100
AcDbArc
 50
0.0
 51
45.0000000000046
  0
ARC
  5
5F96
330
1A
100
AcDbEntity
  8
ZUWAKU
100
AcDbCircle
 10
1338.889126714701
 20
-840.9344829814335
 30
0.0
 40
0.525
100
AcDbArc
 50
270.0
 51
0.0
  0
LINE
  5
5F97
330
1A
100
AcDbEntity
  8
ZUWAKU
100
AcDbLine
 10
1335.389126714702
 20
-843.7344829814335
 30
0.0
 11
1335.389126714702
 21
-841.9844829814335
 31
0.0
  0
ARC
  5
5F98
330
1A
100
AcDbEntity
  8
ZUWAKU
100
AcDbCircle
 10
1335.914126714702
 20
-841.9844829814335
 30
0.0
 40
0.525
100
AcDbArc
 50
90.0
 51
180.0
  0
LINE
  5
5F99
330
1A
100
AcDbEntity
  8
ZUWAKU
100
AcDbLine
 10
1335.914126714702
 20
-841.4594829814335
 30
0.0
 11
1338.889126714701
 21
-841.4594829814335
 31
0.0
  0
LINE
  5
5F9A
330
1A
100
AcDbEntity
  8
ZUWAKU
100
AcDbLine
 10
1336.094278233718
 20
-835.7445334877724
 30
0.0
 11
1339.004076208363
 21
-838.6543314624171
 31
0.0
  0
LINE
  5
5F9B
330
1A
100
AcDbEntity
  8
ZUWAKU
100
AcDbLine
 10
1327.648412830018
 20
-843.5763890132665
 30
0.0
 11
1325.322021451544
 21
-836.2094829814335
 31
0.0
  0
ARC
  5
5F9C
330
1A
100
AcDbEntity
  8
ZUWAKU
100
AcDbCircle
 10
1339.064126714701
 20
-832.7746850067889
 30
0.0
 40
1.399999999999999
100
AcDbArc
 50
180.0
 51
224.9999999999953
  0
ARC
  5
5F9D
330
1A
100
AcDbEntity
  8
ZUWAKU
100
AcDbCircle
 10
1339.064126714701
 20
-832.7746850067889
 30
0.0
 40
4.199999999999998
100
AcDbArc
 50
180.0
 51
225.0000000000046
  0
LINE
  5
5F9E
330
1A
100
AcDbEntity
  8
ZUWAKU
100
AcDbLine
 10
1307.389126714701
 20
-828.6844829814336
 30
0.0
 11
1307.389126714701
 21
-830.4344829814336
 31
0.0
  0
LINE
  5
5F9F
330
1A
100
AcDbEntity
  8
ZUWAKU
100
AcDbLine
 10
1303.364126714702
 20
-828.1594829814336
 30
0.0
 11
1306.864126714701
 21
-828.1594829814336
 31
0.0
  0
ARC
  5
5FA0
330
1A
100
AcDbEntity
  8
ZUWAKU
100
AcDbCircle
 10
1303.889126714701
 20
-831.4844829814337
 30
0.0
 40
0.525
100
AcDbArc
 50
90.0
 51
180.0
  0
LINE
  5
5FA1
330
1A
100
AcDbEntity
  8
ZUWAKU
100
AcDbLine
 10
1306.864126714701
 20
-830.9594829814335
 30
0.0
 11
1303.889126714701
 21
-830.9594829814335
 31
0.0
  0
ARC
  5
5FA2
330
1A
100
AcDbEntity
  8
ZUWAKU
100
AcDbCircle
 10
1303.364126714702
 20
-830.9594829814335
 30
0.0
 40
2.799999999999998
100
AcDbArc
 50
90.0
 51
180.0
  0
ARC
  5
5FA3
330
1A
100
AcDbEntity
  8
ZUWAKU
100
AcDbCircle
 10
1306.864126714701
 20
-828.6844829814336
 30
0.0
 40
0.525
100
AcDbArc
 50
0.0
 51
90.0
  0
ARC
  5
5FA4
330
1A
100
AcDbEntity
  8
ZUWAKU
100
AcDbCircle
 10
1306.864126714701
 20
-830.4344829814336
 30
0.0
 40
0.525
100
AcDbArc
 50
270.0
 51
0.0
  0
ARC
  5
5FA5
330
1A
100
AcDbEntity
  8
ZUWAKU
100
AcDbCircle
 10
1321.389126714701
 20
-828.6844829814336
 30
0.0
 40
0.525
100
AcDbArc
 50
0.0
 51
90.0
  0
LINE
  5
5FA6
330
1A
100
AcDbEntity
  8
ZUWAKU
100
AcDbLine
 10
1321.389126714701
 20
-828.1594829814336
 30
0.0
 11
1319.639126714702
 21
-828.1594829814336
 31
0.0
  0
ARC
  5
5FA7
330
1A
100
AcDbEntity
  8
ZUWAKU
100
AcDbCircle
 10
1316.139126714702
 20
-828.6844829814336
 30
0.0
 40
0.525
100
AcDbArc
 50
0.0
 51
90.0
  0
ARC
  5
5FA8
330
1A
100
AcDbEntity
  8
ZUWAKU
100
AcDbCircle
 10
1319.639126714702
 20
-828.6844829814336
 30
0.0
 40
0.525
100
AcDbArc
 50
90.0
 51
180.0
  0
ARC
  5
5FA9
330
1A
100
AcDbEntity
  8
ZUWAKU
100
AcDbCircle
 10
1316.139126714702
 20
-830.4344829814336
 30
0.0
 40
0.525
100
AcDbArc
 50
270.0
 51
0.0
  0
LINE
  5
5FAA
330
1A
100
AcDbEntity
  8
ZUWAKU
100
AcDbLine
 10
1316.664126714702
 20
-828.6844829814336
 30
0.0
 11
1316.664126714702
 21
-830.4344829814336
 31
0.0
  0
LINE
  5
5FAB
330
1A
100
AcDbEntity
  8
ZUWAKU
100
AcDbLine
 10
1314.214126714702
 20
-828.1594829814336
 30
0.0
 11
1316.139126714702
 21
-828.1594829814336
 31
0.0
  0
LINE
  5
5FAC
330
1A
100
AcDbEntity
  8
ZUWAKU
100
AcDbLine
 10
1316.139126714702
 20
-830.9594829814335
 30
0.0
 11
1314.214126714702
 21
-830.9594829814335
 31
0.0
  0
ARC
  5
5FAD
330
1A
100
AcDbEntity
  8
ZUWAKU
100
AcDbCircle
 10
1338.189126714701
 20
-831.4844829814337
 30
0.0
 40
0.525
100
AcDbArc
 50
90.0
 51
180.0
  0
ARC
  5
5FAE
330
1A
100
AcDbEntity
  8
ZUWAKU
100
AcDbCircle
 10
1332.239126714702
 20
-828.6844829814336
 30
0.0
 40
0.525
100
AcDbArc
 50
0.0
 51
90.0
  0
ARC
  5
5FAF
330
1A
100
AcDbEntity
  8
ZUWAKU
100
AcDbCircle
 10
1337.664126714702
 20
-830.9594829814335
 30
0.0
 40
2.799999999999998
100
AcDbArc
 50
90.0
 51
180.0
  0
ARC
  5
5FB0
330
1A
100
AcDbEntity
  8
ZUWAKU
100
AcDbCircle
 10
1330.489126714701
 20
-828.6844829814336
 30
0.0
 40
0.525
100
AcDbArc
 50
90.0
 51
180.0
  0
LINE
  5
5FB1
330
1A
100
AcDbEntity
  8
ZUWAKU
100
AcDbLine
 10
1325.448892551213
 20
-828.1594829814336
 30
0.0
 11
1327.147781930822
 21
-828.1594829814336
 31
0.0
  0
ARC
  5
5FB2
330
1A
100
AcDbEntity
  8
ZUWAKU
100
AcDbCircle
 10
1327.147781930822
 20
-828.6844829814336
 30
0.0
 40
0.525
100
AcDbArc
 50
342.474431626278
 51
90.0
  0
LINE
  5
5FB3
330
1A
100
AcDbEntity
  8
ZUWAKU
100
AcDbLine
 10
1327.648412830018
 20
-828.8425769496006
 30
0.0
 11
1326.586773196879
 21
-832.20443578787
 31
0.0
  0
ARC
  5
5FB4
330
1A
100
AcDbEntity
  8
ZUWAKU
100
AcDbCircle
 10
1325.448892551213
 20
-828.6844829814336
 30
0.0
 40
0.525
100
AcDbArc
 50
90.0
 51
162.4744316262781
  0
LINE
  5
5FB5
330
1A
100
AcDbEntity
  8
ZUWAKU
100
AcDbLine
 10
1332.239126714702
 20
-828.1594829814336
 30
0.0
 11
1330.489126714701
 21
-828.1594829814336
 31
0.0
  0
LINE
  5
5FB6
330
1A
100
AcDbEntity
  8
ZUWAKU
100
AcDbLine
 10
1497.518515849988
 20
-821.4094829814335
 30
0.0
 11
1497.518515849988
 21
-850.6094829814335
 31
0.0
  0
LINE
  5
5FB7
330
1A
100
AcDbEntity
  8
ZUWAKU
100
AcDbLine
 10
1497.918515849988
 20
-821.4094829814335
 30
0.0
 11
1497.918515849988
 21
-850.6094829814335
 31
0.0
  0
LINE
  5
5FB8
330
1A
100
AcDbEntity
  8
ZUWAKU
100
AcDbLine
 10
1497.718515849988
 20
-821.4094829814335
 30
0.0
 11
1497.718515849988
 21
-850.6094829814335
 31
0.0
  0
LINE
  5
5FB9
330
1A
100
AcDbEntity
  8
ZUWAKU
100
AcDbLine
 10
1368.598544107909
 20
-821.4094829814335
 30
0.0
 11
1368.598544107909
 21
-850.6094829814335
 31
0.0
  0
LINE
  5
5FBA
330
1A
100
AcDbEntity
  8
ZUWAKU
100
AcDbLine
 10
1368.798544107909
 20
-821.4094829814335
 30
0.0
 11
1368.798544107909
 21
-850.6094829814335
 31
0.0
  0
LINE
  5
5FBB
330
1A
100
AcDbEntity
  8
ZUWAKU
100
AcDbLine
 10
1368.398544107909
 20
-821.4094829814335
 30
0.0
 11
1368.398544107909
 21
-850.6094829814335
 31
0.0
  0
LINE
  5
5FBC
330
1A
100
AcDbEntity
  8
ZUWAKU
100
AcDbLine
 10
1353.414126714702
 20
-841.4594829814335
 30
0.0
 11
1353.414126714702
 21
-828.6844829814336
 31
0.0
  0
LINE
  5
5FBD
330
1A
100
AcDbEntity
  8
ZUWAKU
100
AcDbLine
 10
1350.614126714702
 20
-828.6844829814336
 30
0.0
 11
1350.614126714702
 21
-840.4094829814336
 31
0.0
  0
LINE
  5
5FBE
330
1A
100
AcDbEntity
  8
ZUWAKU
100
AcDbLine
 10
1358.314126714702
 20
-843.7344829814335
 30
0.0
 11
1358.314126714702
 21
-828.6844829814336
 31
0.0
  0
LINE
  5
5FBF
330
1A
100
AcDbEntity
  8
ZUWAKU
100
AcDbLine
 10
1355.514126714702
 20
-828.6844829814336
 30
0.0
 11
1355.514126714702
 21
-843.7344829814335
 31
0.0
  0
LINE
  5
5FC0
330
1A
100
AcDbEntity
  8
ZUWAKU
100
AcDbLine
 10
1344.314126714701
 20
-828.6844829814336
 30
0.0
 11
1344.314126714701
 21
-841.4594829814335
 31
0.0
  0
LINE
  5
5FC1
330
1A
100
AcDbEntity
  8
ZUWAKU
100
AcDbLine
 10
1347.114126714701
 20
-840.4094829814336
 30
0.0
 11
1347.114126714701
 21
-828.6844829814336
 31
0.0
  0
TEXT
  5
5FC2
330
1A
100
AcDbEntity
  8
MOJI
100
AcDbText
 10
1370.934178514086
 20
-833.5509150325071
 30
0.0
 40
5.799999999999999
  1
アートフェイスＴ１２０・Ｈ１２０・
 41
0.9
  7
ｽﾀｲﾙ1
100
AcDbText
  0
TEXT
  5
5FC3
330
1A
100
AcDbEntity
  8
MOJI
100
AcDbText
 10
1418.852915202752
 20
-842.8552595659033
 30
0.0
 40
5.799999999999999
  1
Ｓ１２０Ｈ・Ｍ１２０Ｈ
 41
0.9
  7
ｽﾀｲﾙ1
100
AcDbText
  0
ARC
  5
5FC4
330
1A
100
AcDbEntity
  8
ZUWAKU
100
AcDbCircle
 10
1357.789126714702
 20
-843.7344829814335
 30
0.0
 40
0.525
100
AcDbArc
 50
270.0
 51
0.0
  0
ARC
  5
5FC5
330
1A
100
AcDbEntity
  8
ZUWAKU
100
AcDbCircle
 10
1356.039126714702
 20
-843.7344829814335
 30
0.0
 40
0.525
100
AcDbArc
 50
180.0
 51
270.0
  0
ARC
  5
5FC6
330
1A
100
AcDbEntity
  8
ZUWAKU
100
AcDbCircle
 10
1350.614126714702
 20
-841.4594829814335
 30
0.0
 40
2.799999999999998
100
AcDbArc
 50
270.0
 51
0.0
  0
ARC
  5
5FC7
330
1A
100
AcDbEntity
  8
ZUWAKU
100
AcDbCircle
 10
1347.114126714701
 20
-841.4594829814335
 30
0.0
 40
2.799999999999998
100
AcDbArc
 50
180.0
 51
270.0
  0
LINE
  5
5FC8
330
1A
100
AcDbEntity
  8
ZUWAKU
100
AcDbLine
 10
1356.039126714702
 20
-844.2594829814336
 30
0.0
 11
1357.789126714702
 21
-844.2594829814336
 31
0.0
  0
LINE
  5
5FC9
330
1A
100
AcDbEntity
  8
ZUWAKU
100
AcDbLine
 10
1347.114126714701
 20
-844.2594829814336
 30
0.0
 11
1350.614126714702
 21
-844.2594829814336
 31
0.0
  0
ARC
  5
5FCA
330
1A
100
AcDbEntity
  8
ZUWAKU
100
AcDbCircle
 10
1349.564126714701
 20
-840.4094829814336
 30
0.0
 40
1.049999999999998
100
AcDbArc
 50
270.0
 51
0.0
  0
LINE
  5
5FCB
330
1A
100
AcDbEntity
  8
ZUWAKU
100
AcDbLine
 10
1342.214126714702
 20
-841.4594829814335
 30
0.0
 11
1342.214126714702
 21
-839.6442809560781
 31
0.0
  0
ARC
  5
5FCC
330
1A
100
AcDbEntity
  8
ZUWAKU
100
AcDbCircle
 10
1338.014126714702
 20
-839.6442809560783
 30
0.0
 40
4.199999999999998
100
AcDbArc
 50
0.0
 51
45.0000000000046
  0
ARC
  5
5FCD
330
1A
100
AcDbEntity
  8
ZUWAKU
100
AcDbCircle
 10
1348.164126714702
 20
-840.4094829814336
 30
0.0
 40
1.049999999999998
100
AcDbArc
 50
180.0
 51
270.0
  0
LINE
  5
5FCE
330
1A
100
AcDbEntity
  8
ZUWAKU
100
AcDbLine
 10
1349.564126714701
 20
-841.4594829814335
 30
0.0
 11
1348.164126714702
 21
-841.4594829814335
 31
0.0
  0
TEXT
  5
5FCF
330
1A
100
AcDbEntity
  8
MOJI
100
AcDbText
 10
1529.099117240771
 20
-848.2045619240262
 30
0.0
 40
5.599999999999998
  1
１２０－０－１０
 41
0.9
  7
ｽﾀｲﾙ1
100
AcDbText
  0
TEXT
  5
5FD0
330
1A
100
AcDbEntity
  8
ZUWAKU
100
AcDbText
 10
1498.995960872198
 20
-841.7541264430479
 30
0.0
 40
4.0
  1
サイズ
 41
0.9
  7
ｽﾀｲﾙ1
100
AcDbText
  0
LINE
  5
5FD1
330
1A
100
AcDbEntity
  8
ZUWAKU
100
AcDbLine
 10
1357.789126714702
 20
-828.1594829814336
 30
0.0
 11
1356.039126714702
 21
-828.1594829814336
 31
0.0
  0
ARC
  5
5FD2
330
1A
100
AcDbEntity
  8
ZUWAKU
100
AcDbCircle
 10
1356.039126714702
 20
-828.6844829814336
 30
0.0
 40
0.525
100
AcDbArc
 50
90.0
 51
180.0
  0
ARC
  5
5FD3
330
1A
100
AcDbEntity
  8
ZUWAKU
100
AcDbCircle
 10
1352.889126714702
 20
-828.6844829814336
 30
0.0
 40
0.525
100
AcDbArc
 50
0.0
 51
90.0
  0
LINE
  5
5FD4
330
1A
100
AcDbEntity
  8
ZUWAKU
100
AcDbLine
 10
1352.889126714702
 20
-828.1594829814336
 30
0.0
 11
1351.139126714701
 21
-828.1594829814336
 31
0.0
  0
ARC
  5
5FD5
330
1A
100
AcDbEntity
  8
ZUWAKU
100
AcDbCircle
 10
1351.139126714701
 20
-828.6844829814336
 30
0.0
 40
0.525
100
AcDbArc
 50
90.0
 51
180.0
  0
ARC
  5
5FD6
330
1A
100
AcDbEntity
  8
ZUWAKU
100
AcDbCircle
 10
1346.589126714702
 20
-828.6844829814336
 30
0.0
 40
0.525
100
AcDbArc
 50
0.0
 51
90.0
  0
ARC
  5
5FD7
330
1A
100
AcDbEntity
  8
ZUWAKU
100
AcDbCircle
 10
1344.839126714702
 20
-828.6844829814336
 30
0.0
 40
0.525
100
AcDbArc
 50
90.0
 51
180.0
  0
LINE
  5
5FD8
330
1A
100
AcDbEntity
  8
ZUWAKU
100
AcDbLine
 10
1346.589126714702
 20
-828.1594829814336
 30
0.0
 11
1344.839126714702
 21
-828.1594829814336
 31
0.0
  0
ARC
  5
5FD9
330
1A
100
AcDbEntity
  8
ZUWAKU
100
AcDbCircle
 10
1341.164126714702
 20
-828.6844829814336
 30
0.0
 40
0.525
100
AcDbArc
 50
0.0
 51
90.0
  0
ARC
  5
5FDA
330
1A
100
AcDbEntity
  8
ZUWAKU
100
AcDbCircle
 10
1341.164126714702
 20
-830.4344829814336
 30
0.0
 40
0.525
100
AcDbArc
 50
270.0
 51
0.0
  0
LINE
  5
5FDB
330
1A
100
AcDbEntity
  8
ZUWAKU
100
AcDbLine
 10
1341.689126714701
 20
-828.6844829814336
 30
0.0
 11
1341.689126714701
 21
-830.4344829814336
 31
0.0
  0
ARC
  5
5FDC
330
1A
100
AcDbEntity
  8
ZUWAKU
100
AcDbCircle
 10
1357.789126714702
 20
-828.6844829814336
 30
0.0
 40
0.525
100
AcDbArc
 50
0.0
 51
90.0
  0
TEXT
  5
5FDD
330
1A
100
AcDbEntity
  8
ZUWAKU
100
AcDbText
 10
1498.995960872198
 20
-827.354126443048
 30
0.0
 40
4.0
  1
品名
 41
0.9
  7
ｽﾀｲﾙ1
100
AcDbText
  0
ARC
  5
5FDE
330
1A
100
AcDbEntity
  8
SEIHIN
100
AcDbCircle
 10
1528.766752628274
 20
-591.3213112125824
 30
0.0
 40
4.0
100
AcDbArc
 50
319.9266683215002
 51
1.37797588190002
  0
LINE
  5
5FDF
330
1A
100
AcDbEntity
  8
SEIHIN
100
AcDbLine
 10
1531.827637129874
 20
-593.8963813218824
 30
0.0
 11
1527.718780456375
 21
-598.7308923910823
 31
0.0
  0
LINE
  5
5FE0
330
1A
100
AcDbEntity
  8
SEIHIN
100
AcDbLine
 10
1530.766686348774
 20
-605.3213112125823
 30
0.0
 11
1548.377766368675
 21
-605.3213112125823
 31
0.0
  0
ARC
  5
5FE1
330
1A
100
AcDbEntity
  8
SEIHIN
100
AcDbCircle
 10
1530.766686348774
 20
-601.3213112125823
 30
0.0
 40
4.0
100
AcDbArc
 50
139.6387505755005
 51
270.0
  0
ARC
  5
5FE2
330
1A
100
AcDbEntity
  8
SEIHIN
100
AcDbCircle
 10
1548.377766368675
 20
-609.3213112125823
 30
0.0
 40
4.0
100
AcDbArc
 50
55.91691445850025
 51
90.0
  0
ARC
  5
5FE3
330
1A
100
AcDbEntity
  8
SEIHIN
100
AcDbCircle
 10
1528.766752628274
 20
-591.3213112125824
 30
0.0
 40
4.0
100
AcDbArc
 50
319.3508328298989
 51
319.9266683215002
  0
ARC
  5
5FE4
330
1A
100
AcDbEntity
  8
SEIHIN
100
AcDbCircle
 10
1617.866686348774
 20
-506.6213112125823
 30
0.0
 40
120.0
100
AcDbArc
 50
223.0835817765027
 51
224.8321080704016
  0
LINE
  5
5FE5
330
1A
100
AcDbEntity
  8
SEIHIN
100
AcDbLine
 10
1537.836180478775
 20
-581.3213112125823
 30
0.0
 11
1525.883931123274
 21
-581.3213112125823
 31
0.0
  0
LINE
  5
5FE6
330
1A
100
AcDbEntity
  8
SEIHIN
100
AcDbLine
 10
1524.516687409175
 20
-587.3213112125823
 30
0.0
 11
1540.836915511275
 21
-587.3213112125823
 31
0.0
  0
LINE
  5
5FE7
330
1A
100
AcDbEntity
  8
SEIHIN
100
AcDbLine
 10
1524.252610201874
 20
-580.4799207654823
 30
0.0
 11
1524.063182686275
 21
-580.1503196828823
 31
0.0
  0
ARC
  5
5FE8
330
1A
100
AcDbEntity
  8
SEIHIN
100
AcDbCircle
 10
1524.516686348774
 20
-580.5713112125824
 30
0.0
 40
6.75
100
AcDbArc
 50
116.5253520166011
 51
179.7460924595995
  0
LINE
  5
5FE9
330
1A
100
AcDbEntity
  8
SEIHIN
100
AcDbLine
 10
1524.501129477675
 20
-580.7675973665823
 30
0.0
 11
1524.252610201874
 21
-580.4799207654823
 31
0.0
  0
LINE
  5
5FEA
330
1A
100
AcDbEntity
  8
SEIHIN
100
AcDbLine
 10
1525.881786040075
 20
-581.3213105239823
 30
0.0
 11
1525.502789798575
 21
-581.2849060055823
 31
0.0
  0
LINE
  5
5FEB
330
1A
100
AcDbEntity
  8
SEIHIN
100
AcDbLine
 10
1525.881786040075
 20
-581.3213105239823
 30
0.0
 11
1525.883931123274
 21
-581.3213112125823
 31
0.0
  0
LINE
  5
5FEC
330
1A
100
AcDbEntity
  8
SEIHIN
100
AcDbLine
 10
1524.799761976674
 20
-581.0029562682823
 30
0.0
 11
1524.501129477675
 21
-580.7675973665823
 31
0.0
  0
LINE
  5
5FED
330
1A
100
AcDbEntity
  8
SEIHIN
100
AcDbLine
 10
1525.137718664774
 20
-581.1774943933824
 30
0.0
 11
1524.799761976674
 21
-581.0029562682823
 31
0.0
  0
LINE
  5
5FEE
330
1A
100
AcDbEntity
  8
SEIHIN
100
AcDbLine
 10
1525.502789798575
 20
-581.2849060055823
 30
0.0
 11
1525.137718664774
 21
-581.1774943933824
 31
0.0
  0
LINE
  5
5FEF
330
1A
100
AcDbEntity
  8
SEIHIN
100
AcDbLine
 10
1517.766752628275
 20
-580.6012238920823
 30
0.0
 11
1517.766752628275
 21
-580.5413985331823
 31
0.0
  0
ARC
  5
5FF0
330
1A
100
AcDbEntity
  8
SEIHIN
100
AcDbCircle
 10
1524.516686348774
 20
-580.5713112125824
 30
0.0
 40
6.75
100
AcDbArc
 50
180.2539075404981
 51
270.0000090009962
  0
ARC
  5
5FF1
330
1A
100
AcDbEntity
  8
SEIHIN
100
AcDbCircle
 10
1527.302289370674
 20
-591.3213112125824
 30
0.0
 40
4.0
100
AcDbArc
 50
43.08358177650273
 51
90.0
  0
LINE
  5
5FF2
330
1A
100
AcDbEntity
  8
SEIHIN
100
AcDbLine
 10
1525.306904080174
 20
-574.8931385834823
 30
0.0
 11
1525.311709065375
 21
-574.7981238943823
 31
0.0
  0
LINE
  5
5FF3
330
1A
100
AcDbEntity
  8
SEIHIN
100
AcDbLine
 10
1525.284193908174
 20
-574.9855748070823
 30
0.0
 11
1525.306904080174
 21
-574.8931385834823
 31
0.0
  0
LINE
  5
5FF4
330
1A
100
AcDbEntity
  8
SEIHIN
100
AcDbLine
 10
1524.907660644874
 20
-574.3304125450824
 30
0.0
 11
1524.812911627875
 21
-574.3213113848823
 31
0.0
  0
LINE
  5
5FF5
330
1A
100
AcDbEntity
  8
SEIHIN
100
AcDbLine
 10
1524.998928382075
 20
-574.3572654624824
 30
0.0
 11
1524.907660644874
 21
-574.3304125450824
 31
0.0
  0
LINE
  5
5FF6
330
1A
100
AcDbEntity
  8
SEIHIN
100
AcDbLine
 10
1525.083417509574
 20
-574.4008999923823
 30
0.0
 11
1524.998928382075
 21
-574.3572654624824
 31
0.0
  0
LINE
  5
5FF7
330
1A
100
AcDbEntity
  8
SEIHIN
100
AcDbLine
 10
1525.158075595675
 20
-574.4597397019823
 30
0.0
 11
1525.083417509574
 21
-574.4008999923823
 31
0.0
  0
LINE
  5
5FF8
330
1A
100
AcDbEntity
  8
SEIHIN
100
AcDbLine
 10
1525.220205385474
 20
-574.5316588243823
 30
0.0
 11
1525.158075595675
 21
-574.4597397019823
 31
0.0
  0
LINE
  5
5FF9
330
1A
100
AcDbEntity
  8
SEIHIN
100
AcDbLine
 10
1525.267562247675
 20
-574.6140590583823
 30
0.0
 11
1525.220205385474
 21
-574.5316588243823
 31
0.0
  0
LINE
  5
5FFA
330
1A
100
AcDbEntity
  8
SEIHIN
100
AcDbLine
 10
1525.298435268875
 20
-574.7039634398824
 30
0.0
 11
1525.267562247675
 21
-574.6140590583823
 31
0.0
  0
LINE
  5
5FFB
330
1A
100
AcDbEntity
  8
SEIHIN
100
AcDbLine
 10
1525.311709065375
 20
-574.7981238943823
 30
0.0
 11
1525.298435268875
 21
-574.7039634398824
 31
0.0
  0
LINE
  5
5FFC
330
1A
100
AcDbEntity
  8
SEIHIN
100
AcDbLine
 10
1524.812911668575
 20
-574.3213112125824
 30
0.0
 11
1524.812375155175
 21
-574.3213112125824
 31
0.0
  0
LINE
  5
5FFD
330
1A
100
AcDbEntity
  8
SEIHIN
100
AcDbLine
 10
1525.284016846774
 20
-574.9860812181823
 30
0.0
 11
1525.284194084274
 21
-574.9855748254823
 31
0.0
  0
ARC
  5
5FFE
330
1A
100
AcDbEntity
  8
SEIHIN
100
AcDbCircle
 10
1522.395366005174
 20
-576.3213112125823
 30
0.0
 40
2.0
100
AcDbArc
 50
90.0
 51
116.5253520166011
  0
ARC
  5
5FFF
330
1A
100
AcDbEntity
  8
SEIHIN
100
AcDbCircle
 10
1524.516686348774
 20
-580.5713112125824
 30
0.0
 40
6.75
100
AcDbArc
 50
116.5175626991009
 51
116.5218888106953
  0
LINE
  5
6000
330
1A
100
AcDbEntity
  8
SEIHIN
100
AcDbLine
 10
1522.395078857774
 20
-574.3213112125824
 30
0.0
 11
1522.394720060074
 21
-574.3213112125824
 31
0.0
  0
LINE
  5
6001
330
1A
100
AcDbEntity
  8
SEIHIN
100
AcDbLine
 10
1524.812911627875
 20
-574.3213113848823
 30
0.0
 11
1522.395366005174
 21
-574.3213112125824
 31
0.0
  0
LINE
  5
6002
330
1A
100
AcDbEntity
  8
SEIHIN
100
AcDbLine
 10
1523.997364356574
 20
-578.6622311902823
 30
0.0
 11
1523.996656377474
 21
-578.6642560724823
 31
0.0
  0
LINE
  5
6003
330
1A
100
AcDbEntity
  8
SEIHIN
100
AcDbLine
 10
1523.905815516975
 20
-579.0340010901823
 30
0.0
 11
1523.996656377474
 21
-578.6642560724823
 31
0.0
  0
LINE
  5
6004
330
1A
100
AcDbEntity
  8
SEIHIN
100
AcDbLine
 10
1523.886595460675
 20
-579.4140600021823
 30
0.0
 11
1523.905815516975
 21
-579.0340010901823
 31
0.0
  0
LINE
  5
6005
330
1A
100
AcDbEntity
  8
SEIHIN
100
AcDbLine
 10
1523.939690592975
 20
-579.7907019900823
 30
0.0
 11
1523.886595460675
 21
-579.4140600021823
 31
0.0
  0
LINE
  5
6006
330
1A
100
AcDbEntity
  8
SEIHIN
100
AcDbLine
 10
1524.063182686275
 20
-580.1503196828823
 30
0.0
 11
1523.939690592975
 21
-579.7907019900823
 31
0.0
  0
LINE
  5
6007
330
1A
100
AcDbEntity
  8
SEIHIN
100
AcDbLine
 10
1523.997364356574
 20
-578.6622311902823
 30
0.0
 11
1525.284016846774
 21
-574.9860812181823
 31
0.0
  0
ARC
  5
6008
330
1A
100
AcDbEntity
  8
SEIHIN
100
AcDbCircle
 10
1536.225030314574
 20
-588.3213112125823
 30
0.0
 40
1.0
100
AcDbArc
 50
90.0
 51
225.0204654645016
  0
ARC
  5
6009
330
1A
100
AcDbEntity
  8
SEIHIN
100
AcDbCircle
 10
1532.765595714675
 20
-595.2251196216823
 30
0.0
 40
4.0
100
AcDbArc
 50
89.99999794360091
 51
90.00000464929881
  0
ARC
  5
600A
330
1A
100
AcDbEntity
  8
SEIHIN
100
AcDbCircle
 10
1537.836180478775
 20
-594.8213112125824
 30
0.0
 40
13.5
100
AcDbArc
 50
48.67884626560057
 51
90.0
  0
ARC
  5
600B
330
1A
100
AcDbEntity
  8
SEIHIN
100
AcDbCircle
 10
1540.836915868375
 20
-597.3213112125823
 30
0.0
 40
10.0
100
AcDbArc
 50
51.72382421390261
 51
90.00000204599006
  0
LINE
  5
600C
330
1A
100
AcDbEntity
  8
ZUWAKU
100
AcDbLine
 10
1841.998870326033
 20
-821.4094829814335
 30
0.0
 11
1841.998870326033
 21
-850.6094829814335
 31
0.0
  0
LINE
  5
600D
330
1A
100
AcDbEntity
  8
ZUWAKU
100
AcDbLine
 10
1842.198870326033
 20
-821.4094829814335
 30
0.0
 11
1842.198870326033
 21
-850.6094829814335
 31
0.0
  0
LINE
  5
600E
330
1A
100
AcDbEntity
  8
ZUWAKU
100
AcDbLine
 10
1841.798870326033
 20
-821.4094829814335
 30
0.0
 11
1841.798870326033
 21
-850.6094829814335
 31
0.0
  0
LINE
  5
600F
330
1A
100
AcDbEntity
  8
ZUWAKU
100
AcDbLine
 10
1736.896278530911
 20
-821.4094829814335
 30
0.0
 11
1736.896278530912
 21
-850.6094829814335
 31
0.0
  0
LINE
  5
6010
330
1A
100
AcDbEntity
  8
ZUWAKU
100
AcDbLine
 10
1737.096278530912
 20
-821.4094829814335
 30
0.0
 11
1737.096278530912
 21
-850.6094829814335
 31
0.0
  0
LINE
  5
6011
330
1A
100
AcDbEntity
  8
ZUWAKU
100
AcDbLine
 10
1736.696278530912
 20
-821.4094829814335
 30
0.0
 11
1736.696278530912
 21
-850.6094829814335
 31
0.0
  0
TEXT
  5
6012
330
1A
100
AcDbEntity
  8
MOJI
100
AcDbText
 10
1817.312822532233
 20
-833.4045619240262
 30
0.0
 40
5.599999999999998
  1
Ａ３
 41
0.9
  7
ｽﾀｲﾙ1
100
AcDbText
  0
LINE
  5
6013
330
1A
100
AcDbEntity
  8
ZUWAKU
100
AcDbLine
 10
1794.271094058061
 20
-821.4094829814335
 30
0.0
 11
1794.271094058061
 21
-850.6094829814335
 31
0.0
  0
LINE
  5
6014
330
1A
100
AcDbEntity
  8
ZUWAKU
100
AcDbLine
 10
1794.471094058061
 20
-821.4094829814335
 30
0.0
 11
1794.471094058062
 21
-850.6094829814335
 31
0.0
  0
LINE
  5
6015
330
1A
100
AcDbEntity
  8
ZUWAKU
100
AcDbLine
 10
1794.071094058061
 20
-821.4094829814335
 30
0.0
 11
1794.071094058061
 21
-850.6094829814335
 31
0.0
  0
TEXT
  5
6016
330
1A
100
AcDbEntity
  8
MOJI
100
AcDbText
 10
1752.518346550923
 20
-839.4668652597736
 30
0.0
 40
5.599999999999998
  1
ＬＭ０１Ｔ
 41
0.9
  7
ｽﾀｲﾙ1
100
AcDbText
  0
TEXT
  5
6017
330
1A
100
AcDbEntity
  8
MOJI
100
AcDbText
 10
1817.312822532233
 20
-848.2045619240262
 30
0.0
 40
5.599999999999998
  1
１/２
 41
0.9
  7
ｽﾀｲﾙ1
100
AcDbText
  0
LINE
  5
6018
330
1A
100
AcDbEntity
  8
ZUWAKU
100
AcDbLine
 10
1794.471094058061
 20
-836.2094829814335
 30
0.0
 11
1841.798870326033
 21
-836.2094829814335
 31
0.0
  0
LINE
  5
6019
330
1A
100
AcDbEntity
  8
ZUWAKU
100
AcDbLine
 10
1794.471094058061
 20
-836.0094829814336
 30
0.0
 11
1841.798870326033
 21
-836.0094829814336
 31
0.0
  0
LINE
  5
601A
330
1A
100
AcDbEntity
  8
ZUWAKU
100
AcDbLine
 10
1794.471094058061
 20
-835.8094829814335
 30
0.0
 11
1841.798870326033
 21
-835.8094829814335
 31
0.0
  0
TEXT
  5
601B
330
1A
100
AcDbEntity
  8
ZUWAKU
100
AcDbText
 10
1795.948539080271
 20
-841.7541264430479
 30
0.0
 40
4.0
  1
縮尺
 41
0.9
  7
ｽﾀｲﾙ1
100
AcDbText
  0
TEXT
  5
601C
330
1A
100
AcDbEntity
  8
ZUWAKU
100
AcDbText
 10
1738.573723553121
 20
-827.354126443048
 30
0.0
 40
4.0
  1
品番
 41
0.9
  7
ｽﾀｲﾙ1
100
AcDbText
  0
TEXT
  5
601D
330
1A
100
AcDbEntity
  8
ZUWAKU
100
AcDbText
 10
1795.948539080271
 20
-827.354126443048
 30
0.0
 40
4.0
  1
用紙
 41
0.9
  7
ｽﾀｲﾙ1
100
AcDbText
  0
LINE
  5
601E
330
1A
100
AcDbEntity
  8
ZUWAKU
100
AcDbLine
 10
1986.520925108462
 20
-821.4094829814335
 30
0.0
 11
1986.520925108462
 21
-850.6094829814335
 31
0.0
  0
LINE
  5
601F
330
1A
100
AcDbEntity
  8
ZUWAKU
100
AcDbLine
 10
1986.720925108462
 20
-821.4094829814335
 30
0.0
 11
1986.720925108462
 21
-850.6094829814335
 31
0.0
  0
LINE
  5
6020
330
1A
100
AcDbEntity
  8
ZUWAKU
100
AcDbLine
 10
1986.920925108462
 20
-821.4094829814335
 30
0.0
 11
1986.920925108462
 21
-850.6094829814335
 31
0.0
  0
LINE
  5
6021
330
1A
100
AcDbEntity
  8
ZUWAKU
100
AcDbLine
 10
1987.120925108461
 20
-821.4094829814335
 30
0.0
 11
1987.120925108461
 21
-850.6094829814335
 31
0.0
  0
TEXT
  5
6022
330
1A
100
AcDbEntity
  8
ZUWAKU
100
AcDbText
 10
1997.799998752164
 20
-833.8556436457468
 30
0.0
 40
6.0
  1
積水化学工業株式会社
 41
0.9
  7
ｽﾀｲﾙ1
100
AcDbText
  0
LINE
  5
6023
330
1A
100
AcDbEntity
  8
ZUWAKU
100
AcDbLine
 10
1937.889117070124
 20
-821.4094829814335
 30
0.0
 11
1937.889117070125
 21
-850.6094829814335
 31
0.0
  0
LINE
  5
6024
330
1A
100
AcDbEntity
  8
ZUWAKU
100
AcDbLine
 10
1938.089117070125
 20
-821.4094829814335
 30
0.0
 11
1938.089117070125
 21
-850.6094829814335
 31
0.0
  0
LINE
  5
6025
330
1A
100
AcDbEntity
  8
ZUWAKU
100
AcDbLine
 10
1937.689117070125
 20
-821.4094829814335
 30
0.0
 11
1937.689117070125
 21
-850.6094829814335
 31
0.0
  0
TEXT
  5
6026
330
1A
100
AcDbEntity
  8
ZUWAKU
100
AcDbText
 10
1943.783990559607
 20
-833.4045619240262
 30
0.0
 40
5.599999999999998
  1
　　．　．　　
 41
0.9
  7
ｽﾀｲﾙ1
100
AcDbText
  0
LINE
  5
6027
330
1A
100
AcDbEntity
  8
ZUWAKU
100
AcDbLine
 10
1938.089117070125
 20
-836.2094829814335
 30
0.0
 11
1986.520925108462
 21
-836.2094829814335
 31
0.0
  0
LINE
  5
6028
330
1A
100
AcDbEntity
  8
ZUWAKU
100
AcDbLine
 10
1938.089117070125
 20
-836.0094829814334
 30
0.0
 11
1986.520925108462
 21
-836.0094829814336
 31
0.0
  0
LINE
  5
6029
330
1A
100
AcDbEntity
  8
ZUWAKU
100
AcDbLine
 10
1938.089117070125
 20
-835.8094829814335
 30
0.0
 11
1986.520925108462
 21
-835.8094829814335
 31
0.0
  0
TEXT
  5
602A
330
1A
100
AcDbEntity
  8
ZUWAKU
100
AcDbText
 10
1997.799998752164
 20
-844.7606426675795
 30
0.0
 40
6.0
  1
建材事業部
 41
0.9
  7
ｽﾀｲﾙ1
100
AcDbText
  0
TEXT
  5
602B
330
1A
100
AcDbEntity
  8
ZUWAKU
100
AcDbText
 10
1939.566562092334
 20
-827.354126443048
 30
0.0
 40
4.0
  1
DATE
 41
0.9
  7
ｽﾀｲﾙ1
100
AcDbText
  0
DIMENSION
  5
602C
330
1A
100
AcDbEntity
  8
SUNPOU
100
AcDbDimension
  2
*D22
 10
1873.348852428599
 20
-670.0938011562891
 30
0.0
 11
1859.348852428649
 21
-665.0938011562891
 31
0.0
 70
    32
  3
STANDARD
100
AcDbAlignedDimension
 13
1845.348852428699
 23
-642.9958857688823
 33
0.0
 14
1873.348852428599
 24
-643.1069102412823
 34
0.0
100
AcDbRotatedDimension
1001
ACAD
1000
DSTYLE
1002
{
1070
    41
1040
7.0
1070
    42
1040
6.0
1070
    43
1040
14.0
1070
    44
1040
3.0
1070
    73
1070
     0
1070
    74
1070
     0
1070
    77
1070
     3
1070
   140
1040
6.0
1070
   141
1040
150.0
1070
   147
1040
2.0
1070
   172
1070
     1
1070
   173
1070
     1
1070
   176
1070
   256
1070
   177
1070
   256
1070
   178
1070
   256
1070
   271
1070
     0
1070
   272
1070
     0
1070
   341
1005
6D
1070
     6
1000
OPEN
1070
     7
1000
OPEN
1070
   371
1070
    -1
1070
   372
1070
    -1
1002
}
  0
DIMENSION
  5
602D
330
1A
100
AcDbEntity
  8
SUNPOU
100
AcDbDimension
  2
*D23
 10
1782.071282121918
 20
-651.3213112125822
 30
0.0
 11
1777.071282121918
 21
-612.4713137245871
 31
0.0
 70
    32
  3
STANDARD
100
AcDbAlignedDimension
 13
1859.348948292426
 23
-573.6213162365926
 33
0.0
 14
1859.348852428599
 24
-651.3213112125823
 34
0.0
 50
90.0
100
AcDbRotatedDimension
1001
ACAD
1000
DSTYLE
1002
{
1070
    41
1040
7.0
1070
    42
1040
6.0
1070
    43
1040
14.0
1070
    44
1040
3.0
1070
    73
1070
     0
1070
    74
1070
     0
1070
    77
1070
     3
1070
   140
1040
6.0
1070
   141
1040
150.0
1070
   147
1040
2.0
1070
   172
1070
     1
1070
   173
1070
     1
1070
   176
1070
   256
1070
   177
1070
   256
1070
   178
1070
   256
1070
   271
1070
     0
1070
   272
1070
     0
1070
   341
1005
6D
1070
     6
1000
OPEN
1070
     7
1000
OPEN
1070
   371
1070
    -1
1070
   372
1070
    -1
1002
}
  0
DIMENSION
  5
602E
330
1A
100
AcDbEntity
  8
SUNPOU
100
AcDbDimension
  2
*D24
 10
1798.894058077012
 20
-643.3213112125823
 30
0.0
 11
1793.894058077011
 21
-625.321311212582
 31
0.0
 70
    32
  3
STANDARD
100
AcDbAlignedDimension
 13
1859.348858014557
 23
-651.3213110175163
 33
0.0
 14
1852.129516132629
 24
-643.3213112125823
 34
0.0
 50
90.0
100
AcDbRotatedDimension
1001
ACAD
1000
DSTYLE
1002
{
1070
    41
1040
7.0
1070
    42
1040
6.0
1070
    43
1040
14.0
1070
    44
1040
3.0
1070
    73
1070
     0
1070
    74
1070
     0
1070
    77
1070
     3
1070
   140
1040
6.0
1070
   141
1040
150.0
1070
   147
1040
2.0
1070
   172
1070
     1
1070
   173
1070
     1
1070
   176
1070
   256
1070
   177
1070
   256
1070
   178
1070
   256
1070
   271
1070
     0
1070
   272
1070
     0
1070
   341
1005
6D
1070
     6
1000
OPEN
1070
     7
1000
OPEN
1070
   371
1070
    -1
1070
   372
1070
    -1
1002
}
  0
DIMENSION
  5
602F
330
1A
100
AcDbEntity
  8
SUNPOU
100
AcDbDimension
  2
*D25
 10
1798.894058077012
 20
-593.3213112125823
 30
0.0
 11
1793.894058077011
 21
-583.4713137245871
 31
0.0
 70
    32
  3
STANDARD
100
AcDbAlignedDimension
 13
1859.348948292426
 23
-573.6213162365926
 33
0.0
 14
1821.251752428599
 24
-593.3213112125823
 34
0.0
 50
90.0
100
AcDbRotatedDimension
1001
ACAD
1000
DSTYLE
1002
{
1070
    41
1040
7.0
1070
    42
1040
6.0
1070
    43
1040
14.0
1070
    44
1040
3.0
1070
    73
1070
     0
1070
    74
1070
     0
1070
    77
1070
     3
1070
   140
1040
6.0
1070
   141
1040
150.0
1070
   147
1040
2.0
1070
   172
1070
     1
1070
   173
1070
     1
1070
   176
1070
   256
1070
   177
1070
   256
1070
   178
1070
   256
1070
   271
1070
     0
1070
   272
1070
     0
1070
   341
1005
6D
1070
     6
1000
OPEN
1070
     7
1000
OPEN
1070
   371
1070
    -1
1070
   372
1070
    -1
1002
}
  0
ARC
  5
6030
330
1A
100
AcDbEntity
  8
SEIHIN
100
AcDbCircle
 10
1850.348852428699
 20
-580.9398649480823
 30
0.0
 40
2.0
100
AcDbArc
 50
92.0000000000037
 51
180.0
  0
ARC
  5
6031
330
1A
100
AcDbEntity
  8
SEIHIN
100
AcDbCircle
 10
1850.348852428699
 20
-584.2213112125823
 30
0.0
 40
2.0
100
AcDbArc
 50
180.0
 51
270.0
  0
ARC
  5
6032
330
1A
100
AcDbEntity
  8
SEIHIN
100
AcDbCircle
 10
1850.348852428699
 20
-591.2213112125823
 30
0.0
 40
2.0
100
AcDbArc
 50
90.0
 51
180.0
  0
LINE
  5
6033
330
1A
100
AcDbEntity
  8
SEIHIN
100
AcDbLine
 10
1828.999863051799
 20
-574.6811212748823
 30
0.0
 11
1859.348852428599
 21
-573.6213112125823
 31
0.0
  0
LINE
  5
6034
330
1A
100
AcDbEntity
  8
SEIHIN
100
AcDbLine
 10
1849.287848809199
 20
-643.7008105560823
 30
0.0
 11
1851.203392581499
 21
-643.8178837029822
 31
0.0
  0
LINE
  5
6035
330
1A
100
AcDbEntity
  8
SEIHIN
100
AcDbLine
 10
1850.617672629599
 20
-650.5152379288823
 30
0.0
 11
1849.538571354799
 21
-650.0302128964823
 31
0.0
  0
LINE
  5
6036
330
1A
100
AcDbEntity
  8
SEIHIN
100
AcDbLine
 10
1859.348852428599
 20
-647.3213112125823
 30
0.0
 11
1846.164695540799
 21
-646.5155291897823
 31
0.0
  0
LINE
  5
6037
330
1A
100
AcDbEntity
  8
SEIHIN
100
AcDbLine
 10
1849.538571354799
 20
-650.0302128964823
 30
0.0
 11
1859.348852428599
 21
-650.3213112125823
 31
0.0
  0
DIMENSION
  5
6038
330
1A
100
AcDbEntity
  8
SUNPOU
100
AcDbDimension
  2
*D26
 10
1683.736433980747
 20
-651.3213112125823
 30
0.0
 11
1678.736433980748
 21
-647.3213112125821
 31
0.0
 70
    32
  3
STANDARD
100
AcDbAlignedDimension
 13
1669.366686348775
 23
-643.3213112125822
 33
0.0
 14
1657.366686348774
 24
-651.3213112125823
 34
0.0
 50
90.0
100
AcDbRotatedDimension
1001
ACAD
1000
DSTYLE
1002
{
1070
    41
1040
7.0
1070
    42
1040
6.0
1070
    43
1040
14.0
1070
    44
1040
3.0
1070
    73
1070
     0
1070
    74
1070
     0
1070
    77
1070
     3
1070
   140
1040
6.0
1070
   141
1040
150.0
1070
   147
1040
2.0
1070
   172
1070
     1
1070
   173
1070
     1
1070
   176
1070
   256
1070
   177
1070
   256
1070
   178
1070
   256
1070
   271
1070
     0
1070
   272
1070
     0
1070
   341
1005
6D
1070
     6
1000
OPEN
1070
     7
1000
OPEN
1070
   371
1070
    -1
1070
   372
1070
    -1
1002
}
  0
DIMENSION
  5
6039
330
1A
100
AcDbEntity
  8
SUNPOU
100
AcDbDimension
  2
*D27
 10
1698.951644267312
 20
-651.3213112125823
 30
0.0
 11
1693.951644267313
 21
-612.4713112125821
 31
0.0
 70
    32
  3
STANDARD
100
AcDbAlignedDimension
 13
1662.366686348774
 23
-573.6213112125823
 33
0.0
 14
1657.366686348774
 24
-651.3213112125823
 34
0.0
 50
90.0
100
AcDbRotatedDimension
1001
ACAD
1000
DSTYLE
1002
{
1070
    41
1040
7.0
1070
    42
1040
6.0
1070
    43
1040
14.0
1070
    44
1040
3.0
1070
    73
1070
     0
1070
    74
1070
     0
1070
    77
1070
     3
1070
   140
1040
6.0
1070
   141
1040
150.0
1070
   147
1040
2.0
1070
   172
1070
     1
1070
   173
1070
     1
1070
   176
1070
   256
1070
   177
1070
   256
1070
   178
1070
   256
1070
   271
1070
     0
1070
   272
1070
     0
1070
   341
1005
6D
1070
     6
1000
OPEN
1070
     7
1000
OPEN
1070
   371
1070
    -1
1070
   372
1070
    -1
1002
}
  0
LINE
  5
603A
330
1A
100
AcDbEntity
  8
SEIHIN
100
AcDbLine
 10
1662.366686348774
 20
-647.3213112125823
 30
0.0
 11
1662.366686348774
 21
-573.6213112125823
 31
0.0
  0
LINE
  5
603B
330
1A
100
AcDbEntity
  8
SEIHIN
100
AcDbLine
 10
1845.348852428699
 20
-642.9958857688823
 30
0.0
 11
1845.348852428699
 21
-621.3213112125823
 31
0.0
  0
LINE
  5
603D
330
1A
100
AcDbEntity
  8
SEIHIN
100
AcDbLine
 10
1848.348852428699
 20
-591.2213112125823
 30
0.0
 11
1848.348852428699
 21
-642.7026730112824
 31
0.0
  0
LINE
  5
603E
330
1A
100
AcDbEntity
  8
SEIHIN
100
AcDbLine
 10
1655.366686348775
 20
-648.2660245656822
 30
0.0
 11
1655.366686348775
 21
-621.3212816585824
 31
0.0
  0
DIMENSION
  5
603F
330
1A
100
AcDbEntity
  8
SUNPOU
100
AcDbDimension
  2
*D28
 10
1655.366686348775
 20
-670.0938011562891
 30
0.0
 11
1637.366686348775
 21
-665.0938011562891
 31
0.0
 70
    32
  3
STANDARD
100
AcDbAlignedDimension
 13
1662.366686348774
 23
-647.3213112125823
 33
0.0
 14
1655.366686348775
 24
-650.9849220469823
 34
0.0
100
AcDbRotatedDimension
1001
ACAD
1000
DSTYLE
1002
{
1070
    41
1040
7.0
1070
    42
1040
6.0
1070
    43
1040
14.0
1070
    44
1040
3.0
1070
    73
1070
     0
1070
    74
1070
     0
1070
    77
1070
     3
1070
   140
1040
6.0
1070
   141
1040
150.0
1070
   147
1040
2.0
1070
   172
1070
     1
1070
   173
1070
     1
1070
   176
1070
   256
1070
   177
1070
   256
1070
   178
1070
   256
1070
   271
1070
     0
1070
   272
1070
     0
1070
   341
1005
6D
1070
     6
1000
OPEN
1070
     7
1000
OPEN
1070
   371
1070
    -1
1070
   372
1070
    -1
1002
}
  0
LINE
  5
6040
330
1A
100
AcDbEntity
  8
CENTER_L
  6
CENTER
 62
     1
 48
5.0
100
AcDbLine
 10
1648.366686348774
 20
-643.3213112125823
 30
0.0
 11
1669.366686348775
 21
-643.3213112125822
 31
0.0
  0
LINE
  5
6041
330
1A
100
AcDbEntity
  8
SEIHIN
100
AcDbLine
 10
1662.366686348774
 20
-647.3213112125823
 30
0.0
 11
1657.366686348774
 21
-650.3213112125823
 31
0.0
  0
LINE
  5
6046
330
1A
100
AcDbEntity
  8
SEIHIN
100
AcDbLine
 10
1657.366686348774
 20
-650.3213112125823
 30
0.0
 11
1657.366686348774
 21
-651.3213112125823
 31
0.0
  0
LINE
  5
6047
330
1A
100
AcDbEntity
  8
SEIHIN
100
AcDbLine
 10
1655.366686348775
 20
-650.9849220469823
 30
0.0
 11
1655.366686348775
 21
-651.3213112125823
 31
0.0
  0
LINE
  5
6048
330
1A
100
AcDbEntity
  8
SEIHIN
100
AcDbLine
 10
1655.366686348775
 20
-650.9849220469823
 30
0.0
 11
1655.366686348775
 21
-648.2660245656822
 31
0.0
  0
LINE
  5
604A
330
1A
100
AcDbEntity
  8
SEIHIN
100
AcDbLine
 10
1657.366686348774
 20
-651.3213112125823
 30
0.0
 11
1655.366686348775
 21
-651.3213112125823
 31
0.0
  0
LINE
  5
604B
330
1A
100
AcDbEntity
  8
SEIHIN
100
AcDbLine
 10
1662.366686348774
 20
-647.3213112125823
 30
0.0
 11
1662.366686348774
 21
-646.5155291897823
 31
0.0
  0
LINE
  5
604C
330
1A
100
AcDbEntity
  8
SEIHIN
100
AcDbLine
 10
1662.366686348774
 20
-646.5155291897823
 30
0.0
 11
1662.366686348774
 21
-642.9958857688823
 31
0.0
  0
ARC
  5
604D
330
1A
100
AcDbEntity
  8
SEIHIN
100
AcDbCircle
 10
1849.348852428699
 20
-642.7026730112824
 30
0.0
 40
1.0
100
AcDbArc
 50
180.0
 51
266.502578535607
  0
LINE
  5
604E
330
1A
100
AcDbEntity
  8
SEIHIN
100
AcDbLine
 10
1846.654143032599
 20
-647.3754823372823
 30
0.0
 11
1846.164695540799
 21
-646.5155291897823
 31
0.0
  0
ARC
  5
604F
330
1A
100
AcDbEntity
  8
SEIHIN
100
AcDbCircle
 10
1853.348852428699
 20
-642.9958857688823
 30
0.0
 40
8.0
100
AcDbArc
 50
180.0
 51
206.1010372786983
  0
LINE
  5
6050
330
1A
100
AcDbEntity
  8
SEIHIN
100
AcDbLine
 10
1849.538571354799
 20
-650.0302128964823
 30
0.0
 11
1848.699337603099
 21
-649.5060326095823
 31
0.0
  0
LINE
  5
6051
330
1A
100
AcDbEntity
  8
SEIHIN
100
AcDbLine
 10
1848.699337603099
 20
-649.5060326095823
 30
0.0
 11
1847.931232584199
 21
-648.8822594590823
 31
0.0
  0
LINE
  5
6052
330
1A
100
AcDbEntity
  8
SEIHIN
100
AcDbLine
 10
1847.931232584199
 20
-648.8822594590823
 30
0.0
 11
1847.246006843899
 21
-648.1684359879823
 31
0.0
  0
LINE
  5
6053
330
1A
100
AcDbEntity
  8
SEIHIN
100
AcDbLine
 10
1847.246006843899
 20
-648.1684359879823
 30
0.0
 11
1846.654143032599
 21
-647.3754823372823
 31
0.0
  0
DIMENSION
  5
6054
330
1A
100
AcDbEntity
  8
SUNPOU
100
AcDbDimension
  2
*D29
 10
1683.736433980747
 20
-593.3213112125823
 30
0.0
 11
1678.736433980748
 21
-583.4713112125821
 31
0.0
 70
    32
  3
STANDARD
100
AcDbAlignedDimension
 13
1662.366686348774
 23
-573.6213112125823
 33
0.0
 14
1669.366686348775
 24
-593.3213112125823
 34
0.0
 50
90.0
100
AcDbRotatedDimension
1001
ACAD
1000
DSTYLE
1002
{
1070
    41
1040
7.0
1070
    42
1040
6.0
1070
    43
1040
14.0
1070
    44
1040
3.0
1070
    73
1070
     0
1070
    74
1070
     0
1070
    77
1070
     3
1070
   140
1040
6.0
1070
   141
1040
150.0
1070
   147
1040
2.0
1070
   172
1070
     1
1070
   173
1070
     1
1070
   176
1070
   256
1070
   177
1070
   256
1070
   178
1070
   256
1070
   271
1070
     0
1070
   272
1070
     0
1070
   341
1005
6D
1070
     6
1000
OPEN
1070
     7
1000
OPEN
1070
   371
1070
    -1
1070
   372
1070
    -1
1002
}
  0
LINE
  5
6055
330
1A
100
AcDbEntity
  8
SEIHIN
100
AcDbLine
 10
1658.366686348775
 20
-613.2613322475455
 30
0.0
 11
1655.873601720275
 21
-573.6213112125823
 31
0.0
  0
LINE
  5
6056
330
1A
100
AcDbEntity
  8
SEIHIN
100
AcDbLine
 10
1655.366684489974
 20
-621.3212816585824
 30
0.0
 11
1652.574196134174
 21
-576.9207167986824
 31
0.0
  0
LINE
  5
6057
330
1A
100
AcDbEntity
  8
SEIHIN
100
AcDbLine
 10
1662.366686348774
 20
-608.1964380010385
 30
0.0
 11
1658.048139343469
 21
-608.1964380010385
 31
0.0
  0
LINE
  5
6058
330
1A
100
AcDbEntity
  8
CENTER_L
  6
CENTER
 62
     1
 48
5.0
100
AcDbLine
 10
1648.366686348774
 20
-593.3213112125825
 30
0.0
 11
1669.366686348775
 21
-593.3213112125823
 31
0.0
  0
LINE
  5
6059
330
1A
100
AcDbEntity
  8
SEIHIN
100
AcDbLine
 10
1635.203985895374
 20
-619.3624921675823
 30
0.0
 11
1638.428828428675
 21
-607.3272159871824
 31
0.0
  0
LINE
  5
605A
330
1A
100
AcDbEntity
  8
SEIHIN
100
AcDbLine
 10
1630.771945574574
 20
-622.3801302576823
 30
0.0
 11
1635.048088036675
 21
-606.4213493292823
 31
0.0
  0
LINE
  5
605B
330
1A
100
AcDbEntity
  8
SEIHIN
100
AcDbLine
 10
1617.866683292175
 20
-623.1213112125823
 30
0.0
 11
1629.806019748274
 21
-623.1213112125823
 31
0.0
  0
LINE
  5
605C
330
1A
100
AcDbEntity
  8
SEIHIN
100
AcDbLine
 10
1617.866683292175
 20
-626.6213112125823
 30
0.0
 11
1636.515833387675
 21
-626.6213112125823
 31
0.0
  0
ARC
  5
605D
330
1A
100
AcDbEntity
  8
SEIHIN
100
AcDbCircle
 10
1655.866686348775
 20
-627.2351614070823
 30
0.0
 40
3.0
100
AcDbArc
 50
179.9999964820984
 51
219.8055623931994
  0
LINE
  5
605E
330
1A
100
AcDbEntity
  8
SEIHIN
100
AcDbLine
 10
1653.562022218374
 20
-629.1557142561823
 30
0.0
 11
1654.671350464075
 21
-630.4869081508822
 31
0.0
  0
ARC
  5
605F
330
1A
100
AcDbEntity
  8
SEIHIN
100
AcDbCircle
 10
1652.366686348775
 20
-632.4074610180823
 30
0.0
 40
3.0
100
AcDbArc
 50
0.0
 51
39.80556284280243
  0
LINE
  5
6060
330
1A
100
AcDbEntity
  8
SEIHIN
100
AcDbLine
 10
1642.433673646774
 20
-621.3713112126823
 30
0.0
 11
1640.845960406674
 21
-624.1213112124824
 31
0.0
  0
ARC
  5
6061
330
1A
100
AcDbEntity
  8
SEIHIN
100
AcDbCircle
 10
1642.000660944875
 20
-621.1213112126824
 30
0.0
 40
0.5
100
AcDbArc
 50
330.0000000010005
 51
90.0
  0
LINE
  5
6062
330
1A
100
AcDbEntity
  8
SEIHIN
100
AcDbLine
 10
1642.433409632674
 20
-621.3717684985823
 30
0.0
 11
1642.341716979875
 21
-621.5305848318823
 31
0.0
  0
LINE
  5
6063
330
1A
100
AcDbEntity
  8
SEIHIN
100
AcDbLine
 10
1642.001056547475
 20
-620.6213112126824
 30
0.0
 11
1642.000836798074
 21
-620.6213112126824
 31
0.0
  0
LINE
  5
6064
330
1A
100
AcDbEntity
  8
SEIHIN
100
AcDbLine
 10
1636.168125441774
 20
-620.6213109176824
 30
0.0
 11
1636.169117831975
 21
-620.6213112126824
 31
0.0
  0
LINE
  5
6065
330
1A
100
AcDbEntity
  8
SEIHIN
100
AcDbLine
 10
1635.203780421575
 20
-619.3632590060823
 30
0.0
 11
1635.203523856974
 21
-619.3642176577823
 31
0.0
  0
ARC
  5
6066
330
1A
100
AcDbEntity
  8
SEIHIN
100
AcDbCircle
 10
1636.169911721575
 20
-619.6213112126823
 30
0.0
 40
1.0
100
AcDbArc
 50
164.9999999997022
 51
270.0
  0
ARC
  5
6067
330
1A
100
AcDbEntity
  8
SEIHIN
100
AcDbCircle
 10
1629.806019748274
 20
-622.1213112125823
 30
0.0
 40
1.0
100
AcDbArc
 50
270.0
 51
344.9999999997021
  0
ARC
  5
6068
330
1A
100
AcDbEntity
  8
SEIHIN
100
AcDbCircle
 10
1631.626883211274
 20
-621.1213112126824
 30
0.0
 40
0.5
100
AcDbArc
 50
90.0
 51
164.9999999997022
  0
ARC
  5
6069
330
1A
100
AcDbEntity
  8
SEIHIN
100
AcDbCircle
 10
1636.515833387675
 20
-621.6213112125823
 30
0.0
 40
5.0
100
AcDbArc
 50
270.0
 51
330.0000000010005
  0
LINE
  5
606A
330
1A
100
AcDbEntity
  8
SEIHIN
100
AcDbLine
 10
1642.000660944875
 20
-620.6213112126824
 30
0.0
 11
1631.626883211274
 21
-620.6213112126824
 31
0.0
  0
LINE
  5
606B
330
1A
100
AcDbEntity
  8
SEIHIN
100
AcDbLine
 10
1654.602321162875
 20
-622.2385494355823
 30
0.0
 11
1653.562022509975
 21
-623.4869078191823
 31
0.0
  0
ARC
  5
606C
330
1A
100
AcDbEntity
  8
SEIHIN
100
AcDbCircle
 10
1655.866686348775
 20
-625.4074610180823
 30
0.0
 40
3.0
100
AcDbArc
 50
140.1944289076981
 51
179.9999889610973
  0
ARC
  5
606D
330
1A
100
AcDbEntity
  8
SEIHIN
100
AcDbCircle
 10
1652.297657324174
 20
-620.3179962365823
 30
0.0
 40
3.0
100
AcDbArc
 50
320.1944289076981
 51
3.598768116799549
  0
LINE
  5
606E
330
1A
100
AcDbEntity
  8
SEIHIN
100
AcDbLine
 10
1652.866686348775
 20
-625.4074604400823
 30
0.0
 11
1652.866686348775
 21
-627.2351612228824
 31
0.0
  0
ARC
  5
606F
330
1A
100
AcDbEntity
  8
SEIHIN
100
AcDbCircle
 10
1647.866686348774
 20
-606.6213112126823
 30
0.0
 40
3.0
100
AcDbArc
 50
0.0
 51
90.0
  0
ARC
  5
6070
330
1A
100
AcDbEntity
  8
SEIHIN
100
AcDbCircle
 10
1643.258457560075
 20
-608.6213112126824
 30
0.0
 40
5.0
100
AcDbArc
 50
90.0
 51
164.9999999997022
  0
ARC
  5
6071
330
1A
100
AcDbEntity
  8
SEIHIN
100
AcDbCircle
 10
1643.258457560075
 20
-608.6213112126824
 30
0.0
 40
8.5
100
AcDbArc
 50
90.0
 51
164.9999999997022
  0
ARC
  5
6072
330
1A
100
AcDbEntity
  8
SEIHIN
100
AcDbCircle
 10
1649.558065120674
 20
-608.6213112126824
 30
0.0
 40
5.0
100
AcDbArc
 50
3.598768116597202
 51
90.0
  0
LINE
  5
6073
330
1A
100
AcDbEntity
  8
SEIHIN
100
AcDbLine
 10
1650.866686348775
 20
-606.6213112126823
 30
0.0
 11
1650.866686348775
 21
-608.7234280120823
 31
0.0
  0
ARC
  5
6074
330
1A
100
AcDbEntity
  8
SEIHIN
100
AcDbCircle
 10
1653.866686348774
 20
-608.7234280120823
 30
0.0
 40
3.0
100
AcDbArc
 50
180.0
 51
233.0653994737959
  0
ARC
  5
6075
330
1A
100
AcDbEntity
  8
SEIHIN
100
AcDbCircle
 10
1651.949910614974
 20
-614.7888235617823
 30
0.0
 40
3.0
100
AcDbArc
 50
3.598768116597202
 51
53.06539885499861
  0
LINE
  5
6076
330
1A
100
AcDbEntity
  8
SEIHIN
100
AcDbLine
 10
1652.063977229175
 20
-611.1213937812823
 30
0.0
 11
1653.752619760475
 21
-612.3908578120823
 31
0.0
  0
ARC
  5
6077
330
1A
100
AcDbEntity
  8
SEIHIN
100
AcDbCircle
 10
1648.709008516975
 20
-595.1213112126823
 30
0.0
 40
5.0
100
AcDbArc
 50
270.0
 51
3.598768116597202
  0
LINE
  5
6078
330
1A
100
AcDbEntity
  8
SEIHIN
100
AcDbLine
 10
1643.256120385774
 20
-603.6213112126823
 30
0.0
 11
1643.253199324774
 21
-603.6213117245823
 31
0.0
  0
LINE
  5
6079
330
1A
100
AcDbEntity
  8
SEIHIN
100
AcDbLine
 10
1643.258457560075
 20
-600.1213112126824
 30
0.0
 11
1648.709008516975
 21
-600.1213112126824
 31
0.0
  0
LINE
  5
607A
330
1A
100
AcDbEntity
  8
SEIHIN
100
AcDbLine
 10
1643.258457560075
 20
-603.6213112126823
 30
0.0
 11
1649.558065120674
 21
-603.6213112126823
 31
0.0
  0
LINE
  5
607B
330
1A
100
AcDbEntity
  8
SEIHIN
100
AcDbLine
 10
1662.366686348774
 20
-573.6213112125823
 30
0.0
 11
1649.643854427075
 21
-573.6213112125823
 31
0.0
  0
ARC
  5
607C
330
1A
100
AcDbEntity
  8
SEIHIN
100
AcDbCircle
 10
1649.643854427075
 20
-603.6213112125823
 30
0.0
 40
26.5
100
AcDbArc
 50
104.1873164804071
 51
134.6746095644961
  0
ARC
  5
607D
330
1A
100
AcDbEntity
  8
SEIHIN
100
AcDbCircle
 10
1645.109638097875
 20
-585.6855680642824
 30
0.0
 40
8.0
100
AcDbArc
 50
3.598768116597202
 51
104.1873164804071
  0
ARC
  5
607E
330
1A
100
AcDbEntity
  8
SEIHIN
100
AcDbCircle
 10
1649.643854427075
 20
-603.6213112125823
 30
0.0
 40
30.0
100
AcDbArc
 50
90.0
 51
134.674609564404
  0
LINE
  5
607F
330
1A
100
AcDbEntity
  8
SEIHIN
100
AcDbLine
 10
1652.574196134174
 20
-576.9207167986824
 30
0.0
 11
1647.825106515774
 21
-574.0589458736823
 31
0.0
  0
LINE
  5
6080
330
1A
100
AcDbEntity
  8
SEIHIN
100
AcDbLine
 10
1655.873601720275
 20
-573.6213112125823
 30
0.0
 11
1652.574196134174
 21
-576.9207167986824
 31
0.0
  0
LINE
  5
6081
330
1A
100
AcDbEntity
  8
CENTER_L
  6
CENTER
 62
     1
 48
5.0
100
AcDbLine
 10
1827.348852428599
 20
-587.6696112125822
 30
0.0
 11
1827.348852428599
 21
-599.6061112125822
 31
0.0
  0
LINE
  5
6082
330
1A
100
AcDbEntity
  8
SEIHIN
100
AcDbLine
 10
1819.348852428599
 20
-598.2025306925822
 30
0.0
 11
1819.348852428599
 21
-584.6750288506823
 31
0.0
  0
CIRCLE
  5
6083
330
1A
100
AcDbEntity
  8
SEIHIN
100
AcDbCircle
 10
1827.348852428599
 20
-593.3213112125823
 30
0.0
 40
2.1
  0
ARC
  5
6084
330
1A
100
AcDbEntity
  8
SEIHIN
100
AcDbCircle
 10
1827.348852428599
 20
-593.3213112125823
 30
0.0
 40
7.099999999999999
100
AcDbArc
 50
244.5110969291035
 51
22.50202280820122
  0
LINE
  5
6085
330
1A
100
AcDbEntity
  8
SEIHIN
100
AcDbLine
 10
1845.348852428699
 20
-609.2797166338823
 30
0.0
 11
1845.348852428699
 21
-591.2213112125823
 31
0.0
  0
ARC
  5
6086
330
1A
100
AcDbEntity
  8
SEIHIN
100
AcDbCircle
 10
1832.348852428699
 20
-621.3213112125823
 30
0.0
 40
13.0
100
AcDbArc
 50
0.0
 51
87.99984215870683
  0
ARC
  5
6087
330
1A
100
AcDbEntity
  8
SEIHIN
100
AcDbCircle
 10
1829.348852428599
 20
-598.2025293852823
 30
0.0
 40
10.0
100
AcDbArc
 50
180.0000074901975
 51
268.0000567334975
  0
ARC
  5
6088
330
1A
100
AcDbEntity
  8
SEIHIN
100
AcDbCircle
 10
1829.348852428599
 20
-598.2025293852823
 30
0.0
 40
7.0
100
AcDbArc
 50
203.8952826951988
 51
267.9999999999963
  0
ARC
  5
6089
330
1A
100
AcDbEntity
  8
SEIHIN
100
AcDbCircle
 10
1832.348852428699
 20
-621.3213112125823
 30
0.0
 40
16.0
100
AcDbArc
 50
45.09912784400303
 51
87.99999999999627
  0
LINE
  5
608A
330
1A
100
AcDbEntity
  8
SEIHIN
100
AcDbLine
 10
1829.104555951699
 20
-605.1982651743823
 30
0.0
 11
1832.907244375899
 21
-605.3310579802824
 31
0.0
  0
LINE
  5
608B
330
1A
100
AcDbEntity
  8
SEIHIN
100
AcDbLine
 10
1832.802581677099
 20
-608.3292317112823
 30
0.0
 11
1828.999867357399
 21
-608.1964380010823
 31
0.0
  0
ARC
  5
608C
330
1A
100
AcDbEntity
  8
SEIHIN
100
AcDbCircle
 10
1844.348852428699
 20
-609.2797166338823
 30
0.0
 40
1.0
100
AcDbArc
 50
225.099127844003
 51
0.0
  0
LINE
  5
608D
330
1A
100
AcDbEntity
  8
CENTER_L
  6
CENTER
 62
     1
 48
5.0
100
AcDbLine
 10
1821.251752428599
 20
-593.3213112125823
 30
0.0
 11
1834.040852428599
 21
-593.3213112125823
 31
0.0
  0
ARC
  5
608E
330
1A
100
AcDbEntity
  8
SEIHIN
100
AcDbCircle
 10
1823.863128577899
 20
-600.6329272608823
 30
0.0
 40
1.0
100
AcDbArc
 50
64.5110969291036
 51
203.8952826951988
  0
LEADER
  5
608F
330
1A
100
AcDbEntity
  8
SUNPOU
100
AcDbLeader
  3
STANDARD
 40
6.0
 41
31.19999999999999
 76
     3
 10
1826.133481997624
 20
-591.68325784787
 30
0.0
 10
1800.002037600092
 20
-546.6310520368209
 30
0.0
 10
1764.255634201478
 20
-546.6310520368209
 30
0.0
213
0.0
223
3.0
233
0.0
1001
ACAD
1000
DSTYLE
1002
{
1070
     6
1000
OPEN
1070
    41
1040
7.0
1070
    42
1040
6.0
1070
    43
1040
14.0
1070
    44
1040
3.0
1070
    73
1070
     0
1070
    74
1070
     0
1070
    77
1070
     0
1070
   140
1040
6.0
1070
   141
1040
150.0
1070
   147
1040
2.0
1070
   172
1070
     1
1070
   173
1070
     1
1070
   176
1070
   256
1070
   177
1070
   256
1070
   178
1070
   256
1070
   271
1070
     0
1070
   272
1070
     0
1070
   341
1005
6D
1070
   343
1005
6D
1070
   344
1005
6D
1070
   371
1070
    -1
1070
   372
1070
    -1
1002
}
  0
ARC
  5
6090
330
1A
100
AcDbEntity
  8
SEIHIN
100
AcDbCircle
 10
1829.348852428599
 20
-584.6750297403823
 30
0.0
 40
10.0
100
AcDbArc
 50
91.99996795099341
 51
179.9999949020974
  0
ARC
  5
6091
330
1A
100
AcDbEntity
  8
SEIHIN
100
AcDbCircle
 10
1843.348852428699
 20
-581.1843103345823
 30
0.0
 40
2.0
100
AcDbArc
 50
0.0
 51
92.0000000000037
  0
ARC
  5
6092
330
1A
100
AcDbEntity
  8
SEIHIN
100
AcDbCircle
 10
1825.246590630399
 20
-581.8164552460823
 30
0.0
 40
2.0
100
AcDbArc
 50
92.0000000000037
 51
145.1301023537998
  0
ARC
  5
6093
330
1A
100
AcDbEntity
  8
SEIHIN
100
AcDbCircle
 10
1834.832167202099
 20
-590.2213112125823
 30
0.0
 40
1.0
100
AcDbArc
 50
90.0
 51
202.5020228082012
  0
LINE
  5
6094
330
1A
100
AcDbEntity
  8
SEIHIN
100
AcDbLine
 10
1827.348852428599
 20
-586.2213112125823
 30
0.0
 11
1843.348852428699
 21
-586.2213112125823
 31
0.0
  0
LINE
  5
6095
330
1A
100
AcDbEntity
  8
SEIHIN
100
AcDbLine
 10
1822.348852428599
 20
-584.6750297403823
 30
0.0
 11
1822.348852428599
 21
-586.2778745514823
 31
0.0
  0
ARC
  5
6096
330
1A
100
AcDbEntity
  8
SEIHIN
100
AcDbCircle
 10
1823.348852428599
 20
-586.2778745514823
 30
0.0
 40
1.0
100
AcDbArc
 50
180.0
 51
299.5924416712975
  0
ARC
  5
6097
330
1A
100
AcDbEntity
  8
SEIHIN
100
AcDbCircle
 10
1829.348852428599
 20
-584.6750297403823
 30
0.0
 40
7.0
100
AcDbArc
 50
145.1301023537998
 51
180.0
  0
ARC
  5
6098
330
1A
100
AcDbEntity
  8
SEIHIN
100
AcDbCircle
 10
1827.348852428599
 20
-593.3213112125823
 30
0.0
 40
7.099999999999999
100
AcDbArc
 50
90.0
 51
119.5924416712975
  0
ARC
  5
6099
330
1A
100
AcDbEntity
  8
SEIHIN
100
AcDbCircle
 10
1843.348852428699
 20
-584.2213112125823
 30
0.0
 40
2.0
100
AcDbArc
 50
270.0
 51
0.0
  0
LINE
  5
609A
330
1A
100
AcDbEntity
  8
SEIHIN
100
AcDbLine
 10
1848.348852428699
 20
-580.9398649480823
 30
0.0
 11
1848.348852428699
 21
-584.2213112125823
 31
0.0
  0
LINE
  5
609B
330
1A
100
AcDbEntity
  8
SEIHIN
100
AcDbLine
 10
1845.348852428699
 20
-584.2213112125823
 30
0.0
 11
1845.348852428699
 21
-581.1843103345823
 31
0.0
  0
ARC
  5
609C
330
1A
100
AcDbEntity
  8
SEIHIN
100
AcDbCircle
 10
1843.348852428699
 20
-591.2213112125823
 30
0.0
 40
2.0
100
AcDbArc
 50
0.0
 51
90.0
  0
LINE
  5
609D
330
1A
100
AcDbEntity
  8
SEIHIN
100
AcDbLine
 10
1843.348852428699
 20
-589.2213112125823
 30
0.0
 11
1834.832167202099
 21
-589.2213112125823
 31
0.0
  0
LINE
  5
609E
330
1A
100
AcDbEntity
  8
SEIHIN
100
AcDbLine
 10
1843.279053435299
 20
-579.1855286804823
 30
0.0
 11
1825.176791636999
 21
-579.8176735920823
 31
0.0
  0
LINE
  5
609F
330
1A
100
AcDbEntity
  8
CENTER_L
  6
CENTER
 62
     1
 48
5.0
100
AcDbLine
 10
1859.348849870254
 20
-658.3309175004881
 30
0.0
 11
1859.348956430535
 21
-566.6170407706631
 31
0.0
  0
ARC
  5
60A0
330
1A
100
AcDbEntity
  8
SEIHIN
100
AcDbCircle
 10
1859.348852428599
 20
-643.3213112125823
 30
0.0
 40
7.099999999999999
100
AcDbArc
 50
2.355473247100819
 51
64.39917301660702
  0
ARC
  5
60A1
330
1A
100
AcDbEntity
  8
SEIHIN
100
AcDbCircle
 10
1859.348852428599
 20
-643.3213112125823
 30
0.0
 40
7.099999999999999
100
AcDbArc
 50
115.6008269833929
 51
176.4498818265013
  0
LINE
  5
60A2
330
1A
100
AcDbEntity
  8
SEIHIN
100
AcDbLine
 10
1873.348852428599
 20
-621.3213112125823
 30
0.0
 11
1873.348852428599
 21
-643.1069102412823
 31
0.0
  0
LINE
  5
60A3
330
1A
100
AcDbEntity
  8
SEIHIN
100
AcDbLine
 10
1870.348852428599
 20
-642.9107530010824
 30
0.0
 11
1870.348852428599
 21
-591.2213112125823
 31
0.0
  0
LINE
  5
60A4
330
1A
100
AcDbEntity
  8
CENTER_L
  6
CENTER
 62
     1
 48
5.0
100
AcDbLine
 10
1850.248852428599
 20
-643.3213112125823
 30
0.0
 11
1868.448852428599
 21
-643.3213112125823
 31
0.0
  0
LINE
  5
60A5
330
1A
100
AcDbEntity
  8
SEIHIN
100
AcDbLine
 10
1859.348852428599
 20
-647.3213112125823
 30
0.0
 11
1872.451792684599
 21
-646.7877035959823
 31
0.0
  0
LINE
  5
60A6
330
1A
100
AcDbEntity
  8
SEIHIN
100
AcDbLine
 10
1865.628048402199
 20
-651.1020368573824
 30
0.0
 11
1866.859746566999
 21
-650.9629397028823
 31
0.0
  0
LINE
  5
60A7
330
1A
100
AcDbEntity
  8
SEIHIN
100
AcDbLine
 10
1869.185629939099
 20
-650.1268203784823
 30
0.0
 11
1859.348852428599
 21
-650.3213112125823
 31
0.0
  0
LINE
  5
60A8
330
1A
100
AcDbEntity
  8
SEIHIN
100
AcDbLine
 10
1859.348852428599
 20
-650.3213112125823
 30
0.0
 11
1859.348852428599
 21
-651.3213112125823
 31
0.0
  0
LINE
  5
60A9
330
1A
100
AcDbEntity
  8
SEIHIN
100
AcDbLine
 10
1865.628048402199
 20
-651.1020368573824
 30
0.0
 11
1859.348852428599
 21
-651.3213112125823
 31
0.0
  0
LINE
  5
60AA
330
1A
100
AcDbEntity
  8
SEIHIN
100
AcDbLine
 10
1859.348852428599
 20
-647.3213112125823
 30
0.0
 11
1859.348852428599
 21
-650.3213112125823
 31
0.0
  0
ARC
  5
60AB
330
1A
100
AcDbEntity
  8
SEIHIN
100
AcDbCircle
 10
1851.264396200999
 20
-642.8197461580823
 30
0.0
 40
1.0
100
AcDbArc
 50
266.5025785356984
 51
356.4498818265013
  0
LINE
  5
60AC
330
1A
100
AcDbEntity
  8
SEIHIN
100
AcDbLine
 10
1852.930164778699
 20
-650.9849220469823
 30
0.0
 11
1851.756506037599
 21
-650.8358113406822
 31
0.0
  0
LINE
  5
60AD
330
1A
100
AcDbEntity
  8
SEIHIN
100
AcDbLine
 10
1851.756506037599
 20
-650.8358113406822
 30
0.0
 11
1850.617672629599
 21
-650.5152379288823
 31
0.0
  0
LINE
  5
60AE
330
1A
100
AcDbEntity
  8
SEIHIN
100
AcDbLine
 10
1852.930164778699
 20
-650.9849220469823
 30
0.0
 11
1859.348852428599
 21
-651.3213112125823
 31
0.0
  0
CIRCLE
  5
60AF
330
1A
100
AcDbEntity
  8
SEIHIN
100
AcDbCircle
 10
1859.348852428599
 20
-643.3213112125823
 30
0.0
 40
2.1
  0
LINE
  5
60B0
330
1A
100
AcDbEntity
  8
SEIHIN
100
AcDbLine
 10
1871.966832009499
 20
-647.6016122632824
 30
0.0
 11
1872.451792684599
 21
-646.7877035959823
 31
0.0
  0
ARC
  5
60B1
330
1A
100
AcDbEntity
  8
SEIHIN
100
AcDbCircle
 10
1865.348852428599
 20
-643.1069102412823
 30
0.0
 40
8.0
100
AcDbArc
 50
332.6064930963971
 51
0.0
  0
LINE
  5
60B2
330
1A
100
AcDbEntity
  8
SEIHIN
100
AcDbLine
 10
1867.482699045799
 20
-643.9875796160824
 30
0.0
 11
1869.389542966099
 21
-643.9099247981824
 31
0.0
  0
ARC
  5
60B3
330
1A
100
AcDbEntity
  8
SEIHIN
100
AcDbCircle
 10
1869.348852428599
 20
-642.9107530010824
 30
0.0
 40
1.0
100
AcDbArc
 50
272.3320398984994
 51
0.0
  0
ARC
  5
60B4
330
1A
100
AcDbEntity
  8
SEIHIN
100
AcDbCircle
 10
1867.442008508299
 20
-642.9884078189822
 30
0.0
 40
1.0
100
AcDbArc
 50
182.3554732471008
 51
272.3320398984994
  0
LINE
  5
60B5
330
1A
100
AcDbEntity
  8
SEIHIN
100
AcDbLine
 10
1868.055173159299
 20
-650.6352452565823
 30
0.0
 11
1869.185629939099
 21
-650.1268203784823
 31
0.0
  0
LINE
  5
60B6
330
1A
100
AcDbEntity
  8
SEIHIN
100
AcDbLine
 10
1869.185629939099
 20
-650.1268203784823
 30
0.0
 11
1869.988628769399
 21
-649.6240012722823
 31
0.0
  0
LINE
  5
60B7
330
1A
100
AcDbEntity
  8
SEIHIN
100
AcDbLine
 10
1869.988628769399
 20
-649.6240012722823
 30
0.0
 11
1870.726552258999
 21
-649.0297764843823
 31
0.0
  0
LINE
  5
60B8
330
1A
100
AcDbEntity
  8
SEIHIN
100
AcDbLine
 10
1870.726552258999
 20
-649.0297764843823
 30
0.0
 11
1871.389050636899
 21
-648.3524803345824
 31
0.0
  0
LINE
  5
60B9
330
1A
100
AcDbEntity
  8
SEIHIN
100
AcDbLine
 10
1866.859746566999
 20
-650.9629397028823
 30
0.0
 11
1868.055173159299
 21
-650.6352452565823
 31
0.0
  0
LINE
  5
60BA
330
1A
100
AcDbEntity
  8
SEIHIN
100
AcDbLine
 10
1871.389050636899
 20
-648.3524803345824
 30
0.0
 11
1871.966832009499
 21
-647.6016122632824
 31
0.0
  0
LINE
  5
60BB
330
1A
100
AcDbEntity
  8
CENTER_L
  6
CENTER
 62
     1
 48
5.0
100
AcDbLine
 10
1891.348852428599
 20
-587.6696112125822
 30
0.0
 11
1891.348852428599
 21
-599.6061112125822
 31
0.0
  0
LINE
  5
60BC
330
1A
100
AcDbEntity
  8
SEIHIN
100
AcDbLine
 10
1899.348852428599
 20
-597.0353543741823
 30
0.0
 11
1899.348852428599
 21
-585.2072680510823
 31
0.0
  0
ARC
  5
60BD
330
1A
100
AcDbEntity
  8
SEIHIN
100
AcDbCircle
 10
1891.348852428599
 20
-593.3213112125823
 30
0.0
 40
7.099999999999999
100
AcDbArc
 50
157.4979771917987
 51
287.7750946750018
  0
CIRCLE
  5
60BE
330
1A
100
AcDbEntity
  8
SEIHIN
100
AcDbCircle
 10
1891.348852428599
 20
-593.3213112125823
 30
0.0
 40
2.1
  0
LINE
  5
60BF
330
1A
100
AcDbEntity
  8
SEIHIN
100
AcDbLine
 10
1861.848852428599
 20
-591.2213112125823
 30
0.0
 11
1861.848852428599
 21
-636.0165182654823
 31
0.0
  0
LINE
  5
60C0
330
1A
100
AcDbEntity
  8
SEIHIN
100
AcDbLine
 10
1856.848852428599
 20
-636.0165182654823
 30
0.0
 11
1856.848852428599
 21
-591.2213112125823
 31
0.0
  0
LINE
  5
60C1
330
1A
100
AcDbEntity
  8
SEIHIN
100
AcDbLine
 10
1873.348852428599
 20
-591.2213112125823
 30
0.0
 11
1873.348852428599
 21
-608.7875822357823
 31
0.0
  0
ARC
  5
60C2
330
1A
100
AcDbEntity
  8
SEIHIN
100
AcDbCircle
 10
1887.558288635099
 20
-621.3213112125823
 30
0.0
 40
14.2094362065
100
AcDbArc
 50
97.8306845565948
 51
180.0
  0
ARC
  5
60C3
330
1A
100
AcDbEntity
  8
SEIHIN
100
AcDbCircle
 10
1862.848852428599
 20
-636.0165182654823
 30
0.0
 40
1.0
100
AcDbArc
 50
180.0
 51
244.3991730166069
  0
ARC
  5
60C4
330
1A
100
AcDbEntity
  8
SEIHIN
100
AcDbCircle
 10
1855.848852428599
 20
-636.0165182654823
 30
0.0
 40
1.0
100
AcDbArc
 50
295.600826983393
 51
0.0
  0
ARC
  5
60C5
330
1A
100
AcDbEntity
  8
SEIHIN
100
AcDbCircle
 10
1887.558288635099
 20
-621.3213112125823
 30
0.0
 40
17.2094362065
100
AcDbArc
 50
97.38926037350791
 51
136.5035557899963
  0
ARC
  5
60C6
330
1A
100
AcDbEntity
  8
SEIHIN
100
AcDbCircle
 10
1874.348852428599
 20
-608.7875822357823
 30
0.0
 40
1.0
100
AcDbArc
 50
180.0
 51
316.5035557899963
  0
ARC
  5
60C7
330
1A
100
AcDbEntity
  8
SEIHIN
100
AcDbCircle
 10
1889.348852428599
 20
-597.0353543741823
 30
0.0
 40
7.0
100
AcDbArc
 50
273.0000000000054
 51
318.1989022741971
  0
ARC
  5
60C8
330
1A
100
AcDbEntity
  8
SEIHIN
100
AcDbCircle
 10
1889.348852428599
 20
-597.0353543741823
 30
0.0
 40
10.0
100
AcDbArc
 50
273.0000000000054
 51
0.0
  0
LINE
  5
60C9
330
1A
100
AcDbEntity
  8
SEIHIN
100
AcDbLine
 10
1889.872211990999
 20
-607.0216497216823
 30
0.0
 11
1885.622307736099
 21
-607.2443777658823
 31
0.0
  0
LINE
  5
60CA
330
1A
100
AcDbEntity
  8
CENTER_L
  6
CENTER
 62
     1
 48
5.0
100
AcDbLine
 10
1885.251752428599
 20
-593.3213112125823
 30
0.0
 11
1898.040852428599
 21
-593.3213112125823
 31
0.0
  0
ARC
  5
60CB
330
1A
100
AcDbEntity
  8
SEIHIN
100
AcDbCircle
 10
1893.821631805599
 20
-601.0346348900823
 30
0.0
 40
1.0
100
AcDbArc
 50
318.1989022741971
 51
107.7750946750018
  0
LINE
  5
60CC
330
1A
100
AcDbEntity
  8
SEIHIN
100
AcDbLine
 10
1885.344987972599
 20
-604.2547944408823
 30
0.0
 11
1889.715204122299
 21
-604.0257611174824
 31
0.0
  0
LINE
  5
60CD
330
1A
100
AcDbEntity
  8
SEIHIN
100
AcDbLine
 10
1883.865537655099
 20
-589.2213112125823
 30
0.0
 11
1875.348852428599
 21
-589.2213112125823
 31
0.0
  0
LINE
  5
60CE
330
1A
100
AcDbEntity
  8
SEIHIN
100
AcDbLine
 10
1875.348852428599
 20
-586.2213112125823
 30
0.0
 11
1891.348852428599
 21
-586.2213112125823
 31
0.0
  0
LINE
  5
60CF
330
1A
100
AcDbEntity
  8
SEIHIN
100
AcDbLine
 10
1894.502797814299
 20
-580.4705131532823
 30
0.0
 11
1875.453524341099
 21
-579.4721830335824
 31
0.0
  0
LINE
  5
60D0
330
1A
100
AcDbEntity
  8
SEIHIN
100
AcDbLine
 10
1859.348852428599
 20
-573.6213112125823
 30
0.0
 11
1889.872211990999
 21
-575.2209727035823
 31
0.0
  0
ARC
  5
60D1
330
1A
100
AcDbEntity
  8
SEIHIN
100
AcDbCircle
 10
1868.348852428599
 20
-581.1025876480823
 30
0.0
 40
2.0
100
AcDbArc
 50
0.0
 51
86.99999999990316
  0
ARC
  5
60D2
330
1A
100
AcDbEntity
  8
SEIHIN
100
AcDbCircle
 10
1863.848852428599
 20
-580.8667526413824
 30
0.0
 40
2.0
100
AcDbArc
 50
86.99999999990316
 51
180.0
  0
ARC
  5
60D3
330
1A
100
AcDbEntity
  8
SEIHIN
100
AcDbCircle
 10
1854.848852428599
 20
-580.7827214853823
 30
0.0
 40
2.0
100
AcDbArc
 50
0.0
 51
92.0000000000037
  0
ARC
  5
60D4
330
1A
100
AcDbEntity
  8
SEIHIN
100
AcDbCircle
 10
1875.348852428599
 20
-581.4694421030824
 30
0.0
 40
2.0
100
AcDbArc
 50
86.99999999990316
 51
180.0
  0
LINE
  5
60D5
330
1A
100
AcDbEntity
  8
SEIHIN
100
AcDbLine
 10
1868.348852428599
 20
-589.2213112125823
 30
0.0
 11
1863.848852428599
 21
-589.2213112125823
 31
0.0
  0
LINE
  5
60D6
330
1A
100
AcDbEntity
  8
SEIHIN
100
AcDbLine
 10
1863.848852428599
 20
-586.2213112125823
 30
0.0
 11
1868.348852428599
 21
-586.2213112125823
 31
0.0
  0
ARC
  5
60D7
330
1A
100
AcDbEntity
  8
SEIHIN
100
AcDbCircle
 10
1863.848852428599
 20
-584.2213112125823
 30
0.0
 40
2.0
100
AcDbArc
 50
180.0
 51
270.0
  0
LINE
  5
60D8
330
1A
100
AcDbEntity
  8
SEIHIN
100
AcDbLine
 10
1861.848852428599
 20
-580.8667526413824
 30
0.0
 11
1861.848852428599
 21
-584.2213112125823
 31
0.0
  0
ARC
  5
60D9
330
1A
100
AcDbEntity
  8
SEIHIN
100
AcDbCircle
 10
1863.848852428599
 20
-591.2213112125823
 30
0.0
 40
2.0
100
AcDbArc
 50
90.0
 51
180.0
  0
ARC
  5
60DA
330
1A
100
AcDbEntity
  8
SEIHIN
100
AcDbCircle
 10
1854.848852428599
 20
-584.2213112125823
 30
0.0
 40
2.0
100
AcDbArc
 50
270.0
 51
0.0
  0
LINE
  5
60DB
330
1A
100
AcDbEntity
  8
SEIHIN
100
AcDbLine
 10
1856.848852428599
 20
-584.2213112125823
 30
0.0
 11
1856.848852428599
 21
-580.7827214853823
 31
0.0
  0
LINE
  5
60DC
330
1A
100
AcDbEntity
  8
SEIHIN
100
AcDbLine
 10
1854.848852428599
 20
-589.2213112125823
 30
0.0
 11
1850.348852428699
 21
-589.2213112125823
 31
0.0
  0
LINE
  5
60DD
330
1A
100
AcDbEntity
  8
SEIHIN
100
AcDbLine
 10
1850.348852428699
 20
-586.2213112125823
 30
0.0
 11
1854.848852428599
 21
-586.2213112125823
 31
0.0
  0
ARC
  5
60DE
330
1A
100
AcDbEntity
  8
SEIHIN
100
AcDbCircle
 10
1854.848852428599
 20
-591.2213112125823
 30
0.0
 40
2.0
100
AcDbArc
 50
0.0
 51
90.0
  0
ARC
  5
60DF
330
1A
100
AcDbEntity
  8
SEIHIN
100
AcDbCircle
 10
1868.348852428599
 20
-584.2213112125823
 30
0.0
 40
2.0
100
AcDbArc
 50
270.0
 51
0.0
  0
LINE
  5
60E0
330
1A
100
AcDbEntity
  8
SEIHIN
100
AcDbLine
 10
1873.348852428599
 20
-581.4694421030824
 30
0.0
 11
1873.348852428599
 21
-584.2213112125823
 31
0.0
  0
LINE
  5
60E1
330
1A
100
AcDbEntity
  8
SEIHIN
100
AcDbLine
 10
1870.348852428599
 20
-584.2213112125823
 30
0.0
 11
1870.348852428599
 21
-581.1025876480823
 31
0.0
  0
ARC
  5
60E2
330
1A
100
AcDbEntity
  8
SEIHIN
100
AcDbCircle
 10
1868.348852428599
 20
-591.2213112125823
 30
0.0
 40
2.0
100
AcDbArc
 50
0.0
 51
90.0
  0
ARC
  5
60E3
330
1A
100
AcDbEntity
  8
SEIHIN
100
AcDbCircle
 10
1875.348852428599
 20
-584.2213112125823
 30
0.0
 40
2.0
100
AcDbArc
 50
180.0
 51
270.0
  0
ARC
  5
60E4
330
1A
100
AcDbEntity
  8
SEIHIN
100
AcDbCircle
 10
1875.348852428599
 20
-591.2213112125823
 30
0.0
 40
2.0
100
AcDbArc
 50
90.0
 51
180.0
  0
LINE
  5
60E5
330
1A
100
AcDbEntity
  8
SEIHIN
100
AcDbLine
 10
1868.453524341099
 20
-579.1053285785823
 30
0.0
 11
1863.953524341099
 21
-578.8694935718823
 31
0.0
  0
LINE
  5
60E6
330
1A
100
AcDbEntity
  8
SEIHIN
100
AcDbLine
 10
1854.779053435199
 20
-578.7839398313823
 30
0.0
 11
1850.279053435299
 21
-578.9410832940823
 31
0.0
  0
ARC
  5
60E7
330
1A
100
AcDbEntity
  8
SEIHIN
100
AcDbCircle
 10
1889.348852428599
 20
-585.2072680510823
 30
0.0
 40
7.0
100
AcDbArc
 50
0.0
 51
42.58469140269651
  0
ARC
  5
60E8
330
1A
100
AcDbEntity
  8
SEIHIN
100
AcDbCircle
 10
1889.348852428599
 20
-585.2072680510823
 30
0.0
 40
10.0
100
AcDbArc
 50
0.0
 51
86.99999999999457
  0
LINE
  5
60E9
330
1A
100
AcDbEntity
  8
SEIHIN
100
AcDbLine
 10
1896.348852428599
 20
-586.2778745514823
 30
0.0
 11
1896.348852428599
 21
-585.2072680510823
 31
0.0
  0
ARC
  5
60EA
330
1A
100
AcDbEntity
  8
SEIHIN
100
AcDbCircle
 10
1891.348852428599
 20
-593.3213112125823
 30
0.0
 40
7.099999999999999
100
AcDbArc
 50
60.40755832889801
 51
90.0
  0
ARC
  5
60EB
330
1A
100
AcDbEntity
  8
SEIHIN
100
AcDbCircle
 10
1895.348852428599
 20
-586.2778745514823
 30
0.0
 40
1.0
100
AcDbArc
 50
240.4075583288979
 51
0.0
  0
ARC
  5
60EC
330
1A
100
AcDbEntity
  8
SEIHIN
100
AcDbCircle
 10
1883.865537655099
 20
-590.2213112125823
 30
0.0
 40
1.0
100
AcDbArc
 50
337.4979771917987
 51
90.0
  0
LINE
  5
60ED
330
1A
100
AcDbEntity
  8
CENTER_L
  6
CENTER
 62
     1
 48
5.0
100
AcDbLine
 10
1513.219386348774
 20
-463.9146643175823
 30
0.0
 11
1668.715786348774
 21
-463.9146643175823
 31
0.0
  0
LINE
  5
60EE
330
1A
100
AcDbEntity
  8
SEIHIN
100
AcDbLine
 10
1650.429301088174
 20
-449.9145643175823
 30
0.0
 11
1524.847636297574
 21
-449.9145643175823
 31
0.0
  0
LINE
  5
60EF
330
1A
100
AcDbEntity
  8
SEIHIN
100
AcDbLine
 10
1650.408410737775
 20
-477.9145643175823
 30
0.0
 11
1525.194848865374
 21
-477.9145643175823
 31
0.0
  0
DIMENSION
  5
60F0
330
1A
100
AcDbEntity
  8
SUNPOU
100
AcDbDimension
  2
*D30
 10
1498.729440363693
 20
-477.9145643175823
 30
0.0
 11
1493.729440363693
 21
-463.9145643175821
 31
0.0
 70
    32
  3
STANDARD
100
AcDbAlignedDimension
 13
1524.562914240175
 23
-449.9145643175823
 33
0.0
 14
1523.318449861775
 24
-477.9145643175823
 34
0.0
 50
90.0
100
AcDbRotatedDimension
1001
ACAD
1000
DSTYLE
1002
{
1070
    41
1040
7.0
1070
    42
1040
6.0
1070
    43
1040
14.0
1070
    44
1040
3.0
1070
    73
1070
     0
1070
    74
1070
     0
1070
    77
1070
     3
1070
   140
1040
6.0
1070
   141
1040
150.0
1070
   147
1040
2.0
1070
   172
1070
     1
1070
   173
1070
     1
1070
   176
1070
   256
1070
   177
1070
   256
1070
   178
1070
   256
1070
   271
1070
     0
1070
   272
1070
     0
1070
   341
1005
6D
1070
     6
1000
OPEN
1070
     7
1000
OPEN
1070
   371
1070
    -1
1070
   372
1070
    -1
1002
}
  0
LINE
  5
60F1
330
1A
100
AcDbEntity
  8
SEIHIN
100
AcDbLine
 10
1525.883931123274
 20
-463.9145643175823
 30
0.0
 11
1525.194848865374
 21
-477.9145643175823
 31
0.0
  0
ARC
  5
60F2
330
1A
100
AcDbEntity
  8
SEIHIN
100
AcDbCircle
 10
1547.766752628275
 20
-463.9145643175823
 30
0.0
 40
30.0
100
AcDbArc
 50
154.6230664748041
 51
205.3769335251959
  0
LINE
  5
60F3
330
1A
100
AcDbEntity
  8
SEIHIN
100
AcDbLine
 10
1524.623039307474
 20
-477.9145643175823
 30
0.0
 11
1524.123292897175
 21
-477.9145643175823
 31
0.0
  0
LINE
  5
60F4
330
1A
100
AcDbEntity
  8
SEIHIN
100
AcDbLine
 10
1525.194848865374
 20
-477.9145643175823
 30
0.0
 11
1524.623039307474
 21
-477.9145643175823
 31
0.0
  0
LINE
  5
60F5
330
1A
100
AcDbEntity
  8
SEIHIN
100
AcDbLine
 10
1522.513606826375
 20
-477.9145643175823
 30
0.0
 11
1522.402584027675
 21
-477.9145643175823
 31
0.0
  0
LINE
  5
60F6
330
1A
100
AcDbEntity
  8
SEIHIN
100
AcDbLine
 10
1524.123292897175
 20
-477.9145643175823
 30
0.0
 11
1522.513606826375
 21
-477.9145643175823
 31
0.0
  0
ARC
  5
60F7
330
1A
100
AcDbEntity
  8
SEIHIN
100
AcDbCircle
 10
1522.468531346975
 20
-475.9145643175823
 30
0.0
 40
2.0
100
AcDbArc
 50
205.3769335251959
 51
270.0
  0
LINE
  5
60F8
330
1A
100
AcDbEntity
  8
SEIHIN
100
AcDbLine
 10
1524.847636297574
 20
-449.9145643175823
 30
0.0
 11
1525.881786040075
 21
-463.9145774584823
 31
0.0
  0
LINE
  5
60F9
330
1A
100
AcDbEntity
  8
SEIHIN
100
AcDbLine
 10
1524.278192182775
 20
-449.9145643175823
 30
0.0
 11
1524.847636297574
 21
-449.9145643175823
 31
0.0
  0
ARC
  5
60FA
330
1A
100
AcDbEntity
  8
SEIHIN
100
AcDbCircle
 10
1522.468531346975
 20
-451.9145643175823
 30
0.0
 40
2.0
100
AcDbArc
 50
90.0
 51
154.6230664748041
  0
LINE
  5
60FB
330
1A
100
AcDbEntity
  8
SEIHIN
100
AcDbLine
 10
1522.534771621675
 20
-449.9145643175823
 30
0.0
 11
1522.575286848275
 21
-449.9145643175823
 31
0.0
  0
LINE
  5
60FC
330
1A
100
AcDbEntity
  8
SEIHIN
100
AcDbLine
 10
1523.778762896775
 20
-449.9145643175823
 30
0.0
 11
1522.468531346975
 21
-449.9145643175823
 31
0.0
  0
LINE
  5
60FD
330
1A
100
AcDbEntity
  8
SEIHIN
100
AcDbLine
 10
1523.778762896775
 20
-449.9145643175823
 30
0.0
 11
1524.278192182775
 21
-449.9145643175823
 31
0.0
  0
DIMENSION
  5
60FE
330
1A
100
AcDbEntity
  8
SUNPOU
100
AcDbDimension
  2
*D31
 10
1698.450930218371
 20
-503.9145643175824
 30
0.0
 11
1693.450930218371
 21
-463.9145643175821
 31
0.0
 70
    32
  3
STANDARD
100
AcDbAlignedDimension
 13
1662.366686348774
 23
-423.9145643175823
 33
0.0
 14
1662.366686348774
 24
-503.9145643175823
 34
0.0
 50
90.0
100
AcDbRotatedDimension
1001
ACAD
1000
DSTYLE
1002
{
1070
    41
1040
7.0
1070
    42
1040
6.0
1070
    43
1040
14.0
1070
    44
1040
3.0
1070
    73
1070
     0
1070
    74
1070
     0
1070
    77
1070
     3
1070
   140
1040
6.0
1070
   141
1040
150.0
1070
   147
1040
2.0
1070
   172
1070
     1
1070
   173
1070
     1
1070
   176
1070
   256
1070
   177
1070
   256
1070
   178
1070
   256
1070
   271
1070
     0
1070
   272
1070
     0
1070
   341
1005
6D
1070
     6
1000
OPEN
1070
     7
1000
OPEN
1070
   371
1070
    -1
1070
   372
1070
    -1
1002
}
  0
LINE
  5
60FF
330
1A
100
AcDbEntity
  8
SEIHIN
100
AcDbLine
 10
1662.366686348774
 20
-503.9145643175823
 30
0.0
 11
1662.366686348774
 21
-423.9145643175823
 31
0.0
  0
ARC
  5
6100
330
1A
100
AcDbEntity
  8
SEIHIN
100
AcDbCircle
 10
1647.617851465275
 20
-444.9145643175823
 30
0.0
 40
5.0
100
AcDbArc
 50
270.0
 51
359.8111488243984
  0
ARC
  5
6101
330
1A
100
AcDbEntity
  8
SEIHIN
100
AcDbCircle
 10
1650.429301088174
 20
-444.9145643175823
 30
0.0
 40
5.0
100
AcDbArc
 50
270.0
 51
359.8111488246003
  0
LINE
  5
6102
330
1A
100
AcDbEntity
  8
SEIHIN
100
AcDbLine
 10
1652.650648209574
 20
-496.9037231079822
 30
0.0
 11
1652.622124439375
 21
-495.5598047506823
 31
0.0
  0
LINE
  5
6103
330
1A
100
AcDbEntity
  8
SEIHIN
100
AcDbLine
 10
1655.444102980774
 20
-496.0759648391823
 30
0.0
 11
1655.471181099875
 21
-497.8716052298824
 31
0.0
  0
LINE
  5
6104
330
1A
100
AcDbEntity
  8
SEIHIN
100
AcDbLine
 10
1655.895634153575
 20
-503.9145643175823
 30
0.0
 11
1662.366686348774
 21
-503.9145643175823
 31
0.0
  0
LINE
  5
6105
330
1A
100
AcDbEntity
  8
SEIHIN
100
AcDbLine
 10
1655.698075462074
 20
-502.9388923569824
 30
0.0
 11
1655.787630944375
 21
-503.6325215322823
 31
0.0
  0
LINE
  5
6106
330
1A
100
AcDbEntity
  8
SEIHIN
100
AcDbLine
 10
1655.787630944375
 20
-503.6325215322823
 30
0.0
 11
1655.895634153575
 21
-503.9145643175823
 31
0.0
  0
LINE
  5
6107
330
1A
100
AcDbEntity
  8
SEIHIN
100
AcDbLine
 10
1655.548458859674
 20
-500.5213391131824
 30
0.0
 11
1655.574307678374
 21
-501.1079623209822
 31
0.0
  0
LINE
  5
6108
330
1A
100
AcDbEntity
  8
SEIHIN
100
AcDbLine
 10
1655.574307678374
 20
-501.1079623209822
 30
0.0
 11
1655.626967706774
 21
-502.0414841661823
 31
0.0
  0
LINE
  5
6109
330
1A
100
AcDbEntity
  8
SEIHIN
100
AcDbLine
 10
1655.626967706774
 20
-502.0414841661823
 30
0.0
 11
1655.698075462074
 21
-502.9388923569824
 31
0.0
  0
LINE
  5
610A
330
1A
100
AcDbEntity
  8
SEIHIN
100
AcDbLine
 10
1652.694419073875
 20
-498.1380160469823
 30
0.0
 11
1652.650648209574
 21
-496.9037231079822
 31
0.0
  0
LINE
  5
610B
330
1A
100
AcDbEntity
  8
SEIHIN
100
AcDbLine
 10
1655.471181099875
 20
-497.8716052298824
 30
0.0
 11
1655.486582912574
 21
-498.5687783446823
 31
0.0
  0
LINE
  5
610C
330
1A
100
AcDbEntity
  8
SEIHIN
100
AcDbLine
 10
1653.045865633774
 20
-501.2284411684823
 30
0.0
 11
1652.985409460574
 21
-501.1373866847823
 31
0.0
  0
LINE
  5
610D
330
1A
100
AcDbEntity
  8
SEIHIN
100
AcDbLine
 10
1652.985409460574
 20
-501.1373866847823
 30
0.0
 11
1652.899912451775
 21
-500.7310388301823
 31
0.0
  0
LINE
  5
610E
330
1A
100
AcDbEntity
  8
SEIHIN
100
AcDbLine
 10
1652.899912451775
 20
-500.7310388301823
 30
0.0
 11
1652.820854323275
 21
-500.0791018019823
 31
0.0
  0
LINE
  5
610F
330
1A
100
AcDbEntity
  8
SEIHIN
100
AcDbLine
 10
1652.820854323275
 20
-500.0791018019823
 30
0.0
 11
1652.751727126175
 21
-499.2051828783823
 31
0.0
  0
LINE
  5
6110
330
1A
100
AcDbEntity
  8
SEIHIN
100
AcDbLine
 10
1655.504596476775
 20
-499.2463263981823
 30
0.0
 11
1655.525221792574
 21
-499.8989754421823
 31
0.0
  0
LINE
  5
6111
330
1A
100
AcDbEntity
  8
SEIHIN
100
AcDbLine
 10
1652.751727126175
 20
-499.2051828783823
 30
0.0
 11
1652.694419073875
 21
-498.1380160469823
 31
0.0
  0
LINE
  5
6112
330
1A
100
AcDbEntity
  8
SEIHIN
100
AcDbLine
 10
1655.486582912574
 20
-498.5687783446823
 30
0.0
 11
1655.504596476775
 21
-499.2463263981823
 31
0.0
  0
LINE
  5
6113
330
1A
100
AcDbEntity
  8
SEIHIN
100
AcDbLine
 10
1653.045548509375
 20
-501.2573255202823
 30
0.0
 11
1655.874977639674
 21
-503.9057240205823
 31
0.0
  0
LINE
  5
6114
330
1A
100
AcDbEntity
  8
SEIHIN
100
AcDbLine
 10
1655.525221792574
 20
-499.8989754421823
 30
0.0
 11
1655.548458859674
 21
-500.5213391131824
 31
0.0
  0
LINE
  5
6115
330
1A
100
AcDbEntity
  8
CENTER_L
  6
CENTER
 62
     1
 48
5.0
100
AcDbLine
 10
1645.449739847631
 20
-495.9146643175822
 30
0.0
 11
1668.715786348774
 21
-495.9146643175823
 31
0.0
  0
LINE
  5
6116
330
1A
100
AcDbEntity
  8
SEIHIN
100
AcDbLine
 10
1655.408398678675
 20
-482.9035829699823
 30
0.0
 11
1655.433348308575
 21
-494.2635592845824
 31
0.0
  0
LINE
  5
6117
330
1A
100
AcDbEntity
  8
SEIHIN
100
AcDbLine
 10
1652.610767756375
 20
-494.1712440187823
 30
0.0
 11
1652.586020876174
 21
-482.9035829699823
 31
0.0
  0
LINE
  5
6118
330
1A
100
AcDbEntity
  8
SEIHIN
100
AcDbLine
 10
1655.433348308575
 20
-494.2635592845824
 30
0.0
 11
1655.444102980774
 21
-496.0759648391823
 31
0.0
  0
LINE
  5
6119
330
1A
100
AcDbEntity
  8
SEIHIN
100
AcDbLine
 10
1652.622124439375
 20
-495.5598047506823
 30
0.0
 11
1652.610767756375
 21
-494.1712440187823
 31
0.0
  0
ARC
  5
611A
330
1A
100
AcDbEntity
  8
SEIHIN
100
AcDbCircle
 10
1647.586032935274
 20
-482.9145643175823
 30
0.0
 40
5.0
100
AcDbArc
 50
0.1258370751010458
 51
90.0
  0
ARC
  5
611B
330
1A
100
AcDbEntity
  8
SEIHIN
100
AcDbCircle
 10
1650.408410737775
 20
-482.9145643175823
 30
0.0
 40
5.0
100
AcDbArc
 50
0.1258370751010458
 51
90.0
  0
LINE
  5
611C
330
1A
100
AcDbEntity
  8
CENTER_L
  6
CENTER
 62
     1
 48
5.0
100
AcDbLine
 10
1645.474018315567
 20
-431.9146643175823
 30
0.0
 11
1668.715786348774
 21
-431.9146643175823
 31
0.0
  0
LINE
  5
611D
330
1A
100
AcDbEntity
  8
SEIHIN
100
AcDbLine
 10
1655.918421253775
 20
-423.9145643175823
 30
0.0
 11
1662.366686348774
 21
-423.9145643175823
 31
0.0
  0
LINE
  5
611E
330
1A
100
AcDbEntity
  8
SEIHIN
100
AcDbLine
 10
1655.814092693674
 20
-424.1903117452824
 30
0.0
 11
1655.727491427574
 21
-424.8686644413823
 31
0.0
  0
LINE
  5
611F
330
1A
100
AcDbEntity
  8
SEIHIN
100
AcDbLine
 10
1655.897458054175
 20
-423.9242232374824
 30
0.0
 11
1653.077898908075
 21
-426.7455463976823
 31
0.0
  0
LINE
  5
6120
330
1A
100
AcDbEntity
  8
SEIHIN
100
AcDbLine
 10
1655.467310241275
 20
-433.3912047551823
 30
0.0
 11
1655.429273927975
 21
-444.9310446617824
 31
0.0
  0
LINE
  5
6121
330
1A
100
AcDbEntity
  8
SEIHIN
100
AcDbLine
 10
1652.617824305075
 20
-444.9310446617824
 30
0.0
 11
1652.655374590275
 21
-433.5386608682822
 31
0.0
  0
LINE
  5
6122
330
1A
100
AcDbEntity
  8
SEIHIN
100
AcDbLine
 10
1655.625802173375
 20
-426.2995746362824
 30
0.0
 11
1655.607470777375
 21
-426.6608206074823
 31
0.0
  0
LINE
  5
6123
330
1A
100
AcDbEntity
  8
SEIHIN
100
AcDbLine
 10
1655.727491427574
 20
-424.8686644413823
 30
0.0
 11
1655.697814563474
 21
-425.2060791285822
 31
0.0
  0
LINE
  5
6124
330
1A
100
AcDbEntity
  8
SEIHIN
100
AcDbLine
 10
1655.697814563474
 20
-425.2060791285822
 30
0.0
 11
1655.670974066374
 21
-425.5636635337823
 31
0.0
  0
LINE
  5
6125
330
1A
100
AcDbEntity
  8
SEIHIN
100
AcDbLine
 10
1655.670974066374
 20
-425.5636635337823
 30
0.0
 11
1655.646969936374
 21
-425.9311937214823
 31
0.0
  0
LINE
  5
6126
330
1A
100
AcDbEntity
  8
SEIHIN
100
AcDbLine
 10
1655.646969936374
 20
-425.9311937214823
 30
0.0
 11
1655.625802173375
 21
-426.2995746362824
 31
0.0
  0
LINE
  5
6127
330
1A
100
AcDbEntity
  8
SEIHIN
100
AcDbLine
 10
1655.607470777375
 20
-426.6608206074823
 30
0.0
 11
1655.549082972974
 21
-428.1639525325823
 31
0.0
  0
LINE
  5
6128
330
1A
100
AcDbEntity
  8
SEIHIN
100
AcDbLine
 10
1652.862636877375
 20
-427.8693370881823
 30
0.0
 11
1652.939222954574
 21
-427.2460141274824
 31
0.0
  0
LINE
  5
6129
330
1A
100
AcDbEntity
  8
SEIHIN
100
AcDbLine
 10
1652.939222954574
 20
-427.2460141274824
 30
0.0
 11
1653.021813288875
 21
-426.8581339669823
 31
0.0
  0
LINE
  5
612A
330
1A
100
AcDbEntity
  8
SEIHIN
100
AcDbLine
 10
1653.021813288875
 20
-426.8581339669823
 30
0.0
 11
1653.078216920874
 21
-426.7741482593823
 31
0.0
  0
LINE
  5
612B
330
1A
100
AcDbEntity
  8
SEIHIN
100
AcDbLine
 10
1655.506260282175
 20
-429.8383949366823
 30
0.0
 11
1655.479002704974
 21
-431.6049101236822
 31
0.0
  0
LINE
  5
612C
330
1A
100
AcDbEntity
  8
SEIHIN
100
AcDbLine
 10
1655.479002704974
 20
-431.6049101236822
 30
0.0
 11
1655.467310241275
 21
-433.3912047551823
 31
0.0
  0
LINE
  5
612D
330
1A
100
AcDbEntity
  8
SEIHIN
100
AcDbLine
 10
1652.655374590275
 20
-433.5386608682822
 30
0.0
 11
1652.667723112675
 21
-432.2012893097823
 31
0.0
  0
LINE
  5
612E
330
1A
100
AcDbEntity
  8
SEIHIN
100
AcDbLine
 10
1652.667723112675
 20
-432.2012893097823
 30
0.0
 11
1652.696408561875
 21
-430.9097279819823
 31
0.0
  0
LINE
  5
612F
330
1A
100
AcDbEntity
  8
SEIHIN
100
AcDbLine
 10
1652.696408561875
 20
-430.9097279819823
 30
0.0
 11
1652.739530747775
 21
-429.7270816903822
 31
0.0
  0
LINE
  5
6130
330
1A
100
AcDbEntity
  8
SEIHIN
100
AcDbLine
 10
1652.739530747775
 20
-429.7270816903822
 30
0.0
 11
1652.795535126275
 21
-428.7045567494823
 31
0.0
  0
LINE
  5
6131
330
1A
100
AcDbEntity
  8
SEIHIN
100
AcDbLine
 10
1652.795535126275
 20
-428.7045567494823
 30
0.0
 11
1652.862636877375
 21
-427.8693370881823
 31
0.0
  0
LINE
  5
6132
330
1A
100
AcDbEntity
  8
SEIHIN
100
AcDbLine
 10
1655.549082972974
 20
-428.1639525325823
 30
0.0
 11
1655.506260282175
 21
-429.8383949366823
 31
0.0
  0
LINE
  5
6133
330
1A
100
AcDbEntity
  8
SEIHIN
100
AcDbLine
 10
1655.918421253775
 20
-423.9145643175823
 30
0.0
 11
1655.814092693674
 21
-424.1903117452824
 31
0.0
  0
LINE
  5
627F
102
{ACAD_REACTORS
330
6282
102
}
330
1A
100
AcDbEntity
  8
KEIJYO
 62
   251
100
AcDbLine
 10
1524.505199035177
 20
-574.9860824831256
 30
0.0
 11
1526.062833823835
 21
-574.9860824831256
 31
0.0
  0
LINE
  5
6280
102
{ACAD_REACTORS
330
6282
102
}
330
1A
100
AcDbEntity
  8
KEIJYO
 62
   251
100
AcDbLine
 10
1525.284016429506
 20
-574.2072650887968
 30
0.0
 11
1525.284016429506
 21
-575.7648998774543
 31
0.0
  0
CIRCLE
  5
6281
102
{ACAD_REACTORS
330
6282
102
}
330
1A
100
AcDbEntity
  8
KEIJYO
 62
   251
100
AcDbCircle
 10
1525.284016429506
 20
-574.9860824831256
 30
0.0
 40
0.7788173943287319
  0
LINE
  5
6350
330
1A
100
AcDbEntity
  8
SEIHIN
100
AcDbLine
 10
1658.366686348775
 20
-642.9771634488197
 30
0.0
 11
1658.366686348774
 21
-613.2613322475507
 31
0.0
  0
ARC
  5
6351
330
1A
100
AcDbEntity
  8
SEIHIN
100
AcDbCircle
 10
1652.57944553728
 20
-643.189742962141
 30
0.0
 40
5.79114377819371
100
AcDbArc
 50
298.7699274235982
 51
2.103668353483943
  0
VIEWPORT
  5
22
330
17
100
AcDbEntity
 67
     1
  8
0
100
AcDbViewport
 10
313.6808219178082
 20
148.5
 30
0.0
 40
627.3616438356165
 41
297.0
 68
     2
 69
     1
1001
ACAD
1000
MVIEW
1002
{
1070
    16
1010
0.0
1020
0.0
1030
0.0
1010
0.0
1020
0.0
1030
1.0
1040
0.0
1040
297.0
1040
313.6808219178082
1040
148.5
1040
50.0
1040
0.0
1040
0.0
1070
     0
1070
   100
1070
     1
1070
     0
1070
     0
1070
     0
1070
     0
1070
     0
1040
0.0
1040
0.0
1040
0.0
1040
1.0
1040
1.0
1040
10.0
1040
10.0
1070
     0
1002
{
1002
}
1002
}
  0
VIEWPORT
  5
64
330
17
100
AcDbEntity
 67
     1
  8
VIEWPORT
100
AcDbViewport
 10
210.0
 20
148.5
 30
0.0
 40
420.0
 41
297.0
 68
     1
 69
     2
1001
ACAD
1000
MVIEW
1002
{
1070
    16
1010
0.0
1020
0.0
1030
0.0
1010
0.0
1020
0.0
1030
1.0
1040
0.0
1040
605.8799999999997
1040
420.0
1040
297.0
1040
50.0
1040
0.0
1040
0.0
1070
     0
1070
   100
1070
     1
1070
     0
1070
     0
1070
     0
1070
     0
1070
     0
1040
0.0
1040
0.0
1040
0.0
1040
10.0
1040
10.0
1040
0.0
1040
0.0
1070
     0
1002
{
1002
}
1002
}
  0
ENDSEC
  0
SECTION
  2
OBJECTS
  0
DICTIONARY
  5
C
330
0
100
AcDbDictionary
  3
ACAD_GROUP
350
D
  3
ACAD_LAYOUT
350
85F
  3
ACAD_MLINESTYLE
350
E
  3
ACAD_PLOTSETTINGS
350
860
  3
ACAD_PLOTSTYLENAME
350
85D
  3
ACDBHEADERROUNDTRIPXREC
350
6368
  0
DICTIONARY
  5
4C3C
330
2
100
AcDbDictionary
280
     1
  3
ACAD_LAYERFILTERS
360
4C3D
  0
DICTIONARY
  5
88E
330
1A
100
AcDbDictionary
280
     1
  3
ACAD_LAYOUTSELFREF
360
638A
  0
DICTIONARY
  5
88C
330
17
100
AcDbDictionary
280
     1
  3
ACAD_LAYOUTSELFREF
360
6389
  0
DICTIONARY
  5
D
102
{ACAD_REACTORS
330
C
102
}
330
C
100
AcDbDictionary
  3
*A1
350
2006
  3
*A2
350
356D
  3
*A3
350
35A3
  3
*A4
350
4E20
  3
*A5
350
5721
  3
*A6
350
5C7B
  3
*A7
350
6282
  0
DICTIONARY
  5
85F
102
{ACAD_REACTORS
330
C
102
}
330
C
100
AcDbDictionary
  0
DICTIONARY
  5
E
102
{ACAD_REACTORS
330
C
102
}
330
C
100
AcDbDictionary
  3
STANDARD
350
13
  0
DICTIONARY
  5
860
102
{ACAD_REACTORS
330
C
102
}
330
C
100
AcDbDictionary
  0
ACDBDICTIONARYWDFLT
  5
85D
102
{ACAD_REACTORS
330
C
102
}
330
C
100
AcDbDictionary
281
     1
  3
Normal
350
85E
100
AcDbDictionaryWithDefault
340
85E
1001
ACAD
1000
TREAT_AS_HARD
1070
     0
1000
TREAT_AS_HARD
1070
     0
1000
TREAT_AS_HARD
1070
     0
1000
TREAT_AS_HARD
1070
     0
1000
TREAT_AS_HARD
1070
     0
1000
TREAT_AS_HARD
1070
     0
1000
TREAT_AS_HARD
1070
     0
1000
TREAT_AS_HARD
1070
     0
1000
TREAT_AS_HARD
1070
     0
  0
DICTIONARY
  5
6368
102
{ACAD_REACTORS
330
C
102
}
330
C
100
AcDbDictionary
  3
TSTACKALIGN
350
6369
  3
TSTACKSIZE
350
636A
  3
HYPERLINKBASE
350
636B
  3
STYLESHEET
350
636C
  3
LAYOUTDICT
350
636D
  3
PLOTSETDICT
350
636E
  3
PLOTSTYLNAMDICT
350
636F
  3
LWETCUNION
350
6370
  3
INSUNITS
350
6371
  3
CEPSNTYPE
350
6372
  3
FINGERPRINTGUID
350
6373
  3
VERSIONGUID
350
6374
  3
PSVPSCALE
350
6375
  3
DIMSTYLEDATA
350
6376
  3
PUCSORTHOREF
350
6377
  3
PUCSORTHOVIEW
350
6378
  3
PUCSBASE
350
6379
  3
PUCSORGTOP
350
637A
  3
PUCSORGBOTTOM
350
637B
  3
PUCSORGLEFT
350
637C
  3
PUCSORGRIGHT
350
637D
  3
PUCSORGFRONT
350
637E
  3
PUCSORGBACK
350
637F
  3
UCSORTHOREF
350
6380
  3
UCSORTHOVIEW
350
6381
  3
UCSBASE
350
6382
  3
UCSORGTOP
350
6383
  3
UCSORGBOTTOM
350
6384
  3
UCSORGLEFT
350
6385
  3
UCSORGRIGHT
350
6386
  3
UCSORGFRONT
350
6387
  3
UCSORGBACK
350
6388
  0
DICTIONARY
  5
4C3D
102
{ACAD_REACTORS
330
4C3C
102
}
330
4C3C
100
AcDbDictionary
280
     1
  3
50
360
4C3E
  0
XRECORD
  5
638A
102
{ACAD_REACTORS
330
88E
102
}
330
88E
100
AcDbXrecord
340
1A
  0
XRECORD
  5
6389
102
{ACAD_REACTORS
330
88C
102
}
330
88C
100
AcDbXrecord
340
17
  0
GROUP
  5
2006
102
{ACAD_REACTORS
330
D
102
}
330
D
100
AcDbGroup
300

 70
     1
 71
     1
  0
GROUP
  5
356D
102
{ACAD_REACTORS
330
D
102
}
330
D
100
AcDbGroup
300

 70
     1
 71
     1
  0
GROUP
  5
35A3
102
{ACAD_REACTORS
330
D
102
}
330
D
100
AcDbGroup
300

 70
     1
 71
     1
  0
GROUP
  5
4E20
102
{ACAD_REACTORS
330
D
102
}
330
D
100
AcDbGroup
300

 70
     1
 71
     1
  0
GROUP
  5
5721
102
{ACAD_REACTORS
330
D
102
}
330
D
100
AcDbGroup
300

 70
     1
 71
     1
  0
GROUP
  5
5C7B
102
{ACAD_REACTORS
330
D
102
}
330
D
100
AcDbGroup
300

 70
     1
 71
     1
  0
GROUP
  5
6282
102
{ACAD_REACTORS
330
D
102
}
330
D
100
AcDbGroup
300

 70
     1
 71
     1
340
6280
340
6281
340
627F
  0
MLINESTYLE
  5
13
102
{ACAD_REACTORS
330
E
102
}
330
E
100
AcDbMlineStyle
  2
STANDARD
 70
     0
  3

 62
     0
 51
90.0
 52
90.0
 71
     2
 49
0.5
 62
   256
  6
BYLAYER
 49
-0.5
 62
   256
  6
BYLAYER
  0
ACDBPLACEHOLDER
  5
85E
102
{ACAD_REACTORS
330
85D
102
}
330
85D
100
AcDbPlaceHolder
280
     0
  0
XRECORD
  5
6369
102
{ACAD_REACTORS
330
6368
102
}
330
6368
100
AcDbXrecord
 90
        1
  0
XRECORD
  5
636A
102
{ACAD_REACTORS
330
6368
102
}
330
6368
100
AcDbXrecord
 90
       70
  0
XRECORD
  5
636B
102
{ACAD_REACTORS
330
6368
102
}
330
6368
100
AcDbXrecord
  1

  0
XRECORD
  5
636C
102
{ACAD_REACTORS
330
6368
102
}
330
6368
100
AcDbXrecord
  1
systemprinter.ctb
  0
XRECORD
  5
636D
102
{ACAD_REACTORS
330
6368
102
}
330
6368
100
AcDbXrecord
340
85F
  0
XRECORD
  5
636E
102
{ACAD_REACTORS
330
6368
102
}
330
6368
100
AcDbXrecord
340
860
  0
XRECORD
  5
636F
102
{ACAD_REACTORS
330
6368
102
}
330
6368
100
AcDbXrecord
340
85D
  0
XRECORD
  5
6370
102
{ACAD_REACTORS
330
6368
102
}
330
6368
100
AcDbXrecord
 90
    10781
  0
XRECORD
  5
6371
102
{ACAD_REACTORS
330
6368
102
}
330
6368
100
AcDbXrecord
 90
        0
  0
XRECORD
  5
6372
102
{ACAD_REACTORS
330
6368
102
}
330
6368
100
AcDbXrecord
 90
        0
  0
XRECORD
  5
6373
102
{ACAD_REACTORS
330
6368
102
}
330
6368
100
AcDbXrecord
  1
{FF3C30AF-89FB-45B1-9067-596B98B489D4}
  0
XRECORD
  5
6374
102
{ACAD_REACTORS
330
6368
102
}
330
6368
100
AcDbXrecord
  1
{11AB5052-9DE5-442B-8A1D-09137AD5FD0E}
  0
XRECORD
  5
6375
102
{ACAD_REACTORS
330
6368
102
}
330
6368
100
AcDbXrecord
 40
0.0
  0
XRECORD
  5
6376
102
{ACAD_REACTORS
330
6368
102
}
330
6368
100
AcDbXrecord
1000
DSTYLE
1002
{
1070
   341
340
6D
1070
   343
340
6D
1070
   344
340
6D
1070
   371
 70
    -1
1070
   372
 70
    -1
1002
}
  0
XRECORD
  5
6377
102
{ACAD_REACTORS
330
6368
102
}
330
6368
100
AcDbXrecord
340
0
  0
XRECORD
  5
6378
102
{ACAD_REACTORS
330
6368
102
}
330
6368
100
AcDbXrecord
 70
     0
  0
XRECORD
  5
6379
102
{ACAD_REACTORS
330
6368
102
}
330
6368
100
AcDbXrecord
340
0
  0
XRECORD
  5
637A
102
{ACAD_REACTORS
330
6368
102
}
330
6368
100
AcDbXrecord
 10
0.0
 20
0.0
 30
0.0
  0
XRECORD
  5
637B
102
{ACAD_REACTORS
330
6368
102
}
330
6368
100
AcDbXrecord
 10
0.0
 20
0.0
 30
0.0
  0
XRECORD
  5
637C
102
{ACAD_REACTORS
330
6368
102
}
330
6368
100
AcDbXrecord
 10
0.0
 20
0.0
 30
0.0
  0
XRECORD
  5
637D
102
{ACAD_REACTORS
330
6368
102
}
330
6368
100
AcDbXrecord
 10
0.0
 20
0.0
 30
0.0
  0
XRECORD
  5
637E
102
{ACAD_REACTORS
330
6368
102
}
330
6368
100
AcDbXrecord
 10
0.0
 20
0.0
 30
0.0
  0
XRECORD
  5
637F
102
{ACAD_REACTORS
330
6368
102
}
330
6368
100
AcDbXrecord
 10
0.0
 20
0.0
 30
0.0
  0
XRECORD
  5
6380
102
{ACAD_REACTORS
330
6368
102
}
330
6368
100
AcDbXrecord
340
0
  0
XRECORD
  5
6381
102
{ACAD_REACTORS
330
6368
102
}
330
6368
100
AcDbXrecord
 70
     0
  0
XRECORD
  5
6382
102
{ACAD_REACTORS
330
6368
102
}
330
6368
100
AcDbXrecord
340
0
  0
XRECORD
  5
6383
102
{ACAD_REACTORS
330
6368
102
}
330
6368
100
AcDbXrecord
 10
0.0
 20
0.0
 30
0.0
  0
XRECORD
  5
6384
102
{ACAD_REACTORS
330
6368
102
}
330
6368
100
AcDbXrecord
 10
0.0
 20
0.0
 30
0.0
  0
XRECORD
  5
6385
102
{ACAD_REACTORS
330
6368
102
}
330
6368
100
AcDbXrecord
 10
0.0
 20
0.0
 30
0.0
  0
XRECORD
  5
6386
102
{ACAD_REACTORS
330
6368
102
}
330
6368
100
AcDbXrecord
 10
0.0
 20
0.0
 30
0.0
  0
XRECORD
  5
6387
102
{ACAD_REACTORS
330
6368
102
}
330
6368
100
AcDbXrecord
 10
0.0
 20
0.0
 30
0.0
  0
XRECORD
  5
6388
102
{ACAD_REACTORS
330
6368
102
}
330
6368
100
AcDbXrecord
 10
0.0
 20
0.0
 30
0.0
  0
XRECORD
  5
4C3E
102
{ACAD_REACTORS
330
4C3D
102
}
330
4C3D
100
AcDbXrecord
  1
50
  1
*-50
  1
*
  1
*
 70
     0
  1
*
  1
*
  0
ENDSEC
  0
EOF
