  0
SECTION
  2
HEADER
  9
$ACADVER
  1
AC1015
  9
$ACADMAINTVER
 70
     6
  9
$DWGCODEPAGE
  3
DOS932
  9
$INSBASE
 10
0.0
 20
0.0
 30
0.0
  9
$EXTMIN
 10
9.971925795511424
 20
9.997285330199247
 30
-0.0000000100019834
  9
$EXTMAX
 10
807.6617450821932
 20
561.6153272730476
 30
0.0000000100019837
  9
$LIMMIN
 10
0.0
 20
0.0
  9
$LIMMAX
 10
840.0
 20
594.0
  9
$ORTHOMODE
 70
     0
  9
$REGENMODE
 70
     1
  9
$FILLMODE
 70
     1
  9
$QTEXTMODE
 70
     0
  9
$MIRRTEXT
 70
     1
  9
$LTSCALE
 40
2.0
  9
$ATTMODE
 70
     1
  9
$TEXTSIZE
 40
5.0
  9
$TRACEWID
 40
1.0
  9
$TEXTSTYLE
  7
STANDARD
  9
$CLAYER
  8
0
  9
$CELTYPE
  6
BYLAYER
  9
$CECOLOR
 62
   256
  9
$CELTSCALE
 40
1.0
  9
$DISPSILH
 70
     0
  9
$DIMSCALE
 40
1.0
  9
$DIMASZ
 40
7.0
  9
$DIMEXO
 40
6.0
  9
$DIMDLI
 40
14.0
  9
$DIMRND
 40
0.0
  9
$DIMDLE
 40
0.0
  9
$DIMEXE
 40
3.0
  9
$DIMTP
 40
0.0
  9
$DIMTM
 40
0.0
  9
$DIMTXT
 40
6.0
  9
$DIMCEN
 40
150.0
  9
$DIMTSZ
 40
0.0
  9
$DIMTOL
 70
     0
  9
$DIMLIM
 70
     0
  9
$DIMTIH
 70
     0
  9
$DIMTOH
 70
     0
  9
$DIMSE1
 70
     0
  9
$DIMSE2
 70
     0
  9
$DIMTAD
 70
     3
  9
$DIMZIN
 70
     0
  9
$DIMBLK
  1

  9
$DIMASO
 70
     1
  9
$DIMSHO
 70
     1
  9
$DIMPOST
  1

  9
$DIMAPOST
  1

  9
$DIMALT
 70
     0
  9
$DIMALTD
 70
     2
  9
$DIMALTF
 40
25.4
  9
$DIMLFAC
 40
1.0
  9
$DIMTOFL
 70
     1
  9
$DIMTVP
 40
0.0
  9
$DIMTIX
 70
     0
  9
$DIMSOXD
 70
     0
  9
$DIMSAH
 70
     1
  9
$DIMBLK1
  1
OPEN
  9
$DIMBLK2
  1
OPEN
  9
$DIMSTYLE
  2
STANDARD
  9
$DIMCLRD
 70
   256
  9
$DIMCLRE
 70
   256
  9
$DIMCLRT
 70
   256
  9
$DIMTFAC
 40
1.0
  9
$DIMGAP
 40
2.0
  9
$DIMJUST
 70
     0
  9
$DIMSD1
 70
     0
  9
$DIMSD2
 70
     0
  9
$DIMTOLJ
 70
     1
  9
$DIMTZIN
 70
     0
  9
$DIMALTZ
 70
     0
  9
$DIMALTTZ
 70
     0
  9
$DIMUPT
 70
     0
  9
$DIMDEC
 70
     0
  9
$DIMTDEC
 70
     0
  9
$DIMALTU
 70
     2
  9
$DIMALTTD
 70
     2
  9
$DIMTXSTY
  7
STANDARD
  9
$DIMAUNIT
 70
     0
  9
$DIMADEC
 70
     0
  9
$DIMALTRND
 40
0.0
  9
$DIMAZIN
 70
     0
  9
$DIMDSEP
 70
    46
  9
$DIMATFIT
 70
     3
  9
$DIMFRAC
 70
     0
  9
$DIMLDRBLK
  1
OPEN
  9
$DIMLUNIT
 70
     2
  9
$DIMLWD
 70
    -1
  9
$DIMLWE
 70
    -1
  9
$DIMTMOVE
 70
     0
  9
$LUNITS
 70
     2
  9
$LUPREC
 70
     4
  9
$SKETCHINC
 40
1.0
  9
$FILLETRAD
 40
0.1
  9
$AUNITS
 70
     0
  9
$AUPREC
 70
     0
  9
$MENU
  1
.
  9
$ELEVATION
 40
0.0
  9
$PELEVATION
 40
0.0
  9
$THICKNESS
 40
0.0
  9
$LIMCHECK
 70
     0
  9
$CHAMFERA
 40
0.0
  9
$CHAMFERB
 40
0.0
  9
$CHAMFERC
 40
40.0
  9
$CHAMFERD
 40
0.0
  9
$SKPOLY
 70
     0
  9
$TDCREATE
 40
2451030.317521991
  9
$TDUCREATE
 40
2451029.942521991
  9
$TDUPDATE
 40
2454747.839493055
  9
$TDUUPDATE
 40
2454747.464493055
  9
$TDINDWG
 40
0.2413573264
  9
$TDUSRTIMER
 40
0.2413567824
  9
$USRTIMER
 70
     1
  9
$ANGBASE
 50
0.0
  9
$ANGDIR
 70
     0
  9
$PDMODE
 70
     0
  9
$PDSIZE
 40
0.0
  9
$PLINEWID
 40
0.0
  9
$SPLFRAME
 70
     0
  9
$SPLINETYPE
 70
     6
  9
$SPLINESEGS
 70
     8
  9
$HANDSEED
  5
53C5
  9
$SURFTAB1
 70
     6
  9
$SURFTAB2
 70
     6
  9
$SURFTYPE
 70
     6
  9
$SURFU
 70
     6
  9
$SURFV
 70
     6
  9
$UCSBASE
  2

  9
$UCSNAME
  2

  9
$UCSORG
 10
0.0
 20
0.0
 30
0.0
  9
$UCSXDIR
 10
1.0
 20
0.0
 30
0.0
  9
$UCSYDIR
 10
0.0
 20
1.0
 30
0.0
  9
$UCSORTHOREF
  2

  9
$UCSORTHOVIEW
 70
     0
  9
$UCSORGTOP
 10
0.0
 20
0.0
 30
0.0
  9
$UCSORGBOTTOM
 10
0.0
 20
0.0
 30
0.0
  9
$UCSORGLEFT
 10
0.0
 20
0.0
 30
0.0
  9
$UCSORGRIGHT
 10
0.0
 20
0.0
 30
0.0
  9
$UCSORGFRONT
 10
0.0
 20
0.0
 30
0.0
  9
$UCSORGBACK
 10
0.0
 20
0.0
 30
0.0
  9
$PUCSBASE
  2

  9
$PUCSNAME
  2

  9
$PUCSORG
 10
0.0
 20
0.0
 30
0.0
  9
$PUCSXDIR
 10
1.0
 20
0.0
 30
0.0
  9
$PUCSYDIR
 10
0.0
 20
1.0
 30
0.0
  9
$PUCSORTHOREF
  2

  9
$PUCSORTHOVIEW
 70
     0
  9
$PUCSORGTOP
 10
0.0
 20
0.0
 30
0.0
  9
$PUCSORGBOTTOM
 10
0.0
 20
0.0
 30
0.0
  9
$PUCSORGLEFT
 10
0.0
 20
0.0
 30
0.0
  9
$PUCSORGRIGHT
 10
0.0
 20
0.0
 30
0.0
  9
$PUCSORGFRONT
 10
0.0
 20
0.0
 30
0.0
  9
$PUCSORGBACK
 10
0.0
 20
0.0
 30
0.0
  9
$USERI1
 70
     0
  9
$USERI2
 70
     0
  9
$USERI3
 70
     0
  9
$USERI4
 70
     0
  9
$USERI5
 70
     0
  9
$USERR1
 40
0.0
  9
$USERR2
 40
0.0
  9
$USERR3
 40
0.0
  9
$USERR4
 40
0.0
  9
$USERR5
 40
0.0
  9
$WORLDVIEW
 70
     1
  9
$SHADEDGE
 70
     3
  9
$SHADEDIF
 70
    70
  9
$TILEMODE
 70
     1
  9
$MAXACTVP
 70
    16
  9
$PINSBASE
 10
0.0
 20
0.0
 30
0.0
  9
$PLIMCHECK
 70
     0
  9
$PEXTMIN
 10
0.0
 20
0.0
 30
0.0
  9
$PEXTMAX
 10
420.0
 20
297.0
 30
0.0
  9
$PLIMMIN
 10
0.0
 20
0.0
  9
$PLIMMAX
 10
420.0
 20
297.0
  9
$UNITMODE
 70
     0
  9
$VISRETAIN
 70
     0
  9
$PLINEGEN
 70
     0
  9
$PSLTSCALE
 70
     1
  9
$TREEDEPTH
 70
  3020
  9
$CMLSTYLE
  2
STANDARD
  9
$CMLJUST
 70
     0
  9
$CMLSCALE
 40
1.0
  9
$PROXYGRAPHICS
 70
     1
  9
$MEASUREMENT
 70
     1
  9
$CELWEIGHT
370
    -1
  9
$ENDCAPS
280
     0
  9
$JOINSTYLE
280
     0
  9
$LWDISPLAY
290
     0
  9
$INSUNITS
 70
     0
  9
$HYPERLINKBASE
  1

  9
$STYLESHEET
  1
print.ctb
  9
$XEDIT
290
     1
  9
$CEPSNTYPE
380
     0
  9
$PSTYLEMODE
290
     1
  9
$FINGERPRINTGUID
  2
{FF3C30AF-89FB-45B1-9067-596B98B489D4}
  9
$VERSIONGUID
  2
{58CD840F-F64C-47BB-B3AD-9185C5D464C4}
  9
$EXTNAMES
290
     1
  9
$PSVPSCALE
 40
0.0
  9
$OLESTARTUP
290
     0
  0
ENDSEC
  0
SECTION
  2
CLASSES
  0
CLASS
  1
ACDBDICTIONARYWDFLT
  2
AcDbDictionaryWithDefault
  3
ObjectDBX Classes
 90
        0
280
     0
281
     0
  0
CLASS
  1
ACDBPLACEHOLDER
  2
AcDbPlaceHolder
  3
ObjectDBX Classes
 90
        0
280
     0
281
     0
  0
CLASS
  1
LAYOUT
  2
AcDbLayout
  3
ObjectDBX Classes
 90
        0
280
     0
281
     0
  0
CLASS
  1
DUMMY
  2
AcDbLongTransaction
  3
DUMMY
 90
        0
280
     0
281
     0
  0
CLASS
  1
LWPOLYLINE
  2
AcDbPolyline
  3
AutoCAD 2000
 90
        0
280
     0
281
     1
  0
CLASS
  1
HATCH
  2
AcDbHatch
  3
AutoCAD 2000
 90
        0
280
     0
281
     1
  0
CLASS
  1
XRECORD
  2
AcDbXrecord
  3
AutoCAD 2000
 90
        0
280
     0
281
     0
  0
CLASS
  1
DUMMY
  2
AcDbLongTransaction
  3
DUMMY
 90
        0
280
     0
281
     0
  0
CLASS
  1
LWPOLYLINE
  2
AcDbPolyline
  3
AutoCAD 2000
 90
        0
280
     0
281
     1
  0
CLASS
  1
HATCH
  2
AcDbHatch
  3
AutoCAD 2000
 90
        0
280
     0
281
     1
  0
CLASS
  1
XRECORD
  2
AcDbXrecord
  3
AutoCAD 2000
 90
        0
280
     0
281
     0
  0
CLASS
  1
DUMMY
  2
AcDbLongTransaction
  3
DUMMY
 90
        0
280
     0
281
     0
  0
CLASS
  1
LWPOLYLINE
  2
AcDbPolyline
  3
AutoCAD 2000
 90
        0
280
     0
281
     1
  0
CLASS
  1
HATCH
  2
AcDbHatch
  3
AutoCAD 2000
 90
        0
280
     0
281
     1
  0
CLASS
  1
XRECORD
  2
AcDbXrecord
  3
AutoCAD 2000
 90
        0
280
     0
281
     0
  0
CLASS
  1
DUMMY
  2
AcDbLongTransaction
  3
DUMMY
 90
        0
280
     0
281
     0
  0
CLASS
  1
LWPOLYLINE
  2
AcDbPolyline
  3
AutoCAD 2000
 90
        0
280
     0
281
     1
  0
CLASS
  1
HATCH
  2
AcDbHatch
  3
AutoCAD 2000
 90
        0
280
     0
281
     1
  0
CLASS
  1
XRECORD
  2
AcDbXrecord
  3
AutoCAD 2000
 90
        0
280
     0
281
     0
  0
CLASS
  1
DUMMY
  2
AcDbLongTransaction
  3
DUMMY
 90
        0
280
     0
281
     0
  0
CLASS
  1
LWPOLYLINE
  2
AcDbPolyline
  3
AutoCAD 2000
 90
        0
280
     0
281
     1
  0
CLASS
  1
HATCH
  2
AcDbHatch
  3
AutoCAD 2000
 90
        0
280
     0
281
     1
  0
CLASS
  1
XRECORD
  2
AcDbXrecord
  3
AutoCAD 2000
 90
        0
280
     0
281
     0
  0
CLASS
  1
DUMMY
  2
AcDbLongTransaction
  3
DUMMY
 90
        0
280
     0
281
     0
  0
CLASS
  1
LWPOLYLINE
  2
AcDbPolyline
  3
AutoCAD 2000
 90
        0
280
     0
281
     1
  0
CLASS
  1
HATCH
  2
AcDbHatch
  3
AutoCAD 2000
 90
        0
280
     0
281
     1
  0
CLASS
  1
XRECORD
  2
AcDbXrecord
  3
AutoCAD 2000
 90
        0
280
     0
281
     0
  0
CLASS
  1
DUMMY
  2
AcDbLongTransaction
  3
DUMMY
 90
        0
280
     0
281
     0
  0
CLASS
  1
LWPOLYLINE
  2
AcDbPolyline
  3
AutoCAD 2000
 90
        0
280
     0
281
     1
  0
CLASS
  1
HATCH
  2
AcDbHatch
  3
AutoCAD 2000
 90
        0
280
     0
281
     1
  0
CLASS
  1
XRECORD
  2
AcDbXrecord
  3
AutoCAD 2000
 90
        0
280
     0
281
     0
  0
CLASS
  1
DUMMY
  2
AcDbLongTransaction
  3
DUMMY
 90
        0
280
     0
281
     0
  0
CLASS
  1
LWPOLYLINE
  2
AcDbPolyline
  3
AutoCAD 2000
 90
        0
280
     0
281
     1
  0
CLASS
  1
HATCH
  2
AcDbHatch
  3
AutoCAD 2000
 90
        0
280
     0
281
     1
  0
CLASS
  1
XRECORD
  2
AcDbXrecord
  3
AutoCAD 2000
 90
        0
280
     0
281
     0
  0
CLASS
  1
DUMMY
  2
AcDbLongTransaction
  3
DUMMY
 90
        0
280
     0
281
     0
  0
CLASS
  1
LWPOLYLINE
  2
AcDbPolyline
  3
AutoCAD 2000
 90
        0
280
     0
281
     1
  0
CLASS
  1
HATCH
  2
AcDbHatch
  3
AutoCAD 2000
 90
        0
280
     0
281
     1
  0
CLASS
  1
XRECORD
  2
AcDbXrecord
  3
AutoCAD 2000
 90
        0
280
     0
281
     0
  0
CLASS
  1
DUMMY
  2
AcDbLongTransaction
  3
DUMMY
 90
        0
280
     0
281
     0
  0
CLASS
  1
LWPOLYLINE
  2
AcDbPolyline
  3
AutoCAD 2000
 90
        0
280
     0
281
     1
  0
CLASS
  1
HATCH
  2
AcDbHatch
  3
AutoCAD 2000
 90
        0
280
     0
281
     1
  0
CLASS
  1
XRECORD
  2
AcDbXrecord
  3
AutoCAD 2000
 90
        0
280
     0
281
     0
  0
CLASS
  1
DUMMY
  2
AcDbLongTransaction
  3
DUMMY
 90
        0
280
     0
281
     0
  0
CLASS
  1
LWPOLYLINE
  2
AcDbPolyline
  3
AutoCAD 2000
 90
        0
280
     0
281
     1
  0
CLASS
  1
HATCH
  2
AcDbHatch
  3
AutoCAD 2000
 90
        0
280
     0
281
     1
  0
CLASS
  1
XRECORD
  2
AcDbXrecord
  3
AutoCAD 2000
 90
        0
280
     0
281
     0
  0
CLASS
  1
DUMMY
  2
AcDbLongTransaction
  3
DUMMY
 90
        0
280
     0
281
     0
  0
CLASS
  1
LWPOLYLINE
  2
AcDbPolyline
  3
AutoCAD 2000
 90
        0
280
     0
281
     1
  0
CLASS
  1
HATCH
  2
AcDbHatch
  3
AutoCAD 2000
 90
        0
280
     0
281
     1
  0
CLASS
  1
XRECORD
  2
AcDbXrecord
  3
AutoCAD 2000
 90
        0
280
     0
281
     0
  0
CLASS
  1
DbDxfZombieEntity
  2
AcDbDxfZombieEntity
  3
AutoCAD
 90
        0
280
     0
281
     1
  0
CLASS
  1
DxfZombieObject
  2
AcDbDxfZombieObject
  3
AutoCAD
 90
        0
280
     0
281
     0
  0
ENDSEC
  0
SECTION
  2
TABLES
  0
TABLE
  2
VPORT
  5
8
330
0
100
AcDbSymbolTable
 70
     2
  0
VPORT
  5
5218
330
8
100
AcDbSymbolTableRecord
100
AcDbViewportTableRecord
  2
*Active
 70
     0
 10
0.0
 20
0.0
 11
1.0
 21
1.0
 12
420.0000000000001
 22
297.0000000000001
 13
0.0
 23
0.0
 14
5.0
 24
5.0
 15
0.0
 25
0.0
 16
0.0
 26
0.0
 36
1.0
 17
0.0
 27
0.0
 37
0.0
 40
598.6046511627908
 41
1.503234152652005
 42
50.0
 43
0.0
 44
0.0
 50
0.0
 51
0.0
 71
     0
 72
   100
 73
     1
 74
     0
 75
     0
 76
     0
 77
     0
 78
     0
281
     0
 65
     1
110
0.0
120
0.0
130
0.0
111
1.0
121
0.0
131
0.0
112
0.0
122
1.0
132
0.0
 79
     0
146
0.0
  0
ENDTAB
  0
TABLE
  2
LTYPE
  5
5
330
0
100
AcDbSymbolTable
 70
     2
  0
LTYPE
  5
14
330
5
100
AcDbSymbolTableRecord
100
AcDbLinetypeTableRecord
  2
BYBLOCK
 70
     0
  3

 72
    65
 73
     0
 40
0.0
  0
LTYPE
  5
15
330
5
100
AcDbSymbolTableRecord
100
AcDbLinetypeTableRecord
  2
BYLAYER
 70
     0
  3

 72
    65
 73
     0
 40
0.0
  0
LTYPE
  5
16
330
5
100
AcDbSymbolTableRecord
100
AcDbLinetypeTableRecord
  2
CONTINUOUS
 70
     0
  3
Solid line
 72
    65
 73
     0
 40
0.0
  0
LTYPE
  5
135
330
5
100
AcDbSymbolTableRecord
100
AcDbLinetypeTableRecord
  2
CENTER
 70
     0
  3
____ _ ____ _ ____ _ ____ _ ____ _ ____ _ ____ 
 72
    65
 73
     4
 40
2.0
 49
1.25
 74
     0
 49
-0.25
 74
     0
 49
0.25
 74
     0
 49
-0.25
 74
     0
  0
ENDTAB
  0
TABLE
  2
LAYER
  5
2
102
{ACAD_XDICTIONARY
360
4C3C
102
}
330
0
100
AcDbSymbolTable
 70
     9
  0
LAYER
  5
F
330
2
100
AcDbSymbolTableRecord
100
AcDbLayerTableRecord
  2
0
 70
     0
 62
     7
  6
CONTINUOUS
370
    -3
390
85E
  0
LAYER
  5
62
330
2
100
AcDbSymbolTableRecord
100
AcDbLayerTableRecord
  2
VIEWPORT
 70
     0
 62
     7
  6
CONTINUOUS
370
    -3
390
85E
  0
LAYER
  5
65
330
2
100
AcDbSymbolTableRecord
100
AcDbLayerTableRecord
  2
ZUWAKU
 70
     0
 62
     7
  6
CONTINUOUS
370
    -3
390
85E
  0
LAYER
  5
145
330
2
100
AcDbSymbolTableRecord
100
AcDbLayerTableRecord
  2
SEIHIN
 70
     0
 62
     3
  6
CONTINUOUS
370
    -3
390
85E
  0
LAYER
  5
146
330
2
100
AcDbSymbolTableRecord
100
AcDbLayerTableRecord
  2
SUNPOU
 70
     0
 62
     4
  6
CONTINUOUS
370
    -3
390
85E
  0
LAYER
  5
381
330
2
100
AcDbSymbolTableRecord
100
AcDbLayerTableRecord
  2
DEFPOINTS
 70
     0
 62
     7
  6
CONTINUOUS
290
     0
370
    -3
390
85E
  0
LAYER
  5
3AB9
330
2
100
AcDbSymbolTableRecord
100
AcDbLayerTableRecord
  2
MOJI
 70
     0
 62
     2
  6
CONTINUOUS
370
    -3
390
85E
  0
LAYER
  5
3D7D
330
2
100
AcDbSymbolTableRecord
100
AcDbLayerTableRecord
  2
CENTER L
 70
     0
 62
     1
  6
CENTER
370
    -3
390
85E
  0
LAYER
  5
4C3F
330
2
100
AcDbSymbolTableRecord
100
AcDbLayerTableRecord
  2
KEIJYO
 70
     0
 62
     7
  6
CONTINUOUS
370
    -3
390
85E
  0
ENDTAB
  0
TABLE
  2
STYLE
  5
3
330
0
100
AcDbSymbolTable
 70
     2
  0
STYLE
  5
10
330
3
100
AcDbSymbolTableRecord
100
AcDbTextStyleTableRecord
  2
STANDARD
 70
     0
 40
0.0
 41
1.0
 50
0.0
 71
     0
 42
5.0
  3
TXT
  4
bigfont.shx
  0
STYLE
  5
3ABA
330
3
100
AcDbSymbolTableRecord
100
AcDbTextStyleTableRecord
  2
ｽﾀｲﾙ1
 70
     0
 40
0.0
 41
1.0
 50
0.0
 71
     0
 42
2.5
  3
MS PGothic.ttf
  4

1001
ACAD
1000
MS PGothic
1071
    32818
  0
ENDTAB
  0
TABLE
  2
VIEW
  5
6
330
0
100
AcDbSymbolTable
 70
     0
  0
ENDTAB
  0
TABLE
  2
UCS
  5
7
330
0
100
AcDbSymbolTable
 70
     0
  0
ENDTAB
  0
TABLE
  2
APPID
  5
9
330
0
100
AcDbSymbolTable
 70
     1
  0
APPID
  5
11
330
9
100
AcDbSymbolTableRecord
100
AcDbRegAppTableRecord
  2
ACAD
 70
     0
  0
ENDTAB
  0
TABLE
  2
DIMSTYLE
  5
A
330
0
100
AcDbSymbolTable
 70
     1
100
AcDbDimStyleTable
  0
DIMSTYLE
105
1D
102
{ACAD_REACTORS
330
47AE
330
4769
330
4736
330
4735
330
476B
330
4776
330
4731
330
478F
330
4814
330
47F5
330
4694
330
47F4
330
4813
330
4812
102
}
330
A
100
AcDbSymbolTableRecord
100
AcDbDimStyleTableRecord
  2
STANDARD
 70
     0
340
10
  0
ENDTAB
  0
TABLE
  2
BLOCK_RECORD
  5
1
330
0
100
AcDbSymbolTable
 70
    16
  0
BLOCK_RECORD
  5
1A
330
1
100
AcDbSymbolTableRecord
100
AcDbBlockTableRecord
  2
*MODEL_SPACE
340
3CBE
  0
BLOCK_RECORD
  5
17
330
1
100
AcDbSymbolTableRecord
100
AcDbBlockTableRecord
  2
*PAPER_SPACE
340
3CBF
  0
BLOCK_RECORD
  5
6D
330
1
100
AcDbSymbolTableRecord
100
AcDbBlockTableRecord
  2
_OPEN
340
0
102
{BLKREFS
331
4E92
331
4E93
331
5292
331
5293
331
5278
331
5279
331
4E4F
331
4E50
331
529E
331
529F
331
52A6
331
52A7
331
5270
331
5271
331
4E89
331
4E8A
331
5350
331
5351
331
5315
331
5316
331
524B
331
524C
331
530A
331
530B
331
5347
331
5348
331
533E
331
533F
102
}
  0
BLOCK_RECORD
  5
497C
330
1
100
AcDbSymbolTableRecord
100
AcDbBlockTableRecord
  2
*D1
340
0
  0
BLOCK_RECORD
  5
4988
330
1
100
AcDbSymbolTableRecord
100
AcDbBlockTableRecord
  2
*D2
340
0
  0
BLOCK_RECORD
  5
4994
330
1
100
AcDbSymbolTableRecord
100
AcDbBlockTableRecord
  2
*D3
340
0
  0
BLOCK_RECORD
  5
49A0
330
1
100
AcDbSymbolTableRecord
100
AcDbBlockTableRecord
  2
*D4
340
0
  0
BLOCK_RECORD
  5
49AC
330
1
100
AcDbSymbolTableRecord
100
AcDbBlockTableRecord
  2
*D5
340
0
  0
BLOCK_RECORD
  5
49BA
330
1
100
AcDbSymbolTableRecord
100
AcDbBlockTableRecord
  2
*D6
340
0
  0
BLOCK_RECORD
  5
49C6
330
1
100
AcDbSymbolTableRecord
100
AcDbBlockTableRecord
  2
*D7
340
0
  0
BLOCK_RECORD
  5
49D4
330
1
100
AcDbSymbolTableRecord
100
AcDbBlockTableRecord
  2
*D8
340
0
  0
BLOCK_RECORD
  5
49E0
330
1
100
AcDbSymbolTableRecord
100
AcDbBlockTableRecord
  2
*D9
340
0
  0
BLOCK_RECORD
  5
49EC
330
1
100
AcDbSymbolTableRecord
100
AcDbBlockTableRecord
  2
*D10
340
0
  0
BLOCK_RECORD
  5
49FA
330
1
100
AcDbSymbolTableRecord
100
AcDbBlockTableRecord
  2
*D11
340
0
  0
BLOCK_RECORD
  5
4A06
330
1
100
AcDbSymbolTableRecord
100
AcDbBlockTableRecord
  2
*D12
340
0
  0
BLOCK_RECORD
  5
4A12
330
1
100
AcDbSymbolTableRecord
100
AcDbBlockTableRecord
  2
*D13
340
0
  0
BLOCK_RECORD
  5
4A1E
330
1
100
AcDbSymbolTableRecord
100
AcDbBlockTableRecord
  2
*D14
340
0
  0
ENDTAB
  0
ENDSEC
  0
SECTION
  2
BLOCKS
  0
BLOCK
  5
1B
330
1A
100
AcDbEntity
  8
0
100
AcDbBlockBegin
  2
*MODEL_SPACE
 70
     0
 71
     0
 10
0.0
 20
0.0
 30
0.0
  3
*MODEL_SPACE
  1

  0
ENDBLK
  5
1C
330
1A
100
AcDbEntity
  8
0
100
AcDbBlockEnd
  0
BLOCK
  5
18
330
17
100
AcDbEntity
 67
     1
  8
0
100
AcDbBlockBegin
  2
*PAPER_SPACE
 70
     0
 71
     0
 10
0.0
 20
0.0
 30
0.0
  3
*PAPER_SPACE
  1

  0
ENDBLK
  5
19
330
17
100
AcDbEntity
 67
     1
  8
0
100
AcDbBlockEnd
  0
BLOCK
  5
6E
330
6D
100
AcDbEntity
  8
0
100
AcDbBlockBegin
  2
_OPEN
 70
     0
 71
     0
 10
0.0
 20
0.0
 30
0.0
  3
_OPEN
  1

  0
LINE
  5
6F
330
6D
100
AcDbEntity
  8
0
  6
ByBlock
 62
     0
100
AcDbLine
 10
-1.0
 20
0.1666666666666666
 30
0.0
 11
0.0
 21
0.0
 31
0.0
  0
LINE
  5
70
330
6D
100
AcDbEntity
  8
0
  6
ByBlock
 62
     0
100
AcDbLine
 10
0.0
 20
0.0
 30
0.0
 11
-1.0
 21
-0.1666666666666666
 31
0.0
  0
LINE
  5
71
330
6D
100
AcDbEntity
  8
0
  6
ByBlock
 62
     0
100
AcDbLine
 10
0.0
 20
0.0
 30
0.0
 11
-1.0
 21
0.0
 31
0.0
  0
ENDBLK
  5
72
330
6D
100
AcDbEntity
  8
0
100
AcDbBlockEnd
  0
BLOCK
  5
4986
330
497C
100
AcDbEntity
  8
0
100
AcDbBlockBegin
  2
*D1
 70
     1
 71
     0
 10
0.0
 20
0.0
 30
0.0
  3
*D1
  1

  0
LINE
  5
4E8F
330
497C
100
AcDbEntity
  8
SUNPOU
100
AcDbLine
 10
366.5767297324137
 20
431.1468692107081
 30
0.0
 11
413.9975799175471
 21
431.1468692107081
 31
0.0
  0
LINE
  5
4E90
330
497C
100
AcDbEntity
  8
SUNPOU
100
AcDbLine
 10
366.5767297324137
 20
361.1468692107081
 30
0.0
 11
413.997579917547
 21
361.1468692107081
 31
0.0
  0
LINE
  5
4E91
330
497C
100
AcDbEntity
  8
SUNPOU
100
AcDbLine
 10
410.9975799175471
 20
424.1468692107081
 30
0.0
 11
410.997579917547
 21
368.1468692107081
 31
0.0
  0
INSERT
  5
4E92
330
497C
100
AcDbEntity
  8
SUNPOU
100
AcDbBlockReference
  2
_OPEN
 10
410.9975799175471
 20
431.1468692107081
 30
0.0
 41
7.0
 42
7.0
 43
7.0
 50
90.0
  0
INSERT
  5
4E93
330
497C
100
AcDbEntity
  8
SUNPOU
100
AcDbBlockReference
  2
_OPEN
 10
410.997579917547
 20
361.1468692107081
 30
0.0
 41
7.0
 42
7.0
 43
7.0
 50
270.0
  0
MTEXT
  5
4E94
330
497C
100
AcDbEntity
  8
SUNPOU
100
AcDbMText
 10
405.9975799175469
 20
396.1468692107082
 30
0.0
 40
6.0
 41
0.0
 71
     5
 72
     1
  1
\A1;70
 11
6.123031769111886E-17
 21
1.0
 31
0.0
 73
     1
 44
1.0
  0
POINT
  5
4E95
330
497C
100
AcDbEntity
  8
DEFPOINTS
 62
     0
100
AcDbPoint
 10
360.5767297324137
 20
431.1468692107081
 30
0.0
  0
POINT
  5
4E96
330
497C
100
AcDbEntity
  8
DEFPOINTS
 62
     0
100
AcDbPoint
 10
360.5767297324137
 20
361.1468692107081
 30
0.0
  0
POINT
  5
4E97
330
497C
100
AcDbEntity
  8
DEFPOINTS
 62
     0
100
AcDbPoint
 10
410.997579917547
 20
361.1468692107081
 30
0.0
  0
ENDBLK
  5
4987
330
497C
100
AcDbEntity
  8
0
100
AcDbBlockEnd
  0
BLOCK
  5
4992
330
4988
100
AcDbEntity
  8
0
100
AcDbBlockBegin
  2
*D2
 70
     1
 71
     0
 10
0.0
 20
0.0
 30
0.0
  3
*D2
  1

  0
LINE
  5
528F
330
4988
100
AcDbEntity
  8
SUNPOU
100
AcDbLine
 10
370.1472828384203
 20
252.8386059618327
 30
0.0
 11
413.997579917547
 21
252.8386059618327
 31
0.0
  0
LINE
  5
5290
330
4988
100
AcDbEntity
  8
SUNPOU
100
AcDbLine
 10
362.1472824584407
 20
172.8386077499722
 30
0.0
 11
413.997579917547
 21
172.8386077499722
 31
0.0
  0
LINE
  5
5291
330
4988
100
AcDbEntity
  8
SUNPOU
100
AcDbLine
 10
410.997579917547
 20
245.8386059618327
 30
0.0
 11
410.997579917547
 21
179.8386077499722
 31
0.0
  0
INSERT
  5
5292
330
4988
100
AcDbEntity
  8
SUNPOU
100
AcDbBlockReference
  2
_OPEN
 10
410.997579917547
 20
252.8386059618327
 30
0.0
 41
7.0
 42
7.0
 43
7.0
 50
90.0
  0
INSERT
  5
5293
330
4988
100
AcDbEntity
  8
SUNPOU
100
AcDbBlockReference
  2
_OPEN
 10
410.997579917547
 20
172.8386077499722
 30
0.0
 41
7.0
 42
7.0
 43
7.0
 50
270.0
  0
MTEXT
  5
5294
330
4988
100
AcDbEntity
  8
SUNPOU
100
AcDbMText
 10
405.9975799175469
 20
212.8386068559025
 30
0.0
 40
6.0
 41
0.0
 71
     5
 72
     1
  1
\A1;80
 11
6.123031769111886E-17
 21
1.0
 31
0.0
 73
     1
 44
1.0
  0
POINT
  5
5295
330
4988
100
AcDbEntity
  8
DEFPOINTS
 62
     0
100
AcDbPoint
 10
364.1472828384203
 20
252.8386059618327
 30
0.0
  0
POINT
  5
5296
330
4988
100
AcDbEntity
  8
DEFPOINTS
 62
     0
100
AcDbPoint
 10
356.1472824584407
 20
172.8386077499722
 30
0.0
  0
POINT
  5
5297
330
4988
100
AcDbEntity
  8
DEFPOINTS
 62
     0
100
AcDbPoint
 10
410.997579917547
 20
172.8386077499722
 30
0.0
  0
ENDBLK
  5
4993
330
4988
100
AcDbEntity
  8
0
100
AcDbBlockEnd
  0
BLOCK
  5
499E
330
4994
100
AcDbEntity
  8
0
100
AcDbBlockBegin
  2
*D3
 70
     1
 71
     0
 10
0.0
 20
0.0
 30
0.0
  3
*D3
  1

  0
LINE
  5
5275
330
4994
100
AcDbEntity
  8
SUNPOU
100
AcDbLine
 10
348.1472830619377
 20
172.8386077499722
 30
0.0
 11
204.4976047688494
 21
172.8386077499722
 31
0.0
  0
LINE
  5
5276
330
4994
100
AcDbEntity
  8
SUNPOU
100
AcDbLine
 10
227.3584008347366
 20
236.1696289570772
 30
0.0
 11
204.4976047688494
 21
236.1696289570772
 31
0.0
  0
LINE
  5
5277
330
4994
100
AcDbEntity
  8
SUNPOU
100
AcDbLine
 10
207.4976047688494
 20
179.8386077499722
 30
0.0
 11
207.4976047688494
 21
229.1696289570772
 31
0.0
  0
INSERT
  5
5278
330
4994
100
AcDbEntity
  8
SUNPOU
100
AcDbBlockReference
  2
_OPEN
 10
207.4976047688494
 20
172.8386077499722
 30
0.0
 41
7.0
 42
7.0
 43
7.0
 50
270.0
  0
INSERT
  5
5279
330
4994
100
AcDbEntity
  8
SUNPOU
100
AcDbBlockReference
  2
_OPEN
 10
207.4976047688494
 20
236.1696289570772
 30
0.0
 41
7.0
 42
7.0
 43
7.0
 50
90.0
  0
MTEXT
  5
527A
330
4994
100
AcDbEntity
  8
SUNPOU
100
AcDbMText
 10
202.4976047688494
 20
204.5041183535248
 30
0.0
 40
6.0
 41
0.0
 71
     5
 72
     1
  1
\A1;63
 11
6.123031769111886E-17
 21
1.0
 31
0.0
 73
     1
 44
1.0
  0
POINT
  5
527B
330
4994
100
AcDbEntity
  8
DEFPOINTS
 62
     0
100
AcDbPoint
 10
354.1472830619377
 20
172.8386077499722
 30
0.0
  0
POINT
  5
527C
330
4994
100
AcDbEntity
  8
DEFPOINTS
 62
     0
100
AcDbPoint
 10
233.3584008347366
 20
236.1696289570772
 30
0.0
  0
POINT
  5
527D
330
4994
100
AcDbEntity
  8
DEFPOINTS
 62
     0
100
AcDbPoint
 10
207.4976047688494
 20
236.1696289570772
 30
0.0
  0
ENDBLK
  5
499F
330
4994
100
AcDbEntity
  8
0
100
AcDbBlockEnd
  0
BLOCK
  5
49AA
330
49A0
100
AcDbEntity
  8
0
100
AcDbBlockBegin
  2
*D4
 70
     1
 71
     0
 10
0.0
 20
0.0
 30
0.0
  3
*D4
  1

  0
LINE
  5
4E4C
330
49A0
100
AcDbEntity
  8
SUNPOU
100
AcDbLine
 10
364.1472828384203
 20
258.8386059618327
 30
0.0
 11
364.1472828384203
 21
290.564512863739
 31
0.0
  0
LINE
  5
4E4D
330
49A0
100
AcDbEntity
  8
SUNPOU
100
AcDbLine
 10
229.6518359743068
 20
237.551938162445
 30
0.0
 11
229.6518359743068
 21
290.564512863739
 31
0.0
  0
LINE
  5
4E4E
330
49A0
100
AcDbEntity
  8
SUNPOU
100
AcDbLine
 10
357.1472828384203
 20
287.564512863739
 30
0.0
 11
236.6518359743068
 21
287.564512863739
 31
0.0
  0
INSERT
  5
4E4F
330
49A0
100
AcDbEntity
  8
SUNPOU
100
AcDbBlockReference
  2
_OPEN
 10
364.1472828384203
 20
287.564512863739
 30
0.0
 41
7.0
 42
7.0
 43
7.0
  0
INSERT
  5
4E50
330
49A0
100
AcDbEntity
  8
SUNPOU
100
AcDbBlockReference
  2
_OPEN
 10
229.6518359743068
 20
287.564512863739
 30
0.0
 41
7.0
 42
7.0
 43
7.0
 50
180.0
  0
MTEXT
  5
4E51
330
49A0
100
AcDbEntity
  8
SUNPOU
100
AcDbMText
 10
296.8995594063636
 20
292.564512863739
 30
0.0
 40
6.0
 41
0.0
 71
     5
 72
     1
  1
\A1;134
 73
     1
 44
1.0
  0
POINT
  5
4E52
330
49A0
100
AcDbEntity
  8
DEFPOINTS
 62
     0
100
AcDbPoint
 10
364.1472828384203
 20
252.8386059618327
 30
0.0
  0
POINT
  5
4E53
330
49A0
100
AcDbEntity
  8
DEFPOINTS
 62
     0
100
AcDbPoint
 10
229.6518359743068
 20
231.551938162445
 30
0.0
  0
POINT
  5
4E54
330
49A0
100
AcDbEntity
  8
DEFPOINTS
 62
     0
100
AcDbPoint
 10
229.6518359743068
 20
287.564512863739
 30
0.0
  0
ENDBLK
  5
49AB
330
49A0
100
AcDbEntity
  8
0
100
AcDbBlockEnd
  0
BLOCK
  5
49B8
330
49AC
100
AcDbEntity
  8
0
100
AcDbBlockBegin
  2
*D5
 70
     1
 71
     0
 10
0.0
 20
0.0
 30
0.0
  3
*D5
  1

  0
LINE
  5
5298
330
49AC
100
AcDbEntity
  8
SUNPOU
100
AcDbLine
 10
377.1472828384203
 20
180.8386053359841
 30
0.0
 11
399.0759305360641
 21
180.8386053359841
 31
0.0
  0
LINE
  5
5299
330
49AC
100
AcDbEntity
  8
SUNPOU
100
AcDbLine
 10
368.1472824584407
 20
172.8386077499722
 30
0.0
 11
399.0759305360641
 21
172.8386077499722
 31
0.0
  0
LINE
  5
529A
330
49AC
100
AcDbEntity
  8
SUNPOU
100
AcDbLine
 10
396.0759305360641
 20
187.8386053359841
 30
0.0
 11
396.0759305360641
 21
194.8386053359841
 31
0.0
  0
LINE
  5
529B
330
49AC
100
AcDbEntity
  8
SUNPOU
100
AcDbLine
 10
396.0759305360641
 20
165.8386077499722
 30
0.0
 11
396.0759305360641
 21
158.8386077499722
 31
0.0
  0
MTEXT
  5
529C
330
49AC
100
AcDbEntity
  8
SUNPOU
100
AcDbMText
 10
391.3289315571935
 20
176.8386065429783
 30
0.0
 40
6.0
 41
0.0
 71
     5
 72
     1
  1
\A1;8
 11
6.123031769111886E-17
 21
1.0
 31
0.0
 73
     1
 44
1.0
  0
LINE
  5
529D
330
49AC
100
AcDbEntity
  8
SUNPOU
100
AcDbLine
 10
396.0759305360641
 20
180.8386053359841
 30
0.0
 11
396.0759305360641
 21
172.8386077499722
 31
0.0
  0
INSERT
  5
529E
330
49AC
100
AcDbEntity
  8
SUNPOU
100
AcDbBlockReference
  2
_OPEN
 10
396.0759305360641
 20
180.8386053359841
 30
0.0
 41
7.0
 42
7.0
 43
7.0
 50
270.0
  0
INSERT
  5
529F
330
49AC
100
AcDbEntity
  8
SUNPOU
100
AcDbBlockReference
  2
_OPEN
 10
396.0759305360641
 20
172.8386077499722
 30
0.0
 41
7.0
 42
7.0
 43
7.0
 50
90.0
  0
POINT
  5
52A0
330
49AC
100
AcDbEntity
  8
DEFPOINTS
 62
     0
100
AcDbPoint
 10
371.1472828384203
 20
180.8386053359841
 30
0.0
  0
POINT
  5
52A1
330
49AC
100
AcDbEntity
  8
DEFPOINTS
 62
     0
100
AcDbPoint
 10
362.1472824584407
 20
172.8386077499722
 30
0.0
  0
POINT
  5
52A2
330
49AC
100
AcDbEntity
  8
DEFPOINTS
 62
     0
100
AcDbPoint
 10
396.0759305360641
 20
172.8386077499722
 30
0.0
  0
ENDBLK
  5
49B9
330
49AC
100
AcDbEntity
  8
0
100
AcDbBlockEnd
  0
BLOCK
  5
49C4
330
49BA
100
AcDbEntity
  8
0
100
AcDbBlockBegin
  2
*D6
 70
     1
 71
     0
 10
0.0
 20
0.0
 30
0.0
  3
*D6
  1

  0
LINE
  5
52A3
330
49BA
100
AcDbEntity
  8
SUNPOU
100
AcDbLine
 10
376.1472828384203
 20
252.8386059618327
 30
0.0
 11
399.0759305360641
 21
252.8386059618327
 31
0.0
  0
LINE
  5
52A4
330
49BA
100
AcDbEntity
  8
SUNPOU
100
AcDbLine
 10
377.1472828384203
 20
230.8385967677962
 30
0.0
 11
399.0759305360641
 21
230.8385967677962
 31
0.0
  0
LINE
  5
52A5
330
49BA
100
AcDbEntity
  8
SUNPOU
100
AcDbLine
 10
396.0759305360641
 20
245.8386059618327
 30
0.0
 11
396.0759305360641
 21
237.8385967677962
 31
0.0
  0
INSERT
  5
52A6
330
49BA
100
AcDbEntity
  8
SUNPOU
100
AcDbBlockReference
  2
_OPEN
 10
396.0759305360641
 20
252.8386059618327
 30
0.0
 41
7.0
 42
7.0
 43
7.0
 50
90.0
  0
INSERT
  5
52A7
330
49BA
100
AcDbEntity
  8
SUNPOU
100
AcDbBlockReference
  2
_OPEN
 10
396.0759305360641
 20
230.8385967677962
 30
0.0
 41
7.0
 42
7.0
 43
7.0
 50
270.0
  0
MTEXT
  5
52A8
330
49BA
100
AcDbEntity
  8
SUNPOU
100
AcDbMText
 10
391.0759305360641
 20
241.8386013648145
 30
0.0
 40
6.0
 41
0.0
 71
     5
 72
     1
  1
\A1;22
 11
6.123031769111886E-17
 21
1.0
 31
0.0
 73
     1
 44
1.0
  0
POINT
  5
52A9
330
49BA
100
AcDbEntity
  8
DEFPOINTS
 62
     0
100
AcDbPoint
 10
370.1472828384203
 20
252.8386059618327
 30
0.0
  0
POINT
  5
52AA
330
49BA
100
AcDbEntity
  8
DEFPOINTS
 62
     0
100
AcDbPoint
 10
371.1472828384203
 20
230.8385967677962
 30
0.0
  0
POINT
  5
52AB
330
49BA
100
AcDbEntity
  8
DEFPOINTS
 62
     0
100
AcDbPoint
 10
396.0759305360641
 20
230.8385967677962
 30
0.0
  0
ENDBLK
  5
49C5
330
49BA
100
AcDbEntity
  8
0
100
AcDbBlockEnd
  0
BLOCK
  5
49D2
330
49C6
100
AcDbEntity
  8
0
100
AcDbBlockBegin
  2
*D7
 70
     1
 71
     0
 10
0.0
 20
0.0
 30
0.0
  3
*D7
  1

  0
LINE
  5
526A
330
49C6
100
AcDbEntity
  8
SUNPOU
100
AcDbLine
 10
364.1472828384203
 20
258.8386059618327
 30
0.0
 11
364.1472828384203
 21
273.0861611177612
 31
0.0
  0
LINE
  5
526B
330
49C6
100
AcDbEntity
  8
SUNPOU
100
AcDbLine
 10
354.2886614202055
 20
255.5456719486549
 30
0.0
 11
354.2886614202055
 21
273.0861611177612
 31
0.0
  0
LINE
  5
526C
330
49C6
100
AcDbEntity
  8
SUNPOU
100
AcDbLine
 10
371.1472828384203
 20
270.0861611177612
 30
0.0
 11
378.1472828384203
 21
270.0861611177612
 31
0.0
  0
LINE
  5
526D
330
49C6
100
AcDbEntity
  8
SUNPOU
100
AcDbLine
 10
347.2886614202055
 20
270.0861611177612
 30
0.0
 11
340.2886614202055
 21
270.0861611177612
 31
0.0
  0
MTEXT
  5
526E
330
49C6
100
AcDbEntity
  8
SUNPOU
100
AcDbMText
 10
359.2179721293129
 20
279.0861611177612
 30
0.0
 40
6.0
 41
0.0
 71
     5
 72
     1
  1
\A1;10
 73
     1
 44
1.0
  0
LINE
  5
526F
330
49C6
100
AcDbEntity
  8
SUNPOU
100
AcDbLine
 10
364.1472828384203
 20
270.0861611177612
 30
0.0
 11
354.2886614202055
 21
270.0861611177612
 31
0.0
  0
INSERT
  5
5270
330
49C6
100
AcDbEntity
  8
SUNPOU
100
AcDbBlockReference
  2
_OPEN
 10
364.1472828384203
 20
270.0861611177612
 30
0.0
 41
7.0
 42
7.0
 43
7.0
 50
180.0
  0
INSERT
  5
5271
330
49C6
100
AcDbEntity
  8
SUNPOU
100
AcDbBlockReference
  2
_OPEN
 10
354.2886614202055
 20
270.0861611177612
 30
0.0
 41
7.0
 42
7.0
 43
7.0
  0
POINT
  5
5272
330
49C6
100
AcDbEntity
  8
DEFPOINTS
 62
     0
100
AcDbPoint
 10
364.1472828384203
 20
252.8386059618327
 30
0.0
  0
POINT
  5
5273
330
49C6
100
AcDbEntity
  8
DEFPOINTS
 62
     0
100
AcDbPoint
 10
354.2886614202055
 20
249.5456719486549
 30
0.0
  0
POINT
  5
5274
330
49C6
100
AcDbEntity
  8
DEFPOINTS
 62
     0
100
AcDbPoint
 10
354.2886614202055
 20
270.0861611177612
 30
0.0
  0
ENDBLK
  5
49D3
330
49C6
100
AcDbEntity
  8
0
100
AcDbBlockEnd
  0
BLOCK
  5
49DE
330
49D4
100
AcDbEntity
  8
0
100
AcDbBlockBegin
  2
*D8
 70
     1
 71
     0
 10
0.0
 20
0.0
 30
0.0
  3
*D8
  1

  0
LINE
  5
4E86
330
49D4
100
AcDbEntity
  8
SUNPOU
100
AcDbLine
 10
223.9138722325154
 20
410.1468692107081
 30
0.0
 11
200.1550908707102
 21
410.1468692107081
 31
0.0
  0
LINE
  5
4E87
330
49D4
100
AcDbEntity
  8
SUNPOU
100
AcDbLine
 10
223.4901167871678
 20
382.1468692107081
 30
0.0
 11
200.1550908707102
 21
382.1468692107081
 31
0.0
  0
LINE
  5
4E88
330
49D4
100
AcDbEntity
  8
SUNPOU
100
AcDbLine
 10
203.1550908707102
 20
403.1468692107081
 30
0.0
 11
203.1550908707102
 21
389.1468692107081
 31
0.0
  0
INSERT
  5
4E89
330
49D4
100
AcDbEntity
  8
SUNPOU
100
AcDbBlockReference
  2
_OPEN
 10
203.1550908707102
 20
410.1468692107081
 30
0.0
 41
7.0
 42
7.0
 43
7.0
 50
90.0
  0
INSERT
  5
4E8A
330
49D4
100
AcDbEntity
  8
SUNPOU
100
AcDbBlockReference
  2
_OPEN
 10
203.1550908707102
 20
382.1468692107081
 30
0.0
 41
7.0
 42
7.0
 43
7.0
 50
270.0
  0
MTEXT
  5
4E8B
330
49D4
100
AcDbEntity
  8
SUNPOU
100
AcDbMText
 10
198.1550908707101
 20
396.1468692107082
 30
0.0
 40
6.0
 41
0.0
 71
     5
 72
     1
  1
\A1;28
 11
6.123031769111886E-17
 21
1.0
 31
0.0
 73
     1
 44
1.0
  0
POINT
  5
4E8C
330
49D4
100
AcDbEntity
  8
DEFPOINTS
 62
     0
100
AcDbPoint
 10
229.9138722325154
 20
410.1468692107081
 30
0.0
  0
POINT
  5
4E8D
330
49D4
100
AcDbEntity
  8
DEFPOINTS
 62
     0
100
AcDbPoint
 10
229.4901167871678
 20
382.1468692107081
 30
0.0
  0
POINT
  5
4E8E
330
49D4
100
AcDbEntity
  8
DEFPOINTS
 62
     0
100
AcDbPoint
 10
203.1550908707102
 20
382.1468692107081
 30
0.0
  0
ENDBLK
  5
49DF
330
49D4
100
AcDbEntity
  8
0
100
AcDbBlockEnd
  0
BLOCK
  5
49EA
330
49E0
100
AcDbEntity
  8
0
100
AcDbBlockBegin
  2
*D9
 70
     1
 71
     0
 10
0.0
 20
0.0
 30
0.0
  3
*D9
  1

  0
LINE
  5
534D
330
49E0
100
AcDbEntity
  8
SUNPOU
100
AcDbLine
 10
535.7071803818811
 20
230.8214991403617
 30
0.0
 11
512.2640266711456
 21
230.8214991403617
 31
0.0
  0
LINE
  5
534E
330
49E0
100
AcDbEntity
  8
SUNPOU
100
AcDbLine
 10
532.8083494614233
 20
252.8488808361537
 30
0.0
 11
512.2640266711456
 21
252.8488808361537
 31
0.0
  0
LINE
  5
534F
330
49E0
100
AcDbEntity
  8
SUNPOU
100
AcDbLine
 10
515.2640266711456
 20
237.8214991403617
 30
0.0
 11
515.2640266711456
 21
245.8488808361537
 31
0.0
  0
INSERT
  5
5350
330
49E0
100
AcDbEntity
  8
SUNPOU
100
AcDbBlockReference
  2
_OPEN
 10
515.2640266711456
 20
230.8214991403617
 30
0.0
 41
7.0
 42
7.0
 43
7.0
 50
270.0
  0
INSERT
  5
5351
330
49E0
100
AcDbEntity
  8
SUNPOU
100
AcDbBlockReference
  2
_OPEN
 10
515.2640266711456
 20
252.8488808361537
 30
0.0
 41
7.0
 42
7.0
 43
7.0
 50
90.0
  0
MTEXT
  5
5352
330
49E0
100
AcDbEntity
  8
SUNPOU
100
AcDbMText
 10
510.2640266711456
 20
241.8351899882578
 30
0.0
 40
6.0
 41
0.0
 71
     5
 72
     1
  1
\A1;22
 11
6.123031769111886E-17
 21
1.0
 31
0.0
 73
     1
 44
1.0
  0
POINT
  5
5353
330
49E0
100
AcDbEntity
  8
DEFPOINTS
 62
     0
100
AcDbPoint
 10
541.7071803818811
 20
230.8214991403617
 30
0.0
  0
POINT
  5
5354
330
49E0
100
AcDbEntity
  8
DEFPOINTS
 62
     0
100
AcDbPoint
 10
538.8083494614233
 20
252.8488808361537
 30
0.0
  0
POINT
  5
5355
330
49E0
100
AcDbEntity
  8
DEFPOINTS
 62
     0
100
AcDbPoint
 10
515.2640266711456
 20
252.8488808361537
 30
0.0
  0
ENDBLK
  5
49EB
330
49E0
100
AcDbEntity
  8
0
100
AcDbBlockEnd
  0
BLOCK
  5
49F8
330
49EC
100
AcDbEntity
  8
0
100
AcDbBlockBegin
  2
*D10
 70
     1
 71
     0
 10
0.0
 20
0.0
 30
0.0
  3
*D10
  1

  0
LINE
  5
5310
330
49EC
100
AcDbEntity
  8
SUNPOU
100
AcDbLine
 10
567.8083496104349
 20
172.8488826242931
 30
0.0
 11
512.2640266711456
 21
172.8488826242931
 31
0.0
  0
LINE
  5
5311
330
49EC
100
AcDbEntity
  8
SUNPOU
100
AcDbLine
 10
562.6626463795905
 20
180.8488941801686
 30
0.0
 11
512.2640266711456
 21
180.8488941801686
 31
0.0
  0
LINE
  5
5312
330
49EC
100
AcDbEntity
  8
SUNPOU
100
AcDbLine
 10
515.2640266711456
 20
165.8488826242931
 30
0.0
 11
515.2640266711456
 21
158.8488826242931
 31
0.0
  0
LINE
  5
5313
330
49EC
100
AcDbEntity
  8
SUNPOU
100
AcDbLine
 10
515.2640266711456
 20
187.8488941801686
 30
0.0
 11
515.2640266711456
 21
194.8488941801686
 31
0.0
  0
LINE
  5
5314
330
49EC
100
AcDbEntity
  8
SUNPOU
100
AcDbLine
 10
515.2640266711456
 20
172.8488826242931
 30
0.0
 11
515.2640266711456
 21
180.8488941801686
 31
0.0
  0
INSERT
  5
5315
330
49EC
100
AcDbEntity
  8
SUNPOU
100
AcDbBlockReference
  2
_OPEN
 10
515.2640266711456
 20
172.8488826242931
 30
0.0
 41
7.0
 42
7.0
 43
7.0
 50
90.0
  0
INSERT
  5
5316
330
49EC
100
AcDbEntity
  8
SUNPOU
100
AcDbBlockReference
  2
_OPEN
 10
515.2640266711456
 20
180.8488941801686
 30
0.0
 41
7.0
 42
7.0
 43
7.0
 50
270.0
  0
MTEXT
  5
5317
330
49EC
100
AcDbEntity
  8
SUNPOU
100
AcDbMText
 10
510.2640266711456
 20
176.8488884022309
 30
0.0
 40
6.0
 41
0.0
 71
     5
 72
     1
  1
\A1;8
 11
6.123031769111886E-17
 21
1.0
 31
0.0
 73
     1
 44
1.0
  0
POINT
  5
5318
330
49EC
100
AcDbEntity
  8
DEFPOINTS
 62
     0
100
AcDbPoint
 10
573.8083496104349
 20
172.8488826242931
 30
0.0
  0
POINT
  5
5319
330
49EC
100
AcDbEntity
  8
DEFPOINTS
 62
     0
100
AcDbPoint
 10
568.6626463795905
 20
180.8488941801686
 30
0.0
  0
POINT
  5
531A
330
49EC
100
AcDbEntity
  8
DEFPOINTS
 62
     0
100
AcDbPoint
 10
515.2640266711456
 20
180.8488941801686
 30
0.0
  0
ENDBLK
  5
49F9
330
49EC
100
AcDbEntity
  8
0
100
AcDbBlockEnd
  0
BLOCK
  5
4A04
330
49FA
100
AcDbEntity
  8
0
100
AcDbBlockBegin
  2
*D11
 70
     1
 71
     0
 10
0.0
 20
0.0
 30
0.0
  3
*D11
  1

  0
LINE
  5
5248
330
49FA
100
AcDbEntity
  8
SUNPOU
100
AcDbLine
 10
567.8083496104349
 20
252.8488808361537
 30
0.0
 11
495.7263265867119
 21
252.8488808361537
 31
0.0
  0
LINE
  5
5249
330
49FA
100
AcDbEntity
  8
SUNPOU
100
AcDbLine
 10
567.8083496104349
 20
172.8488826242931
 30
0.0
 11
495.7263265867119
 21
172.8488826242931
 31
0.0
  0
LINE
  5
524A
330
49FA
100
AcDbEntity
  8
SUNPOU
100
AcDbLine
 10
498.7263265867119
 20
245.8488808361537
 30
0.0
 11
498.7263265867119
 21
179.8488826242931
 31
0.0
  0
INSERT
  5
524B
330
49FA
100
AcDbEntity
  8
SUNPOU
100
AcDbBlockReference
  2
_OPEN
 10
498.7263265867119
 20
252.8488808361537
 30
0.0
 41
7.0
 42
7.0
 43
7.0
 50
90.0
  0
INSERT
  5
524C
330
49FA
100
AcDbEntity
  8
SUNPOU
100
AcDbBlockReference
  2
_OPEN
 10
498.7263265867119
 20
172.8488826242931
 30
0.0
 41
7.0
 42
7.0
 43
7.0
 50
270.0
  0
MTEXT
  5
524D
330
49FA
100
AcDbEntity
  8
SUNPOU
100
AcDbMText
 10
493.7263265867119
 20
212.8488817302235
 30
0.0
 40
6.0
 41
0.0
 71
     5
 72
     1
  1
\A1;80
 11
6.123031769111886E-17
 21
1.0
 31
0.0
 73
     1
 44
1.0
  0
POINT
  5
524E
330
49FA
100
AcDbEntity
  8
DEFPOINTS
 62
     0
100
AcDbPoint
 10
573.8083496104349
 20
252.8488808361537
 30
0.0
  0
POINT
  5
524F
330
49FA
100
AcDbEntity
  8
DEFPOINTS
 62
     0
100
AcDbPoint
 10
573.8083496104349
 20
172.8488826242931
 30
0.0
  0
POINT
  5
5250
330
49FA
100
AcDbEntity
  8
DEFPOINTS
 62
     0
100
AcDbPoint
 10
498.7263265867119
 20
172.8488826242931
 30
0.0
  0
ENDBLK
  5
4A05
330
49FA
100
AcDbEntity
  8
0
100
AcDbBlockEnd
  0
BLOCK
  5
4A10
330
4A06
100
AcDbEntity
  8
0
100
AcDbBlockBegin
  2
*D12
 70
     1
 71
     0
 10
0.0
 20
0.0
 30
0.0
  3
*D12
  1

  0
LINE
  5
5307
330
4A06
100
AcDbEntity
  8
SUNPOU
100
AcDbLine
 10
559.8083496104346
 20
173.2661022714591
 30
0.0
 11
559.8083496104346
 21
145.7047105237349
 31
0.0
  0
LINE
  5
5308
330
4A06
100
AcDbEntity
  8
SUNPOU
100
AcDbLine
 10
587.8083496104349
 20
173.2661022714591
 30
0.0
 11
587.8083496104349
 21
145.7047105237349
 31
0.0
  0
LINE
  5
5309
330
4A06
100
AcDbEntity
  8
SUNPOU
100
AcDbLine
 10
566.8083496104346
 20
148.7047105237349
 30
0.0
 11
580.8083496104349
 21
148.7047105237349
 31
0.0
  0
INSERT
  5
530A
330
4A06
100
AcDbEntity
  8
SUNPOU
100
AcDbBlockReference
  2
_OPEN
 10
559.8083496104346
 20
148.7047105237349
 30
0.0
 41
7.0
 42
7.0
 43
7.0
 50
180.0
  0
INSERT
  5
530B
330
4A06
100
AcDbEntity
  8
SUNPOU
100
AcDbBlockReference
  2
_OPEN
 10
587.8083496104349
 20
148.7047105237349
 30
0.0
 41
7.0
 42
7.0
 43
7.0
  0
MTEXT
  5
530C
330
4A06
100
AcDbEntity
  8
SUNPOU
100
AcDbMText
 10
573.8083496104348
 20
153.7047105237349
 30
0.0
 40
6.0
 41
0.0
 71
     5
 72
     1
  1
\A1;28
 73
     1
 44
1.0
  0
POINT
  5
530D
330
4A06
100
AcDbEntity
  8
DEFPOINTS
 62
     0
100
AcDbPoint
 10
559.8083496104346
 20
179.2661022714591
 30
0.0
  0
POINT
  5
530E
330
4A06
100
AcDbEntity
  8
DEFPOINTS
 62
     0
100
AcDbPoint
 10
587.8083496104349
 20
179.2661022714591
 30
0.0
  0
POINT
  5
530F
330
4A06
100
AcDbEntity
  8
DEFPOINTS
 62
     0
100
AcDbPoint
 10
587.8083496104349
 20
148.7047105237349
 30
0.0
  0
ENDBLK
  5
4A11
330
4A06
100
AcDbEntity
  8
0
100
AcDbBlockEnd
  0
BLOCK
  5
4A1C
330
4A12
100
AcDbEntity
  8
0
100
AcDbBlockBegin
  2
*D13
 70
     1
 71
     0
 10
0.0
 20
0.0
 30
0.0
  3
*D13
  1

  0
LINE
  5
5344
330
4A12
100
AcDbEntity
  8
SUNPOU
100
AcDbLine
 10
546.804045268463
 20
241.973490381037
 30
0.0
 11
546.804045268463
 21
279.0347393422748
 31
0.0
  0
LINE
  5
5345
330
4A12
100
AcDbEntity
  8
SUNPOU
100
AcDbLine
 10
600.8148919205536
 20
242.0008768526561
 30
0.0
 11
600.8148919205536
 21
279.0347393422748
 31
0.0
  0
LINE
  5
5346
330
4A12
100
AcDbEntity
  8
SUNPOU
100
AcDbLine
 10
553.804045268463
 20
276.0347393422748
 30
0.0
 11
593.8148919205536
 21
276.0347393422748
 31
0.0
  0
INSERT
  5
5347
330
4A12
100
AcDbEntity
  8
SUNPOU
100
AcDbBlockReference
  2
_OPEN
 10
546.804045268463
 20
276.0347393422748
 30
0.0
 41
7.0
 42
7.0
 43
7.0
 50
180.0
  0
INSERT
  5
5348
330
4A12
100
AcDbEntity
  8
SUNPOU
100
AcDbBlockReference
  2
_OPEN
 10
600.8148919205536
 20
276.0347393422748
 30
0.0
 41
7.0
 42
7.0
 43
7.0
  0
MTEXT
  5
5349
330
4A12
100
AcDbEntity
  8
SUNPOU
100
AcDbMText
 10
573.8094685945083
 20
281.0347393422748
 30
0.0
 40
6.0
 41
0.0
 71
     5
 72
     1
  1
\A1;54
 73
     1
 44
1.0
  0
POINT
  5
534A
330
4A12
100
AcDbEntity
  8
DEFPOINTS
 62
     0
100
AcDbPoint
 10
546.804045268463
 20
235.973490381037
 30
0.0
  0
POINT
  5
534B
330
4A12
100
AcDbEntity
  8
DEFPOINTS
 62
     0
100
AcDbPoint
 10
600.8148919205536
 20
236.0008768526561
 30
0.0
  0
POINT
  5
534C
330
4A12
100
AcDbEntity
  8
DEFPOINTS
 62
     0
100
AcDbPoint
 10
600.8148919205536
 20
276.0347393422748
 30
0.0
  0
ENDBLK
  5
4A1D
330
4A12
100
AcDbEntity
  8
0
100
AcDbBlockEnd
  0
BLOCK
  5
4A28
330
4A1E
100
AcDbEntity
  8
0
100
AcDbBlockBegin
  2
*D14
 70
     1
 71
     0
 10
0.0
 20
0.0
 30
0.0
  3
*D14
  1

  0
LINE
  5
533B
330
4A1E
100
AcDbEntity
  8
SUNPOU
100
AcDbLine
 10
608.808349759447
 20
249.4228950994476
 30
0.0
 11
608.808349759447
 21
290.5747877380599
 31
0.0
  0
LINE
  5
533C
330
4A1E
100
AcDbEntity
  8
SUNPOU
100
AcDbLine
 10
538.8083494614233
 20
249.9011433211811
 30
0.0
 11
538.8083494614233
 21
290.5747877380599
 31
0.0
  0
LINE
  5
533D
330
4A1E
100
AcDbEntity
  8
SUNPOU
100
AcDbLine
 10
601.808349759447
 20
287.5747877380599
 30
0.0
 11
545.8083494614233
 21
287.5747877380599
 31
0.0
  0
INSERT
  5
533E
330
4A1E
100
AcDbEntity
  8
SUNPOU
100
AcDbBlockReference
  2
_OPEN
 10
608.808349759447
 20
287.5747877380599
 30
0.0
 41
7.0
 42
7.0
 43
7.0
  0
INSERT
  5
533F
330
4A1E
100
AcDbEntity
  8
SUNPOU
100
AcDbBlockReference
  2
_OPEN
 10
538.8083494614233
 20
287.5747877380599
 30
0.0
 41
7.0
 42
7.0
 43
7.0
 50
180.0
  0
MTEXT
  5
5340
330
4A1E
100
AcDbEntity
  8
SUNPOU
100
AcDbMText
 10
573.8083496104351
 20
292.5747877380599
 30
0.0
 40
6.0
 41
0.0
 71
     5
 72
     1
  1
\A1;70
 73
     1
 44
1.0
  0
POINT
  5
5341
330
4A1E
100
AcDbEntity
  8
DEFPOINTS
 62
     0
100
AcDbPoint
 10
608.808349759447
 20
243.4228950994476
 30
0.0
  0
POINT
  5
5342
330
4A1E
100
AcDbEntity
  8
DEFPOINTS
 62
     0
100
AcDbPoint
 10
538.8083494614233
 20
243.9011433211811
 30
0.0
  0
POINT
  5
5343
330
4A1E
100
AcDbEntity
  8
DEFPOINTS
 62
     0
100
AcDbPoint
 10
538.8083494614233
 20
287.5747877380599
 30
0.0
  0
ENDBLK
  5
4A29
330
4A1E
100
AcDbEntity
  8
0
100
AcDbBlockEnd
  0
ENDSEC
  0
SECTION
  2
ENTITIES
  0
DIMENSION
  5
4694
330
1A
100
AcDbEntity
  8
SUNPOU
100
AcDbDimension
  2
*D11
 10
498.7263265867119
 20
172.8488826242931
 30
0.0
 11
493.7263265867119
 21
212.8488817302235
 31
0.0
 70
    32
 71
     5
 42
-1.0
  3
STANDARD
100
AcDbAlignedDimension
 13
573.8083496104349
 23
252.8488808361537
 33
0.0
 14
573.8083496104349
 24
172.8488826242931
 34
0.0
 50
90.0
100
AcDbRotatedDimension
1001
ACAD
1000
DSTYLE
1002
{
1070
   287
1070
     5
1070
   287
1070
     5
1070
   287
1070
     5
1070
   287
1070
     5
1070
    41
1040
7.0
1070
    42
1040
6.0
1070
    43
1040
14.0
1070
    44
1040
3.0
1070
    73
1070
     0
1070
    74
1070
     0
1070
    77
1070
     3
1070
   140
1040
6.0
1070
   141
1040
150.0
1070
   147
1040
2.0
1070
   172
1070
     1
1070
   173
1070
     1
1070
   176
1070
   256
1070
   177
1070
   256
1070
   178
1070
   256
1070
   271
1070
     0
1070
   272
1070
     0
1070
   279
1070
     2
1070
   341
1005
6D
1070
     6
1000
OPEN
1070
     7
1000
OPEN
1070
   371
1070
    -1
1070
   372
1070
    -1
1002
}
  0
TEXT
  5
4695
330
1A
100
AcDbEntity
  8
MOJI
100
AcDbText
 10
473.2464319910021
 20
21.94261772165999
 30
0.0
 40
5.599999999999999
  1
ＬＭ６０Ｔ
 41
0.9
  7
ｽﾀｲﾙ1
100
AcDbText
  0
LWPOLYLINE
  5
4696
330
1A
100
AcDbEntity
  8
ZUWAKU
100
AcDbPolyline
 90
        4
 70
     1
 43
0.0
 10
10.79999999999996
 20
560.8
 10
10.79999999999996
 20
10.80000000000007
 10
806.7999999999998
 20
10.80000000000007
 10
806.7999999999998
 20
560.8
  0
LWPOLYLINE
  5
4697
330
1A
100
AcDbEntity
  8
ZUWAKU
100
AcDbPolyline
 90
        4
 70
     1
 43
0.0
 10
10.39999999999998
 20
561.1999999999999
 10
10.39999999999998
 20
10.40000000000009
 10
807.2000000000001
 20
10.40000000000009
 10
807.2000000000001
 20
561.1999999999999
  0
LWPOLYLINE
  5
4698
330
1A
100
AcDbEntity
  8
ZUWAKU
100
AcDbPolyline
 90
        4
 70
     1
 43
0.0
 10
10.0
 20
561.6
 10
10.0
 20
10.0
 10
807.6
 20
10.00000000000011
 10
807.6
 20
561.6000000000001
  0
LWPOLYLINE
  5
4699
330
1A
100
AcDbEntity
  8
ZUWAKU
100
AcDbPolyline
 90
        4
 70
     1
 43
0.0
 10
10.59999999999991
 20
561.0000000000001
 10
10.59999999999991
 20
10.60000000000002
 10
807.0000000000002
 20
10.60000000000002
 10
807.0
 20
561.0000000000001
  0
LWPOLYLINE
  5
469A
330
1A
100
AcDbEntity
  8
ZUWAKU
100
AcDbPolyline
 90
        4
 70
     1
 43
0.0
 10
10.19999999999993
 20
561.4
 10
10.19999999999993
 20
10.20000000000005
 10
807.3999999999999
 20
10.20000000000005
 10
807.4000000000001
 20
561.4
  0
LINE
  5
469B
330
1A
100
AcDbEntity
  8
ZUWAKU
100
AcDbLine
 10
10.0
 20
40.0
 30
0.0
 11
807.3999999999999
 21
40.0
 31
0.0
  0
LINE
  5
469C
330
1A
100
AcDbEntity
  8
ZUWAKU
100
AcDbLine
 10
10.0
 20
40.20000000000005
 30
0.0
 11
807.3999999999999
 21
40.20000000000005
 31
0.0
  0
LINE
  5
469D
330
1A
100
AcDbEntity
  8
ZUWAKU
100
AcDbLine
 10
10.0
 20
40.39999999999998
 30
0.0
 11
807.3999999999999
 21
40.39999999999998
 31
0.0
  0
LINE
  5
469E
330
1A
100
AcDbEntity
  8
ZUWAKU
100
AcDbLine
 10
10.0
 20
40.60000000000002
 30
0.0
 11
807.3999999999999
 21
40.60000000000002
 31
0.0
  0
LINE
  5
469F
330
1A
100
AcDbEntity
  8
ZUWAKU
100
AcDbLine
 10
10.0
 20
40.79999999999996
 30
0.0
 11
807.3999999999999
 21
40.79999999999996
 31
0.0
  0
ELLIPSE
  5
46A0
330
1A
100
AcDbEntity
  8
SEIHIN
100
AcDbEllipse
 10
247.6488226985204
 20
222.8413493945328
 30
0.0
 11
2.125198478113305
 21
2.125198478113305
 31
0.0
210
0.0
220
0.0
230
1.0
 40
0.9981751659
 41
2.357564017666677
 42
3.925621289512924
  0
ARC
  5
46A1
330
1A
100
AcDbEntity
  8
ZUWAKU
100
AcDbCircle
 10
40.3672121547811
 20
32.72500000000002
 30
0.0
 40
0.525
100
AcDbArc
 50
90.0
 51
180.0
  0
ARC
  5
46A2
330
1A
100
AcDbEntity
  8
ZUWAKU
100
AcDbCircle
 10
40.3672121547811
 20
17.67499999999996
 30
0.0
 40
0.525
100
AcDbArc
 50
180.0
 51
270.0
  0
HATCH
  5
46A3
330
1A
100
AcDbEntity
  8
ZUWAKU
  6
Continuous
100
AcDbHatch
 10
0.0
 20
0.0
 30
0.0
210
0.0
220
0.0
230
1.0
  2
ANSI37
 70
     0
 71
     0
 91
        8
 92
        7
 72
     1
 73
     1
 93
       24
 10
24.50226266111985
 20
27.64484848098357
 42
-0.1989123673796348
 10
24.09221215478112
 20
28.63479797464458
 42
0.0
 10
24.09221215478112
 20
29.92499999999996
 42
-0.4142135623730912
 10
24.61721215478109
 20
30.45000000000005
 42
0.0
 10
27.592212154781
 20
30.45000000000005
 42
0.4142135623731546
 10
28.1172121547811
 20
30.97500000000002
 42
0.0
 10
28.1172121547811
 20
32.72500000000002
 42
0.4142135623731586
 10
27.592212154781
 20
33.25
 42
0.0
 10
24.09221215478112
 20
33.25
 42
0.4142135623730928
 10
21.29221215478116
 20
30.45000000000005
 42
0.0
 10
21.29221215478116
 20
28.63479797464481
 42
0.1989123673796619
 10
22.52236367379759
 20
25.6649494936612
 42
0.0
 10
25.43216164844227
 20
22.75515151901652
 42
-0.1989123673796613
 10
25.84221215478112
 20
21.76520202535528
 42
0.0
 10
25.84221215478112
 20
20.47500000000002
 42
-0.4142135623730911
 10
25.31721215478114
 20
19.95000000000005
 42
0.0
 10
22.34221215478123
 20
19.95000000000005
 42
0.4142135623731526
 10
21.81721215478114
 20
19.42500000000007
 42
0.0
 10
21.81721215478114
 20
17.67499999999996
 42
0.4142135623731526
 10
22.34221215478123
 20
17.14999999999998
 42
0.0
 10
25.84221215478112
 20
17.14999999999998
 42
0.4142135623731044
 10
28.6422121547812
 20
19.94999999999993
 42
0.0
 10
28.6422121547812
 20
21.76520202535528
 42
0.1989123673796604
 10
27.41206063576464
 20
24.73505050633878
 42
0.0
 97
        0
 92
        7
 72
     1
 73
     1
 93
       16
 10
33.54221215478116
 20
29.04999999999996
 42
-0.4142135623730935
 10
34.94221215478115
 20
30.45000000000005
 42
0.0
 10
36.8672121547811
 20
30.45000000000005
 42
0.4142135623731546
 10
37.39221215478119
 20
30.97500000000002
 42
0.0
 10
37.39221215478119
 20
32.72500000000002
 42
0.4142135623730951
 10
36.86721215478121
 20
33.25
 42
0.0
 10
34.94221215478103
 20
33.25
 42
0.4142135623730892
 10
30.74221215478109
 20
29.04999999999996
 42
0.0
 10
30.74221215478109
 20
21.35000000000002
 42
0.4142135623730969
 10
34.94221215478115
 20
17.14999999999998
 42
0.0
 10
36.8672121547811
 20
17.14999999999998
 42
0.4142135623731526
 10
37.39221215478119
 20
17.67499999999996
 42
0.0
 10
37.39221215478119
 20
19.42500000000007
 42
0.4142135623730891
 10
36.86721215478121
 20
19.95000000000005
 42
0.0
 10
34.94221215478115
 20
19.95000000000005
 42
-0.4142135623730928
 10
33.54221215478116
 20
21.35000000000002
 42
0.0
 97
        0
 92
        7
 72
     1
 73
     1
 93
        2
 10
34.2422121547811
 20
25.20000000000005
 42
1.0
 10
37.7422121547811
 20
25.20000000000005
 42
1.0
 97
        0
 92
        7
 72
     1
 73
     1
 93
       26
 10
47.31485863695912
 20
29.20504719356347
 42
0.0
 10
48.37649827009694
 20
32.56690603183301
 42
0.5069206636600134
 10
47.87586737090157
 20
33.25
 42
0.0
 10
46.17697799129234
 20
33.25
 42
0.3272098845218764
 10
45.67634709209698
 20
32.88309396816692
 42
0.0
 10
43.8080772174652
 20
26.96690603183311
 42
-0.3272098845219541
 10
43.30744631826973
 20
26.60000000000002
 42
0.0
 10
43.16721215478128
 20
26.60000000000002
 42
-0.4142135623731526
 10
42.64221215478119
 20
27.125
 42
0.0
 10
42.64221215478119
 20
32.72500000000002
 42
0.4142135623730951
 10
42.11721215478121
 20
33.25
 42
0.0
 10
40.36721215478109
 20
33.25
 42
0.4142135623730871
 10
39.84221215478112
 20
32.72500000000002
 42
0.0
 10
39.84221215478112
 20
17.67499999999996
 42
0.4142135623730891
 10
40.36721215478109
 20
17.14999999999998
 42
0.0
 10
42.1172121547811
 20
17.14999999999998
 42
0.4142135623731526
 10
42.64221215478119
 20
17.67499999999996
 42
0.0
 10
42.64221215478119
 20
23.27499999999998
 42
-0.4142135623731526
 10
43.16721215478128
 20
23.79999999999996
 42
0.0
 10
43.30744631826985
 20
23.79999999999996
 42
-0.3272098845218915
 10
43.8080772174652
 20
23.43309396816687
 42
0.0
 10
45.67634709209698
 20
17.51690603183306
 42
0.3272098845218902
 10
46.17697799129234
 20
17.14999999999998
 42
0.0
 10
47.87586737090157
 20
17.14999999999998
 42
0.5069206636600335
 10
48.37649827009694
 20
17.83309396816696
 42
0.0
 10
46.05010689162327
 20
25.20000000000016
 42
0.0
 97
        0
 92
        7
 72
     1
 73
     1
 93
        8
 10
53.49221215478109
 20
32.72500000000002
 42
0.4142135623731546
 10
52.967212154781
 20
33.25
 42
0.0
 10
51.21721215478124
 20
33.25
 42
0.4142135623731507
 10
50.69221215478114
 20
32.72500000000002
 42
0.0
 10
50.69221215478114
 20
17.67499999999996
 42
0.4142135623731526
 10
51.21721215478124
 20
17.14999999999998
 42
0.0
 10
52.967212154781
 20
17.14999999999998
 42
0.4142135623731526
 10
53.49221215478109
 20
17.67499999999996
 42
0.0
 97
        0
 92
        7
 72
     1
 73
     1
 93
       24
 10
58.39221215478118
 20
29.92499999999996
 42
-0.4142135623731546
 10
58.91721215478128
 20
30.45000000000005
 42
0.0
 10
61.89221215478119
 20
30.45000000000005
 42
0.4142135623730911
 10
62.41721215478116
 20
30.97500000000002
 42
0.0
 10
62.41721215478116
 20
32.72500000000002
 42
0.4142135623730952
 10
61.89221215478119
 20
33.25
 42
0.0
 10
58.39221215478118
 20
33.25
 42
0.4142135623731048
 10
55.59221215478112
 20
30.45000000000005
 42
0.0
 10
55.59221215478112
 20
28.63479797464481
 42
0.1989123673796613
 10
56.82236367379766
 20
25.6649494936612
 42
0.0
 10
59.73216164844234
 20
22.75515151901652
 42
-0.1989123673796402
 10
60.14221215478119
 20
21.76520202535551
 42
0.0
 10
60.14221215478119
 20
20.47500000000002
 42
-0.4142135623730911
 10
59.61721215478121
 20
19.95000000000005
 42
0.0
 10
56.64221215478119
 20
19.95000000000005
 42
0.4142135623731526
 10
56.1172121547811
 20
19.42500000000007
 42
0.0
 10
56.1172121547811
 20
17.67499999999996
 42
0.4142135623730891
 10
56.64221215478108
 20
17.14999999999998
 42
0.0
 10
60.14221215478119
 20
17.14999999999998
 42
0.4142135623730925
 10
62.94221215478114
 20
19.94999999999993
 42
0.0
 10
62.94221215478114
 20
21.76520202535528
 42
0.1989123673796675
 10
61.7120606357646
 20
24.73505050633889
 42
0.0
 10
58.80226266112003
 20
27.64484848098346
 42
-0.1989123673796652
 10
58.39221215478118
 20
28.63479797464458
 42
0.0
 97
        0
 92
        7
 72
     1
 73
     1
 93
       16
 10
67.84221215478112
 20
32.72500000000002
 42
0.414213562373103
 10
67.31721215478115
 20
33.25
 42
0.0
 10
65.56721215478115
 20
33.25
 42
0.4142135623730871
 10
65.04221215478117
 20
32.72500000000002
 42
0.0
 10
65.04221215478117
 20
19.94999999999993
 42
0.4142135623730926
 10
67.84221215478112
 20
17.14999999999998
 42
0.0
 10
71.34221215478112
 20
17.14999999999998
 42
0.4142135623731044
 10
74.14221215478119
 20
19.94999999999993
 42
0.0
 10
74.14221215478119
 20
32.72500000000002
 42
0.4142135623730951
 10
73.61721215478121
 20
33.25
 42
0.0
 10
71.8672121547811
 20
33.25
 42
0.4142135623730871
 10
71.34221215478112
 20
32.72500000000002
 42
0.0
 10
71.34221215478112
 20
21.0
 42
-0.4142135623730879
 10
70.29221215478117
 20
19.95000000000005
 42
0.0
 10
68.89221215478119
 20
19.95000000000005
 42
-0.4142135623731197
 10
67.84221215478112
 20
21.0
 42
0.0
 97
        0
 92
        7
 72
     1
 73
     1
 93
        8
 10
79.04221215478117
 20
32.72500000000002
 42
0.4142135623730871
 10
78.51721215478119
 20
33.25
 42
0.0
 10
76.76721215478119
 20
33.25
 42
0.4142135623731507
 10
76.2422121547811
 20
32.72500000000002
 42
0.0
 10
76.2422121547811
 20
17.67499999999996
 42
0.4142135623730891
 10
76.76721215478108
 20
17.14999999999998
 42
0.0
 10
78.51721215478119
 20
17.14999999999998
 42
0.4142135623730891
 10
79.04221215478117
 20
17.67499999999996
 42
0.0
 97
        0
 75
     0
 76
     1
 52
0.0
 41
0.2
 77
     0
 78
     2
 53
45.0
 43
-890.9423043346791
 44
-3.199999999999932
 45
-0.4490128060534576
 46
0.4490128060534577
 79
     0
 53
135.0
 43
-890.9423043346791
 44
-3.199999999999932
 45
-0.4490128060534577
 46
-0.4490128060534576
 79
     0
 47
0.057451373970553
 98
        8
 10
26.0798549630233
 20
25.16717364588556
 10
32.40451500643918
 20
28.84406218245101
 10
35.16436788565965
 20
25.51188164607072
 10
40.91405998163713
 20
26.2012976464415
 10
51.83847201895673
 20
26.66090991398312
 10
56.89820089512955
 20
29.41857631640721
 10
66.55768597240035
 20
28.72915791509502
 10
77.82707961962274
 20
29.18877018263663
  0
LINE
  5
46A4
330
1A
100
AcDbEntity
  8
ZUWAKU
100
AcDbLine
 10
39.84221215478101
 20
32.72500000000002
 30
0.0
 11
39.84221215478101
 21
17.67499999999996
 31
0.0
  0
ARC
  5
46A5
330
1A
100
AcDbEntity
  8
ZUWAKU
100
AcDbCircle
 10
34.94221215478115
 20
29.04999999999996
 30
0.0
 40
4.199999999999998
100
AcDbArc
 50
90.0
 51
180.0
  0
ARC
  5
46A6
330
1A
100
AcDbEntity
  8
ZUWAKU
100
AcDbCircle
 10
34.94221215478115
 20
29.04999999999996
 30
0.0
 40
1.399999999999999
100
AcDbArc
 50
90.0
 51
180.0
  0
LINE
  5
46A7
330
1A
100
AcDbEntity
  8
ZUWAKU
100
AcDbLine
 10
21.29221215478106
 20
30.45000000000005
 30
0.0
 11
21.29221215478106
 21
28.6347979746447
 31
0.0
  0
LINE
  5
46A8
330
1A
100
AcDbEntity
  8
ZUWAKU
100
AcDbLine
 10
24.09221215478101
 20
29.92499999999996
 30
0.0
 11
24.09221215478101
 21
28.6347979746447
 31
0.0
  0
ARC
  5
46A9
330
1A
100
AcDbEntity
  8
ZUWAKU
100
AcDbCircle
 10
25.4922121547811
 20
28.6347979746447
 30
0.0
 40
4.199999999999998
100
AcDbArc
 50
180.0
 51
225.0
  0
ARC
  5
46AA
330
1A
100
AcDbEntity
  8
ZUWAKU
100
AcDbCircle
 10
36.8672121547811
 20
17.67499999999996
 30
0.0
 40
0.525
100
AcDbArc
 50
270.0
 51
0.0
  0
ARC
  5
46AB
330
1A
100
AcDbEntity
  8
ZUWAKU
100
AcDbCircle
 10
22.34221215478101
 20
17.67499999999996
 30
0.0
 40
0.525
100
AcDbArc
 50
180.0
 51
270.0
  0
ARC
  5
46AC
330
1A
100
AcDbEntity
  8
ZUWAKU
100
AcDbCircle
 10
34.94221215478115
 20
21.35000000000002
 30
0.0
 40
4.199999999999998
100
AcDbArc
 50
180.0
 51
270.0
  0
ARC
  5
46AD
330
1A
100
AcDbEntity
  8
ZUWAKU
100
AcDbCircle
 10
25.84221215478101
 20
19.95000000000005
 30
0.0
 40
2.799999999999999
100
AcDbArc
 50
270.0
 51
0.0
  0
LINE
  5
46AE
330
1A
100
AcDbEntity
  8
ZUWAKU
100
AcDbLine
 10
22.34221215478101
 20
17.14999999999998
 30
0.0
 11
25.84221215478101
 21
17.14999999999998
 31
0.0
  0
LINE
  5
46AF
330
1A
100
AcDbEntity
  8
ZUWAKU
100
AcDbLine
 10
36.8672121547811
 20
17.14999999999998
 30
0.0
 11
34.94221215478115
 21
17.14999999999998
 31
0.0
  0
LINE
  5
46B0
330
1A
100
AcDbEntity
  8
ZUWAKU
100
AcDbLine
 10
28.64221215478119
 20
19.95000000000005
 30
0.0
 11
28.64221215478119
 21
21.76520202535539
 31
0.0
  0
LINE
  5
46B1
330
1A
100
AcDbEntity
  8
ZUWAKU
100
AcDbLine
 10
22.5223636737976
 20
25.6649494936612
 30
0.0
 11
25.43216164844216
 21
22.75515151901652
 31
0.0
  0
LINE
  5
46B2
330
1A
100
AcDbEntity
  8
ZUWAKU
100
AcDbLine
 10
22.34221215478101
 20
19.95000000000005
 30
0.0
 11
25.31721215478115
 21
19.95000000000005
 31
0.0
  0
ARC
  5
46B3
330
1A
100
AcDbEntity
  8
ZUWAKU
100
AcDbCircle
 10
22.34221215478101
 20
19.42499999999996
 30
0.0
 40
0.525
100
AcDbArc
 50
90.0
 51
180.0
  0
LINE
  5
46B4
330
1A
100
AcDbEntity
  8
ZUWAKU
100
AcDbLine
 10
21.81721215478115
 20
17.67499999999996
 30
0.0
 11
21.81721215478115
 21
19.42499999999996
 31
0.0
  0
ARC
  5
46B5
330
1A
100
AcDbEntity
  8
ZUWAKU
100
AcDbCircle
 10
24.44221215478115
 20
21.76520202535539
 30
0.0
 40
1.399999999999999
100
AcDbArc
 50
0.0
 51
45.0
  0
ARC
  5
46B6
330
1A
100
AcDbEntity
  8
ZUWAKU
100
AcDbCircle
 10
25.31721215478115
 20
20.47500000000002
 30
0.0
 40
0.525
100
AcDbArc
 50
270.0
 51
0.0
  0
LINE
  5
46B7
330
1A
100
AcDbEntity
  8
ZUWAKU
100
AcDbLine
 10
25.84221215478101
 20
20.47500000000002
 30
0.0
 11
25.84221215478101
 21
21.76520202535539
 31
0.0
  0
LINE
  5
46B8
330
1A
100
AcDbEntity
  8
ZUWAKU
100
AcDbLine
 10
27.41206063576465
 20
24.73505050633878
 30
0.0
 11
24.50226266111986
 21
27.64484848098346
 31
0.0
  0
ARC
  5
46B9
330
1A
100
AcDbEntity
  8
ZUWAKU
100
AcDbCircle
 10
24.44221215478115
 20
21.76520202535528
 30
0.0
 40
4.199999999999998
100
AcDbArc
 50
0.0
 51
45.0
  0
LINE
  5
46BA
330
1A
100
AcDbEntity
  8
ZUWAKU
100
AcDbLine
 10
30.7422121547811
 20
21.35000000000002
 30
0.0
 11
30.7422121547811
 21
29.04999999999996
 31
0.0
  0
ARC
  5
46BB
330
1A
100
AcDbEntity
  8
ZUWAKU
100
AcDbCircle
 10
25.4922121547811
 20
28.6347979746447
 30
0.0
 40
1.399999999999999
100
AcDbArc
 50
180.0000000000016
 51
224.9999999999988
  0
ARC
  5
46BC
330
1A
100
AcDbEntity
  8
ZUWAKU
100
AcDbCircle
 10
36.8672121547811
 20
19.42499999999996
 30
0.0
 40
0.525
100
AcDbArc
 50
0.0
 51
90.0
  0
LINE
  5
46BD
330
1A
100
AcDbEntity
  8
ZUWAKU
100
AcDbLine
 10
37.39221215478119
 20
19.42499999999996
 30
0.0
 11
37.39221215478119
 21
17.67499999999996
 31
0.0
  0
ARC
  5
46BE
330
1A
100
AcDbEntity
  8
ZUWAKU
100
AcDbCircle
 10
34.94221215478115
 20
21.35000000000002
 30
0.0
 40
1.399999999999999
100
AcDbArc
 50
180.0
 51
270.0
  0
LINE
  5
46BF
330
1A
100
AcDbEntity
  8
ZUWAKU
100
AcDbLine
 10
33.54221215478106
 20
29.04999999999996
 30
0.0
 11
33.54221215478106
 21
21.35000000000002
 31
0.0
  0
CIRCLE
  5
46C0
330
1A
100
AcDbEntity
  8
ZUWAKU
100
AcDbCircle
 10
35.9922121547811
 20
25.20000000000005
 30
0.0
 40
1.75
  0
LINE
  5
46C1
330
1A
100
AcDbEntity
  8
ZUWAKU
100
AcDbLine
 10
34.94221215478115
 20
19.95000000000005
 30
0.0
 11
36.8672121547811
 21
19.95000000000005
 31
0.0
  0
ARC
  5
46C2
330
1A
100
AcDbEntity
  8
ZUWAKU
100
AcDbCircle
 10
24.09221215478101
 20
30.45000000000005
 30
0.0
 40
2.799999999999999
100
AcDbArc
 50
90.0
 51
180.0
  0
LINE
  5
46C3
330
1A
100
AcDbEntity
  8
ZUWAKU
100
AcDbLine
 10
28.1172121547811
 20
32.72500000000002
 30
0.0
 11
28.1172121547811
 21
30.97500000000002
 31
0.0
  0
LINE
  5
46C4
330
1A
100
AcDbEntity
  8
ZUWAKU
100
AcDbLine
 10
27.59221215478101
 20
30.45000000000005
 30
0.0
 11
24.6172121547811
 21
30.45000000000005
 31
0.0
  0
ARC
  5
46C5
330
1A
100
AcDbEntity
  8
ZUWAKU
100
AcDbCircle
 10
24.6172121547811
 20
29.92499999999996
 30
0.0
 40
0.525
100
AcDbArc
 50
90.0
 51
180.0
  0
LINE
  5
46C6
330
1A
100
AcDbEntity
  8
ZUWAKU
100
AcDbLine
 10
24.09221215478101
 20
33.25
 30
0.0
 11
27.59221215478101
 21
33.25
 31
0.0
  0
ARC
  5
46C7
330
1A
100
AcDbEntity
  8
ZUWAKU
100
AcDbCircle
 10
27.59221215478101
 20
30.97500000000002
 30
0.0
 40
0.525
100
AcDbArc
 50
270.0
 51
0.0
  0
ARC
  5
46C8
330
1A
100
AcDbEntity
  8
ZUWAKU
100
AcDbCircle
 10
27.59221215478101
 20
32.72500000000002
 30
0.0
 40
0.525
100
AcDbArc
 50
0.0
 51
90.0
  0
LINE
  5
46C9
330
1A
100
AcDbEntity
  8
ZUWAKU
100
AcDbLine
 10
37.39221215478119
 20
32.72500000000002
 30
0.0
 11
37.39221215478119
 21
30.97500000000002
 31
0.0
  0
ARC
  5
46CA
330
1A
100
AcDbEntity
  8
ZUWAKU
100
AcDbCircle
 10
36.8672121547811
 20
30.97500000000002
 30
0.0
 40
0.525
100
AcDbArc
 50
270.0
 51
0.0
  0
ARC
  5
46CB
330
1A
100
AcDbEntity
  8
ZUWAKU
100
AcDbCircle
 10
36.8672121547811
 20
32.72500000000002
 30
0.0
 40
0.525
100
AcDbArc
 50
0.0
 51
90.0
  0
LINE
  5
46CC
330
1A
100
AcDbEntity
  8
ZUWAKU
100
AcDbLine
 10
36.8672121547811
 20
30.45000000000005
 30
0.0
 11
34.94221215478115
 21
30.45000000000005
 31
0.0
  0
LINE
  5
46CD
330
1A
100
AcDbEntity
  8
ZUWAKU
100
AcDbLine
 10
34.94221215478115
 20
33.25
 30
0.0
 11
36.8672121547811
 21
33.25
 31
0.0
  0
LINE
  5
46CE
330
1A
100
AcDbEntity
  8
ZUWAKU
100
AcDbLine
 10
55.59221215478101
 20
30.45000000000005
 30
0.0
 11
55.59221215478101
 21
28.6347979746447
 31
0.0
  0
LINE
  5
46CF
330
1A
100
AcDbEntity
  8
ZUWAKU
100
AcDbLine
 10
58.39221215478119
 20
29.92499999999996
 30
0.0
 11
58.39221215478119
 21
28.6347979746447
 31
0.0
  0
LINE
  5
46D0
330
1A
100
AcDbEntity
  8
ZUWAKU
100
AcDbLine
 10
48.37649827009705
 20
32.56690603183301
 30
0.0
 11
47.31485863695912
 21
29.20504719356347
 31
0.0
  0
LINE
  5
46D1
330
1A
100
AcDbEntity
  8
ZUWAKU
100
AcDbLine
 10
45.67634709209688
 20
32.88309396816692
 30
0.0
 11
43.8080772174651
 21
26.96690603183299
 31
0.0
  0
LINE
  5
46D2
330
1A
100
AcDbEntity
  8
ZUWAKU
100
AcDbLine
 10
42.64221215478119
 20
27.125
 30
0.0
 11
42.64221215478119
 21
32.72500000000002
 31
0.0
  0
LINE
  5
46D3
330
1A
100
AcDbEntity
  8
ZUWAKU
100
AcDbLine
 10
67.84221215478101
 20
21.0
 30
0.0
 11
67.84221215478101
 21
32.72500000000002
 31
0.0
  0
LINE
  5
46D4
330
1A
100
AcDbEntity
  8
ZUWAKU
100
AcDbLine
 10
65.04221215478106
 20
32.72500000000002
 30
0.0
 11
65.04221215478106
 21
19.95000000000005
 31
0.0
  0
LINE
  5
46D5
330
1A
100
AcDbEntity
  8
ZUWAKU
100
AcDbLine
 10
53.4922121547811
 20
17.67499999999996
 30
0.0
 11
53.4922121547811
 21
32.72500000000002
 31
0.0
  0
LINE
  5
46D6
330
1A
100
AcDbEntity
  8
ZUWAKU
100
AcDbLine
 10
50.69221215478115
 20
32.72500000000002
 30
0.0
 11
50.69221215478115
 21
17.67499999999996
 31
0.0
  0
LINE
  5
46D7
330
1A
100
AcDbEntity
  8
ZUWAKU
100
AcDbLine
 10
76.2422121547811
 20
32.72500000000002
 30
0.0
 11
76.2422121547811
 21
17.67499999999996
 31
0.0
  0
LINE
  5
46D8
330
1A
100
AcDbEntity
  8
ZUWAKU
100
AcDbLine
 10
79.04221215478128
 20
17.67499999999996
 30
0.0
 11
79.04221215478128
 21
32.72500000000002
 31
0.0
  0
LINE
  5
46D9
330
1A
100
AcDbEntity
  8
ZUWAKU
100
AcDbLine
 10
71.34221215478101
 20
32.72500000000002
 30
0.0
 11
71.34221215478101
 21
21.0
 31
0.0
  0
LINE
  5
46DA
330
1A
100
AcDbEntity
  8
ZUWAKU
100
AcDbLine
 10
74.14221215478119
 20
19.95000000000005
 30
0.0
 11
74.14221215478119
 21
32.72500000000002
 31
0.0
  0
LINE
  5
46DB
330
1A
100
AcDbEntity
  8
ZUWAKU
100
AcDbLine
 10
89.12662954798839
 20
40.0
 30
0.0
 11
89.12662954798839
 21
10.80000000000007
 31
0.0
  0
LINE
  5
46DC
330
1A
100
AcDbEntity
  8
ZUWAKU
100
AcDbLine
 10
89.52662954798825
 20
40.0
 30
0.0
 11
89.52662954798848
 21
10.80000000000007
 31
0.0
  0
LINE
  5
46DD
330
1A
100
AcDbEntity
  8
ZUWAKU
100
AcDbLine
 10
89.32662954798821
 20
40.0
 30
0.0
 11
89.32662954798843
 21
10.80000000000007
 31
0.0
  0
TEXT
  5
46DE
330
1A
100
AcDbEntity
  8
MOJI
100
AcDbText
 10
102.9577895881691
 20
22.74117813027476
 30
0.0
 40
6.0
  1
アートフェイスＶＭ１２０
 41
0.9
  7
ｽﾀｲﾙ1
100
AcDbText
  0
LINE
  5
46DF
330
1A
100
AcDbEntity
  8
ZUWAKU
100
AcDbLine
 10
76.76721215478119
 20
17.14999999999998
 30
0.0
 11
78.51721215478119
 21
17.14999999999998
 31
0.0
  0
LINE
  5
46E0
330
1A
100
AcDbEntity
  8
ZUWAKU
100
AcDbLine
 10
56.82236367379755
 20
25.6649494936612
 30
0.0
 11
59.73216164844234
 21
22.75515151901652
 31
0.0
  0
LINE
  5
46E1
330
1A
100
AcDbEntity
  8
ZUWAKU
100
AcDbLine
 10
56.64221215478119
 20
17.14999999999998
 30
0.0
 11
60.14221215478119
 21
17.14999999999998
 31
0.0
  0
LINE
  5
46E2
330
1A
100
AcDbEntity
  8
ZUWAKU
100
AcDbLine
 10
56.64221215478119
 20
19.95000000000005
 30
0.0
 11
59.6172121547811
 21
19.95000000000005
 31
0.0
  0
LINE
  5
46E3
330
1A
100
AcDbEntity
  8
ZUWAKU
100
AcDbLine
 10
61.7120606357646
 20
24.73505050633878
 30
0.0
 11
58.80226266112004
 21
27.64484848098346
 31
0.0
  0
ARC
  5
46E4
330
1A
100
AcDbEntity
  8
ZUWAKU
100
AcDbCircle
 10
52.96721215478101
 20
17.67499999999996
 30
0.0
 40
0.525
100
AcDbArc
 50
270.0
 51
0.0
  0
ARC
  5
46E5
330
1A
100
AcDbEntity
  8
ZUWAKU
100
AcDbCircle
 10
56.64221215478119
 20
17.67499999999996
 30
0.0
 40
0.525
100
AcDbArc
 50
180.0
 51
270.0
  0
ARC
  5
46E6
330
1A
100
AcDbEntity
  8
ZUWAKU
100
AcDbCircle
 10
46.17697799129246
 20
17.67499999999996
 30
0.0
 40
0.525
100
AcDbArc
 50
197.525568373723
 51
270.0
  0
ARC
  5
46E7
330
1A
100
AcDbEntity
  8
ZUWAKU
100
AcDbCircle
 10
47.87586737090146
 20
17.67499999999996
 30
0.0
 40
0.525
100
AcDbArc
 50
270.0
 51
17.52556837372303
  0
ARC
  5
46E8
330
1A
100
AcDbEntity
  8
ZUWAKU
100
AcDbCircle
 10
51.21721215478101
 20
17.67499999999996
 30
0.0
 40
0.525
100
AcDbArc
 50
180.0
 51
270.0
  0
ARC
  5
46E9
330
1A
100
AcDbEntity
  8
ZUWAKU
100
AcDbCircle
 10
42.1172121547811
 20
17.67499999999996
 30
0.0
 40
0.525
100
AcDbArc
 50
270.0
 51
0.0
  0
LINE
  5
46EA
330
1A
100
AcDbEntity
  8
ZUWAKU
100
AcDbLine
 10
46.17697799129246
 20
17.14999999999998
 30
0.0
 11
47.87586737090146
 21
17.14999999999998
 31
0.0
  0
LINE
  5
46EB
330
1A
100
AcDbEntity
  8
ZUWAKU
100
AcDbLine
 10
40.3672121547811
 20
17.14999999999998
 30
0.0
 11
42.1172121547811
 21
17.14999999999998
 31
0.0
  0
LINE
  5
46EC
330
1A
100
AcDbEntity
  8
ZUWAKU
100
AcDbLine
 10
51.21721215478101
 20
17.14999999999998
 30
0.0
 11
52.96721215478101
 21
17.14999999999998
 31
0.0
  0
LINE
  5
46ED
330
1A
100
AcDbEntity
  8
ZUWAKU
100
AcDbLine
 10
48.37649827009705
 20
17.83309396816696
 30
0.0
 11
46.05010689162327
 21
25.20000000000005
 31
0.0
  0
ARC
  5
46EE
330
1A
100
AcDbEntity
  8
ZUWAKU
100
AcDbCircle
 10
43.16721215478106
 20
23.27499999999998
 30
0.0
 40
0.525
100
AcDbArc
 50
90.0
 51
180.0
  0
ARC
  5
46EF
330
1A
100
AcDbEntity
  8
ZUWAKU
100
AcDbCircle
 10
43.30744631826974
 20
23.27499999999998
 30
0.0
 40
0.525
100
AcDbArc
 50
17.52556837372303
 51
90.0
  0
LINE
  5
46F0
330
1A
100
AcDbEntity
  8
ZUWAKU
100
AcDbLine
 10
42.64221215478119
 20
17.67499999999996
 30
0.0
 11
42.64221215478119
 21
23.27499999999998
 31
0.0
  0
ARC
  5
46F1
330
1A
100
AcDbEntity
  8
ZUWAKU
100
AcDbCircle
 10
43.16721215478106
 20
27.125
 30
0.0
 40
0.525
100
AcDbArc
 50
180.0
 51
270.0
  0
LINE
  5
46F2
330
1A
100
AcDbEntity
  8
ZUWAKU
100
AcDbLine
 10
43.16721215478106
 20
23.79999999999996
 30
0.0
 11
43.30744631826974
 21
23.79999999999996
 31
0.0
  0
LINE
  5
46F3
330
1A
100
AcDbEntity
  8
ZUWAKU
100
AcDbLine
 10
43.30744631826974
 20
26.60000000000002
 30
0.0
 11
43.16721215478106
 21
26.60000000000002
 31
0.0
  0
ARC
  5
46F4
330
1A
100
AcDbEntity
  8
ZUWAKU
100
AcDbCircle
 10
43.30744631826974
 20
27.125
 30
0.0
 40
0.525
100
AcDbArc
 50
270.0
 51
342.474431626277
  0
LINE
  5
46F5
330
1A
100
AcDbEntity
  8
ZUWAKU
100
AcDbLine
 10
45.67634709209688
 20
17.51690603183306
 30
0.0
 11
43.8080772174651
 21
23.43309396816699
 31
0.0
  0
LINE
  5
46F6
330
1A
100
AcDbEntity
  8
ZUWAKU
100
AcDbLine
 10
47.31485863695912
 20
29.20504719356347
 30
0.0
 11
46.05010689162327
 21
25.20000000000005
 31
0.0
  0
ARC
  5
46F7
330
1A
100
AcDbEntity
  8
ZUWAKU
100
AcDbCircle
 10
56.64221215478119
 20
19.42499999999996
 30
0.0
 40
0.525
100
AcDbArc
 50
90.0
 51
180.0
  0
LINE
  5
46F8
330
1A
100
AcDbEntity
  8
ZUWAKU
100
AcDbLine
 10
56.1172121547811
 20
17.67499999999996
 30
0.0
 11
56.1172121547811
 21
19.42499999999996
 31
0.0
  0
ARC
  5
46F9
330
1A
100
AcDbEntity
  8
ZUWAKU
100
AcDbCircle
 10
59.79221215478106
 20
28.6347979746447
 30
0.0
 40
4.199999999999998
100
AcDbArc
 50
180.0
 51
225.0
  0
ARC
  5
46FA
330
1A
100
AcDbEntity
  8
ZUWAKU
100
AcDbCircle
 10
59.79221215478106
 20
28.6347979746447
 30
0.0
 40
1.399999999999999
100
AcDbArc
 50
180.0000000000016
 51
224.9999999999988
  0
ARC
  5
46FB
330
1A
100
AcDbEntity
  8
ZUWAKU
100
AcDbCircle
 10
76.76721215478119
 20
17.67499999999996
 30
0.0
 40
0.525
100
AcDbArc
 50
180.0
 51
270.0
  0
ARC
  5
46FC
330
1A
100
AcDbEntity
  8
ZUWAKU
100
AcDbCircle
 10
71.34221215478101
 20
19.95000000000005
 30
0.0
 40
2.799999999999999
100
AcDbArc
 50
270.0
 51
0.0
  0
ARC
  5
46FD
330
1A
100
AcDbEntity
  8
ZUWAKU
100
AcDbCircle
 10
60.14221215478119
 20
19.95000000000005
 30
0.0
 40
2.799999999999999
100
AcDbArc
 50
270.0
 51
0.0
  0
ARC
  5
46FE
330
1A
100
AcDbEntity
  8
ZUWAKU
100
AcDbCircle
 10
67.84221215478101
 20
19.95000000000005
 30
0.0
 40
2.799999999999999
100
AcDbArc
 50
180.0
 51
270.0
  0
LINE
  5
46FF
330
1A
100
AcDbEntity
  8
ZUWAKU
100
AcDbLine
 10
67.84221215478101
 20
17.14999999999998
 30
0.0
 11
71.34221215478101
 21
17.14999999999998
 31
0.0
  0
ARC
  5
4700
330
1A
100
AcDbEntity
  8
ZUWAKU
100
AcDbCircle
 10
68.89221215478119
 20
21.0
 30
0.0
 40
1.049999999999999
100
AcDbArc
 50
180.0
 51
270.0
  0
ARC
  5
4701
330
1A
100
AcDbEntity
  8
ZUWAKU
100
AcDbCircle
 10
58.7422121547811
 20
21.76520202535528
 30
0.0
 40
4.199999999999998
100
AcDbArc
 50
0.0
 51
45.0
  0
LINE
  5
4702
330
1A
100
AcDbEntity
  8
ZUWAKU
100
AcDbLine
 10
62.94221215478115
 20
19.95000000000005
 30
0.0
 11
62.94221215478115
 21
21.76520202535539
 31
0.0
  0
ARC
  5
4703
330
1A
100
AcDbEntity
  8
ZUWAKU
100
AcDbCircle
 10
59.6172121547811
 20
20.47500000000002
 30
0.0
 40
0.525
100
AcDbArc
 50
270.0
 51
0.0
  0
ARC
  5
4704
330
1A
100
AcDbEntity
  8
ZUWAKU
100
AcDbCircle
 10
58.7422121547811
 20
21.76520202535539
 30
0.0
 40
1.399999999999999
100
AcDbArc
 50
0.0
 51
45.0
  0
LINE
  5
4705
330
1A
100
AcDbEntity
  8
ZUWAKU
100
AcDbLine
 10
60.14221215478119
 20
20.47500000000002
 30
0.0
 11
60.14221215478119
 21
21.76520202535539
 31
0.0
  0
ARC
  5
4706
330
1A
100
AcDbEntity
  8
ZUWAKU
100
AcDbCircle
 10
70.29221215478106
 20
21.0
 30
0.0
 40
1.049999999999999
100
AcDbArc
 50
270.0
 51
0.0
  0
LINE
  5
4707
330
1A
100
AcDbEntity
  8
ZUWAKU
100
AcDbLine
 10
70.29221215478106
 20
19.95000000000005
 30
0.0
 11
68.89221215478119
 21
19.95000000000005
 31
0.0
  0
ARC
  5
4708
330
1A
100
AcDbEntity
  8
ZUWAKU
100
AcDbCircle
 10
78.51721215478119
 20
17.67499999999996
 30
0.0
 40
0.525
100
AcDbArc
 50
270.0
 51
0.0
  0
LINE
  5
4709
330
1A
100
AcDbEntity
  8
ZUWAKU
100
AcDbLine
 10
78.51721215478119
 20
33.25
 30
0.0
 11
76.76721215478119
 21
33.25
 31
0.0
  0
LINE
  5
470A
330
1A
100
AcDbEntity
  8
ZUWAKU
100
AcDbLine
 10
61.89221215478119
 20
30.45000000000005
 30
0.0
 11
58.91721215478106
 21
30.45000000000005
 31
0.0
  0
LINE
  5
470B
330
1A
100
AcDbEntity
  8
ZUWAKU
100
AcDbLine
 10
58.39221215478119
 20
33.25
 30
0.0
 11
61.89221215478119
 21
33.25
 31
0.0
  0
ARC
  5
470C
330
1A
100
AcDbEntity
  8
ZUWAKU
100
AcDbCircle
 10
46.17697799129246
 20
32.72500000000002
 30
0.0
 40
0.525
100
AcDbArc
 50
90.0
 51
162.4744316262769
  0
ARC
  5
470D
330
1A
100
AcDbEntity
  8
ZUWAKU
100
AcDbCircle
 10
47.87586737090146
 20
32.72500000000002
 30
0.0
 40
0.525
100
AcDbArc
 50
342.474431626277
 51
90.0
  0
LINE
  5
470E
330
1A
100
AcDbEntity
  8
ZUWAKU
100
AcDbLine
 10
46.17697799129246
 20
33.25
 30
0.0
 11
47.87586737090146
 21
33.25
 31
0.0
  0
LINE
  5
470F
330
1A
100
AcDbEntity
  8
ZUWAKU
100
AcDbLine
 10
42.1172121547811
 20
33.25
 30
0.0
 11
40.3672121547811
 21
33.25
 31
0.0
  0
ARC
  5
4710
330
1A
100
AcDbEntity
  8
ZUWAKU
100
AcDbCircle
 10
42.1172121547811
 20
32.72500000000002
 30
0.0
 40
0.525
100
AcDbArc
 50
0.0
 51
90.0
  0
ARC
  5
4711
330
1A
100
AcDbEntity
  8
ZUWAKU
100
AcDbCircle
 10
58.39221215478119
 20
30.45000000000005
 30
0.0
 40
2.799999999999999
100
AcDbArc
 50
90.0
 51
180.0
  0
ARC
  5
4712
330
1A
100
AcDbEntity
  8
ZUWAKU
100
AcDbCircle
 10
52.96721215478101
 20
32.72500000000002
 30
0.0
 40
0.525
100
AcDbArc
 50
0.0
 51
90.0
  0
ARC
  5
4713
330
1A
100
AcDbEntity
  8
ZUWAKU
100
AcDbCircle
 10
58.91721215478106
 20
29.92499999999996
 30
0.0
 40
0.525
100
AcDbArc
 50
90.0
 51
180.0
  0
ARC
  5
4714
330
1A
100
AcDbEntity
  8
ZUWAKU
100
AcDbCircle
 10
51.21721215478101
 20
32.72500000000002
 30
0.0
 40
0.525
100
AcDbArc
 50
90.0
 51
180.0
  0
LINE
  5
4715
330
1A
100
AcDbEntity
  8
ZUWAKU
100
AcDbLine
 10
52.96721215478101
 20
33.25
 30
0.0
 11
51.21721215478101
 21
33.25
 31
0.0
  0
LINE
  5
4716
330
1A
100
AcDbEntity
  8
ZUWAKU
100
AcDbLine
 10
62.41721215478106
 20
32.72500000000002
 30
0.0
 11
62.41721215478106
 21
30.97500000000002
 31
0.0
  0
ARC
  5
4717
330
1A
100
AcDbEntity
  8
ZUWAKU
100
AcDbCircle
 10
61.89221215478119
 20
30.97500000000002
 30
0.0
 40
0.525
100
AcDbArc
 50
270.0
 51
0.0
  0
ARC
  5
4718
330
1A
100
AcDbEntity
  8
ZUWAKU
100
AcDbCircle
 10
61.89221215478119
 20
32.72500000000002
 30
0.0
 40
0.525
100
AcDbArc
 50
0.0
 51
90.0
  0
LINE
  5
4719
330
1A
100
AcDbEntity
  8
ZUWAKU
100
AcDbLine
 10
67.31721215478115
 20
33.25
 30
0.0
 11
65.56721215478115
 21
33.25
 31
0.0
  0
ARC
  5
471A
330
1A
100
AcDbEntity
  8
ZUWAKU
100
AcDbCircle
 10
65.56721215478115
 20
32.72500000000002
 30
0.0
 40
0.525
100
AcDbArc
 50
90.0
 51
180.0
  0
ARC
  5
471B
330
1A
100
AcDbEntity
  8
ZUWAKU
100
AcDbCircle
 10
67.31721215478115
 20
32.72500000000002
 30
0.0
 40
0.525
100
AcDbArc
 50
0.0
 51
90.0
  0
ARC
  5
471C
330
1A
100
AcDbEntity
  8
ZUWAKU
100
AcDbCircle
 10
71.8672121547811
 20
32.72500000000002
 30
0.0
 40
0.525
100
AcDbArc
 50
90.0
 51
180.0
  0
LINE
  5
471D
330
1A
100
AcDbEntity
  8
ZUWAKU
100
AcDbLine
 10
73.6172121547811
 20
33.25
 30
0.0
 11
71.8672121547811
 21
33.25
 31
0.0
  0
ARC
  5
471E
330
1A
100
AcDbEntity
  8
ZUWAKU
100
AcDbCircle
 10
73.6172121547811
 20
32.72500000000002
 30
0.0
 40
0.525
100
AcDbArc
 50
0.0
 51
90.0
  0
ARC
  5
471F
330
1A
100
AcDbEntity
  8
ZUWAKU
100
AcDbCircle
 10
76.76721215478119
 20
32.72500000000002
 30
0.0
 40
0.525
100
AcDbArc
 50
90.0
 51
180.0
  0
ARC
  5
4720
330
1A
100
AcDbEntity
  8
ZUWAKU
100
AcDbCircle
 10
78.51721215478119
 20
32.72500000000002
 30
0.0
 40
0.525
100
AcDbArc
 50
0.0
 51
90.0
  0
LINE
  5
4721
330
1A
100
AcDbEntity
  8
ZUWAKU
100
AcDbLine
 10
218.646601290068
 20
25.39999999999998
 30
0.0
 11
457.4243639709914
 21
25.39999999999998
 31
0.0
  0
LINE
  5
4722
330
1A
100
AcDbEntity
  8
ZUWAKU
100
AcDbLine
 10
218.646601290068
 20
25.60000000000002
 30
0.0
 11
457.4243639709914
 21
25.60000000000002
 31
0.0
  0
LINE
  5
4723
330
1A
100
AcDbEntity
  8
ZUWAKU
100
AcDbLine
 10
218.646601290068
 20
25.20000000000005
 30
0.0
 11
457.4243639709914
 21
25.20000000000005
 31
0.0
  0
LINE
  5
4724
330
1A
100
AcDbEntity
  8
ZUWAKU
100
AcDbLine
 10
218.4466012900678
 20
40.0
 30
0.0
 11
218.446601290068
 21
10.80000000000007
 31
0.0
  0
LINE
  5
4725
330
1A
100
AcDbEntity
  8
ZUWAKU
100
AcDbLine
 10
218.6466012900678
 20
40.0
 30
0.0
 11
218.646601290068
 21
10.80000000000007
 31
0.0
  0
LINE
  5
4726
330
1A
100
AcDbEntity
  8
ZUWAKU
100
AcDbLine
 10
218.2466012900679
 20
40.0
 30
0.0
 11
218.2466012900679
 21
10.80000000000007
 31
0.0
  0
TEXT
  5
4727
330
1A
100
AcDbEntity
  8
MOJI
100
AcDbText
 10
249.8272026808509
 20
28.00492105740739
 30
0.0
 40
5.599999999999999
  1
ブラケット正面打（吊）固定式
 41
0.9
  7
ｽﾀｲﾙ1
100
AcDbText
  0
TEXT
  5
4728
330
1A
100
AcDbEntity
  8
MOJI
100
AcDbText
 10
249.8272026808509
 20
13.20492105740743
 30
0.0
 40
5.599999999999999
  1
ＶＭ１２０・Σ９０（Ⅲ）－０－１０
 41
0.9
  7
ｽﾀｲﾙ1
100
AcDbText
  0
TEXT
  5
4729
330
1A
100
AcDbEntity
  8
ZUWAKU
100
AcDbText
 10
219.7240463122776
 20
19.6553565383856
 30
0.0
 40
4.0
  1
サイズ
 41
0.9
  7
ｽﾀｲﾙ1
100
AcDbText
  0
TEXT
  5
472A
330
1A
100
AcDbEntity
  8
ZUWAKU
100
AcDbText
 10
219.7240463122773
 20
34.05535653838558
 30
0.0
 40
4.0
  1
品名
 41
0.9
  7
ｽﾀｲﾙ1
100
AcDbText
  0
LINE
  5
472B
330
1A
100
AcDbEntity
  8
ZUWAKU
100
AcDbLine
 10
457.4243639709914
 20
40.0
 30
0.0
 11
457.4243639709914
 21
10.80000000000007
 31
0.0
  0
LINE
  5
472C
330
1A
100
AcDbEntity
  8
ZUWAKU
100
AcDbLine
 10
457.8243639709913
 20
40.0
 30
0.0
 11
457.8243639709915
 21
10.80000000000007
 31
0.0
  0
LINE
  5
472D
330
1A
100
AcDbEntity
  8
ZUWAKU
100
AcDbLine
 10
457.6243639709912
 20
40.0
 30
0.0
 11
457.6243639709915
 21
10.80000000000007
 31
0.0
  0
TEXT
  5
472E
330
1A
100
AcDbEntity
  8
ZUWAKU
100
AcDbText
 10
459.3018089932009
 20
34.05535653838558
 30
0.0
 40
4.0
  1
品番
 41
0.9
  7
ｽﾀｲﾙ1
100
AcDbText
  0
ARC
  5
472F
330
1A
100
AcDbEntity
  8
SEIHIN
100
AcDbCircle
 10
343.6941925242002
 20
225.6578152137927
 30
0.0
 40
0.5
100
AcDbArc
 50
221.8900725840439
 51
294.1678957866232
  0
ARC
  5
4730
330
1A
100
AcDbEntity
  8
SEIHIN
100
AcDbCircle
 10
348.5492530905437
 20
214.8386059618329
 30
0.0
 40
8.0
100
AcDbArc
 50
90.0
 51
142.0012675575006
  0
DIMENSION
  5
4731
330
1A
100
AcDbEntity
  8
SUNPOU
100
AcDbDimension
  2
*D7
 10
354.2886614202055
 20
270.0861611177612
 30
0.0
 11
359.2179721293129
 21
279.0861611177612
 31
0.0
 70
    32
 71
     5
 42
-1.0
  3
STANDARD
100
AcDbAlignedDimension
 13
364.1472828384203
 23
252.8386059618327
 33
0.0
 14
354.2886614202055
 24
249.5456719486549
 34
0.0
100
AcDbRotatedDimension
1001
ACAD
1000
DSTYLE
1002
{
1070
   287
1070
     5
1070
   287
1070
     5
1070
   287
1070
     5
1070
   287
1070
     5
1070
   287
1070
     5
1070
   287
1070
     5
1070
   287
1070
     5
1070
   287
1070
     5
1070
    41
1040
7.0
1070
    42
1040
6.0
1070
    43
1040
14.0
1070
    44
1040
3.0
1070
    73
1070
     0
1070
    74
1070
     0
1070
    77
1070
     3
1070
   140
1040
6.0
1070
   141
1040
150.0
1070
   147
1040
2.0
1070
   172
1070
     1
1070
   173
1070
     1
1070
   176
1070
   256
1070
   177
1070
   256
1070
   178
1070
   256
1070
   271
1070
     0
1070
   272
1070
     0
1070
   279
1070
     2
1070
   341
1005
6D
1070
     6
1000
OPEN
1070
     7
1000
OPEN
1070
   371
1070
    -1
1070
   372
1070
    -1
1002
}
  0
ARC
  5
4732
330
1A
100
AcDbEntity
  8
SEIHIN
100
AcDbCircle
 10
354.9323859677859
 20
222.8386059618329
 30
0.0
 40
30.00000000000001
100
AcDbArc
 50
91.49960773354164
 51
136.2199442889158
  0
ARC
  5
4733
330
1A
100
AcDbEntity
  8
SEIHIN
100
AcDbCircle
 10
354.9323859677859
 20
222.8386059618329
 30
0.0
 40
26.64137858178505
100
AcDbArc
 50
105.6092054560935
 51
136.2199442889158
  0
ARC
  5
4734
330
1A
100
AcDbEntity
  8
SEIHIN
100
AcDbCircle
 10
342.4346047132387
 20
201.4662128369417
 30
0.0
 40
0.9999999999999876
100
AcDbArc
 50
284.0362434679336
 51
104.0362434679336
  0
DIMENSION
  5
4735
330
1A
100
AcDbEntity
  8
SUNPOU
100
AcDbDimension
  2
*D4
 10
229.6518359743068
 20
287.564512863739
 30
0.0
 11
296.8995594063636
 21
292.564512863739
 31
0.0
 70
    32
 71
     5
 42
-1.0
  3
STANDARD
100
AcDbAlignedDimension
 13
364.1472828384203
 23
252.8386059618327
 33
0.0
 14
229.6518359743068
 24
231.551938162445
 34
0.0
100
AcDbRotatedDimension
1001
ACAD
1000
DSTYLE
1002
{
1070
    41
1040
7.0
1070
    42
1040
6.0
1070
    43
1040
14.0
1070
    44
1040
3.0
1070
    73
1070
     0
1070
    74
1070
     0
1070
    77
1070
     3
1070
   140
1040
6.0
1070
   141
1040
150.0
1070
   147
1040
2.0
1070
   172
1070
     1
1070
   173
1070
     1
1070
   176
1070
   256
1070
   177
1070
   256
1070
   178
1070
   256
1070
   271
1070
     0
1070
   272
1070
     0
1070
   341
1005
6D
1070
     6
1000
OPEN
1070
     7
1000
OPEN
1070
   371
1070
    -1
1070
   372
1070
    -1
1002
}
  0
DIMENSION
  5
4736
330
1A
100
AcDbEntity
  8
SUNPOU
100
AcDbDimension
  2
*D3
 10
207.4976047688494
 20
236.1696289570772
 30
0.0
 11
202.4976047688494
 21
204.5041183535248
 31
0.0
 70
    32
 71
     5
 42
-1.0
  3
STANDARD
100
AcDbAlignedDimension
 13
354.1472830619377
 23
172.8386077499722
 33
0.0
 14
233.3584008347366
 24
236.1696289570772
 34
0.0
 50
90.0
100
AcDbRotatedDimension
1001
ACAD
1000
DSTYLE
1002
{
1070
   287
1070
     5
1070
   287
1070
     5
1070
   287
1070
     5
1070
   287
1070
     5
1070
   287
1070
     5
1070
   287
1070
     5
1070
   287
1070
     5
1070
   287
1070
     5
1070
    41
1040
7.0
1070
    42
1040
6.0
1070
    43
1040
14.0
1070
    44
1040
3.0
1070
    73
1070
     0
1070
    74
1070
     0
1070
    77
1070
     3
1070
   140
1040
6.0
1070
   141
1040
150.0
1070
   147
1040
2.0
1070
   172
1070
     1
1070
   173
1070
     1
1070
   176
1070
   256
1070
   177
1070
   256
1070
   178
1070
   256
1070
   271
1070
     0
1070
   272
1070
     0
1070
   279
1070
     2
1070
   341
1005
6D
1070
     6
1000
OPEN
1070
     7
1000
OPEN
1070
   371
1070
    -1
1070
   372
1070
    -1
1002
}
  0
ARC
  5
4737
330
1A
100
AcDbEntity
  8
SEIHIN
100
AcDbCircle
 10
348.5492530905437
 20
214.8386059618329
 30
0.0
 40
11.35862141821497
100
AcDbArc
 50
136.1952582994144
 51
142.0012675575006
  0
ARC
  5
4738
330
1A
100
AcDbEntity
  8
SEIHIN
100
AcDbCircle
 10
321.1657221890071
 20
312.2386059618328
 30
0.0
 40
111.641378581785
100
AcDbArc
 50
230.4399291917682
 51
273.0921525380952
  0
ARC
  5
4739
330
1A
100
AcDbEntity
  8
SEIHIN
100
AcDbCircle
 10
321.1657221890071
 20
312.2386059618328
 30
0.0
 40
115.0000000000001
100
AcDbArc
 50
231.3430802254477
 51
270.0
  0
ARC
  5
473A
330
1A
100
AcDbEntity
  8
SEIHIN
100
AcDbCircle
 10
288.1472828384203
 20
286.8386059618328
 30
0.0
 40
62.50000000000005
100
AcDbArc
 50
245.3800226713374
 51
316.219944288918
  0
ARC
  5
473B
330
1A
100
AcDbEntity
  8
SEIHIN
100
AcDbCircle
 10
288.1472828384428
 20
286.8386059618564
 30
0.0
 40
65.85862141821501
100
AcDbArc
 50
245.3800226713374
 51
316.219944288918
  0
LINE
  5
473C
330
1A
100
AcDbEntity
  8
SEIHIN
100
AcDbLine
 10
247.6442494603202
 20
219.8386058574328
 30
0.0
 11
252.7009734126204
 21
219.8386058574328
 31
0.0
  0
LINE
  5
473D
330
1A
100
AcDbEntity
  8
SEIHIN
100
AcDbLine
 10
329.6472837026877
 20
197.2386072790955
 30
0.0
 11
342.677140338275
 21
200.4960703367965
 31
0.0
  0
LINE
  5
473E
330
1A
100
AcDbEntity
  8
SEIHIN
100
AcDbLine
 10
321.1657221890071
 20
197.2386059618327
 30
0.0
 11
329.6472837026877
 21
197.2386072790955
 31
0.0
  0
LINE
  5
473F
330
1A
100
AcDbEntity
  8
SEIHIN
100
AcDbLine
 10
339.5983825610806
 20
221.8314735629759
 30
0.0
 11
324.5782571576046
 21
202.6057130465269
 31
0.0
  0
ARC
  5
4740
330
1A
100
AcDbEntity
  8
SEIHIN
100
AcDbCircle
 10
322.1568973453309
 20
202.7430920271993
 30
0.0
 40
2.141378581785001
100
AcDbArc
 50
270.5186386188618
 51
334.2808812392413
  0
ARC
  5
4741
330
1A
100
AcDbEntity
  8
SEIHIN
100
AcDbCircle
 10
328.012957070996
 20
199.9223537391899
 30
0.0
 40
4.358621418215023
100
AcDbArc
 50
142.0012675575006
 51
154.280881239234
  0
LINE
  5
4742
330
1A
100
AcDbEntity
  8
SEIHIN
100
AcDbLine
 10
327.2720835287801
 20
200.5983508454932
 30
0.0
 11
342.2450581007474
 21
219.7637582976113
 31
0.0
  0
LINE
  5
4743
330
1A
100
AcDbEntity
  8
SEIHIN
100
AcDbLine
 10
342.1920690882023
 20
202.436355337087
 30
0.0
 11
328.2554926960324
 21
198.9522112390446
 31
0.0
  0
ARC
  5
4744
330
1A
100
AcDbEntity
  8
SEIHIN
100
AcDbCircle
 10
328.012957070996
 20
199.9223537391899
 30
0.0
 40
1.000000000000021
100
AcDbArc
 50
142.0012675575032
 51
284.0362434679336
  0
ARC
  5
4745
330
1A
100
AcDbEntity
  8
SEIHIN
100
AcDbCircle
 10
231.6500147199522
 20
231.4666052822
 30
0.0
 40
1.999999999999979
100
AcDbArc
 50
182.4453492581029
 51
258.3106308245665
  0
ARC
  5
4746
330
1A
100
AcDbEntity
  8
SEIHIN
100
AcDbCircle
 10
234.6472828384203
 20
231.3386059618327
 30
0.0
 40
4.999999999999991
100
AcDbArc
 50
104.938162439645
 51
177.5546507419037
  0
LINE
  5
4747
330
1A
100
AcDbEntity
  8
SEIHIN
100
AcDbLine
 10
229.6518359743068
 20
231.5519381624449
 30
0.0
 11
229.6518359743068
 21
231.381272401955
 31
0.0
  0
LWPOLYLINE
  5
4748
330
1A
100
AcDbEntity
  8
SEIHIN
100
AcDbPolyline
 90
        6
 70
   128
 43
0.0
 10
229.651830792026
 20
231.5519377059076
 10
229.6518456931872
 20
231.515197030339
 10
229.6518605943484
 20
231.4722593343589
 10
229.6518456931872
 20
231.4333635783527
 10
229.651830792026
 20
231.3907816475961
 10
229.651830792026
 20
231.3812728441093
  0
LINE
  5
4749
330
1A
100
AcDbEntity
  8
SEIHIN
100
AcDbLine
 10
253.7779651262515
 20
231.8386059618327
 30
0.0
 11
240.2087968583865
 21
231.8386062449548
 31
0.0
  0
ARC
  5
474A
330
1A
100
AcDbEntity
  8
SEIHIN
100
AcDbCircle
 10
236.1925185041437
 20
205.9256441074086
 30
0.0
 40
21.0988858970931
100
AcDbArc
 50
51.48807935266336
 51
71.92216025289916
  0
LINE
  5
474B
330
1A
100
AcDbEntity
  8
SEIHIN
100
AcDbLine
 10
253.003481233882
 20
228.4777236892626
 30
0.0
 11
234.7918619205984
 21
228.4777236892626
 31
0.0
  0
LINE
  5
474C
330
1A
100
AcDbEntity
  8
SEIHIN
100
AcDbLine
 10
233.9701172442328
 20
233.3956919763639
 30
0.0
 11
234.5446539263567
 21
234.8320336816737
 31
0.0
  0
LINE
  5
474D
330
1A
100
AcDbEntity
  8
SEIHIN
100
AcDbLine
 10
240.0876057143969
 20
231.8236864573095
 30
0.0
 11
238.2069599624438
 21
231.3535250193212
 31
0.0
  0
LINE
  5
474E
330
1A
100
AcDbEntity
  8
SEIHIN
100
AcDbLine
 10
231.6459604713205
 20
229.4248134261328
 30
0.0
 11
240.4518314811203
 21
226.7737608766328
 31
0.0
  0
ARC
  5
474F
330
1A
100
AcDbEntity
  8
SEIHIN
100
AcDbCircle
 10
235.3628322805607
 20
232.8386059618327
 30
0.0
 40
1.5
100
AcDbArc
 50
158.1985905136518
 51
270.0
  0
LINE
  5
4750
330
1A
100
AcDbEntity
  8
SEIHIN
100
AcDbLine
 10
238.0858135219378
 20
231.3386052316758
 30
0.0
 11
238.0857688184542
 21
231.3386052316758
 31
0.0
  0
LINE
  5
4751
330
1A
100
AcDbEntity
  8
SEIHIN
100
AcDbLine
 10
238.2069599624438
 20
231.3535250193212
 30
0.0
 11
238.2069152589602
 21
231.3535138434503
 31
0.0
  0
LWPOLYLINE
  5
4752
330
1A
100
AcDbEntity
  8
SEIHIN
100
AcDbPolyline
 90
        4
 70
   128
 43
0.0
 10
238.2069152589602
 20
231.3535138434503
 10
238.1669950481219
 20
231.3452511495683
 10
238.1265383954806
 20
231.3402704364393
 10
238.0858135219378
 20
231.3386052316758
  0
LINE
  5
4753
330
1A
100
AcDbEntity
  8
SEIHIN
100
AcDbLine
 10
238.0857688184542
 20
231.3386052316758
 30
0.0
 11
235.3628322805607
 21
231.3386059618327
 31
0.0
  0
LINE
  5
4754
330
1A
100
AcDbEntity
  8
SEIHIN
100
AcDbLine
 10
231.2448035118803
 20
229.5080844431859
 30
0.0
 11
231.6430608366818
 21
229.4256863759856
 31
0.0
  0
LINE
  5
4755
330
1A
100
AcDbEntity
  8
SEIHIN
100
AcDbLine
 10
240.0876504178805
 20
231.8236976331804
 30
0.0
 11
240.0876057143969
 21
231.8236864573095
 31
0.0
  0
LINE
  5
4756
330
1A
100
AcDbEntity
  8
SEIHIN
100
AcDbLine
 10
240.2087968583865
 20
231.8386062449548
 30
0.0
 11
240.2087521549029
 21
231.8386062449548
 31
0.0
  0
LWPOLYLINE
  5
4757
330
1A
100
AcDbEntity
  8
SEIHIN
100
AcDbPolyline
 90
        4
 70
   128
 43
0.0
 10
240.2087521549029
 20
231.8386062449548
 10
240.1680198307795
 20
231.8369410401914
 10
240.1275631781382
 20
231.8319603270624
 10
240.0876504178805
 20
231.8236976331804
  0
ARC
  5
4758
330
1A
100
AcDbEntity
  8
SEIHIN
100
AcDbCircle
 10
241.6460789827204
 20
223.1894333131328
 30
0.0
 40
3.0
100
AcDbArc
 50
0.0
 51
68.62094975969534
  0
ARC
  5
4759
330
1A
100
AcDbEntity
  8
SEIHIN
100
AcDbCircle
 10
231.8035981650203
 20
198.0473257771328
 30
0.0
 40
30.00000000000018
100
AcDbArc
 50
68.62094975970258
 51
73.24532616560178
  0
LINE
  5
475A
330
1A
100
AcDbEntity
  8
SEIHIN
100
AcDbLine
 10
244.6460762235201
 20
223.1894337004327
 30
0.0
 11
244.6460762235201
 21
222.8367772316327
 31
0.0
  0
LINE
  5
475B
330
1A
100
AcDbEntity
  8
SEIHIN
100
AcDbLine
 10
244.6460762235201
 20
222.8367772316327
 30
0.0
 11
244.6460762235201
 21
222.8344954913329
 31
0.0
  0
ARC
  5
475C
330
1A
100
AcDbEntity
  8
SEIHIN
100
AcDbCircle
 10
233.6161772354715
 20
235.2034243580278
 30
0.0
 40
1.000000000000006
100
AcDbArc
 50
338.1985905136518
 51
104.938162439645
  0
ARC
  5
475D
330
1A
100
AcDbEntity
  8
SEIHIN
100
AcDbCircle
 10
253.7779651262515
 20
211.8386059618327
 30
0.0
 40
20.0
100
AcDbArc
 50
65.38002267133734
 51
90.0
  0
ARC
  5
475E
330
1A
100
AcDbEntity
  8
SEIHIN
100
AcDbCircle
 10
253.7779651262515
 20
211.8386059618327
 30
0.0
 40
16.64137858178502
100
AcDbArc
 50
65.38002267133734
 51
101.1156383107546
  0
ARC
  5
475F
330
1A
100
AcDbEntity
  8
SEIHIN
100
AcDbCircle
 10
250.7897233288213
 20
227.0478272094867
 30
0.0
 40
1.141378581785006
100
AcDbArc
 50
101.1156383107546
 51
230.4399291917707
  0
LINE
  5
4760
330
1A
100
AcDbEntity
  8
SEIHIN
370
    50
100
AcDbLine
 10
340.3630647127652
 20
223.3810299255119
 30
0.0
 11
329.7691070232299
 21
235.1923051450775
 31
0.0
  0
LINE
  5
4761
330
1A
100
AcDbEntity
  8
SEIHIN
370
    50
100
AcDbLine
 10
343.3219789003017
 20
225.3239634230465
 30
0.0
 11
332.4539142485046
 21
237.4408423523644
 31
0.0
  0
ARC
  5
4762
330
1A
100
AcDbEntity
  8
SEIHIN
100
AcDbCircle
 10
339.9908510888668
 20
223.0471781347658
 30
0.0
 40
0.5
100
AcDbArc
 50
316.1952582994144
 51
41.8900725840439
  0
ARC
  5
4763
330
1A
100
AcDbEntity
  8
SEIHIN
100
AcDbCircle
 10
332.8261278724031
 20
237.7746941431105
 30
0.0
 40
0.5
100
AcDbArc
 50
132.321789823264
 51
221.8900725840439
  0
ARC
  5
4764
330
1A
100
AcDbEntity
  8
SEIHIN
100
AcDbCircle
 10
329.3968933993317
 20
234.8584533543314
 30
0.0
 40
0.5
100
AcDbArc
 50
41.8900725840485
 51
128.434272416935
  0
ARC
  5
4765
330
1A
100
AcDbEntity
  8
SEIHIN
100
AcDbCircle
 10
349.1472828384203
 20
217.8386059618329
 30
0.0
 40
5.0
100
AcDbArc
 50
0.0
 51
90.0
  0
DIMENSION
  5
4769
330
1A
100
AcDbEntity
  8
SUNPOU
100
AcDbDimension
  2
*D2
 10
410.997579917547
 20
172.8386077499722
 30
0.0
 11
405.9975799175469
 21
212.8386068559025
 31
0.0
 70
    32
 71
     5
 42
-1.0
  3
STANDARD
100
AcDbAlignedDimension
 13
364.1472828384203
 23
252.8386059618327
 33
0.0
 14
356.1472824584407
 24
172.8386077499722
 34
0.0
 50
90.0
100
AcDbRotatedDimension
1001
ACAD
1000
DSTYLE
1002
{
1070
   287
1070
     5
1070
   287
1070
     5
1070
   287
1070
     5
1070
   287
1070
     5
1070
   287
1070
     5
1070
   287
1070
     5
1070
   287
1070
     5
1070
   287
1070
     5
1070
    41
1040
7.0
1070
    42
1040
6.0
1070
    43
1040
14.0
1070
    44
1040
3.0
1070
    73
1070
     0
1070
    74
1070
     0
1070
    77
1070
     3
1070
   140
1040
6.0
1070
   141
1040
150.0
1070
   147
1040
2.0
1070
   172
1070
     1
1070
   173
1070
     1
1070
   176
1070
   256
1070
   177
1070
   256
1070
   178
1070
   256
1070
   271
1070
     0
1070
   272
1070
     0
1070
   279
1070
     2
1070
   341
1005
6D
1070
     6
1000
OPEN
1070
     7
1000
OPEN
1070
   371
1070
    -1
1070
   372
1070
    -1
1002
}
  0
DIMENSION
  5
476B
330
1A
100
AcDbEntity
  8
SUNPOU
100
AcDbDimension
  2
*D5
 10
396.0759305360641
 20
172.8386077499722
 30
0.0
 11
391.3289315571935
 21
176.8386065429783
 31
0.0
 70
   160
 71
     5
 42
-1.0
  3
STANDARD
100
AcDbAlignedDimension
 13
371.1472828384203
 23
180.8386053359841
 33
0.0
 14
362.1472824584407
 24
172.8386077499722
 34
0.0
 50
90.0
100
AcDbRotatedDimension
1001
ACAD
1000
DSTYLE
1002
{
1070
   287
1070
     5
1070
   287
1070
     5
1070
   287
1070
     5
1070
   287
1070
     5
1070
   287
1070
     5
1070
   287
1070
     5
1070
   287
1070
     5
1070
   287
1070
     5
1070
    41
1040
7.0
1070
    42
1040
6.0
1070
    43
1040
14.0
1070
    44
1040
3.0
1070
    73
1070
     0
1070
    74
1070
     0
1070
    77
1070
     3
1070
   140
1040
6.0
1070
   141
1040
150.0
1070
   147
1040
2.0
1070
   172
1070
     1
1070
   173
1070
     1
1070
   176
1070
   256
1070
   177
1070
   256
1070
   178
1070
   256
1070
   271
1070
     0
1070
   272
1070
     0
1070
   279
1070
     2
1070
   341
1005
6D
1070
     6
1000
OPEN
1070
     7
1000
OPEN
1070
   371
1070
    -1
1070
   372
1070
    -1
1002
}
  0
LINE
  5
476E
330
1A
100
AcDbEntity
  8
SEIHIN
100
AcDbLine
 10
349.3716360686544
 20
202.8074387188999
 30
0.0
 11
353.9229296081865
 21
197.2143155463621
 31
0.0
  0
LINE
  5
4770
330
1A
100
AcDbEntity
  8
CENTER L
  6
CENTER
 62
     1
 48
5.0
100
AcDbLine
 10
350.1472828384203
 20
180.838605335984
 30
0.0
 11
371.1472828384203
 21
180.8386053359841
 31
0.0
  0
ARC
  5
4771
330
1A
100
AcDbEntity
  8
SEIHIN
100
AcDbCircle
 10
353.1472828384203
 20
196.5831483034292
 30
0.0
 40
1.000000000000035
100
AcDbArc
 50
0.0
 51
39.13629219953842
  0
ARC
  5
4773
330
1A
100
AcDbEntity
  8
SEIHIN
100
AcDbCircle
 10
353.1472828384203
 20
203.8230432723192
 30
0.0
 40
1.000000000000034
100
AcDbArc
 50
235.9064214267547
 51
0.0
  0
LINE
  5
4774
330
1A
100
AcDbEntity
  8
SEIHIN
100
AcDbLine
 10
352.586736652273
 20
202.9949201092595
 30
0.0
 11
350.7078290245677
 21
204.2667291248922
 31
0.0
  0
ARC
  5
4775
330
1A
100
AcDbEntity
  8
SEIHIN
100
AcDbCircle
 10
350.1472828384203
 20
203.4386059618328
 30
0.0
 40
1.000000000000006
100
AcDbArc
 50
55.90642142675473
 51
219.1362921995313
  0
DIMENSION
  5
4776
330
1A
100
AcDbEntity
  8
SUNPOU
100
AcDbDimension
  2
*D6
 10
396.0759305360641
 20
230.8385967677962
 30
0.0
 11
391.0759305360641
 21
241.8386013648145
 31
0.0
 70
    32
 71
     5
 42
-1.0
  3
STANDARD
100
AcDbAlignedDimension
 13
370.1472828384203
 23
252.8386059618327
 33
0.0
 14
371.1472828384203
 24
230.8385967677962
 34
0.0
 50
90.0
100
AcDbRotatedDimension
1001
ACAD
1000
DSTYLE
1002
{
1070
   287
1070
     5
1070
   287
1070
     5
1070
   287
1070
     5
1070
   287
1070
     5
1070
   287
1070
     5
1070
   287
1070
     5
1070
   287
1070
     5
1070
   287
1070
     5
1070
    41
1040
7.0
1070
    42
1040
6.0
1070
    43
1040
14.0
1070
    44
1040
3.0
1070
    73
1070
     0
1070
    74
1070
     0
1070
    77
1070
     3
1070
   140
1040
6.0
1070
   141
1040
150.0
1070
   147
1040
2.0
1070
   172
1070
     1
1070
   173
1070
     1
1070
   176
1070
   256
1070
   177
1070
   256
1070
   178
1070
   256
1070
   271
1070
     0
1070
   272
1070
     0
1070
   279
1070
     2
1070
   341
1005
6D
1070
     6
1000
OPEN
1070
     7
1000
OPEN
1070
   371
1070
    -1
1070
   372
1070
    -1
1002
}
  0
ARC
  5
4777
330
1A
100
AcDbEntity
  8
SEIHIN
100
AcDbCircle
 10
349.1472828384203
 20
243.5456719486549
 30
0.0
 40
5.141378581785012
100
AcDbArc
 50
13.46762798114434
 51
105.6092054560935
  0
LINE
  5
4779
330
1A
100
AcDbEntity
  8
CENTER L
  6
CENTER
 62
     1
 48
5.0
100
AcDbLine
 10
350.1472828384203
 20
230.8385967677962
 30
0.0
 11
371.1472828384203
 21
230.8385967677962
 31
0.0
  0
ARC
  5
477A
330
1A
100
AcDbEntity
  8
SEIHIN
100
AcDbCircle
 10
349.1472828384203
 20
231.3386059618329
 30
0.0
 40
5.141378581785057
100
AcDbArc
 50
270.0
 51
0.0
  0
LINE
  5
477B
330
1A
100
AcDbEntity
  8
SEIHIN
100
AcDbLine
 10
349.1472828384203
 20
226.1972273800477
 30
0.0
 11
348.5492530905437
 21
226.1972273800477
 31
0.0
  0
LINE
  5
477C
330
1A
100
AcDbEntity
  8
SEIHIN
100
AcDbLine
 10
348.5492530905437
 20
222.8386059618329
 30
0.0
 11
349.1472828384203
 21
222.8386059618329
 31
0.0
  0
ARC
  5
477D
330
1A
100
AcDbEntity
  8
SEIHIN
100
AcDbCircle
 10
348.5492530905437
 20
214.8386059618329
 30
0.0
 40
11.35862141821497
100
AcDbArc
 50
90.0
 51
136.1952582994123
  0
ARC
  5
477F
330
1A
100
AcDbEntity
  8
SEIHIN
100
AcDbCircle
 10
356.0430296500247
 20
220.7137826421181
 30
0.0
 40
32.14401659270011
100
AcDbArc
 50
88.02778397276661
 51
91.98008434806985
  0
LINE
  5
4780
330
1A
100
AcDbEntity
  8
SEIHIN
100
AcDbLine
 10
357.151388823585
 20
252.8386059618327
 30
0.0
 11
357.151388823585
 21
252.8386059618327
 31
0.0
  0
ARC
  5
4781
330
1A
100
AcDbEntity
  8
SEIHIN
100
AcDbCircle
 10
355.0089823891801
 20
222.9152021669797
 30
0.0
 40
29.99999999999998
100
AcDbArc
 50
85.90481923547203
 51
85.90889216783653
  0
LINE
  5
4782
330
1A
100
AcDbEntity
  8
SEIHIN
100
AcDbLine
 10
357.1491094115836
 20
252.8386059618327
 30
0.0
 11
357.151388823585
 21
252.8386059618327
 31
0.0
  0
LINE
  5
4783
330
1A
100
AcDbEntity
  8
SEIHIN
100
AcDbLine
 10
357.1491094115836
 20
252.8386059618327
 30
0.0
 11
357.1492616806838
 21
252.8387581815039
 31
0.0
  0
ARC
  5
4785
330
1A
100
AcDbEntity
  8
SEIHIN
100
AcDbCircle
 10
354.9323859677859
 20
222.8386059618329
 30
0.0
 40
30.00000000000001
100
AcDbArc
 50
90.0
 51
91.49960773354164
  0
ARC
  5
4786
330
1A
100
AcDbEntity
  8
SEIHIN
100
AcDbCircle
 10
354.9323859677859
 20
222.8386059618329
 30
0.0
 40
30.00000000000001
100
AcDbArc
 50
90.0
 51
91.49960773354164
  0
LINE
  5
4788
330
1A
100
AcDbEntity
  8
SEIHIN
100
AcDbLine
 10
330.0547790975104
 20
410.1468692107081
 30
0.0
 11
347.0150948793519
 21
410.1468692107081
 31
0.0
  0
LINE
  5
4789
330
1A
100
AcDbEntity
  8
SEIHIN
100
AcDbLine
 10
330.2315380654316
 20
382.1468692107081
 30
0.0
 11
347.4910546409433
 21
382.1468692107081
 31
0.0
  0
LINE
  5
478A
330
1A
100
AcDbEntity
  8
CENTER L
  6
CENTER
 62
     1
 48
5.0
100
AcDbLine
 10
215.9920033941219
 20
396.1824042619192
 30
0.0
 11
374.5682765632535
 21
396.182404261919
 31
0.0
  0
LINE
  5
478B
330
1A
100
AcDbEntity
  8
SEIHIN
100
AcDbLine
 10
258.2337063185312
 20
382.1468692107081
 30
0.0
 11
330.2315380654316
 21
382.1468692107081
 31
0.0
  0
LINE
  5
478C
330
1A
100
AcDbEntity
  8
SEIHIN
100
AcDbLine
 10
258.3356970135003
 20
410.1468692107083
 30
0.0
 11
330.0547790975104
 21
410.1468692107081
 31
0.0
  0
LINE
  5
478D
330
1A
100
AcDbEntity
  8
SEIHIN
100
AcDbLine
 10
229.0032530036092
 20
410.1468692107081
 30
0.0
 11
229.9138722325154
 21
410.1468692107081
 31
0.0
  0
LINE
  5
478E
330
1A
100
AcDbEntity
  8
SEIHIN
100
AcDbLine
 10
229.0032530036092
 20
382.1468692107081
 30
0.0
 11
229.9769805707267
 21
382.1468692107081
 31
0.0
  0
DIMENSION
  5
478F
330
1A
100
AcDbEntity
  8
SUNPOU
100
AcDbDimension
  2
*D8
 10
203.1550908707102
 20
382.1468692107081
 30
0.0
 11
198.1550908707101
 21
396.1468692107082
 31
0.0
 70
    32
 71
     5
 42
-1.0
  3
STANDARD
100
AcDbAlignedDimension
 13
229.9138722325154
 23
410.1468692107081
 33
0.0
 14
229.4901167871678
 24
382.1468692107081
 34
0.0
 50
90.0
100
AcDbRotatedDimension
1001
ACAD
1000
DSTYLE
1002
{
1070
    41
1040
7.0
1070
    42
1040
6.0
1070
    43
1040
14.0
1070
    44
1040
3.0
1070
    73
1070
     0
1070
    74
1070
     0
1070
    77
1070
     3
1070
   140
1040
6.0
1070
   141
1040
150.0
1070
   147
1040
2.0
1070
   172
1070
     1
1070
   173
1070
     1
1070
   176
1070
   256
1070
   177
1070
   256
1070
   178
1070
   256
1070
   271
1070
     0
1070
   272
1070
     0
1070
   341
1005
6D
1070
     6
1000
OPEN
1070
     7
1000
OPEN
1070
   371
1070
    -1
1070
   372
1070
    -1
1002
}
  0
LWPOLYLINE
  5
4790
330
1A
100
AcDbEntity
  8
SEIHIN
100
AcDbPolyline
 90
        6
 70
   128
 43
0.0
 10
226.2726682003931
 20
392.4916863145262
 10
226.3066726502375
 20
392.1811486763835
 10
226.5135305699305
 20
390.6632260588884
 10
227.1559941348032
 20
387.543163186121
 10
228.1025307949976
 20
384.4250160438895
 10
229.0032463845209
 20
382.1468687785745
  0
LWPOLYLINE
  5
4791
330
1A
100
AcDbEntity
  8
SEIHIN
100
AcDbPolyline
 90
        7
 70
   128
 43
0.0
 10
229.0032463845209
 20
410.1468696428418
 10
228.2061534699396
 20
408.1560344604731
 10
227.5396245297388
 20
406.1447465030432
 10
226.5736567553477
 20
401.9970175979614
 10
226.3253438052134
 20
400.2729714086235
 10
226.2328224953608
 20
399.394063901338
 10
226.1663931187586
 20
398.5861278308511
  0
LINE
  5
4792
330
1A
100
AcDbEntity
  8
SEIHIN
100
AcDbLine
 10
226.2726682003931
 20
392.4916863145262
 30
0.0
 11
226.0812828683002
 21
396.1468692107081
 31
0.0
  0
LINE
  5
4793
330
1A
100
AcDbEntity
  8
SEIHIN
100
AcDbLine
 10
226.0812776860194
 20
396.1121176073283
 30
0.0
 11
226.2693899449305
 21
392.5228406844616
 31
0.0
  0
LINE
  5
4794
330
1A
100
AcDbEntity
  8
SEIHIN
100
AcDbLine
 10
226.1663931187586
 20
398.5861278308511
 30
0.0
 11
226.0812828683002
 21
396.1468692107081
 31
0.0
  0
LINE
  5
4795
330
1A
100
AcDbEntity
  8
SEIHIN
100
AcDbLine
 10
226.162503915687
 20
398.5249988438517
 30
0.0
 11
226.0812776860194
 21
396.1990231111776
 31
0.0
  0
LWPOLYLINE
  5
4796
330
1A
100
AcDbEntity
  8
SEIHIN
100
AcDbPolyline
 90
        4
 70
   128
 43
0.0
 10
226.0812776860194
 20
396.1468692107081
 10
226.0812925871805
 20
396.1232372187004
 10
226.0813074883417
 20
396.1119376547066
 10
226.0812925871805
 20
396.112611186465
  0
LWPOLYLINE
  5
4797
330
1A
100
AcDbEntity
  8
SEIHIN
100
AcDbPolyline
 90
        5
 70
   128
 43
0.0
 10
226.0813223895029
 20
396.1990578611511
 10
226.0813223895029
 20
396.1995941065032
 10
226.0813074883417
 20
396.1930650623179
 10
226.0812925871805
 20
396.1717434615201
 10
226.0812776860194
 20
396.1468692107081
  0
LWPOLYLINE
  5
4798
330
1A
100
AcDbEntity
  8
SEIHIN
100
AcDbPolyline
 90
        6
 70
   128
 43
0.0
 10
226.1663931187586
 20
398.5861278308511
 10
226.163889723678
 20
398.5501289537132
 10
226.1630999621348
 20
398.5386671667874
 10
226.1628764447169
 20
398.5352962447286
 10
226.1632340725855
 20
398.5404795205176
 10
226.1634575900034
 20
398.5439279751807
  0
LINE
  5
4799
330
1A
100
AcDbEntity
  8
SEIHIN
100
AcDbLine
 10
230.3119152195022
 20
382.1468692107081
 30
0.0
 11
231.0456241294648
 21
396.1468692107081
 31
0.0
  0
LINE
  5
479A
330
1A
100
AcDbEntity
  8
SEIHIN
100
AcDbLine
 10
236.7285224374728
 20
382.1468687785745
 30
0.0
 11
250.2074120202449
 21
382.1468692107081
 31
0.0
  0
LINE
  5
479B
330
1A
100
AcDbEntity
  8
SEIHIN
100
AcDbLine
 10
231.7922791745541
 20
382.1468692107081
 30
0.0
 11
234.6055912550883
 21
382.1468687785745
 31
0.0
  0
LINE
  5
479C
330
1A
100
AcDbEntity
  8
SEIHIN
100
AcDbLine
 10
234.7266929921107
 20
382.1468687785745
 30
0.0
 11
234.6055912550883
 21
382.1468687785745
 31
0.0
  0
LINE
  5
479D
330
1A
100
AcDbEntity
  8
SEIHIN
100
AcDbLine
 10
234.7266929921107
 20
382.1468687785745
 30
0.0
 11
236.6074207004504
 21
382.1468687785745
 31
0.0
  0
LINE
  5
479E
330
1A
100
AcDbEntity
  8
SEIHIN
100
AcDbLine
 10
236.7285224374728
 20
382.1468687785745
 30
0.0
 11
236.6074207004504
 21
382.1468687785745
 31
0.0
  0
LINE
  5
479F
330
1A
100
AcDbEntity
  8
SEIHIN
100
AcDbLine
 10
229.9769805707267
 20
382.1468692107081
 30
0.0
 11
230.3119152195022
 21
382.1468692107081
 31
0.0
  0
LINE
  5
47A0
330
1A
100
AcDbEntity
  8
SEIHIN
100
AcDbLine
 10
230.3119152195022
 20
382.1468692107081
 30
0.0
 11
231.7922791745541
 21
382.1468692107081
 31
0.0
  0
LINE
  5
47A1
330
1A
100
AcDbEntity
  8
SEIHIN
100
AcDbLine
 10
250.2074120202449
 20
382.1468692107081
 30
0.0
 11
258.2337063185312
 21
382.1468692107081
 31
0.0
  0
LINE
  5
47A2
330
1A
100
AcDbEntity
  8
SEIHIN
100
AcDbLine
 10
236.6984295424418
 20
410.1468696428418
 30
0.0
 11
250.2074120202449
 21
410.1468692107083
 31
0.0
  0
LINE
  5
47A3
330
1A
100
AcDbEntity
  8
SEIHIN
100
AcDbLine
 10
231.0456241294648
 20
396.1468692107081
 30
0.0
 11
230.5567333565803
 21
410.1468692107083
 31
0.0
  0
LINE
  5
47A4
330
1A
100
AcDbEntity
  8
SEIHIN
100
AcDbLine
 10
231.7922791745541
 20
410.1468692107083
 30
0.0
 11
234.5754015025095
 21
410.1468696428418
 31
0.0
  0
LINE
  5
47A5
330
1A
100
AcDbEntity
  8
SEIHIN
100
AcDbLine
 10
234.5754015025095
 20
410.1468696428418
 30
0.0
 11
234.6965926464991
 21
410.1468696428418
 31
0.0
  0
LINE
  5
47A6
330
1A
100
AcDbEntity
  8
SEIHIN
100
AcDbLine
 10
234.6965926464991
 20
410.1468696428418
 30
0.0
 11
236.5772383984522
 21
410.1468696428418
 31
0.0
  0
LINE
  5
47A7
330
1A
100
AcDbEntity
  8
SEIHIN
100
AcDbLine
 10
236.5772383984522
 20
410.1468696428418
 30
0.0
 11
236.6984295424418
 21
410.1468696428418
 31
0.0
  0
LINE
  5
47A8
330
1A
100
AcDbEntity
  8
SEIHIN
100
AcDbLine
 10
229.9138722325154
 20
410.1468692107081
 30
0.0
 11
230.5567333565803
 21
410.1468692107083
 31
0.0
  0
LINE
  5
47A9
330
1A
100
AcDbEntity
  8
SEIHIN
100
AcDbLine
 10
230.5567333565803
 20
410.1468692107083
 30
0.0
 11
231.7922791745541
 21
410.1468692107083
 31
0.0
  0
LINE
  5
47AA
330
1A
100
AcDbEntity
  8
SEIHIN
100
AcDbLine
 10
250.2074120202449
 20
410.1468692107083
 30
0.0
 11
258.3356970135003
 21
410.1468692107083
 31
0.0
  0
LINE
  5
47AB
330
1A
100
AcDbEntity
  8
SEIHIN
100
AcDbLine
 10
360.5767297324137
 20
423.4260651843282
 30
0.0
 11
360.5767297324137
 21
396.1468692107084
 31
0.0
  0
ARC
  5
47AC
330
1A
100
AcDbEntity
  8
SEIHIN
100
AcDbCircle
 10
346.2371778042032
 20
415.1468681669918
 30
0.0
 40
4.999998524150147
100
AcDbArc
 50
269.9999855150558
 51
357.172738064445
  0
LWPOLYLINE
  5
47AD
330
1A
100
AcDbEntity
  8
SEIHIN
100
AcDbPolyline
 90
        8
 70
   128
 43
0.0
 10
354.1049472753302
 20
414.9002432061315
 10
353.8203672271566
 20
413.5602153075814
 10
353.1098235164182
 20
412.3944974673867
 10
352.0289011996583
 20
411.4395435137629
 10
351.0455353882508
 20
410.9023641033053
 10
349.9885475959973
 20
410.5247761292338
 10
348.51197383817
 20
410.234100109148
 10
347.0150944542484
 20
410.1468696428418
  0
DIMENSION
  5
47AE
330
1A
100
AcDbEntity
  8
SUNPOU
100
AcDbDimension
  2
*D1
 10
410.997579917547
 20
361.1468692107081
 30
0.0
 11
405.9975799175469
 21
396.1468692107082
 31
0.0
 70
    32
 71
     5
 42
-1.0
  3
STANDARD
100
AcDbAlignedDimension
 13
360.5767297324137
 23
431.1468692107081
 33
0.0
 14
360.5767297324137
 24
361.1468692107081
 34
0.0
 50
90.0
100
AcDbRotatedDimension
1001
ACAD
1000
DSTYLE
1002
{
1070
    41
1040
7.0
1070
    42
1040
6.0
1070
    43
1040
14.0
1070
    44
1040
3.0
1070
    73
1070
     0
1070
    74
1070
     0
1070
    77
1070
     3
1070
   140
1040
6.0
1070
   141
1040
150.0
1070
   147
1040
2.0
1070
   172
1070
     1
1070
   173
1070
     1
1070
   176
1070
   256
1070
   177
1070
   256
1070
   178
1070
   256
1070
   271
1070
     0
1070
   272
1070
     0
1070
   341
1005
6D
1070
     6
1000
OPEN
1070
     7
1000
OPEN
1070
   371
1070
    -1
1070
   372
1070
    -1
1002
}
  0
LWPOLYLINE
  5
47AF
330
1A
100
AcDbEntity
  8
SEIHIN
100
AcDbPolyline
 90
        9
 70
   128
 43
0.0
 10
352.261598664184
 20
363.9976586384654
 10
352.257005381246
 20
364.0852960927367
 10
352.2428781491117
 20
364.3548543734431
 10
352.2201957878069
 20
364.7876697761893
 10
352.189754578133
 20
365.3685282153964
 10
352.1525417220191
 20
366.0785834474444
 10
352.1094354566531
 20
366.9010996056676
 10
352.0624129798607
 20
367.7983376366973
 10
352.0136824574665
 20
368.7281812710643
  0
LWPOLYLINE
  5
47B0
330
1A
100
AcDbEntity
  8
SEIHIN
100
AcDbPolyline
 90
        9
 70
   128
 43
0.0
 10
355.0177882191138
 20
368.7281812710643
 10
355.0760107811884
 20
366.9046628458381
 10
355.1264526088135
 20
365.2846272272944
 10
355.1691137019889
 20
363.922526983726
 10
355.2039935950534
 20
362.8436829132915
 10
355.2310927536682
 20
362.0494025928855
 10
355.2504107121722
 20
361.5227322263598
 10
355.2619479362265
 20
361.2341935915828
 10
355.2657044258313
 20
361.1468690616965
  0
LINE
  5
47B1
330
1A
100
AcDbEntity
  8
SEIHIN
100
AcDbLine
 10
360.5767297324137
 20
368.7281815607645
 30
0.0
 11
360.5767297324137
 21
361.1468692107081
 31
0.0
  0
LINE
  5
47B2
330
1A
100
AcDbEntity
  8
SEIHIN
100
AcDbLine
 10
355.2657044258313
 20
361.1468690616965
 30
0.0
 11
352.261598664184
 21
363.9976586384654
 31
0.0
  0
LINE
  5
47B3
330
1A
100
AcDbEntity
  8
SEIHIN
100
AcDbLine
 10
360.5767297324137
 20
361.1468692107081
 30
0.0
 11
355.2657044258313
 21
361.1468690616965
 31
0.0
  0
LINE
  5
47B4
330
1A
100
AcDbEntity
  8
SEIHIN
100
AcDbLine
 10
360.5767297324137
 20
396.1468692107084
 30
0.0
 11
360.5767297324137
 21
368.7281815607645
 31
0.0
  0
LINE
  5
47B5
330
1A
100
AcDbEntity
  8
CENTER L
  6
CENTER
 62
     1
 48
5.0
100
AcDbLine
 10
345.4528545155374
 20
369.2113971520229
 30
0.0
 11
369.2494879149224
 21
369.2113971520229
 31
0.0
  0
ARC
  5
47B6
330
1A
100
AcDbEntity
  8
SEIHIN
100
AcDbCircle
 10
346.5656151576372
 20
377.1468679825697
 30
0.0
 40
5.00000079600482
100
AcDbArc
 50
4.238795340746295
 51
89.99999231823884
  0
LWPOLYLINE
  5
47B7
330
1A
100
AcDbEntity
  8
SEIHIN
100
AcDbPolyline
 90
        8
 70
   128
 43
0.0
 10
347.4910543065862
 20
382.1468687785745
 10
349.1941471349792
 20
382.0280823094726
 10
350.8566193979577
 20
381.6268191842318
 10
352.5529713135556
 20
380.7501494122624
 10
353.6730962571101
 20
379.6150981618047
 10
354.0671542052523
 20
378.912087453711
 10
354.3163873020903
 20
378.1457710249305
 10
354.3979739535944
 20
377.5164353830695
  0
LINE
  5
47B8
330
1A
100
AcDbEntity
  8
SEIHIN
100
AcDbLine
 10
352.0136824574665
 20
368.7281812710643
 30
0.0
 11
351.5587630447344
 21
377.4085491133809
 31
0.0
  0
LINE
  5
47B9
330
1A
100
AcDbEntity
  8
SEIHIN
100
AcDbLine
 10
351.5519392442302
 20
377.5164353830695
 30
0.0
 11
351.5587630447344
 21
377.4085491133809
 31
0.0
  0
LINE
  5
47BA
330
1A
100
AcDbEntity
  8
SEIHIN
100
AcDbLine
 10
354.3979739535944
 20
377.5164353830695
 30
0.0
 11
355.0177882191138
 21
368.7281812710643
 31
0.0
  0
LINE
  5
47BB
330
1A
100
AcDbEntity
  8
CENTER L
  6
CENTER
 62
     1
 48
5.0
100
AcDbLine
 10
345.4528545155374
 20
423.1534113718152
 30
0.0
 11
369.2494879149224
 21
423.1534113718152
 31
0.0
  0
LINE
  5
47BC
330
1A
100
AcDbEntity
  8
SEIHIN
100
AcDbLine
 10
360.5767297324137
 20
431.1468692107081
 30
0.0
 11
360.5767297324137
 21
423.4260651843282
 31
0.0
  0
LWPOLYLINE
  5
47BD
330
1A
100
AcDbEntity
  8
SEIHIN
100
AcDbPolyline
 90
        9
 70
   128
 43
0.0
 10
351.5293407019572
 20
423.4260655177712
 10
351.5622694742278
 20
424.3690314872146
 10
351.594161684473
 20
425.2823162062049
 10
351.6234219771222
 20
426.1202159507155
 10
351.6487586077647
 20
426.8457646651149
 10
351.6694768097595
 20
427.4390506727576
 10
351.6849563222722
 20
427.8823229653716
 10
351.6945955109195
 20
428.1583520753264
 10
351.6977275487379
 20
428.2480384392619
  0
LWPOLYLINE
  5
47BE
330
1A
100
AcDbEntity
  8
SEIHIN
100
AcDbPolyline
 90
        9
 70
   128
 43
0.0
 10
354.6995538983838
 20
431.1468693597197
 10
354.6970034715132
 20
431.0590679926753
 10
354.689168254693
 20
430.7678061706901
 10
354.6760477822618
 20
430.234203038919
 10
354.6576420542197
 20
429.4269996864676
 10
354.6339510705666
 20
428.3280576748729
 10
354.6049748313026
 20
426.9385467452884
 10
354.5707133364276
 20
425.2852405590892
 10
354.5311665859417
 20
423.4260655177712
  0
LINE
  5
47BF
330
1A
100
AcDbEntity
  8
SEIHIN
100
AcDbLine
 10
351.2341310035781
 20
414.9723722768903
 30
0.0
 11
351.5293407019572
 21
423.4260655177712
 31
0.0
  0
LINE
  5
47C0
330
1A
100
AcDbEntity
  8
SEIHIN
100
AcDbLine
 10
351.2341310035781
 20
414.9723722768903
 30
0.0
 11
351.231090235372
 21
414.9002432061315
 31
0.0
  0
LINE
  5
47C1
330
1A
100
AcDbEntity
  8
SEIHIN
100
AcDbLine
 10
354.5311665859417
 20
423.4260655177712
 30
0.0
 11
354.1049472753302
 21
414.9002432061315
 31
0.0
  0
LINE
  5
47C2
330
1A
100
AcDbEntity
  8
SEIHIN
100
AcDbLine
 10
351.6977275487379
 20
428.2480384392619
 30
0.0
 11
354.6995538983838
 21
431.1468693597197
 31
0.0
  0
LINE
  5
47C3
330
1A
100
AcDbEntity
  8
SEIHIN
100
AcDbLine
 10
354.6995538983838
 20
431.1468693597197
 30
0.0
 11
360.5767297324137
 21
431.1468692107081
 31
0.0
  0
LINE
  5
47CA
330
1A
100
AcDbEntity
  8
ZUWAKU
100
AcDbLine
 10
562.5269557661125
 20
40.0
 30
0.0
 11
562.5269557661125
 21
10.80000000000007
 31
0.0
  0
LINE
  5
47CB
330
1A
100
AcDbEntity
  8
ZUWAKU
100
AcDbLine
 10
562.9269557661123
 20
40.0
 30
0.0
 11
562.9269557661123
 21
10.80000000000007
 31
0.0
  0
LINE
  5
47CC
330
1A
100
AcDbEntity
  8
ZUWAKU
100
AcDbLine
 10
562.7269557661125
 20
40.0
 30
0.0
 11
562.7269557661125
 21
10.80000000000007
 31
0.0
  0
LINE
  5
47CD
330
1A
100
AcDbEntity
  8
ZUWAKU
100
AcDbLine
 10
514.799179498141
 20
40.0
 30
0.0
 11
514.799179498141
 21
10.80000000000007
 31
0.0
  0
LINE
  5
47CE
330
1A
100
AcDbEntity
  8
ZUWAKU
100
AcDbLine
 10
515.1991794981409
 20
40.0
 30
0.0
 11
515.1991794981411
 21
10.80000000000007
 31
0.0
  0
LINE
  5
47CF
330
1A
100
AcDbEntity
  8
ZUWAKU
100
AcDbLine
 10
514.9991794981409
 20
40.0
 30
0.0
 11
514.9991794981411
 21
10.80000000000007
 31
0.0
  0
TEXT
  5
47D0
330
1A
100
AcDbEntity
  8
MOJI
100
AcDbText
 10
538.0409079723129
 20
28.00492105740739
 30
0.0
 40
5.599999999999999
  1
Ａ３
 41
0.9
  7
ｽﾀｲﾙ1
100
AcDbText
  0
LINE
  5
47D1
330
1A
100
AcDbEntity
  8
ZUWAKU
100
AcDbLine
 10
515.1991794981409
 20
25.60000000000002
 30
0.0
 11
562.5269557661125
 21
25.60000000000002
 31
0.0
  0
LINE
  5
47D2
330
1A
100
AcDbEntity
  8
ZUWAKU
100
AcDbLine
 10
515.1991794981409
 20
25.39999999999998
 30
0.0
 11
562.5269557661125
 21
25.39999999999998
 31
0.0
  0
LINE
  5
47D3
330
1A
100
AcDbEntity
  8
ZUWAKU
100
AcDbLine
 10
515.1991794981409
 20
25.20000000000005
 30
0.0
 11
562.5269557661125
 21
25.20000000000005
 31
0.0
  0
TEXT
  5
47D4
330
1A
100
AcDbEntity
  8
ZUWAKU
100
AcDbText
 10
516.6766245203507
 20
19.6553565383856
 30
0.0
 40
4.0
  1
縮尺
 41
0.9
  7
ｽﾀｲﾙ1
100
AcDbText
  0
TEXT
  5
47D5
330
1A
100
AcDbEntity
  8
MOJI
100
AcDbText
 10
538.0409079723129
 20
13.20492105740743
 30
0.0
 40
5.599999999999999
  1
１/２
 41
0.9
  7
ｽﾀｲﾙ1
100
AcDbText
  0
TEXT
  5
47D6
330
1A
100
AcDbEntity
  8
ZUWAKU
100
AcDbText
 10
516.6766245203505
 20
34.05535653838558
 30
0.0
 40
4.0
  1
用紙
 41
0.9
  7
ｽﾀｲﾙ1
100
AcDbText
  0
TEXT
  5
47D7
330
1A
100
AcDbEntity
  8
ZUWAKU
100
AcDbText
 10
718.5280841922436
 20
27.5538393356868
 30
0.0
 40
6.0
  1
積水化学工業株式会社
 41
0.9
  7
ｽﾀｲﾙ1
100
AcDbText
  0
LINE
  5
47D8
330
1A
100
AcDbEntity
  8
ZUWAKU
100
AcDbLine
 10
707.8490105485412
 20
40.0
 30
0.0
 11
707.8490105485412
 21
10.80000000000007
 31
0.0
  0
LINE
  5
47D9
330
1A
100
AcDbEntity
  8
ZUWAKU
100
AcDbLine
 10
707.6490105485411
 20
40.0
 30
0.0
 11
707.6490105485414
 21
10.80000000000007
 31
0.0
  0
LINE
  5
47DA
330
1A
100
AcDbEntity
  8
ZUWAKU
100
AcDbLine
 10
707.4490105485413
 20
40.0
 30
0.0
 11
707.4490105485413
 21
10.80000000000007
 31
0.0
  0
LINE
  5
47DB
330
1A
100
AcDbEntity
  8
ZUWAKU
100
AcDbLine
 10
707.2490105485413
 20
40.0
 30
0.0
 11
707.2490105485413
 21
10.80000000000007
 31
0.0
  0
LINE
  5
47DC
330
1A
100
AcDbEntity
  8
ZUWAKU
100
AcDbLine
 10
658.4172025102046
 20
40.0
 30
0.0
 11
658.4172025102046
 21
10.80000000000007
 31
0.0
  0
LINE
  5
47DD
330
1A
100
AcDbEntity
  8
ZUWAKU
100
AcDbLine
 10
658.8172025102044
 20
40.0
 30
0.0
 11
658.8172025102049
 21
10.80000000000007
 31
0.0
  0
LINE
  5
47DE
330
1A
100
AcDbEntity
  8
ZUWAKU
100
AcDbLine
 10
658.6172025102042
 20
40.0
 30
0.0
 11
658.6172025102046
 21
10.80000000000007
 31
0.0
  0
TEXT
  5
47DF
330
1A
100
AcDbEntity
  8
ZUWAKU
100
AcDbText
 10
668.2039376873024
 20
28.00492105740739
 30
0.0
 40
5.599999999999999
  1
　　．　　．　　
 41
0.9
  7
ｽﾀｲﾙ1
100
AcDbText
  0
TEXT
  5
47E0
330
1A
100
AcDbEntity
  8
ZUWAKU
100
AcDbText
 10
718.5280841922436
 20
16.64884031385407
 30
0.0
 40
6.0
  1
建材事業部
 41
0.9
  7
ｽﾀｲﾙ1
100
AcDbText
  0
LINE
  5
47E1
330
1A
100
AcDbEntity
  8
ZUWAKU
100
AcDbLine
 10
658.8172025102042
 20
25.60000000000002
 30
0.0
 11
707.2490105485413
 21
25.60000000000002
 31
0.0
  0
LINE
  5
47E2
330
1A
100
AcDbEntity
  8
ZUWAKU
100
AcDbLine
 10
658.8172025102044
 20
25.40000000000009
 30
0.0
 11
707.2490105485413
 21
25.39999999999998
 31
0.0
  0
LINE
  5
47E3
330
1A
100
AcDbEntity
  8
ZUWAKU
100
AcDbLine
 10
658.8172025102042
 20
25.20000000000005
 30
0.0
 11
707.2490105485413
 21
25.20000000000005
 31
0.0
  0
TEXT
  5
47E4
330
1A
100
AcDbEntity
  8
ZUWAKU
100
AcDbText
 10
660.2946475324138
 20
34.05535653838558
 30
0.0
 40
4.0
  1
DATE
 41
0.9
  7
ｽﾀｲﾙ1
100
AcDbText
  0
MTEXT
  5
47E5
330
1A
100
AcDbEntity
  8
SUNPOU
  6
Continuous
 62
     4
100
AcDbMText
 10
634.40454918821
 20
211.2534783839014
 30
0.0
 40
6.0
 41
0.0
 71
     7
 72
     1
  1
3-φ4.2
 73
     1
 44
1.0
  0
LEADER
  5
47E6
330
1A
100
AcDbEntity
  8
SUNPOU
  6
Continuous
 62
     4
100
AcDbLeader
  3
STANDARD
 74
     0
 40
6.0
 41
31.2
 76
     3
 10
601.6508247500705
 20
229.3647808219815
 30
0.0
 10
623.9736641847209
 20
209.2534783839014
 30
0.0
 10
638.7917691811914
 20
209.2534783839014
 30
0.0
1001
ACAD
1000
DSTYLE
1002
{
1070
     6
1000
OPEN
1070
    41
1040
7.0
1070
    42
1040
6.0
1070
    43
1040
14.0
1070
    44
1040
3.0
1070
    73
1070
     0
1070
    74
1070
     0
1070
    77
1070
     3
1070
   140
1040
6.0
1070
   141
1040
150.0
1070
   147
1040
2.0
1070
   172
1070
     1
1070
   173
1070
     1
1070
   176
1070
     4
1070
   177
1070
     4
1070
   178
1070
     4
1070
   271
1070
     0
1070
   272
1070
     2
1070
   341
1005
6D
1070
   343
1005
6D
1070
   344
1005
6D
1002
}
1000
LEANOF
1010
0.0
1020
0.0
1030
0.0
  0
ARC
  5
47E7
330
1A
100
AcDbEntity
  8
SEIHIN
100
AcDbCircle
 10
600.808349610435
 20
227.4305071434429
 30
0.0
 40
8.000000000000018
100
AcDbArc
 50
273.0000000000056
 51
0.0
  0
ARC
  5
47E8
330
1A
100
AcDbEntity
  8
SEIHIN
100
AcDbCircle
 10
597.8083496104348
 20
209.2485815776312
 30
0.0
 40
13.44525217091367
100
AcDbArc
 50
93.00000000000559
 51
130.5237829392198
  0
LINE
  5
47E9
330
1A
100
AcDbEntity
  8
SEIHIN
100
AcDbLine
 10
588.2536017813468
 20
232.0510759135817
 30
0.0
 11
588.2536017813486
 21
219.8459393155979
 31
0.0
  0
ARC
  5
47EA
330
1A
100
AcDbEntity
  8
SEIHIN
100
AcDbCircle
 10
549.8083496104348
 20
209.2485815776312
 30
0.0
 40
13.44525217091367
100
AcDbArc
 50
49.47621706078016
 51
86.99999999999442
  0
ARC
  5
47EB
330
1A
100
AcDbEntity
  8
SEIHIN
100
AcDbCircle
 10
546.8083496104346
 20
227.4305071434429
 30
0.0
 40
8.000000000000018
100
AcDbArc
 50
180.0
 51
266.9999999999944
  0
LINE
  5
47EC
330
1A
100
AcDbEntity
  8
SEIHIN
100
AcDbLine
 10
559.3630974395228
 20
232.0510759135817
 30
0.0
 11
559.363097439521
 21
219.8459393155979
 31
0.0
  0
LINE
  5
47ED
330
1A
100
AcDbEntity
  8
SEIHIN
100
AcDbLine
 10
563.2536017813466
 20
181.2761360088327
 30
0.0
 11
563.2536017813466
 21
232.0510759135817
 31
0.0
  0
LINE
  5
47EE
330
1A
100
AcDbEntity
  8
SEIHIN
100
AcDbLine
 10
570.8630974395228
 20
232.0510759135817
 30
0.0
 11
570.863097439523
 21
189.0287866362926
 31
0.0
  0
LINE
  5
47EF
330
1A
100
AcDbEntity
  8
SEIHIN
100
AcDbLine
 10
576.7536017813468
 20
232.0510759135817
 30
0.0
 11
576.7536017813466
 21
189.0287866362926
 31
0.0
  0
LINE
  5
47F0
330
1A
100
AcDbEntity
  8
SEIHIN
100
AcDbLine
 10
584.363097439523
 20
181.2761360088327
 30
0.0
 11
584.363097439523
 21
232.0510759135817
 31
0.0
  0
LINE
  5
47F1
330
1A
100
AcDbEntity
  8
CENTER L
  6
CENTER
 62
     1
 48
5.0
100
AcDbLine
 10
573.8083470520896
 20
168.1289996733013
 30
0.0
 11
573.8084536123715
 21
259.8428764031264
 31
0.0
  0
LINE
  5
47F2
330
1A
100
AcDbEntity
  8
CENTER L
  6
CENTER
 62
     1
 48
5.0
100
AcDbLine
 10
568.6500419563804
 20
180.8112194895881
 30
0.0
 11
578.9540523774203
 21
180.8112194895881
 31
0.0
  0
LINE
  5
47F3
330
1A
100
AcDbEntity
  8
SEIHIN
100
AcDbLine
 10
573.8083496104348
 20
172.8386059612072
 30
0.0
 11
565.4943338729772
 21
173.2743250629317
 31
0.0
  0
DIMENSION
  5
47F4
330
1A
100
AcDbEntity
  8
SUNPOU
100
AcDbDimension
  2
*D12
 10
587.8083496104349
 20
148.7047105237349
 30
0.0
 11
573.8083496104348
 21
153.7047105237349
 31
0.0
 70
    32
 71
     5
 42
-1.0
  3
STANDARD
100
AcDbAlignedDimension
 13
559.8083496104346
 23
179.2661022714591
 33
0.0
 14
587.8083496104349
 24
179.2661022714591
 34
0.0
100
AcDbRotatedDimension
1001
ACAD
1000
DSTYLE
1002
{
1070
   287
1070
     5
1070
   287
1070
     5
1070
   287
1070
     5
1070
    41
1040
7.0
1070
    42
1040
6.0
1070
    43
1040
14.0
1070
    44
1040
3.0
1070
    73
1070
     0
1070
    74
1070
     0
1070
    77
1070
     3
1070
   140
1040
6.0
1070
   141
1040
150.0
1070
   147
1040
2.0
1070
   172
1070
     1
1070
   173
1070
     1
1070
   176
1070
   256
1070
   177
1070
   256
1070
   178
1070
   256
1070
   271
1070
     0
1070
   272
1070
     0
1070
   279
1070
     2
1070
   341
1005
6D
1070
     6
1000
OPEN
1070
     7
1000
OPEN
1070
   371
1070
    -1
1070
   372
1070
    -1
1002
}
  0
DIMENSION
  5
47F5
330
1A
100
AcDbEntity
  8
SUNPOU
100
AcDbDimension
  2
*D10
 10
515.2640266711456
 20
180.8488941801686
 30
0.0
 11
510.2640266711456
 21
176.8488884022309
 31
0.0
 70
    32
 71
     5
 42
-1.0
  3
STANDARD
100
AcDbAlignedDimension
 13
573.8083496104349
 23
172.8488826242931
 33
0.0
 14
568.6626463795905
 24
180.8488941801686
 34
0.0
 50
90.0
100
AcDbRotatedDimension
1001
ACAD
1000
DSTYLE
1002
{
1070
   287
1070
     5
1070
   287
1070
     5
1070
   287
1070
     5
1070
   287
1070
     5
1070
    41
1040
7.0
1070
    42
1040
6.0
1070
    43
1040
14.0
1070
    44
1040
3.0
1070
    73
1070
     0
1070
    74
1070
     0
1070
    77
1070
     3
1070
   140
1040
6.0
1070
   141
1040
150.0
1070
   147
1040
2.0
1070
   172
1070
     1
1070
   173
1070
     1
1070
   176
1070
   256
1070
   177
1070
   256
1070
   178
1070
   256
1070
   271
1070
     0
1070
   272
1070
     0
1070
   279
1070
     2
1070
   341
1005
6D
1070
     6
1000
OPEN
1070
     7
1000
OPEN
1070
   371
1070
    -1
1070
   372
1070
    -1
1002
}
  0
ARC
  5
47F6
330
1A
100
AcDbEntity
  8
SEIHIN
100
AcDbCircle
 10
565.8083496104346
 20
179.266102271459
 30
0.0
 40
5.999999999999911
100
AcDbArc
 50
203.8649807726715
 51
244.7671407521076
  0
ARC
  5
47F7
330
1A
100
AcDbEntity
  8
SEIHIN
100
AcDbCircle
 10
565.8083496104348
 20
179.2661022714591
 30
0.0
 40
6.000000000000005
100
AcDbArc
 50
244.7671407521076
 51
266.9999999999944
  0
LINE
  5
47F8
330
1A
100
AcDbEntity
  8
SEIHIN
100
AcDbLine
 10
559.8083496104346
 20
209.2485815776312
 30
0.0
 11
559.8083496104346
 21
179.2661022714591
 31
0.0
  0
ARC
  5
47F9
330
1A
100
AcDbEntity
  8
SEIHIN
100
AcDbCircle
 10
573.8083496104346
 20
180.8386059612072
 30
0.0
 40
8.095252170911808
100
AcDbArc
 50
115.6764928404018
 51
177.2403590186277
  0
ARC
  5
47FA
330
1A
100
AcDbEntity
  8
SEIHIN
100
AcDbCircle
 10
565.8083496104346
 20
179.2661022714591
 30
0.0
 40
6.0
100
AcDbArc
 50
180.0
 51
203.8649807726715
  0
LINE
  5
47FB
330
1A
100
AcDbEntity
  8
SEIHIN
100
AcDbLine
 10
564.7313583785385
 20
180.283858132119
 30
0.0
 11
564.2458796580604
 21
180.283858132119
 31
0.0
  0
ARC
  5
47FC
330
1A
100
AcDbEntity
  8
SEIHIN
100
AcDbCircle
 10
564.724094418691
 20
181.2837585406066
 30
0.0
 40
0.9999267933235491
100
AcDbArc
 50
270.4162283732081
 51
356.8241306454693
  0
ARC
  5
47FD
330
1A
100
AcDbEntity
  8
SEIHIN
100
AcDbCircle
 10
564.2534885057073
 20
181.2837448564798
 30
0.0
 40
0.999915674502298
100
AcDbArc
 50
180.4359958300863
 51
269.5640041699072
  0
LWPOLYLINE
  5
47FE
330
1A
100
AcDbEntity
  8
SEIHIN
100
AcDbPolyline
 90
        5
 70
   128
 43
0.0
 10
570.8630974395229
 20
189.0287866362926
 10
570.8061435350047
 20
188.7009184472455
 10
570.6443951073164
 20
188.4094487667986
 10
570.3969669904996
 20
188.1880575575196
 10
570.3007630056014
 20
188.1344913715085
  0
ARC
  5
47FF
330
1A
100
AcDbEntity
  8
SEIHIN
100
AcDbCircle
 10
549.8083496104346
 20
209.2485815776312
 30
0.0
 40
10.00000000000004
100
AcDbArc
 50
0.0
 51
86.99999999999442
  0
LINE
  5
4800
330
1A
100
AcDbEntity
  8
SEIHIN
100
AcDbLine
 10
546.3896619604911
 20
219.4414708654063
 30
0.0
 11
550.3317091728641
 21
219.2348769251769
 31
0.0
  0
LWPOLYLINE
  5
4801
330
1A
100
AcDbEntity
  8
SEIHIN
100
AcDbPolyline
 90
        9
 70
   128
 43
0.0
 10
559.3630974395211
 20
219.8459393155979
 10
559.3392222753892
 20
219.7122136296405
 10
559.2783950929056
 20
219.5889512361719
 10
559.185375281391
 20
219.4857967331352
 10
559.0674411246554
 20
219.4108213876851
 10
558.9338203156997
 20
219.3698916043443
 10
558.7949679409695
 20
219.3662099114192
 10
558.6617484278871
 20
219.4000643809408
 10
558.5445854637242
 20
219.4688060886269
  0
ARC
  5
4802
330
1A
100
AcDbEntity
  8
SEIHIN
100
AcDbCircle
 10
581.808349610435
 20
179.266102271459
 30
0.0
 40
5.999999999999911
100
AcDbArc
 50
295.2328592478924
 51
336.1350192273285
  0
ARC
  5
4803
330
1A
100
AcDbEntity
  8
SEIHIN
100
AcDbCircle
 10
581.8083496104348
 20
179.2661022714591
 30
0.0
 40
6.000000000000005
100
AcDbArc
 50
273.0000000000056
 51
295.2328592478924
  0
LINE
  5
4804
330
1A
100
AcDbEntity
  8
SEIHIN
100
AcDbLine
 10
573.8083496104348
 20
172.8386059612072
 30
0.0
 11
582.1223653478924
 21
173.2743250629317
 31
0.0
  0
LINE
  5
4805
330
1A
100
AcDbEntity
  8
SEIHIN
100
AcDbLine
 10
587.808349610435
 20
209.2485815776312
 30
0.0
 11
587.808349610435
 21
179.2661022714591
 31
0.0
  0
ARC
  5
4806
330
1A
100
AcDbEntity
  8
SEIHIN
100
AcDbCircle
 10
573.808349610435
 20
180.8386059612072
 30
0.0
 40
8.095252170911808
100
AcDbArc
 50
2.759640981372332
 51
64.32350715959824
  0
ARC
  5
4807
330
1A
100
AcDbEntity
  8
SEIHIN
100
AcDbCircle
 10
573.8125469672814
 20
180.8386059612071
 30
0.0
 40
2.069905549287713
100
AcDbArc
 50
269.8838154728597
 51
90.11618452704258
  0
ARC
  5
4808
330
1A
100
AcDbEntity
  8
SEIHIN
100
AcDbCircle
 10
573.8020471669004
 20
180.8386059612072
 30
0.0
 40
2.069910888410928
100
AcDbArc
 50
89.82554612611108
 51
270.1744538737912
  0
ARC
  5
4809
330
1A
100
AcDbEntity
  8
SEIHIN
100
AcDbCircle
 10
581.808349610435
 20
179.2661022714591
 30
0.0
 40
6.0
100
AcDbArc
 50
336.1350192273285
 51
0.0
  0
LINE
  5
480A
330
1A
100
AcDbEntity
  8
SEIHIN
100
AcDbLine
 10
582.8853408423311
 20
180.283858132119
 30
0.0
 11
583.3708195628092
 21
180.283858132119
 31
0.0
  0
ARC
  5
480B
330
1A
100
AcDbEntity
  8
SEIHIN
100
AcDbCircle
 10
582.8926048021785
 20
181.2837585406066
 30
0.0
 40
0.9999267933235491
100
AcDbArc
 50
183.1758693545307
 51
269.5837716267919
  0
ARC
  5
480C
330
1A
100
AcDbEntity
  8
SEIHIN
100
AcDbCircle
 10
583.3632107151623
 20
181.2837448564798
 30
0.0
 40
0.999915674502298
100
AcDbArc
 50
270.4359958300929
 51
359.5640041699104
  0
LWPOLYLINE
  5
480D
330
1A
100
AcDbEntity
  8
SEIHIN
100
AcDbPolyline
 90
        5
 70
   128
 43
0.0
 10
576.7536017813467
 20
189.0287866362926
 10
576.8105556858649
 20
188.7009184472455
 10
576.9723041135532
 20
188.4094487667986
 10
577.21973223037
 20
188.1880575575196
 10
577.3159362152682
 20
188.1344913715085
  0
ARC
  5
480E
330
1A
100
AcDbEntity
  8
SEIHIN
100
AcDbCircle
 10
597.808349610435
 20
209.2485815776312
 30
0.0
 40
10.00000000000004
100
AcDbArc
 50
93.00000000000559
 51
180.0
  0
LWPOLYLINE
  5
480F
330
1A
100
AcDbEntity
  8
SEIHIN
100
AcDbPolyline
 90
        9
 70
   128
 43
0.0
 10
588.2536017813485
 20
219.8459393155979
 10
588.2774769454804
 20
219.7122136296405
 10
588.338304127964
 20
219.5889512361719
 10
588.4313239394786
 20
219.4857967331352
 10
588.5492580962142
 20
219.4108213876851
 10
588.6828789051699
 20
219.3698916043443
 10
588.8217312799001
 20
219.3662099114192
 10
588.9549507929825
 20
219.4000643809408
 10
589.0721137571454
 20
219.4688060886269
  0
LINE
  5
4810
330
1A
100
AcDbEntity
  8
SEIHIN
100
AcDbLine
 10
601.2270372603784
 20
219.4414708654063
 30
0.0
 11
597.2849900480055
 21
219.2348769251769
 31
0.0
  0
LINE
  5
4811
330
1A
100
AcDbEntity
  8
SEIHIN
100
AcDbLine
 10
573.808349610435
 20
252.8386059612071
 30
0.0
 11
546.3896619604911
 21
251.4016534306184
 31
0.0
  0
DIMENSION
  5
4812
330
1A
100
AcDbEntity
  8
SUNPOU
100
AcDbDimension
  2
*D14
 10
538.8083494614233
 20
287.5747877380599
 30
0.0
 11
573.8083496104351
 21
292.5747877380599
 31
0.0
 70
    32
 71
     5
 42
-1.0
  3
STANDARD
100
AcDbAlignedDimension
 13
608.808349759447
 23
243.4228950994476
 33
0.0
 14
538.8083494614233
 24
243.9011433211811
 34
0.0
100
AcDbRotatedDimension
1001
ACAD
1000
DSTYLE
1002
{
1070
   287
1070
     5
1070
   287
1070
     5
1070
   287
1070
     5
1070
   287
1070
     5
1070
    41
1040
7.0
1070
    42
1040
6.0
1070
    43
1040
14.0
1070
    44
1040
3.0
1070
    73
1070
     0
1070
    74
1070
     0
1070
    77
1070
     3
1070
   140
1040
6.0
1070
   141
1040
150.0
1070
   147
1040
2.0
1070
   172
1070
     1
1070
   173
1070
     1
1070
   176
1070
   256
1070
   177
1070
   256
1070
   178
1070
   256
1070
   271
1070
     0
1070
   272
1070
     0
1070
   279
1070
     2
1070
   341
1005
6D
1070
     6
1000
OPEN
1070
     7
1000
OPEN
1070
   371
1070
    -1
1070
   372
1070
    -1
1002
}
  0
DIMENSION
  5
4813
330
1A
100
AcDbEntity
  8
SUNPOU
100
AcDbDimension
  2
*D13
 10
600.8148919205536
 20
276.0347393422748
 30
0.0
 11
573.8094685945083
 21
281.0347393422748
 31
0.0
 70
    32
 71
     5
 42
-1.0
  3
STANDARD
100
AcDbAlignedDimension
 13
546.804045268463
 23
235.973490381037
 33
0.0
 14
600.8148919205536
 24
236.0008768526561
 34
0.0
100
AcDbRotatedDimension
1001
ACAD
1000
DSTYLE
1002
{
1070
   287
1070
     5
1070
   287
1070
     5
1070
   287
1070
     5
1070
   287
1070
     5
1070
    41
1040
7.0
1070
    42
1040
6.0
1070
    43
1040
14.0
1070
    44
1040
3.0
1070
    73
1070
     0
1070
    74
1070
     0
1070
    77
1070
     3
1070
   140
1040
6.0
1070
   141
1040
150.0
1070
   147
1040
2.0
1070
   172
1070
     1
1070
   173
1070
     1
1070
   176
1070
   256
1070
   177
1070
   256
1070
   178
1070
   256
1070
   271
1070
     0
1070
   272
1070
     0
1070
   279
1070
     2
1070
   341
1005
6D
1070
     6
1000
OPEN
1070
     7
1000
OPEN
1070
   371
1070
    -1
1070
   372
1070
    -1
1002
}
  0
DIMENSION
  5
4814
330
1A
100
AcDbEntity
  8
SUNPOU
100
AcDbDimension
  2
*D9
 10
515.2640266711456
 20
252.8488808361537
 30
0.0
 11
510.2640266711456
 21
241.8351899882578
 31
0.0
 70
    32
 71
     5
 42
-1.0
  3
STANDARD
100
AcDbAlignedDimension
 13
541.7071803818811
 23
230.8214991403617
 33
0.0
 14
538.8083494614233
 24
252.8488808361537
 34
0.0
 50
90.0
100
AcDbRotatedDimension
1001
ACAD
1000
DSTYLE
1002
{
1070
   287
1070
     5
1070
   287
1070
     5
1070
   287
1070
     5
1070
   287
1070
     5
1070
    41
1040
7.0
1070
    42
1040
6.0
1070
    43
1040
14.0
1070
    44
1040
3.0
1070
    73
1070
     0
1070
    74
1070
     0
1070
    77
1070
     3
1070
   140
1040
6.0
1070
   141
1040
150.0
1070
   147
1040
2.0
1070
   172
1070
     1
1070
   173
1070
     1
1070
   176
1070
   256
1070
   177
1070
   256
1070
   178
1070
   256
1070
   271
1070
     0
1070
   272
1070
     0
1070
   279
1070
     2
1070
   341
1005
6D
1070
     6
1000
OPEN
1070
     7
1000
OPEN
1070
   371
1070
    -1
1070
   372
1070
    -1
1002
}
  0
LINE
  5
4815
330
1A
100
AcDbEntity
  8
SEIHIN
100
AcDbLine
 10
570.8630974395228
 20
246.1858841893281
 30
0.0
 11
570.8630974395228
 21
237.9261360088327
 31
0.0
  0
ARC
  5
4816
330
1A
100
AcDbEntity
  8
SEIHIN
100
AcDbCircle
 10
564.2534974751707
 20
245.8838645418064
 30
0.0
 40
0.9999218257071117
100
AcDbArc
 50
93.41422938704997
 51
179.5857706129539
  0
ARC
  5
4817
330
1A
100
AcDbEntity
  8
SEIHIN
100
AcDbCircle
 10
558.3632204693558
 20
245.5751869539217
 30
0.0
 40
0.9999090358175794
100
AcDbArc
 50
0.4588582777322049
 51
92.5411417222727
  0
ARC
  5
4818
330
1A
100
AcDbEntity
  8
SEIHIN
100
AcDbCircle
 10
546.8083496104348
 20
241.4098724605859
 30
0.0
 40
4.554747829088228
100
AcDbArc
 50
93.00000000000559
 51
180.0
  0
ARC
  5
4819
330
1A
100
AcDbEntity
  8
SEIHIN
100
AcDbCircle
 10
546.8083496104346
 20
243.4126171525818
 30
0.0
 40
8.000000000000018
100
AcDbArc
 50
93.00000000000559
 51
180.0
  0
LINE
  5
481A
330
1A
100
AcDbEntity
  8
SEIHIN
100
AcDbLine
 10
558.3708195628092
 20
236.933858132119
 30
0.0
 11
546.8083496104348
 21
236.933858132119
 31
0.0
  0
ARC
  5
481B
330
1A
100
AcDbEntity
  8
SEIHIN
100
AcDbCircle
 10
546.8083496104348
 20
230.8386059612072
 30
0.0
 40
6.095252170912266
100
AcDbArc
 50
239.1943346906627
 51
9.850087700507441
  0
LINE
  5
481C
330
1A
100
AcDbEntity
  8
SEIHIN
100
AcDbLine
 10
538.8083496104348
 20
243.4126171525818
 30
0.0
 11
538.8083496104348
 21
227.4305071434429
 31
0.0
  0
LINE
  5
481D
330
1A
100
AcDbEntity
  8
CENTER L
  6
CENTER
 62
     1
 48
5.0
100
AcDbLine
 10
546.8040452684631
 20
225.7242808429246
 30
0.0
 11
546.8040452684631
 21
235.973490381037
 31
0.0
  0
LINE
  5
481E
330
1A
100
AcDbEntity
  8
CENTER L
  6
CENTER
 62
     1
 48
5.0
100
AcDbLine
 10
541.6520400579429
 20
230.8214991403617
 30
0.0
 11
551.9560504789829
 21
230.8214991403617
 31
0.0
  0
CIRCLE
  5
481F
330
1A
100
AcDbEntity
  8
SEIHIN
100
AcDbCircle
 10
546.8018071503998
 20
230.8385960160708
 30
0.0
 40
2.152005733199364
  0
LINE
  5
4820
330
1A
100
AcDbEntity
  8
SEIHIN
100
AcDbLine
 10
550.5120197397268
 20
222.6754074977268
 30
0.0
 11
546.5699725273539
 21
222.8820014379562
 31
0.0
  0
ARC
  5
4821
330
1A
100
AcDbEntity
  8
SEIHIN
100
AcDbCircle
 10
546.8083496104348
 20
227.4305071434429
 30
0.0
 40
4.554747829088188
100
AcDbArc
 50
213.7239551075332
 51
266.9999999999944
  0
LWPOLYLINE
  5
4822
330
1A
100
AcDbEntity
  8
SEIHIN
100
AcDbPolyline
 90
        9
 70
   128
 43
0.0
 10
543.020065311025
 20
224.9017466064547
 10
542.9715769603707
 20
225.0397309821879
 10
542.97259919128
 20
225.1924747678442
 10
543.0230222508355
 20
225.3435784631951
 10
543.1174324132146
 20
225.4768186580651
 10
543.2456932301626
 20
225.5778898761507
 10
543.3940338416223
 20
225.6359404978133
 10
543.5465274988814
 20
225.6447378558505
 10
543.6868015570143
 20
225.6033374124891
  0
LWPOLYLINE
  5
4823
330
1A
100
AcDbEntity
  8
SEIHIN
100
AcDbPolyline
 90
        9
 70
   128
 43
0.0
 10
543.0552352462559
 20
235.6413376418644
 10
542.9373495000269
 20
235.5782130615903
 10
542.8053273894424
 20
235.5493016625237
 10
542.669116810624
 20
235.5567819251739
 10
542.5389812617299
 20
235.6000902100451
 10
542.4247264860284
 20
235.6759632280018
 10
542.3349616069087
 20
235.7786839298489
 10
542.2764504284708
 20
235.9005122872907
 10
542.2536017813455
 20
236.0322685058283
  0
LINE
  5
4824
330
1A
100
AcDbEntity
  8
SEIHIN
100
AcDbLine
 10
542.2536017813454
 20
236.0322685058283
 30
0.0
 11
542.2536017813466
 21
241.4098724605858
 31
0.0
  0
ARC
  5
4825
330
1A
100
AcDbEntity
  8
SEIHIN
100
AcDbCircle
 10
546.8083496104348
 20
230.8386059612072
 30
0.0
 40
6.095252170911818
100
AcDbArc
 50
90.0
 51
128.0059935427838
  0
LWPOLYLINE
  5
4826
330
1A
100
AcDbEntity
  8
SEIHIN
100
AcDbPolyline
 90
        7
 70
   128
 43
0.0
 10
552.8137499967248
 20
231.8813260709939
 10
552.8152599102026
 20
232.2145631616756
 10
552.9271409693057
 20
232.5305206956895
 10
553.134840433871
 20
232.7896949939764
 10
553.4132302468778
 20
232.9653869961466
 10
553.7335493668583
 20
233.0411548307562
 10
553.7914004330039
 20
233.0433537902953
  0
ARC
  5
4827
330
1A
100
AcDbEntity
  8
SEIHIN
100
AcDbCircle
 10
558.363210715162
 20
232.0434670659346
 30
0.0
 40
0.9999156745023431
100
AcDbArc
 50
0.4359958300863395
 51
89.56400416990715
  0
LINE
  5
4828
330
1A
100
AcDbEntity
  8
SEIHIN
100
AcDbLine
 10
553.7914004330039
 20
233.0433537902953
 30
0.0
 11
558.3708195628092
 21
233.0433537902953
 31
0.0
  0
ARC
  5
4829
330
1A
100
AcDbEntity
  8
SEIHIN
100
AcDbCircle
 10
569.863210715162
 20
232.0434670659345
 30
0.0
 40
0.9999156745024358
100
AcDbArc
 50
0.4359958301026234
 51
89.56400416990715
  0
ARC
  5
482A
330
1A
100
AcDbEntity
  8
SEIHIN
100
AcDbCircle
 10
564.2534885057075
 20
232.0434670659346
 30
0.0
 40
0.9999156745023439
100
AcDbArc
 50
90.43599583009285
 51
179.5640041699072
  0
LINE
  5
482B
330
1A
100
AcDbEntity
  8
SEIHIN
100
AcDbLine
 10
564.2458796580604
 20
233.0433537902953
 30
0.0
 11
569.8708195628092
 21
233.0433537902953
 31
0.0
  0
ARC
  5
482C
330
1A
100
AcDbEntity
  8
SEIHIN
100
AcDbCircle
 10
558.363210715162
 20
237.93374485648
 30
0.0
 40
0.9999156745024806
100
AcDbArc
 50
270.4359958300929
 51
359.5640041695619
  0
LINE
  5
482D
330
1A
100
AcDbEntity
  8
SEIHIN
100
AcDbLine
 10
559.3630974395228
 20
245.5831947275731
 30
0.0
 11
559.3630974395228
 21
237.9261360088327
 31
0.0
  0
ARC
  5
482E
330
1A
100
AcDbEntity
  8
SEIHIN
100
AcDbCircle
 10
569.863210715162
 20
237.93374485648
 30
0.0
 40
0.9999156745024806
100
AcDbArc
 50
270.4359958300929
 51
359.5640041695619
  0
ARC
  5
482F
330
1A
100
AcDbEntity
  8
SEIHIN
100
AcDbCircle
 10
564.2534885057075
 20
237.9337448564799
 30
0.0
 40
0.9999156745024351
100
AcDbArc
 50
180.4359958304382
 51
269.5640041699072
  0
LINE
  5
4830
330
1A
100
AcDbEntity
  8
SEIHIN
100
AcDbLine
 10
563.2536017813466
 20
237.9261360088327
 30
0.0
 11
563.2536017813466
 21
245.8910935803197
 31
0.0
  0
LINE
  5
4831
330
1A
100
AcDbEntity
  8
SEIHIN
100
AcDbLine
 10
569.8708195628092
 20
236.933858132119
 30
0.0
 11
564.2458796580604
 21
236.933858132119
 31
0.0
  0
LINE
  5
4832
330
1A
100
AcDbEntity
  8
SEIHIN
100
AcDbLine
 10
546.5699725273539
 20
245.9583781660726
 30
0.0
 11
558.3188877512728
 21
246.5741127219428
 31
0.0
  0
ARC
  5
4833
330
1A
100
AcDbEntity
  8
SEIHIN
100
AcDbCircle
 10
569.8632204693558
 20
246.1778764156766
 30
0.0
 40
0.9999090358176249
100
AcDbArc
 50
0.4588582777322049
 51
92.5411417222727
  0
LINE
  5
4834
330
1A
100
AcDbEntity
  8
SEIHIN
100
AcDbLine
 10
564.1939478465238
 20
246.8820115746894
 30
0.0
 11
569.8188877512728
 21
247.1768021836979
 31
0.0
  0
ARC
  5
4835
330
1A
100
AcDbEntity
  8
SEIHIN
100
AcDbCircle
 10
600.808349610435
 20
243.4126171525818
 30
0.0
 40
8.000000000000018
100
AcDbArc
 50
0.0
 51
86.99999999999442
  0
ARC
  5
4836
330
1A
100
AcDbEntity
  8
SEIHIN
100
AcDbCircle
 10
600.8083496104348
 20
241.4098724605859
 30
0.0
 40
4.554747829088228
100
AcDbArc
 50
0.0
 51
86.99999999999442
  0
ARC
  5
4837
330
1A
100
AcDbEntity
  8
SEIHIN
100
AcDbCircle
 10
589.2534787515137
 20
245.5751869539217
 30
0.0
 40
0.9999090358175794
100
AcDbArc
 50
87.4588582777273
 51
179.5411417222678
  0
LINE
  5
4838
330
1A
100
AcDbEntity
  8
SEIHIN
100
AcDbLine
 10
576.7536017813468
 20
246.1858841893281
 30
0.0
 11
576.7536017813468
 21
237.9261360088327
 31
0.0
  0
ARC
  5
4839
330
1A
100
AcDbEntity
  8
SEIHIN
100
AcDbCircle
 10
583.3632017456989
 20
245.8838645418064
 30
0.0
 40
0.9999218257071117
100
AcDbArc
 50
0.4142293870460703
 51
86.58577061295003
  0
LINE
  5
483A
330
1A
100
AcDbEntity
  8
SEIHIN
100
AcDbLine
 10
593.8252987878657
 20
233.0433537902953
 30
0.0
 11
589.2458796580604
 21
233.0433537902953
 31
0.0
  0
LINE
  5
483B
330
1A
100
AcDbEntity
  8
SEIHIN
100
AcDbLine
 10
589.2458796580604
 20
236.933858132119
 30
0.0
 11
600.8083496104348
 21
236.933858132119
 31
0.0
  0
LINE
  5
483C
330
1A
100
AcDbEntity
  8
SEIHIN
100
AcDbLine
 10
583.3708195628092
 20
233.0433537902953
 30
0.0
 11
577.7458796580604
 21
233.0433537902953
 31
0.0
  0
ARC
  5
483D
330
1A
100
AcDbEntity
  8
SEIHIN
100
AcDbCircle
 10
577.7534885057075
 20
232.0434670659345
 30
0.0
 40
0.9999156745024358
100
AcDbArc
 50
90.43599583009285
 51
179.5640041699006
  0
ARC
  5
483E
330
1A
100
AcDbEntity
  8
SEIHIN
100
AcDbCircle
 10
589.2534885057075
 20
232.0434670659346
 30
0.0
 40
0.9999156745023431
100
AcDbArc
 50
90.43599583009285
 51
179.5640041699169
  0
ARC
  5
483F
330
1A
100
AcDbEntity
  8
SEIHIN
100
AcDbCircle
 10
583.363210715162
 20
232.0434670659346
 30
0.0
 40
0.9999156745023439
100
AcDbArc
 50
0.4359958300928529
 51
89.56400416990715
  0
LINE
  5
4840
330
1A
100
AcDbEntity
  8
SEIHIN
100
AcDbLine
 10
577.7458796580604
 20
236.933858132119
 30
0.0
 11
583.3708195628092
 21
236.933858132119
 31
0.0
  0
ARC
  5
4841
330
1A
100
AcDbEntity
  8
SEIHIN
100
AcDbCircle
 10
577.7534885057075
 20
237.93374485648
 30
0.0
 40
0.9999156745024806
100
AcDbArc
 50
180.4359958304382
 51
269.5640041699072
  0
ARC
  5
4842
330
1A
100
AcDbEntity
  8
SEIHIN
100
AcDbCircle
 10
589.2534885057075
 20
237.93374485648
 30
0.0
 40
0.9999156745024806
100
AcDbArc
 50
180.4359958304382
 51
269.5640041699072
  0
LINE
  5
4843
330
1A
100
AcDbEntity
  8
SEIHIN
100
AcDbLine
 10
584.363097439523
 20
237.9261360088327
 30
0.0
 11
584.363097439523
 21
245.8910935803197
 31
0.0
  0
LINE
  5
4844
330
1A
100
AcDbEntity
  8
SEIHIN
100
AcDbLine
 10
588.2536017813468
 20
245.5831947275731
 30
0.0
 11
588.2536017813468
 21
237.9261360088327
 31
0.0
  0
ARC
  5
4845
330
1A
100
AcDbEntity
  8
SEIHIN
100
AcDbCircle
 10
583.363210715162
 20
237.9337448564799
 30
0.0
 40
0.9999156745024351
100
AcDbArc
 50
270.4359958300929
 51
359.5640041695619
  0
LINE
  5
4846
330
1A
100
AcDbEntity
  8
SEIHIN
100
AcDbLine
 10
608.8083496104348
 20
243.4126171525818
 30
0.0
 11
608.8083496104348
 21
227.4305071434429
 31
0.0
  0
LINE
  5
4847
330
1A
100
AcDbEntity
  8
CENTER L
  6
CENTER
 62
     1
 48
5.0
100
AcDbLine
 10
600.8148919205537
 20
225.6968664315781
 30
0.0
 11
600.8148919205537
 21
236.0008768526561
 31
0.0
  0
ARC
  5
4848
330
1A
100
AcDbEntity
  8
SEIHIN
100
AcDbCircle
 10
600.8083496104348
 20
230.8386059612072
 30
0.0
 40
6.095252170912266
100
AcDbArc
 50
170.1499122994926
 51
300.8056653093373
  0
LINE
  5
4849
330
1A
100
AcDbEntity
  8
SEIHIN
100
AcDbLine
 10
597.1046794811427
 20
222.6754074977268
 30
0.0
 11
601.0467266935157
 21
222.8820014379562
 31
0.0
  0
CIRCLE
  5
484A
330
1A
100
AcDbEntity
  8
SEIHIN
100
AcDbCircle
 10
600.8148920704698
 20
230.8385960160708
 30
0.0
 40
2.152005733199364
  0
LINE
  5
484B
330
1A
100
AcDbEntity
  8
CENTER L
  6
CENTER
 62
     1
 48
5.0
100
AcDbLine
 10
595.6628867100335
 20
230.8488856119808
 30
0.0
 11
605.9668971310734
 21
230.8488856119808
 31
0.0
  0
LWPOLYLINE
  5
484C
330
1A
100
AcDbEntity
  8
SEIHIN
100
AcDbPolyline
 90
        7
 70
   128
 43
0.0
 10
594.8029492241448
 20
231.8813260709939
 10
594.801439310667
 20
232.2145631616756
 10
594.6895582515639
 20
232.5305206956895
 10
594.4818587869986
 20
232.7896949939764
 10
594.2034689739918
 20
232.9653869961466
 10
593.8831498540113
 20
233.0411548307562
 10
593.8252987878657
 20
233.0433537902953
  0
ARC
  5
484D
330
1A
100
AcDbEntity
  8
SEIHIN
100
AcDbCircle
 10
600.8083496104348
 20
227.4305071434429
 30
0.0
 40
4.554747829088188
100
AcDbArc
 50
273.0000000000056
 51
326.2760448924668
  0
LWPOLYLINE
  5
484E
330
1A
100
AcDbEntity
  8
SEIHIN
100
AcDbPolyline
 90
        9
 70
   128
 43
0.0
 10
604.5966339098446
 20
224.9017466064547
 10
604.6451222604989
 20
225.0397309821879
 10
604.6441000295896
 20
225.1924747678442
 10
604.593676970034
 20
225.3435784631951
 10
604.499266807655
 20
225.4768186580651
 10
604.371005990707
 20
225.5778898761507
 10
604.2226653792473
 20
225.6359404978133
 10
604.0701717219882
 20
225.6447378558505
 10
603.9298976638553
 20
225.6033374124891
  0
ARC
  5
484F
330
1A
100
AcDbEntity
  8
SEIHIN
100
AcDbCircle
 10
600.8083496104348
 20
230.8386059612072
 30
0.0
 40
6.095252170911818
100
AcDbArc
 50
51.99400645721622
 51
90.0
  0
LWPOLYLINE
  5
4850
330
1A
100
AcDbEntity
  8
SEIHIN
100
AcDbPolyline
 90
        9
 70
   128
 43
0.0
 10
604.5614639746137
 20
235.6413376418644
 10
604.6793497208427
 20
235.5782130615903
 10
604.8113718314272
 20
235.5493016625237
 10
604.9475824102456
 20
235.5567819251739
 10
605.0777179591397
 20
235.6000902100451
 10
605.1919727348412
 20
235.6759632280018
 10
605.2817376139609
 20
235.7786839298489
 10
605.3402487923988
 20
235.9005122872907
 10
605.363097439524
 20
236.0322685058283
  0
LINE
  5
4851
330
1A
100
AcDbEntity
  8
SEIHIN
100
AcDbLine
 10
605.3630974395242
 20
236.0322685058283
 30
0.0
 11
605.363097439523
 21
241.4098724605858
 31
0.0
  0
LINE
  5
4852
330
1A
100
AcDbEntity
  8
SEIHIN
100
AcDbLine
 10
601.0467266935157
 20
245.9583781660726
 30
0.0
 11
589.2978114695968
 21
246.5741127219428
 31
0.0
  0
LINE
  5
4853
330
1A
100
AcDbEntity
  8
SEIHIN
100
AcDbLine
 10
573.8083496104346
 20
252.8386059612071
 30
0.0
 11
601.2270372603784
 21
251.4016534306184
 31
0.0
  0
LINE
  5
4854
330
1A
100
AcDbEntity
  8
SEIHIN
100
AcDbLine
 10
583.4227513743458
 20
246.8820115746894
 30
0.0
 11
577.7978114695968
 21
247.1768021836979
 31
0.0
  0
ARC
  5
4855
330
1A
100
AcDbEntity
  8
SEIHIN
100
AcDbCircle
 10
577.7534787515137
 20
246.1778764156766
 30
0.0
 40
0.9999090358176249
100
AcDbArc
 50
87.4588582777273
 51
179.5411417222678
  0
LINE
  5
4BE0
330
1A
100
AcDbEntity
  8
SEIHIN
100
AcDbLine
 10
327.2249326972713
 20
200.5379977811622
 30
0.0
 11
327.27208352878
 21
200.5983508454933
 31
0.0
  0
ARC
  5
4BE2
330
1A
100
AcDbEntity
  8
SEIHIN
100
AcDbCircle
 10
327.1932810914075
 20
200.6599152496906
 30
0.0
 40
0.1
100
AcDbArc
 50
322.0012675575042
 51
93.09215253814361
  0
LINE
  5
4BF0
330
1A
100
AcDbEntity
  8
SEIHIN
100
AcDbLine
 10
364.1472828384206
 20
252.8386059618327
 30
0.0
 11
364.1472828384203
 21
176.8386059618329
 31
0.0
  0
LWPOLYLINE
  5
4BF1
330
1A
100
AcDbEntity
  8
SEIHIN
100
AcDbPolyline
 90
        4
 70
   128
 43
0.0
 10
354.5830023284716
 20
173.2743251538609
 10
354.6348881717486
 20
173.4095308399533
 10
354.6848797049088
 20
173.7071740842198
 10
354.7315883259935
 20
174.158999643359
  0
LINE
  5
4BF2
330
1A
100
AcDbEntity
  8
SEIHIN
100
AcDbLine
 10
354.1472830619377
 20
172.8386077499722
 30
0.0
 11
356.1472824584407
 21
172.8386077499722
 31
0.0
  0
LINE
  5
4BF3
330
1A
100
AcDbEntity
  8
SEIHIN
100
AcDbLine
 10
354.5830023284716
 20
173.2743251538609
 30
0.0
 11
354.1472830619377
 21
172.8386077499722
 31
0.0
  0
LINE
  5
4BF4
330
1A
100
AcDbEntity
  8
SEIHIN
100
AcDbLine
 10
356.1472828384203
 20
173.8386059618329
 30
0.0
 11
356.1472828384203
 21
173.2743250635572
 31
0.0
  0
LINE
  5
4BF5
330
1A
100
AcDbEntity
  8
SEIHIN
100
AcDbLine
 10
356.1472824584407
 20
172.8386077499722
 30
0.0
 11
356.1472828384203
 21
173.2743250635572
 31
0.0
  0
LWPOLYLINE
  5
4BF6
330
1A
100
AcDbEntity
  8
SEIHIN
100
AcDbPolyline
 90
        8
 70
   128
 43
0.0
 10
357.7356940876407
 20
179.2661044216488
 10
357.6689201216859
 20
178.3964055991505
 10
357.4700091775221
 20
177.5450724578236
 10
357.1431624512834
 20
176.7300981498097
 10
356.6952833715541
 20
175.9686860657071
 10
356.1358327787084
 20
175.2769220090245
 10
355.4766258965892
 20
174.6694165683125
 10
354.7315883259935
 20
174.158999643359
  0
LWPOLYLINE
  5
4BF7
330
1A
100
AcDbEntity
  8
SEIHIN
100
AcDbPolyline
 90
        8
 70
   128
 43
0.0
 10
364.1472828384203
 20
176.8386084056233
 10
362.691291658738
 20
176.2926075077389
 10
361.317697148369
 20
175.7775116181706
 10
360.0407733391685
 20
175.2986628032063
 10
358.8737889002723
 20
174.8610455012654
 10
357.8288701172633
 20
174.469204566512
 10
356.9168757457001
 20
174.1272005653714
 10
356.1472824584407
 20
173.8386023259495
  0
LINE
  5
4BF8
330
1A
100
AcDbEntity
  8
SEIHIN
100
AcDbLine
 10
357.7356940876407
 20
209.2485818481778
 30
0.0
 11
357.7356940876407
 21
179.2661044216488
 31
0.0
  0
LINE
  5
4BF9
330
1A
100
AcDbEntity
  8
SEIHIN
100
AcDbLine
 10
354.1472827200896
 20
203.8225567936083
 30
0.0
 11
354.1472830619377
 21
172.8386077499722
 31
0.0
  0
LWPOLYLINE
  5
4BFA
330
1A
100
AcDbEntity
  8
SEIHIN
100
AcDbPolyline
 90
       11
 70
   128
 43
0.0
 10
358.381746969716
 20
219.2348781442975
 10
358.2293565194768
 20
218.8549953914021
 10
358.1020875643653
 20
218.0980797326897
 10
358.0478738803131
 20
217.6348734116887
 10
357.9999405700428
 20
217.1417306578492
 10
357.9582876335544
 20
216.635836235318
 10
357.9229150708479
 20
216.1321285581921
 10
357.8406690429611
 20
214.5726996875142
 10
357.7820502031309
 20
212.855288705859
 10
357.7470585513574
 20
211.0569569683407
 10
357.7356940876407
 20
209.2485818481778
  0
LINE
  5
4BFB
330
1A
100
AcDbEntity
  8
SEIHIN
100
AcDbLine
 10
358.5883413251204
 20
219.4414715683793
 30
0.0
 11
358.381746969716
 21
219.2348781442975
 31
0.0
  0
LWPOLYLINE
  5
4BFC
330
1A
100
AcDbEntity
  8
SEIHIN
100
AcDbPolyline
 90
        9
 70
   128
 43
0.0
 10
358.8362575318379
 20
227.4305074876878
 10
358.8325029048783
 20
226.2517753458354
 10
358.8209670778078
 20
225.0072750664089
 10
358.8016500506265
 20
223.7392886942957
 10
358.7745513576729
 20
222.504172421131
 10
358.7396709989471
 20
221.3720250344609
 10
358.6970089744491
 20
220.4246241069172
 10
358.6465657498402
 20
219.7511698520516
 10
358.5883413251204
 20
219.4414715683793
  0
LINE
  5
4BFD
330
1A
100
AcDbEntity
  8
SEIHIN
100
AcDbLine
 10
358.8362575318379
 20
243.4126175409887
 30
0.0
 11
358.8362575318379
 21
227.4305074876878
 31
0.0
  0
LINE
  5
4BFE
330
1A
100
AcDbEntity
  8
SEIHIN
100
AcDbLine
 10
354.1472828384203
 20
217.8386059618329
 30
0.0
 11
354.1472828384203
 21
203.8230432723192
 31
0.0
  0
LINE
  5
4BFF
330
1A
100
AcDbEntity
  8
SEIHIN
100
AcDbLine
 10
354.2886614202055
 20
231.3386059618329
 30
0.0
 11
354.1472828384203
 21
217.8386059618329
 31
0.0
  0
LINE
  5
4C00
330
1A
100
AcDbEntity
  8
SEIHIN
100
AcDbLine
 10
354.2886614202055
 20
249.9758786755515
 30
0.0
 11
354.2886614202055
 21
231.3386059618329
 31
0.0
  0
LWPOLYLINE
  5
4C01
330
1A
100
AcDbEntity
  8
SEIHIN
100
AcDbPolyline
 90
        9
 70
   128
 43
0.0
 10
358.5883413251204
 20
251.4016534602973
 10
358.646563887195
 20
251.0919733374152
 10
358.6970057148201
 20
250.4185498161945
 10
358.7396668079955
 20
249.4711842789087
 10
358.77454670106
 20
248.3390625036094
 10
358.8016458596749
 20
247.1039527497027
 10
358.8209638181788
 20
245.8359496137831
 10
358.8325010422332
 20
244.5914102188084
 10
358.8362575318379
 20
243.4126175409887
  0
LINE
  5
4C02
330
1A
100
AcDbEntity
  8
SEIHIN
100
AcDbLine
 10
357.151388823585
 20
252.8386059618327
 30
0.0
 11
354.2886614202055
 21
249.9758786755515
 31
0.0
  0
LINE
  5
4C03
330
1A
100
AcDbEntity
  8
SEIHIN
100
AcDbLine
 10
357.1491094115836
 20
252.8386059618327
 30
0.0
 11
357.0726652592896
 21
252.7621619763568
 31
0.0
  0
LINE
  5
4C04
330
1A
100
AcDbEntity
  8
SEIHIN
100
AcDbLine
 10
357.1491094115836
 20
252.8386059618327
 30
0.0
 11
357.151388823585
 21
252.8386059618327
 31
0.0
  0
ARC
  5
4C05
330
1A
100
AcDbEntity
  8
SEIHIN
100
AcDbCircle
 10
354.9323859677859
 20
222.8386059618329
 30
0.0
 40
29.99999999999998
100
AcDbArc
 50
85.90481923547212
 51
85.9088921678365
  0
LINE
  5
4C06
330
1A
100
AcDbEntity
  8
SEIHIN
100
AcDbLine
 10
357.0747924021907
 20
252.7620097566858
 30
0.0
 11
357.151388823585
 21
252.8386059618327
 31
0.0
  0
LINE
  5
4C07
330
1A
100
AcDbEntity
  8
SEIHIN
100
AcDbLine
 10
364.1472828384203
 20
252.8386059618327
 30
0.0
 11
357.151388823585
 21
252.8386059618327
 31
0.0
  0
LINE
  5
4C08
330
1A
100
AcDbEntity
  8
SEIHIN
100
AcDbLine
 10
357.151388823585
 20
252.8386059618327
 30
0.0
 11
358.5883413251204
 21
251.4016534602973
 31
0.0
  0
CIRCLE
  5
4E1D
102
{ACAD_REACTORS
330
4E20
102
}
330
1A
100
AcDbEntity
  8
KEIJYO
 62
   251
100
AcDbCircle
 10
234.3643416559008
 20
235.8669377339318
 30
0.0
 40
0.7788173943287319
  0
LINE
  5
4E1E
102
{ACAD_REACTORS
330
4E20
102
}
330
1A
100
AcDbEntity
  8
KEIJYO
 62
   251
100
AcDbLine
 10
233.585524261572
 20
235.8669377339318
 30
0.0
 11
235.1431590502297
 21
235.8669377339318
 31
0.0
  0
LINE
  5
4E1F
102
{ACAD_REACTORS
330
4E20
102
}
330
1A
100
AcDbEntity
  8
KEIJYO
 62
   251
100
AcDbLine
 10
234.3643416559008
 20
236.6457551282606
 30
0.0
 11
234.3643416559008
 21
235.0881203396031
 31
0.0
  0
VIEWPORT
  5
22
102
{ACAD_XDICTIONARY
360
5240
102
}
330
17
100
AcDbEntity
 67
     1
  8
0
100
AcDbViewport
 10
313.6808219178082
 20
148.5
 30
0.0
 40
627.3616438356165
 41
297.0
 68
     2
 69
     1
 12
313.6808219178082
 22
148.5
 13
0.0
 23
0.0
 14
1.0
 24
1.0
 15
10.0
 25
10.0
 16
0.0
 26
0.0
 36
1.0
 17
0.0
 27
0.0
 37
0.0
 42
50.0
 43
0.0
 44
0.0
 45
297.0
 50
0.0
 51
0.0
 72
   100
 90
    32896
  1

281
     0
 71
     0
 74
     0
110
0.0
120
0.0
130
0.0
111
1.0
121
0.0
131
0.0
112
0.0
122
1.0
132
0.0
 79
     0
146
0.0
  0
VIEWPORT
  5
64
102
{ACAD_XDICTIONARY
360
5242
102
}
330
17
100
AcDbEntity
 67
     1
  8
VIEWPORT
100
AcDbViewport
 10
210.0
 20
148.5
 30
0.0
 40
420.0
 41
297.0
 68
     1
 69
     2
 12
420.0
 22
297.0
 13
0.0
 23
0.0
 14
10.0
 24
10.0
 15
0.0
 25
0.0
 16
0.0
 26
0.0
 36
1.0
 17
0.0
 27
0.0
 37
0.0
 42
50.0
 43
0.0
 44
0.0
 45
605.8799999999998
 50
0.0
 51
0.0
 72
   100
 90
    32896
  1

281
     0
 71
     0
 74
     0
110
0.0
120
0.0
130
0.0
111
1.0
121
0.0
131
0.0
112
0.0
122
1.0
132
0.0
 79
     0
146
0.0
  0
ENDSEC
  0
SECTION
  2
OBJECTS
  0
DICTIONARY
  5
C
330
0
100
AcDbDictionary
281
     1
  3
ACAD_GROUP
350
D
  3
ACAD_LAYOUT
350
85F
  3
ACAD_MLINESTYLE
350
E
  3
ACAD_PLOTSETTINGS
350
860
  3
ACAD_PLOTSTYLENAME
350
85D
  0
DICTIONARY
  5
4C3C
330
2
100
AcDbDictionary
280
     1
281
     1
  3
ACAD_LAYERFILTERS
360
4C3D
  0
DICTIONARY
  5
5240
330
22
100
AcDbDictionary
281
     1
  3
ACAD_XREC_ROUNDTRIP
350
5241
  0
DICTIONARY
  5
5242
330
64
100
AcDbDictionary
281
     1
  3
ACAD_XREC_ROUNDTRIP
350
5243
  0
DICTIONARY
  5
D
102
{ACAD_REACTORS
330
C
102
}
330
C
100
AcDbDictionary
281
     1
  3
*A1
350
2006
  3
*A2
350
356D
  3
*A3
350
35A3
  3
*A4
350
4E20
  0
DICTIONARY
  5
85F
102
{ACAD_REACTORS
330
C
102
}
330
C
100
AcDbDictionary
281
     1
  3
Model
350
3CBE
  3
ﾚｲｱｳﾄ1
350
3CBF
  0
DICTIONARY
  5
E
102
{ACAD_REACTORS
330
C
102
}
330
C
100
AcDbDictionary
281
     1
  3
STANDARD
350
13
  0
DICTIONARY
  5
860
102
{ACAD_REACTORS
330
C
102
}
330
C
100
AcDbDictionary
281
     1
  0
ACDBDICTIONARYWDFLT
  5
85D
102
{ACAD_REACTORS
330
C
102
}
330
C
100
AcDbDictionary
281
     1
  3
Normal
350
85E
100
AcDbDictionaryWithDefault
340
85E
1001
ACAD
1000
TREAT_AS_HARD
1070
     0
1000
TREAT_AS_HARD
1070
     0
1000
TREAT_AS_HARD
1070
     0
1000
TREAT_AS_HARD
1070
     0
1000
TREAT_AS_HARD
1070
     0
1000
TREAT_AS_HARD
1070
     0
1000
TREAT_AS_HARD
1070
     0
1000
TREAT_AS_HARD
1070
     0
1000
TREAT_AS_HARD
1070
     0
1000
TREAT_AS_HARD
1070
     0
  0
DICTIONARY
  5
4C3D
102
{ACAD_REACTORS
330
4C3C
102
}
330
4C3C
100
AcDbDictionary
280
     1
281
     1
  3
50
360
4C3E
  0
XRECORD
  5
5241
102
{ACAD_REACTORS
330
5240
102
}
330
5240
100
AcDbXrecord
280
     1
102
VIEW
281
     0
  0
XRECORD
  5
5243
102
{ACAD_REACTORS
330
5242
102
}
330
5242
100
AcDbXrecord
280
     1
102
VIEW
281
     0
  0
GROUP
  5
2006
102
{ACAD_REACTORS
330
D
102
}
330
D
100
AcDbGroup
300

 70
     1
 71
     1
  0
GROUP
  5
356D
102
{ACAD_REACTORS
330
D
102
}
330
D
100
AcDbGroup
300

 70
     1
 71
     1
  0
GROUP
  5
35A3
102
{ACAD_REACTORS
330
D
102
}
330
D
100
AcDbGroup
300

 70
     1
 71
     1
  0
GROUP
  5
4E20
102
{ACAD_REACTORS
330
D
102
}
330
D
100
AcDbGroup
300

 70
     1
 71
     1
340
4E1F
340
4E1D
340
4E1E
  0
LAYOUT
  5
3CBE
102
{ACAD_REACTORS
330
85F
102
}
330
85F
100
AcDbPlotSettings
  1

  2
Acrobat Distiller
  4
A3
  6

 40
3.174999952316284
 41
3.174999952316284
 42
3.17498779296875
 43
3.17498779296875
 44
297.0318298339844
 45
420.1583251953125
 46
5.0
 47
5.0
 48
0.0
 49
0.0
140
0.0
141
0.0
142
1.0
143
2.0
 70
 11952
 72
     1
 73
     1
 74
     2
  7
print.ctb
 75
    17
147
0.5
148
0.0
149
0.0
100
AcDbLayout
  1
Model
 70
     1
 71
     0
 10
0.0
 20
0.0
 11
12.0
 21
9.0
 12
0.0
 22
0.0
 32
0.0
 14
0.0
 24
0.0
 34
0.0
 15
0.0
 25
0.0
 35
0.0
146
0.0
 13
0.0
 23
0.0
 33
0.0
 16
1.0
 26
0.0
 36
0.0
 17
0.0
 27
1.0
 37
0.0
 76
     0
330
1A
  0
LAYOUT
  5
3CBF
102
{ACAD_REACTORS
330
85F
102
}
330
85F
100
AcDbPlotSettings
  1

  2
LP-9200C(CC9E34)
  4

  6

 40
0.0
 41
0.0
 42
0.0
 43
0.0
 44
0.0
 45
0.0
 46
0.0
 47
0.0
 48
0.0
 49
0.0
140
0.0
141
0.0
142
1.0
143
1.0
 70
   688
 72
     0
 73
     0
 74
     5
  7
print.ctb
 75
    16
147
1.0
148
0.0
149
0.0
100
AcDbLayout
  1
ﾚｲｱｳﾄ1
 70
     1
 71
     1
 10
0.0
 20
0.0
 11
420.0
 21
297.0
 12
0.0
 22
0.0
 32
0.0
 14
0.0
 24
0.0
 34
0.0
 15
420.0
 25
297.0
 35
0.0
146
0.0
 13
0.0
 23
0.0
 33
0.0
 16
1.0
 26
0.0
 36
0.0
 17
0.0
 27
1.0
 37
0.0
 76
     0
330
17
331
64
  0
MLINESTYLE
  5
13
102
{ACAD_REACTORS
330
E
102
}
330
E
100
AcDbMlineStyle
  2
STANDARD
 70
     0
  3

 62
     0
 51
90.0
 52
90.0
 71
     2
 49
0.5
 62
   256
  6
BYLAYER
 49
-0.5
 62
   256
  6
BYLAYER
  0
ACDBPLACEHOLDER
  5
85E
102
{ACAD_REACTORS
330
85D
102
}
330
85D
  0
XRECORD
  5
4C3E
102
{ACAD_REACTORS
330
4C3D
102
}
330
4C3D
100
AcDbXrecord
280
     1
  1
50
  1
*-50
  1
*
  1
*
 70
     0
  1
*
  1
*
  0
ENDSEC
  0
EOF
