  0
SECTION
  2
HEADER
  9
$ACADVER
  1
AC1015
  9
$ACADMAINTVER
 70
     6
  9
$DWGCODEPAGE
  3
ANSI_932
  9
$INSBASE
 10
0.0
 20
0.0
 30
0.0
  9
$EXTMIN
 10
0.0000000135560185
 20
-0.0000001317113174
 30
0.0
  9
$EXTMAX
 10
797.600000013556
 20
551.5999998682888
 30
0.0
  9
$LIMMIN
 10
0.0
 20
0.0
  9
$LIMMAX
 10
840.0
 20
594.0
  9
$ORTHOMODE
 70
     0
  9
$REGENMODE
 70
     1
  9
$FILLMODE
 70
     1
  9
$QTEXTMODE
 70
     0
  9
$MIRRTEXT
 70
     1
  9
$LTSCALE
 40
2.0
  9
$ATTMODE
 70
     1
  9
$TEXTSIZE
 40
6.0
  9
$TRACEWID
 40
1.0
  9
$TEXTSTYLE
  7
STANDARD
  9
$CLAYER
  8
0
  9
$CELTYPE
  6
BYLAYER
  9
$CECOLOR
 62
     4
  9
$CELTSCALE
 40
1.0
  9
$DISPSILH
 70
     0
  9
$DIMSCALE
 40
1.0
  9
$DIMASZ
 40
7.0
  9
$DIMEXO
 40
6.0
  9
$DIMDLI
 40
14.0
  9
$DIMRND
 40
0.0
  9
$DIMDLE
 40
0.0
  9
$DIMEXE
 40
3.0
  9
$DIMTP
 40
0.0
  9
$DIMTM
 40
0.0
  9
$DIMTXT
 40
6.0
  9
$DIMCEN
 40
150.0
  9
$DIMTSZ
 40
0.0
  9
$DIMTOL
 70
     0
  9
$DIMLIM
 70
     0
  9
$DIMTIH
 70
     0
  9
$DIMTOH
 70
     0
  9
$DIMSE1
 70
     0
  9
$DIMSE2
 70
     0
  9
$DIMTAD
 70
     3
  9
$DIMZIN
 70
     0
  9
$DIMBLK
  1

  9
$DIMASO
 70
     1
  9
$DIMSHO
 70
     1
  9
$DIMPOST
  1

  9
$DIMAPOST
  1

  9
$DIMALT
 70
     0
  9
$DIMALTD
 70
     2
  9
$DIMALTF
 40
25.4
  9
$DIMLFAC
 40
1.0
  9
$DIMTOFL
 70
     1
  9
$DIMTVP
 40
0.0
  9
$DIMTIX
 70
     0
  9
$DIMSOXD
 70
     0
  9
$DIMSAH
 70
     1
  9
$DIMBLK1
  1
OPEN
  9
$DIMBLK2
  1
OPEN
  9
$DIMSTYLE
  2
STANDARD
  9
$DIMCLRD
 70
   256
  9
$DIMCLRE
 70
   256
  9
$DIMCLRT
 70
   256
  9
$DIMTFAC
 40
1.0
  9
$DIMGAP
 40
2.0
  9
$DIMJUST
 70
     0
  9
$DIMSD1
 70
     0
  9
$DIMSD2
 70
     0
  9
$DIMTOLJ
 70
     1
  9
$DIMTZIN
 70
     0
  9
$DIMALTZ
 70
     0
  9
$DIMALTTZ
 70
     0
  9
$DIMUPT
 70
     0
  9
$DIMDEC
 70
     0
  9
$DIMTDEC
 70
     0
  9
$DIMALTU
 70
     2
  9
$DIMALTTD
 70
     2
  9
$DIMTXSTY
  7
STANDARD
  9
$DIMAUNIT
 70
     0
  9
$DIMADEC
 70
     0
  9
$DIMALTRND
 40
0.0
  9
$DIMAZIN
 70
     0
  9
$DIMDSEP
 70
    46
  9
$DIMATFIT
 70
     3
  9
$DIMFRAC
 70
     0
  9
$DIMLDRBLK
  1
OPEN
  9
$DIMLUNIT
 70
     2
  9
$DIMLWD
 70
    -1
  9
$DIMLWE
 70
    -1
  9
$DIMTMOVE
 70
     0
  9
$LUNITS
 70
     2
  9
$LUPREC
 70
     4
  9
$SKETCHINC
 40
1.0
  9
$FILLETRAD
 40
10.0
  9
$AUNITS
 70
     0
  9
$AUPREC
 70
     0
  9
$MENU
  1
.
  9
$ELEVATION
 40
0.0
  9
$PELEVATION
 40
0.0
  9
$THICKNESS
 40
0.0
  9
$LIMCHECK
 70
     0
  9
$CHAMFERA
 40
0.0
  9
$CHAMFERB
 40
0.0
  9
$CHAMFERC
 40
40.0
  9
$CHAMFERD
 40
0.0
  9
$SKPOLY
 70
     0
  9
$TDCREATE
 40
2451030.614786227
  9
$TDUCREATE
 40
2451030.239786227
  9
$TDUPDATE
 40
2455609.399191493
  9
$TDUUPDATE
 40
2455609.024191493
  9
$TDINDWG
 40
0.3380731597
  9
$TDUSRTIMER
 40
0.3380731597
  9
$USRTIMER
 70
     1
  9
$ANGBASE
 50
0.0
  9
$ANGDIR
 70
     0
  9
$PDMODE
 70
     0
  9
$PDSIZE
 40
0.0
  9
$PLINEWID
 40
0.0
  9
$SPLFRAME
 70
     0
  9
$SPLINETYPE
 70
     6
  9
$SPLINESEGS
 70
     8
  9
$HANDSEED
  5
4B80
  9
$SURFTAB1
 70
     6
  9
$SURFTAB2
 70
     6
  9
$SURFTYPE
 70
     6
  9
$SURFU
 70
     6
  9
$SURFV
 70
     6
  9
$UCSBASE
  2

  9
$UCSNAME
  2

  9
$UCSORG
 10
0.0
 20
0.0
 30
0.0
  9
$UCSXDIR
 10
1.0
 20
0.0
 30
0.0
  9
$UCSYDIR
 10
0.0
 20
1.0
 30
0.0
  9
$UCSORTHOREF
  2

  9
$UCSORTHOVIEW
 70
     0
  9
$UCSORGTOP
 10
0.0
 20
0.0
 30
0.0
  9
$UCSORGBOTTOM
 10
0.0
 20
0.0
 30
0.0
  9
$UCSORGLEFT
 10
0.0
 20
0.0
 30
0.0
  9
$UCSORGRIGHT
 10
0.0
 20
0.0
 30
0.0
  9
$UCSORGFRONT
 10
0.0
 20
0.0
 30
0.0
  9
$UCSORGBACK
 10
0.0
 20
0.0
 30
0.0
  9
$PUCSBASE
  2

  9
$PUCSNAME
  2

  9
$PUCSORG
 10
0.0
 20
0.0
 30
0.0
  9
$PUCSXDIR
 10
1.0
 20
0.0
 30
0.0
  9
$PUCSYDIR
 10
0.0
 20
1.0
 30
0.0
  9
$PUCSORTHOREF
  2

  9
$PUCSORTHOVIEW
 70
     0
  9
$PUCSORGTOP
 10
0.0
 20
0.0
 30
0.0
  9
$PUCSORGBOTTOM
 10
0.0
 20
0.0
 30
0.0
  9
$PUCSORGLEFT
 10
0.0
 20
0.0
 30
0.0
  9
$PUCSORGRIGHT
 10
0.0
 20
0.0
 30
0.0
  9
$PUCSORGFRONT
 10
0.0
 20
0.0
 30
0.0
  9
$PUCSORGBACK
 10
0.0
 20
0.0
 30
0.0
  9
$USERI1
 70
     0
  9
$USERI2
 70
     0
  9
$USERI3
 70
     0
  9
$USERI4
 70
     0
  9
$USERI5
 70
     0
  9
$USERR1
 40
0.0
  9
$USERR2
 40
0.0
  9
$USERR3
 40
0.0
  9
$USERR4
 40
0.0
  9
$USERR5
 40
0.0
  9
$WORLDVIEW
 70
     1
  9
$SHADEDGE
 70
     3
  9
$SHADEDIF
 70
    70
  9
$TILEMODE
 70
     1
  9
$MAXACTVP
 70
    16
  9
$PINSBASE
 10
0.0
 20
0.0
 30
0.0
  9
$PLIMCHECK
 70
     0
  9
$PEXTMIN
 10
0.0
 20
0.0
 30
0.0
  9
$PEXTMAX
 10
420.0
 20
297.0
 30
0.0
  9
$PLIMMIN
 10
0.0
 20
0.0
  9
$PLIMMAX
 10
420.0
 20
297.0
  9
$UNITMODE
 70
     0
  9
$VISRETAIN
 70
     0
  9
$PLINEGEN
 70
     0
  9
$PSLTSCALE
 70
     1
  9
$TREEDEPTH
 70
  3020
  9
$CMLSTYLE
  2
STANDARD
  9
$CMLJUST
 70
     0
  9
$CMLSCALE
 40
1.0
  9
$PROXYGRAPHICS
 70
     1
  9
$MEASUREMENT
 70
     0
  9
$CELWEIGHT
370
    -1
  9
$ENDCAPS
280
     0
  9
$JOINSTYLE
280
     0
  9
$LWDISPLAY
290
     0
  9
$INSUNITS
 70
     0
  9
$HYPERLINKBASE
  1

  9
$STYLESHEET
  1
systemprinter.ctb
  9
$XEDIT
290
     1
  9
$CEPSNTYPE
380
     0
  9
$PSTYLEMODE
290
     1
  9
$FINGERPRINTGUID
  2
{91E25F26-0CBF-4C93-982E-B5F00895E654}
  9
$VERSIONGUID
  2
{66DAA735-65FF-4D10-838D-76E2FA67D36E}
  9
$EXTNAMES
290
     1
  9
$PSVPSCALE
 40
0.0
  9
$OLESTARTUP
290
     0
  0
ENDSEC
  0
SECTION
  2
CLASSES
  0
CLASS
  1
ACDBDICTIONARYWDFLT
  2
AcDbDictionaryWithDefault
  3
ObjectDBX Classes
 90
        0
280
     0
281
     0
  0
CLASS
  1
ACDBPLACEHOLDER
  2
AcDbPlaceHolder
  3
ObjectDBX Classes
 90
        0
280
     0
281
     0
  0
CLASS
  1
LAYOUT
  2
AcDbLayout
  3
ObjectDBX Classes
 90
        0
280
     0
281
     0
  0
CLASS
  1
DUMMY
  2
AcDbLongTransaction
  3
DUMMY
 90
        0
280
     0
281
     0
  0
CLASS
  1
LWPOLYLINE
  2
AcDbPolyline
  3
AutoCAD 2000
 90
        0
280
     0
281
     1
  0
CLASS
  1
HATCH
  2
AcDbHatch
  3
AutoCAD 2000
 90
        0
280
     0
281
     1
  0
CLASS
  1
XRECORD
  2
AcDbXrecord
  3
AutoCAD 2000
 90
        0
280
     0
281
     0
  0
CLASS
  1
DUMMY
  2
AcDbLongTransaction
  3
DUMMY
 90
        0
280
     0
281
     0
  0
CLASS
  1
LWPOLYLINE
  2
AcDbPolyline
  3
AutoCAD 2000
 90
        0
280
     0
281
     1
  0
CLASS
  1
HATCH
  2
AcDbHatch
  3
AutoCAD 2000
 90
        0
280
     0
281
     1
  0
CLASS
  1
XRECORD
  2
AcDbXrecord
  3
AutoCAD 2000
 90
        0
280
     0
281
     0
  0
CLASS
  1
DUMMY
  2
AcDbLongTransaction
  3
DUMMY
 90
        0
280
     0
281
     0
  0
CLASS
  1
LWPOLYLINE
  2
AcDbPolyline
  3
AutoCAD 2000
 90
        0
280
     0
281
     1
  0
CLASS
  1
HATCH
  2
AcDbHatch
  3
AutoCAD 2000
 90
        0
280
     0
281
     1
  0
CLASS
  1
XRECORD
  2
AcDbXrecord
  3
AutoCAD 2000
 90
        0
280
     0
281
     0
  0
CLASS
  1
DUMMY
  2
AcDbLongTransaction
  3
DUMMY
 90
        0
280
     0
281
     0
  0
CLASS
  1
LWPOLYLINE
  2
AcDbPolyline
  3
AutoCAD 2000
 90
        0
280
     0
281
     1
  0
CLASS
  1
HATCH
  2
AcDbHatch
  3
AutoCAD 2000
 90
        0
280
     0
281
     1
  0
CLASS
  1
XRECORD
  2
AcDbXrecord
  3
AutoCAD 2000
 90
        0
280
     0
281
     0
  0
CLASS
  1
DUMMY
  2
AcDbLongTransaction
  3
DUMMY
 90
        0
280
     0
281
     0
  0
CLASS
  1
LWPOLYLINE
  2
AcDbPolyline
  3
AutoCAD 2000
 90
        0
280
     0
281
     1
  0
CLASS
  1
HATCH
  2
AcDbHatch
  3
AutoCAD 2000
 90
        0
280
     0
281
     1
  0
CLASS
  1
XRECORD
  2
AcDbXrecord
  3
AutoCAD 2000
 90
        0
280
     0
281
     0
  0
CLASS
  1
DUMMY
  2
AcDbLongTransaction
  3
DUMMY
 90
        0
280
     0
281
     0
  0
CLASS
  1
LWPOLYLINE
  2
AcDbPolyline
  3
AutoCAD 2000
 90
        0
280
     0
281
     1
  0
CLASS
  1
HATCH
  2
AcDbHatch
  3
AutoCAD 2000
 90
        0
280
     0
281
     1
  0
CLASS
  1
XRECORD
  2
AcDbXrecord
  3
AutoCAD 2000
 90
        0
280
     0
281
     0
  0
ENDSEC
  0
SECTION
  2
TABLES
  0
TABLE
  2
VPORT
  5
8
330
0
100
AcDbSymbolTable
 70
     2
  0
VPORT
  5
4B7F
330
8
100
AcDbSymbolTableRecord
100
AcDbViewportTableRecord
  2
*Active
 70
     0
 10
0.0
 20
0.0
 11
1.0
 21
1.0
 12
409.9957864706209
 22
290.8909888735149
 13
0.0
 23
0.0
 14
5.0
 24
5.0
 15
0.0
 25
0.0
 16
0.0
 26
0.0
 36
1.0
 17
0.0
 27
0.0
 37
0.0
 40
637.2409048616903
 41
1.651537335285505
 42
50.0
 43
0.0
 44
0.0
 50
0.0
 51
0.0
 71
     0
 72
   100
 73
     1
 74
     0
 75
     0
 76
     0
 77
     0
 78
     0
281
     0
 65
     1
110
0.0
120
0.0
130
0.0
111
1.0
121
0.0
131
0.0
112
0.0
122
1.0
132
0.0
 79
     0
146
0.0
  0
ENDTAB
  0
TABLE
  2
LTYPE
  5
5
330
0
100
AcDbSymbolTable
 70
     3
  0
LTYPE
  5
14
330
5
100
AcDbSymbolTableRecord
100
AcDbLinetypeTableRecord
  2
BYBLOCK
 70
     0
  3

 72
    65
 73
     0
 40
0.0
  0
LTYPE
  5
15
330
5
100
AcDbSymbolTableRecord
100
AcDbLinetypeTableRecord
  2
BYLAYER
 70
     0
  3

 72
    65
 73
     0
 40
0.0
  0
LTYPE
  5
16
330
5
100
AcDbSymbolTableRecord
100
AcDbLinetypeTableRecord
  2
CONTINUOUS
 70
     0
  3
Solid line
 72
    65
 73
     0
 40
0.0
  0
LTYPE
  5
115
330
5
100
AcDbSymbolTableRecord
100
AcDbLinetypeTableRecord
  2
PHANTOM
 70
     0
  3
______  __  __  ______  __  __  ______  __  __ 
 72
    65
 73
     6
 40
2.5
 49
1.25
 74
     0
 49
-0.25
 74
     0
 49
0.25
 74
     0
 49
-0.25
 74
     0
 49
0.25
 74
     0
 49
-0.25
 74
     0
  0
LTYPE
  5
135
330
5
100
AcDbSymbolTableRecord
100
AcDbLinetypeTableRecord
  2
CENTER
 70
     0
  3
____ _ ____ _ ____ _ ____ _ ____ _ ____ _ ____ 
 72
    65
 73
     4
 40
2.0
 49
1.25
 74
     0
 49
-0.25
 74
     0
 49
0.25
 74
     0
 49
-0.25
 74
     0
  0
ENDTAB
  0
TABLE
  2
LAYER
  5
2
330
0
100
AcDbSymbolTable
 70
     8
  0
LAYER
  5
F
330
2
100
AcDbSymbolTableRecord
100
AcDbLayerTableRecord
  2
0
 70
     0
 62
     7
  6
CONTINUOUS
370
    -3
390
A97
  0
LAYER
  5
62
330
2
100
AcDbSymbolTableRecord
100
AcDbLayerTableRecord
  2
VIEWPORT
 70
     0
 62
     7
  6
CONTINUOUS
370
    -3
390
A97
  0
LAYER
  5
65
330
2
100
AcDbSymbolTableRecord
100
AcDbLayerTableRecord
  2
ZUWAKU
 70
     0
 62
     7
  6
CONTINUOUS
370
    -3
390
A97
  0
LAYER
  5
143
330
2
100
AcDbSymbolTableRecord
100
AcDbLayerTableRecord
  2
SEIHIN
 70
     0
 62
     3
  6
CONTINUOUS
370
    -3
390
A97
  0
LAYER
  5
444
330
2
100
AcDbSymbolTableRecord
100
AcDbLayerTableRecord
  2
DEFPOINTS
 70
     0
 62
     7
  6
CONTINUOUS
290
     0
370
    -3
390
A97
  0
LAYER
  5
482
330
2
100
AcDbSymbolTableRecord
100
AcDbLayerTableRecord
  2
SUNPOU
 70
     0
 62
     4
  6
CONTINUOUS
370
    -3
390
A97
  0
LAYER
  5
5D4
330
2
100
AcDbSymbolTableRecord
100
AcDbLayerTableRecord
  2
CENTER_L
 70
     0
 62
     1
  6
CENTER
370
    -3
390
A97
  0
LAYER
  5
4974
330
2
100
AcDbSymbolTableRecord
100
AcDbLayerTableRecord
  2
MOJI
 70
     0
 62
     2
  6
CONTINUOUS
370
    -3
390
A97
  0
ENDTAB
  0
TABLE
  2
STYLE
  5
3
330
0
100
AcDbSymbolTable
 70
     3
  0
STYLE
  5
10
330
3
100
AcDbSymbolTableRecord
100
AcDbTextStyleTableRecord
  2
STANDARD
 70
     0
 40
0.0
 41
1.0
 50
0.0
 71
     0
 42
6.0
  3
TXT
  4
bigfont.shx
  0
STYLE
  5
D40
330
3
100
AcDbSymbolTableRecord
100
AcDbTextStyleTableRecord
  2
STYLE2
 70
     0
 40
0.0
 41
1.0
 50
0.0
 71
     0
 42
0.35
  3
ＭＳ ゴシック
  4

  0
STYLE
  5
4975
330
3
100
AcDbSymbolTableRecord
100
AcDbTextStyleTableRecord
  2
ｽﾀｲﾙ1
 70
     0
 40
0.0
 41
1.0
 50
0.0
 71
     0
 42
2.5
  3
MS PGothic.ttf
  4

1001
ACAD
1000
MS PGothic
1071
    32818
  0
ENDTAB
  0
TABLE
  2
VIEW
  5
6
330
0
100
AcDbSymbolTable
 70
     0
  0
ENDTAB
  0
TABLE
  2
UCS
  5
7
330
0
100
AcDbSymbolTable
 70
     0
  0
ENDTAB
  0
TABLE
  2
APPID
  5
9
330
0
100
AcDbSymbolTable
 70
     1
  0
APPID
  5
11
330
9
100
AcDbSymbolTableRecord
100
AcDbRegAppTableRecord
  2
ACAD
 70
     0
  0
ENDTAB
  0
TABLE
  2
DIMSTYLE
  5
A
330
0
100
AcDbSymbolTable
 70
     1
100
AcDbDimStyleTable
  0
DIMSTYLE
105
1D
102
{ACAD_REACTORS
330
4576
330
4595
330
45A2
330
45AF
330
45BC
330
46F1
330
4701
330
470E
330
4728
102
}
330
A
100
AcDbSymbolTableRecord
100
AcDbDimStyleTableRecord
  2
STANDARD
 70
     0
340
10
  0
ENDTAB
  0
TABLE
  2
BLOCK_RECORD
  5
1
330
0
100
AcDbSymbolTable
 70
    10
  0
BLOCK_RECORD
  5
1A
330
1
100
AcDbSymbolTableRecord
100
AcDbBlockTableRecord
  2
*MODEL_SPACE
340
4B6A
  0
BLOCK_RECORD
  5
17
330
1
100
AcDbSymbolTableRecord
100
AcDbBlockTableRecord
  2
*PAPER_SPACE
340
4B6B
  0
BLOCK_RECORD
  5
6D
330
1
100
AcDbSymbolTableRecord
100
AcDbBlockTableRecord
  2
_OPEN
340
0
102
{BLKREFS
331
4AF1
331
4AF2
331
4B0C
331
4B0D
331
4B03
331
4B04
331
4AFA
331
4AFB
331
4B36
331
4B37
331
4AE8
331
4AE9
331
4B20
331
4B21
331
4B2B
331
4B2C
331
4B17
331
4B18
331
43ED
331
43EE
331
444F
331
4450
331
4455
331
4456
331
445B
331
445C
331
4461
331
4462
331
4469
331
446A
331
449F
331
44A0
331
453A
331
454A
102
}
  0
BLOCK_RECORD
  5
4577
330
1
100
AcDbSymbolTableRecord
100
AcDbBlockTableRecord
  2
*D1
340
0
  0
BLOCK_RECORD
  5
4596
330
1
100
AcDbSymbolTableRecord
100
AcDbBlockTableRecord
  2
*D2
340
0
  0
BLOCK_RECORD
  5
45A3
330
1
100
AcDbSymbolTableRecord
100
AcDbBlockTableRecord
  2
*D3
340
0
  0
BLOCK_RECORD
  5
45B0
330
1
100
AcDbSymbolTableRecord
100
AcDbBlockTableRecord
  2
*D4
340
0
  0
BLOCK_RECORD
  5
45BD
330
1
100
AcDbSymbolTableRecord
100
AcDbBlockTableRecord
  2
*D5
340
0
  0
BLOCK_RECORD
  5
46F2
330
1
100
AcDbSymbolTableRecord
100
AcDbBlockTableRecord
  2
*D6
340
0
  0
BLOCK_RECORD
  5
4702
330
1
100
AcDbSymbolTableRecord
100
AcDbBlockTableRecord
  2
*D7
340
0
  0
BLOCK_RECORD
  5
470F
330
1
100
AcDbSymbolTableRecord
100
AcDbBlockTableRecord
  2
*D8
340
0
  0
BLOCK_RECORD
  5
4729
330
1
100
AcDbSymbolTableRecord
100
AcDbBlockTableRecord
  2
*D9
340
0
  0
ENDTAB
  0
ENDSEC
  0
SECTION
  2
BLOCKS
  0
BLOCK
  5
1B
330
1A
100
AcDbEntity
  8
0
100
AcDbBlockBegin
  2
*MODEL_SPACE
 70
     0
 71
     0
 10
0.0
 20
0.0
 30
0.0
  3
*MODEL_SPACE
  1

  0
ENDBLK
  5
1C
330
1A
100
AcDbEntity
  8
0
100
AcDbBlockEnd
  0
BLOCK
  5
18
330
17
100
AcDbEntity
 67
     1
  8
0
100
AcDbBlockBegin
  2
*PAPER_SPACE
 70
     0
 71
     0
 10
0.0
 20
0.0
 30
0.0
  3
*PAPER_SPACE
  1

  0
ENDBLK
  5
19
330
17
100
AcDbEntity
 67
     1
  8
0
100
AcDbBlockEnd
  0
BLOCK
  5
6E
330
6D
100
AcDbEntity
  8
0
100
AcDbBlockBegin
  2
_OPEN
 70
     0
 71
     0
 10
0.0
 20
0.0
 30
0.0
  3
_OPEN
  1

  0
LINE
  5
6F
330
6D
100
AcDbEntity
  8
0
  6
ByBlock
 62
     0
100
AcDbLine
 10
-1.0
 20
0.1666666666666666
 30
0.0
 11
0.0
 21
0.0
 31
0.0
  0
LINE
  5
70
330
6D
100
AcDbEntity
  8
0
  6
ByBlock
 62
     0
100
AcDbLine
 10
0.0
 20
0.0
 30
0.0
 11
-1.0
 21
-0.1666666666666666
 31
0.0
  0
LINE
  5
71
330
6D
100
AcDbEntity
  8
0
  6
ByBlock
 62
     0
100
AcDbLine
 10
0.0
 20
0.0
 30
0.0
 11
-1.0
 21
0.0
 31
0.0
  0
ENDBLK
  5
72
330
6D
100
AcDbEntity
  8
0
100
AcDbBlockEnd
  0
BLOCK
  5
4581
330
4577
100
AcDbEntity
  8
0
100
AcDbBlockBegin
  2
*D1
 70
     1
 71
     0
 10
0.0
 20
0.0
 30
0.0
  3
*D1
  1

  0
LINE
  5
4AEE
330
4577
100
AcDbEntity
  8
SUNPOU
100
AcDbLine
 10
249.4289518676171
 20
402.8195245236797
 30
0.0
 11
168.6639429134752
 21
402.8195245236797
 31
0.0
  0
LINE
  5
4AEF
330
4577
100
AcDbEntity
  8
SUNPOU
100
AcDbLine
 10
249.4289518676171
 20
366.8749248077543
 30
0.0
 11
168.6639429134752
 21
366.8749248077543
 31
0.0
  0
LINE
  5
4AF0
330
4577
100
AcDbEntity
  8
SUNPOU
100
AcDbLine
 10
171.6639429134752
 20
395.8195245236797
 30
0.0
 11
171.6639429134752
 21
373.8749248077543
 31
0.0
  0
INSERT
  5
4AF1
330
4577
100
AcDbEntity
  8
SUNPOU
100
AcDbBlockReference
  2
_OPEN
 10
171.6639429134752
 20
402.8195245236797
 30
0.0
 41
7.0
 42
7.0
 43
7.0
 50
90.0
  0
INSERT
  5
4AF2
330
4577
100
AcDbEntity
  8
SUNPOU
100
AcDbBlockReference
  2
_OPEN
 10
171.6639429134752
 20
366.8749248077543
 30
0.0
 41
7.0
 42
7.0
 43
7.0
 50
270.0
  0
MTEXT
  5
4AF3
330
4577
100
AcDbEntity
  8
SUNPOU
100
AcDbMText
 10
166.6639429134751
 20
384.847224665717
 30
0.0
 40
6.0
 41
0.0
 71
     5
 72
     1
  1
\A1;36
 11
1.000000000000000E-16
 21
1.0
 31
0.0
 73
     1
 44
1.0
  0
POINT
  5
4AF4
330
4577
100
AcDbEntity
  8
DEFPOINTS
 62
     0
100
AcDbPoint
 10
255.4289518676171
 20
402.8195245236797
 30
0.0
  0
POINT
  5
4AF5
330
4577
100
AcDbEntity
  8
DEFPOINTS
 62
     0
100
AcDbPoint
 10
255.4289518676171
 20
366.8749248077543
 30
0.0
  0
POINT
  5
4AF6
330
4577
100
AcDbEntity
  8
DEFPOINTS
 62
     0
100
AcDbPoint
 10
171.6639429134752
 20
366.8749248077543
 30
0.0
  0
ENDBLK
  5
4582
330
4577
100
AcDbEntity
  8
0
100
AcDbBlockEnd
  0
BLOCK
  5
45A0
330
4596
100
AcDbEntity
  8
0
100
AcDbBlockBegin
  2
*D2
 70
     1
 71
     0
 10
0.0
 20
0.0
 30
0.0
  3
*D2
  1

  0
LINE
  5
4B09
330
4596
100
AcDbEntity
  8
SUNPOU
100
AcDbLine
 10
529.2483252867731
 20
154.8558041948555
 30
0.0
 11
529.2483252867731
 21
128.0017978259363
 31
0.0
  0
LINE
  5
4B0A
330
4596
100
AcDbEntity
  8
SUNPOU
100
AcDbLine
 10
582.2483252867731
 20
154.8558041948558
 30
0.0
 11
582.2483252867731
 21
128.0017978259363
 31
0.0
  0
LINE
  5
4B0B
330
4596
100
AcDbEntity
  8
SUNPOU
100
AcDbLine
 10
536.2483252867731
 20
131.0017978259363
 30
0.0
 11
575.2483252867731
 21
131.0017978259363
 31
0.0
  0
INSERT
  5
4B0C
330
4596
100
AcDbEntity
  8
SUNPOU
100
AcDbBlockReference
  2
_OPEN
 10
529.2483252867731
 20
131.0017978259363
 30
0.0
 41
7.0
 42
7.0
 43
7.0
 50
180.0
  0
INSERT
  5
4B0D
330
4596
100
AcDbEntity
  8
SUNPOU
100
AcDbBlockReference
  2
_OPEN
 10
582.2483252867731
 20
131.0017978259363
 30
0.0
 41
7.0
 42
7.0
 43
7.0
  0
MTEXT
  5
4B0E
330
4596
100
AcDbEntity
  8
SUNPOU
100
AcDbMText
 10
555.7483252867731
 20
136.0017978259363
 30
0.0
 40
6.0
 41
0.0
 71
     5
 72
     1
  1
\A1;53
 73
     1
 44
1.0
  0
POINT
  5
4B0F
330
4596
100
AcDbEntity
  8
DEFPOINTS
 62
     0
100
AcDbPoint
 10
529.2483252867731
 20
160.8558041948555
 30
0.0
  0
POINT
  5
4B10
330
4596
100
AcDbEntity
  8
DEFPOINTS
 62
     0
100
AcDbPoint
 10
582.2483252867731
 20
160.8558041948558
 30
0.0
  0
POINT
  5
4B11
330
4596
100
AcDbEntity
  8
DEFPOINTS
 62
     0
100
AcDbPoint
 10
582.2483252867731
 20
131.0017978259363
 30
0.0
  0
ENDBLK
  5
45A1
330
4596
100
AcDbEntity
  8
0
100
AcDbBlockEnd
  0
BLOCK
  5
45AD
330
45A3
100
AcDbEntity
  8
0
100
AcDbBlockBegin
  2
*D3
 70
     1
 71
     0
 10
0.0
 20
0.0
 30
0.0
  3
*D3
  1

  0
LINE
  5
4B00
330
45A3
100
AcDbEntity
  8
SUNPOU
100
AcDbLine
 10
584.2483252867728
 20
205.9674387599034
 30
0.0
 11
584.2483252867728
 21
228.1255487314733
 31
0.0
  0
LINE
  5
4B01
330
45A3
100
AcDbEntity
  8
SUNPOU
100
AcDbLine
 10
527.2483252867727
 20
205.9674387599031
 30
0.0
 11
527.2483252867727
 21
228.1255487314733
 31
0.0
  0
LINE
  5
4B02
330
45A3
100
AcDbEntity
  8
SUNPOU
100
AcDbLine
 10
577.2483252867728
 20
225.1255487314733
 30
0.0
 11
534.2483252867728
 21
225.1255487314733
 31
0.0
  0
INSERT
  5
4B03
330
45A3
100
AcDbEntity
  8
SUNPOU
100
AcDbBlockReference
  2
_OPEN
 10
584.2483252867728
 20
225.1255487314733
 30
0.0
 41
7.0
 42
7.0
 43
7.0
  0
INSERT
  5
4B04
330
45A3
100
AcDbEntity
  8
SUNPOU
100
AcDbBlockReference
  2
_OPEN
 10
527.2483252867727
 20
225.1255487314733
 30
0.0
 41
7.0
 42
7.0
 43
7.0
 50
180.0
  0
MTEXT
  5
4B05
330
45A3
100
AcDbEntity
  8
SUNPOU
100
AcDbMText
 10
555.7483252867728
 20
230.1255487314733
 30
0.0
 40
6.0
 41
0.0
 71
     5
 72
     1
  1
\A1;57
 73
     1
 44
1.0
  0
POINT
  5
4B06
330
45A3
100
AcDbEntity
  8
DEFPOINTS
 62
     0
100
AcDbPoint
 10
584.2483252867728
 20
199.9674387599034
 30
0.0
  0
POINT
  5
4B07
330
45A3
100
AcDbEntity
  8
DEFPOINTS
 62
     0
100
AcDbPoint
 10
527.2483252867727
 20
199.9674387599031
 30
0.0
  0
POINT
  5
4B08
330
45A3
100
AcDbEntity
  8
DEFPOINTS
 62
     0
100
AcDbPoint
 10
527.2483252867727
 20
225.1255487314733
 30
0.0
  0
ENDBLK
  5
45AE
330
45A3
100
AcDbEntity
  8
0
100
AcDbBlockEnd
  0
BLOCK
  5
45BA
330
45B0
100
AcDbEntity
  8
0
100
AcDbBlockBegin
  2
*D4
 70
     1
 71
     0
 10
0.0
 20
0.0
 30
0.0
  3
*D4
  1

  0
LINE
  5
4AF7
330
45B0
100
AcDbEntity
  8
SUNPOU
100
AcDbLine
 10
592.7483252867731
 20
201.2140457621339
 30
0.0
 11
592.7483252867731
 21
244.3188830547289
 31
0.0
  0
LINE
  5
4AF8
330
45B0
100
AcDbEntity
  8
SUNPOU
100
AcDbLine
 10
518.83387610164
 20
202.0039873216176
 30
0.0
 11
518.83387610164
 21
244.3188830547289
 31
0.0
  0
LINE
  5
4AF9
330
45B0
100
AcDbEntity
  8
SUNPOU
100
AcDbLine
 10
585.7483252867731
 20
241.3188830547289
 30
0.0
 11
525.83387610164
 21
241.3188830547289
 31
0.0
  0
INSERT
  5
4AFA
330
45B0
100
AcDbEntity
  8
SUNPOU
100
AcDbBlockReference
  2
_OPEN
 10
592.7483252867731
 20
241.3188830547289
 30
0.0
 41
7.0
 42
7.0
 43
7.0
  0
INSERT
  5
4AFB
330
45B0
100
AcDbEntity
  8
SUNPOU
100
AcDbBlockReference
  2
_OPEN
 10
518.83387610164
 20
241.3188830547289
 30
0.0
 41
7.0
 42
7.0
 43
7.0
 50
180.0
  0
MTEXT
  5
4AFC
330
45B0
100
AcDbEntity
  8
SUNPOU
100
AcDbMText
 10
555.7911006942064
 20
246.3188830547289
 30
0.0
 40
6.0
 41
0.0
 71
     5
 72
     1
  1
\A1;74
 73
     1
 44
1.0
  0
POINT
  5
4AFD
330
45B0
100
AcDbEntity
  8
DEFPOINTS
 62
     0
100
AcDbPoint
 10
592.7483252867731
 20
195.2140457621339
 30
0.0
  0
POINT
  5
4AFE
330
45B0
100
AcDbEntity
  8
DEFPOINTS
 62
     0
100
AcDbPoint
 10
518.83387610164
 20
196.0039873216176
 30
0.0
  0
POINT
  5
4AFF
330
45B0
100
AcDbEntity
  8
DEFPOINTS
 62
     0
100
AcDbPoint
 10
518.83387610164
 20
241.3188830547289
 30
0.0
  0
ENDBLK
  5
45BB
330
45B0
100
AcDbEntity
  8
0
100
AcDbBlockEnd
  0
BLOCK
  5
45C9
330
45BD
100
AcDbEntity
  8
0
100
AcDbBlockBegin
  2
*D5
 70
     1
 71
     0
 10
0.0
 20
0.0
 30
0.0
  3
*D5
  1

  0
LINE
  5
4B31
330
45BD
100
AcDbEntity
  8
SUNPOU
100
AcDbLine
 10
590.0535876139669
 20
204.6386075025103
 30
0.0
 11
625.3031461373943
 21
204.6386075025103
 31
0.0
  0
LINE
  5
4B32
330
45BD
100
AcDbEntity
  8
SUNPOU
100
AcDbLine
 10
595.998325286773
 20
190.0830499867451
 30
0.0
 11
625.3031461373943
 21
190.0830499867451
 31
0.0
  0
LINE
  5
4B33
330
45BD
100
AcDbEntity
  8
SUNPOU
100
AcDbLine
 10
622.3031461373944
 20
211.6386075025103
 30
0.0
 11
622.3031461373944
 21
218.6386075025103
 31
0.0
  0
LINE
  5
4B34
330
45BD
100
AcDbEntity
  8
SUNPOU
100
AcDbLine
 10
622.3031461373944
 20
183.0830499867451
 30
0.0
 11
622.3031461373944
 21
176.0830499867451
 31
0.0
  0
LINE
  5
4B35
330
45BD
100
AcDbEntity
  8
SUNPOU
100
AcDbLine
 10
622.3031461373944
 20
204.6386075025103
 30
0.0
 11
622.3031461373944
 21
190.0830499867451
 31
0.0
  0
INSERT
  5
4B36
330
45BD
100
AcDbEntity
  8
SUNPOU
100
AcDbBlockReference
  2
_OPEN
 10
622.3031461373944
 20
204.6386075025103
 30
0.0
 41
7.0
 42
7.0
 43
7.0
 50
270.0
  0
INSERT
  5
4B37
330
45BD
100
AcDbEntity
  8
SUNPOU
100
AcDbBlockReference
  2
_OPEN
 10
622.3031461373944
 20
190.0830499867451
 30
0.0
 41
7.0
 42
7.0
 43
7.0
 50
90.0
  0
MTEXT
  5
4B38
330
45BD
100
AcDbEntity
  8
SUNPOU
100
AcDbMText
 10
617.3031461373944
 20
197.3608287446278
 30
0.0
 40
6.0
 41
0.0
 71
     5
 72
     1
  1
\A1;15
 11
1.000000000000000E-16
 21
1.0
 31
0.0
 73
     1
 44
1.0
  0
POINT
  5
4B39
330
45BD
100
AcDbEntity
  8
DEFPOINTS
 62
     0
100
AcDbPoint
 10
584.053587613967
 20
204.6386075025103
 30
0.0
  0
POINT
  5
4B3A
330
45BD
100
AcDbEntity
  8
DEFPOINTS
 62
     0
100
AcDbPoint
 10
589.998325286773
 20
190.0830499867451
 30
0.0
  0
POINT
  5
4B3B
330
45BD
100
AcDbEntity
  8
DEFPOINTS
 62
     0
100
AcDbPoint
 10
622.3031461373944
 20
190.0830499867451
 30
0.0
  0
ENDBLK
  5
45CA
330
45BD
100
AcDbEntity
  8
0
100
AcDbBlockEnd
  0
BLOCK
  5
46FC
330
46F2
100
AcDbEntity
  8
0
 62
     4
100
AcDbBlockBegin
  2
*D6
 70
     1
 71
     0
 10
0.0
 20
0.0
 30
0.0
  3
*D6
  1

  0
LINE
  5
4AE5
330
46F2
100
AcDbEntity
  8
SUNPOU
100
AcDbLine
 10
360.4301583020928
 20
204.7244116238301
 30
0.0
 11
371.0800142028662
 21
204.7244116238301
 31
0.0
  0
LINE
  5
4AE6
330
46F2
100
AcDbEntity
  8
SUNPOU
100
AcDbLine
 10
360.4301583020924
 20
154.7244116238411
 30
0.0
 11
371.0800142028662
 21
154.7244116238411
 31
0.0
  0
LINE
  5
4AE7
330
46F2
100
AcDbEntity
  8
SUNPOU
100
AcDbLine
 10
368.080014202866
 20
197.7244116238301
 30
0.0
 11
368.080014202866
 21
161.7244116238411
 31
0.0
  0
INSERT
  5
4AE8
330
46F2
100
AcDbEntity
  8
SUNPOU
100
AcDbBlockReference
  2
_OPEN
 10
368.080014202866
 20
204.7244116238301
 30
0.0
 41
7.0
 42
7.0
 43
7.0
 50
90.0
  0
INSERT
  5
4AE9
330
46F2
100
AcDbEntity
  8
SUNPOU
100
AcDbBlockReference
  2
_OPEN
 10
368.080014202866
 20
154.7244116238411
 30
0.0
 41
7.0
 42
7.0
 43
7.0
 50
270.0
  0
MTEXT
  5
4AEA
330
46F2
100
AcDbEntity
  8
SUNPOU
100
AcDbMText
 10
363.080014202866
 20
179.7244116238357
 30
0.0
 40
6.0
 41
0.0
 71
     5
 72
     1
  1
\A1;50
 11
1.000000000000000E-16
 21
1.0
 31
0.0
 73
     1
 44
1.0
  0
POINT
  5
4AEB
330
46F2
100
AcDbEntity
  8
DEFPOINTS
 62
     0
100
AcDbPoint
 10
354.4301583020928
 20
204.7244116238301
 30
0.0
  0
POINT
  5
4AEC
330
46F2
100
AcDbEntity
  8
DEFPOINTS
 62
     0
100
AcDbPoint
 10
354.4301583020924
 20
154.7244116238411
 30
0.0
  0
POINT
  5
4AED
330
46F2
100
AcDbEntity
  8
DEFPOINTS
 62
     0
100
AcDbPoint
 10
368.080014202866
 20
154.7244116238411
 30
0.0
  0
ENDBLK
  5
46FD
330
46F2
100
AcDbEntity
  8
0
 62
     4
100
AcDbBlockEnd
  0
BLOCK
  5
470C
330
4702
100
AcDbEntity
  8
0
 62
     4
100
AcDbBlockBegin
  2
*D7
 70
     1
 71
     0
 10
0.0
 20
0.0
 30
0.0
  3
*D7
  1

  0
LINE
  5
4B1D
330
4702
100
AcDbEntity
  8
SUNPOU
100
AcDbLine
 10
521.4430629595786
 20
204.6386075025099
 30
0.0
 11
481.0599428080377
 21
204.6386075025099
 31
0.0
  0
LINE
  5
4B1E
330
4702
100
AcDbEntity
  8
SUNPOU
100
AcDbLine
 10
521.443062959579
 20
154.6625049406432
 30
0.0
 11
481.0599428080377
 21
154.6625049406432
 31
0.0
  0
LINE
  5
4B1F
330
4702
100
AcDbEntity
  8
SUNPOU
100
AcDbLine
 10
484.0599428080377
 20
197.63860750251
 30
0.0
 11
484.0599428080377
 21
161.6625049406432
 31
0.0
  0
INSERT
  5
4B20
330
4702
100
AcDbEntity
  8
SUNPOU
100
AcDbBlockReference
  2
_OPEN
 10
484.0599428080377
 20
204.6386075025099
 30
0.0
 41
7.0
 42
7.0
 43
7.0
 50
90.0
  0
INSERT
  5
4B21
330
4702
100
AcDbEntity
  8
SUNPOU
100
AcDbBlockReference
  2
_OPEN
 10
484.0599428080377
 20
154.6625049406432
 30
0.0
 41
7.0
 42
7.0
 43
7.0
 50
270.0
  0
MTEXT
  5
4B22
330
4702
100
AcDbEntity
  8
SUNPOU
100
AcDbMText
 10
479.0599428080377
 20
179.6505562215767
 30
0.0
 40
6.0
 41
0.0
 71
     5
 72
     1
  1
\A1;50
 11
1.000000000000000E-16
 21
1.0
 31
0.0
 73
     1
 44
1.0
  0
POINT
  5
4B23
330
4702
100
AcDbEntity
  8
DEFPOINTS
 62
     0
100
AcDbPoint
 10
527.4430629595785
 20
204.6386075025099
 30
0.0
  0
POINT
  5
4B24
330
4702
100
AcDbEntity
  8
DEFPOINTS
 62
     0
100
AcDbPoint
 10
527.443062959579
 20
154.6625049406432
 30
0.0
  0
POINT
  5
4B25
330
4702
100
AcDbEntity
  8
DEFPOINTS
 62
     0
100
AcDbPoint
 10
484.0599428080377
 20
154.6625049406432
 30
0.0
  0
ENDBLK
  5
470D
330
4702
100
AcDbEntity
  8
0
 62
     4
100
AcDbBlockEnd
  0
BLOCK
  5
471B
330
470F
100
AcDbEntity
  8
0
 62
     4
100
AcDbBlockBegin
  2
*D8
 70
     1
 71
     0
 10
0.0
 20
0.0
 30
0.0
  3
*D8
  1

  0
LINE
  5
4B26
330
470F
100
AcDbEntity
  8
SUNPOU
100
AcDbLine
 10
521.4430629595786
 20
204.6386075025099
 30
0.0
 11
494.8457007399011
 21
204.6386075025099
 31
0.0
  0
LINE
  5
4B27
330
470F
100
AcDbEntity
  8
SUNPOU
100
AcDbLine
 10
521.2483252867728
 20
195.3674387599031
 30
0.0
 11
494.8457007399011
 21
195.3674387599031
 31
0.0
  0
LINE
  5
4B28
330
470F
100
AcDbEntity
  8
SUNPOU
100
AcDbLine
 10
497.8457007399011
 20
211.63860750251
 30
0.0
 11
497.8457007399011
 21
218.63860750251
 31
0.0
  0
LINE
  5
4B29
330
470F
100
AcDbEntity
  8
SUNPOU
100
AcDbLine
 10
497.8457007399011
 20
188.3674387599031
 30
0.0
 11
497.8457007399011
 21
181.3674387599031
 31
0.0
  0
LINE
  5
4B2A
330
470F
100
AcDbEntity
  8
SUNPOU
100
AcDbLine
 10
497.8457007399011
 20
204.6386075025099
 30
0.0
 11
497.8457007399011
 21
195.3674387599031
 31
0.0
  0
INSERT
  5
4B2B
330
470F
100
AcDbEntity
  8
SUNPOU
100
AcDbBlockReference
  2
_OPEN
 10
497.8457007399011
 20
204.6386075025099
 30
0.0
 41
7.0
 42
7.0
 43
7.0
 50
270.0
  0
INSERT
  5
4B2C
330
470F
100
AcDbEntity
  8
SUNPOU
100
AcDbBlockReference
  2
_OPEN
 10
497.8457007399011
 20
195.3674387599031
 30
0.0
 41
7.0
 42
7.0
 43
7.0
 50
90.0
  0
MTEXT
  5
4B2D
330
470F
100
AcDbEntity
  8
SUNPOU
100
AcDbMText
 10
492.8457007399011
 20
200.0030231312066
 30
0.0
 40
6.0
 41
0.0
 71
     5
 72
     1
  1
\A1;9
 11
1.000000000000000E-16
 21
1.0
 31
0.0
 73
     1
 44
1.0
  0
POINT
  5
4B2E
330
470F
100
AcDbEntity
  8
DEFPOINTS
 62
     0
100
AcDbPoint
 10
527.4430629595785
 20
204.6386075025099
 30
0.0
  0
POINT
  5
4B2F
330
470F
100
AcDbEntity
  8
DEFPOINTS
 62
     0
100
AcDbPoint
 10
527.2483252867728
 20
195.3674387599031
 30
0.0
  0
POINT
  5
4B30
330
470F
100
AcDbEntity
  8
DEFPOINTS
 62
     0
100
AcDbPoint
 10
497.8457007399011
 20
195.3674387599031
 30
0.0
  0
ENDBLK
  5
471C
330
470F
100
AcDbEntity
  8
0
 62
     4
100
AcDbBlockEnd
  0
BLOCK
  5
4735
330
4729
100
AcDbEntity
  8
0
 62
     4
100
AcDbBlockBegin
  2
*D9
 70
     1
 71
     0
 10
0.0
 20
0.0
 30
0.0
  3
*D9
  1

  0
LINE
  5
4B12
330
4729
100
AcDbEntity
  8
SUNPOU
100
AcDbLine
 10
520.1601344480787
 20
154.9184500203732
 30
0.0
 11
494.8457007399011
 21
154.9184500203732
 31
0.0
  0
LINE
  5
4B13
330
4729
100
AcDbEntity
  8
SUNPOU
100
AcDbLine
 10
523.248325286773
 20
165.4558041948556
 30
0.0
 11
494.8457007399011
 21
165.4558041948556
 31
0.0
  0
LINE
  5
4B14
330
4729
100
AcDbEntity
  8
SUNPOU
100
AcDbLine
 10
497.8457007399011
 20
147.9184500203732
 30
0.0
 11
497.8457007399011
 21
140.9184500203732
 31
0.0
  0
LINE
  5
4B15
330
4729
100
AcDbEntity
  8
SUNPOU
100
AcDbLine
 10
497.8457007399011
 20
172.4558041948555
 30
0.0
 11
497.8457007399011
 21
179.4558041948556
 31
0.0
  0
LINE
  5
4B16
330
4729
100
AcDbEntity
  8
SUNPOU
100
AcDbLine
 10
497.8457007399011
 20
154.9184500203732
 30
0.0
 11
497.8457007399011
 21
165.4558041948556
 31
0.0
  0
INSERT
  5
4B17
330
4729
100
AcDbEntity
  8
SUNPOU
100
AcDbBlockReference
  2
_OPEN
 10
497.8457007399011
 20
154.9184500203732
 30
0.0
 41
7.0
 42
7.0
 43
7.0
 50
90.0
  0
INSERT
  5
4B18
330
4729
100
AcDbEntity
  8
SUNPOU
100
AcDbBlockReference
  2
_OPEN
 10
497.8457007399011
 20
165.4558041948556
 30
0.0
 41
7.0
 42
7.0
 43
7.0
 50
270.0
  0
MTEXT
  5
4B19
330
4729
100
AcDbEntity
  8
SUNPOU
100
AcDbMText
 10
492.8457007399011
 20
160.1871271076145
 30
0.0
 40
6.0
 41
0.0
 71
     5
 72
     1
  1
\A1;11
 11
1.000000000000000E-16
 21
1.0
 31
0.0
 73
     1
 44
1.0
  0
POINT
  5
4B1A
330
4729
100
AcDbEntity
  8
DEFPOINTS
 62
     0
100
AcDbPoint
 10
526.1601344480786
 20
154.9184500203732
 30
0.0
  0
POINT
  5
4B1B
330
4729
100
AcDbEntity
  8
DEFPOINTS
 62
     0
100
AcDbPoint
 10
529.248325286773
 20
165.4558041948556
 30
0.0
  0
POINT
  5
4B1C
330
4729
100
AcDbEntity
  8
DEFPOINTS
 62
     0
100
AcDbPoint
 10
497.8457007399011
 20
165.4558041948556
 30
0.0
  0
ENDBLK
  5
4736
330
4729
100
AcDbEntity
  8
0
 62
     4
100
AcDbBlockEnd
  0
ENDSEC
  0
SECTION
  2
ENTITIES
  0
LINE
  5
14F1
330
1A
100
AcDbEntity
  8
SEIHIN
100
AcDbLine
 10
276.875968098192
 20
183.9989147039301
 30
0.0
 11
290.1344675627923
 21
196.5407385218302
 31
0.0
  0
LINE
  5
14F5
330
1A
100
AcDbEntity
  8
SEIHIN
100
AcDbLine
 10
285.2218893001922
 20
173.9989147039302
 30
0.0
 11
294.7672215442921
 21
183.0282830430302
 31
0.0
  0
LINE
  5
14FA
330
1A
100
AcDbEntity
  8
CENTER_L
  6
CENTER
 62
     1
 48
5.0
100
AcDbLine
 10
265.4301583020924
 20
146.2661781656302
 30
0.0
 11
265.4301583020924
 21
192.131076802984
 31
0.0
  0
ARC
  5
14FF
330
1A
100
AcDbEntity
  8
SEIHIN
100
AcDbCircle
 10
255.7521237335922
 20
145.6412389676302
 30
0.0
 40
19.99999999999979
100
AcDbArc
 50
24.22774531799797
 51
45.17888544669912
  0
ARC
  5
1500
330
1A
100
AcDbEntity
  8
SEIHIN
100
AcDbCircle
 10
255.7521237335922
 20
145.6412389676302
 30
0.0
 40
19.50000000000007
100
AcDbArc
 50
24.22774531799797
 51
40.95354965840421
  0
LINE
  5
1501
330
1A
100
AcDbEntity
  8
SEIHIN
100
AcDbLine
 10
269.6544931768921
 20
158.3183381368302
 30
0.0
 11
268.971209164692
 21
156.9517701123302
 31
0.0
  0
LINE
  5
1502
330
1A
100
AcDbEntity
  8
SEIHIN
100
AcDbLine
 10
268.3500367742922
 20
156.8274593203302
 30
0.0
 11
269.8500367742922
 21
159.8274593203302
 31
0.0
  0
LINE
  5
1503
330
1A
100
AcDbEntity
  8
SEIHIN
100
AcDbLine
 10
260.8500367742922
 20
159.8274593203302
 30
0.0
 11
262.3500367742922
 21
156.8274593203302
 31
0.0
  0
LINE
  5
1504
330
1A
100
AcDbEntity
  8
SEIHIN
100
AcDbLine
 10
261.0455803716922
 20
158.3183381368302
 30
0.0
 11
261.7288643839924
 21
156.9517701123302
 31
0.0
  0
ARC
  5
1505
330
1A
100
AcDbEntity
  8
SEIHIN
100
AcDbCircle
 10
274.9479498150922
 20
145.6412389676302
 30
0.0
 40
19.9999999999998
100
AcDbArc
 50
134.8211145533008
 51
155.772254682002
  0
ARC
  5
1506
330
1A
100
AcDbEntity
  8
SEIHIN
100
AcDbCircle
 10
274.9479498150922
 20
145.6412389676302
 30
0.0
 40
19.49999999999999
100
AcDbArc
 50
139.0464503415957
 51
155.772254682002
  0
LINE
  5
1507
330
1A
100
AcDbEntity
  8
SEIHIN
100
AcDbLine
 10
274.0210330379923
 20
151.0715605244302
 30
0.0
 11
271.156270799192
 21
150.4986080767302
 31
0.0
  0
LINE
  5
1508
330
1A
100
AcDbEntity
  8
SEIHIN
100
AcDbLine
 10
274.1190911055923
 20
150.5812701866302
 30
0.0
 11
271.254328866692
 21
150.0083177388302
 31
0.0
  0
ARC
  5
1509
330
1A
100
AcDbEntity
  8
SEIHIN
100
AcDbCircle
 10
271.0582127315924
 20
150.9888984145302
 30
0.0
 40
0.5000000000003146
100
AcDbArc
 50
195.945395900892
 51
281.3099324739711
  0
ARC
  5
150A
330
1A
100
AcDbEntity
  8
SEIHIN
100
AcDbCircle
 10
271.0582127315924
 20
150.9888984145302
 30
0.0
 40
1.000000000000188
100
AcDbArc
 50
195.9453959008982
 51
281.3099324739977
  0
ARC
  5
150B
330
1A
100
AcDbEntity
  8
SEIHIN
100
AcDbCircle
 10
269.4184227601922
 20
156.7281633145302
 30
0.0
 40
0.4999999999998817
100
AcDbArc
 50
153.4349488228994
 51
195.9453959010048
  0
ARC
  5
150C
330
1A
100
AcDbEntity
  8
SEIHIN
100
AcDbCircle
 10
267.9728860678924
 20
156.3274593203302
 30
0.0
 40
0.4999999999996549
100
AcDbArc
 50
15.94539590100561
 51
89.99999999973944
  0
LINE
  5
150D
330
1A
100
AcDbEntity
  8
SEIHIN
100
AcDbLine
 10
267.8500367742922
 20
156.8274593203302
 30
0.0
 11
267.8500367742922
 21
153.2661781656302
 31
0.0
  0
LINE
  5
150E
330
1A
100
AcDbEntity
  8
SEIHIN
100
AcDbLine
 10
268.9376607862923
 20
156.5908027506301
 30
0.0
 11
270.5774507577921
 21
150.8515378506302
 31
0.0
  0
LINE
  5
150F
330
1A
100
AcDbEntity
  8
SEIHIN
100
AcDbLine
 10
268.4536480417923
 20
156.4648198843302
 30
0.0
 11
270.0966887839922
 21
150.7141772866302
 31
0.0
  0
LINE
  5
1510
330
1A
100
AcDbEntity
  8
SEIHIN
100
AcDbLine
 10
262.8500367742922
 20
156.8274593203302
 30
0.0
 11
262.8500367742922
 21
153.2661781656302
 31
0.0
  0
ARC
  5
1511
330
1A
100
AcDbEntity
  8
SEIHIN
100
AcDbCircle
 10
261.2816507884922
 20
156.7281633145302
 30
0.0
 40
0.5000000000001278
100
AcDbArc
 50
344.0546040989943
 51
26.56505117710056
  0
ARC
  5
1512
330
1A
100
AcDbEntity
  8
SEIHIN
100
AcDbCircle
 10
262.7271874806924
 20
156.3274593203302
 30
0.0
 40
0.5
100
AcDbArc
 50
90.00000000031267
 51
164.0546040990069
  0
ARC
  5
1513
330
1A
100
AcDbEntity
  8
SEIHIN
100
AcDbCircle
 10
259.6418608169924
 20
150.9888984145302
 30
0.0
 40
1.000000000000136
100
AcDbArc
 50
258.6900675259756
 51
344.0546040990955
  0
ARC
  5
1514
330
1A
100
AcDbEntity
  8
SEIHIN
100
AcDbCircle
 10
259.6418608169924
 20
150.9888984145302
 30
0.0
 40
0.5000000000000706
100
AcDbArc
 50
258.6900675259756
 51
344.0546040990955
  0
LINE
  5
1515
330
1A
100
AcDbEntity
  8
SEIHIN
100
AcDbLine
 10
262.2464255068921
 20
156.4648198843302
 30
0.0
 11
260.6033847646922
 21
150.7141772866302
 31
0.0
  0
LINE
  5
1516
330
1A
100
AcDbEntity
  8
SEIHIN
100
AcDbLine
 10
261.7624127622921
 20
156.5908027506301
 30
0.0
 11
260.1226227908923
 21
150.8515378506302
 31
0.0
  0
LINE
  5
1517
330
1A
100
AcDbEntity
  8
SEIHIN
100
AcDbLine
 10
262.8500367742922
 20
153.2661781656302
 30
0.0
 11
267.8500367742922
 21
153.2661781656302
 31
0.0
  0
LINE
  5
1518
330
1A
100
AcDbEntity
  8
SEIHIN
100
AcDbLine
 10
268.3500367742922
 20
156.8274593203302
 30
0.0
 11
262.3500367742922
 21
156.8274593203302
 31
0.0
  0
LINE
  5
1519
330
1A
100
AcDbEntity
  8
SEIHIN
100
AcDbLine
 10
256.3211378255923
 20
151.7670332010301
 30
0.0
 11
257.165480464092
 21
153.6433501755302
 31
0.0
  0
LINE
  5
151A
330
1A
100
AcDbEntity
  8
SEIHIN
100
AcDbLine
 10
255.8651770729921
 20
151.9722155396302
 30
0.0
 11
256.7095197115922
 21
153.8485325142302
 31
0.0
  0
ARC
  5
151B
330
1A
100
AcDbEntity
  8
SEIHIN
100
AcDbCircle
 10
256.7770985781921
 20
151.5618508623302
 30
0.0
 40
0.9999999999998736
100
AcDbArc
 50
155.7722546819983
 51
258.6900675258959
  0
ARC
  5
151C
330
1A
100
AcDbEntity
  8
SEIHIN
100
AcDbCircle
 10
256.7770985781921
 20
151.5618508623302
 30
0.0
 40
0.5000000000001696
100
AcDbArc
 50
155.772254682002
 51
258.6900675260288
  0
LINE
  5
151D
330
1A
100
AcDbEntity
  8
SEIHIN
100
AcDbLine
 10
256.5809824429921
 20
150.5812701866302
 30
0.0
 11
259.4457446818923
 21
150.0083177388302
 31
0.0
  0
LINE
  5
151E
330
1A
100
AcDbEntity
  8
SEIHIN
100
AcDbLine
 10
256.6790405105921
 20
151.0715605244302
 30
0.0
 11
259.5438027494924
 21
150.4986080767302
 31
0.0
  0
ARC
  5
151F
330
1A
100
AcDbEntity
  8
SEIHIN
100
AcDbCircle
 10
273.9229749704922
 20
151.5618508623302
 30
0.0
 40
0.4999999999999771
100
AcDbArc
 50
281.3099324739711
 51
24.22774531802188
  0
LINE
  5
1520
330
1A
100
AcDbEntity
  8
SEIHIN
100
AcDbLine
 10
274.8348964755923
 20
151.9722155396302
 30
0.0
 11
273.9905538370921
 21
153.8485325142302
 31
0.0
  0
LINE
  5
1521
330
1A
100
AcDbEntity
  8
SEIHIN
100
AcDbLine
 10
274.3789357230921
 20
151.7670332010301
 30
0.0
 11
273.5345930844923
 21
153.6433501755302
 31
0.0
  0
ARC
  5
1522
330
1A
100
AcDbEntity
  8
SEIHIN
100
AcDbCircle
 10
273.9229749704922
 20
151.5618508623302
 30
0.0
 40
0.9999999999999576
100
AcDbArc
 50
281.309932474104
 51
24.22774531800168
  0
LINE
  5
1523
330
1A
100
AcDbEntity
  8
SEIHIN
100
AcDbLine
 10
270.8500367742922
 20
162.3274593203302
 30
0.0
 11
270.8500367742922
 21
160.8274593203302
 31
0.0
  0
ARC
  5
1524
330
1A
100
AcDbEntity
  8
SEIHIN
100
AcDbCircle
 10
270.1017067164921
 20
158.0947312904302
 30
0.0
 40
0.5000000000002178
100
AcDbArc
 50
40.95354965547275
 51
153.4349409757035
  0
LINE
  5
1525
330
1A
100
AcDbEntity
  8
SEIHIN
100
AcDbLine
 10
269.3500367742922
 20
160.8274593203302
 30
0.0
 11
269.8500367742922
 21
159.8274593203302
 31
0.0
  0
LINE
  5
1526
330
1A
100
AcDbEntity
  8
SEIHIN
100
AcDbLine
 10
259.8500367742922
 20
162.3274593203302
 30
0.0
 11
259.8500367742922
 21
160.8274593203302
 31
0.0
  0
ARC
  5
1527
330
1A
100
AcDbEntity
  8
SEIHIN
100
AcDbCircle
 10
260.5983668321923
 20
158.0947312904302
 30
0.0
 40
0.499999999999988
100
AcDbArc
 50
26.56505902429721
 51
139.0464503445266
  0
LINE
  5
1528
330
1A
100
AcDbEntity
  8
SEIHIN
100
AcDbLine
 10
261.3500367742922
 20
160.8274593203302
 30
0.0
 11
260.8500367742922
 21
159.8274593203302
 31
0.0
  0
LINE
  5
152A
330
1A
100
AcDbEntity
  8
SEIHIN
100
AcDbLine
 10
270.8500367742922
 20
160.8274593203302
 30
0.0
 11
259.8500367742922
 21
160.8274593203302
 31
0.0
  0
LINE
  5
152B
330
1A
100
AcDbEntity
  8
SEIHIN
100
AcDbLine
 10
269.8500367742922
 20
159.8274593203302
 30
0.0
 11
260.8500367742922
 21
159.8274593203302
 31
0.0
  0
LINE
  5
152C
330
1A
100
AcDbEntity
  8
SEIHIN
100
AcDbLine
 10
270.8500367742922
 20
162.3274593203302
 30
0.0
 11
259.8500367742922
 21
162.3274593203302
 31
0.0
  0
LINE
  5
1541
330
1A
100
AcDbEntity
  8
SEIHIN
100
AcDbLine
 10
255.4301583020924
 20
182.6312567887301
 30
0.0
 11
255.4301583020924
 21
176.6312567887301
 31
0.0
  0
LINE
  5
1542
330
1A
100
AcDbEntity
  8
SEIHIN
100
AcDbLine
 10
259.4301583020924
 20
172.6312567887302
 30
0.0
 11
281.7858900307924
 21
172.6312567887302
 31
0.0
  0
LINE
  5
1547
330
1A
100
AcDbEntity
  8
SEIHIN
100
AcDbLine
 10
255.290564805492
 20
177.6312567887301
 30
0.0
 11
255.4301583020924
 21
177.6312567887301
 31
0.0
  0
LINE
  5
154C
330
1A
100
AcDbEntity
  8
SEIHIN
100
AcDbLine
 10
255.4301583020924
 20
176.6312567887301
 30
0.0
 11
259.4301583020924
 21
172.6312567887302
 31
0.0
  0
LINE
  5
154D
330
1A
100
AcDbEntity
  8
SEIHIN
100
AcDbLine
 10
280.1301583020922
 20
172.6319527468962
 30
0.0
 11
280.7301583020921
 21
172.6319527468962
 31
0.0
  0
LINE
  5
154E
330
1A
100
AcDbEntity
  8
SEIHIN
100
AcDbLine
 10
275.1301583020922
 20
172.6319527468962
 30
0.0
 11
275.7301583020921
 21
172.6319527468962
 31
0.0
  0
ARC
  5
1552
330
1A
100
AcDbEntity
  8
SEIHIN
100
AcDbCircle
 10
281.7858900307924
 20
177.6312567887301
 30
0.0
 40
4.999999999999943
100
AcDbArc
 50
270.0
 51
313.4088597288031
  0
LINE
  5
1553
330
1A
100
AcDbEntity
  8
SEIHIN
100
AcDbLine
 10
255.4301583020924
 20
182.6312567887301
 30
0.0
 11
273.4399688287922
 21
182.6312567887301
 31
0.0
  0
LINE
  5
1554
330
1A
100
AcDbEntity
  8
SEIHIN
100
AcDbLine
 10
270.8500367742922
 20
183.6312567887301
 30
0.0
 11
270.8500367742922
 21
182.6312567887301
 31
0.0
  0
LINE
  5
1555
330
1A
100
AcDbEntity
  8
SEIHIN
100
AcDbLine
 10
259.8500367742922
 20
183.6312567887301
 30
0.0
 11
259.8500367742922
 21
182.6312567887301
 31
0.0
  0
ARC
  5
1556
330
1A
100
AcDbEntity
  8
SEIHIN
100
AcDbCircle
 10
265.3500367742922
 20
174.2979234554301
 30
0.0
 40
10.83333333329988
100
AcDbArc
 50
59.48976259390525
 51
120.5102374060947
  0
LINE
  5
1557
330
1A
100
AcDbEntity
  8
SEIHIN
100
AcDbLine
 10
259.8500367742922
 20
183.6312567887301
 30
0.0
 11
270.8500367742922
 21
183.6312567887301
 31
0.0
  0
ARC
  5
1558
330
1A
100
AcDbEntity
  8
SEIHIN
100
AcDbCircle
 10
273.4399688287922
 20
187.6312567887301
 30
0.0
 40
5.0
100
AcDbArc
 50
270.0
 51
313.4088597288042
  0
LINE
  5
1571
330
1A
100
AcDbEntity
  8
SEIHIN
100
AcDbLine
 10
305.0752193524922
 20
187.1312567887301
 30
0.0
 11
328.9301583020924
 21
187.1312567887301
 31
0.0
  0
ARC
  5
1572
330
1A
100
AcDbEntity
  8
SEIHIN
100
AcDbCircle
 10
305.0752193524922
 20
172.1312567887302
 30
0.0
 40
14.99999999999993
100
AcDbArc
 50
90.0
 51
133.4088597288031
  0
ARC
  5
157C
330
1A
100
AcDbEntity
  8
SEIHIN
100
AcDbCircle
 10
300.4424653708927
 20
185.6437122675302
 30
0.0
 40
15.00000000000001
100
AcDbArc
 50
94.99999999999982
 51
133.4088597288042
  0
LINE
  5
1588
330
1A
100
AcDbEntity
  8
SEIHIN
100
AcDbLine
 10
337.4301583020922
 20
203.9370136521301
 30
0.0
 11
335.1801583020923
 21
203.7401641591888
 31
0.0
  0
LINE
  5
158A
330
1A
100
AcDbEntity
  8
SEIHIN
100
AcDbLine
 10
328.9301583020923
 20
203.1933600121878
 30
0.0
 11
299.1351292296924
 21
200.5866327388301
 31
0.0
  0
LINE
  5
1592
330
1A
100
AcDbEntity
  8
SEIHIN
100
AcDbLine
 10
346.4301583020928
 20
204.7244116238301
 30
0.0
 11
339.4301583020928
 21
204.1119909791301
 31
0.0
  0
LINE
  5
1594
330
1A
100
AcDbEntity
  8
SEIHIN
100
AcDbLine
 10
346.4301583020928
 20
204.7244116238301
 30
0.0
 11
354.4301583020928
 21
204.7244116238301
 31
0.0
  0
LINE
  5
1598
330
1A
100
AcDbEntity
  8
SEIHIN
100
AcDbLine
 10
305.6260688791926
 20
175.1897227401301
 30
0.0
 11
286.4807435098771
 21
175.1897227401301
 31
0.0
  0
LINE
  5
1599
330
1A
100
AcDbEntity
  8
SEIHIN
100
AcDbLine
 10
307.7494738858927
 20
164.64102746273
 30
0.0
 11
307.7494738858927
 21
174.9145818989302
 31
0.0
  0
ARC
  5
159A
330
1A
100
AcDbEntity
  8
SEIHIN
100
AcDbCircle
 10
311.1147143354924
 20
187.7325270174302
 30
0.0
 40
11.81931558380006
100
AcDbArc
 50
270.0
 51
316.6846843178972
  0
ARC
  5
159B
330
1A
100
AcDbEntity
  8
SEIHIN
100
AcDbCircle
 10
311.1147143354924
 20
187.7325270174302
 30
0.0
 40
10.0
100
AcDbArc
 50
270.0
 51
316.684684317904
  0
LINE
  5
159C
330
1A
100
AcDbEntity
  8
SEIHIN
100
AcDbLine
 10
303.3203393666926
 20
177.5825579313302
 30
0.0
 11
302.9301599113923
 21
177.5805444119301
 31
0.0
  0
LINE
  5
159D
330
1A
100
AcDbEntity
  8
SEIHIN
100
AcDbLine
 10
303.6955245284925
 20
177.5885202584302
 30
0.0
 11
303.3203393666926
 21
177.5825579313302
 31
0.0
  0
LINE
  5
159E
330
1A
100
AcDbEntity
  8
SEIHIN
100
AcDbLine
 10
304.0412985234925
 20
177.5982004253302
 30
0.0
 11
303.6955245284925
 21
177.5885202584302
 31
0.0
  0
LINE
  5
159F
330
1A
100
AcDbEntity
  8
SEIHIN
100
AcDbLine
 10
304.3443732409923
 20
177.6112296281302
 30
0.0
 11
304.0412985234925
 21
177.5982004253302
 31
0.0
  0
LINE
  5
15A0
330
1A
100
AcDbEntity
  8
SEIHIN
100
AcDbLine
 10
304.5930959730926
 20
177.6271068153302
 30
0.0
 11
304.3443732409923
 21
177.6112296281302
 31
0.0
  0
LINE
  5
15A1
330
1A
100
AcDbEntity
  8
SEIHIN
100
AcDbLine
 10
304.7779188005924
 20
177.6452191768302
 30
0.0
 11
304.5930959730926
 21
177.6271068153302
 31
0.0
  0
LINE
  5
15A2
330
1A
100
AcDbEntity
  8
SEIHIN
100
AcDbLine
 10
304.8917301444926
 20
177.6648719457301
 30
0.0
 11
304.7779188005924
 21
177.6452191768302
 31
0.0
  0
LINE
  5
15A3
330
1A
100
AcDbEntity
  8
SEIHIN
100
AcDbLine
 10
304.9301565139926
 20
177.6853126136302
 30
0.0
 11
304.8917301444926
 21
177.6648719457301
 31
0.0
  0
LINE
  5
15A4
330
1A
100
AcDbEntity
  8
SEIHIN
100
AcDbLine
 10
304.8917301444926
 20
177.6874565182301
 30
0.0
 11
304.9301565139926
 21
177.7010780422301
 31
0.0
  0
LINE
  5
15A5
330
1A
100
AcDbEntity
  8
SEIHIN
100
AcDbLine
 10
304.7779188005924
 20
177.6743583975302
 30
0.0
 11
304.8917301444926
 21
177.6874565182301
 31
0.0
  0
LINE
  5
15A6
330
1A
100
AcDbEntity
  8
SEIHIN
100
AcDbLine
 10
304.5930959730926
 20
177.6622865943302
 30
0.0
 11
304.7779188005924
 21
177.6743583975302
 31
0.0
  0
LINE
  5
15A7
330
1A
100
AcDbEntity
  8
SEIHIN
100
AcDbLine
 10
304.3443732409923
 20
177.6517067698302
 30
0.0
 11
304.5930959730926
 21
177.6622865943302
 31
0.0
  0
LINE
  5
15A8
330
1A
100
AcDbEntity
  8
SEIHIN
100
AcDbLine
 10
304.0412985234925
 20
177.6430231181302
 30
0.0
 11
304.3443732409923
 21
177.6517067698302
 31
0.0
  0
LINE
  5
15A9
330
1A
100
AcDbEntity
  8
SEIHIN
100
AcDbLine
 10
303.6955245284925
 20
177.6365709153302
 30
0.0
 11
304.0412985234925
 21
177.6430231181302
 31
0.0
  0
LINE
  5
15AA
330
1A
100
AcDbEntity
  8
SEIHIN
100
AcDbLine
 10
303.3203393666926
 20
177.6325978932302
 30
0.0
 11
303.6955245284925
 21
177.6365709153302
 31
0.0
  0
LINE
  5
15AB
330
1A
100
AcDbEntity
  8
SEIHIN
100
AcDbLine
 10
302.9301599113923
 20
177.6312567887301
 30
0.0
 11
303.3203393666926
 21
177.6325978932302
 31
0.0
  0
LINE
  5
15AC
330
1A
100
AcDbEntity
  8
SEIHIN
100
AcDbLine
 10
308.5536160020924
 20
175.8935578761302
 30
0.0
 11
308.7481022326924
 21
175.9132106451302
 31
0.0
  0
LINE
  5
15AD
330
1A
100
AcDbEntity
  8
SEIHIN
100
AcDbLine
 10
308.3665766267927
 20
175.8364119229302
 30
0.0
 11
308.5536160020924
 21
175.8935578761302
 31
0.0
  0
LINE
  5
15AE
330
1A
100
AcDbEntity
  8
SEIHIN
100
AcDbLine
 10
308.1941441147924
 20
175.7439632562302
 30
0.0
 11
308.3665766267927
 21
175.8364119229302
 31
0.0
  0
LINE
  5
15AF
330
1A
100
AcDbEntity
  8
SEIHIN
100
AcDbLine
 10
308.0429308562925
 20
175.6197546271302
 30
0.0
 11
308.1941441147924
 21
175.7439632562302
 31
0.0
  0
LINE
  5
15B0
330
1A
100
AcDbEntity
  8
SEIHIN
100
AcDbLine
 10
307.9187222270925
 20
175.4685395060302
 30
0.0
 11
308.0429308562925
 21
175.6197546271302
 31
0.0
  0
LINE
  5
15B1
330
1A
100
AcDbEntity
  8
SEIHIN
100
AcDbLine
 10
307.8262754230927
 20
175.2961107192302
 30
0.0
 11
307.9187222270925
 21
175.4685395060302
 31
0.0
  0
LINE
  5
15B2
330
1A
100
AcDbEntity
  8
SEIHIN
100
AcDbLine
 10
307.7691294698924
 20
175.1090694813301
 30
0.0
 11
307.8262754230927
 21
175.2961107192302
 31
0.0
  0
LINE
  5
15B3
330
1A
100
AcDbEntity
  8
SEIHIN
100
AcDbLine
 10
307.7494748382923
 20
174.9145813880302
 30
0.0
 11
307.7691294698924
 21
175.1090694813301
 31
0.0
  0
LINE
  5
15B4
330
1A
100
AcDbEntity
  8
SEIHIN
100
AcDbLine
 10
306.0034014730927
 20
175.1869001088301
 30
0.0
 11
305.6260705439926
 21
175.1897220162302
 31
0.0
  0
LINE
  5
15B5
330
1A
100
AcDbEntity
  8
SEIHIN
100
AcDbLine
 10
306.3671835212926
 20
175.1785293815302
 30
0.0
 11
306.0034014730927
 21
175.1869001088301
 31
0.0
  0
LINE
  5
15B6
330
1A
100
AcDbEntity
  8
SEIHIN
100
AcDbLine
 10
306.7043446450925
 20
175.1649153081301
 30
0.0
 11
306.3671835212926
 21
175.1785293815302
 31
0.0
  0
LINE
  5
15B7
330
1A
100
AcDbEntity
  8
SEIHIN
100
AcDbLine
 10
307.0027776508927
 20
175.1465459017301
 30
0.0
 11
306.7043446450925
 21
175.1649153081301
 31
0.0
  0
LINE
  5
15B8
330
1A
100
AcDbEntity
  8
SEIHIN
100
AcDbLine
 10
307.2517611532926
 20
175.1240786759301
 30
0.0
 11
307.0027776508927
 21
175.1465459017301
 31
0.0
  0
LINE
  5
15B9
330
1A
100
AcDbEntity
  8
SEIHIN
100
AcDbLine
 10
307.4423544554925
 20
175.0983220188302
 30
0.0
 11
307.2517611532926
 21
175.1240786759301
 31
0.0
  0
LINE
  5
15BA
330
1A
100
AcDbEntity
  8
SEIHIN
100
AcDbLine
 10
307.5677104740925
 20
175.0702016649302
 30
0.0
 11
307.4423544554925
 21
175.0983220188302
 31
0.0
  0
LINE
  5
15BB
330
1A
100
AcDbEntity
  8
SEIHIN
100
AcDbLine
 10
307.6233290581926
 20
175.0407271681301
 30
0.0
 11
307.5677104740925
 21
175.0702016649302
 31
0.0
  0
LINE
  5
15BC
330
1A
100
AcDbEntity
  8
SEIHIN
100
AcDbLine
 10
308.7481034205925
 20
175.9132114336301
 30
0.0
 11
311.1147143354924
 21
175.9132114336301
 31
0.0
  0
LINE
  5
15BD
330
1A
100
AcDbEntity
  8
SEIHIN
100
AcDbLine
 10
307.7494738858927
 20
174.9145818989302
 30
0.0
 11
307.6233279486925
 21
175.0407278360302
 31
0.0
  0
LINE
  5
15BE
330
1A
100
AcDbEntity
  8
SEIHIN
100
AcDbLine
 10
311.1147143354924
 20
177.7325270174302
 30
0.0
 11
304.9301565139926
 21
177.7325269429302
 31
0.0
  0
LINE
  5
15BF
330
1A
100
AcDbEntity
  8
SEIHIN
100
AcDbLine
 10
304.9301565139926
 20
177.7325269429302
 30
0.0
 11
304.9301565139926
 21
177.6853126136302
 31
0.0
  0
ARC
  5
15C2
330
1A
100
AcDbEntity
  8
SEIHIN
100
AcDbCircle
 10
237.5521167127926
 20
193.3325270174301
 30
0.0
 40
1.180684416200051
100
AcDbArc
 50
90.0
 51
192.8042660652965
  0
ARC
  5
15C3
330
1A
100
AcDbEntity
  8
SEIHIN
100
AcDbCircle
 10
236.8809525359925
 20
191.3325270174301
 30
0.0
 40
5.000000000000211
100
AcDbArc
 50
19.26259914129925
 51
90.0
  0
ARC
  5
15C4
330
1A
100
AcDbEntity
  8
SEIHIN
100
AcDbCircle
 10
237.5907936891926
 20
192.3325270174301
 30
0.0
 40
2.18068441620002
100
AcDbArc
 50
19.26259914130232
 51
90.0
  0
ARC
  5
15C5
330
1A
100
AcDbEntity
  8
SEIHIN
100
AcDbCircle
 10
222.4328901835924
 20
195.9605263377302
 30
0.0
 40
1.999999999999996
100
AcDbArc
 50
182.4453492580996
 51
258.3106308246064
  0
LINE
  5
15C6
330
1A
100
AcDbEntity
  8
SEIHIN
100
AcDbLine
 10
222.0276789755926
 20
194.0020054987302
 30
0.0
 11
231.7803664779926
 21
191.9842080844301
 31
0.0
  0
LINE
  5
15C7
330
1A
100
AcDbEntity
  8
SEIHIN
100
AcDbLine
 10
305.6125751175927
 20
163.4095127913301
 30
0.0
 11
253.2583423404926
 21
164.11700242343
 31
0.0
  0
LINE
  5
15C8
330
1A
100
AcDbEntity
  8
SEIHIN
100
AcDbLine
 10
254.4301584808926
 20
162.65311992153
 30
0.0
 11
302.9301599113923
 21
161.99749490603
 31
0.0
  0
LINE
  5
15C9
330
1A
100
AcDbEntity
  8
SEIHIN
100
AcDbLine
 10
254.7384113519924
 20
177.6312567887301
 30
0.0
 11
255.4301583020924
 21
177.6312567887301
 31
0.0
  0
TEXT
  5
15CA
330
1A
100
AcDbEntity
  8
SEIHIN
100
AcDbText
 10
253.2197008915777
 20
169.2748200880844
 30
0.0
 40
3.174999952316284
  1
10
  7
STYLE2
100
AcDbText
  0
TEXT
  5
15CB
330
1A
100
AcDbEntity
  8
SEIHIN
100
AcDbText
 10
263.7642703751025
 20
169.2786199647866
 30
0.0
 40
3.174999952316284
  1
20
  7
STYLE2
100
AcDbText
  0
TEXT
  5
15CC
330
1A
100
AcDbEntity
  8
SEIHIN
100
AcDbText
 10
273.6523036454084
 20
169.2949020160686
 30
0.0
 40
3.174999952316284
  1
30
  7
STYLE2
100
AcDbText
  0
TEXT
  5
15CD
330
1A
100
AcDbEntity
  8
SEIHIN
100
AcDbText
 10
288.8815644496755
 20
169.2617406697918
 30
0.0
 40
3.174999952316284
  1
45
  7
STYLE2
100
AcDbText
  0
LINE
  5
15CE
330
1A
100
AcDbEntity
  8
SEIHIN
100
AcDbLine
 10
249.6108427183926
 20
176.3468373811301
 30
0.0
 11
249.6108427183926
 21
166.38708409053
 31
0.0
  0
LINE
  5
15CF
330
1A
100
AcDbEntity
  8
SEIHIN
100
AcDbLine
 10
251.7342477249926
 20
175.5271284704301
 30
0.0
 11
251.7342477249926
 21
165.2317619373301
 31
0.0
  0
ARC
  5
15D0
330
1A
100
AcDbEntity
  8
SEIHIN
100
AcDbCircle
 10
253.4401612162923
 20
177.5715992310301
 30
0.0
 40
13.18068441619968
100
AcDbArc
 50
192.8042660652997
 51
246.6519006451989
  0
ARC
  5
15D1
330
1A
100
AcDbEntity
  8
SEIHIN
100
AcDbCircle
 10
253.4401612162923
 20
177.5715992310301
 30
0.0
 40
14.99999999999993
100
AcDbArc
 50
192.8042660652997
 51
266.139151902798
  0
LINE
  5
15D2
330
1A
100
AcDbEntity
  8
SEIHIN
100
AcDbLine
 10
253.6046192495926
 20
162.65804848053
 30
0.0
 11
253.2385945765927
 21
162.65547430493
 31
0.0
  0
LINE
  5
15D3
330
1A
100
AcDbEntity
  8
SEIHIN
100
AcDbLine
 10
254.0078670232924
 20
162.6572549937301
 30
0.0
 11
253.6046192495926
 21
162.65804848053
 31
0.0
  0
LINE
  5
15D4
330
1A
100
AcDbEntity
  8
SEIHIN
100
AcDbLine
 10
254.4301584808926
 20
162.65311992153
 30
0.0
 11
254.0078670232924
 21
162.6572549937301
 31
0.0
  0
LINE
  5
15D5
330
1A
100
AcDbEntity
  8
SEIHIN
100
AcDbLine
 10
252.4962708799926
 20
162.64563581323
 30
0.0
 11
252.4301618783924
 21
162.63210928423
 31
0.0
  0
LINE
  5
15D6
330
1A
100
AcDbEntity
  8
SEIHIN
100
AcDbLine
 10
252.7740657775925
 20
162.65203586203
 30
0.0
 11
252.4962708799926
 21
162.64563581323
 31
0.0
  0
LINE
  5
15D7
330
1A
100
AcDbEntity
  8
SEIHIN
100
AcDbLine
 10
253.2385945765927
 20
162.65547430493
 30
0.0
 11
252.7740657775925
 21
162.65203586203
 31
0.0
  0
LINE
  5
15D8
330
1A
100
AcDbEntity
  8
SEIHIN
100
AcDbLine
 10
251.6012996880927
 20
164.27008590083
 30
0.0
 11
251.5974924414927
 21
164.2425411043301
 31
0.0
  0
LINE
  5
15D9
330
1A
100
AcDbEntity
  8
SEIHIN
100
AcDbLine
 10
251.6098827569926
 20
164.33217345163
 30
0.0
 11
251.6012996880927
 21
164.27008590083
 31
0.0
  0
LINE
  5
15DA
330
1A
100
AcDbEntity
  8
SEIHIN
100
AcDbLine
 10
251.6229361741925
 20
164.42657230773
 30
0.0
 11
251.6098827569926
 21
164.33217345163
 31
0.0
  0
LINE
  5
15DB
330
1A
100
AcDbEntity
  8
SEIHIN
100
AcDbLine
 10
251.6399831025923
 20
164.5498924551301
 30
0.0
 11
251.6229361741925
 21
164.42657230773
 31
0.0
  0
LINE
  5
15DC
330
1A
100
AcDbEntity
  8
SEIHIN
100
AcDbLine
 10
251.6604200451924
 20
164.69770266093
 30
0.0
 11
251.6399831025923
 21
164.5498924551301
 31
0.0
  0
LINE
  5
15DD
330
1A
100
AcDbEntity
  8
SEIHIN
100
AcDbLine
 10
251.6835019438926
 20
164.8646962491301
 30
0.0
 11
251.6604200451924
 21
164.69770266093
 31
0.0
  0
LINE
  5
15DE
330
1A
100
AcDbEntity
  8
SEIHIN
100
AcDbLine
 10
251.7084092347927
 20
165.04487177713
 30
0.0
 11
251.6835019438926
 21
164.8646962491301
 31
0.0
  0
LINE
  5
15DF
330
1A
100
AcDbEntity
  8
SEIHIN
100
AcDbLine
 10
251.7342478482924
 20
165.2317621408301
 30
0.0
 11
251.7084092347927
 21
165.04487177713
 31
0.0
  0
LINE
  5
15E0
330
1A
100
AcDbEntity
  8
SEIHIN
100
AcDbLine
 10
249.5795771925925
 20
166.1435846833301
 30
0.0
 11
249.6108398287924
 21
166.38708455843
 31
0.0
  0
LINE
  5
15E1
330
1A
100
AcDbEntity
  8
SEIHIN
100
AcDbLine
 10
249.4897008387924
 20
165.91483695783
 30
0.0
 11
249.5795771925925
 21
166.1435846833301
 31
0.0
  0
LINE
  5
15E2
330
1A
100
AcDbEntity
  8
SEIHIN
100
AcDbLine
 10
249.3466645924927
 20
165.71470132453
 30
0.0
 11
249.4897008387924
 21
165.91483695783
 31
0.0
  0
LINE
  5
15E3
330
1A
100
AcDbEntity
  8
SEIHIN
100
AcDbLine
 10
249.1591334788927
 20
165.5553017405301
 30
0.0
 11
249.3466645924927
 21
165.71470132453
 31
0.0
  0
LINE
  5
15E4
330
1A
100
AcDbEntity
  8
SEIHIN
100
AcDbLine
 10
248.9384621827925
 20
165.4462960211301
 30
0.0
 11
249.1591334788927
 21
165.5553017405301
 31
0.0
  0
LINE
  5
15E5
330
1A
100
AcDbEntity
  8
SEIHIN
100
AcDbLine
 10
248.6980244963924
 20
165.39428910593
 30
0.0
 11
248.9384621827925
 21
165.4462960211301
 31
0.0
  0
LINE
  5
15E6
330
1A
100
AcDbEntity
  8
SEIHIN
100
AcDbLine
 10
248.4523937551926
 20
165.40243072783
 30
0.0
 11
248.6980244963924
 21
165.39428910593
 31
0.0
  0
LINE
  5
15E7
330
1A
100
AcDbEntity
  8
SEIHIN
100
AcDbLine
 10
248.2164413182927
 20
165.47022914863
 30
0.0
 11
248.4523937551926
 21
165.40243072783
 31
0.0
  0
ARC
  5
15E8
330
1A
100
AcDbEntity
  8
SEIHIN
100
AcDbCircle
 10
253.4401612162923
 20
177.5715992310301
 30
0.0
 40
13.45582525750011
100
AcDbArc
 50
262.129067727798
 51
269.2257798351028
  0
LINE
  5
15E9
330
1A
100
AcDbEntity
  8
SEIHIN
100
AcDbLine
 10
252.4301583018925
 20
162.60564138953
 30
0.0
 11
252.4301618783924
 21
162.64534896593
 31
0.0
  0
ARC
  5
15EA
330
1A
100
AcDbEntity
  8
SEIHIN
100
AcDbCircle
 10
254.7384109874924
 20
188.7325270174302
 30
0.0
 40
10.99999999999988
100
AcDbArc
 50
199.2625991412992
 51
257.8869563829032
  0
ARC
  5
15EB
330
1A
100
AcDbEntity
  8
SEIHIN
100
AcDbCircle
 10
254.7384109874924
 20
188.7325270174302
 30
0.0
 40
12.81931558379975
100
AcDbArc
 50
199.2625991412992
 51
243.6821247702012
  0
LINE
  5
15EC
330
1A
100
AcDbEntity
  8
SEIHIN
100
AcDbLine
 10
235.6430027367926
 20
188.1960115048301
 30
0.0
 11
238.8131683793926
 21
174.2472826772302
 31
0.0
  0
LINE
  5
15ED
330
1A
100
AcDbEntity
  8
SEIHIN
100
AcDbLine
 10
240.5872427801925
 20
174.6504814046302
 30
0.0
 11
236.4007925461923
 21
193.0708624340302
 31
0.0
  0
LINE
  5
15EE
330
1A
100
AcDbEntity
  8
SEIHIN
100
AcDbLine
 10
253.9799273459925
 20
177.6589859871302
 30
0.0
 11
254.4301584808926
 21
177.6355352846302
 31
0.0
  0
LINE
  5
15EF
330
1A
100
AcDbEntity
  8
SEIHIN
100
AcDbLine
 10
253.3540711252926
 20
177.7289339004302
 30
0.0
 11
253.9799273459925
 21
177.6589859871302
 31
0.0
  0
LINE
  5
15F0
330
1A
100
AcDbEntity
  8
SEIHIN
100
AcDbLine
 10
252.8575122802926
 20
177.8187804518302
 30
0.0
 11
253.3540711252926
 21
177.7289339004302
 31
0.0
  0
LINE
  5
15F1
330
1A
100
AcDbEntity
  8
SEIHIN
100
AcDbLine
 10
252.5405794827924
 20
177.8988145886302
 30
0.0
 11
252.8575122802926
 21
177.8187804518302
 31
0.0
  0
LINE
  5
15F2
330
1A
100
AcDbEntity
  8
SEIHIN
100
AcDbLine
 10
252.4301618783924
 20
177.9451907275301
 30
0.0
 11
252.5405794827924
 21
177.8988145886302
 31
0.0
  0
LINE
  5
15F3
330
1A
100
AcDbEntity
  8
SEIHIN
100
AcDbLine
 10
249.6010125129923
 20
176.4850408433302
 30
0.0
 11
249.6108398287924
 21
176.3468381611302
 31
0.0
  0
LINE
  5
15F4
330
1A
100
AcDbEntity
  8
SEIHIN
100
AcDbLine
 10
249.5721862165924
 20
176.6205873934302
 30
0.0
 11
249.6010125129923
 21
176.4850408433302
 31
0.0
  0
LINE
  5
15F5
330
1A
100
AcDbEntity
  8
SEIHIN
100
AcDbLine
 10
249.5249197332925
 20
176.7508756963302
 30
0.0
 11
249.5721862165924
 21
176.6205873934302
 31
0.0
  0
LINE
  5
15F6
330
1A
100
AcDbEntity
  8
SEIHIN
100
AcDbLine
 10
249.4601145832926
 20
176.8734004942301
 30
0.0
 11
249.5249197332925
 21
176.7508756963302
 31
0.0
  0
LINE
  5
15F7
330
1A
100
AcDbEntity
  8
SEIHIN
100
AcDbLine
 10
249.3790224640924
 20
176.9858092663302
 30
0.0
 11
249.4601145832926
 21
176.8734004942301
 31
0.0
  0
LINE
  5
15F8
330
1A
100
AcDbEntity
  8
SEIHIN
100
AcDbLine
 10
249.2831930963925
 20
177.0859432069302
 30
0.0
 11
249.3790224640924
 21
176.9858092663302
 31
0.0
  0
LINE
  5
15F9
330
1A
100
AcDbEntity
  8
SEIHIN
100
AcDbLine
 10
249.1744742243927
 20
177.1718763409302
 30
0.0
 11
249.2831930963925
 21
177.0859432069302
 31
0.0
  0
LINE
  5
15FA
330
1A
100
AcDbEntity
  8
SEIHIN
100
AcDbLine
 10
249.0549594609924
 20
177.2419565020302
 30
0.0
 11
249.1744742243927
 21
177.1718763409302
 31
0.0
  0
LINE
  5
15FB
330
1A
100
AcDbEntity
  8
SEIHIN
100
AcDbLine
 10
254.5842662899926
 20
177.6323259471302
 30
0.0
 11
254.4301584808926
 21
177.6355352846302
 31
0.0
  0
LINE
  5
15FC
330
1A
100
AcDbEntity
  8
SEIHIN
100
AcDbLine
 10
254.7384113519924
 20
177.6312567887301
 30
0.0
 11
254.5842662899926
 21
177.6323259471302
 31
0.0
  0
ARC
  5
15FD
330
1A
100
AcDbEntity
  8
SEIHIN
100
AcDbCircle
 10
254.7384109874924
 20
188.7325270174302
 30
0.0
 40
13.5428042773
100
AcDbArc
 50
257.1836201120004
 51
270.0
  0
LINE
  5
15FE
330
1A
100
AcDbEntity
  8
SEIHIN
100
AcDbLine
 10
255.6801583020924
 20
173.0805444119301
 30
0.0
 11
255.6801583020924
 21
174.5805444119302
 31
0.0
  0
LINE
  5
15FF
330
1A
100
AcDbEntity
  8
SEIHIN
100
AcDbLine
 10
255.1801583020924
 20
173.0805444119301
 30
0.0
 11
255.1801583020924
 21
174.5805444119302
 31
0.0
  0
LINE
  5
1600
330
1A
100
AcDbEntity
  8
SEIHIN
100
AcDbLine
 10
255.1801583020924
 20
173.0805444119301
 30
0.0
 11
255.6801583020924
 21
173.0805444119301
 31
0.0
  0
LINE
  5
1601
330
1A
100
AcDbEntity
  8
SEIHIN
100
AcDbLine
 10
255.1801583020924
 20
174.5805444119302
 30
0.0
 11
255.6801583020924
 21
174.5805444119302
 31
0.0
  0
LINE
  5
1602
330
1A
100
AcDbEntity
  8
SEIHIN
100
AcDbLine
 10
252.4301618783924
 20
177.9290248302302
 30
0.0
 11
252.4301582956925
 21
177.9774366174301
 31
0.0
  0
ARC
  5
1603
330
1A
100
AcDbEntity
  8
SEIHIN
100
AcDbCircle
 10
230.7673384577924
 20
187.0879059869301
 30
0.0
 40
5.000000000000135
100
AcDbArc
 50
12.80426606529974
 51
78.31063082459973
  0
LINE
  5
1604
330
1A
100
AcDbEntity
  8
SEIHIN
100
AcDbLine
 10
244.3542294902927
 20
185.1036463866302
 30
0.0
 11
241.6010350347923
 21
192.9820182132301
 31
0.0
  0
LINE
  5
1605
330
1A
100
AcDbEntity
  8
SEIHIN
100
AcDbLine
 10
239.6493957588925
 20
193.0519309664301
 30
0.0
 11
242.6367655609924
 21
184.5034573791301
 31
0.0
  0
LINE
  5
160A
330
1A
100
AcDbEntity
  8
SEIHIN
100
AcDbLine
 10
260.1801583020924
 20
172.5805444119302
 30
0.0
 11
260.1801583020924
 21
172.6312567887302
 31
0.0
  0
LINE
  5
160B
330
1A
100
AcDbEntity
  8
SEIHIN
100
AcDbLine
 10
260.6801583020924
 20
172.5805444119302
 30
0.0
 11
260.6801583020924
 21
172.6312567887302
 31
0.0
  0
LINE
  5
160C
330
1A
100
AcDbEntity
  8
SEIHIN
100
AcDbLine
 10
260.1801583020924
 20
172.5805444119302
 30
0.0
 11
260.6801583020924
 21
172.5805444119302
 31
0.0
  0
LINE
  5
1612
330
1A
100
AcDbEntity
  8
SEIHIN
100
AcDbLine
 10
270.6801583020924
 20
172.5805444119302
 30
0.0
 11
270.6801583020924
 21
172.6312567887302
 31
0.0
  0
LINE
  5
1613
330
1A
100
AcDbEntity
  8
SEIHIN
100
AcDbLine
 10
270.1801583020924
 20
172.5805444119302
 30
0.0
 11
270.1801583020924
 21
172.6312567887302
 31
0.0
  0
LINE
  5
1614
330
1A
100
AcDbEntity
  8
SEIHIN
100
AcDbLine
 10
270.1801583020924
 20
172.5805444119302
 30
0.0
 11
270.6801583020924
 21
172.5805444119302
 31
0.0
  0
LINE
  5
1616
330
1A
100
AcDbEntity
  8
SEIHIN
100
AcDbLine
 10
290.1801583020924
 20
173.0805444119301
 30
0.0
 11
290.1801583020924
 21
174.5805444119302
 31
0.0
  0
LINE
  5
1617
330
1A
100
AcDbEntity
  8
SEIHIN
100
AcDbLine
 10
290.6801583020924
 20
173.0805444119301
 30
0.0
 11
290.6801583020924
 21
174.5805444119302
 31
0.0
  0
LINE
  5
1618
330
1A
100
AcDbEntity
  8
SEIHIN
100
AcDbLine
 10
290.1801583020924
 20
173.0805444119301
 30
0.0
 11
290.6801583020924
 21
173.0805444119301
 31
0.0
  0
LINE
  5
1619
330
1A
100
AcDbEntity
  8
SEIHIN
100
AcDbLine
 10
290.1801583020924
 20
174.5805444119302
 30
0.0
 11
290.6801583020924
 21
174.5805444119302
 31
0.0
  0
LINE
  5
161A
330
1A
100
AcDbEntity
  8
SEIHIN
100
AcDbLine
 10
280.6801583020924
 20
172.5805444119302
 30
0.0
 11
280.6801583020924
 21
172.6312567887302
 31
0.0
  0
LINE
  5
161B
330
1A
100
AcDbEntity
  8
SEIHIN
100
AcDbLine
 10
280.1801583020924
 20
172.5805444119302
 30
0.0
 11
280.1801583020924
 21
172.6312567887302
 31
0.0
  0
LINE
  5
161C
330
1A
100
AcDbEntity
  8
SEIHIN
100
AcDbLine
 10
280.1801583020924
 20
172.5805444119302
 30
0.0
 11
280.6801583020924
 21
172.5805444119302
 31
0.0
  0
LINE
  5
161E
330
1A
100
AcDbEntity
  8
SEIHIN
100
AcDbLine
 10
285.6801583020924
 20
172.5805444119302
 30
0.0
 11
285.6801583020924
 21
174.4324124084344
 31
0.0
  0
LINE
  5
161F
330
1A
100
AcDbEntity
  8
SEIHIN
100
AcDbLine
 10
285.1801583020924
 20
172.5805444119302
 30
0.0
 11
285.1801583020924
 21
173.959888800848
 31
0.0
  0
LINE
  5
1620
330
1A
100
AcDbEntity
  8
SEIHIN
100
AcDbLine
 10
285.1801583020924
 20
172.5805444119302
 30
0.0
 11
285.6801583020924
 21
172.5805444119302
 31
0.0
  0
LINE
  5
1622
330
1A
100
AcDbEntity
  8
SEIHIN
100
AcDbLine
 10
344.9301583020924
 20
184.3325270174301
 30
0.0
 11
344.9301583020924
 21
168.3169643278301
 31
0.0
  0
LINE
  5
1624
330
1A
100
AcDbEntity
  8
SEIHIN
100
AcDbLine
 10
331.5882724448042
 20
187.1312567887301
 30
0.0
 11
316.2857659607925
 21
166.01379784093
 31
0.0
  0
LINE
  5
1625
330
1A
100
AcDbEntity
  8
SEIHIN
100
AcDbLine
 10
317.7589564686927
 20
164.9462684873301
 30
0.0
 11
333.0346524956926
 21
186.0267290045302
 31
0.0
  0
ARC
  5
1626
330
1A
100
AcDbEntity
  8
SEIHIN
100
AcDbCircle
 10
318.5687063114924
 20
164.35949323893
 30
0.0
 40
0.9999999999999129
100
AcDbArc
 50
144.0714975772011
 51
284.0362434679067
  0
LINE
  5
1627
330
1A
100
AcDbEntity
  8
SEIHIN
100
AcDbLine
 10
315.4301591663925
 20
161.73252618293
 30
0.0
 11
320.4301581232925
 21
161.73252618293
 31
0.0
  0
LINE
  5
1628
330
1A
100
AcDbEntity
  8
SEIHIN
100
AcDbLine
 10
303.3203393666926
 20
161.99087879043
 30
0.0
 11
302.9301599113923
 21
161.99749490603
 31
0.0
  0
LINE
  5
1629
330
1A
100
AcDbEntity
  8
SEIHIN
100
AcDbLine
 10
303.6955245284925
 20
161.9818300603301
 30
0.0
 11
303.3203393666926
 21
161.99087879043
 31
0.0
  0
LINE
  5
162A
330
1A
100
AcDbEntity
  8
SEIHIN
100
AcDbLine
 10
304.0412985234925
 20
161.97069889283
 30
0.0
 11
303.6955245284925
 21
161.9818300603301
 31
0.0
  0
LINE
  5
162B
330
1A
100
AcDbEntity
  8
SEIHIN
100
AcDbLine
 10
304.3443732409923
 20
161.9579136965301
 30
0.0
 11
304.0412985234925
 21
161.97069889283
 31
0.0
  0
LINE
  5
162C
330
1A
100
AcDbEntity
  8
SEIHIN
100
AcDbLine
 10
304.5930959730926
 20
161.9439624844301
 30
0.0
 11
304.3443732409923
 21
161.9579136965301
 31
0.0
  0
LINE
  5
162D
330
1A
100
AcDbEntity
  8
SEIHIN
100
AcDbLine
 10
304.7779188005924
 20
161.92938169813
 30
0.0
 11
304.5930959730926
 21
161.9439624844301
 31
0.0
  0
LINE
  5
162E
330
1A
100
AcDbEntity
  8
SEIHIN
100
AcDbLine
 10
304.8917301444926
 20
161.91473758203
 30
0.0
 11
304.7779188005924
 21
161.92938169813
 31
0.0
  0
LINE
  5
162F
330
1A
100
AcDbEntity
  8
SEIHIN
100
AcDbLine
 10
304.9301565139926
 20
161.90058520413
 30
0.0
 11
304.8917301444926
 21
161.91473758203
 31
0.0
  0
LINE
  5
1630
330
1A
100
AcDbEntity
  8
SEIHIN
100
AcDbLine
 10
308.5420415251924
 20
163.66440957763
 30
0.0
 11
308.7346092312925
 21
163.64248996953
 31
0.0
  0
LINE
  5
1631
330
1A
100
AcDbEntity
  8
SEIHIN
100
AcDbLine
 10
308.3572335987923
 20
163.72309407573
 30
0.0
 11
308.5420415251924
 21
163.66440957763
 31
0.0
  0
LINE
  5
1632
330
1A
100
AcDbEntity
  8
SEIHIN
100
AcDbLine
 10
308.1871368436927
 20
163.81633064133
 30
0.0
 11
308.3572335987923
 21
163.72309407573
 31
0.0
  0
LINE
  5
1633
330
1A
100
AcDbEntity
  8
SEIHIN
100
AcDbLine
 10
308.0381550340927
 20
163.94061005093
 30
0.0
 11
308.1871368436927
 21
163.81633064133
 31
0.0
  0
LINE
  5
1634
330
1A
100
AcDbEntity
  8
SEIHIN
100
AcDbLine
 10
307.9159021823925
 20
164.09125520273
 30
0.0
 11
308.0381550340927
 21
163.94061005093
 31
0.0
  0
LINE
  5
1635
330
1A
100
AcDbEntity
  8
SEIHIN
100
AcDbLine
 10
307.8249715714923
 20
164.26259620463
 30
0.0
 11
307.9159021823925
 21
164.09125520273
 31
0.0
  0
LINE
  5
1636
330
1A
100
AcDbEntity
  8
SEIHIN
100
AcDbLine
 10
307.7687904684926
 20
164.44818271673
 30
0.0
 11
307.8249715714923
 21
164.26259620463
 31
0.0
  0
LINE
  5
1637
330
1A
100
AcDbEntity
  8
SEIHIN
100
AcDbLine
 10
307.7494748382923
 20
164.6410279570301
 30
0.0
 11
307.7687904684926
 21
164.44818271673
 31
0.0
  0
LINE
  5
1638
330
1A
100
AcDbEntity
  8
SEIHIN
100
AcDbLine
 10
306.1785757987927
 20
163.40468978863
 30
0.0
 11
305.6125738172927
 21
163.40951403953
 31
0.0
  0
LINE
  5
1639
330
1A
100
AcDbEntity
  8
SEIHIN
100
AcDbLine
 10
306.7242488710926
 20
163.4056844411301
 30
0.0
 11
306.1785757987927
 21
163.40468978863
 31
0.0
  0
LINE
  5
163A
330
1A
100
AcDbEntity
  8
SEIHIN
100
AcDbLine
 10
307.2299905567924
 20
163.41246446943
 30
0.0
 11
306.7242488710926
 21
163.4056844411301
 31
0.0
  0
LINE
  5
163B
330
1A
100
AcDbEntity
  8
SEIHIN
100
AcDbLine
 10
307.6776400654925
 20
163.42478772973
 30
0.0
 11
307.2299905567924
 21
163.41246446943
 31
0.0
  0
LINE
  5
163C
330
1A
100
AcDbEntity
  8
SEIHIN
100
AcDbLine
 10
308.0511153190925
 20
163.44221091253
 30
0.0
 11
307.6776400654925
 21
163.42478772973
 31
0.0
  0
LINE
  5
163D
330
1A
100
AcDbEntity
  8
SEIHIN
100
AcDbLine
 10
308.3370052723926
 20
163.46410444363
 30
0.0
 11
308.0511153190925
 21
163.44221091253
 31
0.0
  0
LINE
  5
163E
330
1A
100
AcDbEntity
  8
SEIHIN
100
AcDbLine
 10
308.5250393001924
 20
163.48968601203
 30
0.0
 11
308.3370052723926
 21
163.46410444363
 31
0.0
  0
LINE
  5
163F
330
1A
100
AcDbEntity
  8
SEIHIN
100
AcDbLine
 10
308.6084634511926
 20
163.51803547123
 30
0.0
 11
308.5250393001924
 21
163.48968601203
 31
0.0
  0
LINE
  5
1640
330
1A
100
AcDbEntity
  8
SEIHIN
100
AcDbLine
 10
314.5712946531925
 20
163.56361497633
 30
0.0
 11
308.7346096588926
 21
163.64248909783
 31
0.0
  0
LINE
  5
1641
330
1A
100
AcDbEntity
  8
SEIHIN
100
AcDbLine
 10
308.7346096588926
 20
163.64248909783
 30
0.0
 11
308.6084637217927
 21
163.51803631803
 31
0.0
  0
LINE
  5
1642
330
1A
100
AcDbEntity
  8
SEIHIN
100
AcDbLine
 10
304.9301565139926
 20
161.8744187651301
 30
0.0
 11
315.4301591663925
 21
161.73252618293
 31
0.0
  0
LINE
  5
1643
330
1A
100
AcDbEntity
  8
SEIHIN
100
AcDbLine
 10
304.9301565139926
 20
161.91367214903
 30
0.0
 11
304.9301565139926
 21
161.8744187651301
 31
0.0
  0
ARC
  5
1644
330
1A
100
AcDbEntity
  8
SEIHIN
100
AcDbCircle
 10
314.5872483913926
 20
164.74419160193
 30
0.0
 40
1.180684416199934
100
AcDbArc
 50
269.2257798350898
 51
354.481071514703
  0
ARC
  5
1645
330
1A
100
AcDbEntity
  8
SEIHIN
100
AcDbCircle
 10
318.5687063114924
 20
164.35949323893
 30
0.0
 40
2.819315583799681
100
AcDbArc
 50
144.0714975771946
 51
174.4810715146998
  0
ARC
  5
1646
330
1A
100
AcDbEntity
  8
SEIHIN
100
AcDbCircle
 10
333.4301583020924
 20
166.01330342383
 30
0.0
 40
1.0
100
AcDbArc
 50
0.0
 51
104.0362434678798
  0
ARC
  5
1647
330
1A
100
AcDbEntity
  8
SEIHIN
100
AcDbCircle
 10
333.4301583020924
 20
166.01330342383
 30
0.0
 40
1.000000000000053
100
AcDbArc
 50
284.0362434679067
 51
0.0
  0
LINE
  5
1648
330
1A
100
AcDbEntity
  8
SEIHIN
100
AcDbLine
 10
333.1876226770925
 20
166.98344592393
 30
0.0
 11
318.8112419365925
 21
163.38935073883
 31
0.0
  0
LINE
  5
1649
330
1A
100
AcDbEntity
  8
SEIHIN
100
AcDbLine
 10
320.4301581232925
 20
161.73252618293
 30
0.0
 11
333.6726939270925
 21
165.04316092363
 31
0.0
  0
LINE
  5
164A
330
1A
100
AcDbEntity
  8
SEIHIN
100
AcDbLine
 10
343.3696121159925
 20
167.48884116483
 30
0.0
 11
341.4907044882925
 21
168.7606501804301
 31
0.0
  0
ARC
  5
164B
330
1A
100
AcDbEntity
  8
SEIHIN
100
AcDbCircle
 10
340.9301583020924
 20
167.93252701743
 30
0.0
 40
1.000000000000208
100
AcDbArc
 50
55.906421426799
 51
223.0097155350032
  0
LINE
  5
164C
330
1A
100
AcDbEntity
  8
SEIHIN
100
AcDbLine
 10
340.1989202561927
 20
167.25040465293
 30
0.0
 11
344.7364441641925
 21
162.38615992393
 31
0.0
  0
ARC
  5
164D
330
1A
100
AcDbEntity
  8
SEIHIN
100
AcDbCircle
 10
346.9301583020924
 20
164.43252701743
 30
0.0
 40
2.999999999999873
100
AcDbArc
 50
223.0097155350032
 51
260.4059317731391
  0
ARC
  5
164E
330
1A
100
AcDbEntity
  8
SEIHIN
100
AcDbCircle
 10
343.9301583020924
 20
168.3169643278301
 30
0.0
 40
0.9999999999999865
100
AcDbArc
 50
235.9064214268062
 51
0.0
  0
ARC
  5
164F
330
1A
100
AcDbEntity
  8
SEIHIN
100
AcDbCircle
 10
339.5126512378924
 20
181.3325270174301
 30
0.0
 40
8.0
100
AcDbArc
 50
138.5213269875296
 51
144.0714975772011
  0
LINE
  5
1650
330
1A
100
AcDbEntity
  8
SEIHIN
100
AcDbLine
 10
324.2918178007475
 20
187.1312567887301
 30
0.0
 11
318.3906083972923
 21
180.8723983305302
 31
0.0
  0
LINE
  5
1651
330
1A
100
AcDbEntity
  8
SEIHIN
100
AcDbLine
 10
319.7143231425925
 20
179.6243244278301
 30
0.0
 11
326.7922879399309
 21
187.1312567887301
 31
0.0
  0
LINE
  5
1652
330
1A
100
AcDbEntity
  8
SEIHIN
100
AcDbLine
 10
302.9301599113923
 20
177.5805444119301
 30
0.0
 11
302.9301599113923
 21
177.6312567887301
 31
0.0
  0
ARC
  5
1655
330
1A
100
AcDbEntity
  8
SEIHIN
100
AcDbCircle
 10
339.9301583020924
 20
184.3325270174301
 30
0.0
 40
5.0
100
AcDbArc
 50
0.0
 51
1.18890189130349
  0
LINE
  5
1656
330
1A
100
AcDbEntity
  8
SEIHIN
100
AcDbLine
 10
220.4347163884926
 20
195.8847029379302
 30
0.0
 11
220.4347163884926
 21
195.8751934359302
 31
0.0
  0
LINE
  5
1657
330
1A
100
AcDbEntity
  8
SEIHIN
100
AcDbLine
 10
220.4347312896925
 20
195.9272845776301
 30
0.0
 11
220.4347163884926
 21
195.8847029379302
 31
0.0
  0
LINE
  5
1658
330
1A
100
AcDbEntity
  8
SEIHIN
100
AcDbLine
 10
220.4347312896925
 20
195.9661808575301
 30
0.0
 11
220.4347312896925
 21
195.9272845776301
 31
0.0
  0
LINE
  5
1659
330
1A
100
AcDbEntity
  8
SEIHIN
100
AcDbLine
 10
220.4347163884926
 20
196.0091176804302
 30
0.0
 11
220.4347312896925
 21
195.9661808575301
 31
0.0
  0
LINE
  5
165A
330
1A
100
AcDbEntity
  8
SEIHIN
100
AcDbLine
 10
220.4347163884926
 20
196.0458592291302
 30
0.0
 11
220.4347163884926
 21
196.0091176804302
 31
0.0
  0
LINE
  5
165B
330
1A
100
AcDbEntity
  8
SEIHIN
100
AcDbLine
 10
236.8809525359925
 20
196.3325270174301
 30
0.0
 11
230.9917111148925
 21
196.3325270174301
 31
0.0
  0
ARC
  5
165C
330
1A
100
AcDbEntity
  8
SEIHIN
100
AcDbCircle
 10
230.9917111148925
 20
195.8325270174301
 30
0.0
 40
0.5
100
AcDbArc
 50
90.0
 51
104.0362434679067
  0
LINE
  5
165D
330
1A
100
AcDbEntity
  8
SEIHIN
100
AcDbLine
 10
237.5521167127926
 20
194.5132114336302
 30
0.0
 11
237.5907936891926
 21
194.5132114336302
 31
0.0
  0
ARC
  5
165E
330
1A
100
AcDbEntity
  8
SEIHIN
100
AcDbCircle
 10
225.4301583020924
 20
195.8325270174301
 30
0.0
 40
4.999999999999941
100
AcDbArc
 50
104.9381624396986
 51
177.5546507419004
  0
ARC
  5
165F
330
1A
100
AcDbEntity
  8
SEIHIN
100
AcDbCircle
 10
224.3990526991924
 20
199.6973454136301
 30
0.0
 40
1.000000000000001
100
AcDbArc
 50
338.1985905136022
 51
104.9381624396852
  0
LINE
  5
1660
330
1A
100
AcDbEntity
  8
SEIHIN
100
AcDbLine
 10
220.4347114379925
 20
196.0458592180301
 30
0.0
 11
220.4347114379925
 21
195.8751934575302
 31
0.0
  0
LINE
  5
1661
330
1A
100
AcDbEntity
  8
SEIHIN
100
AcDbLine
 10
228.8686054892925
 20
195.8325270174301
 30
0.0
 11
226.1457077442924
 21
195.8325270174301
 31
0.0
  0
ARC
  5
1662
330
1A
100
AcDbEntity
  8
SEIHIN
100
AcDbCircle
 10
226.1457077442924
 20
197.3325270174301
 30
0.0
 40
1.499999999999834
100
AcDbArc
 50
158.1985905135961
 51
270.0
  0
LINE
  5
1663
330
1A
100
AcDbEntity
  8
SEIHIN
100
AcDbLine
 10
224.7529927078926
 20
197.8896130319302
 30
0.0
 11
225.3275293899926
 21
199.3259547372301
 31
0.0
  0
ARC
  5
1664
330
1A
100
AcDbEntity
  8
SEIHIN
100
AcDbCircle
 10
228.8686054892925
 20
196.3325270174301
 30
0.0
 40
0.5
100
AcDbArc
 50
270.0
 51
284.0362434678798
  0
LINE
  5
1665
330
1A
100
AcDbEntity
  8
SEIHIN
100
AcDbLine
 10
230.8704433023927
 20
196.3175982674301
 30
0.0
 11
228.9898733017926
 21
195.8474557673302
 31
0.0
  0
LINE
  5
179E
330
1A
100
AcDbEntity
  8
SEIHIN
100
AcDbLine
 10
289.0617937898014
 20
177.6312567887301
 30
0.0
 11
302.9301599113923
 21
177.6312567887301
 31
0.0
  0
LINE
  5
179F
330
1A
100
AcDbEntity
  8
SEIHIN
100
AcDbLine
 10
256.8716923506924
 20
175.1897227401301
 30
0.0
 11
254.7384109874924
 21
175.1897227401301
 31
0.0
  0
TEXT
  5
1F3C
330
1A
100
AcDbEntity
  8
SUNPOU
 48
5.0
100
AcDbText
 10
354.0968615675074
 20
277.3697124883696
 30
0.0
 40
6.0
  1
スライド巾
100
AcDbText
  0
ARC
  5
2210
330
1A
100
AcDbEntity
  8
SEIHIN
100
AcDbCircle
 10
571.7483252867733
 20
163.2244116238412
 30
0.0
 40
3.50000000000003
100
AcDbArc
 50
270.0000000000059
 51
359.999999999992
  0
LINE
  5
2211
330
1A
100
AcDbEntity
  8
SEIHIN
100
AcDbLine
 10
568.2483254730375
 20
162.724411108831
 30
0.0
 11
571.7483252867728
 21
162.7244116238413
 31
0.0
  0
LINE
  5
2213
330
1A
100
AcDbEntity
  8
SEIHIN
100
AcDbLine
 10
527.248325286773
 20
178.724411623841
 30
0.0
 11
543.2483251005086
 21
178.7244109855841
 31
0.0
  0
LINE
  5
2214
330
1A
100
AcDbEntity
  8
SEIHIN
100
AcDbLine
 10
543.2483251005086
 20
178.7244109855841
 30
0.0
 11
543.2483251005085
 21
162.7244111088308
 31
0.0
  0
LINE
  5
2215
330
1A
100
AcDbEntity
  8
SEIHIN
100
AcDbLine
 10
545.2483254283342
 20
160.7244123620704
 30
0.0
 11
545.2483254283342
 21
180.72441148927
 31
0.0
  0
ARC
  5
2217
330
1A
100
AcDbEntity
  8
SEIHIN
100
AcDbCircle
 10
527.2483252867727
 20
190.0830499867448
 30
0.0
 40
3.750000000000017
100
AcDbArc
 50
117.2723353978474
 51
62.72766460213146
  0
LINE
  5
2218
330
1A
100
AcDbEntity
  8
SEIHIN
100
AcDbLine
 10
518.7483248099356
 20
194.6948696766862
 30
0.0
 11
518.748324809936
 21
164.6062438352218
 31
0.0
  0
LINE
  5
221A
330
1A
100
AcDbEntity
  8
SEIHIN
100
AcDbLine
 10
584.2483252867731
 20
181.7244116238413
 30
0.0
 11
527.2483252867731
 21
181.7244116238409
 31
0.0
  0
LINE
  5
221B
330
1A
100
AcDbEntity
  8
SEIHIN
100
AcDbLine
 10
568.2483254730375
 20
178.7244109855843
 30
0.0
 11
568.2483254730375
 21
162.724411108831
 31
0.0
  0
LINE
  5
221C
330
1A
100
AcDbEntity
  8
SEIHIN
100
AcDbLine
 10
566.2483251452121
 20
160.7244123620707
 30
0.0
 11
566.2483251452118
 21
180.7244114892702
 31
0.0
  0
LINE
  5
2224
330
1A
100
AcDbEntity
  8
SEIHIN
100
AcDbLine
 10
582.7483259871277
 20
154.5766989332379
 30
0.0
 11
528.7483245864186
 21
154.5766989332378
 31
0.0
  0
LINE
  5
2225
330
1A
100
AcDbEntity
  8
SEIHIN
100
AcDbLine
 10
566.2483251452121
 20
160.7244123620707
 30
0.0
 11
545.2483254283342
 21
160.7244123620704
 31
0.0
  0
LINE
  5
2226
330
1A
100
AcDbEntity
  8
SEIHIN
100
AcDbLine
 10
539.7483252867733
 20
159.724411623841
 30
0.0
 11
571.7483252867733
 21
159.7244116238413
 31
0.0
  0
ARC
  5
2227
330
1A
100
AcDbEntity
  8
SEIHIN
100
AcDbCircle
 10
529.2483252867731
 20
164.7244116238411
 30
0.0
 40
7.000000000000003
100
AcDbArc
 50
359.999999999992
 51
90.00000000000595
  0
CIRCLE
  5
2229
330
1A
100
AcDbEntity
  8
SEIHIN
100
AcDbCircle
 10
529.2483252867731
 20
165.4558041948555
 30
0.0
 40
2.600000000000013
  0
ARC
  5
222A
330
1A
100
AcDbEntity
  8
SEIHIN
100
AcDbCircle
 10
529.2483252867731
 20
164.7244116238411
 30
0.0
 40
10.0
100
AcDbArc
 50
359.999999999992
 51
90.00000000000595
  0
ARC
  5
222C
330
1A
100
AcDbEntity
  8
SEIHIN
100
AcDbCircle
 10
527.248325286773
 20
178.224411623841
 30
0.0
 40
3.500000000000012
100
AcDbArc
 50
90.00000000000595
 51
179.999999999992
  0
ARC
  5
222D
330
1A
100
AcDbEntity
  8
SEIHIN
100
AcDbCircle
 10
527.2483252867731
 20
178.2244116238411
 30
0.0
 40
0.5000000000000151
100
AcDbArc
 50
90.00000000000595
 51
179.999999999992
  0
ARC
  5
222F
330
1A
100
AcDbEntity
  8
SEIHIN
100
AcDbCircle
 10
527.2483252867731
 20
175.224411623841
 30
0.0
 40
3.500000000000012
100
AcDbArc
 50
179.999999999992
 51
270.0000000000059
  0
LINE
  5
2230
330
1A
100
AcDbEntity
  8
SEIHIN
100
AcDbLine
 10
529.248325286773
 20
174.7244116238411
 30
0.0
 11
527.248325286773
 21
174.724411623841
 31
0.0
  0
ARC
  5
2232
330
1A
100
AcDbEntity
  8
SEIHIN
100
AcDbCircle
 10
527.2483252867731
 20
175.224411623841
 30
0.0
 40
0.5000000000000267
100
AcDbArc
 50
179.999999999992
 51
270.0000000000059
  0
LINE
  5
2234
330
1A
100
AcDbEntity
  8
SEIHIN
100
AcDbLine
 10
523.7483252867728
 20
175.2244116238411
 30
0.0
 11
523.7483252867733
 21
178.224411623841
 31
0.0
  0
LINE
  5
2235
330
1A
100
AcDbEntity
  8
SEIHIN
100
AcDbLine
 10
526.748325286773
 20
175.224411623841
 30
0.0
 11
526.748325286773
 21
178.2244116238411
 31
0.0
  0
LINE
  5
2236
330
1A
100
AcDbEntity
  8
SEIHIN
100
AcDbLine
 10
529.248325286773
 20
171.724411623841
 30
0.0
 11
527.2483252867728
 21
171.724411623841
 31
0.0
  0
LINE
  5
223A
330
1A
100
AcDbEntity
  8
SEIHIN
100
AcDbLine
 10
536.248325286773
 20
163.2244116238411
 30
0.0
 11
536.2483252867733
 21
164.724411623841
 31
0.0
  0
ARC
  5
223C
330
1A
100
AcDbEntity
  8
SEIHIN
100
AcDbCircle
 10
539.748325286773
 20
163.224411623841
 30
0.0
 40
3.5
100
AcDbArc
 50
179.999999999992
 51
270.0000000000059
  0
LINE
  5
2244
330
1A
100
AcDbEntity
  8
SEIHIN
100
AcDbLine
 10
543.2483251005085
 20
162.7244111088308
 30
0.0
 11
539.7483252867731
 21
162.7244116238411
 31
0.0
  0
ARC
  5
2245
330
1A
100
AcDbEntity
  8
SEIHIN
100
AcDbCircle
 10
539.748325286773
 20
163.224411623841
 30
0.0
 40
0.4999999999999955
100
AcDbArc
 50
179.999999999992
 51
270.0000000000059
  0
LINE
  5
2246
330
1A
100
AcDbEntity
  8
SEIHIN
100
AcDbLine
 10
539.248325286773
 20
163.2244116238411
 30
0.0
 11
539.2483252867728
 21
164.7244116238411
 31
0.0
  0
LINE
  5
2248
330
1A
100
AcDbEntity
  8
SEIHIN
100
AcDbLine
 10
543.2483251005085
 20
162.7244111088308
 30
0.0
 11
545.2483254283342
 21
160.7244123620704
 31
0.0
  0
LINE
  5
2249
330
1A
100
AcDbEntity
  8
SEIHIN
100
AcDbLine
 10
568.2483254730375
 20
162.724411108831
 30
0.0
 11
566.2483251452121
 21
160.7244123620707
 31
0.0
  0
LINE
  5
225B
330
1A
100
AcDbEntity
  8
SEIHIN
100
AcDbLine
 10
582.7483259871277
 20
204.7244116238412
 30
0.0
 11
570.9793758377107
 21
204.7244116238413
 31
0.0
  0
LINE
  5
225C
330
1A
100
AcDbEntity
  8
SEIHIN
100
AcDbLine
 10
545.2483254283342
 20
180.72441148927
 30
0.0
 11
566.2483251452118
 21
180.7244114892702
 31
0.0
  0
LINE
  5
2261
330
1A
100
AcDbEntity
  8
SEIHIN
100
AcDbLine
 10
567.8323632836016
 20
204.7244116238412
 30
0.0
 11
543.6642872899441
 21
204.7244116238412
 31
0.0
  0
LINE
  5
2268
330
1A
100
AcDbEntity
  8
SEIHIN
100
AcDbLine
 10
528.7483245864183
 20
204.724411623841
 30
0.0
 11
540.5172747358351
 21
204.7244116238412
 31
0.0
  0
ARC
  5
226B
330
1A
100
AcDbEntity
  8
SEIHIN
100
AcDbCircle
 10
527.2483252867728
 20
195.3674387599031
 30
0.0
 40
2.599999999999999
100
AcDbArc
 50
311.3681563457428
 51
228.6318436542658
  0
LINE
  5
2285
330
1A
100
AcDbEntity
  8
SEIHIN
100
AcDbLine
 10
545.2483254283342
 20
180.72441148927
 30
0.0
 11
543.2483251005086
 21
178.7244109855841
 31
0.0
  0
LINE
  5
22B7
330
1A
100
AcDbEntity
  8
SEIHIN
100
AcDbLine
 10
592.7483257636104
 20
194.6948696766866
 30
0.0
 11
592.7483257636102
 21
164.6062438352222
 31
0.0
  0
ARC
  5
22B8
330
1A
100
AcDbEntity
  8
SEIHIN
100
AcDbCircle
 10
584.2483252867728
 20
190.083049986745
 30
0.0
 40
3.75000000000003
100
AcDbArc
 50
117.2723353978474
 51
62.72766460213146
  0
ARC
  5
22B9
330
1A
100
AcDbEntity
  8
SEIHIN
100
AcDbCircle
 10
584.2483252867733
 20
175.2244116238412
 30
0.0
 40
3.499999999999992
100
AcDbArc
 50
270.0000000000059
 51
359.999999999992
  0
CIRCLE
  5
22BB
330
1A
100
AcDbEntity
  8
SEIHIN
100
AcDbCircle
 10
582.2483252867731
 20
165.4558041948559
 30
0.0
 40
2.599999999999982
  0
ARC
  5
22BE
330
1A
100
AcDbEntity
  8
SEIHIN
100
AcDbCircle
 10
582.248325286773
 20
164.7244116238414
 30
0.0
 40
10.00000000000001
100
AcDbArc
 50
90.00000000000595
 51
179.999999999992
  0
LINE
  5
22BF
330
1A
100
AcDbEntity
  8
SEIHIN
100
AcDbLine
 10
584.2483252867731
 20
178.7244116238413
 30
0.0
 11
568.2483254730375
 21
178.7244109855843
 31
0.0
  0
LINE
  5
22C0
330
1A
100
AcDbEntity
  8
SEIHIN
100
AcDbLine
 10
566.2483251452118
 20
180.7244114892702
 30
0.0
 11
568.2483254730375
 21
178.7244109855843
 31
0.0
  0
ARC
  5
22C1
330
1A
100
AcDbEntity
  8
SEIHIN
100
AcDbCircle
 10
582.248325286773
 20
164.7244116238414
 30
0.0
 40
7.000000000000012
100
AcDbArc
 50
90.00000000000595
 51
179.999999999992
  0
LINE
  5
22C2
330
1A
100
AcDbEntity
  8
SEIHIN
100
AcDbLine
 10
575.2483252867733
 20
163.2244116238413
 30
0.0
 11
575.2483252867731
 21
164.7244116238412
 31
0.0
  0
LINE
  5
22C4
330
1A
100
AcDbEntity
  8
SEIHIN
100
AcDbLine
 10
572.2483252867733
 20
163.2244116238411
 30
0.0
 11
572.248325286773
 21
164.7244116238414
 31
0.0
  0
ARC
  5
22C6
330
1A
100
AcDbEntity
  8
SEIHIN
100
AcDbCircle
 10
571.7483252867733
 20
163.2244116238412
 30
0.0
 40
0.5000000000000346
100
AcDbArc
 50
270.0000000000059
 51
359.999999999992
  0
LINE
  5
22C7
330
1A
100
AcDbEntity
  8
SEIHIN
100
AcDbLine
 10
582.2483252867728
 20
171.7244116238413
 30
0.0
 11
584.2483252867731
 21
171.7244116238413
 31
0.0
  0
ARC
  5
22CC
330
1A
100
AcDbEntity
  8
SEIHIN
100
AcDbCircle
 10
584.2483252867728
 20
178.2244116238414
 30
0.0
 40
3.500000000000023
100
AcDbArc
 50
359.999999999992
 51
90.00000000000595
  0
LINE
  5
22CE
330
1A
100
AcDbEntity
  8
SEIHIN
100
AcDbLine
 10
584.7483252867731
 20
175.2244116238413
 30
0.0
 11
584.7483252867731
 21
178.2244116238414
 31
0.0
  0
ARC
  5
22CF
330
1A
100
AcDbEntity
  8
SEIHIN
100
AcDbCircle
 10
584.2483252867728
 20
178.2244116238414
 30
0.0
 40
0.5000000000000267
100
AcDbArc
 50
359.999999999992
 51
90.00000000000595
  0
LINE
  5
22D0
330
1A
100
AcDbEntity
  8
SEIHIN
100
AcDbLine
 10
582.2483252867728
 20
174.7244116238414
 30
0.0
 11
584.2483252867728
 21
174.7244116238413
 31
0.0
  0
ARC
  5
22D2
330
1A
100
AcDbEntity
  8
SEIHIN
100
AcDbCircle
 10
584.2483252867733
 20
175.2244116238412
 30
0.0
 40
0.5000000000000034
100
AcDbArc
 50
270.0000000000059
 51
359.999999999992
  0
LINE
  5
22D3
330
1A
100
AcDbEntity
  8
SEIHIN
100
AcDbLine
 10
587.748325286773
 20
175.2244116238414
 30
0.0
 11
587.748325286773
 21
178.2244116238414
 31
0.0
  0
ARC
  5
22D6
330
1A
100
AcDbEntity
  8
SEIHIN
100
AcDbCircle
 10
584.2483252867728
 20
195.3674387599034
 30
0.0
 40
2.600000000000038
100
AcDbArc
 50
311.3681563457351
 51
228.6318436542658
  0
LINE
  5
2311
330
1A
100
AcDbEntity
  8
CENTER_L
  6
CENTER
 62
     1
 48
5.0
100
AcDbLine
 10
555.7914426934279
 20
147.2077025529229
 30
0.0
 11
555.7417252535948
 21
211.1327198510667
 31
0.0
  0
LINE
  5
2314
330
1A
100
AcDbEntity
  8
CENTER_L
  6
CENTER
 62
     1
 48
5.0
100
AcDbLine
 10
531.8483252867728
 20
195.3674387599031
 30
0.0
 11
522.6483252867727
 21
195.3674387599031
 31
0.0
  0
LINE
  5
2315
330
1A
100
AcDbEntity
  8
CENTER_L
  6
CENTER
 62
     1
 48
5.0
100
AcDbLine
 10
532.998325286773
 20
190.0830499867447
 30
0.0
 11
521.498325286773
 21
190.0830499867447
 31
0.0
  0
LINE
  5
2316
330
1A
100
AcDbEntity
  8
CENTER_L
  6
CENTER
 62
     1
 48
5.0
100
AcDbLine
 10
533.8483252867733
 20
165.4558041948556
 30
0.0
 11
524.6483252867731
 21
165.4558041948555
 31
0.0
  0
LINE
  5
2317
330
1A
100
AcDbEntity
  8
CENTER_L
  6
CENTER
 62
     1
 48
5.0
100
AcDbLine
 10
529.248325286773
 20
170.0558041948556
 30
0.0
 11
529.2483252867731
 21
160.8558041948555
 31
0.0
  0
LINE
  5
2318
330
1A
100
AcDbEntity
  8
CENTER_L
  6
CENTER
 62
     1
 48
5.0
100
AcDbLine
 10
527.248325286773
 20
184.3330499867447
 30
0.0
 11
527.2483252867727
 21
199.9674387599031
 31
0.0
  0
LINE
  5
231D
330
1A
100
AcDbEntity
  8
CENTER_L
  6
CENTER
 62
     1
 48
5.0
100
AcDbLine
 10
584.2483252867728
 20
184.333049986745
 30
0.0
 11
584.2483252867728
 21
199.9674387599034
 31
0.0
  0
LINE
  5
231E
330
1A
100
AcDbEntity
  8
CENTER_L
  6
CENTER
 62
     1
 48
5.0
100
AcDbLine
 10
588.8483252867728
 20
195.3674387599034
 30
0.0
 11
579.6483252867728
 21
195.3674387599034
 31
0.0
  0
LINE
  5
231F
330
1A
100
AcDbEntity
  8
CENTER_L
  6
CENTER
 62
     1
 48
5.0
100
AcDbLine
 10
589.998325286773
 20
190.0830499867451
 30
0.0
 11
578.498325286773
 21
190.083049986745
 31
0.0
  0
LINE
  5
2320
330
1A
100
AcDbEntity
  8
CENTER_L
  6
CENTER
 62
     1
 48
5.0
100
AcDbLine
 10
582.248325286773
 20
170.0558041948559
 30
0.0
 11
582.2483252867731
 21
160.8558041948558
 31
0.0
  0
LINE
  5
2321
330
1A
100
AcDbEntity
  8
CENTER_L
  6
CENTER
 62
     1
 48
5.0
100
AcDbLine
 10
586.8483252867732
 20
165.4558041948559
 30
0.0
 11
577.6483252867732
 21
165.4558041948558
 31
0.0
  0
LINE
  5
264A
330
1A
100
AcDbEntity
  8
CENTER_L
  6
CENTER
 62
     1
 48
5.0
100
AcDbLine
 10
206.2050207860361
 20
384.8472246657168
 30
0.0
 11
370.5640555223575
 21
384.8472246657168
 31
0.0
  0
LINE
  5
26B3
330
1A
100
AcDbEntity
  8
SEIHIN
100
AcDbLine
 10
220.4347114379925
 20
394.8472246657169
 30
0.0
 11
255.4289518676172
 21
394.8472246657169
 31
0.0
  0
LINE
  5
26B4
330
1A
100
AcDbEntity
  8
SEIHIN
100
AcDbLine
 10
220.4347114379925
 20
374.8472246657169
 30
0.0
 11
255.4289518676172
 21
374.8472246657168
 31
0.0
  0
LINE
  5
26B5
330
1A
100
AcDbEntity
  8
SEIHIN
100
AcDbLine
 10
220.4347114379925
 20
374.847224665717
 30
0.0
 11
220.4347114379925
 21
394.8472246657169
 31
0.0
  0
LINE
  5
26B6
330
1A
100
AcDbEntity
  8
SEIHIN
100
AcDbLine
 10
225.3275293900773
 20
374.847224665717
 30
0.0
 11
225.3275293900773
 21
394.8472246657169
 31
0.0
  0
LINE
  5
26B7
330
1A
100
AcDbEntity
  8
SEIHIN
100
AcDbLine
 10
239.7751315232875
 20
374.8472246657168
 30
0.0
 11
239.7751315232875
 21
394.8472246657169
 31
0.0
  0
LINE
  5
2E0A
330
1A
100
AcDbEntity
  8
SEIHIN
100
AcDbLine
 10
346.4301583020924
 20
204.7244116238411
 30
0.0
 11
354.4301583020924
 21
204.7244116238411
 31
0.0
  0
LINE
  5
32BE
330
1A
100
AcDbEntity
  8
SEIHIN
100
AcDbLine
 10
329.4301583020922
 20
366.3886250221049
 30
0.0
 11
329.4301583020922
 21
403.3058243093288
 31
0.0
  0
LINE
  5
32BF
330
1A
100
AcDbEntity
  8
SEIHIN
100
AcDbLine
 10
330.9301583020923
 20
366.388625022105
 30
0.0
 11
330.9301583020922
 21
403.3058243093288
 31
0.0
  0
LINE
  5
32C1
330
1A
100
AcDbEntity
  8
SEIHIN
100
AcDbLine
 10
329.4301583020922
 20
403.3058243093288
 30
0.0
 11
330.9301583020922
 21
403.3058243093288
 31
0.0
  0
LINE
  5
32C2
330
1A
100
AcDbEntity
  8
SEIHIN
100
AcDbLine
 10
333.6801583020924
 20
366.3886250221049
 30
0.0
 11
333.6801583020922
 21
403.3058243093288
 31
0.0
  0
LINE
  5
32C3
330
1A
100
AcDbEntity
  8
SEIHIN
100
AcDbLine
 10
335.1801583020923
 20
366.388625022105
 30
0.0
 11
335.1801583020923
 21
403.3058243093288
 31
0.0
  0
LINE
  5
32C5
330
1A
100
AcDbEntity
  8
SEIHIN
100
AcDbLine
 10
333.6801583020922
 20
403.3058243093288
 30
0.0
 11
335.1801583020923
 21
403.3058243093288
 31
0.0
  0
LINE
  5
32C6
330
1A
100
AcDbEntity
  8
SEIHIN
100
AcDbLine
 10
337.9301583020923
 20
366.3886250221049
 30
0.0
 11
337.9301583020922
 21
403.3058243093287
 31
0.0
  0
LINE
  5
32C7
330
1A
100
AcDbEntity
  8
SEIHIN
100
AcDbLine
 10
339.4301583020924
 20
366.3886250221048
 30
0.0
 11
339.4301583020923
 21
403.3058243093288
 31
0.0
  0
LINE
  5
32C9
330
1A
100
AcDbEntity
  8
SEIHIN
100
AcDbLine
 10
337.9301583020922
 20
403.3058243093287
 30
0.0
 11
339.4301583020923
 21
403.3058243093288
 31
0.0
  0
LINE
  5
364E
330
1A
100
AcDbEntity
  8
SEIHIN
100
AcDbLine
 10
305.074012918007
 20
402.2692428412076
 30
0.0
 11
329.4301583020922
 21
402.2692428412076
 31
0.0
  0
LINE
  5
3757
330
1A
100
AcDbEntity
  8
SEIHIN
100
AcDbLine
 10
285.2206828656804
 20
402.9574797266559
 30
0.0
 11
294.7660151098658
 21
402.4842705836753
 31
0.0
  0
LINE
  5
3759
330
1A
100
AcDbEntity
  8
SEIHIN
100
AcDbLine
 10
255.4289518676172
 20
370.0362651835971
 30
0.0
 11
255.4289518676172
 21
399.6581841478367
 31
0.0
  0
LINE
  5
375B
330
1A
100
AcDbEntity
  8
SEIHIN
100
AcDbLine
 10
279.7663812559065
 20
399.4001508568755
 30
0.0
 11
279.7663812559065
 21
370.2942984745583
 31
0.0
  0
LINE
  5
3768
330
1A
100
AcDbEntity
  8
SEIHIN
100
AcDbLine
 10
259.4289518676172
 20
403.0291556408116
 30
0.0
 11
281.7846835962999
 21
403.0291556408116
 31
0.0
  0
LINE
  5
376E
330
1A
100
AcDbEntity
  8
SEIHIN
100
AcDbLine
 10
255.4289518676172
 20
402.6540727521004
 30
0.0
 11
255.4289518676172
 21
399.6581841478367
 31
0.0
  0
LINE
  5
376F
330
1A
100
AcDbEntity
  8
SEIHIN
100
AcDbLine
 10
255.4289518676171
 20
402.8195245236797
 30
0.0
 11
259.4289518676172
 21
403.0291556408116
 31
0.0
  0
LINE
  5
3770
330
1A
100
AcDbEntity
  8
SEIHIN
100
AcDbLine
 10
255.4289518676172
 20
402.6540727521004
 30
0.0
 11
255.4289518676171
 21
402.8195245236797
 31
0.0
  0
LINE
  5
3777
330
1A
100
AcDbEntity
  8
SEIHIN
100
AcDbLine
 10
299.1339227952427
 20
398.7165844858299
 30
0.0
 11
299.1339227952427
 21
370.977864845604
 31
0.0
  0
LINE
  5
3821
330
1A
100
AcDbEntity
  8
SEIHIN
100
AcDbLine
 10
354.4289518676172
 20
357.8472246657169
 30
0.0
 11
354.4289518676172
 21
411.8472246657169
 31
0.0
  0
LINE
  5
382F
330
1A
100
AcDbEntity
  8
SEIHIN
100
AcDbLine
 10
346.4289518676172
 20
357.8472246657169
 30
0.0
 11
346.4289518676172
 21
364.6019023284417
 31
0.0
  0
LINE
  5
3831
330
1A
100
AcDbEntity
  8
SEIHIN
100
AcDbLine
 10
354.4289518676172
 20
347.8472246657169
 30
0.0
 11
348.4289518676172
 21
347.8472246657169
 31
0.0
  0
LINE
  5
3832
330
1A
100
AcDbEntity
  8
SEIHIN
100
AcDbLine
 10
348.4289518676172
 20
357.8472246657169
 30
0.0
 11
354.4289518676172
 21
357.8472246657169
 31
0.0
  0
LINE
  5
3833
330
1A
100
AcDbEntity
  8
SEIHIN
100
AcDbLine
 10
346.4289518676172
 20
349.8472246657168
 30
0.0
 11
348.4289518676172
 21
347.8472246657169
 31
0.0
  0
LINE
  5
3835
330
1A
100
AcDbEntity
  8
SEIHIN
100
AcDbLine
 10
346.4289518676172
 20
349.8472246657168
 30
0.0
 11
346.4289518676172
 21
357.8472246657169
 31
0.0
  0
LINE
  5
3836
330
1A
100
AcDbEntity
  8
SEIHIN
100
AcDbLine
 10
346.4289518676172
 20
357.8472246657169
 30
0.0
 11
348.4289518676172
 21
357.8472246657169
 31
0.0
  0
LINE
  5
3837
330
1A
100
AcDbEntity
  8
SEIHIN
100
AcDbLine
 10
354.4289518676172
 20
357.8472246657169
 30
0.0
 11
354.4289518676172
 21
347.8472246657169
 31
0.0
  0
LINE
  5
3880
330
1A
100
AcDbEntity
  8
SEIHIN
100
AcDbLine
 10
348.4289518676172
 20
411.8472246657169
 30
0.0
 11
354.4289518676172
 21
411.8472246657169
 31
0.0
  0
LINE
  5
3881
330
1A
100
AcDbEntity
  8
SEIHIN
100
AcDbLine
 10
354.4289518676172
 20
421.8472246657169
 30
0.0
 11
348.4289518676172
 21
421.8472246657169
 31
0.0
  0
LINE
  5
3882
330
1A
100
AcDbEntity
  8
SEIHIN
100
AcDbLine
 10
346.4289518676172
 20
419.8472246657169
 30
0.0
 11
346.4289518676172
 21
411.8472246657169
 31
0.0
  0
LINE
  5
3884
330
1A
100
AcDbEntity
  8
SEIHIN
100
AcDbLine
 10
346.4289518676172
 20
411.8472246657169
 30
0.0
 11
346.4289518676172
 21
405.0925470029918
 31
0.0
  0
LINE
  5
3885
330
1A
100
AcDbEntity
  8
SEIHIN
100
AcDbLine
 10
346.4289518676172
 20
411.8472246657169
 30
0.0
 11
348.4289518676172
 21
411.8472246657169
 31
0.0
  0
LINE
  5
3886
330
1A
100
AcDbEntity
  8
SEIHIN
100
AcDbLine
 10
346.4289518676172
 20
419.8472246657169
 30
0.0
 11
348.4289518676172
 21
421.8472246657169
 31
0.0
  0
LINE
  5
3887
330
1A
100
AcDbEntity
  8
SEIHIN
100
AcDbLine
 10
354.4289518676172
 20
411.8472246657169
 30
0.0
 11
354.4289518676172
 21
421.8472246657169
 31
0.0
  0
LINE
  5
3A48
330
1A
100
AcDbEntity
  8
SEIHIN
100
AcDbLine
 10
354.4301583020924
 20
164.7244116238411
 30
0.0
 11
354.4301583020924
 21
154.7244116238411
 31
0.0
  0
LINE
  5
3A49
330
1A
100
AcDbEntity
  8
SEIHIN
100
AcDbLine
 10
346.4301583020924
 20
156.7244116238411
 30
0.0
 11
346.4301583020924
 21
164.7244116238411
 31
0.0
  0
LINE
  5
3A4A
330
1A
100
AcDbEntity
  8
SEIHIN
100
AcDbLine
 10
348.4301583020924
 20
164.7244116238411
 30
0.0
 11
348.4301583020924
 21
154.7244116238411
 31
0.0
  0
LINE
  5
3A4B
330
1A
100
AcDbEntity
  8
SEIHIN
100
AcDbLine
 10
354.4301583020924
 20
154.7244116238411
 30
0.0
 11
348.4301583020924
 21
154.7244116238411
 31
0.0
  0
LINE
  5
3A4C
330
1A
100
AcDbEntity
  8
SEIHIN
100
AcDbLine
 10
346.4301583020924
 20
156.7244116238411
 30
0.0
 11
348.4301583020924
 21
154.7244116238411
 31
0.0
  0
ARC
  5
3A50
330
1A
100
AcDbEntity
  8
SEIHIN
100
AcDbCircle
 10
339.4301583020923
 20
180.1312567887299
 30
0.0
 40
7.000000000000227
100
AcDbArc
 50
55.15009542095751
 51
90.0
  0
LINE
  5
3A51
330
1A
100
AcDbEntity
  8
SEIHIN
100
AcDbLine
 10
348.4301583020924
 20
194.7244116238412
 30
0.0
 11
348.4301583020924
 21
164.7244116238411
 31
0.0
  0
LINE
  5
3A52
330
1A
100
AcDbEntity
  8
SEIHIN
100
AcDbLine
 10
354.4301583020924
 20
194.7244116238412
 30
0.0
 11
354.4301583020924
 21
164.7244116238411
 31
0.0
  0
LINE
  5
3A53
330
1A
100
AcDbEntity
  8
SEIHIN
100
AcDbLine
 10
346.4301583020924
 20
164.7244116238411
 30
0.0
 11
346.4301583020924
 21
194.7244116238412
 31
0.0
  0
LINE
  5
3A56
330
1A
100
AcDbEntity
  8
CENTER_L
  6
CENTER
 62
     1
 48
5.0
100
AcDbLine
 10
354.4301583020924
 20
194.7244116238412
 30
0.0
 11
348.4301583020924
 21
194.7244116238412
 31
0.0
  0
LINE
  5
3A57
330
1A
100
AcDbEntity
  8
SEIHIN
100
AcDbLine
 10
348.4301583020924
 20
204.7244116238412
 30
0.0
 11
354.4301583020924
 21
204.7244116238412
 31
0.0
  0
LINE
  5
3A58
330
1A
100
AcDbEntity
  8
SEIHIN
100
AcDbLine
 10
346.4301583020924
 20
202.7244116238412
 30
0.0
 11
348.4301583020924
 21
204.7244116238412
 31
0.0
  0
LINE
  5
3A59
330
1A
100
AcDbEntity
  8
SEIHIN
100
AcDbLine
 10
346.4301583020924
 20
204.7244116238412
 30
0.0
 11
348.4301583020924
 21
204.7244116238412
 31
0.0
  0
LINE
  5
3A5A
330
1A
100
AcDbEntity
  8
SEIHIN
100
AcDbLine
 10
346.4301583020924
 20
194.7244116238412
 30
0.0
 11
348.4301583020924
 21
194.7244116238412
 31
0.0
  0
LINE
  5
3A5B
330
1A
100
AcDbEntity
  8
SEIHIN
100
AcDbLine
 10
348.4301583020924
 20
204.7244116238412
 30
0.0
 11
348.4301583020924
 21
194.7244116238412
 31
0.0
  0
LINE
  5
3A5C
330
1A
100
AcDbEntity
  8
SEIHIN
100
AcDbLine
 10
346.4301583020924
 20
194.7244116238412
 30
0.0
 11
346.4301583020924
 21
202.7244116238412
 31
0.0
  0
LINE
  5
3A5D
330
1A
100
AcDbEntity
  8
SEIHIN
100
AcDbLine
 10
354.4301583020924
 20
204.7244116238412
 30
0.0
 11
354.4301583020924
 21
194.7244116238412
 31
0.0
  0
LINE
  5
3A5E
330
1A
100
AcDbEntity
  8
CENTER_L
  6
CENTER
 62
     1
 48
5.0
100
AcDbLine
 10
361.0923254240353
 20
164.7244116238411
 30
0.0
 11
342.1903705869107
 21
164.7244116238411
 31
0.0
  0
LINE
  5
3A5F
330
1A
100
AcDbEntity
  8
CENTER_L
  6
CENTER
 62
     1
 48
5.0
100
AcDbLine
 10
361.0923254240353
 20
189.4244116238452
 30
0.0
 11
342.1903705869107
 21
189.4244116238453
 31
0.0
  0
LINE
  5
3A60
330
1A
100
AcDbEntity
  8
CENTER_L
  6
CENTER
 62
     1
 48
5.0
100
AcDbLine
 10
361.0923254240353
 20
194.7244116238453
 30
0.0
 11
342.1903705869107
 21
194.7244116238453
 31
0.0
  0
LINE
  5
3FBF
330
1A
100
AcDbEntity
  8
SEIHIN
100
AcDbLine
 10
328.9301583020923
 20
206.2048195247301
 30
0.0
 11
328.9301583020923
 21
186.6312567887301
 31
0.0
  0
LINE
  5
3FC0
330
1A
100
AcDbEntity
  8
SEIHIN
100
AcDbLine
 10
330.9301583020923
 20
206.3797968518301
 30
0.0
 11
330.9301583020923
 21
186.6312567887301
 31
0.0
  0
LINE
  5
3FC1
330
1A
100
AcDbEntity
  8
SEIHIN
100
AcDbLine
 10
330.9301583020923
 20
206.3797968518301
 30
0.0
 11
328.9301583020923
 21
206.2048195247301
 31
0.0
  0
LINE
  5
3FC2
330
1A
100
AcDbEntity
  8
SEIHIN
100
AcDbLine
 10
335.1801583020923
 20
206.7516236718301
 30
0.0
 11
335.1801583020923
 21
186.6312567887301
 31
0.0
  0
LINE
  5
3FC3
330
1A
100
AcDbEntity
  8
SEIHIN
100
AcDbLine
 10
333.1801583020923
 20
206.5766463447301
 30
0.0
 11
333.1801583020923
 21
186.6312567887301
 31
0.0
  0
LINE
  5
3FC4
330
1A
100
AcDbEntity
  8
SEIHIN
100
AcDbLine
 10
335.1801583020923
 20
206.7516236718301
 30
0.0
 11
333.1801583020923
 21
206.5766463447301
 31
0.0
  0
LINE
  5
3FC5
330
1A
100
AcDbEntity
  8
SEIHIN
100
AcDbLine
 10
337.4301583020923
 20
206.9484731647301
 30
0.0
 11
337.4301583020923
 21
186.6312567887301
 31
0.0
  0
LINE
  5
3FC6
330
1A
100
AcDbEntity
  8
SEIHIN
100
AcDbLine
 10
339.4301583020923
 20
207.12345049183
 30
0.0
 11
339.4301583020923
 21
187.1312567887301
 31
0.0
  0
LINE
  5
3FC7
330
1A
100
AcDbEntity
  8
SEIHIN
100
AcDbLine
 10
339.4301583020923
 20
207.12345049183
 30
0.0
 11
337.4301583020923
 21
206.9484731647301
 31
0.0
  0
LINE
  5
3FC8
330
1A
100
AcDbEntity
  8
SEIHIN
100
AcDbLine
 10
328.9301583020923
 20
186.6312567887301
 30
0.0
 11
330.9301583020923
 21
186.6312567887301
 31
0.0
  0
LINE
  5
3FC9
330
1A
100
AcDbEntity
  8
SEIHIN
100
AcDbLine
 10
337.4301583020923
 20
186.6312567887301
 30
0.0
 11
339.4301583020923
 21
186.6312567887301
 31
0.0
  0
LINE
  5
3FCA
330
1A
100
AcDbEntity
  8
SEIHIN
100
AcDbLine
 10
335.1801583020923
 20
187.1312567887301
 30
0.0
 11
337.4301583020923
 21
187.1312567887301
 31
0.0
  0
LINE
  5
3FCB
330
1A
100
AcDbEntity
  8
SEIHIN
100
AcDbLine
 10
330.9301583020923
 20
187.1312567887301
 30
0.0
 11
333.1801583020923
 21
187.1312567887301
 31
0.0
  0
LINE
  5
3FCD
330
1A
100
AcDbEntity
  8
SEIHIN
100
AcDbLine
 10
333.1801583020923
 20
186.6312567887301
 30
0.0
 11
335.1801583020923
 21
186.6312567887301
 31
0.0
  0
LINE
  5
3FCE
330
1A
100
AcDbEntity
  8
SEIHIN
100
AcDbLine
 10
339.4301583020923
 20
187.1312567887301
 30
0.0
 11
339.4301583020923
 21
186.6312567887301
 31
0.0
  0
LINE
  5
3FD4
330
1A
100
AcDbEntity
  8
SEIHIN
100
AcDbLine
 10
330.9301583020923
 20
187.1312567887301
 30
0.0
 11
333.1801583020923
 21
187.1312567887301
 31
0.0
  0
LINE
  5
3FDF
330
1A
100
AcDbEntity
  8
SEIHIN
100
AcDbLine
 10
333.1801583020923
 20
203.5651868321299
 30
0.0
 11
330.9301583020923
 21
203.3683373391887
 31
0.0
  0
LINE
  5
401A
330
1A
100
AcDbEntity
  8
SEIHIN
  6
PHANTOM
 62
     6
 48
2.0
100
AcDbLine
 10
381.4301583020924
 20
164.7244116238411
 30
0.0
 11
381.4301583020924
 21
194.7244116238412
 31
0.0
  0
LINE
  5
401B
330
1A
100
AcDbEntity
  8
SEIHIN
  6
PHANTOM
 62
     6
 48
2.0
100
AcDbLine
 10
383.4301583020924
 20
194.7244116238412
 30
0.0
 11
383.4301583020924
 21
164.7244116238411
 31
0.0
  0
LINE
  5
401C
330
1A
100
AcDbEntity
  8
SEIHIN
  6
PHANTOM
 62
     6
 48
2.0
100
AcDbLine
 10
389.4301583020924
 20
194.7244116238412
 30
0.0
 11
389.4301583020924
 21
164.7244116238411
 31
0.0
  0
LINE
  5
401E
330
1A
100
AcDbEntity
  8
SEIHIN
  6
PHANTOM
 62
     6
 48
2.0
100
AcDbLine
 10
381.4301583020924
 20
156.7244116238411
 30
0.0
 11
383.4301583020924
 21
154.7244116238411
 31
0.0
  0
LINE
  5
401F
330
1A
100
AcDbEntity
  8
SEIHIN
  6
PHANTOM
 62
     6
 48
2.0
100
AcDbLine
 10
389.4301583020924
 20
154.7244116238411
 30
0.0
 11
383.4301583020924
 21
154.7244116238411
 31
0.0
  0
LINE
  5
4020
330
1A
100
AcDbEntity
  8
SEIHIN
  6
PHANTOM
 62
     6
 48
2.0
100
AcDbLine
 10
389.4301583020924
 20
164.7244116238411
 30
0.0
 11
389.4301583020924
 21
154.7244116238411
 31
0.0
  0
LINE
  5
4021
330
1A
100
AcDbEntity
  8
SEIHIN
  6
PHANTOM
 62
     6
 48
2.0
100
AcDbLine
 10
383.4301583020924
 20
164.7244116238411
 30
0.0
 11
383.4301583020924
 21
154.7244116238411
 31
0.0
  0
LINE
  5
4022
330
1A
100
AcDbEntity
  8
SEIHIN
  6
PHANTOM
 62
     6
 48
2.0
100
AcDbLine
 10
381.4301583020924
 20
156.7244116238411
 30
0.0
 11
381.4301583020924
 21
164.7244116238411
 31
0.0
  0
ARC
  5
4027
330
1A
100
AcDbEntity
  8
SEIHIN
  6
PHANTOM
 62
     6
 48
2.0
100
AcDbCircle
 10
374.9301583020924
 20
184.3325270174301
 30
0.0
 40
5.0
100
AcDbArc
 50
0.0
 51
1.18890189130349
  0
LINE
  5
4029
330
1A
100
AcDbEntity
  8
SEIHIN
  6
PHANTOM
 62
     6
 48
2.0
100
AcDbLine
 10
389.4301583020924
 20
204.7244116238412
 30
0.0
 11
389.4301583020924
 21
194.7244116238412
 31
0.0
  0
LINE
  5
402A
330
1A
100
AcDbEntity
  8
SEIHIN
  6
PHANTOM
 62
     6
 48
2.0
100
AcDbLine
 10
383.4301583020924
 20
204.7244116238412
 30
0.0
 11
389.4301583020924
 21
204.7244116238412
 31
0.0
  0
LINE
  5
402B
330
1A
100
AcDbEntity
  8
SEIHIN
  6
PHANTOM
 62
     6
 48
2.0
100
AcDbLine
 10
381.4301583020924
 20
204.7244116238411
 30
0.0
 11
389.4301583020924
 21
204.7244116238411
 31
0.0
  0
LINE
  5
402C
330
1A
100
AcDbEntity
  8
SEIHIN
  6
PHANTOM
 62
     6
 48
2.0
100
AcDbLine
 10
381.4301583020928
 20
204.7244116238301
 30
0.0
 11
389.4301583020928
 21
204.7244116238301
 31
0.0
  0
LINE
  5
402D
330
1A
100
AcDbEntity
  8
SEIHIN
  6
PHANTOM
 62
     6
 48
2.0
100
AcDbLine
 10
381.4301583020924
 20
194.7244116238412
 30
0.0
 11
381.4301583020924
 21
202.7244116238412
 31
0.0
  0
LINE
  5
402E
330
1A
100
AcDbEntity
  8
SEIHIN
  6
PHANTOM
 62
     6
 48
2.0
100
AcDbLine
 10
383.4301583020924
 20
204.7244116238412
 30
0.0
 11
383.4301583020924
 21
194.7244116238412
 31
0.0
  0
LINE
  5
402F
330
1A
100
AcDbEntity
  8
SEIHIN
  6
PHANTOM
 62
     6
 48
2.0
100
AcDbLine
 10
381.4301583020924
 20
204.7244116238412
 30
0.0
 11
383.4301583020924
 21
204.7244116238412
 31
0.0
  0
LINE
  5
4030
330
1A
100
AcDbEntity
  8
SEIHIN
  6
PHANTOM
 62
     6
 48
2.0
100
AcDbLine
 10
381.4301583020924
 20
202.7244116238412
 30
0.0
 11
383.4301583020924
 21
204.7244116238412
 31
0.0
  0
LINE
  5
4034
330
1A
100
AcDbEntity
  8
SEIHIN
  6
PHANTOM
 62
     6
 48
2.0
100
AcDbLine
 10
381.4301583020928
 20
204.7244116238301
 30
0.0
 11
374.4301583020928
 21
204.1119909791301
 31
0.0
  0
ARC
  5
4035
330
1A
100
AcDbEntity
  8
SEIHIN
  6
PHANTOM
 62
     6
 48
2.0
100
AcDbCircle
 10
374.4301583020923
 20
180.1312567887299
 30
0.0
 40
7.000000000000227
100
AcDbArc
 50
55.15009542095751
 51
90.0
  0
LINE
  5
4036
330
1A
100
AcDbEntity
  8
CENTER_L
  6
CENTER
 62
     1
 48
5.0
100
AcDbLine
 10
396.0923254240353
 20
194.7244116238453
 30
0.0
 11
377.1903705869107
 21
194.7244116238453
 31
0.0
  0
LINE
  5
4037
330
1A
100
AcDbEntity
  8
CENTER_L
  6
CENTER
 62
     1
 48
5.0
100
AcDbLine
 10
396.0923254240353
 20
189.4244116238452
 30
0.0
 11
377.1903705869107
 21
189.4244116238453
 31
0.0
  0
LINE
  5
4038
330
1A
100
AcDbEntity
  8
CENTER_L
  6
CENTER
 62
     1
 48
5.0
100
AcDbLine
 10
396.0923254240353
 20
164.7244116238411
 30
0.0
 11
377.1903705869107
 21
164.7244116238411
 31
0.0
  0
LINE
  5
41AD
330
1A
100
AcDbEntity
  8
SEIHIN
100
AcDbLine
 10
528.7483245864186
 20
154.5766989332378
 30
0.0
 11
527.443062959579
 21
154.6625049406432
 31
0.0
  0
LINE
  5
41AE
330
1A
100
AcDbEntity
  8
SEIHIN
100
AcDbLine
 10
527.443062959579
 20
154.6625049406432
 30
0.0
 11
526.1601344480786
 21
154.9184500203732
 31
0.0
  0
LINE
  5
41AF
330
1A
100
AcDbEntity
  8
SEIHIN
100
AcDbLine
 10
526.1601344480786
 20
154.9184500203732
 30
0.0
 11
524.9214903250012
 21
155.3401533584479
 31
0.0
  0
LINE
  5
41B0
330
1A
100
AcDbEntity
  8
SEIHIN
100
AcDbLine
 10
524.9214903250012
 20
155.3401533584479
 30
0.0
 11
523.7483237668548
 21
155.920403574118
 31
0.0
  0
LINE
  5
41B1
330
1A
100
AcDbEntity
  8
SEIHIN
100
AcDbLine
 10
523.7483237668548
 20
155.920403574118
 30
0.0
 11
522.6607103630574
 21
156.6492714825408
 31
0.0
  0
LINE
  5
41B2
330
1A
100
AcDbEntity
  8
SEIHIN
100
AcDbLine
 10
522.6607103630574
 20
156.6492714825408
 30
0.0
 11
521.6772560760055
 21
157.5142854678929
 31
0.0
  0
LINE
  5
41B3
330
1A
100
AcDbEntity
  8
SEIHIN
100
AcDbLine
 10
521.6772560760055
 20
157.5142854678929
 30
0.0
 11
520.8147917672667
 21
158.5006458282873
 31
0.0
  0
LINE
  5
41B4
330
1A
100
AcDbEntity
  8
SEIHIN
100
AcDbLine
 10
520.8147917672667
 20
158.5006458282873
 30
0.0
 11
520.0880695864233
 21
159.5914713842298
 31
0.0
  0
LINE
  5
41B5
330
1A
100
AcDbEntity
  8
SEIHIN
100
AcDbLine
 10
520.0880695864233
 20
159.5914713842298
 30
0.0
 11
519.5095282777818
 21
160.7681039059007
 31
0.0
  0
LINE
  5
41B6
330
1A
100
AcDbEntity
  8
SEIHIN
100
AcDbLine
 10
519.5095282777818
 20
160.7681039059007
 30
0.0
 11
519.0890659376654
 21
162.0104061516148
 31
0.0
  0
LINE
  5
41B7
330
1A
100
AcDbEntity
  8
SEIHIN
100
AcDbLine
 10
519.0890659376654
 20
162.0104061516148
 30
0.0
 11
518.83387610164
 21
163.2971257111289
 31
0.0
  0
LINE
  5
41B8
330
1A
100
AcDbEntity
  8
SEIHIN
100
AcDbLine
 10
518.83387610164
 20
163.2971257111289
 30
0.0
 11
518.748324809936
 21
164.6062438352218
 31
0.0
  0
LINE
  5
41C7
330
1A
100
AcDbEntity
  8
SEIHIN
100
AcDbLine
 10
518.7483248099356
 20
194.6948696766862
 30
0.0
 11
518.83387610164
 21
196.0039873216176
 31
0.0
  0
LINE
  5
41C8
330
1A
100
AcDbEntity
  8
SEIHIN
100
AcDbLine
 10
518.83387610164
 20
196.0039873216176
 30
0.0
 11
519.0890659376651
 21
197.2907061224592
 31
0.0
  0
LINE
  5
41C9
330
1A
100
AcDbEntity
  8
SEIHIN
100
AcDbLine
 10
519.0890659376651
 20
197.2907061224592
 30
0.0
 11
519.5095282777818
 21
198.5330090070554
 31
0.0
  0
LINE
  5
41CA
330
1A
100
AcDbEntity
  8
SEIHIN
100
AcDbLine
 10
519.5095282777818
 20
198.5330090070554
 30
0.0
 11
520.088069586423
 21
199.7096406502636
 31
0.0
  0
LINE
  5
41CB
330
1A
100
AcDbEntity
  8
SEIHIN
100
AcDbLine
 10
520.088069586423
 20
199.7096406502636
 30
0.0
 11
520.8147917672661
 21
200.8004679631317
 31
0.0
  0
LINE
  5
41CC
330
1A
100
AcDbEntity
  8
SEIHIN
100
AcDbLine
 10
520.8147917672661
 20
200.8004679631317
 30
0.0
 11
521.6772560760051
 21
201.7868268061809
 31
0.0
  0
LINE
  5
41CD
330
1A
100
AcDbEntity
  8
SEIHIN
100
AcDbLine
 10
521.6772560760051
 20
201.7868268061809
 30
0.0
 11
522.6607103630573
 21
202.6518402524765
 31
0.0
  0
LINE
  5
41CE
330
1A
100
AcDbEntity
  8
SEIHIN
100
AcDbLine
 10
522.6607103630573
 20
202.6518402524765
 30
0.0
 11
523.7483237668546
 21
203.380707741633
 31
0.0
  0
LINE
  5
41CF
330
1A
100
AcDbEntity
  8
SEIHIN
100
AcDbLine
 10
523.7483237668546
 20
203.380707741633
 30
0.0
 11
524.9214903250008
 21
203.9609581869015
 31
0.0
  0
LINE
  5
41D0
330
1A
100
AcDbEntity
  8
SEIHIN
100
AcDbLine
 10
524.9214903250008
 20
203.9609581869015
 30
0.0
 11
526.1601344480781
 21
204.3826632719191
 31
0.0
  0
LINE
  5
41D1
330
1A
100
AcDbEntity
  8
SEIHIN
100
AcDbLine
 10
526.1601344480781
 20
204.3826632719191
 30
0.0
 11
527.4430629595785
 21
204.6386075025099
 31
0.0
  0
LINE
  5
41D2
330
1A
100
AcDbEntity
  8
SEIHIN
100
AcDbLine
 10
527.4430629595785
 20
204.6386075025099
 30
0.0
 11
528.7483245864183
 21
204.724411623841
 31
0.0
  0
LINE
  5
41D3
330
1A
100
AcDbEntity
  8
SEIHIN
100
AcDbLine
 10
540.5172747358351
 20
204.7244116238412
 30
0.0
 11
542.0907805472285
 21
204.7803168735632
 31
0.0
  0
LINE
  5
41D4
330
1A
100
AcDbEntity
  8
SEIHIN
100
AcDbLine
 10
542.0907805472285
 20
204.7803168735632
 30
0.0
 11
543.6642872899441
 21
204.7244116238412
 31
0.0
  0
LINE
  5
41E3
330
1A
100
AcDbEntity
  8
SEIHIN
100
AcDbLine
 10
582.7483259871277
 20
154.5766989332379
 30
0.0
 11
584.0535876139672
 21
154.6625049406435
 31
0.0
  0
LINE
  5
41E4
330
1A
100
AcDbEntity
  8
SEIHIN
100
AcDbLine
 10
584.0535876139672
 20
154.6625049406435
 30
0.0
 11
585.3365161254677
 21
154.9184500203735
 31
0.0
  0
LINE
  5
41E5
330
1A
100
AcDbEntity
  8
SEIHIN
100
AcDbLine
 10
585.3365161254677
 20
154.9184500203735
 30
0.0
 11
586.5751602485452
 21
155.3401533584483
 31
0.0
  0
LINE
  5
41E6
330
1A
100
AcDbEntity
  8
SEIHIN
100
AcDbLine
 10
586.5751602485452
 20
155.3401533584483
 30
0.0
 11
587.7483268066916
 21
155.9204035741184
 31
0.0
  0
LINE
  5
41E7
330
1A
100
AcDbEntity
  8
SEIHIN
100
AcDbLine
 10
587.7483268066916
 20
155.9204035741184
 30
0.0
 11
588.8359402104887
 21
156.6492714825412
 31
0.0
  0
LINE
  5
41E8
330
1A
100
AcDbEntity
  8
SEIHIN
100
AcDbLine
 10
588.8359402104887
 20
156.6492714825412
 30
0.0
 11
589.8193944975409
 21
157.5142854678935
 31
0.0
  0
LINE
  5
41E9
330
1A
100
AcDbEntity
  8
SEIHIN
100
AcDbLine
 10
589.8193944975409
 20
157.5142854678935
 30
0.0
 11
590.6818588062796
 21
158.5006458282877
 31
0.0
  0
LINE
  5
41EA
330
1A
100
AcDbEntity
  8
SEIHIN
100
AcDbLine
 10
590.6818588062796
 20
158.5006458282877
 30
0.0
 11
591.4085809871228
 21
159.5914713842302
 31
0.0
  0
LINE
  5
41EB
330
1A
100
AcDbEntity
  8
SEIHIN
100
AcDbLine
 10
591.4085809871228
 20
159.5914713842302
 30
0.0
 11
591.9871222957644
 21
160.768103905901
 31
0.0
  0
LINE
  5
41EC
330
1A
100
AcDbEntity
  8
SEIHIN
100
AcDbLine
 10
591.9871222957644
 20
160.768103905901
 30
0.0
 11
592.4075846358809
 21
162.0104061516152
 31
0.0
  0
LINE
  5
41ED
330
1A
100
AcDbEntity
  8
SEIHIN
100
AcDbLine
 10
592.4075846358809
 20
162.0104061516152
 30
0.0
 11
592.6627744719062
 21
163.2971257111291
 31
0.0
  0
LINE
  5
41EE
330
1A
100
AcDbEntity
  8
SEIHIN
100
AcDbLine
 10
592.6627744719062
 20
163.2971257111291
 30
0.0
 11
592.7483257636102
 21
164.6062438352222
 31
0.0
  0
LINE
  5
41EF
330
1A
100
AcDbEntity
  8
SEIHIN
100
AcDbLine
 10
592.7483257636104
 20
194.6948696766866
 30
0.0
 11
592.6627744719058
 21
196.0039873216181
 31
0.0
  0
LINE
  5
41F0
330
1A
100
AcDbEntity
  8
SEIHIN
100
AcDbLine
 10
592.6627744719058
 20
196.0039873216181
 30
0.0
 11
592.4075846358807
 21
197.2907061224596
 31
0.0
  0
LINE
  5
41F1
330
1A
100
AcDbEntity
  8
SEIHIN
100
AcDbLine
 10
592.4075846358807
 20
197.2907061224596
 30
0.0
 11
591.9871222957642
 21
198.5330090070559
 31
0.0
  0
LINE
  5
41F2
330
1A
100
AcDbEntity
  8
SEIHIN
100
AcDbLine
 10
591.9871222957642
 20
198.5330090070559
 30
0.0
 11
591.4085809871226
 21
199.709640650264
 31
0.0
  0
LINE
  5
41F3
330
1A
100
AcDbEntity
  8
SEIHIN
100
AcDbLine
 10
591.4085809871226
 20
199.709640650264
 30
0.0
 11
590.6818588062793
 21
200.8004679631319
 31
0.0
  0
LINE
  5
41F4
330
1A
100
AcDbEntity
  8
SEIHIN
100
AcDbLine
 10
590.6818588062793
 20
200.8004679631319
 30
0.0
 11
589.8193944975405
 21
201.7868268061814
 31
0.0
  0
LINE
  5
41F5
330
1A
100
AcDbEntity
  8
SEIHIN
100
AcDbLine
 10
589.8193944975405
 20
201.7868268061814
 30
0.0
 11
588.8359402104884
 21
202.6518402524769
 31
0.0
  0
LINE
  5
41F6
330
1A
100
AcDbEntity
  8
SEIHIN
100
AcDbLine
 10
588.8359402104884
 20
202.6518402524769
 30
0.0
 11
587.7483268066912
 21
203.3807077416334
 31
0.0
  0
LINE
  5
41F7
330
1A
100
AcDbEntity
  8
SEIHIN
100
AcDbLine
 10
587.7483268066912
 20
203.3807077416334
 30
0.0
 11
586.575160248545
 21
203.9609581869018
 31
0.0
  0
LINE
  5
41F8
330
1A
100
AcDbEntity
  8
SEIHIN
100
AcDbLine
 10
586.575160248545
 20
203.9609581869018
 30
0.0
 11
585.3365161254674
 21
204.3826632719195
 31
0.0
  0
LINE
  5
41F9
330
1A
100
AcDbEntity
  8
SEIHIN
100
AcDbLine
 10
585.3365161254674
 20
204.3826632719195
 30
0.0
 11
584.053587613967
 21
204.6386075025103
 31
0.0
  0
LINE
  5
41FA
330
1A
100
AcDbEntity
  8
SEIHIN
100
AcDbLine
 10
584.053587613967
 20
204.6386075025103
 30
0.0
 11
582.7483259871277
 21
204.7244116238412
 31
0.0
  0
LINE
  5
41FB
330
1A
100
AcDbEntity
  8
SEIHIN
100
AcDbLine
 10
570.9793758377107
 20
204.7244116238413
 30
0.0
 11
569.4058700263172
 21
204.7803168735634
 31
0.0
  0
LINE
  5
41FC
330
1A
100
AcDbEntity
  8
SEIHIN
100
AcDbLine
 10
569.4058700263172
 20
204.7803168735634
 30
0.0
 11
567.8323632836016
 21
204.7244116238412
 31
0.0
  0
LINE
  5
4246
330
1A
100
AcDbEntity
  8
CENTER_L
100
AcDbLine
 10
265.4289503178964
 20
377.8472246657169
 30
0.0
 11
265.4289503178964
 21
391.8472246657169
 31
0.0
  0
ARC
  5
4247
330
1A
100
AcDbEntity
  8
SEIHIN
100
AcDbCircle
 10
265.4289503178964
 20
384.8472246657168
 30
0.0
 40
5.0
100
AcDbArc
 50
180.0
 51
0.0
  0
ARC
  5
4248
330
1A
100
AcDbEntity
  8
SEIHIN
100
AcDbCircle
 10
265.4289503178964
 20
384.8472246657168
 30
0.0
 40
5.0
100
AcDbArc
 50
0.0
 51
180.0
  0
LINE
  5
424A
330
1A
100
AcDbEntity
  8
SEIHIN
100
AcDbLine
 10
255.4289518676172
 20
394.8472246657169
 30
0.0
 11
255.4289518676172
 21
374.8472246657168
 31
0.0
  0
LINE
  5
4250
330
1A
100
AcDbEntity
  8
SEIHIN
100
AcDbLine
 10
335.1801583020923
 20
402.2692428412076
 30
0.0
 11
337.9301583020923
 21
402.2692428412078
 31
0.0
  0
LINE
  5
4253
330
1A
100
AcDbEntity
  8
SEIHIN
100
AcDbLine
 10
330.9301583020922
 20
402.2692428412076
 30
0.0
 11
333.6801583020922
 21
402.2692428412076
 31
0.0
  0
LINE
  5
43EA
102
{ACAD_REACTORS
330
46C8
102
}
330
1A
100
AcDbEntity
  8
SUNPOU
100
AcDbLine
 10
381.0695802799831
 20
421.8471251425541
 30
0.0
 11
429.9777824236804
 21
421.8471251425541
 31
0.0
  0
LINE
  5
43EB
102
{ACAD_REACTORS
330
46C8
102
}
330
1A
100
AcDbEntity
  8
SUNPOU
100
AcDbLine
 10
381.4063474542867
 20
347.8898998347319
 30
0.0
 11
429.9777824236802
 21
347.8898998347319
 31
0.0
  0
LINE
  5
43EC
102
{ACAD_REACTORS
330
46C8
102
}
330
1A
100
AcDbEntity
  8
SUNPOU
100
AcDbLine
 10
426.9777824236804
 20
414.8471251425542
 30
0.0
 11
426.9777824236804
 21
354.8898998347319
 31
0.0
  0
INSERT
  5
43ED
102
{ACAD_REACTORS
330
46C8
102
}
330
1A
100
AcDbEntity
  8
SUNPOU
100
AcDbBlockReference
  2
_OPEN
 10
426.9777824236804
 20
421.8471251425541
 30
0.0
 41
7.0
 42
7.0
 43
7.0
 50
90.0
  0
INSERT
  5
43EE
102
{ACAD_REACTORS
330
46C8
102
}
330
1A
100
AcDbEntity
  8
SUNPOU
100
AcDbBlockReference
  2
_OPEN
 10
426.9777824236804
 20
347.8898998347319
 30
0.0
 41
7.0
 42
7.0
 43
7.0
 50
270.0
  0
MTEXT
  5
43EF
102
{ACAD_REACTORS
330
46C8
102
}
330
1A
100
AcDbEntity
  8
SUNPOU
100
AcDbMText
 10
421.9777824236802
 20
384.8685124886431
 30
0.0
 40
6.0
 41
0.0
 71
     5
 72
     5
  1
\A1;74
 11
1.000000000000000E-16
 21
1.0
 31
0.0
 73
     1
 44
1.0
  0
LINE
  5
444C
330
1A
100
AcDbEntity
  8
SUNPOU
100
AcDbLine
 10
354.4301583020928
 20
210.7244116238301
 30
0.0
 11
354.4301583020928
 21
268.9395393039186
 31
0.0
  0
LINE
  5
444D
330
1A
100
AcDbEntity
  8
SUNPOU
100
AcDbLine
 10
389.4301583020928
 20
210.7244116238301
 30
0.0
 11
389.4301583020928
 21
268.9395393039186
 31
0.0
  0
LINE
  5
444E
330
1A
100
AcDbEntity
  8
SUNPOU
100
AcDbLine
 10
361.4301583020928
 20
265.9395393039186
 30
0.0
 11
382.4301583020929
 21
265.9395393039186
 31
0.0
  0
INSERT
  5
444F
330
1A
100
AcDbEntity
  8
SUNPOU
100
AcDbBlockReference
  2
_OPEN
 10
354.4301583020928
 20
265.9395393039186
 30
0.0
 41
7.0
 42
7.0
 43
7.0
 50
180.0
  0
INSERT
  5
4450
330
1A
100
AcDbEntity
  8
SUNPOU
100
AcDbBlockReference
  2
_OPEN
 10
389.4301583020928
 20
265.9395393039186
 30
0.0
 41
7.0
 42
7.0
 43
7.0
  0
MTEXT
  5
4451
330
1A
100
AcDbEntity
  8
SUNPOU
100
AcDbMText
 10
371.9301583020929
 20
270.9395393039186
 30
0.0
 40
6.0
 41
0.0
 71
     5
 72
     5
  1
\A1;35
 73
     1
 44
1.0
  0
LINE
  5
4452
330
1A
100
AcDbEntity
  8
SUNPOU
100
AcDbLine
 10
220.4347114379925
 20
202.0458592183625
 30
0.0
 11
220.4347114379925
 21
268.9395393039186
 31
0.0
  0
LINE
  5
4453
330
1A
100
AcDbEntity
  8
SUNPOU
100
AcDbLine
 10
354.4301583020928
 20
210.7244116238301
 30
0.0
 11
354.4301583020928
 21
268.9395393039186
 31
0.0
  0
LINE
  5
4454
330
1A
100
AcDbEntity
  8
SUNPOU
100
AcDbLine
 10
227.4347114379925
 20
265.9395393039186
 30
0.0
 11
347.4301583020928
 21
265.9395393039186
 31
0.0
  0
INSERT
  5
4455
330
1A
100
AcDbEntity
  8
SUNPOU
100
AcDbBlockReference
  2
_OPEN
 10
220.4347114379925
 20
265.9395393039186
 30
0.0
 41
7.0
 42
7.0
 43
7.0
 50
180.0
  0
INSERT
  5
4456
330
1A
100
AcDbEntity
  8
SUNPOU
100
AcDbBlockReference
  2
_OPEN
 10
354.4301583020928
 20
265.9395393039186
 30
0.0
 41
7.0
 42
7.0
 43
7.0
  0
MTEXT
  5
4457
330
1A
100
AcDbEntity
  8
SUNPOU
100
AcDbMText
 10
287.4324348700426
 20
270.9395393039186
 30
0.0
 40
6.0
 41
0.0
 71
     5
 72
     5
  1
\A1;134
 73
     1
 44
1.0
  0
LINE
  5
4458
330
1A
100
AcDbEntity
  8
SUNPOU
100
AcDbLine
 10
255.4301583020924
 20
188.6312567887301
 30
0.0
 11
255.4301583020924
 21
255.7339004141068
 31
0.0
  0
LINE
  5
4459
330
1A
100
AcDbEntity
  8
SUNPOU
100
AcDbLine
 10
354.4301583020928
 20
216.7244116238301
 30
0.0
 11
354.4301583020928
 21
255.7339004141068
 31
0.0
  0
LINE
  5
445A
330
1A
100
AcDbEntity
  8
SUNPOU
100
AcDbLine
 10
262.4301583020924
 20
252.7339004141068
 30
0.0
 11
347.4301583020928
 21
252.7339004141068
 31
0.0
  0
INSERT
  5
445B
330
1A
100
AcDbEntity
  8
SUNPOU
100
AcDbBlockReference
  2
_OPEN
 10
255.4301583020924
 20
252.7339004141068
 30
0.0
 41
7.0
 42
7.0
 43
7.0
 50
180.0
  0
INSERT
  5
445C
330
1A
100
AcDbEntity
  8
SUNPOU
100
AcDbBlockReference
  2
_OPEN
 10
354.4301583020928
 20
252.7339004141068
 30
0.0
 41
7.0
 42
7.0
 43
7.0
  0
MTEXT
  5
445D
330
1A
100
AcDbEntity
  8
SUNPOU
100
AcDbMText
 10
304.9301583020927
 20
257.7339004141068
 30
0.0
 40
6.0
 41
0.0
 71
     5
 72
     5
  1
\A1;99
 73
     1
 44
1.0
  0
LINE
  5
445E
330
1A
100
AcDbEntity
  8
SUNPOU
100
AcDbLine
 10
218.5654799263695
 20
200.6833991535724
 30
0.0
 11
185.9153007952313
 21
200.6833991535724
 31
0.0
  0
LINE
  5
445F
330
1A
100
AcDbEntity
  8
SUNPOU
100
AcDbLine
 10
342.4301583020924
 20
154.7244116238411
 30
0.0
 11
185.9153007952313
 21
154.7244116238412
 31
0.0
  0
LINE
  5
4460
330
1A
100
AcDbEntity
  8
SUNPOU
100
AcDbLine
 10
188.9153007952313
 20
193.6833991535724
 30
0.0
 11
188.9153007952313
 21
161.7244116238412
 31
0.0
  0
INSERT
  5
4461
330
1A
100
AcDbEntity
  8
SUNPOU
100
AcDbBlockReference
  2
_OPEN
 10
188.9153007952313
 20
200.6833991535724
 30
0.0
 41
7.0
 42
7.0
 43
7.0
 50
90.0
  0
INSERT
  5
4462
330
1A
100
AcDbEntity
  8
SUNPOU
100
AcDbBlockReference
  2
_OPEN
 10
188.9153007952313
 20
154.7244116238412
 30
0.0
 41
7.0
 42
7.0
 43
7.0
 50
270.0
  0
MTEXT
  5
4463
330
1A
100
AcDbEntity
  8
SUNPOU
100
AcDbMText
 10
183.9153007952313
 20
177.7039053887068
 30
0.0
 40
6.0
 41
0.0
 71
     5
 72
     5
  1
\A1;46
 11
1.000000000000000E-16
 21
1.0
 31
0.0
 73
     1
 44
1.0
  0
LINE
  5
4464
330
1A
100
AcDbEntity
  8
SUNPOU
100
AcDbLine
 10
354.4301583020928
 20
210.7244116238301
 30
0.0
 11
354.4301583020928
 21
244.0769577271641
 31
0.0
  0
LINE
  5
4465
330
1A
100
AcDbEntity
  8
SUNPOU
100
AcDbLine
 10
344.0734796349411
 20
193.1312567887301
 30
0.0
 11
344.0734796349411
 21
244.0769577271641
 31
0.0
  0
LINE
  5
4466
330
1A
100
AcDbEntity
  8
SUNPOU
100
AcDbLine
 10
361.4301583020928
 20
241.076957727164
 30
0.0
 11
368.4301583020928
 21
241.076957727164
 31
0.0
  0
LINE
  5
4467
330
1A
100
AcDbEntity
  8
SUNPOU
100
AcDbLine
 10
337.0734796349411
 20
241.076957727164
 30
0.0
 11
319.0734796349411
 21
241.076957727164
 31
0.0
  0
LINE
  5
4468
330
1A
100
AcDbEntity
  8
SUNPOU
100
AcDbLine
 10
354.4301583020928
 20
241.076957727164
 30
0.0
 11
344.0734796349411
 21
241.076957727164
 31
0.0
  0
INSERT
  5
4469
330
1A
100
AcDbEntity
  8
SUNPOU
100
AcDbBlockReference
  2
_OPEN
 10
354.4301583020928
 20
241.076957727164
 30
0.0
 41
7.0
 42
7.0
 43
7.0
 50
180.0
  0
INSERT
  5
446A
330
1A
100
AcDbEntity
  8
SUNPOU
100
AcDbBlockReference
  2
_OPEN
 10
344.0734796349411
 20
241.076957727164
 30
0.0
 41
7.0
 42
7.0
 43
7.0
  0
MTEXT
  5
446B
330
1A
100
AcDbEntity
  8
SUNPOU
100
AcDbMText
 10
324.5734796349411
 20
246.076957727164
 30
0.0
 40
6.0
 41
0.0
 71
     5
 72
     5
  1
\A1;10
 73
     1
 44
1.0
  0
LINE
  5
446C
330
1A
100
AcDbEntity
  8
SEIHIN
100
AcDbLine
 10
343.4301583020923
 20
185.8758194352683
 30
0.0
 11
344.0293673775424
 21
185.407769909914
 31
0.0
  0
LINE
  5
446D
330
1A
100
AcDbEntity
  8
SEIHIN
100
AcDbLine
 10
344.0293673775424
 20
185.407769909914
 30
0.0
 11
344.5629794244439
 21
184.890894099066
 31
0.0
  0
LINE
  5
446E
330
1A
100
AcDbEntity
  8
SEIHIN
100
AcDbLine
 10
344.5629794244439
 20
184.890894099066
 30
0.0
 11
345.1729778679559
 21
184.1334026971887
 31
0.0
  0
LINE
  5
446F
330
1A
100
AcDbEntity
  8
SEIHIN
100
AcDbLine
 10
345.1729778679559
 20
184.1334026971887
 30
0.0
 11
345.6540784980933
 21
183.3348200226638
 31
0.0
  0
LINE
  5
4470
330
1A
100
AcDbEntity
  8
SEIHIN
100
AcDbLine
 10
345.6540784980933
 20
183.3348200226638
 30
0.0
 11
346.1375025252952
 21
182.134230271088
 31
0.0
  0
LINE
  5
4471
330
1A
100
AcDbEntity
  8
SEIHIN
100
AcDbLine
 10
346.1375025252952
 20
182.134230271088
 30
0.0
 11
346.3871172959933
 21
180.9063190811806
 31
0.0
  0
LINE
  5
4472
330
1A
100
AcDbEntity
  8
SEIHIN
100
AcDbLine
 10
346.3871172959933
 20
180.9063190811806
 30
0.0
 11
346.4301449538552
 21
180.14492701704
 31
0.0
  0
LINE
  5
4473
330
1A
100
AcDbEntity
  8
SEIHIN
100
AcDbLine
 10
346.4301449538552
 20
180.14492701704
 30
0.0
 11
346.4301583020924
 21
180.1312567887301
 31
0.0
  0
LINE
  5
4474
330
1A
100
AcDbEntity
  8
SEIHIN
  6
PHANTOM
 62
     6
 48
2.0
100
AcDbLine
 10
378.4301583020923
 20
185.8758194352683
 30
0.0
 11
379.0293673775424
 21
185.407769909914
 31
0.0
  0
LINE
  5
4475
330
1A
100
AcDbEntity
  8
SEIHIN
  6
PHANTOM
 62
     6
 48
2.0
100
AcDbLine
 10
379.0293673775424
 20
185.407769909914
 30
0.0
 11
379.5629794244439
 21
184.890894099066
 31
0.0
  0
LINE
  5
4476
330
1A
100
AcDbEntity
  8
SEIHIN
  6
PHANTOM
 62
     6
 48
2.0
100
AcDbLine
 10
379.5629794244439
 20
184.890894099066
 30
0.0
 11
380.1729778679559
 21
184.1334026971887
 31
0.0
  0
LINE
  5
4477
330
1A
100
AcDbEntity
  8
SEIHIN
  6
PHANTOM
 62
     6
 48
2.0
100
AcDbLine
 10
380.1729778679559
 20
184.1334026971887
 30
0.0
 11
380.6540784980933
 21
183.3348200226638
 31
0.0
  0
LINE
  5
4478
330
1A
100
AcDbEntity
  8
SEIHIN
  6
PHANTOM
 62
     6
 48
2.0
100
AcDbLine
 10
380.6540784980933
 20
183.3348200226638
 30
0.0
 11
381.1375025252954
 21
182.134230271088
 31
0.0
  0
LINE
  5
4479
330
1A
100
AcDbEntity
  8
SEIHIN
  6
PHANTOM
 62
     6
 48
2.0
100
AcDbLine
 10
381.1375025252954
 20
182.134230271088
 30
0.0
 11
381.3871172959933
 21
180.9063190811806
 31
0.0
  0
LINE
  5
447A
330
1A
100
AcDbEntity
  8
SEIHIN
  6
PHANTOM
 62
     6
 48
2.0
100
AcDbLine
 10
381.3871172959933
 20
180.9063190811806
 30
0.0
 11
381.4301449538552
 21
180.14492701704
 31
0.0
  0
LINE
  5
447B
330
1A
100
AcDbEntity
  8
SEIHIN
  6
PHANTOM
 62
     6
 48
2.0
100
AcDbLine
 10
381.4301449538552
 20
180.14492701704
 30
0.0
 11
381.4301583020924
 21
180.1312567887301
 31
0.0
  0
LINE
  5
449C
330
1A
100
AcDbEntity
  8
SUNPOU
100
AcDbLine
 10
214.4347114379925
 20
394.8472246657169
 30
0.0
 11
193.4709727746926
 21
394.8472246657169
 31
0.0
  0
LINE
  5
449D
330
1A
100
AcDbEntity
  8
SUNPOU
100
AcDbLine
 10
214.4347114379925
 20
374.8472246657169
 30
0.0
 11
193.4709727746926
 21
374.8472246657169
 31
0.0
  0
LINE
  5
449E
330
1A
100
AcDbEntity
  8
SUNPOU
100
AcDbLine
 10
196.4709727746926
 20
387.8472246657169
 30
0.0
 11
196.4709727746926
 21
381.8472246657169
 31
0.0
  0
INSERT
  5
449F
330
1A
100
AcDbEntity
  8
SUNPOU
100
AcDbBlockReference
  2
_OPEN
 10
196.4709727746926
 20
394.8472246657169
 30
0.0
 41
7.0
 42
7.0
 43
7.0
 50
90.0
  0
INSERT
  5
44A0
330
1A
100
AcDbEntity
  8
SUNPOU
100
AcDbBlockReference
  2
_OPEN
 10
196.4709727746926
 20
374.8472246657169
 30
0.0
 41
7.0
 42
7.0
 43
7.0
 50
270.0
  0
MTEXT
  5
44A1
330
1A
100
AcDbEntity
  8
SUNPOU
100
AcDbMText
 10
191.4709727746926
 20
384.847224665717
 30
0.0
 40
6.0
 41
0.0
 71
     5
 72
     5
  1
\A1;20
 11
1.000000000000000E-16
 21
1.0
 31
0.0
 73
     1
 44
1.0
  0
LINE
  5
44A2
330
1A
100
AcDbEntity
  8
SEIHIN
100
AcDbLine
 10
339.4289518676172
 20
402.2692428412076
 30
0.0
 11
340.4892842946848
 21
402.2734760017788
 31
0.0
  0
LINE
  5
44A3
330
1A
100
AcDbEntity
  8
SEIHIN
100
AcDbLine
 10
340.4892842946848
 20
402.2734760017788
 30
0.0
 11
341.5251462138352
 21
402.2860777899888
 31
0.0
  0
LINE
  5
44A4
330
1A
100
AcDbEntity
  8
SEIHIN
100
AcDbLine
 10
341.5251462138352
 20
402.2860777899888
 30
0.0
 11
343.0386732508531
 21
402.3177735608271
 31
0.0
  0
LINE
  5
44AA
330
1A
100
AcDbEntity
  8
SEIHIN
100
AcDbLine
 10
299.1339227952427
 20
398.7165844858299
 30
0.0
 11
299.141195438838
 21
399.2826529165503
 31
0.0
  0
LINE
  5
44AB
330
1A
100
AcDbEntity
  8
SEIHIN
100
AcDbLine
 10
299.141195438838
 20
399.2826529165503
 30
0.0
 11
299.1576005698023
 21
399.8283841209657
 31
0.0
  0
LINE
  5
44AC
330
1A
100
AcDbEntity
  8
SEIHIN
100
AcDbLine
 10
299.1576005698023
 20
399.8283841209657
 30
0.0
 11
299.1825487985091
 21
400.3341715313827
 31
0.0
  0
LINE
  5
44AD
330
1A
100
AcDbEntity
  8
SEIHIN
100
AcDbLine
 10
299.1825487985091
 20
400.3341715313827
 30
0.0
 11
299.2151438061641
 21
400.7818436468492
 31
0.0
  0
LINE
  5
44AE
330
1A
100
AcDbEntity
  8
SEIHIN
100
AcDbLine
 10
299.2151438061641
 20
400.7818436468492
 30
0.0
 11
299.2542145469874
 21
401.1553168834224
 31
0.0
  0
LINE
  5
44AF
330
1A
100
AcDbEntity
  8
SEIHIN
100
AcDbLine
 10
299.2542145469874
 20
401.1553168834224
 30
0.0
 11
299.2983573205518
 21
401.4411734115279
 31
0.0
  0
LINE
  5
44B0
330
1A
100
AcDbEntity
  8
SEIHIN
100
AcDbLine
 10
299.2983573205518
 20
401.4411734115279
 30
0.0
 11
299.3459862027409
 21
401.6291432203553
 31
0.0
  0
LINE
  5
44B1
330
1A
100
AcDbEntity
  8
SEIHIN
100
AcDbLine
 10
299.3459862027409
 20
401.6291432203553
 30
0.0
 11
299.3953900234856
 21
401.7124730900936
 31
0.0
  0
LINE
  5
44B2
330
1A
100
AcDbEntity
  8
SEIHIN
100
AcDbLine
 10
279.7663812559065
 20
399.4001508568755
 30
0.0
 11
279.8190421589687
 21
399.9710580627811
 31
0.0
  0
LINE
  5
44B3
330
1A
100
AcDbEntity
  8
SEIHIN
100
AcDbLine
 10
279.8190421589687
 20
399.9710580627811
 30
0.0
 11
279.9452238055358
 21
400.5210718869644
 31
0.0
  0
LINE
  5
44B4
330
1A
100
AcDbEntity
  8
SEIHIN
100
AcDbLine
 10
279.9452238055358
 20
400.5210718869644
 30
0.0
 11
280.140308350044
 21
401.0300635787937
 31
0.0
  0
LINE
  5
44B5
330
1A
100
AcDbEntity
  8
SEIHIN
100
AcDbLine
 10
280.140308350044
 20
401.0300635787937
 30
0.0
 11
280.3971563207643
 21
401.4794056667625
 31
0.0
  0
LINE
  5
44B6
330
1A
100
AcDbEntity
  8
SEIHIN
100
AcDbLine
 10
280.3971563207643
 20
401.4794056667625
 30
0.0
 11
280.8638554632112
 21
402.0427562370935
 31
0.0
  0
LINE
  5
44B8
330
1A
100
AcDbEntity
  8
SEIHIN
100
AcDbLine
 10
280.8638554632112
 20
402.0427562370935
 30
0.0
 11
281.4351150601932
 21
402.3195133489348
 31
0.0
  0
LINE
  5
44B9
330
1A
100
AcDbEntity
  8
SEIHIN
100
AcDbLine
 10
281.4351150601932
 20
402.3195133489348
 30
0.0
 11
281.8279808175349
 21
402.3960394611392
 31
0.0
  0
LINE
  5
44CB
330
1A
100
AcDbEntity
  8
SEIHIN
100
AcDbLine
 10
279.7663812559065
 20
370.2942984745583
 30
0.0
 11
279.8190421589687
 21
369.7233912686527
 31
0.0
  0
LINE
  5
44F0
330
1A
100
AcDbEntity
  8
SEIHIN
100
AcDbLine
 10
281.7846835962999
 20
403.0291556408116
 30
0.0
 11
282.7260656818492
 21
403.0244693576399
 31
0.0
  0
LINE
  5
44F1
330
1A
100
AcDbEntity
  8
SEIHIN
100
AcDbLine
 10
282.7260656818492
 20
403.0244693576399
 30
0.0
 11
283.6337765599083
 21
403.0105781263691
 31
0.0
  0
LINE
  5
44F2
330
1A
100
AcDbEntity
  8
SEIHIN
100
AcDbLine
 10
283.6337765599083
 20
403.0105781263691
 30
0.0
 11
284.475349369481
 21
402.9879788063913
 31
0.0
  0
LINE
  5
44F3
330
1A
100
AcDbEntity
  8
SEIHIN
100
AcDbLine
 10
284.475349369481
 20
402.9879788063913
 30
0.0
 11
285.2206828656804
 21
402.9574797266559
 31
0.0
  0
LINE
  5
44F4
330
1A
100
AcDbEntity
  8
SEIHIN
100
AcDbLine
 10
294.7660151098658
 20
402.4842705836753
 30
0.0
 11
295.8426494273424
 21
402.4357454608734
 31
0.0
  0
LINE
  5
44F5
330
1A
100
AcDbEntity
  8
SEIHIN
100
AcDbLine
 10
295.8426494273424
 20
402.4357454608734
 30
0.0
 11
297.002015598464
 21
402.3927733444687
 31
0.0
  0
LINE
  5
44F6
330
1A
100
AcDbEntity
  8
SEIHIN
100
AcDbLine
 10
297.002015598464
 20
402.3927733444687
 30
0.0
 11
298.2337233366294
 21
402.35573935231
 31
0.0
  0
LINE
  5
44F7
330
1A
100
AcDbEntity
  8
SEIHIN
100
AcDbLine
 10
298.2337233366294
 20
402.35573935231
 30
0.0
 11
299.5267340271819
 21
402.3249753845354
 31
0.0
  0
LINE
  5
44F8
330
1A
100
AcDbEntity
  8
SEIHIN
100
AcDbLine
 10
299.5267340271819
 20
402.3249753845354
 30
0.0
 11
300.8694596559221
 21
402.3007571490706
 31
0.0
  0
LINE
  5
44F9
330
1A
100
AcDbEntity
  8
SEIHIN
100
AcDbLine
 10
300.8694596559221
 20
402.3007571490706
 30
0.0
 11
302.2498666613595
 21
402.2833016907234
 31
0.0
  0
LINE
  5
44FA
330
1A
100
AcDbEntity
  8
SEIHIN
100
AcDbLine
 10
302.2498666613595
 20
402.2833016907234
 30
0.0
 11
303.6555837799795
 21
402.2727654460184
 31
0.0
  0
LINE
  5
44FB
330
1A
100
AcDbEntity
  8
SEIHIN
100
AcDbLine
 10
303.6555837799795
 20
402.2727654460184
 30
0.0
 11
305.0740129180072
 21
402.2692428412076
 31
0.0
  0
TEXT
  5
4539
330
1A
100
AcDbEntity
  8
SUNPOU
 62
     4
100
AcDbText
 10
453.9775192473173
 20
225.7074466872542
 30
0.0
 40
6.0
  1
4-φ4.2
100
AcDbText
1001
ACAD
1000
MTEXTBEGIN
1070
    73
1070
     1
1070
    44
1040
1.0
1070
    74
1070
     0
1000
MTEXTEND
  0
INSERT
  5
453A
330
1A
100
AcDbEntity
  8
SUNPOU
  6
Continuous
 62
     4
100
AcDbBlockReference
  2
_OPEN
 10
526.4049242175112
 20
196.3606980539783
 30
0.0
 41
7.0
 42
7.0
 43
7.0
 50
323.8568702922647
1001
ACAD
1000
DSTYLE
1002
{
1070
     6
1000
OPEN
1070
    41
1040
7.0
1070
    42
1040
6.0
1070
    43
1040
14.0
1070
    44
1040
3.0
1070
    73
1070
     0
1070
    74
1070
     0
1070
    77
1070
     3
1070
   140
1040
6.0
1070
   141
1040
150.0
1070
   147
1040
2.0
1070
   172
1070
     1
1070
   173
1070
     1
1070
   176
1070
     4
1070
   177
1070
     4
1070
   178
1070
     4
1070
   271
1070
     0
1070
   272
1070
     2
1070
   341
1005
6D
1070
   343
1005
6D
1070
   344
1005
6D
1002
}
  0
LWPOLYLINE
  5
453B
330
1A
100
AcDbEntity
  8
SUNPOU
  6
Continuous
 62
     4
100
AcDbPolyline
 90
        4
 70
     0
 43
0.0
 10
520.7521012775713
 20
200.4893289177987
 10
488.9624080164135
 20
223.7074466872542
 10
487.1775192473173
 20
223.7074466872542
 10
453.9775192473173
 20
223.7074466872542
1001
ACAD
1000
DSTYLE
1002
{
1070
     6
1000
OPEN
1070
    41
1040
7.0
1070
    42
1040
6.0
1070
    43
1040
14.0
1070
    44
1040
3.0
1070
    73
1070
     0
1070
    74
1070
     0
1070
    77
1070
     3
1070
   140
1040
6.0
1070
   141
1040
150.0
1070
   147
1040
2.0
1070
   172
1070
     1
1070
   173
1070
     1
1070
   176
1070
     4
1070
   177
1070
     4
1070
   178
1070
     4
1070
   271
1070
     0
1070
   272
1070
     2
1070
   341
1005
6D
1070
   343
1005
6D
1070
   344
1005
6D
1002
}
  0
INSERT
  5
454A
330
1A
100
AcDbEntity
  8
SUNPOU
  6
Continuous
 62
     4
100
AcDbBlockReference
  2
_OPEN
 10
586.6751694265582
 20
186.924361876964
 30
0.0
 41
7.0
 42
7.0
 43
7.0
 50
137.983380680135
1001
ACAD
1000
DSTYLE
1002
{
1070
     6
1000
OPEN
1070
    41
1040
7.0
1070
    42
1040
6.0
1070
    43
1040
14.0
1070
    44
1040
3.0
1070
    73
1070
     0
1070
    74
1070
     0
1070
    77
1070
     3
1070
   140
1040
6.0
1070
   141
1040
150.0
1070
   147
1040
2.0
1070
   172
1070
     1
1070
   173
1070
     1
1070
   176
1070
     4
1070
   177
1070
     4
1070
   178
1070
     4
1070
   271
1070
     0
1070
   272
1070
     2
1070
   341
1005
6D
1070
   343
1005
6D
1070
   344
1005
6D
1002
}
  0
LWPOLYLINE
  5
454B
330
1A
100
AcDbEntity
  8
SUNPOU
  6
Continuous
 62
     4
100
AcDbPolyline
 90
        4
 70
     0
 43
0.0
 10
591.875824361245
 20
182.2389389237699
 10
608.9980088612088
 20
166.8130594388838
 10
623.8161138576792
 20
166.8130594388838
 10
657.0161138576792
 20
166.8130594388838
1001
ACAD
1000
DSTYLE
1002
{
1070
     6
1000
OPEN
1070
    41
1040
7.0
1070
    42
1040
6.0
1070
    43
1040
14.0
1070
    44
1040
3.0
1070
    73
1070
     0
1070
    74
1070
     0
1070
    77
1070
     3
1070
   140
1040
6.0
1070
   141
1040
150.0
1070
   147
1040
2.0
1070
   172
1070
     1
1070
   173
1070
     1
1070
   176
1070
     4
1070
   177
1070
     4
1070
   178
1070
     4
1070
   271
1070
     0
1070
   272
1070
     2
1070
   341
1005
6D
1070
   343
1005
6D
1070
   344
1005
6D
1002
}
  0
TEXT
  5
4550
330
1A
100
AcDbEntity
  8
SUNPOU
 62
     4
100
AcDbText
 10
619.4288938646979
 20
168.8130594388838
 30
0.0
 40
6.0
  1
2-φ6.5
100
AcDbText
1001
ACAD
1000
MTEXTBEGIN
1070
    73
1070
     1
1070
    44
1040
1.0
1070
    74
1070
     0
1000
MTEXTEND
  0
DIMENSION
  5
4576
330
1A
100
AcDbEntity
  8
SUNPOU
100
AcDbDimension
  2
*D1
 10
171.6639429134752
 20
366.8749248077543
 30
0.0
 11
166.6639429134751
 21
384.847224665717
 31
0.0
 70
    32
 71
     5
 42
-1.0
  3
STANDARD
100
AcDbAlignedDimension
 13
255.4289518676171
 23
402.8195245236797
 33
0.0
 14
255.4289518676171
 24
366.8749248077543
 34
0.0
 50
90.0
100
AcDbRotatedDimension
1001
ACAD
1000
DSTYLE
1002
{
1070
    41
1040
7.0
1070
    42
1040
6.0
1070
    43
1040
14.0
1070
    44
1040
3.0
1070
    73
1070
     0
1070
    74
1070
     0
1070
    77
1070
     3
1070
   140
1040
6.0
1070
   141
1040
150.0
1070
   147
1040
2.0
1070
   172
1070
     1
1070
   173
1070
     1
1070
   176
1070
   256
1070
   177
1070
   256
1070
   178
1070
   256
1070
   271
1070
     0
1070
   272
1070
     0
1070
   341
1005
6D
1070
     6
1000
OPEN
1070
     7
1000
OPEN
1070
   371
1070
    -1
1070
   372
1070
    -1
1002
}
  0
DIMENSION
  5
4595
330
1A
100
AcDbEntity
  8
SUNPOU
100
AcDbDimension
  2
*D2
 10
582.2483252867731
 20
131.0017978259363
 30
0.0
 11
555.7483252867731
 21
136.0017978259363
 31
0.0
 70
    32
 71
     5
 42
-1.0
  3
STANDARD
100
AcDbAlignedDimension
 13
529.2483252867731
 23
160.8558041948555
 33
0.0
 14
582.2483252867731
 24
160.8558041948558
 34
0.0
100
AcDbRotatedDimension
1001
ACAD
1000
DSTYLE
1002
{
1070
    41
1040
7.0
1070
    42
1040
6.0
1070
    43
1040
14.0
1070
    44
1040
3.0
1070
    73
1070
     0
1070
    74
1070
     0
1070
    77
1070
     3
1070
   140
1040
6.0
1070
   141
1040
150.0
1070
   147
1040
2.0
1070
   172
1070
     1
1070
   173
1070
     1
1070
   176
1070
   256
1070
   177
1070
   256
1070
   178
1070
   256
1070
   271
1070
     0
1070
   272
1070
     0
1070
   341
1005
6D
1070
     6
1000
OPEN
1070
     7
1000
OPEN
1070
   371
1070
    -1
1070
   372
1070
    -1
1002
}
  0
DIMENSION
  5
45A2
330
1A
100
AcDbEntity
  8
SUNPOU
100
AcDbDimension
  2
*D3
 10
527.2483252867727
 20
225.1255487314733
 30
0.0
 11
555.7483252867728
 21
230.1255487314733
 31
0.0
 70
    32
 71
     5
 42
-1.0
  3
STANDARD
100
AcDbAlignedDimension
 13
584.2483252867728
 23
199.9674387599034
 33
0.0
 14
527.2483252867727
 24
199.9674387599031
 34
0.0
100
AcDbRotatedDimension
1001
ACAD
1000
DSTYLE
1002
{
1070
    41
1040
7.0
1070
    42
1040
6.0
1070
    43
1040
14.0
1070
    44
1040
3.0
1070
    73
1070
     0
1070
    74
1070
     0
1070
    77
1070
     3
1070
   140
1040
6.0
1070
   141
1040
150.0
1070
   147
1040
2.0
1070
   172
1070
     1
1070
   173
1070
     1
1070
   176
1070
   256
1070
   177
1070
   256
1070
   178
1070
   256
1070
   271
1070
     0
1070
   272
1070
     0
1070
   341
1005
6D
1070
     6
1000
OPEN
1070
     7
1000
OPEN
1070
   371
1070
    -1
1070
   372
1070
    -1
1002
}
  0
DIMENSION
  5
45AF
330
1A
100
AcDbEntity
  8
SUNPOU
100
AcDbDimension
  2
*D4
 10
518.83387610164
 20
241.3188830547289
 30
0.0
 11
555.7911006942064
 21
246.3188830547289
 31
0.0
 70
    32
 71
     5
 42
-1.0
  3
STANDARD
100
AcDbAlignedDimension
 13
592.7483252867731
 23
195.2140457621339
 33
0.0
 14
518.83387610164
 24
196.0039873216176
 34
0.0
100
AcDbRotatedDimension
1001
ACAD
1000
DSTYLE
1002
{
1070
    41
1040
7.0
1070
    42
1040
6.0
1070
    43
1040
14.0
1070
    44
1040
3.0
1070
    73
1070
     0
1070
    74
1070
     0
1070
    77
1070
     3
1070
   140
1040
6.0
1070
   141
1040
150.0
1070
   147
1040
2.0
1070
   172
1070
     1
1070
   173
1070
     1
1070
   176
1070
   256
1070
   177
1070
   256
1070
   178
1070
   256
1070
   271
1070
     0
1070
   272
1070
     0
1070
   341
1005
6D
1070
     6
1000
OPEN
1070
     7
1000
OPEN
1070
   371
1070
    -1
1070
   372
1070
    -1
1002
}
  0
DIMENSION
  5
45BC
330
1A
100
AcDbEntity
  8
SUNPOU
100
AcDbDimension
  2
*D5
 10
622.3031461373944
 20
190.0830499867451
 30
0.0
 11
617.3031461373944
 21
197.3608287446278
 31
0.0
 70
    32
 71
     5
 42
-1.0
  3
STANDARD
100
AcDbAlignedDimension
 13
584.053587613967
 23
204.6386075025103
 33
0.0
 14
589.998325286773
 24
190.0830499867451
 34
0.0
 50
90.0
100
AcDbRotatedDimension
1001
ACAD
1000
DSTYLE
1002
{
1070
    41
1040
7.0
1070
    42
1040
6.0
1070
    43
1040
14.0
1070
    44
1040
3.0
1070
    73
1070
     0
1070
    74
1070
     0
1070
    77
1070
     3
1070
   140
1040
6.0
1070
   141
1040
150.0
1070
   147
1040
2.0
1070
   172
1070
     1
1070
   173
1070
     1
1070
   176
1070
   256
1070
   177
1070
   256
1070
   178
1070
   256
1070
   271
1070
     0
1070
   272
1070
     0
1070
   341
1005
6D
1070
     6
1000
OPEN
1070
     7
1000
OPEN
1070
   371
1070
    -1
1070
   372
1070
    -1
1002
}
  0
LINE
  5
46C9
330
1A
100
AcDbEntity
  8
SUNPOU
100
AcDbLine
 10
366.9471552005325
 20
421.8471251425541
 30
0.0
 11
429.9777824236804
 21
421.8471251425541
 31
0.0
  0
LINE
  5
46CA
330
1A
100
AcDbEntity
  8
SUNPOU
100
AcDbLine
 10
366.9471552005325
 20
347.8898998347319
 30
0.0
 11
429.9777824236802
 21
347.8898998347319
 31
0.0
  0
DIMENSION
  5
46F1
330
1A
100
AcDbEntity
  8
SUNPOU
 62
     4
100
AcDbDimension
  2
*D6
 10
368.080014202866
 20
154.7244116238411
 30
0.0
 11
363.080014202866
 21
179.7244116238357
 31
0.0
 70
    32
 71
     5
 42
-1.0
  3
STANDARD
100
AcDbAlignedDimension
 13
354.4301583020928
 23
204.7244116238301
 33
0.0
 14
354.4301583020924
 24
154.7244116238411
 34
0.0
 50
90.0
100
AcDbRotatedDimension
1001
ACAD
1000
DSTYLE
1002
{
1070
    41
1040
7.0
1070
    42
1040
6.0
1070
    43
1040
14.0
1070
    44
1040
3.0
1070
    73
1070
     0
1070
    74
1070
     0
1070
    77
1070
     3
1070
   140
1040
6.0
1070
   141
1040
150.0
1070
   147
1040
2.0
1070
   172
1070
     1
1070
   173
1070
     1
1070
   176
1070
   256
1070
   177
1070
   256
1070
   178
1070
   256
1070
   271
1070
     0
1070
   272
1070
     0
1070
   341
1005
6D
1070
     6
1000
OPEN
1070
     7
1000
OPEN
1070
   371
1070
    -1
1070
   372
1070
    -1
1002
}
  0
DIMENSION
  5
4701
330
1A
100
AcDbEntity
  8
SUNPOU
 62
     4
100
AcDbDimension
  2
*D7
 10
484.0599428080377
 20
154.6625049406432
 30
0.0
 11
479.0599428080377
 21
179.6505562215767
 31
0.0
 70
    32
 71
     5
 42
-1.0
  3
STANDARD
100
AcDbAlignedDimension
 13
527.4430629595785
 23
204.6386075025099
 33
0.0
 14
527.443062959579
 24
154.6625049406432
 34
0.0
 50
90.0
100
AcDbRotatedDimension
1001
ACAD
1000
DSTYLE
1002
{
1070
    41
1040
7.0
1070
    42
1040
6.0
1070
    43
1040
14.0
1070
    44
1040
3.0
1070
    73
1070
     0
1070
    74
1070
     0
1070
    77
1070
     3
1070
   140
1040
6.0
1070
   141
1040
150.0
1070
   147
1040
2.0
1070
   172
1070
     1
1070
   173
1070
     1
1070
   176
1070
   256
1070
   177
1070
   256
1070
   178
1070
   256
1070
   271
1070
     0
1070
   272
1070
     0
1070
   341
1005
6D
1070
     6
1000
OPEN
1070
     7
1000
OPEN
1070
   371
1070
    -1
1070
   372
1070
    -1
1002
}
  0
DIMENSION
  5
470E
330
1A
100
AcDbEntity
  8
SUNPOU
 62
     4
100
AcDbDimension
  2
*D8
 10
497.8457007399011
 20
195.3674387599031
 30
0.0
 11
497.845700739901
 21
200.0030231312066
 31
0.0
 70
   160
 71
     5
 42
-1.0
  3
STANDARD
100
AcDbAlignedDimension
 13
527.4430629595785
 23
204.6386075025099
 33
0.0
 14
527.2483252867728
 24
195.3674387599031
 34
0.0
 50
90.0
100
AcDbRotatedDimension
1001
ACAD
1000
DSTYLE
1002
{
1070
    41
1040
7.0
1070
    42
1040
6.0
1070
    43
1040
14.0
1070
    44
1040
3.0
1070
    73
1070
     0
1070
    74
1070
     0
1070
    77
1070
     3
1070
   140
1040
6.0
1070
   141
1040
150.0
1070
   147
1040
2.0
1070
   172
1070
     1
1070
   173
1070
     1
1070
   176
1070
   256
1070
   177
1070
   256
1070
   178
1070
   256
1070
   271
1070
     0
1070
   272
1070
     0
1070
   341
1005
6D
1070
     6
1000
OPEN
1070
     7
1000
OPEN
1070
   371
1070
    -1
1070
   372
1070
    -1
1002
}
  0
DIMENSION
  5
4728
330
1A
100
AcDbEntity
  8
SUNPOU
 62
     4
100
AcDbDimension
  2
*D9
 10
497.8457007399011
 20
165.4558041948556
 30
0.0
 11
492.8457007399011
 21
160.1871271076145
 31
0.0
 70
    32
 71
     5
 42
-1.0
  3
STANDARD
100
AcDbAlignedDimension
 13
526.1601344480786
 23
154.9184500203732
 33
0.0
 14
529.248325286773
 24
165.4558041948556
 34
0.0
 50
90.0
100
AcDbRotatedDimension
1001
ACAD
1000
DSTYLE
1002
{
1070
    41
1040
7.0
1070
    42
1040
6.0
1070
    43
1040
14.0
1070
    44
1040
3.0
1070
    73
1070
     0
1070
    74
1070
     0
1070
    77
1070
     3
1070
   140
1040
6.0
1070
   141
1040
150.0
1070
   147
1040
2.0
1070
   172
1070
     1
1070
   173
1070
     1
1070
   176
1070
   256
1070
   177
1070
   256
1070
   178
1070
   256
1070
   271
1070
     0
1070
   272
1070
     0
1070
   341
1005
6D
1070
     6
1000
OPEN
1070
     7
1000
OPEN
1070
   371
1070
    -1
1070
   372
1070
    -1
1002
}
  0
LINE
  5
484E
330
1A
100
AcDbEntity
  8
CENTER_L
  6
CENTER
 62
     1
 48
5.0
100
AcDbLine
 10
339.5464819142157
 20
413.3472246657168
 30
0.0
 11
370.5640555223575
 21
413.3472246657168
 31
0.0
  0
LINE
  5
484F
330
1A
100
AcDbEntity
  8
CENTER_L
  6
CENTER
 62
     1
 48
5.0
100
AcDbLine
 10
338.4164693167817
 20
356.3472246657169
 30
0.0
 11
370.5640555223575
 21
356.3472246657168
 31
0.0
  0
ARC
  5
485D
330
1A
100
AcDbEntity
  8
SEIHIN
100
AcDbCircle
 10
343.160810878139
 20
405.6269935508677
 30
0.0
 40
3.311552300605254
100
AcDbArc
 50
266.710524203609
 51
350.7124995205204
  0
LINE
  5
485F
330
1A
100
AcDbEntity
  8
SEIHIN
100
AcDbLine
 10
259.4289518676171
 20
366.6652936906221
 30
0.0
 11
281.7846835962999
 21
366.6652936906221
 31
0.0
  0
LINE
  5
4860
330
1A
100
AcDbEntity
  8
SEIHIN
100
AcDbLine
 10
255.4289518676171
 20
367.0403765793333
 30
0.0
 11
255.4289518676171
 21
370.036265183597
 31
0.0
  0
LINE
  5
4861
330
1A
100
AcDbEntity
  8
SEIHIN
100
AcDbLine
 10
255.4289518676171
 20
367.0403765793333
 30
0.0
 11
255.428951867617
 21
366.8749248077542
 31
0.0
  0
LINE
  5
4862
330
1A
100
AcDbEntity
  8
SEIHIN
100
AcDbLine
 10
255.428951867617
 20
366.8749248077542
 30
0.0
 11
259.4289518676171
 21
366.6652936906221
 31
0.0
  0
LINE
  5
4863
330
1A
100
AcDbEntity
  8
SEIHIN
100
AcDbLine
 10
341.5251462138352
 20
367.4083715414447
 30
0.0
 11
343.0386732508531
 21
367.3766757706065
 31
0.0
  0
LINE
  5
4864
330
1A
100
AcDbEntity
  8
SEIHIN
100
AcDbLine
 10
279.9452238055358
 20
369.1733774444694
 30
0.0
 11
280.1403083500439
 21
368.6643857526402
 31
0.0
  0
LINE
  5
4865
330
1A
100
AcDbEntity
  8
SEIHIN
100
AcDbLine
 10
299.1825487985091
 20
369.3602778000509
 30
0.0
 11
299.2151438061641
 21
368.9126056845845
 31
0.0
  0
LINE
  5
4866
330
1A
100
AcDbEntity
  8
SEIHIN
100
AcDbLine
 10
279.8190421589686
 20
369.7233912686527
 30
0.0
 11
279.9452238055358
 21
369.1733774444694
 31
0.0
  0
LINE
  5
4867
330
1A
100
AcDbEntity
  8
SEIHIN
100
AcDbLine
 10
279.7663812559065
 20
370.2942984745583
 30
0.0
 11
279.8190421589686
 21
369.7233912686527
 31
0.0
  0
LINE
  5
4868
330
1A
100
AcDbEntity
  8
SEIHIN
100
AcDbLine
 10
299.1576005698023
 20
369.8660652104682
 30
0.0
 11
299.1825487985091
 21
369.3602778000509
 31
0.0
  0
LINE
  5
4869
330
1A
100
AcDbEntity
  8
SEIHIN
100
AcDbLine
 10
299.141195438838
 20
370.4117964148833
 30
0.0
 11
299.1576005698023
 21
369.8660652104682
 31
0.0
  0
LINE
  5
486A
330
1A
100
AcDbEntity
  8
SEIHIN
100
AcDbLine
 10
299.1339227952426
 20
370.9778648456039
 30
0.0
 11
299.141195438838
 21
370.4117964148833
 31
0.0
  0
LINE
  5
486B
330
1A
100
AcDbEntity
  8
SEIHIN
100
AcDbLine
 10
305.0740129180069
 20
367.425206490226
 30
0.0
 11
329.4301583020922
 21
367.4252064902259
 31
0.0
  0
LINE
  5
486C
330
1A
100
AcDbEntity
  8
SEIHIN
100
AcDbLine
 10
285.2206828656804
 20
366.7369696047778
 30
0.0
 11
294.7660151098657
 21
367.2101787477583
 31
0.0
  0
LINE
  5
486D
330
1A
100
AcDbEntity
  8
SEIHIN
100
AcDbLine
 10
284.4753493694809
 20
366.7064705250423
 30
0.0
 11
285.2206828656804
 21
366.7369696047778
 31
0.0
  0
LINE
  5
486E
330
1A
100
AcDbEntity
  8
SEIHIN
100
AcDbLine
 10
280.8638554632111
 20
367.6516930943402
 30
0.0
 11
281.4351150601931
 21
367.3749359824989
 31
0.0
  0
LINE
  5
486F
330
1A
100
AcDbEntity
  8
SEIHIN
100
AcDbLine
 10
280.3971563207642
 20
368.2150436646712
 30
0.0
 11
280.8638554632111
 21
367.6516930943402
 31
0.0
  0
LINE
  5
4870
330
1A
100
AcDbEntity
  8
SEIHIN
100
AcDbLine
 10
283.6337765599083
 20
366.6838712050645
 30
0.0
 11
284.4753493694809
 21
366.7064705250423
 31
0.0
  0
LINE
  5
4871
330
1A
100
AcDbEntity
  8
SEIHIN
100
AcDbLine
 10
282.7260656818492
 20
366.6699799737939
 30
0.0
 11
283.6337765599083
 21
366.6838712050645
 31
0.0
  0
LINE
  5
4872
330
1A
100
AcDbEntity
  8
SEIHIN
100
AcDbLine
 10
281.7846835962999
 20
366.6652936906221
 30
0.0
 11
282.7260656818492
 21
366.6699799737939
 31
0.0
  0
LINE
  5
4873
330
1A
100
AcDbEntity
  8
SEIHIN
100
AcDbLine
 10
281.4351150601931
 20
367.3749359824989
 30
0.0
 11
281.8279808175348
 21
367.2984098702945
 31
0.0
  0
LINE
  5
4874
330
1A
100
AcDbEntity
  8
SEIHIN
100
AcDbLine
 10
280.1403083500439
 20
368.6643857526402
 30
0.0
 11
280.3971563207642
 21
368.2150436646712
 31
0.0
  0
LINE
  5
4875
330
1A
100
AcDbEntity
  8
SEIHIN
100
AcDbLine
 10
300.869459655922
 20
367.393692182363
 30
0.0
 11
302.2498666613594
 21
367.4111476407103
 31
0.0
  0
LINE
  5
4876
330
1A
100
AcDbEntity
  8
SEIHIN
100
AcDbLine
 10
299.5267340271819
 20
367.3694739468982
 30
0.0
 11
300.869459655922
 21
367.393692182363
 31
0.0
  0
LINE
  5
4877
330
1A
100
AcDbEntity
  8
SEIHIN
100
AcDbLine
 10
298.2337233366293
 20
367.3387099791237
 30
0.0
 11
299.5267340271819
 21
367.3694739468982
 31
0.0
  0
LINE
  5
4878
330
1A
100
AcDbEntity
  8
SEIHIN
100
AcDbLine
 10
297.0020155984639
 20
367.3016759869649
 30
0.0
 11
298.2337233366293
 21
367.3387099791237
 31
0.0
  0
LINE
  5
4879
330
1A
100
AcDbEntity
  8
SEIHIN
100
AcDbLine
 10
295.8426494273423
 20
367.2587038705604
 30
0.0
 11
297.0020155984639
 21
367.3016759869649
 31
0.0
  0
LINE
  5
487A
330
1A
100
AcDbEntity
  8
SEIHIN
100
AcDbLine
 10
294.7660151098657
 20
367.2101787477583
 30
0.0
 11
295.8426494273423
 21
367.2587038705604
 31
0.0
  0
LINE
  5
487B
330
1A
100
AcDbEntity
  8
SEIHIN
100
AcDbLine
 10
299.3459862027409
 20
368.0653061110783
 30
0.0
 11
299.3953900234856
 21
367.9819762413401
 31
0.0
  0
LINE
  5
487C
330
1A
100
AcDbEntity
  8
SEIHIN
100
AcDbLine
 10
299.2983573205518
 20
368.2532759199057
 30
0.0
 11
299.3459862027409
 21
368.0653061110783
 31
0.0
  0
LINE
  5
487D
330
1A
100
AcDbEntity
  8
SEIHIN
100
AcDbLine
 10
299.2542145469873
 20
368.5391324480112
 30
0.0
 11
299.2983573205518
 21
368.2532759199057
 31
0.0
  0
LINE
  5
487E
330
1A
100
AcDbEntity
  8
SEIHIN
100
AcDbLine
 10
299.2151438061641
 20
368.9126056845845
 30
0.0
 11
299.2542145469873
 21
368.5391324480112
 31
0.0
  0
LINE
  5
487F
330
1A
100
AcDbEntity
  8
SEIHIN
100
AcDbLine
 10
303.6555837799795
 20
367.4216838854154
 30
0.0
 11
305.0740129180072
 21
367.425206490226
 31
0.0
  0
LINE
  5
4880
330
1A
100
AcDbEntity
  8
SEIHIN
100
AcDbLine
 10
302.2498666613594
 20
367.4111476407103
 30
0.0
 11
303.6555837799795
 21
367.4216838854154
 31
0.0
  0
LINE
  5
4881
330
1A
100
AcDbEntity
  8
SEIHIN
100
AcDbLine
 10
333.6801583020922
 20
366.3886250221048
 30
0.0
 11
335.1801583020923
 21
366.3886250221049
 31
0.0
  0
LINE
  5
4882
330
1A
100
AcDbEntity
  8
SEIHIN
100
AcDbLine
 10
330.9301583020921
 20
367.4252064902259
 30
0.0
 11
333.6801583020922
 21
367.4252064902259
 31
0.0
  0
LINE
  5
4883
330
1A
100
AcDbEntity
  8
SEIHIN
100
AcDbLine
 10
329.4301583020922
 20
366.3886250221048
 30
0.0
 11
330.9301583020921
 21
366.3886250221049
 31
0.0
  0
LINE
  5
4884
330
1A
100
AcDbEntity
  8
SEIHIN
100
AcDbLine
 10
340.4892842946847
 20
367.4209733296548
 30
0.0
 11
341.5251462138352
 21
367.4083715414447
 31
0.0
  0
LINE
  5
4885
330
1A
100
AcDbEntity
  8
SEIHIN
100
AcDbLine
 10
339.4289518676171
 20
367.4252064902259
 30
0.0
 11
340.4892842946847
 21
367.4209733296548
 31
0.0
  0
LINE
  5
4886
330
1A
100
AcDbEntity
  8
SEIHIN
100
AcDbLine
 10
335.1801583020923
 20
367.4252064902259
 30
0.0
 11
337.9301583020922
 21
367.4252064902258
 31
0.0
  0
LINE
  5
4887
330
1A
100
AcDbEntity
  8
SEIHIN
100
AcDbLine
 10
337.9301583020922
 20
366.3886250221049
 30
0.0
 11
339.4301583020923
 21
366.3886250221048
 31
0.0
  0
ARC
  5
4888
330
1A
100
AcDbEntity
  8
SEIHIN
100
AcDbCircle
 10
343.1608108781389
 20
364.0674557805658
 30
0.0
 40
3.311552300605362
100
AcDbArc
 50
9.287500479480308
 51
93.28947579638987
  0
LINE
  5
4A30
330
1A
100
AcDbEntity
  8
ZUWAKU
100
AcDbLine
 10
208.646601303624
 20
15.19999986828872
 30
0.0
 11
447.4243639845474
 21
15.19999986828871
 31
0.0
  0
LINE
  5
4A31
330
1A
100
AcDbEntity
  8
ZUWAKU
100
AcDbLine
 10
208.646601303624
 20
15.59999986828871
 30
0.0
 11
447.4243639845474
 21
15.59999986828872
 31
0.0
  0
LINE
  5
4A32
330
1A
100
AcDbEntity
  8
ZUWAKU
100
AcDbLine
 10
208.646601303624
 20
15.39999986828871
 30
0.0
 11
447.4243639845474
 21
15.39999986828871
 31
0.0
  0
LINE
  5
4A33
330
1A
100
AcDbEntity
  8
ZUWAKU
100
AcDbLine
 10
0.0000000135560185
 20
30.79999986828869
 30
0.0
 11
797.4000000135559
 21
30.79999986828869
 31
0.0
  0
LINE
  5
4A34
330
1A
100
AcDbEntity
  8
ZUWAKU
100
AcDbLine
 10
0.0000000135560185
 20
30.5999998682887
 30
0.0
 11
797.4000000135559
 21
30.5999998682887
 31
0.0
  0
LINE
  5
4A35
330
1A
100
AcDbEntity
  8
ZUWAKU
100
AcDbLine
 10
0.0000000135560185
 20
30.39999986828869
 30
0.0
 11
797.4000000135559
 21
30.39999986828869
 31
0.0
  0
LINE
  5
4A36
330
1A
100
AcDbEntity
  8
ZUWAKU
100
AcDbLine
 10
0.0000000135560185
 20
30.19999986828868
 30
0.0
 11
797.4000000135559
 21
30.19999986828868
 31
0.0
  0
LINE
  5
4A37
330
1A
100
AcDbEntity
  8
ZUWAKU
100
AcDbLine
 10
0.0000000135560185
 20
29.99999986828868
 30
0.0
 11
797.4000000135559
 21
29.99999986828868
 31
0.0
  0
LWPOLYLINE
  5
4A38
330
1A
100
AcDbEntity
  8
ZUWAKU
100
AcDbPolyline
 90
        4
 70
     1
 43
0.0
 10
0.2000000135559503
 20
551.3999998682887
 10
0.2000000135559503
 20
0.1999998682887281
 10
797.4000000135559
 20
0.1999998682887511
 10
797.4000000135561
 20
551.3999998682887
  0
LWPOLYLINE
  5
4A39
330
1A
100
AcDbEntity
  8
ZUWAKU
100
AcDbPolyline
 90
        4
 70
     1
 43
0.0
 10
0.6000000135559276
 20
550.9999998682888
 10
0.6000000135559276
 20
0.5999998682887054
 10
797.0000000135563
 20
0.5999998682887516
 10
797.000000013556
 20
550.9999998682888
  0
LWPOLYLINE
  5
4A3A
330
1A
100
AcDbEntity
  8
ZUWAKU
100
AcDbPolyline
 90
        4
 70
     1
 43
0.0
 10
0.0000000135560185
 20
551.5999998682887
 10
0.0000000135560185
 20
-0.0000001317113174
 10
797.600000013556
 20
-0.0000001317112499
 10
797.600000013556
 20
551.5999998682888
  0
LWPOLYLINE
  5
4A3B
330
1A
100
AcDbEntity
  8
ZUWAKU
100
AcDbPolyline
 90
        4
 70
     1
 43
0.0
 10
0.4000000135559958
 20
551.1999998682886
 10
0.4000000135559958
 20
0.3999998682887735
 10
797.2000000135561
 20
0.3999998682887504
 10
797.2000000135561
 20
551.1999998682886
  0
LWPOLYLINE
  5
4A3C
330
1A
100
AcDbEntity
  8
ZUWAKU
100
AcDbPolyline
 90
        4
 70
     1
 43
0.0
 10
0.8000000135559731
 20
550.7999998682886
 10
0.8000000135559731
 20
0.7999998682887508
 10
796.8000000135559
 20
0.7999998682887508
 10
796.8000000135559
 20
550.7999998682886
  0
TEXT
  5
4A3D
330
1A
100
AcDbEntity
  8
MOJI
100
AcDbText
 10
92.95778960172515
 20
12.74117799856344
 30
0.0
 40
6.0
  1
アーバントップΣ９０
 41
0.9
  7
ｽﾀｲﾙ1
100
AcDbText
  0
HATCH
  5
4A3E
330
1A
100
AcDbEntity
  8
ZUWAKU
100
AcDbHatch
 10
0.0
 20
0.0
 30
0.0
210
0.0
220
0.0
230
1.0
  2
ANSI37
 70
     0
 71
     0
 91
        8
 92
        7
 72
     1
 73
     1
 93
       24
 10
14.50226267467587
 20
17.64484834927226
 42
-0.1989123673796348
 10
14.09221216833714
 20
18.63479784293331
 42
0.0
 10
14.09221216833714
 20
19.92499986828869
 42
-0.4142135623730912
 10
14.61721216833711
 20
20.44999986828868
 42
0.0
 10
17.59221216833702
 20
20.44999986828868
 42
0.4142135623731546
 10
18.11721216833712
 20
20.97499986828867
 42
0.0
 10
18.11721216833712
 20
22.7249998682887
 42
0.4142135623731586
 10
17.59221216833702
 20
23.24999986828868
 42
0.0
 10
14.09221216833714
 20
23.24999986828868
 42
0.4142135623730928
 10
11.29221216833718
 20
20.44999986828871
 42
0.0
 10
11.29221216833718
 20
18.63479784293344
 42
0.1989123673796619
 10
12.52236368735361
 20
15.66494936194983
 42
0.0
 10
15.43216166199829
 20
12.75515138730518
 42
-0.1989123673796613
 10
15.84221216833714
 20
11.76520189364399
 42
0.0
 10
15.84221216833714
 20
10.47499986828867
 42
-0.4142135623730911
 10
15.31721216833716
 20
9.949999868288684
 42
0.0
 10
12.34221216833725
 20
9.949999868288684
 42
0.4142135623731526
 10
11.81721216833716
 20
9.424999868288696
 42
0.0
 10
11.81721216833716
 20
7.674999868288675
 42
0.4142135623731526
 10
12.34221216833725
 20
7.149999868288687
 42
0.0
 10
15.84221216833714
 20
7.149999868288687
 42
0.4142135623731044
 10
18.64221216833721
 20
9.949999868288664
 42
0.0
 10
18.64221216833721
 20
11.76520189364393
 42
0.1989123673796604
 10
17.41206064932066
 20
14.73505037462747
 42
0.0
 97
        0
 92
        7
 72
     1
 73
     1
 93
       16
 10
23.54221216833718
 20
19.04999986828869
 42
-0.4142135623730935
 10
24.94221216833716
 20
20.44999986828868
 42
0.0
 10
26.86721216833712
 20
20.44999986828868
 42
0.4142135623731546
 10
27.39221216833721
 20
20.97499986828867
 42
0.0
 10
27.39221216833721
 20
22.7249998682887
 42
0.4142135623730951
 10
26.86721216833723
 20
23.24999986828868
 42
0.0
 10
24.94221216833705
 20
23.24999986828864
 42
0.4142135623730892
 10
20.74221216833711
 20
19.04999986828862
 42
0.0
 10
20.74221216833711
 20
11.34999986828871
 42
0.4142135623730969
 10
24.94221216833716
 20
7.149999868288687
 42
0.0
 10
26.86721216833712
 20
7.149999868288687
 42
0.4142135623731526
 10
27.39221216833721
 20
7.674999868288675
 42
0.0
 10
27.39221216833721
 20
9.424999868288696
 42
0.4142135623730891
 10
26.86721216833723
 20
9.949999868288684
 42
0.0
 10
24.94221216833716
 20
9.949999868288684
 42
-0.4142135623730928
 10
23.54221216833718
 20
11.34999986828867
 42
0.0
 97
        0
 92
        7
 72
     1
 73
     1
 93
        2
 10
24.24221216833712
 20
15.19999986828868
 42
1.0
 10
27.74221216833712
 20
15.19999986828868
 42
1.0
 97
        0
 92
        7
 72
     1
 73
     1
 93
       26
 10
37.31485865051513
 20
19.20504706185211
 42
0.0
 10
38.37649828365296
 20
22.5669059001217
 42
0.5069206636600134
 10
37.87586738445759
 20
23.24999986828868
 42
0.0
 10
36.17697800484836
 20
23.24999986828868
 42
0.3272098845218764
 10
35.676347105653
 20
22.88309383645565
 42
0.0
 10
33.80807723102122
 20
16.96690590012176
 42
-0.3272098845219541
 10
33.30744633182575
 20
16.59999986828868
 42
0.0
 10
33.1672121683373
 20
16.59999986828868
 42
-0.4142135623731526
 10
32.64221216833721
 20
17.12499986828867
 42
0.0
 10
32.64221216833721
 20
22.7249998682887
 42
0.4142135623730951
 10
32.11721216833723
 20
23.24999986828868
 42
0.0
 10
30.36721216833711
 20
23.24999986828868
 42
0.4142135623730871
 10
29.84221216833714
 20
22.7249998682887
 42
0.0
 10
29.84221216833714
 20
7.674999868288675
 42
0.4142135623730891
 10
30.36721216833711
 20
7.149999868288687
 42
0.0
 10
32.11721216833712
 20
7.149999868288687
 42
0.4142135623731526
 10
32.64221216833721
 20
7.674999868288675
 42
0.0
 10
32.64221216833721
 20
13.27499986828869
 42
-0.4142135623731526
 10
33.1672121683373
 20
13.79999986828868
 42
0.0
 10
33.30744633182587
 20
13.79999986828868
 42
-0.3272098845218915
 10
33.80807723102122
 20
13.43309383645561
 42
0.0
 10
35.676347105653
 20
7.516905900121759
 42
0.3272098845218902
 10
36.17697800484836
 20
7.149999868288687
 42
0.0
 10
37.87586738445759
 20
7.149999868288687
 42
0.5069206636600335
 10
38.37649828365296
 20
7.833093836455696
 42
0.0
 10
36.05010690517929
 20
15.19999986828882
 42
0.0
 97
        0
 92
        7
 72
     1
 73
     1
 93
        8
 10
43.49221216833711
 20
22.7249998682887
 42
0.4142135623731546
 10
42.96721216833702
 20
23.24999986828868
 42
0.0
 10
41.21721216833726
 20
23.24999986828868
 42
0.4142135623731507
 10
40.69221216833716
 20
22.7249998682887
 42
0.0
 10
40.69221216833716
 20
7.674999868288675
 42
0.4142135623731526
 10
41.21721216833726
 20
7.149999868288687
 42
0.0
 10
42.96721216833702
 20
7.149999868288687
 42
0.4142135623731526
 10
43.49221216833711
 20
7.674999868288675
 42
0.0
 97
        0
 92
        7
 72
     1
 73
     1
 93
       24
 10
48.3922121683372
 20
19.92499986828869
 42
-0.4142135623731546
 10
48.9172121683373
 20
20.44999986828868
 42
0.0
 10
51.89221216833721
 20
20.44999986828868
 42
0.4142135623730911
 10
52.41721216833718
 20
20.97499986828867
 42
0.0
 10
52.41721216833718
 20
22.7249998682887
 42
0.4142135623730952
 10
51.89221216833721
 20
23.24999986828868
 42
0.0
 10
48.3922121683372
 20
23.24999986828868
 42
0.4142135623731048
 10
45.59221216833714
 20
20.44999986828871
 42
0.0
 10
45.59221216833714
 20
18.63479784293344
 42
0.1989123673796613
 10
46.82236368735368
 20
15.66494936194989
 42
0.0
 10
49.73216166199835
 20
12.75515138730522
 42
-0.1989123673796402
 10
50.14221216833721
 20
11.76520189364415
 42
0.0
 10
50.14221216833721
 20
10.47499986828867
 42
-0.4142135623730911
 10
49.61721216833723
 20
9.949999868288684
 42
0.0
 10
46.64221216833721
 20
9.949999868288684
 42
0.4142135623731526
 10
46.11721216833712
 20
9.424999868288696
 42
0.0
 10
46.11721216833712
 20
7.674999868288675
 42
0.4142135623730891
 10
46.6422121683371
 20
7.149999868288687
 42
0.0
 10
50.14221216833721
 20
7.149999868288687
 42
0.4142135623730925
 10
52.94221216833716
 20
9.949999868288664
 42
0.0
 10
52.94221216833716
 20
11.76520189364393
 42
0.1989123673796675
 10
51.71206064932062
 20
14.73505037462759
 42
0.0
 10
48.80226267467604
 20
17.6448483492721
 42
-0.1989123673796652
 10
48.3922121683372
 20
18.63479784293327
 42
0.0
 97
        0
 92
        7
 72
     1
 73
     1
 93
       16
 10
57.84221216833714
 20
22.72499986828867
 42
0.414213562373103
 10
57.31721216833716
 20
23.24999986828868
 42
0.0
 10
55.56721216833716
 20
23.24999986828868
 42
0.4142135623730871
 10
55.04221216833718
 20
22.7249998682887
 42
0.0
 10
55.04221216833718
 20
9.949999868288664
 42
0.4142135623730926
 10
57.84221216833714
 20
7.149999868288687
 42
0.0
 10
61.34221216833714
 20
7.149999868288687
 42
0.4142135623731044
 10
64.14221216833721
 20
9.949999868288664
 42
0.0
 10
64.14221216833721
 20
22.7249998682887
 42
0.4142135623730951
 10
63.61721216833723
 20
23.24999986828868
 42
0.0
 10
61.86721216833712
 20
23.24999986828868
 42
0.4142135623730871
 10
61.34221216833714
 20
22.7249998682887
 42
0.0
 10
61.34221216833714
 20
10.99999986828866
 42
-0.4142135623730879
 10
60.29221216833718
 20
9.949999868288684
 42
0.0
 10
58.89221216833721
 20
9.949999868288684
 42
-0.4142135623731197
 10
57.84221216833714
 20
10.99999986828866
 42
0.0
 97
        0
 92
        7
 72
     1
 73
     1
 93
        8
 10
69.04221216833719
 20
22.7249998682887
 42
0.4142135623730871
 10
68.51721216833721
 20
23.24999986828868
 42
0.0
 10
66.76721216833721
 20
23.24999986828868
 42
0.4142135623731507
 10
66.24221216833712
 20
22.7249998682887
 42
0.0
 10
66.24221216833712
 20
7.674999868288675
 42
0.4142135623730891
 10
66.7672121683371
 20
7.149999868288687
 42
0.0
 10
68.51721216833721
 20
7.149999868288687
 42
0.4142135623730891
 10
69.04221216833719
 20
7.674999868288675
 42
0.0
 97
        0
 75
     0
 76
     1
 52
0.0
 41
0.2
 77
     0
 78
     2
 53
45.0
 43
-900.9423043211231
 44
-13.20000013171124
 45
-0.4490128060534576
 46
0.4490128060534577
 79
     0
 53
135.0
 43
-900.9423043211231
 44
-13.20000013171124
 45
-0.4490128060534577
 46
-0.4490128060534576
 79
     0
 47
0.057451373970553
 98
        8
 10
16.07985497657932
 20
15.16717351417423
 10
22.4045150199952
 20
18.84406205073969
 10
25.16436789921567
 20
15.5118815143594
 10
30.91405999519315
 20
16.20129751473018
 10
41.83847203251275
 20
16.6609097822718
 10
46.89820090868557
 20
19.41857618469589
 10
56.55768598595636
 20
18.72915778338369
 10
67.82707963317876
 20
19.18877005092531
  0
LINE
  5
4A3F
330
1A
100
AcDbEntity
  8
ZUWAKU
100
AcDbLine
 10
24.94221216833716
 20
23.24999986828864
 30
0.0
 11
26.86721216833712
 21
23.24999986828868
 31
0.0
  0
LINE
  5
4A40
330
1A
100
AcDbEntity
  8
ZUWAKU
100
AcDbLine
 10
26.86721216833712
 20
20.44999986828868
 30
0.0
 11
24.94221216833716
 21
20.44999986828868
 31
0.0
  0
LINE
  5
4A41
330
1A
100
AcDbEntity
  8
ZUWAKU
100
AcDbLine
 10
24.94221216833716
 20
9.949999868288684
 30
0.0
 11
26.86721216833712
 21
9.949999868288684
 31
0.0
  0
LINE
  5
4A42
330
1A
100
AcDbEntity
  8
ZUWAKU
100
AcDbLine
 10
26.86721216833712
 20
7.149999868288687
 30
0.0
 11
24.94221216833716
 21
7.149999868288687
 31
0.0
  0
CIRCLE
  5
4A43
330
1A
100
AcDbEntity
  8
ZUWAKU
100
AcDbCircle
 10
25.99221216833711
 20
15.19999986828868
 30
0.0
 40
1.75
  0
ARC
  5
4A44
330
1A
100
AcDbEntity
  8
ZUWAKU
100
AcDbCircle
 10
15.49221216833712
 20
18.63479784293338
 30
0.0
 40
1.399999999999999
100
AcDbArc
 50
180.0000000000016
 51
224.9999999999988
  0
LINE
  5
4A45
330
1A
100
AcDbEntity
  8
ZUWAKU
100
AcDbLine
 10
23.54221216833718
 20
19.04999986828868
 30
0.0
 11
23.54221216833718
 21
11.34999986828869
 31
0.0
  0
LINE
  5
4A46
330
1A
100
AcDbEntity
  8
ZUWAKU
100
AcDbLine
 10
20.74221216833711
 20
11.34999986828869
 30
0.0
 11
20.74221216833711
 21
19.04999986828864
 31
0.0
  0
ARC
  5
4A47
330
1A
100
AcDbEntity
  8
ZUWAKU
100
AcDbCircle
 10
15.49221216833712
 20
18.63479784293338
 30
0.0
 40
4.199999999999998
100
AcDbArc
 50
180.0
 51
225.0
  0
ARC
  5
4A48
330
1A
100
AcDbEntity
  8
ZUWAKU
100
AcDbCircle
 10
15.84221216833714
 20
9.949999868288684
 30
0.0
 40
2.799999999999999
100
AcDbArc
 50
270.0
 51
0.0
  0
ARC
  5
4A49
330
1A
100
AcDbEntity
  8
ZUWAKU
100
AcDbCircle
 10
24.94221216833716
 20
11.34999986828869
 30
0.0
 40
4.199999999999998
100
AcDbArc
 50
180.0
 51
270.0
  0
ARC
  5
4A4A
330
1A
100
AcDbEntity
  8
ZUWAKU
100
AcDbCircle
 10
14.44221216833716
 20
11.76520189364399
 30
0.0
 40
4.199999999999998
100
AcDbArc
 50
0.0
 51
45.0
  0
LINE
  5
4A4B
330
1A
100
AcDbEntity
  8
ZUWAKU
100
AcDbLine
 10
17.41206064932066
 20
14.73505037462751
 30
0.0
 11
14.50226267467598
 21
17.64484834927218
 31
0.0
  0
LINE
  5
4A4C
330
1A
100
AcDbEntity
  8
ZUWAKU
100
AcDbLine
 10
15.84221216833714
 20
10.47499986828869
 30
0.0
 11
15.84221216833714
 21
11.76520189364403
 31
0.0
  0
ARC
  5
4A4D
330
1A
100
AcDbEntity
  8
ZUWAKU
100
AcDbCircle
 10
15.31721216833716
 20
10.47499986828869
 30
0.0
 40
0.525
100
AcDbArc
 50
270.0
 51
0.0
  0
ARC
  5
4A4E
330
1A
100
AcDbEntity
  8
ZUWAKU
100
AcDbCircle
 10
14.44221216833716
 20
11.76520189364403
 30
0.0
 40
1.399999999999999
100
AcDbArc
 50
0.0
 51
45.0
  0
LINE
  5
4A4F
330
1A
100
AcDbEntity
  8
ZUWAKU
100
AcDbLine
 10
11.81721216833716
 20
7.674999868288686
 30
0.0
 11
11.81721216833716
 21
9.424999868288685
 31
0.0
  0
ARC
  5
4A50
330
1A
100
AcDbEntity
  8
ZUWAKU
100
AcDbCircle
 10
12.34221216833714
 20
7.674999868288686
 30
0.0
 40
0.525
100
AcDbArc
 50
180.0
 51
270.0
  0
ARC
  5
4A51
330
1A
100
AcDbEntity
  8
ZUWAKU
100
AcDbCircle
 10
12.34221216833714
 20
9.424999868288685
 30
0.0
 40
0.525
100
AcDbArc
 50
90.0
 51
180.0
  0
LINE
  5
4A52
330
1A
100
AcDbEntity
  8
ZUWAKU
100
AcDbLine
 10
12.34221216833714
 20
7.149999868288687
 30
0.0
 11
15.84221216833714
 21
7.149999868288687
 31
0.0
  0
LINE
  5
4A53
330
1A
100
AcDbEntity
  8
ZUWAKU
100
AcDbLine
 10
12.34221216833714
 20
9.949999868288684
 30
0.0
 11
15.31721216833716
 21
9.949999868288684
 31
0.0
  0
LINE
  5
4A54
330
1A
100
AcDbEntity
  8
ZUWAKU
100
AcDbLine
 10
12.52236368735361
 20
15.66494936194986
 30
0.0
 11
15.43216166199829
 21
12.7551513873052
 31
0.0
  0
LINE
  5
4A55
330
1A
100
AcDbEntity
  8
ZUWAKU
100
AcDbLine
 10
18.64221216833721
 20
9.949999868288684
 30
0.0
 11
18.64221216833721
 21
11.76520189364403
 31
0.0
  0
ARC
  5
4A56
330
1A
100
AcDbEntity
  8
ZUWAKU
100
AcDbCircle
 10
24.94221216833716
 20
11.34999986828869
 30
0.0
 40
1.399999999999999
100
AcDbArc
 50
180.0
 51
270.0
  0
ARC
  5
4A57
330
1A
100
AcDbEntity
  8
ZUWAKU
100
AcDbCircle
 10
17.59221216833714
 20
22.72499986828868
 30
0.0
 40
0.525
100
AcDbArc
 50
0.0
 51
90.0
  0
ARC
  5
4A58
330
1A
100
AcDbEntity
  8
ZUWAKU
100
AcDbCircle
 10
17.59221216833714
 20
20.97499986828868
 30
0.0
 40
0.525
100
AcDbArc
 50
270.0
 51
0.0
  0
LINE
  5
4A59
330
1A
100
AcDbEntity
  8
ZUWAKU
100
AcDbLine
 10
14.09221216833714
 20
23.24999986828868
 30
0.0
 11
17.59221216833714
 21
23.24999986828868
 31
0.0
  0
ARC
  5
4A5A
330
1A
100
AcDbEntity
  8
ZUWAKU
100
AcDbCircle
 10
14.61721216833711
 20
19.92499986828868
 30
0.0
 40
0.525
100
AcDbArc
 50
90.0
 51
180.0
  0
LINE
  5
4A5B
330
1A
100
AcDbEntity
  8
ZUWAKU
100
AcDbLine
 10
14.09221216833714
 20
19.92499986828868
 30
0.0
 11
14.09221216833714
 21
18.63479784293334
 31
0.0
  0
LINE
  5
4A5C
330
1A
100
AcDbEntity
  8
ZUWAKU
100
AcDbLine
 10
17.59221216833714
 20
20.44999986828868
 30
0.0
 11
14.61721216833711
 21
20.44999986828868
 31
0.0
  0
LINE
  5
4A5D
330
1A
100
AcDbEntity
  8
ZUWAKU
100
AcDbLine
 10
11.29221216833718
 20
20.44999986828868
 30
0.0
 11
11.29221216833718
 21
18.63479784293334
 31
0.0
  0
ARC
  5
4A5E
330
1A
100
AcDbEntity
  8
ZUWAKU
100
AcDbCircle
 10
14.09221216833714
 20
20.44999986828868
 30
0.0
 40
2.799999999999999
100
AcDbArc
 50
90.0
 51
180.0
  0
LINE
  5
4A5F
330
1A
100
AcDbEntity
  8
ZUWAKU
100
AcDbLine
 10
18.11721216833712
 20
22.72499986828868
 30
0.0
 11
18.11721216833712
 21
20.97499986828868
 31
0.0
  0
ARC
  5
4A60
330
1A
100
AcDbEntity
  8
ZUWAKU
100
AcDbCircle
 10
24.94221216833716
 20
19.04999986828868
 30
0.0
 40
1.399999999999999
100
AcDbArc
 50
90.0
 51
180.0
  0
ARC
  5
4A61
330
1A
100
AcDbEntity
  8
ZUWAKU
100
AcDbCircle
 10
24.94221216833716
 20
19.04999986828864
 30
0.0
 40
4.199999999999998
100
AcDbArc
 50
90.0
 51
180.0
  0
LINE
  5
4A62
330
1A
100
AcDbEntity
  8
ZUWAKU
100
AcDbLine
 10
79.32662956154422
 20
29.99999986828868
 30
0.0
 11
79.32662956154445
 21
0.7999998682887508
 31
0.0
  0
LINE
  5
4A63
330
1A
100
AcDbEntity
  8
ZUWAKU
100
AcDbLine
 10
79.52662956154427
 20
29.99999986828868
 30
0.0
 11
79.52662956154448
 21
0.7999998682887508
 31
0.0
  0
LINE
  5
4A64
330
1A
100
AcDbEntity
  8
ZUWAKU
100
AcDbLine
 10
79.12662956154441
 20
29.99999986828868
 30
0.0
 11
79.12662956154441
 21
0.7999998682887508
 31
0.0
  0
LINE
  5
4A65
330
1A
100
AcDbEntity
  8
ZUWAKU
100
AcDbLine
 10
64.14221216833721
 20
9.949999868288684
 30
0.0
 11
64.14221216833721
 21
22.72499986828868
 31
0.0
  0
LINE
  5
4A66
330
1A
100
AcDbEntity
  8
ZUWAKU
100
AcDbLine
 10
61.34221216833714
 20
22.72499986828868
 30
0.0
 11
61.34221216833714
 21
10.99999986828868
 31
0.0
  0
LINE
  5
4A67
330
1A
100
AcDbEntity
  8
ZUWAKU
100
AcDbLine
 10
69.04221216833719
 20
7.674999868288686
 30
0.0
 11
69.04221216833719
 21
22.72499986828868
 31
0.0
  0
LINE
  5
4A68
330
1A
100
AcDbEntity
  8
ZUWAKU
100
AcDbLine
 10
66.24221216833712
 20
22.72499986828868
 30
0.0
 11
66.24221216833712
 21
7.674999868288686
 31
0.0
  0
ARC
  5
4A69
330
1A
100
AcDbEntity
  8
ZUWAKU
100
AcDbCircle
 10
49.79221216833718
 20
18.63479784293338
 30
0.0
 40
1.399999999999999
100
AcDbArc
 50
180.0000000000016
 51
224.9999999999988
  0
ARC
  5
4A6A
330
1A
100
AcDbEntity
  8
ZUWAKU
100
AcDbCircle
 10
49.79221216833718
 20
18.63479784293338
 30
0.0
 40
4.199999999999998
100
AcDbArc
 50
180.0
 51
225.0
  0
LINE
  5
4A6B
330
1A
100
AcDbEntity
  8
ZUWAKU
100
AcDbLine
 10
37.31485865051513
 20
19.20504706185211
 30
0.0
 11
36.05010690517929
 21
15.1999998682887
 31
0.0
  0
LINE
  5
4A6C
330
1A
100
AcDbEntity
  8
ZUWAKU
100
AcDbLine
 10
40.69221216833716
 20
22.72499986828868
 30
0.0
 11
40.69221216833716
 21
7.674999868288686
 31
0.0
  0
LINE
  5
4A6D
330
1A
100
AcDbEntity
  8
ZUWAKU
100
AcDbLine
 10
43.49221216833711
 20
7.674999868288686
 30
0.0
 11
43.49221216833711
 21
22.72499986828868
 31
0.0
  0
LINE
  5
4A6E
330
1A
100
AcDbEntity
  8
ZUWAKU
100
AcDbLine
 10
55.04221216833718
 20
22.72499986828868
 30
0.0
 11
55.04221216833718
 21
9.949999868288684
 31
0.0
  0
LINE
  5
4A6F
330
1A
100
AcDbEntity
  8
ZUWAKU
100
AcDbLine
 10
57.84221216833714
 20
10.99999986828868
 30
0.0
 11
57.84221216833714
 21
22.72499986828868
 31
0.0
  0
LINE
  5
4A70
330
1A
100
AcDbEntity
  8
ZUWAKU
100
AcDbLine
 10
32.64221216833721
 20
17.12499986828869
 30
0.0
 11
32.64221216833721
 21
22.72499986828868
 31
0.0
  0
LINE
  5
4A71
330
1A
100
AcDbEntity
  8
ZUWAKU
100
AcDbLine
 10
29.84221216833714
 20
22.72499986828868
 30
0.0
 11
29.84221216833714
 21
7.674999868288686
 31
0.0
  0
LINE
  5
4A72
330
1A
100
AcDbEntity
  8
ZUWAKU
100
AcDbLine
 10
35.676347105653
 20
22.88309383645565
 30
0.0
 11
33.80807723102122
 21
16.96690590012171
 31
0.0
  0
LINE
  5
4A73
330
1A
100
AcDbEntity
  8
ZUWAKU
100
AcDbLine
 10
60.29221216833718
 20
9.949999868288684
 30
0.0
 11
58.89221216833721
 21
9.949999868288684
 31
0.0
  0
LINE
  5
4A74
330
1A
100
AcDbEntity
  8
ZUWAKU
100
AcDbLine
 10
57.84221216833714
 20
7.149999868288687
 30
0.0
 11
61.34221216833714
 21
7.149999868288687
 31
0.0
  0
LINE
  5
4A75
330
1A
100
AcDbEntity
  8
ZUWAKU
100
AcDbLine
 10
41.21721216833714
 20
7.149999868288687
 30
0.0
 11
42.96721216833714
 21
7.149999868288687
 31
0.0
  0
LINE
  5
4A76
330
1A
100
AcDbEntity
  8
ZUWAKU
100
AcDbLine
 10
35.676347105653
 20
7.516905900121713
 30
0.0
 11
33.80807723102122
 21
13.43309383645565
 31
0.0
  0
ARC
  5
4A77
330
1A
100
AcDbEntity
  8
ZUWAKU
100
AcDbCircle
 10
33.30744633182587
 20
17.12499986828869
 30
0.0
 40
0.525
100
AcDbArc
 50
270.0
 51
342.474431626277
  0
LINE
  5
4A78
330
1A
100
AcDbEntity
  8
ZUWAKU
100
AcDbLine
 10
33.30744633182587
 20
16.59999986828868
 30
0.0
 11
33.16721216833718
 21
16.59999986828868
 31
0.0
  0
LINE
  5
4A79
330
1A
100
AcDbEntity
  8
ZUWAKU
100
AcDbLine
 10
33.16721216833718
 20
13.79999986828868
 30
0.0
 11
33.30744633182587
 21
13.79999986828868
 31
0.0
  0
ARC
  5
4A7A
330
1A
100
AcDbEntity
  8
ZUWAKU
100
AcDbCircle
 10
33.16721216833718
 20
17.12499986828869
 30
0.0
 40
0.525
100
AcDbArc
 50
180.0
 51
270.0
  0
LINE
  5
4A7B
330
1A
100
AcDbEntity
  8
ZUWAKU
100
AcDbLine
 10
30.36721216833711
 20
7.149999868288687
 30
0.0
 11
32.11721216833712
 21
7.149999868288687
 31
0.0
  0
ARC
  5
4A7C
330
1A
100
AcDbEntity
  8
ZUWAKU
100
AcDbCircle
 10
32.11721216833712
 20
7.674999868288686
 30
0.0
 40
0.525
100
AcDbArc
 50
270.0
 51
0.0
  0
LINE
  5
4A7D
330
1A
100
AcDbEntity
  8
ZUWAKU
100
AcDbLine
 10
32.64221216833721
 20
7.674999868288686
 30
0.0
 11
32.64221216833721
 21
13.27499986828868
 31
0.0
  0
LINE
  5
4A7E
330
1A
100
AcDbEntity
  8
ZUWAKU
100
AcDbLine
 10
27.39221216833721
 20
9.424999868288685
 30
0.0
 11
27.39221216833721
 21
7.674999868288686
 31
0.0
  0
ARC
  5
4A7F
330
1A
100
AcDbEntity
  8
ZUWAKU
100
AcDbCircle
 10
26.86721216833712
 20
7.674999868288686
 30
0.0
 40
0.525
100
AcDbArc
 50
270.0
 51
0.0
  0
ARC
  5
4A80
330
1A
100
AcDbEntity
  8
ZUWAKU
100
AcDbCircle
 10
26.86721216833712
 20
9.424999868288685
 30
0.0
 40
0.525
100
AcDbArc
 50
0.0
 51
90.0
  0
ARC
  5
4A81
330
1A
100
AcDbEntity
  8
ZUWAKU
100
AcDbCircle
 10
30.36721216833711
 20
7.674999868288686
 30
0.0
 40
0.525
100
AcDbArc
 50
180.0
 51
270.0
  0
ARC
  5
4A82
330
1A
100
AcDbEntity
  8
ZUWAKU
100
AcDbCircle
 10
33.30744633182587
 20
13.27499986828868
 30
0.0
 40
0.525
100
AcDbArc
 50
17.52556837372303
 51
90.0
  0
ARC
  5
4A83
330
1A
100
AcDbEntity
  8
ZUWAKU
100
AcDbCircle
 10
33.16721216833718
 20
13.27499986828868
 30
0.0
 40
0.525
100
AcDbArc
 50
90.0
 51
180.0
  0
ARC
  5
4A84
330
1A
100
AcDbEntity
  8
ZUWAKU
100
AcDbCircle
 10
41.21721216833714
 20
7.674999868288686
 30
0.0
 40
0.525
100
AcDbArc
 50
180.0
 51
270.0
  0
LINE
  5
4A85
330
1A
100
AcDbEntity
  8
ZUWAKU
100
AcDbLine
 10
36.17697800484847
 20
7.149999868288687
 30
0.0
 11
37.87586738445748
 21
7.149999868288687
 31
0.0
  0
ARC
  5
4A86
330
1A
100
AcDbEntity
  8
ZUWAKU
100
AcDbCircle
 10
37.87586738445748
 20
7.674999868288686
 30
0.0
 40
0.525
100
AcDbArc
 50
270.0
 51
17.52556837372303
  0
LINE
  5
4A87
330
1A
100
AcDbEntity
  8
ZUWAKU
100
AcDbLine
 10
38.37649828365296
 20
7.83309383645566
 30
0.0
 11
36.05010690517929
 21
15.1999998682887
 31
0.0
  0
ARC
  5
4A88
330
1A
100
AcDbEntity
  8
ZUWAKU
100
AcDbCircle
 10
36.17697800484847
 20
7.674999868288686
 30
0.0
 40
0.525
100
AcDbArc
 50
197.525568373723
 51
270.0
  0
ARC
  5
4A89
330
1A
100
AcDbEntity
  8
ZUWAKU
100
AcDbCircle
 10
57.84221216833714
 20
9.949999868288684
 30
0.0
 40
2.799999999999999
100
AcDbArc
 50
180.0
 51
270.0
  0
ARC
  5
4A8A
330
1A
100
AcDbEntity
  8
ZUWAKU
100
AcDbCircle
 10
50.14221216833721
 20
9.949999868288684
 30
0.0
 40
2.799999999999999
100
AcDbArc
 50
270.0
 51
0.0
  0
LINE
  5
4A8B
330
1A
100
AcDbEntity
  8
ZUWAKU
100
AcDbLine
 10
51.71206064932073
 20
14.73505037462751
 30
0.0
 11
48.80226267467595
 21
17.64484834927218
 31
0.0
  0
LINE
  5
4A8C
330
1A
100
AcDbEntity
  8
ZUWAKU
100
AcDbLine
 10
50.14221216833721
 20
10.47499986828869
 30
0.0
 11
50.14221216833721
 21
11.76520189364403
 31
0.0
  0
ARC
  5
4A8D
330
1A
100
AcDbEntity
  8
ZUWAKU
100
AcDbCircle
 10
48.74221216833712
 20
11.76520189364403
 30
0.0
 40
1.399999999999999
100
AcDbArc
 50
0.0
 51
45.0
  0
ARC
  5
4A8E
330
1A
100
AcDbEntity
  8
ZUWAKU
100
AcDbCircle
 10
49.61721216833712
 20
10.47499986828869
 30
0.0
 40
0.525
100
AcDbArc
 50
270.0
 51
0.0
  0
LINE
  5
4A8F
330
1A
100
AcDbEntity
  8
ZUWAKU
100
AcDbLine
 10
46.11721216833712
 20
7.674999868288686
 30
0.0
 11
46.11721216833712
 21
9.424999868288685
 31
0.0
  0
ARC
  5
4A90
330
1A
100
AcDbEntity
  8
ZUWAKU
100
AcDbCircle
 10
46.64221216833721
 20
7.674999868288686
 30
0.0
 40
0.525
100
AcDbArc
 50
180.0
 51
270.0
  0
ARC
  5
4A91
330
1A
100
AcDbEntity
  8
ZUWAKU
100
AcDbCircle
 10
42.96721216833714
 20
7.674999868288686
 30
0.0
 40
0.525
100
AcDbArc
 50
270.0
 51
0.0
  0
ARC
  5
4A92
330
1A
100
AcDbEntity
  8
ZUWAKU
100
AcDbCircle
 10
46.64221216833721
 20
9.424999868288685
 30
0.0
 40
0.525
100
AcDbArc
 50
90.0
 51
180.0
  0
LINE
  5
4A93
330
1A
100
AcDbEntity
  8
ZUWAKU
100
AcDbLine
 10
46.64221216833721
 20
9.949999868288684
 30
0.0
 11
49.61721216833712
 21
9.949999868288684
 31
0.0
  0
LINE
  5
4A94
330
1A
100
AcDbEntity
  8
ZUWAKU
100
AcDbLine
 10
46.64221216833721
 20
7.149999868288687
 30
0.0
 11
50.14221216833721
 21
7.149999868288687
 31
0.0
  0
LINE
  5
4A95
330
1A
100
AcDbEntity
  8
ZUWAKU
100
AcDbLine
 10
46.82236368735368
 20
15.66494936194986
 30
0.0
 11
49.73216166199835
 21
12.7551513873052
 31
0.0
  0
LINE
  5
4A96
330
1A
100
AcDbEntity
  8
ZUWAKU
100
AcDbLine
 10
52.94221216833716
 20
9.949999868288684
 30
0.0
 11
52.94221216833716
 21
11.76520189364403
 31
0.0
  0
ARC
  5
4A97
330
1A
100
AcDbEntity
  8
ZUWAKU
100
AcDbCircle
 10
48.74221216833712
 20
11.76520189364399
 30
0.0
 40
4.199999999999998
100
AcDbArc
 50
0.0
 51
45.0
  0
ARC
  5
4A98
330
1A
100
AcDbEntity
  8
ZUWAKU
100
AcDbCircle
 10
58.89221216833721
 20
10.99999986828868
 30
0.0
 40
1.049999999999999
100
AcDbArc
 50
180.0
 51
270.0
  0
ARC
  5
4A99
330
1A
100
AcDbEntity
  8
ZUWAKU
100
AcDbCircle
 10
61.34221216833714
 20
9.949999868288684
 30
0.0
 40
2.799999999999999
100
AcDbArc
 50
270.0
 51
0.0
  0
LINE
  5
4A9A
330
1A
100
AcDbEntity
  8
ZUWAKU
100
AcDbLine
 10
66.76721216833721
 20
7.149999868288687
 30
0.0
 11
68.51721216833721
 21
7.149999868288687
 31
0.0
  0
ARC
  5
4A9B
330
1A
100
AcDbEntity
  8
ZUWAKU
100
AcDbCircle
 10
66.76721216833721
 20
7.674999868288686
 30
0.0
 40
0.525
100
AcDbArc
 50
180.0
 51
270.0
  0
ARC
  5
4A9C
330
1A
100
AcDbEntity
  8
ZUWAKU
100
AcDbCircle
 10
60.29221216833718
 20
10.99999986828868
 30
0.0
 40
1.049999999999999
100
AcDbArc
 50
270.0
 51
0.0
  0
ARC
  5
4A9D
330
1A
100
AcDbEntity
  8
ZUWAKU
100
AcDbCircle
 10
68.51721216833721
 20
7.674999868288686
 30
0.0
 40
0.525
100
AcDbArc
 50
270.0
 51
0.0
  0
LINE
  5
4A9E
330
1A
100
AcDbEntity
  8
ZUWAKU
100
AcDbLine
 10
42.96721216833714
 20
23.24999986828868
 30
0.0
 11
41.21721216833714
 21
23.24999986828868
 31
0.0
  0
ARC
  5
4A9F
330
1A
100
AcDbEntity
  8
ZUWAKU
100
AcDbCircle
 10
32.11721216833712
 20
22.72499986828868
 30
0.0
 40
0.525
100
AcDbArc
 50
0.0
 51
90.0
  0
LINE
  5
4AA0
330
1A
100
AcDbEntity
  8
ZUWAKU
100
AcDbLine
 10
32.11721216833712
 20
23.24999986828868
 30
0.0
 11
30.36721216833711
 21
23.24999986828868
 31
0.0
  0
ARC
  5
4AA1
330
1A
100
AcDbEntity
  8
ZUWAKU
100
AcDbCircle
 10
26.86721216833712
 20
22.72499986828868
 30
0.0
 40
0.525
100
AcDbArc
 50
0.0
 51
90.0
  0
ARC
  5
4AA2
330
1A
100
AcDbEntity
  8
ZUWAKU
100
AcDbCircle
 10
30.36721216833711
 20
22.72499986828868
 30
0.0
 40
0.525
100
AcDbArc
 50
90.0
 51
180.0
  0
ARC
  5
4AA3
330
1A
100
AcDbEntity
  8
ZUWAKU
100
AcDbCircle
 10
26.86721216833712
 20
20.97499986828868
 30
0.0
 40
0.525
100
AcDbArc
 50
270.0
 51
0.0
  0
LINE
  5
4AA4
330
1A
100
AcDbEntity
  8
ZUWAKU
100
AcDbLine
 10
27.39221216833721
 20
22.72499986828868
 30
0.0
 11
27.39221216833721
 21
20.97499986828868
 31
0.0
  0
ARC
  5
4AA5
330
1A
100
AcDbEntity
  8
ZUWAKU
100
AcDbCircle
 10
41.21721216833714
 20
22.72499986828868
 30
0.0
 40
0.525
100
AcDbArc
 50
90.0
 51
180.0
  0
LINE
  5
4AA6
330
1A
100
AcDbEntity
  8
ZUWAKU
100
AcDbLine
 10
36.17697800484847
 20
23.24999986828868
 30
0.0
 11
37.87586738445748
 21
23.24999986828868
 31
0.0
  0
ARC
  5
4AA7
330
1A
100
AcDbEntity
  8
ZUWAKU
100
AcDbCircle
 10
37.87586738445748
 20
22.72499986828868
 30
0.0
 40
0.525
100
AcDbArc
 50
342.474431626277
 51
90.0
  0
LINE
  5
4AA8
330
1A
100
AcDbEntity
  8
ZUWAKU
100
AcDbLine
 10
38.37649828365296
 20
22.56690590012171
 30
0.0
 11
37.31485865051513
 21
19.20504706185211
 31
0.0
  0
ARC
  5
4AA9
330
1A
100
AcDbEntity
  8
ZUWAKU
100
AcDbCircle
 10
36.17697800484847
 20
22.72499986828868
 30
0.0
 40
0.525
100
AcDbArc
 50
90.0
 51
162.4744316262769
  0
LINE
  5
4AAA
330
1A
100
AcDbEntity
  8
ZUWAKU
100
AcDbLine
 10
48.3922121683372
 20
23.24999986828868
 30
0.0
 11
51.89221216833721
 21
23.24999986828868
 31
0.0
  0
LINE
  5
4AAB
330
1A
100
AcDbEntity
  8
ZUWAKU
100
AcDbLine
 10
51.89221216833721
 20
20.44999986828868
 30
0.0
 11
48.91721216833718
 21
20.44999986828868
 31
0.0
  0
ARC
  5
4AAC
330
1A
100
AcDbEntity
  8
ZUWAKU
100
AcDbCircle
 10
48.91721216833718
 20
19.92499986828868
 30
0.0
 40
0.525
100
AcDbArc
 50
90.0
 51
180.0
  0
LINE
  5
4AAD
330
1A
100
AcDbEntity
  8
ZUWAKU
100
AcDbLine
 10
48.3922121683372
 20
19.92499986828868
 30
0.0
 11
48.3922121683372
 21
18.63479784293334
 31
0.0
  0
ARC
  5
4AAE
330
1A
100
AcDbEntity
  8
ZUWAKU
100
AcDbCircle
 10
42.96721216833714
 20
22.72499986828868
 30
0.0
 40
0.525
100
AcDbArc
 50
0.0
 51
90.0
  0
LINE
  5
4AAF
330
1A
100
AcDbEntity
  8
ZUWAKU
100
AcDbLine
 10
45.59221216833714
 20
20.44999986828868
 30
0.0
 11
45.59221216833714
 21
18.63479784293334
 31
0.0
  0
ARC
  5
4AB0
330
1A
100
AcDbEntity
  8
ZUWAKU
100
AcDbCircle
 10
48.3922121683372
 20
20.44999986828868
 30
0.0
 40
2.799999999999999
100
AcDbArc
 50
90.0
 51
180.0
  0
ARC
  5
4AB1
330
1A
100
AcDbEntity
  8
ZUWAKU
100
AcDbCircle
 10
57.31721216833716
 20
22.72499986828868
 30
0.0
 40
0.525
100
AcDbArc
 50
0.0
 51
90.0
  0
ARC
  5
4AB2
330
1A
100
AcDbEntity
  8
ZUWAKU
100
AcDbCircle
 10
55.56721216833716
 20
22.72499986828868
 30
0.0
 40
0.525
100
AcDbArc
 50
90.0
 51
180.0
  0
LINE
  5
4AB3
330
1A
100
AcDbEntity
  8
ZUWAKU
100
AcDbLine
 10
57.31721216833716
 20
23.24999986828868
 30
0.0
 11
55.56721216833716
 21
23.24999986828868
 31
0.0
  0
ARC
  5
4AB4
330
1A
100
AcDbEntity
  8
ZUWAKU
100
AcDbCircle
 10
51.89221216833721
 20
22.72499986828868
 30
0.0
 40
0.525
100
AcDbArc
 50
0.0
 51
90.0
  0
ARC
  5
4AB5
330
1A
100
AcDbEntity
  8
ZUWAKU
100
AcDbCircle
 10
51.89221216833721
 20
20.97499986828868
 30
0.0
 40
0.525
100
AcDbArc
 50
270.0
 51
0.0
  0
LINE
  5
4AB6
330
1A
100
AcDbEntity
  8
ZUWAKU
100
AcDbLine
 10
52.41721216833718
 20
22.72499986828868
 30
0.0
 11
52.41721216833718
 21
20.97499986828868
 31
0.0
  0
LINE
  5
4AB7
330
1A
100
AcDbEntity
  8
ZUWAKU
100
AcDbLine
 10
68.51721216833721
 20
23.24999986828868
 30
0.0
 11
66.76721216833721
 21
23.24999986828868
 31
0.0
  0
ARC
  5
4AB8
330
1A
100
AcDbEntity
  8
ZUWAKU
100
AcDbCircle
 10
66.76721216833721
 20
22.72499986828868
 30
0.0
 40
0.525
100
AcDbArc
 50
90.0
 51
180.0
  0
ARC
  5
4AB9
330
1A
100
AcDbEntity
  8
ZUWAKU
100
AcDbCircle
 10
63.61721216833712
 20
22.72499986828868
 30
0.0
 40
0.525
100
AcDbArc
 50
0.0
 51
90.0
  0
LINE
  5
4ABA
330
1A
100
AcDbEntity
  8
ZUWAKU
100
AcDbLine
 10
63.61721216833712
 20
23.24999986828868
 30
0.0
 11
61.86721216833712
 21
23.24999986828868
 31
0.0
  0
ARC
  5
4ABB
330
1A
100
AcDbEntity
  8
ZUWAKU
100
AcDbCircle
 10
61.86721216833712
 20
22.72499986828868
 30
0.0
 40
0.525
100
AcDbArc
 50
90.0
 51
180.0
  0
ARC
  5
4ABC
330
1A
100
AcDbEntity
  8
ZUWAKU
100
AcDbCircle
 10
68.51721216833721
 20
22.72499986828868
 30
0.0
 40
0.525
100
AcDbArc
 50
0.0
 51
90.0
  0
TEXT
  5
4ABD
330
1A
100
AcDbEntity
  8
MOJI
100
AcDbText
 10
239.827202694407
 20
18.00492092569607
 30
0.0
 40
5.599999999999999
  1
ブラケット正面打（吊）自在式
 41
0.9
  7
ｽﾀｲﾙ1
100
AcDbText
  0
TEXT
  5
4ABE
330
1A
100
AcDbEntity
  8
MOJI
100
AcDbText
 10
239.827202694407
 20
3.204920925696104
 30
0.0
 40
5.599999999999999
  1
ＶＭ１２０・Σ９０（Ⅲ）－０－１０～４５
 41
0.9
  7
ｽﾀｲﾙ1
100
AcDbText
  0
LINE
  5
4ABF
330
1A
100
AcDbEntity
  8
ZUWAKU
100
AcDbLine
 10
208.2466013036239
 20
29.99999986828868
 30
0.0
 11
208.2466013036239
 21
0.7999998682887508
 31
0.0
  0
LINE
  5
4AC0
330
1A
100
AcDbEntity
  8
ZUWAKU
100
AcDbLine
 10
208.6466013036238
 20
29.99999986828868
 30
0.0
 11
208.646601303624
 21
0.7999998682887508
 31
0.0
  0
LINE
  5
4AC1
330
1A
100
AcDbEntity
  8
ZUWAKU
100
AcDbLine
 10
208.4466013036237
 20
29.99999986828868
 30
0.0
 11
208.446601303624
 21
0.7999998682887508
 31
0.0
  0
TEXT
  5
4AC2
330
1A
100
AcDbEntity
  8
ZUWAKU
100
AcDbText
 10
209.7240463258335
 20
9.655356406674301
 30
0.0
 40
4.0
  1
サイズ
 41
0.9
  7
ｽﾀｲﾙ1
100
AcDbText
  0
TEXT
  5
4AC3
330
1A
100
AcDbEntity
  8
ZUWAKU
100
AcDbText
 10
209.7240463258333
 20
24.05535640667426
 30
0.0
 40
4.0
  1
品名
 41
0.9
  7
ｽﾀｲﾙ1
100
AcDbText
  0
LINE
  5
4AC4
330
1A
100
AcDbEntity
  8
ZUWAKU
100
AcDbLine
 10
648.8172025237602
 20
15.19999986828871
 30
0.0
 11
697.2490105620973
 21
15.19999986828871
 31
0.0
  0
LINE
  5
4AC5
330
1A
100
AcDbEntity
  8
ZUWAKU
100
AcDbLine
 10
648.8172025237603
 20
15.39999986828872
 30
0.0
 11
697.2490105620973
 21
15.39999986828871
 31
0.0
  0
LINE
  5
4AC6
330
1A
100
AcDbEntity
  8
ZUWAKU
100
AcDbLine
 10
648.8172025237602
 20
15.59999986828871
 30
0.0
 11
697.2490105620973
 21
15.59999986828871
 31
0.0
  0
TEXT
  5
4AC7
330
1A
100
AcDbEntity
  8
ZUWAKU
100
AcDbText
 10
658.2039377008584
 20
18.00492092569607
 30
0.0
 40
5.599999999999999
  1
　　．　　．　　
 41
0.9
  7
ｽﾀｲﾙ1
100
AcDbText
  0
LINE
  5
4AC8
330
1A
100
AcDbEntity
  8
ZUWAKU
100
AcDbLine
 10
505.1991795116968
 20
15.19999986828872
 30
0.0
 11
552.5269557796685
 21
15.19999986828872
 31
0.0
  0
LINE
  5
4AC9
330
1A
100
AcDbEntity
  8
ZUWAKU
100
AcDbLine
 10
505.1991795116968
 20
15.39999986828871
 30
0.0
 11
552.5269557796685
 21
15.39999986828871
 31
0.0
  0
LINE
  5
4ACA
330
1A
100
AcDbEntity
  8
ZUWAKU
100
AcDbLine
 10
505.1991795116968
 20
15.59999986828871
 30
0.0
 11
552.5269557796685
 21
15.59999986828871
 31
0.0
  0
TEXT
  5
4ACB
330
1A
100
AcDbEntity
  8
MOJI
100
AcDbText
 10
463.246432004558
 20
11.94261758994866
 30
0.0
 40
5.599999999999999
  1
ＬＭ６１Ｔ
 41
0.9
  7
ｽﾀｲﾙ1
100
AcDbText
  0
LINE
  5
4ACC
330
1A
100
AcDbEntity
  8
ZUWAKU
100
AcDbLine
 10
447.6243639845472
 20
29.99999986828868
 30
0.0
 11
447.6243639845474
 21
0.7999998682887508
 31
0.0
  0
LINE
  5
4ACD
330
1A
100
AcDbEntity
  8
ZUWAKU
100
AcDbLine
 10
447.8243639845472
 20
29.99999986828868
 30
0.0
 11
447.8243639845475
 21
0.7999998682887508
 31
0.0
  0
LINE
  5
4ACE
330
1A
100
AcDbEntity
  8
ZUWAKU
100
AcDbLine
 10
447.4243639845474
 20
29.99999986828868
 30
0.0
 11
447.4243639845474
 21
0.7999998682887508
 31
0.0
  0
TEXT
  5
4ACF
330
1A
100
AcDbEntity
  8
MOJI
100
AcDbText
 10
528.0409079858689
 20
18.00492092569607
 30
0.0
 40
5.599999999999999
  1
Ａ３
 41
0.9
  7
ｽﾀｲﾙ1
100
AcDbText
  0
LINE
  5
4AD0
330
1A
100
AcDbEntity
  8
ZUWAKU
100
AcDbLine
 10
504.9991795116969
 20
29.99999986828868
 30
0.0
 11
504.999179511697
 21
0.7999998682887508
 31
0.0
  0
LINE
  5
4AD1
330
1A
100
AcDbEntity
  8
ZUWAKU
100
AcDbLine
 10
505.1991795116968
 20
29.99999986828868
 30
0.0
 11
505.1991795116971
 21
0.7999998682887508
 31
0.0
  0
LINE
  5
4AD2
330
1A
100
AcDbEntity
  8
ZUWAKU
100
AcDbLine
 10
504.799179511697
 20
29.99999986828868
 30
0.0
 11
504.799179511697
 21
0.7999998682887508
 31
0.0
  0
TEXT
  5
4AD4
330
1A
100
AcDbEntity
  8
ZUWAKU
100
AcDbText
 10
506.6766245339067
 20
9.655356406674301
 30
0.0
 40
4.0
  1
縮尺
 41
0.9
  7
ｽﾀｲﾙ1
100
AcDbText
  0
TEXT
  5
4AD5
330
1A
100
AcDbEntity
  8
MOJI
100
AcDbText
 10
528.0409079858689
 20
3.204920925696104
 30
0.0
 40
5.599999999999999
  1
１/２
 41
0.9
  7
ｽﾀｲﾙ1
100
AcDbText
  0
TEXT
  5
4AD6
330
1A
100
AcDbEntity
  8
ZUWAKU
100
AcDbText
 10
449.3018090067569
 20
24.05535640667426
 30
0.0
 40
4.0
  1
品番
 41
0.9
  7
ｽﾀｲﾙ1
100
AcDbText
  0
TEXT
  5
4AD7
330
1A
100
AcDbEntity
  8
ZUWAKU
100
AcDbText
 10
506.6766245339065
 20
24.05535640667426
 30
0.0
 40
4.0
  1
用紙
 41
0.9
  7
ｽﾀｲﾙ1
100
AcDbText
  0
LINE
  5
4AD8
330
1A
100
AcDbEntity
  8
ZUWAKU
100
AcDbLine
 10
648.6172025237602
 20
29.99999986828868
 30
0.0
 11
648.6172025237606
 21
0.7999998682887508
 31
0.0
  0
LINE
  5
4AD9
330
1A
100
AcDbEntity
  8
ZUWAKU
100
AcDbLine
 10
648.8172025237603
 20
29.99999986828868
 30
0.0
 11
648.8172025237608
 21
0.7999998682887508
 31
0.0
  0
LINE
  5
4ADA
330
1A
100
AcDbEntity
  8
ZUWAKU
100
AcDbLine
 10
648.4172025237606
 20
29.99999986828868
 30
0.0
 11
648.4172025237606
 21
0.7999998682887508
 31
0.0
  0
LINE
  5
4ADB
330
1A
100
AcDbEntity
  8
ZUWAKU
100
AcDbLine
 10
552.7269557796684
 20
29.99999986828868
 30
0.0
 11
552.7269557796684
 21
0.7999998682887508
 31
0.0
  0
LINE
  5
4ADC
330
1A
100
AcDbEntity
  8
ZUWAKU
100
AcDbLine
 10
552.9269557796683
 20
29.99999986828868
 30
0.0
 11
552.9269557796685
 21
0.7999998682887508
 31
0.0
  0
LINE
  5
4ADD
330
1A
100
AcDbEntity
  8
ZUWAKU
100
AcDbLine
 10
552.5269557796685
 20
29.99999986828868
 30
0.0
 11
552.5269557796685
 21
0.7999998682887508
 31
0.0
  0
TEXT
  5
4ADE
330
1A
100
AcDbEntity
  8
ZUWAKU
100
AcDbText
 10
650.29464754597
 20
24.05535640667426
 30
0.0
 40
4.0
  1
DATE
 41
0.9
  7
ｽﾀｲﾙ1
100
AcDbText
  0
LINE
  5
4ADF
330
1A
100
AcDbEntity
  8
ZUWAKU
100
AcDbLine
 10
697.2490105620973
 20
29.99999986828868
 30
0.0
 11
697.2490105620973
 21
0.7999998682887508
 31
0.0
  0
LINE
  5
4AE0
330
1A
100
AcDbEntity
  8
ZUWAKU
100
AcDbLine
 10
697.4490105620973
 20
29.99999986828868
 30
0.0
 11
697.4490105620973
 21
0.7999998682887508
 31
0.0
  0
LINE
  5
4AE1
330
1A
100
AcDbEntity
  8
ZUWAKU
100
AcDbLine
 10
697.6490105620972
 20
29.99999986828868
 30
0.0
 11
697.6490105620974
 21
0.7999998682887508
 31
0.0
  0
LINE
  5
4AE2
330
1A
100
AcDbEntity
  8
ZUWAKU
100
AcDbLine
 10
697.8490105620973
 20
29.99999986828868
 30
0.0
 11
697.8490105620973
 21
0.7999998682887508
 31
0.0
  0
TEXT
  5
4AE3
330
1A
100
AcDbEntity
  8
ZUWAKU
100
AcDbText
 10
708.5280842057997
 20
17.55383920397548
 30
0.0
 40
6.0
  1
積水化学工業株式会社
 41
0.9
  7
ｽﾀｲﾙ1
100
AcDbText
  0
TEXT
  5
4AE4
330
1A
100
AcDbEntity
  8
ZUWAKU
100
AcDbText
 10
708.5280842057997
 20
6.648840182142748
 30
0.0
 40
6.0
  1
建材事業部
 41
0.9
  7
ｽﾀｲﾙ1
100
AcDbText
  0
VIEWPORT
  5
22
330
17
100
AcDbEntity
 67
     1
  8
0
100
AcDbViewport
 10
313.6808219178082
 20
148.5
 30
0.0
 40
627.3616438356165
 41
297.0
 68
     2
 69
     1
 12
313.6808219178082
 22
148.5
 13
0.0
 23
0.0
 14
1.0
 24
1.0
 15
10.0
 25
10.0
 16
0.0
 26
0.0
 36
1.0
 17
0.0
 27
0.0
 37
0.0
 42
50.0
 43
0.0
 44
0.0
 45
297.0
 50
0.0
 51
0.0
 72
   100
 90
    32768
  1

281
     0
 71
     1
 74
     0
110
0.0
120
0.0
130
0.0
111
1.0
121
0.0
131
0.0
112
0.0
122
1.0
132
0.0
 79
     0
146
0.0
  0
VIEWPORT
  5
64
330
17
100
AcDbEntity
 67
     1
  8
VIEWPORT
100
AcDbViewport
 10
210.0
 20
148.5
 30
0.0
 40
420.0
 41
297.0
 68
     1
 69
     2
 12
420.0
 22
297.0
 13
0.0
 23
0.0
 14
10.0
 24
10.0
 15
0.0
 25
0.0
 16
0.0
 26
0.0
 36
1.0
 17
0.0
 27
0.0
 37
0.0
 42
50.0
 43
0.0
 44
0.0
 45
605.8799999999998
 50
0.0
 51
0.0
 72
   100
 90
    32768
  1

281
     0
 71
     1
 74
     0
110
0.0
120
0.0
130
0.0
111
1.0
121
0.0
131
0.0
112
0.0
122
1.0
132
0.0
 79
     0
146
0.0
  0
ENDSEC
  0
SECTION
  2
OBJECTS
  0
DICTIONARY
  5
C
330
0
100
AcDbDictionary
281
     1
  3
ACAD_GROUP
350
D
  3
ACAD_LAYOUT
350
A98
  3
ACAD_MLINESTYLE
350
E
  3
ACAD_PLOTSETTINGS
350
A99
  3
ACAD_PLOTSTYLENAME
350
A96
  0
DICTIONARY
  5
D
102
{ACAD_REACTORS
330
C
102
}
330
C
100
AcDbDictionary
281
     1
  3
*A1
350
FA3
  3
*A2
350
1597
  3
*A3
350
179D
  3
*A4
350
43E3
  3
*A5
350
4560
  3
*A6
350
46C8
  3
*A7
350
46CC
  3
*A8
350
4776
  0
DICTIONARY
  5
A98
102
{ACAD_REACTORS
330
C
102
}
330
C
100
AcDbDictionary
281
     1
  3
Model
350
4B6A
  3
ﾚｲｱｳﾄ1
350
4B6B
  0
DICTIONARY
  5
E
102
{ACAD_REACTORS
330
C
102
}
330
C
100
AcDbDictionary
281
     1
  3
STANDARD
350
13
  0
DICTIONARY
  5
A99
102
{ACAD_REACTORS
330
C
102
}
330
C
100
AcDbDictionary
281
     1
  0
ACDBDICTIONARYWDFLT
  5
A96
102
{ACAD_REACTORS
330
C
102
}
330
C
100
AcDbDictionary
281
     1
  3
Normal
350
A97
100
AcDbDictionaryWithDefault
340
A97
1001
ACAD
1000
TREAT_AS_HARD
1070
     0
1000
TREAT_AS_HARD
1070
     0
1000
TREAT_AS_HARD
1070
     0
1000
TREAT_AS_HARD
1070
     0
1000
TREAT_AS_HARD
1070
     0
  0
GROUP
  5
FA3
102
{ACAD_REACTORS
330
D
102
}
330
D
100
AcDbGroup
300

 70
     1
 71
     1
  0
GROUP
  5
1597
102
{ACAD_REACTORS
330
D
102
}
330
D
100
AcDbGroup
300

 70
     1
 71
     1
  0
GROUP
  5
179D
102
{ACAD_REACTORS
330
D
102
}
330
D
100
AcDbGroup
300

 70
     1
 71
     1
  0
GROUP
  5
43E3
102
{ACAD_REACTORS
330
D
102
}
330
D
100
AcDbGroup
300

 70
     1
 71
     1
  0
GROUP
  5
4560
102
{ACAD_REACTORS
330
D
102
}
330
D
100
AcDbGroup
300

 70
     1
 71
     1
  0
GROUP
  5
46C8
102
{ACAD_REACTORS
330
D
102
}
330
D
100
AcDbGroup
300

 70
     1
 71
     1
340
43EB
340
43EA
340
43EE
340
43EC
340
43EF
340
43ED
  0
GROUP
  5
46CC
102
{ACAD_REACTORS
330
D
102
}
330
D
100
AcDbGroup
300

 70
     1
 71
     1
  0
GROUP
  5
4776
102
{ACAD_REACTORS
330
D
102
}
330
D
100
AcDbGroup
300

 70
     1
 71
     1
  0
LAYOUT
  5
4B6A
102
{ACAD_REACTORS
330
A98
102
}
330
A98
100
AcDbPlotSettings
  1

  2
LP-9200C(CC9E34)
  4

  6

 40
0.0
 41
0.0
 42
0.0
 43
0.0
 44
0.0
 45
0.0
 46
0.0
 47
0.0
 48
0.0
 49
0.0
140
0.0
141
0.0
142
1.0
143
1.0
 70
  1712
 72
     0
 73
     0
 74
     0
  7
systemprinter.ctb
 75
     0
147
1.0
148
0.0
149
0.0
100
AcDbLayout
  1
Model
 70
     1
 71
     0
 10
0.0
 20
0.0
 11
12.0
 21
9.0
 12
0.0
 22
0.0
 32
0.0
 14
0.0
 24
0.0
 34
0.0
 15
0.0
 25
0.0
 35
0.0
146
0.0
 13
0.0
 23
0.0
 33
0.0
 16
1.0
 26
0.0
 36
0.0
 17
0.0
 27
1.0
 37
0.0
 76
     0
330
1A
  0
LAYOUT
  5
4B6B
102
{ACAD_REACTORS
330
A98
102
}
330
A98
100
AcDbPlotSettings
  1

  2
LP-9200C(CC9E34)
  4

  6

 40
0.0
 41
0.0
 42
0.0
 43
0.0
 44
0.0
 45
0.0
 46
0.0
 47
0.0
 48
0.0
 49
0.0
140
0.0
141
0.0
142
1.0
143
1.0
 70
   688
 72
     0
 73
     0
 74
     5
  7
systemprinter.ctb
 75
    16
147
1.0
148
0.0
149
0.0
100
AcDbLayout
  1
ﾚｲｱｳﾄ1
 70
     1
 71
     1
 10
0.0
 20
0.0
 11
420.0
 21
297.0
 12
0.0
 22
0.0
 32
0.0
 14
0.0
 24
0.0
 34
0.0
 15
420.0
 25
297.0
 35
0.0
146
0.0
 13
0.0
 23
0.0
 33
0.0
 16
1.0
 26
0.0
 36
0.0
 17
0.0
 27
1.0
 37
0.0
 76
     0
330
17
331
64
  0
MLINESTYLE
  5
13
102
{ACAD_REACTORS
330
E
102
}
330
E
100
AcDbMlineStyle
  2
STANDARD
 70
     0
  3

 62
     0
 51
90.0
 52
90.0
 71
     2
 49
0.5
 62
   256
  6
BYLAYER
 49
-0.5
 62
   256
  6
BYLAYER
  0
ACDBPLACEHOLDER
  5
A97
102
{ACAD_REACTORS
330
A96
102
}
330
A96
  0
ENDSEC
  0
EOF
