  0
SECTION
  2
HEADER
  9
$ACADVER
  1
AC1015
  9
$ACADMAINTVER
 70
     6
  9
$DWGCODEPAGE
  3
ANSI_932
  9
$INSBASE
 10
0.0
 20
0.0
 30
0.0
  9
$EXTMIN
 10
0.0000004769176485
 20
0.0000000535324034
 30
0.0
  9
$EXTMAX
 10
398.8000004769176
 20
275.8000000535324
 30
0.0
  9
$LIMMIN
 10
0.0
 20
0.0
  9
$LIMMAX
 10
420.0
 20
297.0
  9
$ORTHOMODE
 70
     0
  9
$REGENMODE
 70
     1
  9
$FILLMODE
 70
     1
  9
$QTEXTMODE
 70
     0
  9
$MIRRTEXT
 70
     1
  9
$LTSCALE
 40
10.0
  9
$ATTMODE
 70
     1
  9
$TEXTSIZE
 40
2.5
  9
$TRACEWID
 40
1.0
  9
$TEXTSTYLE
  7
STANDARD
  9
$CLAYER
  8
SUNPOU
  9
$CELTYPE
  6
BYLAYER
  9
$CECOLOR
 62
   256
  9
$CELTSCALE
 40
1.0
  9
$DISPSILH
 70
     0
  9
$DIMSCALE
 40
1.0
  9
$DIMASZ
 40
3.0
  9
$DIMEXO
 40
1.5
  9
$DIMDLI
 40
7.0
  9
$DIMRND
 40
0.0
  9
$DIMDLE
 40
0.0
  9
$DIMEXE
 40
1.5
  9
$DIMTP
 40
0.0
  9
$DIMTM
 40
0.0
  9
$DIMTXT
 40
3.0
  9
$DIMCEN
 40
0.0
  9
$DIMTSZ
 40
0.0
  9
$DIMTOL
 70
     0
  9
$DIMLIM
 70
     0
  9
$DIMTIH
 70
     0
  9
$DIMTOH
 70
     0
  9
$DIMSE1
 70
     0
  9
$DIMSE2
 70
     0
  9
$DIMTAD
 70
     3
  9
$DIMZIN
 70
     0
  9
$DIMBLK
  1
OPEN
  9
$DIMASO
 70
     1
  9
$DIMSHO
 70
     1
  9
$DIMPOST
  1

  9
$DIMAPOST
  1

  9
$DIMALT
 70
     0
  9
$DIMALTD
 70
     2
  9
$DIMALTF
 40
25.4
  9
$DIMLFAC
 40
1.0
  9
$DIMTOFL
 70
     0
  9
$DIMTVP
 40
0.0
  9
$DIMTIX
 70
     0
  9
$DIMSOXD
 70
     0
  9
$DIMSAH
 70
     0
  9
$DIMBLK1
  1

  9
$DIMBLK2
  1

  9
$DIMSTYLE
  2
STANDARD
  9
$DIMCLRD
 70
   256
  9
$DIMCLRE
 70
   256
  9
$DIMCLRT
 70
   256
  9
$DIMTFAC
 40
1.0
  9
$DIMGAP
 40
1.5
  9
$DIMJUST
 70
     0
  9
$DIMSD1
 70
     0
  9
$DIMSD2
 70
     0
  9
$DIMTOLJ
 70
     1
  9
$DIMTZIN
 70
     0
  9
$DIMALTZ
 70
     0
  9
$DIMALTTZ
 70
     0
  9
$DIMUPT
 70
     0
  9
$DIMDEC
 70
     0
  9
$DIMTDEC
 70
     0
  9
$DIMALTU
 70
     2
  9
$DIMALTTD
 70
     2
  9
$DIMTXSTY
  7
STANDARD
  9
$DIMAUNIT
 70
     0
  9
$DIMADEC
 70
     0
  9
$DIMALTRND
 40
0.0
  9
$DIMAZIN
 70
     0
  9
$DIMDSEP
 70
    46
  9
$DIMATFIT
 70
     3
  9
$DIMFRAC
 70
     0
  9
$DIMLDRBLK
  1
OPEN
  9
$DIMLUNIT
 70
     2
  9
$DIMLWD
 70
    -1
  9
$DIMLWE
 70
    -1
  9
$DIMTMOVE
 70
     0
  9
$LUNITS
 70
     2
  9
$LUPREC
 70
     4
  9
$SKETCHINC
 40
1.0
  9
$FILLETRAD
 40
10.0
  9
$AUNITS
 70
     0
  9
$AUPREC
 70
     0
  9
$MENU
  1
.
  9
$ELEVATION
 40
0.0
  9
$PELEVATION
 40
0.0
  9
$THICKNESS
 40
0.0
  9
$LIMCHECK
 70
     0
  9
$CHAMFERA
 40
10.0
  9
$CHAMFERB
 40
10.0
  9
$CHAMFERC
 40
20.0
  9
$CHAMFERD
 40
0.0
  9
$SKPOLY
 70
     0
  9
$TDCREATE
 40
2451071.916141319
  9
$TDUCREATE
 40
2451071.541141319
  9
$TDUPDATE
 40
2456203.608694745
  9
$TDUUPDATE
 40
2456203.233694745
  9
$TDINDWG
 40
0.0938486111
  9
$TDUSRTIMER
 40
0.0938484375
  9
$USRTIMER
 70
     1
  9
$ANGBASE
 50
0.0
  9
$ANGDIR
 70
     0
  9
$PDMODE
 70
     0
  9
$PDSIZE
 40
0.0
  9
$PLINEWID
 40
0.0
  9
$SPLFRAME
 70
     0
  9
$SPLINETYPE
 70
     6
  9
$SPLINESEGS
 70
     8
  9
$HANDSEED
  5
18A7
  9
$SURFTAB1
 70
     6
  9
$SURFTAB2
 70
     6
  9
$SURFTYPE
 70
     6
  9
$SURFU
 70
     6
  9
$SURFV
 70
     6
  9
$UCSBASE
  2

  9
$UCSNAME
  2

  9
$UCSORG
 10
0.0
 20
0.0
 30
0.0
  9
$UCSXDIR
 10
1.0
 20
0.0
 30
0.0
  9
$UCSYDIR
 10
0.0
 20
1.0
 30
0.0
  9
$UCSORTHOREF
  2

  9
$UCSORTHOVIEW
 70
     0
  9
$UCSORGTOP
 10
0.0
 20
0.0
 30
0.0
  9
$UCSORGBOTTOM
 10
0.0
 20
0.0
 30
0.0
  9
$UCSORGLEFT
 10
0.0
 20
0.0
 30
0.0
  9
$UCSORGRIGHT
 10
0.0
 20
0.0
 30
0.0
  9
$UCSORGFRONT
 10
0.0
 20
0.0
 30
0.0
  9
$UCSORGBACK
 10
0.0
 20
0.0
 30
0.0
  9
$PUCSBASE
  2

  9
$PUCSNAME
  2

  9
$PUCSORG
 10
0.0
 20
0.0
 30
0.0
  9
$PUCSXDIR
 10
1.0
 20
0.0
 30
0.0
  9
$PUCSYDIR
 10
0.0
 20
1.0
 30
0.0
  9
$PUCSORTHOREF
  2

  9
$PUCSORTHOVIEW
 70
     0
  9
$PUCSORGTOP
 10
0.0
 20
0.0
 30
0.0
  9
$PUCSORGBOTTOM
 10
0.0
 20
0.0
 30
0.0
  9
$PUCSORGLEFT
 10
0.0
 20
0.0
 30
0.0
  9
$PUCSORGRIGHT
 10
0.0
 20
0.0
 30
0.0
  9
$PUCSORGFRONT
 10
0.0
 20
0.0
 30
0.0
  9
$PUCSORGBACK
 10
0.0
 20
0.0
 30
0.0
  9
$USERI1
 70
     0
  9
$USERI2
 70
     0
  9
$USERI3
 70
     0
  9
$USERI4
 70
     0
  9
$USERI5
 70
     0
  9
$USERR1
 40
0.0
  9
$USERR2
 40
0.0
  9
$USERR3
 40
0.0
  9
$USERR4
 40
0.0
  9
$USERR5
 40
0.0
  9
$WORLDVIEW
 70
     1
  9
$SHADEDGE
 70
     3
  9
$SHADEDIF
 70
    70
  9
$TILEMODE
 70
     1
  9
$MAXACTVP
 70
    16
  9
$PINSBASE
 10
0.0
 20
0.0
 30
0.0
  9
$PLIMCHECK
 70
     0
  9
$PEXTMIN
 10
0.0
 20
0.0
 30
0.0
  9
$PEXTMAX
 10
420.0
 20
297.0
 30
0.0
  9
$PLIMMIN
 10
0.0
 20
0.0
  9
$PLIMMAX
 10
420.0
 20
297.0
  9
$UNITMODE
 70
     0
  9
$VISRETAIN
 70
     0
  9
$PLINEGEN
 70
     0
  9
$PSLTSCALE
 70
     1
  9
$TREEDEPTH
 70
  3020
  9
$CMLSTYLE
  2
STANDARD
  9
$CMLJUST
 70
     0
  9
$CMLSCALE
 40
1.0
  9
$PROXYGRAPHICS
 70
     1
  9
$MEASUREMENT
 70
     0
  9
$CELWEIGHT
370
    -1
  9
$ENDCAPS
280
     0
  9
$JOINSTYLE
280
     0
  9
$LWDISPLAY
290
     0
  9
$INSUNITS
 70
     0
  9
$HYPERLINKBASE
  1

  9
$STYLESHEET
  1
print.ctb
  9
$XEDIT
290
     1
  9
$CEPSNTYPE
380
     0
  9
$PSTYLEMODE
290
     1
  9
$FINGERPRINTGUID
  2
{B32BAAB5-9BF2-4BC9-AA15-A91486D21245}
  9
$VERSIONGUID
  2
{687843BD-54E4-4858-8B22-5B202B8D17BB}
  9
$EXTNAMES
290
     1
  9
$PSVPSCALE
 40
0.0
  9
$OLESTARTUP
290
     0
  0
ENDSEC
  0
SECTION
  2
CLASSES
  0
CLASS
  1
ACDBDICTIONARYWDFLT
  2
AcDbDictionaryWithDefault
  3
AutoCAD 2000
 90
        0
280
     0
281
     0
  0
CLASS
  1
ACDBPLACEHOLDER
  2
AcDbPlaceHolder
  3
AutoCAD 2000
 90
        0
280
     0
281
     0
  0
CLASS
  1
LAYOUT
  2
AcDbLayout
  3
AutoCAD 2000
 90
        0
280
     0
281
     0
  0
CLASS
  1
DICTIONARYVAR
  2
AcDbDictionaryVar
  3
AutoCAD 2000
 90
    32768
280
     0
281
     0
  0
CLASS
  1
LONG_TRANSACTION
  2
AcDbLongTransaction
  3
AutoCAD 2000
 90
    32768
280
     0
281
     0
  0
CLASS
  1
LWPOLYLINE
  2
AcDbPolyline
  3
AutoCAD 2000
 90
    32768
280
     0
281
     1
  0
CLASS
  1
HATCH
  2
AcDbHatch
  3
AutoCAD 2000
 90
    32768
280
     0
281
     1
  0
CLASS
  1
XRECORD
  2
AcDbXrecord
  3
AutoCAD 2000
 90
    32768
280
     0
281
     0
  0
CLASS
  1
LONG_TRANSACTION
  2
AcDbLongTransaction
  3
AutoCAD 2000
 90
    32768
280
     0
281
     0
  0
CLASS
  1
LWPOLYLINE
  2
AcDbPolyline
  3
AutoCAD 2000
 90
    32768
280
     0
281
     1
  0
CLASS
  1
HATCH
  2
AcDbHatch
  3
AutoCAD 2000
 90
    32768
280
     0
281
     1
  0
CLASS
  1
XRECORD
  2
AcDbXrecord
  3
AutoCAD 2000
 90
    32768
280
     0
281
     0
  0
CLASS
  1
LONG_TRANSACTION
  2
AcDbLongTransaction
  3
AutoCAD 2000
 90
    32768
280
     0
281
     0
  0
CLASS
  1
LWPOLYLINE
  2
AcDbPolyline
  3
AutoCAD 2000
 90
    32768
280
     0
281
     1
  0
CLASS
  1
HATCH
  2
AcDbHatch
  3
AutoCAD 2000
 90
    32768
280
     0
281
     1
  0
CLASS
  1
XRECORD
  2
AcDbXrecord
  3
AutoCAD 2000
 90
    32768
280
     0
281
     0
  0
CLASS
  1
LONG_TRANSACTION
  2
AcDbLongTransaction
  3
AutoCAD 2000
 90
    32768
280
     0
281
     0
  0
CLASS
  1
LWPOLYLINE
  2
AcDbPolyline
  3
AutoCAD 2000
 90
    32768
280
     0
281
     1
  0
CLASS
  1
HATCH
  2
AcDbHatch
  3
AutoCAD 2000
 90
    32768
280
     0
281
     1
  0
CLASS
  1
XRECORD
  2
AcDbXrecord
  3
AutoCAD 2000
 90
    32768
280
     0
281
     0
  0
CLASS
  1
LONG_TRANSACTION
  2
AcDbLongTransaction
  3
AutoCAD 2000
 90
    32768
280
     0
281
     0
  0
CLASS
  1
LWPOLYLINE
  2
AcDbPolyline
  3
AutoCAD 2000
 90
    32768
280
     0
281
     1
  0
CLASS
  1
HATCH
  2
AcDbHatch
  3
AutoCAD 2000
 90
    32768
280
     0
281
     1
  0
CLASS
  1
XRECORD
  2
AcDbXrecord
  3
AutoCAD 2000
 90
    32768
280
     0
281
     0
  0
CLASS
  1
LONG_TRANSACTION
  2
AcDbLongTransaction
  3
AutoCAD 2000
 90
    32768
280
     0
281
     0
  0
CLASS
  1
LWPOLYLINE
  2
AcDbPolyline
  3
AutoCAD 2000
 90
    32768
280
     0
281
     1
  0
CLASS
  1
HATCH
  2
AcDbHatch
  3
AutoCAD 2000
 90
    32768
280
     0
281
     1
  0
CLASS
  1
XRECORD
  2
AcDbXrecord
  3
AutoCAD 2000
 90
    32768
280
     0
281
     0
  0
CLASS
  1
LONG_TRANSACTION
  2
AcDbLongTransaction
  3
AutoCAD 2000
 90
    32768
280
     0
281
     0
  0
CLASS
  1
LWPOLYLINE
  2
AcDbPolyline
  3
AutoCAD 2000
 90
    32768
280
     0
281
     1
  0
CLASS
  1
HATCH
  2
AcDbHatch
  3
AutoCAD 2000
 90
    32768
280
     0
281
     1
  0
CLASS
  1
XRECORD
  2
AcDbXrecord
  3
AutoCAD 2000
 90
    32768
280
     0
281
     0
  0
CLASS
  1
LONG_TRANSACTION
  2
AcDbLongTransaction
  3
AutoCAD 2000
 90
    32768
280
     0
281
     0
  0
CLASS
  1
LWPOLYLINE
  2
AcDbPolyline
  3
AutoCAD 2000
 90
    32768
280
     0
281
     1
  0
CLASS
  1
HATCH
  2
AcDbHatch
  3
AutoCAD 2000
 90
    32768
280
     0
281
     1
  0
CLASS
  1
XRECORD
  2
AcDbXrecord
  3
AutoCAD 2000
 90
    32768
280
     0
281
     0
  0
CLASS
  1
LONG_TRANSACTION
  2
AcDbLongTransaction
  3
AutoCAD 2000
 90
    32768
280
     0
281
     0
  0
CLASS
  1
LWPOLYLINE
  2
AcDbPolyline
  3
AutoCAD 2000
 90
    32768
280
     0
281
     1
  0
CLASS
  1
HATCH
  2
AcDbHatch
  3
AutoCAD 2000
 90
    32768
280
     0
281
     1
  0
CLASS
  1
XRECORD
  2
AcDbXrecord
  3
AutoCAD 2000
 90
    32768
280
     0
281
     0
  0
ENDSEC
  0
SECTION
  2
TABLES
  0
TABLE
  2
VPORT
  5
8
330
0
100
AcDbSymbolTable
 70
     2
  0
VPORT
  5
18A6
330
8
100
AcDbSymbolTableRecord
100
AcDbViewportTableRecord
  2
*Active
 70
     0
 10
0.0
 20
0.0
 11
1.0
 21
1.0
 12
213.2320185945173
 22
148.4909368325129
 13
0.0
 23
0.0
 14
5.0
 24
5.0
 15
0.0
 25
0.0
 16
0.0
 26
0.0
 36
1.0
 17
0.0
 27
0.0
 37
0.0
 40
299.2883285744769
 41
1.557397959183673
 42
50.0
 43
0.0
 44
0.0
 50
0.0
 51
0.0
 71
     0
 72
   100
 73
     1
 74
     0
 75
     0
 76
     0
 77
     0
 78
     0
281
     0
 65
     1
110
0.0
120
0.0
130
0.0
111
1.0
121
0.0
131
0.0
112
0.0
122
1.0
132
0.0
 79
     0
146
0.0
  0
ENDTAB
  0
TABLE
  2
LTYPE
  5
5
330
0
100
AcDbSymbolTable
 70
     2
  0
LTYPE
  5
14
330
5
100
AcDbSymbolTableRecord
100
AcDbLinetypeTableRecord
  2
BYBLOCK
 70
     0
  3

 72
    65
 73
     0
 40
0.0
  0
LTYPE
  5
15
330
5
100
AcDbSymbolTableRecord
100
AcDbLinetypeTableRecord
  2
BYLAYER
 70
     0
  3

 72
    65
 73
     0
 40
0.0
  0
LTYPE
  5
16
330
5
100
AcDbSymbolTableRecord
100
AcDbLinetypeTableRecord
  2
CONTINUOUS
 70
     0
  3
Solid line
 72
    65
 73
     0
 40
0.0
  0
LTYPE
  5
120
330
5
100
AcDbSymbolTableRecord
100
AcDbLinetypeTableRecord
  2
CENTER
 70
     0
  3
____ _ ____ _ ____ _ ____ _ ____ _ ____ _ ____ 
 72
    65
 73
     4
 40
2.0
 49
1.25
 74
     0
 49
-0.25
 74
     0
 49
0.25
 74
     0
 49
-0.25
 74
     0
  0
ENDTAB
  0
TABLE
  2
LAYER
  5
2
330
0
100
AcDbSymbolTable
 70
     8
  0
LAYER
  5
F
330
2
100
AcDbSymbolTableRecord
100
AcDbLayerTableRecord
  2
0
 70
     0
 62
     7
  6
CONTINUOUS
370
    -3
390
74F
  0
LAYER
  5
62
330
2
100
AcDbSymbolTableRecord
100
AcDbLayerTableRecord
  2
VIEWPORT
 70
     0
 62
     7
  6
CONTINUOUS
370
    -3
390
74F
  0
LAYER
  5
134
330
2
100
AcDbSymbolTableRecord
100
AcDbLayerTableRecord
  2
SUNPOU
 70
     0
 62
     4
  6
CONTINUOUS
370
    -3
390
74F
  0
LAYER
  5
136
330
2
100
AcDbSymbolTableRecord
100
AcDbLayerTableRecord
  2
SEIHIN
 70
     0
 62
     3
  6
CONTINUOUS
370
    -3
390
74F
  0
LAYER
  5
38D
330
2
100
AcDbSymbolTableRecord
100
AcDbLayerTableRecord
  2
DEFPOINTS
 70
     0
 62
     7
  6
CONTINUOUS
290
     0
370
    -3
390
74F
  0
LAYER
  5
B28
330
2
100
AcDbSymbolTableRecord
100
AcDbLayerTableRecord
  2
ZUWAKU
 70
     0
 62
     7
  6
CONTINUOUS
370
    -3
390
74F
  0
LAYER
  5
B29
330
2
100
AcDbSymbolTableRecord
100
AcDbLayerTableRecord
  2
moji
 70
     0
 62
     2
  6
CONTINUOUS
370
    -3
390
74F
  0
LAYER
  5
D6A
330
2
100
AcDbSymbolTableRecord
100
AcDbLayerTableRecord
  2
CENTER L
 70
     0
 62
     1
  6
CENTER
370
    -3
390
74F
  0
ENDTAB
  0
TABLE
  2
STYLE
  5
3
330
0
100
AcDbSymbolTable
 70
     2
  0
STYLE
  5
10
330
3
100
AcDbSymbolTableRecord
100
AcDbTextStyleTableRecord
  2
STANDARD
 70
     0
 40
0.0
 41
1.0
 50
0.0
 71
     0
 42
2.5
  3
TXT
  4
bigfont.shx
  0
STYLE
  5
B2A
330
3
100
AcDbSymbolTableRecord
100
AcDbTextStyleTableRecord
  2
ｽﾀｲﾙ1
 70
     0
 40
0.0
 41
1.0
 50
0.0
 71
     0
 42
2.5
  3
MS PGothic.ttf
  4

1001
ACAD
1000
MS PGothic
1071
    32818
  0
ENDTAB
  0
TABLE
  2
VIEW
  5
6
330
0
100
AcDbSymbolTable
 70
     0
  0
ENDTAB
  0
TABLE
  2
UCS
  5
7
330
0
100
AcDbSymbolTable
 70
     0
  0
ENDTAB
  0
TABLE
  2
APPID
  5
9
330
0
100
AcDbSymbolTable
 70
     1
  0
APPID
  5
11
330
9
100
AcDbSymbolTableRecord
100
AcDbRegAppTableRecord
  2
ACAD
 70
     0
  0
ENDTAB
  0
TABLE
  2
DIMSTYLE
  5
A
330
0
100
AcDbSymbolTable
 70
     1
100
AcDbDimStyleTable
 71
     0
  0
DIMSTYLE
105
1D
102
{ACAD_REACTORS
330
1439
330
E31
330
1237
330
E30
330
E2F
330
E8F
330
E8E
330
E8D
330
E76
330
E35
102
}
330
A
100
AcDbSymbolTableRecord
100
AcDbDimStyleTableRecord
  2
STANDARD
 70
     0
 41
3.0
 42
1.5
 43
7.0
 44
1.5
 73
     0
 74
     0
 77
     3
140
3.0
141
0.0
147
1.5
176
   256
177
   256
178
   256
271
     0
272
     0
340
10
341
B2
342
B2
371
    -1
372
    -1
  0
ENDTAB
  0
TABLE
  2
BLOCK_RECORD
  5
1
330
0
100
AcDbSymbolTable
 70
    12
  0
BLOCK_RECORD
  5
1A
102
{ACAD_XDICTIONARY
360
598
102
}
330
1
100
AcDbSymbolTableRecord
100
AcDbBlockTableRecord
  2
*MODEL_SPACE
340
750
  0
BLOCK_RECORD
  5
17
102
{ACAD_XDICTIONARY
360
596
102
}
330
1
100
AcDbSymbolTableRecord
100
AcDbBlockTableRecord
  2
*PAPER_SPACE
340
751
  0
BLOCK_RECORD
  5
B2
330
1
100
AcDbSymbolTableRecord
100
AcDbBlockTableRecord
  2
_OPEN
340
0
102
{BLKREFS
331
146D
331
146E
331
1464
331
1465
331
1452
331
1453
331
189D
331
189E
331
1492
331
1493
331
149C
331
149D
331
147F
331
1480
331
1476
331
1477
331
145B
331
145C
331
1449
331
144A
102
}
  0
BLOCK_RECORD
  5
EE7
330
1
100
AcDbSymbolTableRecord
100
AcDbBlockTableRecord
  2
*D1
340
0
  0
BLOCK_RECORD
  5
EF3
330
1
100
AcDbSymbolTableRecord
100
AcDbBlockTableRecord
  2
*D2
340
0
  0
BLOCK_RECORD
  5
EFF
330
1
100
AcDbSymbolTableRecord
100
AcDbBlockTableRecord
  2
*D3
340
0
  0
BLOCK_RECORD
  5
F0B
330
1
100
AcDbSymbolTableRecord
100
AcDbBlockTableRecord
  2
*D4
340
0
  0
BLOCK_RECORD
  5
F14
330
1
100
AcDbSymbolTableRecord
100
AcDbBlockTableRecord
  2
*D5
340
0
  0
BLOCK_RECORD
  5
F20
330
1
100
AcDbSymbolTableRecord
100
AcDbBlockTableRecord
  2
*D6
340
0
  0
BLOCK_RECORD
  5
F2E
330
1
100
AcDbSymbolTableRecord
100
AcDbBlockTableRecord
  2
*D7
340
0
  0
BLOCK_RECORD
  5
F3A
330
1
100
AcDbSymbolTableRecord
100
AcDbBlockTableRecord
  2
*D8
340
0
  0
BLOCK_RECORD
  5
1238
330
1
100
AcDbSymbolTableRecord
100
AcDbBlockTableRecord
  2
*D9
340
0
  0
BLOCK_RECORD
  5
143A
330
1
100
AcDbSymbolTableRecord
100
AcDbBlockTableRecord
  2
*D10
340
0
  0
BLOCK_RECORD
  5
16AD
330
1
100
AcDbSymbolTableRecord
100
AcDbBlockTableRecord
  2
*X11
340
0
102
{BLKREFS
331
BF3
102
}
  0
ENDTAB
  0
ENDSEC
  0
SECTION
  2
BLOCKS
  0
BLOCK
  5
1B
330
1A
100
AcDbEntity
  8
0
100
AcDbBlockBegin
  2
*MODEL_SPACE
 70
     0
 10
0.0
 20
0.0
 30
0.0
  3
*MODEL_SPACE
  1

  0
ENDBLK
  5
1C
330
1A
100
AcDbEntity
  8
0
100
AcDbBlockEnd
  0
BLOCK
  5
18
330
17
100
AcDbEntity
 67
     1
  8
0
100
AcDbBlockBegin
  2
*PAPER_SPACE
 70
     0
 10
0.0
 20
0.0
 30
0.0
  3
*PAPER_SPACE
  1

  0
ENDBLK
  5
19
330
17
100
AcDbEntity
 67
     1
  8
0
100
AcDbBlockEnd
  0
BLOCK
  5
B3
330
B2
100
AcDbEntity
  8
0
100
AcDbBlockBegin
  2
_OPEN
 70
     0
 10
0.0
 20
0.0
 30
0.0
  3
_OPEN
  1

  0
LINE
  5
B4
330
B2
100
AcDbEntity
  8
0
  6
ByBlock
 62
     0
100
AcDbLine
 10
-1.0
 20
0.1666666666666666
 30
0.0
 11
0.0
 21
0.0
 31
0.0
  0
LINE
  5
B5
330
B2
100
AcDbEntity
  8
0
  6
ByBlock
 62
     0
100
AcDbLine
 10
0.0
 20
0.0
 30
0.0
 11
-1.0
 21
-0.1666666666666666
 31
0.0
  0
LINE
  5
B6
330
B2
100
AcDbEntity
  8
0
  6
ByBlock
 62
     0
100
AcDbLine
 10
0.0
 20
0.0
 30
0.0
 11
-1.0
 21
0.0
 31
0.0
  0
ENDBLK
  5
B7
330
B2
100
AcDbEntity
  8
0
100
AcDbBlockEnd
  0
BLOCK
  5
EF1
330
EE7
100
AcDbEntity
  8
0
100
AcDbBlockBegin
  2
*D1
 70
     1
 10
0.0
 20
0.0
 30
0.0
  3
*D1
  1

  0
LINE
  5
146A
330
EE7
100
AcDbEntity
  8
SUNPOU
100
AcDbLine
 10
175.4613372544098
 20
105.387368982341
 30
0.0
 11
175.4613372544098
 21
63.00989844072347
 31
0.0
  0
LINE
  5
146B
330
EE7
100
AcDbEntity
  8
SUNPOU
100
AcDbLine
 10
199.4613377006014
 20
102.8371806414723
 30
0.0
 11
199.4613377006014
 21
63.00989844072347
 31
0.0
  0
LINE
  5
146C
330
EE7
100
AcDbEntity
  8
SUNPOU
100
AcDbLine
 10
178.4613372544098
 20
64.50989844072347
 30
0.0
 11
196.4613377006014
 21
64.50989844072347
 31
0.0
  0
INSERT
  5
146D
330
EE7
100
AcDbEntity
  8
SUNPOU
100
AcDbBlockReference
  2
_OPEN
 10
175.4613372544098
 20
64.50989844072347
 30
0.0
 41
3.0
 42
3.0
 43
3.0
 50
180.0
  0
INSERT
  5
146E
330
EE7
100
AcDbEntity
  8
SUNPOU
100
AcDbBlockReference
  2
_OPEN
 10
199.4613377006014
 20
64.50989844072347
 30
0.0
 41
3.0
 42
3.0
 43
3.0
  0
MTEXT
  5
146F
330
EE7
100
AcDbEntity
  8
SUNPOU
100
AcDbMText
 10
187.4613374775056
 20
67.50989844072347
 30
0.0
 40
3.0
 41
0.0
 71
     5
 72
     5
  1
\A1;24
 73
     1
 44
1.0
1001
ACAD
1000
MTEXTBEGIN
1070
    73
1070
     1
1070
    44
1040
1.0
1070
    74
1070
     0
1000
MTEXTEND
1000
MTEXTBEGIN
1070
    73
1070
     1
1070
    44
1040
1.0
1070
    74
1070
     0
1000
MTEXTEND
  0
POINT
  5
1470
330
EE7
100
AcDbEntity
  8
DEFPOINTS
 62
     0
100
AcDbPoint
 10
175.4613372544098
 20
106.887368982341
 30
0.0
  0
POINT
  5
1471
330
EE7
100
AcDbEntity
  8
DEFPOINTS
 62
     0
100
AcDbPoint
 10
199.4613377006014
 20
104.3371806414723
 30
0.0
  0
POINT
  5
1472
330
EE7
100
AcDbEntity
  8
DEFPOINTS
 62
     0
100
AcDbPoint
 10
199.4613377006014
 20
64.50989844072347
 30
0.0
  0
ENDBLK
  5
EF2
330
EE7
100
AcDbEntity
  8
0
100
AcDbBlockEnd
  0
BLOCK
  5
EFD
330
EF3
100
AcDbEntity
  8
0
100
AcDbBlockBegin
  2
*D2
 70
     1
 10
0.0
 20
0.0
 30
0.0
  3
*D2
  1

  0
LINE
  5
1461
330
EF3
100
AcDbEntity
  8
SUNPOU
100
AcDbLine
 10
187.461270158449
 20
115.387368982341
 30
0.0
 11
187.461270158449
 21
134.0731286162831
 31
0.0
  0
LINE
  5
1462
330
EF3
100
AcDbEntity
  8
SUNPOU
100
AcDbLine
 10
295.4613372544098
 20
108.3874619894601
 30
0.0
 11
295.4613372544098
 21
134.0731286162831
 31
0.0
  0
LINE
  5
1463
330
EF3
100
AcDbEntity
  8
SUNPOU
100
AcDbLine
 10
190.461270158449
 20
132.5731286162831
 30
0.0
 11
292.4613372544098
 21
132.5731286162831
 31
0.0
  0
INSERT
  5
1464
330
EF3
100
AcDbEntity
  8
SUNPOU
100
AcDbBlockReference
  2
_OPEN
 10
187.461270158449
 20
132.5731286162831
 30
0.0
 41
3.0
 42
3.0
 43
3.0
 50
180.0
  0
INSERT
  5
1465
330
EF3
100
AcDbEntity
  8
SUNPOU
100
AcDbBlockReference
  2
_OPEN
 10
295.4613372544098
 20
132.5731286162831
 30
0.0
 41
3.0
 42
3.0
 43
3.0
  0
MTEXT
  5
1466
330
EF3
100
AcDbEntity
  8
SUNPOU
100
AcDbMText
 10
250.4579684807143
 20
135.5731286162831
 30
0.0
 40
3.0
 41
0.0
 71
     5
 72
     5
  1
\A1;108
 73
     1
 44
1.0
1001
ACAD
1000
MTEXTBEGIN
1070
    73
1070
     1
1070
    44
1040
1.0
1070
    74
1070
     0
1000
MTEXTEND
1000
MTEXTBEGIN
1070
    73
1070
     1
1070
    44
1040
1.0
1070
    74
1070
     0
1000
MTEXTEND
  0
POINT
  5
1467
330
EF3
100
AcDbEntity
  8
DEFPOINTS
 62
     0
100
AcDbPoint
 10
187.461270158449
 20
113.8873689823409
 30
0.0
  0
POINT
  5
1468
330
EF3
100
AcDbEntity
  8
DEFPOINTS
 62
     0
100
AcDbPoint
 10
295.4613372544098
 20
106.8874619894601
 30
0.0
  0
POINT
  5
1469
330
EF3
100
AcDbEntity
  8
DEFPOINTS
 62
     0
100
AcDbPoint
 10
295.4613372544098
 20
132.5731286162831
 30
0.0
  0
ENDBLK
  5
EFE
330
EF3
100
AcDbEntity
  8
0
100
AcDbBlockEnd
  0
BLOCK
  5
F09
330
EFF
100
AcDbEntity
  8
0
100
AcDbBlockBegin
  2
*D3
 70
     1
 10
0.0
 20
0.0
 30
0.0
  3
*D3
  1

  0
LINE
  5
144F
330
EFF
100
AcDbEntity
  8
SUNPOU
100
AcDbLine
 10
295.4606943972673
 20
108.3873619894601
 30
0.0
 11
295.4606943972673
 21
159.5482218897281
 31
0.0
  0
LINE
  5
1450
330
EFF
100
AcDbEntity
  8
SUNPOU
100
AcDbLine
 10
112.4613495100339
 20
108.387368982341
 30
0.0
 11
112.4613495100339
 21
159.5482218897281
 31
0.0
  0
LINE
  5
1451
330
EFF
100
AcDbEntity
  8
SUNPOU
100
AcDbLine
 10
292.4606943972674
 20
158.048221889728
 30
0.0
 11
115.4613495100339
 21
158.048221889728
 31
0.0
  0
INSERT
  5
1452
330
EFF
100
AcDbEntity
  8
SUNPOU
100
AcDbBlockReference
  2
_OPEN
 10
295.4606943972673
 20
158.048221889728
 30
0.0
 41
3.0
 42
3.0
 43
3.0
  0
INSERT
  5
1453
330
EFF
100
AcDbEntity
  8
SUNPOU
100
AcDbBlockReference
  2
_OPEN
 10
112.4613495100339
 20
158.048221889728
 30
0.0
 41
3.0
 42
3.0
 43
3.0
 50
180.0
  0
MTEXT
  5
1454
330
EFF
100
AcDbEntity
  8
SUNPOU
100
AcDbMText
 10
203.9610219536506
 20
161.048221889728
 30
0.0
 40
3.0
 41
0.0
 71
     5
 72
     5
  1
\A1;183
 73
     1
 44
1.0
1001
ACAD
1000
MTEXTBEGIN
1070
    73
1070
     1
1070
    44
1040
1.0
1070
    74
1070
     0
1000
MTEXTEND
1000
MTEXTBEGIN
1070
    73
1070
     1
1070
    44
1040
1.0
1070
    74
1070
     0
1000
MTEXTEND
  0
POINT
  5
1455
330
EFF
100
AcDbEntity
  8
DEFPOINTS
 62
     0
100
AcDbPoint
 10
295.4606943972673
 20
106.8873619894601
 30
0.0
  0
POINT
  5
1456
330
EFF
100
AcDbEntity
  8
DEFPOINTS
 62
     0
100
AcDbPoint
 10
112.4613495100339
 20
106.887368982341
 30
0.0
  0
POINT
  5
1457
330
EFF
100
AcDbEntity
  8
DEFPOINTS
 62
     0
100
AcDbPoint
 10
112.4613495100339
 20
158.048221889728
 30
0.0
  0
ENDBLK
  5
F0A
330
EFF
100
AcDbEntity
  8
0
100
AcDbBlockEnd
  0
BLOCK
  5
F12
330
F0B
100
AcDbEntity
  8
0
100
AcDbBlockBegin
  2
*D4
 70
     1
 10
0.0
 20
0.0
 30
0.0
  3
*D4
  1

  0
LINE
  5
189B
330
F0B
100
AcDbEntity
  8
SUNPOU
 62
     4
100
AcDbLine
 10
130.9901446378296
 20
84.09282696897287
 30
0.0
 11
159.5102298186434
 21
129.9494908517025
 31
0.0
  0
MTEXT
  5
189C
330
F0B
100
AcDbEntity
  8
SUNPOU
 62
     4
100
AcDbMText
 10
151.5536848022122
 20
123.6092805089409
 30
0.0
 40
3.0
 41
0.0
 71
     5
 72
     5
  1
\A1;\U+220560
 11
0.5281289991622361
 21
0.8491641538853926
 31
0.0
 73
     1
 44
1.0
  0
INSERT
  5
189D
330
F0B
100
AcDbEntity
  8
SUNPOU
 62
     4
100
AcDbBlockReference
  2
_OPEN
 10
129.4057576403428
 20
81.54533450731669
 30
0.0
 41
3.0
 42
3.0
 43
3.0
 50
238.1208742097285
  0
INSERT
  5
189E
330
F0B
100
AcDbEntity
  8
SUNPOU
 62
     4
100
AcDbBlockReference
  2
_OPEN
 10
161.0946168161301
 20
132.4969833133587
 30
0.0
 41
3.0
 42
3.0
 43
3.0
 50
58.12087420972852
  0
POINT
  5
189F
330
F0B
100
AcDbEntity
  8
DEFPOINTS
 62
     0
100
AcDbPoint
 10
161.0946168161301
 20
132.4969833133587
 30
0.0
  0
POINT
  5
18A0
330
F0B
100
AcDbEntity
  8
DEFPOINTS
 62
     0
100
AcDbPoint
 10
129.4057576403428
 20
81.54533450731669
 30
0.0
  0
ENDBLK
  5
F13
330
F0B
100
AcDbEntity
  8
0
100
AcDbBlockEnd
  0
BLOCK
  5
F1E
330
F14
100
AcDbEntity
  8
0
100
AcDbBlockBegin
  2
*D5
 70
     1
 10
0.0
 20
0.0
 30
0.0
  3
*D5
  1

  0
LINE
  5
148F
330
F14
100
AcDbEntity
  8
SUNPOU
100
AcDbLine
 10
111.9612701584489
 20
209.6351183930909
 30
0.0
 11
85.351255387733
 21
209.6351183930909
 31
0.0
  0
LINE
  5
1490
330
F14
100
AcDbEntity
  8
SUNPOU
100
AcDbLine
 10
111.9612701584489
 20
191.635118393091
 30
0.0
 11
85.351255387733
 21
191.635118393091
 31
0.0
  0
LINE
  5
1491
330
F14
100
AcDbEntity
  8
SUNPOU
100
AcDbLine
 10
86.851255387733
 20
206.6351183930909
 30
0.0
 11
86.851255387733
 21
194.6351183930909
 31
0.0
  0
INSERT
  5
1492
330
F14
100
AcDbEntity
  8
SUNPOU
100
AcDbBlockReference
  2
_OPEN
 10
86.851255387733
 20
209.6351183930909
 30
0.0
 41
3.0
 42
3.0
 43
3.0
 50
90.0
  0
INSERT
  5
1493
330
F14
100
AcDbEntity
  8
SUNPOU
100
AcDbBlockReference
  2
_OPEN
 10
86.851255387733
 20
191.635118393091
 30
0.0
 41
3.0
 42
3.0
 43
3.0
 50
270.0
  0
MTEXT
  5
1494
330
F14
100
AcDbEntity
  8
SUNPOU
100
AcDbMText
 10
83.85125538773298
 20
201.7166422243594
 30
0.0
 40
3.0
 41
0.0
 71
     5
 72
     5
  1
\A1;18
 11
0.0000000000000001
 21
1.0
 31
0.0
 73
     1
 44
1.0
1001
ACAD
1000
MTEXTBEGIN
1070
    73
1070
     1
1070
    44
1040
1.0
1070
    74
1070
     0
1000
MTEXTEND
1000
MTEXTBEGIN
1070
    73
1070
     1
1070
    44
1040
1.0
1070
    74
1070
     0
1000
MTEXTEND
  0
POINT
  5
1495
330
F14
100
AcDbEntity
  8
DEFPOINTS
 62
     0
100
AcDbPoint
 10
113.4612701584489
 20
209.6351183930909
 30
0.0
  0
POINT
  5
1496
330
F14
100
AcDbEntity
  8
DEFPOINTS
 62
     0
100
AcDbPoint
 10
113.4612701584489
 20
191.635118393091
 30
0.0
  0
POINT
  5
1497
330
F14
100
AcDbEntity
  8
DEFPOINTS
 62
     0
100
AcDbPoint
 10
86.851255387733
 20
191.635118393091
 30
0.0
  0
ENDBLK
  5
F1F
330
F14
100
AcDbEntity
  8
0
100
AcDbBlockEnd
  0
BLOCK
  5
F2C
330
F20
100
AcDbEntity
  8
0
100
AcDbBlockBegin
  2
*D6
 70
     1
 10
0.0
 20
0.0
 30
0.0
  3
*D6
  1

  0
LINE
  5
1498
330
F20
100
AcDbEntity
  8
SUNPOU
100
AcDbLine
 10
291.7971750717727
 20
109.137368982341
 30
0.0
 11
326.1108930096134
 21
109.137368982341
 31
0.0
  0
LINE
  5
1499
330
F20
100
AcDbEntity
  8
SUNPOU
100
AcDbLine
 10
291.7971750717727
 20
104.6373689823409
 30
0.0
 11
326.1108930096134
 21
104.6373689823409
 31
0.0
  0
LINE
  5
149A
330
F20
100
AcDbEntity
  8
SUNPOU
100
AcDbLine
 10
324.6108930096133
 20
112.137368982341
 30
0.0
 11
324.6108930096133
 21
115.137368982341
 31
0.0
  0
LINE
  5
149B
330
F20
100
AcDbEntity
  8
SUNPOU
100
AcDbLine
 10
324.6108930096133
 20
101.637368982341
 30
0.0
 11
324.6108930096133
 21
84.78746898234106
 31
0.0
  0
INSERT
  5
149C
330
F20
100
AcDbEntity
  8
SUNPOU
100
AcDbBlockReference
  2
_OPEN
 10
324.6108930096133
 20
109.137368982341
 30
0.0
 41
3.0
 42
3.0
 43
3.0
 50
270.0
  0
INSERT
  5
149D
330
F20
100
AcDbEntity
  8
SUNPOU
100
AcDbBlockReference
  2
_OPEN
 10
324.6108930096133
 20
104.6373689823409
 30
0.0
 41
3.0
 42
3.0
 43
3.0
 50
90.0
  0
MTEXT
  5
149E
330
F20
100
AcDbEntity
  8
SUNPOU
100
AcDbMText
 10
321.6108930096134
 20
91.68746898234111
 30
0.0
 40
3.0
 41
0.0
 71
     5
 72
     5
  1
\A1;φ 4.5
 11
0.0000000000000001
 21
1.0
 31
0.0
 73
     1
 44
1.0
1001
ACAD
1000
MTEXTBEGIN
1070
    73
1070
     1
1070
    44
1040
1.0
1070
    74
1070
     0
1000
MTEXTEND
1000
MTEXTBEGIN
1070
    73
1070
     1
1070
    44
1040
1.0
1070
    74
1070
     0
1000
MTEXTEND
  0
POINT
  5
149F
330
F20
100
AcDbEntity
  8
DEFPOINTS
 62
     0
100
AcDbPoint
 10
290.2971750717728
 20
109.137368982341
 30
0.0
  0
POINT
  5
14A0
330
F20
100
AcDbEntity
  8
DEFPOINTS
 62
     0
100
AcDbPoint
 10
290.2971750717727
 20
104.6373689823409
 30
0.0
  0
POINT
  5
14A1
330
F20
100
AcDbEntity
  8
DEFPOINTS
 62
     0
100
AcDbPoint
 10
324.6108930096133
 20
104.6373689823409
 30
0.0
  0
ENDBLK
  5
F2D
330
F20
100
AcDbEntity
  8
0
100
AcDbBlockEnd
  0
BLOCK
  5
F38
330
F2E
100
AcDbEntity
  8
0
100
AcDbBlockBegin
  2
*D7
 70
     1
 10
0.0
 20
0.0
 30
0.0
  3
*D7
  1

  0
LINE
  5
147C
330
F2E
100
AcDbEntity
  8
SUNPOU
100
AcDbLine
 10
209.4613377006014
 20
102.8371936284853
 30
0.0
 11
209.4613377006014
 21
63.00989844072347
 31
0.0
  0
LINE
  5
147D
330
F2E
100
AcDbEntity
  8
SUNPOU
100
AcDbLine
 10
219.4613315685133
 20
102.0871822011402
 30
0.0
 11
219.4613315685133
 21
63.00989844072347
 31
0.0
  0
LINE
  5
147E
330
F2E
100
AcDbEntity
  8
SUNPOU
100
AcDbLine
 10
212.4613377006014
 20
64.50989844072347
 30
0.0
 11
216.4613315685132
 21
64.50989844072347
 31
0.0
  0
INSERT
  5
147F
330
F2E
100
AcDbEntity
  8
SUNPOU
100
AcDbBlockReference
  2
_OPEN
 10
209.4613377006014
 20
64.50989844072347
 30
0.0
 41
3.0
 42
3.0
 43
3.0
 50
180.0
  0
INSERT
  5
1480
330
F2E
100
AcDbEntity
  8
SUNPOU
100
AcDbBlockReference
  2
_OPEN
 10
219.4613315685133
 20
64.50989844072347
 30
0.0
 41
3.0
 42
3.0
 43
3.0
  0
MTEXT
  5
1481
330
F2E
100
AcDbEntity
  8
SUNPOU
100
AcDbMText
 10
214.4613346345573
 20
67.50989844072347
 30
0.0
 40
3.0
 41
0.0
 71
     5
 72
     5
  1
\A1;10
 73
     1
 44
1.0
1001
ACAD
1000
MTEXTBEGIN
1070
    73
1070
     1
1070
    44
1040
1.0
1070
    74
1070
     0
1000
MTEXTEND
1000
MTEXTBEGIN
1070
    73
1070
     1
1070
    44
1040
1.0
1070
    74
1070
     0
1000
MTEXTEND
  0
POINT
  5
1482
330
F2E
100
AcDbEntity
  8
DEFPOINTS
 62
     0
100
AcDbPoint
 10
209.4613377006014
 20
104.3371936284853
 30
0.0
  0
POINT
  5
1483
330
F2E
100
AcDbEntity
  8
DEFPOINTS
 62
     0
100
AcDbPoint
 10
219.4613315685133
 20
103.5871822011402
 30
0.0
  0
POINT
  5
1484
330
F2E
100
AcDbEntity
  8
DEFPOINTS
 62
     0
100
AcDbPoint
 10
219.4613315685133
 20
64.50989844072347
 30
0.0
  0
ENDBLK
  5
F39
330
F2E
100
AcDbEntity
  8
0
100
AcDbBlockEnd
  0
BLOCK
  5
F44
330
F3A
100
AcDbEntity
  8
0
100
AcDbBlockBegin
  2
*D8
 70
     1
 10
0.0
 20
0.0
 30
0.0
  3
*D8
  1

  0
LINE
  5
1473
330
F3A
100
AcDbEntity
  8
SUNPOU
100
AcDbLine
 10
199.4613377006014
 20
102.8371806414723
 30
0.0
 11
199.4613377006014
 21
63.00989844072347
 31
0.0
  0
LINE
  5
1474
330
F3A
100
AcDbEntity
  8
SUNPOU
100
AcDbLine
 10
209.4613377006014
 20
102.8371936284853
 30
0.0
 11
209.4613377006014
 21
63.00989844072347
 31
0.0
  0
LINE
  5
1475
330
F3A
100
AcDbEntity
  8
SUNPOU
100
AcDbLine
 10
202.4613377006014
 20
64.50989844072347
 30
0.0
 11
206.4613377006014
 21
64.50989844072347
 31
0.0
  0
INSERT
  5
1476
330
F3A
100
AcDbEntity
  8
SUNPOU
100
AcDbBlockReference
  2
_OPEN
 10
199.4613377006014
 20
64.50989844072347
 30
0.0
 41
3.0
 42
3.0
 43
3.0
 50
180.0
  0
INSERT
  5
1477
330
F3A
100
AcDbEntity
  8
SUNPOU
100
AcDbBlockReference
  2
_OPEN
 10
209.4613377006014
 20
64.50989844072347
 30
0.0
 41
3.0
 42
3.0
 43
3.0
  0
MTEXT
  5
1478
330
F3A
100
AcDbEntity
  8
SUNPOU
100
AcDbMText
 10
204.4613377006014
 20
67.50989844072347
 30
0.0
 40
3.0
 41
0.0
 71
     5
 72
     5
  1
\A1;10
 73
     1
 44
1.0
1001
ACAD
1000
MTEXTBEGIN
1070
    73
1070
     1
1070
    44
1040
1.0
1070
    74
1070
     0
1000
MTEXTEND
1000
MTEXTBEGIN
1070
    73
1070
     1
1070
    44
1040
1.0
1070
    74
1070
     0
1000
MTEXTEND
  0
POINT
  5
1479
330
F3A
100
AcDbEntity
  8
DEFPOINTS
 62
     0
100
AcDbPoint
 10
199.4613377006014
 20
104.3371806414723
 30
0.0
  0
POINT
  5
147A
330
F3A
100
AcDbEntity
  8
DEFPOINTS
 62
     0
100
AcDbPoint
 10
209.4613377006014
 20
104.3371936284853
 30
0.0
  0
POINT
  5
147B
330
F3A
100
AcDbEntity
  8
DEFPOINTS
 62
     0
100
AcDbPoint
 10
209.4613377006014
 20
64.50989844072347
 30
0.0
  0
ENDBLK
  5
F45
330
F3A
100
AcDbEntity
  8
0
100
AcDbBlockEnd
  0
BLOCK
  5
1242
330
1238
100
AcDbEntity
  8
0
100
AcDbBlockBegin
  2
*D9
 70
     1
 10
0.0
 20
0.0
 30
0.0
  3
*D9
  1

  0
LINE
  5
1458
330
1238
100
AcDbEntity
  8
SUNPOU
100
AcDbLine
 10
175.4613372544098
 20
84.94863371153224
 30
0.0
 11
175.4613372544098
 21
143.1544628746793
 31
0.0
  0
LINE
  5
1459
330
1238
100
AcDbEntity
  8
SUNPOU
100
AcDbLine
 10
295.4609239065222
 20
108.387368982341
 30
0.0
 11
295.4609239065222
 21
143.1544628746793
 31
0.0
  0
LINE
  5
145A
330
1238
100
AcDbEntity
  8
SUNPOU
100
AcDbLine
 10
178.4613372544098
 20
141.6544628746793
 30
0.0
 11
292.4609239065222
 21
141.6544628746793
 31
0.0
  0
INSERT
  5
145B
330
1238
100
AcDbEntity
  8
SUNPOU
100
AcDbBlockReference
  2
_OPEN
 10
175.4613372544098
 20
141.6544628746793
 30
0.0
 41
3.0
 42
3.0
 43
3.0
 50
180.0
  0
INSERT
  5
145C
330
1238
100
AcDbEntity
  8
SUNPOU
100
AcDbBlockReference
  2
_OPEN
 10
295.4609239065222
 20
141.6544628746793
 30
0.0
 41
3.0
 42
3.0
 43
3.0
  0
MTEXT
  5
145D
330
1238
100
AcDbEntity
  8
SUNPOU
100
AcDbMText
 10
235.461130580466
 20
144.6544628746793
 30
0.0
 40
3.0
 41
0.0
 71
     5
 72
     5
  1
\A1;120
 73
     1
 44
1.0
1001
ACAD
1000
MTEXTBEGIN
1070
    73
1070
     1
1070
    44
1040
1.0
1070
    74
1070
     0
1000
MTEXTEND
1000
MTEXTBEGIN
1070
    73
1070
     1
1070
    44
1040
1.0
1070
    74
1070
     0
1000
MTEXTEND
  0
POINT
  5
145E
330
1238
100
AcDbEntity
  8
DEFPOINTS
 62
     0
100
AcDbPoint
 10
175.4613372544098
 20
83.44863371153223
 30
0.0
  0
POINT
  5
145F
330
1238
100
AcDbEntity
  8
DEFPOINTS
 62
     0
100
AcDbPoint
 10
295.4609239065222
 20
106.887368982341
 30
0.0
  0
POINT
  5
1460
330
1238
100
AcDbEntity
  8
DEFPOINTS
 62
     0
100
AcDbPoint
 10
295.4609239065222
 20
141.6544628746793
 30
0.0
  0
ENDBLK
  5
1243
330
1238
100
AcDbEntity
  8
0
100
AcDbBlockEnd
  0
BLOCK
  5
1444
330
143A
100
AcDbEntity
  8
0
100
AcDbBlockBegin
  2
*D10
 70
     1
 10
0.0
 20
0.0
 30
0.0
  3
*D10
  1

  0
LINE
  5
1446
330
143A
100
AcDbEntity
  8
SUNPOU
100
AcDbLine
 10
143.9613701584488
 20
139.887380504164
 30
0.0
 11
85.35125538773298
 21
139.887380504164
 31
0.0
  0
LINE
  5
1447
330
143A
100
AcDbEntity
  8
SUNPOU
100
AcDbLine
 10
143.9613701584488
 20
73.88734041614696
 30
0.0
 11
85.35125538773298
 21
73.88734041614698
 31
0.0
  0
LINE
  5
1448
330
143A
100
AcDbEntity
  8
SUNPOU
100
AcDbLine
 10
86.85125538773299
 20
136.887380504164
 30
0.0
 11
86.85125538773297
 21
76.88734041614698
 31
0.0
  0
INSERT
  5
1449
330
143A
100
AcDbEntity
  8
SUNPOU
100
AcDbBlockReference
  2
_OPEN
 10
86.85125538773299
 20
139.887380504164
 30
0.0
 41
3.0
 42
3.0
 43
3.0
 50
90.0
  0
INSERT
  5
144A
330
143A
100
AcDbEntity
  8
SUNPOU
100
AcDbBlockReference
  2
_OPEN
 10
86.85125538773297
 20
73.88734041614698
 30
0.0
 41
3.0
 42
3.0
 43
3.0
 50
270.0
  0
MTEXT
  5
144B
330
143A
100
AcDbEntity
  8
SUNPOU
100
AcDbMText
 10
83.85125538773296
 20
106.8873604601555
 30
0.0
 40
3.0
 41
0.0
 71
     5
 72
     5
  1
\A1;66
 11
0.0000000000000001
 21
1.0
 31
0.0
 73
     1
 44
1.0
1001
ACAD
1000
MTEXTBEGIN
1070
    73
1070
     1
1070
    44
1040
1.0
1070
    74
1070
     0
1000
MTEXTEND
1000
MTEXTBEGIN
1070
    73
1070
     1
1070
    44
1040
1.0
1070
    74
1070
     0
1000
MTEXTEND
  0
POINT
  5
144C
330
143A
100
AcDbEntity
  8
DEFPOINTS
 62
     0
100
AcDbPoint
 10
145.4613701584487
 20
139.887380504164
 30
0.0
  0
POINT
  5
144D
330
143A
100
AcDbEntity
  8
DEFPOINTS
 62
     0
100
AcDbPoint
 10
145.4613701584487
 20
73.88734041614696
 30
0.0
  0
POINT
  5
144E
330
143A
100
AcDbEntity
  8
DEFPOINTS
 62
     0
100
AcDbPoint
 10
86.85125538773297
 20
73.88734041614698
 30
0.0
  0
ENDBLK
  5
1445
330
143A
100
AcDbEntity
  8
0
100
AcDbBlockEnd
  0
BLOCK
  5
1841
330
16AD
100
AcDbEntity
  8
0
100
AcDbBlockBegin
  2
*X11
 70
     1
 10
0.0
 20
0.0
 30
0.0
  3
*X11
  1

  0
LINE
  5
16AE
330
16AD
100
AcDbEntity
  8
0
 62
     0
100
AcDbLine
 10
34.52110655430823
 20
11.30208458867494
 30
0.0
 11
34.19819108945077
 21
11.62500005353243
 31
0.0
  0
LINE
  5
16AF
330
16AD
100
AcDbEntity
  8
0
 62
     0
100
AcDbLine
 10
34.52110655430823
 20
10.85307178262149
 30
0.0
 11
33.7491782833973
 21
11.62500005353243
 31
0.0
  0
LINE
  5
16B0
330
16AD
100
AcDbEntity
  8
0
 62
     0
100
AcDbLine
 10
34.5211065543082
 20
10.40405897656802
 30
0.0
 11
33.31053958130073
 21
11.61462594957549
 31
0.0
  0
LINE
  5
16B1
330
16AD
100
AcDbEntity
  8
0
 62
     0
100
AcDbLine
 10
34.52110655430823
 20
9.955046170514606
 30
0.0
 11
33.12110655430819
 21
11.35504617051461
 31
0.0
  0
LINE
  5
16B2
330
16AD
100
AcDbEntity
  8
0
 62
     0
100
AcDbLine
 10
34.52110655430823
 20
9.506033364461131
 30
0.0
 11
33.12110655430819
 21
10.90603336446116
 31
0.0
  0
LINE
  5
16B3
330
16AD
100
AcDbEntity
  8
0
 62
     0
100
AcDbLine
 10
34.5211065543082
 20
9.057020558407657
 30
0.0
 11
33.12110655430817
 21
10.45702055840769
 31
0.0
  0
LINE
  5
16B4
330
16AD
100
AcDbEntity
  8
0
 62
     0
100
AcDbLine
 10
32.07110655430819
 20
11.05800775235425
 30
0.0
 11
31.50411425313004
 21
11.62500005353243
 31
0.0
  0
LINE
  5
16B5
330
16AD
100
AcDbEntity
  8
0
 62
     0
100
AcDbLine
 10
34.52110655430823
 20
8.608007752354239
 30
0.0
 11
33.12110655430819
 21
10.00800775235427
 31
0.0
  0
LINE
  5
16B6
330
16AD
100
AcDbEntity
  8
0
 62
     0
100
AcDbLine
 10
32.07110655430819
 20
10.60899494630081
 30
0.0
 11
31.05510144707656
 21
11.6250000535324
 31
0.0
  0
LINE
  5
16B7
330
16AD
100
AcDbEntity
  8
0
 62
     0
100
AcDbLine
 10
34.5211065543082
 20
8.158994946300765
 30
0.0
 11
33.12110655430819
 21
9.558994946300799
 31
0.0
  0
LINE
  5
16B8
330
16AD
100
AcDbEntity
  8
0
 62
     0
100
AcDbLine
 10
32.07110655430819
 20
10.15998214024733
 30
0.0
 11
30.71835107173964
 21
11.51273762281587
 31
0.0
  0
LINE
  5
16B9
330
16AD
100
AcDbEntity
  8
0
 62
     0
100
AcDbLine
 10
34.5211065543082
 20
7.709982140247319
 30
0.0
 11
33.12110655430817
 21
9.109982140247325
 31
0.0
  0
LINE
  5
16BA
330
16AD
100
AcDbEntity
  8
0
 62
     0
100
AcDbLine
 10
32.07110655430824
 20
9.710969334193833
 30
0.0
 11
30.67110655430815
 21
11.11096933419389
 31
0.0
  0
LINE
  5
16BB
330
16AD
100
AcDbEntity
  8
0
 62
     0
100
AcDbLine
 10
34.52110655430823
 20
7.260969334193845
 30
0.0
 11
33.12110655430819
 21
8.660969334193879
 31
0.0
  0
LINE
  5
16BC
330
16AD
100
AcDbEntity
  8
0
 62
     0
100
AcDbLine
 10
32.07110655430821
 20
9.261956528140387
 30
0.0
 11
30.67110655430815
 21
10.66195652814047
 31
0.0
  0
LINE
  5
16BD
330
16AD
100
AcDbEntity
  8
0
 62
     0
100
AcDbLine
 10
34.5211065543082
 20
6.811956528140399
 30
0.0
 11
33.12110655430817
 21
8.211956528140433
 31
0.0
  0
LINE
  5
16BE
330
16AD
100
AcDbEntity
  8
0
 62
     0
100
AcDbLine
 10
32.07110655430821
 20
8.812943722086941
 30
0.0
 11
30.67110655430815
 21
10.212943722087
 31
0.0
  0
LINE
  5
16BF
330
16AD
100
AcDbEntity
  8
0
 62
     0
100
AcDbLine
 10
34.5211065543082
 20
6.362943722086953
 30
0.0
 11
33.12110655430817
 21
7.762943722086987
 31
0.0
  0
LINE
  5
16C0
330
16AD
100
AcDbEntity
  8
0
 62
     0
100
AcDbLine
 10
32.07110655430819
 20
8.363930916033467
 30
0.0
 11
30.67110655430812
 21
9.76393091603353
 31
0.0
  0
LINE
  5
16C1
330
16AD
100
AcDbEntity
  8
0
 62
     0
100
AcDbLine
 10
34.52110655430817
 20
5.913930916033478
 30
0.0
 11
33.12110655430817
 21
7.313930916033513
 31
0.0
  0
LINE
  5
16C2
330
16AD
100
AcDbEntity
  8
0
 62
     0
100
AcDbLine
 10
32.07110655430821
 20
7.91491810998005
 30
0.0
 11
30.67110655430815
 21
9.314918109980112
 31
0.0
  0
LINE
  5
16C3
330
16AD
100
AcDbEntity
  8
0
 62
     0
100
AcDbLine
 10
28.92110655430818
 20
11.06491810998008
 30
0.0
 11
28.36102461075586
 21
11.6250000535324
 31
0.0
  0
LINE
  5
16C4
330
16AD
100
AcDbEntity
  8
0
 62
     0
100
AcDbLine
 10
34.5211065543082
 20
5.464918109980061
 30
0.0
 11
33.12110655430817
 21
6.864918109980067
 31
0.0
  0
LINE
  5
16C5
330
16AD
100
AcDbEntity
  8
0
 62
     0
100
AcDbLine
 10
32.07110655430821
 20
7.465905303926575
 30
0.0
 11
30.67110655430812
 21
8.865905303926638
 31
0.0
  0
LINE
  5
16C6
330
16AD
100
AcDbEntity
  8
0
 62
     0
100
AcDbLine
 10
28.92110655430815
 20
10.6159053039266
 30
0.0
 11
27.91201180470238
 21
11.6250000535324
 31
0.0
  0
LINE
  5
16C7
330
16AD
100
AcDbEntity
  8
0
 62
     0
100
AcDbLine
 10
34.5211065543082
 20
5.015905303926587
 30
0.0
 11
33.12110655430817
 21
6.415905303926621
 31
0.0
  0
LINE
  5
16C8
330
16AD
100
AcDbEntity
  8
0
 62
     0
100
AcDbLine
 10
32.07110655430819
 20
7.016892497873129
 30
0.0
 11
30.67110655430815
 21
8.416892497873135
 31
0.0
  0
LINE
  5
16C9
330
16AD
100
AcDbEntity
  8
0
 62
     0
100
AcDbLine
 10
28.92110655430815
 20
10.16689249787316
 30
0.0
 11
27.57122519264615
 21
11.51677385953516
 31
0.0
  0
LINE
  5
16CA
330
16AD
100
AcDbEntity
  8
0
 62
     0
100
AcDbLine
 10
34.52110655430817
 20
4.566892497873141
 30
0.0
 11
33.12110655430814
 21
5.966892497873146
 31
0.0
  0
LINE
  5
16CB
330
16AD
100
AcDbEntity
  8
0
 62
     0
100
AcDbLine
 10
32.07110655430821
 20
6.567879691819655
 30
0.0
 11
30.67110655430818
 21
7.967879691819689
 31
0.0
  0
LINE
  5
16CC
330
16AD
100
AcDbEntity
  8
0
 62
     0
100
AcDbLine
 10
28.92110655430818
 20
9.717879691819689
 30
0.0
 11
27.52110655430817
 21
11.11787969181969
 31
0.0
  0
LINE
  5
16CD
330
16AD
100
AcDbEntity
  8
0
 62
     0
100
AcDbLine
 10
34.5211065543082
 20
4.117879691819666
 30
0.0
 11
33.12110655430817
 21
5.5178796918197
 31
0.0
  0
LINE
  5
16CE
330
16AD
100
AcDbEntity
  8
0
 62
     0
100
AcDbLine
 10
32.07110655430819
 20
6.118866885766209
 30
0.0
 11
30.67110655430818
 21
7.518866885766243
 31
0.0
  0
LINE
  5
16CF
330
16AD
100
AcDbEntity
  8
0
 62
     0
100
AcDbLine
 10
28.92110655430821
 20
9.268866885766215
 30
0.0
 11
27.52110655430817
 21
10.66886688576625
 31
0.0
  0
LINE
  5
16D0
330
16AD
100
AcDbEntity
  8
0
 62
     0
100
AcDbLine
 10
34.4851238768633
 20
3.704849563211126
 30
0.0
 11
33.12110655430817
 21
5.068866885766254
 31
0.0
  0
LINE
  5
16D1
330
16AD
100
AcDbEntity
  8
0
 62
     0
100
AcDbLine
 10
32.07110655430821
 20
5.669854079712706
 30
0.0
 11
30.67110655430815
 21
7.069854079712769
 31
0.0
  0
LINE
  5
16D2
330
16AD
100
AcDbEntity
  8
0
 62
     0
100
AcDbLine
 10
28.92110655430818
 20
8.819854079712769
 30
0.0
 11
27.52110655430815
 21
10.21985407971277
 31
0.0
  0
LINE
  5
16D3
330
16AD
100
AcDbEntity
  8
0
 62
     0
100
AcDbLine
 10
34.16596058048856
 20
3.575000053532392
 30
0.0
 11
33.12110655430814
 21
4.619854079712808
 31
0.0
  0
LINE
  5
16D4
330
16AD
100
AcDbEntity
  8
0
 62
     0
100
AcDbLine
 10
28.92110655430818
 20
8.370841273659294
 30
0.0
 11
27.52110655430815
 21
9.770841273659328
 31
0.0
  0
LINE
  5
16D5
330
16AD
100
AcDbEntity
  8
0
 62
     0
100
AcDbLine
 10
32.07110655430821
 20
5.22084127365926
 30
0.0
 11
30.67110655430815
 21
6.620841273659323
 31
0.0
  0
LINE
  5
16D6
330
16AD
100
AcDbEntity
  8
0
 62
     0
100
AcDbLine
 10
26.20860655430817
 20
11.0833412736593
 30
0.0
 11
25.6669477744351
 21
11.62500005353234
 31
0.0
  0
LINE
  5
16D7
330
16AD
100
AcDbEntity
  8
0
 62
     0
100
AcDbLine
 10
33.71694777443511
 20
3.575000053532335
 30
0.0
 11
33.12110655430814
 21
4.170841273659334
 31
0.0
  0
LINE
  5
16D8
330
16AD
100
AcDbEntity
  8
0
 62
     0
100
AcDbLine
 10
28.92110655430818
 20
7.921828467605848
 30
0.0
 11
27.5211065543082
 21
9.321828467605854
 31
0.0
  0
LINE
  5
16D9
330
16AD
100
AcDbEntity
  8
0
 62
     0
100
AcDbLine
 10
26.20860655430817
 20
10.63432846760585
 30
0.0
 11
25.21793496838168
 21
11.62500005353237
 31
0.0
  0
LINE
  5
16DA
330
16AD
100
AcDbEntity
  8
0
 62
     0
100
AcDbLine
 10
32.05812740398542
 20
4.784807617928635
 30
0.0
 11
30.67110655430815
 21
6.171828467605877
 31
0.0
  0
LINE
  5
16DB
330
16AD
100
AcDbEntity
  8
0
 62
     0
100
AcDbLine
 10
28.92110655430818
 20
7.472815661552402
 30
0.0
 11
27.5211065543082
 21
8.87281566155238
 31
0.0
  0
LINE
  5
16DC
330
16AD
100
AcDbEntity
  8
0
 62
     0
100
AcDbLine
 10
26.11081628125126
 20
10.28310593460932
 30
0.0
 11
24.76892216232818
 21
11.6250000535324
 31
0.0
  0
LINE
  5
16DD
330
16AD
100
AcDbEntity
  8
0
 62
     0
100
AcDbLine
 10
31.9616347563568
 20
4.432287459503754
 30
0.0
 11
30.67110655430815
 21
5.722815661552431
 31
0.0
  0
LINE
  5
16DE
330
16AD
100
AcDbEntity
  8
0
 62
     0
100
AcDbLine
 10
28.92110655430818
 20
7.023802855498928
 30
0.0
 11
27.52110655430817
 21
8.423802855498934
 31
0.0
  0
LINE
  5
16DF
330
16AD
100
AcDbEntity
  8
0
 62
     0
100
AcDbLine
 10
25.71990935627468
 20
10.22500005353239
 30
0.0
 11
24.31990935627473
 21
11.62500005353234
 31
0.0
  0
LINE
  5
16E0
330
16AD
100
AcDbEntity
  8
0
 62
     0
100
AcDbLine
 10
31.79911881839501
 20
4.145790591412065
 30
0.0
 11
30.6353486847284
 21
5.309560725078711
 31
0.0
  0
LINE
  5
16E1
330
16AD
100
AcDbEntity
  8
0
 62
     0
100
AcDbLine
 10
28.92110655430818
 20
6.57479004944551
 30
0.0
 11
27.5211065543082
 21
7.974790049445488
 31
0.0
  0
LINE
  5
16E2
330
16AD
100
AcDbEntity
  8
0
 62
     0
100
AcDbLine
 10
25.27089655022129
 20
10.22500005353236
 30
0.0
 11
23.90211318563257
 21
11.59378341812111
 31
0.0
  0
LINE
  5
16E3
330
16AD
100
AcDbEntity
  8
0
 62
     0
100
AcDbLine
 10
31.58309791973249
 20
3.912798684021169
 30
0.0
 11
30.43455586549464
 21
5.061340738259019
 31
0.0
  0
LINE
  5
16E4
330
16AD
100
AcDbEntity
  8
0
 62
     0
100
AcDbLine
 10
28.92110655430818
 20
6.125777243392036
 30
0.0
 11
27.52110655430817
 21
7.525777243392013
 31
0.0
  0
LINE
  5
16E5
330
16AD
100
AcDbEntity
  8
0
 62
     0
100
AcDbLine
 10
24.82188374416784
 20
10.22500005353236
 30
0.0
 11
23.56979297336587
 21
11.47709082433431
 31
0.0
  0
LINE
  5
16E6
330
16AD
100
AcDbEntity
  8
0
 62
     0
100
AcDbLine
 10
31.31501674726948
 20
3.731867050430736
 30
0.0
 11
30.07188374416784
 21
4.975000053532369
 31
0.0
  0
LINE
  5
16E7
330
16AD
100
AcDbEntity
  8
0
 62
     0
100
AcDbLine
 10
28.92110655430815
 20
5.676764437338562
 30
0.0
 11
27.52110655430817
 21
7.076764437338567
 31
0.0
  0
LINE
  5
16E8
330
16AD
100
AcDbEntity
  8
0
 62
     0
100
AcDbLine
 10
24.38376585212338
 20
10.21410513952332
 30
0.0
 11
23.29849250476078
 21
11.29937848688592
 31
0.0
  0
LINE
  5
16E9
330
16AD
100
AcDbEntity
  8
0
 62
     0
100
AcDbLine
 10
30.98681046731383
 20
3.611060524332913
 30
0.0
 11
29.62287093811434
 21
4.975000053532397
 31
0.0
  0
LINE
  5
16EA
330
16AD
100
AcDbEntity
  8
0
 62
     0
100
AcDbLine
 10
24.19610655430821
 20
9.952751631285025
 30
0.0
 11
23.0794364752385
 21
11.06942171035473
 31
0.0
  0
LINE
  5
16EB
330
16AD
100
AcDbEntity
  8
0
 62
     0
100
AcDbLine
 10
30.5738581320609
 20
3.575000053532363
 30
0.0
 11
27.52110655430817
 21
6.627751631285093
 31
0.0
  0
LINE
  5
16EC
330
16AD
100
AcDbEntity
  8
0
 62
     0
100
AcDbLine
 10
24.19610655430821
 20
9.503738825231636
 30
0.0
 11
22.91355101906199
 21
10.78629436047785
 31
0.0
  0
LINE
  5
16ED
330
16AD
100
AcDbEntity
  8
0
 62
     0
100
AcDbLine
 10
30.12484532600746
 20
3.575000053532363
 30
0.0
 11
27.52110655430817
 21
6.178738825231675
 31
0.0
  0
LINE
  5
16EE
330
16AD
100
AcDbEntity
  8
0
 62
     0
100
AcDbLine
 10
24.2993786948601
 20
8.951453878626267
 30
0.0
 11
22.81246175937994
 21
10.4383708141064
 31
0.0
  0
LINE
  5
16EF
330
16AD
100
AcDbEntity
  8
0
 62
     0
100
AcDbLine
 10
29.67583251995401
 20
3.575000053532363
 30
0.0
 11
27.52110655430817
 21
5.729726019178201
 31
0.0
  0
LINE
  5
16F0
330
16AD
100
AcDbEntity
  8
0
 62
     0
100
AcDbLine
 10
26.40790840565387
 20
6.393911361779032
 30
0.0
 11
22.79610655430815
 21
10.00571321312474
 31
0.0
  0
LINE
  5
16F1
330
16AD
100
AcDbEntity
  8
0
 62
     0
100
AcDbLine
 10
21.74610655430814
 20
11.05571321312473
 30
0.0
 11
21.17681971390049
 21
11.6250000535324
 31
0.0
  0
LINE
  5
16F2
330
16AD
100
AcDbEntity
  8
0
 62
     0
100
AcDbLine
 10
29.22681971390053
 20
3.575000053532363
 30
0.0
 11
27.52110655430815
 21
5.280713213124727
 31
0.0
  0
LINE
  5
16F3
330
16AD
100
AcDbEntity
  8
0
 62
     0
100
AcDbLine
 10
26.47110655430822
 20
5.881700407071264
 30
0.0
 11
22.79610655430818
 21
9.556700407071303
 31
0.0
  0
LINE
  5
16F4
330
16AD
100
AcDbEntity
  8
0
 62
     0
100
AcDbLine
 10
21.74610655430819
 20
10.60670040707125
 30
0.0
 11
20.72780690784705
 21
11.62500005353243
 31
0.0
  0
LINE
  5
16F5
330
16AD
100
AcDbEntity
  8
0
 62
     0
100
AcDbLine
 10
28.76958296847465
 20
3.583223992904834
 30
0.0
 11
27.52933049368064
 21
4.823476467698839
 31
0.0
  0
LINE
  5
16F6
330
16AD
100
AcDbEntity
  8
0
 62
     0
100
AcDbLine
 10
21.74610655430819
 20
10.15768760101781
 30
0.0
 11
20.39241161042053
 21
11.51138254490544
 31
0.0
  0
LINE
  5
16F7
330
16AD
100
AcDbEntity
  8
0
 62
     0
100
AcDbLine
 10
26.47110655430819
 20
5.432687601017789
 30
0.0
 11
22.80781188824937
 21
9.095982267076635
 31
0.0
  0
LINE
  5
16F8
330
16AD
100
AcDbEntity
  8
0
 62
     0
100
AcDbLine
 10
21.74610655430819
 20
9.708674794964338
 30
0.0
 11
20.34610655430819
 21
11.10867479496431
 31
0.0
  0
LINE
  5
16F9
330
16AD
100
AcDbEntity
  8
0
 62
     0
100
AcDbLine
 10
26.47110655430813
 20
4.983674794964372
 30
0.0
 11
22.96687159716938
 21
8.487909752103149
 31
0.0
  0
LINE
  5
16FA
330
16AD
100
AcDbEntity
  8
0
 62
     0
100
AcDbLine
 10
21.74610655430819
 20
9.259661988910892
 30
0.0
 11
20.34610655430822
 21
10.65966198891086
 31
0.0
  0
LINE
  5
16FB
330
16AD
100
AcDbEntity
  8
0
 62
     0
100
AcDbLine
 10
26.41682564551365
 20
4.588942897705436
 30
0.0
 11
25.0690082509945
 21
5.93676029222459
 31
0.0
  0
LINE
  5
16FC
330
16AD
100
AcDbEntity
  8
0
 62
     0
100
AcDbLine
 10
21.74610655430819
 20
8.810649182857446
 30
0.0
 11
20.34610655430819
 21
10.21064918285742
 31
0.0
  0
LINE
  5
16FD
330
16AD
100
AcDbEntity
  8
0
 62
     0
100
AcDbLine
 10
19.20036310401968
 20
11.35639263314593
 30
0.0
 11
18.93175568363324
 21
11.6250000535324
 31
0.0
  0
LINE
  5
16FE
330
16AD
100
AcDbEntity
  8
0
 62
     0
100
AcDbLine
 10
26.28288779163287
 20
4.273867945532771
 30
0.0
 11
25.07110655430821
 21
5.485649182857429
 31
0.0
  0
LINE
  5
16FF
330
16AD
100
AcDbEntity
  8
0
 62
     0
100
AcDbLine
 10
21.74610655430817
 20
8.361636376803971
 30
0.0
 11
20.34610655430819
 21
9.761636376803977
 31
0.0
  0
LINE
  5
1700
330
16AD
100
AcDbEntity
  8
0
 62
     0
100
AcDbLine
 10
19.10089927189338
 20
11.00684365921875
 30
0.0
 11
18.48274287757976
 21
11.6250000535324
 31
0.0
  0
LINE
  5
1701
330
16AD
100
AcDbEntity
  8
0
 62
     0
100
AcDbLine
 10
26.09139439254522
 20
4.016348538566944
 30
0.0
 11
25.02246396286497
 21
5.085278968247195
 31
0.0
  0
LINE
  5
1702
330
16AD
100
AcDbEntity
  8
0
 62
     0
100
AcDbLine
 10
21.74610655430817
 20
7.912623570750525
 30
0.0
 11
20.34610655430819
 21
9.312623570750503
 31
0.0
  0
LINE
  5
1703
330
16AD
100
AcDbEntity
  8
0
 62
     0
100
AcDbLine
 10
18.99313619844053
 20
10.66559392661812
 30
0.0
 11
18.03852841670524
 21
11.62020170835344
 31
0.0
  0
LINE
  5
1704
330
16AD
100
AcDbEntity
  8
0
 62
     0
100
AcDbLine
 10
25.84823490998741
 20
3.810495215071256
 30
0.0
 11
24.6837300715263
 21
4.975000053532397
 31
0.0
  0
LINE
  5
1705
330
16AD
100
AcDbEntity
  8
0
 62
     0
100
AcDbLine
 10
21.74610655430819
 20
7.463610764697079
 30
0.0
 11
20.34610655430819
 21
8.863610764697057
 31
0.0
  0
LINE
  5
1706
330
16AD
100
AcDbEntity
  8
0
 62
     0
100
AcDbLine
 10
18.88537312498778
 20
10.32434419401749
 30
0.0
 11
17.82137312498775
 21
11.38834419401752
 31
0.0
  0
LINE
  5
1707
330
16AD
100
AcDbEntity
  8
0
 62
     0
100
AcDbLine
 10
25.55019293575722
 20
3.659524383248026
 30
0.0
 11
24.23471726547285
 21
4.975000053532426
 31
0.0
  0
LINE
  5
1708
330
16AD
100
AcDbEntity
  8
0
 62
     0
100
AcDbLine
 10
21.74610655430817
 20
7.014597958643634
 30
0.0
 11
20.34610655430819
 21
8.414597958643611
 31
0.0
  0
LINE
  5
1709
330
16AD
100
AcDbEntity
  8
0
 62
     0
100
AcDbLine
 10
18.77761005153485
 20
9.983094461416953
 30
0.0
 11
17.71361005153485
 21
11.04709446141694
 31
0.0
  0
LINE
  5
170A
330
16AD
100
AcDbEntity
  8
0
 62
     0
100
AcDbLine
 10
25.18135660993348
 20
3.579347903018316
 30
0.0
 11
23.7857044594194
 21
4.975000053532397
 31
0.0
  0
LINE
  5
170B
330
16AD
100
AcDbEntity
  8
0
 62
     0
100
AcDbLine
 10
21.74610655430817
 20
6.565585152590159
 30
0.0
 11
20.34610655430816
 21
7.965585152590136
 31
0.0
  0
LINE
  5
170C
330
16AD
100
AcDbEntity
  8
0
 62
     0
100
AcDbLine
 10
18.66984697808206
 20
9.641844728816266
 30
0.0
 11
17.60584697808201
 21
10.70584472881628
 31
0.0
  0
LINE
  5
170D
330
16AD
100
AcDbEntity
  8
0
 62
     0
100
AcDbLine
 10
24.73669165336596
 20
3.575000053532363
 30
0.0
 11
23.33669165336593
 21
4.975000053532397
 31
0.0
  0
LINE
  5
170E
330
16AD
100
AcDbEntity
  8
0
 62
     0
100
AcDbLine
 10
21.74610655430817
 20
6.116572346536713
 30
0.0
 11
20.34610655430819
 21
7.516572346536719
 31
0.0
  0
LINE
  5
170F
330
16AD
100
AcDbEntity
  8
0
 62
     0
100
AcDbLine
 10
18.56208390462924
 20
9.300594996215664
 30
0.0
 11
17.49808390462919
 21
10.36459499621568
 31
0.0
  0
LINE
  5
1710
330
16AD
100
AcDbEntity
  8
0
 62
     0
100
AcDbLine
 10
24.28767884731252
 20
3.575000053532392
 30
0.0
 11
23.07087299866432
 21
4.791805902180584
 31
0.0
  0
LINE
  5
1711
330
16AD
100
AcDbEntity
  8
0
 62
     0
100
AcDbLine
 10
18.45432083117643
 20
8.959345263614977
 30
0.0
 11
17.39032083117638
 21
10.02334526361505
 31
0.0
  0
LINE
  5
1712
330
16AD
100
AcDbEntity
  8
0
 62
     0
100
AcDbLine
 10
21.74610655430817
 20
5.667559540483267
 30
0.0
 11
20.34610655430819
 21
7.067559540483244
 31
0.0
  0
LINE
  5
1713
330
16AD
100
AcDbEntity
  8
0
 62
     0
100
AcDbLine
 10
16.32110655430818
 20
11.09255954048325
 30
0.0
 11
15.78866604125903
 21
11.62500005353237
 31
0.0
  0
LINE
  5
1714
330
16AD
100
AcDbEntity
  8
0
 62
     0
100
AcDbLine
 10
23.83866604125907
 20
3.575000053532363
 30
0.0
 11
23.05860655430819
 21
4.355059540483239
 31
0.0
  0
LINE
  5
1715
330
16AD
100
AcDbEntity
  8
0
 62
     0
100
AcDbLine
 10
18.34655775772353
 20
8.618095531014432
 30
0.0
 11
17.28255775772356
 21
9.682095531014397
 31
0.0
  0
LINE
  5
1716
330
16AD
100
AcDbEntity
  8
0
 62
     0
100
AcDbLine
 10
21.74610655430817
 20
5.218546734429793
 30
0.0
 11
20.34610655430816
 21
6.618546734429799
 31
0.0
  0
LINE
  5
1717
330
16AD
100
AcDbEntity
  8
0
 62
     0
100
AcDbLine
 10
16.32110655430818
 20
10.64354673442977
 30
0.0
 11
15.33965323520559
 21
11.62500005353237
 31
0.0
  0
LINE
  5
1718
330
16AD
100
AcDbEntity
  8
0
 62
     0
100
AcDbLine
 10
23.38965323520557
 20
3.575000053532392
 30
0.0
 11
23.05860655430817
 21
3.906046734429764
 31
0.0
  0
LINE
  5
1719
330
16AD
100
AcDbEntity
  8
0
 62
     0
100
AcDbLine
 10
18.23879468427071
 20
8.276845798413773
 30
0.0
 11
17.17479468427069
 21
9.340845798413795
 31
0.0
  0
LINE
  5
171A
330
16AD
100
AcDbEntity
  8
0
 62
     0
100
AcDbLine
 10
16.32110655430816
 20
10.1945339283763
 30
0.0
 11
14.98338408985935
 21
11.53225639282513
 31
0.0
  0
LINE
  5
171B
330
16AD
100
AcDbEntity
  8
0
 62
     0
100
AcDbLine
 10
21.74610655430814
 20
4.769533928376347
 30
0.0
 11
20.34610655430816
 21
6.169533928376324
 31
0.0
  0
LINE
  5
171C
330
16AD
100
AcDbEntity
  8
0
 62
     0
100
AcDbLine
 10
18.13103161081789
 20
7.935596065813172
 30
0.0
 11
17.0670316108179
 21
8.999596065813165
 31
0.0
  0
LINE
  5
171D
330
16AD
100
AcDbEntity
  8
0
 62
     0
100
AcDbLine
 10
16.32110655430818
 20
9.745521122322884
 30
0.0
 11
14.92110655430815
 21
11.14552112232289
 31
0.0
  0
LINE
  5
171E
330
16AD
100
AcDbEntity
  8
0
 62
     0
100
AcDbLine
 10
21.74610655430817
 20
4.320521122322901
 30
0.0
 11
20.34610655430816
 21
5.720521122322878
 31
0.0
  0
LINE
  5
171F
330
16AD
100
AcDbEntity
  8
0
 62
     0
100
AcDbLine
 10
18.02848735612187
 20
7.589127514455725
 30
0.0
 11
16.95926853736503
 21
8.658346333212563
 31
0.0
  0
LINE
  5
1720
330
16AD
100
AcDbEntity
  8
0
 62
     0
100
AcDbLine
 10
16.32110655430818
 20
9.296508316269409
 30
0.0
 11
14.92110655430815
 21
10.69650831626944
 31
0.0
  0
LINE
  5
1721
330
16AD
100
AcDbEntity
  8
0
 62
     0
100
AcDbLine
 10
21.74610655430814
 20
3.871508316269427
 30
0.0
 11
20.34610655430816
 21
5.271508316269432
 31
0.0
  0
LINE
  5
1722
330
16AD
100
AcDbEntity
  8
0
 62
     0
100
AcDbLine
 10
18.23572403583887
 20
6.932878028685252
 30
0.0
 11
16.81399478952272
 21
8.354607275001399
 31
0.0
  0
LINE
  5
1723
330
16AD
100
AcDbEntity
  8
0
 62
     0
100
AcDbLine
 10
16.32110655430821
 20
8.847495510215907
 30
0.0
 11
14.92110655430812
 21
10.24749551021596
 31
0.0
  0
LINE
  5
1724
330
16AD
100
AcDbEntity
  8
0
 62
     0
100
AcDbLine
 10
21.57658405564197
 20
3.592018008882121
 30
0.0
 11
20.34610655430819
 21
4.822495510215929
 31
0.0
  0
LINE
  5
1725
330
16AD
100
AcDbEntity
  8
0
 62
     0
100
AcDbLine
 10
18.44296071555587
 20
6.276628542914835
 30
0.0
 11
14.92110655430815
 21
9.798482704162552
 31
0.0
  0
LINE
  5
1726
330
16AD
100
AcDbEntity
  8
0
 62
     0
100
AcDbLine
 10
13.69610655430821
 20
11.02348270416249
 30
0.0
 11
13.09458920493833
 21
11.62500005353237
 31
0.0
  0
LINE
  5
1727
330
16AD
100
AcDbEntity
  8
0
 62
     0
100
AcDbLine
 10
21.14458920493834
 20
3.575000053532363
 30
0.0
 11
20.34610655430822
 21
4.373482704162483
 31
0.0
  0
LINE
  5
1728
330
16AD
100
AcDbEntity
  8
0
 62
     0
100
AcDbLine
 10
18.65019739527289
 20
5.620379057144333
 30
0.0
 11
14.92110655430815
 21
9.349469898109077
 31
0.0
  0
LINE
  5
1729
330
16AD
100
AcDbEntity
  8
0
 62
     0
100
AcDbLine
 10
13.69610655430821
 20
10.57446989810901
 30
0.0
 11
12.64557639888482
 21
11.6250000535324
 31
0.0
  0
LINE
  5
172A
330
16AD
100
AcDbEntity
  8
0
 62
     0
100
AcDbLine
 10
20.69557639888486
 20
3.575000053532335
 30
0.0
 11
20.34610655430819
 21
3.924469898109038
 31
0.0
  0
LINE
  5
172B
330
16AD
100
AcDbEntity
  8
0
 62
     0
100
AcDbLine
 10
13.56265320661316
 20
10.25891043975059
 30
0.0
 11
12.21254234750745
 21
11.60902129885627
 31
0.0
  0
LINE
  5
172C
330
16AD
100
AcDbEntity
  8
0
 62
     0
100
AcDbLine
 10
18.85743407498986
 20
4.964129571373888
 30
0.0
 11
14.92110655430818
 21
8.900457092055575
 31
0.0
  0
LINE
  5
172D
330
16AD
100
AcDbEntity
  8
0
 62
     0
100
AcDbLine
 10
16.48986101547899
 20
6.882689824831317
 30
0.0
 11
14.92110655430818
 21
8.451444286002129
 31
0.0
  0
LINE
  5
172E
330
16AD
100
AcDbEntity
  8
0
 62
     0
100
AcDbLine
 10
13.14755078677794
 20
10.22500005353234
 30
0.0
 11
11.84352081271381
 21
11.52903002759649
 31
0.0
  0
LINE
  5
172F
330
16AD
100
AcDbEntity
  8
0
 62
     0
100
AcDbLine
 10
19.06467075470689
 20
4.307880085603414
 30
0.0
 11
17.01851690855284
 21
6.35403393175747
 31
0.0
  0
LINE
  5
1730
330
16AD
100
AcDbEntity
  8
0
 62
     0
100
AcDbLine
 10
16.32110655430821
 20
6.602431479948648
 30
0.0
 11
14.92110655430818
 21
8.002431479948683
 31
0.0
  0
LINE
  5
1731
330
16AD
100
AcDbEntity
  8
0
 62
     0
100
AcDbLine
 10
12.69853798072444
 20
10.22500005353239
 30
0.0
 11
11.52416010479845
 21
11.39937792945838
 31
0.0
  0
LINE
  5
1732
330
16AD
100
AcDbEntity
  8
0
 62
     0
100
AcDbLine
 10
19.1821901835622
 20
3.741347850694637
 30
0.0
 11
17.22575358826981
 21
5.697784445987053
 31
0.0
  0
LINE
  5
1733
330
16AD
100
AcDbEntity
  8
0
 62
     0
100
AcDbLine
 10
16.32110655430818
 20
6.153418673895203
 30
0.0
 11
14.92110655430815
 21
7.553418673895208
 31
0.0
  0
LINE
  5
1734
330
16AD
100
AcDbEntity
  8
0
 62
     0
100
AcDbLine
 10
12.27698122945267
 20
10.19754399875071
 30
0.0
 11
11.24478561713118
 21
11.2297396110722
 31
0.0
  0
LINE
  5
1735
330
16AD
100
AcDbEntity
  8
0
 62
     0
100
AcDbLine
 10
18.89952517467102
 20
3.575000053532363
 30
0.0
 11
17.43299026798683
 21
5.041534960216523
 31
0.0
  0
LINE
  5
1736
330
16AD
100
AcDbEntity
  8
0
 62
     0
100
AcDbLine
 10
16.32110655430818
 20
5.704405867841728
 30
0.0
 11
14.92110655430815
 21
7.104405867841762
 31
0.0
  0
LINE
  5
1737
330
16AD
100
AcDbEntity
  8
0
 62
     0
100
AcDbLine
 10
11.99105313303317
 20
10.03445928911673
 30
0.0
 11
11.00095801282529
 21
11.02455440932462
 31
0.0
  0
LINE
  5
1738
330
16AD
100
AcDbEntity
  8
0
 62
     0
100
AcDbLine
 10
18.45051236861755
 20
3.575000053532363
 30
0.0
 11
17.6402269477038
 21
4.385285474446106
 31
0.0
  0
LINE
  5
1739
330
16AD
100
AcDbEntity
  8
0
 62
     0
100
AcDbLine
 10
13.86382112070705
 20
7.71267849538944
 30
0.0
 11
13.10878499616518
 21
8.467714619931314
 31
0.0
  0
LINE
  5
173A
330
16AD
100
AcDbEntity
  8
0
 62
     0
100
AcDbLine
 10
16.32110655430824
 20
5.255393061788254
 30
0.0
 11
14.92110655430818
 21
6.655393061788316
 31
0.0
  0
LINE
  5
173B
330
16AD
100
AcDbEntity
  8
0
 62
     0
100
AcDbLine
 10
11.8129923479687
 20
9.763507268127796
 30
0.0
 11
10.79127499981967
 21
10.78522461627682
 31
0.0
  0
LINE
  5
173C
330
16AD
100
AcDbEntity
  8
0
 62
     0
100
AcDbLine
 10
17.97633306046179
 20
3.6001665556347
 30
0.0
 11
17.85115597466614
 21
3.725343641430356
 31
0.0
  0
LINE
  5
173D
330
16AD
100
AcDbEntity
  8
0
 62
     0
100
AcDbLine
 10
13.82056429063609
 20
7.306922519406924
 30
0.0
 11
12.70302902018267
 21
8.424457789860355
 31
0.0
  0
LINE
  5
173E
330
16AD
100
AcDbEntity
  8
0
 62
     0
100
AcDbLine
 10
11.77110655430823
 20
9.356380255734791
 30
0.0
 11
10.61680548933884
 21
10.51068132070418
 31
0.0
  0
LINE
  5
173F
330
16AD
100
AcDbEntity
  8
0
 62
     0
100
AcDbLine
 10
16.32110655430821
 20
4.806380255734779
 30
0.0
 11
14.92110655430815
 21
6.20638025573487
 31
0.0
  0
LINE
  5
1740
330
16AD
100
AcDbEntity
  8
0
 62
     0
100
AcDbLine
 10
13.65463651098707
 20
7.023837493002446
 30
0.0
 11
12.41994399377819
 21
8.25853001021133
 31
0.0
  0
LINE
  5
1741
330
16AD
100
AcDbEntity
  8
0
 62
     0
100
AcDbLine
 10
11.77110655430823
 20
8.907367449681316
 30
0.0
 11
10.48151563573375
 21
10.19695836825579
 31
0.0
  0
LINE
  5
1742
330
16AD
100
AcDbEntity
  8
0
 62
     0
100
AcDbLine
 10
16.32110655430821
 20
4.357367449681333
 30
0.0
 11
14.92110655430818
 21
5.757367449681368
 31
0.0
  0
LINE
  5
1743
330
16AD
100
AcDbEntity
  8
0
 62
     0
100
AcDbLine
 10
11.77110655430823
 20
8.45835464362787
 30
0.0
 11
10.39415869927083
 21
9.835302498665299
 31
0.0
  0
LINE
  5
1744
330
16AD
100
AcDbEntity
  8
0
 62
     0
100
AcDbLine
 10
13.40371978991885
 20
6.825741408017279
 30
0.0
 11
12.22184790879302
 21
8.007613289143108
 31
0.0
  0
LINE
  5
1745
330
16AD
100
AcDbEntity
  8
0
 62
     0
100
AcDbLine
 10
9.058606554308141
 20
11.17085464362796
 30
0.0
 11
8.6044611444037
 21
11.62500005353243
 31
0.0
  0
LINE
  5
1746
330
16AD
100
AcDbEntity
  8
0
 62
     0
100
AcDbLine
 10
16.32110655430824
 20
3.908354643627887
 30
0.0
 11
14.9211065543082
 21
5.308354643627922
 31
0.0
  0
LINE
  5
1747
330
16AD
100
AcDbEntity
  8
0
 62
     0
100
AcDbLine
 10
11.77110655430823
 20
8.009341837574424
 30
0.0
 11
10.37110655430819
 21
9.409341837574459
 31
0.0
  0
LINE
  5
1748
330
16AD
100
AcDbEntity
  8
0
 62
     0
100
AcDbLine
 10
13.05356006870513
 20
6.726888323177519
 30
0.0
 11
12.12299482395326
 21
7.657453567929394
 31
0.0
  0
LINE
  5
1749
330
16AD
100
AcDbEntity
  8
0
 62
     0
100
AcDbLine
 10
9.058606554308141
 20
10.72184183757451
 30
0.0
 11
8.155448338350225
 21
11.6250000535324
 31
0.0
  0
LINE
  5
174A
330
16AD
100
AcDbEntity
  8
0
 62
     0
100
AcDbLine
 10
16.17715465367288
 20
3.603293738209771
 30
0.0
 11
14.92110655430818
 21
4.859341837574447
 31
0.0
  0
LINE
  5
174B
330
16AD
100
AcDbEntity
  8
0
 62
     0
100
AcDbLine
 10
11.77110655430823
 20
7.56032903152095
 30
0.0
 11
10.37110655430819
 21
8.960329031520984
 31
0.0
  0
LINE
  5
174C
330
16AD
100
AcDbEntity
  8
0
 62
     0
100
AcDbLine
 10
9.004089569173004
 20
10.32734601665618
 30
0.0
 11
7.706435532296723
 21
11.62500005353243
 31
0.0
  0
LINE
  5
174D
330
16AD
100
AcDbEntity
  8
0
 62
     0
100
AcDbLine
 10
15.75643553229679
 20
3.575000053532392
 30
0.0
 11
14.92110655430818
 21
4.410329031521001
 31
0.0
  0
LINE
  5
174E
330
16AD
100
AcDbEntity
  8
0
 62
     0
100
AcDbLine
 10
11.7711065543082
 20
7.111316225467504
 30
0.0
 11
10.37110655430817
 21
8.51131622546751
 31
0.0
  0
LINE
  5
174F
330
16AD
100
AcDbEntity
  8
0
 62
     0
100
AcDbLine
 10
8.657422726243339
 20
10.22500005353236
 30
0.0
 11
7.257422726243277
 21
11.62500005353243
 31
0.0
  0
LINE
  5
1750
330
16AD
100
AcDbEntity
  8
0
 62
     0
100
AcDbLine
 10
15.30742272624331
 20
3.575000053532363
 30
0.0
 11
14.92110655430818
 21
3.961316225467527
 31
0.0
  0
LINE
  5
1751
330
16AD
100
AcDbEntity
  8
0
 62
     0
100
AcDbLine
 10
11.77110655430823
 20
6.662303419414058
 30
0.0
 11
10.37110655430819
 21
8.062303419414092
 31
0.0
  0
LINE
  5
1752
330
16AD
100
AcDbEntity
  8
0
 62
     0
100
AcDbLine
 10
8.208409920189893
 20
10.22500005353236
 30
0.0
 11
6.825845284137443
 21
11.60756468958484
 31
0.0
  0
LINE
  5
1753
330
16AD
100
AcDbEntity
  8
0
 62
     0
100
AcDbLine
 10
13.69480532988973
 20
4.73860464383253
 30
0.0
 11
13.45971114460837
 21
4.973698829113914
 31
0.0
  0
LINE
  5
1754
330
16AD
100
AcDbEntity
  8
0
 62
     0
100
AcDbLine
 10
11.7711065543082
 20
6.213290613360584
 30
0.0
 11
10.37110655430819
 21
7.613290613360618
 31
0.0
  0
LINE
  5
1755
330
16AD
100
AcDbEntity
  8
0
 62
     0
100
AcDbLine
 10
7.759397114136447
 20
10.22500005353236
 30
0.0
 11
6.479277879898205
 21
11.50511928777061
 31
0.0
  0
LINE
  5
1756
330
16AD
100
AcDbEntity
  8
0
 62
     0
100
AcDbLine
 10
13.69610655430824
 20
4.288290613360572
 30
0.0
 11
13.00939711413642
 21
4.975000053532397
 31
0.0
  0
LINE
  5
1757
330
16AD
100
AcDbEntity
  8
0
 62
     0
100
AcDbLine
 10
11.7711065543082
 20
5.764277807307138
 30
0.0
 11
10.37110655430822
 21
7.164277807307115
 31
0.0
  0
LINE
  5
1758
330
16AD
100
AcDbEntity
  8
0
 62
     0
100
AcDbLine
 10
7.310384308082973
 20
10.22500005353234
 30
0.0
 11
6.197154549974584
 21
11.33822981164072
 31
0.0
  0
LINE
  5
1759
330
16AD
100
AcDbEntity
  8
0
 62
     0
100
AcDbLine
 10
13.69610655430821
 20
3.839277807307098
 30
0.0
 11
12.56038430808297
 21
4.97500005353234
 31
0.0
  0
LINE
  5
175A
330
16AD
100
AcDbEntity
  8
0
 62
     0
100
AcDbLine
 10
7.055237894275677
 20
10.03113366128624
 30
0.0
 11
5.968108143854209
 21
11.11826341170771
 31
0.0
  0
LINE
  5
175B
330
16AD
100
AcDbEntity
  8
0
 62
     0
100
AcDbLine
 10
13.50224016206203
 20
3.584131393499887
 30
0.0
 11
10.37110655430822
 21
6.715265001253698
 31
0.0
  0
LINE
  5
175C
330
16AD
100
AcDbEntity
  8
0
 62
     0
100
AcDbLine
 10
7.046106554308209
 20
9.59125219520024
 30
0.0
 11
5.791367542619667
 21
10.84599120688878
 31
0.0
  0
LINE
  5
175D
330
16AD
100
AcDbEntity
  8
0
 62
     0
100
AcDbLine
 10
13.06235869597608
 20
3.575000053532363
 30
0.0
 11
10.37110655430822
 21
6.266252195200223
 31
0.0
  0
LINE
  5
175E
330
16AD
100
AcDbEntity
  8
0
 62
     0
100
AcDbLine
 10
7.077174408375924
 20
9.111171535079023
 30
0.0
 11
5.675927491472805
 21
10.51241845198217
 31
0.0
  0
LINE
  5
175F
330
16AD
100
AcDbEntity
  8
0
 62
     0
100
AcDbLine
 10
12.61334588992258
 20
3.575000053532392
 30
0.0
 11
10.37110655430819
 21
5.817239389146749
 31
0.0
  0
LINE
  5
1760
330
16AD
100
AcDbEntity
  8
0
 62
     0
100
AcDbLine
 10
9.22329459991954
 20
6.516038537481989
 30
0.0
 11
5.646106554308232
 21
10.09322658309329
 31
0.0
  0
LINE
  5
1761
330
16AD
100
AcDbEntity
  8
0
 62
     0
100
AcDbLine
 10
12.13769704034081
 20
3.601636097060719
 30
0.0
 11
10.39774259783652
 21
5.341590539565004
 31
0.0
  0
LINE
  5
1762
330
16AD
100
AcDbEntity
  8
0
 62
     0
100
AcDbLine
 10
9.31924185696215
 20
5.971078474385933
 30
0.0
 11
5.646106554308175
 21
9.644213777039908
 31
0.0
  0
LINE
  5
1763
330
16AD
100
AcDbEntity
  8
0
 62
     0
100
AcDbLine
 10
11.45079308404001
 20
3.839527247308041
 30
0.0
 11
10.63563374808381
 21
4.654686583264265
 31
0.0
  0
LINE
  5
1764
330
16AD
100
AcDbEntity
  8
0
 62
     0
100
AcDbLine
 10
9.321106554308215
 20
5.520200970986394
 30
0.0
 11
5.649888778019374
 21
9.191418747275207
 31
0.0
  0
LINE
  5
1765
330
16AD
100
AcDbEntity
  8
0
 62
     0
100
AcDbLine
 10
9.321106554308187
 20
5.071188164932948
 30
0.0
 11
5.761534157181301
 21
8.630760562059805
 31
0.0
  0
LINE
  5
1766
330
16AD
100
AcDbEntity
  8
0
 62
     0
100
AcDbLine
 10
9.284846556242229
 20
4.658435356945489
 30
0.0
 11
7.903150734432699
 21
6.040131178755018
 31
0.0
  0
LINE
  5
1767
330
16AD
100
AcDbEntity
  8
0
 62
     0
100
AcDbLine
 10
9.163877586727807
 20
4.330391520406436
 30
0.0
 11
7.921106554308181
 21
5.573162552826062
 31
0.0
  0
LINE
  5
1768
330
16AD
100
AcDbEntity
  8
0
 62
     0
100
AcDbLine
 10
8.982817963036922
 20
4.062438338043847
 30
0.0
 11
7.903157038157843
 21
5.142099262922926
 31
0.0
  0
LINE
  5
1769
330
16AD
100
AcDbEntity
  8
0
 62
     0
100
AcDbLine
 10
8.749704776903485
 20
3.846538718123838
 30
0.0
 11
7.621243441494925
 21
4.975000053532426
 31
0.0
  0
LINE
  5
176A
330
16AD
100
AcDbEntity
  8
0
 62
     0
100
AcDbLine
 10
8.463072553037079
 20
3.684158135936797
 30
0.0
 11
7.172230635441451
 21
4.975000053532397
 31
0.0
  0
LINE
  5
176B
330
16AD
100
AcDbEntity
  8
0
 62
     0
100
AcDbLine
 10
8.11036625849411
 20
3.587851624426292
 30
0.0
 11
6.723217829388005
 21
4.975000053532397
 31
0.0
  0
LINE
  5
176C
330
16AD
100
AcDbEntity
  8
0
 62
     0
100
AcDbLine
 10
7.674205023334593
 20
3.575000053532306
 30
0.0
 11
6.274205023334531
 21
4.975000053532397
 31
0.0
  0
LINE
  5
176D
330
16AD
100
AcDbEntity
  8
0
 62
     0
100
AcDbLine
 10
7.225192217281119
 20
3.575000053532363
 30
0.0
 11
5.948530269872179
 21
4.851662000941331
 31
0.0
  0
LINE
  5
176E
330
16AD
100
AcDbEntity
  8
0
 62
     0
100
AcDbLine
 10
6.776179411227673
 20
3.575000053532363
 30
0.0
 11
5.908606554308192
 21
4.442572910451843
 31
0.0
  0
LINE
  5
176F
330
16AD
100
AcDbEntity
  8
0
 62
     0
100
AcDbLine
 10
6.327166605174198
 20
3.575000053532363
 30
0.0
 11
5.908606554308192
 21
3.993560104398369
 31
0.0
  0
LINE
  5
1770
330
16AD
100
AcDbEntity
  8
0
 62
     0
100
AcDbLine
 10
34.31695019664167
 20
3.581565942091145
 30
0.0
 11
34.51454066574956
 21
3.779156411199039
 31
0.0
  0
LINE
  5
1771
330
16AD
100
AcDbEntity
  8
0
 62
     0
100
AcDbLine
 10
33.8613715020295
 20
3.575000053532363
 30
0.0
 11
34.52110655430828
 21
4.234735105811182
 31
0.0
  0
LINE
  5
1772
330
16AD
100
AcDbEntity
  8
0
 62
     0
100
AcDbLine
 10
33.41235869597602
 20
3.575000053532392
 30
0.0
 11
34.52110655430828
 21
4.683747911864628
 31
0.0
  0
LINE
  5
1773
330
16AD
100
AcDbEntity
  8
0
 62
     0
100
AcDbLine
 10
33.13670533593412
 20
3.748359499543937
 30
0.0
 11
34.52110655430826
 21
5.132760717918102
 31
0.0
  0
LINE
  5
1774
330
16AD
100
AcDbEntity
  8
0
 62
     0
100
AcDbLine
 10
33.12110655430823
 20
4.181773523971514
 30
0.0
 11
34.52110655430826
 21
5.58177352397152
 31
0.0
  0
LINE
  5
1775
330
16AD
100
AcDbEntity
  8
0
 62
     0
100
AcDbLine
 10
33.12110655430825
 20
4.63078633002496
 30
0.0
 11
34.52110655430826
 21
6.030786330024994
 31
0.0
  0
LINE
  5
1776
330
16AD
100
AcDbEntity
  8
0
 62
     0
100
AcDbLine
 10
33.12110655430823
 20
5.079799136078435
 30
0.0
 11
34.52110655430826
 21
6.479799136078469
 31
0.0
  0
LINE
  5
1777
330
16AD
100
AcDbEntity
  8
0
 62
     0
100
AcDbLine
 10
33.12110655430823
 20
5.528811942131881
 30
0.0
 11
34.52110655430826
 21
6.928811942131915
 31
0.0
  0
LINE
  5
1778
330
16AD
100
AcDbEntity
  8
0
 62
     0
100
AcDbLine
 10
31.33438898534086
 20
3.742094373164519
 30
0.0
 11
31.90401223467614
 21
4.311717622499827
 31
0.0
  0
LINE
  5
1779
330
16AD
100
AcDbEntity
  8
0
 62
     0
100
AcDbLine
 10
33.12110655430823
 20
5.977824748185327
 30
0.0
 11
34.52110655430826
 21
7.377824748185361
 31
0.0
  0
LINE
  5
177A
330
16AD
100
AcDbEntity
  8
0
 62
     0
100
AcDbLine
 10
30.71910490207946
 20
3.575823095956565
 30
0.0
 11
32.07028351188412
 21
4.927001705761199
 31
0.0
  0
LINE
  5
177B
330
16AD
100
AcDbEntity
  8
0
 62
     0
100
AcDbLine
 10
33.12110655430823
 20
6.426837554238801
 30
0.0
 11
34.52110655430826
 21
7.826837554238807
 31
0.0
  0
LINE
  5
177C
330
16AD
100
AcDbEntity
  8
0
 62
     0
100
AcDbLine
 10
30.26926905360176
 20
3.575000053532335
 30
0.0
 11
32.07110655430827
 21
5.376837554238818
 31
0.0
  0
LINE
  5
177D
330
16AD
100
AcDbEntity
  8
0
 62
     0
100
AcDbLine
 10
33.12110655430823
 20
6.875850360292247
 30
0.0
 11
34.52110655430823
 21
8.275850360292281
 31
0.0
  0
LINE
  5
177E
330
16AD
100
AcDbEntity
  8
0
 62
     0
100
AcDbLine
 10
29.82025624754831
 20
3.575000053532335
 30
0.0
 11
32.07110655430824
 21
5.825850360292292
 31
0.0
  0
LINE
  5
177F
330
16AD
100
AcDbEntity
  8
0
 62
     0
100
AcDbLine
 10
33.12110655430823
 20
7.324863166345693
 30
0.0
 11
34.52110655430826
 21
8.724863166345727
 31
0.0
  0
LINE
  5
1780
330
16AD
100
AcDbEntity
  8
0
 62
     0
100
AcDbLine
 10
29.3712434414949
 20
3.575000053532363
 30
0.0
 11
32.07110655430827
 21
6.274863166345738
 31
0.0
  0
LINE
  5
1781
330
16AD
100
AcDbEntity
  8
0
 62
     0
100
AcDbLine
 10
30.61881095326771
 20
5.271580371358652
 30
0.0
 11
32.07110655430827
 21
6.723875972399184
 31
0.0
  0
LINE
  5
1782
330
16AD
100
AcDbEntity
  8
0
 62
     0
100
AcDbLine
 10
33.12110655430823
 20
7.773875972399139
 30
0.0
 11
34.52110655430826
 21
9.173875972399173
 31
0.0
  0
LINE
  5
1783
330
16AD
100
AcDbEntity
  8
0
 62
     0
100
AcDbLine
 10
28.92223063544139
 20
3.575000053532335
 30
0.0
 11
30.37452623648195
 21
5.027295654572867
 31
0.0
  0
LINE
  5
1784
330
16AD
100
AcDbEntity
  8
0
 62
     0
100
AcDbLine
 10
30.67110655430818
 20
5.772888778452596
 30
0.0
 11
32.07110655430824
 21
7.172888778452659
 31
0.0
  0
LINE
  5
1785
330
16AD
100
AcDbEntity
  8
0
 62
     0
100
AcDbLine
 10
33.12110655430819
 20
8.222888778452613
 30
0.0
 11
34.52110655430823
 21
9.622888778452647
 31
0.0
  0
LINE
  5
1786
330
16AD
100
AcDbEntity
  8
0
 62
     0
100
AcDbLine
 10
28.52919270507655
 20
3.63097492922094
 30
0.0
 11
29.87321782938798
 21
4.975000053532369
 31
0.0
  0
LINE
  5
1787
330
16AD
100
AcDbEntity
  8
0
 62
     0
100
AcDbLine
 10
30.67110655430818
 20
6.221901584506042
 30
0.0
 11
32.07110655430824
 21
7.621901584506105
 31
0.0
  0
LINE
  5
1788
330
16AD
100
AcDbEntity
  8
0
 62
     0
100
AcDbLine
 10
33.12110655430819
 20
8.671901584506088
 30
0.0
 11
34.52110655430823
 21
10.07190158450609
 31
0.0
  0
LINE
  5
1789
330
16AD
100
AcDbEntity
  8
0
 62
     0
100
AcDbLine
 10
28.21519927147147
 20
3.765994301669365
 30
0.0
 11
29.42464391615669
 21
4.975438946354586
 31
0.0
  0
LINE
  5
178A
330
16AD
100
AcDbEntity
  8
0
 62
     0
100
AcDbLine
 10
30.67110655430823
 20
6.670914390559516
 30
0.0
 11
32.07110655430824
 21
8.070914390559551
 31
0.0
  0
LINE
  5
178B
330
16AD
100
AcDbEntity
  8
0
 62
     0
100
AcDbLine
 10
33.12110655430823
 20
9.120914390559505
 30
0.0
 11
34.52110655430823
 21
10.52091439055953
 31
0.0
  0
LINE
  5
178C
330
16AD
100
AcDbEntity
  8
0
 62
     0
100
AcDbLine
 10
27.95856933078894
 20
3.958377167040225
 30
0.0
 11
29.10290462180034
 21
5.102712458051655
 31
0.0
  0
LINE
  5
178D
330
16AD
100
AcDbEntity
  8
0
 62
     0
100
AcDbLine
 10
30.67110655430821
 20
7.119927196612991
 30
0.0
 11
32.07110655430824
 21
8.519927196613025
 31
0.0
  0
LINE
  5
178E
330
16AD
100
AcDbEntity
  8
0
 62
     0
100
AcDbLine
 10
33.12110655430819
 20
9.569927196612979
 30
0.0
 11
34.52110655430823
 21
10.96992719661301
 31
0.0
  0
LINE
  5
178F
330
16AD
100
AcDbEntity
  8
0
 62
     0
100
AcDbLine
 10
27.75358724317638
 20
4.202407885481136
 30
0.0
 11
28.93428548259564
 21
5.383106124900422
 31
0.0
  0
LINE
  5
1790
330
16AD
100
AcDbEntity
  8
0
 62
     0
100
AcDbLine
 10
30.67110655430821
 20
7.568940002666437
 30
0.0
 11
32.07110655430827
 21
8.968940002666528
 31
0.0
  0
LINE
  5
1791
330
16AD
100
AcDbEntity
  8
0
 62
     0
100
AcDbLine
 10
33.12110655430819
 20
10.01894000266642
 30
0.0
 11
34.516031977533
 21
11.41386542589126
 31
0.0
  0
LINE
  5
1792
330
16AD
100
AcDbEntity
  8
0
 62
     0
100
AcDbLine
 10
27.60362480395937
 20
4.501458252317632
 30
0.0
 11
28.92110655430818
 21
5.818940002666437
 31
0.0
  0
LINE
  5
1793
330
16AD
100
AcDbEntity
  8
0
 62
     0
100
AcDbLine
 10
30.67110655430821
 20
8.017952808719883
 30
0.0
 11
32.0711065543083
 21
9.417952808719945
 31
0.0
  0
LINE
  5
1794
330
16AD
100
AcDbEntity
  8
0
 62
     0
100
AcDbLine
 10
33.12110655430819
 20
10.46795280871987
 30
0.0
 11
34.27747480499326
 21
11.62432105940493
 31
0.0
  0
LINE
  5
1795
330
16AD
100
AcDbEntity
  8
0
 62
     0
100
AcDbLine
 10
27.52491803648115
 20
4.871764290892826
 30
0.0
 11
28.92110655430821
 21
6.267952808719883
 31
0.0
  0
LINE
  5
1796
330
16AD
100
AcDbEntity
  8
0
 62
     0
100
AcDbLine
 10
30.67110655430821
 20
8.466965614773357
 30
0.0
 11
32.07110655430827
 21
9.86696561477342
 31
0.0
  0
LINE
  5
1797
330
16AD
100
AcDbEntity
  8
0
 62
     0
100
AcDbLine
 10
33.12110655430823
 20
10.91696561477337
 30
0.0
 11
33.82914099306722
 21
11.62500005353237
 31
0.0
  0
LINE
  5
1798
330
16AD
100
AcDbEntity
  8
0
 62
     0
100
AcDbLine
 10
27.52110655430826
 20
5.31696561477338
 30
0.0
 11
28.92110655430824
 21
6.716965614773386
 31
0.0
  0
LINE
  5
1799
330
16AD
100
AcDbEntity
  8
0
 62
     0
100
AcDbLine
 10
30.67110655430821
 20
8.915978420826803
 30
0.0
 11
32.07110655430827
 21
10.31597842082686
 31
0.0
  0
LINE
  5
179A
330
16AD
100
AcDbEntity
  8
0
 62
     0
100
AcDbLine
 10
27.52110655430823
 20
5.765978420826854
 30
0.0
 11
28.92110655430821
 21
7.165978420826832
 31
0.0
  0
LINE
  5
179B
330
16AD
100
AcDbEntity
  8
0
 62
     0
100
AcDbLine
 10
33.12112991168195
 20
11.36600177820056
 30
0.0
 11
33.38010482964008
 21
11.62497669615868
 31
0.0
  0
LINE
  5
179C
330
16AD
100
AcDbEntity
  8
0
 62
     0
100
AcDbLine
 10
25.36032873895223
 20
3.605200605470827
 30
0.0
 11
26.44090600236981
 21
4.685777868888436
 31
0.0
  0
LINE
  5
179D
330
16AD
100
AcDbEntity
  8
0
 62
     0
100
AcDbLine
 10
27.52110655430823
 20
6.2149912268803
 30
0.0
 11
28.92110655430821
 21
7.614991226880306
 31
0.0
  0
LINE
  5
179E
330
16AD
100
AcDbEntity
  8
0
 62
     0
100
AcDbLine
 10
30.67110655430823
 20
9.364991226880306
 30
0.0
 11
32.07110655430824
 21
10.76499122688034
 31
0.0
  0
LINE
  5
179F
330
16AD
100
AcDbEntity
  8
0
 62
     0
100
AcDbLine
 10
24.88111538096032
 20
3.57500005353242
 30
0.0
 11
26.47110655430819
 21
5.16499122688026
 31
0.0
  0
LINE
  5
17A0
330
16AD
100
AcDbEntity
  8
0
 62
     0
100
AcDbLine
 10
27.52110655430823
 20
6.664004032933746
 30
0.0
 11
28.92110655430824
 21
8.064004032933723
 31
0.0
  0
LINE
  5
17A1
330
16AD
100
AcDbEntity
  8
0
 62
     0
100
AcDbLine
 10
30.67110655430823
 20
9.814004032933752
 30
0.0
 11
32.07110655430827
 21
11.21400403293378
 31
0.0
  0
LINE
  5
17A2
330
16AD
100
AcDbEntity
  8
0
 62
     0
100
AcDbLine
 10
24.43210257490685
 20
3.575000053532363
 30
0.0
 11
26.47110655430825
 21
5.614004032933735
 31
0.0
  0
LINE
  5
17A3
330
16AD
100
AcDbEntity
  8
0
 62
     0
100
AcDbLine
 10
27.52110655430823
 20
7.113016838987221
 30
0.0
 11
28.92110655430821
 21
8.513016838987198
 31
0.0
  0
LINE
  5
17A4
330
16AD
100
AcDbEntity
  8
0
 62
     0
100
AcDbLine
 10
30.67110655430823
 20
10.26301683898719
 30
0.0
 11
31.97423782689119
 21
11.56614811157018
 31
0.0
  0
LINE
  5
17A5
330
16AD
100
AcDbEntity
  8
0
 62
     0
100
AcDbLine
 10
23.9830897688534
 20
3.575000053532392
 30
0.0
 11
26.46394725410175
 21
6.055857538780742
 31
0.0
  0
LINE
  5
17A6
330
16AD
100
AcDbEntity
  8
0
 62
     0
100
AcDbLine
 10
27.52110655430823
 20
7.562029645040666
 30
0.0
 11
28.92110655430821
 21
8.962029645040672
 31
0.0
  0
LINE
  5
17A7
330
16AD
100
AcDbEntity
  8
0
 62
     0
100
AcDbLine
 10
30.67110655430821
 20
10.71202964504067
 30
0.0
 11
31.58407696279994
 21
11.6250000535324
 31
0.0
  0
LINE
  5
17A8
330
16AD
100
AcDbEntity
  8
0
 62
     0
100
AcDbLine
 10
23.53407696279993
 20
3.575000053532392
 30
0.0
 11
26.39649106878738
 21
6.437414159519818
 31
0.0
  0
LINE
  5
17A9
330
16AD
100
AcDbEntity
  8
0
 62
     0
100
AcDbLine
 10
27.52110655430823
 20
8.011042451094112
 30
0.0
 11
28.92110655430821
 21
9.41104245109409
 31
0.0
  0
LINE
  5
17AA
330
16AD
100
AcDbEntity
  8
0
 62
     0
100
AcDbLine
 10
25.07110655430824
 20
5.561042451094124
 30
0.0
 11
26.27619734032811
 21
6.766133237113962
 31
0.0
  0
LINE
  5
17AB
330
16AD
100
AcDbEntity
  8
0
 62
     0
100
AcDbLine
 10
30.67110655430823
 20
11.16104245109411
 30
0.0
 11
31.13506415674652
 21
11.6250000535324
 31
0.0
  0
LINE
  5
17AC
330
16AD
100
AcDbEntity
  8
0
 62
     0
100
AcDbLine
 10
23.14919183331204
 20
3.639127730097925
 30
0.0
 11
24.48506415674648
 21
4.975000053532369
 31
0.0
  0
LINE
  5
17AD
330
16AD
100
AcDbEntity
  8
0
 62
     0
100
AcDbLine
 10
25.06117126674459
 20
6.00011996958392
 30
0.0
 11
26.11444768789783
 21
7.053396390737162
 31
0.0
  0
LINE
  5
17AE
330
16AD
100
AcDbEntity
  8
0
 62
     0
100
AcDbLine
 10
27.52110655430823
 20
8.460055257147558
 30
0.0
 11
28.92110655430824
 21
9.860055257147593
 31
0.0
  0
LINE
  5
17AF
330
16AD
100
AcDbEntity
  8
0
 62
     0
100
AcDbLine
 10
23.05860655430825
 20
3.997555257147581
 30
0.0
 11
24.03605135069301
 21
4.975000053532369
 31
0.0
  0
LINE
  5
17B0
330
16AD
100
AcDbEntity
  8
0
 62
     0
100
AcDbLine
 10
24.92397884817515
 20
6.311940357067982
 30
0.0
 11
25.91651212893393
 21
7.30447363782676
 31
0.0
  0
LINE
  5
17B1
330
16AD
100
AcDbEntity
  8
0
 62
     0
100
AcDbLine
 10
27.5211065543082
 20
8.909068063201033
 30
0.0
 11
28.92110655430824
 21
10.30906806320106
 31
0.0
  0
LINE
  5
17B2
330
16AD
100
AcDbEntity
  8
0
 62
     0
100
AcDbLine
 10
23.05860655430819
 20
4.446568063200999
 30
0.0
 11
23.58703854463957
 21
4.975000053532397
 31
0.0
  0
LINE
  5
17B3
330
16AD
100
AcDbEntity
  8
0
 62
     0
100
AcDbLine
 10
27.52110655430823
 20
9.358080869254479
 30
0.0
 11
28.92110655430826
 21
10.75808086925448
 31
0.0
  0
LINE
  5
17B4
330
16AD
100
AcDbEntity
  8
0
 62
     0
100
AcDbLine
 10
24.70334139961662
 20
6.540315714562837
 30
0.0
 11
25.6932908932778
 21
7.530265208224051
 31
0.0
  0
LINE
  5
17B5
330
16AD
100
AcDbEntity
  8
0
 62
     0
100
AcDbLine
 10
24.47883499658988
 20
6.764822117589574
 30
0.0
 11
25.46878449025104
 21
7.754771611250731
 31
0.0
  0
LINE
  5
17B6
330
16AD
100
AcDbEntity
  8
0
 62
     0
100
AcDbLine
 10
27.5211065543082
 20
9.807093675307925
 30
0.0
 11
28.92110655430824
 21
11.20709367530795
 31
0.0
  0
LINE
  5
17B7
330
16AD
100
AcDbEntity
  8
0
 62
     0
100
AcDbLine
 10
21.28901293253264
 20
3.575000053532363
 30
0.0
 11
21.74610655430822
 21
4.032093675307919
 31
0.0
  0
LINE
  5
17B8
330
16AD
100
AcDbEntity
  8
0
 62
     0
100
AcDbLine
 10
24.25432859356314
 20
6.989328520616311
 30
0.0
 11
25.2442780872243
 21
7.979278014277468
 31
0.0
  0
LINE
  5
17B9
330
16AD
100
AcDbEntity
  8
0
 62
     0
100
AcDbLine
 10
27.5211065543082
 20
10.2561064813614
 30
0.0
 11
28.8280161002589
 21
11.56301602731207
 31
0.0
  0
LINE
  5
17BA
330
16AD
100
AcDbEntity
  8
0
 62
     0
100
AcDbLine
 10
20.84000012647917
 20
3.575000053532363
 30
0.0
 11
21.74610655430825
 21
4.481106481361422
 31
0.0
  0
LINE
  5
17BB
330
16AD
100
AcDbEntity
  8
0
 62
     0
100
AcDbLine
 10
24.0298221905364
 20
7.213834923643048
 30
0.0
 11
25.01977168419756
 21
8.203784417304206
 31
0.0
  0
LINE
  5
17BC
330
16AD
100
AcDbEntity
  8
0
 62
     0
100
AcDbLine
 10
27.5211065543082
 20
10.70511928741484
 30
0.0
 11
28.44098732042576
 21
11.62500005353243
 31
0.0
  0
LINE
  5
17BD
330
16AD
100
AcDbEntity
  8
0
 62
     0
100
AcDbLine
 10
20.44679288935671
 20
3.630805622463356
 30
0.0
 11
21.74610655430822
 21
4.930119287414896
 31
0.0
  0
LINE
  5
17BE
330
16AD
100
AcDbEntity
  8
0
 62
     0
100
AcDbLine
 10
23.80531578750969
 20
7.438341326669757
 30
0.0
 11
24.79526528117085
 21
8.428290820330914
 31
0.0
  0
LINE
  5
17BF
330
16AD
100
AcDbEntity
  8
0
 62
     0
100
AcDbLine
 10
27.5211065543082
 20
11.15413209346829
 30
0.0
 11
27.99197451437234
 21
11.6250000535324
 31
0.0
  0
LINE
  5
17C0
330
16AD
100
AcDbEntity
  8
0
 62
     0
100
AcDbLine
 10
20.34610655430824
 20
3.979132093468336
 30
0.0
 11
21.74610655430825
 21
5.379132093468314
 31
0.0
  0
LINE
  5
17C1
330
16AD
100
AcDbEntity
  8
0
 62
     0
100
AcDbLine
 10
23.58080938448296
 20
7.662847729696494
 30
0.0
 11
24.57075887814411
 21
8.652797223357652
 31
0.0
  0
LINE
  5
17C2
330
16AD
100
AcDbEntity
  8
0
 62
     0
100
AcDbLine
 10
20.34610655430824
 20
4.428144899521811
 30
0.0
 11
21.74610655430822
 21
5.828144899521788
 31
0.0
  0
LINE
  5
17C3
330
16AD
100
AcDbEntity
  8
0
 62
     0
100
AcDbLine
 10
23.35731743396229
 20
7.888368585229329
 30
0.0
 11
24.34930420065331
 21
8.880355351920314
 31
0.0
  0
LINE
  5
17C4
330
16AD
100
AcDbEntity
  8
0
 62
     0
100
AcDbLine
 10
20.34610655430824
 20
4.877157705575257
 30
0.0
 11
21.74610655430822
 21
6.277157705575262
 31
0.0
  0
LINE
  5
17C5
330
16AD
100
AcDbEntity
  8
0
 62
     0
100
AcDbLine
 10
25.69394890226539
 20
10.22500005353239
 30
0.0
 11
26.20860655430826
 21
10.73965770557526
 31
0.0
  0
LINE
  5
17C6
330
16AD
100
AcDbEntity
  8
0
 62
     0
100
AcDbLine
 10
19.09977844195313
 20
3.630829593220141
 30
0.0
 11
19.14460462268064
 21
3.675655773947681
 31
0.0
  0
LINE
  5
17C7
330
16AD
100
AcDbEntity
  8
0
 62
     0
100
AcDbLine
 10
23.1583163445513
 20
8.138380301871762
 30
0.0
 11
24.20813348326061
 21
9.188197440581063
 31
0.0
  0
LINE
  5
17C8
330
16AD
100
AcDbEntity
  8
0
 62
     0
100
AcDbLine
 10
20.34610655430824
 20
5.326170511628703
 30
0.0
 11
21.74610655430825
 21
6.72617051162868
 31
0.0
  0
LINE
  5
17C9
330
16AD
100
AcDbEntity
  8
0
 62
     0
100
AcDbLine
 10
25.24493609621194
 20
10.22500005353239
 30
0.0
 11
26.20860655430826
 21
11.18867051162871
 31
0.0
  0
LINE
  5
17CA
330
16AD
100
AcDbEntity
  8
0
 62
     0
100
AcDbLine
 10
18.59493609621191
 20
3.575000053532363
 30
0.0
 11
19.12782564436517
 21
4.107889601685627
 31
0.0
  0
LINE
  5
17CB
330
16AD
100
AcDbEntity
  8
0
 62
     0
100
AcDbLine
 10
22.99539921235296
 20
8.424475975726892
 30
0.0
 11
24.19610655430827
 21
9.625183317682171
 31
0.0
  0
LINE
  5
17CC
330
16AD
100
AcDbEntity
  8
0
 62
     0
100
AcDbLine
 10
20.34610655430824
 20
5.775183317682149
 30
0.0
 11
21.74610655430822
 21
7.175183317682154
 31
0.0
  0
LINE
  5
17CD
330
16AD
100
AcDbEntity
  8
0
 62
     0
100
AcDbLine
 10
24.79592329015849
 20
10.22500005353239
 30
0.0
 11
26.1252720884093
 21
11.55434885178323
 31
0.0
  0
LINE
  5
17CE
330
16AD
100
AcDbEntity
  8
0
 62
     0
100
AcDbLine
 10
18.14592329015846
 20
3.575000053532363
 30
0.0
 11
19.02006257091233
 21
4.449139334286257
 31
0.0
  0
LINE
  5
17CF
330
16AD
100
AcDbEntity
  8
0
 62
     0
100
AcDbLine
 10
20.34610655430822
 20
6.224196123735623
 30
0.0
 11
21.74610655430822
 21
7.6241961237356
 31
0.0
  0
LINE
  5
17D0
330
16AD
100
AcDbEntity
  8
0
 62
     0
100
AcDbLine
 10
22.87370818101791
 20
8.751797750445319
 30
0.0
 11
25.746910484105
 21
11.6250000535324
 31
0.0
  0
LINE
  5
17D1
330
16AD
100
AcDbEntity
  8
0
 62
     0
100
AcDbLine
 10
17.84991613483092
 20
3.728005704258322
 30
0.0
 11
18.91229949745948
 21
4.790389066886888
 31
0.0
  0
LINE
  5
17D2
330
16AD
100
AcDbEntity
  8
0
 62
     0
100
AcDbLine
 10
20.34610655430822
 20
6.673208929789097
 30
0.0
 11
21.74610655430819
 21
8.073208929789075
 31
0.0
  0
LINE
  5
17D3
330
16AD
100
AcDbEntity
  8
0
 62
     0
100
AcDbLine
 10
22.80435475147507
 20
9.13145712695595
 30
0.0
 11
25.29789767805155
 21
11.6250000535324
 31
0.0
  0
LINE
  5
17D4
330
16AD
100
AcDbEntity
  8
0
 62
     0
100
AcDbLine
 10
17.74053642400662
 20
4.067638799487497
 30
0.0
 11
18.80453642400661
 21
5.13163879948749
 31
0.0
  0
LINE
  5
17D5
330
16AD
100
AcDbEntity
  8
0
 62
     0
100
AcDbLine
 10
20.34610655430824
 20
7.122221735842515
 30
0.0
 11
21.74610655430822
 21
8.522221735842521
 31
0.0
  0
LINE
  5
17D6
330
16AD
100
AcDbEntity
  8
0
 62
     0
100
AcDbLine
 10
22.79610655430823
 20
9.572221735842504
 30
0.0
 11
24.8488848719981
 21
11.6250000535324
 31
0.0
  0
LINE
  5
17D7
330
16AD
100
AcDbEntity
  8
0
 62
     0
100
AcDbLine
 10
17.6327733505538
 20
4.408888532088099
 30
0.0
 11
18.69677335055385
 21
5.47288853208812
 31
0.0
  0
LINE
  5
17D8
330
16AD
100
AcDbEntity
  8
0
 62
     0
100
AcDbLine
 10
20.34610655430822
 20
7.571234541895989
 30
0.0
 11
21.74610655430822
 21
8.971234541895967
 31
0.0
  0
LINE
  5
17D9
330
16AD
100
AcDbEntity
  8
0
 62
     0
100
AcDbLine
 10
22.79610655430826
 20
10.021234541896
 30
0.0
 11
24.39987206594466
 21
11.6250000535324
 31
0.0
  0
LINE
  5
17DA
330
16AD
100
AcDbEntity
  8
0
 62
     0
100
AcDbLine
 10
17.52501027710093
 20
4.7501382646887
 30
0.0
 11
18.58901027710101
 21
5.81413826468875
 31
0.0
  0
LINE
  5
17DB
330
16AD
100
AcDbEntity
  8
0
 62
     0
100
AcDbLine
 10
20.34610655430822
 20
8.020247347949435
 30
0.0
 11
21.74610655430825
 21
9.420247347949469
 31
0.0
  0
LINE
  5
17DC
330
16AD
100
AcDbEntity
  8
0
 62
     0
100
AcDbLine
 10
17.41724720364811
 20
5.091387997289359
 30
0.0
 11
18.48124720364816
 21
6.155387997289381
 31
0.0
  0
LINE
  5
17DD
330
16AD
100
AcDbEntity
  8
0
 62
     0
100
AcDbLine
 10
22.82276488936884
 20
10.49690568301008
 30
0.0
 11
23.9242009248305
 21
11.59834171847174
 31
0.0
  0
LINE
  5
17DE
330
16AD
100
AcDbEntity
  8
0
 62
     0
100
AcDbLine
 10
15.90085925989112
 20
3.575000053532363
 30
0.0
 11
16.32110655430821
 21
3.995247347949458
 31
0.0
  0
LINE
  5
17DF
330
16AD
100
AcDbEntity
  8
0
 62
     0
100
AcDbLine
 10
17.30948413019532
 20
5.432637729889961
 30
0.0
 11
18.37348413019529
 21
6.496637729889954
 31
0.0
  0
LINE
  5
17E0
330
16AD
100
AcDbEntity
  8
0
 62
     0
100
AcDbLine
 10
20.34610655430822
 20
8.469260154002881
 30
0.0
 11
21.74610655430825
 21
9.869260154002915
 31
0.0
  0
LINE
  5
17E1
330
16AD
100
AcDbEntity
  8
0
 62
     0
100
AcDbLine
 10
15.4518464538377
 20
3.575000053532335
 30
0.0
 11
16.32110655430824
 21
4.444260154002904
 31
0.0
  0
LINE
  5
17E2
330
16AD
100
AcDbEntity
  8
0
 62
     0
100
AcDbLine
 10
17.20172105674248
 20
5.773887462490591
 30
0.0
 11
18.2657210567425
 21
6.837887462490641
 31
0.0
  0
LINE
  5
17E3
330
16AD
100
AcDbEntity
  8
0
 62
     0
100
AcDbLine
 10
20.34610655430822
 20
8.918272960056356
 30
0.0
 11
21.74610655430825
 21
10.31827296005636
 31
0.0
  0
LINE
  5
17E4
330
16AD
100
AcDbEntity
  8
0
 62
     0
100
AcDbLine
 10
15.04340852160987
 20
3.615574927358011
 30
0.0
 11
16.32110655430824
 21
4.89327296005635
 31
0.0
  0
LINE
  5
17E5
330
16AD
100
AcDbEntity
  8
0
 62
     0
100
AcDbLine
 10
17.09395798328964
 20
6.115137195091222
 30
0.0
 11
18.15795798328969
 21
7.1791371950913
 31
0.0
  0
LINE
  5
17E6
330
16AD
100
AcDbEntity
  8
0
 62
     0
100
AcDbLine
 10
20.34610655430822
 20
9.367285766109802
 30
0.0
 11
21.74610655430822
 21
10.76728576610983
 31
0.0
  0
LINE
  5
17E7
330
16AD
100
AcDbEntity
  8
0
 62
     0
100
AcDbLine
 10
14.92110655430823
 20
3.942285766109819
 30
0.0
 11
16.32110655430827
 21
5.342285766109853
 31
0.0
  0
LINE
  5
17E8
330
16AD
100
AcDbEntity
  8
0
 62
     0
100
AcDbLine
 10
16.98619490983682
 20
6.456386927691823
 30
0.0
 11
18.05019490983684
 21
7.520386927691873
 31
0.0
  0
LINE
  5
17E9
330
16AD
100
AcDbEntity
  8
0
 62
     0
100
AcDbLine
 10
20.34610655430822
 20
9.816298572163248
 30
0.0
 11
21.74610655430825
 21
11.21629857216328
 31
0.0
  0
LINE
  5
17EA
330
16AD
100
AcDbEntity
  8
0
 62
     0
100
AcDbLine
 10
14.92110655430823
 20
4.391298572163265
 30
0.0
 11
16.32110655430827
 21
5.791298572163299
 31
0.0
  0
LINE
  5
17EB
330
16AD
100
AcDbEntity
  8
0
 62
     0
100
AcDbLine
 10
16.86879551635095
 20
6.788000340259458
 30
0.0
 11
18.1839425503164
 21
8.103147374224903
 31
0.0
  0
LINE
  5
17EC
330
16AD
100
AcDbEntity
  8
0
 62
     0
100
AcDbLine
 10
20.34610655430824
 20
10.26531137821675
 30
0.0
 11
21.64796884305903
 21
11.5671736669675
 31
0.0
  0
LINE
  5
17ED
330
16AD
100
AcDbEntity
  8
0
 62
     0
100
AcDbLine
 10
14.92110655430823
 20
4.840311378216739
 30
0.0
 11
16.32110655430827
 21
6.240311378216745
 31
0.0
  0
LINE
  5
17EE
330
16AD
100
AcDbEntity
  8
0
 62
     0
100
AcDbLine
 10
16.52520283141726
 20
6.893420461379236
 30
0.0
 11
18.39117923003337
 21
8.759396859995348
 31
0.0
  0
LINE
  5
17EF
330
16AD
100
AcDbEntity
  8
0
 62
     0
100
AcDbLine
 10
14.92110655430823
 20
5.289324184270185
 30
0.0
 11
16.32768614646138
 21
6.695903776423335
 31
0.0
  0
LINE
  5
17F0
330
16AD
100
AcDbEntity
  8
0
 62
     0
100
AcDbLine
 10
20.34610655430824
 20
10.71432418427019
 30
0.0
 11
21.25678242357043
 21
11.6250000535324
 31
0.0
  0
LINE
  5
17F1
330
16AD
100
AcDbEntity
  8
0
 62
     0
100
AcDbLine
 10
13.20678242357041
 20
3.575000053532363
 30
0.0
 11
13.69610655430824
 21
4.064324184270219
 31
0.0
  0
LINE
  5
17F2
330
16AD
100
AcDbEntity
  8
0
 62
     0
100
AcDbLine
 10
14.9211065543082
 20
5.738336990323659
 30
0.0
 11
18.59841590975034
 21
9.415646345765765
 31
0.0
  0
LINE
  5
17F3
330
16AD
100
AcDbEntity
  8
0
 62
     0
100
AcDbLine
 10
20.34610655430822
 20
11.16333699032367
 30
0.0
 11
20.80776961751695
 21
11.6250000535324
 31
0.0
  0
LINE
  5
17F4
330
16AD
100
AcDbEntity
  8
0
 62
     0
100
AcDbLine
 10
12.75776961751694
 20
3.575000053532392
 30
0.0
 11
13.69610655430824
 21
4.513336990323693
 31
0.0
  0
LINE
  5
17F5
330
16AD
100
AcDbEntity
  8
0
 62
     0
100
AcDbLine
 10
14.92110655430823
 20
6.187349796377077
 30
0.0
 11
18.80565258946737
 21
10.07189583153621
 31
0.0
  0
LINE
  5
17F6
330
16AD
100
AcDbEntity
  8
0
 62
     0
100
AcDbLine
 10
12.31459712363855
 20
3.580840365707416
 30
0.0
 11
13.62543941250516
 21
4.891682654573997
 31
0.0
  0
LINE
  5
17F7
330
16AD
100
AcDbEntity
  8
0
 62
     0
100
AcDbLine
 10
14.9211065543082
 20
6.636362602430551
 30
0.0
 11
16.58474400541004
 21
8.300000053532386
 31
0.0
  0
LINE
  5
17F8
330
16AD
100
AcDbEntity
  8
0
 62
     0
100
AcDbLine
 10
16.9667354230304
 20
8.681991471152741
 30
0.0
 11
19.01288926918437
 21
10.72814531730668
 31
0.0
  0
LINE
  5
17F9
330
16AD
100
AcDbEntity
  8
0
 62
     0
100
AcDbLine
 10
11.93051686491506
 20
3.645772913037376
 30
0.0
 11
13.25974400541002
 21
4.975000053532369
 31
0.0
  0
LINE
  5
17FA
330
16AD
100
AcDbEntity
  8
0
 62
     0
100
AcDbLine
 10
14.9211065543082
 20
7.085375408484026
 30
0.0
 11
16.33010183966237
 21
8.494370693838163
 31
0.0
  0
LINE
  5
17FB
330
16AD
100
AcDbEntity
  8
0
 62
     0
100
AcDbLine
 10
17.17397210274737
 20
9.338240956923158
 30
0.0
 11
19.20042499508505
 21
11.36469384926087
 31
0.0
  0
LINE
  5
17FC
330
16AD
100
AcDbEntity
  8
0
 62
     0
100
AcDbLine
 10
11.59994973650185
 20
3.764218590677671
 30
0.0
 11
12.81073119935658
 21
4.975000053532369
 31
0.0
  0
LINE
  5
17FD
330
16AD
100
AcDbEntity
  8
0
 62
     0
100
AcDbLine
 10
14.92110655430823
 20
7.534388214537443
 30
0.0
 11
16.32110655430824
 21
8.934388214537477
 31
0.0
  0
LINE
  5
17FE
330
16AD
100
AcDbEntity
  8
0
 62
     0
100
AcDbLine
 10
17.38120878246442
 20
9.99449044269366
 30
0.0
 11
19.00341905880046
 21
11.61670071902969
 31
0.0
  0
LINE
  5
17FF
330
16AD
100
AcDbEntity
  8
0
 62
     0
100
AcDbLine
 10
11.3111480944197
 20
3.924429754648912
 30
0.0
 11
12.36917902366613
 21
4.982460683895368
 31
0.0
  0
LINE
  5
1800
330
16AD
100
AcDbEntity
  8
0
 62
     0
100
AcDbLine
 10
14.9211065543082
 20
7.983401020590918
 30
0.0
 11
16.32110655430824
 21
9.383401020590952
 31
0.0
  0
LINE
  5
1801
330
16AD
100
AcDbEntity
  8
0
 62
     0
100
AcDbLine
 10
17.58844546218139
 20
10.65073992846407
 30
0.0
 11
18.56270558724966
 21
11.62500005353237
 31
0.0
  0
LINE
  5
1802
330
16AD
100
AcDbEntity
  8
0
 62
     0
100
AcDbLine
 10
11.05867061122867
 20
4.120965077511357
 30
0.0
 11
12.05202095315698
 21
5.114315419439662
 31
0.0
  0
LINE
  5
1803
330
16AD
100
AcDbEntity
  8
0
 62
     0
100
AcDbLine
 10
14.9211065543082
 20
8.432413826644364
 30
0.0
 11
16.32110655430824
 21
9.832413826644398
 31
0.0
  0
LINE
  5
1804
330
16AD
100
AcDbEntity
  8
0
 62
     0
100
AcDbLine
 10
13.25192362019646
 20
6.763230892532646
 30
0.0
 11
13.832875715308
 21
7.344182987644188
 31
0.0
  0
LINE
  5
1805
330
16AD
100
AcDbEntity
  8
0
 62
     0
100
AcDbLine
 10
17.79568214189834
 20
11.30698941423452
 30
0.0
 11
18.11369278119625
 21
11.62500005353243
 31
0.0
  0
LINE
  5
1806
330
16AD
100
AcDbEntity
  8
0
 62
     0
100
AcDbLine
 10
10.84045207456375
 20
4.351759346899939
 30
0.0
 11
11.84689547752088
 21
5.358202749857071
 31
0.0
  0
LINE
  5
1807
330
16AD
100
AcDbEntity
  8
0
 62
     0
100
AcDbLine
 10
12.78943719938155
 20
6.749757277771209
 30
0.0
 11
13.84634933006944
 21
7.806669408459072
 31
0.0
  0
LINE
  5
1808
330
16AD
100
AcDbEntity
  8
0
 62
     0
100
AcDbLine
 10
14.92110655430818
 20
8.881426632697838
 30
0.0
 11
16.32110655430821
 21
10.28142663269787
 31
0.0
  0
LINE
  5
1809
330
16AD
100
AcDbEntity
  8
0
 62
     0
100
AcDbLine
 10
10.65694246209227
 20
4.617262540481902
 30
0.0
 11
11.77110655430823
 21
5.731426632697889
 31
0.0
  0
LINE
  5
180A
330
16AD
100
AcDbEntity
  8
0
 62
     0
100
AcDbLine
 10
12.48236391467145
 20
6.891696799114498
 30
0.0
 11
13.70440980872612
 21
8.1137426931692
 31
0.0
  0
LINE
  5
180B
330
16AD
100
AcDbEntity
  8
0
 62
     0
100
AcDbLine
 10
14.9211065543082
 20
9.330439438751284
 30
0.0
 11
16.32110655430824
 21
10.73043943875129
 31
0.0
  0
LINE
  5
180C
330
16AD
100
AcDbEntity
  8
0
 62
     0
100
AcDbLine
 10
10.5112837071299
 20
4.920616591572979
 30
0.0
 11
11.77110655430823
 21
6.180439438751307
 31
0.0
  0
LINE
  5
180D
330
16AD
100
AcDbEntity
  8
0
 62
     0
100
AcDbLine
 10
12.26338395117659
 20
7.121729641673141
 30
0.0
 11
13.47437696616751
 21
8.332722656664032
 31
0.0
  0
LINE
  5
180E
330
16AD
100
AcDbEntity
  8
0
 62
     0
100
AcDbLine
 10
14.9211065543082
 20
9.77945224480473
 30
0.0
 11
16.32110655430821
 21
11.17945224480476
 31
0.0
  0
LINE
  5
180F
330
16AD
100
AcDbEntity
  8
0
 62
     0
100
AcDbLine
 10
10.41071502504257
 20
5.269060715539126
 30
0.0
 11
11.77110655430823
 21
6.629452244804781
 31
0.0
  0
LINE
  5
1810
330
16AD
100
AcDbEntity
  8
0
 62
     0
100
AcDbLine
 10
12.1353585849724
 20
7.442717081522403
 30
0.0
 11
13.15338952631822
 21
8.460748022868244
 31
0.0
  0
LINE
  5
1811
330
16AD
100
AcDbEntity
  8
0
 62
     0
100
AcDbLine
 10
10.37110655430819
 20
5.678465050858221
 30
0.0
 11
11.77110655430823
 21
7.078465050858227
 31
0.0
  0
LINE
  5
1812
330
16AD
100
AcDbEntity
  8
0
 62
     0
100
AcDbLine
 10
14.92110655430818
 20
10.2284650508582
 30
0.0
 11
16.24248150013068
 21
11.5498399966807
 31
0.0
  0
LINE
  5
1813
330
16AD
100
AcDbEntity
  8
0
 62
     0
100
AcDbLine
 10
8.328108175370402
 20
3.635466671920426
 30
0.0
 11
9.260639935920266
 21
4.56799843247029
 31
0.0
  0
LINE
  5
1814
330
16AD
100
AcDbEntity
  8
0
 62
     0
100
AcDbLine
 10
12.1945651267128
 20
7.950936429316243
 30
0.0
 11
12.6451701785244
 21
8.40154148112785
 31
0.0
  0
LINE
  5
1815
330
16AD
100
AcDbEntity
  8
0
 62
     0
100
AcDbLine
 10
10.37110655430819
 20
6.127477856911639
 30
0.0
 11
11.77110655430823
 21
7.527477856911673
 31
0.0
  0
LINE
  5
1816
330
16AD
100
AcDbEntity
  8
0
 62
     0
100
AcDbLine
 10
14.9211065543082
 20
10.67747785691162
 30
0.0
 11
15.86862875092899
 21
11.62500005353243
 31
0.0
  0
LINE
  5
1817
330
16AD
100
AcDbEntity
  8
0
 62
     0
100
AcDbLine
 10
7.818628750928922
 20
3.575000053532363
 30
0.0
 11
9.321106554308244
 21
5.077477856911684
 31
0.0
  0
LINE
  5
1818
330
16AD
100
AcDbEntity
  8
0
 62
     0
100
AcDbLine
 10
10.37110655430819
 20
6.576490662965113
 30
0.0
 11
11.77110655430823
 21
7.976490662965147
 31
0.0
  0
LINE
  5
1819
330
16AD
100
AcDbEntity
  8
0
 62
     0
100
AcDbLine
 10
14.92110655430818
 20
11.12649066296509
 30
0.0
 11
15.41961594487548
 21
11.6250000535324
 31
0.0
  0
LINE
  5
181A
330
16AD
100
AcDbEntity
  8
0
 62
     0
100
AcDbLine
 10
7.369615944875476
 20
3.575000053532363
 30
0.0
 11
9.321106554308244
 21
5.526490662965159
 31
0.0
  0
LINE
  5
181B
330
16AD
100
AcDbEntity
  8
0
 62
     0
100
AcDbLine
 10
10.37110655430819
 20
7.025503469018559
 30
0.0
 11
11.7711065543082
 21
8.425503469018593
 31
0.0
  0
LINE
  5
181C
330
16AD
100
AcDbEntity
  8
0
 62
     0
100
AcDbLine
 10
6.920603138822002
 20
3.575000053532392
 30
0.0
 11
9.319136878027649
 21
5.973533792738038
 31
0.0
  0
LINE
  5
181D
330
16AD
100
AcDbEntity
  8
0
 62
     0
100
AcDbLine
 10
10.37110655430819
 20
7.474516275072033
 30
0.0
 11
11.77110655430823
 21
8.874516275072068
 31
0.0
  0
LINE
  5
181E
330
16AD
100
AcDbEntity
  8
0
 62
     0
100
AcDbLine
 10
13.12159033276859
 20
10.22500005353242
 30
0.0
 11
13.69610655430827
 21
10.79951627507208
 31
0.0
  0
LINE
  5
181F
330
16AD
100
AcDbEntity
  8
0
 62
     0
100
AcDbLine
 10
6.471590332768528
 20
3.575000053532363
 30
0.0
 11
9.264305959866987
 21
6.367715680630823
 31
0.0
  0
LINE
  5
1820
330
16AD
100
AcDbEntity
  8
0
 62
     0
100
AcDbLine
 10
10.37110655430819
 20
7.923529081125479
 30
0.0
 11
11.77110655430823
 21
9.323529081125485
 31
0.0
  0
LINE
  5
1821
330
16AD
100
AcDbEntity
  8
0
 62
     0
100
AcDbLine
 10
7.921106554308238
 20
5.473529081125519
 30
0.0
 11
9.153136587844926
 21
6.705559114662207
 31
0.0
  0
LINE
  5
1822
330
16AD
100
AcDbEntity
  8
0
 62
     0
100
AcDbLine
 10
12.67257752671508
 20
10.22500005353236
 30
0.0
 11
13.69610655430824
 21
11.24852908112552
 31
0.0
  0
LINE
  5
1823
330
16AD
100
AcDbEntity
  8
0
 62
     0
100
AcDbLine
 10
6.051440464345063
 20
3.603862991162344
 30
0.0
 11
7.422577526715087
 21
4.975000053532369
 31
0.0
  0
LINE
  5
1824
330
16AD
100
AcDbEntity
  8
0
 62
     0
100
AcDbLine
 10
10.37110655430817
 20
8.372541887178925
 30
0.0
 11
11.85401390719806
 21
9.855449240068821
 31
0.0
  0
LINE
  5
1825
330
16AD
100
AcDbEntity
  8
0
 62
     0
100
AcDbLine
 10
7.920027008503609
 20
5.921462341374336
 30
0.0
 11
8.998920820508914
 21
7.000356153379669
 31
0.0
  0
LINE
  5
1826
330
16AD
100
AcDbEntity
  8
0
 62
     0
100
AcDbLine
 10
12.14065736777183
 20
10.14209270064259
 30
0.0
 11
13.57937284684834
 21
11.58080817971907
 31
0.0
  0
LINE
  5
1827
330
16AD
100
AcDbEntity
  8
0
 62
     0
100
AcDbLine
 10
5.908606554308192
 20
3.910041887178948
 30
0.0
 11
6.97356472066167
 21
4.975000053532426
 31
0.0
  0
LINE
  5
1828
330
16AD
100
AcDbEntity
  8
0
 62
     0
100
AcDbLine
 10
7.810225498753254
 20
6.260673637677484
 30
0.0
 11
8.807799838089465
 21
7.258247977013695
 31
0.0
  0
LINE
  5
1829
330
16AD
100
AcDbEntity
  8
0
 62
     0
100
AcDbLine
 10
10.37110655430817
 20
8.8215546932324
 30
0.0
 11
13.1745519146082
 21
11.62500005353243
 31
0.0
  0
LINE
  5
182A
330
16AD
100
AcDbEntity
  8
0
 62
     0
100
AcDbLine
 10
5.908606554308192
 20
4.359054693232423
 30
0.0
 11
6.524551914608167
 21
4.975000053532397
 31
0.0
  0
LINE
  5
182B
330
16AD
100
AcDbEntity
  8
0
 62
     0
100
AcDbLine
 10
7.597098084600901
 20
6.496559029578548
 30
0.0
 11
8.587047578262087
 21
7.486508523239734
 31
0.0
  0
LINE
  5
182C
330
16AD
100
AcDbEntity
  8
0
 62
     0
100
AcDbLine
 10
10.37110655430819
 20
9.270567499285817
 30
0.0
 11
12.72553910855467
 21
11.62500005353231
 31
0.0
  0
LINE
  5
182D
330
16AD
100
AcDbEntity
  8
0
 62
     0
100
AcDbLine
 10
5.94308251531811
 20
4.842543460295757
 30
0.0
 11
6.041063147544917
 21
4.940524092522565
 31
0.0
  0
LINE
  5
182E
330
16AD
100
AcDbEntity
  8
0
 62
     0
100
AcDbLine
 10
10.38109411138648
 20
9.729567862417582
 30
0.0
 11
12.26653874542299
 21
11.61501249645411
 31
0.0
  0
LINE
  5
182F
330
16AD
100
AcDbEntity
  8
0
 62
     0
100
AcDbLine
 10
7.372591681574164
 20
6.721065432605286
 30
0.0
 11
8.36254117523535
 21
7.711014926266472
 31
0.0
  0
LINE
  5
1830
330
16AD
100
AcDbEntity
  8
0
 62
     0
100
AcDbLine
 10
10.53082582751937
 20
10.32831238460397
 30
0.0
 11
11.66779422323662
 21
11.46528078032122
 31
0.0
  0
LINE
  5
1831
330
16AD
100
AcDbEntity
  8
0
 62
     0
100
AcDbLine
 10
7.148085278547426
 20
6.945571835632023
 30
0.0
 11
8.138034772208612
 21
7.935521329293209
 31
0.0
  0
LINE
  5
1832
330
16AD
100
AcDbEntity
  8
0
 62
     0
100
AcDbLine
 10
6.923578875520718
 20
7.170078238658732
 30
0.0
 11
7.913528369181875
 21
8.160027732319861
 31
0.0
  0
LINE
  5
1833
330
16AD
100
AcDbEntity
  8
0
 62
     0
100
AcDbLine
 10
6.69907247249398
 20
7.394584641685469
 30
0.0
 11
7.689021966155138
 21
8.384534135346598
 31
0.0
  0
LINE
  5
1834
330
16AD
100
AcDbEntity
  8
0
 62
     0
100
AcDbLine
 10
6.474566069467243
 20
7.619091044712206
 30
0.0
 11
7.464515563128401
 21
8.609040538373335
 31
0.0
  0
LINE
  5
1835
330
16AD
100
AcDbEntity
  8
0
 62
     0
100
AcDbLine
 10
8.631462272233989
 20
10.22500005353242
 30
0.0
 11
9.05860655430817
 21
10.6521443356066
 31
0.0
  0
LINE
  5
1836
330
16AD
100
AcDbEntity
  8
0
 62
     0
100
AcDbLine
 10
6.250101323454572
 20
7.843639104753009
 30
0.0
 11
7.240134145170799
 21
8.833671926469236
 31
0.0
  0
LINE
  5
1837
330
16AD
100
AcDbEntity
  8
0
 62
     0
100
AcDbLine
 10
8.182449466180514
 20
10.22500005353236
 30
0.0
 11
9.058606554308227
 21
11.10115714166008
 31
0.0
  0
LINE
  5
1838
330
16AD
100
AcDbEntity
  8
0
 62
     0
100
AcDbLine
 10
6.044367361178785
 20
8.086917948530611
 30
0.0
 11
7.07518570452683
 21
9.117736291878685
 31
0.0
  0
LINE
  5
1839
330
16AD
100
AcDbEntity
  8
0
 62
     0
100
AcDbLine
 10
7.73343666012704
 20
10.22500005353236
 30
0.0
 11
9.015327104427655
 21
11.50689049783298
 31
0.0
  0
LINE
  5
183A
330
16AD
100
AcDbEntity
  8
0
 62
     0
100
AcDbLine
 10
5.874137058047551
 20
8.365700451452852
 30
0.0
 11
7.046106554308209
 21
9.537669947713538
 31
0.0
  0
LINE
  5
183B
330
16AD
100
AcDbEntity
  8
0
 62
     0
100
AcDbLine
 10
7.283190529488535
 20
10.22376672894731
 30
0.0
 11
8.684423854073628
 21
11.6250000535324
 31
0.0
  0
LINE
  5
183C
330
16AD
100
AcDbEntity
  8
0
 62
     0
100
AcDbLine
 10
5.743790410181503
 20
8.684366609640278
 30
0.0
 11
7.047339878893296
 21
9.9879160783521
 31
0.0
  0
LINE
  5
183D
330
16AD
100
AcDbEntity
  8
0
 62
     0
100
AcDbLine
 10
5.66288442905747
 20
9.052473434569691
 30
0.0
 11
8.235411048020182
 21
11.6250000535324
 31
0.0
  0
LINE
  5
183E
330
16AD
100
AcDbEntity
  8
0
 62
     0
100
AcDbLine
 10
5.646106554308232
 20
9.484708365873899
 30
0.0
 11
7.786398241966708
 21
11.6250000535324
 31
0.0
  0
LINE
  5
183F
330
16AD
100
AcDbEntity
  8
0
 62
     0
100
AcDbLine
 10
5.646106554308204
 20
9.933721171927373
 30
0.0
 11
7.337385435913262
 21
11.6250000535324
 31
0.0
  0
LINE
  5
1840
330
16AD
100
AcDbEntity
  8
0
 62
     0
100
AcDbLine
 10
5.656202559527372
 20
10.39282998319998
 30
0.0
 11
6.878276624640676
 21
11.61490404831329
 31
0.0
  0
ENDBLK
  5
1842
330
16AD
100
AcDbEntity
  8
0
100
AcDbBlockEnd
  0
ENDSEC
  0
SECTION
  2
ENTITIES
  0
LINE
  5
BE5
330
1A
100
AcDbEntity
  8
ZUWAKU
100
AcDbLine
 10
104.3233011219516
 20
7.600000053532422
 30
0.0
 11
223.7121824624133
 21
7.600000053532419
 31
0.0
  0
LINE
  5
BE6
330
1A
100
AcDbEntity
  8
ZUWAKU
100
AcDbLine
 10
104.3233011219516
 20
7.80000005353242
 30
0.0
 11
223.7121824624133
 21
7.800000053532423
 31
0.0
  0
LINE
  5
BE7
330
1A
100
AcDbEntity
  8
ZUWAKU
100
AcDbLine
 10
104.3233011219516
 20
7.70000005353242
 30
0.0
 11
223.7121824624133
 21
7.70000005353242
 31
0.0
  0
LINE
  5
BE8
330
1A
100
AcDbEntity
  8
ZUWAKU
100
AcDbLine
 10
0.0000004769176485
 20
15.4000000535324
 30
0.0
 11
398.7000004769175
 21
15.4000000535324
 31
0.0
  0
LINE
  5
BE9
330
1A
100
AcDbEntity
  8
ZUWAKU
100
AcDbLine
 10
0.0000004769176485
 20
15.3000000535324
 30
0.0
 11
398.7000004769175
 21
15.3000000535324
 31
0.0
  0
LINE
  5
BEA
330
1A
100
AcDbEntity
  8
ZUWAKU
100
AcDbLine
 10
0.0000004769176485
 20
15.2000000535324
 30
0.0
 11
398.7000004769175
 21
15.2000000535324
 31
0.0
  0
LINE
  5
BEB
330
1A
100
AcDbEntity
  8
ZUWAKU
100
AcDbLine
 10
0.0000004769176485
 20
15.1000000535324
 30
0.0
 11
398.7000004769175
 21
15.1000000535324
 31
0.0
  0
LINE
  5
BEC
330
1A
100
AcDbEntity
  8
ZUWAKU
100
AcDbLine
 10
0.0000004769176485
 20
15.0000000535324
 30
0.0
 11
398.7000004769175
 21
15.0000000535324
 31
0.0
  0
LWPOLYLINE
  5
BED
330
1A
100
AcDbEntity
  8
ZUWAKU
100
AcDbPolyline
 90
        4
 70
     1
 43
0.0
 10
0.1000004769176144
 20
275.7000000535324
 10
0.1000004769176144
 20
0.1000000535324261
 10
398.7000004769175
 20
0.1000000535324377
 10
398.7000004769177
 20
275.7000000535324
  0
LWPOLYLINE
  5
BEE
330
1A
100
AcDbEntity
  8
ZUWAKU
100
AcDbPolyline
 90
        4
 70
     1
 43
0.0
 10
0.300000476917603
 20
275.5000000535324
 10
0.300000476917603
 20
0.3000000535324148
 10
398.5000004769177
 20
0.3000000535324379
 10
398.5000004769176
 20
275.5000000535324
  0
LWPOLYLINE
  5
BEF
330
1A
100
AcDbEntity
  8
ZUWAKU
100
AcDbPolyline
 90
        4
 70
     1
 43
0.0
 10
0.0000004769176485
 20
275.8000000535324
 10
0.0000004769176485
 20
0.0000000535324034
 10
398.8000004769176
 20
0.0000000535324371
 10
398.8000004769176
 20
275.8000000535324
  0
LWPOLYLINE
  5
BF0
330
1A
100
AcDbEntity
  8
ZUWAKU
100
AcDbPolyline
 90
        4
 70
     1
 43
0.0
 10
0.2000004769176371
 20
275.6000000535324
 10
0.2000004769176371
 20
0.2000000535324489
 10
398.6000004769176
 20
0.2000000535324373
 10
398.6000004769176
 20
275.6000000535324
  0
LWPOLYLINE
  5
BF1
330
1A
100
AcDbEntity
  8
ZUWAKU
100
AcDbPolyline
 90
        4
 70
     1
 43
0.0
 10
0.4000004769176258
 20
275.4000000535324
 10
0.4000004769176258
 20
0.4000000535324375
 10
398.4000004769176
 20
0.4000000535324375
 10
398.4000004769176
 20
275.4000000535324
  0
TEXT
  5
BF2
330
1A
100
AcDbEntity
  8
moji
100
AcDbText
 10
46.47889527100221
 20
6.370589118669784
 30
0.0
 40
3.0
  1
丸トップＵＴ６０
 41
0.9
  7
ｽﾀｲﾙ1
100
AcDbText
  0
INSERT
  5
BF3
330
1A
100
AcDbEntity
  8
ZUWAKU
  6
Continuous
100
AcDbBlockReference
  2
*X11
 10
0.0
 20
0.0
 30
0.0
1001
ACAD
1000
HATCH
1002
{
1070
    19
1000
ANSI37
1040
0.1
1040
0.0
1000
R14_HATCH_DATA
1000
BF3
1011
1.0
1021
0.0
1031
0.0
1011
0.0
1021
1.0
1031
0.0
1011
0.0
1021
0.0
1031
1.0
1040
0.0
1010
0.0
1020
0.0
1030
1.0
1000
ANSI37
1070
     0
1070
     0
1071
        8
1071
        7
1070
     1
1070
     1
1071
       24
1040
7.251131807477577
1040
8.822424294024195
1040
-0.1989123673796348
1040
7.046106554308209
1040
9.31739904085472
1040
0.0
1040
7.046106554308209
1040
9.962500053532409
1040
-0.4142135623730912
1040
7.308606554308198
1040
10.2250000535324
1040
0.0
1040
8.796106554308153
1040
10.2250000535324
1040
0.4142135623731546
1040
9.058606554308198
1040
10.4875000535324
1040
0.0
1040
9.058606554308198
1040
11.3625000535324
1040
0.4142135623731586
1040
8.796106554308153
1040
11.6250000535324
1040
0.0
1040
7.046106554308209
1040
11.6250000535324
1040
0.4142135623730928
1040
5.646106554308232
1040
10.22500005353242
1040
0.0
1040
5.646106554308232
1040
9.317399040854784
1040
0.1989123673796619
1040
6.261182313816448
1040
7.83247480036298
1040
0.0
1040
7.716081301138785
1040
6.377575813040651
1040
-0.1989123673796613
1040
7.921106554308209
1040
5.882601066210058
1040
0.0
1040
7.921106554308209
1040
5.2375000535324
1040
-0.4142135623730911
1040
7.658606554308221
1040
4.975000053532404
1040
0.0
1040
6.171106554308266
1040
4.975000053532404
1040
0.4142135623731526
1040
5.908606554308221
1040
4.71250005353241
1040
0.0
1040
5.908606554308221
1040
3.8375000535324
1040
0.4142135623731526
1040
6.171106554308266
1040
3.575000053532406
1040
0.0
1040
7.921106554308209
1040
3.575000053532406
1040
0.4142135623731044
1040
9.321106554308244
1040
4.975000053532394
1040
0.0
1040
9.321106554308244
1040
5.88260106621003
1040
0.1989123673796604
1040
8.706030794799971
1040
7.3675253067018
1040
0.0
1071
        0
1071
        7
1070
     1
1070
     1
1071
       16
1040
11.77110655430823
1040
9.525000053532409
1040
-0.4142135623730935
1040
12.47110655430822
1040
10.2250000535324
1040
0.0
1040
13.43360655430819
1040
10.2250000535324
1040
0.4142135623731546
1040
13.69610655430824
1040
10.4875000535324
1040
0.0
1040
13.69610655430824
1040
11.3625000535324
1040
0.4142135623730951
1040
13.43360655430825
1040
11.6250000535324
1040
0.0
1040
12.47110655430816
1040
11.62500005353238
1040
0.4142135623730892
1040
10.37110655430819
1040
9.525000053532373
1040
0.0
1040
10.37110655430819
1040
5.675000053532418
1040
0.4142135623730969
1040
12.47110655430822
1040
3.575000053532406
1040
0.0
1040
13.43360655430819
1040
3.575000053532406
1040
0.4142135623731526
1040
13.69610655430824
1040
3.8375000535324
1040
0.0
1040
13.69610655430824
1040
4.71250005353241
1040
0.4142135623730891
1040
13.43360655430825
1040
4.975000053532404
1040
0.0
1040
12.47110655430822
1040
4.975000053532404
1040
-0.4142135623730928
1040
11.77110655430823
1040
5.675000053532398
1040
0.0
1071
        0
1071
        7
1070
     1
1070
     1
1071
        2
1040
12.12110655430819
1040
7.600000053532404
1040
1.0
1040
13.87110655430819
1040
7.600000053532404
1040
1.0
1071
        0
1071
        7
1070
     1
1070
     1
1071
       26
1040
18.6574297953972
1040
9.602523650314118
1040
0.0
1040
19.18824961196611
1040
11.28345306944891
1040
0.5069206636600134
1040
18.93793416236843
1040
11.6250000535324
1040
0.0
1040
18.08848947256382
1040
11.6250000535324
1040
0.3272098845218764
1040
17.83817402296614
1040
11.44154703761589
1040
0.0
1040
16.90403908565025
1040
8.483453069448945
1040
-0.3272098845219541
1040
16.65372363605252
1040
8.300000053532404
1040
0.0
1040
16.58360655430828
1040
8.300000053532404
1040
-0.4142135623731526
1040
16.32110655430824
1040
8.562500053532398
1040
0.0
1040
16.32110655430824
1040
11.3625000535324
1040
0.4142135623730951
1040
16.05860655430825
1040
11.6250000535324
1040
0.0
1040
15.1836065543082
1040
11.6250000535324
1040
0.4142135623730871
1040
14.9211065543082
1040
11.36250005353241
1040
0.0
1040
14.9211065543082
1040
3.8375000535324
1040
0.4142135623730891
1040
15.1836065543082
1040
3.575000053532406
1040
0.0
1040
16.05860655430819
1040
3.575000053532406
1040
0.4142135623731526
1040
16.32110655430824
1040
3.8375000535324
1040
0.0
1040
16.32110655430824
1040
6.637500053532411
1040
-0.4142135623731526
1040
16.58360655430828
1040
6.900000053532405
1040
0.0
1040
16.65372363605257
1040
6.900000053532405
1040
-0.3272098845218915
1040
16.90403908565025
1040
6.716547037615868
1040
0.0
1040
17.83817402296614
1040
3.758453069448941
1040
0.3272098845218902
1040
18.08848947256382
1040
3.575000053532406
1040
0.0
1040
18.93793416236843
1040
3.575000053532406
1040
0.5069206636600335
1040
19.18824961196611
1040
3.916547037615909
1040
0.0
1040
18.02505392272928
1040
7.600000053532474
1040
0.0
1071
        0
1071
        7
1070
     1
1070
     1
1071
        8
1040
21.74610655430819
1040
11.36250005353241
1040
0.4142135623731546
1040
21.48360655430815
1040
11.6250000535324
1040
0.0
1040
20.60860655430826
1040
11.6250000535324
1040
0.4142135623731507
1040
20.34610655430822
1040
11.36250005353241
1040
0.0
1040
20.34610655430822
1040
3.8375000535324
1040
0.4142135623731526
1040
20.60860655430826
1040
3.575000053532406
1040
0.0
1040
21.48360655430815
1040
3.575000053532406
1040
0.4142135623731526
1040
21.74610655430819
1040
3.8375000535324
1040
0.0
1071
        0
1071
        7
1070
     1
1070
     1
1071
       24
1040
24.19610655430824
1040
9.962500053532409
1040
-0.4142135623731546
1040
24.45860655430829
1040
10.2250000535324
1040
0.0
1040
25.94610655430824
1040
10.2250000535324
1040
0.4142135623730911
1040
26.20860655430823
1040
10.4875000535324
1040
0.0
1040
26.20860655430823
1040
11.3625000535324
1040
0.4142135623730952
1040
25.94610655430824
1040
11.6250000535324
1040
0.0
1040
24.19610655430824
1040
11.6250000535324
1040
0.4142135623731048
1040
22.79610655430821
1040
10.22500005353242
1040
0.0
1040
22.79610655430821
1040
9.317399040854784
1040
0.1989123673796613
1040
23.41118231381648
1040
7.832474800363009
1040
0.0
1040
24.86608130113882
1040
6.377575813040675
1040
-0.1989123673796402
1040
25.07110655430824
1040
5.882601066210138
1040
0.0
1040
25.07110655430824
1040
5.2375000535324
1040
-0.4142135623730911
1040
24.80860655430825
1040
4.975000053532404
1040
0.0
1040
23.32110655430824
1040
4.975000053532404
1040
0.4142135623731526
1040
23.05860655430819
1040
4.71250005353241
1040
0.0
1040
23.05860655430819
1040
3.8375000535324
1040
0.4142135623730891
1040
23.32110655430818
1040
3.575000053532406
1040
0.0
1040
25.07110655430824
1040
3.575000053532406
1040
0.4142135623730925
1040
26.47110655430822
1040
4.975000053532394
1040
0.0
1040
26.47110655430822
1040
5.88260106621003
1040
0.1989123673796675
1040
25.85603079479994
1040
7.367525306701857
1040
0.0
1040
24.40113180747767
1040
8.822424294024115
1040
-0.1989123673796652
1040
24.19610655430824
1040
9.317399040854699
1040
0.0
1071
        0
1071
        7
1070
     1
1070
     1
1071
       16
1040
28.92110655430821
1040
11.3625000535324
1040
0.414213562373103
1040
28.65860655430822
1040
11.6250000535324
1040
0.0
1040
27.78360655430822
1040
11.6250000535324
1040
0.4142135623730871
1040
27.52110655430823
1040
11.36250005353241
1040
0.0
1040
27.52110655430823
1040
4.975000053532394
1040
0.4142135623730926
1040
28.92110655430821
1040
3.575000053532406
1040
0.0
1040
30.67110655430821
1040
3.575000053532406
1040
0.4142135623731044
1040
32.07110655430824
1040
4.975000053532394
1040
0.0
1040
32.07110655430824
1040
11.3625000535324
1040
0.4142135623730951
1040
31.80860655430825
1040
11.6250000535324
1040
0.0
1040
30.93360655430819
1040
11.6250000535324
1040
0.4142135623730871
1040
30.67110655430821
1040
11.36250005353241
1040
0.0
1040
30.67110655430821
1040
5.500000053532392
1040
-0.414213562373088
1040
30.14610655430823
1040
4.975000053532404
1040
0.0
1040
29.44610655430824
1040
4.975000053532404
1040
-0.4142135623731197
1040
28.92110655430821
1040
5.500000053532392
1040
0.0
1071
        0
1071
        7
1070
     1
1070
     1
1071
        8
1040
34.52110655430823
1040
11.36250005353241
1040
0.4142135623730871
1040
34.25860655430824
1040
11.6250000535324
1040
0.0
1040
33.38360655430824
1040
11.6250000535324
1040
0.4142135623731507
1040
33.12110655430819
1040
11.36250005353241
1040
0.0
1040
33.12110655430819
1040
3.8375000535324
1040
0.4142135623730891
1040
33.38360655430818
1040
3.575000053532406
1040
0.0
1040
34.25860655430824
1040
3.575000053532406
1040
0.4142135623730891
1040
34.52110655430823
1040
3.8375000535324
1040
0.0
1071
        0
1070
     0
1070
     1
1040
0.0
1040
0.1
1070
     0
1070
     2
1040
0.7853981633974483
1040
-450.4711516904218
1040
-6.599999946467562
1040
-0.2245064030267288
1040
0.2245064030267288
1070
     0
1040
2.356194490192344
1040
-450.4711516904218
1040
-6.599999946467562
1040
-0.2245064030267288
1040
-0.2245064030267288
1070
     0
1040
0.057451373970553
1071
        8
1040
8.039927958429302
1040
7.58358687647518
1040
0.0
1040
11.20225798013723
1040
9.422031144757909
1040
0.0
1040
12.58218441974747
1040
7.755940876567763
1040
0.0
1040
15.45703046773621
1040
8.100648876753155
1040
0.0
1040
20.91923648639601
1040
8.330455010523962
1040
0.0
1040
23.44910092448242
1040
9.709288211736009
1040
0.0
1040
28.27884346311782
1040
9.364579011079911
1040
0.0
1040
33.91354028672902
1040
9.594385144850718
1040
0.0
1002
}
  0
LINE
  5
BF4
330
1A
100
AcDbEntity
  8
ZUWAKU
100
AcDbLine
 10
12.47110655430822
 20
11.62500005353238
 30
0.0
 11
13.43360655430819
 21
11.6250000535324
 31
0.0
  0
LINE
  5
BF5
330
1A
100
AcDbEntity
  8
ZUWAKU
100
AcDbLine
 10
13.43360655430819
 20
10.2250000535324
 30
0.0
 11
12.47110655430822
 21
10.2250000535324
 31
0.0
  0
LINE
  5
BF6
330
1A
100
AcDbEntity
  8
ZUWAKU
100
AcDbLine
 10
12.47110655430822
 20
4.975000053532404
 30
0.0
 11
13.43360655430819
 21
4.975000053532404
 31
0.0
  0
LINE
  5
BF7
330
1A
100
AcDbEntity
  8
ZUWAKU
100
AcDbLine
 10
13.43360655430819
 20
3.575000053532406
 30
0.0
 11
12.47110655430822
 21
3.575000053532406
 31
0.0
  0
CIRCLE
  5
BF8
330
1A
100
AcDbEntity
  8
ZUWAKU
100
AcDbCircle
 10
12.9961065543082
 20
7.600000053532404
 30
0.0
 40
0.875
  0
ARC
  5
BF9
330
1A
100
AcDbEntity
  8
ZUWAKU
100
AcDbCircle
 10
7.746106554308198
 20
9.317399040854756
 30
0.0
 40
0.7
100
AcDbArc
 50
180.0000000000016
 51
224.9999999999988
  0
LINE
  5
BFA
330
1A
100
AcDbEntity
  8
ZUWAKU
100
AcDbLine
 10
11.77110655430823
 20
9.525000053532405
 30
0.0
 11
11.77110655430823
 21
5.675000053532407
 31
0.0
  0
LINE
  5
BFB
330
1A
100
AcDbEntity
  8
ZUWAKU
100
AcDbLine
 10
10.37110655430819
 20
5.675000053532407
 30
0.0
 11
10.37110655430819
 21
9.525000053532384
 31
0.0
  0
ARC
  5
BFC
330
1A
100
AcDbEntity
  8
ZUWAKU
100
AcDbCircle
 10
7.746106554308198
 20
9.317399040854756
 30
0.0
 40
2.099999999999999
100
AcDbArc
 50
180.0
 51
225.0
  0
ARC
  5
BFD
330
1A
100
AcDbEntity
  8
ZUWAKU
100
AcDbCircle
 10
7.921106554308209
 20
4.975000053532404
 30
0.0
 40
1.399999999999999
100
AcDbArc
 50
270.0
 51
0.0
  0
ARC
  5
BFE
330
1A
100
AcDbEntity
  8
ZUWAKU
100
AcDbCircle
 10
12.47110655430822
 20
5.675000053532407
 30
0.0
 40
2.099999999999999
100
AcDbArc
 50
180.0
 51
270.0
  0
ARC
  5
BFF
330
1A
100
AcDbEntity
  8
ZUWAKU
100
AcDbCircle
 10
7.221106554308221
 20
5.882601066210057
 30
0.0
 40
2.099999999999999
100
AcDbArc
 50
0.0
 51
45.0
  0
LINE
  5
C00
330
1A
100
AcDbEntity
  8
ZUWAKU
100
AcDbLine
 10
8.706030794799971
 20
7.367525306701818
 30
0.0
 11
7.251131807477634
 21
8.822424294024155
 31
0.0
  0
LINE
  5
C01
330
1A
100
AcDbEntity
  8
ZUWAKU
100
AcDbLine
 10
7.921106554308209
 20
5.237500053532407
 30
0.0
 11
7.921106554308209
 21
5.882601066210078
 31
0.0
  0
ARC
  5
C02
330
1A
100
AcDbEntity
  8
ZUWAKU
100
AcDbCircle
 10
7.658606554308221
 20
5.237500053532407
 30
0.0
 40
0.2625
100
AcDbArc
 50
270.0
 51
0.0
  0
ARC
  5
C03
330
1A
100
AcDbEntity
  8
ZUWAKU
100
AcDbCircle
 10
7.221106554308221
 20
5.882601066210078
 30
0.0
 40
0.7
100
AcDbArc
 50
0.0
 51
45.0
  0
LINE
  5
C04
330
1A
100
AcDbEntity
  8
ZUWAKU
100
AcDbLine
 10
5.908606554308221
 20
3.837500053532405
 30
0.0
 11
5.908606554308221
 21
4.712500053532405
 31
0.0
  0
ARC
  5
C05
330
1A
100
AcDbEntity
  8
ZUWAKU
100
AcDbCircle
 10
6.171106554308209
 20
3.837500053532405
 30
0.0
 40
0.2625
100
AcDbArc
 50
180.0
 51
270.0
  0
ARC
  5
C06
330
1A
100
AcDbEntity
  8
ZUWAKU
100
AcDbCircle
 10
6.171106554308209
 20
4.712500053532405
 30
0.0
 40
0.2625
100
AcDbArc
 50
90.0
 51
180.0
  0
LINE
  5
C07
330
1A
100
AcDbEntity
  8
ZUWAKU
100
AcDbLine
 10
6.171106554308209
 20
3.575000053532406
 30
0.0
 11
7.921106554308209
 21
3.575000053532406
 31
0.0
  0
LINE
  5
C08
330
1A
100
AcDbEntity
  8
ZUWAKU
100
AcDbLine
 10
6.171106554308209
 20
4.975000053532404
 30
0.0
 11
7.658606554308221
 21
4.975000053532404
 31
0.0
  0
LINE
  5
C09
330
1A
100
AcDbEntity
  8
ZUWAKU
100
AcDbLine
 10
6.261182313816448
 20
7.832474800362994
 30
0.0
 11
7.716081301138785
 21
6.377575813040664
 31
0.0
  0
LINE
  5
C0A
330
1A
100
AcDbEntity
  8
ZUWAKU
100
AcDbLine
 10
9.321106554308244
 20
4.975000053532404
 30
0.0
 11
9.321106554308244
 21
5.882601066210078
 31
0.0
  0
ARC
  5
C0B
330
1A
100
AcDbEntity
  8
ZUWAKU
100
AcDbCircle
 10
12.47110655430822
 20
5.675000053532407
 30
0.0
 40
0.7
100
AcDbArc
 50
180.0
 51
270.0
  0
ARC
  5
C0C
330
1A
100
AcDbEntity
  8
ZUWAKU
100
AcDbCircle
 10
8.796106554308209
 20
11.3625000535324
 30
0.0
 40
0.2625
100
AcDbArc
 50
0.0
 51
90.0
  0
ARC
  5
C0D
330
1A
100
AcDbEntity
  8
ZUWAKU
100
AcDbCircle
 10
8.796106554308209
 20
10.4875000535324
 30
0.0
 40
0.2625
100
AcDbArc
 50
270.0
 51
0.0
  0
LINE
  5
C0E
330
1A
100
AcDbEntity
  8
ZUWAKU
100
AcDbLine
 10
7.046106554308209
 20
11.6250000535324
 30
0.0
 11
8.796106554308209
 21
11.6250000535324
 31
0.0
  0
ARC
  5
C0F
330
1A
100
AcDbEntity
  8
ZUWAKU
100
AcDbCircle
 10
7.308606554308198
 20
9.962500053532405
 30
0.0
 40
0.2625
100
AcDbArc
 50
90.0
 51
180.0
  0
LINE
  5
C10
330
1A
100
AcDbEntity
  8
ZUWAKU
100
AcDbLine
 10
7.046106554308209
 20
9.962500053532405
 30
0.0
 11
7.046106554308209
 21
9.317399040854734
 31
0.0
  0
LINE
  5
C11
330
1A
100
AcDbEntity
  8
ZUWAKU
100
AcDbLine
 10
8.796106554308209
 20
10.2250000535324
 30
0.0
 11
7.308606554308198
 21
10.2250000535324
 31
0.0
  0
LINE
  5
C12
330
1A
100
AcDbEntity
  8
ZUWAKU
100
AcDbLine
 10
5.646106554308232
 20
10.2250000535324
 30
0.0
 11
5.646106554308232
 21
9.317399040854734
 31
0.0
  0
ARC
  5
C13
330
1A
100
AcDbEntity
  8
ZUWAKU
100
AcDbCircle
 10
7.046106554308209
 20
10.2250000535324
 30
0.0
 40
1.399999999999999
100
AcDbArc
 50
90.0
 51
180.0
  0
LINE
  5
C14
330
1A
100
AcDbEntity
  8
ZUWAKU
100
AcDbLine
 10
9.058606554308198
 20
11.3625000535324
 30
0.0
 11
9.058606554308198
 21
10.4875000535324
 31
0.0
  0
ARC
  5
C15
330
1A
100
AcDbEntity
  8
ZUWAKU
100
AcDbCircle
 10
12.47110655430822
 20
9.525000053532405
 30
0.0
 40
0.7
100
AcDbArc
 50
90.0
 51
180.0
  0
ARC
  5
C16
330
1A
100
AcDbEntity
  8
ZUWAKU
100
AcDbCircle
 10
12.47110655430822
 20
9.525000053532384
 30
0.0
 40
2.099999999999999
100
AcDbArc
 50
90.0
 51
180.0
  0
LINE
  5
C17
330
1A
100
AcDbEntity
  8
ZUWAKU
100
AcDbLine
 10
39.66331525091175
 20
15.0000000535324
 30
0.0
 11
39.66331525091186
 21
0.4000000535324375
 31
0.0
  0
LINE
  5
C18
330
1A
100
AcDbEntity
  8
ZUWAKU
100
AcDbLine
 10
39.76331525091177
 20
15.0000000535324
 30
0.0
 11
39.76331525091188
 21
0.4000000535324375
 31
0.0
  0
LINE
  5
C19
330
1A
100
AcDbEntity
  8
ZUWAKU
100
AcDbLine
 10
39.56331525091184
 20
15.0000000535324
 30
0.0
 11
39.56331525091184
 21
0.4000000535324375
 31
0.0
  0
LINE
  5
C1A
330
1A
100
AcDbEntity
  8
ZUWAKU
100
AcDbLine
 10
32.07110655430824
 20
4.975000053532404
 30
0.0
 11
32.07110655430824
 21
11.3625000535324
 31
0.0
  0
LINE
  5
C1B
330
1A
100
AcDbEntity
  8
ZUWAKU
100
AcDbLine
 10
30.67110655430821
 20
11.3625000535324
 30
0.0
 11
30.67110655430821
 21
5.500000053532403
 31
0.0
  0
LINE
  5
C1C
330
1A
100
AcDbEntity
  8
ZUWAKU
100
AcDbLine
 10
34.52110655430823
 20
3.837500053532405
 30
0.0
 11
34.52110655430823
 21
11.3625000535324
 31
0.0
  0
LINE
  5
C1D
330
1A
100
AcDbEntity
  8
ZUWAKU
100
AcDbLine
 10
33.12110655430819
 20
11.3625000535324
 30
0.0
 11
33.12110655430819
 21
3.837500053532405
 31
0.0
  0
ARC
  5
C1E
330
1A
100
AcDbEntity
  8
ZUWAKU
100
AcDbCircle
 10
24.89610655430823
 20
9.317399040854756
 30
0.0
 40
0.7
100
AcDbArc
 50
180.0000000000016
 51
224.9999999999988
  0
ARC
  5
C1F
330
1A
100
AcDbEntity
  8
ZUWAKU
100
AcDbCircle
 10
24.89610655430823
 20
9.317399040854756
 30
0.0
 40
2.099999999999999
100
AcDbArc
 50
180.0
 51
225.0
  0
LINE
  5
C20
330
1A
100
AcDbEntity
  8
ZUWAKU
100
AcDbLine
 10
18.6574297953972
 20
9.602523650314118
 30
0.0
 11
18.02505392272928
 21
7.600000053532415
 31
0.0
  0
LINE
  5
C21
330
1A
100
AcDbEntity
  8
ZUWAKU
100
AcDbLine
 10
20.34610655430822
 20
11.3625000535324
 30
0.0
 11
20.34610655430822
 21
3.837500053532405
 31
0.0
  0
LINE
  5
C22
330
1A
100
AcDbEntity
  8
ZUWAKU
100
AcDbLine
 10
21.74610655430819
 20
3.837500053532405
 30
0.0
 11
21.74610655430819
 21
11.3625000535324
 31
0.0
  0
LINE
  5
C23
330
1A
100
AcDbEntity
  8
ZUWAKU
100
AcDbLine
 10
27.52110655430823
 20
11.3625000535324
 30
0.0
 11
27.52110655430823
 21
4.975000053532404
 31
0.0
  0
LINE
  5
C24
330
1A
100
AcDbEntity
  8
ZUWAKU
100
AcDbLine
 10
28.92110655430821
 20
5.500000053532403
 30
0.0
 11
28.92110655430821
 21
11.3625000535324
 31
0.0
  0
LINE
  5
C25
330
1A
100
AcDbEntity
  8
ZUWAKU
100
AcDbLine
 10
16.32110655430824
 20
8.562500053532406
 30
0.0
 11
16.32110655430824
 21
11.3625000535324
 31
0.0
  0
LINE
  5
C26
330
1A
100
AcDbEntity
  8
ZUWAKU
100
AcDbLine
 10
14.9211065543082
 20
11.3625000535324
 30
0.0
 11
14.9211065543082
 21
3.837500053532405
 31
0.0
  0
LINE
  5
C27
330
1A
100
AcDbEntity
  8
ZUWAKU
100
AcDbLine
 10
17.83817402296614
 20
11.44154703761589
 30
0.0
 11
16.90403908565025
 21
8.48345306944892
 31
0.0
  0
LINE
  5
C28
330
1A
100
AcDbEntity
  8
ZUWAKU
100
AcDbLine
 10
30.14610655430823
 20
4.975000053532404
 30
0.0
 11
29.44610655430824
 21
4.975000053532404
 31
0.0
  0
LINE
  5
C29
330
1A
100
AcDbEntity
  8
ZUWAKU
100
AcDbLine
 10
28.92110655430821
 20
3.575000053532406
 30
0.0
 11
30.67110655430821
 21
3.575000053532406
 31
0.0
  0
LINE
  5
C2A
330
1A
100
AcDbEntity
  8
ZUWAKU
100
AcDbLine
 10
20.60860655430821
 20
3.575000053532406
 30
0.0
 11
21.4836065543082
 21
3.575000053532406
 31
0.0
  0
LINE
  5
C2B
330
1A
100
AcDbEntity
  8
ZUWAKU
100
AcDbLine
 10
17.83817402296614
 20
3.758453069448918
 30
0.0
 11
16.90403908565025
 21
6.716547037615889
 31
0.0
  0
ARC
  5
C2C
330
1A
100
AcDbEntity
  8
ZUWAKU
100
AcDbCircle
 10
16.65372363605257
 20
8.562500053532406
 30
0.0
 40
0.2625
100
AcDbArc
 50
270.0
 51
342.4744316262769
  0
LINE
  5
C2D
330
1A
100
AcDbEntity
  8
ZUWAKU
100
AcDbLine
 10
16.65372363605257
 20
8.300000053532404
 30
0.0
 11
16.58360655430823
 21
8.300000053532404
 31
0.0
  0
LINE
  5
C2E
330
1A
100
AcDbEntity
  8
ZUWAKU
100
AcDbLine
 10
16.58360655430823
 20
6.900000053532405
 30
0.0
 11
16.65372363605257
 21
6.900000053532405
 31
0.0
  0
ARC
  5
C2F
330
1A
100
AcDbEntity
  8
ZUWAKU
100
AcDbCircle
 10
16.58360655430823
 20
8.562500053532406
 30
0.0
 40
0.2625
100
AcDbArc
 50
180.0
 51
270.0
  0
LINE
  5
C30
330
1A
100
AcDbEntity
  8
ZUWAKU
100
AcDbLine
 10
15.1836065543082
 20
3.575000053532406
 30
0.0
 11
16.05860655430819
 21
3.575000053532406
 31
0.0
  0
ARC
  5
C31
330
1A
100
AcDbEntity
  8
ZUWAKU
100
AcDbCircle
 10
16.05860655430819
 20
3.837500053532405
 30
0.0
 40
0.2625
100
AcDbArc
 50
270.0
 51
0.0
  0
LINE
  5
C32
330
1A
100
AcDbEntity
  8
ZUWAKU
100
AcDbLine
 10
16.32110655430824
 20
3.837500053532405
 30
0.0
 11
16.32110655430824
 21
6.637500053532406
 31
0.0
  0
LINE
  5
C33
330
1A
100
AcDbEntity
  8
ZUWAKU
100
AcDbLine
 10
13.69610655430824
 20
4.712500053532405
 30
0.0
 11
13.69610655430824
 21
3.837500053532405
 31
0.0
  0
ARC
  5
C34
330
1A
100
AcDbEntity
  8
ZUWAKU
100
AcDbCircle
 10
13.43360655430819
 20
3.837500053532405
 30
0.0
 40
0.2625
100
AcDbArc
 50
270.0
 51
0.0
  0
ARC
  5
C35
330
1A
100
AcDbEntity
  8
ZUWAKU
100
AcDbCircle
 10
13.43360655430819
 20
4.712500053532405
 30
0.0
 40
0.2625
100
AcDbArc
 50
0.0
 51
90.0
  0
ARC
  5
C36
330
1A
100
AcDbEntity
  8
ZUWAKU
100
AcDbCircle
 10
15.1836065543082
 20
3.837500053532405
 30
0.0
 40
0.2625
100
AcDbArc
 50
180.0
 51
270.0
  0
ARC
  5
C37
330
1A
100
AcDbEntity
  8
ZUWAKU
100
AcDbCircle
 10
16.65372363605257
 20
6.637500053532406
 30
0.0
 40
0.2625
100
AcDbArc
 50
17.52556837372303
 51
90.0
  0
ARC
  5
C38
330
1A
100
AcDbEntity
  8
ZUWAKU
100
AcDbCircle
 10
16.58360655430823
 20
6.637500053532406
 30
0.0
 40
0.2625
100
AcDbArc
 50
90.0
 51
180.0
  0
ARC
  5
C39
330
1A
100
AcDbEntity
  8
ZUWAKU
100
AcDbCircle
 10
20.60860655430821
 20
3.837500053532405
 30
0.0
 40
0.2625
100
AcDbArc
 50
180.0
 51
270.0
  0
LINE
  5
C3A
330
1A
100
AcDbEntity
  8
ZUWAKU
100
AcDbLine
 10
18.08848947256388
 20
3.575000053532406
 30
0.0
 11
18.93793416236837
 21
3.575000053532406
 31
0.0
  0
ARC
  5
C3B
330
1A
100
AcDbEntity
  8
ZUWAKU
100
AcDbCircle
 10
18.93793416236837
 20
3.837500053532405
 30
0.0
 40
0.2625
100
AcDbArc
 50
270.0
 51
17.52556837372303
  0
LINE
  5
C3C
330
1A
100
AcDbEntity
  8
ZUWAKU
100
AcDbLine
 10
19.18824961196611
 20
3.916547037615892
 30
0.0
 11
18.02505392272928
 21
7.600000053532415
 31
0.0
  0
ARC
  5
C3D
330
1A
100
AcDbEntity
  8
ZUWAKU
100
AcDbCircle
 10
18.08848947256388
 20
3.837500053532405
 30
0.0
 40
0.2625
100
AcDbArc
 50
197.525568373723
 51
270.0
  0
ARC
  5
C3E
330
1A
100
AcDbEntity
  8
ZUWAKU
100
AcDbCircle
 10
28.92110655430821
 20
4.975000053532404
 30
0.0
 40
1.399999999999999
100
AcDbArc
 50
180.0
 51
270.0
  0
ARC
  5
C3F
330
1A
100
AcDbEntity
  8
ZUWAKU
100
AcDbCircle
 10
25.07110655430824
 20
4.975000053532404
 30
0.0
 40
1.399999999999999
100
AcDbArc
 50
270.0
 51
0.0
  0
LINE
  5
C40
330
1A
100
AcDbEntity
  8
ZUWAKU
100
AcDbLine
 10
25.8560307948
 20
7.367525306701818
 30
0.0
 11
24.40113180747761
 21
8.822424294024155
 31
0.0
  0
LINE
  5
C41
330
1A
100
AcDbEntity
  8
ZUWAKU
100
AcDbLine
 10
25.07110655430824
 20
5.237500053532407
 30
0.0
 11
25.07110655430824
 21
5.882601066210078
 31
0.0
  0
ARC
  5
C42
330
1A
100
AcDbEntity
  8
ZUWAKU
100
AcDbCircle
 10
24.37110655430819
 20
5.882601066210078
 30
0.0
 40
0.7
100
AcDbArc
 50
0.0
 51
45.0
  0
ARC
  5
C43
330
1A
100
AcDbEntity
  8
ZUWAKU
100
AcDbCircle
 10
24.8086065543082
 20
5.237500053532407
 30
0.0
 40
0.2625
100
AcDbArc
 50
270.0
 51
0.0
  0
LINE
  5
C44
330
1A
100
AcDbEntity
  8
ZUWAKU
100
AcDbLine
 10
23.05860655430819
 20
3.837500053532405
 30
0.0
 11
23.05860655430819
 21
4.712500053532405
 31
0.0
  0
ARC
  5
C45
330
1A
100
AcDbEntity
  8
ZUWAKU
100
AcDbCircle
 10
23.32110655430824
 20
3.837500053532405
 30
0.0
 40
0.2625
100
AcDbArc
 50
180.0
 51
270.0
  0
ARC
  5
C46
330
1A
100
AcDbEntity
  8
ZUWAKU
100
AcDbCircle
 10
21.4836065543082
 20
3.837500053532405
 30
0.0
 40
0.2625
100
AcDbArc
 50
270.0
 51
0.0
  0
ARC
  5
C47
330
1A
100
AcDbEntity
  8
ZUWAKU
100
AcDbCircle
 10
23.32110655430824
 20
4.712500053532405
 30
0.0
 40
0.2625
100
AcDbArc
 50
90.0
 51
180.0
  0
LINE
  5
C48
330
1A
100
AcDbEntity
  8
ZUWAKU
100
AcDbLine
 10
23.32110655430824
 20
4.975000053532404
 30
0.0
 11
24.8086065543082
 21
4.975000053532404
 31
0.0
  0
LINE
  5
C49
330
1A
100
AcDbEntity
  8
ZUWAKU
100
AcDbLine
 10
23.32110655430824
 20
3.575000053532406
 30
0.0
 11
25.07110655430824
 21
3.575000053532406
 31
0.0
  0
LINE
  5
C4A
330
1A
100
AcDbEntity
  8
ZUWAKU
100
AcDbLine
 10
23.41118231381648
 20
7.832474800362994
 30
0.0
 11
24.86608130113882
 21
6.377575813040664
 31
0.0
  0
LINE
  5
C4B
330
1A
100
AcDbEntity
  8
ZUWAKU
100
AcDbLine
 10
26.47110655430822
 20
4.975000053532404
 30
0.0
 11
26.47110655430822
 21
5.882601066210078
 31
0.0
  0
ARC
  5
C4C
330
1A
100
AcDbEntity
  8
ZUWAKU
100
AcDbCircle
 10
24.37110655430819
 20
5.882601066210057
 30
0.0
 40
2.099999999999999
100
AcDbArc
 50
0.0
 51
45.0
  0
ARC
  5
C4D
330
1A
100
AcDbEntity
  8
ZUWAKU
100
AcDbCircle
 10
29.44610655430824
 20
5.500000053532403
 30
0.0
 40
0.525
100
AcDbArc
 50
180.0
 51
270.0
  0
ARC
  5
C4E
330
1A
100
AcDbEntity
  8
ZUWAKU
100
AcDbCircle
 10
30.67110655430821
 20
4.975000053532404
 30
0.0
 40
1.399999999999999
100
AcDbArc
 50
270.0
 51
0.0
  0
LINE
  5
C4F
330
1A
100
AcDbEntity
  8
ZUWAKU
100
AcDbLine
 10
33.38360655430824
 20
3.575000053532406
 30
0.0
 11
34.25860655430824
 21
3.575000053532406
 31
0.0
  0
ARC
  5
C50
330
1A
100
AcDbEntity
  8
ZUWAKU
100
AcDbCircle
 10
33.38360655430824
 20
3.837500053532405
 30
0.0
 40
0.2625
100
AcDbArc
 50
180.0
 51
270.0
  0
ARC
  5
C51
330
1A
100
AcDbEntity
  8
ZUWAKU
100
AcDbCircle
 10
30.14610655430823
 20
5.500000053532403
 30
0.0
 40
0.525
100
AcDbArc
 50
270.0
 51
0.0
  0
ARC
  5
C52
330
1A
100
AcDbEntity
  8
ZUWAKU
100
AcDbCircle
 10
34.25860655430824
 20
3.837500053532405
 30
0.0
 40
0.2625
100
AcDbArc
 50
270.0
 51
0.0
  0
LINE
  5
C53
330
1A
100
AcDbEntity
  8
ZUWAKU
100
AcDbLine
 10
21.4836065543082
 20
11.6250000535324
 30
0.0
 11
20.60860655430821
 21
11.6250000535324
 31
0.0
  0
ARC
  5
C54
330
1A
100
AcDbEntity
  8
ZUWAKU
100
AcDbCircle
 10
16.05860655430819
 20
11.3625000535324
 30
0.0
 40
0.2625
100
AcDbArc
 50
0.0
 51
90.0
  0
LINE
  5
C55
330
1A
100
AcDbEntity
  8
ZUWAKU
100
AcDbLine
 10
16.05860655430819
 20
11.6250000535324
 30
0.0
 11
15.1836065543082
 21
11.6250000535324
 31
0.0
  0
ARC
  5
C56
330
1A
100
AcDbEntity
  8
ZUWAKU
100
AcDbCircle
 10
13.43360655430819
 20
11.3625000535324
 30
0.0
 40
0.2625
100
AcDbArc
 50
0.0
 51
90.0
  0
ARC
  5
C57
330
1A
100
AcDbEntity
  8
ZUWAKU
100
AcDbCircle
 10
15.1836065543082
 20
11.3625000535324
 30
0.0
 40
0.2625
100
AcDbArc
 50
90.0
 51
180.0
  0
ARC
  5
C58
330
1A
100
AcDbEntity
  8
ZUWAKU
100
AcDbCircle
 10
13.43360655430819
 20
10.4875000535324
 30
0.0
 40
0.2625
100
AcDbArc
 50
270.0
 51
0.0
  0
LINE
  5
C59
330
1A
100
AcDbEntity
  8
ZUWAKU
100
AcDbLine
 10
13.69610655430824
 20
11.3625000535324
 30
0.0
 11
13.69610655430824
 21
10.4875000535324
 31
0.0
  0
ARC
  5
C5A
330
1A
100
AcDbEntity
  8
ZUWAKU
100
AcDbCircle
 10
20.60860655430821
 20
11.3625000535324
 30
0.0
 40
0.2625
100
AcDbArc
 50
90.0
 51
180.0
  0
LINE
  5
C5B
330
1A
100
AcDbEntity
  8
ZUWAKU
100
AcDbLine
 10
18.08848947256388
 20
11.6250000535324
 30
0.0
 11
18.93793416236837
 21
11.6250000535324
 31
0.0
  0
ARC
  5
C5C
330
1A
100
AcDbEntity
  8
ZUWAKU
100
AcDbCircle
 10
18.93793416236837
 20
11.3625000535324
 30
0.0
 40
0.2625
100
AcDbArc
 50
342.4744316262769
 51
90.0
  0
LINE
  5
C5D
330
1A
100
AcDbEntity
  8
ZUWAKU
100
AcDbLine
 10
19.18824961196611
 20
11.28345306944892
 30
0.0
 11
18.6574297953972
 21
9.602523650314118
 31
0.0
  0
ARC
  5
C5E
330
1A
100
AcDbEntity
  8
ZUWAKU
100
AcDbCircle
 10
18.08848947256388
 20
11.3625000535324
 30
0.0
 40
0.2625
100
AcDbArc
 50
90.0
 51
162.4744316262769
  0
LINE
  5
C5F
330
1A
100
AcDbEntity
  8
ZUWAKU
100
AcDbLine
 10
24.19610655430824
 20
11.6250000535324
 30
0.0
 11
25.94610655430824
 21
11.6250000535324
 31
0.0
  0
LINE
  5
C60
330
1A
100
AcDbEntity
  8
ZUWAKU
100
AcDbLine
 10
25.94610655430824
 20
10.2250000535324
 30
0.0
 11
24.45860655430823
 21
10.2250000535324
 31
0.0
  0
ARC
  5
C61
330
1A
100
AcDbEntity
  8
ZUWAKU
100
AcDbCircle
 10
24.45860655430823
 20
9.962500053532405
 30
0.0
 40
0.2625
100
AcDbArc
 50
90.0
 51
180.0
  0
LINE
  5
C62
330
1A
100
AcDbEntity
  8
ZUWAKU
100
AcDbLine
 10
24.19610655430824
 20
9.962500053532405
 30
0.0
 11
24.19610655430824
 21
9.317399040854734
 31
0.0
  0
ARC
  5
C63
330
1A
100
AcDbEntity
  8
ZUWAKU
100
AcDbCircle
 10
21.4836065543082
 20
11.3625000535324
 30
0.0
 40
0.2625
100
AcDbArc
 50
0.0
 51
90.0
  0
LINE
  5
C64
330
1A
100
AcDbEntity
  8
ZUWAKU
100
AcDbLine
 10
22.79610655430821
 20
10.2250000535324
 30
0.0
 11
22.79610655430821
 21
9.317399040854734
 31
0.0
  0
ARC
  5
C65
330
1A
100
AcDbEntity
  8
ZUWAKU
100
AcDbCircle
 10
24.19610655430824
 20
10.2250000535324
 30
0.0
 40
1.399999999999999
100
AcDbArc
 50
90.0
 51
180.0
  0
ARC
  5
C66
330
1A
100
AcDbEntity
  8
ZUWAKU
100
AcDbCircle
 10
28.65860655430822
 20
11.3625000535324
 30
0.0
 40
0.2625
100
AcDbArc
 50
0.0
 51
90.0
  0
ARC
  5
C67
330
1A
100
AcDbEntity
  8
ZUWAKU
100
AcDbCircle
 10
27.78360655430822
 20
11.3625000535324
 30
0.0
 40
0.2625
100
AcDbArc
 50
90.0
 51
180.0
  0
LINE
  5
C68
330
1A
100
AcDbEntity
  8
ZUWAKU
100
AcDbLine
 10
28.65860655430822
 20
11.6250000535324
 30
0.0
 11
27.78360655430822
 21
11.6250000535324
 31
0.0
  0
ARC
  5
C69
330
1A
100
AcDbEntity
  8
ZUWAKU
100
AcDbCircle
 10
25.94610655430824
 20
11.3625000535324
 30
0.0
 40
0.2625
100
AcDbArc
 50
0.0
 51
90.0
  0
ARC
  5
C6A
330
1A
100
AcDbEntity
  8
ZUWAKU
100
AcDbCircle
 10
25.94610655430824
 20
10.4875000535324
 30
0.0
 40
0.2625
100
AcDbArc
 50
270.0
 51
0.0
  0
LINE
  5
C6B
330
1A
100
AcDbEntity
  8
ZUWAKU
100
AcDbLine
 10
26.20860655430823
 20
11.3625000535324
 30
0.0
 11
26.20860655430823
 21
10.4875000535324
 31
0.0
  0
LINE
  5
C6C
330
1A
100
AcDbEntity
  8
ZUWAKU
100
AcDbLine
 10
34.25860655430824
 20
11.6250000535324
 30
0.0
 11
33.38360655430824
 21
11.6250000535324
 31
0.0
  0
ARC
  5
C6D
330
1A
100
AcDbEntity
  8
ZUWAKU
100
AcDbCircle
 10
33.38360655430824
 20
11.3625000535324
 30
0.0
 40
0.2625
100
AcDbArc
 50
90.0
 51
180.0
  0
ARC
  5
C6E
330
1A
100
AcDbEntity
  8
ZUWAKU
100
AcDbCircle
 10
31.80860655430819
 20
11.3625000535324
 30
0.0
 40
0.2625
100
AcDbArc
 50
0.0
 51
90.0
  0
LINE
  5
C6F
330
1A
100
AcDbEntity
  8
ZUWAKU
100
AcDbLine
 10
31.80860655430819
 20
11.6250000535324
 30
0.0
 11
30.93360655430819
 21
11.6250000535324
 31
0.0
  0
ARC
  5
C70
330
1A
100
AcDbEntity
  8
ZUWAKU
100
AcDbCircle
 10
30.93360655430819
 20
11.3625000535324
 30
0.0
 40
0.2625
100
AcDbArc
 50
90.0
 51
180.0
  0
ARC
  5
C71
330
1A
100
AcDbEntity
  8
ZUWAKU
100
AcDbCircle
 10
34.25860655430824
 20
11.3625000535324
 30
0.0
 40
0.2625
100
AcDbArc
 50
0.0
 51
90.0
  0
TEXT
  5
C72
330
1A
100
AcDbEntity
  8
moji
100
AcDbText
 10
114.8648660535826
 20
2.443493511105479
 30
0.0
 40
2.799999999999999
  1
ＵＴ６０（打込Ｌ１２０）
 41
0.9
  7
ｽﾀｲﾙ1
100
AcDbText
  0
TEXT
  5
C73
330
1A
100
AcDbEntity
  8
moji
100
AcDbText
 10
114.8648660535826
 20
9.843493511105464
 30
0.0
 40
2.799999999999999
  1
ブラケットデンデン（打込）
 41
0.9
  7
ｽﾀｲﾙ1
100
AcDbText
  0
LINE
  5
C74
330
1A
100
AcDbEntity
  8
ZUWAKU
100
AcDbLine
 10
104.1233011219516
 20
15.0000000535324
 30
0.0
 11
104.1233011219516
 21
0.4000000535324375
 31
0.0
  0
LINE
  5
C75
330
1A
100
AcDbEntity
  8
ZUWAKU
100
AcDbLine
 10
104.3233011219515
 20
15.0000000535324
 30
0.0
 11
104.3233011219516
 21
0.4000000535324375
 31
0.0
  0
LINE
  5
C76
330
1A
100
AcDbEntity
  8
ZUWAKU
100
AcDbLine
 10
104.2233011219515
 20
15.0000000535324
 30
0.0
 11
104.2233011219516
 21
0.4000000535324375
 31
0.0
  0
TEXT
  5
C77
330
1A
100
AcDbEntity
  8
ZUWAKU
100
AcDbText
 10
104.8620236330564
 20
4.827678322725212
 30
0.0
 40
2.0
  1
サイズ
 41
0.9
  7
ｽﾀｲﾙ1
100
AcDbText
  0
TEXT
  5
C78
330
1A
100
AcDbEntity
  8
ZUWAKU
100
AcDbText
 10
104.8620236330563
 20
12.02767832272519
 30
0.0
 40
2.0
  1
品名
 41
0.9
  7
ｽﾀｲﾙ1
100
AcDbText
  0
LINE
  5
C79
330
1A
100
AcDbEntity
  8
ZUWAKU
100
AcDbLine
 10
324.4086017320197
 20
7.600000053532419
 30
0.0
 11
348.6245057511883
 21
7.60000005353242
 31
0.0
  0
LINE
  5
C7A
330
1A
100
AcDbEntity
  8
ZUWAKU
100
AcDbLine
 10
324.4086017320198
 20
7.700000053532422
 30
0.0
 11
348.6245057511883
 21
7.70000005353242
 31
0.0
  0
LINE
  5
C7B
330
1A
100
AcDbEntity
  8
ZUWAKU
100
AcDbLine
 10
324.4086017320197
 20
7.80000005353242
 30
0.0
 11
348.6245057511883
 21
7.80000005353242
 31
0.0
  0
TEXT
  5
C7C
330
1A
100
AcDbEntity
  8
ZUWAKU
100
AcDbText
 10
329.1019693205688
 20
9.002460582236096
 30
0.0
 40
2.799999999999999
  1
　　．　　．　　
 41
0.9
  7
ｽﾀｲﾙ1
100
AcDbText
  0
LINE
  5
C7D
330
1A
100
AcDbEntity
  8
ZUWAKU
100
AcDbLine
 10
252.5995902259881
 20
7.600000053532422
 30
0.0
 11
276.2634783599738
 21
7.600000053532422
 31
0.0
  0
LINE
  5
C7E
330
1A
100
AcDbEntity
  8
ZUWAKU
100
AcDbLine
 10
252.5995902259881
 20
7.70000005353242
 30
0.0
 11
276.2634783599738
 21
7.70000005353242
 31
0.0
  0
LINE
  5
C7F
330
1A
100
AcDbEntity
  8
ZUWAKU
100
AcDbLine
 10
252.5995902259881
 20
7.80000005353242
 30
0.0
 11
276.2634783599738
 21
7.80000005353242
 31
0.0
  0
TEXT
  5
C80
330
1A
100
AcDbEntity
  8
moji
100
AcDbText
 10
231.6232164724187
 20
5.971308914362396
 30
0.0
 40
2.799999999999999
  1
ＬＭ７８□
 41
0.9
  7
ｽﾀｲﾙ1
100
AcDbText
  0
LINE
  5
C81
330
1A
100
AcDbEntity
  8
ZUWAKU
100
AcDbLine
 10
223.8121824624132
 20
15.0000000535324
 30
0.0
 11
223.8121824624133
 21
0.4000000535324375
 31
0.0
  0
LINE
  5
C82
330
1A
100
AcDbEntity
  8
ZUWAKU
100
AcDbLine
 10
223.9121824624132
 20
15.0000000535324
 30
0.0
 11
223.9121824624134
 21
0.4000000535324375
 31
0.0
  0
LINE
  5
C83
330
1A
100
AcDbEntity
  8
ZUWAKU
100
AcDbLine
 10
223.7121824624133
 20
15.0000000535324
 30
0.0
 11
223.7121824624133
 21
0.4000000535324375
 31
0.0
  0
TEXT
  5
C84
330
1A
100
AcDbEntity
  8
moji
100
AcDbText
 10
264.020454463074
 20
9.002460582236096
 30
0.0
 40
2.799999999999999
  1
Ａ３
 41
0.9
  7
ｽﾀｲﾙ1
100
AcDbText
  0
LINE
  5
C85
330
1A
100
AcDbEntity
  8
ZUWAKU
100
AcDbLine
 10
252.499590225988
 20
15.0000000535324
 30
0.0
 11
252.4995902259882
 21
0.4000000535324375
 31
0.0
  0
LINE
  5
C86
330
1A
100
AcDbEntity
  8
ZUWAKU
100
AcDbLine
 10
252.5995902259881
 20
15.0000000535324
 30
0.0
 11
252.5995902259882
 21
0.4000000535324375
 31
0.0
  0
LINE
  5
C87
330
1A
100
AcDbEntity
  8
ZUWAKU
100
AcDbLine
 10
252.3995902259881
 20
15.0000000535324
 30
0.0
 11
252.3995902259881
 21
0.4000000535324375
 31
0.0
  0
TEXT
  5
C88
330
1A
100
AcDbEntity
  8
ZUWAKU
100
AcDbText
 10
230.6528771881791
 20
1.307035509102149
 30
0.0
 40
1.5
  1
□には色品番が入ります
 41
0.9
  7
ｽﾀｲﾙ1
100
AcDbText
  0
TEXT
  5
C89
330
1A
100
AcDbEntity
  8
ZUWAKU
100
AcDbText
 10
253.338312737093
 20
4.827678322725212
 30
0.0
 40
2.0
  1
縮尺
 41
0.9
  7
ｽﾀｲﾙ1
100
AcDbText
  0
TEXT
  5
C8A
330
1A
100
AcDbEntity
  8
moji
100
AcDbText
 10
264.020454463074
 20
1.602460582236114
 30
0.0
 40
2.799999999999999
  1
１/１
 41
0.9
  7
ｽﾀｲﾙ1
100
AcDbText
  0
TEXT
  5
C8B
330
1A
100
AcDbEntity
  8
ZUWAKU
100
AcDbText
 10
224.650904973518
 20
12.02767832272519
 30
0.0
 40
2.0
  1
品番
 41
0.9
  7
ｽﾀｲﾙ1
100
AcDbText
  0
TEXT
  5
C8C
330
1A
100
AcDbEntity
  8
ZUWAKU
100
AcDbText
 10
253.3383127370929
 20
12.02767832272519
 30
0.0
 40
2.0
  1
用紙
 41
0.9
  7
ｽﾀｲﾙ1
100
AcDbText
  0
LINE
  5
C8D
330
1A
100
AcDbEntity
  8
ZUWAKU
100
AcDbLine
 10
324.3086017320198
 20
15.0000000535324
 30
0.0
 11
324.3086017320199
 21
0.4000000535324375
 31
0.0
  0
LINE
  5
C8E
330
1A
100
AcDbEntity
  8
ZUWAKU
100
AcDbLine
 10
324.4086017320198
 20
15.0000000535324
 30
0.0
 11
324.4086017320199
 21
0.4000000535324375
 31
0.0
  0
LINE
  5
C8F
330
1A
100
AcDbEntity
  8
ZUWAKU
100
AcDbLine
 10
324.2086017320199
 20
15.0000000535324
 30
0.0
 11
324.2086017320199
 21
0.4000000535324375
 31
0.0
  0
LINE
  5
C90
330
1A
100
AcDbEntity
  8
ZUWAKU
100
AcDbLine
 10
276.3634783599737
 20
15.0000000535324
 30
0.0
 11
276.3634783599739
 21
0.4000000535324375
 31
0.0
  0
LINE
  5
C91
330
1A
100
AcDbEntity
  8
ZUWAKU
100
AcDbLine
 10
276.4634783599738
 20
15.0000000535324
 30
0.0
 11
276.4634783599739
 21
0.4000000535324375
 31
0.0
  0
LINE
  5
C92
330
1A
100
AcDbEntity
  8
ZUWAKU
100
AcDbLine
 10
276.2634783599738
 20
15.0000000535324
 30
0.0
 11
276.2634783599738
 21
0.4000000535324375
 31
0.0
  0
TEXT
  5
C93
330
1A
100
AcDbEntity
  8
ZUWAKU
100
AcDbText
 10
325.1473242431246
 20
12.02767832272519
 30
0.0
 40
2.0
  1
DATE
 41
0.9
  7
ｽﾀｲﾙ1
100
AcDbText
  0
LINE
  5
C94
330
1A
100
AcDbEntity
  8
ZUWAKU
100
AcDbLine
 10
348.6245057511883
 20
15.0000000535324
 30
0.0
 11
348.6245057511883
 21
0.4000000535324375
 31
0.0
  0
LINE
  5
C95
330
1A
100
AcDbEntity
  8
ZUWAKU
100
AcDbLine
 10
348.7245057511882
 20
15.0000000535324
 30
0.0
 11
348.7245057511882
 21
0.4000000535324375
 31
0.0
  0
LINE
  5
C96
330
1A
100
AcDbEntity
  8
ZUWAKU
100
AcDbLine
 10
348.8245057511882
 20
15.0000000535324
 30
0.0
 11
348.8245057511883
 21
0.4000000535324375
 31
0.0
  0
LINE
  5
C97
330
1A
100
AcDbEntity
  8
ZUWAKU
100
AcDbLine
 10
348.9245057511882
 20
15.0000000535324
 30
0.0
 11
348.9245057511883
 21
0.4000000535324375
 31
0.0
  0
TEXT
  5
C98
330
1A
100
AcDbEntity
  8
ZUWAKU
100
AcDbText
 10
353.5640261147642
 20
6.195244405953246
 30
0.0
 40
3.0
  1
積水化学工業株式会社
 41
0.9
  7
ｽﾀｲﾙ1
100
AcDbText
  0
LINE
  5
E2B
330
1A
100
AcDbEntity
  8
SEIHIN
100
AcDbLine
 10
198.4606241584491
 20
202.885118393091
 30
0.0
 11
187.4606241584487
 21
202.885118393091
 31
0.0
  0
LINE
  5
E2C
330
1A
100
AcDbEntity
  8
SEIHIN
100
AcDbLine
 10
198.4606241584492
 20
198.3851183930909
 30
0.0
 11
187.4606241584488
 21
198.3851183930909
 31
0.0
  0
LINE
  5
E2D
330
1A
100
AcDbEntity
  8
SEIHIN
100
AcDbLine
 10
198.4606241584492
 20
104.6373689823409
 30
0.0
 11
187.4606241584488
 21
104.6373689823409
 31
0.0
  0
LINE
  5
E2E
330
1A
100
AcDbEntity
  8
SEIHIN
100
AcDbLine
 10
198.4606241584491
 20
109.137368982341
 30
0.0
 11
187.4606241584487
 21
109.137368982341
 31
0.0
  0
DIMENSION
  5
E2F
330
1A
100
AcDbEntity
  8
SUNPOU
100
AcDbDimension
  2
*D1
 10
199.4613377006014
 20
64.50989844072347
 30
0.0
 11
187.4613374775056
 21
67.50989844072347
 31
0.0
 70
    32
 71
     5
 42
-1.0
  3
STANDARD
100
AcDbAlignedDimension
 13
175.4613372544098
 23
106.887368982341
 33
0.0
 14
199.4613377006014
 24
104.3371806414723
 34
0.0
100
AcDbRotatedDimension
  0
DIMENSION
  5
E30
330
1A
100
AcDbEntity
  8
SUNPOU
100
AcDbDimension
  2
*D2
 10
295.4613372544098
 20
132.5731286162831
 30
0.0
 11
250.4579684807143
 21
132.5731286162831
 31
0.0
 70
   160
 71
     5
 42
-1.0
  3
STANDARD
100
AcDbAlignedDimension
 13
187.461270158449
 23
113.8873689823409
 33
0.0
 14
295.4613372544098
 24
106.8874619894601
 34
0.0
100
AcDbRotatedDimension
  0
DIMENSION
  5
E31
330
1A
100
AcDbEntity
  8
SUNPOU
100
AcDbDimension
  2
*D3
 10
112.4613495100339
 20
158.048221889728
 30
0.0
 11
203.9610219536506
 21
161.048221889728
 31
0.0
 70
    32
 71
     5
 42
-1.0
  3
STANDARD
100
AcDbAlignedDimension
 13
295.4606943972673
 23
106.8873619894601
 33
0.0
 14
112.4613495100339
 24
106.887368982341
 34
0.0
100
AcDbRotatedDimension
  0
LINE
  5
E32
330
1A
100
AcDbEntity
  8
CENTER L
100
AcDbLine
 10
108.2425701584489
 20
200.635118393091
 30
0.0
 11
301.8472130611776
 21
200.6353183930911
 31
0.0
  0
LINE
  5
E33
330
1A
100
AcDbEntity
  8
CENTER L
100
AcDbLine
 10
108.2425701584489
 20
106.887368982341
 30
0.0
 11
304.8586906736673
 21
106.887368982341
 31
0.0
  0
ARC
  5
E34
330
1A
100
AcDbEntity
  8
SEIHIN
100
AcDbCircle
 10
145.4613524336717
 20
106.8873526705539
 30
0.0
 40
30.00000073140751
100
AcDbArc
 50
52.16033571668043
 51
213.0852380821509
  0
DIMENSION
  5
E35
330
1A
100
AcDbEntity
  8
SUNPOU
100
AcDbDimension
  2
*D4
 10
129.4057576403428
 20
81.54533450731669
 30
0.0
 11
151.5536848022122
 21
123.6092805089409
 31
0.0
 70
   163
 71
     5
 42
-1.0
  3
STANDARD
100
AcDbDiametricDimension
 15
161.0946168161301
 25
132.4969833133587
 35
0.0
 40
0.0
1001
ACAD
1000
DSTYLE
1002
{
1070
   287
1070
     5
1070
   287
1070
     5
1070
   287
1070
     5
1070
   287
1070
     5
1070
   287
1070
     5
1070
   287
1070
     5
1070
    41
1040
3.0
1070
    42
1040
3.0
1070
    43
1040
7.0
1070
    44
1040
1.5
1070
    73
1070
     0
1070
    74
1070
     0
1070
    77
1070
     3
1070
   140
1040
3.0
1070
   141
1040
150.0
1070
   147
1040
1.0
1070
   172
1070
     1
1070
   173
1070
     1
1070
   176
1070
     4
1070
   177
1070
     4
1070
   178
1070
     4
1070
   271
1070
     0
1070
   272
1070
     2
1070
   279
1070
     2
1070
   288
1070
     1
1070
     6
1000
OPEN
1070
     7
1000
OPEN
1002
}
  0
ARC
  5
E36
330
1A
100
AcDbEntity
  8
SEIHIN
100
AcDbCircle
 10
145.4613671328002
 20
106.8873695170731
 30
0.0
 40
30.00002224349183
100
AcDbArc
 50
213.0852497150278
 51
306.8696342758285
  0
ARC
  5
E37
330
1A
100
AcDbEntity
  8
SEIHIN
100
AcDbCircle
 10
145.4613711039266
 20
106.8873785029564
 30
0.0
 40
31.99997718139744
100
AcDbArc
 50
53.55147222774998
 51
295.1057878214037
  0
ARC
  5
E38
330
1A
100
AcDbEntity
  8
SEIHIN
100
AcDbCircle
 10
145.4613695540413
 20
106.8873604601555
 30
0.0
 40
33.00002004400853
100
AcDbArc
 50
57.36670176691594
 51
294.5198742614921
  0
ARC
  5
E39
330
1A
100
AcDbEntity
  8
SEIHIN
100
AcDbCircle
 10
145.4613193830657
 20
106.8872738633982
 30
0.0
 40
32.99996009043882
100
AcDbArc
 50
319.4932748642852
 51
344.3196557287436
  0
ARC
  5
E3A
330
1A
100
AcDbEntity
  8
SEIHIN
100
AcDbCircle
 10
145.4613233984978
 20
106.8872843192282
 30
0.0
 40
33.99995498781402
100
AcDbArc
 50
317.8562860592352
 51
344.3197578362928
  0
ARC
  5
E3B
330
1A
100
AcDbEntity
  8
SEIHIN
100
AcDbCircle
 10
145.4613701050851
 20
106.8872046384586
 30
0.0
 40
30.99997257768559
100
AcDbArc
 50
334.2839672106016
 51
25.67937658569761
  0
ARC
  5
E3C
330
1A
100
AcDbEntity
  8
SEIHIN
100
AcDbCircle
 10
145.4613423550416
 20
106.8873156184288
 30
0.0
 40
29.99999399103715
100
AcDbArc
 50
306.8697338965237
 51
358.0900795119251
  0
LINE
  5
E3D
330
1A
100
AcDbEntity
  8
CENTER L
100
AcDbLine
 10
145.4613701584487
 20
69.66676898234107
 30
0.0
 11
145.4613701584487
 21
142.4883689823409
 31
0.0
  0
LINE
  5
E3E
330
1A
100
AcDbEntity
  8
CENTER L
100
AcDbLine
 10
158.8192381404314
 20
78.88736898234106
 30
0.0
 11
176.1033021764664
 21
78.88736898234106
 31
0.0
  0
LINE
  5
E3F
330
1A
100
AcDbEntity
  8
SEIHIN
100
AcDbLine
 10
163.9257701584489
 20
82.42286898234107
 30
0.0
 11
163.4613701584489
 21
82.88736898234105
 31
0.0
  0
LINE
  5
E40
330
1A
100
AcDbEntity
  8
SEIHIN
100
AcDbLine
 10
163.9257701584489
 20
82.42286898234107
 30
0.0
 11
163.4613701584489
 21
82.88736898234105
 31
0.0
  0
ARC
  5
E41
330
1A
100
AcDbEntity
  8
SEIHIN
100
AcDbCircle
 10
163.4612561958786
 20
76.88737649243984
 30
0.0
 40
2.999985585773595
100
AcDbArc
 50
178.3134860220826
 51
305.1375102476067
  0
ARC
  5
E42
330
1A
100
AcDbEntity
  8
SEIHIN
100
AcDbCircle
 10
167.4613103852504
 20
78.88737031386799
 30
0.0
 40
4.999979552968912
100
AcDbArc
 50
135.0003367421488
 51
48.79198948395672
  0
ARC
  5
E43
330
1A
100
AcDbEntity
  8
SEIHIN
100
AcDbCircle
 10
145.4611701584488
 20
106.8873689837067
 30
0.0
 40
28.99998689514277
100
AcDbArc
 50
262.0718546280925
 51
277.9281453719074
  0
LINE
  5
E44
330
1A
100
AcDbEntity
  8
SEIHIN
100
AcDbLine
 10
141.4612701584489
 20
78.16456898234108
 30
0.0
 11
140.4612701584489
 21
77.306968982341
 31
0.0
  0
LINE
  5
E45
330
1A
100
AcDbEntity
  8
SEIHIN
100
AcDbLine
 10
149.461270158449
 20
78.16456898234108
 30
0.0
 11
150.4612701584489
 21
77.306968982341
 31
0.0
  0
ARC
  5
E46
330
1A
100
AcDbEntity
  8
SEIHIN
100
AcDbCircle
 10
159.4629970662116
 20
77.00505131278331
 30
0.0
 40
1.000007787236081
100
AcDbArc
 50
358.3105552467273
 51
115.1078572264342
  0
ARC
  5
E47
330
1A
100
AcDbEntity
  8
SEIHIN
100
AcDbCircle
 10
159.5717923692975
 20
75.95365815343996
 30
0.0
 40
0.9999995899415395
100
AcDbArc
 50
13.49797071584696
 51
114.5207259312739
  0
LINE
  5
E48
330
1A
100
AcDbEntity
  8
CENTER L
100
AcDbLine
 10
167.461270158449
 20
70.2453369643236
 30
0.0
 11
167.461270158449
 21
87.52940100035852
 31
0.0
  0
ARC
  5
E49
330
1A
100
AcDbEntity
  8
SEIHIN
100
AcDbCircle
 10
167.461270158449
 20
78.88736898234106
 30
0.0
 40
2.25
100
AcDbArc
 50
0.0
 51
180.0
  0
ARC
  5
E4A
330
1A
100
AcDbEntity
  8
SEIHIN
100
AcDbCircle
 10
167.461270158449
 20
78.88736898234106
 30
0.0
 40
2.400000000000005
100
AcDbArc
 50
0.0
 51
180.0
  0
ARC
  5
E4B
330
1A
100
AcDbEntity
  8
SEIHIN
100
AcDbCircle
 10
167.461270158449
 20
78.88736898234106
 30
0.0
 40
2.25
100
AcDbArc
 50
180.0
 51
0.0
  0
ARC
  5
E4C
330
1A
100
AcDbEntity
  8
SEIHIN
100
AcDbCircle
 10
167.461270158449
 20
78.88736898234106
 30
0.0
 40
2.400000000000005
100
AcDbArc
 50
180.0
 51
0.0
  0
ARC
  5
E4D
330
1A
100
AcDbEntity
  8
SEIHIN
100
AcDbCircle
 10
171.4125694152775
 20
83.40258174552412
 30
0.0
 40
0.9999483636654158
100
AcDbArc
 50
137.8540164817813
 51
228.8118933489858
  0
ARC
  5
E4E
330
1A
100
AcDbEntity
  8
SEIHIN
100
AcDbCircle
 10
172.0729697108163
 20
84.15357516493202
 30
0.0
 40
2.000042968288538
100
AcDbArc
 50
139.4936021397547
 51
228.7888689713208
  0
ARC
  5
E4F
330
1A
100
AcDbEntity
  8
SEIHIN
100
AcDbCircle
 10
172.4983345051888
 20
93.88734656433825
 30
0.0
 40
0.9999775826328592
100
AcDbArc
 50
270.0020428271258
 51
334.3236382137444
  0
LINE
  5
E50
330
1A
100
AcDbEntity
  8
SEIHIN
100
AcDbLine
 10
171.9943701584488
 20
92.887368982341
 30
0.0
 11
172.4983701584489
 21
92.887368982341
 31
0.0
  0
ARC
  5
E51
330
1A
100
AcDbEntity
  8
SEIHIN
100
AcDbCircle
 10
166.9612712782598
 20
136.1873717610929
 30
0.0
 40
3.999997221248225
100
AcDbArc
 50
90.00001604012124
 51
226.1020726949513
  0
ARC
  5
E52
330
1A
100
AcDbEntity
  8
SEIHIN
100
AcDbCircle
 10
145.4612701584489
 20
106.8873689819995
 30
0.0
 40
28.99998689412843
100
AcDbArc
 50
82.071854627813
 51
97.92814537218701
  0
LINE
  5
E53
330
1A
100
AcDbEntity
  8
SEIHIN
100
AcDbLine
 10
141.4612701584489
 20
135.610168982341
 30
0.0
 11
140.4612701584489
 21
136.467768982341
 31
0.0
  0
LINE
  5
E54
330
1A
100
AcDbEntity
  8
SEIHIN
100
AcDbLine
 10
150.4612701584489
 20
136.467768982341
 30
0.0
 11
149.461270158449
 21
135.610168982341
 31
0.0
  0
LINE
  5
E55
330
1A
100
AcDbEntity
  8
SEIHIN
100
AcDbLine
 10
162.2897701584488
 20
135.274068982341
 30
0.0
 11
163.0669701584488
 21
135.274068982341
 31
0.0
  0
ARC
  5
E56
330
1A
100
AcDbEntity
  8
SEIHIN
100
AcDbCircle
 10
172.4983345051889
 20
119.8873914003438
 30
0.0
 40
0.9999775826328388
100
AcDbArc
 50
25.6763617862621
 51
89.99795717287737
  0
ARC
  5
E57
330
1A
100
AcDbEntity
  8
SEIHIN
100
AcDbCircle
 10
145.4613604145029
 20
106.8873953932072
 30
0.0
 40
29.99997683991848
100
AcDbArc
 50
1.909973085569264
 51
38.59169197789289
  0
ARC
  5
E58
330
1A
100
AcDbEntity
  8
SEIHIN
100
AcDbCircle
 10
145.4614142856817
 20
106.8872779573029
 30
0.0
 40
32.99998828037068
100
AcDbArc
 50
15.68048587942382
 51
36.0463364354521
  0
ARC
  5
E59
330
1A
100
AcDbEntity
  8
SEIHIN
100
AcDbCircle
 10
145.4614126903232
 20
106.8872812480607
 30
0.0
 40
34.00001189145251
100
AcDbArc
 50
15.68051699384277
 51
36.0462186456284
  0
ARC
  5
E5A
330
1A
100
AcDbEntity
  8
SEIHIN
100
AcDbCircle
 10
181.0843909041491
 20
116.8873532585291
 30
0.0
 40
3.999984276242003
100
AcDbArc
 50
195.6804608958081
 51
269.9997028385658
  0
ARC
  5
E5B
330
1A
100
AcDbEntity
  8
SEIHIN
100
AcDbCircle
 10
181.0844060534216
 20
116.8873417762609
 30
0.0
 40
2.999972794134699
100
AcDbArc
 50
195.6797418545529
 51
269.9993144503018
  0
ARC
  5
E5C
330
1A
100
AcDbEntity
  8
SEIHIN
100
AcDbCircle
 10
181.0843909041489
 20
96.88738470615286
 30
0.0
 40
3.999984276241949
100
AcDbArc
 50
90.00029716143084
 51
164.3195391041902
  0
ARC
  5
E5D
330
1A
100
AcDbEntity
  8
SEIHIN
100
AcDbCircle
 10
181.0844060534216
 20
96.88739618842113
 30
0.0
 40
2.999972794134695
100
AcDbArc
 50
90.00068554969812
 51
164.320258145447
  0
ARC
  5
E5E
330
1A
100
AcDbEntity
  8
SEIHIN
100
AcDbCircle
 10
175.4613701584487
 20
106.887368982341
 30
0.0
 40
1.000039449221876
100
AcDbArc
 50
269.0431537514013
 51
90.95684624859858
  0
LINE
  5
E5F
330
1A
100
AcDbEntity
  8
SEIHIN
100
AcDbLine
 10
187.461270158449
 20
99.88736898234106
 30
0.0
 11
187.461270158449
 21
113.8873689823409
 31
0.0
  0
LINE
  5
E60
330
1A
100
AcDbEntity
  8
SEIHIN
100
AcDbLine
 10
187.461270158449
 20
100.887368982341
 30
0.0
 11
181.0843701584489
 21
100.887368982341
 31
0.0
  0
LINE
  5
E61
330
1A
100
AcDbEntity
  8
SEIHIN
100
AcDbLine
 10
187.461270158449
 20
99.88736898234106
 30
0.0
 11
181.0843701584489
 21
99.88736898234106
 31
0.0
  0
LINE
  5
E62
330
1A
100
AcDbEntity
  8
SEIHIN
100
AcDbLine
 10
187.461270158449
 20
112.8873689823409
 30
0.0
 11
181.0843701584489
 21
112.8873689823409
 31
0.0
  0
LINE
  5
E63
330
1A
100
AcDbEntity
  8
SEIHIN
100
AcDbLine
 10
187.461270158449
 20
113.8873689823409
 30
0.0
 11
181.0843701584489
 21
113.8873689823409
 31
0.0
  0
ARC
  5
E64
330
1A
100
AcDbEntity
  8
SEIHIN
100
AcDbCircle
 10
167.4612523418879
 20
132.8873682106358
 30
0.0
 40
3.000017816561054
100
AcDbArc
 50
0.0000147383968669
 51
184.9603249068201
  0
ARC
  5
E65
330
1A
100
AcDbEntity
  8
SEIHIN
100
AcDbCircle
 10
167.4612473425169
 20
132.8873820662204
 30
0.0
 40
3.300017459728334
100
AcDbArc
 50
307.6073004083987
 51
172.7285047839637
  0
ARC
  5
E66
330
1A
100
AcDbEntity
  8
SEIHIN
100
AcDbCircle
 10
167.4612621186149
 20
132.887386474453
 30
0.0
 40
6.299982507893
100
AcDbArc
 50
319.3694333177615
 51
89.99992688097881
  0
ARC
  5
E67
330
1A
100
AcDbEntity
  8
SEIHIN
100
AcDbCircle
 10
167.461263520327
 20
132.8873834244928
 30
0.0
 40
7.299985557851063
100
AcDbArc
 50
319.3703043496418
 51
89.99994789902537
  0
ARC
  5
E68
330
1A
100
AcDbEntity
  8
SEIHIN
100
AcDbCircle
 10
167.4612988753904
 20
132.8874228305553
 30
0.0
 40
2.999971283541721
100
AcDbArc
 50
303.8574870532644
 51
359.9989715650174
  0
ARC
  5
E69
330
1A
100
AcDbEntity
  8
SEIHIN
100
AcDbCircle
 10
171.4889720337466
 20
127.6588844804805
 30
0.0
 40
3.300043063354758
100
AcDbArc
 50
127.6086906608162
 51
218.5930237366747
  0
ARC
  5
E6A
330
1A
100
AcDbEntity
  8
SEIHIN
100
AcDbCircle
 10
166.6255355469854
 20
134.1330701573881
 30
0.0
 40
4.500044480377723
100
AcDbArc
 50
232.2554683416024
 51
303.8563970531148
  0
LINE
  5
E6B
330
1A
100
AcDbEntity
  8
SEIHIN
100
AcDbLine
 10
171.9943701584488
 20
120.887368982341
 30
0.0
 11
172.4983701584489
 21
120.887368982341
 31
0.0
  0
ARC
  5
E6C
330
1A
100
AcDbEntity
  8
SEIHIN
100
AcDbCircle
 10
173.760366903705
 20
127.4825876569924
 30
0.0
 40
1.999976018987851
100
AcDbArc
 50
139.3679774992851
 51
216.0447109784399
  0
ARC
  5
E6D
330
1A
100
AcDbEntity
  8
SEIHIN
100
AcDbCircle
 10
173.7603699353353
 20
127.4826634052389
 30
0.0
 40
0.9999987875029436
100
AcDbArc
 50
139.3673813806752
 51
216.0502910874602
  0
ARC
  5
E6E
330
1A
100
AcDbEntity
  8
SEIHIN
100
AcDbCircle
 10
145.4667986506448
 20
106.8835445556459
 30
0.0
 40
32.99998069950273
100
AcDbArc
 50
54.57400106727025
 51
55.11890506025633
  0
LINE
  5
E6F
330
1A
100
AcDbEntity
  8
SEIHIN
100
AcDbLine
 10
165.182270158449
 20
135.274068982341
 30
0.0
 11
165.6435701584489
 21
135.274068982341
 31
0.0
  0
LINE
  5
E70
330
1A
100
AcDbEntity
  8
SEIHIN
100
AcDbLine
 10
167.461270158449
 20
140.1873689823409
 30
0.0
 11
166.9612701584489
 21
140.1873689823409
 31
0.0
  0
LINE
  5
E71
330
1A
100
AcDbEntity
  8
SEIHIN
100
AcDbLine
 10
167.461270158449
 20
139.1873689823409
 30
0.0
 11
164.3154701584489
 21
139.1873689823409
 31
0.0
  0
LINE
  5
E72
330
1A
100
AcDbEntity
  8
SEIHIN
100
AcDbLine
 10
112.4612701584489
 20
207.1351183930909
 30
0.0
 11
162.9732701584489
 21
207.1351183930909
 31
0.0
  0
LINE
  5
E73
330
1A
100
AcDbEntity
  8
SEIHIN
100
AcDbLine
 10
112.4612701584489
 20
194.135118393091
 30
0.0
 11
162.9732701584489
 21
194.135118393091
 31
0.0
  0
LINE
  5
E74
330
1A
100
AcDbEntity
  8
SEIHIN
100
AcDbLine
 10
113.4612701584489
 20
209.6351183930909
 30
0.0
 11
187.461270158449
 21
209.6351183930909
 31
0.0
  0
LINE
  5
E75
330
1A
100
AcDbEntity
  8
SEIHIN
100
AcDbLine
 10
113.4612701584489
 20
191.635118393091
 30
0.0
 11
187.461270158449
 21
191.635118393091
 31
0.0
  0
DIMENSION
  5
E76
330
1A
100
AcDbEntity
  8
SUNPOU
100
AcDbDimension
  2
*D5
 10
86.851255387733
 20
191.635118393091
 30
0.0
 11
86.85125538773297
 21
201.7166422243594
 31
0.0
 70
   160
 71
     5
 42
-1.0
  3
STANDARD
100
AcDbAlignedDimension
 13
113.4612701584489
 23
209.6351183930909
 33
0.0
 14
113.4612701584489
 24
191.635118393091
 34
0.0
 50
90.0
100
AcDbRotatedDimension
  0
LINE
  5
E77
330
1A
100
AcDbEntity
  8
SEIHIN
100
AcDbLine
 10
112.4612701584489
 20
207.1351183930909
 30
0.0
 11
112.4612701584489
 21
200.635118393091
 31
0.0
  0
LINE
  5
E78
330
1A
100
AcDbEntity
  8
SEIHIN
100
AcDbLine
 10
112.4612701584489
 20
194.135118393091
 30
0.0
 11
112.4612701584489
 21
200.635118393091
 31
0.0
  0
LINE
  5
E79
330
1A
100
AcDbEntity
  8
SEIHIN
100
AcDbLine
 10
113.4612701584489
 20
191.635118393091
 30
0.0
 11
112.4612701584489
 21
194.135118393091
 31
0.0
  0
LINE
  5
E7A
330
1A
100
AcDbEntity
  8
SEIHIN
100
AcDbLine
 10
113.4612701584489
 20
209.6351183930909
 30
0.0
 11
112.4612701584489
 21
207.1351183930909
 31
0.0
  0
LINE
  5
E7B
330
1A
100
AcDbEntity
  8
CENTER L
100
AcDbLine
 10
145.4613701584487
 20
183.8764115815258
 30
0.0
 11
145.4613701584487
 21
218.2920141070831
 31
0.0
  0
LINE
  5
E7C
330
1A
100
AcDbEntity
  8
SEIHIN
100
AcDbLine
 10
162.2897701584488
 20
202.635218393091
 30
0.0
 11
162.2897701584488
 21
200.635218393091
 31
0.0
  0
LINE
  5
E7D
330
1A
100
AcDbEntity
  8
SEIHIN
100
AcDbLine
 10
162.9733701584489
 20
191.635118393091
 30
0.0
 11
162.9733701584489
 21
209.6351183930909
 31
0.0
  0
LINE
  5
E7E
330
1A
100
AcDbEntity
  8
SEIHIN
100
AcDbLine
 10
162.2897701584488
 20
198.635018393091
 30
0.0
 11
162.2897701584488
 21
200.635018393091
 31
0.0
  0
LINE
  5
E7F
330
1A
100
AcDbEntity
  8
SEIHIN
100
AcDbLine
 10
162.2897701584488
 20
198.635118393091
 30
0.0
 11
162.9732701584489
 21
198.635118393091
 31
0.0
  0
LINE
  5
E80
330
1A
100
AcDbEntity
  8
SEIHIN
100
AcDbLine
 10
162.2897701584488
 20
202.6351183930909
 30
0.0
 11
162.9732701584489
 21
202.6351183930909
 31
0.0
  0
LINE
  5
E81
330
1A
100
AcDbEntity
  8
SEIHIN
100
AcDbLine
 10
166.9613701584487
 20
194.135118393091
 30
0.0
 11
187.461270158449
 21
194.135118393091
 31
0.0
  0
LINE
  5
E82
330
1A
100
AcDbEntity
  8
SEIHIN
100
AcDbLine
 10
166.9613701584487
 20
207.1351183930909
 30
0.0
 11
187.461270158449
 21
207.1351183930909
 31
0.0
  0
LINE
  5
E83
330
1A
100
AcDbEntity
  8
SEIHIN
100
AcDbLine
 10
174.7609701584489
 20
207.1351183930909
 30
0.0
 11
174.7609701584489
 21
200.635118393091
 31
0.0
  0
LINE
  5
E84
330
1A
100
AcDbEntity
  8
SEIHIN
100
AcDbLine
 10
166.9613701584487
 20
194.135118393091
 30
0.0
 11
164.4289701584487
 21
191.635118393091
 31
0.0
  0
LINE
  5
E85
330
1A
100
AcDbEntity
  8
SEIHIN
100
AcDbLine
 10
174.7609701584489
 20
194.135118393091
 30
0.0
 11
174.7609701584489
 21
200.635118393091
 31
0.0
  0
LINE
  5
E86
330
1A
100
AcDbEntity
  8
SEIHIN
100
AcDbLine
 10
173.7609701584488
 20
191.635118393091
 30
0.0
 11
174.7609701584489
 21
194.135118393091
 31
0.0
  0
LINE
  5
E87
330
1A
100
AcDbEntity
  8
SEIHIN
100
AcDbLine
 10
166.9613701584487
 20
207.1351183930909
 30
0.0
 11
164.4289701584487
 21
209.6351183930909
 31
0.0
  0
LINE
  5
E88
330
1A
100
AcDbEntity
  8
SEIHIN
100
AcDbLine
 10
173.7609701584488
 20
209.6351183930909
 30
0.0
 11
174.7609701584489
 21
207.1351183930909
 31
0.0
  0
LINE
  5
E89
330
1A
100
AcDbEntity
  8
SEIHIN
100
AcDbLine
 10
187.461270158449
 20
191.635118393091
 30
0.0
 11
187.461270158449
 21
209.6351183930909
 31
0.0
  0
LINE
  5
E8A
330
1A
100
AcDbEntity
  8
SEIHIN
100
AcDbLine
 10
285.4613372544098
 20
106.8874619894601
 30
0.0
 11
295.4613372544098
 21
106.8874619894601
 31
0.0
  0
LINE
  5
E8B
330
1A
100
AcDbEntity
  8
SEIHIN
100
AcDbLine
 10
295.4613372544098
 20
106.8874619894601
 30
0.0
 11
285.4613372544098
 21
109.1373689823409
 31
0.0
  0
LINE
  5
E8C
330
1A
100
AcDbEntity
  8
SEIHIN
100
AcDbLine
 10
295.4613372544098
 20
106.8874619894601
 30
0.0
 11
285.4613372544099
 21
104.6373689823409
 31
0.0
  0
DIMENSION
  5
E8D
330
1A
100
AcDbEntity
  8
SUNPOU
100
AcDbDimension
  2
*D6
 10
324.6108930096133
 20
104.6373689823409
 30
0.0
 11
324.6108930096133
 21
91.68746898234111
 31
0.0
 70
   160
  1
φ <>
 71
     5
 42
-1.0
  3
STANDARD
100
AcDbAlignedDimension
 13
290.2971750717728
 23
109.137368982341
 33
0.0
 14
290.2971750717727
 24
104.6373689823409
 34
0.0
 50
90.0
100
AcDbRotatedDimension
1001
ACAD
1000
DSTYLE
1002
{
1070
   271
1070
     1
1002
}
  0
DIMENSION
  5
E8E
330
1A
100
AcDbEntity
  8
SUNPOU
100
AcDbDimension
  2
*D7
 10
219.4613315685133
 20
64.50989844072347
 30
0.0
 11
214.4613346345573
 21
67.50989844072347
 31
0.0
 70
    32
 71
     5
 42
-1.0
  3
STANDARD
100
AcDbAlignedDimension
 13
209.4613377006014
 23
104.3371936284853
 33
0.0
 14
219.4613315685133
 24
103.5871822011402
 34
0.0
100
AcDbRotatedDimension
  0
DIMENSION
  5
E8F
330
1A
100
AcDbEntity
  8
SUNPOU
100
AcDbDimension
  2
*D8
 10
209.4613377006014
 20
64.50989844072347
 30
0.0
 11
204.4613377006014
 21
67.50989844072347
 31
0.0
 70
    32
 71
     5
 42
-1.0
  3
STANDARD
100
AcDbAlignedDimension
 13
199.4613377006014
 23
104.3371806414723
 33
0.0
 14
209.4613377006014
 24
104.3371936284853
 34
0.0
100
AcDbRotatedDimension
  0
LINE
  5
E90
330
1A
100
AcDbEntity
  8
SEIHIN
100
AcDbLine
 10
285.46133725441
 20
109.1373689823409
 30
0.0
 11
220.4606241584491
 21
109.137368982341
 31
0.0
  0
LINE
  5
E91
330
1A
100
AcDbEntity
  8
SEIHIN
100
AcDbLine
 10
285.4613372544101
 20
104.6373689823409
 30
0.0
 11
220.4606241584492
 21
104.6373689823409
 31
0.0
  0
LINE
  5
E92
330
1A
100
AcDbEntity
  8
SEIHIN
100
AcDbLine
 10
218.4606241584492
 20
104.6373689823409
 30
0.0
 11
210.4606241584492
 21
104.6373689823409
 31
0.0
  0
LINE
  5
E93
330
1A
100
AcDbEntity
  8
SEIHIN
100
AcDbLine
 10
218.4606241584491
 20
109.137368982341
 30
0.0
 11
210.4606241584491
 21
109.137368982341
 31
0.0
  0
LINE
  5
E94
330
1A
100
AcDbEntity
  8
SEIHIN
100
AcDbLine
 10
209.9606241584491
 20
108.8373689823409
 30
0.0
 11
209.9606241584492
 21
104.937368982341
 31
0.0
  0
LINE
  5
E95
330
1A
100
AcDbEntity
  8
SEIHIN
100
AcDbLine
 10
208.9606241584489
 20
108.8373689823409
 30
0.0
 11
208.960624158449
 21
104.937368982341
 31
0.0
  0
LINE
  5
E96
330
1A
100
AcDbEntity
  8
SEIHIN
100
AcDbLine
 10
210.4606241584491
 20
109.137368982341
 30
0.0
 11
210.4606241584492
 21
104.6373689823409
 31
0.0
  0
LINE
  5
E97
330
1A
100
AcDbEntity
  8
SEIHIN
100
AcDbLine
 10
208.4606241584491
 20
109.137368982341
 30
0.0
 11
208.4606241584492
 21
104.6373689823409
 31
0.0
  0
LINE
  5
E98
330
1A
100
AcDbEntity
  8
SEIHIN
100
AcDbLine
 10
199.9606241584492
 20
104.937368982341
 30
0.0
 11
199.9606241584491
 21
108.8373689823409
 31
0.0
  0
LINE
  5
E99
330
1A
100
AcDbEntity
  8
SEIHIN
100
AcDbLine
 10
200.4606241584491
 20
109.137368982341
 30
0.0
 11
200.4606241584492
 21
104.6373689823409
 31
0.0
  0
LINE
  5
E9A
330
1A
100
AcDbEntity
  8
SEIHIN
100
AcDbLine
 10
198.9606241584489
 20
108.8373689823409
 30
0.0
 11
198.960624158449
 21
104.937368982341
 31
0.0
  0
LINE
  5
E9B
330
1A
100
AcDbEntity
  8
SEIHIN
100
AcDbLine
 10
198.4606241584491
 20
109.137368982341
 30
0.0
 11
198.4606241584492
 21
104.6373689823409
 31
0.0
  0
LINE
  5
E9C
330
1A
100
AcDbEntity
  8
SEIHIN
100
AcDbLine
 10
208.4606241584492
 20
104.6373689823409
 30
0.0
 11
200.4606241584492
 21
104.6373689823409
 31
0.0
  0
LINE
  5
E9D
330
1A
100
AcDbEntity
  8
SEIHIN
100
AcDbLine
 10
199.9606241584492
 20
104.937368982341
 30
0.0
 11
200.4606241584492
 21
104.6373689823409
 31
0.0
  0
LINE
  5
E9E
330
1A
100
AcDbEntity
  8
SEIHIN
100
AcDbLine
 10
198.960624158449
 20
104.937368982341
 30
0.0
 11
198.4606241584492
 21
104.6373689823409
 31
0.0
  0
LINE
  5
E9F
330
1A
100
AcDbEntity
  8
SEIHIN
100
AcDbLine
 10
199.9606241584492
 20
104.937368982341
 30
0.0
 11
198.960624158449
 21
104.937368982341
 31
0.0
  0
LINE
  5
EA0
330
1A
100
AcDbEntity
  8
SEIHIN
100
AcDbLine
 10
208.960624158449
 20
104.937368982341
 30
0.0
 11
208.4606241584492
 21
104.6373689823409
 31
0.0
  0
LINE
  5
EA1
330
1A
100
AcDbEntity
  8
SEIHIN
100
AcDbLine
 10
209.9606241584492
 20
104.937368982341
 30
0.0
 11
208.960624158449
 21
104.937368982341
 31
0.0
  0
LINE
  5
EA2
330
1A
100
AcDbEntity
  8
SEIHIN
100
AcDbLine
 10
209.9606241584492
 20
104.937368982341
 30
0.0
 11
210.4606241584492
 21
104.6373689823409
 31
0.0
  0
LINE
  5
EA3
330
1A
100
AcDbEntity
  8
SEIHIN
100
AcDbLine
 10
208.4606241584491
 20
109.137368982341
 30
0.0
 11
200.4606241584491
 21
109.137368982341
 31
0.0
  0
LINE
  5
EA4
330
1A
100
AcDbEntity
  8
SEIHIN
100
AcDbLine
 10
199.9606241584491
 20
108.8373689823409
 30
0.0
 11
200.4606241584491
 21
109.137368982341
 31
0.0
  0
LINE
  5
EA5
330
1A
100
AcDbEntity
  8
SEIHIN
100
AcDbLine
 10
198.9606241584489
 20
108.8373689823409
 30
0.0
 11
198.4606241584491
 21
109.137368982341
 31
0.0
  0
LINE
  5
EA6
330
1A
100
AcDbEntity
  8
SEIHIN
100
AcDbLine
 10
199.9606241584491
 20
108.8373689823409
 30
0.0
 11
198.9606241584489
 21
108.8373689823409
 31
0.0
  0
LINE
  5
EA7
330
1A
100
AcDbEntity
  8
SEIHIN
100
AcDbLine
 10
208.9606241584489
 20
108.8373689823409
 30
0.0
 11
208.4606241584491
 21
109.137368982341
 31
0.0
  0
LINE
  5
EA8
330
1A
100
AcDbEntity
  8
SEIHIN
100
AcDbLine
 10
209.9606241584491
 20
108.8373689823409
 30
0.0
 11
208.9606241584489
 21
108.8373689823409
 31
0.0
  0
LINE
  5
EA9
330
1A
100
AcDbEntity
  8
SEIHIN
100
AcDbLine
 10
209.9606241584491
 20
108.8373689823409
 30
0.0
 11
210.4606241584491
 21
109.137368982341
 31
0.0
  0
LINE
  5
EAA
330
1A
100
AcDbEntity
  8
SEIHIN
100
AcDbLine
 10
220.4606241584491
 20
109.137368982341
 30
0.0
 11
220.4606241584492
 21
104.6373689823409
 31
0.0
  0
LINE
  5
EAB
330
1A
100
AcDbEntity
  8
SEIHIN
100
AcDbLine
 10
219.9606241584491
 20
108.8373689823409
 30
0.0
 11
219.9606241584492
 21
104.9373689823409
 31
0.0
  0
LINE
  5
EAC
330
1A
100
AcDbEntity
  8
SEIHIN
100
AcDbLine
 10
218.9606241584489
 20
108.8373689823409
 30
0.0
 11
218.960624158449
 21
104.9373689823409
 31
0.0
  0
LINE
  5
EAD
330
1A
100
AcDbEntity
  8
SEIHIN
100
AcDbLine
 10
218.4606241584491
 20
109.137368982341
 30
0.0
 11
218.4606241584492
 21
104.6373689823409
 31
0.0
  0
LINE
  5
EAE
330
1A
100
AcDbEntity
  8
SEIHIN
100
AcDbLine
 10
219.9606241584492
 20
104.9373689823409
 30
0.0
 11
218.960624158449
 21
104.9373689823409
 31
0.0
  0
LINE
  5
EAF
330
1A
100
AcDbEntity
  8
SEIHIN
100
AcDbLine
 10
218.960624158449
 20
104.9373689823409
 30
0.0
 11
218.4606241584492
 21
104.6373689823409
 31
0.0
  0
LINE
  5
EB0
330
1A
100
AcDbEntity
  8
SEIHIN
100
AcDbLine
 10
219.9606241584492
 20
104.9373689823409
 30
0.0
 11
220.4606241584492
 21
104.6373689823409
 31
0.0
  0
LINE
  5
EB1
330
1A
100
AcDbEntity
  8
SEIHIN
100
AcDbLine
 10
218.9606241584489
 20
108.8373689823409
 30
0.0
 11
218.4606241584491
 21
109.137368982341
 31
0.0
  0
LINE
  5
EB2
330
1A
100
AcDbEntity
  8
SEIHIN
100
AcDbLine
 10
219.9606241584491
 20
108.8373689823409
 30
0.0
 11
218.9606241584489
 21
108.8373689823409
 31
0.0
  0
LINE
  5
EB3
330
1A
100
AcDbEntity
  8
SEIHIN
100
AcDbLine
 10
219.9606241584491
 20
108.8373689823409
 30
0.0
 11
220.4606241584491
 21
109.137368982341
 31
0.0
  0
LINE
  5
EB4
330
1A
100
AcDbEntity
  8
SEIHIN
100
AcDbLine
 10
285.4613372544098
 20
109.1373689823409
 30
0.0
 11
284.7684440355964
 21
108.7444757635275
 31
0.0
  0
ARC
  5
EB5
330
1A
100
AcDbEntity
  8
SEIHIN
100
AcDbCircle
 10
285.2005400915229
 20
105.6124154859006
 30
0.0
 40
0.7249892747399255
100
AcDbArc
 50
126.5841936583414
 51
233.4158063416673
  0
LINE
  5
EB6
330
1A
100
AcDbEntity
  8
SEIHIN
100
AcDbLine
 10
285.4613372544099
 20
104.6373689823409
 30
0.0
 11
284.7684440355965
 21
105.0302622011545
 31
0.0
  0
LINE
  5
EB7
330
1A
100
AcDbEntity
  8
SEIHIN
100
AcDbLine
 10
285.4613372544098
 20
106.8874619894601
 30
0.0
 11
284.7684440355964
 21
106.1945687706467
 31
0.0
  0
LINE
  5
EB8
330
1A
100
AcDbEntity
  8
SEIHIN
100
AcDbLine
 10
285.4613372544098
 20
106.8874619894601
 30
0.0
 11
284.7684440355964
 21
107.5803552082736
 31
0.0
  0
ARC
  5
EB9
330
1A
100
AcDbEntity
  8
SEIHIN
100
AcDbCircle
 10
285.2003552457454
 20
108.1624154859006
 30
0.0
 40
0.7248044289624155
100
AcDbArc
 50
126.5768423842561
 51
233.4231576157486
  0
LINE
  5
EBA
330
1A
100
AcDbEntity
  8
SEIHIN
100
AcDbLine
 10
285.4613372544098
 20
200.63521140021
 30
0.0
 11
295.4613372544098
 21
200.63521140021
 31
0.0
  0
LINE
  5
EBB
330
1A
100
AcDbEntity
  8
SEIHIN
100
AcDbLine
 10
295.4613372544098
 20
200.63521140021
 30
0.0
 11
285.4613372544098
 21
202.885118393091
 31
0.0
  0
LINE
  5
EBC
330
1A
100
AcDbEntity
  8
SEIHIN
100
AcDbLine
 10
295.4613372544098
 20
200.63521140021
 30
0.0
 11
285.4613372544099
 21
198.3851183930909
 31
0.0
  0
LINE
  5
EBD
330
1A
100
AcDbEntity
  8
SEIHIN
100
AcDbLine
 10
285.46133725441
 20
202.885118393091
 30
0.0
 11
220.4606241584491
 21
202.885118393091
 31
0.0
  0
LINE
  5
EBE
330
1A
100
AcDbEntity
  8
SEIHIN
100
AcDbLine
 10
285.4613372544101
 20
198.3851183930909
 30
0.0
 11
220.4606241584492
 21
198.3851183930909
 31
0.0
  0
LINE
  5
EBF
330
1A
100
AcDbEntity
  8
SEIHIN
100
AcDbLine
 10
218.4606241584491
 20
202.885118393091
 30
0.0
 11
210.4606241584491
 21
202.885118393091
 31
0.0
  0
LINE
  5
EC0
330
1A
100
AcDbEntity
  8
SEIHIN
100
AcDbLine
 10
218.4606241584492
 20
198.3851183930909
 30
0.0
 11
210.4606241584492
 21
198.3851183930909
 31
0.0
  0
LINE
  5
EC1
330
1A
100
AcDbEntity
  8
SEIHIN
100
AcDbLine
 10
198.4606241584491
 20
202.885118393091
 30
0.0
 11
198.4606241584492
 21
198.3851183930909
 31
0.0
  0
LINE
  5
EC2
330
1A
100
AcDbEntity
  8
SEIHIN
100
AcDbLine
 10
198.9606241584489
 20
202.5851183930909
 30
0.0
 11
198.960624158449
 21
198.685118393091
 31
0.0
  0
LINE
  5
EC3
330
1A
100
AcDbEntity
  8
SEIHIN
100
AcDbLine
 10
200.4606241584491
 20
202.885118393091
 30
0.0
 11
200.4606241584492
 21
198.3851183930909
 31
0.0
  0
LINE
  5
EC4
330
1A
100
AcDbEntity
  8
SEIHIN
100
AcDbLine
 10
199.9606241584492
 20
198.685118393091
 30
0.0
 11
199.9606241584491
 21
202.5851183930909
 31
0.0
  0
LINE
  5
EC5
330
1A
100
AcDbEntity
  8
SEIHIN
100
AcDbLine
 10
208.4606241584491
 20
202.885118393091
 30
0.0
 11
208.4606241584492
 21
198.3851183930909
 31
0.0
  0
LINE
  5
EC6
330
1A
100
AcDbEntity
  8
SEIHIN
100
AcDbLine
 10
210.4606241584491
 20
202.885118393091
 30
0.0
 11
210.4606241584492
 21
198.3851183930909
 31
0.0
  0
LINE
  5
EC7
330
1A
100
AcDbEntity
  8
SEIHIN
100
AcDbLine
 10
208.9606241584489
 20
202.5851183930909
 30
0.0
 11
208.960624158449
 21
198.685118393091
 31
0.0
  0
LINE
  5
EC8
330
1A
100
AcDbEntity
  8
SEIHIN
100
AcDbLine
 10
209.9606241584491
 20
202.5851183930909
 30
0.0
 11
209.9606241584492
 21
198.685118393091
 31
0.0
  0
LINE
  5
EC9
330
1A
100
AcDbEntity
  8
SEIHIN
100
AcDbLine
 10
208.4606241584492
 20
198.3851183930909
 30
0.0
 11
200.4606241584492
 21
198.3851183930909
 31
0.0
  0
LINE
  5
ECA
330
1A
100
AcDbEntity
  8
SEIHIN
100
AcDbLine
 10
199.9606241584492
 20
198.685118393091
 30
0.0
 11
200.4606241584492
 21
198.3851183930909
 31
0.0
  0
LINE
  5
ECB
330
1A
100
AcDbEntity
  8
SEIHIN
100
AcDbLine
 10
198.960624158449
 20
198.685118393091
 30
0.0
 11
198.4606241584492
 21
198.3851183930909
 31
0.0
  0
LINE
  5
ECC
330
1A
100
AcDbEntity
  8
SEIHIN
100
AcDbLine
 10
199.9606241584492
 20
198.685118393091
 30
0.0
 11
198.960624158449
 21
198.685118393091
 31
0.0
  0
LINE
  5
ECD
330
1A
100
AcDbEntity
  8
SEIHIN
100
AcDbLine
 10
208.960624158449
 20
198.685118393091
 30
0.0
 11
208.4606241584492
 21
198.3851183930909
 31
0.0
  0
LINE
  5
ECE
330
1A
100
AcDbEntity
  8
SEIHIN
100
AcDbLine
 10
209.9606241584492
 20
198.685118393091
 30
0.0
 11
208.960624158449
 21
198.685118393091
 31
0.0
  0
LINE
  5
ECF
330
1A
100
AcDbEntity
  8
SEIHIN
100
AcDbLine
 10
209.9606241584492
 20
198.685118393091
 30
0.0
 11
210.4606241584492
 21
198.3851183930909
 31
0.0
  0
LINE
  5
ED0
330
1A
100
AcDbEntity
  8
SEIHIN
100
AcDbLine
 10
208.4606241584491
 20
202.885118393091
 30
0.0
 11
200.4606241584491
 21
202.885118393091
 31
0.0
  0
LINE
  5
ED1
330
1A
100
AcDbEntity
  8
SEIHIN
100
AcDbLine
 10
199.9606241584491
 20
202.5851183930909
 30
0.0
 11
200.4606241584491
 21
202.885118393091
 31
0.0
  0
LINE
  5
ED2
330
1A
100
AcDbEntity
  8
SEIHIN
100
AcDbLine
 10
198.9606241584489
 20
202.5851183930909
 30
0.0
 11
198.4606241584491
 21
202.885118393091
 31
0.0
  0
LINE
  5
ED3
330
1A
100
AcDbEntity
  8
SEIHIN
100
AcDbLine
 10
199.9606241584491
 20
202.5851183930909
 30
0.0
 11
198.9606241584489
 21
202.5851183930909
 31
0.0
  0
LINE
  5
ED4
330
1A
100
AcDbEntity
  8
SEIHIN
100
AcDbLine
 10
208.9606241584489
 20
202.5851183930909
 30
0.0
 11
208.4606241584491
 21
202.885118393091
 31
0.0
  0
LINE
  5
ED5
330
1A
100
AcDbEntity
  8
SEIHIN
100
AcDbLine
 10
209.9606241584491
 20
202.5851183930909
 30
0.0
 11
208.9606241584489
 21
202.5851183930909
 31
0.0
  0
LINE
  5
ED6
330
1A
100
AcDbEntity
  8
SEIHIN
100
AcDbLine
 10
209.9606241584491
 20
202.5851183930909
 30
0.0
 11
210.4606241584491
 21
202.885118393091
 31
0.0
  0
LINE
  5
ED7
330
1A
100
AcDbEntity
  8
SEIHIN
100
AcDbLine
 10
218.4606241584491
 20
202.885118393091
 30
0.0
 11
218.4606241584492
 21
198.3851183930909
 31
0.0
  0
LINE
  5
ED8
330
1A
100
AcDbEntity
  8
SEIHIN
100
AcDbLine
 10
218.9606241584489
 20
202.5851183930909
 30
0.0
 11
218.960624158449
 21
198.6851183930909
 31
0.0
  0
LINE
  5
ED9
330
1A
100
AcDbEntity
  8
SEIHIN
100
AcDbLine
 10
219.9606241584491
 20
202.5851183930909
 30
0.0
 11
219.9606241584492
 21
198.6851183930909
 31
0.0
  0
LINE
  5
EDA
330
1A
100
AcDbEntity
  8
SEIHIN
100
AcDbLine
 10
220.4606241584491
 20
202.885118393091
 30
0.0
 11
220.4606241584492
 21
198.3851183930909
 31
0.0
  0
LINE
  5
EDB
330
1A
100
AcDbEntity
  8
SEIHIN
100
AcDbLine
 10
219.9606241584492
 20
198.6851183930909
 30
0.0
 11
218.960624158449
 21
198.6851183930909
 31
0.0
  0
LINE
  5
EDC
330
1A
100
AcDbEntity
  8
SEIHIN
100
AcDbLine
 10
218.960624158449
 20
198.6851183930909
 30
0.0
 11
218.4606241584492
 21
198.3851183930909
 31
0.0
  0
LINE
  5
EDD
330
1A
100
AcDbEntity
  8
SEIHIN
100
AcDbLine
 10
219.9606241584492
 20
198.6851183930909
 30
0.0
 11
220.4606241584492
 21
198.3851183930909
 31
0.0
  0
LINE
  5
EDE
330
1A
100
AcDbEntity
  8
SEIHIN
100
AcDbLine
 10
218.9606241584489
 20
202.5851183930909
 30
0.0
 11
218.4606241584491
 21
202.885118393091
 31
0.0
  0
LINE
  5
EDF
330
1A
100
AcDbEntity
  8
SEIHIN
100
AcDbLine
 10
219.9606241584491
 20
202.5851183930909
 30
0.0
 11
218.9606241584489
 21
202.5851183930909
 31
0.0
  0
LINE
  5
EE0
330
1A
100
AcDbEntity
  8
SEIHIN
100
AcDbLine
 10
219.9606241584491
 20
202.5851183930909
 30
0.0
 11
220.4606241584491
 21
202.885118393091
 31
0.0
  0
ARC
  5
EE1
330
1A
100
AcDbEntity
  8
SEIHIN
100
AcDbCircle
 10
285.2003552457454
 20
201.9101648966506
 30
0.0
 40
0.7248044289624155
100
AcDbArc
 50
126.5768423842561
 51
233.4231576157486
  0
LINE
  5
EE2
330
1A
100
AcDbEntity
  8
SEIHIN
100
AcDbLine
 10
285.4613372544098
 20
200.63521140021
 30
0.0
 11
284.7684440355964
 21
201.3281046190236
 31
0.0
  0
LINE
  5
EE3
330
1A
100
AcDbEntity
  8
SEIHIN
100
AcDbLine
 10
285.4613372544098
 20
200.63521140021
 30
0.0
 11
284.7684440355964
 21
199.9423181813966
 31
0.0
  0
ARC
  5
EE4
330
1A
100
AcDbEntity
  8
SEIHIN
100
AcDbCircle
 10
285.2005400915229
 20
199.3601648966506
 30
0.0
 40
0.7249892747399255
100
AcDbArc
 50
126.5841936583414
 51
233.4158063416673
  0
LINE
  5
EE5
330
1A
100
AcDbEntity
  8
SEIHIN
100
AcDbLine
 10
285.4613372544099
 20
198.3851183930909
 30
0.0
 11
284.7684440355965
 21
198.7780116119045
 31
0.0
  0
LINE
  5
EE6
330
1A
100
AcDbEntity
  8
SEIHIN
100
AcDbLine
 10
285.4613372544098
 20
202.885118393091
 30
0.0
 11
284.7684440355964
 21
202.4922251742775
 31
0.0
  0
LINE
  5
11B6
330
1A
100
AcDbEntity
  8
SEIHIN
100
AcDbLine
 10
175.4446701584487
 20
105.887468982341
 30
0.0
 11
175.4446701584488
 21
107.8872689823411
 31
0.0
  0
DIMENSION
  5
1237
330
1A
100
AcDbEntity
  8
SUNPOU
100
AcDbDimension
  2
*D9
 10
295.4609239065222
 20
141.6544628746793
 30
0.0
 11
235.461130580466
 21
144.6544628746793
 31
0.0
 70
    32
 71
     5
 42
-1.0
  3
STANDARD
100
AcDbAlignedDimension
 13
175.4613372544098
 23
83.44863371153223
 33
0.0
 14
295.4609239065222
 24
106.887368982341
 34
0.0
100
AcDbRotatedDimension
  0
DIMENSION
  5
1439
330
1A
100
AcDbEntity
  8
SUNPOU
100
AcDbDimension
  2
*D10
 10
86.85125538773297
 20
73.88734041614698
 30
0.0
 11
83.85125538773296
 21
106.8873604601555
 31
0.0
 70
    32
 71
     5
 42
-1.0
  3
STANDARD
100
AcDbAlignedDimension
 13
145.4613701584487
 23
139.887380504164
 33
0.0
 14
145.4613701584487
 24
73.88734041614696
 34
0.0
 50
90.0
100
AcDbRotatedDimension
  0
VIEWPORT
  5
22
330
17
100
AcDbEntity
 67
     1
  8
0
100
AcDbViewport
 10
313.6808219178082
 20
148.5
 30
0.0
 40
627.3616438356165
 41
297.0
 68
     2
 69
     1
 12
313.6808219178082
 22
148.5
 13
0.0
 23
0.0
 14
1.0
 24
1.0
 15
10.0
 25
10.0
 16
0.0
 26
0.0
 36
1.0
 17
0.0
 27
0.0
 37
0.0
 42
50.0
 43
0.0
 44
0.0
 45
297.0
 50
0.0
 51
0.0
 72
   100
 90
    32768
  1

281
     0
 71
     1
 74
     0
110
0.0
120
0.0
130
0.0
111
1.0
121
0.0
131
0.0
112
0.0
122
1.0
132
0.0
 79
     0
146
0.0
  0
VIEWPORT
  5
64
330
17
100
AcDbEntity
 67
     1
  8
VIEWPORT
100
AcDbViewport
 10
210.0
 20
148.5
 30
0.0
 40
420.0
 41
297.0
 68
     1
 69
     2
 12
210.0
 22
148.5
 13
0.0
 23
0.0
 14
5.0
 24
5.0
 15
0.0
 25
0.0
 16
0.0
 26
0.0
 36
1.0
 17
0.0
 27
0.0
 37
0.0
 42
50.0
 43
0.0
 44
0.0
 45
302.9399999999998
 50
0.0
 51
0.0
 72
   100
 90
    32768
  1

281
     0
 71
     1
 74
     0
110
0.0
120
0.0
130
0.0
111
1.0
121
0.0
131
0.0
112
0.0
122
1.0
132
0.0
 79
     0
146
0.0
  0
ENDSEC
  0
SECTION
  2
OBJECTS
  0
DICTIONARY
  5
C
330
0
100
AcDbDictionary
281
     1
  3
ACAD_GROUP
350
D
  3
ACAD_LAYOUT
350
46C
  3
ACAD_MLINESTYLE
350
E
  3
ACAD_PLOTSETTINGS
350
46D
  3
ACAD_PLOTSTYLENAME
350
74E
1001
ACAD
1000
TREAT_AS_HARD
1070
     0
  0
DICTIONARY
  5
598
330
1A
100
AcDbDictionary
280
     1
281
     1
  3
ACAD_LAYOUTSELFREF
360
1877
1001
ACAD
1000
TREAT_AS_HARD
1070
     1
  0
DICTIONARY
  5
596
330
17
100
AcDbDictionary
280
     1
281
     1
  3
ACAD_LAYOUTSELFREF
360
1876
1001
ACAD
1000
TREAT_AS_HARD
1070
     1
  0
DICTIONARY
  5
D
102
{ACAD_REACTORS
330
C
102
}
330
C
100
AcDbDictionary
281
     1
  3
*A1
350
11B5
1001
ACAD
1000
TREAT_AS_HARD
1070
     0
  0
DICTIONARY
  5
46C
102
{ACAD_REACTORS
330
C
102
}
330
C
100
AcDbDictionary
281
     1
  3
Model
350
750
  3
ﾚｲｱｳﾄ1
350
751
1001
ACAD
1000
TREAT_AS_HARD
1070
     0
  0
DICTIONARY
  5
E
102
{ACAD_REACTORS
330
C
102
}
330
C
100
AcDbDictionary
281
     1
  3
STANDARD
350
13
1001
ACAD
1000
TREAT_AS_HARD
1070
     0
  0
DICTIONARY
  5
46D
102
{ACAD_REACTORS
330
C
102
}
330
C
100
AcDbDictionary
281
     1
1001
ACAD
1000
TREAT_AS_HARD
1070
     0
  0
ACDBDICTIONARYWDFLT
  5
74E
102
{ACAD_REACTORS
330
C
102
}
330
C
100
AcDbDictionary
281
     1
  3
Normal
350
74F
100
AcDbDictionaryWithDefault
340
74F
1001
ACAD
1000
TREAT_AS_HARD
1070
     0
1000
TREAT_AS_HARD
1070
     0
1000
TREAT_AS_HARD
1070
     0
1000
TREAT_AS_HARD
1070
     0
1000
TREAT_AS_HARD
1070
     0
  0
XRECORD
  5
1877
102
{ACAD_REACTORS
330
598
102
}
330
598
100
AcDbXrecord
280
     1
340
1A
  0
XRECORD
  5
1876
102
{ACAD_REACTORS
330
596
102
}
330
596
100
AcDbXrecord
280
     1
340
17
  0
GROUP
  5
11B5
102
{ACAD_REACTORS
330
D
102
}
330
D
100
AcDbGroup
300

 70
     1
 71
     1
  0
LAYOUT
  5
750
102
{ACAD_REACTORS
330
46C
102
}
330
46C
100
AcDbPlotSettings
  1

  2
Acrobat Distiller
  4
A3
  6

 40
3.174999952316284
 41
3.174999952316284
 42
3.17498779296875
 43
3.17498779296875
 44
297.0318298339843
 45
420.1583251953125
 46
7.0
 47
7.0
 48
-11.34340319765033
 49
-7.674991202591854
140
408.1944636222122
141
283.394903260417
142
1.0
143
1.0
 70
 28336
 72
     1
 73
     1
 74
     2
  7
print.ctb
 75
    16
147
1.0
148
0.0
149
0.0
100
AcDbLayout
  1
Model
 70
     1
 71
     0
 10
0.0
 20
0.0
 11
12.0
 21
9.0
 12
0.0
 22
0.0
 32
0.0
 14
0.0
 24
0.0
 34
0.0
 15
0.0
 25
0.0
 35
0.0
146
0.0
 13
0.0
 23
0.0
 33
0.0
 16
1.0
 26
0.0
 36
0.0
 17
0.0
 27
1.0
 37
0.0
 76
     0
330
1A
  0
LAYOUT
  5
751
102
{ACAD_REACTORS
330
46C
102
}
330
46C
100
AcDbPlotSettings
  1

  2
Canon LBP-730 LIPS4
  4

  6

 40
0.0
 41
0.0
 42
0.0
 43
0.0
 44
0.0
 45
0.0
 46
0.0
 47
0.0
 48
0.0
 49
0.0
140
0.0
141
0.0
142
1.0
143
1.0
 70
   688
 72
     0
 73
     0
 74
     5
  7
print.ctb
 75
    16
147
1.0
148
0.0
149
0.0
100
AcDbLayout
  1
ﾚｲｱｳﾄ1
 70
     1
 71
     1
 10
0.0
 20
0.0
 11
420.0
 21
297.0
 12
0.0
 22
0.0
 32
0.0
 14
0.0
 24
0.0
 34
0.0
 15
420.0
 25
297.0
 35
0.0
146
0.0
 13
0.0
 23
0.0
 33
0.0
 16
1.0
 26
0.0
 36
0.0
 17
0.0
 27
1.0
 37
0.0
 76
     0
330
17
331
64
  0
MLINESTYLE
  5
13
102
{ACAD_REACTORS
330
E
102
}
330
E
100
AcDbMlineStyle
  2
STANDARD
 70
     0
  3

 62
     0
 51
90.0
 52
90.0
 71
     2
 49
0.5
 62
   256
  6
BYLAYER
 49
-0.5
 62
   256
  6
BYLAYER
  0
ACDBPLACEHOLDER
  5
74F
102
{ACAD_REACTORS
330
74E
102
}
330
74E
  0
ENDSEC
  0
EOF
