  0
SECTION
  2
HEADER
  9
$ACADVER
  1
AC1014
  9
$ACADMAINTVER
 70
     9
  9
$DWGCODEPAGE
  3
ANSI_932
  9
$INSBASE
 10
0.0
 20
0.0
 30
0.0
  9
$EXTMIN
 10
-0.0256328259481507
 20
-0.0181260584133725
 30
-0.0000000100021362
  9
$EXTMAX
 10
797.6000995618558
 20
551.6452344880035
 30
0.0000000100021363
  9
$LIMMIN
 10
0.0
 20
0.0
  9
$LIMMAX
 10
840.0
 20
594.0
  9
$ORTHOMODE
 70
     0
  9
$REGENMODE
 70
     1
  9
$FILLMODE
 70
     1
  9
$QTEXTMODE
 70
     0
  9
$MIRRTEXT
 70
     1
  9
$DRAGMODE
 70
     2
  9
$LTSCALE
 40
2.0
  9
$OSMODE
 70
    35
  9
$ATTMODE
 70
     1
  9
$TEXTSIZE
 40
5.0
  9
$TRACEWID
 40
1.0
  9
$TEXTSTYLE
  7
STANDARD
  9
$CLAYER
  8
SUNPOU
  9
$CELTYPE
  6
BYLAYER
  9
$CECOLOR
 62
   256
  9
$CELTSCALE
 40
1.0
  9
$DELOBJ
 70
     1
  9
$DISPSILH
 70
     0
  9
$DIMSCALE
 40
1.0
  9
$DIMASZ
 40
7.0
  9
$DIMEXO
 40
6.0
  9
$DIMDLI
 40
14.0
  9
$DIMRND
 40
0.0
  9
$DIMDLE
 40
0.0
  9
$DIMEXE
 40
3.0
  9
$DIMTP
 40
0.0
  9
$DIMTM
 40
0.0
  9
$DIMTXT
 40
6.0
  9
$DIMCEN
 40
150.0
  9
$DIMTSZ
 40
0.0
  9
$DIMTOL
 70
     0
  9
$DIMLIM
 70
     0
  9
$DIMTIH
 70
     0
  9
$DIMTOH
 70
     0
  9
$DIMSE1
 70
     0
  9
$DIMSE2
 70
     0
  9
$DIMTAD
 70
     3
  9
$DIMZIN
 70
     0
  9
$DIMBLK
  1

  9
$DIMASO
 70
     1
  9
$DIMSHO
 70
     1
  9
$DIMPOST
  1

  9
$DIMAPOST
  1

  9
$DIMALT
 70
     0
  9
$DIMALTD
 70
     2
  9
$DIMALTF
 40
25.4
  9
$DIMLFAC
 40
1.0
  9
$DIMTOFL
 70
     1
  9
$DIMTVP
 40
0.0
  9
$DIMTIX
 70
     0
  9
$DIMSOXD
 70
     0
  9
$DIMSAH
 70
     1
  9
$DIMBLK1
  1
OPEN
  9
$DIMBLK2
  1
OPEN
  9
$DIMSTYLE
  2
STANDARD
  9
$DIMCLRD
 70
   256
  9
$DIMCLRE
 70
   256
  9
$DIMCLRT
 70
   256
  9
$DIMTFAC
 40
1.0
  9
$DIMGAP
 40
2.0
  9
$DIMJUST
 70
     0
  9
$DIMSD1
 70
     0
  9
$DIMSD2
 70
     0
  9
$DIMTOLJ
 70
     1
  9
$DIMTZIN
 70
     0
  9
$DIMALTZ
 70
     0
  9
$DIMALTTZ
 70
     0
  9
$DIMFIT
 70
     5
  9
$DIMUPT
 70
     0
  9
$DIMUNIT
 70
     2
  9
$DIMDEC
 70
     0
  9
$DIMTDEC
 70
     0
  9
$DIMALTU
 70
     2
  9
$DIMALTTD
 70
     2
  9
$DIMTXSTY
  7
STANDARD
  9
$DIMAUNIT
 70
     0
  9
$LUNITS
 70
     2
  9
$LUPREC
 70
     4
  9
$SKETCHINC
 40
1.0
  9
$FILLETRAD
 40
20.0
  9
$AUNITS
 70
     0
  9
$AUPREC
 70
     0
  9
$MENU
  1
.
  9
$ELEVATION
 40
0.0
  9
$PELEVATION
 40
0.0
  9
$THICKNESS
 40
0.0
  9
$LIMCHECK
 70
     0
  9
$BLIPMODE
 70
     0
  9
$CHAMFERA
 40
0.0
  9
$CHAMFERB
 40
0.0
  9
$CHAMFERC
 40
40.0
  9
$CHAMFERD
 40
0.0
  9
$SKPOLY
 70
     0
  9
$TDCREATE
 40
2451030.159468171
  9
$TDUPDATE
 40
2455350.735070937
  9
$TDINDWG
 40
0.1671498611
  9
$TDUSRTIMER
 40
0.1671498611
  9
$USRTIMER
 70
     1
  9
$ANGBASE
 50
0.0
  9
$ANGDIR
 70
     0
  9
$PDMODE
 70
     0
  9
$PDSIZE
 40
0.0
  9
$PLINEWID
 40
0.0
  9
$COORDS
 70
     0
  9
$SPLFRAME
 70
     0
  9
$SPLINETYPE
 70
     6
  9
$SPLINESEGS
 70
     8
  9
$ATTDIA
 70
     0
  9
$ATTREQ
 70
     1
  9
$HANDLING
 70
 10241
  9
$HANDSEED
  5
3983
  9
$SURFTAB1
 70
     6
  9
$SURFTAB2
 70
     6
  9
$SURFTYPE
 70
     6
  9
$SURFU
 70
     6
  9
$SURFV
 70
     6
  9
$UCSNAME
  2

  9
$UCSORG
 10
0.0
 20
0.0
 30
0.0
  9
$UCSXDIR
 10
1.0
 20
0.0
 30
0.0
  9
$UCSYDIR
 10
0.0
 20
1.0
 30
0.0
  9
$PUCSNAME
  2

  9
$PUCSORG
 10
0.0
 20
0.0
 30
0.0
  9
$PUCSXDIR
 10
1.0
 20
0.0
 30
0.0
  9
$PUCSYDIR
 10
0.0
 20
1.0
 30
0.0
  9
$USERI1
 70
     0
  9
$USERI2
 70
     0
  9
$USERI3
 70
     0
  9
$USERI4
 70
     0
  9
$USERI5
 70
     0
  9
$USERR1
 40
0.0
  9
$USERR2
 40
0.0
  9
$USERR3
 40
0.0
  9
$USERR4
 40
0.0
  9
$USERR5
 40
0.0
  9
$WORLDVIEW
 70
     1
  9
$SHADEDGE
 70
     3
  9
$SHADEDIF
 70
    70
  9
$TILEMODE
 70
     1
  9
$MAXACTVP
 70
    16
  9
$PINSBASE
 10
0.0
 20
0.0
 30
0.0
  9
$PLIMCHECK
 70
     0
  9
$PEXTMIN
 10
0.0
 20
0.0
 30
0.0
  9
$PEXTMAX
 10
420.0
 20
297.0
 30
0.0
  9
$PLIMMIN
 10
0.0
 20
0.0
  9
$PLIMMAX
 10
420.0
 20
297.0
  9
$UNITMODE
 70
     0
  9
$VISRETAIN
 70
     0
  9
$PLINEGEN
 70
     0
  9
$PSLTSCALE
 70
     1
  9
$TREEDEPTH
 70
  3020
  9
$PICKSTYLE
 70
     1
  9
$CMLSTYLE
  2
STANDARD
  9
$CMLJUST
 70
     0
  9
$CMLSCALE
 40
1.0
  9
$PROXYGRAPHICS
 70
     1
  9
$MEASUREMENT
 70
     1
  0
ENDSEC
  0
SECTION
  2
CLASSES
  0
CLASS
  1
ACDBDICTIONARYWDFLT
  2
AcDbDictionaryWithDefault
  3
AutoCAD 2000
 90
        0
280
     0
281
     0
  0
CLASS
  1
ACDBPLACEHOLDER
  2
AcDbPlaceHolder
  3
AutoCAD 2000
 90
        0
280
     0
281
     0
  0
CLASS
  1
LAYOUT
  2
AcDbLayout
  3
AutoCAD 2000
 90
        0
280
     0
281
     0
  0
CLASS
  1
LONG_TRANSACTION
  2
AcDbLongTransaction
  3
AutoCAD 2000
 90
        0
280
     0
281
     0
  0
CLASS
  1
LWPOLYLINE
  2
AcDbPolyline
  3
AutoCAD 2000
 90
        0
280
     0
281
     1
  0
CLASS
  1
HATCH
  2
AcDbHatch
  3
AutoCAD 2000
 90
        0
280
     0
281
     1
  0
CLASS
  1
XRECORD
  2
AcDbXrecord
  3
AutoCAD 2000
 90
        0
280
     0
281
     0
  0
CLASS
  1
LONG_TRANSACTION
  2
AcDbLongTransaction
  3
AutoCAD 2000
 90
        0
280
     0
281
     0
  0
CLASS
  1
LWPOLYLINE
  2
AcDbPolyline
  3
AutoCAD 2000
 90
        0
280
     0
281
     1
  0
CLASS
  1
HATCH
  2
AcDbHatch
  3
AutoCAD 2000
 90
        0
280
     0
281
     1
  0
CLASS
  1
XRECORD
  2
AcDbXrecord
  3
AutoCAD 2000
 90
        0
280
     0
281
     0
  0
CLASS
  1
LONG_TRANSACTION
  2
AcDbLongTransaction
  3
AutoCAD 2000
 90
        0
280
     0
281
     0
  0
CLASS
  1
LWPOLYLINE
  2
AcDbPolyline
  3
AutoCAD 2000
 90
        0
280
     0
281
     1
  0
CLASS
  1
HATCH
  2
AcDbHatch
  3
AutoCAD 2000
 90
        0
280
     0
281
     1
  0
CLASS
  1
XRECORD
  2
AcDbXrecord
  3
AutoCAD 2000
 90
        0
280
     0
281
     0
  0
CLASS
  1
LONG_TRANSACTION
  2
AcDbLongTransaction
  3
AutoCAD 2000
 90
        0
280
     0
281
     0
  0
CLASS
  1
LWPOLYLINE
  2
AcDbPolyline
  3
AutoCAD 2000
 90
        0
280
     0
281
     1
  0
CLASS
  1
HATCH
  2
AcDbHatch
  3
AutoCAD 2000
 90
        0
280
     0
281
     1
  0
CLASS
  1
XRECORD
  2
AcDbXrecord
  3
AutoCAD 2000
 90
        0
280
     0
281
     0
  0
CLASS
  1
LONG_TRANSACTION
  2
AcDbLongTransaction
  3
AutoCAD 2000
 90
        0
280
     0
281
     0
  0
CLASS
  1
LWPOLYLINE
  2
AcDbPolyline
  3
AutoCAD 2000
 90
        0
280
     0
281
     1
  0
CLASS
  1
HATCH
  2
AcDbHatch
  3
AutoCAD 2000
 90
        0
280
     0
281
     1
  0
CLASS
  1
XRECORD
  2
AcDbXrecord
  3
AutoCAD 2000
 90
        0
280
     0
281
     0
  0
ENDSEC
  0
SECTION
  2
TABLES
  0
TABLE
  2
VPORT
  5
8
330
0
100
AcDbSymbolTable
 70
     2
  0
VPORT
  5
38CE
330
8
100
AcDbSymbolTableRecord
100
AcDbViewportTableRecord
  2
*ACTIVE
 70
     0
 10
0.0
 20
0.0
 11
1.0
 21
1.0
 12
420.3722047719213
 22
257.7710345712217
 13
0.0
 23
0.0
 14
5.0
 24
5.0
 15
0.0
 25
0.0
 16
0.0
 26
0.0
 36
1.0
 17
0.0
 27
0.0
 37
0.0
 40
650.2046322143238
 41
1.570153061224489
 42
50.0
 43
0.0
 44
0.0
 50
0.0
 51
0.0
 71
     0
 72
   100
 73
     1
 74
     0
 75
     0
 76
     0
 77
     0
 78
     0
  0
ENDTAB
  0
TABLE
  2
LTYPE
  5
5
330
0
100
AcDbSymbolTable
 70
     3
  0
LTYPE
  5
14
330
5
100
AcDbSymbolTableRecord
100
AcDbLinetypeTableRecord
  2
BYBLOCK
 70
     0
  3

 72
    65
 73
     0
 40
0.0
  0
LTYPE
  5
15
330
5
100
AcDbSymbolTableRecord
100
AcDbLinetypeTableRecord
  2
BYLAYER
 70
     0
  3

 72
    65
 73
     0
 40
0.0
  0
LTYPE
  5
16
330
5
100
AcDbSymbolTableRecord
100
AcDbLinetypeTableRecord
  2
CONTINUOUS
 70
     0
  3
Solid line
 72
    65
 73
     0
 40
0.0
  0
LTYPE
  5
135
330
5
100
AcDbSymbolTableRecord
100
AcDbLinetypeTableRecord
  2
CENTER
 70
     0
  3
____ _ ____ _ ____ _ ____ _ ____ _ ____ _ ____ 
 72
    65
 73
     4
 40
2.0
 49
1.25
 74
     0
 49
-0.25
 74
     0
 49
0.25
 74
     0
 49
-0.25
 74
     0
  0
LTYPE
  5
2436
330
5
100
AcDbSymbolTableRecord
100
AcDbLinetypeTableRecord
  2
DASHED2
 70
     0
  3
Dashed (.5x) _ _ _ _ _ _ _ _ _ _ _ _ _ _ _ _ _
 72
    65
 73
     2
 40
9.524999999999998
 49
6.349999999999999
 74
     0
 49
-3.174999999999999
 74
     0
  0
ENDTAB
  0
TABLE
  2
LAYER
  5
2
102
{ACAD_XDICTIONARY
360
EDF
102
}
330
0
100
AcDbSymbolTable
 70
     8
  0
LAYER
  5
F
330
2
100
AcDbSymbolTableRecord
100
AcDbLayerTableRecord
  2
0
 70
     0
 62
     7
  6
CONTINUOUS
  0
LAYER
  5
62
330
2
100
AcDbSymbolTableRecord
100
AcDbLayerTableRecord
  2
VIEWPORT
 70
     0
 62
     7
  6
CONTINUOUS
  0
LAYER
  5
65
330
2
100
AcDbSymbolTableRecord
100
AcDbLayerTableRecord
  2
ZUWAKU
 70
     0
 62
     7
  6
CONTINUOUS
  0
LAYER
  5
144
330
2
100
AcDbSymbolTableRecord
100
AcDbLayerTableRecord
  2
SEIHIN
 70
     0
 62
     3
  6
CONTINUOUS
  0
LAYER
  5
145
330
2
100
AcDbSymbolTableRecord
100
AcDbLayerTableRecord
  2
SUNPOU
 70
     0
 62
     4
  6
CONTINUOUS
  0
LAYER
  5
146
330
2
100
AcDbSymbolTableRecord
100
AcDbLayerTableRecord
  2
CENTER_L
 70
     0
 62
     1
  6
CENTER
  0
LAYER
  5
41E
330
2
100
AcDbSymbolTableRecord
100
AcDbLayerTableRecord
  2
DEFPOINTS
 70
     0
 62
     7
  6
CONTINUOUS
  0
LAYER
  5
9F1
330
2
100
AcDbSymbolTableRecord
100
AcDbLayerTableRecord
  2
MOJI
 70
     0
 62
     2
  6
CONTINUOUS
  0
ENDTAB
  0
TABLE
  2
STYLE
  5
3
330
0
100
AcDbSymbolTable
 70
     2
  0
STYLE
  5
10
330
3
100
AcDbSymbolTableRecord
100
AcDbTextStyleTableRecord
  2
STANDARD
 70
     0
 40
0.0
 41
1.0
 50
0.0
 71
     0
 42
5.0
  3
TXT
  4
bigfont.shx
  0
STYLE
  5
9F2
330
3
100
AcDbSymbolTableRecord
100
AcDbTextStyleTableRecord
  2
ｽﾀｲﾙ1
 70
     0
 40
0.0
 41
1.0
 50
0.0
 71
     0
 42
2.5
  3
MS PGothic.ttf
  4

1001
ACAD
1000
MS PGothic
1071
    32818
  0
ENDTAB
  0
TABLE
  2
VIEW
  5
6
330
0
100
AcDbSymbolTable
 70
     0
  0
ENDTAB
  0
TABLE
  2
UCS
  5
7
330
0
100
AcDbSymbolTable
 70
     0
  0
ENDTAB
  0
TABLE
  2
APPID
  5
9
330
0
100
AcDbSymbolTable
 70
     1
  0
APPID
  5
11
330
9
100
AcDbSymbolTableRecord
100
AcDbRegAppTableRecord
  2
ACAD
 70
     0
  0
ENDTAB
  0
TABLE
  2
DIMSTYLE
  5
A
330
0
100
AcDbSymbolTable
 70
     1
  0
DIMSTYLE
105
1D
102
{ACAD_REACTORS
330
34B0
330
34BD
330
34F6
330
3505
330
3512
330
351F
330
353E
330
354D
330
355A
330
3571
330
3570
330
35C1
330
359C
330
358D
330
358C
102
}
330
A
100
AcDbSymbolTableRecord
100
AcDbDimStyleTableRecord
  2
STANDARD
 70
     0
  3

  4

  5

  6

  7

 40
1.0
 41
0.18
 42
0.0625
 43
0.38
 44
0.18
 45
0.0
 46
0.0
 47
0.0
 48
0.0
140
0.18
141
0.09
142
0.0
143
25.4
144
1.0
145
0.0
146
1.0
147
0.09
 71
     0
 72
     0
 73
     1
 74
     1
 75
     0
 76
     0
 77
     0
 78
     0
170
     0
171
     2
172
     0
173
     0
174
     0
175
     0
176
     0
177
     0
178
     0
270
     2
271
     4
272
     4
273
     2
274
     2
340
10
275
     0
280
     0
281
     0
282
     0
283
     1
284
     0
285
     0
286
     0
287
     3
288
     0
  0
ENDTAB
  0
TABLE
  2
BLOCK_RECORD
  5
1
330
0
100
AcDbSymbolTable
 70
    17
  0
BLOCK_RECORD
  5
1A
102
{ACAD_XDICTIONARY
360
9D6
102
}
330
1
100
AcDbSymbolTableRecord
100
AcDbBlockTableRecord
  2
*MODEL_SPACE
  0
BLOCK_RECORD
  5
17
102
{ACAD_XDICTIONARY
360
9D4
102
}
330
1
100
AcDbSymbolTableRecord
100
AcDbBlockTableRecord
  2
*PAPER_SPACE
  0
BLOCK_RECORD
  5
6D
330
1
100
AcDbSymbolTableRecord
100
AcDbBlockTableRecord
  2
_OPEN
  0
BLOCK_RECORD
  5
CE3
330
1
100
AcDbSymbolTableRecord
100
AcDbBlockTableRecord
  2
*X1
  0
BLOCK_RECORD
  5
34B1
330
1
100
AcDbSymbolTableRecord
100
AcDbBlockTableRecord
  2
*D2
  0
BLOCK_RECORD
  5
34BE
330
1
100
AcDbSymbolTableRecord
100
AcDbBlockTableRecord
  2
*D3
  0
BLOCK_RECORD
  5
34F7
330
1
100
AcDbSymbolTableRecord
100
AcDbBlockTableRecord
  2
*D4
  0
BLOCK_RECORD
  5
3506
330
1
100
AcDbSymbolTableRecord
100
AcDbBlockTableRecord
  2
*D5
  0
BLOCK_RECORD
  5
3513
330
1
100
AcDbSymbolTableRecord
100
AcDbBlockTableRecord
  2
*D6
  0
BLOCK_RECORD
  5
3520
330
1
100
AcDbSymbolTableRecord
100
AcDbBlockTableRecord
  2
*D7
  0
BLOCK_RECORD
  5
353F
330
1
100
AcDbSymbolTableRecord
100
AcDbBlockTableRecord
  2
*D8
  0
BLOCK_RECORD
  5
354E
330
1
100
AcDbSymbolTableRecord
100
AcDbBlockTableRecord
  2
*D9
  0
BLOCK_RECORD
  5
355B
330
1
100
AcDbSymbolTableRecord
100
AcDbBlockTableRecord
  2
*D10
  0
BLOCK_RECORD
  5
35D3
330
1
100
AcDbSymbolTableRecord
100
AcDbBlockTableRecord
  2
*D11
  0
BLOCK_RECORD
  5
35DF
330
1
100
AcDbSymbolTableRecord
100
AcDbBlockTableRecord
  2
*D12
  0
BLOCK_RECORD
  5
35EB
330
1
100
AcDbSymbolTableRecord
100
AcDbBlockTableRecord
  2
*D13
  0
BLOCK_RECORD
  5
35F9
330
1
100
AcDbSymbolTableRecord
100
AcDbBlockTableRecord
  2
*D14
  0
BLOCK_RECORD
  5
3607
330
1
100
AcDbSymbolTableRecord
100
AcDbBlockTableRecord
  2
*D15
  0
BLOCK_RECORD
  5
3613
330
1
100
AcDbSymbolTableRecord
100
AcDbBlockTableRecord
  2
*D16
  0
ENDTAB
  0
ENDSEC
  0
SECTION
  2
BLOCKS
  0
BLOCK
  5
1B
330
1A
100
AcDbEntity
  8
0
100
AcDbBlockBegin
  2
*MODEL_SPACE
 70
     0
 10
0.0
 20
0.0
 30
0.0
  3
*MODEL_SPACE
  1

  0
ENDBLK
  5
1C
330
1A
100
AcDbEntity
  8
0
100
AcDbBlockEnd
  0
BLOCK
  5
18
330
17
100
AcDbEntity
 67
     1
  8
0
100
AcDbBlockBegin
  2
*PAPER_SPACE
 70
     0
 10
0.0
 20
0.0
 30
0.0
  3
*PAPER_SPACE
  1

  0
ENDBLK
  5
19
330
17
100
AcDbEntity
 67
     1
  8
0
100
AcDbBlockEnd
  0
BLOCK
  5
6E
330
6D
100
AcDbEntity
  8
0
100
AcDbBlockBegin
  2
_OPEN
 70
     0
 10
0.0
 20
0.0
 30
0.0
  3
_OPEN
  1

  0
LINE
  5
6F
330
6D
100
AcDbEntity
  8
0
  6
BYBLOCK
 62
     0
100
AcDbLine
 10
-1.0
 20
0.1666666666666666
 30
0.0
 11
0.0
 21
0.0
 31
0.0
  0
LINE
  5
70
330
6D
100
AcDbEntity
  8
0
  6
BYBLOCK
 62
     0
100
AcDbLine
 10
0.0
 20
0.0
 30
0.0
 11
-1.0
 21
-0.1666666666666666
 31
0.0
  0
LINE
  5
71
330
6D
100
AcDbEntity
  8
0
  6
BYBLOCK
 62
     0
100
AcDbLine
 10
0.0
 20
0.0
 30
0.0
 11
-1.0
 21
0.0
 31
0.0
  0
ENDBLK
  5
72
330
6D
100
AcDbEntity
  8
0
100
AcDbBlockEnd
  0
BLOCK
  5
E77
330
CE3
100
AcDbEntity
  8
0
100
AcDbBlockBegin
  2
*X1
 70
     1
 10
0.0
 20
0.0
 30
0.0
  3
*X1
  1

  0
LINE
  5
CE4
330
CE3
100
AcDbEntity
  8
0
 62
     0
100
AcDbLine
 10
69.04221213871108
 20
22.60416951097994
 30
0.0
 11
68.39638120899616
 21
23.25000044069491
 31
0.0
  0
LINE
  5
CE5
330
CE3
100
AcDbEntity
  8
0
 62
     0
100
AcDbLine
 10
69.04221213871108
 20
21.70614389887305
 30
0.0
 11
67.49835559688921
 21
23.25000044069491
 31
0.0
  0
LINE
  5
CE6
330
CE3
100
AcDbEntity
  8
0
 62
     0
100
AcDbLine
 10
69.04221213871102
 20
20.8081182867661
 30
0.0
 11
66.62107819269607
 21
23.22925223278105
 31
0.0
  0
LINE
  5
CE7
330
CE3
100
AcDbEntity
  8
0
 62
     0
100
AcDbLine
 10
69.04221213871108
 20
19.91009267465926
 30
0.0
 11
66.24221213871101
 21
22.71009267465927
 31
0.0
  0
LINE
  5
CE8
330
CE3
100
AcDbEntity
  8
0
 62
     0
100
AcDbLine
 10
69.04221213871108
 20
19.01206706255232
 30
0.0
 11
66.24221213871101
 21
21.81206706255238
 31
0.0
  0
LINE
  5
CE9
330
CE3
100
AcDbEntity
  8
0
 62
     0
100
AcDbLine
 10
69.04221213871102
 20
18.11404145044537
 30
0.0
 11
66.24221213871095
 21
20.91404145044543
 31
0.0
  0
LINE
  5
CEA
330
CE3
100
AcDbEntity
  8
0
 62
     0
100
AcDbLine
 10
64.14221213871099
 20
22.11601583833857
 30
0.0
 11
63.00822753635469
 21
23.25000044069491
 31
0.0
  0
LINE
  5
CEB
330
CE3
100
AcDbEntity
  8
0
 62
     0
100
AcDbLine
 10
69.04221213871108
 20
17.21601583833853
 30
0.0
 11
66.24221213871101
 21
20.0160158383386
 31
0.0
  0
LINE
  5
CEC
330
CE3
100
AcDbEntity
  8
0
 62
     0
100
AcDbLine
 10
64.14221213871099
 20
21.21799022623167
 30
0.0
 11
62.11020192424775
 21
23.25000044069486
 31
0.0
  0
LINE
  5
CED
330
CE3
100
AcDbEntity
  8
0
 62
     0
100
AcDbLine
 10
69.04221213871102
 20
16.31799022623158
 30
0.0
 11
66.24221213871101
 21
19.11799022623165
 31
0.0
  0
LINE
  5
CEE
330
CE3
100
AcDbEntity
  8
0
 62
     0
100
AcDbLine
 10
64.14221213871099
 20
20.31996461412473
 30
0.0
 11
61.43670117357391
 21
23.0254755792618
 31
0.0
  0
LINE
  5
CEF
330
CE3
100
AcDbEntity
  8
0
 62
     0
100
AcDbLine
 10
69.04221213871102
 20
15.41996461412469
 30
0.0
 11
66.24221213871095
 21
18.2199646141247
 31
0.0
  0
LINE
  5
CF0
330
CE3
100
AcDbEntity
  8
0
 62
     0
100
AcDbLine
 10
64.1422121387111
 20
19.42193900201772
 30
0.0
 11
61.34221213871092
 21
22.22193900201784
 31
0.0
  0
LINE
  5
CF1
330
CE3
100
AcDbEntity
  8
0
 62
     0
100
AcDbLine
 10
69.04221213871108
 20
14.52193900201774
 30
0.0
 11
66.24221213871101
 21
17.32193900201781
 31
0.0
  0
LINE
  5
CF2
330
CE3
100
AcDbEntity
  8
0
 62
     0
100
AcDbLine
 10
64.14221213871105
 20
18.52391338991083
 30
0.0
 11
61.34221213871092
 21
21.32391338991101
 31
0.0
  0
LINE
  5
CF3
330
CE3
100
AcDbEntity
  8
0
 62
     0
100
AcDbLine
 10
69.04221213871102
 20
13.62391338991085
 30
0.0
 11
66.24221213871095
 21
16.42391338991092
 31
0.0
  0
LINE
  5
CF4
330
CE3
100
AcDbEntity
  8
0
 62
     0
100
AcDbLine
 10
64.14221213871105
 20
17.62588777780393
 30
0.0
 11
61.34221213871092
 21
20.42588777780406
 31
0.0
  0
LINE
  5
CF5
330
CE3
100
AcDbEntity
  8
0
 62
     0
100
AcDbLine
 10
69.04221213871102
 20
12.72588777780396
 30
0.0
 11
66.24221213871095
 21
15.52588777780403
 31
0.0
  0
LINE
  5
CF6
330
CE3
100
AcDbEntity
  8
0
 62
     0
100
AcDbLine
 10
64.14221213871099
 20
16.72786216569699
 30
0.0
 11
61.34221213871086
 21
19.52786216569711
 31
0.0
  0
LINE
  5
CF7
330
CE3
100
AcDbEntity
  8
0
 62
     0
100
AcDbLine
 10
69.04221213871096
 20
11.82786216569701
 30
0.0
 11
66.24221213871095
 21
14.62786216569708
 31
0.0
  0
LINE
  5
CF8
330
CE3
100
AcDbEntity
  8
0
 62
     0
100
AcDbLine
 10
64.14221213871105
 20
15.82983655359015
 30
0.0
 11
61.34221213871092
 21
18.62983655359028
 31
0.0
  0
LINE
  5
CF9
330
CE3
100
AcDbEntity
  8
0
 62
     0
100
AcDbLine
 10
57.84221213871098
 20
22.12983655359022
 30
0.0
 11
56.72204825160633
 21
23.25000044069486
 31
0.0
  0
LINE
  5
CFA
330
CE3
100
AcDbEntity
  8
0
 62
     0
100
AcDbLine
 10
69.04221213871102
 20
10.92983655359017
 30
0.0
 11
66.24221213871095
 21
13.72983655359019
 31
0.0
  0
LINE
  5
CFB
330
CE3
100
AcDbEntity
  8
0
 62
     0
100
AcDbLine
 10
64.14221213871105
 20
14.9318109414832
 30
0.0
 11
61.34221213871086
 21
17.73181094148333
 31
0.0
  0
LINE
  5
CFC
330
CE3
100
AcDbEntity
  8
0
 62
     0
100
AcDbLine
 10
57.84221213871092
 20
21.23181094148327
 30
0.0
 11
55.82402263949939
 21
23.25000044069486
 31
0.0
  0
LINE
  5
CFD
330
CE3
100
AcDbEntity
  8
0
 62
     0
100
AcDbLine
 10
69.04221213871102
 20
10.03181094148323
 30
0.0
 11
66.24221213871095
 21
12.83181094148329
 31
0.0
  0
LINE
  5
CFE
330
CE3
100
AcDbEntity
  8
0
 62
     0
100
AcDbLine
 10
64.14221213871099
 20
14.03378532937631
 30
0.0
 11
61.34221213871092
 21
16.83378532937632
 31
0.0
  0
LINE
  5
CFF
330
CE3
100
AcDbEntity
  8
0
 62
     0
100
AcDbLine
 10
57.84221213871092
 20
20.33378532937638
 30
0.0
 11
55.14244941538692
 21
23.03354805270038
 31
0.0
  0
LINE
  5
D00
330
CE3
100
AcDbEntity
  8
0
 62
     0
100
AcDbLine
 10
69.04221213871096
 20
9.133785329376337
 30
0.0
 11
66.2422121387109
 21
11.93378532937634
 31
0.0
  0
LINE
  5
D01
330
CE3
100
AcDbEntity
  8
0
 62
     0
100
AcDbLine
 10
64.14221213871105
 20
13.13575971726936
 30
0.0
 11
61.34221213871097
 21
15.93575971726943
 31
0.0
  0
LINE
  5
D02
330
CE3
100
AcDbEntity
  8
0
 62
     0
100
AcDbLine
 10
57.84221213871098
 20
19.43575971726943
 30
0.0
 11
55.04221213871097
 21
22.23575971726944
 31
0.0
  0
LINE
  5
D03
330
CE3
100
AcDbEntity
  8
0
 62
     0
100
AcDbLine
 10
69.04221213871102
 20
8.235759717269388
 30
0.0
 11
66.24221213871095
 21
11.03575971726945
 31
0.0
  0
LINE
  5
D04
330
CE3
100
AcDbEntity
  8
0
 62
     0
100
AcDbLine
 10
64.14221213871099
 20
12.23773410516247
 30
0.0
 11
61.34221213871097
 21
15.03773410516254
 31
0.0
  0
LINE
  5
D05
330
CE3
100
AcDbEntity
  8
0
 62
     0
100
AcDbLine
 10
57.84221213871103
 20
18.53773410516248
 30
0.0
 11
55.04221213871097
 21
21.33773410516255
 31
0.0
  0
LINE
  5
D06
330
CE3
100
AcDbEntity
  8
0
 62
     0
100
AcDbLine
 10
68.97024678382121
 20
7.409699460052308
 30
0.0
 11
66.24221213871095
 21
10.13773410516256
 31
0.0
  0
LINE
  5
D07
330
CE3
100
AcDbEntity
  8
0
 62
     0
100
AcDbLine
 10
64.14221213871105
 20
11.33970849305546
 30
0.0
 11
61.34221213871092
 21
14.13970849305559
 31
0.0
  0
LINE
  5
D08
330
CE3
100
AcDbEntity
  8
0
 62
     0
100
AcDbLine
 10
57.84221213871098
 20
17.63970849305559
 30
0.0
 11
55.0422121387109
 21
20.4397084930556
 31
0.0
  0
LINE
  5
D09
330
CE3
100
AcDbEntity
  8
0
 62
     0
100
AcDbLine
 10
68.33192019107173
 20
7.150000440694839
 30
0.0
 11
66.2422121387109
 21
9.239708493055672
 31
0.0
  0
LINE
  5
D0A
330
CE3
100
AcDbEntity
  8
0
 62
     0
100
AcDbLine
 10
57.84221213871098
 20
16.74168288094864
 30
0.0
 11
55.0422121387109
 21
19.54168288094871
 31
0.0
  0
LINE
  5
D0B
330
CE3
100
AcDbEntity
  8
0
 62
     0
100
AcDbLine
 10
64.14221213871105
 20
10.44168288094857
 30
0.0
 11
61.34221213871092
 21
13.2416828809487
 31
0.0
  0
LINE
  5
D0C
330
CE3
100
AcDbEntity
  8
0
 62
     0
100
AcDbLine
 10
52.41721213871096
 20
22.16668288094865
 30
0.0
 11
51.33389457896481
 21
23.25000044069474
 31
0.0
  0
LINE
  5
D0D
330
CE3
100
AcDbEntity
  8
0
 62
     0
100
AcDbLine
 10
67.43389457896483
 20
7.150000440694725
 30
0.0
 11
66.2422121387109
 21
8.341682880948724
 31
0.0
  0
LINE
  5
D0E
330
CE3
100
AcDbEntity
  8
0
 62
     0
100
AcDbLine
 10
57.84221213871098
 20
15.84365726884175
 30
0.0
 11
55.04221213871102
 21
18.64365726884176
 31
0.0
  0
LINE
  5
D0F
330
CE3
100
AcDbEntity
  8
0
 62
     0
100
AcDbLine
 10
52.41721213871096
 20
21.26865726884176
 30
0.0
 11
50.43586896685798
 21
23.2500004406948
 31
0.0
  0
LINE
  5
D10
330
CE3
100
AcDbEntity
  8
0
 62
     0
100
AcDbLine
 10
64.11625383806546
 20
9.569615569487325
 30
0.0
 11
61.34221213871092
 21
12.34365726884181
 31
0.0
  0
LINE
  5
D11
330
CE3
100
AcDbEntity
  8
0
 62
     0
100
AcDbLine
 10
57.84221213871098
 20
14.94563165673486
 30
0.0
 11
55.04221213871102
 21
17.74563165673481
 31
0.0
  0
LINE
  5
D12
330
CE3
100
AcDbEntity
  8
0
 62
     0
100
AcDbLine
 10
52.22163159259713
 20
20.5662122028487
 30
0.0
 11
49.53784335475098
 21
23.25000044069486
 31
0.0
  0
LINE
  5
D13
330
CE3
100
AcDbEntity
  8
0
 62
     0
100
AcDbLine
 10
63.92326854280821
 20
8.864575252637564
 30
0.0
 11
61.34221213871092
 21
11.44563165673491
 31
0.0
  0
LINE
  5
D14
330
CE3
100
AcDbEntity
  8
0
 62
     0
100
AcDbLine
 10
57.84221213871098
 20
14.04760604462791
 30
0.0
 11
55.04221213871097
 21
16.84760604462792
 31
0.0
  0
LINE
  5
D15
330
CE3
100
AcDbEntity
  8
0
 62
     0
100
AcDbLine
 10
51.43981774264398
 20
20.45000044069485
 30
0.0
 11
48.63981774264408
 21
23.25000044069474
 31
0.0
  0
LINE
  5
D16
330
CE3
100
AcDbEntity
  8
0
 62
     0
100
AcDbLine
 10
63.59823666688464
 20
8.291581516454186
 30
0.0
 11
61.27069639955141
 21
10.61912178378747
 31
0.0
  0
LINE
  5
D17
330
CE3
100
AcDbEntity
  8
0
 62
     0
100
AcDbLine
 10
57.84221213871098
 20
13.14958043252107
 30
0.0
 11
55.04221213871102
 21
15.94958043252103
 31
0.0
  0
LINE
  5
D18
330
CE3
100
AcDbEntity
  8
0
 62
     0
100
AcDbLine
 10
50.54179213053714
 20
20.4500004406949
 30
0.0
 11
47.80422540135975
 21
23.18756716987229
 31
0.0
  0
LINE
  5
D19
330
CE3
100
AcDbEntity
  8
0
 62
     0
100
AcDbLine
 10
63.16619486955961
 20
7.825597701672393
 30
0.0
 11
60.8691107610839
 21
10.12268181014809
 31
0.0
  0
LINE
  5
D1A
330
CE3
100
AcDbEntity
  8
0
 62
     0
100
AcDbLine
 10
57.84221213871098
 20
12.25155482041413
 30
0.0
 11
55.04221213871097
 21
15.05155482041408
 31
0.0
  0
LINE
  5
D1B
330
CE3
100
AcDbEntity
  8
0
 62
     0
100
AcDbLine
 10
49.6437665184302
 20
20.4500004406949
 30
0.0
 11
47.13958497682637
 21
22.95418198229867
 31
0.0
  0
LINE
  5
D1C
330
CE3
100
AcDbEntity
  8
0
 62
     0
100
AcDbLine
 10
62.63003252463358
 20
7.463734434491527
 30
0.0
 11
60.14376651843019
 21
9.95000044069485
 31
0.0
  0
LINE
  5
D1D
330
CE3
100
AcDbEntity
  8
0
 62
     0
100
AcDbLine
 10
57.84221213871092
 20
11.35352920830718
 30
0.0
 11
55.04221213871097
 21
14.15352920830719
 31
0.0
  0
LINE
  5
D1E
330
CE3
100
AcDbEntity
  8
0
 62
     0
100
AcDbLine
 10
48.76753073434139
 20
20.4282106126767
 30
0.0
 11
46.59698403961619
 21
22.59875730740191
 31
0.0
  0
LINE
  5
D1F
330
CE3
100
AcDbEntity
  8
0
 62
     0
100
AcDbLine
 10
61.97361996472228
 20
7.222121382295881
 30
0.0
 11
59.2457409063233
 21
9.95000044069485
 31
0.0
  0
LINE
  5
D20
330
CE3
100
AcDbEntity
  8
0
 62
     0
100
AcDbLine
 10
48.39221213871105
 20
19.9055035962001
 30
0.0
 11
46.15887198057163
 21
22.13884375433952
 31
0.0
  0
LINE
  5
D21
330
CE3
100
AcDbEntity
  8
0
 62
     0
100
AcDbLine
 10
61.14771529421642
 20
7.150000440694782
 30
0.0
 11
55.04221213871097
 21
13.25550359620024
 31
0.0
  0
LINE
  5
D22
330
CE3
100
AcDbEntity
  8
0
 62
     0
100
AcDbLine
 10
48.3922121387111
 20
19.00747798409327
 30
0.0
 11
45.82710106821861
 21
21.57258905458576
 31
0.0
  0
LINE
  5
D23
330
CE3
100
AcDbEntity
  8
0
 62
     0
100
AcDbLine
 10
60.24968968210953
 20
7.150000440694782
 30
0.0
 11
55.04221213871097
 21
12.3574779840934
 31
0.0
  0
LINE
  5
D24
330
CE3
100
AcDbEntity
  8
0
 62
     0
100
AcDbLine
 10
48.59875641981483
 20
17.90290809088259
 30
0.0
 11
45.6249225488545
 21
20.87674196184286
 31
0.0
  0
LINE
  5
D25
330
CE3
100
AcDbEntity
  8
0
 62
     0
100
AcDbLine
 10
59.35166407000264
 20
7.150000440694782
 30
0.0
 11
55.04221213871097
 21
11.45945237198645
 31
0.0
  0
LINE
  5
D26
330
CE3
100
AcDbEntity
  8
0
 62
     0
100
AcDbLine
 10
52.81581584140235
 20
12.78782305718812
 30
0.0
 11
45.59221213871097
 21
20.01142675987944
 31
0.0
  0
LINE
  5
D27
330
CE3
100
AcDbEntity
  8
0
 62
     0
100
AcDbLine
 10
43.49221213871089
 20
22.11142675987951
 30
0.0
 11
42.35363845789561
 21
23.25000044069486
 31
0.0
  0
LINE
  5
D28
330
CE3
100
AcDbEntity
  8
0
 62
     0
100
AcDbLine
 10
58.45363845789569
 20
7.150000440694782
 30
0.0
 11
55.0422121387109
 21
10.56142675987951
 31
0.0
  0
LINE
  5
D29
330
CE3
100
AcDbEntity
  8
0
 62
     0
100
AcDbLine
 10
52.94221213871106
 20
11.76340114777258
 30
0.0
 11
45.59221213871103
 21
19.1134011477726
 31
0.0
  0
LINE
  5
D2A
330
CE3
100
AcDbEntity
  8
0
 62
     0
100
AcDbLine
 10
43.49221213871101
 20
21.21340114777257
 30
0.0
 11
41.45561284578866
 21
23.25000044069497
 31
0.0
  0
LINE
  5
D2B
330
CE3
100
AcDbEntity
  8
0
 62
     0
100
AcDbLine
 10
57.53916496704391
 20
7.166448319439723
 30
0.0
 11
55.05866001745591
 21
9.646953269027733
 31
0.0
  0
LINE
  5
D2C
330
CE3
100
AcDbEntity
  8
0
 62
     0
100
AcDbLine
 10
43.49221213871101
 20
20.31537553566568
 30
0.0
 11
40.78482225093568
 21
23.02276542344094
 31
0.0
  0
LINE
  5
D2D
330
CE3
100
AcDbEntity
  8
0
 62
     0
100
AcDbLine
 10
52.942212138711
 20
10.86537553566563
 30
0.0
 11
45.61562280659336
 21
18.19196486778332
 31
0.0
  0
LINE
  5
D2E
330
CE3
100
AcDbEntity
  8
0
 62
     0
100
AcDbLine
 10
43.49221213871101
 20
19.41734992355873
 30
0.0
 11
40.692212138711
 21
22.21734992355868
 31
0.0
  0
LINE
  5
D2F
330
CE3
100
AcDbEntity
  8
0
 62
     0
100
AcDbLine
 10
52.94221213871089
 20
9.967349923558799
 30
0.0
 11
45.93374222443339
 21
16.97581983783635
 31
0.0
  0
LINE
  5
D30
330
CE3
100
AcDbEntity
  8
0
 62
     0
100
AcDbLine
 10
43.49221213871101
 20
18.51932431145184
 30
0.0
 11
40.69221213871105
 21
21.31932431145179
 31
0.0
  0
LINE
  5
D31
330
CE3
100
AcDbEntity
  8
0
 62
     0
100
AcDbLine
 10
52.83365032112192
 20
9.177886129040928
 30
0.0
 11
50.13801553208361
 21
11.87352091807923
 31
0.0
  0
LINE
  5
D32
330
CE3
100
AcDbEntity
  8
0
 62
     0
100
AcDbLine
 10
43.49221213871101
 20
17.62129869934494
 30
0.0
 11
40.692212138711
 21
20.4212986993449
 31
0.0
  0
LINE
  5
D33
330
CE3
100
AcDbEntity
  8
0
 62
     0
100
AcDbLine
 10
38.40072523813399
 20
22.71278559992191
 30
0.0
 11
37.86351039736109
 21
23.25000044069486
 31
0.0
  0
LINE
  5
D34
330
CE3
100
AcDbEntity
  8
0
 62
     0
100
AcDbLine
 10
52.56577461336036
 20
8.547736224695597
 30
0.0
 11
50.14221213871104
 21
10.97129869934491
 31
0.0
  0
LINE
  5
D35
330
CE3
100
AcDbEntity
  8
0
 62
     0
100
AcDbLine
 10
43.49221213871095
 20
16.72327308723799
 30
0.0
 11
40.692212138711
 21
19.52327308723801
 31
0.0
  0
LINE
  5
D36
330
CE3
100
AcDbEntity
  8
0
 62
     0
100
AcDbLine
 10
38.20179757388137
 20
22.01368765206757
 30
0.0
 11
36.96548478525414
 21
23.25000044069486
 31
0.0
  0
LINE
  5
D37
330
CE3
100
AcDbEntity
  8
0
 62
     0
100
AcDbLine
 10
52.18278781518506
 20
8.032697410763944
 30
0.0
 11
50.04492695582456
 21
10.17055827012444
 31
0.0
  0
LINE
  5
D38
330
CE3
100
AcDbEntity
  8
0
 62
     0
100
AcDbLine
 10
43.49221213871095
 20
15.8252474751311
 30
0.0
 11
40.692212138711
 21
18.62524747513106
 31
0.0
  0
LINE
  5
D39
330
CE3
100
AcDbEntity
  8
0
 62
     0
100
AcDbLine
 10
37.98627142697569
 20
21.33118818686631
 30
0.0
 11
36.0770558635051
 21
23.24040375033695
 31
0.0
  0
LINE
  5
D3A
330
CE3
100
AcDbEntity
  8
0
 62
     0
100
AcDbLine
 10
51.69646885006944
 20
7.620990763772567
 30
0.0
 11
49.36745917314721
 21
9.95000044069485
 31
0.0
  0
LINE
  5
D3B
330
CE3
100
AcDbEntity
  8
0
 62
     0
100
AcDbLine
 10
43.49221213871101
 20
14.92722186302421
 30
0.0
 11
40.692212138711
 21
17.72722186302416
 31
0.0
  0
LINE
  5
D3C
330
CE3
100
AcDbEntity
  8
0
 62
     0
100
AcDbLine
 10
37.77074528007017
 20
20.64868872166505
 30
0.0
 11
35.64274528007013
 21
22.77668872166509
 31
0.0
  0
LINE
  5
D3D
330
CE3
100
AcDbEntity
  8
0
 62
     0
100
AcDbLine
 10
51.10038490160906
 20
7.319049100126107
 30
0.0
 11
48.46943356104032
 21
9.950000440694907
 31
0.0
  0
LINE
  5
D3E
330
CE3
100
AcDbEntity
  8
0
 62
     0
100
AcDbLine
 10
43.49221213871095
 20
14.02919625091732
 30
0.0
 11
40.692212138711
 21
16.82919625091727
 31
0.0
  0
LINE
  5
D3F
330
CE3
100
AcDbEntity
  8
0
 62
     0
100
AcDbLine
 10
37.55521913316431
 20
19.96618925646396
 30
0.0
 11
35.42721913316432
 21
22.09418925646394
 31
0.0
  0
LINE
  5
D40
330
CE3
100
AcDbEntity
  8
0
 62
     0
100
AcDbLine
 10
50.36271224996159
 20
7.158696139666687
 30
0.0
 11
47.57140794893342
 21
9.95000044069485
 31
0.0
  0
LINE
  5
D41
330
CE3
100
AcDbEntity
  8
0
 62
     0
100
AcDbLine
 10
43.49221213871095
 20
13.13117063881037
 30
0.0
 11
40.69221213871094
 21
15.93117063881033
 31
0.0
  0
LINE
  5
D42
330
CE3
100
AcDbEntity
  8
0
 62
     0
100
AcDbLine
 10
37.33969298625874
 20
19.28368979126259
 30
0.0
 11
35.21169298625864
 21
21.41168979126263
 31
0.0
  0
LINE
  5
D43
330
CE3
100
AcDbEntity
  8
0
 62
     0
100
AcDbLine
 10
49.47338233682654
 20
7.150000440694782
 30
0.0
 11
46.67338233682648
 21
9.95000044069485
 31
0.0
  0
LINE
  5
D44
330
CE3
100
AcDbEntity
  8
0
 62
     0
100
AcDbLine
 10
43.49221213871095
 20
12.23314502670348
 30
0.0
 11
40.692212138711
 21
15.03314502670349
 31
0.0
  0
LINE
  5
D45
330
CE3
100
AcDbEntity
  8
0
 62
     0
100
AcDbLine
 10
37.12416683935311
 20
18.60119032606138
 30
0.0
 11
34.996166839353
 21
20.72919032606142
 31
0.0
  0
LINE
  5
D46
330
CE3
100
AcDbEntity
  8
0
 62
     0
100
AcDbLine
 10
48.57535672471965
 20
7.150000440694839
 30
0.0
 11
46.14174502742327
 21
9.583612137991224
 31
0.0
  0
LINE
  5
D47
330
CE3
100
AcDbEntity
  8
0
 62
     0
100
AcDbLine
 10
36.90864069244748
 20
17.91869086086001
 30
0.0
 11
34.78064069244737
 21
20.04669086086016
 31
0.0
  0
LINE
  5
D48
330
CE3
100
AcDbEntity
  8
0
 62
     0
100
AcDbLine
 10
43.49221213871095
 20
11.33511941459659
 30
0.0
 11
40.692212138711
 21
14.13511941459654
 31
0.0
  0
LINE
  5
D49
330
CE3
100
AcDbEntity
  8
0
 62
     0
100
AcDbLine
 10
32.64221213871099
 20
22.18511941459655
 30
0.0
 11
31.57733111261268
 21
23.2500004406948
 31
0.0
  0
LINE
  5
D4A
330
CE3
100
AcDbEntity
  8
0
 62
     0
100
AcDbLine
 10
47.67733111261276
 20
7.150000440694782
 30
0.0
 11
46.11721213871101
 21
8.710119414596533
 31
0.0
  0
LINE
  5
D4B
330
CE3
100
AcDbEntity
  8
0
 62
     0
100
AcDbLine
 10
36.69311454554167
 20
17.23619139565892
 30
0.0
 11
34.56511454554174
 21
19.36419139565884
 31
0.0
  0
LINE
  5
D4C
330
CE3
100
AcDbEntity
  8
0
 62
     0
100
AcDbLine
 10
43.49221213871095
 20
10.43709380248964
 30
0.0
 11
40.69221213871094
 21
13.23709380248965
 31
0.0
  0
LINE
  5
D4D
330
CE3
100
AcDbEntity
  8
0
 62
     0
100
AcDbLine
 10
32.64221213871099
 20
21.2870938024896
 30
0.0
 11
30.67930550050579
 21
23.2500004406948
 31
0.0
  0
LINE
  5
D4E
330
CE3
100
AcDbEntity
  8
0
 62
     0
100
AcDbLine
 10
46.77930550050575
 20
7.150000440694839
 30
0.0
 11
46.11721213871095
 21
7.812093802489584
 31
0.0
  0
LINE
  5
D4F
330
CE3
100
AcDbEntity
  8
0
 62
     0
100
AcDbLine
 10
36.47758839863604
 20
16.5536919304576
 30
0.0
 11
34.349588398636
 21
18.68169193045764
 31
0.0
  0
LINE
  5
D50
330
CE3
100
AcDbEntity
  8
0
 62
     0
100
AcDbLine
 10
32.64221213871093
 20
20.38906819038265
 30
0.0
 11
29.96676720981332
 21
23.06451311928032
 31
0.0
  0
LINE
  5
D51
330
CE3
100
AcDbEntity
  8
0
 62
     0
100
AcDbLine
 10
43.49221213871089
 20
9.539068190382749
 30
0.0
 11
40.69221213871094
 21
12.3390681903827
 31
0.0
  0
LINE
  5
D52
330
CE3
100
AcDbEntity
  8
0
 62
     0
100
AcDbLine
 10
36.26206225173041
 20
15.8711924652564
 30
0.0
 11
34.13406225173043
 21
17.99919246525638
 31
0.0
  0
LINE
  5
D53
330
CE3
100
AcDbEntity
  8
0
 62
     0
100
AcDbLine
 10
32.64221213871099
 20
19.49104257827582
 30
0.0
 11
29.84221213871092
 21
22.29104257827583
 31
0.0
  0
LINE
  5
D54
330
CE3
100
AcDbEntity
  8
0
 62
     0
100
AcDbLine
 10
43.49221213871095
 20
8.641042578275857
 30
0.0
 11
40.69221213871094
 21
11.44104257827581
 31
0.0
  0
LINE
  5
D55
330
CE3
100
AcDbEntity
  8
0
 62
     0
100
AcDbLine
 10
36.05697374233836
 20
15.1782553625415
 30
0.0
 11
33.91853610482468
 21
17.31669300005518
 31
0.0
  0
LINE
  5
D56
330
CE3
100
AcDbEntity
  8
0
 62
     0
100
AcDbLine
 10
32.64221213871099
 20
18.59301696616887
 30
0.0
 11
29.84221213871092
 21
21.39301696616894
 31
0.0
  0
LINE
  5
D57
330
CE3
100
AcDbEntity
  8
0
 62
     0
100
AcDbLine
 10
43.49221213871089
 20
7.743016966168909
 30
0.0
 11
40.69221213871094
 21
10.54301696616892
 31
0.0
  0
LINE
  5
D58
330
CE3
100
AcDbEntity
  8
0
 62
     0
100
AcDbLine
 10
36.47144710177235
 20
13.86575639100056
 30
0.0
 11
33.62798860914006
 21
16.70921488363285
 31
0.0
  0
LINE
  5
D59
330
CE3
100
AcDbEntity
  8
0
 62
     0
100
AcDbLine
 10
32.64221213871104
 20
17.69499135406187
 30
0.0
 11
29.84221213871086
 21
20.49499135406199
 31
0.0
  0
LINE
  5
D5A
330
CE3
100
AcDbEntity
  8
0
 62
     0
100
AcDbLine
 10
43.15316714137856
 20
7.184036351394297
 30
0.0
 11
40.692212138711
 21
9.644991354061914
 31
0.0
  0
LINE
  5
D5B
330
CE3
100
AcDbEntity
  8
0
 62
     0
100
AcDbLine
 10
36.88592046120635
 20
12.55325741945972
 30
0.0
 11
29.84221213871092
 21
19.59696574195516
 31
0.0
  0
LINE
  5
D5C
330
CE3
100
AcDbEntity
  8
0
 62
     0
100
AcDbLine
 10
27.39221213871104
 20
22.04696574195503
 30
0.0
 11
26.18917743997127
 21
23.2500004406948
 31
0.0
  0
LINE
  5
D5D
330
CE3
100
AcDbEntity
  8
0
 62
     0
100
AcDbLine
 10
42.28917743997129
 20
7.150000440694782
 30
0.0
 11
40.69221213871105
 21
8.746965741955023
 31
0.0
  0
LINE
  5
D5E
330
CE3
100
AcDbEntity
  8
0
 62
     0
100
AcDbLine
 10
37.3003938206404
 20
11.24075844791872
 30
0.0
 11
29.84221213871092
 21
18.69894012984821
 31
0.0
  0
LINE
  5
D5F
330
CE3
100
AcDbEntity
  8
0
 62
     0
100
AcDbLine
 10
27.39221213871104
 20
21.14894012984808
 30
0.0
 11
25.29115182786426
 21
23.25000044069486
 31
0.0
  0
LINE
  5
D60
330
CE3
100
AcDbEntity
  8
0
 62
     0
100
AcDbLine
 10
41.39115182786435
 20
7.150000440694725
 30
0.0
 11
40.692212138711
 21
7.848940129848131
 31
0.0
  0
LINE
  5
D61
330
CE3
100
AcDbEntity
  8
0
 62
     0
100
AcDbLine
 10
27.12530544332094
 20
20.51782121313124
 30
0.0
 11
24.42508372510951
 21
23.21804293134261
 31
0.0
  0
LINE
  5
D62
330
CE3
100
AcDbEntity
  8
0
 62
     0
100
AcDbLine
 10
37.71486718007435
 20
9.928259476377832
 30
0.0
 11
29.84221213871098
 21
17.8009145177412
 31
0.0
  0
LINE
  5
D63
330
CE3
100
AcDbEntity
  8
0
 62
     0
100
AcDbLine
 10
32.9797210610526
 20
13.76537998329268
 30
0.0
 11
29.84221213871098
 21
16.90288890563431
 31
0.0
  0
LINE
  5
D64
330
CE3
100
AcDbEntity
  8
0
 62
     0
100
AcDbLine
 10
26.29510060365049
 20
20.45000044069473
 30
0.0
 11
23.68704065552225
 21
23.05806038882303
 31
0.0
  0
LINE
  5
D65
330
CE3
100
AcDbEntity
  8
0
 62
     0
100
AcDbLine
 10
38.1293405395084
 20
8.615760504836885
 30
0.0
 11
34.03703284720052
 21
12.70806819714471
 31
0.0
  0
LINE
  5
D66
330
CE3
100
AcDbEntity
  8
0
 62
     0
100
AcDbLine
 10
32.64221213871104
 20
13.20486329352735
 30
0.0
 11
29.84221213871098
 21
16.00486329352742
 31
0.0
  0
LINE
  5
D67
330
CE3
100
AcDbEntity
  8
0
 62
     0
100
AcDbLine
 10
25.39707499154349
 20
20.45000044069485
 30
0.0
 11
23.04831923969152
 21
22.79875619254681
 31
0.0
  0
LINE
  5
D68
330
CE3
100
AcDbEntity
  8
0
 62
     0
100
AcDbLine
 10
38.36437939721901
 20
7.48269603501933
 30
0.0
 11
34.45150620663446
 21
11.39556922560393
 31
0.0
  0
LINE
  5
D69
330
CE3
100
AcDbEntity
  8
0
 62
     0
100
AcDbLine
 10
32.64221213871099
 20
12.30683768142046
 30
0.0
 11
29.84221213871092
 21
15.10683768142047
 31
0.0
  0
LINE
  5
D6A
330
CE3
100
AcDbEntity
  8
0
 62
     0
100
AcDbLine
 10
24.55396148899996
 20
20.39508833113149
 30
0.0
 11
22.48957026435698
 21
22.45947955577446
 31
0.0
  0
LINE
  5
D6B
330
CE3
100
AcDbEntity
  8
0
 62
     0
100
AcDbLine
 10
37.79904937943666
 20
7.150000440694782
 30
0.0
 11
34.8659795660684
 21
10.08307025406304
 31
0.0
  0
LINE
  5
D6C
330
CE3
100
AcDbEntity
  8
0
 62
     0
100
AcDbLine
 10
32.64221213871099
 20
11.40881206931351
 30
0.0
 11
29.84221213871092
 21
14.20881206931358
 31
0.0
  0
LINE
  5
D6D
330
CE3
100
AcDbEntity
  8
0
 62
     0
100
AcDbLine
 10
23.98210529616096
 20
20.06891891186353
 30
0.0
 11
22.0019150557452
 21
22.0491091522793
 31
0.0
  0
LINE
  5
D6E
330
CE3
100
AcDbEntity
  8
0
 62
     0
100
AcDbLine
 10
36.90102376732971
 20
7.150000440694782
 30
0.0
 11
35.28045292550245
 21
8.770571282522041
 31
0.0
  0
LINE
  5
D6F
330
CE3
100
AcDbEntity
  8
0
 62
     0
100
AcDbLine
 10
27.72764127150873
 20
15.42535732440893
 30
0.0
 11
26.21756902242498
 21
16.93542957349268
 31
0.0
  0
LINE
  5
D70
330
CE3
100
AcDbEntity
  8
0
 62
     0
100
AcDbLine
 10
32.6422121387111
 20
10.51078645720656
 30
0.0
 11
29.84221213871098
 21
13.31078645720668
 31
0.0
  0
LINE
  5
D71
330
CE3
100
AcDbEntity
  8
0
 62
     0
100
AcDbLine
 10
23.62598372603201
 20
19.52701486988564
 30
0.0
 11
21.58254902973396
 21
21.57044956618369
 31
0.0
  0
LINE
  5
D72
330
CE3
100
AcDbEntity
  8
0
 62
     0
100
AcDbLine
 10
35.95266515101821
 20
7.200333444899456
 30
0.0
 11
35.7023109794269
 21
7.450687616490768
 31
0.0
  0
LINE
  5
D73
330
CE3
100
AcDbEntity
  8
0
 62
     0
100
AcDbLine
 10
27.64112761136681
 20
14.6138453724439
 30
0.0
 11
25.40605707045995
 21
16.84891591335076
 31
0.0
  0
LINE
  5
D74
330
CE3
100
AcDbEntity
  8
0
 62
     0
100
AcDbLine
 10
23.54221213871107
 20
18.71276084509963
 30
0.0
 11
21.2336100087723
 21
21.02136297503841
 31
0.0
  0
LINE
  5
D75
330
CE3
100
AcDbEntity
  8
0
 62
     0
100
AcDbLine
 10
32.64221213871104
 20
9.612760845099614
 30
0.0
 11
29.84221213871092
 21
12.41276084509979
 31
0.0
  0
LINE
  5
D76
330
CE3
100
AcDbEntity
  8
0
 62
     0
100
AcDbLine
 10
27.30927205206876
 20
14.04767531963494
 30
0.0
 11
24.83988701765099
 21
16.51706035405271
 31
0.0
  0
LINE
  5
D77
330
CE3
100
AcDbEntity
  8
0
 62
     0
100
AcDbLine
 10
23.54221213871107
 20
17.81473523299268
 30
0.0
 11
20.96303030156212
 21
20.39391707014164
 31
0.0
  0
LINE
  5
D78
330
CE3
100
AcDbEntity
  8
0
 62
     0
100
AcDbLine
 10
32.64221213871104
 20
8.714735232992723
 30
0.0
 11
29.84221213871098
 21
11.51473523299279
 31
0.0
  0
LINE
  5
D79
330
CE3
100
AcDbEntity
  8
0
 62
     0
100
AcDbLine
 10
23.54221213871107
 20
16.91670962088579
 30
0.0
 11
20.78831642863627
 21
19.67060533096065
 31
0.0
  0
LINE
  5
D7A
330
CE3
100
AcDbEntity
  8
0
 62
     0
100
AcDbLine
 10
26.80743860993231
 20
13.65148314966461
 30
0.0
 11
24.44369484768066
 21
16.01522691191627
 31
0.0
  0
LINE
  5
D7B
330
CE3
100
AcDbEntity
  8
0
 62
     0
100
AcDbLine
 10
18.11721213871101
 20
22.34170962088592
 30
0.0
 11
17.20892131890201
 21
23.25000044069491
 31
0.0
  0
LINE
  5
D7C
330
CE3
100
AcDbEntity
  8
0
 62
     0
100
AcDbLine
 10
32.6422121387111
 20
7.816709620885831
 30
0.0
 11
29.84221213871103
 21
10.6167096208859
 31
0.0
  0
LINE
  5
D7D
330
CE3
100
AcDbEntity
  8
0
 62
     0
100
AcDbLine
 10
23.54221213871107
 20
16.0186840087789
 30
0.0
 11
20.74221213871101
 21
18.81868400877897
 31
0.0
  0
LINE
  5
D7E
330
CE3
100
AcDbEntity
  8
0
 62
     0
100
AcDbLine
 10
26.10711916750489
 20
13.45377697998509
 30
0.0
 11
24.24598867800114
 21
15.31490746948884
 31
0.0
  0
LINE
  5
D7F
330
CE3
100
AcDbEntity
  8
0
 62
     0
100
AcDbLine
 10
18.11721213871095
 20
21.44368400877897
 30
0.0
 11
16.31089570679506
 21
23.25000044069486
 31
0.0
  0
LINE
  5
D80
330
CE3
100
AcDbEntity
  8
0
 62
     0
100
AcDbLine
 10
32.35430833744038
 20
7.206587810049597
 30
0.0
 11
29.84221213871098
 21
9.71868400877895
 31
0.0
  0
LINE
  5
D81
330
CE3
100
AcDbEntity
  8
0
 62
     0
100
AcDbLine
 10
23.54221213871107
 20
15.12065839667195
 30
0.0
 11
20.74221213871101
 21
17.92065839667202
 31
0.0
  0
LINE
  5
D82
330
CE3
100
AcDbEntity
  8
0
 62
     0
100
AcDbLine
 10
18.00817816844062
 20
20.65469236694241
 30
0.0
 11
15.41287009468805
 21
23.25000044069491
 31
0.0
  0
LINE
  5
D83
330
CE3
100
AcDbEntity
  8
0
 62
     0
100
AcDbLine
 10
31.51287009468819
 20
7.150000440694839
 30
0.0
 11
29.84221213871098
 21
8.820658396672058
 31
0.0
  0
LINE
  5
D84
330
CE3
100
AcDbEntity
  8
0
 62
     0
100
AcDbLine
 10
23.54221213871102
 20
14.22263278456506
 30
0.0
 11
20.74221213871095
 21
17.02263278456507
 31
0.0
  0
LINE
  5
D85
330
CE3
100
AcDbEntity
  8
0
 62
     0
100
AcDbLine
 10
17.31484448258129
 20
20.45000044069479
 30
0.0
 11
14.51484448258116
 21
23.25000044069491
 31
0.0
  0
LINE
  5
D86
330
CE3
100
AcDbEntity
  8
0
 62
     0
100
AcDbLine
 10
30.61484448258124
 20
7.150000440694782
 30
0.0
 11
29.84221213871098
 21
7.922632784565109
 31
0.0
  0
LINE
  5
D87
330
CE3
100
AcDbEntity
  8
0
 62
     0
100
AcDbLine
 10
23.54221213871107
 20
13.32460717245817
 30
0.0
 11
20.74221213871101
 21
16.12460717245824
 31
0.0
  0
LINE
  5
D88
330
CE3
100
AcDbEntity
  8
0
 62
     0
100
AcDbLine
 10
16.4168188704744
 20
20.45000044069479
 30
0.0
 11
13.6516895983695
 21
23.21512971279975
 31
0.0
  0
LINE
  5
D89
330
CE3
100
AcDbEntity
  8
0
 62
     0
100
AcDbLine
 10
27.38960968987408
 20
9.477209621295116
 30
0.0
 11
26.91942131931137
 21
9.947397991857883
 31
0.0
  0
LINE
  5
D8A
330
CE3
100
AcDbEntity
  8
0
 62
     0
100
AcDbLine
 10
23.54221213871102
 20
12.42658156035122
 30
0.0
 11
20.74221213871101
 21
15.22658156035129
 31
0.0
  0
LINE
  5
D8B
330
CE3
100
AcDbEntity
  8
0
 62
     0
100
AcDbLine
 10
15.5187932583675
 20
20.45000044069479
 30
0.0
 11
12.95855478989102
 21
23.01023890917127
 31
0.0
  0
LINE
  5
D8C
330
CE3
100
AcDbEntity
  8
0
 62
     0
100
AcDbLine
 10
27.3922121387111
 20
8.576581560351201
 30
0.0
 11
26.01879325836745
 21
9.95000044069485
 31
0.0
  0
LINE
  5
D8D
330
CE3
100
AcDbEntity
  8
0
 62
     0
100
AcDbLine
 10
23.54221213871102
 20
11.52855594824433
 30
0.0
 11
20.74221213871106
 21
14.32855594824428
 31
0.0
  0
LINE
  5
D8E
330
CE3
100
AcDbEntity
  8
0
 62
     0
100
AcDbLine
 10
14.62076764626056
 20
20.45000044069473
 30
0.0
 11
12.39430813004378
 21
22.67645995691151
 31
0.0
  0
LINE
  5
D8F
330
CE3
100
AcDbEntity
  8
0
 62
     0
100
AcDbLine
 10
27.39221213871104
 20
7.678555948244252
 30
0.0
 11
25.12076764626056
 21
9.950000440694736
 31
0.0
  0
LINE
  5
D90
330
CE3
100
AcDbEntity
  8
0
 62
     0
100
AcDbLine
 10
14.11047481864597
 20
20.06226765620255
 30
0.0
 11
11.93621531780303
 21
22.23652715704548
 31
0.0
  0
LINE
  5
D91
330
CE3
100
AcDbEntity
  8
0
 62
     0
100
AcDbLine
 10
27.00447935421868
 20
7.168263120629831
 30
0.0
 11
20.74221213871106
 21
13.43053033613745
 31
0.0
  0
LINE
  5
D92
330
CE3
100
AcDbEntity
  8
0
 62
     0
100
AcDbLine
 10
14.09221213871103
 20
19.18250472403053
 30
0.0
 11
11.58273411533395
 21
21.69198274740762
 31
0.0
  0
LINE
  5
D93
330
CE3
100
AcDbEntity
  8
0
 62
     0
100
AcDbLine
 10
26.12471642204678
 20
7.150000440694782
 30
0.0
 11
20.74221213871106
 21
12.5325047240305
 31
0.0
  0
LINE
  5
D94
330
CE3
100
AcDbEntity
  8
0
 62
     0
100
AcDbLine
 10
14.15434784684646
 20
18.2223434037881
 30
0.0
 11
11.35185401304022
 21
21.02483723759439
 31
0.0
  0
LINE
  5
D95
330
CE3
100
AcDbEntity
  8
0
 62
     0
100
AcDbLine
 10
25.22669080993978
 20
7.150000440694839
 30
0.0
 11
20.74221213871101
 21
11.63447911192355
 31
0.0
  0
LINE
  5
D96
330
CE3
100
AcDbEntity
  8
0
 62
     0
100
AcDbLine
 10
18.44658822993369
 20
13.03207740859403
 30
0.0
 11
11.29221213871107
 21
20.18645349981665
 31
0.0
  0
LINE
  5
D97
330
CE3
100
AcDbEntity
  8
0
 62
     0
100
AcDbLine
 10
24.27539311077623
 20
7.203272527751494
 30
0.0
 11
20.79548422576766
 21
10.68318141276006
 31
0.0
  0
LINE
  5
D98
330
CE3
100
AcDbEntity
  8
0
 62
     0
100
AcDbLine
 10
18.63848274401891
 20
11.94215728240192
 30
0.0
 11
11.29221213871096
 21
19.28842788770987
 31
0.0
  0
LINE
  5
D99
330
CE3
100
AcDbEntity
  8
0
 62
     0
100
AcDbLine
 10
22.90158519817464
 20
7.679054828246137
 30
0.0
 11
21.27126652626225
 21
9.309373500158585
 31
0.0
  0
LINE
  5
D9A
330
CE3
100
AcDbEntity
  8
0
 62
     0
100
AcDbLine
 10
18.64221213871104
 20
11.04040227560284
 30
0.0
 11
11.29977658613336
 21
18.38283782818047
 31
0.0
  0
LINE
  5
D9B
330
CE3
100
AcDbEntity
  8
0
 62
     0
100
AcDbLine
 10
18.64221213871099
 20
10.14237666349595
 30
0.0
 11
11.52306734445721
 21
17.26152145774966
 31
0.0
  0
LINE
  5
D9C
330
CE3
100
AcDbEntity
  8
0
 62
     0
100
AcDbLine
 10
18.56969214257907
 20
9.316871047521033
 30
0.0
 11
15.80630049896001
 21
12.08026269114009
 31
0.0
  0
LINE
  5
D9D
330
CE3
100
AcDbEntity
  8
0
 62
     0
100
AcDbLine
 10
18.32775420355022
 20
8.660783374442928
 30
0.0
 11
15.84221213871097
 21
11.14632543928218
 31
0.0
  0
LINE
  5
D9E
330
CE3
100
AcDbEntity
  8
0
 62
     0
100
AcDbLine
 10
17.96563495616845
 20
8.124877009717749
 30
0.0
 11
15.8063131064103
 21
10.2841988594759
 31
0.0
  0
LINE
  5
D9F
330
CE3
100
AcDbEntity
  8
0
 62
     0
100
AcDbLine
 10
17.49940858390158
 20
7.693077769877731
 30
0.0
 11
15.24248591308446
 21
9.950000440694907
 31
0.0
  0
LINE
  5
DA0
330
CE3
100
AcDbEntity
  8
0
 62
     0
100
AcDbLine
 10
16.92614413616877
 20
7.36831660550365
 30
0.0
 11
14.34446030097751
 21
9.95000044069485
 31
0.0
  0
LINE
  5
DA1
330
CE3
100
AcDbEntity
  8
0
 62
     0
100
AcDbLine
 10
16.22073154708283
 20
7.17570358248264
 30
0.0
 11
13.44643468887062
 21
9.95000044069485
 31
0.0
  0
LINE
  5
DA2
330
CE3
100
AcDbEntity
  8
0
 62
     0
100
AcDbLine
 10
15.34840907676368
 20
7.150000440694839
 30
0.0
 11
12.54840907676367
 21
9.95000044069485
 31
0.0
  0
LINE
  5
DA3
330
CE3
100
AcDbEntity
  8
0
 62
     0
100
AcDbLine
 10
14.45038346465685
 20
7.150000440694782
 30
0.0
 11
11.89705956983897
 21
9.703324335512718
 31
0.0
  0
LINE
  5
DA4
330
CE3
100
AcDbEntity
  8
0
 62
     0
100
AcDbLine
 10
13.55235785254984
 20
7.150000440694839
 30
0.0
 11
11.81721213871105
 21
8.885146154533629
 31
0.0
  0
LINE
  5
DA5
330
CE3
100
AcDbEntity
  8
0
 62
     0
100
AcDbLine
 10
12.65433224044301
 20
7.150000440694782
 30
0.0
 11
11.81721213871105
 21
7.987120542426737
 31
0.0
  0
LINE
  5
DA6
330
CE3
100
AcDbEntity
  8
0
 62
     0
100
AcDbLine
 10
68.63389942337795
 20
7.163132217812346
 30
0.0
 11
69.02908036159374
 21
7.558313156028134
 31
0.0
  0
LINE
  5
DA7
330
CE3
100
AcDbEntity
  8
0
 62
     0
100
AcDbLine
 10
67.72274203415361
 20
7.150000440694782
 30
0.0
 11
69.04221213871119
 21
8.46947054525242
 31
0.0
  0
LINE
  5
DA8
330
CE3
100
AcDbEntity
  8
0
 62
     0
100
AcDbLine
 10
66.82471642204666
 20
7.150000440694839
 30
0.0
 11
69.04221213871119
 21
9.367496157359312
 31
0.0
  0
LINE
  5
DA9
330
CE3
100
AcDbEntity
  8
0
 62
     0
100
AcDbLine
 10
66.27340970196286
 20
7.49671933271793
 30
0.0
 11
69.04221213871114
 21
10.26552176946626
 31
0.0
  0
LINE
  5
DAA
330
CE3
100
AcDbEntity
  8
0
 62
     0
100
AcDbLine
 10
66.24221213871106
 20
8.363547381573084
 30
0.0
 11
69.04221213871114
 21
11.16354738157309
 31
0.0
  0
LINE
  5
DAB
330
CE3
100
AcDbEntity
  8
0
 62
     0
100
AcDbLine
 10
66.24221213871113
 20
9.261572993679976
 30
0.0
 11
69.04221213871114
 21
12.06157299368004
 31
0.0
  0
LINE
  5
DAC
330
CE3
100
AcDbEntity
  8
0
 62
     0
100
AcDbLine
 10
66.24221213871106
 20
10.15959860578692
 30
0.0
 11
69.04221213871114
 21
12.95959860578699
 31
0.0
  0
LINE
  5
DAD
330
CE3
100
AcDbEntity
  8
0
 62
     0
100
AcDbLine
 10
66.24221213871106
 20
11.05762421789381
 30
0.0
 11
69.04221213871114
 21
13.85762421789388
 31
0.0
  0
LINE
  5
DAE
330
CE3
100
AcDbEntity
  8
0
 62
     0
100
AcDbLine
 10
62.66877700077635
 20
7.484189079959094
 30
0.0
 11
63.80802349944691
 21
8.62343557862971
 31
0.0
  0
LINE
  5
DAF
330
CE3
100
AcDbEntity
  8
0
 62
     0
100
AcDbLine
 10
66.24221213871106
 20
11.9556498300007
 30
0.0
 11
69.04221213871114
 21
14.75564983000077
 31
0.0
  0
LINE
  5
DB0
330
CE3
100
AcDbEntity
  8
0
 62
     0
100
AcDbLine
 10
61.43820883425354
 20
7.151646525543185
 30
0.0
 11
64.14056605386287
 21
9.854003745152454
 31
0.0
  0
LINE
  5
DB1
330
CE3
100
AcDbEntity
  8
0
 62
     0
100
AcDbLine
 10
66.24221213871106
 20
12.85367544210765
 30
0.0
 11
69.04221213871114
 21
15.65367544210767
 31
0.0
  0
LINE
  5
DB2
330
CE3
100
AcDbEntity
  8
0
 62
     0
100
AcDbLine
 10
60.5385371372983
 20
7.150000440694896
 30
0.0
 11
64.14221213871115
 21
10.75367544210769
 31
0.0
  0
LINE
  5
DB3
330
CE3
100
AcDbEntity
  8
0
 62
     0
100
AcDbLine
 10
66.24221213871106
 20
13.75170105421455
 30
0.0
 11
69.04221213871108
 21
16.55170105421461
 31
0.0
  0
LINE
  5
DB4
330
CE3
100
AcDbEntity
  8
0
 62
     0
100
AcDbLine
 10
59.64051152519136
 20
7.150000440694896
 30
0.0
 11
64.1422121387111
 21
11.65170105421464
 31
0.0
  0
LINE
  5
DB5
330
CE3
100
AcDbEntity
  8
0
 62
     0
100
AcDbLine
 10
66.24221213871106
 20
14.64972666632144
 30
0.0
 11
69.04221213871114
 21
17.44972666632151
 31
0.0
  0
LINE
  5
DB6
330
CE3
100
AcDbEntity
  8
0
 62
     0
100
AcDbLine
 10
58.74248591308441
 20
7.150000440694782
 30
0.0
 11
64.14221213871115
 21
12.54972666632153
 31
0.0
  0
LINE
  5
DB7
330
CE3
100
AcDbEntity
  8
0
 62
     0
100
AcDbLine
 10
61.23762093663003
 20
10.54316107634736
 30
0.0
 11
64.14221213871115
 21
13.44775227842842
 31
0.0
  0
LINE
  5
DB8
330
CE3
100
AcDbEntity
  8
0
 62
     0
100
AcDbLine
 10
66.24221213871106
 20
15.54775227842833
 30
0.0
 11
69.04221213871114
 21
18.3477522784284
 31
0.0
  0
LINE
  5
DB9
330
CE3
100
AcDbEntity
  8
0
 62
     0
100
AcDbLine
 10
57.84446030097758
 20
7.150000440694896
 30
0.0
 11
60.74905150305852
 21
10.05459164277578
 31
0.0
  0
LINE
  5
DBA
330
CE3
100
AcDbEntity
  8
0
 62
     0
100
AcDbLine
 10
61.34221213871097
 20
11.54577789053524
 30
0.0
 11
64.1422121387111
 21
14.34577789053537
 31
0.0
  0
LINE
  5
DBB
330
CE3
100
AcDbEntity
  8
0
 62
     0
100
AcDbLine
 10
66.24221213871101
 20
16.44577789053528
 30
0.0
 11
69.04221213871108
 21
19.24577789053535
 31
0.0
  0
LINE
  5
DBC
330
CE3
100
AcDbEntity
  8
0
 62
     0
100
AcDbLine
 10
57.05838444024772
 20
7.261950192071935
 30
0.0
 11
59.74643468887063
 21
9.950000440694907
 31
0.0
  0
LINE
  5
DBD
330
CE3
100
AcDbEntity
  8
0
 62
     0
100
AcDbLine
 10
61.34221213871097
 20
12.44380350264214
 30
0.0
 11
64.1422121387111
 21
15.24380350264226
 31
0.0
  0
LINE
  5
DBE
330
CE3
100
AcDbEntity
  8
0
 62
     0
100
AcDbLine
 10
66.24221213871101
 20
17.34380350264223
 30
0.0
 11
69.04221213871108
 21
20.14380350264224
 31
0.0
  0
LINE
  5
DBF
330
CE3
100
AcDbEntity
  8
0
 62
     0
100
AcDbLine
 10
56.43039757303757
 20
7.531988936968787
 30
0.0
 11
58.84928686240801
 21
9.950878226339227
 31
0.0
  0
LINE
  5
DC0
330
CE3
100
AcDbEntity
  8
0
 62
     0
100
AcDbLine
 10
61.34221213871109
 20
13.34182911474909
 30
0.0
 11
64.1422121387111
 21
16.14182911474915
 31
0.0
  0
LINE
  5
DC1
330
CE3
100
AcDbEntity
  8
0
 62
     0
100
AcDbLine
 10
66.24221213871106
 20
18.24182911474906
 30
0.0
 11
69.04221213871108
 21
21.04182911474913
 31
0.0
  0
LINE
  5
DC2
330
CE3
100
AcDbEntity
  8
0
 62
     0
100
AcDbLine
 10
55.91713769167251
 20
7.916754667710506
 30
0.0
 11
58.20580827369531
 21
10.20542524973336
 31
0.0
  0
LINE
  5
DC3
330
CE3
100
AcDbEntity
  8
0
 62
     0
100
AcDbLine
 10
61.34221213871104
 20
14.23985472685603
 30
0.0
 11
64.1422121387111
 21
17.0398547268561
 31
0.0
  0
LINE
  5
DC4
330
CE3
100
AcDbEntity
  8
0
 62
     0
100
AcDbLine
 10
66.24221213871101
 20
19.13985472685601
 30
0.0
 11
69.04221213871108
 21
21.93985472685608
 31
0.0
  0
LINE
  5
DC5
330
CE3
100
AcDbEntity
  8
0
 62
     0
100
AcDbLine
 10
55.50717351644738
 20
8.404816104592327
 30
0.0
 11
57.86856999528589
 21
10.7662125834309
 31
0.0
  0
LINE
  5
DC6
330
CE3
100
AcDbEntity
  8
0
 62
     0
100
AcDbLine
 10
61.34221213871104
 20
15.13788033896292
 30
0.0
 11
64.14221213871115
 21
17.93788033896311
 31
0.0
  0
LINE
  5
DC7
330
CE3
100
AcDbEntity
  8
0
 62
     0
100
AcDbLine
 10
66.24221213871101
 20
20.0378803389629
 30
0.0
 11
69.03206298516062
 21
22.82773118541257
 31
0.0
  0
LINE
  5
DC8
330
CE3
100
AcDbEntity
  8
0
 62
     0
100
AcDbLine
 10
55.20724863801337
 20
9.002916838265321
 30
0.0
 11
57.84221213871098
 21
11.63788033896292
 31
0.0
  0
LINE
  5
DC9
330
CE3
100
AcDbEntity
  8
0
 62
     0
100
AcDbLine
 10
61.34221213871104
 20
16.03590595106982
 30
0.0
 11
64.14221213871122
 21
18.83590595106994
 31
0.0
  0
LINE
  5
DCA
330
CE3
100
AcDbEntity
  8
0
 62
     0
100
AcDbLine
 10
66.24221213871101
 20
20.93590595106979
 30
0.0
 11
68.55494864008114
 21
23.24864245243992
 31
0.0
  0
LINE
  5
DCB
330
CE3
100
AcDbEntity
  8
0
 62
     0
100
AcDbLine
 10
55.04983510305692
 20
9.743528915415708
 30
0.0
 11
57.84221213871103
 21
12.53590595106982
 31
0.0
  0
LINE
  5
DCC
330
CE3
100
AcDbEntity
  8
0
 62
     0
100
AcDbLine
 10
61.34221213871104
 20
16.93393156317677
 30
0.0
 11
64.14221213871115
 21
19.73393156317689
 31
0.0
  0
LINE
  5
DCD
330
CE3
100
AcDbEntity
  8
0
 62
     0
100
AcDbLine
 10
66.24221213871106
 20
21.8339315631768
 30
0.0
 11
67.65828101622907
 21
23.2500004406948
 31
0.0
  0
LINE
  5
DCE
330
CE3
100
AcDbEntity
  8
0
 62
     0
100
AcDbLine
 10
55.04221213871113
 20
10.63393156317681
 30
0.0
 11
57.84221213871109
 21
13.43393156317682
 31
0.0
  0
LINE
  5
DCF
330
CE3
100
AcDbEntity
  8
0
 62
     0
100
AcDbLine
 10
61.34221213871104
 20
17.83195717528366
 30
0.0
 11
64.14221213871115
 21
20.63195717528378
 31
0.0
  0
LINE
  5
DD0
330
CE3
100
AcDbEntity
  8
0
 62
     0
100
AcDbLine
 10
55.04221213871108
 20
11.53195717528376
 30
0.0
 11
57.84221213871103
 21
14.33195717528372
 31
0.0
  0
LINE
  5
DD1
330
CE3
100
AcDbEntity
  8
0
 62
     0
100
AcDbLine
 10
66.2422588534585
 20
22.73200389003119
 30
0.0
 11
66.76020868937479
 21
23.24995372594742
 31
0.0
  0
LINE
  5
DD2
330
CE3
100
AcDbEntity
  8
0
 62
     0
100
AcDbLine
 10
50.72065650799908
 20
7.210401544571709
 30
0.0
 11
52.88181103483424
 21
9.371556071406928
 31
0.0
  0
LINE
  5
DD3
330
CE3
100
AcDbEntity
  8
0
 62
     0
100
AcDbLine
 10
55.04221213871108
 20
12.42998278739065
 30
0.0
 11
57.84221213871103
 21
15.22998278739066
 31
0.0
  0
LINE
  5
DD4
330
CE3
100
AcDbEntity
  8
0
 62
     0
100
AcDbLine
 10
61.34221213871109
 20
18.72998278739066
 30
0.0
 11
64.1422121387111
 21
21.52998278739073
 31
0.0
  0
LINE
  5
DD5
330
CE3
100
AcDbEntity
  8
0
 62
     0
100
AcDbLine
 10
49.76222979201526
 20
7.150000440694896
 30
0.0
 11
52.942212138711
 21
10.32998278739057
 31
0.0
  0
LINE
  5
DD6
330
CE3
100
AcDbEntity
  8
0
 62
     0
100
AcDbLine
 10
55.04221213871108
 20
13.32800839949754
 30
0.0
 11
57.84221213871109
 21
16.1280083994975
 31
0.0
  0
LINE
  5
DD7
330
CE3
100
AcDbEntity
  8
0
 62
     0
100
AcDbLine
 10
61.34221213871109
 20
19.62800839949755
 30
0.0
 11
64.14221213871115
 21
22.42800839949762
 31
0.0
  0
LINE
  5
DD8
330
CE3
100
AcDbEntity
  8
0
 62
     0
100
AcDbLine
 10
48.86420417990831
 20
7.150000440694782
 30
0.0
 11
52.94221213871111
 21
11.22800839949752
 31
0.0
  0
LINE
  5
DD9
330
CE3
100
AcDbEntity
  8
0
 62
     0
100
AcDbLine
 10
55.04221213871108
 20
14.22603401160449
 30
0.0
 11
57.84221213871103
 21
17.02603401160445
 31
0.0
  0
LINE
  5
DDA
330
CE3
100
AcDbEntity
  8
0
 62
     0
100
AcDbLine
 10
61.34221213871109
 20
20.52603401160445
 30
0.0
 11
63.94847468387701
 21
23.13229655677042
 31
0.0
  0
LINE
  5
DDB
330
CE3
100
AcDbEntity
  8
0
 62
     0
100
AcDbLine
 10
47.96617856780142
 20
7.150000440694839
 30
0.0
 11
52.92789353829812
 21
12.11171541119154
 31
0.0
  0
LINE
  5
DDC
330
CE3
100
AcDbEntity
  8
0
 62
     0
100
AcDbLine
 10
55.04221213871108
 20
15.12405962371139
 30
0.0
 11
57.84221213871103
 21
17.9240596237114
 31
0.0
  0
LINE
  5
DDD
330
CE3
100
AcDbEntity
  8
0
 62
     0
100
AcDbLine
 10
61.34221213871104
 20
21.4240596237114
 30
0.0
 11
63.16815295569449
 21
23.25000044069486
 31
0.0
  0
LINE
  5
DDE
330
CE3
100
AcDbEntity
  8
0
 62
     0
100
AcDbLine
 10
47.06815295569447
 20
7.150000440694839
 30
0.0
 11
52.79298116766938
 21
12.87482865266969
 31
0.0
  0
LINE
  5
DDF
330
CE3
100
AcDbEntity
  8
0
 62
     0
100
AcDbLine
 10
55.04221213871108
 20
16.02208523581828
 30
0.0
 11
57.84221213871103
 21
18.82208523581823
 31
0.0
  0
LINE
  5
DE0
330
CE3
100
AcDbEntity
  8
0
 62
     0
100
AcDbLine
 10
50.1422121387111
 20
11.1220852358183
 30
0.0
 11
52.55239371075083
 21
13.53226680785797
 31
0.0
  0
LINE
  5
DE1
330
CE3
100
AcDbEntity
  8
0
 62
     0
100
AcDbLine
 10
61.34221213871109
 20
22.32208523581829
 30
0.0
 11
62.27012734358772
 21
23.25000044069491
 31
0.0
  0
LINE
  5
DE2
330
CE3
100
AcDbEntity
  8
0
 62
     0
100
AcDbLine
 10
46.2983826967187
 20
7.278255793825906
 30
0.0
 11
48.97012734358759
 21
9.950000440694793
 31
0.0
  0
LINE
  5
DE3
330
CE3
100
AcDbEntity
  8
0
 62
     0
100
AcDbLine
 10
50.1223415635838
 20
12.00024027279789
 30
0.0
 11
52.22889440589028
 21
14.10679311510438
 31
0.0
  0
LINE
  5
DE4
330
CE3
100
AcDbEntity
  8
0
 62
     0
100
AcDbLine
 10
55.04221213871108
 20
16.92011084792517
 30
0.0
 11
57.84221213871109
 21
19.72011084792524
 31
0.0
  0
LINE
  5
DE5
330
CE3
100
AcDbEntity
  8
0
 62
     0
100
AcDbLine
 10
46.11721213871101
 20
7.995110847925161
 30
0.0
 11
48.07210173148064
 21
9.950000440694793
 31
0.0
  0
LINE
  5
DE6
330
CE3
100
AcDbEntity
  8
0
 62
     0
100
AcDbLine
 10
49.84795672644492
 20
12.62388104776602
 30
0.0
 11
51.83302328796248
 21
14.60894760928357
 31
0.0
  0
LINE
  5
DE7
330
CE3
100
AcDbEntity
  8
0
 62
     0
100
AcDbLine
 10
55.04221213871102
 20
17.81813646003212
 30
0.0
 11
57.84221213871109
 21
20.61813646003219
 31
0.0
  0
LINE
  5
DE8
330
CE3
100
AcDbEntity
  8
0
 62
     0
100
AcDbLine
 10
46.11721213871101
 20
8.893136460032053
 30
0.0
 11
47.17407611937375
 21
9.95000044069485
 31
0.0
  0
LINE
  5
DE9
330
CE3
100
AcDbEntity
  8
0
 62
     0
100
AcDbLine
 10
55.04221213871108
 20
18.71616207213901
 30
0.0
 11
57.84221213871115
 21
21.51616207213902
 31
0.0
  0
LINE
  5
DEA
330
CE3
100
AcDbEntity
  8
0
 62
     0
100
AcDbLine
 10
49.40668182932785
 20
13.08063176275573
 30
0.0
 11
51.38658081665022
 21
15.06053075007815
 31
0.0
  0
LINE
  5
DEB
330
CE3
100
AcDbEntity
  8
0
 62
     0
100
AcDbLine
 10
48.95766902327437
 20
13.5296445688092
 30
0.0
 11
50.93756801059669
 21
15.50954355613152
 31
0.0
  0
LINE
  5
DEC
330
CE3
100
AcDbEntity
  8
0
 62
     0
100
AcDbLine
 10
55.04221213871102
 20
19.6141876842459
 30
0.0
 11
57.84221213871109
 21
22.41418768424597
 31
0.0
  0
LINE
  5
DED
330
CE3
100
AcDbEntity
  8
0
 62
     0
100
AcDbLine
 10
42.57802489515995
 20
7.150000440694839
 30
0.0
 11
43.49221213871106
 21
8.064187684245894
 31
0.0
  0
LINE
  5
DEE
330
CE3
100
AcDbEntity
  8
0
 62
     0
100
AcDbLine
 10
48.50865621722096
 20
13.97865737486279
 30
0.0
 11
50.48855520454321
 21
15.95855636218499
 31
0.0
  0
LINE
  5
DEF
330
CE3
100
AcDbEntity
  8
0
 62
     0
100
AcDbLine
 10
55.04221213871102
 20
20.51221329635285
 30
0.0
 11
57.65603123061243
 21
23.1260323882542
 31
0.0
  0
LINE
  5
DF0
330
CE3
100
AcDbEntity
  8
0
 62
     0
100
AcDbLine
 10
41.67999928305294
 20
7.150000440694782
 30
0.0
 11
43.49221213871112
 21
8.962213296352899
 31
0.0
  0
LINE
  5
DF1
330
CE3
100
AcDbEntity
  8
0
 62
     0
100
AcDbLine
 10
48.05964341116743
 20
14.42767018091615
 30
0.0
 11
50.03954239848974
 21
16.40756916823846
 31
0.0
  0
LINE
  5
DF2
330
CE3
100
AcDbEntity
  8
0
 62
     0
100
AcDbLine
 10
55.04221213871102
 20
21.41023890845974
 30
0.0
 11
56.88197367094613
 21
23.25000044069491
 31
0.0
  0
LINE
  5
DF3
330
CE3
100
AcDbEntity
  8
0
 62
     0
100
AcDbLine
 10
40.89358480880804
 20
7.261611578556767
 30
0.0
 11
43.49221213871106
 21
9.860238908459848
 31
0.0
  0
LINE
  5
DF4
330
CE3
100
AcDbEntity
  8
0
 62
     0
100
AcDbLine
 10
47.61063060511401
 20
14.87668298696957
 30
0.0
 11
49.59052959243632
 21
16.85658197429188
 31
0.0
  0
LINE
  5
DF5
330
CE3
100
AcDbEntity
  8
0
 62
     0
100
AcDbLine
 10
55.04221213871102
 20
22.30826452056664
 30
0.0
 11
55.98394805883931
 21
23.25000044069486
 31
0.0
  0
LINE
  5
DF6
330
CE3
100
AcDbEntity
  8
0
 62
     0
100
AcDbLine
 10
40.69221213871111
 20
7.958264520566729
 30
0.0
 11
43.49221213871112
 21
10.75826452056668
 31
0.0
  0
LINE
  5
DF7
330
CE3
100
AcDbEntity
  8
0
 62
     0
100
AcDbLine
 10
47.16161779906054
 20
15.32569579302304
 30
0.0
 11
49.14151678638285
 21
17.30559478034535
 31
0.0
  0
LINE
  5
DF8
330
CE3
100
AcDbEntity
  8
0
 62
     0
100
AcDbLine
 10
40.69221213871111
 20
8.856290132673677
 30
0.0
 11
43.49221213871106
 21
11.65629013267363
 31
0.0
  0
LINE
  5
DF9
330
CE3
100
AcDbEntity
  8
0
 62
     0
100
AcDbLine
 10
46.7146338980192
 20
15.77673750408871
 30
0.0
 11
48.69860743140122
 21
17.76071103747068
 31
0.0
  0
LINE
  5
DFA
330
CE3
100
AcDbEntity
  8
0
 62
     0
100
AcDbLine
 10
40.69221213871111
 20
9.754315744780569
 30
0.0
 11
43.49221213871106
 21
12.55431574478058
 31
0.0
  0
LINE
  5
DFB
330
CE3
100
AcDbEntity
  8
0
 62
     0
100
AcDbLine
 10
51.38789683462539
 20
20.45000044069485
 30
0.0
 11
52.41721213871113
 21
21.47931574478059
 31
0.0
  0
LINE
  5
DFC
330
CE3
100
AcDbEntity
  8
0
 62
     0
100
AcDbLine
 10
38.19955591400088
 20
7.261659520070338
 30
0.0
 11
38.2892082754559
 21
7.351311881525418
 31
0.0
  0
LINE
  5
DFD
330
CE3
100
AcDbEntity
  8
0
 62
     0
100
AcDbLine
 10
46.31663171919723
 20
16.27676093737358
 30
0.0
 11
48.41626599661584
 21
18.37639521479218
 31
0.0
  0
LINE
  5
DFE
330
CE3
100
AcDbEntity
  8
0
 62
     0
100
AcDbLine
 10
40.69221213871111
 20
10.65234135688746
 30
0.0
 11
43.49221213871112
 21
13.45234135688741
 31
0.0
  0
LINE
  5
DFF
330
CE3
100
AcDbEntity
  8
0
 62
     0
100
AcDbLine
 10
50.4898712225185
 20
20.45000044069485
 30
0.0
 11
52.41721213871113
 21
22.37734135688748
 31
0.0
  0
LINE
  5
E00
330
CE3
100
AcDbEntity
  8
0
 62
     0
100
AcDbLine
 10
37.18987122251843
 20
7.150000440694782
 30
0.0
 11
38.2556503188249
 21
8.215779537001196
 31
0.0
  0
LINE
  5
E01
330
CE3
100
AcDbEntity
  8
0
 62
     0
100
AcDbLine
 10
45.99079745480054
 20
16.84895228508383
 30
0.0
 11
48.39221213871116
 21
19.25036696899439
 31
0.0
  0
LINE
  5
E02
330
CE3
100
AcDbEntity
  8
0
 62
     0
100
AcDbLine
 10
40.69221213871111
 20
11.55036696899435
 30
0.0
 11
43.49221213871106
 21
14.35036696899436
 31
0.0
  0
LINE
  5
E03
330
CE3
100
AcDbEntity
  8
0
 62
     0
100
AcDbLine
 10
49.59184561041161
 20
20.45000044069485
 30
0.0
 11
52.25054320691322
 21
23.10869803719652
 31
0.0
  0
LINE
  5
E04
330
CE3
100
AcDbEntity
  8
0
 62
     0
100
AcDbLine
 10
36.29184561041154
 20
7.150000440694782
 30
0.0
 11
38.04012417191927
 21
8.898279002202571
 31
0.0
  0
LINE
  5
E05
330
CE3
100
AcDbEntity
  8
0
 62
     0
100
AcDbLine
 10
40.69221213871105
 20
12.4483925811013
 30
0.0
 11
43.49221213871106
 21
15.24839258110125
 31
0.0
  0
LINE
  5
E06
330
CE3
100
AcDbEntity
  8
0
 62
     0
100
AcDbLine
 10
45.74741539213045
 20
17.50359583452069
 30
0.0
 11
51.49381999830461
 21
23.25000044069486
 31
0.0
  0
LINE
  5
E07
330
CE3
100
AcDbEntity
  8
0
 62
     0
100
AcDbLine
 10
35.69983129975645
 20
7.456011742146699
 30
0.0
 11
37.82459802501358
 21
9.580778467403831
 31
0.0
  0
LINE
  5
E08
330
CE3
100
AcDbEntity
  8
0
 62
     0
100
AcDbLine
 10
40.69221213871105
 20
13.34641819320825
 30
0.0
 11
43.49221213871101
 21
16.1464181932082
 31
0.0
  0
LINE
  5
E09
330
CE3
100
AcDbEntity
  8
0
 62
     0
100
AcDbLine
 10
45.60870853304476
 20
18.26291458754195
 30
0.0
 11
50.59579438619772
 21
23.25000044069486
 31
0.0
  0
LINE
  5
E0A
330
CE3
100
AcDbEntity
  8
0
 62
     0
100
AcDbLine
 10
35.48107187810785
 20
8.135277932605049
 30
0.0
 11
37.60907187810784
 21
10.26327793260503
 31
0.0
  0
LINE
  5
E0B
330
CE3
100
AcDbEntity
  8
0
 62
     0
100
AcDbLine
 10
40.69221213871111
 20
14.24444380531508
 30
0.0
 11
43.49221213871106
 21
17.04444380531509
 31
0.0
  0
LINE
  5
E0C
330
CE3
100
AcDbEntity
  8
0
 62
     0
100
AcDbLine
 10
45.59221213871109
 20
19.14444380531506
 30
0.0
 11
49.69776877409083
 21
23.25000044069486
 31
0.0
  0
LINE
  5
E0D
330
CE3
100
AcDbEntity
  8
0
 62
     0
100
AcDbLine
 10
35.26554573120222
 20
8.817777397806253
 30
0.0
 11
37.39354573120232
 21
10.94577739780629
 31
0.0
  0
LINE
  5
E0E
330
CE3
100
AcDbEntity
  8
0
 62
     0
100
AcDbLine
 10
40.69221213871105
 20
15.14246941742203
 30
0.0
 11
43.49221213871106
 21
17.94246941742199
 31
0.0
  0
LINE
  5
E0F
330
CE3
100
AcDbEntity
  8
0
 62
     0
100
AcDbLine
 10
45.59221213871114
 20
20.04246941742207
 30
0.0
 11
48.79974316198394
 21
23.25000044069486
 31
0.0
  0
LINE
  5
E10
330
CE3
100
AcDbEntity
  8
0
 62
     0
100
AcDbLine
 10
35.05001958429648
 20
9.500276863007456
 30
0.0
 11
37.17801958429663
 21
11.62827686300755
 31
0.0
  0
LINE
  5
E11
330
CE3
100
AcDbEntity
  8
0
 62
     0
100
AcDbLine
 10
40.69221213871105
 20
16.04049502952892
 30
0.0
 11
43.49221213871112
 21
18.84049502952899
 31
0.0
  0
LINE
  5
E12
330
CE3
100
AcDbEntity
  8
0
 62
     0
100
AcDbLine
 10
34.83449343739084
 20
10.18277632820877
 30
0.0
 11
36.96249343739094
 21
12.31077632820881
 31
0.0
  0
LINE
  5
E13
330
CE3
100
AcDbEntity
  8
0
 62
     0
100
AcDbLine
 10
45.64552880883229
 20
20.99381169965022
 30
0.0
 11
47.84840087975561
 21
23.19668377057354
 31
0.0
  0
LINE
  5
E14
330
CE3
100
AcDbEntity
  8
0
 62
     0
100
AcDbLine
 10
31.80171754987696
 20
7.150000440694839
 30
0.0
 11
32.64221213871104
 21
7.990495029528972
 31
0.0
  0
LINE
  5
E15
330
CE3
100
AcDbEntity
  8
0
 62
     0
100
AcDbLine
 10
34.61896729048527
 20
10.86527579340997
 30
0.0
 11
36.7469672904852
 21
12.99327579340996
 31
0.0
  0
LINE
  5
E16
330
CE3
100
AcDbEntity
  8
0
 62
     0
100
AcDbLine
 10
40.69221213871105
 20
16.93852064163581
 30
0.0
 11
43.49221213871112
 21
19.73852064163588
 31
0.0
  0
LINE
  5
E17
330
CE3
100
AcDbEntity
  8
0
 62
     0
100
AcDbLine
 10
30.90369193777007
 20
7.150000440694839
 30
0.0
 11
32.6422121387111
 21
8.888520641635864
 31
0.0
  0
LINE
  5
E18
330
CE3
100
AcDbEntity
  8
0
 62
     0
100
AcDbLine
 10
34.40344114357958
 20
11.54777525861123
 30
0.0
 11
36.53144114357962
 21
13.67577525861134
 31
0.0
  0
LINE
  5
E19
330
CE3
100
AcDbEntity
  8
0
 62
     0
100
AcDbLine
 10
40.69221213871105
 20
17.83654625374276
 30
0.0
 11
43.49221213871112
 21
20.63654625374277
 31
0.0
  0
LINE
  5
E1A
330
CE3
100
AcDbEntity
  8
0
 62
     0
100
AcDbLine
 10
30.08681607331436
 20
7.231150188346077
 30
0.0
 11
32.6422121387111
 21
9.786546253742756
 31
0.0
  0
LINE
  5
E1B
330
CE3
100
AcDbEntity
  8
0
 62
     0
100
AcDbLine
 10
34.18791499667389
 20
12.23027472381249
 30
0.0
 11
36.31591499667393
 21
14.3582747238126
 31
0.0
  0
LINE
  5
E1C
330
CE3
100
AcDbEntity
  8
0
 62
     0
100
AcDbLine
 10
40.69221213871105
 20
18.73457186584966
 30
0.0
 11
43.49221213871106
 21
21.53457186584972
 31
0.0
  0
LINE
  5
E1D
330
CE3
100
AcDbEntity
  8
0
 62
     0
100
AcDbLine
 10
29.84221213871109
 20
7.884571865849693
 30
0.0
 11
32.64221213871104
 21
10.6845718658497
 31
0.0
  0
LINE
  5
E1E
330
CE3
100
AcDbEntity
  8
0
 62
     0
100
AcDbLine
 10
33.97238884976826
 20
12.9127741890137
 30
0.0
 11
36.1003888497683
 21
15.0407741890138
 31
0.0
  0
LINE
  5
E1F
330
CE3
100
AcDbEntity
  8
0
 62
     0
100
AcDbLine
 10
40.69221213871105
 20
19.63259747795655
 30
0.0
 11
43.49221213871112
 21
22.43259747795661
 31
0.0
  0
LINE
  5
E20
330
CE3
100
AcDbEntity
  8
0
 62
     0
100
AcDbLine
 10
29.84221213871109
 20
8.782597477956585
 30
0.0
 11
32.6422121387111
 21
11.58259747795653
 31
0.0
  0
LINE
  5
E21
330
CE3
100
AcDbEntity
  8
0
 62
     0
100
AcDbLine
 10
33.73759006279652
 20
13.57600101414897
 30
0.0
 11
36.36788413072741
 21
16.20629508207986
 31
0.0
  0
LINE
  5
E22
330
CE3
100
AcDbEntity
  8
0
 62
     0
100
AcDbLine
 10
40.69221213871111
 20
20.53062309006355
 30
0.0
 11
43.29593671621267
 21
23.13434766756506
 31
0.0
  0
LINE
  5
E23
330
CE3
100
AcDbEntity
  8
0
 62
     0
100
AcDbLine
 10
29.84221213871109
 20
9.680623090063534
 30
0.0
 11
32.64221213871104
 21
12.48062309006348
 31
0.0
  0
LINE
  5
E24
330
CE3
100
AcDbEntity
  8
0
 62
     0
100
AcDbLine
 10
33.05040469292913
 20
13.78684125638852
 30
0.0
 11
36.78235749016136
 21
17.51879405362075
 31
0.0
  0
LINE
  5
E25
330
CE3
100
AcDbEntity
  8
0
 62
     0
100
AcDbLine
 10
29.84221213871109
 20
10.57864870217042
 30
0.0
 11
32.65537132301739
 21
13.39180788647672
 31
0.0
  0
LINE
  5
E26
330
CE3
100
AcDbEntity
  8
0
 62
     0
100
AcDbLine
 10
40.69221213871111
 20
21.42864870217044
 30
0.0
 11
42.51356387723546
 21
23.25000044069486
 31
0.0
  0
LINE
  5
E27
330
CE3
100
AcDbEntity
  8
0
 62
     0
100
AcDbLine
 10
26.41356387723544
 20
7.150000440694782
 30
0.0
 11
27.3922121387111
 21
8.128648702170494
 31
0.0
  0
LINE
  5
E28
330
CE3
100
AcDbEntity
  8
0
 62
     0
100
AcDbLine
 10
29.84221213871103
 20
11.47667431427737
 30
0.0
 11
37.1968308495953
 21
18.83129302516158
 31
0.0
  0
LINE
  5
E29
330
CE3
100
AcDbEntity
  8
0
 62
     0
100
AcDbLine
 10
40.69221213871105
 20
22.32667431427739
 30
0.0
 11
41.61553826512852
 21
23.25000044069486
 31
0.0
  0
LINE
  5
E2A
330
CE3
100
AcDbEntity
  8
0
 62
     0
100
AcDbLine
 10
25.51553826512849
 20
7.150000440694839
 30
0.0
 11
27.3922121387111
 21
9.026674314277443
 31
0.0
  0
LINE
  5
E2B
330
CE3
100
AcDbEntity
  8
0
 62
     0
100
AcDbLine
 10
29.84221213871109
 20
12.37469992638421
 30
0.0
 11
37.61130420902935
 21
20.14379199670247
 31
0.0
  0
LINE
  5
E2C
330
CE3
100
AcDbEntity
  8
0
 62
     0
100
AcDbLine
 10
24.62919327737171
 20
7.161681065044888
 30
0.0
 11
27.25087785510493
 21
9.783365642778051
 31
0.0
  0
LINE
  5
E2D
330
CE3
100
AcDbEntity
  8
0
 62
     0
100
AcDbLine
 10
29.84221213871103
 20
13.27272553849115
 30
0.0
 11
33.1694870409147
 21
16.60000044069482
 31
0.0
  0
LINE
  5
E2E
330
CE3
100
AcDbEntity
  8
0
 62
     0
100
AcDbLine
 10
33.93346987615541
 20
17.36398327593553
 30
0.0
 11
38.02577756846335
 21
21.45629096824342
 31
0.0
  0
LINE
  5
E2F
330
CE3
100
AcDbEntity
  8
0
 62
     0
100
AcDbLine
 10
23.86103275992474
 20
7.291546159704807
 30
0.0
 11
26.51948704091478
 21
9.95000044069485
 31
0.0
  0
LINE
  5
E30
330
CE3
100
AcDbEntity
  8
0
 62
     0
100
AcDbLine
 10
29.84221213871103
 20
14.1707511505981
 30
0.0
 11
32.66020270941936
 21
16.98874172130638
 31
0.0
  0
LINE
  5
E31
330
CE3
100
AcDbEntity
  8
0
 62
     0
100
AcDbLine
 10
34.34794323558935
 20
18.67648224747637
 30
0.0
 11
38.40084902026473
 21
22.7293880321518
 31
0.0
  0
LINE
  5
E32
330
CE3
100
AcDbEntity
  8
0
 62
     0
100
AcDbLine
 10
23.19989850309832
 20
7.528437514985398
 30
0.0
 11
25.62146142880783
 21
9.950000440694907
 31
0.0
  0
LINE
  5
E33
330
CE3
100
AcDbEntity
  8
0
 62
     0
100
AcDbLine
 10
29.84221213871109
 20
15.06877676270494
 30
0.0
 11
32.6422121387111
 21
17.86877676270501
 31
0.0
  0
LINE
  5
E34
330
CE3
100
AcDbEntity
  8
0
 62
     0
100
AcDbLine
 10
34.76241659502346
 20
19.98898121901737
 30
0.0
 11
38.00683714769553
 21
23.23340177168944
 31
0.0
  0
LINE
  5
E35
330
CE3
100
AcDbEntity
  8
0
 62
     0
100
AcDbLine
 10
22.62229521893402
 20
7.848859842927879
 30
0.0
 11
24.73835707742688
 21
9.964921701420792
 31
0.0
  0
LINE
  5
E36
330
CE3
100
AcDbEntity
  8
0
 62
     0
100
AcDbLine
 10
29.84221213871103
 20
15.96680237481189
 30
0.0
 11
32.6422121387111
 21
18.76680237481195
 31
0.0
  0
LINE
  5
E37
330
CE3
100
AcDbEntity
  8
0
 62
     0
100
AcDbLine
 10
35.17688995445741
 20
21.30148019055821
 30
0.0
 11
37.125410204594
 21
23.25000044069486
 31
0.0
  0
LINE
  5
E38
330
CE3
100
AcDbEntity
  8
0
 62
     0
100
AcDbLine
 10
22.11734025255196
 20
8.241930488652769
 30
0.0
 11
24.10404093640858
 21
10.22863117250938
 31
0.0
  0
LINE
  5
E39
330
CE3
100
AcDbEntity
  8
0
 62
     0
100
AcDbLine
 10
29.84221213871103
 20
16.86482798691878
 30
0.0
 11
32.6422121387111
 21
19.66482798691885
 31
0.0
  0
LINE
  5
E3A
330
CE3
100
AcDbEntity
  8
0
 62
     0
100
AcDbLine
 10
26.50384627048754
 20
13.52646211869535
 30
0.0
 11
27.66575046071062
 21
14.68836630891843
 31
0.0
  0
LINE
  5
E3B
330
CE3
100
AcDbEntity
  8
0
 62
     0
100
AcDbLine
 10
35.59136331389129
 20
22.61397916209909
 30
0.0
 11
36.22738459248711
 21
23.25000044069491
 31
0.0
  0
LINE
  5
E3C
330
CE3
100
AcDbEntity
  8
0
 62
     0
100
AcDbLine
 10
21.68090317922212
 20
8.703519027429933
 30
0.0
 11
23.69378998513639
 21
10.71640583334419
 31
0.0
  0
LINE
  5
E3D
330
CE3
100
AcDbEntity
  8
0
 62
     0
100
AcDbLine
 10
25.57887342885772
 20
13.49951488917247
 30
0.0
 11
27.6926976902335
 21
15.61333915054819
 31
0.0
  0
LINE
  5
E3E
330
CE3
100
AcDbEntity
  8
0
 62
     0
100
AcDbLine
 10
29.84221213871098
 20
17.76285359902573
 30
0.0
 11
32.64221213871104
 21
20.5628535990258
 31
0.0
  0
LINE
  5
E3F
330
CE3
100
AcDbEntity
  8
0
 62
     0
100
AcDbLine
 10
21.31388395427916
 20
9.234525414593861
 30
0.0
 11
23.54221213871107
 21
11.46285359902583
 31
0.0
  0
LINE
  5
E40
330
CE3
100
AcDbEntity
  8
0
 62
     0
100
AcDbLine
 10
24.96472685943752
 20
13.78339393185905
 30
0.0
 11
27.40881864754686
 21
16.22748571996845
 31
0.0
  0
LINE
  5
E41
330
CE3
100
AcDbEntity
  8
0
 62
     0
100
AcDbLine
 10
29.84221213871103
 20
18.66087921113262
 30
0.0
 11
32.6422121387111
 21
21.46087921113263
 31
0.0
  0
LINE
  5
E42
330
CE3
100
AcDbEntity
  8
0
 62
     0
100
AcDbLine
 10
21.02256644435442
 20
9.841233516776014
 30
0.0
 11
23.54221213871107
 21
12.36087921113266
 31
0.0
  0
LINE
  5
E43
330
CE3
100
AcDbEntity
  8
0
 62
     0
100
AcDbLine
 10
24.5267669324478
 20
14.24345961697633
 30
0.0
 11
26.94875296242964
 21
16.66544564695811
 31
0.0
  0
LINE
  5
E44
330
CE3
100
AcDbEntity
  8
0
 62
     0
100
AcDbLine
 10
29.84221213871103
 20
19.55890482323951
 30
0.0
 11
32.64221213871104
 21
22.35890482323958
 31
0.0
  0
LINE
  5
E45
330
CE3
100
AcDbEntity
  8
0
 62
     0
100
AcDbLine
 10
20.82142908017976
 20
10.5381217647083
 30
0.0
 11
23.54221213871107
 21
13.25890482323961
 31
0.0
  0
LINE
  5
E46
330
CE3
100
AcDbEntity
  8
0
 62
     0
100
AcDbLine
 10
24.27071620003943
 20
14.88543449667486
 30
0.0
 11
26.30677808273105
 21
16.92149637936654
 31
0.0
  0
LINE
  5
E47
330
CE3
100
AcDbEntity
  8
0
 62
     0
100
AcDbLine
 10
20.74221213871101
 20
11.35693043534649
 30
0.0
 11
23.54221213871107
 21
14.15693043534651
 31
0.0
  0
LINE
  5
E48
330
CE3
100
AcDbEntity
  8
0
 62
     0
100
AcDbLine
 10
29.84221213871098
 20
20.45693043534646
 30
0.0
 11
32.48496203035597
 21
23.09968032699146
 31
0.0
  0
LINE
  5
E49
330
CE3
100
AcDbEntity
  8
0
 62
     0
100
AcDbLine
 10
16.65621538083541
 20
7.270933677470907
 30
0.0
 11
18.52127890193514
 21
9.135997198570635
 31
0.0
  0
LINE
  5
E4A
330
CE3
100
AcDbEntity
  8
0
 62
     0
100
AcDbLine
 10
24.38912928352022
 20
15.90187319226254
 30
0.0
 11
25.29033938714343
 21
16.80308329588575
 31
0.0
  0
LINE
  5
E4B
330
CE3
100
AcDbEntity
  8
0
 62
     0
100
AcDbLine
 10
20.74221213871101
 20
12.25495604745333
 30
0.0
 11
23.54221213871107
 21
15.0549560474534
 31
0.0
  0
LINE
  5
E4C
330
CE3
100
AcDbEntity
  8
0
 62
     0
100
AcDbLine
 10
29.84221213871103
 20
21.35495604745329
 30
0.0
 11
31.73725653195259
 21
23.25000044069491
 31
0.0
  0
LINE
  5
E4D
330
CE3
100
AcDbEntity
  8
0
 62
     0
100
AcDbLine
 10
15.63725653195246
 20
7.150000440694782
 30
0.0
 11
18.6422121387111
 21
10.15495604745342
 31
0.0
  0
LINE
  5
E4E
330
CE3
100
AcDbEntity
  8
0
 62
     0
100
AcDbLine
 10
20.74221213871101
 20
13.15298165956028
 30
0.0
 11
23.54221213871107
 21
15.95298165956035
 31
0.0
  0
LINE
  5
E4F
330
CE3
100
AcDbEntity
  8
0
 62
     0
100
AcDbLine
 10
29.84221213871098
 20
22.25298165956024
 30
0.0
 11
30.83923091984559
 21
23.25000044069486
 31
0.0
  0
LINE
  5
E50
330
CE3
100
AcDbEntity
  8
0
 62
     0
100
AcDbLine
 10
14.73923091984556
 20
7.150000440694782
 30
0.0
 11
18.6422121387111
 21
11.05298165956037
 31
0.0
  0
LINE
  5
E51
330
CE3
100
AcDbEntity
  8
0
 62
     0
100
AcDbLine
 10
20.74221213871101
 20
14.05100727166717
 30
0.0
 11
23.54221213871102
 21
16.85100727166724
 31
0.0
  0
LINE
  5
E52
330
CE3
100
AcDbEntity
  8
0
 62
     0
100
AcDbLine
 10
13.84120530773861
 20
7.150000440694839
 30
0.0
 11
18.63827278614991
 21
11.94706791910613
 31
0.0
  0
LINE
  5
E53
330
CE3
100
AcDbEntity
  8
0
 62
     0
100
AcDbLine
 10
20.74221213871101
 20
14.94903288377412
 30
0.0
 11
23.54221213871107
 21
17.74903288377419
 31
0.0
  0
LINE
  5
E54
330
CE3
100
AcDbEntity
  8
0
 62
     0
100
AcDbLine
 10
26.24317969563179
 20
20.4500004406949
 30
0.0
 11
27.39221213871116
 21
21.59903288377421
 31
0.0
  0
LINE
  5
E55
330
CE3
100
AcDbEntity
  8
0
 62
     0
100
AcDbLine
 10
12.94317969563172
 20
7.150000440694839
 30
0.0
 11
18.52861094982858
 21
12.7354316948917
 31
0.0
  0
LINE
  5
E56
330
CE3
100
AcDbEntity
  8
0
 62
     0
100
AcDbLine
 10
20.74221213871101
 20
15.84705849588101
 30
0.0
 11
23.54221213871107
 21
18.64705849588102
 31
0.0
  0
LINE
  5
E57
330
CE3
100
AcDbEntity
  8
0
 62
     0
100
AcDbLine
 10
15.84221213871109
 20
10.94705849588109
 30
0.0
 11
18.30627220578446
 21
13.41111856295447
 31
0.0
  0
LINE
  5
E58
330
CE3
100
AcDbEntity
  8
0
 62
     0
100
AcDbLine
 10
25.34515408352479
 20
20.45000044069479
 30
0.0
 11
27.3922121387111
 21
22.4970584958811
 31
0.0
  0
LINE
  5
E59
330
CE3
100
AcDbEntity
  8
0
 62
     0
100
AcDbLine
 10
12.10287995878474
 20
7.207726315954744
 30
0.0
 11
14.84515408352478
 21
9.950000440694793
 31
0.0
  0
LINE
  5
E5A
330
CE3
100
AcDbEntity
  8
0
 62
     0
100
AcDbLine
 10
20.74221213871095
 20
16.7450841079879
 30
0.0
 11
23.70802684449074
 21
19.71089881376769
 31
0.0
  0
LINE
  5
E5B
330
CE3
100
AcDbEntity
  8
0
 62
     0
100
AcDbLine
 10
15.84005304710183
 20
11.84292501637872
 30
0.0
 11
17.99784067111244
 21
14.00071264038939
 31
0.0
  0
LINE
  5
E5C
330
CE3
100
AcDbEntity
  8
0
 62
     0
100
AcDbLine
 10
24.28131376563829
 20
20.28418573491524
 30
0.0
 11
27.1587447237913
 21
23.16161669306819
 31
0.0
  0
LINE
  5
E5D
330
CE3
100
AcDbEntity
  8
0
 62
     0
100
AcDbLine
 10
11.81721213871099
 20
7.820084107987952
 30
0.0
 11
13.94712847141795
 21
9.950000440694907
 31
0.0
  0
LINE
  5
E5E
330
CE3
100
AcDbEntity
  8
0
 62
     0
100
AcDbLine
 10
15.62045002760112
 20
12.52134760898502
 30
0.0
 11
17.61559870627354
 21
14.51649628765744
 31
0.0
  0
LINE
  5
E5F
330
CE3
100
AcDbEntity
  8
0
 62
     0
100
AcDbLine
 10
20.74221213871095
 20
17.64310972009485
 30
0.0
 11
26.34910285931101
 21
23.25000044069491
 31
0.0
  0
LINE
  5
E60
330
CE3
100
AcDbEntity
  8
0
 62
     0
100
AcDbLine
 10
11.81721213871099
 20
8.718109720094901
 30
0.0
 11
13.04910285931095
 21
9.95000044069485
 31
0.0
  0
LINE
  5
E61
330
CE3
100
AcDbEntity
  8
0
 62
     0
100
AcDbLine
 10
15.19419519929641
 20
12.99311839278715
 30
0.0
 11
17.17409418661878
 21
14.97301738010952
 31
0.0
  0
LINE
  5
E62
330
CE3
100
AcDbEntity
  8
0
 62
     0
100
AcDbLine
 10
20.74221213871101
 20
18.54113533220169
 30
0.0
 11
25.45107724720395
 21
23.25000044069469
 31
0.0
  0
LINE
  5
E63
330
CE3
100
AcDbEntity
  8
0
 62
     0
100
AcDbLine
 10
11.88616406073083
 20
9.685087254221571
 30
0.0
 11
12.08212532518444
 21
9.881048518675186
 31
0.0
  0
LINE
  5
E64
330
CE3
100
AcDbEntity
  8
0
 62
     0
100
AcDbLine
 10
20.76218725286758
 20
19.45913605846522
 30
0.0
 11
24.53307652094059
 21
23.23002532653828
 31
0.0
  0
LINE
  5
E65
330
CE3
100
AcDbEntity
  8
0
 62
     0
100
AcDbLine
 10
14.74518239324282
 20
13.44213119884051
 30
0.0
 11
16.72508138056531
 21
15.422030186163
 31
0.0
  0
LINE
  5
E66
330
CE3
100
AcDbEntity
  8
0
 62
     0
100
AcDbLine
 10
21.06165068513337
 20
20.656625102838
 30
0.0
 11
23.33558747656786
 21
22.9305618942725
 31
0.0
  0
LINE
  5
E67
330
CE3
100
AcDbEntity
  8
0
 62
     0
100
AcDbLine
 10
14.29616958718935
 20
13.89114400489398
 30
0.0
 11
16.27606857451183
 21
15.87104299221647
 31
0.0
  0
LINE
  5
E68
330
CE3
100
AcDbEntity
  8
0
 62
     0
100
AcDbLine
 10
13.8471567811361
 20
14.34015681094757
 30
0.0
 11
15.82705576845836
 21
16.32005579826977
 31
0.0
  0
LINE
  5
E69
330
CE3
100
AcDbEntity
  8
0
 62
     0
100
AcDbLine
 10
13.39814397508263
 20
14.78916961700105
 30
0.0
 11
15.37804296240489
 21
16.76906860432325
 31
0.0
  0
LINE
  5
E6A
330
CE3
100
AcDbEntity
  8
0
 62
     0
100
AcDbLine
 10
12.94913116902898
 20
15.23818242305435
 30
0.0
 11
14.92903015635141
 21
17.21808141037672
 31
0.0
  0
LINE
  5
E6B
330
CE3
100
AcDbEntity
  8
0
 62
     0
100
AcDbLine
 10
17.26292357456259
 20
20.4500004406949
 30
0.0
 11
18.11721213871095
 21
21.30428900484326
 31
0.0
  0
LINE
  5
E6C
330
CE3
100
AcDbEntity
  8
0
 62
     0
100
AcDbLine
 10
12.50020167700375
 20
15.68727854313607
 30
0.0
 11
14.48026732043621
 21
17.66734418656852
 31
0.0
  0
LINE
  5
E6D
330
CE3
100
AcDbEntity
  8
0
 62
     0
100
AcDbLine
 10
16.36489796245564
 20
20.45000044069479
 30
0.0
 11
18.11721213871106
 21
22.20231461695021
 31
0.0
  0
LINE
  5
E6E
330
CE3
100
AcDbEntity
  8
0
 62
     0
100
AcDbLine
 10
12.08873375245218
 20
16.17383623069128
 30
0.0
 11
14.15037043914827
 21
18.23547291738742
 31
0.0
  0
LINE
  5
E6F
330
CE3
100
AcDbEntity
  8
0
 62
     0
100
AcDbLine
 10
15.46687235034869
 20
20.45000044069479
 30
0.0
 11
18.03065323894992
 21
23.01378132929602
 31
0.0
  0
LINE
  5
E70
330
CE3
100
AcDbEntity
  8
0
 62
     0
100
AcDbLine
 10
11.74827314618971
 20
16.73140123653576
 30
0.0
 11
14.09221213871103
 21
19.07534022905713
 31
0.0
  0
LINE
  5
E71
330
CE3
100
AcDbEntity
  8
0
 62
     0
100
AcDbLine
 10
14.56638008907168
 20
20.44753379152467
 30
0.0
 11
17.36884673824187
 21
23.25000044069486
 31
0.0
  0
LINE
  5
E72
330
CE3
100
AcDbEntity
  8
0
 62
     0
100
AcDbLine
 10
11.48757985045762
 20
17.36873355291061
 30
0.0
 11
14.0946787878812
 21
19.97583249033425
 31
0.0
  0
LINE
  5
E73
330
CE3
100
AcDbEntity
  8
0
 62
     0
100
AcDbLine
 10
11.32576788820955
 20
18.10494720276943
 30
0.0
 11
16.47082112613498
 21
23.25000044069486
 31
0.0
  0
LINE
  5
E74
330
CE3
100
AcDbEntity
  8
0
 62
     0
100
AcDbLine
 10
11.29221213871107
 20
18.96941706537785
 30
0.0
 11
15.57279551402803
 21
23.25000044069486
 31
0.0
  0
LINE
  5
E75
330
CE3
100
AcDbEntity
  8
0
 62
     0
100
AcDbLine
 10
11.29221213871102
 20
19.8674426774848
 30
0.0
 11
14.67476990192113
 21
23.25000044069486
 31
0.0
  0
LINE
  5
E76
330
CE3
100
AcDbEntity
  8
0
 62
     0
100
AcDbLine
 10
11.31240414914935
 20
20.78566030003003
 30
0.0
 11
13.75655227937596
 21
23.22980843025664
 31
0.0
  0
ENDBLK
  5
E78
330
CE3
100
AcDbEntity
  8
0
100
AcDbBlockEnd
  0
BLOCK
  5
34BB
330
34B1
100
AcDbEntity
  8
0
100
AcDbBlockBegin
  2
*D2
 70
     1
 10
0.0
 20
0.0
 30
0.0
  3
*D2
  1

  0
LINE
  5
38F2
330
34B1
100
AcDbEntity
  8
SUNPOU
100
AcDbLine
 10
391.6842245482819
 20
418.6925937248019
 30
0.0
 11
429.6485156250098
 21
418.6925937248019
 31
0.0
  0
LINE
  5
38F3
330
34B1
100
AcDbEntity
  8
SUNPOU
100
AcDbLine
 10
391.6842245482819
 20
344.692593724802
 30
0.0
 11
429.6485156250098
 21
344.692593724802
 31
0.0
  0
LINE
  5
38F4
330
34B1
100
AcDbEntity
  8
SUNPOU
100
AcDbLine
 10
426.6485156250099
 20
411.6925937248018
 30
0.0
 11
426.6485156250098
 21
351.692593724802
 31
0.0
  0
INSERT
  5
38F5
330
34B1
100
AcDbEntity
  8
SUNPOU
100
AcDbBlockReference
  2
_OPEN
 10
426.6485156250099
 20
418.6925937248019
 30
0.0
 41
7.0
 42
7.0
 43
7.0
 50
90.0
  0
INSERT
  5
38F6
330
34B1
100
AcDbEntity
  8
SUNPOU
100
AcDbBlockReference
  2
_OPEN
 10
426.6485156250098
 20
344.692593724802
 30
0.0
 41
7.0
 42
7.0
 43
7.0
 50
270.0
  0
MTEXT
  5
38F7
330
34B1
100
AcDbEntity
  8
SUNPOU
100
AcDbMText
 10
421.6485156250097
 20
381.692593724802
 30
0.0
 40
6.0
 41
0.0
 71
     5
 72
     1
  1
\A1;74
 11
0.0000000000000001
 21
1.0
 31
0.0
  0
POINT
  5
38F8
330
34B1
100
AcDbEntity
  8
DEFPOINTS
 62
     0
100
AcDbPoint
 10
385.6842245482819
 20
418.6925937248019
 30
0.0
  0
POINT
  5
38F9
330
34B1
100
AcDbEntity
  8
DEFPOINTS
 62
     0
100
AcDbPoint
 10
385.6842245482819
 20
344.692593724802
 30
0.0
  0
POINT
  5
38FA
330
34B1
100
AcDbEntity
  8
DEFPOINTS
 62
     0
100
AcDbPoint
 10
426.6485156250098
 20
344.692593724802
 30
0.0
  0
ENDBLK
  5
34BC
330
34B1
100
AcDbEntity
  8
0
100
AcDbBlockEnd
  0
BLOCK
  5
34C8
330
34BE
100
AcDbEntity
  8
0
100
AcDbBlockBegin
  2
*D3
 70
     1
 10
0.0
 20
0.0
 30
0.0
  3
*D3
  1

  0
LINE
  5
38FB
330
34BE
100
AcDbEntity
  8
SUNPOU
100
AcDbLine
 10
206.0897798847493
 20
367.7172825734834
 30
0.0
 11
171.973301047756
 21
367.7172825734834
 31
0.0
  0
LINE
  5
38FC
330
34BE
100
AcDbEntity
  8
SUNPOU
100
AcDbLine
 10
208.3057303821819
 20
395.7076268574796
 30
0.0
 11
171.973301047756
 21
395.7076268574796
 31
0.0
  0
LINE
  5
38FD
330
34BE
100
AcDbEntity
  8
SUNPOU
100
AcDbLine
 10
174.973301047756
 20
374.7172825734834
 30
0.0
 11
174.973301047756
 21
388.7076268574796
 31
0.0
  0
INSERT
  5
38FE
330
34BE
100
AcDbEntity
  8
SUNPOU
100
AcDbBlockReference
  2
_OPEN
 10
174.973301047756
 20
367.7172825734834
 30
0.0
 41
7.0
 42
7.0
 43
7.0
 50
270.0
  0
INSERT
  5
38FF
330
34BE
100
AcDbEntity
  8
SUNPOU
100
AcDbBlockReference
  2
_OPEN
 10
174.973301047756
 20
395.7076268574796
 30
0.0
 41
7.0
 42
7.0
 43
7.0
 50
90.0
  0
MTEXT
  5
3900
330
34BE
100
AcDbEntity
  8
SUNPOU
100
AcDbMText
 10
169.973301047756
 20
381.7124547154816
 30
0.0
 40
6.0
 41
0.0
 71
     5
 72
     1
  1
\A1;28
 11
0.0000000000000001
 21
1.0
 31
0.0
  0
POINT
  5
3901
330
34BE
100
AcDbEntity
  8
DEFPOINTS
 62
     0
100
AcDbPoint
 10
212.0897798847493
 20
367.7172825734834
 30
0.0
  0
POINT
  5
3902
330
34BE
100
AcDbEntity
  8
DEFPOINTS
 62
     0
100
AcDbPoint
 10
214.3057303821819
 20
395.7076268574796
 30
0.0
  0
POINT
  5
3903
330
34BE
100
AcDbEntity
  8
DEFPOINTS
 62
     0
100
AcDbPoint
 10
174.973301047756
 20
395.7076268574796
 30
0.0
  0
ENDBLK
  5
34C9
330
34BE
100
AcDbEntity
  8
0
100
AcDbBlockEnd
  0
BLOCK
  5
3503
330
34F7
100
AcDbEntity
  8
0
100
AcDbBlockBegin
  2
*D4
 70
     1
 10
0.0
 20
0.0
 30
0.0
  3
*D4
  1

  0
LINE
  5
3904
330
34F7
100
AcDbEntity
  8
SUNPOU
100
AcDbLine
 10
385.6842245482819
 20
235.824772379898
 30
0.0
 11
385.6842245482819
 21
254.9065225065352
 31
0.0
  0
LINE
  5
3905
330
34F7
100
AcDbEntity
  8
SUNPOU
100
AcDbLine
 10
400.6842245482819
 20
235.824772379898
 30
0.0
 11
400.6842245482819
 21
254.9065225065352
 31
0.0
  0
LINE
  5
3906
330
34F7
100
AcDbEntity
  8
SUNPOU
100
AcDbLine
 10
378.6842245482819
 20
251.9065225065352
 30
0.0
 11
371.6842245482819
 21
251.9065225065352
 31
0.0
  0
LINE
  5
3907
330
34F7
100
AcDbEntity
  8
SUNPOU
100
AcDbLine
 10
407.6842245482819
 20
251.9065225065352
 30
0.0
 11
414.6842245482819
 21
251.9065225065352
 31
0.0
  0
LINE
  5
3908
330
34F7
100
AcDbEntity
  8
SUNPOU
100
AcDbLine
 10
385.6842245482819
 20
251.9065225065352
 30
0.0
 11
400.6842245482819
 21
251.9065225065352
 31
0.0
  0
INSERT
  5
3909
330
34F7
100
AcDbEntity
  8
SUNPOU
100
AcDbBlockReference
  2
_OPEN
 10
385.6842245482819
 20
251.9065225065352
 30
0.0
 41
7.0
 42
7.0
 43
7.0
  0
INSERT
  5
390A
330
34F7
100
AcDbEntity
  8
SUNPOU
100
AcDbBlockReference
  2
_OPEN
 10
400.6842245482819
 20
251.9065225065352
 30
0.0
 41
7.0
 42
7.0
 43
7.0
 50
180.0
  0
MTEXT
  5
390B
330
34F7
100
AcDbEntity
  8
SUNPOU
100
AcDbMText
 10
393.1842245482819
 20
256.9065225065352
 30
0.0
 40
6.0
 41
0.0
 71
     5
 72
     1
  1
\A1;15
  0
POINT
  5
390C
330
34F7
100
AcDbEntity
  8
DEFPOINTS
 62
     0
100
AcDbPoint
 10
385.6842245482819
 20
229.824772379898
 30
0.0
  0
POINT
  5
390D
330
34F7
100
AcDbEntity
  8
DEFPOINTS
 62
     0
100
AcDbPoint
 10
400.6842245482819
 20
229.824772379898
 30
0.0
  0
POINT
  5
390E
330
34F7
100
AcDbEntity
  8
DEFPOINTS
 62
     0
100
AcDbPoint
 10
400.6842245482819
 20
251.9065225065352
 30
0.0
  0
ENDBLK
  5
3504
330
34F7
100
AcDbEntity
  8
0
100
AcDbBlockEnd
  0
BLOCK
  5
3510
330
3506
100
AcDbEntity
  8
0
100
AcDbBlockBegin
  2
*D5
 70
     1
 10
0.0
 20
0.0
 30
0.0
  3
*D5
  1

  0
LINE
  5
390F
330
3506
100
AcDbEntity
  8
SUNPOU
100
AcDbLine
 10
385.6842245482819
 20
235.824772379898
 30
0.0
 11
385.6842245482819
 21
273.9312011078367
 31
0.0
  0
LINE
  5
3910
330
3506
100
AcDbEntity
  8
SUNPOU
100
AcDbLine
 10
340.6842240270293
 20
205.0127805429703
 30
0.0
 11
340.6842240270293
 21
273.9312011078367
 31
0.0
  0
LINE
  5
3911
330
3506
100
AcDbEntity
  8
SUNPOU
100
AcDbLine
 10
378.6842245482819
 20
270.9312011078367
 30
0.0
 11
347.6842240270293
 21
270.9312011078367
 31
0.0
  0
INSERT
  5
3912
330
3506
100
AcDbEntity
  8
SUNPOU
100
AcDbBlockReference
  2
_OPEN
 10
385.6842245482819
 20
270.9312011078367
 30
0.0
 41
7.0
 42
7.0
 43
7.0
  0
INSERT
  5
3913
330
3506
100
AcDbEntity
  8
SUNPOU
100
AcDbBlockReference
  2
_OPEN
 10
340.6842240270293
 20
270.9312011078367
 30
0.0
 41
7.0
 42
7.0
 43
7.0
 50
180.0
  0
MTEXT
  5
3914
330
3506
100
AcDbEntity
  8
SUNPOU
100
AcDbMText
 10
363.1842242876556
 20
275.9312011078367
 30
0.0
 40
6.0
 41
0.0
 71
     5
 72
     1
  1
\A1;45
  0
POINT
  5
3915
330
3506
100
AcDbEntity
  8
DEFPOINTS
 62
     0
100
AcDbPoint
 10
385.6842245482819
 20
229.824772379898
 30
0.0
  0
POINT
  5
3916
330
3506
100
AcDbEntity
  8
DEFPOINTS
 62
     0
100
AcDbPoint
 10
340.6842240270293
 20
199.0127805429703
 30
0.0
  0
POINT
  5
3917
330
3506
100
AcDbEntity
  8
DEFPOINTS
 62
     0
100
AcDbPoint
 10
340.6842240270293
 20
270.9312011078367
 30
0.0
  0
ENDBLK
  5
3511
330
3506
100
AcDbEntity
  8
0
100
AcDbBlockEnd
  0
BLOCK
  5
351D
330
3513
100
AcDbEntity
  8
0
100
AcDbBlockBegin
  2
*D6
 70
     1
 10
0.0
 20
0.0
 30
0.0
  3
*D6
  1

  0
LINE
  5
3918
330
3513
100
AcDbEntity
  8
SUNPOU
100
AcDbLine
 10
385.6842245482819
 20
235.824772379898
 30
0.0
 11
385.6842245482819
 21
288.9254083224367
 31
0.0
  0
LINE
  5
3919
330
3513
100
AcDbEntity
  8
SUNPOU
100
AcDbLine
 10
269.684224548282
 20
207.408669148398
 30
0.0
 11
269.684224548282
 21
288.9254083224367
 31
0.0
  0
LINE
  5
391A
330
3513
100
AcDbEntity
  8
SUNPOU
100
AcDbLine
 10
378.6842245482819
 20
285.9254083224367
 30
0.0
 11
276.684224548282
 21
285.9254083224367
 31
0.0
  0
INSERT
  5
391B
330
3513
100
AcDbEntity
  8
SUNPOU
100
AcDbBlockReference
  2
_OPEN
 10
385.6842245482819
 20
285.9254083224367
 30
0.0
 41
7.0
 42
7.0
 43
7.0
  0
INSERT
  5
391C
330
3513
100
AcDbEntity
  8
SUNPOU
100
AcDbBlockReference
  2
_OPEN
 10
269.684224548282
 20
285.9254083224367
 30
0.0
 41
7.0
 42
7.0
 43
7.0
 50
180.0
  0
MTEXT
  5
391D
330
3513
100
AcDbEntity
  8
SUNPOU
100
AcDbMText
 10
327.6842245482819
 20
290.9254083224367
 30
0.0
 40
6.0
 41
0.0
 71
     5
 72
     1
  1
\A1;116
  0
POINT
  5
391E
330
3513
100
AcDbEntity
  8
DEFPOINTS
 62
     0
100
AcDbPoint
 10
385.6842245482819
 20
229.824772379898
 30
0.0
  0
POINT
  5
391F
330
3513
100
AcDbEntity
  8
DEFPOINTS
 62
     0
100
AcDbPoint
 10
269.684224548282
 20
201.408669148398
 30
0.0
  0
POINT
  5
3920
330
3513
100
AcDbEntity
  8
DEFPOINTS
 62
     0
100
AcDbPoint
 10
269.684224548282
 20
285.9254083224367
 30
0.0
  0
ENDBLK
  5
351E
330
3513
100
AcDbEntity
  8
0
100
AcDbBlockEnd
  0
BLOCK
  5
352A
330
3520
100
AcDbEntity
  8
0
100
AcDbBlockBegin
  2
*D7
 70
     1
 10
0.0
 20
0.0
 30
0.0
  3
*D7
  1

  0
LINE
  5
3921
330
3520
100
AcDbEntity
  8
SUNPOU
100
AcDbLine
 10
385.6842245482819
 20
235.824772379898
 30
0.0
 11
385.6842245482819
 21
303.962270462786
 31
0.0
  0
LINE
  5
3922
330
3520
100
AcDbEntity
  8
SUNPOU
100
AcDbLine
 10
207.5842908278086
 20
231.418800545598
 30
0.0
 11
207.5842908278086
 21
303.962270462786
 31
0.0
  0
LINE
  5
3923
330
3520
100
AcDbEntity
  8
SUNPOU
100
AcDbLine
 10
378.6842245482819
 20
300.962270462786
 30
0.0
 11
214.5842908278086
 21
300.962270462786
 31
0.0
  0
INSERT
  5
3924
330
3520
100
AcDbEntity
  8
SUNPOU
100
AcDbBlockReference
  2
_OPEN
 10
385.6842245482819
 20
300.962270462786
 30
0.0
 41
7.0
 42
7.0
 43
7.0
  0
INSERT
  5
3925
330
3520
100
AcDbEntity
  8
SUNPOU
100
AcDbBlockReference
  2
_OPEN
 10
207.5842908278086
 20
300.962270462786
 30
0.0
 41
7.0
 42
7.0
 43
7.0
 50
180.0
  0
MTEXT
  5
3926
330
3520
100
AcDbEntity
  8
SUNPOU
100
AcDbMText
 10
296.6342576880453
 20
305.962270462786
 30
0.0
 40
6.0
 41
0.0
 71
     5
 72
     1
  1
\A1;178
  0
POINT
  5
3927
330
3520
100
AcDbEntity
  8
DEFPOINTS
 62
     0
100
AcDbPoint
 10
385.6842245482819
 20
229.824772379898
 30
0.0
  0
POINT
  5
3928
330
3520
100
AcDbEntity
  8
DEFPOINTS
 62
     0
100
AcDbPoint
 10
207.5842908278086
 20
225.418800545598
 30
0.0
  0
POINT
  5
3929
330
3520
100
AcDbEntity
  8
DEFPOINTS
 62
     0
100
AcDbPoint
 10
207.5842908278086
 20
300.962270462786
 30
0.0
  0
ENDBLK
  5
352B
330
3520
100
AcDbEntity
  8
0
100
AcDbBlockEnd
  0
BLOCK
  5
354B
330
353F
100
AcDbEntity
  8
0
100
AcDbBlockBegin
  2
*D8
 70
     1
 10
0.0
 20
0.0
 30
0.0
  3
*D8
  1

  0
LINE
  5
392A
330
353F
100
AcDbEntity
  8
SUNPOU
100
AcDbLine
 10
377.1842245482819
 20
151.826601523798
 30
0.0
 11
377.1842245482819
 21
126.8923034753135
 31
0.0
  0
LINE
  5
392B
330
353F
100
AcDbEntity
  8
SUNPOU
100
AcDbLine
 10
385.6842245482819
 20
149.824772379898
 30
0.0
 11
385.6842245482819
 21
126.8923034753135
 31
0.0
  0
LINE
  5
392C
330
353F
100
AcDbEntity
  8
SUNPOU
100
AcDbLine
 10
370.1842245482819
 20
129.8923034753135
 30
0.0
 11
363.1842245482819
 21
129.8923034753135
 31
0.0
  0
LINE
  5
392D
330
353F
100
AcDbEntity
  8
SUNPOU
100
AcDbLine
 10
392.6842245482819
 20
129.8923034753135
 30
0.0
 11
399.6842245482819
 21
129.8923034753135
 31
0.0
  0
LINE
  5
392E
330
353F
100
AcDbEntity
  8
SUNPOU
100
AcDbLine
 10
377.1842245482819
 20
129.8923034753135
 30
0.0
 11
385.6842245482819
 21
129.8923034753135
 31
0.0
  0
INSERT
  5
392F
330
353F
100
AcDbEntity
  8
SUNPOU
100
AcDbBlockReference
  2
_OPEN
 10
377.1842245482819
 20
129.8923034753135
 30
0.0
 41
7.0
 42
7.0
 43
7.0
  0
INSERT
  5
3930
330
353F
100
AcDbEntity
  8
SUNPOU
100
AcDbBlockReference
  2
_OPEN
 10
385.6842245482819
 20
129.8923034753135
 30
0.0
 41
7.0
 42
7.0
 43
7.0
 50
180.0
  0
MTEXT
  5
3931
330
353F
100
AcDbEntity
  8
SUNPOU
100
AcDbMText
 10
381.4342245482819
 20
134.8923034753134
 30
0.0
 40
6.0
 41
0.0
 71
     5
 72
     1
  1
\A1;9
  0
POINT
  5
3932
330
353F
100
AcDbEntity
  8
DEFPOINTS
 62
     0
100
AcDbPoint
 10
377.1842245482819
 20
157.826601523798
 30
0.0
  0
POINT
  5
3933
330
353F
100
AcDbEntity
  8
DEFPOINTS
 62
     0
100
AcDbPoint
 10
385.6842245482819
 20
155.824772379898
 30
0.0
  0
POINT
  5
3934
330
353F
100
AcDbEntity
  8
DEFPOINTS
 62
     0
100
AcDbPoint
 10
385.6842245482819
 20
129.8923034753135
 30
0.0
  0
ENDBLK
  5
354C
330
353F
100
AcDbEntity
  8
0
100
AcDbBlockEnd
  0
BLOCK
  5
3558
330
354E
100
AcDbEntity
  8
0
100
AcDbBlockBegin
  2
*D9
 70
     1
 10
0.0
 20
0.0
 30
0.0
  3
*D9
  1

  0
LINE
  5
3935
330
354E
100
AcDbEntity
  8
SUNPOU
100
AcDbLine
 10
391.6842245482819
 20
229.824772379898
 30
0.0
 11
430.3203905883512
 21
229.824772379898
 31
0.0
  0
LINE
  5
3936
330
354E
100
AcDbEntity
  8
SUNPOU
100
AcDbLine
 10
391.6842245482819
 20
155.824772379898
 30
0.0
 11
430.3203905883512
 21
155.824772379898
 31
0.0
  0
LINE
  5
3937
330
354E
100
AcDbEntity
  8
SUNPOU
100
AcDbLine
 10
427.3203905883512
 20
222.824772379898
 30
0.0
 11
427.3203905883512
 21
162.824772379898
 31
0.0
  0
INSERT
  5
3938
330
354E
100
AcDbEntity
  8
SUNPOU
100
AcDbBlockReference
  2
_OPEN
 10
427.3203905883512
 20
229.824772379898
 30
0.0
 41
7.0
 42
7.0
 43
7.0
 50
90.0
  0
INSERT
  5
3939
330
354E
100
AcDbEntity
  8
SUNPOU
100
AcDbBlockReference
  2
_OPEN
 10
427.3203905883512
 20
155.824772379898
 30
0.0
 41
7.0
 42
7.0
 43
7.0
 50
270.0
  0
MTEXT
  5
393A
330
354E
100
AcDbEntity
  8
SUNPOU
100
AcDbMText
 10
422.3203905883512
 20
192.824772379898
 30
0.0
 40
6.0
 41
0.0
 71
     5
 72
     1
  1
\A1;74
 11
0.0000000000000001
 21
1.0
 31
0.0
  0
POINT
  5
393B
330
354E
100
AcDbEntity
  8
DEFPOINTS
 62
     0
100
AcDbPoint
 10
385.6842245482819
 20
229.824772379898
 30
0.0
  0
POINT
  5
393C
330
354E
100
AcDbEntity
  8
DEFPOINTS
 62
     0
100
AcDbPoint
 10
385.6842245482819
 20
155.824772379898
 30
0.0
  0
POINT
  5
393D
330
354E
100
AcDbEntity
  8
DEFPOINTS
 62
     0
100
AcDbPoint
 10
427.3203905883512
 20
155.824772379898
 30
0.0
  0
ENDBLK
  5
3559
330
354E
100
AcDbEntity
  8
0
100
AcDbBlockEnd
  0
BLOCK
  5
3565
330
355B
100
AcDbEntity
  8
0
100
AcDbBlockBegin
  2
*D10
 70
     1
 10
0.0
 20
0.0
 30
0.0
  3
*D10
  1

  0
LINE
  5
393E
330
355B
100
AcDbEntity
  8
SUNPOU
100
AcDbLine
 10
206.370964496982
 20
231.908669148398
 30
0.0
 11
171.9733010477559
 21
231.908669148398
 31
0.0
  0
LINE
  5
393F
330
355B
100
AcDbEntity
  8
SUNPOU
100
AcDbLine
 10
376.4342245482819
 20
155.824772379898
 30
0.0
 11
171.9733010477559
 21
155.824772379898
 31
0.0
  0
LINE
  5
3940
330
355B
100
AcDbEntity
  8
SUNPOU
100
AcDbLine
 10
174.9733010477559
 20
224.908669148398
 30
0.0
 11
174.9733010477559
 21
162.824772379898
 31
0.0
  0
INSERT
  5
3941
330
355B
100
AcDbEntity
  8
SUNPOU
100
AcDbBlockReference
  2
_OPEN
 10
174.9733010477559
 20
231.908669148398
 30
0.0
 41
7.0
 42
7.0
 43
7.0
 50
90.0
  0
INSERT
  5
3942
330
355B
100
AcDbEntity
  8
SUNPOU
100
AcDbBlockReference
  2
_OPEN
 10
174.9733010477559
 20
155.824772379898
 30
0.0
 41
7.0
 42
7.0
 43
7.0
 50
270.0
  0
MTEXT
  5
3943
330
355B
100
AcDbEntity
  8
SUNPOU
100
AcDbMText
 10
169.9733010477559
 20
193.8667207641481
 30
0.0
 40
6.0
 41
0.0
 71
     5
 72
     1
  1
\A1;76
 11
0.0000000000000001
 21
1.0
 31
0.0
  0
POINT
  5
3944
330
355B
100
AcDbEntity
  8
DEFPOINTS
 62
     0
100
AcDbPoint
 10
212.370964496982
 20
231.908669148398
 30
0.0
  0
POINT
  5
3945
330
355B
100
AcDbEntity
  8
DEFPOINTS
 62
     0
100
AcDbPoint
 10
382.4342245482819
 20
155.824772379898
 30
0.0
  0
POINT
  5
3946
330
355B
100
AcDbEntity
  8
DEFPOINTS
 62
     0
100
AcDbPoint
 10
174.9733010477559
 20
155.824772379898
 30
0.0
  0
ENDBLK
  5
3566
330
355B
100
AcDbEntity
  8
0
100
AcDbBlockEnd
  0
BLOCK
  5
35DD
330
35D3
100
AcDbEntity
  8
0
100
AcDbBlockBegin
  2
*D11
 70
     1
 10
0.0
 20
0.0
 30
0.0
  3
*D11
  1

  0
LINE
  5
3950
330
35D3
100
AcDbEntity
  8
SUNPOU
 62
     4
100
AcDbLine
 10
545.7233968542552
 20
231.3429027376757
 30
0.0
 11
545.7233968542552
 21
293.9650859911653
 31
0.0
  0
LINE
  5
3951
330
35D3
100
AcDbEntity
  8
SUNPOU
 62
     4
100
AcDbLine
 10
603.7233968542552
 20
231.3429027376757
 30
0.0
 11
603.7233968542552
 21
293.9650859911653
 31
0.0
  0
LINE
  5
3952
330
35D3
100
AcDbEntity
  8
SUNPOU
 62
     4
100
AcDbLine
 10
552.7233968542552
 20
290.9650859911653
 30
0.0
 11
596.7233968542553
 21
290.9650859911653
 31
0.0
  0
INSERT
  5
3953
330
35D3
100
AcDbEntity
  8
SUNPOU
 62
     4
100
AcDbBlockReference
  2
_OPEN
 10
545.7233968542552
 20
290.9650859911653
 30
0.0
 41
7.0
 42
7.0
 43
7.0
 50
180.0
  0
INSERT
  5
3954
330
35D3
100
AcDbEntity
  8
SUNPOU
 62
     4
100
AcDbBlockReference
  2
_OPEN
 10
603.7233968542552
 20
290.9650859911653
 30
0.0
 41
7.0
 42
7.0
 43
7.0
  0
MTEXT
  5
3955
330
35D3
100
AcDbEntity
  8
SUNPOU
 62
     4
100
AcDbMText
 10
574.7233968542552
 20
295.9650859911653
 30
0.0
 40
6.0
 41
0.0
 71
     5
 72
     1
  1
\A1;58
  0
POINT
  5
3956
330
35D3
100
AcDbEntity
  8
DEFPOINTS
 62
     0
100
AcDbPoint
 10
545.7233968542552
 20
225.3429027376757
 30
0.0
  0
POINT
  5
3957
330
35D3
100
AcDbEntity
  8
DEFPOINTS
 62
     0
100
AcDbPoint
 10
603.7233968542552
 20
225.3429027376757
 30
0.0
  0
POINT
  5
3958
330
35D3
100
AcDbEntity
  8
DEFPOINTS
 62
     0
100
AcDbPoint
 10
603.7233968542552
 20
290.9650859911653
 30
0.0
  0
ENDBLK
  5
35DE
330
35D3
100
AcDbEntity
  8
0
100
AcDbBlockEnd
  0
BLOCK
  5
35E9
330
35DF
100
AcDbEntity
  8
0
100
AcDbBlockBegin
  2
*D12
 70
     1
 10
0.0
 20
0.0
 30
0.0
  3
*D12
  1

  0
LINE
  5
3947
330
35DF
100
AcDbEntity
  8
SUNPOU
 62
     4
100
AcDbLine
 10
537.7233968542553
 20
225.824772379898
 30
0.0
 11
537.7233968542553
 21
308.2691496522254
 31
0.0
  0
LINE
  5
3948
330
35DF
100
AcDbEntity
  8
SUNPOU
 62
     4
100
AcDbLine
 10
611.7233968542552
 20
225.824772379898
 30
0.0
 11
611.7233968542552
 21
308.2691496522254
 31
0.0
  0
LINE
  5
3949
330
35DF
100
AcDbEntity
  8
SUNPOU
 62
     4
100
AcDbLine
 10
544.7233968542552
 20
305.2691496522254
 30
0.0
 11
604.7233968542553
 21
305.2691496522254
 31
0.0
  0
INSERT
  5
394A
330
35DF
100
AcDbEntity
  8
SUNPOU
 62
     4
100
AcDbBlockReference
  2
_OPEN
 10
537.7233968542553
 20
305.2691496522254
 30
0.0
 41
7.0
 42
7.0
 43
7.0
 50
180.0
  0
INSERT
  5
394B
330
35DF
100
AcDbEntity
  8
SUNPOU
 62
     4
100
AcDbBlockReference
  2
_OPEN
 10
611.7233968542552
 20
305.2691496522254
 30
0.0
 41
7.0
 42
7.0
 43
7.0
  0
MTEXT
  5
394C
330
35DF
100
AcDbEntity
  8
SUNPOU
 62
     4
100
AcDbMText
 10
574.7233968542552
 20
310.2691496522254
 30
0.0
 40
6.0
 41
0.0
 71
     5
 72
     1
  1
\A1;74
  0
POINT
  5
394D
330
35DF
100
AcDbEntity
  8
DEFPOINTS
 62
     0
100
AcDbPoint
 10
537.7233968542553
 20
219.824772379898
 30
0.0
  0
POINT
  5
394E
330
35DF
100
AcDbEntity
  8
DEFPOINTS
 62
     0
100
AcDbPoint
 10
611.7233968542552
 20
219.824772379898
 30
0.0
  0
POINT
  5
394F
330
35DF
100
AcDbEntity
  8
DEFPOINTS
 62
     0
100
AcDbPoint
 10
611.7233968542552
 20
305.2691496522254
 30
0.0
  0
ENDBLK
  5
35EA
330
35DF
100
AcDbEntity
  8
0
100
AcDbBlockEnd
  0
BLOCK
  5
35F7
330
35EB
100
AcDbEntity
  8
0
100
AcDbBlockBegin
  2
*D13
 70
     1
 10
0.0
 20
0.0
 30
0.0
  3
*D13
  1

  0
LINE
  5
3978
330
35EB
100
AcDbEntity
  8
SUNPOU
 62
     4
100
AcDbLine
 10
607.7233968542552
 20
229.824772379898
 30
0.0
 11
651.4986564611679
 21
229.824772379898
 31
0.0
  0
LINE
  5
3979
330
35EB
100
AcDbEntity
  8
SUNPOU
 62
     4
100
AcDbLine
 10
614.6972749208519
 20
216.345252714798
 30
0.0
 11
651.4986564611679
 21
216.345252714798
 31
0.0
  0
LINE
  5
397A
330
35EB
100
AcDbEntity
  8
SUNPOU
 62
     4
100
AcDbLine
 10
648.4986564611679
 20
236.824772379898
 30
0.0
 11
648.4986564611679
 21
243.824772379898
 31
0.0
  0
LINE
  5
397B
330
35EB
100
AcDbEntity
  8
SUNPOU
 62
     4
100
AcDbLine
 10
648.4986564611679
 20
209.345252714798
 30
0.0
 11
648.4986564611679
 21
202.345252714798
 31
0.0
  0
LINE
  5
397C
330
35EB
100
AcDbEntity
  8
SUNPOU
 62
     4
100
AcDbLine
 10
648.4986564611679
 20
229.824772379898
 30
0.0
 11
648.4986564611679
 21
216.345252714798
 31
0.0
  0
INSERT
  5
397D
330
35EB
100
AcDbEntity
  8
SUNPOU
 62
     4
100
AcDbBlockReference
  2
_OPEN
 10
648.4986564611679
 20
229.824772379898
 30
0.0
 41
7.0
 42
7.0
 43
7.0
 50
270.0
  0
INSERT
  5
397E
330
35EB
100
AcDbEntity
  8
SUNPOU
 62
     4
100
AcDbBlockReference
  2
_OPEN
 10
648.4986564611679
 20
216.345252714798
 30
0.0
 41
7.0
 42
7.0
 43
7.0
 50
90.0
  0
MTEXT
  5
397F
330
35EB
100
AcDbEntity
  8
SUNPOU
 62
     4
100
AcDbMText
 10
643.4986564611679
 20
223.0850125473481
 30
0.0
 40
6.0
 41
0.0
 71
     5
 72
     1
  1
\A1;13
 11
0.0000000000000001
 21
1.0
 31
0.0
  0
POINT
  5
3980
330
35EB
100
AcDbEntity
  8
DEFPOINTS
 62
     0
100
AcDbPoint
 10
601.7233968542552
 20
229.824772379898
 30
0.0
  0
POINT
  5
3981
330
35EB
100
AcDbEntity
  8
DEFPOINTS
 62
     0
100
AcDbPoint
 10
608.6972749208519
 20
216.345252714798
 30
0.0
  0
POINT
  5
3982
330
35EB
100
AcDbEntity
  8
DEFPOINTS
 62
     0
100
AcDbPoint
 10
648.4986564611679
 20
216.345252714798
 30
0.0
  0
ENDBLK
  5
35F8
330
35EB
100
AcDbEntity
  8
0
100
AcDbBlockEnd
  0
BLOCK
  5
3605
330
35F9
100
AcDbEntity
  8
0
100
AcDbBlockBegin
  2
*D14
 70
     1
 10
0.0
 20
0.0
 30
0.0
  3
*D14
  1

  0
LINE
  5
396D
330
35F9
100
AcDbEntity
  8
SUNPOU
100
AcDbLine
 10
541.7233968542553
 20
229.824772379898
 30
0.0
 11
501.2753547467029
 21
229.824772379898
 31
0.0
  0
LINE
  5
396E
330
35F9
100
AcDbEntity
  8
SUNPOU
100
AcDbLine
 10
535.838935886393
 20
220.824772379898
 30
0.0
 11
501.2753547467029
 21
220.824772379898
 31
0.0
  0
LINE
  5
396F
330
35F9
100
AcDbEntity
  8
SUNPOU
100
AcDbLine
 10
504.275354746703
 20
236.824772379898
 30
0.0
 11
504.275354746703
 21
243.824772379898
 31
0.0
  0
LINE
  5
3970
330
35F9
100
AcDbEntity
  8
SUNPOU
100
AcDbLine
 10
504.275354746703
 20
213.824772379898
 30
0.0
 11
504.275354746703
 21
206.824772379898
 31
0.0
  0
LINE
  5
3971
330
35F9
100
AcDbEntity
  8
SUNPOU
100
AcDbLine
 10
504.275354746703
 20
229.824772379898
 30
0.0
 11
504.275354746703
 21
220.824772379898
 31
0.0
  0
INSERT
  5
3972
330
35F9
100
AcDbEntity
  8
SUNPOU
100
AcDbBlockReference
  2
_OPEN
 10
504.275354746703
 20
229.824772379898
 30
0.0
 41
7.0
 42
7.0
 43
7.0
 50
270.0
  0
INSERT
  5
3973
330
35F9
100
AcDbEntity
  8
SUNPOU
100
AcDbBlockReference
  2
_OPEN
 10
504.275354746703
 20
220.824772379898
 30
0.0
 41
7.0
 42
7.0
 43
7.0
 50
90.0
  0
MTEXT
  5
3974
330
35F9
100
AcDbEntity
  8
SUNPOU
100
AcDbMText
 10
499.2753547467029
 20
225.3247723798981
 30
0.0
 40
6.0
 41
0.0
 71
     5
 72
     1
  1
\A1;9
 11
0.0000000000000001
 21
1.0
 31
0.0
  0
POINT
  5
3975
330
35F9
100
AcDbEntity
  8
DEFPOINTS
 62
     0
100
AcDbPoint
 10
547.7233968542552
 20
229.824772379898
 30
0.0
  0
POINT
  5
3976
330
35F9
100
AcDbEntity
  8
DEFPOINTS
 62
     0
100
AcDbPoint
 10
541.838935886393
 20
220.824772379898
 30
0.0
  0
POINT
  5
3977
330
35F9
100
AcDbEntity
  8
DEFPOINTS
 62
     0
100
AcDbPoint
 10
504.275354746703
 20
220.824772379898
 30
0.0
  0
ENDBLK
  5
3606
330
35F9
100
AcDbEntity
  8
0
100
AcDbBlockEnd
  0
BLOCK
  5
3611
330
3607
100
AcDbEntity
  8
0
100
AcDbBlockBegin
  2
*D15
 70
     1
 10
0.0
 20
0.0
 30
0.0
  3
*D15
  1

  0
LINE
  5
3964
330
3607
100
AcDbEntity
  8
SUNPOU
100
AcDbLine
 10
535.838935886393
 20
220.824772379898
 30
0.0
 11
501.2753547467029
 21
220.824772379898
 31
0.0
  0
LINE
  5
3965
330
3607
100
AcDbEntity
  8
SUNPOU
100
AcDbLine
 10
564.4543363986993
 20
163.074772379898
 30
0.0
 11
501.2753547467029
 21
163.074772379898
 31
0.0
  0
LINE
  5
3966
330
3607
100
AcDbEntity
  8
SUNPOU
100
AcDbLine
 10
504.275354746703
 20
213.824772379898
 30
0.0
 11
504.275354746703
 21
170.074772379898
 31
0.0
  0
INSERT
  5
3967
330
3607
100
AcDbEntity
  8
SUNPOU
100
AcDbBlockReference
  2
_OPEN
 10
504.275354746703
 20
220.824772379898
 30
0.0
 41
7.0
 42
7.0
 43
7.0
 50
90.0
  0
INSERT
  5
3968
330
3607
100
AcDbEntity
  8
SUNPOU
100
AcDbBlockReference
  2
_OPEN
 10
504.275354746703
 20
163.074772379898
 30
0.0
 41
7.0
 42
7.0
 43
7.0
 50
270.0
  0
MTEXT
  5
3969
330
3607
100
AcDbEntity
  8
SUNPOU
100
AcDbMText
 10
499.2753547467029
 20
191.9497723798981
 30
0.0
 40
6.0
 41
0.0
 71
     5
 72
     1
  1
\A1;58
 11
0.0000000000000001
 21
1.0
 31
0.0
  0
POINT
  5
396A
330
3607
100
AcDbEntity
  8
DEFPOINTS
 62
     0
100
AcDbPoint
 10
541.838935886393
 20
220.824772379898
 30
0.0
  0
POINT
  5
396B
330
3607
100
AcDbEntity
  8
DEFPOINTS
 62
     0
100
AcDbPoint
 10
570.4543363986992
 20
163.074772379898
 30
0.0
  0
POINT
  5
396C
330
3607
100
AcDbEntity
  8
DEFPOINTS
 62
     0
100
AcDbPoint
 10
504.275354746703
 20
163.074772379898
 30
0.0
  0
ENDBLK
  5
3612
330
3607
100
AcDbEntity
  8
0
100
AcDbBlockEnd
  0
BLOCK
  5
361F
330
3613
100
AcDbEntity
  8
0
100
AcDbBlockBegin
  2
*D16
 70
     1
 10
0.0
 20
0.0
 30
0.0
  3
*D16
  1

  0
LINE
  5
3959
330
3613
100
AcDbEntity
  8
SUNPOU
100
AcDbLine
 10
564.4543363986993
 20
163.074772379898
 30
0.0
 11
501.2753547467029
 21
163.074772379898
 31
0.0
  0
LINE
  5
395A
330
3613
100
AcDbEntity
  8
SUNPOU
100
AcDbLine
 10
568.7233968542552
 20
155.824772379898
 30
0.0
 11
501.2753547467029
 21
155.824772379898
 31
0.0
  0
LINE
  5
395B
330
3613
100
AcDbEntity
  8
SUNPOU
100
AcDbLine
 10
504.275354746703
 20
170.074772379898
 30
0.0
 11
504.275354746703
 21
177.074772379898
 31
0.0
  0
LINE
  5
395C
330
3613
100
AcDbEntity
  8
SUNPOU
100
AcDbLine
 10
504.275354746703
 20
148.824772379898
 30
0.0
 11
504.275354746703
 21
141.824772379898
 31
0.0
  0
MTEXT
  5
395D
330
3613
100
AcDbEntity
  8
SUNPOU
100
AcDbMText
 10
499.3663697625563
 20
159.2443268492052
 30
0.0
 40
6.0
 41
0.0
 71
     5
 72
     1
  1
\A1;7
 11
0.0000000000000001
 21
1.0
 31
0.0
  0
LINE
  5
395E
330
3613
100
AcDbEntity
  8
SUNPOU
100
AcDbLine
 10
504.275354746703
 20
163.074772379898
 30
0.0
 11
504.275354746703
 21
155.824772379898
 31
0.0
  0
INSERT
  5
395F
330
3613
100
AcDbEntity
  8
SUNPOU
100
AcDbBlockReference
  2
_OPEN
 10
504.275354746703
 20
163.074772379898
 30
0.0
 41
7.0
 42
7.0
 43
7.0
 50
270.0
  0
INSERT
  5
3960
330
3613
100
AcDbEntity
  8
SUNPOU
100
AcDbBlockReference
  2
_OPEN
 10
504.275354746703
 20
155.824772379898
 30
0.0
 41
7.0
 42
7.0
 43
7.0
 50
90.0
  0
POINT
  5
3961
330
3613
100
AcDbEntity
  8
DEFPOINTS
 62
     0
100
AcDbPoint
 10
570.4543363986992
 20
163.074772379898
 30
0.0
  0
POINT
  5
3962
330
3613
100
AcDbEntity
  8
DEFPOINTS
 62
     0
100
AcDbPoint
 10
574.7233968542552
 20
155.824772379898
 30
0.0
  0
POINT
  5
3963
330
3613
100
AcDbEntity
  8
DEFPOINTS
 62
     0
100
AcDbPoint
 10
504.275354746703
 20
155.824772379898
 30
0.0
  0
ENDBLK
  5
3620
330
3613
100
AcDbEntity
  8
0
100
AcDbBlockEnd
  0
ENDSEC
  0
SECTION
  2
ENTITIES
  0
LWPOLYLINE
  5
AAD
330
1A
100
AcDbEntity
  8
ZUWAKU
100
AcDbPolyline
 90
        4
 70
     1
 43
0.0
 10
0.7999999839298653
 20
550.8000004406949
 10
0.7999999839298653
 20
0.8000004406949301
 10
796.7999999839299
 20
0.8000004406949301
 10
796.7999999839299
 20
550.8000004406949
  0
LWPOLYLINE
  5
AAE
330
1A
100
AcDbEntity
  8
ZUWAKU
100
AcDbPolyline
 90
        4
 70
     1
 43
0.0
 10
0.399999983929888
 20
551.2000004406949
 10
0.399999983929888
 20
0.4000004406949529
 10
797.1999999839299
 20
0.4000004406949298
 10
797.1999999839299
 20
551.2000004406949
  0
LWPOLYLINE
  5
AAF
330
1A
100
AcDbEntity
  8
ZUWAKU
100
AcDbPolyline
 90
        4
 70
     1
 43
0.0
 10
-0.0000000160700893
 20
551.6000004406948
 10
-0.0000000160700893
 20
0.0000004406948619
 10
797.59999998393
 20
0.0000004406949294
 10
797.59999998393
 20
551.600000440695
  0
LWPOLYLINE
  5
AB0
330
1A
100
AcDbEntity
  8
ZUWAKU
100
AcDbPolyline
 90
        4
 70
     1
 43
0.0
 10
0.5999999839298198
 20
551.000000440695
 10
0.5999999839298198
 20
0.6000004406948847
 10
796.9999999839301
 20
0.6000004406949309
 10
796.9999999839298
 20
551.000000440695
  0
LWPOLYLINE
  5
AB1
330
1A
100
AcDbEntity
  8
ZUWAKU
100
AcDbPolyline
 90
        4
 70
     1
 43
0.0
 10
0.1999999839298425
 20
551.4000004406949
 10
0.1999999839298425
 20
0.2000004406949074
 10
797.3999999839297
 20
0.2000004406949305
 10
797.39999998393
 20
551.4000004406949
  0
LINE
  5
AB2
330
1A
100
AcDbEntity
  8
ZUWAKU
100
AcDbLine
 10
-0.0000000160700893
 20
30.00000044069486
 30
0.0
 11
797.3999999839297
 21
30.00000044069486
 31
0.0
  0
LINE
  5
AB3
330
1A
100
AcDbEntity
  8
ZUWAKU
100
AcDbLine
 10
-0.0000000160700893
 20
30.20000044069486
 30
0.0
 11
797.3999999839297
 21
30.20000044069486
 31
0.0
  0
LINE
  5
AB4
330
1A
100
AcDbEntity
  8
ZUWAKU
100
AcDbLine
 10
-0.0000000160700893
 20
30.40000044069486
 30
0.0
 11
797.3999999839297
 21
30.40000044069486
 31
0.0
  0
LINE
  5
AB5
330
1A
100
AcDbEntity
  8
ZUWAKU
100
AcDbLine
 10
-0.0000000160700893
 20
30.60000044069487
 30
0.0
 11
797.3999999839297
 21
30.60000044069487
 31
0.0
  0
LINE
  5
AB6
330
1A
100
AcDbEntity
  8
ZUWAKU
100
AcDbLine
 10
-0.0000000160700893
 20
30.80000044069487
 30
0.0
 11
797.3999999839297
 21
30.80000044069487
 31
0.0
  0
LINE
  5
AB7
330
1A
100
AcDbEntity
  8
ZUWAKU
100
AcDbLine
 10
208.6466012739979
 20
15.40000044069489
 30
0.0
 11
447.4243639549213
 21
15.40000044069489
 31
0.0
  0
LINE
  5
AB8
330
1A
100
AcDbEntity
  8
ZUWAKU
100
AcDbLine
 10
208.6466012739979
 20
15.60000044069489
 30
0.0
 11
447.4243639549213
 21
15.6000004406949
 31
0.0
  0
LINE
  5
AB9
330
1A
100
AcDbEntity
  8
ZUWAKU
100
AcDbLine
 10
208.6466012739979
 20
15.2000004406949
 30
0.0
 11
447.4243639549213
 21
15.20000044069489
 31
0.0
  0
CIRCLE
  5
ABB
330
1A
100
AcDbEntity
  8
ZUWAKU
100
AcDbCircle
 10
25.99221213871101
 20
15.20000044069486
 30
0.0
 40
1.75
  0
LINE
  5
ABC
330
1A
100
AcDbEntity
  8
ZUWAKU
100
AcDbLine
 10
26.86721213871101
 20
7.150000440694867
 30
0.0
 11
24.94221213871105
 21
7.150000440694867
 31
0.0
  0
LINE
  5
ABD
330
1A
100
AcDbEntity
  8
ZUWAKU
100
AcDbLine
 10
24.94221213871105
 20
9.950000440694864
 30
0.0
 11
26.86721213871101
 21
9.950000440694864
 31
0.0
  0
LINE
  5
ABE
330
1A
100
AcDbEntity
  8
ZUWAKU
100
AcDbLine
 10
26.86721213871101
 20
20.45000044069486
 30
0.0
 11
24.94221213871105
 21
20.45000044069486
 31
0.0
  0
LINE
  5
ABF
330
1A
100
AcDbEntity
  8
ZUWAKU
100
AcDbLine
 10
24.94221213871105
 20
23.25000044069482
 30
0.0
 11
26.86721213871101
 21
23.25000044069486
 31
0.0
  0
INSERT
  5
AC0
330
1A
100
AcDbEntity
  8
ZUWAKU
  6
CONTINUOUS
100
AcDbBlockReference
  2
*X1
 10
0.0
 20
0.0
 30
0.0
1001
ACAD
1000
HATCH
1002
{
1070
    19
1000
ANSI37
1040
0.2
1040
0.0
1000
R14_HATCH_DATA
1000
AC0
1011
1.0
1021
0.0
1031
0.0
1011
0.0
1021
1.0
1031
0.0
1011
0.0
1021
0.0
1031
1.0
1040
0.0
1010
0.0
1020
0.0
1030
1.0
1000
ANSI37
1070
     0
1070
     0
1071
        8
1071
        7
1070
     1
1070
     1
1071
       24
1040
14.50226264504976
1040
17.64484892167844
1040
-0.1989123673796348
1040
14.09221213871103
1040
18.63479841533949
1040
0.0
1040
14.09221213871103
1040
19.92500044069487
1040
-0.4142135623730912
1040
14.61721213871101
1040
20.45000044069486
1040
0.0
1040
17.59221213871092
1040
20.45000044069486
1040
0.4142135623731546
1040
18.11721213871101
1040
20.97500044069485
1040
0.0
1040
18.11721213871101
1040
22.72500044069487
1040
0.4142135623731586
1040
17.59221213871092
1040
23.25000044069486
1040
0.0
1040
14.09221213871103
1040
23.25000044069486
1040
0.4142135623730928
1040
11.29221213871107
1040
20.45000044069489
1040
0.0
1040
11.29221213871107
1040
18.63479841533962
1040
0.1989123673796619
1040
12.52236365772751
1040
15.66494993435601
1040
0.0
1040
15.43216163237218
1040
12.75515195971135
1040
-0.1989123673796613
1040
15.84221213871103
1040
11.76520246605017
1040
0.0
1040
15.84221213871103
1040
10.47500044069485
1040
-0.4142135623730911
1040
15.31721213871105
1040
9.950000440694864
1040
0.0
1040
12.34221213871114
1040
9.950000440694864
1040
0.4142135623731526
1040
11.81721213871105
1040
9.425000440694876
1040
0.0
1040
11.81721213871105
1040
7.675000440694855
1040
0.4142135623731526
1040
12.34221213871114
1040
7.150000440694867
1040
0.0
1040
15.84221213871103
1040
7.150000440694867
1040
0.4142135623731044
1040
18.6422121387111
1040
9.950000440694843
1040
0.0
1040
18.6422121387111
1040
11.76520246605011
1040
0.1989123673796604
1040
17.41206061969455
1040
14.73505094703365
1040
0.0
1071
        0
1071
        7
1070
     1
1070
     1
1071
       16
1040
23.54221213871107
1040
19.05000044069487
1040
-0.4142135623730935
1040
24.94221213871105
1040
20.45000044069486
1040
0.0
1040
26.86721213871101
1040
20.45000044069486
1040
0.4142135623731546
1040
27.3922121387111
1040
20.97500044069485
1040
0.0
1040
27.3922121387111
1040
22.72500044069487
1040
0.4142135623730951
1040
26.86721213871112
1040
23.25000044069486
1040
0.0
1040
24.94221213871094
1040
23.25000044069482
1040
0.4142135623730892
1040
20.74221213871101
1040
19.0500004406948
1040
0.0
1040
20.74221213871101
1040
11.35000044069489
1040
0.4142135623730969
1040
24.94221213871105
1040
7.150000440694867
1040
0.0
1040
26.86721213871101
1040
7.150000440694867
1040
0.4142135623731526
1040
27.3922121387111
1040
7.675000440694855
1040
0.0
1040
27.3922121387111
1040
9.425000440694876
1040
0.4142135623730891
1040
26.86721213871112
1040
9.950000440694864
1040
0.0
1040
24.94221213871105
1040
9.950000440694864
1040
-0.4142135623730928
1040
23.54221213871107
1040
11.35000044069485
1040
0.0
1071
        0
1071
        7
1070
     1
1070
     1
1071
        2
1040
24.24221213871101
1040
15.20000044069486
1040
1.0
1040
27.74221213871101
1040
15.20000044069486
1040
1.0
1071
        0
1071
        7
1070
     1
1070
     1
1071
       26
1040
37.31485862088902
1040
19.20504763425829
1040
0.0
1040
38.37649825402684
1040
22.56690647252788
1040
0.5069206636600134
1040
37.87586735483148
1040
23.25000044069486
1040
0.0
1040
36.17697797522225
1040
23.25000044069486
1040
0.3272098845218764
1040
35.6763470760269
1040
22.88309440886183
1040
0.0
1040
33.80807720139512
1040
16.96690647252794
1040
-0.3272098845219541
1040
33.30744630219965
1040
16.60000044069486
1040
0.0
1040
33.16721213871119
1040
16.60000044069486
1040
-0.4142135623731526
1040
32.6422121387111
1040
17.12500044069485
1040
0.0
1040
32.6422121387111
1040
22.72500044069487
1040
0.4142135623730951
1040
32.11721213871112
1040
23.25000044069486
1040
0.0
1040
30.36721213871101
1040
23.25000044069486
1040
0.4142135623730871
1040
29.84221213871103
1040
22.72500044069488
1040
0.0
1040
29.84221213871103
1040
7.675000440694855
1040
0.4142135623730891
1040
30.36721213871101
1040
7.150000440694867
1040
0.0
1040
32.11721213871101
1040
7.150000440694867
1040
0.4142135623731526
1040
32.6422121387111
1040
7.675000440694855
1040
0.0
1040
32.6422121387111
1040
13.27500044069487
1040
-0.4142135623731526
1040
33.16721213871119
1040
13.80000044069486
1040
0.0
1040
33.30744630219976
1040
13.80000044069486
1040
-0.3272098845218915
1040
33.80807720139512
1040
13.43309440886179
1040
0.0
1040
35.6763470760269
1040
7.516906472527939
1040
0.3272098845218902
1040
36.17697797522225
1040
7.150000440694867
1040
0.0
1040
37.87586735483148
1040
7.150000440694867
1040
0.5069206636600335
1040
38.37649825402684
1040
7.833094408861875
1040
0.0
1040
36.05010687555318
1040
15.200000440695
1040
0.0
1071
        0
1071
        7
1070
     1
1070
     1
1071
        8
1040
43.49221213871101
1040
22.72500044069488
1040
0.4142135623731546
1040
42.96721213871092
1040
23.25000044069486
1040
0.0
1040
41.21721213871114
1040
23.25000044069486
1040
0.4142135623731507
1040
40.69221213871105
1040
22.72500044069488
1040
0.0
1040
40.69221213871105
1040
7.675000440694855
1040
0.4142135623731526
1040
41.21721213871114
1040
7.150000440694867
1040
0.0
1040
42.96721213871092
1040
7.150000440694867
1040
0.4142135623731526
1040
43.49221213871101
1040
7.675000440694855
1040
0.0
1071
        0
1071
        7
1070
     1
1070
     1
1071
       24
1040
48.3922121387111
1040
19.92500044069487
1040
-0.4142135623731546
1040
48.91721213871119
1040
20.45000044069486
1040
0.0
1040
51.8922121387111
1040
20.45000044069486
1040
0.4142135623730911
1040
52.41721213871108
1040
20.97500044069485
1040
0.0
1040
52.41721213871108
1040
22.72500044069487
1040
0.4142135623730952
1040
51.8922121387111
1040
23.25000044069486
1040
0.0
1040
48.3922121387111
1040
23.25000044069486
1040
0.4142135623731048
1040
45.59221213871103
1040
20.45000044069489
1040
0.0
1040
45.59221213871103
1040
18.63479841533962
1040
0.1989123673796613
1040
46.82236365772758
1040
15.66494993435607
1040
0.0
1040
49.73216163237225
1040
12.7551519597114
1040
-0.1989123673796402
1040
50.1422121387111
1040
11.76520246605033
1040
0.0
1040
50.1422121387111
1040
10.47500044069485
1040
-0.4142135623730911
1040
49.61721213871112
1040
9.950000440694864
1040
0.0
1040
46.6422121387111
1040
9.950000440694864
1040
0.4142135623731526
1040
46.11721213871101
1040
9.425000440694876
1040
0.0
1040
46.11721213871101
1040
7.675000440694855
1040
0.4142135623730891
1040
46.64221213871099
1040
7.150000440694867
1040
0.0
1040
50.1422121387111
1040
7.150000440694867
1040
0.4142135623730925
1040
52.94221213871106
1040
9.950000440694843
1040
0.0
1040
52.94221213871106
1040
11.76520246605011
1040
0.1989123673796675
1040
51.71206061969451
1040
14.73505094703376
1040
0.0
1040
48.80226264504995
1040
17.64484892167828
1040
-0.1989123673796652
1040
48.3922121387111
1040
18.63479841533945
1040
0.0
1071
        0
1071
        7
1070
     1
1070
     1
1071
       16
1040
57.84221213871103
1040
22.72500044069485
1040
0.414213562373103
1040
57.31721213871106
1040
23.25000044069486
1040
0.0
1040
55.56721213871106
1040
23.25000044069486
1040
0.4142135623730871
1040
55.04221213871108
1040
22.72500044069488
1040
0.0
1040
55.04221213871108
1040
9.950000440694843
1040
0.4142135623730926
1040
57.84221213871103
1040
7.150000440694867
1040
0.0
1040
61.34221213871104
1040
7.150000440694867
1040
0.4142135623731044
1040
64.1422121387111
1040
9.950000440694843
1040
0.0
1040
64.1422121387111
1040
22.72500044069487
1040
0.4142135623730951
1040
63.61721213871113
1040
23.25000044069486
1040
0.0
1040
61.86721213871101
1040
23.25000044069486
1040
0.4142135623730871
1040
61.34221213871104
1040
22.72500044069488
1040
0.0
1040
61.34221213871104
1040
11.00000044069484
1040
-0.414213562373088
1040
60.29221213871108
1040
9.950000440694864
1040
0.0
1040
58.8922121387111
1040
9.950000440694864
1040
-0.4142135623731197
1040
57.84221213871103
1040
11.00000044069484
1040
0.0
1071
        0
1071
        7
1070
     1
1070
     1
1071
        8
1040
69.04221213871108
1040
22.72500044069488
1040
0.4142135623730871
1040
68.5172121387111
1040
23.25000044069486
1040
0.0
1040
66.7672121387111
1040
23.25000044069486
1040
0.4142135623731507
1040
66.24221213871101
1040
22.72500044069488
1040
0.0
1040
66.24221213871101
1040
7.675000440694855
1040
0.4142135623730891
1040
66.76721213871099
1040
7.150000440694867
1040
0.0
1040
68.5172121387111
1040
7.150000440694867
1040
0.4142135623730891
1040
69.04221213871108
1040
7.675000440694855
1040
0.0
1071
        0
1070
     0
1070
     1
1040
0.0
1040
0.2
1070
     0
1070
     2
1040
0.7853981633974483
1040
-900.942304350749
1040
-13.19999955930507
1040
-0.4490128060534576
1040
0.4490128060534577
1070
     0
1040
2.356194490192344
1040
-900.942304350749
1040
-13.19999955930507
1040
-0.4490128060534577
1040
-0.4490128060534576
1070
     0
1040
0.057451373970553
1071
        8
1040
16.07985494695322
1040
15.16717408658041
1040
0.0
1040
22.40451499036907
1040
18.84406262314587
1040
0.0
1040
25.16436786958957
1040
15.51188208676558
1040
0.0
1040
30.91405996556705
1040
16.20129808713636
1040
0.0
1040
41.83847200288664
1040
16.66091035467798
1040
0.0
1040
46.89820087905945
1040
19.41857675710207
1040
0.0
1040
56.55768595633026
1040
18.72915835578987
1040
0.0
1040
67.82707960355264
1040
19.18877062333149
1040
0.0
1002
}
  0
ARC
  5
AC1
330
1A
100
AcDbEntity
  8
ZUWAKU
100
AcDbCircle
 10
15.49221213871101
 20
18.63479841533956
 30
0.0
 40
4.199999999999999
100
AcDbArc
 50
180.0
 51
225.0
  0
LINE
  5
AC2
330
1A
100
AcDbEntity
  8
ZUWAKU
100
AcDbLine
 10
20.74221213871101
 20
11.35000044069487
 30
0.0
 11
20.74221213871101
 21
19.05000044069482
 31
0.0
  0
LINE
  5
AC3
330
1A
100
AcDbEntity
  8
ZUWAKU
100
AcDbLine
 10
23.54221213871107
 20
19.05000044069486
 30
0.0
 11
23.54221213871107
 21
11.35000044069487
 31
0.0
  0
ARC
  5
AC4
330
1A
100
AcDbEntity
  8
ZUWAKU
100
AcDbCircle
 10
15.49221213871101
 20
18.63479841533956
 30
0.0
 40
1.399999999999999
100
AcDbArc
 50
180.0000000000016
 51
224.9999999999988
  0
ARC
  5
AC5
330
1A
100
AcDbEntity
  8
ZUWAKU
100
AcDbCircle
 10
24.94221213871105
 20
11.35000044069487
 30
0.0
 40
4.199999999999999
100
AcDbArc
 50
180.0
 51
270.0
  0
ARC
  5
AC6
330
1A
100
AcDbEntity
  8
ZUWAKU
100
AcDbCircle
 10
15.84221213871103
 20
9.950000440694864
 30
0.0
 40
2.799999999999999
100
AcDbArc
 50
270.0
 51
0.0
  0
ARC
  5
AC7
330
1A
100
AcDbEntity
  8
ZUWAKU
100
AcDbCircle
 10
14.44221213871105
 20
11.76520246605017
 30
0.0
 40
4.199999999999999
100
AcDbArc
 50
0.0
 51
45.0
  0
LINE
  5
AC8
330
1A
100
AcDbEntity
  8
ZUWAKU
100
AcDbLine
 10
12.52236365772751
 20
15.66494993435604
 30
0.0
 11
15.43216163237218
 21
12.75515195971138
 31
0.0
  0
LINE
  5
AC9
330
1A
100
AcDbEntity
  8
ZUWAKU
100
AcDbLine
 10
12.34221213871103
 20
9.950000440694864
 30
0.0
 11
15.31721213871105
 21
9.950000440694864
 31
0.0
  0
LINE
  5
ACA
330
1A
100
AcDbEntity
  8
ZUWAKU
100
AcDbLine
 10
12.34221213871103
 20
7.150000440694867
 30
0.0
 11
15.84221213871103
 21
7.150000440694867
 31
0.0
  0
ARC
  5
ACB
330
1A
100
AcDbEntity
  8
ZUWAKU
100
AcDbCircle
 10
12.34221213871103
 20
9.425000440694866
 30
0.0
 40
0.525
100
AcDbArc
 50
90.0
 51
180.0
  0
ARC
  5
ACC
330
1A
100
AcDbEntity
  8
ZUWAKU
100
AcDbCircle
 10
12.34221213871103
 20
7.675000440694866
 30
0.0
 40
0.525
100
AcDbArc
 50
180.0
 51
270.0
  0
LINE
  5
ACD
330
1A
100
AcDbEntity
  8
ZUWAKU
100
AcDbLine
 10
11.81721213871105
 20
7.675000440694866
 30
0.0
 11
11.81721213871105
 21
9.425000440694866
 31
0.0
  0
ARC
  5
ACE
330
1A
100
AcDbEntity
  8
ZUWAKU
100
AcDbCircle
 10
14.44221213871105
 20
11.76520246605021
 30
0.0
 40
1.399999999999999
100
AcDbArc
 50
0.0
 51
45.0
  0
ARC
  5
ACF
330
1A
100
AcDbEntity
  8
ZUWAKU
100
AcDbCircle
 10
15.31721213871105
 20
10.47500044069487
 30
0.0
 40
0.525
100
AcDbArc
 50
270.0
 51
0.0
  0
LINE
  5
AD0
330
1A
100
AcDbEntity
  8
ZUWAKU
100
AcDbLine
 10
15.84221213871103
 20
10.47500044069487
 30
0.0
 11
15.84221213871103
 21
11.76520246605021
 31
0.0
  0
LINE
  5
AD1
330
1A
100
AcDbEntity
  8
ZUWAKU
100
AcDbLine
 10
17.41206061969455
 20
14.73505094703369
 30
0.0
 11
14.50226264504988
 21
17.64484892167836
 31
0.0
  0
ARC
  5
AD2
330
1A
100
AcDbEntity
  8
ZUWAKU
100
AcDbCircle
 10
24.94221213871105
 20
11.35000044069487
 30
0.0
 40
1.399999999999999
100
AcDbArc
 50
180.0
 51
270.0
  0
LINE
  5
AD3
330
1A
100
AcDbEntity
  8
ZUWAKU
100
AcDbLine
 10
18.6422121387111
 20
9.950000440694864
 30
0.0
 11
18.6422121387111
 21
11.76520246605021
 31
0.0
  0
ARC
  5
AD4
330
1A
100
AcDbEntity
  8
ZUWAKU
100
AcDbCircle
 10
17.59221213871103
 20
20.97500044069486
 30
0.0
 40
0.525
100
AcDbArc
 50
270.0
 51
0.0
  0
ARC
  5
AD5
330
1A
100
AcDbEntity
  8
ZUWAKU
100
AcDbCircle
 10
17.59221213871103
 20
22.72500044069486
 30
0.0
 40
0.525
100
AcDbArc
 50
0.0
 51
90.0
  0
ARC
  5
AD6
330
1A
100
AcDbEntity
  8
ZUWAKU
100
AcDbCircle
 10
14.09221213871103
 20
20.45000044069486
 30
0.0
 40
2.799999999999999
100
AcDbArc
 50
90.0
 51
180.0
  0
LINE
  5
AD7
330
1A
100
AcDbEntity
  8
ZUWAKU
100
AcDbLine
 10
11.29221213871107
 20
20.45000044069486
 30
0.0
 11
11.29221213871107
 21
18.63479841533952
 31
0.0
  0
LINE
  5
AD8
330
1A
100
AcDbEntity
  8
ZUWAKU
100
AcDbLine
 10
17.59221213871103
 20
20.45000044069486
 30
0.0
 11
14.61721213871101
 21
20.45000044069486
 31
0.0
  0
LINE
  5
AD9
330
1A
100
AcDbEntity
  8
ZUWAKU
100
AcDbLine
 10
14.09221213871103
 20
19.92500044069486
 30
0.0
 11
14.09221213871103
 21
18.63479841533952
 31
0.0
  0
ARC
  5
ADA
330
1A
100
AcDbEntity
  8
ZUWAKU
100
AcDbCircle
 10
14.61721213871101
 20
19.92500044069486
 30
0.0
 40
0.525
100
AcDbArc
 50
90.0
 51
180.0
  0
LINE
  5
ADB
330
1A
100
AcDbEntity
  8
ZUWAKU
100
AcDbLine
 10
14.09221213871103
 20
23.25000044069486
 30
0.0
 11
17.59221213871103
 21
23.25000044069486
 31
0.0
  0
ARC
  5
ADC
330
1A
100
AcDbEntity
  8
ZUWAKU
100
AcDbCircle
 10
24.94221213871105
 20
19.05000044069482
 30
0.0
 40
4.199999999999999
100
AcDbArc
 50
90.0
 51
180.0
  0
ARC
  5
ADD
330
1A
100
AcDbEntity
  8
ZUWAKU
100
AcDbCircle
 10
24.94221213871105
 20
19.05000044069486
 30
0.0
 40
1.399999999999999
100
AcDbArc
 50
90.0
 51
180.0
  0
LINE
  5
ADE
330
1A
100
AcDbEntity
  8
ZUWAKU
100
AcDbLine
 10
18.11721213871101
 20
22.72500044069486
 30
0.0
 11
18.11721213871101
 21
20.97500044069486
 31
0.0
  0
LINE
  5
ADF
330
1A
100
AcDbEntity
  8
ZUWAKU
100
AcDbLine
 10
35.6763470760269
 20
22.88309440886183
 30
0.0
 11
33.80807720139512
 21
16.96690647252789
 31
0.0
  0
LINE
  5
AE0
330
1A
100
AcDbEntity
  8
ZUWAKU
100
AcDbLine
 10
29.84221213871103
 20
22.72500044069486
 30
0.0
 11
29.84221213871103
 21
7.675000440694866
 31
0.0
  0
LINE
  5
AE1
330
1A
100
AcDbEntity
  8
ZUWAKU
100
AcDbLine
 10
32.6422121387111
 20
17.12500044069487
 30
0.0
 11
32.6422121387111
 21
22.72500044069486
 31
0.0
  0
LINE
  5
AE2
330
1A
100
AcDbEntity
  8
ZUWAKU
100
AcDbLine
 10
57.84221213871103
 20
11.00000044069486
 30
0.0
 11
57.84221213871103
 21
22.72500044069486
 31
0.0
  0
LINE
  5
AE3
330
1A
100
AcDbEntity
  8
ZUWAKU
100
AcDbLine
 10
55.04221213871108
 20
22.72500044069486
 30
0.0
 11
55.04221213871108
 21
9.950000440694864
 31
0.0
  0
LINE
  5
AE4
330
1A
100
AcDbEntity
  8
ZUWAKU
100
AcDbLine
 10
43.49221213871101
 20
7.675000440694866
 30
0.0
 11
43.49221213871101
 21
22.72500044069486
 31
0.0
  0
LINE
  5
AE5
330
1A
100
AcDbEntity
  8
ZUWAKU
100
AcDbLine
 10
40.69221213871105
 20
22.72500044069486
 30
0.0
 11
40.69221213871105
 21
7.675000440694866
 31
0.0
  0
LINE
  5
AE6
330
1A
100
AcDbEntity
  8
ZUWAKU
100
AcDbLine
 10
37.31485862088902
 20
19.20504763425829
 30
0.0
 11
36.05010687555318
 21
15.20000044069488
 31
0.0
  0
ARC
  5
AE7
330
1A
100
AcDbEntity
  8
ZUWAKU
100
AcDbCircle
 10
49.79221213871108
 20
18.63479841533956
 30
0.0
 40
4.199999999999999
100
AcDbArc
 50
180.0
 51
225.0
  0
ARC
  5
AE8
330
1A
100
AcDbEntity
  8
ZUWAKU
100
AcDbCircle
 10
49.79221213871108
 20
18.63479841533956
 30
0.0
 40
1.399999999999999
100
AcDbArc
 50
180.0000000000016
 51
224.9999999999988
  0
LINE
  5
AE9
330
1A
100
AcDbEntity
  8
ZUWAKU
100
AcDbLine
 10
66.24221213871101
 20
22.72500044069486
 30
0.0
 11
66.24221213871101
 21
7.675000440694866
 31
0.0
  0
LINE
  5
AEA
330
1A
100
AcDbEntity
  8
ZUWAKU
100
AcDbLine
 10
69.04221213871108
 20
7.675000440694866
 30
0.0
 11
69.04221213871108
 21
22.72500044069486
 31
0.0
  0
LINE
  5
AEB
330
1A
100
AcDbEntity
  8
ZUWAKU
100
AcDbLine
 10
61.34221213871104
 20
22.72500044069486
 30
0.0
 11
61.34221213871104
 21
11.00000044069486
 31
0.0
  0
LINE
  5
AEC
330
1A
100
AcDbEntity
  8
ZUWAKU
100
AcDbLine
 10
64.1422121387111
 20
9.950000440694864
 30
0.0
 11
64.1422121387111
 21
22.72500044069486
 31
0.0
  0
LINE
  5
AED
330
1A
100
AcDbEntity
  8
ZUWAKU
100
AcDbLine
 10
79.1266295319183
 20
30.00000044069486
 30
0.0
 11
79.1266295319183
 21
0.8000004406949301
 31
0.0
  0
LINE
  5
AEE
330
1A
100
AcDbEntity
  8
ZUWAKU
100
AcDbLine
 10
79.52662953191816
 20
30.00000044069486
 30
0.0
 11
79.52662953191839
 21
0.8000004406949301
 31
0.0
  0
LINE
  5
AEF
330
1A
100
AcDbEntity
  8
ZUWAKU
100
AcDbLine
 10
79.32662953191812
 20
30.00000044069486
 30
0.0
 11
79.32662953191834
 21
0.8000004406949301
 31
0.0
  0
LINE
  5
AF0
330
1A
100
AcDbEntity
  8
ZUWAKU
100
AcDbLine
 10
57.84221213871103
 20
7.150000440694867
 30
0.0
 11
61.34221213871104
 21
7.150000440694867
 31
0.0
  0
LINE
  5
AF1
330
1A
100
AcDbEntity
  8
ZUWAKU
100
AcDbLine
 10
60.29221213871108
 20
9.950000440694864
 30
0.0
 11
58.8922121387111
 21
9.950000440694864
 31
0.0
  0
LINE
  5
AF2
330
1A
100
AcDbEntity
  8
ZUWAKU
100
AcDbLine
 10
41.21721213871103
 20
7.150000440694867
 30
0.0
 11
42.96721213871103
 21
7.150000440694867
 31
0.0
  0
LINE
  5
AF3
330
1A
100
AcDbEntity
  8
ZUWAKU
100
AcDbLine
 10
35.6763470760269
 20
7.516906472527892
 30
0.0
 11
33.80807720139512
 21
13.43309440886183
 31
0.0
  0
ARC
  5
AF4
330
1A
100
AcDbEntity
  8
ZUWAKU
100
AcDbCircle
 10
33.16721213871108
 20
13.27500044069486
 30
0.0
 40
0.525
100
AcDbArc
 50
90.0
 51
180.0
  0
ARC
  5
AF5
330
1A
100
AcDbEntity
  8
ZUWAKU
100
AcDbCircle
 10
33.30744630219976
 20
13.27500044069486
 30
0.0
 40
0.525
100
AcDbArc
 50
17.52556837372303
 51
90.0
  0
ARC
  5
AF6
330
1A
100
AcDbEntity
  8
ZUWAKU
100
AcDbCircle
 10
30.36721213871101
 20
7.675000440694866
 30
0.0
 40
0.525
100
AcDbArc
 50
180.0
 51
270.0
  0
ARC
  5
AF7
330
1A
100
AcDbEntity
  8
ZUWAKU
100
AcDbCircle
 10
26.86721213871101
 20
9.425000440694866
 30
0.0
 40
0.525
100
AcDbArc
 50
0.0
 51
90.0
  0
ARC
  5
AF8
330
1A
100
AcDbEntity
  8
ZUWAKU
100
AcDbCircle
 10
26.86721213871101
 20
7.675000440694866
 30
0.0
 40
0.525
100
AcDbArc
 50
270.0
 51
0.0
  0
LINE
  5
AF9
330
1A
100
AcDbEntity
  8
ZUWAKU
100
AcDbLine
 10
27.3922121387111
 20
9.425000440694866
 30
0.0
 11
27.3922121387111
 21
7.675000440694866
 31
0.0
  0
LINE
  5
AFA
330
1A
100
AcDbEntity
  8
ZUWAKU
100
AcDbLine
 10
32.6422121387111
 20
7.675000440694866
 30
0.0
 11
32.6422121387111
 21
13.27500044069486
 31
0.0
  0
ARC
  5
AFB
330
1A
100
AcDbEntity
  8
ZUWAKU
100
AcDbCircle
 10
32.11721213871101
 20
7.675000440694866
 30
0.0
 40
0.525
100
AcDbArc
 50
270.0
 51
0.0
  0
LINE
  5
AFC
330
1A
100
AcDbEntity
  8
ZUWAKU
100
AcDbLine
 10
30.36721213871101
 20
7.150000440694867
 30
0.0
 11
32.11721213871101
 21
7.150000440694867
 31
0.0
  0
ARC
  5
AFD
330
1A
100
AcDbEntity
  8
ZUWAKU
100
AcDbCircle
 10
33.16721213871108
 20
17.12500044069487
 30
0.0
 40
0.525
100
AcDbArc
 50
180.0
 51
270.0
  0
LINE
  5
AFE
330
1A
100
AcDbEntity
  8
ZUWAKU
100
AcDbLine
 10
33.16721213871108
 20
13.80000044069486
 30
0.0
 11
33.30744630219976
 21
13.80000044069486
 31
0.0
  0
LINE
  5
AFF
330
1A
100
AcDbEntity
  8
ZUWAKU
100
AcDbLine
 10
33.30744630219976
 20
16.60000044069486
 30
0.0
 11
33.16721213871108
 21
16.60000044069486
 31
0.0
  0
ARC
  5
B00
330
1A
100
AcDbEntity
  8
ZUWAKU
100
AcDbCircle
 10
33.30744630219976
 20
17.12500044069487
 30
0.0
 40
0.525
100
AcDbArc
 50
270.0
 51
342.4744316262769
  0
ARC
  5
B01
330
1A
100
AcDbEntity
  8
ZUWAKU
100
AcDbCircle
 10
36.17697797522237
 20
7.675000440694866
 30
0.0
 40
0.525
100
AcDbArc
 50
197.525568373723
 51
270.0
  0
LINE
  5
B02
330
1A
100
AcDbEntity
  8
ZUWAKU
100
AcDbLine
 10
38.37649825402684
 20
7.833094408861839
 30
0.0
 11
36.05010687555318
 21
15.20000044069488
 31
0.0
  0
ARC
  5
B03
330
1A
100
AcDbEntity
  8
ZUWAKU
100
AcDbCircle
 10
37.87586735483137
 20
7.675000440694866
 30
0.0
 40
0.525
100
AcDbArc
 50
270.0
 51
17.52556837372303
  0
LINE
  5
B04
330
1A
100
AcDbEntity
  8
ZUWAKU
100
AcDbLine
 10
36.17697797522237
 20
7.150000440694867
 30
0.0
 11
37.87586735483137
 21
7.150000440694867
 31
0.0
  0
ARC
  5
B05
330
1A
100
AcDbEntity
  8
ZUWAKU
100
AcDbCircle
 10
41.21721213871103
 20
7.675000440694866
 30
0.0
 40
0.525
100
AcDbArc
 50
180.0
 51
270.0
  0
ARC
  5
B06
330
1A
100
AcDbEntity
  8
ZUWAKU
100
AcDbCircle
 10
50.1422121387111
 20
9.950000440694864
 30
0.0
 40
2.799999999999999
100
AcDbArc
 50
270.0
 51
0.0
  0
ARC
  5
B07
330
1A
100
AcDbEntity
  8
ZUWAKU
100
AcDbCircle
 10
57.84221213871103
 20
9.950000440694864
 30
0.0
 40
2.799999999999999
100
AcDbArc
 50
180.0
 51
270.0
  0
LINE
  5
B08
330
1A
100
AcDbEntity
  8
ZUWAKU
100
AcDbLine
 10
51.71206061969463
 20
14.73505094703369
 30
0.0
 11
48.80226264504983
 21
17.64484892167836
 31
0.0
  0
LINE
  5
B09
330
1A
100
AcDbEntity
  8
ZUWAKU
100
AcDbLine
 10
46.82236365772758
 20
15.66494993435604
 30
0.0
 11
49.73216163237225
 21
12.75515195971138
 31
0.0
  0
LINE
  5
B0A
330
1A
100
AcDbEntity
  8
ZUWAKU
100
AcDbLine
 10
46.6422121387111
 20
7.150000440694867
 30
0.0
 11
50.1422121387111
 21
7.150000440694867
 31
0.0
  0
LINE
  5
B0B
330
1A
100
AcDbEntity
  8
ZUWAKU
100
AcDbLine
 10
46.6422121387111
 20
9.950000440694864
 30
0.0
 11
49.61721213871101
 21
9.950000440694864
 31
0.0
  0
ARC
  5
B0C
330
1A
100
AcDbEntity
  8
ZUWAKU
100
AcDbCircle
 10
46.6422121387111
 20
9.425000440694866
 30
0.0
 40
0.525
100
AcDbArc
 50
90.0
 51
180.0
  0
ARC
  5
B0D
330
1A
100
AcDbEntity
  8
ZUWAKU
100
AcDbCircle
 10
42.96721213871103
 20
7.675000440694866
 30
0.0
 40
0.525
100
AcDbArc
 50
270.0
 51
0.0
  0
ARC
  5
B0E
330
1A
100
AcDbEntity
  8
ZUWAKU
100
AcDbCircle
 10
46.6422121387111
 20
7.675000440694866
 30
0.0
 40
0.525
100
AcDbArc
 50
180.0
 51
270.0
  0
LINE
  5
B0F
330
1A
100
AcDbEntity
  8
ZUWAKU
100
AcDbLine
 10
46.11721213871101
 20
7.675000440694866
 30
0.0
 11
46.11721213871101
 21
9.425000440694866
 31
0.0
  0
ARC
  5
B10
330
1A
100
AcDbEntity
  8
ZUWAKU
100
AcDbCircle
 10
49.61721213871101
 20
10.47500044069487
 30
0.0
 40
0.525
100
AcDbArc
 50
270.0
 51
0.0
  0
ARC
  5
B11
330
1A
100
AcDbEntity
  8
ZUWAKU
100
AcDbCircle
 10
48.74221213871101
 20
11.76520246605021
 30
0.0
 40
1.399999999999999
100
AcDbArc
 50
0.0
 51
45.0
  0
LINE
  5
B12
330
1A
100
AcDbEntity
  8
ZUWAKU
100
AcDbLine
 10
50.1422121387111
 20
10.47500044069487
 30
0.0
 11
50.1422121387111
 21
11.76520246605021
 31
0.0
  0
ARC
  5
B13
330
1A
100
AcDbEntity
  8
ZUWAKU
100
AcDbCircle
 10
58.8922121387111
 20
11.00000044069486
 30
0.0
 40
1.049999999999999
100
AcDbArc
 50
180.0
 51
270.0
  0
ARC
  5
B14
330
1A
100
AcDbEntity
  8
ZUWAKU
100
AcDbCircle
 10
48.74221213871101
 20
11.76520246605017
 30
0.0
 40
4.199999999999999
100
AcDbArc
 50
0.0
 51
45.0
  0
LINE
  5
B15
330
1A
100
AcDbEntity
  8
ZUWAKU
100
AcDbLine
 10
52.94221213871106
 20
9.950000440694864
 30
0.0
 11
52.94221213871106
 21
11.76520246605021
 31
0.0
  0
ARC
  5
B16
330
1A
100
AcDbEntity
  8
ZUWAKU
100
AcDbCircle
 10
61.34221213871104
 20
9.950000440694864
 30
0.0
 40
2.799999999999999
100
AcDbArc
 50
270.0
 51
0.0
  0
LINE
  5
B17
330
1A
100
AcDbEntity
  8
ZUWAKU
100
AcDbLine
 10
66.7672121387111
 20
7.150000440694867
 30
0.0
 11
68.5172121387111
 21
7.150000440694867
 31
0.0
  0
ARC
  5
B18
330
1A
100
AcDbEntity
  8
ZUWAKU
100
AcDbCircle
 10
60.29221213871108
 20
11.00000044069486
 30
0.0
 40
1.049999999999999
100
AcDbArc
 50
270.0
 51
0.0
  0
ARC
  5
B19
330
1A
100
AcDbEntity
  8
ZUWAKU
100
AcDbCircle
 10
66.7672121387111
 20
7.675000440694866
 30
0.0
 40
0.525
100
AcDbArc
 50
180.0
 51
270.0
  0
ARC
  5
B1A
330
1A
100
AcDbEntity
  8
ZUWAKU
100
AcDbCircle
 10
68.5172121387111
 20
7.675000440694866
 30
0.0
 40
0.525
100
AcDbArc
 50
270.0
 51
0.0
  0
LINE
  5
B1B
330
1A
100
AcDbEntity
  8
ZUWAKU
100
AcDbLine
 10
42.96721213871103
 20
23.25000044069486
 30
0.0
 11
41.21721213871103
 21
23.25000044069486
 31
0.0
  0
LINE
  5
B1C
330
1A
100
AcDbEntity
  8
ZUWAKU
100
AcDbLine
 10
27.3922121387111
 20
22.72500044069486
 30
0.0
 11
27.3922121387111
 21
20.97500044069486
 31
0.0
  0
ARC
  5
B1D
330
1A
100
AcDbEntity
  8
ZUWAKU
100
AcDbCircle
 10
26.86721213871101
 20
20.97500044069486
 30
0.0
 40
0.525
100
AcDbArc
 50
270.0
 51
0.0
  0
ARC
  5
B1E
330
1A
100
AcDbEntity
  8
ZUWAKU
100
AcDbCircle
 10
30.36721213871101
 20
22.72500044069486
 30
0.0
 40
0.525
100
AcDbArc
 50
90.0
 51
180.0
  0
ARC
  5
B1F
330
1A
100
AcDbEntity
  8
ZUWAKU
100
AcDbCircle
 10
26.86721213871101
 20
22.72500044069486
 30
0.0
 40
0.525
100
AcDbArc
 50
0.0
 51
90.0
  0
LINE
  5
B20
330
1A
100
AcDbEntity
  8
ZUWAKU
100
AcDbLine
 10
32.11721213871101
 20
23.25000044069486
 30
0.0
 11
30.36721213871101
 21
23.25000044069486
 31
0.0
  0
ARC
  5
B21
330
1A
100
AcDbEntity
  8
ZUWAKU
100
AcDbCircle
 10
32.11721213871101
 20
22.72500044069486
 30
0.0
 40
0.525
100
AcDbArc
 50
0.0
 51
90.0
  0
ARC
  5
B22
330
1A
100
AcDbEntity
  8
ZUWAKU
100
AcDbCircle
 10
36.17697797522237
 20
22.72500044069486
 30
0.0
 40
0.525
100
AcDbArc
 50
90.0
 51
162.4744316262769
  0
LINE
  5
B23
330
1A
100
AcDbEntity
  8
ZUWAKU
100
AcDbLine
 10
38.37649825402684
 20
22.56690647252789
 30
0.0
 11
37.31485862088902
 21
19.20504763425829
 31
0.0
  0
ARC
  5
B24
330
1A
100
AcDbEntity
  8
ZUWAKU
100
AcDbCircle
 10
37.87586735483137
 20
22.72500044069486
 30
0.0
 40
0.525
100
AcDbArc
 50
342.4744316262769
 51
90.0
  0
LINE
  5
B25
330
1A
100
AcDbEntity
  8
ZUWAKU
100
AcDbLine
 10
36.17697797522237
 20
23.25000044069486
 30
0.0
 11
37.87586735483137
 21
23.25000044069486
 31
0.0
  0
ARC
  5
B26
330
1A
100
AcDbEntity
  8
ZUWAKU
100
AcDbCircle
 10
41.21721213871103
 20
22.72500044069486
 30
0.0
 40
0.525
100
AcDbArc
 50
90.0
 51
180.0
  0
LINE
  5
B27
330
1A
100
AcDbEntity
  8
ZUWAKU
100
AcDbLine
 10
51.8922121387111
 20
20.45000044069486
 30
0.0
 11
48.91721213871107
 21
20.45000044069486
 31
0.0
  0
LINE
  5
B28
330
1A
100
AcDbEntity
  8
ZUWAKU
100
AcDbLine
 10
48.3922121387111
 20
23.25000044069486
 30
0.0
 11
51.8922121387111
 21
23.25000044069486
 31
0.0
  0
ARC
  5
B29
330
1A
100
AcDbEntity
  8
ZUWAKU
100
AcDbCircle
 10
48.3922121387111
 20
20.45000044069486
 30
0.0
 40
2.799999999999999
100
AcDbArc
 50
90.0
 51
180.0
  0
LINE
  5
B2A
330
1A
100
AcDbEntity
  8
ZUWAKU
100
AcDbLine
 10
45.59221213871103
 20
20.45000044069486
 30
0.0
 11
45.59221213871103
 21
18.63479841533952
 31
0.0
  0
ARC
  5
B2B
330
1A
100
AcDbEntity
  8
ZUWAKU
100
AcDbCircle
 10
42.96721213871103
 20
22.72500044069486
 30
0.0
 40
0.525
100
AcDbArc
 50
0.0
 51
90.0
  0
LINE
  5
B2C
330
1A
100
AcDbEntity
  8
ZUWAKU
100
AcDbLine
 10
48.3922121387111
 20
19.92500044069486
 30
0.0
 11
48.3922121387111
 21
18.63479841533952
 31
0.0
  0
ARC
  5
B2D
330
1A
100
AcDbEntity
  8
ZUWAKU
100
AcDbCircle
 10
48.91721213871107
 20
19.92500044069486
 30
0.0
 40
0.525
100
AcDbArc
 50
90.0
 51
180.0
  0
LINE
  5
B2E
330
1A
100
AcDbEntity
  8
ZUWAKU
100
AcDbLine
 10
52.41721213871108
 20
22.72500044069486
 30
0.0
 11
52.41721213871108
 21
20.97500044069486
 31
0.0
  0
ARC
  5
B2F
330
1A
100
AcDbEntity
  8
ZUWAKU
100
AcDbCircle
 10
51.8922121387111
 20
20.97500044069486
 30
0.0
 40
0.525
100
AcDbArc
 50
270.0
 51
0.0
  0
ARC
  5
B30
330
1A
100
AcDbEntity
  8
ZUWAKU
100
AcDbCircle
 10
51.8922121387111
 20
22.72500044069486
 30
0.0
 40
0.525
100
AcDbArc
 50
0.0
 51
90.0
  0
LINE
  5
B31
330
1A
100
AcDbEntity
  8
ZUWAKU
100
AcDbLine
 10
57.31721213871106
 20
23.25000044069486
 30
0.0
 11
55.56721213871106
 21
23.25000044069486
 31
0.0
  0
ARC
  5
B32
330
1A
100
AcDbEntity
  8
ZUWAKU
100
AcDbCircle
 10
55.56721213871106
 20
22.72500044069486
 30
0.0
 40
0.525
100
AcDbArc
 50
90.0
 51
180.0
  0
ARC
  5
B33
330
1A
100
AcDbEntity
  8
ZUWAKU
100
AcDbCircle
 10
57.31721213871106
 20
22.72500044069486
 30
0.0
 40
0.525
100
AcDbArc
 50
0.0
 51
90.0
  0
LINE
  5
B34
330
1A
100
AcDbEntity
  8
ZUWAKU
100
AcDbLine
 10
68.5172121387111
 20
23.25000044069486
 30
0.0
 11
66.7672121387111
 21
23.25000044069486
 31
0.0
  0
ARC
  5
B35
330
1A
100
AcDbEntity
  8
ZUWAKU
100
AcDbCircle
 10
61.86721213871101
 20
22.72500044069486
 30
0.0
 40
0.525
100
AcDbArc
 50
90.0
 51
180.0
  0
LINE
  5
B36
330
1A
100
AcDbEntity
  8
ZUWAKU
100
AcDbLine
 10
63.61721213871101
 20
23.25000044069486
 30
0.0
 11
61.86721213871101
 21
23.25000044069486
 31
0.0
  0
ARC
  5
B37
330
1A
100
AcDbEntity
  8
ZUWAKU
100
AcDbCircle
 10
63.61721213871101
 20
22.72500044069486
 30
0.0
 40
0.525
100
AcDbArc
 50
0.0
 51
90.0
  0
ARC
  5
B38
330
1A
100
AcDbEntity
  8
ZUWAKU
100
AcDbCircle
 10
66.7672121387111
 20
22.72500044069486
 30
0.0
 40
0.525
100
AcDbArc
 50
90.0
 51
180.0
  0
ARC
  5
B39
330
1A
100
AcDbEntity
  8
ZUWAKU
100
AcDbCircle
 10
68.5172121387111
 20
22.72500044069486
 30
0.0
 40
0.525
100
AcDbArc
 50
0.0
 51
90.0
  0
LINE
  5
B3A
330
1A
100
AcDbEntity
  8
ZUWAKU
100
AcDbLine
 10
208.4466012739976
 20
30.00000044069486
 30
0.0
 11
208.4466012739978
 21
0.8000004406949301
 31
0.0
  0
LINE
  5
B3B
330
1A
100
AcDbEntity
  8
ZUWAKU
100
AcDbLine
 10
208.6466012739977
 20
30.00000044069486
 30
0.0
 11
208.6466012739979
 21
0.8000004406949301
 31
0.0
  0
LINE
  5
B3C
330
1A
100
AcDbEntity
  8
ZUWAKU
100
AcDbLine
 10
208.2466012739978
 20
30.00000044069486
 30
0.0
 11
208.2466012739978
 21
0.8000004406949301
 31
0.0
  0
TEXT
  5
B3D
330
1A
100
AcDbEntity
  8
MOJI
100
AcDbText
 10
239.827202664781
 20
18.00492149810224
 30
0.0
 40
5.599999999999999
  1
ブラケット正面打（吊） 自在式
 41
0.9
  7
ｽﾀｲﾙ1
100
AcDbText
  0
TEXT
  5
B3E
330
1A
100
AcDbEntity
  8
ZUWAKU
100
AcDbText
 10
209.7240462962074
 20
9.65535697908048
 30
0.0
 40
4.0
  1
サイズ
 41
0.9
  7
ｽﾀｲﾙ1
100
AcDbText
  0
TEXT
  5
B3F
330
1A
100
AcDbEntity
  8
MOJI
100
AcDbText
 10
239.827202664781
 20
3.204921498102283
 30
0.0
 40
5.599999999999999
  1
１２０－０－４５～６０
 41
0.9
  7
ｽﾀｲﾙ1
100
AcDbText
  0
TEXT
  5
B40
330
1A
100
AcDbEntity
  8
ZUWAKU
100
AcDbText
 10
209.7240462962072
 20
24.05535697908044
 30
0.0
 40
4.0
  1
品名
 41
0.9
  7
ｽﾀｲﾙ1
100
AcDbText
  0
TEXT
  5
B41
330
1A
100
AcDbEntity
  8
ZUWAKU
100
AcDbText
 10
658.2039376712323
 20
18.00492149810224
 30
0.0
 40
5.599999999999999
  1
　　．　　．　　
 41
0.9
  7
ｽﾀｲﾙ1
100
AcDbText
  0
LINE
  5
B42
330
1A
100
AcDbEntity
  8
ZUWAKU
100
AcDbLine
 10
648.8172024941341
 20
15.60000044069489
 30
0.0
 11
697.2490105324712
 21
15.60000044069489
 31
0.0
  0
LINE
  5
B43
330
1A
100
AcDbEntity
  8
ZUWAKU
100
AcDbLine
 10
648.8172024941343
 20
15.4000004406949
 30
0.0
 11
697.2490105324712
 21
15.40000044069489
 31
0.0
  0
LINE
  5
B44
330
1A
100
AcDbEntity
  8
ZUWAKU
100
AcDbLine
 10
648.8172024941341
 20
15.20000044069489
 30
0.0
 11
697.2490105324712
 21
15.20000044069489
 31
0.0
  0
LINE
  5
B45
330
1A
100
AcDbEntity
  8
ZUWAKU
100
AcDbLine
 10
505.1991794820708
 20
15.60000044069489
 30
0.0
 11
552.5269557500423
 21
15.60000044069489
 31
0.0
  0
LINE
  5
B46
330
1A
100
AcDbEntity
  8
ZUWAKU
100
AcDbLine
 10
505.1991794820708
 20
15.40000044069489
 30
0.0
 11
552.5269557500423
 21
15.40000044069489
 31
0.0
  0
LINE
  5
B47
330
1A
100
AcDbEntity
  8
ZUWAKU
100
AcDbLine
 10
505.1991794820708
 20
15.2000004406949
 30
0.0
 11
552.5269557500423
 21
15.2000004406949
 31
0.0
  0
LINE
  5
B48
330
1A
100
AcDbEntity
  8
ZUWAKU
100
AcDbLine
 10
504.7991794820709
 20
30.00000044069486
 30
0.0
 11
504.7991794820709
 21
0.8000004406949301
 31
0.0
  0
LINE
  5
B49
330
1A
100
AcDbEntity
  8
ZUWAKU
100
AcDbLine
 10
505.1991794820708
 20
30.00000044069486
 30
0.0
 11
505.199179482071
 21
0.8000004406949301
 31
0.0
  0
LINE
  5
B4A
330
1A
100
AcDbEntity
  8
ZUWAKU
100
AcDbLine
 10
504.9991794820707
 20
30.00000044069486
 30
0.0
 11
504.999179482071
 21
0.8000004406949301
 31
0.0
  0
TEXT
  5
B4B
330
1A
100
AcDbEntity
  8
MOJI
100
AcDbText
 10
528.0409079562428
 20
18.00492149810224
 30
0.0
 40
5.599999999999999
  1
Ａ３
 41
0.9
  7
ｽﾀｲﾙ1
100
AcDbText
  0
LINE
  5
B4C
330
1A
100
AcDbEntity
  8
ZUWAKU
100
AcDbLine
 10
447.4243639549213
 20
30.00000044069486
 30
0.0
 11
447.4243639549213
 21
0.8000004406949301
 31
0.0
  0
LINE
  5
B4D
330
1A
100
AcDbEntity
  8
ZUWAKU
100
AcDbLine
 10
447.8243639549211
 20
30.00000044069486
 30
0.0
 11
447.8243639549214
 21
0.8000004406949301
 31
0.0
  0
LINE
  5
B4E
330
1A
100
AcDbEntity
  8
ZUWAKU
100
AcDbLine
 10
447.6243639549211
 20
30.00000044069486
 30
0.0
 11
447.6243639549213
 21
0.8000004406949301
 31
0.0
  0
TEXT
  5
B50
330
1A
100
AcDbEntity
  8
MOJI
100
AcDbText
 10
463.9084316122075
 20
11.23256355247576
 30
0.0
 40
5.599999999999999
  1
ＬＮ２６Ｔ
 41
0.9
  7
ｽﾀｲﾙ1
100
AcDbText
  0
TEXT
  5
B51
330
1A
100
AcDbEntity
  8
ZUWAKU
100
AcDbText
 10
506.6766245042806
 20
9.65535697908048
 30
0.0
 40
4.0
  1
縮尺
 41
0.9
  7
ｽﾀｲﾙ1
100
AcDbText
  0
TEXT
  5
B52
330
1A
100
AcDbEntity
  8
MOJI
100
AcDbText
 10
528.0409079562428
 20
3.204921498102283
 30
0.0
 40
5.599999999999999
  1
１/２
 41
0.9
  7
ｽﾀｲﾙ1
100
AcDbText
  0
TEXT
  5
B53
330
1A
100
AcDbEntity
  8
ZUWAKU
100
AcDbText
 10
449.3018089771307
 20
24.05535697908044
 30
0.0
 40
4.0
  1
品番
 41
0.9
  7
ｽﾀｲﾙ1
100
AcDbText
  0
TEXT
  5
B54
330
1A
100
AcDbEntity
  8
ZUWAKU
100
AcDbText
 10
506.6766245042804
 20
24.05535697908044
 30
0.0
 40
4.0
  1
用紙
 41
0.9
  7
ｽﾀｲﾙ1
100
AcDbText
  0
LINE
  5
B55
330
1A
100
AcDbEntity
  8
ZUWAKU
100
AcDbLine
 10
552.5269557500423
 20
30.00000044069486
 30
0.0
 11
552.5269557500423
 21
0.8000004406949301
 31
0.0
  0
LINE
  5
B56
330
1A
100
AcDbEntity
  8
ZUWAKU
100
AcDbLine
 10
552.9269557500422
 20
30.00000044069486
 30
0.0
 11
552.9269557500424
 21
0.8000004406949301
 31
0.0
  0
LINE
  5
B57
330
1A
100
AcDbEntity
  8
ZUWAKU
100
AcDbLine
 10
552.7269557500422
 20
30.00000044069486
 30
0.0
 11
552.7269557500424
 21
0.8000004406949301
 31
0.0
  0
LINE
  5
B58
330
1A
100
AcDbEntity
  8
ZUWAKU
100
AcDbLine
 10
648.4172024941345
 20
30.00000044069486
 30
0.0
 11
648.4172024941345
 21
0.8000004406949301
 31
0.0
  0
LINE
  5
B59
330
1A
100
AcDbEntity
  8
ZUWAKU
100
AcDbLine
 10
648.8172024941343
 20
30.00000044069486
 30
0.0
 11
648.8172024941345
 21
0.8000004406949301
 31
0.0
  0
LINE
  5
B5A
330
1A
100
AcDbEntity
  8
ZUWAKU
100
AcDbLine
 10
648.6172024941343
 20
30.00000044069486
 30
0.0
 11
648.6172024941345
 21
0.8000004406949301
 31
0.0
  0
TEXT
  5
B5B
330
1A
100
AcDbEntity
  8
ZUWAKU
100
AcDbText
 10
650.2946475163439
 20
24.05535697908044
 30
0.0
 40
4.0
  1
DATE
 41
0.9
  7
ｽﾀｲﾙ1
100
AcDbText
  0
TEXT
  5
B5C
330
1A
100
AcDbEntity
  8
ZUWAKU
100
AcDbText
 10
708.5280841761736
 20
17.55383977638166
 30
0.0
 40
6.0
  1
積水化学工業株式会社
 41
0.9
  7
ｽﾀｲﾙ1
100
AcDbText
  0
LINE
  5
B5D
330
1A
100
AcDbEntity
  8
ZUWAKU
100
AcDbLine
 10
697.849010532471
 20
30.00000044069486
 30
0.0
 11
697.8490105324713
 21
0.8000004406949301
 31
0.0
  0
LINE
  5
B5E
330
1A
100
AcDbEntity
  8
ZUWAKU
100
AcDbLine
 10
697.649010532471
 20
30.00000044069486
 30
0.0
 11
697.6490105324712
 21
0.8000004406949301
 31
0.0
  0
LINE
  5
B5F
330
1A
100
AcDbEntity
  8
ZUWAKU
100
AcDbLine
 10
697.4490105324711
 20
30.00000044069486
 30
0.0
 11
697.4490105324711
 21
0.8000004406949301
 31
0.0
  0
LINE
  5
B60
330
1A
100
AcDbEntity
  8
ZUWAKU
100
AcDbLine
 10
697.2490105324712
 20
30.00000044069486
 30
0.0
 11
697.2490105324712
 21
0.8000004406949301
 31
0.0
  0
TEXT
  5
B61
330
1A
100
AcDbEntity
  8
ZUWAKU
100
AcDbText
 10
708.5280841761736
 20
6.648840754548928
 30
0.0
 40
6.0
  1
建材事業部
 41
0.9
  7
ｽﾀｲﾙ1
100
AcDbText
  0
TEXT
  5
B69
330
1A
100
AcDbEntity
  8
MOJI
100
AcDbText
 10
92.33403077709931
 20
12.62510876664009
 30
0.0
 40
5.799999999999999
  1
アートフェイス１２０
 41
0.9
  7
ｽﾀｲﾙ1
100
AcDbText
  0
TEXT
  5
245D
330
1A
100
AcDbEntity
  8
MOJI
100
AcDbText
 10
691.5248378848807
 20
39.78490050459643
 30
0.0
 40
5.599999999999999
  1
※図面は45mm出です
 41
0.9
  7
ｽﾀｲﾙ1
100
AcDbText
  0
MTEXT
  5
2589
330
1A
100
AcDbEntity
  8
ZUWAKU
 62
     4
100
AcDbMText
 10
424.4372549449479
 20
262.9931414863737
 30
0.0
 40
6.0
 41
0.0
 71
     9
 72
     5
  1
スライド幅
1001
ACAD
1000
MTEXTBEGIN
1070
    73
1070
     1
1070
    44
1040
1.0
1070
    74
1070
     0
1000
MTEXTEND
1000
MTEXTBEGIN
1070
    73
1070
     1
1070
    44
1040
1.0
1070
    74
1070
     0
1000
MTEXTEND
1000
MTEXTBEGIN
1070
    73
1070
     1
1070
    44
1040
1.0
1070
    74
1070
     0
1000
MTEXTEND
1000
MTEXTBEGIN
1070
    73
1070
     1
1070
    44
1040
1.0
1070
    74
1070
     0
1000
MTEXTEND
1000
MTEXTBEGIN
1070
    73
1070
     1
1070
    44
1040
1.0
1070
    74
1070
     0
1000
MTEXTEND
  0
LINE
  5
2D5A
330
1A
100
AcDbEntity
  8
SEIHIN
  6
CONTINUOUS
 62
     3
 48
5.0
100
AcDbLine
 10
358.7184949904822
 20
365.4425937248019
 30
0.0
 11
304.975643691582
 21
365.4425937248019
 31
0.0
  0
LINE
  5
2D5C
330
1A
100
AcDbEntity
  8
SEIHIN
  6
CONTINUOUS
 62
     3
 48
5.0
100
AcDbLine
 10
304.975643691582
 20
397.9425937248019
 30
0.0
 11
358.7184949904822
 21
397.9425937248019
 31
0.0
  0
LINE
  5
2D5E
330
1A
100
AcDbEntity
  8
SEIHIN
  6
CONTINUOUS
 62
     3
 48
5.0
100
AcDbLine
 10
319.329285598682
 20
205.908669148398
 30
0.0
 11
358.209627879082
 21
205.908669148398
 31
0.0
  0
LINE
  5
2D5F
330
1A
100
AcDbEntity
  8
SEIHIN
  6
CONTINUOUS
 62
     3
 48
5.0
100
AcDbLine
 10
304.752848679882
 20
223.749574906598
 30
0.0
 11
358.261636840782
 21
228.206867131798
 31
0.0
  0
ELLIPSE
  5
2D62
330
1A
100
AcDbEntity
  8
SEIHIN
  6
CONTINUOUS
 62
     3
 48
5.0
100
AcDbEllipse
 10
332.0077017062819
 20
197.050318288998
 30
0.0
 11
-8.710805931443587
 21
12.22846945773027
 31
0.0
210
0.0
220
0.0
230
0.9999999999999998
 40
0.9990821425
 41
0.3209686480913486
 42
0.6185248578282376
  0
ELLIPSE
  5
2D63
330
1A
100
AcDbEntity
  8
SEIHIN
  6
CONTINUOUS
 62
     3
 48
5.0
100
AcDbEllipse
 10
341.624656996282
 20
204.342582448598
 30
0.0
 11
-2.945130509446158
 21
7.489043311481352
 31
0.0
210
0.0
220
0.0
230
1.0
 40
0.9625094058
 41
4.324511135430197
 42
4.547384371515791
  0
ELLIPSE
  5
2D65
330
1A
100
AcDbEntity
  8
SEIHIN
  6
CONTINUOUS
 62
     3
 48
5.0
100
AcDbEllipse
 10
214.838839509782
 20
231.4082118623979
 30
0.0
 11
0.4089040751295414
 21
0.2901096741826166
 31
0.0
210
0.0
220
0.0
230
1.0
 40
0.9972788162999998
 41
5.331379240950789
 42
7.234991373408352
  0
SPLINE
  5
2D6F
330
1A
100
AcDbEntity
  8
SEIHIN
  6
CONTINUOUS
 62
     3
 48
5.0
100
AcDbSpline
210
0.0
220
0.0
230
1.0
 70
     8
 71
     3
 72
     9
 73
     5
 74
     0
 42
0.0000000001
 43
0.0000000001
 40
0.0
 40
0.0
 40
0.0
 40
0.0
 40
0.2664983863624508
 40
1.0
 40
1.0
 40
1.0
 40
1.0
 10
211.4845827822934
 20
231.7013828549951
 30
0.0
 10
211.5587734137956
 20
231.7352937736207
 30
0.0
 10
211.8371639606006
 20
231.8625400173534
 30
0.0
 10
212.1448904135028
 20
231.8891503831044
 30
0.0
 10
212.3706082632655
 20
231.9086691293222
 30
0.0
  0
ELLIPSE
  5
2D73
330
1A
100
AcDbEntity
  8
SEIHIN
  6
CONTINUOUS
 62
     3
 48
5.0
100
AcDbEllipse
 10
254.7346601890819
 20
201.602134446098
 30
0.0
 11
7.041059903323231
 21
4.359463255304405
 31
0.0
210
0.0
220
0.0
230
1.0
 40
0.9548605538
 41
3.972399269672819
 42
4.177715880466369
  0
ELLIPSE
  5
2D74
330
1A
100
AcDbEntity
  8
SEIHIN
  6
CONTINUOUS
 62
     3
 48
5.0
100
AcDbEllipse
 10
254.698318351282
 20
201.535768195998
 30
0.0
 11
3.846192934061988
 21
7.023789053274371
 31
0.0
210
0.0
220
0.0
230
1.0
 40
0.9990107453
 41
2.640931188611277
 42
3.436937507774735
  0
ELLIPSE
  5
2D75
330
1A
100
AcDbEntity
  8
SEIHIN
  6
CONTINUOUS
 62
     3
 48
5.0
100
AcDbEllipse
 10
254.631223603082
 20
201.413242008098
 30
0.0
 11
2.40434701987941
 21
4.390738209969497
 31
0.0
210
0.0
220
0.0
230
1.0
 40
0.9988127852000001
 41
2.641347973447313
 42
3.641837333732302
  0
ELLIPSE
  5
2D77
330
1A
100
AcDbEntity
  8
SEIHIN
  6
CONTINUOUS
 62
     3
 48
5.0
100
AcDbEllipse
 10
245.9774658906819
 20
183.492280655298
 30
0.0
 11
3.345854450576454
 21
4.98984830779652
 31
0.0
210
0.0
220
0.0
230
1.0
 40
0.9987062907
 41
2.569256368754838
 42
3.713928938424929
  0
SPLINE
  5
2D7B
330
1A
100
AcDbEntity
  8
SEIHIN
  6
CONTINUOUS
 62
     3
 48
5.0
100
AcDbSpline
210
0.0
220
0.0
230
1.0
 70
     8
 71
     3
 72
     9
 73
     5
 74
     0
 42
0.0000000001
 43
0.0000000001
 40
0.0
 40
0.0
 40
0.0
 40
0.0
 40
0.3417694647463111
 40
1.0
 40
1.0
 40
1.0
 40
1.0
 10
257.4388195434448
 20
180.0022607579338
 30
0.0
 10
256.970621526668
 20
180.0270486485766
 30
0.0
 10
255.6006980400155
 20
180.0995767507032
 30
0.0
 10
254.230772173559
 20
180.1720117040523
 30
0.0
 10
253.3290451372236
 20
180.2196906021665
 30
0.0
  0
SPLINE
  5
2D7F
330
1A
100
AcDbEntity
  8
SEIHIN
  6
CONTINUOUS
 62
     3
 48
5.0
100
AcDbSpline
210
0.0
220
0.0
230
1.0
 70
     8
 71
     3
 72
    12
 73
     8
 74
     0
 42
0.0000000001
 43
0.0000000001
 40
0.0
 40
0.0
 40
0.0
 40
0.0
 40
0.2146732305294811
 40
0.4293462161815026
 40
0.6440273404553385
 40
0.8587233648593183
 40
1.0
 40
1.0
 40
1.0
 40
1.0
 10
261.3907436961212
 20
196.2969226859979
 30
0.0
 10
261.0310084131044
 20
196.2981571856986
 30
0.0
 10
260.3115382574208
 20
196.300626183692
 30
0.0
 10
259.352627015045
 20
196.3198797080619
 30
0.0
 10
258.6289321070519
 20
196.3482168896759
 30
0.0
 10
258.2453967859852
 20
196.3796205990945
 30
0.0
 10
258.2062715303857
 20
196.4003730867
 30
0.0
 10
258.1907436961212
 20
196.4086092293954
 30
0.0
  0
SPLINE
  5
2D82
330
1A
100
AcDbEntity
  8
SEIHIN
  6
CONTINUOUS
 62
     3
 48
5.0
100
AcDbSpline
210
0.0
220
0.0
230
1.0
 70
     8
 71
     3
 72
    12
 73
     8
 74
     0
 42
0.0000000001
 43
0.0000000001
 40
0.0
 40
0.0
 40
0.0
 40
0.0
 40
0.2150159439862006
 40
0.4300423538877188
 40
0.6448014531063479
 40
0.8592006771705124
 40
1.0
 40
1.0
 40
1.0
 40
1.0
 10
258.1907436961212
 20
177.2732199108456
 30
0.0
 10
258.2211649785264
 20
177.2835034436142
 30
0.0
 10
258.2820090240945
 20
177.304071009703
 30
0.0
 10
258.7568013899239
 20
177.3246107749319
 30
0.0
 10
259.4553603646073
 20
177.3341465826169
 30
0.0
 10
260.228391417667
 20
177.332138492874
 30
0.0
 10
260.7385276695113
 20
177.3243972142156
 30
0.0
 10
260.9407436961212
 20
177.3213286014567
 30
0.0
  0
SPLINE
  5
2D85
330
1A
100
AcDbEntity
  8
SEIHIN
  6
CONTINUOUS
 62
     3
 48
5.0
100
AcDbSpline
210
0.0
220
0.0
230
1.0
 70
    24
 71
     1
 72
     4
 73
     2
 74
     0
 42
0.0000000001
 43
0.0000000001
 40
0.0
 40
0.0
 40
1.0
 40
1.0
 10
258.1907436961212
 20
196.4085117987784
 30
0.0
 10
258.241738036951
 20
196.3928397550258
 30
0.0
  0
SPLINE
  5
2D86
330
1A
100
AcDbEntity
  8
SEIHIN
  6
CONTINUOUS
 62
     3
 48
5.0
100
AcDbSpline
210
0.0
220
0.0
230
1.0
 70
     8
 71
     3
 72
    11
 73
     7
 74
     0
 42
0.0000000001
 43
0.0000000001
 40
0.0
 40
0.0
 40
0.0
 40
0.0
 40
0.048315067073231
 40
0.2415753353661542
 40
0.620787667683077
 40
1.0
 40
1.0
 40
1.0
 40
1.0
 10
300.2501938735084
 20
179.2296706283861
 30
0.0
 10
299.5836299776027
 20
179.2413760571475
 30
0.0
 10
296.2508104980742
 20
179.299903200954
 30
0.0
 10
287.6863052338436
 20
179.4503032080069
 30
0.0
 10
274.5566780813315
 20
179.6808706788815
 30
0.0
 10
264.093306513194
 20
179.8646164775333
 30
0.0
 10
258.8616207291254
 20
179.9564893768592
 30
0.0
  0
ELLIPSE
  5
2D8E
330
1A
100
AcDbEntity
  8
SEIHIN
  6
CONTINUOUS
 62
     3
 48
5.0
100
AcDbEllipse
 10
258.879168547582
 20
193.643165625198
 30
0.0
 11
2.0
 21
0.0
 31
0.0
210
0.0
220
0.0
230
1.0
 40
0.0349207695
 41
1.570796326794897
 42
2.362290228365933
  0
SPLINE
  5
2D94
330
1A
100
AcDbEntity
  8
SEIHIN
  6
CONTINUOUS
 62
     3
 48
5.0
100
AcDbSpline
210
0.0
220
0.0
230
1.0
 70
     8
 71
     3
 72
    10
 73
     6
 74
     0
 42
0.0000000001
 43
0.0000000001
 40
0.0
 40
0.0
 40
0.0
 40
0.0
 40
0.4259027723782164
 40
0.8517935947455303
 40
1.0
 40
1.0
 40
1.0
 40
1.0
 10
258.8616207291254
 20
179.9564893768592
 30
0.0
 10
258.6370988951538
 20
179.9612110124724
 30
0.0
 10
258.1880615268605
 20
179.9706541512187
 30
0.0
 10
257.715210544689
 20
179.9883308649692
 30
0.0
 10
257.4955310355024
 20
179.9994025425409
 30
0.0
 10
257.4388195434447
 20
180.0022607579338
 30
0.0
  0
ELLIPSE
  5
2D96
330
1A
100
AcDbEntity
  8
SEIHIN
  6
CONTINUOUS
 62
     3
 48
5.0
100
AcDbEllipse
 10
229.513658332182
 20
196.4050108605979
 30
0.0
 11
2.201487864148558
 21
3.345953498683627
 31
0.0
210
0.0
220
0.0
230
0.9999999999999998
 40
0.9986915216999999
 41
5.702139403491172
 42
6.864231210868066
  0
ELLIPSE
  5
2D9A
330
1A
100
AcDbEntity
  8
SEIHIN
  6
CONTINUOUS
 62
     3
 48
5.0
100
AcDbEllipse
 10
245.8940220687821
 20
183.367836505298
 30
0.0
 11
1.671244221437689
 21
2.492414201944641
 31
0.0
210
0.0
220
0.0
230
1.0
 40
0.9997120243000001
 41
2.56876509372012
 42
3.714420213459549
  0
ELLIPSE
  5
2D9E
330
1A
100
AcDbEntity
  8
SEIHIN
  6
CONTINUOUS
 62
     3
 48
5.0
100
AcDbEllipse
 10
230.930620931982
 20
219.904096288598
 30
0.0
 11
2.404347019879423
 21
4.390738209969526
 31
0.0
210
0.0
220
0.0
230
1.0
 40
0.9988127852000001
 41
5.782940598488886
 42
6.783430015870339
  0
ELLIPSE
  5
2D9F
330
1A
100
AcDbEntity
  8
SEIHIN
  6
CONTINUOUS
 62
     3
 48
5.0
100
AcDbEllipse
 10
218.791437359682
 20
217.530282297298
 30
0.0
 11
0.0
 21
1.0
 31
0.0
210
0.0
220
0.0
230
1.0
 40
0.0349207695
 41
0.0349065850399107
 42
0.0935188406049142
  0
ELLIPSE
  5
2DA2
330
1A
100
AcDbEntity
  8
SEIHIN
  6
CONTINUOUS
 62
     3
 48
5.0
100
AcDbEllipse
 10
221.8377353229821
 20
214.528453664398
 30
0.0
 11
2.19956771015724
 21
3.34303513330542
 31
0.0
210
0.0
220
0.0
230
1.0
 40
0.9995633482
 41
5.701638672192853
 42
6.864731942166131
  0
ELLIPSE
  5
2DAB
330
1A
100
AcDbEntity
  8
SEIHIN
  6
CONTINUOUS
 62
     3
 48
5.0
100
AcDbEllipse
 10
215.915764701882
 20
226.910498292298
 30
0.0
 11
1.635616300518108
 21
1.160438696730438
 31
0.0
210
0.0
220
0.0
230
1.0
 40
0.9972788162999998
 41
2.18978610399961
 42
4.093399203179975
  0
ELLIPSE
  5
2DB0
330
1A
100
AcDbEntity
  8
SEIHIN
  6
CONTINUOUS
 62
     3
 48
5.0
100
AcDbEllipse
 10
343.686968264182
 20
196.907922270898
 30
0.0
 11
2.687104983084366
 21
1.341656470728934
 31
0.0
210
0.0
220
0.0
230
1.0
 40
0.9988588852999999
 41
2.679193832531792
 42
3.603991474647878
  0
ELLIPSE
  5
2DB1
330
1A
100
AcDbEntity
  8
SEIHIN
  6
CONTINUOUS
 62
     3
 48
5.0
100
AcDbEllipse
 10
333.173522288982
 20
196.881570100698
 30
0.0
 11
-4.875985283902878
 21
6.35450773962161
 31
0.0
210
0.0
220
0.0
230
1.0
 40
0.9987912490000001
 41
5.629154188771659
 42
6.937216425587551
  0
SPLINE
  5
2DBA
330
1A
100
AcDbEntity
  8
SEIHIN
  6
CONTINUOUS
 62
     3
 48
5.0
100
AcDbSpline
210
0.0
220
0.0
230
1.0
 70
     8
 71
     3
 72
     9
 73
     5
 74
     0
 42
0.0000000001
 43
0.0000000001
 40
0.0
 40
0.0
 40
0.0
 40
0.0
 40
0.2661309046092242
 40
1.0
 40
1.0
 40
1.0
 40
1.0
 10
218.7881763679564
 20
218.5259125966173
 30
0.0
 10
218.7776230849688
 20
218.5156410998841
 30
0.0
 10
218.7379686036405
 20
218.4770454443047
 30
0.0
 10
218.6983151272722
 20
218.4376097705765
 30
0.0
 10
218.6692146664408
 20
218.4086691483715
 30
0.0
  0
ELLIPSE
  5
2DBC
330
1A
100
AcDbEntity
  8
SEIHIN
  6
CONTINUOUS
 62
     3
 48
5.0
100
AcDbEllipse
 10
340.687999980282
 20
191.649217170698
 30
0.0
 11
2.687104983084338
 21
1.341656470728936
 31
0.0
210
0.0
220
0.0
230
1.0
 40
0.9988588852999999
 41
5.820786507765419
 42
6.745584106593835
  0
ELLIPSE
  5
2DC0
330
1A
100
AcDbEntity
  8
SEIHIN
  6
CONTINUOUS
 62
     3
 48
5.0
100
AcDbEllipse
 10
331.670581226782
 20
197.523577309998
 30
0.0
 11
-6.967579197197776
 21
9.781279720592692
 31
0.0
210
0.0
220
0.0
230
0.9999999999999998
 40
0.9992349315
 41
0.1790357108921305
 42
0.6185248578282249
  0
ELLIPSE
  5
2DC3
330
1A
100
AcDbEntity
  8
SEIHIN
  6
CONTINUOUS
 62
     3
 48
5.0
100
AcDbEllipse
 10
300.267741396782
 20
193.407450431098
 30
0.0
 11
8.749999999999971
 21
0.0
 31
0.0
210
0.0
220
0.0
230
1.0
 40
0.0349207695
 41
0.4115168460674446
 42
1.548127432760912
  0
ELLIPSE
  5
2DC6
330
1A
100
AcDbEntity
  8
SEIHIN
  6
CONTINUOUS
 62
     3
 48
5.0
100
AcDbEllipse
 10
300.396217113782
 20
178.489412036698
 30
0.0
 11
8.749911620247956
 21
1.135632633415071
 31
0.0
210
0.0
220
0.0
230
0.9999999999999998
 40
0.0346303159
 41
5.657024125898028
 42
5.867173895483977
  0
ELLIPSE
  5
2DC8
330
1A
100
AcDbEntity
  8
SEIHIN
  6
CONTINUOUS
 62
     3
 48
5.0
100
AcDbEllipse
 10
339.7843376349821
 20
198.102263087298
 30
0.0
 11
2.830151700539373
 21
2.830151700539103
 31
0.0
210
0.0
220
0.0
230
1.0
 40
0.9993906419000001
 41
5.498396131367813
 42
7.067974482991483
  0
ELLIPSE
  5
2DCC
330
1A
100
AcDbEntity
  8
SEIHIN
  6
CONTINUOUS
 62
     3
 48
5.0
100
AcDbEllipse
 10
340.687999980282
 20
175.013703003298
 30
0.0
 11
2.823732532806957
 21
1.022332180533708
 31
0.0
210
0.0
220
0.0
230
1.0
 40
0.9989666869000002
 41
5.936312309613001
 42
6.523500598937113
  0
ELLIPSE
  5
2DCD
330
1A
100
AcDbEntity
  8
SEIHIN
  6
CONTINUOUS
 62
     3
 48
5.0
100
AcDbEllipse
 10
337.681480832482
 20
199.005925432498
 30
0.0
 11
2.125198478113333
 21
2.125198478113333
 31
0.0
210
0.0
220
0.0
230
1.0
 40
0.9981751659
 41
5.499156844765541
 42
7.067213769593664
  0
ELLIPSE
  5
2DD4
330
1A
100
AcDbEntity
  8
SEIHIN
  6
CONTINUOUS
 62
     3
 48
5.0
100
AcDbEllipse
 10
312.220338763882
 20
201.062509174998
 30
0.0
 11
2.903601977147815
 21
-4.076156485910104
 31
0.0
210
0.0
220
0.0
230
1.0
 40
0.9990821425
 41
5.664660449351371
 42
6.901710165007844
  0
ELLIPSE
  5
2DD5
330
1A
100
AcDbEntity
  8
SEIHIN
  6
CONTINUOUS
 62
     3
 48
5.0
100
AcDbEllipse
 10
333.079504638282
 20
197.004096288598
 30
0.0
 11
-3.048228602858102
 21
3.97252885748928
 31
0.0
210
0.0
220
0.0
230
1.0
 40
0.9985494992999999
 41
5.629738087218521
 42
6.93663252714066
  0
ELLIPSE
  5
2DDB
330
1A
100
AcDbEntity
  8
SEIHIN
  6
CONTINUOUS
 62
     3
 48
5.0
100
AcDbEllipse
 10
326.2141429595819
 20
183.8562962437979
 30
0.0
 11
-2.763067085961779
 21
4.173991542888784
 31
0.0
210
0.0
220
0.0
230
0.9999999999999998
 40
0.9988670258999999
 41
2.686429572896427
 42
3.596755734283134
  0
ELLIPSE
  5
2DDF
330
1A
100
AcDbEntity
  8
SEIHIN
  6
CONTINUOUS
 62
     3
 48
5.0
100
AcDbEllipse
 10
325.988641814582
 20
186.009583720298
 30
0.0
 11
0.7953094705197258
 21
0.6102624205213229
 31
0.0
210
0.0
220
0.0
230
1.0
 40
0.9975404162999996
 41
2.227079130965076
 42
4.056106176214525
  0
ELLIPSE
  5
2DE0
330
1A
100
AcDbEntity
  8
SEIHIN
  6
CONTINUOUS
 62
     3
 48
5.0
100
AcDbEllipse
 10
331.817265004382
 20
184.5082118623979
 30
0.0
 11
0.435440325102377
 21
0.2494843725117733
 31
0.0
210
0.0
220
0.0
230
1.0
 40
0.9963189675
 41
5.235067159159196
 42
7.331303455200042
  0
ELLIPSE
  5
2DE2
330
1A
100
AcDbEntity
  8
SEIHIN
  6
CONTINUOUS
 62
     3
 48
5.0
100
AcDbEllipse
 10
318.248165850882
 20
183.706023991298
 30
0.0
 11
-1.976375322170411
 21
2.258150228741612
 31
0.0
210
0.0
220
0.0
230
1.0
 40
0.9997055818000003
 41
2.551957427474345
 42
3.731227879705059
  0
SPLINE
  5
2DEC
330
1A
100
AcDbEntity
  8
SEIHIN
  6
CONTINUOUS
 62
     3
 48
5.0
100
AcDbSpline
210
0.0
220
0.0
230
1.0
 70
     8
 71
     3
 72
    12
 73
     8
 74
     0
 42
0.0000000001
 43
0.0000000001
 40
0.0
 40
0.0
 40
0.0
 40
0.0
 40
0.2145182153602819
 40
0.4290261145768837
 40
0.6437978561158517
 40
0.8589301252939046
 40
1.0
 40
1.0
 40
1.0
 40
1.0
 10
300.4407356923111
 20
176.6313035531415
 30
0.0
 10
300.7497454282032
 20
176.6248433390897
 30
0.0
 10
301.3677500397629
 20
176.6119232216567
 30
0.0
 10
302.1912657690412
 20
176.5809834139375
 30
0.0
 10
302.813351538626
 20
176.5457449683134
 30
0.0
 10
303.1431811087351
 20
176.5129741528348
 30
0.0
 10
303.1772496814035
 20
176.4945239599146
 30
0.0
 10
303.1907421585271
 20
176.4872169673872
 30
0.0
  0
SPLINE
  5
2DED
330
1A
100
AcDbEntity
  8
SEIHIN
  6
CONTINUOUS
 62
     3
 48
5.0
100
AcDbSpline
210
0.0
220
0.0
230
1.0
 70
     8
 71
     3
 72
     9
 73
     5
 74
     0
 42
0.0000000001
 43
0.0000000001
 40
0.0
 40
0.0
 40
0.0
 40
0.0
 40
0.4266615478495292
 40
1.0
 40
1.0
 40
1.0
 40
1.0
 10
342.6842245513744
 20
180.2244347245282
 30
0.0
 10
342.7003840377165
 20
180.4763033756242
 30
0.0
 10
342.7382582882164
 20
181.0666276088846
 30
0.0
 10
343.0237082939461
 20
181.5878408065865
 30
0.0
 10
343.1873677583973
 20
181.8866723745972
 30
0.0
  0
SPLINE
  5
2DEE
330
1A
100
AcDbEntity
  8
SEIHIN
  6
CONTINUOUS
 62
     3
 48
5.0
100
AcDbSpline
210
0.0
220
0.0
230
1.0
 70
     8
 71
     3
 72
     9
 73
     5
 74
     0
 42
0.0000000001
 43
0.0000000001
 40
0.0
 40
0.0
 40
0.0
 40
0.0
 40
0.4265985307311274
 40
1.0
 40
1.0
 40
1.0
 40
1.0
 10
342.6842245782454
 20
178.340143745389
 30
0.0
 10
342.7004028014216
 20
178.0883463440845
 30
0.0
 10
342.7383265681733
 20
177.4981019265218
 30
0.0
 10
343.023767062041
 20
176.9769673389379
 30
0.0
 10
343.1874390606137
 20
176.6781480007304
 30
0.0
  0
SPLINE
  5
2DF4
330
1A
100
AcDbEntity
  8
SEIHIN
  6
CONTINUOUS
 62
     3
 48
5.0
100
AcDbSpline
210
0.0
220
0.0
230
1.0
 70
     8
 71
     3
 72
     9
 73
     5
 74
     0
 42
0.0000000001
 43
0.0000000001
 40
0.0
 40
0.0
 40
0.0
 40
0.0
 40
0.4265044359662321
 40
1.0
 40
1.0
 40
1.0
 40
1.0
 10
343.1875616917807
 20
181.8869633265548
 30
0.0
 10
343.3137326587445
 20
182.1053709548515
 30
0.0
 10
343.6095583438348
 20
182.6174585438165
 30
0.0
 10
343.6611538210056
 20
183.2093335021188
 30
0.0
 10
343.6907435982875
 20
183.5487711651678
 30
0.0
  0
SPLINE
  5
2DFC
330
1A
100
AcDbEntity
  8
SEIHIN
  6
CONTINUOUS
 62
     3
 48
5.0
100
AcDbSpline
210
0.0
220
0.0
230
1.0
 70
    24
 71
     1
 72
     4
 73
     2
 74
     0
 42
0.0000000001
 43
0.0000000001
 40
0.0
 40
0.0
 40
1.0
 40
1.0
 10
307.5088496283504
 20
179.2267750806006
 30
0.0
 10
307.5091705532177
 20
179.2320192122484
 30
0.0
  0
SPLINE
  5
2DFD
330
1A
100
AcDbEntity
  8
SEIHIN
  6
CONTINUOUS
 62
     3
 48
5.0
100
AcDbSpline
210
0.0
220
0.0
230
1.0
 70
     8
 71
     3
 72
    11
 73
     7
 74
     0
 42
0.0000000001
 43
0.0000000001
 40
0.0
 40
0.0
 40
0.0
 40
0.0
 40
0.3666635920237002
 40
0.7366735227054794
 40
0.9405996257732216
 40
1.0
 40
1.0
 40
1.0
 40
1.0
 10
307.5091705532177
 20
179.2320192122484
 30
0.0
 10
307.5085557508245
 20
179.2326907460308
 30
0.0
 10
307.5073205350721
 20
179.2340399423185
 30
0.0
 10
307.4931820774966
 20
179.235947335619
 30
0.0
 10
307.4730298117525
 20
179.2372212570882
 30
0.0
 10
307.4622990175462
 20
179.2376921455749
 30
0.0
 10
307.4598783981001
 20
179.2377983671468
 30
0.0
  0
SPLINE
  5
2DFE
330
1A
100
AcDbEntity
  8
SEIHIN
  6
CONTINUOUS
 62
     3
 48
5.0
100
AcDbSpline
210
0.0
220
0.0
230
1.0
 70
     8
 71
     3
 72
    13
 73
     9
 74
     0
 42
0.0000000001
 43
0.0000000001
 40
0.0
 40
0.0
 40
0.0
 40
0.0
 40
0.1507224892035814
 40
0.3047771069875197
 40
0.4763832138358437
 40
0.6529690770005878
 40
0.8240202430900849
 40
1.0
 40
1.0
 40
1.0
 40
1.0
 10
307.4598783981
 20
179.2377983671468
 30
0.0
 10
307.2039006015928
 20
179.2301867975384
 30
0.0
 10
306.6862859265384
 20
179.2147953839734
 30
0.0
 10
305.6881999201503
 20
179.1999433096436
 30
0.0
 10
304.5081558108051
 20
179.192410202724
 30
0.0
 10
303.1640320043558
 20
179.1947755178586
 30
0.0
 10
301.7275295862027
 20
179.2063046934061
 30
0.0
 10
300.7472796684664
 20
179.2218085871015
 30
0.0
 10
300.2501938735084
 20
179.2296706283861
 30
0.0
  0
LINE
  5
2E0A
330
1A
100
AcDbEntity
  8
SEIHIN
  6
CONTINUOUS
 62
     3
 48
5.0
100
AcDbLine
 10
225.511309133582
 20
216.114208504098
 30
0.0
 11
233.268451990682
 21
198.114208504098
 31
0.0
  0
LINE
  5
2E0B
330
1A
100
AcDbEntity
  8
SEIHIN
  6
CONTINUOUS
 62
     3
 48
5.0
100
AcDbLine
 10
243.139030182382
 20
182.178852885998
 30
0.0
 11
228.675841962182
 21
215.739842126298
 31
0.0
  0
ARC
  5
2E0E
330
1A
100
AcDbEntity
  8
SEIHIN
  6
CONTINUOUS
 62
     3
 48
5.0
100
AcDbCircle
 10
230.513278354882
 20
216.529672752998
 30
0.0
 40
2.00000122905263
100
AcDbArc
 50
90.05306388049993
 51
203.2606773413976
  0
LINE
  5
2E0F
330
1A
100
AcDbEntity
  8
SEIHIN
  6
CONTINUOUS
 62
     3
 48
5.0
100
AcDbLine
 10
230.934792908782
 20
224.908669148398
 30
0.0
 11
215.911469322782
 21
224.908669148398
 31
0.0
  0
ARC
  5
2E15
330
1A
100
AcDbEntity
  8
SEIHIN
  6
CONTINUOUS
 62
     3
 48
5.0
100
AcDbCircle
 10
214.594422225082
 20
225.418800545598
 30
0.0
 40
7.01013139727344
100
AcDbArc
 50
180.0
 51
270.0
  0
LINE
  5
2E17
330
1A
100
AcDbEntity
  8
SEIHIN
  6
CONTINUOUS
 62
     3
 48
5.0
100
AcDbLine
 10
221.717120558882
 20
211.818250326898
 30
0.0
 11
217.536384935382
 21
206.899165954898
 31
0.0
  0
LINE
  5
2E1A
330
1A
100
AcDbEntity
  8
SEIHIN
  6
CONTINUOUS
 62
     3
 48
5.0
100
AcDbLine
 10
219.695813641282
 20
200.408669148398
 30
0.0
 11
229.517668556382
 21
200.408669148398
 31
0.0
  0
ARC
  5
2E1C
330
1A
100
AcDbEntity
  8
SEIHIN
  6
CONTINUOUS
 62
     3
 48
5.0
100
AcDbCircle
 10
220.584290827782
 20
204.308747133398
 30
0.0
 40
3.999999999999998
100
AcDbArc
 50
139.6387505757015
 51
257.166459957799
  0
LINE
  5
2E1E
330
1A
100
AcDbEntity
  8
SEIHIN
  6
CONTINUOUS
 62
     3
 48
5.0
100
AcDbLine
 10
229.5196722728819
 20
200.408668847198
 30
0.0
 11
229.517668556382
 21
200.408669148398
 31
0.0
  0
ARC
  5
2E21
330
1A
100
AcDbEntity
  8
SEIHIN
  6
CONTINUOUS
 62
     3
 48
5.0
100
AcDbCircle
 10
218.669214666482
 20
214.408669148398
 30
0.0
 40
3.999999999999976
100
AcDbArc
 50
319.6387505757015
 51
90.0
  0
LINE
  5
2E25
330
1A
100
AcDbEntity
  8
SEIHIN
  6
CONTINUOUS
 62
     3
 48
5.0
100
AcDbLine
 10
214.594422225082
 20
218.408669148398
 30
0.0
 11
218.669214666482
 21
218.408669148398
 31
0.0
  0
LINE
  5
2E27
330
1A
100
AcDbEntity
  8
SEIHIN
  6
CONTINUOUS
 62
     3
 48
5.0
100
AcDbLine
 10
218.7902186423821
 20
218.529673124298
 30
0.0
 11
221.840140907482
 21
218.529673124298
 31
0.0
  0
LINE
  5
2E28
330
1A
100
AcDbEntity
  8
SEIHIN
  6
CONTINUOUS
 62
     3
 48
5.0
100
AcDbLine
 10
218.669214666482
 20
218.408669148398
 30
0.0
 11
218.7902186423821
 21
218.529673124298
 31
0.0
  0
LINE
  5
2E2F
330
1A
100
AcDbEntity
  8
SEIHIN
  6
CONTINUOUS
 62
     3
 48
5.0
100
AcDbLine
 10
214.0249025560819
 20
227.567749170698
 30
0.0
 11
215.311555046282
 21
231.243899142798
 31
0.0
  0
LINE
  5
2E30
330
1A
100
AcDbEntity
  8
SEIHIN
  6
CONTINUOUS
 62
     3
 48
5.0
100
AcDbLine
 10
214.839913354582
 20
231.908669148398
 30
0.0
 11
212.370964496982
 21
231.908669148398
 31
0.0
  0
ARC
  5
2E33
330
1A
100
AcDbEntity
  8
SEIHIN
  6
CONTINUOUS
 62
     3
 48
5.0
100
AcDbCircle
 10
214.594422225082
 20
225.418800545598
 30
0.0
 40
7.010131397273519
100
AcDbArc
 50
116.3391980454971
 51
180.0
  0
LINE
  5
2E36
330
1A
100
AcDbEntity
  8
SEIHIN
  6
CONTINUOUS
 62
     3
 48
5.0
100
AcDbLine
 10
214.0249025560819
 20
227.567749170698
 30
0.0
 11
214.024194576982
 21
227.565724288498
 31
0.0
  0
LINE
  5
2E38
330
1A
100
AcDbEntity
  8
SEIHIN
  6
CONTINUOUS
 62
     3
 48
5.0
100
AcDbLine
 10
211.484582770482
 20
231.701382878898
 30
0.0
 11
211.4841362485819
 21
231.701161833498
 31
0.0
  0
LINE
  5
2E39
330
1A
100
AcDbEntity
  8
SEIHIN
  6
CONTINUOUS
 62
     3
 48
5.0
100
AcDbLine
 10
212.370964496982
 20
231.908669148398
 30
0.0
 11
212.370608263282
 21
231.908669148398
 31
0.0
  0
LINE
  5
2E3A
330
1A
100
AcDbEntity
  8
SEIHIN
  6
CONTINUOUS
 62
     3
 48
5.0
100
AcDbLine
 10
215.9093242394819
 20
224.9086698370979
 30
0.0
 11
215.911469322782
 21
224.908669148398
 31
0.0
  0
LINE
  5
2E3C
330
1A
100
AcDbEntity
  8
SEIHIN
  6
CONTINUOUS
 62
     3
 48
5.0
100
AcDbLine
 10
214.840449868082
 20
231.908669148398
 30
0.0
 11
214.839913354582
 21
231.908669148398
 31
0.0
  0
LINE
  5
2E3D
330
1A
100
AcDbEntity
  8
SEIHIN
  6
CONTINUOUS
 62
     3
 48
5.0
100
AcDbLine
 10
215.311555046282
 20
231.243899142798
 30
0.0
 11
215.3117322836819
 21
231.244405535498
 31
0.0
  0
LINE
  5
2E3F
330
1A
100
AcDbEntity
  8
SEIHIN
  6
CONTINUOUS
 62
     3
 48
5.0
100
AcDbLine
 10
260.9407436960821
 20
177.321328601498
 30
0.0
 11
300.440735692282
 21
176.631303553098
 31
0.0
  0
LINE
  5
2E44
330
1A
100
AcDbEntity
  8
SEIHIN
  6
CONTINUOUS
 62
     3
 48
5.0
100
AcDbLine
 10
291.001212983682
 20
204.386048109298
 30
0.0
 11
296.973810751982
 21
217.888586521898
 31
0.0
  0
LINE
  5
2E45
330
1A
100
AcDbEntity
  8
SEIHIN
  6
CONTINUOUS
 62
     3
 48
5.0
100
AcDbLine
 10
273.684224548282
 20
191.408669148398
 30
0.0
 11
296.039956276982
 21
191.408669148398
 31
0.0
  0
LINE
  5
2E47
330
1A
100
AcDbEntity
  8
SEIHIN
  6
CONTINUOUS
 62
     3
 48
5.0
100
AcDbLine
 10
240.464653227782
 20
181.110094544498
 30
0.0
 11
233.188836782482
 21
197.993204528198
 31
0.0
  0
LINE
  5
2E4A
330
1A
100
AcDbEntity
  8
SEIHIN
  6
CONTINUOUS
 62
     3
 48
5.0
100
AcDbLine
 10
269.684224548282
 20
199.408669148398
 30
0.0
 11
269.684224548282
 21
195.408669148398
 31
0.0
  0
LINE
  5
2E4B
330
1A
100
AcDbEntity
  8
SEIHIN
  6
CONTINUOUS
 62
     3
 48
5.0
100
AcDbLine
 10
258.879168547582
 20
193.713007164098
 30
0.0
 11
271.379886532482
 21
193.713007164098
 31
0.0
  0
LINE
  5
2E52
330
1A
100
AcDbEntity
  8
SEIHIN
  6
CONTINUOUS
 62
     3
 48
5.0
100
AcDbLine
 10
240.465820176782
 20
181.107386706998
 30
0.0
 11
240.464653227782
 21
181.110094544498
 31
0.0
  0
LINE
  5
2E57
330
1A
100
AcDbEntity
  8
SEIHIN
  6
CONTINUOUS
 62
     3
 48
5.0
100
AcDbLine
 10
252.857209010382
 20
181.244769694698
 30
0.0
 11
252.857209010382
 21
192.719429165498
 31
0.0
  0
LINE
  5
2E58
330
1A
100
AcDbEntity
  8
SEIHIN
  6
CONTINUOUS
 62
     3
 48
5.0
100
AcDbLine
 10
258.879168547582
 20
192.713616337098
 30
0.0
 11
258.879168547582
 21
180.955724141998
 31
0.0
  0
LINE
  5
2E5C
330
1A
100
AcDbEntity
  8
SEIHIN
  6
CONTINUOUS
 62
     3
 48
5.0
100
AcDbLine
 10
258.1907436960821
 20
177.272694862298
 30
0.0
 11
245.8667549173819
 21
177.487810886598
 31
0.0
  0
LINE
  5
2E5F
330
1A
100
AcDbEntity
  8
SEIHIN
  6
CONTINUOUS
 62
     3
 48
5.0
100
AcDbLine
 10
252.857209010382
 20
181.244769694698
 30
0.0
 11
252.8397672354819
 21
180.245531079798
 31
0.0
  0
LINE
  5
2E60
330
1A
100
AcDbEntity
  8
SEIHIN
  6
CONTINUOUS
 62
     3
 48
5.0
100
AcDbLine
 10
252.8397672354819
 20
180.245531079798
 30
0.0
 11
245.840081027182
 21
180.367711056998
 31
0.0
  0
LINE
  5
2E61
330
1A
100
AcDbEntity
  8
SEIHIN
  6
CONTINUOUS
 62
     3
 48
5.0
100
AcDbLine
 10
253.329057899582
 20
180.219691849598
 30
0.0
 11
252.8397672354819
 21
180.245531079798
 31
0.0
  0
LINE
  5
2E63
330
1A
100
AcDbEntity
  8
SEIHIN
  6
CONTINUOUS
 62
     3
 48
5.0
100
AcDbLine
 10
245.8667549173819
 20
177.487810886598
 30
0.0
 11
245.8638067813819
 21
177.487862346498
 31
0.0
  0
LINE
  5
2E66
330
1A
100
AcDbEntity
  8
SEIHIN
  6
CONTINUOUS
 62
     3
 48
5.0
100
AcDbLine
 10
258.1907436960821
 20
177.2732199107979
 30
0.0
 11
258.1907436960821
 21
177.272694862298
 31
0.0
  0
LINE
  5
2E68
330
1A
100
AcDbEntity
  8
SEIHIN
  6
CONTINUOUS
 62
     3
 48
5.0
100
AcDbLine
 10
258.879168547582
 20
180.955724141998
 30
0.0
 11
258.861620729082
 21
179.9564893768979
 31
0.0
  0
LINE
  5
2E6C
330
1A
100
AcDbEntity
  8
SEIHIN
  6
CONTINUOUS
 62
     3
 48
5.0
100
AcDbLine
 10
253.061048921382
 20
193.697693318698
 30
0.0
 11
252.857209010382
 21
192.719429165498
 31
0.0
  0
LINE
  5
2E6D
330
1A
100
AcDbEntity
  8
SEIHIN
  6
CONTINUOUS
 62
     3
 48
5.0
100
AcDbLine
 10
258.1907436960821
 20
196.408609229398
 30
0.0
 11
258.1907436960821
 21
196.408669148398
 31
0.0
  0
LINE
  5
2E6E
330
1A
100
AcDbEntity
  8
SEIHIN
  6
CONTINUOUS
 62
     3
 48
5.0
100
AcDbLine
 10
254.6249671317821
 20
196.408669409198
 30
0.0
 11
254.627051626282
 21
196.408669148398
 31
0.0
  0
LINE
  5
2E70
330
1A
100
AcDbEntity
  8
SEIHIN
  6
CONTINUOUS
 62
     3
 48
5.0
100
AcDbLine
 10
258.879168547582
 20
193.713007164098
 30
0.0
 11
258.879168547582
 21
192.713616337098
 31
0.0
  0
LINE
  5
2E74
330
1A
100
AcDbEntity
  8
SEIHIN
  6
CONTINUOUS
 62
     3
 48
5.0
100
AcDbLine
 10
258.1907436960821
 20
196.408669148398
 30
0.0
 11
254.627051626282
 21
196.408669148398
 31
0.0
  0
LINE
  5
2E75
330
1A
100
AcDbEntity
  8
SEIHIN
  6
CONTINUOUS
 62
     3
 48
5.0
100
AcDbLine
 10
254.728535357382
 20
193.595822866998
 30
0.0
 11
257.4563606376821
 21
193.692249094698
 31
0.0
  0
LINE
  5
2E77
330
1A
100
AcDbEntity
  8
SEIHIN
  6
CONTINUOUS
 62
     3
 48
5.0
100
AcDbLine
 10
261.390743696082
 20
196.296922685998
 30
0.0
 11
269.684224548282
 21
196.296922685998
 31
0.0
  0
LINE
  5
2E78
330
1A
100
AcDbEntity
  8
SEIHIN
  6
CONTINUOUS
 62
     3
 48
5.0
100
AcDbLine
 10
269.684224548282
 20
195.408669148398
 30
0.0
 11
273.684224548282
 21
191.408669148398
 31
0.0
  0
LINE
  5
2E79
330
1A
100
AcDbEntity
  8
SEIHIN
  6
CONTINUOUS
 62
     3
 48
5.0
100
AcDbLine
 10
250.416895226282
 20
198.714130441998
 30
0.0
 11
235.144949308882
 21
222.603207854698
 31
0.0
  0
LINE
  5
2E7C
330
1A
100
AcDbEntity
  8
SEIHIN
  6
CONTINUOUS
 62
     3
 48
5.0
100
AcDbLine
 10
234.9216159205821
 20
217.607488606898
 30
0.0
 11
247.956061837982
 21
197.218411194198
 31
0.0
  0
LINE
  5
2E7D
330
1A
100
AcDbEntity
  8
SEIHIN
  6
CONTINUOUS
 62
     3
 48
5.0
100
AcDbLine
 10
233.188836782482
 20
197.993204528198
 30
0.0
 11
233.188043503482
 21
197.995044525098
 31
0.0
  0
LINE
  5
2E7E
330
1A
100
AcDbEntity
  8
SEIHIN
  6
CONTINUOUS
 62
     3
 48
5.0
100
AcDbLine
 10
233.268451990682
 20
198.114208504098
 30
0.0
 11
233.188836782482
 21
197.993204528198
 31
0.0
  0
LINE
  5
2E84
330
1A
100
AcDbEntity
  8
SEIHIN
  6
CONTINUOUS
 62
     3
 48
5.0
100
AcDbLine
 10
230.511426075182
 20
218.529673124298
 30
0.0
 11
233.237553360582
 21
218.529673124298
 31
0.0
  0
ARC
  5
2E86
330
1A
100
AcDbEntity
  8
SEIHIN
  6
CONTINUOUS
 62
     3
 48
5.0
100
AcDbCircle
 10
233.236885996882
 20
216.529672752998
 30
0.0
 40
2.000000482661482
100
AcDbArc
 50
32.60931875810114
 51
89.98088144280213
  0
LINE
  5
2E89
330
1A
100
AcDbEntity
  8
SEIHIN
  6
CONTINUOUS
 62
     3
 48
5.0
100
AcDbLine
 10
250.416895226282
 20
198.714130441998
 30
0.0
 11
250.4180182103821
 21
198.712374302998
 31
0.0
  0
LINE
  5
2E8D
330
1A
100
AcDbEntity
  8
SEIHIN
  6
CONTINUOUS
 62
     3
 48
5.0
100
AcDbLine
 10
235.144949308882
 20
222.603207854698
 30
0.0
 11
235.143826672382
 21
222.604963934098
 31
0.0
  0
LINE
  5
2E8F
330
1A
100
AcDbEntity
  8
SEIHIN
  6
CONTINUOUS
 62
     3
 48
5.0
100
AcDbLine
 10
230.936877165882
 20
224.908669148398
 30
0.0
 11
230.934792908782
 21
224.908669148398
 31
0.0
  0
LINE
  5
2E91
330
1A
100
AcDbEntity
  8
SEIHIN
  6
CONTINUOUS
 62
     3
 48
5.0
100
AcDbLine
 10
269.684224548282
 20
201.408669148398
 30
0.0
 11
286.428576530582
 21
201.408669148398
 31
0.0
  0
LINE
  5
2E92
330
1A
100
AcDbEntity
  8
SEIHIN
  6
CONTINUOUS
 62
     3
 48
5.0
100
AcDbLine
 10
269.684224548282
 20
199.408669148398
 30
0.0
 11
269.684224548282
 21
201.408669148398
 31
0.0
  0
ARC
  5
2E96
330
1A
100
AcDbEntity
  8
SEIHIN
  6
CONTINUOUS
 62
     3
 48
5.0
100
AcDbCircle
 10
286.428576530582
 20
206.408669148398
 30
0.0
 40
5.0
100
AcDbArc
 50
270.0
 51
336.1386850066021
  0
LINE
  5
2E98
330
1A
100
AcDbEntity
  8
SEIHIN
  6
CONTINUOUS
 62
     3
 48
5.0
100
AcDbLine
 10
343.7855570949821
 20
198.1059192390979
 30
0.0
 11
343.7855570949821
 21
191.698839361798
 31
0.0
  0
ARC
  5
2E9C
330
1A
100
AcDbEntity
  8
SEIHIN
  6
CONTINUOUS
 62
     3
 48
5.0
100
AcDbCircle
 10
321.347482369382
 20
198.287665543798
 30
0.0
 40
2.000001103085768
100
AcDbArc
 50
160.9764583750014
 51
269.9509872372018
  0
LINE
  5
2E9D
330
1A
100
AcDbEntity
  8
SEIHIN
  6
CONTINUOUS
 62
     3
 48
5.0
100
AcDbLine
 10
325.021318621082
 20
186.266721354898
 30
0.0
 11
328.246971533382
 21
198.305021910898
 31
0.0
  0
LINE
  5
2E9F
330
1A
100
AcDbEntity
  8
SEIHIN
  6
CONTINUOUS
 62
     3
 48
5.0
100
AcDbLine
 10
299.4759555463819
 20
192.7763270635979
 30
0.0
 11
309.021287790582
 21
201.805695402698
 31
0.0
  0
LINE
  5
2EA0
330
1A
100
AcDbEntity
  8
SEIHIN
  6
CONTINUOUS
 62
     3
 48
5.0
100
AcDbLine
 10
349.411377540182
 20
204.134176376298
 30
0.0
 11
349.411377540182
 21
174.688035304298
 31
0.0
  0
LINE
  5
2EA3
330
1A
100
AcDbEntity
  8
SEIHIN
  6
CONTINUOUS
 62
     3
 48
5.0
100
AcDbLine
 10
340.6842245482819
 20
199.010496667298
 30
0.0
 11
340.6842245482819
 21
196.905639878998
 31
0.0
  0
ARC
  5
2EA4
330
1A
100
AcDbEntity
  8
SEIHIN
  6
CONTINUOUS
 62
     3
 48
5.0
100
AcDbCircle
 10
323.1912121563821
 20
198.287665543798
 30
0.0
 40
2.000000589946431
100
AcDbArc
 50
270.026790200701
 51
344.9732097989997
  0
ARC
  5
2EA7
330
1A
100
AcDbEntity
  8
SEIHIN
  6
CONTINUOUS
 62
     3
 48
5.0
100
AcDbCircle
 10
321.380413445582
 20
191.529672752998
 30
0.0
 40
2.000001001962767
100
AcDbArc
 50
345.045500373
 51
89.95449962660293
  0
LINE
  5
2EA9
330
1A
100
AcDbEntity
  8
SEIHIN
  6
CONTINUOUS
 62
     3
 48
5.0
100
AcDbLine
 10
307.6907436960821
 20
176.408669148398
 30
0.0
 11
326.861205215782
 21
178.893728974998
 31
0.0
  0
LINE
  5
2EAB
330
1A
100
AcDbEntity
  8
SEIHIN
  6
CONTINUOUS
 62
     3
 48
5.0
100
AcDbLine
 10
312.224679458282
 20
196.059461453498
 30
0.0
 11
302.946697615682
 21
196.059461453498
 31
0.0
  0
LINE
  5
2EB1
330
1A
100
AcDbEntity
  8
SEIHIN
  6
CONTINUOUS
 62
     3
 48
5.0
100
AcDbLine
 10
300.267741396782
 20
180.228888888598
 30
0.0
 11
300.267741396782
 21
192.713616337098
 31
0.0
  0
LINE
  5
2EB3
330
1A
100
AcDbEntity
  8
SEIHIN
  6
CONTINUOUS
 62
     3
 48
5.0
100
AcDbLine
 10
300.267741396782
 20
180.228888888598
 30
0.0
 11
300.2501938734819
 21
179.229670628398
 31
0.0
  0
LINE
  5
2EB4
330
1A
100
AcDbEntity
  8
SEIHIN
  6
CONTINUOUS
 62
     3
 48
5.0
100
AcDbLine
 10
307.6907436960821
 20
176.408669148398
 30
0.0
 11
303.190742158482
 21
176.487216967398
 31
0.0
  0
ARC
  5
2EB8
330
1A
100
AcDbEntity
  8
SEIHIN
  6
CONTINUOUS
 62
     3
 48
5.0
100
AcDbCircle
 10
296.039956276982
 20
196.408669148398
 30
0.0
 40
5.000000000016143
100
AcDbArc
 50
270.0
 51
313.4088597287989
  0
LINE
  5
2EB9
330
1A
100
AcDbEntity
  8
SEIHIN
  6
CONTINUOUS
 62
     3
 48
5.0
100
AcDbLine
 10
300.267741396782
 20
193.525313678898
 30
0.0
 11
300.267741396782
 21
192.713616337098
 31
0.0
  0
LINE
  5
2EBB
330
1A
100
AcDbEntity
  8
SEIHIN
  6
CONTINUOUS
 62
     3
 48
5.0
100
AcDbLine
 10
323.312676529582
 20
191.013568711198
 30
0.0
 11
321.146110031482
 21
182.927832462198
 31
0.0
  0
LINE
  5
2EBE
330
1A
100
AcDbEntity
  8
SEIHIN
  6
CONTINUOUS
 62
     3
 48
5.0
100
AcDbLine
 10
318.6355249513819
 20
180.730521435998
 30
0.0
 11
312.652620723982
 21
179.954959776798
 31
0.0
  0
LINE
  5
2EC2
330
1A
100
AcDbEntity
  8
SEIHIN
  6
CONTINUOUS
 62
     3
 48
5.0
100
AcDbLine
 10
312.652620723982
 20
179.954959776798
 30
0.0
 11
308.4157245799819
 21
179.405732498898
 31
0.0
  0
LINE
  5
2EC8
330
1A
100
AcDbEntity
  8
SEIHIN
  6
CONTINUOUS
 62
     3
 48
5.0
100
AcDbLine
 10
312.652620723982
 20
193.529673124298
 30
0.0
 11
321.382001708882
 21
193.529673124298
 31
0.0
  0
LINE
  5
2ECD
330
1A
100
AcDbEntity
  8
SEIHIN
  6
CONTINUOUS
 62
     3
 48
5.0
100
AcDbLine
 10
308.2872488629821
 20
193.529673124298
 30
0.0
 11
312.652620723982
 21
193.529673124298
 31
0.0
  0
LINE
  5
2ED3
330
1A
100
AcDbEntity
  8
SEIHIN
  6
CONTINUOUS
 62
     3
 48
5.0
100
AcDbLine
 10
321.4834102062821
 20
196.287665172398
 30
0.0
 11
321.3457715004819
 21
196.287665172398
 31
0.0
  0
LINE
  5
2ED4
330
1A
100
AcDbEntity
  8
SEIHIN
  6
CONTINUOUS
 62
     3
 48
5.0
100
AcDbLine
 10
323.192147311082
 20
196.287665172398
 30
0.0
 11
321.4834102062821
 21
196.287665172398
 31
0.0
  0
LINE
  5
2ED6
330
1A
100
AcDbEntity
  8
SEIHIN
  6
CONTINUOUS
 62
     3
 48
5.0
100
AcDbLine
 10
343.6907436960821
 20
175.015358018598
 30
0.0
 11
343.6907436960821
 21
174.408669148398
 31
0.0
  0
LINE
  5
2ED7
330
1A
100
AcDbEntity
  8
SEIHIN
  6
CONTINUOUS
 62
     3
 48
5.0
100
AcDbLine
 10
344.039951391082
 20
174.757876843298
 30
0.0
 11
349.341536001182
 21
174.757876843298
 31
0.0
  0
LINE
  5
2EDE
330
1A
100
AcDbEntity
  8
SEIHIN
  6
CONTINUOUS
 62
     3
 48
5.0
100
AcDbLine
 10
330.5296888197819
 20
181.3221637711979
 30
0.0
 11
332.249680965882
 21
184.256268020298
 31
0.0
  0
LINE
  5
2EDF
330
1A
100
AcDbEntity
  8
SEIHIN
  6
CONTINUOUS
 62
     3
 48
5.0
100
AcDbLine
 10
331.818594746982
 20
185.008669148398
 30
0.0
 11
325.9866560314819
 21
185.008669148398
 31
0.0
  0
LINE
  5
2EE1
330
1A
100
AcDbEntity
  8
SEIHIN
  6
CONTINUOUS
 62
     3
 48
5.0
100
AcDbLine
 10
326.861205215782
 20
178.893728974998
 30
0.0
 11
326.863055932082
 21
178.893968882698
 31
0.0
  0
LINE
  5
2EE3
330
1A
100
AcDbEntity
  8
SEIHIN
  6
CONTINUOUS
 62
     3
 48
5.0
100
AcDbLine
 10
330.528745045582
 20
181.320553803298
 30
0.0
 11
330.5296888197819
 21
181.3221637711979
 31
0.0
  0
LINE
  5
2EE5
330
1A
100
AcDbEntity
  8
SEIHIN
  6
CONTINUOUS
 62
     3
 48
5.0
100
AcDbLine
 10
325.985663641282
 20
185.008669443298
 30
0.0
 11
325.9866560314819
 21
185.008669148398
 31
0.0
  0
LINE
  5
2EE8
330
1A
100
AcDbEntity
  8
SEIHIN
  6
CONTINUOUS
 62
     3
 48
5.0
100
AcDbLine
 10
331.819259111982
 20
185.008669148398
 30
0.0
 11
331.818594746982
 21
185.008669148398
 31
0.0
  0
LINE
  5
2EEB
330
1A
100
AcDbEntity
  8
SEIHIN
  6
CONTINUOUS
 62
     3
 48
5.0
100
AcDbLine
 10
332.249680965882
 20
184.256268020298
 30
0.0
 11
332.250016948182
 21
184.256841166598
 31
0.0
  0
LINE
  5
2EEC
330
1A
100
AcDbEntity
  8
SEIHIN
  6
CONTINUOUS
 62
     3
 48
5.0
100
AcDbLine
 10
325.021318621082
 20
186.266721354898
 30
0.0
 11
325.021062056482
 21
186.265762703198
 31
0.0
  0
LINE
  5
2EED
330
1A
100
AcDbEntity
  8
SEIHIN
  6
CONTINUOUS
 62
     3
 48
5.0
100
AcDbLine
 10
343.6907436960821
 20
191.651499562698
 30
0.0
 11
343.6907436960821
 21
183.549760126098
 31
0.0
  0
LINE
  5
2EF0
330
1A
100
AcDbEntity
  8
SEIHIN
  6
CONTINUOUS
 62
     3
 48
5.0
100
AcDbLine
 10
343.6907435982821
 20
183.548771067998
 30
0.0
 11
343.6907436960821
 21
183.549760126098
 31
0.0
  0
LINE
  5
2EF1
330
1A
100
AcDbEntity
  8
SEIHIN
  6
CONTINUOUS
 62
     3
 48
5.0
100
AcDbLine
 10
343.6907436960821
 20
183.549760126098
 30
0.0
 11
343.7855570949821
 21
183.493165625198
 31
0.0
  0
LINE
  5
2EF4
330
1A
100
AcDbEntity
  8
SEIHIN
  6
CONTINUOUS
 62
     3
 48
5.0
100
AcDbLine
 10
343.7855570949821
 20
175.049685203498
 30
0.0
 11
343.6907436960821
 21
175.015358018598
 31
0.0
  0
LINE
  5
2EF5
330
1A
100
AcDbEntity
  8
SEIHIN
  6
CONTINUOUS
 62
     3
 48
5.0
100
AcDbLine
 10
342.6842245482819
 20
180.224259130198
 30
0.0
 11
342.6842245482819
 21
178.340690890498
 31
0.0
  0
LINE
  5
2EF7
330
1A
100
AcDbEntity
  8
SEIHIN
  6
CONTINUOUS
 62
     3
 48
5.0
100
AcDbLine
 10
342.6842245482819
 20
178.340690890498
 30
0.0
 11
342.6842245482819
 21
178.340143734498
 31
0.0
  0
LINE
  5
2EF9
330
1A
100
AcDbEntity
  8
SEIHIN
  6
CONTINUOUS
 62
     3
 48
5.0
100
AcDbLine
 10
343.7855570949821
 20
183.493165625198
 30
0.0
 11
343.7855570949821
 21
175.049685203498
 31
0.0
  0
LINE
  5
2EFC
330
1A
100
AcDbEntity
  8
SEIHIN
  6
CONTINUOUS
 62
     3
 48
5.0
100
AcDbLine
 10
343.6907436960821
 20
175.015358018598
 30
0.0
 11
343.6907436276819
 21
175.016184912398
 31
0.0
  0
LINE
  5
2EFF
330
1A
100
AcDbEntity
  8
SEIHIN
  6
CONTINUOUS
 62
     3
 48
5.0
100
AcDbLine
 10
341.880786071382
 20
194.509134885798
 30
0.0
 11
342.4941821730819
 21
194.048004555798
 31
0.0
  0
LINE
  5
2F00
330
1A
100
AcDbEntity
  8
SEIHIN
  6
CONTINUOUS
 62
     3
 48
5.0
100
AcDbLine
 10
343.6907436960821
 20
191.651499562698
 30
0.0
 11
343.690743565982
 21
191.6526399325979
 31
0.0
  0
LINE
  5
2F02
330
1A
100
AcDbEntity
  8
SEIHIN
  6
CONTINUOUS
 62
     3
 48
5.0
100
AcDbLine
 10
343.7855570949821
 20
191.698839361798
 30
0.0
 11
343.6907436960821
 21
191.651499562698
 31
0.0
  0
LINE
  5
2F06
330
1A
100
AcDbEntity
  8
SEIHIN
  6
CONTINUOUS
 62
     3
 48
5.0
100
AcDbLine
 10
341.8798746349821
 20
194.509820072698
 30
0.0
 11
341.880786071382
 21
194.509134885798
 31
0.0
  0
ARC
  5
2F07
330
1A
100
AcDbEntity
  8
SEIHIN
  6
CONTINUOUS
 62
     3
 48
5.0
100
AcDbCircle
 10
306.119083658082
 20
213.843344443698
 30
0.0
 40
9.999999999999937
100
AcDbArc
 50
97.85250939119855
 51
156.138685006602
  0
ARC
  5
2F1F
330
1A
100
AcDbEntity
  8
SEIHIN
  6
CONTINUOUS
 62
     3
 48
5.0
100
AcDbCircle
 10
319.329285598682
 20
190.908669148398
 30
0.0
 40
14.99999999999988
100
AcDbArc
 50
90.0
 51
133.4088597287989
  0
LINE
  5
2F26
330
1A
100
AcDbEntity
  8
SEIHIN
  6
CONTINUOUS
 62
     3
 48
5.0
100
AcDbLine
 10
317.826732417982
 20
201.967091432998
 30
0.0
 11
316.9473285266819
 21
199.423584793598
 31
0.0
  0
LINE
  5
2F28
330
1A
100
AcDbEntity
  8
SEIHIN
  6
CONTINUOUS
 62
     3
 48
5.0
100
AcDbLine
 10
319.4567118730819
 20
198.939579144398
 30
0.0
 11
320.326673934982
 21
201.455777107898
 31
0.0
  0
LINE
  5
2F30
330
1A
100
AcDbEntity
  8
SEIHIN
  6
CONTINUOUS
 62
     3
 48
5.0
100
AcDbLine
 10
341.7129660179821
 20
204.887665172398
 30
0.0
 11
333.165105897082
 21
204.887665172398
 31
0.0
  0
LINE
  5
2F32
330
1A
100
AcDbEntity
  8
SEIHIN
  6
CONTINUOUS
 62
     3
 48
5.0
100
AcDbLine
 10
337.7808654660821
 20
202.103482547198
 30
0.0
 11
339.787993786882
 21
202.103482547198
 31
0.0
  0
LINE
  5
2F37
330
1A
100
AcDbEntity
  8
SEIHIN
  6
CONTINUOUS
 62
     3
 48
5.0
100
AcDbLine
 10
328.247728054082
 20
198.307843306698
 30
0.0
 11
328.246971533382
 21
198.305021910898
 31
0.0
  0
LINE
  5
2F3B
330
1A
100
AcDbEntity
  8
SEIHIN
  6
CONTINUOUS
 62
     3
 48
5.0
100
AcDbLine
 10
325.4424066140821
 20
198.961829592598
 30
0.0
 11
325.122822131782
 21
197.769124067398
 31
0.0
  0
LINE
  5
2F3D
330
1A
100
AcDbEntity
  8
SEIHIN
  6
CONTINUOUS
 62
     3
 48
5.0
100
AcDbLine
 10
337.686052067282
 20
202.0086691482979
 30
0.0
 11
337.7808654660821
 21
202.103482547198
 31
0.0
  0
LINE
  5
2F3F
330
1A
100
AcDbEntity
  8
SEIHIN
  6
CONTINUOUS
 62
     3
 48
5.0
100
AcDbLine
 10
337.688336289682
 20
202.008668626898
 30
0.0
 11
337.686052067282
 21
202.0086691482979
 31
0.0
  0
LINE
  5
2F42
330
1A
100
AcDbEntity
  8
SEIHIN
  6
CONTINUOUS
 62
     3
 48
5.0
100
AcDbLine
 10
333.073658585282
 20
202.0086691482979
 30
0.0
 11
333.0707375242821
 21
202.0086686363979
 31
0.0
  0
LINE
  5
2F43
330
1A
100
AcDbEntity
  8
SEIHIN
  6
CONTINUOUS
 62
     3
 48
5.0
100
AcDbLine
 10
333.073658585282
 20
202.0086691482979
 30
0.0
 11
337.686052067282
 21
202.0086691482979
 31
0.0
  0
ARC
  5
2F45
330
1A
100
AcDbEntity
  8
SEIHIN
  6
CONTINUOUS
 62
     3
 48
5.0
100
AcDbCircle
 10
341.711747300782
 20
206.887665543698
 30
0.0
 40
2.000001374940481
100
AcDbArc
 50
270.0349136674975
 51
330.6924172106013
  0
ELLIPSE
  5
2F4E
330
1A
100
AcDbEntity
  8
SEIHIN
  6
CONTINUOUS
 62
     3
 48
5.0
100
AcDbEllipse
 10
240.759075161482
 20
385.7076268574796
 30
0.0
 11
0.6998789370904179
 21
9.995486550045484
 31
0.0
210
0.0
220
0.0
230
1.0
 40
0.4292372267
 41
0.117572078308192
 42
0.4372227449854312
  0
ELLIPSE
  5
2F4F
330
1A
100
AcDbEntity
  8
SEIHIN
  6
CONTINUOUS
 62
     3
 48
5.0
100
AcDbEllipse
 10
243.569260357282
 20
385.7076268574796
 30
0.0
 11
-0.6998789370903751
 21
9.995486550045482
 31
0.0
210
0.0
220
0.0
230
1.0
 40
0.4292372267
 41
0.0316115466422276
 42
0.464814684540196
  0
SPLINE
  5
2F52
330
1A
100
AcDbEntity
  8
SEIHIN
  6
CONTINUOUS
 62
     3
 48
5.0
100
AcDbSpline
210
0.0
220
0.0
230
1.0
 70
    24
 71
     1
 72
     4
 73
     2
 74
     0
 42
0.0000000001
 43
0.0000000001
 40
0.0
 40
0.0
 40
1.0
 40
1.0
 10
240.9508483843594
 20
395.6693471713674
 30
0.0
 10
241.4192423535331
 20
395.7076268574486
 30
0.0
  0
SPLINE
  5
2F53
330
1A
100
AcDbEntity
  8
SEIHIN
  6
CONTINUOUS
 62
     3
 48
5.0
100
AcDbSpline
210
0.0
220
0.0
230
1.0
 70
    24
 71
     1
 72
     4
 73
     2
 74
     0
 42
0.0000000001
 43
0.0000000001
 40
0.0
 40
0.0
 40
1.0
 40
1.0
 10
243.0904613922824
 20
395.7076268574486
 30
0.0
 10
242.7341263856012
 20
395.6886246564967
 30
0.0
  0
SPLINE
  5
2F54
330
1A
100
AcDbEntity
  8
SEIHIN
  6
CONTINUOUS
 62
     3
 48
5.0
100
AcDbSpline
210
0.0
220
0.0
230
1.0
 70
    24
 71
     1
 72
     4
 73
     2
 74
     0
 42
0.0000000001
 43
0.0000000001
 40
0.0
 40
0.0
 40
1.0
 40
1.0
 10
253.9237917207534
 20
395.6950164141266
 30
0.0
 10
252.8008542690399
 20
395.7076268574486
 30
0.0
  0
SPLINE
  5
2F55
330
1A
100
AcDbEntity
  8
SEIHIN
  6
CONTINUOUS
 62
     3
 48
5.0
100
AcDbSpline
210
0.0
220
0.0
230
1.0
 70
    24
 71
     1
 72
     4
 73
     2
 74
     0
 42
0.0000000001
 43
0.0000000001
 40
0.0
 40
0.0
 40
1.0
 40
1.0
 10
256.5752267797347
 20
395.5649753541706
 30
0.0
 10
253.9237917207534
 20
395.6950164141266
 30
0.0
  0
SPLINE
  5
2F56
330
1A
100
AcDbEntity
  8
SEIHIN
  6
CONTINUOUS
 62
     3
 48
5.0
100
AcDbSpline
210
0.0
220
0.0
230
1.0
 70
     8
 71
     3
 72
     9
 73
     5
 74
     0
 42
0.0000000001
 43
0.0000000001
 40
0.0
 40
0.0
 40
0.0
 40
0.0
 40
0.0241162998712328
 40
1.0
 40
1.0
 40
1.0
 40
1.0
 10
269.6842245482901
 20
394.5726465119996
 30
0.0
 10
269.5788443285211
 20
394.5806236912573
 30
0.0
 10
265.2091764967453
 20
394.9114032594462
 30
0.0
 10
260.839511563304
 20
395.2421778362505
 30
0.0
 10
256.5752267797347
 20
395.5649753541706
 30
0.0
  0
SPLINE
  5
2F57
330
1A
100
AcDbEntity
  8
SEIHIN
  6
CONTINUOUS
 62
     3
 48
5.0
100
AcDbSpline
210
0.0
220
0.0
230
1.0
 70
     8
 71
     3
 72
     9
 73
     5
 74
     0
 42
0.0000000001
 43
0.0000000001
 40
0.0
 40
0.0
 40
0.0
 40
0.0
 40
0.8707151640418
 40
1.0
 40
1.0
 40
1.0
 40
1.0
 10
256.5717427549703
 20
395.5655042958747
 30
0.0
 10
260.3774854126401
 20
395.2779607001201
 30
0.0
 10
264.7483093224982
 20
394.9477222850455
 30
0.0
 10
269.1191421439658
 20
394.6176001604676
 30
0.0
 10
269.6842245482898
 20
394.5749203757454
 30
0.0
  0
SPLINE
  5
2F5A
330
1A
100
AcDbEntity
  8
SEIHIN
  6
CONTINUOUS
 62
     3
 48
5.0
100
AcDbSpline
210
0.0
220
0.0
230
1.0
 70
     8
 71
     3
 72
    12
 73
     8
 74
     0
 42
0.0000000001
 43
0.0000000001
 40
0.0
 40
0.0
 40
0.0
 40
0.0
 40
0.003275818446129
 40
0.2899169500728354
 40
0.5871264174622708
 40
0.9422499123549894
 40
1.0
 40
1.0
 40
1.0
 40
1.0
 10
210.4790537406326
 20
394.5647697145913
 30
0.0
 10
210.4799182351138
 20
394.5665875069473
 30
0.0
 10
210.556427848661
 20
394.7274660246071
 30
0.0
 10
210.7565634646145
 20
395.0358086365552
 30
0.0
 10
211.2201464748614
 20
395.4420141674796
 30
0.0
 10
211.7042900134467
 20
395.6494359302622
 30
0.0
 10
212.0342191801429
 20
395.6911813279247
 30
0.0
 10
212.0803675391061
 20
395.6970204042806
 30
0.0
  0
SPLINE
  5
2F5B
330
1A
100
AcDbEntity
  8
SEIHIN
  6
CONTINUOUS
 62
     3
 48
5.0
100
AcDbSpline
210
0.0
220
0.0
230
1.0
 70
    24
 71
     1
 72
     4
 73
     2
 74
     0
 42
0.0000000001
 43
0.0000000001
 40
0.0
 40
0.0
 40
1.0
 40
1.0
 10
212.080367539106
 20
395.6970204042806
 30
0.0
 10
212.286069546443
 20
395.7076268574484
 30
0.0
  0
SPLINE
  5
2F5C
330
1A
100
AcDbEntity
  8
SEIHIN
  6
CONTINUOUS
 62
     3
 48
5.0
100
AcDbSpline
210
0.0
220
0.0
230
1.0
 70
    24
 71
     1
 72
     4
 73
     2
 74
     0
 42
0.0000000001
 43
0.0000000001
 40
0.0
 40
0.0
 40
1.0
 40
1.0
 10
212.286069546443
 20
395.7076268574484
 30
0.0
 10
212.5494514035731
 20
395.7076268574484
 30
0.0
  0
SPLINE
  5
2F5D
330
1A
100
AcDbEntity
  8
SEIHIN
  6
CONTINUOUS
 62
     3
 48
5.0
100
AcDbSpline
210
0.0
220
0.0
230
1.0
 70
     8
 71
     3
 72
    18
 73
    14
 74
     0
 42
0.0000000001
 43
0.0000000001
 40
0.0
 40
0.0
 40
0.0
 40
0.0
 40
0.0081113882867648
 40
0.0099518517798575
 40
0.0198434194460654
 40
0.025439185020984
 40
0.0473645681988269
 40
0.0863673842714848
 40
0.1577788856053923
 40
0.3650024252437264
 40
0.5723355011755171
 40
0.7862057630329678
 40
1.0
 40
1.0
 40
1.0
 40
1.0
 10
207.7560513017031
 20
384.9132666959795
 30
0.0
 10
207.7552559566892
 20
384.9058478027717
 30
0.0
 10
207.7542801489221
 20
384.8967455723071
 30
0.0
 10
207.7546874264113
 20
384.9005493250664
 30
0.0
 10
207.7567955319734
 20
384.9202645524199
 30
0.0
 10
207.7645642931768
 20
384.9919259348419
 30
0.0
 10
207.7847373595927
 20
385.1733703528206
 30
0.0
 10
207.8341382300118
 20
385.5838489437993
 30
0.0
 10
207.9781739765354
 20
386.6248849987628
 30
0.0
 10
208.2807680434509
 20
388.2506362894528
 30
0.0
 10
208.8326052718818
 20
390.3592757853752
 30
0.0
 10
209.5424775331057
 20
392.4702780539385
 30
0.0
 10
210.1668986720719
 20
393.866688573221
 30
0.0
 10
210.4790537406323
 20
394.5647697145908
 30
0.0
  0
SPLINE
  5
2F61
330
1A
100
AcDbEntity
  8
SEIHIN
  6
CONTINUOUS
 62
     3
 48
5.0
100
AcDbSpline
210
0.0
220
0.0
230
1.0
 70
     8
 71
     3
 72
     9
 73
     5
 74
     0
 42
0.0000000001
 43
0.0000000001
 40
0.0
 40
0.0
 40
0.0
 40
0.0
 40
0.4916757638745569
 40
1.0
 40
1.0
 40
1.0
 40
1.0
 10
251.2054998836371
 20
391.8483818191334
 30
0.0
 10
251.4281294983054
 20
391.8081015107464
 30
0.0
 10
251.8809271162189
 20
391.7261769756226
 30
0.0
 10
252.4052697009074
 20
391.7138784805578
 30
0.0
 10
252.6718057447371
 20
391.7076268574485
 30
0.0
  0
SPLINE
  5
2F62
330
1A
100
AcDbEntity
  8
SEIHIN
  6
CONTINUOUS
 62
     3
 48
5.0
100
AcDbSpline
210
0.0
220
0.0
230
1.0
 70
    24
 71
     1
 72
     4
 73
     2
 74
     0
 42
0.0000000001
 43
0.0000000001
 40
0.0
 40
0.0
 40
1.0
 40
1.0
 10
250.1197666927357
 20
392.1002912931608
 30
0.0
 10
251.2054998836371
 20
391.8483818191334
 30
0.0
  0
SPLINE
  5
2F64
330
1A
100
AcDbEntity
  8
SEIHIN
  6
CONTINUOUS
 62
     3
 48
5.0
100
AcDbSpline
210
0.0
220
0.0
230
1.0
 70
    24
 71
     1
 72
     4
 73
     2
 74
     0
 42
0.0000000001
 43
0.0000000001
 40
0.0
 40
0.0
 40
1.0
 40
1.0
 10
252.7996762167325
 20
367.7076268574486
 30
0.0
 10
253.6793642540441
 20
367.7153648015297
 30
0.0
  0
SPLINE
  5
2F65
330
1A
100
AcDbEntity
  8
SEIHIN
  6
CONTINUOUS
 62
     3
 48
5.0
100
AcDbSpline
210
0.0
220
0.0
230
1.0
 70
    24
 71
     1
 72
     4
 73
     2
 74
     0
 42
0.0000000001
 43
0.0000000001
 40
0.0
 40
0.0
 40
1.0
 40
1.0
 10
256.5763135091505
 20
367.8504402308222
 30
0.0
 10
269.6842245482898
 20
368.8430439589635
 30
0.0
  0
SPLINE
  5
2F66
330
1A
100
AcDbEntity
  8
SEIHIN
  6
CONTINUOUS
 62
     3
 48
5.0
100
AcDbSpline
210
0.0
220
0.0
230
1.0
 70
    24
 71
     1
 72
     4
 73
     2
 74
     0
 42
0.0000000001
 43
0.0000000001
 40
0.0
 40
0.0
 40
1.0
 40
1.0
 10
253.6793642540441
 20
367.7153648015298
 30
0.0
 10
256.5763135091505
 20
367.8504402308222
 30
0.0
  0
SPLINE
  5
2F67
330
1A
100
AcDbEntity
  8
SEIHIN
  6
CONTINUOUS
 62
     3
 48
5.0
100
AcDbSpline
210
0.0
220
0.0
230
1.0
 70
     8
 71
     3
 72
     9
 73
     5
 74
     0
 42
0.0000000001
 43
0.0000000001
 40
0.0
 40
0.0
 40
0.0
 40
0.0
 40
0.9722870709945112
 40
1.0
 40
1.0
 40
1.0
 40
1.0
 10
256.5688224152726
 20
367.8492717601132
 30
0.0
 10
260.819475332302
 20
368.1699090782172
 30
0.0
 10
265.1912838689327
 20
368.4996854659418
 30
0.0
 10
269.5630695617575
 20
368.8297618267328
 30
0.0
 10
269.6842245482901
 20
368.8389092094858
 30
0.0
  0
SPLINE
  5
2F68
330
1A
100
AcDbEntity
  8
SEIHIN
  6
CONTINUOUS
 62
     3
 48
5.0
100
AcDbSpline
210
0.0
220
0.0
230
1.0
 70
    24
 71
     1
 72
     4
 73
     2
 74
     0
 42
0.0000000001
 43
0.0000000001
 40
0.0
 40
0.0
 40
1.0
 40
1.0
 10
251.292150113431
 20
371.5614163668354
 30
0.0
 10
250.2179962266011
 20
371.3062893673071
 30
0.0
  0
SPLINE
  5
2F6B
330
1A
100
AcDbEntity
  8
SEIHIN
  6
CONTINUOUS
 62
     3
 48
5.0
100
AcDbSpline
210
0.0
220
0.0
230
1.0
 70
     8
 71
     3
 72
    12
 73
     8
 74
     0
 42
0.0000000001
 43
0.0000000001
 40
0.0
 40
0.0
 40
0.0
 40
0.0
 40
0.2150159439862006
 40
0.4300423538877188
 40
0.6448014531063479
 40
0.8592006771705124
 40
1.0
 40
1.0
 40
1.0
 40
1.0
 10
258.1907436961212
 20
381.6925937248019
 30
0.0
 10
258.2211649785264
 20
381.3829530359223
 30
0.0
 10
258.2820090240945
 20
380.7636565863822
 30
0.0
 10
258.7568013899239
 20
379.93827654223
 30
0.0
 10
259.4553603646073
 20
379.3161284395925
 30
0.0
 10
260.228391417667
 20
378.9872849349214
 30
0.0
 10
260.7385276695113
 20
378.9539808125217
 30
0.0
 10
260.9407436961212
 20
378.9407791879027
 30
0.0
  0
SPLINE
  5
2F6C
330
1A
100
AcDbEntity
  8
SEIHIN
  6
CONTINUOUS
 62
     3
 48
5.0
100
AcDbSpline
210
0.0
220
0.0
230
1.0
 70
     8
 71
     3
 72
    12
 73
     8
 74
     0
 42
0.0000000001
 43
0.0000000001
 40
0.0
 40
0.0
 40
0.0
 40
0.0
 40
0.2138644856513
 40
0.427726993227507
 40
0.6416929154573655
 40
0.8561378905248556
 40
1.0
 40
1.0
 40
1.0
 40
1.0
 10
260.9407436961212
 20
384.4745708039426
 30
0.0
 10
260.6324419345953
 20
384.4444221871654
 30
0.0
 10
260.0158412630877
 20
384.3841252324616
 30
0.0
 10
259.1934393750223
 20
383.912165668872
 30
0.0
 10
258.5716285500432
 20
383.2170091730368
 30
0.0
 10
258.2388306616661
 20
382.4423871983081
 30
0.0
 10
258.2045197150088
 20
381.928118509316
 30
0.0
 10
258.1907436961212
 20
381.7216370256192
 30
0.0
  0
SPLINE
  5
2F6D
330
1A
100
AcDbEntity
  8
SEIHIN
  6
CONTINUOUS
 62
     3
 48
5.0
100
AcDbSpline
210
0.0
220
0.0
230
1.0
 70
    24
 71
     3
 72
     9
 73
     5
 74
     0
 42
0.0000000001
 43
0.0000000001
 40
0.0
 40
0.0
 40
0.0
 40
0.0
 40
0.5600000000039034
 40
1.0
 40
1.0
 40
1.0
 40
1.0
 10
258.1907436961212
 20
381.7082572487096
 30
0.0
 10
258.1907436961212
 20
381.7086999472446
 30
0.0
 10
258.1907436961212
 20
381.7094904803429
 30
0.0
 10
258.1907436961212
 20
381.7102813040919
 30
0.0
 10
258.1907436961212
 20
381.7106292665415
 30
0.0
  0
SPLINE
  5
2F6E
330
1A
100
AcDbEntity
  8
SEIHIN
  6
CONTINUOUS
 62
     3
 48
5.0
100
AcDbSpline
210
0.0
220
0.0
230
1.0
 70
     8
 71
     3
 72
     9
 73
     5
 74
     0
 42
0.0000000001
 43
0.0000000001
 40
0.0
 40
0.0
 40
0.0
 40
0.0
 40
0.4911080352455355
 40
1.0
 40
1.0
 40
1.0
 40
1.0
 10
252.7853059970983
 20
371.7076268574485
 30
0.0
 10
252.5224109838445
 20
371.7015739789232
 30
0.0
 10
251.9871010430855
 20
371.6892490359556
 30
0.0
 10
251.5265306736439
 20
371.6045294721259
 30
0.0
 10
251.292150113431
 20
371.5614163668354
 30
0.0
  0
ELLIPSE
  5
2F71
330
1A
100
AcDbEntity
  8
SEIHIN
  6
CONTINUOUS
 62
     3
 48
5.0
100
AcDbEllipse
 10
243.6454273148819
 20
377.7076268574796
 30
0.0
 11
0.4667002759553328
 21
9.997984382718783
 31
0.0
210
0.0
220
0.0
230
1.0
 40
0.4301887921
 41
2.671459498521997
 42
3.075579124394923
  0
ELLIPSE
  5
2F72
330
1A
100
AcDbEntity
  8
SEIHIN
  6
CONTINUOUS
 62
     3
 48
5.0
100
AcDbEllipse
 10
240.682908203782
 20
377.7076268574796
 30
0.0
 11
-0.4667002759552901
 21
9.997984382718783
 31
0.0
210
0.0
220
0.0
230
1.0
 40
0.4301887921
 41
2.74882100379883
 42
3.057860049000542
  0
SPLINE
  5
2F73
330
1A
100
AcDbEntity
  8
SEIHIN
  6
CONTINUOUS
 62
     3
 48
5.0
100
AcDbSpline
210
0.0
220
0.0
230
1.0
 70
    24
 71
     1
 72
     4
 73
     2
 74
     0
 42
0.0000000001
 43
0.0000000001
 40
0.0
 40
0.0
 40
1.0
 40
1.0
 10
241.1092958717602
 20
367.7076268574486
 30
0.0
 10
240.7882583867085
 20
367.7278793880714
 30
0.0
  0
SPLINE
  5
2F74
330
1A
100
AcDbEntity
  8
SEIHIN
  6
CONTINUOUS
 62
     3
 48
5.0
100
AcDbSpline
210
0.0
220
0.0
230
1.0
 70
    24
 71
     1
 72
     4
 73
     2
 74
     0
 42
0.0000000001
 43
0.0000000001
 40
0.0
 40
0.0
 40
1.0
 40
1.0
 10
212.286069546443
 20
367.7076268574484
 30
0.0
 10
212.0897798847731
 20
367.7172825734811
 30
0.0
  0
SPLINE
  5
2F79
330
1A
100
AcDbEntity
  8
SEIHIN
  6
CONTINUOUS
 62
     3
 48
5.0
100
AcDbSpline
210
0.0
220
0.0
230
1.0
 70
    24
 71
     1
 72
     4
 73
     2
 74
     0
 42
0.0000000001
 43
0.0000000001
 40
0.0
 40
0.0
 40
1.0
 40
1.0
 10
212.4884637950638
 20
367.7076268574484
 30
0.0
 10
212.286069546443
 20
367.7076268574484
 30
0.0
  0
SPLINE
  5
2F7A
330
1A
100
AcDbEntity
  8
SEIHIN
  6
CONTINUOUS
 62
     3
 48
5.0
100
AcDbSpline
210
0.0
220
0.0
230
1.0
 70
     8
 71
     3
 72
    18
 73
    14
 74
     0
 42
0.0000000001
 43
0.0000000001
 40
0.0
 40
0.0
 40
0.0
 40
0.0
 40
0.1867638476405158
 40
0.3735863854532851
 40
0.5657326122840637
 40
0.7578912915758678
 40
0.9153394641140378
 40
0.9671767282753627
 40
0.9796492102832617
 40
0.9862832553776289
 40
0.9914841416044806
 40
0.9935985259195515
 40
1.0
 40
1.0
 40
1.0
 40
1.0
 10
210.4790537406326
 20
368.8504840003056
 30
0.0
 10
210.1788924246326
 20
369.5199937303441
 30
0.0
 10
209.5784754675287
 20
370.8592235825386
 30
0.0
 10
208.8726266952102
 20
372.926480148955
 30
0.0
 10
208.3090556532008
 20
375.0310418322982
 30
0.0
 10
207.9282075336061
 20
377.0391938737717
 30
0.0
 10
207.7462094231656
 20
378.5173154688354
 30
0.0
 10
207.6788432714453
 20
379.3205175187385
 30
0.0
 10
207.6634287084238
 20
379.5296777010067
 30
0.0
 10
207.6601587450063
 20
379.5753936354598
 30
0.0
 10
207.6598219669676
 20
379.5801537752236
 30
0.0
 10
207.6605216818721
 20
379.5703038110543
 30
0.0
 10
207.6617454018861
 20
379.5533046986978
 30
0.0
 10
207.6626652870682
 20
379.540526259686
 30
0.0
  0
SPLINE
  5
2F7C
330
1A
100
AcDbEntity
  8
SEIHIN
  6
CONTINUOUS
 62
     3
 48
5.0
100
AcDbSpline
210
0.0
220
0.0
230
1.0
 70
     8
 71
     3
 72
    13
 73
     9
 74
     0
 42
0.0000000001
 43
0.0000000001
 40
0.0
 40
0.0
 40
0.0
 40
0.0
 40
0.0032579626972932
 40
0.2715279762175687
 40
0.5394361179783353
 40
0.6434430102876022
 40
0.9972103642253873
 40
1.0
 40
1.0
 40
1.0
 40
1.0
 10
210.4790537406326
 20
368.8504840003056
 30
0.0
 10
210.4799171697436
 20
368.8486684561248
 30
0.0
 10
210.5518778337905
 20
368.6973557853161
 30
0.0
 10
210.7335890469793
 20
368.41231120917
 30
0.0
 10
211.0412523568875
 20
368.1261399390164
 30
0.0
 10
211.462994026484
 20
367.8622470395186
 30
0.0
 10
211.7975106606451
 20
367.7464433275285
 30
0.0
 10
212.0875109760535
 20
367.7175089506828
 30
0.0
 10
212.0897798847494
 20
367.7172825734834
 30
0.0
  0
SPLINE
  5
2F80
330
1A
100
AcDbEntity
  8
SEIHIN
  6
CONTINUOUS
 62
     3
 48
5.0
100
AcDbSpline
210
0.0
220
0.0
230
1.0
 70
    24
 71
     1
 72
     4
 73
     2
 74
     0
 42
0.0000000001
 43
0.0000000001
 40
0.0
 40
0.0
 40
1.0
 40
1.0
 10
207.5842908277901
 20
381.7076268574484
 30
0.0
 10
207.6562082327815
 20
379.6481818326661
 30
0.0
  0
SPLINE
  5
2F81
330
1A
100
AcDbEntity
  8
SEIHIN
  6
CONTINUOUS
 62
     3
 48
5.0
100
AcDbSpline
210
0.0
220
0.0
230
1.0
 70
    24
 71
     1
 72
     4
 73
     2
 74
     0
 42
0.0000000001
 43
0.0000000001
 40
0.0
 40
0.0
 40
1.0
 40
1.0
 10
207.7460315534419
 20
384.7938237515845
 30
0.0
 10
207.5842908277901
 20
381.7076268574484
 30
0.0
  0
SPLINE
  5
2F82
330
1A
100
AcDbEntity
  8
SEIHIN
  6
CONTINUOUS
 62
     3
 48
5.0
100
AcDbSpline
210
0.0
220
0.0
230
1.0
 70
    24
 71
     1
 72
     4
 73
     2
 74
     0
 42
0.0000000001
 43
0.0000000001
 40
0.0
 40
0.0
 40
1.0
 40
1.0
 10
242.8960241654383
 20
367.744662964634
 30
0.0
 10
243.456129940951
 20
367.7076268574486
 30
0.0
  0
LINE
  5
2F86
330
1A
100
AcDbEntity
  8
SEIHIN
  6
CONTINUOUS
 62
     3
 48
5.0
100
AcDbLine
 10
230.5351018561821
 20
395.7076268574796
 30
0.0
 11
214.875174497082
 21
395.7076268574796
 31
0.0
  0
LINE
  5
2F88
330
1A
100
AcDbEntity
  8
SEIHIN
  6
CONTINUOUS
 62
     3
 48
5.0
100
AcDbLine
 10
230.667078684782
 20
367.7076268574797
 30
0.0
 11
215.222387064882
 21
367.7076268574797
 31
0.0
  0
LINE
  5
2F89
330
1A
100
AcDbEntity
  8
SEIHIN
  6
CONTINUOUS
 62
     3
 48
5.0
100
AcDbLine
 10
215.911469322782
 20
381.7076268574796
 30
0.0
 11
215.222387064882
 21
367.7076268574797
 31
0.0
  0
LINE
  5
2F8B
330
1A
100
AcDbEntity
  8
SEIHIN
  6
CONTINUOUS
 62
     3
 48
5.0
100
AcDbLine
 10
214.650577506982
 20
367.7076268574797
 30
0.0
 11
214.150831096682
 21
367.7076268574797
 31
0.0
  0
LINE
  5
2F8C
330
1A
100
AcDbEntity
  8
SEIHIN
  6
CONTINUOUS
 62
     3
 48
5.0
100
AcDbLine
 10
215.222387064882
 20
367.7076268574797
 30
0.0
 11
213.223401423882
 21
367.7076268574797
 31
0.0
  0
LINE
  5
2F8D
330
1A
100
AcDbEntity
  8
SEIHIN
  6
CONTINUOUS
 62
     3
 48
5.0
100
AcDbLine
 10
214.150831096682
 20
367.7076268574797
 30
0.0
 11
212.4884637950819
 21
367.7076268574797
 31
0.0
  0
LINE
  5
2F8F
330
1A
100
AcDbEntity
  8
SEIHIN
  6
CONTINUOUS
 62
     3
 48
5.0
100
AcDbLine
 10
214.3057303821819
 20
395.7076268574796
 30
0.0
 11
214.875174497082
 21
395.7076268574796
 31
0.0
  0
LINE
  5
2F94
330
1A
100
AcDbEntity
  8
SEIHIN
  6
CONTINUOUS
 62
     3
 48
5.0
100
AcDbLine
 10
213.806301096282
 20
395.7076268574796
 30
0.0
 11
214.3057303821819
 21
395.7076268574796
 31
0.0
  0
LINE
  5
2F95
330
1A
100
AcDbEntity
  8
SEIHIN
  6
CONTINUOUS
 62
     3
 48
5.0
100
AcDbLine
 10
213.806301096282
 20
395.7076268574796
 30
0.0
 11
212.5494514035819
 21
395.7076268574796
 31
0.0
  0
LINE
  5
2F96
330
1A
100
AcDbEntity
  8
SEIHIN
  6
CONTINUOUS
 62
     3
 48
5.0
100
AcDbLine
 10
214.875174497082
 20
395.7076268574796
 30
0.0
 11
215.9093242394819
 21
381.7076137164796
 31
0.0
  0
LINE
  5
2F9A
330
1A
100
AcDbEntity
  8
SEIHIN
  6
CONTINUOUS
 62
     3
 48
5.0
100
AcDbLine
 10
286.428576530582
 20
397.9425937248019
 30
0.0
 11
292.8302675648819
 21
397.9425937248019
 31
0.0
  0
LINE
  5
2F9D
330
1A
100
AcDbEntity
  8
SEIHIN
  6
CONTINUOUS
 62
     3
 48
5.0
100
AcDbLine
 10
292.8302675648819
 20
365.4425937248019
 30
0.0
 11
286.428576530582
 21
365.4425937248019
 31
0.0
  0
LINE
  5
2F9F
330
1A
100
AcDbEntity
  8
SEIHIN
  6
CONTINUOUS
 62
     3
 48
5.0
100
AcDbLine
 10
269.684224548282
 20
371.7076268574796
 30
0.0
 11
254.4358271805819
 21
371.7076268574796
 31
0.0
  0
LINE
  5
2FA0
330
1A
100
AcDbEntity
  8
SEIHIN
  6
CONTINUOUS
 62
     3
 48
5.0
100
AcDbLine
 10
269.684224548282
 20
391.7076268574796
 30
0.0
 11
254.337984760382
 21
391.7076268574796
 31
0.0
  0
LINE
  5
2FA1
330
1A
100
AcDbEntity
  8
SEIHIN
  6
CONTINUOUS
 62
     3
 48
5.0
100
AcDbLine
 10
260.9407436960821
 20
384.4745708039796
 30
0.0
 11
269.684224548282
 21
384.4710643170796
 31
0.0
  0
LINE
  5
2FA2
330
1A
100
AcDbEntity
  8
SEIHIN
  6
CONTINUOUS
 62
     3
 48
5.0
100
AcDbLine
 10
260.9407436960821
 20
378.9407791878796
 30
0.0
 11
269.684224548282
 21
378.9442657506796
 31
0.0
  0
LINE
  5
2FA3
330
1A
100
AcDbEntity
  8
SEIHIN
  6
CONTINUOUS
 62
     3
 48
5.0
100
AcDbLine
 10
254.627051626282
 20
381.7076268574796
 30
0.0
 11
254.4358271805819
 21
371.7076268574796
 31
0.0
  0
LINE
  5
2FA6
330
1A
100
AcDbEntity
  8
SEIHIN
  6
CONTINUOUS
 62
     3
 48
5.0
100
AcDbLine
 10
235.144949308882
 20
381.7076268574796
 30
0.0
 11
234.8772350847821
 21
367.7076268574797
 31
0.0
  0
LINE
  5
2FA7
330
1A
100
AcDbEntity
  8
SEIHIN
  6
CONTINUOUS
 62
     3
 48
5.0
100
AcDbLine
 10
245.596217693282
 20
367.7076268574797
 30
0.0
 11
252.799676216782
 21
367.7076268574797
 31
0.0
  0
LINE
  5
2FA8
330
1A
100
AcDbEntity
  8
SEIHIN
  6
CONTINUOUS
 62
     3
 48
5.0
100
AcDbLine
 10
236.933661983882
 20
367.7076268574797
 30
0.0
 11
250.217996226582
 21
371.3062893672796
 31
0.0
  0
LINE
  5
2FA9
330
1A
100
AcDbEntity
  8
SEIHIN
  6
CONTINUOUS
 62
     3
 48
5.0
100
AcDbLine
 10
236.933661983882
 20
367.7076268574797
 30
0.0
 11
234.8772350847821
 21
367.7076268574797
 31
0.0
  0
LINE
  5
2FAA
330
1A
100
AcDbEntity
  8
SEIHIN
  6
CONTINUOUS
 62
     3
 48
5.0
100
AcDbLine
 10
234.8772350847821
 20
367.7076268574797
 30
0.0
 11
230.667078684782
 21
367.7076268574797
 31
0.0
  0
LINE
  5
2FAB
330
1A
100
AcDbEntity
  8
SEIHIN
  6
CONTINUOUS
 62
     3
 48
5.0
100
AcDbLine
 10
243.456129940982
 20
367.7076268574797
 30
0.0
 11
241.109295871782
 21
367.7076268574797
 31
0.0
  0
LINE
  5
2FAD
330
1A
100
AcDbEntity
  8
SEIHIN
  6
CONTINUOUS
 62
     3
 48
5.0
100
AcDbLine
 10
242.896024165482
 20
367.7446629646796
 30
0.0
 11
242.932785675582
 21
369.3327607276796
 31
0.0
  0
LINE
  5
2FAE
330
1A
100
AcDbEntity
  8
SEIHIN
  6
CONTINUOUS
 62
     3
 48
5.0
100
AcDbLine
 10
245.596217693282
 20
367.7076268574797
 30
0.0
 11
243.456129940982
 21
367.7076268574797
 31
0.0
  0
LINE
  5
2FAF
330
1A
100
AcDbEntity
  8
SEIHIN
  6
CONTINUOUS
 62
     3
 48
5.0
100
AcDbLine
 10
254.4358271805819
 20
371.7076268574796
 30
0.0
 11
252.7853059970821
 21
371.7076268574796
 31
0.0
  0
LINE
  5
2FB0
330
1A
100
AcDbEntity
  8
SEIHIN
  6
CONTINUOUS
 62
     3
 48
5.0
100
AcDbLine
 10
250.119766692782
 20
392.1002912931796
 30
0.0
 11
236.4865832801819
 21
395.7076268574796
 31
0.0
  0
LINE
  5
2FB1
330
1A
100
AcDbEntity
  8
SEIHIN
  6
CONTINUOUS
 62
     3
 48
5.0
100
AcDbLine
 10
252.800854269082
 20
395.7076268574796
 30
0.0
 11
245.432459554082
 21
395.7076268574796
 31
0.0
  0
LINE
  5
2FB3
330
1A
100
AcDbEntity
  8
SEIHIN
  6
CONTINUOUS
 62
     3
 48
5.0
100
AcDbLine
 10
234.742051142982
 20
395.7076268574796
 30
0.0
 11
235.143826672382
 21
381.7076268574796
 31
0.0
  0
LINE
  5
2FB5
330
1A
100
AcDbEntity
  8
SEIHIN
  6
CONTINUOUS
 62
     3
 48
5.0
100
AcDbLine
 10
235.144949308882
 20
381.7076268574796
 30
0.0
 11
235.143826672382
 21
381.7076268574796
 31
0.0
  0
LINE
  5
2FB7
330
1A
100
AcDbEntity
  8
SEIHIN
  6
CONTINUOUS
 62
     3
 48
5.0
100
AcDbLine
 10
236.4865832801819
 20
395.7076268574796
 30
0.0
 11
234.742051142982
 21
395.7076268574796
 31
0.0
  0
LINE
  5
2FB8
330
1A
100
AcDbEntity
  8
SEIHIN
  6
CONTINUOUS
 62
     3
 48
5.0
100
AcDbLine
 10
230.5351018561821
 20
395.7076268574796
 30
0.0
 11
234.742051142982
 21
395.7076268574796
 31
0.0
  0
LINE
  5
2FB9
330
1A
100
AcDbEntity
  8
SEIHIN
  6
CONTINUOUS
 62
     3
 48
5.0
100
AcDbLine
 10
241.419242353582
 20
395.7076268574796
 30
0.0
 11
243.090461392282
 21
395.7076268574796
 31
0.0
  0
LINE
  5
2FBB
330
1A
100
AcDbEntity
  8
SEIHIN
  6
CONTINUOUS
 62
     3
 48
5.0
100
AcDbLine
 10
242.7914212987821
 20
394.0393689221796
 30
0.0
 11
242.734126385582
 21
395.6886246564796
 31
0.0
  0
LINE
  5
2FBC
330
1A
100
AcDbEntity
  8
SEIHIN
  6
CONTINUOUS
 62
     3
 48
5.0
100
AcDbLine
 10
243.090461392282
 20
395.7076268574796
 30
0.0
 11
245.432459554082
 21
395.7076268574796
 31
0.0
  0
LINE
  5
2FBD
330
1A
100
AcDbEntity
  8
SEIHIN
  6
CONTINUOUS
 62
     3
 48
5.0
100
AcDbLine
 10
254.337984760382
 20
391.7076268574796
 30
0.0
 11
254.6249672264821
 21
381.7076268574796
 31
0.0
  0
LINE
  5
2FC1
330
1A
100
AcDbEntity
  8
SEIHIN
  6
CONTINUOUS
 62
     3
 48
5.0
100
AcDbLine
 10
258.1907436960821
 20
381.7059110024796
 30
0.0
 11
258.1907436960821
 21
381.7076268574796
 31
0.0
  0
LINE
  5
2FC2
330
1A
100
AcDbEntity
  8
SEIHIN
  6
CONTINUOUS
 62
     3
 48
5.0
100
AcDbLine
 10
258.1907436960821
 20
381.7106292665796
 30
0.0
 11
258.1907436960821
 21
381.7076268574796
 31
0.0
  0
LINE
  5
2FC4
330
1A
100
AcDbEntity
  8
SEIHIN
  6
CONTINUOUS
 62
     3
 48
5.0
100
AcDbLine
 10
252.6718057447819
 20
391.7076268574796
 30
0.0
 11
254.337984760382
 21
391.7076268574796
 31
0.0
  0
LINE
  5
2FC6
330
1A
100
AcDbEntity
  8
SEIHIN
  6
CONTINUOUS
 62
     3
 48
5.0
100
AcDbLine
 10
286.428576530582
 20
395.9425937248019
 30
0.0
 11
286.428576530582
 21
367.4425937248019
 31
0.0
  0
LINE
  5
2FC7
330
1A
100
AcDbEntity
  8
SEIHIN
  6
CONTINUOUS
 62
     3
 48
5.0
100
AcDbLine
 10
269.684224548282
 20
396.4576268574796
 30
0.0
 11
269.684224548282
 21
367.9576268574797
 31
0.0
  0
LINE
  5
2FC9
330
1A
100
AcDbEntity
  8
SEIHIN
  6
CONTINUOUS
 62
     3
 48
5.0
100
AcDbLine
 10
286.428576530582
 20
365.4425937248019
 30
0.0
 11
269.684224548282
 21
365.4425937248019
 31
0.0
  0
LINE
  5
2FCB
330
1A
100
AcDbEntity
  8
SEIHIN
  6
CONTINUOUS
 62
     3
 48
5.0
100
AcDbLine
 10
269.684224548282
 20
365.4425937248019
 30
0.0
 11
269.684224548282
 21
367.9576268574797
 31
0.0
  0
LINE
  5
2FCC
330
1A
100
AcDbEntity
  8
SEIHIN
  6
CONTINUOUS
 62
     3
 48
5.0
100
AcDbLine
 10
286.428576530582
 20
367.4425937248019
 30
0.0
 11
286.428576530582
 21
365.4425937248019
 31
0.0
  0
LINE
  5
2FCE
330
1A
100
AcDbEntity
  8
SEIHIN
  6
CONTINUOUS
 62
     3
 48
5.0
100
AcDbLine
 10
269.684224548282
 20
397.9425937248019
 30
0.0
 11
286.428576530582
 21
397.9425937248019
 31
0.0
  0
LINE
  5
2FD2
330
1A
100
AcDbEntity
  8
SEIHIN
  6
CONTINUOUS
 62
     3
 48
5.0
100
AcDbLine
 10
269.684224548282
 20
395.9425937248019
 30
0.0
 11
269.684224548282
 21
397.9425937248019
 31
0.0
  0
LINE
  5
2FD3
330
1A
100
AcDbEntity
  8
SEIHIN
  6
CONTINUOUS
 62
     3
 48
5.0
100
AcDbLine
 10
286.428576530582
 20
397.9425937248019
 30
0.0
 11
286.428576530582
 21
395.9425937248019
 31
0.0
  0
ARC
  5
2FD5
330
1A
100
AcDbEntity
  8
SEIHIN
  6
CONTINUOUS
 62
     3
 48
5.0
100
AcDbCircle
 10
298.892332228482
 20
396.0244136421019
 30
0.0
 40
1.920265386555101
100
AcDbArc
 50
92.67042873110302
 51
182.4420351617001
  0
LINE
  5
2FD7
330
1A
100
AcDbEntity
  8
SEIHIN
  6
CONTINUOUS
 62
     3
 48
5.0
100
AcDbLine
 10
296.973810751982
 20
395.9425937248019
 30
0.0
 11
296.973810751982
 21
367.4425937248019
 31
0.0
  0
LINE
  5
2FD8
330
1A
100
AcDbEntity
  8
SEIHIN
  6
CONTINUOUS
 62
     3
 48
5.0
100
AcDbLine
 10
304.975643691582
 20
365.4425937248019
 30
0.0
 11
298.802865333182
 21
365.4425937248019
 31
0.0
  0
ARC
  5
2FDA
330
1A
100
AcDbEntity
  8
SEIHIN
  6
CONTINUOUS
 62
     3
 48
5.0
100
AcDbCircle
 10
298.892332228482
 20
367.3607738074019
 30
0.0
 40
1.920265386555137
100
AcDbArc
 50
177.5579648382998
 51
267.329571268897
  0
LINE
  5
2FDB
330
1A
100
AcDbEntity
  8
SEIHIN
  6
CONTINUOUS
 62
     3
 48
5.0
100
AcDbLine
 10
298.802865333182
 20
365.4425937248019
 30
0.0
 11
292.8302675648819
 21
365.4425937248019
 31
0.0
  0
LINE
  5
2FDD
330
1A
100
AcDbEntity
  8
SEIHIN
  6
CONTINUOUS
 62
     3
 48
5.0
100
AcDbLine
 10
298.802865333182
 20
397.9425937248019
 30
0.0
 11
304.975643691582
 21
397.9425937248019
 31
0.0
  0
LINE
  5
2FDE
330
1A
100
AcDbEntity
  8
SEIHIN
  6
CONTINUOUS
 62
     3
 48
5.0
100
AcDbLine
 10
292.8302675648819
 20
397.9425937248019
 30
0.0
 11
298.802865333182
 21
397.9425937248019
 31
0.0
  0
SPLINE
  5
2FE0
330
1A
100
AcDbEntity
  8
SEIHIN
  6
CONTINUOUS
 62
     3
 48
5.0
100
AcDbSpline
210
0.0
220
0.0
230
1.0
 70
    24
 71
     1
 72
     4
 73
     2
 74
     0
 42
0.0000000001
 43
0.0000000001
 40
0.0
 40
0.0
 40
1.0
 40
1.0
 10
358.68422454829
 20
228.2420687681942
 30
0.0
 10
358.6842831111032
 20
228.2427910351275
 30
0.0
  0
SPLINE
  5
2FE2
330
1A
100
AcDbEntity
  8
SEIHIN
  6
CONTINUOUS
 62
     3
 48
5.0
100
AcDbSpline
210
0.0
220
0.0
230
1.0
 70
     8
 71
     3
 72
    10
 73
     6
 74
     0
 42
0.0000000001
 43
0.0000000001
 40
0.0
 40
0.0
 40
0.0
 40
0.0
 40
0.6101420343041666
 40
0.8032750932679878
 40
1.0
 40
1.0
 40
1.0
 40
1.0
 10
358.68422454829
 20
227.1766811310532
 30
0.0
 10
358.6865024068865
 20
226.9779105410953
 30
0.0
 10
358.6895012939878
 20
226.7162215322901
 30
0.0
 10
358.6933609202426
 20
226.3881450167754
 30
0.0
 10
358.6936200425136
 20
226.2601798954838
 30
0.0
 10
358.6937507973245
 20
226.1956078493385
 30
0.0
  0
ELLIPSE
  5
2FF8
330
1A
100
AcDbEntity
  8
SEIHIN
  6
CONTINUOUS
 62
     3
 48
5.0
100
AcDbEllipse
 10
379.1842245482819
 20
158.097572817198
 30
0.0
 11
1.413349728277353
 21
1.446946299985
 31
0.0
210
0.0
220
0.0
230
0.9999999999999998
 40
0.9779746969000001
 41
2.355583853645951
 42
2.398304268370646
  0
ELLIPSE
  5
2FF9
330
1A
100
AcDbEntity
  8
SEIHIN
  6
CONTINUOUS
 62
     3
 48
5.0
100
AcDbEllipse
 10
379.1842245482819
 20
157.826601523798
 30
0.0
 11
0.0
 21
2.001829143904827
 31
0.0
210
0.0
220
0.0
230
1.0
 40
0.9990862636999999
 41
1.570796326794904
 42
3.141592653589793
  0
SPLINE
  5
2FFF
330
1A
100
AcDbEntity
  8
SEIHIN
  6
CONTINUOUS
 62
     3
 48
5.0
100
AcDbSpline
210
0.0
220
0.0
230
1.0
 70
    24
 71
     1
 72
     4
 73
     2
 74
     0
 42
0.0000000001
 43
0.0000000001
 40
0.0
 40
0.0
 40
1.0
 40
1.0
 10
368.6842245482901
 20
229.0750706690801
 30
0.0
 10
368.6842831111032
 20
229.0757929360134
 30
0.0
  0
SPLINE
  5
3001
330
1A
100
AcDbEntity
  8
SEIHIN
  6
CONTINUOUS
 62
     3
 48
5.0
100
AcDbSpline
210
0.0
220
0.0
230
1.0
 70
    24
 71
     1
 72
     4
 73
     2
 74
     0
 42
0.0000000001
 43
0.0000000001
 40
0.0
 40
0.0
 40
1.0
 40
1.0
 10
363.6842245482901
 20
228.6585697186372
 30
0.0
 10
363.6842831111032
 20
228.6592919855705
 30
0.0
  0
SPLINE
  5
3004
330
1A
100
AcDbEntity
  8
SEIHIN
  6
CONTINUOUS
 62
     3
 48
5.0
100
AcDbSpline
210
0.0
220
0.0
230
1.0
 70
     8
 71
     3
 72
     9
 73
     5
 74
     0
 42
0.0000000001
 43
0.0000000001
 40
0.0
 40
0.0
 40
0.0
 40
0.0
 40
0.6774352619248974
 40
1.0
 40
1.0
 40
1.0
 40
1.0
 10
360.6746982992556
 20
226.4412762150421
 30
0.0
 10
360.6764090748486
 20
226.6416557829925
 30
0.0
 10
360.6789344461854
 20
226.9374472470818
 30
0.0
 10
360.6826453423047
 20
227.2307574345027
 30
0.0
 10
360.6838423465396
 20
227.3253689582828
 30
0.0
  0
SPLINE
  5
3005
330
1A
100
AcDbEntity
  8
SEIHIN
  6
CONTINUOUS
 62
     3
 48
5.0
100
AcDbSpline
210
0.0
220
0.0
230
1.0
 70
     8
 71
     3
 72
     9
 73
     5
 74
     0
 42
0.0000000001
 43
0.0000000001
 40
0.0
 40
0.0
 40
0.0
 40
0.0
 40
0.6774352619248974
 40
1.0
 40
1.0
 40
1.0
 40
1.0
 10
365.6746982992556
 20
226.857777165485
 30
0.0
 10
365.6764090748485
 20
227.0581567334355
 30
0.0
 10
365.6789344461853
 20
227.3539481975247
 30
0.0
 10
365.6826453423048
 20
227.6472583849455
 30
0.0
 10
365.6838423465397
 20
227.7418699087257
 30
0.0
  0
SPLINE
  5
3006
330
1A
100
AcDbEntity
  8
SEIHIN
  6
CONTINUOUS
 62
     3
 48
5.0
100
AcDbSpline
210
0.0
220
0.0
230
1.0
 70
     8
 71
     3
 72
    10
 73
     6
 74
     0
 42
0.0000000001
 43
0.0000000001
 40
0.0
 40
0.0
 40
0.0
 40
0.0
 40
0.6101420343041666
 40
0.8032750932679878
 40
1.0
 40
1.0
 40
1.0
 40
1.0
 10
368.6842245482901
 20
228.009683031939
 30
0.0
 10
368.6865024068865
 20
227.8109124419811
 30
0.0
 10
368.6895012939878
 20
227.5492234331758
 30
0.0
 10
368.6933609202426
 20
227.2211469176612
 30
0.0
 10
368.6936200425136
 20
227.0931817963695
 30
0.0
 10
368.6937507973246
 20
227.0286097502243
 30
0.0
  0
SPLINE
  5
3009
330
1A
100
AcDbEntity
  8
SEIHIN
  6
CONTINUOUS
 62
     3
 48
5.0
100
AcDbSpline
210
0.0
220
0.0
230
1.0
 70
    24
 71
     1
 72
     4
 73
     2
 74
     0
 42
0.0000000001
 43
0.0000000001
 40
0.0
 40
0.0
 40
1.0
 40
1.0
 10
365.68413296126
 20
228.8262386263068
 30
0.0
 10
365.6842245482901
 20
228.8251700988143
 30
0.0
  0
SPLINE
  5
300B
330
1A
100
AcDbEntity
  8
SEIHIN
  6
CONTINUOUS
 62
     3
 48
5.0
100
AcDbSpline
210
0.0
220
0.0
230
1.0
 70
     8
 71
     3
 72
    10
 73
     6
 74
     0
 42
0.0000000001
 43
0.0000000001
 40
0.0
 40
0.0
 40
0.0
 40
0.0
 40
0.610142034304171
 40
0.8032750932679935
 40
1.0
 40
1.0
 40
1.0
 40
1.0
 10
363.6842245482901
 20
227.5931820814961
 30
0.0
 10
363.6865024068865
 20
227.3944114915382
 30
0.0
 10
363.6895012939878
 20
227.132722482733
 30
0.0
 10
363.6933609202426
 20
226.8046459672183
 30
0.0
 10
363.6936200425136
 20
226.6766808459266
 30
0.0
 10
363.6937507973245
 20
226.6121087997814
 30
0.0
  0
SPLINE
  5
300C
330
1A
100
AcDbEntity
  8
SEIHIN
  6
CONTINUOUS
 62
     3
 48
5.0
100
AcDbSpline
210
0.0
220
0.0
230
1.0
 70
     8
 71
     3
 72
     9
 73
     5
 74
     0
 42
0.0000000001
 43
0.0000000001
 40
0.0
 40
0.0
 40
0.0
 40
0.0
 40
0.6774352619249512
 40
1.0
 40
1.0
 40
1.0
 40
1.0
 10
370.6746982992556
 20
227.2742781159279
 30
0.0
 10
370.6764090748486
 20
227.4746576838784
 30
0.0
 10
370.6789344461853
 20
227.7704491479676
 30
0.0
 10
370.6826453423047
 20
228.0637593353883
 30
0.0
 10
370.6838423465396
 20
228.1583708591686
 30
0.0
  0
SPLINE
  5
300E
330
1A
100
AcDbEntity
  8
SEIHIN
  6
CONTINUOUS
 62
     3
 48
5.0
100
AcDbSpline
210
0.0
220
0.0
230
1.0
 70
    24
 71
     1
 72
     4
 73
     2
 74
     0
 42
0.0000000001
 43
0.0000000001
 40
0.0
 40
0.0
 40
1.0
 40
1.0
 10
360.68413296126
 20
228.4097376758639
 30
0.0
 10
360.68422454829
 20
228.4086691483714
 30
0.0
  0
SPLINE
  5
301A
330
1A
100
AcDbEntity
  8
SEIHIN
  6
CONTINUOUS
 62
     3
 48
5.0
100
AcDbSpline
210
0.0
220
0.0
230
1.0
 70
    24
 71
     3
 72
     9
 73
     5
 74
     0
 42
0.0000000001
 43
0.0000000001
 40
0.0
 40
0.0
 40
0.0
 40
0.0
 40
0.5038625610349851
 40
1.0
 40
1.0
 40
1.0
 40
1.0
 10
377.6527497384802
 20
229.8221505222371
 30
0.0
 10
377.6624620483128
 20
229.8229595594924
 30
0.0
 10
377.6817377607469
 20
229.8245652300022
 30
0.0
 10
377.683399899183
 20
229.8247036864499
 30
0.0
 10
377.68422454829
 20
229.8247723798772
 30
0.0
  0
SPLINE
  5
301B
330
1A
100
AcDbEntity
  8
SEIHIN
  6
CONTINUOUS
 62
     3
 48
5.0
100
AcDbSpline
210
0.0
220
0.0
230
1.0
 70
     8
 71
     3
 72
    13
 73
     9
 74
     0
 42
0.0000000001
 43
0.0000000001
 40
0.0
 40
0.0
 40
0.0
 40
0.0
 40
0.0021363623433087
 40
0.2999116736675432
 40
0.4518143172912249
 40
0.6075335851997627
 40
0.8262707850156029
 40
1.0
 40
1.0
 40
1.0
 40
1.0
 10
377.68422454829
 20
200.9086691483714
 30
0.0
 10
377.6842217733894
 20
200.9123958764614
 30
0.0
 10
377.6838322209957
 20
201.4355698887147
 30
0.0
 10
377.5592820771699
 20
202.2283990338089
 30
0.0
 10
377.1311890298373
 20
203.2485299829075
 30
0.0
 10
376.5889579838724
 20
204.0912785705604
 30
0.0
 10
375.7971921149994
 20
204.9100381120449
 30
0.0
 10
375.0257230896
 20
205.3129096816663
 30
0.0
 10
374.6842245482901
 20
205.4912448433272
 30
0.0
  0
SPLINE
  5
301C
330
1A
100
AcDbEntity
  8
SEIHIN
  6
CONTINUOUS
 62
     3
 48
5.0
100
AcDbSpline
210
0.0
220
0.0
230
1.0
 70
    24
 71
     1
 72
     4
 73
     2
 74
     0
 42
0.0000000001
 43
0.0000000001
 40
0.0
 40
0.0
 40
1.0
 40
1.0
 10
370.68413296126
 20
229.2427395767497
 30
0.0
 10
370.6842245482901
 20
229.2416710492572
 30
0.0
  0
LINE
  5
3089
330
1A
100
AcDbEntity
  8
SEIHIN
  6
CONTINUOUS
 62
     3
 48
5.0
100
AcDbLine
 10
377.1842245482819
 20
158.053026204798
 30
0.0
 11
377.1842245482819
 21
203.059881528698
 31
0.0
  0
LINE
  5
308A
330
1A
100
AcDbEntity
  8
SEIHIN
  6
CONTINUOUS
 62
     3
 48
5.0
100
AcDbLine
 10
385.6842245482819
 20
194.941235056698
 30
0.0
 11
385.6842245482819
 21
204.824772379898
 31
0.0
  0
LINE
  5
308B
330
1A
100
AcDbEntity
  8
SEIHIN
  6
CONTINUOUS
 62
     3
 48
5.0
100
AcDbLine
 10
377.6842245482819
 20
196.917942521298
 30
0.0
 11
377.6842245482819
 21
204.824772379898
 31
0.0
  0
LINE
  5
308E
330
1A
100
AcDbEntity
  8
SEIHIN
  6
CONTINUOUS
 62
     3
 48
5.0
100
AcDbLine
 10
377.6842245482819
 20
163.621901626098
 30
0.0
 11
377.6842245482819
 21
182.0926365364979
 31
0.0
  0
LINE
  5
308F
330
1A
100
AcDbEntity
  8
SEIHIN
  6
CONTINUOUS
 62
     3
 48
5.0
100
AcDbLine
 10
385.6842245482819
 20
182.0926365364979
 30
0.0
 11
385.6842245482819
 21
163.621901626098
 31
0.0
  0
ARC
  5
3091
330
1A
100
AcDbEntity
  8
SEIHIN
  6
CONTINUOUS
 62
     3
 48
5.0
100
AcDbCircle
 10
379.682855022082
 20
158.380467974298
 30
0.0
 40
1.998630944352149
100
AcDbArc
 50
180.0393147922012
 51
270.039260912699
  0
LINE
  5
3092
330
1A
100
AcDbEntity
  8
SEIHIN
  6
CONTINUOUS
 62
     3
 48
5.0
100
AcDbLine
 10
377.6842245482819
 20
158.3790965686979
 30
0.0
 11
377.6842245482819
 21
163.621901626098
 31
0.0
  0
LINE
  5
3095
330
1A
100
AcDbEntity
  8
SEIHIN
  6
CONTINUOUS
 62
     3
 48
5.0
100
AcDbLine
 10
377.6842245482819
 20
158.364696809598
 30
0.0
 11
377.6842245482819
 21
158.3790965686979
 31
0.0
  0
LINE
  5
3097
330
1A
100
AcDbEntity
  8
SEIHIN
  6
CONTINUOUS
 62
     3
 48
5.0
100
AcDbLine
 10
377.1842245482819
 20
157.826601523798
 30
0.0
 11
377.1842245482819
 21
158.053026204798
 31
0.0
  0
LINE
  5
309A
330
1A
100
AcDbEntity
  8
SEIHIN
  6
CONTINUOUS
 62
     3
 48
5.0
100
AcDbLine
 10
379.1842245482819
 20
155.824772379898
 30
0.0
 11
385.6842245482819
 21
155.824772379898
 31
0.0
  0
LINE
  5
309C
330
1A
100
AcDbEntity
  8
SEIHIN
  6
CONTINUOUS
 62
     3
 48
5.0
100
AcDbLine
 10
385.6842245482819
 20
163.621901626098
 30
0.0
 11
385.6842245482819
 21
156.381837499098
 31
0.0
  0
LINE
  5
30A1
330
1A
100
AcDbEntity
  8
SEIHIN
  6
CONTINUOUS
 62
     3
 48
5.0
100
AcDbLine
 10
385.6842245482819
 20
156.381837499098
 30
0.0
 11
385.6842245482819
 21
155.824772379898
 31
0.0
  0
LINE
  5
30A2
330
1A
100
AcDbEntity
  8
SEIHIN
  6
CONTINUOUS
 62
     3
 48
5.0
100
AcDbLine
 10
379.6842245482819
 20
156.381837499098
 30
0.0
 11
385.6842245482819
 21
156.381837499098
 31
0.0
  0
LINE
  5
30A3
330
1A
100
AcDbEntity
  8
SEIHIN
  6
CONTINUOUS
 62
     3
 48
5.0
100
AcDbLine
 10
377.6842245482819
 20
182.0926365364979
 30
0.0
 11
377.6842245482819
 21
196.917942521298
 31
0.0
  0
LINE
  5
30A5
330
1A
100
AcDbEntity
  8
SEIHIN
  6
CONTINUOUS
 62
     3
 48
5.0
100
AcDbLine
 10
385.6842245482819
 20
182.0926365364979
 30
0.0
 11
385.6842245482819
 21
194.941235056698
 31
0.0
  0
LINE
  5
30AB
330
1A
100
AcDbEntity
  8
SEIHIN
  6
CONTINUOUS
 62
     3
 48
5.0
100
AcDbLine
 10
358.693750797282
 20
226.195607849298
 30
0.0
 11
358.693750797282
 21
205.908669148398
 31
0.0
  0
LINE
  5
30B3
330
1A
100
AcDbEntity
  8
SEIHIN
  6
CONTINUOUS
 62
     3
 48
5.0
100
AcDbLine
 10
363.693750797282
 20
226.612108799798
 30
0.0
 11
363.693750797282
 21
205.908669148398
 31
0.0
  0
LINE
  5
30B5
330
1A
100
AcDbEntity
  8
SEIHIN
  6
CONTINUOUS
 62
     3
 48
5.0
100
AcDbLine
 10
360.674698299282
 20
205.908669148398
 30
0.0
 11
360.674698299282
 21
226.441276214998
 31
0.0
  0
LINE
  5
30B6
330
1A
100
AcDbEntity
  8
SEIHIN
  6
CONTINUOUS
 62
     3
 48
5.0
100
AcDbLine
 10
377.6842245482819
 20
204.824772379898
 30
0.0
 11
377.6842245482819
 21
219.824772379898
 31
0.0
  0
LINE
  5
30B9
330
1A
100
AcDbEntity
  8
SEIHIN
  6
CONTINUOUS
 62
     3
 48
5.0
100
AcDbLine
 10
365.674698299282
 20
205.908669148398
 30
0.0
 11
365.674698299282
 21
226.857777165498
 31
0.0
  0
LINE
  5
30BA
330
1A
100
AcDbEntity
  8
SEIHIN
  6
CONTINUOUS
 62
     3
 48
5.0
100
AcDbLine
 10
385.6842245482819
 20
204.824772379898
 30
0.0
 11
385.6842245482819
 21
219.824772379898
 31
0.0
  0
LINE
  5
30BB
330
1A
100
AcDbEntity
  8
SEIHIN
  6
CONTINUOUS
 62
     3
 48
5.0
100
AcDbLine
 10
368.693750797282
 20
227.028609750198
 30
0.0
 11
368.693750797282
 21
205.908669148398
 31
0.0
  0
LINE
  5
30BE
330
1A
100
AcDbEntity
  8
SEIHIN
  6
CONTINUOUS
 62
     3
 48
5.0
100
AcDbLine
 10
370.6746982992819
 20
205.908669148398
 30
0.0
 11
370.6746982992819
 21
227.274278115898
 31
0.0
  0
LINE
  5
30C1
330
1A
100
AcDbEntity
  8
SEIHIN
  6
CONTINUOUS
 62
     3
 48
5.0
100
AcDbLine
 10
370.3842245482821
 20
205.408669148398
 30
0.0
 11
368.9842245482821
 21
205.408669148398
 31
0.0
  0
LINE
  5
30C2
330
1A
100
AcDbEntity
  8
SEIHIN
  6
CONTINUOUS
 62
     3
 48
5.0
100
AcDbLine
 10
361.158821217482
 20
205.908669148398
 30
0.0
 11
363.209627879082
 21
205.908669148398
 31
0.0
  0
ARC
  5
30C4
330
1A
100
AcDbEntity
  8
SEIHIN
  6
CONTINUOUS
 62
     3
 48
5.0
100
AcDbCircle
 10
360.3842245482821
 20
205.708669148398
 30
0.0
 40
0.3000000000000114
100
AcDbArc
 50
270.0
 51
0.0
  0
LINE
  5
30C6
330
1A
100
AcDbEntity
  8
SEIHIN
  6
CONTINUOUS
 62
     3
 48
5.0
100
AcDbLine
 10
358.6842245482819
 20
205.708669148398
 30
0.0
 11
358.6842245482819
 21
205.908669148398
 31
0.0
  0
LINE
  5
30CA
330
1A
100
AcDbEntity
  8
SEIHIN
  6
CONTINUOUS
 62
     3
 48
5.0
100
AcDbLine
 10
360.3842245482821
 20
205.408669148398
 30
0.0
 11
358.9842245482821
 21
205.408669148398
 31
0.0
  0
ARC
  5
30CB
330
1A
100
AcDbEntity
  8
SEIHIN
  6
CONTINUOUS
 62
     3
 48
5.0
100
AcDbCircle
 10
358.9842245482821
 20
205.708669148398
 30
0.0
 40
0.3000000000000114
100
AcDbArc
 50
180.0
 51
270.0
  0
LINE
  5
30CC
330
1A
100
AcDbEntity
  8
SEIHIN
  6
CONTINUOUS
 62
     3
 48
5.0
100
AcDbLine
 10
358.693750797282
 20
205.908669148398
 30
0.0
 11
358.209627879082
 21
205.908669148398
 31
0.0
  0
LINE
  5
30CD
330
1A
100
AcDbEntity
  8
SEIHIN
  6
CONTINUOUS
 62
     3
 48
5.0
100
AcDbLine
 10
361.158821217482
 20
205.908669148398
 30
0.0
 11
360.674698299282
 21
205.908669148398
 31
0.0
  0
LINE
  5
30CE
330
1A
100
AcDbEntity
  8
SEIHIN
  6
CONTINUOUS
 62
     3
 48
5.0
100
AcDbLine
 10
360.6842245482819
 20
205.908669148398
 30
0.0
 11
360.6842245482819
 21
205.708669148398
 31
0.0
  0
LINE
  5
30CF
330
1A
100
AcDbEntity
  8
SEIHIN
  6
CONTINUOUS
 62
     3
 48
5.0
100
AcDbLine
 10
366.158821217482
 20
205.908669148398
 30
0.0
 11
368.209627879082
 21
205.908669148398
 31
0.0
  0
LINE
  5
30D0
330
1A
100
AcDbEntity
  8
SEIHIN
  6
CONTINUOUS
 62
     3
 48
5.0
100
AcDbLine
 10
368.693750797282
 20
205.908669148398
 30
0.0
 11
368.209627879082
 21
205.908669148398
 31
0.0
  0
ARC
  5
30D2
330
1A
100
AcDbEntity
  8
SEIHIN
  6
CONTINUOUS
 62
     3
 48
5.0
100
AcDbCircle
 10
363.984224548282
 20
205.708669148398
 30
0.0
 40
0.3000000000000114
100
AcDbArc
 50
180.0
 51
270.0
  0
LINE
  5
30D4
330
1A
100
AcDbEntity
  8
SEIHIN
  6
CONTINUOUS
 62
     3
 48
5.0
100
AcDbLine
 10
363.693750797282
 20
205.908669148398
 30
0.0
 11
363.209627879082
 21
205.908669148398
 31
0.0
  0
LINE
  5
30D5
330
1A
100
AcDbEntity
  8
SEIHIN
  6
CONTINUOUS
 62
     3
 48
5.0
100
AcDbLine
 10
366.158821217482
 20
205.908669148398
 30
0.0
 11
365.674698299282
 21
205.908669148398
 31
0.0
  0
LINE
  5
30D8
330
1A
100
AcDbEntity
  8
SEIHIN
  6
CONTINUOUS
 62
     3
 48
5.0
100
AcDbLine
 10
363.6842245482819
 20
205.708669148398
 30
0.0
 11
363.6842245482819
 21
205.908669148398
 31
0.0
  0
ARC
  5
30D9
330
1A
100
AcDbEntity
  8
SEIHIN
  6
CONTINUOUS
 62
     3
 48
5.0
100
AcDbCircle
 10
368.9842245482821
 20
205.708669148398
 30
0.0
 40
0.3000000000000114
100
AcDbArc
 50
180.0
 51
270.0
  0
ARC
  5
30DB
330
1A
100
AcDbEntity
  8
SEIHIN
  6
CONTINUOUS
 62
     3
 48
5.0
100
AcDbCircle
 10
365.3842245482822
 20
205.708669148398
 30
0.0
 40
0.3000000000000114
100
AcDbArc
 50
270.0
 51
0.0
  0
LINE
  5
30DC
330
1A
100
AcDbEntity
  8
SEIHIN
  6
CONTINUOUS
 62
     3
 48
5.0
100
AcDbLine
 10
365.6842245482819
 20
205.908669148398
 30
0.0
 11
365.6842245482819
 21
205.708669148398
 31
0.0
  0
LINE
  5
30DD
330
1A
100
AcDbEntity
  8
SEIHIN
  6
CONTINUOUS
 62
     3
 48
5.0
100
AcDbLine
 10
365.3842245482822
 20
205.408669148398
 30
0.0
 11
363.984224548282
 21
205.408669148398
 31
0.0
  0
LINE
  5
30DF
330
1A
100
AcDbEntity
  8
SEIHIN
  6
CONTINUOUS
 62
     3
 48
5.0
100
AcDbLine
 10
368.6842245482819
 20
205.708669148398
 30
0.0
 11
368.6842245482819
 21
205.908669148398
 31
0.0
  0
LINE
  5
30E2
330
1A
100
AcDbEntity
  8
SEIHIN
  6
CONTINUOUS
 62
     3
 48
5.0
100
AcDbLine
 10
371.158821217482
 20
205.908669148398
 30
0.0
 11
372.6842245482819
 21
205.908669148398
 31
0.0
  0
ARC
  5
30E3
330
1A
100
AcDbEntity
  8
SEIHIN
  6
CONTINUOUS
 62
     3
 48
5.0
100
AcDbCircle
 10
372.6842245482819
 20
200.908669148398
 30
0.0
 40
5.000000000000002
100
AcDbArc
 50
66.42182152179947
 51
90.0
  0
LINE
  5
30E4
330
1A
100
AcDbEntity
  8
SEIHIN
  6
CONTINUOUS
 62
     3
 48
5.0
100
AcDbLine
 10
371.158821217482
 20
205.908669148398
 30
0.0
 11
370.6746982992819
 21
205.908669148398
 31
0.0
  0
LINE
  5
30E6
330
1A
100
AcDbEntity
  8
SEIHIN
  6
CONTINUOUS
 62
     3
 48
5.0
100
AcDbLine
 10
370.6842245482819
 20
205.908669148398
 30
0.0
 11
370.6842245482819
 21
205.708669148398
 31
0.0
  0
ARC
  5
30E7
330
1A
100
AcDbEntity
  8
SEIHIN
  6
CONTINUOUS
 62
     3
 48
5.0
100
AcDbCircle
 10
370.3842245482821
 20
205.708669148398
 30
0.0
 40
0.3000000000000114
100
AcDbArc
 50
270.0
 51
0.0
  0
ARC
  5
30EA
330
1A
100
AcDbEntity
  8
SEIHIN
  6
CONTINUOUS
 62
     3
 48
5.0
100
AcDbCircle
 10
370.1588385426819
 20
231.858370859198
 30
0.0
 40
0.300000000000026
100
AcDbArc
 50
4.899037054999578
 51
90.0
  0
LINE
  5
30EF
330
1A
100
AcDbEntity
  8
SEIHIN
  6
CONTINUOUS
 62
     3
 48
5.0
100
AcDbLine
 10
358.684283111082
 20
228.242791035098
 30
0.0
 11
358.911865795982
 21
231.049613977798
 31
0.0
  0
LINE
  5
30F2
330
1A
100
AcDbEntity
  8
SEIHIN
  6
CONTINUOUS
 62
     3
 48
5.0
100
AcDbLine
 10
360.4577425621821
 20
231.050989011698
 30
0.0
 11
360.6841329612821
 21
228.409737675898
 31
0.0
  0
LINE
  5
30F4
330
1A
100
AcDbEntity
  8
SEIHIN
  6
CONTINUOUS
 62
     3
 48
5.0
100
AcDbLine
 10
368.6842831110821
 20
229.075792935998
 30
0.0
 11
368.911865795982
 21
231.882615878698
 31
0.0
  0
LINE
  5
30F5
330
1A
100
AcDbEntity
  8
SEIHIN
  6
CONTINUOUS
 62
     3
 48
5.0
100
AcDbLine
 10
363.6842831110821
 20
228.659291985598
 30
0.0
 11
363.911865795982
 21
231.466114928298
 31
0.0
  0
LINE
  5
30F6
330
1A
100
AcDbEntity
  8
SEIHIN
  6
CONTINUOUS
 62
     3
 48
5.0
100
AcDbLine
 10
365.4577425621821
 20
231.467489962098
 30
0.0
 11
365.6841329612821
 21
228.8262386262979
 31
0.0
  0
LINE
  5
30F7
330
1A
100
AcDbEntity
  8
SEIHIN
  6
CONTINUOUS
 62
     3
 48
5.0
100
AcDbLine
 10
361.1813063518821
 20
228.450076157098
 30
0.0
 11
363.2616368407821
 21
228.6233680822979
 31
0.0
  0
ARC
  5
30FA
330
1A
100
AcDbEntity
  8
SEIHIN
  6
CONTINUOUS
 62
     3
 48
5.0
100
AcDbCircle
 10
358.220130501382
 20
228.705141377398
 30
0.0
 40
0.5000000000000413
100
AcDbArc
 50
274.761755813793
 51
355.3644869624017
  0
LINE
  5
30FC
330
1A
100
AcDbEntity
  8
SEIHIN
  6
CONTINUOUS
 62
     3
 48
5.0
100
AcDbLine
 10
358.6842245482819
 20
227.176681131098
 30
0.0
 11
358.6842245482819
 21
227.325368958298
 31
0.0
  0
LINE
  5
3104
330
1A
100
AcDbEntity
  8
SEIHIN
  6
CONTINUOUS
 62
     3
 48
5.0
100
AcDbLine
 10
358.6842245482819
 20
227.325368958298
 30
0.0
 11
358.6842245482819
 21
228.242068768198
 31
0.0
  0
ARC
  5
3107
330
1A
100
AcDbEntity
  8
SEIHIN
  6
CONTINUOUS
 62
     3
 48
5.0
100
AcDbCircle
 10
361.1398000125821
 20
228.948350402698
 30
0.0
 40
0.500000000000026
100
AcDbArc
 50
184.8990370550028
 51
274.7617558137995
  0
LINE
  5
310B
330
1A
100
AcDbEntity
  8
SEIHIN
  6
CONTINUOUS
 62
     3
 48
5.0
100
AcDbLine
 10
360.6842245482819
 20
228.408669148398
 30
0.0
 11
360.6842245482819
 21
227.430064230998
 31
0.0
  0
ARC
  5
310C
330
1A
100
AcDbEntity
  8
SEIHIN
  6
CONTINUOUS
 62
     3
 48
5.0
100
AcDbCircle
 10
366.1398000125821
 20
229.364851353098
 30
0.0
 40
0.5000000000000212
100
AcDbArc
 50
184.8990370549963
 51
274.7617558137995
  0
ARC
  5
310D
330
1A
100
AcDbEntity
  8
SEIHIN
  6
CONTINUOUS
 62
     3
 48
5.0
100
AcDbCircle
 10
363.220130501382
 20
229.121642327798
 30
0.0
 40
0.4999999999999847
100
AcDbArc
 50
274.761755813793
 51
355.3644869623946
  0
ARC
  5
310E
330
1A
100
AcDbEntity
  8
SEIHIN
  6
CONTINUOUS
 62
     3
 48
5.0
100
AcDbCircle
 10
368.220130501382
 20
229.538143278298
 30
0.0
 40
0.4999999999999847
100
AcDbArc
 50
274.761755813793
 51
355.3644869624017
  0
LINE
  5
3112
330
1A
100
AcDbEntity
  8
SEIHIN
  6
CONTINUOUS
 62
     3
 48
5.0
100
AcDbLine
 10
366.181306351882
 20
228.866577107498
 30
0.0
 11
368.2616368407821
 21
229.039869032698
 31
0.0
  0
LINE
  5
3116
330
1A
100
AcDbEntity
  8
SEIHIN
  6
CONTINUOUS
 62
     3
 48
5.0
100
AcDbLine
 10
363.6842245482819
 20
227.7418699086979
 30
0.0
 11
363.6842245482819
 21
228.658569718598
 31
0.0
  0
LINE
  5
3117
330
1A
100
AcDbEntity
  8
SEIHIN
  6
CONTINUOUS
 62
     3
 48
5.0
100
AcDbLine
 10
368.6842245482819
 20
228.158370859198
 30
0.0
 11
368.6842245482819
 21
229.075070669098
 31
0.0
  0
LINE
  5
311D
330
1A
100
AcDbEntity
  8
SEIHIN
  6
CONTINUOUS
 62
     3
 48
5.0
100
AcDbLine
 10
365.6842245482819
 20
228.825170098798
 30
0.0
 11
365.6842245482819
 21
227.846565181198
 31
0.0
  0
ARC
  5
312A
330
1A
100
AcDbEntity
  8
SEIHIN
  6
CONTINUOUS
 62
     3
 48
5.0
100
AcDbCircle
 10
360.1588385426818
 20
231.025368958298
 30
0.0
 40
0.300000000000026
100
AcDbArc
 50
4.899037054999578
 51
90.0
  0
LINE
  5
312B
330
1A
100
AcDbEntity
  8
SEIHIN
  6
CONTINUOUS
 62
     3
 48
5.0
100
AcDbLine
 10
359.2108844894821
 20
231.325368958298
 30
0.0
 11
360.1588385426818
 21
231.325368958298
 31
0.0
  0
ARC
  5
312C
330
1A
100
AcDbEntity
  8
SEIHIN
  6
CONTINUOUS
 62
     3
 48
5.0
100
AcDbCircle
 10
359.2108844894821
 20
231.025368958298
 30
0.0
 40
0.3000000000000114
100
AcDbArc
 50
90.0
 51
175.3644869623914
  0
LINE
  5
312D
330
1A
100
AcDbEntity
  8
SEIHIN
  6
CONTINUOUS
 62
     3
 48
5.0
100
AcDbLine
 10
364.2108844894821
 20
231.7418699086979
 30
0.0
 11
365.1588385426819
 21
231.7418699086979
 31
0.0
  0
ARC
  5
312E
330
1A
100
AcDbEntity
  8
SEIHIN
  6
CONTINUOUS
 62
     3
 48
5.0
100
AcDbCircle
 10
369.2108844894821
 20
231.858370859198
 30
0.0
 40
0.3000000000000114
100
AcDbArc
 50
90.0
 51
175.3644869624049
  0
ARC
  5
312F
330
1A
100
AcDbEntity
  8
SEIHIN
  6
CONTINUOUS
 62
     3
 48
5.0
100
AcDbCircle
 10
364.2108844894821
 20
231.441869908698
 30
0.0
 40
0.2999999999999545
100
AcDbArc
 50
90.0
 51
175.3644869624049
  0
LINE
  5
3130
330
1A
100
AcDbEntity
  8
SEIHIN
  6
CONTINUOUS
 62
     3
 48
5.0
100
AcDbLine
 10
369.2108844894821
 20
232.1583708591979
 30
0.0
 11
370.1588385426819
 21
232.1583708591979
 31
0.0
  0
ARC
  5
3131
330
1A
100
AcDbEntity
  8
SEIHIN
  6
CONTINUOUS
 62
     3
 48
5.0
100
AcDbCircle
 10
365.1588385426819
 20
231.441869908698
 30
0.0
 40
0.300000000000026
100
AcDbArc
 50
4.899037054999578
 51
90.0
  0
LINE
  5
3132
330
1A
100
AcDbEntity
  8
SEIHIN
  6
CONTINUOUS
 62
     3
 48
5.0
100
AcDbLine
 10
370.4577425621821
 20
231.8839909125979
 30
0.0
 11
370.6841329612821
 21
229.2427395767979
 31
0.0
  0
ARC
  5
3133
330
1A
100
AcDbEntity
  8
SEIHIN
  6
CONTINUOUS
 62
     3
 48
5.0
100
AcDbCircle
 10
379.6842245482819
 20
227.824772379898
 30
0.0
 40
2.000000000000056
100
AcDbArc
 50
90.0
 51
180.0
  0
LINE
  5
3134
330
1A
100
AcDbEntity
  8
SEIHIN
  6
CONTINUOUS
 62
     3
 48
5.0
100
AcDbLine
 10
377.6842245482819
 20
229.824772379898
 30
0.0
 11
379.6842245482819
 21
229.824772379898
 31
0.0
  0
ARC
  5
3136
330
1A
100
AcDbEntity
  8
SEIHIN
  6
CONTINUOUS
 62
     3
 48
5.0
100
AcDbCircle
 10
371.1398000125821
 20
229.7813523035979
 30
0.0
 40
0.4999999999999646
100
AcDbArc
 50
184.8990370549963
 51
274.7617558137995
  0
LINE
  5
313B
330
1A
100
AcDbEntity
  8
SEIHIN
  6
CONTINUOUS
 62
     3
 48
5.0
100
AcDbLine
 10
371.1813063518821
 20
229.283078057998
 30
0.0
 11
374.518199190782
 21
229.561041865798
 31
0.0
  0
LINE
  5
313F
330
1A
100
AcDbEntity
  8
SEIHIN
  6
CONTINUOUS
 62
     3
 48
5.0
100
AcDbLine
 10
377.6842245482819
 20
219.824772379898
 30
0.0
 11
377.6842245482819
 21
227.824772379898
 31
0.0
  0
LINE
  5
3140
330
1A
100
AcDbEntity
  8
SEIHIN
  6
CONTINUOUS
 62
     3
 48
5.0
100
AcDbLine
 10
374.518199190782
 20
229.561041865798
 30
0.0
 11
377.652749738482
 21
229.822150522198
 31
0.0
  0
LINE
  5
3146
330
1A
100
AcDbEntity
  8
SEIHIN
  6
CONTINUOUS
 62
     3
 48
5.0
100
AcDbLine
 10
385.6842245482819
 20
229.824772379898
 30
0.0
 11
385.6842245482819
 21
219.824772379898
 31
0.0
  0
LINE
  5
3148
330
1A
100
AcDbEntity
  8
SEIHIN
  6
CONTINUOUS
 62
     3
 48
5.0
100
AcDbLine
 10
379.6842245482819
 20
229.824772379898
 30
0.0
 11
385.6842245482819
 21
229.824772379898
 31
0.0
  0
LINE
  5
32E9
330
1A
100
AcDbEntity
  8
SEIHIN
  6
CONTINUOUS
 62
     3
 48
5.0
100
AcDbLine
 10
377.6842245482819
 20
346.6925937248019
 30
0.0
 11
377.6842245482819
 21
354.6925937248019
 31
0.0
  0
LINE
  5
32EA
330
1A
100
AcDbEntity
  8
SEIHIN
  6
CONTINUOUS
 62
     3
 48
5.0
100
AcDbLine
 10
385.6842245482819
 20
354.6925937248019
 30
0.0
 11
385.6842245482819
 21
344.692593724802
 31
0.0
  0
ARC
  5
32EC
330
1A
100
AcDbEntity
  8
SEIHIN
  6
CONTINUOUS
 62
     3
 48
5.0
100
AcDbCircle
 10
379.6842245482819
 20
346.6925937248019
 30
0.0
 40
2.0
100
AcDbArc
 50
180.0
 51
270.0
  0
LINE
  5
32ED
330
1A
100
AcDbEntity
  8
SEIHIN
  6
CONTINUOUS
 62
     3
 48
5.0
100
AcDbLine
 10
385.6842245482819
 20
344.692593724802
 30
0.0
 11
379.6842245482819
 21
344.692593724802
 31
0.0
  0
LINE
  5
32F1
330
1A
100
AcDbEntity
  8
SEIHIN
  6
CONTINUOUS
 62
     3
 48
5.0
100
AcDbLine
 10
385.6842245482819
 20
408.6925937248018
 30
0.0
 11
385.6842245482819
 21
354.6925937248019
 31
0.0
  0
ARC
  5
32FF
330
1A
100
AcDbEntity
  8
SEIHIN
  6
CONTINUOUS
 62
     3
 48
5.0
100
AcDbCircle
 10
374.6842245482819
 20
400.9425937248018
 30
0.0
 40
3.000000000000028
100
AcDbArc
 50
270.0
 51
308.0705447387988
  0
LINE
  5
3309
330
1A
100
AcDbEntity
  8
SEIHIN
  6
CONTINUOUS
 62
     3
 48
5.0
100
AcDbLine
 10
358.7184949904819
 20
398.5425937248019
 30
0.0
 11
358.7184949904819
 21
364.8425937248019
 31
0.0
  0
LINE
  5
3311
330
1A
100
AcDbEntity
  8
SEIHIN
  6
CONTINUOUS
 62
     3
 48
5.0
100
AcDbLine
 10
368.7184949904822
 20
398.5425937248019
 30
0.0
 11
368.7184949904819
 21
364.8425937248019
 31
0.0
  0
LINE
  5
3312
330
1A
100
AcDbEntity
  8
SEIHIN
  6
CONTINUOUS
 62
     3
 48
5.0
100
AcDbLine
 10
370.641626646782
 20
364.8425937248018
 30
0.0
 11
370.6416266467822
 21
398.5425937248018
 31
0.0
  0
LINE
  5
331C
330
1A
100
AcDbEntity
  8
SEIHIN
  6
CONTINUOUS
 62
     3
 48
5.0
100
AcDbLine
 10
363.718494990482
 20
398.5425937248019
 30
0.0
 11
363.718494990482
 21
364.8425937248019
 31
0.0
  0
LINE
  5
331D
330
1A
100
AcDbEntity
  8
SEIHIN
  6
CONTINUOUS
 62
     3
 48
5.0
100
AcDbLine
 10
365.641626646782
 20
364.8425937248018
 30
0.0
 11
365.641626646782
 21
398.5425937248018
 31
0.0
  0
LINE
  5
331E
330
1A
100
AcDbEntity
  8
SEIHIN
  6
CONTINUOUS
 62
     3
 48
5.0
100
AcDbLine
 10
360.6416266467817
 20
364.8425937248018
 30
0.0
 11
360.6416266467817
 21
398.5425937248018
 31
0.0
  0
LINE
  5
3320
330
1A
100
AcDbEntity
  8
SEIHIN
  6
CONTINUOUS
 62
     3
 48
5.0
100
AcDbLine
 10
370.641626646782
 20
364.8425937248018
 30
0.0
 11
368.7184949904819
 21
364.8425937248019
 31
0.0
  0
LINE
  5
3321
330
1A
100
AcDbEntity
  8
SEIHIN
  6
CONTINUOUS
 62
     3
 48
5.0
100
AcDbLine
 10
363.718494990482
 20
365.4425937248019
 30
0.0
 11
360.641626646782
 21
365.4425937248019
 31
0.0
  0
LINE
  5
332E
330
1A
100
AcDbEntity
  8
SEIHIN
  6
CONTINUOUS
 62
     3
 48
5.0
100
AcDbLine
 10
360.6416266467817
 20
364.8425937248018
 30
0.0
 11
358.7184949904819
 21
364.8425937248019
 31
0.0
  0
LINE
  5
334D
330
1A
100
AcDbEntity
  8
SEIHIN
  6
CONTINUOUS
 62
     3
 48
5.0
100
AcDbLine
 10
368.7184949904822
 20
365.4425937248019
 30
0.0
 11
365.641626646782
 21
365.4425937248019
 31
0.0
  0
LINE
  5
3353
330
1A
100
AcDbEntity
  8
SEIHIN
  6
CONTINUOUS
 62
     3
 48
5.0
100
AcDbLine
 10
365.641626646782
 20
364.8425937248018
 30
0.0
 11
363.718494990482
 21
364.8425937248019
 31
0.0
  0
ARC
  5
3354
330
1A
100
AcDbEntity
  8
SEIHIN
  6
CONTINUOUS
 62
     3
 48
5.0
100
AcDbCircle
 10
374.6842245482819
 20
362.4425937248019
 30
0.0
 40
3.0
100
AcDbArc
 50
0.0
 51
51.9294552612012
  0
LINE
  5
3358
330
1A
100
AcDbEntity
  8
SEIHIN
  6
CONTINUOUS
 62
     3
 48
5.0
100
AcDbLine
 10
377.6842245482819
 20
354.6925937248019
 30
0.0
 11
377.6842245482819
 21
362.4425937248019
 31
0.0
  0
ARC
  5
335E
330
1A
100
AcDbEntity
  8
SEIHIN
  6
CONTINUOUS
 62
     3
 48
5.0
100
AcDbCircle
 10
374.6842245482819
 20
362.4425937248019
 30
0.0
 40
2.999999999999978
100
AcDbArc
 50
51.9294552612012
 51
90.0
  0
LINE
  5
3360
330
1A
100
AcDbEntity
  8
SEIHIN
  6
CONTINUOUS
 62
     3
 48
5.0
100
AcDbLine
 10
374.6842245482819
 20
365.4425937248019
 30
0.0
 11
370.641626646782
 21
365.4425937248019
 31
0.0
  0
LINE
  5
336A
330
1A
100
AcDbEntity
  8
SEIHIN
  6
CONTINUOUS
 62
     3
 48
5.0
100
AcDbLine
 10
360.641626646782
 20
397.9425937248019
 30
0.0
 11
363.718494990482
 21
397.9425937248019
 31
0.0
  0
LINE
  5
3372
330
1A
100
AcDbEntity
  8
SEIHIN
  6
CONTINUOUS
 62
     3
 48
5.0
100
AcDbLine
 10
365.641626646782
 20
397.9425937248019
 30
0.0
 11
368.7184949904824
 21
397.9425937248019
 31
0.0
  0
LINE
  5
337F
330
1A
100
AcDbEntity
  8
SEIHIN
  6
CONTINUOUS
 62
     3
 48
5.0
100
AcDbLine
 10
370.6416266467822
 20
397.9425937248019
 30
0.0
 11
374.6842245482819
 21
397.9425937248019
 31
0.0
  0
LINE
  5
3385
330
1A
100
AcDbEntity
  8
SEIHIN
  6
CONTINUOUS
 62
     3
 48
5.0
100
AcDbLine
 10
368.7184949904822
 20
398.5425937248019
 30
0.0
 11
370.6416266467822
 21
398.5425937248018
 31
0.0
  0
LINE
  5
3387
330
1A
100
AcDbEntity
  8
SEIHIN
  6
CONTINUOUS
 62
     3
 48
5.0
100
AcDbLine
 10
358.7184949904819
 20
398.5425937248019
 30
0.0
 11
360.6416266467817
 21
398.5425937248018
 31
0.0
  0
LINE
  5
3390
330
1A
100
AcDbEntity
  8
SEIHIN
  6
CONTINUOUS
 62
     3
 48
5.0
100
AcDbLine
 10
363.718494990482
 20
398.5425937248019
 30
0.0
 11
365.641626646782
 21
398.5425937248018
 31
0.0
  0
LINE
  5
3392
330
1A
100
AcDbEntity
  8
SEIHIN
  6
CONTINUOUS
 62
     3
 48
5.0
100
AcDbLine
 10
377.6842245482819
 20
408.6925937248018
 30
0.0
 11
377.6842245482819
 21
416.6925937248018
 31
0.0
  0
LINE
  5
3393
330
1A
100
AcDbEntity
  8
SEIHIN
  6
CONTINUOUS
 62
     3
 48
5.0
100
AcDbLine
 10
385.6842245482819
 20
418.6925937248019
 30
0.0
 11
385.6842245482819
 21
408.6925937248018
 31
0.0
  0
ARC
  5
3398
330
1A
100
AcDbEntity
  8
SEIHIN
  6
CONTINUOUS
 62
     3
 48
5.0
100
AcDbCircle
 10
374.6842245482819
 20
400.9425937248018
 30
0.0
 40
3.000000000000035
100
AcDbArc
 50
308.0705447387988
 51
0.0
  0
LINE
  5
339A
330
1A
100
AcDbEntity
  8
SEIHIN
  6
CONTINUOUS
 62
     3
 48
5.0
100
AcDbLine
 10
377.6842245482819
 20
400.9425937248018
 30
0.0
 11
377.6842245482819
 21
408.6925937248018
 31
0.0
  0
ARC
  5
339D
330
1A
100
AcDbEntity
  8
SEIHIN
  6
CONTINUOUS
 62
     3
 48
5.0
100
AcDbCircle
 10
379.6842245482819
 20
416.6925937248018
 30
0.0
 40
2.000000000000028
100
AcDbArc
 50
90.0
 51
180.0
  0
LINE
  5
339E
330
1A
100
AcDbEntity
  8
SEIHIN
  6
CONTINUOUS
 62
     3
 48
5.0
100
AcDbLine
 10
379.6842245482819
 20
418.6925937248019
 30
0.0
 11
385.6842245482819
 21
418.6925937248019
 31
0.0
  0
LINE
  5
339F
330
1A
100
AcDbEntity
  8
CENTER_L
  6
CENTER
 62
     1
 48
5.0
100
AcDbLine
 10
278.056400539432
 20
162.3713213323407
 30
0.0
 11
278.056400539432
 21
211.0233489190568
 31
0.0
  0
LINE
  5
33A0
330
1A
100
AcDbEntity
  8
SEIHIN
  6
CONTINUOUS
 62
     3
 48
5.0
100
AcDbLine
 10
283.0564155394045
 20
202.4086691483979
 30
0.0
 11
273.0564155394044
 21
202.4086691483979
 31
0.0
  0
LINE
  5
33A1
330
1A
100
AcDbEntity
  8
SEIHIN
  6
CONTINUOUS
 62
     3
 48
5.0
100
AcDbLine
 10
285.4638155394045
 20
167.4987608982236
 30
0.0
 11
284.8122155394046
 21
167.2380608982236
 31
0.0
  0
LINE
  5
33A2
330
1A
100
AcDbEntity
  8
SEIHIN
  6
CONTINUOUS
 62
     3
 48
5.0
100
AcDbLine
 10
283.1127155394046
 20
172.1092608982236
 30
0.0
 11
282.7334155394045
 21
171.4769608982237
 31
0.0
  0
LINE
  5
33A3
330
1A
100
AcDbEntity
  8
SEIHIN
  6
CONTINUOUS
 62
     3
 48
5.0
100
AcDbLine
 10
281.0563155394046
 20
169.4590608982236
 30
0.0
 11
281.0563155394046
 21
171.4586608982237
 31
0.0
  0
LINE
  5
33A4
330
1A
100
AcDbEntity
  8
SEIHIN
  6
CONTINUOUS
 62
     3
 48
5.0
100
AcDbLine
 10
281.5562155394044
 20
171.4586608982237
 30
0.0
 11
282.5005155394045
 21
167.6814608982233
 31
0.0
  0
LINE
  5
33A5
330
1A
100
AcDbEntity
  8
SEIHIN
  6
CONTINUOUS
 62
     3
 48
5.0
100
AcDbLine
 10
282.5562155394045
 20
175.4586608982237
 30
0.0
 11
283.0562155394044
 21
173.9586608982237
 31
0.0
  0
LINE
  5
33A6
330
1A
100
AcDbEntity
  8
SEIHIN
  6
CONTINUOUS
 62
     3
 48
5.0
100
AcDbLine
 10
283.0562155394044
 20
173.9586608982237
 30
0.0
 11
281.5562155394044
 21
171.4586608982237
 31
0.0
  0
LINE
  5
33A7
330
1A
100
AcDbEntity
  8
SEIHIN
  6
CONTINUOUS
 62
     3
 48
5.0
100
AcDbLine
 10
274.5561155394045
 20
171.4586608982237
 30
0.0
 11
273.6118155394045
 21
167.6814608982233
 31
0.0
  0
LINE
  5
33A8
330
1A
100
AcDbEntity
  8
SEIHIN
  6
CONTINUOUS
 62
     3
 48
5.0
100
AcDbLine
 10
274.5561155394045
 20
171.4586608982237
 30
0.0
 11
278.0561155394045
 21
171.4586608982237
 31
0.0
  0
LINE
  5
33A9
330
1A
100
AcDbEntity
  8
SEIHIN
  6
CONTINUOUS
 62
     3
 48
5.0
100
AcDbLine
 10
283.9374155394045
 20
174.0487608982236
 30
0.0
 11
286.7883155394046
 21
169.4872608982236
 31
0.0
  0
LINE
  5
33AA
330
1A
100
AcDbEntity
  8
SEIHIN
  6
CONTINUOUS
 62
     3
 48
5.0
100
AcDbLine
 10
283.0564155394045
 20
201.408669148398
 30
0.0
 11
283.0564155394045
 21
202.4086691483979
 31
0.0
  0
LINE
  5
33AB
330
1A
100
AcDbEntity
  8
SEIHIN
  6
CONTINUOUS
 62
     3
 48
5.0
100
AcDbLine
 10
273.0564155394044
 20
201.408669148398
 30
0.0
 11
273.0564155394044
 21
202.4085691483979
 31
0.0
  0
ARC
  5
33AC
330
1A
100
AcDbEntity
  8
SEIHIN
  6
CONTINUOUS
 62
     3
 48
5.0
100
AcDbCircle
 10
278.0564913729044
 20
194.8252691481026
 30
0.0
 40
9.08334724841171
100
AcDbArc
 50
56.60214236039834
 51
123.3990035551927
  0
ARC
  5
33AD
330
1A
100
AcDbEntity
  8
SEIHIN
  6
CONTINUOUS
 62
     3
 48
5.0
100
AcDbCircle
 10
271.6715285624804
 20
168.1665675574677
 30
0.0
 40
1.000036124333053
100
AcDbArc
 50
248.1980394374691
 51
345.9659845784222
  0
ARC
  5
33AE
330
1A
100
AcDbEntity
  8
SEIHIN
  6
CONTINUOUS
 62
     3
 48
5.0
100
AcDbCircle
 10
271.0199373811432
 20
168.4271940539236
 30
0.0
 40
0.9999711541457587
100
AcDbArc
 50
147.9889954755488
 51
248.1960061189781
  0
LINE
  5
33AF
330
1A
100
AcDbEntity
  8
SEIHIN
  6
CONTINUOUS
 62
     3
 48
5.0
100
AcDbLine
 10
270.1720155394045
 20
168.9572608982236
 30
0.0
 11
272.1468155394045
 21
172.1170608982237
 31
0.0
  0
LINE
  5
33B0
330
1A
100
AcDbEntity
  8
SEIHIN
  6
CONTINUOUS
 62
     3
 48
5.0
100
AcDbLine
 10
270.6485155394045
 20
167.4987608982236
 30
0.0
 11
271.3002155394045
 21
167.2380608982236
 31
0.0
  0
LINE
  5
33B1
330
1A
100
AcDbEntity
  8
SEIHIN
  6
CONTINUOUS
 62
     3
 48
5.0
100
AcDbLine
 10
272.1749155394045
 20
174.0487608982236
 30
0.0
 11
269.3240155394046
 21
169.4872608982236
 31
0.0
  0
LINE
  5
33B2
330
1A
100
AcDbEntity
  8
SEIHIN
  6
CONTINUOUS
 62
     3
 48
5.0
100
AcDbLine
 10
271.5563155394046
 20
175.4586608982237
 30
0.0
 11
271.5563155394046
 21
177.1358852607579
 31
0.0
  0
ARC
  5
33B3
330
1A
100
AcDbEntity
  8
SEIHIN
  6
CONTINUOUS
 62
     3
 48
5.0
100
AcDbCircle
 10
272.5708274286524
 20
171.8520607893328
 30
0.0
 40
0.5000111398116991
100
AcDbArc
 50
30.95660742786394
 51
147.9953282692656
  0
ARC
  5
33B4
330
1A
100
AcDbEntity
  8
SEIHIN
  6
CONTINUOUS
 62
     3
 48
5.0
100
AcDbCircle
 10
274.7188894092177
 20
172.4586378980377
 30
0.0
 40
3.000049033934637
100
AcDbArc
 50
114.7158125720392
 51
147.9923602742415
  0
LINE
  5
33B5
330
1A
100
AcDbEntity
  8
SEIHIN
  6
CONTINUOUS
 62
     3
 48
5.0
100
AcDbLine
 10
273.4353155394045
 20
171.0984608982236
 30
0.0
 11
272.6417155394045
 21
167.9240608982236
 31
0.0
  0
LINE
  5
33B6
330
1A
100
AcDbEntity
  8
SEIHIN
  6
CONTINUOUS
 62
     3
 48
5.0
100
AcDbLine
 10
270.9289155394045
 20
166.3096608982236
 30
0.0
 11
270.2772155394045
 21
166.5702608982236
 31
0.0
  0
ARC
  5
33B7
330
1A
100
AcDbEntity
  8
SEIHIN
  6
CONTINUOUS
 62
     3
 48
5.0
100
AcDbCircle
 10
271.0200248940679
 20
168.4272322718489
 30
0.0
 40
2.000027104776099
100
AcDbArc
 50
147.9940634036709
 51
248.1980371254082
  0
LINE
  5
33B8
330
1A
100
AcDbEntity
  8
SEIHIN
  6
CONTINUOUS
 62
     3
 48
5.0
100
AcDbLine
 10
278.0561155394045
 20
169.4589608982236
 30
0.0
 11
281.0563155394046
 21
169.4589608982236
 31
0.0
  0
LINE
  5
33B9
330
1A
100
AcDbEntity
  8
SEIHIN
  6
CONTINUOUS
 62
     3
 48
5.0
100
AcDbLine
 10
283.0562155394044
 20
173.9586608982237
 30
0.0
 11
278.0561155394045
 21
173.9586608982237
 31
0.0
  0
ARC
  5
33BA
330
1A
100
AcDbEntity
  8
SEIHIN
  6
CONTINUOUS
 62
     3
 48
5.0
100
AcDbCircle
 10
285.0924108620729
 20
168.4272465850361
 30
0.0
 40
1.000013552387859
100
AcDbArc
 50
291.8019628745917
 51
32.00593659633253
  0
ARC
  5
33BB
330
1A
100
AcDbEntity
  8
SEIHIN
  6
CONTINUOUS
 62
     3
 48
5.0
100
AcDbCircle
 10
283.1620962813632
 20
171.2196314428831
 30
0.0
 40
0.4999856269055761
100
AcDbArc
 50
149.0243524915595
 51
194.0251660642242
  0
ARC
  5
33BC
330
1A
100
AcDbEntity
  8
SEIHIN
  6
CONTINUOUS
 62
     3
 48
5.0
100
AcDbCircle
 10
284.4408025163287
 20
168.1665675574677
 30
0.0
 40
1.000036124333149
100
AcDbArc
 50
194.0340154215714
 51
291.8019605625309
  0
LINE
  5
33BD
330
1A
100
AcDbEntity
  8
SEIHIN
  6
CONTINUOUS
 62
     3
 48
5.0
100
AcDbLine
 10
282.6770155394045
 20
171.0984608982236
 30
0.0
 11
283.4706155394044
 21
167.9240608982236
 31
0.0
  0
LINE
  5
33BE
330
1A
100
AcDbEntity
  8
SEIHIN
  6
CONTINUOUS
 62
     3
 48
5.0
100
AcDbLine
 10
285.9404155394046
 20
168.9572608982236
 30
0.0
 11
283.9655155394045
 21
172.1170608982237
 31
0.0
  0
LINE
  5
33BF
330
1A
100
AcDbEntity
  8
SEIHIN
  6
CONTINUOUS
 62
     3
 48
5.0
100
AcDbLine
 10
284.5563155394046
 20
175.4586608982237
 30
0.0
 11
284.5563155394046
 21
176.9589608982236
 31
0.0
  0
LINE
  5
33C0
330
1A
100
AcDbEntity
  8
SEIHIN
  6
CONTINUOUS
 62
     3
 48
5.0
100
AcDbLine
 10
285.1835155394045
 20
166.3096608982236
 30
0.0
 11
285.8351155394045
 21
166.5702608982236
 31
0.0
  0
ARC
  5
33C1
330
1A
100
AcDbEntity
  8
SEIHIN
  6
CONTINUOUS
 62
     3
 48
5.0
100
AcDbCircle
 10
285.0923061847413
 20
168.4272322718489
 30
0.0
 40
2.000027104776036
100
AcDbArc
 50
291.8019628745917
 51
32.00593659632907
  0
ARC
  5
33C2
330
1A
100
AcDbEntity
  8
SEIHIN
  6
CONTINUOUS
 62
     3
 48
5.0
100
AcDbCircle
 10
284.4407556770426
 20
168.1665915071192
 30
0.0
 40
1.99997087463527
100
AcDbArc
 50
194.0382049404031
 51
291.8010801553809
  0
ARC
  5
33C3
330
1A
100
AcDbEntity
  8
SEIHIN
  6
CONTINUOUS
 62
     3
 48
5.0
100
AcDbCircle
 10
272.9502183108491
 20
171.2197422615851
 30
0.0
 40
0.5000284894393518
100
AcDbArc
 50
345.9629721354997
 51
30.95789060904388
  0
LINE
  5
33C4
330
1A
100
AcDbEntity
  8
SEIHIN
  6
CONTINUOUS
 62
     3
 48
5.0
100
AcDbLine
 10
278.0561155394045
 20
169.4589608982236
 30
0.0
 11
275.0560155394044
 21
169.4589608982236
 31
0.0
  0
LINE
  5
33C5
330
1A
100
AcDbEntity
  8
SEIHIN
  6
CONTINUOUS
 62
     3
 48
5.0
100
AcDbLine
 10
275.6560155394045
 20
171.4586608982237
 30
0.0
 11
275.6560155394045
 21
169.4590608982236
 31
0.0
  0
LINE
  5
33C6
330
1A
100
AcDbEntity
  8
SEIHIN
  6
CONTINUOUS
 62
     3
 48
5.0
100
AcDbLine
 10
273.0561155394045
 20
173.9586608982237
 30
0.0
 11
274.5561155394045
 21
171.4586608982237
 31
0.0
  0
LINE
  5
33C7
330
1A
100
AcDbEntity
  8
SEIHIN
  6
CONTINUOUS
 62
     3
 48
5.0
100
AcDbLine
 10
273.0561155394045
 20
173.9586608982237
 30
0.0
 11
278.0561155394045
 21
173.9586608982237
 31
0.0
  0
ARC
  5
33C8
330
1A
100
AcDbEntity
  8
SEIHIN
  6
CONTINUOUS
 62
     3
 48
5.0
100
AcDbCircle
 10
281.3934416695914
 20
172.4586378980377
 30
0.0
 40
3.00004903393469
100
AcDbArc
 50
32.00763972575842
 51
65.28418742795803
  0
ARC
  5
33C9
330
1A
100
AcDbEntity
  8
SEIHIN
  6
CONTINUOUS
 62
     3
 48
5.0
100
AcDbCircle
 10
283.5415036501566
 20
171.8520607893328
 30
0.0
 40
0.5000111398118175
100
AcDbArc
 50
32.0046717307288
 51
149.043392572127
  0
ARC
  5
33CA
330
1A
100
AcDbEntity
  8
SEIHIN
  6
CONTINUOUS
 62
     3
 48
5.0
100
AcDbCircle
 10
271.6715961266896
 20
168.1665509728075
 30
0.0
 40
1.999940936611855
100
AcDbArc
 50
248.1979372932137
 51
345.962777611009
  0
LINE
  5
33CB
330
1A
100
AcDbEntity
  8
SEIHIN
  6
CONTINUOUS
 62
     3
 48
5.0
100
AcDbLine
 10
281.5562155394044
 20
171.4586608982237
 30
0.0
 11
278.0561155394045
 21
171.4586608982237
 31
0.0
  0
LINE
  5
33CC
330
1A
100
AcDbEntity
  8
SEIHIN
  6
CONTINUOUS
 62
     3
 48
5.0
100
AcDbLine
 10
284.5563155394046
 20
175.4586608982237
 30
0.0
 11
271.5563155394046
 21
175.4587608982237
 31
0.0
  0
LINE
  5
33CD
330
1A
100
AcDbEntity
  8
SEIHIN
  6
CONTINUOUS
 62
     3
 48
5.0
100
AcDbLine
 10
280.4563155394045
 20
171.4586608982237
 30
0.0
 11
280.4563155394045
 21
169.4590608982236
 31
0.0
  0
LINE
  5
33CE
330
1A
100
AcDbEntity
  8
SEIHIN
  6
CONTINUOUS
 62
     3
 48
5.0
100
AcDbLine
 10
273.5561155394045
 20
175.4586608982237
 30
0.0
 11
273.0561155394045
 21
173.9586608982237
 31
0.0
  0
LINE
  5
33CF
330
1A
100
AcDbEntity
  8
SEIHIN
  6
CONTINUOUS
 62
     3
 48
5.0
100
AcDbLine
 10
275.0560155394044
 20
169.4590608982236
 30
0.0
 11
275.0560155394044
 21
171.4586608982237
 31
0.0
  0
LINE
  5
33D0
330
1A
100
AcDbEntity
  8
SEIHIN
  6
CONTINUOUS
 62
     3
 48
5.0
100
AcDbLine
 10
272.9996155394045
 20
172.1092608982236
 30
0.0
 11
273.3790155394046
 21
171.4769608982237
 31
0.0
  0
ARC
  5
3401
330
1A
100
AcDbEntity
  8
SEIHIN
  6
CONTINUOUS
 62
     3
 48
5.0
100
AcDbCircle
 10
279.684144661082
 20
381.8779937248019
 30
0.0
 40
4.999999999999971
100
AcDbArc
 50
0.0
 51
180.0
  0
ARC
  5
3402
330
1A
100
AcDbEntity
  8
SEIHIN
  6
CONTINUOUS
 62
     3
 48
5.0
100
AcDbCircle
 10
279.684144661082
 20
381.8779937248019
 30
0.0
 40
5.0
100
AcDbArc
 50
180.0
 51
0.0
  0
LINE
  5
3403
330
1A
100
AcDbEntity
  8
CENTER_L
  6
CENTER
 62
     1
 48
5.0
100
AcDbLine
 10
279.684244661082
 20
374.386593724802
 30
0.0
 11
279.684244661082
 21
388.9985937248018
 31
0.0
  0
LINE
  5
34A7
330
1A
100
AcDbEntity
  8
CENTER_L
  6
CENTER
 62
     1
 48
5.0
100
AcDbLine
 10
371.2136119556473
 20
352.6925937248018
 30
0.0
 11
393.3082583794971
 21
352.6925937248019
 31
0.0
  0
LINE
  5
34A8
330
1A
100
AcDbEntity
  8
CENTER_L
  6
CENTER
 62
     1
 48
5.0
100
AcDbLine
 10
197.3714637987743
 20
381.6925937248019
 30
0.0
 11
399.3664133394034
 21
381.6925937248019
 31
0.0
  0
LINE
  5
34A9
330
1A
100
AcDbEntity
  8
CENTER_L
  6
CENTER
 62
     1
 48
5.0
100
AcDbLine
 10
371.2136119556473
 20
410.6925937248018
 30
0.0
 11
393.3082583794971
 21
410.692593724802
 31
0.0
  0
LINE
  5
34AB
330
1A
100
AcDbEntity
  8
SEIHIN
  6
CONTINUOUS
 62
     3
 48
5.0
100
AcDbLine
 10
370.6838423465399
 20
228.1583708591687
 30
0.0
 11
370.6842245482901
 21
229.2416710492572
 31
0.0
  0
LINE
  5
34AC
330
1A
100
AcDbEntity
  8
SEIHIN
  6
CONTINUOUS
 62
     3
 48
5.0
100
AcDbLine
 10
368.6842245482901
 20
228.009683031939
 30
0.0
 11
368.6842245482819
 21
228.158370859198
 31
0.0
  0
LINE
  5
34AD
330
1A
100
AcDbEntity
  8
SEIHIN
  6
CONTINUOUS
 62
     3
 48
5.0
100
AcDbLine
 10
365.6838423465399
 20
227.7418699087257
 30
0.0
 11
365.6842245482819
 21
227.846565181198
 31
0.0
  0
LINE
  5
34AE
330
1A
100
AcDbEntity
  8
SEIHIN
  6
CONTINUOUS
 62
     3
 48
5.0
100
AcDbLine
 10
363.6842245482901
 20
227.5931820814961
 30
0.0
 11
363.6842245482819
 21
227.7418699086979
 31
0.0
  0
LINE
  5
34AF
330
1A
100
AcDbEntity
  8
SEIHIN
  6
CONTINUOUS
 62
     3
 48
5.0
100
AcDbLine
 10
360.6838423465398
 20
227.3253689582828
 30
0.0
 11
360.6842245482819
 21
227.430064230998
 31
0.0
  0
DIMENSION
  5
34B0
330
1A
100
AcDbEntity
  8
SUNPOU
100
AcDbDimension
  2
*D2
 10
426.6485156250098
 20
344.692593724802
 30
0.0
 11
421.6485156250097
 21
381.692593724802
 31
0.0
 70
    32
  3
STANDARD
100
AcDbAlignedDimension
 13
385.6842245482819
 23
418.6925937248019
 33
0.0
 14
385.6842245482819
 24
344.692593724802
 34
0.0
 50
90.0
100
AcDbRotatedDimension
1001
ACAD
1000
DSTYLE
1002
{
1070
   287
1070
     5
1070
    41
1040
7.0
1070
    42
1040
6.0
1070
    43
1040
14.0
1070
    44
1040
3.0
1070
    73
1070
     0
1070
    74
1070
     0
1070
    77
1070
     3
1070
   140
1040
6.0
1070
   141
1040
150.0
1070
   147
1040
2.0
1070
   172
1070
     1
1070
   173
1070
     1
1070
   176
1070
   256
1070
   177
1070
   256
1070
   178
1070
   256
1070
   271
1070
     0
1070
   272
1070
     0
1070
   279
1070
     2
1070
   341
1005
6D
1070
     6
1000
OPEN
1070
     7
1000
OPEN
1070
   371
1070
    -1
1070
   372
1070
    -1
1002
}
  0
DIMENSION
  5
34BD
330
1A
100
AcDbEntity
  8
SUNPOU
100
AcDbDimension
  2
*D3
 10
174.973301047756
 20
395.7076268574796
 30
0.0
 11
169.973301047756
 21
381.7124547154816
 31
0.0
 70
    32
  3
STANDARD
100
AcDbAlignedDimension
 13
212.0897798847493
 23
367.7172825734834
 33
0.0
 14
214.3057303821819
 24
395.7076268574796
 34
0.0
 50
90.0
100
AcDbRotatedDimension
1001
ACAD
1000
DSTYLE
1002
{
1070
   287
1070
     5
1070
    41
1040
7.0
1070
    42
1040
6.0
1070
    43
1040
14.0
1070
    44
1040
3.0
1070
    73
1070
     0
1070
    74
1070
     0
1070
    77
1070
     3
1070
   140
1040
6.0
1070
   141
1040
150.0
1070
   147
1040
2.0
1070
   172
1070
     1
1070
   173
1070
     1
1070
   176
1070
   256
1070
   177
1070
   256
1070
   178
1070
   256
1070
   271
1070
     0
1070
   272
1070
     0
1070
   279
1070
     2
1070
   341
1005
6D
1070
     6
1000
OPEN
1070
     7
1000
OPEN
1070
   371
1070
    -1
1070
   372
1070
    -1
1002
}
  0
SPLINE
  5
34CB
102
{ACAD_REACTORS
330
34F5
102
}
330
1A
100
AcDbEntity
  8
SEIHIN
  6
DASHED2
 62
     5
 48
0.3
100
AcDbSpline
210
0.0
220
0.0
230
1.0
 70
    24
 71
     3
 72
     9
 73
     5
 74
     0
 42
0.0000000001
 43
0.0000000001
 40
0.0
 40
0.0
 40
0.0
 40
0.0
 40
0.5038625610349851
 40
1.0
 40
1.0
 40
1.0
 40
1.0
 10
392.6527497384802
 20
229.8221505222371
 30
0.0
 10
392.6624620483128
 20
229.8229595594924
 30
0.0
 10
392.6817377607469
 20
229.8245652300022
 30
0.0
 10
392.683399899183
 20
229.8247036864499
 30
0.0
 10
392.6842245482901
 20
229.8247723798772
 30
0.0
  0
SPLINE
  5
34CD
102
{ACAD_REACTORS
330
34F5
102
}
330
1A
100
AcDbEntity
  8
SEIHIN
  6
DASHED2
 62
     5
 48
0.3
100
AcDbSpline
210
0.0
220
0.0
230
1.0
 70
     8
 71
     3
 72
    13
 73
     9
 74
     0
 42
0.0000000001
 43
0.0000000001
 40
0.0
 40
0.0
 40
0.0
 40
0.0
 40
0.0021363623433087
 40
0.2999116736675432
 40
0.4518143172912249
 40
0.6075335851997627
 40
0.8262707850156029
 40
1.0
 40
1.0
 40
1.0
 40
1.0
 10
392.6842245482901
 20
200.9086691483714
 30
0.0
 10
392.6842217733895
 20
200.9123958764614
 30
0.0
 10
392.6838322209957
 20
201.4355698887147
 30
0.0
 10
392.5592820771699
 20
202.2283990338089
 30
0.0
 10
392.1311890298373
 20
203.2485299829075
 30
0.0
 10
391.5889579838724
 20
204.0912785705604
 30
0.0
 10
390.7971921149994
 20
204.9100381120449
 30
0.0
 10
390.0257230895999
 20
205.3129096816663
 30
0.0
 10
389.6842245482901
 20
205.4912448433272
 30
0.0
  0
ELLIPSE
  5
34CE
102
{ACAD_REACTORS
330
34F5
102
}
330
1A
100
AcDbEntity
  8
SEIHIN
  6
DASHED2
 62
     5
 48
0.3
100
AcDbEllipse
 10
394.1842245482819
 20
157.826601523798
 30
0.0
 11
0.0
 21
2.001829143904827
 31
0.0
210
0.0
220
0.0
230
1.0
 40
0.9990862636999999
 41
1.570796326794904
 42
3.141592653589793
  0
ELLIPSE
  5
34CF
102
{ACAD_REACTORS
330
34F5
102
}
330
1A
100
AcDbEntity
  8
SEIHIN
  6
DASHED2
 62
     5
 48
0.3
100
AcDbEllipse
 10
394.1842245482819
 20
158.097572817198
 30
0.0
 11
1.413349728277353
 21
1.446946299985
 31
0.0
210
0.0
220
0.0
230
0.9999999999999998
 40
0.9779746969000001
 41
2.355583853645951
 42
2.398304268370646
  0
LINE
  5
34D1
102
{ACAD_REACTORS
330
34F5
102
}
330
1A
100
AcDbEntity
  8
SEIHIN
  6
DASHED2
 62
     5
 48
0.3
100
AcDbLine
 10
400.6842245482819
 20
204.824772379898
 30
0.0
 11
400.6842245482819
 21
219.824772379898
 31
0.0
  0
LINE
  5
34D2
102
{ACAD_REACTORS
330
34F5
102
}
330
1A
100
AcDbEntity
  8
SEIHIN
  6
DASHED2
 62
     5
 48
0.3
100
AcDbLine
 10
392.6842245482819
 20
204.824772379898
 30
0.0
 11
392.6842245482819
 21
219.824772379898
 31
0.0
  0
LINE
  5
34D3
102
{ACAD_REACTORS
330
34F5
102
}
330
1A
100
AcDbEntity
  8
SEIHIN
  6
DASHED2
 62
     5
 48
0.3
100
AcDbLine
 10
400.6842245482819
 20
182.0926365364979
 30
0.0
 11
400.6842245482819
 21
163.621901626098
 31
0.0
  0
LINE
  5
34D4
102
{ACAD_REACTORS
330
34F5
102
}
330
1A
100
AcDbEntity
  8
SEIHIN
  6
DASHED2
 62
     5
 48
0.3
100
AcDbLine
 10
392.6842245482819
 20
163.621901626098
 30
0.0
 11
392.6842245482819
 21
182.0926365364979
 31
0.0
  0
LINE
  5
34D5
102
{ACAD_REACTORS
330
34F5
102
}
330
1A
100
AcDbEntity
  8
SEIHIN
  6
DASHED2
 62
     5
 48
0.3
100
AcDbLine
 10
392.1842245482819
 20
158.053026204798
 30
0.0
 11
392.1842245482819
 21
203.059881528698
 31
0.0
  0
LINE
  5
34D6
102
{ACAD_REACTORS
330
34F5
102
}
330
1A
100
AcDbEntity
  8
SEIHIN
  6
DASHED2
 62
     5
 48
0.3
100
AcDbLine
 10
400.6842245482819
 20
163.621901626098
 30
0.0
 11
400.6842245482819
 21
156.381837499098
 31
0.0
  0
ARC
  5
34D7
102
{ACAD_REACTORS
330
34F5
102
}
330
1A
100
AcDbEntity
  8
SEIHIN
  6
DASHED2
 62
     5
 48
0.3
100
AcDbCircle
 10
394.682855022082
 20
158.380467974298
 30
0.0
 40
1.998630944352149
100
AcDbArc
 50
180.0393147922012
 51
270.039260912699
  0
LINE
  5
34D8
102
{ACAD_REACTORS
330
34F5
102
}
330
1A
100
AcDbEntity
  8
SEIHIN
  6
DASHED2
 62
     5
 48
0.3
100
AcDbLine
 10
394.6842245482819
 20
156.381837499098
 30
0.0
 11
400.6842245482819
 21
156.381837499098
 31
0.0
  0
LINE
  5
34D9
102
{ACAD_REACTORS
330
34F5
102
}
330
1A
100
AcDbEntity
  8
SEIHIN
  6
DASHED2
 62
     5
 48
0.3
100
AcDbLine
 10
394.1842245482819
 20
155.824772379898
 30
0.0
 11
400.6842245482819
 21
155.824772379898
 31
0.0
  0
LINE
  5
34DA
102
{ACAD_REACTORS
330
34F5
102
}
330
1A
100
AcDbEntity
  8
SEIHIN
  6
DASHED2
 62
     5
 48
0.3
100
AcDbLine
 10
400.6842245482819
 20
156.381837499098
 30
0.0
 11
400.6842245482819
 21
155.824772379898
 31
0.0
  0
LINE
  5
34DB
102
{ACAD_REACTORS
330
34F5
102
}
330
1A
100
AcDbEntity
  8
SEIHIN
  6
DASHED2
 62
     5
 48
0.3
100
AcDbLine
 10
392.1842245482819
 20
157.826601523798
 30
0.0
 11
392.1842245482819
 21
158.053026204798
 31
0.0
  0
LINE
  5
34DC
102
{ACAD_REACTORS
330
34F5
102
}
330
1A
100
AcDbEntity
  8
SEIHIN
  6
DASHED2
 62
     5
 48
0.3
100
AcDbLine
 10
392.6842245482819
 20
158.364696809598
 30
0.0
 11
392.6842245482819
 21
158.3790965686979
 31
0.0
  0
LINE
  5
34DD
102
{ACAD_REACTORS
330
34F5
102
}
330
1A
100
AcDbEntity
  8
SEIHIN
  6
DASHED2
 62
     5
 48
0.3
100
AcDbLine
 10
392.6842245482819
 20
158.3790965686979
 30
0.0
 11
392.6842245482819
 21
163.621901626098
 31
0.0
  0
LINE
  5
34DE
102
{ACAD_REACTORS
330
34F5
102
}
330
1A
100
AcDbEntity
  8
SEIHIN
  6
DASHED2
 62
     5
 48
0.3
100
AcDbLine
 10
400.6842245482819
 20
182.0926365364979
 30
0.0
 11
400.6842245482819
 21
194.941235056698
 31
0.0
  0
LINE
  5
34DF
102
{ACAD_REACTORS
330
34F5
102
}
330
1A
100
AcDbEntity
  8
SEIHIN
  6
DASHED2
 62
     5
 48
0.3
100
AcDbLine
 10
392.6842245482819
 20
182.0926365364979
 30
0.0
 11
392.6842245482819
 21
196.917942521298
 31
0.0
  0
LINE
  5
34E2
102
{ACAD_REACTORS
330
34F5
102
}
330
1A
100
AcDbEntity
  8
SEIHIN
  6
DASHED2
 62
     5
 48
0.3
100
AcDbLine
 10
386.158821217482
 20
205.908669148398
 30
0.0
 11
385.674698299282
 21
205.908669148398
 31
0.0
  0
ARC
  5
34E3
102
{ACAD_REACTORS
330
34F5
102
}
330
1A
100
AcDbEntity
  8
SEIHIN
  6
DASHED2
 62
     5
 48
0.3
100
AcDbCircle
 10
387.6842245482819
 20
200.908669148398
 30
0.0
 40
5.000000000000002
100
AcDbArc
 50
66.42182152179947
 51
90.0
  0
LINE
  5
34E4
102
{ACAD_REACTORS
330
34F5
102
}
330
1A
100
AcDbEntity
  8
SEIHIN
  6
DASHED2
 62
     5
 48
0.3
100
AcDbLine
 10
386.158821217482
 20
205.908669148398
 30
0.0
 11
387.6842245482819
 21
205.908669148398
 31
0.0
  0
LINE
  5
34E6
102
{ACAD_REACTORS
330
34F5
102
}
330
1A
100
AcDbEntity
  8
SEIHIN
  6
DASHED2
 62
     5
 48
0.3
100
AcDbLine
 10
392.6842245482819
 20
196.917942521298
 30
0.0
 11
392.6842245482819
 21
204.824772379898
 31
0.0
  0
LINE
  5
34E7
102
{ACAD_REACTORS
330
34F5
102
}
330
1A
100
AcDbEntity
  8
SEIHIN
  6
DASHED2
 62
     5
 48
0.3
100
AcDbLine
 10
400.6842245482819
 20
194.941235056698
 30
0.0
 11
400.6842245482819
 21
204.824772379898
 31
0.0
  0
LINE
  5
34E8
102
{ACAD_REACTORS
330
34F5
102
}
330
1A
100
AcDbEntity
  8
SEIHIN
  6
DASHED2
 62
     5
 48
0.3
100
AcDbLine
 10
389.518199190782
 20
229.561041865798
 30
0.0
 11
392.652749738482
 21
229.822150522198
 31
0.0
  0
LINE
  5
34EA
102
{ACAD_REACTORS
330
34F5
102
}
330
1A
100
AcDbEntity
  8
SEIHIN
  6
DASHED2
 62
     5
 48
0.3
100
AcDbLine
 10
386.1813063518821
 20
229.283078057998
 30
0.0
 11
389.518199190782
 21
229.561041865798
 31
0.0
  0
LINE
  5
34F0
102
{ACAD_REACTORS
330
34F5
102
}
330
1A
100
AcDbEntity
  8
SEIHIN
  6
DASHED2
 62
     5
 48
0.3
100
AcDbLine
 10
400.6842245482819
 20
229.824772379898
 30
0.0
 11
400.6842245482819
 21
219.824772379898
 31
0.0
  0
LINE
  5
34F1
102
{ACAD_REACTORS
330
34F5
102
}
330
1A
100
AcDbEntity
  8
SEIHIN
  6
DASHED2
 62
     5
 48
0.3
100
AcDbLine
 10
392.6842245482819
 20
219.824772379898
 30
0.0
 11
392.6842245482819
 21
227.824772379898
 31
0.0
  0
LINE
  5
34F2
102
{ACAD_REACTORS
330
34F5
102
}
330
1A
100
AcDbEntity
  8
SEIHIN
  6
DASHED2
 62
     5
 48
0.3
100
AcDbLine
 10
394.6842245482819
 20
229.824772379898
 30
0.0
 11
400.6842245482819
 21
229.824772379898
 31
0.0
  0
LINE
  5
34F3
102
{ACAD_REACTORS
330
34F5
102
}
330
1A
100
AcDbEntity
  8
SEIHIN
  6
DASHED2
 62
     5
 48
0.3
100
AcDbLine
 10
392.6842245482819
 20
229.824772379898
 30
0.0
 11
394.6842245482819
 21
229.824772379898
 31
0.0
  0
ARC
  5
34F4
102
{ACAD_REACTORS
330
34F5
102
}
330
1A
100
AcDbEntity
  8
SEIHIN
  6
DASHED2
 62
     5
 48
0.3
100
AcDbCircle
 10
394.6842245482819
 20
227.824772379898
 30
0.0
 40
2.000000000000056
100
AcDbArc
 50
90.0
 51
180.0
  0
DIMENSION
  5
34F6
330
1A
100
AcDbEntity
  8
SUNPOU
100
AcDbDimension
  2
*D4
 10
400.6842245482819
 20
251.9065225065352
 30
0.0
 11
393.1842245482819
 21
256.9065225065352
 31
0.0
 70
    32
  3
STANDARD
100
AcDbAlignedDimension
 13
385.6842245482819
 23
229.824772379898
 33
0.0
 14
400.6842245482819
 24
229.824772379898
 34
0.0
100
AcDbRotatedDimension
1001
ACAD
1000
DSTYLE
1002
{
1070
   287
1070
     5
1070
    41
1040
7.0
1070
    42
1040
6.0
1070
    43
1040
14.0
1070
    44
1040
3.0
1070
    73
1070
     0
1070
    74
1070
     0
1070
    77
1070
     3
1070
   140
1040
6.0
1070
   141
1040
150.0
1070
   147
1040
2.0
1070
   172
1070
     1
1070
   173
1070
     1
1070
   176
1070
   256
1070
   177
1070
   256
1070
   178
1070
   256
1070
   271
1070
     0
1070
   272
1070
     0
1070
   279
1070
     2
1070
   341
1005
6D
1070
     6
1000
OPEN
1070
     7
1000
OPEN
1070
   371
1070
    -1
1070
   372
1070
    -1
1002
}
  0
DIMENSION
  5
3505
330
1A
100
AcDbEntity
  8
SUNPOU
100
AcDbDimension
  2
*D5
 10
340.6842240270293
 20
270.9312011078367
 30
0.0
 11
363.1842242876556
 21
275.9312011078367
 31
0.0
 70
    32
  3
STANDARD
100
AcDbAlignedDimension
 13
385.6842245482819
 23
229.824772379898
 33
0.0
 14
340.6842240270293
 24
199.0127805429703
 34
0.0
100
AcDbRotatedDimension
1001
ACAD
1000
DSTYLE
1002
{
1070
   287
1070
     5
1070
    41
1040
7.0
1070
    42
1040
6.0
1070
    43
1040
14.0
1070
    44
1040
3.0
1070
    73
1070
     0
1070
    74
1070
     0
1070
    77
1070
     3
1070
   140
1040
6.0
1070
   141
1040
150.0
1070
   147
1040
2.0
1070
   172
1070
     1
1070
   173
1070
     1
1070
   176
1070
   256
1070
   177
1070
   256
1070
   178
1070
   256
1070
   271
1070
     0
1070
   272
1070
     0
1070
   279
1070
     2
1070
   341
1005
6D
1070
     6
1000
OPEN
1070
     7
1000
OPEN
1070
   371
1070
    -1
1070
   372
1070
    -1
1002
}
  0
DIMENSION
  5
3512
330
1A
100
AcDbEntity
  8
SUNPOU
100
AcDbDimension
  2
*D6
 10
269.684224548282
 20
285.9254083224367
 30
0.0
 11
327.6842245482819
 21
290.9254083224367
 31
0.0
 70
    32
  3
STANDARD
100
AcDbAlignedDimension
 13
385.6842245482819
 23
229.824772379898
 33
0.0
 14
269.684224548282
 24
201.408669148398
 34
0.0
100
AcDbRotatedDimension
1001
ACAD
1000
DSTYLE
1002
{
1070
   287
1070
     5
1070
    41
1040
7.0
1070
    42
1040
6.0
1070
    43
1040
14.0
1070
    44
1040
3.0
1070
    73
1070
     0
1070
    74
1070
     0
1070
    77
1070
     3
1070
   140
1040
6.0
1070
   141
1040
150.0
1070
   147
1040
2.0
1070
   172
1070
     1
1070
   173
1070
     1
1070
   176
1070
   256
1070
   177
1070
   256
1070
   178
1070
   256
1070
   271
1070
     0
1070
   272
1070
     0
1070
   279
1070
     2
1070
   341
1005
6D
1070
     6
1000
OPEN
1070
     7
1000
OPEN
1070
   371
1070
    -1
1070
   372
1070
    -1
1002
}
  0
DIMENSION
  5
351F
330
1A
100
AcDbEntity
  8
SUNPOU
100
AcDbDimension
  2
*D7
 10
207.5842908278086
 20
300.962270462786
 30
0.0
 11
296.6342576880453
 21
305.962270462786
 31
0.0
 70
    32
  3
STANDARD
100
AcDbAlignedDimension
 13
385.6842245482819
 23
229.824772379898
 33
0.0
 14
207.5842908278086
 24
225.418800545598
 34
0.0
100
AcDbRotatedDimension
1001
ACAD
1000
DSTYLE
1002
{
1070
   287
1070
     5
1070
    41
1040
7.0
1070
    42
1040
6.0
1070
    43
1040
14.0
1070
    44
1040
3.0
1070
    73
1070
     0
1070
    74
1070
     0
1070
    77
1070
     3
1070
   140
1040
6.0
1070
   141
1040
150.0
1070
   147
1040
2.0
1070
   172
1070
     1
1070
   173
1070
     1
1070
   176
1070
   256
1070
   177
1070
   256
1070
   178
1070
   256
1070
   271
1070
     0
1070
   272
1070
     0
1070
   279
1070
     2
1070
   341
1005
6D
1070
     6
1000
OPEN
1070
     7
1000
OPEN
1070
   371
1070
    -1
1070
   372
1070
    -1
1002
}
  0
DIMENSION
  5
353E
330
1A
100
AcDbEntity
  8
SUNPOU
100
AcDbDimension
  2
*D8
 10
385.6842245482819
 20
129.8923034753135
 30
0.0
 11
381.4342245482819
 21
134.8923034753134
 31
0.0
 70
    32
  3
STANDARD
100
AcDbAlignedDimension
 13
377.1842245482819
 23
157.826601523798
 33
0.0
 14
385.6842245482819
 24
155.824772379898
 34
0.0
100
AcDbRotatedDimension
1001
ACAD
1000
DSTYLE
1002
{
1070
   287
1070
     5
1070
    41
1040
7.0
1070
    42
1040
6.0
1070
    43
1040
14.0
1070
    44
1040
3.0
1070
    73
1070
     0
1070
    74
1070
     0
1070
    77
1070
     3
1070
   140
1040
6.0
1070
   141
1040
150.0
1070
   147
1040
2.0
1070
   172
1070
     1
1070
   173
1070
     1
1070
   176
1070
   256
1070
   177
1070
   256
1070
   178
1070
   256
1070
   271
1070
     0
1070
   272
1070
     0
1070
   279
1070
     2
1070
   341
1005
6D
1070
     6
1000
OPEN
1070
     7
1000
OPEN
1070
   371
1070
    -1
1070
   372
1070
    -1
1002
}
  0
DIMENSION
  5
354D
330
1A
100
AcDbEntity
  8
SUNPOU
100
AcDbDimension
  2
*D9
 10
427.3203905883512
 20
155.824772379898
 30
0.0
 11
422.3203905883512
 21
192.824772379898
 31
0.0
 70
    32
  3
STANDARD
100
AcDbAlignedDimension
 13
385.6842245482819
 23
229.824772379898
 33
0.0
 14
385.6842245482819
 24
155.824772379898
 34
0.0
 50
90.0
100
AcDbRotatedDimension
1001
ACAD
1000
DSTYLE
1002
{
1070
   287
1070
     5
1070
    41
1040
7.0
1070
    42
1040
6.0
1070
    43
1040
14.0
1070
    44
1040
3.0
1070
    73
1070
     0
1070
    74
1070
     0
1070
    77
1070
     3
1070
   140
1040
6.0
1070
   141
1040
150.0
1070
   147
1040
2.0
1070
   172
1070
     1
1070
   173
1070
     1
1070
   176
1070
   256
1070
   177
1070
   256
1070
   178
1070
   256
1070
   271
1070
     0
1070
   272
1070
     0
1070
   279
1070
     2
1070
   341
1005
6D
1070
     6
1000
OPEN
1070
     7
1000
OPEN
1070
   371
1070
    -1
1070
   372
1070
    -1
1002
}
  0
DIMENSION
  5
355A
330
1A
100
AcDbEntity
  8
SUNPOU
100
AcDbDimension
  2
*D10
 10
174.9733010477559
 20
155.824772379898
 30
0.0
 11
169.9733010477559
 21
193.8667207641481
 31
0.0
 70
    32
  3
STANDARD
100
AcDbAlignedDimension
 13
212.370964496982
 23
231.908669148398
 33
0.0
 14
382.4342245482819
 24
155.824772379898
 34
0.0
 50
90.0
100
AcDbRotatedDimension
1001
ACAD
1000
DSTYLE
1002
{
1070
   287
1070
     5
1070
    41
1040
7.0
1070
    42
1040
6.0
1070
    43
1040
14.0
1070
    44
1040
3.0
1070
    73
1070
     0
1070
    74
1070
     0
1070
    77
1070
     3
1070
   140
1040
6.0
1070
   141
1040
150.0
1070
   147
1040
2.0
1070
   172
1070
     1
1070
   173
1070
     1
1070
   176
1070
   256
1070
   177
1070
   256
1070
   178
1070
   256
1070
   271
1070
     0
1070
   272
1070
     0
1070
   279
1070
     2
1070
   341
1005
6D
1070
     6
1000
OPEN
1070
     7
1000
OPEN
1070
   371
1070
    -1
1070
   372
1070
    -1
1002
}
  0
DIMENSION
  5
3570
330
1A
100
AcDbEntity
  8
SUNPOU
 48
5.0
100
AcDbDimension
  2
*D12
 10
611.7233968542552
 20
305.2691496522254
 30
0.0
 11
574.7233968542552
 21
310.2691496522254
 31
0.0
 70
    32
  3
STANDARD
100
AcDbAlignedDimension
 13
537.7233968542553
 23
219.824772379898
 33
0.0
 14
611.7233968542552
 24
219.824772379898
 34
0.0
100
AcDbRotatedDimension
1001
ACAD
1000
DSTYLE
1002
{
1070
    41
1040
7.0
1070
    42
1040
6.0
1070
    43
1040
14.0
1070
    44
1040
3.0
1070
    73
1070
     0
1070
    74
1070
     0
1070
    77
1070
     3
1070
   140
1040
6.0
1070
   141
1040
150.0
1070
   147
1040
2.0
1070
   172
1070
     1
1070
   173
1070
     1
1070
   176
1070
     4
1070
   177
1070
     4
1070
   178
1070
     4
1070
   271
1070
     0
1070
   272
1070
     2
1070
     6
1000
OPEN
1070
     7
1000
OPEN
1002
}
  0
DIMENSION
  5
3571
330
1A
100
AcDbEntity
  8
SUNPOU
 48
5.0
100
AcDbDimension
  2
*D11
 10
603.7233968542552
 20
290.9650859911653
 30
0.0
 11
574.7233968542552
 21
295.9650859911653
 31
0.0
 70
    32
  3
STANDARD
100
AcDbAlignedDimension
 13
545.7233968542552
 23
225.3429027376757
 33
0.0
 14
603.7233968542552
 24
225.3429027376757
 34
0.0
100
AcDbRotatedDimension
1001
ACAD
1000
DSTYLE
1002
{
1070
    41
1040
7.0
1070
    42
1040
6.0
1070
    43
1040
14.0
1070
    44
1040
3.0
1070
    73
1070
     0
1070
    74
1070
     0
1070
    77
1070
     3
1070
   140
1040
6.0
1070
   141
1040
150.0
1070
   147
1040
2.0
1070
   172
1070
     1
1070
   173
1070
     1
1070
   176
1070
     4
1070
   177
1070
     4
1070
   178
1070
     4
1070
   271
1070
     0
1070
   272
1070
     2
1070
     6
1000
OPEN
1070
     7
1000
OPEN
1002
}
  0
SPLINE
  5
3572
330
1A
100
AcDbEntity
  8
SEIHIN
  6
CONTINUOUS
 62
     3
 48
5.0
100
AcDbSpline
210
0.0
220
0.0
230
1.0
 70
     8
 71
     3
 72
    16
 73
    12
 74
     0
 42
0.0000000001
 43
0.0000000001
 40
0.0
 40
0.0
 40
0.0
 40
0.0
 40
0.2171386642748686
 40
0.3334999788850273
 40
0.4097902014477654
 40
0.5030480635734489
 40
0.5599680007876811
 40
0.6707390720097967
 40
0.6997056276565266
 40
0.8636298164810032
 40
1.0
 40
1.0
 40
1.0
 40
1.0
 10
586.2312541155874
 20
159.7072212686251
 30
0.0
 10
586.1676235397096
 20
159.6805445650778
 30
0.0
 10
586.0698943039576
 20
159.6395722209791
 30
0.0
 10
585.9367386882279
 20
159.6337001398597
 30
0.0
 10
585.8452369253163
 20
159.6515035915141
 30
0.0
 10
585.7776253600355
 20
159.6853933976116
 30
0.0
 10
585.7138818697667
 20
159.7430466124482
 30
0.0
 10
585.6799248896832
 20
159.7991819362317
 30
0.0
 10
585.6458948396941
 20
159.8907922342285
 30
0.0
 10
585.6313830970777
 20
159.9969539617967
 30
0.0
 10
585.6422822042397
 20
160.0905095000192
 30
0.0
 10
585.6472317250458
 20
160.1329950977914
 30
0.0
  0
ELLIPSE
  5
3573
330
1A
100
AcDbEntity
  8
SEIHIN
  6
CONTINUOUS
 62
     3
 48
5.0
100
AcDbEllipse
 10
595.3490743790553
 20
196.456738391098
 30
0.0
 11
-1.01036297108186
 21
-1.01036297108186
 31
0.0
210
0.0
220
0.0
230
-1.0
 40
0.6998542122
 41
2.456873450587516
 42
3.826311856592102
  0
SPLINE
  5
3574
330
1A
100
AcDbEntity
  8
SEIHIN
  6
CONTINUOUS
 62
     3
 48
5.0
100
AcDbSpline
210
0.0
220
0.0
230
1.0
 70
     8
 71
     3
 72
    10
 73
     6
 74
     0
 42
0.0000000001
 43
0.0000000001
 40
0.0
 40
0.0
 40
0.0
 40
0.0
 40
0.3471274010665737
 40
0.689563746072185
 40
1.0
 40
1.0
 40
1.0
 40
1.0
 10
596.5789117667209
 20
196.2036048160793
 30
0.0
 10
596.5737843094172
 20
196.1013794189558
 30
0.0
 10
596.5635986869183
 20
195.8983100917648
 30
0.0
 10
596.4135034663579
 20
195.6303687522377
 30
0.0
 10
596.2589070546107
 20
195.5166661147057
 30
0.0
 10
596.1853975659112
 20
195.4626013233285
 30
0.0
  0
ELLIPSE
  5
3575
330
1A
100
AcDbEntity
  8
SEIHIN
  6
CONTINUOUS
 62
     3
 48
5.0
100
AcDbEllipse
 10
586.8770691126553
 20
196.456738391098
 30
0.0
 11
-1.01036297108186
 21
1.01036297108186
 31
0.0
210
0.0
220
0.0
230
-1.0
 40
0.6998542122
 41
5.598466104177317
 42
6.967904510181917
  0
SPLINE
  5
3576
330
1A
100
AcDbEntity
  8
SEIHIN
  6
CONTINUOUS
 62
     3
 48
5.0
100
AcDbSpline
210
0.0
220
0.0
230
1.0
 70
     8
 71
     3
 72
    13
 73
     9
 74
     0
 42
0.0000000001
 43
0.0000000001
 40
0.0
 40
0.0
 40
0.0
 40
0.0
 40
0.1851330428579794
 40
0.3650267311097466
 40
0.5303652848785339
 40
0.6879496806583965
 40
0.8506174307284018
 40
1.0
 40
1.0
 40
1.0
 40
1.0
 10
579.1287138073892
 20
171.4634533604265
 30
0.0
 10
579.1227218395863
 20
171.342435357217
 30
0.0
 10
579.110907479566
 20
171.1038242187891
 30
0.0
 10
578.946921485555
 20
170.7861835805939
 30
0.0
 10
578.6932793613204
 20
170.564050412053
 30
0.0
 10
578.3862234053311
 20
170.4592353955096
 30
0.0
 10
578.072795594458
 20
170.4607635905448
 30
0.0
 10
577.8821787771587
 20
170.5317080199721
 30
0.0
 10
577.7909280135811
 20
170.5656700462431
 30
0.0
  0
SPLINE
  5
3577
330
1A
100
AcDbEntity
  8
SEIHIN
  6
CONTINUOUS
 62
     3
 48
5.0
100
AcDbSpline
210
0.0
220
0.0
230
1.0
 70
     8
 71
     3
 72
    13
 73
     9
 74
     0
 42
0.0000000001
 43
0.0000000001
 40
0.0
 40
0.0
 40
0.0
 40
0.0
 40
0.1853054207097844
 40
0.36517852152137
 40
0.5302701516764927
 40
0.6878236889830629
 40
0.8506852025218607
 40
1.0
 40
1.0
 40
1.0
 40
1.0
 10
571.6558656949429
 20
170.565670046251
 30
0.0
 10
571.5415703903131
 20
170.525206794558
 30
0.0
 10
571.3163304043393
 20
170.4454664913733
 30
0.0
 10
570.9601756857218
 20
170.4767837853687
 30
0.0
 10
570.6588729620734
 20
170.6277271741536
 30
0.0
 10
570.4457909214384
 20
170.8721897292981
 30
0.0
 10
570.3281186900605
 20
171.1627304380198
 30
0.0
 10
570.3213279371348
 20
171.3661548828823
 30
0.0
 10
570.3180799011306
 20
171.4634533604249
 30
0.0
  0
ELLIPSE
  5
3578
330
1A
100
AcDbEntity
  8
SEIHIN
  6
CONTINUOUS
 62
     3
 48
5.0
100
AcDbEllipse
 10
578.0676204478552
 20
223.668995973498
 30
0.0
 11
-0.7916666666666856
 21
-0.7916666666666572
 31
0.0
210
0.0
220
0.0
230
-1.0
 40
0.8931875130999998
 41
2.38562324316592
 42
3.897562064013644
  0
ELLIPSE
  5
3579
330
1A
100
AcDbEntity
  8
SEIHIN
  6
CONTINUOUS
 62
     3
 48
5.0
100
AcDbEllipse
 10
571.3791732606552
 20
223.668995973498
 30
0.0
 11
-0.7916666666666287
 21
0.791666666666714
 31
0.0
210
0.0
220
0.0
230
-1.0
 40
0.8931875130999998
 41
5.52721589675569
 42
7.039154717603455
  0
ELLIPSE
  5
357A
330
1A
100
AcDbEntity
  8
SEIHIN
  6
CONTINUOUS
 62
     3
 48
5.0
100
AcDbEllipse
 10
603.3553628655552
 20
203.692806368598
 30
0.0
 11
-1.01036297108186
 21
1.01036297108186
 31
0.0
210
0.0
220
0.0
230
-1.0
 40
0.6998542122
 41
2.456873450587499
 42
3.826311856592182
  0
SPLINE
  5
357B
330
1A
100
AcDbEntity
  8
SEIHIN
  6
CONTINUOUS
 62
     3
 48
5.0
100
AcDbSpline
210
0.0
220
0.0
230
1.0
 70
     8
 71
     3
 72
    14
 73
    10
 74
     0
 42
0.0000000001
 43
0.0000000001
 40
0.0
 40
0.0
 40
0.0
 40
0.0
 40
0.2255107083803645
 40
0.3963062534411245
 40
0.4405785779879766
 40
0.6191724007374449
 40
0.6304223660199437
 40
0.8171379694788775
 40
1.0
 40
1.0
 40
1.0
 40
1.0
 10
603.653755459758
 20
209.4165090597775
 30
0.0
 10
603.7671919710107
 20
209.4217336795686
 30
0.0
 10
603.966542144228
 20
209.4309152812314
 30
0.0
 10
604.1792221676137
 20
209.3485641799771
 30
0.0
 10
604.3444261059189
 20
209.2390243961755
 30
0.0
 10
604.4266661954777
 20
209.1483600540767
 30
0.0
 10
604.5231101846027
 20
208.9852875878662
 30
0.0
 10
604.5894642972044
 20
208.799638412428
 30
0.0
 10
604.5866116864677
 20
208.6144680289166
 30
0.0
 10
604.5852002531351
 20
208.5228482196856
 30
0.0
  0
ELLIPSE
  5
357C
330
1A
100
AcDbEntity
  8
SEIHIN
  6
CONTINUOUS
 62
     3
 48
5.0
100
AcDbEllipse
 10
586.5914308430554
 20
203.692806368598
 30
0.0
 11
-1.010362971081804
 21
-1.010362971081831
 31
0.0
210
0.0
220
0.0
230
-1.0
 40
0.6998542121999999
 41
5.598466104177303
 42
6.967904510181901
  0
ELLIPSE
  5
357D
330
1A
100
AcDbEntity
  8
SEIHIN
  6
CONTINUOUS
 62
     3
 48
5.0
100
AcDbEllipse
 10
594.7158201813554
 20
223.456738391098
 30
0.0
 11
-1.01036297108186
 21
-1.010362971081832
 31
0.0
210
0.0
220
0.0
230
-1.0
 40
0.6998542121999999
 41
2.4568734505875
 42
3.826311856592068
  0
ELLIPSE
  5
357E
330
1A
100
AcDbEntity
  8
SEIHIN
  6
CONTINUOUS
 62
     3
 48
5.0
100
AcDbEllipse
 10
586.5914308430554
 20
223.456738391098
 30
0.0
 11
-1.010362971081804
 21
1.01036297108186
 31
0.0
210
0.0
220
0.0
230
-0.9999999999999998
 40
0.6998542122
 41
5.598466104177319
 42
6.967904510181852
  0
SPLINE
  5
357F
330
1A
100
AcDbEntity
  8
SEIHIN
  6
CONTINUOUS
 62
     3
 48
5.0
100
AcDbSpline
210
0.0
220
0.0
230
1.0
 70
     8
 71
     3
 72
    16
 73
    12
 74
     0
 42
0.0000000001
 43
0.0000000001
 40
0.0
 40
0.0
 40
0.0
 40
0.0
 40
0.2171386642748686
 40
0.3334999788850273
 40
0.4097902014477654
 40
0.5030480635734489
 40
0.5599680007876811
 40
0.6707390720097967
 40
0.6997056276565266
 40
0.8636298164810032
 40
1.0
 40
1.0
 40
1.0
 40
1.0
 10
563.215539592923
 20
159.7072212686251
 30
0.0
 10
563.2791701688009
 20
159.6805445650778
 30
0.0
 10
563.3768994045529
 20
159.6395722209791
 30
0.0
 10
563.5100550202825
 20
159.6337001398597
 30
0.0
 10
563.6015567831941
 20
159.6515035915141
 30
0.0
 10
563.669168348475
 20
159.6853933976116
 30
0.0
 10
563.7329118387437
 20
159.7430466124482
 30
0.0
 10
563.7668688188273
 20
159.7991819362317
 30
0.0
 10
563.8008988688163
 20
159.8907922342285
 30
0.0
 10
563.8154106114327
 20
159.9969539617967
 30
0.0
 10
563.8045115042707
 20
160.0905095000192
 30
0.0
 10
563.7995619834646
 20
160.1329950977914
 30
0.0
  0
SPLINE
  5
3580
330
1A
100
AcDbEntity
  8
SEIHIN
  6
CONTINUOUS
 62
     3
 48
5.0
100
AcDbSpline
210
0.0
220
0.0
230
1.0
 70
     8
 71
     3
 72
    13
 73
     9
 74
     0
 42
0.0000000001
 43
0.0000000001
 40
0.0
 40
0.0
 40
0.0
 40
0.0
 40
0.1851330428579794
 40
0.3650267311097466
 40
0.5303652848785339
 40
0.6879496806583965
 40
0.8506174307284018
 40
1.0
 40
1.0
 40
1.0
 40
1.0
 10
570.3180799011213
 20
171.4634533604265
 30
0.0
 10
570.3240718689242
 20
171.342435357217
 30
0.0
 10
570.3358862289444
 20
171.1038242187891
 30
0.0
 10
570.4998722229554
 20
170.7861835805939
 30
0.0
 10
570.75351434719
 20
170.564050412053
 30
0.0
 10
571.0605703031794
 20
170.4592353955096
 30
0.0
 10
571.3739981140524
 20
170.4607635905448
 30
0.0
 10
571.5646149313518
 20
170.5317080199721
 30
0.0
 10
571.6558656949294
 20
170.5656700462431
 30
0.0
  0
SPLINE
  5
3581
330
1A
100
AcDbEntity
  8
SEIHIN
  6
CONTINUOUS
 62
     3
 48
5.0
100
AcDbSpline
210
0.0
220
0.0
230
1.0
 70
     8
 71
     3
 72
    13
 73
     9
 74
     0
 42
0.0000000001
 43
0.0000000001
 40
0.0
 40
0.0
 40
0.0
 40
0.0
 40
0.1853054207097844
 40
0.36517852152137
 40
0.5302701516764927
 40
0.6878236889830629
 40
0.8506852025218607
 40
1.0
 40
1.0
 40
1.0
 40
1.0
 10
577.7909280135674
 20
170.565670046251
 30
0.0
 10
577.9052233181974
 20
170.525206794558
 30
0.0
 10
578.1304633041711
 20
170.4454664913733
 30
0.0
 10
578.4866180227886
 20
170.4767837853687
 30
0.0
 10
578.787920746437
 20
170.6277271741536
 30
0.0
 10
579.0010027870721
 20
170.8721897292981
 30
0.0
 10
579.11867501845
 20
171.1627304380198
 30
0.0
 10
579.1254657713757
 20
171.3661548828823
 30
0.0
 10
579.1287138073799
 20
171.4634533604249
 30
0.0
  0
SPLINE
  5
3582
330
1A
100
AcDbEntity
  8
SEIHIN
  6
CONTINUOUS
 62
     3
 48
5.0
100
AcDbSpline
210
0.0
220
0.0
230
1.0
 70
     8
 71
     3
 72
    14
 73
    10
 74
     0
 42
0.0000000001
 43
0.0000000001
 40
0.0
 40
0.0
 40
0.0
 40
0.0
 40
0.2255107083803645
 40
0.3963062534411245
 40
0.4405785779879766
 40
0.6191724007374449
 40
0.6304223660199437
 40
0.8171379694788775
 40
1.0
 40
1.0
 40
1.0
 40
1.0
 10
545.7930382487525
 20
209.4165090597775
 30
0.0
 10
545.6796017374997
 20
209.4217336795686
 30
0.0
 10
545.4802515642825
 20
209.4309152812314
 30
0.0
 10
545.2675715408968
 20
209.3485641799771
 30
0.0
 10
545.1023676025916
 20
209.2390243961755
 30
0.0
 10
545.0201275130328
 20
209.1483600540767
 30
0.0
 10
544.9236835239077
 20
208.9852875878662
 30
0.0
 10
544.8573294113061
 20
208.799638412428
 30
0.0
 10
544.8601820220428
 20
208.6144680289166
 30
0.0
 10
544.8615934553754
 20
208.5228482196856
 30
0.0
  0
ELLIPSE
  5
3583
330
1A
100
AcDbEntity
  8
SEIHIN
  6
CONTINUOUS
 62
     3
 48
5.0
100
AcDbEllipse
 10
546.0914308429553
 20
203.692806368598
 30
0.0
 11
1.01036297108186
 21
1.01036297108186
 31
0.0
210
0.0
220
0.0
230
1.0
 40
0.6998542122
 41
2.456873450587499
 42
3.826311856592182
  0
ELLIPSE
  5
3584
330
1A
100
AcDbEntity
  8
SEIHIN
  6
CONTINUOUS
 62
     3
 48
5.0
100
AcDbEllipse
 10
562.8553628654551
 20
203.692806368598
 30
0.0
 11
1.010362971081804
 21
-1.010362971081831
 31
0.0
210
0.0
220
0.0
230
1.0
 40
0.6998542121999999
 41
5.598466104177303
 42
6.967904510181901
  0
SPLINE
  5
3585
330
1A
100
AcDbEntity
  8
SEIHIN
  6
CONTINUOUS
 62
     3
 48
5.0
100
AcDbSpline
210
0.0
220
0.0
230
1.0
 70
     8
 71
     3
 72
    10
 73
     6
 74
     0
 42
0.0000000001
 43
0.0000000001
 40
0.0
 40
0.0
 40
0.0
 40
0.0
 40
0.3471274010665737
 40
0.689563746072185
 40
1.0
 40
1.0
 40
1.0
 40
1.0
 10
552.8678819417896
 20
196.2036048160793
 30
0.0
 10
552.8730093990932
 20
196.1013794189558
 30
0.0
 10
552.8831950215922
 20
195.8983100917648
 30
0.0
 10
553.0332902421526
 20
195.6303687522377
 30
0.0
 10
553.1878866538997
 20
195.5166661147057
 30
0.0
 10
553.2613961425993
 20
195.4626013233285
 30
0.0
  0
ELLIPSE
  5
3586
330
1A
100
AcDbEntity
  8
SEIHIN
  6
CONTINUOUS
 62
     3
 48
5.0
100
AcDbEllipse
 10
554.0977193294552
 20
196.456738391098
 30
0.0
 11
1.01036297108186
 21
-1.01036297108186
 31
0.0
210
0.0
220
0.0
230
1.0
 40
0.6998542122
 41
2.456873450587516
 42
3.826311856592102
  0
ELLIPSE
  5
3587
330
1A
100
AcDbEntity
  8
SEIHIN
  6
CONTINUOUS
 62
     3
 48
5.0
100
AcDbEllipse
 10
562.5697245958551
 20
196.456738391098
 30
0.0
 11
1.01036297108186
 21
1.01036297108186
 31
0.0
210
0.0
220
0.0
230
1.0
 40
0.6998542122
 41
5.598466104177317
 42
6.967904510181917
  0
ELLIPSE
  5
3588
330
1A
100
AcDbEntity
  8
SEIHIN
  6
CONTINUOUS
 62
     3
 48
5.0
100
AcDbEllipse
 10
554.7309735271551
 20
223.456738391098
 30
0.0
 11
1.01036297108186
 21
-1.010362971081832
 31
0.0
210
0.0
220
0.0
230
1.0
 40
0.6998542121999999
 41
2.4568734505875
 42
3.826311856592068
  0
ELLIPSE
  5
3589
330
1A
100
AcDbEntity
  8
SEIHIN
  6
CONTINUOUS
 62
     3
 48
5.0
100
AcDbEllipse
 10
562.8553628654551
 20
223.456738391098
 30
0.0
 11
1.010362971081804
 21
1.01036297108186
 31
0.0
210
0.0
220
0.0
230
0.9999999999999998
 40
0.6998542122
 41
5.598466104177319
 42
6.967904510181852
  0
ELLIPSE
  5
358A
330
1A
100
AcDbEntity
  8
SEIHIN
  6
CONTINUOUS
 62
     3
 48
5.0
100
AcDbEllipse
 10
571.3791732606552
 20
223.668995973498
 30
0.0
 11
0.7916666666666856
 21
-0.7916666666666572
 31
0.0
210
0.0
220
0.0
230
1.0
 40
0.8931875130999998
 41
2.38562324316592
 42
3.897562064013644
  0
ELLIPSE
  5
358B
330
1A
100
AcDbEntity
  8
SEIHIN
  6
CONTINUOUS
 62
     3
 48
5.0
100
AcDbEllipse
 10
578.0676204478552
 20
223.668995973498
 30
0.0
 11
0.7916666666666287
 21
0.791666666666714
 31
0.0
210
0.0
220
0.0
230
1.0
 40
0.8931875130999998
 41
5.52721589675569
 42
7.039154717603455
  0
DIMENSION
  5
358C
330
1A
100
AcDbEntity
  8
SUNPOU
 48
5.0
100
AcDbDimension
  2
*D16
 10
504.275354746703
 20
155.824772379898
 30
0.0
 11
499.3663697625563
 21
159.2443268492052
 31
0.0
 70
   160
  3
STANDARD
100
AcDbAlignedDimension
 13
570.4543363986992
 23
163.074772379898
 33
0.0
 14
574.7233968542552
 24
155.824772379898
 34
0.0
 50
90.0
100
AcDbRotatedDimension
1001
ACAD
1000
DSTYLE
1002
{
1070
   287
1070
     5
1070
    41
1040
7.0
1070
    42
1040
6.0
1070
    43
1040
14.0
1070
    44
1040
3.0
1070
    73
1070
     0
1070
    74
1070
     0
1070
    77
1070
     3
1070
   140
1040
6.0
1070
   141
1040
150.0
1070
   147
1040
2.0
1070
   172
1070
     1
1070
   173
1070
     1
1070
   176
1070
   256
1070
   177
1070
   256
1070
   178
1070
   256
1070
   271
1070
     0
1070
   272
1070
     0
1070
   279
1070
     2
1070
   341
1005
6D
1070
     6
1000
OPEN
1070
     7
1000
OPEN
1070
   371
1070
    -1
1070
   372
1070
    -1
1002
}
  0
DIMENSION
  5
358D
330
1A
100
AcDbEntity
  8
SUNPOU
 48
5.0
100
AcDbDimension
  2
*D15
 10
504.275354746703
 20
163.074772379898
 30
0.0
 11
499.2753547467029
 21
191.9497723798981
 31
0.0
 70
    32
  3
STANDARD
100
AcDbAlignedDimension
 13
541.838935886393
 23
220.824772379898
 33
0.0
 14
570.4543363986992
 24
163.074772379898
 34
0.0
 50
90.0
100
AcDbRotatedDimension
1001
ACAD
1000
DSTYLE
1002
{
1070
   287
1070
     5
1070
    41
1040
7.0
1070
    42
1040
6.0
1070
    43
1040
14.0
1070
    44
1040
3.0
1070
    73
1070
     0
1070
    74
1070
     0
1070
    77
1070
     3
1070
   140
1040
6.0
1070
   141
1040
150.0
1070
   147
1040
2.0
1070
   172
1070
     1
1070
   173
1070
     1
1070
   176
1070
   256
1070
   177
1070
   256
1070
   178
1070
   256
1070
   271
1070
     0
1070
   272
1070
     0
1070
   279
1070
     2
1070
   341
1005
6D
1070
     6
1000
OPEN
1070
     7
1000
OPEN
1070
   371
1070
    -1
1070
   372
1070
    -1
1002
}
  0
LINE
  5
358E
330
1A
100
AcDbEntity
  8
SEIHIN
  6
CONTINUOUS
 62
     3
 48
5.0
100
AcDbLine
 10
561.8733968542551
 20
232.158370859198
 30
0.0
 11
587.5733968542552
 21
232.158370859198
 31
0.0
  0
ARC
  5
358F
330
1A
100
AcDbEntity
  8
SEIHIN
  6
CONTINUOUS
 62
     3
 48
5.0
100
AcDbCircle
 10
564.4733968542552
 20
163.621901626098
 30
0.0
 40
7.25
100
AcDbArc
 50
180.0
 51
266.9999999994987
  0
LINE
  5
3590
330
1A
100
AcDbEntity
  8
SEIHIN
  6
CONTINUOUS
 62
     3
 48
5.0
100
AcDbLine
 10
601.7233968542552
 20
229.824772379898
 30
0.0
 11
547.7233968542552
 21
229.824772379898
 31
0.0
  0
ARC
  5
3591
330
1A
100
AcDbEntity
  8
SEIHIN
  6
CONTINUOUS
 62
     3
 48
5.0
100
AcDbCircle
 10
547.7233968542552
 20
204.824772379898
 30
0.0
 40
10.0
100
AcDbArc
 50
180.0
 51
261.2470709231029
  0
LINE
  5
3592
330
1A
100
AcDbEntity
  8
SEIHIN
  6
CONTINUOUS
 62
     3
 48
5.0
100
AcDbLine
 10
563.7995619834553
 20
160.132995097798
 30
0.0
 11
563.7995619834553
 21
196.792148587698
 31
0.0
  0
LINE
  5
3593
330
1A
100
AcDbEntity
  8
SEIHIN
  6
CONTINUOUS
 62
     3
 48
5.0
100
AcDbLine
 10
557.2233968542552
 20
182.092636536498
 30
0.0
 11
557.2233968542552
 21
163.621901626098
 31
0.0
  0
LINE
  5
3594
330
1A
100
AcDbEntity
  8
SEIHIN
  6
CONTINUOUS
 62
     3
 48
5.0
100
AcDbLine
 10
560.3615934553552
 20
182.092636536498
 30
0.0
 11
560.3615934553552
 21
163.621901626098
 31
0.0
  0
ARC
  5
3595
330
1A
100
AcDbEntity
  8
SEIHIN
  6
CONTINUOUS
 62
     3
 48
5.0
100
AcDbCircle
 10
564.4733968542552
 20
163.621901626098
 30
0.0
 40
4.111803398880624
100
AcDbArc
 50
180.0
 51
252.1868533247025
  0
ARC
  5
3596
330
1A
100
AcDbEntity
  8
SEIHIN
  6
CONTINUOUS
 62
     3
 48
5.0
100
AcDbCircle
 10
544.2233968542552
 20
182.092636536498
 30
0.0
 40
13.0
100
AcDbArc
 50
0.0
 51
81.24707092309652
  0
ARC
  5
3597
330
1A
100
AcDbEntity
  8
SEIHIN
  6
CONTINUOUS
 62
     3
 48
5.0
100
AcDbCircle
 10
544.2233968542552
 20
182.092636536498
 30
0.0
 40
16.13819660112506
100
AcDbArc
 50
0.0
 51
55.94159166140311
  0
LINE
  5
3598
330
1A
100
AcDbEntity
  8
SEIHIN
  6
CONTINUOUS
 62
     3
 48
5.0
100
AcDbLine
 10
562.9051347924553
 20
197.686575778698
 30
0.0
 11
553.7623091327552
 21
197.686575778698
 31
0.0
  0
LINE
  5
3599
330
1A
100
AcDbEntity
  8
SEIHIN
  6
CONTINUOUS
 62
     3
 48
5.0
100
AcDbLine
 10
552.8678819417552
 20
196.792148587698
 30
0.0
 11
552.8678819417552
 21
196.203604816098
 31
0.0
  0
MTEXT
  5
359A
330
1A
100
AcDbEntity
  8
ZUWAKU
 62
     4
100
AcDbMText
 10
521.3946496330188
 20
269.4143563144032
 30
0.0
 40
6.0
 41
0.0
 71
     9
 72
     5
  1
3-φ4.2
1001
ACAD
1000
MTEXTBEGIN
1070
    73
1070
     1
1070
    44
1040
1.0
1070
    74
1070
     0
1000
MTEXTEND
1000
MTEXTBEGIN
1070
    73
1070
     1
1070
    44
1040
1.0
1070
    74
1070
     0
1000
MTEXTEND
1000
MTEXTBEGIN
1070
    73
1070
     1
1070
    44
1040
1.0
1070
    74
1070
     0
1000
MTEXTEND
1000
MTEXTBEGIN
1070
    73
1070
     1
1070
    44
1040
1.0
1070
    74
1070
     0
1000
MTEXTEND
1000
MTEXTBEGIN
1070
    73
1070
     1
1070
    44
1040
1.0
1070
    74
1070
     0
1000
MTEXTEND
  0
LEADER
  5
359B
330
1A
100
AcDbEntity
  8
SUNPOU
  6
CONTINUOUS
 62
     4
100
AcDbLeader
  3
STANDARD
 73
     0
 40
6.0
 41
31.19999999999999
 76
     3
 10
543.9467115672903
 20
222.7270926915768
 30
0.0
 10
525.5882267545237
 20
267.4143563144032
 30
0.0
 10
523.3946496330188
 20
267.4143563144032
 30
0.0
1001
ACAD
1000
DSTYLE
1002
{
1070
     6
1000
OPEN
1070
    41
1040
7.0
1070
    42
1040
6.0
1070
    43
1040
14.0
1070
    44
1040
3.0
1070
    73
1070
     0
1070
    74
1070
     0
1070
    77
1070
     3
1070
   140
1040
6.0
1070
   141
1040
150.0
1070
   147
1040
2.0
1070
   172
1070
     1
1070
   173
1070
     1
1070
   176
1070
     4
1070
   177
1070
     4
1070
   178
1070
     4
1070
   271
1070
     0
1070
   272
1070
     2
1070
   341
1005
6D
1070
   343
1005
6D
1070
   344
1005
6D
1002
}
  0
DIMENSION
  5
359C
330
1A
100
AcDbEntity
  8
SUNPOU
 48
5.0
100
AcDbDimension
  2
*D14
 10
504.275354746703
 20
220.824772379898
 30
0.0
 11
499.2753547467029
 21
225.3247723798981
 31
0.0
 70
    32
  3
STANDARD
100
AcDbAlignedDimension
 13
547.7233968542552
 23
229.824772379898
 33
0.0
 14
541.838935886393
 24
220.824772379898
 34
0.0
 50
90.0
100
AcDbRotatedDimension
1001
ACAD
1000
DSTYLE
1002
{
1070
   287
1070
     5
1070
    41
1040
7.0
1070
    42
1040
6.0
1070
    43
1040
14.0
1070
    44
1040
3.0
1070
    73
1070
     0
1070
    74
1070
     0
1070
    77
1070
     3
1070
   140
1040
6.0
1070
   141
1040
150.0
1070
   147
1040
2.0
1070
   172
1070
     1
1070
   173
1070
     1
1070
   176
1070
   256
1070
   177
1070
   256
1070
   178
1070
   256
1070
   271
1070
     0
1070
   272
1070
     0
1070
   279
1070
     2
1070
   341
1005
6D
1070
     6
1000
OPEN
1070
     7
1000
OPEN
1070
   371
1070
    -1
1070
   372
1070
    -1
1002
}
  0
LINE
  5
359D
330
1A
100
AcDbEntity
  8
CENTER_L
  6
CONTINUOUS
 62
     1
 48
5.0
100
AcDbLine
 10
545.7233968542552
 20
211.1433420757268
 30
0.0
 11
545.7233968542552
 21
225.3429027376757
 31
0.0
  0
ARC
  5
359E
330
1A
100
AcDbEntity
  8
SEIHIN
  6
CONTINUOUS
 62
     3
 48
5.0
100
AcDbCircle
 10
547.7233968542552
 20
219.824772379898
 30
0.0
 40
10.0
100
AcDbArc
 50
90.0
 51
180.0
  0
LINE
  5
359F
330
1A
100
AcDbEntity
  8
CENTER_L
  6
CENTER
 62
     1
 48
5.0
100
AcDbLine
 10
541.838935886393
 20
220.824772379898
 30
0.0
 11
549.6622795969826
 21
220.824772379898
 31
0.0
  0
LINE
  5
35A0
330
1A
100
AcDbEntity
  8
CENTER_L
  6
CENTER
 62
     1
 48
5.0
100
AcDbLine
 10
540.7430561772359
 20
216.345252714798
 30
0.0
 11
550.6972749208519
 21
216.345252714798
 31
0.0
  0
ARC
  5
35A1
330
1A
100
AcDbEntity
  8
SEIHIN
  6
CONTINUOUS
 62
     3
 48
5.0
100
AcDbCircle
 10
545.7233968542552
 20
216.345252714798
 30
0.0
 40
3.512515129827961
100
AcDbArc
 50
121.5318647334023
 51
58.46813526659681
  0
ARC
  5
35A2
330
1A
100
AcDbEntity
  8
SEIHIN
  6
CONTINUOUS
 62
     3
 48
5.0
100
AcDbCircle
 10
546.1047827957552
 20
216.942493345298
 30
0.0
 40
7.532438126415082
100
AcDbArc
 50
267.6280256666974
 51
349.0923636470997
  0
ARC
  5
35A3
330
1A
100
AcDbEntity
  8
SEIHIN
  6
CONTINUOUS
 62
     3
 48
5.0
100
AcDbCircle
 10
545.7233968542552
 20
220.824772379898
 30
0.0
 40
2.362515129828078
100
AcDbArc
 50
321.0358662985997
 51
218.9641337014002
  0
LINE
  5
35A4
330
1A
100
AcDbEntity
  8
SEIHIN
  6
CONTINUOUS
 62
     3
 48
5.0
100
AcDbLine
 10
545.7560206463551
 20
202.462968980998
 30
0.0
 11
563.1907730621551
 21
202.462968980998
 31
0.0
  0
LINE
  5
35A5
330
1A
100
AcDbEntity
  8
SEIHIN
  6
CONTINUOUS
 62
     3
 48
5.0
100
AcDbLine
 10
537.7233968542553
 20
204.824772379898
 30
0.0
 11
537.7233968542553
 21
219.824772379898
 31
0.0
  0
LINE
  5
35A6
330
1A
100
AcDbEntity
  8
SEIHIN
  6
CONTINUOUS
 62
     3
 48
5.0
100
AcDbLine
 10
544.8615934553552
 20
208.5228482196979
 30
0.0
 11
544.8615934553552
 21
203.357396171998
 31
0.0
  0
LINE
  5
35A7
330
1A
100
AcDbEntity
  8
SEIHIN
  6
CONTINUOUS
 62
     3
 48
5.0
100
AcDbLine
 10
553.5011361395552
 20
223.792148587698
 30
0.0
 11
553.5011361395552
 21
215.517157825998
 31
0.0
  0
LINE
  5
35A8
330
1A
100
AcDbEntity
  8
SEIHIN
  6
CONTINUOUS
 62
     3
 48
5.0
100
AcDbLine
 10
563.1907730621551
 20
224.686575778698
 30
0.0
 11
554.3955633305552
 21
224.686575778698
 31
0.0
  0
ARC
  5
35A9
330
1A
100
AcDbEntity
  8
SEIHIN
  6
CONTINUOUS
 62
     3
 48
5.0
100
AcDbCircle
 10
561.8733968542551
 20
228.158370859198
 30
0.0
 40
4.0
100
AcDbArc
 50
90.0
 51
155.3798594528
  0
LEADER
  5
35AA
330
1A
100
AcDbEntity
  8
SUNPOU
  6
CONTINUOUS
 62
     4
100
AcDbLeader
  3
STANDARD
 73
     0
 74
     0
 40
6.0
 41
31.19999999999999
 76
     3
 10
606.0388527614271
 20
213.7055450421259
 30
0.0
 10
623.8938057370457
 20
183.8407834181773
 30
0.0
 10
625.7788767537679
 20
183.8407834181773
 30
0.0
1001
ACAD
1000
DSTYLE
1002
{
1070
     6
1000
OPEN
1070
    41
1040
7.0
1070
    42
1040
6.0
1070
    43
1040
14.0
1070
    44
1040
3.0
1070
    73
1070
     0
1070
    74
1070
     0
1070
    77
1070
     3
1070
   140
1040
6.0
1070
   141
1040
150.0
1070
   147
1040
2.0
1070
   172
1070
     1
1070
   173
1070
     1
1070
   176
1070
     4
1070
   177
1070
     4
1070
   178
1070
     4
1070
   271
1070
     0
1070
   272
1070
     2
1070
   341
1005
6D
1070
   343
1005
6D
1070
   344
1005
6D
1002
}
  0
LINE
  5
35AB
330
1A
100
AcDbEntity
  8
SEIHIN
  6
CONTINUOUS
 62
     3
 48
5.0
100
AcDbLine
 10
570.3180799011552
 20
171.463453360398
 30
0.0
 11
570.3180799011552
 21
223.759946832898
 31
0.0
  0
LINE
  5
35AC
330
1A
100
AcDbEntity
  8
SEIHIN
  6
CONTINUOUS
 62
     3
 48
5.0
100
AcDbLine
 10
579.1287138073553
 20
223.759946832898
 30
0.0
 11
579.1287138073553
 21
171.463453360398
 31
0.0
  0
LINE
  5
35AD
330
1A
100
AcDbEntity
  8
SEIHIN
  6
CONTINUOUS
 62
     3
 48
5.0
100
AcDbLine
 10
570.3180799011552
 20
223.759946832898
 30
0.0
 11
570.3180799011552
 21
171.463453360398
 31
0.0
  0
LINE
  5
35AE
330
1A
100
AcDbEntity
  8
SEIHIN
  6
CONTINUOUS
 62
     3
 48
5.0
100
AcDbLine
 10
579.1287138073553
 20
171.463453360398
 30
0.0
 11
579.1287138073553
 21
223.759946832898
 31
0.0
  0
ARC
  5
35AF
330
1A
100
AcDbEntity
  8
SEIHIN
  6
CONTINUOUS
 62
     3
 48
5.0
100
AcDbCircle
 10
601.7233968542552
 20
204.824772379898
 30
0.0
 40
10.0
100
AcDbArc
 50
278.7529290769035
 51
0.0
  0
MTEXT
  5
35B0
330
1A
100
AcDbEntity
  8
SUNPOU
  6
CONTINUOUS
 62
     4
100
AcDbMText
 10
627.7788767537678
 20
185.8407834181773
 30
0.0
 40
6.0
 41
0.0
 71
     7
 72
     5
  1
2-φ6.5
1001
ACAD
1000
MTEXTBEGIN
1070
    73
1070
     1
1070
    44
1040
1.0
1070
    74
1070
     0
1000
MTEXTEND
1000
MTEXTBEGIN
1070
    73
1070
     1
1070
    44
1040
1.0
1070
    74
1070
     0
1000
MTEXTEND
1000
MTEXTBEGIN
1070
    73
1070
     1
1070
    44
1040
1.0
1070
    74
1070
     0
1000
MTEXTEND
1000
MTEXTBEGIN
1070
    73
1070
     1
1070
    44
1040
1.0
1070
    74
1070
     0
1000
MTEXTEND
1000
MTEXTBEGIN
1070
    73
1070
     1
1070
    44
1040
1.0
1070
    74
1070
     0
1000
MTEXTEND
  0
ARC
  5
35B1
330
1A
100
AcDbEntity
  8
SEIHIN
  6
CONTINUOUS
 62
     3
 48
5.0
100
AcDbCircle
 10
584.9733968542552
 20
163.437129463398
 30
0.0
 40
7.25
100
AcDbArc
 50
272.0000000001991
 51
0.0
  0
ARC
  5
35B2
330
1A
100
AcDbEntity
  8
SEIHIN
  6
CONTINUOUS
 62
     3
 48
5.0
100
AcDbCircle
 10
605.2233968542553
 20
182.092636536498
 30
0.0
 40
12.99999999999991
100
AcDbArc
 50
98.75292907690349
 51
180.0
  0
LINE
  5
35B3
330
1A
100
AcDbEntity
  8
SEIHIN
  6
CONTINUOUS
 62
     3
 48
5.0
100
AcDbLine
 10
589.0852002531553
 20
182.092636536498
 30
0.0
 11
589.0852002531553
 21
163.621901626098
 31
0.0
  0
LINE
  5
35B4
330
1A
100
AcDbEntity
  8
SEIHIN
  6
CONTINUOUS
 62
     3
 48
5.0
100
AcDbLine
 10
585.6472317250552
 20
160.132995097798
 30
0.0
 11
585.6472317250552
 21
196.792148587698
 31
0.0
  0
LINE
  5
35B5
330
1A
100
AcDbEntity
  8
SEIHIN
  6
CONTINUOUS
 62
     3
 48
5.0
100
AcDbLine
 10
592.2233968542553
 20
163.437129463398
 30
0.0
 11
592.2233968542553
 21
182.092636536498
 31
0.0
  0
LINE
  5
35B6
330
1A
100
AcDbEntity
  8
SEIHIN
  6
CONTINUOUS
 62
     3
 48
5.0
100
AcDbLine
 10
574.7233968542552
 20
155.824772379898
 30
0.0
 11
585.2264182053552
 21
156.1915459674979
 31
0.0
  0
LINE
  5
35B7
330
1A
100
AcDbEntity
  8
CENTER_L
  6
CONTINUOUS
 62
     1
 48
5.0
100
AcDbLine
 10
574.7233968542552
 20
159.0633390807092
 30
0.0
 11
574.7233968542552
 21
167.2604584680457
 31
0.0
  0
LINE
  5
35B8
330
1A
100
AcDbEntity
  8
CENTER_L
  6
CONTINUOUS
 62
     1
 48
5.0
100
AcDbLine
 10
570.4543363986992
 20
163.074772379898
 30
0.0
 11
579.192133876608
 21
163.074772379898
 31
0.0
  0
LINE
  5
35B9
330
1A
100
AcDbEntity
  8
SEIHIN
  6
CONTINUOUS
 62
     3
 48
5.0
100
AcDbLine
 10
564.0939611714552
 20
156.3818374990979
 30
0.0
 11
574.7233968542552
 21
155.824772379898
 31
0.0
  0
CIRCLE
  5
35BA
330
1A
100
AcDbEntity
  8
SEIHIN
  6
CONTINUOUS
 62
     3
 48
5.0
100
AcDbCircle
 10
574.7233968542552
 20
163.074772379898
 30
0.0
 40
2.379975514573857
  0
ARC
  5
35BB
330
1A
100
AcDbEntity
  8
SEIHIN
  6
CONTINUOUS
 62
     3
 48
5.0
100
AcDbCircle
 10
574.7233968542552
 20
163.074772379898
 30
0.0
 40
8.094646086244985
100
AcDbArc
 50
67.73084424389766
 51
112.2691557559977
  0
ARC
  5
35BC
330
1A
100
AcDbEntity
  8
SEIHIN
  6
CONTINUOUS
 62
     3
 48
5.0
100
AcDbCircle
 10
574.7233968542552
 20
163.074772379898
 30
0.0
 40
8.094646086244985
100
AcDbArc
 50
67.73084424400227
 51
112.2691557561023
  0
ARC
  5
35BD
330
1A
100
AcDbEntity
  8
SEIHIN
  6
CONTINUOUS
 62
     3
 48
5.0
100
AcDbCircle
 10
584.9733968542552
 20
163.621901626098
 30
0.0
 40
4.111803398880624
100
AcDbArc
 50
287.8131466752974
 51
0.000000000000007
  0
ARC
  5
35BE
330
1A
100
AcDbEntity
  8
SEIHIN
  6
CONTINUOUS
 62
     3
 48
5.0
100
AcDbCircle
 10
605.2233968542553
 20
182.092636536498
 30
0.0
 40
16.13819660112506
100
AcDbArc
 50
124.0584083385968
 51
180.0
  0
LINE
  5
35BF
330
1A
100
AcDbEntity
  8
SEIHIN
  6
CONTINUOUS
 62
     3
 48
5.0
100
AcDbLine
 10
586.5416589160552
 20
197.686575778698
 30
0.0
 11
595.6844845757553
 21
197.686575778698
 31
0.0
  0
LINE
  5
35C0
330
1A
100
AcDbEntity
  8
SEIHIN
  6
CONTINUOUS
 62
     3
 48
5.0
100
AcDbLine
 10
596.5789117667553
 20
196.792148587698
 30
0.0
 11
596.5789117667553
 21
196.203604816098
 31
0.0
  0
DIMENSION
  5
35C1
330
1A
100
AcDbEntity
  8
SUNPOU
 48
5.0
100
AcDbDimension
  2
*D13
 10
648.4986564611679
 20
216.345252714798
 30
0.0
 11
643.4986564611679
 21
223.0850125473481
 31
0.0
 70
    32
  3
STANDARD
100
AcDbAlignedDimension
 13
601.7233968542552
 23
229.824772379898
 33
0.0
 14
608.6972749208519
 24
216.345252714798
 34
0.0
 50
90.0
100
AcDbRotatedDimension
1001
ACAD
1000
DSTYLE
1002
{
1070
    41
1040
7.0
1070
    42
1040
6.0
1070
    43
1040
14.0
1070
    44
1040
3.0
1070
    73
1070
     0
1070
    74
1070
     0
1070
    77
1070
     3
1070
   140
1040
6.0
1070
   141
1040
150.0
1070
   147
1040
2.0
1070
   172
1070
     1
1070
   173
1070
     1
1070
   176
1070
     4
1070
   177
1070
     4
1070
   178
1070
     4
1070
   271
1070
     0
1070
   272
1070
     2
1070
     6
1000
OPEN
1070
     7
1000
OPEN
1002
}
  0
LINE
  5
35C2
330
1A
100
AcDbEntity
  8
SEIHIN
  6
CONTINUOUS
 62
     3
 48
5.0
100
AcDbLine
 10
603.6907730621553
 20
202.462968980998
 30
0.0
 11
586.2560206463554
 21
202.462968980998
 31
0.0
  0
ARC
  5
35C3
330
1A
100
AcDbEntity
  8
SEIHIN
  6
CONTINUOUS
 62
     3
 48
5.0
100
AcDbCircle
 10
603.3420109127553
 20
216.942493345298
 30
0.0
 40
7.532438126415082
100
AcDbArc
 50
190.9076363529002
 51
272.3719743333026
  0
LINE
  5
35C4
330
1A
100
AcDbEntity
  8
SEIHIN
  6
CONTINUOUS
 62
     3
 48
5.0
100
AcDbLine
 10
564.0852002531553
 20
203.357396171998
 30
0.0
 11
564.0852002531553
 21
223.792148587698
 31
0.0
  0
LINE
  5
35C5
330
1A
100
AcDbEntity
  8
SEIHIN
  6
CONTINUOUS
 62
     3
 48
5.0
100
AcDbLine
 10
585.3615934553552
 20
203.357396171998
 30
0.0
 11
585.3615934553552
 21
223.792148587698
 31
0.0
  0
LINE
  5
35C6
330
1A
100
AcDbEntity
  8
SEIHIN
  6
CONTINUOUS
 62
     3
 48
5.0
100
AcDbLine
 10
595.9456575689553
 20
223.792148587698
 30
0.0
 11
595.9456575689553
 21
215.517157825998
 31
0.0
  0
LINE
  5
35C7
330
1A
100
AcDbEntity
  8
SEIHIN
  6
CONTINUOUS
 62
     3
 48
5.0
100
AcDbLine
 10
571.2882224012552
 20
224.730089332998
 30
0.0
 11
578.1585713072551
 21
224.730089332998
 31
0.0
  0
LINE
  5
35C8
330
1A
100
AcDbEntity
  8
SEIHIN
  6
CONTINUOUS
 62
     3
 48
5.0
100
AcDbLine
 10
578.1585713072551
 20
224.730089332998
 30
0.0
 11
571.2882224012552
 21
224.730089332998
 31
0.0
  0
LINE
  5
35C9
330
1A
100
AcDbEntity
  8
SEIHIN
  6
CONTINUOUS
 62
     3
 48
5.0
100
AcDbLine
 10
586.2560206463554
 20
224.686575778698
 30
0.0
 11
595.0512303779553
 21
224.686575778698
 31
0.0
  0
ARC
  5
35CA
330
1A
100
AcDbEntity
  8
SEIHIN
  6
CONTINUOUS
 62
     3
 48
5.0
100
AcDbCircle
 10
587.5733968542552
 20
228.158370859198
 30
0.0
 40
4.000000000000023
100
AcDbArc
 50
24.62014054719998
 51
90.0
  0
LINE
  5
35CB
330
1A
100
AcDbEntity
  8
CENTER_L
  6
CONTINUOUS
 62
     1
 48
5.0
100
AcDbLine
 10
603.7233968542552
 20
211.1433420757268
 30
0.0
 11
603.7233968542552
 21
225.3429027376757
 31
0.0
  0
ARC
  5
35CC
330
1A
100
AcDbEntity
  8
SEIHIN
  6
CONTINUOUS
 62
     3
 48
5.0
100
AcDbCircle
 10
601.7233968542552
 20
219.824772379898
 30
0.0
 40
10.0
100
AcDbArc
 50
0.0
 51
90.0
  0
ARC
  5
35CD
330
1A
100
AcDbEntity
  8
SEIHIN
  6
CONTINUOUS
 62
     3
 48
5.0
100
AcDbCircle
 10
603.7233968542552
 20
216.345252714798
 30
0.0
 40
3.512515129827961
100
AcDbArc
 50
121.5318647334023
 51
58.46813526659681
  0
LINE
  5
35CE
330
1A
100
AcDbEntity
  8
SEIHIN
  6
CONTINUOUS
 62
     3
 48
5.0
100
AcDbLine
 10
611.7233968542552
 20
204.824772379898
 30
0.0
 11
611.7233968542552
 21
219.824772379898
 31
0.0
  0
LINE
  5
35CF
330
1A
100
AcDbEntity
  8
SEIHIN
  6
CONTINUOUS
 62
     3
 48
5.0
100
AcDbLine
 10
604.5852002531553
 20
208.5228482196979
 30
0.0
 11
604.5852002531553
 21
203.357396171998
 31
0.0
  0
LINE
  5
35D0
330
1A
100
AcDbEntity
  8
CENTER_L
  6
CENTER
 62
     1
 48
5.0
100
AcDbLine
 10
598.7430561772359
 20
216.345252714798
 30
0.0
 11
608.6972749208519
 21
216.345252714798
 31
0.0
  0
LINE
  5
35D1
330
1A
100
AcDbEntity
  8
CENTER_L
  6
CENTER
 62
     1
 48
5.0
100
AcDbLine
 10
599.838935886393
 20
220.824772379898
 30
0.0
 11
607.6622795969826
 21
220.824772379898
 31
0.0
  0
ARC
  5
35D2
330
1A
100
AcDbEntity
  8
SEIHIN
  6
CONTINUOUS
 62
     3
 48
5.0
100
AcDbCircle
 10
603.7233968542552
 20
220.824772379898
 30
0.0
 40
2.362515129828078
100
AcDbArc
 50
321.0358662985997
 51
218.9641337014002
  0
LINE
  5
3864
330
1A
100
AcDbEntity
  8
CENTER_L
  6
CONTINUOUS
 62
     1
 48
5.0
100
AcDbLine
 10
375.1814414609341
 20
163.074772379898
 30
0.0
 11
390.1632702740305
 21
163.074772379898
 31
0.0
  0
LINE
  5
389E
330
1A
100
AcDbEntity
  8
CENTER_L
  6
CENTER
 62
     1
 48
5.0
100
AcDbLine
 10
375.1814414609341
 20
216.345252714798
 30
0.0
 11
390.1632702740305
 21
216.345252714798
 31
0.0
  0
LINE
  5
389F
330
1A
100
AcDbEntity
  8
CENTER_L
  6
CENTER
 62
     1
 48
5.0
100
AcDbLine
 10
375.1814414609341
 20
220.824772379898
 30
0.0
 11
390.1632702740305
 21
220.824772379898
 31
0.0
  0
VIEWPORT
  5
22
330
17
100
AcDbEntity
 67
     1
  8
0
100
AcDbViewport
 10
313.6808219178082
 20
148.5
 30
0.0
 40
627.3616438356165
 41
297.0
 68
     2
 69
     1
1001
ACAD
1000
MVIEW
1002
{
1070
    16
1010
0.0
1020
0.0
1030
0.0
1010
0.0
1020
0.0
1030
1.0
1040
0.0
1040
297.0
1040
313.6808219178082
1040
148.5
1040
50.0
1040
0.0
1040
0.0
1070
     0
1070
   100
1070
     1
1070
     0
1070
     0
1070
     0
1070
     0
1070
     0
1040
0.0
1040
0.0
1040
0.0
1040
1.0
1040
1.0
1040
10.0
1040
10.0
1070
     0
1002
{
1002
}
1002
}
  0
VIEWPORT
  5
64
330
17
100
AcDbEntity
 67
     1
  8
VIEWPORT
100
AcDbViewport
 10
210.0
 20
148.5
 30
0.0
 40
420.0
 41
297.0
 68
     1
 69
     2
1001
ACAD
1000
MVIEW
1002
{
1070
    16
1010
0.0
1020
0.0
1030
0.0
1010
0.0
1020
0.0
1030
1.0
1040
0.0
1040
605.8799999999998
1040
420.0
1040
297.0
1040
50.0
1040
0.0
1040
0.0
1070
     0
1070
   100
1070
     1
1070
     0
1070
     0
1070
     0
1070
     0
1070
     0
1040
0.0
1040
0.0
1040
0.0
1040
10.0
1040
10.0
1040
0.0
1040
0.0
1070
     0
1002
{
1002
}
1002
}
  0
ENDSEC
  0
SECTION
  2
OBJECTS
  0
DICTIONARY
  5
C
330
0
100
AcDbDictionary
  3
ACAD_GROUP
350
D
  3
ACAD_LAYOUT
350
8E0
  3
ACAD_MLINESTYLE
350
E
  3
ACAD_PLOTSETTINGS
350
8E1
  3
ACAD_PLOTSTYLENAME
350
8DE
  3
ACDBHEADERROUNDTRIPXREC
350
38CF
  0
DICTIONARY
  5
EDF
330
2
100
AcDbDictionary
280
     1
  3
ACAD_LAYERFILTERS
360
EE0
  0
DICTIONARY
  5
9D6
330
1A
100
AcDbDictionary
280
     1
  3
ACAD_LAYOUTSELFREF
360
38F1
  0
DICTIONARY
  5
9D4
330
17
100
AcDbDictionary
280
     1
  3
ACAD_LAYOUTSELFREF
360
38F0
  0
DICTIONARY
  5
D
102
{ACAD_REACTORS
330
C
102
}
330
C
100
AcDbDictionary
  3
*A1
350
24C4
  3
*A2
350
24F1
  3
*A3
350
34F5
  0
DICTIONARY
  5
8E0
102
{ACAD_REACTORS
330
C
102
}
330
C
100
AcDbDictionary
  0
DICTIONARY
  5
E
102
{ACAD_REACTORS
330
C
102
}
330
C
100
AcDbDictionary
  3
STANDARD
350
13
  0
DICTIONARY
  5
8E1
102
{ACAD_REACTORS
330
C
102
}
330
C
100
AcDbDictionary
  0
ACDBDICTIONARYWDFLT
  5
8DE
102
{ACAD_REACTORS
330
C
102
}
330
C
100
AcDbDictionary
281
     1
  3
Normal
350
8DF
100
AcDbDictionaryWithDefault
340
8DF
1001
ACAD
1000
TREAT_AS_HARD
1070
     0
1000
TREAT_AS_HARD
1070
     0
1000
TREAT_AS_HARD
1070
     0
1000
TREAT_AS_HARD
1070
     0
  0
DICTIONARY
  5
38CF
102
{ACAD_REACTORS
330
C
102
}
330
C
100
AcDbDictionary
  3
TSTACKALIGN
350
38D0
  3
TSTACKSIZE
350
38D1
  3
HYPERLINKBASE
350
38D2
  3
STYLESHEET
350
38D3
  3
LAYOUTDICT
350
38D4
  3
PLOTSETDICT
350
38D5
  3
PLOTSTYLNAMDICT
350
38D6
  3
LWETCUNION
350
38D7
  3
INSUNITS
350
38D8
  3
CEPSNTYPE
350
38D9
  3
FINGERPRINTGUID
350
38DA
  3
VERSIONGUID
350
38DB
  3
PSVPSCALE
350
38DC
  3
DIMSTYLEDATA
350
38DD
  3
PUCSORTHOREF
350
38DE
  3
PUCSORTHOVIEW
350
38DF
  3
PUCSBASE
350
38E0
  3
PUCSORGTOP
350
38E1
  3
PUCSORGBOTTOM
350
38E2
  3
PUCSORGLEFT
350
38E3
  3
PUCSORGRIGHT
350
38E4
  3
PUCSORGFRONT
350
38E5
  3
PUCSORGBACK
350
38E6
  3
UCSORTHOREF
350
38E7
  3
UCSORTHOVIEW
350
38E8
  3
UCSBASE
350
38E9
  3
UCSORGTOP
350
38EA
  3
UCSORGBOTTOM
350
38EB
  3
UCSORGLEFT
350
38EC
  3
UCSORGRIGHT
350
38ED
  3
UCSORGFRONT
350
38EE
  3
UCSORGBACK
350
38EF
  0
DICTIONARY
  5
EE0
102
{ACAD_REACTORS
330
EDF
102
}
330
EDF
100
AcDbDictionary
280
     1
  3
50
360
EE1
  0
XRECORD
  5
38F1
102
{ACAD_REACTORS
330
9D6
102
}
330
9D6
100
AcDbXrecord
340
1A
  0
XRECORD
  5
38F0
102
{ACAD_REACTORS
330
9D4
102
}
330
9D4
100
AcDbXrecord
340
17
  0
GROUP
  5
24C4
102
{ACAD_REACTORS
330
D
102
}
330
D
100
AcDbGroup
300

 70
     1
 71
     1
  0
GROUP
  5
24F1
102
{ACAD_REACTORS
330
D
102
}
330
D
100
AcDbGroup
300

 70
     1
 71
     1
  0
GROUP
  5
34F5
102
{ACAD_REACTORS
330
D
102
}
330
D
100
AcDbGroup
300

 70
     1
 71
     1
340
34CF
340
34CE
340
34CD
340
34CB
340
34D2
340
34D1
340
34D5
340
34D4
340
34D3
340
34D9
340
34D8
340
34DD
340
34DC
340
34DB
340
34D7
340
34DA
340
34D6
340
34DF
340
34DE
340
34E4
340
34E3
340
34E2
340
34E7
340
34E6
340
34E8
340
34EA
340
34F1
340
34F0
340
34F2
340
34F4
340
34F3
  0
MLINESTYLE
  5
13
102
{ACAD_REACTORS
330
E
102
}
330
E
100
AcDbMlineStyle
  2
STANDARD
 70
     0
  3

 62
     0
 51
90.0
 52
90.0
 71
     2
 49
0.5
 62
   256
  6
BYLAYER
 49
-0.5
 62
   256
  6
BYLAYER
  0
ACDBPLACEHOLDER
  5
8DF
102
{ACAD_REACTORS
330
8DE
102
}
330
8DE
100
AcDbPlaceHolder
280
     0
  0
XRECORD
  5
38D0
102
{ACAD_REACTORS
330
38CF
102
}
330
38CF
100
AcDbXrecord
 90
        1
  0
XRECORD
  5
38D1
102
{ACAD_REACTORS
330
38CF
102
}
330
38CF
100
AcDbXrecord
 90
       70
  0
XRECORD
  5
38D2
102
{ACAD_REACTORS
330
38CF
102
}
330
38CF
100
AcDbXrecord
  1

  0
XRECORD
  5
38D3
102
{ACAD_REACTORS
330
38CF
102
}
330
38CF
100
AcDbXrecord
  1
systemprinter.ctb
  0
XRECORD
  5
38D4
102
{ACAD_REACTORS
330
38CF
102
}
330
38CF
100
AcDbXrecord
340
8E0
  0
XRECORD
  5
38D5
102
{ACAD_REACTORS
330
38CF
102
}
330
38CF
100
AcDbXrecord
340
8E1
  0
XRECORD
  5
38D6
102
{ACAD_REACTORS
330
38CF
102
}
330
38CF
100
AcDbXrecord
340
8DE
  0
XRECORD
  5
38D7
102
{ACAD_REACTORS
330
38CF
102
}
330
38CF
100
AcDbXrecord
 90
    10781
  0
XRECORD
  5
38D8
102
{ACAD_REACTORS
330
38CF
102
}
330
38CF
100
AcDbXrecord
 90
        0
  0
XRECORD
  5
38D9
102
{ACAD_REACTORS
330
38CF
102
}
330
38CF
100
AcDbXrecord
 90
        0
  0
XRECORD
  5
38DA
102
{ACAD_REACTORS
330
38CF
102
}
330
38CF
100
AcDbXrecord
  1
{A1E2E459-A446-4C08-BFC7-7AA38AB8F682}
  0
XRECORD
  5
38DB
102
{ACAD_REACTORS
330
38CF
102
}
330
38CF
100
AcDbXrecord
  1
{4089B6F4-A71C-4DD4-95DB-1B0E4AB6BB1F}
  0
XRECORD
  5
38DC
102
{ACAD_REACTORS
330
38CF
102
}
330
38CF
100
AcDbXrecord
 40
0.0
  0
XRECORD
  5
38DD
102
{ACAD_REACTORS
330
38CF
102
}
330
38CF
100
AcDbXrecord
1000
DSTYLE
1002
{
1070
   279
 70
     2
1070
   341
340
6D
1070
   343
340
6D
1070
   344
340
6D
1070
   371
 70
    -1
1070
   372
 70
    -1
1002
}
  0
XRECORD
  5
38DE
102
{ACAD_REACTORS
330
38CF
102
}
330
38CF
100
AcDbXrecord
340
0
  0
XRECORD
  5
38DF
102
{ACAD_REACTORS
330
38CF
102
}
330
38CF
100
AcDbXrecord
 70
     0
  0
XRECORD
  5
38E0
102
{ACAD_REACTORS
330
38CF
102
}
330
38CF
100
AcDbXrecord
340
0
  0
XRECORD
  5
38E1
102
{ACAD_REACTORS
330
38CF
102
}
330
38CF
100
AcDbXrecord
 10
0.0
 20
0.0
 30
0.0
  0
XRECORD
  5
38E2
102
{ACAD_REACTORS
330
38CF
102
}
330
38CF
100
AcDbXrecord
 10
0.0
 20
0.0
 30
0.0
  0
XRECORD
  5
38E3
102
{ACAD_REACTORS
330
38CF
102
}
330
38CF
100
AcDbXrecord
 10
0.0
 20
0.0
 30
0.0
  0
XRECORD
  5
38E4
102
{ACAD_REACTORS
330
38CF
102
}
330
38CF
100
AcDbXrecord
 10
0.0
 20
0.0
 30
0.0
  0
XRECORD
  5
38E5
102
{ACAD_REACTORS
330
38CF
102
}
330
38CF
100
AcDbXrecord
 10
0.0
 20
0.0
 30
0.0
  0
XRECORD
  5
38E6
102
{ACAD_REACTORS
330
38CF
102
}
330
38CF
100
AcDbXrecord
 10
0.0
 20
0.0
 30
0.0
  0
XRECORD
  5
38E7
102
{ACAD_REACTORS
330
38CF
102
}
330
38CF
100
AcDbXrecord
340
0
  0
XRECORD
  5
38E8
102
{ACAD_REACTORS
330
38CF
102
}
330
38CF
100
AcDbXrecord
 70
     0
  0
XRECORD
  5
38E9
102
{ACAD_REACTORS
330
38CF
102
}
330
38CF
100
AcDbXrecord
340
0
  0
XRECORD
  5
38EA
102
{ACAD_REACTORS
330
38CF
102
}
330
38CF
100
AcDbXrecord
 10
0.0
 20
0.0
 30
0.0
  0
XRECORD
  5
38EB
102
{ACAD_REACTORS
330
38CF
102
}
330
38CF
100
AcDbXrecord
 10
0.0
 20
0.0
 30
0.0
  0
XRECORD
  5
38EC
102
{ACAD_REACTORS
330
38CF
102
}
330
38CF
100
AcDbXrecord
 10
0.0
 20
0.0
 30
0.0
  0
XRECORD
  5
38ED
102
{ACAD_REACTORS
330
38CF
102
}
330
38CF
100
AcDbXrecord
 10
0.0
 20
0.0
 30
0.0
  0
XRECORD
  5
38EE
102
{ACAD_REACTORS
330
38CF
102
}
330
38CF
100
AcDbXrecord
 10
0.0
 20
0.0
 30
0.0
  0
XRECORD
  5
38EF
102
{ACAD_REACTORS
330
38CF
102
}
330
38CF
100
AcDbXrecord
 10
0.0
 20
0.0
 30
0.0
  0
XRECORD
  5
EE1
102
{ACAD_REACTORS
330
EE0
102
}
330
EE0
100
AcDbXrecord
  1
50
  1
*-50
  1
*
  1
*
 70
     0
  1
*
  1
*
  0
ENDSEC
  0
EOF
