  0
SECTION
  2
HEADER
  9
$ACADVER
  1
AC1015
  9
$ACADMAINTVER
 70
    20
  9
$DWGCODEPAGE
  3
ANSI_932
  9
$INSBASE
 10
0.0
 20
0.0
 30
0.0
  9
$EXTMIN
 10
0.0000002112909669
 20
0.0000003333167342
 30
0.0
  9
$EXTMAX
 10
398.8000002112912
 20
275.8000003333167
 30
0.0
  9
$LIMMIN
 10
0.0
 20
0.0
  9
$LIMMAX
 10
420.0
 20
297.0
  9
$ORTHOMODE
 70
     0
  9
$REGENMODE
 70
     1
  9
$FILLMODE
 70
     1
  9
$QTEXTMODE
 70
     0
  9
$MIRRTEXT
 70
     1
  9
$LTSCALE
 40
1.0
  9
$ATTMODE
 70
     1
  9
$TEXTSIZE
 40
2.5
  9
$TRACEWID
 40
1.0
  9
$TEXTSTYLE
  7
STANDARD
  9
$CLAYER
  8
0
  9
$CELTYPE
  6
BYLAYER
  9
$CECOLOR
 62
   256
  9
$CELTSCALE
 40
1.0
  9
$DISPSILH
 70
     0
  9
$DIMSCALE
 40
1.0
  9
$DIMASZ
 40
3.0
  9
$DIMEXO
 40
1.5
  9
$DIMDLI
 40
9.0
  9
$DIMRND
 40
0.0
  9
$DIMDLE
 40
0.0
  9
$DIMEXE
 40
1.5
  9
$DIMTP
 40
0.0
  9
$DIMTM
 40
0.0
  9
$DIMTXT
 40
4.0
  9
$DIMCEN
 40
0.0
  9
$DIMTSZ
 40
0.0
  9
$DIMTOL
 70
     0
  9
$DIMLIM
 70
     0
  9
$DIMTIH
 70
     0
  9
$DIMTOH
 70
     0
  9
$DIMSE1
 70
     0
  9
$DIMSE2
 70
     0
  9
$DIMTAD
 70
     3
  9
$DIMZIN
 70
     0
  9
$DIMBLK
  1
OPEN
  9
$DIMASO
 70
     1
  9
$DIMSHO
 70
     1
  9
$DIMPOST
  1

  9
$DIMAPOST
  1

  9
$DIMALT
 70
     0
  9
$DIMALTD
 70
     2
  9
$DIMALTF
 40
25.4
  9
$DIMLFAC
 40
1.0
  9
$DIMTOFL
 70
     0
  9
$DIMTVP
 40
0.0
  9
$DIMTIX
 70
     0
  9
$DIMSOXD
 70
     0
  9
$DIMSAH
 70
     0
  9
$DIMBLK1
  1

  9
$DIMBLK2
  1

  9
$DIMSTYLE
  2
STANDARD
  9
$DIMCLRD
 70
   256
  9
$DIMCLRE
 70
   256
  9
$DIMCLRT
 70
   256
  9
$DIMTFAC
 40
1.0
  9
$DIMGAP
 40
2.0
  9
$DIMJUST
 70
     0
  9
$DIMSD1
 70
     0
  9
$DIMSD2
 70
     0
  9
$DIMTOLJ
 70
     1
  9
$DIMTZIN
 70
     0
  9
$DIMALTZ
 70
     0
  9
$DIMALTTZ
 70
     0
  9
$DIMUPT
 70
     0
  9
$DIMDEC
 70
     0
  9
$DIMTDEC
 70
     0
  9
$DIMALTU
 70
     2
  9
$DIMALTTD
 70
     2
  9
$DIMTXSTY
  7
STANDARD
  9
$DIMAUNIT
 70
     0
  9
$DIMADEC
 70
     0
  9
$DIMALTRND
 40
0.0
  9
$DIMAZIN
 70
     0
  9
$DIMDSEP
 70
    46
  9
$DIMATFIT
 70
     3
  9
$DIMFRAC
 70
     0
  9
$DIMLDRBLK
  1
OPEN
  9
$DIMLUNIT
 70
     2
  9
$DIMLWD
 70
    -1
  9
$DIMLWE
 70
    -1
  9
$DIMTMOVE
 70
     0
  9
$LUNITS
 70
     2
  9
$LUPREC
 70
     4
  9
$SKETCHINC
 40
1.0
  9
$FILLETRAD
 40
10.0
  9
$AUNITS
 70
     0
  9
$AUPREC
 70
     0
  9
$MENU
  1
.
  9
$ELEVATION
 40
0.0
  9
$PELEVATION
 40
0.0
  9
$THICKNESS
 40
0.0
  9
$LIMCHECK
 70
     0
  9
$CHAMFERA
 40
10.0
  9
$CHAMFERB
 40
10.0
  9
$CHAMFERC
 40
20.0
  9
$CHAMFERD
 40
0.0
  9
$SKPOLY
 70
     0
  9
$TDCREATE
 40
2451070.734084838
  9
$TDUCREATE
 40
2451070.359084838
  9
$TDUPDATE
 40
2456904.601013357
  9
$TDUUPDATE
 40
2456904.226013357
  9
$TDINDWG
 40
0.2851208681
  9
$TDUSRTIMER
 40
0.2851206829
  9
$USRTIMER
 70
     1
  9
$ANGBASE
 50
0.0
  9
$ANGDIR
 70
     0
  9
$PDMODE
 70
     0
  9
$PDSIZE
 40
0.0
  9
$PLINEWID
 40
0.0
  9
$SPLFRAME
 70
     0
  9
$SPLINETYPE
 70
     6
  9
$SPLINESEGS
 70
     8
  9
$HANDSEED
  5
A237
  9
$SURFTAB1
 70
     6
  9
$SURFTAB2
 70
     6
  9
$SURFTYPE
 70
     6
  9
$SURFU
 70
     6
  9
$SURFV
 70
     6
  9
$UCSBASE
  2

  9
$UCSNAME
  2

  9
$UCSORG
 10
0.0
 20
0.0
 30
0.0
  9
$UCSXDIR
 10
1.0
 20
0.0
 30
0.0
  9
$UCSYDIR
 10
0.0
 20
1.0
 30
0.0
  9
$UCSORTHOREF
  2

  9
$UCSORTHOVIEW
 70
     0
  9
$UCSORGTOP
 10
0.0
 20
0.0
 30
0.0
  9
$UCSORGBOTTOM
 10
0.0
 20
0.0
 30
0.0
  9
$UCSORGLEFT
 10
0.0
 20
0.0
 30
0.0
  9
$UCSORGRIGHT
 10
0.0
 20
0.0
 30
0.0
  9
$UCSORGFRONT
 10
0.0
 20
0.0
 30
0.0
  9
$UCSORGBACK
 10
0.0
 20
0.0
 30
0.0
  9
$PUCSBASE
  2

  9
$PUCSNAME
  2

  9
$PUCSORG
 10
0.0
 20
0.0
 30
0.0
  9
$PUCSXDIR
 10
1.0
 20
0.0
 30
0.0
  9
$PUCSYDIR
 10
0.0
 20
1.0
 30
0.0
  9
$PUCSORTHOREF
  2

  9
$PUCSORTHOVIEW
 70
     0
  9
$PUCSORGTOP
 10
0.0
 20
0.0
 30
0.0
  9
$PUCSORGBOTTOM
 10
0.0
 20
0.0
 30
0.0
  9
$PUCSORGLEFT
 10
0.0
 20
0.0
 30
0.0
  9
$PUCSORGRIGHT
 10
0.0
 20
0.0
 30
0.0
  9
$PUCSORGFRONT
 10
0.0
 20
0.0
 30
0.0
  9
$PUCSORGBACK
 10
0.0
 20
0.0
 30
0.0
  9
$USERI1
 70
     0
  9
$USERI2
 70
     0
  9
$USERI3
 70
     0
  9
$USERI4
 70
     0
  9
$USERI5
 70
     0
  9
$USERR1
 40
0.0
  9
$USERR2
 40
0.0
  9
$USERR3
 40
0.0
  9
$USERR4
 40
0.0
  9
$USERR5
 40
0.0
  9
$WORLDVIEW
 70
     1
  9
$SHADEDGE
 70
     3
  9
$SHADEDIF
 70
    70
  9
$TILEMODE
 70
     1
  9
$MAXACTVP
 70
    16
  9
$PINSBASE
 10
0.0
 20
0.0
 30
0.0
  9
$PLIMCHECK
 70
     0
  9
$PEXTMIN
 10
0.0
 20
0.0
 30
0.0
  9
$PEXTMAX
 10
420.0
 20
297.0
 30
0.0
  9
$PLIMMIN
 10
0.0
 20
0.0
  9
$PLIMMAX
 10
420.0
 20
297.0
  9
$UNITMODE
 70
     0
  9
$VISRETAIN
 70
     0
  9
$PLINEGEN
 70
     0
  9
$PSLTSCALE
 70
     1
  9
$TREEDEPTH
 70
  3020
  9
$CMLSTYLE
  2
STANDARD
  9
$CMLJUST
 70
     0
  9
$CMLSCALE
 40
1.0
  9
$PROXYGRAPHICS
 70
     1
  9
$MEASUREMENT
 70
     0
  9
$CELWEIGHT
370
    -1
  9
$ENDCAPS
280
     0
  9
$JOINSTYLE
280
     0
  9
$LWDISPLAY
290
     0
  9
$INSUNITS
 70
     0
  9
$HYPERLINKBASE
  1

  9
$STYLESHEET
  1
monochrome.ctb
  9
$XEDIT
290
     1
  9
$CEPSNTYPE
380
     0
  9
$PSTYLEMODE
290
     1
  9
$FINGERPRINTGUID
  2
{68D4B1C2-DE04-482D-91CF-FDFDBD3E2358}
  9
$VERSIONGUID
  2
{29E6D212-6777-490F-A1CB-E456CAB6DE6A}
  9
$EXTNAMES
290
     1
  9
$PSVPSCALE
 40
0.0
  9
$OLESTARTUP
290
     0
  0
ENDSEC
  0
SECTION
  2
CLASSES
  0
CLASS
  1
ACDBDICTIONARYWDFLT
  2
AcDbDictionaryWithDefault
  3
ObjectDBX Classes
 90
        0
280
     0
281
     0
  0
CLASS
  1
ACDBPLACEHOLDER
  2
AcDbPlaceHolder
  3
ObjectDBX Classes
 90
        0
280
     0
281
     0
  0
CLASS
  1
LAYOUT
  2
AcDbLayout
  3
ObjectDBX Classes
 90
        0
280
     0
281
     0
  0
CLASS
  1
DICTIONARYVAR
  2
AcDbDictionaryVar
  3
ObjectDBX Classes
 90
        0
280
     0
281
     0
  0
ENDSEC
  0
SECTION
  2
TABLES
  0
TABLE
  2
VPORT
  5
8
330
0
100
AcDbSymbolTable
 70
     2
  0
VPORT
  5
A22B
330
8
100
AcDbSymbolTableRecord
100
AcDbViewportTableRecord
  2
*Active
 70
     0
 10
0.0
 20
0.0
 11
1.0
 21
1.0
 12
235.9179567189884
 22
134.1639977951267
 13
0.0
 23
0.0
 14
5.0
 24
5.0
 15
0.0
 25
0.0
 16
0.0
 26
0.0
 36
1.0
 17
0.0
 27
0.0
 37
0.0
 40
299.8663495923277
 41
2.011264080100125
 42
50.0
 43
0.0
 44
0.0
 50
0.0
 51
0.0
 71
     0
 72
   100
 73
     1
 74
     0
 75
     0
 76
     0
 77
     0
 78
     0
281
     0
 65
     1
110
0.0
120
0.0
130
0.0
111
1.0
121
0.0
131
0.0
112
0.0
122
1.0
132
0.0
 79
     0
146
0.0
  0
ENDTAB
  0
TABLE
  2
LTYPE
  5
5
330
0
100
AcDbSymbolTable
 70
     2
  0
LTYPE
  5
14
330
5
100
AcDbSymbolTableRecord
100
AcDbLinetypeTableRecord
  2
BYBLOCK
 70
     0
  3

 72
    65
 73
     0
 40
0.0
  0
LTYPE
  5
15
330
5
100
AcDbSymbolTableRecord
100
AcDbLinetypeTableRecord
  2
BYLAYER
 70
     0
  3

 72
    65
 73
     0
 40
0.0
  0
LTYPE
  5
16
330
5
100
AcDbSymbolTableRecord
100
AcDbLinetypeTableRecord
  2
CONTINUOUS
 70
     0
  3
Solid line
 72
    65
 73
     0
 40
0.0
  0
LTYPE
  5
120
330
5
100
AcDbSymbolTableRecord
100
AcDbLinetypeTableRecord
  2
CENTER
 70
     0
  3
____ _ ____ _ ____ _ ____ _ ____ _ ____ _ ____ 
 72
    65
 73
     4
 40
2.0
 49
1.25
 74
     0
 49
-0.25
 74
     0
 49
0.25
 74
     0
 49
-0.25
 74
     0
  0
ENDTAB
  0
TABLE
  2
LAYER
  5
2
330
0
100
AcDbSymbolTable
 70
    13
  0
LAYER
  5
F
330
2
100
AcDbSymbolTableRecord
100
AcDbLayerTableRecord
  2
0
 70
     0
 62
     7
  6
CONTINUOUS
370
    -3
390
8C13
  0
LAYER
  5
62
330
2
100
AcDbSymbolTableRecord
100
AcDbLayerTableRecord
  2
VIEWPORT
 70
     0
 62
     7
  6
CONTINUOUS
370
    -3
390
8C13
  0
LAYER
  5
6B
330
2
100
AcDbSymbolTableRecord
100
AcDbLayerTableRecord
  2
ZUWAKU
 70
     0
 62
     7
  6
CONTINUOUS
370
    -3
390
8C13
  0
LAYER
  5
134
330
2
100
AcDbSymbolTableRecord
100
AcDbLayerTableRecord
  2
SUNPOU
 70
     0
 62
     4
  6
CONTINUOUS
370
    -3
390
8C13
  0
LAYER
  5
135
330
2
100
AcDbSymbolTableRecord
100
AcDbLayerTableRecord
  2
CENTER_L
 70
     0
 62
     1
  6
CENTER
370
    -3
390
8C13
  0
LAYER
  5
2FF
330
2
100
AcDbSymbolTableRecord
100
AcDbLayerTableRecord
  2
DEFPOINTS
 70
     0
 62
     7
  6
CONTINUOUS
290
     0
370
    -3
390
8C13
  0
LAYER
  5
42D
330
2
100
AcDbSymbolTableRecord
100
AcDbLayerTableRecord
  2
MOJI
 70
     0
 62
     2
  6
CONTINUOUS
370
    -3
390
8C13
  0
LAYER
  5
4CBA
330
2
100
AcDbSymbolTableRecord
100
AcDbLayerTableRecord
  2
金具部
 70
     0
 62
     3
  6
CONTINUOUS
370
    -3
390
8C13
  0
LAYER
  5
4CBB
330
2
100
AcDbSymbolTableRecord
100
AcDbLayerTableRecord
  2
ﾃ_ﾝﾃ_ﾝ部
 70
     0
 62
     3
  6
CONTINUOUS
370
    -3
390
8C13
  0
LAYER
  5
8F01
330
2
100
AcDbSymbolTableRecord
100
AcDbLayerTableRecord
  2
ﾚｲﾔｰ1
 70
     0
 62
     5
  6
CONTINUOUS
370
    -3
390
8C13
  0
LAYER
  5
8F02
330
2
100
AcDbSymbolTableRecord
100
AcDbLayerTableRecord
  2
寸法線
 70
     0
 62
     7
  6
CONTINUOUS
370
    -3
390
8C13
  0
LAYER
  5
8F03
330
2
100
AcDbSymbolTableRecord
100
AcDbLayerTableRecord
  2
0_1
 70
     0
 62
     7
  6
CONTINUOUS
370
    -3
390
8C13
  0
LAYER
  5
8F04
330
2
100
AcDbSymbolTableRecord
100
AcDbLayerTableRecord
  2
SEIHIN
 70
     0
 62
     7
  6
CONTINUOUS
370
    -3
390
8C13
  0
ENDTAB
  0
TABLE
  2
STYLE
  5
3
330
0
100
AcDbSymbolTable
 70
     3
  0
STYLE
  5
10
330
3
100
AcDbSymbolTableRecord
100
AcDbTextStyleTableRecord
  2
STANDARD
 70
     0
 40
0.0
 41
1.0
 50
0.0
 71
     0
 42
2.5
  3
TXT
  4
bigfont.shx
  0
STYLE
  5
42E
330
3
100
AcDbSymbolTableRecord
100
AcDbTextStyleTableRecord
  2
ｽﾀｲﾙ1
 70
     0
 40
0.0
 41
1.0
 50
0.0
 71
     0
 42
2.5
  3

  4

1001
ACAD
1000
MS PGothic
1071
    32818
  0
STYLE
  5
8F05
330
3
100
AcDbSymbolTableRecord
100
AcDbTextStyleTableRecord
  2
Style1
 70
     0
 40
0.0
 41
1.0
 50
0.0
 71
     0
 42
0.35
  3
ＭＳ Ｐゴシック
  4

  0
ENDTAB
  0
TABLE
  2
VIEW
  5
6
330
0
100
AcDbSymbolTable
 70
     0
  0
ENDTAB
  0
TABLE
  2
UCS
  5
7
330
0
100
AcDbSymbolTable
 70
     0
  0
ENDTAB
  0
TABLE
  2
APPID
  5
9
330
0
100
AcDbSymbolTable
 70
     1
  0
APPID
  5
11
330
9
100
AcDbSymbolTableRecord
100
AcDbRegAppTableRecord
  2
ACAD
 70
     0
  0
ENDTAB
  0
TABLE
  2
DIMSTYLE
  5
A
330
0
100
AcDbSymbolTable
 70
     2
100
AcDbDimStyleTable
 71
     0
  0
DIMSTYLE
105
1D
102
{ACAD_REACTORS
330
9CFC
330
9CFD
330
9CFE
330
9D5F
330
9D61
330
9D68
330
9DBE
330
9FDC
330
9FF2
330
A01E
330
A142
102
}
330
A
100
AcDbSymbolTableRecord
100
AcDbDimStyleTableRecord
  2
STANDARD
 70
     0
 41
3.0
 42
1.5
 43
9.0
 44
1.5
 73
     0
 74
     0
 77
     3
140
4.0
141
0.0
147
2.0
176
   256
177
   256
178
   256
271
     0
272
     0
340
10
341
B2
342
B2
371
    -1
372
    -1
  0
DIMSTYLE
105
8F06
330
A
100
AcDbSymbolTableRecord
100
AcDbDimStyleTableRecord
  2
DS1
 70
     0
 41
3.0
 42
0.0
 44
2.0
 73
     0
 74
     0
 77
     1
 78
     8
140
9.524999618530273
147
1.0
171
     1
176
     5
177
     5
178
     5
271
     1
340
10
  0
ENDTAB
  0
TABLE
  2
BLOCK_RECORD
  5
1
330
0
100
AcDbSymbolTable
 70
    42
  0
BLOCK_RECORD
  5
1A
102
{ACAD_XDICTIONARY
360
3EB
102
}
330
1
100
AcDbSymbolTableRecord
100
AcDbBlockTableRecord
  2
*MODEL_SPACE
340
8C14
  0
BLOCK_RECORD
  5
17
102
{ACAD_XDICTIONARY
360
3E9
102
}
330
1
100
AcDbSymbolTableRecord
100
AcDbBlockTableRecord
  2
*PAPER_SPACE
340
8C15
  0
BLOCK_RECORD
  5
B2
330
1
100
AcDbSymbolTableRecord
100
AcDbBlockTableRecord
  2
_OPEN
340
0
102
{BLKREFS
331
9D5C
331
9D5E
331
A0B1
331
A0B2
331
A09F
331
A0A0
331
A0A8
331
A0A9
331
A213
331
A214
331
A096
331
A097
331
A0DF
331
A0E0
331
A0E8
331
A0E9
331
A11F
331
A120
331
A128
331
A129
331
A13C
331
A13D
331
A152
331
A153
102
}
  0
BLOCK_RECORD
  5
37B6
330
1
100
AcDbSymbolTableRecord
100
AcDbBlockTableRecord
  2
*X1
340
0
102
{BLKREFS
331
3B34
102
}
  0
BLOCK_RECORD
  5
951F
330
1
100
AcDbSymbolTableRecord
100
AcDbBlockTableRecord
  2
C30
340
0
  0
BLOCK_RECORD
  5
953C
330
1
100
AcDbSymbolTableRecord
100
AcDbBlockTableRecord
  2
C31
340
0
  0
BLOCK_RECORD
  5
9547
330
1
100
AcDbSymbolTableRecord
100
AcDbBlockTableRecord
  2
C32
340
0
  0
BLOCK_RECORD
  5
955A
330
1
100
AcDbSymbolTableRecord
100
AcDbBlockTableRecord
  2
C33
340
0
  0
BLOCK_RECORD
  5
956F
330
1
100
AcDbSymbolTableRecord
100
AcDbBlockTableRecord
  2
C34
340
0
  0
BLOCK_RECORD
  5
9574
330
1
100
AcDbSymbolTableRecord
100
AcDbBlockTableRecord
  2
C35
340
0
  0
BLOCK_RECORD
  5
957C
330
1
100
AcDbSymbolTableRecord
100
AcDbBlockTableRecord
  2
C36
340
0
  0
BLOCK_RECORD
  5
9587
330
1
100
AcDbSymbolTableRecord
100
AcDbBlockTableRecord
  2
C37
340
0
  0
BLOCK_RECORD
  5
958C
330
1
100
AcDbSymbolTableRecord
100
AcDbBlockTableRecord
  2
C38
340
0
  0
BLOCK_RECORD
  5
9597
330
1
100
AcDbSymbolTableRecord
100
AcDbBlockTableRecord
  2
C39
340
0
  0
BLOCK_RECORD
  5
95A0
330
1
100
AcDbSymbolTableRecord
100
AcDbBlockTableRecord
  2
C40
340
0
  0
BLOCK_RECORD
  5
95A7
330
1
100
AcDbSymbolTableRecord
100
AcDbBlockTableRecord
  2
C41
340
0
  0
BLOCK_RECORD
  5
95AC
330
1
100
AcDbSymbolTableRecord
100
AcDbBlockTableRecord
  2
C42
340
0
  0
BLOCK_RECORD
  5
95B6
330
1
100
AcDbSymbolTableRecord
100
AcDbBlockTableRecord
  2
C43
340
0
  0
BLOCK_RECORD
  5
95BF
330
1
100
AcDbSymbolTableRecord
100
AcDbBlockTableRecord
  2
C44
340
0
  0
BLOCK_RECORD
  5
95CA
330
1
100
AcDbSymbolTableRecord
100
AcDbBlockTableRecord
  2
C45
340
0
  0
BLOCK_RECORD
  5
95DC
330
1
100
AcDbSymbolTableRecord
100
AcDbBlockTableRecord
  2
C46
340
0
  0
BLOCK_RECORD
  5
95E9
330
1
100
AcDbSymbolTableRecord
100
AcDbBlockTableRecord
  2
C47
340
0
  0
BLOCK_RECORD
  5
95F6
330
1
100
AcDbSymbolTableRecord
100
AcDbBlockTableRecord
  2
C48
340
0
  0
BLOCK_RECORD
  5
9601
330
1
100
AcDbSymbolTableRecord
100
AcDbBlockTableRecord
  2
C49
340
0
  0
BLOCK_RECORD
  5
961D
330
1
100
AcDbSymbolTableRecord
100
AcDbBlockTableRecord
  2
C50
340
0
  0
BLOCK_RECORD
  5
9648
330
1
100
AcDbSymbolTableRecord
100
AcDbBlockTableRecord
  2
C51
340
0
  0
BLOCK_RECORD
  5
9653
330
1
100
AcDbSymbolTableRecord
100
AcDbBlockTableRecord
  2
C52
340
0
  0
BLOCK_RECORD
  5
9660
330
1
100
AcDbSymbolTableRecord
100
AcDbBlockTableRecord
  2
C53
340
0
  0
BLOCK_RECORD
  5
966B
330
1
100
AcDbSymbolTableRecord
100
AcDbBlockTableRecord
  2
C54
340
0
  0
BLOCK_RECORD
  5
9676
330
1
100
AcDbSymbolTableRecord
100
AcDbBlockTableRecord
  2
C55
340
0
  0
BLOCK_RECORD
  5
9681
330
1
100
AcDbSymbolTableRecord
100
AcDbBlockTableRecord
  2
C56
340
0
  0
BLOCK_RECORD
  5
9690
330
1
100
AcDbSymbolTableRecord
100
AcDbBlockTableRecord
  2
C57
340
0
  0
BLOCK_RECORD
  5
969B
330
1
100
AcDbSymbolTableRecord
100
AcDbBlockTableRecord
  2
C58
340
0
  0
BLOCK_RECORD
  5
9DC7
330
1
100
AcDbSymbolTableRecord
100
AcDbBlockTableRecord
  2
*D31
340
0
  0
BLOCK_RECORD
  5
9DD3
330
1
100
AcDbSymbolTableRecord
100
AcDbBlockTableRecord
  2
*D32
340
0
  0
BLOCK_RECORD
  5
9DDF
330
1
100
AcDbSymbolTableRecord
100
AcDbBlockTableRecord
  2
*D33
340
0
  0
BLOCK_RECORD
  5
9E1C
330
1
100
AcDbSymbolTableRecord
100
AcDbBlockTableRecord
  2
*D34
340
0
  0
BLOCK_RECORD
  5
9E25
330
1
100
AcDbSymbolTableRecord
100
AcDbBlockTableRecord
  2
*D35
340
0
  0
BLOCK_RECORD
  5
9E31
330
1
100
AcDbSymbolTableRecord
100
AcDbBlockTableRecord
  2
*D36
340
0
  0
BLOCK_RECORD
  5
9E3D
330
1
100
AcDbSymbolTableRecord
100
AcDbBlockTableRecord
  2
*D37
340
0
  0
BLOCK_RECORD
  5
9FDD
330
1
100
AcDbSymbolTableRecord
100
AcDbBlockTableRecord
  2
*D38
340
0
  0
BLOCK_RECORD
  5
9FF3
330
1
100
AcDbSymbolTableRecord
100
AcDbBlockTableRecord
  2
*D39
340
0
  0
BLOCK_RECORD
  5
A01F
330
1
100
AcDbSymbolTableRecord
100
AcDbBlockTableRecord
  2
*D40
340
0
  0
BLOCK_RECORD
  5
A143
330
1
100
AcDbSymbolTableRecord
100
AcDbBlockTableRecord
  2
*D41
340
0
  0
ENDTAB
  0
ENDSEC
  0
SECTION
  2
BLOCKS
  0
BLOCK
  5
1B
330
1A
100
AcDbEntity
  8
0
100
AcDbBlockBegin
  2
*MODEL_SPACE
 70
     0
 10
0.0
 20
0.0
 30
0.0
  3
*MODEL_SPACE
  1

  0
ENDBLK
  5
1C
330
1A
100
AcDbEntity
  8
0
100
AcDbBlockEnd
  0
BLOCK
  5
18
330
17
100
AcDbEntity
 67
     1
  8
0
100
AcDbBlockBegin
  2
*PAPER_SPACE
 70
     0
 10
0.0
 20
0.0
 30
0.0
  3
*PAPER_SPACE
  1

  0
ENDBLK
  5
19
330
17
100
AcDbEntity
 67
     1
  8
0
100
AcDbBlockEnd
  0
BLOCK
  5
B3
330
B2
100
AcDbEntity
  8
0
100
AcDbBlockBegin
  2
_OPEN
 70
     0
 10
0.0
 20
0.0
 30
0.0
  3
_OPEN
  1

  0
LINE
  5
B4
330
B2
100
AcDbEntity
  8
0
  6
ByBlock
 62
     0
100
AcDbLine
 10
-1.0
 20
0.1666666666666666
 30
0.0
 11
0.0
 21
0.0
 31
0.0
  0
LINE
  5
B5
330
B2
100
AcDbEntity
  8
0
  6
ByBlock
 62
     0
100
AcDbLine
 10
0.0
 20
0.0
 30
0.0
 11
-1.0
 21
-0.1666666666666666
 31
0.0
  0
LINE
  5
B6
330
B2
100
AcDbEntity
  8
0
  6
ByBlock
 62
     0
100
AcDbLine
 10
0.0
 20
0.0
 30
0.0
 11
-1.0
 21
0.0
 31
0.0
  0
ENDBLK
  5
B7
330
B2
100
AcDbEntity
  8
0
100
AcDbBlockEnd
  0
BLOCK
  5
394A
330
37B6
100
AcDbEntity
  8
0
100
AcDbBlockBegin
  2
*X1
 70
     1
 10
0.0
 20
0.0
 30
0.0
  3
*X1
  1

  0
LINE
  5
37B7
330
37B6
100
AcDbEntity
  8
0
 62
     0
100
AcDbLine
 10
34.5211058208776
 20
11.30208487459222
 30
0.0
 11
34.19819035602015
 21
11.62500033944971
 31
0.0
  0
LINE
  5
37B8
330
37B6
100
AcDbEntity
  8
0
 62
     0
100
AcDbLine
 10
34.5211058208776
 20
10.85307206853878
 30
0.0
 11
33.74917754996668
 21
11.62500033944971
 31
0.0
  0
LINE
  5
37B9
330
37B6
100
AcDbEntity
  8
0
 62
     0
100
AcDbLine
 10
34.52110582087757
 20
10.4040592624853
 30
0.0
 11
33.3105388478701
 21
11.61462623549277
 31
0.0
  0
LINE
  5
37BA
330
37B6
100
AcDbEntity
  8
0
 62
     0
100
AcDbLine
 10
34.5211058208776
 20
9.955046456431887
 30
0.0
 11
33.12110582087758
 21
11.35504645643189
 31
0.0
  0
LINE
  5
37BB
330
37B6
100
AcDbEntity
  8
0
 62
     0
100
AcDbLine
 10
34.5211058208776
 20
9.506033650378412
 30
0.0
 11
33.12110582087758
 21
10.90603365037844
 31
0.0
  0
LINE
  5
37BC
330
37B6
100
AcDbEntity
  8
0
 62
     0
100
AcDbLine
 10
34.52110582087757
 20
9.057020844324938
 30
0.0
 11
33.12110582087754
 21
10.45702084432497
 31
0.0
  0
LINE
  5
37BD
330
37B6
100
AcDbEntity
  8
0
 62
     0
100
AcDbLine
 10
32.07110582087756
 20
11.05800803827153
 30
0.0
 11
31.50411351969941
 21
11.62500033944971
 31
0.0
  0
LINE
  5
37BE
330
37B6
100
AcDbEntity
  8
0
 62
     0
100
AcDbLine
 10
34.5211058208776
 20
8.608008038271519
 30
0.0
 11
33.12110582087758
 21
10.00800803827155
 31
0.0
  0
LINE
  5
37BF
330
37B6
100
AcDbEntity
  8
0
 62
     0
100
AcDbLine
 10
32.07110582087756
 20
10.60899523221809
 30
0.0
 11
31.05510071364594
 21
11.62500033944968
 31
0.0
  0
LINE
  5
37C0
330
37B6
100
AcDbEntity
  8
0
 62
     0
100
AcDbLine
 10
34.52110582087757
 20
8.158995232218046
 30
0.0
 11
33.12110582087758
 21
9.558995232218078
 31
0.0
  0
LINE
  5
37C1
330
37B6
100
AcDbEntity
  8
0
 62
     0
100
AcDbLine
 10
32.07110582087756
 20
10.15998242616461
 30
0.0
 11
30.71835033830903
 21
11.51273790873315
 31
0.0
  0
LINE
  5
37C2
330
37B6
100
AcDbEntity
  8
0
 62
     0
100
AcDbLine
 10
34.52110582087757
 20
7.709982426164599
 30
0.0
 11
33.12110582087754
 21
9.109982426164606
 31
0.0
  0
LINE
  5
37C3
330
37B6
100
AcDbEntity
  8
0
 62
     0
100
AcDbLine
 10
32.07110582087762
 20
9.710969620111113
 30
0.0
 11
30.67110582087754
 21
11.11096962011117
 31
0.0
  0
LINE
  5
37C4
330
37B6
100
AcDbEntity
  8
0
 62
     0
100
AcDbLine
 10
34.5211058208776
 20
7.260969620111125
 30
0.0
 11
33.12110582087758
 21
8.66096962011116
 31
0.0
  0
LINE
  5
37C5
330
37B6
100
AcDbEntity
  8
0
 62
     0
100
AcDbLine
 10
32.07110582087759
 20
9.261956814057668
 30
0.0
 11
30.67110582087754
 21
10.66195681405776
 31
0.0
  0
LINE
  5
37C6
330
37B6
100
AcDbEntity
  8
0
 62
     0
100
AcDbLine
 10
34.52110582087757
 20
6.811956814057679
 30
0.0
 11
33.12110582087754
 21
8.211956814057714
 31
0.0
  0
LINE
  5
37C7
330
37B6
100
AcDbEntity
  8
0
 62
     0
100
AcDbLine
 10
32.07110582087759
 20
8.812944008004222
 30
0.0
 11
30.67110582087754
 21
10.21294400800428
 31
0.0
  0
LINE
  5
37C8
330
37B6
100
AcDbEntity
  8
0
 62
     0
100
AcDbLine
 10
34.52110582087757
 20
6.362944008004233
 30
0.0
 11
33.12110582087754
 21
7.762944008004267
 31
0.0
  0
LINE
  5
37C9
330
37B6
100
AcDbEntity
  8
0
 62
     0
100
AcDbLine
 10
32.07110582087756
 20
8.363931201950746
 30
0.0
 11
30.6711058208775
 21
9.763931201950812
 31
0.0
  0
LINE
  5
37CA
330
37B6
100
AcDbEntity
  8
0
 62
     0
100
AcDbLine
 10
34.52110582087755
 20
5.913931201950759
 30
0.0
 11
33.12110582087754
 21
7.313931201950794
 31
0.0
  0
LINE
  5
37CB
330
37B6
100
AcDbEntity
  8
0
 62
     0
100
AcDbLine
 10
32.07110582087759
 20
7.914918395897331
 30
0.0
 11
30.67110582087754
 21
9.314918395897391
 31
0.0
  0
LINE
  5
37CC
330
37B6
100
AcDbEntity
  8
0
 62
     0
100
AcDbLine
 10
28.92110582087756
 20
11.06491839589736
 30
0.0
 11
28.36102387732523
 21
11.62500033944968
 31
0.0
  0
LINE
  5
37CD
330
37B6
100
AcDbEntity
  8
0
 62
     0
100
AcDbLine
 10
34.52110582087757
 20
5.464918395897342
 30
0.0
 11
33.12110582087754
 21
6.864918395897348
 31
0.0
  0
LINE
  5
37CE
330
37B6
100
AcDbEntity
  8
0
 62
     0
100
AcDbLine
 10
32.07110582087759
 20
7.465905589843855
 30
0.0
 11
30.6711058208775
 21
8.865905589843917
 31
0.0
  0
LINE
  5
37CF
330
37B6
100
AcDbEntity
  8
0
 62
     0
100
AcDbLine
 10
28.92110582087752
 20
10.61590558984389
 30
0.0
 11
27.91201107127176
 21
11.62500033944968
 31
0.0
  0
LINE
  5
37D0
330
37B6
100
AcDbEntity
  8
0
 62
     0
100
AcDbLine
 10
34.52110582087757
 20
5.015905589843868
 30
0.0
 11
33.12110582087754
 21
6.415905589843903
 31
0.0
  0
LINE
  5
37D1
330
37B6
100
AcDbEntity
  8
0
 62
     0
100
AcDbLine
 10
32.07110582087756
 20
7.016892783790409
 30
0.0
 11
30.67110582087754
 21
8.416892783790416
 31
0.0
  0
LINE
  5
37D2
330
37B6
100
AcDbEntity
  8
0
 62
     0
100
AcDbLine
 10
28.92110582087752
 20
10.16689278379044
 30
0.0
 11
27.57122445921552
 21
11.51677414545244
 31
0.0
  0
LINE
  5
37D3
330
37B6
100
AcDbEntity
  8
0
 62
     0
100
AcDbLine
 10
34.52110582087755
 20
4.566892783790422
 30
0.0
 11
33.12110582087752
 21
5.966892783790427
 31
0.0
  0
LINE
  5
37D4
330
37B6
100
AcDbEntity
  8
0
 62
     0
100
AcDbLine
 10
32.07110582087759
 20
6.567879977736937
 30
0.0
 11
30.67110582087755
 21
7.96787997773697
 31
0.0
  0
LINE
  5
37D5
330
37B6
100
AcDbEntity
  8
0
 62
     0
100
AcDbLine
 10
28.92110582087756
 20
9.71787997773697
 30
0.0
 11
27.52110582087755
 21
11.11787997773697
 31
0.0
  0
LINE
  5
37D6
330
37B6
100
AcDbEntity
  8
0
 62
     0
100
AcDbLine
 10
34.52110582087757
 20
4.117879977736946
 30
0.0
 11
33.12110582087754
 21
5.51787997773698
 31
0.0
  0
LINE
  5
37D7
330
37B6
100
AcDbEntity
  8
0
 62
     0
100
AcDbLine
 10
32.07110582087756
 20
6.11886717168349
 30
0.0
 11
30.67110582087755
 21
7.518867171683523
 31
0.0
  0
LINE
  5
37D8
330
37B6
100
AcDbEntity
  8
0
 62
     0
100
AcDbLine
 10
28.92110582087758
 20
9.268867171683496
 30
0.0
 11
27.52110582087755
 21
10.66886717168353
 31
0.0
  0
LINE
  5
37D9
330
37B6
100
AcDbEntity
  8
0
 62
     0
100
AcDbLine
 10
34.48512314343267
 20
3.704849849128406
 30
0.0
 11
33.12110582087754
 21
5.068867171683534
 31
0.0
  0
LINE
  5
37DA
330
37B6
100
AcDbEntity
  8
0
 62
     0
100
AcDbLine
 10
32.07110582087759
 20
5.669854365629987
 30
0.0
 11
30.67110582087754
 21
7.06985436563005
 31
0.0
  0
LINE
  5
37DB
330
37B6
100
AcDbEntity
  8
0
 62
     0
100
AcDbLine
 10
28.92110582087756
 20
8.81985436563005
 30
0.0
 11
27.52110582087752
 21
10.21985436563005
 31
0.0
  0
LINE
  5
37DC
330
37B6
100
AcDbEntity
  8
0
 62
     0
100
AcDbLine
 10
34.16595984705793
 20
3.575000339449672
 30
0.0
 11
33.12110582087752
 21
4.619854365630088
 31
0.0
  0
LINE
  5
37DD
330
37B6
100
AcDbEntity
  8
0
 62
     0
100
AcDbLine
 10
28.92110582087756
 20
8.370841559576575
 30
0.0
 11
27.52110582087752
 21
9.770841559576608
 31
0.0
  0
LINE
  5
37DE
330
37B6
100
AcDbEntity
  8
0
 62
     0
100
AcDbLine
 10
32.07110582087759
 20
5.220841559576541
 30
0.0
 11
30.67110582087754
 21
6.620841559576603
 31
0.0
  0
LINE
  5
37DF
330
37B6
100
AcDbEntity
  8
0
 62
     0
100
AcDbLine
 10
26.20860582087755
 20
11.08334155957658
 30
0.0
 11
25.66694704100447
 21
11.62500033944962
 31
0.0
  0
LINE
  5
37E0
330
37B6
100
AcDbEntity
  8
0
 62
     0
100
AcDbLine
 10
33.71694704100448
 20
3.575000339449616
 30
0.0
 11
33.12110582087752
 21
4.170841559576615
 31
0.0
  0
LINE
  5
37E1
330
37B6
100
AcDbEntity
  8
0
 62
     0
100
AcDbLine
 10
28.92110582087756
 20
7.921828753523128
 30
0.0
 11
27.52110582087758
 21
9.321828753523137
 31
0.0
  0
LINE
  5
37E2
330
37B6
100
AcDbEntity
  8
0
 62
     0
100
AcDbLine
 10
26.20860582087755
 20
10.63432875352313
 30
0.0
 11
25.21793423495106
 21
11.62500033944965
 31
0.0
  0
LINE
  5
37E3
330
37B6
100
AcDbEntity
  8
0
 62
     0
100
AcDbLine
 10
32.0581266705548
 20
4.784807903845916
 30
0.0
 11
30.67110582087754
 21
6.171828753523156
 31
0.0
  0
LINE
  5
37E4
330
37B6
100
AcDbEntity
  8
0
 62
     0
100
AcDbLine
 10
28.92110582087756
 20
7.472815947469682
 30
0.0
 11
27.52110582087758
 21
8.872815947469662
 31
0.0
  0
LINE
  5
37E5
330
37B6
100
AcDbEntity
  8
0
 62
     0
100
AcDbLine
 10
26.11081554782063
 20
10.2831062205266
 30
0.0
 11
24.76892142889755
 21
11.62500033944968
 31
0.0
  0
LINE
  5
37E6
330
37B6
100
AcDbEntity
  8
0
 62
     0
100
AcDbLine
 10
31.96163402292617
 20
4.432287745421035
 30
0.0
 11
30.67110582087754
 21
5.722815947469712
 31
0.0
  0
LINE
  5
37E7
330
37B6
100
AcDbEntity
  8
0
 62
     0
100
AcDbLine
 10
28.92110582087756
 20
7.023803141416208
 30
0.0
 11
27.52110582087755
 21
8.423803141416215
 31
0.0
  0
LINE
  5
37E8
330
37B6
100
AcDbEntity
  8
0
 62
     0
100
AcDbLine
 10
25.71990862284406
 20
10.22500033944967
 30
0.0
 11
24.31990862284411
 21
11.62500033944962
 31
0.0
  0
LINE
  5
37E9
330
37B6
100
AcDbEntity
  8
0
 62
     0
100
AcDbLine
 10
31.79911808496439
 20
4.145790877329345
 30
0.0
 11
30.63534795129777
 21
5.309561010995992
 31
0.0
  0
LINE
  5
37EA
330
37B6
100
AcDbEntity
  8
0
 62
     0
100
AcDbLine
 10
28.92110582087756
 20
6.574790335362791
 30
0.0
 11
27.52110582087758
 21
7.974790335362768
 31
0.0
  0
LINE
  5
37EB
330
37B6
100
AcDbEntity
  8
0
 62
     0
100
AcDbLine
 10
25.27089581679064
 20
10.2250003394497
 30
0.0
 11
23.90211245220195
 21
11.5937837040384
 31
0.0
  0
LINE
  5
37EC
330
37B6
100
AcDbEntity
  8
0
 62
     0
100
AcDbLine
 10
31.58309718630187
 20
3.912798969938448
 30
0.0
 11
30.43455513206402
 21
5.061341024176299
 31
0.0
  0
LINE
  5
37ED
330
37B6
100
AcDbEntity
  8
0
 62
     0
100
AcDbLine
 10
28.92110582087756
 20
6.125777529309316
 30
0.0
 11
27.52110582087755
 21
7.525777529309293
 31
0.0
  0
LINE
  5
37EE
330
37B6
100
AcDbEntity
  8
0
 62
     0
100
AcDbLine
 10
24.82188301073716
 20
10.2250003394497
 30
0.0
 11
23.56979223993525
 21
11.47709111025159
 31
0.0
  0
LINE
  5
37EF
330
37B6
100
AcDbEntity
  8
0
 62
     0
100
AcDbLine
 10
31.31501601383885
 20
3.731867336348016
 30
0.0
 11
30.07188301073716
 21
4.975000339449677
 31
0.0
  0
LINE
  5
37F0
330
37B6
100
AcDbEntity
  8
0
 62
     0
100
AcDbLine
 10
28.92110582087752
 20
5.676764723255843
 30
0.0
 11
27.52110582087755
 21
7.076764723255847
 31
0.0
  0
LINE
  5
37F1
330
37B6
100
AcDbEntity
  8
0
 62
     0
100
AcDbLine
 10
24.38376511869276
 20
10.2141054254406
 30
0.0
 11
23.29849177133016
 21
11.29937877280321
 31
0.0
  0
LINE
  5
37F2
330
37B6
100
AcDbEntity
  8
0
 62
     0
100
AcDbLine
 10
30.9868097338832
 20
3.611060810250194
 30
0.0
 11
29.62287020468372
 21
4.975000339449677
 31
0.0
  0
LINE
  5
37F3
330
37B6
100
AcDbEntity
  8
0
 62
     0
100
AcDbLine
 10
24.19610582087759
 20
9.952751917202306
 30
0.0
 11
23.07943574180788
 21
11.06942199627201
 31
0.0
  0
LINE
  5
37F4
330
37B6
100
AcDbEntity
  8
0
 62
     0
100
AcDbLine
 10
30.57385739863028
 20
3.575000339449643
 30
0.0
 11
27.52110582087755
 21
6.627751917202373
 31
0.0
  0
LINE
  5
37F5
330
37B6
100
AcDbEntity
  8
0
 62
     0
100
AcDbLine
 10
24.19610582087762
 20
9.503739111148886
 30
0.0
 11
22.91355028563137
 21
10.78629464639513
 31
0.0
  0
LINE
  5
37F6
330
37B6
100
AcDbEntity
  8
0
 62
     0
100
AcDbLine
 10
30.12484459257683
 20
3.575000339449643
 30
0.0
 11
27.52110582087755
 21
6.178739111148956
 31
0.0
  0
LINE
  5
37F7
330
37B6
100
AcDbEntity
  8
0
 62
     0
100
AcDbLine
 10
24.29937796142948
 20
8.951454164543546
 30
0.0
 11
22.81246102594931
 21
10.43837110002368
 31
0.0
  0
LINE
  5
37F8
330
37B6
100
AcDbEntity
  8
0
 62
     0
100
AcDbLine
 10
29.67583178652338
 20
3.575000339449643
 30
0.0
 11
27.52110582087755
 21
5.729726305095481
 31
0.0
  0
LINE
  5
37F9
330
37B6
100
AcDbEntity
  8
0
 62
     0
100
AcDbLine
 10
26.40790767222324
 20
6.393911647696312
 30
0.0
 11
22.79610582087755
 21
10.00571349904197
 31
0.0
  0
LINE
  5
37FA
330
37B6
100
AcDbEntity
  8
0
 62
     0
100
AcDbLine
 10
21.74610582087751
 20
11.05571349904201
 30
0.0
 11
21.17681898046987
 21
11.62500033944968
 31
0.0
  0
LINE
  5
37FB
330
37B6
100
AcDbEntity
  8
0
 62
     0
100
AcDbLine
 10
29.22681898046991
 20
3.575000339449643
 30
0.0
 11
27.52110582087752
 21
5.280713499042008
 31
0.0
  0
LINE
  5
37FC
330
37B6
100
AcDbEntity
  8
0
 62
     0
100
AcDbLine
 10
26.47110582087759
 20
5.881700692988545
 30
0.0
 11
22.79610582087757
 21
9.556700692988556
 31
0.0
  0
LINE
  5
37FD
330
37B6
100
AcDbEntity
  8
0
 62
     0
100
AcDbLine
 10
21.74610582087757
 20
10.60670069298853
 30
0.0
 11
20.7278061744164
 21
11.62500033944974
 31
0.0
  0
LINE
  5
37FE
330
37B6
100
AcDbEntity
  8
0
 62
     0
100
AcDbLine
 10
28.76958223504403
 20
3.583224278822115
 30
0.0
 11
27.52932976025002
 21
4.82347675361612
 31
0.0
  0
LINE
  5
37FF
330
37B6
100
AcDbEntity
  8
0
 62
     0
100
AcDbLine
 10
21.74610582087757
 20
10.15768788693509
 30
0.0
 11
20.39241087698991
 21
11.51138283082272
 31
0.0
  0
LINE
  5
3800
330
37B6
100
AcDbEntity
  8
0
 62
     0
100
AcDbLine
 10
26.47110582087757
 20
5.43268788693507
 30
0.0
 11
22.80781115481875
 21
9.095982552993916
 31
0.0
  0
LINE
  5
3801
330
37B6
100
AcDbEntity
  8
0
 62
     0
100
AcDbLine
 10
21.74610582087757
 20
9.708675080881619
 30
0.0
 11
20.34610582087756
 21
11.10867508088159
 31
0.0
  0
LINE
  5
3802
330
37B6
100
AcDbEntity
  8
0
 62
     0
100
AcDbLine
 10
26.47110582087752
 20
4.983675080881653
 30
0.0
 11
22.96687086373876
 21
8.487910038020428
 31
0.0
  0
LINE
  5
3803
330
37B6
100
AcDbEntity
  8
0
 62
     0
100
AcDbLine
 10
21.74610582087757
 20
9.259662274828171
 30
0.0
 11
20.34610582087759
 21
10.65966227482814
 31
0.0
  0
LINE
  5
3804
330
37B6
100
AcDbEntity
  8
0
 62
     0
100
AcDbLine
 10
26.41682491208303
 20
4.588943183622716
 30
0.0
 11
25.06900751756387
 21
5.93676057814187
 31
0.0
  0
LINE
  5
3805
330
37B6
100
AcDbEntity
  8
0
 62
     0
100
AcDbLine
 10
21.74610582087757
 20
8.810649468774727
 30
0.0
 11
20.34610582087756
 21
10.2106494687747
 31
0.0
  0
LINE
  5
3806
330
37B6
100
AcDbEntity
  8
0
 62
     0
100
AcDbLine
 10
19.20036237058906
 20
11.35639291906321
 30
0.0
 11
18.93175495020261
 21
11.62500033944968
 31
0.0
  0
LINE
  5
3807
330
37B6
100
AcDbEntity
  8
0
 62
     0
100
AcDbLine
 10
26.28288705820224
 20
4.273868231450051
 30
0.0
 11
25.07110582087759
 21
5.485649468774709
 31
0.0
  0
LINE
  5
3808
330
37B6
100
AcDbEntity
  8
0
 62
     0
100
AcDbLine
 10
21.74610582087754
 20
8.361636662721252
 30
0.0
 11
20.34610582087756
 21
9.761636662721258
 31
0.0
  0
LINE
  5
3809
330
37B6
100
AcDbEntity
  8
0
 62
     0
100
AcDbLine
 10
19.10089853846275
 20
11.00684394513604
 30
0.0
 11
18.48274214414914
 21
11.62500033944968
 31
0.0
  0
LINE
  5
380A
330
37B6
100
AcDbEntity
  8
0
 62
     0
100
AcDbLine
 10
26.0913936591146
 20
4.016348824484224
 30
0.0
 11
25.02246322943435
 21
5.085279254164476
 31
0.0
  0
LINE
  5
380B
330
37B6
100
AcDbEntity
  8
0
 62
     0
100
AcDbLine
 10
21.74610582087754
 20
7.912623856667806
 30
0.0
 11
20.34610582087756
 21
9.312623856667784
 31
0.0
  0
LINE
  5
380C
330
37B6
100
AcDbEntity
  8
0
 62
     0
100
AcDbLine
 10
18.99313546500991
 20
10.6655942125354
 30
0.0
 11
18.03852768327462
 21
11.62020199427072
 31
0.0
  0
LINE
  5
380D
330
37B6
100
AcDbEntity
  8
0
 62
     0
100
AcDbLine
 10
25.84823417655679
 20
3.810495500988537
 30
0.0
 11
24.68372933809567
 21
4.975000339449677
 31
0.0
  0
LINE
  5
380E
330
37B6
100
AcDbEntity
  8
0
 62
     0
100
AcDbLine
 10
21.74610582087757
 20
7.46361105061436
 30
0.0
 11
20.34610582087756
 21
8.863611050614338
 31
0.0
  0
LINE
  5
380F
330
37B6
100
AcDbEntity
  8
0
 62
     0
100
AcDbLine
 10
18.88537239155715
 20
10.32434447993477
 30
0.0
 11
17.82137239155713
 21
11.3883444799348
 31
0.0
  0
LINE
  5
3810
330
37B6
100
AcDbEntity
  8
0
 62
     0
100
AcDbLine
 10
25.5501922023266
 20
3.659524669165306
 30
0.0
 11
24.23471653204222
 21
4.975000339449707
 31
0.0
  0
LINE
  5
3811
330
37B6
100
AcDbEntity
  8
0
 62
     0
100
AcDbLine
 10
21.74610582087754
 20
7.014598244560914
 30
0.0
 11
20.34610582087756
 21
8.414598244560892
 31
0.0
  0
LINE
  5
3812
330
37B6
100
AcDbEntity
  8
0
 62
     0
100
AcDbLine
 10
18.77760931810422
 20
9.983094747334234
 30
0.0
 11
17.71360931810423
 21
11.04709474733422
 31
0.0
  0
LINE
  5
3813
330
37B6
100
AcDbEntity
  8
0
 62
     0
100
AcDbLine
 10
25.18135587650286
 20
3.579348188935596
 30
0.0
 11
23.78570372598878
 21
4.975000339449677
 31
0.0
  0
LINE
  5
3814
330
37B6
100
AcDbEntity
  8
0
 62
     0
100
AcDbLine
 10
21.74610582087754
 20
6.565585438507439
 30
0.0
 11
20.34610582087754
 21
7.965585438507417
 31
0.0
  0
LINE
  5
3815
330
37B6
100
AcDbEntity
  8
0
 62
     0
100
AcDbLine
 10
18.66984624465144
 20
9.641845014733547
 30
0.0
 11
17.60584624465138
 21
10.70584501473357
 31
0.0
  0
LINE
  5
3816
330
37B6
100
AcDbEntity
  8
0
 62
     0
100
AcDbLine
 10
24.73669091993534
 20
3.575000339449643
 30
0.0
 11
23.33669091993531
 21
4.975000339449677
 31
0.0
  0
LINE
  5
3817
330
37B6
100
AcDbEntity
  8
0
 62
     0
100
AcDbLine
 10
21.74610582087754
 20
6.116572632453993
 30
0.0
 11
20.34610582087756
 21
7.516572632453999
 31
0.0
  0
LINE
  5
3818
330
37B6
100
AcDbEntity
  8
0
 62
     0
100
AcDbLine
 10
18.56208317119862
 20
9.300595282132944
 30
0.0
 11
17.49808317119857
 21
10.36459528213296
 31
0.0
  0
LINE
  5
3819
330
37B6
100
AcDbEntity
  8
0
 62
     0
100
AcDbLine
 10
24.28767811388189
 20
3.575000339449672
 30
0.0
 11
23.0708722652337
 21
4.791806188097864
 31
0.0
  0
LINE
  5
381A
330
37B6
100
AcDbEntity
  8
0
 62
     0
100
AcDbLine
 10
18.4543200977458
 20
8.959345549532256
 30
0.0
 11
17.39032009774575
 21
10.02334554953233
 31
0.0
  0
LINE
  5
381B
330
37B6
100
AcDbEntity
  8
0
 62
     0
100
AcDbLine
 10
21.74610582087754
 20
5.667559826400547
 30
0.0
 11
20.34610582087756
 21
7.067559826400525
 31
0.0
  0
LINE
  5
381C
330
37B6
100
AcDbEntity
  8
0
 62
     0
100
AcDbLine
 10
16.32110582087756
 20
11.09255982640053
 30
0.0
 11
15.78866530782841
 21
11.62500033944965
 31
0.0
  0
LINE
  5
381D
330
37B6
100
AcDbEntity
  8
0
 62
     0
100
AcDbLine
 10
23.83866530782845
 20
3.575000339449643
 30
0.0
 11
23.05860582087757
 21
4.35505982640052
 31
0.0
  0
LINE
  5
381E
330
37B6
100
AcDbEntity
  8
0
 62
     0
100
AcDbLine
 10
18.3465570242929
 20
8.618095816931711
 30
0.0
 11
17.28255702429294
 21
9.682095816931678
 31
0.0
  0
LINE
  5
381F
330
37B6
100
AcDbEntity
  8
0
 62
     0
100
AcDbLine
 10
21.74610582087754
 20
5.218547020347074
 30
0.0
 11
20.34610582087754
 21
6.618547020347079
 31
0.0
  0
LINE
  5
3820
330
37B6
100
AcDbEntity
  8
0
 62
     0
100
AcDbLine
 10
16.32110582087756
 20
10.64354702034705
 30
0.0
 11
15.33965250177496
 21
11.62500033944965
 31
0.0
  0
LINE
  5
3821
330
37B6
100
AcDbEntity
  8
0
 62
     0
100
AcDbLine
 10
23.38965250177494
 20
3.575000339449672
 30
0.0
 11
23.05860582087754
 21
3.906047020347044
 31
0.0
  0
LINE
  5
3822
330
37B6
100
AcDbEntity
  8
0
 62
     0
100
AcDbLine
 10
18.23879395084009
 20
8.276846084331053
 30
0.0
 11
17.17479395084007
 21
9.340846084331076
 31
0.0
  0
LINE
  5
3823
330
37B6
100
AcDbEntity
  8
0
 62
     0
100
AcDbLine
 10
16.32110582087753
 20
10.19453421429358
 30
0.0
 11
14.98338335642873
 21
11.53225667874241
 31
0.0
  0
LINE
  5
3824
330
37B6
100
AcDbEntity
  8
0
 62
     0
100
AcDbLine
 10
21.74610582087751
 20
4.769534214293627
 30
0.0
 11
20.34610582087754
 21
6.169534214293604
 31
0.0
  0
LINE
  5
3825
330
37B6
100
AcDbEntity
  8
0
 62
     0
100
AcDbLine
 10
18.13103087738727
 20
7.935596351730451
 30
0.0
 11
17.06703087738728
 21
8.999596351730446
 31
0.0
  0
LINE
  5
3826
330
37B6
100
AcDbEntity
  8
0
 62
     0
100
AcDbLine
 10
16.32110582087756
 20
9.745521408240165
 30
0.0
 11
14.92110582087752
 21
11.14552140824017
 31
0.0
  0
LINE
  5
3827
330
37B6
100
AcDbEntity
  8
0
 62
     0
100
AcDbLine
 10
21.74610582087754
 20
4.320521408240181
 30
0.0
 11
20.34610582087754
 21
5.720521408240159
 31
0.0
  0
LINE
  5
3828
330
37B6
100
AcDbEntity
  8
0
 62
     0
100
AcDbLine
 10
18.02848662269123
 20
7.589127800373005
 30
0.0
 11
16.95926780393441
 21
8.658346619129844
 31
0.0
  0
LINE
  5
3829
330
37B6
100
AcDbEntity
  8
0
 62
     0
100
AcDbLine
 10
16.32110582087756
 20
9.296508602186689
 30
0.0
 11
14.92110582087752
 21
10.69650860218672
 31
0.0
  0
LINE
  5
382A
330
37B6
100
AcDbEntity
  8
0
 62
     0
100
AcDbLine
 10
21.74610582087751
 20
3.871508602186708
 30
0.0
 11
20.34610582087754
 21
5.271508602186712
 31
0.0
  0
LINE
  5
382B
330
37B6
100
AcDbEntity
  8
0
 62
     0
100
AcDbLine
 10
18.23572330240824
 20
6.932878314602532
 30
0.0
 11
16.8139940560921
 21
8.35460756091868
 31
0.0
  0
LINE
  5
382C
330
37B6
100
AcDbEntity
  8
0
 62
     0
100
AcDbLine
 10
16.32110582087759
 20
8.847495796133188
 30
0.0
 11
14.9211058208775
 21
10.24749579613325
 31
0.0
  0
LINE
  5
382D
330
37B6
100
AcDbEntity
  8
0
 62
     0
100
AcDbLine
 10
21.57658332221135
 20
3.592018294799401
 30
0.0
 11
20.34610582087756
 21
4.822495796133209
 31
0.0
  0
LINE
  5
382E
330
37B6
100
AcDbEntity
  8
0
 62
     0
100
AcDbLine
 10
18.44295998212524
 20
6.276628828832116
 30
0.0
 11
14.92110582087752
 21
9.798482990079831
 31
0.0
  0
LINE
  5
382F
330
37B6
100
AcDbEntity
  8
0
 62
     0
100
AcDbLine
 10
13.69610582087759
 20
11.02348299007977
 30
0.0
 11
13.0945884715077
 21
11.62500033944965
 31
0.0
  0
LINE
  5
3830
330
37B6
100
AcDbEntity
  8
0
 62
     0
100
AcDbLine
 10
21.14458847150771
 20
3.575000339449643
 30
0.0
 11
20.34610582087759
 21
4.373482990079763
 31
0.0
  0
LINE
  5
3831
330
37B6
100
AcDbEntity
  8
0
 62
     0
100
AcDbLine
 10
18.65019666184227
 20
5.620379343061612
 30
0.0
 11
14.92110582087752
 21
9.349470184026356
 31
0.0
  0
LINE
  5
3832
330
37B6
100
AcDbEntity
  8
0
 62
     0
100
AcDbLine
 10
13.69610582087759
 20
10.57447018402629
 30
0.0
 11
12.6455756654542
 21
11.62500033944968
 31
0.0
  0
LINE
  5
3833
330
37B6
100
AcDbEntity
  8
0
 62
     0
100
AcDbLine
 10
20.69557566545424
 20
3.575000339449616
 30
0.0
 11
20.34610582087756
 21
3.924470184026318
 31
0.0
  0
LINE
  5
3834
330
37B6
100
AcDbEntity
  8
0
 62
     0
100
AcDbLine
 10
13.56265247318253
 20
10.25891072566787
 30
0.0
 11
12.21254161407682
 21
11.60902158477355
 31
0.0
  0
LINE
  5
3835
330
37B6
100
AcDbEntity
  8
0
 62
     0
100
AcDbLine
 10
18.85743334155924
 20
4.964129857291169
 30
0.0
 11
14.92110582087755
 21
8.900457377972855
 31
0.0
  0
LINE
  5
3836
330
37B6
100
AcDbEntity
  8
0
 62
     0
100
AcDbLine
 10
16.48986028204836
 20
6.882690110748597
 30
0.0
 11
14.92110582087755
 21
8.45144457191941
 31
0.0
  0
LINE
  5
3837
330
37B6
100
AcDbEntity
  8
0
 62
     0
100
AcDbLine
 10
13.14755005334731
 20
10.22500033944962
 30
0.0
 11
11.84352007928319
 21
11.52903031351377
 31
0.0
  0
LINE
  5
3838
330
37B6
100
AcDbEntity
  8
0
 62
     0
100
AcDbLine
 10
19.06467002127627
 20
4.307880371520695
 30
0.0
 11
17.01851617512221
 21
6.354034217674751
 31
0.0
  0
LINE
  5
3839
330
37B6
100
AcDbEntity
  8
0
 62
     0
100
AcDbLine
 10
16.32110582087759
 20
6.602431765865929
 30
0.0
 11
14.92110582087755
 21
8.002431765865964
 31
0.0
  0
LINE
  5
383A
330
37B6
100
AcDbEntity
  8
0
 62
     0
100
AcDbLine
 10
12.69853724729381
 20
10.22500033944967
 30
0.0
 11
11.52415937136783
 21
11.39937821537566
 31
0.0
  0
LINE
  5
383B
330
37B6
100
AcDbEntity
  8
0
 62
     0
100
AcDbLine
 10
19.18218945013157
 20
3.741348136611918
 30
0.0
 11
17.22575285483927
 21
5.697784731904249
 31
0.0
  0
LINE
  5
383C
330
37B6
100
AcDbEntity
  8
0
 62
     0
100
AcDbLine
 10
16.32110582087756
 20
6.153418959812482
 30
0.0
 11
14.92110582087752
 21
7.553418959812488
 31
0.0
  0
LINE
  5
383D
330
37B6
100
AcDbEntity
  8
0
 62
     0
100
AcDbLine
 10
12.27698049602204
 20
10.19754428466799
 30
0.0
 11
11.24478488370056
 21
11.22973989698948
 31
0.0
  0
LINE
  5
383E
330
37B6
100
AcDbEntity
  8
0
 62
     0
100
AcDbLine
 10
18.8995244412404
 20
3.575000339449643
 30
0.0
 11
17.43298953455627
 21
5.041535246133776
 31
0.0
  0
LINE
  5
383F
330
37B6
100
AcDbEntity
  8
0
 62
     0
100
AcDbLine
 10
16.32110582087756
 20
5.704406153759008
 30
0.0
 11
14.92110582087752
 21
7.104406153759042
 31
0.0
  0
LINE
  5
3840
330
37B6
100
AcDbEntity
  8
0
 62
     0
100
AcDbLine
 10
11.99105239960255
 20
10.03445957503402
 30
0.0
 11
11.00095727939466
 21
11.0245546952419
 31
0.0
  0
LINE
  5
3841
330
37B6
100
AcDbEntity
  8
0
 62
     0
100
AcDbLine
 10
18.45051163518692
 20
3.575000339449643
 30
0.0
 11
17.64022621427327
 21
4.385285760363301
 31
0.0
  0
LINE
  5
3842
330
37B6
100
AcDbEntity
  8
0
 62
     0
100
AcDbLine
 10
13.86382038727643
 20
7.712678781306721
 30
0.0
 11
13.10878426273456
 21
8.467714905848595
 31
0.0
  0
LINE
  5
3843
330
37B6
100
AcDbEntity
  8
0
 62
     0
100
AcDbLine
 10
16.32110582087761
 20
5.255393347705535
 30
0.0
 11
14.92110582087755
 21
6.655393347705597
 31
0.0
  0
LINE
  5
3844
330
37B6
100
AcDbEntity
  8
0
 62
     0
100
AcDbLine
 10
11.81299161453807
 20
9.763507554045077
 30
0.0
 11
10.79127426638905
 21
10.7852249021941
 31
0.0
  0
LINE
  5
3845
330
37B6
100
AcDbEntity
  8
0
 62
     0
100
AcDbLine
 10
17.97633232703117
 20
3.600166841551981
 30
0.0
 11
17.85115524123551
 21
3.725343927347636
 31
0.0
  0
LINE
  5
3846
330
37B6
100
AcDbEntity
  8
0
 62
     0
100
AcDbLine
 10
13.82056355720547
 20
7.306922805324204
 30
0.0
 11
12.70302828675204
 21
8.424458075777636
 31
0.0
  0
LINE
  5
3847
330
37B6
100
AcDbEntity
  8
0
 62
     0
100
AcDbLine
 10
11.7711058208776
 20
9.356380541652072
 30
0.0
 11
10.61680475590822
 21
10.51068160662146
 31
0.0
  0
LINE
  5
3848
330
37B6
100
AcDbEntity
  8
0
 62
     0
100
AcDbLine
 10
16.32110582087759
 20
4.806380541652059
 30
0.0
 11
14.92110582087752
 21
6.20638054165215
 31
0.0
  0
LINE
  5
3849
330
37B6
100
AcDbEntity
  8
0
 62
     0
100
AcDbLine
 10
13.65463577755645
 20
7.023837778919728
 30
0.0
 11
12.41994326034756
 21
8.258530296128611
 31
0.0
  0
LINE
  5
384A
330
37B6
100
AcDbEntity
  8
0
 62
     0
100
AcDbLine
 10
11.7711058208776
 20
8.907367735598597
 30
0.0
 11
10.48151490230313
 21
10.19695865417307
 31
0.0
  0
LINE
  5
384B
330
37B6
100
AcDbEntity
  8
0
 62
     0
100
AcDbLine
 10
16.32110582087759
 20
4.357367735598614
 30
0.0
 11
14.92110582087755
 21
5.757367735598649
 31
0.0
  0
LINE
  5
384C
330
37B6
100
AcDbEntity
  8
0
 62
     0
100
AcDbLine
 10
11.7711058208776
 20
8.45835492954515
 30
0.0
 11
10.3941579658402
 21
9.83530278458258
 31
0.0
  0
LINE
  5
384D
330
37B6
100
AcDbEntity
  8
0
 62
     0
100
AcDbLine
 10
13.40371905648822
 20
6.825741693934559
 30
0.0
 11
12.22184717536239
 21
8.007613575060389
 31
0.0
  0
LINE
  5
384E
330
37B6
100
AcDbEntity
  8
0
 62
     0
100
AcDbLine
 10
9.058605820877572
 20
11.17085492954521
 30
0.0
 11
8.604460410973075
 21
11.62500033944971
 31
0.0
  0
LINE
  5
384F
330
37B6
100
AcDbEntity
  8
0
 62
     0
100
AcDbLine
 10
16.32110582087761
 20
3.908354929545167
 30
0.0
 11
14.92110582087758
 21
5.308354929545203
 31
0.0
  0
LINE
  5
3850
330
37B6
100
AcDbEntity
  8
0
 62
     0
100
AcDbLine
 10
11.7711058208776
 20
8.009342123491705
 30
0.0
 11
10.37110582087757
 21
9.40934212349174
 31
0.0
  0
LINE
  5
3851
330
37B6
100
AcDbEntity
  8
0
 62
     0
100
AcDbLine
 10
13.05355933527451
 20
6.7268886090948
 30
0.0
 11
12.12299409052263
 21
7.657453853846675
 31
0.0
  0
LINE
  5
3852
330
37B6
100
AcDbEntity
  8
0
 62
     0
100
AcDbLine
 10
9.058605820877541
 20
10.72184212349174
 30
0.0
 11
8.155447604919601
 21
11.62500033944968
 31
0.0
  0
LINE
  5
3853
330
37B6
100
AcDbEntity
  8
0
 62
     0
100
AcDbLine
 10
16.17715392024226
 20
3.603294024127051
 30
0.0
 11
14.92110582087755
 21
4.859342123491728
 31
0.0
  0
LINE
  5
3854
330
37B6
100
AcDbEntity
  8
0
 62
     0
100
AcDbLine
 10
11.7711058208776
 20
7.560329317438231
 30
0.0
 11
10.37110582087757
 21
8.960329317438265
 31
0.0
  0
LINE
  5
3855
330
37B6
100
AcDbEntity
  8
0
 62
     0
100
AcDbLine
 10
9.004088835742379
 20
10.32734630257346
 30
0.0
 11
7.706434798866097
 21
11.62500033944971
 31
0.0
  0
LINE
  5
3856
330
37B6
100
AcDbEntity
  8
0
 62
     0
100
AcDbLine
 10
15.75643479886616
 20
3.575000339449672
 30
0.0
 11
14.92110582087755
 21
4.410329317438282
 31
0.0
  0
LINE
  5
3857
330
37B6
100
AcDbEntity
  8
0
 62
     0
100
AcDbLine
 10
11.77110582087758
 20
7.111316511384785
 30
0.0
 11
10.37110582087754
 21
8.511316511384791
 31
0.0
  0
LINE
  5
3858
330
37B6
100
AcDbEntity
  8
0
 62
     0
100
AcDbLine
 10
8.657421992812713
 20
10.22500033944965
 30
0.0
 11
7.257421992812652
 21
11.62500033944971
 31
0.0
  0
LINE
  5
3859
330
37B6
100
AcDbEntity
  8
0
 62
     0
100
AcDbLine
 10
15.30742199281269
 20
3.575000339449643
 30
0.0
 11
14.92110582087755
 21
3.961316511384807
 31
0.0
  0
LINE
  5
385A
330
37B6
100
AcDbEntity
  8
0
 62
     0
100
AcDbLine
 10
11.7711058208776
 20
6.662303705331338
 30
0.0
 11
10.37110582087757
 21
8.062303705331371
 31
0.0
  0
LINE
  5
385B
330
37B6
100
AcDbEntity
  8
0
 62
     0
100
AcDbLine
 10
8.208409186759267
 20
10.22500033944965
 30
0.0
 11
6.825844550706817
 21
11.60756497550212
 31
0.0
  0
LINE
  5
385C
330
37B6
100
AcDbEntity
  8
0
 62
     0
100
AcDbLine
 10
13.6948045964591
 20
4.73860492974981
 30
0.0
 11
13.45971041117775
 21
4.973699115031195
 31
0.0
  0
LINE
  5
385D
330
37B6
100
AcDbEntity
  8
0
 62
     0
100
AcDbLine
 10
11.77110582087758
 20
6.213290899277864
 30
0.0
 11
10.37110582087757
 21
7.613290899277898
 31
0.0
  0
LINE
  5
385E
330
37B6
100
AcDbEntity
  8
0
 62
     0
100
AcDbLine
 10
7.759396380705823
 20
10.22500033944965
 30
0.0
 11
6.47927714646758
 21
11.50511957368789
 31
0.0
  0
LINE
  5
385F
330
37B6
100
AcDbEntity
  8
0
 62
     0
100
AcDbLine
 10
13.69610582087761
 20
4.288290899277853
 30
0.0
 11
13.00939638070579
 21
4.975000339449677
 31
0.0
  0
LINE
  5
3860
330
37B6
100
AcDbEntity
  8
0
 62
     0
100
AcDbLine
 10
11.77110582087758
 20
5.764278093224419
 30
0.0
 11
10.3711058208776
 21
7.164278093224396
 31
0.0
  0
LINE
  5
3861
330
37B6
100
AcDbEntity
  8
0
 62
     0
100
AcDbLine
 10
7.310383574652347
 20
10.22500033944962
 30
0.0
 11
6.197153816543959
 21
11.33823009755801
 31
0.0
  0
LINE
  5
3862
330
37B6
100
AcDbEntity
  8
0
 62
     0
100
AcDbLine
 10
13.69610582087759
 20
3.839278093224378
 30
0.0
 11
12.56038357465234
 21
4.97500033944962
 31
0.0
  0
LINE
  5
3863
330
37B6
100
AcDbEntity
  8
0
 62
     0
100
AcDbLine
 10
7.055237160845052
 20
10.03113394720352
 30
0.0
 11
5.968107410423583
 21
11.11826369762499
 31
0.0
  0
LINE
  5
3864
330
37B6
100
AcDbEntity
  8
0
 62
     0
100
AcDbLine
 10
13.50223942863141
 20
3.584131679417168
 30
0.0
 11
10.3711058208776
 21
6.715265287170979
 31
0.0
  0
LINE
  5
3865
330
37B6
100
AcDbEntity
  8
0
 62
     0
100
AcDbLine
 10
7.046105820877585
 20
9.591252481117519
 30
0.0
 11
5.791366809189042
 21
10.84599149280606
 31
0.0
  0
LINE
  5
3866
330
37B6
100
AcDbEntity
  8
0
 62
     0
100
AcDbLine
 10
13.06235796254546
 20
3.575000339449643
 30
0.0
 11
10.3711058208776
 21
6.266252481117503
 31
0.0
  0
LINE
  5
3867
330
37B6
100
AcDbEntity
  8
0
 62
     0
100
AcDbLine
 10
7.077173674945298
 20
9.111171820996304
 30
0.0
 11
5.675926758042179
 21
10.51241873789945
 31
0.0
  0
LINE
  5
3868
330
37B6
100
AcDbEntity
  8
0
 62
     0
100
AcDbLine
 10
12.61334515649195
 20
3.575000339449672
 30
0.0
 11
10.37110582087757
 21
5.817239675064029
 31
0.0
  0
LINE
  5
3869
330
37B6
100
AcDbEntity
  8
0
 62
     0
100
AcDbLine
 10
9.223293866488916
 20
6.516038823399269
 30
0.0
 11
5.646105820877607
 21
10.09322686901057
 31
0.0
  0
LINE
  5
386A
330
37B6
100
AcDbEntity
  8
0
 62
     0
100
AcDbLine
 10
12.13769630691018
 20
3.601636382978
 30
0.0
 11
10.3977418644059
 21
5.341590825482285
 31
0.0
  0
LINE
  5
386B
330
37B6
100
AcDbEntity
  8
0
 62
     0
100
AcDbLine
 10
9.319241123531524
 20
5.971078760303213
 30
0.0
 11
5.646105820877551
 21
9.644214062957187
 31
0.0
  0
LINE
  5
386C
330
37B6
100
AcDbEntity
  8
0
 62
     0
100
AcDbLine
 10
11.45079235060939
 20
3.839527533225321
 30
0.0
 11
10.63563301465319
 21
4.654686869181546
 31
0.0
  0
LINE
  5
386D
330
37B6
100
AcDbEntity
  8
0
 62
     0
100
AcDbLine
 10
9.321105820877619
 20
5.520201256903646
 30
0.0
 11
5.649888044588749
 21
9.191419033192488
 31
0.0
  0
LINE
  5
386E
330
37B6
100
AcDbEntity
  8
0
 62
     0
100
AcDbLine
 10
9.321105820877562
 20
5.071188450850228
 30
0.0
 11
5.761533423750678
 21
8.630760847977086
 31
0.0
  0
LINE
  5
386F
330
37B6
100
AcDbEntity
  8
0
 62
     0
100
AcDbLine
 10
9.284845822811604
 20
4.658435642862769
 30
0.0
 11
7.903150001002074
 21
6.040131464672298
 31
0.0
  0
LINE
  5
3870
330
37B6
100
AcDbEntity
  8
0
 62
     0
100
AcDbLine
 10
9.16387685329718
 20
4.330391806323716
 30
0.0
 11
7.921105820877556
 21
5.573162838743343
 31
0.0
  0
LINE
  5
3871
330
37B6
100
AcDbEntity
  8
0
 62
     0
100
AcDbLine
 10
8.982817229606297
 20
4.062438623961128
 30
0.0
 11
7.903156304727217
 21
5.142099548840207
 31
0.0
  0
LINE
  5
3872
330
37B6
100
AcDbEntity
  8
0
 62
     0
100
AcDbLine
 10
8.74970404347286
 20
3.846539004041118
 30
0.0
 11
7.621242708064301
 21
4.975000339449707
 31
0.0
  0
LINE
  5
3873
330
37B6
100
AcDbEntity
  8
0
 62
     0
100
AcDbLine
 10
8.463071819606454
 20
3.684158421854078
 30
0.0
 11
7.172229902010825
 21
4.975000339449677
 31
0.0
  0
LINE
  5
3874
330
37B6
100
AcDbEntity
  8
0
 62
     0
100
AcDbLine
 10
8.110365525063484
 20
3.587851910343573
 30
0.0
 11
6.723217095957378
 21
4.975000339449677
 31
0.0
  0
LINE
  5
3875
330
37B6
100
AcDbEntity
  8
0
 62
     0
100
AcDbLine
 10
7.674204289903912
 20
3.575000339449672
 30
0.0
 11
6.274204289903906
 21
4.975000339449677
 31
0.0
  0
LINE
  5
3876
330
37B6
100
AcDbEntity
  8
0
 62
     0
100
AcDbLine
 10
7.225191483850494
 20
3.575000339449643
 30
0.0
 11
5.948529536441554
 21
4.851662286858612
 31
0.0
  0
LINE
  5
3877
330
37B6
100
AcDbEntity
  8
0
 62
     0
100
AcDbLine
 10
6.77617867779699
 20
3.575000339449672
 30
0.0
 11
5.908605820877595
 21
4.442573196369068
 31
0.0
  0
LINE
  5
3878
330
37B6
100
AcDbEntity
  8
0
 62
     0
100
AcDbLine
 10
6.327165871743574
 20
3.575000339449643
 30
0.0
 11
5.908605820877595
 21
3.993560390315622
 31
0.0
  0
LINE
  5
3879
330
37B6
100
AcDbEntity
  8
0
 62
     0
100
AcDbLine
 10
34.31694946321104
 20
3.581566228008426
 30
0.0
 11
34.51453993231893
 21
3.779156697116319
 31
0.0
  0
LINE
  5
387A
330
37B6
100
AcDbEntity
  8
0
 62
     0
100
AcDbLine
 10
33.86137076859887
 20
3.575000339449643
 30
0.0
 11
34.52110582087767
 21
4.234735391728463
 31
0.0
  0
LINE
  5
387B
330
37B6
100
AcDbEntity
  8
0
 62
     0
100
AcDbLine
 10
33.4123579625454
 20
3.575000339449672
 30
0.0
 11
34.52110582087767
 21
4.683748197781909
 31
0.0
  0
LINE
  5
387C
330
37B6
100
AcDbEntity
  8
0
 62
     0
100
AcDbLine
 10
33.13670460250349
 20
3.748359785461218
 30
0.0
 11
34.52110582087764
 21
5.132761003835383
 31
0.0
  0
LINE
  5
387D
330
37B6
100
AcDbEntity
  8
0
 62
     0
100
AcDbLine
 10
33.1211058208776
 20
4.181773809888794
 30
0.0
 11
34.52110582087764
 21
5.5817738098888
 31
0.0
  0
LINE
  5
387E
330
37B6
100
AcDbEntity
  8
0
 62
     0
100
AcDbLine
 10
33.12110582087763
 20
4.63078661594224
 30
0.0
 11
34.52110582087764
 21
6.030786615942275
 31
0.0
  0
LINE
  5
387F
330
37B6
100
AcDbEntity
  8
0
 62
     0
100
AcDbLine
 10
33.1211058208776
 20
5.079799421995716
 30
0.0
 11
34.52110582087764
 21
6.479799421995749
 31
0.0
  0
LINE
  5
3880
330
37B6
100
AcDbEntity
  8
0
 62
     0
100
AcDbLine
 10
33.1211058208776
 20
5.528812228049162
 30
0.0
 11
34.52110582087764
 21
6.928812228049196
 31
0.0
  0
LINE
  5
3881
330
37B6
100
AcDbEntity
  8
0
 62
     0
100
AcDbLine
 10
31.33438825191024
 20
3.7420946590818
 30
0.0
 11
31.90401150124552
 21
4.311717908417108
 31
0.0
  0
LINE
  5
3882
330
37B6
100
AcDbEntity
  8
0
 62
     0
100
AcDbLine
 10
33.1211058208776
 20
5.977825034102608
 30
0.0
 11
34.52110582087764
 21
7.377825034102642
 31
0.0
  0
LINE
  5
3883
330
37B6
100
AcDbEntity
  8
0
 62
     0
100
AcDbLine
 10
30.71910416864884
 20
3.575823381873846
 30
0.0
 11
32.0702827784535
 21
4.92700199167848
 31
0.0
  0
LINE
  5
3884
330
37B6
100
AcDbEntity
  8
0
 62
     0
100
AcDbLine
 10
33.1211058208776
 20
6.426837840156081
 30
0.0
 11
34.52110582087764
 21
7.826837840156088
 31
0.0
  0
LINE
  5
3885
330
37B6
100
AcDbEntity
  8
0
 62
     0
100
AcDbLine
 10
30.26926832017122
 20
3.575000339449701
 30
0.0
 11
32.07110582087764
 21
5.376837840156098
 31
0.0
  0
LINE
  5
3886
330
37B6
100
AcDbEntity
  8
0
 62
     0
100
AcDbLine
 10
33.1211058208776
 20
6.875850646209527
 30
0.0
 11
34.5211058208776
 21
8.275850646209562
 31
0.0
  0
LINE
  5
3887
330
37B6
100
AcDbEntity
  8
0
 62
     0
100
AcDbLine
 10
29.82025551411775
 20
3.575000339449701
 30
0.0
 11
32.07110582087762
 21
5.825850646209572
 31
0.0
  0
LINE
  5
3888
330
37B6
100
AcDbEntity
  8
0
 62
     0
100
AcDbLine
 10
33.1211058208776
 20
7.324863452262973
 30
0.0
 11
34.52110582087764
 21
8.724863452263008
 31
0.0
  0
LINE
  5
3889
330
37B6
100
AcDbEntity
  8
0
 62
     0
100
AcDbLine
 10
29.37124270806427
 20
3.575000339449643
 30
0.0
 11
32.07110582087764
 21
6.274863452263018
 31
0.0
  0
LINE
  5
388A
330
37B6
100
AcDbEntity
  8
0
 62
     0
100
AcDbLine
 10
30.61881021983708
 20
5.271580657275933
 30
0.0
 11
32.07110582087764
 21
6.723876258316464
 31
0.0
  0
LINE
  5
388B
330
37B6
100
AcDbEntity
  8
0
 62
     0
100
AcDbLine
 10
33.1211058208776
 20
7.77387625831642
 30
0.0
 11
34.52110582087764
 21
9.173876258316454
 31
0.0
  0
LINE
  5
388C
330
37B6
100
AcDbEntity
  8
0
 62
     0
100
AcDbLine
 10
28.92222990201085
 20
3.575000339449701
 30
0.0
 11
30.37452550305133
 21
5.027295940490148
 31
0.0
  0
LINE
  5
388D
330
37B6
100
AcDbEntity
  8
0
 62
     0
100
AcDbLine
 10
30.67110582087755
 20
5.772889064369877
 30
0.0
 11
32.07110582087762
 21
7.172889064369941
 31
0.0
  0
LINE
  5
388E
330
37B6
100
AcDbEntity
  8
0
 62
     0
100
AcDbLine
 10
33.12110582087758
 20
8.222889064369892
 30
0.0
 11
34.5211058208776
 21
9.622889064369926
 31
0.0
  0
LINE
  5
388F
330
37B6
100
AcDbEntity
  8
0
 62
     0
100
AcDbLine
 10
28.52919197164593
 20
3.630975215138221
 30
0.0
 11
29.87321709595738
 21
4.975000339449707
 31
0.0
  0
LINE
  5
3890
330
37B6
100
AcDbEntity
  8
0
 62
     0
100
AcDbLine
 10
30.67110582087755
 20
6.221901870423321
 30
0.0
 11
32.07110582087762
 21
7.621901870423386
 31
0.0
  0
LINE
  5
3891
330
37B6
100
AcDbEntity
  8
0
 62
     0
100
AcDbLine
 10
33.12110582087758
 20
8.671901870423369
 30
0.0
 11
34.5211058208776
 21
10.07190187042337
 31
0.0
  0
LINE
  5
3892
330
37B6
100
AcDbEntity
  8
0
 62
     0
100
AcDbLine
 10
28.21519853804085
 20
3.765994587586646
 30
0.0
 11
29.42464318272607
 21
4.975439232271867
 31
0.0
  0
LINE
  5
3893
330
37B6
100
AcDbEntity
  8
0
 62
     0
100
AcDbLine
 10
30.67110582087755
 20
6.670914676476768
 30
0.0
 11
32.07110582087762
 21
8.070914676476832
 31
0.0
  0
LINE
  5
3894
330
37B6
100
AcDbEntity
  8
0
 62
     0
100
AcDbLine
 10
33.1211058208776
 20
9.120914676476786
 30
0.0
 11
34.5211058208776
 21
10.52091467647682
 31
0.0
  0
LINE
  5
3895
330
37B6
100
AcDbEntity
  8
0
 62
     0
100
AcDbLine
 10
27.95856859735832
 20
3.958377452957506
 30
0.0
 11
29.10290388836972
 21
5.102712743968936
 31
0.0
  0
LINE
  5
3896
330
37B6
100
AcDbEntity
  8
0
 62
     0
100
AcDbLine
 10
30.67110582087755
 20
7.119927482530214
 30
0.0
 11
32.07110582087762
 21
8.519927482530306
 31
0.0
  0
LINE
  5
3897
330
37B6
100
AcDbEntity
  8
0
 62
     0
100
AcDbLine
 10
33.12110582087758
 20
9.56992748253026
 30
0.0
 11
34.5211058208776
 21
10.96992748253029
 31
0.0
  0
LINE
  5
3898
330
37B6
100
AcDbEntity
  8
0
 62
     0
100
AcDbLine
 10
27.75358650974576
 20
4.202408171398416
 30
0.0
 11
28.93428474916501
 21
5.383106410817703
 31
0.0
  0
LINE
  5
3899
330
37B6
100
AcDbEntity
  8
0
 62
     0
100
AcDbLine
 10
30.67110582087754
 20
7.568940288583688
 30
0.0
 11
32.07110582087762
 21
8.968940288583752
 31
0.0
  0
LINE
  5
389A
330
37B6
100
AcDbEntity
  8
0
 62
     0
100
AcDbLine
 10
33.12110582087758
 20
10.0189402885837
 30
0.0
 11
34.51603124410238
 21
11.41386571180854
 31
0.0
  0
LINE
  5
389B
330
37B6
100
AcDbEntity
  8
0
 62
     0
100
AcDbLine
 10
27.60362407052875
 20
4.501458538234913
 30
0.0
 11
28.92110582087756
 21
5.818940288583717
 31
0.0
  0
LINE
  5
389C
330
37B6
100
AcDbEntity
  8
0
 62
     0
100
AcDbLine
 10
30.67110582087757
 20
8.017953094637164
 30
0.0
 11
32.07110582087762
 21
9.417953094637196
 31
0.0
  0
LINE
  5
389D
330
37B6
100
AcDbEntity
  8
0
 62
     0
100
AcDbLine
 10
33.12110582087758
 20
10.46795309463715
 30
0.0
 11
34.27747407156263
 21
11.62432134532221
 31
0.0
  0
LINE
  5
389E
330
37B6
100
AcDbEntity
  8
0
 62
     0
100
AcDbLine
 10
27.52491730305052
 20
4.871764576810106
 30
0.0
 11
28.92110582087758
 21
6.267953094637164
 31
0.0
  0
LINE
  5
389F
330
37B6
100
AcDbEntity
  8
0
 62
     0
100
AcDbLine
 10
30.67110582087757
 20
8.466965900690638
 30
0.0
 11
32.07110582087762
 21
9.866965900690644
 31
0.0
  0
LINE
  5
38A0
330
37B6
100
AcDbEntity
  8
0
 62
     0
100
AcDbLine
 10
33.1211058208776
 20
10.91696590069065
 30
0.0
 11
33.8291402596366
 21
11.62500033944965
 31
0.0
  0
LINE
  5
38A1
330
37B6
100
AcDbEntity
  8
0
 62
     0
100
AcDbLine
 10
27.52110582087758
 20
5.316965900690632
 30
0.0
 11
28.92110582087761
 21
6.716965900690667
 31
0.0
  0
LINE
  5
38A2
330
37B6
100
AcDbEntity
  8
0
 62
     0
100
AcDbLine
 10
30.67110582087757
 20
8.915978706744084
 30
0.0
 11
32.07110582087759
 21
10.31597870674411
 31
0.0
  0
LINE
  5
38A3
330
37B6
100
AcDbEntity
  8
0
 62
     0
100
AcDbLine
 10
27.52110582087758
 20
5.765978706744077
 30
0.0
 11
28.92110582087758
 21
7.165978706744112
 31
0.0
  0
LINE
  5
38A4
330
37B6
100
AcDbEntity
  8
0
 62
     0
100
AcDbLine
 10
33.12112917825132
 20
11.36600206411785
 30
0.0
 11
33.38010409620946
 21
11.62497698207596
 31
0.0
  0
LINE
  5
38A5
330
37B6
100
AcDbEntity
  8
0
 62
     0
100
AcDbLine
 10
25.36032800552161
 20
3.605200891388108
 30
0.0
 11
26.44090526893918
 21
4.685778154805716
 31
0.0
  0
LINE
  5
38A6
330
37B6
100
AcDbEntity
  8
0
 62
     0
100
AcDbLine
 10
27.52110582087755
 20
6.214991512797552
 30
0.0
 11
28.92110582087758
 21
7.614991512797588
 31
0.0
  0
LINE
  5
38A7
330
37B6
100
AcDbEntity
  8
0
 62
     0
100
AcDbLine
 10
30.67110582087755
 20
9.364991512797557
 30
0.0
 11
32.07110582087759
 21
10.76499151279759
 31
0.0
  0
LINE
  5
38A8
330
37B6
100
AcDbEntity
  8
0
 62
     0
100
AcDbLine
 10
24.8811146475297
 20
3.575000339449701
 30
0.0
 11
26.47110582087757
 21
5.16499151279754
 31
0.0
  0
LINE
  5
38A9
330
37B6
100
AcDbEntity
  8
0
 62
     0
100
AcDbLine
 10
27.52110582087758
 20
6.664004318850999
 30
0.0
 11
28.92110582087761
 21
8.064004318851003
 31
0.0
  0
LINE
  5
38AA
330
37B6
100
AcDbEntity
  8
0
 62
     0
100
AcDbLine
 10
30.67110582087757
 20
9.814004318850976
 30
0.0
 11
32.07110582087762
 21
11.21400431885101
 31
0.0
  0
LINE
  5
38AB
330
37B6
100
AcDbEntity
  8
0
 62
     0
100
AcDbLine
 10
24.43210184147622
 20
3.575000339449643
 30
0.0
 11
26.47110582087762
 21
5.614004318851017
 31
0.0
  0
LINE
  5
38AC
330
37B6
100
AcDbEntity
  8
0
 62
     0
100
AcDbLine
 10
27.52110582087758
 20
7.113017124904445
 30
0.0
 11
28.92110582087758
 21
8.513017124904479
 31
0.0
  0
LINE
  5
38AD
330
37B6
100
AcDbEntity
  8
0
 62
     0
100
AcDbLine
 10
30.67110582087755
 20
10.26301712490445
 30
0.0
 11
31.97423709346057
 21
11.56614839748746
 31
0.0
  0
LINE
  5
38AE
330
37B6
100
AcDbEntity
  8
0
 62
     0
100
AcDbLine
 10
23.98308903542277
 20
3.575000339449672
 30
0.0
 11
26.46394652067113
 21
6.055857824698022
 31
0.0
  0
LINE
  5
38AF
330
37B6
100
AcDbEntity
  8
0
 62
     0
100
AcDbLine
 10
27.52110582087755
 20
7.562029930957919
 30
0.0
 11
28.92110582087758
 21
8.962029930957951
 31
0.0
  0
LINE
  5
38B0
330
37B6
100
AcDbEntity
  8
0
 62
     0
100
AcDbLine
 10
30.67110582087755
 20
10.71202993095792
 30
0.0
 11
31.58407622936931
 21
11.62500033944968
 31
0.0
  0
LINE
  5
38B1
330
37B6
100
AcDbEntity
  8
0
 62
     0
100
AcDbLine
 10
23.5340762293693
 20
3.575000339449672
 30
0.0
 11
26.39649033535675
 21
6.437414445437099
 31
0.0
  0
LINE
  5
38B2
330
37B6
100
AcDbEntity
  8
0
 62
     0
100
AcDbLine
 10
27.52110582087758
 20
8.011042737011338
 30
0.0
 11
28.92110582087758
 21
9.411042737011372
 31
0.0
  0
LINE
  5
38B3
330
37B6
100
AcDbEntity
  8
0
 62
     0
100
AcDbLine
 10
25.07110582087761
 20
5.561042737011405
 30
0.0
 11
26.27619660689748
 21
6.766133523031242
 31
0.0
  0
LINE
  5
38B4
330
37B6
100
AcDbEntity
  8
0
 62
     0
100
AcDbLine
 10
30.67110582087757
 20
11.16104273701134
 30
0.0
 11
31.13506342331592
 21
11.62500033944971
 31
0.0
  0
LINE
  5
38B5
330
37B6
100
AcDbEntity
  8
0
 62
     0
100
AcDbLine
 10
23.14919109988142
 20
3.639128016015205
 30
0.0
 11
24.48506342331586
 21
4.97500033944965
 31
0.0
  0
LINE
  5
38B6
330
37B6
100
AcDbEntity
  8
0
 62
     0
100
AcDbLine
 10
25.06117053331397
 20
6.000120255501201
 30
0.0
 11
26.11444695446721
 21
7.053396676654442
 31
0.0
  0
LINE
  5
38B7
330
37B6
100
AcDbEntity
  8
0
 62
     0
100
AcDbLine
 10
27.52110582087761
 20
8.460055543064838
 30
0.0
 11
28.92110582087761
 21
9.860055543064873
 31
0.0
  0
LINE
  5
38B8
330
37B6
100
AcDbEntity
  8
0
 62
     0
100
AcDbLine
 10
23.05860582087757
 20
3.997555543064833
 30
0.0
 11
24.03605061726239
 21
4.97500033944965
 31
0.0
  0
LINE
  5
38B9
330
37B6
100
AcDbEntity
  8
0
 62
     0
100
AcDbLine
 10
24.92397811474452
 20
6.311940642985263
 30
0.0
 11
25.9165113955033
 21
7.304473923744041
 31
0.0
  0
LINE
  5
38BA
330
37B6
100
AcDbEntity
  8
0
 62
     0
100
AcDbLine
 10
27.52110582087758
 20
8.909068349118314
 30
0.0
 11
28.92110582087761
 21
10.30906834911834
 31
0.0
  0
LINE
  5
38BB
330
37B6
100
AcDbEntity
  8
0
 62
     0
100
AcDbLine
 10
23.05860582087757
 20
4.44656834911828
 30
0.0
 11
23.58703781120894
 21
4.975000339449677
 31
0.0
  0
LINE
  5
38BC
330
37B6
100
AcDbEntity
  8
0
 62
     0
100
AcDbLine
 10
27.52110582087761
 20
9.35808115517176
 30
0.0
 11
28.92110582087764
 21
10.75808115517176
 31
0.0
  0
LINE
  5
38BD
330
37B6
100
AcDbEntity
  8
0
 62
     0
100
AcDbLine
 10
24.70334066618599
 20
6.540316000480116
 30
0.0
 11
25.69329015984718
 21
7.530265494141332
 31
0.0
  0
LINE
  5
38BE
330
37B6
100
AcDbEntity
  8
0
 62
     0
100
AcDbLine
 10
24.47883426315925
 20
6.764822403506856
 30
0.0
 11
25.46878375682041
 21
7.754771897168012
 31
0.0
  0
LINE
  5
38BF
330
37B6
100
AcDbEntity
  8
0
 62
     0
100
AcDbLine
 10
27.52110582087758
 20
9.807093961225206
 30
0.0
 11
28.92110582087761
 21
11.20709396122524
 31
0.0
  0
LINE
  5
38C0
330
37B6
100
AcDbEntity
  8
0
 62
     0
100
AcDbLine
 10
21.28901219910204
 20
3.575000339449672
 30
0.0
 11
21.7461058208776
 21
4.0320939612252
 31
0.0
  0
LINE
  5
38C1
330
37B6
100
AcDbEntity
  8
0
 62
     0
100
AcDbLine
 10
24.25432786013255
 20
6.989328806533649
 30
0.0
 11
25.24427735379367
 21
7.979278300194748
 31
0.0
  0
LINE
  5
38C2
330
37B6
100
AcDbEntity
  8
0
 62
     0
100
AcDbLine
 10
27.52110582087758
 20
10.25610676727868
 30
0.0
 11
28.82801536682828
 21
11.56301631322935
 31
0.0
  0
LINE
  5
38C3
330
37B6
100
AcDbEntity
  8
0
 62
     0
100
AcDbLine
 10
20.8399993930486
 20
3.575000339449672
 30
0.0
 11
21.74610582087757
 21
4.481106767278673
 31
0.0
  0
LINE
  5
38C4
330
37B6
100
AcDbEntity
  8
0
 62
     0
100
AcDbLine
 10
24.02982145710578
 20
7.213835209560328
 30
0.0
 11
25.01977095076694
 21
8.203784703221487
 31
0.0
  0
LINE
  5
38C5
330
37B6
100
AcDbEntity
  8
0
 62
     0
100
AcDbLine
 10
27.52110582087758
 20
10.70511957333212
 30
0.0
 11
28.44098658699513
 21
11.62500033944971
 31
0.0
  0
LINE
  5
38C6
330
37B6
100
AcDbEntity
  8
0
 62
     0
100
AcDbLine
 10
20.44679215592609
 20
3.630805908380636
 30
0.0
 11
21.7461058208776
 21
4.930119573332176
 31
0.0
  0
LINE
  5
38C7
330
37B6
100
AcDbEntity
  8
0
 62
     0
100
AcDbLine
 10
23.80531505407907
 20
7.438341612587037
 30
0.0
 11
24.79526454774023
 21
8.428291106248195
 31
0.0
  0
LINE
  5
38C8
330
37B6
100
AcDbEntity
  8
0
 62
     0
100
AcDbLine
 10
27.52110582087758
 20
11.15413237938557
 30
0.0
 11
27.99197378094172
 21
11.62500033944968
 31
0.0
  0
LINE
  5
38C9
330
37B6
100
AcDbEntity
  8
0
 62
     0
100
AcDbLine
 10
20.34610582087756
 20
3.979132379385531
 30
0.0
 11
21.74610582087763
 21
5.379132379385595
 31
0.0
  0
LINE
  5
38CA
330
37B6
100
AcDbEntity
  8
0
 62
     0
100
AcDbLine
 10
23.58080865105232
 20
7.662848015613775
 30
0.0
 11
24.57075814471349
 21
8.652797509274932
 31
0.0
  0
LINE
  5
38CB
330
37B6
100
AcDbEntity
  8
0
 62
     0
100
AcDbLine
 10
20.34610582087759
 20
4.428145185439035
 30
0.0
 11
21.7461058208776
 21
5.828145185439067
 31
0.0
  0
LINE
  5
38CC
330
37B6
100
AcDbEntity
  8
0
 62
     0
100
AcDbLine
 10
23.35731670053167
 20
7.888368871146609
 30
0.0
 11
24.34930346722268
 21
8.880355637837595
 31
0.0
  0
LINE
  5
38CD
330
37B6
100
AcDbEntity
  8
0
 62
     0
100
AcDbLine
 10
20.34610582087756
 20
4.877157991492508
 30
0.0
 11
21.7461058208776
 21
6.277157991492543
 31
0.0
  0
LINE
  5
38CE
330
37B6
100
AcDbEntity
  8
0
 62
     0
100
AcDbLine
 10
25.69394816883476
 20
10.22500033944967
 30
0.0
 11
26.20860582087757
 21
10.73965799149252
 31
0.0
  0
LINE
  5
38CF
330
37B6
100
AcDbEntity
  8
0
 62
     0
100
AcDbLine
 10
19.0997777085225
 20
3.630829879137421
 30
0.0
 11
19.14460388925002
 21
3.675656059864961
 31
0.0
  0
LINE
  5
38D0
330
37B6
100
AcDbEntity
  8
0
 62
     0
100
AcDbLine
 10
23.15831561112068
 20
8.138380587789043
 30
0.0
 11
24.20813274982998
 21
9.188197726498344
 31
0.0
  0
LINE
  5
38D1
330
37B6
100
AcDbEntity
  8
0
 62
     0
100
AcDbLine
 10
20.34610582087759
 20
5.326170797545926
 30
0.0
 11
21.74610582087763
 21
6.726170797545961
 31
0.0
  0
LINE
  5
38D2
330
37B6
100
AcDbEntity
  8
0
 62
     0
100
AcDbLine
 10
25.24493536278132
 20
10.22500033944967
 30
0.0
 11
26.20860582087761
 21
11.18867079754592
 31
0.0
  0
LINE
  5
38D3
330
37B6
100
AcDbEntity
  8
0
 62
     0
100
AcDbLine
 10
18.59493536278128
 20
3.575000339449643
 30
0.0
 11
19.12782491093452
 21
4.10788988760285
 31
0.0
  0
LINE
  5
38D4
330
37B6
100
AcDbEntity
  8
0
 62
     0
100
AcDbLine
 10
22.99539847892233
 20
8.424476261644173
 30
0.0
 11
24.19610582087765
 21
9.625183603599452
 31
0.0
  0
LINE
  5
38D5
330
37B6
100
AcDbEntity
  8
0
 62
     0
100
AcDbLine
 10
20.34610582087756
 20
5.775183603599401
 30
0.0
 11
21.7461058208776
 21
7.175183603599434
 31
0.0
  0
LINE
  5
38D6
330
37B6
100
AcDbEntity
  8
0
 62
     0
100
AcDbLine
 10
24.79592255672788
 20
10.22500033944967
 30
0.0
 11
26.12527135497868
 21
11.55434913770051
 31
0.0
  0
LINE
  5
38D7
330
37B6
100
AcDbEntity
  8
0
 62
     0
100
AcDbLine
 10
18.14592255672783
 20
3.575000339449643
 30
0.0
 11
19.0200618374817
 21
4.449139620203538
 31
0.0
  0
LINE
  5
38D8
330
37B6
100
AcDbEntity
  8
0
 62
     0
100
AcDbLine
 10
20.34610582087756
 20
6.224196409652875
 30
0.0
 11
21.7461058208776
 21
7.62419640965288
 31
0.0
  0
LINE
  5
38D9
330
37B6
100
AcDbEntity
  8
0
 62
     0
100
AcDbLine
 10
22.87370744758729
 20
8.751798036362599
 30
0.0
 11
25.74690975067443
 21
11.62500033944971
 31
0.0
  0
LINE
  5
38DA
330
37B6
100
AcDbEntity
  8
0
 62
     0
100
AcDbLine
 10
17.84991540140029
 20
3.728005990175602
 30
0.0
 11
18.91229876402886
 21
4.790389352804169
 31
0.0
  0
LINE
  5
38DB
330
37B6
100
AcDbEntity
  8
0
 62
     0
100
AcDbLine
 10
20.34610582087756
 20
6.673209215706322
 30
0.0
 11
21.74610582087757
 21
8.073209215706356
 31
0.0
  0
LINE
  5
38DC
330
37B6
100
AcDbEntity
  8
0
 62
     0
100
AcDbLine
 10
22.80435401804445
 20
9.131457412873231
 30
0.0
 11
25.29789694462095
 21
11.62500033944974
 31
0.0
  0
LINE
  5
38DD
330
37B6
100
AcDbEntity
  8
0
 62
     0
100
AcDbLine
 10
17.74053569057599
 20
4.067639085404778
 30
0.0
 11
18.80453569057598
 21
5.131639085404771
 31
0.0
  0
LINE
  5
38DE
330
37B6
100
AcDbEntity
  8
0
 62
     0
100
AcDbLine
 10
20.34610582087756
 20
7.122222021759767
 30
0.0
 11
21.7461058208776
 21
8.522222021759803
 31
0.0
  0
LINE
  5
38DF
330
37B6
100
AcDbEntity
  8
0
 62
     0
100
AcDbLine
 10
22.79610582087761
 20
9.572222021759783
 30
0.0
 11
24.84888413856748
 21
11.62500033944968
 31
0.0
  0
LINE
  5
38E0
330
37B6
100
AcDbEntity
  8
0
 62
     0
100
AcDbLine
 10
17.63277261712318
 20
4.40888881800538
 30
0.0
 11
18.69677261712323
 21
5.4728888180054
 31
0.0
  0
LINE
  5
38E1
330
37B6
100
AcDbEntity
  8
0
 62
     0
100
AcDbLine
 10
20.34610582087759
 20
7.571234827813269
 30
0.0
 11
21.7461058208776
 21
8.971234827813248
 31
0.0
  0
LINE
  5
38E2
330
37B6
100
AcDbEntity
  8
0
 62
     0
100
AcDbLine
 10
22.79610582087757
 20
10.02123482781325
 30
0.0
 11
24.39987133251404
 21
11.62500033944968
 31
0.0
  0
LINE
  5
38E3
330
37B6
100
AcDbEntity
  8
0
 62
     0
100
AcDbLine
 10
17.5250095436703
 20
4.750138550605981
 30
0.0
 11
18.58900954367038
 21
5.814138550606031
 31
0.0
  0
LINE
  5
38E4
330
37B6
100
AcDbEntity
  8
0
 62
     0
100
AcDbLine
 10
20.34610582087759
 20
8.020247633866715
 30
0.0
 11
21.74610582087757
 21
9.420247633866722
 31
0.0
  0
LINE
  5
38E5
330
37B6
100
AcDbEntity
  8
0
 62
     0
100
AcDbLine
 10
17.41724647021749
 20
5.091388283206639
 30
0.0
 11
18.48124647021754
 21
6.155388283206661
 31
0.0
  0
LINE
  5
38E6
330
37B6
100
AcDbEntity
  8
0
 62
     0
100
AcDbLine
 10
22.82276415593821
 20
10.49690596892736
 30
0.0
 11
23.92420019139987
 21
11.59834200438902
 31
0.0
  0
LINE
  5
38E7
330
37B6
100
AcDbEntity
  8
0
 62
     0
100
AcDbLine
 10
15.90085852646055
 20
3.575000339449672
 30
0.0
 11
16.32110582087759
 21
3.995247633866738
 31
0.0
  0
LINE
  5
38E8
330
37B6
100
AcDbEntity
  8
0
 62
     0
100
AcDbLine
 10
17.30948339676469
 20
5.432638015807242
 30
0.0
 11
18.37348339676466
 21
6.496638015807235
 31
0.0
  0
LINE
  5
38E9
330
37B6
100
AcDbEntity
  8
0
 62
     0
100
AcDbLine
 10
20.34610582087759
 20
8.469260439920162
 30
0.0
 11
21.7461058208776
 21
9.86926043992014
 31
0.0
  0
LINE
  5
38EA
330
37B6
100
AcDbEntity
  8
0
 62
     0
100
AcDbLine
 10
15.4518457204071
 20
3.575000339449672
 30
0.0
 11
16.32110582087761
 21
4.444260439920184
 31
0.0
  0
LINE
  5
38EB
330
37B6
100
AcDbEntity
  8
0
 62
     0
100
AcDbLine
 10
17.20172032331186
 20
5.773887748407871
 30
0.0
 11
18.26572032331188
 21
6.837887748407922
 31
0.0
  0
LINE
  5
38EC
330
37B6
100
AcDbEntity
  8
0
 62
     0
100
AcDbLine
 10
20.34610582087759
 20
8.918273245973637
 30
0.0
 11
21.74610582087757
 21
10.31827324597361
 31
0.0
  0
LINE
  5
38ED
330
37B6
100
AcDbEntity
  8
0
 62
     0
100
AcDbLine
 10
15.04340778817925
 20
3.615575213275291
 30
0.0
 11
16.32110582087761
 21
4.893273245973631
 31
0.0
  0
LINE
  5
38EE
330
37B6
100
AcDbEntity
  8
0
 62
     0
100
AcDbLine
 10
17.09395724985895
 20
6.115137481008473
 30
0.0
 11
18.15795724985903
 21
7.179137481008551
 31
0.0
  0
LINE
  5
38EF
330
37B6
100
AcDbEntity
  8
0
 62
     0
100
AcDbLine
 10
20.34610582087759
 20
9.367286052027083
 30
0.0
 11
21.74610582087757
 21
10.76728605202708
 31
0.0
  0
LINE
  5
38F0
330
37B6
100
AcDbEntity
  8
0
 62
     0
100
AcDbLine
 10
14.92110582087755
 20
3.942286052027071
 30
0.0
 11
16.32110582087759
 21
5.342286052027105
 31
0.0
  0
LINE
  5
38F1
330
37B6
100
AcDbEntity
  8
0
 62
     0
100
AcDbLine
 10
16.9861941764062
 20
6.456387213609103
 30
0.0
 11
18.05019417640622
 21
7.520387213609152
 31
0.0
  0
LINE
  5
38F2
330
37B6
100
AcDbEntity
  8
0
 62
     0
100
AcDbLine
 10
20.34610582087759
 20
9.816298858080527
 30
0.0
 11
21.74610582087757
 21
11.2162988580805
 31
0.0
  0
LINE
  5
38F3
330
37B6
100
AcDbEntity
  8
0
 62
     0
100
AcDbLine
 10
14.92110582087758
 20
4.391298858080516
 30
0.0
 11
16.32110582087761
 21
5.791298858080523
 31
0.0
  0
LINE
  5
38F4
330
37B6
100
AcDbEntity
  8
0
 62
     0
100
AcDbLine
 10
16.86879478292033
 20
6.788000626176739
 30
0.0
 11
18.18394181688577
 21
8.103147660142182
 31
0.0
  0
LINE
  5
38F5
330
37B6
100
AcDbEntity
  8
0
 62
     0
100
AcDbLine
 10
20.34610582087759
 20
10.26531166413397
 30
0.0
 11
21.6479681096284
 21
11.56717395288478
 31
0.0
  0
LINE
  5
38F6
330
37B6
100
AcDbEntity
  8
0
 62
     0
100
AcDbLine
 10
14.92110582087758
 20
4.840311664133962
 30
0.0
 11
16.32110582087759
 21
6.240311664133996
 31
0.0
  0
LINE
  5
38F7
330
37B6
100
AcDbEntity
  8
0
 62
     0
100
AcDbLine
 10
16.52520209798663
 20
6.893420747296516
 30
0.0
 11
18.39117849660274
 21
8.759397145912629
 31
0.0
  0
LINE
  5
38F8
330
37B6
100
AcDbEntity
  8
0
 62
     0
100
AcDbLine
 10
14.92110582087755
 20
5.289324470187438
 30
0.0
 11
16.32768541303076
 21
6.695904062340615
 31
0.0
  0
LINE
  5
38F9
330
37B6
100
AcDbEntity
  8
0
 62
     0
100
AcDbLine
 10
20.34610582087756
 20
10.71432447018745
 30
0.0
 11
21.2567816901398
 21
11.62500033944968
 31
0.0
  0
LINE
  5
38FA
330
37B6
100
AcDbEntity
  8
0
 62
     0
100
AcDbLine
 10
13.20678169013979
 20
3.575000339449643
 30
0.0
 11
13.69610582087761
 21
4.0643244701875
 31
0.0
  0
LINE
  5
38FB
330
37B6
100
AcDbEntity
  8
0
 62
     0
100
AcDbLine
 10
14.92110582087755
 20
5.738337276240883
 30
0.0
 11
18.59841517631972
 21
9.415646631683046
 31
0.0
  0
LINE
  5
38FC
330
37B6
100
AcDbEntity
  8
0
 62
     0
100
AcDbLine
 10
20.34610582087759
 20
11.16333727624095
 30
0.0
 11
20.80776888408633
 21
11.62500033944968
 31
0.0
  0
LINE
  5
38FD
330
37B6
100
AcDbEntity
  8
0
 62
     0
100
AcDbLine
 10
12.75776888408631
 20
3.575000339449672
 30
0.0
 11
13.69610582087761
 21
4.513337276240973
 31
0.0
  0
LINE
  5
38FE
330
37B6
100
AcDbEntity
  8
0
 62
     0
100
AcDbLine
 10
14.92110582087755
 20
6.187350082294329
 30
0.0
 11
18.80565185603674
 21
10.07189611745349
 31
0.0
  0
LINE
  5
38FF
330
37B6
100
AcDbEntity
  8
0
 62
     0
100
AcDbLine
 10
12.31459639020792
 20
3.580840651624696
 30
0.0
 11
13.62543867907453
 21
4.891682940491278
 31
0.0
  0
LINE
  5
3900
330
37B6
100
AcDbEntity
  8
0
 62
     0
100
AcDbLine
 10
14.92110582087755
 20
6.636362888347803
 30
0.0
 11
16.58474327197942
 21
8.300000339449667
 31
0.0
  0
LINE
  5
3901
330
37B6
100
AcDbEntity
  8
0
 62
     0
100
AcDbLine
 10
16.96673468959977
 20
8.681991757070022
 30
0.0
 11
19.01288853575374
 21
10.72814560322396
 31
0.0
  0
LINE
  5
3902
330
37B6
100
AcDbEntity
  8
0
 62
     0
100
AcDbLine
 10
11.93051613148443
 20
3.645773198954656
 30
0.0
 11
13.25974327197946
 21
4.975000339449677
 31
0.0
  0
LINE
  5
3903
330
37B6
100
AcDbEntity
  8
0
 62
     0
100
AcDbLine
 10
14.92110582087758
 20
7.085375694401307
 30
0.0
 11
16.33010110623175
 21
8.494370979755442
 31
0.0
  0
LINE
  5
3904
330
37B6
100
AcDbEntity
  8
0
 62
     0
100
AcDbLine
 10
17.17397136931674
 20
9.338241242840439
 30
0.0
 11
19.20042426165443
 21
11.36469413517815
 31
0.0
  0
LINE
  5
3905
330
37B6
100
AcDbEntity
  8
0
 62
     0
100
AcDbLine
 10
11.59994900307123
 20
3.764218876594951
 30
0.0
 11
12.81073046592598
 21
4.975000339449707
 31
0.0
  0
LINE
  5
3906
330
37B6
100
AcDbEntity
  8
0
 62
     0
100
AcDbLine
 10
14.92110582087761
 20
7.534388500454723
 30
0.0
 11
16.32110582087761
 21
8.934388500454758
 31
0.0
  0
LINE
  5
3907
330
37B6
100
AcDbEntity
  8
0
 62
     0
100
AcDbLine
 10
17.38120804903371
 20
9.994490728610855
 30
0.0
 11
19.00341832536983
 21
11.61670100494697
 31
0.0
  0
LINE
  5
3908
330
37B6
100
AcDbEntity
  8
0
 62
     0
100
AcDbLine
 10
11.31114736098908
 20
3.924430040566193
 30
0.0
 11
12.36917829023551
 21
4.982460969812648
 31
0.0
  0
LINE
  5
3909
330
37B6
100
AcDbEntity
  8
0
 62
     0
100
AcDbLine
 10
14.92110582087758
 20
7.983401306508199
 30
0.0
 11
16.32110582087761
 21
9.383401306508233
 31
0.0
  0
LINE
  5
390A
330
37B6
100
AcDbEntity
  8
0
 62
     0
100
AcDbLine
 10
17.58844472875071
 20
10.65074021438132
 30
0.0
 11
18.56270485381907
 21
11.62500033944968
 31
0.0
  0
LINE
  5
390B
330
37B6
100
AcDbEntity
  8
0
 62
     0
100
AcDbLine
 10
11.05866987779805
 20
4.120965363428638
 30
0.0
 11
12.05202021972636
 21
5.114315705356943
 31
0.0
  0
LINE
  5
390C
330
37B6
100
AcDbEntity
  8
0
 62
     0
100
AcDbLine
 10
14.92110582087758
 20
8.432414112561643
 30
0.0
 11
16.32110582087761
 21
9.83241411256168
 31
0.0
  0
LINE
  5
390D
330
37B6
100
AcDbEntity
  8
0
 62
     0
100
AcDbLine
 10
13.25192288676584
 20
6.763231178449927
 30
0.0
 11
13.83287498187738
 21
7.344183273561469
 31
0.0
  0
LINE
  5
390E
330
37B6
100
AcDbEntity
  8
0
 62
     0
100
AcDbLine
 10
17.79568140846768
 20
11.30698970015177
 30
0.0
 11
18.11369204776562
 21
11.62500033944971
 31
0.0
  0
LINE
  5
390F
330
37B6
100
AcDbEntity
  8
0
 62
     0
100
AcDbLine
 10
10.84045134113313
 20
4.35175963281722
 30
0.0
 11
11.84689474409026
 21
5.358203035774351
 31
0.0
  0
LINE
  5
3910
330
37B6
100
AcDbEntity
  8
0
 62
     0
100
AcDbLine
 10
12.78943646595092
 20
6.74975756368849
 30
0.0
 11
13.84634859663882
 21
7.806669694376353
 31
0.0
  0
LINE
  5
3911
330
37B6
100
AcDbEntity
  8
0
 62
     0
100
AcDbLine
 10
14.92110582087755
 20
8.881426918615119
 30
0.0
 11
16.32110582087759
 21
10.28142691861515
 31
0.0
  0
LINE
  5
3912
330
37B6
100
AcDbEntity
  8
0
 62
     0
100
AcDbLine
 10
10.65694172866165
 20
4.617262826399183
 30
0.0
 11
11.7711058208776
 21
5.731426918615169
 31
0.0
  0
LINE
  5
3913
330
37B6
100
AcDbEntity
  8
0
 62
     0
100
AcDbLine
 10
12.48236318124082
 20
6.891697085031778
 30
0.0
 11
13.7044090752955
 21
8.113742979086481
 31
0.0
  0
LINE
  5
3914
330
37B6
100
AcDbEntity
  8
0
 62
     0
100
AcDbLine
 10
14.92110582087758
 20
9.330439724668565
 30
0.0
 11
16.32110582087761
 21
10.73043972466857
 31
0.0
  0
LINE
  5
3915
330
37B6
100
AcDbEntity
  8
0
 62
     0
100
AcDbLine
 10
10.51128297369928
 20
4.920616877490259
 30
0.0
 11
11.7711058208776
 21
6.180439724668587
 31
0.0
  0
LINE
  5
3916
330
37B6
100
AcDbEntity
  8
0
 62
     0
100
AcDbLine
 10
12.26338321774596
 20
7.121729927590422
 30
0.0
 11
13.47437623273688
 21
8.332722942581312
 31
0.0
  0
LINE
  5
3917
330
37B6
100
AcDbEntity
  8
0
 62
     0
100
AcDbLine
 10
14.92110582087758
 20
9.779452530722011
 30
0.0
 11
16.32110582087759
 21
11.17945253072204
 31
0.0
  0
LINE
  5
3918
330
37B6
100
AcDbEntity
  8
0
 62
     0
100
AcDbLine
 10
10.41071429161195
 20
5.269061001456407
 30
0.0
 11
11.7711058208776
 21
6.629452530722062
 31
0.0
  0
LINE
  5
3919
330
37B6
100
AcDbEntity
  8
0
 62
     0
100
AcDbLine
 10
12.13535785154178
 20
7.442717367439684
 30
0.0
 11
13.15338879288759
 21
8.460748308785525
 31
0.0
  0
LINE
  5
391A
330
37B6
100
AcDbEntity
  8
0
 62
     0
100
AcDbLine
 10
10.37110582087751
 20
5.678465336775444
 30
0.0
 11
11.7711058208776
 21
7.078465336775507
 31
0.0
  0
LINE
  5
391B
330
37B6
100
AcDbEntity
  8
0
 62
     0
100
AcDbLine
 10
14.92110582087755
 20
10.22846533677548
 30
0.0
 11
16.24248076670005
 21
11.54984028259798
 31
0.0
  0
LINE
  5
391C
330
37B6
100
AcDbEntity
  8
0
 62
     0
100
AcDbLine
 10
8.328107441939776
 20
3.635466957837707
 30
0.0
 11
9.260639202489642
 21
4.56799871838757
 31
0.0
  0
LINE
  5
391D
330
37B6
100
AcDbEntity
  8
0
 62
     0
100
AcDbLine
 10
12.19456439328217
 20
7.950936715233523
 30
0.0
 11
12.64516944509378
 21
8.401541767045131
 31
0.0
  0
LINE
  5
391E
330
37B6
100
AcDbEntity
  8
0
 62
     0
100
AcDbLine
 10
10.37110582087754
 20
6.12747814282889
 30
0.0
 11
11.7711058208776
 21
7.527478142828954
 31
0.0
  0
LINE
  5
391F
330
37B6
100
AcDbEntity
  8
0
 62
     0
100
AcDbLine
 10
14.92110582087758
 20
10.6774781428289
 30
0.0
 11
15.86862801749836
 21
11.62500033944971
 31
0.0
  0
LINE
  5
3920
330
37B6
100
AcDbEntity
  8
0
 62
     0
100
AcDbLine
 10
7.818628017498297
 20
3.575000339449643
 30
0.0
 11
9.321105820877619
 21
5.077478142828964
 31
0.0
  0
LINE
  5
3921
330
37B6
100
AcDbEntity
  8
0
 62
     0
100
AcDbLine
 10
10.37110582087754
 20
6.576490948882337
 30
0.0
 11
11.7711058208776
 21
7.976490948882426
 31
0.0
  0
LINE
  5
3922
330
37B6
100
AcDbEntity
  8
0
 62
     0
100
AcDbLine
 10
14.92110582087755
 20
11.12649094888237
 30
0.0
 11
15.41961521144486
 21
11.62500033944968
 31
0.0
  0
LINE
  5
3923
330
37B6
100
AcDbEntity
  8
0
 62
     0
100
AcDbLine
 10
7.369615211444852
 20
3.575000339449643
 30
0.0
 11
9.321105820877619
 21
5.52649094888244
 31
0.0
  0
LINE
  5
3924
330
37B6
100
AcDbEntity
  8
0
 62
     0
100
AcDbLine
 10
10.37110582087751
 20
7.025503754935813
 30
0.0
 11
11.77110582087758
 21
8.425503754935872
 31
0.0
  0
LINE
  5
3925
330
37B6
100
AcDbEntity
  8
0
 62
     0
100
AcDbLine
 10
6.920602405391378
 20
3.575000339449672
 30
0.0
 11
9.319136144597024
 21
5.973534078655317
 31
0.0
  0
LINE
  5
3926
330
37B6
100
AcDbEntity
  8
0
 62
     0
100
AcDbLine
 10
10.37110582087757
 20
7.474516560989313
 30
0.0
 11
11.7711058208776
 21
8.87451656098935
 31
0.0
  0
LINE
  5
3927
330
37B6
100
AcDbEntity
  8
0
 62
     0
100
AcDbLine
 10
13.12158959933796
 20
10.2250003394497
 30
0.0
 11
13.69610582087764
 21
10.79951656098936
 31
0.0
  0
LINE
  5
3928
330
37B6
100
AcDbEntity
  8
0
 62
     0
100
AcDbLine
 10
6.471589599337931
 20
3.575000339449672
 30
0.0
 11
9.264305226436363
 21
6.367715966548103
 31
0.0
  0
LINE
  5
3929
330
37B6
100
AcDbEntity
  8
0
 62
     0
100
AcDbLine
 10
10.37110582087757
 20
7.92352936704276
 30
0.0
 11
11.7711058208776
 21
9.323529367042764
 31
0.0
  0
LINE
  5
392A
330
37B6
100
AcDbEntity
  8
0
 62
     0
100
AcDbLine
 10
7.921105820877585
 20
5.473529367042771
 30
0.0
 11
9.153135854414301
 21
6.705559400579486
 31
0.0
  0
LINE
  5
392B
330
37B6
100
AcDbEntity
  8
0
 62
     0
100
AcDbLine
 10
12.67257679328452
 20
10.22500033944967
 30
0.0
 11
13.69610582087761
 21
11.2485293670428
 31
0.0
  0
LINE
  5
392C
330
37B6
100
AcDbEntity
  8
0
 62
     0
100
AcDbLine
 10
6.051439730914437
 20
3.603863277079625
 30
0.0
 11
7.42257679328452
 21
4.975000339449677
 31
0.0
  0
LINE
  5
392D
330
37B6
100
AcDbEntity
  8
0
 62
     0
100
AcDbLine
 10
10.37110582087754
 20
8.372542173096206
 30
0.0
 11
11.85401317376744
 21
9.855449525986101
 31
0.0
  0
LINE
  5
392E
330
37B6
100
AcDbEntity
  8
0
 62
     0
100
AcDbLine
 10
7.920026275072983
 20
5.921462627291617
 30
0.0
 11
8.998920087078289
 21
7.000356439296949
 31
0.0
  0
LINE
  5
392F
330
37B6
100
AcDbEntity
  8
0
 62
     0
100
AcDbLine
 10
12.14065663434121
 20
10.14209298655987
 30
0.0
 11
13.57937211341772
 21
11.58080846563635
 31
0.0
  0
LINE
  5
3930
330
37B6
100
AcDbEntity
  8
0
 62
     0
100
AcDbLine
 10
5.908605820877567
 20
3.910042173096228
 30
0.0
 11
6.973563987231044
 21
4.975000339449707
 31
0.0
  0
LINE
  5
3931
330
37B6
100
AcDbEntity
  8
0
 62
     0
100
AcDbLine
 10
7.810224765322629
 20
6.260673923594764
 30
0.0
 11
8.807799104658839
 21
7.258248262930976
 31
0.0
  0
LINE
  5
3932
330
37B6
100
AcDbEntity
  8
0
 62
     0
100
AcDbLine
 10
10.37110582087754
 20
8.821554979149681
 30
0.0
 11
13.17455118117757
 21
11.62500033944971
 31
0.0
  0
LINE
  5
3933
330
37B6
100
AcDbEntity
  8
0
 62
     0
100
AcDbLine
 10
5.908605820877567
 20
4.359054979149703
 30
0.0
 11
6.524551181177542
 21
4.975000339449677
 31
0.0
  0
LINE
  5
3934
330
37B6
100
AcDbEntity
  8
0
 62
     0
100
AcDbLine
 10
7.597097351170218
 20
6.496559315495772
 30
0.0
 11
8.587046844831462
 21
7.486508809157014
 31
0.0
  0
LINE
  5
3935
330
37B6
100
AcDbEntity
  8
0
 62
     0
100
AcDbLine
 10
10.37110582087757
 20
9.270567785203098
 30
0.0
 11
12.72553837512413
 21
11.62500033944968
 31
0.0
  0
LINE
  5
3936
330
37B6
100
AcDbEntity
  8
0
 62
     0
100
AcDbLine
 10
5.943081781887484
 20
4.842543746213038
 30
0.0
 11
6.041062414114293
 21
4.940524378439846
 31
0.0
  0
LINE
  5
3937
330
37B6
100
AcDbEntity
  8
0
 62
     0
100
AcDbLine
 10
10.38109337795586
 20
9.729568148334863
 30
0.0
 11
12.26653801199236
 21
11.61501278237139
 31
0.0
  0
LINE
  5
3938
330
37B6
100
AcDbEntity
  8
0
 62
     0
100
AcDbLine
 10
7.372590948143539
 20
6.721065718522567
 30
0.0
 11
8.362540441804725
 21
7.711015212183752
 31
0.0
  0
LINE
  5
3939
330
37B6
100
AcDbEntity
  8
0
 62
     0
100
AcDbLine
 10
10.53082509408875
 20
10.32831267052125
 30
0.0
 11
11.667793489806
 21
11.4652810662385
 31
0.0
  0
LINE
  5
393A
330
37B6
100
AcDbEntity
  8
0
 62
     0
100
AcDbLine
 10
7.148084545116802
 20
6.945572121549303
 30
0.0
 11
8.138034038777986
 21
7.93552161521049
 31
0.0
  0
LINE
  5
393B
330
37B6
100
AcDbEntity
  8
0
 62
     0
100
AcDbLine
 10
6.923578142090092
 20
7.170078524576013
 30
0.0
 11
7.913527635751278
 21
8.160028018237197
 31
0.0
  0
LINE
  5
393C
330
37B6
100
AcDbEntity
  8
0
 62
     0
100
AcDbLine
 10
6.699071739063356
 20
7.39458492760275
 30
0.0
 11
7.689021232724542
 21
8.384534421263936
 31
0.0
  0
LINE
  5
393D
330
37B6
100
AcDbEntity
  8
0
 62
     0
100
AcDbLine
 10
6.474565336036563
 20
7.619091330629429
 30
0.0
 11
7.464514829697803
 21
8.609040824290673
 31
0.0
  0
LINE
  5
393E
330
37B6
100
AcDbEntity
  8
0
 62
     0
100
AcDbLine
 10
8.631461538803362
 20
10.2250003394497
 30
0.0
 11
9.058605820877541
 21
10.65214462152388
 31
0.0
  0
LINE
  5
393F
330
37B6
100
AcDbEntity
  8
0
 62
     0
100
AcDbLine
 10
6.250100590023946
 20
7.84363939067029
 30
0.0
 11
7.240133411740174
 21
8.833672212386517
 31
0.0
  0
LINE
  5
3940
330
37B6
100
AcDbEntity
  8
0
 62
     0
100
AcDbLine
 10
8.18244873274989
 20
10.22500033944965
 30
0.0
 11
9.058605820877602
 21
11.10115742757736
 31
0.0
  0
LINE
  5
3941
330
37B6
100
AcDbEntity
  8
0
 62
     0
100
AcDbLine
 10
6.044366627748161
 20
8.086918234447892
 30
0.0
 11
7.075184971096205
 21
9.117736577795966
 31
0.0
  0
LINE
  5
3942
330
37B6
100
AcDbEntity
  8
0
 62
     0
100
AcDbLine
 10
7.733435926696472
 20
10.22500033944967
 30
0.0
 11
9.01532637099703
 21
11.50689078375026
 31
0.0
  0
LINE
  5
3943
330
37B6
100
AcDbEntity
  8
0
 62
     0
100
AcDbLine
 10
5.874136324616928
 20
8.365700737370133
 30
0.0
 11
7.046105820877585
 21
9.537670233630819
 31
0.0
  0
LINE
  5
3944
330
37B6
100
AcDbEntity
  8
0
 62
     0
100
AcDbLine
 10
7.283189796057911
 20
10.22376701486459
 30
0.0
 11
8.684423120643003
 21
11.62500033944968
 31
0.0
  0
LINE
  5
3945
330
37B6
100
AcDbEntity
  8
0
 62
     0
100
AcDbLine
 10
5.743789676750878
 20
8.684366895557557
 30
0.0
 11
7.047339145462673
 21
9.987916364269381
 31
0.0
  0
LINE
  5
3946
330
37B6
100
AcDbEntity
  8
0
 62
     0
100
AcDbLine
 10
5.662883695626844
 20
9.052473720486972
 30
0.0
 11
8.235410314589557
 21
11.62500033944968
 31
0.0
  0
LINE
  5
3947
330
37B6
100
AcDbEntity
  8
0
 62
     0
100
AcDbLine
 10
5.646105820877607
 20
9.484708651791178
 30
0.0
 11
7.786397508536082
 21
11.62500033944968
 31
0.0
  0
LINE
  5
3948
330
37B6
100
AcDbEntity
  8
0
 62
     0
100
AcDbLine
 10
5.646105820877579
 20
9.933721457844654
 30
0.0
 11
7.337384702482637
 21
11.62500033944968
 31
0.0
  0
LINE
  5
3949
330
37B6
100
AcDbEntity
  8
0
 62
     0
100
AcDbLine
 10
5.656201826096746
 20
10.39283026911727
 30
0.0
 11
6.878275891210051
 21
11.61490433423057
 31
0.0
  0
ENDBLK
  5
394B
330
37B6
100
AcDbEntity
  8
0
100
AcDbBlockEnd
  0
BLOCK
  5
953A
330
951F
100
AcDbEntity
  8
0
100
AcDbBlockBegin
  2
C30
 70
     0
 10
0.0
 20
0.0
 30
0.0
  3
C30
  1

  0
LINE
  5
9520
330
951F
100
AcDbEntity
  8
0_1
  6
Continuous
 62
     7
370
    40
100
AcDbLine
 10
-5204.099364036641
 20
-925.6025152178045
 30
0.0
 11
-5204.994243428942
 21
-927.9339839221044
 31
0.0
  0
LINE
  5
9521
330
951F
100
AcDbEntity
  8
0_1
  6
Continuous
 62
     7
370
    40
100
AcDbLine
 10
-5240.982440580942
 20
-875.9422445108045
 30
0.0
 11
-5239.698621287342
 21
-875.3884665356043
 31
0.0
  0
LINE
  5
9522
330
951F
100
AcDbEntity
  8
0_1
  6
Continuous
 62
     7
370
    40
100
AcDbLine
 10
-5239.698621287342
 20
-875.3884665356043
 30
0.0
 11
-5237.636398834442
 21
-874.8244591394044
 31
0.0
  0
LINE
  5
9523
330
951F
100
AcDbEntity
  8
0_1
  6
Continuous
 62
     7
370
    40
100
AcDbLine
 10
-5237.636398834442
 20
-874.8244591394044
 30
0.0
 11
-5235.449492548942
 21
-874.5951473990045
 31
0.0
  0
LINE
  5
9524
330
951F
100
AcDbEntity
  8
0_1
  6
Continuous
 62
     7
370
    40
100
AcDbLine
 10
-5235.449492548942
 20
-874.5951473990045
 30
0.0
 11
-5233.161795830742
 21
-874.7030366971044
 31
0.0
  0
LINE
  5
9525
330
951F
100
AcDbEntity
  8
0_1
  6
Continuous
 62
     7
370
    40
100
AcDbLine
 10
-5233.161795830742
 20
-874.7030366971044
 30
0.0
 11
-5230.798303281742
 21
-875.1469482716045
 31
0.0
  0
LINE
  5
9526
330
951F
100
AcDbEntity
  8
0_1
  6
Continuous
 62
     7
370
    40
100
AcDbLine
 10
-5230.798303281742
 20
-875.1469482716045
 30
0.0
 11
-5228.384837623742
 21
-875.9220320944045
 31
0.0
  0
LINE
  5
9527
330
951F
100
AcDbEntity
  8
0_1
  6
Continuous
 62
     7
370
    40
100
AcDbLine
 10
-5228.384837623742
 20
-875.9220320944045
 30
0.0
 11
-5225.947767567642
 21
-877.0198198615045
 31
0.0
  0
LINE
  5
9528
330
951F
100
AcDbEntity
  8
0_1
  6
Continuous
 62
     7
370
    40
100
AcDbLine
 10
-5225.947767567642
 20
-877.0198198615045
 30
0.0
 11
-5223.513719718241
 21
-878.4283175143045
 31
0.0
  0
LINE
  5
9529
330
951F
100
AcDbEntity
  8
0_1
  6
Continuous
 62
     7
370
    40
100
AcDbLine
 10
-5223.513719718241
 20
-878.4283175143045
 30
0.0
 11
-5221.109287660542
 21
-880.1321362829044
 31
0.0
  0
LINE
  5
952A
330
951F
100
AcDbEntity
  8
0_1
  6
Continuous
 62
     7
370
    40
100
AcDbLine
 10
-5221.109287660542
 20
-880.1321362829044
 30
0.0
 11
-5218.760741407642
 21
-882.1126608187045
 31
0.0
  0
LINE
  5
952B
330
951F
100
AcDbEntity
  8
0_1
  6
Continuous
 62
     7
370
    40
100
AcDbLine
 10
-5218.760741407642
 20
-882.1126608187045
 30
0.0
 11
-5216.493740382942
 21
-884.3482525791044
 31
0.0
  0
LINE
  5
952C
330
951F
100
AcDbEntity
  8
0_1
  6
Continuous
 62
     7
370
    40
100
AcDbLine
 10
-5216.493740382942
 20
-884.3482525791044
 30
0.0
 11
-5214.333053074241
 21
-886.8144862433045
 31
0.0
  0
LINE
  5
952D
330
951F
100
AcDbEntity
  8
0_1
  6
Continuous
 62
     7
370
    40
100
AcDbLine
 10
-5214.333053074241
 20
-886.8144862433045
 30
0.0
 11
-5212.302286421842
 21
-889.4844165750045
 31
0.0
  0
LINE
  5
952E
330
951F
100
AcDbEntity
  8
0_1
  6
Continuous
 62
     7
370
    40
100
AcDbLine
 10
-5212.302286421842
 20
-889.4844165750045
 30
0.0
 11
-5210.423627896442
 21
-892.3288728166046
 31
0.0
  0
LINE
  5
952F
330
951F
100
AcDbEntity
  8
0_1
  6
Continuous
 62
     7
370
    40
100
AcDbLine
 10
-5210.423627896442
 20
-892.3288728166046
 30
0.0
 11
-5208.717603086841
 21
-895.3167773995046
 31
0.0
  0
LINE
  5
9530
330
951F
100
AcDbEntity
  8
0_1
  6
Continuous
 62
     7
370
    40
100
AcDbLine
 10
-5208.717603086841
 20
-895.3167773995046
 30
0.0
 11
-5207.202851444342
 21
-898.4154854869045
 31
0.0
  0
LINE
  5
9531
330
951F
100
AcDbEntity
  8
0_1
  6
Continuous
 62
     7
370
    40
100
AcDbLine
 10
-5207.202851444342
 20
-898.4154854869045
 30
0.0
 11
-5205.895922633941
 21
-901.5911416404046
 31
0.0
  0
LINE
  5
9532
330
951F
100
AcDbEntity
  8
0_1
  6
Continuous
 62
     7
370
    40
100
AcDbLine
 10
-5205.895922633941
 20
-901.5911416404046
 30
0.0
 11
-5204.811095718642
 21
-904.8090497128045
 31
0.0
  0
LINE
  5
9533
330
951F
100
AcDbEntity
  8
0_1
  6
Continuous
 62
     7
370
    40
100
AcDbLine
 10
-5204.811095718642
 20
-904.8090497128045
 30
0.0
 11
-5203.960223151042
 21
-908.0340519271045
 31
0.0
  0
LINE
  5
9534
330
951F
100
AcDbEntity
  8
0_1
  6
Continuous
 62
     7
370
    40
100
AcDbLine
 10
-5203.960223151042
 20
-908.0340519271045
 30
0.0
 11
-5203.352601277542
 21
-911.2309129976043
 31
0.0
  0
LINE
  5
9535
330
951F
100
AcDbEntity
  8
0_1
  6
Continuous
 62
     7
370
    40
100
AcDbLine
 10
-5203.352601277542
 20
-911.2309129976043
 30
0.0
 11
-5202.994868769741
 21
-914.3647050996046
 31
0.0
  0
LINE
  5
9536
330
951F
100
AcDbEntity
  8
0_1
  6
Continuous
 62
     7
370
    40
100
AcDbLine
 10
-5202.994868769741
 20
-914.3647050996046
 30
0.0
 11
-5202.890934092042
 21
-917.4011894785046
 31
0.0
  0
LINE
  5
9537
330
951F
100
AcDbEntity
  8
0_1
  6
Continuous
 62
     7
370
    40
100
AcDbLine
 10
-5202.890934092042
 20
-917.4011894785046
 30
0.0
 11
-5203.041932799841
 21
-920.3071905310045
 31
0.0
  0
LINE
  5
9538
330
951F
100
AcDbEntity
  8
0_1
  6
Continuous
 62
     7
370
    40
100
AcDbLine
 10
-5203.041932799841
 20
-920.3071905310045
 30
0.0
 11
-5203.446215132041
 21
-923.0509582708045
 31
0.0
  0
LINE
  5
9539
330
951F
100
AcDbEntity
  8
0_1
  6
Continuous
 62
     7
370
    40
100
AcDbLine
 10
-5203.446215132041
 20
-923.0509582708045
 30
0.0
 11
-5204.099364036641
 21
-925.6025152178045
 31
0.0
  0
ENDBLK
  5
953B
330
951F
100
AcDbEntity
  8
0
100
AcDbBlockEnd
  0
BLOCK
  5
9545
330
953C
100
AcDbEntity
  8
0
100
AcDbBlockBegin
  2
C31
 70
     0
 10
0.0
 20
0.0
 30
0.0
  3
C31
  1

  0
LINE
  5
953D
330
953C
100
AcDbEntity
  8
0_1
  6
Continuous
 62
     7
370
    40
100
AcDbLine
 10
-5211.408162466842
 20
-938.0818480731043
 30
0.0
 11
-5211.090004996042
 21
-939.3619103761045
 31
0.0
  0
LINE
  5
953E
330
953C
100
AcDbEntity
  8
0_1
  6
Continuous
 62
     7
370
    40
100
AcDbLine
 10
-5211.090004996042
 20
-939.3619103761045
 30
0.0
 11
-5211.032283890241
 21
-940.5754408552043
 31
0.0
  0
LINE
  5
953F
330
953C
100
AcDbEntity
  8
0_1
  6
Continuous
 62
     7
370
    40
100
AcDbLine
 10
-5211.032283890241
 20
-940.5754408552043
 30
0.0
 11
-5211.239334935842
 21
-941.6312837897045
 31
0.0
  0
LINE
  5
9540
330
953C
100
AcDbEntity
  8
0_1
  6
Continuous
 62
     7
370
    40
100
AcDbLine
 10
-5211.239334935842
 20
-941.6312837897045
 30
0.0
 11
-5211.695605258341
 21
-942.4501283380044
 31
0.0
  0
LINE
  5
9541
330
953C
100
AcDbEntity
  8
0_1
  6
Continuous
 62
     7
370
    40
100
AcDbLine
 10
-5211.695605258341
 20
-942.4501283380044
 30
0.0
 11
-5212.366821594141
 21
-942.9704660616044
 31
0.0
  0
LINE
  5
9542
330
953C
100
AcDbEntity
  8
0_1
  6
Continuous
 62
     7
370
    40
100
AcDbLine
 10
-5212.366821594141
 20
-942.9704660616044
 30
0.0
 11
-5213.202564765442
 21
-943.1532112010044
 31
0.0
  0
LINE
  5
9543
330
953C
100
AcDbEntity
  8
0_1
  6
Continuous
 62
     7
370
    40
100
AcDbLine
 10
-5213.202564765442
 20
-943.1532112010044
 30
0.0
 11
-5214.140056974442
 21
-942.9846366477043
 31
0.0
  0
LINE
  5
9544
330
953C
100
AcDbEntity
  8
0_1
  6
Continuous
 62
     7
370
    40
100
AcDbLine
 10
-5214.140056974442
 20
-942.9846366477043
 30
0.0
 11
-5214.281559062141
 21
-942.9309465272046
 31
0.0
  0
ENDBLK
  5
9546
330
953C
100
AcDbEntity
  8
0
100
AcDbBlockEnd
  0
BLOCK
  5
9558
330
9547
100
AcDbEntity
  8
0
100
AcDbBlockBegin
  2
C32
 70
     0
 10
0.0
 20
0.0
 30
0.0
  3
C32
  1

  0
LINE
  5
9548
330
9547
100
AcDbEntity
  8
0_1
  6
Continuous
 62
     7
370
    40
100
AcDbLine
 10
-5219.153315173142
 20
-942.8527489197044
 30
0.0
 11
-5219.802750493341
 21
-942.3698178390043
 31
0.0
  0
LINE
  5
9549
330
9547
100
AcDbEntity
  8
0_1
  6
Continuous
 62
     7
370
    40
100
AcDbLine
 10
-5219.802750493341
 20
-942.3698178390043
 30
0.0
 11
-5220.353315173142
 21
-941.6439817963045
 31
0.0
  0
LINE
  5
954A
330
9547
100
AcDbEntity
  8
0_1
  6
Continuous
 62
     7
370
    40
100
AcDbLine
 10
-5220.353315173142
 20
-941.6439817963045
 30
0.0
 11
-5220.72119073104
 21
-940.7857427494045
 31
0.0
  0
LINE
  5
954B
330
9547
100
AcDbEntity
  8
0_1
  6
Continuous
 62
     7
370
    40
100
AcDbLine
 10
-5220.72119073104
 20
-940.7857427494045
 30
0.0
 11
-5220.850371448041
 21
-939.9257598132045
 31
0.0
  0
LINE
  5
954C
330
9547
100
AcDbEntity
  8
0_1
  6
Continuous
 62
     7
370
    40
100
AcDbLine
 10
-5220.850371448041
 20
-939.9257598132045
 30
0.0
 11
-5220.72119073104
 21
-939.1949575940044
 31
0.0
  0
LINE
  5
954D
330
9547
100
AcDbEntity
  8
0_1
  6
Continuous
 62
     7
370
    40
100
AcDbLine
 10
-5220.72119073104
 20
-939.1949575940044
 30
0.0
 11
-5220.353315173142
 21
-938.7045941049045
 31
0.0
  0
LINE
  5
954E
330
9547
100
AcDbEntity
  8
0_1
  6
Continuous
 62
     7
370
    40
100
AcDbLine
 10
-5220.353315173142
 20
-938.7045941049045
 30
0.0
 11
-5219.802750493341
 21
-938.5293227421044
 31
0.0
  0
LINE
  5
954F
330
9547
100
AcDbEntity
  8
0_1
  6
Continuous
 62
     7
370
    40
100
AcDbLine
 10
-5219.802750493341
 20
-938.5293227421044
 30
0.0
 11
-5219.153315173142
 21
-938.6958269815044
 31
0.0
  0
LINE
  5
9550
330
9547
100
AcDbEntity
  8
0_1
  6
Continuous
 62
     7
370
    40
100
AcDbLine
 10
-5219.153315173142
 20
-938.6958269815044
 30
0.0
 11
-5218.503879853042
 21
-939.1787580622045
 31
0.0
  0
LINE
  5
9551
330
9547
100
AcDbEntity
  8
0_1
  6
Continuous
 62
     7
370
    40
100
AcDbLine
 10
-5218.503879853042
 20
-939.1787580622045
 30
0.0
 11
-5217.953315173141
 21
-939.9045941049045
 31
0.0
  0
LINE
  5
9552
330
9547
100
AcDbEntity
  8
0_1
  6
Continuous
 62
     7
370
    40
100
AcDbLine
 10
-5217.953315173141
 20
-939.9045941049045
 30
0.0
 11
-5217.585439615342
 21
-940.7628331518045
 31
0.0
  0
LINE
  5
9553
330
9547
100
AcDbEntity
  8
0_1
  6
Continuous
 62
     7
370
    40
100
AcDbLine
 10
-5217.585439615342
 20
-940.7628331518045
 30
0.0
 11
-5217.456258898342
 21
-941.6228160880045
 31
0.0
  0
LINE
  5
9554
330
9547
100
AcDbEntity
  8
0_1
  6
Continuous
 62
     7
370
    40
100
AcDbLine
 10
-5217.456258898342
 20
-941.6228160880045
 30
0.0
 11
-5217.585439615342
 21
-942.3536183072044
 31
0.0
  0
LINE
  5
9555
330
9547
100
AcDbEntity
  8
0_1
  6
Continuous
 62
     7
370
    40
100
AcDbLine
 10
-5217.585439615342
 20
-942.3536183072044
 30
0.0
 11
-5217.953315173141
 21
-942.8439817963045
 31
0.0
  0
LINE
  5
9556
330
9547
100
AcDbEntity
  8
0_1
  6
Continuous
 62
     7
370
    40
100
AcDbLine
 10
-5217.953315173141
 20
-942.8439817963045
 30
0.0
 11
-5218.503879853042
 21
-943.0192531592043
 31
0.0
  0
LINE
  5
9557
330
9547
100
AcDbEntity
  8
0_1
  6
Continuous
 62
     7
370
    40
100
AcDbLine
 10
-5218.503879853042
 20
-943.0192531592043
 30
0.0
 11
-5219.153315173142
 21
-942.8527489197044
 31
0.0
  0
ENDBLK
  5
9559
330
9547
100
AcDbEntity
  8
0
100
AcDbBlockEnd
  0
BLOCK
  5
956D
330
955A
100
AcDbEntity
  8
0
100
AcDbBlockBegin
  2
C33
 70
     0
 10
0.0
 20
0.0
 30
0.0
  3
C33
  1

  0
LINE
  5
955B
330
955A
100
AcDbEntity
  8
0_1
  6
Continuous
 62
     7
370
    40
100
AcDbLine
 10
-5221.653291198041
 20
-936.4624671231043
 30
0.0
 11
-5220.909739521442
 21
-936.1381374270044
 31
0.0
  0
LINE
  5
955C
330
955A
100
AcDbEntity
  8
0_1
  6
Continuous
 62
     7
370
    40
100
AcDbLine
 10
-5220.909739521442
 20
-936.1381374270044
 30
0.0
 11
-5220.043107766041
 21
-936.1386823959046
 31
0.0
  0
LINE
  5
955D
330
955A
100
AcDbEntity
  8
0_1
  6
Continuous
 62
     7
370
    40
100
AcDbLine
 10
-5220.043107766041
 20
-936.1386823959046
 30
0.0
 11
-5219.114124482342
 21
-936.4640638414044
 31
0.0
  0
LINE
  5
955E
330
955A
100
AcDbEntity
  8
0_1
  6
Continuous
 62
     7
370
    40
100
AcDbLine
 10
-5219.114124482342
 20
-936.4640638414044
 30
0.0
 11
-5218.187887456042
 21
-937.0914809103044
 31
0.0
  0
LINE
  5
955F
330
955A
100
AcDbEntity
  8
0_1
  6
Continuous
 62
     7
370
    40
100
AcDbLine
 10
-5218.187887456042
 20
-937.0914809103044
 30
0.0
 11
-5217.329302030841
 21
-937.9769678363045
 31
0.0
  0
LINE
  5
9560
330
955A
100
AcDbEntity
  8
0_1
  6
Continuous
 62
     7
370
    40
100
AcDbLine
 10
-5217.329302030841
 20
-937.9769678363045
 30
0.0
 11
-5216.598532916941
 21
-939.0584748074044
 31
0.0
  0
LINE
  5
9561
330
955A
100
AcDbEntity
  8
0_1
  6
Continuous
 62
     7
370
    40
100
AcDbLine
 10
-5216.598532916941
 20
-939.0584748074044
 30
0.0
 11
-5216.046788195242
 21
-940.2602160584045
 31
0.0
  0
LINE
  5
9562
330
955A
100
AcDbEntity
  8
0_1
  6
Continuous
 62
     7
370
    40
100
AcDbLine
 10
-5216.046788195242
 20
-940.2602160584045
 30
0.0
 11
-5215.712730950642
 21
-941.4979805001046
 31
0.0
  0
LINE
  5
9563
330
955A
100
AcDbEntity
  8
0_1
  6
Continuous
 62
     7
370
    40
100
AcDbLine
 10
-5215.712730950642
 20
-941.4979805001046
 30
0.0
 11
-5215.619769986441
 21
-942.6850327456044
 31
0.0
  0
LINE
  5
9564
330
955A
100
AcDbEntity
  8
0_1
  6
Continuous
 62
     7
370
    40
100
AcDbLine
 10
-5215.619769986441
 20
-942.6850327456044
 30
0.0
 11
-5215.774419470342
 21
-943.7381910263043
 31
0.0
  0
LINE
  5
9565
330
955A
100
AcDbEntity
  8
0_1
  6
Continuous
 62
     7
370
    40
100
AcDbLine
 10
-5215.774419470342
 20
-943.7381910263043
 30
0.0
 11
-5216.165842459141
 21
-944.5836560896044
 31
0.0
  0
LINE
  5
9566
330
955A
100
AcDbEntity
  8
0_1
  6
Continuous
 62
     7
370
    40
100
AcDbLine
 10
-5216.165842459141
 20
-944.5836560896044
 30
0.0
 11
-5216.766610289642
 21
-945.1621826246045
 31
0.0
  0
LINE
  5
9567
330
955A
100
AcDbEntity
  8
0_1
  6
Continuous
 62
     7
370
    40
100
AcDbLine
 10
-5216.766610289642
 20
-945.1621826246045
 30
0.0
 11
-5217.534624620341
 21
-945.4332308315043
 31
0.0
  0
LINE
  5
9568
330
955A
100
AcDbEntity
  8
0_1
  6
Continuous
 62
     7
370
    40
100
AcDbLine
 10
-5217.534624620341
 20
-945.4332308315043
 30
0.0
 11
-5218.416067440441
 21
-945.3778072166045
 31
0.0
  0
LINE
  5
9569
330
955A
100
AcDbEntity
  8
0_1
  6
Continuous
 62
     7
370
    40
100
AcDbLine
 10
-5218.416067440441
 20
-945.3778072166045
 30
0.0
 11
-5219.349172325741
 21
-944.9997955470045
 31
0.0
  0
LINE
  5
956A
330
955A
100
AcDbEntity
  8
0_1
  6
Continuous
 62
     7
370
    40
100
AcDbLine
 10
-5219.349172325741
 20
-944.9997955470045
 30
0.0
 11
-5220.268552672342
 21
-944.3256846981045
 31
0.0
  0
LINE
  5
956B
330
955A
100
AcDbEntity
  8
0_1
  6
Continuous
 62
     7
370
    40
100
AcDbLine
 10
-5220.268552672342
 20
-944.3256846981045
 30
0.0
 11
-5221.109783613141
 21
-943.4027124669045
 31
0.0
  0
LINE
  5
956C
330
955A
100
AcDbEntity
  8
0_1
  6
Continuous
 62
     7
370
    40
100
AcDbLine
 10
-5221.109783613141
 20
-943.4027124669045
 30
0.0
 11
-5221.813916540042
 21
-942.2955554191045
 31
0.0
  0
ENDBLK
  5
956E
330
955A
100
AcDbEntity
  8
0
100
AcDbBlockEnd
  0
BLOCK
  5
9572
330
956F
100
AcDbEntity
  8
0
100
AcDbBlockBegin
  2
C34
 70
     0
 10
0.0
 20
0.0
 30
0.0
  3
C34
  1

  0
LINE
  5
9570
330
956F
100
AcDbEntity
  8
0_1
  6
Continuous
 62
     7
370
    40
100
AcDbLine
 10
-5244.020541194442
 20
-918.3781246931046
 30
0.0
 11
-5244.010224808041
 21
-918.3799587498043
 31
0.0
  0
LINE
  5
9571
330
956F
100
AcDbEntity
  8
0_1
  6
Continuous
 62
     7
370
    40
100
AcDbLine
 10
-5244.010224808041
 20
-918.3799587498043
 30
0.0
 11
-5243.788822295842
 21
-918.4039867832044
 31
0.0
  0
ENDBLK
  5
9573
330
956F
100
AcDbEntity
  8
0
100
AcDbBlockEnd
  0
BLOCK
  5
957A
330
9574
100
AcDbEntity
  8
0
100
AcDbBlockBegin
  2
C35
 70
     0
 10
0.0
 20
0.0
 30
0.0
  3
C35
  1

  0
LINE
  5
9575
330
9574
100
AcDbEntity
  8
0_1
  6
Continuous
 62
     7
370
    40
100
AcDbLine
 10
-5207.872628560842
 20
-936.3140811202043
 30
0.0
 11
-5207.554471090041
 21
-937.5941434231046
 31
0.0
  0
LINE
  5
9576
330
9574
100
AcDbEntity
  8
0_1
  6
Continuous
 62
     7
370
    40
100
AcDbLine
 10
-5207.554471090041
 20
-937.5941434231046
 30
0.0
 11
-5207.496749984241
 21
-938.8076739022045
 31
0.0
  0
LINE
  5
9577
330
9574
100
AcDbEntity
  8
0_1
  6
Continuous
 62
     7
370
    40
100
AcDbLine
 10
-5207.496749984241
 20
-938.8076739022045
 30
0.0
 11
-5207.703801029941
 21
-939.8635168367045
 31
0.0
  0
LINE
  5
9578
330
9574
100
AcDbEntity
  8
0_1
  6
Continuous
 62
     7
370
    40
100
AcDbLine
 10
-5207.703801029941
 20
-939.8635168367045
 30
0.0
 11
-5208.160071352441
 21
-940.6823613851043
 31
0.0
  0
LINE
  5
9579
330
9574
100
AcDbEntity
  8
0_1
  6
Continuous
 62
     7
370
    40
100
AcDbLine
 10
-5208.160071352441
 20
-940.6823613851043
 30
0.0
 11
-5208.785508995442
 21
-941.1805803469045
 31
0.0
  0
ENDBLK
  5
957B
330
9574
100
AcDbEntity
  8
0
100
AcDbBlockEnd
  0
BLOCK
  5
9585
330
957C
100
AcDbEntity
  8
0
100
AcDbBlockBegin
  2
C36
 70
     0
 10
0.0
 20
0.0
 30
0.0
  3
C36
  1

  0
LINE
  5
957D
330
957C
100
AcDbEntity
  8
0_1
  6
Continuous
 62
     7
370
    40
100
AcDbLine
 10
-5232.454559412741
 20
-943.4201887328043
 30
0.0
 11
-5232.776744466342
 21
-943.4052634359044
 31
0.0
  0
LINE
  5
957E
330
957C
100
AcDbEntity
  8
0_1
  6
Continuous
 62
     7
370
    40
100
AcDbLine
 10
-5232.776744466342
 20
-943.4052634359044
 30
0.0
 11
-5233.075437981142
 21
-943.4638660678043
 31
0.0
  0
LINE
  5
957F
330
957C
100
AcDbEntity
  8
0_1
  6
Continuous
 62
     7
370
    40
100
AcDbLine
 10
-5233.075437981142
 20
-943.4638660678043
 30
0.0
 11
-5233.342804760241
 21
-943.5944593899044
 31
0.0
  0
LINE
  5
9580
330
957C
100
AcDbEntity
  8
0_1
  6
Continuous
 62
     7
370
    40
100
AcDbLine
 10
-5233.342804760241
 20
-943.5944593899044
 30
0.0
 11
-5233.571831355742
 21
-943.7936177358045
 31
0.0
  0
LINE
  5
9581
330
957C
100
AcDbEntity
  8
0_1
  6
Continuous
 62
     7
370
    40
100
AcDbLine
 10
-5233.571831355742
 20
-943.7936177358045
 30
0.0
 11
-5233.756510042741
 21
-944.0561168711045
 31
0.0
  0
LINE
  5
9582
330
957C
100
AcDbEntity
  8
0_1
  6
Continuous
 62
     7
370
    40
100
AcDbLine
 10
-5233.756510042741
 20
-944.0561168711045
 30
0.0
 11
-5233.891996410942
 21
-944.3750710341046
 31
0.0
  0
LINE
  5
9583
330
957C
100
AcDbEntity
  8
0_1
  6
Continuous
 62
     7
370
    40
100
AcDbLine
 10
-5233.891996410942
 20
-944.3750710341046
 30
0.0
 11
-5233.974736441641
 21
-944.7421135591044
 31
0.0
  0
LINE
  5
9584
330
957C
100
AcDbEntity
  8
0_1
  6
Continuous
 62
     7
370
    40
100
AcDbLine
 10
-5233.974736441641
 20
-944.7421135591044
 30
0.0
 11
-5234.002559734741
 21
-945.1476163481045
 31
0.0
  0
ENDBLK
  5
9586
330
957C
100
AcDbEntity
  8
0
100
AcDbBlockEnd
  0
BLOCK
  5
958A
330
9587
100
AcDbEntity
  8
0
100
AcDbBlockBegin
  2
C37
 70
     0
 10
0.0
 20
0.0
 30
0.0
  3
C37
  1

  0
LINE
  5
9588
330
9587
100
AcDbEntity
  8
0_1
  6
Continuous
 62
     7
370
    40
100
AcDbLine
 10
-5218.013954016542
 20
-941.9807752572046
 30
0.0
 11
-5217.613052876341
 21
-942.2029253862044
 31
0.0
  0
LINE
  5
9589
330
9587
100
AcDbEntity
  8
0_1
  6
Continuous
 62
     7
370
    40
100
AcDbLine
 10
-5217.613052876341
 20
-942.2029253862044
 30
0.0
 11
-5217.541406387841
 21
-942.2303385683045
 31
0.0
  0
ENDBLK
  5
958B
330
9587
100
AcDbEntity
  8
0
100
AcDbBlockEnd
  0
BLOCK
  5
9595
330
958C
100
AcDbEntity
  8
0
100
AcDbBlockBegin
  2
C38
 70
     0
 10
0.0
 20
0.0
 30
0.0
  3
C38
  1

  0
LINE
  5
958D
330
958C
100
AcDbEntity
  8
0_1
  6
Continuous
 62
     7
370
    40
100
AcDbLine
 10
-5221.653295344942
 20
-936.4623834229044
 30
0.0
 11
-5221.000892803841
 21
-936.1586355563044
 31
0.0
  0
LINE
  5
958E
330
958C
100
AcDbEntity
  8
0_1
  6
Continuous
 62
     7
370
    40
100
AcDbLine
 10
-5221.000892803841
 20
-936.1586355563044
 30
0.0
 11
-5220.246477365741
 21
-936.1097381841045
 31
0.0
  0
LINE
  5
958F
330
958C
100
AcDbEntity
  8
0_1
  6
Continuous
 62
     7
370
    40
100
AcDbLine
 10
-5220.246477365741
 20
-936.1097381841045
 30
0.0
 11
-5219.431703629141
 21
-936.3183911456046
 31
0.0
  0
LINE
  5
9590
330
958C
100
AcDbEntity
  8
0_1
  6
Continuous
 62
     7
370
    40
100
AcDbLine
 10
-5219.431703629141
 20
-936.3183911456046
 30
0.0
 11
-5218.601558839841
 21
-936.7730737918044
 31
0.0
  0
LINE
  5
9591
330
958C
100
AcDbEntity
  8
0_1
  6
Continuous
 62
     7
370
    40
100
AcDbLine
 10
-5218.601558839841
 20
-936.7730737918044
 30
0.0
 11
-5217.801878947541
 21
-937.4486810917046
 31
0.0
  0
LINE
  5
9592
330
958C
100
AcDbEntity
  8
0_1
  6
Continuous
 62
     7
370
    40
100
AcDbLine
 10
-5217.801878947541
 20
-937.4486810917046
 30
0.0
 11
-5217.076817800442
 21
-938.3079097911044
 31
0.0
  0
LINE
  5
9593
330
958C
100
AcDbEntity
  8
0_1
  6
Continuous
 62
     7
370
    40
100
AcDbLine
 10
-5217.076817800442
 20
-938.3079097911044
 30
0.0
 11
-5216.466409217442
 21
-939.3033180897045
 31
0.0
  0
LINE
  5
9594
330
958C
100
AcDbEntity
  8
0_1
  6
Continuous
 62
     7
370
    40
100
AcDbLine
 10
-5216.466409217442
 20
-939.3033180897045
 30
0.0
 11
-5216.004356544541
 21
-940.3799451120045
 31
0.0
  0
ENDBLK
  5
9596
330
958C
100
AcDbEntity
  8
0
100
AcDbBlockEnd
  0
BLOCK
  5
959E
330
9597
100
AcDbEntity
  8
0
100
AcDbBlockBegin
  2
C39
 70
     0
 10
0.0
 20
0.0
 30
0.0
  3
C39
  1

  0
LINE
  5
9598
330
9597
100
AcDbEntity
  8
0_1
  6
Continuous
 62
     7
370
    40
100
AcDbLine
 10
-5203.276474153342
 20
-934.0160039164045
 30
0.0
 11
-5202.984808889342
 21
-935.1340194694044
 31
0.0
  0
LINE
  5
9599
330
9597
100
AcDbEntity
  8
0_1
  6
Continuous
 62
     7
370
    40
100
AcDbLine
 10
-5202.984808889342
 20
-935.1340194694044
 30
0.0
 11
-5202.891847925041
 21
-936.3210717149044
 31
0.0
  0
LINE
  5
959A
330
9597
100
AcDbEntity
  8
0_1
  6
Continuous
 62
     7
370
    40
100
AcDbLine
 10
-5202.891847925041
 20
-936.3210717149044
 30
0.0
 11
-5203.046497408942
 21
-937.3742299956044
 31
0.0
  0
LINE
  5
959B
330
9597
100
AcDbEntity
  8
0_1
  6
Continuous
 62
     7
370
    40
100
AcDbLine
 10
-5203.046497408942
 20
-937.3742299956044
 30
0.0
 11
-5203.437920397842
 21
-938.2196950589044
 31
0.0
  0
LINE
  5
959C
330
9597
100
AcDbEntity
  8
0_1
  6
Continuous
 62
     7
370
    40
100
AcDbLine
 10
-5203.437920397842
 20
-938.2196950589044
 30
0.0
 11
-5204.038688228342
 21
-938.7982215939045
 31
0.0
  0
LINE
  5
959D
330
9597
100
AcDbEntity
  8
0_1
  6
Continuous
 62
     7
370
    40
100
AcDbLine
 10
-5204.038688228342
 20
-938.7982215939045
 30
0.0
 11
-5204.189346578342
 21
-938.8824199869045
 31
0.0
  0
ENDBLK
  5
959F
330
9597
100
AcDbEntity
  8
0
100
AcDbBlockEnd
  0
BLOCK
  5
95A5
330
95A0
100
AcDbEntity
  8
0
100
AcDbBlockBegin
  2
C40
 70
     0
 10
0.0
 20
0.0
 30
0.0
  3
C40
  1

  0
LINE
  5
95A1
330
95A0
100
AcDbEntity
  8
0_1
  6
Continuous
 62
     7
370
    40
100
AcDbLine
 10
-5228.281884867241
 20
-933.5755686649044
 30
0.0
 11
-5228.244587832842
 21
-933.5644156506045
 31
0.0
  0
LINE
  5
95A2
330
95A0
100
AcDbEntity
  8
0_1
  6
Continuous
 62
     7
370
    40
100
AcDbLine
 10
-5228.244587832842
 20
-933.5644156506045
 30
0.0
 11
-5228.122260028541
 21
-933.4140380162045
 31
0.0
  0
LINE
  5
95A3
330
95A0
100
AcDbEntity
  8
0_1
  6
Continuous
 62
     7
370
    40
100
AcDbLine
 10
-5228.122260028541
 20
-933.4140380162045
 30
0.0
 11
-5228.062471233841
 21
-933.1779620671044
 31
0.0
  0
LINE
  5
95A4
330
95A0
100
AcDbEntity
  8
0_1
  6
Continuous
 62
     7
370
    40
100
AcDbLine
 10
-5228.062471233841
 20
-933.1779620671044
 30
0.0
 11
-5228.057033077142
 21
-933.0480500297046
 31
0.0
  0
ENDBLK
  5
95A6
330
95A0
100
AcDbEntity
  8
0
100
AcDbBlockEnd
  0
BLOCK
  5
95AA
330
95A7
100
AcDbEntity
  8
0
100
AcDbBlockBegin
  2
C41
 70
     0
 10
0.0
 20
0.0
 30
0.0
  3
C41
  1

  0
LINE
  5
95A8
330
95A7
100
AcDbEntity
  8
0_1
  6
Continuous
 62
     7
370
    40
100
AcDbLine
 10
-5229.471099661242
 20
-932.3410090055043
 30
0.0
 11
-5229.429559006441
 21
-932.6400231322043
 31
0.0
  0
LINE
  5
95A9
330
95A7
100
AcDbEntity
  8
0_1
  6
Continuous
 62
     7
370
    40
100
AcDbLine
 10
-5229.429559006441
 20
-932.6400231322043
 30
0.0
 11
-5229.393196511342
 21
-932.7261890995044
 31
0.0
  0
ENDBLK
  5
95AB
330
95A7
100
AcDbEntity
  8
0
100
AcDbBlockEnd
  0
BLOCK
  5
95B4
330
95AC
100
AcDbEntity
  8
0
100
AcDbBlockBegin
  2
C42
 70
     0
 10
0.0
 20
0.0
 30
0.0
  3
C42
  1

  0
LINE
  5
95AD
330
95AC
100
AcDbEntity
  8
0_1
  6
Continuous
 62
     7
370
    40
100
AcDbLine
 10
-5242.387842451941
 20
-917.7034968612044
 30
0.0
 11
-5242.066210394042
 21
-917.5942065234044
 31
0.0
  0
LINE
  5
95AE
330
95AC
100
AcDbEntity
  8
0_1
  6
Continuous
 62
     7
370
    40
100
AcDbLine
 10
-5242.066210394042
 20
-917.5942065234044
 30
0.0
 11
-5241.643634681441
 21
-917.5755171595046
 31
0.0
  0
LINE
  5
95AF
330
95AC
100
AcDbEntity
  8
0_1
  6
Continuous
 62
     7
370
    40
100
AcDbLine
 10
-5241.643634681441
 20
-917.5755171595046
 30
0.0
 11
-5241.192328505042
 21
-917.6777645185044
 31
0.0
  0
LINE
  5
95B0
330
95AC
100
AcDbEntity
  8
0_1
  6
Continuous
 62
     7
370
    40
100
AcDbLine
 10
-5241.192328505042
 20
-917.6777645185044
 30
0.0
 11
-5240.730014645841
 21
-917.8969333496043
 31
0.0
  0
LINE
  5
95B1
330
95AC
100
AcDbEntity
  8
0_1
  6
Continuous
 62
     7
370
    40
100
AcDbLine
 10
-5240.730014645841
 20
-917.8969333496043
 30
0.0
 11
-5240.274848155841
 21
-918.2244168990045
 31
0.0
  0
LINE
  5
95B2
330
95AC
100
AcDbEntity
  8
0_1
  6
Continuous
 62
     7
370
    40
100
AcDbLine
 10
-5240.274848155841
 20
-918.2244168990045
 30
0.0
 11
-5239.844703410342
 21
-918.6473548968043
 31
0.0
  0
LINE
  5
95B3
330
95AC
100
AcDbEntity
  8
0_1
  6
Continuous
 62
     7
370
    40
100
AcDbLine
 10
-5239.844703410342
 20
-918.6473548968043
 30
0.0
 11
-5239.456472181341
 21
-919.1491385800045
 31
0.0
  0
ENDBLK
  5
95B5
330
95AC
100
AcDbEntity
  8
0
100
AcDbBlockEnd
  0
BLOCK
  5
95BD
330
95B6
100
AcDbEntity
  8
0
100
AcDbBlockBegin
  2
C43
 70
     0
 10
0.0
 20
0.0
 30
0.0
  3
C43
  1

  0
LINE
  5
95B7
330
95B6
100
AcDbEntity
  8
0_1
  6
Continuous
 62
     7
370
    40
100
AcDbLine
 10
-5228.558147854941
 20
-936.0863165077045
 30
0.0
 11
-5228.407468749741
 21
-935.9778149879044
 31
0.0
  0
LINE
  5
95B8
330
95B6
100
AcDbEntity
  8
0_1
  6
Continuous
 62
     7
370
    40
100
AcDbLine
 10
-5228.407468749741
 20
-935.9778149879044
 30
0.0
 11
-5227.822655537041
 21
-935.3629716870043
 31
0.0
  0
LINE
  5
95B9
330
95B6
100
AcDbEntity
  8
0_1
  6
Continuous
 62
     7
370
    40
100
AcDbLine
 10
-5227.822655537041
 20
-935.3629716870043
 30
0.0
 11
-5227.591294259241
 21
-934.6920380853045
 31
0.0
  0
LINE
  5
95BA
330
95B6
100
AcDbEntity
  8
0_1
  6
Continuous
 62
     7
370
    40
100
AcDbLine
 10
-5227.591294259241
 20
-934.6920380853045
 30
0.0
 11
-5227.730543924042
 21
-934.0147742587046
 31
0.0
  0
LINE
  5
95BB
330
95B6
100
AcDbEntity
  8
0_1
  6
Continuous
 62
     7
370
    40
100
AcDbLine
 10
-5227.730543924042
 20
-934.0147742587046
 30
0.0
 11
-5228.230077020942
 21
-933.3814097669046
 31
0.0
  0
LINE
  5
95BC
330
95B6
100
AcDbEntity
  8
0_1
  6
Continuous
 62
     7
370
    40
100
AcDbLine
 10
-5228.230077020942
 20
-933.3814097669046
 30
0.0
 11
-5229.052845465141
 21
-932.8389183569044
 31
0.0
  0
ENDBLK
  5
95BE
330
95B6
100
AcDbEntity
  8
0
100
AcDbBlockEnd
  0
BLOCK
  5
95C8
330
95BF
100
AcDbEntity
  8
0
100
AcDbBlockBegin
  2
C44
 70
     0
 10
0.0
 20
0.0
 30
0.0
  3
C44
  1

  0
LINE
  5
95C0
330
95BF
100
AcDbEntity
  8
0_1
  6
Continuous
 62
     7
370
    40
100
AcDbLine
 10
-5257.337081357242
 20
-924.2804810699045
 30
0.0
 11
-5258.142226637541
 21
-923.7911139678045
 31
0.0
  0
LINE
  5
95C1
330
95BF
100
AcDbEntity
  8
0_1
  6
Continuous
 62
     7
370
    40
100
AcDbLine
 10
-5258.142226637541
 20
-923.7911139678045
 30
0.0
 11
-5258.864633757742
 21
-922.9859356437044
 31
0.0
  0
LINE
  5
95C2
330
95BF
100
AcDbEntity
  8
0_1
  6
Continuous
 62
     7
370
    40
100
AcDbLine
 10
-5258.864633757742
 20
-922.9859356437044
 30
0.0
 11
-5259.402681271541
 21
-921.9782110194044
 31
0.0
  0
LINE
  5
95C3
330
95BF
100
AcDbEntity
  8
0_1
  6
Continuous
 62
     7
370
    40
100
AcDbLine
 10
-5259.402681271541
 20
-921.9782110194044
 30
0.0
 11
-5259.680681709742
 21
-920.9096973272044
 31
0.0
  0
LINE
  5
95C4
330
95BF
100
AcDbEntity
  8
0_1
  6
Continuous
 62
     7
370
    40
100
AcDbLine
 10
-5259.680681709742
 20
-920.9096973272044
 30
0.0
 11
-5259.659528582542
 21
-919.9307030343044
 31
0.0
  0
LINE
  5
95C5
330
95BF
100
AcDbEntity
  8
0_1
  6
Continuous
 62
     7
370
    40
100
AcDbLine
 10
-5259.659528582542
 20
-919.9307030343044
 30
0.0
 11
-5259.342197513142
 21
-919.1789438600045
 31
0.0
  0
LINE
  5
95C6
330
95BF
100
AcDbEntity
  8
0_1
  6
Continuous
 62
     7
370
    40
100
AcDbLine
 10
-5259.342197513142
 20
-919.1789438600045
 30
0.0
 11
-5258.773327655042
 21
-918.7601702219046
 31
0.0
  0
LINE
  5
95C7
330
95BF
100
AcDbEntity
  8
0_1
  6
Continuous
 62
     7
370
    40
100
AcDbLine
 10
-5258.773327655042
 20
-918.7601702219046
 30
0.0
 11
-5258.032942275141
 21
-918.7332912609043
 31
0.0
  0
ENDBLK
  5
95C9
330
95BF
100
AcDbEntity
  8
0
100
AcDbBlockEnd
  0
BLOCK
  5
95DA
330
95CA
100
AcDbEntity
  8
0
100
AcDbBlockBegin
  2
C45
 70
     0
 10
0.0
 20
0.0
 30
0.0
  3
C45
  1

  0
LINE
  5
95CB
330
95CA
100
AcDbEntity
  8
0_1
  6
Continuous
 62
     7
370
    40
100
AcDbLine
 10
-5229.052845465141
 20
-932.8389183569044
 30
0.0
 11
-5230.137828285142
 21
-932.4275341347044
 31
0.0
  0
LINE
  5
95CC
330
95CA
100
AcDbEntity
  8
0_1
  6
Continuous
 62
     7
370
    40
100
AcDbLine
 10
-5230.137828285142
 20
-932.4275341347044
 30
0.0
 11
-5231.404557268742
 21
-932.1777675863044
 31
0.0
  0
LINE
  5
95CD
330
95CA
100
AcDbEntity
  8
0_1
  6
Continuous
 62
     7
370
    40
100
AcDbLine
 10
-5231.404557268742
 20
-932.1777675863044
 30
0.0
 11
-5232.759084922041
 21
-932.1081427539043
 31
0.0
  0
LINE
  5
95CE
330
95CA
100
AcDbEntity
  8
0_1
  6
Continuous
 62
     7
370
    40
100
AcDbLine
 10
-5232.759084922041
 20
-932.1081427539043
 30
0.0
 11
-5234.100952125442
 21
-932.2238233928045
 31
0.0
  0
LINE
  5
95CF
330
95CA
100
AcDbEntity
  8
0_1
  6
Continuous
 62
     7
370
    40
100
AcDbLine
 10
-5234.100952125442
 20
-932.2238233928045
 30
0.0
 11
-5235.330638727341
 21
-932.5162299992044
 31
0.0
  0
LINE
  5
95D0
330
95CA
100
AcDbEntity
  8
0_1
  6
Continuous
 62
     7
370
    40
100
AcDbLine
 10
-5235.330638727341
 20
-932.5162299992044
 30
0.0
 11
-5236.356944497742
 21
-932.9636761128043
 31
0.0
  0
LINE
  5
95D1
330
95CA
100
AcDbEntity
  8
0_1
  6
Continuous
 62
     7
370
    40
100
AcDbLine
 10
-5236.356944497742
 20
-932.9636761128043
 30
0.0
 11
-5237.103753032641
 21
-933.5329767022045
 31
0.0
  0
LINE
  5
95D2
330
95CA
100
AcDbEntity
  8
0_1
  6
Continuous
 62
     7
370
    40
100
AcDbLine
 10
-5237.103753032641
 20
-933.5329767022045
 30
0.0
 11
-5237.515676959642
 21
-934.1819093473045
 31
0.0
  0
LINE
  5
95D3
330
95CA
100
AcDbEntity
  8
0_1
  6
Continuous
 62
     7
370
    40
100
AcDbLine
 10
-5237.515676959642
 20
-934.1819093473045
 30
0.0
 11
-5237.562165765342
 21
-934.8623456822043
 31
0.0
  0
LINE
  5
95D4
330
95CA
100
AcDbEntity
  8
0_1
  6
Continuous
 62
     7
370
    40
100
AcDbLine
 10
-5237.562165765342
 20
-934.8623456822043
 30
0.0
 11
-5237.239771587741
 21
-935.5238208569046
 31
0.0
  0
LINE
  5
95D5
330
95CA
100
AcDbEntity
  8
0_1
  6
Continuous
 62
     7
370
    40
100
AcDbLine
 10
-5237.239771587741
 20
-935.5238208569046
 30
0.0
 11
-5236.572404928142
 21
-936.1172762836044
 31
0.0
  0
LINE
  5
95D6
330
95CA
100
AcDbEntity
  8
0_1
  6
Continuous
 62
     7
370
    40
100
AcDbLine
 10
-5236.572404928142
 20
-936.1172762836044
 30
0.0
 11
-5235.609561318642
 21
-936.5986980884043
 31
0.0
  0
LINE
  5
95D7
330
95CA
100
AcDbEntity
  8
0_1
  6
Continuous
 62
     7
370
    40
100
AcDbLine
 10
-5235.609561318642
 20
-936.5986980884043
 30
0.0
 11
-5234.422650465141
 21
-936.9323814182045
 31
0.0
  0
LINE
  5
95D8
330
95CA
100
AcDbEntity
  8
0_1
  6
Continuous
 62
     7
370
    40
100
AcDbLine
 10
-5234.422650465141
 20
-936.9323814182045
 30
0.0
 11
-5233.099700115741
 21
-937.0935785070045
 31
0.0
  0
LINE
  5
95D9
330
95CA
100
AcDbEntity
  8
0_1
  6
Continuous
 62
     7
370
    40
100
AcDbLine
 10
-5233.099700115741
 20
-937.0935785070045
 30
0.0
 11
-5232.228413425741
 21
-937.1001981190044
 31
0.0
  0
ENDBLK
  5
95DB
330
95CA
100
AcDbEntity
  8
0
100
AcDbBlockEnd
  0
BLOCK
  5
95E7
330
95DC
100
AcDbEntity
  8
0
100
AcDbBlockBegin
  2
C46
 70
     0
 10
0.0
 20
0.0
 30
0.0
  3
C46
  1

  0
LINE
  5
95DD
330
95DC
100
AcDbEntity
  8
0_1
  6
Continuous
 62
     7
370
    40
100
AcDbLine
 10
-5237.119661269142
 20
-936.1652898094044
 30
0.0
 11
-5237.894315847142
 21
-935.2374800858045
 31
0.0
  0
LINE
  5
95DE
330
95DC
100
AcDbEntity
  8
0_1
  6
Continuous
 62
     7
370
    40
100
AcDbLine
 10
-5237.894315847142
 20
-935.2374800858045
 30
0.0
 11
-5238.075337592541
 21
-934.1824879622043
 31
0.0
  0
LINE
  5
95DF
330
95DC
100
AcDbEntity
  8
0_1
  6
Continuous
 62
     7
370
    40
100
AcDbLine
 10
-5238.075337592541
 20
-934.1824879622043
 30
0.0
 11
-5237.638180444242
 21
-933.1515079063045
 31
0.0
  0
LINE
  5
95E0
330
95DC
100
AcDbEntity
  8
0_1
  6
Continuous
 62
     7
370
    40
100
AcDbLine
 10
-5237.638180444242
 20
-933.1515079063045
 30
0.0
 11
-5236.628742537241
 21
-932.3156017894044
 31
0.0
  0
LINE
  5
95E1
330
95DC
100
AcDbEntity
  8
0_1
  6
Continuous
 62
     7
370
    40
100
AcDbLine
 10
-5236.628742537241
 20
-932.3156017894044
 30
0.0
 11
-5236.477448151241
 21
-932.2361904463045
 31
0.0
  0
LINE
  5
95E2
330
95DC
100
AcDbEntity
  8
0_1
  6
Continuous
 62
     7
370
    40
100
AcDbLine
 10
-5236.477448151241
 20
-932.2361904463045
 30
0.0
 11
-5234.987515514941
 21
-931.7538530049045
 31
0.0
  0
LINE
  5
95E3
330
95DC
100
AcDbEntity
  8
0_1
  6
Continuous
 62
     7
370
    40
100
AcDbLine
 10
-5234.987515514941
 20
-931.7538530049045
 30
0.0
 11
-5233.237768155841
 21
-931.6194094318044
 31
0.0
  0
LINE
  5
95E4
330
95DC
100
AcDbEntity
  8
0_1
  6
Continuous
 62
     7
370
    40
100
AcDbLine
 10
-5233.237768155841
 20
-931.6194094318044
 30
0.0
 11
-5231.399519997141
 21
-931.8096292943044
 31
0.0
  0
LINE
  5
95E5
330
95DC
100
AcDbEntity
  8
0_1
  6
Continuous
 62
     7
370
    40
100
AcDbLine
 10
-5231.399519997141
 20
-931.8096292943044
 30
0.0
 11
-5229.679902690142
 21
-932.2647036274045
 31
0.0
  0
LINE
  5
95E6
330
95DC
100
AcDbEntity
  8
0_1
  6
Continuous
 62
     7
370
    40
100
AcDbLine
 10
-5229.679902690142
 20
-932.2647036274045
 30
0.0
 11
-5229.471099661242
 21
-932.3410090055043
 31
0.0
  0
ENDBLK
  5
95E8
330
95DC
100
AcDbEntity
  8
0
100
AcDbBlockEnd
  0
BLOCK
  5
95F4
330
95E9
100
AcDbEntity
  8
0
100
AcDbBlockBegin
  2
C47
 70
     0
 10
0.0
 20
0.0
 30
0.0
  3
C47
  1

  0
LINE
  5
95EA
330
95E9
100
AcDbEntity
  8
0_1
  6
Continuous
 62
     7
370
    40
100
AcDbLine
 10
-5228.057033077142
 20
-933.0480500297046
 30
0.0
 11
-5227.282393263242
 21
-933.7894598959046
 31
0.0
  0
LINE
  5
95EB
330
95E9
100
AcDbEntity
  8
0_1
  6
Continuous
 62
     7
370
    40
100
AcDbLine
 10
-5227.282393263242
 20
-933.7894598959046
 30
0.0
 11
-5227.101387801242
 21
-934.5607898470044
 31
0.0
  0
LINE
  5
95EC
330
95E9
100
AcDbEntity
  8
0_1
  6
Continuous
 62
     7
370
    40
100
AcDbLine
 10
-5227.101387801242
 20
-934.5607898470044
 30
0.0
 11
-5227.538561162742
 21
-935.3308365481044
 31
0.0
  0
LINE
  5
95ED
330
95E9
100
AcDbEntity
  8
0_1
  6
Continuous
 62
     7
370
    40
100
AcDbLine
 10
-5227.538561162742
 20
-935.3308365481044
 30
0.0
 11
-5228.548012706941
 21
-936.0472990852043
 31
0.0
  0
LINE
  5
95EE
330
95E9
100
AcDbEntity
  8
0_1
  6
Continuous
 62
     7
370
    40
100
AcDbLine
 10
-5228.548012706941
 20
-936.0472990852043
 30
0.0
 11
-5228.699273558142
 21
-936.1252932600045
 31
0.0
  0
LINE
  5
95EF
330
95E9
100
AcDbEntity
  8
0_1
  6
Continuous
 62
     7
370
    40
100
AcDbLine
 10
-5228.699273558142
 20
-936.1252932600045
 30
0.0
 11
-5230.189206594042
 21
-936.7030148561044
 31
0.0
  0
LINE
  5
95F0
330
95E9
100
AcDbEntity
  8
0_1
  6
Continuous
 62
     7
370
    40
100
AcDbLine
 10
-5230.189206594042
 20
-936.7030148561044
 30
0.0
 11
-5231.938954627242
 21
-937.0809480709045
 31
0.0
  0
LINE
  5
95F1
330
95E9
100
AcDbEntity
  8
0_1
  6
Continuous
 62
     7
370
    40
100
AcDbLine
 10
-5231.938954627242
 20
-937.0809480709045
 30
0.0
 11
-5233.777203212842
 21
-937.1796149118043
 31
0.0
  0
LINE
  5
95F2
330
95E9
100
AcDbEntity
  8
0_1
  6
Continuous
 62
     7
370
    40
100
AcDbLine
 10
-5233.777203212842
 20
-937.1796149118043
 30
0.0
 11
-5235.496820298941
 21
-936.9327760531044
 31
0.0
  0
LINE
  5
95F3
330
95E9
100
AcDbEntity
  8
0_1
  6
Continuous
 62
     7
370
    40
100
AcDbLine
 10
-5235.496820298941
 20
-936.9327760531044
 30
0.0
 11
-5235.705582017541
 21
-936.8723244999044
 31
0.0
  0
ENDBLK
  5
95F5
330
95E9
100
AcDbEntity
  8
0
100
AcDbBlockEnd
  0
BLOCK
  5
95FF
330
95F6
100
AcDbEntity
  8
0
100
AcDbBlockBegin
  2
C48
 70
     0
 10
0.0
 20
0.0
 30
0.0
  3
C48
  1

  0
LINE
  5
95F7
330
95F6
100
AcDbEntity
  8
0_1
  6
Continuous
 62
     7
370
    40
100
AcDbLine
 10
-5229.440728889942
 20
-940.7658519290045
 30
0.0
 11
-5231.710247992041
 21
-940.7826499947045
 31
0.0
  0
LINE
  5
95F8
330
95F6
100
AcDbEntity
  8
0_1
  6
Continuous
 62
     7
370
    40
100
AcDbLine
 10
-5231.710247992041
 20
-940.7826499947045
 30
0.0
 11
-5234.070721413842
 21
-940.4357248786045
 31
0.0
  0
LINE
  5
95F9
330
95F6
100
AcDbEntity
  8
0_1
  6
Continuous
 62
     7
370
    40
100
AcDbLine
 10
-5234.070721413842
 20
-940.4357248786045
 30
0.0
 11
-5236.492503062141
 21
-939.7294337466044
 31
0.0
  0
LINE
  5
95FA
330
95F6
100
AcDbEntity
  8
0_1
  6
Continuous
 62
     7
370
    40
100
AcDbLine
 10
-5236.492503062141
 20
-939.7294337466044
 30
0.0
 11
-5238.945176849741
 21
-938.6726471807046
 31
0.0
  0
LINE
  5
95FB
330
95F6
100
AcDbEntity
  8
0_1
  6
Continuous
 62
     7
370
    40
100
AcDbLine
 10
-5238.945176849741
 20
-938.6726471807046
 30
0.0
 11
-5241.397938703741
 21
-937.2786377696044
 31
0.0
  0
LINE
  5
95FC
330
95F6
100
AcDbEntity
  8
0_1
  6
Continuous
 62
     7
370
    40
100
AcDbLine
 10
-5241.397938703741
 20
-937.2786377696044
 30
0.0
 11
-5243.819983444641
 21
-935.5649134137044
 31
0.0
  0
LINE
  5
95FD
330
95F6
100
AcDbEntity
  8
0_1
  6
Continuous
 62
     7
370
    40
100
AcDbLine
 10
-5243.819983444641
 20
-935.5649134137044
 30
0.0
 11
-5246.180891681341
 21
-933.5529974359046
 31
0.0
  0
LINE
  5
95FE
330
95F6
100
AcDbEntity
  8
0_1
  6
Continuous
 62
     7
370
    40
100
AcDbLine
 10
-5246.180891681341
 20
-933.5529974359046
 30
0.0
 11
-5248.451011859441
 21
-931.2681582628043
 31
0.0
  0
ENDBLK
  5
9600
330
95F6
100
AcDbEntity
  8
0
100
AcDbBlockEnd
  0
BLOCK
  5
961B
330
9601
100
AcDbEntity
  8
0
100
AcDbBlockBegin
  2
C49
 70
     0
 10
0.0
 20
0.0
 30
0.0
  3
C49
  1

  0
LINE
  5
9602
330
9601
100
AcDbEntity
  8
0_1
  6
Continuous
 62
     7
370
    40
100
AcDbLine
 10
-5218.035790040041
 20
-917.9504512175045
 30
0.0
 11
-5218.563561867441
 21
-914.8438527602044
 31
0.0
  0
LINE
  5
9603
330
9601
100
AcDbEntity
  8
0_1
  6
Continuous
 62
     7
370
    40
100
AcDbLine
 10
-5218.563561867441
 20
-914.8438527602044
 30
0.0
 11
-5219.348045126041
 21
-911.6992106723044
 31
0.0
  0
LINE
  5
9604
330
9601
100
AcDbEntity
  8
0_1
  6
Continuous
 62
     7
370
    40
100
AcDbLine
 10
-5219.348045126041
 20
-911.6992106723044
 30
0.0
 11
-5220.379362511441
 21
-908.5561186438045
 31
0.0
  0
LINE
  5
9605
330
9601
100
AcDbEntity
  8
0_1
  6
Continuous
 62
     7
370
    40
100
AcDbLine
 10
-5220.379362511441
 20
-908.5561186438045
 30
0.0
 11
-5221.644528870242
 21
-905.4541508476043
 31
0.0
  0
LINE
  5
9606
330
9601
100
AcDbEntity
  8
0_1
  6
Continuous
 62
     7
370
    40
100
AcDbLine
 10
-5221.644528870242
 20
-905.4541508476043
 30
0.0
 11
-5223.127614693342
 21
-902.4323636683044
 31
0.0
  0
LINE
  5
9607
330
9601
100
AcDbEntity
  8
0_1
  6
Continuous
 62
     7
370
    40
100
AcDbLine
 10
-5223.127614693342
 20
-902.4323636683044
 30
0.0
 11
-5224.809946682341
 21
-899.5288039489045
 31
0.0
  0
LINE
  5
9608
330
9601
100
AcDbEntity
  8
0_1
  6
Continuous
 62
     7
370
    40
100
AcDbLine
 10
-5224.809946682341
 20
-899.5288039489045
 30
0.0
 11
-5226.670342862242
 21
-896.7800299492045
 31
0.0
  0
LINE
  5
9609
330
9601
100
AcDbEntity
  8
0_1
  6
Continuous
 62
     7
370
    40
100
AcDbLine
 10
-5226.670342862242
 20
-896.7800299492045
 30
0.0
 11
-5228.685379279742
 21
-894.2206510467045
 31
0.0
  0
LINE
  5
960A
330
9601
100
AcDbEntity
  8
0_1
  6
Continuous
 62
     7
370
    40
100
AcDbLine
 10
-5228.685379279742
 20
-894.2206510467045
 30
0.0
 11
-5230.829684930942
 21
-891.8828919752044
 31
0.0
  0
LINE
  5
960B
330
9601
100
AcDbEntity
  8
0_1
  6
Continuous
 62
     7
370
    40
100
AcDbLine
 10
-5230.829684930942
 20
-891.8828919752044
 30
0.0
 11
-5233.076261203642
 21
-889.7961870881044
 31
0.0
  0
LINE
  5
960C
330
9601
100
AcDbEntity
  8
0_1
  6
Continuous
 62
     7
370
    40
100
AcDbLine
 10
-5233.076261203642
 20
-889.7961870881044
 30
0.0
 11
-5235.396821812141
 21
-887.9868097559045
 31
0.0
  0
LINE
  5
960D
330
9601
100
AcDbEntity
  8
0_1
  6
Continuous
 62
     7
370
    40
100
AcDbLine
 10
-5235.396821812141
 20
-887.9868097559045
 30
0.0
 11
-5237.762148946142
 21
-886.4775415614046
 31
0.0
  0
LINE
  5
960E
330
9601
100
AcDbEntity
  8
0_1
  6
Continuous
 62
     7
370
    40
100
AcDbLine
 10
-5237.762148946142
 20
-886.4775415614046
 30
0.0
 11
-5240.142461146742
 21
-885.2873854611045
 31
0.0
  0
LINE
  5
960F
330
9601
100
AcDbEntity
  8
0_1
  6
Continuous
 62
     7
370
    40
100
AcDbLine
 10
-5240.142461146742
 20
-885.2873854611045
 30
0.0
 11
-5242.507788280642
 21
-884.4313265216046
 31
0.0
  0
LINE
  5
9610
330
9601
100
AcDbEntity
  8
0_1
  6
Continuous
 62
     7
370
    40
100
AcDbLine
 10
-5242.507788280642
 20
-884.4313265216046
 30
0.0
 11
-5244.828348889241
 21
-883.9201432453045
 31
0.0
  0
LINE
  5
9611
330
9601
100
AcDbEntity
  8
0_1
  6
Continuous
 62
     7
370
    40
100
AcDbLine
 10
-5244.828348889241
 20
-883.9201432453045
 30
0.0
 11
-5247.074925161842
 21
-883.7602718597043
 31
0.0
  0
LINE
  5
9612
330
9601
100
AcDbEntity
  8
0_1
  6
Continuous
 62
     7
370
    40
100
AcDbLine
 10
-5247.074925161842
 20
-883.7602718597043
 30
0.0
 11
-5249.219230813042
 21
-883.9537252801045
 31
0.0
  0
LINE
  5
9613
330
9601
100
AcDbEntity
  8
0_1
  6
Continuous
 62
     7
370
    40
100
AcDbLine
 10
-5249.219230813042
 20
-883.9537252801045
 30
0.0
 11
-5251.234267230541
 21
-884.4980677651046
 31
0.0
  0
LINE
  5
9614
330
9601
100
AcDbEntity
  8
0_1
  6
Continuous
 62
     7
370
    40
100
AcDbLine
 10
-5251.234267230541
 20
-884.4980677651046
 30
0.0
 11
-5253.094663410441
 21
-885.3864455849045
 31
0.0
  0
LINE
  5
9615
330
9601
100
AcDbEntity
  8
0_1
  6
Continuous
 62
     7
370
    40
100
AcDbLine
 10
-5253.094663410441
 20
-885.3864455849045
 30
0.0
 11
-5254.776995399542
 21
-886.6076733152045
 31
0.0
  0
LINE
  5
9616
330
9601
100
AcDbEntity
  8
0_1
  6
Continuous
 62
     7
370
    40
100
AcDbLine
 10
-5254.776995399542
 20
-886.6076733152045
 30
0.0
 11
-5256.260081222642
 21
-888.1463746714045
 31
0.0
  0
LINE
  5
9617
330
9601
100
AcDbEntity
  8
0_1
  6
Continuous
 62
     7
370
    40
100
AcDbLine
 10
-5256.260081222642
 20
-888.1463746714045
 30
0.0
 11
-5257.525247581341
 21
-889.9831761088044
 31
0.0
  0
LINE
  5
9618
330
9601
100
AcDbEntity
  8
0_1
  6
Continuous
 62
     7
370
    40
100
AcDbLine
 10
-5257.525247581341
 20
-889.9831761088044
 30
0.0
 11
-5258.556564966742
 21
-892.0949507520044
 31
0.0
  0
LINE
  5
9619
330
9601
100
AcDbEntity
  8
0_1
  6
Continuous
 62
     7
370
    40
100
AcDbLine
 10
-5258.556564966742
 20
-892.0949507520044
 30
0.0
 11
-5259.341048225341
 21
-894.4551095812045
 31
0.0
  0
LINE
  5
961A
330
9601
100
AcDbEntity
  8
0_1
  6
Continuous
 62
     7
370
    40
100
AcDbLine
 10
-5259.341048225341
 20
-894.4551095812045
 30
0.0
 11
-5259.868820052741
 21
-897.0339362112044
 31
0.0
  0
ENDBLK
  5
961C
330
9601
100
AcDbEntity
  8
0
100
AcDbBlockEnd
  0
BLOCK
  5
9646
330
961D
100
AcDbEntity
  8
0
100
AcDbBlockBegin
  2
C50
 70
     0
 10
0.0
 20
0.0
 30
0.0
  3
C50
  1

  0
LINE
  5
961E
330
961D
100
AcDbEntity
  8
0_1
  6
Continuous
 62
     7
370
    40
100
AcDbLine
 10
-5229.221662444242
 20
-890.7122136098045
 30
0.0
 11
-5227.060975135642
 21
-893.1784472740044
 31
0.0
  0
LINE
  5
961F
330
961D
100
AcDbEntity
  8
0_1
  6
Continuous
 62
     7
370
    40
100
AcDbLine
 10
-5227.060975135642
 20
-893.1784472740044
 30
0.0
 11
-5225.030208483142
 21
-895.8483776057045
 31
0.0
  0
LINE
  5
9620
330
961D
100
AcDbEntity
  8
0_1
  6
Continuous
 62
     7
370
    40
100
AcDbLine
 10
-5225.030208483142
 20
-895.8483776057045
 30
0.0
 11
-5223.151549957742
 21
-898.6928338472045
 31
0.0
  0
LINE
  5
9621
330
961D
100
AcDbEntity
  8
0_1
  6
Continuous
 62
     7
370
    40
100
AcDbLine
 10
-5223.151549957742
 20
-898.6928338472045
 30
0.0
 11
-5221.445525148241
 21
-901.6807384301044
 31
0.0
  0
LINE
  5
9622
330
961D
100
AcDbEntity
  8
0_1
  6
Continuous
 62
     7
370
    40
100
AcDbLine
 10
-5221.445525148241
 20
-901.6807384301044
 30
0.0
 11
-5219.930773505741
 21
-904.7794465176044
 31
0.0
  0
LINE
  5
9623
330
961D
100
AcDbEntity
  8
0_1
  6
Continuous
 62
     7
370
    40
100
AcDbLine
 10
-5219.930773505741
 20
-904.7794465176044
 30
0.0
 11
-5218.623844695341
 21
-907.9551026710046
 31
0.0
  0
LINE
  5
9624
330
961D
100
AcDbEntity
  8
0_1
  6
Continuous
 62
     7
370
    40
100
AcDbLine
 10
-5218.623844695341
 20
-907.9551026710046
 30
0.0
 11
-5217.539017780041
 21
-911.1730107435045
 31
0.0
  0
LINE
  5
9625
330
961D
100
AcDbEntity
  8
0_1
  6
Continuous
 62
     7
370
    40
100
AcDbLine
 10
-5217.539017780041
 20
-911.1730107435045
 30
0.0
 11
-5216.688145212441
 21
-914.3980129578045
 31
0.0
  0
LINE
  5
9626
330
961D
100
AcDbEntity
  8
0_1
  6
Continuous
 62
     7
370
    40
100
AcDbLine
 10
-5216.688145212441
 20
-914.3980129578045
 30
0.0
 11
-5216.080523338941
 21
-917.5948740283043
 31
0.0
  0
LINE
  5
9627
330
961D
100
AcDbEntity
  8
0_1
  6
Continuous
 62
     7
370
    40
100
AcDbLine
 10
-5216.080523338941
 20
-917.5948740283043
 30
0.0
 11
-5215.722790831041
 21
-920.7286661303045
 31
0.0
  0
LINE
  5
9628
330
961D
100
AcDbEntity
  8
0_1
  6
Continuous
 62
     7
370
    40
100
AcDbLine
 10
-5215.722790831041
 20
-920.7286661303045
 30
0.0
 11
-5215.618856153442
 21
-923.7651505092046
 31
0.0
  0
LINE
  5
9629
330
961D
100
AcDbEntity
  8
0_1
  6
Continuous
 62
     7
370
    40
100
AcDbLine
 10
-5215.618856153442
 20
-923.7651505092046
 30
0.0
 11
-5215.769854861141
 21
-926.6711515617044
 31
0.0
  0
LINE
  5
962A
330
961D
100
AcDbEntity
  8
0_1
  6
Continuous
 62
     7
370
    40
100
AcDbLine
 10
-5215.769854861141
 20
-926.6711515617044
 30
0.0
 11
-5216.174137193441
 21
-929.4149193015044
 31
0.0
  0
LINE
  5
962B
330
961D
100
AcDbEntity
  8
0_1
  6
Continuous
 62
     7
370
    40
100
AcDbLine
 10
-5216.174137193441
 20
-929.4149193015044
 30
0.0
 11
-5216.827286097942
 21
-931.9664762484045
 31
0.0
  0
LINE
  5
962C
330
961D
100
AcDbEntity
  8
0_1
  6
Continuous
 62
     7
370
    40
100
AcDbLine
 10
-5216.827286097942
 20
-931.9664762484045
 30
0.0
 11
-5217.722165490242
 21
-934.2979449527044
 31
0.0
  0
LINE
  5
962D
330
961D
100
AcDbEntity
  8
0_1
  6
Continuous
 62
     7
370
    40
100
AcDbLine
 10
-5258.032942275141
 20
-918.7332912609043
 30
0.0
 11
-5259.330825002641
 21
-915.5551610495045
 31
0.0
  0
LINE
  5
962E
330
961D
100
AcDbEntity
  8
0_1
  6
Continuous
 62
     7
370
    40
100
AcDbLine
 10
-5259.330825002641
 20
-915.5551610495045
 30
0.0
 11
-5260.406058900741
 21
-912.3362470850043
 31
0.0
  0
LINE
  5
962F
330
961D
100
AcDbEntity
  8
0_1
  6
Continuous
 62
     7
370
    40
100
AcDbLine
 10
-5260.406058900741
 20
-912.3362470850043
 30
0.0
 11
-5261.246896326741
 21
-909.1117181348044
 31
0.0
  0
LINE
  5
9630
330
961D
100
AcDbEntity
  8
0_1
  6
Continuous
 62
     7
370
    40
100
AcDbLine
 10
-5261.246896326741
 20
-909.1117181348044
 30
0.0
 11
-5261.844150574941
 21
-905.9168043134045
 31
0.0
  0
LINE
  5
9631
330
961D
100
AcDbEntity
  8
0_1
  6
Continuous
 62
     7
370
    40
100
AcDbLine
 10
-5261.844150574941
 20
-905.9168043134045
 30
0.0
 11
-5262.191296247042
 21
-902.7864121708045
 31
0.0
  0
LINE
  5
9632
330
961D
100
AcDbEntity
  8
0_1
  6
Continuous
 62
     7
370
    40
100
AcDbLine
 10
-5262.191296247042
 20
-902.7864121708045
 30
0.0
 11
-5262.284540546541
 21
-899.7547433146046
 31
0.0
  0
LINE
  5
9633
330
961D
100
AcDbEntity
  8
0_1
  6
Continuous
 62
     7
370
    40
100
AcDbLine
 10
-5262.284540546541
 20
-899.7547433146046
 30
0.0
 11
-5262.122864717742
 21
-896.8549207355044
 31
0.0
  0
LINE
  5
9634
330
961D
100
AcDbEntity
  8
0_1
  6
Continuous
 62
     7
370
    40
100
AcDbLine
 10
-5262.122864717742
 20
-896.8549207355044
 30
0.0
 11
-5261.708035176241
 21
-894.1186269158043
 31
0.0
  0
LINE
  5
9635
330
961D
100
AcDbEntity
  8
0_1
  6
Continuous
 62
     7
370
    40
100
AcDbLine
 10
-5261.708035176241
 20
-894.1186269158043
 30
0.0
 11
-5261.044584209341
 21
-891.5757576782045
 31
0.0
  0
LINE
  5
9636
330
961D
100
AcDbEntity
  8
0_1
  6
Continuous
 62
     7
370
    40
100
AcDbLine
 10
-5261.044584209341
 20
-891.5757576782045
 30
0.0
 11
-5260.139760458642
 21
-889.2540955534045
 31
0.0
  0
LINE
  5
9637
330
961D
100
AcDbEntity
  8
0_1
  6
Continuous
 62
     7
370
    40
100
AcDbLine
 10
-5260.139760458642
 20
-889.2540955534045
 30
0.0
 11
-5259.003449722741
 21
-887.1790062381045
 31
0.0
  0
LINE
  5
9638
330
961D
100
AcDbEntity
  8
0_1
  6
Continuous
 62
     7
370
    40
100
AcDbLine
 10
-5259.003449722741
 20
-887.1790062381045
 30
0.0
 11
-5257.648066949241
 21
-885.3731614576044
 31
0.0
  0
LINE
  5
9639
330
961D
100
AcDbEntity
  8
0_1
  6
Continuous
 62
     7
370
    40
100
AcDbLine
 10
-5257.648066949241
 20
-885.3731614576044
 30
0.0
 11
-5256.088420592742
 21
-883.8562912623043
 31
0.0
  0
LINE
  5
963A
330
961D
100
AcDbEntity
  8
0_1
  6
Continuous
 62
     7
370
    40
100
AcDbLine
 10
-5256.088420592742
 20
-883.8562912623043
 30
0.0
 11
-5254.341550822742
 21
-882.6449684638046
 31
0.0
  0
LINE
  5
963B
330
961D
100
AcDbEntity
  8
0_1
  6
Continuous
 62
     7
370
    40
100
AcDbLine
 10
-5254.341550822742
 20
-882.6449684638046
 30
0.0
 11
-5252.426543348741
 21
-881.7524275663044
 31
0.0
  0
LINE
  5
963C
330
961D
100
AcDbEntity
  8
0_1
  6
Continuous
 62
     7
370
    40
100
AcDbLine
 10
-5252.426543348741
 20
-881.7524275663044
 30
0.0
 11
-5250.364320895842
 21
-881.1884201701044
 31
0.0
  0
LINE
  5
963D
330
961D
100
AcDbEntity
  8
0_1
  6
Continuous
 62
     7
370
    40
100
AcDbLine
 10
-5250.364320895842
 20
-881.1884201701044
 30
0.0
 11
-5248.177414610342
 21
-880.9591084297045
 31
0.0
  0
LINE
  5
963E
330
961D
100
AcDbEntity
  8
0_1
  6
Continuous
 62
     7
370
    40
100
AcDbLine
 10
-5248.177414610342
 20
-880.9591084297045
 30
0.0
 11
-5245.889717892041
 21
-881.0669977278045
 31
0.0
  0
LINE
  5
963F
330
961D
100
AcDbEntity
  8
0_1
  6
Continuous
 62
     7
370
    40
100
AcDbLine
 10
-5245.889717892041
 20
-881.0669977278045
 30
0.0
 11
-5243.526225343043
 21
-881.5109093022043
 31
0.0
  0
LINE
  5
9640
330
961D
100
AcDbEntity
  8
0_1
  6
Continuous
 62
     7
370
    40
100
AcDbLine
 10
-5243.526225343043
 20
-881.5109093022043
 30
0.0
 11
-5241.112759685042
 21
-882.2859931251045
 31
0.0
  0
LINE
  5
9641
330
961D
100
AcDbEntity
  8
0_1
  6
Continuous
 62
     7
370
    40
100
AcDbLine
 10
-5241.112759685042
 20
-882.2859931251045
 30
0.0
 11
-5238.675689628942
 21
-883.3837808922044
 31
0.0
  0
LINE
  5
9642
330
961D
100
AcDbEntity
  8
0_1
  6
Continuous
 62
     7
370
    40
100
AcDbLine
 10
-5238.675689628942
 20
-883.3837808922044
 30
0.0
 11
-5236.241641779542
 21
-884.7922785450045
 31
0.0
  0
LINE
  5
9643
330
961D
100
AcDbEntity
  8
0_1
  6
Continuous
 62
     7
370
    40
100
AcDbLine
 10
-5236.241641779542
 20
-884.7922785450045
 30
0.0
 11
-5233.837209721942
 21
-886.4960973136046
 31
0.0
  0
LINE
  5
9644
330
961D
100
AcDbEntity
  8
0_1
  6
Continuous
 62
     7
370
    40
100
AcDbLine
 10
-5233.837209721942
 20
-886.4960973136046
 30
0.0
 11
-5231.488663469041
 21
-888.4766218493044
 31
0.0
  0
LINE
  5
9645
330
961D
100
AcDbEntity
  8
0_1
  6
Continuous
 62
     7
370
    40
100
AcDbLine
 10
-5231.488663469041
 20
-888.4766218493044
 30
0.0
 11
-5229.221662444242
 21
-890.7122136098045
 31
0.0
  0
ENDBLK
  5
9647
330
961D
100
AcDbEntity
  8
0
100
AcDbBlockEnd
  0
BLOCK
  5
9651
330
9648
100
AcDbEntity
  8
0
100
AcDbBlockBegin
  2
C51
 70
     0
 10
0.0
 20
0.0
 30
0.0
  3
C51
  1

  0
LINE
  5
9649
330
9648
100
AcDbEntity
  8
0_1
  6
Continuous
 62
     7
370
    40
100
AcDbLine
 10
-5262.498963016542
 20
-918.6684513270044
 30
0.0
 11
-5262.375190054641
 21
-917.7167955341046
 31
0.0
  0
LINE
  5
964A
330
9648
100
AcDbEntity
  8
0_1
  6
Continuous
 62
     7
370
    40
100
AcDbLine
 10
-5262.375190054641
 20
-917.7167955341046
 30
0.0
 11
-5262.014703874041
 21
-916.9722023521044
 31
0.0
  0
LINE
  5
964B
330
9648
100
AcDbEntity
  8
0_1
  6
Continuous
 62
     7
370
    40
100
AcDbLine
 10
-5262.014703874041
 20
-916.9722023521044
 30
0.0
 11
-5261.449054503341
 21
-916.4998391507044
 31
0.0
  0
LINE
  5
964C
330
9648
100
AcDbEntity
  8
0_1
  6
Continuous
 62
     7
370
    40
100
AcDbLine
 10
-5261.449054503341
 20
-916.4998391507044
 30
0.0
 11
-5260.727748011742
 21
-916.3410475217043
 31
0.0
  0
LINE
  5
964D
330
9648
100
AcDbEntity
  8
0_1
  6
Continuous
 62
     7
370
    40
100
AcDbLine
 10
-5260.727748011742
 20
-916.3410475217043
 30
0.0
 11
-5259.913913699941
 21
-916.5097250308045
 31
0.0
  0
LINE
  5
964E
330
9648
100
AcDbEntity
  8
0_1
  6
Continuous
 62
     7
370
    40
100
AcDbLine
 10
-5259.913913699941
 20
-916.5097250308045
 30
0.0
 11
-5259.078778974441
 21
-916.9911088925045
 31
0.0
  0
LINE
  5
964F
330
9648
100
AcDbEntity
  8
0_1
  6
Continuous
 62
     7
370
    40
100
AcDbLine
 10
-5259.078778974441
 20
-916.9911088925045
 30
0.0
 11
-5258.295435470642
 21
-917.7430680197046
 31
0.0
  0
LINE
  5
9650
330
9648
100
AcDbEntity
  8
0_1
  6
Continuous
 62
     7
370
    40
100
AcDbLine
 10
-5258.295435470642
 20
-917.7430680197046
 30
0.0
 11
-5257.632442016341
 21
-918.6997903697044
 31
0.0
  0
ENDBLK
  5
9652
330
9648
100
AcDbEntity
  8
0
100
AcDbBlockEnd
  0
BLOCK
  5
965E
330
9653
100
AcDbEntity
  8
0
100
AcDbBlockBegin
  2
C52
 70
     0
 10
0.0
 20
0.0
 30
0.0
  3
C52
  1

  0
LINE
  5
9654
330
9653
100
AcDbEntity
  8
0_1
  6
Continuous
 62
     7
370
    40
100
AcDbLine
 10
-5253.975851429542
 20
-928.1609737645045
 30
0.0
 11
-5254.948275677241
 21
-928.4810643745045
 31
0.0
  0
LINE
  5
9655
330
9653
100
AcDbEntity
  8
0_1
  6
Continuous
 62
     7
370
    40
100
AcDbLine
 10
-5254.948275677241
 20
-928.4810643745045
 30
0.0
 11
-5256.044336142942
 21
-928.4492847189046
 31
0.0
  0
LINE
  5
9656
330
9653
100
AcDbEntity
  8
0_1
  6
Continuous
 62
     7
370
    40
100
AcDbLine
 10
-5256.044336142942
 20
-928.4492847189046
 30
0.0
 11
-5257.207305174341
 21
-928.0672795842043
 31
0.0
  0
LINE
  5
9657
330
9653
100
AcDbEntity
  8
0_1
  6
Continuous
 62
     7
370
    40
100
AcDbLine
 10
-5257.207305174341
 20
-928.0672795842043
 30
0.0
 11
-5258.376992202641
 21
-927.3548200095044
 31
0.0
  0
LINE
  5
9658
330
9653
100
AcDbEntity
  8
0_1
  6
Continuous
 62
     7
370
    40
100
AcDbLine
 10
-5258.376992202641
 20
-927.3548200095044
 30
0.0
 11
-5259.492858962842
 21
-926.3487800179044
 31
0.0
  0
LINE
  5
9659
330
9653
100
AcDbEntity
  8
0_1
  6
Continuous
 62
     7
370
    40
100
AcDbLine
 10
-5259.492858962842
 20
-926.3487800179044
 30
0.0
 11
-5260.497152709241
 21
-925.1012281664044
 31
0.0
  0
LINE
  5
965A
330
9653
100
AcDbEntity
  8
0_1
  6
Continuous
 62
     7
370
    40
100
AcDbLine
 10
-5260.497152709241
 20
-925.1012281664044
 30
0.0
 11
-5261.337895263341
 21
-923.6767326879045
 31
0.0
  0
LINE
  5
965B
330
9653
100
AcDbEntity
  8
0_1
  6
Continuous
 62
     7
370
    40
100
AcDbLine
 10
-5261.337895263341
 20
-923.6767326879045
 30
0.0
 11
-5261.971573194341
 21
-922.1490197014045
 31
0.0
  0
LINE
  5
965C
330
9653
100
AcDbEntity
  8
0_1
  6
Continuous
 62
     7
370
    40
100
AcDbLine
 10
-5261.971573194341
 20
-922.1490197014045
 30
0.0
 11
-5262.365389898141
 21
-920.5971574459043
 31
0.0
  0
LINE
  5
965D
330
9653
100
AcDbEntity
  8
0_1
  6
Continuous
 62
     7
370
    40
100
AcDbLine
 10
-5262.365389898141
 20
-920.5971574459043
 30
0.0
 11
-5262.498963016542
 21
-919.1014640289044
 31
0.0
  0
ENDBLK
  5
965F
330
9653
100
AcDbEntity
  8
0
100
AcDbBlockEnd
  0
BLOCK
  5
9669
330
9660
100
AcDbEntity
  8
0
100
AcDbBlockBegin
  2
C53
 70
     0
 10
0.0
 20
0.0
 30
0.0
  3
C53
  1

  0
LINE
  5
9661
330
9660
100
AcDbEntity
  8
0_1
  6
Continuous
 62
     7
370
    40
100
AcDbLine
 10
-5236.831055015642
 20
-937.4350609990045
 30
0.0
 11
-5236.842614435742
 21
-937.6002623135045
 31
0.0
  0
LINE
  5
9662
330
9660
100
AcDbEntity
  8
0_1
  6
Continuous
 62
     7
370
    40
100
AcDbLine
 10
-5236.842614435742
 20
-937.6002623135045
 30
0.0
 11
-5236.881466863642
 21
-937.7456713942045
 31
0.0
  0
LINE
  5
9663
330
9660
100
AcDbEntity
  8
0_1
  6
Continuous
 62
     7
370
    40
100
AcDbLine
 10
-5236.881466863642
 20
-937.7456713942045
 30
0.0
 11
-5236.946087590942
 21
-937.8655818684045
 31
0.0
  0
LINE
  5
9664
330
9660
100
AcDbEntity
  8
0_1
  6
Continuous
 62
     7
370
    40
100
AcDbLine
 10
-5236.946087590942
 20
-937.8655818684045
 30
0.0
 11
-5237.033940669142
 21
-937.9552880200046
 31
0.0
  0
LINE
  5
9665
330
9660
100
AcDbEntity
  8
0_1
  6
Continuous
 62
     7
370
    40
100
AcDbLine
 10
-5237.033940669142
 20
-937.9552880200046
 30
0.0
 11
-5237.141578429142
 21
-938.0112694589044
 31
0.0
  0
LINE
  5
9666
330
9660
100
AcDbEntity
  8
0_1
  6
Continuous
 62
     7
370
    40
100
AcDbLine
 10
-5237.141578429142
 20
-938.0112694589044
 30
0.0
 11
-5237.264776780041
 21
-938.0313292729043
 31
0.0
  0
LINE
  5
9667
330
9660
100
AcDbEntity
  8
0_1
  6
Continuous
 62
     7
370
    40
100
AcDbLine
 10
-5237.264776780041
 20
-938.0313292729043
 30
0.0
 11
-5237.398700977841
 21
-938.0146802433044
 31
0.0
  0
LINE
  5
9668
330
9660
100
AcDbEntity
  8
0_1
  6
Continuous
 62
     7
370
    40
100
AcDbLine
 10
-5237.398700977841
 20
-938.0146802433044
 30
0.0
 11
-5237.538095357841
 21
-937.9619757375046
 31
0.0
  0
ENDBLK
  5
966A
330
9660
100
AcDbEntity
  8
0
100
AcDbBlockEnd
  0
BLOCK
  5
9674
330
966B
100
AcDbEntity
  8
0
100
AcDbBlockBegin
  2
C54
 70
     0
 10
0.0
 20
0.0
 30
0.0
  3
C54
  1

  0
LINE
  5
966C
330
966B
100
AcDbEntity
  8
0_1
  6
Continuous
 62
     7
370
    40
100
AcDbLine
 10
-5221.813916540042
 20
-942.2955554191045
 30
0.0
 11
-5221.916155076941
 21
-942.1271536523043
 31
0.0
  0
LINE
  5
966D
330
966B
100
AcDbEntity
  8
0_1
  6
Continuous
 62
     7
370
    40
100
AcDbLine
 10
-5221.916155076941
 20
-942.1271536523043
 30
0.0
 11
-5222.035264816241
 21
-941.9773016785043
 31
0.0
  0
LINE
  5
966E
330
966B
100
AcDbEntity
  8
0_1
  6
Continuous
 62
     7
370
    40
100
AcDbLine
 10
-5222.035264816241
 20
-941.9773016785043
 30
0.0
 11
-5222.166571215042
 21
-941.8518805406044
 31
0.0
  0
LINE
  5
966F
330
966B
100
AcDbEntity
  8
0_1
  6
Continuous
 62
     7
370
    40
100
AcDbLine
 10
-5222.166571215042
 20
-941.8518805406044
 30
0.0
 11
-5222.304921064141
 21
-941.7558124768044
 31
0.0
  0
LINE
  5
9670
330
966B
100
AcDbEntity
  8
0_1
  6
Continuous
 62
     7
370
    40
100
AcDbLine
 10
-5222.304921064141
 20
-941.7558124768044
 30
0.0
 11
-5222.444884729042
 21
-941.6928677438043
 31
0.0
  0
LINE
  5
9671
330
966B
100
AcDbEntity
  8
0_1
  6
Continuous
 62
     7
370
    40
100
AcDbLine
 10
-5222.444884729042
 20
-941.6928677438043
 30
0.0
 11
-5222.580969240341
 21
-941.6655166507045
 31
0.0
  0
LINE
  5
9672
330
966B
100
AcDbEntity
  8
0_1
  6
Continuous
 62
     7
370
    40
100
AcDbLine
 10
-5222.580969240341
 20
-941.6655166507045
 30
0.0
 11
-5222.707833868441
 21
-941.6748326098044
 31
0.0
  0
LINE
  5
9673
330
966B
100
AcDbEntity
  8
0_1
  6
Continuous
 62
     7
370
    40
100
AcDbLine
 10
-5222.707833868441
 20
-941.6748326098044
 30
0.0
 11
-5222.820499724341
 21
-941.7204500099044
 31
0.0
  0
ENDBLK
  5
9675
330
966B
100
AcDbEntity
  8
0
100
AcDbBlockEnd
  0
BLOCK
  5
967F
330
9676
100
AcDbEntity
  8
0
100
AcDbBlockBegin
  2
C55
 70
     0
 10
0.0
 20
0.0
 30
0.0
  3
C55
  1

  0
LINE
  5
9677
330
9676
100
AcDbEntity
  8
0_1
  6
Continuous
 62
     7
370
    40
100
AcDbLine
 10
-5255.488494255843
 20
-924.3507003674045
 30
0.0
 11
-5255.171383168041
 21
-924.0970597102045
 31
0.0
  0
LINE
  5
9678
330
9676
100
AcDbEntity
  8
0_1
  6
Continuous
 62
     7
370
    40
100
AcDbLine
 10
-5255.171383168041
 20
-924.0970597102045
 30
0.0
 11
-5254.794132455441
 21
-923.9581675541044
 31
0.0
  0
LINE
  5
9679
330
9676
100
AcDbEntity
  8
0_1
  6
Continuous
 62
     7
370
    40
100
AcDbLine
 10
-5254.794132455441
 20
-923.9581675541044
 30
0.0
 11
-5254.371556742742
 21
-923.9394781902046
 31
0.0
  0
LINE
  5
967A
330
9676
100
AcDbEntity
  8
0_1
  6
Continuous
 62
     7
370
    40
100
AcDbLine
 10
-5254.371556742742
 20
-923.9394781902046
 30
0.0
 11
-5253.920250566442
 21
-924.0417255492044
 31
0.0
  0
LINE
  5
967B
330
9676
100
AcDbEntity
  8
0_1
  6
Continuous
 62
     7
370
    40
100
AcDbLine
 10
-5253.920250566442
 20
-924.0417255492044
 30
0.0
 11
-5253.457936707143
 21
-924.2608943803045
 31
0.0
  0
LINE
  5
967C
330
9676
100
AcDbEntity
  8
0_1
  6
Continuous
 62
     7
370
    40
100
AcDbLine
 10
-5253.457936707143
 20
-924.2608943803045
 30
0.0
 11
-5253.002770217242
 21
-924.5883779296045
 31
0.0
  0
LINE
  5
967D
330
9676
100
AcDbEntity
  8
0_1
  6
Continuous
 62
     7
370
    40
100
AcDbLine
 10
-5253.002770217242
 20
-924.5883779296045
 30
0.0
 11
-5252.572625471742
 21
-925.0113159275043
 31
0.0
  0
LINE
  5
967E
330
9676
100
AcDbEntity
  8
0_1
  6
Continuous
 62
     7
370
    40
100
AcDbLine
 10
-5252.572625471742
 20
-925.0113159275043
 30
0.0
 11
-5252.184394242742
 21
-925.5130996107045
 31
0.0
  0
ENDBLK
  5
9680
330
9676
100
AcDbEntity
  8
0
100
AcDbBlockEnd
  0
BLOCK
  5
968E
330
9681
100
AcDbEntity
  8
0
100
AcDbBlockBegin
  2
C56
 70
     0
 10
0.0
 20
0.0
 30
0.0
  3
C56
  1

  0
LINE
  5
9682
330
9681
100
AcDbEntity
  8
0_1
  6
Continuous
 62
     7
370
    40
100
AcDbLine
 10
-5257.632442016341
 20
-918.6997903697044
 30
0.0
 11
-5258.361137078741
 21
-918.6024094127045
 31
0.0
  0
LINE
  5
9683
330
9681
100
AcDbEntity
  8
0_1
  6
Continuous
 62
     7
370
    40
100
AcDbLine
 10
-5258.361137078741
 20
-918.6024094127045
 30
0.0
 11
-5258.981019208541
 21
-918.8322693392045
 31
0.0
  0
LINE
  5
9684
330
9681
100
AcDbEntity
  8
0_1
  6
Continuous
 62
     7
370
    40
100
AcDbLine
 10
-5258.981019208541
 20
-918.8322693392045
 30
0.0
 11
-5259.426226733442
 21
-919.3649478302043
 31
0.0
  0
LINE
  5
9685
330
9681
100
AcDbEntity
  8
0_1
  6
Continuous
 62
     7
370
    40
100
AcDbLine
 10
-5259.426226733442
 20
-919.3649478302043
 30
0.0
 11
-5259.649456931142
 21
-920.1438484869044
 31
0.0
  0
LINE
  5
9686
330
9681
100
AcDbEntity
  8
0_1
  6
Continuous
 62
     7
370
    40
100
AcDbLine
 10
-5259.649456931142
 20
-920.1438484869044
 30
0.0
 11
-5259.626991882741
 21
-921.0862141246044
 31
0.0
  0
LINE
  5
9687
330
9681
100
AcDbEntity
  8
0_1
  6
Continuous
 62
     7
370
    40
100
AcDbLine
 10
-5259.626991882741
 20
-921.0862141246044
 30
0.0
 11
-5259.361218470542
 21
-922.0919196164045
 31
0.0
  0
LINE
  5
9688
330
9681
100
AcDbEntity
  8
0_1
  6
Continuous
 62
     7
370
    40
100
AcDbLine
 10
-5259.361218470542
 20
-922.0919196164045
 30
0.0
 11
-5258.880374774841
 21
-923.0541100581046
 31
0.0
  0
LINE
  5
9689
330
9681
100
AcDbEntity
  8
0_1
  6
Continuous
 62
     7
370
    40
100
AcDbLine
 10
-5258.880374774841
 20
-923.0541100581046
 30
0.0
 11
-5258.235549814742
 21
-923.8705539631045
 31
0.0
  0
LINE
  5
968A
330
9681
100
AcDbEntity
  8
0_1
  6
Continuous
 62
     7
370
    40
100
AcDbLine
 10
-5258.235549814742
 20
-923.8705539631045
 30
0.0
 11
-5257.495255405942
 21
-924.4545052253043
 31
0.0
  0
LINE
  5
968B
330
9681
100
AcDbEntity
  8
0_1
  6
Continuous
 62
     7
370
    40
100
AcDbLine
 10
-5257.495255405942
 20
-924.4545052253043
 30
0.0
 11
-5256.738146869441
 21
-924.7439197805043
 31
0.0
  0
LINE
  5
968C
330
9681
100
AcDbEntity
  8
0_1
  6
Continuous
 62
     7
370
    40
100
AcDbLine
 10
-5256.738146869441
 20
-924.7439197805043
 30
0.0
 11
-5256.044666005241
 21
-924.7080477075044
 31
0.0
  0
LINE
  5
968D
330
9681
100
AcDbEntity
  8
0_1
  6
Continuous
 62
     7
370
    40
100
AcDbLine
 10
-5256.044666005241
 20
-924.7080477075044
 30
0.0
 11
-5255.488494255843
 21
-924.3507003674045
 31
0.0
  0
ENDBLK
  5
968F
330
9681
100
AcDbEntity
  8
0
100
AcDbBlockEnd
  0
BLOCK
  5
9699
330
9690
100
AcDbEntity
  8
0
100
AcDbBlockBegin
  2
C57
 70
     0
 10
0.0
 20
0.0
 30
0.0
  3
C57
  1

  0
LINE
  5
9691
330
9690
100
AcDbEntity
  8
0_1
  6
Continuous
 62
     7
370
    40
100
AcDbLine
 10
-5256.722863490641
 20
-916.3160690868044
 30
0.0
 11
-5256.692657163742
 21
-916.4070750960044
 31
0.0
  0
LINE
  5
9692
330
9690
100
AcDbEntity
  8
0_1
  6
Continuous
 62
     7
370
    40
100
AcDbLine
 10
-5256.692657163742
 20
-916.4070750960044
 30
0.0
 11
-5256.675052738641
 21
-916.4975167696043
 31
0.0
  0
LINE
  5
9693
330
9690
100
AcDbEntity
  8
0_1
  6
Continuous
 62
     7
370
    40
100
AcDbLine
 10
-5256.675052738641
 20
-916.4975167696043
 30
0.0
 11
-5256.670719641242
 21
-916.5839549723044
 31
0.0
  0
LINE
  5
9694
330
9690
100
AcDbEntity
  8
0_1
  6
Continuous
 62
     7
370
    40
100
AcDbLine
 10
-5256.670719641242
 20
-916.5839549723044
 30
0.0
 11
-5256.679822641841
 21
-916.6631028050046
 31
0.0
  0
LINE
  5
9695
330
9690
100
AcDbEntity
  8
0_1
  6
Continuous
 62
     7
370
    40
100
AcDbLine
 10
-5256.679822641841
 20
-916.6631028050046
 30
0.0
 11
-5256.702015589741
 21
-916.7319505920044
 31
0.0
  0
LINE
  5
9696
330
9690
100
AcDbEntity
  8
0_1
  6
Continuous
 62
     7
370
    40
100
AcDbLine
 10
-5256.702015589741
 20
-916.7319505920044
 30
0.0
 11
-5256.736454575942
 21
-916.7878803273044
 31
0.0
  0
LINE
  5
9697
330
9690
100
AcDbEntity
  8
0_1
  6
Continuous
 62
     7
370
    40
100
AcDbLine
 10
-5256.736454575942
 20
-916.7878803273044
 30
0.0
 11
-5256.781830023541
 21
-916.8287652267043
 31
0.0
  0
LINE
  5
9698
330
9690
100
AcDbEntity
  8
0_1
  6
Continuous
 62
     7
370
    40
100
AcDbLine
 10
-5256.781830023541
 20
-916.8287652267043
 30
0.0
 11
-5256.836416485541
 21
-916.8530506009046
 31
0.0
  0
ENDBLK
  5
969A
330
9690
100
AcDbEntity
  8
0
100
AcDbBlockEnd
  0
BLOCK
  5
96A4
330
969B
100
AcDbEntity
  8
0
100
AcDbBlockBegin
  2
C58
 70
     0
 10
0.0
 20
0.0
 30
0.0
  3
C58
  1

  0
LINE
  5
969C
330
969B
100
AcDbEntity
  8
0_1
  6
Continuous
 62
     7
370
    40
100
AcDbLine
 10
-5243.994941429241
 20
-909.9521080561045
 30
0.0
 11
-5243.964735102441
 21
-910.0431140653043
 31
0.0
  0
LINE
  5
969D
330
969B
100
AcDbEntity
  8
0_1
  6
Continuous
 62
     7
370
    40
100
AcDbLine
 10
-5243.964735102441
 20
-910.0431140653043
 30
0.0
 11
-5243.947130677241
 21
-910.1335557389043
 31
0.0
  0
LINE
  5
969E
330
969B
100
AcDbEntity
  8
0_1
  6
Continuous
 62
     7
370
    40
100
AcDbLine
 10
-5243.947130677241
 20
-910.1335557389043
 30
0.0
 11
-5243.942797579841
 21
-910.2199939416044
 31
0.0
  0
LINE
  5
969F
330
969B
100
AcDbEntity
  8
0_1
  6
Continuous
 62
     7
370
    40
100
AcDbLine
 10
-5243.942797579841
 20
-910.2199939416044
 30
0.0
 11
-5243.951900580441
 21
-910.2991417743044
 31
0.0
  0
LINE
  5
96A0
330
969B
100
AcDbEntity
  8
0_1
  6
Continuous
 62
     7
370
    40
100
AcDbLine
 10
-5243.951900580441
 20
-910.2991417743044
 30
0.0
 11
-5243.974093528442
 21
-910.3679895613044
 31
0.0
  0
LINE
  5
96A1
330
969B
100
AcDbEntity
  8
0_1
  6
Continuous
 62
     7
370
    40
100
AcDbLine
 10
-5243.974093528442
 20
-910.3679895613044
 30
0.0
 11
-5244.008532514642
 21
-910.4239192966044
 31
0.0
  0
LINE
  5
96A2
330
969B
100
AcDbEntity
  8
0_1
  6
Continuous
 62
     7
370
    40
100
AcDbLine
 10
-5244.008532514642
 20
-910.4239192966044
 30
0.0
 11
-5244.053907962141
 21
-910.4648041960043
 31
0.0
  0
LINE
  5
96A3
330
969B
100
AcDbEntity
  8
0_1
  6
Continuous
 62
     7
370
    40
100
AcDbLine
 10
-5244.053907962141
 20
-910.4648041960043
 30
0.0
 11
-5244.072530537342
 21
-910.4754868780045
 31
0.0
  0
ENDBLK
  5
96A5
330
969B
100
AcDbEntity
  8
0
100
AcDbBlockEnd
  0
BLOCK
  5
9DD1
330
9DC7
100
AcDbEntity
  8
0
100
AcDbBlockBegin
  2
*D31
 70
     1
 10
0.0
 20
0.0
 30
0.0
  3
*D31
  1

  0
LINE
  5
A0AE
330
9DC7
100
AcDbEntity
  8
SUNPOU
100
AcDbLine
 10
285.3990572719489
 20
184.6547071400545
 30
0.0
 11
221.0517873550933
 21
184.6547071400545
 31
0.0
  0
LINE
  5
A0AF
330
9DC7
100
AcDbEntity
  8
SUNPOU
100
AcDbLine
 10
275.3990508231527
 20
84.65467707269132
 30
0.0
 11
221.0517873550933
 21
84.65467707269134
 31
0.0
  0
LINE
  5
A0B0
330
9DC7
100
AcDbEntity
  8
SUNPOU
100
AcDbLine
 10
222.5517873550933
 20
181.6547071400545
 30
0.0
 11
222.5517873550933
 21
87.65467707269134
 31
0.0
  0
INSERT
  5
A0B1
330
9DC7
100
AcDbEntity
  8
SUNPOU
100
AcDbBlockReference
  2
_OPEN
 10
222.5517873550933
 20
184.6547071400545
 30
0.0
 41
3.0
 42
3.0
 43
3.0
 50
90.0
  0
INSERT
  5
A0B2
330
9DC7
100
AcDbEntity
  8
SUNPOU
100
AcDbBlockReference
  2
_OPEN
 10
222.5517873550933
 20
84.65467707269134
 30
0.0
 41
3.0
 42
3.0
 43
3.0
 50
270.0
  0
MTEXT
  5
A0B3
330
9DC7
100
AcDbEntity
  8
SUNPOU
100
AcDbMText
 10
218.5517873550933
 20
134.6546921063729
 30
0.0
 40
4.0
 41
0.0
 71
     5
 72
     1
  1
\A1;100
 11
0.0000000000000001
 21
1.0
 31
0.0
 73
     1
 44
1.0
1001
ACAD
1000
MTEXTBEGIN
1070
    73
1070
     1
1070
    44
1040
1.0
1070
    74
1070
     0
1000
MTEXTEND
  0
POINT
  5
A0B4
330
9DC7
100
AcDbEntity
  8
DEFPOINTS
 62
     0
100
AcDbPoint
 10
286.8990572719489
 20
184.6547071400545
 30
0.0
  0
POINT
  5
A0B5
330
9DC7
100
AcDbEntity
  8
DEFPOINTS
 62
     0
100
AcDbPoint
 10
276.8990508231527
 20
84.65467707269132
 30
0.0
  0
POINT
  5
A0B6
330
9DC7
100
AcDbEntity
  8
DEFPOINTS
 62
     0
100
AcDbPoint
 10
222.5517873550933
 20
84.65467707269134
 30
0.0
  0
ENDBLK
  5
9DD2
330
9DC7
100
AcDbEntity
  8
0
100
AcDbBlockEnd
  0
BLOCK
  5
9DDD
330
9DD3
100
AcDbEntity
  8
0
100
AcDbBlockBegin
  2
*D32
 70
     1
 10
0.0
 20
0.0
 30
0.0
  3
*D32
  1

  0
LINE
  5
A09C
330
9DD3
100
AcDbEntity
  8
SUNPOU
100
AcDbLine
 10
139.7220486626044
 20
193.8548758284446
 30
0.0
 11
139.7220486626044
 21
214.1212643955598
 31
0.0
  0
LINE
  5
A09D
330
9DD3
100
AcDbEntity
  8
SUNPOU
100
AcDbLine
 10
119.7220486626044
 20
109.1547758284446
 30
0.0
 11
119.7220486626044
 21
214.1212643955598
 31
0.0
  0
LINE
  5
A09E
330
9DD3
100
AcDbEntity
  8
SUNPOU
100
AcDbLine
 10
136.7220486626044
 20
212.6212643955598
 30
0.0
 11
122.7220486626044
 21
212.6212643955598
 31
0.0
  0
INSERT
  5
A09F
330
9DD3
100
AcDbEntity
  8
SUNPOU
100
AcDbBlockReference
  2
_OPEN
 10
139.7220486626044
 20
212.6212643955598
 30
0.0
 41
3.0
 42
3.0
 43
3.0
  0
INSERT
  5
A0A0
330
9DD3
100
AcDbEntity
  8
SUNPOU
100
AcDbBlockReference
  2
_OPEN
 10
119.7220486626044
 20
212.6212643955598
 30
0.0
 41
3.0
 42
3.0
 43
3.0
 50
180.0
  0
MTEXT
  5
A0A1
330
9DD3
100
AcDbEntity
  8
SUNPOU
100
AcDbMText
 10
129.7220486626043
 20
216.6212643955598
 30
0.0
 40
4.0
 41
0.0
 71
     5
 72
     1
  1
\A1;20
 73
     1
 44
1.0
1001
ACAD
1000
MTEXTBEGIN
1070
    73
1070
     1
1070
    44
1040
1.0
1070
    74
1070
     0
1000
MTEXTEND
  0
POINT
  5
A0A2
330
9DD3
100
AcDbEntity
  8
DEFPOINTS
 62
     0
100
AcDbPoint
 10
139.7220486626044
 20
192.3548758284446
 30
0.0
  0
POINT
  5
A0A3
330
9DD3
100
AcDbEntity
  8
DEFPOINTS
 62
     0
100
AcDbPoint
 10
119.7220486626044
 20
107.6547758284446
 30
0.0
  0
POINT
  5
A0A4
330
9DD3
100
AcDbEntity
  8
DEFPOINTS
 62
     0
100
AcDbPoint
 10
119.7220486626044
 20
212.6212643955598
 30
0.0
  0
ENDBLK
  5
9DDE
330
9DD3
100
AcDbEntity
  8
0
100
AcDbBlockEnd
  0
BLOCK
  5
9DE9
330
9DDF
100
AcDbEntity
  8
0
100
AcDbBlockBegin
  2
*D33
 70
     1
 10
0.0
 20
0.0
 30
0.0
  3
*D33
  1

  0
LINE
  5
A0A5
330
9DDF
100
AcDbEntity
  8
SUNPOU
100
AcDbLine
 10
119.7220486626044
 20
109.1547758284446
 30
0.0
 11
119.7220486626044
 21
223.1235882076661
 31
0.0
  0
LINE
  5
A0A6
330
9DDF
100
AcDbEntity
  8
SUNPOU
100
AcDbLine
 10
159.7221902486552
 20
111.1547770726915
 30
0.0
 11
159.7221902486552
 21
223.1235882076661
 31
0.0
  0
LINE
  5
A0A7
330
9DDF
100
AcDbEntity
  8
SUNPOU
100
AcDbLine
 10
122.7220486626044
 20
221.6235882076661
 30
0.0
 11
156.7221902486552
 21
221.6235882076661
 31
0.0
  0
INSERT
  5
A0A8
330
9DDF
100
AcDbEntity
  8
SUNPOU
100
AcDbBlockReference
  2
_OPEN
 10
119.7220486626044
 20
221.6235882076661
 30
0.0
 41
3.0
 42
3.0
 43
3.0
 50
180.0
  0
INSERT
  5
A0A9
330
9DDF
100
AcDbEntity
  8
SUNPOU
100
AcDbBlockReference
  2
_OPEN
 10
159.7221902486552
 20
221.6235882076661
 30
0.0
 41
3.0
 42
3.0
 43
3.0
  0
MTEXT
  5
A0AA
330
9DDF
100
AcDbEntity
  8
SUNPOU
100
AcDbMText
 10
139.7221194556298
 20
225.6235882076661
 30
0.0
 40
4.0
 41
0.0
 71
     5
 72
     1
  1
\A1;40
 73
     1
 44
1.0
1001
ACAD
1000
MTEXTBEGIN
1070
    73
1070
     1
1070
    44
1040
1.0
1070
    74
1070
     0
1000
MTEXTEND
  0
POINT
  5
A0AB
330
9DDF
100
AcDbEntity
  8
DEFPOINTS
 62
     0
100
AcDbPoint
 10
119.7220486626044
 20
107.6547758284446
 30
0.0
  0
POINT
  5
A0AC
330
9DDF
100
AcDbEntity
  8
DEFPOINTS
 62
     0
100
AcDbPoint
 10
159.7221902486552
 20
109.6547770726914
 30
0.0
  0
POINT
  5
A0AD
330
9DDF
100
AcDbEntity
  8
DEFPOINTS
 62
     0
100
AcDbPoint
 10
159.7221902486552
 20
221.6235882076661
 30
0.0
  0
ENDBLK
  5
9DEA
330
9DDF
100
AcDbEntity
  8
0
100
AcDbBlockEnd
  0
BLOCK
  5
9E23
330
9E1C
100
AcDbEntity
  8
0
100
AcDbBlockBegin
  2
*D34
 70
     1
 10
0.0
 20
0.0
 30
0.0
  3
*D34
  1

  0
LINE
  5
A211
330
9E1C
100
AcDbEntity
  8
SUNPOU
100
AcDbLine
 10
263.460677959738
 20
138.251573500167
 30
0.0
 11
310.3374365841597
 21
165.0578007792884
 31
0.0
  0
MTEXT
  5
A212
330
9E1C
100
AcDbEntity
  8
SUNPOU
100
AcDbMText
 10
294.6593836303641
 20
160.9253080895622
 30
0.0
 40
4.0
 41
0.0
 71
     5
 72
     1
  1
\A1;\U+220560
 11
0.8680874796362038
 21
0.4964112485619796
 31
0.0
 73
     1
 44
1.0
1001
ACAD
1000
MTEXTBEGIN
1070
    73
1070
     1
1070
    44
1040
1.0
1070
    74
1070
     0
1000
MTEXTEND
  0
INSERT
  5
A213
330
9E1C
100
AcDbEntity
  8
SUNPOU
100
AcDbBlockReference
  2
_OPEN
 10
260.8564155208293
 20
136.7623397544811
 30
0.0
 41
3.0
 42
3.0
 43
3.0
 50
209.7628527882581
  0
INSERT
  5
A214
330
9E1C
100
AcDbEntity
  8
SUNPOU
100
AcDbBlockReference
  2
_OPEN
 10
312.9416990230683
 20
166.5470345249744
 30
0.0
 41
3.0
 42
3.0
 43
3.0
 50
29.76285278825815
  0
POINT
  5
A215
330
9E1C
100
AcDbEntity
  8
DEFPOINTS
 62
     0
100
AcDbPoint
 10
312.9416990230683
 20
166.5470345249744
 30
0.0
  0
POINT
  5
A216
330
9E1C
100
AcDbEntity
  8
DEFPOINTS
 62
     0
100
AcDbPoint
 10
260.8564155208293
 20
136.7623397544811
 30
0.0
  0
ENDBLK
  5
9E24
330
9E1C
100
AcDbEntity
  8
0
100
AcDbBlockEnd
  0
BLOCK
  5
9E2F
330
9E25
100
AcDbEntity
  8
0
100
AcDbBlockBegin
  2
*D35
 70
     1
 10
0.0
 20
0.0
 30
0.0
  3
*D35
  1

  0
LINE
  5
A093
330
9E25
100
AcDbEntity
  8
SUNPOU
100
AcDbLine
 10
285.3990572719489
 20
184.6547071400545
 30
0.0
 11
231.6862693252387
 21
184.6547071400545
 31
0.0
  0
LINE
  5
A094
330
9E25
100
AcDbEntity
  8
SUNPOU
100
AcDbLine
 10
275.3714487368904
 20
109.6547758284447
 30
0.0
 11
231.6862693252387
 21
109.6547758284447
 31
0.0
  0
LINE
  5
A095
330
9E25
100
AcDbEntity
  8
SUNPOU
100
AcDbLine
 10
233.1862693252388
 20
181.6547071400545
 30
0.0
 11
233.1862693252388
 21
112.6547758284447
 31
0.0
  0
INSERT
  5
A096
330
9E25
100
AcDbEntity
  8
SUNPOU
100
AcDbBlockReference
  2
_OPEN
 10
233.1862693252388
 20
184.6547071400545
 30
0.0
 41
3.0
 42
3.0
 43
3.0
 50
90.0
  0
INSERT
  5
A097
330
9E25
100
AcDbEntity
  8
SUNPOU
100
AcDbBlockReference
  2
_OPEN
 10
233.1862693252388
 20
109.6547758284447
 30
0.0
 41
3.0
 42
3.0
 43
3.0
 50
270.0
  0
MTEXT
  5
A098
330
9E25
100
AcDbEntity
  8
SUNPOU
100
AcDbMText
 10
229.1862693252387
 20
147.1547414842497
 30
0.0
 40
4.0
 41
0.0
 71
     5
 72
     1
  1
\A1;75
 11
0.0000000000000001
 21
1.0
 31
0.0
 73
     1
 44
1.0
1001
ACAD
1000
MTEXTBEGIN
1070
    73
1070
     1
1070
    44
1040
1.0
1070
    74
1070
     0
1000
MTEXTEND
  0
POINT
  5
A099
330
9E25
100
AcDbEntity
  8
DEFPOINTS
 62
     0
100
AcDbPoint
 10
286.8990572719489
 20
184.6547071400545
 30
0.0
  0
POINT
  5
A09A
330
9E25
100
AcDbEntity
  8
DEFPOINTS
 62
     0
100
AcDbPoint
 10
276.8714487368904
 20
109.6547758284447
 30
0.0
  0
POINT
  5
A09B
330
9E25
100
AcDbEntity
  8
DEFPOINTS
 62
     0
100
AcDbPoint
 10
233.1862693252388
 20
109.6547758284447
 30
0.0
  0
ENDBLK
  5
9E30
330
9E25
100
AcDbEntity
  8
0
100
AcDbBlockEnd
  0
BLOCK
  5
9E3B
330
9E31
100
AcDbEntity
  8
0
100
AcDbBlockBegin
  2
*D36
 70
     1
 10
0.0
 20
0.0
 30
0.0
  3
*D36
  1

  0
LINE
  5
A0DC
330
9E31
100
AcDbEntity
  8
SUNPOU
100
AcDbLine
 10
276.8990508231527
 20
83.15467707269139
 30
0.0
 11
276.8990508231527
 21
62.22808332111984
 31
0.0
  0
LINE
  5
A0DD
330
9E31
100
AcDbEntity
  8
SUNPOU
100
AcDbLine
 10
296.8990487369904
 20
83.15467707269133
 30
0.0
 11
296.8990487369904
 21
62.22808332111984
 31
0.0
  0
LINE
  5
A0DE
330
9E31
100
AcDbEntity
  8
SUNPOU
100
AcDbLine
 10
279.8990508231527
 20
63.72808332111984
 30
0.0
 11
293.8990487369904
 21
63.72808332111984
 31
0.0
  0
INSERT
  5
A0DF
330
9E31
100
AcDbEntity
  8
SUNPOU
100
AcDbBlockReference
  2
_OPEN
 10
276.8990508231527
 20
63.72808332111984
 30
0.0
 41
3.0
 42
3.0
 43
3.0
 50
180.0
  0
INSERT
  5
A0E0
330
9E31
100
AcDbEntity
  8
SUNPOU
100
AcDbBlockReference
  2
_OPEN
 10
296.8990487369904
 20
63.72808332111984
 30
0.0
 41
3.0
 42
3.0
 43
3.0
  0
MTEXT
  5
A0E1
330
9E31
100
AcDbEntity
  8
SUNPOU
100
AcDbMText
 10
286.8990497800715
 20
67.72808332111984
 30
0.0
 40
4.0
 41
0.0
 71
     5
 72
     1
  1
\A1;20
 73
     1
 44
1.0
1001
ACAD
1000
MTEXTBEGIN
1070
    73
1070
     1
1070
    44
1040
1.0
1070
    74
1070
     0
1000
MTEXTEND
  0
POINT
  5
A0E2
330
9E31
100
AcDbEntity
  8
DEFPOINTS
 62
     0
100
AcDbPoint
 10
276.8990508231527
 20
84.65467707269139
 30
0.0
  0
POINT
  5
A0E3
330
9E31
100
AcDbEntity
  8
DEFPOINTS
 62
     0
100
AcDbPoint
 10
296.8990487369904
 20
84.65467707269132
 30
0.0
  0
POINT
  5
A0E4
330
9E31
100
AcDbEntity
  8
DEFPOINTS
 62
     0
100
AcDbPoint
 10
296.8990487369904
 20
63.72808332111984
 30
0.0
  0
ENDBLK
  5
9E3C
330
9E31
100
AcDbEntity
  8
0
100
AcDbBlockEnd
  0
BLOCK
  5
9E47
330
9E3D
100
AcDbEntity
  8
0
100
AcDbBlockBegin
  2
*D37
 70
     1
 10
0.0
 20
0.0
 30
0.0
  3
*D37
  1

  0
LINE
  5
A0E5
330
9E3D
100
AcDbEntity
  8
SUNPOU
100
AcDbLine
 10
253.899037271622
 20
153.1546871397276
 30
0.0
 11
253.899037271622
 21
205.3597507753454
 31
0.0
  0
LINE
  5
A0E6
330
9E3D
100
AcDbEntity
  8
SUNPOU
100
AcDbLine
 10
319.8990772722758
 20
153.1546871397276
 30
0.0
 11
319.8990772722758
 21
205.3597507753454
 31
0.0
  0
LINE
  5
A0E7
330
9E3D
100
AcDbEntity
  8
SUNPOU
100
AcDbLine
 10
256.899037271622
 20
203.8597507753454
 30
0.0
 11
316.8990772722758
 21
203.8597507753454
 31
0.0
  0
INSERT
  5
A0E8
330
9E3D
100
AcDbEntity
  8
SUNPOU
100
AcDbBlockReference
  2
_OPEN
 10
253.899037271622
 20
203.8597507753454
 30
0.0
 41
3.0
 42
3.0
 43
3.0
 50
180.0
  0
INSERT
  5
A0E9
330
9E3D
100
AcDbEntity
  8
SUNPOU
100
AcDbBlockReference
  2
_OPEN
 10
319.8990772722758
 20
203.8597507753454
 30
0.0
 41
3.0
 42
3.0
 43
3.0
  0
MTEXT
  5
A0EA
330
9E3D
100
AcDbEntity
  8
SUNPOU
100
AcDbMText
 10
286.8990572719489
 20
207.8597507753454
 30
0.0
 40
4.0
 41
0.0
 71
     5
 72
     1
  1
\A1;66
 73
     1
 44
1.0
1001
ACAD
1000
MTEXTBEGIN
1070
    73
1070
     1
1070
    44
1040
1.0
1070
    74
1070
     0
1000
MTEXTEND
  0
POINT
  5
A0EB
330
9E3D
100
AcDbEntity
  8
DEFPOINTS
 62
     0
100
AcDbPoint
 10
253.899037271622
 20
151.6546871397276
 30
0.0
  0
POINT
  5
A0EC
330
9E3D
100
AcDbEntity
  8
DEFPOINTS
 62
     0
100
AcDbPoint
 10
319.8990772722758
 20
151.6546871397276
 30
0.0
  0
POINT
  5
A0ED
330
9E3D
100
AcDbEntity
  8
DEFPOINTS
 62
     0
100
AcDbPoint
 10
319.8990772722758
 20
203.8597507753454
 30
0.0
  0
ENDBLK
  5
9E48
330
9E3D
100
AcDbEntity
  8
0
100
AcDbBlockEnd
  0
BLOCK
  5
9FE7
330
9FDD
100
AcDbEntity
  8
0
100
AcDbBlockBegin
  2
*D38
 70
     1
 10
0.0
 20
0.0
 30
0.0
  3
*D38
  1

  0
LINE
  5
A11C
330
9FDD
100
AcDbEntity
  8
SUNPOU
100
AcDbLine
 10
161.2221902486552
 20
109.6547770726914
 30
0.0
 11
188.0840052819268
 21
109.6547770726914
 31
0.0
  0
LINE
  5
A11D
330
9FDD
100
AcDbEntity
  8
SUNPOU
100
AcDbLine
 10
156.2221902486552
 20
84.65467707269127
 30
0.0
 11
188.0840052819268
 21
84.65467707269125
 31
0.0
  0
LINE
  5
A11E
330
9FDD
100
AcDbEntity
  8
SUNPOU
100
AcDbLine
 10
186.5840052819268
 20
106.6547770726914
 30
0.0
 11
186.5840052819268
 21
87.65467707269126
 31
0.0
  0
INSERT
  5
A11F
330
9FDD
100
AcDbEntity
  8
SUNPOU
100
AcDbBlockReference
  2
_OPEN
 10
186.5840052819268
 20
109.6547770726914
 30
0.0
 41
3.0
 42
3.0
 43
3.0
 50
90.0
  0
INSERT
  5
A120
330
9FDD
100
AcDbEntity
  8
SUNPOU
100
AcDbBlockReference
  2
_OPEN
 10
186.5840052819268
 20
84.65467707269125
 30
0.0
 41
3.0
 42
3.0
 43
3.0
 50
270.0
  0
MTEXT
  5
A121
330
9FDD
100
AcDbEntity
  8
SUNPOU
100
AcDbMText
 10
182.5840052819268
 20
97.15472707269146
 30
0.0
 40
4.0
 41
0.0
 71
     5
 72
     1
  1
\A1;25
 11
0.0000000000000001
 21
1.0
 31
0.0
 73
     1
 44
1.0
1001
ACAD
1000
MTEXTBEGIN
1070
    73
1070
     1
1070
    44
1040
1.0
1070
    74
1070
     0
1000
MTEXTEND
  0
POINT
  5
A122
330
9FDD
100
AcDbEntity
  8
DEFPOINTS
 62
     0
100
AcDbPoint
 10
159.7221902486552
 20
109.6547770726914
 30
0.0
  0
POINT
  5
A123
330
9FDD
100
AcDbEntity
  8
DEFPOINTS
 62
     0
100
AcDbPoint
 10
154.7221902486552
 20
84.65467707269127
 30
0.0
  0
POINT
  5
A124
330
9FDD
100
AcDbEntity
  8
DEFPOINTS
 62
     0
100
AcDbPoint
 10
186.5840052819268
 20
84.65467707269125
 30
0.0
  0
ENDBLK
  5
9FE8
330
9FDD
100
AcDbEntity
  8
0
100
AcDbBlockEnd
  0
BLOCK
  5
9FFD
330
9FF3
100
AcDbEntity
  8
0
100
AcDbBlockBegin
  2
*D39
 70
     1
 10
0.0
 20
0.0
 30
0.0
  3
*D39
  1

  0
LINE
  5
A125
330
9FF3
100
AcDbEntity
  8
SUNPOU
100
AcDbLine
 10
136.2221902486552
 20
88.65477707269135
 30
0.0
 11
172.9493105160583
 21
88.65477707269134
 31
0.0
  0
LINE
  5
A126
330
9FF3
100
AcDbEntity
  8
SUNPOU
100
AcDbLine
 10
151.222090248655
 20
105.6547770726913
 30
0.0
 11
172.9493105160583
 21
105.6547770726913
 31
0.0
  0
LINE
  5
A127
330
9FF3
100
AcDbEntity
  8
SUNPOU
100
AcDbLine
 10
171.4493105160583
 20
91.65477707269134
 30
0.0
 11
171.4493105160583
 21
102.6547770726913
 31
0.0
  0
INSERT
  5
A128
330
9FF3
100
AcDbEntity
  8
SUNPOU
100
AcDbBlockReference
  2
_OPEN
 10
171.4493105160583
 20
88.65477707269134
 30
0.0
 41
3.0
 42
3.0
 43
3.0
 50
270.0
  0
INSERT
  5
A129
330
9FF3
100
AcDbEntity
  8
SUNPOU
100
AcDbBlockReference
  2
_OPEN
 10
171.4493105160583
 20
105.6547770726913
 30
0.0
 41
3.0
 42
3.0
 43
3.0
 50
90.0
  0
MTEXT
  5
A12A
330
9FF3
100
AcDbEntity
  8
SUNPOU
100
AcDbMText
 10
167.4493105160583
 20
97.15477707269144
 30
0.0
 40
4.0
 41
0.0
 71
     5
 72
     1
  1
\A1;17
 11
0.0000000000000001
 21
1.0
 31
0.0
 73
     1
 44
1.0
1001
ACAD
1000
MTEXTBEGIN
1070
    73
1070
     1
1070
    44
1040
1.0
1070
    74
1070
     0
1000
MTEXTEND
  0
POINT
  5
A12B
330
9FF3
100
AcDbEntity
  8
DEFPOINTS
 62
     0
100
AcDbPoint
 10
134.7221902486552
 20
88.65477707269135
 30
0.0
  0
POINT
  5
A12C
330
9FF3
100
AcDbEntity
  8
DEFPOINTS
 62
     0
100
AcDbPoint
 10
149.722090248655
 20
105.6547770726913
 30
0.0
  0
POINT
  5
A12D
330
9FF3
100
AcDbEntity
  8
DEFPOINTS
 62
     0
100
AcDbPoint
 10
171.4493105160583
 20
105.6547770726913
 30
0.0
  0
ENDBLK
  5
9FFE
330
9FF3
100
AcDbEntity
  8
0
100
AcDbBlockEnd
  0
BLOCK
  5
A02A
330
A01F
100
AcDbEntity
  8
0
100
AcDbBlockBegin
  2
*D40
 70
     1
 10
0.0
 20
0.0
 30
0.0
  3
*D40
  1

  0
LINE
  5
A138
330
A01F
100
AcDbEntity
  8
SUNPOU
100
AcDbLine
 10
128.3393835865932
 20
85.65470886147897
 30
0.0
 11
129.8805816303842
 21
85.65470886147897
 31
0.0
  0
LINE
  5
A139
330
A01F
100
AcDbEntity
  8
SUNPOU
100
AcDbLine
 10
128.3393835865931
 20
84.65467707269127
 30
0.0
 11
129.8805816303842
 21
84.65467707269127
 31
0.0
  0
LINE
  5
A13A
330
A01F
100
AcDbEntity
  8
SUNPOU
100
AcDbLine
 10
128.3805816303842
 20
88.65470886147898
 30
0.0
 11
128.3805816303842
 21
91.65470886147899
 31
0.0
  0
LINE
  5
A13B
330
A01F
100
AcDbEntity
  8
SUNPOU
100
AcDbLine
 10
128.3805816303842
 20
81.65467707269128
 30
0.0
 11
128.3805816303842
 21
69.32134373935794
 31
0.0
  0
INSERT
  5
A13C
330
A01F
100
AcDbEntity
  8
SUNPOU
100
AcDbBlockReference
  2
_OPEN
 10
128.3805816303842
 20
85.65470886147897
 30
0.0
 41
3.0
 42
3.0
 43
3.0
 50
270.0
  0
INSERT
  5
A13D
330
A01F
100
AcDbEntity
  8
SUNPOU
100
AcDbBlockReference
  2
_OPEN
 10
128.3805816303842
 20
84.65467707269127
 30
0.0
 41
3.0
 42
3.0
 43
3.0
 50
90.0
  0
MTEXT
  5
A13E
330
A01F
100
AcDbEntity
  8
SUNPOU
100
AcDbMText
 10
124.3805816303841
 20
73.98801040602461
 30
0.0
 40
4.0
 41
0.0
 71
     5
 72
     1
  1
\A1;t1
 11
0.0000000000000001
 21
1.0
 31
0.0
 73
     1
 44
1.0
1001
ACAD
1000
MTEXTBEGIN
1070
    73
1070
     1
1070
    44
1040
1.0
1070
    74
1070
     0
1000
MTEXTEND
  0
POINT
  5
A13F
330
A01F
100
AcDbEntity
  8
DEFPOINTS
 62
     0
100
AcDbPoint
 10
126.8393835865931
 20
85.65470886147897
 30
0.0
  0
POINT
  5
A140
330
A01F
100
AcDbEntity
  8
DEFPOINTS
 62
     0
100
AcDbPoint
 10
126.8393835865931
 20
84.65467707269127
 30
0.0
  0
POINT
  5
A141
330
A01F
100
AcDbEntity
  8
DEFPOINTS
 62
     0
100
AcDbPoint
 10
128.3805816303842
 20
84.65467707269127
 30
0.0
  0
ENDBLK
  5
A02B
330
A01F
100
AcDbEntity
  8
0
100
AcDbBlockEnd
  0
BLOCK
  5
A14D
330
A143
100
AcDbEntity
  8
0
100
AcDbBlockBegin
  2
*D41
 70
     1
 10
0.0
 20
0.0
 30
0.0
  3
*D41
  1

  0
LINE
  5
A14F
330
A143
100
AcDbEntity
  8
SUNPOU
100
AcDbLine
 10
119.722090248655
 20
84.15467707269128
 30
0.0
 11
119.722090248655
 21
59.48593039605293
 31
0.0
  0
LINE
  5
A150
330
A143
100
AcDbEntity
  8
SUNPOU
100
AcDbLine
 10
154.7221902486552
 20
83.15467707269126
 30
0.0
 11
154.7221902486552
 21
59.48593039605293
 31
0.0
  0
LINE
  5
A151
330
A143
100
AcDbEntity
  8
SUNPOU
100
AcDbLine
 10
122.722090248655
 20
60.98593039605294
 30
0.0
 11
151.7221902486552
 21
60.98593039605294
 31
0.0
  0
INSERT
  5
A152
330
A143
100
AcDbEntity
  8
SUNPOU
100
AcDbBlockReference
  2
_OPEN
 10
119.722090248655
 20
60.98593039605294
 30
0.0
 41
3.0
 42
3.0
 43
3.0
 50
180.0
  0
INSERT
  5
A153
330
A143
100
AcDbEntity
  8
SUNPOU
100
AcDbBlockReference
  2
_OPEN
 10
154.7221902486552
 20
60.98593039605294
 30
0.0
 41
3.0
 42
3.0
 43
3.0
  0
MTEXT
  5
A154
330
A143
100
AcDbEntity
  8
SUNPOU
100
AcDbMText
 10
137.2221402486551
 20
64.98593039605293
 30
0.0
 40
4.0
 41
0.0
 71
     5
 72
     1
  1
\A1;35
 73
     1
 44
1.0
1001
ACAD
1000
MTEXTBEGIN
1070
    73
1070
     1
1070
    44
1040
1.0
1070
    74
1070
     0
1000
MTEXTEND
  0
POINT
  5
A155
330
A143
100
AcDbEntity
  8
DEFPOINTS
 62
     0
100
AcDbPoint
 10
119.722090248655
 20
85.65467707269126
 30
0.0
  0
POINT
  5
A156
330
A143
100
AcDbEntity
  8
DEFPOINTS
 62
     0
100
AcDbPoint
 10
154.7221902486552
 20
84.65467707269127
 30
0.0
  0
POINT
  5
A157
330
A143
100
AcDbEntity
  8
DEFPOINTS
 62
     0
100
AcDbPoint
 10
154.7221902486552
 20
60.98593039605294
 30
0.0
  0
ENDBLK
  5
A14E
330
A143
100
AcDbEntity
  8
0
100
AcDbBlockEnd
  0
ENDSEC
  0
SECTION
  2
ENTITIES
  0
LWPOLYLINE
  5
3B1A
330
1A
100
AcDbEntity
  8
ZUWAKU
100
AcDbPolyline
 90
        4
 70
     1
 43
0.0
 10
0.4000002112909442
 20
275.4000003333167
 10
0.4000002112909442
 20
0.4000003333167684
 10
398.4000002112909
 20
0.4000003333167684
 10
398.4000002112909
 20
275.4000003333167
  0
LWPOLYLINE
  5
3B1B
330
1A
100
AcDbEntity
  8
ZUWAKU
100
AcDbPolyline
 90
        4
 70
     1
 43
0.0
 10
0.2000002112910124
 20
275.6000003333167
 10
0.2000002112910124
 20
0.2000003333167797
 10
398.6000002112908
 20
0.2000003333167655
 10
398.6000002112908
 20
275.6000003333167
  0
LWPOLYLINE
  5
3B1C
330
1A
100
AcDbEntity
  8
ZUWAKU
100
AcDbPolyline
 90
        4
 70
     1
 43
0.0
 10
0.0000002112909669
 20
275.8000003333167
 10
0.0000002112909669
 20
0.0000003333167342
 10
398.8000002112912
 20
0.0000003333167697
 10
398.8000002112912
 20
275.8000003333167
  0
LWPOLYLINE
  5
3B1D
330
1A
100
AcDbEntity
  8
ZUWAKU
100
AcDbPolyline
 90
        4
 70
     1
 43
0.0
 10
0.3000002112909215
 20
275.5000003333167
 10
0.3000002112909215
 20
0.3000003333167456
 10
398.5000002112909
 20
0.3000003333167669
 10
398.5000002112909
 20
275.5000003333167
  0
LWPOLYLINE
  5
3B1E
330
1A
100
AcDbEntity
  8
ZUWAKU
100
AcDbPolyline
 90
        4
 70
     1
 43
0.0
 10
0.100000211290876
 20
275.7000003333167
 10
0.100000211290876
 20
0.1000003333167569
 10
398.7000002112907
 20
0.1000003333167712
 10
398.7000002112909
 20
275.7000003333167
  0
LINE
  5
3B1F
330
1A
100
AcDbEntity
  8
ZUWAKU
100
AcDbLine
 10
0.0000002112909669
 20
15.00000033331673
 30
0.0
 11
398.7000002112907
 21
15.00000033331673
 31
0.0
  0
LINE
  5
3B20
330
1A
100
AcDbEntity
  8
ZUWAKU
100
AcDbLine
 10
0.0000002112909669
 20
15.10000033331675
 30
0.0
 11
398.7000002112907
 21
15.10000033331675
 31
0.0
  0
LINE
  5
3B21
330
1A
100
AcDbEntity
  8
ZUWAKU
100
AcDbLine
 10
0.0000002112909669
 20
15.20000033331672
 30
0.0
 11
398.7000002112907
 21
15.20000033331672
 31
0.0
  0
LINE
  5
3B22
330
1A
100
AcDbEntity
  8
ZUWAKU
100
AcDbLine
 10
0.0000002112909669
 20
15.30000033331674
 30
0.0
 11
398.7000002112907
 21
15.30000033331674
 31
0.0
  0
LINE
  5
3B23
330
1A
100
AcDbEntity
  8
ZUWAKU
100
AcDbLine
 10
0.0000002112909669
 20
15.40000033331671
 30
0.0
 11
398.7000002112907
 21
15.40000033331671
 31
0.0
  0
LINE
  5
3B24
330
1A
100
AcDbEntity
  8
ZUWAKU
100
AcDbLine
 10
104.3233008563249
 20
7.700000333316777
 30
0.0
 11
223.7121821967865
 21
7.700000333316777
 31
0.0
  0
LINE
  5
3B25
330
1A
100
AcDbEntity
  8
ZUWAKU
100
AcDbLine
 10
104.3233008563249
 20
7.800000333316744
 30
0.0
 11
223.7121821967865
 21
7.800000333316744
 31
0.0
  0
LINE
  5
3B26
330
1A
100
AcDbEntity
  8
ZUWAKU
100
AcDbLine
 10
104.3233008563249
 20
7.600000333316755
 30
0.0
 11
223.7121821967865
 21
7.600000333316755
 31
0.0
  0
ARC
  5
3B30
330
1A
100
AcDbEntity
  8
ZUWAKU
100
AcDbCircle
 10
7.046106288681471
 20
10.22500033331675
 30
0.0
 40
1.399999999999999
100
AcDbArc
 50
90.0
 51
180.0
  0
ARC
  5
3B31
330
1A
100
AcDbEntity
  8
ZUWAKU
100
AcDbCircle
 10
6.171106288681471
 20
4.712500333316711
 30
0.0
 40
0.2625
100
AcDbArc
 50
90.0
 51
180.0
  0
ARC
  5
3B32
330
1A
100
AcDbEntity
  8
ZUWAKU
100
AcDbCircle
 10
6.171106288681471
 20
3.837500333316711
 30
0.0
 40
0.2625
100
AcDbArc
 50
180.0
 51
270.0
  0
ARC
  5
3B33
330
1A
100
AcDbEntity
  8
ZUWAKU
100
AcDbCircle
 10
7.746106288681517
 20
9.317399320639085
 30
0.0
 40
2.099999999999999
100
AcDbArc
 50
180.0
 51
224.9999999999997
  0
INSERT
  5
3B34
330
1A
100
AcDbEntity
  8
ZUWAKU
  6
Continuous
100
AcDbBlockReference
  2
*X1
 10
0.0000004678039431
 20
-0.0000000061329501
 30
0.0
1001
ACAD
1000
HATCH
1002
{
1070
    19
1000
ANSI37
1040
0.1
1040
0.0
1000
R14_HATCH_DATA
1000
585
1011
1.000000467803942
1021
-0.0000000061329501
1031
0.0
1011
0.0000004678039431
1021
0.9999999938670498
1031
0.0
1011
0.0000004678039431
1021
-0.0000000061329501
1031
1.0
1040
0.0
1010
0.0
1020
0.0
1030
1.0
1000
ANSI37
1070
     0
1070
     0
1071
        8
1071
        7
1070
     1
1070
     1
1071
       24
1040
7.251131074046952
1040
8.822424579941474
1040
-0.1989123673796348
1040
7.046105820877585
1040
9.317399326771999
1040
0.0
1040
7.046105820877585
1040
9.96250033944969
1040
-0.4142135623730912
1040
7.308605820877572
1040
10.22500033944968
1040
0.0
1040
8.796105820877526
1040
10.22500033944968
1040
0.4142135623731546
1040
9.058605820877572
1040
10.48750033944968
1040
0.0
1040
9.058605820877572
1040
11.36250033944968
1040
0.4142135623731586
1040
8.796105820877526
1040
11.62500033944968
1040
0.0
1040
7.046105820877585
1040
11.62500033944968
1040
0.4142135623730928
1040
5.646105820877607
1040
10.2250003394497
1040
0.0
1040
5.646105820877607
1040
9.317399326772063
1040
0.1989123673796619
1040
6.261181580385821
1040
7.832475086280261
1040
0.0
1040
7.716080567708161
1040
6.377576098957932
1040
-0.1989123673796613
1040
7.921105820877585
1040
5.882601352127339
1040
0.0
1040
7.921105820877585
1040
5.237500339449681
1040
-0.4142135623730911
1040
7.658605820877595
1040
4.975000339449684
1040
0.0
1040
6.171105820877643
1040
4.975000339449684
1040
0.4142135623731526
1040
5.908605820877595
1040
4.71250033944969
1040
0.0
1040
5.908605820877595
1040
3.837500339449681
1040
0.4142135623731526
1040
6.171105820877643
1040
3.575000339449687
1040
0.0
1040
7.921105820877585
1040
3.575000339449687
1040
0.4142135623731045
1040
9.321105820877619
1040
4.975000339449675
1040
0.0
1040
9.321105820877619
1040
5.882601352127311
1040
0.1989123673796604
1040
8.706030061369347
1040
7.36752559261908
1040
0.0
1071
        0
1071
        7
1070
     1
1070
     1
1071
       16
1040
11.7711058208776
1040
9.52500033944969
1040
-0.4142135623730935
1040
12.47110582087759
1040
10.22500033944968
1040
0.0
1040
13.43360582087757
1040
10.22500033944968
1040
0.4142135623731546
1040
13.69610582087761
1040
10.48750033944968
1040
0.0
1040
13.69610582087761
1040
11.36250033944968
1040
0.4142135623730951
1040
13.43360582087763
1040
11.62500033944968
1040
0.0
1040
12.47110582087754
1040
11.62500033944966
1040
0.4142135623730893
1040
10.37110582087757
1040
9.525000339449654
1040
0.0
1040
10.37110582087757
1040
5.675000339449699
1040
0.4142135623730969
1040
12.47110582087759
1040
3.575000339449687
1040
0.0
1040
13.43360582087757
1040
3.575000339449687
1040
0.4142135623731526
1040
13.69610582087761
1040
3.837500339449681
1040
0.0
1040
13.69610582087761
1040
4.71250033944969
1040
0.4142135623730891
1040
13.43360582087763
1040
4.975000339449684
1040
0.0
1040
12.47110582087759
1040
4.975000339449684
1040
-0.4142135623730928
1040
11.7711058208776
1040
5.675000339449678
1040
0.0
1071
        0
1071
        7
1070
     1
1070
     1
1071
        2
1040
12.12110582087757
1040
7.600000339449684
1040
1.0
1040
13.87110582087757
1040
7.600000339449684
1040
1.0
1071
        0
1071
        7
1070
     1
1070
     1
1071
       26
1040
18.65742906196658
1040
9.602523936231401
1040
0.0
1040
19.18824887853548
1040
11.28345335536619
1040
0.5069206636600134
1040
18.93793342893781
1040
11.62500033944968
1040
0.0
1040
18.08848873913319
1040
11.62500033944968
1040
0.3272098845218764
1040
17.83817328953551
1040
11.44154732353317
1040
0.0
1040
16.90403835221963
1040
8.483453355366226
1040
-0.3272098845219541
1040
16.65372290262189
1040
8.300000339449685
1040
0.0
1040
16.58360582087766
1040
8.300000339449685
1040
-0.4142135623731526
1040
16.32110582087761
1040
8.562500339449679
1040
0.0
1040
16.32110582087761
1040
11.36250033944968
1040
0.4142135623730951
1040
16.05860582087763
1040
11.62500033944968
1040
0.0
1040
15.18360582087757
1040
11.62500033944968
1040
0.4142135623730871
1040
14.92110582087758
1040
11.36250033944969
1040
0.0
1040
14.92110582087758
1040
3.837500339449681
1040
0.4142135623730891
1040
15.18360582087757
1040
3.575000339449687
1040
0.0
1040
16.05860582087757
1040
3.575000339449687
1040
0.4142135623731526
1040
16.32110582087761
1040
3.837500339449681
1040
0.0
1040
16.32110582087761
1040
6.637500339449692
1040
-0.4142135623731526
1040
16.58360582087766
1040
6.900000339449687
1040
0.0
1040
16.65372290262195
1040
6.900000339449687
1040
-0.3272098845218915
1040
16.90403835221963
1040
6.716547323533147
1040
0.0
1040
17.83817328953551
1040
3.758453355366221
1040
0.3272098845218902
1040
18.08848873913319
1040
3.575000339449687
1040
0.0
1040
18.93793342893781
1040
3.575000339449687
1040
0.5069206636600336
1040
19.18824887853548
1040
3.91654732353319
1040
0.0
1040
18.02505318929866
1040
7.600000339449755
1040
0.0
1071
        0
1071
        7
1070
     1
1070
     1
1071
        8
1040
21.74610582087757
1040
11.36250033944969
1040
0.4142135623731546
1040
21.48360582087752
1040
11.62500033944968
1040
0.0
1040
20.60860582087764
1040
11.62500033944968
1040
0.4142135623731507
1040
20.34610582087759
1040
11.36250033944969
1040
0.0
1040
20.34610582087759
1040
3.837500339449681
1040
0.4142135623731526
1040
20.60860582087764
1040
3.575000339449687
1040
0.0
1040
21.48360582087752
1040
3.575000339449687
1040
0.4142135623731526
1040
21.74610582087757
1040
3.837500339449681
1040
0.0
1071
        0
1071
        7
1070
     1
1070
     1
1071
       24
1040
24.19610582087762
1040
9.96250033944969
1040
-0.4142135623731546
1040
24.45860582087766
1040
10.22500033944968
1040
0.0
1040
25.94610582087762
1040
10.22500033944968
1040
0.4142135623730911
1040
26.20860582087761
1040
10.48750033944968
1040
0.0
1040
26.20860582087761
1040
11.36250033944968
1040
0.4142135623730952
1040
25.94610582087762
1040
11.62500033944968
1040
0.0
1040
24.19610582087762
1040
11.62500033944968
1040
0.4142135623731048
1040
22.79610582087757
1040
10.2250003394497
1040
0.0
1040
22.79610582087757
1040
9.317399326772063
1040
0.1989123673796613
1040
23.41118158038586
1040
7.83247508628029
1040
0.0
1040
24.86608056770819
1040
6.377576098957955
1040
-0.1989123673796402
1040
25.07110582087761
1040
5.882601352127418
1040
0.0
1040
25.07110582087761
1040
5.237500339449681
1040
-0.4142135623730911
1040
24.80860582087763
1040
4.975000339449684
1040
0.0
1040
23.32110582087762
1040
4.975000339449684
1040
0.4142135623731526
1040
23.05860582087757
1040
4.71250033944969
1040
0.0
1040
23.05860582087757
1040
3.837500339449681
1040
0.4142135623730891
1040
23.32110582087755
1040
3.575000339449687
1040
0.0
1040
25.07110582087761
1040
3.575000339449687
1040
0.4142135623730925
1040
26.47110582087759
1040
4.975000339449675
1040
0.0
1040
26.47110582087759
1040
5.882601352127311
1040
0.1989123673796675
1040
25.85603006136932
1040
7.367525592619137
1040
0.0
1040
24.40113107404704
1040
8.822424579941396
1040
-0.1989123673796652
1040
24.19610582087762
1040
9.31739932677198
1040
0.0
1071
        0
1071
        7
1070
     1
1070
     1
1071
       16
1040
28.92110582087758
1040
11.36250033944968
1040
0.414213562373103
1040
28.65860582087759
1040
11.62500033944968
1040
0.0
1040
27.78360582087759
1040
11.62500033944968
1040
0.4142135623730871
1040
27.52110582087761
1040
11.36250033944969
1040
0.0
1040
27.52110582087761
1040
4.975000339449675
1040
0.4142135623730927
1040
28.92110582087758
1040
3.575000339449687
1040
0.0
1040
30.67110582087757
1040
3.575000339449687
1040
0.4142135623731045
1040
32.07110582087762
1040
4.975000339449675
1040
0.0
1040
32.07110582087762
1040
11.36250033944968
1040
0.4142135623730951
1040
31.80860582087763
1040
11.62500033944968
1040
0.0
1040
30.93360582087757
1040
11.62500033944968
1040
0.4142135623730871
1040
30.67110582087757
1040
11.36250033944969
1040
0.0
1040
30.67110582087757
1040
5.500000339449672
1040
-0.4142135623730879
1040
30.1461058208776
1040
4.975000339449684
1040
0.0
1040
29.44610582087761
1040
4.975000339449684
1040
-0.4142135623731197
1040
28.92110582087758
1040
5.500000339449672
1040
0.0
1071
        0
1071
        7
1070
     1
1070
     1
1071
        8
1040
34.5211058208776
1040
11.36250033944969
1040
0.4142135623730871
1040
34.25860582087762
1040
11.62500033944968
1040
0.0
1040
33.38360582087762
1040
11.62500033944968
1040
0.4142135623731507
1040
33.12110582087758
1040
11.36250033944969
1040
0.0
1040
33.12110582087758
1040
3.837500339449681
1040
0.4142135623730891
1040
33.38360582087755
1040
3.575000339449687
1040
0.0
1040
34.25860582087762
1040
3.575000339449687
1040
0.4142135623730891
1040
34.5211058208776
1040
3.837500339449681
1040
0.0
1071
        0
1070
     0
1070
     1
1040
0.0
1040
0.1
1070
     0
1070
     2
1040
0.7853981633974483
1040
-450.4711524238524
1040
-6.59999966055028
1040
-0.2245064030267288
1040
0.2245064030267288
1070
     0
1040
2.356194490192344
1040
-450.4711524238524
1040
-6.59999966055028
1040
-0.2245064030267288
1040
-0.2245064030267288
1070
     0
1040
0.057451373970553
1071
        8
1040
8.039927224998677
1040
7.58358716239246
1040
0.0
1040
11.2022572467066
1040
9.42203143067519
1040
0.0
1040
12.58218368631685
1040
7.755941162485044
1040
0.0
1040
15.45702973430559
1040
8.100649162670434
1040
0.0
1040
20.91923575296539
1040
8.330455296441241
1040
0.0
1040
23.44910019105179
1040
9.709288497653288
1040
0.0
1040
28.2788427296872
1040
9.364579296997193
1040
0.0
1040
33.91353955329839
1040
9.594385430767999
1040
0.0
1002
}
  0
LINE
  5
3B35
330
1A
100
AcDbEntity
  8
ZUWAKU
100
AcDbLine
 10
5.908606288681538
 20
3.837500333316711
 30
0.0
 11
5.908606288681538
 21
4.712500333316711
 31
0.0
  0
LINE
  5
3B36
330
1A
100
AcDbEntity
  8
ZUWAKU
100
AcDbLine
 10
5.646106288681607
 20
10.22500033331675
 30
0.0
 11
5.646106288681607
 21
9.317399320639085
 31
0.0
  0
LINE
  5
3B37
330
1A
100
AcDbEntity
  8
ZUWAKU
100
AcDbLine
 10
39.56331498528516
 20
15.00000033331673
 30
0.0
 11
39.56331498528516
 21
0.4000003333167684
 31
0.0
  0
LINE
  5
3B38
330
1A
100
AcDbEntity
  8
ZUWAKU
100
AcDbLine
 10
39.76331498528509
 20
15.00000033331673
 30
0.0
 11
39.7633149852852
 21
0.4000003333167684
 31
0.0
  0
LINE
  5
3B39
330
1A
100
AcDbEntity
  8
ZUWAKU
100
AcDbLine
 10
39.66331498528507
 20
15.00000033331673
 30
0.0
 11
39.66331498528518
 21
0.4000003333167684
 31
0.0
  0
ARC
  5
3B3A
330
1A
100
AcDbEntity
  8
ZUWAKU
100
AcDbCircle
 10
24.19610628868156
 20
10.22500033331675
 30
0.0
 40
1.399999999999999
100
AcDbArc
 50
90.0
 51
180.0
  0
LINE
  5
3B3B
330
1A
100
AcDbEntity
  8
ZUWAKU
100
AcDbLine
 10
8.70603052917329
 20
7.367525586486124
 30
0.0
 11
7.251131541850894
 21
8.822424573808461
 31
0.0
  0
LINE
  5
3B3C
330
1A
100
AcDbEntity
  8
ZUWAKU
100
AcDbLine
 10
10.37110628868151
 20
5.675000333316744
 30
0.0
 11
10.37110628868151
 21
9.525000333316713
 31
0.0
  0
LINE
  5
3B3D
330
1A
100
AcDbEntity
  8
ZUWAKU
100
AcDbLine
 10
11.7711062886816
 20
9.525000333316713
 30
0.0
 11
11.7711062886816
 21
5.675000333316744
 31
0.0
  0
CIRCLE
  5
3B3E
330
1A
100
AcDbEntity
  8
ZUWAKU
100
AcDbCircle
 10
12.99610628868151
 20
7.600000333316755
 30
0.0
 40
0.875
  0
ARC
  5
3B3F
330
1A
100
AcDbEntity
  8
ZUWAKU
100
AcDbCircle
 10
12.47110628868154
 20
5.675000333316744
 30
0.0
 40
2.099999999999999
100
AcDbArc
 50
180.0
 51
270.0
  0
LINE
  5
3B40
330
1A
100
AcDbEntity
  8
ZUWAKU
100
AcDbLine
 10
9.321106288681562
 20
4.975000333316756
 30
0.0
 11
9.321106288681562
 21
5.882601345994429
 31
0.0
  0
LINE
  5
3B41
330
1A
100
AcDbEntity
  8
ZUWAKU
100
AcDbLine
 10
6.261182048189766
 20
7.832475080147331
 30
0.0
 11
7.716081035512048
 21
6.377576092824995
 31
0.0
  0
LINE
  5
3B42
330
1A
100
AcDbEntity
  8
ZUWAKU
100
AcDbLine
 10
6.171106288681471
 20
4.975000333316756
 30
0.0
 11
7.658606288681538
 21
4.975000333316756
 31
0.0
  0
LINE
  5
3B43
330
1A
100
AcDbEntity
  8
ZUWAKU
100
AcDbLine
 10
6.171106288681471
 20
3.575000333316721
 30
0.0
 11
7.921106288681471
 21
3.575000333316721
 31
0.0
  0
ARC
  5
3B44
330
1A
100
AcDbEntity
  8
ZUWAKU
100
AcDbCircle
 10
7.221106288681538
 20
5.882601345994429
 30
0.0
 40
0.7
100
AcDbArc
 50
0.0
 51
44.99999999999971
  0
ARC
  5
3B45
330
1A
100
AcDbEntity
  8
ZUWAKU
100
AcDbCircle
 10
7.658606288681538
 20
5.237500333316745
 30
0.0
 40
0.2625
100
AcDbArc
 50
270.0
 51
0.0
  0
LINE
  5
3B46
330
1A
100
AcDbEntity
  8
ZUWAKU
100
AcDbLine
 10
7.921106288681471
 20
5.237500333316745
 30
0.0
 11
7.921106288681471
 21
5.882601345994429
 31
0.0
  0
ARC
  5
3B47
330
1A
100
AcDbEntity
  8
ZUWAKU
100
AcDbCircle
 10
7.221106288681538
 20
5.882601345994372
 30
0.0
 40
2.099999999999999
100
AcDbArc
 50
0.0
 51
44.99999999999971
  0
ARC
  5
3B48
330
1A
100
AcDbEntity
  8
ZUWAKU
100
AcDbCircle
 10
7.921106288681471
 20
4.975000333316756
 30
0.0
 40
1.399999999999999
100
AcDbArc
 50
270.0
 51
0.0
  0
ARC
  5
3B49
330
1A
100
AcDbEntity
  8
ZUWAKU
100
AcDbCircle
 10
13.43360628868151
 20
4.712500333316711
 30
0.0
 40
0.2625
100
AcDbArc
 50
0.0
 51
90.0
  0
ARC
  5
3B4A
330
1A
100
AcDbEntity
  8
ZUWAKU
100
AcDbCircle
 10
13.43360628868151
 20
3.837500333316711
 30
0.0
 40
0.2625
100
AcDbArc
 50
270.0
 51
0.0
  0
LINE
  5
3B4B
330
1A
100
AcDbEntity
  8
ZUWAKU
100
AcDbLine
 10
13.69610628868156
 20
4.712500333316711
 30
0.0
 11
13.69610628868156
 21
3.837500333316711
 31
0.0
  0
ARC
  5
3B4C
330
1A
100
AcDbEntity
  8
ZUWAKU
100
AcDbCircle
 10
12.47110628868154
 20
5.675000333316744
 30
0.0
 40
0.7
100
AcDbArc
 50
180.0
 51
270.0
  0
LINE
  5
3B4D
330
1A
100
AcDbEntity
  8
ZUWAKU
100
AcDbLine
 10
13.43360628868151
 20
3.575000333316721
 30
0.0
 11
12.47110628868154
 21
3.575000333316721
 31
0.0
  0
LINE
  5
3B4E
330
1A
100
AcDbEntity
  8
ZUWAKU
100
AcDbLine
 10
12.47110628868154
 20
4.975000333316756
 30
0.0
 11
13.43360628868151
 21
4.975000333316756
 31
0.0
  0
ARC
  5
3B4F
330
1A
100
AcDbEntity
  8
ZUWAKU
100
AcDbCircle
 10
12.47110628868154
 20
9.525000333316713
 30
0.0
 40
2.099999999999999
100
AcDbArc
 50
90.0
 51
180.0
  0
LINE
  5
3B50
330
1A
100
AcDbEntity
  8
ZUWAKU
100
AcDbLine
 10
9.058606288681515
 20
11.36250033331674
 30
0.0
 11
9.058606288681515
 21
10.48750033331674
 31
0.0
  0
LINE
  5
3B51
330
1A
100
AcDbEntity
  8
ZUWAKU
100
AcDbLine
 10
8.796106288681469
 20
10.22500033331675
 30
0.0
 11
7.308606288681517
 21
10.22500033331675
 31
0.0
  0
LINE
  5
3B52
330
1A
100
AcDbEntity
  8
ZUWAKU
100
AcDbLine
 10
7.046106288681471
 20
9.962500333316713
 30
0.0
 11
7.046106288681471
 21
9.317399320639085
 31
0.0
  0
ARC
  5
3B53
330
1A
100
AcDbEntity
  8
ZUWAKU
100
AcDbCircle
 10
7.308606288681517
 20
9.962500333316713
 30
0.0
 40
0.2625
100
AcDbArc
 50
90.0
 51
180.0
  0
LINE
  5
3B54
330
1A
100
AcDbEntity
  8
ZUWAKU
100
AcDbLine
 10
7.046106288681471
 20
11.62500033331673
 30
0.0
 11
8.796106288681469
 21
11.62500033331673
 31
0.0
  0
ARC
  5
3B55
330
1A
100
AcDbEntity
  8
ZUWAKU
100
AcDbCircle
 10
8.796106288681469
 20
10.48750033331674
 30
0.0
 40
0.2625
100
AcDbArc
 50
270.0
 51
0.0
  0
ARC
  5
3B56
330
1A
100
AcDbEntity
  8
ZUWAKU
100
AcDbCircle
 10
8.796106288681469
 20
11.36250033331674
 30
0.0
 40
0.2625
100
AcDbArc
 50
0.0
 51
90.0
  0
ARC
  5
3B57
330
1A
100
AcDbEntity
  8
ZUWAKU
100
AcDbCircle
 10
7.746106288681517
 20
9.317399320639085
 30
0.0
 40
0.7
100
AcDbArc
 50
180.0000000000016
 51
224.9999999999991
  0
LINE
  5
3B58
330
1A
100
AcDbEntity
  8
ZUWAKU
100
AcDbLine
 10
13.69610628868156
 20
11.36250033331674
 30
0.0
 11
13.69610628868156
 21
10.48750033331674
 31
0.0
  0
ARC
  5
3B59
330
1A
100
AcDbEntity
  8
ZUWAKU
100
AcDbCircle
 10
13.43360628868151
 20
10.48750033331674
 30
0.0
 40
0.2625
100
AcDbArc
 50
270.0
 51
0.0
  0
ARC
  5
3B5A
330
1A
100
AcDbEntity
  8
ZUWAKU
100
AcDbCircle
 10
13.43360628868151
 20
11.36250033331674
 30
0.0
 40
0.2625
100
AcDbArc
 50
0.0
 51
90.0
  0
ARC
  5
3B5B
330
1A
100
AcDbEntity
  8
ZUWAKU
100
AcDbCircle
 10
12.47110628868154
 20
9.525000333316713
 30
0.0
 40
0.7
100
AcDbArc
 50
90.0
 51
180.0
  0
LINE
  5
3B5C
330
1A
100
AcDbEntity
  8
ZUWAKU
100
AcDbLine
 10
13.43360628868151
 20
10.22500033331675
 30
0.0
 11
12.47110628868154
 21
10.22500033331675
 31
0.0
  0
LINE
  5
3B5D
330
1A
100
AcDbEntity
  8
ZUWAKU
100
AcDbLine
 10
12.47110628868154
 20
11.62500033331673
 30
0.0
 11
13.43360628868151
 21
11.62500033331673
 31
0.0
  0
LINE
  5
3B5E
330
1A
100
AcDbEntity
  8
ZUWAKU
100
AcDbLine
 10
14.92110628868147
 20
11.36250033331674
 30
0.0
 11
14.92110628868147
 21
3.837500333316711
 31
0.0
  0
LINE
  5
3B5F
330
1A
100
AcDbEntity
  8
ZUWAKU
100
AcDbLine
 10
21.74610628868151
 20
3.837500333316711
 30
0.0
 11
21.74610628868151
 21
11.36250033331674
 31
0.0
  0
LINE
  5
3B60
330
1A
100
AcDbEntity
  8
ZUWAKU
100
AcDbLine
 10
20.34610628868154
 20
11.36250033331674
 30
0.0
 11
20.34610628868154
 21
3.837500333316711
 31
0.0
  0
LINE
  5
3B61
330
1A
100
AcDbEntity
  8
ZUWAKU
100
AcDbLine
 10
18.65742952977052
 20
9.60252393009847
 30
0.0
 11
18.0250536571026
 21
7.600000333316755
 31
0.0
  0
LINE
  5
3B62
330
1A
100
AcDbEntity
  8
ZUWAKU
100
AcDbLine
 10
19.18824934633937
 20
3.916547317400214
 30
0.0
 11
18.0250536571026
 21
7.600000333316755
 31
0.0
  0
LINE
  5
3B63
330
1A
100
AcDbEntity
  8
ZUWAKU
100
AcDbLine
 10
18.08848920693719
 20
3.575000333316721
 30
0.0
 11
18.93793389674169
 21
3.575000333316721
 31
0.0
  0
ARC
  5
3B64
330
1A
100
AcDbEntity
  8
ZUWAKU
100
AcDbCircle
 10
18.08848920693719
 20
3.837500333316711
 30
0.0
 40
0.2625
100
AcDbArc
 50
197.525568373723
 51
270.0
  0
ARC
  5
3B65
330
1A
100
AcDbEntity
  8
ZUWAKU
100
AcDbCircle
 10
16.5836062886816
 20
6.637500333316722
 30
0.0
 40
0.2625
100
AcDbArc
 50
90.0
 51
180.0
  0
ARC
  5
3B66
330
1A
100
AcDbEntity
  8
ZUWAKU
100
AcDbCircle
 10
16.65372337042583
 20
6.637500333316722
 30
0.0
 40
0.2625
100
AcDbArc
 50
17.52556837372303
 51
90.0
  0
ARC
  5
3B67
330
1A
100
AcDbEntity
  8
ZUWAKU
100
AcDbCircle
 10
15.18360628868151
 20
3.837500333316711
 30
0.0
 40
0.2625
100
AcDbArc
 50
180.0
 51
270.0
  0
LINE
  5
3B68
330
1A
100
AcDbEntity
  8
ZUWAKU
100
AcDbLine
 10
16.32110628868156
 20
3.837500333316711
 30
0.0
 11
16.32110628868156
 21
6.637500333316722
 31
0.0
  0
ARC
  5
3B69
330
1A
100
AcDbEntity
  8
ZUWAKU
100
AcDbCircle
 10
16.05860628868151
 20
3.837500333316711
 30
0.0
 40
0.2625
100
AcDbArc
 50
270.0
 51
0.0
  0
LINE
  5
3B6A
330
1A
100
AcDbEntity
  8
ZUWAKU
100
AcDbLine
 10
15.18360628868151
 20
3.575000333316721
 30
0.0
 11
16.05860628868151
 21
3.575000333316721
 31
0.0
  0
LINE
  5
3B6B
330
1A
100
AcDbEntity
  8
ZUWAKU
100
AcDbLine
 10
16.5836062886816
 20
6.900000333316711
 30
0.0
 11
16.65372337042583
 21
6.900000333316711
 31
0.0
  0
LINE
  5
3B6C
330
1A
100
AcDbEntity
  8
ZUWAKU
100
AcDbLine
 10
17.8381737573394
 20
3.758453349233263
 30
0.0
 11
16.90403882002363
 21
6.716547317400228
 31
0.0
  0
ARC
  5
3B6D
330
1A
100
AcDbEntity
  8
ZUWAKU
100
AcDbCircle
 10
21.48360628868147
 20
3.837500333316711
 30
0.0
 40
0.2625
100
AcDbArc
 50
270.0
 51
0.0
  0
ARC
  5
3B6E
330
1A
100
AcDbEntity
  8
ZUWAKU
100
AcDbCircle
 10
18.93793389674169
 20
3.837500333316711
 30
0.0
 40
0.2625
100
AcDbArc
 50
270.0
 51
17.52556837372303
  0
ARC
  5
3B6F
330
1A
100
AcDbEntity
  8
ZUWAKU
100
AcDbCircle
 10
20.60860628868147
 20
3.837500333316711
 30
0.0
 40
0.2625
100
AcDbArc
 50
180.0
 51
270.0
  0
LINE
  5
3B70
330
1A
100
AcDbEntity
  8
ZUWAKU
100
AcDbLine
 10
20.60860628868147
 20
3.575000333316721
 30
0.0
 11
21.48360628868147
 21
3.575000333316721
 31
0.0
  0
LINE
  5
3B71
330
1A
100
AcDbEntity
  8
ZUWAKU
100
AcDbLine
 10
18.08848920693719
 20
11.62500033331673
 30
0.0
 11
18.93793389674169
 21
11.62500033331673
 31
0.0
  0
ARC
  5
3B72
330
1A
100
AcDbEntity
  8
ZUWAKU
100
AcDbCircle
 10
18.08848920693719
 20
11.36250033331674
 30
0.0
 40
0.2625
100
AcDbArc
 50
90.0
 51
162.4744316262769
  0
ARC
  5
3B73
330
1A
100
AcDbEntity
  8
ZUWAKU
100
AcDbCircle
 10
15.18360628868151
 20
11.36250033331674
 30
0.0
 40
0.2625
100
AcDbArc
 50
90.0
 51
180.0
  0
LINE
  5
3B74
330
1A
100
AcDbEntity
  8
ZUWAKU
100
AcDbLine
 10
16.05860628868151
 20
11.62500033331673
 30
0.0
 11
15.18360628868151
 21
11.62500033331673
 31
0.0
  0
ARC
  5
3B75
330
1A
100
AcDbEntity
  8
ZUWAKU
100
AcDbCircle
 10
16.05860628868151
 20
11.36250033331674
 30
0.0
 40
0.2625
100
AcDbArc
 50
0.0
 51
90.0
  0
ARC
  5
3B76
330
1A
100
AcDbEntity
  8
ZUWAKU
100
AcDbCircle
 10
16.5836062886816
 20
8.562500333316734
 30
0.0
 40
0.2625
100
AcDbArc
 50
180.0
 51
270.0
  0
LINE
  5
3B77
330
1A
100
AcDbEntity
  8
ZUWAKU
100
AcDbLine
 10
16.65372337042583
 20
8.300000333316743
 30
0.0
 11
16.5836062886816
 21
8.300000333316743
 31
0.0
  0
ARC
  5
3B78
330
1A
100
AcDbEntity
  8
ZUWAKU
100
AcDbCircle
 10
16.65372337042583
 20
8.562500333316734
 30
0.0
 40
0.2625
100
AcDbArc
 50
270.0
 51
342.474431626277
  0
LINE
  5
3B79
330
1A
100
AcDbEntity
  8
ZUWAKU
100
AcDbLine
 10
17.8381737573394
 20
11.44154731740025
 30
0.0
 11
16.90403882002363
 21
8.483453349233228
 31
0.0
  0
LINE
  5
3B7A
330
1A
100
AcDbEntity
  8
ZUWAKU
100
AcDbLine
 10
16.32110628868156
 20
8.562500333316734
 30
0.0
 11
16.32110628868156
 21
11.36250033331674
 31
0.0
  0
ARC
  5
3B7B
330
1A
100
AcDbEntity
  8
ZUWAKU
100
AcDbCircle
 10
21.48360628868147
 20
11.36250033331674
 30
0.0
 40
0.2625
100
AcDbArc
 50
0.0
 51
90.0
  0
LINE
  5
3B7C
330
1A
100
AcDbEntity
  8
ZUWAKU
100
AcDbLine
 10
19.18824934633937
 20
11.28345334923324
 30
0.0
 11
18.65742952977052
 21
9.60252393009847
 31
0.0
  0
ARC
  5
3B7D
330
1A
100
AcDbEntity
  8
ZUWAKU
100
AcDbCircle
 10
18.93793389674169
 20
11.36250033331674
 30
0.0
 40
0.2625
100
AcDbArc
 50
342.474431626277
 51
90.0
  0
ARC
  5
3B7E
330
1A
100
AcDbEntity
  8
ZUWAKU
100
AcDbCircle
 10
20.60860628868147
 20
11.36250033331674
 30
0.0
 40
0.2625
100
AcDbArc
 50
90.0
 51
180.0
  0
LINE
  5
3B7F
330
1A
100
AcDbEntity
  8
ZUWAKU
100
AcDbLine
 10
21.48360628868147
 20
11.62500033331673
 30
0.0
 11
20.60860628868147
 21
11.62500033331673
 31
0.0
  0
ARC
  5
3B80
330
1A
100
AcDbEntity
  8
ZUWAKU
100
AcDbCircle
 10
30.93360628868151
 20
11.36250033331674
 30
0.0
 40
0.2625
100
AcDbArc
 50
90.0
 51
180.0
  0
ARC
  5
3B81
330
1A
100
AcDbEntity
  8
ZUWAKU
100
AcDbCircle
 10
30.1461062886816
 20
5.500000333316734
 30
0.0
 40
0.525
100
AcDbArc
 50
270.0
 51
0.0
  0
ARC
  5
3B82
330
1A
100
AcDbEntity
  8
ZUWAKU
100
AcDbCircle
 10
30.67110628868147
 20
4.975000333316756
 30
0.0
 40
1.399999999999999
100
AcDbArc
 50
270.0
 51
0.0
  0
LINE
  5
3B83
330
1A
100
AcDbEntity
  8
ZUWAKU
100
AcDbLine
 10
25.85603052917338
 20
7.367525586486124
 30
0.0
 11
24.40113154185099
 21
8.822424573808461
 31
0.0
  0
LINE
  5
3B84
330
1A
100
AcDbEntity
  8
ZUWAKU
100
AcDbLine
 10
28.92110628868147
 20
5.500000333316734
 30
0.0
 11
28.92110628868147
 21
11.36250033331674
 31
0.0
  0
LINE
  5
3B85
330
1A
100
AcDbEntity
  8
ZUWAKU
100
AcDbLine
 10
27.52110628868161
 20
11.36250033331674
 30
0.0
 11
27.52110628868161
 21
4.975000333316756
 31
0.0
  0
ARC
  5
3B86
330
1A
100
AcDbEntity
  8
ZUWAKU
100
AcDbCircle
 10
24.8961062886816
 20
9.317399320639085
 30
0.0
 40
2.099999999999999
100
AcDbArc
 50
180.0
 51
224.9999999999997
  0
LINE
  5
3B87
330
1A
100
AcDbEntity
  8
ZUWAKU
100
AcDbLine
 10
30.67110628868147
 20
11.36250033331674
 30
0.0
 11
30.67110628868147
 21
5.500000333316734
 31
0.0
  0
ARC
  5
3B88
330
1A
100
AcDbEntity
  8
ZUWAKU
100
AcDbCircle
 10
25.07110628868156
 20
4.975000333316756
 30
0.0
 40
1.399999999999999
100
AcDbArc
 50
270.0
 51
0.0
  0
ARC
  5
3B89
330
1A
100
AcDbEntity
  8
ZUWAKU
100
AcDbCircle
 10
24.37110628868151
 20
5.882601345994372
 30
0.0
 40
2.099999999999999
100
AcDbArc
 50
0.0
 51
44.99999999999971
  0
LINE
  5
3B8A
330
1A
100
AcDbEntity
  8
ZUWAKU
100
AcDbLine
 10
26.47110628868154
 20
4.975000333316756
 30
0.0
 11
26.47110628868154
 21
5.882601345994429
 31
0.0
  0
LINE
  5
3B8B
330
1A
100
AcDbEntity
  8
ZUWAKU
100
AcDbLine
 10
23.41118204818974
 20
7.832475080147331
 30
0.0
 11
24.86608103551214
 21
6.377576092824995
 31
0.0
  0
LINE
  5
3B8C
330
1A
100
AcDbEntity
  8
ZUWAKU
100
AcDbLine
 10
23.32110628868156
 20
3.575000333316721
 30
0.0
 11
25.07110628868156
 21
3.575000333316721
 31
0.0
  0
LINE
  5
3B8D
330
1A
100
AcDbEntity
  8
ZUWAKU
100
AcDbLine
 10
23.32110628868156
 20
4.975000333316756
 30
0.0
 11
24.80860628868152
 21
4.975000333316756
 31
0.0
  0
ARC
  5
3B8E
330
1A
100
AcDbEntity
  8
ZUWAKU
100
AcDbCircle
 10
23.32110628868156
 20
4.712500333316711
 30
0.0
 40
0.2625
100
AcDbArc
 50
90.0
 51
180.0
  0
ARC
  5
3B8F
330
1A
100
AcDbEntity
  8
ZUWAKU
100
AcDbCircle
 10
23.32110628868156
 20
3.837500333316711
 30
0.0
 40
0.2625
100
AcDbArc
 50
180.0
 51
270.0
  0
LINE
  5
3B90
330
1A
100
AcDbEntity
  8
ZUWAKU
100
AcDbLine
 10
23.05860628868151
 20
3.837500333316711
 30
0.0
 11
23.05860628868151
 21
4.712500333316711
 31
0.0
  0
ARC
  5
3B91
330
1A
100
AcDbEntity
  8
ZUWAKU
100
AcDbCircle
 10
24.80860628868152
 20
5.237500333316745
 30
0.0
 40
0.2625
100
AcDbArc
 50
270.0
 51
0.0
  0
ARC
  5
3B92
330
1A
100
AcDbEntity
  8
ZUWAKU
100
AcDbCircle
 10
24.37110628868151
 20
5.882601345994429
 30
0.0
 40
0.7
100
AcDbArc
 50
0.0
 51
44.99999999999971
  0
LINE
  5
3B93
330
1A
100
AcDbEntity
  8
ZUWAKU
100
AcDbLine
 10
25.07110628868156
 20
5.237500333316745
 30
0.0
 11
25.07110628868156
 21
5.882601345994429
 31
0.0
  0
ARC
  5
3B94
330
1A
100
AcDbEntity
  8
ZUWAKU
100
AcDbCircle
 10
29.44610628868156
 20
5.500000333316734
 30
0.0
 40
0.525
100
AcDbArc
 50
180.0
 51
270.0
  0
ARC
  5
3B95
330
1A
100
AcDbEntity
  8
ZUWAKU
100
AcDbCircle
 10
28.92110628868147
 20
4.975000333316756
 30
0.0
 40
1.399999999999999
100
AcDbArc
 50
180.0
 51
270.0
  0
LINE
  5
3B96
330
1A
100
AcDbEntity
  8
ZUWAKU
100
AcDbLine
 10
28.92110628868147
 20
3.575000333316721
 30
0.0
 11
30.67110628868147
 21
3.575000333316721
 31
0.0
  0
LINE
  5
3B97
330
1A
100
AcDbEntity
  8
ZUWAKU
100
AcDbLine
 10
30.1461062886816
 20
4.975000333316756
 30
0.0
 11
29.44610628868156
 21
4.975000333316756
 31
0.0
  0
LINE
  5
3B98
330
1A
100
AcDbEntity
  8
ZUWAKU
100
AcDbLine
 10
26.20860628868161
 20
11.36250033331674
 30
0.0
 11
26.20860628868161
 21
10.48750033331674
 31
0.0
  0
ARC
  5
3B99
330
1A
100
AcDbEntity
  8
ZUWAKU
100
AcDbCircle
 10
25.94610628868156
 20
10.48750033331674
 30
0.0
 40
0.2625
100
AcDbArc
 50
270.0
 51
0.0
  0
ARC
  5
3B9A
330
1A
100
AcDbEntity
  8
ZUWAKU
100
AcDbCircle
 10
25.94610628868156
 20
11.36250033331674
 30
0.0
 40
0.2625
100
AcDbArc
 50
0.0
 51
90.0
  0
LINE
  5
3B9B
330
1A
100
AcDbEntity
  8
ZUWAKU
100
AcDbLine
 10
22.79610628868147
 20
10.22500033331675
 30
0.0
 11
22.79610628868147
 21
9.317399320639085
 31
0.0
  0
LINE
  5
3B9C
330
1A
100
AcDbEntity
  8
ZUWAKU
100
AcDbLine
 10
24.19610628868156
 20
9.962500333316713
 30
0.0
 11
24.19610628868156
 21
9.317399320639085
 31
0.0
  0
ARC
  5
3B9D
330
1A
100
AcDbEntity
  8
ZUWAKU
100
AcDbCircle
 10
24.4586062886816
 20
9.962500333316713
 30
0.0
 40
0.2625
100
AcDbArc
 50
90.0
 51
180.0
  0
LINE
  5
3B9E
330
1A
100
AcDbEntity
  8
ZUWAKU
100
AcDbLine
 10
25.94610628868156
 20
10.22500033331675
 30
0.0
 11
24.4586062886816
 21
10.22500033331675
 31
0.0
  0
LINE
  5
3B9F
330
1A
100
AcDbEntity
  8
ZUWAKU
100
AcDbLine
 10
24.19610628868156
 20
11.62500033331673
 30
0.0
 11
25.94610628868156
 21
11.62500033331673
 31
0.0
  0
ARC
  5
3BA0
330
1A
100
AcDbEntity
  8
ZUWAKU
100
AcDbCircle
 10
24.8961062886816
 20
9.317399320639085
 30
0.0
 40
0.7
100
AcDbArc
 50
180.0000000000016
 51
224.9999999999991
  0
LINE
  5
3BA1
330
1A
100
AcDbEntity
  8
ZUWAKU
100
AcDbLine
 10
28.65860628868153
 20
11.62500033331673
 30
0.0
 11
27.78360628868154
 21
11.62500033331673
 31
0.0
  0
ARC
  5
3BA2
330
1A
100
AcDbEntity
  8
ZUWAKU
100
AcDbCircle
 10
27.78360628868154
 20
11.36250033331674
 30
0.0
 40
0.2625
100
AcDbArc
 50
90.0
 51
180.0
  0
ARC
  5
3BA3
330
1A
100
AcDbEntity
  8
ZUWAKU
100
AcDbCircle
 10
28.65860628868153
 20
11.36250033331674
 30
0.0
 40
0.2625
100
AcDbArc
 50
0.0
 51
90.0
  0
LINE
  5
3BA4
330
1A
100
AcDbEntity
  8
ZUWAKU
100
AcDbLine
 10
33.12110628868151
 20
11.36250033331674
 30
0.0
 11
33.12110628868151
 21
3.837500333316711
 31
0.0
  0
LINE
  5
3BA5
330
1A
100
AcDbEntity
  8
ZUWAKU
100
AcDbLine
 10
34.5211062886816
 20
3.837500333316711
 30
0.0
 11
34.5211062886816
 21
11.36250033331674
 31
0.0
  0
LINE
  5
3BA6
330
1A
100
AcDbEntity
  8
ZUWAKU
100
AcDbLine
 10
32.07110628868156
 20
4.975000333316756
 30
0.0
 11
32.07110628868156
 21
11.36250033331674
 31
0.0
  0
ARC
  5
3BA7
330
1A
100
AcDbEntity
  8
ZUWAKU
100
AcDbCircle
 10
34.25860628868156
 20
3.837500333316711
 30
0.0
 40
0.2625
100
AcDbArc
 50
270.0
 51
0.0
  0
ARC
  5
3BA8
330
1A
100
AcDbEntity
  8
ZUWAKU
100
AcDbCircle
 10
33.38360628868156
 20
3.837500333316711
 30
0.0
 40
0.2625
100
AcDbArc
 50
180.0
 51
270.0
  0
LINE
  5
3BA9
330
1A
100
AcDbEntity
  8
ZUWAKU
100
AcDbLine
 10
33.38360628868156
 20
3.575000333316721
 30
0.0
 11
34.25860628868156
 21
3.575000333316721
 31
0.0
  0
ARC
  5
3BAA
330
1A
100
AcDbEntity
  8
ZUWAKU
100
AcDbCircle
 10
34.25860628868156
 20
11.36250033331674
 30
0.0
 40
0.2625
100
AcDbArc
 50
0.0
 51
90.0
  0
LINE
  5
3BAB
330
1A
100
AcDbEntity
  8
ZUWAKU
100
AcDbLine
 10
31.80860628868151
 20
11.62500033331673
 30
0.0
 11
30.93360628868151
 21
11.62500033331673
 31
0.0
  0
ARC
  5
3BAC
330
1A
100
AcDbEntity
  8
ZUWAKU
100
AcDbCircle
 10
31.80860628868151
 20
11.36250033331674
 30
0.0
 40
0.2625
100
AcDbArc
 50
0.0
 51
90.0
  0
ARC
  5
3BAD
330
1A
100
AcDbEntity
  8
ZUWAKU
100
AcDbCircle
 10
33.38360628868156
 20
11.36250033331674
 30
0.0
 40
0.2625
100
AcDbArc
 50
90.0
 51
180.0
  0
LINE
  5
3BAE
330
1A
100
AcDbEntity
  8
ZUWAKU
100
AcDbLine
 10
34.25860628868156
 20
11.62500033331673
 30
0.0
 11
33.38360628868156
 21
11.62500033331673
 31
0.0
  0
LINE
  5
3BB4
330
1A
100
AcDbEntity
  8
ZUWAKU
100
AcDbLine
 10
104.2233008563248
 20
15.00000033331673
 30
0.0
 11
104.2233008563249
 21
0.4000003333167684
 31
0.0
  0
LINE
  5
3BB5
330
1A
100
AcDbEntity
  8
ZUWAKU
100
AcDbLine
 10
104.3233008563248
 20
15.00000033331673
 30
0.0
 11
104.3233008563249
 21
0.4000003333167684
 31
0.0
  0
LINE
  5
3BB6
330
1A
100
AcDbEntity
  8
ZUWAKU
100
AcDbLine
 10
104.1233008563249
 20
15.00000033331673
 30
0.0
 11
104.1233008563249
 21
0.4000003333167684
 31
0.0
  0
TEXT
  5
3BB7
330
1A
100
AcDbEntity
  8
ZUWAKU
100
AcDbText
 10
104.8620233674296
 20
12.02767860250952
 30
0.0
 40
2.0
  1
品名
 41
0.9
  7
ｽﾀｲﾙ1
100
AcDbText
  0
TEXT
  5
3BB8
330
1A
100
AcDbEntity
  8
ZUWAKU
100
AcDbText
 10
104.8620233674297
 20
4.827678602509536
 30
0.0
 40
2.0
  1
サイズ
 41
0.9
  7
ｽﾀｲﾙ1
100
AcDbText
  0
LINE
  5
3C17
330
1A
100
AcDbEntity
  8
ZUWAKU
100
AcDbLine
 10
324.4086014663928
 20
7.800000333316744
 30
0.0
 11
348.6245054855615
 21
7.800000333316744
 31
0.0
  0
LINE
  5
3C18
330
1A
100
AcDbEntity
  8
ZUWAKU
100
AcDbLine
 10
324.4086014663931
 20
7.700000333316777
 30
0.0
 11
348.6245054855615
 21
7.700000333316777
 31
0.0
  0
LINE
  5
3C19
330
1A
100
AcDbEntity
  8
ZUWAKU
100
AcDbLine
 10
324.4086014663928
 20
7.600000333316755
 30
0.0
 11
348.6245054855615
 21
7.600000333316755
 31
0.0
  0
TEXT
  5
3C1B
330
1A
100
AcDbEntity
  8
MOJI
100
AcDbText
 10
264.0204541974475
 20
1.602460862020449
 30
0.0
 40
2.799999999999998
  1
１/１
 41
0.9
  7
ｽﾀｲﾙ1
100
AcDbText
  0
TEXT
  5
3C1C
330
1A
100
AcDbEntity
  8
MOJI
100
AcDbText
 10
264.0204541974475
 20
9.002460862020427
 30
0.0
 40
2.799999999999998
  1
Ａ３
 41
0.9
  7
ｽﾀｲﾙ1
100
AcDbText
  0
LINE
  5
3C1D
330
1A
100
AcDbEntity
  8
ZUWAKU
100
AcDbLine
 10
252.5995899603614
 20
7.800000333316744
 30
0.0
 11
276.2634780943471
 21
7.800000333316744
 31
0.0
  0
LINE
  5
3C1E
330
1A
100
AcDbEntity
  8
ZUWAKU
100
AcDbLine
 10
252.5995899603614
 20
7.700000333316777
 30
0.0
 11
276.2634780943471
 21
7.700000333316777
 31
0.0
  0
LINE
  5
3C1F
330
1A
100
AcDbEntity
  8
ZUWAKU
100
AcDbLine
 10
252.5995899603614
 20
7.600000333316755
 30
0.0
 11
276.2634780943471
 21
7.600000333316755
 31
0.0
  0
TEXT
  5
3C20
330
1A
100
AcDbEntity
  8
ZUWAKU
100
AcDbText
 10
231.3468810390444
 20
1.30703578888648
 30
0.0
 40
1.5
  1
□には色品番が入ります
 41
0.9
  7
ｽﾀｲﾙ1
100
AcDbText
  0
LINE
  5
3C21
330
1A
100
AcDbEntity
  8
ZUWAKU
100
AcDbLine
 10
252.3995899603614
 20
15.00000033331673
 30
0.0
 11
252.3995899603614
 21
0.4000003333167684
 31
0.0
  0
LINE
  5
3C22
330
1A
100
AcDbEntity
  8
ZUWAKU
100
AcDbLine
 10
252.5995899603614
 20
15.00000033331673
 30
0.0
 11
252.5995899603616
 21
0.4000003333167684
 31
0.0
  0
LINE
  5
3C23
330
1A
100
AcDbEntity
  8
ZUWAKU
100
AcDbLine
 10
252.4995899603613
 20
15.00000033331673
 30
0.0
 11
252.4995899603615
 21
0.4000003333167684
 31
0.0
  0
LINE
  5
3C24
330
1A
100
AcDbEntity
  8
ZUWAKU
100
AcDbLine
 10
223.7121821967865
 20
15.00000033331673
 30
0.0
 11
223.7121821967865
 21
0.4000003333167684
 31
0.0
  0
LINE
  5
3C25
330
1A
100
AcDbEntity
  8
ZUWAKU
100
AcDbLine
 10
223.9121821967866
 20
15.00000033331673
 30
0.0
 11
223.9121821967868
 21
0.4000003333167684
 31
0.0
  0
LINE
  5
3C26
330
1A
100
AcDbEntity
  8
ZUWAKU
100
AcDbLine
 10
223.8121821967864
 20
15.00000033331673
 30
0.0
 11
223.8121821967867
 21
0.4000003333167684
 31
0.0
  0
TEXT
  5
3C27
330
1A
100
AcDbEntity
  8
MOJI
100
AcDbText
 10
231.7841528925713
 20
5.971309194146726
 30
0.0
 40
2.799999999999998
  1
ＬＮ６０□
 41
0.9
  7
ｽﾀｲﾙ1
100
AcDbText
  0
TEXT
  5
3C28
330
1A
100
AcDbEntity
  8
ZUWAKU
100
AcDbText
 10
224.6509047078915
 20
12.02767860250952
 30
0.0
 40
2.0
  1
品番
 41
0.9
  7
ｽﾀｲﾙ1
100
AcDbText
  0
TEXT
  5
3C29
330
1A
100
AcDbEntity
  8
ZUWAKU
100
AcDbText
 10
253.3383124714664
 20
12.02767860250952
 30
0.0
 40
2.0
  1
用紙
 41
0.9
  7
ｽﾀｲﾙ1
100
AcDbText
  0
TEXT
  5
3C2A
330
1A
100
AcDbEntity
  8
ZUWAKU
100
AcDbText
 10
253.3383124714664
 20
4.827678602509536
 30
0.0
 40
2.0
  1
縮尺
 41
0.9
  7
ｽﾀｲﾙ1
100
AcDbText
  0
LINE
  5
3C2B
330
1A
100
AcDbEntity
  8
ZUWAKU
100
AcDbLine
 10
276.2634780943471
 20
15.00000033331673
 30
0.0
 11
276.2634780943471
 21
0.4000003333167684
 31
0.0
  0
LINE
  5
3C2C
330
1A
100
AcDbEntity
  8
ZUWAKU
100
AcDbLine
 10
276.4634780943471
 20
15.00000033331673
 30
0.0
 11
276.4634780943473
 21
0.4000003333167684
 31
0.0
  0
LINE
  5
3C2D
330
1A
100
AcDbEntity
  8
ZUWAKU
100
AcDbLine
 10
276.363478094347
 20
15.00000033331673
 30
0.0
 11
276.3634780943472
 21
0.4000003333167684
 31
0.0
  0
LINE
  5
3C2E
330
1A
100
AcDbEntity
  8
ZUWAKU
100
AcDbLine
 10
324.2086014663931
 20
15.00000033331673
 30
0.0
 11
324.2086014663931
 21
0.4000003333167684
 31
0.0
  0
LINE
  5
3C2F
330
1A
100
AcDbEntity
  8
ZUWAKU
100
AcDbLine
 10
324.4086014663931
 20
15.00000033331673
 30
0.0
 11
324.4086014663933
 21
0.4000003333167684
 31
0.0
  0
LINE
  5
3C30
330
1A
100
AcDbEntity
  8
ZUWAKU
100
AcDbLine
 10
324.308601466393
 20
15.00000033331673
 30
0.0
 11
324.3086014663932
 21
0.4000003333167684
 31
0.0
  0
TEXT
  5
3C31
330
1A
100
AcDbEntity
  8
ZUWAKU
100
AcDbText
 10
325.1473239774981
 20
12.02767860250952
 30
0.0
 40
2.0
  1
DATE
 41
0.9
  7
ｽﾀｲﾙ1
100
AcDbText
  0
LINE
  5
3C51
330
1A
100
AcDbEntity
  8
ZUWAKU
100
AcDbLine
 10
348.9245054855615
 20
15.00000033331673
 30
0.0
 11
348.9245054855617
 21
0.4000003333167684
 31
0.0
  0
LINE
  5
3C52
330
1A
100
AcDbEntity
  8
ZUWAKU
100
AcDbLine
 10
348.8245054855614
 20
15.00000033331673
 30
0.0
 11
348.8245054855616
 21
0.4000003333167684
 31
0.0
  0
LINE
  5
3C53
330
1A
100
AcDbEntity
  8
ZUWAKU
100
AcDbLine
 10
348.7245054855615
 20
15.00000033331673
 30
0.0
 11
348.7245054855615
 21
0.4000003333167684
 31
0.0
  0
LINE
  5
3C54
330
1A
100
AcDbEntity
  8
ZUWAKU
100
AcDbLine
 10
348.6245054855615
 20
15.00000033331673
 30
0.0
 11
348.6245054855615
 21
0.4000003333167684
 31
0.0
  0
TEXT
  5
3C56
330
1A
100
AcDbEntity
  8
ZUWAKU
100
AcDbText
 10
353.5548007224903
 20
6.169083929780581
 30
0.0
 40
3.0
  1
積水化学工業株式会社
 41
0.9
  7
ｽﾀｲﾙ1
100
AcDbText
  0
TEXT
  5
3DF5
330
1A
100
AcDbEntity
  8
MOJI
100
AcDbText
 10
46.67889500537569
 20
6.370589398454113
 30
0.0
 40
3.0
  1
ユニシェイプ　
 41
0.9
  7
ｽﾀｲﾙ1
100
AcDbText
  0
TEXT
  5
4084
330
1A
100
AcDbEntity
  8
MOJI
100
AcDbText
 10
119.448847116623
 20
9.765924585317977
 30
0.0
 40
2.799999999999998
  1
はいといデンデン
 41
0.9
  7
ｽﾀｲﾙ1
100
AcDbText
  0
TEXT
  5
478D
330
1A
100
AcDbEntity
  8
MOJI
100
AcDbText
 10
118.7344009387943
 20
1.841380236387806
 30
0.0
 40
2.799999999999998
  1
ＵＲＴ６０ （ブルック）
 41
0.9
  7
ｽﾀｲﾙ1
100
AcDbText
  0
DIMENSION
  5
9CFC
330
1A
100
AcDbEntity
  8
SUNPOU
100
AcDbDimension
  2
*D31
 10
222.5517873550933
 20
84.65467707269134
 30
0.0
 11
218.5517873550933
 21
134.6546921063729
 31
0.0
 70
    32
 71
     5
 42
-1.0
  3
STANDARD
100
AcDbAlignedDimension
 13
286.8990572719489
 23
184.6547071400545
 33
0.0
 14
276.8990508231527
 24
84.65467707269132
 34
0.0
 50
90.0
100
AcDbRotatedDimension
  0
DIMENSION
  5
9CFD
330
1A
100
AcDbEntity
  8
SUNPOU
100
AcDbDimension
  2
*D32
 10
119.7220486626044
 20
212.6212643955598
 30
0.0
 11
129.7220486626043
 21
216.6212643955598
 31
0.0
 70
    32
 71
     5
 42
-1.0
  3
STANDARD
100
AcDbAlignedDimension
 13
139.7220486626044
 23
192.3548758284446
 33
0.0
 14
119.7220486626044
 24
107.6547758284446
 34
0.0
100
AcDbRotatedDimension
  0
DIMENSION
  5
9CFE
330
1A
100
AcDbEntity
  8
SUNPOU
100
AcDbDimension
  2
*D33
 10
159.7221902486552
 20
221.6235882076661
 30
0.0
 11
139.7221194556298
 21
225.6235882076661
 31
0.0
 70
    32
 71
     5
 42
-1.0
  3
STANDARD
100
AcDbAlignedDimension
 13
119.7220486626044
 23
107.6547758284446
 33
0.0
 14
159.7221902486552
 24
109.6547770726914
 34
0.0
100
AcDbRotatedDimension
  0
LINE
  5
9CFF
330
1A
100
AcDbEntity
  8
CENTER_L
  6
CENTER
 48
5.0
100
AcDbLine
 10
139.7220402486549
 20
101.3449922224381
 30
0.0
 11
139.7220402486549
 21
192.6315403452176
 31
0.0
  0
LINE
  5
9D00
330
1A
100
AcDbEntity
  8
ﾃ_ﾝﾃ_ﾝ部
100
AcDbLine
 10
130.7220491692435
 20
134.1547708440062
 30
0.0
 11
130.7220491692435
 21
146.6546769666906
 31
0.0
  0
LINE
  5
9D01
330
1A
100
AcDbEntity
  8
ﾃ_ﾝﾃ_ﾝ部
100
AcDbLine
 10
148.7220483943831
 20
134.1547708440062
 30
0.0
 11
148.7220483943831
 21
146.6546769666908
 31
0.0
  0
LINE
  5
9D02
330
1A
100
AcDbEntity
  8
ﾃ_ﾝﾃ_ﾝ部
100
AcDbLine
 10
130.7220491692439
 20
134.1547708440059
 30
0.0
 11
130.7220491692435
 21
184.654709272408
 31
0.0
  0
LINE
  5
9D03
330
1A
100
AcDbEntity
  8
ﾃ_ﾝﾃ_ﾝ部
100
AcDbLine
 10
148.7220483943834
 20
134.154770844006
 30
0.0
 11
148.7220483943831
 21
184.6547092724081
 31
0.0
  0
SPLINE
  5
9D06
330
1A
100
AcDbEntity
  8
ﾃ_ﾝﾃ_ﾝ部
100
AcDbSpline
210
0.0
220
0.0
230
1.0
 70
    24
 71
     1
 72
     4
 73
     2
 74
     0
 42
0.0000000001
 43
0.0000000001
 40
0.0
 40
0.0
 40
1.0
 40
1.0
 10
148.7220483943834
 20
134.154770844006
 30
0.0
 10
130.7220491692439
 20
134.1547708440059
 30
0.0
  0
SPLINE
  5
9D07
330
1A
100
AcDbEntity
  8
ﾃ_ﾝﾃ_ﾝ部
100
AcDbSpline
210
0.0
220
0.0
230
1.0
 70
    24
 71
     1
 72
     4
 73
     2
 74
     0
 42
0.0000000001
 43
0.0000000001
 40
0.0
 40
0.0
 40
1.0
 40
1.0
 10
130.7220491692439
 20
122.3547759878869
 30
0.0
 10
148.7220483943834
 20
122.3547759878869
 30
0.0
  0
LINE
  5
9D22
330
1A
100
AcDbEntity
  8
ﾃ_ﾝﾃ_ﾝ部
100
AcDbLine
 10
130.7220491692439
 20
109.6547770726914
 30
0.0
 11
130.7220491692439
 21
116.0316768515344
 31
0.0
  0
LINE
  5
9D23
330
1A
100
AcDbEntity
  8
ﾃ_ﾝﾃ_ﾝ部
100
AcDbLine
 10
148.7220483943834
 20
109.6547770726914
 30
0.0
 11
148.7220483943834
 21
116.0316768515344
 31
0.0
  0
LINE
  5
9D29
330
1A
100
AcDbEntity
  8
ﾃ_ﾝﾃ_ﾝ部
100
AcDbLine
 10
130.7220491692439
 20
109.6547770726914
 30
0.0
 11
148.7220483943834
 21
109.6547770726914
 31
0.0
  0
LINE
  5
9D2A
330
1A
100
AcDbEntity
  8
ﾃ_ﾝﾃ_ﾝ部
100
AcDbLine
 10
130.7220491692439
 20
116.0316768515344
 30
0.0
 11
148.7220483943834
 21
116.0316768515344
 31
0.0
  0
LINE
  5
9D2B
330
1A
100
AcDbEntity
  8
ﾃ_ﾝﾃ_ﾝ部
100
AcDbLine
 10
130.7220491692439
 20
118.9199763763185
 30
0.0
 11
148.7220483943834
 21
118.9199763763185
 31
0.0
  0
LINE
  5
9D2C
330
1A
100
AcDbEntity
  8
ﾃ_ﾝﾃ_ﾝ部
100
AcDbLine
 10
130.7220491692439
 20
130.1547776389355
 30
0.0
 11
148.7220483943834
 21
130.1547776389356
 31
0.0
  0
LINE
  5
9D2D
330
1A
100
AcDbEntity
  8
ﾃ_ﾝﾃ_ﾝ部
100
AcDbLine
 10
130.7220491692439
 20
129.6547766256565
 30
0.0
 11
148.7220483943834
 21
129.6547766256566
 31
0.0
  0
LINE
  5
9D2E
330
1A
100
AcDbEntity
  8
ﾃ_ﾝﾃ_ﾝ部
100
AcDbLine
 10
130.7220491692439
 20
122.3547759878869
 30
0.0
 11
130.7220491692439
 21
129.6547766256565
 31
0.0
  0
LINE
  5
9D2F
330
1A
100
AcDbEntity
  8
ﾃ_ﾝﾃ_ﾝ部
100
AcDbLine
 10
130.7220491692439
 20
118.9199763763185
 30
0.0
 11
130.7220491692439
 21
124.1641755628819
 31
0.0
  0
LINE
  5
9D30
330
1A
100
AcDbEntity
  8
ﾃ_ﾝﾃ_ﾝ部
100
AcDbLine
 10
130.7220491692439
 20
116.0316768515344
 30
0.0
 11
130.7220491692439
 21
118.9199763763185
 31
0.0
  0
LINE
  5
9D31
330
1A
100
AcDbEntity
  8
ﾃ_ﾝﾃ_ﾝ部
100
AcDbLine
 10
130.7220491692439
 20
126.3620670366522
 30
0.0
 11
130.7220491692439
 21
126.6393105912444
 31
0.0
  0
LINE
  5
9D32
330
1A
100
AcDbEntity
  8
ﾃ_ﾝﾃ_ﾝ部
100
AcDbLine
 10
130.7220491692439
 20
125.1216645765538
 30
0.0
 11
130.7220491692439
 21
124.6176775026555
 31
0.0
  0
LINE
  5
9D33
330
1A
100
AcDbEntity
  8
ﾃ_ﾝﾃ_ﾝ部
100
AcDbLine
 10
130.7220491692439
 20
125.1216645765538
 30
0.0
 11
130.7220491692439
 21
126.6393105912444
 31
0.0
  0
LINE
  5
9D34
330
1A
100
AcDbEntity
  8
ﾃ_ﾝﾃ_ﾝ部
100
AcDbLine
 10
130.7220491692439
 20
124.1641755628819
 30
0.0
 11
130.7220491692439
 21
124.3556629348035
 31
0.0
  0
LINE
  5
9D35
330
1A
100
AcDbEntity
  8
ﾃ_ﾝﾃ_ﾝ部
100
AcDbLine
 10
130.7220491692439
 20
126.3549070286983
 30
0.0
 11
130.7220491692439
 21
126.6393105912442
 31
0.0
  0
LINE
  5
9D36
330
1A
100
AcDbEntity
  8
ﾃ_ﾝﾃ_ﾝ部
100
AcDbLine
 10
130.7220491692439
 20
130.1547776389355
 30
0.0
 11
130.7220491692439
 21
134.1547708440059
 31
0.0
  0
LINE
  5
9D37
330
1A
100
AcDbEntity
  8
ﾃ_ﾝﾃ_ﾝ部
100
AcDbLine
 10
130.7220491692439
 20
129.6547766256565
 30
0.0
 11
130.7220491692439
 21
130.1547776389355
 31
0.0
  0
LINE
  5
9D38
330
1A
100
AcDbEntity
  8
ﾃ_ﾝﾃ_ﾝ部
100
AcDbLine
 10
137.7220484539882
 20
134.8263363766904
 30
0.0
 11
141.7220491096393
 21
134.8263363766904
 31
0.0
  0
LINE
  5
9D39
330
1A
100
AcDbEntity
  8
ﾃ_ﾝﾃ_ﾝ部
100
AcDbLine
 10
137.7220484539882
 20
134.8263363766904
 30
0.0
 11
137.7220484539882
 21
134.154770844006
 31
0.0
  0
LINE
  5
9D3A
330
1A
100
AcDbEntity
  8
ﾃ_ﾝﾃ_ﾝ部
100
AcDbLine
 10
141.7220491096393
 20
134.8263363766904
 30
0.0
 11
141.7220491096393
 21
134.154770844006
 31
0.0
  0
LINE
  5
9D3B
330
1A
100
AcDbEntity
  8
ﾃ_ﾝﾃ_ﾝ部
100
AcDbLine
 10
148.7220483943834
 20
122.3547759878869
 30
0.0
 11
148.7220483943834
 21
129.6547766256566
 31
0.0
  0
LINE
  5
9D3C
330
1A
100
AcDbEntity
  8
ﾃ_ﾝﾃ_ﾝ部
100
AcDbLine
 10
148.7220483943834
 20
118.9199763763185
 30
0.0
 11
148.7220483943834
 21
124.1641755628819
 31
0.0
  0
LINE
  5
9D3D
330
1A
100
AcDbEntity
  8
ﾃ_ﾝﾃ_ﾝ部
100
AcDbLine
 10
148.7220483943834
 20
116.0316768515344
 30
0.0
 11
148.7220483943834
 21
118.9199763763185
 31
0.0
  0
LINE
  5
9D3E
330
1A
100
AcDbEntity
  8
ﾃ_ﾝﾃ_ﾝ部
100
AcDbLine
 10
148.7220483943834
 20
126.3620670366522
 30
0.0
 11
148.7220483943834
 21
126.6393105912444
 31
0.0
  0
LINE
  5
9D3F
330
1A
100
AcDbEntity
  8
ﾃ_ﾝﾃ_ﾝ部
100
AcDbLine
 10
148.7220483943834
 20
125.121664576554
 30
0.0
 11
148.7220483943834
 21
124.6176775026556
 31
0.0
  0
LINE
  5
9D40
330
1A
100
AcDbEntity
  8
ﾃ_ﾝﾃ_ﾝ部
100
AcDbLine
 10
148.7220483943834
 20
125.121664576554
 30
0.0
 11
148.7220483943834
 21
126.6393105912444
 31
0.0
  0
LINE
  5
9D41
330
1A
100
AcDbEntity
  8
ﾃ_ﾝﾃ_ﾝ部
100
AcDbLine
 10
148.7220483943834
 20
124.1641755628819
 30
0.0
 11
148.7220483943834
 21
124.3556629348035
 31
0.0
  0
LINE
  5
9D42
330
1A
100
AcDbEntity
  8
ﾃ_ﾝﾃ_ﾝ部
100
AcDbLine
 10
148.7220483943834
 20
126.3549070286984
 30
0.0
 11
148.7220483943834
 21
126.6393105912442
 31
0.0
  0
LINE
  5
9D43
330
1A
100
AcDbEntity
  8
ﾃ_ﾝﾃ_ﾝ部
100
AcDbLine
 10
148.7220483943834
 20
130.1547776389356
 30
0.0
 11
148.7220483943834
 21
134.154770844006
 31
0.0
  0
LINE
  5
9D44
330
1A
100
AcDbEntity
  8
ﾃ_ﾝﾃ_ﾝ部
100
AcDbLine
 10
148.7220483943834
 20
129.6547766256566
 30
0.0
 11
148.7220483943834
 21
130.1547776389356
 31
0.0
  0
SPLINE
  5
9D4F
330
1A
100
AcDbEntity
  8
ﾃ_ﾝﾃ_ﾝ部
100
AcDbSpline
210
0.0
220
0.0
230
1.0
 70
    24
 71
     1
 72
     4
 73
     2
 74
     0
 42
0.0000000001
 43
0.0000000001
 40
0.0
 40
0.0
 40
1.0
 40
1.0
 10
148.7220483943831
 20
184.6547092724081
 30
0.0
 10
130.7220491692435
 20
184.654709272408
 30
0.0
  0
LINE
  5
9D50
330
1A
100
AcDbEntity
  8
CENTER_L
  6
CENTER
 48
5.0
100
AcDbLine
 10
156.1601034097272
 20
151.6546871397276
 30
0.0
 11
123.2839770875825
 21
151.6546871397276
 31
0.0
  0
LINE
  5
9D51
330
1A
100
AcDbEntity
  8
ﾃ_ﾝﾃ_ﾝ部
100
AcDbLine
 10
130.7220491692435
 20
156.6546748805281
 30
0.0
 11
130.7220491692439
 21
181.6547106433148
 31
0.0
  0
LINE
  5
9D52
330
1A
100
AcDbEntity
  8
ﾃ_ﾝﾃ_ﾝ部
100
AcDbLine
 10
148.7220483943831
 20
156.6546748805282
 30
0.0
 11
148.7220483943834
 21
181.654710643315
 31
0.0
  0
LINE
  5
9D53
330
1A
100
AcDbEntity
  8
ﾃ_ﾝﾃ_ﾝ部
100
AcDbLine
 10
130.7220491692435
 20
147.6546789932486
 30
0.0
 11
130.7220491692435
 21
155.65467285397
 31
0.0
  0
LINE
  5
9D54
330
1A
100
AcDbEntity
  8
ﾃ_ﾝﾃ_ﾝ部
100
AcDbLine
 10
130.7220491692435
 20
146.6546769666906
 30
0.0
 11
130.7220491692435
 21
147.6546789932486
 31
0.0
  0
LINE
  5
9D55
330
1A
100
AcDbEntity
  8
ﾃ_ﾝﾃ_ﾝ部
100
AcDbLine
 10
130.7220491692435
 20
155.65467285397
 30
0.0
 11
130.7220491692435
 21
156.6546748805281
 31
0.0
  0
LINE
  5
9D56
330
1A
100
AcDbEntity
  8
ﾃ_ﾝﾃ_ﾝ部
100
AcDbLine
 10
148.7220483943831
 20
147.6546789932487
 30
0.0
 11
148.7220483943831
 21
155.6546728539703
 31
0.0
  0
LINE
  5
9D57
330
1A
100
AcDbEntity
  8
ﾃ_ﾝﾃ_ﾝ部
100
AcDbLine
 10
148.7220483943831
 20
146.6546769666908
 30
0.0
 11
148.7220483943831
 21
147.6546789932487
 31
0.0
  0
LINE
  5
9D58
330
1A
100
AcDbEntity
  8
ﾃ_ﾝﾃ_ﾝ部
100
AcDbLine
 10
148.7220483943831
 20
155.6546728539703
 30
0.0
 11
148.7220483943831
 21
156.6546748805282
 31
0.0
  0
MTEXT
  5
9D59
330
1A
100
AcDbEntity
  8
SUNPOU
100
AcDbMText
 10
144.3215237546569
 20
207.2479633965825
 30
0.0
 40
4.0
 41
0.0
 71
     5
 72
     5
  1
18
 73
     1
 44
1.0
1001
ACAD
1000
MTEXTBEGIN
1070
    73
1070
     1
1070
    44
1040
1.0
1070
    74
1070
     0
1000
MTEXTEND
  0
LINE
  5
9D5A
330
1A
100
AcDbEntity
  8
SUNPOU
100
AcDbLine
 10
133.7220049130243
 20
203.8597507753451
 30
0.0
 11
145.7220049130244
 21
203.8597507753451
 31
0.0
  0
LINE
  5
9D5B
330
1A
100
AcDbEntity
  8
SUNPOU
100
AcDbLine
 10
130.7220049130244
 20
187.3548758284446
 30
0.0
 11
130.7220049130244
 21
205.3597507753451
 31
0.0
  0
INSERT
  5
9D5C
330
1A
100
AcDbEntity
  8
SUNPOU
100
AcDbBlockReference
  2
_OPEN
 10
130.7220049130244
 20
203.8597507753451
 30
0.0
 41
3.0
 42
3.0
 43
3.0
 50
180.0
  0
LINE
  5
9D5D
330
1A
100
AcDbEntity
  8
SUNPOU
100
AcDbLine
 10
148.7220049130244
 20
187.3548758284446
 30
0.0
 11
148.7220049130244
 21
205.3597507753451
 31
0.0
  0
INSERT
  5
9D5E
330
1A
100
AcDbEntity
  8
SUNPOU
100
AcDbBlockReference
  2
_OPEN
 10
148.7220049130244
 20
203.8597507753451
 30
0.0
 41
3.0
 42
3.0
 43
3.0
  0
DIMENSION
  5
9D5F
330
1A
100
AcDbEntity
  8
SUNPOU
100
AcDbDimension
  2
*D34
 10
260.8564155208293
 20
136.7623397544811
 30
0.0
 11
294.6593836303641
 21
160.9253080895622
 31
0.0
 70
   163
 71
     5
 42
-1.0
  3
STANDARD
100
AcDbDiametricDimension
 15
312.9416990230683
 25
166.5470345249744
 35
0.0
 40
0.0
1001
ACAD
1000
DSTYLE
1002
{
1070
   287
1070
     5
1070
   287
1070
     5
1070
   287
1070
     5
1070
   279
1070
     2
1002
}
  0
LINE
  5
9D60
330
1A
100
AcDbEntity
  8
CENTER_L
100
AcDbLine
 10
314.899048528005
 20
142.5475552044327
 30
0.0
 11
314.899048528005
 21
116.7619968176178
 31
0.0
  0
DIMENSION
  5
9D61
330
1A
100
AcDbEntity
  8
SUNPOU
100
AcDbDimension
  2
*D35
 10
233.1862693252388
 20
109.6547758284447
 30
0.0
 11
229.1862693252387
 21
147.1547414842497
 31
0.0
 70
    32
 71
     5
 42
-1.0
  3
STANDARD
100
AcDbAlignedDimension
 13
286.8990572719489
 23
184.6547071400545
 33
0.0
 14
276.8714487368904
 24
109.6547758284447
 34
0.0
 50
90.0
100
AcDbRotatedDimension
  0
LINE
  5
9D62
330
1A
100
AcDbEntity
  8
CENTER_L
  6
CENTER
 48
5.0
100
AcDbLine
 10
286.8990487369904
 20
77.10977404350368
 30
0.0
 11
286.8990487369904
 21
192.6315382128641
 31
0.0
  0
ARC
  5
9D63
330
1A
100
AcDbEntity
  8
ﾃ_ﾝﾃ_ﾝ部
100
AcDbCircle
 10
286.8990572719489
 20
151.6546871397276
 30
0.0
 40
29.50000000000033
100
AcDbArc
 50
188.7803708443399
 51
211.5798807196484
  0
ARC
  5
9D64
330
1A
100
AcDbEntity
  8
ﾃ_ﾝﾃ_ﾝ部
100
AcDbCircle
 10
286.8990572719489
 20
151.6546871397276
 30
0.0
 40
30.000020000327
100
AcDbArc
 50
323.1303469618611
 51
350.4059154573234
  0
ARC
  5
9D65
330
1A
100
AcDbEntity
  8
ﾃ_ﾝﾃ_ﾝ部
100
AcDbCircle
 10
286.8990572719489
 20
151.6546871397276
 30
0.0
 40
33.00002000032689
100
AcDbArc
 50
335.4799350084628
 51
215.1448254843296
  0
DIMENSION
  5
9D68
330
1A
100
AcDbEntity
  8
SUNPOU
100
AcDbDimension
  2
*D36
 10
296.8990487369904
 20
63.72808332111984
 30
0.0
 11
286.8990497800715
 21
63.72808332111984
 31
0.0
 70
   160
 71
     5
 42
-1.0
  3
STANDARD
100
AcDbAlignedDimension
 13
276.8990508231527
 23
84.65467707269139
 33
0.0
 14
296.8990487369904
 24
84.65467707269132
 34
0.0
100
AcDbRotatedDimension
  0
ARC
  5
9D69
330
1A
100
AcDbEntity
  8
ﾃ_ﾝﾃ_ﾝ部
100
AcDbCircle
 10
286.8990727524561
 20
151.6546749765173
 30
0.0
 40
30.00000000000005
100
AcDbArc
 50
271.9099768638769
 51
297.8180869740033
  0
ARC
  5
9D6A
330
1A
100
AcDbEntity
  8
ﾃ_ﾝﾃ_ﾝ部
100
AcDbCircle
 10
286.8992128718872
 20
151.654676064389
 30
0.0
 40
30.99997257768566
100
AcDbArc
 50
244.3206234143002
 51
295.7160327894042
  0
LINE
  5
9D6F
330
1A
100
AcDbEntity
  8
金具部
100
AcDbLine
 10
279.8990494522459
 20
109.6547770726915
 30
0.0
 11
293.8990480217344
 21
109.6547770726916
 31
0.0
  0
LINE
  5
9D70
330
1A
100
AcDbEntity
  8
金具部
100
AcDbLine
 10
279.8990494522459
 20
108.6547750461337
 30
0.0
 11
293.8990480217344
 21
108.6547750461338
 31
0.0
  0
LINE
  5
9D71
330
1A
100
AcDbEntity
  8
金具部
100
AcDbLine
 10
276.8990508231527
 20
84.65467707269139
 30
0.0
 11
276.8990508231527
 21
107.6547767448658
 31
0.0
  0
ARC
  5
9D79
330
1A
100
AcDbEntity
  8
ﾃ_ﾝﾃ_ﾝ部
100
AcDbCircle
 10
260.8991595400646
 20
129.6548717386893
 30
0.0
 40
3.299961230152084
100
AcDbArc
 50
97.27384527005007
 51
322.3903495375877
  0
ARC
  5
9D7A
330
1A
100
AcDbEntity
  8
ﾃ_ﾝﾃ_ﾝ部
100
AcDbCircle
 10
257.599042248069
 20
130.1547760110218
 30
0.0
 40
3.999996769975268
100
AcDbArc
 50
43.89791126492055
 51
180.0
  0
ARC
  5
9D7B
330
1A
100
AcDbEntity
  8
ﾃ_ﾝﾃ_ﾝ部
100
AcDbCircle
 10
260.8990128107199
 20
129.6547429975582
 30
0.0
 40
7.299967332700678
100
AcDbArc
 50
179.9997408848507
 51
310.630006866491
  0
ARC
  5
9D7C
330
1A
100
AcDbEntity
  8
ﾃ_ﾝﾃ_ﾝ部
100
AcDbCircle
 10
260.5921984572959
 20
129.6869486449506
 30
0.0
 40
3.047637931335996
100
AcDbArc
 50
102.8394304765842
 51
275.7785690524154
  0
LINE
  5
9D7D
330
1A
100
AcDbEntity
  8
ﾃ_ﾝﾃ_ﾝ部
100
AcDbLine
 10
253.5990438374883
 20
129.6547766256565
 30
0.0
 11
253.5990438374883
 21
130.1547776389355
 31
0.0
  0
LINE
  5
9D7E
330
1A
100
AcDbEntity
  8
ﾃ_ﾝﾃ_ﾝ部
100
AcDbLine
 10
279.8990420016653
 20
109.6547770726914
 30
0.0
 11
279.8990420016653
 21
116.0316768515344
 31
0.0
  0
LINE
  5
9D7F
330
1A
100
AcDbEntity
  8
金具部
100
AcDbLine
 10
279.8990494522459
 20
108.6547750461337
 30
0.0
 11
276.8990508231527
 21
108.6547750461337
 31
0.0
  0
LINE
  5
9D80
330
1A
100
AcDbEntity
  8
金具部
100
AcDbLine
 10
276.8990508231527
 20
109.6547770726915
 30
0.0
 11
279.8990494522459
 21
109.6547770726915
 31
0.0
  0
LINE
  5
9D81
330
1A
100
AcDbEntity
  8
金具部
100
AcDbLine
 10
276.8990508231527
 20
107.6547767448658
 30
0.0
 11
276.8990508231527
 21
108.6547750461335
 31
0.0
  0
LINE
  5
9D82
330
1A
100
AcDbEntity
  8
金具部
100
AcDbLine
 10
276.8990508231527
 20
107.7318082976574
 30
0.0
 11
276.8990508231527
 21
109.6547770726914
 31
0.0
  0
LINE
  5
9D83
330
1A
100
AcDbEntity
  8
金具部
100
AcDbLine
 10
276.8990508231527
 20
106.6547747183079
 30
0.0
 11
276.8990508231527
 21
108.6547750461335
 31
0.0
  0
LINE
  5
9D84
330
1A
100
AcDbEntity
  8
金具部
100
AcDbLine
 10
276.8990508231527
 20
107.7318082976574
 30
0.0
 11
276.8990508231527
 21
109.6547770726914
 31
0.0
  0
LINE
  5
9D85
330
1A
100
AcDbEntity
  8
金具部
100
AcDbLine
 10
276.8990508231527
 20
106.6547747183079
 30
0.0
 11
276.8990508231527
 21
108.6547750461337
 31
0.0
  0
LINE
  5
9D86
330
1A
100
AcDbEntity
  8
金具部
100
AcDbLine
 10
276.8990508231527
 20
108.6547750461337
 30
0.0
 11
276.8990508231527
 21
109.6547770726915
 31
0.0
  0
LINE
  5
9D87
330
1A
100
AcDbEntity
  8
金具部
100
AcDbLine
 10
279.8990494522459
 20
109.6547770726915
 30
0.0
 11
279.8990494522459
 21
108.6547750461337
 31
0.0
  0
ARC
  5
9D8A
330
1A
100
AcDbEntity
  8
ﾃ_ﾝﾃ_ﾝ部
100
AcDbCircle
 10
286.8990727524561
 20
151.6546749765173
 30
0.0
 40
30.0
100
AcDbArc
 50
242.181808404667
 51
268.0899306053263
  0
ARC
  5
9D8B
330
1A
100
AcDbEntity
  8
ﾃ_ﾝﾃ_ﾝ部
100
AcDbCircle
 10
286.8969947254791
 20
151.6502222637414
 30
0.0
 40
33.9951868807541
100
AcDbArc
 50
233.9523206653844
 51
254.3209436951489
  0
ARC
  5
9D8C
330
1A
100
AcDbEntity
  8
ﾃ_ﾝﾃ_ﾝ部
100
AcDbCircle
 10
286.8990727524561
 20
151.6546749765173
 30
0.0
 40
30.0
100
AcDbArc
 50
231.408219594951
 51
242.181808404667
  0
ARC
  5
9D8D
330
1A
100
AcDbEntity
  8
ﾃ_ﾝﾃ_ﾝ部
100
AcDbCircle
 10
260.8987100891507
 20
129.6553023806177
 30
0.0
 40
3.000504926044456
100
AcDbArc
 50
270.0064398497765
 51
326.1370559870978
  0
ARC
  5
9D8E
330
1A
100
AcDbEntity
  8
ﾃ_ﾝﾃ_ﾝ部
100
AcDbCircle
 10
266.3037539929621
 20
123.3556028077477
 30
0.0
 40
1.000056424970939
100
AcDbArc
 50
53.95232066537005
 51
130.6300068664747
  0
ARC
  5
9D8F
330
1A
100
AcDbEntity
  8
ﾃ_ﾝﾃ_ﾝ部
100
AcDbCircle
 10
273.899286287858
 20
124.6179233726373
 30
0.0
 40
1.000237790439737
100
AcDbArc
 50
180.0141694071852
 51
244.3206234143002
  0
LINE
  5
9D90
330
1A
100
AcDbEntity
  8
ﾃ_ﾝﾃ_ﾝ部
100
AcDbLine
 10
272.8990501675016
 20
124.6176775026555
 30
0.0
 11
272.8990501675016
 21
125.1216869282956
 31
0.0
  0
ARC
  5
9D91
330
1A
100
AcDbEntity
  8
ﾃ_ﾝﾃ_ﾝ部
100
AcDbCircle
 10
266.1275921918853
 20
125.6270334634071
 30
0.0
 40
3.300037949124714
100
AcDbArc
 50
51.4082195949368
 51
142.390349537576
  0
ARC
  5
9D92
330
1A
100
AcDbEntity
  8
ﾃ_ﾝﾃ_ﾝ部
100
AcDbCircle
 10
286.8990572719489
 20
151.6546871397276
 30
0.0
 40
30.0000200003267
100
AcDbArc
 50
212.5348211118844
 51
217.8403523077108
  0
LINE
  5
9D93
330
1A
100
AcDbEntity
  8
ﾃ_ﾝﾃ_ﾝ部
100
AcDbLine
 10
258.5122994098075
 20
131.9336112070317
 30
0.0
 11
258.5122994098075
 21
131.9145302701229
 31
0.0
  0
ARC
  5
9D94
330
1A
100
AcDbEntity
  8
ﾃ_ﾝﾃ_ﾝ部
100
AcDbCircle
 10
259.6540279617698
 20
130.4905260766805
 30
0.0
 40
4.499448627684389
100
AcDbArc
 50
326.1370559870978
 51
37.84035230770822
  0
LINE
  5
9D95
330
1A
100
AcDbEntity
  8
ﾃ_ﾝﾃ_ﾝ部
100
AcDbLine
 10
258.5122994098075
 20
134.8263363766903
 30
0.0
 11
258.5122994098075
 21
134.0491216111416
 31
0.0
  0
ARC
  5
9D96
330
1A
100
AcDbEntity
  8
ﾃ_ﾝﾃ_ﾝ部
100
AcDbCircle
 10
261.3417309299597
 20
135.9440833878314
 30
0.0
 40
0.5000000000003339
100
AcDbArc
 50
302.0550591267925
 51
31.5798807197009
  0
ARC
  5
9D97
330
1A
100
AcDbEntity
  8
ﾃ_ﾝﾃ_ﾝ部
100
AcDbCircle
 10
276.8991200418617
 20
116.0316760110219
 30
0.0
 40
2.999925436232388
100
AcDbArc
 50
0.0
 51
74.32094369514885
  0
LINE
  5
9D98
330
1A
100
AcDbEntity
  8
ﾃ_ﾝﾃ_ﾝ部
100
AcDbLine
 10
285.8851066741354
 20
121.6713454056019
 30
0.0
 11
287.9209703716642
 21
121.671345405602
 31
0.0
  0
ARC
  5
9D99
330
1A
100
AcDbEntity
  8
ﾃ_ﾝﾃ_ﾝ部
100
AcDbCircle
 10
286.899048528005
 20
121.654741839256
 30
0.0
 40
1.00003835210249
100
AcDbArc
 50
179.0487724430842
 51
269.9996861256139
  0
ARC
  5
9D9A
330
1A
100
AcDbEntity
  8
ﾃ_ﾝﾃ_ﾝ部
100
AcDbCircle
 10
286.899048528005
 20
121.654741839256
 30
0.0
 40
1.00003835210249
100
AcDbArc
 50
269.9996861256139
 51
0.9511350261225992
  0
LINE
  5
9D9B
330
1A
100
AcDbEntity
  8
金具部
100
AcDbLine
 10
296.8990466508277
 20
84.65467707269139
 30
0.0
 11
296.8990466508276
 21
107.6547767448658
 31
0.0
  0
LINE
  5
9DA3
330
1A
100
AcDbEntity
  8
CENTER_L
100
AcDbLine
 10
327.7918277214123
 20
129.6547760110252
 30
0.0
 11
302.0062693345974
 21
129.6547760110252
 31
0.0
  0
LINE
  5
9DA4
330
1A
100
AcDbEntity
  8
ﾃ_ﾝﾃ_ﾝ部
100
AcDbLine
 10
293.8990480217344
 20
116.0316768515344
 30
0.0
 11
293.8990480217344
 21
109.6547770726915
 31
0.0
  0
LINE
  5
9DA5
330
1A
100
AcDbEntity
  8
金具部
100
AcDbLine
 10
293.8990480217344
 20
109.6547770726916
 30
0.0
 11
296.8990466508276
 21
109.6547770726916
 31
0.0
  0
LINE
  5
9DA6
330
1A
100
AcDbEntity
  8
金具部
100
AcDbLine
 10
296.8990466508276
 20
108.6547750461338
 30
0.0
 11
293.8990480217344
 21
108.6547750461338
 31
0.0
  0
LINE
  5
9DA7
330
1A
100
AcDbEntity
  8
金具部
100
AcDbLine
 10
293.8990480217344
 20
108.6547750461338
 30
0.0
 11
293.8990480217344
 21
109.6547770726916
 31
0.0
  0
LINE
  5
9DA8
330
1A
100
AcDbEntity
  8
金具部
100
AcDbLine
 10
296.8990466508276
 20
107.6547767448658
 30
0.0
 11
296.8990466508276
 21
108.6547750461335
 31
0.0
  0
LINE
  5
9DA9
330
1A
100
AcDbEntity
  8
金具部
100
AcDbLine
 10
296.8990466508276
 20
107.7318082976574
 30
0.0
 11
296.8990466508276
 21
109.6547770726914
 31
0.0
  0
LINE
  5
9DAA
330
1A
100
AcDbEntity
  8
金具部
100
AcDbLine
 10
296.8990466508276
 20
106.6547747183079
 30
0.0
 11
296.8990466508276
 21
108.6547750461335
 31
0.0
  0
LINE
  5
9DAB
330
1A
100
AcDbEntity
  8
金具部
100
AcDbLine
 10
296.8990466508276
 20
107.7318082976577
 30
0.0
 11
296.8990466508276
 21
109.6547770726915
 31
0.0
  0
LINE
  5
9DAC
330
1A
100
AcDbEntity
  8
金具部
100
AcDbLine
 10
296.8990466508276
 20
106.6547747183082
 30
0.0
 11
296.8990466508276
 21
108.6547750461338
 31
0.0
  0
LINE
  5
9DAD
330
1A
100
AcDbEntity
  8
金具部
100
AcDbLine
 10
296.8990466508276
 20
109.6547770726916
 30
0.0
 11
296.8990466508276
 21
108.6547750461338
 31
0.0
  0
ARC
  5
9DAE
330
1A
100
AcDbEntity
  8
ﾃ_ﾝﾃ_ﾝ部
100
AcDbCircle
 10
286.8983220003623
 20
151.6561915146887
 30
0.0
 40
34.00158831367523
100
AcDbArc
 50
285.6808893182901
 51
312.1431074025772
  0
ARC
  5
9DAF
330
1A
100
AcDbEntity
  8
ﾃ_ﾝﾃ_ﾝ部
100
AcDbCircle
 10
286.8990727524561
 20
151.6546749765173
 30
0.0
 40
30.00000000000005
100
AcDbArc
 50
297.8180869740033
 51
323.1303435558962
  0
ARC
  5
9DB0
330
1A
100
AcDbEntity
  8
ﾃ_ﾝﾃ_ﾝ部
100
AcDbCircle
 10
296.8991017210021
 20
116.0316760110221
 30
0.0
 40
3.000056242908369
100
AcDbArc
 50
105.6808893182901
 51
180.0
  0
LINE
  5
9DB1
330
1A
100
AcDbEntity
  8
ﾃ_ﾝﾃ_ﾝ部
100
AcDbLine
 10
300.8990473064788
 20
125.121664576554
 30
0.0
 11
300.8990473064788
 21
124.6176775026556
 31
0.0
  0
ARC
  5
9DB2
330
1A
100
AcDbEntity
  8
ﾃ_ﾝﾃ_ﾝ部
100
AcDbCircle
 10
299.8985958120008
 20
124.6176760110251
 30
0.0
 40
1.000452716004019
100
AcDbArc
 50
296.8494830779396
 51
0.0
  0
ARC
  5
9DB3
330
1A
100
AcDbEntity
  8
ﾃ_ﾝﾃ_ﾝ部
100
AcDbCircle
 10
314.899048528005
 20
129.6547760110252
 30
0.0
 40
4.999952049770207
100
AcDbArc
 50
221.1892114203837
 51
135.0000000000023
  0
CIRCLE
  5
9DB4
330
1A
100
AcDbEntity
  8
ﾃ_ﾝﾃ_ﾝ部
100
AcDbCircle
 10
314.899048528005
 20
129.6547760110252
 30
0.0
 40
2.400000000000019
  0
ARC
  5
9DB5
330
1A
100
AcDbEntity
  8
ﾃ_ﾝﾃ_ﾝ部
100
AcDbCircle
 10
314.899048528005
 20
129.6547760110252
 30
0.0
 40
5.000022844947965
100
AcDbArc
 50
221.0647390464403
 51
27.04419034496175
  0
CIRCLE
  5
9DB6
330
1A
100
AcDbEntity
  8
ﾃ_ﾝﾃ_ﾝ部
100
AcDbCircle
 10
314.899048528005
 20
129.6547760110252
 30
0.0
 40
2.249999999999991
  0
ARC
  5
9DB7
330
1A
100
AcDbEntity
  8
ﾃ_ﾝﾃ_ﾝ部
100
AcDbCircle
 10
310.3838510666052
 20
125.7035209592589
 30
0.0
 40
1.000000000000117
100
AcDbArc
 50
41.18921142038367
 51
132.1431074025911
  0
ARC
  5
9DB8
330
1A
100
AcDbEntity
  8
ﾃ_ﾝﾃ_ﾝ部
100
AcDbCircle
 10
314.899048528005
 20
129.6547760110252
 30
0.0
 40
5.000022844947981
100
AcDbArc
 50
27.04419034496175
 51
134.9992610213866
  0
LINE
  5
9DB9
330
1A
100
AcDbEntity
  8
ﾃ_ﾝﾃ_ﾝ部
100
AcDbLine
 10
311.1112601074583
 20
133.4426219988104
 30
0.0
 11
311.3634995135671
 21
133.1903229880567
 31
0.0
  0
LINE
  5
9DBA
330
1A
100
AcDbEntity
  8
ﾃ_ﾝﾃ_ﾝ部
100
AcDbLine
 10
310.8991495284446
 20
133.6547772813078
 30
0.0
 11
311.3635516676313
 21
133.1902782845731
 31
0.0
  0
LINE
  5
9DBB
330
1A
100
AcDbEntity
  8
ﾃ_ﾝﾃ_ﾝ部
100
AcDbLine
 10
311.3635442170507
 20
133.190375142121
 30
0.0
 11
310.8991495284446
 21
133.6547772813078
 31
0.0
  0
ARC
  5
9DBC
330
1A
100
AcDbEntity
  8
ﾃ_ﾝﾃ_ﾝ部
100
AcDbCircle
 10
316.8990303422728
 20
133.6547967956473
 30
0.0
 40
3.000000000000031
100
AcDbArc
 50
324.8624828381461
 51
76.49989229074016
  0
ARC
  5
9DBD
330
1A
100
AcDbEntity
  8
ﾃ_ﾝﾃ_ﾝ部
100
AcDbCircle
 10
317.832819109455
 20
137.5442747218329
 30
0.0
 40
1.000000000000045
100
AcDbArc
 50
155.4799350084627
 51
256.4998922907268
  0
DIMENSION
  5
9DBE
330
1A
100
AcDbEntity
  8
SUNPOU
100
AcDbDimension
  2
*D37
 10
319.8990772722758
 20
203.8597507753454
 30
0.0
 11
286.8990572719489
 21
207.8597507753454
 31
0.0
 70
    32
 71
     5
 42
-1.0
  3
STANDARD
100
AcDbAlignedDimension
 13
253.899037271622
 23
151.6546871397276
 33
0.0
 14
319.8990772722758
 24
151.6546871397276
 34
0.0
100
AcDbRotatedDimension
  0
LINE
  5
9DBF
330
1A
100
AcDbEntity
  8
CENTER_L
  6
CENTER
 48
5.0
100
AcDbLine
 10
327.8758998101269
 20
151.6546871397276
 30
0.0
 11
245.9221976638539
 21
151.6546871397276
 31
0.0
  0
ARC
  5
9DC0
330
1A
100
AcDbEntity
  8
ﾃ_ﾝﾃ_ﾝ部
100
AcDbCircle
 10
286.8990572719489
 20
151.6546871397276
 30
0.0
 40
30.00002000032695
100
AcDbArc
 50
9.594038997836792
 51
170.4059154573234
  0
LINE
  5
9DC1
330
1A
100
AcDbEntity
  8
ﾃ_ﾝﾃ_ﾝ部
100
AcDbLine
 10
258.1762409719831
 20
147.6547013449903
 30
0.0
 11
257.7447741243251
 21
147.1515934396023
 31
0.0
  0
LINE
  5
9DC2
330
1A
100
AcDbEntity
  8
ﾃ_ﾝﾃ_ﾝ部
100
AcDbLine
 10
257.3186418923743
 20
156.6546972322698
 30
0.0
 11
258.1762484225639
 21
155.6546952057118
 31
0.0
  0
ARC
  5
9DC3
330
1A
100
AcDbEntity
  8
ﾃ_ﾝﾃ_ﾝ部
100
AcDbCircle
 10
286.8990572719489
 20
151.6546871397276
 30
0.0
 40
28.99999999999993
100
AcDbArc
 50
172.071835461379
 51
187.9281189937815
  0
ARC
  5
9DC4
330
1A
100
AcDbEntity
  8
ﾃ_ﾝﾃ_ﾝ部
100
AcDbCircle
 10
286.8990572719489
 20
151.6546871397276
 30
0.0
 40
28.99999999999998
100
AcDbArc
 50
352.071835461379
 51
7.92811899378155
  0
LINE
  5
9DC5
330
1A
100
AcDbEntity
  8
ﾃ_ﾝﾃ_ﾝ部
100
AcDbLine
 10
316.479477933348
 20
146.6546769666908
 30
0.0
 11
315.6218714031585
 21
147.6546789932486
 31
0.0
  0
LINE
  5
9DC6
330
1A
100
AcDbEntity
  8
ﾃ_ﾝﾃ_ﾝ部
100
AcDbLine
 10
315.6218714031585
 20
155.6546728539703
 30
0.0
 11
316.479477933348
 21
156.6546748805281
 31
0.0
  0
LINE
  5
9EE2
330
1A
100
AcDbEntity
  8
SEIHIN
  6
Continuous
 62
     3
370
    50
100
AcDbLine
 10
139.7221902486552
 20
84.65477707269148
 30
0.0
 11
154.7221902486552
 21
84.65477707269148
 31
0.0
  0
LINE
  5
9EE3
330
1A
100
AcDbEntity
  8
SEIHIN
  6
Continuous
 62
     3
370
    50
100
AcDbLine
 10
154.7221902486552
 20
85.65477707269147
 30
0.0
 11
139.9870902486553
 21
85.65467707269126
 31
0.0
  0
LINE
  5
9EE4
330
1A
100
AcDbEntity
  8
SEIHIN
  6
Continuous
 62
     3
370
    50
100
AcDbLine
 10
130.7220402486554
 20
109.6547770726914
 30
0.0
 11
148.7220402486554
 21
109.6547770726914
 31
0.0
  0
LINE
  5
9EE5
330
1A
100
AcDbEntity
  8
SEIHIN
  6
Continuous
 62
     3
370
    50
100
AcDbLine
 10
134.7219902486548
 20
109.6547770726914
 30
0.0
 11
144.722090248655
 21
109.6547770726914
 31
0.0
  0
LINE
  5
9EE6
330
1A
100
AcDbEntity
  8
SEIHIN
  6
Continuous
 62
     3
370
    50
100
AcDbLine
 10
144.4571902486549
 20
108.6547770726913
 30
0.0
 11
134.9869902486551
 21
108.6547770726913
 31
0.0
  0
LINE
  5
9EE7
330
1A
100
AcDbEntity
  8
SEIHIN
  6
Continuous
 62
     3
370
    50
100
AcDbLine
 10
119.7219902486548
 20
108.6547770726913
 30
0.0
 11
119.722090248655
 21
85.65467707269126
 31
0.0
  0
LINE
  5
9EE8
330
1A
100
AcDbEntity
  8
SEIHIN
  6
Continuous
 62
     3
370
    50
100
AcDbLine
 10
120.722090248655
 20
86.15477707269148
 30
0.0
 11
120.722090248655
 21
108.1547770726913
 31
0.0
  0
LINE
  5
9EE9
330
1A
100
AcDbEntity
  8
SEIHIN
  6
Continuous
 62
     3
370
    50
100
AcDbLine
 10
120.7221902486552
 20
84.65467707269127
 30
0.0
 11
129.722090248655
 21
84.65467707269127
 31
0.0
  0
LINE
  5
9EEA
330
1A
100
AcDbEntity
  8
SEIHIN
  6
Continuous
 62
     3
370
    50
100
AcDbLine
 10
129.4571902486549
 20
85.65467707269126
 30
0.0
 11
121.2221902486552
 21
85.65477707269147
 31
0.0
  0
ARC
  5
9EEB
330
1A
100
AcDbEntity
  8
SEIHIN
  6
Continuous
 62
     3
370
    50
100
AcDbCircle
 10
120.722090248655
 20
85.65467707269126
 30
0.0
 40
1.0
100
AcDbArc
 50
180.0
 51
269.9999999647214
  0
ARC
  5
9EEC
330
1A
100
AcDbEntity
  8
SEIHIN
  6
Continuous
 62
     3
370
    50
100
AcDbCircle
 10
121.2221902486552
 20
86.15477707269148
 30
0.0
 40
0.5
100
AcDbArc
 50
180.0
 51
269.9999999646693
  0
LINE
  5
9EED
330
1A
100
AcDbEntity
  8
SEIHIN
  6
Continuous
 62
     3
370
    50
100
AcDbLine
 10
134.7221902486552
 20
88.65477707269135
 30
0.0
 11
139.9870902486553
 21
85.65467707269126
 31
0.0
  0
LINE
  5
9EEE
330
1A
100
AcDbEntity
  8
SEIHIN
  6
Continuous
 62
     3
370
    50
100
AcDbLine
 10
139.7221902486552
 20
84.65477707269148
 30
0.0
 11
134.7221902486552
 21
87.50377707269151
 31
0.0
  0
LINE
  5
9EEF
330
1A
100
AcDbEntity
  8
SEIHIN
  6
Continuous
 62
     3
370
    50
100
AcDbLine
 10
134.7221902486552
 20
88.65477707269135
 30
0.0
 11
129.4571902486549
 21
85.65467707269126
 31
0.0
  0
LINE
  5
9EF0
330
1A
100
AcDbEntity
  8
SEIHIN
  6
Continuous
 62
     3
370
    50
100
AcDbLine
 10
129.722090248655
 20
84.65467707269127
 30
0.0
 11
134.7221902486552
 21
87.50377707269151
 31
0.0
  0
LINE
  5
9EF1
330
1A
100
AcDbEntity
  8
SEIHIN
  6
Continuous
 62
     3
370
    50
100
AcDbLine
 10
129.722090248655
 20
105.6547770726913
 30
0.0
 11
124.4571902486549
 21
108.6547770726913
 31
0.0
  0
LINE
  5
9EF2
330
1A
100
AcDbEntity
  8
SEIHIN
  6
Continuous
 62
     3
370
    50
100
AcDbLine
 10
124.7219902486548
 20
109.6547770726914
 30
0.0
 11
129.722090248655
 21
106.8056770726914
 31
0.0
  0
ARC
  5
9EF3
330
1A
100
AcDbEntity
  8
SEIHIN
  6
Continuous
 62
     3
370
    50
100
AcDbCircle
 10
120.7219902486548
 20
108.6547770726913
 30
0.0
 40
1.000000000000113
100
AcDbArc
 50
89.99999998817099
 51
180.0
  0
LINE
  5
9EF4
330
1A
100
AcDbEntity
  8
SEIHIN
  6
Continuous
 62
     3
370
    50
100
AcDbLine
 10
124.4571902486549
 20
108.6547770726913
 30
0.0
 11
121.222090248655
 21
108.6546770726911
 31
0.0
  0
ARC
  5
9EF5
330
1A
100
AcDbEntity
  8
SEIHIN
  6
Continuous
 62
     3
370
    50
100
AcDbCircle
 10
121.222090248655
 20
108.1547770726913
 30
0.0
 40
0.5
100
AcDbArc
 50
89.99999998822309
 51
180.0
  0
LINE
  5
9EF6
330
1A
100
AcDbEntity
  8
SEIHIN
  6
Continuous
 62
     3
370
    50
100
AcDbLine
 10
124.7219902486548
 20
109.6547770726914
 30
0.0
 11
120.7219902486548
 21
109.6546770726912
 31
0.0
  0
LINE
  5
9EF7
330
1A
100
AcDbEntity
  8
SEIHIN
  6
Continuous
 62
     3
370
    50
100
AcDbLine
 10
134.7219902486548
 20
109.6547770726914
 30
0.0
 11
129.722090248655
 21
106.8056770726914
 31
0.0
  0
LINE
  5
9EF8
330
1A
100
AcDbEntity
  8
SEIHIN
  6
Continuous
 62
     3
370
    50
100
AcDbLine
 10
129.722090248655
 20
105.6547770726913
 30
0.0
 11
134.9869902486551
 21
108.6547770726913
 31
0.0
  0
LINE
  5
9EF9
330
1A
100
AcDbEntity
  8
SEIHIN
  6
Continuous
 62
     3
370
    50
100
AcDbLine
 10
136.2220762869555
 20
106.6547096202828
 30
0.0
 11
143.2220762869555
 21
106.6547445240801
 31
0.0
  0
LINE
  5
9EFA
330
1A
100
AcDbEntity
  8
SEIHIN
  6
Continuous
 62
     3
370
    50
100
AcDbLine
 10
136.2220762869555
 20
106.6547096203801
 30
0.0
 11
136.2220663144834
 21
108.6547096203801
 31
0.0
  0
LINE
  5
9EFB
330
1A
100
AcDbEntity
  8
SEIHIN
  6
Continuous
 62
     3
370
    50
100
AcDbLine
 10
143.2220762869555
 20
106.6547445240801
 30
0.0
 11
143.2220663138858
 21
108.6548445240799
 31
0.0
  0
LINE
  5
9EFC
330
1A
100
AcDbEntity
  8
SEIHIN
  6
Continuous
 62
     3
370
    50
100
AcDbLine
 10
149.7221902486552
 20
84.65467707269127
 30
0.0
 11
149.7221902486552
 21
85.65477707269147
 31
0.0
  0
LINE
  5
9EFD
330
1A
100
AcDbEntity
  8
SEIHIN
  6
Continuous
 62
     3
370
    50
100
AcDbLine
 10
154.7221902486552
 20
84.65467707269127
 30
0.0
 11
154.7221902486552
 21
85.65477707269147
 31
0.0
  0
LINE
  5
9EFE
330
1A
100
AcDbEntity
  8
SEIHIN
  6
Continuous
 62
     3
370
    50
100
AcDbLine
 10
149.722090248655
 20
105.6547770726913
 30
0.0
 11
154.9870902486553
 21
108.6547770726913
 31
0.0
  0
LINE
  5
9EFF
330
1A
100
AcDbEntity
  8
SEIHIN
  6
Continuous
 62
     3
370
    50
100
AcDbLine
 10
154.722090248655
 20
109.6547770726914
 30
0.0
 11
149.7221902486552
 21
106.8056770726914
 31
0.0
  0
LINE
  5
9F00
330
1A
100
AcDbEntity
  8
SEIHIN
  6
Continuous
 62
     3
370
    50
100
AcDbLine
 10
144.722090248655
 20
109.6547770726914
 30
0.0
 11
149.7221902486552
 21
106.8056770726914
 31
0.0
  0
LINE
  5
9F01
330
1A
100
AcDbEntity
  8
SEIHIN
  6
Continuous
 62
     3
370
    50
100
AcDbLine
 10
149.722090248655
 20
105.6547770726913
 30
0.0
 11
144.4571902486549
 21
108.6547770726913
 31
0.0
  0
LINE
  5
9F02
330
1A
100
AcDbEntity
  8
SEIHIN
  6
Continuous
 62
     3
370
    50
100
AcDbLine
 10
159.7221902486552
 20
108.6547770726913
 30
0.0
 11
159.722090248655
 21
109.6546770726912
 31
0.0
  0
LINE
  5
9F03
330
1A
100
AcDbEntity
  8
SEIHIN
  6
Continuous
 62
     3
370
    50
100
AcDbLine
 10
157.722090248655
 20
109.6546770726912
 30
0.0
 11
157.7221902486552
 21
108.6547770726913
 31
0.0
  0
LINE
  5
9F04
330
1A
100
AcDbEntity
  8
SEIHIN
  6
Continuous
 62
     3
370
    50
100
AcDbLine
 10
159.7221902486552
 20
108.6547770726913
 30
0.0
 11
154.9870902486553
 21
108.6547770726913
 31
0.0
  0
LINE
  5
9F05
330
1A
100
AcDbEntity
  8
SEIHIN
  6
Continuous
 62
     3
370
    50
100
AcDbLine
 10
154.722090248655
 20
109.6547770726914
 30
0.0
 11
159.7221902486552
 21
109.6547770726914
 31
0.0
  0
LINE
  5
9F1D
330
1A
100
AcDbEntity
  8
0
 62
     3
100
AcDbLine
 10
276.8990508231527
 20
105.6547770726913
 30
0.0
 11
296.8990466508275
 21
105.6547770726913
 31
0.0
  0
LINE
  5
9F1E
330
1A
100
AcDbEntity
  8
0
 62
     3
100
AcDbLine
 10
276.8990508231527
 20
88.6547770726913
 30
0.0
 11
296.8990466508276
 21
88.6547770726913
 31
0.0
  0
LINE
  5
9F1F
330
1A
100
AcDbEntity
  8
0
 62
     3
100
AcDbLine
 10
276.8990508231527
 20
84.65467707269132
 30
0.0
 11
296.8990466508275
 21
84.65467707269132
 31
0.0
  0
LINE
  5
9F20
330
1A
100
AcDbEntity
  8
0
 62
     3
100
AcDbLine
 10
276.8990508231526
 20
85.65477707269147
 30
0.0
 11
296.8990466508275
 21
85.65477707269147
 31
0.0
  0
DIMENSION
  5
9FDC
330
1A
100
AcDbEntity
  8
SUNPOU
100
AcDbDimension
  2
*D38
 10
186.5840052819268
 20
84.65467707269125
 30
0.0
 11
186.5840052819268
 21
97.15472707269146
 31
0.0
 70
   160
 71
     5
 42
-1.0
  3
STANDARD
100
AcDbAlignedDimension
 13
159.7221902486552
 23
109.6547770726914
 33
0.0
 14
154.7221902486552
 24
84.65467707269127
 34
0.0
 50
90.0
100
AcDbRotatedDimension
  0
DIMENSION
  5
9FF2
330
1A
100
AcDbEntity
  8
SUNPOU
100
AcDbDimension
  2
*D39
 10
171.4493105160583
 20
105.6547770726913
 30
0.0
 11
171.4493105160583
 21
97.15477707269144
 31
0.0
 70
   160
 71
     5
 42
-1.0
  3
STANDARD
100
AcDbAlignedDimension
 13
134.7221902486552
 23
88.65477707269135
 33
0.0
 14
149.722090248655
 24
105.6547770726913
 34
0.0
 50
90.0
100
AcDbRotatedDimension
  0
DIMENSION
  5
A01E
330
1A
100
AcDbEntity
  8
SUNPOU
100
AcDbDimension
  2
*D40
 10
128.3805816303842
 20
84.65467707269127
 30
0.0
 11
124.3805816303841
 21
73.98801040602461
 31
0.0
 70
    32
  1
t<>
 71
     5
 42
-1.0
  3
STANDARD
100
AcDbAlignedDimension
 13
126.8393835865931
 23
85.65470886147897
 33
0.0
 14
126.8393835865931
 24
84.65467707269127
 34
0.0
 50
90.0
100
AcDbRotatedDimension
  0
DIMENSION
  5
A142
330
1A
100
AcDbEntity
  8
SUNPOU
100
AcDbDimension
  2
*D41
 10
154.7221902486552
 20
60.98593039605294
 30
0.0
 11
137.2221402486551
 21
64.98593039605293
 31
0.0
 70
    32
 71
     5
 42
-1.0
  3
STANDARD
100
AcDbAlignedDimension
 13
119.722090248655
 23
85.65467707269126
 33
0.0
 14
154.7221902486552
 24
84.65467707269127
 34
0.0
100
AcDbRotatedDimension
  0
VIEWPORT
  5
22
102
{ACAD_XDICTIONARY
360
A22F
102
}
330
17
100
AcDbEntity
 67
     1
  8
0
100
AcDbViewport
 10
313.6808219178082
 20
148.5
 30
0.0
 40
627.3616438356165
 41
297.0
 68
     2
 69
     1
 12
313.6808219178082
 22
148.5
 13
0.0
 23
0.0
 14
1.0
 24
1.0
 15
10.0
 25
10.0
 16
0.0
 26
0.0
 36
1.0
 17
0.0
 27
0.0
 37
0.0
 42
50.0
 43
0.0
 44
0.0
 45
297.0
 50
0.0
 51
0.0
 72
   100
 90
    32768
  1

281
     0
 71
     1
 74
     0
110
0.0
120
0.0
130
0.0
111
1.0
121
0.0
131
0.0
112
0.0
122
1.0
132
0.0
 79
     0
146
0.0
  0
VIEWPORT
  5
64
102
{ACAD_XDICTIONARY
360
A231
102
}
330
17
100
AcDbEntity
 67
     1
  8
VIEWPORT
100
AcDbViewport
 10
210.0
 20
148.5
 30
0.0
 40
420.0
 41
297.0
 68
     1
 69
     2
 12
210.0
 22
148.5
 13
0.0
 23
0.0
 14
5.0
 24
5.0
 15
0.0
 25
0.0
 16
0.0
 26
0.0
 36
1.0
 17
0.0
 27
0.0
 37
0.0
 42
50.0
 43
0.0
 44
0.0
 45
302.9399999999998
 50
0.0
 51
0.0
 72
   100
 90
    32768
  1

281
     0
 71
     1
 74
     0
110
0.0
120
0.0
130
0.0
111
1.0
121
0.0
131
0.0
112
0.0
122
1.0
132
0.0
 79
     0
146
0.0
  0
ENDSEC
  0
SECTION
  2
OBJECTS
  0
DICTIONARY
  5
C
330
0
100
AcDbDictionary
281
     1
  3
ACAD_COLOR
350
A219
  3
ACAD_GROUP
350
D
  3
ACAD_LAYOUT
350
3BC
  3
ACAD_MATERIAL
350
A218
  3
ACAD_MLINESTYLE
350
E
  3
ACAD_PLOTSETTINGS
350
3BD
  3
ACAD_PLOTSTYLENAME
350
8C12
  3
ACDBHEADERROUNDTRIPXREC
350
A22C
  3
AcDbVariableDictionary
350
A228
1001
ACAD
1000
TREAT_AS_HARD
1070
     0
  0
DICTIONARY
  5
3EB
330
1A
100
AcDbDictionary
280
     1
281
     1
  3
ACAD_LAYOUTSELFREF
360
A206
1001
ACAD
1000
TREAT_AS_HARD
1070
     0
  0
DICTIONARY
  5
3E9
330
17
100
AcDbDictionary
280
     1
281
     1
  3
ACAD_LAYOUTSELFREF
360
A205
1001
ACAD
1000
TREAT_AS_HARD
1070
     0
  0
DICTIONARY
  5
A22F
330
22
100
AcDbDictionary
280
     1
281
     1
  3
ACAD_XREC_ROUNDTRIP
360
A230
  0
DICTIONARY
  5
A231
330
64
100
AcDbDictionary
280
     1
281
     1
  3
ACAD_XREC_ROUNDTRIP
360
A232
  0
DICTIONARY
  5
A219
102
{ACAD_REACTORS
330
C
102
}
330
C
100
AcDbDictionary
281
     1
  0
DICTIONARY
  5
D
102
{ACAD_REACTORS
330
C
102
}
330
C
100
AcDbDictionary
281
     1
1001
ACAD
1000
TREAT_AS_HARD
1070
     0
  0
DICTIONARY
  5
3BC
102
{ACAD_REACTORS
330
C
102
}
330
C
100
AcDbDictionary
281
     1
  3
Model
350
8C14
  3
ﾚｲｱｳﾄ1
350
8C15
1001
ACAD
1000
TREAT_AS_HARD
1070
     0
  0
DICTIONARY
  5
A218
102
{ACAD_REACTORS
330
C
102
}
330
C
100
AcDbDictionary
281
     1
  0
DICTIONARY
  5
E
102
{ACAD_REACTORS
330
C
102
}
330
C
100
AcDbDictionary
281
     1
  3
STANDARD
350
13
1001
ACAD
1000
TREAT_AS_HARD
1070
     0
  0
DICTIONARY
  5
3BD
102
{ACAD_REACTORS
330
C
102
}
330
C
100
AcDbDictionary
281
     1
1001
ACAD
1000
TREAT_AS_HARD
1070
     0
  0
ACDBDICTIONARYWDFLT
  5
8C12
102
{ACAD_REACTORS
330
C
102
}
330
C
100
AcDbDictionary
281
     1
  3
Normal
350
8C13
100
AcDbDictionaryWithDefault
340
8C13
1001
ACAD
1000
TREAT_AS_HARD
1070
     0
  0
DICTIONARY
  5
A22C
102
{ACAD_REACTORS
330
C
102
}
330
C
100
AcDbDictionary
281
     1
  3
COLORDICT
350
A22E
  3
MATERIALDICT
350
A22D
  0
DICTIONARY
  5
A228
102
{ACAD_REACTORS
330
C
102
}
330
C
100
AcDbDictionary
281
     1
  3
DIMASSOC
350
A229
  3
PROJECTNAME
350
A22A
  0
XRECORD
  5
A206
102
{ACAD_REACTORS
330
3EB
102
}
330
3EB
100
AcDbXrecord
280
     1
340
1A
  0
XRECORD
  5
A205
102
{ACAD_REACTORS
330
3E9
102
}
330
3E9
100
AcDbXrecord
280
     1
340
17
  0
XRECORD
  5
A230
102
{ACAD_REACTORS
330
A22F
102
}
330
A22F
100
AcDbXrecord
280
     1
102
SHADEPLOT
 70
     0
  0
XRECORD
  5
A232
102
{ACAD_REACTORS
330
A231
102
}
330
A231
100
AcDbXrecord
280
     1
102
SHADEPLOT
 70
     0
  0
LAYOUT
  5
8C14
102
{ACAD_XDICTIONARY
360
A233
102
}
102
{ACAD_REACTORS
330
3BC
102
}
330
3BC
100
AcDbPlotSettings
  1

  2
クセロPDF
  4
A3
  6

 40
3.174999952316284
 41
3.174999952316284
 42
3.17498779296875
 43
3.17498779296875
 44
296.9259948730469
 45
419.9466552734374
 46
3.16
 47
0.59
 48
-6.614313170998229
 49
-4.585522735826316
140
405.8092329016744
141
279.6682308554291
142
1.0
143
1.0
 70
 11956
 72
     1
 73
     1
 74
     4
  7
monochrome.ctb
 75
    16
147
1.0
148
6.614313170998229
149
4.585522735826316
100
AcDbLayout
  1
Model
 70
     1
 71
     0
 10
0.0
 20
0.0
 11
12.0
 21
9.0
 12
0.0
 22
0.0
 32
0.0
 14
0.0
 24
0.0
 34
0.0
 15
0.0
 25
0.0
 35
0.0
146
0.0
 13
0.0
 23
0.0
 33
0.0
 16
1.0
 26
0.0
 36
0.0
 17
0.0
 27
1.0
 37
0.0
 76
     0
330
1A
  0
LAYOUT
  5
8C15
102
{ACAD_XDICTIONARY
360
A235
102
}
102
{ACAD_REACTORS
330
3BC
102
}
330
3BC
100
AcDbPlotSettings
  1

  2
LP-9200C(CC9E34)
  4

  6

 40
0.0
 41
0.0
 42
0.0
 43
0.0
 44
0.0
 45
0.0
 46
0.0
 47
0.0
 48
0.0
 49
0.0
140
0.0
141
0.0
142
1.0
143
1.0
 70
   688
 72
     0
 73
     0
 74
     5
  7
monochrome.ctb
 75
    16
147
1.0
148
0.0
149
0.0
100
AcDbLayout
  1
ﾚｲｱｳﾄ1
 70
     1
 71
     1
 10
0.0
 20
0.0
 11
420.0
 21
297.0
 12
0.0
 22
0.0
 32
0.0
 14
0.0
 24
0.0
 34
0.0
 15
420.0
 25
297.0
 35
0.0
146
0.0
 13
0.0
 23
0.0
 33
0.0
 16
1.0
 26
0.0
 36
0.0
 17
0.0
 27
1.0
 37
0.0
 76
     0
330
17
331
64
  0
MLINESTYLE
  5
13
102
{ACAD_REACTORS
330
E
102
}
330
E
100
AcDbMlineStyle
  2
STANDARD
 70
     0
  3

 62
     0
 51
90.0
 52
90.0
 71
     2
 49
0.5
 62
   256
  6
BYLAYER
 49
-0.5
 62
   256
  6
BYLAYER
  0
ACDBPLACEHOLDER
  5
8C13
102
{ACAD_REACTORS
330
8C12
102
}
330
8C12
  0
XRECORD
  5
A22E
102
{ACAD_REACTORS
330
A22C
102
}
330
A22C
100
AcDbXrecord
280
     1
340
A219
  0
XRECORD
  5
A22D
102
{ACAD_REACTORS
330
A22C
102
}
330
A22C
100
AcDbXrecord
280
     1
340
A218
  0
DICTIONARYVAR
  5
A229
102
{ACAD_REACTORS
330
A228
102
}
330
A228
100
DictionaryVariables
280
     0
  1
1
  0
DICTIONARYVAR
  5
A22A
102
{ACAD_REACTORS
330
A228
102
}
330
A228
100
DictionaryVariables
280
     0
  1

  0
DICTIONARY
  5
A233
330
8C14
100
AcDbDictionary
280
     1
281
     1
  3
ACAD_XREC_ROUNDTRIP
360
A234
  0
DICTIONARY
  5
A235
330
8C15
100
AcDbDictionary
280
     1
281
     1
  3
ACAD_XREC_ROUNDTRIP
360
A236
  0
XRECORD
  5
A234
102
{ACAD_REACTORS
330
A233
102
}
330
A233
100
AcDbXrecord
280
     1
102
SHADEPLOT
 70
     0
102
SHADEPLOTRESLEVEL
 70
     2
102
SHADEPLOTCUSTOMDPI
 70
   300
  0
XRECORD
  5
A236
102
{ACAD_REACTORS
330
A235
102
}
330
A235
100
AcDbXrecord
280
     1
102
SHADEPLOT
 70
     0
102
SHADEPLOTRESLEVEL
 70
     2
102
SHADEPLOTCUSTOMDPI
 70
   300
  0
ENDSEC
  0
EOF
