  0
SECTION
  2
HEADER
  9
$ACADVER
  1
AC1014
  9
$ACADMAINTVER
 70
     9
  9
$DWGCODEPAGE
  3
ANSI_932
  9
$INSBASE
 10
0.0
 20
0.0
 30
0.0
  9
$EXTMIN
 10
-0.0256328098773793
 20
-0.0181261901288963
 30
-0.0015258207003583
  9
$EXTMAX
 10
797.6000995626677
 20
551.6452344786116
 30
0.0000000349246037
  9
$LIMMIN
 10
0.0
 20
0.0
  9
$LIMMAX
 10
840.0
 20
594.0
  9
$ORTHOMODE
 70
     1
  9
$REGENMODE
 70
     1
  9
$FILLMODE
 70
     1
  9
$QTEXTMODE
 70
     0
  9
$MIRRTEXT
 70
     1
  9
$DRAGMODE
 70
     2
  9
$LTSCALE
 40
2.0
  9
$OSMODE
 70
    35
  9
$ATTMODE
 70
     1
  9
$TEXTSIZE
 40
5.0
  9
$TRACEWID
 40
1.0
  9
$TEXTSTYLE
  7
STANDARD
  9
$CLAYER
  8
SUNPOU
  9
$CELTYPE
  6
BYLAYER
  9
$CECOLOR
 62
   256
  9
$CELTSCALE
 40
1.0
  9
$DELOBJ
 70
     1
  9
$DISPSILH
 70
     0
  9
$DIMSCALE
 40
1.0
  9
$DIMASZ
 40
7.0
  9
$DIMEXO
 40
6.0
  9
$DIMDLI
 40
14.0
  9
$DIMRND
 40
0.0
  9
$DIMDLE
 40
0.0
  9
$DIMEXE
 40
3.0
  9
$DIMTP
 40
0.0
  9
$DIMTM
 40
0.0
  9
$DIMTXT
 40
6.0
  9
$DIMCEN
 40
150.0
  9
$DIMTSZ
 40
0.0
  9
$DIMTOL
 70
     0
  9
$DIMLIM
 70
     0
  9
$DIMTIH
 70
     0
  9
$DIMTOH
 70
     0
  9
$DIMSE1
 70
     0
  9
$DIMSE2
 70
     0
  9
$DIMTAD
 70
     3
  9
$DIMZIN
 70
     0
  9
$DIMBLK
  1

  9
$DIMASO
 70
     1
  9
$DIMSHO
 70
     1
  9
$DIMPOST
  1

  9
$DIMAPOST
  1

  9
$DIMALT
 70
     0
  9
$DIMALTD
 70
     2
  9
$DIMALTF
 40
25.4
  9
$DIMLFAC
 40
1.0
  9
$DIMTOFL
 70
     1
  9
$DIMTVP
 40
0.0
  9
$DIMTIX
 70
     0
  9
$DIMSOXD
 70
     0
  9
$DIMSAH
 70
     1
  9
$DIMBLK1
  1
OPEN
  9
$DIMBLK2
  1
OPEN
  9
$DIMSTYLE
  2
STANDARD
  9
$DIMCLRD
 70
   256
  9
$DIMCLRE
 70
   256
  9
$DIMCLRT
 70
   256
  9
$DIMTFAC
 40
1.0
  9
$DIMGAP
 40
2.0
  9
$DIMJUST
 70
     0
  9
$DIMSD1
 70
     0
  9
$DIMSD2
 70
     0
  9
$DIMTOLJ
 70
     1
  9
$DIMTZIN
 70
     0
  9
$DIMALTZ
 70
     0
  9
$DIMALTTZ
 70
     0
  9
$DIMFIT
 70
     3
  9
$DIMUPT
 70
     0
  9
$DIMUNIT
 70
     2
  9
$DIMDEC
 70
     0
  9
$DIMTDEC
 70
     0
  9
$DIMALTU
 70
     2
  9
$DIMALTTD
 70
     2
  9
$DIMTXSTY
  7
STANDARD
  9
$DIMAUNIT
 70
     0
  9
$LUNITS
 70
     2
  9
$LUPREC
 70
     4
  9
$SKETCHINC
 40
1.0
  9
$FILLETRAD
 40
20.0
  9
$AUNITS
 70
     0
  9
$AUPREC
 70
     0
  9
$MENU
  1
.
  9
$ELEVATION
 40
0.0
  9
$PELEVATION
 40
0.0
  9
$THICKNESS
 40
0.0
  9
$LIMCHECK
 70
     0
  9
$BLIPMODE
 70
     0
  9
$CHAMFERA
 40
20.0
  9
$CHAMFERB
 40
20.0
  9
$CHAMFERC
 40
40.0
  9
$CHAMFERD
 40
0.0
  9
$SKPOLY
 70
     0
  9
$TDCREATE
 40
2451212.659369560
  9
$TDUPDATE
 40
2454216.647911596
  9
$TDINDWG
 40
0.0501314236
  9
$TDUSRTIMER
 40
0.0501314236
  9
$USRTIMER
 70
     1
  9
$ANGBASE
 50
0.0
  9
$ANGDIR
 70
     0
  9
$PDMODE
 70
     0
  9
$PDSIZE
 40
0.0
  9
$PLINEWID
 40
0.0
  9
$COORDS
 70
     0
  9
$SPLFRAME
 70
     0
  9
$SPLINETYPE
 70
     6
  9
$SPLINESEGS
 70
     8
  9
$ATTDIA
 70
     0
  9
$ATTREQ
 70
     1
  9
$HANDLING
 70
 10241
  9
$HANDSEED
  5
918
  9
$SURFTAB1
 70
     6
  9
$SURFTAB2
 70
     6
  9
$SURFTYPE
 70
     6
  9
$SURFU
 70
     6
  9
$SURFV
 70
     6
  9
$UCSNAME
  2

  9
$UCSORG
 10
0.0
 20
0.0
 30
0.0
  9
$UCSXDIR
 10
1.0
 20
0.0
 30
0.0
  9
$UCSYDIR
 10
0.0
 20
1.0
 30
0.0
  9
$PUCSNAME
  2

  9
$PUCSORG
 10
0.0
 20
0.0
 30
0.0
  9
$PUCSXDIR
 10
1.0
 20
0.0
 30
0.0
  9
$PUCSYDIR
 10
0.0
 20
1.0
 30
0.0
  9
$USERI1
 70
     0
  9
$USERI2
 70
     0
  9
$USERI3
 70
     0
  9
$USERI4
 70
     0
  9
$USERI5
 70
     0
  9
$USERR1
 40
0.0
  9
$USERR2
 40
0.0
  9
$USERR3
 40
0.0
  9
$USERR4
 40
0.0
  9
$USERR5
 40
0.0
  9
$WORLDVIEW
 70
     1
  9
$SHADEDGE
 70
     3
  9
$SHADEDIF
 70
    70
  9
$TILEMODE
 70
     1
  9
$MAXACTVP
 70
    16
  9
$PINSBASE
 10
0.0
 20
0.0
 30
0.0
  9
$PLIMCHECK
 70
     0
  9
$PEXTMIN
 10
0.0
 20
0.0
 30
0.0
  9
$PEXTMAX
 10
420.0
 20
297.0
 30
0.0
  9
$PLIMMIN
 10
0.0
 20
0.0
  9
$PLIMMAX
 10
420.0
 20
297.0
  9
$UNITMODE
 70
     0
  9
$VISRETAIN
 70
     0
  9
$PLINEGEN
 70
     0
  9
$PSLTSCALE
 70
     1
  9
$TREEDEPTH
 70
  3020
  9
$PICKSTYLE
 70
     1
  9
$CMLSTYLE
  2
STANDARD
  9
$CMLJUST
 70
     0
  9
$CMLSCALE
 40
1.0
  9
$PROXYGRAPHICS
 70
     1
  9
$MEASUREMENT
 70
     1
  0
ENDSEC
  0
SECTION
  2
CLASSES
  0
CLASS
  1
ACDBDICTIONARYWDFLT
  2
AcDbDictionaryWithDefault
  3
AutoCAD 2000
 90
        0
280
     0
281
     0
  0
CLASS
  1
ACDBPLACEHOLDER
  2
AcDbPlaceHolder
  3
AutoCAD 2000
 90
        0
280
     0
281
     0
  0
CLASS
  1
LAYOUT
  2
AcDbLayout
  3
AutoCAD 2000
 90
        0
280
     0
281
     0
  0
CLASS
  1
LONG_TRANSACTION
  2
AcDbLongTransaction
  3
AutoCAD 2000
 90
        0
280
     0
281
     0
  0
CLASS
  1
LWPOLYLINE
  2
AcDbPolyline
  3
AutoCAD 2000
 90
        0
280
     0
281
     1
  0
CLASS
  1
HATCH
  2
AcDbHatch
  3
AutoCAD 2000
 90
        0
280
     0
281
     1
  0
CLASS
  1
XRECORD
  2
AcDbXrecord
  3
AutoCAD 2000
 90
        0
280
     0
281
     0
  0
CLASS
  1
LONG_TRANSACTION
  2
AcDbLongTransaction
  3
AutoCAD 2000
 90
        0
280
     0
281
     0
  0
CLASS
  1
LWPOLYLINE
  2
AcDbPolyline
  3
AutoCAD 2000
 90
        0
280
     0
281
     1
  0
CLASS
  1
HATCH
  2
AcDbHatch
  3
AutoCAD 2000
 90
        0
280
     0
281
     1
  0
CLASS
  1
XRECORD
  2
AcDbXrecord
  3
AutoCAD 2000
 90
        0
280
     0
281
     0
  0
CLASS
  1
LONG_TRANSACTION
  2
AcDbLongTransaction
  3
AutoCAD 2000
 90
        0
280
     0
281
     0
  0
CLASS
  1
LWPOLYLINE
  2
AcDbPolyline
  3
AutoCAD 2000
 90
        0
280
     0
281
     1
  0
CLASS
  1
HATCH
  2
AcDbHatch
  3
AutoCAD 2000
 90
        0
280
     0
281
     1
  0
CLASS
  1
XRECORD
  2
AcDbXrecord
  3
AutoCAD 2000
 90
        0
280
     0
281
     0
  0
CLASS
  1
LONG_TRANSACTION
  2
AcDbLongTransaction
  3
AutoCAD 2000
 90
        0
280
     0
281
     0
  0
CLASS
  1
LWPOLYLINE
  2
AcDbPolyline
  3
AutoCAD 2000
 90
        0
280
     0
281
     1
  0
CLASS
  1
HATCH
  2
AcDbHatch
  3
AutoCAD 2000
 90
        0
280
     0
281
     1
  0
CLASS
  1
XRECORD
  2
AcDbXrecord
  3
AutoCAD 2000
 90
        0
280
     0
281
     0
  0
ENDSEC
  0
SECTION
  2
TABLES
  0
TABLE
  2
VPORT
  5
8
330
0
100
AcDbSymbolTable
 70
     3
  0
VPORT
  5
8F4
330
8
100
AcDbSymbolTableRecord
100
AcDbViewportTableRecord
  2
*ACTIVE
 70
     0
 10
0.0
 20
0.0
 11
1.0
 21
1.0
 12
394.4276819382313
 22
263.6679382431991
 13
0.0
 23
0.0
 14
5.0
 24
5.0
 15
0.0
 25
0.0
 16
0.0
 26
0.0
 36
1.0
 17
0.0
 27
0.0
 37
0.0
 40
673.2805957684722
 41
1.566326530612244
 42
50.0
 43
0.0
 44
0.0
 50
0.0
 51
0.0
 71
     0
 72
   100
 73
     1
 74
     0
 75
     0
 76
     0
 77
     0
 78
     0
  0
ENDTAB
  0
TABLE
  2
LTYPE
  5
5
330
0
100
AcDbSymbolTable
 70
     3
  0
LTYPE
  5
14
330
5
100
AcDbSymbolTableRecord
100
AcDbLinetypeTableRecord
  2
BYBLOCK
 70
     0
  3

 72
    65
 73
     0
 40
0.0
  0
LTYPE
  5
15
330
5
100
AcDbSymbolTableRecord
100
AcDbLinetypeTableRecord
  2
BYLAYER
 70
     0
  3

 72
    65
 73
     0
 40
0.0
  0
LTYPE
  5
16
330
5
100
AcDbSymbolTableRecord
100
AcDbLinetypeTableRecord
  2
CONTINUOUS
 70
     0
  3
Solid line
 72
    65
 73
     0
 40
0.0
  0
LTYPE
  5
115
330
5
100
AcDbSymbolTableRecord
100
AcDbLinetypeTableRecord
  2
PHANTOM
 70
     0
  3
______  __  __  ______  __  __  ______  __  __ 
 72
    65
 73
     6
 40
2.5
 49
1.25
 74
     0
 49
-0.25
 74
     0
 49
0.25
 74
     0
 49
-0.25
 74
     0
 49
0.25
 74
     0
 49
-0.25
 74
     0
  0
LTYPE
  5
135
330
5
100
AcDbSymbolTableRecord
100
AcDbLinetypeTableRecord
  2
CENTER
 70
     0
  3
____ _ ____ _ ____ _ ____ _ ____ _ ____ _ ____ 
 72
    65
 73
     4
 40
2.0
 49
1.25
 74
     0
 49
-0.25
 74
     0
 49
0.25
 74
     0
 49
-0.25
 74
     0
  0
ENDTAB
  0
TABLE
  2
LAYER
  5
2
330
0
100
AcDbSymbolTable
 70
     9
  0
LAYER
  5
F
330
2
100
AcDbSymbolTableRecord
100
AcDbLayerTableRecord
  2
0
 70
     0
 62
     7
  6
CONTINUOUS
  0
LAYER
  5
62
330
2
100
AcDbSymbolTableRecord
100
AcDbLayerTableRecord
  2
VIEWPORT
 70
     0
 62
     7
  6
CONTINUOUS
  0
LAYER
  5
65
330
2
100
AcDbSymbolTableRecord
100
AcDbLayerTableRecord
  2
ZUWAKU
 70
     0
 62
     7
  6
CONTINUOUS
  0
LAYER
  5
3C5
330
2
100
AcDbSymbolTableRecord
100
AcDbLayerTableRecord
  2
NOKITOI
 70
     0
 62
     8
  6
PHANTOM
  0
LAYER
  5
3C6
330
2
100
AcDbSymbolTableRecord
100
AcDbLayerTableRecord
  2
SEIHIN
 70
     0
 62
     3
  6
CONTINUOUS
  0
LAYER
  5
3C7
330
2
100
AcDbSymbolTableRecord
100
AcDbLayerTableRecord
  2
SUNPOU
 70
     0
 62
     4
  6
CONTINUOUS
  0
LAYER
  5
3C8
330
2
100
AcDbSymbolTableRecord
100
AcDbLayerTableRecord
  2
CENTER_L
 70
     0
 62
     1
  6
CENTER
  0
LAYER
  5
3EA
330
2
100
AcDbSymbolTableRecord
100
AcDbLayerTableRecord
  2
DEFPOINTS
 70
     0
 62
     7
  6
CONTINUOUS
  0
LAYER
  5
73E
330
2
100
AcDbSymbolTableRecord
100
AcDbLayerTableRecord
  2
MOJI
 70
     0
 62
     2
  6
CONTINUOUS
  0
ENDTAB
  0
TABLE
  2
STYLE
  5
3
330
0
100
AcDbSymbolTable
 70
     2
  0
STYLE
  5
10
330
3
100
AcDbSymbolTableRecord
100
AcDbTextStyleTableRecord
  2
STANDARD
 70
     0
 40
0.0
 41
1.0
 50
0.0
 71
     0
 42
5.0
  3
TXT
  4
bigfont.shx
  0
STYLE
  5
73F
330
3
100
AcDbSymbolTableRecord
100
AcDbTextStyleTableRecord
  2
ｽﾀｲﾙ1
 70
     0
 40
0.0
 41
1.0
 50
0.0
 71
     0
 42
2.5
  3
MS PGothic.ttf
  4

1001
ACAD
1000
MS PGothic
1071
    32818
  0
ENDTAB
  0
TABLE
  2
VIEW
  5
6
330
0
100
AcDbSymbolTable
 70
     0
  0
ENDTAB
  0
TABLE
  2
UCS
  5
7
330
0
100
AcDbSymbolTable
 70
     0
  0
ENDTAB
  0
TABLE
  2
APPID
  5
9
330
0
100
AcDbSymbolTable
 70
     1
  0
APPID
  5
11
330
9
100
AcDbSymbolTableRecord
100
AcDbRegAppTableRecord
  2
ACAD
 70
     0
  0
ENDTAB
  0
TABLE
  2
DIMSTYLE
  5
A
330
0
100
AcDbSymbolTable
 70
     1
  0
DIMSTYLE
105
1D
102
{ACAD_REACTORS
330
3EF
330
423
330
430
330
43D
330
44A
330
457
102
}
330
A
100
AcDbSymbolTableRecord
100
AcDbDimStyleTableRecord
  2
STANDARD
 70
     0
  3

  4

  5

  6

  7

 40
1.0
 41
0.18
 42
0.0625
 43
0.38
 44
0.18
 45
0.0
 46
0.0
 47
0.0
 48
0.0
140
0.18
141
0.09
142
0.0
143
25.4
144
1.0
145
0.0
146
1.0
147
0.09
 71
     0
 72
     0
 73
     1
 74
     1
 75
     0
 76
     0
 77
     0
 78
     0
170
     0
171
     2
172
     0
173
     0
174
     0
175
     0
176
     0
177
     0
178
     0
270
     2
271
     4
272
     4
273
     2
274
     2
340
10
275
     0
280
     0
281
     0
282
     0
283
     1
284
     0
285
     0
286
     0
287
     3
288
     0
  0
ENDTAB
  0
TABLE
  2
BLOCK_RECORD
  5
1
330
0
100
AcDbSymbolTable
 70
     7
  0
BLOCK_RECORD
  5
1A
102
{ACAD_XDICTIONARY
360
687
102
}
330
1
100
AcDbSymbolTableRecord
100
AcDbBlockTableRecord
  2
*MODEL_SPACE
  0
BLOCK_RECORD
  5
17
102
{ACAD_XDICTIONARY
360
685
102
}
330
1
100
AcDbSymbolTableRecord
100
AcDbBlockTableRecord
  2
*PAPER_SPACE
  0
BLOCK_RECORD
  5
6D
330
1
100
AcDbSymbolTableRecord
100
AcDbBlockTableRecord
  2
_OPEN
  0
BLOCK_RECORD
  5
3E0
330
1
100
AcDbSymbolTableRecord
100
AcDbBlockTableRecord
  2
*D1
  0
BLOCK_RECORD
  5
417
330
1
100
AcDbSymbolTableRecord
100
AcDbBlockTableRecord
  2
*D2
  0
BLOCK_RECORD
  5
424
330
1
100
AcDbSymbolTableRecord
100
AcDbBlockTableRecord
  2
*D3
  0
BLOCK_RECORD
  5
431
330
1
100
AcDbSymbolTableRecord
100
AcDbBlockTableRecord
  2
*D4
  0
BLOCK_RECORD
  5
43E
330
1
100
AcDbSymbolTableRecord
100
AcDbBlockTableRecord
  2
*D5
  0
BLOCK_RECORD
  5
44B
330
1
100
AcDbSymbolTableRecord
100
AcDbBlockTableRecord
  2
*D6
  0
ENDTAB
  0
ENDSEC
  0
SECTION
  2
BLOCKS
  0
BLOCK
  5
1B
330
1A
100
AcDbEntity
  8
0
100
AcDbBlockBegin
  2
*MODEL_SPACE
 70
     0
 10
0.0
 20
0.0
 30
0.0
  3
*MODEL_SPACE
  1

  0
ENDBLK
  5
1C
330
1A
100
AcDbEntity
  8
0
100
AcDbBlockEnd
  0
BLOCK
  5
18
330
17
100
AcDbEntity
 67
     1
  8
0
100
AcDbBlockBegin
  2
*PAPER_SPACE
 70
     0
 10
0.0
 20
0.0
 30
0.0
  3
*PAPER_SPACE
  1

  0
ENDBLK
  5
19
330
17
100
AcDbEntity
 67
     1
  8
0
100
AcDbBlockEnd
  0
BLOCK
  5
6E
330
6D
100
AcDbEntity
  8
0
100
AcDbBlockBegin
  2
_OPEN
 70
     0
 10
0.0
 20
0.0
 30
0.0
  3
_OPEN
  1

  0
LINE
  5
6F
330
6D
100
AcDbEntity
  8
0
  6
BYBLOCK
 62
     0
100
AcDbLine
 10
-1.0
 20
0.1666666666666666
 30
0.0
 11
0.0
 21
0.0
 31
0.0
  0
LINE
  5
70
330
6D
100
AcDbEntity
  8
0
  6
BYBLOCK
 62
     0
100
AcDbLine
 10
0.0
 20
0.0
 30
0.0
 11
-1.0
 21
-0.1666666666666666
 31
0.0
  0
LINE
  5
71
330
6D
100
AcDbEntity
  8
0
  6
BYBLOCK
 62
     0
100
AcDbLine
 10
0.0
 20
0.0
 30
0.0
 11
-1.0
 21
0.0
 31
0.0
  0
ENDBLK
  5
72
330
6D
100
AcDbEntity
  8
0
100
AcDbBlockEnd
  0
BLOCK
  5
40A
330
3E0
100
AcDbEntity
  8
0
100
AcDbBlockBegin
  2
*D1
 70
     1
 10
0.0
 20
0.0
 30
0.0
  3
*D1
  1

  0
LINE
  5
815
330
3E0
100
AcDbEntity
  8
SUNPOU
100
AcDbLine
 10
487.0165353925463
 20
385.1826346398776
 30
0.0
 11
500.5611873068761
 21
385.1826346398776
 31
0.0
  0
LINE
  5
816
330
3E0
100
AcDbEntity
  8
SUNPOU
100
AcDbLine
 10
491.2107895925463
 20
370.1826346612985
 30
0.0
 11
500.561187306876
 21
370.1826346612985
 31
0.0
  0
LINE
  5
817
330
3E0
100
AcDbEntity
  8
SUNPOU
100
AcDbLine
 10
497.5611873068761
 20
392.1826346398776
 30
0.0
 11
497.5611873068761
 21
399.1826346398776
 31
0.0
  0
LINE
  5
818
330
3E0
100
AcDbEntity
  8
SUNPOU
100
AcDbLine
 10
497.561187306876
 20
363.1826346612985
 30
0.0
 11
497.561187306876
 21
356.1826346612984
 31
0.0
  0
LINE
  5
819
330
3E0
100
AcDbEntity
  8
SUNPOU
100
AcDbLine
 10
497.5611873068761
 20
385.1826346398776
 30
0.0
 11
497.561187306876
 21
370.1826346612985
 31
0.0
  0
INSERT
  5
81A
330
3E0
100
AcDbEntity
  8
SUNPOU
100
AcDbBlockReference
  2
_OPEN
 10
497.5611873068761
 20
385.1826346398776
 30
0.0
 41
7.0
 42
7.0
 43
7.0
 50
270.0
  0
INSERT
  5
81B
330
3E0
100
AcDbEntity
  8
SUNPOU
100
AcDbBlockReference
  2
_OPEN
 10
497.561187306876
 20
370.1826346612985
 30
0.0
 41
7.0
 42
7.0
 43
7.0
 50
90.0
  0
MTEXT
  5
81C
330
3E0
100
AcDbEntity
  8
SUNPOU
100
AcDbMText
 10
492.5611873068759
 20
377.6826346505881
 30
0.0
 40
6.0
 41
0.0
 71
     5
 72
     1
  1
\A1;15
 11
0.0000000000000001
 21
1.0
 31
0.0
1001
ACAD
1000
MTEXTBEGIN
1070
    73
1070
     1
1070
    44
1040
1.0
1070
    74
1070
     0
1000
MTEXTEND
  0
POINT
  5
81D
330
3E0
100
AcDbEntity
  8
DEFPOINTS
 62
     0
100
AcDbPoint
 10
481.0165353925462
 20
385.1826346398776
 30
0.0
  0
POINT
  5
81E
330
3E0
100
AcDbEntity
  8
DEFPOINTS
 62
     0
100
AcDbPoint
 10
485.2107895925463
 20
370.1826346612985
 30
0.0
  0
POINT
  5
81F
330
3E0
100
AcDbEntity
  8
DEFPOINTS
 62
     0
100
AcDbPoint
 10
497.561187306876
 20
370.1826346612985
 30
0.0
  0
ENDBLK
  5
416
330
3E0
100
AcDbEntity
  8
0
100
AcDbBlockEnd
  0
BLOCK
  5
46E
330
417
100
AcDbEntity
  8
0
100
AcDbBlockBegin
  2
*D2
 70
     1
 10
0.0
 20
0.0
 30
0.0
  3
*D2
  1

  0
LINE
  5
829
330
417
100
AcDbEntity
  8
SUNPOU
100
AcDbLine
 10
546.0538815925462
 20
385.1826346398776
 30
0.0
 11
580.8501043828433
 21
385.1826346398776
 31
0.0
  0
LINE
  5
82A
330
417
100
AcDbEntity
  8
SUNPOU
100
AcDbLine
 10
547.0538815925463
 20
341.1826346398776
 30
0.0
 11
580.8501043828433
 21
341.1826346398776
 31
0.0
  0
LINE
  5
82B
330
417
100
AcDbEntity
  8
SUNPOU
100
AcDbLine
 10
577.8501043828432
 20
378.1826346398776
 30
0.0
 11
577.8501043828432
 21
348.1826346398776
 31
0.0
  0
INSERT
  5
82C
330
417
100
AcDbEntity
  8
SUNPOU
100
AcDbBlockReference
  2
_OPEN
 10
577.8501043828432
 20
385.1826346398776
 30
0.0
 41
7.0
 42
7.0
 43
7.0
 50
90.0
  0
INSERT
  5
82D
330
417
100
AcDbEntity
  8
SUNPOU
100
AcDbBlockReference
  2
_OPEN
 10
577.8501043828432
 20
341.1826346398776
 30
0.0
 41
7.0
 42
7.0
 43
7.0
 50
270.0
  0
MTEXT
  5
82E
330
417
100
AcDbEntity
  8
SUNPOU
100
AcDbMText
 10
572.8501043828431
 20
363.1826346398776
 30
0.0
 40
6.0
 41
0.0
 71
     5
 72
     1
  1
\A1;※44
 11
0.0000000000000001
 21
1.0
 31
0.0
1001
ACAD
1000
MTEXTBEGIN
1070
    73
1070
     1
1070
    44
1040
1.0
1070
    74
1070
     0
1000
MTEXTEND
  0
POINT
  5
82F
330
417
100
AcDbEntity
  8
DEFPOINTS
 62
     0
100
AcDbPoint
 10
540.0538815925463
 20
385.1826346398776
 30
0.0
  0
POINT
  5
830
330
417
100
AcDbEntity
  8
DEFPOINTS
 62
     0
100
AcDbPoint
 10
541.0538815925463
 20
341.1826346398776
 30
0.0
  0
POINT
  5
831
330
417
100
AcDbEntity
  8
DEFPOINTS
 62
     0
100
AcDbPoint
 10
577.8501043828432
 20
341.1826346398776
 30
0.0
  0
ENDBLK
  5
478
330
417
100
AcDbEntity
  8
0
100
AcDbBlockEnd
  0
BLOCK
  5
425
330
424
100
AcDbEntity
  8
0
100
AcDbBlockBegin
  2
*D3
 70
     1
 10
0.0
 20
0.0
 30
0.0
  3
*D3
  1

  0
LINE
  5
820
330
424
100
AcDbEntity
  8
SUNPOU
100
AcDbLine
 10
547.0538815925463
 20
431.1826346398776
 30
0.0
 11
597.4942876670811
 21
431.1826346398776
 31
0.0
  0
LINE
  5
821
330
424
100
AcDbEntity
  8
SUNPOU
100
AcDbLine
 10
547.0538815925463
 20
341.1826346398776
 30
0.0
 11
597.4942876670811
 21
341.1826346398776
 31
0.0
  0
LINE
  5
822
330
424
100
AcDbEntity
  8
SUNPOU
100
AcDbLine
 10
594.4942876670811
 20
424.1826346398775
 30
0.0
 11
594.4942876670811
 21
348.1826346398776
 31
0.0
  0
INSERT
  5
823
330
424
100
AcDbEntity
  8
SUNPOU
100
AcDbBlockReference
  2
_OPEN
 10
594.4942876670811
 20
431.1826346398776
 30
0.0
 41
7.0
 42
7.0
 43
7.0
 50
90.0
  0
INSERT
  5
824
330
424
100
AcDbEntity
  8
SUNPOU
100
AcDbBlockReference
  2
_OPEN
 10
594.4942876670811
 20
341.1826346398776
 30
0.0
 41
7.0
 42
7.0
 43
7.0
 50
270.0
  0
MTEXT
  5
825
330
424
100
AcDbEntity
  8
SUNPOU
100
AcDbMText
 10
589.494287667081
 20
386.1826346398776
 30
0.0
 40
6.0
 41
0.0
 71
     5
 72
     1
  1
\A1;90
 11
0.0000000000000001
 21
1.0
 31
0.0
1001
ACAD
1000
MTEXTBEGIN
1070
    73
1070
     1
1070
    44
1040
1.0
1070
    74
1070
     0
1000
MTEXTEND
  0
POINT
  5
826
330
424
100
AcDbEntity
  8
DEFPOINTS
 62
     0
100
AcDbPoint
 10
541.0538815925463
 20
431.1826346398776
 30
0.0
  0
POINT
  5
827
330
424
100
AcDbEntity
  8
DEFPOINTS
 62
     0
100
AcDbPoint
 10
541.0538815925463
 20
341.1826346398776
 30
0.0
  0
POINT
  5
828
330
424
100
AcDbEntity
  8
DEFPOINTS
 62
     0
100
AcDbPoint
 10
594.4942876670811
 20
341.1826346398776
 30
0.0
  0
ENDBLK
  5
42F
330
424
100
AcDbEntity
  8
0
100
AcDbBlockEnd
  0
BLOCK
  5
432
330
431
100
AcDbEntity
  8
0
100
AcDbBlockBegin
  2
*D4
 70
     1
 10
0.0
 20
0.0
 30
0.0
  3
*D4
  1

  0
LINE
  5
80C
330
431
100
AcDbEntity
  8
SUNPOU
100
AcDbLine
 10
541.0538820925463
 20
209.3040439546514
 30
0.0
 11
586.4112856233605
 21
209.3040439546513
 31
0.0
  0
LINE
  5
80D
330
431
100
AcDbEntity
  8
SUNPOU
100
AcDbLine
 10
477.0165353925462
 20
133.8040439200731
 30
0.0
 11
586.4112856233605
 21
133.8040439200731
 31
0.0
  0
LINE
  5
80E
330
431
100
AcDbEntity
  8
SUNPOU
100
AcDbLine
 10
583.4112856233605
 20
202.3040439546513
 30
0.0
 11
583.4112856233605
 21
140.8040439200731
 31
0.0
  0
INSERT
  5
80F
330
431
100
AcDbEntity
  8
SUNPOU
100
AcDbBlockReference
  2
_OPEN
 10
583.4112856233605
 20
209.3040439546513
 30
0.0
 41
7.0
 42
7.0
 43
7.0
 50
90.0
  0
INSERT
  5
810
330
431
100
AcDbEntity
  8
SUNPOU
100
AcDbBlockReference
  2
_OPEN
 10
583.4112856233605
 20
133.8040439200731
 30
0.0
 41
7.0
 42
7.0
 43
7.0
 50
270.0
  0
MTEXT
  5
811
330
431
100
AcDbEntity
  8
SUNPOU
100
AcDbMText
 10
578.4112856233605
 20
171.5540439373623
 30
0.0
 40
6.0
 41
0.0
 71
     5
 72
     1
  1
\A1;76
 11
0.0000000000000001
 21
1.0
 31
0.0
1001
ACAD
1000
MTEXTBEGIN
1070
    73
1070
     1
1070
    44
1040
1.0
1070
    74
1070
     0
1000
MTEXTEND
  0
POINT
  5
812
330
431
100
AcDbEntity
  8
DEFPOINTS
 62
     0
100
AcDbPoint
 10
535.0538820925463
 20
209.3040439546514
 30
0.0
  0
POINT
  5
813
330
431
100
AcDbEntity
  8
DEFPOINTS
 62
     0
100
AcDbPoint
 10
471.0165353925463
 20
133.8040439200731
 30
0.0
  0
POINT
  5
814
330
431
100
AcDbEntity
  8
DEFPOINTS
 62
     0
100
AcDbPoint
 10
583.4112856233605
 20
133.8040439200731
 30
0.0
  0
ENDBLK
  5
43C
330
431
100
AcDbEntity
  8
0
100
AcDbBlockEnd
  0
BLOCK
  5
43F
330
43E
100
AcDbEntity
  8
0
100
AcDbBlockBegin
  2
*D5
 70
     1
 10
0.0
 20
0.0
 30
0.0
  3
*D5
  1

  0
LINE
  5
803
330
43E
100
AcDbEntity
  8
SUNPOU
100
AcDbLine
 10
542.5440628925463
 20
207.4203976416389
 30
0.0
 11
542.5440628925463
 21
285.4155854124112
 31
0.0
  0
LINE
  5
804
330
43E
100
AcDbEntity
  8
SUNPOU
100
AcDbLine
 10
391.5824783094683
 20
164.8610344459929
 30
0.0
 11
391.5824783094683
 21
285.4155854124112
 31
0.0
  0
LINE
  5
805
330
43E
100
AcDbEntity
  8
SUNPOU
100
AcDbLine
 10
535.5440628925463
 20
282.4155854124112
 30
0.0
 11
398.5824783094684
 21
282.4155854124112
 31
0.0
  0
INSERT
  5
806
330
43E
100
AcDbEntity
  8
SUNPOU
100
AcDbBlockReference
  2
_OPEN
 10
542.5440628925463
 20
282.4155854124112
 30
0.0
 41
7.0
 42
7.0
 43
7.0
  0
INSERT
  5
807
330
43E
100
AcDbEntity
  8
SUNPOU
100
AcDbBlockReference
  2
_OPEN
 10
391.5824783094683
 20
282.4155854124112
 30
0.0
 41
7.0
 42
7.0
 43
7.0
 50
180.0
  0
MTEXT
  5
808
330
43E
100
AcDbEntity
  8
SUNPOU
100
AcDbMText
 10
467.0632706010073
 20
287.4155854124112
 30
0.0
 40
6.0
 41
0.0
 71
     5
 72
     1
  1
\A1;151
1001
ACAD
1000
MTEXTBEGIN
1070
    73
1070
     1
1070
    44
1040
1.0
1070
    74
1070
     0
1000
MTEXTEND
  0
POINT
  5
809
330
43E
100
AcDbEntity
  8
DEFPOINTS
 62
     0
100
AcDbPoint
 10
542.5440628925463
 20
201.4203976416389
 30
0.0
  0
POINT
  5
80A
330
43E
100
AcDbEntity
  8
DEFPOINTS
 62
     0
100
AcDbPoint
 10
391.5824783094683
 20
158.8610344459929
 30
0.0
  0
POINT
  5
80B
330
43E
100
AcDbEntity
  8
DEFPOINTS
 62
     0
100
AcDbPoint
 10
391.5824783094683
 20
282.4155854124112
 30
0.0
  0
ENDBLK
  5
449
330
43E
100
AcDbEntity
  8
0
100
AcDbBlockEnd
  0
BLOCK
  5
44C
330
44B
100
AcDbEntity
  8
0
100
AcDbBlockBegin
  2
*D6
 70
     1
 10
0.0
 20
0.0
 30
0.0
  3
*D6
  1

  0
LINE
  5
7FA
330
44B
100
AcDbEntity
  8
SUNPOU
100
AcDbLine
 10
403.9481115925463
 20
249.9513501416389
 30
0.0
 11
339.1937443099696
 21
249.9513501416389
 31
0.0
  0
LINE
  5
7FB
330
44B
100
AcDbEntity
  8
SUNPOU
100
AcDbLine
 10
465.0165353925463
 20
133.8040439200731
 30
0.0
 11
339.1937443099696
 21
133.8040439200731
 31
0.0
  0
LINE
  5
7FC
330
44B
100
AcDbEntity
  8
SUNPOU
100
AcDbLine
 10
342.1937443099695
 20
242.9513501416389
 30
0.0
 11
342.1937443099695
 21
140.8040439200731
 31
0.0
  0
INSERT
  5
7FD
330
44B
100
AcDbEntity
  8
SUNPOU
100
AcDbBlockReference
  2
_OPEN
 10
342.1937443099695
 20
249.9513501416389
 30
0.0
 41
7.0
 42
7.0
 43
7.0
 50
90.0
  0
INSERT
  5
7FE
330
44B
100
AcDbEntity
  8
SUNPOU
100
AcDbBlockReference
  2
_OPEN
 10
342.1937443099695
 20
133.8040439200731
 30
0.0
 41
7.0
 42
7.0
 43
7.0
 50
270.0
  0
MTEXT
  5
7FF
330
44B
100
AcDbEntity
  8
SUNPOU
100
AcDbMText
 10
337.1937443099695
 20
191.8776970308561
 30
0.0
 40
6.0
 41
0.0
 71
     5
 72
     1
  1
\A1;116
 11
0.0000000000000001
 21
1.0
 31
0.0
1001
ACAD
1000
MTEXTBEGIN
1070
    73
1070
     1
1070
    44
1040
1.0
1070
    74
1070
     0
1000
MTEXTEND
  0
POINT
  5
800
330
44B
100
AcDbEntity
  8
DEFPOINTS
 62
     0
100
AcDbPoint
 10
409.9481115925462
 20
249.9513501416389
 30
0.0
  0
POINT
  5
801
330
44B
100
AcDbEntity
  8
DEFPOINTS
 62
     0
100
AcDbPoint
 10
471.0165353925463
 20
133.8040439200731
 30
0.0
  0
POINT
  5
802
330
44B
100
AcDbEntity
  8
DEFPOINTS
 62
     0
100
AcDbPoint
 10
342.1937443099695
 20
133.8040439200731
 30
0.0
  0
ENDBLK
  5
456
330
44B
100
AcDbEntity
  8
0
100
AcDbBlockEnd
  0
ENDSEC
  0
SECTION
  2
ENTITIES
  0
LINE
  5
286
330
1A
100
AcDbEntity
  8
SEIHIN
 62
     3
100
AcDbLine
 10
392.3287424925463
 20
431.1826346398776
 30
0.0
 11
541.0538815925463
 21
431.1826346398776
 31
0.0
  0
LINE
  5
287
330
1A
100
AcDbEntity
  8
SEIHIN
 62
     3
100
AcDbLine
 10
392.3287424925463
 20
341.1826346398776
 30
0.0
 11
541.0538815925463
 21
341.1826346398776
 31
0.0
  0
ARC
  5
288
330
1A
100
AcDbEntity
  8
SEIHIN
 62
     3
100
AcDbCircle
 10
471.0165353925463
 20
1136.304043541639
 30
0.0
 40
1002.499999621565
100
AcDbArc
 50
267.0148646793621
 51
273.5168009216737
  0
ARC
  5
289
330
1A
100
AcDbEntity
  8
SEIHIN
 62
     3
100
AcDbCircle
 10
471.0165353925463
 20
1136.304043541639
 30
0.0
 40
1000.999999569697
100
AcDbArc
 50
267.0148646786246
 51
273.5168009178579
  0
ARC
  5
28A
330
1A
100
AcDbEntity
  8
SEIHIN
 62
     3
100
AcDbCircle
 10
471.0165353925463
 20
1136.304043541639
 30
0.0
 40
999.9999996361417
100
AcDbArc
 50
267.0148646804369
 51
273.5168009188859
  0
ARC
  5
28B
330
1A
100
AcDbEntity
  8
SEIHIN
 62
     3
100
AcDbCircle
 10
471.0165353925463
 20
1136.304043541639
 30
0.0
 40
998.5499995829776
100
AcDbArc
 50
270.5737993819688
 51
273.3906190309113
  0
ARC
  5
28C
330
1A
100
AcDbEntity
  8
SEIHIN
 62
     3
100
AcDbCircle
 10
471.0165353925463
 20
1136.304043541639
 30
0.0
 40
995.7999996356361
100
AcDbArc
 50
270.5753840387498
 51
273.3906190518125
  0
ARC
  5
28D
330
1A
100
AcDbEntity
  8
SEIHIN
 62
     3
100
AcDbCircle
 10
471.0165353925463
 20
1136.304043541639
 30
0.0
 40
996.7999996136489
100
AcDbArc
 50
270.5753840401072
 51
273.390619009524
  0
LINE
  5
28E
330
1A
100
AcDbEntity
  8
CENTER_L
 62
     1
 48
5.0
100
AcDbLine
 10
383.8287424925463
 20
386.1826346398775
 30
0.0
 11
549.5538815925463
 21
386.1826346398776
 31
0.0
  0
LINE
  5
28F
330
1A
100
AcDbEntity
  8
SEIHIN
 62
     3
100
AcDbLine
 10
485.2107895925463
 20
402.1826346398776
 30
0.0
 11
530.3165353925463
 21
402.1826346398776
 31
0.0
  0
LINE
  5
290
330
1A
100
AcDbEntity
  8
SEIHIN
 62
     3
100
AcDbLine
 10
485.2107895925463
 20
370.1826346398776
 30
0.0
 11
530.3165353925463
 21
370.1826346398776
 31
0.0
  0
LINE
  5
291
330
1A
100
AcDbEntity
  8
CENTER_L
 62
     1
 48
5.0
100
AcDbLine
 10
471.0165353925463
 20
126.8040439200731
 30
0.0
 11
471.0165353925463
 21
147.5040439060028
 31
0.0
  0
ARC
  5
292
330
1A
100
AcDbEntity
  8
SEIHIN
 62
     3
100
AcDbCircle
 10
652.3392767925463
 20
223.7845151416389
 30
0.0
 40
248.4499999987247
100
AcDbArc
 50
193.4792534312014
 51
199.4593500100497
  0
ARC
  5
293
330
1A
100
AcDbEntity
  8
SEIHIN
 62
     3
100
AcDbCircle
 10
652.3392767925463
 20
223.7845151416389
 30
0.0
 40
246.7000000061529
100
AcDbArc
 50
193.2560953305862
 51
199.4202037726837
  0
ARC
  5
294
330
1A
100
AcDbEntity
  8
SEIHIN
 62
     3
100
AcDbCircle
 10
652.3392767925463
 20
223.7845151416389
 30
0.0
 40
245.7000000301696
100
AcDbArc
 50
193.1274002678358
 51
199.4202037698869
  0
ARC
  5
295
330
1A
100
AcDbEntity
  8
SEIHIN
 62
     3
100
AcDbCircle
 10
652.3392767925463
 20
223.7845151416389
 30
0.0
 40
252.5000000036571
100
AcDbArc
 50
194.4918558755628
 51
199.8292867129729
  0
ARC
  5
296
330
1A
100
AcDbEntity
  8
SEIHIN
 62
     3
100
AcDbCircle
 10
652.3392767925463
 20
223.7845151416389
 30
0.0
 40
251.0000000225259
100
AcDbArc
 50
194.1769123769298
 51
199.8292867112469
  0
ARC
  5
297
330
1A
100
AcDbEntity
  8
SEIHIN
 62
     3
100
AcDbCircle
 10
652.3392767925463
 20
223.7845151416389
 30
0.0
 40
250.0000000041909
100
AcDbArc
 50
193.9649292600208
 51
199.8292867126761
  0
ARC
  5
298
330
1A
100
AcDbEntity
  8
SEIHIN
 62
     3
100
AcDbCircle
 10
471.0165353925463
 20
1136.304043541639
 30
0.0
 40
998.5499996066561
100
AcDbArc
 50
267.1150469826116
 51
269.4262006180311
  0
ARC
  5
299
330
1A
100
AcDbEntity
  8
SEIHIN
 62
     3
100
AcDbCircle
 10
471.0165353925463
 20
1136.304043541639
 30
0.0
 40
996.7999995749968
100
AcDbArc
 50
267.1246946747581
 51
269.4246159656403
  0
ARC
  5
29A
330
1A
100
AcDbEntity
  8
SEIHIN
 62
     3
100
AcDbCircle
 10
471.0165353925463
 20
1136.304043541639
 30
0.0
 40
995.7999996505526
100
AcDbArc
 50
267.1246946701352
 51
269.42461596125
  0
ARC
  5
29B
330
1A
100
AcDbEntity
  8
SEIHIN
 62
     3
100
AcDbCircle
 10
419.0438166925463
 20
139.658251041639
 30
0.0
 40
4.499999992071508
100
AcDbArc
 50
199.8292865698936
 51
267.0148650388885
  0
ARC
  5
29D
330
1A
100
AcDbEntity
  8
SEIHIN
 62
     3
100
AcDbCircle
 10
419.0438166925463
 20
139.658251041639
 30
0.0
 40
2.999999977104694
100
AcDbArc
 50
199.8292863539407
 51
267.0148649725818
  0
ARC
  5
29E
330
1A
100
AcDbEntity
  8
SEIHIN
 62
     3
100
AcDbCircle
 10
419.0438166925463
 20
139.658251041639
 30
0.0
 40
2.000000017156621
100
AcDbArc
 50
199.82928635394
 51
267.014866025676
  0
ARC
  5
29F
330
1A
100
AcDbEntity
  8
SEIHIN
 62
     3
100
AcDbCircle
 10
420.9098515925463
 20
142.015794641639
 30
0.0
 40
3.000000018402854
100
AcDbArc
 50
199.4593506450264
 51
267.1150463992518
  0
ARC
  5
2A1
330
1A
100
AcDbEntity
  8
SEIHIN
 62
     3
100
AcDbCircle
 10
421.0898150925463
 20
142.2570568416389
 30
0.0
 40
0.5000000713507421
100
AcDbArc
 50
199.420206053342
 51
267.1246884083105
  0
ARC
  5
2A2
330
1A
100
AcDbEntity
  8
SEIHIN
 62
     3
100
AcDbCircle
 10
421.0898150925463
 20
142.2570568416389
 30
0.0
 40
1.499999998226634
100
AcDbArc
 50
199.4202049910128
 51
267.1246956549114
  0
LINE
  5
2A3
330
1A
100
AcDbEntity
  8
SEIHIN
 62
     3
100
AcDbLine
 10
458.5165353925463
 20
140.5825015416389
 30
0.0
 11
458.5165353925463
 21
137.8322854416389
 31
0.0
  0
LINE
  5
2A4
330
1A
100
AcDbEntity
  8
SEIHIN
 62
     3
100
AcDbLine
 10
461.0165353925463
 20
140.554256041639
 30
0.0
 11
461.0165353925463
 21
137.344585341639
 31
0.0
  0
ARC
  5
2A5
330
1A
100
AcDbEntity
  8
SEIHIN
 62
     3
100
AcDbCircle
 10
462.0165353925463
 20
137.344585341639
 30
0.0
 40
1.000000040930333
100
AcDbArc
 50
180.0
 51
269.483815382026
  0
LINE
  5
2A6
330
1A
100
AcDbEntity
  8
SEIHIN
 62
     3
100
AcDbLine
 10
483.5165353925463
 20
140.5825015416389
 30
0.0
 11
483.5165353925463
 21
137.8322854416389
 31
0.0
  0
LINE
  5
2A7
330
1A
100
AcDbEntity
  8
SEIHIN
 62
     3
100
AcDbLine
 10
481.0165353925462
 20
140.554256041639
 30
0.0
 11
481.0165353925462
 21
137.344585341639
 31
0.0
  0
ARC
  5
2A8
330
1A
100
AcDbEntity
  8
SEIHIN
 62
     3
100
AcDbCircle
 10
480.0165353925462
 20
137.344585341639
 30
0.0
 40
1.000000040930333
100
AcDbArc
 50
270.5161846179772
 51
0.0
  0
LINE
  5
2A9
330
1A
100
AcDbEntity
  8
CENTER_L
 62
     1
 48
5.0
100
AcDbLine
 10
471.0165353925463
 20
334.1826346398776
 30
0.0
 11
471.0165353925463
 21
438.1826346398775
 31
0.0
  0
ARC
  5
2AA
330
1A
100
AcDbEntity
  8
SEIHIN
 62
     3
100
AcDbCircle
 10
644.6141586925463
 20
162.394155241639
 30
0.0
 40
249.9999999377572
100
AcDbArc
 50
160.3794373767366
 51
180.1139751545546
  0
ARC
  5
2AB
330
1A
100
AcDbEntity
  8
SEIHIN
 62
     3
100
AcDbCircle
 10
644.6141586925463
 20
162.394155241639
 30
0.0
 40
250.9999999720228
100
AcDbArc
 50
159.5840199538234
 51
176.9999982891332
  0
ARC
  5
2AC
330
1A
100
AcDbEntity
  8
SEIHIN
 62
     3
100
AcDbCircle
 10
644.6141586925463
 20
162.394155241639
 30
0.0
 40
252.4999999993239
100
AcDbArc
 50
160.02892623915
 51
176.9999990345633
  0
LINE
  5
2AD
330
1A
100
AcDbEntity
  8
SEIHIN
 62
     3
100
AcDbLine
 10
409.1577553925463
 20
163.8245220416389
 30
0.0
 11
395.2000456925463
 21
161.405185741639
 31
0.0
  0
LINE
  5
2AE
330
1A
100
AcDbEntity
  8
SEIHIN
 62
     3
100
AcDbLine
 10
398.4653901925463
 20
172.149391941639
 30
0.0
 11
411.8872869925462
 21
167.573836941639
 31
0.0
  0
LINE
  5
2AF
330
1A
100
AcDbEntity
  8
SEIHIN
 62
     3
100
AcDbLine
 10
396.6659646925463
 20
170.913926841639
 30
0.0
 11
410.4080913925463
 21
166.2292047416389
 31
0.0
  0
LINE
  5
2B0
330
1A
100
AcDbEntity
  8
SEIHIN
 62
     3
100
AcDbLine
 10
399.4967056925462
 20
172.8543246416389
 30
0.0
 11
412.7344407925463
 21
168.3415507416389
 31
0.0
  0
LINE
  5
2B1
330
1A
100
AcDbEntity
  8
SEIHIN
 62
     3
100
AcDbLine
 10
408.4135374925462
 20
162.6806132416389
 30
0.0
 11
393.7635300925463
 21
160.1412786416389
 31
0.0
  0
ARC
  5
2B2
330
1A
100
AcDbEntity
  8
SEIHIN
 62
     3
100
AcDbCircle
 10
399.6580397925463
 20
173.327580741639
 30
0.0
 40
0.5000000189416678
100
AcDbArc
 50
177.444345343412
 51
251.1756377999014
  0
ARC
  5
2B3
330
1A
100
AcDbEntity
  8
SEIHIN
 62
     3
100
AcDbCircle
 10
644.6141586925463
 20
162.394155241639
 30
0.0
 40
246.6999999554715
100
AcDbArc
 50
174.4382264929857
 51
177.6189350420429
  0
ARC
  5
2B4
330
1A
100
AcDbEntity
  8
SEIHIN
 62
     3
100
AcDbCircle
 10
399.6580397925463
 20
173.327580741639
 30
0.0
 40
0.5000000189416678
100
AcDbArc
 50
177.444345343412
 51
251.1756377999014
  0
ARC
  5
2B5
330
1A
100
AcDbEntity
  8
SEIHIN
 62
     3
100
AcDbCircle
 10
644.6141586925463
 20
162.394155241639
 30
0.0
 40
248.4499999447044
100
AcDbArc
 50
174.6877248782679
 51
177.9214536359019
  0
LINE
  5
2B6
330
1A
100
AcDbEntity
  8
SEIHIN
 62
     3
100
AcDbLine
 10
393.1788218925463
 20
160.6601006416389
 30
0.0
 11
393.9581458925463
 21
175.5304877416389
 31
0.0
  0
LINE
  5
2B7
330
1A
100
AcDbEntity
  8
SEIHIN
 62
     3
100
AcDbLine
 10
391.5824783925462
 20
158.8610344416389
 30
0.0
 11
392.4602013925463
 21
175.6089884416389
 31
0.0
  0
ARC
  5
2B8
330
1A
100
AcDbEntity
  8
SEIHIN
 62
     3
100
AcDbCircle
 10
398.6267241925462
 20
172.6226480416389
 30
0.0
 40
0.4999999956639255
100
AcDbArc
 50
177.6189271364183
 51
251.1756486461383
  0
LINE
  5
2B9
330
1A
100
AcDbEntity
  8
SEIHIN
 62
     3
100
AcDbLine
 10
407.3035287925462
 20
160.9658451416389
 30
0.0
 11
392.1671864925463
 21
158.3422124416389
 31
0.0
  0
ARC
  5
2BA
330
1A
100
AcDbEntity
  8
SEIHIN
 62
     3
100
AcDbCircle
 10
396.8272987925463
 20
171.3871829416389
 30
0.0
 40
0.5000000036110329
100
AcDbArc
 50
177.9214490222422
 51
251.1756377998993
  0
ARC
  5
2BD
330
1A
100
AcDbEntity
  8
SEIHIN
 62
     3
100
AcDbCircle
 10
395.1146523925462
 20
161.8978397416389
 30
0.0
 40
0.4999999843155076
100
AcDbArc
 50
180.1139728422208
 51
279.8335571897311
  0
ARC
  5
2BE
330
1A
100
AcDbEntity
  8
SEIHIN
 62
     3
100
AcDbCircle
 10
396.8272987925463
 20
171.3871829416389
 30
0.0
 40
0.5000000036110329
100
AcDbArc
 50
177.9214490222422
 51
251.1756377998993
  0
ARC
  5
2BF
330
1A
100
AcDbEntity
  8
SEIHIN
 62
     3
100
AcDbCircle
 10
393.6781366925463
 20
160.6339326416389
 30
0.0
 40
0.5000000151012954
100
AcDbArc
 50
176.9999976919899
 51
279.8335684805246
  0
ARC
  5
2C0
330
1A
100
AcDbEntity
  8
SEIHIN
 62
     3
100
AcDbCircle
 10
392.0817930925463
 20
158.8348665416389
 30
0.0
 40
0.5000000118184249
100
AcDbArc
 50
177.0000085357129
 51
279.8335665234531
  0
ARC
  5
2C1
330
1A
100
AcDbEntity
  8
SEIHIN
 62
     3
100
AcDbCircle
 10
407.3889220925464
 20
160.473191141639
 30
0.0
 40
0.499999985640422
100
AcDbArc
 50
14.49185686817685
 51
99.83355718973111
  0
LINE
  5
2C2
330
1A
100
AcDbEntity
  8
SEIHIN
 62
     3
100
AcDbLine
 10
396.8632808925462
 20
186.304043941639
 30
0.0
 11
398.9802298925463
 21
186.304043941639
 31
0.0
  0
ARC
  5
2C3
330
1A
100
AcDbEntity
  8
SEIHIN
 62
     3
100
AcDbCircle
 10
398.2269847925463
 20
185.304043941639
 30
0.0
 40
1.000000006605813
100
AcDbArc
 50
90.0
 51
174.6877255625917
  0
ARC
  5
2C4
330
1A
100
AcDbEntity
  8
SEIHIN
 62
     3
100
AcDbCircle
 10
396.8632808925462
 20
187.304043941639
 30
0.0
 40
0.9999999769628939
100
AcDbArc
 50
174.2585431510534
 51
270.0
  0
ARC
  5
2C5
330
1A
100
AcDbEntity
  8
SEIHIN
 62
     3
100
AcDbCircle
 10
644.6141586925463
 20
162.394155241639
 30
0.0
 40
245.699999947892
100
AcDbArc
 50
174.671528225323
 51
177.4443437659736
  0
ARC
  5
2C6
330
1A
100
AcDbEntity
  8
SEIHIN
 62
     3
100
AcDbCircle
 10
398.9802298925463
 20
185.304043941639
 30
0.0
 40
1.000000014037706
100
AcDbArc
 50
354.6715270934841
 51
90.0
  0
ARC
  5
2C7
330
1A
100
AcDbEntity
  8
SEIHIN
 62
     3
100
AcDbCircle
 10
412.5731067925462
 20
167.868294641639
 30
0.0
 40
0.4999999897864132
100
AcDbArc
 50
13.12740887478386
 51
71.17564864613216
  0
ARC
  5
2C8
330
1A
100
AcDbEntity
  8
SEIHIN
 62
     3
100
AcDbCircle
 10
410.2467572925463
 20
165.7559487416389
 30
0.0
 40
0.4999999666751183
100
AcDbArc
 50
13.47925005155478
 51
71.17563410239515
  0
ARC
  5
2CB
330
1A
100
AcDbEntity
  8
SEIHIN
 62
     3
100
AcDbCircle
 10
411.7259529925463
 20
167.1005808416389
 30
0.0
 40
0.4999999842590001
100
AcDbArc
 50
13.25609952658681
 51
71.17564864613425
  0
ARC
  5
2CC
330
1A
100
AcDbEntity
  8
SEIHIN
 62
     3
100
AcDbCircle
 10
408.4989308925463
 20
162.1879592416389
 30
0.0
 40
0.4999999740970792
100
AcDbArc
 50
14.1769183199917
 51
99.83356848052462
  0
ARC
  5
2CD
330
1A
100
AcDbEntity
  8
SEIHIN
 62
     3
100
AcDbCircle
 10
409.2431487925463
 20
163.3318680416389
 30
0.0
 40
0.4999999962853926
100
AcDbArc
 50
13.96493336164737
 51
99.83356848052462
  0
ARC
  5
2CE
330
1A
100
AcDbEntity
  8
SEIHIN
 62
     3
100
AcDbCircle
 10
409.1779329925463
 20
247.9513501416389
 30
0.0
 40
2.000000029679802
100
AcDbArc
 50
89.9999914056344
 51
160.0289261447662
  0
LINE
  5
2D2
330
1A
100
AcDbEntity
  8
SEIHIN
 62
     3
100
AcDbLine
 10
410.7886530925463
 20
248.8367619416389
 30
0.0
 11
420.3432528925463
 21
245.6217535416389
 31
0.0
  0
ARC
  5
2D5
330
1A
100
AcDbEntity
  8
SEIHIN
 62
     3
100
AcDbCircle
 10
419.3865012925463
 20
242.7784057416389
 30
0.0
 40
3.000000019501817
100
AcDbArc
 50
214.3156637441254
 51
71.40254598902501
  0
ARC
  5
2D9
330
1A
100
AcDbEntity
  8
SEIHIN
 62
     3
100
AcDbCircle
 10
409.6008763925462
 20
246.1736700416389
 30
0.0
 40
0.5000000333298161
100
AcDbArc
 50
71.40253512823543
 51
160.3794286153564
  0
LINE
  5
2DA
330
1A
100
AcDbEntity
  8
SEIHIN
 62
     3
100
AcDbLine
 10
409.7603350925463
 20
246.6475613416389
 30
0.0
 11
417.5768654925463
 21
244.017392341639
 31
0.0
  0
ARC
  5
2DD
330
1A
100
AcDbEntity
  8
SEIHIN
 62
     3
100
AcDbCircle
 10
417.4174067925463
 20
243.543501141639
 30
0.0
 40
0.4999999763117345
100
AcDbArc
 50
336.8014034677095
 51
71.40253147371239
  0
LINE
  5
2DE
330
1A
100
AcDbEntity
  8
SEIHIN
 62
     3
100
AcDbLine
 10
417.8769792925463
 20
243.346541441639
 30
0.0
 11
416.9086686925463
 21
241.0871501416389
 31
0.0
  0
LINE
  5
2DF
330
1A
100
AcDbEntity
  8
SEIHIN
 62
     3
100
AcDbLine
 10
409.1779332925463
 20
249.9513501416389
 30
0.0
 11
409.9481115925462
 21
249.9513501416389
 31
0.0
  0
ARC
  5
2E0
330
1A
100
AcDbEntity
  8
SEIHIN
 62
     3
100
AcDbCircle
 10
409.9481115925462
 20
249.4513501416389
 30
0.0
 40
0.5
100
AcDbArc
 50
0.0
 51
90.0
  0
ARC
  5
2E1
330
1A
100
AcDbEntity
  8
SEIHIN
 62
     3
100
AcDbCircle
 10
410.9481115925462
 20
249.3106533416389
 30
0.0
 40
0.5000000361080823
100
AcDbArc
 50
180.0000114591519
 51
251.4025605043346
  0
LINE
  5
2E2
330
1A
100
AcDbEntity
  8
SEIHIN
 62
     3
100
AcDbLine
 10
410.4481115925462
 20
249.4513501416389
 30
0.0
 11
410.4481115925462
 21
249.310653241639
 31
0.0
  0
LINE
  5
2E7
330
1A
100
AcDbEntity
  8
SEIHIN
 62
     3
100
AcDbLine
 10
422.3865012925463
 20
402.1826346398776
 30
0.0
 11
456.8222812925463
 21
402.1826346398776
 31
0.0
  0
LINE
  5
2E8
330
1A
100
AcDbEntity
  8
SEIHIN
 62
     3
100
AcDbLine
 10
422.3865012925463
 20
370.1826346398776
 30
0.0
 11
456.8222812925463
 21
370.1826346398776
 31
0.0
  0
LINE
  5
2E9
330
1A
100
AcDbEntity
  8
SEIHIN
 62
     3
100
AcDbLine
 10
390.8287424925463
 20
368.6721173398776
 30
0.0
 11
390.8287424925463
 21
403.6931519398775
 31
0.0
  0
LINE
  5
2EA
330
1A
100
AcDbEntity
  8
SEIHIN
 62
     3
100
AcDbLine
 10
407.7780989925463
 20
341.1826346398776
 30
0.0
 11
407.7780829925463
 21
431.1826346398776
 31
0.0
  0
LINE
  5
2EB
330
1A
100
AcDbEntity
  8
SEIHIN
 62
     3
100
AcDbLine
 10
420.7908097925463
 20
401.1826346398776
 30
0.0
 11
420.7908097925463
 21
371.1826346398776
 31
0.0
  0
LINE
  5
2EC
330
1A
100
AcDbEntity
  8
SEIHIN
 62
     3
100
AcDbLine
 10
412.9437930925463
 20
401.1826346398776
 30
0.0
 11
412.9437930925463
 21
371.1826346398776
 31
0.0
  0
LINE
  5
2ED
330
1A
100
AcDbEntity
  8
SEIHIN
 62
     3
100
AcDbLine
 10
410.4480989925463
 20
341.1826346398776
 30
0.0
 11
410.4480829925463
 21
431.1826346398776
 31
0.0
  0
ARC
  5
2EE
330
1A
100
AcDbEntity
  8
SEIHIN
 62
     3
100
AcDbCircle
 10
590.8287424925463
 20
368.6721173398776
 30
0.0
 40
200.0000000130554
100
AcDbArc
 50
180.0
 51
184.2891533431028
  0
LINE
  5
2EF
330
1A
100
AcDbEntity
  8
SEIHIN
 62
     3
100
AcDbLine
 10
391.3888804925463
 20
353.7141276398775
 30
0.0
 11
392.3287424925463
 21
341.1826346398776
 31
0.0
  0
LINE
  5
2F0
330
1A
100
AcDbEntity
  8
SEIHIN
 62
     3
100
AcDbLine
 10
422.3865012925463
 20
341.1826346398776
 30
0.0
 11
422.3865012925463
 21
371.1826346398776
 31
0.0
  0
LINE
  5
2F1
330
1A
100
AcDbEntity
  8
SEIHIN
 62
     3
100
AcDbLine
 10
412.4480932925463
 20
371.1826346398776
 30
0.0
 11
422.3865012925463
 21
371.1826346398776
 31
0.0
  0
ARC
  5
2F2
330
1A
100
AcDbEntity
  8
SEIHIN
 62
     3
100
AcDbCircle
 10
412.4480932925463
 20
373.1826346398776
 30
0.0
 40
2.000000000000019
100
AcDbArc
 50
180.0000114591552
 51
270.0
  0
ARC
  5
2F3
330
1A
100
AcDbEntity
  8
SEIHIN
 62
     3
100
AcDbCircle
 10
590.8287424925463
 20
403.6931519398775
 30
0.0
 40
200.0000000130554
100
AcDbArc
 50
175.7108466568971
 51
180.0
  0
LINE
  5
2F4
330
1A
100
AcDbEntity
  8
SEIHIN
 62
     3
100
AcDbLine
 10
392.3287424925463
 20
431.1826346398776
 30
0.0
 11
391.3888804925463
 21
418.6511416398777
 31
0.0
  0
LINE
  5
2F5
330
1A
100
AcDbEntity
  8
SEIHIN
 62
     3
100
AcDbLine
 10
422.3865012925463
 20
401.1826346398776
 30
0.0
 11
422.3865012925463
 21
431.1826346398776
 31
0.0
  0
LINE
  5
2F6
330
1A
100
AcDbEntity
  8
SEIHIN
 62
     3
100
AcDbLine
 10
412.4480886925462
 20
401.1826346398776
 30
0.0
 11
422.3865012925463
 21
401.1826346398776
 31
0.0
  0
ARC
  5
2F7
330
1A
100
AcDbEntity
  8
SEIHIN
 62
     3
100
AcDbCircle
 10
412.4480886925462
 20
399.1826346398776
 30
0.0
 40
2.000000000000019
100
AcDbArc
 50
90.0
 51
180.0000114591552
  0
LINE
  5
2F8
330
1A
100
AcDbEntity
  8
SEIHIN
 62
     3
100
AcDbLine
 10
483.2380017925463
 20
400.5114326398776
 30
0.0
 11
481.0165353925462
 21
387.1826346398776
 31
0.0
  0
LINE
  5
2F9
330
1A
100
AcDbEntity
  8
SEIHIN
 62
     3
100
AcDbLine
 10
458.7950690925463
 20
400.5114326398776
 30
0.0
 11
461.0165353925463
 21
387.1826346398776
 31
0.0
  0
LINE
  5
2FA
330
1A
100
AcDbEntity
  8
SEIHIN
 62
     3
100
AcDbLine
 10
461.0165353925463
 20
387.1826346398776
 30
0.0
 11
481.0165353925462
 21
387.1826346398776
 31
0.0
  0
LINE
  5
2FB
330
1A
100
AcDbEntity
  8
SEIHIN
 62
     3
100
AcDbLine
 10
461.0165353925463
 20
385.1826346398776
 30
0.0
 11
481.0165353925462
 21
385.1826346398776
 31
0.0
  0
LINE
  5
2FC
330
1A
100
AcDbEntity
  8
SEIHIN
 62
     3
100
AcDbLine
 10
461.0165353925463
 20
385.1826346398776
 30
0.0
 11
458.7950690925463
 21
371.8538366398776
 31
0.0
  0
ARC
  5
2FD
330
1A
100
AcDbEntity
  8
SEIHIN
 62
     3
100
AcDbCircle
 10
456.8222812925463
 20
372.1826346398776
 30
0.0
 40
1.999999978579101
100
AcDbArc
 50
270.0
 51
350.5376768500373
  0
LINE
  5
2FE
330
1A
100
AcDbEntity
  8
SEIHIN
 62
     3
100
AcDbLine
 10
481.0165353925462
 20
385.1826346398776
 30
0.0
 11
483.2380017925463
 21
371.8538366398776
 31
0.0
  0
ARC
  5
2FF
330
1A
100
AcDbEntity
  8
SEIHIN
 62
     3
100
AcDbCircle
 10
485.2107895925463
 20
372.1826346398776
 30
0.0
 40
1.999999978579129
100
AcDbArc
 50
189.4623231499623
 51
270.0
  0
ARC
  5
300
330
1A
100
AcDbEntity
  8
SEIHIN
 62
     3
100
AcDbCircle
 10
456.8222812925463
 20
400.1826346398776
 30
0.0
 40
1.999999978579101
100
AcDbArc
 50
9.462323149962662
 51
90.0
  0
ARC
  5
301
330
1A
100
AcDbEntity
  8
SEIHIN
 62
     3
100
AcDbCircle
 10
485.2107895925463
 20
400.1826346398776
 30
0.0
 40
1.999999978579129
100
AcDbArc
 50
90.0
 51
170.5376768500376
  0
LINE
  5
302
330
1A
100
AcDbEntity
  8
SEIHIN
 62
     3
100
AcDbLine
 10
532.9645349925463
 20
145.324008341639
 30
0.0
 11
535.0300609925462
 21
185.3555730416389
 31
0.0
  0
LINE
  5
303
330
1A
100
AcDbEntity
  8
SEIHIN
 62
     3
100
AcDbLine
 10
535.7108816925463
 20
145.1823048416389
 30
0.0
 11
537.7784016925463
 21
185.252515241639
 31
0.0
  0
ARC
  5
304
330
1A
100
AcDbEntity
  8
NOKITOI
  6
PHANTOM
 62
     8
 48
5.0
100
AcDbCircle
 10
652.3392767960236
 20
223.7845151435572
 30
0.0
 40
250.0000000041909
100
AcDbArc
 50
193.9649292600208
 51
199.8292867126761
  0
LINE
  5
305
330
1A
100
AcDbEntity
  8
NOKITOI
  6
PHANTOM
 62
     8
 48
5.0
100
AcDbLine
 10
540.0452544960235
 20
201.0463995435571
 30
0.0
 11
537.0460934960235
 21
142.9202331435571
 31
0.0
  0
LINE
  5
306
330
1A
100
AcDbEntity
  8
NOKITOI
  6
PHANTOM
 62
     8
 48
5.0
100
AcDbLine
 10
535.7478204960235
 20
142.9872207435572
 30
0.0
 11
538.2573733960235
 21
191.6243858435572
 31
0.0
  0
ARC
  5
307
330
1A
100
AcDbEntity
  8
NOKITOI
  6
PHANTOM
 62
     8
 48
5.0
100
AcDbCircle
 10
652.3392767960236
 20
223.7845151435572
 30
0.0
 40
248.6000000119225
100
AcDbArc
 50
193.4348295159767
 51
199.8543528104349
  0
LINE
  5
308
330
1A
100
AcDbEntity
  8
CENTER_L
 62
     1
 48
5.0
100
AcDbLine
 10
219.7826253998399
 20
126.8040439224288
 30
0.0
 11
219.7826253998399
 21
256.9513501416389
 31
0.0
  0
LINE
  5
309
330
1A
100
AcDbEntity
  8
SEIHIN
 62
     3
100
AcDbLine
 10
541.1228564925464
 20
202.9971269416389
 30
0.0
 11
538.0431955925463
 21
142.8708570416389
 31
0.0
  0
LINE
  5
30A
330
1A
100
AcDbEntity
  8
SEIHIN
 62
     3
100
AcDbLine
 10
540.0473357925462
 20
201.548279741639
 30
0.0
 11
537.0445047925463
 21
142.922009841639
 31
0.0
  0
LINE
  5
30B
330
1A
100
AcDbEntity
  8
SEIHIN
 62
     3
100
AcDbLine
 10
542.5440628925463
 20
201.4203976416389
 30
0.0
 11
539.5412318925463
 21
142.794127841639
 31
0.0
  0
LINE
  5
30C
330
1A
100
AcDbEntity
  8
SEIHIN
 62
     3
100
AcDbLine
 10
533.9632064925463
 20
145.2724793416389
 30
0.0
 11
536.0803298925462
 21
186.304043941639
 31
0.0
  0
LINE
  5
310
330
1A
100
AcDbEntity
  8
SEIHIN
 62
     3
100
AcDbLine
 10
174.7826253998399
 20
249.9513501416389
 30
0.0
 11
174.7826253998399
 21
135.1040439416389
 31
0.0
  0
ARC
  5
317
330
1A
100
AcDbEntity
  8
SEIHIN
 62
     3
100
AcDbCircle
 10
532.0510505925462
 20
143.177774041639
 30
0.0
 40
7.500000008574198
100
AcDbArc
 50
273.5168012274347
 51
357.0678792771871
  0
ARC
  5
318
330
1A
100
AcDbEntity
  8
SEIHIN
 62
     3
100
AcDbCircle
 10
532.0510505925462
 20
143.177774041639
 30
0.0
 40
5.99999997608722
100
AcDbArc
 50
273.5168006672713
 51
357.0678788761763
  0
ARC
  5
31B
330
1A
100
AcDbEntity
  8
SEIHIN
 62
     3
100
AcDbCircle
 10
529.7188526925463
 20
145.4914781416389
 30
0.0
 40
4.249999978932751
100
AcDbArc
 50
273.3906141467012
 51
357.0462902094504
  0
ARC
  5
31C
330
1A
100
AcDbEntity
  8
SEIHIN
 62
     3
100
AcDbCircle
 10
532.0510505925462
 20
143.177774041639
 30
0.0
 40
5.000000023034205
100
AcDbArc
 50
273.5168008227516
 51
357.0678785142435
  0
ARC
  5
31D
330
1A
100
AcDbEntity
  8
SEIHIN
 62
     3
100
AcDbCircle
 10
529.7188526925463
 20
145.4914781416389
 30
0.0
 40
5.999999962227501
100
AcDbArc
 50
273.3906191244019
 51
357.0463043420764
  0
ARC
  5
31E
330
1A
100
AcDbEntity
  8
SEIHIN
 62
     3
100
AcDbCircle
 10
529.7188526925463
 20
145.4914781416389
 30
0.0
 40
3.249999962314328
100
AcDbArc
 50
273.3906256076373
 51
357.0462879149896
  0
LINE
  5
321
330
1A
100
AcDbEntity
  8
SEIHIN
 62
     3
100
AcDbLine
 10
174.7826253998399
 20
135.1040439416389
 30
0.0
 11
200.4553852998399
 21
133.9915576416389
 31
0.0
  0
ARC
  5
325
330
1A
100
AcDbEntity
  8
SEIHIN
 62
     3
100
AcDbCircle
 10
209.11392639984
 20
333.8040439416389
 30
0.0
 40
200.00000001921
100
AcDbArc
 50
267.5187351910764
 51
270.0
  0
ARC
  5
34D
330
1A
100
AcDbEntity
  8
NOKITOI
  6
PHANTOM
 62
     8
 48
5.0
100
AcDbCircle
 10
471.0165353960235
 20
1136.304043543557
 30
0.0
 40
999.9999996378269
100
AcDbArc
 50
267.0148646804369
 51
273.5168981553104
  0
ARC
  5
34E
330
1A
100
AcDbEntity
  8
NOKITOI
  6
PHANTOM
 62
     8
 48
5.0
100
AcDbCircle
 10
471.0165353960235
 20
1136.304043543557
 30
0.0
 40
998.6999996255219
100
AcDbArc
 50
267.0172809116875
 51
273.5168981548134
  0
ARC
  5
34F
330
1A
100
AcDbEntity
  8
NOKITOI
  6
PHANTOM
 62
     8
 48
5.0
100
AcDbCircle
 10
419.0806430960235
 20
139.5561956435572
 30
0.0
 40
0.600000018220417
100
AcDbArc
 50
199.8543536299542
 51
267.0172768003595
  0
ARC
  5
350
330
1A
100
AcDbEntity
  8
NOKITOI
  6
PHANTOM
 62
     8
 48
5.0
100
AcDbCircle
 10
419.0438166960235
 20
139.6582510435572
 30
0.0
 40
2.000000017156621
100
AcDbArc
 50
199.82928635394
 51
267.014866025676
  0
ARC
  5
351
330
1A
100
AcDbEntity
  8
NOKITOI
  6
PHANTOM
 62
     8
 48
5.0
100
AcDbCircle
 10
532.0527359960236
 20
143.1778776435572
 30
0.0
 40
3.699999980057802
100
AcDbArc
 50
273.5168983431853
 51
357.0463038124611
  0
ARC
  5
352
330
1A
100
AcDbEntity
  8
NOKITOI
  6
PHANTOM
 62
     8
 48
5.0
100
AcDbCircle
 10
532.0527359960236
 20
143.1778776435572
 30
0.0
 40
5.000000016093117
100
AcDbArc
 50
273.5168983936105
 51
357.0463033884151
  0
ARC
  5
355
330
1A
100
AcDbEntity
  8
SEIHIN
 62
     3
100
AcDbCircle
 10
538.3164366925463
 20
187.304043941639
 30
0.0
 40
1.000000030672693
100
AcDbArc
 50
269.999988540848
 51
357.067880978924
  0
ARC
  5
356
330
1A
100
AcDbEntity
  8
SEIHIN
 62
     3
100
AcDbCircle
 10
536.0287324925463
 20
185.304043941639
 30
0.0
 40
1.000000003264787
100
AcDbArc
 50
90.00001718873447
 51
177.046291944484
  0
LINE
  5
357
330
1A
100
AcDbEntity
  8
SEIHIN
 62
     3
100
AcDbLine
 10
536.0287321925462
 20
186.304043941639
 30
0.0
 11
538.3164364925463
 21
186.304043941639
 31
0.0
  0
ARC
  5
358
330
1A
100
AcDbEntity
  8
SEIHIN
 62
     3
100
AcDbCircle
 10
536.7797301925463
 20
185.304043941639
 30
0.0
 40
0.9999999929589852
100
AcDbArc
 50
357.0463148323477
 51
90.0
  0
ARC
  5
359
330
1A
100
AcDbEntity
  8
SEIHIN
 62
     3
100
AcDbCircle
 10
535.0538815925463
 20
201.8040439416389
 30
0.0
 40
7.500000013012463
100
AcDbArc
 50
357.0678785142433
 51
89.99999618028095
  0
ARC
  5
35A
330
1A
100
AcDbEntity
  8
SEIHIN
 62
     3
100
AcDbCircle
 10
535.1307113925463
 20
203.3040439416389
 30
0.0
 40
6.000000039347632
100
AcDbArc
 50
357.0678789250236
 51
90.0
  0
ARC
  5
35C
330
1A
100
AcDbEntity
  8
SEIHIN
 62
     3
100
AcDbCircle
 10
535.0538815925463
 20
201.8040439416389
 30
0.0
 40
5.000000008674948
100
AcDbArc
 50
357.0678785142441
 51
90.0
  0
LINE
  5
35D
330
1A
100
AcDbEntity
  8
SEIHIN
 62
     3
100
AcDbLine
 10
532.8165371925463
 20
209.3040439416389
 30
0.0
 11
535.0538820925463
 21
209.3040439416389
 31
0.0
  0
LINE
  5
361
330
1A
100
AcDbEntity
  8
SEIHIN
 62
     3
100
AcDbLine
 10
532.8165353925463
 20
206.8040439416389
 30
0.0
 11
535.0538815925463
 21
206.8040439416389
 31
0.0
  0
ARC
  5
362
330
1A
100
AcDbEntity
  8
SEIHIN
 62
     3
100
AcDbCircle
 10
532.8165353925463
 20
206.8040439416389
 30
0.0
 40
2.500000000000324
100
AcDbArc
 50
89.99995874703989
 51
270.0
  0
LINE
  5
363
330
1A
100
AcDbEntity
  8
SEIHIN
 62
     3
100
AcDbLine
 10
532.8165353925463
 20
204.3040439416389
 30
0.0
 11
532.8165353925463
 21
206.8040439416389
 31
0.0
  0
LINE
  5
36F
330
1A
100
AcDbEntity
  8
SEIHIN
 62
     3
100
AcDbLine
 10
535.0789996925462
 20
401.1826346398776
 30
0.0
 11
535.0789996925462
 21
371.1826346398776
 31
0.0
  0
LINE
  5
370
330
1A
100
AcDbEntity
  8
SEIHIN
 62
     3
100
AcDbLine
 10
537.8326578925463
 20
401.1826346398776
 30
0.0
 11
537.8326578925463
 21
387.1826346398776
 31
0.0
  0
LINE
  5
371
330
1A
100
AcDbEntity
  8
SEIHIN
 62
     3
100
AcDbLine
 10
532.0256950925463
 20
401.1826346398776
 30
0.0
 11
532.0256950925463
 21
371.1826346398776
 31
0.0
  0
LINE
  5
372
330
1A
100
AcDbEntity
  8
SEIHIN
 62
     3
100
AcDbLine
 10
540.0538815925463
 20
373.1826346398776
 30
0.0
 11
540.0538815925463
 21
399.1826346398776
 31
0.0
  0
LINE
  5
373
330
1A
100
AcDbEntity
  8
SEIHIN
 62
     3
100
AcDbLine
 10
542.5538815925462
 20
368.6721173398776
 30
0.0
 11
542.5538815925462
 21
403.6931519398775
 31
0.0
  0
LINE
  5
374
330
1A
100
AcDbEntity
  8
SEIHIN
 62
     3
100
AcDbLine
 10
530.3165353925463
 20
341.1826346398776
 30
0.0
 11
530.3165353925463
 21
371.1826346398776
 31
0.0
  0
ARC
  5
375
330
1A
100
AcDbEntity
  8
SEIHIN
 62
     3
100
AcDbCircle
 10
342.5538815925463
 20
368.6721173398776
 30
0.0
 40
200.0000000130554
100
AcDbArc
 50
355.710846656897
 51
0.0
  0
LINE
  5
376
330
1A
100
AcDbEntity
  8
SEIHIN
 62
     3
100
AcDbLine
 10
541.9937435925463
 20
353.7141276398775
 30
0.0
 11
541.0538815925463
 21
341.1826346398776
 31
0.0
  0
LINE
  5
377
330
1A
100
AcDbEntity
  8
SEIHIN
 62
     3
100
AcDbLine
 10
537.8326578925463
 20
385.1826346398776
 30
0.0
 11
537.8326578925463
 21
371.1826346398776
 31
0.0
  0
ARC
  5
378
330
1A
100
AcDbEntity
  8
SEIHIN
 62
     3
100
AcDbCircle
 10
538.0538815925462
 20
373.1826346398776
 30
0.0
 40
2.0
100
AcDbArc
 50
270.0
 51
0.0
  0
LINE
  5
379
330
1A
100
AcDbEntity
  8
SEIHIN
 62
     3
100
AcDbLine
 10
530.3165353925463
 20
371.1826346398776
 30
0.0
 11
538.0538815925462
 21
371.1826346398776
 31
0.0
  0
LINE
  5
37A
330
1A
100
AcDbEntity
  8
SEIHIN
 62
     3
100
AcDbLine
 10
537.8326578925463
 20
387.1826346398776
 30
0.0
 11
540.0538815925463
 21
387.1826346398776
 31
0.0
  0
LINE
  5
37B
330
1A
100
AcDbEntity
  8
SEIHIN
 62
     3
100
AcDbLine
 10
537.8326578925463
 20
385.1826346398776
 30
0.0
 11
540.0538815925463
 21
385.1826346398776
 31
0.0
  0
LINE
  5
37C
330
1A
100
AcDbEntity
  8
SEIHIN
 62
     3
100
AcDbLine
 10
530.3165353925463
 20
401.1826346398776
 30
0.0
 11
530.3165353925463
 21
431.1826346398776
 31
0.0
  0
ARC
  5
37D
330
1A
100
AcDbEntity
  8
SEIHIN
 62
     3
100
AcDbCircle
 10
342.5538815925463
 20
403.6931519398775
 30
0.0
 40
200.0000000130554
100
AcDbArc
 50
0.0
 51
4.289153343102872
  0
ARC
  5
37E
330
1A
100
AcDbEntity
  8
SEIHIN
 62
     3
100
AcDbCircle
 10
538.0538815925462
 20
399.1826346398776
 30
0.0
 40
2.0
100
AcDbArc
 50
0.0
 51
90.0
  0
LINE
  5
37F
330
1A
100
AcDbEntity
  8
SEIHIN
 62
     3
100
AcDbLine
 10
530.3165353925463
 20
401.1826346398776
 30
0.0
 11
538.0538815925462
 21
401.1826346398776
 31
0.0
  0
LINE
  5
380
330
1A
100
AcDbEntity
  8
SEIHIN
 62
     3
100
AcDbLine
 10
541.0538815925463
 20
431.1826346398776
 30
0.0
 11
541.9937435925463
 21
418.6511416398777
 31
0.0
  0
ARC
  5
385
330
1A
100
AcDbEntity
  8
NOKITOI
  6
PHANTOM
 62
     8
 48
5.0
100
AcDbCircle
 10
413.5716155960235
 20
230.4240439435571
 30
0.0
 40
7.75
100
AcDbArc
 50
90.0
 51
270.0
  0
ARC
  5
386
330
1A
100
AcDbEntity
  8
NOKITOI
  6
PHANTOM
 62
     8
 48
5.0
100
AcDbCircle
 10
644.6141586960234
 20
162.3941552435572
 30
0.0
 40
249.9999999705148
100
AcDbArc
 50
160.4989464255681
 51
180.1139751545546
  0
ARC
  5
387
330
1A
100
AcDbEntity
  8
NOKITOI
  6
PHANTOM
 62
     8
 48
5.0
100
AcDbCircle
 10
644.6141586960234
 20
162.3941552435572
 30
0.0
 40
248.5999999338434
100
AcDbArc
 50
168.6535361648575
 51
178.0328534586946
  0
LINE
  5
388
330
1A
100
AcDbEntity
  8
NOKITOI
  6
PHANTOM
 62
     8
 48
5.0
100
AcDbLine
 10
409.3194937960236
 20
165.1211955435572
 30
0.0
 11
396.0145149960235
 21
162.8149992435572
 31
0.0
  0
LINE
  5
389
330
1A
100
AcDbEntity
  8
NOKITOI
  6
PHANTOM
 62
     8
 48
5.0
100
AcDbLine
 10
396.1192293960235
 20
169.6211955435572
 30
0.0
 11
409.3194937960236
 21
165.1211955435572
 31
0.0
  0
LINE
  5
38A
330
1A
100
AcDbEntity
  8
NOKITOI
  6
PHANTOM
 62
     8
 48
5.0
100
AcDbLine
 10
409.1577553960235
 20
163.8245220435572
 30
0.0
 11
395.2000456960236
 21
161.4051857435572
 31
0.0
  0
LINE
  5
38B
330
1A
100
AcDbEntity
  8
NOKITOI
  6
PHANTOM
 62
     8
 48
5.0
100
AcDbLine
 10
396.1606651960235
 20
170.9277080435572
 30
0.0
 11
410.5422601960235
 21
166.0249897435572
 31
0.0
  0
ARC
  5
38C
330
1A
100
AcDbEntity
  8
NOKITOI
  6
PHANTOM
 62
     8
 48
5.0
100
AcDbCircle
 10
644.6141586960234
 20
162.3941552435572
 30
0.0
 40
248.5999999565055
100
AcDbArc
 50
178.3341220668001
 51
179.9030064498851
  0
ARC
  5
38D
330
1A
100
AcDbEntity
  8
NOKITOI
  6
PHANTOM
 62
     8
 48
5.0
100
AcDbCircle
 10
395.1146523960235
 20
161.8978397435571
 30
0.0
 40
0.4999999843155076
100
AcDbArc
 50
180.1139728422208
 51
279.8335571897311
  0
ARC
  5
38E
330
1A
100
AcDbEntity
  8
NOKITOI
  6
PHANTOM
 62
     8
 48
5.0
100
AcDbCircle
 10
409.2431487960235
 20
163.3318680435572
 30
0.0
 40
0.4999999962853926
100
AcDbArc
 50
13.96493336164737
 51
99.83356848052462
  0
ARC
  5
38F
330
1A
100
AcDbEntity
  8
NOKITOI
  6
PHANTOM
 62
     8
 48
5.0
100
AcDbCircle
 10
425.7936541960235
 20
178.3326755435572
 30
0.0
 40
41.24999998166308
100
AcDbArc
 50
105.9368511361181
 51
123.9414132906371
  0
ARC
  5
390
330
1A
100
AcDbEntity
  8
NOKITOI
  6
PHANTOM
 62
     8
 48
5.0
100
AcDbCircle
 10
413.5716155960235
 20
230.4240439435571
 30
0.0
 40
8.999999994057947
100
AcDbArc
 50
194.6914618307767
 51
270.0
  0
ARC
  5
391
330
1A
100
AcDbEntity
  8
NOKITOI
  6
PHANTOM
 62
     8
 48
5.0
100
AcDbCircle
 10
425.7936541960235
 20
178.3326755435572
 30
0.0
 40
39.99999996219694
100
AcDbArc
 50
106.0024208385436
 51
124.484011803739
  0
LINE
  5
392
330
1A
100
AcDbEntity
  8
NOKITOI
  6
PHANTOM
 62
     8
 48
5.0
100
AcDbLine
 10
402.7619272960235
 20
212.5540439435571
 30
0.0
 11
401.1271044960235
 21
212.5540439435571
 31
0.0
  0
ARC
  5
393
330
1A
100
AcDbEntity
  8
NOKITOI
  6
PHANTOM
 62
     8
 48
5.0
100
AcDbCircle
 10
644.6141586960234
 20
162.3941552435572
 30
0.0
 40
248.5999999803393
100
AcDbArc
 50
164.6645082243118
 51
168.3595484367841
  0
LINE
  5
394
330
1A
100
AcDbEntity
  8
NOKITOI
  6
PHANTOM
 62
     8
 48
5.0
100
AcDbLine
 10
403.1466043960235
 20
211.3040439435571
 30
0.0
 11
400.8729377960235
 21
211.3040439435571
 31
0.0
  0
ARC
  5
395
330
1A
100
AcDbEntity
  8
NOKITOI
  6
PHANTOM
 62
     8
 48
5.0
100
AcDbCircle
 10
413.9665353960236
 20
219.6740439435572
 30
0.0
 40
1.749999987870436
100
AcDbArc
 50
285.4660113055302
 51
90.0
  0
LINE
  5
396
330
1A
100
AcDbEntity
  8
NOKITOI
  6
PHANTOM
 62
     8
 48
5.0
100
AcDbLine
 10
413.5716155960235
 20
221.4240439435572
 30
0.0
 11
413.9665353960236
 21
221.4240439435572
 31
0.0
  0
ARC
  5
397
330
1A
100
AcDbEntity
  8
NOKITOI
  6
PHANTOM
 62
     8
 48
5.0
100
AcDbCircle
 10
413.9665353960236
 20
219.6740439435572
 30
0.0
 40
3.000000019776849
100
AcDbArc
 50
285.4660097444057
 51
90.0
  0
LINE
  5
398
330
1A
100
AcDbEntity
  8
NOKITOI
  6
PHANTOM
 62
     8
 48
5.0
100
AcDbLine
 10
413.5716155960235
 20
222.6740439435571
 30
0.0
 11
413.9665353960236
 21
222.6740439435571
 31
0.0
  0
ARC
  5
399
330
1A
100
AcDbEntity
  8
NOKITOI
  6
PHANTOM
 62
     8
 48
5.0
100
AcDbCircle
 10
409.4293222960235
 20
245.6908700435572
 30
0.0
 40
0.4999999707007273
100
AcDbArc
 50
73.61046483938661
 51
160.4970984965327
  0
ARC
  5
39A
330
1A
100
AcDbEntity
  8
NOKITOI
  6
PHANTOM
 62
     8
 48
5.0
100
AcDbCircle
 10
644.6141586960234
 20
162.3941552435572
 30
0.0
 40
248.5999999477729
100
AcDbArc
 50
160.6935328651765
 51
162.5216300574457
  0
ARC
  5
39B
330
1A
100
AcDbEntity
  8
NOKITOI
  6
PHANTOM
 62
     8
 48
5.0
100
AcDbCircle
 10
413.5716155960235
 20
230.4240439435571
 30
0.0
 40
9.000000014904554
100
AcDbArc
 50
90.0
 51
132.4946761440465
  0
LINE
  5
39C
330
1A
100
AcDbEntity
  8
NOKITOI
  6
PHANTOM
 62
     8
 48
5.0
100
AcDbLine
 10
417.2938163960235
 20
240.0424259435571
 30
0.0
 11
420.0686798960235
 21
239.4257896435572
 31
0.0
  0
LINE
  5
39D
330
1A
100
AcDbEntity
  8
NOKITOI
  6
PHANTOM
 62
     8
 48
5.0
100
AcDbLine
 10
420.4325974960235
 20
238.7738227435572
 30
0.0
 11
418.4331404960235
 21
233.0101705435572
 31
0.0
  0
LINE
  5
39E
330
1A
100
AcDbEntity
  8
NOKITOI
  6
PHANTOM
 62
     8
 48
5.0
100
AcDbLine
 10
413.8888353960235
 20
238.1740439435572
 30
0.0
 11
413.5716155960235
 21
238.1740439435572
 31
0.0
  0
LINE
  5
39F
330
1A
100
AcDbEntity
  8
NOKITOI
  6
PHANTOM
 62
     8
 48
5.0
100
AcDbLine
 10
413.5604886960235
 20
233.3449154435571
 30
0.0
 11
414.8286288960234
 21
236.8323008435572
 31
0.0
  0
ARC
  5
3A0
330
1A
100
AcDbEntity
  8
NOKITOI
  6
PHANTOM
 62
     8
 48
5.0
100
AcDbCircle
 10
414.0303853960236
 20
233.1740439435571
 30
0.0
 40
0.4999999890915889
100
AcDbArc
 50
160.01689641517
 51
270.0
  0
LINE
  5
3A1
330
1A
100
AcDbEntity
  8
NOKITOI
  6
PHANTOM
 62
     8
 48
5.0
100
AcDbLine
 10
417.9607575960235
 20
232.6740439435571
 30
0.0
 11
414.0303853960236
 21
232.6740439435571
 31
0.0
  0
ARC
  5
3A2
330
1A
100
AcDbEntity
  8
NOKITOI
  6
PHANTOM
 62
     8
 48
5.0
100
AcDbCircle
 10
416.9350865960235
 20
243.4832922435572
 30
0.0
 40
0.5000000583204929
100
AcDbArc
 50
336.8014185143146
 51
73.61045707925168
  0
ARC
  5
3A3
330
1A
100
AcDbEntity
  8
NOKITOI
  6
PHANTOM
 62
     8
 48
5.0
100
AcDbCircle
 10
417.5107468960235
 20
241.0186130435572
 30
0.0
 40
2.400000037449118
100
AcDbArc
 50
239.1189120830804
 51
257.4711925497901
  0
LINE
  5
3A4
330
1A
100
AcDbEntity
  8
NOKITOI
  6
PHANTOM
 62
     8
 48
5.0
100
AcDbLine
 10
416.9901137960234
 20
238.6757640435572
 30
0.0
 11
418.9262430960235
 21
238.2455130435572
 31
0.0
  0
LINE
  5
3A5
330
1A
100
AcDbEntity
  8
NOKITOI
  6
PHANTOM
 62
     8
 48
5.0
100
AcDbLine
 10
409.9945179960235
 20
244.5865159435571
 30
0.0
 11
415.7084787960235
 21
242.9059392435572
 31
0.0
  0
LINE
  5
3A6
330
1A
100
AcDbEntity
  8
NOKITOI
  6
PHANTOM
 62
     8
 48
5.0
100
AcDbLine
 10
415.7084787960235
 20
242.9059392435572
 30
0.0
 11
415.3047987960235
 21
241.9640193435572
 31
0.0
  0
LINE
  5
3A7
330
1A
100
AcDbEntity
  8
NOKITOI
  6
PHANTOM
 62
     8
 48
5.0
100
AcDbLine
 10
415.9486318960234
 20
238.0794381435572
 30
0.0
 11
416.2789276960236
 21
238.9588505435572
 31
0.0
  0
LINE
  5
3A8
330
1A
100
AcDbEntity
  8
NOKITOI
  6
PHANTOM
 62
     8
 48
5.0
100
AcDbLine
 10
415.0067103960235
 20
239.1266974435572
 30
0.0
 11
415.3360121960235
 21
240.0034633435572
 31
0.0
  0
ARC
  5
3A9
330
1A
100
AcDbEntity
  8
NOKITOI
  6
PHANTOM
 62
     8
 48
5.0
100
AcDbCircle
 10
417.5107468960235
 20
241.0186130435572
 30
0.0
 40
2.400000002163273
100
AcDbArc
 50
156.801410113295
 51
205.0228103925291
  0
LINE
  5
3AA
330
1A
100
AcDbEntity
  8
NOKITOI
  6
PHANTOM
 62
     8
 48
5.0
100
AcDbLine
 10
409.5704053960234
 20
246.1705527435572
 30
0.0
 11
417.0761697960235
 21
243.9629750435571
 31
0.0
  0
ARC
  5
3AB
330
1A
100
AcDbEntity
  8
NOKITOI
  6
PHANTOM
 62
     8
 48
5.0
100
AcDbCircle
 10
417.5107468960235
 20
241.0186130435572
 30
0.0
 40
1.000000010493544
100
AcDbArc
 50
156.8014087340207
 51
257.47119042647
  0
LINE
  5
3AC
330
1A
100
AcDbEntity
  8
NOKITOI
  6
PHANTOM
 62
     8
 48
5.0
100
AcDbLine
 10
417.3946591960235
 20
243.2863326435572
 30
0.0
 11
416.5916018960236
 21
241.4125323435572
 31
0.0
  0
ARC
  5
3AD
330
1A
100
AcDbEntity
  8
NOKITOI
  6
PHANTOM
 62
     8
 48
5.0
100
AcDbCircle
 10
417.9607575960235
 20
233.1740439435571
 30
0.0
 40
0.5000000477199775
100
AcDbArc
 50
270.0
 51
340.8679314409341
  0
LINE
  5
3AE
330
1A
100
AcDbEntity
  8
NOKITOI
  6
PHANTOM
 62
     8
 48
5.0
100
AcDbLine
 10
417.4270909960235
 20
233.9240439435572
 30
0.0
 11
415.1011603960235
 21
233.9240439435572
 31
0.0
  0
LINE
  5
3AF
330
1A
100
AcDbEntity
  8
NOKITOI
  6
PHANTOM
 62
     8
 48
5.0
100
AcDbLine
 10
418.9262430960235
 20
238.2455130435572
 30
0.0
 11
417.4270909960235
 21
233.9240439435572
 31
0.0
  0
LINE
  5
3B0
330
1A
100
AcDbEntity
  8
NOKITOI
  6
PHANTOM
 62
     8
 48
5.0
100
AcDbLine
 10
413.8888353960235
 20
239.4240439435571
 30
0.0
 11
413.5716155960235
 21
239.4240439435571
 31
0.0
  0
ARC
  5
3B1
330
1A
100
AcDbEntity
  8
NOKITOI
  6
PHANTOM
 62
     8
 48
5.0
100
AcDbCircle
 10
413.8888353960235
 20
237.1740439435571
 30
0.0
 40
2.250000022965255
100
AcDbArc
 50
60.20928543599032
 51
90.0
  0
ARC
  5
3B2
330
1A
100
AcDbEntity
  8
NOKITOI
  6
PHANTOM
 62
     8
 48
5.0
100
AcDbCircle
 10
413.8888353960235
 20
237.1740439435571
 30
0.0
 40
2.250000031016088
100
AcDbArc
 50
340.0168932605396
 51
23.72813802459427
  0
ARC
  5
3B3
330
1A
100
AcDbEntity
  8
NOKITOI
  6
PHANTOM
 62
     8
 48
5.0
100
AcDbCircle
 10
413.8888353960235
 20
237.1740439435571
 30
0.0
 40
1.000000042259952
100
AcDbArc
 50
340.0168929885937
 51
90.0
  0
LINE
  5
3B4
330
1A
100
AcDbEntity
  8
NOKITOI
  6
PHANTOM
 62
     8
 48
5.0
100
AcDbLine
 10
415.1011603960235
 20
233.9240439435572
 30
0.0
 11
416.0033705960236
 21
236.4051220435571
 31
0.0
  0
ARC
  5
3B5
330
1A
100
AcDbEntity
  8
NOKITOI
  6
PHANTOM
 62
     8
 48
5.0
100
AcDbCircle
 10
419.9602145960235
 20
238.9376960435572
 30
0.0
 40
0.5000000731651486
100
AcDbArc
 50
340.8679422671456
 51
77.47118607625113
  0
ARC
  5
3B6
330
1A
100
AcDbEntity
  8
NOKITOI
  6
PHANTOM
 62
     8
 48
5.0
100
AcDbCircle
 10
528.6896799960235
 20
191.7719482435571
 30
0.0
 40
0.5000000001856648
100
AcDbArc
 50
164.7448812969376
 51
275.5610086575826
  0
ARC
  5
3B7
330
1A
100
AcDbEntity
  8
NOKITOI
  6
PHANTOM
 62
     8
 48
5.0
100
AcDbCircle
 10
537.7580376960235
 20
191.6501502435572
 30
0.0
 40
0.4999999833352752
100
AcDbArc
 50
357.0463088151357
 51
95.56102006278957
  0
LINE
  5
3B8
330
1A
100
AcDbEntity
  8
NOKITOI
  6
PHANTOM
 62
     8
 48
5.0
100
AcDbLine
 10
528.7381327960235
 20
191.2743014435571
 30
0.0
 11
537.7095847960235
 21
192.1477970435572
 31
0.0
  0
LINE
  5
3B9
330
1A
100
AcDbEntity
  8
NOKITOI
  6
PHANTOM
 62
     8
 48
5.0
100
AcDbLine
 10
528.2072980960236
 20
191.9035069435572
 30
0.0
 11
531.3165353960235
 21
203.3040439435572
 31
0.0
  0
ARC
  5
3BA
330
1A
100
AcDbEntity
  8
NOKITOI
  6
PHANTOM
 62
     8
 48
5.0
100
AcDbCircle
 10
535.0518969960234
 20
201.3040439435572
 30
0.0
 40
4.999999987982882
100
AcDbArc
 50
357.0463045328086
 51
90.0
  0
ARC
  5
3BB
330
1A
100
AcDbEntity
  8
NOKITOI
  6
PHANTOM
 62
     8
 48
5.0
100
AcDbCircle
 10
535.0518969960234
 20
201.3040439435572
 30
0.0
 40
3.699999967274206
100
AcDbArc
 50
357.0463038124611
 51
90.0
  0
LINE
  5
3BC
330
1A
100
AcDbEntity
  8
NOKITOI
  6
PHANTOM
 62
     8
 48
5.0
100
AcDbLine
 10
533.3165353960236
 20
206.3040439435571
 30
0.0
 11
535.0518969960234
 21
206.3040439435571
 31
0.0
  0
LINE
  5
3BD
330
1A
100
AcDbEntity
  8
NOKITOI
  6
PHANTOM
 62
     8
 48
5.0
100
AcDbLine
 10
533.3165353960236
 20
203.3040439435572
 30
0.0
 11
533.3165353960236
 21
206.3040439435571
 31
0.0
  0
LINE
  5
3BE
330
1A
100
AcDbEntity
  8
NOKITOI
  6
PHANTOM
 62
     8
 48
5.0
100
AcDbLine
 10
531.3165353960235
 20
203.3040439435572
 30
0.0
 11
533.3165353960236
 21
203.3040439435572
 31
0.0
  0
LINE
  5
3BF
330
1A
100
AcDbEntity
  8
NOKITOI
  6
PHANTOM
 62
     8
 48
5.0
100
AcDbLine
 10
534.6165353960235
 20
202.0040439435572
 30
0.0
 11
532.3094699960234
 21
202.0040439435572
 31
0.0
  0
LINE
  5
3C0
330
1A
100
AcDbEntity
  8
NOKITOI
  6
PHANTOM
 62
     8
 48
5.0
100
AcDbLine
 10
534.6165353960235
 20
205.0040439435572
 30
0.0
 11
534.6165353960235
 21
202.0040439435572
 31
0.0
  0
LINE
  5
3C1
330
1A
100
AcDbEntity
  8
NOKITOI
  6
PHANTOM
 62
     8
 48
5.0
100
AcDbLine
 10
535.0518969960234
 20
205.0040439435572
 30
0.0
 11
534.6165353960235
 21
205.0040439435572
 31
0.0
  0
LINE
  5
3C2
330
1A
100
AcDbEntity
  8
NOKITOI
  6
PHANTOM
 62
     8
 48
5.0
100
AcDbLine
 10
538.3550163960235
 20
193.5167860435571
 30
0.0
 11
538.7469814960235
 21
201.1133870435571
 31
0.0
  0
LINE
  5
3C3
330
1A
100
AcDbEntity
  8
NOKITOI
  6
PHANTOM
 62
     8
 48
5.0
100
AcDbLine
 10
529.7667112960235
 20
192.6805951435571
 30
0.0
 11
538.3550163960235
 21
193.5167860435571
 31
0.0
  0
LINE
  5
3C4
330
1A
100
AcDbEntity
  8
NOKITOI
  6
PHANTOM
 62
     8
 48
5.0
100
AcDbLine
 10
532.3094699960234
 20
202.0040439435572
 30
0.0
 11
529.7667112960235
 21
192.6805951435571
 31
0.0
  0
LINE
  5
3CF
330
1A
100
AcDbEntity
  8
SEIHIN
 62
     3
100
AcDbLine
 10
264.7826253998399
 20
135.1040439416389
 30
0.0
 11
239.1098654998399
 21
133.9915576416389
 31
0.0
  0
LINE
  5
3D0
330
1A
100
AcDbEntity
  8
SEIHIN
 62
     3
100
AcDbLine
 10
264.7826253998399
 20
249.9513501416389
 30
0.0
 11
174.7826253998399
 21
249.9513501416389
 31
0.0
  0
LINE
  5
3D1
330
1A
100
AcDbEntity
  8
SEIHIN
 62
     3
100
AcDbLine
 10
264.7826253998399
 20
249.9513501416389
 30
0.0
 11
264.7826253998399
 21
135.1040439416389
 31
0.0
  0
ARC
  5
3D2
330
1A
100
AcDbEntity
  8
SEIHIN
 62
     3
100
AcDbCircle
 10
230.4513243998399
 20
333.8040439416389
 30
0.0
 40
200.00000001921
100
AcDbArc
 50
270.0
 51
272.4812648089235
  0
LINE
  5
3D3
330
1A
100
AcDbEntity
  8
SEIHIN
100
AcDbLine
 10
230.4513243998399
 20
133.8040439224288
 30
0.0
 11
209.11392639984
 21
133.8040439224288
 31
0.0
  0
LINE
  5
3D6
330
1A
100
AcDbEntity
  8
SEIHIN
 62
     3
100
AcDbLine
 10
174.7826253998399
 20
159.6348665490306
 30
0.0
 11
200.4553852998399
 21
158.5223802490306
 31
0.0
  0
LINE
  5
3D7
330
1A
100
AcDbEntity
  8
SEIHIN
 62
     3
100
AcDbLine
 10
264.7826253998399
 20
159.6348665490306
 30
0.0
 11
239.1098654998399
 21
158.5223802490306
 31
0.0
  0
LINE
  5
3D8
330
1A
100
AcDbEntity
  8
SEIHIN
100
AcDbLine
 10
230.4513243998399
 20
158.3348665298205
 30
0.0
 11
209.11392639984
 21
158.3348665298205
 31
0.0
  0
ARC
  5
3D9
330
1A
100
AcDbEntity
  8
SEIHIN
 62
     3
100
AcDbCircle
 10
209.11392639984
 20
358.3348665490305
 30
0.0
 40
200.00000001921
100
AcDbArc
 50
267.5187351910764
 51
270.0
  0
ARC
  5
3DA
330
1A
100
AcDbEntity
  8
SEIHIN
 62
     3
100
AcDbCircle
 10
230.4513243998399
 20
358.3348665490305
 30
0.0
 40
200.00000001921
100
AcDbArc
 50
270.0
 51
272.4812648089235
  0
LINE
  5
3DE
330
1A
100
AcDbEntity
  8
SEIHIN
100
AcDbLine
 10
481.0165353925462
 20
387.1826346398776
 30
0.0
 11
481.0165353925462
 21
385.1826346398776
 31
0.0
  0
LINE
  5
3DF
330
1A
100
AcDbEntity
  8
SEIHIN
100
AcDbLine
 10
461.0165353925463
 20
387.1826346398776
 30
0.0
 11
461.0165353925462
 21
385.1826346398776
 31
0.0
  0
DIMENSION
  5
3EF
330
1A
100
AcDbEntity
  8
SUNPOU
100
AcDbDimension
  2
*D1
 10
497.561187306876
 20
370.1826346612985
 30
0.0
 11
492.5611873068759
 21
377.6826346505881
 31
0.0
 70
    32
  3
STANDARD
100
AcDbAlignedDimension
 13
481.0165353925462
 23
385.1826346398776
 33
0.0
 14
485.2107895925463
 24
370.1826346612985
 34
0.0
 50
90.0
100
AcDbRotatedDimension
1001
ACAD
1000
DSTYLE
1002
{
1070
   372
1070
    -2
1070
   371
1070
    -1
1070
    41
1040
7.0
1070
    42
1040
6.0
1070
    43
1040
14.0
1070
    44
1040
3.0
1070
    73
1070
     0
1070
    74
1070
     0
1070
    77
1070
     3
1070
   140
1040
6.0
1070
   141
1040
150.0
1070
   147
1040
2.0
1070
   172
1070
     1
1070
   173
1070
     1
1070
   176
1070
   256
1070
   177
1070
   256
1070
   178
1070
   256
1070
   271
1070
     0
1070
   272
1070
     2
1070
     6
1000
OPEN
1070
     7
1000
OPEN
1002
}
  0
DIMENSION
  5
423
330
1A
100
AcDbEntity
  8
SUNPOU
100
AcDbDimension
  2
*D2
 10
577.8501043828432
 20
341.1826346398776
 30
0.0
 11
572.8501043828431
 21
363.1826346398776
 31
0.0
 70
    32
  1
※<>
  3
STANDARD
100
AcDbAlignedDimension
 13
540.0538815925463
 23
385.1826346398776
 33
0.0
 14
541.0538815925463
 24
341.1826346398776
 34
0.0
 50
90.0
100
AcDbRotatedDimension
1001
ACAD
1000
DSTYLE
1002
{
1070
   372
1070
    -2
1070
   371
1070
    -1
1070
    41
1040
7.0
1070
    42
1040
6.0
1070
    43
1040
14.0
1070
    44
1040
3.0
1070
    73
1070
     0
1070
    74
1070
     0
1070
    77
1070
     3
1070
   140
1040
6.0
1070
   141
1040
150.0
1070
   147
1040
2.0
1070
   172
1070
     1
1070
   173
1070
     1
1070
   176
1070
   256
1070
   177
1070
   256
1070
   178
1070
   256
1070
   271
1070
     0
1070
   272
1070
     2
1070
     6
1000
OPEN
1070
     7
1000
OPEN
1002
}
  0
DIMENSION
  5
430
330
1A
100
AcDbEntity
  8
SUNPOU
100
AcDbDimension
  2
*D3
 10
594.4942876670811
 20
341.1826346398776
 30
0.0
 11
589.494287667081
 21
386.1826346398776
 31
0.0
 70
    32
  3
STANDARD
100
AcDbAlignedDimension
 13
541.0538815925463
 23
431.1826346398776
 33
0.0
 14
541.0538815925463
 24
341.1826346398776
 34
0.0
 50
90.0
100
AcDbRotatedDimension
1001
ACAD
1000
DSTYLE
1002
{
1070
   372
1070
    -2
1070
   371
1070
    -1
1070
    41
1040
7.0
1070
    42
1040
6.0
1070
    43
1040
14.0
1070
    44
1040
3.0
1070
    73
1070
     0
1070
    74
1070
     0
1070
    77
1070
     3
1070
   140
1040
6.0
1070
   141
1040
150.0
1070
   147
1040
2.0
1070
   172
1070
     1
1070
   173
1070
     1
1070
   176
1070
   256
1070
   177
1070
   256
1070
   178
1070
   256
1070
   271
1070
     0
1070
   272
1070
     2
1070
     6
1000
OPEN
1070
     7
1000
OPEN
1002
}
  0
DIMENSION
  5
43D
330
1A
100
AcDbEntity
  8
SUNPOU
100
AcDbDimension
  2
*D4
 10
583.4112856233605
 20
133.8040439200731
 30
0.0
 11
578.4112856233605
 21
171.5540439373623
 31
0.0
 70
    32
  3
STANDARD
100
AcDbAlignedDimension
 13
535.0538820925463
 23
209.3040439546514
 33
0.0
 14
471.0165353925463
 24
133.8040439200731
 34
0.0
 50
90.0
100
AcDbRotatedDimension
1001
ACAD
1000
DSTYLE
1002
{
1070
   372
1070
    -2
1070
   371
1070
    -1
1070
    41
1040
7.0
1070
    42
1040
6.0
1070
    43
1040
14.0
1070
    44
1040
3.0
1070
    73
1070
     0
1070
    74
1070
     0
1070
    77
1070
     3
1070
   140
1040
6.0
1070
   141
1040
150.0
1070
   147
1040
2.0
1070
   172
1070
     1
1070
   173
1070
     1
1070
   176
1070
   256
1070
   177
1070
   256
1070
   178
1070
   256
1070
   271
1070
     0
1070
   272
1070
     2
1070
     6
1000
OPEN
1070
     7
1000
OPEN
1002
}
  0
DIMENSION
  5
44A
330
1A
100
AcDbEntity
  8
SUNPOU
100
AcDbDimension
  2
*D5
 10
391.5824783094683
 20
282.4155854124112
 30
0.0
 11
467.0632706010073
 21
287.4155854124112
 31
0.0
 70
    32
  3
STANDARD
100
AcDbAlignedDimension
 13
542.5440628925463
 23
201.4203976416389
 33
0.0
 14
391.5824783094683
 24
158.8610344459929
 34
0.0
100
AcDbRotatedDimension
1001
ACAD
1000
DSTYLE
1002
{
1070
   372
1070
    -2
1070
   371
1070
    -1
1070
    41
1040
7.0
1070
    42
1040
6.0
1070
    43
1040
14.0
1070
    44
1040
3.0
1070
    73
1070
     0
1070
    74
1070
     0
1070
    77
1070
     3
1070
   140
1040
6.0
1070
   141
1040
150.0
1070
   147
1040
2.0
1070
   172
1070
     1
1070
   173
1070
     1
1070
   176
1070
   256
1070
   177
1070
   256
1070
   178
1070
   256
1070
   271
1070
     0
1070
   272
1070
     2
1070
     6
1000
OPEN
1070
     7
1000
OPEN
1002
}
  0
DIMENSION
  5
457
330
1A
100
AcDbEntity
  8
SUNPOU
100
AcDbDimension
  2
*D6
 10
342.1937443099695
 20
133.8040439200731
 30
0.0
 11
337.1937443099695
 21
191.8776970308561
 31
0.0
 70
    32
  3
STANDARD
100
AcDbAlignedDimension
 13
409.9481115925462
 23
249.9513501416389
 33
0.0
 14
471.0165353925463
 24
133.8040439200731
 34
0.0
 50
90.0
100
AcDbRotatedDimension
1001
ACAD
1000
DSTYLE
1002
{
1070
   372
1070
    -2
1070
   371
1070
    -1
1070
    41
1040
7.0
1070
    42
1040
6.0
1070
    43
1040
14.0
1070
    44
1040
3.0
1070
    73
1070
     0
1070
    74
1070
     0
1070
    77
1070
     3
1070
   140
1040
6.0
1070
   141
1040
150.0
1070
   147
1040
2.0
1070
   172
1070
     1
1070
   173
1070
     1
1070
   176
1070
   256
1070
   177
1070
   256
1070
   178
1070
   256
1070
   271
1070
     0
1070
   272
1070
     2
1070
     6
1000
OPEN
1070
     7
1000
OPEN
1002
}
  0
TEXT
  5
479
330
1A
100
AcDbEntity
  8
SUNPOU
 62
     4
100
AcDbText
 10
684.8705355682746
 20
37.65718762322844
 30
0.0
 40
6.0
  1
※　のきといの差込み寸法を示す
100
AcDbText
  0
LINE
  5
47F
330
1A
100
AcDbEntity
  8
SEIHIN
 62
     3
100
AcDbLine
 10
264.7826253998399
 20
136.6235071267789
 30
0.0
 11
239.1098654998399
 21
135.511020826779
 31
0.0
  0
ARC
  5
480
330
1A
100
AcDbEntity
  8
SEIHIN
 62
     3
100
AcDbCircle
 10
209.11392639984
 20
335.3235071267789
 30
0.0
 40
200.00000001921
100
AcDbArc
 50
267.5187351910764
 51
270.0
  0
LINE
  5
481
330
1A
100
AcDbEntity
  8
SEIHIN
 62
     3
100
AcDbLine
 10
174.7826253998399
 20
136.6235071267789
 30
0.0
 11
200.4553852998399
 21
135.511020826779
 31
0.0
  0
LINE
  5
482
330
1A
100
AcDbEntity
  8
SEIHIN
100
AcDbLine
 10
230.4513243998399
 20
135.3235071075689
 30
0.0
 11
209.11392639984
 21
135.3235071075689
 31
0.0
  0
ARC
  5
483
330
1A
100
AcDbEntity
  8
SEIHIN
 62
     3
100
AcDbCircle
 10
230.4513243998399
 20
335.3235071267789
 30
0.0
 40
200.00000001921
100
AcDbArc
 50
270.0
 51
272.4812648089235
  0
LINE
  5
832
330
1A
100
AcDbEntity
  8
ZUWAKU
100
AcDbLine
 10
208.646601303624
 20
15.19999986828872
 30
0.0
 11
447.4243639845474
 21
15.19999986828871
 31
0.0
  0
LINE
  5
833
330
1A
100
AcDbEntity
  8
ZUWAKU
100
AcDbLine
 10
208.646601303624
 20
15.59999986828871
 30
0.0
 11
447.4243639845474
 21
15.59999986828872
 31
0.0
  0
LINE
  5
834
330
1A
100
AcDbEntity
  8
ZUWAKU
100
AcDbLine
 10
208.646601303624
 20
15.39999986828871
 30
0.0
 11
447.4243639845474
 21
15.39999986828871
 31
0.0
  0
LINE
  5
835
330
1A
100
AcDbEntity
  8
ZUWAKU
100
AcDbLine
 10
0.0000000135560185
 20
30.79999986828869
 30
0.0
 11
797.4000000135559
 21
30.79999986828869
 31
0.0
  0
LINE
  5
836
330
1A
100
AcDbEntity
  8
ZUWAKU
100
AcDbLine
 10
0.0000000135560185
 20
30.59999986828869
 30
0.0
 11
797.4000000135559
 21
30.59999986828869
 31
0.0
  0
LINE
  5
837
330
1A
100
AcDbEntity
  8
ZUWAKU
100
AcDbLine
 10
0.0000000135560185
 20
30.39999986828869
 30
0.0
 11
797.4000000135559
 21
30.39999986828869
 31
0.0
  0
LINE
  5
838
330
1A
100
AcDbEntity
  8
ZUWAKU
100
AcDbLine
 10
0.0000000135560185
 20
30.19999986828868
 30
0.0
 11
797.4000000135559
 21
30.19999986828868
 31
0.0
  0
LINE
  5
839
330
1A
100
AcDbEntity
  8
ZUWAKU
100
AcDbLine
 10
0.0000000135560185
 20
29.99999986828868
 30
0.0
 11
797.4000000135559
 21
29.99999986828868
 31
0.0
  0
LWPOLYLINE
  5
83A
330
1A
100
AcDbEntity
  8
ZUWAKU
100
AcDbPolyline
 90
        4
 70
     1
 43
0.0
 10
0.2000000135559503
 20
551.3999998682887
 10
0.2000000135559503
 20
0.1999998682887281
 10
797.4000000135559
 20
0.1999998682887511
 10
797.4000000135561
 20
551.3999998682887
  0
LWPOLYLINE
  5
83B
330
1A
100
AcDbEntity
  8
ZUWAKU
100
AcDbPolyline
 90
        4
 70
     1
 43
0.0
 10
0.6000000135559276
 20
550.9999998682888
 10
0.6000000135559276
 20
0.5999998682887054
 10
797.0000000135562
 20
0.5999998682887516
 10
797.000000013556
 20
550.9999998682888
  0
LWPOLYLINE
  5
83C
330
1A
100
AcDbEntity
  8
ZUWAKU
100
AcDbPolyline
 90
        4
 70
     1
 43
0.0
 10
0.0000000135560185
 20
551.5999998682887
 10
0.0000000135560185
 20
-0.0000001317113174
 10
797.6000000135561
 20
-0.0000001317112499
 10
797.6000000135561
 20
551.5999998682888
  0
LWPOLYLINE
  5
83D
330
1A
100
AcDbEntity
  8
ZUWAKU
100
AcDbPolyline
 90
        4
 70
     1
 43
0.0
 10
0.4000000135559958
 20
551.1999998682887
 10
0.4000000135559958
 20
0.3999998682887735
 10
797.200000013556
 20
0.3999998682887504
 10
797.200000013556
 20
551.1999998682887
  0
LWPOLYLINE
  5
83E
330
1A
100
AcDbEntity
  8
ZUWAKU
100
AcDbPolyline
 90
        4
 70
     1
 43
0.0
 10
0.800000013555973
 20
550.7999998682887
 10
0.800000013555973
 20
0.7999998682887508
 10
796.8000000135559
 20
0.7999998682887508
 10
796.8000000135559
 20
550.7999998682887
  0
TEXT
  5
83F
330
1A
100
AcDbEntity
  8
MOJI
100
AcDbText
 10
92.95778960172516
 20
12.74117799856344
 30
0.0
 40
6.0
  1
アートフェイスＴ１２０
 41
0.9
  7
ｽﾀｲﾙ1
100
AcDbText
  0
HATCH
  5
840
330
1A
100
AcDbEntity
  8
ZUWAKU
100
AcDbHatch
 10
0.0
 20
0.0
 30
0.0
210
0.0
220
0.0
230
1.0
  2
ANSI37
 70
     0
 71
     0
 91
        8
 92
        7
 72
     1
 73
     1
 93
       24
 10
14.50226267467587
 20
17.64484834927226
 42
-0.1989123673796348
 10
14.09221216833714
 20
18.63479784293331
 42
0.0
 10
14.09221216833714
 20
19.92499986828869
 42
-0.4142135623730912
 10
14.61721216833711
 20
20.44999986828868
 42
0.0
 10
17.59221216833702
 20
20.44999986828868
 42
0.4142135623731546
 10
18.11721216833712
 20
20.97499986828867
 42
0.0
 10
18.11721216833712
 20
22.72499986828869
 42
0.4142135623731586
 10
17.59221216833702
 20
23.24999986828868
 42
0.0
 10
14.09221216833714
 20
23.24999986828868
 42
0.4142135623730928
 10
11.29221216833718
 20
20.44999986828871
 42
0.0
 10
11.29221216833718
 20
18.63479784293344
 42
0.1989123673796619
 10
12.52236368735361
 20
15.66494936194983
 42
0.0
 10
15.43216166199829
 20
12.75515138730518
 42
-0.1989123673796613
 10
15.84221216833714
 20
11.76520189364399
 42
0.0
 10
15.84221216833714
 20
10.47499986828867
 42
-0.4142135623730911
 10
15.31721216833716
 20
9.949999868288685
 42
0.0
 10
12.34221216833725
 20
9.949999868288685
 42
0.4142135623731526
 10
11.81721216833716
 20
9.424999868288697
 42
0.0
 10
11.81721216833716
 20
7.674999868288676
 42
0.4142135623731526
 10
12.34221216833725
 20
7.149999868288688
 42
0.0
 10
15.84221216833714
 20
7.149999868288688
 42
0.4142135623731044
 10
18.64221216833721
 20
9.949999868288664
 42
0.0
 10
18.64221216833721
 20
11.76520189364393
 42
0.1989123673796604
 10
17.41206064932066
 20
14.73505037462747
 42
0.0
 97
        0
 92
        7
 72
     1
 73
     1
 93
       16
 10
23.54221216833718
 20
19.04999986828869
 42
-0.4142135623730935
 10
24.94221216833716
 20
20.44999986828868
 42
0.0
 10
26.86721216833712
 20
20.44999986828868
 42
0.4142135623731546
 10
27.39221216833721
 20
20.97499986828867
 42
0.0
 10
27.39221216833721
 20
22.72499986828869
 42
0.4142135623730951
 10
26.86721216833723
 20
23.24999986828868
 42
0.0
 10
24.94221216833705
 20
23.24999986828864
 42
0.4142135623730892
 10
20.74221216833711
 20
19.04999986828862
 42
0.0
 10
20.74221216833711
 20
11.34999986828871
 42
0.4142135623730969
 10
24.94221216833716
 20
7.149999868288688
 42
0.0
 10
26.86721216833712
 20
7.149999868288688
 42
0.4142135623731526
 10
27.39221216833721
 20
7.674999868288676
 42
0.0
 10
27.39221216833721
 20
9.424999868288697
 42
0.4142135623730891
 10
26.86721216833723
 20
9.949999868288685
 42
0.0
 10
24.94221216833716
 20
9.949999868288685
 42
-0.4142135623730928
 10
23.54221216833718
 20
11.34999986828867
 42
0.0
 97
        0
 92
        7
 72
     1
 73
     1
 93
        2
 10
24.24221216833712
 20
15.19999986828868
 42
1.0
 10
27.74221216833712
 20
15.19999986828868
 42
1.0
 97
        0
 92
        7
 72
     1
 73
     1
 93
       26
 10
37.31485865051513
 20
19.20504706185211
 42
0.0
 10
38.37649828365295
 20
22.5669059001217
 42
0.5069206636600134
 10
37.87586738445759
 20
23.24999986828868
 42
0.0
 10
36.17697800484836
 20
23.24999986828868
 42
0.3272098845218764
 10
35.676347105653
 20
22.88309383645565
 42
0.0
 10
33.80807723102122
 20
16.96690590012176
 42
-0.3272098845219541
 10
33.30744633182575
 20
16.59999986828868
 42
0.0
 10
33.1672121683373
 20
16.59999986828868
 42
-0.4142135623731526
 10
32.64221216833721
 20
17.12499986828867
 42
0.0
 10
32.64221216833721
 20
22.72499986828869
 42
0.4142135623730951
 10
32.11721216833723
 20
23.24999986828868
 42
0.0
 10
30.36721216833711
 20
23.24999986828868
 42
0.4142135623730871
 10
29.84221216833714
 20
22.7249998682887
 42
0.0
 10
29.84221216833714
 20
7.674999868288676
 42
0.4142135623730891
 10
30.36721216833711
 20
7.149999868288688
 42
0.0
 10
32.11721216833712
 20
7.149999868288688
 42
0.4142135623731526
 10
32.64221216833721
 20
7.674999868288676
 42
0.0
 10
32.64221216833721
 20
13.27499986828869
 42
-0.4142135623731526
 10
33.1672121683373
 20
13.79999986828868
 42
0.0
 10
33.30744633182587
 20
13.79999986828868
 42
-0.3272098845218915
 10
33.80807723102122
 20
13.43309383645561
 42
0.0
 10
35.676347105653
 20
7.516905900121759
 42
0.3272098845218902
 10
36.17697800484836
 20
7.149999868288688
 42
0.0
 10
37.87586738445759
 20
7.149999868288688
 42
0.5069206636600335
 10
38.37649828365295
 20
7.833093836455695
 42
0.0
 10
36.05010690517929
 20
15.19999986828882
 42
0.0
 97
        0
 92
        7
 72
     1
 73
     1
 93
        8
 10
43.49221216833711
 20
22.7249998682887
 42
0.4142135623731546
 10
42.96721216833702
 20
23.24999986828868
 42
0.0
 10
41.21721216833726
 20
23.24999986828868
 42
0.4142135623731507
 10
40.69221216833716
 20
22.7249998682887
 42
0.0
 10
40.69221216833716
 20
7.674999868288676
 42
0.4142135623731526
 10
41.21721216833726
 20
7.149999868288688
 42
0.0
 10
42.96721216833702
 20
7.149999868288688
 42
0.4142135623731526
 10
43.49221216833711
 20
7.674999868288676
 42
0.0
 97
        0
 92
        7
 72
     1
 73
     1
 93
       24
 10
48.3922121683372
 20
19.92499986828869
 42
-0.4142135623731546
 10
48.9172121683373
 20
20.44999986828868
 42
0.0
 10
51.89221216833721
 20
20.44999986828868
 42
0.4142135623730911
 10
52.41721216833719
 20
20.97499986828867
 42
0.0
 10
52.41721216833719
 20
22.72499986828869
 42
0.4142135623730952
 10
51.89221216833721
 20
23.24999986828868
 42
0.0
 10
48.3922121683372
 20
23.24999986828868
 42
0.4142135623731048
 10
45.59221216833714
 20
20.44999986828871
 42
0.0
 10
45.59221216833714
 20
18.63479784293344
 42
0.1989123673796613
 10
46.82236368735368
 20
15.66494936194989
 42
0.0
 10
49.73216166199836
 20
12.75515138730522
 42
-0.1989123673796402
 10
50.14221216833721
 20
11.76520189364415
 42
0.0
 10
50.14221216833721
 20
10.47499986828867
 42
-0.4142135623730911
 10
49.61721216833723
 20
9.949999868288685
 42
0.0
 10
46.64221216833721
 20
9.949999868288685
 42
0.4142135623731526
 10
46.11721216833712
 20
9.424999868288697
 42
0.0
 10
46.11721216833712
 20
7.674999868288676
 42
0.4142135623730891
 10
46.64221216833709
 20
7.149999868288688
 42
0.0
 10
50.14221216833721
 20
7.149999868288688
 42
0.4142135623730925
 10
52.94221216833716
 20
9.949999868288664
 42
0.0
 10
52.94221216833716
 20
11.76520189364393
 42
0.1989123673796675
 10
51.71206064932062
 20
14.73505037462759
 42
0.0
 10
48.80226267467605
 20
17.6448483492721
 42
-0.1989123673796652
 10
48.3922121683372
 20
18.63479784293327
 42
0.0
 97
        0
 92
        7
 72
     1
 73
     1
 93
       16
 10
57.84221216833714
 20
22.72499986828867
 42
0.414213562373103
 10
57.31721216833716
 20
23.24999986828868
 42
0.0
 10
55.56721216833716
 20
23.24999986828868
 42
0.4142135623730871
 10
55.04221216833719
 20
22.7249998682887
 42
0.0
 10
55.04221216833719
 20
9.949999868288664
 42
0.4142135623730926
 10
57.84221216833714
 20
7.149999868288688
 42
0.0
 10
61.34221216833714
 20
7.149999868288688
 42
0.4142135623731044
 10
64.14221216833721
 20
9.949999868288664
 42
0.0
 10
64.14221216833721
 20
22.72499986828869
 42
0.4142135623730951
 10
63.61721216833723
 20
23.24999986828868
 42
0.0
 10
61.86721216833712
 20
23.24999986828868
 42
0.4142135623730871
 10
61.34221216833714
 20
22.7249998682887
 42
0.0
 10
61.34221216833714
 20
10.99999986828866
 42
-0.414213562373088
 10
60.29221216833718
 20
9.949999868288685
 42
0.0
 10
58.89221216833721
 20
9.949999868288685
 42
-0.4142135623731197
 10
57.84221216833714
 20
10.99999986828866
 42
0.0
 97
        0
 92
        7
 72
     1
 73
     1
 93
        8
 10
69.04221216833718
 20
22.7249998682887
 42
0.4142135623730871
 10
68.51721216833721
 20
23.24999986828868
 42
0.0
 10
66.76721216833721
 20
23.24999986828868
 42
0.4142135623731507
 10
66.24221216833712
 20
22.7249998682887
 42
0.0
 10
66.24221216833712
 20
7.674999868288676
 42
0.4142135623730891
 10
66.76721216833709
 20
7.149999868288688
 42
0.0
 10
68.51721216833721
 20
7.149999868288688
 42
0.4142135623730891
 10
69.04221216833718
 20
7.674999868288676
 42
0.0
 97
        0
 75
     0
 76
     1
 52
0.0
 41
0.2
 77
     0
 78
     2
 53
45.0
 43
-900.942304321123
 44
-13.20000013171124
 45
-0.4490128060534576
 46
0.4490128060534577
 79
     0
 53
135.0
 43
-900.942304321123
 44
-13.20000013171124
 45
-0.4490128060534577
 46
-0.4490128060534576
 79
     0
 47
0.057451373970553
 98
        8
 10
16.07985497657932
 20
15.16717351417423
 10
22.40451501999519
 20
18.84406205073969
 10
25.16436789921567
 20
15.5118815143594
 10
30.91405999519315
 20
16.20129751473018
 10
41.83847203251275
 20
16.6609097822718
 10
46.89820090868557
 20
19.41857618469589
 10
56.55768598595637
 20
18.72915778338369
 10
67.82707963317875
 20
19.18877005092531
  0
LINE
  5
841
330
1A
100
AcDbEntity
  8
ZUWAKU
100
AcDbLine
 10
24.94221216833716
 20
23.24999986828864
 30
0.0
 11
26.86721216833712
 21
23.24999986828868
 31
0.0
  0
LINE
  5
842
330
1A
100
AcDbEntity
  8
ZUWAKU
100
AcDbLine
 10
26.86721216833712
 20
20.44999986828868
 30
0.0
 11
24.94221216833716
 21
20.44999986828868
 31
0.0
  0
LINE
  5
843
330
1A
100
AcDbEntity
  8
ZUWAKU
100
AcDbLine
 10
24.94221216833716
 20
9.949999868288685
 30
0.0
 11
26.86721216833712
 21
9.949999868288685
 31
0.0
  0
LINE
  5
844
330
1A
100
AcDbEntity
  8
ZUWAKU
100
AcDbLine
 10
26.86721216833712
 20
7.149999868288688
 30
0.0
 11
24.94221216833716
 21
7.149999868288688
 31
0.0
  0
CIRCLE
  5
845
330
1A
100
AcDbEntity
  8
ZUWAKU
100
AcDbCircle
 10
25.99221216833711
 20
15.19999986828868
 30
0.0
 40
1.75
  0
ARC
  5
846
330
1A
100
AcDbEntity
  8
ZUWAKU
100
AcDbCircle
 10
15.49221216833712
 20
18.63479784293338
 30
0.0
 40
1.399999999999999
100
AcDbArc
 50
180.0000000000016
 51
224.9999999999988
  0
LINE
  5
847
330
1A
100
AcDbEntity
  8
ZUWAKU
100
AcDbLine
 10
23.54221216833718
 20
19.04999986828868
 30
0.0
 11
23.54221216833718
 21
11.34999986828869
 31
0.0
  0
LINE
  5
848
330
1A
100
AcDbEntity
  8
ZUWAKU
100
AcDbLine
 10
20.74221216833711
 20
11.34999986828869
 30
0.0
 11
20.74221216833711
 21
19.04999986828864
 31
0.0
  0
ARC
  5
849
330
1A
100
AcDbEntity
  8
ZUWAKU
100
AcDbCircle
 10
15.49221216833712
 20
18.63479784293338
 30
0.0
 40
4.199999999999999
100
AcDbArc
 50
180.0
 51
225.0
  0
ARC
  5
84A
330
1A
100
AcDbEntity
  8
ZUWAKU
100
AcDbCircle
 10
15.84221216833714
 20
9.949999868288685
 30
0.0
 40
2.799999999999999
100
AcDbArc
 50
270.0
 51
0.0
  0
ARC
  5
84B
330
1A
100
AcDbEntity
  8
ZUWAKU
100
AcDbCircle
 10
24.94221216833716
 20
11.34999986828869
 30
0.0
 40
4.199999999999999
100
AcDbArc
 50
180.0
 51
270.0
  0
ARC
  5
84C
330
1A
100
AcDbEntity
  8
ZUWAKU
100
AcDbCircle
 10
14.44221216833716
 20
11.76520189364399
 30
0.0
 40
4.199999999999999
100
AcDbArc
 50
0.0
 51
45.0
  0
LINE
  5
84D
330
1A
100
AcDbEntity
  8
ZUWAKU
100
AcDbLine
 10
17.41206064932066
 20
14.73505037462751
 30
0.0
 11
14.50226267467598
 21
17.64484834927218
 31
0.0
  0
LINE
  5
84E
330
1A
100
AcDbEntity
  8
ZUWAKU
100
AcDbLine
 10
15.84221216833714
 20
10.47499986828869
 30
0.0
 11
15.84221216833714
 21
11.76520189364403
 31
0.0
  0
ARC
  5
84F
330
1A
100
AcDbEntity
  8
ZUWAKU
100
AcDbCircle
 10
15.31721216833716
 20
10.47499986828869
 30
0.0
 40
0.525
100
AcDbArc
 50
270.0
 51
0.0
  0
ARC
  5
850
330
1A
100
AcDbEntity
  8
ZUWAKU
100
AcDbCircle
 10
14.44221216833716
 20
11.76520189364403
 30
0.0
 40
1.399999999999999
100
AcDbArc
 50
0.0
 51
45.0
  0
LINE
  5
851
330
1A
100
AcDbEntity
  8
ZUWAKU
100
AcDbLine
 10
11.81721216833716
 20
7.674999868288686
 30
0.0
 11
11.81721216833716
 21
9.424999868288686
 31
0.0
  0
ARC
  5
852
330
1A
100
AcDbEntity
  8
ZUWAKU
100
AcDbCircle
 10
12.34221216833714
 20
7.674999868288686
 30
0.0
 40
0.525
100
AcDbArc
 50
180.0
 51
270.0
  0
ARC
  5
853
330
1A
100
AcDbEntity
  8
ZUWAKU
100
AcDbCircle
 10
12.34221216833714
 20
9.424999868288686
 30
0.0
 40
0.525
100
AcDbArc
 50
90.0
 51
180.0
  0
LINE
  5
854
330
1A
100
AcDbEntity
  8
ZUWAKU
100
AcDbLine
 10
12.34221216833714
 20
7.149999868288688
 30
0.0
 11
15.84221216833714
 21
7.149999868288688
 31
0.0
  0
LINE
  5
855
330
1A
100
AcDbEntity
  8
ZUWAKU
100
AcDbLine
 10
12.34221216833714
 20
9.949999868288685
 30
0.0
 11
15.31721216833716
 21
9.949999868288685
 31
0.0
  0
LINE
  5
856
330
1A
100
AcDbEntity
  8
ZUWAKU
100
AcDbLine
 10
12.52236368735361
 20
15.66494936194986
 30
0.0
 11
15.43216166199829
 21
12.7551513873052
 31
0.0
  0
LINE
  5
857
330
1A
100
AcDbEntity
  8
ZUWAKU
100
AcDbLine
 10
18.64221216833721
 20
9.949999868288685
 30
0.0
 11
18.64221216833721
 21
11.76520189364403
 31
0.0
  0
ARC
  5
858
330
1A
100
AcDbEntity
  8
ZUWAKU
100
AcDbCircle
 10
24.94221216833716
 20
11.34999986828869
 30
0.0
 40
1.399999999999999
100
AcDbArc
 50
180.0
 51
270.0
  0
ARC
  5
859
330
1A
100
AcDbEntity
  8
ZUWAKU
100
AcDbCircle
 10
17.59221216833714
 20
22.72499986828868
 30
0.0
 40
0.525
100
AcDbArc
 50
0.0
 51
90.0
  0
ARC
  5
85A
330
1A
100
AcDbEntity
  8
ZUWAKU
100
AcDbCircle
 10
17.59221216833714
 20
20.97499986828868
 30
0.0
 40
0.525
100
AcDbArc
 50
270.0
 51
0.0
  0
LINE
  5
85B
330
1A
100
AcDbEntity
  8
ZUWAKU
100
AcDbLine
 10
14.09221216833714
 20
23.24999986828868
 30
0.0
 11
17.59221216833714
 21
23.24999986828868
 31
0.0
  0
ARC
  5
85C
330
1A
100
AcDbEntity
  8
ZUWAKU
100
AcDbCircle
 10
14.61721216833711
 20
19.92499986828868
 30
0.0
 40
0.525
100
AcDbArc
 50
90.0
 51
180.0
  0
LINE
  5
85D
330
1A
100
AcDbEntity
  8
ZUWAKU
100
AcDbLine
 10
14.09221216833714
 20
19.92499986828868
 30
0.0
 11
14.09221216833714
 21
18.63479784293334
 31
0.0
  0
LINE
  5
85E
330
1A
100
AcDbEntity
  8
ZUWAKU
100
AcDbLine
 10
17.59221216833714
 20
20.44999986828868
 30
0.0
 11
14.61721216833711
 21
20.44999986828868
 31
0.0
  0
LINE
  5
85F
330
1A
100
AcDbEntity
  8
ZUWAKU
100
AcDbLine
 10
11.29221216833718
 20
20.44999986828868
 30
0.0
 11
11.29221216833718
 21
18.63479784293334
 31
0.0
  0
ARC
  5
860
330
1A
100
AcDbEntity
  8
ZUWAKU
100
AcDbCircle
 10
14.09221216833714
 20
20.44999986828868
 30
0.0
 40
2.799999999999999
100
AcDbArc
 50
90.0
 51
180.0
  0
LINE
  5
861
330
1A
100
AcDbEntity
  8
ZUWAKU
100
AcDbLine
 10
18.11721216833712
 20
22.72499986828868
 30
0.0
 11
18.11721216833712
 21
20.97499986828868
 31
0.0
  0
ARC
  5
862
330
1A
100
AcDbEntity
  8
ZUWAKU
100
AcDbCircle
 10
24.94221216833716
 20
19.04999986828868
 30
0.0
 40
1.399999999999999
100
AcDbArc
 50
90.0
 51
180.0
  0
ARC
  5
863
330
1A
100
AcDbEntity
  8
ZUWAKU
100
AcDbCircle
 10
24.94221216833716
 20
19.04999986828864
 30
0.0
 40
4.199999999999999
100
AcDbArc
 50
90.0
 51
180.0
  0
LINE
  5
864
330
1A
100
AcDbEntity
  8
ZUWAKU
100
AcDbLine
 10
79.32662956154422
 20
29.99999986828868
 30
0.0
 11
79.32662956154445
 21
0.7999998682887508
 31
0.0
  0
LINE
  5
865
330
1A
100
AcDbEntity
  8
ZUWAKU
100
AcDbLine
 10
79.52662956154426
 20
29.99999986828868
 30
0.0
 11
79.52662956154449
 21
0.7999998682887508
 31
0.0
  0
LINE
  5
866
330
1A
100
AcDbEntity
  8
ZUWAKU
100
AcDbLine
 10
79.12662956154441
 20
29.99999986828868
 30
0.0
 11
79.12662956154441
 21
0.7999998682887508
 31
0.0
  0
LINE
  5
867
330
1A
100
AcDbEntity
  8
ZUWAKU
100
AcDbLine
 10
64.14221216833721
 20
9.949999868288685
 30
0.0
 11
64.14221216833721
 21
22.72499986828868
 31
0.0
  0
LINE
  5
868
330
1A
100
AcDbEntity
  8
ZUWAKU
100
AcDbLine
 10
61.34221216833714
 20
22.72499986828868
 30
0.0
 11
61.34221216833714
 21
10.99999986828868
 31
0.0
  0
LINE
  5
869
330
1A
100
AcDbEntity
  8
ZUWAKU
100
AcDbLine
 10
69.04221216833718
 20
7.674999868288686
 30
0.0
 11
69.04221216833718
 21
22.72499986828868
 31
0.0
  0
LINE
  5
86A
330
1A
100
AcDbEntity
  8
ZUWAKU
100
AcDbLine
 10
66.24221216833712
 20
22.72499986828868
 30
0.0
 11
66.24221216833712
 21
7.674999868288686
 31
0.0
  0
ARC
  5
86B
330
1A
100
AcDbEntity
  8
ZUWAKU
100
AcDbCircle
 10
49.79221216833718
 20
18.63479784293338
 30
0.0
 40
1.399999999999999
100
AcDbArc
 50
180.0000000000016
 51
224.9999999999988
  0
ARC
  5
86C
330
1A
100
AcDbEntity
  8
ZUWAKU
100
AcDbCircle
 10
49.79221216833718
 20
18.63479784293338
 30
0.0
 40
4.199999999999999
100
AcDbArc
 50
180.0
 51
225.0
  0
LINE
  5
86D
330
1A
100
AcDbEntity
  8
ZUWAKU
100
AcDbLine
 10
37.31485865051513
 20
19.20504706185211
 30
0.0
 11
36.05010690517929
 21
15.1999998682887
 31
0.0
  0
LINE
  5
86E
330
1A
100
AcDbEntity
  8
ZUWAKU
100
AcDbLine
 10
40.69221216833716
 20
22.72499986828868
 30
0.0
 11
40.69221216833716
 21
7.674999868288686
 31
0.0
  0
LINE
  5
86F
330
1A
100
AcDbEntity
  8
ZUWAKU
100
AcDbLine
 10
43.49221216833711
 20
7.674999868288686
 30
0.0
 11
43.49221216833711
 21
22.72499986828868
 31
0.0
  0
LINE
  5
870
330
1A
100
AcDbEntity
  8
ZUWAKU
100
AcDbLine
 10
55.04221216833719
 20
22.72499986828868
 30
0.0
 11
55.04221216833719
 21
9.949999868288685
 31
0.0
  0
LINE
  5
871
330
1A
100
AcDbEntity
  8
ZUWAKU
100
AcDbLine
 10
57.84221216833714
 20
10.99999986828868
 30
0.0
 11
57.84221216833714
 21
22.72499986828868
 31
0.0
  0
LINE
  5
872
330
1A
100
AcDbEntity
  8
ZUWAKU
100
AcDbLine
 10
32.64221216833721
 20
17.12499986828869
 30
0.0
 11
32.64221216833721
 21
22.72499986828868
 31
0.0
  0
LINE
  5
873
330
1A
100
AcDbEntity
  8
ZUWAKU
100
AcDbLine
 10
29.84221216833714
 20
22.72499986828868
 30
0.0
 11
29.84221216833714
 21
7.674999868288686
 31
0.0
  0
LINE
  5
874
330
1A
100
AcDbEntity
  8
ZUWAKU
100
AcDbLine
 10
35.676347105653
 20
22.88309383645565
 30
0.0
 11
33.80807723102122
 21
16.96690590012171
 31
0.0
  0
LINE
  5
875
330
1A
100
AcDbEntity
  8
ZUWAKU
100
AcDbLine
 10
60.29221216833718
 20
9.949999868288685
 30
0.0
 11
58.89221216833721
 21
9.949999868288685
 31
0.0
  0
LINE
  5
876
330
1A
100
AcDbEntity
  8
ZUWAKU
100
AcDbLine
 10
57.84221216833714
 20
7.149999868288688
 30
0.0
 11
61.34221216833714
 21
7.149999868288688
 31
0.0
  0
LINE
  5
877
330
1A
100
AcDbEntity
  8
ZUWAKU
100
AcDbLine
 10
41.21721216833714
 20
7.149999868288688
 30
0.0
 11
42.96721216833714
 21
7.149999868288688
 31
0.0
  0
LINE
  5
878
330
1A
100
AcDbEntity
  8
ZUWAKU
100
AcDbLine
 10
35.676347105653
 20
7.516905900121713
 30
0.0
 11
33.80807723102122
 21
13.43309383645565
 31
0.0
  0
ARC
  5
879
330
1A
100
AcDbEntity
  8
ZUWAKU
100
AcDbCircle
 10
33.30744633182587
 20
17.12499986828869
 30
0.0
 40
0.525
100
AcDbArc
 50
270.0
 51
342.4744316262769
  0
LINE
  5
87A
330
1A
100
AcDbEntity
  8
ZUWAKU
100
AcDbLine
 10
33.30744633182587
 20
16.59999986828868
 30
0.0
 11
33.16721216833718
 21
16.59999986828868
 31
0.0
  0
LINE
  5
87B
330
1A
100
AcDbEntity
  8
ZUWAKU
100
AcDbLine
 10
33.16721216833718
 20
13.79999986828868
 30
0.0
 11
33.30744633182587
 21
13.79999986828868
 31
0.0
  0
ARC
  5
87C
330
1A
100
AcDbEntity
  8
ZUWAKU
100
AcDbCircle
 10
33.16721216833718
 20
17.12499986828869
 30
0.0
 40
0.525
100
AcDbArc
 50
180.0
 51
270.0
  0
LINE
  5
87D
330
1A
100
AcDbEntity
  8
ZUWAKU
100
AcDbLine
 10
30.36721216833711
 20
7.149999868288688
 30
0.0
 11
32.11721216833712
 21
7.149999868288688
 31
0.0
  0
ARC
  5
87E
330
1A
100
AcDbEntity
  8
ZUWAKU
100
AcDbCircle
 10
32.11721216833712
 20
7.674999868288686
 30
0.0
 40
0.525
100
AcDbArc
 50
270.0
 51
0.0
  0
LINE
  5
87F
330
1A
100
AcDbEntity
  8
ZUWAKU
100
AcDbLine
 10
32.64221216833721
 20
7.674999868288686
 30
0.0
 11
32.64221216833721
 21
13.27499986828868
 31
0.0
  0
LINE
  5
880
330
1A
100
AcDbEntity
  8
ZUWAKU
100
AcDbLine
 10
27.39221216833721
 20
9.424999868288686
 30
0.0
 11
27.39221216833721
 21
7.674999868288686
 31
0.0
  0
ARC
  5
881
330
1A
100
AcDbEntity
  8
ZUWAKU
100
AcDbCircle
 10
26.86721216833712
 20
7.674999868288686
 30
0.0
 40
0.525
100
AcDbArc
 50
270.0
 51
0.0
  0
ARC
  5
882
330
1A
100
AcDbEntity
  8
ZUWAKU
100
AcDbCircle
 10
26.86721216833712
 20
9.424999868288686
 30
0.0
 40
0.525
100
AcDbArc
 50
0.0
 51
90.0
  0
ARC
  5
883
330
1A
100
AcDbEntity
  8
ZUWAKU
100
AcDbCircle
 10
30.36721216833711
 20
7.674999868288686
 30
0.0
 40
0.525
100
AcDbArc
 50
180.0
 51
270.0
  0
ARC
  5
884
330
1A
100
AcDbEntity
  8
ZUWAKU
100
AcDbCircle
 10
33.30744633182587
 20
13.27499986828868
 30
0.0
 40
0.525
100
AcDbArc
 50
17.52556837372303
 51
90.0
  0
ARC
  5
885
330
1A
100
AcDbEntity
  8
ZUWAKU
100
AcDbCircle
 10
33.16721216833718
 20
13.27499986828868
 30
0.0
 40
0.525
100
AcDbArc
 50
90.0
 51
180.0
  0
ARC
  5
886
330
1A
100
AcDbEntity
  8
ZUWAKU
100
AcDbCircle
 10
41.21721216833714
 20
7.674999868288686
 30
0.0
 40
0.525
100
AcDbArc
 50
180.0
 51
270.0
  0
LINE
  5
887
330
1A
100
AcDbEntity
  8
ZUWAKU
100
AcDbLine
 10
36.17697800484847
 20
7.149999868288688
 30
0.0
 11
37.87586738445748
 21
7.149999868288688
 31
0.0
  0
ARC
  5
888
330
1A
100
AcDbEntity
  8
ZUWAKU
100
AcDbCircle
 10
37.87586738445748
 20
7.674999868288686
 30
0.0
 40
0.525
100
AcDbArc
 50
270.0
 51
17.52556837372303
  0
LINE
  5
889
330
1A
100
AcDbEntity
  8
ZUWAKU
100
AcDbLine
 10
38.37649828365295
 20
7.83309383645566
 30
0.0
 11
36.05010690517929
 21
15.1999998682887
 31
0.0
  0
ARC
  5
88A
330
1A
100
AcDbEntity
  8
ZUWAKU
100
AcDbCircle
 10
36.17697800484847
 20
7.674999868288686
 30
0.0
 40
0.525
100
AcDbArc
 50
197.525568373723
 51
270.0
  0
ARC
  5
88B
330
1A
100
AcDbEntity
  8
ZUWAKU
100
AcDbCircle
 10
57.84221216833714
 20
9.949999868288685
 30
0.0
 40
2.799999999999999
100
AcDbArc
 50
180.0
 51
270.0
  0
ARC
  5
88C
330
1A
100
AcDbEntity
  8
ZUWAKU
100
AcDbCircle
 10
50.14221216833721
 20
9.949999868288685
 30
0.0
 40
2.799999999999999
100
AcDbArc
 50
270.0
 51
0.0
  0
LINE
  5
88D
330
1A
100
AcDbEntity
  8
ZUWAKU
100
AcDbLine
 10
51.71206064932073
 20
14.73505037462751
 30
0.0
 11
48.80226267467595
 21
17.64484834927218
 31
0.0
  0
LINE
  5
88E
330
1A
100
AcDbEntity
  8
ZUWAKU
100
AcDbLine
 10
50.14221216833721
 20
10.47499986828869
 30
0.0
 11
50.14221216833721
 21
11.76520189364403
 31
0.0
  0
ARC
  5
88F
330
1A
100
AcDbEntity
  8
ZUWAKU
100
AcDbCircle
 10
48.74221216833712
 20
11.76520189364403
 30
0.0
 40
1.399999999999999
100
AcDbArc
 50
0.0
 51
45.0
  0
ARC
  5
890
330
1A
100
AcDbEntity
  8
ZUWAKU
100
AcDbCircle
 10
49.61721216833712
 20
10.47499986828869
 30
0.0
 40
0.525
100
AcDbArc
 50
270.0
 51
0.0
  0
LINE
  5
891
330
1A
100
AcDbEntity
  8
ZUWAKU
100
AcDbLine
 10
46.11721216833712
 20
7.674999868288686
 30
0.0
 11
46.11721216833712
 21
9.424999868288686
 31
0.0
  0
ARC
  5
892
330
1A
100
AcDbEntity
  8
ZUWAKU
100
AcDbCircle
 10
46.64221216833721
 20
7.674999868288686
 30
0.0
 40
0.525
100
AcDbArc
 50
180.0
 51
270.0
  0
ARC
  5
893
330
1A
100
AcDbEntity
  8
ZUWAKU
100
AcDbCircle
 10
42.96721216833714
 20
7.674999868288686
 30
0.0
 40
0.525
100
AcDbArc
 50
270.0
 51
0.0
  0
ARC
  5
894
330
1A
100
AcDbEntity
  8
ZUWAKU
100
AcDbCircle
 10
46.64221216833721
 20
9.424999868288686
 30
0.0
 40
0.525
100
AcDbArc
 50
90.0
 51
180.0
  0
LINE
  5
895
330
1A
100
AcDbEntity
  8
ZUWAKU
100
AcDbLine
 10
46.64221216833721
 20
9.949999868288685
 30
0.0
 11
49.61721216833712
 21
9.949999868288685
 31
0.0
  0
LINE
  5
896
330
1A
100
AcDbEntity
  8
ZUWAKU
100
AcDbLine
 10
46.64221216833721
 20
7.149999868288688
 30
0.0
 11
50.14221216833721
 21
7.149999868288688
 31
0.0
  0
LINE
  5
897
330
1A
100
AcDbEntity
  8
ZUWAKU
100
AcDbLine
 10
46.82236368735368
 20
15.66494936194986
 30
0.0
 11
49.73216166199836
 21
12.7551513873052
 31
0.0
  0
LINE
  5
898
330
1A
100
AcDbEntity
  8
ZUWAKU
100
AcDbLine
 10
52.94221216833716
 20
9.949999868288685
 30
0.0
 11
52.94221216833716
 21
11.76520189364403
 31
0.0
  0
ARC
  5
899
330
1A
100
AcDbEntity
  8
ZUWAKU
100
AcDbCircle
 10
48.74221216833712
 20
11.76520189364399
 30
0.0
 40
4.199999999999999
100
AcDbArc
 50
0.0
 51
45.0
  0
ARC
  5
89A
330
1A
100
AcDbEntity
  8
ZUWAKU
100
AcDbCircle
 10
58.89221216833721
 20
10.99999986828868
 30
0.0
 40
1.049999999999999
100
AcDbArc
 50
180.0
 51
270.0
  0
ARC
  5
89B
330
1A
100
AcDbEntity
  8
ZUWAKU
100
AcDbCircle
 10
61.34221216833714
 20
9.949999868288685
 30
0.0
 40
2.799999999999999
100
AcDbArc
 50
270.0
 51
0.0
  0
LINE
  5
89C
330
1A
100
AcDbEntity
  8
ZUWAKU
100
AcDbLine
 10
66.76721216833721
 20
7.149999868288688
 30
0.0
 11
68.51721216833721
 21
7.149999868288688
 31
0.0
  0
ARC
  5
89D
330
1A
100
AcDbEntity
  8
ZUWAKU
100
AcDbCircle
 10
66.76721216833721
 20
7.674999868288686
 30
0.0
 40
0.525
100
AcDbArc
 50
180.0
 51
270.0
  0
ARC
  5
89E
330
1A
100
AcDbEntity
  8
ZUWAKU
100
AcDbCircle
 10
60.29221216833718
 20
10.99999986828868
 30
0.0
 40
1.049999999999999
100
AcDbArc
 50
270.0
 51
0.0
  0
ARC
  5
89F
330
1A
100
AcDbEntity
  8
ZUWAKU
100
AcDbCircle
 10
68.51721216833721
 20
7.674999868288686
 30
0.0
 40
0.525
100
AcDbArc
 50
270.0
 51
0.0
  0
LINE
  5
8A0
330
1A
100
AcDbEntity
  8
ZUWAKU
100
AcDbLine
 10
42.96721216833714
 20
23.24999986828868
 30
0.0
 11
41.21721216833714
 21
23.24999986828868
 31
0.0
  0
ARC
  5
8A1
330
1A
100
AcDbEntity
  8
ZUWAKU
100
AcDbCircle
 10
32.11721216833712
 20
22.72499986828868
 30
0.0
 40
0.525
100
AcDbArc
 50
0.0
 51
90.0
  0
LINE
  5
8A2
330
1A
100
AcDbEntity
  8
ZUWAKU
100
AcDbLine
 10
32.11721216833712
 20
23.24999986828868
 30
0.0
 11
30.36721216833711
 21
23.24999986828868
 31
0.0
  0
ARC
  5
8A3
330
1A
100
AcDbEntity
  8
ZUWAKU
100
AcDbCircle
 10
26.86721216833712
 20
22.72499986828868
 30
0.0
 40
0.525
100
AcDbArc
 50
0.0
 51
90.0
  0
ARC
  5
8A4
330
1A
100
AcDbEntity
  8
ZUWAKU
100
AcDbCircle
 10
30.36721216833711
 20
22.72499986828868
 30
0.0
 40
0.525
100
AcDbArc
 50
90.0
 51
180.0
  0
ARC
  5
8A5
330
1A
100
AcDbEntity
  8
ZUWAKU
100
AcDbCircle
 10
26.86721216833712
 20
20.97499986828868
 30
0.0
 40
0.525
100
AcDbArc
 50
270.0
 51
0.0
  0
LINE
  5
8A6
330
1A
100
AcDbEntity
  8
ZUWAKU
100
AcDbLine
 10
27.39221216833721
 20
22.72499986828868
 30
0.0
 11
27.39221216833721
 21
20.97499986828868
 31
0.0
  0
ARC
  5
8A7
330
1A
100
AcDbEntity
  8
ZUWAKU
100
AcDbCircle
 10
41.21721216833714
 20
22.72499986828868
 30
0.0
 40
0.525
100
AcDbArc
 50
90.0
 51
180.0
  0
LINE
  5
8A8
330
1A
100
AcDbEntity
  8
ZUWAKU
100
AcDbLine
 10
36.17697800484847
 20
23.24999986828868
 30
0.0
 11
37.87586738445748
 21
23.24999986828868
 31
0.0
  0
ARC
  5
8A9
330
1A
100
AcDbEntity
  8
ZUWAKU
100
AcDbCircle
 10
37.87586738445748
 20
22.72499986828868
 30
0.0
 40
0.525
100
AcDbArc
 50
342.4744316262769
 51
90.0
  0
LINE
  5
8AA
330
1A
100
AcDbEntity
  8
ZUWAKU
100
AcDbLine
 10
38.37649828365295
 20
22.56690590012171
 30
0.0
 11
37.31485865051513
 21
19.20504706185211
 31
0.0
  0
ARC
  5
8AB
330
1A
100
AcDbEntity
  8
ZUWAKU
100
AcDbCircle
 10
36.17697800484847
 20
22.72499986828868
 30
0.0
 40
0.525
100
AcDbArc
 50
90.0
 51
162.4744316262769
  0
LINE
  5
8AC
330
1A
100
AcDbEntity
  8
ZUWAKU
100
AcDbLine
 10
48.3922121683372
 20
23.24999986828868
 30
0.0
 11
51.89221216833721
 21
23.24999986828868
 31
0.0
  0
LINE
  5
8AD
330
1A
100
AcDbEntity
  8
ZUWAKU
100
AcDbLine
 10
51.89221216833721
 20
20.44999986828868
 30
0.0
 11
48.91721216833719
 21
20.44999986828868
 31
0.0
  0
ARC
  5
8AE
330
1A
100
AcDbEntity
  8
ZUWAKU
100
AcDbCircle
 10
48.91721216833719
 20
19.92499986828868
 30
0.0
 40
0.525
100
AcDbArc
 50
90.0
 51
180.0
  0
LINE
  5
8AF
330
1A
100
AcDbEntity
  8
ZUWAKU
100
AcDbLine
 10
48.3922121683372
 20
19.92499986828868
 30
0.0
 11
48.3922121683372
 21
18.63479784293334
 31
0.0
  0
ARC
  5
8B0
330
1A
100
AcDbEntity
  8
ZUWAKU
100
AcDbCircle
 10
42.96721216833714
 20
22.72499986828868
 30
0.0
 40
0.525
100
AcDbArc
 50
0.0
 51
90.0
  0
LINE
  5
8B1
330
1A
100
AcDbEntity
  8
ZUWAKU
100
AcDbLine
 10
45.59221216833714
 20
20.44999986828868
 30
0.0
 11
45.59221216833714
 21
18.63479784293334
 31
0.0
  0
ARC
  5
8B2
330
1A
100
AcDbEntity
  8
ZUWAKU
100
AcDbCircle
 10
48.3922121683372
 20
20.44999986828868
 30
0.0
 40
2.799999999999999
100
AcDbArc
 50
90.0
 51
180.0
  0
ARC
  5
8B3
330
1A
100
AcDbEntity
  8
ZUWAKU
100
AcDbCircle
 10
57.31721216833716
 20
22.72499986828868
 30
0.0
 40
0.525
100
AcDbArc
 50
0.0
 51
90.0
  0
ARC
  5
8B4
330
1A
100
AcDbEntity
  8
ZUWAKU
100
AcDbCircle
 10
55.56721216833716
 20
22.72499986828868
 30
0.0
 40
0.525
100
AcDbArc
 50
90.0
 51
180.0
  0
LINE
  5
8B5
330
1A
100
AcDbEntity
  8
ZUWAKU
100
AcDbLine
 10
57.31721216833716
 20
23.24999986828868
 30
0.0
 11
55.56721216833716
 21
23.24999986828868
 31
0.0
  0
ARC
  5
8B6
330
1A
100
AcDbEntity
  8
ZUWAKU
100
AcDbCircle
 10
51.89221216833721
 20
22.72499986828868
 30
0.0
 40
0.525
100
AcDbArc
 50
0.0
 51
90.0
  0
ARC
  5
8B7
330
1A
100
AcDbEntity
  8
ZUWAKU
100
AcDbCircle
 10
51.89221216833721
 20
20.97499986828868
 30
0.0
 40
0.525
100
AcDbArc
 50
270.0
 51
0.0
  0
LINE
  5
8B8
330
1A
100
AcDbEntity
  8
ZUWAKU
100
AcDbLine
 10
52.41721216833719
 20
22.72499986828868
 30
0.0
 11
52.41721216833719
 21
20.97499986828868
 31
0.0
  0
LINE
  5
8B9
330
1A
100
AcDbEntity
  8
ZUWAKU
100
AcDbLine
 10
68.51721216833721
 20
23.24999986828868
 30
0.0
 11
66.76721216833721
 21
23.24999986828868
 31
0.0
  0
ARC
  5
8BA
330
1A
100
AcDbEntity
  8
ZUWAKU
100
AcDbCircle
 10
66.76721216833721
 20
22.72499986828868
 30
0.0
 40
0.525
100
AcDbArc
 50
90.0
 51
180.0
  0
ARC
  5
8BB
330
1A
100
AcDbEntity
  8
ZUWAKU
100
AcDbCircle
 10
63.61721216833712
 20
22.72499986828868
 30
0.0
 40
0.525
100
AcDbArc
 50
0.0
 51
90.0
  0
LINE
  5
8BC
330
1A
100
AcDbEntity
  8
ZUWAKU
100
AcDbLine
 10
63.61721216833712
 20
23.24999986828868
 30
0.0
 11
61.86721216833712
 21
23.24999986828868
 31
0.0
  0
ARC
  5
8BD
330
1A
100
AcDbEntity
  8
ZUWAKU
100
AcDbCircle
 10
61.86721216833712
 20
22.72499986828868
 30
0.0
 40
0.525
100
AcDbArc
 50
90.0
 51
180.0
  0
ARC
  5
8BE
330
1A
100
AcDbEntity
  8
ZUWAKU
100
AcDbCircle
 10
68.51721216833721
 20
22.72499986828868
 30
0.0
 40
0.525
100
AcDbArc
 50
0.0
 51
90.0
  0
TEXT
  5
8BF
330
1A
100
AcDbEntity
  8
MOJI
100
AcDbText
 10
239.827202694407
 20
18.00492092569607
 30
0.0
 40
5.599999999999999
  1
ジョイント
 41
0.9
  7
ｽﾀｲﾙ1
100
AcDbText
  0
TEXT
  5
8C0
330
1A
100
AcDbEntity
  8
MOJI
100
AcDbText
 10
239.827202694407
 20
3.204920925696104
 30
0.0
 40
5.599999999999999
  1
Ｔ１２０
 41
0.9
  7
ｽﾀｲﾙ1
100
AcDbText
  0
LINE
  5
8C1
330
1A
100
AcDbEntity
  8
ZUWAKU
100
AcDbLine
 10
208.2466013036239
 20
29.99999986828868
 30
0.0
 11
208.2466013036239
 21
0.7999998682887508
 31
0.0
  0
LINE
  5
8C2
330
1A
100
AcDbEntity
  8
ZUWAKU
100
AcDbLine
 10
208.6466013036238
 20
29.99999986828868
 30
0.0
 11
208.646601303624
 21
0.7999998682887508
 31
0.0
  0
LINE
  5
8C3
330
1A
100
AcDbEntity
  8
ZUWAKU
100
AcDbLine
 10
208.4466013036237
 20
29.99999986828868
 30
0.0
 11
208.446601303624
 21
0.7999998682887508
 31
0.0
  0
TEXT
  5
8C4
330
1A
100
AcDbEntity
  8
ZUWAKU
100
AcDbText
 10
209.7240463258335
 20
9.6553564066743
 30
0.0
 40
4.0
  1
サイズ
 41
0.9
  7
ｽﾀｲﾙ1
100
AcDbText
  0
TEXT
  5
8C5
330
1A
100
AcDbEntity
  8
ZUWAKU
100
AcDbText
 10
209.7240463258333
 20
24.05535640667426
 30
0.0
 40
4.0
  1
品名
 41
0.9
  7
ｽﾀｲﾙ1
100
AcDbText
  0
LINE
  5
8C6
330
1A
100
AcDbEntity
  8
ZUWAKU
100
AcDbLine
 10
648.8172025237602
 20
15.19999986828871
 30
0.0
 11
697.2490105620972
 21
15.19999986828871
 31
0.0
  0
LINE
  5
8C7
330
1A
100
AcDbEntity
  8
ZUWAKU
100
AcDbLine
 10
648.8172025237604
 20
15.39999986828872
 30
0.0
 11
697.2490105620972
 21
15.39999986828871
 31
0.0
  0
LINE
  5
8C8
330
1A
100
AcDbEntity
  8
ZUWAKU
100
AcDbLine
 10
648.8172025237602
 20
15.59999986828871
 30
0.0
 11
697.2490105620972
 21
15.59999986828871
 31
0.0
  0
TEXT
  5
8C9
330
1A
100
AcDbEntity
  8
ZUWAKU
100
AcDbText
 10
658.2039377008584
 20
18.00492092569607
 30
0.0
 40
5.599999999999999
  1
　　．　　．　　
 41
0.9
  7
ｽﾀｲﾙ1
100
AcDbText
  0
LINE
  5
8CA
330
1A
100
AcDbEntity
  8
ZUWAKU
100
AcDbLine
 10
505.1991795116968
 20
15.19999986828872
 30
0.0
 11
552.5269557796685
 21
15.19999986828872
 31
0.0
  0
LINE
  5
8CB
330
1A
100
AcDbEntity
  8
ZUWAKU
100
AcDbLine
 10
505.1991795116968
 20
15.39999986828871
 30
0.0
 11
552.5269557796685
 21
15.39999986828871
 31
0.0
  0
LINE
  5
8CC
330
1A
100
AcDbEntity
  8
ZUWAKU
100
AcDbLine
 10
505.1991795116968
 20
15.59999986828871
 30
0.0
 11
552.5269557796685
 21
15.59999986828871
 31
0.0
  0
TEXT
  5
8CD
330
1A
100
AcDbEntity
  8
MOJI
100
AcDbText
 10
460.5719973017996
 20
12.08932220294173
 30
0.0
 40
5.599999999999999
  1
ＰＥ２９□
 41
0.9
  7
ｽﾀｲﾙ1
100
AcDbText
  0
LINE
  5
8CE
330
1A
100
AcDbEntity
  8
ZUWAKU
100
AcDbLine
 10
447.6243639845472
 20
29.99999986828868
 30
0.0
 11
447.6243639845474
 21
0.7999998682887508
 31
0.0
  0
LINE
  5
8CF
330
1A
100
AcDbEntity
  8
ZUWAKU
100
AcDbLine
 10
447.8243639845472
 20
29.99999986828868
 30
0.0
 11
447.8243639845475
 21
0.7999998682887508
 31
0.0
  0
LINE
  5
8D0
330
1A
100
AcDbEntity
  8
ZUWAKU
100
AcDbLine
 10
447.4243639845474
 20
29.99999986828868
 30
0.0
 11
447.4243639845474
 21
0.7999998682887508
 31
0.0
  0
TEXT
  5
8D1
330
1A
100
AcDbEntity
  8
MOJI
100
AcDbText
 10
528.0409079858689
 20
18.00492092569607
 30
0.0
 40
5.599999999999999
  1
Ａ３
 41
0.9
  7
ｽﾀｲﾙ1
100
AcDbText
  0
LINE
  5
8D2
330
1A
100
AcDbEntity
  8
ZUWAKU
100
AcDbLine
 10
504.9991795116969
 20
29.99999986828868
 30
0.0
 11
504.999179511697
 21
0.7999998682887508
 31
0.0
  0
LINE
  5
8D3
330
1A
100
AcDbEntity
  8
ZUWAKU
100
AcDbLine
 10
505.1991795116968
 20
29.99999986828868
 30
0.0
 11
505.1991795116971
 21
0.7999998682887508
 31
0.0
  0
LINE
  5
8D4
330
1A
100
AcDbEntity
  8
ZUWAKU
100
AcDbLine
 10
504.799179511697
 20
29.99999986828868
 30
0.0
 11
504.799179511697
 21
0.7999998682887508
 31
0.0
  0
TEXT
  5
8D5
330
1A
100
AcDbEntity
  8
ZUWAKU
100
AcDbText
 10
461.9861313271924
 20
2.614070779428175
 30
0.0
 40
3.0
  1
□には色品番が入ります
 41
0.9
  7
ｽﾀｲﾙ1
100
AcDbText
  0
TEXT
  5
8D6
330
1A
100
AcDbEntity
  8
ZUWAKU
100
AcDbText
 10
506.6766245339067
 20
9.6553564066743
 30
0.0
 40
4.0
  1
縮尺
 41
0.9
  7
ｽﾀｲﾙ1
100
AcDbText
  0
TEXT
  5
8D7
330
1A
100
AcDbEntity
  8
MOJI
100
AcDbText
 10
528.0409079858689
 20
3.204920925696104
 30
0.0
 40
5.599999999999999
  1
１/２
 41
0.9
  7
ｽﾀｲﾙ1
100
AcDbText
  0
TEXT
  5
8D8
330
1A
100
AcDbEntity
  8
ZUWAKU
100
AcDbText
 10
449.3018090067569
 20
24.05535640667426
 30
0.0
 40
4.0
  1
品番
 41
0.9
  7
ｽﾀｲﾙ1
100
AcDbText
  0
TEXT
  5
8D9
330
1A
100
AcDbEntity
  8
ZUWAKU
100
AcDbText
 10
506.6766245339065
 20
24.05535640667426
 30
0.0
 40
4.0
  1
用紙
 41
0.9
  7
ｽﾀｲﾙ1
100
AcDbText
  0
LINE
  5
8DA
330
1A
100
AcDbEntity
  8
ZUWAKU
100
AcDbLine
 10
648.6172025237603
 20
29.99999986828868
 30
0.0
 11
648.6172025237606
 21
0.7999998682887508
 31
0.0
  0
LINE
  5
8DB
330
1A
100
AcDbEntity
  8
ZUWAKU
100
AcDbLine
 10
648.8172025237604
 20
29.99999986828868
 30
0.0
 11
648.8172025237607
 21
0.7999998682887508
 31
0.0
  0
LINE
  5
8DC
330
1A
100
AcDbEntity
  8
ZUWAKU
100
AcDbLine
 10
648.4172025237605
 20
29.99999986828868
 30
0.0
 11
648.4172025237605
 21
0.7999998682887508
 31
0.0
  0
LINE
  5
8DD
330
1A
100
AcDbEntity
  8
ZUWAKU
100
AcDbLine
 10
552.7269557796683
 20
29.99999986828868
 30
0.0
 11
552.7269557796684
 21
0.7999998682887508
 31
0.0
  0
LINE
  5
8DE
330
1A
100
AcDbEntity
  8
ZUWAKU
100
AcDbLine
 10
552.9269557796683
 20
29.99999986828868
 30
0.0
 11
552.9269557796685
 21
0.7999998682887508
 31
0.0
  0
LINE
  5
8DF
330
1A
100
AcDbEntity
  8
ZUWAKU
100
AcDbLine
 10
552.5269557796685
 20
29.99999986828868
 30
0.0
 11
552.5269557796685
 21
0.7999998682887508
 31
0.0
  0
TEXT
  5
8E0
330
1A
100
AcDbEntity
  8
ZUWAKU
100
AcDbText
 10
650.29464754597
 20
24.05535640667426
 30
0.0
 40
4.0
  1
DATE
 41
0.9
  7
ｽﾀｲﾙ1
100
AcDbText
  0
LINE
  5
8E1
330
1A
100
AcDbEntity
  8
ZUWAKU
100
AcDbLine
 10
697.2490105620972
 20
29.99999986828868
 30
0.0
 11
697.2490105620972
 21
0.7999998682887508
 31
0.0
  0
LINE
  5
8E2
330
1A
100
AcDbEntity
  8
ZUWAKU
100
AcDbLine
 10
697.4490105620973
 20
29.99999986828868
 30
0.0
 11
697.4490105620973
 21
0.7999998682887508
 31
0.0
  0
LINE
  5
8E3
330
1A
100
AcDbEntity
  8
ZUWAKU
100
AcDbLine
 10
697.6490105620971
 20
29.99999986828868
 30
0.0
 11
697.6490105620974
 21
0.7999998682887508
 31
0.0
  0
LINE
  5
8E4
330
1A
100
AcDbEntity
  8
ZUWAKU
100
AcDbLine
 10
697.8490105620972
 20
29.99999986828868
 30
0.0
 11
697.8490105620974
 21
0.7999998682887508
 31
0.0
  0
TEXT
  5
8E5
330
1A
100
AcDbEntity
  8
ZUWAKU
100
AcDbText
 10
708.5280842057998
 20
17.55383920397548
 30
0.0
 40
6.0
  1
積水化学工業株式会社
 41
0.9
  7
ｽﾀｲﾙ1
100
AcDbText
  0
TEXT
  5
8E6
330
1A
100
AcDbEntity
  8
ZUWAKU
100
AcDbText
 10
708.5280842057998
 20
6.648840182142748
 30
0.0
 40
6.0
  1
建材事業部
 41
0.9
  7
ｽﾀｲﾙ1
100
AcDbText
  0
VIEWPORT
  5
22
330
17
100
AcDbEntity
 67
     1
  8
0
100
AcDbViewport
 10
313.6808219178082
 20
148.5
 30
0.0
 40
627.3616438356165
 41
297.0
 68
     2
 69
     1
1001
ACAD
1000
MVIEW
1002
{
1070
    16
1010
0.0
1020
0.0
1030
0.0
1010
0.0
1020
0.0
1030
1.0
1040
0.0
1040
297.0
1040
313.6808219178082
1040
148.5
1040
50.0
1040
0.0
1040
0.0
1070
     0
1070
   100
1070
     1
1070
     0
1070
     0
1070
     0
1070
     0
1070
     0
1040
0.0
1040
0.0
1040
0.0
1040
1.0
1040
1.0
1040
10.0
1040
10.0
1070
     0
1002
{
1002
}
1002
}
  0
VIEWPORT
  5
64
330
17
100
AcDbEntity
 67
     1
  8
VIEWPORT
100
AcDbViewport
 10
210.0
 20
148.5
 30
0.0
 40
420.0
 41
297.0
 68
     1
 69
     2
1001
ACAD
1000
MVIEW
1002
{
1070
    16
1010
0.0
1020
0.0
1030
0.0
1010
0.0
1020
0.0
1030
1.0
1040
0.0
1040
605.8799999999998
1040
420.0
1040
297.0
1040
50.0
1040
0.0
1040
0.0
1070
     0
1070
   100
1070
     1
1070
     0
1070
     0
1070
     0
1070
     0
1070
     0
1040
0.0
1040
0.0
1040
0.0
1040
10.0
1040
10.0
1040
0.0
1040
0.0
1070
     0
1002
{
1002
}
1002
}
  0
ENDSEC
  0
SECTION
  2
OBJECTS
  0
DICTIONARY
  5
C
330
0
100
AcDbDictionary
  3
ACAD_GROUP
350
D
  3
ACAD_LAYOUT
350
498
  3
ACAD_MLINESTYLE
350
E
  3
ACAD_PLOTSETTINGS
350
499
  3
ACAD_PLOTSTYLENAME
350
496
  3
ACDBHEADERROUNDTRIPXREC
350
8F5
  0
DICTIONARY
  5
687
330
1A
100
AcDbDictionary
280
     1
  3
ACAD_LAYOUTSELFREF
360
917
  0
DICTIONARY
  5
685
330
17
100
AcDbDictionary
280
     1
  3
ACAD_LAYOUTSELFREF
360
916
  0
DICTIONARY
  5
D
102
{ACAD_REACTORS
330
C
102
}
330
C
100
AcDbDictionary
  0
DICTIONARY
  5
498
102
{ACAD_REACTORS
330
C
102
}
330
C
100
AcDbDictionary
  0
DICTIONARY
  5
E
102
{ACAD_REACTORS
330
C
102
}
330
C
100
AcDbDictionary
  3
STANDARD
350
13
  0
DICTIONARY
  5
499
102
{ACAD_REACTORS
330
C
102
}
330
C
100
AcDbDictionary
  0
ACDBDICTIONARYWDFLT
  5
496
102
{ACAD_REACTORS
330
C
102
}
330
C
100
AcDbDictionary
281
     1
  3
Normal
350
497
100
AcDbDictionaryWithDefault
340
497
1001
ACAD
1000
TREAT_AS_HARD
1070
     0
1000
TREAT_AS_HARD
1070
     0
1000
TREAT_AS_HARD
1070
     0
  0
DICTIONARY
  5
8F5
102
{ACAD_REACTORS
330
C
102
}
330
C
100
AcDbDictionary
  3
TSTACKALIGN
350
8F6
  3
TSTACKSIZE
350
8F7
  3
HYPERLINKBASE
350
8F8
  3
STYLESHEET
350
8F9
  3
LAYOUTDICT
350
8FA
  3
PLOTSETDICT
350
8FB
  3
PLOTSTYLNAMDICT
350
8FC
  3
LWETCUNION
350
8FD
  3
INSUNITS
350
8FE
  3
CEPSNTYPE
350
8FF
  3
FINGERPRINTGUID
350
900
  3
VERSIONGUID
350
901
  3
PSVPSCALE
350
902
  3
DIMSTYLEDATA
350
903
  3
PUCSORTHOREF
350
904
  3
PUCSORTHOVIEW
350
905
  3
PUCSBASE
350
906
  3
PUCSORGTOP
350
907
  3
PUCSORGBOTTOM
350
908
  3
PUCSORGLEFT
350
909
  3
PUCSORGRIGHT
350
90A
  3
PUCSORGFRONT
350
90B
  3
PUCSORGBACK
350
90C
  3
UCSORTHOREF
350
90D
  3
UCSORTHOVIEW
350
90E
  3
UCSBASE
350
90F
  3
UCSORGTOP
350
910
  3
UCSORGBOTTOM
350
911
  3
UCSORGLEFT
350
912
  3
UCSORGRIGHT
350
913
  3
UCSORGFRONT
350
914
  3
UCSORGBACK
350
915
  0
XRECORD
  5
917
102
{ACAD_REACTORS
330
687
102
}
330
687
100
AcDbXrecord
340
1A
  0
XRECORD
  5
916
102
{ACAD_REACTORS
330
685
102
}
330
685
100
AcDbXrecord
340
17
  0
MLINESTYLE
  5
13
102
{ACAD_REACTORS
330
E
102
}
330
E
100
AcDbMlineStyle
  2
STANDARD
 70
     0
  3

 62
     0
 51
90.0
 52
90.0
 71
     2
 49
0.5
 62
   256
  6
BYLAYER
 49
-0.5
 62
   256
  6
BYLAYER
  0
ACDBPLACEHOLDER
  5
497
102
{ACAD_REACTORS
330
496
102
}
330
496
100
AcDbPlaceHolder
280
     0
  0
XRECORD
  5
8F6
102
{ACAD_REACTORS
330
8F5
102
}
330
8F5
100
AcDbXrecord
 90
        1
  0
XRECORD
  5
8F7
102
{ACAD_REACTORS
330
8F5
102
}
330
8F5
100
AcDbXrecord
 90
       70
  0
XRECORD
  5
8F8
102
{ACAD_REACTORS
330
8F5
102
}
330
8F5
100
AcDbXrecord
  1

  0
XRECORD
  5
8F9
102
{ACAD_REACTORS
330
8F5
102
}
330
8F5
100
AcDbXrecord
  1
systemprinter.ctb
  0
XRECORD
  5
8FA
102
{ACAD_REACTORS
330
8F5
102
}
330
8F5
100
AcDbXrecord
340
498
  0
XRECORD
  5
8FB
102
{ACAD_REACTORS
330
8F5
102
}
330
8F5
100
AcDbXrecord
340
499
  0
XRECORD
  5
8FC
102
{ACAD_REACTORS
330
8F5
102
}
330
8F5
100
AcDbXrecord
340
496
  0
XRECORD
  5
8FD
102
{ACAD_REACTORS
330
8F5
102
}
330
8F5
100
AcDbXrecord
 90
    10781
  0
XRECORD
  5
8FE
102
{ACAD_REACTORS
330
8F5
102
}
330
8F5
100
AcDbXrecord
 90
        0
  0
XRECORD
  5
8FF
102
{ACAD_REACTORS
330
8F5
102
}
330
8F5
100
AcDbXrecord
 90
        0
  0
XRECORD
  5
900
102
{ACAD_REACTORS
330
8F5
102
}
330
8F5
100
AcDbXrecord
  1
{6B84EFA0-A936-11D5-932D-0050DA99388B}
  0
XRECORD
  5
901
102
{ACAD_REACTORS
330
8F5
102
}
330
8F5
100
AcDbXrecord
  1
{43AC220E-7A29-48EB-9EE0-0C72463D3F82}
  0
XRECORD
  5
902
102
{ACAD_REACTORS
330
8F5
102
}
330
8F5
100
AcDbXrecord
 40
0.0
  0
XRECORD
  5
903
102
{ACAD_REACTORS
330
8F5
102
}
330
8F5
100
AcDbXrecord
1000
DSTYLE
1002
{
1070
   341
340
6D
1070
   343
340
6D
1070
   344
340
6D
1070
   371
 70
    -1
1070
   372
 70
    -1
1002
}
  0
XRECORD
  5
904
102
{ACAD_REACTORS
330
8F5
102
}
330
8F5
100
AcDbXrecord
340
0
  0
XRECORD
  5
905
102
{ACAD_REACTORS
330
8F5
102
}
330
8F5
100
AcDbXrecord
 70
     0
  0
XRECORD
  5
906
102
{ACAD_REACTORS
330
8F5
102
}
330
8F5
100
AcDbXrecord
340
0
  0
XRECORD
  5
907
102
{ACAD_REACTORS
330
8F5
102
}
330
8F5
100
AcDbXrecord
 10
0.0
 20
0.0
 30
0.0
  0
XRECORD
  5
908
102
{ACAD_REACTORS
330
8F5
102
}
330
8F5
100
AcDbXrecord
 10
0.0
 20
0.0
 30
0.0
  0
XRECORD
  5
909
102
{ACAD_REACTORS
330
8F5
102
}
330
8F5
100
AcDbXrecord
 10
0.0
 20
0.0
 30
0.0
  0
XRECORD
  5
90A
102
{ACAD_REACTORS
330
8F5
102
}
330
8F5
100
AcDbXrecord
 10
0.0
 20
0.0
 30
0.0
  0
XRECORD
  5
90B
102
{ACAD_REACTORS
330
8F5
102
}
330
8F5
100
AcDbXrecord
 10
0.0
 20
0.0
 30
0.0
  0
XRECORD
  5
90C
102
{ACAD_REACTORS
330
8F5
102
}
330
8F5
100
AcDbXrecord
 10
0.0
 20
0.0
 30
0.0
  0
XRECORD
  5
90D
102
{ACAD_REACTORS
330
8F5
102
}
330
8F5
100
AcDbXrecord
340
0
  0
XRECORD
  5
90E
102
{ACAD_REACTORS
330
8F5
102
}
330
8F5
100
AcDbXrecord
 70
     0
  0
XRECORD
  5
90F
102
{ACAD_REACTORS
330
8F5
102
}
330
8F5
100
AcDbXrecord
340
0
  0
XRECORD
  5
910
102
{ACAD_REACTORS
330
8F5
102
}
330
8F5
100
AcDbXrecord
 10
0.0
 20
0.0
 30
0.0
  0
XRECORD
  5
911
102
{ACAD_REACTORS
330
8F5
102
}
330
8F5
100
AcDbXrecord
 10
0.0
 20
0.0
 30
0.0
  0
XRECORD
  5
912
102
{ACAD_REACTORS
330
8F5
102
}
330
8F5
100
AcDbXrecord
 10
0.0
 20
0.0
 30
0.0
  0
XRECORD
  5
913
102
{ACAD_REACTORS
330
8F5
102
}
330
8F5
100
AcDbXrecord
 10
0.0
 20
0.0
 30
0.0
  0
XRECORD
  5
914
102
{ACAD_REACTORS
330
8F5
102
}
330
8F5
100
AcDbXrecord
 10
0.0
 20
0.0
 30
0.0
  0
XRECORD
  5
915
102
{ACAD_REACTORS
330
8F5
102
}
330
8F5
100
AcDbXrecord
 10
0.0
 20
0.0
 30
0.0
  0
ENDSEC
  0
EOF
