  0
SECTION
  2
HEADER
  9
$ACADVER
  1
AC1014
  9
$ACADMAINTVER
 70
     9
  9
$DWGCODEPAGE
  3
ANSI_932
  9
$INSBASE
 10
0.0
 20
0.0
 30
0.0
  9
$EXTMIN
 10
-0.0128099507776369
 20
-0.0090584651927657
 30
-0.0000000000000058
  9
$EXTMAX
 10
797.6616026615272
 20
551.6426495160594
 30
0.0000000000000104
  9
$LIMMIN
 10
0.0
 20
0.0
  9
$LIMMAX
 10
840.0
 20
594.0
  9
$ORTHOMODE
 70
     0
  9
$REGENMODE
 70
     1
  9
$FILLMODE
 70
     1
  9
$QTEXTMODE
 70
     0
  9
$MIRRTEXT
 70
     1
  9
$DRAGMODE
 70
     2
  9
$LTSCALE
 40
1.0
  9
$OSMODE
 70
    35
  9
$ATTMODE
 70
     1
  9
$TEXTSIZE
 40
5.0
  9
$TRACEWID
 40
1.0
  9
$TEXTSTYLE
  7
ｽﾀｲﾙ1
  9
$CLAYER
  8
SUNPOU
  9
$CELTYPE
  6
BYLAYER
  9
$CECOLOR
 62
   256
  9
$CELTSCALE
 40
1.0
  9
$DELOBJ
 70
     1
  9
$DISPSILH
 70
     0
  9
$DIMSCALE
 40
1.0
  9
$DIMASZ
 40
6.0
  9
$DIMEXO
 40
6.0
  9
$DIMDLI
 40
14.0
  9
$DIMRND
 40
0.0
  9
$DIMDLE
 40
0.0
  9
$DIMEXE
 40
3.0
  9
$DIMTP
 40
0.0
  9
$DIMTM
 40
0.0
  9
$DIMTXT
 40
6.0
  9
$DIMCEN
 40
10.0
  9
$DIMTSZ
 40
0.0
  9
$DIMTOL
 70
     0
  9
$DIMLIM
 70
     0
  9
$DIMTIH
 70
     0
  9
$DIMTOH
 70
     0
  9
$DIMSE1
 70
     0
  9
$DIMSE2
 70
     0
  9
$DIMTAD
 70
     3
  9
$DIMZIN
 70
     0
  9
$DIMBLK
  1

  9
$DIMASO
 70
     1
  9
$DIMSHO
 70
     1
  9
$DIMPOST
  1

  9
$DIMAPOST
  1

  9
$DIMALT
 70
     0
  9
$DIMALTD
 70
     2
  9
$DIMALTF
 40
25.4
  9
$DIMLFAC
 40
1.0
  9
$DIMTOFL
 70
     1
  9
$DIMTVP
 40
0.0
  9
$DIMTIX
 70
     0
  9
$DIMSOXD
 70
     0
  9
$DIMSAH
 70
     1
  9
$DIMBLK1
  1
OPEN
  9
$DIMBLK2
  1
OPEN
  9
$DIMSTYLE
  2
STANDARD
  9
$DIMCLRD
 70
   256
  9
$DIMCLRE
 70
   256
  9
$DIMCLRT
 70
   256
  9
$DIMTFAC
 40
1.0
  9
$DIMGAP
 40
2.0
  9
$DIMJUST
 70
     0
  9
$DIMSD1
 70
     0
  9
$DIMSD2
 70
     0
  9
$DIMTOLJ
 70
     1
  9
$DIMTZIN
 70
     0
  9
$DIMALTZ
 70
     0
  9
$DIMALTTZ
 70
     0
  9
$DIMFIT
 70
     3
  9
$DIMUPT
 70
     0
  9
$DIMUNIT
 70
     2
  9
$DIMDEC
 70
     0
  9
$DIMTDEC
 70
     0
  9
$DIMALTU
 70
     2
  9
$DIMALTTD
 70
     2
  9
$DIMTXSTY
  7
STANDARD
  9
$DIMAUNIT
 70
     0
  9
$LUNITS
 70
     2
  9
$LUPREC
 70
     4
  9
$SKETCHINC
 40
1.0
  9
$FILLETRAD
 40
2.0
  9
$AUNITS
 70
     0
  9
$AUPREC
 70
     0
  9
$MENU
  1
.
  9
$ELEVATION
 40
0.0
  9
$PELEVATION
 40
0.0
  9
$THICKNESS
 40
0.0
  9
$LIMCHECK
 70
     0
  9
$BLIPMODE
 70
     0
  9
$CHAMFERA
 40
20.0
  9
$CHAMFERB
 40
20.0
  9
$CHAMFERC
 40
40.0
  9
$CHAMFERD
 40
0.0
  9
$SKPOLY
 70
     0
  9
$TDCREATE
 40
2451806.684426273
  9
$TDUPDATE
 40
2453481.684129954
  9
$TDINDWG
 40
0.0264206481
  9
$TDUSRTIMER
 40
0.0264206481
  9
$USRTIMER
 70
     1
  9
$ANGBASE
 50
0.0
  9
$ANGDIR
 70
     0
  9
$PDMODE
 70
     0
  9
$PDSIZE
 40
0.0
  9
$PLINEWID
 40
0.0
  9
$COORDS
 70
     1
  9
$SPLFRAME
 70
     0
  9
$SPLINETYPE
 70
     6
  9
$SPLINESEGS
 70
     8
  9
$ATTDIA
 70
     0
  9
$ATTREQ
 70
     1
  9
$HANDLING
 70
 10241
  9
$HANDSEED
  5
FCB
  9
$SURFTAB1
 70
     6
  9
$SURFTAB2
 70
     6
  9
$SURFTYPE
 70
     6
  9
$SURFU
 70
     6
  9
$SURFV
 70
     6
  9
$UCSNAME
  2

  9
$UCSORG
 10
0.0
 20
0.0
 30
0.0
  9
$UCSXDIR
 10
1.0
 20
0.0
 30
0.0
  9
$UCSYDIR
 10
0.0
 20
1.0
 30
0.0
  9
$PUCSNAME
  2

  9
$PUCSORG
 10
0.0
 20
0.0
 30
0.0
  9
$PUCSXDIR
 10
1.0
 20
0.0
 30
0.0
  9
$PUCSYDIR
 10
0.0
 20
1.0
 30
0.0
  9
$USERI1
 70
     0
  9
$USERI2
 70
     0
  9
$USERI3
 70
     0
  9
$USERI4
 70
     0
  9
$USERI5
 70
     0
  9
$USERR1
 40
0.0
  9
$USERR2
 40
0.0
  9
$USERR3
 40
0.0
  9
$USERR4
 40
0.0
  9
$USERR5
 40
0.0
  9
$WORLDVIEW
 70
     1
  9
$SHADEDGE
 70
     3
  9
$SHADEDIF
 70
    70
  9
$TILEMODE
 70
     1
  9
$MAXACTVP
 70
    16
  9
$PINSBASE
 10
0.0
 20
0.0
 30
0.0
  9
$PLIMCHECK
 70
     0
  9
$PEXTMIN
 10
0.0
 20
0.0
 30
0.0
  9
$PEXTMAX
 10
420.0
 20
297.0
 30
0.0
  9
$PLIMMIN
 10
0.0
 20
0.0
  9
$PLIMMAX
 10
420.0
 20
297.0
  9
$UNITMODE
 70
     0
  9
$VISRETAIN
 70
     0
  9
$PLINEGEN
 70
     0
  9
$PSLTSCALE
 70
     1
  9
$TREEDEPTH
 70
  3020
  9
$PICKSTYLE
 70
     1
  9
$CMLSTYLE
  2
STANDARD
  9
$CMLJUST
 70
     0
  9
$CMLSCALE
 40
1.0
  9
$PROXYGRAPHICS
 70
     1
  9
$MEASUREMENT
 70
     1
  0
ENDSEC
  0
SECTION
  2
CLASSES
  0
CLASS
  1
ACDBDICTIONARYWDFLT
  2
AcDbDictionaryWithDefault
  3
AutoCAD 2000
 90
        0
280
     0
281
     0
  0
CLASS
  1
ACDBPLACEHOLDER
  2
AcDbPlaceHolder
  3
AutoCAD 2000
 90
        0
280
     0
281
     0
  0
CLASS
  1
LAYOUT
  2
AcDbLayout
  3
AutoCAD 2000
 90
        0
280
     0
281
     0
  0
CLASS
  1
LONG_TRANSACTION
  2
AcDbLongTransaction
  3
AutoCAD 2000
 90
        0
280
     0
281
     0
  0
CLASS
  1
LWPOLYLINE
  2
AcDbPolyline
  3
AutoCAD 2000
 90
        0
280
     0
281
     1
  0
CLASS
  1
HATCH
  2
AcDbHatch
  3
AutoCAD 2000
 90
        0
280
     0
281
     1
  0
CLASS
  1
XRECORD
  2
AcDbXrecord
  3
AutoCAD 2000
 90
        0
280
     0
281
     0
  0
CLASS
  1
LONG_TRANSACTION
  2
AcDbLongTransaction
  3
AutoCAD 2000
 90
        0
280
     0
281
     0
  0
CLASS
  1
LWPOLYLINE
  2
AcDbPolyline
  3
AutoCAD 2000
 90
        0
280
     0
281
     1
  0
CLASS
  1
HATCH
  2
AcDbHatch
  3
AutoCAD 2000
 90
        0
280
     0
281
     1
  0
CLASS
  1
XRECORD
  2
AcDbXrecord
  3
AutoCAD 2000
 90
        0
280
     0
281
     0
  0
CLASS
  1
LONG_TRANSACTION
  2
AcDbLongTransaction
  3
AutoCAD 2000
 90
        0
280
     0
281
     0
  0
CLASS
  1
LWPOLYLINE
  2
AcDbPolyline
  3
AutoCAD 2000
 90
        0
280
     0
281
     1
  0
CLASS
  1
HATCH
  2
AcDbHatch
  3
AutoCAD 2000
 90
        0
280
     0
281
     1
  0
CLASS
  1
XRECORD
  2
AcDbXrecord
  3
AutoCAD 2000
 90
        0
280
     0
281
     0
  0
ENDSEC
  0
SECTION
  2
TABLES
  0
TABLE
  2
VPORT
  5
8
330
0
100
AcDbSymbolTable
 70
     2
  0
VPORT
  5
FA7
330
8
100
AcDbSymbolTableRecord
100
AcDbViewportTableRecord
  2
*ACTIVE
 70
     0
 10
0.0
 20
0.0
 11
1.0
 21
1.0
 12
421.0845557938752
 22
271.4475243554252
 13
0.0
 23
0.0
 14
5.0
 24
5.0
 15
0.0
 25
0.0
 16
0.0
 26
0.0
 36
1.0
 17
0.0
 27
0.0
 37
0.0
 40
600.6122997134939
 41
1.752310536044362
 42
50.0
 43
0.0
 44
0.0
 50
0.0
 51
0.0
 71
     0
 72
   100
 73
     1
 74
     0
 75
     0
 76
     0
 77
     0
 78
     0
  0
ENDTAB
  0
TABLE
  2
LTYPE
  5
5
330
0
100
AcDbSymbolTable
 70
     3
  0
LTYPE
  5
14
330
5
100
AcDbSymbolTableRecord
100
AcDbLinetypeTableRecord
  2
BYBLOCK
 70
     0
  3

 72
    65
 73
     0
 40
0.0
  0
LTYPE
  5
15
330
5
100
AcDbSymbolTableRecord
100
AcDbLinetypeTableRecord
  2
BYLAYER
 70
     0
  3

 72
    65
 73
     0
 40
0.0
  0
LTYPE
  5
16
330
5
100
AcDbSymbolTableRecord
100
AcDbLinetypeTableRecord
  2
CONTINUOUS
 70
     0
  3
Solid line
 72
    65
 73
     0
 40
0.0
  0
LTYPE
  5
115
330
5
100
AcDbSymbolTableRecord
100
AcDbLinetypeTableRecord
  2
PHANTOM
 70
     0
  3
______  __  __  ______  __  __  ______  __  __ 
 72
    65
 73
     6
 40
2.5
 49
1.25
 74
     0
 49
-0.25
 74
     0
 49
0.25
 74
     0
 49
-0.25
 74
     0
 49
0.25
 74
     0
 49
-0.25
 74
     0
  0
LTYPE
  5
135
330
5
100
AcDbSymbolTableRecord
100
AcDbLinetypeTableRecord
  2
CENTER
 70
     0
  3
____ _ ____ _ ____ _ ____ _ ____ _ ____ _ ____ 
 72
    65
 73
     4
 40
2.0
 49
1.25
 74
     0
 49
-0.25
 74
     0
 49
0.25
 74
     0
 49
-0.25
 74
     0
  0
ENDTAB
  0
TABLE
  2
LAYER
  5
2
330
0
100
AcDbSymbolTable
 70
     9
  0
LAYER
  5
F
330
2
100
AcDbSymbolTableRecord
100
AcDbLayerTableRecord
  2
0
 70
     0
 62
     7
  6
CONTINUOUS
  0
LAYER
  5
62
330
2
100
AcDbSymbolTableRecord
100
AcDbLayerTableRecord
  2
VIEWPORT
 70
     0
 62
     7
  6
CONTINUOUS
  0
LAYER
  5
65
330
2
100
AcDbSymbolTableRecord
100
AcDbLayerTableRecord
  2
ZUWAKU
 70
     0
 62
     7
  6
CONTINUOUS
  0
LAYER
  5
1BD
330
2
100
AcDbSymbolTableRecord
100
AcDbLayerTableRecord
  2
DEFPOINTS
 70
     0
 62
     7
  6
CONTINUOUS
  0
LAYER
  5
1BE
330
2
100
AcDbSymbolTableRecord
100
AcDbLayerTableRecord
  2
NOKITOI
 70
     0
 62
     9
  6
PHANTOM
  0
LAYER
  5
1BF
330
2
100
AcDbSymbolTableRecord
100
AcDbLayerTableRecord
  2
SEIHIN
 70
     0
 62
     3
  6
CONTINUOUS
  0
LAYER
  5
1C0
330
2
100
AcDbSymbolTableRecord
100
AcDbLayerTableRecord
  2
CENTER_L
 70
     0
 62
     1
  6
CENTER
  0
LAYER
  5
1C1
330
2
100
AcDbSymbolTableRecord
100
AcDbLayerTableRecord
  2
SUNPOU
 70
     0
 62
     4
  6
CONTINUOUS
  0
LAYER
  5
DE3
330
2
100
AcDbSymbolTableRecord
100
AcDbLayerTableRecord
  2
MOJI
 70
     0
 62
     2
  6
CONTINUOUS
  0
ENDTAB
  0
TABLE
  2
STYLE
  5
3
330
0
100
AcDbSymbolTable
 70
     2
  0
STYLE
  5
10
330
3
100
AcDbSymbolTableRecord
100
AcDbTextStyleTableRecord
  2
STANDARD
 70
     0
 40
0.0
 41
1.0
 50
0.0
 71
     0
 42
5.0
  3
TXT
  4
c:\PROGRAM FILES\AUTOCAD LT\ms\bigfont.shx
  0
STYLE
  5
DD6
330
3
100
AcDbSymbolTableRecord
100
AcDbTextStyleTableRecord
  2
ｽﾀｲﾙ1
 70
     0
 40
0.0
 41
1.0
 50
0.0
 71
     0
 42
5.0
  3
MS Gothic.ttf
  4

1001
ACAD
1000
MS Gothic
1071
    32817
  0
ENDTAB
  0
TABLE
  2
VIEW
  5
6
330
0
100
AcDbSymbolTable
 70
     0
  0
ENDTAB
  0
TABLE
  2
UCS
  5
7
330
0
100
AcDbSymbolTable
 70
     0
  0
ENDTAB
  0
TABLE
  2
APPID
  5
9
330
0
100
AcDbSymbolTable
 70
     1
  0
APPID
  5
11
330
9
100
AcDbSymbolTableRecord
100
AcDbRegAppTableRecord
  2
ACAD
 70
     0
  0
ENDTAB
  0
TABLE
  2
DIMSTYLE
  5
A
330
0
100
AcDbSymbolTable
 70
     1
  0
DIMSTYLE
105
1D
102
{ACAD_REACTORS
330
B72
330
B80
330
B8D
330
B9A
330
BA7
330
BB4
330
BCA
330
BD7
102
}
330
A
100
AcDbSymbolTableRecord
100
AcDbDimStyleTableRecord
  2
STANDARD
 70
     0
  3

  4

  5

  6

  7

 40
1.0
 41
0.18
 42
0.0625
 43
0.38
 44
0.18
 45
0.0
 46
0.0
 47
0.0
 48
0.0
140
0.18
141
0.09
142
0.0
143
25.4
144
1.0
145
0.0
146
1.0
147
0.09
 71
     0
 72
     0
 73
     1
 74
     1
 75
     0
 76
     0
 77
     0
 78
     0
170
     0
171
     2
172
     0
173
     0
174
     0
175
     0
176
     0
177
     0
178
     0
270
     2
271
     4
272
     4
273
     2
274
     2
340
10
275
     0
280
     0
281
     0
282
     0
283
     1
284
     0
285
     0
286
     0
287
     3
288
     0
  0
ENDTAB
  0
TABLE
  2
BLOCK_RECORD
  5
1
330
0
100
AcDbSymbolTable
 70
     9
  0
BLOCK_RECORD
  5
1A
102
{ACAD_XDICTIONARY
360
CFB
102
}
330
1
100
AcDbSymbolTableRecord
100
AcDbBlockTableRecord
  2
*MODEL_SPACE
  0
BLOCK_RECORD
  5
17
102
{ACAD_XDICTIONARY
360
CF9
102
}
330
1
100
AcDbSymbolTableRecord
100
AcDbBlockTableRecord
  2
*PAPER_SPACE
  0
BLOCK_RECORD
  5
6D
330
1
100
AcDbSymbolTableRecord
100
AcDbBlockTableRecord
  2
_OPEN
  0
BLOCK_RECORD
  5
B73
330
1
100
AcDbSymbolTableRecord
100
AcDbBlockTableRecord
  2
*D1
  0
BLOCK_RECORD
  5
B81
330
1
100
AcDbSymbolTableRecord
100
AcDbBlockTableRecord
  2
*D2
  0
BLOCK_RECORD
  5
B8E
330
1
100
AcDbSymbolTableRecord
100
AcDbBlockTableRecord
  2
*D3
  0
BLOCK_RECORD
  5
B9B
330
1
100
AcDbSymbolTableRecord
100
AcDbBlockTableRecord
  2
*D4
  0
BLOCK_RECORD
  5
BA8
330
1
100
AcDbSymbolTableRecord
100
AcDbBlockTableRecord
  2
*D5
  0
BLOCK_RECORD
  5
BB5
330
1
100
AcDbSymbolTableRecord
100
AcDbBlockTableRecord
  2
*D6
  0
BLOCK_RECORD
  5
BCB
330
1
100
AcDbSymbolTableRecord
100
AcDbBlockTableRecord
  2
*D7
  0
BLOCK_RECORD
  5
BD8
330
1
100
AcDbSymbolTableRecord
100
AcDbBlockTableRecord
  2
*D8
  0
ENDTAB
  0
ENDSEC
  0
SECTION
  2
BLOCKS
  0
BLOCK
  5
1B
330
1A
100
AcDbEntity
  8
0
100
AcDbBlockBegin
  2
*MODEL_SPACE
 70
     0
 10
0.0
 20
0.0
 30
0.0
  3
*MODEL_SPACE
  1

  0
ENDBLK
  5
1C
330
1A
100
AcDbEntity
  8
0
100
AcDbBlockEnd
  0
BLOCK
  5
18
330
17
100
AcDbEntity
 67
     1
  8
0
100
AcDbBlockBegin
  2
*PAPER_SPACE
 70
     0
 10
0.0
 20
0.0
 30
0.0
  3
*PAPER_SPACE
  1

  0
ENDBLK
  5
19
330
17
100
AcDbEntity
 67
     1
  8
0
100
AcDbBlockEnd
  0
BLOCK
  5
6E
330
6D
100
AcDbEntity
  8
0
100
AcDbBlockBegin
  2
_OPEN
 70
     0
 10
0.0
 20
0.0
 30
0.0
  3
_OPEN
  1

  0
LINE
  5
6F
330
6D
100
AcDbEntity
  8
0
  6
BYBLOCK
 62
     0
100
AcDbLine
 10
-1.0
 20
0.1666666666666666
 30
0.0
 11
0.0
 21
0.0
 31
0.0
  0
LINE
  5
70
330
6D
100
AcDbEntity
  8
0
  6
BYBLOCK
 62
     0
100
AcDbLine
 10
0.0
 20
0.0
 30
0.0
 11
-1.0
 21
-0.1666666666666666
 31
0.0
  0
LINE
  5
71
330
6D
100
AcDbEntity
  8
0
  6
BYBLOCK
 62
     0
100
AcDbLine
 10
0.0
 20
0.0
 30
0.0
 11
-1.0
 21
0.0
 31
0.0
  0
ENDBLK
  5
72
330
6D
100
AcDbEntity
  8
0
100
AcDbBlockEnd
  0
BLOCK
  5
B7D
330
B73
100
AcDbEntity
  8
0
100
AcDbBlockBegin
  2
*D1
 70
     1
 10
0.0
 20
0.0
 30
0.0
  3
*D1
  1

  0
LINE
  5
EAF
330
B73
100
AcDbEntity
  8
SUNPOU
100
AcDbLine
 10
571.7636800313623
 20
132.3127081411001
 30
0.0
 11
661.2366599729721
 21
132.3127081411
 31
0.0
  0
LINE
  5
EB0
330
B73
100
AcDbEntity
  8
SUNPOU
100
AcDbLine
 10
506.3864670313622
 20
56.41270827119081
 30
0.0
 11
661.2366599729721
 21
56.41270827119076
 31
0.0
  0
LINE
  5
EB1
330
B73
100
AcDbEntity
  8
SUNPOU
100
AcDbLine
 10
658.2366599729721
 20
126.3127081411001
 30
0.0
 11
658.2366599729721
 21
62.41270827119077
 31
0.0
  0
INSERT
  5
EB2
330
B73
100
AcDbEntity
  8
SUNPOU
100
AcDbBlockReference
  2
_OPEN
 10
658.2366599729721
 20
132.3127081411
 30
0.0
 41
6.0
 42
6.0
 43
6.0
 50
90.0
  0
INSERT
  5
EB3
330
B73
100
AcDbEntity
  8
SUNPOU
100
AcDbBlockReference
  2
_OPEN
 10
658.2366599729721
 20
56.41270827119076
 30
0.0
 41
6.0
 42
6.0
 43
6.0
 50
270.0
  0
MTEXT
  5
EB4
330
B73
100
AcDbEntity
  8
SUNPOU
100
AcDbMText
 10
653.2366599729721
 20
94.36270820614554
 30
0.0
 40
6.0
 41
0.0
 71
     5
 72
     1
  1
\A1;76
 11
0.0000000000000001
 21
1.0
 31
0.0
1001
ACAD
1000
MTEXTBEGIN
1070
    73
1070
     1
1070
    44
1040
1.0
1070
    74
1070
     0
1000
MTEXTEND
  0
POINT
  5
EB5
330
B73
100
AcDbEntity
  8
DEFPOINTS
 62
     0
100
AcDbPoint
 10
565.7636800313623
 20
132.3127081411001
 30
0.0
  0
POINT
  5
EB6
330
B73
100
AcDbEntity
  8
DEFPOINTS
 62
     0
100
AcDbPoint
 10
500.3864670313622
 20
56.41270827119081
 30
0.0
  0
POINT
  5
EB7
330
B73
100
AcDbEntity
  8
DEFPOINTS
 62
     0
100
AcDbPoint
 10
658.2366599729721
 20
56.41270827119076
 30
0.0
  0
ENDBLK
  5
B7E
330
B73
100
AcDbEntity
  8
0
100
AcDbBlockEnd
  0
BLOCK
  5
B8B
330
B81
100
AcDbEntity
  8
0
100
AcDbBlockBegin
  2
*D2
 70
     1
 10
0.0
 20
0.0
 30
0.0
  3
*D2
  1

  0
LINE
  5
E9D
330
B81
100
AcDbEntity
  8
SUNPOU
100
AcDbLine
 10
432.4265290313621
 20
173.0114744348519
 30
0.0
 11
364.3209457433886
 21
173.0114744348519
 31
0.0
  0
LINE
  5
E9E
330
B81
100
AcDbEntity
  8
SUNPOU
100
AcDbLine
 10
494.3864670313622
 20
56.41270827119082
 30
0.0
 11
364.3209457433886
 21
56.41270827119085
 31
0.0
  0
LINE
  5
E9F
330
B81
100
AcDbEntity
  8
SUNPOU
100
AcDbLine
 10
367.3209457433886
 20
167.0114744348519
 30
0.0
 11
367.3209457433886
 21
62.41270827119085
 31
0.0
  0
INSERT
  5
EA0
330
B81
100
AcDbEntity
  8
SUNPOU
100
AcDbBlockReference
  2
_OPEN
 10
367.3209457433886
 20
173.0114744348519
 30
0.0
 41
6.0
 42
6.0
 43
6.0
 50
90.0
  0
INSERT
  5
EA1
330
B81
100
AcDbEntity
  8
SUNPOU
100
AcDbBlockReference
  2
_OPEN
 10
367.3209457433886
 20
56.41270827119085
 30
0.0
 41
6.0
 42
6.0
 43
6.0
 50
270.0
  0
MTEXT
  5
EA2
330
B81
100
AcDbEntity
  8
SUNPOU
100
AcDbMText
 10
362.3209457433886
 20
114.7120913530214
 30
0.0
 40
6.0
 41
0.0
 71
     5
 72
     1
  1
\A1;117
 11
0.0000000000000001
 21
1.0
 31
0.0
1001
ACAD
1000
MTEXTBEGIN
1070
    73
1070
     1
1070
    44
1040
1.0
1070
    74
1070
     0
1000
MTEXTEND
  0
POINT
  5
EA3
330
B81
100
AcDbEntity
  8
DEFPOINTS
 62
     0
100
AcDbPoint
 10
438.4265290313622
 20
173.0114744348519
 30
0.0
  0
POINT
  5
EA4
330
B81
100
AcDbEntity
  8
DEFPOINTS
 62
     0
100
AcDbPoint
 10
500.3864670313622
 20
56.41270827119081
 30
0.0
  0
POINT
  5
EA5
330
B81
100
AcDbEntity
  8
DEFPOINTS
 62
     0
100
AcDbPoint
 10
367.3209457433886
 20
56.41270827119085
 30
0.0
  0
ENDBLK
  5
B8C
330
B81
100
AcDbEntity
  8
0
100
AcDbBlockEnd
  0
BLOCK
  5
B98
330
B8E
100
AcDbEntity
  8
0
100
AcDbBlockBegin
  2
*D3
 70
     1
 10
0.0
 20
0.0
 30
0.0
  3
*D3
  1

  0
LINE
  5
EC1
330
B8E
100
AcDbEntity
  8
SUNPOU
100
AcDbLine
 10
572.2656464369558
 20
133.3127082348519
 30
0.0
 11
572.2656464369558
 21
229.0023736561583
 31
0.0
  0
LINE
  5
EC2
330
B8E
100
AcDbEntity
  8
SUNPOU
100
AcDbLine
 10
420.7595640313622
 20
87.42982333485196
 30
0.0
 11
420.7595640313622
 21
229.0023736561583
 31
0.0
  0
LINE
  5
EC3
330
B8E
100
AcDbEntity
  8
SUNPOU
100
AcDbLine
 10
566.2656464369558
 20
226.0023736561584
 30
0.0
 11
426.7595640313622
 21
226.0023736561584
 31
0.0
  0
INSERT
  5
EC4
330
B8E
100
AcDbEntity
  8
SUNPOU
100
AcDbBlockReference
  2
_OPEN
 10
572.2656464369558
 20
226.0023736561584
 30
0.0
 41
6.0
 42
6.0
 43
6.0
  0
INSERT
  5
EC5
330
B8E
100
AcDbEntity
  8
SUNPOU
100
AcDbBlockReference
  2
_OPEN
 10
420.7595640313622
 20
226.0023736561584
 30
0.0
 41
6.0
 42
6.0
 43
6.0
 50
180.0
  0
MTEXT
  5
EC6
330
B8E
100
AcDbEntity
  8
SUNPOU
100
AcDbMText
 10
496.5126052341591
 20
231.0023736561583
 30
0.0
 40
6.0
 41
0.0
 71
     5
 72
     1
  1
\A1;152
1001
ACAD
1000
MTEXTBEGIN
1070
    73
1070
     1
1070
    44
1040
1.0
1070
    74
1070
     0
1000
MTEXTEND
  0
POINT
  5
EC7
330
B8E
100
AcDbEntity
  8
DEFPOINTS
 62
     0
100
AcDbPoint
 10
572.2656464369558
 20
127.3127082348519
 30
0.0
  0
POINT
  5
EC8
330
B8E
100
AcDbEntity
  8
DEFPOINTS
 62
     0
100
AcDbPoint
 10
420.7595640313622
 20
81.42982333485196
 30
0.0
  0
POINT
  5
EC9
330
B8E
100
AcDbEntity
  8
DEFPOINTS
 62
     0
100
AcDbPoint
 10
420.7595640313622
 20
226.0023736561584
 30
0.0
  0
ENDBLK
  5
B99
330
B8E
100
AcDbEntity
  8
0
100
AcDbBlockEnd
  0
BLOCK
  5
BA5
330
B9B
100
AcDbEntity
  8
0
100
AcDbBlockBegin
  2
*D4
 70
     1
 10
0.0
 20
0.0
 30
0.0
  3
*D4
  1

  0
LINE
  5
EB8
330
B9B
100
AcDbEntity
  8
SUNPOU
100
AcDbLine
 10
420.7595640313622
 20
87.42982333485196
 30
0.0
 11
420.7595640313622
 21
246.4114526499165
 31
0.0
  0
LINE
  5
EB9
330
B9B
100
AcDbEntity
  8
SUNPOU
100
AcDbLine
 10
626.7595670313624
 20
179.0114744348519
 30
0.0
 11
626.7595670313624
 21
246.4114526499165
 31
0.0
  0
LINE
  5
EBA
330
B9B
100
AcDbEntity
  8
SUNPOU
100
AcDbLine
 10
426.7595640313622
 20
243.4114526499165
 30
0.0
 11
620.7595670313623
 21
243.4114526499165
 31
0.0
  0
INSERT
  5
EBB
330
B9B
100
AcDbEntity
  8
SUNPOU
100
AcDbBlockReference
  2
_OPEN
 10
420.7595640313622
 20
243.4114526499165
 30
0.0
 41
6.0
 42
6.0
 43
6.0
 50
180.0
  0
INSERT
  5
EBC
330
B9B
100
AcDbEntity
  8
SUNPOU
100
AcDbBlockReference
  2
_OPEN
 10
626.7595670313624
 20
243.4114526499165
 30
0.0
 41
6.0
 42
6.0
 43
6.0
  0
MTEXT
  5
EBD
330
B9B
100
AcDbEntity
  8
SUNPOU
100
AcDbMText
 10
523.7595655313623
 20
248.4114526499165
 30
0.0
 40
6.0
 41
0.0
 71
     5
 72
     1
  1
\A1;206
1001
ACAD
1000
MTEXTBEGIN
1070
    73
1070
     1
1070
    44
1040
1.0
1070
    74
1070
     0
1000
MTEXTEND
  0
POINT
  5
EBE
330
B9B
100
AcDbEntity
  8
DEFPOINTS
 62
     0
100
AcDbPoint
 10
420.7595640313622
 20
81.42982333485196
 30
0.0
  0
POINT
  5
EBF
330
B9B
100
AcDbEntity
  8
DEFPOINTS
 62
     0
100
AcDbPoint
 10
626.7595670313624
 20
173.0114744348519
 30
0.0
  0
POINT
  5
EC0
330
B9B
100
AcDbEntity
  8
DEFPOINTS
 62
     0
100
AcDbPoint
 10
626.7595670313624
 20
243.4114526499165
 30
0.0
  0
ENDBLK
  5
BA6
330
B9B
100
AcDbEntity
  8
0
100
AcDbBlockEnd
  0
BLOCK
  5
BB2
330
BA8
100
AcDbEntity
  8
0
100
AcDbBlockBegin
  2
*D5
 70
     1
 10
0.0
 20
0.0
 30
0.0
  3
*D5
  1

  0
LINE
  5
EA6
330
BA8
100
AcDbEntity
  8
SUNPOU
100
AcDbLine
 10
294.4478410246095
 20
179.0114744348519
 30
0.0
 11
294.4478410246095
 21
229.0023736561583
 31
0.0
  0
LINE
  5
EA7
330
BA8
100
AcDbEntity
  8
SUNPOU
100
AcDbLine
 10
88.42783802460941
 20
87.42982333485196
 30
0.0
 11
88.42783802460941
 21
229.0023736561583
 31
0.0
  0
LINE
  5
EA8
330
BA8
100
AcDbEntity
  8
SUNPOU
100
AcDbLine
 10
288.4478410246094
 20
226.0023736561584
 30
0.0
 11
94.42783802460942
 21
226.0023736561584
 31
0.0
  0
INSERT
  5
EA9
330
BA8
100
AcDbEntity
  8
SUNPOU
100
AcDbBlockReference
  2
_OPEN
 10
294.4478410246095
 20
226.0023736561584
 30
0.0
 41
6.0
 42
6.0
 43
6.0
  0
INSERT
  5
EAA
330
BA8
100
AcDbEntity
  8
SUNPOU
100
AcDbBlockReference
  2
_OPEN
 10
88.42783802460941
 20
226.0023736561584
 30
0.0
 41
6.0
 42
6.0
 43
6.0
 50
180.0
  0
MTEXT
  5
EAB
330
BA8
100
AcDbEntity
  8
SUNPOU
100
AcDbMText
 10
191.4378395246094
 20
231.0023736561583
 30
0.0
 40
6.0
 41
0.0
 71
     5
 72
     1
  1
\A1;206
1001
ACAD
1000
MTEXTBEGIN
1070
    73
1070
     1
1070
    44
1040
1.0
1070
    74
1070
     0
1000
MTEXTEND
  0
POINT
  5
EAC
330
BA8
100
AcDbEntity
  8
DEFPOINTS
 62
     0
100
AcDbPoint
 10
294.4478410246095
 20
173.0114744348519
 30
0.0
  0
POINT
  5
EAD
330
BA8
100
AcDbEntity
  8
DEFPOINTS
 62
     0
100
AcDbPoint
 10
88.42783802460941
 20
81.42982333485196
 30
0.0
  0
POINT
  5
EAE
330
BA8
100
AcDbEntity
  8
DEFPOINTS
 62
     0
100
AcDbPoint
 10
88.42783802460941
 20
226.0023736561584
 30
0.0
  0
ENDBLK
  5
BB3
330
BA8
100
AcDbEntity
  8
0
100
AcDbBlockEnd
  0
BLOCK
  5
BBF
330
BB5
100
AcDbEntity
  8
0
100
AcDbBlockBegin
  2
*D6
 70
     1
 10
0.0
 20
0.0
 30
0.0
  3
*D6
  1

  0
LINE
  5
EDC
330
BB5
100
AcDbEntity
  8
SUNPOU
100
AcDbLine
 10
573.2235360313622
 20
347.3148311373937
 30
0.0
 11
624.8246884114332
 21
347.3148311373937
 31
0.0
  0
LINE
  5
EDD
330
BB5
100
AcDbEntity
  8
SUNPOU
100
AcDbLine
 10
576.8864670313623
 20
303.3148311373937
 30
0.0
 11
624.8246884114332
 21
303.3148311373937
 31
0.0
  0
LINE
  5
EDE
330
BB5
100
AcDbEntity
  8
SUNPOU
100
AcDbLine
 10
621.8246884114332
 20
341.3148311373937
 30
0.0
 11
621.8246884114332
 21
309.3148311373937
 31
0.0
  0
INSERT
  5
EDF
330
BB5
100
AcDbEntity
  8
SUNPOU
100
AcDbBlockReference
  2
_OPEN
 10
621.8246884114332
 20
347.3148311373937
 30
0.0
 41
6.0
 42
6.0
 43
6.0
 50
90.0
  0
INSERT
  5
EE0
330
BB5
100
AcDbEntity
  8
SUNPOU
100
AcDbBlockReference
  2
_OPEN
 10
621.8246884114332
 20
303.3148311373937
 30
0.0
 41
6.0
 42
6.0
 43
6.0
 50
270.0
  0
MTEXT
  5
EE1
330
BB5
100
AcDbEntity
  8
SUNPOU
100
AcDbMText
 10
616.8246884114331
 20
325.3148311373938
 30
0.0
 40
6.0
 41
0.0
 71
     5
 72
     1
  1
\A1;\U+203B44
 11
0.0000000000000001
 21
1.0
 31
0.0
1001
ACAD
1000
MTEXTBEGIN
1070
    73
1070
     1
1070
    44
1040
1.0
1070
    74
1070
     0
1000
MTEXTEND
  0
POINT
  5
EE2
330
BB5
100
AcDbEntity
  8
DEFPOINTS
 62
     0
100
AcDbPoint
 10
567.2235360313623
 20
347.3148311373937
 30
0.0
  0
POINT
  5
EE3
330
BB5
100
AcDbEntity
  8
DEFPOINTS
 62
     0
100
AcDbPoint
 10
570.8864670313623
 20
303.3148311373937
 30
0.0
  0
POINT
  5
EE4
330
BB5
100
AcDbEntity
  8
DEFPOINTS
 62
     0
100
AcDbPoint
 10
621.8246884114332
 20
303.3148311373937
 30
0.0
  0
ENDBLK
  5
BC0
330
BB5
100
AcDbEntity
  8
0
100
AcDbBlockEnd
  0
BLOCK
  5
BD5
330
BCB
100
AcDbEntity
  8
0
100
AcDbBlockBegin
  2
*D7
 70
     1
 10
0.0
 20
0.0
 30
0.0
  3
*D7
  1

  0
LINE
  5
ED3
330
BCB
100
AcDbEntity
  8
SUNPOU
100
AcDbLine
 10
633.3864670313623
 20
509.4172078373937
 30
0.0
 11
677.9653019226762
 21
509.4172078373936
 31
0.0
  0
LINE
  5
ED4
330
BCB
100
AcDbEntity
  8
SUNPOU
100
AcDbLine
 10
633.3864670313623
 20
358.3148311373937
 30
0.0
 11
677.9653019226762
 21
358.3148311373936
 31
0.0
  0
LINE
  5
ED5
330
BCB
100
AcDbEntity
  8
SUNPOU
100
AcDbLine
 10
674.9653019226761
 20
503.4172078373936
 30
0.0
 11
674.9653019226761
 21
364.3148311373936
 31
0.0
  0
INSERT
  5
ED6
330
BCB
100
AcDbEntity
  8
SUNPOU
100
AcDbBlockReference
  2
_OPEN
 10
674.9653019226761
 20
509.4172078373936
 30
0.0
 41
6.0
 42
6.0
 43
6.0
 50
90.0
  0
INSERT
  5
ED7
330
BCB
100
AcDbEntity
  8
SUNPOU
100
AcDbBlockReference
  2
_OPEN
 10
674.9653019226761
 20
358.3148311373936
 30
0.0
 41
6.0
 42
6.0
 43
6.0
 50
270.0
  0
MTEXT
  5
ED8
330
BCB
100
AcDbEntity
  8
SUNPOU
100
AcDbMText
 10
669.9653019226761
 20
433.8660194873937
 30
0.0
 40
6.0
 41
0.0
 71
     5
 72
     1
  1
\A1;151
 11
0.0000000000000001
 21
1.0
 31
0.0
1001
ACAD
1000
MTEXTBEGIN
1070
    73
1070
     1
1070
    44
1040
1.0
1070
    74
1070
     0
1000
MTEXTEND
  0
POINT
  5
ED9
330
BCB
100
AcDbEntity
  8
DEFPOINTS
 62
     0
100
AcDbPoint
 10
627.3864670313623
 20
509.4172078373937
 30
0.0
  0
POINT
  5
EDA
330
BCB
100
AcDbEntity
  8
DEFPOINTS
 62
     0
100
AcDbPoint
 10
627.3864670313623
 20
358.3148311373937
 30
0.0
  0
POINT
  5
EDB
330
BCB
100
AcDbEntity
  8
DEFPOINTS
 62
     0
100
AcDbPoint
 10
674.9653019226761
 20
358.3148311373936
 30
0.0
  0
ENDBLK
  5
BD6
330
BCB
100
AcDbEntity
  8
0
100
AcDbBlockEnd
  0
BLOCK
  5
BE2
330
BD8
100
AcDbEntity
  8
0
100
AcDbBlockBegin
  2
*D8
 70
     1
 10
0.0
 20
0.0
 30
0.0
  3
*D8
  1

  0
LINE
  5
ECA
330
BD8
100
AcDbEntity
  8
SUNPOU
100
AcDbLine
 10
633.3864670313623
 20
509.4172078373937
 30
0.0
 11
696.0227908733441
 21
509.4172078373936
 31
0.0
  0
LINE
  5
ECB
330
BD8
100
AcDbEntity
  8
SUNPOU
100
AcDbLine
 10
576.8864670313623
 20
303.3148311373937
 30
0.0
 11
696.0227908733441
 21
303.3148311373937
 31
0.0
  0
LINE
  5
ECC
330
BD8
100
AcDbEntity
  8
SUNPOU
100
AcDbLine
 10
693.022790873344
 20
503.4172078373936
 30
0.0
 11
693.022790873344
 21
309.3148311373937
 31
0.0
  0
INSERT
  5
ECD
330
BD8
100
AcDbEntity
  8
SUNPOU
100
AcDbBlockReference
  2
_OPEN
 10
693.022790873344
 20
509.4172078373936
 30
0.0
 41
6.0
 42
6.0
 43
6.0
 50
90.0
  0
INSERT
  5
ECE
330
BD8
100
AcDbEntity
  8
SUNPOU
100
AcDbBlockReference
  2
_OPEN
 10
693.022790873344
 20
303.3148311373937
 30
0.0
 41
6.0
 42
6.0
 43
6.0
 50
270.0
  0
MTEXT
  5
ECF
330
BD8
100
AcDbEntity
  8
SUNPOU
100
AcDbMText
 10
688.022790873344
 20
406.3660194873937
 30
0.0
 40
6.0
 41
0.0
 71
     5
 72
     1
  1
\A1;206
 11
0.0000000000000001
 21
1.0
 31
0.0
1001
ACAD
1000
MTEXTBEGIN
1070
    73
1070
     1
1070
    44
1040
1.0
1070
    74
1070
     0
1000
MTEXTEND
  0
POINT
  5
ED0
330
BD8
100
AcDbEntity
  8
DEFPOINTS
 62
     0
100
AcDbPoint
 10
627.3864670313623
 20
509.4172078373937
 30
0.0
  0
POINT
  5
ED1
330
BD8
100
AcDbEntity
  8
DEFPOINTS
 62
     0
100
AcDbPoint
 10
570.8864670313623
 20
303.3148311373937
 30
0.0
  0
POINT
  5
ED2
330
BD8
100
AcDbEntity
  8
DEFPOINTS
 62
     0
100
AcDbPoint
 10
693.022790873344
 20
303.3148311373937
 30
0.0
  0
ENDBLK
  5
BE3
330
BD8
100
AcDbEntity
  8
0
100
AcDbBlockEnd
  0
ENDSEC
  0
SECTION
  2
ENTITIES
  0
LINE
  5
871
330
1A
100
AcDbEntity
  8
CENTER_L
 48
10.0
100
AcDbLine
 10
637.3864670313623
 20
430.3148311373936
 30
0.0
 11
493.3864670313623
 21
430.3148311373937
 31
0.0
  0
LINE
  5
873
330
1A
100
AcDbEntity
  8
SEIHIN
100
AcDbLine
 10
294.4478410246095
 20
173.0114744348519
 30
0.0
 11
294.4478410246095
 21
57.91270823485195
 31
0.0
  0
ARC
  5
874
330
1A
100
AcDbEntity
  8
SEIHIN
100
AcDbCircle
 10
341.6723640246093
 20
85.20281963485194
 30
0.0
 40
252.6999998518838
100
AcDbArc
 50
159.9843839042774
 51
176.9999986233262
  0
LINE
  5
875
330
1A
100
AcDbEntity
  8
SEIHIN
100
AcDbLine
 10
168.0747410246094
 20
80.90365525404502
 30
0.0
 11
259.4509620246094
 21
80.90365525404502
 31
0.0
  0
LINE
  5
876
330
1A
100
AcDbEntity
  8
SEIHIN
100
AcDbLine
 10
168.0747410246094
 20
56.41270823485195
 30
0.0
 11
259.4509620246094
 21
56.41270823485195
 31
0.0
  0
ARC
  5
877
330
1A
100
AcDbEntity
  8
SEIHIN
100
AcDbCircle
 10
349.3974820246094
 20
146.593179434852
 30
0.0
 40
252.6999996996064
100
AcDbArc
 50
195.0671327385136
 51
199.8292867442943
  0
ARC
  5
878
330
1A
100
AcDbEntity
  8
SEIHIN
100
AcDbCircle
 10
168.0747410246094
 20
1058.917538234852
 30
0.0
 40
1002.504829963661
100
AcDbArc
 50
267.0171395889072
 51
270.0
  0
ARC
  5
879
330
1A
100
AcDbEntity
  8
SEIHIN
100
AcDbCircle
 10
116.1020220246093
 20
62.46691533485199
 30
0.0
 40
4.699999835283906
100
AcDbArc
 50
199.8292878464716
 51
267.6240188734585
  0
LINE
  5
87A
330
1A
100
AcDbEntity
  8
SEIHIN
100
AcDbLine
 10
88.92715302460942
 20
80.90365525404502
 30
0.0
 11
168.0747410246094
 21
80.90365525404497
 31
0.0
  0
LINE
  5
87B
330
1A
100
AcDbEntity
  8
SEIHIN
100
AcDbLine
 10
88.42783802460941
 20
81.42982333485196
 30
0.0
 11
89.3186810246093
 21
98.428121834852
 31
0.0
  0
ARC
  5
87C
330
1A
100
AcDbEntity
  8
SEIHIN
100
AcDbCircle
 10
88.92715302460942
 20
81.40365533485198
 30
0.0
 40
0.5000000808069761
100
AcDbArc
 50
176.9999988914427
 51
279.8335233173074
  0
LINE
  5
87D
330
1A
100
AcDbEntity
  8
SEIHIN
100
AcDbLine
 10
269.4384860246093
 20
56.66224053485194
 30
0.0
 11
294.4478410246095
 21
57.91270823485195
 31
0.0
  0
ARC
  5
87E
330
1A
100
AcDbEntity
  8
SEIHIN
100
AcDbCircle
 10
259.4509620246094
 20
256.4127082348519
 30
0.0
 40
199.9999999775241
100
AcDbArc
 50
270.0
 51
272.8624054020737
  0
LINE
  5
87F
330
1A
100
AcDbEntity
  8
SEIHIN
100
AcDbLine
 10
269.4384860246091
 20
81.15318755404501
 30
0.0
 11
294.4478410246092
 21
82.40365525404502
 31
0.0
  0
ARC
  5
880
330
1A
100
AcDbEntity
  8
SEIHIN
100
AcDbCircle
 10
259.4509620246094
 20
280.903655254045
 30
0.0
 40
199.9999999775241
100
AcDbArc
 50
270.0
 51
272.8624054020737
  0
LINE
  5
881
330
1A
100
AcDbEntity
  8
SEIHIN
100
AcDbLine
 10
106.1148030246092
 20
173.0114744348519
 30
0.0
 11
294.4478410246095
 21
173.0114744348519
 31
0.0
  0
ARC
  5
882
330
1A
100
AcDbEntity
  8
SEIHIN
100
AcDbCircle
 10
106.1148030246092
 20
171.0114744348519
 30
0.0
 40
2.000000125857134
100
AcDbArc
 50
90.0
 51
159.9843862866952
  0
LINE
  5
886
330
1A
100
AcDbEntity
  8
SEIHIN
100
AcDbLine
 10
626.7595670313624
 20
173.0114744348519
 30
0.0
 11
626.7595670313624
 21
57.91270823485195
 31
0.0
  0
ARC
  5
887
330
1A
100
AcDbEntity
  8
SEIHIN
100
AcDbCircle
 10
673.984090031362
 20
85.20281963485194
 30
0.0
 40
249.9999993942926
100
AcDbArc
 50
160.379437336757
 51
180.1139751776103
  0
ARC
  5
888
330
1A
100
AcDbEntity
  8
SEIHIN
100
AcDbCircle
 10
673.984090031362
 20
85.20281963485194
 30
0.0
 40
252.6999998518838
100
AcDbArc
 50
159.9843839042774
 51
176.9999986233262
  0
ARC
  5
889
330
1A
100
AcDbEntity
  8
SEIHIN
100
AcDbCircle
 10
673.984090031362
 20
85.20281963485194
 30
0.0
 40
251.1999993140336
100
AcDbArc
 50
159.5397937685536
 51
176.9999980522887
  0
LINE
  5
88A
330
1A
100
AcDbEntity
  8
NOKITOI
  6
PHANTOM
 62
     8
 48
5.0
100
AcDbLine
 10
444.3766420313623
 20
161.9353618566398
 30
0.0
 11
444.7059438313622
 21
162.8121277566398
 31
0.0
  0
ARC
  5
88B
330
1A
100
AcDbEntity
  8
NOKITOI
  6
PHANTOM
 62
     8
 48
5.0
100
AcDbCircle
 10
673.9840903313624
 20
85.20281965663986
 30
0.0
 40
248.5999999477729
100
AcDbArc
 50
160.693532865176
 51
162.5216300574461
  0
ARC
  5
88C
330
1A
100
AcDbEntity
  8
NOKITOI
  6
PHANTOM
 62
     8
 48
5.0
100
AcDbCircle
 10
442.9415472313621
 20
153.2327083566398
 30
0.0
 40
9.000000014904554
100
AcDbArc
 50
90.0
 51
132.4946761440487
  0
LINE
  5
88D
330
1A
100
AcDbEntity
  8
NOKITOI
  6
PHANTOM
 62
     8
 48
5.0
100
AcDbLine
 10
446.6637480313624
 20
162.8510903566398
 30
0.0
 11
449.4386115313623
 21
162.2344540566398
 31
0.0
  0
ARC
  5
88E
330
1A
100
AcDbEntity
  8
NOKITOI
  6
PHANTOM
 62
     8
 48
5.0
100
AcDbCircle
 10
673.9840903313624
 20
85.20281965663986
 30
0.0
 40
249.9999999705148
100
AcDbArc
 50
160.4989464255673
 51
180.1139751545548
  0
ARC
  5
88F
330
1A
100
AcDbEntity
  8
SEIHIN
100
AcDbCircle
 10
491.2658682343381
 20
1087.407778710161
 30
0.0
 40
1002.504829963661
100
AcDbArc
 50
267.286036995764
 51
270.5212733258142
  0
ARC
  5
890
330
1A
100
AcDbEntity
  8
SEIHIN
100
AcDbCircle
 10
500.3864670313624
 20
1059.112708234851
 30
0.0
 40
995.5999999724674
100
AcDbArc
 50
267.1324209499427
 51
269.4245003721462
  0
ARC
  5
891
330
1A
100
AcDbEntity
  8
SEIHIN
100
AcDbCircle
 10
500.3864670313624
 20
1059.112708234851
 30
0.0
 40
998.5499999614887
100
AcDbArc
 50
267.1150469720181
 51
269.4262006182595
  0
ARC
  5
892
330
1A
100
AcDbEntity
  8
SEIHIN
100
AcDbCircle
 10
500.3864670313624
 20
1059.112708234851
 30
0.0
 40
996.7999999742326
100
AcDbArc
 50
267.1246946759142
 51
269.4246159716208
  0
ARC
  5
893
330
1A
100
AcDbEntity
  8
SEIHIN
100
AcDbCircle
 10
500.3864670313624
 20
1059.112708234851
 30
0.0
 40
1001.199999992029
100
AcDbArc
 50
267.0148646611642
 51
273.5168009309556
  0
ARC
  5
894
330
1A
100
AcDbEntity
  8
SEIHIN
100
AcDbCircle
 10
500.3864670313624
 20
1059.112708234851
 30
0.0
 40
999.999999916039
100
AcDbArc
 50
267.01486470422
 51
273.499194952403
  0
ARC
  5
895
330
1A
100
AcDbEntity
  8
SEIHIN
100
AcDbCircle
 10
500.3864670313624
 20
1058.917538234852
 30
0.0
 40
1002.504829963661
100
AcDbArc
 50
267.0171395889072
 51
273.5168009386498
  0
ARC
  5
896
330
1A
100
AcDbEntity
  8
SEIHIN
100
AcDbCircle
 10
500.3864670313624
 20
1059.112708234851
 30
0.0
 40
1001.199999992029
100
AcDbArc
 50
267.0148646611642
 51
273.5168009309556
  0
ARC
  5
897
330
1A
100
AcDbEntity
  8
NOKITOI
  6
PHANTOM
 62
     8
 48
5.0
100
AcDbCircle
 10
500.3864670313624
 20
1059.11270795664
 30
0.0
 40
999.9999996378269
100
AcDbArc
 50
267.0148646804385
 51
273.5168981553125
  0
ARC
  5
898
330
1A
100
AcDbEntity
  8
NOKITOI
  6
PHANTOM
 62
     8
 48
5.0
100
AcDbCircle
 10
500.3864670313624
 20
1059.11270795664
 30
0.0
 40
998.6999996255219
100
AcDbArc
 50
267.0172809116899
 51
273.5168981548099
  0
ARC
  5
899
330
1A
100
AcDbEntity
  8
SEIHIN
100
AcDbCircle
 10
681.7092080313623
 20
146.593179434852
 30
0.0
 40
248.449999664281
100
AcDbArc
 50
193.4792534473262
 51
199.4593500407783
  0
ARC
  5
89A
330
1A
100
AcDbEntity
  8
SEIHIN
100
AcDbCircle
 10
681.7092080313623
 20
146.593179434852
 30
0.0
 40
245.4999994470201
100
AcDbArc
 50
193.1015574862679
 51
199.3888320873139
  0
ARC
  5
89B
330
1A
100
AcDbEntity
  8
SEIHIN
100
AcDbCircle
 10
681.7092080313623
 20
146.593179434852
 30
0.0
 40
251.1999997165506
100
AcDbArc
 50
194.2191139152157
 51
199.8292867058246
  0
ARC
  5
89C
330
1A
100
AcDbEntity
  8
SEIHIN
100
AcDbCircle
 10
681.7092080313623
 20
146.593179434852
 30
0.0
 40
252.6999996996064
100
AcDbArc
 50
194.5335767768091
 51
199.8292867442943
  0
ARC
  5
89D
330
1A
100
AcDbEntity
  8
SEIHIN
100
AcDbCircle
 10
681.7092080313623
 20
146.593179434852
 30
0.0
 40
249.9999998601112
100
AcDbArc
 50
193.9649292710832
 51
199.8292867204497
  0
ARC
  5
89E
330
1A
100
AcDbEntity
  8
SEIHIN
100
AcDbCircle
 10
681.7092080313623
 20
146.593179434852
 30
0.0
 40
246.6999993704598
100
AcDbArc
 50
193.2560953518891
 51
199.4202038202803
  0
ARC
  5
89F
330
1A
100
AcDbEntity
  8
NOKITOI
  6
PHANTOM
 62
     8
 48
5.0
100
AcDbCircle
 10
681.7092084313621
 20
146.5931795566398
 30
0.0
 40
250.0000000041909
100
AcDbArc
 50
193.9649292600213
 51
199.8292867126767
  0
ARC
  5
8A0
330
1A
100
AcDbEntity
  8
NOKITOI
  6
PHANTOM
 62
     8
 48
5.0
100
AcDbCircle
 10
681.7092084313621
 20
146.5931795566398
 30
0.0
 40
248.6000000119225
100
AcDbArc
 50
193.4348295159759
 51
199.8543528104356
  0
ARC
  5
8A1
330
1A
100
AcDbEntity
  8
SEIHIN
100
AcDbCircle
 10
450.6037990313623
 20
65.25874713485194
 30
0.0
 40
0.4999996634878873
100
AcDbArc
 50
199.3888543237367
 51
267.1324096805346
  0
ARC
  5
8A2
330
1A
100
AcDbEntity
  8
SEIHIN
100
AcDbCircle
 10
450.2797830313623
 20
64.82445893485198
 30
0.0
 40
2.999999874178387
100
AcDbArc
 50
199.4593519175217
 51
267.115046303124
  0
ARC
  5
8A3
330
1A
100
AcDbEntity
  8
SEIHIN
100
AcDbCircle
 10
448.4137480313623
 20
62.46691533485199
 30
0.0
 40
1.999999948997646
100
AcDbArc
 50
199.8292863539404
 51
267.0148859028021
  0
ARC
  5
8A4
330
1A
100
AcDbEntity
  8
SEIHIN
100
AcDbCircle
 10
450.4597470313622
 20
65.06572113485197
 30
0.0
 40
1.499999894815759
100
AcDbArc
 50
199.4202039286778
 51
267.1246842101865
  0
ARC
  5
8A5
330
1A
100
AcDbEntity
  8
SEIHIN
100
AcDbCircle
 10
448.4137480313623
 20
62.46691533485199
 30
0.0
 40
4.699999835283906
100
AcDbArc
 50
199.8292878464716
 51
267.6240188734585
  0
ARC
  5
8A6
330
1A
100
AcDbEntity
  8
SEIHIN
100
AcDbCircle
 10
448.4137480313623
 20
62.46691533485199
 30
0.0
 40
3.199999959438536
100
AcDbArc
 50
199.8292853433407
 51
267.0148644833377
  0
ARC
  5
8A7
330
1A
100
AcDbEntity
  8
NOKITOI
  6
PHANTOM
 62
     8
 48
5.0
100
AcDbCircle
 10
448.4505747313623
 20
62.36486005663983
 30
0.0
 40
0.600000018220417
100
AcDbArc
 50
199.8543536299532
 51
267.017276800357
  0
ARC
  5
8A8
330
1A
100
AcDbEntity
  8
NOKITOI
  6
PHANTOM
 62
     8
 48
5.0
100
AcDbCircle
 10
448.4137483313625
 20
62.46691545663987
 30
0.0
 40
2.000000017156621
100
AcDbArc
 50
199.8292863539404
 51
267.0148660256781
  0
ARC
  5
8A9
330
1A
100
AcDbEntity
  8
NOKITOI
  6
PHANTOM
 62
     8
 48
5.0
100
AcDbCircle
 10
673.9840903313624
 20
85.20281965663986
 30
0.0
 40
248.5999999338434
100
AcDbArc
 50
168.6535361648581
 51
178.0328534586944
  0
LINE
  5
8AA
330
1A
100
AcDbEntity
  8
SEIHIN
100
AcDbLine
 10
429.0731710313623
 20
95.80388323485198
 30
0.0
 11
442.2739700313623
 21
91.30370093485197
 31
0.0
  0
LINE
  5
8AB
330
1A
100
AcDbEntity
  8
SEIHIN
100
AcDbLine
 10
427.8353220313622
 20
94.95805633485195
 30
0.0
 11
441.2572190313621
 21
90.38250123485198
 31
0.0
  0
LINE
  5
8AC
330
1A
100
AcDbEntity
  8
SEIHIN
100
AcDbLine
 10
422.3359080313623
 20
83.22888943485196
 30
0.0
 11
423.1283520313622
 21
98.34962033485197
 31
0.0
  0
LINE
  5
8AD
330
1A
100
AcDbEntity
  8
SEIHIN
100
AcDbLine
 10
420.7595640313622
 20
81.42982333485196
 30
0.0
 11
421.6504070313622
 21
98.428121834852
 31
0.0
  0
LINE
  5
8AE
330
1A
100
AcDbEntity
  8
SEIHIN
100
AcDbLine
 10
426.0358960313622
 20
93.72259123485196
 30
0.0
 11
439.7780230313621
 21
89.03786913485197
 31
0.0
  0
LINE
  5
8AF
330
1A
100
AcDbEntity
  8
NOKITOI
  6
PHANTOM
 62
     8
 48
5.0
100
AcDbLine
 10
425.5305968313623
 20
93.73637245663985
 30
0.0
 11
439.9121918313621
 21
88.83365415663986
 31
0.0
  0
LINE
  5
8B0
330
1A
100
AcDbEntity
  8
SEIHIN
100
AcDbLine
 10
438.5276870313624
 20
86.63318643485196
 30
0.0
 11
424.5699770313621
 21
84.21385003485198
 31
0.0
  0
LINE
  5
8B1
330
1A
100
AcDbEntity
  8
SEIHIN
100
AcDbLine
 10
436.5460260313623
 20
83.54597203485196
 30
0.0
 11
421.3442720313621
 21
80.91100133485197
 31
0.0
  0
LINE
  5
8B2
330
1A
100
AcDbEntity
  8
SEIHIN
100
AcDbLine
 10
437.6350320313622
 20
85.26056623485198
 30
0.0
 11
422.9206160313622
 21
82.71006743485196
 31
0.0
  0
LINE
  5
8B3
330
1A
100
AcDbEntity
  8
NOKITOI
  6
PHANTOM
 62
     8
 48
5.0
100
AcDbLine
 10
438.5276870313624
 20
86.63318645663986
 30
0.0
 11
424.5699773313622
 21
84.21385015663986
 31
0.0
  0
LINE
  5
8B4
330
1A
100
AcDbEntity
  8
NOKITOI
  6
PHANTOM
 62
     8
 48
5.0
100
AcDbLine
 10
438.6894254313624
 20
87.92985995663986
 30
0.0
 11
425.3844466313621
 21
85.62366365663985
 31
0.0
  0
LINE
  5
8B5
330
1A
100
AcDbEntity
  8
NOKITOI
  6
PHANTOM
 62
     8
 48
5.0
100
AcDbLine
 10
425.4891610313625
 20
92.42985995663985
 30
0.0
 11
438.6894254313624
 21
87.92985995663986
 31
0.0
  0
ARC
  5
8B6
330
1A
100
AcDbEntity
  8
SEIHIN
100
AcDbCircle
 10
424.4845840313623
 20
84.70650403485194
 30
0.0
 40
0.4999999586976016
100
AcDbArc
 50
180.1139728422216
 51
279.8335233173074
  0
ARC
  5
8B7
330
1A
100
AcDbEntity
  8
SEIHIN
100
AcDbCircle
 10
421.2588790313622
 20
81.40365533485198
 30
0.0
 40
0.5000000808069761
100
AcDbArc
 50
176.9999988914427
 51
279.8335233173074
  0
ARC
  5
8B8
330
1A
100
AcDbEntity
  8
SEIHIN
100
AcDbCircle
 10
422.8352230313623
 20
83.20272143485198
 30
0.0
 40
0.5000000808069761
100
AcDbArc
 50
176.9999988914427
 51
279.8335233173074
  0
ARC
  5
8B9
330
1A
100
AcDbEntity
  8
NOKITOI
  6
PHANTOM
 62
     8
 48
5.0
100
AcDbCircle
 10
424.4845840313623
 20
84.70650415663982
 30
0.0
 40
0.4999999843155076
100
AcDbArc
 50
180.1139728422216
 51
279.8335571897287
  0
ARC
  5
8BA
330
1A
100
AcDbEntity
  8
NOKITOI
  6
PHANTOM
 62
     8
 48
5.0
100
AcDbCircle
 10
673.9840903313624
 20
85.20281965663986
 30
0.0
 40
248.5999999565055
100
AcDbArc
 50
178.3341220668011
 51
179.9030064498866
  0
ARC
  5
8BB
330
1A
100
AcDbEntity
  8
SEIHIN
100
AcDbCircle
 10
442.1126360313621
 20
90.83044483485195
 30
0.0
 40
0.5000000461107379
100
AcDbArc
 50
13.1015559016292
 51
71.1756486461228
  0
ARC
  5
8BC
330
1A
100
AcDbEntity
  8
SEIHIN
100
AcDbCircle
 10
441.0958850313623
 20
89.90924523485199
 30
0.0
 40
0.4999997307971161
100
AcDbArc
 50
13.25609888328303
 51
71.17564494864367
  0
ARC
  5
8BD
330
1A
100
AcDbEntity
  8
SEIHIN
100
AcDbCircle
 10
437.7204250313623
 20
84.76791223485196
 30
0.0
 40
0.5000000958830637
100
AcDbArc
 50
14.21910744783084
 51
99.83352331733419
  0
ARC
  5
8BE
330
1A
100
AcDbEntity
  8
SEIHIN
100
AcDbCircle
 10
436.6114200313623
 20
83.05331803485193
 30
0.0
 40
0.4999998741717508
100
AcDbArc
 50
14.53359192475971
 51
99.83363622529301
  0
ARC
  5
8BF
330
1A
100
AcDbEntity
  8
SEIHIN
100
AcDbCircle
 10
438.6130800313622
 20
86.140532434852
 30
0.0
 40
0.5000000471060597
100
AcDbArc
 50
13.96491671035323
 51
99.8335233173074
  0
ARC
  5
8C0
330
1A
100
AcDbEntity
  8
SEIHIN
100
AcDbCircle
 10
439.6166890313622
 20
88.56461303485195
 30
0.0
 40
0.4999999006217931
100
AcDbArc
 50
13.47925539366344
 51
71.17564864614339
  0
ARC
  5
8C1
330
1A
100
AcDbEntity
  8
NOKITOI
  6
PHANTOM
 62
     8
 48
5.0
100
AcDbCircle
 10
438.6130804313625
 20
86.14053245663985
 30
0.0
 40
0.4999999962853926
100
AcDbArc
 50
13.96493336164558
 51
99.83356848052364
  0
ARC
  5
8C2
330
1A
100
AcDbEntity
  8
SEIHIN
100
AcDbCircle
 10
428.5510300313622
 20
108.1127082348519
 30
0.0
 40
1.000000176325099
100
AcDbArc
 50
354.6671957172973
 51
90.0
  0
LINE
  5
8C3
330
1A
100
AcDbEntity
  8
SEIHIN
100
AcDbLine
 10
427.5969160313622
 20
109.1127082348519
 30
0.0
 11
428.5510300313622
 21
109.1127082348519
 31
0.0
  0
ARC
  5
8C4
330
1A
100
AcDbEntity
  8
SEIHIN
100
AcDbCircle
 10
429.2345050313622
 20
96.277139334852
 30
0.0
 40
0.5000000219922934
100
AcDbArc
 50
177.4092795454562
 51
251.1756486461434
  0
ARC
  5
8C5
330
1A
100
AcDbEntity
  8
SEIHIN
100
AcDbCircle
 10
427.9966560313623
 20
95.43131243485197
 30
0.0
 40
0.4999998437163202
100
AcDbArc
 50
177.6189371574576
 51
251.1756486461227
  0
ARC
  5
8C6
330
1A
100
AcDbEntity
  8
SEIHIN
100
AcDbCircle
 10
673.984090031362
 20
85.20281963485194
 30
0.0
 40
245.4999996962687
100
AcDbArc
 50
174.6671924026451
 51
177.4092732898823
  0
ARC
  5
8C7
330
1A
100
AcDbEntity
  8
SEIHIN
100
AcDbCircle
 10
673.984090031362
 20
85.20281963485194
 30
0.0
 40
246.6999993995999
100
AcDbArc
 50
174.4382265093484
 51
177.6189350575279
  0
ARC
  5
8C8
330
1A
100
AcDbEntity
  8
SEIHIN
100
AcDbCircle
 10
426.1972300313622
 20
94.19584733485198
 30
0.0
 40
0.4999999856641945
100
AcDbArc
 50
177.9214604738622
 51
251.1756486461227
  0
ARC
  5
8C9
330
1A
100
AcDbEntity
  8
SEIHIN
100
AcDbCircle
 10
673.984090031362
 20
85.20281963485194
 30
0.0
 40
248.4499995899468
100
AcDbArc
 50
174.6877248841488
 51
177.9214536597832
  0
ARC
  5
8CA
330
1A
100
AcDbEntity
  8
SEIHIN
100
AcDbCircle
 10
427.5969160313622
 20
108.1127082348519
 30
0.0
 40
0.9999995585385724
100
AcDbArc
 50
90.0
 51
174.6877207883857
  0
ARC
  5
8CB
330
1A
100
AcDbEntity
  8
NOKITOI
  6
PHANTOM
 62
     8
 48
5.0
100
AcDbCircle
 10
455.1635858313625
 20
101.1413399566398
 30
0.0
 40
41.24999998166308
100
AcDbArc
 50
105.9368511361195
 51
123.9414132906361
  0
ARC
  5
8CC
330
1A
100
AcDbEntity
  8
NOKITOI
  6
PHANTOM
 62
     8
 48
5.0
100
AcDbCircle
 10
455.1635858313625
 20
101.1413399566398
 30
0.0
 40
39.99999996219694
100
AcDbArc
 50
106.002420838545
 51
124.4840118037391
  0
ARC
  5
8CD
330
1A
100
AcDbEntity
  8
NOKITOI
  6
PHANTOM
 62
     8
 48
5.0
100
AcDbCircle
 10
673.9840903313624
 20
85.20281965663986
 30
0.0
 40
248.5999999803393
100
AcDbArc
 50
164.664508224313
 51
168.3595484367821
  0
LINE
  5
8CE
330
1A
100
AcDbEntity
  8
NOKITOI
  6
PHANTOM
 62
     8
 48
5.0
100
AcDbLine
 10
432.5165360313621
 20
134.1127083566398
 30
0.0
 11
430.2428694313621
 21
134.1127083566398
 31
0.0
  0
LINE
  5
8CF
330
1A
100
AcDbEntity
  8
NOKITOI
  6
PHANTOM
 62
     8
 48
5.0
100
AcDbLine
 10
432.1318589313623
 20
135.3627083566398
 30
0.0
 11
430.4970361313621
 21
135.3627083566398
 31
0.0
  0
ARC
  5
8D0
330
1A
100
AcDbEntity
  8
NOKITOI
  6
PHANTOM
 62
     8
 48
5.0
100
AcDbCircle
 10
442.9415472313621
 20
153.2327083566398
 30
0.0
 40
8.999999994057947
100
AcDbArc
 50
194.6914618307782
 51
270.0
  0
ARC
  5
8D1
330
1A
100
AcDbEntity
  8
NOKITOI
  6
PHANTOM
 62
     8
 48
5.0
100
AcDbCircle
 10
449.3301462313625
 20
161.7463604566398
 30
0.0
 40
0.5000000731651486
100
AcDbArc
 50
340.8679422671446
 51
77.47118607624937
  0
LINE
  5
8D2
330
1A
100
AcDbEntity
  8
NOKITOI
  6
PHANTOM
 62
     8
 48
5.0
100
AcDbLine
 10
443.2587670313623
 20
160.9827083566398
 30
0.0
 11
442.9415472313621
 21
160.9827083566398
 31
0.0
  0
LINE
  5
8D3
330
1A
100
AcDbEntity
  8
NOKITOI
  6
PHANTOM
 62
     8
 48
5.0
100
AcDbLine
 10
442.9304203313622
 20
156.1535798566398
 30
0.0
 11
444.1985605313621
 21
159.6409652566399
 31
0.0
  0
ARC
  5
8D4
330
1A
100
AcDbEntity
  8
NOKITOI
  6
PHANTOM
 62
     8
 48
5.0
100
AcDbCircle
 10
443.4003170313622
 20
155.9827083566398
 30
0.0
 40
0.4999999890915889
100
AcDbArc
 50
160.0168964151692
 51
270.0
  0
LINE
  5
8D5
330
1A
100
AcDbEntity
  8
NOKITOI
  6
PHANTOM
 62
     8
 48
5.0
100
AcDbLine
 10
447.3306892313622
 20
155.4827083566398
 30
0.0
 11
443.4003170313622
 21
155.4827083566398
 31
0.0
  0
ARC
  5
8D6
330
1A
100
AcDbEntity
  8
NOKITOI
  6
PHANTOM
 62
     8
 48
5.0
100
AcDbCircle
 10
446.8806785313622
 20
163.8272774566398
 30
0.0
 40
2.400000037449118
100
AcDbArc
 50
239.1189120830824
 51
257.4711925497887
  0
LINE
  5
8D7
330
1A
100
AcDbEntity
  8
NOKITOI
  6
PHANTOM
 62
     8
 48
5.0
100
AcDbLine
 10
446.3600454313623
 20
161.4844284566398
 30
0.0
 11
448.2961747313624
 21
161.0541774566398
 31
0.0
  0
LINE
  5
8D8
330
1A
100
AcDbEntity
  8
NOKITOI
  6
PHANTOM
 62
     8
 48
5.0
100
AcDbLine
 10
445.318563531362
 20
160.8881025566398
 30
0.0
 11
445.6488593313625
 21
161.7675149566398
 31
0.0
  0
LINE
  5
8D9
330
1A
100
AcDbEntity
  8
NOKITOI
  6
PHANTOM
 62
     8
 48
5.0
100
AcDbLine
 10
443.2587670313623
 20
162.2327083566398
 30
0.0
 11
442.9415472313621
 21
162.2327083566398
 31
0.0
  0
ARC
  5
8DA
330
1A
100
AcDbEntity
  8
NOKITOI
  6
PHANTOM
 62
     8
 48
5.0
100
AcDbCircle
 10
447.3306892313622
 20
155.9827083566398
 30
0.0
 40
0.5000000477199775
100
AcDbArc
 50
270.0
 51
340.8679314409346
  0
LINE
  5
8DB
330
1A
100
AcDbEntity
  8
NOKITOI
  6
PHANTOM
 62
     8
 48
5.0
100
AcDbLine
 10
446.7970226313623
 20
156.7327083566398
 30
0.0
 11
444.4710920313623
 21
156.7327083566398
 31
0.0
  0
LINE
  5
8DC
330
1A
100
AcDbEntity
  8
NOKITOI
  6
PHANTOM
 62
     8
 48
5.0
100
AcDbLine
 10
448.2961747313624
 20
161.0541774566398
 30
0.0
 11
446.7970226313623
 21
156.7327083566398
 31
0.0
  0
ARC
  5
8DD
330
1A
100
AcDbEntity
  8
NOKITOI
  6
PHANTOM
 62
     8
 48
5.0
100
AcDbCircle
 10
443.2587670313623
 20
159.9827083566398
 30
0.0
 40
2.250000022965255
100
AcDbArc
 50
60.20928543598786
 51
90.0
  0
ARC
  5
8DE
330
1A
100
AcDbEntity
  8
NOKITOI
  6
PHANTOM
 62
     8
 48
5.0
100
AcDbCircle
 10
443.2587670313623
 20
159.9827083566398
 30
0.0
 40
2.250000031016088
100
AcDbArc
 50
340.0168932605392
 51
23.72813802459567
  0
ARC
  5
8DF
330
1A
100
AcDbEntity
  8
NOKITOI
  6
PHANTOM
 62
     8
 48
5.0
100
AcDbCircle
 10
443.2587670313623
 20
159.9827083566398
 30
0.0
 40
1.000000042259952
100
AcDbArc
 50
340.0168929885931
 51
90.0
  0
LINE
  5
8E0
330
1A
100
AcDbEntity
  8
NOKITOI
  6
PHANTOM
 62
     8
 48
5.0
100
AcDbLine
 10
444.4710920313623
 20
156.7327083566398
 30
0.0
 11
445.3733022313622
 21
159.2137864566398
 31
0.0
  0
LINE
  5
8E1
330
1A
100
AcDbEntity
  8
NOKITOI
  6
PHANTOM
 62
     8
 48
5.0
100
AcDbLine
 10
449.8025291313624
 20
161.5824871566398
 30
0.0
 11
447.8030721313621
 21
155.8188349566398
 31
0.0
  0
LINE
  5
8E2
330
1A
100
AcDbEntity
  8
NOKITOI
  6
PHANTOM
 62
     8
 48
5.0
100
AcDbLine
 10
442.9415472313621
 20
145.4827083566398
 30
0.0
 11
443.3364670313621
 21
145.4827083566398
 31
0.0
  0
ARC
  5
8E3
330
1A
100
AcDbEntity
  8
NOKITOI
  6
PHANTOM
 62
     8
 48
5.0
100
AcDbCircle
 10
443.3364670313621
 20
142.4827083566398
 30
0.0
 40
1.749999987870436
100
AcDbArc
 50
285.4660113055335
 51
90.0
  0
LINE
  5
8E4
330
1A
100
AcDbEntity
  8
NOKITOI
  6
PHANTOM
 62
     8
 48
5.0
100
AcDbLine
 10
442.9415472313621
 20
144.2327083566398
 30
0.0
 11
443.3364670313621
 21
144.2327083566398
 31
0.0
  0
ARC
  5
8E5
330
1A
100
AcDbEntity
  8
NOKITOI
  6
PHANTOM
 62
     8
 48
5.0
100
AcDbCircle
 10
443.3364670313621
 20
142.4827083566398
 30
0.0
 40
3.000000019776849
100
AcDbArc
 50
285.4660097444062
 51
90.0
  0
ARC
  5
8E6
330
1A
100
AcDbEntity
  8
NOKITOI
  6
PHANTOM
 62
     8
 48
5.0
100
AcDbCircle
 10
442.9415472313621
 20
153.2327083566398
 30
0.0
 40
7.75
100
AcDbArc
 50
90.0
 51
270.0
  0
LINE
  5
8E8
330
1A
100
AcDbEntity
  8
SEIHIN
100
AcDbLine
 10
562.1462630313621
 20
68.36645203485199
 30
0.0
 11
564.1971360313623
 21
108.114036734852
 31
0.0
  0
LINE
  5
8E9
330
1A
100
AcDbEntity
  8
SEIHIN
100
AcDbLine
 10
563.3354440313621
 20
68.12583523485199
 30
0.0
 11
565.4470710313622
 21
109.0508736348519
 31
0.0
  0
LINE
  5
8EA
330
1A
100
AcDbEntity
  8
SEIHIN
100
AcDbLine
 10
569.4172670313624
 20
124.3569441348519
 30
0.0
 11
566.4144360313623
 21
65.73067423485196
 31
0.0
  0
LINE
  5
8EB
330
1A
100
AcDbEntity
  8
SEIHIN
100
AcDbLine
 10
565.0808130313623
 20
67.99096923485194
 30
0.0
 11
567.1432170313621
 21
107.9620265348519
 31
0.0
  0
LINE
  5
8EC
330
1A
100
AcDbEntity
  8
SEIHIN
100
AcDbLine
 10
572.2591010313622
 20
127.0569441348519
 30
0.0
 11
569.1109020313622
 21
65.59256153485193
 31
0.0
  0
LINE
  5
8ED
330
1A
100
AcDbEntity
  8
SEIHIN
100
AcDbLine
 10
570.7571340313623
 20
127.0569441348519
 30
0.0
 11
567.6128650313621
 21
65.66929083485195
 31
0.0
  0
LINE
  5
8EE
330
1A
100
AcDbEntity
  8
NOKITOI
  6
PHANTOM
 62
     8
 48
5.0
100
AcDbLine
 10
565.1177521313625
 20
65.79588515663982
 30
0.0
 11
567.627305031362
 21
114.4330502566398
 31
0.0
  0
LINE
  5
8EF
330
1A
100
AcDbEntity
  8
NOKITOI
  6
PHANTOM
 62
     8
 48
5.0
100
AcDbLine
 10
569.4151861313621
 20
123.8550639566398
 30
0.0
 11
566.4160251313623
 21
65.72889755663982
 31
0.0
  0
ARC
  5
8F0
330
1A
100
AcDbEntity
  8
SEIHIN
100
AcDbCircle
 10
500.3864670313624
 20
1059.112708234851
 30
0.0
 40
995.5999999311547
100
AcDbArc
 50
270.5754996278538
 51
273.3777001026924
  0
ARC
  5
8F1
330
1A
100
AcDbEntity
  8
SEIHIN
100
AcDbCircle
 10
500.3864670313624
 20
1059.112708234851
 30
0.0
 40
996.7999999669297
100
AcDbArc
 50
270.5753840283791
 51
273.3880357545678
  0
ARC
  5
8F2
330
1A
100
AcDbEntity
  8
SEIHIN
100
AcDbCircle
 10
500.3864670313624
 20
1059.112708234851
 30
0.0
 40
998.5499999855743
100
AcDbArc
 50
270.5737993817405
 51
273.3906190352798
  0
LINE
  5
8F3
330
1A
100
AcDbEntity
  8
SEIHIN
100
AcDbLine
 10
500.3864670313624
 20
56.41270823485195
 30
0.0
 11
591.7626880313624
 21
56.41270823485195
 31
0.0
  0
LINE
  5
8F4
330
1A
100
AcDbEntity
  8
CENTER_L
 48
10.0
100
AcDbLine
 10
500.3864670313624
 20
49.41270823485201
 30
0.0
 11
500.3864670313621
 21
69.1127083188129
 31
0.0
  0
LINE
  5
8F5
330
1A
100
AcDbEntity
  8
SEIHIN
100
AcDbLine
 10
487.8864670313624
 20
63.59118163485198
 30
0.0
 11
487.8864670313624
 21
60.64094973485197
 31
0.0
  0
ARC
  5
8F6
330
1A
100
AcDbEntity
  8
SEIHIN
100
AcDbCircle
 10
491.3864670313623
 20
60.15324963485198
 30
0.0
 40
0.9999999909323518
100
AcDbArc
 50
180.0
 51
269.4838153304025
  0
LINE
  5
8F7
330
1A
100
AcDbEntity
  8
SEIHIN
100
AcDbLine
 10
490.3864670313623
 20
63.56293053485194
 30
0.0
 11
490.3864670313623
 21
60.15324963485198
 31
0.0
  0
LINE
  5
8F8
330
1A
100
AcDbEntity
  8
SEIHIN
100
AcDbLine
 10
512.8864670313624
 20
63.59118163485198
 30
0.0
 11
512.8864670313624
 21
60.64094973485197
 31
0.0
  0
LINE
  5
8F9
330
1A
100
AcDbEntity
  8
SEIHIN
100
AcDbLine
 10
510.3864670313623
 20
63.56293053485194
 30
0.0
 11
510.3864670313623
 21
60.15324963485198
 31
0.0
  0
ARC
  5
8FA
330
1A
100
AcDbEntity
  8
SEIHIN
100
AcDbCircle
 10
509.3864670313624
 20
60.15324963485198
 30
0.0
 40
0.9999999909323509
100
AcDbArc
 50
270.5161846695844
 51
0.0
  0
ARC
  5
8FB
330
1A
100
AcDbEntity
  8
SEIHIN
100
AcDbCircle
 10
561.4209820313622
 20
65.98643833485198
 30
0.0
 40
6.19999991933876
100
AcDbArc
 50
273.5168048624924
 51
357.0678794126682
  0
ARC
  5
8FC
330
1A
100
AcDbEntity
  8
SEIHIN
100
AcDbCircle
 10
561.4209820313622
 20
65.98643833485198
 30
0.0
 40
7.700000257086465
100
AcDbArc
 50
273.5168053792002
 51
357.0678792220633
  0
ARC
  5
8FD
330
1A
100
AcDbEntity
  8
SEIHIN
100
AcDbCircle
 10
561.4209820313622
 20
65.98643833485198
 30
0.0
 40
4.999999867634601
100
AcDbArc
 50
273.5167997492874
 51
357.0678795414252
  0
ARC
  5
8FE
330
1A
100
AcDbEntity
  8
SEIHIN
100
AcDbCircle
 10
559.0887840313623
 20
68.30014253485194
 30
0.0
 40
6.00000002396855
100
AcDbArc
 50
273.3906228809575
 51
357.0463043420754
  0
ARC
  5
8FF
330
1A
100
AcDbEntity
  8
SEIHIN
100
AcDbCircle
 10
558.8506470313623
 20
68.53649733485196
 30
0.0
 40
3.299999992681633
100
AcDbArc
 50
273.377701946245
 51
357.0463046468987
  0
ARC
  5
900
330
1A
100
AcDbEntity
  8
SEIHIN
100
AcDbCircle
 10
559.0411570313622
 20
68.34740943485195
 30
0.0
 40
4.299999754148723
100
AcDbArc
 50
273.3880347745314
 51
357.046304010928
  0
ARC
  5
901
330
1A
100
AcDbEntity
  8
NOKITOI
  6
PHANTOM
 62
     8
 48
5.0
100
AcDbCircle
 10
561.4226676313624
 20
65.98654205663985
 30
0.0
 40
3.699999980057802
100
AcDbArc
 50
273.5168983431847
 51
357.0463038124599
  0
ARC
  5
902
330
1A
100
AcDbEntity
  8
NOKITOI
  6
PHANTOM
 62
     8
 48
5.0
100
AcDbCircle
 10
561.4226676313624
 20
65.98654205663985
 30
0.0
 40
5.000000016093119
100
AcDbArc
 50
273.5168983936117
 51
357.0463033884163
  0
LINE
  5
903
330
1A
100
AcDbEntity
  8
SEIHIN
100
AcDbLine
 10
601.7502120313622
 20
56.66224053485194
 30
0.0
 11
626.7595670313624
 21
57.91270823485195
 31
0.0
  0
ARC
  5
904
330
1A
100
AcDbEntity
  8
SEIHIN
100
AcDbCircle
 10
591.7626880313624
 20
256.4127082348519
 30
0.0
 40
199.9999999775241
100
AcDbArc
 50
270.0
 51
272.8624054020737
  0
LINE
  5
905
330
1A
100
AcDbEntity
  8
SEIHIN
100
AcDbLine
 10
491.2658682343381
 20
84.90294871016169
 30
0.0
 11
562.9995036698046
 21
84.90294871016175
 31
0.0
  0
LINE
  5
906
330
1A
100
AcDbEntity
  8
NOKITOI
  6
PHANTOM
 62
     8
 48
5.0
100
AcDbLine
 10
559.1366429313625
 20
115.4892595566398
 30
0.0
 11
567.7249480313621
 21
116.3254504566398
 31
0.0
  0
LINE
  5
907
330
1A
100
AcDbEntity
  8
NOKITOI
  6
PHANTOM
 62
     8
 48
5.0
100
AcDbLine
 10
561.6794016313624
 20
124.8127083566398
 30
0.0
 11
559.1366429313625
 21
115.4892595566398
 31
0.0
  0
LINE
  5
908
330
1A
100
AcDbEntity
  8
NOKITOI
  6
PHANTOM
 62
     8
 48
5.0
100
AcDbLine
 10
557.5772297313624
 20
114.7121713566398
 30
0.0
 11
560.6864670313621
 21
126.1127083566398
 31
0.0
  0
LINE
  5
909
330
1A
100
AcDbEntity
  8
SEIHIN
100
AcDbLine
 10
565.4470710313622
 20
109.0508736348519
 30
0.0
 11
568.633291808924
 21
109.0508736348519
 31
0.0
  0
ARC
  5
90A
330
1A
100
AcDbEntity
  8
SEIHIN
100
AcDbCircle
 10
565.1958080313622
 20
108.0625078348519
 30
0.0
 40
1.000000248468028
100
AcDbArc
 50
87.0462976664452
 51
177.0463048646046
  0
LINE
  5
90B
330
1A
100
AcDbEntity
  8
SEIHIN
100
AcDbLine
 10
565.2473370313623
 20
109.0611793348519
 30
0.0
 11
566.1960750313621
 21
109.0122269348519
 31
0.0
  0
ARC
  5
90C
330
1A
100
AcDbEntity
  8
SEIHIN
100
AcDbCircle
 10
566.1445460313623
 20
108.0135554348519
 30
0.0
 40
0.9999997491322133
100
AcDbArc
 50
357.0463019122215
 51
87.04629766645821
  0
ARC
  5
90D
330
1A
100
AcDbEntity
  8
NOKITOI
  6
PHANTOM
 62
     8
 48
5.0
100
AcDbCircle
 10
567.1279693313622
 20
114.4588146566398
 30
0.0
 40
0.499999983335224
100
AcDbArc
 50
357.0463088151364
 51
95.56102006279926
  0
ARC
  5
90E
330
1A
100
AcDbEntity
  8
NOKITOI
  6
PHANTOM
 62
     8
 48
5.0
100
AcDbCircle
 10
558.0596116313622
 20
114.5806126566398
 30
0.0
 40
0.500000000185662
100
AcDbArc
 50
164.7448812969387
 51
275.5610086575769
  0
LINE
  5
90F
330
1A
100
AcDbEntity
  8
NOKITOI
  6
PHANTOM
 62
     8
 48
5.0
100
AcDbLine
 10
558.1080644313624
 20
114.0829658566398
 30
0.0
 11
567.0795164313622
 21
114.9564614566398
 31
0.0
  0
LINE
  5
910
330
1A
100
AcDbEntity
  8
SEIHIN
100
AcDbLine
 10
586.7595670313623
 20
132.3127082348519
 30
0.0
 11
626.7595670313624
 21
132.3127082348519
 31
0.0
  0
ARC
  5
911
330
1A
100
AcDbEntity
  8
SEIHIN
100
AcDbCircle
 10
567.2656460313621
 20
127.3127082348519
 30
0.0
 40
5.000000405593676
100
AcDbArc
 50
357.0678801275921
 51
90.0
  0
ARC
  5
912
330
1A
100
AcDbEntity
  8
SEIHIN
100
AcDbCircle
 10
565.7636800313623
 20
127.3127082348519
 30
0.0
 40
4.999999906248202
100
AcDbArc
 50
357.0678795414252
 51
90.0
  0
ARC
  5
913
330
1A
100
AcDbEntity
  8
SEIHIN
100
AcDbCircle
 10
564.4238130313622
 20
124.6127082348519
 30
0.0
 40
4.999999906248318
100
AcDbArc
 50
357.0678795414252
 51
90.0
  0
ARC
  5
914
330
1A
100
AcDbEntity
  8
SEIHIN
100
AcDbCircle
 10
564.4750330313622
 20
125.6127082348519
 30
0.0
 40
4.999999906248205
100
AcDbArc
 50
357.0678795414252
 51
90.0
  0
ARC
  5
915
330
1A
100
AcDbEntity
  8
NOKITOI
  6
PHANTOM
 62
     8
 48
5.0
100
AcDbCircle
 10
564.4218286313621
 20
124.1127083566398
 30
0.0
 40
4.999999987982882
100
AcDbArc
 50
357.0463045328079
 51
90.0
  0
ARC
  5
916
330
1A
100
AcDbEntity
  8
NOKITOI
  6
PHANTOM
 62
     8
 48
5.0
100
AcDbCircle
 10
564.4218286313621
 20
124.1127083566398
 30
0.0
 40
3.699999967274178
100
AcDbArc
 50
357.0463038124599
 51
90.0
  0
LINE
  5
917
330
1A
100
AcDbEntity
  8
SEIHIN
100
AcDbLine
 10
562.1864670313623
 20
129.612708234852
 30
0.0
 11
564.4238130313622
 21
129.612708234852
 31
0.0
  0
LINE
  5
918
330
1A
100
AcDbEntity
  8
SEIHIN
100
AcDbLine
 10
561.1864670313623
 20
127.3214204348519
 30
0.0
 11
561.1864670313623
 21
130.612708234852
 31
0.0
  0
LINE
  5
919
330
1A
100
AcDbEntity
  8
SEIHIN
100
AcDbLine
 10
561.1864670313623
 20
130.612708234852
 30
0.0
 11
562.1864670313623
 21
129.612708234852
 31
0.0
  0
LINE
  5
91A
330
1A
100
AcDbEntity
  8
SEIHIN
100
AcDbLine
 10
561.1864670313623
 20
130.612708234852
 30
0.0
 11
564.4750330313622
 21
130.612708234852
 31
0.0
  0
LINE
  5
91B
330
1A
100
AcDbEntity
  8
SEIHIN
100
AcDbLine
 10
562.1864670313623
 20
127.1127082348519
 30
0.0
 11
562.1864670313623
 21
129.612708234852
 31
0.0
  0
LINE
  5
91C
330
1A
100
AcDbEntity
  8
SEIHIN
100
AcDbLine
 10
562.1864670313623
 20
132.3127082348519
 30
0.0
 11
567.2656460313621
 21
132.3127082348519
 31
0.0
  0
ARC
  5
91D
330
1A
100
AcDbEntity
  8
SEIHIN
100
AcDbCircle
 10
562.1864670313623
 20
129.712708234852
 30
0.0
 40
2.599999999999965
100
AcDbArc
 50
90.0
 51
270.0
  0
LINE
  5
91E
330
1A
100
AcDbEntity
  8
NOKITOI
  6
PHANTOM
 62
     8
 48
5.0
100
AcDbLine
 10
563.9864670313622
 20
127.8127083566398
 30
0.0
 11
563.9864670313622
 21
124.8127083566398
 31
0.0
  0
LINE
  5
91F
330
1A
100
AcDbEntity
  8
NOKITOI
  6
PHANTOM
 62
     8
 48
5.0
100
AcDbLine
 10
564.4218286313621
 20
127.8127083566398
 30
0.0
 11
563.9864670313622
 21
127.8127083566398
 31
0.0
  0
LINE
  5
920
330
1A
100
AcDbEntity
  8
NOKITOI
  6
PHANTOM
 62
     8
 48
5.0
100
AcDbLine
 10
560.6864670313621
 20
126.1127083566398
 30
0.0
 11
562.686467031362
 21
126.1127083566398
 31
0.0
  0
LINE
  5
921
330
1A
100
AcDbEntity
  8
NOKITOI
  6
PHANTOM
 62
     8
 48
5.0
100
AcDbLine
 10
562.686467031362
 20
126.1127083566398
 30
0.0
 11
562.686467031362
 21
129.1127083566398
 31
0.0
  0
LINE
  5
922
330
1A
100
AcDbEntity
  8
NOKITOI
  6
PHANTOM
 62
     8
 48
5.0
100
AcDbLine
 10
562.686467031362
 20
129.1127083566398
 30
0.0
 11
564.4218286313621
 21
129.1127083566398
 31
0.0
  0
LINE
  5
923
330
1A
100
AcDbEntity
  8
NOKITOI
  6
PHANTOM
 62
     8
 48
5.0
100
AcDbLine
 10
563.9864670313622
 20
124.8127083566398
 30
0.0
 11
561.6794016313624
 21
124.8127083566398
 31
0.0
  0
LINE
  5
924
330
1A
100
AcDbEntity
  8
NOKITOI
  6
PHANTOM
 62
     8
 48
5.0
100
AcDbLine
 10
567.7249480313621
 20
116.3254504566398
 30
0.0
 11
568.1169131313622
 21
123.9220514566397
 31
0.0
  0
ARC
  5
925
330
1A
100
AcDbEntity
  8
SEIHIN
100
AcDbCircle
 10
582.7595670313623
 20
127.1127082348519
 30
0.0
 40
4.000000000000062
100
AcDbArc
 50
270.0000143239432
 51
0.0
  0
LINE
  5
926
330
1A
100
AcDbEntity
  8
SEIHIN
100
AcDbLine
 10
586.7595670313623
 20
132.3127082348519
 30
0.0
 11
586.7595670313623
 21
127.1127082348519
 31
0.0
  0
LINE
  5
927
330
1A
100
AcDbEntity
  8
SEIHIN
100
AcDbLine
 10
569.4684870313621
 20
125.3569441348519
 30
0.0
 11
569.4172670313624
 21
124.3569441348519
 31
0.0
  0
LINE
  5
928
330
1A
100
AcDbEntity
  8
SEIHIN
100
AcDbLine
 10
572.0570776970198
 20
123.1127082348519
 30
0.0
 11
582.7595680313622
 21
123.1127082348519
 31
0.0
  0
LINE
  5
929
330
1A
100
AcDbEntity
  8
SEIHIN
100
AcDbLine
 10
438.4265290313622
 20
173.0114744348519
 30
0.0
 11
626.7595670313624
 21
173.0114744348519
 31
0.0
  0
ARC
  5
92A
330
1A
100
AcDbEntity
  8
SEIHIN
100
AcDbCircle
 10
440.4122210313621
 20
172.401165534852
 30
0.0
 40
0.5000000210592264
100
AcDbArc
 50
180.0
 51
251.4024988913577
  0
LINE
  5
92B
330
1A
100
AcDbEntity
  8
SEIHIN
100
AcDbLine
 10
439.9122210313621
 20
172.5114744348519
 30
0.0
 11
439.9122210313621
 21
172.401165534852
 31
0.0
  0
ARC
  5
92C
330
1A
100
AcDbEntity
  8
SEIHIN
100
AcDbCircle
 10
439.4122210313621
 20
172.5114744348519
 30
0.0
 40
0.5
100
AcDbArc
 50
0.0
 51
90.0
  0
ARC
  5
92D
330
1A
100
AcDbEntity
  8
SEIHIN
100
AcDbCircle
 10
438.9708080313623
 20
168.9823344348519
 30
0.0
 40
0.4999997815046714
100
AcDbArc
 50
71.4024988913577
 51
160.379420169826
  0
ARC
  5
92E
330
1A
100
AcDbEntity
  8
SEIHIN
100
AcDbCircle
 10
439.3085520313623
 20
169.9237821348519
 30
0.0
 40
0.5000000231037309
100
AcDbArc
 50
71.40260749928566
 51
160.1497614494602
  0
ARC
  5
92F
330
1A
100
AcDbEntity
  8
SEIHIN
100
AcDbCircle
 10
673.984090031362
 20
85.20281963485194
 30
0.0
 40
249.999999359875
100
AcDbArc
 50
160.149749513109
 51
160.379437336757
  0
ARC
  5
930
330
1A
100
AcDbEntity
  8
SEIHIN
100
AcDbCircle
 10
438.4265290313622
 20
171.0114744348519
 30
0.0
 40
2.000000125857134
100
AcDbArc
 50
90.0
 51
159.9843862866952
  0
LINE
  5
931
330
1A
100
AcDbEntity
  8
SEIHIN
100
AcDbLine
 10
440.2527620313621
 20
171.9272743348519
 30
0.0
 11
449.3514760313622
 21
168.865665934852
 31
0.0
  0
LINE
  5
932
330
1A
100
AcDbEntity
  8
SEIHIN
100
AcDbLine
 10
439.1302670313623
 20
169.4562256348519
 30
0.0
 11
446.9467970313622
 21
166.8260567348519
 31
0.0
  0
LINE
  5
933
330
1A
100
AcDbEntity
  8
SEIHIN
100
AcDbLine
 10
439.4680100313621
 20
170.397673334852
 30
0.0
 11
447.2657150313623
 21
167.7738392348519
 31
0.0
  0
LINE
  5
934
330
1A
100
AcDbEntity
  8
SEIHIN
100
AcDbLine
 10
447.2469110313623
 20
166.1552058348519
 30
0.0
 11
446.2786000313622
 21
163.895814434852
 31
0.0
  0
LINE
  5
935
330
1A
100
AcDbEntity
  8
SEIHIN
100
AcDbLine
 10
448.1660560313623
 20
165.7612865348519
 30
0.0
 11
447.1150500313622
 21
163.3089380348519
 31
0.0
  0
ARC
  5
936
330
1A
100
AcDbEntity
  8
SEIHIN
100
AcDbCircle
 10
446.7873380313622
 20
166.3521654348519
 30
0.0
 40
0.5000002816288605
100
AcDbArc
 50
336.8014365702273
 51
71.40250254588855
  0
ARC
  5
937
330
1A
100
AcDbEntity
  8
SEIHIN
100
AcDbCircle
 10
446.7873380313622
 20
166.3521654348519
 30
0.0
 40
1.500000357620833
100
AcDbArc
 50
336.8014180127635
 51
71.40250132770439
  0
ARC
  5
938
330
1A
100
AcDbEntity
  8
SEIHIN
100
AcDbCircle
 10
448.3947250313621
 20
166.0223181348519
 30
0.0
 40
3.000000182458691
100
AcDbArc
 50
225.1401618106798
 51
71.40255684981295
  0
ARC
  5
939
330
1A
100
AcDbEntity
  8
NOKITOI
  6
PHANTOM
 62
     8
 48
5.0
100
AcDbCircle
 10
446.3050182313622
 20
166.2919566566398
 30
0.0
 40
0.5000000583204929
100
AcDbArc
 50
336.8014185143152
 51
73.61045707925139
  0
LINE
  5
93A
330
1A
100
AcDbEntity
  8
NOKITOI
  6
PHANTOM
 62
     8
 48
5.0
100
AcDbLine
 10
445.0784104313624
 20
165.7146036566398
 30
0.0
 11
444.6747304313621
 21
164.7726837566398
 31
0.0
  0
ARC
  5
93B
330
1A
100
AcDbEntity
  8
NOKITOI
  6
PHANTOM
 62
     8
 48
5.0
100
AcDbCircle
 10
446.8806785313622
 20
163.8272774566398
 30
0.0
 40
2.400000002163273
100
AcDbArc
 50
156.8014101132953
 51
205.022810392529
  0
ARC
  5
93C
330
1A
100
AcDbEntity
  8
NOKITOI
  6
PHANTOM
 62
     8
 48
5.0
100
AcDbCircle
 10
446.8806785313622
 20
163.8272774566398
 30
0.0
 40
1.000000010493544
100
AcDbArc
 50
156.8014087340216
 51
257.4711904264713
  0
LINE
  5
93D
330
1A
100
AcDbEntity
  8
NOKITOI
  6
PHANTOM
 62
     8
 48
5.0
100
AcDbLine
 10
446.7645908313625
 20
166.0949970566398
 30
0.0
 11
445.9615335313624
 21
164.2211967566398
 31
0.0
  0
ARC
  5
93E
330
1A
100
AcDbEntity
  8
NOKITOI
  6
PHANTOM
 62
     8
 48
5.0
100
AcDbCircle
 10
438.7992539313622
 20
168.4995344566398
 30
0.0
 40
0.4999999707007273
100
AcDbArc
 50
73.61046483938352
 51
160.4970984965309
  0
LINE
  5
93F
330
1A
100
AcDbEntity
  8
NOKITOI
  6
PHANTOM
 62
     8
 48
5.0
100
AcDbLine
 10
438.9403370313621
 20
168.9792171566398
 30
0.0
 11
446.4461014313624
 21
166.7716394566398
 31
0.0
  0
LINE
  5
940
330
1A
100
AcDbEntity
  8
NOKITOI
  6
PHANTOM
 62
     8
 48
5.0
100
AcDbLine
 10
439.3644496313623
 20
167.3951803566398
 30
0.0
 11
445.0784104313624
 21
165.7146036566398
 31
0.0
  0
LINE
  5
941
330
1A
100
AcDbEntity
  8
SEIHIN
100
AcDbLine
 10
586.7595670313623
 20
168.8656662360867
 30
0.0
 11
626.7595670313624
 21
168.8656662360866
 31
0.0
  0
LINE
  5
942
330
1A
100
AcDbEntity
  8
SEIHIN
100
AcDbLine
 10
586.7595670313623
 20
163.0223181348519
 30
0.0
 11
626.7595670313624
 21
163.0223181348519
 31
0.0
  0
LINE
  5
943
330
1A
100
AcDbEntity
  8
SEIHIN
100
AcDbLine
 10
586.7595670313623
 20
173.0114744348519
 30
0.0
 11
586.7595670313623
 21
163.0223181348519
 31
0.0
  0
LINE
  5
944
330
1A
100
AcDbEntity
  8
SEIHIN
100
AcDbLine
 10
583.2055840313621
 20
440.3148311373938
 30
0.0
 11
583.2055840313621
 21
420.3148311373937
 31
0.0
  0
LINE
  5
945
330
1A
100
AcDbEntity
  8
SEIHIN
100
AcDbLine
 10
581.0864670313621
 20
440.3148311373938
 30
0.0
 11
581.0864670313621
 21
420.3148311373937
 31
0.0
  0
LINE
  5
946
330
1A
100
AcDbEntity
  8
SEIHIN
100
AcDbLine
 10
627.3864670313623
 20
507.91720829282
 30
0.0
 11
627.3864670313623
 21
359.8148311373937
 31
0.0
  0
LINE
  5
947
330
1A
100
AcDbEntity
  8
SEIHIN
100
AcDbLine
 10
578.3864670313623
 20
360.9029065373937
 30
0.0
 11
578.3864670313623
 21
490.7890774373937
 31
0.0
  0
LINE
  5
948
330
1A
100
AcDbEntity
  8
CENTER_L
 48
10.0
100
AcDbLine
 10
584.3558620313622
 20
346.3454363373937
 30
0.0
 11
417.8239353142778
 21
512.8773633370922
 31
0.0
  0
LINE
  5
949
330
1A
100
AcDbEntity
  8
SEIHIN
100
AcDbLine
 10
437.0306560313622
 20
303.3148311373937
 30
0.0
 11
437.0306560313622
 21
486.1706423373937
 31
0.0
  0
LINE
  5
94A
330
1A
100
AcDbEntity
  8
SEIHIN
100
AcDbLine
 10
439.9122210313621
 20
303.3148311373937
 30
0.0
 11
439.9122210313621
 21
483.2890774373937
 31
0.0
  0
LINE
  5
94B
330
1A
100
AcDbEntity
  8
SEIHIN
100
AcDbLine
 10
421.2840900313621
 20
334.3094384373937
 30
0.0
 11
421.2840900313621
 21
501.9172078373936
 31
0.0
  0
LINE
  5
94C
330
1A
100
AcDbEntity
  8
SEIHIN
100
AcDbLine
 10
446.9864740313624
 20
352.3148311373937
 30
0.0
 11
446.9864740313624
 21
478.9148241373936
 31
0.0
  0
LINE
  5
94D
330
1A
100
AcDbEntity
  8
SEIHIN
100
AcDbLine
 10
490.3864670313623
 20
347.3148311373937
 30
0.0
 11
439.9122210313621
 21
347.3148311373937
 31
0.0
  0
LINE
  5
94F
330
1A
100
AcDbEntity
  8
SEIHIN
100
AcDbLine
 10
569.7983920313622
 20
352.3148311373937
 30
0.0
 11
439.9122210313621
 21
352.3148311373937
 31
0.0
  0
LINE
  5
950
330
1A
100
AcDbEntity
  8
SEIHIN
100
AcDbLine
 10
422.7840900313622
 20
303.3148311373937
 30
0.0
 11
570.8864670313623
 21
303.3148311373937
 31
0.0
  0
LINE
  5
951
330
1A
100
AcDbEntity
  8
SEIHIN
100
AcDbLine
 10
450.3047110313623
 20
343.3148311373937
 30
0.0
 11
450.3047110313623
 21
347.3148311373937
 31
0.0
  0
LINE
  5
952
330
1A
100
AcDbEntity
  8
SEIHIN
100
AcDbLine
 10
442.4833980313621
 20
343.3148311373937
 30
0.0
 11
442.4833980313621
 21
347.3148311373937
 31
0.0
  0
LINE
  5
953
330
1A
100
AcDbEntity
  8
SEIHIN
100
AcDbLine
 10
451.3947250313622
 20
343.3148311373937
 30
0.0
 11
451.3947250313622
 21
303.3148311373937
 31
0.0
  0
LINE
  5
954
330
1A
100
AcDbEntity
  8
SEIHIN
100
AcDbLine
 10
421.6431210313621
 20
322.3309835373937
 30
0.0
 11
422.7840900313622
 21
303.3148311373937
 31
0.0
  0
ARC
  5
955
330
1A
100
AcDbEntity
  8
SEIHIN
100
AcDbCircle
 10
621.2840900313622
 20
334.3094408373937
 30
0.0
 40
199.9999999281836
100
AcDbArc
 50
180.0000006875485
 51
183.4336301222399
  0
LINE
  5
956
330
1A
100
AcDbEntity
  8
SEIHIN
100
AcDbLine
 10
439.9122210313621
 20
343.3148311373937
 30
0.0
 11
451.3947250313622
 21
343.3148311373937
 31
0.0
  0
LINE
  5
957
330
1A
100
AcDbEntity
  8
SEIHIN
100
AcDbLine
 10
446.9864740313624
 20
352.3148311373937
 30
0.0
 11
450.3047110313623
 21
347.3148311373937
 31
0.0
  0
LINE
  5
958
330
1A
100
AcDbEntity
  8
SEIHIN
100
AcDbLine
 10
439.9122210313621
 20
350.9911652373937
 30
0.0
 11
442.4833980313621
 21
347.3148311373937
 31
0.0
  0
LINE
  5
959
330
1A
100
AcDbEntity
  8
SEIHIN
100
AcDbLine
 10
561.6106710313622
 20
347.3148311373937
 30
0.0
 11
561.6106710313622
 21
343.3148311373937
 31
0.0
  0
LINE
  5
95A
330
1A
100
AcDbEntity
  8
SEIHIN
100
AcDbLine
 10
567.2235360313623
 20
343.3148311373937
 30
0.0
 11
567.2235360313623
 21
347.3148311373937
 31
0.0
  0
LINE
  5
95B
330
1A
100
AcDbEntity
  8
SEIHIN
100
AcDbLine
 10
569.7983920313622
 20
343.3148311373937
 30
0.0
 11
569.7983920313622
 21
353.3343094425473
 31
0.0
  0
LINE
  5
95C
330
1A
100
AcDbEntity
  8
SEIHIN
100
AcDbLine
 10
564.5568200313623
 20
343.3148311373937
 30
0.0
 11
564.5568200313623
 21
347.3148311373937
 31
0.0
  0
LINE
  5
95D
330
1A
100
AcDbEntity
  8
SEIHIN
100
AcDbLine
 10
569.7983920313622
 20
343.3148311373937
 30
0.0
 11
569.7983920313622
 21
353.3343094425473
 31
0.0
  0
LINE
  5
95E
330
1A
100
AcDbEntity
  8
SEIHIN
100
AcDbLine
 10
572.3864670313624
 20
334.3094408373937
 30
0.0
 11
572.3864670313624
 21
353.3148311373937
 31
0.0
  0
LINE
  5
95F
330
1A
100
AcDbEntity
  8
SEIHIN
100
AcDbLine
 10
510.3864670313623
 20
347.3148311373937
 30
0.0
 11
512.6341240313622
 21
333.8288925373936
 31
0.0
  0
LINE
  5
960
330
1A
100
AcDbEntity
  8
SEIHIN
100
AcDbLine
 10
489.8316674601759
 20
343.986033210786
 30
0.0
 11
490.3864670313623
 21
347.3148311373937
 31
0.0
  0
LINE
  5
961
330
1A
100
AcDbEntity
  8
CENTER_L
 48
10.0
100
AcDbLine
 10
500.3864670313624
 20
293.3148311373937
 30
0.0
 11
500.3864670313624
 21
437.3148311373937
 31
0.0
  0
LINE
  5
962
330
1A
100
AcDbEntity
  8
SEIHIN
100
AcDbLine
 10
514.4142770313622
 20
332.1669891373936
 30
0.0
 11
559.7196570313622
 21
327.7829103373936
 31
0.0
  0
ARC
  5
964
330
1A
100
AcDbEntity
  8
SEIHIN
100
AcDbCircle
 10
514.6069110313622
 20
334.1576905373937
 30
0.0
 40
1.999999574261264
100
AcDbArc
 50
189.4623269177134
 51
264.472873955051
  0
LINE
  5
965
330
1A
100
AcDbEntity
  8
SEIHIN
100
AcDbLine
 10
572.0274360313622
 20
322.3309827373936
 30
0.0
 11
570.8864670313623
 21
303.3148311373937
 31
0.0
  0
LINE
  5
966
330
1A
100
AcDbEntity
  8
SEIHIN
100
AcDbLine
 10
559.7196570313622
 20
343.3148311373937
 30
0.0
 11
559.7196570313622
 21
303.3148311373937
 31
0.0
  0
LINE
  5
967
330
1A
100
AcDbEntity
  8
SEIHIN
100
AcDbLine
 10
559.7196570313622
 20
343.3148311373937
 30
0.0
 11
572.3864670313624
 21
343.3148311373937
 31
0.0
  0
ARC
  5
968
330
1A
100
AcDbEntity
  8
SEIHIN
100
AcDbCircle
 10
372.3864670313624
 20
334.3094408373937
 30
0.0
 40
199.9999999521404
100
AcDbArc
 50
356.5663696489863
 51
0.0
  0
LINE
  5
969
330
1A
100
AcDbEntity
  8
SEIHIN
100
AcDbLine
 10
564.5568200313623
 20
347.3148311373937
 30
0.0
 11
510.3864670313623
 21
347.3148311373937
 31
0.0
  0
LINE
  5
96A
330
1A
100
AcDbEntity
  8
SEIHIN
100
AcDbLine
 10
490.3864670313623
 20
347.4957141373937
 30
0.0
 11
510.3864670313623
 21
347.4957141373937
 31
0.0
  0
LINE
  5
96B
330
1A
100
AcDbEntity
  8
SEIHIN
100
AcDbLine
 10
490.3864670313623
 20
349.6148311373937
 30
0.0
 11
510.3864670313623
 21
349.6148311373937
 31
0.0
  0
LINE
  5
96C
330
1A
100
AcDbEntity
  8
SEIHIN
100
AcDbLine
 10
490.3864670313623
 20
352.3148311373937
 30
0.0
 11
490.3864670313623
 21
347.3148311373937
 31
0.0
  0
LINE
  5
96D
330
1A
100
AcDbEntity
  8
SEIHIN
100
AcDbLine
 10
510.3864670313623
 20
352.3148311373937
 30
0.0
 11
510.3864670313623
 21
347.3148311373937
 31
0.0
  0
LINE
  5
96E
330
1A
100
AcDbEntity
  8
SEIHIN
100
AcDbLine
 10
598.5343090313622
 20
416.2870216373937
 30
0.0
 11
602.9183880313621
 21
370.9816415373936
 31
0.0
  0
LINE
  5
96F
330
1A
100
AcDbEntity
  8
SEIHIN
100
AcDbLine
 10
583.3864670313623
 20
366.1444783373937
 30
0.0
 11
583.3864670313623
 21
420.3148311373937
 31
0.0
  0
LINE
  5
970
330
1A
100
AcDbEntity
  8
SEIHIN
100
AcDbLine
 10
596.3918570313621
 20
358.3148311373937
 30
0.0
 11
577.3864670313623
 21
358.3148311373937
 31
0.0
  0
LINE
  5
971
330
1A
100
AcDbEntity
  8
SEIHIN
100
AcDbLine
 10
587.3864670313623
 20
370.9816415373936
 30
0.0
 11
627.3864670313623
 21
370.9816415373936
 31
0.0
  0
LINE
  5
972
330
1A
100
AcDbEntity
  8
SEIHIN
100
AcDbLine
 10
583.3864670313623
 20
369.0906272373937
 30
0.0
 11
578.3864670313623
 21
363.8490554373937
 31
0.0
  0
LINE
  5
973
330
1A
100
AcDbEntity
  8
SEIHIN
100
AcDbLine
 10
587.3864670313623
 20
370.9816415373936
 30
0.0
 11
587.3864670313623
 21
358.3148311373937
 31
0.0
  0
ARC
  5
974
330
1A
100
AcDbEntity
  8
SEIHIN
100
AcDbCircle
 10
577.3864670313623
 20
353.3148311373937
 30
0.0
 40
10.5342
100
AcDbArc
 50
90.0
 51
180.0
  0
ARC
  5
975
330
1A
100
AcDbEntity
  8
SEIHIN
100
AcDbCircle
 10
577.3864670313623
 20
353.3148311373937
 30
0.0
 40
7.588099999999999
100
AcDbArc
 50
90.0
 51
180.0
  0
LINE
  5
976
330
1A
100
AcDbEntity
  8
SEIHIN
100
AcDbLine
 10
567.2235360313623
 20
347.3148311373937
 30
0.0
 11
569.7983920313622
 21
349.7710177373936
 31
0.0
  0
LINE
  5
977
330
1A
100
AcDbEntity
  8
SEIHIN
100
AcDbLine
 10
564.5568200313623
 20
347.3148311373937
 30
0.0
 11
569.7983920313622
 21
352.3148311373937
 31
0.0
  0
LINE
  5
978
330
1A
100
AcDbEntity
  8
SEIHIN
100
AcDbLine
 10
566.852267031362
 20
352.3148311373937
 30
0.0
 11
566.8522670313623
 21
353.3148311373764
 31
0.0
  0
LINE
  5
979
330
1A
100
AcDbEntity
  8
SEIHIN
100
AcDbLine
 10
561.6106710313622
 20
347.3148311373937
 30
0.0
 11
566.8522430313624
 21
352.3148311373937
 31
0.0
  0
LINE
  5
97A
330
1A
100
AcDbEntity
  8
SEIHIN
100
AcDbLine
 10
578.3864670313623
 20
363.8490065373937
 30
0.0
 11
577.3671451806478
 21
363.8490065373937
 31
0.0
  0
ARC
  5
97B
330
1A
100
AcDbEntity
  8
SEIHIN
100
AcDbCircle
 10
577.3864670313623
 20
353.3148311373937
 30
0.0
 40
5.0
100
AcDbArc
 50
90.0
 51
180.0
  0
LINE
  5
97C
330
1A
100
AcDbEntity
  8
SEIHIN
100
AcDbLine
 10
587.3864670313623
 20
366.1444783373937
 30
0.0
 11
583.3864670313623
 21
366.1444783373937
 31
0.0
  0
LINE
  5
97D
330
1A
100
AcDbEntity
  8
SEIHIN
100
AcDbLine
 10
587.3864670313623
 20
363.4777622373936
 30
0.0
 11
583.3864670313623
 21
363.4777622373936
 31
0.0
  0
LINE
  5
97E
330
1A
100
AcDbEntity
  8
SEIHIN
100
AcDbLine
 10
587.3864670313623
 20
360.9029065373937
 30
0.0
 11
577.3671451806478
 21
360.9029065373937
 31
0.0
  0
LINE
  5
97F
330
1A
100
AcDbEntity
  8
SEIHIN
100
AcDbLine
 10
583.3864670313623
 20
366.1444783373937
 30
0.0
 11
578.3864670313623
 21
360.9029065373937
 31
0.0
  0
LINE
  5
980
330
1A
100
AcDbEntity
  8
SEIHIN
100
AcDbLine
 10
583.3864670313623
 20
363.4777622373936
 30
0.0
 11
580.9302810313623
 21
360.9029065373937
 31
0.0
  0
LINE
  5
981
330
1A
100
AcDbEntity
  8
SEIHIN
100
AcDbLine
 10
583.3864670313623
 20
369.0906272373937
 30
0.0
 11
587.3864670313623
 21
369.0906272373937
 31
0.0
  0
LINE
  5
982
330
1A
100
AcDbEntity
  8
SEIHIN
100
AcDbLine
 10
608.3703160313623
 20
358.6738620373937
 30
0.0
 11
627.3864670313623
 21
359.8148311373937
 31
0.0
  0
ARC
  5
983
330
1A
100
AcDbEntity
  8
SEIHIN
100
AcDbCircle
 10
596.3918570313621
 20
558.3148311373937
 30
0.0
 40
200.0000000290023
100
AcDbArc
 50
270.0
 51
273.4336306066659
  0
LINE
  5
984
330
1A
100
AcDbEntity
  8
SEIHIN
100
AcDbLine
 10
583.3864670313623
 20
420.3148311373937
 30
0.0
 11
596.8724060313623
 21
418.0671747373938
 31
0.0
  0
LINE
  5
985
330
1A
100
AcDbEntity
  8
SEIHIN
100
AcDbLine
 10
578.3864670313623
 20
420.3148311373937
 30
0.0
 11
583.3864670313623
 21
420.3148311373937
 31
0.0
  0
ARC
  5
986
330
1A
100
AcDbEntity
  8
SEIHIN
100
AcDbCircle
 10
596.5436080313622
 20
416.0943868373936
 30
0.0
 40
1.999999857595302
100
AcDbArc
 50
5.527149960424426
 51
80.53767732100828
  0
LINE
  5
987
330
1A
100
AcDbEntity
  8
SEIHIN
100
AcDbLine
 10
578.3864670313623
 20
483.7148241373937
 30
0.0
 11
451.7864740313623
 21
483.7148241373937
 31
0.0
  0
LINE
  5
988
330
1A
100
AcDbEntity
  8
SEIHIN
100
AcDbLine
 10
602.3864721762445
 20
509.4172078373937
 30
0.0
 11
428.7840900313621
 21
509.4172078373937
 31
0.0
  0
LINE
  5
989
330
1A
100
AcDbEntity
  8
SEIHIN
100
AcDbLine
 10
627.3864670313623
 20
493.6706423373936
 30
0.0
 11
444.5306560313622
 21
493.6706423373936
 31
0.0
  0
LINE
  5
98A
330
1A
100
AcDbEntity
  8
SEIHIN
100
AcDbLine
 10
627.3864670313623
 20
490.7890774373937
 30
0.0
 11
447.4122210313622
 21
490.7890774373937
 31
0.0
  0
ARC
  5
98B
330
1A
100
AcDbEntity
  8
SEIHIN
100
AcDbCircle
 10
451.7864740313623
 20
478.9148241373936
 30
0.0
 40
4.800000000000011
100
AcDbArc
 50
90.0
 51
180.0
  0
ARC
  5
98C
330
1A
100
AcDbEntity
  8
SEIHIN
100
AcDbCircle
 10
447.4122210313622
 20
483.2890774373937
 30
0.0
 40
7.5
100
AcDbArc
 50
90.0
 51
180.0
  0
ARC
  5
98D
330
1A
100
AcDbEntity
  8
SEIHIN
100
AcDbCircle
 10
428.7840900313621
 20
501.9172078373936
 30
0.0
 40
7.5
100
AcDbArc
 50
90.0
 51
180.0
  0
ARC
  5
98E
330
1A
100
AcDbEntity
  8
SEIHIN
100
AcDbCircle
 10
444.5306560313622
 20
486.1706423373937
 30
0.0
 40
7.5
100
AcDbArc
 50
90.0
 51
180.0
  0
LINE
  5
98F
330
1A
100
AcDbEntity
  8
SEIHIN
100
AcDbLine
 10
587.3864670313623
 20
490.7890774373937
 30
0.0
 11
587.3864670313623
 21
479.3065735373936
 31
0.0
  0
LINE
  5
990
330
1A
100
AcDbEntity
  8
SEIHIN
100
AcDbLine
 10
583.3864670313623
 20
440.3148311373938
 30
0.0
 11
583.3864670313623
 21
490.7890774373937
 31
0.0
  0
LINE
  5
991
330
1A
100
AcDbEntity
  8
SEIHIN
100
AcDbLine
 10
587.3864670313623
 20
479.3065735373936
 30
0.0
 11
627.3864670313623
 21
479.3065735373936
 31
0.0
  0
LINE
  5
992
330
1A
100
AcDbEntity
  8
SEIHIN
100
AcDbLine
 10
586.7152650011727
 20
440.8696307907039
 30
0.0
 11
583.3864670313623
 21
440.3148311373938
 31
0.0
  0
LINE
  5
993
330
1A
100
AcDbEntity
  8
SEIHIN
100
AcDbLine
 10
578.3864670313623
 20
440.3148311373938
 30
0.0
 11
583.3864670313623
 21
440.3148311373938
 31
0.0
  0
LINE
  5
994
330
1A
100
AcDbEntity
  8
SEIHIN
100
AcDbLine
 10
587.3864670313623
 20
480.3965869373937
 30
0.0
 11
583.3864670313623
 21
480.3965869373937
 31
0.0
  0
LINE
  5
995
330
1A
100
AcDbEntity
  8
SEIHIN
100
AcDbLine
 10
578.3864670313623
 20
483.7148241373937
 30
0.0
 11
583.3864670313623
 21
480.3965869373937
 31
0.0
  0
LINE
  5
998
330
1A
100
AcDbEntity
  8
SEIHIN
100
AcDbLine
 10
579.7101330313624
 20
490.7890774373937
 30
0.0
 11
583.3864670313623
 21
488.2179000373937
 31
0.0
  0
LINE
  5
999
330
1A
100
AcDbEntity
  8
SEIHIN
100
AcDbLine
 10
587.3864670313623
 20
488.2179000373937
 30
0.0
 11
583.3864670313623
 21
488.2179000373937
 31
0.0
  0
TEXT
  5
99A
330
1A
100
AcDbEntity
  8
SUNPOU
 62
     4
100
AcDbText
 10
685.0146465189041
 20
36.86530953677004
 30
0.0
 40
6.0
  1
※　のきといの差込み寸法を示す
100
AcDbText
  0
DIMENSION
  5
B72
330
1A
100
AcDbEntity
  8
SUNPOU
100
AcDbDimension
  2
*D1
 10
658.2366599729721
 20
56.41270827119076
 30
0.0
 11
653.2366599729721
 21
94.36270820614554
 31
0.0
 70
    32
  3
STANDARD
100
AcDbAlignedDimension
 13
565.7636800313623
 23
132.3127081411001
 33
0.0
 14
500.3864670313622
 24
56.41270827119081
 34
0.0
 50
90.0
100
AcDbRotatedDimension
1001
ACAD
1000
DSTYLE
1002
{
1070
    41
1040
6.0
1070
    42
1040
6.0
1070
    43
1040
14.0
1070
    44
1040
3.0
1070
    73
1070
     0
1070
    74
1070
     0
1070
    77
1070
     3
1070
   140
1040
6.0
1070
   141
1040
10.0
1070
   147
1040
2.0
1070
   172
1070
     1
1070
   173
1070
     1
1070
   176
1070
   256
1070
   177
1070
   256
1070
   178
1070
   256
1070
   271
1070
     0
1070
   272
1070
     0
1070
   341
1005
6D
1070
     6
1000
OPEN
1070
     7
1000
OPEN
1002
}
  0
DIMENSION
  5
B80
330
1A
100
AcDbEntity
  8
SUNPOU
100
AcDbDimension
  2
*D2
 10
367.3209457433886
 20
56.41270827119085
 30
0.0
 11
362.3209457433886
 21
114.7120913530214
 31
0.0
 70
    32
  3
STANDARD
100
AcDbAlignedDimension
 13
438.4265290313622
 23
173.0114744348519
 33
0.0
 14
500.3864670313622
 24
56.41270827119081
 34
0.0
 50
90.0
100
AcDbRotatedDimension
1001
ACAD
1000
DSTYLE
1002
{
1070
    41
1040
6.0
1070
    42
1040
6.0
1070
    43
1040
14.0
1070
    44
1040
3.0
1070
    73
1070
     0
1070
    74
1070
     0
1070
    77
1070
     3
1070
   140
1040
6.0
1070
   141
1040
10.0
1070
   147
1040
2.0
1070
   172
1070
     1
1070
   173
1070
     1
1070
   176
1070
   256
1070
   177
1070
   256
1070
   178
1070
   256
1070
   271
1070
     0
1070
   272
1070
     0
1070
   341
1005
6D
1070
     6
1000
OPEN
1070
     7
1000
OPEN
1002
}
  0
DIMENSION
  5
B8D
330
1A
100
AcDbEntity
  8
SUNPOU
100
AcDbDimension
  2
*D3
 10
420.7595640313622
 20
226.0023736561584
 30
0.0
 11
496.5126052341591
 21
231.0023736561583
 31
0.0
 70
    32
  3
STANDARD
100
AcDbAlignedDimension
 13
572.2656464369558
 23
127.3127082348519
 33
0.0
 14
420.7595640313622
 24
81.42982333485196
 34
0.0
100
AcDbRotatedDimension
1001
ACAD
1000
DSTYLE
1002
{
1070
    41
1040
6.0
1070
    42
1040
6.0
1070
    43
1040
14.0
1070
    44
1040
3.0
1070
    73
1070
     0
1070
    74
1070
     0
1070
    77
1070
     3
1070
   140
1040
6.0
1070
   141
1040
10.0
1070
   147
1040
2.0
1070
   172
1070
     1
1070
   173
1070
     1
1070
   176
1070
   256
1070
   177
1070
   256
1070
   178
1070
   256
1070
   271
1070
     0
1070
   272
1070
     0
1070
   341
1005
6D
1070
     6
1000
OPEN
1070
     7
1000
OPEN
1002
}
  0
DIMENSION
  5
B9A
330
1A
100
AcDbEntity
  8
SUNPOU
100
AcDbDimension
  2
*D4
 10
626.7595670313624
 20
243.4114526499165
 30
0.0
 11
523.7595655313623
 21
248.4114526499165
 31
0.0
 70
    32
  3
STANDARD
100
AcDbAlignedDimension
 13
420.7595640313622
 23
81.42982333485196
 33
0.0
 14
626.7595670313624
 24
173.0114744348519
 34
0.0
100
AcDbRotatedDimension
1001
ACAD
1000
DSTYLE
1002
{
1070
    41
1040
6.0
1070
    42
1040
6.0
1070
    43
1040
14.0
1070
    44
1040
3.0
1070
    73
1070
     0
1070
    74
1070
     0
1070
    77
1070
     3
1070
   140
1040
6.0
1070
   141
1040
10.0
1070
   147
1040
2.0
1070
   172
1070
     1
1070
   173
1070
     1
1070
   176
1070
   256
1070
   177
1070
   256
1070
   178
1070
   256
1070
   271
1070
     0
1070
   272
1070
     0
1070
   341
1005
6D
1070
     6
1000
OPEN
1070
     7
1000
OPEN
1002
}
  0
DIMENSION
  5
BA7
330
1A
100
AcDbEntity
  8
SUNPOU
100
AcDbDimension
  2
*D5
 10
88.42783802460941
 20
226.0023736561584
 30
0.0
 11
191.4378395246094
 21
231.0023736561583
 31
0.0
 70
    32
  3
STANDARD
100
AcDbAlignedDimension
 13
294.4478410246095
 23
173.0114744348519
 33
0.0
 14
88.42783802460941
 24
81.42982333485196
 34
0.0
100
AcDbRotatedDimension
1001
ACAD
1000
DSTYLE
1002
{
1070
    41
1040
6.0
1070
    42
1040
6.0
1070
    43
1040
14.0
1070
    44
1040
3.0
1070
    73
1070
     0
1070
    74
1070
     0
1070
    77
1070
     3
1070
   140
1040
6.0
1070
   141
1040
10.0
1070
   147
1040
2.0
1070
   172
1070
     1
1070
   173
1070
     1
1070
   176
1070
   256
1070
   177
1070
   256
1070
   178
1070
   256
1070
   271
1070
     0
1070
   272
1070
     0
1070
   341
1005
6D
1070
     6
1000
OPEN
1070
     7
1000
OPEN
1002
}
  0
DIMENSION
  5
BB4
330
1A
100
AcDbEntity
  8
SUNPOU
100
AcDbDimension
  2
*D6
 10
621.8246884114332
 20
303.3148311373937
 30
0.0
 11
616.8246884114331
 21
325.3148311373938
 31
0.0
 70
    32
  1
\U+203B<>
  3
STANDARD
100
AcDbAlignedDimension
 13
567.2235360313623
 23
347.3148311373937
 33
0.0
 14
570.8864670313623
 24
303.3148311373937
 34
0.0
 50
90.0
100
AcDbRotatedDimension
1001
ACAD
1000
DSTYLE
1002
{
1070
    41
1040
6.0
1070
    42
1040
6.0
1070
    43
1040
14.0
1070
    44
1040
3.0
1070
    73
1070
     0
1070
    74
1070
     0
1070
    77
1070
     3
1070
   140
1040
6.0
1070
   141
1040
10.0
1070
   147
1040
2.0
1070
   172
1070
     1
1070
   173
1070
     1
1070
   176
1070
   256
1070
   177
1070
   256
1070
   178
1070
   256
1070
   271
1070
     0
1070
   272
1070
     0
1070
   341
1005
6D
1070
     6
1000
OPEN
1070
     7
1000
OPEN
1002
}
  0
DIMENSION
  5
BCA
330
1A
100
AcDbEntity
  8
SUNPOU
100
AcDbDimension
  2
*D7
 10
674.9653019226761
 20
358.3148311373936
 30
0.0
 11
669.9653019226761
 21
433.8660194873937
 31
0.0
 70
    32
  3
STANDARD
100
AcDbAlignedDimension
 13
627.3864670313623
 23
509.4172078373937
 33
0.0
 14
627.3864670313623
 24
358.3148311373937
 34
0.0
 50
90.0
100
AcDbRotatedDimension
1001
ACAD
1000
DSTYLE
1002
{
1070
    41
1040
6.0
1070
    42
1040
6.0
1070
    43
1040
14.0
1070
    44
1040
3.0
1070
    73
1070
     0
1070
    74
1070
     0
1070
    77
1070
     3
1070
   140
1040
6.0
1070
   141
1040
10.0
1070
   147
1040
2.0
1070
   172
1070
     1
1070
   173
1070
     1
1070
   176
1070
   256
1070
   177
1070
   256
1070
   178
1070
   256
1070
   271
1070
     0
1070
   272
1070
     0
1070
   341
1005
6D
1070
     6
1000
OPEN
1070
     7
1000
OPEN
1002
}
  0
DIMENSION
  5
BD7
330
1A
100
AcDbEntity
  8
SUNPOU
100
AcDbDimension
  2
*D8
 10
693.022790873344
 20
303.3148311373937
 30
0.0
 11
688.022790873344
 21
406.3660194873937
 31
0.0
 70
    32
  3
STANDARD
100
AcDbAlignedDimension
 13
627.3864670313623
 23
509.4172078373937
 33
0.0
 14
570.8864670313623
 24
303.3148311373937
 34
0.0
 50
90.0
100
AcDbRotatedDimension
1001
ACAD
1000
DSTYLE
1002
{
1070
    41
1040
6.0
1070
    42
1040
6.0
1070
    43
1040
14.0
1070
    44
1040
3.0
1070
    73
1070
     0
1070
    74
1070
     0
1070
    77
1070
     3
1070
   140
1040
6.0
1070
   141
1040
10.0
1070
   147
1040
2.0
1070
   172
1070
     1
1070
   173
1070
     1
1070
   176
1070
   256
1070
   177
1070
   256
1070
   178
1070
   256
1070
   271
1070
     0
1070
   272
1070
     0
1070
   341
1005
6D
1070
     6
1000
OPEN
1070
     7
1000
OPEN
1002
}
  0
LINE
  5
BE4
330
1A
100
AcDbEntity
  8
SEIHIN
100
AcDbLine
 10
602.3864721762444
 20
509.4172078373937
 30
0.0
 11
627.3864675055586
 21
507.9172082643683
 31
0.0
  0
LINE
  5
DDF
330
1A
100
AcDbEntity
  8
SEIHIN
100
AcDbLine
 10
487.8588796045111
 20
342.3148311373937
 30
0.0
 11
451.3947250313622
 21
342.3148311373938
 31
0.0
  0
ARC
  5
DE0
330
1A
100
AcDbEntity
  8
SEIHIN
100
AcDbCircle
 10
487.8588796045111
 20
344.3148311373937
 30
0.0
 40
2.0
100
AcDbArc
 50
269.9999999999998
 51
350.5376791861289
  0
LINE
  5
DE1
330
1A
100
AcDbEntity
  8
SEIHIN
100
AcDbLine
 10
588.3864670313622
 20
442.8424186391683
 30
0.0
 11
588.3864670313625
 21
479.3065735373937
 31
0.0
  0
ARC
  5
DE2
330
1A
100
AcDbEntity
  8
SEIHIN
100
AcDbCircle
 10
586.3864670313622
 20
442.8424186391683
 30
0.0
 40
2.0
100
AcDbArc
 50
279.4623220686101
 51
359.9999999999998
  0
LINE
  5
EE6
330
1A
100
AcDbEntity
  8
ZUWAKU
100
AcDbLine
 10
208.646601303624
 20
15.19999986828872
 30
0.0
 11
447.4243639845474
 21
15.19999986828871
 31
0.0
  0
LINE
  5
EE7
330
1A
100
AcDbEntity
  8
ZUWAKU
100
AcDbLine
 10
208.646601303624
 20
15.59999986828871
 30
0.0
 11
447.4243639845474
 21
15.59999986828872
 31
0.0
  0
LINE
  5
EE8
330
1A
100
AcDbEntity
  8
ZUWAKU
100
AcDbLine
 10
208.646601303624
 20
15.39999986828871
 30
0.0
 11
447.4243639845474
 21
15.39999986828871
 31
0.0
  0
LINE
  5
EE9
330
1A
100
AcDbEntity
  8
ZUWAKU
100
AcDbLine
 10
0.0000000135560185
 20
30.79999986828869
 30
0.0
 11
797.4000000135559
 21
30.79999986828869
 31
0.0
  0
LINE
  5
EEA
330
1A
100
AcDbEntity
  8
ZUWAKU
100
AcDbLine
 10
0.0000000135560185
 20
30.59999986828869
 30
0.0
 11
797.4000000135559
 21
30.59999986828869
 31
0.0
  0
LINE
  5
EEB
330
1A
100
AcDbEntity
  8
ZUWAKU
100
AcDbLine
 10
0.0000000135560185
 20
30.39999986828869
 30
0.0
 11
797.4000000135559
 21
30.39999986828869
 31
0.0
  0
LINE
  5
EEC
330
1A
100
AcDbEntity
  8
ZUWAKU
100
AcDbLine
 10
0.0000000135560185
 20
30.19999986828868
 30
0.0
 11
797.4000000135559
 21
30.19999986828868
 31
0.0
  0
LINE
  5
EED
330
1A
100
AcDbEntity
  8
ZUWAKU
100
AcDbLine
 10
0.0000000135560185
 20
29.99999986828868
 30
0.0
 11
797.4000000135559
 21
29.99999986828868
 31
0.0
  0
LWPOLYLINE
  5
EEE
330
1A
100
AcDbEntity
  8
ZUWAKU
100
AcDbPolyline
 90
        4
 70
     1
 43
0.0
 10
0.2000000135559503
 20
551.3999998682887
 10
0.2000000135559503
 20
0.1999998682887281
 10
797.4000000135559
 20
0.1999998682887511
 10
797.4000000135561
 20
551.3999998682887
  0
LWPOLYLINE
  5
EEF
330
1A
100
AcDbEntity
  8
ZUWAKU
100
AcDbPolyline
 90
        4
 70
     1
 43
0.0
 10
0.6000000135559276
 20
550.9999998682888
 10
0.6000000135559276
 20
0.5999998682887054
 10
797.0000000135562
 20
0.5999998682887516
 10
797.000000013556
 20
550.9999998682888
  0
LWPOLYLINE
  5
EF0
330
1A
100
AcDbEntity
  8
ZUWAKU
100
AcDbPolyline
 90
        4
 70
     1
 43
0.0
 10
0.0000000135560185
 20
551.5999998682887
 10
0.0000000135560185
 20
-0.0000001317113174
 10
797.6000000135561
 20
-0.0000001317112499
 10
797.6000000135561
 20
551.5999998682888
  0
LWPOLYLINE
  5
EF1
330
1A
100
AcDbEntity
  8
ZUWAKU
100
AcDbPolyline
 90
        4
 70
     1
 43
0.0
 10
0.4000000135559958
 20
551.1999998682887
 10
0.4000000135559958
 20
0.3999998682887735
 10
797.200000013556
 20
0.3999998682887504
 10
797.200000013556
 20
551.1999998682887
  0
LWPOLYLINE
  5
EF2
330
1A
100
AcDbEntity
  8
ZUWAKU
100
AcDbPolyline
 90
        4
 70
     1
 43
0.0
 10
0.800000013555973
 20
550.7999998682887
 10
0.800000013555973
 20
0.7999998682887508
 10
796.8000000135559
 20
0.7999998682887508
 10
796.8000000135559
 20
550.7999998682887
  0
TEXT
  5
EF3
330
1A
100
AcDbEntity
  8
MOJI
100
AcDbText
 10
92.95778960172516
 20
12.74117799856344
 30
0.0
 40
6.0
  1
アートフェイスＴ１２０
 41
0.9
  7
ｽﾀｲﾙ1
100
AcDbText
  0
HATCH
  5
EF4
330
1A
100
AcDbEntity
  8
ZUWAKU
100
AcDbHatch
 10
0.0
 20
0.0
 30
0.0
210
0.0
220
0.0
230
1.0
  2
ANSI37
 70
     0
 71
     0
 91
        8
 92
        7
 72
     1
 73
     1
 93
       24
 10
14.50226267467587
 20
17.64484834927226
 42
-0.1989123673796348
 10
14.09221216833714
 20
18.63479784293331
 42
0.0
 10
14.09221216833714
 20
19.92499986828869
 42
-0.4142135623730912
 10
14.61721216833711
 20
20.44999986828868
 42
0.0
 10
17.59221216833702
 20
20.44999986828868
 42
0.4142135623731546
 10
18.11721216833712
 20
20.97499986828867
 42
0.0
 10
18.11721216833712
 20
22.72499986828869
 42
0.4142135623731586
 10
17.59221216833702
 20
23.24999986828868
 42
0.0
 10
14.09221216833714
 20
23.24999986828868
 42
0.4142135623730928
 10
11.29221216833718
 20
20.44999986828871
 42
0.0
 10
11.29221216833718
 20
18.63479784293344
 42
0.1989123673796619
 10
12.52236368735361
 20
15.66494936194983
 42
0.0
 10
15.43216166199829
 20
12.75515138730518
 42
-0.1989123673796613
 10
15.84221216833714
 20
11.76520189364399
 42
0.0
 10
15.84221216833714
 20
10.47499986828867
 42
-0.4142135623730911
 10
15.31721216833716
 20
9.949999868288685
 42
0.0
 10
12.34221216833725
 20
9.949999868288685
 42
0.4142135623731526
 10
11.81721216833716
 20
9.424999868288697
 42
0.0
 10
11.81721216833716
 20
7.674999868288676
 42
0.4142135623731526
 10
12.34221216833725
 20
7.149999868288688
 42
0.0
 10
15.84221216833714
 20
7.149999868288688
 42
0.4142135623731044
 10
18.64221216833721
 20
9.949999868288664
 42
0.0
 10
18.64221216833721
 20
11.76520189364393
 42
0.1989123673796604
 10
17.41206064932066
 20
14.73505037462747
 42
0.0
 97
        0
 92
        7
 72
     1
 73
     1
 93
       16
 10
23.54221216833718
 20
19.04999986828869
 42
-0.4142135623730935
 10
24.94221216833716
 20
20.44999986828868
 42
0.0
 10
26.86721216833712
 20
20.44999986828868
 42
0.4142135623731546
 10
27.39221216833721
 20
20.97499986828867
 42
0.0
 10
27.39221216833721
 20
22.72499986828869
 42
0.4142135623730951
 10
26.86721216833723
 20
23.24999986828868
 42
0.0
 10
24.94221216833705
 20
23.24999986828864
 42
0.4142135623730892
 10
20.74221216833711
 20
19.04999986828862
 42
0.0
 10
20.74221216833711
 20
11.34999986828871
 42
0.4142135623730969
 10
24.94221216833716
 20
7.149999868288688
 42
0.0
 10
26.86721216833712
 20
7.149999868288688
 42
0.4142135623731526
 10
27.39221216833721
 20
7.674999868288676
 42
0.0
 10
27.39221216833721
 20
9.424999868288697
 42
0.4142135623730891
 10
26.86721216833723
 20
9.949999868288685
 42
0.0
 10
24.94221216833716
 20
9.949999868288685
 42
-0.4142135623730928
 10
23.54221216833718
 20
11.34999986828867
 42
0.0
 97
        0
 92
        7
 72
     1
 73
     1
 93
        2
 10
24.24221216833712
 20
15.19999986828868
 42
1.0
 10
27.74221216833712
 20
15.19999986828868
 42
1.0
 97
        0
 92
        7
 72
     1
 73
     1
 93
       26
 10
37.31485865051513
 20
19.20504706185211
 42
0.0
 10
38.37649828365295
 20
22.5669059001217
 42
0.5069206636600134
 10
37.87586738445759
 20
23.24999986828868
 42
0.0
 10
36.17697800484836
 20
23.24999986828868
 42
0.3272098845218764
 10
35.676347105653
 20
22.88309383645565
 42
0.0
 10
33.80807723102122
 20
16.96690590012176
 42
-0.3272098845219541
 10
33.30744633182575
 20
16.59999986828868
 42
0.0
 10
33.1672121683373
 20
16.59999986828868
 42
-0.4142135623731526
 10
32.64221216833721
 20
17.12499986828867
 42
0.0
 10
32.64221216833721
 20
22.72499986828869
 42
0.4142135623730951
 10
32.11721216833723
 20
23.24999986828868
 42
0.0
 10
30.36721216833711
 20
23.24999986828868
 42
0.4142135623730871
 10
29.84221216833714
 20
22.7249998682887
 42
0.0
 10
29.84221216833714
 20
7.674999868288676
 42
0.4142135623730891
 10
30.36721216833711
 20
7.149999868288688
 42
0.0
 10
32.11721216833712
 20
7.149999868288688
 42
0.4142135623731526
 10
32.64221216833721
 20
7.674999868288676
 42
0.0
 10
32.64221216833721
 20
13.27499986828869
 42
-0.4142135623731526
 10
33.1672121683373
 20
13.79999986828868
 42
0.0
 10
33.30744633182587
 20
13.79999986828868
 42
-0.3272098845218915
 10
33.80807723102122
 20
13.43309383645561
 42
0.0
 10
35.676347105653
 20
7.516905900121759
 42
0.3272098845218902
 10
36.17697800484836
 20
7.149999868288688
 42
0.0
 10
37.87586738445759
 20
7.149999868288688
 42
0.5069206636600335
 10
38.37649828365295
 20
7.833093836455695
 42
0.0
 10
36.05010690517929
 20
15.19999986828882
 42
0.0
 97
        0
 92
        7
 72
     1
 73
     1
 93
        8
 10
43.49221216833711
 20
22.7249998682887
 42
0.4142135623731546
 10
42.96721216833702
 20
23.24999986828868
 42
0.0
 10
41.21721216833726
 20
23.24999986828868
 42
0.4142135623731507
 10
40.69221216833716
 20
22.7249998682887
 42
0.0
 10
40.69221216833716
 20
7.674999868288676
 42
0.4142135623731526
 10
41.21721216833726
 20
7.149999868288688
 42
0.0
 10
42.96721216833702
 20
7.149999868288688
 42
0.4142135623731526
 10
43.49221216833711
 20
7.674999868288676
 42
0.0
 97
        0
 92
        7
 72
     1
 73
     1
 93
       24
 10
48.3922121683372
 20
19.92499986828869
 42
-0.4142135623731546
 10
48.9172121683373
 20
20.44999986828868
 42
0.0
 10
51.89221216833721
 20
20.44999986828868
 42
0.4142135623730911
 10
52.41721216833719
 20
20.97499986828867
 42
0.0
 10
52.41721216833719
 20
22.72499986828869
 42
0.4142135623730952
 10
51.89221216833721
 20
23.24999986828868
 42
0.0
 10
48.3922121683372
 20
23.24999986828868
 42
0.4142135623731048
 10
45.59221216833714
 20
20.44999986828871
 42
0.0
 10
45.59221216833714
 20
18.63479784293344
 42
0.1989123673796613
 10
46.82236368735368
 20
15.66494936194989
 42
0.0
 10
49.73216166199836
 20
12.75515138730522
 42
-0.1989123673796402
 10
50.14221216833721
 20
11.76520189364415
 42
0.0
 10
50.14221216833721
 20
10.47499986828867
 42
-0.4142135623730911
 10
49.61721216833723
 20
9.949999868288685
 42
0.0
 10
46.64221216833721
 20
9.949999868288685
 42
0.4142135623731526
 10
46.11721216833712
 20
9.424999868288697
 42
0.0
 10
46.11721216833712
 20
7.674999868288676
 42
0.4142135623730891
 10
46.64221216833709
 20
7.149999868288688
 42
0.0
 10
50.14221216833721
 20
7.149999868288688
 42
0.4142135623730925
 10
52.94221216833716
 20
9.949999868288664
 42
0.0
 10
52.94221216833716
 20
11.76520189364393
 42
0.1989123673796675
 10
51.71206064932062
 20
14.73505037462759
 42
0.0
 10
48.80226267467605
 20
17.6448483492721
 42
-0.1989123673796652
 10
48.3922121683372
 20
18.63479784293327
 42
0.0
 97
        0
 92
        7
 72
     1
 73
     1
 93
       16
 10
57.84221216833714
 20
22.72499986828867
 42
0.414213562373103
 10
57.31721216833716
 20
23.24999986828868
 42
0.0
 10
55.56721216833716
 20
23.24999986828868
 42
0.4142135623730871
 10
55.04221216833719
 20
22.7249998682887
 42
0.0
 10
55.04221216833719
 20
9.949999868288664
 42
0.4142135623730926
 10
57.84221216833714
 20
7.149999868288688
 42
0.0
 10
61.34221216833714
 20
7.149999868288688
 42
0.4142135623731044
 10
64.14221216833721
 20
9.949999868288664
 42
0.0
 10
64.14221216833721
 20
22.72499986828869
 42
0.4142135623730951
 10
63.61721216833723
 20
23.24999986828868
 42
0.0
 10
61.86721216833712
 20
23.24999986828868
 42
0.4142135623730871
 10
61.34221216833714
 20
22.7249998682887
 42
0.0
 10
61.34221216833714
 20
10.99999986828866
 42
-0.414213562373088
 10
60.29221216833718
 20
9.949999868288685
 42
0.0
 10
58.89221216833721
 20
9.949999868288685
 42
-0.4142135623731197
 10
57.84221216833714
 20
10.99999986828866
 42
0.0
 97
        0
 92
        7
 72
     1
 73
     1
 93
        8
 10
69.04221216833718
 20
22.7249998682887
 42
0.4142135623730871
 10
68.51721216833721
 20
23.24999986828868
 42
0.0
 10
66.76721216833721
 20
23.24999986828868
 42
0.4142135623731507
 10
66.24221216833712
 20
22.7249998682887
 42
0.0
 10
66.24221216833712
 20
7.674999868288676
 42
0.4142135623730891
 10
66.76721216833709
 20
7.149999868288688
 42
0.0
 10
68.51721216833721
 20
7.149999868288688
 42
0.4142135623730891
 10
69.04221216833718
 20
7.674999868288676
 42
0.0
 97
        0
 75
     0
 76
     1
 52
0.0
 41
0.2
 77
     0
 78
     2
 53
45.0
 43
-900.942304321123
 44
-13.20000013171124
 45
-0.4490128060534576
 46
0.4490128060534577
 79
     0
 53
135.0
 43
-900.942304321123
 44
-13.20000013171124
 45
-0.4490128060534577
 46
-0.4490128060534576
 79
     0
 47
0.057451373970553
 98
        8
 10
16.07985497657932
 20
15.16717351417423
 10
22.40451501999519
 20
18.84406205073969
 10
25.16436789921567
 20
15.5118815143594
 10
30.91405999519315
 20
16.20129751473018
 10
41.83847203251275
 20
16.6609097822718
 10
46.89820090868557
 20
19.41857618469589
 10
56.55768598595637
 20
18.72915778338369
 10
67.82707963317875
 20
19.18877005092531
  0
LINE
  5
EF5
330
1A
100
AcDbEntity
  8
ZUWAKU
100
AcDbLine
 10
24.94221216833716
 20
23.24999986828864
 30
0.0
 11
26.86721216833712
 21
23.24999986828868
 31
0.0
  0
LINE
  5
EF6
330
1A
100
AcDbEntity
  8
ZUWAKU
100
AcDbLine
 10
26.86721216833712
 20
20.44999986828868
 30
0.0
 11
24.94221216833716
 21
20.44999986828868
 31
0.0
  0
LINE
  5
EF7
330
1A
100
AcDbEntity
  8
ZUWAKU
100
AcDbLine
 10
24.94221216833716
 20
9.949999868288685
 30
0.0
 11
26.86721216833712
 21
9.949999868288685
 31
0.0
  0
LINE
  5
EF8
330
1A
100
AcDbEntity
  8
ZUWAKU
100
AcDbLine
 10
26.86721216833712
 20
7.149999868288688
 30
0.0
 11
24.94221216833716
 21
7.149999868288688
 31
0.0
  0
CIRCLE
  5
EF9
330
1A
100
AcDbEntity
  8
ZUWAKU
100
AcDbCircle
 10
25.99221216833711
 20
15.19999986828868
 30
0.0
 40
1.75
  0
ARC
  5
EFA
330
1A
100
AcDbEntity
  8
ZUWAKU
100
AcDbCircle
 10
15.49221216833712
 20
18.63479784293338
 30
0.0
 40
1.399999999999999
100
AcDbArc
 50
180.0000000000016
 51
224.9999999999988
  0
LINE
  5
EFB
330
1A
100
AcDbEntity
  8
ZUWAKU
100
AcDbLine
 10
23.54221216833718
 20
19.04999986828868
 30
0.0
 11
23.54221216833718
 21
11.34999986828869
 31
0.0
  0
LINE
  5
EFC
330
1A
100
AcDbEntity
  8
ZUWAKU
100
AcDbLine
 10
20.74221216833711
 20
11.34999986828869
 30
0.0
 11
20.74221216833711
 21
19.04999986828864
 31
0.0
  0
ARC
  5
EFD
330
1A
100
AcDbEntity
  8
ZUWAKU
100
AcDbCircle
 10
15.49221216833712
 20
18.63479784293338
 30
0.0
 40
4.199999999999999
100
AcDbArc
 50
180.0
 51
225.0
  0
ARC
  5
EFE
330
1A
100
AcDbEntity
  8
ZUWAKU
100
AcDbCircle
 10
15.84221216833714
 20
9.949999868288685
 30
0.0
 40
2.799999999999999
100
AcDbArc
 50
270.0
 51
0.0
  0
ARC
  5
EFF
330
1A
100
AcDbEntity
  8
ZUWAKU
100
AcDbCircle
 10
24.94221216833716
 20
11.34999986828869
 30
0.0
 40
4.199999999999999
100
AcDbArc
 50
180.0
 51
270.0
  0
ARC
  5
F00
330
1A
100
AcDbEntity
  8
ZUWAKU
100
AcDbCircle
 10
14.44221216833716
 20
11.76520189364399
 30
0.0
 40
4.199999999999999
100
AcDbArc
 50
0.0
 51
45.0
  0
LINE
  5
F01
330
1A
100
AcDbEntity
  8
ZUWAKU
100
AcDbLine
 10
17.41206064932066
 20
14.73505037462751
 30
0.0
 11
14.50226267467598
 21
17.64484834927218
 31
0.0
  0
LINE
  5
F02
330
1A
100
AcDbEntity
  8
ZUWAKU
100
AcDbLine
 10
15.84221216833714
 20
10.47499986828869
 30
0.0
 11
15.84221216833714
 21
11.76520189364403
 31
0.0
  0
ARC
  5
F03
330
1A
100
AcDbEntity
  8
ZUWAKU
100
AcDbCircle
 10
15.31721216833716
 20
10.47499986828869
 30
0.0
 40
0.525
100
AcDbArc
 50
270.0
 51
0.0
  0
ARC
  5
F04
330
1A
100
AcDbEntity
  8
ZUWAKU
100
AcDbCircle
 10
14.44221216833716
 20
11.76520189364403
 30
0.0
 40
1.399999999999999
100
AcDbArc
 50
0.0
 51
45.0
  0
LINE
  5
F05
330
1A
100
AcDbEntity
  8
ZUWAKU
100
AcDbLine
 10
11.81721216833716
 20
7.674999868288686
 30
0.0
 11
11.81721216833716
 21
9.424999868288686
 31
0.0
  0
ARC
  5
F06
330
1A
100
AcDbEntity
  8
ZUWAKU
100
AcDbCircle
 10
12.34221216833714
 20
7.674999868288686
 30
0.0
 40
0.525
100
AcDbArc
 50
180.0
 51
270.0
  0
ARC
  5
F07
330
1A
100
AcDbEntity
  8
ZUWAKU
100
AcDbCircle
 10
12.34221216833714
 20
9.424999868288686
 30
0.0
 40
0.525
100
AcDbArc
 50
90.0
 51
180.0
  0
LINE
  5
F08
330
1A
100
AcDbEntity
  8
ZUWAKU
100
AcDbLine
 10
12.34221216833714
 20
7.149999868288688
 30
0.0
 11
15.84221216833714
 21
7.149999868288688
 31
0.0
  0
LINE
  5
F09
330
1A
100
AcDbEntity
  8
ZUWAKU
100
AcDbLine
 10
12.34221216833714
 20
9.949999868288685
 30
0.0
 11
15.31721216833716
 21
9.949999868288685
 31
0.0
  0
LINE
  5
F0A
330
1A
100
AcDbEntity
  8
ZUWAKU
100
AcDbLine
 10
12.52236368735361
 20
15.66494936194986
 30
0.0
 11
15.43216166199829
 21
12.7551513873052
 31
0.0
  0
LINE
  5
F0B
330
1A
100
AcDbEntity
  8
ZUWAKU
100
AcDbLine
 10
18.64221216833721
 20
9.949999868288685
 30
0.0
 11
18.64221216833721
 21
11.76520189364403
 31
0.0
  0
ARC
  5
F0C
330
1A
100
AcDbEntity
  8
ZUWAKU
100
AcDbCircle
 10
24.94221216833716
 20
11.34999986828869
 30
0.0
 40
1.399999999999999
100
AcDbArc
 50
180.0
 51
270.0
  0
ARC
  5
F0D
330
1A
100
AcDbEntity
  8
ZUWAKU
100
AcDbCircle
 10
17.59221216833714
 20
22.72499986828868
 30
0.0
 40
0.525
100
AcDbArc
 50
0.0
 51
90.0
  0
ARC
  5
F0E
330
1A
100
AcDbEntity
  8
ZUWAKU
100
AcDbCircle
 10
17.59221216833714
 20
20.97499986828868
 30
0.0
 40
0.525
100
AcDbArc
 50
270.0
 51
0.0
  0
LINE
  5
F0F
330
1A
100
AcDbEntity
  8
ZUWAKU
100
AcDbLine
 10
14.09221216833714
 20
23.24999986828868
 30
0.0
 11
17.59221216833714
 21
23.24999986828868
 31
0.0
  0
ARC
  5
F10
330
1A
100
AcDbEntity
  8
ZUWAKU
100
AcDbCircle
 10
14.61721216833711
 20
19.92499986828868
 30
0.0
 40
0.525
100
AcDbArc
 50
90.0
 51
180.0
  0
LINE
  5
F11
330
1A
100
AcDbEntity
  8
ZUWAKU
100
AcDbLine
 10
14.09221216833714
 20
19.92499986828868
 30
0.0
 11
14.09221216833714
 21
18.63479784293334
 31
0.0
  0
LINE
  5
F12
330
1A
100
AcDbEntity
  8
ZUWAKU
100
AcDbLine
 10
17.59221216833714
 20
20.44999986828868
 30
0.0
 11
14.61721216833711
 21
20.44999986828868
 31
0.0
  0
LINE
  5
F13
330
1A
100
AcDbEntity
  8
ZUWAKU
100
AcDbLine
 10
11.29221216833718
 20
20.44999986828868
 30
0.0
 11
11.29221216833718
 21
18.63479784293334
 31
0.0
  0
ARC
  5
F14
330
1A
100
AcDbEntity
  8
ZUWAKU
100
AcDbCircle
 10
14.09221216833714
 20
20.44999986828868
 30
0.0
 40
2.799999999999999
100
AcDbArc
 50
90.0
 51
180.0
  0
LINE
  5
F15
330
1A
100
AcDbEntity
  8
ZUWAKU
100
AcDbLine
 10
18.11721216833712
 20
22.72499986828868
 30
0.0
 11
18.11721216833712
 21
20.97499986828868
 31
0.0
  0
ARC
  5
F16
330
1A
100
AcDbEntity
  8
ZUWAKU
100
AcDbCircle
 10
24.94221216833716
 20
19.04999986828868
 30
0.0
 40
1.399999999999999
100
AcDbArc
 50
90.0
 51
180.0
  0
ARC
  5
F17
330
1A
100
AcDbEntity
  8
ZUWAKU
100
AcDbCircle
 10
24.94221216833716
 20
19.04999986828864
 30
0.0
 40
4.199999999999999
100
AcDbArc
 50
90.0
 51
180.0
  0
LINE
  5
F18
330
1A
100
AcDbEntity
  8
ZUWAKU
100
AcDbLine
 10
79.32662956154422
 20
29.99999986828868
 30
0.0
 11
79.32662956154445
 21
0.7999998682887508
 31
0.0
  0
LINE
  5
F19
330
1A
100
AcDbEntity
  8
ZUWAKU
100
AcDbLine
 10
79.52662956154426
 20
29.99999986828868
 30
0.0
 11
79.52662956154449
 21
0.7999998682887508
 31
0.0
  0
LINE
  5
F1A
330
1A
100
AcDbEntity
  8
ZUWAKU
100
AcDbLine
 10
79.12662956154441
 20
29.99999986828868
 30
0.0
 11
79.12662956154441
 21
0.7999998682887508
 31
0.0
  0
LINE
  5
F1B
330
1A
100
AcDbEntity
  8
ZUWAKU
100
AcDbLine
 10
64.14221216833721
 20
9.949999868288685
 30
0.0
 11
64.14221216833721
 21
22.72499986828868
 31
0.0
  0
LINE
  5
F1C
330
1A
100
AcDbEntity
  8
ZUWAKU
100
AcDbLine
 10
61.34221216833714
 20
22.72499986828868
 30
0.0
 11
61.34221216833714
 21
10.99999986828868
 31
0.0
  0
LINE
  5
F1D
330
1A
100
AcDbEntity
  8
ZUWAKU
100
AcDbLine
 10
69.04221216833718
 20
7.674999868288686
 30
0.0
 11
69.04221216833718
 21
22.72499986828868
 31
0.0
  0
LINE
  5
F1E
330
1A
100
AcDbEntity
  8
ZUWAKU
100
AcDbLine
 10
66.24221216833712
 20
22.72499986828868
 30
0.0
 11
66.24221216833712
 21
7.674999868288686
 31
0.0
  0
ARC
  5
F1F
330
1A
100
AcDbEntity
  8
ZUWAKU
100
AcDbCircle
 10
49.79221216833718
 20
18.63479784293338
 30
0.0
 40
1.399999999999999
100
AcDbArc
 50
180.0000000000016
 51
224.9999999999988
  0
ARC
  5
F20
330
1A
100
AcDbEntity
  8
ZUWAKU
100
AcDbCircle
 10
49.79221216833718
 20
18.63479784293338
 30
0.0
 40
4.199999999999999
100
AcDbArc
 50
180.0
 51
225.0
  0
LINE
  5
F21
330
1A
100
AcDbEntity
  8
ZUWAKU
100
AcDbLine
 10
37.31485865051513
 20
19.20504706185211
 30
0.0
 11
36.05010690517929
 21
15.1999998682887
 31
0.0
  0
LINE
  5
F22
330
1A
100
AcDbEntity
  8
ZUWAKU
100
AcDbLine
 10
40.69221216833716
 20
22.72499986828868
 30
0.0
 11
40.69221216833716
 21
7.674999868288686
 31
0.0
  0
LINE
  5
F23
330
1A
100
AcDbEntity
  8
ZUWAKU
100
AcDbLine
 10
43.49221216833711
 20
7.674999868288686
 30
0.0
 11
43.49221216833711
 21
22.72499986828868
 31
0.0
  0
LINE
  5
F24
330
1A
100
AcDbEntity
  8
ZUWAKU
100
AcDbLine
 10
55.04221216833719
 20
22.72499986828868
 30
0.0
 11
55.04221216833719
 21
9.949999868288685
 31
0.0
  0
LINE
  5
F25
330
1A
100
AcDbEntity
  8
ZUWAKU
100
AcDbLine
 10
57.84221216833714
 20
10.99999986828868
 30
0.0
 11
57.84221216833714
 21
22.72499986828868
 31
0.0
  0
LINE
  5
F26
330
1A
100
AcDbEntity
  8
ZUWAKU
100
AcDbLine
 10
32.64221216833721
 20
17.12499986828869
 30
0.0
 11
32.64221216833721
 21
22.72499986828868
 31
0.0
  0
LINE
  5
F27
330
1A
100
AcDbEntity
  8
ZUWAKU
100
AcDbLine
 10
29.84221216833714
 20
22.72499986828868
 30
0.0
 11
29.84221216833714
 21
7.674999868288686
 31
0.0
  0
LINE
  5
F28
330
1A
100
AcDbEntity
  8
ZUWAKU
100
AcDbLine
 10
35.676347105653
 20
22.88309383645565
 30
0.0
 11
33.80807723102122
 21
16.96690590012171
 31
0.0
  0
LINE
  5
F29
330
1A
100
AcDbEntity
  8
ZUWAKU
100
AcDbLine
 10
60.29221216833718
 20
9.949999868288685
 30
0.0
 11
58.89221216833721
 21
9.949999868288685
 31
0.0
  0
LINE
  5
F2A
330
1A
100
AcDbEntity
  8
ZUWAKU
100
AcDbLine
 10
57.84221216833714
 20
7.149999868288688
 30
0.0
 11
61.34221216833714
 21
7.149999868288688
 31
0.0
  0
LINE
  5
F2B
330
1A
100
AcDbEntity
  8
ZUWAKU
100
AcDbLine
 10
41.21721216833714
 20
7.149999868288688
 30
0.0
 11
42.96721216833714
 21
7.149999868288688
 31
0.0
  0
LINE
  5
F2C
330
1A
100
AcDbEntity
  8
ZUWAKU
100
AcDbLine
 10
35.676347105653
 20
7.516905900121713
 30
0.0
 11
33.80807723102122
 21
13.43309383645565
 31
0.0
  0
ARC
  5
F2D
330
1A
100
AcDbEntity
  8
ZUWAKU
100
AcDbCircle
 10
33.30744633182587
 20
17.12499986828869
 30
0.0
 40
0.525
100
AcDbArc
 50
270.0
 51
342.4744316262769
  0
LINE
  5
F2E
330
1A
100
AcDbEntity
  8
ZUWAKU
100
AcDbLine
 10
33.30744633182587
 20
16.59999986828868
 30
0.0
 11
33.16721216833718
 21
16.59999986828868
 31
0.0
  0
LINE
  5
F2F
330
1A
100
AcDbEntity
  8
ZUWAKU
100
AcDbLine
 10
33.16721216833718
 20
13.79999986828868
 30
0.0
 11
33.30744633182587
 21
13.79999986828868
 31
0.0
  0
ARC
  5
F30
330
1A
100
AcDbEntity
  8
ZUWAKU
100
AcDbCircle
 10
33.16721216833718
 20
17.12499986828869
 30
0.0
 40
0.525
100
AcDbArc
 50
180.0
 51
270.0
  0
LINE
  5
F31
330
1A
100
AcDbEntity
  8
ZUWAKU
100
AcDbLine
 10
30.36721216833711
 20
7.149999868288688
 30
0.0
 11
32.11721216833712
 21
7.149999868288688
 31
0.0
  0
ARC
  5
F32
330
1A
100
AcDbEntity
  8
ZUWAKU
100
AcDbCircle
 10
32.11721216833712
 20
7.674999868288686
 30
0.0
 40
0.525
100
AcDbArc
 50
270.0
 51
0.0
  0
LINE
  5
F33
330
1A
100
AcDbEntity
  8
ZUWAKU
100
AcDbLine
 10
32.64221216833721
 20
7.674999868288686
 30
0.0
 11
32.64221216833721
 21
13.27499986828868
 31
0.0
  0
LINE
  5
F34
330
1A
100
AcDbEntity
  8
ZUWAKU
100
AcDbLine
 10
27.39221216833721
 20
9.424999868288686
 30
0.0
 11
27.39221216833721
 21
7.674999868288686
 31
0.0
  0
ARC
  5
F35
330
1A
100
AcDbEntity
  8
ZUWAKU
100
AcDbCircle
 10
26.86721216833712
 20
7.674999868288686
 30
0.0
 40
0.525
100
AcDbArc
 50
270.0
 51
0.0
  0
ARC
  5
F36
330
1A
100
AcDbEntity
  8
ZUWAKU
100
AcDbCircle
 10
26.86721216833712
 20
9.424999868288686
 30
0.0
 40
0.525
100
AcDbArc
 50
0.0
 51
90.0
  0
ARC
  5
F37
330
1A
100
AcDbEntity
  8
ZUWAKU
100
AcDbCircle
 10
30.36721216833711
 20
7.674999868288686
 30
0.0
 40
0.525
100
AcDbArc
 50
180.0
 51
270.0
  0
ARC
  5
F38
330
1A
100
AcDbEntity
  8
ZUWAKU
100
AcDbCircle
 10
33.30744633182587
 20
13.27499986828868
 30
0.0
 40
0.525
100
AcDbArc
 50
17.52556837372303
 51
90.0
  0
ARC
  5
F39
330
1A
100
AcDbEntity
  8
ZUWAKU
100
AcDbCircle
 10
33.16721216833718
 20
13.27499986828868
 30
0.0
 40
0.525
100
AcDbArc
 50
90.0
 51
180.0
  0
ARC
  5
F3A
330
1A
100
AcDbEntity
  8
ZUWAKU
100
AcDbCircle
 10
41.21721216833714
 20
7.674999868288686
 30
0.0
 40
0.525
100
AcDbArc
 50
180.0
 51
270.0
  0
LINE
  5
F3B
330
1A
100
AcDbEntity
  8
ZUWAKU
100
AcDbLine
 10
36.17697800484847
 20
7.149999868288688
 30
0.0
 11
37.87586738445748
 21
7.149999868288688
 31
0.0
  0
ARC
  5
F3C
330
1A
100
AcDbEntity
  8
ZUWAKU
100
AcDbCircle
 10
37.87586738445748
 20
7.674999868288686
 30
0.0
 40
0.525
100
AcDbArc
 50
270.0
 51
17.52556837372303
  0
LINE
  5
F3D
330
1A
100
AcDbEntity
  8
ZUWAKU
100
AcDbLine
 10
38.37649828365295
 20
7.83309383645566
 30
0.0
 11
36.05010690517929
 21
15.1999998682887
 31
0.0
  0
ARC
  5
F3E
330
1A
100
AcDbEntity
  8
ZUWAKU
100
AcDbCircle
 10
36.17697800484847
 20
7.674999868288686
 30
0.0
 40
0.525
100
AcDbArc
 50
197.525568373723
 51
270.0
  0
ARC
  5
F3F
330
1A
100
AcDbEntity
  8
ZUWAKU
100
AcDbCircle
 10
57.84221216833714
 20
9.949999868288685
 30
0.0
 40
2.799999999999999
100
AcDbArc
 50
180.0
 51
270.0
  0
ARC
  5
F40
330
1A
100
AcDbEntity
  8
ZUWAKU
100
AcDbCircle
 10
50.14221216833721
 20
9.949999868288685
 30
0.0
 40
2.799999999999999
100
AcDbArc
 50
270.0
 51
0.0
  0
LINE
  5
F41
330
1A
100
AcDbEntity
  8
ZUWAKU
100
AcDbLine
 10
51.71206064932073
 20
14.73505037462751
 30
0.0
 11
48.80226267467595
 21
17.64484834927218
 31
0.0
  0
LINE
  5
F42
330
1A
100
AcDbEntity
  8
ZUWAKU
100
AcDbLine
 10
50.14221216833721
 20
10.47499986828869
 30
0.0
 11
50.14221216833721
 21
11.76520189364403
 31
0.0
  0
ARC
  5
F43
330
1A
100
AcDbEntity
  8
ZUWAKU
100
AcDbCircle
 10
48.74221216833712
 20
11.76520189364403
 30
0.0
 40
1.399999999999999
100
AcDbArc
 50
0.0
 51
45.0
  0
ARC
  5
F44
330
1A
100
AcDbEntity
  8
ZUWAKU
100
AcDbCircle
 10
49.61721216833712
 20
10.47499986828869
 30
0.0
 40
0.525
100
AcDbArc
 50
270.0
 51
0.0
  0
LINE
  5
F45
330
1A
100
AcDbEntity
  8
ZUWAKU
100
AcDbLine
 10
46.11721216833712
 20
7.674999868288686
 30
0.0
 11
46.11721216833712
 21
9.424999868288686
 31
0.0
  0
ARC
  5
F46
330
1A
100
AcDbEntity
  8
ZUWAKU
100
AcDbCircle
 10
46.64221216833721
 20
7.674999868288686
 30
0.0
 40
0.525
100
AcDbArc
 50
180.0
 51
270.0
  0
ARC
  5
F47
330
1A
100
AcDbEntity
  8
ZUWAKU
100
AcDbCircle
 10
42.96721216833714
 20
7.674999868288686
 30
0.0
 40
0.525
100
AcDbArc
 50
270.0
 51
0.0
  0
ARC
  5
F48
330
1A
100
AcDbEntity
  8
ZUWAKU
100
AcDbCircle
 10
46.64221216833721
 20
9.424999868288686
 30
0.0
 40
0.525
100
AcDbArc
 50
90.0
 51
180.0
  0
LINE
  5
F49
330
1A
100
AcDbEntity
  8
ZUWAKU
100
AcDbLine
 10
46.64221216833721
 20
9.949999868288685
 30
0.0
 11
49.61721216833712
 21
9.949999868288685
 31
0.0
  0
LINE
  5
F4A
330
1A
100
AcDbEntity
  8
ZUWAKU
100
AcDbLine
 10
46.64221216833721
 20
7.149999868288688
 30
0.0
 11
50.14221216833721
 21
7.149999868288688
 31
0.0
  0
LINE
  5
F4B
330
1A
100
AcDbEntity
  8
ZUWAKU
100
AcDbLine
 10
46.82236368735368
 20
15.66494936194986
 30
0.0
 11
49.73216166199836
 21
12.7551513873052
 31
0.0
  0
LINE
  5
F4C
330
1A
100
AcDbEntity
  8
ZUWAKU
100
AcDbLine
 10
52.94221216833716
 20
9.949999868288685
 30
0.0
 11
52.94221216833716
 21
11.76520189364403
 31
0.0
  0
ARC
  5
F4D
330
1A
100
AcDbEntity
  8
ZUWAKU
100
AcDbCircle
 10
48.74221216833712
 20
11.76520189364399
 30
0.0
 40
4.199999999999999
100
AcDbArc
 50
0.0
 51
45.0
  0
ARC
  5
F4E
330
1A
100
AcDbEntity
  8
ZUWAKU
100
AcDbCircle
 10
58.89221216833721
 20
10.99999986828868
 30
0.0
 40
1.049999999999999
100
AcDbArc
 50
180.0
 51
270.0
  0
ARC
  5
F4F
330
1A
100
AcDbEntity
  8
ZUWAKU
100
AcDbCircle
 10
61.34221216833714
 20
9.949999868288685
 30
0.0
 40
2.799999999999999
100
AcDbArc
 50
270.0
 51
0.0
  0
LINE
  5
F50
330
1A
100
AcDbEntity
  8
ZUWAKU
100
AcDbLine
 10
66.76721216833721
 20
7.149999868288688
 30
0.0
 11
68.51721216833721
 21
7.149999868288688
 31
0.0
  0
ARC
  5
F51
330
1A
100
AcDbEntity
  8
ZUWAKU
100
AcDbCircle
 10
66.76721216833721
 20
7.674999868288686
 30
0.0
 40
0.525
100
AcDbArc
 50
180.0
 51
270.0
  0
ARC
  5
F52
330
1A
100
AcDbEntity
  8
ZUWAKU
100
AcDbCircle
 10
60.29221216833718
 20
10.99999986828868
 30
0.0
 40
1.049999999999999
100
AcDbArc
 50
270.0
 51
0.0
  0
ARC
  5
F53
330
1A
100
AcDbEntity
  8
ZUWAKU
100
AcDbCircle
 10
68.51721216833721
 20
7.674999868288686
 30
0.0
 40
0.525
100
AcDbArc
 50
270.0
 51
0.0
  0
LINE
  5
F54
330
1A
100
AcDbEntity
  8
ZUWAKU
100
AcDbLine
 10
42.96721216833714
 20
23.24999986828868
 30
0.0
 11
41.21721216833714
 21
23.24999986828868
 31
0.0
  0
ARC
  5
F55
330
1A
100
AcDbEntity
  8
ZUWAKU
100
AcDbCircle
 10
32.11721216833712
 20
22.72499986828868
 30
0.0
 40
0.525
100
AcDbArc
 50
0.0
 51
90.0
  0
LINE
  5
F56
330
1A
100
AcDbEntity
  8
ZUWAKU
100
AcDbLine
 10
32.11721216833712
 20
23.24999986828868
 30
0.0
 11
30.36721216833711
 21
23.24999986828868
 31
0.0
  0
ARC
  5
F57
330
1A
100
AcDbEntity
  8
ZUWAKU
100
AcDbCircle
 10
26.86721216833712
 20
22.72499986828868
 30
0.0
 40
0.525
100
AcDbArc
 50
0.0
 51
90.0
  0
ARC
  5
F58
330
1A
100
AcDbEntity
  8
ZUWAKU
100
AcDbCircle
 10
30.36721216833711
 20
22.72499986828868
 30
0.0
 40
0.525
100
AcDbArc
 50
90.0
 51
180.0
  0
ARC
  5
F59
330
1A
100
AcDbEntity
  8
ZUWAKU
100
AcDbCircle
 10
26.86721216833712
 20
20.97499986828868
 30
0.0
 40
0.525
100
AcDbArc
 50
270.0
 51
0.0
  0
LINE
  5
F5A
330
1A
100
AcDbEntity
  8
ZUWAKU
100
AcDbLine
 10
27.39221216833721
 20
22.72499986828868
 30
0.0
 11
27.39221216833721
 21
20.97499986828868
 31
0.0
  0
ARC
  5
F5B
330
1A
100
AcDbEntity
  8
ZUWAKU
100
AcDbCircle
 10
41.21721216833714
 20
22.72499986828868
 30
0.0
 40
0.525
100
AcDbArc
 50
90.0
 51
180.0
  0
LINE
  5
F5C
330
1A
100
AcDbEntity
  8
ZUWAKU
100
AcDbLine
 10
36.17697800484847
 20
23.24999986828868
 30
0.0
 11
37.87586738445748
 21
23.24999986828868
 31
0.0
  0
ARC
  5
F5D
330
1A
100
AcDbEntity
  8
ZUWAKU
100
AcDbCircle
 10
37.87586738445748
 20
22.72499986828868
 30
0.0
 40
0.525
100
AcDbArc
 50
342.4744316262769
 51
90.0
  0
LINE
  5
F5E
330
1A
100
AcDbEntity
  8
ZUWAKU
100
AcDbLine
 10
38.37649828365295
 20
22.56690590012171
 30
0.0
 11
37.31485865051513
 21
19.20504706185211
 31
0.0
  0
ARC
  5
F5F
330
1A
100
AcDbEntity
  8
ZUWAKU
100
AcDbCircle
 10
36.17697800484847
 20
22.72499986828868
 30
0.0
 40
0.525
100
AcDbArc
 50
90.0
 51
162.4744316262769
  0
LINE
  5
F60
330
1A
100
AcDbEntity
  8
ZUWAKU
100
AcDbLine
 10
48.3922121683372
 20
23.24999986828868
 30
0.0
 11
51.89221216833721
 21
23.24999986828868
 31
0.0
  0
LINE
  5
F61
330
1A
100
AcDbEntity
  8
ZUWAKU
100
AcDbLine
 10
51.89221216833721
 20
20.44999986828868
 30
0.0
 11
48.91721216833719
 21
20.44999986828868
 31
0.0
  0
ARC
  5
F62
330
1A
100
AcDbEntity
  8
ZUWAKU
100
AcDbCircle
 10
48.91721216833719
 20
19.92499986828868
 30
0.0
 40
0.525
100
AcDbArc
 50
90.0
 51
180.0
  0
LINE
  5
F63
330
1A
100
AcDbEntity
  8
ZUWAKU
100
AcDbLine
 10
48.3922121683372
 20
19.92499986828868
 30
0.0
 11
48.3922121683372
 21
18.63479784293334
 31
0.0
  0
ARC
  5
F64
330
1A
100
AcDbEntity
  8
ZUWAKU
100
AcDbCircle
 10
42.96721216833714
 20
22.72499986828868
 30
0.0
 40
0.525
100
AcDbArc
 50
0.0
 51
90.0
  0
LINE
  5
F65
330
1A
100
AcDbEntity
  8
ZUWAKU
100
AcDbLine
 10
45.59221216833714
 20
20.44999986828868
 30
0.0
 11
45.59221216833714
 21
18.63479784293334
 31
0.0
  0
ARC
  5
F66
330
1A
100
AcDbEntity
  8
ZUWAKU
100
AcDbCircle
 10
48.3922121683372
 20
20.44999986828868
 30
0.0
 40
2.799999999999999
100
AcDbArc
 50
90.0
 51
180.0
  0
ARC
  5
F67
330
1A
100
AcDbEntity
  8
ZUWAKU
100
AcDbCircle
 10
57.31721216833716
 20
22.72499986828868
 30
0.0
 40
0.525
100
AcDbArc
 50
0.0
 51
90.0
  0
ARC
  5
F68
330
1A
100
AcDbEntity
  8
ZUWAKU
100
AcDbCircle
 10
55.56721216833716
 20
22.72499986828868
 30
0.0
 40
0.525
100
AcDbArc
 50
90.0
 51
180.0
  0
LINE
  5
F69
330
1A
100
AcDbEntity
  8
ZUWAKU
100
AcDbLine
 10
57.31721216833716
 20
23.24999986828868
 30
0.0
 11
55.56721216833716
 21
23.24999986828868
 31
0.0
  0
ARC
  5
F6A
330
1A
100
AcDbEntity
  8
ZUWAKU
100
AcDbCircle
 10
51.89221216833721
 20
22.72499986828868
 30
0.0
 40
0.525
100
AcDbArc
 50
0.0
 51
90.0
  0
ARC
  5
F6B
330
1A
100
AcDbEntity
  8
ZUWAKU
100
AcDbCircle
 10
51.89221216833721
 20
20.97499986828868
 30
0.0
 40
0.525
100
AcDbArc
 50
270.0
 51
0.0
  0
LINE
  5
F6C
330
1A
100
AcDbEntity
  8
ZUWAKU
100
AcDbLine
 10
52.41721216833719
 20
22.72499986828868
 30
0.0
 11
52.41721216833719
 21
20.97499986828868
 31
0.0
  0
LINE
  5
F6D
330
1A
100
AcDbEntity
  8
ZUWAKU
100
AcDbLine
 10
68.51721216833721
 20
23.24999986828868
 30
0.0
 11
66.76721216833721
 21
23.24999986828868
 31
0.0
  0
ARC
  5
F6E
330
1A
100
AcDbEntity
  8
ZUWAKU
100
AcDbCircle
 10
66.76721216833721
 20
22.72499986828868
 30
0.0
 40
0.525
100
AcDbArc
 50
90.0
 51
180.0
  0
ARC
  5
F6F
330
1A
100
AcDbEntity
  8
ZUWAKU
100
AcDbCircle
 10
63.61721216833712
 20
22.72499986828868
 30
0.0
 40
0.525
100
AcDbArc
 50
0.0
 51
90.0
  0
LINE
  5
F70
330
1A
100
AcDbEntity
  8
ZUWAKU
100
AcDbLine
 10
63.61721216833712
 20
23.24999986828868
 30
0.0
 11
61.86721216833712
 21
23.24999986828868
 31
0.0
  0
ARC
  5
F71
330
1A
100
AcDbEntity
  8
ZUWAKU
100
AcDbCircle
 10
61.86721216833712
 20
22.72499986828868
 30
0.0
 40
0.525
100
AcDbArc
 50
90.0
 51
180.0
  0
ARC
  5
F72
330
1A
100
AcDbEntity
  8
ZUWAKU
100
AcDbCircle
 10
68.51721216833721
 20
22.72499986828868
 30
0.0
 40
0.525
100
AcDbArc
 50
0.0
 51
90.0
  0
TEXT
  5
F73
330
1A
100
AcDbEntity
  8
MOJI
100
AcDbText
 10
239.827202694407
 20
18.00492092569607
 30
0.0
 40
5.599999999999999
  1
曲りⅢ（出）
 41
0.9
  7
ｽﾀｲﾙ1
100
AcDbText
  0
TEXT
  5
F74
330
1A
100
AcDbEntity
  8
MOJI
100
AcDbText
 10
239.827202694407
 20
3.204920925696104
 30
0.0
 40
5.599999999999999
  1
Ｔ１２０
 41
0.9
  7
ｽﾀｲﾙ1
100
AcDbText
  0
LINE
  5
F75
330
1A
100
AcDbEntity
  8
ZUWAKU
100
AcDbLine
 10
208.2466013036239
 20
29.99999986828868
 30
0.0
 11
208.2466013036239
 21
0.7999998682887508
 31
0.0
  0
LINE
  5
F76
330
1A
100
AcDbEntity
  8
ZUWAKU
100
AcDbLine
 10
208.6466013036238
 20
29.99999986828868
 30
0.0
 11
208.646601303624
 21
0.7999998682887508
 31
0.0
  0
LINE
  5
F77
330
1A
100
AcDbEntity
  8
ZUWAKU
100
AcDbLine
 10
208.4466013036237
 20
29.99999986828868
 30
0.0
 11
208.446601303624
 21
0.7999998682887508
 31
0.0
  0
TEXT
  5
F78
330
1A
100
AcDbEntity
  8
ZUWAKU
100
AcDbText
 10
209.7240463258335
 20
9.6553564066743
 30
0.0
 40
4.0
  1
サイズ
 41
0.9
  7
ｽﾀｲﾙ1
100
AcDbText
  0
TEXT
  5
F79
330
1A
100
AcDbEntity
  8
ZUWAKU
100
AcDbText
 10
209.7240463258333
 20
24.05535640667426
 30
0.0
 40
4.0
  1
品名
 41
0.9
  7
ｽﾀｲﾙ1
100
AcDbText
  0
LINE
  5
F7A
330
1A
100
AcDbEntity
  8
ZUWAKU
100
AcDbLine
 10
648.8172025237602
 20
15.19999986828871
 30
0.0
 11
697.2490105620972
 21
15.19999986828871
 31
0.0
  0
LINE
  5
F7B
330
1A
100
AcDbEntity
  8
ZUWAKU
100
AcDbLine
 10
648.8172025237604
 20
15.39999986828872
 30
0.0
 11
697.2490105620972
 21
15.39999986828871
 31
0.0
  0
LINE
  5
F7C
330
1A
100
AcDbEntity
  8
ZUWAKU
100
AcDbLine
 10
648.8172025237602
 20
15.59999986828871
 30
0.0
 11
697.2490105620972
 21
15.59999986828871
 31
0.0
  0
TEXT
  5
F7D
330
1A
100
AcDbEntity
  8
ZUWAKU
100
AcDbText
 10
656.0374517031416
 20
18.66376316516152
 30
0.0
 40
5.599999999999999
  1
　　．  ．　　
 41
0.9
  7
ｽﾀｲﾙ1
100
AcDbText
  0
LINE
  5
F7E
330
1A
100
AcDbEntity
  8
ZUWAKU
100
AcDbLine
 10
505.1991795116968
 20
15.19999986828872
 30
0.0
 11
552.5269557796685
 21
15.19999986828872
 31
0.0
  0
LINE
  5
F7F
330
1A
100
AcDbEntity
  8
ZUWAKU
100
AcDbLine
 10
505.1991795116968
 20
15.39999986828871
 30
0.0
 11
552.5269557796685
 21
15.39999986828871
 31
0.0
  0
LINE
  5
F80
330
1A
100
AcDbEntity
  8
ZUWAKU
100
AcDbLine
 10
505.1991795116968
 20
15.59999986828871
 30
0.0
 11
552.5269557796685
 21
15.59999986828871
 31
0.0
  0
TEXT
  5
F81
330
1A
100
AcDbEntity
  8
MOJI
100
AcDbText
 10
463.246432004558
 20
11.94261758994866
 30
0.0
 40
5.599999999999999
  1
ＰＥ３８□
 41
0.9
  7
ｽﾀｲﾙ1
100
AcDbText
  0
LINE
  5
F82
330
1A
100
AcDbEntity
  8
ZUWAKU
100
AcDbLine
 10
447.6243639845472
 20
29.99999986828868
 30
0.0
 11
447.6243639845474
 21
0.7999998682887508
 31
0.0
  0
LINE
  5
F83
330
1A
100
AcDbEntity
  8
ZUWAKU
100
AcDbLine
 10
447.8243639845472
 20
29.99999986828868
 30
0.0
 11
447.8243639845475
 21
0.7999998682887508
 31
0.0
  0
LINE
  5
F84
330
1A
100
AcDbEntity
  8
ZUWAKU
100
AcDbLine
 10
447.4243639845474
 20
29.99999986828868
 30
0.0
 11
447.4243639845474
 21
0.7999998682887508
 31
0.0
  0
TEXT
  5
F85
330
1A
100
AcDbEntity
  8
MOJI
100
AcDbText
 10
528.0409079858689
 20
18.00492092569607
 30
0.0
 40
5.599999999999999
  1
Ａ３
 41
0.9
  7
ｽﾀｲﾙ1
100
AcDbText
  0
LINE
  5
F86
330
1A
100
AcDbEntity
  8
ZUWAKU
100
AcDbLine
 10
504.9991795116969
 20
29.99999986828868
 30
0.0
 11
504.999179511697
 21
0.7999998682887508
 31
0.0
  0
LINE
  5
F87
330
1A
100
AcDbEntity
  8
ZUWAKU
100
AcDbLine
 10
505.1991795116968
 20
29.99999986828868
 30
0.0
 11
505.1991795116971
 21
0.7999998682887508
 31
0.0
  0
LINE
  5
F88
330
1A
100
AcDbEntity
  8
ZUWAKU
100
AcDbLine
 10
504.799179511697
 20
29.99999986828868
 30
0.0
 11
504.799179511697
 21
0.7999998682887508
 31
0.0
  0
TEXT
  5
F89
330
1A
100
AcDbEntity
  8
ZUWAKU
100
AcDbText
 10
464.8746088508221
 20
2.614070779428175
 30
0.0
 40
3.0
  1
□には色品番が入ります
 41
0.9
  7
ｽﾀｲﾙ1
100
AcDbText
  0
TEXT
  5
F8A
330
1A
100
AcDbEntity
  8
ZUWAKU
100
AcDbText
 10
506.6766245339067
 20
9.6553564066743
 30
0.0
 40
4.0
  1
縮尺
 41
0.9
  7
ｽﾀｲﾙ1
100
AcDbText
  0
TEXT
  5
F8B
330
1A
100
AcDbEntity
  8
MOJI
100
AcDbText
 10
528.0409079858689
 20
3.204920925696104
 30
0.0
 40
5.599999999999999
  1
１/２
 41
0.9
  7
ｽﾀｲﾙ1
100
AcDbText
  0
TEXT
  5
F8C
330
1A
100
AcDbEntity
  8
ZUWAKU
100
AcDbText
 10
449.3018090067569
 20
24.05535640667426
 30
0.0
 40
4.0
  1
品番
 41
0.9
  7
ｽﾀｲﾙ1
100
AcDbText
  0
TEXT
  5
F8D
330
1A
100
AcDbEntity
  8
ZUWAKU
100
AcDbText
 10
506.6766245339065
 20
24.05535640667426
 30
0.0
 40
4.0
  1
用紙
 41
0.9
  7
ｽﾀｲﾙ1
100
AcDbText
  0
LINE
  5
F8E
330
1A
100
AcDbEntity
  8
ZUWAKU
100
AcDbLine
 10
648.6172025237603
 20
29.99999986828868
 30
0.0
 11
648.6172025237606
 21
0.7999998682887508
 31
0.0
  0
LINE
  5
F8F
330
1A
100
AcDbEntity
  8
ZUWAKU
100
AcDbLine
 10
648.8172025237604
 20
29.99999986828868
 30
0.0
 11
648.8172025237607
 21
0.7999998682887508
 31
0.0
  0
LINE
  5
F90
330
1A
100
AcDbEntity
  8
ZUWAKU
100
AcDbLine
 10
648.4172025237605
 20
29.99999986828868
 30
0.0
 11
648.4172025237605
 21
0.7999998682887508
 31
0.0
  0
LINE
  5
F91
330
1A
100
AcDbEntity
  8
ZUWAKU
100
AcDbLine
 10
552.7269557796683
 20
29.99999986828868
 30
0.0
 11
552.7269557796684
 21
0.7999998682887508
 31
0.0
  0
LINE
  5
F92
330
1A
100
AcDbEntity
  8
ZUWAKU
100
AcDbLine
 10
552.9269557796683
 20
29.99999986828868
 30
0.0
 11
552.9269557796685
 21
0.7999998682887508
 31
0.0
  0
LINE
  5
F93
330
1A
100
AcDbEntity
  8
ZUWAKU
100
AcDbLine
 10
552.5269557796685
 20
29.99999986828868
 30
0.0
 11
552.5269557796685
 21
0.7999998682887508
 31
0.0
  0
TEXT
  5
F94
330
1A
100
AcDbEntity
  8
ZUWAKU
100
AcDbText
 10
650.29464754597
 20
24.05535640667426
 30
0.0
 40
4.0
  1
DATE
 41
0.9
  7
ｽﾀｲﾙ1
100
AcDbText
  0
LINE
  5
F95
330
1A
100
AcDbEntity
  8
ZUWAKU
100
AcDbLine
 10
697.2490105620972
 20
29.99999986828868
 30
0.0
 11
697.2490105620972
 21
0.7999998682887508
 31
0.0
  0
LINE
  5
F96
330
1A
100
AcDbEntity
  8
ZUWAKU
100
AcDbLine
 10
697.4490105620973
 20
29.99999986828868
 30
0.0
 11
697.4490105620973
 21
0.7999998682887508
 31
0.0
  0
LINE
  5
F97
330
1A
100
AcDbEntity
  8
ZUWAKU
100
AcDbLine
 10
697.6490105620971
 20
29.99999986828868
 30
0.0
 11
697.6490105620974
 21
0.7999998682887508
 31
0.0
  0
LINE
  5
F98
330
1A
100
AcDbEntity
  8
ZUWAKU
100
AcDbLine
 10
697.8490105620972
 20
29.99999986828868
 30
0.0
 11
697.8490105620974
 21
0.7999998682887508
 31
0.0
  0
TEXT
  5
F99
330
1A
100
AcDbEntity
  8
ZUWAKU
100
AcDbText
 10
708.5280842057998
 20
17.55383920397548
 30
0.0
 40
6.0
  1
積水化学工業株式会社
 41
0.9
  7
ｽﾀｲﾙ1
100
AcDbText
  0
TEXT
  5
F9A
330
1A
100
AcDbEntity
  8
ZUWAKU
100
AcDbText
 10
708.5280842057998
 20
6.648840182142748
 30
0.0
 40
6.0
  1
建材事業部
 41
0.9
  7
ｽﾀｲﾙ1
100
AcDbText
  0
VIEWPORT
  5
22
330
17
100
AcDbEntity
 67
     1
  8
0
100
AcDbViewport
 10
313.6808219178082
 20
148.5
 30
0.0
 40
627.3616438356165
 41
297.0
 68
     2
 69
     1
1001
ACAD
1000
MVIEW
1002
{
1070
    16
1010
0.0
1020
0.0
1030
0.0
1010
0.0
1020
0.0
1030
1.0
1040
0.0
1040
297.0
1040
313.6808219178082
1040
148.5
1040
50.0
1040
0.0
1040
0.0
1070
     0
1070
   100
1070
     1
1070
     0
1070
     0
1070
     0
1070
     0
1070
     0
1040
0.0
1040
0.0
1040
0.0
1040
1.0
1040
1.0
1040
10.0
1040
10.0
1070
     0
1002
{
1002
}
1002
}
  0
VIEWPORT
  5
64
330
17
100
AcDbEntity
 67
     1
  8
VIEWPORT
100
AcDbViewport
 10
210.0
 20
148.5
 30
0.0
 40
420.0
 41
297.0
 68
     1
 69
     2
1001
ACAD
1000
MVIEW
1002
{
1070
    16
1010
0.0
1020
0.0
1030
0.0
1010
0.0
1020
0.0
1030
1.0
1040
0.0
1040
605.8799999999998
1040
420.0
1040
297.0
1040
50.0
1040
0.0
1040
0.0
1070
     0
1070
   100
1070
     1
1070
     0
1070
     0
1070
     0
1070
     0
1070
     0
1040
0.0
1040
0.0
1040
0.0
1040
10.0
1040
10.0
1040
0.0
1040
0.0
1070
     0
1002
{
1002
}
1002
}
  0
ENDSEC
  0
SECTION
  2
OBJECTS
  0
DICTIONARY
  5
C
330
0
100
AcDbDictionary
  3
ACAD_GROUP
350
D
  3
ACAD_LAYOUT
350
14C
  3
ACAD_MLINESTYLE
350
E
  3
ACAD_PLOTSETTINGS
350
14D
  3
ACAD_PLOTSTYLENAME
350
14A
  3
ACDBHEADERROUNDTRIPXREC
350
FA8
  0
DICTIONARY
  5
CFB
330
1A
100
AcDbDictionary
280
     1
  3
ACAD_LAYOUTSELFREF
360
FCA
  0
DICTIONARY
  5
CF9
330
17
100
AcDbDictionary
280
     1
  3
ACAD_LAYOUTSELFREF
360
FC9
  0
DICTIONARY
  5
D
102
{ACAD_REACTORS
330
C
102
}
330
C
100
AcDbDictionary
  0
DICTIONARY
  5
14C
102
{ACAD_REACTORS
330
C
102
}
330
C
100
AcDbDictionary
  0
DICTIONARY
  5
E
102
{ACAD_REACTORS
330
C
102
}
330
C
100
AcDbDictionary
  3
STANDARD
350
13
  0
DICTIONARY
  5
14D
102
{ACAD_REACTORS
330
C
102
}
330
C
100
AcDbDictionary
  0
ACDBDICTIONARYWDFLT
  5
14A
102
{ACAD_REACTORS
330
C
102
}
330
C
100
AcDbDictionary
281
     1
  3
Normal
350
14B
100
AcDbDictionaryWithDefault
340
14B
1001
ACAD
1000
TREAT_AS_HARD
1070
     0
1000
TREAT_AS_HARD
1070
     0
  0
DICTIONARY
  5
FA8
102
{ACAD_REACTORS
330
C
102
}
330
C
100
AcDbDictionary
  3
TSTACKALIGN
350
FA9
  3
TSTACKSIZE
350
FAA
  3
HYPERLINKBASE
350
FAB
  3
STYLESHEET
350
FAC
  3
LAYOUTDICT
350
FAD
  3
PLOTSETDICT
350
FAE
  3
PLOTSTYLNAMDICT
350
FAF
  3
LWETCUNION
350
FB0
  3
INSUNITS
350
FB1
  3
CEPSNTYPE
350
FB2
  3
FINGERPRINTGUID
350
FB3
  3
VERSIONGUID
350
FB4
  3
PSVPSCALE
350
FB5
  3
DIMSTYLEDATA
350
FB6
  3
PUCSORTHOREF
350
FB7
  3
PUCSORTHOVIEW
350
FB8
  3
PUCSBASE
350
FB9
  3
PUCSORGTOP
350
FBA
  3
PUCSORGBOTTOM
350
FBB
  3
PUCSORGLEFT
350
FBC
  3
PUCSORGRIGHT
350
FBD
  3
PUCSORGFRONT
350
FBE
  3
PUCSORGBACK
350
FBF
  3
UCSORTHOREF
350
FC0
  3
UCSORTHOVIEW
350
FC1
  3
UCSBASE
350
FC2
  3
UCSORGTOP
350
FC3
  3
UCSORGBOTTOM
350
FC4
  3
UCSORGLEFT
350
FC5
  3
UCSORGRIGHT
350
FC6
  3
UCSORGFRONT
350
FC7
  3
UCSORGBACK
350
FC8
  0
XRECORD
  5
FCA
102
{ACAD_REACTORS
330
CFB
102
}
330
CFB
100
AcDbXrecord
340
1A
  0
XRECORD
  5
FC9
102
{ACAD_REACTORS
330
CF9
102
}
330
CF9
100
AcDbXrecord
340
17
  0
MLINESTYLE
  5
13
102
{ACAD_REACTORS
330
E
102
}
330
E
100
AcDbMlineStyle
  2
STANDARD
 70
     0
  3

 62
     0
 51
90.0
 52
90.0
 71
     2
 49
0.5
 62
   256
  6
BYLAYER
 49
-0.5
 62
   256
  6
BYLAYER
  0
ACDBPLACEHOLDER
  5
14B
102
{ACAD_REACTORS
330
14A
102
}
330
14A
100
AcDbPlaceHolder
280
     0
  0
XRECORD
  5
FA9
102
{ACAD_REACTORS
330
FA8
102
}
330
FA8
100
AcDbXrecord
 90
        1
  0
XRECORD
  5
FAA
102
{ACAD_REACTORS
330
FA8
102
}
330
FA8
100
AcDbXrecord
 90
       70
  0
XRECORD
  5
FAB
102
{ACAD_REACTORS
330
FA8
102
}
330
FA8
100
AcDbXrecord
  1

  0
XRECORD
  5
FAC
102
{ACAD_REACTORS
330
FA8
102
}
330
FA8
100
AcDbXrecord
  1
systemprinter.ctb
  0
XRECORD
  5
FAD
102
{ACAD_REACTORS
330
FA8
102
}
330
FA8
100
AcDbXrecord
340
14C
  0
XRECORD
  5
FAE
102
{ACAD_REACTORS
330
FA8
102
}
330
FA8
100
AcDbXrecord
340
14D
  0
XRECORD
  5
FAF
102
{ACAD_REACTORS
330
FA8
102
}
330
FA8
100
AcDbXrecord
340
14A
  0
XRECORD
  5
FB0
102
{ACAD_REACTORS
330
FA8
102
}
330
FA8
100
AcDbXrecord
 90
    10781
  0
XRECORD
  5
FB1
102
{ACAD_REACTORS
330
FA8
102
}
330
FA8
100
AcDbXrecord
 90
        0
  0
XRECORD
  5
FB2
102
{ACAD_REACTORS
330
FA8
102
}
330
FA8
100
AcDbXrecord
 90
        0
  0
XRECORD
  5
FB3
102
{ACAD_REACTORS
330
FA8
102
}
330
FA8
100
AcDbXrecord
  1
{75772F4A-CE5A-11D3-932C-444553540000}
  0
XRECORD
  5
FB4
102
{ACAD_REACTORS
330
FA8
102
}
330
FA8
100
AcDbXrecord
  1
{453421E1-CA43-4553-B93B-CEE3619A2A01}
  0
XRECORD
  5
FB5
102
{ACAD_REACTORS
330
FA8
102
}
330
FA8
100
AcDbXrecord
 40
0.0
  0
XRECORD
  5
FB6
102
{ACAD_REACTORS
330
FA8
102
}
330
FA8
100
AcDbXrecord
1000
DSTYLE
1002
{
1070
   341
340
6D
1070
   343
340
6D
1070
   344
340
6D
1070
   371
 70
    -1
1070
   372
 70
    -1
1002
}
  0
XRECORD
  5
FB7
102
{ACAD_REACTORS
330
FA8
102
}
330
FA8
100
AcDbXrecord
340
0
  0
XRECORD
  5
FB8
102
{ACAD_REACTORS
330
FA8
102
}
330
FA8
100
AcDbXrecord
 70
     0
  0
XRECORD
  5
FB9
102
{ACAD_REACTORS
330
FA8
102
}
330
FA8
100
AcDbXrecord
340
0
  0
XRECORD
  5
FBA
102
{ACAD_REACTORS
330
FA8
102
}
330
FA8
100
AcDbXrecord
 10
0.0
 20
0.0
 30
0.0
  0
XRECORD
  5
FBB
102
{ACAD_REACTORS
330
FA8
102
}
330
FA8
100
AcDbXrecord
 10
0.0
 20
0.0
 30
0.0
  0
XRECORD
  5
FBC
102
{ACAD_REACTORS
330
FA8
102
}
330
FA8
100
AcDbXrecord
 10
0.0
 20
0.0
 30
0.0
  0
XRECORD
  5
FBD
102
{ACAD_REACTORS
330
FA8
102
}
330
FA8
100
AcDbXrecord
 10
0.0
 20
0.0
 30
0.0
  0
XRECORD
  5
FBE
102
{ACAD_REACTORS
330
FA8
102
}
330
FA8
100
AcDbXrecord
 10
0.0
 20
0.0
 30
0.0
  0
XRECORD
  5
FBF
102
{ACAD_REACTORS
330
FA8
102
}
330
FA8
100
AcDbXrecord
 10
0.0
 20
0.0
 30
0.0
  0
XRECORD
  5
FC0
102
{ACAD_REACTORS
330
FA8
102
}
330
FA8
100
AcDbXrecord
340
0
  0
XRECORD
  5
FC1
102
{ACAD_REACTORS
330
FA8
102
}
330
FA8
100
AcDbXrecord
 70
     0
  0
XRECORD
  5
FC2
102
{ACAD_REACTORS
330
FA8
102
}
330
FA8
100
AcDbXrecord
340
0
  0
XRECORD
  5
FC3
102
{ACAD_REACTORS
330
FA8
102
}
330
FA8
100
AcDbXrecord
 10
0.0
 20
0.0
 30
0.0
  0
XRECORD
  5
FC4
102
{ACAD_REACTORS
330
FA8
102
}
330
FA8
100
AcDbXrecord
 10
0.0
 20
0.0
 30
0.0
  0
XRECORD
  5
FC5
102
{ACAD_REACTORS
330
FA8
102
}
330
FA8
100
AcDbXrecord
 10
0.0
 20
0.0
 30
0.0
  0
XRECORD
  5
FC6
102
{ACAD_REACTORS
330
FA8
102
}
330
FA8
100
AcDbXrecord
 10
0.0
 20
0.0
 30
0.0
  0
XRECORD
  5
FC7
102
{ACAD_REACTORS
330
FA8
102
}
330
FA8
100
AcDbXrecord
 10
0.0
 20
0.0
 30
0.0
  0
XRECORD
  5
FC8
102
{ACAD_REACTORS
330
FA8
102
}
330
FA8
100
AcDbXrecord
 10
0.0
 20
0.0
 30
0.0
  0
ENDSEC
  0
EOF
