  0
SECTION
  2
HEADER
  9
$ACADVER
  1
AC1012
  9
$DWGCODEPAGE
  3
dos932
  9
$INSBASE
 10
0.0
 20
0.0
 30
0.0
  9
$EXTMIN
 10
5.0
 20
2.449000558492456
 30
0.0
  9
$EXTMAX
 10
403.0
 20
282.0
 30
0.0
  9
$LIMMIN
 10
0.0
 20
0.0
  9
$LIMMAX
 10
420.0
 20
297.0
  9
$ORTHOMODE
 70
     0
  9
$REGENMODE
 70
     1
  9
$FILLMODE
 70
     1
  9
$QTEXTMODE
 70
     0
  9
$MIRRTEXT
 70
     1
  9
$DRAGMODE
 70
     2
  9
$LTSCALE
 40
1.0
  9
$OSMODE
 70
    37
  9
$ATTMODE
 70
     1
  9
$TEXTSIZE
 40
2.5
  9
$TRACEWID
 40
1.0
  9
$TEXTSTYLE
  7
STANDARD
  9
$CLAYER
  8
SUNPOU
  9
$CELTYPE
  6
BYLAYER
  9
$CECOLOR
 62
   256
  9
$CELTSCALE
 40
1.0
  9
$DELOBJ
 70
     1
  9
$DISPSILH
 70
     0
  9
$DIMSCALE
 40
1.0
  9
$DIMASZ
 40
3.0
  9
$DIMEXO
 40
3.0
  9
$DIMDLI
 40
7.0
  9
$DIMRND
 40
0.0
  9
$DIMDLE
 40
0.0
  9
$DIMEXE
 40
1.5
  9
$DIMTP
 40
0.0
  9
$DIMTM
 40
0.0
  9
$DIMTXT
 40
3.0
  9
$DIMCEN
 40
150.0
  9
$DIMTSZ
 40
0.0
  9
$DIMTOL
 70
     0
  9
$DIMLIM
 70
     0
  9
$DIMTIH
 70
     0
  9
$DIMTOH
 70
     0
  9
$DIMSE1
 70
     0
  9
$DIMSE2
 70
     0
  9
$DIMTAD
 70
     3
  9
$DIMZIN
 70
     0
  9
$DIMBLK
  1

  9
$DIMASO
 70
     1
  9
$DIMSHO
 70
     1
  9
$DIMPOST
  1

  9
$DIMAPOST
  1

  9
$DIMALT
 70
     0
  9
$DIMALTD
 70
     2
  9
$DIMALTF
 40
25.4
  9
$DIMLFAC
 40
1.0
  9
$DIMTOFL
 70
     1
  9
$DIMTVP
 40
0.0
  9
$DIMTIX
 70
     0
  9
$DIMSOXD
 70
     0
  9
$DIMSAH
 70
     1
  9
$DIMBLK1
  1
OPEN
  9
$DIMBLK2
  1
OPEN
  9
$DIMSTYLE
  2
STANDARD
  9
$DIMCLRD
 70
   256
  9
$DIMCLRE
 70
   256
  9
$DIMCLRT
 70
   256
  9
$DIMTFAC
 40
1.0
  9
$DIMGAP
 40
1.0
  9
$DIMJUST
 70
     0
  9
$DIMSD1
 70
     0
  9
$DIMSD2
 70
     0
  9
$DIMTOLJ
 70
     1
  9
$DIMTZIN
 70
     0
  9
$DIMALTZ
 70
     0
  9
$DIMALTTZ
 70
     0
  9
$DIMFIT
 70
     3
  9
$DIMUPT
 70
     0
  9
$DIMUNIT
 70
     2
  9
$DIMDEC
 70
     0
  9
$DIMTDEC
 70
     0
  9
$DIMALTU
 70
     2
  9
$DIMALTTD
 70
     2
  9
$DIMTXSTY
  7
STANDARD
  9
$DIMAUNIT
 70
     0
  9
$LUNITS
 70
     2
  9
$LUPREC
 70
     4
  9
$SKETCHINC
 40
1.0
  9
$FILLETRAD
 40
10.0
  9
$AUNITS
 70
     0
  9
$AUPREC
 70
     0
  9
$MENU
  1
.
  9
$ELEVATION
 40
0.0
  9
$PELEVATION
 40
0.0
  9
$THICKNESS
 40
0.0
  9
$LIMCHECK
 70
     0
  9
$BLIPMODE
 70
     0
  9
$CHAMFERA
 40
10.0
  9
$CHAMFERB
 40
10.0
  9
$CHAMFERC
 40
20.0
  9
$CHAMFERD
 40
0.0
  9
$SKPOLY
 70
     0
  9
$TDCREATE
 40
2451070.697080092
  9
$TDUPDATE
 40
2452393.840976099
  9
$TDINDWG
 40
0.0098577083
  9
$TDUSRTIMER
 40
0.0098577083
  9
$USRTIMER
 70
     1
  9
$ANGBASE
 50
0.0
  9
$ANGDIR
 70
     0
  9
$PDMODE
 70
     0
  9
$PDSIZE
 40
0.0
  9
$PLINEWID
 40
0.0
  9
$COORDS
 70
     1
  9
$SPLFRAME
 70
     0
  9
$SPLINETYPE
 70
     6
  9
$SPLINESEGS
 70
     8
  9
$ATTDIA
 70
     0
  9
$ATTREQ
 70
     1
  9
$HANDLING
 70
 10241
  9
$HANDSEED
  5
877
  9
$SURFTAB1
 70
     6
  9
$SURFTAB2
 70
     6
  9
$SURFTYPE
 70
     6
  9
$SURFU
 70
     6
  9
$SURFV
 70
     6
  9
$UCSNAME
  2

  9
$UCSORG
 10
0.0
 20
0.0
 30
0.0
  9
$UCSXDIR
 10
1.0
 20
0.0
 30
0.0
  9
$UCSYDIR
 10
0.0
 20
1.0
 30
0.0
  9
$PUCSNAME
  2

  9
$PUCSORG
 10
0.0
 20
0.0
 30
0.0
  9
$PUCSXDIR
 10
1.0
 20
0.0
 30
0.0
  9
$PUCSYDIR
 10
0.0
 20
1.0
 30
0.0
  9
$USERI1
 70
     0
  9
$USERI2
 70
     0
  9
$USERI3
 70
     0
  9
$USERI4
 70
     0
  9
$USERI5
 70
     0
  9
$USERR1
 40
0.0
  9
$USERR2
 40
0.0
  9
$USERR3
 40
0.0
  9
$USERR4
 40
0.0
  9
$USERR5
 40
0.0
  9
$WORLDVIEW
 70
     1
  9
$SHADEDGE
 70
     3
  9
$SHADEDIF
 70
    70
  9
$TILEMODE
 70
     1
  9
$MAXACTVP
 70
    16
  9
$PINSBASE
 10
0.0
 20
0.0
 30
0.0
  9
$PLIMCHECK
 70
     0
  9
$PEXTMIN
 10
0.0
 20
0.0
 30
0.0
  9
$PEXTMAX
 10
420.0
 20
297.0
 30
0.0
  9
$PLIMMIN
 10
0.0
 20
0.0
  9
$PLIMMAX
 10
420.0
 20
297.0
  9
$UNITMODE
 70
     0
  9
$VISRETAIN
 70
     0
  9
$PLINEGEN
 70
     0
  9
$PSLTSCALE
 70
     1
  9
$TREEDEPTH
 70
  3020
  9
$PICKSTYLE
 70
     1
  9
$CMLSTYLE
  2
STANDARD
  9
$CMLJUST
 70
     0
  9
$CMLSCALE
 40
1.0
  9
$SAVEIMAGES
 70
     1
  0
ENDSEC
  0
SECTION
  2
CLASSES
  0
CLASS
  1
ACDBDICTIONARYWDFLT
  2
AcDbDictionaryWithDefault
  3
AutoCAD 2000
 90
    32768
280
     0
281
     0
  0
CLASS
  1
ACDBPLACEHOLDER
  2
AcDbPlaceHolder
  3
AutoCAD 2000
 90
    32768
280
     0
281
     0
  0
CLASS
  1
LAYOUT
  2
AcDbLayout
  3
AutoCAD 2000
 90
    32768
280
     0
281
     0
  0
CLASS
  1
LONG_TRANSACTION
  2
AcDbLongTransaction
  3
AutoCAD 2000
 90
    32768
280
     0
281
     0
  0
CLASS
  1
LWPOLYLINE
  2
AcDbPolyline
  3
AutoCAD 2000
 90
    32768
280
     0
281
     1
  0
CLASS
  1
HATCH
  2
AcDbHatch
  3
AutoCAD 2000
 90
    32768
280
     0
281
     1
  0
CLASS
  1
XRECORD
  2
AcDbXrecord
  3
AutoCAD 2000
 90
    32768
280
     0
281
     0
  0
CLASS
  1
LONG_TRANSACTION
  2
AcDbLongTransaction
  3
AutoCAD 2000
 90
    32768
280
     0
281
     0
  0
CLASS
  1
LWPOLYLINE
  2
AcDbPolyline
  3
AutoCAD 2000
 90
    32768
280
     0
281
     1
  0
CLASS
  1
HATCH
  2
AcDbHatch
  3
AutoCAD 2000
 90
    32768
280
     0
281
     1
  0
CLASS
  1
XRECORD
  2
AcDbXrecord
  3
AutoCAD 2000
 90
    32768
280
     0
281
     0
  0
CLASS
  1
LONG_TRANSACTION
  2
AcDbLongTransaction
  3
AutoCAD 2000
 90
    32768
280
     0
281
     0
  0
CLASS
  1
LWPOLYLINE
  2
AcDbPolyline
  3
AutoCAD 2000
 90
    32768
280
     0
281
     1
  0
CLASS
  1
HATCH
  2
AcDbHatch
  3
AutoCAD 2000
 90
    32768
280
     0
281
     1
  0
CLASS
  1
XRECORD
  2
AcDbXrecord
  3
AutoCAD 2000
 90
    32768
280
     0
281
     0
  0
CLASS
  1
LONG_TRANSACTION
  2
AcDbLongTransaction
  3
AutoCAD 2000
 90
    32768
280
     0
281
     0
  0
CLASS
  1
LWPOLYLINE
  2
AcDbPolyline
  3
AutoCAD 2000
 90
    32768
280
     0
281
     1
  0
CLASS
  1
HATCH
  2
AcDbHatch
  3
AutoCAD 2000
 90
    32768
280
     0
281
     1
  0
CLASS
  1
XRECORD
  2
AcDbXrecord
  3
AutoCAD 2000
 90
    32768
280
     0
281
     0
  0
ENDSEC
  0
SECTION
  2
TABLES
  0
TABLE
  2
VPORT
  5
8
330
0
100
AcDbSymbolTable
 70
     2
  0
VPORT
  5
86A
330
8
100
AcDbSymbolTableRecord
100
AcDbViewportTableRecord
  2
*ACTIVE
 70
     0
 10
0.0
 20
0.0
 11
1.0
 21
1.0
 12
292.2781238364737
 22
155.5555440299994
 13
0.0
 23
0.0
 14
5.0
 24
5.0
 15
0.0
 25
0.0
 16
0.0
 26
0.0
 36
1.0
 17
0.0
 27
0.0
 37
0.0
 40
327.6502891573589
 41
2.169459962756052
 42
50.0
 43
0.0
 44
0.0
 50
0.0
 51
0.0
 71
     0
 72
   100
 73
     1
 74
     0
 75
     0
 76
     0
 77
     0
 78
     0
  0
ENDTAB
  0
TABLE
  2
LTYPE
  5
5
330
0
100
AcDbSymbolTable
 70
     2
  0
LTYPE
  5
14
330
5
100
AcDbSymbolTableRecord
100
AcDbLinetypeTableRecord
  2
BYBLOCK
 70
     0
  3

 72
    65
 73
     0
 40
0.0
  0
LTYPE
  5
15
330
5
100
AcDbSymbolTableRecord
100
AcDbLinetypeTableRecord
  2
BYLAYER
 70
     0
  3

 72
    65
 73
     0
 40
0.0
  0
LTYPE
  5
16
330
5
100
AcDbSymbolTableRecord
100
AcDbLinetypeTableRecord
  2
CONTINUOUS
 70
     0
  3
Solid line
 72
    65
 73
     0
 40
0.0
  0
LTYPE
  5
120
330
5
100
AcDbSymbolTableRecord
100
AcDbLinetypeTableRecord
  2
CENTER
 70
     0
  3
____ _ ____ _ ____ _ ____ _ ____ _ ____ _ ____ 
 72
    65
 73
     4
 40
2.0
 49
1.25
 74
     0
 49
-0.25
 74
     0
 49
0.25
 74
     0
 49
-0.25
 74
     0
  0
ENDTAB
  0
TABLE
  2
LAYER
  5
2
330
0
100
AcDbSymbolTable
 70
     7
  0
LAYER
  5
F
330
2
100
AcDbSymbolTableRecord
100
AcDbLayerTableRecord
  2
0
 70
     0
 62
     7
  6
CONTINUOUS
  0
LAYER
  5
62
330
2
100
AcDbSymbolTableRecord
100
AcDbLayerTableRecord
  2
VIEWPORT
 70
     0
 62
     7
  6
CONTINUOUS
  0
LAYER
  5
6B
330
2
100
AcDbSymbolTableRecord
100
AcDbLayerTableRecord
  2
ZUWAKU
 70
     0
 62
     7
  6
CONTINUOUS
  0
LAYER
  5
134
330
2
100
AcDbSymbolTableRecord
100
AcDbLayerTableRecord
  2
SUNPOU
 70
     0
 62
     4
  6
CONTINUOUS
  0
LAYER
  5
135
330
2
100
AcDbSymbolTableRecord
100
AcDbLayerTableRecord
  2
CENTER_L
 70
     0
 62
     1
  6
CENTER
  0
LAYER
  5
136
330
2
100
AcDbSymbolTableRecord
100
AcDbLayerTableRecord
  2
SEIHIN
 70
     0
 62
     3
  6
CONTINUOUS
  0
LAYER
  5
147
330
2
100
AcDbSymbolTableRecord
100
AcDbLayerTableRecord
  2
DEFPOINTS
 70
     0
 62
     7
  6
CONTINUOUS
  0
ENDTAB
  0
TABLE
  2
STYLE
  5
3
330
0
100
AcDbSymbolTable
 70
     1
  0
STYLE
  5
10
330
3
100
AcDbSymbolTableRecord
100
AcDbTextStyleTableRecord
  2
STANDARD
 70
     0
 40
0.0
 41
1.0
 50
0.0
 71
     0
 42
2.5
  3
TXT
  4
bigfont.shx
  0
ENDTAB
  0
TABLE
  2
VIEW
  5
6
330
0
100
AcDbSymbolTable
 70
     0
  0
ENDTAB
  0
TABLE
  2
UCS
  5
7
330
0
100
AcDbSymbolTable
 70
     0
  0
ENDTAB
  0
TABLE
  2
APPID
  5
9
330
0
100
AcDbSymbolTable
 70
     1
  0
APPID
  5
11
330
9
100
AcDbSymbolTableRecord
100
AcDbRegAppTableRecord
  2
ACAD
 70
     0
  0
ENDTAB
  0
TABLE
  2
DIMSTYLE
  5
A
330
0
100
AcDbSymbolTable
 70
     1
  0
DIMSTYLE
105
1D
102
{ACAD_REACTORS
330
21E
330
2E7
330
2F4
330
301
330
30E
330
31C
330
329
330
336
330
343
330
350
102
}
330
A
100
AcDbSymbolTableRecord
100
AcDbDimStyleTableRecord
  2
STANDARD
 70
     0
  3

  4

  5

  6

  7

 40
1.0
 41
0.18
 42
0.0625
 43
0.38
 44
0.18
 45
0.0
 46
0.0
 47
0.0
 48
0.0
140
0.18
141
0.09
142
0.0
143
25.4
144
1.0
145
0.0
146
1.0
147
0.09
 71
     0
 72
     0
 73
     1
 74
     1
 75
     0
 76
     0
 77
     0
 78
     0
170
     0
171
     2
172
     0
173
     0
174
     0
175
     0
176
     0
177
     0
178
     0
270
     2
271
     4
272
     4
273
     2
274
     2
340
10
275
     0
280
     0
281
     0
282
     0
283
     1
284
     0
285
     0
286
     0
287
     3
288
     0
  0
ENDTAB
  0
TABLE
  2
BLOCK_RECORD
  5
1
330
0
100
AcDbSymbolTable
 70
    11
  0
BLOCK_RECORD
  5
1A
102
{ACAD_XDICTIONARY
360
785
102
}
330
1
100
AcDbSymbolTableRecord
100
AcDbBlockTableRecord
  2
*MODEL_SPACE
  0
BLOCK_RECORD
  5
17
102
{ACAD_XDICTIONARY
360
783
102
}
330
1
100
AcDbSymbolTableRecord
100
AcDbBlockTableRecord
  2
*PAPER_SPACE
  0
BLOCK_RECORD
  5
B2
330
1
100
AcDbSymbolTableRecord
100
AcDbBlockTableRecord
  2
_OPEN
  0
BLOCK_RECORD
  5
2C2
330
1
100
AcDbSymbolTableRecord
100
AcDbBlockTableRecord
  2
*D1
  0
BLOCK_RECORD
  5
2DB
330
1
100
AcDbSymbolTableRecord
100
AcDbBlockTableRecord
  2
*D2
  0
BLOCK_RECORD
  5
2E8
330
1
100
AcDbSymbolTableRecord
100
AcDbBlockTableRecord
  2
*D3
  0
BLOCK_RECORD
  5
2F5
330
1
100
AcDbSymbolTableRecord
100
AcDbBlockTableRecord
  2
*D4
  0
BLOCK_RECORD
  5
302
330
1
100
AcDbSymbolTableRecord
100
AcDbBlockTableRecord
  2
*D5
  0
BLOCK_RECORD
  5
30F
330
1
100
AcDbSymbolTableRecord
100
AcDbBlockTableRecord
  2
*D6
  0
BLOCK_RECORD
  5
31D
330
1
100
AcDbSymbolTableRecord
100
AcDbBlockTableRecord
  2
*D7
  0
BLOCK_RECORD
  5
32A
330
1
100
AcDbSymbolTableRecord
100
AcDbBlockTableRecord
  2
*D8
  0
BLOCK_RECORD
  5
337
330
1
100
AcDbSymbolTableRecord
100
AcDbBlockTableRecord
  2
*D9
  0
BLOCK_RECORD
  5
344
330
1
100
AcDbSymbolTableRecord
100
AcDbBlockTableRecord
  2
*D10
  0
ENDTAB
  0
ENDSEC
  0
SECTION
  2
BLOCKS
  0
BLOCK
  5
1B
330
1A
100
AcDbEntity
  8
0
100
AcDbBlockBegin
  2
*MODEL_SPACE
 70
     0
 10
0.0
 20
0.0
 30
0.0
  3
*MODEL_SPACE
  1

  0
ENDBLK
  5
1C
330
1A
100
AcDbEntity
  8
0
100
AcDbBlockEnd
  0
BLOCK
  5
18
330
17
100
AcDbEntity
 67
     1
  8
0
100
AcDbBlockBegin
  2
*PAPER_SPACE
 70
     0
 10
0.0
 20
0.0
 30
0.0
  3
*PAPER_SPACE
  1

  0
ENDBLK
  5
19
330
17
100
AcDbEntity
 67
     1
  8
0
100
AcDbBlockEnd
  0
BLOCK
  5
B3
330
B2
100
AcDbEntity
  8
0
100
AcDbBlockBegin
  2
_OPEN
 70
     0
 10
0.0
 20
0.0
 30
0.0
  3
_OPEN
  1

  0
LINE
  5
B4
330
B2
100
AcDbEntity
  8
0
  6
BYBLOCK
 62
     0
100
AcDbLine
 10
-1.0
 20
0.1666666666666666
 30
0.0
 11
0.0
 21
0.0
 31
0.0
  0
LINE
  5
B5
330
B2
100
AcDbEntity
  8
0
  6
BYBLOCK
 62
     0
100
AcDbLine
 10
0.0
 20
0.0
 30
0.0
 11
-1.0
 21
-0.1666666666666666
 31
0.0
  0
LINE
  5
B6
330
B2
100
AcDbEntity
  8
0
  6
BYBLOCK
 62
     0
100
AcDbLine
 10
0.0
 20
0.0
 30
0.0
 11
-1.0
 21
0.0
 31
0.0
  0
ENDBLK
  5
B7
330
B2
100
AcDbEntity
  8
0
100
AcDbBlockEnd
  0
BLOCK
  5
2CE
330
2C2
100
AcDbEntity
  8
0
100
AcDbBlockBegin
  2
*D1
 70
     1
 10
0.0
 20
0.0
 30
0.0
  3
*D1
  1

  0
LINE
  5
78D
330
2C2
100
AcDbEntity
  8
SUNPOU
100
AcDbLine
 10
89.41515446215673
 20
199.3707648573264
 30
0.0
 11
89.41515446215673
 21
218.8250703142892
 31
0.0
  0
LINE
  5
78E
330
2C2
100
AcDbEntity
  8
SUNPOU
100
AcDbLine
 10
153.3151544621568
 20
199.3707648573264
 30
0.0
 11
153.3151544621568
 21
218.8250703142892
 31
0.0
  0
LINE
  5
78F
330
2C2
100
AcDbEntity
  8
SUNPOU
100
AcDbLine
 10
92.41515446215672
 20
217.3250703142892
 30
0.0
 11
150.3151544621568
 21
217.3250703142892
 31
0.0
  0
INSERT
  5
790
330
2C2
100
AcDbEntity
  8
SUNPOU
100
AcDbBlockReference
  2
_OPEN
 10
89.41515446215673
 20
217.3250703142892
 30
0.0
 41
3.0
 42
3.0
 43
3.0
 50
180.0
  0
INSERT
  5
791
330
2C2
100
AcDbEntity
  8
SUNPOU
100
AcDbBlockReference
  2
_OPEN
 10
153.3151544621568
 20
217.3250703142892
 30
0.0
 41
3.0
 42
3.0
 43
3.0
  0
MTEXT
  5
792
330
2C2
100
AcDbEntity
  8
SUNPOU
100
AcDbMText
 10
121.3651544621567
 20
219.8250703142892
 30
0.0
 40
3.0
 41
0.0
 71
     5
 72
     1
  1
\A1;64
1001
ACAD
1000
MTEXTBEGIN
1070
    73
1070
     1
1070
    44
1040
1.0
1070
    74
1070
     0
1000
MTEXTEND
1000
MTEXTBEGIN
1070
    73
1070
     1
1070
    44
1040
1.0
1070
    74
1070
     0
1000
MTEXTEND
1000
MTEXTBEGIN
1070
    73
1070
     1
1070
    44
1040
1.0
1070
    74
1070
     0
1000
MTEXTEND
  0
POINT
  5
793
330
2C2
100
AcDbEntity
  8
DEFPOINTS
 62
     0
100
AcDbPoint
 10
89.41515446215673
 20
196.3707648573264
 30
0.0
  0
POINT
  5
794
330
2C2
100
AcDbEntity
  8
DEFPOINTS
 62
     0
100
AcDbPoint
 10
153.3151544621568
 20
196.3707648573264
 30
0.0
  0
POINT
  5
795
330
2C2
100
AcDbEntity
  8
DEFPOINTS
 62
     0
100
AcDbPoint
 10
153.3151544621568
 20
217.3250703142892
 30
0.0
  0
ENDBLK
  5
2D8
330
2C2
100
AcDbEntity
  8
0
100
AcDbBlockEnd
  0
BLOCK
  5
388
330
2DB
100
AcDbEntity
  8
0
100
AcDbBlockBegin
  2
*D2
 70
     1
 10
0.0
 20
0.0
 30
0.0
  3
*D2
  1

  0
LINE
  5
796
330
2DB
100
AcDbEntity
  8
SUNPOU
100
AcDbLine
 10
86.41515446215672
 20
196.3707648573264
 30
0.0
 11
68.20871182540646
 21
196.3707648573264
 31
0.0
  0
LINE
  5
797
330
2DB
100
AcDbEntity
  8
SUNPOU
100
AcDbLine
 10
86.41515446215672
 20
171.3707648573264
 30
0.0
 11
68.20871182540646
 21
171.3707648573264
 31
0.0
  0
LINE
  5
798
330
2DB
100
AcDbEntity
  8
SUNPOU
100
AcDbLine
 10
69.70871182540645
 20
193.3707648573264
 30
0.0
 11
69.70871182540645
 21
174.3707648573264
 31
0.0
  0
INSERT
  5
799
330
2DB
100
AcDbEntity
  8
SUNPOU
100
AcDbBlockReference
  2
_OPEN
 10
69.70871182540645
 20
196.3707648573264
 30
0.0
 41
3.0
 42
3.0
 43
3.0
 50
90.0
  0
INSERT
  5
79A
330
2DB
100
AcDbEntity
  8
SUNPOU
100
AcDbBlockReference
  2
_OPEN
 10
69.70871182540645
 20
171.3707648573264
 30
0.0
 41
3.0
 42
3.0
 43
3.0
 50
270.0
  0
MTEXT
  5
79B
330
2DB
100
AcDbEntity
  8
SUNPOU
100
AcDbMText
 10
67.20871182540642
 20
183.8707648573264
 30
0.0
 40
3.0
 41
0.0
 71
     5
 72
     1
  1
\A1;※ 25
 11
0.0000000000000001
 21
1.0
 31
0.0
1001
ACAD
1000
MTEXTBEGIN
1070
    73
1070
     1
1070
    44
1040
1.0
1070
    74
1070
     0
1000
MTEXTEND
1000
MTEXTBEGIN
1070
    73
1070
     1
1070
    44
1040
1.0
1070
    74
1070
     0
1000
MTEXTEND
1000
MTEXTBEGIN
1070
    73
1070
     1
1070
    44
1040
1.0
1070
    74
1070
     0
1000
MTEXTEND
  0
POINT
  5
79C
330
2DB
100
AcDbEntity
  8
DEFPOINTS
 62
     0
100
AcDbPoint
 10
89.41515446215673
 20
196.3707648573264
 30
0.0
  0
POINT
  5
79D
330
2DB
100
AcDbEntity
  8
DEFPOINTS
 62
     0
100
AcDbPoint
 10
89.41515446215673
 20
171.3707648573264
 30
0.0
  0
POINT
  5
79E
330
2DB
100
AcDbEntity
  8
DEFPOINTS
 62
     0
100
AcDbPoint
 10
69.70871182540645
 20
171.3707648573264
 30
0.0
  0
ENDBLK
  5
392
330
2DB
100
AcDbEntity
  8
0
100
AcDbBlockEnd
  0
BLOCK
  5
2E9
330
2E8
100
AcDbEntity
  8
0
100
AcDbBlockBegin
  2
*D3
 70
     1
 10
0.0
 20
0.0
 30
0.0
  3
*D3
  1

  0
LINE
  5
79F
330
2E8
100
AcDbEntity
  8
SUNPOU
100
AcDbLine
 10
86.41515446215672
 20
196.3707648573264
 30
0.0
 11
58.72935378819125
 21
196.3707648573264
 31
0.0
  0
LINE
  5
7A0
330
2E8
100
AcDbEntity
  8
SUNPOU
100
AcDbLine
 10
118.3631544621568
 20
146.8551648573263
 30
0.0
 11
58.72935378819125
 21
146.8551648573263
 31
0.0
  0
LINE
  5
7A1
330
2E8
100
AcDbEntity
  8
SUNPOU
100
AcDbLine
 10
60.22935378819125
 20
193.3707648573264
 30
0.0
 11
60.22935378819124
 21
149.8551648573263
 31
0.0
  0
INSERT
  5
7A2
330
2E8
100
AcDbEntity
  8
SUNPOU
100
AcDbBlockReference
  2
_OPEN
 10
60.22935378819125
 20
196.3707648573264
 30
0.0
 41
3.0
 42
3.0
 43
3.0
 50
90.0
  0
INSERT
  5
7A3
330
2E8
100
AcDbEntity
  8
SUNPOU
100
AcDbBlockReference
  2
_OPEN
 10
60.22935378819124
 20
146.8551648573263
 30
0.0
 41
3.0
 42
3.0
 43
3.0
 50
270.0
  0
MTEXT
  5
7A4
330
2E8
100
AcDbEntity
  8
SUNPOU
100
AcDbMText
 10
57.72935378819122
 20
171.6129648573263
 30
0.0
 40
3.0
 41
0.0
 71
     5
 72
     1
  1
\A1;50
 11
0.0000000000000001
 21
1.0
 31
0.0
1001
ACAD
1000
MTEXTBEGIN
1070
    73
1070
     1
1070
    44
1040
1.0
1070
    74
1070
     0
1000
MTEXTEND
1000
MTEXTBEGIN
1070
    73
1070
     1
1070
    44
1040
1.0
1070
    74
1070
     0
1000
MTEXTEND
1000
MTEXTBEGIN
1070
    73
1070
     1
1070
    44
1040
1.0
1070
    74
1070
     0
1000
MTEXTEND
  0
POINT
  5
7A5
330
2E8
100
AcDbEntity
  8
DEFPOINTS
 62
     0
100
AcDbPoint
 10
89.41515446215673
 20
196.3707648573264
 30
0.0
  0
POINT
  5
7A6
330
2E8
100
AcDbEntity
  8
DEFPOINTS
 62
     0
100
AcDbPoint
 10
121.3631544621568
 20
146.8551648573263
 30
0.0
  0
POINT
  5
7A7
330
2E8
100
AcDbEntity
  8
DEFPOINTS
 62
     0
100
AcDbPoint
 10
60.22935378819124
 20
146.8551648573263
 30
0.0
  0
ENDBLK
  5
2F3
330
2E8
100
AcDbEntity
  8
0
100
AcDbBlockEnd
  0
BLOCK
  5
367
330
2F5
100
AcDbEntity
  8
0
100
AcDbBlockBegin
  2
*D4
 70
     1
 10
0.0
 20
0.0
 30
0.0
  3
*D4
  1

  0
LINE
  5
7A8
330
2F5
100
AcDbEntity
  8
SUNPOU
100
AcDbLine
 10
154.0916634270261
 20
174.2684581229049
 30
0.0
 11
158.6417779915501
 21
191.2496446049049
 31
0.0
  0
LINE
  5
7A9
330
2F5
100
AcDbEntity
  8
SUNPOU
100
AcDbLine
 10
183.0694135569389
 20
166.5038603397631
 30
0.0
 11
187.619528121463
 21
183.485046821763
 31
0.0
  0
LINE
  5
7AA
330
2F5
100
AcDbEntity
  8
SUNPOU
100
AcDbLine
 10
161.1513245356128
 20
189.0242960607027
 30
0.0
 11
184.3335213596636
 21
182.8126187130341
 31
0.0
  0
INSERT
  5
7AB
330
2F5
100
AcDbEntity
  8
SUNPOU
100
AcDbBlockReference
  2
_OPEN
 10
158.2535478826818
 20
189.8007562784393
 30
0.0
 41
3.0
 42
3.0
 43
3.0
 50
164.9999390532223
  0
INSERT
  5
7AC
330
2F5
100
AcDbEntity
  8
SUNPOU
100
AcDbBlockReference
  2
_OPEN
 10
187.2312980125947
 20
182.0361584952975
 30
0.0
 41
3.0
 42
3.0
 43
3.0
 50
344.9999390532223
  0
MTEXT
  5
7AD
330
2F5
100
AcDbEntity
  8
SUNPOU
100
AcDbMText
 10
173.3894731290854
 20
188.333271264311
 30
0.0
 40
3.0
 41
0.0
 71
     5
 72
     1
  1
\A1;※ 30
 11
0.9659255509770256
 21
-0.258820072578866
 31
0.0
1001
ACAD
1000
MTEXTBEGIN
1070
    73
1070
     1
1070
    44
1040
1.0
1070
    74
1070
     0
1000
MTEXTEND
1000
MTEXTBEGIN
1070
    73
1070
     1
1070
    44
1040
1.0
1070
    74
1070
     0
1000
MTEXTEND
1000
MTEXTBEGIN
1070
    73
1070
     1
1070
    44
1040
1.0
1070
    74
1070
     0
1000
MTEXTEND
  0
POINT
  5
7AE
330
2F5
100
AcDbEntity
  8
DEFPOINTS
 62
     0
100
AcDbPoint
 10
153.3152032092895
 20
171.3706814699738
 30
0.0
  0
POINT
  5
7AF
330
2F5
100
AcDbEntity
  8
DEFPOINTS
 62
     0
100
AcDbPoint
 10
182.2929533392023
 20
163.606083686832
 30
0.0
  0
POINT
  5
7B0
330
2F5
100
AcDbEntity
  8
DEFPOINTS
 62
     0
100
AcDbPoint
 10
187.2312980125947
 20
182.0361584952975
 30
0.0
  0
ENDBLK
  5
371
330
2F5
100
AcDbEntity
  8
0
100
AcDbBlockEnd
  0
BLOCK
  5
303
330
302
100
AcDbEntity
  8
0
100
AcDbBlockBegin
  2
*D5
 70
     1
 10
0.0
 20
0.0
 30
0.0
  3
*D5
  1

  0
LINE
  5
7B1
330
302
100
AcDbEntity
  8
SUNPOU
100
AcDbLine
 10
121.3631544621568
 20
149.8551648573263
 30
0.0
 11
121.3631544621568
 21
159.7744558560832
 31
0.0
  0
LINE
  5
7B2
330
302
100
AcDbEntity
  8
SUNPOU
100
AcDbLine
 10
154.7051004335048
 20
140.9211498223561
 30
0.0
 11
154.7051004335048
 21
159.7744558560832
 31
0.0
  0
LINE
  5
7B3
330
302
100
AcDbEntity
  8
SUNPOU
100
AcDbLine
 10
124.3631544621568
 20
158.2744558560832
 30
0.0
 11
151.7051004335048
 21
158.2744558560832
 31
0.0
  0
INSERT
  5
7B4
330
302
100
AcDbEntity
  8
SUNPOU
100
AcDbBlockReference
  2
_OPEN
 10
121.3631544621568
 20
158.2744558560832
 30
0.0
 41
3.0
 42
3.0
 43
3.0
 50
180.0
  0
INSERT
  5
7B5
330
302
100
AcDbEntity
  8
SUNPOU
100
AcDbBlockReference
  2
_OPEN
 10
154.7051004335048
 20
158.2744558560832
 30
0.0
 41
3.0
 42
3.0
 43
3.0
  0
MTEXT
  5
7B6
330
302
100
AcDbEntity
  8
SUNPOU
100
AcDbMText
 10
138.0341274478308
 20
160.7744558560832
 30
0.0
 40
3.0
 41
0.0
 71
     5
 72
     1
  1
\A1;33
1001
ACAD
1000
MTEXTBEGIN
1070
    73
1070
     1
1070
    44
1040
1.0
1070
    74
1070
     0
1000
MTEXTEND
1000
MTEXTBEGIN
1070
    73
1070
     1
1070
    44
1040
1.0
1070
    74
1070
     0
1000
MTEXTEND
1000
MTEXTBEGIN
1070
    73
1070
     1
1070
    44
1040
1.0
1070
    74
1070
     0
1000
MTEXTEND
  0
POINT
  5
7B7
330
302
100
AcDbEntity
  8
DEFPOINTS
 62
     0
100
AcDbPoint
 10
121.3631544621568
 20
146.8551648573263
 30
0.0
  0
POINT
  5
7B8
330
302
100
AcDbEntity
  8
DEFPOINTS
 62
     0
100
AcDbPoint
 10
154.7051004335048
 20
137.9211498223561
 30
0.0
  0
POINT
  5
7B9
330
302
100
AcDbEntity
  8
DEFPOINTS
 62
     0
100
AcDbPoint
 10
154.7051004335048
 20
158.2744558560832
 30
0.0
  0
ENDBLK
  5
30D
330
302
100
AcDbEntity
  8
0
100
AcDbBlockEnd
  0
BLOCK
  5
310
330
30F
100
AcDbEntity
  8
0
100
AcDbBlockBegin
  2
*D6
 70
     1
 10
0.0
 20
0.0
 30
0.0
  3
*D6
  1

  0
LINE
  5
86D
330
30F
100
AcDbEntity
  8
SUNPOU
 62
     4
100
AcDbLine
 10
121.3631544621568
 20
135.3780293877123
 30
0.0
 11
121.3631544621568
 21
127.4186664519099
 31
0.0
  0
ARC
  5
86E
330
30F
100
AcDbEntity
  8
SUNPOU
 62
     4
100
AcDbCircle
 10
121.3631544621568
 20
146.8551648573263
 30
0.0
 40
17.93649840541642
100
AcDbArc
 50
279.5943100304473
 51
335.405581685038
  0
INSERT
  5
86F
330
30F
100
AcDbEntity
  8
SUNPOU
 62
     4
100
AcDbBlockReference
  2
_OPEN
 10
121.3631544621568
 20
128.9186664519099
 30
0.0
 41
3.0
 42
3.0
 43
3.0
 50
184.7971550152237
  0
INSERT
  5
870
330
30F
100
AcDbEntity
  8
SUNPOU
 62
     4
100
AcDbBlockReference
  2
_OPEN
 10
138.6884727315146
 20
142.212824724057
 30
0.0
 41
3.0
 42
3.0
 43
3.0
 50
70.20273670026162
  0
MTEXT
  5
871
330
30F
100
AcDbEntity
  8
SUNPOU
100
AcDbMText
 10
130.7602877177718
 20
134.6085584050622
 30
0.0
 40
3.0
 41
0.0
 71
     5
 72
     1
  1
\A1;75°
 11
0.7933539155464798
 21
0.6087606793207565
 31
0.0
  0
POINT
  5
872
330
30F
100
AcDbEntity
  8
DEFPOINTS
 62
     0
100
AcDbPoint
 10
128.943435999121
 20
130.5991719049451
 30
0.0
  0
POINT
  5
873
330
30F
100
AcDbEntity
  8
DEFPOINTS
 62
     0
100
AcDbPoint
 10
113.1748745256907
 20
149.0492244399852
 30
0.0
  0
POINT
  5
874
330
30F
100
AcDbEntity
  8
DEFPOINTS
 62
     0
100
AcDbPoint
 10
121.3631544621568
 20
138.3780293877123
 30
0.0
  0
POINT
  5
875
330
30F
100
AcDbEntity
  8
DEFPOINTS
 62
     0
100
AcDbPoint
 10
121.3631544621567
 20
206.3707648573264
 30
0.0
  0
POINT
  5
876
330
30F
100
AcDbEntity
  8
DEFPOINTS
 62
     0
100
AcDbPoint
 10
181.1557544621567
 20
130.8336648573263
 30
0.0
  0
ENDBLK
  5
31B
330
30F
100
AcDbEntity
  8
0
100
AcDbBlockEnd
  0
BLOCK
  5
31E
330
31D
100
AcDbEntity
  8
0
100
AcDbBlockBegin
  2
*D7
 70
     1
 10
0.0
 20
0.0
 30
0.0
  3
*D7
  1

  0
LINE
  5
7C4
330
31D
100
AcDbEntity
  8
SUNPOU
100
AcDbLine
 10
120.5866918502792
 20
143.9573888459071
 30
0.0
 11
107.2021834919797
 21
94.00610123460619
 31
0.0
  0
LINE
  5
7C5
330
31D
100
AcDbEntity
  8
SUNPOU
100
AcDbLine
 10
153.9286378216273
 20
135.023373810937
 30
0.0
 11
140.5441294633278
 21
85.07208619963609
 31
0.0
  0
LINE
  5
7C6
330
31D
100
AcDbEntity
  8
SUNPOU
100
AcDbLine
 10
110.4881908093376
 20
94.67852662843819
 30
0.0
 11
138.0345847578475
 21
87.29743681722325
 31
0.0
  0
INSERT
  5
7C7
330
31D
100
AcDbEntity
  8
SUNPOU
100
AcDbBlockReference
  2
_OPEN
 10
107.5904147979185
 20
95.45498924031576
 30
0.0
 41
3.0
 42
3.0
 43
3.0
 50
164.9998917154853
  0
INSERT
  5
7C8
330
31D
100
AcDbEntity
  8
SUNPOU
100
AcDbBlockReference
  2
_OPEN
 10
140.9323607692666
 20
86.52097420534566
 30
0.0
 41
3.0
 42
3.0
 43
3.0
 50
344.9998917154852
  0
MTEXT
  5
7C9
330
31D
100
AcDbEntity
  8
SUNPOU
100
AcDbMText
 10
124.9084399601572
 20
93.40279506568
 30
0.0
 40
3.0
 41
0.0
 71
     5
 72
     1
  1
\A1;35
 11
0.9659253371397142
 21
-0.2588208706258622
 31
0.0
1001
ACAD
1000
MTEXTBEGIN
1070
    73
1070
     1
1070
    44
1040
1.0
1070
    74
1070
     0
1000
MTEXTEND
1000
MTEXTBEGIN
1070
    73
1070
     1
1070
    44
1040
1.0
1070
    74
1070
     0
1000
MTEXTEND
1000
MTEXTBEGIN
1070
    73
1070
     1
1070
    44
1040
1.0
1070
    74
1070
     0
1000
MTEXTEND
  0
POINT
  5
7CA
330
31D
100
AcDbEntity
  8
DEFPOINTS
 62
     0
100
AcDbPoint
 10
121.3631544621568
 20
146.8551648573263
 30
0.0
  0
POINT
  5
7CB
330
31D
100
AcDbEntity
  8
DEFPOINTS
 62
     0
100
AcDbPoint
 10
154.7051004335049
 20
137.9211498223561
 30
0.0
  0
POINT
  5
7CC
330
31D
100
AcDbEntity
  8
DEFPOINTS
 62
     0
100
AcDbPoint
 10
140.9323607692666
 20
86.52097420534566
 30
0.0
  0
ENDBLK
  5
328
330
31D
100
AcDbEntity
  8
0
100
AcDbBlockEnd
  0
BLOCK
  5
32B
330
32A
100
AcDbEntity
  8
0
100
AcDbBlockBegin
  2
*D8
 70
     1
 10
0.0
 20
0.0
 30
0.0
  3
*D8
  1

  0
LINE
  5
7CD
330
32A
100
AcDbEntity
  8
SUNPOU
100
AcDbLine
 10
120.5866918502792
 20
143.9573888459071
 30
0.0
 11
104.5520105533179
 21
84.11559594782097
 31
0.0
  0
LINE
  5
7CE
330
32A
100
AcDbEntity
  8
SUNPOU
100
AcDbLine
 10
173.2471662735848
 20
129.846950581423
 30
0.0
 11
157.2124849766235
 21
70.0051576833369
 31
0.0
  0
LINE
  5
7CF
330
32A
100
AcDbEntity
  8
SUNPOU
100
AcDbLine
 10
107.8380178706758
 20
84.78802134165295
 30
0.0
 11
154.7029402711432
 21
72.23050830092406
 31
0.0
  0
INSERT
  5
7D0
330
32A
100
AcDbEntity
  8
SUNPOU
100
AcDbBlockReference
  2
_OPEN
 10
104.9402418592567
 20
85.56448395353054
 30
0.0
 41
3.0
 42
3.0
 43
3.0
 50
164.9998917154853
  0
INSERT
  5
7D1
330
32A
100
AcDbEntity
  8
SUNPOU
100
AcDbBlockReference
  2
_OPEN
 10
157.6007162825623
 20
71.45404568904647
 30
0.0
 41
3.0
 42
3.0
 43
3.0
 50
344.9998917154852
  0
MTEXT
  5
7D2
330
32A
100
AcDbEntity
  8
SUNPOU
100
AcDbMText
 10
131.9175312474742
 20
80.9240781641378
 30
0.0
 40
3.0
 41
0.0
 71
     5
 72
     1
  1
\A1;55
 11
0.9659253371397142
 21
-0.2588208706258622
 31
0.0
1001
ACAD
1000
MTEXTBEGIN
1070
    73
1070
     1
1070
    44
1040
1.0
1070
    74
1070
     0
1000
MTEXTEND
1000
MTEXTBEGIN
1070
    73
1070
     1
1070
    44
1040
1.0
1070
    74
1070
     0
1000
MTEXTEND
1000
MTEXTBEGIN
1070
    73
1070
     1
1070
    44
1040
1.0
1070
    74
1070
     0
1000
MTEXTEND
  0
POINT
  5
7D3
330
32A
100
AcDbEntity
  8
DEFPOINTS
 62
     0
100
AcDbPoint
 10
121.3631544621568
 20
146.8551648573263
 30
0.0
  0
POINT
  5
7D4
330
32A
100
AcDbEntity
  8
DEFPOINTS
 62
     0
100
AcDbPoint
 10
174.0236288854624
 20
132.7447265928422
 30
0.0
  0
POINT
  5
7D5
330
32A
100
AcDbEntity
  8
DEFPOINTS
 62
     0
100
AcDbPoint
 10
157.6007162825623
 20
71.45404568904647
 30
0.0
  0
ENDBLK
  5
335
330
32A
100
AcDbEntity
  8
0
100
AcDbBlockEnd
  0
BLOCK
  5
338
330
337
100
AcDbEntity
  8
0
100
AcDbBlockBegin
  2
*D9
 70
     1
 10
0.0
 20
0.0
 30
0.0
  3
*D9
  1

  0
LINE
  5
7D6
330
337
100
AcDbEntity
  8
SUNPOU
100
AcDbLine
 10
165.8722298380168
 20
168.0059998735322
 30
0.0
 11
208.0434405655871
 21
156.7061355959407
 31
0.0
  0
LINE
  5
7D7
330
337
100
AcDbEntity
  8
SUNPOU
100
AcDbLine
 10
149.3335298380167
 20
106.2833998735322
 30
0.0
 11
191.5047405655871
 21
94.98353559594075
 31
0.0
  0
LINE
  5
7D8
330
337
100
AcDbEntity
  8
SUNPOU
100
AcDbLine
 10
205.8180878938628
 20
154.1965927119776
 30
0.0
 11
190.8323178614513
 21
98.26954346369802
 31
0.0
  0
INSERT
  5
7D9
330
337
100
AcDbEntity
  8
SUNPOU
100
AcDbBlockReference
  2
_OPEN
 10
206.594552877657
 20
157.0943680878378
 30
0.0
 41
3.0
 42
3.0
 43
3.0
 50
74.99984481716467
  0
INSERT
  5
7DA
330
337
100
AcDbEntity
  8
SUNPOU
100
AcDbBlockReference
  2
_OPEN
 10
190.055852877657
 20
95.37176808783787
 30
0.0
 41
3.0
 42
3.0
 43
3.0
 50
254.9998448171646
  0
MTEXT
  5
7DB
330
337
100
AcDbEntity
  8
SUNPOU
100
AcDbMText
 10
195.9103900644402
 20
126.8801222409997
 30
0.0
 40
3.0
 41
0.0
 71
     5
 72
     1
  1
\A1;64
 11
0.2588216612647458
 21
0.9659251252867155
 31
0.0
1001
ACAD
1000
MTEXTBEGIN
1070
    73
1070
     1
1070
    44
1040
1.0
1070
    74
1070
     0
1000
MTEXTEND
1000
MTEXTBEGIN
1070
    73
1070
     1
1070
    44
1040
1.0
1070
    74
1070
     0
1000
MTEXTEND
1000
MTEXTBEGIN
1070
    73
1070
     1
1070
    44
1040
1.0
1070
    74
1070
     0
1000
MTEXTEND
  0
POINT
  5
7DC
330
337
100
AcDbEntity
  8
DEFPOINTS
 62
     0
100
AcDbPoint
 10
162.9744544621566
 20
168.7824648573264
 30
0.0
  0
POINT
  5
7DD
330
337
100
AcDbEntity
  8
DEFPOINTS
 62
     0
100
AcDbPoint
 10
146.4357544621566
 20
107.0598648573264
 30
0.0
  0
POINT
  5
7DE
330
337
100
AcDbEntity
  8
DEFPOINTS
 62
     0
100
AcDbPoint
 10
190.055852877657
 20
95.37176808783787
 30
0.0
  0
ENDBLK
  5
342
330
337
100
AcDbEntity
  8
0
100
AcDbBlockEnd
  0
BLOCK
  5
345
330
344
100
AcDbEntity
  8
0
100
AcDbBlockBegin
  2
*D10
 70
     1
 10
0.0
 20
0.0
 30
0.0
  3
*D10
  1

  0
LINE
  5
7DF
330
344
100
AcDbEntity
  8
SUNPOU
100
AcDbLine
 10
249.4151544621568
 20
199.3707648573264
 30
0.0
 11
249.4151544621568
 21
218.8250703142892
 31
0.0
  0
LINE
  5
7E0
330
344
100
AcDbEntity
  8
SUNPOU
100
AcDbLine
 10
313.3114544621566
 20
199.3706648573264
 30
0.0
 11
313.3114544621566
 21
218.8250703142892
 31
0.0
  0
LINE
  5
7E1
330
344
100
AcDbEntity
  8
SUNPOU
100
AcDbLine
 10
252.4151544621568
 20
217.3250703142892
 30
0.0
 11
310.3114544621567
 21
217.3250703142892
 31
0.0
  0
INSERT
  5
7E2
330
344
100
AcDbEntity
  8
SUNPOU
100
AcDbBlockReference
  2
_OPEN
 10
249.4151544621568
 20
217.3250703142892
 30
0.0
 41
3.0
 42
3.0
 43
3.0
 50
180.0
  0
INSERT
  5
7E3
330
344
100
AcDbEntity
  8
SUNPOU
100
AcDbBlockReference
  2
_OPEN
 10
313.3114544621566
 20
217.3250703142892
 30
0.0
 41
3.0
 42
3.0
 43
3.0
  0
MTEXT
  5
7E4
330
344
100
AcDbEntity
  8
SUNPOU
100
AcDbMText
 10
281.3633044621567
 20
219.8250703142892
 30
0.0
 40
3.0
 41
0.0
 71
     5
 72
     1
  1
\A1;64
1001
ACAD
1000
MTEXTBEGIN
1070
    73
1070
     1
1070
    44
1040
1.0
1070
    74
1070
     0
1000
MTEXTEND
1000
MTEXTBEGIN
1070
    73
1070
     1
1070
    44
1040
1.0
1070
    74
1070
     0
1000
MTEXTEND
1000
MTEXTBEGIN
1070
    73
1070
     1
1070
    44
1040
1.0
1070
    74
1070
     0
1000
MTEXTEND
  0
POINT
  5
7E5
330
344
100
AcDbEntity
  8
DEFPOINTS
 62
     0
100
AcDbPoint
 10
249.4151544621568
 20
196.3707648573264
 30
0.0
  0
POINT
  5
7E6
330
344
100
AcDbEntity
  8
DEFPOINTS
 62
     0
100
AcDbPoint
 10
313.3114544621566
 20
196.3706648573264
 30
0.0
  0
POINT
  5
7E7
330
344
100
AcDbEntity
  8
DEFPOINTS
 62
     0
100
AcDbPoint
 10
313.3114544621566
 20
217.3250703142892
 30
0.0
  0
ENDBLK
  5
34F
330
344
100
AcDbEntity
  8
0
100
AcDbBlockEnd
  0
ENDSEC
  0
SECTION
  2
ENTITIES
  0
LINE
  5
6C
330
1A
100
AcDbEntity
  8
ZUWAKU
  6
CONTINUOUS
 62
     7
100
AcDbLine
 10
403.0
 20
7.0
 30
0.0
 11
5.0
 21
7.0
 31
0.0
  0
LINE
  5
6D
330
1A
100
AcDbEntity
  8
ZUWAKU
  6
CONTINUOUS
 62
     7
100
AcDbLine
 10
5.0
 20
282.0
 30
0.0
 11
5.0
 21
7.0
 31
0.0
  0
LINE
  5
6E
330
1A
100
AcDbEntity
  8
ZUWAKU
  6
CONTINUOUS
 62
     7
100
AcDbLine
 10
403.0
 20
282.0
 30
0.0
 11
403.0
 21
7.0
 31
0.0
  0
LINE
  5
6F
330
1A
100
AcDbEntity
  8
ZUWAKU
  6
CONTINUOUS
 62
     7
100
AcDbLine
 10
403.0
 20
282.0
 30
0.0
 11
5.0
 21
282.0
 31
0.0
  0
LINE
  5
8E
330
1A
100
AcDbEntity
  8
ZUWAKU
 62
     7
 48
10.0
100
AcDbLine
 10
5.0
 20
13.0
 30
0.0
 11
403.0
 21
12.99999999999994
 31
0.0
  0
TEXT
  5
93
330
1A
100
AcDbEntity
  8
ZUWAKU
 62
     7
100
AcDbText
 10
8.003143713074223
 20
7.870178177610682
 30
0.0
 40
4.0
  1
品 種
100
AcDbText
  0
TEXT
  5
97
330
1A
100
AcDbEntity
  8
ZUWAKU
 62
     7
100
AcDbText
 10
107.7028028167073
 20
8.200497435100942
 30
0.0
 40
4.0
  1
品名・ｻ ｲ ｽﾞ
100
AcDbText
  0
LINE
  5
9A
330
1A
100
AcDbEntity
  8
ZUWAKU
 62
     7
 48
10.0
100
AcDbLine
 10
324.3551403257206
 20
6.999999999999836
 30
0.0
 11
324.3551403257206
 21
12.99999999999995
 31
0.0
  0
LINE
  5
9B
330
1A
100
AcDbEntity
  8
ZUWAKU
 62
     7
 48
10.0
100
AcDbLine
 10
307.142312366876
 20
6.999999999999836
 30
0.0
 11
307.142312366876
 21
12.99999999999995
 31
0.0
  0
TEXT
  5
9C
330
1A
100
AcDbEntity
  8
ZUWAKU
 62
     7
100
AcDbText
 10
310.1429253763237
 20
7.934661405801826
 30
0.0
 40
4.0
  1
品 番
100
AcDbText
  0
TEXT
  5
9E
330
1A
100
AcDbEntity
  8
ZUWAKU
 62
     7
 48
10.0
100
AcDbText
 10
322.9513761015196
 20
2.449000558492457
 30
0.0
 40
4.0
  1
積水化学工業株式会社  建材
100
AcDbText
  0
TEXT
  5
A1
330
1A
100
AcDbEntity
  8
ZUWAKU
 62
     7
100
AcDbText
 10
389.843492473331
 20
7.886151458996323
 30
0.0
 40
4.0
  1
1/1
100
AcDbText
  0
TEXT
  5
A2
330
1A
100
AcDbEntity
  8
ZUWAKU
 62
     7
100
AcDbText
 10
369.8225424558458
 20
7.729845637642938
 30
0.0
 40
4.0
  1
尺 度
100
AcDbText
  0
LINE
  5
A3
330
1A
100
AcDbEntity
  8
ZUWAKU
 62
     7
 48
10.0
100
AcDbLine
 10
366.8807110760169
 20
6.999999999999886
 30
0.0
 11
366.8807110760169
 21
12.99999999999994
 31
0.0
  0
TEXT
  5
A6
330
1A
100
AcDbEntity
  8
ZUWAKU
 62
     7
 48
10.0
100
AcDbText
 10
396.1622424237184
 20
2.480970960763784
 30
0.0
 40
4.0
  1
A3
100
AcDbText
  0
LINE
  5
F5
330
1A
100
AcDbEntity
  8
ZUWAKU
 62
     7
 48
10.0
100
AcDbLine
 10
22.25374857290876
 20
7.0
 30
0.0
 11
22.25374857290876
 21
13.0
 31
0.0
  0
LINE
  5
F6
330
1A
100
AcDbEntity
  8
ZUWAKU
 62
     7
 48
10.0
100
AcDbLine
 10
104.7316872784438
 20
7.0
 30
0.0
 11
104.7316872784438
 21
12.99999999999998
 31
0.0
  0
LINE
  5
F8
330
1A
100
AcDbEntity
  8
ZUWAKU
 62
     7
 48
10.0
100
AcDbLine
 10
138.0261803105822
 20
7.0
 30
0.0
 11
138.0261803105822
 21
12.99999999999998
 31
0.0
  0
LINE
  5
100
330
1A
100
AcDbEntity
  8
ZUWAKU
 62
     7
 48
10.0
100
AcDbLine
 10
384.3363149538092
 20
6.999999999999862
 30
0.0
 11
384.3363149538092
 21
12.99999999999994
 31
0.0
  0
LINE
  5
207
330
1A
100
AcDbEntity
  8
CENTER_L
  6
CENTER
 62
     1
 48
5.0
100
AcDbLine
 10
113.1748745256907
 20
149.0492244399852
 30
0.0
 11
181.1557544621566
 21
130.8336648573263
 31
0.0
  0
LINE
  5
208
330
1A
100
AcDbEntity
  8
SEIHIN
  6
CONTINUOUS
 62
     3
 48
5.0
100
AcDbLine
 10
177.5253544621568
 20
161.2600648573263
 30
0.0
 11
181.2626544621568
 21
159.7410648573263
 31
0.0
  0
LINE
  5
209
330
1A
100
AcDbEntity
  8
SEIHIN
  6
CONTINUOUS
 62
     3
 48
5.0
100
AcDbLine
 10
181.2578544621567
 20
159.7430648573263
 30
0.0
 11
166.7902544621568
 21
105.7495648573264
 31
0.0
  0
LINE
  5
20A
330
1A
100
AcDbEntity
  8
SEIHIN
  6
CONTINUOUS
 62
     3
 48
5.0
100
AcDbLine
 10
175.0223544621568
 20
151.9103648573264
 30
0.0
 11
178.7596544621568
 21
150.3913648573264
 31
0.0
  0
LINE
  5
20B
330
1A
100
AcDbEntity
  8
CENTER_L
  6
CENTER
 62
     1
 48
5.0
100
AcDbLine
 10
121.3631544621568
 20
138.3780293877123
 30
0.0
 11
121.3631544621568
 21
206.3707648573264
 31
0.0
  0
LINE
  5
20C
330
1A
100
AcDbEntity
  8
SEIHIN
  6
CONTINUOUS
 62
     3
 48
5.0
100
AcDbLine
 10
162.9744544621566
 20
168.7824648573264
 30
0.0
 11
146.4357544621566
 21
107.0598648573264
 31
0.0
  0
ARC
  5
20D
330
1A
100
AcDbEntity
  8
SEIHIN
  6
CONTINUOUS
 62
     3
 48
5.0
100
AcDbCircle
 10
149.3151599619386
 20
168.370757301852
 30
0.0
 40
59.97506999783334
100
AcDbArc
 50
177.2982833995889
 51
254.8049584889417
  0
ARC
  5
20E
330
1A
100
AcDbEntity
  8
SEIHIN
  6
CONTINUOUS
 62
     3
 48
5.0
100
AcDbCircle
 10
149.3151642704124
 20
168.3707510456835
 30
0.0
 40
51.00002496523965
100
AcDbArc
 50
176.2018653833732
 51
254.5585802536205
  0
LINE
  5
20F
330
1A
100
AcDbEntity
  8
SEIHIN
  6
CONTINUOUS
 62
     3
 48
5.0
100
AcDbLine
 10
177.5233544621566
 20
161.2606648573264
 30
0.0
 11
162.7964544621566
 21
106.2994648573264
 31
0.0
  0
TEXT
  5
210
330
1A
100
AcDbEntity
  8
ZUWAKU
 62
     7
100
AcDbText
 10
25.15073007242387
 20
8.160237806787449
 30
0.0
 40
4.0
  1
アートフェイス　たてとい
100
AcDbText
  0
TEXT
  5
213
330
1A
100
AcDbEntity
  8
ZUWAKU
 62
     7
100
AcDbText
 10
141.1313324528735
 20
7.9299153608506
 30
0.0
 40
4.0
  1
角々エルボ　Ｙ６０Ｈ－７５°
100
AcDbText
  0
LINE
  5
217
330
1A
100
AcDbEntity
  8
SEIHIN
  6
CONTINUOUS
 62
     3
 48
5.0
100
AcDbLine
 10
146.4357544621566
 20
107.0598648573264
 30
0.0
 11
132.8163544621566
 21
110.7091648573264
 31
0.0
  0
LINE
  5
218
330
1A
100
AcDbEntity
  8
SEIHIN
  6
CONTINUOUS
 62
     3
 48
5.0
100
AcDbLine
 10
147.3416544621568
 20
110.4405648573264
 30
0.0
 11
162.7964544621566
 21
106.2994648573264
 31
0.0
  0
LINE
  5
219
330
1A
100
AcDbEntity
  8
SEIHIN
  6
CONTINUOUS
 62
     3
 48
5.0
100
AcDbLine
 10
162.7657544621568
 20
106.3076648573263
 30
0.0
 11
166.7704544621566
 21
105.7522648573263
 31
0.0
  0
LINE
  5
21A
330
1A
100
AcDbEntity
  8
SEIHIN
  6
CONTINUOUS
 62
     3
 48
5.0
100
AcDbLine
 10
148.7651544621566
 20
115.7531648573264
 30
0.0
 11
135.3558544621568
 21
119.3462648573264
 31
0.0
  0
LINE
  5
21B
330
1A
100
AcDbEntity
  8
SEIHIN
  6
CONTINUOUS
 62
     3
 48
5.0
100
AcDbLine
 10
165.2811544621568
 20
115.5723648573263
 30
0.0
 11
149.8263544621566
 21
119.7134648573263
 31
0.0
  0
LINE
  5
21C
330
1A
100
AcDbEntity
  8
SEIHIN
  6
CONTINUOUS
 62
     3
 48
5.0
100
AcDbLine
 10
165.2413544621566
 20
115.5737648573263
 30
0.0
 11
169.2460544621568
 21
115.0183648573264
 31
0.0
  0
LINE
  5
21D
330
1A
100
AcDbEntity
  8
SEIHIN
  6
CONTINUOUS
 62
     3
 48
5.0
100
AcDbLine
 10
175.0386544621568
 20
151.9877648573264
 30
0.0
 11
159.5838544621566
 21
156.1288648573264
 31
0.0
  0
DIMENSION
  5
21E
330
1A
100
AcDbEntity
  8
SUNPOU
100
AcDbDimension
  2
*D1
 10
153.3151544621568
 20
217.3250703142892
 30
0.0
 11
121.3651544621567
 21
219.8250703142892
 31
0.0
 70
    32
  3
STANDARD
100
AcDbAlignedDimension
 13
89.41515446215673
 23
196.3707648573264
 33
0.0
 14
153.3151544621568
 24
196.3707648573264
 34
0.0
100
AcDbRotatedDimension
1001
ACAD
1000
DSTYLE
1002
{
1070
   372
1070
    -1
1070
   371
1070
    -1
1070
    41
1040
3.0
1070
    42
1040
3.0
1070
    43
1040
7.0
1070
    44
1040
1.5
1070
    73
1070
     0
1070
    74
1070
     0
1070
    77
1070
     3
1070
   140
1040
3.0
1070
   141
1040
150.0
1070
   147
1040
1.0
1070
   172
1070
     1
1070
   173
1070
     1
1070
   176
1070
   256
1070
   177
1070
   256
1070
   178
1070
   256
1070
   271
1070
     0
1070
   272
1070
     2
1070
     6
1000
OPEN
1070
     7
1000
OPEN
1002
}
  0
LINE
  5
21F
330
1A
100
AcDbEntity
  8
SEIHIN
  6
CONTINUOUS
 62
     3
 48
5.0
100
AcDbLine
 10
89.41515446215673
 20
196.3707648573264
 30
0.0
 11
153.3151544621568
 21
196.3707648573264
 31
0.0
  0
LINE
  5
220
330
1A
100
AcDbEntity
  8
SEIHIN
  6
CONTINUOUS
 62
     3
 48
5.0
100
AcDbLine
 10
89.41515446215673
 20
196.3707648573264
 30
0.0
 11
89.41515446215673
 21
171.3707648573264
 31
0.0
  0
LINE
  5
221
330
1A
100
AcDbEntity
  8
SEIHIN
  6
CONTINUOUS
 62
     3
 48
5.0
100
AcDbLine
 10
98.41515446215673
 20
196.3707648573264
 30
0.0
 11
98.41515446215673
 21
171.3707648573264
 31
0.0
  0
ARC
  5
222
330
1A
100
AcDbEntity
  8
SEIHIN
  6
CONTINUOUS
 62
     3
 48
5.0
100
AcDbCircle
 10
153.3151907931212
 20
171.3707175098365
 30
0.0
 40
9.000036331089006
100
AcDbArc
 50
179.9996985777344
 51
254.9996340691692
  0
LINE
  5
223
330
1A
100
AcDbEntity
  8
SEIHIN
  6
CONTINUOUS
 62
     3
 48
5.0
100
AcDbLine
 10
144.3151544621568
 20
196.3707648573264
 30
0.0
 11
144.3151544621568
 21
171.3707648573264
 31
0.0
  0
LINE
  5
224
330
1A
100
AcDbEntity
  8
SEIHIN
  6
CONTINUOUS
 62
     3
 48
5.0
100
AcDbLine
 10
124.8651544621568
 20
195.8707648573264
 30
0.0
 11
124.8651544621568
 21
191.3707648573264
 31
0.0
  0
LINE
  5
225
330
1A
100
AcDbEntity
  8
SEIHIN
  6
CONTINUOUS
 62
     3
 48
5.0
100
AcDbLine
 10
117.8612544621566
 20
195.8707648573264
 30
0.0
 11
117.8612544621566
 21
191.3707648573264
 31
0.0
  0
LINE
  5
226
330
1A
100
AcDbEntity
  8
SEIHIN
  6
CONTINUOUS
 62
     3
 48
5.0
100
AcDbLine
 10
117.8612544621566
 20
191.8707648573264
 30
0.0
 11
121.3612544621566
 21
191.8707648573264
 31
0.0
  0
LINE
  5
227
330
1A
100
AcDbEntity
  8
SEIHIN
  6
CONTINUOUS
 62
     3
 48
5.0
100
AcDbLine
 10
117.8612544621566
 20
191.3707648573264
 30
0.0
 11
121.3612544621566
 21
191.3707648573264
 31
0.0
  0
LINE
  5
228
330
1A
100
AcDbEntity
  8
SEIHIN
  6
CONTINUOUS
 62
     3
 48
5.0
100
AcDbLine
 10
124.8651544621568
 20
191.8707648573264
 30
0.0
 11
121.3651544621568
 21
191.8707648573264
 31
0.0
  0
LINE
  5
229
330
1A
100
AcDbEntity
  8
SEIHIN
  6
CONTINUOUS
 62
     3
 48
5.0
100
AcDbLine
 10
124.8651544621568
 20
191.3707648573264
 30
0.0
 11
121.3651544621568
 21
191.3707648573264
 31
0.0
  0
LINE
  5
22A
330
1A
100
AcDbEntity
  8
SEIHIN
  6
CONTINUOUS
 62
     3
 48
5.0
100
AcDbLine
 10
117.8612544621566
 20
195.8707648573264
 30
0.0
 11
121.3612544621566
 21
195.8707648573264
 31
0.0
  0
LINE
  5
22B
330
1A
100
AcDbEntity
  8
SEIHIN
  6
CONTINUOUS
 62
     3
 48
5.0
100
AcDbLine
 10
124.8651544621568
 20
195.8707648573264
 30
0.0
 11
121.3651544621568
 21
195.8707648573264
 31
0.0
  0
LINE
  5
22C
330
1A
100
AcDbEntity
  8
SEIHIN
  6
CONTINUOUS
 62
     3
 48
5.0
100
AcDbLine
 10
153.3151544621568
 20
196.3707648573264
 30
0.0
 11
153.3151544621568
 21
172.1380648573263
 31
0.0
  0
LINE
  5
22D
330
1A
100
AcDbEntity
  8
SEIHIN
  6
CONTINUOUS
 62
     3
 48
5.0
100
AcDbLine
 10
162.9744544621566
 20
168.7824648573264
 30
0.0
 11
154.0563544621566
 21
171.1720648573263
 31
0.0
  0
LINE
  5
22E
330
1A
100
AcDbEntity
  8
SEIHIN
  6
CONTINUOUS
 62
     3
 48
5.0
100
AcDbLine
 10
162.0685544621568
 20
165.4017648573264
 30
0.0
 11
177.5233544621566
 21
161.2606648573264
 31
0.0
  0
LINE
  5
22F
330
1A
100
AcDbEntity
  8
SEIHIN
  6
CONTINUOUS
 62
     3
 48
5.0
100
AcDbLine
 10
160.6450544621568
 20
160.0891648573262
 30
0.0
 11
150.9857544621567
 21
162.6773648573264
 31
0.0
  0
ARC
  5
230
330
1A
100
AcDbEntity
  8
SEIHIN
  6
CONTINUOUS
 62
     3
 48
5.0
100
AcDbCircle
 10
154.3151878210439
 20
172.1380213848698
 30
0.0
 40
1.000033359832018
100
AcDbArc
 50
179.997509294811
 51
254.9996631129169
  0
LINE
  5
231
330
1A
100
AcDbEntity
  8
SEIHIN
  6
CONTINUOUS
 62
     3
 48
5.0
100
AcDbLine
 10
153.3151544621568
 20
196.3707648573264
 30
0.0
 11
149.3151544621567
 21
196.3707648573264
 31
0.0
  0
LINE
  5
232
330
1A
100
AcDbEntity
  8
SEIHIN
  6
CONTINUOUS
 62
     3
 48
5.0
100
AcDbLine
 10
249.4151544621568
 20
196.3707648573264
 30
0.0
 11
249.4151544621568
 21
116.1107648573264
 31
0.0
  0
LINE
  5
233
330
1A
100
AcDbEntity
  8
SEIHIN
  6
CONTINUOUS
 62
     3
 48
5.0
100
AcDbLine
 10
313.3114544621566
 20
196.3706648573264
 30
0.0
 11
313.3114544621566
 21
116.1107648573264
 31
0.0
  0
ARC
  5
234
330
1A
100
AcDbEntity
  8
SEIHIN
  6
CONTINUOUS
 62
     3
 48
5.0
100
AcDbCircle
 10
310.9788542496567
 20
156.8964651289612
 30
0.0
 40
1.000000212500091
100
AcDbArc
 50
359.9999844364679
 51
76.07213187515753
  0
ARC
  5
235
330
1A
100
AcDbEntity
  8
SEIHIN
  6
CONTINUOUS
 62
     3
 48
5.0
100
AcDbCircle
 10
313.7468838379506
 20
168.058334176799
 30
0.0
 40
10.49996971975509
100
AcDbArc
 50
191.4382629580876
 51
256.0722163741476
  0
ARC
  5
236
330
1A
100
AcDbEntity
  8
SEIHIN
  6
CONTINUOUS
 62
     3
 48
5.0
100
AcDbCircle
 10
313.3113702022181
 20
167.8509490924648
 30
0.0
 40
9.000027085242569
100
AcDbArc
 50
185.7390522799351
 51
264.1705236259733
  0
ARC
  5
237
330
1A
100
AcDbEntity
  8
SEIHIN
  6
CONTINUOUS
 62
     3
 48
5.0
100
AcDbCircle
 10
251.7477546746565
 20
156.8965651289612
 30
0.0
 40
1.000000212500015
100
AcDbArc
 50
103.9278681248356
 51
180.0000155635246
  0
ARC
  5
238
330
1A
100
AcDbEntity
  8
SEIHIN
  6
CONTINUOUS
 62
     3
 48
5.0
100
AcDbCircle
 10
250.0657138597664
 20
163.4749242571415
 30
0.0
 40
13.99104170932502
100
AcDbArc
 50
289.4714813917781
 51
340.525830779189
  0
ARC
  5
239
330
1A
100
AcDbEntity
  8
SEIHIN
  6
CONTINUOUS
 62
     3
 48
5.0
100
AcDbCircle
 10
250.0657023718232
 20
163.4749127858438
 30
0.0
 40
12.67420236061448
100
AcDbArc
 50
285.545598818634
 51
344.4342427536341
  0
ARC
  5
23A
330
1A
100
AcDbEntity
  8
SEIHIN
  6
CONTINUOUS
 62
     3
 48
5.0
100
AcDbCircle
 10
250.0657364540162
 20
163.4749468576197
 30
0.0
 40
13.16798432241465
100
AcDbArc
 50
286.7288903514022
 51
343.2444651343878
  0
ARC
  5
23B
330
1A
100
AcDbEntity
  8
SEIHIN
  6
CONTINUOUS
 62
     3
 48
5.0
100
AcDbCircle
 10
250.0657023718232
 20
164.0594127858437
 30
0.0
 40
12.67420236061448
100
AcDbArc
 50
285.545598818634
 51
344.4342427536341
  0
ARC
  5
23C
330
1A
100
AcDbEntity
  8
SEIHIN
  6
CONTINUOUS
 62
     3
 48
5.0
100
AcDbCircle
 10
249.4151886341847
 20
167.8510990836128
 30
0.0
 40
8.999982422508896
100
AcDbArc
 50
275.829825931104
 51
354.2605992866818
  0
ARC
  5
23D
330
1A
100
AcDbEntity
  8
SEIHIN
  6
CONTINUOUS
 62
     3
 48
5.0
100
AcDbCircle
 10
248.9797406547235
 20
168.0584504367656
 30
0.0
 40
10.49995768516079
100
AcDbArc
 50
283.9271501808606
 51
348.5616332301706
  0
ARC
  5
23E
330
1A
100
AcDbEntity
  8
SEIHIN
  6
CONTINUOUS
 62
     3
 48
5.0
100
AcDbCircle
 10
312.6608565522301
 20
163.4747627679889
 30
0.0
 40
12.67414077225757
100
AcDbArc
 50
195.5656000799257
 51
254.4545583478063
  0
ARC
  5
23F
330
1A
100
AcDbEntity
  8
SEIHIN
  6
CONTINUOUS
 62
     3
 48
5.0
100
AcDbCircle
 10
312.660845064405
 20
163.4747742546534
 30
0.0
 40
13.99097789970781
100
AcDbArc
 50
199.4740444287593
 51
250.5286434002712
  0
ARC
  5
240
330
1A
100
AcDbEntity
  8
SEIHIN
  6
CONTINUOUS
 62
     3
 48
5.0
100
AcDbCircle
 10
312.6608439709322
 20
163.4747753438128
 30
0.0
 40
13.1679364165429
100
AcDbArc
 50
196.7552726581163
 51
253.2707221373363
  0
ARC
  5
241
330
1A
100
AcDbEntity
  8
SEIHIN
  6
CONTINUOUS
 62
     3
 48
5.0
100
AcDbCircle
 10
312.6607565522302
 20
164.0593627679888
 30
0.0
 40
12.67414077225768
100
AcDbArc
 50
195.5656000799251
 51
254.4545583478055
  0
LINE
  5
242
330
1A
100
AcDbEntity
  8
CENTER_L
  6
CENTER
 62
     1
 48
5.0
100
AcDbLine
 10
281.3632544621566
 20
204.3866648573262
 30
0.0
 11
281.3631544621566
 21
95.53566485732638
 31
0.0
  0
LINE
  5
243
330
1A
100
AcDbEntity
  8
SEIHIN
  6
CONTINUOUS
 62
     3
 48
5.0
100
AcDbLine
 10
252.8639544621567
 20
132.7408648573263
 30
0.0
 11
252.8639544621567
 21
158.0738648573264
 31
0.0
  0
LINE
  5
244
330
1A
100
AcDbEntity
  8
SEIHIN
  6
CONTINUOUS
 62
     3
 48
5.0
100
AcDbLine
 10
309.8625544621568
 20
132.7407648573264
 30
0.0
 11
309.8626544621568
 21
158.0737648573262
 31
0.0
  0
LINE
  5
245
330
1A
100
AcDbEntity
  8
CENTER_L
  6
CENTER
 62
     1
 48
5.0
100
AcDbLine
 10
242.4308544621567
 20
132.7447265928422
 30
0.0
 11
320.2956544621566
 21
132.7447265928423
 31
0.0
  0
ARC
  5
246
330
1A
100
AcDbEntity
  8
SEIHIN
  6
CONTINUOUS
 62
     3
 48
5.0
100
AcDbCircle
 10
313.7466806708563
 20
105.9550732818887
 30
0.0
 40
10.49999055907991
100
AcDbArc
 50
103.9277376202249
 51
111.7116802847528
  0
ARC
  5
247
330
1A
100
AcDbEntity
  8
SEIHIN
  6
CONTINUOUS
 62
     3
 48
5.0
100
AcDbCircle
 10
313.3111787806361
 20
106.1624717364288
 30
0.0
 40
9.000036796346767
100
AcDbArc
 50
95.82952495775746
 51
115.7606097147376
  0
TEXT
  5
248
330
1A
100
AcDbEntity
  8
ZUWAKU
 62
     7
100
AcDbText
 10
327.1013476411085
 20
8.060146781246267
 30
0.0
 40
4.0
  1
ＰＦ０１
100
AcDbText
  0
ARC
  5
24C
330
1A
100
AcDbEntity
  8
SEIHIN
  6
CONTINUOUS
 62
     3
 48
5.0
100
AcDbCircle
 10
313.3111466776718
 20
106.1624535803912
 30
0.0
 40
9.000006382781224
100
AcDbArc
 50
116.504332608436
 51
174.2607614537837
  0
ARC
  5
24D
330
1A
100
AcDbEntity
  8
SEIHIN
  6
CONTINUOUS
 62
     3
 48
5.0
100
AcDbCircle
 10
313.7466774646147
 20
105.9551142847474
 30
0.0
 40
10.49997958677274
100
AcDbArc
 50
141.5267723257751
 51
168.5612955730155
  0
LINE
  5
24E
330
1A
100
AcDbEntity
  8
SEIHIN
  6
CONTINUOUS
 62
     3
 48
5.0
100
AcDbLine
 10
298.7072544621568
 20
106.1279648573264
 30
0.0
 11
298.7072544621568
 21
112.0341648573264
 31
0.0
  0
LINE
  5
24F
330
1A
100
AcDbEntity
  8
SEIHIN
  6
CONTINUOUS
 62
     3
 48
5.0
100
AcDbLine
 10
264.0190544621567
 20
106.1279648573264
 30
0.0
 11
264.0191544621568
 21
112.0341648573264
 31
0.0
  0
ARC
  5
250
330
1A
100
AcDbEntity
  8
SEIHIN
  6
CONTINUOUS
 62
     3
 48
5.0
100
AcDbCircle
 10
248.9797697126147
 20
105.9551320865969
 30
0.0
 40
10.49993856320877
100
AcDbArc
 50
11.43865061250791
 51
38.47328148869889
  0
ARC
  5
251
330
1A
100
AcDbEntity
  8
SEIHIN
  6
CONTINUOUS
 62
     3
 48
5.0
100
AcDbCircle
 10
250.0657638599086
 20
102.0122554599991
 30
0.0
 40
13.99097789970779
100
AcDbArc
 50
19.47404442876046
 51
70.52864340027217
  0
ARC
  5
252
330
1A
100
AcDbEntity
  8
SEIHIN
  6
CONTINUOUS
 62
     3
 48
5.0
100
AcDbCircle
 10
250.0657523720832
 20
102.0122669466636
 30
0.0
 40
12.67414077225776
100
AcDbArc
 50
15.5656000799257
 51
74.45455834780621
  0
ARC
  5
253
330
1A
100
AcDbEntity
  8
SEIHIN
  6
CONTINUOUS
 62
     3
 48
5.0
100
AcDbCircle
 10
250.0657864539448
 20
102.0122328802187
 30
0.0
 40
13.16792202422716
100
AcDbArc
 50
16.75538916708604
 51
73.27125534712457
  0
ARC
  5
254
330
1A
100
AcDbEntity
  8
SEIHIN
  6
CONTINUOUS
 62
     3
 48
5.0
100
AcDbCircle
 10
249.4151886325122
 20
106.1625153559123
 30
0.0
 40
8.999983951759679
100
AcDbArc
 50
5.739497469425613
 51
63.49507249725442
  0
ARC
  5
255
330
1A
100
AcDbEntity
  8
SEIHIN
  6
CONTINUOUS
 62
     3
 48
5.0
100
AcDbCircle
 10
312.660617716546
 20
102.0121281136239
 30
0.0
 40
13.99096123312124
100
AcDbArc
 50
109.4708275812987
 51
160.5258126521128
  0
ARC
  5
256
330
1A
100
AcDbEntity
  8
SEIHIN
  6
CONTINUOUS
 62
     3
 48
5.0
100
AcDbCircle
 10
312.6606724702972
 20
102.0121828570329
 30
0.0
 40
13.16798432241466
100
AcDbArc
 50
106.7288903514016
 51
163.244465134387
  0
ARC
  5
257
330
1A
100
AcDbEntity
  8
SEIHIN
  6
CONTINUOUS
 62
     3
 48
5.0
100
AcDbCircle
 10
312.6606179703029
 20
102.0121283788785
 30
0.0
 40
12.67414078967001
100
AcDbArc
 50
105.5447913581242
 51
164.4337496704501
  0
LINE
  5
258
330
1A
100
AcDbEntity
  8
SEIHIN
  6
CONTINUOUS
 62
     3
 48
5.0
100
AcDbLine
 10
264.0191544621568
 20
106.1279648573264
 30
0.0
 11
281.3632544621566
 21
106.1279648573264
 31
0.0
  0
LINE
  5
259
330
1A
100
AcDbEntity
  8
SEIHIN
  6
CONTINUOUS
 62
     3
 48
5.0
100
AcDbLine
 10
263.4551544621566
 20
105.2226648573263
 30
0.0
 11
281.3632544621566
 21
105.2226648573263
 31
0.0
  0
LINE
  5
25A
330
1A
100
AcDbEntity
  8
SEIHIN
  6
CONTINUOUS
 62
     3
 48
5.0
100
AcDbLine
 10
263.0603544621568
 20
104.8111648573263
 30
0.0
 11
281.3632544621566
 21
104.8111648573263
 31
0.0
  0
LINE
  5
25B
330
1A
100
AcDbEntity
  8
SEIHIN
  6
CONTINUOUS
 62
     3
 48
5.0
100
AcDbLine
 10
259.3138544621567
 20
106.1624648573263
 30
0.0
 11
262.0411544621567
 21
106.1624648573263
 31
0.0
  0
LINE
  5
25C
330
1A
100
AcDbEntity
  8
SEIHIN
  6
CONTINUOUS
 62
     3
 48
5.0
100
AcDbLine
 10
260.2513544621566
 20
107.2357648573264
 30
0.0
 11
261.6134544621568
 21
107.2357648573264
 31
0.0
  0
ARC
  5
25D
330
1A
100
AcDbEntity
  8
SEIHIN
  6
CONTINUOUS
 62
     3
 48
5.0
100
AcDbCircle
 10
260.2513193358389
 20
108.2357935890009
 30
0.0
 40
1.000028732291379
100
AcDbArc
 50
191.4389116972026
 51
270.0020125319263
  0
ARC
  5
25E
330
1A
100
AcDbEntity
  8
SEIHIN
  6
CONTINUOUS
 62
     3
 48
5.0
100
AcDbCircle
 10
259.3650475525736
 20
107.1625711072873
 30
0.0
 40
1.000006249984769
100
AcDbArc
 50
185.7394943855663
 51
270.0003958874767
  0
ARC
  5
25F
330
1A
100
AcDbEntity
  8
SEIHIN
  6
CONTINUOUS
 62
     3
 48
5.0
100
AcDbCircle
 10
263.4628395669201
 20
106.045575929474
 30
0.0
 40
0.823011072282404
100
AcDbArc
 50
196.7516250750738
 51
270.0010369656344
  0
ARC
  5
260
330
1A
100
AcDbEntity
  8
SEIHIN
  6
CONTINUOUS
 62
     3
 48
5.0
100
AcDbCircle
 10
263.067906439011
 20
105.6341013334103
 30
0.0
 40
0.8229364774851829
100
AcDbArc
 50
195.5662122159735
 51
270.0033435430793
  0
ARC
  5
261
330
1A
100
AcDbEntity
  8
SEIHIN
  6
CONTINUOUS
 62
     3
 48
5.0
100
AcDbCircle
 10
264.0323835454139
 20
106.9508442918064
 30
0.0
 40
0.822979434993925
100
AcDbArc
 50
199.4677468079791
 51
269.9979752253582
  0
LINE
  5
262
330
1A
100
AcDbEntity
  8
SEIHIN
  6
CONTINUOUS
 62
     3
 48
5.0
100
AcDbLine
 10
299.6660544621568
 20
104.8111648573263
 30
0.0
 11
281.3631544621566
 21
104.8111648573263
 31
0.0
  0
LINE
  5
263
330
1A
100
AcDbEntity
  8
SEIHIN
  6
CONTINUOUS
 62
     3
 48
5.0
100
AcDbLine
 10
299.2712544621566
 20
105.2225648573264
 30
0.0
 11
281.3631544621566
 21
105.2226648573263
 31
0.0
  0
LINE
  5
264
330
1A
100
AcDbEntity
  8
SEIHIN
  6
CONTINUOUS
 62
     3
 48
5.0
100
AcDbLine
 10
298.7072544621568
 20
106.1279648573264
 30
0.0
 11
281.3631544621566
 21
106.1280648573263
 31
0.0
  0
LINE
  5
265
330
1A
100
AcDbEntity
  8
SEIHIN
  6
CONTINUOUS
 62
     3
 48
5.0
100
AcDbLine
 10
303.4126544621566
 20
106.1623648573263
 30
0.0
 11
300.6852544621567
 21
106.1623648573263
 31
0.0
  0
LINE
  5
266
330
1A
100
AcDbEntity
  8
SEIHIN
  6
CONTINUOUS
 62
     3
 48
5.0
100
AcDbLine
 10
302.4750544621566
 20
107.2357648573264
 30
0.0
 11
301.1129544621568
 21
107.2357648573264
 31
0.0
  0
ARC
  5
267
330
1A
100
AcDbEntity
  8
SEIHIN
  6
CONTINUOUS
 62
     3
 48
5.0
100
AcDbCircle
 10
299.2635887513285
 20
106.0455903425641
 30
0.0
 40
0.8230254859519481
100
AcDbArc
 50
269.9976129234505
 51
343.240358807875
  0
ARC
  5
268
330
1A
100
AcDbEntity
  8
SEIHIN
  6
CONTINUOUS
 62
     3
 48
5.0
100
AcDbCircle
 10
299.6584543221647
 20
105.6340647510079
 30
0.0
 40
0.8229998936815098
100
AcDbArc
 50
270.0000097460001
 51
344.4304344949506
  0
ARC
  5
269
330
1A
100
AcDbEntity
  8
SEIHIN
  6
CONTINUOUS
 62
     3
 48
5.0
100
AcDbCircle
 10
298.6940489499561
 20
106.950860959981
 30
0.0
 40
0.8229961026730872
100
AcDbArc
 50
270.0003837513083
 51
340.5240483808718
  0
ARC
  5
26A
330
1A
100
AcDbEntity
  8
SEIHIN
  6
CONTINUOUS
 62
     3
 48
5.0
100
AcDbCircle
 10
302.4750895884742
 20
108.2357935890009
 30
0.0
 40
1.00002873229143
100
AcDbArc
 50
269.9979874680723
 51
348.5610883027945
  0
ARC
  5
26B
330
1A
100
AcDbEntity
  8
SEIHIN
  6
CONTINUOUS
 62
     3
 48
5.0
100
AcDbCircle
 10
303.3613063713465
 20
107.162421357934
 30
0.0
 40
0.9999565017641366
100
AcDbArc
 50
270.0027555203205
 51
354.2630840217477
  0
LINE
  5
26C
330
1A
100
AcDbEntity
  8
SEIHIN
  6
CONTINUOUS
 62
     3
 48
5.0
100
AcDbLine
 10
264.0191544621568
 20
112.0341648573264
 30
0.0
 11
281.3633544621568
 21
112.0341648573264
 31
0.0
  0
LINE
  5
26D
330
1A
100
AcDbEntity
  8
SEIHIN
  6
CONTINUOUS
 62
     3
 48
5.0
100
AcDbLine
 10
250.7476544621567
 20
137.0067648573264
 30
0.0
 11
250.7475544621568
 21
117.0698648573264
 31
0.0
  0
LINE
  5
26E
330
1A
100
AcDbEntity
  8
SEIHIN
  6
CONTINUOUS
 62
     3
 48
5.0
100
AcDbLine
 10
254.1808544621568
 20
132.7408648573263
 30
0.0
 11
254.1807544621567
 21
149.5081648573264
 31
0.0
  0
LINE
  5
26F
330
1A
100
AcDbEntity
  8
SEIHIN
  6
CONTINUOUS
 62
     3
 48
5.0
100
AcDbLine
 10
253.2755544621565
 20
132.7408648573263
 30
0.0
 11
253.2754544621566
 21
150.0777648573264
 31
0.0
  0
LINE
  5
270
330
1A
100
AcDbEntity
  8
SEIHIN
  6
CONTINUOUS
 62
     3
 48
5.0
100
AcDbLine
 10
261.0176544621566
 20
154.0245648573264
 30
0.0
 11
261.0175544621568
 21
117.0698648573264
 31
0.0
  0
ARC
  5
271
330
1A
100
AcDbEntity
  8
SEIHIN
  6
CONTINUOUS
 62
     3
 48
5.0
100
AcDbCircle
 10
250.0656638599085
 20
107.9184554599994
 30
0.0
 40
13.99097789970766
100
AcDbArc
 50
19.47404442875904
 51
70.52864340027079
  0
LINE
  5
272
330
1A
100
AcDbEntity
  8
SEIHIN
  6
CONTINUOUS
 62
     3
 48
5.0
100
AcDbLine
 10
252.8640544621568
 20
132.7463648573264
 30
0.0
 11
252.8639544621567
 21
115.0145648573264
 31
0.0
  0
LINE
  5
273
330
1A
100
AcDbEntity
  8
SEIHIN
  6
CONTINUOUS
 62
     3
 48
5.0
100
AcDbLine
 10
254.1808544621568
 20
132.7462648573263
 30
0.0
 11
254.1807544621567
 21
115.9789648573264
 31
0.0
  0
LINE
  5
274
330
1A
100
AcDbEntity
  8
SEIHIN
  6
CONTINUOUS
 62
     3
 48
5.0
100
AcDbLine
 10
253.2755544621565
 20
132.7463648573264
 30
0.0
 11
253.2754544621566
 21
115.4093648573263
 31
0.0
  0
ARC
  5
275
330
1A
100
AcDbEntity
  8
SEIHIN
  6
CONTINUOUS
 62
     3
 48
5.0
100
AcDbCircle
 10
249.4152489262287
 20
106.1625381343758
 30
0.0
 40
8.999968834060547
100
AcDbArc
 50
64.23931426338426
 51
84.17055106412176
  0
ARC
  5
276
330
1A
100
AcDbEntity
  8
SEIHIN
  6
CONTINUOUS
 62
     3
 48
5.0
100
AcDbCircle
 10
248.9796376180368
 20
105.9552024147074
 30
0.0
 40
10.49996002872903
100
AcDbArc
 50
68.2883083812635
 51
76.07227371375167
  0
ARC
  5
277
330
1A
100
AcDbEntity
  8
SEIHIN
  6
CONTINUOUS
 62
     3
 48
5.0
100
AcDbCircle
 10
251.7477546746566
 20
117.1170645856915
 30
0.0
 40
1.000000212500081
100
AcDbArc
 50
179.9999844364714
 51
256.0721318751613
  0
ARC
  5
278
330
1A
100
AcDbEntity
  8
SEIHIN
  6
CONTINUOUS
 62
     3
 48
5.0
100
AcDbCircle
 10
250.4308865261287
 20
116.1108293557471
 30
0.0
 40
1.000032064602017
100
AcDbArc
 50
179.9979659745624
 51
264.1727871315916
  0
ARC
  5
279
330
1A
100
AcDbEntity
  8
SEIHIN
  6
CONTINUOUS
 62
     3
 48
5.0
100
AcDbCircle
 10
255.0037338966368
 20
115.9789939405834
 30
0.0
 40
0.8229794349939348
100
AcDbArc
 50
180.0020247746292
 51
250.5322531920051
  0
ARC
  5
27A
330
1A
100
AcDbEntity
  8
SEIHIN
  6
CONTINUOUS
 62
     3
 48
5.0
100
AcDbCircle
 10
253.6869409382406
 20
115.0145826624447
 30
0.0
 40
0.8229864762766819
100
AcDbArc
 50
180.0012395806785
 51
254.4383709077844
  0
ARC
  5
27B
330
1A
100
AcDbEntity
  8
SEIHIN
  6
CONTINUOUS
 62
     3
 48
5.0
100
AcDbCircle
 10
254.0984176561363
 20
115.4094143738662
 30
0.0
 40
0.8229631954693608
100
AcDbArc
 50
180.0034474065982
 51
253.2508526786734
  0
ARC
  5
27C
330
1A
100
AcDbEntity
  8
SEIHIN
  6
CONTINUOUS
 62
     3
 48
5.0
100
AcDbCircle
 10
255.0037338966368
 20
121.8851939405835
 30
0.0
 40
0.822979434993894
100
AcDbArc
 50
180.0020247746312
 51
250.5322531920072
  0
ARC
  5
27D
330
1A
100
AcDbEntity
  8
SEIHIN
  6
CONTINUOUS
 62
     3
 48
5.0
100
AcDbCircle
 10
264.0323835454139
 20
112.8570442918063
 30
0.0
 40
0.8229794349939025
100
AcDbArc
 50
199.4677468079829
 51
269.9979752253609
  0
LINE
  5
27E
330
1A
100
AcDbEntity
  8
SEIHIN
  6
CONTINUOUS
 62
     3
 48
5.0
100
AcDbLine
 10
250.7476544621567
 20
137.0067648573264
 30
0.0
 11
250.7477544621566
 21
156.8965648573264
 31
0.0
  0
ARC
  5
27F
330
1A
100
AcDbEntity
  8
SEIHIN
  6
CONTINUOUS
 62
     3
 48
5.0
100
AcDbCircle
 10
253.6869409382406
 20
151.057147052208
 30
0.0
 40
0.8229864762766441
100
AcDbArc
 50
105.5616290922136
 51
179.9987604193194
  0
ARC
  5
280
330
1A
100
AcDbEntity
  8
SEIHIN
  6
CONTINUOUS
 62
     3
 48
5.0
100
AcDbCircle
 10
255.0037338966367
 20
149.5081357740693
 30
0.0
 40
0.8229794349938654
100
AcDbArc
 50
109.4677468079915
 51
179.9979752253662
  0
ARC
  5
281
330
1A
100
AcDbEntity
  8
SEIHIN
  6
CONTINUOUS
 62
     3
 48
5.0
100
AcDbCircle
 10
253.6869409382406
 20
150.4725470522079
 30
0.0
 40
0.8229864762765693
100
AcDbArc
 50
105.5616290922096
 51
179.9987604193155
  0
ARC
  5
282
330
1A
100
AcDbEntity
  8
SEIHIN
  6
CONTINUOUS
 62
     3
 48
5.0
100
AcDbCircle
 10
254.098465534304
 20
150.0777797525629
 30
0.0
 40
0.8230110722822484
100
AcDbArc
 50
106.7516250750641
 51
180.0010369656221
  0
LINE
  5
283
330
1A
100
AcDbEntity
  8
SEIHIN
  6
CONTINUOUS
 62
     3
 48
5.0
100
AcDbLine
 10
308.5456544621568
 20
132.7407648573264
 30
0.0
 11
308.5456544621568
 21
149.5080648573263
 31
0.0
  0
LINE
  5
284
330
1A
100
AcDbEntity
  8
SEIHIN
  6
CONTINUOUS
 62
     3
 48
5.0
100
AcDbLine
 10
309.4509544621568
 20
132.7407648573264
 30
0.0
 11
309.4509544621568
 21
150.0776648573264
 31
0.0
  0
LINE
  5
285
330
1A
100
AcDbEntity
  8
SEIHIN
  6
CONTINUOUS
 62
     3
 48
5.0
100
AcDbLine
 10
301.7088544621567
 20
154.0245648573264
 30
0.0
 11
301.7088544621567
 21
117.0697648573264
 31
0.0
  0
LINE
  5
286
330
1A
100
AcDbEntity
  8
SEIHIN
  6
CONTINUOUS
 62
     3
 48
5.0
100
AcDbLine
 10
298.7072544621568
 20
112.0341648573264
 30
0.0
 11
281.3630544621566
 21
112.0342648573264
 31
0.0
  0
LINE
  5
287
330
1A
100
AcDbEntity
  8
SEIHIN
  6
CONTINUOUS
 62
     3
 48
5.0
100
AcDbLine
 10
309.4509544621568
 20
132.7462648573263
 30
0.0
 11
309.4509544621568
 21
115.4093648573263
 31
0.0
  0
LINE
  5
288
330
1A
100
AcDbEntity
  8
SEIHIN
  6
CONTINUOUS
 62
     3
 48
5.0
100
AcDbLine
 10
309.8623544621566
 20
132.7462648573263
 30
0.0
 11
309.8623544621566
 21
115.0145648573264
 31
0.0
  0
LINE
  5
289
330
1A
100
AcDbEntity
  8
SEIHIN
  6
CONTINUOUS
 62
     3
 48
5.0
100
AcDbLine
 10
308.5456544621568
 20
132.7462648573263
 30
0.0
 11
308.5456544621568
 21
115.9788648573264
 31
0.0
  0
ARC
  5
28A
330
1A
100
AcDbEntity
  8
SEIHIN
  6
CONTINUOUS
 62
     3
 48
5.0
100
AcDbCircle
 10
312.6607450644048
 20
107.9183554599992
 30
0.0
 40
13.99097789970787
100
AcDbArc
 50
109.4713565997281
 51
160.5259555712397
  0
ARC
  5
28B
330
1A
100
AcDbEntity
  8
SEIHIN
  6
CONTINUOUS
 62
     3
 48
5.0
100
AcDbCircle
 10
298.6940489499561
 20
112.8570609599809
 30
0.0
 40
0.8229961026730872
100
AcDbArc
 50
270.0003837513083
 51
340.5240483808737
  0
ARC
  5
28C
330
1A
100
AcDbEntity
  8
SEIHIN
  6
CONTINUOUS
 62
     3
 48
5.0
100
AcDbCircle
 10
307.7226750276768
 20
115.9788939405835
 30
0.0
 40
0.8229794349939206
100
AcDbArc
 50
289.4677468079861
 51
359.9979752253608
  0
ARC
  5
28D
330
1A
100
AcDbEntity
  8
SEIHIN
  6
CONTINUOUS
 62
     3
 48
5.0
100
AcDbCircle
 10
309.0393832294116
 20
115.0144710893342
 30
0.0
 40
0.8229712380868672
100
AcDbArc
 50
285.5608229004372
 51
0.0065281870943681
  0
ARC
  5
28E
330
1A
100
AcDbEntity
  8
SEIHIN
  6
CONTINUOUS
 62
     3
 48
5.0
100
AcDbCircle
 10
308.6279433900092
 20
115.4093499620897
 30
0.0
 40
0.8230110722822606
100
AcDbArc
 50
286.7516250750686
 51
0.0010369656265925
  0
ARC
  5
28F
330
1A
100
AcDbEntity
  8
SEIHIN
  6
CONTINUOUS
 62
     3
 48
5.0
100
AcDbCircle
 10
307.7226583595021
 20
121.8850703695269
 30
0.0
 40
0.8229961026731603
100
AcDbArc
 50
289.4759516191358
 51
359.9996162486976
  0
ARC
  5
290
330
1A
100
AcDbEntity
  8
SEIHIN
  6
CONTINUOUS
 62
     3
 48
5.0
100
AcDbCircle
 10
309.0394679860727
 20
151.0570470522083
 30
0.0
 40
0.8229864762765025
100
AcDbArc
 50
0.0012395806676375
 51
74.43837090777339
  0
ARC
  5
291
330
1A
100
AcDbEntity
  8
SEIHIN
  6
CONTINUOUS
 62
     3
 48
5.0
100
AcDbCircle
 10
307.7226112202002
 20
149.5081260138504
 30
0.0
 40
0.8230432442286549
100
AcDbArc
 50
359.9957426165012
 51
70.52172819479648
  0
ARC
  5
292
330
1A
100
AcDbEntity
  8
SEIHIN
  6
CONTINUOUS
 62
     3
 48
5.0
100
AcDbCircle
 10
309.0394679860728
 20
150.4725470522082
 30
0.0
 40
0.8229864762764314
100
AcDbArc
 50
0.001239580671595
 51
74.43837090777709
  0
ARC
  5
293
330
1A
100
AcDbEntity
  8
SEIHIN
  6
CONTINUOUS
 62
     3
 48
5.0
100
AcDbCircle
 10
308.6279433900092
 20
150.077679752563
 30
0.0
 40
0.8230110722822988
100
AcDbArc
 50
359.9989630343711
 51
73.24837492492902
  0
LINE
  5
294
330
1A
100
AcDbEntity
  8
SEIHIN
  6
CONTINUOUS
 62
     3
 48
5.0
100
AcDbLine
 10
311.9788544621568
 20
137.0067648573264
 30
0.0
 11
311.9788544621568
 21
117.0697648573264
 31
0.0
  0
ARC
  5
295
330
1A
100
AcDbEntity
  8
SEIHIN
  6
CONTINUOUS
 62
     3
 48
5.0
100
AcDbCircle
 10
310.9786542496568
 20
117.1169645856915
 30
0.0
 40
1.000000212499986
100
AcDbArc
 50
283.927868124838
 51
0.0000155635269471
  0
ARC
  5
296
330
1A
100
AcDbEntity
  8
SEIHIN
  6
CONTINUOUS
 62
     3
 48
5.0
100
AcDbCircle
 10
312.2955721399691
 20
116.1107844305929
 30
0.0
 40
0.9999823223790578
100
AcDbArc
 50
275.8246388930174
 51
359.9988785146154
  0
LINE
  5
297
330
1A
100
AcDbEntity
  8
SEIHIN
  6
CONTINUOUS
 62
     3
 48
5.0
100
AcDbLine
 10
311.9788544621568
 20
137.0067648573264
 30
0.0
 11
311.9788544621568
 21
156.8964648573262
 31
0.0
  0
LINE
  5
298
330
1A
100
AcDbEntity
  8
SEIHIN
  6
CONTINUOUS
 62
     3
 48
5.0
100
AcDbLine
 10
313.3114544621566
 20
196.3706648573264
 30
0.0
 11
281.3633544621568
 21
196.3707648573264
 31
0.0
  0
LINE
  5
299
330
1A
100
AcDbEntity
  8
SEIHIN
  6
CONTINUOUS
 62
     3
 48
5.0
100
AcDbLine
 10
249.4151544621568
 20
196.3707648573264
 30
0.0
 11
281.3632544621566
 21
196.3707648573264
 31
0.0
  0
LINE
  5
29A
330
1A
100
AcDbEntity
  8
SEIHIN
  6
CONTINUOUS
 62
     3
 48
5.0
100
AcDbLine
 10
260.2513544621566
 20
166.7778648573264
 30
0.0
 11
281.3633544621568
 21
166.7778648573264
 31
0.0
  0
LINE
  5
29B
330
1A
100
AcDbEntity
  8
SEIHIN
  6
CONTINUOUS
 62
     3
 48
5.0
100
AcDbLine
 10
264.0191544621568
 20
159.3591648573264
 30
0.0
 11
281.3632544621566
 21
159.3591648573264
 31
0.0
  0
LINE
  5
29C
330
1A
100
AcDbEntity
  8
SEIHIN
  6
CONTINUOUS
 62
     3
 48
5.0
100
AcDbLine
 10
263.4551544621566
 20
160.2645648573264
 30
0.0
 11
281.3632544621566
 21
160.2645648573264
 31
0.0
  0
LINE
  5
29D
330
1A
100
AcDbEntity
  8
SEIHIN
  6
CONTINUOUS
 62
     3
 48
5.0
100
AcDbLine
 10
263.0603544621568
 20
160.6759648573264
 30
0.0
 11
281.3632544621566
 21
160.6759648573264
 31
0.0
  0
LINE
  5
29E
330
1A
100
AcDbEntity
  8
SEIHIN
  6
CONTINUOUS
 62
     3
 48
5.0
100
AcDbLine
 10
259.3650544621567
 20
167.8510648573263
 30
0.0
 11
281.3633544621568
 21
167.8510648573263
 31
0.0
  0
LINE
  5
29F
330
1A
100
AcDbEntity
  8
SEIHIN
  6
CONTINUOUS
 62
     3
 48
5.0
100
AcDbLine
 10
259.3651544621568
 20
171.3707648573264
 30
0.0
 11
281.3632544621566
 21
171.3707648573264
 31
0.0
  0
LINE
  5
2A0
330
1A
100
AcDbEntity
  8
SEIHIN
  6
CONTINUOUS
 62
     3
 48
5.0
100
AcDbLine
 10
263.0603544621568
 20
161.2605648573264
 30
0.0
 11
281.3632544621566
 21
161.2605648573264
 31
0.0
  0
LINE
  5
2A1
330
1A
100
AcDbEntity
  8
SEIHIN
  6
CONTINUOUS
 62
     3
 48
5.0
100
AcDbLine
 10
258.4151544621568
 20
196.3707648573264
 30
0.0
 11
258.4151544621568
 21
167.4547648573264
 31
0.0
  0
ARC
  5
2A2
330
1A
100
AcDbEntity
  8
SEIHIN
  6
CONTINUOUS
 62
     3
 48
5.0
100
AcDbCircle
 10
250.4308367843442
 20
157.9028452840599
 30
0.0
 40
0.9999823223790524
100
AcDbArc
 50
95.82463889301752
 51
179.9988785146157
  0
ARC
  5
2A3
330
1A
100
AcDbEntity
  8
SEIHIN
  6
CONTINUOUS
 62
     3
 48
5.0
100
AcDbCircle
 10
260.251319335839
 20
165.7778361256519
 30
0.0
 40
1.000028732291432
100
AcDbArc
 50
89.9979874680781
 51
168.5610883028044
  0
ARC
  5
2A4
330
1A
100
AcDbEntity
  8
SEIHIN
  6
CONTINUOUS
 62
     3
 48
5.0
100
AcDbCircle
 10
259.3650475525736
 20
166.8510586073654
 30
0.0
 40
1.000006249984755
100
AcDbArc
 50
89.9996041125223
 51
174.2605056144314
  0
ARC
  5
2A5
330
1A
100
AcDbEntity
  8
SEIHIN
  6
CONTINUOUS
 62
     3
 48
5.0
100
AcDbCircle
 10
259.3651475525737
 20
170.3707586073655
 30
0.0
 40
1.000006249984812
100
AcDbArc
 50
89.99960411252592
 51
174.2605056144349
  0
LINE
  5
2A6
330
1A
100
AcDbEntity
  8
SEIHIN
  6
CONTINUOUS
 62
     3
 48
5.0
100
AcDbLine
 10
262.0915544621566
 20
160.9735648573263
 30
0.0
 11
262.0915544621566
 21
166.7777648573263
 31
0.0
  0
ARC
  5
2A7
330
1A
100
AcDbEntity
  8
SEIHIN
  6
CONTINUOUS
 62
     3
 48
5.0
100
AcDbCircle
 10
264.0323599743571
 20
158.5362687546717
 30
0.0
 40
0.8229961026730748
100
AcDbArc
 50
90.00038375129394
 51
160.5240483808556
  0
ARC
  5
2A8
330
1A
100
AcDbEntity
  8
SEIHIN
  6
CONTINUOUS
 62
     3
 48
5.0
100
AcDbCircle
 10
263.4628201729848
 20
159.4415393720888
 30
0.0
 40
0.8230254859519304
100
AcDbArc
 50
89.99761292344926
 51
163.2403588078739
  0
ARC
  5
2A9
330
1A
100
AcDbEntity
  8
SEIHIN
  6
CONTINUOUS
 62
     3
 48
5.0
100
AcDbCircle
 10
263.067906439011
 20
159.8530283812424
 30
0.0
 40
0.8229364774851825
100
AcDbArc
 50
89.9966564569206
 51
164.4337877840264
  0
ARC
  5
2AA
330
1A
100
AcDbEntity
  8
SEIHIN
  6
CONTINUOUS
 62
     3
 48
5.0
100
AcDbCircle
 10
263.0679722672749
 20
160.4375783812424
 30
0.0
 40
0.8229864762766162
100
AcDbArc
 50
90.00123958067794
 51
164.4383709077837
  0
LINE
  5
2AB
330
1A
100
AcDbEntity
  8
SEIHIN
  6
CONTINUOUS
 62
     3
 48
5.0
100
AcDbLine
 10
249.4151544621568
 20
195.8707648573264
 30
0.0
 11
247.4151544621566
 21
191.8707648573264
 31
0.0
  0
LINE
  5
2AC
330
1A
100
AcDbEntity
  8
SEIHIN
  6
CONTINUOUS
 62
     3
 48
5.0
100
AcDbLine
 10
247.4151544621566
 20
191.3707648573264
 30
0.0
 11
249.4151544621568
 21
191.3707648573264
 31
0.0
  0
LINE
  5
2AD
330
1A
100
AcDbEntity
  8
SEIHIN
  6
CONTINUOUS
 62
     3
 48
5.0
100
AcDbLine
 10
247.4151544621566
 20
191.8707648573264
 30
0.0
 11
247.4151544621566
 21
191.3707648573264
 31
0.0
  0
LINE
  5
2AE
330
1A
100
AcDbEntity
  8
SEIHIN
  6
CONTINUOUS
 62
     3
 48
5.0
100
AcDbLine
 10
304.3114544621567
 20
196.3707648573264
 30
0.0
 11
304.3114544621567
 21
167.4547648573264
 31
0.0
  0
LINE
  5
2AF
330
1A
100
AcDbEntity
  8
SEIHIN
  6
CONTINUOUS
 62
     3
 48
5.0
100
AcDbLine
 10
298.7074544621566
 20
159.3590648573264
 30
0.0
 11
281.3633544621568
 21
159.3591648573264
 31
0.0
  0
LINE
  5
2B0
330
1A
100
AcDbEntity
  8
SEIHIN
  6
CONTINUOUS
 62
     3
 48
5.0
100
AcDbLine
 10
299.2714544621568
 20
160.2644648573264
 30
0.0
 11
281.3633544621568
 21
160.2645648573264
 31
0.0
  0
LINE
  5
2B1
330
1A
100
AcDbEntity
  8
SEIHIN
  6
CONTINUOUS
 62
     3
 48
5.0
100
AcDbLine
 10
299.6662544621566
 20
160.6759648573264
 30
0.0
 11
281.3633544621568
 21
160.6759648573264
 31
0.0
  0
LINE
  5
2B2
330
1A
100
AcDbEntity
  8
SEIHIN
  6
CONTINUOUS
 62
     3
 48
5.0
100
AcDbLine
 10
299.6661544621567
 20
161.2605648573264
 30
0.0
 11
281.3632544621566
 21
161.2605648573264
 31
0.0
  0
LINE
  5
2B3
330
1A
100
AcDbEntity
  8
SEIHIN
  6
CONTINUOUS
 62
     3
 48
5.0
100
AcDbLine
 10
303.3614544621566
 20
171.3707648573264
 30
0.0
 11
281.3633544621568
 21
171.3707648573264
 31
0.0
  0
LINE
  5
2B4
330
1A
100
AcDbEntity
  8
SEIHIN
  6
CONTINUOUS
 62
     3
 48
5.0
100
AcDbLine
 10
303.3614544621566
 20
167.8510648573263
 30
0.0
 11
281.3633544621568
 21
167.8510648573263
 31
0.0
  0
LINE
  5
2B5
330
1A
100
AcDbEntity
  8
SEIHIN
  6
CONTINUOUS
 62
     3
 48
5.0
100
AcDbLine
 10
302.4752544621568
 20
166.7777648573263
 30
0.0
 11
281.3633544621568
 21
166.7778648573264
 31
0.0
  0
LINE
  5
2B6
330
1A
100
AcDbEntity
  8
SEIHIN
  6
CONTINUOUS
 62
     3
 48
5.0
100
AcDbLine
 10
300.6349544621567
 20
160.9734648573262
 30
0.0
 11
300.6349544621567
 21
166.7777648573263
 31
0.0
  0
ARC
  5
2B7
330
1A
100
AcDbEntity
  8
SEIHIN
  6
CONTINUOUS
 62
     3
 48
5.0
100
AcDbCircle
 10
299.6585366570384
 20
160.4375783812424
 30
0.0
 40
0.8229864762766174
100
AcDbArc
 50
15.56162909221621
 51
89.99876041932196
  0
ARC
  5
2B8
330
1A
100
AcDbEntity
  8
SEIHIN
  6
CONTINUOUS
 62
     3
 48
5.0
100
AcDbCircle
 10
298.6942489499562
 20
158.5362687546716
 30
0.0
 40
0.8229961026731158
100
AcDbArc
 50
19.47595161914638
 51
89.99961624870802
  0
ARC
  5
2B9
330
1A
100
AcDbEntity
  8
SEIHIN
  6
CONTINUOUS
 62
     3
 48
5.0
100
AcDbCircle
 10
299.2637887513286
 20
159.4415393720889
 30
0.0
 40
0.8230254859518202
100
AcDbArc
 50
16.75964119212011
 51
90.00238707654448
  0
ARC
  5
2BA
330
1A
100
AcDbEntity
  8
SEIHIN
  6
CONTINUOUS
 62
     3
 48
5.0
100
AcDbCircle
 10
299.6586366570383
 20
159.8529783812423
 30
0.0
 40
0.8229864762766441
100
AcDbArc
 50
15.56162909221364
 51
89.99876041931949
  0
ARC
  5
2BB
330
1A
100
AcDbEntity
  8
SEIHIN
  6
CONTINUOUS
 62
     3
 48
5.0
100
AcDbCircle
 10
302.4752296736629
 20
165.7777851327374
 30
0.0
 40
0.9999797248960891
100
AcDbArc
 50
11.43661501649505
 51
89.99857969512273
  0
ARC
  5
2BC
330
1A
100
AcDbEntity
  8
SEIHIN
  6
CONTINUOUS
 62
     3
 48
5.0
100
AcDbCircle
 10
303.3614613717397
 20
166.8510586073654
 30
0.0
 40
1.000006249984726
100
AcDbArc
 50
5.739494385566916
 51
90.0003958874759
  0
ARC
  5
2BD
330
1A
100
AcDbEntity
  8
SEIHIN
  6
CONTINUOUS
 62
     3
 48
5.0
100
AcDbCircle
 10
303.3614613717396
 20
170.3706586073655
 30
0.0
 40
1.000006249984777
100
AcDbArc
 50
5.73949438556335
 51
90.00039588747263
  0
ARC
  5
2BE
330
1A
100
AcDbEntity
  8
SEIHIN
  6
CONTINUOUS
 62
     3
 48
5.0
100
AcDbCircle
 10
312.2956670623155
 20
157.9027509047556
 30
0.0
 40
0.9999873999384842
100
AcDbArc
 50
0.0007994334841813
 51
84.1693389257569
  0
LINE
  5
2BF
330
1A
100
AcDbEntity
  8
SEIHIN
  6
CONTINUOUS
 62
     3
 48
5.0
100
AcDbLine
 10
313.3114544621566
 20
195.8705648573263
 30
0.0
 11
315.3114544621568
 21
191.8705648573263
 31
0.0
  0
LINE
  5
2C0
330
1A
100
AcDbEntity
  8
SEIHIN
  6
CONTINUOUS
 62
     3
 48
5.0
100
AcDbLine
 10
315.3114544621568
 20
191.3706648573263
 30
0.0
 11
313.3114544621566
 21
191.3706648573263
 31
0.0
  0
LINE
  5
2C1
330
1A
100
AcDbEntity
  8
SEIHIN
  6
CONTINUOUS
 62
     3
 48
5.0
100
AcDbLine
 10
315.3114544621568
 20
191.8705648573263
 30
0.0
 11
315.3114544621568
 21
191.3706648573263
 31
0.0
  0
DIMENSION
  5
2E7
330
1A
100
AcDbEntity
  8
SUNPOU
100
AcDbDimension
  2
*D2
 10
69.70871182540645
 20
171.3707648573264
 30
0.0
 11
67.20871182540642
 21
183.8707648573264
 31
0.0
 70
    32
  1
※ <>
  3
STANDARD
100
AcDbAlignedDimension
 13
89.41515446215673
 23
196.3707648573264
 33
0.0
 14
89.41515446215673
 24
171.3707648573264
 34
0.0
 50
90.0
100
AcDbRotatedDimension
1001
ACAD
1000
DSTYLE
1002
{
1070
   372
1070
    -1
1070
   371
1070
    -1
1070
    41
1040
3.0
1070
    42
1040
3.0
1070
    43
1040
7.0
1070
    44
1040
1.5
1070
    73
1070
     0
1070
    74
1070
     0
1070
    77
1070
     3
1070
   140
1040
3.0
1070
   141
1040
150.0
1070
   147
1040
1.0
1070
   172
1070
     1
1070
   173
1070
     1
1070
   176
1070
   256
1070
   177
1070
   256
1070
   178
1070
   256
1070
   271
1070
     0
1070
   272
1070
     2
1070
     6
1000
OPEN
1070
     7
1000
OPEN
1002
}
  0
DIMENSION
  5
2F4
330
1A
100
AcDbEntity
  8
SUNPOU
100
AcDbDimension
  2
*D3
 10
60.22935378819124
 20
146.8551648573263
 30
0.0
 11
57.72935378819122
 21
171.6129648573263
 31
0.0
 70
    32
  3
STANDARD
100
AcDbAlignedDimension
 13
89.41515446215673
 23
196.3707648573264
 33
0.0
 14
121.3631544621568
 24
146.8551648573263
 34
0.0
 50
90.0
100
AcDbRotatedDimension
1001
ACAD
1000
DSTYLE
1002
{
1070
   372
1070
    -1
1070
   371
1070
    -1
1070
    41
1040
3.0
1070
    42
1040
3.0
1070
    43
1040
7.0
1070
    44
1040
1.5
1070
    73
1070
     0
1070
    74
1070
     0
1070
    77
1070
     3
1070
   140
1040
3.0
1070
   141
1040
150.0
1070
   147
1040
1.0
1070
   172
1070
     1
1070
   173
1070
     1
1070
   176
1070
   256
1070
   177
1070
   256
1070
   178
1070
   256
1070
   271
1070
     0
1070
   272
1070
     2
1070
     6
1000
OPEN
1070
     7
1000
OPEN
1002
}
  0
DIMENSION
  5
301
330
1A
100
AcDbEntity
  8
SUNPOU
100
AcDbDimension
  2
*D4
 10
187.2312980125947
 20
182.0361584952975
 30
0.0
 11
173.3894731290854
 21
188.333271264311
 31
0.0
 70
    33
  1
※ <>
  3
STANDARD
100
AcDbAlignedDimension
 13
153.3152032092895
 23
171.3706814699739
 33
0.0
 14
182.2929533392023
 24
163.606083686832
 34
0.0
1001
ACAD
1000
DSTYLE
1002
{
1070
   372
1070
    -1
1070
   371
1070
    -1
1070
    41
1040
3.0
1070
    42
1040
3.0
1070
    43
1040
7.0
1070
    44
1040
1.5
1070
    73
1070
     0
1070
    74
1070
     0
1070
    77
1070
     3
1070
   140
1040
3.0
1070
   141
1040
150.0
1070
   147
1040
1.0
1070
   172
1070
     1
1070
   173
1070
     1
1070
   176
1070
   256
1070
   177
1070
   256
1070
   178
1070
   256
1070
   271
1070
     0
1070
   272
1070
     2
1070
     6
1000
OPEN
1070
     7
1000
OPEN
1002
}
  0
DIMENSION
  5
30E
330
1A
100
AcDbEntity
  8
SUNPOU
100
AcDbDimension
  2
*D5
 10
154.7051004335048
 20
158.2744558560832
 30
0.0
 11
138.0341274478308
 21
160.7744558560832
 31
0.0
 70
    32
  3
STANDARD
100
AcDbAlignedDimension
 13
121.3631544621568
 23
146.8551648573263
 33
0.0
 14
154.7051004335048
 24
137.9211498223561
 34
0.0
100
AcDbRotatedDimension
1001
ACAD
1000
DSTYLE
1002
{
1070
   372
1070
    -1
1070
   371
1070
    -1
1070
    41
1040
3.0
1070
    42
1040
3.0
1070
    43
1040
7.0
1070
    44
1040
1.5
1070
    73
1070
     0
1070
    74
1070
     0
1070
    77
1070
     3
1070
   140
1040
3.0
1070
   141
1040
150.0
1070
   147
1040
1.0
1070
   172
1070
     1
1070
   173
1070
     1
1070
   176
1070
   256
1070
   177
1070
   256
1070
   178
1070
   256
1070
   271
1070
     0
1070
   272
1070
     2
1070
     6
1000
OPEN
1070
     7
1000
OPEN
1002
}
  0
DIMENSION
  5
31C
330
1A
100
AcDbEntity
  8
SUNPOU
100
AcDbDimension
  2
*D6
 10
181.1557544621566
 20
130.8336648573263
 30
0.0
 11
130.7602877177718
 21
134.6085584050622
 31
0.0
 70
    34
  3
STANDARD
100
AcDb2LineAngularDimension
 13
121.3631544621568
 23
138.3780293877123
 33
0.0
 14
121.3631544621568
 24
206.3707648573264
 34
0.0
 15
113.1748745256907
 25
149.0492244399852
 35
0.0
 16
128.943435999121
 26
130.5991719049451
 36
0.0
1001
ACAD
1000
DSTYLE
1002
{
1070
   271
1070
     0
1070
   271
1070
     0
1070
   271
1070
     0
1070
   271
1070
     0
1070
   372
1070
    -1
1070
   371
1070
    -1
1070
    41
1040
3.0
1070
    42
1040
3.0
1070
    43
1040
7.0
1070
    44
1040
1.5
1070
    73
1070
     0
1070
    74
1070
     0
1070
    77
1070
     3
1070
   140
1040
3.0
1070
   141
1040
150.0
1070
   147
1040
1.0
1070
   172
1070
     1
1070
   173
1070
     1
1070
   176
1070
     4
1070
   177
1070
     4
1070
   178
1070
   256
1070
   271
1070
     0
1070
   272
1070
     2
1070
     6
1000
OPEN
1070
     7
1000
OPEN
1002
}
  0
DIMENSION
  5
329
330
1A
100
AcDbEntity
  8
SUNPOU
100
AcDbDimension
  2
*D7
 10
140.9323607692666
 20
86.52097420534566
 30
0.0
 11
124.9084399601572
 21
93.40279506568
 31
0.0
 70
    33
  3
STANDARD
100
AcDbAlignedDimension
 13
121.3631544621568
 23
146.8551648573263
 33
0.0
 14
154.7051004335049
 24
137.9211498223561
 34
0.0
1001
ACAD
1000
DSTYLE
1002
{
1070
   372
1070
    -1
1070
   371
1070
    -1
1070
    41
1040
3.0
1070
    42
1040
3.0
1070
    43
1040
7.0
1070
    44
1040
1.5
1070
    73
1070
     0
1070
    74
1070
     0
1070
    77
1070
     3
1070
   140
1040
3.0
1070
   141
1040
150.0
1070
   147
1040
1.0
1070
   172
1070
     1
1070
   173
1070
     1
1070
   176
1070
   256
1070
   177
1070
   256
1070
   178
1070
   256
1070
   271
1070
     0
1070
   272
1070
     2
1070
     6
1000
OPEN
1070
     7
1000
OPEN
1002
}
  0
DIMENSION
  5
336
330
1A
100
AcDbEntity
  8
SUNPOU
100
AcDbDimension
  2
*D8
 10
157.6007162825623
 20
71.45404568904647
 30
0.0
 11
131.9175312474742
 21
80.9240781641378
 31
0.0
 70
    33
  3
STANDARD
100
AcDbAlignedDimension
 13
121.3631544621568
 23
146.8551648573263
 33
0.0
 14
174.0236288854624
 24
132.7447265928422
 34
0.0
1001
ACAD
1000
DSTYLE
1002
{
1070
   372
1070
    -1
1070
   371
1070
    -1
1070
    41
1040
3.0
1070
    42
1040
3.0
1070
    43
1040
7.0
1070
    44
1040
1.5
1070
    73
1070
     0
1070
    74
1070
     0
1070
    77
1070
     3
1070
   140
1040
3.0
1070
   141
1040
150.0
1070
   147
1040
1.0
1070
   172
1070
     1
1070
   173
1070
     1
1070
   176
1070
   256
1070
   177
1070
   256
1070
   178
1070
   256
1070
   271
1070
     0
1070
   272
1070
     2
1070
     6
1000
OPEN
1070
     7
1000
OPEN
1002
}
  0
DIMENSION
  5
343
330
1A
100
AcDbEntity
  8
SUNPOU
100
AcDbDimension
  2
*D9
 10
190.055852877657
 20
95.37176808783787
 30
0.0
 11
195.9103900644402
 21
126.8801222409997
 31
0.0
 70
    33
  3
STANDARD
100
AcDbAlignedDimension
 13
162.9744544621566
 23
168.7824648573264
 33
0.0
 14
146.4357544621566
 24
107.0598648573264
 34
0.0
1001
ACAD
1000
DSTYLE
1002
{
1070
   372
1070
    -1
1070
   371
1070
    -1
1070
    41
1040
3.0
1070
    42
1040
3.0
1070
    43
1040
7.0
1070
    44
1040
1.5
1070
    73
1070
     0
1070
    74
1070
     0
1070
    77
1070
     3
1070
   140
1040
3.0
1070
   141
1040
150.0
1070
   147
1040
1.0
1070
   172
1070
     1
1070
   173
1070
     1
1070
   176
1070
   256
1070
   177
1070
   256
1070
   178
1070
   256
1070
   271
1070
     0
1070
   272
1070
     2
1070
     6
1000
OPEN
1070
     7
1000
OPEN
1002
}
  0
DIMENSION
  5
350
330
1A
100
AcDbEntity
  8
SUNPOU
100
AcDbDimension
  2
*D10
 10
313.3114544621566
 20
217.3250703142892
 30
0.0
 11
281.3633044621567
 21
219.8250703142892
 31
0.0
 70
    32
  3
STANDARD
100
AcDbAlignedDimension
 13
249.4151544621568
 23
196.3707648573264
 33
0.0
 14
313.3114544621566
 24
196.3706648573264
 34
0.0
100
AcDbRotatedDimension
1001
ACAD
1000
DSTYLE
1002
{
1070
   372
1070
    -1
1070
   371
1070
    -1
1070
    41
1040
3.0
1070
    42
1040
3.0
1070
    43
1040
7.0
1070
    44
1040
1.5
1070
    73
1070
     0
1070
    74
1070
     0
1070
    77
1070
     3
1070
   140
1040
3.0
1070
   141
1040
150.0
1070
   147
1040
1.0
1070
   172
1070
     1
1070
   173
1070
     1
1070
   176
1070
   256
1070
   177
1070
   256
1070
   178
1070
   256
1070
   271
1070
     0
1070
   272
1070
     2
1070
     6
1000
OPEN
1070
     7
1000
OPEN
1002
}
  0
TEXT
  5
393
330
1A
100
AcDbEntity
  8
SUNPOU
  6
CONTINUOUS
 62
     4
100
AcDbText
 10
280.733614248973
 20
26.36246429608633
 30
0.0
 40
4.0
  1
※　たてといの差込み寸法を示す。
100
AcDbText
  0
VIEWPORT
  5
22
330
17
100
AcDbEntity
 67
     1
  8
0
100
AcDbViewport
 10
313.6808219178082
 20
148.5
 30
0.0
 40
627.3616438356165
 41
297.0
 68
     2
 69
     1
1001
ACAD
1000
MVIEW
1002
{
1070
    16
1010
0.0
1020
0.0
1030
0.0
1010
0.0
1020
0.0
1030
1.0
1040
0.0
1040
297.0
1040
313.6808219178082
1040
148.5
1040
50.0
1040
0.0
1040
0.0
1070
     0
1070
   100
1070
     1
1070
     0
1070
     0
1070
     0
1070
     0
1070
     0
1040
0.0
1040
0.0
1040
0.0
1040
1.0
1040
1.0
1040
10.0
1040
10.0
1070
     0
1002
{
1002
}
1002
}
  0
VIEWPORT
  5
64
330
17
100
AcDbEntity
 67
     1
  8
VIEWPORT
100
AcDbViewport
 10
210.0
 20
148.5
 30
0.0
 40
420.0
 41
297.0
 68
     1
 69
     2
1001
ACAD
1000
MVIEW
1002
{
1070
    16
1010
0.0
1020
0.0
1030
0.0
1010
0.0
1020
0.0
1030
1.0
1040
0.0
1040
302.9399999999998
1040
210.0
1040
148.5
1040
50.0
1040
0.0
1040
0.0
1070
     0
1070
   100
1070
     1
1070
     0
1070
     0
1070
     0
1070
     0
1070
     0
1040
0.0
1040
0.0
1040
0.0
1040
5.0
1040
5.0
1040
0.0
1040
0.0
1070
     0
1002
{
1002
}
1002
}
  0
ENDSEC
  0
SECTION
  2
OBJECTS
  0
DICTIONARY
  5
C
330
0
100
AcDbDictionary
  3
ACAD_GROUP
350
D
  3
ACAD_LAYOUT
350
3A9
  3
ACAD_MLINESTYLE
350
E
  3
ACAD_PLOTSETTINGS
350
3AA
1001
ACAD
1000
TREAT_AS_HARD
1070
     0
  0
DICTIONARY
  5
785
330
1A
100
AcDbDictionary
  3
ACAD_LAYOUTSELFREF
350
86C
1001
ACAD
1000
TREAT_AS_HARD
1070
     1
  0
DICTIONARY
  5
783
330
17
100
AcDbDictionary
  3
ACAD_LAYOUTSELFREF
350
86B
1001
ACAD
1000
TREAT_AS_HARD
1070
     1
  0
DICTIONARY
  5
D
102
{ACAD_REACTORS
330
C
102
}
330
C
100
AcDbDictionary
1001
ACAD
1000
TREAT_AS_HARD
1070
     0
  0
DICTIONARY
  5
3A9
102
{ACAD_REACTORS
330
C
102
}
330
C
100
AcDbDictionary
1001
ACAD
1000
TREAT_AS_HARD
1070
     0
  0
DICTIONARY
  5
E
102
{ACAD_REACTORS
330
C
102
}
330
C
100
AcDbDictionary
  3
STANDARD
350
13
1001
ACAD
1000
TREAT_AS_HARD
1070
     0
  0
DICTIONARY
  5
3AA
102
{ACAD_REACTORS
330
C
102
}
330
C
100
AcDbDictionary
1001
ACAD
1000
TREAT_AS_HARD
1070
     0
  0
XRECORD
  5
86C
102
{ACAD_REACTORS
330
785
102
}
330
785
100
AcDbXrecord
340
1A
  0
XRECORD
  5
86B
102
{ACAD_REACTORS
330
783
102
}
330
783
100
AcDbXrecord
340
17
  0
MLINESTYLE
  5
13
102
{ACAD_REACTORS
330
E
102
}
330
E
100
AcDbMlineStyle
  2
STANDARD
 70
     0
  3

 62
     0
 51
90.0
 52
90.0
 71
     2
 49
0.5
 62
   256
  6
BYLAYER
 49
-0.5
 62
   256
  6
BYLAYER
  0
ENDSEC
  0
EOF
