  0
SECTION
  2
HEADER
  9
$ACADVER
  1
AC1015
  9
$ACADMAINTVER
 70
    20
  9
$DWGCODEPAGE
  3
ANSI_932
  9
$INSBASE
 10
0.0
 20
0.0
 30
0.0
  9
$EXTMIN
 10
6.959840831067367
 20
6.960938891117621
 30
-0.0015258207003583
  9
$EXTMAX
 10
804.6496601177491
 20
558.6242994375343
 30
0.0000000349246037
  9
$LIMMIN
 10
0.0
 20
0.0
  9
$LIMMAX
 10
840.0
 20
594.0
  9
$ORTHOMODE
 70
     0
  9
$REGENMODE
 70
     1
  9
$FILLMODE
 70
     1
  9
$QTEXTMODE
 70
     0
  9
$MIRRTEXT
 70
     1
  9
$LTSCALE
 40
2.0
  9
$ATTMODE
 70
     1
  9
$TEXTSIZE
 40
5.0
  9
$TRACEWID
 40
1.0
  9
$TEXTSTYLE
  7
STANDARD
  9
$CLAYER
  8
SUNPOU
  9
$CELTYPE
  6
BYLAYER
  9
$CECOLOR
 62
   256
  9
$CELTSCALE
 40
1.0
  9
$DISPSILH
 70
     0
  9
$DIMSCALE
 40
1.0
  9
$DIMASZ
 40
7.0
  9
$DIMEXO
 40
6.0
  9
$DIMDLI
 40
14.0
  9
$DIMRND
 40
0.0
  9
$DIMDLE
 40
0.0
  9
$DIMEXE
 40
3.0
  9
$DIMTP
 40
0.0
  9
$DIMTM
 40
0.0
  9
$DIMTXT
 40
6.0
  9
$DIMCEN
 40
150.0
  9
$DIMTSZ
 40
0.0
  9
$DIMTOL
 70
     0
  9
$DIMLIM
 70
     0
  9
$DIMTIH
 70
     0
  9
$DIMTOH
 70
     0
  9
$DIMSE1
 70
     0
  9
$DIMSE2
 70
     0
  9
$DIMTAD
 70
     3
  9
$DIMZIN
 70
     0
  9
$DIMBLK
  1

  9
$DIMASO
 70
     1
  9
$DIMSHO
 70
     1
  9
$DIMPOST
  1

  9
$DIMAPOST
  1

  9
$DIMALT
 70
     0
  9
$DIMALTD
 70
     2
  9
$DIMALTF
 40
25.4
  9
$DIMLFAC
 40
1.0
  9
$DIMTOFL
 70
     1
  9
$DIMTVP
 40
0.0
  9
$DIMTIX
 70
     0
  9
$DIMSOXD
 70
     0
  9
$DIMSAH
 70
     1
  9
$DIMBLK1
  1
OPEN
  9
$DIMBLK2
  1
OPEN
  9
$DIMSTYLE
  2
STANDARD
  9
$DIMCLRD
 70
   256
  9
$DIMCLRE
 70
   256
  9
$DIMCLRT
 70
     4
  9
$DIMTFAC
 40
1.0
  9
$DIMGAP
 40
2.0
  9
$DIMJUST
 70
     0
  9
$DIMSD1
 70
     0
  9
$DIMSD2
 70
     0
  9
$DIMTOLJ
 70
     1
  9
$DIMTZIN
 70
     0
  9
$DIMALTZ
 70
     0
  9
$DIMALTTZ
 70
     0
  9
$DIMUPT
 70
     0
  9
$DIMDEC
 70
     0
  9
$DIMTDEC
 70
     0
  9
$DIMALTU
 70
     2
  9
$DIMALTTD
 70
     2
  9
$DIMTXSTY
  7
STANDARD
  9
$DIMAUNIT
 70
     0
  9
$DIMADEC
 70
     0
  9
$DIMALTRND
 40
0.0
  9
$DIMAZIN
 70
     0
  9
$DIMDSEP
 70
    46
  9
$DIMATFIT
 70
     3
  9
$DIMFRAC
 70
     0
  9
$DIMLDRBLK
  1
OPEN
  9
$DIMLUNIT
 70
     2
  9
$DIMLWD
 70
    -1
  9
$DIMLWE
 70
    -1
  9
$DIMTMOVE
 70
     0
  9
$LUNITS
 70
     2
  9
$LUPREC
 70
     4
  9
$SKETCHINC
 40
1.0
  9
$FILLETRAD
 40
20.0
  9
$AUNITS
 70
     0
  9
$AUPREC
 70
     0
  9
$MENU
  1
.
  9
$ELEVATION
 40
0.0
  9
$PELEVATION
 40
0.0
  9
$THICKNESS
 40
0.0
  9
$LIMCHECK
 70
     0
  9
$CHAMFERA
 40
20.0
  9
$CHAMFERB
 40
20.0
  9
$CHAMFERC
 40
40.0
  9
$CHAMFERD
 40
0.0
  9
$SKPOLY
 70
     0
  9
$TDCREATE
 40
2451047.417040625
  9
$TDUCREATE
 40
2451047.042040625
  9
$TDUPDATE
 40
2456832.560426134
  9
$TDUUPDATE
 40
2456832.185426134
  9
$TDINDWG
 40
0.0294464236
  9
$TDUSRTIMER
 40
0.0294464236
  9
$USRTIMER
 70
     1
  9
$ANGBASE
 50
0.0
  9
$ANGDIR
 70
     0
  9
$PDMODE
 70
     0
  9
$PDSIZE
 40
0.0
  9
$PLINEWID
 40
0.0
  9
$SPLFRAME
 70
     0
  9
$SPLINETYPE
 70
     6
  9
$SPLINESEGS
 70
     8
  9
$HANDSEED
  5
1969
  9
$SURFTAB1
 70
     6
  9
$SURFTAB2
 70
     6
  9
$SURFTYPE
 70
     6
  9
$SURFU
 70
     6
  9
$SURFV
 70
     6
  9
$UCSBASE
  2

  9
$UCSNAME
  2

  9
$UCSORG
 10
0.0
 20
0.0
 30
0.0
  9
$UCSXDIR
 10
1.0
 20
0.0
 30
0.0
  9
$UCSYDIR
 10
0.0
 20
1.0
 30
0.0
  9
$UCSORTHOREF
  2

  9
$UCSORTHOVIEW
 70
     0
  9
$UCSORGTOP
 10
0.0
 20
0.0
 30
0.0
  9
$UCSORGBOTTOM
 10
0.0
 20
0.0
 30
0.0
  9
$UCSORGLEFT
 10
0.0
 20
0.0
 30
0.0
  9
$UCSORGRIGHT
 10
0.0
 20
0.0
 30
0.0
  9
$UCSORGFRONT
 10
0.0
 20
0.0
 30
0.0
  9
$UCSORGBACK
 10
0.0
 20
0.0
 30
0.0
  9
$PUCSBASE
  2

  9
$PUCSNAME
  2

  9
$PUCSORG
 10
0.0
 20
0.0
 30
0.0
  9
$PUCSXDIR
 10
1.0
 20
0.0
 30
0.0
  9
$PUCSYDIR
 10
0.0
 20
1.0
 30
0.0
  9
$PUCSORTHOREF
  2

  9
$PUCSORTHOVIEW
 70
     0
  9
$PUCSORGTOP
 10
0.0
 20
0.0
 30
0.0
  9
$PUCSORGBOTTOM
 10
0.0
 20
0.0
 30
0.0
  9
$PUCSORGLEFT
 10
0.0
 20
0.0
 30
0.0
  9
$PUCSORGRIGHT
 10
0.0
 20
0.0
 30
0.0
  9
$PUCSORGFRONT
 10
0.0
 20
0.0
 30
0.0
  9
$PUCSORGBACK
 10
0.0
 20
0.0
 30
0.0
  9
$USERI1
 70
     0
  9
$USERI2
 70
     0
  9
$USERI3
 70
     0
  9
$USERI4
 70
     0
  9
$USERI5
 70
     0
  9
$USERR1
 40
0.0
  9
$USERR2
 40
0.0
  9
$USERR3
 40
0.0
  9
$USERR4
 40
0.0
  9
$USERR5
 40
0.0
  9
$WORLDVIEW
 70
     1
  9
$SHADEDGE
 70
     3
  9
$SHADEDIF
 70
    70
  9
$TILEMODE
 70
     1
  9
$MAXACTVP
 70
    16
  9
$PINSBASE
 10
0.0
 20
0.0
 30
0.0
  9
$PLIMCHECK
 70
     0
  9
$PEXTMIN
 10
0.0
 20
0.0
 30
0.0
  9
$PEXTMAX
 10
420.0
 20
297.0
 30
0.0
  9
$PLIMMIN
 10
0.0
 20
0.0
  9
$PLIMMAX
 10
420.0
 20
297.0
  9
$UNITMODE
 70
     0
  9
$VISRETAIN
 70
     0
  9
$PLINEGEN
 70
     0
  9
$PSLTSCALE
 70
     1
  9
$TREEDEPTH
 70
  3020
  9
$CMLSTYLE
  2
STANDARD
  9
$CMLJUST
 70
     0
  9
$CMLSCALE
 40
1.0
  9
$PROXYGRAPHICS
 70
     1
  9
$MEASUREMENT
 70
     1
  9
$CELWEIGHT
370
    -1
  9
$ENDCAPS
280
     0
  9
$JOINSTYLE
280
     0
  9
$LWDISPLAY
290
     0
  9
$INSUNITS
 70
     0
  9
$HYPERLINKBASE
  1

  9
$STYLESHEET
  1
print.ctb
  9
$XEDIT
290
     1
  9
$CEPSNTYPE
380
     0
  9
$PSTYLEMODE
290
     1
  9
$FINGERPRINTGUID
  2
{E1832D69-A93C-11D5-932D-0050DA99388B}
  9
$VERSIONGUID
  2
{886CE7D8-370D-48AF-974F-EFCFAFFFD6A8}
  9
$EXTNAMES
290
     1
  9
$PSVPSCALE
 40
0.0
  9
$OLESTARTUP
290
     0
  0
ENDSEC
  0
SECTION
  2
CLASSES
  0
CLASS
  1
ACDBDICTIONARYWDFLT
  2
AcDbDictionaryWithDefault
  3
ObjectDBX Classes
 90
        0
280
     0
281
     0
  0
CLASS
  1
ACDBPLACEHOLDER
  2
AcDbPlaceHolder
  3
ObjectDBX Classes
 90
        0
280
     0
281
     0
  0
CLASS
  1
LAYOUT
  2
AcDbLayout
  3
ObjectDBX Classes
 90
        0
280
     0
281
     0
  0
CLASS
  1
DICTIONARYVAR
  2
AcDbDictionaryVar
  3
ObjectDBX Classes
 90
        0
280
     0
281
     0
  0
ENDSEC
  0
SECTION
  2
TABLES
  0
TABLE
  2
VPORT
  5
8
330
0
100
AcDbSymbolTable
 70
     2
  0
VPORT
  5
195D
330
8
100
AcDbSymbolTableRecord
100
AcDbViewportTableRecord
  2
*Active
 70
     0
 10
0.0
 20
0.0
 11
1.0
 21
1.0
 12
1262.63420627705
 22
218.7322956253561
 13
0.0
 23
0.0
 14
5.0
 24
5.0
 15
0.0
 25
0.0
 16
0.0
 26
0.0
 36
1.0
 17
0.0
 27
0.0
 37
0.0
 40
904.6486052448148
 41
3.495652173913043
 42
50.0
 43
0.0
 44
0.0
 50
0.0
 51
0.0
 71
     0
 72
   100
 73
     1
 74
     0
 75
     0
 76
     0
 77
     0
 78
     0
281
     0
 65
     1
110
0.0
120
0.0
130
0.0
111
1.0
121
0.0
131
0.0
112
0.0
122
1.0
132
0.0
 79
     0
146
0.0
  0
ENDTAB
  0
TABLE
  2
LTYPE
  5
5
330
0
100
AcDbSymbolTable
 70
     2
  0
LTYPE
  5
14
330
5
100
AcDbSymbolTableRecord
100
AcDbLinetypeTableRecord
  2
BYBLOCK
 70
     0
  3

 72
    65
 73
     0
 40
0.0
  0
LTYPE
  5
15
330
5
100
AcDbSymbolTableRecord
100
AcDbLinetypeTableRecord
  2
BYLAYER
 70
     0
  3

 72
    65
 73
     0
 40
0.0
  0
LTYPE
  5
16
330
5
100
AcDbSymbolTableRecord
100
AcDbLinetypeTableRecord
  2
CONTINUOUS
 70
     0
  3
Solid line
 72
    65
 73
     0
 40
0.0
  0
LTYPE
  5
135
330
5
100
AcDbSymbolTableRecord
100
AcDbLinetypeTableRecord
  2
CENTER
 70
     0
  3
____ _ ____ _ ____ _ ____ _ ____ _ ____ _ ____ 
 72
    65
 73
     4
 40
2.0
 49
1.25
 74
     0
 49
-0.25
 74
     0
 49
0.25
 74
     0
 49
-0.25
 74
     0
  0
ENDTAB
  0
TABLE
  2
LAYER
  5
2
330
0
100
AcDbSymbolTable
 70
     8
  0
LAYER
  5
F
330
2
100
AcDbSymbolTableRecord
100
AcDbLayerTableRecord
  2
0
 70
     0
 62
     7
  6
CONTINUOUS
370
    -3
390
786
  0
LAYER
  5
62
330
2
100
AcDbSymbolTableRecord
100
AcDbLayerTableRecord
  2
VIEWPORT
 70
     0
 62
     7
  6
CONTINUOUS
370
    -3
390
786
  0
LAYER
  5
65
330
2
100
AcDbSymbolTableRecord
100
AcDbLayerTableRecord
  2
ZUWAKU
 70
     0
 62
     7
  6
CONTINUOUS
370
    -3
390
786
  0
LAYER
  5
1A5
330
2
100
AcDbSymbolTableRecord
100
AcDbLayerTableRecord
  2
DEFPOINTS
 70
     0
 62
     7
  6
CONTINUOUS
290
     0
370
    -3
390
786
  0
LAYER
  5
1A6
330
2
100
AcDbSymbolTableRecord
100
AcDbLayerTableRecord
  2
SEIHIN
 70
     0
 62
     3
  6
CONTINUOUS
370
    -3
390
786
  0
LAYER
  5
1A8
330
2
100
AcDbSymbolTableRecord
100
AcDbLayerTableRecord
  2
SUNPOU
 70
     0
 62
     4
  6
CONTINUOUS
370
    -3
390
786
  0
LAYER
  5
9AC
330
2
100
AcDbSymbolTableRecord
100
AcDbLayerTableRecord
  2
moji
 70
     0
 62
     2
  6
CONTINUOUS
370
    -3
390
786
  0
LAYER
  5
10F3
330
2
100
AcDbSymbolTableRecord
100
AcDbLayerTableRecord
  2
CENTER　L
 70
     0
 62
     1
  6
CENTER
370
    -3
390
786
  0
ENDTAB
  0
TABLE
  2
STYLE
  5
3
330
0
100
AcDbSymbolTable
 70
     2
  0
STYLE
  5
10
330
3
100
AcDbSymbolTableRecord
100
AcDbTextStyleTableRecord
  2
STANDARD
 70
     0
 40
0.0
 41
1.0
 50
0.0
 71
     0
 42
5.0
  3
TXT
  4
bigfont.shx
  0
STYLE
  5
9AD
330
3
100
AcDbSymbolTableRecord
100
AcDbTextStyleTableRecord
  2
ｽﾀｲﾙ1
 70
     0
 40
0.0
 41
1.0
 50
0.0
 71
     0
 42
2.5
  3

  4

1001
ACAD
1000
MS PGothic
1071
    32818
  0
ENDTAB
  0
TABLE
  2
VIEW
  5
6
330
0
100
AcDbSymbolTable
 70
     0
  0
ENDTAB
  0
TABLE
  2
UCS
  5
7
330
0
100
AcDbSymbolTable
 70
     0
  0
ENDTAB
  0
TABLE
  2
APPID
  5
9
330
0
100
AcDbSymbolTable
 70
     1
  0
APPID
  5
11
330
9
100
AcDbSymbolTableRecord
100
AcDbRegAppTableRecord
  2
ACAD
 70
     0
  0
ENDTAB
  0
TABLE
  2
DIMSTYLE
  5
A
330
0
100
AcDbSymbolTable
 70
     1
100
AcDbDimStyleTable
 71
     0
  0
DIMSTYLE
105
1D
102
{ACAD_REACTORS
330
11C4
330
11D7
330
11D8
330
11EE
330
11EF
330
1211
330
1212
330
1214
330
1221
330
1237
330
1238
102
}
330
A
100
AcDbSymbolTableRecord
100
AcDbDimStyleTableRecord
  2
STANDARD
 70
     0
340
10
  0
ENDTAB
  0
TABLE
  2
BLOCK_RECORD
  5
1
330
0
100
AcDbSymbolTable
 70
    13
  0
BLOCK_RECORD
  5
1A
102
{ACAD_XDICTIONARY
360
7B6
102
}
330
1
100
AcDbSymbolTableRecord
100
AcDbBlockTableRecord
  2
*MODEL_SPACE
340
789
  0
BLOCK_RECORD
  5
17
102
{ACAD_XDICTIONARY
360
7B4
102
}
330
1
100
AcDbSymbolTableRecord
100
AcDbBlockTableRecord
  2
*PAPER_SPACE
340
78A
  0
BLOCK_RECORD
  5
6D
330
1
100
AcDbSymbolTableRecord
100
AcDbBlockTableRecord
  2
_OPEN
340
0
102
{BLKREFS
331
189E
331
189F
331
18B0
331
18B1
331
18A7
331
18A8
331
18C2
331
18C3
331
18B9
331
18BA
331
18CB
331
18CC
331
18E6
331
18E7
331
18D4
331
18D5
331
18DD
331
18DE
331
18F8
331
18F9
331
18EF
331
18F0
102
}
  0
BLOCK_RECORD
  5
128E
330
1
100
AcDbSymbolTableRecord
100
AcDbBlockTableRecord
  2
*D1
340
0
  0
BLOCK_RECORD
  5
129A
330
1
100
AcDbSymbolTableRecord
100
AcDbBlockTableRecord
  2
*D2
340
0
  0
BLOCK_RECORD
  5
12A6
330
1
100
AcDbSymbolTableRecord
100
AcDbBlockTableRecord
  2
*D3
340
0
  0
BLOCK_RECORD
  5
12B2
330
1
100
AcDbSymbolTableRecord
100
AcDbBlockTableRecord
  2
*D4
340
0
  0
BLOCK_RECORD
  5
12BE
330
1
100
AcDbSymbolTableRecord
100
AcDbBlockTableRecord
  2
*D5
340
0
  0
BLOCK_RECORD
  5
12CA
330
1
100
AcDbSymbolTableRecord
100
AcDbBlockTableRecord
  2
*D6
340
0
  0
BLOCK_RECORD
  5
12D6
330
1
100
AcDbSymbolTableRecord
100
AcDbBlockTableRecord
  2
*D7
340
0
  0
BLOCK_RECORD
  5
12E2
330
1
100
AcDbSymbolTableRecord
100
AcDbBlockTableRecord
  2
*D8
340
0
  0
BLOCK_RECORD
  5
12EE
330
1
100
AcDbSymbolTableRecord
100
AcDbBlockTableRecord
  2
*D9
340
0
  0
BLOCK_RECORD
  5
12FA
330
1
100
AcDbSymbolTableRecord
100
AcDbBlockTableRecord
  2
*D10
340
0
  0
BLOCK_RECORD
  5
1306
330
1
100
AcDbSymbolTableRecord
100
AcDbBlockTableRecord
  2
*D11
340
0
  0
BLOCK_RECORD
  5
16E7
330
1
100
AcDbSymbolTableRecord
100
AcDbBlockTableRecord
  2
*X12
340
0
102
{BLKREFS
331
A76
102
}
  0
ENDTAB
  0
ENDSEC
  0
SECTION
  2
BLOCKS
  0
BLOCK
  5
1B
330
1A
100
AcDbEntity
  8
0
100
AcDbBlockBegin
  2
*MODEL_SPACE
 70
     0
 10
0.0
 20
0.0
 30
0.0
  3
*MODEL_SPACE
  1

  0
ENDBLK
  5
1C
330
1A
100
AcDbEntity
  8
0
100
AcDbBlockEnd
  0
BLOCK
  5
18
330
17
100
AcDbEntity
 67
     1
  8
0
100
AcDbBlockBegin
  2
*PAPER_SPACE
 70
     0
 10
0.0
 20
0.0
 30
0.0
  3
*PAPER_SPACE
  1

  0
ENDBLK
  5
19
330
17
100
AcDbEntity
 67
     1
  8
0
100
AcDbBlockEnd
  0
BLOCK
  5
6E
330
6D
100
AcDbEntity
  8
0
100
AcDbBlockBegin
  2
_OPEN
 70
     0
 10
0.0
 20
0.0
 30
0.0
  3
_OPEN
  1

  0
LINE
  5
6F
330
6D
100
AcDbEntity
  8
0
  6
ByBlock
 62
     0
100
AcDbLine
 10
-1.0
 20
0.1666666666666666
 30
0.0
 11
0.0
 21
0.0
 31
0.0
  0
LINE
  5
70
330
6D
100
AcDbEntity
  8
0
  6
ByBlock
 62
     0
100
AcDbLine
 10
0.0
 20
0.0
 30
0.0
 11
-1.0
 21
-0.1666666666666666
 31
0.0
  0
LINE
  5
71
330
6D
100
AcDbEntity
  8
0
  6
ByBlock
 62
     0
100
AcDbLine
 10
0.0
 20
0.0
 30
0.0
 11
-1.0
 21
0.0
 31
0.0
  0
ENDBLK
  5
72
330
6D
100
AcDbEntity
  8
0
100
AcDbBlockEnd
  0
BLOCK
  5
1298
330
128E
100
AcDbEntity
  8
0
100
AcDbBlockBegin
  2
*D1
 70
     1
 10
0.0
 20
0.0
 30
0.0
  3
*D1
  1

  0
LINE
  5
189B
330
128E
100
AcDbEntity
  8
SUNPOU
100
AcDbLine
 10
385.7933860118733
 20
370.6039165125937
 30
0.0
 11
385.7933860118733
 21
403.7173848421028
 31
0.0
  0
LINE
  5
189C
330
128E
100
AcDbEntity
  8
SUNPOU
100
AcDbLine
 10
449.6948860118732
 20
370.6035165125936
 30
0.0
 11
449.6948860118732
 21
403.7173848421028
 31
0.0
  0
LINE
  5
189D
330
128E
100
AcDbEntity
  8
SUNPOU
100
AcDbLine
 10
392.7933860118733
 20
400.7173848421028
 30
0.0
 11
442.6948860118732
 21
400.7173848421028
 31
0.0
  0
INSERT
  5
189E
330
128E
100
AcDbEntity
  8
SUNPOU
100
AcDbBlockReference
  2
_OPEN
 10
385.7933860118733
 20
400.7173848421028
 30
0.0
 41
7.0
 42
7.0
 43
7.0
 50
180.0
  0
INSERT
  5
189F
330
128E
100
AcDbEntity
  8
SUNPOU
100
AcDbBlockReference
  2
_OPEN
 10
449.6948860118732
 20
400.7173848421028
 30
0.0
 41
7.0
 42
7.0
 43
7.0
  0
MTEXT
  5
18A0
330
128E
100
AcDbEntity
  8
SUNPOU
100
AcDbMText
 10
417.7441360118733
 20
405.7173848421028
 30
0.0
 40
6.0
 41
0.0
 71
     5
 72
     5
  1
\A1;64
 73
     1
 44
1.0
1001
ACAD
1000
MTEXTBEGIN
1070
    73
1070
     1
1070
    44
1040
1.0
1070
    74
1070
     0
1000
MTEXTEND
  0
POINT
  5
18A1
330
128E
100
AcDbEntity
  8
DEFPOINTS
 62
     0
100
AcDbPoint
 10
385.7933860118733
 20
364.6039165125937
 30
0.0
  0
POINT
  5
18A2
330
128E
100
AcDbEntity
  8
DEFPOINTS
 62
     0
100
AcDbPoint
 10
449.6948860118732
 20
364.6035165125935
 30
0.0
  0
POINT
  5
18A3
330
128E
100
AcDbEntity
  8
DEFPOINTS
 62
     0
100
AcDbPoint
 10
449.6948860118732
 20
400.7173848421028
 30
0.0
  0
ENDBLK
  5
1299
330
128E
100
AcDbEntity
  8
0
100
AcDbBlockEnd
  0
BLOCK
  5
12A4
330
129A
100
AcDbEntity
  8
0
100
AcDbBlockBegin
  2
*D2
 70
     1
 10
0.0
 20
0.0
 30
0.0
  3
*D2
  1

  0
LINE
  5
18AD
330
129A
100
AcDbEntity
  8
SUNPOU
100
AcDbLine
 10
295.2856134840147
 20
313.2320165125936
 30
0.0
 11
325.7520645031893
 21
313.2320165125936
 31
0.0
  0
LINE
  5
18AE
330
129A
100
AcDbEntity
  8
SUNPOU
100
AcDbLine
 10
295.2853134840148
 20
249.3333165125936
 30
0.0
 11
325.7520645031893
 21
249.3333165125935
 31
0.0
  0
LINE
  5
18AF
330
129A
100
AcDbEntity
  8
SUNPOU
100
AcDbLine
 10
322.7520645031893
 20
306.2320165125937
 30
0.0
 11
322.7520645031893
 21
256.3333165125936
 31
0.0
  0
INSERT
  5
18B0
330
129A
100
AcDbEntity
  8
SUNPOU
100
AcDbBlockReference
  2
_OPEN
 10
322.7520645031893
 20
313.2320165125936
 30
0.0
 41
7.0
 42
7.0
 43
7.0
 50
90.0
  0
INSERT
  5
18B1
330
129A
100
AcDbEntity
  8
SUNPOU
100
AcDbBlockReference
  2
_OPEN
 10
322.7520645031893
 20
249.3333165125935
 30
0.0
 41
7.0
 42
7.0
 43
7.0
 50
270.0
  0
MTEXT
  5
18B2
330
129A
100
AcDbEntity
  8
SUNPOU
100
AcDbMText
 10
317.7520645031893
 20
281.2826665125937
 30
0.0
 40
6.0
 41
0.0
 71
     5
 72
     5
  1
\A1;64
 11
0.0000000000000001
 21
1.0
 31
0.0
 73
     1
 44
1.0
1001
ACAD
1000
MTEXTBEGIN
1070
    73
1070
     1
1070
    44
1040
1.0
1070
    74
1070
     0
1000
MTEXTEND
  0
POINT
  5
18B3
330
129A
100
AcDbEntity
  8
DEFPOINTS
 62
     0
100
AcDbPoint
 10
289.2856134840147
 20
313.2320165125936
 30
0.0
  0
POINT
  5
18B4
330
129A
100
AcDbEntity
  8
DEFPOINTS
 62
     0
100
AcDbPoint
 10
289.2853134840148
 20
249.3333165125936
 30
0.0
  0
POINT
  5
18B5
330
129A
100
AcDbEntity
  8
DEFPOINTS
 62
     0
100
AcDbPoint
 10
322.7520645031893
 20
249.3333165125935
 30
0.0
  0
ENDBLK
  5
12A5
330
129A
100
AcDbEntity
  8
0
100
AcDbBlockEnd
  0
BLOCK
  5
12B0
330
12A6
100
AcDbEntity
  8
0
100
AcDbBlockBegin
  2
*D3
 70
     1
 10
0.0
 20
0.0
 30
0.0
  3
*D3
  1

  0
LINE
  5
18A4
330
12A6
100
AcDbEntity
  8
SUNPOU
100
AcDbLine
 10
257.1499134840148
 20
364.6033165125937
 30
0.0
 11
345.9524239135955
 21
364.6033165125937
 31
0.0
  0
LINE
  5
18A5
330
12A6
100
AcDbEntity
  8
SUNPOU
100
AcDbLine
 10
308.1173134840148
 20
281.2834165125936
 30
0.0
 11
345.9524239135955
 21
281.2834165125936
 31
0.0
  0
LINE
  5
18A6
330
12A6
100
AcDbEntity
  8
SUNPOU
100
AcDbLine
 10
342.9524239135956
 20
357.6033165125937
 30
0.0
 11
342.9524239135956
 21
288.2834165125936
 31
0.0
  0
INSERT
  5
18A7
330
12A6
100
AcDbEntity
  8
SUNPOU
100
AcDbBlockReference
  2
_OPEN
 10
342.9524239135956
 20
364.6033165125937
 30
0.0
 41
7.0
 42
7.0
 43
7.0
 50
90.0
  0
INSERT
  5
18A8
330
12A6
100
AcDbEntity
  8
SUNPOU
100
AcDbBlockReference
  2
_OPEN
 10
342.9524239135956
 20
281.2834165125936
 30
0.0
 41
7.0
 42
7.0
 43
7.0
 50
270.0
  0
MTEXT
  5
18A9
330
12A6
100
AcDbEntity
  8
SUNPOU
100
AcDbMText
 10
337.9524239135955
 20
322.9433665125937
 30
0.0
 40
6.0
 41
0.0
 71
     5
 72
     5
  1
\A1;83
 11
0.0000000000000001
 21
1.0
 31
0.0
 73
     1
 44
1.0
1001
ACAD
1000
MTEXTBEGIN
1070
    73
1070
     1
1070
    44
1040
1.0
1070
    74
1070
     0
1000
MTEXTEND
  0
POINT
  5
18AA
330
12A6
100
AcDbEntity
  8
DEFPOINTS
 62
     0
100
AcDbPoint
 10
251.1499134840148
 20
364.6033165125937
 30
0.0
  0
POINT
  5
18AB
330
12A6
100
AcDbEntity
  8
DEFPOINTS
 62
     0
100
AcDbPoint
 10
302.1173134840148
 20
281.2834165125936
 30
0.0
  0
POINT
  5
18AC
330
12A6
100
AcDbEntity
  8
DEFPOINTS
 62
     0
100
AcDbPoint
 10
342.9524239135956
 20
281.2834165125936
 30
0.0
  0
ENDBLK
  5
12B1
330
12A6
100
AcDbEntity
  8
0
100
AcDbBlockEnd
  0
BLOCK
  5
12BC
330
12B2
100
AcDbEntity
  8
0
100
AcDbBlockBegin
  2
*D4
 70
     1
 10
0.0
 20
0.0
 30
0.0
  3
*D4
  1

  0
LINE
  5
18BF
330
12B2
100
AcDbEntity
  8
SUNPOU
100
AcDbLine
 10
289.2853134840148
 20
243.3333165125936
 30
0.0
 11
289.2853134840148
 21
191.9678973876809
 31
0.0
  0
LINE
  5
18C0
330
12B2
100
AcDbEntity
  8
SUNPOU
100
AcDbLine
 10
219.1997734087104
 20
285.4190532680667
 30
0.0
 11
219.1997734087104
 21
191.9678973876809
 31
0.0
  0
LINE
  5
18C1
330
12B2
100
AcDbEntity
  8
SUNPOU
100
AcDbLine
 10
282.2853134840148
 20
194.967897387681
 30
0.0
 11
226.1997734087104
 21
194.967897387681
 31
0.0
  0
INSERT
  5
18C2
330
12B2
100
AcDbEntity
  8
SUNPOU
100
AcDbBlockReference
  2
_OPEN
 10
289.2853134840148
 20
194.967897387681
 30
0.0
 41
7.0
 42
7.0
 43
7.0
  0
INSERT
  5
18C3
330
12B2
100
AcDbEntity
  8
SUNPOU
100
AcDbBlockReference
  2
_OPEN
 10
219.1997734087104
 20
194.967897387681
 30
0.0
 41
7.0
 42
7.0
 43
7.0
 50
180.0
  0
MTEXT
  5
18C4
330
12B2
100
AcDbEntity
  8
SUNPOU
100
AcDbMText
 10
254.2425434463626
 20
199.967897387681
 30
0.0
 40
6.0
 41
0.0
 71
     5
 72
     5
  1
\A1;70
 73
     1
 44
1.0
1001
ACAD
1000
MTEXTBEGIN
1070
    73
1070
     1
1070
    44
1040
1.0
1070
    74
1070
     0
1000
MTEXTEND
  0
POINT
  5
18C5
330
12B2
100
AcDbEntity
  8
DEFPOINTS
 62
     0
100
AcDbPoint
 10
289.2853134840148
 20
249.3333165125936
 30
0.0
  0
POINT
  5
18C6
330
12B2
100
AcDbEntity
  8
DEFPOINTS
 62
     0
100
AcDbPoint
 10
219.1997734087104
 20
291.4190532680667
 30
0.0
  0
POINT
  5
18C7
330
12B2
100
AcDbEntity
  8
DEFPOINTS
 62
     0
100
AcDbPoint
 10
219.1997734087104
 20
194.967897387681
 30
0.0
  0
ENDBLK
  5
12BD
330
12B2
100
AcDbEntity
  8
0
100
AcDbBlockEnd
  0
BLOCK
  5
12C8
330
12BE
100
AcDbEntity
  8
0
100
AcDbBlockBegin
  2
*D5
 70
     1
 10
0.0
 20
0.0
 30
0.0
  3
*D5
  1

  0
LINE
  5
18B6
330
12BE
100
AcDbEntity
  8
SUNPOU
100
AcDbLine
 10
289.2853134840148
 20
243.3333165125936
 30
0.0
 11
289.2853134840148
 21
210.8319237510657
 31
0.0
  0
LINE
  5
18B7
330
12BE
100
AcDbEntity
  8
SUNPOU
100
AcDbLine
 10
259.2856134840147
 20
243.3334165125937
 30
0.0
 11
259.2856134840147
 21
210.8319237510657
 31
0.0
  0
LINE
  5
18B8
330
12BE
100
AcDbEntity
  8
SUNPOU
100
AcDbLine
 10
282.2853134840148
 20
213.8319237510657
 30
0.0
 11
266.2856134840147
 21
213.8319237510657
 31
0.0
  0
INSERT
  5
18B9
330
12BE
100
AcDbEntity
  8
SUNPOU
100
AcDbBlockReference
  2
_OPEN
 10
289.2853134840148
 20
213.8319237510657
 30
0.0
 41
7.0
 42
7.0
 43
7.0
  0
INSERT
  5
18BA
330
12BE
100
AcDbEntity
  8
SUNPOU
100
AcDbBlockReference
  2
_OPEN
 10
259.2856134840147
 20
213.8319237510657
 30
0.0
 41
7.0
 42
7.0
 43
7.0
 50
180.0
  0
MTEXT
  5
18BB
330
12BE
100
AcDbEntity
  8
SUNPOU
100
AcDbMText
 10
274.2854634840147
 20
218.8319237510657
 30
0.0
 40
6.0
 41
0.0
 71
     5
 72
     5
  1
\A1;30
 73
     1
 44
1.0
1001
ACAD
1000
MTEXTBEGIN
1070
    73
1070
     1
1070
    44
1040
1.0
1070
    74
1070
     0
1000
MTEXTEND
  0
POINT
  5
18BC
330
12BE
100
AcDbEntity
  8
DEFPOINTS
 62
     0
100
AcDbPoint
 10
289.2853134840148
 20
249.3333165125936
 30
0.0
  0
POINT
  5
18BD
330
12BE
100
AcDbEntity
  8
DEFPOINTS
 62
     0
100
AcDbPoint
 10
259.2856134840147
 20
249.3334165125936
 30
0.0
  0
POINT
  5
18BE
330
12BE
100
AcDbEntity
  8
DEFPOINTS
 62
     0
100
AcDbPoint
 10
259.2856134840147
 20
213.8319237510657
 30
0.0
  0
ENDBLK
  5
12C9
330
12BE
100
AcDbEntity
  8
0
100
AcDbBlockEnd
  0
BLOCK
  5
12D4
330
12CA
100
AcDbEntity
  8
0
100
AcDbBlockBegin
  2
*D6
 70
     1
 10
0.0
 20
0.0
 30
0.0
  3
*D6
  1

  0
LINE
  5
18C8
330
12CA
100
AcDbEntity
  8
SUNPOU
100
AcDbLine
 10
181.2485134840146
 20
364.6037165125934
 30
0.0
 11
148.9272795112899
 21
364.6037165125934
 31
0.0
  0
LINE
  5
18C9
330
12CA
100
AcDbEntity
  8
SUNPOU
100
AcDbLine
 10
181.2481134840147
 20
324.6036165125935
 30
0.0
 11
148.9272795112899
 21
324.6036165125935
 31
0.0
  0
LINE
  5
18CA
330
12CA
100
AcDbEntity
  8
SUNPOU
100
AcDbLine
 10
151.9272795112899
 20
357.6037165125935
 30
0.0
 11
151.9272795112899
 21
331.6036165125936
 31
0.0
  0
INSERT
  5
18CB
330
12CA
100
AcDbEntity
  8
SUNPOU
100
AcDbBlockReference
  2
_OPEN
 10
151.9272795112899
 20
364.6037165125934
 30
0.0
 41
7.0
 42
7.0
 43
7.0
 50
90.0
  0
INSERT
  5
18CC
330
12CA
100
AcDbEntity
  8
SUNPOU
100
AcDbBlockReference
  2
_OPEN
 10
151.9272795112899
 20
324.6036165125935
 30
0.0
 41
7.0
 42
7.0
 43
7.0
 50
270.0
  0
MTEXT
  5
18CD
330
12CA
100
AcDbEntity
  8
SUNPOU
100
AcDbMText
 10
146.9272795112899
 20
344.6036665125936
 30
0.0
 40
6.0
 41
0.0
 71
     5
 72
     5
  1
\A1;40
 11
0.0000000000000001
 21
1.0
 31
0.0
 73
     1
 44
1.0
1001
ACAD
1000
MTEXTBEGIN
1070
    73
1070
     1
1070
    44
1040
1.0
1070
    74
1070
     0
1000
MTEXTEND
  0
POINT
  5
18CE
330
12CA
100
AcDbEntity
  8
DEFPOINTS
 62
     0
100
AcDbPoint
 10
187.2485134840147
 20
364.6037165125934
 30
0.0
  0
POINT
  5
18CF
330
12CA
100
AcDbEntity
  8
DEFPOINTS
 62
     0
100
AcDbPoint
 10
187.2481134840148
 20
324.6036165125935
 30
0.0
  0
POINT
  5
18D0
330
12CA
100
AcDbEntity
  8
DEFPOINTS
 62
     0
100
AcDbPoint
 10
151.9272795112899
 20
324.6036165125935
 30
0.0
  0
ENDBLK
  5
12D5
330
12CA
100
AcDbEntity
  8
0
100
AcDbBlockEnd
  0
BLOCK
  5
12E0
330
12D6
100
AcDbEntity
  8
0
100
AcDbBlockBegin
  2
*D7
 70
     1
 10
0.0
 20
0.0
 30
0.0
  3
*D7
  1

  0
LINE
  5
18E3
330
12D6
100
AcDbEntity
  8
SUNPOU
100
AcDbLine
 10
289.2856134840147
 20
319.2334165125935
 30
0.0
 11
289.2856134840147
 21
327.1196924943904
 31
0.0
  0
LINE
  5
18E4
330
12D6
100
AcDbEntity
  8
SUNPOU
100
AcDbLine
 10
264.2856134771666
 20
319.2320165125936
 30
0.0
 11
264.2856134771666
 21
327.1196924943904
 31
0.0
  0
LINE
  5
18E5
330
12D6
100
AcDbEntity
  8
SUNPOU
100
AcDbLine
 10
282.2856134840147
 20
324.1196924943904
 30
0.0
 11
271.2856134771666
 21
324.1196924943904
 31
0.0
  0
INSERT
  5
18E6
330
12D6
100
AcDbEntity
  8
SUNPOU
100
AcDbBlockReference
  2
_OPEN
 10
289.2856134840147
 20
324.1196924943904
 30
0.0
 41
7.0
 42
7.0
 43
7.0
  0
INSERT
  5
18E7
330
12D6
100
AcDbEntity
  8
SUNPOU
100
AcDbBlockReference
  2
_OPEN
 10
264.2856134771666
 20
324.1196924943904
 30
0.0
 41
7.0
 42
7.0
 43
7.0
 50
180.0
  0
MTEXT
  5
18E8
330
12D6
100
AcDbEntity
  8
SUNPOU
100
AcDbMText
 10
276.7856134805906
 20
329.1196924943904
 30
0.0
 40
6.0
 41
0.0
 71
     5
 72
     5
  1
\A1;\U+203B25
 73
     1
 44
1.0
1001
ACAD
1000
MTEXTBEGIN
1070
    73
1070
     1
1070
    44
1040
1.0
1070
    74
1070
     0
1000
MTEXTEND
  0
POINT
  5
18E9
330
12D6
100
AcDbEntity
  8
DEFPOINTS
 62
     0
100
AcDbPoint
 10
289.2856134840147
 20
313.2334165125935
 30
0.0
  0
POINT
  5
18EA
330
12D6
100
AcDbEntity
  8
DEFPOINTS
 62
     0
100
AcDbPoint
 10
264.2856134771666
 20
313.2320165125936
 30
0.0
  0
POINT
  5
18EB
330
12D6
100
AcDbEntity
  8
DEFPOINTS
 62
     0
100
AcDbPoint
 10
264.2856134771666
 20
324.1196924943904
 30
0.0
  0
ENDBLK
  5
12E1
330
12D6
100
AcDbEntity
  8
0
100
AcDbBlockEnd
  0
BLOCK
  5
12EC
330
12E2
100
AcDbEntity
  8
0
100
AcDbBlockBegin
  2
*D8
 70
     1
 10
0.0
 20
0.0
 30
0.0
  3
*D8
  1

  0
LINE
  5
18D1
330
12E2
100
AcDbEntity
  8
SUNPOU
100
AcDbLine
 10
187.2485134840147
 20
370.6037165125934
 30
0.0
 11
187.2485134840147
 21
403.7173848421028
 31
0.0
  0
LINE
  5
18D2
330
12E2
100
AcDbEntity
  8
SUNPOU
100
AcDbLine
 10
251.1499134840148
 20
370.6033165125937
 30
0.0
 11
251.1499134840148
 21
403.7173848421028
 31
0.0
  0
LINE
  5
18D3
330
12E2
100
AcDbEntity
  8
SUNPOU
100
AcDbLine
 10
194.2485134840146
 20
400.7173848421028
 30
0.0
 11
244.1499134840149
 21
400.7173848421028
 31
0.0
  0
INSERT
  5
18D4
330
12E2
100
AcDbEntity
  8
SUNPOU
100
AcDbBlockReference
  2
_OPEN
 10
187.2485134840147
 20
400.7173848421028
 30
0.0
 41
7.0
 42
7.0
 43
7.0
 50
180.0
  0
INSERT
  5
18D5
330
12E2
100
AcDbEntity
  8
SUNPOU
100
AcDbBlockReference
  2
_OPEN
 10
251.1499134840148
 20
400.7173848421028
 30
0.0
 41
7.0
 42
7.0
 43
7.0
  0
MTEXT
  5
18D6
330
12E2
100
AcDbEntity
  8
SUNPOU
100
AcDbMText
 10
219.1992134840148
 20
405.7173848421028
 30
0.0
 40
6.0
 41
0.0
 71
     5
 72
     5
  1
\A1;64
 73
     1
 44
1.0
1001
ACAD
1000
MTEXTBEGIN
1070
    73
1070
     1
1070
    44
1040
1.0
1070
    74
1070
     0
1000
MTEXTEND
  0
POINT
  5
18D7
330
12E2
100
AcDbEntity
  8
DEFPOINTS
 62
     0
100
AcDbPoint
 10
187.2485134840147
 20
364.6037165125934
 30
0.0
  0
POINT
  5
18D8
330
12E2
100
AcDbEntity
  8
DEFPOINTS
 62
     0
100
AcDbPoint
 10
251.1499134840148
 20
364.6033165125937
 30
0.0
  0
POINT
  5
18D9
330
12E2
100
AcDbEntity
  8
DEFPOINTS
 62
     0
100
AcDbPoint
 10
251.1499134840148
 20
400.7173848421028
 30
0.0
  0
ENDBLK
  5
12ED
330
12E2
100
AcDbEntity
  8
0
100
AcDbBlockEnd
  0
BLOCK
  5
12F8
330
12EE
100
AcDbEntity
  8
0
100
AcDbBlockBegin
  2
*D9
 70
     1
 10
0.0
 20
0.0
 30
0.0
  3
*D9
  1

  0
LINE
  5
18DA
330
12EE
100
AcDbEntity
  8
SUNPOU
100
AcDbLine
 10
257.1499134840148
 20
364.6033165125937
 30
0.0
 11
282.6777438446745
 21
364.6033165125937
 31
0.0
  0
LINE
  5
18DB
330
12EE
100
AcDbEntity
  8
SUNPOU
100
AcDbLine
 10
257.149756989492
 20
339.6033165130835
 30
0.0
 11
282.6777438446745
 21
339.6033165130835
 31
0.0
  0
LINE
  5
18DC
330
12EE
100
AcDbEntity
  8
SUNPOU
100
AcDbLine
 10
279.6777438446745
 20
357.6033165125937
 30
0.0
 11
279.6777438446745
 21
346.6033165130836
 31
0.0
  0
INSERT
  5
18DD
330
12EE
100
AcDbEntity
  8
SUNPOU
100
AcDbBlockReference
  2
_OPEN
 10
279.6777438446745
 20
364.6033165125937
 30
0.0
 41
7.0
 42
7.0
 43
7.0
 50
90.0
  0
INSERT
  5
18DE
330
12EE
100
AcDbEntity
  8
SUNPOU
100
AcDbBlockReference
  2
_OPEN
 10
279.6777438446745
 20
339.6033165130835
 30
0.0
 41
7.0
 42
7.0
 43
7.0
 50
270.0
  0
MTEXT
  5
18DF
330
12EE
100
AcDbEntity
  8
SUNPOU
100
AcDbMText
 10
274.6777438446745
 20
352.1033165128387
 30
0.0
 40
6.0
 41
0.0
 71
     5
 72
     5
  1
\A1;\U+203B25
 11
0.0000000000000001
 21
1.0
 31
0.0
 73
     1
 44
1.0
1001
ACAD
1000
MTEXTBEGIN
1070
    73
1070
     1
1070
    44
1040
1.0
1070
    74
1070
     0
1000
MTEXTEND
  0
POINT
  5
18E0
330
12EE
100
AcDbEntity
  8
DEFPOINTS
 62
     0
100
AcDbPoint
 10
251.1499134840148
 20
364.6033165125937
 30
0.0
  0
POINT
  5
18E1
330
12EE
100
AcDbEntity
  8
DEFPOINTS
 62
     0
100
AcDbPoint
 10
251.149756989492
 20
339.6033165130835
 30
0.0
  0
POINT
  5
18E2
330
12EE
100
AcDbEntity
  8
DEFPOINTS
 62
     0
100
AcDbPoint
 10
279.6777438446745
 20
339.6033165130835
 30
0.0
  0
ENDBLK
  5
12F9
330
12EE
100
AcDbEntity
  8
0
100
AcDbBlockEnd
  0
BLOCK
  5
1304
330
12FA
100
AcDbEntity
  8
0
100
AcDbBlockBegin
  2
*D10
 70
     1
 10
0.0
 20
0.0
 30
0.0
  3
*D10
  1

  0
LINE
  5
18F5
330
12FA
100
AcDbEntity
  8
SUNPOU
100
AcDbLine
 10
602.041905398961
 20
364.603416512701
 30
0.0
 11
567.1206683091731
 21
364.603416512701
 31
0.0
  0
LINE
  5
18F6
330
12FA
100
AcDbEntity
  8
SUNPOU
100
AcDbLine
 10
623.7462053989613
 20
232.9002165127011
 30
0.0
 11
567.1206683091729
 21
232.9002165127011
 31
0.0
  0
LINE
  5
18F7
330
12FA
100
AcDbEntity
  8
SUNPOU
100
AcDbLine
 10
570.120668309173
 20
357.603416512701
 30
0.0
 11
570.1206683091729
 21
239.9002165127011
 31
0.0
  0
INSERT
  5
18F8
330
12FA
100
AcDbEntity
  8
SUNPOU
100
AcDbBlockReference
  2
_OPEN
 10
570.120668309173
 20
364.603416512701
 30
0.0
 41
7.0
 42
7.0
 43
7.0
 50
90.0
  0
INSERT
  5
18F9
330
12FA
100
AcDbEntity
  8
SUNPOU
100
AcDbBlockReference
  2
_OPEN
 10
570.1206683091729
 20
232.9002165127011
 30
0.0
 41
7.0
 42
7.0
 43
7.0
 50
270.0
  0
MTEXT
  5
18FA
330
12FA
100
AcDbEntity
  8
SUNPOU
100
AcDbMText
 10
565.120668309173
 20
298.7518165127011
 30
0.0
 40
6.0
 41
0.0
 71
     5
 72
     5
  1
\A1;132
 11
0.0000000000000001
 21
1.0
 31
0.0
 73
     1
 44
1.0
1001
ACAD
1000
MTEXTBEGIN
1070
    73
1070
     1
1070
    44
1040
1.0
1070
    74
1070
     0
1000
MTEXTEND
  0
POINT
  5
18FB
330
12FA
100
AcDbEntity
  8
DEFPOINTS
 62
     0
100
AcDbPoint
 10
608.041905398961
 20
364.603416512701
 30
0.0
  0
POINT
  5
18FC
330
12FA
100
AcDbEntity
  8
DEFPOINTS
 62
     0
100
AcDbPoint
 10
629.7462053989614
 20
232.9002165127011
 30
0.0
  0
POINT
  5
18FD
330
12FA
100
AcDbEntity
  8
DEFPOINTS
 62
     0
100
AcDbPoint
 10
570.1206683091729
 20
232.9002165127011
 30
0.0
  0
ENDBLK
  5
1305
330
12FA
100
AcDbEntity
  8
0
100
AcDbBlockEnd
  0
BLOCK
  5
1310
330
1306
100
AcDbEntity
  8
0
100
AcDbBlockBegin
  2
*D11
 70
     1
 10
0.0
 20
0.0
 30
0.0
  3
*D11
  1

  0
LINE
  5
18EC
330
1306
100
AcDbEntity
  8
SUNPOU
100
AcDbLine
 10
639.9934053989611
 20
380.8326165127012
 30
0.0
 11
639.9934053989611
 21
403.7173848421028
 31
0.0
  0
LINE
  5
18ED
330
1306
100
AcDbEntity
  8
SUNPOU
100
AcDbLine
 10
661.6962053989611
 20
274.4778165127012
 30
0.0
 11
661.6962053989611
 21
403.7173848421028
 31
0.0
  0
LINE
  5
18EE
330
1306
100
AcDbEntity
  8
SUNPOU
100
AcDbLine
 10
646.9934053989611
 20
400.7173848421028
 30
0.0
 11
654.6962053989611
 21
400.7173848421028
 31
0.0
  0
INSERT
  5
18EF
330
1306
100
AcDbEntity
  8
SUNPOU
100
AcDbBlockReference
  2
_OPEN
 10
639.9934053989611
 20
400.7173848421028
 30
0.0
 41
7.0
 42
7.0
 43
7.0
 50
180.0
  0
INSERT
  5
18F0
330
1306
100
AcDbEntity
  8
SUNPOU
100
AcDbBlockReference
  2
_OPEN
 10
661.6962053989611
 20
400.7173848421028
 30
0.0
 41
7.0
 42
7.0
 43
7.0
  0
MTEXT
  5
18F1
330
1306
100
AcDbEntity
  8
SUNPOU
100
AcDbMText
 10
650.8448053989611
 20
405.7173848421028
 30
0.0
 40
6.0
 41
0.0
 71
     5
 72
     5
  1
\A1;22
 73
     1
 44
1.0
1001
ACAD
1000
MTEXTBEGIN
1070
    73
1070
     1
1070
    44
1040
1.0
1070
    74
1070
     0
1000
MTEXTEND
  0
POINT
  5
18F2
330
1306
100
AcDbEntity
  8
DEFPOINTS
 62
     0
100
AcDbPoint
 10
639.9934053989611
 20
374.8326165127012
 30
0.0
  0
POINT
  5
18F3
330
1306
100
AcDbEntity
  8
DEFPOINTS
 62
     0
100
AcDbPoint
 10
661.6962053989611
 20
268.4778165127012
 30
0.0
  0
POINT
  5
18F4
330
1306
100
AcDbEntity
  8
DEFPOINTS
 62
     0
100
AcDbPoint
 10
661.6962053989611
 20
400.7173848421028
 30
0.0
  0
ENDBLK
  5
1311
330
1306
100
AcDbEntity
  8
0
100
AcDbBlockEnd
  0
BLOCK
  5
187B
330
16E7
100
AcDbEntity
  8
0
100
AcDbBlockBegin
  2
*X12
 70
     1
 10
0.0
 20
0.0
 30
0.0
  3
*X12
  1

  0
LINE
  5
16E8
330
16E7
100
AcDbEntity
  8
0
 62
     0
100
AcDbLine
 10
69.04221216833718
 20
22.60416893857376
 30
0.0
 11
68.39638123862227
 21
23.24999986828874
 31
0.0
  0
LINE
  5
16E9
330
16E7
100
AcDbEntity
  8
0
 62
     0
100
AcDbLine
 10
69.04221216833718
 20
21.70614332646687
 30
0.0
 11
67.49835562651532
 21
23.24999986828874
 31
0.0
  0
LINE
  5
16EA
330
16E7
100
AcDbEntity
  8
0
 62
     0
100
AcDbLine
 10
69.04221216833713
 20
20.80811771435993
 30
0.0
 11
66.62107822232218
 21
23.22925166037487
 31
0.0
  0
LINE
  5
16EB
330
16E7
100
AcDbEntity
  8
0
 62
     0
100
AcDbLine
 10
69.04221216833718
 20
19.91009210225309
 30
0.0
 11
66.24221216833712
 21
22.7100921022531
 31
0.0
  0
LINE
  5
16EC
330
16E7
100
AcDbEntity
  8
0
 62
     0
100
AcDbLine
 10
69.04221216833718
 20
19.01206649014614
 30
0.0
 11
66.24221216833712
 21
21.81206649014621
 31
0.0
  0
LINE
  5
16ED
330
16E7
100
AcDbEntity
  8
0
 62
     0
100
AcDbLine
 10
69.04221216833713
 20
18.11404087803919
 30
0.0
 11
66.24221216833706
 21
20.91404087803926
 31
0.0
  0
LINE
  5
16EE
330
16E7
100
AcDbEntity
  8
0
 62
     0
100
AcDbLine
 10
64.14221216833709
 20
22.11601526593239
 30
0.0
 11
63.0082275659808
 21
23.24999986828874
 31
0.0
  0
LINE
  5
16EF
330
16E7
100
AcDbEntity
  8
0
 62
     0
100
AcDbLine
 10
69.04221216833718
 20
17.21601526593235
 30
0.0
 11
66.24221216833712
 21
20.01601526593242
 31
0.0
  0
LINE
  5
16F0
330
16E7
100
AcDbEntity
  8
0
 62
     0
100
AcDbLine
 10
64.14221216833709
 20
21.2179896538255
 30
0.0
 11
62.11020195387385
 21
23.24999986828868
 31
0.0
  0
LINE
  5
16F1
330
16E7
100
AcDbEntity
  8
0
 62
     0
100
AcDbLine
 10
69.04221216833713
 20
16.31798965382541
 30
0.0
 11
66.24221216833712
 21
19.11798965382547
 31
0.0
  0
LINE
  5
16F2
330
16E7
100
AcDbEntity
  8
0
 62
     0
100
AcDbLine
 10
64.14221216833709
 20
20.31996404171855
 30
0.0
 11
61.43670120320002
 21
23.02547500685563
 31
0.0
  0
LINE
  5
16F3
330
16E7
100
AcDbEntity
  8
0
 62
     0
100
AcDbLine
 10
69.04221216833713
 20
15.41996404171851
 30
0.0
 11
66.24221216833706
 21
18.21996404171853
 31
0.0
  0
LINE
  5
16F4
330
16E7
100
AcDbEntity
  8
0
 62
     0
100
AcDbLine
 10
64.14221216833721
 20
19.42193842961154
 30
0.0
 11
61.34221216833703
 21
22.22193842961167
 31
0.0
  0
LINE
  5
16F5
330
16E7
100
AcDbEntity
  8
0
 62
     0
100
AcDbLine
 10
69.04221216833718
 20
14.52193842961156
 30
0.0
 11
66.24221216833712
 21
17.32193842961163
 31
0.0
  0
LINE
  5
16F6
330
16E7
100
AcDbEntity
  8
0
 62
     0
100
AcDbLine
 10
64.14221216833715
 20
18.52391281750465
 30
0.0
 11
61.34221216833703
 21
21.32391281750483
 31
0.0
  0
LINE
  5
16F7
330
16E7
100
AcDbEntity
  8
0
 62
     0
100
AcDbLine
 10
69.04221216833713
 20
13.62391281750467
 30
0.0
 11
66.24221216833706
 21
16.42391281750474
 31
0.0
  0
LINE
  5
16F8
330
16E7
100
AcDbEntity
  8
0
 62
     0
100
AcDbLine
 10
64.14221216833715
 20
17.62588720539776
 30
0.0
 11
61.34221216833703
 21
20.42588720539789
 31
0.0
  0
LINE
  5
16F9
330
16E7
100
AcDbEntity
  8
0
 62
     0
100
AcDbLine
 10
69.04221216833713
 20
12.72588720539778
 30
0.0
 11
66.24221216833706
 21
15.52588720539785
 31
0.0
  0
LINE
  5
16FA
330
16E7
100
AcDbEntity
  8
0
 62
     0
100
AcDbLine
 10
64.14221216833709
 20
16.72786159329081
 30
0.0
 11
61.34221216833697
 21
19.52786159329093
 31
0.0
  0
LINE
  5
16FB
330
16E7
100
AcDbEntity
  8
0
 62
     0
100
AcDbLine
 10
69.04221216833708
 20
11.82786159329083
 30
0.0
 11
66.24221216833706
 21
14.6278615932909
 31
0.0
  0
LINE
  5
16FC
330
16E7
100
AcDbEntity
  8
0
 62
     0
100
AcDbLine
 10
64.14221216833715
 20
15.82983598118397
 30
0.0
 11
61.34221216833703
 21
18.6298359811841
 31
0.0
  0
LINE
  5
16FD
330
16E7
100
AcDbEntity
  8
0
 62
     0
100
AcDbLine
 10
57.84221216833708
 20
22.12983598118404
 30
0.0
 11
56.72204828123245
 21
23.24999986828868
 31
0.0
  0
LINE
  5
16FE
330
16E7
100
AcDbEntity
  8
0
 62
     0
100
AcDbLine
 10
69.04221216833713
 20
10.929835981184
 30
0.0
 11
66.24221216833706
 21
13.72983598118401
 31
0.0
  0
LINE
  5
16FF
330
16E7
100
AcDbEntity
  8
0
 62
     0
100
AcDbLine
 10
64.14221216833715
 20
14.93181036907702
 30
0.0
 11
61.34221216833697
 21
17.73181036907715
 31
0.0
  0
LINE
  5
1700
330
16E7
100
AcDbEntity
  8
0
 62
     0
100
AcDbLine
 10
57.84221216833703
 20
21.23181036907709
 30
0.0
 11
55.82402266912549
 21
23.24999986828868
 31
0.0
  0
LINE
  5
1701
330
16E7
100
AcDbEntity
  8
0
 62
     0
100
AcDbLine
 10
69.04221216833713
 20
10.03181036907705
 30
0.0
 11
66.24221216833706
 21
12.83181036907712
 31
0.0
  0
LINE
  5
1702
330
16E7
100
AcDbEntity
  8
0
 62
     0
100
AcDbLine
 10
64.14221216833709
 20
14.03378475697013
 30
0.0
 11
61.34221216833703
 21
16.83378475697014
 31
0.0
  0
LINE
  5
1703
330
16E7
100
AcDbEntity
  8
0
 62
     0
100
AcDbLine
 10
57.84221216833703
 20
20.3337847569702
 30
0.0
 11
55.14244944501303
 21
23.0335474802942
 31
0.0
  0
LINE
  5
1704
330
16E7
100
AcDbEntity
  8
0
 62
     0
100
AcDbLine
 10
69.04221216833708
 20
9.133784756970158
 30
0.0
 11
66.242212168337
 21
11.93378475697017
 31
0.0
  0
LINE
  5
1705
330
16E7
100
AcDbEntity
  8
0
 62
     0
100
AcDbLine
 10
64.14221216833715
 20
13.13575914486319
 30
0.0
 11
61.34221216833708
 21
15.93575914486325
 31
0.0
  0
LINE
  5
1706
330
16E7
100
AcDbEntity
  8
0
 62
     0
100
AcDbLine
 10
57.84221216833708
 20
19.43575914486325
 30
0.0
 11
55.04221216833707
 21
22.23575914486326
 31
0.0
  0
LINE
  5
1707
330
16E7
100
AcDbEntity
  8
0
 62
     0
100
AcDbLine
 10
69.04221216833713
 20
8.235759144863209
 30
0.0
 11
66.24221216833706
 21
11.03575914486327
 31
0.0
  0
LINE
  5
1708
330
16E7
100
AcDbEntity
  8
0
 62
     0
100
AcDbLine
 10
64.14221216833709
 20
12.23773353275629
 30
0.0
 11
61.34221216833708
 21
15.03773353275636
 31
0.0
  0
LINE
  5
1709
330
16E7
100
AcDbEntity
  8
0
 62
     0
100
AcDbLine
 10
57.84221216833714
 20
18.5377335327563
 30
0.0
 11
55.04221216833713
 21
21.33773353275632
 31
0.0
  0
LINE
  5
170A
330
16E7
100
AcDbEntity
  8
0
 62
     0
100
AcDbLine
 10
68.97024681344731
 20
7.409698887646129
 30
0.0
 11
66.24221216833706
 21
10.13773353275638
 31
0.0
  0
LINE
  5
170B
330
16E7
100
AcDbEntity
  8
0
 62
     0
100
AcDbLine
 10
64.14221216833715
 20
11.33970792064929
 30
0.0
 11
61.34221216833703
 21
14.13970792064941
 31
0.0
  0
LINE
  5
170C
330
16E7
100
AcDbEntity
  8
0
 62
     0
100
AcDbLine
 10
57.84221216833708
 20
17.63970792064941
 30
0.0
 11
55.04221216833713
 21
20.43970792064937
 31
0.0
  0
LINE
  5
170D
330
16E7
100
AcDbEntity
  8
0
 62
     0
100
AcDbLine
 10
68.33192022069784
 20
7.149999868288659
 30
0.0
 11
66.242212168337
 21
9.239707920649493
 31
0.0
  0
LINE
  5
170E
330
16E7
100
AcDbEntity
  8
0
 62
     0
100
AcDbLine
 10
57.84221216833708
 20
16.74168230854246
 30
0.0
 11
55.04221216833707
 21
19.54168230854242
 31
0.0
  0
LINE
  5
170F
330
16E7
100
AcDbEntity
  8
0
 62
     0
100
AcDbLine
 10
64.14221216833715
 20
10.44168230854239
 30
0.0
 11
61.34221216833703
 21
13.24168230854252
 31
0.0
  0
LINE
  5
1710
330
16E7
100
AcDbEntity
  8
0
 62
     0
100
AcDbLine
 10
52.41721216833707
 20
22.16668230854248
 30
0.0
 11
51.33389460859075
 21
23.24999986828874
 31
0.0
  0
LINE
  5
1711
330
16E7
100
AcDbEntity
  8
0
 62
     0
100
AcDbLine
 10
67.43389460859095
 20
7.149999868288546
 30
0.0
 11
66.242212168337
 21
8.341682308542544
 31
0.0
  0
LINE
  5
1712
330
16E7
100
AcDbEntity
  8
0
 62
     0
100
AcDbLine
 10
57.84221216833708
 20
15.84365669643557
 30
0.0
 11
55.04221216833713
 21
18.64365669643558
 31
0.0
  0
LINE
  5
1713
330
16E7
100
AcDbEntity
  8
0
 62
     0
100
AcDbLine
 10
52.41721216833707
 20
21.26865669643558
 30
0.0
 11
50.43586899648392
 21
23.24999986828879
 31
0.0
  0
LINE
  5
1714
330
16E7
100
AcDbEntity
  8
0
 62
     0
100
AcDbLine
 10
64.11625386769157
 20
9.569614997081146
 30
0.0
 11
61.34221216833703
 21
12.34365669643563
 31
0.0
  0
LINE
  5
1715
330
16E7
100
AcDbEntity
  8
0
 62
     0
100
AcDbLine
 10
57.84221216833708
 20
14.94563108432868
 30
0.0
 11
55.04221216833713
 21
17.74563108432863
 31
0.0
  0
LINE
  5
1716
330
16E7
100
AcDbEntity
  8
0
 62
     0
100
AcDbLine
 10
52.22163162222324
 20
20.56621163044253
 30
0.0
 11
49.53784338437708
 21
23.24999986828868
 31
0.0
  0
LINE
  5
1717
330
16E7
100
AcDbEntity
  8
0
 62
     0
100
AcDbLine
 10
63.92326857243432
 20
8.864574680231385
 30
0.0
 11
61.34221216833703
 21
11.44563108432874
 31
0.0
  0
LINE
  5
1718
330
16E7
100
AcDbEntity
  8
0
 62
     0
100
AcDbLine
 10
57.84221216833708
 20
14.04760547222173
 30
0.0
 11
55.04221216833707
 21
16.84760547222174
 31
0.0
  0
LINE
  5
1719
330
16E7
100
AcDbEntity
  8
0
 62
     0
100
AcDbLine
 10
51.43981777227009
 20
20.44999986828867
 30
0.0
 11
48.63981777227007
 21
23.24999986828874
 31
0.0
  0
LINE
  5
171A
330
16E7
100
AcDbEntity
  8
0
 62
     0
100
AcDbLine
 10
63.59823669651075
 20
8.291580944048007
 30
0.0
 11
61.27069642917752
 21
10.6191212113813
 31
0.0
  0
LINE
  5
171B
330
16E7
100
AcDbEntity
  8
0
 62
     0
100
AcDbLine
 10
57.84221216833708
 20
13.1495798601149
 30
0.0
 11
55.04221216833713
 21
15.94957986011485
 31
0.0
  0
LINE
  5
171C
330
16E7
100
AcDbEntity
  8
0
 62
     0
100
AcDbLine
 10
50.54179216016326
 20
20.44999986828873
 30
0.0
 11
47.80422543098587
 21
23.18756659746612
 31
0.0
  0
LINE
  5
171D
330
16E7
100
AcDbEntity
  8
0
 62
     0
100
AcDbLine
 10
63.16619489918571
 20
7.825597129266213
 30
0.0
 11
60.86911079071001
 21
10.12268123774191
 31
0.0
  0
LINE
  5
171E
330
16E7
100
AcDbEntity
  8
0
 62
     0
100
AcDbLine
 10
57.84221216833708
 20
12.25155424800795
 30
0.0
 11
55.04221216833707
 21
15.0515542480079
 31
0.0
  0
LINE
  5
171F
330
16E7
100
AcDbEntity
  8
0
 62
     0
100
AcDbLine
 10
49.6437665480563
 20
20.44999986828873
 30
0.0
 11
47.13958500645247
 21
22.9541814098925
 31
0.0
  0
LINE
  5
1720
330
16E7
100
AcDbEntity
  8
0
 62
     0
100
AcDbLine
 10
62.63003255425968
 20
7.463733862085348
 30
0.0
 11
60.1437665480563
 21
9.949999868288671
 31
0.0
  0
LINE
  5
1721
330
16E7
100
AcDbEntity
  8
0
 62
     0
100
AcDbLine
 10
57.84221216833703
 20
11.353528635901
 30
0.0
 11
55.04221216833713
 21
14.1535286359009
 31
0.0
  0
LINE
  5
1722
330
16E7
100
AcDbEntity
  8
0
 62
     0
100
AcDbLine
 10
48.7675307639675
 20
20.42821004027053
 30
0.0
 11
46.59698406924229
 21
22.59875673499573
 31
0.0
  0
LINE
  5
1723
330
16E7
100
AcDbEntity
  8
0
 62
     0
100
AcDbLine
 10
61.97361999434838
 20
7.222120809889702
 30
0.0
 11
59.24574093594941
 21
9.949999868288671
 31
0.0
  0
LINE
  5
1724
330
16E7
100
AcDbEntity
  8
0
 62
     0
100
AcDbLine
 10
48.39221216833715
 20
19.90550302379392
 30
0.0
 11
46.15887201019774
 21
22.13884318193334
 31
0.0
  0
LINE
  5
1725
330
16E7
100
AcDbEntity
  8
0
 62
     0
100
AcDbLine
 10
61.14771532384253
 20
7.149999868288603
 30
0.0
 11
55.04221216833713
 21
13.255503023794
 31
0.0
  0
LINE
  5
1726
330
16E7
100
AcDbEntity
  8
0
 62
     0
100
AcDbLine
 10
48.3922121683372
 20
19.00747741168709
 30
0.0
 11
45.82710109784471
 21
21.57258848217958
 31
0.0
  0
LINE
  5
1727
330
16E7
100
AcDbEntity
  8
0
 62
     0
100
AcDbLine
 10
60.24968971173564
 20
7.149999868288603
 30
0.0
 11
55.04221216833719
 21
12.35747741168711
 31
0.0
  0
LINE
  5
1728
330
16E7
100
AcDbEntity
  8
0
 62
     0
100
AcDbLine
 10
48.59875644944094
 20
17.90290751847641
 30
0.0
 11
45.6249225784806
 21
20.87674138943669
 31
0.0
  0
LINE
  5
1729
330
16E7
100
AcDbEntity
  8
0
 62
     0
100
AcDbLine
 10
59.35166409962874
 20
7.149999868288603
 30
0.0
 11
55.04221216833713
 21
11.45945179958022
 31
0.0
  0
LINE
  5
172A
330
16E7
100
AcDbEntity
  8
0
 62
     0
100
AcDbLine
 10
52.81581587102846
 20
12.78782248478194
 30
0.0
 11
45.59221216833708
 21
20.01142618747326
 31
0.0
  0
LINE
  5
172B
330
16E7
100
AcDbEntity
  8
0
 62
     0
100
AcDbLine
 10
43.492212168337
 20
22.11142618747334
 30
0.0
 11
42.35363848752172
 21
23.24999986828868
 31
0.0
  0
LINE
  5
172C
330
16E7
100
AcDbEntity
  8
0
 62
     0
100
AcDbLine
 10
58.4536384875218
 20
7.149999868288603
 30
0.0
 11
55.04221216833713
 21
10.56142618747327
 31
0.0
  0
LINE
  5
172D
330
16E7
100
AcDbEntity
  8
0
 62
     0
100
AcDbLine
 10
52.94221216833716
 20
11.7634005753664
 30
0.0
 11
45.59221216833714
 21
19.11340057536643
 31
0.0
  0
LINE
  5
172E
330
16E7
100
AcDbEntity
  8
0
 62
     0
100
AcDbLine
 10
43.49221216833711
 20
21.21340057536639
 30
0.0
 11
41.45561287541477
 21
23.24999986828879
 31
0.0
  0
LINE
  5
172F
330
16E7
100
AcDbEntity
  8
0
 62
     0
100
AcDbLine
 10
57.53916499667003
 20
7.166447747033544
 30
0.0
 11
55.05866004708201
 21
9.646952696621553
 31
0.0
  0
LINE
  5
1730
330
16E7
100
AcDbEntity
  8
0
 62
     0
100
AcDbLine
 10
43.49221216833711
 20
20.3153749632595
 30
0.0
 11
40.7848222805618
 21
23.02276485103476
 31
0.0
  0
LINE
  5
1731
330
16E7
100
AcDbEntity
  8
0
 62
     0
100
AcDbLine
 10
52.94221216833711
 20
10.86537496325945
 30
0.0
 11
45.61562283621947
 21
18.19196429537715
 31
0.0
  0
LINE
  5
1732
330
16E7
100
AcDbEntity
  8
0
 62
     0
100
AcDbLine
 10
43.49221216833711
 20
19.41734935115255
 30
0.0
 11
40.6922121683371
 21
22.21734935115251
 31
0.0
  0
LINE
  5
1733
330
16E7
100
AcDbEntity
  8
0
 62
     0
100
AcDbLine
 10
52.94221216833699
 20
9.96734935115262
 30
0.0
 11
45.93374225405949
 21
16.97581926543017
 31
0.0
  0
LINE
  5
1734
330
16E7
100
AcDbEntity
  8
0
 62
     0
100
AcDbLine
 10
43.49221216833711
 20
18.51932373904566
 30
0.0
 11
40.69221216833716
 21
21.31932373904561
 31
0.0
  0
LINE
  5
1735
330
16E7
100
AcDbEntity
  8
0
 62
     0
100
AcDbLine
 10
52.83365035074803
 20
9.177885556634748
 30
0.0
 11
50.13801556170972
 21
11.87352034567306
 31
0.0
  0
LINE
  5
1736
330
16E7
100
AcDbEntity
  8
0
 62
     0
100
AcDbLine
 10
43.49221216833711
 20
17.62129812693877
 30
0.0
 11
40.6922121683371
 21
20.42129812693872
 31
0.0
  0
LINE
  5
1737
330
16E7
100
AcDbEntity
  8
0
 62
     0
100
AcDbLine
 10
38.4007252677601
 20
22.71278502751574
 30
0.0
 11
37.86351042698709
 21
23.24999986828879
 31
0.0
  0
LINE
  5
1738
330
16E7
100
AcDbEntity
  8
0
 62
     0
100
AcDbLine
 10
52.56577464298647
 20
8.547735652289418
 30
0.0
 11
50.14221216833715
 21
10.97129812693873
 31
0.0
  0
LINE
  5
1739
330
16E7
100
AcDbEntity
  8
0
 62
     0
100
AcDbLine
 10
43.49221216833706
 20
16.72327251483182
 30
0.0
 11
40.6922121683371
 21
19.52327251483183
 31
0.0
  0
LINE
  5
173A
330
16E7
100
AcDbEntity
  8
0
 62
     0
100
AcDbLine
 10
38.20179760350749
 20
22.01368707966139
 30
0.0
 11
36.9654848148802
 21
23.24999986828874
 31
0.0
  0
LINE
  5
173B
330
16E7
100
AcDbEntity
  8
0
 62
     0
100
AcDbLine
 10
52.18278784481118
 20
8.032696838357765
 30
0.0
 11
50.04492698545067
 21
10.17055769771826
 31
0.0
  0
LINE
  5
173C
330
16E7
100
AcDbEntity
  8
0
 62
     0
100
AcDbLine
 10
43.49221216833706
 20
15.82524690272492
 30
0.0
 11
40.6922121683371
 21
18.62524690272488
 31
0.0
  0
LINE
  5
173D
330
16E7
100
AcDbEntity
  8
0
 62
     0
100
AcDbLine
 10
37.9862714566018
 20
21.33118761446013
 30
0.0
 11
36.07705589313122
 21
23.24040317793077
 31
0.0
  0
LINE
  5
173E
330
16E7
100
AcDbEntity
  8
0
 62
     0
100
AcDbLine
 10
51.69646887969554
 20
7.620990191366388
 30
0.0
 11
49.36745920277331
 21
9.949999868288671
 31
0.0
  0
LINE
  5
173F
330
16E7
100
AcDbEntity
  8
0
 62
     0
100
AcDbLine
 10
43.49221216833711
 20
14.92722129061803
 30
0.0
 11
40.6922121683371
 21
17.72722129061799
 31
0.0
  0
LINE
  5
1740
330
16E7
100
AcDbEntity
  8
0
 62
     0
100
AcDbLine
 10
37.77074530969628
 20
20.64868814925887
 30
0.0
 11
35.64274530969624
 21
22.77668814925892
 31
0.0
  0
LINE
  5
1741
330
16E7
100
AcDbEntity
  8
0
 62
     0
100
AcDbLine
 10
51.10038493123517
 20
7.319048527719928
 30
0.0
 11
48.46943359066642
 21
9.949999868288728
 31
0.0
  0
LINE
  5
1742
330
16E7
100
AcDbEntity
  8
0
 62
     0
100
AcDbLine
 10
43.49221216833706
 20
14.02919567851114
 30
0.0
 11
40.6922121683371
 21
16.8291956785111
 31
0.0
  0
LINE
  5
1743
330
16E7
100
AcDbEntity
  8
0
 62
     0
100
AcDbLine
 10
37.55521916279042
 20
19.96618868405778
 30
0.0
 11
35.42721916279044
 21
22.09418868405777
 31
0.0
  0
LINE
  5
1744
330
16E7
100
AcDbEntity
  8
0
 62
     0
100
AcDbLine
 10
50.3627122795877
 20
7.158695567260508
 30
0.0
 11
47.57140797855953
 21
9.949999868288671
 31
0.0
  0
LINE
  5
1745
330
16E7
100
AcDbEntity
  8
0
 62
     0
100
AcDbLine
 10
43.49221216833706
 20
13.13117006640419
 30
0.0
 11
40.69221216833705
 21
15.93117006640415
 31
0.0
  0
LINE
  5
1746
330
16E7
100
AcDbEntity
  8
0
 62
     0
100
AcDbLine
 10
37.33969301588485
 20
19.28368921885641
 30
0.0
 11
35.21169301588475
 21
21.41168921885645
 31
0.0
  0
LINE
  5
1747
330
16E7
100
AcDbEntity
  8
0
 62
     0
100
AcDbLine
 10
49.47338236645265
 20
7.149999868288603
 30
0.0
 11
46.67338236645258
 21
9.949999868288671
 31
0.0
  0
LINE
  5
1748
330
16E7
100
AcDbEntity
  8
0
 62
     0
100
AcDbLine
 10
43.49221216833706
 20
12.2331444542973
 30
0.0
 11
40.6922121683371
 21
15.03314445429731
 31
0.0
  0
LINE
  5
1749
330
16E7
100
AcDbEntity
  8
0
 62
     0
100
AcDbLine
 10
37.12416686897928
 20
18.60118975365515
 30
0.0
 11
34.99616686897912
 21
20.72918975365525
 31
0.0
  0
LINE
  5
174A
330
16E7
100
AcDbEntity
  8
0
 62
     0
100
AcDbLine
 10
48.57535675434576
 20
7.149999868288659
 30
0.0
 11
46.14174505704937
 21
9.583611565585044
 31
0.0
  0
LINE
  5
174B
330
16E7
100
AcDbEntity
  8
0
 62
     0
100
AcDbLine
 10
36.90864072207353
 20
17.91869028845394
 30
0.0
 11
34.78064072207349
 21
20.04669028845399
 31
0.0
  0
LINE
  5
174C
330
16E7
100
AcDbEntity
  8
0
 62
     0
100
AcDbLine
 10
43.49221216833706
 20
11.33511884219041
 30
0.0
 11
40.6922121683371
 21
14.13511884219036
 31
0.0
  0
LINE
  5
174D
330
16E7
100
AcDbEntity
  8
0
 62
     0
100
AcDbLine
 10
32.6422121683371
 20
22.18511884219038
 30
0.0
 11
31.57733114223879
 21
23.24999986828863
 31
0.0
  0
LINE
  5
174E
330
16E7
100
AcDbEntity
  8
0
 62
     0
100
AcDbLine
 10
47.67733114223887
 20
7.149999868288603
 30
0.0
 11
46.11721216833712
 21
8.710118842190354
 31
0.0
  0
LINE
  5
174F
330
16E7
100
AcDbEntity
  8
0
 62
     0
100
AcDbLine
 10
36.69311457516784
 20
17.23619082325268
 30
0.0
 11
34.56511457516786
 21
19.36419082325267
 31
0.0
  0
LINE
  5
1750
330
16E7
100
AcDbEntity
  8
0
 62
     0
100
AcDbLine
 10
43.49221216833706
 20
10.43709323008346
 30
0.0
 11
40.69221216833705
 21
13.23709323008347
 31
0.0
  0
LINE
  5
1751
330
16E7
100
AcDbEntity
  8
0
 62
     0
100
AcDbLine
 10
32.6422121683371
 20
21.28709323008343
 30
0.0
 11
30.6793055301319
 21
23.24999986828863
 31
0.0
  0
LINE
  5
1752
330
16E7
100
AcDbEntity
  8
0
 62
     0
100
AcDbLine
 10
46.77930553013186
 20
7.149999868288659
 30
0.0
 11
46.11721216833706
 21
7.812093230083405
 31
0.0
  0
LINE
  5
1753
330
16E7
100
AcDbEntity
  8
0
 62
     0
100
AcDbLine
 10
36.47758842826215
 20
16.55369135805142
 30
0.0
 11
34.34958842826211
 21
18.68169135805146
 31
0.0
  0
LINE
  5
1754
330
16E7
100
AcDbEntity
  8
0
 62
     0
100
AcDbLine
 10
32.64221216833704
 20
20.38906761797648
 30
0.0
 11
29.96676723943944
 21
23.06451254687414
 31
0.0
  0
LINE
  5
1755
330
16E7
100
AcDbEntity
  8
0
 62
     0
100
AcDbLine
 10
43.492212168337
 20
9.53906761797657
 30
0.0
 11
40.69221216833705
 21
12.33906761797652
 31
0.0
  0
LINE
  5
1756
330
16E7
100
AcDbEntity
  8
0
 62
     0
100
AcDbLine
 10
36.26206228135652
 20
15.87119189285022
 30
0.0
 11
34.13406228135654
 21
17.9991918928502
 31
0.0
  0
LINE
  5
1757
330
16E7
100
AcDbEntity
  8
0
 62
     0
100
AcDbLine
 10
32.6422121683371
 20
19.49104200586964
 30
0.0
 11
29.84221216833703
 21
22.29104200586966
 31
0.0
  0
LINE
  5
1758
330
16E7
100
AcDbEntity
  8
0
 62
     0
100
AcDbLine
 10
43.49221216833706
 20
8.641042005869678
 30
0.0
 11
40.69221216833705
 21
11.44104200586963
 31
0.0
  0
LINE
  5
1759
330
16E7
100
AcDbEntity
  8
0
 62
     0
100
AcDbLine
 10
36.05697377196463
 20
15.17825479013515
 30
0.0
 11
33.91853613445079
 21
17.316692427649
 31
0.0
  0
LINE
  5
175A
330
16E7
100
AcDbEntity
  8
0
 62
     0
100
AcDbLine
 10
32.6422121683371
 20
18.59301639376269
 30
0.0
 11
29.84221216833703
 21
21.39301639376276
 31
0.0
  0
LINE
  5
175B
330
16E7
100
AcDbEntity
  8
0
 62
     0
100
AcDbLine
 10
43.492212168337
 20
7.743016393762729
 30
0.0
 11
40.69221216833705
 21
10.54301639376274
 31
0.0
  0
LINE
  5
175C
330
16E7
100
AcDbEntity
  8
0
 62
     0
100
AcDbLine
 10
36.47144713139863
 20
13.86575581859421
 30
0.0
 11
33.62798863876617
 21
16.70921431122667
 31
0.0
  0
LINE
  5
175D
330
16E7
100
AcDbEntity
  8
0
 62
     0
100
AcDbLine
 10
32.64221216833715
 20
17.69499078165569
 30
0.0
 11
29.84221216833697
 21
20.49499078165581
 31
0.0
  0
LINE
  5
175E
330
16E7
100
AcDbEntity
  8
0
 62
     0
100
AcDbLine
 10
43.15316717100467
 20
7.184035778988118
 30
0.0
 11
40.6922121683371
 21
9.644990781655735
 31
0.0
  0
LINE
  5
175F
330
16E7
100
AcDbEntity
  8
0
 62
     0
100
AcDbLine
 10
36.88592049083269
 20
12.55325684705332
 30
0.0
 11
29.84221216833703
 21
19.59696516954898
 31
0.0
  0
LINE
  5
1760
330
16E7
100
AcDbEntity
  8
0
 62
     0
100
AcDbLine
 10
27.39221216833715
 20
22.04696516954886
 30
0.0
 11
26.18917746959738
 21
23.24999986828863
 31
0.0
  0
LINE
  5
1761
330
16E7
100
AcDbEntity
  8
0
 62
     0
100
AcDbLine
 10
42.28917746959734
 20
7.149999868288659
 30
0.0
 11
40.69221216833716
 21
8.746965169548843
 31
0.0
  0
LINE
  5
1762
330
16E7
100
AcDbEntity
  8
0
 62
     0
100
AcDbLine
 10
37.30039385026657
 20
11.24075787551243
 30
0.0
 11
29.84221216833703
 21
18.69893955744203
 31
0.0
  0
LINE
  5
1763
330
16E7
100
AcDbEntity
  8
0
 62
     0
100
AcDbLine
 10
27.39221216833715
 20
21.14893955744191
 30
0.0
 11
25.29115185749038
 21
23.24999986828868
 31
0.0
  0
LINE
  5
1764
330
16E7
100
AcDbEntity
  8
0
 62
     0
100
AcDbLine
 10
41.39115185749034
 20
7.149999868288716
 30
0.0
 11
40.6922121683371
 21
7.848939557441951
 31
0.0
  0
LINE
  5
1765
330
16E7
100
AcDbEntity
  8
0
 62
     0
100
AcDbLine
 10
27.12530547294705
 20
20.51782064072506
 30
0.0
 11
24.42508375473563
 21
23.21804235893643
 31
0.0
  0
LINE
  5
1766
330
16E7
100
AcDbEntity
  8
0
 62
     0
100
AcDbLine
 10
37.71486720970051
 20
9.928258903971595
 30
0.0
 11
29.84221216833709
 21
17.80091394533502
 31
0.0
  0
LINE
  5
1767
330
16E7
100
AcDbEntity
  8
0
 62
     0
100
AcDbLine
 10
32.97972109067871
 20
13.76537941088651
 30
0.0
 11
29.84221216833709
 21
16.90288833322813
 31
0.0
  0
LINE
  5
1768
330
16E7
100
AcDbEntity
  8
0
 62
     0
100
AcDbLine
 10
26.29510063327661
 20
20.44999986828856
 30
0.0
 11
23.68704068514836
 21
23.05805981641686
 31
0.0
  0
LINE
  5
1769
330
16E7
100
AcDbEntity
  8
0
 62
     0
100
AcDbLine
 10
38.12934056913451
 20
8.615759932430705
 30
0.0
 11
34.03703287682663
 21
12.70806762473853
 31
0.0
  0
LINE
  5
176A
330
16E7
100
AcDbEntity
  8
0
 62
     0
100
AcDbLine
 10
32.64221216833715
 20
13.20486272112117
 30
0.0
 11
29.84221216833709
 21
16.00486272112124
 31
0.0
  0
LINE
  5
176B
330
16E7
100
AcDbEntity
  8
0
 62
     0
100
AcDbLine
 10
25.3970750211696
 20
20.44999986828867
 30
0.0
 11
23.04831926931763
 21
22.79875562014064
 31
0.0
  0
LINE
  5
176C
330
16E7
100
AcDbEntity
  8
0
 62
     0
100
AcDbLine
 10
38.36437942684512
 20
7.48269546261315
 30
0.0
 11
34.45150623626057
 21
11.39556865319775
 31
0.0
  0
LINE
  5
176D
330
16E7
100
AcDbEntity
  8
0
 62
     0
100
AcDbLine
 10
32.6422121683371
 20
12.30683710901428
 30
0.0
 11
29.84221216833703
 21
15.10683710901429
 31
0.0
  0
LINE
  5
176E
330
16E7
100
AcDbEntity
  8
0
 62
     0
100
AcDbLine
 10
24.55396151862607
 20
20.39508775872531
 30
0.0
 11
22.48957029398309
 21
22.45947898336829
 31
0.0
  0
LINE
  5
176F
330
16E7
100
AcDbEntity
  8
0
 62
     0
100
AcDbLine
 10
37.79904940906277
 20
7.149999868288603
 30
0.0
 11
34.86597959569451
 21
10.08306968165686
 31
0.0
  0
LINE
  5
1770
330
16E7
100
AcDbEntity
  8
0
 62
     0
100
AcDbLine
 10
32.6422121683371
 20
11.40881149690733
 30
0.0
 11
29.84221216833703
 21
14.2088114969074
 31
0.0
  0
LINE
  5
1771
330
16E7
100
AcDbEntity
  8
0
 62
     0
100
AcDbLine
 10
23.98210532578707
 20
20.06891833945736
 30
0.0
 11
22.00191508537131
 21
22.04910857987312
 31
0.0
  0
LINE
  5
1772
330
16E7
100
AcDbEntity
  8
0
 62
     0
100
AcDbLine
 10
36.90102379695583
 20
7.149999868288603
 30
0.0
 11
35.28045295512857
 21
8.770570710115862
 31
0.0
  0
LINE
  5
1773
330
16E7
100
AcDbEntity
  8
0
 62
     0
100
AcDbLine
 10
27.72764130113484
 20
15.42535675200275
 30
0.0
 11
26.21756905205109
 21
16.9354290010865
 31
0.0
  0
LINE
  5
1774
330
16E7
100
AcDbEntity
  8
0
 62
     0
100
AcDbLine
 10
32.64221216833721
 20
10.51078588480038
 30
0.0
 11
29.84221216833709
 21
13.31078588480051
 31
0.0
  0
LINE
  5
1775
330
16E7
100
AcDbEntity
  8
0
 62
     0
100
AcDbLine
 10
23.62598375565813
 20
19.52701429747946
 30
0.0
 11
21.58254905936008
 21
21.57044899377752
 31
0.0
  0
LINE
  5
1776
330
16E7
100
AcDbEntity
  8
0
 62
     0
100
AcDbLine
 10
35.95266518064432
 20
7.200332872493277
 30
0.0
 11
35.70231100905301
 21
7.450687044084588
 31
0.0
  0
LINE
  5
1777
330
16E7
100
AcDbEntity
  8
0
 62
     0
100
AcDbLine
 10
27.64112764099292
 20
14.61384480003772
 30
0.0
 11
25.40605710008606
 21
16.84891534094458
 31
0.0
  0
LINE
  5
1778
330
16E7
100
AcDbEntity
  8
0
 62
     0
100
AcDbLine
 10
23.54221216833719
 20
18.71276027269346
 30
0.0
 11
21.23361003839841
 21
21.02136240263224
 31
0.0
  0
LINE
  5
1779
330
16E7
100
AcDbEntity
  8
0
 62
     0
100
AcDbLine
 10
32.64221216833715
 20
9.612760272693435
 30
0.0
 11
29.84221216833703
 21
12.41276027269362
 31
0.0
  0
LINE
  5
177A
330
16E7
100
AcDbEntity
  8
0
 62
     0
100
AcDbLine
 10
27.30927208169487
 20
14.04767474722877
 30
0.0
 11
24.8398870472771
 21
16.51705978164654
 31
0.0
  0
LINE
  5
177B
330
16E7
100
AcDbEntity
  8
0
 62
     0
100
AcDbLine
 10
23.54221216833719
 20
17.81473466058651
 30
0.0
 11
20.96303033118823
 21
20.39391649773546
 31
0.0
  0
LINE
  5
177C
330
16E7
100
AcDbEntity
  8
0
 62
     0
100
AcDbLine
 10
32.64221216833715
 20
8.714734660586543
 30
0.0
 11
29.84221216833709
 21
11.51473466058661
 31
0.0
  0
LINE
  5
177D
330
16E7
100
AcDbEntity
  8
0
 62
     0
100
AcDbLine
 10
23.54221216833719
 20
16.91670904847962
 30
0.0
 11
20.78831645826239
 21
19.67060475855447
 31
0.0
  0
LINE
  5
177E
330
16E7
100
AcDbEntity
  8
0
 62
     0
100
AcDbLine
 10
26.80743863955843
 20
13.65148257725843
 30
0.0
 11
24.44369487730677
 21
16.01522633951009
 31
0.0
  0
LINE
  5
177F
330
16E7
100
AcDbEntity
  8
0
 62
     0
100
AcDbLine
 10
18.11721216833712
 20
22.34170904847974
 30
0.0
 11
17.20892134852812
 21
23.24999986828874
 31
0.0
  0
LINE
  5
1780
330
16E7
100
AcDbEntity
  8
0
 62
     0
100
AcDbLine
 10
32.64221216833721
 20
7.816709048479651
 30
0.0
 11
29.84221216833714
 21
10.61670904847972
 31
0.0
  0
LINE
  5
1781
330
16E7
100
AcDbEntity
  8
0
 62
     0
100
AcDbLine
 10
23.54221216833719
 20
16.01868343637272
 30
0.0
 11
20.74221216833712
 21
18.81868343637279
 31
0.0
  0
LINE
  5
1782
330
16E7
100
AcDbEntity
  8
0
 62
     0
100
AcDbLine
 10
26.107119197131
 20
13.45377640757891
 30
0.0
 11
24.24598870762725
 21
15.31490689708266
 31
0.0
  0
LINE
  5
1783
330
16E7
100
AcDbEntity
  8
0
 62
     0
100
AcDbLine
 10
18.11721216833706
 20
21.4436834363728
 30
0.0
 11
16.31089573642117
 21
23.24999986828868
 31
0.0
  0
LINE
  5
1784
330
16E7
100
AcDbEntity
  8
0
 62
     0
100
AcDbLine
 10
32.3543083670665
 20
7.206587237643418
 30
0.0
 11
29.84221216833709
 21
9.718683436372771
 31
0.0
  0
LINE
  5
1785
330
16E7
100
AcDbEntity
  8
0
 62
     0
100
AcDbLine
 10
23.54221216833719
 20
15.12065782426577
 30
0.0
 11
20.74221216833712
 21
17.92065782426584
 31
0.0
  0
LINE
  5
1786
330
16E7
100
AcDbEntity
  8
0
 62
     0
100
AcDbLine
 10
18.00817819806673
 20
20.65469179453623
 30
0.0
 11
15.41287012431417
 21
23.24999986828874
 31
0.0
  0
LINE
  5
1787
330
16E7
100
AcDbEntity
  8
0
 62
     0
100
AcDbLine
 10
31.5128701243143
 20
7.149999868288659
 30
0.0
 11
29.84221216833709
 21
8.820657824265879
 31
0.0
  0
LINE
  5
1788
330
16E7
100
AcDbEntity
  8
0
 62
     0
100
AcDbLine
 10
23.54221216833713
 20
14.22263221215888
 30
0.0
 11
20.74221216833706
 21
17.02263221215889
 31
0.0
  0
LINE
  5
1789
330
16E7
100
AcDbEntity
  8
0
 62
     0
100
AcDbLine
 10
17.31484451220734
 20
20.44999986828867
 30
0.0
 11
14.51484451220727
 21
23.24999986828874
 31
0.0
  0
LINE
  5
178A
330
16E7
100
AcDbEntity
  8
0
 62
     0
100
AcDbLine
 10
30.61484451220735
 20
7.149999868288603
 30
0.0
 11
29.84221216833709
 21
7.92263221215893
 31
0.0
  0
LINE
  5
178B
330
16E7
100
AcDbEntity
  8
0
 62
     0
100
AcDbLine
 10
23.54221216833725
 20
13.32460660005194
 30
0.0
 11
20.74221216833712
 21
16.12460660005206
 31
0.0
  0
LINE
  5
178C
330
16E7
100
AcDbEntity
  8
0
 62
     0
100
AcDbLine
 10
16.41681890010045
 20
20.44999986828873
 30
0.0
 11
13.65168962799561
 21
23.21512914039357
 31
0.0
  0
LINE
  5
178D
330
16E7
100
AcDbEntity
  8
0
 62
     0
100
AcDbLine
 10
27.38960971950019
 20
9.477209048888937
 30
0.0
 11
26.91942134893748
 21
9.947397419451704
 31
0.0
  0
LINE
  5
178E
330
16E7
100
AcDbEntity
  8
0
 62
     0
100
AcDbLine
 10
23.54221216833725
 20
12.42658098794499
 30
0.0
 11
20.74221216833712
 21
15.22658098794511
 31
0.0
  0
LINE
  5
178F
330
16E7
100
AcDbEntity
  8
0
 62
     0
100
AcDbLine
 10
15.5187932879935
 20
20.44999986828867
 30
0.0
 11
12.95855481951713
 21
23.0102383367651
 31
0.0
  0
LINE
  5
1790
330
16E7
100
AcDbEntity
  8
0
 62
     0
100
AcDbLine
 10
27.39221216833721
 20
8.576580987945021
 30
0.0
 11
26.01879328799356
 21
9.949999868288671
 31
0.0
  0
LINE
  5
1791
330
16E7
100
AcDbEntity
  8
0
 62
     0
100
AcDbLine
 10
23.54221216833719
 20
11.52855537583804
 30
0.0
 11
20.74221216833718
 21
14.32855537583811
 31
0.0
  0
LINE
  5
1792
330
16E7
100
AcDbEntity
  8
0
 62
     0
100
AcDbLine
 10
14.62076767588667
 20
20.44999986828856
 30
0.0
 11
12.39430815966989
 21
22.67645938450534
 31
0.0
  0
LINE
  5
1793
330
16E7
100
AcDbEntity
  8
0
 62
     0
100
AcDbLine
 10
27.39221216833715
 20
7.678555375838072
 30
0.0
 11
25.12076767588667
 21
9.949999868288557
 31
0.0
  0
LINE
  5
1794
330
16E7
100
AcDbEntity
  8
0
 62
     0
100
AcDbLine
 10
14.11047484827207
 20
20.06226708379637
 30
0.0
 11
11.93621534742914
 21
22.23652658463931
 31
0.0
  0
LINE
  5
1795
330
16E7
100
AcDbEntity
  8
0
 62
     0
100
AcDbLine
 10
27.0044793838448
 20
7.168262548223651
 30
0.0
 11
20.74221216833718
 21
13.43052976373127
 31
0.0
  0
LINE
  5
1796
330
16E7
100
AcDbEntity
  8
0
 62
     0
100
AcDbLine
 10
14.09221216833714
 20
19.18250415162436
 30
0.0
 11
11.58273414496005
 21
21.69198217500144
 31
0.0
  0
LINE
  5
1797
330
16E7
100
AcDbEntity
  8
0
 62
     0
100
AcDbLine
 10
26.1247164516729
 20
7.149999868288603
 30
0.0
 11
20.74221216833718
 21
12.53250415162432
 31
0.0
  0
LINE
  5
1798
330
16E7
100
AcDbEntity
  8
0
 62
     0
100
AcDbLine
 10
14.15434787647257
 20
18.22234283138192
 30
0.0
 11
11.35185404266633
 21
21.02483666518822
 31
0.0
  0
LINE
  5
1799
330
16E7
100
AcDbEntity
  8
0
 62
     0
100
AcDbLine
 10
25.22669083956589
 20
7.149999868288659
 30
0.0
 11
20.74221216833712
 21
11.63447853951737
 31
0.0
  0
LINE
  5
179A
330
16E7
100
AcDbEntity
  8
0
 62
     0
100
AcDbLine
 10
18.4465882595598
 20
13.03207683618785
 30
0.0
 11
11.29221216833719
 21
20.18645292741047
 31
0.0
  0
LINE
  5
179B
330
16E7
100
AcDbEntity
  8
0
 62
     0
100
AcDbLine
 10
24.27539314040235
 20
7.203271955345314
 30
0.0
 11
20.79548425539377
 21
10.68318084035388
 31
0.0
  0
LINE
  5
179C
330
16E7
100
AcDbEntity
  8
0
 62
     0
100
AcDbLine
 10
18.63848277364502
 20
11.94215670999574
 30
0.0
 11
11.29221216833707
 21
19.28842731530369
 31
0.0
  0
LINE
  5
179D
330
16E7
100
AcDbEntity
  8
0
 62
     0
100
AcDbLine
 10
22.90158522780075
 20
7.679054255839957
 30
0.0
 11
21.27126655588836
 21
9.309372927752406
 31
0.0
  0
LINE
  5
179E
330
16E7
100
AcDbEntity
  8
0
 62
     0
100
AcDbLine
 10
18.64221216833721
 20
11.0404017031966
 30
0.0
 11
11.29977661575947
 21
18.38283725577429
 31
0.0
  0
LINE
  5
179F
330
16E7
100
AcDbEntity
  8
0
 62
     0
100
AcDbLine
 10
18.64221216833709
 20
10.14237609108977
 30
0.0
 11
11.52306737408332
 21
17.26152088534348
 31
0.0
  0
LINE
  5
17A0
330
16E7
100
AcDbEntity
  8
0
 62
     0
100
AcDbLine
 10
18.56969217220518
 20
9.316870475114853
 30
0.0
 11
15.80630052858612
 21
12.08026211873391
 31
0.0
  0
LINE
  5
17A1
330
16E7
100
AcDbEntity
  8
0
 62
     0
100
AcDbLine
 10
18.32775423317633
 20
8.660782802036749
 30
0.0
 11
15.84221216833708
 21
11.146324866876
 31
0.0
  0
LINE
  5
17A2
330
16E7
100
AcDbEntity
  8
0
 62
     0
100
AcDbLine
 10
17.96563498579456
 20
8.12487643731157
 30
0.0
 11
15.80631313603641
 21
10.28419828706973
 31
0.0
  0
LINE
  5
17A3
330
16E7
100
AcDbEntity
  8
0
 62
     0
100
AcDbLine
 10
17.49940861352769
 20
7.693077197471552
 30
0.0
 11
15.24248594271057
 21
9.949999868288728
 31
0.0
  0
LINE
  5
17A4
330
16E7
100
AcDbEntity
  8
0
 62
     0
100
AcDbLine
 10
16.92614416579488
 20
7.368316033097471
 30
0.0
 11
14.34446033060362
 21
9.949999868288671
 31
0.0
  0
LINE
  5
17A5
330
16E7
100
AcDbEntity
  8
0
 62
     0
100
AcDbLine
 10
16.22073157670894
 20
7.17570301007646
 30
0.0
 11
13.44643471849673
 21
9.949999868288671
 31
0.0
  0
LINE
  5
17A6
330
16E7
100
AcDbEntity
  8
0
 62
     0
100
AcDbLine
 10
15.34840910638979
 20
7.149999868288659
 30
0.0
 11
12.54840910638978
 21
9.949999868288671
 31
0.0
  0
LINE
  5
17A7
330
16E7
100
AcDbEntity
  8
0
 62
     0
100
AcDbLine
 10
14.45038349428296
 20
7.149999868288603
 30
0.0
 11
11.89705959946508
 21
9.703323763106538
 31
0.0
  0
LINE
  5
17A8
330
16E7
100
AcDbEntity
  8
0
 62
     0
100
AcDbLine
 10
13.55235788217595
 20
7.149999868288659
 30
0.0
 11
11.81721216833716
 21
8.885145582127449
 31
0.0
  0
LINE
  5
17A9
330
16E7
100
AcDbEntity
  8
0
 62
     0
100
AcDbLine
 10
12.65433227006912
 20
7.149999868288603
 30
0.0
 11
11.81721216833716
 21
7.987119970020557
 31
0.0
  0
LINE
  5
17AA
330
16E7
100
AcDbEntity
  8
0
 62
     0
100
AcDbLine
 10
68.63389945300406
 20
7.163131645406167
 30
0.0
 11
69.02908039121985
 21
7.558312583621955
 31
0.0
  0
LINE
  5
17AB
330
16E7
100
AcDbEntity
  8
0
 62
     0
100
AcDbLine
 10
67.72274206377961
 20
7.149999868288546
 30
0.0
 11
69.0422121683373
 21
8.469469972846241
 31
0.0
  0
LINE
  5
17AC
330
16E7
100
AcDbEntity
  8
0
 62
     0
100
AcDbLine
 10
66.82471645167272
 20
7.149999868288546
 30
0.0
 11
69.0422121683373
 21
9.367495584953132
 31
0.0
  0
LINE
  5
17AD
330
16E7
100
AcDbEntity
  8
0
 62
     0
100
AcDbLine
 10
66.27340973158897
 20
7.49671876031175
 30
0.0
 11
69.04221216833724
 21
10.26552119706008
 31
0.0
  0
LINE
  5
17AE
330
16E7
100
AcDbEntity
  8
0
 62
     0
100
AcDbLine
 10
66.24221216833717
 20
8.363546809166905
 30
0.0
 11
69.04221216833724
 21
11.16354680916691
 31
0.0
  0
LINE
  5
17AF
330
16E7
100
AcDbEntity
  8
0
 62
     0
100
AcDbLine
 10
66.24221216833723
 20
9.261572421273797
 30
0.0
 11
69.04221216833724
 21
12.06157242127386
 31
0.0
  0
LINE
  5
17B0
330
16E7
100
AcDbEntity
  8
0
 62
     0
100
AcDbLine
 10
66.24221216833717
 20
10.15959803338074
 30
0.0
 11
69.04221216833724
 21
12.95959803338081
 31
0.0
  0
LINE
  5
17B1
330
16E7
100
AcDbEntity
  8
0
 62
     0
100
AcDbLine
 10
66.24221216833717
 20
11.05762364548763
 30
0.0
 11
69.04221216833724
 21
13.8576236454877
 31
0.0
  0
LINE
  5
17B2
330
16E7
100
AcDbEntity
  8
0
 62
     0
100
AcDbLine
 10
62.66877703040245
 20
7.484188507552914
 30
0.0
 11
63.80802352907301
 21
8.62343500622353
 31
0.0
  0
LINE
  5
17B3
330
16E7
100
AcDbEntity
  8
0
 62
     0
100
AcDbLine
 10
66.24221216833717
 20
11.95564925759453
 30
0.0
 11
69.04221216833724
 21
14.7556492575946
 31
0.0
  0
LINE
  5
17B4
330
16E7
100
AcDbEntity
  8
0
 62
     0
100
AcDbLine
 10
61.43820886387965
 20
7.151645953137006
 30
0.0
 11
64.14056608348897
 21
9.854003172746274
 31
0.0
  0
LINE
  5
17B5
330
16E7
100
AcDbEntity
  8
0
 62
     0
100
AcDbLine
 10
66.24221216833717
 20
12.85367486970148
 30
0.0
 11
69.04221216833724
 21
15.65367486970149
 31
0.0
  0
LINE
  5
17B6
330
16E7
100
AcDbEntity
  8
0
 62
     0
100
AcDbLine
 10
60.53853716692424
 20
7.149999868288546
 30
0.0
 11
64.14221216833727
 21
10.75367486970151
 31
0.0
  0
LINE
  5
17B7
330
16E7
100
AcDbEntity
  8
0
 62
     0
100
AcDbLine
 10
66.24221216833717
 20
13.75170048180837
 30
0.0
 11
69.04221216833718
 21
16.55170048180844
 31
0.0
  0
LINE
  5
17B8
330
16E7
100
AcDbEntity
  8
0
 62
     0
100
AcDbLine
 10
59.64051155481735
 20
7.149999868288546
 30
0.0
 11
64.14221216833721
 21
11.65170048180846
 31
0.0
  0
LINE
  5
17B9
330
16E7
100
AcDbEntity
  8
0
 62
     0
100
AcDbLine
 10
66.24221216833729
 20
14.64972609391532
 30
0.0
 11
69.04221216833724
 21
17.44972609391533
 31
0.0
  0
LINE
  5
17BA
330
16E7
100
AcDbEntity
  8
0
 62
     0
100
AcDbLine
 10
58.74248594271051
 20
7.149999868288603
 30
0.0
 11
64.14221216833727
 21
12.54972609391535
 31
0.0
  0
LINE
  5
17BB
330
16E7
100
AcDbEntity
  8
0
 62
     0
100
AcDbLine
 10
61.23762096625615
 20
10.54316050394118
 30
0.0
 11
64.14221216833727
 21
13.44775170602224
 31
0.0
  0
LINE
  5
17BC
330
16E7
100
AcDbEntity
  8
0
 62
     0
100
AcDbLine
 10
66.24221216833723
 20
15.54775170602226
 30
0.0
 11
69.04221216833724
 21
18.34775170602222
 31
0.0
  0
LINE
  5
17BD
330
16E7
100
AcDbEntity
  8
0
 62
     0
100
AcDbLine
 10
57.84446033060351
 20
7.149999868288546
 30
0.0
 11
60.74905153268463
 21
10.05459107036961
 31
0.0
  0
LINE
  5
17BE
330
16E7
100
AcDbEntity
  8
0
 62
     0
100
AcDbLine
 10
61.34221216833714
 20
11.54577731812912
 30
0.0
 11
64.14221216833721
 21
14.34577731812919
 31
0.0
  0
LINE
  5
17BF
330
16E7
100
AcDbEntity
  8
0
 62
     0
100
AcDbLine
 10
66.24221216833723
 20
16.44577731812916
 30
0.0
 11
69.04221216833718
 21
19.24577731812917
 31
0.0
  0
LINE
  5
17C0
330
16E7
100
AcDbEntity
  8
0
 62
     0
100
AcDbLine
 10
57.05838446987383
 20
7.261949619665756
 30
0.0
 11
59.74643471849669
 21
9.949999868288614
 31
0.0
  0
LINE
  5
17C1
330
16E7
100
AcDbEntity
  8
0
 62
     0
100
AcDbLine
 10
61.3422121683372
 20
12.44380293023613
 30
0.0
 11
64.14221216833721
 21
15.24380293023608
 31
0.0
  0
LINE
  5
17C2
330
16E7
100
AcDbEntity
  8
0
 62
     0
100
AcDbLine
 10
66.24221216833717
 20
17.34380293023611
 30
0.0
 11
69.04221216833718
 21
20.14380293023606
 31
0.0
  0
LINE
  5
17C3
330
16E7
100
AcDbEntity
  8
0
 62
     0
100
AcDbLine
 10
56.43039760266367
 20
7.531988364562607
 30
0.0
 11
58.84928689203412
 21
9.950877653933048
 31
0.0
  0
LINE
  5
17C4
330
16E7
100
AcDbEntity
  8
0
 62
     0
100
AcDbLine
 10
61.34221216833726
 20
13.34182854234302
 30
0.0
 11
64.14221216833721
 21
16.14182854234298
 31
0.0
  0
LINE
  5
17C5
330
16E7
100
AcDbEntity
  8
0
 62
     0
100
AcDbLine
 10
66.24221216833723
 20
18.241828542343
 30
0.0
 11
69.04221216833718
 21
21.04182854234295
 31
0.0
  0
LINE
  5
17C6
330
16E7
100
AcDbEntity
  8
0
 62
     0
100
AcDbLine
 10
55.91713772129861
 20
7.916754095304327
 30
0.0
 11
58.20580830332142
 21
10.20542467732719
 31
0.0
  0
LINE
  5
17C7
330
16E7
100
AcDbEntity
  8
0
 62
     0
100
AcDbLine
 10
61.34221216833726
 20
14.23985415444991
 30
0.0
 11
64.14221216833721
 21
17.03985415444992
 31
0.0
  0
LINE
  5
17C8
330
16E7
100
AcDbEntity
  8
0
 62
     0
100
AcDbLine
 10
66.24221216833723
 20
19.13985415444989
 30
0.0
 11
69.04221216833718
 21
21.9398541544499
 31
0.0
  0
LINE
  5
17C9
330
16E7
100
AcDbEntity
  8
0
 62
     0
100
AcDbLine
 10
55.50717354607349
 20
8.404815532186148
 30
0.0
 11
57.868570024912
 21
10.76621201102472
 31
0.0
  0
LINE
  5
17CA
330
16E7
100
AcDbEntity
  8
0
 62
     0
100
AcDbLine
 10
61.3422121683372
 20
15.13787976655686
 30
0.0
 11
64.14221216833727
 21
17.93787976655693
 31
0.0
  0
LINE
  5
17CB
330
16E7
100
AcDbEntity
  8
0
 62
     0
100
AcDbLine
 10
66.24221216833717
 20
20.03787976655684
 30
0.0
 11
69.03206301478673
 21
22.82773061300639
 31
0.0
  0
LINE
  5
17CC
330
16E7
100
AcDbEntity
  8
0
 62
     0
100
AcDbLine
 10
55.20724866763948
 20
9.002916265859141
 30
0.0
 11
57.8422121683372
 21
11.6378797665568
 31
0.0
  0
LINE
  5
17CD
330
16E7
100
AcDbEntity
  8
0
 62
     0
100
AcDbLine
 10
61.34221216833726
 20
16.0359053786637
 30
0.0
 11
64.14221216833732
 21
18.83590537866377
 31
0.0
  0
LINE
  5
17CE
330
16E7
100
AcDbEntity
  8
0
 62
     0
100
AcDbLine
 10
66.24221216833729
 20
20.93590537866379
 30
0.0
 11
68.55494866970724
 21
23.24864188003374
 31
0.0
  0
LINE
  5
17CF
330
16E7
100
AcDbEntity
  8
0
 62
     0
100
AcDbLine
 10
55.04983513268303
 20
9.743528343009529
 30
0.0
 11
57.8422121683372
 21
12.5359053786637
 31
0.0
  0
LINE
  5
17D0
330
16E7
100
AcDbEntity
  8
0
 62
     0
100
AcDbLine
 10
61.3422121683372
 20
16.93393099077065
 30
0.0
 11
64.14221216833727
 21
19.73393099077071
 31
0.0
  0
LINE
  5
17D1
330
16E7
100
AcDbEntity
  8
0
 62
     0
100
AcDbLine
 10
66.24221216833729
 20
21.83393099077068
 30
0.0
 11
67.65828104585517
 21
23.24999986828863
 31
0.0
  0
LINE
  5
17D2
330
16E7
100
AcDbEntity
  8
0
 62
     0
100
AcDbLine
 10
55.04221216833724
 20
10.63393099077063
 30
0.0
 11
57.84221216833725
 21
13.4339309907707
 31
0.0
  0
LINE
  5
17D3
330
16E7
100
AcDbEntity
  8
0
 62
     0
100
AcDbLine
 10
61.3422121683372
 20
17.83195660287759
 30
0.0
 11
64.14221216833727
 21
20.63195660287761
 31
0.0
  0
LINE
  5
17D4
330
16E7
100
AcDbEntity
  8
0
 62
     0
100
AcDbLine
 10
55.04221216833719
 20
11.53195660287758
 30
0.0
 11
57.84221216833725
 21
14.33195660287765
 31
0.0
  0
LINE
  5
17D5
330
16E7
100
AcDbEntity
  8
0
 62
     0
100
AcDbLine
 10
66.24225888308462
 20
22.73200331762502
 30
0.0
 11
66.7602087190009
 21
23.24995315354124
 31
0.0
  0
LINE
  5
17D6
330
16E7
100
AcDbEntity
  8
0
 62
     0
100
AcDbLine
 10
50.72065653762519
 20
7.21040097216553
 30
0.0
 11
52.88181106446035
 21
9.371555499000749
 31
0.0
  0
LINE
  5
17D7
330
16E7
100
AcDbEntity
  8
0
 62
     0
100
AcDbLine
 10
55.04221216833719
 20
12.42998221498448
 30
0.0
 11
57.84221216833725
 21
15.22998221498454
 31
0.0
  0
LINE
  5
17D8
330
16E7
100
AcDbEntity
  8
0
 62
     0
100
AcDbLine
 10
61.3422121683372
 20
18.72998221498449
 30
0.0
 11
64.14221216833721
 21
21.52998221498456
 31
0.0
  0
LINE
  5
17D9
330
16E7
100
AcDbEntity
  8
0
 62
     0
100
AcDbLine
 10
49.76222982164131
 20
7.149999868288659
 30
0.0
 11
52.94221216833716
 21
10.32998221498451
 31
0.0
  0
LINE
  5
17DA
330
16E7
100
AcDbEntity
  8
0
 62
     0
100
AcDbLine
 10
55.04221216833719
 20
13.32800782709137
 30
0.0
 11
57.84221216833725
 21
16.12800782709143
 31
0.0
  0
LINE
  5
17DB
330
16E7
100
AcDbEntity
  8
0
 62
     0
100
AcDbLine
 10
61.3422121683372
 20
19.62800782709138
 30
0.0
 11
64.14221216833727
 21
22.42800782709145
 31
0.0
  0
LINE
  5
17DC
330
16E7
100
AcDbEntity
  8
0
 62
     0
100
AcDbLine
 10
48.86420420953442
 20
7.149999868288603
 30
0.0
 11
52.94221216833722
 21
11.22800782709134
 31
0.0
  0
LINE
  5
17DD
330
16E7
100
AcDbEntity
  8
0
 62
     0
100
AcDbLine
 10
55.04221216833719
 20
14.22603343919831
 30
0.0
 11
57.84221216833725
 21
17.02603343919833
 31
0.0
  0
LINE
  5
17DE
330
16E7
100
AcDbEntity
  8
0
 62
     0
100
AcDbLine
 10
61.3422121683372
 20
20.52603343919827
 30
0.0
 11
63.94847471350312
 21
23.13229598436425
 31
0.0
  0
LINE
  5
17DF
330
16E7
100
AcDbEntity
  8
0
 62
     0
100
AcDbLine
 10
47.96617859742752
 20
7.149999868288659
 30
0.0
 11
52.92789356792423
 21
12.11171483878536
 31
0.0
  0
LINE
  5
17E0
330
16E7
100
AcDbEntity
  8
0
 62
     0
100
AcDbLine
 10
55.04221216833724
 20
15.12405905130532
 30
0.0
 11
57.8422121683372
 21
17.92405905130528
 31
0.0
  0
LINE
  5
17E1
330
16E7
100
AcDbEntity
  8
0
 62
     0
100
AcDbLine
 10
61.34221216833714
 20
21.42405905130522
 30
0.0
 11
63.1681529853206
 21
23.24999986828868
 31
0.0
  0
LINE
  5
17E2
330
16E7
100
AcDbEntity
  8
0
 62
     0
100
AcDbLine
 10
47.06815298532058
 20
7.149999868288659
 30
0.0
 11
52.79298119729549
 21
12.87482808026351
 31
0.0
  0
LINE
  5
17E3
330
16E7
100
AcDbEntity
  8
0
 62
     0
100
AcDbLine
 10
55.0422121683373
 20
16.02208466341216
 30
0.0
 11
57.84221216833725
 21
18.82208466341217
 31
0.0
  0
LINE
  5
17E4
330
16E7
100
AcDbEntity
  8
0
 62
     0
100
AcDbLine
 10
50.14221216833732
 20
11.12208466341218
 30
0.0
 11
52.55239374037694
 21
13.5322662354518
 31
0.0
  0
LINE
  5
17E5
330
16E7
100
AcDbEntity
  8
0
 62
     0
100
AcDbLine
 10
61.3422121683372
 20
22.32208466341211
 30
0.0
 11
62.27012737321377
 21
23.24999986828868
 31
0.0
  0
LINE
  5
17E6
330
16E7
100
AcDbEntity
  8
0
 62
     0
100
AcDbLine
 10
46.29838272634481
 20
7.278255221419726
 30
0.0
 11
48.9701273732137
 21
9.949999868288614
 31
0.0
  0
LINE
  5
17E7
330
16E7
100
AcDbEntity
  8
0
 62
     0
100
AcDbLine
 10
50.12234159320991
 20
12.00023970039171
 30
0.0
 11
52.2288944355164
 21
14.1067925426982
 31
0.0
  0
LINE
  5
17E8
330
16E7
100
AcDbEntity
  8
0
 62
     0
100
AcDbLine
 10
55.04221216833724
 20
16.92011027551911
 30
0.0
 11
57.8422121683372
 21
19.72011027551906
 31
0.0
  0
LINE
  5
17E9
330
16E7
100
AcDbEntity
  8
0
 62
     0
100
AcDbLine
 10
46.11721216833723
 20
7.995110275519039
 30
0.0
 11
48.07210176110675
 21
9.949999868288614
 31
0.0
  0
LINE
  5
17EA
330
16E7
100
AcDbEntity
  8
0
 62
     0
100
AcDbLine
 10
49.84795675607102
 20
12.62388047535984
 30
0.0
 11
51.83302331758858
 21
14.60894703687739
 31
0.0
  0
LINE
  5
17EB
330
16E7
100
AcDbEntity
  8
0
 62
     0
100
AcDbLine
 10
55.04221216833724
 20
17.818135887626
 30
0.0
 11
57.8422121683372
 21
20.61813588762601
 31
0.0
  0
LINE
  5
17EC
330
16E7
100
AcDbEntity
  8
0
 62
     0
100
AcDbLine
 10
46.11721216833717
 20
8.893135887625987
 30
0.0
 11
47.17407614899985
 21
9.949999868288671
 31
0.0
  0
LINE
  5
17ED
330
16E7
100
AcDbEntity
  8
0
 62
     0
100
AcDbLine
 10
55.04221216833724
 20
18.71616149973289
 30
0.0
 11
57.84221216833725
 21
21.51616149973285
 31
0.0
  0
LINE
  5
17EE
330
16E7
100
AcDbEntity
  8
0
 62
     0
100
AcDbLine
 10
49.40668185895396
 20
13.08063119034955
 30
0.0
 11
51.38658084627627
 21
15.06053017767186
 31
0.0
  0
LINE
  5
17EF
330
16E7
100
AcDbEntity
  8
0
 62
     0
100
AcDbLine
 10
48.95766905290049
 20
13.52964399640302
 30
0.0
 11
50.93756804022286
 21
15.50954298372545
 31
0.0
  0
LINE
  5
17F0
330
16E7
100
AcDbEntity
  8
0
 62
     0
100
AcDbLine
 10
55.04221216833724
 20
19.61418711183984
 30
0.0
 11
57.8422121683372
 21
22.4141871118398
 31
0.0
  0
LINE
  5
17F1
330
16E7
100
AcDbEntity
  8
0
 62
     0
100
AcDbLine
 10
42.578024924786
 20
7.149999868288603
 30
0.0
 11
43.49221216833718
 21
8.064187111839714
 31
0.0
  0
LINE
  5
17F2
330
16E7
100
AcDbEntity
  8
0
 62
     0
100
AcDbLine
 10
48.50865624684701
 20
13.9786568024565
 30
0.0
 11
50.48855523416938
 21
15.95855578977892
 31
0.0
  0
LINE
  5
17F3
330
16E7
100
AcDbEntity
  8
0
 62
     0
100
AcDbLine
 10
55.04221216833719
 20
20.51221272394673
 30
0.0
 11
57.65603126023854
 21
23.12603181584802
 31
0.0
  0
LINE
  5
17F4
330
16E7
100
AcDbEntity
  8
0
 62
     0
100
AcDbLine
 10
41.67999931267906
 20
7.149999868288603
 30
0.0
 11
43.49221216833723
 21
8.96221272394672
 31
0.0
  0
LINE
  5
17F5
330
16E7
100
AcDbEntity
  8
0
 62
     0
100
AcDbLine
 10
48.05964344079353
 20
14.42766960850997
 30
0.0
 11
50.03954242811591
 21
16.4075685958324
 31
0.0
  0
LINE
  5
17F6
330
16E7
100
AcDbEntity
  8
0
 62
     0
100
AcDbLine
 10
55.04221216833719
 20
21.41023833605368
 30
0.0
 11
56.88197370057219
 21
23.24999986828868
 31
0.0
  0
LINE
  5
17F7
330
16E7
100
AcDbEntity
  8
0
 62
     0
100
AcDbLine
 10
40.89358483843414
 20
7.261611006150587
 30
0.0
 11
43.49221216833718
 21
9.860238336053669
 31
0.0
  0
LINE
  5
17F8
330
16E7
100
AcDbEntity
  8
0
 62
     0
100
AcDbLine
 10
47.61063063474011
 20
14.87668241456339
 30
0.0
 11
49.59052962206249
 21
16.85658140188582
 31
0.0
  0
LINE
  5
17F9
330
16E7
100
AcDbEntity
  8
0
 62
     0
100
AcDbLine
 10
55.0422121683373
 20
22.30826394816063
 30
0.0
 11
55.9839480884653
 21
23.24999986828863
 31
0.0
  0
LINE
  5
17FA
330
16E7
100
AcDbEntity
  8
0
 62
     0
100
AcDbLine
 10
40.69221216833722
 20
7.958263948160549
 30
0.0
 11
43.49221216833723
 21
10.7582639481605
 31
0.0
  0
LINE
  5
17FB
330
16E7
100
AcDbEntity
  8
0
 62
     0
100
AcDbLine
 10
47.16161782868664
 20
15.32569522061686
 30
0.0
 11
49.14151681600902
 21
17.30559420793929
 31
0.0
  0
LINE
  5
17FC
330
16E7
100
AcDbEntity
  8
0
 62
     0
100
AcDbLine
 10
40.69221216833722
 20
8.856289560267498
 30
0.0
 11
43.49221216833718
 21
11.65628956026745
 31
0.0
  0
LINE
  5
17FD
330
16E7
100
AcDbEntity
  8
0
 62
     0
100
AcDbLine
 10
46.71463392764531
 20
15.77673693168253
 30
0.0
 11
48.69860746102734
 21
17.7607104650645
 31
0.0
  0
LINE
  5
17FE
330
16E7
100
AcDbEntity
  8
0
 62
     0
100
AcDbLine
 10
40.69221216833722
 20
9.75431517237439
 30
0.0
 11
43.49221216833718
 21
12.5543151723744
 31
0.0
  0
LINE
  5
17FF
330
16E7
100
AcDbEntity
  8
0
 62
     0
100
AcDbLine
 10
51.38789686425139
 20
20.44999986828861
 30
0.0
 11
52.41721216833724
 21
21.47931517237442
 31
0.0
  0
LINE
  5
1800
330
16E7
100
AcDbEntity
  8
0
 62
     0
100
AcDbLine
 10
38.19955594362699
 20
7.261658947664159
 30
0.0
 11
38.28920830508201
 21
7.351311309119239
 31
0.0
  0
LINE
  5
1801
330
16E7
100
AcDbEntity
  8
0
 62
     0
100
AcDbLine
 10
46.31663174882334
 20
16.2767603649674
 30
0.0
 11
48.41626602624194
 21
18.376394642386
 31
0.0
  0
LINE
  5
1802
330
16E7
100
AcDbEntity
  8
0
 62
     0
100
AcDbLine
 10
40.69221216833722
 20
10.65234078448128
 30
0.0
 11
43.49221216833723
 21
13.45234078448124
 31
0.0
  0
LINE
  5
1803
330
16E7
100
AcDbEntity
  8
0
 62
     0
100
AcDbLine
 10
50.48987125214461
 20
20.44999986828867
 30
0.0
 11
52.41721216833724
 21
22.37734078448131
 31
0.0
  0
LINE
  5
1804
330
16E7
100
AcDbEntity
  8
0
 62
     0
100
AcDbLine
 10
37.18987125214454
 20
7.149999868288603
 30
0.0
 11
38.25565034845107
 21
8.215778964595131
 31
0.0
  0
LINE
  5
1805
330
16E7
100
AcDbEntity
  8
0
 62
     0
100
AcDbLine
 10
45.99079748442664
 20
16.84895171267766
 30
0.0
 11
48.39221216833732
 21
19.25036639658833
 31
0.0
  0
LINE
  5
1806
330
16E7
100
AcDbEntity
  8
0
 62
     0
100
AcDbLine
 10
40.69221216833722
 20
11.55036639658817
 30
0.0
 11
43.49221216833718
 21
14.35036639658818
 31
0.0
  0
LINE
  5
1807
330
16E7
100
AcDbEntity
  8
0
 62
     0
100
AcDbLine
 10
49.5918456400376
 20
20.44999986828861
 30
0.0
 11
52.25054323653933
 21
23.10869746479034
 31
0.0
  0
LINE
  5
1808
330
16E7
100
AcDbEntity
  8
0
 62
     0
100
AcDbLine
 10
36.29184564003754
 20
7.149999868288546
 30
0.0
 11
38.04012420154538
 21
8.898278429796391
 31
0.0
  0
LINE
  5
1809
330
16E7
100
AcDbEntity
  8
0
 62
     0
100
AcDbLine
 10
40.69221216833716
 20
12.44839200869512
 30
0.0
 11
43.49221216833718
 21
15.24839200869507
 31
0.0
  0
LINE
  5
180A
330
16E7
100
AcDbEntity
  8
0
 62
     0
100
AcDbLine
 10
45.74741542175655
 20
17.50359526211451
 30
0.0
 11
51.49382002793072
 21
23.24999986828868
 31
0.0
  0
LINE
  5
180B
330
16E7
100
AcDbEntity
  8
0
 62
     0
100
AcDbLine
 10
35.69983132938256
 20
7.45601116974052
 30
0.0
 11
37.82459805463969
 21
9.580777894997652
 31
0.0
  0
LINE
  5
180C
330
16E7
100
AcDbEntity
  8
0
 62
     0
100
AcDbLine
 10
40.69221216833716
 20
13.34641762080207
 30
0.0
 11
43.49221216833711
 21
16.14641762080202
 31
0.0
  0
LINE
  5
180D
330
16E7
100
AcDbEntity
  8
0
 62
     0
100
AcDbLine
 10
45.60870856267086
 20
18.26291401513578
 30
0.0
 11
50.59579441582383
 21
23.24999986828868
 31
0.0
  0
LINE
  5
180E
330
16E7
100
AcDbEntity
  8
0
 62
     0
100
AcDbLine
 10
35.48107190773396
 20
8.13527736019887
 30
0.0
 11
37.60907190773401
 21
10.26327736019891
 31
0.0
  0
LINE
  5
180F
330
16E7
100
AcDbEntity
  8
0
 62
     0
100
AcDbLine
 10
40.69221216833722
 20
14.24444323290891
 30
0.0
 11
43.49221216833718
 21
17.04444323290892
 31
0.0
  0
LINE
  5
1810
330
16E7
100
AcDbEntity
  8
0
 62
     0
100
AcDbLine
 10
45.59221216833726
 20
19.144443232909
 30
0.0
 11
49.69776880371694
 21
23.24999986828868
 31
0.0
  0
LINE
  5
1811
330
16E7
100
AcDbEntity
  8
0
 62
     0
100
AcDbLine
 10
35.26554576082833
 20
8.817776825400073
 30
0.0
 11
37.39354576082843
 21
10.94577682540011
 31
0.0
  0
LINE
  5
1812
330
16E7
100
AcDbEntity
  8
0
 62
     0
100
AcDbLine
 10
40.69221216833727
 20
15.14246884501591
 30
0.0
 11
43.49221216833718
 21
17.94246884501581
 31
0.0
  0
LINE
  5
1813
330
16E7
100
AcDbEntity
  8
0
 62
     0
100
AcDbLine
 10
45.59221216833726
 20
20.04246884501589
 30
0.0
 11
48.79974319161004
 21
23.24999986828868
 31
0.0
  0
LINE
  5
1814
330
16E7
100
AcDbEntity
  8
0
 62
     0
100
AcDbLine
 10
35.05001961392264
 20
9.500276290601334
 30
0.0
 11
37.1780196139228
 21
11.62827629060149
 31
0.0
  0
LINE
  5
1815
330
16E7
100
AcDbEntity
  8
0
 62
     0
100
AcDbLine
 10
40.69221216833722
 20
16.04049445712286
 30
0.0
 11
43.49221216833723
 21
18.84049445712281
 31
0.0
  0
LINE
  5
1816
330
16E7
100
AcDbEntity
  8
0
 62
     0
100
AcDbLine
 10
34.83449346701696
 20
10.18277575580259
 30
0.0
 11
36.96249346701705
 21
12.31077575580264
 31
0.0
  0
LINE
  5
1817
330
16E7
100
AcDbEntity
  8
0
 62
     0
100
AcDbLine
 10
45.6455288384584
 20
20.99381112724405
 30
0.0
 11
47.84840090938172
 21
23.19668319816736
 31
0.0
  0
LINE
  5
1818
330
16E7
100
AcDbEntity
  8
0
 62
     0
100
AcDbLine
 10
31.80171757950296
 20
7.149999868288603
 30
0.0
 11
32.64221216833715
 21
7.990494457122792
 31
0.0
  0
LINE
  5
1819
330
16E7
100
AcDbEntity
  8
0
 62
     0
100
AcDbLine
 10
34.61896732011144
 20
10.86527522100391
 30
0.0
 11
36.74696732011142
 21
12.9932752210039
 31
0.0
  0
LINE
  5
181A
330
16E7
100
AcDbEntity
  8
0
 62
     0
100
AcDbLine
 10
40.69221216833727
 20
16.93852006922969
 30
0.0
 11
43.49221216833723
 21
19.73852006922971
 31
0.0
  0
LINE
  5
181B
330
16E7
100
AcDbEntity
  8
0
 62
     0
100
AcDbLine
 10
30.90369196739613
 20
7.149999868288546
 30
0.0
 11
32.64221216833727
 21
8.888520069229741
 31
0.0
  0
LINE
  5
181C
330
16E7
100
AcDbEntity
  8
0
 62
     0
100
AcDbLine
 10
34.40344117320569
 20
11.54777468620506
 30
0.0
 11
36.53144117320574
 21
13.67577468620516
 31
0.0
  0
LINE
  5
181D
330
16E7
100
AcDbEntity
  8
0
 62
     0
100
AcDbLine
 10
40.69221216833722
 20
17.83654568133664
 30
0.0
 11
43.49221216833723
 21
20.6365456813366
 31
0.0
  0
LINE
  5
181E
330
16E7
100
AcDbEntity
  8
0
 62
     0
100
AcDbLine
 10
30.08681610294047
 20
7.231149615939898
 30
0.0
 11
32.64221216833727
 21
9.78654568133669
 31
0.0
  0
LINE
  5
181F
330
16E7
100
AcDbEntity
  8
0
 62
     0
100
AcDbLine
 10
34.1879150263
 20
12.23027415140632
 30
0.0
 11
36.31591502630005
 21
14.35827415140642
 31
0.0
  0
LINE
  5
1820
330
16E7
100
AcDbEntity
  8
0
 62
     0
100
AcDbLine
 10
40.69221216833722
 20
18.73457129344359
 30
0.0
 11
43.49221216833718
 21
21.53457129344355
 31
0.0
  0
LINE
  5
1821
330
16E7
100
AcDbEntity
  8
0
 62
     0
100
AcDbLine
 10
29.8422121683372
 20
7.884571293443514
 30
0.0
 11
32.64221216833727
 21
10.68457129344358
 31
0.0
  0
LINE
  5
1822
330
16E7
100
AcDbEntity
  8
0
 62
     0
100
AcDbLine
 10
33.97238887939437
 20
12.91277361660752
 30
0.0
 11
36.10038887939453
 21
15.04077361660768
 31
0.0
  0
LINE
  5
1823
330
16E7
100
AcDbEntity
  8
0
 62
     0
100
AcDbLine
 10
40.69221216833727
 20
19.63259690555043
 30
0.0
 11
43.49221216833723
 21
22.43259690555044
 31
0.0
  0
LINE
  5
1824
330
16E7
100
AcDbEntity
  8
0
 62
     0
100
AcDbLine
 10
29.8422121683372
 20
8.782596905550406
 30
0.0
 11
32.64221216833727
 21
11.58259690555047
 31
0.0
  0
LINE
  5
1825
330
16E7
100
AcDbEntity
  8
0
 62
     0
100
AcDbLine
 10
33.73759009242264
 20
13.57600044174279
 30
0.0
 11
36.36788416035353
 21
16.20629450967368
 31
0.0
  0
LINE
  5
1826
330
16E7
100
AcDbEntity
  8
0
 62
     0
100
AcDbLine
 10
40.69221216833722
 20
20.53062251765738
 30
0.0
 11
43.29593674583878
 21
23.13434709515889
 31
0.0
  0
LINE
  5
1827
330
16E7
100
AcDbEntity
  8
0
 62
     0
100
AcDbLine
 10
29.8422121683372
 20
9.680622517657354
 30
0.0
 11
32.64221216833727
 21
12.48062251765736
 31
0.0
  0
LINE
  5
1828
330
16E7
100
AcDbEntity
  8
0
 62
     0
100
AcDbLine
 10
33.05040472255524
 20
13.78684068398235
 30
0.0
 11
36.78235751978752
 21
17.51879348121463
 31
0.0
  0
LINE
  5
1829
330
16E7
100
AcDbEntity
  8
0
 62
     0
100
AcDbLine
 10
29.8422121683372
 20
10.57864812976424
 30
0.0
 11
32.6553713526435
 21
13.39180731407054
 31
0.0
  0
LINE
  5
182A
330
16E7
100
AcDbEntity
  8
0
 62
     0
100
AcDbLine
 10
40.69221216833722
 20
21.42864812976427
 30
0.0
 11
42.51356390686157
 21
23.24999986828868
 31
0.0
  0
LINE
  5
182B
330
16E7
100
AcDbEntity
  8
0
 62
     0
100
AcDbLine
 10
26.41356390686155
 20
7.149999868288603
 30
0.0
 11
27.39221216833721
 21
8.128648129764314
 31
0.0
  0
LINE
  5
182C
330
16E7
100
AcDbEntity
  8
0
 62
     0
100
AcDbLine
 10
29.84221216833714
 20
11.47667374187119
 30
0.0
 11
37.19683087922147
 21
18.83129245275552
 31
0.0
  0
LINE
  5
182D
330
16E7
100
AcDbEntity
  8
0
 62
     0
100
AcDbLine
 10
40.69221216833716
 20
22.32667374187122
 30
0.0
 11
41.61553829475457
 21
23.24999986828863
 31
0.0
  0
LINE
  5
182E
330
16E7
100
AcDbEntity
  8
0
 62
     0
100
AcDbLine
 10
25.51553829475461
 20
7.149999868288659
 30
0.0
 11
27.39221216833727
 21
9.02667374187132
 31
0.0
  0
LINE
  5
182F
330
16E7
100
AcDbEntity
  8
0
 62
     0
100
AcDbLine
 10
29.8422121683372
 20
12.37469935397803
 30
0.0
 11
37.61130423865558
 21
20.14379142429647
 31
0.0
  0
LINE
  5
1830
330
16E7
100
AcDbEntity
  8
0
 62
     0
100
AcDbLine
 10
24.62919330699782
 20
7.161680492638708
 30
0.0
 11
27.25087788473104
 21
9.783365070371871
 31
0.0
  0
LINE
  5
1831
330
16E7
100
AcDbEntity
  8
0
 62
     0
100
AcDbLine
 10
29.84221216833714
 20
13.27272496608498
 30
0.0
 11
33.16948707054081
 21
16.59999986828865
 31
0.0
  0
LINE
  5
1832
330
16E7
100
AcDbEntity
  8
0
 62
     0
100
AcDbLine
 10
33.93346990578169
 20
17.36398270352953
 30
0.0
 11
38.02577759808952
 21
21.45629039583736
 31
0.0
  0
LINE
  5
1833
330
16E7
100
AcDbEntity
  8
0
 62
     0
100
AcDbLine
 10
23.86103278955085
 20
7.291545587298628
 30
0.0
 11
26.51948707054078
 21
9.949999868288614
 31
0.0
  0
LINE
  5
1834
330
16E7
100
AcDbEntity
  8
0
 62
     0
100
AcDbLine
 10
29.84221216833714
 20
14.17075057819193
 30
0.0
 11
32.66020273904548
 21
16.9887411489002
 31
0.0
  0
LINE
  5
1835
330
16E7
100
AcDbEntity
  8
0
 62
     0
100
AcDbLine
 10
34.34794326521564
 20
18.67648167507036
 30
0.0
 11
38.40084904989084
 21
22.72938745974562
 31
0.0
  0
LINE
  5
1836
330
16E7
100
AcDbEntity
  8
0
 62
     0
100
AcDbLine
 10
23.19989853272443
 20
7.528436942579219
 30
0.0
 11
25.62146145843389
 21
9.949999868288614
 31
0.0
  0
LINE
  5
1837
330
16E7
100
AcDbEntity
  8
0
 62
     0
100
AcDbLine
 10
29.8422121683372
 20
15.06877619029876
 30
0.0
 11
32.64221216833732
 21
17.86877619029889
 31
0.0
  0
LINE
  5
1838
330
16E7
100
AcDbEntity
  8
0
 62
     0
100
AcDbLine
 10
34.76241662464957
 20
19.98898064661119
 30
0.0
 11
38.00683717732164
 21
23.23340119928326
 31
0.0
  0
LINE
  5
1839
330
16E7
100
AcDbEntity
  8
0
 62
     0
100
AcDbLine
 10
22.62229524856014
 20
7.8488592705217
 30
0.0
 11
24.73835710705299
 21
9.964921129014612
 31
0.0
  0
LINE
  5
183A
330
16E7
100
AcDbEntity
  8
0
 62
     0
100
AcDbLine
 10
29.84221216833714
 20
15.96680180240571
 30
0.0
 11
32.64221216833727
 21
18.76680180240583
 31
0.0
  0
LINE
  5
183B
330
16E7
100
AcDbEntity
  8
0
 62
     0
100
AcDbLine
 10
35.17688998408352
 20
21.30147961815203
 30
0.0
 11
37.12541023422005
 21
23.24999986828863
 31
0.0
  0
LINE
  5
183C
330
16E7
100
AcDbEntity
  8
0
 62
     0
100
AcDbLine
 10
22.11734028217808
 20
8.24192991624659
 30
0.0
 11
24.10404096603469
 21
10.2286306001032
 31
0.0
  0
LINE
  5
183D
330
16E7
100
AcDbEntity
  8
0
 62
     0
100
AcDbLine
 10
29.84221216833714
 20
16.8648274145126
 30
0.0
 11
32.64221216833727
 21
19.66482741451278
 31
0.0
  0
LINE
  5
183E
330
16E7
100
AcDbEntity
  8
0
 62
     0
100
AcDbLine
 10
26.50384630011365
 20
13.52646154628917
 30
0.0
 11
27.66575049033674
 21
14.68836573651225
 31
0.0
  0
LINE
  5
183F
330
16E7
100
AcDbEntity
  8
0
 62
     0
100
AcDbLine
 10
35.5913633435174
 20
22.61397858969292
 30
0.0
 11
36.22738462211311
 21
23.24999986828863
 31
0.0
  0
LINE
  5
1840
330
16E7
100
AcDbEntity
  8
0
 62
     0
100
AcDbLine
 10
21.68090320884823
 20
8.703518455023754
 30
0.0
 11
23.6937900147625
 21
10.71640526093802
 31
0.0
  0
LINE
  5
1841
330
16E7
100
AcDbEntity
  8
0
 62
     0
100
AcDbLine
 10
25.57887345848383
 20
13.49951431676629
 30
0.0
 11
27.69269771985961
 21
15.61333857814202
 31
0.0
  0
LINE
  5
1842
330
16E7
100
AcDbEntity
  8
0
 62
     0
100
AcDbLine
 10
29.8422121683372
 20
17.76285302661961
 30
0.0
 11
32.64221216833727
 21
20.56285302661968
 31
0.0
  0
LINE
  5
1843
330
16E7
100
AcDbEntity
  8
0
 62
     0
100
AcDbLine
 10
21.31388398390527
 20
9.234524842187681
 30
0.0
 11
23.54221216833719
 21
11.46285302661965
 31
0.0
  0
LINE
  5
1844
330
16E7
100
AcDbEntity
  8
0
 62
     0
100
AcDbLine
 10
24.96472688906363
 20
13.78339335945287
 30
0.0
 11
27.40881867717297
 21
16.22748514756227
 31
0.0
  0
LINE
  5
1845
330
16E7
100
AcDbEntity
  8
0
 62
     0
100
AcDbLine
 10
29.8422121683372
 20
18.6608786387265
 30
0.0
 11
32.64221216833727
 21
21.46087863872657
 31
0.0
  0
LINE
  5
1846
330
16E7
100
AcDbEntity
  8
0
 62
     0
100
AcDbLine
 10
21.02256647398053
 20
9.841232944369835
 30
0.0
 11
23.54221216833719
 21
12.36087863872649
 31
0.0
  0
LINE
  5
1847
330
16E7
100
AcDbEntity
  8
0
 62
     0
100
AcDbLine
 10
24.52676696207391
 20
14.24345904457016
 30
0.0
 11
26.94875299205575
 21
16.66544507455194
 31
0.0
  0
LINE
  5
1848
330
16E7
100
AcDbEntity
  8
0
 62
     0
100
AcDbLine
 10
29.8422121683372
 20
19.55890425083345
 30
0.0
 11
32.64221216833727
 21
22.35890425083346
 31
0.0
  0
LINE
  5
1849
330
16E7
100
AcDbEntity
  8
0
 62
     0
100
AcDbLine
 10
20.82142910980588
 20
10.53812119230213
 30
0.0
 11
23.54221216833719
 21
13.25890425083344
 31
0.0
  0
LINE
  5
184A
330
16E7
100
AcDbEntity
  8
0
 62
     0
100
AcDbLine
 10
24.27071622966554
 20
14.88543392426868
 30
0.0
 11
26.30677811235717
 21
16.92149580696036
 31
0.0
  0
LINE
  5
184B
330
16E7
100
AcDbEntity
  8
0
 62
     0
100
AcDbLine
 10
20.74221216833712
 20
11.35692986294032
 30
0.0
 11
23.54221216833719
 21
14.15692986294033
 31
0.0
  0
LINE
  5
184C
330
16E7
100
AcDbEntity
  8
0
 62
     0
100
AcDbLine
 10
29.8422121683372
 20
20.45692986294034
 30
0.0
 11
32.48496205998208
 21
23.09967975458528
 31
0.0
  0
LINE
  5
184D
330
16E7
100
AcDbEntity
  8
0
 62
     0
100
AcDbLine
 10
16.65621541046153
 20
7.270933105064727
 30
0.0
 11
18.52127893156125
 21
9.135996626164455
 31
0.0
  0
LINE
  5
184E
330
16E7
100
AcDbEntity
  8
0
 62
     0
100
AcDbLine
 10
24.38912931314633
 20
15.90187261985636
 30
0.0
 11
25.29033941676954
 21
16.80308272347957
 31
0.0
  0
LINE
  5
184F
330
16E7
100
AcDbEntity
  8
0
 62
     0
100
AcDbLine
 10
20.74221216833712
 20
12.25495547504715
 30
0.0
 11
23.5422121683373
 21
15.05495547504728
 31
0.0
  0
LINE
  5
1850
330
16E7
100
AcDbEntity
  8
0
 62
     0
100
AcDbLine
 10
29.8422121683372
 20
21.35495547504723
 30
0.0
 11
31.73725656157859
 21
23.24999986828863
 31
0.0
  0
LINE
  5
1851
330
16E7
100
AcDbEntity
  8
0
 62
     0
100
AcDbLine
 10
15.63725656157856
 20
7.149999868288603
 30
0.0
 11
18.64221216833732
 21
10.1549554750473
 31
0.0
  0
LINE
  5
1852
330
16E7
100
AcDbEntity
  8
0
 62
     0
100
AcDbLine
 10
20.74221216833712
 20
13.1529810871541
 30
0.0
 11
23.54221216833725
 21
15.95298108715423
 31
0.0
  0
LINE
  5
1853
330
16E7
100
AcDbEntity
  8
0
 62
     0
100
AcDbLine
 10
29.8422121683372
 20
22.25298108715413
 30
0.0
 11
30.8392309494717
 21
23.24999986828868
 31
0.0
  0
LINE
  5
1854
330
16E7
100
AcDbEntity
  8
0
 62
     0
100
AcDbLine
 10
14.73923094947156
 20
7.149999868288546
 30
0.0
 11
18.64221216833726
 21
11.05298108715425
 31
0.0
  0
LINE
  5
1855
330
16E7
100
AcDbEntity
  8
0
 62
     0
100
AcDbLine
 10
20.74221216833712
 20
14.05100669926099
 30
0.0
 11
23.54221216833725
 21
16.85100669926117
 31
0.0
  0
LINE
  5
1856
330
16E7
100
AcDbEntity
  8
0
 62
     0
100
AcDbLine
 10
13.84120533736473
 20
7.149999868288659
 30
0.0
 11
18.63827281577602
 21
11.94706734669995
 31
0.0
  0
LINE
  5
1857
330
16E7
100
AcDbEntity
  8
0
 62
     0
100
AcDbLine
 10
20.74221216833712
 20
14.94903231136794
 30
0.0
 11
23.54221216833725
 21
17.74903231136807
 31
0.0
  0
LINE
  5
1858
330
16E7
100
AcDbEntity
  8
0
 62
     0
100
AcDbLine
 10
26.24317972525791
 20
20.44999986828873
 30
0.0
 11
27.39221216833732
 21
21.59903231136815
 31
0.0
  0
LINE
  5
1859
330
16E7
100
AcDbEntity
  8
0
 62
     0
100
AcDbLine
 10
12.94317972525778
 20
7.149999868288603
 30
0.0
 11
18.5286109794547
 21
12.73543112248552
 31
0.0
  0
LINE
  5
185A
330
16E7
100
AcDbEntity
  8
0
 62
     0
100
AcDbLine
 10
20.74221216833712
 20
15.84705792347483
 30
0.0
 11
23.54221216833725
 21
18.64705792347496
 31
0.0
  0
LINE
  5
185B
330
16E7
100
AcDbEntity
  8
0
 62
     0
100
AcDbLine
 10
15.8422121683372
 20
10.94705792347491
 30
0.0
 11
18.30627223541057
 21
13.41111799054829
 31
0.0
  0
LINE
  5
185C
330
16E7
100
AcDbEntity
  8
0
 62
     0
100
AcDbLine
 10
25.3451541131509
 20
20.44999986828861
 30
0.0
 11
27.39221216833732
 21
22.49705792347498
 31
0.0
  0
LINE
  5
185D
330
16E7
100
AcDbEntity
  8
0
 62
     0
100
AcDbLine
 10
12.10287998841085
 20
7.207725743548564
 30
0.0
 11
14.8451541131509
 21
9.949999868288614
 31
0.0
  0
LINE
  5
185E
330
16E7
100
AcDbEntity
  8
0
 62
     0
100
AcDbLine
 10
20.74221216833706
 20
16.74508353558173
 30
0.0
 11
23.70802687411686
 21
19.71089824136152
 31
0.0
  0
LINE
  5
185F
330
16E7
100
AcDbEntity
  8
0
 62
     0
100
AcDbLine
 10
15.84005307672794
 20
11.84292444397255
 30
0.0
 11
17.99784070073855
 21
14.00071206798321
 31
0.0
  0
LINE
  5
1860
330
16E7
100
AcDbEntity
  8
0
 62
     0
100
AcDbLine
 10
24.2813137952644
 20
20.28418516250906
 30
0.0
 11
27.15874475341741
 21
23.16161612066202
 31
0.0
  0
LINE
  5
1861
330
16E7
100
AcDbEntity
  8
0
 62
     0
100
AcDbLine
 10
11.81721216833722
 20
7.820083535581829
 30
0.0
 11
13.947128501044
 21
9.949999868288614
 31
0.0
  0
LINE
  5
1862
330
16E7
100
AcDbEntity
  8
0
 62
     0
100
AcDbLine
 10
15.62045005722723
 20
12.52134703657884
 30
0.0
 11
17.61559873589965
 21
14.51649571525126
 31
0.0
  0
LINE
  5
1863
330
16E7
100
AcDbEntity
  8
0
 62
     0
100
AcDbLine
 10
20.74221216833706
 20
17.64310914768867
 30
0.0
 11
26.34910288893701
 21
23.24999986828863
 31
0.0
  0
LINE
  5
1864
330
16E7
100
AcDbEntity
  8
0
 62
     0
100
AcDbLine
 10
11.81721216833716
 20
8.718109147688778
 30
0.0
 11
13.04910288893706
 21
9.949999868288671
 31
0.0
  0
LINE
  5
1865
330
16E7
100
AcDbEntity
  8
0
 62
     0
100
AcDbLine
 10
15.19419522892252
 20
12.99311782038097
 30
0.0
 11
17.17409421624489
 21
14.97301680770334
 31
0.0
  0
LINE
  5
1866
330
16E7
100
AcDbEntity
  8
0
 62
     0
100
AcDbLine
 10
20.74221216833712
 20
18.54113475979551
 30
0.0
 11
25.45107727683006
 21
23.24999986828851
 31
0.0
  0
LINE
  5
1867
330
16E7
100
AcDbEntity
  8
0
 62
     0
100
AcDbLine
 10
11.88616409035694
 20
9.685086681815391
 30
0.0
 11
12.08212535481056
 21
9.881047946269006
 31
0.0
  0
LINE
  5
1868
330
16E7
100
AcDbEntity
  8
0
 62
     0
100
AcDbLine
 10
20.7621872824937
 20
19.45913548605904
 30
0.0
 11
24.53307655056671
 21
23.2300247541321
 31
0.0
  0
LINE
  5
1869
330
16E7
100
AcDbEntity
  8
0
 62
     0
100
AcDbLine
 10
14.74518242286905
 20
13.44213062643445
 30
0.0
 11
16.72508141019142
 21
15.42202961375682
 31
0.0
  0
LINE
  5
186A
330
16E7
100
AcDbEntity
  8
0
 62
     0
100
AcDbLine
 10
21.06165071475948
 20
20.65662453043183
 30
0.0
 11
23.33558750619397
 21
22.93056132186632
 31
0.0
  0
LINE
  5
186B
330
16E7
100
AcDbEntity
  8
0
 62
     0
100
AcDbLine
 10
14.29616961681557
 20
13.89114343248792
 30
0.0
 11
16.27606860413794
 21
15.87104241981029
 31
0.0
  0
LINE
  5
186C
330
16E7
100
AcDbEntity
  8
0
 62
     0
100
AcDbLine
 10
13.84715681076216
 20
14.34015623854134
 30
0.0
 11
15.82705579808447
 21
16.3200552258636
 31
0.0
  0
LINE
  5
186D
330
16E7
100
AcDbEntity
  8
0
 62
     0
100
AcDbLine
 10
13.39814400470868
 20
14.78916904459481
 30
0.0
 11
15.378042992031
 21
16.76906803191707
 31
0.0
  0
LINE
  5
186E
330
16E7
100
AcDbEntity
  8
0
 62
     0
100
AcDbLine
 10
12.94913119865521
 20
15.23818185064829
 30
0.0
 11
14.92903018597752
 21
17.21808083797055
 31
0.0
  0
LINE
  5
186F
330
16E7
100
AcDbEntity
  8
0
 62
     0
100
AcDbLine
 10
17.26292360418864
 20
20.44999986828861
 30
0.0
 11
18.11721216833712
 21
21.30428843243715
 31
0.0
  0
LINE
  5
1870
330
16E7
100
AcDbEntity
  8
0
 62
     0
100
AcDbLine
 10
12.50020170662986
 20
15.68727797072989
 30
0.0
 11
14.48026735006232
 21
17.66734361416235
 31
0.0
  0
LINE
  5
1871
330
16E7
100
AcDbEntity
  8
0
 62
     0
100
AcDbLine
 10
16.36489799208175
 20
20.44999986828861
 30
0.0
 11
18.11721216833717
 21
22.20231404454404
 31
0.0
  0
LINE
  5
1872
330
16E7
100
AcDbEntity
  8
0
 62
     0
100
AcDbLine
 10
12.08873378207829
 20
16.1738356582851
 30
0.0
 11
14.15037046877438
 21
18.23547234498125
 31
0.0
  0
LINE
  5
1873
330
16E7
100
AcDbEntity
  8
0
 62
     0
100
AcDbLine
 10
15.4668723799748
 20
20.44999986828861
 30
0.0
 11
18.03065326857603
 21
23.01378075688985
 31
0.0
  0
LINE
  5
1874
330
16E7
100
AcDbEntity
  8
0
 62
     0
100
AcDbLine
 10
11.74827317581582
 20
16.73140066412958
 30
0.0
 11
14.09221216833725
 21
19.07533965665101
 31
0.0
  0
LINE
  5
1875
330
16E7
100
AcDbEntity
  8
0
 62
     0
100
AcDbLine
 10
14.56638011869779
 20
20.4475332191185
 30
0.0
 11
17.36884676786786
 21
23.24999986828863
 31
0.0
  0
LINE
  5
1876
330
16E7
100
AcDbEntity
  8
0
 62
     0
100
AcDbLine
 10
11.48757988008373
 20
17.36873298050443
 30
0.0
 11
14.09467881750731
 21
19.97583191792807
 31
0.0
  0
LINE
  5
1877
330
16E7
100
AcDbEntity
  8
0
 62
     0
100
AcDbLine
 10
11.32576791783566
 20
18.10494663036326
 30
0.0
 11
16.47082115576103
 21
23.24999986828857
 31
0.0
  0
LINE
  5
1878
330
16E7
100
AcDbEntity
  8
0
 62
     0
100
AcDbLine
 10
11.29221216833724
 20
18.96941649297179
 30
0.0
 11
15.57279554365408
 21
23.24999986828863
 31
0.0
  0
LINE
  5
1879
330
16E7
100
AcDbEntity
  8
0
 62
     0
100
AcDbLine
 10
11.29221216833724
 20
19.86744210507868
 30
0.0
 11
14.67476993154713
 21
23.24999986828863
 31
0.0
  0
LINE
  5
187A
330
16E7
100
AcDbEntity
  8
0
 62
     0
100
AcDbLine
 10
11.31240417877546
 20
20.78565972762385
 30
0.0
 11
13.75655230900207
 21
23.22980785785046
 31
0.0
  0
ENDBLK
  5
187C
330
16E7
100
AcDbEntity
  8
0
100
AcDbBlockEnd
  0
ENDSEC
  0
SECTION
  2
ENTITIES
  0
LINE
  5
A68
330
1A
100
AcDbEntity
  8
ZUWAKU
100
AcDbLine
 10
215.646601303624
 20
22.19999986828872
 30
0.0
 11
454.4243639845474
 21
22.19999986828872
 31
0.0
  0
LINE
  5
A69
330
1A
100
AcDbEntity
  8
ZUWAKU
100
AcDbLine
 10
215.646601303624
 20
22.59999986828872
 30
0.0
 11
454.4243639845474
 21
22.59999986828872
 31
0.0
  0
LINE
  5
A6A
330
1A
100
AcDbEntity
  8
ZUWAKU
100
AcDbLine
 10
215.646601303624
 20
22.39999986828872
 30
0.0
 11
454.4243639845474
 21
22.39999986828872
 31
0.0
  0
LINE
  5
A6B
330
1A
100
AcDbEntity
  8
ZUWAKU
100
AcDbLine
 10
7.000000013556018
 20
37.79999986828869
 30
0.0
 11
804.4000000135559
 21
37.79999986828869
 31
0.0
  0
LINE
  5
A6C
330
1A
100
AcDbEntity
  8
ZUWAKU
100
AcDbLine
 10
7.000000013556018
 20
37.59999986828869
 30
0.0
 11
804.4000000135559
 21
37.59999986828869
 31
0.0
  0
LINE
  5
A6D
330
1A
100
AcDbEntity
  8
ZUWAKU
100
AcDbLine
 10
7.000000013556018
 20
37.39999986828869
 30
0.0
 11
804.4000000135559
 21
37.39999986828869
 31
0.0
  0
LINE
  5
A6E
330
1A
100
AcDbEntity
  8
ZUWAKU
100
AcDbLine
 10
7.000000013556018
 20
37.19999986828869
 30
0.0
 11
804.4000000135559
 21
37.19999986828869
 31
0.0
  0
LINE
  5
A6F
330
1A
100
AcDbEntity
  8
ZUWAKU
100
AcDbLine
 10
7.000000013556018
 20
36.99999986828868
 30
0.0
 11
804.4000000135559
 21
36.99999986828868
 31
0.0
  0
LWPOLYLINE
  5
A70
330
1A
100
AcDbEntity
  8
ZUWAKU
100
AcDbPolyline
 90
        4
 70
     1
 43
0.0
 10
7.20000001355595
 20
558.3999998682887
 10
7.20000001355595
 20
7.199999868288728
 10
804.4000000135559
 20
7.199999868288751
 10
804.4000000135561
 20
558.3999998682887
  0
LWPOLYLINE
  5
A71
330
1A
100
AcDbEntity
  8
ZUWAKU
100
AcDbPolyline
 90
        4
 70
     1
 43
0.0
 10
7.600000013555927
 20
557.9999998682888
 10
7.600000013555927
 20
7.599999868288705
 10
804.0000000135561
 20
7.599999868288751
 10
804.000000013556
 20
557.9999998682888
  0
LWPOLYLINE
  5
A72
330
1A
100
AcDbEntity
  8
ZUWAKU
100
AcDbPolyline
 90
        4
 70
     1
 43
0.0
 10
7.000000013556018
 20
558.5999998682886
 10
7.000000013556018
 20
6.999999868288682
 10
804.6000000135562
 20
6.99999986828875
 10
804.6000000135562
 20
558.5999998682888
  0
LWPOLYLINE
  5
A73
330
1A
100
AcDbEntity
  8
ZUWAKU
100
AcDbPolyline
 90
        4
 70
     1
 43
0.0
 10
7.400000013555995
 20
558.1999998682887
 10
7.400000013555995
 20
7.399999868288773
 10
804.200000013556
 20
7.39999986828875
 10
804.200000013556
 20
558.1999998682887
  0
LWPOLYLINE
  5
A74
330
1A
100
AcDbEntity
  8
ZUWAKU
100
AcDbPolyline
 90
        4
 70
     1
 43
0.0
 10
7.800000013555973
 20
557.7999998682887
 10
7.800000013555973
 20
7.79999986828875
 10
803.8000000135559
 20
7.79999986828875
 10
803.8000000135559
 20
557.7999998682887
  0
INSERT
  5
A76
330
1A
100
AcDbEntity
  8
ZUWAKU
  6
Continuous
100
AcDbBlockReference
  2
*X12
 10
7.0
 20
7.0
 30
0.0
1001
ACAD
1000
HATCH
1002
{
1070
    19
1000
ANSI37
1040
0.2
1040
0.0
1000
R14_HATCH_DATA
1000
A76
1011
8.0
1021
7.0
1031
0.0
1011
7.0
1021
8.0
1031
0.0
1011
7.0
1021
7.0
1031
1.0
1040
0.0
1010
0.0
1020
0.0
1030
1.0
1000
ANSI37
1070
     0
1070
     0
1071
        8
1071
        7
1070
     1
1070
     1
1071
       24
1040
14.50226267467587
1040
17.64484834927226
1040
-0.1989123673796348
1040
14.09221216833714
1040
18.63479784293332
1040
0.0
1040
14.09221216833714
1040
19.92499986828869
1040
-0.4142135623730912
1040
14.61721216833712
1040
20.44999986828869
1040
0.0
1040
17.59221216833703
1040
20.44999986828869
1040
0.4142135623731546
1040
18.11721216833712
1040
20.97499986828868
1040
0.0
1040
18.11721216833712
1040
22.72499986828869
1040
0.4142135623731586
1040
17.59221216833703
1040
23.24999986828869
1040
0.0
1040
14.09221216833714
1040
23.24999986828869
1040
0.4142135623730928
1040
11.29221216833719
1040
20.44999986828871
1040
0.0
1040
11.29221216833719
1040
18.63479784293344
1040
0.1989123673796619
1040
12.52236368735362
1040
15.66494936194984
1040
0.0
1040
15.43216166199829
1040
12.75515138730518
1040
-0.1989123673796613
1040
15.84221216833714
1040
11.76520189364399
1040
0.0
1040
15.84221216833714
1040
10.47499986828867
1040
-0.4142135623730911
1040
15.31721216833716
1040
9.949999868288685
1040
0.0
1040
12.34221216833725
1040
9.949999868288685
1040
0.4142135623731526
1040
11.81721216833716
1040
9.424999868288697
1040
0.0
1040
11.81721216833716
1040
7.674999868288676
1040
0.4142135623731526
1040
12.34221216833725
1040
7.149999868288688
1040
0.0
1040
15.84221216833714
1040
7.149999868288688
1040
0.4142135623731044
1040
18.64221216833721
1040
9.949999868288664
1040
0.0
1040
18.64221216833721
1040
11.76520189364393
1040
0.1989123673796604
1040
17.41206064932066
1040
14.73505037462748
1040
0.0
1071
        0
1071
        7
1070
     1
1070
     1
1071
       16
1040
23.54221216833719
1040
19.04999986828869
1040
-0.4142135623730935
1040
24.94221216833717
1040
20.44999986828869
1040
0.0
1040
26.86721216833712
1040
20.44999986828869
1040
0.4142135623731546
1040
27.39221216833721
1040
20.97499986828868
1040
0.0
1040
27.39221216833721
1040
22.72499986828869
1040
0.4142135623730951
1040
26.86721216833723
1040
23.24999986828869
1040
0.0
1040
24.94221216833705
1040
23.24999986828865
1040
0.4142135623730892
1040
20.74221216833712
1040
19.04999986828862
1040
0.0
1040
20.74221216833712
1040
11.34999986828871
1040
0.4142135623730969
1040
24.94221216833717
1040
7.149999868288688
1040
0.0
1040
26.86721216833712
1040
7.149999868288688
1040
0.4142135623731526
1040
27.39221216833721
1040
7.674999868288676
1040
0.0
1040
27.39221216833721
1040
9.424999868288697
1040
0.4142135623730891
1040
26.86721216833723
1040
9.949999868288685
1040
0.0
1040
24.94221216833717
1040
9.949999868288685
1040
-0.4142135623730928
1040
23.54221216833719
1040
11.34999986828867
1040
0.0
1071
        0
1071
        7
1070
     1
1070
     1
1071
        2
1040
24.24221216833712
1040
15.19999986828868
1040
1.0
1040
27.74221216833712
1040
15.19999986828868
1040
1.0
1071
        0
1071
        7
1070
     1
1070
     1
1071
       26
1040
37.31485865051514
1040
19.20504706185211
1040
0.0
1040
38.37649828365295
1040
22.5669059001217
1040
0.5069206636600134
1040
37.87586738445759
1040
23.24999986828869
1040
0.0
1040
36.17697800484837
1040
23.24999986828869
1040
0.3272098845218764
1040
35.67634710565301
1040
22.88309383645566
1040
0.0
1040
33.80807723102123
1040
16.96690590012176
1040
-0.3272098845219541
1040
33.30744633182576
1040
16.59999986828868
1040
0.0
1040
33.1672121683373
1040
16.59999986828868
1040
-0.4142135623731526
1040
32.64221216833721
1040
17.12499986828867
1040
0.0
1040
32.64221216833721
1040
22.72499986828869
1040
0.4142135623730951
1040
32.11721216833723
1040
23.24999986828869
1040
0.0
1040
30.36721216833712
1040
23.24999986828869
1040
0.4142135623730871
1040
29.84221216833714
1040
22.7249998682887
1040
0.0
1040
29.84221216833714
1040
7.674999868288676
1040
0.4142135623730891
1040
30.36721216833712
1040
7.149999868288688
1040
0.0
1040
32.11721216833712
1040
7.149999868288688
1040
0.4142135623731526
1040
32.64221216833721
1040
7.674999868288676
1040
0.0
1040
32.64221216833721
1040
13.2749998682887
1040
-0.4142135623731526
1040
33.1672121683373
1040
13.79999986828869
1040
0.0
1040
33.30744633182587
1040
13.79999986828869
1040
-0.3272098845218915
1040
33.80807723102123
1040
13.43309383645561
1040
0.0
1040
35.67634710565301
1040
7.516905900121759
1040
0.3272098845218902
1040
36.17697800484837
1040
7.149999868288688
1040
0.0
1040
37.87586738445759
1040
7.149999868288688
1040
0.5069206636600335
1040
38.37649828365295
1040
7.833093836455695
1040
0.0
1040
36.05010690517929
1040
15.19999986828882
1040
0.0
1071
        0
1071
        7
1070
     1
1070
     1
1071
        8
1040
43.49221216833711
1040
22.7249998682887
1040
0.4142135623731546
1040
42.96721216833702
1040
23.24999986828869
1040
0.0
1040
41.21721216833726
1040
23.24999986828869
1040
0.4142135623731507
1040
40.69221216833716
1040
22.7249998682887
1040
0.0
1040
40.69221216833716
1040
7.674999868288676
1040
0.4142135623731526
1040
41.21721216833726
1040
7.149999868288688
1040
0.0
1040
42.96721216833702
1040
7.149999868288688
1040
0.4142135623731526
1040
43.49221216833711
1040
7.674999868288676
1040
0.0
1071
        0
1071
        7
1070
     1
1070
     1
1071
       24
1040
48.3922121683372
1040
19.92499986828869
1040
-0.4142135623731546
1040
48.9172121683373
1040
20.44999986828869
1040
0.0
1040
51.89221216833721
1040
20.44999986828869
1040
0.4142135623730911
1040
52.41721216833719
1040
20.97499986828868
1040
0.0
1040
52.41721216833719
1040
22.72499986828869
1040
0.4142135623730952
1040
51.89221216833721
1040
23.24999986828869
1040
0.0
1040
48.3922121683372
1040
23.24999986828869
1040
0.4142135623731048
1040
45.59221216833714
1040
20.44999986828871
1040
0.0
1040
45.59221216833714
1040
18.63479784293344
1040
0.1989123673796613
1040
46.82236368735368
1040
15.66494936194989
1040
0.0
1040
49.73216166199836
1040
12.75515138730522
1040
-0.1989123673796402
1040
50.14221216833721
1040
11.76520189364415
1040
0.0
1040
50.14221216833721
1040
10.47499986828867
1040
-0.4142135623730911
1040
49.61721216833723
1040
9.949999868288685
1040
0.0
1040
46.64221216833721
1040
9.949999868288685
1040
0.4142135623731526
1040
46.11721216833712
1040
9.424999868288697
1040
0.0
1040
46.11721216833712
1040
7.674999868288676
1040
0.4142135623730891
1040
46.64221216833709
1040
7.149999868288688
1040
0.0
1040
50.14221216833721
1040
7.149999868288688
1040
0.4142135623730925
1040
52.94221216833716
1040
9.949999868288664
1040
0.0
1040
52.94221216833716
1040
11.76520189364393
1040
0.1989123673796675
1040
51.71206064932062
1040
14.73505037462759
1040
0.0
1040
48.80226267467605
1040
17.6448483492721
1040
-0.1989123673796652
1040
48.3922121683372
1040
18.63479784293327
1040
0.0
1071
        0
1071
        7
1070
     1
1070
     1
1071
       16
1040
57.84221216833714
1040
22.72499986828868
1040
0.414213562373103
1040
57.31721216833716
1040
23.24999986828869
1040
0.0
1040
55.56721216833716
1040
23.24999986828869
1040
0.4142135623730871
1040
55.04221216833719
1040
22.7249998682887
1040
0.0
1040
55.04221216833719
1040
9.949999868288664
1040
0.4142135623730926
1040
57.84221216833714
1040
7.149999868288688
1040
0.0
1040
61.34221216833714
1040
7.149999868288688
1040
0.4142135623731044
1040
64.14221216833721
1040
9.949999868288664
1040
0.0
1040
64.14221216833721
1040
22.72499986828869
1040
0.4142135623730951
1040
63.61721216833723
1040
23.24999986828869
1040
0.0
1040
61.86721216833712
1040
23.24999986828869
1040
0.4142135623730871
1040
61.34221216833714
1040
22.7249998682887
1040
0.0
1040
61.34221216833714
1040
10.99999986828866
1040
-0.414213562373088
1040
60.29221216833718
1040
9.949999868288685
1040
0.0
1040
58.89221216833721
1040
9.949999868288685
1040
-0.4142135623731197
1040
57.84221216833714
1040
10.99999986828866
1040
0.0
1071
        0
1071
        7
1070
     1
1070
     1
1071
        8
1040
69.04221216833718
1040
22.7249998682887
1040
0.4142135623730871
1040
68.51721216833721
1040
23.24999986828869
1040
0.0
1040
66.76721216833721
1040
23.24999986828869
1040
0.4142135623731507
1040
66.24221216833712
1040
22.7249998682887
1040
0.0
1040
66.24221216833712
1040
7.674999868288676
1040
0.4142135623730891
1040
66.76721216833709
1040
7.149999868288688
1040
0.0
1040
68.51721216833721
1040
7.149999868288688
1040
0.4142135623730891
1040
69.04221216833718
1040
7.674999868288676
1040
0.0
1071
        0
1070
     0
1070
     1
1040
0.0
1040
0.2
1070
     0
1070
     2
1040
0.7853981633974483
1040
-900.942304321123
1040
-13.20000013171125
1040
-0.4490128060534576
1040
0.4490128060534577
1070
     0
1040
2.356194490192344
1040
-900.942304321123
1040
-13.20000013171125
1040
-0.4490128060534577
1040
-0.4490128060534576
1070
     0
1040
0.057451373970553
1071
        8
1040
16.07985497657933
1040
15.16717351417424
1040
0.0
1040
22.40451501999519
1040
18.84406205073969
1040
0.0
1040
25.16436789921568
1040
15.5118815143594
1040
0.0
1040
30.91405999519316
1040
16.20129751473018
1040
0.0
1040
41.83847203251275
1040
16.6609097822718
1040
0.0
1040
46.89820090868557
1040
19.41857618469589
1040
0.0
1040
56.55768598595637
1040
18.7291577833837
1040
0.0
1040
67.82707963317875
1040
19.18877005092531
1040
0.0
1002
}
  0
LINE
  5
A77
330
1A
100
AcDbEntity
  8
ZUWAKU
100
AcDbLine
 10
31.94221216833716
 20
30.24999986828865
 30
0.0
 11
33.86721216833712
 21
30.24999986828869
 31
0.0
  0
LINE
  5
A78
330
1A
100
AcDbEntity
  8
ZUWAKU
100
AcDbLine
 10
33.86721216833712
 20
27.44999986828869
 30
0.0
 11
31.94221216833716
 21
27.44999986828869
 31
0.0
  0
LINE
  5
A79
330
1A
100
AcDbEntity
  8
ZUWAKU
100
AcDbLine
 10
31.94221216833716
 20
16.94999986828868
 30
0.0
 11
33.86721216833712
 21
16.94999986828868
 31
0.0
  0
LINE
  5
A7A
330
1A
100
AcDbEntity
  8
ZUWAKU
100
AcDbLine
 10
33.86721216833712
 20
14.14999986828869
 30
0.0
 11
31.94221216833716
 21
14.14999986828869
 31
0.0
  0
CIRCLE
  5
A7B
330
1A
100
AcDbEntity
  8
ZUWAKU
100
AcDbCircle
 10
32.99221216833712
 20
22.19999986828868
 30
0.0
 40
1.75
  0
ARC
  5
A7C
330
1A
100
AcDbEntity
  8
ZUWAKU
100
AcDbCircle
 10
22.49221216833712
 20
25.63479784293339
 30
0.0
 40
1.399999999999999
100
AcDbArc
 50
180.0000000000016
 51
224.9999999999988
  0
LINE
  5
A7D
330
1A
100
AcDbEntity
  8
ZUWAKU
100
AcDbLine
 10
30.54221216833719
 20
26.04999986828869
 30
0.0
 11
30.54221216833719
 21
18.34999986828869
 31
0.0
  0
LINE
  5
A7E
330
1A
100
AcDbEntity
  8
ZUWAKU
100
AcDbLine
 10
27.74221216833712
 20
18.34999986828869
 30
0.0
 11
27.74221216833712
 21
26.04999986828865
 31
0.0
  0
ARC
  5
A7F
330
1A
100
AcDbEntity
  8
ZUWAKU
100
AcDbCircle
 10
22.49221216833712
 20
25.63479784293339
 30
0.0
 40
4.199999999999999
100
AcDbArc
 50
180.0
 51
225.0
  0
ARC
  5
A80
330
1A
100
AcDbEntity
  8
ZUWAKU
100
AcDbCircle
 10
22.84221216833714
 20
16.94999986828868
 30
0.0
 40
2.799999999999999
100
AcDbArc
 50
270.0
 51
0.0
  0
ARC
  5
A81
330
1A
100
AcDbEntity
  8
ZUWAKU
100
AcDbCircle
 10
31.94221216833716
 20
18.34999986828869
 30
0.0
 40
4.199999999999999
100
AcDbArc
 50
180.0
 51
270.0
  0
ARC
  5
A82
330
1A
100
AcDbEntity
  8
ZUWAKU
100
AcDbCircle
 10
21.44221216833717
 20
18.76520189364399
 30
0.0
 40
4.199999999999999
100
AcDbArc
 50
0.0
 51
45.0
  0
LINE
  5
A83
330
1A
100
AcDbEntity
  8
ZUWAKU
100
AcDbLine
 10
24.41206064932067
 20
21.73505037462751
 30
0.0
 11
21.50226267467599
 21
24.64484834927219
 31
0.0
  0
LINE
  5
A84
330
1A
100
AcDbEntity
  8
ZUWAKU
100
AcDbLine
 10
22.84221216833714
 20
17.47499986828869
 30
0.0
 11
22.84221216833714
 21
18.76520189364403
 31
0.0
  0
ARC
  5
A85
330
1A
100
AcDbEntity
  8
ZUWAKU
100
AcDbCircle
 10
22.31721216833717
 20
17.47499986828869
 30
0.0
 40
0.525
100
AcDbArc
 50
270.0
 51
0.0
  0
ARC
  5
A86
330
1A
100
AcDbEntity
  8
ZUWAKU
100
AcDbCircle
 10
21.44221216833717
 20
18.76520189364403
 30
0.0
 40
1.399999999999999
100
AcDbArc
 50
0.0
 51
45.0
  0
LINE
  5
A87
330
1A
100
AcDbEntity
  8
ZUWAKU
100
AcDbLine
 10
18.81721216833716
 20
14.67499986828868
 30
0.0
 11
18.81721216833716
 21
16.42499986828869
 31
0.0
  0
ARC
  5
A88
330
1A
100
AcDbEntity
  8
ZUWAKU
100
AcDbCircle
 10
19.34221216833714
 20
14.67499986828868
 30
0.0
 40
0.525
100
AcDbArc
 50
180.0
 51
270.0
  0
ARC
  5
A89
330
1A
100
AcDbEntity
  8
ZUWAKU
100
AcDbCircle
 10
19.34221216833714
 20
16.42499986828869
 30
0.0
 40
0.525
100
AcDbArc
 50
90.0
 51
180.0
  0
LINE
  5
A8A
330
1A
100
AcDbEntity
  8
ZUWAKU
100
AcDbLine
 10
19.34221216833714
 20
14.14999986828869
 30
0.0
 11
22.84221216833714
 21
14.14999986828869
 31
0.0
  0
LINE
  5
A8B
330
1A
100
AcDbEntity
  8
ZUWAKU
100
AcDbLine
 10
19.34221216833714
 20
16.94999986828868
 30
0.0
 11
22.31721216833717
 21
16.94999986828868
 31
0.0
  0
LINE
  5
A8C
330
1A
100
AcDbEntity
  8
ZUWAKU
100
AcDbLine
 10
19.52236368735362
 20
22.66494936194987
 30
0.0
 11
22.43216166199829
 21
19.7551513873052
 31
0.0
  0
LINE
  5
A8D
330
1A
100
AcDbEntity
  8
ZUWAKU
100
AcDbLine
 10
25.64221216833721
 20
16.94999986828868
 30
0.0
 11
25.64221216833721
 21
18.76520189364403
 31
0.0
  0
ARC
  5
A8E
330
1A
100
AcDbEntity
  8
ZUWAKU
100
AcDbCircle
 10
31.94221216833716
 20
18.34999986828869
 30
0.0
 40
1.399999999999999
100
AcDbArc
 50
180.0
 51
270.0
  0
ARC
  5
A8F
330
1A
100
AcDbEntity
  8
ZUWAKU
100
AcDbCircle
 10
24.59221216833714
 20
29.72499986828868
 30
0.0
 40
0.525
100
AcDbArc
 50
0.0
 51
90.0
  0
ARC
  5
A90
330
1A
100
AcDbEntity
  8
ZUWAKU
100
AcDbCircle
 10
24.59221216833714
 20
27.97499986828869
 30
0.0
 40
0.525
100
AcDbArc
 50
270.0
 51
0.0
  0
LINE
  5
A91
330
1A
100
AcDbEntity
  8
ZUWAKU
100
AcDbLine
 10
21.09221216833714
 20
30.24999986828869
 30
0.0
 11
24.59221216833714
 21
30.24999986828869
 31
0.0
  0
ARC
  5
A92
330
1A
100
AcDbEntity
  8
ZUWAKU
100
AcDbCircle
 10
21.61721216833712
 20
26.92499986828869
 30
0.0
 40
0.525
100
AcDbArc
 50
90.0
 51
180.0
  0
LINE
  5
A93
330
1A
100
AcDbEntity
  8
ZUWAKU
100
AcDbLine
 10
21.09221216833714
 20
26.92499986828869
 30
0.0
 11
21.09221216833714
 21
25.63479784293335
 31
0.0
  0
LINE
  5
A94
330
1A
100
AcDbEntity
  8
ZUWAKU
100
AcDbLine
 10
24.59221216833714
 20
27.44999986828869
 30
0.0
 11
21.61721216833712
 21
27.44999986828869
 31
0.0
  0
LINE
  5
A95
330
1A
100
AcDbEntity
  8
ZUWAKU
100
AcDbLine
 10
18.29221216833719
 20
27.44999986828869
 30
0.0
 11
18.29221216833719
 21
25.63479784293335
 31
0.0
  0
ARC
  5
A96
330
1A
100
AcDbEntity
  8
ZUWAKU
100
AcDbCircle
 10
21.09221216833714
 20
27.44999986828869
 30
0.0
 40
2.799999999999999
100
AcDbArc
 50
90.0
 51
180.0
  0
LINE
  5
A97
330
1A
100
AcDbEntity
  8
ZUWAKU
100
AcDbLine
 10
25.11721216833712
 20
29.72499986828868
 30
0.0
 11
25.11721216833712
 21
27.97499986828869
 31
0.0
  0
ARC
  5
A98
330
1A
100
AcDbEntity
  8
ZUWAKU
100
AcDbCircle
 10
31.94221216833716
 20
26.04999986828869
 30
0.0
 40
1.399999999999999
100
AcDbArc
 50
90.0
 51
180.0
  0
ARC
  5
A99
330
1A
100
AcDbEntity
  8
ZUWAKU
100
AcDbCircle
 10
31.94221216833716
 20
26.04999986828865
 30
0.0
 40
4.199999999999999
100
AcDbArc
 50
90.0
 51
180.0
  0
LINE
  5
A9A
330
1A
100
AcDbEntity
  8
ZUWAKU
100
AcDbLine
 10
86.32662956154423
 20
36.99999986828868
 30
0.0
 11
86.32662956154446
 21
7.79999986828875
 31
0.0
  0
LINE
  5
A9B
330
1A
100
AcDbEntity
  8
ZUWAKU
100
AcDbLine
 10
86.52662956154427
 20
36.99999986828868
 30
0.0
 11
86.52662956154449
 21
7.79999986828875
 31
0.0
  0
LINE
  5
A9C
330
1A
100
AcDbEntity
  8
ZUWAKU
100
AcDbLine
 10
86.12662956154441
 20
36.99999986828868
 30
0.0
 11
86.12662956154441
 21
7.79999986828875
 31
0.0
  0
LINE
  5
A9D
330
1A
100
AcDbEntity
  8
ZUWAKU
100
AcDbLine
 10
71.14221216833721
 20
16.94999986828868
 30
0.0
 11
71.14221216833721
 21
29.72499986828868
 31
0.0
  0
LINE
  5
A9E
330
1A
100
AcDbEntity
  8
ZUWAKU
100
AcDbLine
 10
68.34221216833714
 20
29.72499986828868
 30
0.0
 11
68.34221216833714
 21
17.99999986828868
 31
0.0
  0
LINE
  5
A9F
330
1A
100
AcDbEntity
  8
ZUWAKU
100
AcDbLine
 10
76.04221216833718
 20
14.67499986828868
 30
0.0
 11
76.04221216833718
 21
29.72499986828868
 31
0.0
  0
LINE
  5
AA0
330
1A
100
AcDbEntity
  8
ZUWAKU
100
AcDbLine
 10
73.24221216833712
 20
29.72499986828868
 30
0.0
 11
73.24221216833712
 21
14.67499986828868
 31
0.0
  0
ARC
  5
AA1
330
1A
100
AcDbEntity
  8
ZUWAKU
100
AcDbCircle
 10
56.79221216833719
 20
25.63479784293339
 30
0.0
 40
1.399999999999999
100
AcDbArc
 50
180.0000000000016
 51
224.9999999999988
  0
ARC
  5
AA2
330
1A
100
AcDbEntity
  8
ZUWAKU
100
AcDbCircle
 10
56.79221216833719
 20
25.63479784293339
 30
0.0
 40
4.199999999999999
100
AcDbArc
 50
180.0
 51
225.0
  0
LINE
  5
AA3
330
1A
100
AcDbEntity
  8
ZUWAKU
100
AcDbLine
 10
44.31485865051513
 20
26.20504706185212
 30
0.0
 11
43.05010690517929
 21
22.19999986828871
 31
0.0
  0
LINE
  5
AA4
330
1A
100
AcDbEntity
  8
ZUWAKU
100
AcDbLine
 10
47.69221216833716
 20
29.72499986828868
 30
0.0
 11
47.69221216833716
 21
14.67499986828868
 31
0.0
  0
LINE
  5
AA5
330
1A
100
AcDbEntity
  8
ZUWAKU
100
AcDbLine
 10
50.49221216833712
 20
14.67499986828868
 30
0.0
 11
50.49221216833712
 21
29.72499986828868
 31
0.0
  0
LINE
  5
AA6
330
1A
100
AcDbEntity
  8
ZUWAKU
100
AcDbLine
 10
62.04221216833719
 20
29.72499986828868
 30
0.0
 11
62.04221216833719
 21
16.94999986828868
 31
0.0
  0
LINE
  5
AA7
330
1A
100
AcDbEntity
  8
ZUWAKU
100
AcDbLine
 10
64.84221216833714
 20
17.99999986828868
 30
0.0
 11
64.84221216833714
 21
29.72499986828868
 31
0.0
  0
LINE
  5
AA8
330
1A
100
AcDbEntity
  8
ZUWAKU
100
AcDbLine
 10
39.64221216833721
 20
24.12499986828869
 30
0.0
 11
39.64221216833721
 21
29.72499986828868
 31
0.0
  0
LINE
  5
AA9
330
1A
100
AcDbEntity
  8
ZUWAKU
100
AcDbLine
 10
36.84221216833714
 20
29.72499986828868
 30
0.0
 11
36.84221216833714
 21
14.67499986828868
 31
0.0
  0
LINE
  5
AAA
330
1A
100
AcDbEntity
  8
ZUWAKU
100
AcDbLine
 10
42.676347105653
 20
29.88309383645566
 30
0.0
 11
40.80807723102123
 21
23.96690590012171
 31
0.0
  0
LINE
  5
AAB
330
1A
100
AcDbEntity
  8
ZUWAKU
100
AcDbLine
 10
67.29221216833718
 20
16.94999986828868
 30
0.0
 11
65.8922121683372
 21
16.94999986828868
 31
0.0
  0
LINE
  5
AAC
330
1A
100
AcDbEntity
  8
ZUWAKU
100
AcDbLine
 10
64.84221216833714
 20
14.14999986828869
 30
0.0
 11
68.34221216833714
 21
14.14999986828869
 31
0.0
  0
LINE
  5
AAD
330
1A
100
AcDbEntity
  8
ZUWAKU
100
AcDbLine
 10
48.21721216833714
 20
14.14999986828869
 30
0.0
 11
49.96721216833714
 21
14.14999986828869
 31
0.0
  0
LINE
  5
AAE
330
1A
100
AcDbEntity
  8
ZUWAKU
100
AcDbLine
 10
42.676347105653
 20
14.51690590012171
 30
0.0
 11
40.80807723102123
 21
20.43309383645565
 31
0.0
  0
ARC
  5
AAF
330
1A
100
AcDbEntity
  8
ZUWAKU
100
AcDbCircle
 10
40.30744633182587
 20
24.12499986828869
 30
0.0
 40
0.525
100
AcDbArc
 50
270.0
 51
342.474431626277
  0
LINE
  5
AB0
330
1A
100
AcDbEntity
  8
ZUWAKU
100
AcDbLine
 10
40.30744633182587
 20
23.59999986828869
 30
0.0
 11
40.16721216833718
 21
23.59999986828869
 31
0.0
  0
LINE
  5
AB1
330
1A
100
AcDbEntity
  8
ZUWAKU
100
AcDbLine
 10
40.16721216833718
 20
20.79999986828869
 30
0.0
 11
40.30744633182587
 21
20.79999986828869
 31
0.0
  0
ARC
  5
AB2
330
1A
100
AcDbEntity
  8
ZUWAKU
100
AcDbCircle
 10
40.16721216833718
 20
24.12499986828869
 30
0.0
 40
0.525
100
AcDbArc
 50
180.0
 51
270.0
  0
LINE
  5
AB3
330
1A
100
AcDbEntity
  8
ZUWAKU
100
AcDbLine
 10
37.36721216833712
 20
14.14999986828869
 30
0.0
 11
39.11721216833712
 21
14.14999986828869
 31
0.0
  0
ARC
  5
AB4
330
1A
100
AcDbEntity
  8
ZUWAKU
100
AcDbCircle
 10
39.11721216833712
 20
14.67499986828868
 30
0.0
 40
0.525
100
AcDbArc
 50
270.0
 51
0.0
  0
LINE
  5
AB5
330
1A
100
AcDbEntity
  8
ZUWAKU
100
AcDbLine
 10
39.64221216833721
 20
14.67499986828868
 30
0.0
 11
39.64221216833721
 21
20.27499986828869
 31
0.0
  0
LINE
  5
AB6
330
1A
100
AcDbEntity
  8
ZUWAKU
100
AcDbLine
 10
34.39221216833721
 20
16.42499986828869
 30
0.0
 11
34.39221216833721
 21
14.67499986828868
 31
0.0
  0
ARC
  5
AB7
330
1A
100
AcDbEntity
  8
ZUWAKU
100
AcDbCircle
 10
33.86721216833712
 20
14.67499986828868
 30
0.0
 40
0.525
100
AcDbArc
 50
270.0
 51
0.0
  0
ARC
  5
AB8
330
1A
100
AcDbEntity
  8
ZUWAKU
100
AcDbCircle
 10
33.86721216833712
 20
16.42499986828869
 30
0.0
 40
0.525
100
AcDbArc
 50
0.0
 51
90.0
  0
ARC
  5
AB9
330
1A
100
AcDbEntity
  8
ZUWAKU
100
AcDbCircle
 10
37.36721216833712
 20
14.67499986828868
 30
0.0
 40
0.525
100
AcDbArc
 50
180.0
 51
270.0
  0
ARC
  5
ABA
330
1A
100
AcDbEntity
  8
ZUWAKU
100
AcDbCircle
 10
40.30744633182587
 20
20.27499986828869
 30
0.0
 40
0.525
100
AcDbArc
 50
17.52556837372303
 51
90.0
  0
ARC
  5
ABB
330
1A
100
AcDbEntity
  8
ZUWAKU
100
AcDbCircle
 10
40.16721216833718
 20
20.27499986828869
 30
0.0
 40
0.525
100
AcDbArc
 50
90.0
 51
180.0
  0
ARC
  5
ABC
330
1A
100
AcDbEntity
  8
ZUWAKU
100
AcDbCircle
 10
48.21721216833714
 20
14.67499986828868
 30
0.0
 40
0.525
100
AcDbArc
 50
180.0
 51
270.0
  0
LINE
  5
ABD
330
1A
100
AcDbEntity
  8
ZUWAKU
100
AcDbLine
 10
43.17697800484848
 20
14.14999986828869
 30
0.0
 11
44.87586738445748
 21
14.14999986828869
 31
0.0
  0
ARC
  5
ABE
330
1A
100
AcDbEntity
  8
ZUWAKU
100
AcDbCircle
 10
44.87586738445748
 20
14.67499986828868
 30
0.0
 40
0.525
100
AcDbArc
 50
270.0
 51
17.52556837372303
  0
LINE
  5
ABF
330
1A
100
AcDbEntity
  8
ZUWAKU
100
AcDbLine
 10
45.37649828365295
 20
14.83309383645566
 30
0.0
 11
43.05010690517929
 21
22.19999986828871
 31
0.0
  0
ARC
  5
AC0
330
1A
100
AcDbEntity
  8
ZUWAKU
100
AcDbCircle
 10
43.17697800484848
 20
14.67499986828868
 30
0.0
 40
0.525
100
AcDbArc
 50
197.525568373723
 51
270.0
  0
ARC
  5
AC1
330
1A
100
AcDbEntity
  8
ZUWAKU
100
AcDbCircle
 10
64.84221216833714
 20
16.94999986828868
 30
0.0
 40
2.799999999999999
100
AcDbArc
 50
180.0
 51
270.0
  0
ARC
  5
AC2
330
1A
100
AcDbEntity
  8
ZUWAKU
100
AcDbCircle
 10
57.1422121683372
 20
16.94999986828868
 30
0.0
 40
2.799999999999999
100
AcDbArc
 50
270.0
 51
0.0
  0
LINE
  5
AC3
330
1A
100
AcDbEntity
  8
ZUWAKU
100
AcDbLine
 10
58.71206064932073
 20
21.73505037462751
 30
0.0
 11
55.80226267467594
 21
24.64484834927219
 31
0.0
  0
LINE
  5
AC4
330
1A
100
AcDbEntity
  8
ZUWAKU
100
AcDbLine
 10
57.1422121683372
 20
17.47499986828869
 30
0.0
 11
57.1422121683372
 21
18.76520189364403
 31
0.0
  0
ARC
  5
AC5
330
1A
100
AcDbEntity
  8
ZUWAKU
100
AcDbCircle
 10
55.74221216833712
 20
18.76520189364403
 30
0.0
 40
1.399999999999999
100
AcDbArc
 50
0.0
 51
45.0
  0
ARC
  5
AC6
330
1A
100
AcDbEntity
  8
ZUWAKU
100
AcDbCircle
 10
56.61721216833711
 20
17.47499986828869
 30
0.0
 40
0.525
100
AcDbArc
 50
270.0
 51
0.0
  0
LINE
  5
AC7
330
1A
100
AcDbEntity
  8
ZUWAKU
100
AcDbLine
 10
53.11721216833712
 20
14.67499986828868
 30
0.0
 11
53.11721216833712
 21
16.42499986828869
 31
0.0
  0
ARC
  5
AC8
330
1A
100
AcDbEntity
  8
ZUWAKU
100
AcDbCircle
 10
53.64221216833721
 20
14.67499986828868
 30
0.0
 40
0.525
100
AcDbArc
 50
180.0
 51
270.0
  0
ARC
  5
AC9
330
1A
100
AcDbEntity
  8
ZUWAKU
100
AcDbCircle
 10
49.96721216833714
 20
14.67499986828868
 30
0.0
 40
0.525
100
AcDbArc
 50
270.0
 51
0.0
  0
ARC
  5
ACA
330
1A
100
AcDbEntity
  8
ZUWAKU
100
AcDbCircle
 10
53.64221216833721
 20
16.42499986828869
 30
0.0
 40
0.525
100
AcDbArc
 50
90.0
 51
180.0
  0
LINE
  5
ACB
330
1A
100
AcDbEntity
  8
ZUWAKU
100
AcDbLine
 10
53.64221216833721
 20
16.94999986828868
 30
0.0
 11
56.61721216833711
 21
16.94999986828868
 31
0.0
  0
LINE
  5
ACC
330
1A
100
AcDbEntity
  8
ZUWAKU
100
AcDbLine
 10
53.64221216833721
 20
14.14999986828869
 30
0.0
 11
57.1422121683372
 21
14.14999986828869
 31
0.0
  0
LINE
  5
ACD
330
1A
100
AcDbEntity
  8
ZUWAKU
100
AcDbLine
 10
53.82236368735369
 20
22.66494936194987
 30
0.0
 11
56.73216166199836
 21
19.7551513873052
 31
0.0
  0
LINE
  5
ACE
330
1A
100
AcDbEntity
  8
ZUWAKU
100
AcDbLine
 10
59.94221216833716
 20
16.94999986828868
 30
0.0
 11
59.94221216833716
 21
18.76520189364403
 31
0.0
  0
ARC
  5
ACF
330
1A
100
AcDbEntity
  8
ZUWAKU
100
AcDbCircle
 10
55.74221216833712
 20
18.76520189364399
 30
0.0
 40
4.199999999999999
100
AcDbArc
 50
0.0
 51
45.0
  0
ARC
  5
AD0
330
1A
100
AcDbEntity
  8
ZUWAKU
100
AcDbCircle
 10
65.8922121683372
 20
17.99999986828868
 30
0.0
 40
1.049999999999999
100
AcDbArc
 50
180.0
 51
270.0
  0
ARC
  5
AD1
330
1A
100
AcDbEntity
  8
ZUWAKU
100
AcDbCircle
 10
68.34221216833714
 20
16.94999986828868
 30
0.0
 40
2.799999999999999
100
AcDbArc
 50
270.0
 51
0.0
  0
LINE
  5
AD2
330
1A
100
AcDbEntity
  8
ZUWAKU
100
AcDbLine
 10
73.76721216833721
 20
14.14999986828869
 30
0.0
 11
75.51721216833721
 21
14.14999986828869
 31
0.0
  0
ARC
  5
AD3
330
1A
100
AcDbEntity
  8
ZUWAKU
100
AcDbCircle
 10
73.76721216833721
 20
14.67499986828868
 30
0.0
 40
0.525
100
AcDbArc
 50
180.0
 51
270.0
  0
ARC
  5
AD4
330
1A
100
AcDbEntity
  8
ZUWAKU
100
AcDbCircle
 10
67.29221216833718
 20
17.99999986828868
 30
0.0
 40
1.049999999999999
100
AcDbArc
 50
270.0
 51
0.0
  0
ARC
  5
AD5
330
1A
100
AcDbEntity
  8
ZUWAKU
100
AcDbCircle
 10
75.51721216833721
 20
14.67499986828868
 30
0.0
 40
0.525
100
AcDbArc
 50
270.0
 51
0.0
  0
LINE
  5
AD6
330
1A
100
AcDbEntity
  8
ZUWAKU
100
AcDbLine
 10
49.96721216833714
 20
30.24999986828869
 30
0.0
 11
48.21721216833714
 21
30.24999986828869
 31
0.0
  0
ARC
  5
AD7
330
1A
100
AcDbEntity
  8
ZUWAKU
100
AcDbCircle
 10
39.11721216833712
 20
29.72499986828868
 30
0.0
 40
0.525
100
AcDbArc
 50
0.0
 51
90.0
  0
LINE
  5
AD8
330
1A
100
AcDbEntity
  8
ZUWAKU
100
AcDbLine
 10
39.11721216833712
 20
30.24999986828869
 30
0.0
 11
37.36721216833712
 21
30.24999986828869
 31
0.0
  0
ARC
  5
AD9
330
1A
100
AcDbEntity
  8
ZUWAKU
100
AcDbCircle
 10
33.86721216833712
 20
29.72499986828868
 30
0.0
 40
0.525
100
AcDbArc
 50
0.0
 51
90.0
  0
ARC
  5
ADA
330
1A
100
AcDbEntity
  8
ZUWAKU
100
AcDbCircle
 10
37.36721216833712
 20
29.72499986828868
 30
0.0
 40
0.525
100
AcDbArc
 50
90.0
 51
180.0
  0
ARC
  5
ADB
330
1A
100
AcDbEntity
  8
ZUWAKU
100
AcDbCircle
 10
33.86721216833712
 20
27.97499986828869
 30
0.0
 40
0.525
100
AcDbArc
 50
270.0
 51
0.0
  0
LINE
  5
ADC
330
1A
100
AcDbEntity
  8
ZUWAKU
100
AcDbLine
 10
34.39221216833721
 20
29.72499986828868
 30
0.0
 11
34.39221216833721
 21
27.97499986828869
 31
0.0
  0
ARC
  5
ADD
330
1A
100
AcDbEntity
  8
ZUWAKU
100
AcDbCircle
 10
48.21721216833714
 20
29.72499986828868
 30
0.0
 40
0.525
100
AcDbArc
 50
90.0
 51
180.0
  0
LINE
  5
ADE
330
1A
100
AcDbEntity
  8
ZUWAKU
100
AcDbLine
 10
43.17697800484848
 20
30.24999986828869
 30
0.0
 11
44.87586738445748
 21
30.24999986828869
 31
0.0
  0
ARC
  5
ADF
330
1A
100
AcDbEntity
  8
ZUWAKU
100
AcDbCircle
 10
44.87586738445748
 20
29.72499986828868
 30
0.0
 40
0.525
100
AcDbArc
 50
342.474431626277
 51
90.0
  0
LINE
  5
AE0
330
1A
100
AcDbEntity
  8
ZUWAKU
100
AcDbLine
 10
45.37649828365295
 20
29.56690590012172
 30
0.0
 11
44.31485865051513
 21
26.20504706185212
 31
0.0
  0
ARC
  5
AE1
330
1A
100
AcDbEntity
  8
ZUWAKU
100
AcDbCircle
 10
43.17697800484848
 20
29.72499986828868
 30
0.0
 40
0.525
100
AcDbArc
 50
90.0
 51
162.474431626277
  0
LINE
  5
AE2
330
1A
100
AcDbEntity
  8
ZUWAKU
100
AcDbLine
 10
55.39221216833721
 20
30.24999986828869
 30
0.0
 11
58.89221216833721
 21
30.24999986828869
 31
0.0
  0
LINE
  5
AE3
330
1A
100
AcDbEntity
  8
ZUWAKU
100
AcDbLine
 10
58.89221216833721
 20
27.44999986828869
 30
0.0
 11
55.91721216833718
 21
27.44999986828869
 31
0.0
  0
ARC
  5
AE4
330
1A
100
AcDbEntity
  8
ZUWAKU
100
AcDbCircle
 10
55.91721216833718
 20
26.92499986828869
 30
0.0
 40
0.525
100
AcDbArc
 50
90.0
 51
180.0
  0
LINE
  5
AE5
330
1A
100
AcDbEntity
  8
ZUWAKU
100
AcDbLine
 10
55.39221216833721
 20
26.92499986828869
 30
0.0
 11
55.39221216833721
 21
25.63479784293335
 31
0.0
  0
ARC
  5
AE6
330
1A
100
AcDbEntity
  8
ZUWAKU
100
AcDbCircle
 10
49.96721216833714
 20
29.72499986828868
 30
0.0
 40
0.525
100
AcDbArc
 50
0.0
 51
90.0
  0
LINE
  5
AE7
330
1A
100
AcDbEntity
  8
ZUWAKU
100
AcDbLine
 10
52.59221216833714
 20
27.44999986828869
 30
0.0
 11
52.59221216833714
 21
25.63479784293335
 31
0.0
  0
ARC
  5
AE8
330
1A
100
AcDbEntity
  8
ZUWAKU
100
AcDbCircle
 10
55.39221216833721
 20
27.44999986828869
 30
0.0
 40
2.799999999999999
100
AcDbArc
 50
90.0
 51
180.0
  0
ARC
  5
AE9
330
1A
100
AcDbEntity
  8
ZUWAKU
100
AcDbCircle
 10
64.31721216833716
 20
29.72499986828868
 30
0.0
 40
0.525
100
AcDbArc
 50
0.0
 51
90.0
  0
ARC
  5
AEA
330
1A
100
AcDbEntity
  8
ZUWAKU
100
AcDbCircle
 10
62.56721216833716
 20
29.72499986828868
 30
0.0
 40
0.525
100
AcDbArc
 50
90.0
 51
180.0
  0
LINE
  5
AEB
330
1A
100
AcDbEntity
  8
ZUWAKU
100
AcDbLine
 10
64.31721216833716
 20
30.24999986828869
 30
0.0
 11
62.56721216833716
 21
30.24999986828869
 31
0.0
  0
ARC
  5
AEC
330
1A
100
AcDbEntity
  8
ZUWAKU
100
AcDbCircle
 10
58.89221216833721
 20
29.72499986828868
 30
0.0
 40
0.525
100
AcDbArc
 50
0.0
 51
90.0
  0
ARC
  5
AED
330
1A
100
AcDbEntity
  8
ZUWAKU
100
AcDbCircle
 10
58.89221216833721
 20
27.97499986828869
 30
0.0
 40
0.525
100
AcDbArc
 50
270.0
 51
0.0
  0
LINE
  5
AEE
330
1A
100
AcDbEntity
  8
ZUWAKU
100
AcDbLine
 10
59.41721216833719
 20
29.72499986828868
 30
0.0
 11
59.41721216833719
 21
27.97499986828869
 31
0.0
  0
LINE
  5
AEF
330
1A
100
AcDbEntity
  8
ZUWAKU
100
AcDbLine
 10
75.51721216833721
 20
30.24999986828869
 30
0.0
 11
73.76721216833721
 21
30.24999986828869
 31
0.0
  0
ARC
  5
AF0
330
1A
100
AcDbEntity
  8
ZUWAKU
100
AcDbCircle
 10
73.76721216833721
 20
29.72499986828868
 30
0.0
 40
0.525
100
AcDbArc
 50
90.0
 51
180.0
  0
ARC
  5
AF1
330
1A
100
AcDbEntity
  8
ZUWAKU
100
AcDbCircle
 10
70.61721216833712
 20
29.72499986828868
 30
0.0
 40
0.525
100
AcDbArc
 50
0.0
 51
90.0
  0
LINE
  5
AF2
330
1A
100
AcDbEntity
  8
ZUWAKU
100
AcDbLine
 10
70.61721216833712
 20
30.24999986828869
 30
0.0
 11
68.86721216833712
 21
30.24999986828869
 31
0.0
  0
ARC
  5
AF3
330
1A
100
AcDbEntity
  8
ZUWAKU
100
AcDbCircle
 10
68.86721216833712
 20
29.72499986828868
 30
0.0
 40
0.525
100
AcDbArc
 50
90.0
 51
180.0
  0
ARC
  5
AF4
330
1A
100
AcDbEntity
  8
ZUWAKU
100
AcDbCircle
 10
75.51721216833721
 20
29.72499986828868
 30
0.0
 40
0.525
100
AcDbArc
 50
0.0
 51
90.0
  0
LINE
  5
AF7
330
1A
100
AcDbEntity
  8
ZUWAKU
100
AcDbLine
 10
215.246601303624
 20
36.99999986828868
 30
0.0
 11
215.246601303624
 21
7.79999986828875
 31
0.0
  0
LINE
  5
AF8
330
1A
100
AcDbEntity
  8
ZUWAKU
100
AcDbLine
 10
215.6466013036238
 20
36.99999986828868
 30
0.0
 11
215.646601303624
 21
7.79999986828875
 31
0.0
  0
LINE
  5
AF9
330
1A
100
AcDbEntity
  8
ZUWAKU
100
AcDbLine
 10
215.4466013036238
 20
36.99999986828868
 30
0.0
 11
215.446601303624
 21
7.79999986828875
 31
0.0
  0
TEXT
  5
AFA
330
1A
100
AcDbEntity
  8
ZUWAKU
100
AcDbText
 10
216.7240463258336
 20
16.6553564066743
 30
0.0
 40
4.0
  1
サイズ
 41
0.9
  7
ｽﾀｲﾙ1
100
AcDbText
  0
TEXT
  5
AFB
330
1A
100
AcDbEntity
  8
ZUWAKU
100
AcDbText
 10
216.7240463258333
 20
31.05535640667426
 30
0.0
 40
4.0
  1
品名
 41
0.9
  7
ｽﾀｲﾙ1
100
AcDbText
  0
LINE
  5
AFC
330
1A
100
AcDbEntity
  8
ZUWAKU
100
AcDbLine
 10
655.8172025237602
 20
22.19999986828872
 30
0.0
 11
704.2490105620973
 21
22.19999986828872
 31
0.0
  0
LINE
  5
AFD
330
1A
100
AcDbEntity
  8
ZUWAKU
100
AcDbLine
 10
655.8172025237604
 20
22.39999986828872
 30
0.0
 11
704.2490105620973
 21
22.39999986828872
 31
0.0
  0
LINE
  5
AFE
330
1A
100
AcDbEntity
  8
ZUWAKU
100
AcDbLine
 10
655.8172025237602
 20
22.59999986828872
 30
0.0
 11
704.2490105620973
 21
22.59999986828872
 31
0.0
  0
TEXT
  5
AFF
330
1A
100
AcDbEntity
  8
ZUWAKU
100
AcDbText
 10
665.2039377008584
 20
25.00492092569607
 30
0.0
 40
5.599999999999999
  1
　　．　　．　　
 41
0.9
  7
ｽﾀｲﾙ1
100
AcDbText
  0
LINE
  5
B00
330
1A
100
AcDbEntity
  8
ZUWAKU
100
AcDbLine
 10
512.1991795116969
 20
22.19999986828872
 30
0.0
 11
559.5269557796684
 21
22.19999986828872
 31
0.0
  0
LINE
  5
B01
330
1A
100
AcDbEntity
  8
ZUWAKU
100
AcDbLine
 10
512.1991795116969
 20
22.39999986828872
 30
0.0
 11
559.5269557796684
 21
22.39999986828872
 31
0.0
  0
LINE
  5
B02
330
1A
100
AcDbEntity
  8
ZUWAKU
100
AcDbLine
 10
512.1991795116969
 20
22.59999986828872
 30
0.0
 11
559.5269557796684
 21
22.59999986828872
 31
0.0
  0
TEXT
  5
B03
330
1A
100
AcDbEntity
  8
moji
100
AcDbText
 10
470.2464320045581
 20
18.94261758994867
 30
0.0
 40
5.599999999999999
  1
ＰＦ０３□
 41
0.9
  7
ｽﾀｲﾙ1
100
AcDbText
  0
LINE
  5
B04
330
1A
100
AcDbEntity
  8
ZUWAKU
100
AcDbLine
 10
454.6243639845472
 20
36.99999986828868
 30
0.0
 11
454.6243639845474
 21
7.79999986828875
 31
0.0
  0
LINE
  5
B05
330
1A
100
AcDbEntity
  8
ZUWAKU
100
AcDbLine
 10
454.8243639845472
 20
36.99999986828868
 30
0.0
 11
454.8243639845475
 21
7.79999986828875
 31
0.0
  0
LINE
  5
B06
330
1A
100
AcDbEntity
  8
ZUWAKU
100
AcDbLine
 10
454.4243639845474
 20
36.99999986828868
 30
0.0
 11
454.4243639845474
 21
7.79999986828875
 31
0.0
  0
TEXT
  5
B07
330
1A
100
AcDbEntity
  8
moji
100
AcDbText
 10
535.0409079858689
 20
25.00492092569607
 30
0.0
 40
5.599999999999999
  1
Ａ３
 41
0.9
  7
ｽﾀｲﾙ1
100
AcDbText
  0
LINE
  5
B08
330
1A
100
AcDbEntity
  8
ZUWAKU
100
AcDbLine
 10
511.9991795116968
 20
36.99999986828868
 30
0.0
 11
511.9991795116971
 21
7.79999986828875
 31
0.0
  0
LINE
  5
B09
330
1A
100
AcDbEntity
  8
ZUWAKU
100
AcDbLine
 10
512.1991795116969
 20
36.99999986828868
 30
0.0
 11
512.1991795116971
 21
7.79999986828875
 31
0.0
  0
LINE
  5
B0A
330
1A
100
AcDbEntity
  8
ZUWAKU
100
AcDbLine
 10
511.799179511697
 20
36.99999986828868
 30
0.0
 11
511.799179511697
 21
7.79999986828875
 31
0.0
  0
TEXT
  5
B0B
330
1A
100
AcDbEntity
  8
ZUWAKU
100
AcDbText
 10
467.3805048888227
 20
9.614070779428175
 30
0.0
 40
3.0
  1
□には色品番が入ります
 41
0.9
  7
ｽﾀｲﾙ1
100
AcDbText
  0
TEXT
  5
B0C
330
1A
100
AcDbEntity
  8
ZUWAKU
100
AcDbText
 10
513.6766245339067
 20
16.6553564066743
 30
0.0
 40
4.0
  1
縮尺
 41
0.9
  7
ｽﾀｲﾙ1
100
AcDbText
  0
TEXT
  5
B0D
330
1A
100
AcDbEntity
  8
moji
100
AcDbText
 10
535.0409079858689
 20
10.2049209256961
 30
0.0
 40
5.599999999999999
  1
１/２
 41
0.9
  7
ｽﾀｲﾙ1
100
AcDbText
  0
TEXT
  5
B0E
330
1A
100
AcDbEntity
  8
ZUWAKU
100
AcDbText
 10
456.3018090067568
 20
31.05535640667426
 30
0.0
 40
4.0
  1
品番
 41
0.9
  7
ｽﾀｲﾙ1
100
AcDbText
  0
TEXT
  5
B0F
330
1A
100
AcDbEntity
  8
ZUWAKU
100
AcDbText
 10
513.6766245339065
 20
31.05535640667426
 30
0.0
 40
4.0
  1
用紙
 41
0.9
  7
ｽﾀｲﾙ1
100
AcDbText
  0
LINE
  5
B10
330
1A
100
AcDbEntity
  8
ZUWAKU
100
AcDbLine
 10
655.6172025237604
 20
36.99999986828868
 30
0.0
 11
655.6172025237606
 21
7.79999986828875
 31
0.0
  0
LINE
  5
B11
330
1A
100
AcDbEntity
  8
ZUWAKU
100
AcDbLine
 10
655.8172025237604
 20
36.99999986828868
 30
0.0
 11
655.8172025237606
 21
7.79999986828875
 31
0.0
  0
LINE
  5
B12
330
1A
100
AcDbEntity
  8
ZUWAKU
100
AcDbLine
 10
655.4172025237606
 20
36.99999986828868
 30
0.0
 11
655.4172025237606
 21
7.79999986828875
 31
0.0
  0
LINE
  5
B13
330
1A
100
AcDbEntity
  8
ZUWAKU
100
AcDbLine
 10
559.7269557796683
 20
36.99999986828868
 30
0.0
 11
559.7269557796685
 21
7.79999986828875
 31
0.0
  0
LINE
  5
B14
330
1A
100
AcDbEntity
  8
ZUWAKU
100
AcDbLine
 10
559.9269557796683
 20
36.99999986828868
 30
0.0
 11
559.9269557796685
 21
7.79999986828875
 31
0.0
  0
LINE
  5
B15
330
1A
100
AcDbEntity
  8
ZUWAKU
100
AcDbLine
 10
559.5269557796684
 20
36.99999986828868
 30
0.0
 11
559.5269557796684
 21
7.79999986828875
 31
0.0
  0
TEXT
  5
B16
330
1A
100
AcDbEntity
  8
ZUWAKU
100
AcDbText
 10
657.29464754597
 20
31.05535640667426
 30
0.0
 40
4.0
  1
DATE
 41
0.9
  7
ｽﾀｲﾙ1
100
AcDbText
  0
LINE
  5
B17
330
1A
100
AcDbEntity
  8
ZUWAKU
100
AcDbLine
 10
704.2490105620973
 20
36.99999986828868
 30
0.0
 11
704.2490105620973
 21
7.79999986828875
 31
0.0
  0
LINE
  5
B18
330
1A
100
AcDbEntity
  8
ZUWAKU
100
AcDbLine
 10
704.4490105620972
 20
36.99999986828868
 30
0.0
 11
704.4490105620972
 21
7.79999986828875
 31
0.0
  0
LINE
  5
B19
330
1A
100
AcDbEntity
  8
ZUWAKU
100
AcDbLine
 10
704.6490105620971
 20
36.99999986828868
 30
0.0
 11
704.6490105620973
 21
7.79999986828875
 31
0.0
  0
LINE
  5
B1A
330
1A
100
AcDbEntity
  8
ZUWAKU
100
AcDbLine
 10
704.8490105620971
 20
36.99999986828868
 30
0.0
 11
704.8490105620974
 21
7.79999986828875
 31
0.0
  0
TEXT
  5
B1B
330
1A
100
AcDbEntity
  8
ZUWAKU
100
AcDbText
 10
714.0785583162885
 20
19.44013415951622
 30
0.0
 40
6.0
  1
積水化学工業株式会社
 41
0.9
  7
ｽﾀｲﾙ1
100
AcDbText
  0
DIMENSION
  5
11C4
330
1A
100
AcDbEntity
  8
SUNPOU
100
AcDbDimension
  2
*D1
 10
449.6948860118732
 20
400.7173848421028
 30
0.0
 11
417.7441360118733
 21
405.7173848421028
 31
0.0
 70
    32
 71
     5
 42
-1.0
  3
STANDARD
100
AcDbAlignedDimension
 13
385.7933860118733
 23
364.6039165125937
 33
0.0
 14
449.6948860118732
 24
364.6035165125935
 34
0.0
100
AcDbRotatedDimension
1001
ACAD
1000
DSTYLE
1002
{
1070
    41
1040
7.0
1070
    42
1040
6.0
1070
    43
1040
14.0
1070
    44
1040
3.0
1070
    73
1070
     0
1070
    74
1070
     0
1070
    77
1070
     3
1070
   140
1040
6.0
1070
   141
1040
150.0
1070
   147
1040
2.0
1070
   172
1070
     1
1070
   173
1070
     1
1070
   176
1070
   256
1070
   177
1070
   256
1070
   178
1070
   256
1070
   271
1070
     0
1070
   272
1070
     0
1070
   341
1005
6D
1070
     6
1000
OPEN
1070
     7
1000
OPEN
1070
   371
1070
    -1
1070
   372
1070
    -1
1002
}
  0
LINE
  5
11C5
330
1A
100
AcDbEntity
  8
SEIHIN
  6
Continuous
 62
     3
 48
5.0
100
AcDbLine
 10
385.7946860118734
 20
324.6037165125934
 30
0.0
 11
449.6946860118734
 21
324.6037165125934
 31
0.0
  0
ARC
  5
11C6
330
1A
100
AcDbEntity
  8
SEIHIN
  6
Continuous
 62
     3
 48
5.0
100
AcDbCircle
 10
417.0861914461493
 20
354.490219827656
 30
0.0
 40
26.89441704768888
100
AcDbArc
 50
271.3987328393757
 51
331.369992812382
  0
LINE
  5
11C7
330
1A
100
AcDbEntity
  8
SEIHIN
  6
Continuous
 62
     3
 48
5.0
100
AcDbLine
 10
385.7948860118733
 20
364.6039165125937
 30
0.0
 11
449.6948860118732
 21
364.6035165125935
 31
0.0
  0
ARC
  5
11C8
330
1A
100
AcDbEntity
  8
SEIHIN
  6
Continuous
 62
     3
 48
5.0
100
AcDbCircle
 10
417.7447860119553
 20
281.2835165126756
 30
0.0
 40
30.50000000008191
100
AcDbArc
 50
269.9999999998437
 51
359.9998121448312
  0
ARC
  5
11C9
330
1A
100
AcDbEntity
  8
SEIHIN
  6
Continuous
 62
     3
 48
5.0
100
AcDbCircle
 10
417.7447860148345
 20
281.2834665125937
 30
0.0
 40
27.49999999708415
100
AcDbArc
 50
0.0001041741443803
 51
359.9998958258556
  0
ARC
  5
11CA
330
1A
100
AcDbEntity
  8
SEIHIN
  6
Continuous
 62
     3
 48
5.0
100
AcDbCircle
 10
417.7448134563103
 20
293.6332165129179
 30
0.0
 40
27.49998756336943
100
AcDbArc
 50
195.346433960798
 51
344.6531339345585
  0
ARC
  5
11CB
330
1A
100
AcDbEntity
  8
SEIHIN
  6
Continuous
 62
     3
 48
5.0
100
AcDbCircle
 10
417.7447860043087
 20
281.2834665125937
 30
0.0
 40
28.50000000760852
100
AcDbArc
 50
0.0001005189113013
 51
359.9998994810887
  0
ARC
  5
11CC
330
1A
100
AcDbEntity
  8
SEIHIN
  6
Continuous
 62
     3
 48
5.0
100
AcDbCircle
 10
417.7447860176596
 20
281.2834665125937
 30
0.0
 40
26.99999999426003
100
AcDbArc
 50
0.0001061032952172
 51
359.9998938967046
  0
LINE
  5
11CD
330
1A
100
AcDbEntity
  8
SEIHIN
  6
Continuous
 62
     3
 48
5.0
100
AcDbLine
 10
417.7447860118734
 20
249.2835165125936
 30
0.0
 11
439.7218860118734
 21
249.2835165125936
 31
0.0
  0
LINE
  5
11CE
330
1A
100
AcDbEntity
  8
SEIHIN
  6
Continuous
 62
     3
 48
5.0
100
AcDbLine
 10
417.7447860118734
 20
250.9335165125936
 30
0.0
 11
438.0410860118733
 21
250.9335165125936
 31
0.0
  0
LINE
  5
11CF
330
1A
100
AcDbEntity
  8
CENTER　L
  6
CENTER
 62
     1
 48
5.0
100
AcDbLine
 10
417.7447860118734
 20
281.2835165125937
 30
0.0
 11
457.7447860118732
 21
281.2835165125937
 31
0.0
  0
LINE
  5
11D0
330
1A
100
AcDbEntity
  8
SEIHIN
  6
Continuous
 62
     3
 48
5.0
100
AcDbLine
 10
417.7447860118734
 20
313.2835165125935
 30
0.0
 11
439.7218860118734
 21
313.2836165125937
 31
0.0
  0
LINE
  5
11D1
330
1A
100
AcDbEntity
  8
SEIHIN
  6
Continuous
 62
     3
 48
5.0
100
AcDbLine
 10
417.7447860118734
 20
311.6335165125935
 30
0.0
 11
438.0410860118733
 21
311.6335165125935
 31
0.0
  0
ARC
  5
11D2
330
1A
100
AcDbEntity
  8
SEIHIN
  6
Continuous
 62
     3
 48
5.0
100
AcDbCircle
 10
417.7447860117913
 20
281.2835165126756
 30
0.0
 40
30.50000000008186
100
AcDbArc
 50
359.9999999998461
 51
89.99981214483051
  0
ARC
  5
11D3
330
1A
100
AcDbEntity
  8
SEIHIN
  6
Continuous
 62
     3
 48
5.0
100
AcDbCircle
 10
417.7447860118734
 20
284.6035165125934
 30
0.0
 40
31.99996628513847
100
AcDbArc
 50
63.66956445413381
 51
116.3304355458662
  0
DIMENSION
  5
11D7
330
1A
100
AcDbEntity
  8
SUNPOU
100
AcDbDimension
  2
*D2
 10
322.7520645031893
 20
249.3333165125935
 30
0.0
 11
317.7520645031893
 21
281.2826665125937
 31
0.0
 70
    32
 71
     5
 42
-1.0
  3
STANDARD
100
AcDbAlignedDimension
 13
289.2856134840147
 23
313.2320165125936
 33
0.0
 14
289.2853134840148
 24
249.3333165125936
 34
0.0
 50
90.0
100
AcDbRotatedDimension
1001
ACAD
1000
DSTYLE
1002
{
1070
    41
1040
7.0
1070
    42
1040
6.0
1070
    43
1040
14.0
1070
    44
1040
3.0
1070
    73
1070
     0
1070
    74
1070
     0
1070
    77
1070
     3
1070
   140
1040
6.0
1070
   141
1040
150.0
1070
   147
1040
2.0
1070
   172
1070
     1
1070
   173
1070
     1
1070
   176
1070
   256
1070
   177
1070
   256
1070
   178
1070
   256
1070
   271
1070
     0
1070
   272
1070
     0
1070
   341
1005
6D
1070
     6
1000
OPEN
1070
     7
1000
OPEN
1070
   371
1070
    -1
1070
   372
1070
    -1
1002
}
  0
DIMENSION
  5
11D8
330
1A
100
AcDbEntity
  8
SUNPOU
100
AcDbDimension
  2
*D3
 10
342.9524239135956
 20
281.2834165125936
 30
0.0
 11
337.9524239135955
 21
322.9433665125937
 31
0.0
 70
    32
 71
     5
 42
-1.0
  3
STANDARD
100
AcDbAlignedDimension
 13
251.1499134840148
 23
364.6033165125937
 33
0.0
 14
302.1173134840148
 24
281.2834165125936
 34
0.0
 50
90.0
100
AcDbRotatedDimension
1001
ACAD
1000
DSTYLE
1002
{
1070
    41
1040
7.0
1070
    42
1040
6.0
1070
    43
1040
14.0
1070
    44
1040
3.0
1070
    73
1070
     0
1070
    74
1070
     0
1070
    77
1070
     3
1070
   140
1040
6.0
1070
   141
1040
150.0
1070
   147
1040
2.0
1070
   172
1070
     1
1070
   173
1070
     1
1070
   176
1070
   256
1070
   177
1070
   256
1070
   178
1070
   256
1070
   271
1070
     0
1070
   272
1070
     0
1070
   341
1005
6D
1070
     6
1000
OPEN
1070
     7
1000
OPEN
1070
   371
1070
    -1
1070
   372
1070
    -1
1002
}
  0
ARC
  5
11D9
330
1A
100
AcDbEntity
  8
SEIHIN
  6
Continuous
 62
     3
 48
5.0
100
AcDbCircle
 10
385.8177580967806
 20
313.2832888011915
 30
0.0
 40
9.000028005528411
100
AcDbArc
 50
275.3191171607471
 51
354.2616645701779
  0
ARC
  5
11DA
330
1A
100
AcDbEntity
  8
SEIHIN
  6
Continuous
 62
     3
 48
5.0
100
AcDbCircle
 10
385.7448360116016
 20
313.2835665128653
 30
0.0
 40
11.00001859690023
100
AcDbArc
 50
282.757872433652
 51
347.242127566345
  0
ARC
  5
11DB
330
1A
100
AcDbEntity
  8
SEIHIN
  6
Continuous
 62
     3
 48
5.0
100
AcDbCircle
 10
417.7447860118731
 20
281.2835165125936
 30
0.0
 40
30.49999999999998
100
AcDbArc
 50
90.0
 51
180.0
  0
LINE
  5
11DC
330
1A
100
AcDbEntity
  8
CENTER　L
  6
CENTER
 62
     1
 48
5.0
100
AcDbLine
 10
417.7447860118734
 20
281.2835165125937
 30
0.0
 11
417.7447860118734
 21
375.4236165125937
 31
0.0
  0
LINE
  5
11DD
330
1A
100
AcDbEntity
  8
SEIHIN
  6
Continuous
 62
     3
 48
5.0
100
AcDbLine
 10
385.7946860118734
 20
324.6037165125934
 30
0.0
 11
385.7946860118734
 21
303.6382165125937
 31
0.0
  0
LINE
  5
11DE
330
1A
100
AcDbEntity
  8
SEIHIN
  6
Continuous
 62
     3
 48
5.0
100
AcDbLine
 10
290.2857134840149
 20
309.7334165125936
 30
0.0
 11
294.2856134840147
 21
308.7334165125935
 31
0.0
  0
LINE
  5
11DF
330
1A
100
AcDbEntity
  8
SEIHIN
  6
Continuous
 62
     3
 48
5.0
100
AcDbLine
 10
290.2856134840147
 20
309.7334165125936
 30
0.0
 11
290.2856134840147
 21
281.2835165125937
 31
0.0
  0
LINE
  5
11E0
330
1A
100
AcDbEntity
  8
SEIHIN
  6
Continuous
 62
     3
 48
5.0
100
AcDbLine
 10
289.2853134840148
 20
249.3333165125936
 30
0.0
 11
289.2856134840147
 21
313.2334165125935
 31
0.0
  0
ARC
  5
11E1
330
1A
100
AcDbEntity
  8
SEIHIN
  6
Continuous
 62
     3
 48
5.0
100
AcDbCircle
 10
280.3465134840717
 20
308.7302213845168
 30
0.0
 40
6.060837672302246
100
AcDbArc
 50
132.0675583806254
 51
227.9311681675851
  0
LINE
  5
11E2
330
1A
100
AcDbEntity
  8
SEIHIN
  6
Continuous
 62
     3
 48
5.0
100
AcDbLine
 10
259.2856134840147
 20
249.3335165125936
 30
0.0
 11
259.2856134840147
 21
313.2335165125937
 31
0.0
  0
LINE
  5
11E3
330
1A
100
AcDbEntity
  8
SEIHIN
  6
Continuous
 62
     3
 48
5.0
100
AcDbLine
 10
259.2857134840149
 20
313.2336165125935
 30
0.0
 11
259.2855134840149
 21
249.3334165125936
 31
0.0
  0
LINE
  5
11E4
330
1A
100
AcDbEntity
  8
CENTER　L
  6
CENTER
 62
     1
 48
5.0
100
AcDbLine
 10
219.1999134840148
 20
374.8329165125934
 30
0.0
 11
219.1997734087104
 21
291.4190532680667
 31
0.0
  0
ARC
  5
11E5
330
1A
100
AcDbEntity
  8
SEIHIN
  6
Continuous
 62
     3
 48
5.0
100
AcDbCircle
 10
255.2498161237481
 20
318.3018103256708
 30
0.0
 40
68.0000026398164
100
AcDbArc
 50
179.9999105284959
 51
226.2124140522845
  0
LINE
  5
11E6
330
1A
100
AcDbEntity
  8
SEIHIN
  6
Continuous
 62
     3
 48
5.0
100
AcDbLine
 10
251.1498134840149
 20
316.6035165125935
 30
0.0
 11
205.9806134840148
 21
271.4344165125936
 31
0.0
  0
DIMENSION
  5
11EE
330
1A
100
AcDbEntity
  8
SUNPOU
100
AcDbDimension
  2
*D4
 10
219.1997734087104
 20
194.967897387681
 30
0.0
 11
254.2425434463626
 21
199.967897387681
 31
0.0
 70
    32
 71
     5
 42
-1.0
  3
STANDARD
100
AcDbAlignedDimension
 13
289.2853134840148
 23
249.3333165125936
 33
0.0
 14
219.1997734087104
 24
291.4190532680667
 34
0.0
100
AcDbRotatedDimension
1001
ACAD
1000
DSTYLE
1002
{
1070
    41
1040
7.0
1070
    42
1040
6.0
1070
    43
1040
14.0
1070
    44
1040
3.0
1070
    73
1070
     0
1070
    74
1070
     0
1070
    77
1070
     3
1070
   140
1040
6.0
1070
   141
1040
150.0
1070
   147
1040
2.0
1070
   172
1070
     1
1070
   173
1070
     1
1070
   176
1070
   256
1070
   177
1070
   256
1070
   178
1070
   256
1070
   271
1070
     0
1070
   272
1070
     0
1070
   341
1005
6D
1070
     6
1000
OPEN
1070
     7
1000
OPEN
1070
   371
1070
    -1
1070
   372
1070
    -1
1002
}
  0
DIMENSION
  5
11EF
330
1A
100
AcDbEntity
  8
SUNPOU
100
AcDbDimension
  2
*D5
 10
259.2856134840147
 20
213.8319237510657
 30
0.0
 11
274.2854634840147
 21
218.8319237510657
 31
0.0
 70
    32
 71
     5
 42
-1.0
  3
STANDARD
100
AcDbAlignedDimension
 13
289.2853134840148
 23
249.3333165125936
 33
0.0
 14
259.2856134840147
 24
249.3334165125936
 34
0.0
100
AcDbRotatedDimension
1001
ACAD
1000
DSTYLE
1002
{
1070
    41
1040
7.0
1070
    42
1040
6.0
1070
    43
1040
14.0
1070
    44
1040
3.0
1070
    73
1070
     0
1070
    74
1070
     0
1070
    77
1070
     3
1070
   140
1040
6.0
1070
   141
1040
150.0
1070
   147
1040
2.0
1070
   172
1070
     1
1070
   173
1070
     1
1070
   176
1070
   256
1070
   177
1070
   256
1070
   178
1070
   256
1070
   271
1070
     0
1070
   272
1070
     0
1070
   341
1005
6D
1070
     6
1000
OPEN
1070
     7
1000
OPEN
1070
   371
1070
    -1
1070
   372
1070
    -1
1002
}
  0
LINE
  5
11F0
330
1A
100
AcDbEntity
  8
CENTER　L
  6
CENTER
 62
     1
 48
5.0
100
AcDbLine
 10
229.3352389401994
 20
281.2835652976415
 30
0.0
 11
302.1173134840148
 21
281.2834165125936
 31
0.0
  0
LINE
  5
11F1
330
1A
100
AcDbEntity
  8
SEIHIN
  6
Continuous
 62
     3
 48
5.0
100
AcDbLine
 10
289.2853134840148
 20
249.3333165125936
 30
0.0
 11
259.2856134840147
 21
249.3334165125936
 31
0.0
  0
LINE
  5
11F2
330
1A
100
AcDbEntity
  8
SEIHIN
  6
Continuous
 62
     3
 48
5.0
100
AcDbLine
 10
276.2855134840149
 20
258.3319165125937
 30
0.0
 11
289.2854134840147
 21
258.3319165125937
 31
0.0
  0
LINE
  5
11F3
330
1A
100
AcDbEntity
  8
SEIHIN
  6
Continuous
 62
     3
 48
5.0
100
AcDbLine
 10
276.2857134840146
 20
304.2311165125935
 30
0.0
 11
289.2856134840147
 21
304.2310165125936
 31
0.0
  0
LINE
  5
11F4
330
1A
100
AcDbEntity
  8
SEIHIN
  6
Continuous
 62
     3
 48
5.0
100
AcDbLine
 10
276.2846134840149
 20
304.2319165125936
 30
0.0
 11
289.2855134840149
 21
304.2319165125936
 31
0.0
  0
ARC
  5
11F5
330
1A
100
AcDbEntity
  8
SEIHIN
  6
Continuous
 62
     3
 48
5.0
100
AcDbCircle
 10
256.2180471133968
 20
317.3335440044561
 30
0.0
 40
68.00002749226393
100
AcDbArc
 50
224.9999367635513
 51
269.999803147469
  0
LINE
  5
11F6
330
1A
100
AcDbEntity
  8
CENTER　L
  6
CENTER
 62
     1
 48
5.0
100
AcDbLine
 10
212.1998017876958
 20
308.3185462812163
 30
0.0
 11
246.2347419681105
 21
274.2835307507499
 31
0.0
  0
ARC
  5
11F7
330
1A
100
AcDbEntity
  8
SEIHIN
  6
Continuous
 62
     3
 48
5.0
100
AcDbCircle
 10
289.1720599858543
 20
281.9380402844015
 30
0.0
 40
26.89446337583241
100
AcDbArc
 50
181.3990057712647
 51
241.369941869826
  0
LINE
  5
11F8
330
1A
100
AcDbEntity
  8
SEIHIN
  6
Continuous
 62
     3
 48
5.0
100
AcDbLine
 10
256.2179134840148
 20
249.3335165125936
 30
0.0
 11
259.2856134840147
 21
249.3335165125936
 31
0.0
  0
ARC
  5
11F9
330
1A
100
AcDbEntity
  8
SEIHIN
  6
Continuous
 62
     3
 48
5.0
100
AcDbCircle
 10
280.3462134840147
 20
253.8327165125936
 30
0.0
 40
6.060767053764767
100
AcDbArc
 50
132.0681609158206
 51
227.9318390841793
  0
ARC
  5
11FA
330
1A
100
AcDbEntity
  8
SEIHIN
  6
Continuous
 62
     3
 48
5.0
100
AcDbCircle
 10
289.1720091725342
 20
280.6248094449638
 30
0.0
 40
26.89451214002652
100
AcDbArc
 50
118.6298780870286
 51
178.6010323628806
  0
LINE
  5
11FB
330
1A
100
AcDbEntity
  8
SEIHIN
  6
Continuous
 62
     3
 48
5.0
100
AcDbLine
 10
294.2856134840147
 20
281.2833165125937
 30
0.0
 11
294.2854134840147
 21
253.8333165125936
 31
0.0
  0
LINE
  5
11FC
330
1A
100
AcDbEntity
  8
SEIHIN
  6
Continuous
 62
     3
 48
5.0
100
AcDbLine
 10
290.2854134840147
 20
252.8335165125936
 30
0.0
 11
290.2856134840147
 21
281.2833165125937
 31
0.0
  0
LINE
  5
11FD
330
1A
100
AcDbEntity
  8
SEIHIN
  6
Continuous
 62
     3
 48
5.0
100
AcDbLine
 10
290.2855134840149
 20
252.8335165125936
 30
0.0
 11
289.2853134840148
 21
252.8335165125936
 31
0.0
  0
LINE
  5
11FE
330
1A
100
AcDbEntity
  8
SEIHIN
  6
Continuous
 62
     3
 48
5.0
100
AcDbLine
 10
290.2855134840149
 20
252.8335165125936
 30
0.0
 11
294.2855134840149
 21
253.8334165125937
 31
0.0
  0
LINE
  5
11FF
330
1A
100
AcDbEntity
  8
SEIHIN
  6
Continuous
 62
     3
 48
5.0
100
AcDbLine
 10
294.2856134840147
 20
281.2835165125937
 30
0.0
 11
294.2856134840147
 21
308.7335165125937
 31
0.0
  0
ARC
  5
1200
330
1A
100
AcDbEntity
  8
SEIHIN
  6
Continuous
 62
     3
 48
5.0
100
AcDbCircle
 10
417.7447860119553
 20
281.2835165125116
 30
0.0
 40
30.50000000008194
100
AcDbArc
 50
179.9999999998461
 51
269.9998121448305
  0
LINE
  5
1201
330
1A
100
AcDbEntity
  8
CENTER　L
  6
CENTER
 62
     1
 48
5.0
100
AcDbLine
 10
417.7447860118734
 20
281.2835165125937
 30
0.0
 11
417.7448860118734
 21
241.2835165125936
 31
0.0
  0
LINE
  5
1202
330
1A
100
AcDbEntity
  8
SEIHIN
  6
Continuous
 62
     3
 48
5.0
100
AcDbLine
 10
387.3947860118733
 20
281.2834165125936
 30
0.0
 11
387.3946860118733
 21
260.9871165125936
 31
0.0
  0
LINE
  5
1203
330
1A
100
AcDbEntity
  8
SEIHIN
  6
Continuous
 62
     3
 48
5.0
100
AcDbLine
 10
385.7446860118732
 20
281.2834165125936
 30
0.0
 11
385.7447860118732
 21
259.2406165125936
 31
0.0
  0
LINE
  5
1204
330
1A
100
AcDbEntity
  8
SEIHIN
  6
Continuous
 62
     3
 48
5.0
100
AcDbLine
 10
417.7447860118734
 20
250.9335165125936
 30
0.0
 11
397.4485860118732
 21
250.9335165125936
 31
0.0
  0
LINE
  5
1205
330
1A
100
AcDbEntity
  8
SEIHIN
  6
Continuous
 62
     3
 48
5.0
100
AcDbLine
 10
417.7447860118734
 20
249.2835165125936
 30
0.0
 11
395.7676860118734
 21
249.2834165125936
 31
0.0
  0
ARC
  5
1206
330
1A
100
AcDbEntity
  8
SEIHIN
  6
Continuous
 62
     3
 48
5.0
100
AcDbCircle
 10
397.4485838524815
 20
251.9335182375906
 30
0.0
 40
1.000001724999372
100
AcDbArc
 50
192.7619787655732
 51
270.0001237238205
  0
ARC
  5
1207
330
1A
100
AcDbEntity
  8
SEIHIN
  6
Continuous
 62
     3
 48
5.0
100
AcDbCircle
 10
385.8177525160747
 20
249.2837497643479
 30
0.0
 40
9.00002300638323
100
AcDbArc
 50
5.737663355433466
 51
84.68084419474871
  0
ARC
  5
1208
330
1A
100
AcDbEntity
  8
SEIHIN
  6
Continuous
 62
     3
 48
5.0
100
AcDbCircle
 10
395.7676846273244
 20
250.283417765092
 30
0.0
 40
1.000001252499329
100
AcDbArc
 50
185.7334769822664
 51
270.0000793287048
  0
ARC
  5
1209
330
1A
100
AcDbEntity
  8
SEIHIN
  6
Continuous
 62
     3
 48
5.0
100
AcDbCircle
 10
385.7448506468659
 20
249.2833518774713
 30
0.0
 40
11.00002963853266
100
AcDbArc
 50
12.75847162437721
 51
77.24221874860411
  0
ARC
  5
120A
330
1A
100
AcDbEntity
  8
SEIHIN
  6
Continuous
 62
     3
 48
5.0
100
AcDbCircle
 10
386.7447889568646
 20
259.2406132806871
 30
0.0
 40
1.000002944996588
100
AcDbArc
 50
179.999814825943
 51
264.6808909660843
  0
ARC
  5
120B
330
1A
100
AcDbEntity
  8
SEIHIN
  6
Continuous
 62
     3
 48
5.0
100
AcDbCircle
 10
388.3946766942866
 20
260.9871281754014
 30
0.0
 40
0.9999906824812947
100
AcDbArc
 50
180.0006682358861
 51
257.2444013363768
  0
LINE
  5
120C
330
1A
100
AcDbEntity
  8
CENTER　L
  6
CENTER
 62
     1
 48
5.0
100
AcDbLine
 10
417.7447860118734
 20
281.2835165125937
 30
0.0
 11
377.7447860118732
 21
281.2836165125936
 31
0.0
  0
LINE
  5
120D
330
1A
100
AcDbEntity
  8
SEIHIN
  6
Continuous
 62
     3
 48
5.0
100
AcDbLine
 10
387.3948860118733
 20
281.2836165125936
 30
0.0
 11
387.3947860118733
 21
301.5799165125936
 31
0.0
  0
LINE
  5
120E
330
1A
100
AcDbEntity
  8
SEIHIN
  6
Continuous
 62
     3
 48
5.0
100
AcDbLine
 10
385.7447860118732
 20
281.2835165125937
 30
0.0
 11
385.7447860118732
 21
303.3263165125936
 31
0.0
  0
ARC
  5
120F
330
1A
100
AcDbEntity
  8
SEIHIN
  6
Continuous
 62
     3
 48
5.0
100
AcDbCircle
 10
388.3947766942865
 20
301.5799048497858
 30
0.0
 40
0.9999906824811649
100
AcDbArc
 50
102.7555986636232
 51
179.9993317641138
  0
ARC
  5
1210
330
1A
100
AcDbEntity
  8
SEIHIN
  6
Continuous
 62
     3
 48
5.0
100
AcDbCircle
 10
386.7447889568646
 20
303.3264197445002
 30
0.0
 40
1.000002944996602
100
AcDbArc
 50
95.31910903391571
 51
180.0001851740569
  0
DIMENSION
  5
1211
330
1A
100
AcDbEntity
  8
SUNPOU
100
AcDbDimension
  2
*D6
 10
151.9272795112899
 20
324.6036165125935
 30
0.0
 11
146.9272795112899
 21
344.6036665125936
 31
0.0
 70
    32
 71
     5
 42
-1.0
  3
STANDARD
100
AcDbAlignedDimension
 13
187.2485134840147
 23
364.6037165125934
 33
0.0
 14
187.2481134840148
 24
324.6036165125935
 34
0.0
 50
90.0
100
AcDbRotatedDimension
1001
ACAD
1000
DSTYLE
1002
{
1070
    41
1040
7.0
1070
    42
1040
6.0
1070
    43
1040
14.0
1070
    44
1040
3.0
1070
    73
1070
     0
1070
    74
1070
     0
1070
    77
1070
     3
1070
   140
1040
6.0
1070
   141
1040
150.0
1070
   147
1040
2.0
1070
   172
1070
     1
1070
   173
1070
     1
1070
   176
1070
   256
1070
   177
1070
   256
1070
   178
1070
   256
1070
   271
1070
     0
1070
   272
1070
     0
1070
   341
1005
6D
1070
     6
1000
OPEN
1070
     7
1000
OPEN
1070
   371
1070
    -1
1070
   372
1070
    -1
1002
}
  0
DIMENSION
  5
1212
330
1A
100
AcDbEntity
  8
SUNPOU
100
AcDbDimension
  2
*D7
 10
264.2856134771666
 20
324.1196924943904
 30
0.0
 11
276.7856134805906
 21
329.1196924943904
 31
0.0
 70
    32
  1
\U+203B<>
 71
     5
 42
-1.0
  3
STANDARD
100
AcDbAlignedDimension
 13
289.2856134840147
 23
313.2334165125935
 33
0.0
 14
264.2856134771666
 24
313.2320165125936
 34
0.0
100
AcDbRotatedDimension
1001
ACAD
1000
DSTYLE
1002
{
1070
    41
1040
7.0
1070
    42
1040
6.0
1070
    43
1040
14.0
1070
    44
1040
3.0
1070
    73
1070
     0
1070
    74
1070
     0
1070
    77
1070
     3
1070
   140
1040
6.0
1070
   141
1040
150.0
1070
   147
1040
2.0
1070
   172
1070
     1
1070
   173
1070
     1
1070
   176
1070
   256
1070
   177
1070
   256
1070
   178
1070
   256
1070
   271
1070
     0
1070
   272
1070
     0
1070
   341
1005
6D
1070
     6
1000
OPEN
1070
     7
1000
OPEN
1070
   371
1070
    -1
1070
   372
1070
    -1
1002
}
  0
LINE
  5
1213
330
1A
100
AcDbEntity
  8
SEIHIN
  6
Continuous
 62
     3
 48
5.0
100
AcDbLine
 10
259.2857134840149
 20
313.2320165125936
 30
0.0
 11
289.2856134840147
 21
313.2320165125936
 31
0.0
  0
DIMENSION
  5
1214
330
1A
100
AcDbEntity
  8
SUNPOU
100
AcDbDimension
  2
*D8
 10
251.1499134840148
 20
400.7173848421028
 30
0.0
 11
219.1992134840148
 21
405.7173848421028
 31
0.0
 70
    32
 71
     5
 42
-1.0
  3
STANDARD
100
AcDbAlignedDimension
 13
187.2485134840147
 23
364.6037165125934
 33
0.0
 14
251.1499134840148
 24
364.6033165125937
 34
0.0
100
AcDbRotatedDimension
1001
ACAD
1000
DSTYLE
1002
{
1070
    41
1040
7.0
1070
    42
1040
6.0
1070
    43
1040
14.0
1070
    44
1040
3.0
1070
    73
1070
     0
1070
    74
1070
     0
1070
    77
1070
     3
1070
   140
1040
6.0
1070
   141
1040
150.0
1070
   147
1040
2.0
1070
   172
1070
     1
1070
   173
1070
     1
1070
   176
1070
   256
1070
   177
1070
   256
1070
   178
1070
   256
1070
   271
1070
     0
1070
   272
1070
     0
1070
   341
1005
6D
1070
     6
1000
OPEN
1070
     7
1000
OPEN
1070
   371
1070
    -1
1070
   372
1070
    -1
1002
}
  0
LINE
  5
1215
330
1A
100
AcDbEntity
  8
SEIHIN
  6
Continuous
 62
     3
 48
5.0
100
AcDbLine
 10
215.6999134840148
 20
364.1032165125935
 30
0.0
 11
222.6999134840146
 21
364.1032165125935
 31
0.0
  0
LINE
  5
1216
330
1A
100
AcDbEntity
  8
SEIHIN
  6
Continuous
 62
     3
 48
5.0
100
AcDbLine
 10
215.6999134840148
 20
359.6032165125935
 30
0.0
 11
222.6999134840146
 21
359.6032165125935
 31
0.0
  0
LINE
  5
1217
330
1A
100
AcDbEntity
  8
SEIHIN
  6
Continuous
 62
     3
 48
5.0
100
AcDbLine
 10
222.6999134840146
 20
360.1032165125935
 30
0.0
 11
215.6999134840148
 21
360.1032165125935
 31
0.0
  0
ARC
  5
1218
330
1A
100
AcDbEntity
  8
SEIHIN
  6
Continuous
 62
     3
 48
5.0
100
AcDbCircle
 10
218.5413189182907
 20
354.4900198276558
 30
0.0
 40
26.89441704768884
100
AcDbArc
 50
271.3987328393757
 51
331.369992812382
  0
LINE
  5
1219
330
1A
100
AcDbEntity
  8
SEIHIN
  6
Continuous
 62
     3
 48
5.0
100
AcDbLine
 10
187.2498134840148
 20
324.6035165125935
 30
0.0
 11
251.1498134840149
 21
324.6035165125935
 31
0.0
  0
LINE
  5
121A
330
1A
100
AcDbEntity
  8
SEIHIN
  6
Continuous
 62
     3
 48
5.0
100
AcDbLine
 10
187.2499134840147
 20
364.6037165125934
 30
0.0
 11
251.1499134840148
 21
364.6033165125937
 31
0.0
  0
LINE
  5
121B
330
1A
100
AcDbEntity
  8
SEIHIN
  6
Continuous
 62
     3
 48
5.0
100
AcDbLine
 10
196.2483134840147
 20
341.6038165125936
 30
0.0
 11
196.2485134840149
 21
364.6036165125935
 31
0.0
  0
LINE
  5
121C
330
1A
100
AcDbEntity
  8
SEIHIN
  6
Continuous
 62
     3
 48
5.0
100
AcDbLine
 10
187.2481134840148
 20
324.6036165125935
 30
0.0
 11
187.2485134840147
 21
364.6037165125934
 31
0.0
  0
ARC
  5
121D
330
1A
100
AcDbEntity
  8
SEIHIN
  6
Continuous
 62
     3
 48
5.0
100
AcDbCircle
 10
191.7491634840148
 20
345.66451651287
 30
0.0
 40
6.060804171456527
100
AcDbArc
 50
222.0678442189798
 51
317.9321557810202
  0
LINE
  5
121E
330
1A
100
AcDbEntity
  8
SEIHIN
  6
Continuous
 62
     3
 48
5.0
100
AcDbLine
 10
187.2498134840148
 20
324.6035165125935
 30
0.0
 11
187.2498134840148
 21
318.3018165125935
 31
0.0
  0
ARC
  5
121F
330
1A
100
AcDbEntity
  8
SEIHIN
  6
Continuous
 62
     3
 48
5.0
100
AcDbCircle
 10
219.8545802638948
 20
354.4900367781775
 30
0.0
 40
26.89444063929874
100
AcDbArc
 50
208.6297781771368
 51
268.6006882912525
  0
LINE
  5
1220
330
1A
100
AcDbEntity
  8
SEIHIN
  6
Continuous
 62
     3
 48
5.0
100
AcDbLine
 10
215.6999134840148
 20
359.6032165125935
 30
0.0
 11
215.6999134840148
 21
364.1032165125935
 31
0.0
  0
DIMENSION
  5
1221
330
1A
100
AcDbEntity
  8
SUNPOU
100
AcDbDimension
  2
*D9
 10
279.6777438446745
 20
339.6033165130835
 30
0.0
 11
274.6777438446745
 21
352.1033165128387
 31
0.0
 70
    32
  1
\U+203B<>
 71
     5
 42
-1.0
  3
STANDARD
100
AcDbAlignedDimension
 13
251.1499134840148
 23
364.6033165125937
 33
0.0
 14
251.149756989492
 24
339.6033165130835
 34
0.0
 50
90.0
100
AcDbRotatedDimension
1001
ACAD
1000
DSTYLE
1002
{
1070
    41
1040
7.0
1070
    42
1040
6.0
1070
    43
1040
14.0
1070
    44
1040
3.0
1070
    73
1070
     0
1070
    74
1070
     0
1070
    77
1070
     3
1070
   140
1040
6.0
1070
   141
1040
150.0
1070
   147
1040
2.0
1070
   172
1070
     1
1070
   173
1070
     1
1070
   176
1070
   256
1070
   177
1070
   256
1070
   178
1070
   256
1070
   271
1070
     0
1070
   272
1070
     0
1070
   341
1005
6D
1070
     6
1000
OPEN
1070
     7
1000
OPEN
1070
   371
1070
    -1
1070
   372
1070
    -1
1002
}
  0
LINE
  5
1222
330
1A
100
AcDbEntity
  8
SEIHIN
  6
Continuous
 62
     3
 48
5.0
100
AcDbLine
 10
242.1483134840148
 20
341.6024165125937
 30
0.0
 11
242.1484134840148
 21
364.6033165125937
 31
0.0
  0
LINE
  5
1223
330
1A
100
AcDbEntity
  8
SEIHIN
  6
Continuous
 62
     3
 48
5.0
100
AcDbLine
 10
242.1474134840148
 20
341.6035165125935
 30
0.0
 11
242.1475134840148
 21
364.6034165125935
 31
0.0
  0
LINE
  5
1224
330
1A
100
AcDbEntity
  8
SEIHIN
  6
Continuous
 62
     3
 48
5.0
100
AcDbLine
 10
251.1481134840146
 20
324.6034165125935
 30
0.0
 11
251.1485134840147
 21
364.6033165125937
 31
0.0
  0
LINE
  5
1225
330
1A
100
AcDbEntity
  8
SEIHIN
  6
Continuous
 62
     3
 48
5.0
100
AcDbLine
 10
251.1498134840149
 20
316.6035165125935
 30
0.0
 11
254.5198134840148
 21
313.2335165125937
 31
0.0
  0
LINE
  5
1226
330
1A
100
AcDbEntity
  8
SEIHIN
  6
Continuous
 62
     3
 48
5.0
100
AcDbLine
 10
251.1498134840149
 20
324.6035165125935
 30
0.0
 11
251.1498134840149
 21
316.6035165125935
 31
0.0
  0
ARC
  5
1227
330
1A
100
AcDbEntity
  8
SEIHIN
  6
Continuous
 62
     3
 48
5.0
100
AcDbCircle
 10
246.646618355938
 20
345.6642165126503
 30
0.0
 40
6.060837672302175
100
AcDbArc
 50
222.0688318324143
 51
317.9324416193736
  0
LINE
  5
1228
330
1A
100
AcDbEntity
  8
SEIHIN
  6
Continuous
 62
     3
 48
5.0
100
AcDbLine
 10
254.5198134840148
 20
313.2335165125937
 30
0.0
 11
259.2857134840149
 21
313.2335165125937
 31
0.0
  0
LINE
  5
1229
330
1A
100
AcDbEntity
  8
SEIHIN
  6
Continuous
 62
     3
 48
5.0
100
AcDbLine
 10
222.6999134840146
 20
359.6032165125935
 30
0.0
 11
222.6999134840146
 21
364.1032165125935
 31
0.0
  0
LINE
  5
122A
330
1A
100
AcDbEntity
  8
SEIHIN
  6
Continuous
 62
     3
 48
5.0
100
AcDbLine
 10
290.2857134840149
 20
309.7334165125936
 30
0.0
 11
289.2855134840149
 21
309.7334165125936
 31
0.0
  0
LINE
  5
122B
330
1A
100
AcDbEntity
  8
SEIHIN
  6
Continuous
 62
     3
 48
5.0
100
AcDbLine
 10
289.2856134840147
 20
313.2334165125935
 30
0.0
 11
289.2856134840147
 21
309.2334165125935
 31
0.0
  0
LINE
  5
122C
330
1A
100
AcDbEntity
  8
SEIHIN
  6
Continuous
 62
     3
 48
5.0
100
AcDbLine
 10
394.7931860118733
 20
341.6040165125935
 30
0.0
 11
394.7933860118735
 21
364.6038165125937
 31
0.0
  0
LINE
  5
122D
330
1A
100
AcDbEntity
  8
SEIHIN
  6
Continuous
 62
     3
 48
5.0
100
AcDbLine
 10
385.7930860118734
 20
324.6038165125936
 30
0.0
 11
385.7933860118733
 21
364.6039165125937
 31
0.0
  0
ARC
  5
122E
330
1A
100
AcDbEntity
  8
SEIHIN
  6
Continuous
 62
     3
 48
5.0
100
AcDbCircle
 10
418.3994527917532
 20
354.4902367781775
 30
0.0
 40
26.89444063929856
100
AcDbArc
 50
208.6297781771368
 51
268.6006882912525
  0
LINE
  5
122F
330
1A
100
AcDbEntity
  8
SEIHIN
  6
Continuous
 62
     3
 48
5.0
100
AcDbLine
 10
417.7448860118734
 20
311.6335165125935
 30
0.0
 11
397.4485860118732
 21
311.6336165125935
 31
0.0
  0
LINE
  5
1230
330
1A
100
AcDbEntity
  8
SEIHIN
  6
Continuous
 62
     3
 48
5.0
100
AcDbLine
 10
417.7448860118734
 20
313.2835165125935
 30
0.0
 11
395.7677860118731
 21
313.2836165125937
 31
0.0
  0
ARC
  5
1231
330
1A
100
AcDbEntity
  8
SEIHIN
  6
Continuous
 62
     3
 48
5.0
100
AcDbCircle
 10
397.448597674681
 20
310.6336258301803
 30
0.0
 40
0.9999906824811668
100
AcDbArc
 50
90.00066823588287
 51
167.2444013363752
  0
ARC
  5
1232
330
1A
100
AcDbEntity
  8
SEIHIN
  6
Continuous
 62
     3
 48
5.0
100
AcDbCircle
 10
395.7677791022904
 20
312.2836102626328
 30
0.0
 40
1.000006249984771
100
AcDbArc
 50
89.99960411253644
 51
174.2605056144469
  0
ARC
  5
1233
330
1A
100
AcDbEntity
  8
SEIHIN
  6
Continuous
 62
     3
 48
5.0
100
AcDbCircle
 10
390.2940811399501
 20
345.6647165126503
 30
0.0
 40
6.060837672302239
100
AcDbArc
 50
222.0675583806264
 51
317.9311681675855
  0
LINE
  5
1234
330
1A
100
AcDbEntity
  8
SEIHIN
  6
Continuous
 62
     3
 48
5.0
100
AcDbLine
 10
383.7947860118731
 20
359.6039165125935
 30
0.0
 11
385.7948860118733
 21
359.6039165125935
 31
0.0
  0
LINE
  5
1235
330
1A
100
AcDbEntity
  8
SEIHIN
  6
Continuous
 62
     3
 48
5.0
100
AcDbLine
 10
385.7948860118733
 20
364.1039165125935
 30
0.0
 11
383.7947860118731
 21
360.1039165125935
 31
0.0
  0
LINE
  5
1236
330
1A
100
AcDbEntity
  8
SEIHIN
  6
Continuous
 62
     3
 48
5.0
100
AcDbLine
 10
383.7947860118731
 20
360.1039165125935
 30
0.0
 11
383.7947860118731
 21
359.6039165125935
 31
0.0
  0
DIMENSION
  5
1237
330
1A
100
AcDbEntity
  8
SUNPOU
100
AcDbDimension
  2
*D10
 10
570.1206683091729
 20
232.9002165127011
 30
0.0
 11
565.120668309173
 21
298.7518165127011
 31
0.0
 70
    32
 71
     5
 42
-1.0
  3
STANDARD
100
AcDbAlignedDimension
 13
608.041905398961
 23
364.603416512701
 33
0.0
 14
629.7462053989614
 24
232.9002165127011
 34
0.0
 50
90.0
100
AcDbRotatedDimension
1001
ACAD
1000
DSTYLE
1002
{
1070
    41
1040
7.0
1070
    42
1040
6.0
1070
    43
1040
14.0
1070
    44
1040
3.0
1070
    73
1070
     0
1070
    74
1070
     0
1070
    77
1070
     3
1070
   140
1040
6.0
1070
   141
1040
150.0
1070
   147
1040
2.0
1070
   172
1070
     1
1070
   173
1070
     1
1070
   176
1070
   256
1070
   177
1070
   256
1070
   178
1070
   256
1070
   271
1070
     0
1070
   272
1070
     0
1070
   341
1005
6D
1070
     6
1000
OPEN
1070
     7
1000
OPEN
1070
   371
1070
    -1
1070
   372
1070
    -1
1002
}
  0
DIMENSION
  5
1238
330
1A
100
AcDbEntity
  8
SUNPOU
100
AcDbDimension
  2
*D11
 10
661.6962053989611
 20
400.7173848421028
 30
0.0
 11
650.8448053989611
 21
405.7173848421028
 31
0.0
 70
    32
 71
     5
 42
-1.0
  3
STANDARD
100
AcDbAlignedDimension
 13
639.9934053989611
 23
374.8326165127012
 33
0.0
 14
661.6962053989611
 24
268.4778165127012
 34
0.0
100
AcDbRotatedDimension
1001
ACAD
1000
DSTYLE
1002
{
1070
    41
1040
7.0
1070
    42
1040
6.0
1070
    43
1040
14.0
1070
    44
1040
3.0
1070
    73
1070
     0
1070
    74
1070
     0
1070
    77
1070
     3
1070
   140
1040
6.0
1070
   141
1040
150.0
1070
   147
1040
2.0
1070
   172
1070
     1
1070
   173
1070
     1
1070
   176
1070
   256
1070
   177
1070
   256
1070
   178
1070
   256
1070
   271
1070
     0
1070
   272
1070
     0
1070
   341
1005
6D
1070
     6
1000
OPEN
1070
     7
1000
OPEN
1070
   371
1070
    -1
1070
   372
1070
    -1
1002
}
  0
ARC
  5
1239
330
1A
100
AcDbEntity
  8
SEIHIN
  6
Continuous
 62
     3
 48
5.0
100
AcDbCircle
 10
625.646093745717
 20
265.9677486041242
 30
0.0
 40
68.00001165327763
100
AcDbArc
 50
0.0000572187376829
 51
39.91448327751112
  0
ARC
  5
123A
330
1A
100
AcDbEntity
  8
CENTER　L
  6
CENTER
 62
     1
 48
5.0
100
AcDbCircle
 10
673.9931871603246
 20
315.2832583681725
 30
0.0
 40
33.99998176141302
100
AcDbArc
 50
179.9999020165328
 51
227.0908329118406
  0
LINE
  5
123B
330
1A
100
AcDbEntity
  8
SEIHIN
  6
Continuous
 62
     3
 48
5.0
100
AcDbLine
 10
671.9433053989607
 20
316.6032165127012
 30
0.0
 11
626.7741053989614
 21
271.4342165127011
 31
0.0
  0
ARC
  5
123C
330
1A
100
AcDbEntity
  8
SEIHIN
  6
Continuous
 62
     3
 48
5.0
100
AcDbCircle
 10
676.0433003839778
 20
318.3015280215098
 30
0.0
 40
67.99999498507429
100
AcDbArc
 50
179.9999254386448
 51
227.0905912815246
  0
ARC
  5
123D
330
1A
100
AcDbEntity
  8
SEIHIN
  6
Continuous
 62
     3
 48
5.0
100
AcDbCircle
 10
449.6719139269662
 20
313.2832888011913
 30
0.0
 40
9.000028005528301
100
AcDbArc
 50
185.7383354298213
 51
264.6808828392528
  0
ARC
  5
123E
330
1A
100
AcDbEntity
  8
SEIHIN
  6
Continuous
 62
     3
 48
5.0
100
AcDbCircle
 10
449.7448506469956
 20
313.2835518776011
 30
0.0
 40
11.00002963853269
100
AcDbArc
 50
192.7577812513964
 51
257.2415283756255
  0
LINE
  5
123F
330
1A
100
AcDbEntity
  8
SEIHIN
  6
Continuous
 62
     3
 48
5.0
100
AcDbLine
 10
449.6946860118734
 20
324.6037165125934
 30
0.0
 11
449.6946860118734
 21
303.6390165125935
 31
0.0
  0
ARC
  5
1242
330
1A
100
AcDbEntity
  8
SEIHIN
  6
Continuous
 62
     3
 48
5.0
100
AcDbCircle
 10
661.0414941604442
 20
233.013723368614
 30
0.0
 40
26.89451458178958
100
AcDbArc
 50
28.62986907162257
 51
88.60059739676747
  0
LINE
  5
1243
330
1A
100
AcDbEntity
  8
SEIHIN
  6
Continuous
 62
     3
 48
5.0
100
AcDbLine
 10
693.6461053989607
 20
262.9001165127011
 30
0.0
 11
629.7461053989612
 21
262.9002165127011
 31
0.0
  0
LINE
  5
1244
330
1A
100
AcDbEntity
  8
SEIHIN
  6
Continuous
 62
     3
 48
5.0
100
AcDbLine
 10
629.7461053989612
 20
262.9001165127011
 30
0.0
 11
693.6462053989609
 21
262.9002165127011
 31
0.0
  0
LINE
  5
1245
330
1A
100
AcDbEntity
  8
SEIHIN
  6
Continuous
 62
     3
 48
5.0
100
AcDbLine
 10
661.6962053989611
 20
227.9002165127011
 30
0.0
 11
689.1464053989614
 21
227.9002165127011
 31
0.0
  0
LINE
  5
1246
330
1A
100
AcDbEntity
  8
SEIHIN
  6
Continuous
 62
     3
 48
5.0
100
AcDbLine
 10
690.146205398961
 20
231.9001165127011
 30
0.0
 11
661.6962053989611
 21
231.9002165127011
 31
0.0
  0
LINE
  5
1247
330
1A
100
AcDbEntity
  8
SEIHIN
  6
Continuous
 62
     3
 48
5.0
100
AcDbLine
 10
693.6462053989609
 20
232.9004165127011
 30
0.0
 11
629.7462053989614
 21
232.9002165127011
 31
0.0
  0
TEXT
  5
1248
330
1A
100
AcDbEntity
  8
SUNPOU
  6
Continuous
 62
     4
100
AcDbText
 10
603.4093441049351
 20
48.59831257678848
 30
0.0
 40
8.0
  1
※　たてといの差込み寸法を示す。
100
AcDbText
  0
LINE
  5
124D
330
1A
100
AcDbEntity
  8
SEIHIN
  6
Continuous
 62
     3
 48
5.0
100
AcDbLine
 10
449.7448860118733
 20
281.2835165125937
 30
0.0
 11
449.7448860118733
 21
259.2407165125936
 31
0.0
  0
LINE
  5
124E
330
1A
100
AcDbEntity
  8
SEIHIN
  6
Continuous
 62
     3
 48
5.0
100
AcDbLine
 10
448.0947860118733
 20
281.2835165125937
 30
0.0
 11
448.0948860118733
 21
260.9872165125937
 31
0.0
  0
ARC
  5
124F
330
1A
100
AcDbEntity
  8
SEIHIN
  6
Continuous
 62
     3
 48
5.0
100
AcDbCircle
 10
438.0410743490654
 20
251.9335071950068
 30
0.0
 40
0.9999906824812235
100
AcDbArc
 50
270.0006682358893
 51
347.244401336379
  0
ARC
  5
1250
330
1A
100
AcDbEntity
  8
SEIHIN
  6
Continuous
 62
     3
 48
5.0
100
AcDbCircle
 10
449.6718139695197
 20
249.2837449941842
 30
0.0
 40
9.000017972869652
100
AcDbArc
 50
95.31848400791337
 51
174.2623029041944
  0
ARC
  5
1251
330
1A
100
AcDbEntity
  8
SEIHIN
  6
Continuous
 62
     3
 48
5.0
100
AcDbCircle
 10
439.7218929214561
 20
250.2835227625546
 30
0.0
 40
1.000006249984781
100
AcDbArc
 50
269.9996041125234
 51
354.2605056144334
  0
ARC
  5
1252
330
1A
100
AcDbEntity
  8
SEIHIN
  6
Continuous
 62
     3
 48
5.0
100
AcDbCircle
 10
449.7447713770522
 20
249.2835018779025
 30
0.0
 40
10.99996983110322
100
AcDbArc
 50
102.757584758315
 51
167.2417248687058
  0
ARC
  5
1253
330
1A
100
AcDbEntity
  8
SEIHIN
  6
Continuous
 62
     3
 48
5.0
100
AcDbCircle
 10
447.0948953294601
 20
260.9872281754012
 30
0.0
 40
0.9999906824812471
100
AcDbArc
 50
282.7555986636232
 51
359.999331764118
  0
ARC
  5
1254
330
1A
100
AcDbEntity
  8
SEIHIN
  6
Continuous
 62
     3
 48
5.0
100
AcDbCircle
 10
448.744883066882
 20
259.2407132806871
 30
0.0
 40
1.000002944996631
100
AcDbArc
 50
275.3191090339157
 51
0.0001851740553145
  0
LINE
  5
1255
330
1A
100
AcDbEntity
  8
SEIHIN
  6
Continuous
 62
     3
 48
5.0
100
AcDbLine
 10
448.0947860118733
 20
281.2835165125937
 30
0.0
 11
448.0948860118733
 21
301.5799165125936
 31
0.0
  0
LINE
  5
1256
330
1A
100
AcDbEntity
  8
SEIHIN
  6
Continuous
 62
     3
 48
5.0
100
AcDbLine
 10
449.7448860118733
 20
281.2835165125937
 30
0.0
 11
449.7448860118733
 21
303.3263165125936
 31
0.0
  0
ARC
  5
1257
330
1A
100
AcDbEntity
  8
SEIHIN
  6
Continuous
 62
     3
 48
5.0
100
AcDbCircle
 10
447.094944095247
 20
301.5798438080866
 30
0.0
 40
0.999941919269467
100
AcDbArc
 50
0.0041659033641042
 51
77.24663374248755
  0
ARC
  5
1258
330
1A
100
AcDbEntity
  8
SEIHIN
  6
Continuous
 62
     3
 48
5.0
100
AcDbCircle
 10
448.744883066882
 20
303.3263197445
 30
0.0
 40
1.000002944996644
100
AcDbArc
 50
359.9998148259447
 51
84.68089096608428
  0
LINE
  5
1259
330
1A
100
AcDbEntity
  8
SEIHIN
  6
Continuous
 62
     3
 48
5.0
100
AcDbLine
 10
629.7477053989612
 20
262.9001165127011
 30
0.0
 11
629.747605398961
 21
232.9002165127011
 31
0.0
  0
ARC
  5
125A
330
1A
100
AcDbEntity
  8
SEIHIN
  6
Continuous
 62
     3
 48
5.0
100
AcDbCircle
 10
662.3547250008743
 20
233.0137674674913
 30
0.0
 40
26.89446093444596
100
AcDbArc
 50
91.39857080645397
 51
151.3699328573825
  0
LINE
  5
125B
330
1A
100
AcDbEntity
  8
CENTER　L
  6
CENTER
 62
     1
 48
5.0
100
AcDbLine
 10
661.6962053989611
 20
265.4778165127011
 30
0.0
 11
661.6960556823398
 21
220.9002165127011
 31
0.0
  0
LINE
  5
125C
330
1A
100
AcDbEntity
  8
SEIHIN
  6
Continuous
 62
     3
 48
5.0
100
AcDbLine
 10
661.6960053989608
 20
227.9002165127011
 30
0.0
 11
634.2461053989612
 21
227.9002165127011
 31
0.0
  0
LINE
  5
125D
330
1A
100
AcDbEntity
  8
SEIHIN
  6
Continuous
 62
     3
 48
5.0
100
AcDbLine
 10
633.2462053989614
 20
231.9002165127011
 30
0.0
 11
661.6960053989608
 21
231.9002165127011
 31
0.0
  0
LINE
  5
125E
330
1A
100
AcDbEntity
  8
SEIHIN
  6
Continuous
 62
     3
 48
5.0
100
AcDbLine
 10
638.7486053989607
 20
245.9001165127011
 30
0.0
 11
638.7486053989607
 21
232.9002165127011
 31
0.0
  0
LINE
  5
125F
330
1A
100
AcDbEntity
  8
SEIHIN
  6
Continuous
 62
     3
 48
5.0
100
AcDbLine
 10
638.747605398961
 20
245.9012165127012
 30
0.0
 11
638.747605398961
 21
232.9002165127011
 31
0.0
  0
LINE
  5
1260
330
1A
100
AcDbEntity
  8
SEIHIN
  6
Continuous
 62
     3
 48
5.0
100
AcDbLine
 10
629.7462053989614
 20
232.9002165127011
 30
0.0
 11
633.7462053989614
 21
232.9002165127011
 31
0.0
  0
LINE
  5
1261
330
1A
100
AcDbEntity
  8
SEIHIN
  6
Continuous
 62
     3
 48
5.0
100
AcDbLine
 10
633.2462053989614
 20
231.9001165127011
 30
0.0
 11
633.2461053989611
 21
232.9003165127011
 31
0.0
  0
LINE
  5
1262
330
1A
100
AcDbEntity
  8
SEIHIN
  6
Continuous
 62
     3
 48
5.0
100
AcDbLine
 10
633.2462053989614
 20
231.9001165127011
 30
0.0
 11
634.2461053989612
 21
227.9002165127011
 31
0.0
  0
ARC
  5
1263
330
1A
100
AcDbEntity
  8
SEIHIN
  6
Continuous
 62
     3
 48
5.0
100
AcDbCircle
 10
634.2493553989609
 20
241.8393165124248
 30
0.0
 40
6.060871172920879
100
AcDbArc
 50
42.0685459932674
 51
137.9314540067326
  0
LINE
  5
1264
330
1A
100
AcDbEntity
  8
SEIHIN
  6
Continuous
 62
     3
 48
5.0
100
AcDbLine
 10
629.7462053989614
 20
268.4961165127012
 30
0.0
 11
629.7462053989614
 21
262.9001165127011
 31
0.0
  0
ARC
  5
1265
330
1A
100
AcDbEntity
  8
CENTER　L
  6
CENTER
 62
     1
 48
5.0
100
AcDbCircle
 10
627.6962236376477
 20
265.4777746572841
 30
0.0
 40
33.99998176133951
100
AcDbArc
 50
0.0000705335308948
 51
47.09083291184036
  0
LINE
  5
126B
330
1A
100
AcDbEntity
  8
SEIHIN
  6
Continuous
 62
     3
 48
5.0
100
AcDbLine
 10
693.6462053989609
 20
232.9004165127011
 30
0.0
 11
693.6462053989609
 21
262.9002165127011
 31
0.0
  0
LINE
  5
126C
330
1A
100
AcDbEntity
  8
SEIHIN
  6
Continuous
 62
     3
 48
5.0
100
AcDbLine
 10
684.6477053989612
 20
245.9002165127011
 30
0.0
 11
684.6477053989612
 21
232.9004165127011
 31
0.0
  0
LINE
  5
126D
330
1A
100
AcDbEntity
  8
SEIHIN
  6
Continuous
 62
     3
 48
5.0
100
AcDbLine
 10
690.1463053989612
 20
231.9001165127011
 30
0.0
 11
690.146205398961
 21
232.9003165127011
 31
0.0
  0
LINE
  5
126E
330
1A
100
AcDbEntity
  8
SEIHIN
  6
Continuous
 62
     3
 48
5.0
100
AcDbLine
 10
690.1463053989612
 20
231.9001165127011
 30
0.0
 11
689.1463053989611
 21
227.9001165127011
 31
0.0
  0
ARC
  5
126F
330
1A
100
AcDbEntity
  8
SEIHIN
  6
Continuous
 62
     3
 48
5.0
100
AcDbCircle
 10
689.1469553989611
 20
241.8395165124249
 30
0.0
 40
6.060871172920879
100
AcDbArc
 50
42.0685459932674
 51
137.9314540067326
  0
LINE
  5
1270
330
1A
100
AcDbEntity
  8
SEIHIN
  6
Continuous
 62
     3
 48
5.0
100
AcDbLine
 10
693.6462053989609
 20
265.9678165127011
 30
0.0
 11
693.6461053989607
 21
262.9001165127011
 31
0.0
  0
LINE
  5
1271
330
1A
100
AcDbEntity
  8
SEIHIN
  6
Continuous
 62
     3
 48
5.0
100
AcDbLine
 10
440.6931860118734
 20
341.6026165125935
 30
0.0
 11
440.6933860118731
 21
364.6035165125935
 31
0.0
  0
LINE
  5
1272
330
1A
100
AcDbEntity
  8
SEIHIN
  6
Continuous
 62
     3
 48
5.0
100
AcDbLine
 10
440.6922860118732
 20
341.6037165125934
 30
0.0
 11
440.6923860118734
 21
364.6036165125935
 31
0.0
  0
LINE
  5
1273
330
1A
100
AcDbEntity
  8
SEIHIN
  6
Continuous
 62
     3
 48
5.0
100
AcDbLine
 10
449.6929860118732
 20
324.6036165125935
 30
0.0
 11
449.6933860118731
 21
364.6035165125935
 31
0.0
  0
ARC
  5
1274
330
1A
100
AcDbEntity
  8
SEIHIN
  6
Continuous
 62
     3
 48
5.0
100
AcDbCircle
 10
438.0410881712653
 20
310.6335147875965
 30
0.0
 40
1.000001724999315
100
AcDbArc
 50
12.76197876557398
 51
90.00012372382709
  0
ARC
  5
1275
330
1A
100
AcDbEntity
  8
SEIHIN
  6
Continuous
 62
     3
 48
5.0
100
AcDbCircle
 10
439.721887396422
 20
312.2836152600951
 30
0.0
 40
1.000001252499391
100
AcDbArc
 50
5.733476982268877
 51
90.00007932871133
  0
ARC
  5
1276
330
1A
100
AcDbEntity
  8
SEIHIN
  6
Continuous
 62
     3
 48
5.0
100
AcDbCircle
 10
445.1915360118732
 20
345.66441651287
 30
0.0
 40
6.060871172921079
100
AcDbArc
 50
222.0685459932673
 51
317.9314540067326
  0
LINE
  5
1277
330
1A
100
AcDbEntity
  8
SEIHIN
  6
Continuous
 62
     3
 48
5.0
100
AcDbLine
 10
451.6908860118733
 20
359.6035165125934
 30
0.0
 11
449.6908860118731
 21
359.6035165125934
 31
0.0
  0
LINE
  5
1278
330
1A
100
AcDbEntity
  8
SEIHIN
  6
Continuous
 62
     3
 48
5.0
100
AcDbLine
 10
449.6908860118731
 20
364.1035165125935
 30
0.0
 11
451.6908860118733
 21
360.1035165125936
 31
0.0
  0
LINE
  5
1279
330
1A
100
AcDbEntity
  8
SEIHIN
  6
Continuous
 62
     3
 48
5.0
100
AcDbLine
 10
451.6908860118733
 20
360.1035165125936
 30
0.0
 11
451.6908860118733
 21
359.6035165125934
 31
0.0
  0
LINE
  5
127A
330
1A
100
AcDbEntity
  8
SEIHIN
  6
Continuous
 62
     3
 48
5.0
100
AcDbLine
 10
608.0434053989613
 20
364.603416512701
 30
0.0
 11
671.9434053989609
 21
364.6030165127012
 31
0.0
  0
ARC
  5
127B
330
1A
100
AcDbEntity
  8
SEIHIN
  6
Continuous
 62
     3
 48
5.0
100
AcDbCircle
 10
612.5426553989612
 20
345.6643165129775
 30
0.0
 40
6.060871172921022
100
AcDbArc
 50
222.0685459932673
 51
317.9314540067326
  0
ARC
  5
127C
330
1A
100
AcDbEntity
  8
SEIHIN
  6
Continuous
 62
     3
 48
5.0
100
AcDbCircle
 10
640.648116637478
 20
354.4898096567882
 30
0.0
 40
26.89451458178933
100
AcDbArc
 50
208.6298690716226
 51
268.6005973967675
  0
LINE
  5
127D
330
1A
100
AcDbEntity
  8
SEIHIN
  6
Continuous
 62
     3
 48
5.0
100
AcDbLine
 10
608.0433053989611
 20
324.6032165127012
 30
0.0
 11
671.9433053989607
 21
324.6032165127012
 31
0.0
  0
LINE
  5
127E
330
1A
100
AcDbEntity
  8
SEIHIN
  6
Continuous
 62
     3
 48
5.0
100
AcDbLine
 10
608.0416053989613
 20
324.6033165127012
 30
0.0
 11
608.041905398961
 21
364.603416512701
 31
0.0
  0
LINE
  5
127F
330
1A
100
AcDbEntity
  8
SEIHIN
  6
Continuous
 62
     3
 48
5.0
100
AcDbLine
 10
608.0433053989611
 20
324.6032165127012
 30
0.0
 11
608.0433053989611
 21
318.3015165127011
 31
0.0
  0
LINE
  5
1280
330
1A
100
AcDbEntity
  8
SEIHIN
  6
Continuous
 62
     3
 48
5.0
100
AcDbLine
 10
662.9418053989613
 20
341.6021165127012
 30
0.0
 11
662.9420053989613
 21
364.6030165127012
 31
0.0
  0
LINE
  5
1281
330
1A
100
AcDbEntity
  8
SEIHIN
  6
Continuous
 62
     3
 48
5.0
100
AcDbLine
 10
662.9409053989613
 20
341.6032165127012
 30
0.0
 11
662.9411053989613
 21
364.6031165127012
 31
0.0
  0
LINE
  5
1282
330
1A
100
AcDbEntity
  8
SEIHIN
  6
Continuous
 62
     3
 48
5.0
100
AcDbLine
 10
617.0418053989608
 20
341.6035165127011
 30
0.0
 11
617.041905398961
 21
364.603316512701
 31
0.0
  0
LINE
  5
1283
330
1A
100
AcDbEntity
  8
CENTER　L
  6
CENTER
 62
     1
 48
5.0
100
AcDbLine
 10
639.9934053989611
 20
374.8326165127012
 30
0.0
 11
639.9932053989612
 21
315.2833165127012
 31
0.0
  0
LINE
  5
1284
330
1A
100
AcDbEntity
  8
SEIHIN
  6
Continuous
 62
     3
 48
5.0
100
AcDbLine
 10
671.9417053989611
 20
324.6031165127011
 30
0.0
 11
671.9420053989613
 21
364.6030165127012
 31
0.0
  0
ARC
  5
1285
330
1A
100
AcDbEntity
  8
SEIHIN
  6
Continuous
 62
     3
 48
5.0
100
AcDbCircle
 10
639.3347254523011
 20
354.4897677429776
 30
0.0
 40
26.89446703291199
100
AcDbArc
 50
271.3989121883765
 51
331.3701773617144
  0
LINE
  5
1286
330
1A
100
AcDbEntity
  8
SEIHIN
  6
Continuous
 62
     3
 48
5.0
100
AcDbLine
 10
671.9433053989607
 20
324.6032165127012
 30
0.0
 11
671.9433053989607
 21
316.6032165127012
 31
0.0
  0
LINE
  5
1287
330
1A
100
AcDbEntity
  8
SEIHIN
  6
Continuous
 62
     3
 48
5.0
100
AcDbLine
 10
671.9433053989607
 20
316.6032165127012
 30
0.0
 11
677.8023053989612
 21
309.5995165127011
 31
0.0
  0
ARC
  5
1288
330
1A
100
AcDbEntity
  8
SEIHIN
  6
Continuous
 62
     3
 48
5.0
100
AcDbCircle
 10
667.4401102708846
 20
345.663916512758
 30
0.0
 40
6.060837672302204
100
AcDbArc
 50
222.0688318324147
 51
317.932441619374
  0
LINE
  5
1289
330
1A
100
AcDbEntity
  8
SEIHIN
  6
Continuous
 62
     3
 48
5.0
100
AcDbLine
 10
636.4934053989611
 20
359.6029165127012
 30
0.0
 11
643.4934053989612
 21
359.6029165127012
 31
0.0
  0
LINE
  5
128A
330
1A
100
AcDbEntity
  8
SEIHIN
  6
Continuous
 62
     3
 48
5.0
100
AcDbLine
 10
643.4934053989612
 20
360.102916512701
 30
0.0
 11
636.4934053989611
 21
360.102916512701
 31
0.0
  0
LINE
  5
128B
330
1A
100
AcDbEntity
  8
SEIHIN
  6
Continuous
 62
     3
 48
5.0
100
AcDbLine
 10
636.4934053989611
 20
364.102916512701
 30
0.0
 11
643.4934053989612
 21
364.102916512701
 31
0.0
  0
LINE
  5
128C
330
1A
100
AcDbEntity
  8
SEIHIN
  6
Continuous
 62
     3
 48
5.0
100
AcDbLine
 10
636.4934053989611
 20
359.6029165127012
 30
0.0
 11
636.4934053989611
 21
364.102916512701
 31
0.0
  0
LINE
  5
128D
330
1A
100
AcDbEntity
  8
SEIHIN
  6
Continuous
 62
     3
 48
5.0
100
AcDbLine
 10
643.4934053989612
 20
359.6029165127012
 30
0.0
 11
643.4934053989612
 21
364.102916512701
 31
0.0
  0
TEXT
  5
13D8
330
1A
100
AcDbEntity
  8
moji
100
AcDbText
 10
245.6444363395276
 20
25.7260281369863
 30
0.0
 40
5.599999999999999
  1
自在エルボ
 41
0.9
  7
ｽﾀｲﾙ1
100
AcDbText
  0
TEXT
  5
13D9
330
1A
100
AcDbEntity
  8
moji
100
AcDbText
 10
246.0564899791543
 20
11.10456751199511
 30
0.0
 40
5.599999999999999
  1
Ｙ６０Ｈ－Ｙ６０Ｈ・ＵＴ６０
 41
0.9
  7
ｽﾀｲﾙ1
100
AcDbText
  0
TEXT
  5
1615
330
1A
100
AcDbEntity
  8
moji
100
AcDbText
 10
100.1577896017252
 20
19.74117799856344
 30
0.0
 40
6.0
  1
たてといアートフェイスＹ６０Ｈ
 41
0.9
  7
ｽﾀｲﾙ1
100
AcDbText
  0
VIEWPORT
  5
22
102
{ACAD_XDICTIONARY
360
1961
102
}
330
17
100
AcDbEntity
 67
     1
  8
0
100
AcDbViewport
 10
313.6808219178083
 20
148.5
 30
0.0
 40
627.3616438356165
 41
297.0
 68
     2
 69
     1
 12
313.6808219178083
 22
148.5
 13
0.0
 23
0.0
 14
1.0
 24
1.0
 15
10.0
 25
10.0
 16
0.0
 26
0.0
 36
1.0
 17
0.0
 27
0.0
 37
0.0
 42
50.0
 43
0.0
 44
0.0
 45
297.0
 50
0.0
 51
0.0
 72
   100
 90
    32768
  1

281
     0
 71
     1
 74
     0
110
0.0
120
0.0
130
0.0
111
1.0
121
0.0
131
0.0
112
0.0
122
1.0
132
0.0
 79
     0
146
0.0
  0
VIEWPORT
  5
64
102
{ACAD_XDICTIONARY
360
1963
102
}
330
17
100
AcDbEntity
 67
     1
  8
VIEWPORT
100
AcDbViewport
 10
210.0
 20
148.5
 30
0.0
 40
420.0
 41
297.0
 68
     1
 69
     2
 12
420.0
 22
297.0
 13
0.0
 23
0.0
 14
10.0
 24
10.0
 15
0.0
 25
0.0
 16
0.0
 26
0.0
 36
1.0
 17
0.0
 27
0.0
 37
0.0
 42
50.0
 43
0.0
 44
0.0
 45
605.8799999999998
 50
0.0
 51
0.0
 72
   100
 90
    32768
  1

281
     0
 71
     1
 74
     0
110
0.0
120
0.0
130
0.0
111
1.0
121
0.0
131
0.0
112
0.0
122
1.0
132
0.0
 79
     0
146
0.0
  0
ENDSEC
  0
SECTION
  2
OBJECTS
  0
DICTIONARY
  5
C
330
0
100
AcDbDictionary
281
     1
  3
ACAD_COLOR
350
194B
  3
ACAD_GROUP
350
D
  3
ACAD_LAYOUT
350
787
  3
ACAD_MATERIAL
350
194A
  3
ACAD_MLINESTYLE
350
E
  3
ACAD_PLOTSETTINGS
350
788
  3
ACAD_PLOTSTYLENAME
350
785
  3
ACDBHEADERROUNDTRIPXREC
350
195E
  3
AcDbVariableDictionary
350
195A
  0
DICTIONARY
  5
7B6
330
1A
100
AcDbDictionary
280
     1
281
     1
  3
ACAD_LAYOUTSELFREF
360
1927
  0
DICTIONARY
  5
7B4
330
17
100
AcDbDictionary
280
     1
281
     1
  3
ACAD_LAYOUTSELFREF
360
1926
  0
DICTIONARY
  5
1961
330
22
100
AcDbDictionary
280
     1
281
     1
  3
ACAD_XREC_ROUNDTRIP
360
1962
  0
DICTIONARY
  5
1963
330
64
100
AcDbDictionary
280
     1
281
     1
  3
ACAD_XREC_ROUNDTRIP
360
1964
  0
DICTIONARY
  5
194B
102
{ACAD_REACTORS
330
C
102
}
330
C
100
AcDbDictionary
281
     1
  0
DICTIONARY
  5
D
102
{ACAD_REACTORS
330
C
102
}
330
C
100
AcDbDictionary
281
     1
  0
DICTIONARY
  5
787
102
{ACAD_REACTORS
330
C
102
}
330
C
100
AcDbDictionary
281
     1
  3
Model
350
789
  3
ﾚｲｱｳﾄ1
350
78A
  0
DICTIONARY
  5
194A
102
{ACAD_REACTORS
330
C
102
}
330
C
100
AcDbDictionary
281
     1
  0
DICTIONARY
  5
E
102
{ACAD_REACTORS
330
C
102
}
330
C
100
AcDbDictionary
281
     1
  3
STANDARD
350
13
  0
DICTIONARY
  5
788
102
{ACAD_REACTORS
330
C
102
}
330
C
100
AcDbDictionary
281
     1
  0
ACDBDICTIONARYWDFLT
  5
785
102
{ACAD_REACTORS
330
C
102
}
330
C
100
AcDbDictionary
281
     1
  3
Normal
350
786
100
AcDbDictionaryWithDefault
340
786
1001
ACAD
1000
TREAT_AS_HARD
1070
     0
1000
TREAT_AS_HARD
1070
     0
1000
TREAT_AS_HARD
1070
     0
1000
TREAT_AS_HARD
1070
     0
1000
TREAT_AS_HARD
1070
     0
  0
DICTIONARY
  5
195E
102
{ACAD_REACTORS
330
C
102
}
330
C
100
AcDbDictionary
281
     1
  3
COLORDICT
350
1960
  3
MATERIALDICT
350
195F
  0
DICTIONARY
  5
195A
102
{ACAD_REACTORS
330
C
102
}
330
C
100
AcDbDictionary
281
     1
  3
DIMASSOC
350
195B
  3
PROJECTNAME
350
195C
  0
XRECORD
  5
1927
102
{ACAD_REACTORS
330
7B6
102
}
330
7B6
100
AcDbXrecord
280
     1
340
1A
  0
XRECORD
  5
1926
102
{ACAD_REACTORS
330
7B4
102
}
330
7B4
100
AcDbXrecord
280
     1
340
17
  0
XRECORD
  5
1962
102
{ACAD_REACTORS
330
1961
102
}
330
1961
100
AcDbXrecord
280
     1
102
SHADEPLOT
 70
     0
  0
XRECORD
  5
1964
102
{ACAD_REACTORS
330
1963
102
}
330
1963
100
AcDbXrecord
280
     1
102
SHADEPLOT
 70
     0
  0
LAYOUT
  5
789
102
{ACAD_XDICTIONARY
360
1965
102
}
102
{ACAD_REACTORS
330
787
102
}
330
787
100
AcDbPlotSettings
  1

  2
Acrobat Distiller
  4
A3
  6

 40
3.174999952316284
 41
3.174999952316284
 42
3.17498779296875
 43
3.17498779296875
 44
297.0318298339844
 45
420.1583251953125
 46
0.0
 47
0.0
 48
0.0
 49
0.0
140
0.0
141
0.0
142
1.0
143
2.0
 70
 28336
 72
     1
 73
     1
 74
     2
  7
print.ctb
 75
    17
147
0.5
148
0.0
149
0.0
100
AcDbLayout
  1
Model
 70
     1
 71
     0
 10
0.0
 20
0.0
 11
12.0
 21
9.0
 12
0.0
 22
0.0
 32
0.0
 14
0.0
 24
0.0
 34
0.0
 15
0.0
 25
0.0
 35
0.0
146
0.0
 13
0.0
 23
0.0
 33
0.0
 16
1.0
 26
0.0
 36
0.0
 17
0.0
 27
1.0
 37
0.0
 76
     0
330
1A
  0
LAYOUT
  5
78A
102
{ACAD_XDICTIONARY
360
1967
102
}
102
{ACAD_REACTORS
330
787
102
}
330
787
100
AcDbPlotSettings
  1

  2
Canon LBP-730 LIPS4
  4

  6

 40
0.0
 41
0.0
 42
0.0
 43
0.0
 44
0.0
 45
0.0
 46
0.0
 47
0.0
 48
0.0
 49
0.0
140
0.0
141
0.0
142
1.0
143
1.0
 70
   688
 72
     0
 73
     0
 74
     5
  7
print.ctb
 75
    16
147
1.0
148
0.0
149
0.0
100
AcDbLayout
  1
ﾚｲｱｳﾄ1
 70
     1
 71
     1
 10
0.0
 20
0.0
 11
420.0
 21
297.0
 12
0.0
 22
0.0
 32
0.0
 14
0.0
 24
0.0
 34
0.0
 15
420.0
 25
297.0
 35
0.0
146
0.0
 13
0.0
 23
0.0
 33
0.0
 16
1.0
 26
0.0
 36
0.0
 17
0.0
 27
1.0
 37
0.0
 76
     0
330
17
331
64
  0
MLINESTYLE
  5
13
102
{ACAD_REACTORS
330
E
102
}
330
E
100
AcDbMlineStyle
  2
STANDARD
 70
     0
  3

 62
     0
 51
90.0
 52
90.0
 71
     2
 49
0.5
 62
   256
  6
BYLAYER
 49
-0.5
 62
   256
  6
BYLAYER
  0
ACDBPLACEHOLDER
  5
786
102
{ACAD_REACTORS
330
785
102
}
330
785
  0
XRECORD
  5
1960
102
{ACAD_REACTORS
330
195E
102
}
330
195E
100
AcDbXrecord
280
     1
340
194B
  0
XRECORD
  5
195F
102
{ACAD_REACTORS
330
195E
102
}
330
195E
100
AcDbXrecord
280
     1
340
194A
  0
DICTIONARYVAR
  5
195B
102
{ACAD_REACTORS
330
195A
102
}
330
195A
100
DictionaryVariables
280
     0
  1
1
  0
DICTIONARYVAR
  5
195C
102
{ACAD_REACTORS
330
195A
102
}
330
195A
100
DictionaryVariables
280
     0
  1

  0
DICTIONARY
  5
1965
330
789
100
AcDbDictionary
280
     1
281
     1
  3
ACAD_XREC_ROUNDTRIP
360
1966
  0
DICTIONARY
  5
1967
330
78A
100
AcDbDictionary
280
     1
281
     1
  3
ACAD_XREC_ROUNDTRIP
360
1968
  0
XRECORD
  5
1966
102
{ACAD_REACTORS
330
1965
102
}
330
1965
100
AcDbXrecord
280
     1
102
SHADEPLOT
 70
     0
102
SHADEPLOTRESLEVEL
 70
     2
102
SHADEPLOTCUSTOMDPI
 70
   300
  0
XRECORD
  5
1968
102
{ACAD_REACTORS
330
1967
102
}
330
1967
100
AcDbXrecord
280
     1
102
SHADEPLOT
 70
     0
102
SHADEPLOTRESLEVEL
 70
     2
102
SHADEPLOTCUSTOMDPI
 70
   300
  0
ENDSEC
  0
EOF
