  0
SECTION
  2
HEADER
  9
$ACADVER
  1
AC1014
  9
$ACADMAINTVER
 70
     9
  9
$DWGCODEPAGE
  3
ANSI_932
  9
$INSBASE
 10
0.0
 20
0.0
 30
0.0
  9
$EXTMIN
 10
-0.0128164049386896
 20
-0.0090630292066862
 30
-0.0015258207003583
  9
$EXTMAX
 10
398.8000497813338
 20
275.8226172440017
 30
0.0000000349246037
  9
$LIMMIN
 10
0.0
 20
0.0
  9
$LIMMAX
 10
420.0
 20
297.0
  9
$ORTHOMODE
 70
     0
  9
$REGENMODE
 70
     1
  9
$FILLMODE
 70
     1
  9
$QTEXTMODE
 70
     0
  9
$MIRRTEXT
 70
     1
  9
$DRAGMODE
 70
     2
  9
$LTSCALE
 40
1.0
  9
$OSMODE
 70
    37
  9
$ATTMODE
 70
     1
  9
$TEXTSIZE
 40
2.5
  9
$TRACEWID
 40
1.0
  9
$TEXTSTYLE
  7
STANDARD
  9
$CLAYER
  8
SUNPOU
  9
$CELTYPE
  6
BYLAYER
  9
$CECOLOR
 62
   256
  9
$CELTSCALE
 40
1.0
  9
$DELOBJ
 70
     1
  9
$DISPSILH
 70
     0
  9
$DIMSCALE
 40
1.0
  9
$DIMASZ
 40
3.0
  9
$DIMEXO
 40
3.0
  9
$DIMDLI
 40
7.0
  9
$DIMRND
 40
0.0
  9
$DIMDLE
 40
0.0
  9
$DIMEXE
 40
1.5
  9
$DIMTP
 40
0.0
  9
$DIMTM
 40
0.0
  9
$DIMTXT
 40
3.0
  9
$DIMCEN
 40
150.0
  9
$DIMTSZ
 40
0.0
  9
$DIMTOL
 70
     0
  9
$DIMLIM
 70
     0
  9
$DIMTIH
 70
     0
  9
$DIMTOH
 70
     0
  9
$DIMSE1
 70
     0
  9
$DIMSE2
 70
     0
  9
$DIMTAD
 70
     3
  9
$DIMZIN
 70
     0
  9
$DIMBLK
  1

  9
$DIMASO
 70
     1
  9
$DIMSHO
 70
     1
  9
$DIMPOST
  1

  9
$DIMAPOST
  1

  9
$DIMALT
 70
     0
  9
$DIMALTD
 70
     2
  9
$DIMALTF
 40
25.4
  9
$DIMLFAC
 40
1.0
  9
$DIMTOFL
 70
     1
  9
$DIMTVP
 40
0.0
  9
$DIMTIX
 70
     0
  9
$DIMSOXD
 70
     0
  9
$DIMSAH
 70
     1
  9
$DIMBLK1
  1
OPEN
  9
$DIMBLK2
  1
OPEN
  9
$DIMSTYLE
  2
STANDARD
  9
$DIMCLRD
 70
   256
  9
$DIMCLRE
 70
   256
  9
$DIMCLRT
 70
   256
  9
$DIMTFAC
 40
1.0
  9
$DIMGAP
 40
1.0
  9
$DIMJUST
 70
     0
  9
$DIMSD1
 70
     0
  9
$DIMSD2
 70
     0
  9
$DIMTOLJ
 70
     1
  9
$DIMTZIN
 70
     0
  9
$DIMALTZ
 70
     0
  9
$DIMALTTZ
 70
     0
  9
$DIMFIT
 70
     3
  9
$DIMUPT
 70
     0
  9
$DIMUNIT
 70
     2
  9
$DIMDEC
 70
     0
  9
$DIMTDEC
 70
     0
  9
$DIMALTU
 70
     2
  9
$DIMALTTD
 70
     2
  9
$DIMTXSTY
  7
STANDARD
  9
$DIMAUNIT
 70
     0
  9
$LUNITS
 70
     2
  9
$LUPREC
 70
     4
  9
$SKETCHINC
 40
1.0
  9
$FILLETRAD
 40
10.0
  9
$AUNITS
 70
     0
  9
$AUPREC
 70
     0
  9
$MENU
  1
.
  9
$ELEVATION
 40
0.0
  9
$PELEVATION
 40
0.0
  9
$THICKNESS
 40
0.0
  9
$LIMCHECK
 70
     0
  9
$BLIPMODE
 70
     0
  9
$CHAMFERA
 40
10.0
  9
$CHAMFERB
 40
10.0
  9
$CHAMFERC
 40
20.0
  9
$CHAMFERD
 40
0.0
  9
$SKPOLY
 70
     0
  9
$TDCREATE
 40
2451204.541313194
  9
$TDUPDATE
 40
2454594.402969826
  9
$TDINDWG
 40
0.0153340741
  9
$TDUSRTIMER
 40
0.0153340741
  9
$USRTIMER
 70
     1
  9
$ANGBASE
 50
0.0
  9
$ANGDIR
 70
     0
  9
$PDMODE
 70
     0
  9
$PDSIZE
 40
0.0
  9
$PLINEWID
 40
0.0
  9
$COORDS
 70
     0
  9
$SPLFRAME
 70
     0
  9
$SPLINETYPE
 70
     6
  9
$SPLINESEGS
 70
     8
  9
$ATTDIA
 70
     0
  9
$ATTREQ
 70
     1
  9
$HANDLING
 70
 10241
  9
$HANDSEED
  5
652
  9
$SURFTAB1
 70
     6
  9
$SURFTAB2
 70
     6
  9
$SURFTYPE
 70
     6
  9
$SURFU
 70
     6
  9
$SURFV
 70
     6
  9
$UCSNAME
  2

  9
$UCSORG
 10
0.0
 20
0.0
 30
0.0
  9
$UCSXDIR
 10
1.0
 20
0.0
 30
0.0
  9
$UCSYDIR
 10
0.0
 20
1.0
 30
0.0
  9
$PUCSNAME
  2

  9
$PUCSORG
 10
0.0
 20
0.0
 30
0.0
  9
$PUCSXDIR
 10
1.0
 20
0.0
 30
0.0
  9
$PUCSYDIR
 10
0.0
 20
1.0
 30
0.0
  9
$USERI1
 70
     0
  9
$USERI2
 70
     0
  9
$USERI3
 70
     0
  9
$USERI4
 70
     0
  9
$USERI5
 70
     0
  9
$USERR1
 40
0.0
  9
$USERR2
 40
0.0
  9
$USERR3
 40
0.0
  9
$USERR4
 40
0.0
  9
$USERR5
 40
0.0
  9
$WORLDVIEW
 70
     1
  9
$SHADEDGE
 70
     3
  9
$SHADEDIF
 70
    70
  9
$TILEMODE
 70
     1
  9
$MAXACTVP
 70
    16
  9
$PINSBASE
 10
0.0
 20
0.0
 30
0.0
  9
$PLIMCHECK
 70
     0
  9
$PEXTMIN
 10
0.0
 20
0.0
 30
0.0
  9
$PEXTMAX
 10
420.0
 20
297.0
 30
0.0
  9
$PLIMMIN
 10
0.0
 20
0.0
  9
$PLIMMAX
 10
420.0
 20
297.0
  9
$UNITMODE
 70
     0
  9
$VISRETAIN
 70
     0
  9
$PLINEGEN
 70
     0
  9
$PSLTSCALE
 70
     1
  9
$TREEDEPTH
 70
  3020
  9
$PICKSTYLE
 70
     1
  9
$CMLSTYLE
  2
STANDARD
  9
$CMLJUST
 70
     0
  9
$CMLSCALE
 40
1.0
  9
$PROXYGRAPHICS
 70
     1
  9
$MEASUREMENT
 70
     1
  0
ENDSEC
  0
SECTION
  2
CLASSES
  0
CLASS
  1
ACDBDICTIONARYWDFLT
  2
AcDbDictionaryWithDefault
  3
AutoCAD 2000
 90
        0
280
     0
281
     0
  0
CLASS
  1
ACDBPLACEHOLDER
  2
AcDbPlaceHolder
  3
AutoCAD 2000
 90
        0
280
     0
281
     0
  0
CLASS
  1
LAYOUT
  2
AcDbLayout
  3
AutoCAD 2000
 90
        0
280
     0
281
     0
  0
CLASS
  1
LONG_TRANSACTION
  2
AcDbLongTransaction
  3
AutoCAD 2000
 90
        0
280
     0
281
     0
  0
CLASS
  1
LWPOLYLINE
  2
AcDbPolyline
  3
AutoCAD 2000
 90
        0
280
     0
281
     1
  0
CLASS
  1
HATCH
  2
AcDbHatch
  3
AutoCAD 2000
 90
        0
280
     0
281
     1
  0
CLASS
  1
XRECORD
  2
AcDbXrecord
  3
AutoCAD 2000
 90
        0
280
     0
281
     0
  0
CLASS
  1
LONG_TRANSACTION
  2
AcDbLongTransaction
  3
AutoCAD 2000
 90
        0
280
     0
281
     0
  0
CLASS
  1
LWPOLYLINE
  2
AcDbPolyline
  3
AutoCAD 2000
 90
        0
280
     0
281
     1
  0
CLASS
  1
HATCH
  2
AcDbHatch
  3
AutoCAD 2000
 90
        0
280
     0
281
     1
  0
CLASS
  1
XRECORD
  2
AcDbXrecord
  3
AutoCAD 2000
 90
        0
280
     0
281
     0
  0
CLASS
  1
LONG_TRANSACTION
  2
AcDbLongTransaction
  3
AutoCAD 2000
 90
        0
280
     0
281
     0
  0
CLASS
  1
LWPOLYLINE
  2
AcDbPolyline
  3
AutoCAD 2000
 90
        0
280
     0
281
     1
  0
CLASS
  1
HATCH
  2
AcDbHatch
  3
AutoCAD 2000
 90
        0
280
     0
281
     1
  0
CLASS
  1
XRECORD
  2
AcDbXrecord
  3
AutoCAD 2000
 90
        0
280
     0
281
     0
  0
CLASS
  1
LONG_TRANSACTION
  2
AcDbLongTransaction
  3
AutoCAD 2000
 90
        0
280
     0
281
     0
  0
CLASS
  1
LWPOLYLINE
  2
AcDbPolyline
  3
AutoCAD 2000
 90
        0
280
     0
281
     1
  0
CLASS
  1
HATCH
  2
AcDbHatch
  3
AutoCAD 2000
 90
        0
280
     0
281
     1
  0
CLASS
  1
XRECORD
  2
AcDbXrecord
  3
AutoCAD 2000
 90
        0
280
     0
281
     0
  0
ENDSEC
  0
SECTION
  2
TABLES
  0
TABLE
  2
VPORT
  5
8
330
0
100
AcDbSymbolTable
 70
     3
  0
VPORT
  5
62E
330
8
100
AcDbSymbolTableRecord
100
AcDbViewportTableRecord
  2
*ACTIVE
 70
     0
 10
0.0
 20
0.0
 11
1.0
 21
1.0
 12
202.0055685104336
 22
162.176754702693
 13
0.0
 23
0.0
 14
5.0
 24
5.0
 15
0.0
 25
0.0
 16
0.0
 26
0.0
 36
1.0
 17
0.0
 27
0.0
 37
0.0
 40
377.3517685113761
 41
1.57015306122449
 42
50.0
 43
0.0
 44
0.0
 50
0.0
 51
0.0
 71
     0
 72
   100
 73
     1
 74
     0
 75
     0
 76
     0
 77
     0
 78
     0
  0
ENDTAB
  0
TABLE
  2
LTYPE
  5
5
330
0
100
AcDbSymbolTable
 70
     2
  0
LTYPE
  5
14
330
5
100
AcDbSymbolTableRecord
100
AcDbLinetypeTableRecord
  2
BYBLOCK
 70
     0
  3

 72
    65
 73
     0
 40
0.0
  0
LTYPE
  5
15
330
5
100
AcDbSymbolTableRecord
100
AcDbLinetypeTableRecord
  2
BYLAYER
 70
     0
  3

 72
    65
 73
     0
 40
0.0
  0
LTYPE
  5
16
330
5
100
AcDbSymbolTableRecord
100
AcDbLinetypeTableRecord
  2
CONTINUOUS
 70
     0
  3
Solid line
 72
    65
 73
     0
 40
0.0
  0
LTYPE
  5
120
330
5
100
AcDbSymbolTableRecord
100
AcDbLinetypeTableRecord
  2
CENTER
 70
     0
  3
____ _ ____ _ ____ _ ____ _ ____ _ ____ _ ____ 
 72
    65
 73
     4
 40
2.0
 49
1.25
 74
     0
 49
-0.25
 74
     0
 49
0.25
 74
     0
 49
-0.25
 74
     0
  0
ENDTAB
  0
TABLE
  2
LAYER
  5
2
330
0
100
AcDbSymbolTable
 70
     8
  0
LAYER
  5
F
330
2
100
AcDbSymbolTableRecord
100
AcDbLayerTableRecord
  2
0
 70
     0
 62
     7
  6
CONTINUOUS
  0
LAYER
  5
62
330
2
100
AcDbSymbolTableRecord
100
AcDbLayerTableRecord
  2
VIEWPORT
 70
     0
 62
     7
  6
CONTINUOUS
  0
LAYER
  5
6B
330
2
100
AcDbSymbolTableRecord
100
AcDbLayerTableRecord
  2
ZUWAKU
 70
     0
 62
     7
  6
CONTINUOUS
  0
LAYER
  5
13D
330
2
100
AcDbSymbolTableRecord
100
AcDbLayerTableRecord
  2
SEIHIN
 70
     0
 62
     3
  6
CONTINUOUS
  0
LAYER
  5
13E
330
2
100
AcDbSymbolTableRecord
100
AcDbLayerTableRecord
  2
SUNPOU
 70
     0
 62
     4
  6
CONTINUOUS
  0
LAYER
  5
13F
330
2
100
AcDbSymbolTableRecord
100
AcDbLayerTableRecord
  2
CENTER_L
 70
     0
 62
     1
  6
CENTER
  0
LAYER
  5
140
330
2
100
AcDbSymbolTableRecord
100
AcDbLayerTableRecord
  2
DEFPOINTS
 70
     0
 62
     7
  6
CONTINUOUS
  0
LAYER
  5
4BA
330
2
100
AcDbSymbolTableRecord
100
AcDbLayerTableRecord
  2
MOJI
 70
     0
 62
     2
  6
CONTINUOUS
  0
ENDTAB
  0
TABLE
  2
STYLE
  5
3
330
0
100
AcDbSymbolTable
 70
     2
  0
STYLE
  5
10
330
3
100
AcDbSymbolTableRecord
100
AcDbTextStyleTableRecord
  2
STANDARD
 70
     0
 40
0.0
 41
1.0
 50
0.0
 71
     0
 42
2.5
  3
TXT
  4
bigfont.shx
  0
STYLE
  5
4BB
330
3
100
AcDbSymbolTableRecord
100
AcDbTextStyleTableRecord
  2
ｽﾀｲﾙ1
 70
     0
 40
0.0
 41
1.0
 50
0.0
 71
     0
 42
2.5
  3
MS PGothic.ttf
  4

1001
ACAD
1000
MS PGothic
1071
    32818
  0
ENDTAB
  0
TABLE
  2
VIEW
  5
6
330
0
100
AcDbSymbolTable
 70
     0
  0
ENDTAB
  0
TABLE
  2
UCS
  5
7
330
0
100
AcDbSymbolTable
 70
     0
  0
ENDTAB
  0
TABLE
  2
APPID
  5
9
330
0
100
AcDbSymbolTable
 70
     1
  0
APPID
  5
11
330
9
100
AcDbSymbolTableRecord
100
AcDbRegAppTableRecord
  2
ACAD
 70
     0
  0
ENDTAB
  0
TABLE
  2
DIMSTYLE
  5
A
330
0
100
AcDbSymbolTable
 70
     1
  0
DIMSTYLE
105
1D
102
{ACAD_REACTORS
330
2FA
330
317
330
321
330
33B
330
362
330
36F
102
}
330
A
100
AcDbSymbolTableRecord
100
AcDbDimStyleTableRecord
  2
STANDARD
 70
     0
  3

  4

  5

  6

  7

 40
1.0
 41
0.18
 42
0.0625
 43
0.38
 44
0.18
 45
0.0
 46
0.0
 47
0.0
 48
0.0
140
0.18
141
0.09
142
0.0
143
25.4
144
1.0
145
0.0
146
1.0
147
0.09
 71
     0
 72
     0
 73
     1
 74
     1
 75
     0
 76
     0
 77
     0
 78
     0
170
     0
171
     2
172
     0
173
     0
174
     0
175
     0
176
     0
177
     0
178
     0
270
     2
271
     4
272
     4
273
     2
274
     2
340
10
275
     0
280
     0
281
     0
282
     0
283
     1
284
     0
285
     0
286
     0
287
     3
288
     0
  0
ENDTAB
  0
TABLE
  2
BLOCK_RECORD
  5
1
330
0
100
AcDbSymbolTable
 70
     8
  0
BLOCK_RECORD
  5
1A
102
{ACAD_XDICTIONARY
360
444
102
}
330
1
100
AcDbSymbolTableRecord
100
AcDbBlockTableRecord
  2
*MODEL_SPACE
  0
BLOCK_RECORD
  5
17
102
{ACAD_XDICTIONARY
360
442
102
}
330
1
100
AcDbSymbolTableRecord
100
AcDbBlockTableRecord
  2
*PAPER_SPACE
  0
BLOCK_RECORD
  5
B2
330
1
100
AcDbSymbolTableRecord
100
AcDbBlockTableRecord
  2
_OPEN
  0
BLOCK_RECORD
  5
2EE
330
1
100
AcDbSymbolTableRecord
100
AcDbBlockTableRecord
  2
*D1
  0
BLOCK_RECORD
  5
309
330
1
100
AcDbSymbolTableRecord
100
AcDbBlockTableRecord
  2
*D2
  0
BLOCK_RECORD
  5
318
330
1
100
AcDbSymbolTableRecord
100
AcDbBlockTableRecord
  2
*D3
  0
BLOCK_RECORD
  5
32F
330
1
100
AcDbSymbolTableRecord
100
AcDbBlockTableRecord
  2
*D4
  0
BLOCK_RECORD
  5
356
330
1
100
AcDbSymbolTableRecord
100
AcDbBlockTableRecord
  2
*D5
  0
BLOCK_RECORD
  5
363
330
1
100
AcDbSymbolTableRecord
100
AcDbBlockTableRecord
  2
*D6
  0
ENDTAB
  0
ENDSEC
  0
SECTION
  2
BLOCKS
  0
BLOCK
  5
1B
330
1A
100
AcDbEntity
  8
0
100
AcDbBlockBegin
  2
*MODEL_SPACE
 70
     0
 10
0.0
 20
0.0
 30
0.0
  3
*MODEL_SPACE
  1

  0
ENDBLK
  5
1C
330
1A
100
AcDbEntity
  8
0
100
AcDbBlockEnd
  0
BLOCK
  5
18
330
17
100
AcDbEntity
 67
     1
  8
0
100
AcDbBlockBegin
  2
*PAPER_SPACE
 70
     0
 10
0.0
 20
0.0
 30
0.0
  3
*PAPER_SPACE
  1

  0
ENDBLK
  5
19
330
17
100
AcDbEntity
 67
     1
  8
0
100
AcDbBlockEnd
  0
BLOCK
  5
B3
330
B2
100
AcDbEntity
  8
0
100
AcDbBlockBegin
  2
_OPEN
 70
     0
 10
0.0
 20
0.0
 30
0.0
  3
_OPEN
  1

  0
LINE
  5
B4
330
B2
100
AcDbEntity
  8
0
  6
BYBLOCK
 62
     0
100
AcDbLine
 10
-1.0
 20
0.1666666666666666
 30
0.0
 11
0.0
 21
0.0
 31
0.0
  0
LINE
  5
B5
330
B2
100
AcDbEntity
  8
0
  6
BYBLOCK
 62
     0
100
AcDbLine
 10
0.0
 20
0.0
 30
0.0
 11
-1.0
 21
-0.1666666666666666
 31
0.0
  0
LINE
  5
B6
330
B2
100
AcDbEntity
  8
0
  6
BYBLOCK
 62
     0
100
AcDbLine
 10
0.0
 20
0.0
 30
0.0
 11
-1.0
 21
0.0
 31
0.0
  0
ENDBLK
  5
B7
330
B2
100
AcDbEntity
  8
0
100
AcDbBlockEnd
  0
BLOCK
  5
3F8
330
2EE
100
AcDbEntity
  8
0
100
AcDbBlockBegin
  2
*D1
 70
     1
 10
0.0
 20
0.0
 30
0.0
  3
*D1
  1

  0
LINE
  5
3F9
330
2EE
100
AcDbEntity
  8
0
  6
BYBLOCK
 62
     4
100
AcDbLine
 10
80.66738669227191
 20
114.2911923786628
 30
0.0
 11
80.66738669227191
 21
129.3979146602472
 31
0.0
  0
LINE
  5
3FA
330
2EE
100
AcDbEntity
  8
0
  6
BYBLOCK
 62
     4
100
AcDbLine
 10
180.6673866922717
 20
114.2909923786629
 30
0.0
 11
180.6673866922717
 21
129.3979146602472
 31
0.0
  0
LINE
  5
3FB
330
2EE
100
AcDbEntity
  8
0
  6
BYBLOCK
 62
     4
100
AcDbLine
 10
83.66738669227192
 20
127.8979146602472
 30
0.0
 11
177.6673866922717
 21
127.8979146602472
 31
0.0
  0
INSERT
  5
3FC
330
2EE
100
AcDbEntity
  8
0
  6
BYBLOCK
 62
     4
100
AcDbBlockReference
  2
_OPEN
 10
80.66738669227191
 20
127.8979146602472
 30
0.0
 41
3.0
 42
3.0
 43
3.0
 50
180.0
  0
INSERT
  5
3FD
330
2EE
100
AcDbEntity
  8
0
  6
BYBLOCK
 62
     4
100
AcDbBlockReference
  2
_OPEN
 10
180.6673866922717
 20
127.8979146602472
 30
0.0
 41
3.0
 42
3.0
 43
3.0
  0
MTEXT
  5
3FE
330
2EE
100
AcDbEntity
  8
0
  6
BYBLOCK
 62
     4
100
AcDbMText
 10
130.6673866922718
 20
130.3979146602472
 30
0.0
 40
3.0
 41
0.0
 71
     5
 72
     5
  1
\A1;φ100
1001
ACAD
1000
MTEXTBEGIN
1070
    73
1070
     1
1070
    44
1040
1.0
1070
    74
1070
     0
1000
MTEXTEND
1000
MTEXTBEGIN
1070
    73
1070
     1
1070
    44
1040
1.0
1070
    74
1070
     0
1000
MTEXTEND
1000
MTEXTBEGIN
1070
    73
1070
     1
1070
    44
1040
1.0
1070
    74
1070
     0
1000
MTEXTEND
1000
MTEXTBEGIN
1070
    73
1070
     1
1070
    44
1040
1.0
1070
    74
1070
     0
1000
MTEXTEND
  0
POINT
  5
3FF
330
2EE
100
AcDbEntity
  8
DEFPOINTS
  6
BYBLOCK
 62
     0
100
AcDbPoint
 10
80.66738669227191
 20
111.2911923786628
 30
0.0
  0
POINT
  5
400
330
2EE
100
AcDbEntity
  8
DEFPOINTS
  6
BYBLOCK
 62
     0
100
AcDbPoint
 10
180.6673866922717
 20
111.2909923786629
 30
0.0
  0
POINT
  5
401
330
2EE
100
AcDbEntity
  8
DEFPOINTS
  6
BYBLOCK
 62
     0
100
AcDbPoint
 10
180.6673866922717
 20
127.8979146602472
 30
0.0
  0
ENDBLK
  5
402
330
2EE
100
AcDbEntity
  8
0
100
AcDbBlockEnd
  0
BLOCK
  5
3D6
330
309
100
AcDbEntity
  8
0
100
AcDbBlockBegin
  2
*D2
 70
     1
 10
0.0
 20
0.0
 30
0.0
  3
*D2
  1

  0
LINE
  5
3D7
330
309
100
AcDbEntity
  8
0
  6
BYBLOCK
 62
     4
100
AcDbLine
 10
169.6698411995131
 20
74.79088802347447
 30
0.0
 11
191.1520429036457
 21
74.79088802347447
 31
0.0
  0
LINE
  5
3D8
330
309
100
AcDbEntity
  8
0
  6
BYBLOCK
 62
     4
100
AcDbLine
 10
168.1672866922719
 20
64.79089237866293
 30
0.0
 11
191.1520429036457
 21
64.79089237866293
 31
0.0
  0
LINE
  5
3D9
330
309
100
AcDbEntity
  8
0
  6
BYBLOCK
 62
     4
100
AcDbLine
 10
189.6520429036456
 20
71.79088802347448
 30
0.0
 11
189.6520429036456
 21
67.79089237866293
 31
0.0
  0
LINE
  5
3DA
330
309
100
AcDbEntity
  8
0
  6
BYBLOCK
 62
     4
100
AcDbLine
 10
189.6520429036456
 20
64.79089237866293
 30
0.0
 11
189.6520429036456
 21
49.69089237866293
 31
0.0
  0
INSERT
  5
3DB
330
309
100
AcDbEntity
  8
0
  6
BYBLOCK
 62
     4
100
AcDbBlockReference
  2
_OPEN
 10
189.6520429036456
 20
74.79088802347447
 30
0.0
 41
3.0
 42
3.0
 43
3.0
 50
90.0
  0
INSERT
  5
3DC
330
309
100
AcDbEntity
  8
0
  6
BYBLOCK
 62
     4
100
AcDbBlockReference
  2
_OPEN
 10
189.6520429036456
 20
64.79089237866293
 30
0.0
 41
3.0
 42
3.0
 43
3.0
 50
270.0
  0
MTEXT
  5
3DD
330
309
100
AcDbEntity
  8
0
  6
BYBLOCK
 62
     4
100
AcDbMText
 10
187.1520429036456
 20
55.74089237866293
 30
0.0
 40
3.0
 41
0.0
 71
     5
 72
     5
  1
\A1;※b10
 11
0.0
 21
1.0
 31
0.0
1001
ACAD
1000
MTEXTBEGIN
1070
    73
1070
     1
1070
    44
1040
1.0
1070
    74
1070
     0
1000
MTEXTEND
1000
MTEXTBEGIN
1070
    73
1070
     1
1070
    44
1040
1.0
1070
    74
1070
     0
1000
MTEXTEND
1000
MTEXTBEGIN
1070
    73
1070
     1
1070
    44
1040
1.0
1070
    74
1070
     0
1000
MTEXTEND
1000
MTEXTBEGIN
1070
    73
1070
     1
1070
    44
1040
1.0
1070
    74
1070
     0
1000
MTEXTEND
  0
POINT
  5
3DE
330
309
100
AcDbEntity
  8
DEFPOINTS
  6
BYBLOCK
 62
     0
100
AcDbPoint
 10
166.6698411995131
 20
74.79088802347447
 30
0.0
  0
POINT
  5
3DF
330
309
100
AcDbEntity
  8
DEFPOINTS
  6
BYBLOCK
 62
     0
100
AcDbPoint
 10
165.1672866922718
 20
64.79089237866293
 30
0.0
  0
POINT
  5
3E0
330
309
100
AcDbEntity
  8
DEFPOINTS
  6
BYBLOCK
 62
     0
100
AcDbPoint
 10
189.6520429036456
 20
64.79089237866293
 30
0.0
  0
ENDBLK
  5
3E1
330
309
100
AcDbEntity
  8
0
100
AcDbBlockEnd
  0
BLOCK
  5
319
330
318
100
AcDbEntity
  8
0
100
AcDbBlockBegin
  2
*D3
 70
     1
 10
0.0
 20
0.0
 30
0.0
  3
*D3
  1

  0
LINE
  5
31A
330
318
100
AcDbEntity
  8
0
  6
BYBLOCK
 62
     4
100
AcDbLine
 10
109.4840139353732
 20
179.7966816149521
 30
0.0
 11
151.8507594023303
 21
213.2788990386208
 31
0.0
  0
INSERT
  5
31B
330
318
100
AcDbEntity
  8
0
  6
BYBLOCK
 62
     4
100
AcDbBlockReference
  2
_OPEN
 10
107.1303058559208
 20
177.9365584263646
 30
0.0
 41
3.0
 42
3.0
 43
3.0
 50
218.3191331633689
  0
INSERT
  5
31C
330
318
100
AcDbEntity
  8
0
  6
BYBLOCK
 62
     4
100
AcDbBlockReference
  2
_OPEN
 10
154.2044674817826
 20
215.1390222272082
 30
0.0
 41
3.0
 42
3.0
 43
3.0
 50
38.31913316336897
  0
MTEXT
  5
31D
330
318
100
AcDbEntity
  8
0
  6
BYBLOCK
 62
     4
100
AcDbMText
 10
141.3539607002605
 20
208.1697953325857
 30
0.0
 40
3.0
 41
0.0
 71
     5
 72
     5
  1
\A1;\U+220560
 11
0.7845693598174486
 21
0.6200410628624841
 31
0.0
1001
ACAD
1000
MTEXTBEGIN
1070
    73
1070
     1
1070
    44
1040
1.0
1070
    74
1070
     0
1000
MTEXTEND
1000
MTEXTBEGIN
1070
    73
1070
     1
1070
    44
1040
1.0
1070
    74
1070
     0
1000
MTEXTEND
1000
MTEXTBEGIN
1070
    73
1070
     1
1070
    44
1040
1.0
1070
    74
1070
     0
1000
MTEXTEND
1000
MTEXTBEGIN
1070
    73
1070
     1
1070
    44
1040
1.0
1070
    74
1070
     0
1000
MTEXTEND
  0
POINT
  5
31E
330
318
100
AcDbEntity
  8
DEFPOINTS
  6
BYBLOCK
 62
     0
100
AcDbPoint
 10
154.2044674817826
 20
215.1390222272082
 30
0.0
  0
POINT
  5
31F
330
318
100
AcDbEntity
  8
DEFPOINTS
  6
BYBLOCK
 62
     0
100
AcDbPoint
 10
107.1303058559208
 20
177.9365584263646
 30
0.0
  0
ENDBLK
  5
320
330
318
100
AcDbEntity
  8
0
100
AcDbBlockEnd
  0
BLOCK
  5
330
330
32F
100
AcDbEntity
  8
0
100
AcDbBlockBegin
  2
*D4
 70
     1
 10
0.0
 20
0.0
 30
0.0
  3
*D4
  1

  0
LINE
  5
331
330
32F
100
AcDbEntity
  8
0
  6
BYBLOCK
 62
     4
100
AcDbLine
 10
166.6672866922717
 20
65.79089237866293
 30
0.0
 11
166.6672866922717
 21
33.2256193094696
 31
0.0
  0
LINE
  5
332
330
32F
100
AcDbEntity
  8
0
  6
BYBLOCK
 62
     4
100
AcDbLine
 10
94.66728669227189
 20
65.79099237866294
 30
0.0
 11
94.66728669227189
 21
33.2256193094696
 31
0.0
  0
LINE
  5
333
330
32F
100
AcDbEntity
  8
0
  6
BYBLOCK
 62
     4
100
AcDbLine
 10
163.6672866922717
 20
34.72561930946961
 30
0.0
 11
97.66728669227189
 21
34.72561930946961
 31
0.0
  0
INSERT
  5
334
330
32F
100
AcDbEntity
  8
0
  6
BYBLOCK
 62
     4
100
AcDbBlockReference
  2
_OPEN
 10
166.6672866922717
 20
34.72561930946961
 30
0.0
 41
3.0
 42
3.0
 43
3.0
  0
INSERT
  5
335
330
32F
100
AcDbEntity
  8
0
  6
BYBLOCK
 62
     4
100
AcDbBlockReference
  2
_OPEN
 10
94.66728669227189
 20
34.72561930946961
 30
0.0
 41
3.0
 42
3.0
 43
3.0
 50
180.0
  0
MTEXT
  5
336
330
32F
100
AcDbEntity
  8
0
  6
BYBLOCK
 62
     4
100
AcDbMText
 10
130.6672866922718
 20
37.22561930946961
 30
0.0
 40
3.0
 41
0.0
 71
     5
 72
     5
  1
\A1;72
1001
ACAD
1000
MTEXTBEGIN
1070
    73
1070
     1
1070
    44
1040
1.0
1070
    74
1070
     0
1000
MTEXTEND
1000
MTEXTBEGIN
1070
    73
1070
     1
1070
    44
1040
1.0
1070
    74
1070
     0
1000
MTEXTEND
1000
MTEXTBEGIN
1070
    73
1070
     1
1070
    44
1040
1.0
1070
    74
1070
     0
1000
MTEXTEND
1000
MTEXTBEGIN
1070
    73
1070
     1
1070
    44
1040
1.0
1070
    74
1070
     0
1000
MTEXTEND
  0
POINT
  5
337
330
32F
100
AcDbEntity
  8
DEFPOINTS
  6
BYBLOCK
 62
     0
100
AcDbPoint
 10
166.6672866922717
 20
68.79089237866293
 30
0.0
  0
POINT
  5
338
330
32F
100
AcDbEntity
  8
DEFPOINTS
  6
BYBLOCK
 62
     0
100
AcDbPoint
 10
94.66728669227189
 20
68.79099237866293
 30
0.0
  0
POINT
  5
339
330
32F
100
AcDbEntity
  8
DEFPOINTS
  6
BYBLOCK
 62
     0
100
AcDbPoint
 10
94.66728669227189
 20
34.72561930946961
 30
0.0
  0
ENDBLK
  5
33A
330
32F
100
AcDbEntity
  8
0
100
AcDbBlockEnd
  0
BLOCK
  5
3B2
330
356
100
AcDbEntity
  8
0
100
AcDbBlockBegin
  2
*D5
 70
     1
 10
0.0
 20
0.0
 30
0.0
  3
*D5
  1

  0
LINE
  5
3B3
330
356
100
AcDbEntity
  8
0
  6
BYBLOCK
 62
     4
100
AcDbLine
 10
183.6673866922717
 20
111.2909923786629
 30
0.0
 11
200.4972186919881
 21
111.2909923786629
 31
0.0
  0
LINE
  5
3B4
330
356
100
AcDbEntity
  8
0
  6
BYBLOCK
 62
     4
100
AcDbLine
 10
163.6673433501902
 20
88.29099237866293
 30
0.0
 11
200.4972186919881
 21
88.29099237866293
 31
0.0
  0
LINE
  5
3B5
330
356
100
AcDbEntity
  8
0
  6
BYBLOCK
 62
     4
100
AcDbLine
 10
198.9972186919881
 20
108.2909923786629
 30
0.0
 11
198.9972186919881
 21
91.29099237866293
 31
0.0
  0
INSERT
  5
3B6
330
356
100
AcDbEntity
  8
0
  6
BYBLOCK
 62
     4
100
AcDbBlockReference
  2
_OPEN
 10
198.9972186919881
 20
111.2909923786629
 30
0.0
 41
3.0
 42
3.0
 43
3.0
 50
90.0
  0
INSERT
  5
3B7
330
356
100
AcDbEntity
  8
0
  6
BYBLOCK
 62
     4
100
AcDbBlockReference
  2
_OPEN
 10
198.9972186919881
 20
88.29099237866293
 30
0.0
 41
3.0
 42
3.0
 43
3.0
 50
270.0
  0
MTEXT
  5
3B8
330
356
100
AcDbEntity
  8
0
  6
BYBLOCK
 62
     4
100
AcDbMText
 10
196.4972186919881
 20
99.79099237866293
 30
0.0
 40
3.0
 41
0.0
 71
     5
 72
     5
  1
\A1;※a23
 11
0.0
 21
1.0
 31
0.0
1001
ACAD
1000
MTEXTBEGIN
1070
    73
1070
     1
1070
    44
1040
1.0
1070
    74
1070
     0
1000
MTEXTEND
1000
MTEXTBEGIN
1070
    73
1070
     1
1070
    44
1040
1.0
1070
    74
1070
     0
1000
MTEXTEND
1000
MTEXTBEGIN
1070
    73
1070
     1
1070
    44
1040
1.0
1070
    74
1070
     0
1000
MTEXTEND
1000
MTEXTBEGIN
1070
    73
1070
     1
1070
    44
1040
1.0
1070
    74
1070
     0
1000
MTEXTEND
  0
POINT
  5
3B9
330
356
100
AcDbEntity
  8
DEFPOINTS
  6
BYBLOCK
 62
     0
100
AcDbPoint
 10
180.6673866922717
 20
111.2909923786629
 30
0.0
  0
POINT
  5
3BA
330
356
100
AcDbEntity
  8
DEFPOINTS
  6
BYBLOCK
 62
     0
100
AcDbPoint
 10
160.6673433501902
 20
88.29099237866293
 30
0.0
  0
POINT
  5
3BB
330
356
100
AcDbEntity
  8
DEFPOINTS
  6
BYBLOCK
 62
     0
100
AcDbPoint
 10
198.9972186919881
 20
88.29099237866293
 30
0.0
  0
ENDBLK
  5
3BC
330
356
100
AcDbEntity
  8
0
100
AcDbBlockEnd
  0
BLOCK
  5
364
330
363
100
AcDbEntity
  8
0
100
AcDbBlockBegin
  2
*D6
 70
     1
 10
0.0
 20
0.0
 30
0.0
  3
*D6
  1

  0
LINE
  5
365
330
363
100
AcDbEntity
  8
0
  6
BYBLOCK
 62
     4
100
AcDbLine
 10
183.6673866922717
 20
111.2909923786629
 30
0.0
 11
209.4934120995051
 21
111.2909923786629
 31
0.0
  0
LINE
  5
366
330
363
100
AcDbEntity
  8
0
  6
BYBLOCK
 62
     4
100
AcDbLine
 10
168.1672866922719
 20
64.79089237866293
 30
0.0
 11
209.4934120995051
 21
64.79089237866293
 31
0.0
  0
LINE
  5
367
330
363
100
AcDbEntity
  8
0
  6
BYBLOCK
 62
     4
100
AcDbLine
 10
207.9934120995051
 20
108.2909923786629
 30
0.0
 11
207.9934120995051
 21
67.79089237866293
 31
0.0
  0
INSERT
  5
368
330
363
100
AcDbEntity
  8
0
  6
BYBLOCK
 62
     4
100
AcDbBlockReference
  2
_OPEN
 10
207.9934120995051
 20
111.2909923786629
 30
0.0
 41
3.0
 42
3.0
 43
3.0
 50
90.0
  0
INSERT
  5
369
330
363
100
AcDbEntity
  8
0
  6
BYBLOCK
 62
     4
100
AcDbBlockReference
  2
_OPEN
 10
207.9934120995051
 20
64.79089237866293
 30
0.0
 41
3.0
 42
3.0
 43
3.0
 50
270.0
  0
MTEXT
  5
36A
330
363
100
AcDbEntity
  8
0
  6
BYBLOCK
 62
     4
100
AcDbMText
 10
205.4934120995051
 20
88.04094237866292
 30
0.0
 40
3.0
 41
0.0
 71
     5
 72
     5
  1
\A1;47
 11
0.0
 21
1.0
 31
0.0
1001
ACAD
1000
MTEXTBEGIN
1070
    73
1070
     1
1070
    44
1040
1.0
1070
    74
1070
     0
1000
MTEXTEND
1000
MTEXTBEGIN
1070
    73
1070
     1
1070
    44
1040
1.0
1070
    74
1070
     0
1000
MTEXTEND
1000
MTEXTBEGIN
1070
    73
1070
     1
1070
    44
1040
1.0
1070
    74
1070
     0
1000
MTEXTEND
1000
MTEXTBEGIN
1070
    73
1070
     1
1070
    44
1040
1.0
1070
    74
1070
     0
1000
MTEXTEND
  0
POINT
  5
36B
330
363
100
AcDbEntity
  8
DEFPOINTS
  6
BYBLOCK
 62
     0
100
AcDbPoint
 10
180.6673866922717
 20
111.2909923786629
 30
0.0
  0
POINT
  5
36C
330
363
100
AcDbEntity
  8
DEFPOINTS
  6
BYBLOCK
 62
     0
100
AcDbPoint
 10
165.1672866922718
 20
64.79089237866293
 30
0.0
  0
POINT
  5
36D
330
363
100
AcDbEntity
  8
DEFPOINTS
  6
BYBLOCK
 62
     0
100
AcDbPoint
 10
207.9934120995051
 20
64.79089237866293
 30
0.0
  0
ENDBLK
  5
36E
330
363
100
AcDbEntity
  8
0
100
AcDbBlockEnd
  0
ENDSEC
  0
SECTION
  2
ENTITIES
  0
LINE
  5
218
330
1A
100
AcDbEntity
  8
SEIHIN
  6
CONTINUOUS
 62
     3
 48
5.0
100
AcDbLine
 10
130.6673866922718
 20
111.2909923786629
 30
0.0
 11
80.66738669227191
 21
111.2911923786628
 31
0.0
  0
LINE
  5
219
330
1A
100
AcDbEntity
  8
SEIHIN
  6
CONTINUOUS
 62
     3
 48
5.0
100
AcDbLine
 10
130.6673866922718
 20
108.2909923786629
 30
0.0
 11
81.66738669227191
 21
108.2910923786628
 31
0.0
  0
LINE
  5
21C
330
1A
100
AcDbEntity
  8
SEIHIN
  6
CONTINUOUS
 62
     3
 48
5.0
100
AcDbLine
 10
130.6673866922718
 20
68.79099237866293
 30
0.0
 11
94.66728669227189
 21
68.79099237866293
 31
0.0
  0
LINE
  5
21D
330
1A
100
AcDbEntity
  8
SEIHIN
  6
CONTINUOUS
 62
     3
 48
5.0
100
AcDbLine
 10
130.6673866922718
 20
64.79099237866293
 30
0.0
 11
96.16728669227189
 21
64.79099237866293
 31
0.0
  0
LINE
  5
21E
330
1A
100
AcDbEntity
  8
SEIHIN
  6
CONTINUOUS
 62
     3
 48
5.0
100
AcDbLine
 10
91.65758669227187
 20
103.2909923786629
 30
0.0
 11
130.6575866922718
 21
103.2909923786629
 31
0.0
  0
LINE
  5
220
330
1A
100
AcDbEntity
  8
SEIHIN
  6
CONTINUOUS
 62
     3
 48
5.0
100
AcDbLine
 10
94.66728669227189
 20
68.79099237866293
 30
0.0
 11
96.16728669227189
 21
64.79099237866293
 31
0.0
  0
LINE
  5
226
330
1A
100
AcDbEntity
  8
SEIHIN
  6
CONTINUOUS
 62
     3
 48
5.0
100
AcDbLine
 10
94.65758669227188
 20
92.04399237866283
 30
0.0
 11
94.66728669227189
 21
68.79099237866293
 31
0.0
  0
ARC
  5
227
330
1A
100
AcDbEntity
  8
SEIHIN
  6
CONTINUOUS
 62
     3
 48
5.0
100
AcDbCircle
 10
71.65756687553477
 20
92.04407185182054
 30
0.0
 40
22.99996974423512
100
AcDbArc
 50
358.4105100697253
 51
29.59161310454124
  0
ARC
  5
228
330
1A
100
AcDbEntity
  8
SEIHIN
  6
CONTINUOUS
 62
     3
 48
5.0
100
AcDbCircle
 10
81.66738669227191
 20
109.2910923786628
 30
0.0
 40
1.0
100
AcDbArc
 50
180.0
 51
270.0
  0
LINE
  5
229
330
1A
100
AcDbEntity
  8
SEIHIN
  6
CONTINUOUS
 62
     3
 48
5.0
100
AcDbLine
 10
80.66738669227191
 20
111.2909923786629
 30
0.0
 11
80.66738669227191
 21
109.2911923786628
 31
0.0
  0
LINE
  5
22A
330
1A
100
AcDbEntity
  8
SEIHIN
  6
CONTINUOUS
 62
     3
 48
5.0
100
AcDbLine
 10
91.65758669227187
 20
108.2909923786629
 30
0.0
 11
91.65758669227187
 21
103.2909923786629
 31
0.0
  0
LINE
  5
230
330
1A
100
AcDbEntity
  8
CENTER_L
  6
CENTER
 62
     1
 48
5.0
100
AcDbLine
 10
130.6673866922718
 20
116.9800923786629
 30
0.0
 11
130.6672866922719
 21
50.78789237866292
 31
0.0
  0
LINE
  5
231
330
1A
100
AcDbEntity
  8
SEIHIN
  6
CONTINUOUS
 62
     3
 48
5.0
100
AcDbLine
 10
103.6672866922718
 20
68.79099237866293
 30
0.0
 11
105.1672866922718
 21
64.79099237866293
 31
0.0
  0
LINE
  5
232
330
1A
100
AcDbEntity
  8
SEIHIN
  6
CONTINUOUS
 62
     3
 48
5.0
100
AcDbLine
 10
157.6672866922718
 20
68.79089237866293
 30
0.0
 11
156.1672866922718
 21
64.79099237866293
 31
0.0
  0
LINE
  5
233
330
1A
100
AcDbEntity
  8
SEIHIN
  6
CONTINUOUS
 62
     3
 48
5.0
100
AcDbLine
 10
166.6672866922717
 20
68.79089237866293
 30
0.0
 11
165.1672866922718
 21
64.79089237866293
 31
0.0
  0
LINE
  5
240
330
1A
100
AcDbEntity
  8
SEIHIN
  6
CONTINUOUS
 62
     3
 48
5.0
100
AcDbLine
 10
130.6672866922719
 20
64.79099237866293
 30
0.0
 11
165.1672866922718
 21
64.79089237866293
 31
0.0
  0
LINE
  5
241
330
1A
100
AcDbEntity
  8
SEIHIN
  6
CONTINUOUS
 62
     3
 48
5.0
100
AcDbLine
 10
130.6672866922719
 20
57.29099237866285
 30
0.0
 11
159.8673866922717
 21
57.29099237866285
 31
0.0
  0
LINE
  5
247
330
1A
100
AcDbEntity
  8
SEIHIN
  6
CONTINUOUS
 62
     3
 48
5.0
100
AcDbLine
 10
130.6672866922719
 20
57.29099237866285
 30
0.0
 11
101.4672866922717
 21
57.29109237866286
 31
0.0
  0
LINE
  5
248
330
1A
100
AcDbEntity
  8
SEIHIN
  6
CONTINUOUS
 62
     3
 48
5.0
100
AcDbLine
 10
101.4673866922718
 20
64.79109237866286
 30
0.0
 11
101.4673866922718
 21
57.29109237866286
 31
0.0
  0
LINE
  5
24C
330
1A
100
AcDbEntity
  8
SEIHIN
  6
CONTINUOUS
 62
     3
 48
5.0
100
AcDbLine
 10
159.8672866922717
 20
64.79099237866293
 30
0.0
 11
159.8672866922717
 21
57.29099237866285
 31
0.0
  0
LINE
  5
257
330
1A
100
AcDbEntity
  8
SEIHIN
  6
CONTINUOUS
 62
     3
 48
5.0
100
AcDbLine
 10
130.6672866922719
 20
68.79099237866293
 30
0.0
 11
166.6672866922717
 21
68.79089237866293
 31
0.0
  0
LINE
  5
258
330
1A
100
AcDbEntity
  8
SEIHIN
  6
CONTINUOUS
 62
     3
 48
5.0
100
AcDbLine
 10
130.6673866922718
 20
108.2909923786629
 30
0.0
 11
179.6673866922718
 21
108.2909923786629
 31
0.0
  0
LINE
  5
259
330
1A
100
AcDbEntity
  8
SEIHIN
  6
CONTINUOUS
 62
     3
 48
5.0
100
AcDbLine
 10
130.6673866922718
 20
111.2909923786629
 30
0.0
 11
180.6673866922717
 21
111.2909923786629
 31
0.0
  0
LINE
  5
25A
330
1A
100
AcDbEntity
  8
SEIHIN
  6
CONTINUOUS
 62
     3
 48
5.0
100
AcDbLine
 10
169.6771866922718
 20
103.2908923786629
 30
0.0
 11
130.6771866922719
 21
103.2909923786629
 31
0.0
  0
ARC
  5
25B
330
1A
100
AcDbEntity
  8
SEIHIN
  6
CONTINUOUS
 62
     3
 48
5.0
100
AcDbCircle
 10
80.65756687553477
 20
92.04407185182063
 30
0.0
 40
22.99996974423509
100
AcDbArc
 50
358.410510069725
 51
29.59161310454099
  0
LINE
  5
25C
330
1A
100
AcDbEntity
  8
SEIHIN
  6
CONTINUOUS
 62
     3
 48
5.0
100
AcDbLine
 10
103.6557866922718
 20
92.32739237866283
 30
0.0
 11
103.6575866922717
 21
90.78289237866291
 31
0.0
  0
LINE
  5
25D
330
1A
100
AcDbEntity
  8
SEIHIN
  6
CONTINUOUS
 62
     3
 48
5.0
100
AcDbLine
 10
103.6672866922718
 20
90.82739237866283
 30
0.0
 11
103.6672866922718
 21
68.79099237866293
 31
0.0
  0
LINE
  5
25E
330
1A
100
AcDbEntity
  8
SEIHIN
  6
CONTINUOUS
 62
     3
 48
5.0
100
AcDbLine
 10
100.6575866922718
 20
108.2909923786629
 30
0.0
 11
100.6575866922718
 21
103.2909923786629
 31
0.0
  0
ARC
  5
25F
330
1A
100
AcDbEntity
  8
SEIHIN
  6
CONTINUOUS
 62
     3
 48
5.0
100
AcDbCircle
 10
180.6772065090091
 20
92.04397185182049
 30
0.0
 40
22.99996974423532
100
AcDbArc
 50
150.4083868954587
 51
181.5894899302746
  0
LINE
  5
260
330
1A
100
AcDbEntity
  8
SEIHIN
  6
CONTINUOUS
 62
     3
 48
5.0
100
AcDbLine
 10
157.6788866922717
 20
92.32729237866283
 30
0.0
 11
157.6771866922719
 21
90.78279237866292
 31
0.0
  0
LINE
  5
261
330
1A
100
AcDbEntity
  8
SEIHIN
  6
CONTINUOUS
 62
     3
 48
5.0
100
AcDbLine
 10
157.6673866922717
 20
90.82729237866292
 30
0.0
 11
157.6672866922718
 21
68.79089237866293
 31
0.0
  0
LINE
  5
262
330
1A
100
AcDbEntity
  8
SEIHIN
  6
CONTINUOUS
 62
     3
 48
5.0
100
AcDbLine
 10
160.6771866922719
 20
108.2908923786629
 30
0.0
 11
160.6771866922719
 21
103.2908923786629
 31
0.0
  0
LINE
  5
26D
330
1A
100
AcDbEntity
  8
SEIHIN
  6
CONTINUOUS
 62
     3
 48
5.0
100
AcDbLine
 10
166.6771866922719
 20
92.04389237866285
 30
0.0
 11
166.6672866922717
 21
68.79089237866293
 31
0.0
  0
ARC
  5
26E
330
1A
100
AcDbEntity
  8
SEIHIN
  6
CONTINUOUS
 62
     3
 48
5.0
100
AcDbCircle
 10
189.677205260236
 20
92.04396684442272
 30
0.0
 40
22.99997113106969
100
AcDbArc
 50
150.4083745122524
 51
181.5897265638594
  0
LINE
  5
26F
330
1A
100
AcDbEntity
  8
SEIHIN
  6
CONTINUOUS
 62
     3
 48
5.0
100
AcDbLine
 10
169.6771866922718
 20
108.2908923786629
 30
0.0
 11
169.6771866922718
 21
103.2908923786629
 31
0.0
  0
ARC
  5
270
330
1A
100
AcDbEntity
  8
SEIHIN
  6
CONTINUOUS
 62
     3
 48
5.0
100
AcDbCircle
 10
179.6673866922717
 20
109.2909923786628
 30
0.0
 40
0.9999999999999431
100
AcDbArc
 50
270.0000000000032
 51
0.0000000000032569
  0
LINE
  5
271
330
1A
100
AcDbEntity
  8
SEIHIN
  6
CONTINUOUS
 62
     3
 48
5.0
100
AcDbLine
 10
180.6673866922717
 20
111.2908923786628
 30
0.0
 11
180.6673866922717
 21
109.2909923786629
 31
0.0
  0
ARC
  5
27C
330
1A
100
AcDbEntity
  8
SEIHIN
  6
CONTINUOUS
 62
     3
 48
5.0
100
AcDbCircle
 10
130.6673866265632
 20
196.5377903267864
 30
0.0
 40
50.00000006573353
100
AcDbArc
 50
0.0000572957795211
 51
359.9999427042204
  0
ARC
  5
27D
330
1A
100
AcDbEntity
  8
SEIHIN
  6
CONTINUOUS
 62
     3
 48
5.0
100
AcDbCircle
 10
130.6673866650043
 20
196.5377903267864
 30
0.0
 40
48.00000002729351
100
AcDbArc
 50
0.0000596831037123
 51
359.9999403168963
  0
LINE
  5
27E
330
1A
100
AcDbEntity
  8
CENTER_L
  6
CENTER
 62
     1
 48
5.0
100
AcDbLine
 10
72.3059866922718
 20
196.5378403267864
 30
0.0
 11
186.6673866922717
 21
196.5378403267864
 31
0.0
  0
ARC
  5
280
330
1A
100
AcDbEntity
  8
SEIHIN
  6
CONTINUOUS
 62
     3
 48
5.0
100
AcDbCircle
 10
130.6673866561532
 20
196.5377903267864
 30
0.0
 40
27.500000036164
100
AcDbArc
 50
0.0001041741445838
 51
359.9998958258554
  0
ARC
  5
281
330
1A
100
AcDbEntity
  8
SEIHIN
  6
CONTINUOUS
 62
     3
 48
5.0
100
AcDbCircle
 10
130.6673866688517
 20
196.5377903267864
 30
0.0
 40
30.00000002346179
100
AcDbArc
 50
0.0000954929659194
 51
359.9999045070341
  0
LINE
  5
282
330
1A
100
AcDbEntity
  8
CENTER_L
  6
CENTER
 62
     1
 48
5.0
100
AcDbLine
 10
130.6673866922718
 20
141.5377403267863
 30
0.0
 11
130.6674866922719
 21
253.5377403267863
 31
0.0
  0
LINE
  5
287
330
1A
100
AcDbEntity
  8
CENTER_L
  6
CENTER
 62
     1
 48
5.0
100
AcDbLine
 10
290.6699339413711
 20
116.9797923786628
 30
0.0
 11
290.6698339413711
 21
50.16299237866292
 31
0.0
  0
LINE
  5
288
330
1A
100
AcDbEntity
  8
SEIHIN
  6
CONTINUOUS
 62
     3
 48
5.0
100
AcDbLine
 10
254.6699339413711
 20
68.79099237866293
 30
0.0
 11
256.169933941371
 21
64.79099237866293
 31
0.0
  0
LINE
  5
289
330
1A
100
AcDbEntity
  8
SEIHIN
  6
CONTINUOUS
 62
     3
 48
5.0
100
AcDbLine
 10
263.6699339413711
 20
68.79099237866293
 30
0.0
 11
265.169933941371
 21
64.79099237866293
 31
0.0
  0
LINE
  5
28A
330
1A
100
AcDbEntity
  8
SEIHIN
  6
CONTINUOUS
 62
     3
 48
5.0
100
AcDbLine
 10
318.1699339413711
 20
87.29099237866293
 30
0.0
 11
318.1699339413711
 21
57.29099237866285
 31
0.0
  0
LINE
  5
28B
330
1A
100
AcDbEntity
  8
SEIHIN
  6
CONTINUOUS
 62
     3
 48
5.0
100
AcDbLine
 10
319.8699339413709
 20
84.79099237866284
 30
0.0
 11
319.8698339413712
 21
57.29099237866285
 31
0.0
  0
LINE
  5
28C
330
1A
100
AcDbEntity
  8
SEIHIN
  6
CONTINUOUS
 62
     3
 48
5.0
100
AcDbLine
 10
322.9198339413711
 20
68.79099237866293
 30
0.0
 11
323.9199339413711
 21
64.79099237866293
 31
0.0
  0
LINE
  5
28D
330
1A
100
AcDbEntity
  8
SEIHIN
  6
CONTINUOUS
 62
     3
 48
5.0
100
AcDbLine
 10
326.6699339413711
 20
68.79099237866293
 30
0.0
 11
325.1699339413711
 21
64.79099237866293
 31
0.0
  0
LINE
  5
28E
330
1A
100
AcDbEntity
  8
SEIHIN
  6
CONTINUOUS
 62
     3
 48
5.0
100
AcDbLine
 10
290.6698339413711
 20
57.29099237866285
 30
0.0
 11
261.4698339413711
 21
57.29109237866286
 31
0.0
  0
LINE
  5
28F
330
1A
100
AcDbEntity
  8
SEIHIN
  6
CONTINUOUS
 62
     3
 48
5.0
100
AcDbLine
 10
290.6699339413711
 20
64.79099237866293
 30
0.0
 11
256.169933941371
 21
64.79099237866293
 31
0.0
  0
LINE
  5
290
330
1A
100
AcDbEntity
  8
SEIHIN
  6
CONTINUOUS
 62
     3
 48
5.0
100
AcDbLine
 10
261.4699339413709
 20
64.79109237866286
 30
0.0
 11
261.4699339413709
 21
57.29109237866286
 31
0.0
  0
LINE
  5
292
330
1A
100
AcDbEntity
  8
SEIHIN
  6
CONTINUOUS
 62
     3
 48
5.0
100
AcDbLine
 10
290.6698339413711
 20
57.29099237866285
 30
0.0
 11
319.8699339413709
 21
57.29099237866285
 31
0.0
  0
LINE
  5
293
330
1A
100
AcDbEntity
  8
SEIHIN
  6
CONTINUOUS
 62
     3
 48
5.0
100
AcDbLine
 10
325.1699339413711
 20
64.79099237866293
 30
0.0
 11
319.8699339413709
 21
64.79099237866293
 31
0.0
  0
LINE
  5
295
330
1A
100
AcDbEntity
  8
SEIHIN
  6
CONTINUOUS
 62
     3
 48
5.0
100
AcDbLine
 10
290.6699339413711
 20
68.79099237866293
 30
0.0
 11
254.6699339413711
 21
68.79099237866293
 31
0.0
  0
LINE
  5
296
330
1A
100
AcDbEntity
  8
SEIHIN
  6
CONTINUOUS
 62
     3
 48
5.0
100
AcDbLine
 10
290.6699339413711
 20
111.2909923786629
 30
0.0
 11
240.669933941371
 21
111.2911923786628
 31
0.0
  0
LINE
  5
297
330
1A
100
AcDbEntity
  8
SEIHIN
  6
CONTINUOUS
 62
     3
 48
5.0
100
AcDbLine
 10
290.6699339413711
 20
108.2909923786629
 30
0.0
 11
241.6699339413711
 21
108.2911923786629
 31
0.0
  0
LINE
  5
298
330
1A
100
AcDbEntity
  8
SEIHIN
  6
CONTINUOUS
 62
     3
 48
5.0
100
AcDbLine
 10
251.6601339413711
 20
103.2909923786629
 30
0.0
 11
290.6601339413711
 21
103.2909923786629
 31
0.0
  0
ARC
  5
29A
330
1A
100
AcDbEntity
  8
SEIHIN
  6
CONTINUOUS
 62
     3
 48
5.0
100
AcDbCircle
 10
241.669933941371
 20
109.2911923786629
 30
0.0
 40
1.000000000000028
100
AcDbArc
 50
180.0000000000048
 51
270.0000000000049
  0
LINE
  5
29B
330
1A
100
AcDbEntity
  8
SEIHIN
  6
CONTINUOUS
 62
     3
 48
5.0
100
AcDbLine
 10
240.669933941371
 20
111.2909923786629
 30
0.0
 11
240.669933941371
 21
109.2911923786628
 31
0.0
  0
LINE
  5
29C
330
1A
100
AcDbEntity
  8
SEIHIN
  6
CONTINUOUS
 62
     3
 48
5.0
100
AcDbLine
 10
254.6601339413709
 20
92.04399237866283
 30
0.0
 11
254.6699339413711
 21
68.79099237866293
 31
0.0
  0
ARC
  5
29D
330
1A
100
AcDbEntity
  8
SEIHIN
  6
CONTINUOUS
 62
     3
 48
5.0
100
AcDbCircle
 10
231.6601591181795
 20
92.04389140947165
 30
0.0
 40
23.00001972508399
100
AcDbArc
 50
358.4109632009865
 51
29.59205932673162
  0
ARC
  5
29E
330
1A
100
AcDbEntity
  8
SEIHIN
  6
CONTINUOUS
 62
     3
 48
5.0
100
AcDbCircle
 10
240.6601591181795
 20
92.04389140947165
 30
0.0
 40
23.00001972508399
100
AcDbArc
 50
358.4109632009865
 51
29.59205932673162
  0
LINE
  5
29F
330
1A
100
AcDbEntity
  8
SEIHIN
  6
CONTINUOUS
 62
     3
 48
5.0
100
AcDbLine
 10
263.658433941371
 20
92.32739237866283
 30
0.0
 11
263.6601339413709
 21
90.78289237866291
 31
0.0
  0
LINE
  5
2A0
330
1A
100
AcDbEntity
  8
SEIHIN
  6
CONTINUOUS
 62
     3
 48
5.0
100
AcDbLine
 10
263.6699339413711
 20
90.82739237866283
 30
0.0
 11
263.6699339413711
 21
68.79099237866293
 31
0.0
  0
LINE
  5
2A1
330
1A
100
AcDbEntity
  8
SEIHIN
  6
CONTINUOUS
 62
     3
 48
5.0
100
AcDbLine
 10
251.6601339413711
 20
108.2909923786629
 30
0.0
 11
251.6601339413711
 21
103.2909923786629
 31
0.0
  0
LINE
  5
2A2
330
1A
100
AcDbEntity
  8
SEIHIN
  6
CONTINUOUS
 62
     3
 48
5.0
100
AcDbLine
 10
260.6601339413711
 20
108.2909923786629
 30
0.0
 11
260.6601339413711
 21
103.2909923786629
 31
0.0
  0
LINE
  5
2A8
330
1A
100
AcDbEntity
  8
SEIHIN
  6
CONTINUOUS
 62
     3
 48
5.0
100
AcDbLine
 10
290.6698339413711
 20
87.29099237866293
 30
0.0
 11
319.6698339413711
 21
87.29099237866293
 31
0.0
  0
LINE
  5
2A9
330
1A
100
AcDbEntity
  8
SEIHIN
  6
CONTINUOUS
 62
     3
 48
5.0
100
AcDbLine
 10
290.6699339413711
 20
111.2909923786629
 30
0.0
 11
340.6699339413711
 21
111.2909923786629
 31
0.0
  0
LINE
  5
2AA
330
1A
100
AcDbEntity
  8
SEIHIN
  6
CONTINUOUS
 62
     3
 48
5.0
100
AcDbLine
 10
290.6699339413711
 20
110.2909923786629
 30
0.0
 11
338.6699339413711
 21
110.2909923786629
 31
0.0
  0
LINE
  5
2B2
330
1A
100
AcDbEntity
  8
SEIHIN
  6
CONTINUOUS
 62
     3
 48
5.0
100
AcDbLine
 10
326.6601339413711
 20
92.04399237866283
 30
0.0
 11
326.6699339413711
 21
68.79099237866293
 31
0.0
  0
ARC
  5
2B3
330
1A
100
AcDbEntity
  8
SEIHIN
  6
CONTINUOUS
 62
     3
 48
5.0
100
AcDbCircle
 10
349.6601759853641
 20
92.04416099077826
 30
0.0
 40
22.9999944356696
100
AcDbArc
 50
150.408390711201
 51
181.5897103649114
  0
LINE
  5
2B4
330
1A
100
AcDbEntity
  8
SEIHIN
  6
CONTINUOUS
 62
     3
 48
5.0
100
AcDbLine
 10
320.6699339413711
 20
110.2909923786629
 30
0.0
 11
320.6698339413711
 21
88.29099237866293
 31
0.0
  0
ARC
  5
2B5
330
1A
100
AcDbEntity
  8
SEIHIN
  6
CONTINUOUS
 62
     3
 48
5.0
100
AcDbCircle
 10
324.3699339413712
 20
91.79099237866294
 30
0.0
 40
0.5
100
AcDbArc
 50
270.0
 51
0.0
  0
LINE
  5
2B6
330
1A
100
AcDbEntity
  8
SEIHIN
  6
CONTINUOUS
 62
     3
 48
5.0
100
AcDbLine
 10
324.660133941371
 20
92.04409237866292
 30
0.0
 11
324.6606339413709
 21
90.87429237866292
 31
0.0
  0
LINE
  5
2B7
330
1A
100
AcDbEntity
  8
SEIHIN
  6
CONTINUOUS
 62
     3
 48
5.0
100
AcDbLine
 10
324.662933941371
 20
85.29099237866294
 30
0.0
 11
324.6665339413711
 21
76.79099237866293
 31
0.0
  0
LINE
  5
2B8
330
1A
100
AcDbEntity
  8
SEIHIN
  6
CONTINUOUS
 62
     3
 48
5.0
100
AcDbLine
 10
324.6673339413711
 20
74.79099237866293
 30
0.0
 11
324.6697339413711
 21
69.29099237866293
 31
0.0
  0
LINE
  5
2B9
330
1A
100
AcDbEntity
  8
SEIHIN
  6
CONTINUOUS
 62
     3
 48
5.0
100
AcDbLine
 10
322.9199339413711
 20
74.79099237866293
 30
0.0
 11
322.9199339413711
 21
68.79099237866293
 31
0.0
  0
LINE
  5
2BA
330
1A
100
AcDbEntity
  8
SEIHIN
  6
CONTINUOUS
 62
     3
 48
5.0
100
AcDbLine
 10
322.9198339413711
 20
68.79099237866293
 30
0.0
 11
319.8699339413709
 21
68.79099237866293
 31
0.0
  0
LINE
  5
2BB
330
1A
100
AcDbEntity
  8
SEIHIN
  6
CONTINUOUS
 62
     3
 48
5.0
100
AcDbLine
 10
324.6699339413711
 20
69.29099237866293
 30
0.0
 11
322.9199339413711
 21
69.29099237866293
 31
0.0
  0
LINE
  5
2BC
330
1A
100
AcDbEntity
  8
SEIHIN
  6
CONTINUOUS
 62
     3
 48
5.0
100
AcDbLine
 10
324.6665339413711
 20
76.79099237866293
 30
0.0
 11
319.8699339413709
 21
76.79099237866293
 31
0.0
  0
LINE
  5
2BD
330
1A
100
AcDbEntity
  8
SEIHIN
  6
CONTINUOUS
 62
     3
 48
5.0
100
AcDbLine
 10
324.6673339413711
 20
74.79099237866293
 30
0.0
 11
319.8699339413709
 21
74.79099237866293
 31
0.0
  0
LINE
  5
2BE
330
1A
100
AcDbEntity
  8
SEIHIN
  6
CONTINUOUS
 62
     3
 48
5.0
100
AcDbLine
 10
320.3699339413712
 20
85.29099237866294
 30
0.0
 11
324.3699339413712
 21
85.29099237866294
 31
0.0
  0
ARC
  5
2BF
330
1A
100
AcDbEntity
  8
SEIHIN
  6
CONTINUOUS
 62
     3
 48
5.0
100
AcDbCircle
 10
319.6698339413711
 20
88.29099237866293
 30
0.0
 40
1.0
100
AcDbArc
 50
270.0
 51
0.0
  0
ARC
  5
2C0
330
1A
100
AcDbEntity
  8
SEIHIN
  6
CONTINUOUS
 62
     3
 48
5.0
100
AcDbCircle
 10
320.3699339413712
 20
84.79099237866282
 30
0.0
 40
0.5000000000000995
100
AcDbArc
 50
90.0
 51
179.9999999999983
  0
ARC
  5
2C1
330
1A
100
AcDbEntity
  8
SEIHIN
  6
CONTINUOUS
 62
     3
 48
5.0
100
AcDbCircle
 10
324.3699339413712
 20
85.79099237866293
 30
0.0
 40
0.5
100
AcDbArc
 50
270.0
 51
0.0
  0
ARC
  5
2C2
330
1A
100
AcDbEntity
  8
SEIHIN
  6
CONTINUOUS
 62
     3
 48
5.0
100
AcDbCircle
 10
324.3699339413712
 20
87.79099237866294
 30
0.0
 40
0.5
100
AcDbArc
 50
0.0
 51
90.0
  0
ARC
  5
2C3
330
1A
100
AcDbEntity
  8
SEIHIN
  6
CONTINUOUS
 62
     3
 48
5.0
100
AcDbCircle
 10
323.1699339413711
 20
88.79099237866293
 30
0.0
 40
0.5
100
AcDbArc
 50
180.0
 51
270.0
  0
ARC
  5
2C4
330
1A
100
AcDbEntity
  8
SEIHIN
  6
CONTINUOUS
 62
     3
 48
5.0
100
AcDbCircle
 10
323.1699339413711
 20
90.79099237866293
 30
0.0
 40
0.5
100
AcDbArc
 50
90.0
 51
180.0
  0
LINE
  5
2C5
330
1A
100
AcDbEntity
  8
SEIHIN
  6
CONTINUOUS
 62
     3
 48
5.0
100
AcDbLine
 10
323.0633339413713
 20
88.37429237866286
 30
0.0
 11
323.0633339413713
 21
90.87429237866292
 31
0.0
  0
LINE
  5
2C6
330
1A
100
AcDbEntity
  8
SEIHIN
  6
CONTINUOUS
 62
     3
 48
5.0
100
AcDbLine
 10
324.5623339413711
 20
90.87429237866292
 30
0.0
 11
323.0633339413713
 21
90.87429237866292
 31
0.0
  0
LINE
  5
2C7
330
1A
100
AcDbEntity
  8
SEIHIN
  6
CONTINUOUS
 62
     3
 48
5.0
100
AcDbLine
 10
324.5633339413712
 20
88.37429237866286
 30
0.0
 11
323.0633339413713
 21
88.37429237866286
 31
0.0
  0
LINE
  5
2C8
330
1A
100
AcDbEntity
  8
SEIHIN
  6
CONTINUOUS
 62
     3
 48
5.0
100
AcDbLine
 10
322.6699339413711
 20
90.79099237866293
 30
0.0
 11
322.6699339413711
 21
88.79099237866293
 31
0.0
  0
LINE
  5
2C9
330
1A
100
AcDbEntity
  8
SEIHIN
  6
CONTINUOUS
 62
     3
 48
5.0
100
AcDbLine
 10
324.8699339413712
 20
87.79099237866294
 30
0.0
 11
324.8699339413712
 21
85.79099237866293
 31
0.0
  0
LINE
  5
2CA
330
1A
100
AcDbEntity
  8
SEIHIN
  6
CONTINUOUS
 62
     3
 48
5.0
100
AcDbLine
 10
323.1699339413711
 20
88.29099237866293
 30
0.0
 11
324.3699339413712
 21
88.29099237866293
 31
0.0
  0
LINE
  5
2CB
330
1A
100
AcDbEntity
  8
SEIHIN
  6
CONTINUOUS
 62
     3
 48
5.0
100
AcDbLine
 10
323.1699339413711
 20
91.29099237866293
 30
0.0
 11
324.3699339413712
 21
91.29099237866293
 31
0.0
  0
ARC
  5
2CC
330
1A
100
AcDbEntity
  8
SEIHIN
  6
CONTINUOUS
 62
     3
 48
5.0
100
AcDbCircle
 10
349.6601036944554
 20
92.04387265992364
 30
0.0
 40
24.99996975404978
100
AcDbArc
 50
151.6418633919029
 51
179.999496441133
  0
LINE
  5
2CD
330
1A
100
AcDbEntity
  8
SEIHIN
  6
CONTINUOUS
 62
     3
 48
5.0
100
AcDbLine
 10
329.6601339413711
 20
108.2909923786629
 30
0.0
 11
322.6699339413711
 21
108.2909923786629
 31
0.0
  0
LINE
  5
2CE
330
1A
100
AcDbEntity
  8
SEIHIN
  6
CONTINUOUS
 62
     3
 48
5.0
100
AcDbLine
 10
322.6699339413711
 20
108.2909923786629
 30
0.0
 11
339.6699339413711
 21
108.2909923786629
 31
0.0
  0
LINE
  5
2CF
330
1A
100
AcDbEntity
  8
SEIHIN
  6
CONTINUOUS
 62
     3
 48
5.0
100
AcDbLine
 10
322.6699339413711
 20
105.7909923786629
 30
0.0
 11
322.6699339413711
 21
94.79099237866293
 31
0.0
  0
ARC
  5
2D0
330
1A
100
AcDbEntity
  8
SEIHIN
  6
CONTINUOUS
 62
     3
 48
5.0
100
AcDbCircle
 10
323.1699339413711
 20
94.79099237866293
 30
0.0
 40
0.5
100
AcDbArc
 50
180.0
 51
270.0
  0
ARC
  5
2D1
330
1A
100
AcDbEntity
  8
SEIHIN
  6
CONTINUOUS
 62
     3
 48
5.0
100
AcDbCircle
 10
324.3699339413712
 20
93.79099237866293
 30
0.0
 40
0.5
100
AcDbArc
 50
0.0
 51
90.0
  0
LINE
  5
2D2
330
1A
100
AcDbEntity
  8
SEIHIN
  6
CONTINUOUS
 62
     3
 48
5.0
100
AcDbLine
 10
324.8699339413712
 20
93.79099237866293
 30
0.0
 11
324.8699339413712
 21
91.79099237866294
 31
0.0
  0
LINE
  5
2D3
330
1A
100
AcDbEntity
  8
SEIHIN
  6
CONTINUOUS
 62
     3
 48
5.0
100
AcDbLine
 10
323.1699339413711
 20
94.29099237866294
 30
0.0
 11
324.3699339413712
 21
94.29099237866294
 31
0.0
  0
LINE
  5
2D4
330
1A
100
AcDbEntity
  8
SEIHIN
  6
CONTINUOUS
 62
     3
 48
5.0
100
AcDbLine
 10
322.6699339413711
 20
108.2909923786629
 30
0.0
 11
322.6699339413711
 21
105.7909923786629
 31
0.0
  0
LINE
  5
2D5
330
1A
100
AcDbEntity
  8
SEIHIN
  6
CONTINUOUS
 62
     3
 48
5.0
100
AcDbLine
 10
327.6601339413711
 20
108.2909923786629
 30
0.0
 11
327.6601339413711
 21
103.9183923786628
 31
0.0
  0
LINE
  5
2D6
330
1A
100
AcDbEntity
  8
SEIHIN
  6
CONTINUOUS
 62
     3
 48
5.0
100
AcDbLine
 10
329.6601339413711
 20
108.2909923786629
 30
0.0
 11
329.6601339413711
 21
103.2909923786629
 31
0.0
  0
ARC
  5
2D7
330
1A
100
AcDbEntity
  8
SEIHIN
  6
CONTINUOUS
 62
     3
 48
5.0
100
AcDbCircle
 10
339.6699339413711
 20
109.2909923786629
 30
0.0
 40
1.0
100
AcDbArc
 50
270.0
 51
0.0
  0
LINE
  5
2D8
330
1A
100
AcDbEntity
  8
SEIHIN
  6
CONTINUOUS
 62
     3
 48
5.0
100
AcDbLine
 10
340.6699339413711
 20
111.2908923786628
 30
0.0
 11
340.6699339413711
 21
109.2909923786629
 31
0.0
  0
LINE
  5
2D9
330
1A
100
AcDbEntity
  8
SEIHIN
  6
CONTINUOUS
 62
     3
 48
5.0
100
AcDbLine
 10
338.6699339413711
 20
111.2908923786628
 30
0.0
 11
338.6699339413711
 21
110.2909923786629
 31
0.0
  0
DIMENSION
  5
2FA
330
1A
100
AcDbEntity
  8
SUNPOU
100
AcDbDimension
  2
*D1
 10
180.6673866922717
 20
127.8979146602472
 30
0.0
 11
130.6673866922718
 21
130.3979146602472
 31
0.0
 70
    32
  1
φ<>
  3
STANDARD
100
AcDbAlignedDimension
 13
80.66738669227191
 23
111.2911923786628
 33
0.0
 14
180.6673866922717
 24
111.2909923786629
 34
0.0
100
AcDbRotatedDimension
1001
ACAD
1000
DSTYLE
1002
{
1070
   140
1040
3.0
1070
    74
1070
     0
1070
   172
1070
     1
1070
    73
1070
     0
1070
   272
1070
     2
1070
    77
1070
     3
1070
   173
1070
     1
1070
   147
1040
1.0
1070
    42
1040
3.0
1070
    44
1040
1.5
1070
    43
1040
7.0
1070
   271
1070
     0
1070
   178
1070
     4
1070
   177
1070
     4
1070
   176
1070
     4
1070
   141
1040
150.0
1070
     7
1000
_OPEN
1070
     6
1000
_OPEN
1070
    41
1040
3.0
1002
}
  0
DIMENSION
  5
317
330
1A
100
AcDbEntity
  8
SUNPOU
100
AcDbDimension
  2
*D2
 10
189.6520429036456
 20
64.79089237866293
 30
0.0
 11
187.1520429036456
 21
55.74089237866293
 31
0.0
 70
    32
  1
※b<>
  3
STANDARD
100
AcDbAlignedDimension
 13
166.6698411995131
 23
74.79088802347447
 33
0.0
 14
165.1672866922718
 24
64.79089237866293
 34
0.0
 50
90.0
100
AcDbRotatedDimension
1001
ACAD
1000
DSTYLE
1002
{
1070
   140
1040
3.0
1070
    74
1070
     0
1070
   172
1070
     1
1070
    73
1070
     0
1070
   272
1070
     2
1070
    77
1070
     3
1070
   173
1070
     1
1070
   147
1040
1.0
1070
    42
1040
3.0
1070
    44
1040
1.5
1070
    43
1040
7.0
1070
   271
1070
     0
1070
   178
1070
     4
1070
   177
1070
     4
1070
   176
1070
     4
1070
   141
1040
150.0
1070
     7
1000
_OPEN
1070
     6
1000
_OPEN
1070
    41
1040
3.0
1002
}
  0
DIMENSION
  5
321
330
1A
100
AcDbEntity
  8
SUNPOU
100
AcDbDimension
  2
*D3
 10
107.1303058559208
 20
177.9365584263646
 30
0.0
 11
142.9040633574167
 21
206.2083719330422
 31
0.0
 70
   163
  3
STANDARD
100
AcDbDiametricDimension
 15
154.2044674817826
 25
215.1390222272082
 35
0.0
 40
0.0
1001
ACAD
1000
DSTYLE
1002
{
1070
   288
1070
     1
1070
   140
1040
3.0
1070
    74
1070
     0
1070
   172
1070
     1
1070
    73
1070
     0
1070
   272
1070
     2
1070
    77
1070
     3
1070
   173
1070
     1
1070
   147
1040
1.0
1070
    42
1040
3.0
1070
    44
1040
1.5
1070
    43
1040
7.0
1070
   271
1070
     0
1070
   178
1070
     4
1070
   177
1070
     4
1070
   176
1070
     4
1070
   141
1040
150.0
1070
     7
1000
_OPEN
1070
     6
1000
_OPEN
1070
    41
1040
3.0
1002
}
  0
DIMENSION
  5
33B
330
1A
100
AcDbEntity
  8
SUNPOU
100
AcDbDimension
  2
*D4
 10
94.66728669227189
 20
34.72561930946961
 30
0.0
 11
130.6672866922718
 21
37.22561930946961
 31
0.0
 70
    32
  3
STANDARD
100
AcDbAlignedDimension
 13
166.6672866922717
 23
68.79089237866293
 33
0.0
 14
94.66728669227189
 24
68.79099237866293
 34
0.0
100
AcDbRotatedDimension
1001
ACAD
1000
DSTYLE
1002
{
1070
   140
1040
3.0
1070
    74
1070
     0
1070
   172
1070
     1
1070
    73
1070
     0
1070
   272
1070
     2
1070
    77
1070
     3
1070
   173
1070
     1
1070
   147
1040
1.0
1070
    42
1040
3.0
1070
    44
1040
1.5
1070
    43
1040
7.0
1070
   271
1070
     0
1070
   178
1070
     4
1070
   177
1070
     4
1070
   176
1070
     4
1070
   141
1040
150.0
1070
     7
1000
_OPEN
1070
     6
1000
_OPEN
1070
    41
1040
3.0
1002
}
  0
DIMENSION
  5
362
330
1A
100
AcDbEntity
  8
SUNPOU
100
AcDbDimension
  2
*D5
 10
198.9972186919881
 20
88.29099237866293
 30
0.0
 11
196.4972186919881
 21
99.79099237866293
 31
0.0
 70
    32
  1
※a<>
  3
STANDARD
100
AcDbAlignedDimension
 13
180.6673866922717
 23
111.2909923786629
 33
0.0
 14
160.6673433501902
 24
88.29099237866293
 34
0.0
 50
90.0
100
AcDbRotatedDimension
1001
ACAD
1000
DSTYLE
1002
{
1070
   140
1040
3.0
1070
    74
1070
     0
1070
   172
1070
     1
1070
    73
1070
     0
1070
   272
1070
     2
1070
    77
1070
     3
1070
   173
1070
     1
1070
   147
1040
1.0
1070
    42
1040
3.0
1070
    44
1040
1.5
1070
    43
1040
7.0
1070
   271
1070
     0
1070
   178
1070
     4
1070
   177
1070
     4
1070
   176
1070
     4
1070
   141
1040
150.0
1070
     7
1000
_OPEN
1070
     6
1000
_OPEN
1070
    41
1040
3.0
1002
}
  0
DIMENSION
  5
36F
330
1A
100
AcDbEntity
  8
SUNPOU
100
AcDbDimension
  2
*D6
 10
207.9934120995051
 20
64.79089237866293
 30
0.0
 11
205.4934120995051
 21
88.04094237866292
 31
0.0
 70
    32
  3
STANDARD
100
AcDbAlignedDimension
 13
180.6673866922717
 23
111.2909923786629
 33
0.0
 14
165.1672866922718
 24
64.79089237866293
 34
0.0
 50
90.0
100
AcDbRotatedDimension
1001
ACAD
1000
DSTYLE
1002
{
1070
   140
1040
3.0
1070
    74
1070
     0
1070
   172
1070
     1
1070
    73
1070
     0
1070
   272
1070
     2
1070
    77
1070
     3
1070
   173
1070
     1
1070
   147
1040
1.0
1070
    42
1040
3.0
1070
    44
1040
1.5
1070
    43
1040
7.0
1070
   271
1070
     0
1070
   178
1070
     4
1070
   177
1070
     4
1070
   176
1070
     4
1070
   141
1040
150.0
1070
     7
1000
_OPEN
1070
     6
1000
_OPEN
1070
    41
1040
3.0
1002
}
  0
TEXT
  5
403
330
1A
100
AcDbEntity
  8
SUNPOU
 62
     4
100
AcDbText
 10
314.4712536058425
 20
29.28662521651602
 30
0.0
 40
4.0
  1
※a　排水管の差込寸法を示す。
100
AcDbText
  0
TEXT
  5
404
330
1A
100
AcDbEntity
  8
SUNPOU
 62
     4
100
AcDbText
 10
314.4712536058425
 20
23.64992724131281
 30
0.0
 40
4.0
  1
※b　エルボの差込寸法を示す。
100
AcDbText
  0
LINE
  5
577
330
1A
100
AcDbEntity
  8
ZUWAKU
100
AcDbLine
 10
104.323300388521
 20
7.600000339449703
 30
0.0
 11
223.7121817289827
 21
7.600000339449699
 31
0.0
  0
LINE
  5
578
330
1A
100
AcDbEntity
  8
ZUWAKU
100
AcDbLine
 10
104.323300388521
 20
7.800000339449701
 30
0.0
 11
223.7121817289827
 21
7.800000339449704
 31
0.0
  0
LINE
  5
579
330
1A
100
AcDbEntity
  8
ZUWAKU
100
AcDbLine
 10
104.323300388521
 20
7.700000339449701
 30
0.0
 11
223.7121817289827
 21
7.700000339449701
 31
0.0
  0
LINE
  5
57A
330
1A
100
AcDbEntity
  8
ZUWAKU
100
AcDbLine
 10
-0.0000002565129762
 20
15.40000033944969
 30
0.0
 11
398.6999997434869
 21
15.40000033944969
 31
0.0
  0
LINE
  5
57B
330
1A
100
AcDbEntity
  8
ZUWAKU
100
AcDbLine
 10
-0.0000002565129762
 20
15.30000033944968
 30
0.0
 11
398.6999997434869
 21
15.30000033944968
 31
0.0
  0
LINE
  5
57C
330
1A
100
AcDbEntity
  8
ZUWAKU
100
AcDbLine
 10
-0.0000002565129762
 20
15.20000033944968
 30
0.0
 11
398.6999997434869
 21
15.20000033944968
 31
0.0
  0
LINE
  5
57D
330
1A
100
AcDbEntity
  8
ZUWAKU
100
AcDbLine
 10
-0.0000002565129762
 20
15.10000033944968
 30
0.0
 11
398.6999997434869
 21
15.10000033944968
 31
0.0
  0
LINE
  5
57E
330
1A
100
AcDbEntity
  8
ZUWAKU
100
AcDbLine
 10
-0.0000002565129762
 20
15.00000033944968
 30
0.0
 11
398.6999997434869
 21
15.00000033944968
 31
0.0
  0
LWPOLYLINE
  5
57F
330
1A
100
AcDbEntity
  8
ZUWAKU
100
AcDbPolyline
 90
        4
 70
     1
 43
0.0
 10
0.0999997434869897
 20
275.7000003394497
 10
0.0999997434869897
 20
0.1000003394497071
 10
398.6999997434869
 20
0.1000003394497186
 10
398.699999743487
 20
275.7000003394497
  0
LWPOLYLINE
  5
580
330
1A
100
AcDbEntity
  8
ZUWAKU
100
AcDbPolyline
 90
        4
 70
     1
 43
0.0
 10
0.2999997434869783
 20
275.5000003394497
 10
0.2999997434869783
 20
0.3000003394496957
 10
398.4999997434871
 20
0.3000003394497188
 10
398.499999743487
 20
275.5000003394497
  0
LWPOLYLINE
  5
581
330
1A
100
AcDbEntity
  8
ZUWAKU
100
AcDbPolyline
 90
        4
 70
     1
 43
0.0
 10
-0.0000002565129762
 20
275.8000003394497
 10
-0.0000002565129762
 20
0.0000003394496844
 10
398.799999743487
 20
0.0000003394497181
 10
398.799999743487
 20
275.8000003394497
  0
LWPOLYLINE
  5
582
330
1A
100
AcDbEntity
  8
ZUWAKU
100
AcDbPolyline
 90
        4
 70
     1
 43
0.0
 10
0.1999997434870124
 20
275.6000003394496
 10
0.1999997434870124
 20
0.2000003394497298
 10
398.599999743487
 20
0.2000003394497183
 10
398.599999743487
 20
275.6000003394496
  0
LWPOLYLINE
  5
583
330
1A
100
AcDbEntity
  8
ZUWAKU
100
AcDbPolyline
 90
        4
 70
     1
 43
0.0
 10
0.3999997434870011
 20
275.4000003394497
 10
0.3999997434870011
 20
0.4000003394497185
 10
398.399999743487
 20
0.4000003394497185
 10
398.399999743487
 20
275.4000003394497
  0
TEXT
  5
584
330
1A
100
AcDbEntity
  8
MOJI
100
AcDbText
 10
46.47889453757159
 20
6.370589404587065
 30
0.0
 40
3.0
  1
たてといアートフェイスＹ６０Ｈ
 41
0.9
  7
ｽﾀｲﾙ1
100
AcDbText
  0
HATCH
  5
585
330
1A
100
AcDbEntity
  8
ZUWAKU
100
AcDbHatch
 10
0.0
 20
0.0
 30
0.0
210
0.0
220
0.0
230
1.0
  2
ANSI37
 70
     0
 71
     0
 91
        8
 92
        7
 72
     1
 73
     1
 93
       24
 10
7.251131074046952
 20
8.822424579941475
 42
-0.1989123673796348
 10
7.046105820877585
 20
9.317399326772001
 42
0.0
 10
7.046105820877585
 20
9.96250033944969
 42
-0.4142135623730912
 10
7.308605820877573
 20
10.22500033944968
 42
0.0
 10
8.796105820877528
 20
10.22500033944968
 42
0.4142135623731546
 10
9.058605820877573
 20
10.48750033944968
 42
0.0
 10
9.058605820877573
 20
11.36250033944968
 42
0.4142135623731586
 10
8.796105820877528
 20
11.62500033944968
 42
0.0
 10
7.046105820877585
 20
11.62500033944968
 42
0.4142135623730928
 10
5.646105820877608
 20
10.2250003394497
 42
0.0
 10
5.646105820877608
 20
9.317399326772065
 42
0.1989123673796619
 10
6.261181580385823
 20
7.832475086280261
 42
0.0
 10
7.716080567708161
 20
6.377576098957932
 42
-0.1989123673796613
 10
7.921105820877585
 20
5.882601352127339
 42
0.0
 10
7.921105820877585
 20
5.237500339449681
 42
-0.4142135623730911
 10
7.658605820877596
 20
4.975000339449685
 42
0.0
 10
6.171105820877642
 20
4.975000339449685
 42
0.4142135623731526
 10
5.908605820877596
 20
4.712500339449691
 42
0.0
 10
5.908605820877596
 20
3.837500339449681
 42
0.4142135623731526
 10
6.171105820877642
 20
3.575000339449687
 42
0.0
 10
7.921105820877585
 20
3.575000339449687
 42
0.4142135623731044
 10
9.321105820877619
 20
4.975000339449675
 42
0.0
 10
9.321105820877619
 20
5.882601352127311
 42
0.1989123673796604
 10
8.706030061369347
 20
7.367525592619081
 42
0.0
 97
        0
 92
        7
 72
     1
 73
     1
 93
       16
 10
11.7711058208776
 20
9.52500033944969
 42
-0.4142135623730935
 10
12.47110582087759
 20
10.22500033944968
 42
0.0
 10
13.43360582087757
 20
10.22500033944968
 42
0.4142135623731546
 10
13.69610582087761
 20
10.48750033944968
 42
0.0
 10
13.69610582087761
 20
11.36250033944968
 42
0.4142135623730951
 10
13.43360582087763
 20
11.62500033944968
 42
0.0
 10
12.47110582087754
 20
11.62500033944966
 42
0.4142135623730892
 10
10.37110582087757
 20
9.525000339449654
 42
0.0
 10
10.37110582087757
 20
5.675000339449699
 42
0.4142135623730969
 10
12.47110582087759
 20
3.575000339449687
 42
0.0
 10
13.43360582087757
 20
3.575000339449687
 42
0.4142135623731526
 10
13.69610582087761
 20
3.837500339449681
 42
0.0
 10
13.69610582087761
 20
4.712500339449691
 42
0.4142135623730891
 10
13.43360582087763
 20
4.975000339449685
 42
0.0
 10
12.47110582087759
 20
4.975000339449685
 42
-0.4142135623730928
 10
11.7711058208776
 20
5.675000339449679
 42
0.0
 97
        0
 92
        7
 72
     1
 73
     1
 93
        2
 10
12.12110582087757
 20
7.600000339449685
 42
1.0
 10
13.87110582087757
 20
7.600000339449685
 42
1.0
 97
        0
 92
        7
 72
     1
 73
     1
 93
       26
 10
18.65742906196658
 20
9.602523936231399
 42
0.0
 10
19.18824887853548
 20
11.28345335536619
 42
0.5069206636600134
 10
18.93793342893781
 20
11.62500033944968
 42
0.0
 10
18.08848873913319
 20
11.62500033944968
 42
0.3272098845218764
 10
17.83817328953551
 20
11.44154732353317
 42
0.0
 10
16.90403835221963
 20
8.483453355366226
 42
-0.3272098845219541
 10
16.65372290262189
 20
8.300000339449685
 42
0.0
 10
16.58360582087766
 20
8.300000339449685
 42
-0.4142135623731526
 10
16.32110582087761
 20
8.562500339449679
 42
0.0
 10
16.32110582087761
 20
11.36250033944968
 42
0.4142135623730951
 10
16.05860582087763
 20
11.62500033944968
 42
0.0
 10
15.18360582087757
 20
11.62500033944968
 42
0.4142135623730871
 10
14.92110582087758
 20
11.36250033944969
 42
0.0
 10
14.92110582087758
 20
3.837500339449681
 42
0.4142135623730891
 10
15.18360582087757
 20
3.575000339449687
 42
0.0
 10
16.05860582087757
 20
3.575000339449687
 42
0.4142135623731526
 10
16.32110582087761
 20
3.837500339449681
 42
0.0
 10
16.32110582087761
 20
6.637500339449692
 42
-0.4142135623731526
 10
16.58360582087766
 20
6.900000339449686
 42
0.0
 10
16.65372290262195
 20
6.900000339449686
 42
-0.3272098845218915
 10
16.90403835221963
 20
6.716547323533148
 42
0.0
 10
17.83817328953551
 20
3.758453355366222
 42
0.3272098845218902
 10
18.08848873913319
 20
3.575000339449687
 42
0.0
 10
18.93793342893781
 20
3.575000339449687
 42
0.5069206636600335
 10
19.18824887853548
 20
3.91654732353319
 42
0.0
 10
18.02505318929866
 20
7.600000339449755
 42
0.0
 97
        0
 92
        7
 72
     1
 73
     1
 93
        8
 10
21.74610582087757
 20
11.36250033944969
 42
0.4142135623731546
 10
21.48360582087752
 20
11.62500033944968
 42
0.0
 10
20.60860582087764
 20
11.62500033944968
 42
0.4142135623731507
 10
20.34610582087759
 20
11.36250033944969
 42
0.0
 10
20.34610582087759
 20
3.837500339449681
 42
0.4142135623731526
 10
20.60860582087764
 20
3.575000339449687
 42
0.0
 10
21.48360582087752
 20
3.575000339449687
 42
0.4142135623731526
 10
21.74610582087757
 20
3.837500339449681
 42
0.0
 97
        0
 92
        7
 72
     1
 73
     1
 93
       24
 10
24.19610582087762
 20
9.96250033944969
 42
-0.4142135623731546
 10
24.45860582087766
 20
10.22500033944968
 42
0.0
 10
25.94610582087762
 20
10.22500033944968
 42
0.4142135623730911
 10
26.20860582087761
 20
10.48750033944968
 42
0.0
 10
26.20860582087761
 20
11.36250033944968
 42
0.4142135623730952
 10
25.94610582087762
 20
11.62500033944968
 42
0.0
 10
24.19610582087762
 20
11.62500033944968
 42
0.4142135623731048
 10
22.79610582087758
 20
10.2250003394497
 42
0.0
 10
22.79610582087758
 20
9.317399326772065
 42
0.1989123673796613
 10
23.41118158038586
 20
7.83247508628029
 42
0.0
 10
24.86608056770819
 20
6.377576098957955
 42
-0.1989123673796402
 10
25.07110582087761
 20
5.882601352127419
 42
0.0
 10
25.07110582087761
 20
5.237500339449681
 42
-0.4142135623730911
 10
24.80860582087763
 20
4.975000339449685
 42
0.0
 10
23.32110582087762
 20
4.975000339449685
 42
0.4142135623731526
 10
23.05860582087757
 20
4.712500339449691
 42
0.0
 10
23.05860582087757
 20
3.837500339449681
 42
0.4142135623730891
 10
23.32110582087756
 20
3.575000339449687
 42
0.0
 10
25.07110582087761
 20
3.575000339449687
 42
0.4142135623730925
 10
26.47110582087759
 20
4.975000339449675
 42
0.0
 10
26.47110582087759
 20
5.882601352127311
 42
0.1989123673796675
 10
25.85603006136932
 20
7.367525592619138
 42
0.0
 10
24.40113107404704
 20
8.822424579941396
 42
-0.1989123673796652
 10
24.19610582087762
 20
9.31739932677198
 42
0.0
 97
        0
 92
        7
 72
     1
 73
     1
 93
       16
 10
28.92110582087758
 20
11.36250033944968
 42
0.414213562373103
 10
28.65860582087759
 20
11.62500033944968
 42
0.0
 10
27.78360582087759
 20
11.62500033944968
 42
0.4142135623730871
 10
27.52110582087761
 20
11.36250033944969
 42
0.0
 10
27.52110582087761
 20
4.975000339449675
 42
0.4142135623730926
 10
28.92110582087758
 20
3.575000339449687
 42
0.0
 10
30.67110582087758
 20
3.575000339449687
 42
0.4142135623731044
 10
32.07110582087762
 20
4.975000339449675
 42
0.0
 10
32.07110582087762
 20
11.36250033944968
 42
0.4142135623730951
 10
31.80860582087763
 20
11.62500033944968
 42
0.0
 10
30.93360582087757
 20
11.62500033944968
 42
0.4142135623730871
 10
30.67110582087758
 20
11.36250033944969
 42
0.0
 10
30.67110582087758
 20
5.500000339449673
 42
-0.414213562373088
 10
30.1461058208776
 20
4.975000339449685
 42
0.0
 10
29.44610582087761
 20
4.975000339449685
 42
-0.4142135623731197
 10
28.92110582087758
 20
5.500000339449673
 42
0.0
 97
        0
 92
        7
 72
     1
 73
     1
 93
        8
 10
34.5211058208776
 20
11.36250033944969
 42
0.4142135623730871
 10
34.25860582087762
 20
11.62500033944968
 42
0.0
 10
33.38360582087762
 20
11.62500033944968
 42
0.4142135623731507
 10
33.12110582087757
 20
11.36250033944969
 42
0.0
 10
33.12110582087757
 20
3.837500339449681
 42
0.4142135623730891
 10
33.38360582087756
 20
3.575000339449687
 42
0.0
 10
34.25860582087762
 20
3.575000339449687
 42
0.4142135623730891
 10
34.5211058208776
 20
3.837500339449681
 42
0.0
 97
        0
 75
     0
 76
     1
 52
0.0
 41
0.1
 77
     0
 78
     2
 53
45.0
 43
-450.4711524238524
 44
-6.599999660550281
 45
-0.2245064030267288
 46
0.2245064030267288
 79
     0
 53
135.0
 43
-450.4711524238524
 44
-6.599999660550281
 45
-0.2245064030267288
 46
-0.2245064030267288
 79
     0
 47
0.057451373970553
 98
        8
 10
8.039927224998677
 20
7.583587162392461
 10
11.2022572467066
 20
9.42203143067519
 10
12.58218368631685
 20
7.755941162485044
 10
15.45702973430559
 20
8.100649162670435
 10
20.91923575296539
 20
8.330455296441243
 10
23.44910019105179
 20
9.70928849765329
 10
28.2788427296872
 20
9.364579296997192
 10
33.91353955329839
 20
9.594385430767999
  0
LINE
  5
586
330
1A
100
AcDbEntity
  8
ZUWAKU
100
AcDbLine
 10
12.47110582087759
 20
11.62500033944966
 30
0.0
 11
13.43360582087757
 21
11.62500033944968
 31
0.0
  0
LINE
  5
587
330
1A
100
AcDbEntity
  8
ZUWAKU
100
AcDbLine
 10
13.43360582087757
 20
10.22500033944968
 30
0.0
 11
12.47110582087759
 21
10.22500033944968
 31
0.0
  0
LINE
  5
588
330
1A
100
AcDbEntity
  8
ZUWAKU
100
AcDbLine
 10
12.47110582087759
 20
4.975000339449685
 30
0.0
 11
13.43360582087757
 21
4.975000339449685
 31
0.0
  0
LINE
  5
589
330
1A
100
AcDbEntity
  8
ZUWAKU
100
AcDbLine
 10
13.43360582087757
 20
3.575000339449687
 30
0.0
 11
12.47110582087759
 21
3.575000339449687
 31
0.0
  0
CIRCLE
  5
58A
330
1A
100
AcDbEntity
  8
ZUWAKU
100
AcDbCircle
 10
12.99610582087757
 20
7.600000339449685
 30
0.0
 40
0.875
  0
ARC
  5
58B
330
1A
100
AcDbEntity
  8
ZUWAKU
100
AcDbCircle
 10
7.746105820877573
 20
9.317399326772036
 30
0.0
 40
0.7
100
AcDbArc
 50
180.0000000000016
 51
224.9999999999988
  0
LINE
  5
58C
330
1A
100
AcDbEntity
  8
ZUWAKU
100
AcDbLine
 10
11.7711058208776
 20
9.525000339449686
 30
0.0
 11
11.7711058208776
 21
5.675000339449688
 31
0.0
  0
LINE
  5
58D
330
1A
100
AcDbEntity
  8
ZUWAKU
100
AcDbLine
 10
10.37110582087757
 20
5.675000339449688
 30
0.0
 11
10.37110582087757
 21
9.525000339449665
 31
0.0
  0
ARC
  5
58E
330
1A
100
AcDbEntity
  8
ZUWAKU
100
AcDbCircle
 10
7.746105820877573
 20
9.317399326772036
 30
0.0
 40
2.099999999999999
100
AcDbArc
 50
180.0
 51
225.0
  0
ARC
  5
58F
330
1A
100
AcDbEntity
  8
ZUWAKU
100
AcDbCircle
 10
7.921105820877585
 20
4.975000339449685
 30
0.0
 40
1.399999999999999
100
AcDbArc
 50
270.0
 51
0.0
  0
ARC
  5
590
330
1A
100
AcDbEntity
  8
ZUWAKU
100
AcDbCircle
 10
12.47110582087759
 20
5.675000339449688
 30
0.0
 40
2.099999999999999
100
AcDbArc
 50
180.0
 51
270.0
  0
ARC
  5
591
330
1A
100
AcDbEntity
  8
ZUWAKU
100
AcDbCircle
 10
7.221105820877596
 20
5.882601352127338
 30
0.0
 40
2.099999999999999
100
AcDbArc
 50
0.0
 51
45.0
  0
LINE
  5
592
330
1A
100
AcDbEntity
  8
ZUWAKU
100
AcDbLine
 10
8.706030061369347
 20
7.367525592619099
 30
0.0
 11
7.251131074047009
 21
8.822424579941436
 31
0.0
  0
LINE
  5
593
330
1A
100
AcDbEntity
  8
ZUWAKU
100
AcDbLine
 10
7.921105820877585
 20
5.237500339449688
 30
0.0
 11
7.921105820877585
 21
5.882601352127359
 31
0.0
  0
ARC
  5
594
330
1A
100
AcDbEntity
  8
ZUWAKU
100
AcDbCircle
 10
7.658605820877596
 20
5.237500339449688
 30
0.0
 40
0.2625
100
AcDbArc
 50
270.0
 51
0.0
  0
ARC
  5
595
330
1A
100
AcDbEntity
  8
ZUWAKU
100
AcDbCircle
 10
7.221105820877596
 20
5.882601352127359
 30
0.0
 40
0.7
100
AcDbArc
 50
0.0
 51
45.0
  0
LINE
  5
596
330
1A
100
AcDbEntity
  8
ZUWAKU
100
AcDbLine
 10
5.908605820877596
 20
3.837500339449686
 30
0.0
 11
5.908605820877596
 21
4.712500339449686
 31
0.0
  0
ARC
  5
597
330
1A
100
AcDbEntity
  8
ZUWAKU
100
AcDbCircle
 10
6.171105820877585
 20
3.837500339449686
 30
0.0
 40
0.2625
100
AcDbArc
 50
180.0
 51
270.0
  0
ARC
  5
598
330
1A
100
AcDbEntity
  8
ZUWAKU
100
AcDbCircle
 10
6.171105820877585
 20
4.712500339449686
 30
0.0
 40
0.2625
100
AcDbArc
 50
90.0
 51
180.0
  0
LINE
  5
599
330
1A
100
AcDbEntity
  8
ZUWAKU
100
AcDbLine
 10
6.171105820877585
 20
3.575000339449687
 30
0.0
 11
7.921105820877585
 21
3.575000339449687
 31
0.0
  0
LINE
  5
59A
330
1A
100
AcDbEntity
  8
ZUWAKU
100
AcDbLine
 10
6.171105820877585
 20
4.975000339449685
 30
0.0
 11
7.658605820877596
 21
4.975000339449685
 31
0.0
  0
LINE
  5
59B
330
1A
100
AcDbEntity
  8
ZUWAKU
100
AcDbLine
 10
6.261181580385823
 20
7.832475086280275
 30
0.0
 11
7.716080567708161
 21
6.377576098957945
 31
0.0
  0
LINE
  5
59C
330
1A
100
AcDbEntity
  8
ZUWAKU
100
AcDbLine
 10
9.321105820877619
 20
4.975000339449685
 30
0.0
 11
9.321105820877619
 21
5.882601352127359
 31
0.0
  0
ARC
  5
59D
330
1A
100
AcDbEntity
  8
ZUWAKU
100
AcDbCircle
 10
12.47110582087759
 20
5.675000339449688
 30
0.0
 40
0.7
100
AcDbArc
 50
180.0
 51
270.0
  0
ARC
  5
59E
330
1A
100
AcDbEntity
  8
ZUWAKU
100
AcDbCircle
 10
8.796105820877585
 20
11.36250033944968
 30
0.0
 40
0.2625
100
AcDbArc
 50
0.0
 51
90.0
  0
ARC
  5
59F
330
1A
100
AcDbEntity
  8
ZUWAKU
100
AcDbCircle
 10
8.796105820877585
 20
10.48750033944968
 30
0.0
 40
0.2625
100
AcDbArc
 50
270.0
 51
0.0
  0
LINE
  5
5A0
330
1A
100
AcDbEntity
  8
ZUWAKU
100
AcDbLine
 10
7.046105820877585
 20
11.62500033944968
 30
0.0
 11
8.796105820877585
 21
11.62500033944968
 31
0.0
  0
ARC
  5
5A1
330
1A
100
AcDbEntity
  8
ZUWAKU
100
AcDbCircle
 10
7.308605820877573
 20
9.962500339449686
 30
0.0
 40
0.2625
100
AcDbArc
 50
90.0
 51
180.0
  0
LINE
  5
5A2
330
1A
100
AcDbEntity
  8
ZUWAKU
100
AcDbLine
 10
7.046105820877585
 20
9.962500339449686
 30
0.0
 11
7.046105820877585
 21
9.317399326772015
 31
0.0
  0
LINE
  5
5A3
330
1A
100
AcDbEntity
  8
ZUWAKU
100
AcDbLine
 10
8.796105820877585
 20
10.22500033944968
 30
0.0
 11
7.308605820877573
 21
10.22500033944968
 31
0.0
  0
LINE
  5
5A4
330
1A
100
AcDbEntity
  8
ZUWAKU
100
AcDbLine
 10
5.646105820877608
 20
10.22500033944968
 30
0.0
 11
5.646105820877608
 21
9.317399326772015
 31
0.0
  0
ARC
  5
5A5
330
1A
100
AcDbEntity
  8
ZUWAKU
100
AcDbCircle
 10
7.046105820877585
 20
10.22500033944968
 30
0.0
 40
1.399999999999999
100
AcDbArc
 50
90.0
 51
180.0
  0
LINE
  5
5A6
330
1A
100
AcDbEntity
  8
ZUWAKU
100
AcDbLine
 10
9.058605820877573
 20
11.36250033944968
 30
0.0
 11
9.058605820877573
 21
10.48750033944968
 31
0.0
  0
ARC
  5
5A7
330
1A
100
AcDbEntity
  8
ZUWAKU
100
AcDbCircle
 10
12.47110582087759
 20
9.525000339449686
 30
0.0
 40
0.7
100
AcDbArc
 50
90.0
 51
180.0
  0
ARC
  5
5A8
330
1A
100
AcDbEntity
  8
ZUWAKU
100
AcDbCircle
 10
12.47110582087759
 20
9.525000339449665
 30
0.0
 40
2.099999999999999
100
AcDbArc
 50
90.0
 51
180.0
  0
LINE
  5
5A9
330
1A
100
AcDbEntity
  8
ZUWAKU
100
AcDbLine
 10
39.66331451748112
 20
15.00000033944968
 30
0.0
 11
39.66331451748123
 21
0.4000003394497185
 31
0.0
  0
LINE
  5
5AA
330
1A
100
AcDbEntity
  8
ZUWAKU
100
AcDbLine
 10
39.76331451748114
 20
15.00000033944968
 30
0.0
 11
39.76331451748126
 21
0.4000003394497185
 31
0.0
  0
LINE
  5
5AB
330
1A
100
AcDbEntity
  8
ZUWAKU
100
AcDbLine
 10
39.56331451748122
 20
15.00000033944968
 30
0.0
 11
39.56331451748122
 21
0.4000003394497185
 31
0.0
  0
LINE
  5
5AC
330
1A
100
AcDbEntity
  8
ZUWAKU
100
AcDbLine
 10
32.07110582087762
 20
4.975000339449685
 30
0.0
 11
32.07110582087762
 21
11.36250033944968
 31
0.0
  0
LINE
  5
5AD
330
1A
100
AcDbEntity
  8
ZUWAKU
100
AcDbLine
 10
30.67110582087758
 20
11.36250033944968
 30
0.0
 11
30.67110582087758
 21
5.500000339449684
 31
0.0
  0
LINE
  5
5AE
330
1A
100
AcDbEntity
  8
ZUWAKU
100
AcDbLine
 10
34.5211058208776
 20
3.837500339449686
 30
0.0
 11
34.5211058208776
 21
11.36250033944968
 31
0.0
  0
LINE
  5
5AF
330
1A
100
AcDbEntity
  8
ZUWAKU
100
AcDbLine
 10
33.12110582087757
 20
11.36250033944968
 30
0.0
 11
33.12110582087757
 21
3.837500339449686
 31
0.0
  0
ARC
  5
5B0
330
1A
100
AcDbEntity
  8
ZUWAKU
100
AcDbCircle
 10
24.8961058208776
 20
9.317399326772036
 30
0.0
 40
0.7
100
AcDbArc
 50
180.0000000000016
 51
224.9999999999988
  0
ARC
  5
5B1
330
1A
100
AcDbEntity
  8
ZUWAKU
100
AcDbCircle
 10
24.8961058208776
 20
9.317399326772036
 30
0.0
 40
2.099999999999999
100
AcDbArc
 50
180.0
 51
225.0
  0
LINE
  5
5B2
330
1A
100
AcDbEntity
  8
ZUWAKU
100
AcDbLine
 10
18.65742906196658
 20
9.602523936231399
 30
0.0
 11
18.02505318929866
 21
7.600000339449696
 31
0.0
  0
LINE
  5
5B3
330
1A
100
AcDbEntity
  8
ZUWAKU
100
AcDbLine
 10
20.34610582087759
 20
11.36250033944968
 30
0.0
 11
20.34610582087759
 21
3.837500339449686
 31
0.0
  0
LINE
  5
5B4
330
1A
100
AcDbEntity
  8
ZUWAKU
100
AcDbLine
 10
21.74610582087757
 20
3.837500339449686
 30
0.0
 11
21.74610582087757
 21
11.36250033944968
 31
0.0
  0
LINE
  5
5B5
330
1A
100
AcDbEntity
  8
ZUWAKU
100
AcDbLine
 10
27.52110582087761
 20
11.36250033944968
 30
0.0
 11
27.52110582087761
 21
4.975000339449685
 31
0.0
  0
LINE
  5
5B6
330
1A
100
AcDbEntity
  8
ZUWAKU
100
AcDbLine
 10
28.92110582087758
 20
5.500000339449684
 30
0.0
 11
28.92110582087758
 21
11.36250033944968
 31
0.0
  0
LINE
  5
5B7
330
1A
100
AcDbEntity
  8
ZUWAKU
100
AcDbLine
 10
16.32110582087761
 20
8.562500339449687
 30
0.0
 11
16.32110582087761
 21
11.36250033944968
 31
0.0
  0
LINE
  5
5B8
330
1A
100
AcDbEntity
  8
ZUWAKU
100
AcDbLine
 10
14.92110582087758
 20
11.36250033944968
 30
0.0
 11
14.92110582087758
 21
3.837500339449686
 31
0.0
  0
LINE
  5
5B9
330
1A
100
AcDbEntity
  8
ZUWAKU
100
AcDbLine
 10
17.83817328953551
 20
11.44154732353317
 30
0.0
 11
16.90403835221963
 21
8.483453355366201
 31
0.0
  0
LINE
  5
5BA
330
1A
100
AcDbEntity
  8
ZUWAKU
100
AcDbLine
 10
30.1461058208776
 20
4.975000339449685
 30
0.0
 11
29.44610582087761
 21
4.975000339449685
 31
0.0
  0
LINE
  5
5BB
330
1A
100
AcDbEntity
  8
ZUWAKU
100
AcDbLine
 10
28.92110582087758
 20
3.575000339449687
 30
0.0
 11
30.67110582087758
 21
3.575000339449687
 31
0.0
  0
LINE
  5
5BC
330
1A
100
AcDbEntity
  8
ZUWAKU
100
AcDbLine
 10
20.60860582087758
 20
3.575000339449687
 30
0.0
 11
21.48360582087758
 21
3.575000339449687
 31
0.0
  0
LINE
  5
5BD
330
1A
100
AcDbEntity
  8
ZUWAKU
100
AcDbLine
 10
17.83817328953551
 20
3.758453355366199
 30
0.0
 11
16.90403835221963
 21
6.71654732353317
 31
0.0
  0
ARC
  5
5BE
330
1A
100
AcDbEntity
  8
ZUWAKU
100
AcDbCircle
 10
16.65372290262195
 20
8.562500339449687
 30
0.0
 40
0.2625
100
AcDbArc
 50
270.0
 51
342.4744316262769
  0
LINE
  5
5BF
330
1A
100
AcDbEntity
  8
ZUWAKU
100
AcDbLine
 10
16.65372290262195
 20
8.300000339449685
 30
0.0
 11
16.5836058208776
 21
8.300000339449685
 31
0.0
  0
LINE
  5
5C0
330
1A
100
AcDbEntity
  8
ZUWAKU
100
AcDbLine
 10
16.5836058208776
 20
6.900000339449686
 30
0.0
 11
16.65372290262195
 21
6.900000339449686
 31
0.0
  0
ARC
  5
5C1
330
1A
100
AcDbEntity
  8
ZUWAKU
100
AcDbCircle
 10
16.5836058208776
 20
8.562500339449687
 30
0.0
 40
0.2625
100
AcDbArc
 50
180.0
 51
270.0
  0
LINE
  5
5C2
330
1A
100
AcDbEntity
  8
ZUWAKU
100
AcDbLine
 10
15.18360582087757
 20
3.575000339449687
 30
0.0
 11
16.05860582087757
 21
3.575000339449687
 31
0.0
  0
ARC
  5
5C3
330
1A
100
AcDbEntity
  8
ZUWAKU
100
AcDbCircle
 10
16.05860582087757
 20
3.837500339449686
 30
0.0
 40
0.2625
100
AcDbArc
 50
270.0
 51
0.0
  0
LINE
  5
5C4
330
1A
100
AcDbEntity
  8
ZUWAKU
100
AcDbLine
 10
16.32110582087761
 20
3.837500339449686
 30
0.0
 11
16.32110582087761
 21
6.637500339449687
 31
0.0
  0
LINE
  5
5C5
330
1A
100
AcDbEntity
  8
ZUWAKU
100
AcDbLine
 10
13.69610582087761
 20
4.712500339449686
 30
0.0
 11
13.69610582087761
 21
3.837500339449686
 31
0.0
  0
ARC
  5
5C6
330
1A
100
AcDbEntity
  8
ZUWAKU
100
AcDbCircle
 10
13.43360582087757
 20
3.837500339449686
 30
0.0
 40
0.2625
100
AcDbArc
 50
270.0
 51
0.0
  0
ARC
  5
5C7
330
1A
100
AcDbEntity
  8
ZUWAKU
100
AcDbCircle
 10
13.43360582087757
 20
4.712500339449686
 30
0.0
 40
0.2625
100
AcDbArc
 50
0.0
 51
90.0
  0
ARC
  5
5C8
330
1A
100
AcDbEntity
  8
ZUWAKU
100
AcDbCircle
 10
15.18360582087757
 20
3.837500339449686
 30
0.0
 40
0.2625
100
AcDbArc
 50
180.0
 51
270.0
  0
ARC
  5
5C9
330
1A
100
AcDbEntity
  8
ZUWAKU
100
AcDbCircle
 10
16.65372290262195
 20
6.637500339449687
 30
0.0
 40
0.2625
100
AcDbArc
 50
17.52556837372303
 51
90.0
  0
ARC
  5
5CA
330
1A
100
AcDbEntity
  8
ZUWAKU
100
AcDbCircle
 10
16.5836058208776
 20
6.637500339449687
 30
0.0
 40
0.2625
100
AcDbArc
 50
90.0
 51
180.0
  0
ARC
  5
5CB
330
1A
100
AcDbEntity
  8
ZUWAKU
100
AcDbCircle
 10
20.60860582087758
 20
3.837500339449686
 30
0.0
 40
0.2625
100
AcDbArc
 50
180.0
 51
270.0
  0
LINE
  5
5CC
330
1A
100
AcDbEntity
  8
ZUWAKU
100
AcDbLine
 10
18.08848873913325
 20
3.575000339449687
 30
0.0
 11
18.93793342893775
 21
3.575000339449687
 31
0.0
  0
ARC
  5
5CD
330
1A
100
AcDbEntity
  8
ZUWAKU
100
AcDbCircle
 10
18.93793342893775
 20
3.837500339449686
 30
0.0
 40
0.2625
100
AcDbArc
 50
270.0
 51
17.52556837372303
  0
LINE
  5
5CE
330
1A
100
AcDbEntity
  8
ZUWAKU
100
AcDbLine
 10
19.18824887853548
 20
3.916547323533173
 30
0.0
 11
18.02505318929866
 21
7.600000339449696
 31
0.0
  0
ARC
  5
5CF
330
1A
100
AcDbEntity
  8
ZUWAKU
100
AcDbCircle
 10
18.08848873913325
 20
3.837500339449686
 30
0.0
 40
0.2625
100
AcDbArc
 50
197.525568373723
 51
270.0
  0
ARC
  5
5D0
330
1A
100
AcDbEntity
  8
ZUWAKU
100
AcDbCircle
 10
28.92110582087758
 20
4.975000339449685
 30
0.0
 40
1.399999999999999
100
AcDbArc
 50
180.0
 51
270.0
  0
ARC
  5
5D1
330
1A
100
AcDbEntity
  8
ZUWAKU
100
AcDbCircle
 10
25.07110582087761
 20
4.975000339449685
 30
0.0
 40
1.399999999999999
100
AcDbArc
 50
270.0
 51
0.0
  0
LINE
  5
5D2
330
1A
100
AcDbEntity
  8
ZUWAKU
100
AcDbLine
 10
25.85603006136938
 20
7.367525592619099
 30
0.0
 11
24.40113107404698
 21
8.822424579941436
 31
0.0
  0
LINE
  5
5D3
330
1A
100
AcDbEntity
  8
ZUWAKU
100
AcDbLine
 10
25.07110582087761
 20
5.237500339449688
 30
0.0
 11
25.07110582087761
 21
5.882601352127359
 31
0.0
  0
ARC
  5
5D4
330
1A
100
AcDbEntity
  8
ZUWAKU
100
AcDbCircle
 10
24.37110582087757
 20
5.882601352127359
 30
0.0
 40
0.7
100
AcDbArc
 50
0.0
 51
45.0
  0
ARC
  5
5D5
330
1A
100
AcDbEntity
  8
ZUWAKU
100
AcDbCircle
 10
24.80860582087757
 20
5.237500339449688
 30
0.0
 40
0.2625
100
AcDbArc
 50
270.0
 51
0.0
  0
LINE
  5
5D6
330
1A
100
AcDbEntity
  8
ZUWAKU
100
AcDbLine
 10
23.05860582087757
 20
3.837500339449686
 30
0.0
 11
23.05860582087757
 21
4.712500339449686
 31
0.0
  0
ARC
  5
5D7
330
1A
100
AcDbEntity
  8
ZUWAKU
100
AcDbCircle
 10
23.32110582087762
 20
3.837500339449686
 30
0.0
 40
0.2625
100
AcDbArc
 50
180.0
 51
270.0
  0
ARC
  5
5D8
330
1A
100
AcDbEntity
  8
ZUWAKU
100
AcDbCircle
 10
21.48360582087758
 20
3.837500339449686
 30
0.0
 40
0.2625
100
AcDbArc
 50
270.0
 51
0.0
  0
ARC
  5
5D9
330
1A
100
AcDbEntity
  8
ZUWAKU
100
AcDbCircle
 10
23.32110582087762
 20
4.712500339449686
 30
0.0
 40
0.2625
100
AcDbArc
 50
90.0
 51
180.0
  0
LINE
  5
5DA
330
1A
100
AcDbEntity
  8
ZUWAKU
100
AcDbLine
 10
23.32110582087762
 20
4.975000339449685
 30
0.0
 11
24.80860582087757
 21
4.975000339449685
 31
0.0
  0
LINE
  5
5DB
330
1A
100
AcDbEntity
  8
ZUWAKU
100
AcDbLine
 10
23.32110582087762
 20
3.575000339449687
 30
0.0
 11
25.07110582087761
 21
3.575000339449687
 31
0.0
  0
LINE
  5
5DC
330
1A
100
AcDbEntity
  8
ZUWAKU
100
AcDbLine
 10
23.41118158038586
 20
7.832475086280275
 30
0.0
 11
24.86608056770819
 21
6.377576098957945
 31
0.0
  0
LINE
  5
5DD
330
1A
100
AcDbEntity
  8
ZUWAKU
100
AcDbLine
 10
26.47110582087759
 20
4.975000339449685
 30
0.0
 11
26.47110582087759
 21
5.882601352127359
 31
0.0
  0
ARC
  5
5DE
330
1A
100
AcDbEntity
  8
ZUWAKU
100
AcDbCircle
 10
24.37110582087757
 20
5.882601352127338
 30
0.0
 40
2.099999999999999
100
AcDbArc
 50
0.0
 51
45.0
  0
ARC
  5
5DF
330
1A
100
AcDbEntity
  8
ZUWAKU
100
AcDbCircle
 10
29.44610582087761
 20
5.500000339449684
 30
0.0
 40
0.525
100
AcDbArc
 50
180.0
 51
270.0
  0
ARC
  5
5E0
330
1A
100
AcDbEntity
  8
ZUWAKU
100
AcDbCircle
 10
30.67110582087758
 20
4.975000339449685
 30
0.0
 40
1.399999999999999
100
AcDbArc
 50
270.0
 51
0.0
  0
LINE
  5
5E1
330
1A
100
AcDbEntity
  8
ZUWAKU
100
AcDbLine
 10
33.38360582087762
 20
3.575000339449687
 30
0.0
 11
34.25860582087762
 21
3.575000339449687
 31
0.0
  0
ARC
  5
5E2
330
1A
100
AcDbEntity
  8
ZUWAKU
100
AcDbCircle
 10
33.38360582087762
 20
3.837500339449686
 30
0.0
 40
0.2625
100
AcDbArc
 50
180.0
 51
270.0
  0
ARC
  5
5E3
330
1A
100
AcDbEntity
  8
ZUWAKU
100
AcDbCircle
 10
30.1461058208776
 20
5.500000339449684
 30
0.0
 40
0.525
100
AcDbArc
 50
270.0
 51
0.0
  0
ARC
  5
5E4
330
1A
100
AcDbEntity
  8
ZUWAKU
100
AcDbCircle
 10
34.25860582087762
 20
3.837500339449686
 30
0.0
 40
0.2625
100
AcDbArc
 50
270.0
 51
0.0
  0
LINE
  5
5E5
330
1A
100
AcDbEntity
  8
ZUWAKU
100
AcDbLine
 10
21.48360582087758
 20
11.62500033944968
 30
0.0
 11
20.60860582087758
 21
11.62500033944968
 31
0.0
  0
ARC
  5
5E6
330
1A
100
AcDbEntity
  8
ZUWAKU
100
AcDbCircle
 10
16.05860582087757
 20
11.36250033944968
 30
0.0
 40
0.2625
100
AcDbArc
 50
0.0
 51
90.0
  0
LINE
  5
5E7
330
1A
100
AcDbEntity
  8
ZUWAKU
100
AcDbLine
 10
16.05860582087757
 20
11.62500033944968
 30
0.0
 11
15.18360582087757
 21
11.62500033944968
 31
0.0
  0
ARC
  5
5E8
330
1A
100
AcDbEntity
  8
ZUWAKU
100
AcDbCircle
 10
13.43360582087757
 20
11.36250033944968
 30
0.0
 40
0.2625
100
AcDbArc
 50
0.0
 51
90.0
  0
ARC
  5
5E9
330
1A
100
AcDbEntity
  8
ZUWAKU
100
AcDbCircle
 10
15.18360582087757
 20
11.36250033944968
 30
0.0
 40
0.2625
100
AcDbArc
 50
90.0
 51
180.0
  0
ARC
  5
5EA
330
1A
100
AcDbEntity
  8
ZUWAKU
100
AcDbCircle
 10
13.43360582087757
 20
10.48750033944968
 30
0.0
 40
0.2625
100
AcDbArc
 50
270.0
 51
0.0
  0
LINE
  5
5EB
330
1A
100
AcDbEntity
  8
ZUWAKU
100
AcDbLine
 10
13.69610582087761
 20
11.36250033944968
 30
0.0
 11
13.69610582087761
 21
10.48750033944968
 31
0.0
  0
ARC
  5
5EC
330
1A
100
AcDbEntity
  8
ZUWAKU
100
AcDbCircle
 10
20.60860582087758
 20
11.36250033944968
 30
0.0
 40
0.2625
100
AcDbArc
 50
90.0
 51
180.0
  0
LINE
  5
5ED
330
1A
100
AcDbEntity
  8
ZUWAKU
100
AcDbLine
 10
18.08848873913325
 20
11.62500033944968
 30
0.0
 11
18.93793342893775
 21
11.62500033944968
 31
0.0
  0
ARC
  5
5EE
330
1A
100
AcDbEntity
  8
ZUWAKU
100
AcDbCircle
 10
18.93793342893775
 20
11.36250033944968
 30
0.0
 40
0.2625
100
AcDbArc
 50
342.4744316262769
 51
90.0
  0
LINE
  5
5EF
330
1A
100
AcDbEntity
  8
ZUWAKU
100
AcDbLine
 10
19.18824887853548
 20
11.2834533553662
 30
0.0
 11
18.65742906196658
 21
9.602523936231399
 31
0.0
  0
ARC
  5
5F0
330
1A
100
AcDbEntity
  8
ZUWAKU
100
AcDbCircle
 10
18.08848873913325
 20
11.36250033944968
 30
0.0
 40
0.2625
100
AcDbArc
 50
90.0
 51
162.4744316262769
  0
LINE
  5
5F1
330
1A
100
AcDbEntity
  8
ZUWAKU
100
AcDbLine
 10
24.19610582087762
 20
11.62500033944968
 30
0.0
 11
25.94610582087762
 21
11.62500033944968
 31
0.0
  0
LINE
  5
5F2
330
1A
100
AcDbEntity
  8
ZUWAKU
100
AcDbLine
 10
25.94610582087762
 20
10.22500033944968
 30
0.0
 11
24.4586058208776
 21
10.22500033944968
 31
0.0
  0
ARC
  5
5F3
330
1A
100
AcDbEntity
  8
ZUWAKU
100
AcDbCircle
 10
24.4586058208776
 20
9.962500339449686
 30
0.0
 40
0.2625
100
AcDbArc
 50
90.0
 51
180.0
  0
LINE
  5
5F4
330
1A
100
AcDbEntity
  8
ZUWAKU
100
AcDbLine
 10
24.19610582087762
 20
9.962500339449686
 30
0.0
 11
24.19610582087762
 21
9.317399326772015
 31
0.0
  0
ARC
  5
5F5
330
1A
100
AcDbEntity
  8
ZUWAKU
100
AcDbCircle
 10
21.48360582087758
 20
11.36250033944968
 30
0.0
 40
0.2625
100
AcDbArc
 50
0.0
 51
90.0
  0
LINE
  5
5F6
330
1A
100
AcDbEntity
  8
ZUWAKU
100
AcDbLine
 10
22.79610582087758
 20
10.22500033944968
 30
0.0
 11
22.79610582087758
 21
9.317399326772015
 31
0.0
  0
ARC
  5
5F7
330
1A
100
AcDbEntity
  8
ZUWAKU
100
AcDbCircle
 10
24.19610582087762
 20
10.22500033944968
 30
0.0
 40
1.399999999999999
100
AcDbArc
 50
90.0
 51
180.0
  0
ARC
  5
5F8
330
1A
100
AcDbEntity
  8
ZUWAKU
100
AcDbCircle
 10
28.65860582087759
 20
11.36250033944968
 30
0.0
 40
0.2625
100
AcDbArc
 50
0.0
 51
90.0
  0
ARC
  5
5F9
330
1A
100
AcDbEntity
  8
ZUWAKU
100
AcDbCircle
 10
27.78360582087759
 20
11.36250033944968
 30
0.0
 40
0.2625
100
AcDbArc
 50
90.0
 51
180.0
  0
LINE
  5
5FA
330
1A
100
AcDbEntity
  8
ZUWAKU
100
AcDbLine
 10
28.65860582087759
 20
11.62500033944968
 30
0.0
 11
27.78360582087759
 21
11.62500033944968
 31
0.0
  0
ARC
  5
5FB
330
1A
100
AcDbEntity
  8
ZUWAKU
100
AcDbCircle
 10
25.94610582087762
 20
11.36250033944968
 30
0.0
 40
0.2625
100
AcDbArc
 50
0.0
 51
90.0
  0
ARC
  5
5FC
330
1A
100
AcDbEntity
  8
ZUWAKU
100
AcDbCircle
 10
25.94610582087762
 20
10.48750033944968
 30
0.0
 40
0.2625
100
AcDbArc
 50
270.0
 51
0.0
  0
LINE
  5
5FD
330
1A
100
AcDbEntity
  8
ZUWAKU
100
AcDbLine
 10
26.20860582087761
 20
11.36250033944968
 30
0.0
 11
26.20860582087761
 21
10.48750033944968
 31
0.0
  0
LINE
  5
5FE
330
1A
100
AcDbEntity
  8
ZUWAKU
100
AcDbLine
 10
34.25860582087762
 20
11.62500033944968
 30
0.0
 11
33.38360582087762
 21
11.62500033944968
 31
0.0
  0
ARC
  5
5FF
330
1A
100
AcDbEntity
  8
ZUWAKU
100
AcDbCircle
 10
33.38360582087762
 20
11.36250033944968
 30
0.0
 40
0.2625
100
AcDbArc
 50
90.0
 51
180.0
  0
ARC
  5
600
330
1A
100
AcDbEntity
  8
ZUWAKU
100
AcDbCircle
 10
31.80860582087757
 20
11.36250033944968
 30
0.0
 40
0.2625
100
AcDbArc
 50
0.0
 51
90.0
  0
LINE
  5
601
330
1A
100
AcDbEntity
  8
ZUWAKU
100
AcDbLine
 10
31.80860582087757
 20
11.62500033944968
 30
0.0
 11
30.93360582087757
 21
11.62500033944968
 31
0.0
  0
ARC
  5
602
330
1A
100
AcDbEntity
  8
ZUWAKU
100
AcDbCircle
 10
30.93360582087757
 20
11.36250033944968
 30
0.0
 40
0.2625
100
AcDbArc
 50
90.0
 51
180.0
  0
ARC
  5
603
330
1A
100
AcDbEntity
  8
ZUWAKU
100
AcDbCircle
 10
34.25860582087762
 20
11.36250033944968
 30
0.0
 40
0.2625
100
AcDbArc
 50
0.0
 51
90.0
  0
TEXT
  5
604
330
1A
100
AcDbEntity
  8
MOJI
100
AcDbText
 10
119.9136010839125
 20
1.602460868153395
 30
0.0
 40
2.799999999999999
  1
Ｙ６０Ｈ－ＵＴ６０
 41
0.9
  7
ｽﾀｲﾙ1
100
AcDbText
  0
TEXT
  5
605
330
1A
100
AcDbEntity
  8
MOJI
100
AcDbText
 10
119.9136010839125
 20
9.002460868153377
 30
0.0
 40
2.799999999999999
  1
ポーチドレン
 41
0.9
  7
ｽﾀｲﾙ1
100
AcDbText
  0
LINE
  5
606
330
1A
100
AcDbEntity
  8
ZUWAKU
100
AcDbLine
 10
104.123300388521
 20
15.00000033944968
 30
0.0
 11
104.123300388521
 21
0.4000003394497185
 31
0.0
  0
LINE
  5
607
330
1A
100
AcDbEntity
  8
ZUWAKU
100
AcDbLine
 10
104.3233003885209
 20
15.00000033944968
 30
0.0
 11
104.323300388521
 21
0.4000003394497185
 31
0.0
  0
LINE
  5
608
330
1A
100
AcDbEntity
  8
ZUWAKU
100
AcDbLine
 10
104.2233003885209
 20
15.00000033944968
 30
0.0
 11
104.223300388521
 21
0.4000003394497185
 31
0.0
  0
TEXT
  5
609
330
1A
100
AcDbEntity
  8
ZUWAKU
100
AcDbText
 10
104.8620228996258
 20
4.827678608642493
 30
0.0
 40
2.0
  1
サイズ
 41
0.9
  7
ｽﾀｲﾙ1
100
AcDbText
  0
TEXT
  5
60A
330
1A
100
AcDbEntity
  8
ZUWAKU
100
AcDbText
 10
104.8620228996256
 20
12.02767860864247
 30
0.0
 40
2.0
  1
品名
 41
0.9
  7
ｽﾀｲﾙ1
100
AcDbText
  0
LINE
  5
60C
330
1A
100
AcDbEntity
  8
ZUWAKU
100
AcDbLine
 10
324.4086009985891
 20
7.600000339449699
 30
0.0
 11
348.6245050177576
 21
7.600000339449701
 31
0.0
  0
LINE
  5
60D
330
1A
100
AcDbEntity
  8
ZUWAKU
100
AcDbLine
 10
324.4086009985892
 20
7.700000339449703
 30
0.0
 11
348.6245050177576
 21
7.700000339449701
 31
0.0
  0
LINE
  5
60E
330
1A
100
AcDbEntity
  8
ZUWAKU
100
AcDbLine
 10
324.4086009985891
 20
7.800000339449701
 30
0.0
 11
348.6245050177576
 21
7.800000339449701
 31
0.0
  0
TEXT
  5
60F
330
1A
100
AcDbEntity
  8
ZUWAKU
100
AcDbText
 10
329.1019685871382
 20
9.002460868153377
 30
0.0
 40
2.799999999999999
  1
　　．　　．　　
 41
0.9
  7
ｽﾀｲﾙ1
100
AcDbText
  0
LINE
  5
610
330
1A
100
AcDbEntity
  8
ZUWAKU
100
AcDbLine
 10
252.5995894925574
 20
7.600000339449703
 30
0.0
 11
276.2634776265432
 21
7.600000339449703
 31
0.0
  0
LINE
  5
611
330
1A
100
AcDbEntity
  8
ZUWAKU
100
AcDbLine
 10
252.5995894925574
 20
7.700000339449701
 30
0.0
 11
276.2634776265432
 21
7.700000339449701
 31
0.0
  0
LINE
  5
612
330
1A
100
AcDbEntity
  8
ZUWAKU
100
AcDbLine
 10
252.5995894925574
 20
7.800000339449701
 30
0.0
 11
276.2634776265432
 21
7.800000339449701
 31
0.0
  0
TEXT
  5
613
330
1A
100
AcDbEntity
  8
MOJI
100
AcDbText
 10
231.7841524247672
 20
5.971309200279677
 30
0.0
 40
2.799999999999999
  1
ＰＦ０８□
 41
0.9
  7
ｽﾀｲﾙ1
100
AcDbText
  0
LINE
  5
614
330
1A
100
AcDbEntity
  8
ZUWAKU
100
AcDbLine
 10
223.8121817289826
 20
15.00000033944968
 30
0.0
 11
223.8121817289827
 21
0.4000003394497185
 31
0.0
  0
LINE
  5
615
330
1A
100
AcDbEntity
  8
ZUWAKU
100
AcDbLine
 10
223.9121817289826
 20
15.00000033944968
 30
0.0
 11
223.9121817289827
 21
0.4000003394497185
 31
0.0
  0
LINE
  5
616
330
1A
100
AcDbEntity
  8
ZUWAKU
100
AcDbLine
 10
223.7121817289827
 20
15.00000033944968
 30
0.0
 11
223.7121817289827
 21
0.4000003394497185
 31
0.0
  0
TEXT
  5
617
330
1A
100
AcDbEntity
  8
MOJI
100
AcDbText
 10
264.0204537296434
 20
9.002460868153377
 30
0.0
 40
2.799999999999999
  1
Ａ３
 41
0.9
  7
ｽﾀｲﾙ1
100
AcDbText
  0
LINE
  5
618
330
1A
100
AcDbEntity
  8
ZUWAKU
100
AcDbLine
 10
252.4995894925574
 20
15.00000033944968
 30
0.0
 11
252.4995894925575
 21
0.4000003394497185
 31
0.0
  0
LINE
  5
619
330
1A
100
AcDbEntity
  8
ZUWAKU
100
AcDbLine
 10
252.5995894925574
 20
15.00000033944968
 30
0.0
 11
252.5995894925575
 21
0.4000003394497185
 31
0.0
  0
LINE
  5
61A
330
1A
100
AcDbEntity
  8
ZUWAKU
100
AcDbLine
 10
252.3995894925575
 20
15.00000033944968
 30
0.0
 11
252.3995894925575
 21
0.4000003394497185
 31
0.0
  0
TEXT
  5
61B
330
1A
100
AcDbEntity
  8
ZUWAKU
100
AcDbText
 10
231.3468805712405
 20
1.30703579501943
 30
0.0
 40
1.5
  1
□には色品番が入ります
 41
0.9
  7
ｽﾀｲﾙ1
100
AcDbText
  0
TEXT
  5
61C
330
1A
100
AcDbEntity
  8
ZUWAKU
100
AcDbText
 10
253.3383120036623
 20
4.827678608642493
 30
0.0
 40
2.0
  1
縮尺
 41
0.9
  7
ｽﾀｲﾙ1
100
AcDbText
  0
TEXT
  5
61D
330
1A
100
AcDbEntity
  8
MOJI
100
AcDbText
 10
264.0204537296434
 20
1.602460868153395
 30
0.0
 40
2.799999999999999
  1
１/１
 41
0.9
  7
ｽﾀｲﾙ1
100
AcDbText
  0
TEXT
  5
61E
330
1A
100
AcDbEntity
  8
ZUWAKU
100
AcDbText
 10
224.6509042400874
 20
12.02767860864247
 30
0.0
 40
2.0
  1
品番
 41
0.9
  7
ｽﾀｲﾙ1
100
AcDbText
  0
TEXT
  5
61F
330
1A
100
AcDbEntity
  8
ZUWAKU
100
AcDbText
 10
253.3383120036623
 20
12.02767860864247
 30
0.0
 40
2.0
  1
用紙
 41
0.9
  7
ｽﾀｲﾙ1
100
AcDbText
  0
LINE
  5
620
330
1A
100
AcDbEntity
  8
ZUWAKU
100
AcDbLine
 10
324.3086009985892
 20
15.00000033944968
 30
0.0
 11
324.3086009985893
 21
0.4000003394497185
 31
0.0
  0
LINE
  5
621
330
1A
100
AcDbEntity
  8
ZUWAKU
100
AcDbLine
 10
324.4086009985892
 20
15.00000033944968
 30
0.0
 11
324.4086009985893
 21
0.4000003394497185
 31
0.0
  0
LINE
  5
622
330
1A
100
AcDbEntity
  8
ZUWAKU
100
AcDbLine
 10
324.2086009985893
 20
15.00000033944968
 30
0.0
 11
324.2086009985893
 21
0.4000003394497185
 31
0.0
  0
LINE
  5
623
330
1A
100
AcDbEntity
  8
ZUWAKU
100
AcDbLine
 10
276.3634776265431
 20
15.00000033944968
 30
0.0
 11
276.3634776265432
 21
0.4000003394497185
 31
0.0
  0
LINE
  5
624
330
1A
100
AcDbEntity
  8
ZUWAKU
100
AcDbLine
 10
276.4634776265431
 20
15.00000033944968
 30
0.0
 11
276.4634776265432
 21
0.4000003394497185
 31
0.0
  0
LINE
  5
625
330
1A
100
AcDbEntity
  8
ZUWAKU
100
AcDbLine
 10
276.2634776265432
 20
15.00000033944968
 30
0.0
 11
276.2634776265432
 21
0.4000003394497185
 31
0.0
  0
TEXT
  5
626
330
1A
100
AcDbEntity
  8
ZUWAKU
100
AcDbText
 10
325.147323509694
 20
12.02767860864247
 30
0.0
 40
2.0
  1
DATE
 41
0.9
  7
ｽﾀｲﾙ1
100
AcDbText
  0
LINE
  5
627
330
1A
100
AcDbEntity
  8
ZUWAKU
100
AcDbLine
 10
348.6245050177576
 20
15.00000033944968
 30
0.0
 11
348.6245050177576
 21
0.4000003394497185
 31
0.0
  0
LINE
  5
628
330
1A
100
AcDbEntity
  8
ZUWAKU
100
AcDbLine
 10
348.7245050177576
 20
15.00000033944968
 30
0.0
 11
348.7245050177576
 21
0.4000003394497185
 31
0.0
  0
LINE
  5
629
330
1A
100
AcDbEntity
  8
ZUWAKU
100
AcDbLine
 10
348.8245050177575
 20
15.00000033944968
 30
0.0
 11
348.8245050177577
 21
0.4000003394497185
 31
0.0
  0
LINE
  5
62A
330
1A
100
AcDbEntity
  8
ZUWAKU
100
AcDbLine
 10
348.9245050177576
 20
15.00000033944968
 30
0.0
 11
348.9245050177577
 21
0.4000003394497185
 31
0.0
  0
TEXT
  5
62B
330
1A
100
AcDbEntity
  8
ZUWAKU
100
AcDbText
 10
354.2640418396089
 20
8.776920007293085
 30
0.0
 40
3.0
  1
積水化学工業株式会社
 41
0.9
  7
ｽﾀｲﾙ1
100
AcDbText
  0
TEXT
  5
62C
330
1A
100
AcDbEntity
  8
ZUWAKU
100
AcDbText
 10
354.2640418396089
 20
3.324420496376717
 30
0.0
 40
3.0
  1
建材事業部
 41
0.9
  7
ｽﾀｲﾙ1
100
AcDbText
  0
VIEWPORT
  5
22
330
17
100
AcDbEntity
 67
     1
  8
0
100
AcDbViewport
 10
313.6808219178082
 20
148.5
 30
0.0
 40
627.3616438356165
 41
297.0
 68
     2
 69
     1
1001
ACAD
1000
MVIEW
1002
{
1070
    16
1010
0.0
1020
0.0
1030
0.0
1010
0.0
1020
0.0
1030
1.0
1040
0.0
1040
297.0
1040
313.6808219178082
1040
148.5
1040
50.0
1040
0.0
1040
0.0
1070
     0
1070
   100
1070
     1
1070
     0
1070
     0
1070
     0
1070
     0
1070
     0
1040
0.0
1040
0.0
1040
0.0
1040
1.0
1040
1.0
1040
10.0
1040
10.0
1070
     0
1002
{
1002
}
1002
}
  0
VIEWPORT
  5
64
330
17
100
AcDbEntity
 67
     1
  8
VIEWPORT
100
AcDbViewport
 10
210.0
 20
148.5
 30
0.0
 40
420.0
 41
297.0
 68
     1
 69
     2
1001
ACAD
1000
MVIEW
1002
{
1070
    16
1010
0.0
1020
0.0
1030
0.0
1010
0.0
1020
0.0
1030
1.0
1040
0.0
1040
302.9399999999998
1040
210.0
1040
148.5
1040
50.0
1040
0.0
1040
0.0
1070
     0
1070
   100
1070
     1
1070
     0
1070
     0
1070
     0
1070
     0
1070
     0
1040
0.0
1040
0.0
1040
0.0
1040
5.0
1040
5.0
1040
0.0
1040
0.0
1070
     0
1002
{
1002
}
1002
}
  0
ENDSEC
  0
SECTION
  2
OBJECTS
  0
DICTIONARY
  5
C
330
0
100
AcDbDictionary
  3
ACAD_GROUP
350
D
  3
ACAD_LAYOUT
350
415
  3
ACAD_MLINESTYLE
350
E
  3
ACAD_PLOTSETTINGS
350
416
  3
ACAD_PLOTSTYLENAME
350
413
  3
ACDBHEADERROUNDTRIPXREC
350
62F
  0
DICTIONARY
  5
444
330
1A
100
AcDbDictionary
280
     1
  3
ACAD_LAYOUTSELFREF
360
651
  0
DICTIONARY
  5
442
330
17
100
AcDbDictionary
280
     1
  3
ACAD_LAYOUTSELFREF
360
650
  0
DICTIONARY
  5
D
102
{ACAD_REACTORS
330
C
102
}
330
C
100
AcDbDictionary
  0
DICTIONARY
  5
415
102
{ACAD_REACTORS
330
C
102
}
330
C
100
AcDbDictionary
  0
DICTIONARY
  5
E
102
{ACAD_REACTORS
330
C
102
}
330
C
100
AcDbDictionary
  3
STANDARD
350
13
  0
DICTIONARY
  5
416
102
{ACAD_REACTORS
330
C
102
}
330
C
100
AcDbDictionary
  0
ACDBDICTIONARYWDFLT
  5
413
102
{ACAD_REACTORS
330
C
102
}
330
C
100
AcDbDictionary
281
     1
  3
Normal
350
414
100
AcDbDictionaryWithDefault
340
414
1001
ACAD
1000
TREAT_AS_HARD
1070
     0
1000
TREAT_AS_HARD
1070
     0
1000
TREAT_AS_HARD
1070
     0
  0
DICTIONARY
  5
62F
102
{ACAD_REACTORS
330
C
102
}
330
C
100
AcDbDictionary
  3
TSTACKALIGN
350
630
  3
TSTACKSIZE
350
631
  3
HYPERLINKBASE
350
632
  3
STYLESHEET
350
633
  3
LAYOUTDICT
350
634
  3
PLOTSETDICT
350
635
  3
PLOTSTYLNAMDICT
350
636
  3
LWETCUNION
350
637
  3
INSUNITS
350
638
  3
CEPSNTYPE
350
639
  3
FINGERPRINTGUID
350
63A
  3
VERSIONGUID
350
63B
  3
PSVPSCALE
350
63C
  3
DIMSTYLEDATA
350
63D
  3
PUCSORTHOREF
350
63E
  3
PUCSORTHOVIEW
350
63F
  3
PUCSBASE
350
640
  3
PUCSORGTOP
350
641
  3
PUCSORGBOTTOM
350
642
  3
PUCSORGLEFT
350
643
  3
PUCSORGRIGHT
350
644
  3
PUCSORGFRONT
350
645
  3
PUCSORGBACK
350
646
  3
UCSORTHOREF
350
647
  3
UCSORTHOVIEW
350
648
  3
UCSBASE
350
649
  3
UCSORGTOP
350
64A
  3
UCSORGBOTTOM
350
64B
  3
UCSORGLEFT
350
64C
  3
UCSORGRIGHT
350
64D
  3
UCSORGFRONT
350
64E
  3
UCSORGBACK
350
64F
  0
XRECORD
  5
651
102
{ACAD_REACTORS
330
444
102
}
330
444
100
AcDbXrecord
340
1A
  0
XRECORD
  5
650
102
{ACAD_REACTORS
330
442
102
}
330
442
100
AcDbXrecord
340
17
  0
MLINESTYLE
  5
13
102
{ACAD_REACTORS
330
E
102
}
330
E
100
AcDbMlineStyle
  2
STANDARD
 70
     0
  3

 62
     0
 51
90.0
 52
90.0
 71
     2
 49
0.5
 62
   256
  6
BYLAYER
 49
-0.5
 62
   256
  6
BYLAYER
  0
ACDBPLACEHOLDER
  5
414
102
{ACAD_REACTORS
330
413
102
}
330
413
100
AcDbPlaceHolder
280
     0
  0
XRECORD
  5
630
102
{ACAD_REACTORS
330
62F
102
}
330
62F
100
AcDbXrecord
 90
        1
  0
XRECORD
  5
631
102
{ACAD_REACTORS
330
62F
102
}
330
62F
100
AcDbXrecord
 90
       70
  0
XRECORD
  5
632
102
{ACAD_REACTORS
330
62F
102
}
330
62F
100
AcDbXrecord
  1

  0
XRECORD
  5
633
102
{ACAD_REACTORS
330
62F
102
}
330
62F
100
AcDbXrecord
  1
systemprinter.ctb
  0
XRECORD
  5
634
102
{ACAD_REACTORS
330
62F
102
}
330
62F
100
AcDbXrecord
340
415
  0
XRECORD
  5
635
102
{ACAD_REACTORS
330
62F
102
}
330
62F
100
AcDbXrecord
340
416
  0
XRECORD
  5
636
102
{ACAD_REACTORS
330
62F
102
}
330
62F
100
AcDbXrecord
340
413
  0
XRECORD
  5
637
102
{ACAD_REACTORS
330
62F
102
}
330
62F
100
AcDbXrecord
 90
    10781
  0
XRECORD
  5
638
102
{ACAD_REACTORS
330
62F
102
}
330
62F
100
AcDbXrecord
 90
        0
  0
XRECORD
  5
639
102
{ACAD_REACTORS
330
62F
102
}
330
62F
100
AcDbXrecord
 90
        0
  0
XRECORD
  5
63A
102
{ACAD_REACTORS
330
62F
102
}
330
62F
100
AcDbXrecord
  1
{9394C761-BB80-44D4-BF2A-30FF33226E18}
  0
XRECORD
  5
63B
102
{ACAD_REACTORS
330
62F
102
}
330
62F
100
AcDbXrecord
  1
{8422C087-2DD7-40D3-9F4C-1A34F9948D17}
  0
XRECORD
  5
63C
102
{ACAD_REACTORS
330
62F
102
}
330
62F
100
AcDbXrecord
 40
0.0
  0
XRECORD
  5
63D
102
{ACAD_REACTORS
330
62F
102
}
330
62F
100
AcDbXrecord
1000
DSTYLE
1002
{
1070
   341
340
B2
1070
   343
340
B2
1070
   344
340
B2
1070
   371
 70
    -1
1070
   372
 70
    -1
1002
}
  0
XRECORD
  5
63E
102
{ACAD_REACTORS
330
62F
102
}
330
62F
100
AcDbXrecord
340
0
  0
XRECORD
  5
63F
102
{ACAD_REACTORS
330
62F
102
}
330
62F
100
AcDbXrecord
 70
     0
  0
XRECORD
  5
640
102
{ACAD_REACTORS
330
62F
102
}
330
62F
100
AcDbXrecord
340
0
  0
XRECORD
  5
641
102
{ACAD_REACTORS
330
62F
102
}
330
62F
100
AcDbXrecord
 10
0.0
 20
0.0
 30
0.0
  0
XRECORD
  5
642
102
{ACAD_REACTORS
330
62F
102
}
330
62F
100
AcDbXrecord
 10
0.0
 20
0.0
 30
0.0
  0
XRECORD
  5
643
102
{ACAD_REACTORS
330
62F
102
}
330
62F
100
AcDbXrecord
 10
0.0
 20
0.0
 30
0.0
  0
XRECORD
  5
644
102
{ACAD_REACTORS
330
62F
102
}
330
62F
100
AcDbXrecord
 10
0.0
 20
0.0
 30
0.0
  0
XRECORD
  5
645
102
{ACAD_REACTORS
330
62F
102
}
330
62F
100
AcDbXrecord
 10
0.0
 20
0.0
 30
0.0
  0
XRECORD
  5
646
102
{ACAD_REACTORS
330
62F
102
}
330
62F
100
AcDbXrecord
 10
0.0
 20
0.0
 30
0.0
  0
XRECORD
  5
647
102
{ACAD_REACTORS
330
62F
102
}
330
62F
100
AcDbXrecord
340
0
  0
XRECORD
  5
648
102
{ACAD_REACTORS
330
62F
102
}
330
62F
100
AcDbXrecord
 70
     0
  0
XRECORD
  5
649
102
{ACAD_REACTORS
330
62F
102
}
330
62F
100
AcDbXrecord
340
0
  0
XRECORD
  5
64A
102
{ACAD_REACTORS
330
62F
102
}
330
62F
100
AcDbXrecord
 10
0.0
 20
0.0
 30
0.0
  0
XRECORD
  5
64B
102
{ACAD_REACTORS
330
62F
102
}
330
62F
100
AcDbXrecord
 10
0.0
 20
0.0
 30
0.0
  0
XRECORD
  5
64C
102
{ACAD_REACTORS
330
62F
102
}
330
62F
100
AcDbXrecord
 10
0.0
 20
0.0
 30
0.0
  0
XRECORD
  5
64D
102
{ACAD_REACTORS
330
62F
102
}
330
62F
100
AcDbXrecord
 10
0.0
 20
0.0
 30
0.0
  0
XRECORD
  5
64E
102
{ACAD_REACTORS
330
62F
102
}
330
62F
100
AcDbXrecord
 10
0.0
 20
0.0
 30
0.0
  0
XRECORD
  5
64F
102
{ACAD_REACTORS
330
62F
102
}
330
62F
100
AcDbXrecord
 10
0.0
 20
0.0
 30
0.0
  0
ENDSEC
  0
EOF
