  0
SECTION
  2
HEADER
  9
$ACADVER
  1
AC1012
  9
$DWGCODEPAGE
  3
dos932
  9
$INSBASE
 10
0.0
 20
0.0
 30
0.0
  9
$EXTMIN
 10
4.985962897755712
 20
2.438141563486055
 30
-0.0000000100016779
  9
$EXTMAX
 10
403.0297861143829
 20
282.0086066310859
 30
0.0000000100016785
  9
$LIMMIN
 10
0.0
 20
0.0
  9
$LIMMAX
 10
420.0
 20
297.0
  9
$ORTHOMODE
 70
     1
  9
$REGENMODE
 70
     1
  9
$FILLMODE
 70
     1
  9
$QTEXTMODE
 70
     0
  9
$MIRRTEXT
 70
     1
  9
$DRAGMODE
 70
     2
  9
$LTSCALE
 40
5.0
  9
$OSMODE
 70
    37
  9
$ATTMODE
 70
     1
  9
$TEXTSIZE
 40
2.5
  9
$TRACEWID
 40
1.0
  9
$TEXTSTYLE
  7
STANDARD
  9
$CLAYER
  8
SUNPOU
  9
$CELTYPE
  6
BYLAYER
  9
$CECOLOR
 62
   256
  9
$CELTSCALE
 40
1.0
  9
$DELOBJ
 70
     1
  9
$DISPSILH
 70
     0
  9
$DIMSCALE
 40
1.0
  9
$DIMASZ
 40
3.0
  9
$DIMEXO
 40
3.0
  9
$DIMDLI
 40
7.0
  9
$DIMRND
 40
0.0
  9
$DIMDLE
 40
0.0
  9
$DIMEXE
 40
1.5
  9
$DIMTP
 40
0.0
  9
$DIMTM
 40
0.0
  9
$DIMTXT
 40
3.0
  9
$DIMCEN
 40
3.0
  9
$DIMTSZ
 40
0.0
  9
$DIMTOL
 70
     0
  9
$DIMLIM
 70
     0
  9
$DIMTIH
 70
     0
  9
$DIMTOH
 70
     0
  9
$DIMSE1
 70
     0
  9
$DIMSE2
 70
     0
  9
$DIMTAD
 70
     3
  9
$DIMZIN
 70
     0
  9
$DIMBLK
  1

  9
$DIMASO
 70
     1
  9
$DIMSHO
 70
     1
  9
$DIMPOST
  1

  9
$DIMAPOST
  1

  9
$DIMALT
 70
     0
  9
$DIMALTD
 70
     2
  9
$DIMALTF
 40
25.4
  9
$DIMLFAC
 40
1.0
  9
$DIMTOFL
 70
     1
  9
$DIMTVP
 40
0.0
  9
$DIMTIX
 70
     0
  9
$DIMSOXD
 70
     0
  9
$DIMSAH
 70
     1
  9
$DIMBLK1
  1
OPEN
  9
$DIMBLK2
  1
OPEN
  9
$DIMSTYLE
  2
STANDARD
  9
$DIMCLRD
 70
   256
  9
$DIMCLRE
 70
   256
  9
$DIMCLRT
 70
   256
  9
$DIMTFAC
 40
1.0
  9
$DIMGAP
 40
1.0
  9
$DIMJUST
 70
     0
  9
$DIMSD1
 70
     0
  9
$DIMSD2
 70
     0
  9
$DIMTOLJ
 70
     1
  9
$DIMTZIN
 70
     0
  9
$DIMALTZ
 70
     0
  9
$DIMALTTZ
 70
     0
  9
$DIMFIT
 70
     3
  9
$DIMUPT
 70
     0
  9
$DIMUNIT
 70
     2
  9
$DIMDEC
 70
     0
  9
$DIMTDEC
 70
     0
  9
$DIMALTU
 70
     2
  9
$DIMALTTD
 70
     2
  9
$DIMTXSTY
  7
STANDARD
  9
$DIMAUNIT
 70
     0
  9
$LUNITS
 70
     2
  9
$LUPREC
 70
     4
  9
$SKETCHINC
 40
1.0
  9
$FILLETRAD
 40
0.5
  9
$AUNITS
 70
     0
  9
$AUPREC
 70
     0
  9
$MENU
  1
.
  9
$ELEVATION
 40
0.0
  9
$PELEVATION
 40
0.0
  9
$THICKNESS
 40
0.0
  9
$LIMCHECK
 70
     0
  9
$BLIPMODE
 70
     0
  9
$CHAMFERA
 40
10.0
  9
$CHAMFERB
 40
10.0
  9
$CHAMFERC
 40
20.0
  9
$CHAMFERD
 40
0.0
  9
$SKPOLY
 70
     0
  9
$TDCREATE
 40
2451572.350838425
  9
$TDUPDATE
 40
2452658.671857893
  9
$TDINDWG
 40
0.0415679167
  9
$TDUSRTIMER
 40
0.0415679167
  9
$USRTIMER
 70
     1
  9
$ANGBASE
 50
0.0
  9
$ANGDIR
 70
     0
  9
$PDMODE
 70
     0
  9
$PDSIZE
 40
0.0
  9
$PLINEWID
 40
0.0
  9
$COORDS
 70
     1
  9
$SPLFRAME
 70
     0
  9
$SPLINETYPE
 70
     6
  9
$SPLINESEGS
 70
     8
  9
$ATTDIA
 70
     0
  9
$ATTREQ
 70
     1
  9
$HANDLING
 70
 10241
  9
$HANDSEED
  5
842
  9
$SURFTAB1
 70
     6
  9
$SURFTAB2
 70
     6
  9
$SURFTYPE
 70
     6
  9
$SURFU
 70
     6
  9
$SURFV
 70
     6
  9
$UCSNAME
  2

  9
$UCSORG
 10
0.0
 20
0.0
 30
0.0
  9
$UCSXDIR
 10
1.0
 20
0.0
 30
0.0
  9
$UCSYDIR
 10
0.0
 20
1.0
 30
0.0
  9
$PUCSNAME
  2

  9
$PUCSORG
 10
0.0
 20
0.0
 30
0.0
  9
$PUCSXDIR
 10
1.0
 20
0.0
 30
0.0
  9
$PUCSYDIR
 10
0.0
 20
1.0
 30
0.0
  9
$USERI1
 70
     0
  9
$USERI2
 70
     0
  9
$USERI3
 70
     0
  9
$USERI4
 70
     0
  9
$USERI5
 70
     0
  9
$USERR1
 40
0.0
  9
$USERR2
 40
0.0
  9
$USERR3
 40
0.0
  9
$USERR4
 40
0.0
  9
$USERR5
 40
0.0
  9
$WORLDVIEW
 70
     1
  9
$SHADEDGE
 70
     3
  9
$SHADEDIF
 70
    70
  9
$TILEMODE
 70
     1
  9
$MAXACTVP
 70
    16
  9
$PINSBASE
 10
0.0
 20
0.0
 30
0.0
  9
$PLIMCHECK
 70
     0
  9
$PEXTMIN
 10
0.0
 20
0.0
 30
0.0
  9
$PEXTMAX
 10
420.0
 20
297.0
 30
0.0
  9
$PLIMMIN
 10
0.0
 20
0.0
  9
$PLIMMAX
 10
420.0
 20
297.0
  9
$UNITMODE
 70
     0
  9
$VISRETAIN
 70
     0
  9
$PLINEGEN
 70
     0
  9
$PSLTSCALE
 70
     1
  9
$TREEDEPTH
 70
  3020
  9
$PICKSTYLE
 70
     1
  9
$CMLSTYLE
  2
STANDARD
  9
$CMLJUST
 70
     0
  9
$CMLSCALE
 40
1.0
  9
$SAVEIMAGES
 70
     1
  0
ENDSEC
  0
SECTION
  2
CLASSES
  0
CLASS
  1
ACDBDICTIONARYWDFLT
  2
AcDbDictionaryWithDefault
  3
AutoCAD 2000
 90
    32768
280
     0
281
     0
  0
CLASS
  1
ACDBPLACEHOLDER
  2
AcDbPlaceHolder
  3
AutoCAD 2000
 90
    32768
280
     0
281
     0
  0
CLASS
  1
LAYOUT
  2
AcDbLayout
  3
AutoCAD 2000
 90
    32768
280
     0
281
     0
  0
CLASS
  1
LONG_TRANSACTION
  2
AcDbLongTransaction
  3
AutoCAD 2000
 90
    32768
280
     0
281
     0
  0
CLASS
  1
LWPOLYLINE
  2
AcDbPolyline
  3
AutoCAD 2000
 90
    32768
280
     0
281
     1
  0
CLASS
  1
HATCH
  2
AcDbHatch
  3
AutoCAD 2000
 90
    32768
280
     0
281
     1
  0
CLASS
  1
XRECORD
  2
AcDbXrecord
  3
AutoCAD 2000
 90
    32768
280
     0
281
     0
  0
CLASS
  1
LONG_TRANSACTION
  2
AcDbLongTransaction
  3
AutoCAD 2000
 90
    32768
280
     0
281
     0
  0
CLASS
  1
LWPOLYLINE
  2
AcDbPolyline
  3
AutoCAD 2000
 90
    32768
280
     0
281
     1
  0
CLASS
  1
HATCH
  2
AcDbHatch
  3
AutoCAD 2000
 90
    32768
280
     0
281
     1
  0
CLASS
  1
XRECORD
  2
AcDbXrecord
  3
AutoCAD 2000
 90
    32768
280
     0
281
     0
  0
CLASS
  1
LONG_TRANSACTION
  2
AcDbLongTransaction
  3
AutoCAD 2000
 90
    32768
280
     0
281
     0
  0
CLASS
  1
LWPOLYLINE
  2
AcDbPolyline
  3
AutoCAD 2000
 90
    32768
280
     0
281
     1
  0
CLASS
  1
HATCH
  2
AcDbHatch
  3
AutoCAD 2000
 90
    32768
280
     0
281
     1
  0
CLASS
  1
XRECORD
  2
AcDbXrecord
  3
AutoCAD 2000
 90
    32768
280
     0
281
     0
  0
CLASS
  1
LONG_TRANSACTION
  2
AcDbLongTransaction
  3
AutoCAD 2000
 90
    32768
280
     0
281
     0
  0
CLASS
  1
LWPOLYLINE
  2
AcDbPolyline
  3
AutoCAD 2000
 90
    32768
280
     0
281
     1
  0
CLASS
  1
HATCH
  2
AcDbHatch
  3
AutoCAD 2000
 90
    32768
280
     0
281
     1
  0
CLASS
  1
XRECORD
  2
AcDbXrecord
  3
AutoCAD 2000
 90
    32768
280
     0
281
     0
  0
CLASS
  1
LONG_TRANSACTION
  2
AcDbLongTransaction
  3
AutoCAD 2000
 90
    32768
280
     0
281
     0
  0
CLASS
  1
LWPOLYLINE
  2
AcDbPolyline
  3
AutoCAD 2000
 90
    32768
280
     0
281
     1
  0
CLASS
  1
HATCH
  2
AcDbHatch
  3
AutoCAD 2000
 90
    32768
280
     0
281
     1
  0
CLASS
  1
XRECORD
  2
AcDbXrecord
  3
AutoCAD 2000
 90
    32768
280
     0
281
     0
  0
CLASS
  1
LONG_TRANSACTION
  2
AcDbLongTransaction
  3
AutoCAD 2000
 90
    32768
280
     0
281
     0
  0
CLASS
  1
LWPOLYLINE
  2
AcDbPolyline
  3
AutoCAD 2000
 90
    32768
280
     0
281
     1
  0
CLASS
  1
HATCH
  2
AcDbHatch
  3
AutoCAD 2000
 90
    32768
280
     0
281
     1
  0
CLASS
  1
XRECORD
  2
AcDbXrecord
  3
AutoCAD 2000
 90
    32768
280
     0
281
     0
  0
ENDSEC
  0
SECTION
  2
TABLES
  0
TABLE
  2
VPORT
  5
8
330
0
100
AcDbSymbolTable
 70
     4
  0
VPORT
  5
835
330
8
100
AcDbSymbolTableRecord
100
AcDbViewportTableRecord
  2
*ACTIVE
 70
     0
 10
0.0
 20
0.0
 11
1.0
 21
1.0
 12
210.0
 22
148.5
 13
0.0
 23
0.0
 14
5.0
 24
5.0
 15
0.0
 25
0.0
 16
0.0
 26
0.0
 36
1.0
 17
0.0
 27
0.0
 37
0.0
 40
300.2637362637362
 41
2.159633027522935
 42
50.0
 43
0.0
 44
0.0
 50
0.0
 51
0.0
 71
     0
 72
   100
 73
     1
 74
     0
 75
     0
 76
     0
 77
     0
 78
     0
  0
ENDTAB
  0
TABLE
  2
LTYPE
  5
5
330
0
100
AcDbSymbolTable
 70
     2
  0
LTYPE
  5
14
330
5
100
AcDbSymbolTableRecord
100
AcDbLinetypeTableRecord
  2
BYBLOCK
 70
     0
  3

 72
    65
 73
     0
 40
0.0
  0
LTYPE
  5
15
330
5
100
AcDbSymbolTableRecord
100
AcDbLinetypeTableRecord
  2
BYLAYER
 70
     0
  3

 72
    65
 73
     0
 40
0.0
  0
LTYPE
  5
16
330
5
100
AcDbSymbolTableRecord
100
AcDbLinetypeTableRecord
  2
CONTINUOUS
 70
     0
  3
Solid line
 72
    65
 73
     0
 40
0.0
  0
LTYPE
  5
120
330
5
100
AcDbSymbolTableRecord
100
AcDbLinetypeTableRecord
  2
CENTER
 70
     0
  3
____ _ ____ _ ____ _ ____ _ ____ _ ____ _ ____ 
 72
    65
 73
     4
 40
2.0
 49
1.25
 74
     0
 49
-0.25
 74
     0
 49
0.25
 74
     0
 49
-0.25
 74
     0
  0
ENDTAB
  0
TABLE
  2
LAYER
  5
2
330
0
100
AcDbSymbolTable
 70
     7
  0
LAYER
  5
F
330
2
100
AcDbSymbolTableRecord
100
AcDbLayerTableRecord
  2
0
 70
     0
 62
     7
  6
CONTINUOUS
  0
LAYER
  5
62
330
2
100
AcDbSymbolTableRecord
100
AcDbLayerTableRecord
  2
VIEWPORT
 70
     0
 62
     7
  6
CONTINUOUS
  0
LAYER
  5
6B
330
2
100
AcDbSymbolTableRecord
100
AcDbLayerTableRecord
  2
ZUWAKU
 70
     0
 62
     7
  6
CONTINUOUS
  0
LAYER
  5
26F
330
2
100
AcDbSymbolTableRecord
100
AcDbLayerTableRecord
  2
DEFPOINTS
 70
     0
 62
     7
  6
CONTINUOUS
  0
LAYER
  5
347
330
2
100
AcDbSymbolTableRecord
100
AcDbLayerTableRecord
  2
SEIHIN
 70
     0
 62
     3
  6
CONTINUOUS
  0
LAYER
  5
348
330
2
100
AcDbSymbolTableRecord
100
AcDbLayerTableRecord
  2
SUNPOU
 70
     0
 62
     4
  6
CONTINUOUS
  0
LAYER
  5
349
330
2
100
AcDbSymbolTableRecord
100
AcDbLayerTableRecord
  2
CENTER_L
 70
     0
 62
     1
  6
CENTER
  0
ENDTAB
  0
TABLE
  2
STYLE
  5
3
330
0
100
AcDbSymbolTable
 70
     1
  0
STYLE
  5
10
330
3
100
AcDbSymbolTableRecord
100
AcDbTextStyleTableRecord
  2
STANDARD
 70
     0
 40
0.0
 41
1.0
 50
0.0
 71
     0
 42
2.5
  3
TXT
  4
c:\PROGRAM FILES\AUTOCAD LT\ms\bigfont.shx
  0
ENDTAB
  0
TABLE
  2
VIEW
  5
6
330
0
100
AcDbSymbolTable
 70
     0
  0
ENDTAB
  0
TABLE
  2
UCS
  5
7
330
0
100
AcDbSymbolTable
 70
     0
  0
ENDTAB
  0
TABLE
  2
APPID
  5
9
330
0
100
AcDbSymbolTable
 70
     1
  0
APPID
  5
11
330
9
100
AcDbSymbolTableRecord
100
AcDbRegAppTableRecord
  2
ACAD
 70
     0
  0
ENDTAB
  0
TABLE
  2
DIMSTYLE
  5
A
330
0
100
AcDbSymbolTable
 70
     1
  0
DIMSTYLE
105
1D
102
{ACAD_REACTORS
330
3B1
330
3C1
330
3CE
330
3E4
330
3F1
330
3FE
330
40B
330
418
330
425
330
432
102
}
330
A
100
AcDbSymbolTableRecord
100
AcDbDimStyleTableRecord
  2
STANDARD
 70
     0
  3

  4

  5

  6

  7

 40
1.0
 41
0.18
 42
0.0625
 43
0.38
 44
0.18
 45
0.0
 46
0.0
 47
0.0
 48
0.0
140
0.18
141
0.09
142
0.0
143
25.4
144
1.0
145
0.0
146
1.0
147
0.09
 71
     0
 72
     0
 73
     1
 74
     1
 75
     0
 76
     0
 77
     0
 78
     0
170
     0
171
     2
172
     0
173
     0
174
     0
175
     0
176
     0
177
     0
178
     0
270
     2
271
     4
272
     4
273
     2
274
     2
340
10
275
     0
280
     0
281
     0
282
     0
283
     1
284
     0
285
     0
286
     0
287
     3
288
     0
  0
ENDTAB
  0
TABLE
  2
BLOCK_RECORD
  5
1
330
0
100
AcDbSymbolTable
 70
    11
  0
BLOCK_RECORD
  5
1A
102
{ACAD_XDICTIONARY
360
5DE
102
}
330
1
100
AcDbSymbolTableRecord
100
AcDbBlockTableRecord
  2
*MODEL_SPACE
  0
BLOCK_RECORD
  5
17
102
{ACAD_XDICTIONARY
360
5DC
102
}
330
1
100
AcDbSymbolTableRecord
100
AcDbBlockTableRecord
  2
*PAPER_SPACE
  0
BLOCK_RECORD
  5
B2
330
1
100
AcDbSymbolTableRecord
100
AcDbBlockTableRecord
  2
_OPEN
  0
BLOCK_RECORD
  5
3B2
330
1
100
AcDbSymbolTableRecord
100
AcDbBlockTableRecord
  2
*D1
  0
BLOCK_RECORD
  5
3C2
330
1
100
AcDbSymbolTableRecord
100
AcDbBlockTableRecord
  2
*D2
  0
BLOCK_RECORD
  5
3CF
330
1
100
AcDbSymbolTableRecord
100
AcDbBlockTableRecord
  2
*D3
  0
BLOCK_RECORD
  5
3E5
330
1
100
AcDbSymbolTableRecord
100
AcDbBlockTableRecord
  2
*D4
  0
BLOCK_RECORD
  5
3F2
330
1
100
AcDbSymbolTableRecord
100
AcDbBlockTableRecord
  2
*D5
  0
BLOCK_RECORD
  5
3FF
330
1
100
AcDbSymbolTableRecord
100
AcDbBlockTableRecord
  2
*D6
  0
BLOCK_RECORD
  5
40C
330
1
100
AcDbSymbolTableRecord
100
AcDbBlockTableRecord
  2
*D7
  0
BLOCK_RECORD
  5
419
330
1
100
AcDbSymbolTableRecord
100
AcDbBlockTableRecord
  2
*D8
  0
BLOCK_RECORD
  5
426
330
1
100
AcDbSymbolTableRecord
100
AcDbBlockTableRecord
  2
*D9
  0
BLOCK_RECORD
  5
433
330
1
100
AcDbSymbolTableRecord
100
AcDbBlockTableRecord
  2
*D10
  0
ENDTAB
  0
ENDSEC
  0
SECTION
  2
BLOCKS
  0
BLOCK
  5
1B
330
1A
100
AcDbEntity
  8
0
100
AcDbBlockBegin
  2
*MODEL_SPACE
 70
     0
 10
0.0
 20
0.0
 30
0.0
  3
*MODEL_SPACE
  1

  0
ENDBLK
  5
1C
330
1A
100
AcDbEntity
  8
0
100
AcDbBlockEnd
  0
BLOCK
  5
18
330
17
100
AcDbEntity
 67
     1
  8
0
100
AcDbBlockBegin
  2
*PAPER_SPACE
 70
     0
 10
0.0
 20
0.0
 30
0.0
  3
*PAPER_SPACE
  1

  0
ENDBLK
  5
19
330
17
100
AcDbEntity
 67
     1
  8
0
100
AcDbBlockEnd
  0
BLOCK
  5
B3
330
B2
100
AcDbEntity
  8
0
100
AcDbBlockBegin
  2
_OPEN
 70
     0
 10
0.0
 20
0.0
 30
0.0
  3
_OPEN
  1

  0
LINE
  5
B4
330
B2
100
AcDbEntity
  8
0
  6
BYBLOCK
 62
     0
100
AcDbLine
 10
-1.0
 20
0.1666666666666666
 30
0.0
 11
0.0
 21
0.0
 31
0.0
  0
LINE
  5
B5
330
B2
100
AcDbEntity
  8
0
  6
BYBLOCK
 62
     0
100
AcDbLine
 10
0.0
 20
0.0
 30
0.0
 11
-1.0
 21
-0.1666666666666666
 31
0.0
  0
LINE
  5
B6
330
B2
100
AcDbEntity
  8
0
  6
BYBLOCK
 62
     0
100
AcDbLine
 10
0.0
 20
0.0
 30
0.0
 11
-1.0
 21
0.0
 31
0.0
  0
ENDBLK
  5
B7
330
B2
100
AcDbEntity
  8
0
100
AcDbBlockEnd
  0
BLOCK
  5
3BD
330
3B2
100
AcDbEntity
  8
0
100
AcDbBlockBegin
  2
*D1
 70
     1
 10
0.0
 20
0.0
 30
0.0
  3
*D1
  1

  0
LINE
  5
838
330
3B2
100
AcDbEntity
  8
SUNPOU
100
AcDbLine
 10
116.7918166379648
 20
115.4361249578327
 30
0.0
 11
105.6565518361887
 21
112.4524397422749
 31
0.0
  0
ARC
  5
839
330
3B2
100
AcDbEntity
  8
SUNPOU
100
AcDbCircle
 10
126.4510748998981
 20
118.0243154124313
 30
0.0
 40
20.02807441298035
100
AcDbArc
 50
203.5903634726586
 51
261.4096365485374
  0
INSERT
  5
83A
330
3B2
100
AcDbEntity
  8
SUNPOU
100
AcDbBlockReference
  2
_OPEN
 10
107.1054405754787
 20
112.8406683104647
 30
0.0
 41
3.0
 42
3.0
 43
3.0
 50
109.2951817469273
  0
INSERT
  5
83B
330
3B2
100
AcDbEntity
  8
SUNPOU
100
AcDbBlockReference
  2
_OPEN
 10
126.451074899898
 20
97.99624099945102
 30
0.0
 41
3.0
 42
3.0
 43
3.0
 50
355.7048182742688
  0
MTEXT
  5
83C
330
3B2
100
AcDbEntity
  8
SUNPOU
100
AcDbMText
 10
115.7806592750531
 20
104.1183590260463
 30
0.0
 40
3.0
 41
0.0
 71
     5
 72
     1
  1
\A1;75°
 11
0.793353340403839
 21
-0.6087614288619726
 31
0.0
  0
POINT
  5
83D
330
3B2
100
AcDbEntity
  8
DEFPOINTS
 62
     0
100
AcDbPoint
 10
111.1086797926361
 20
105.1505173301037
 30
0.0
  0
POINT
  5
83E
330
3B2
100
AcDbEntity
  8
DEFPOINTS
 62
     0
100
AcDbPoint
 10
185.180653099898
 20
133.7608584862282
 30
0.0
  0
POINT
  5
83F
330
3B2
100
AcDbEntity
  8
DEFPOINTS
 62
     0
100
AcDbPoint
 10
126.451074899898
 20
125.0243154124313
 30
0.0
  0
POINT
  5
840
330
3B2
100
AcDbEntity
  8
DEFPOINTS
 62
     0
100
AcDbPoint
 10
126.451074899898
 20
46.50821815622831
 30
0.0
  0
POINT
  5
841
330
3B2
100
AcDbEntity
  8
DEFPOINTS
 62
     0
100
AcDbPoint
 10
119.6895941165448
 20
116.2125820942123
 30
0.0
  0
ENDBLK
  5
3BE
330
3B2
100
AcDbEntity
  8
0
100
AcDbBlockEnd
  0
BLOCK
  5
3CC
330
3C2
100
AcDbEntity
  8
0
100
AcDbBlockBegin
  2
*D2
 70
     1
 10
0.0
 20
0.0
 30
0.0
  3
*D2
  1

  0
LINE
  5
5F0
330
3C2
100
AcDbEntity
  8
SUNPOU
100
AcDbLine
 10
94.50107489989809
 20
48.5082181562283
 30
0.0
 11
94.50107489989809
 21
27.97212200253295
 31
0.0
  0
LINE
  5
5F1
330
3C2
100
AcDbEntity
  8
SUNPOU
100
AcDbLine
 10
158.401074899898
 20
48.5082181562283
 30
0.0
 11
158.401074899898
 21
27.97212200253295
 31
0.0
  0
LINE
  5
5F2
330
3C2
100
AcDbEntity
  8
SUNPOU
100
AcDbLine
 10
97.50107489989808
 20
29.47212200253295
 30
0.0
 11
155.401074899898
 21
29.47212200253295
 31
0.0
  0
INSERT
  5
5F3
330
3C2
100
AcDbEntity
  8
SUNPOU
100
AcDbBlockReference
  2
_OPEN
 10
94.50107489989809
 20
29.47212200253295
 30
0.0
 41
3.0
 42
3.0
 43
3.0
 50
180.0
  0
INSERT
  5
5F4
330
3C2
100
AcDbEntity
  8
SUNPOU
100
AcDbBlockReference
  2
_OPEN
 10
158.401074899898
 20
29.47212200253295
 30
0.0
 41
3.0
 42
3.0
 43
3.0
  0
MTEXT
  5
5F5
330
3C2
100
AcDbEntity
  8
SUNPOU
100
AcDbMText
 10
126.451074899898
 20
31.97212200253295
 30
0.0
 40
3.0
 41
0.0
 71
     5
 72
     1
  1
\A1;64
1001
ACAD
1000
MTEXTBEGIN
1070
    73
1070
     1
1070
    44
1040
1.0
1070
    74
1070
     0
1000
MTEXTEND
1000
MTEXTBEGIN
1070
    73
1070
     1
1070
    44
1040
1.0
1070
    74
1070
     0
1000
MTEXTEND
1000
MTEXTBEGIN
1070
    73
1070
     1
1070
    44
1040
1.0
1070
    74
1070
     0
1000
MTEXTEND
1000
MTEXTBEGIN
1070
    73
1070
     1
1070
    44
1040
1.0
1070
    74
1070
     0
1000
MTEXTEND
1000
MTEXTBEGIN
1070
    73
1070
     1
1070
    44
1040
1.0
1070
    74
1070
     0
1000
MTEXTEND
  0
POINT
  5
5F6
330
3C2
100
AcDbEntity
  8
DEFPOINTS
 62
     0
100
AcDbPoint
 10
94.50107489989809
 20
51.5082181562283
 30
0.0
  0
POINT
  5
5F7
330
3C2
100
AcDbEntity
  8
DEFPOINTS
 62
     0
100
AcDbPoint
 10
158.401074899898
 20
51.5082181562283
 30
0.0
  0
POINT
  5
5F8
330
3C2
100
AcDbEntity
  8
DEFPOINTS
 62
     0
100
AcDbPoint
 10
158.401074899898
 20
29.47212200253295
 30
0.0
  0
ENDBLK
  5
3CD
330
3C2
100
AcDbEntity
  8
0
100
AcDbBlockEnd
  0
BLOCK
  5
3D9
330
3CF
100
AcDbEntity
  8
0
100
AcDbBlockBegin
  2
*D3
 70
     1
 10
0.0
 20
0.0
 30
0.0
  3
*D3
  1

  0
LINE
  5
5F9
330
3CF
100
AcDbEntity
  8
SUNPOU
100
AcDbLine
 10
247.0611860605398
 20
48.50821816622829
 30
0.0
 11
247.0611860605398
 21
27.47212200253295
 31
0.0
  0
LINE
  5
5FA
330
3CF
100
AcDbEntity
  8
SUNPOU
100
AcDbLine
 10
310.9611860605399
 20
48.5082181562283
 30
0.0
 11
310.9611860605399
 21
27.47212200253295
 31
0.0
  0
LINE
  5
5FB
330
3CF
100
AcDbEntity
  8
SUNPOU
100
AcDbLine
 10
250.0611860605398
 20
28.97212200253295
 30
0.0
 11
307.9611860605398
 21
28.97212200253295
 31
0.0
  0
INSERT
  5
5FC
330
3CF
100
AcDbEntity
  8
SUNPOU
100
AcDbBlockReference
  2
_OPEN
 10
247.0611860605398
 20
28.97212200253295
 30
0.0
 41
3.0
 42
3.0
 43
3.0
 50
180.0
  0
INSERT
  5
5FD
330
3CF
100
AcDbEntity
  8
SUNPOU
100
AcDbBlockReference
  2
_OPEN
 10
310.9611860605399
 20
28.97212200253295
 30
0.0
 41
3.0
 42
3.0
 43
3.0
  0
MTEXT
  5
5FE
330
3CF
100
AcDbEntity
  8
SUNPOU
100
AcDbMText
 10
279.0111860605398
 20
31.47212200253295
 30
0.0
 40
3.0
 41
0.0
 71
     5
 72
     1
  1
\A1;64
1001
ACAD
1000
MTEXTBEGIN
1070
    73
1070
     1
1070
    44
1040
1.0
1070
    74
1070
     0
1000
MTEXTEND
1000
MTEXTBEGIN
1070
    73
1070
     1
1070
    44
1040
1.0
1070
    74
1070
     0
1000
MTEXTEND
1000
MTEXTBEGIN
1070
    73
1070
     1
1070
    44
1040
1.0
1070
    74
1070
     0
1000
MTEXTEND
1000
MTEXTBEGIN
1070
    73
1070
     1
1070
    44
1040
1.0
1070
    74
1070
     0
1000
MTEXTEND
1000
MTEXTBEGIN
1070
    73
1070
     1
1070
    44
1040
1.0
1070
    74
1070
     0
1000
MTEXTEND
  0
POINT
  5
5FF
330
3CF
100
AcDbEntity
  8
DEFPOINTS
 62
     0
100
AcDbPoint
 10
247.0611860605398
 20
51.5082181662283
 30
0.0
  0
POINT
  5
600
330
3CF
100
AcDbEntity
  8
DEFPOINTS
 62
     0
100
AcDbPoint
 10
310.9611860605399
 20
51.5082181562283
 30
0.0
  0
POINT
  5
601
330
3CF
100
AcDbEntity
  8
DEFPOINTS
 62
     0
100
AcDbPoint
 10
310.9611860605399
 20
28.97212200253295
 30
0.0
  0
ENDBLK
  5
3DA
330
3CF
100
AcDbEntity
  8
0
100
AcDbBlockEnd
  0
BLOCK
  5
3EF
330
3E5
100
AcDbEntity
  8
0
100
AcDbBlockBegin
  2
*D4
 70
     1
 10
0.0
 20
0.0
 30
0.0
  3
*D4
  1

  0
LINE
  5
602
330
3E5
100
AcDbEntity
  8
SUNPOU
100
AcDbLine
 10
161.401074899898
 20
51.5082181562283
 30
0.0
 11
184.0790110075388
 21
51.5082181562283
 31
0.0
  0
LINE
  5
603
330
3E5
100
AcDbEntity
  8
SUNPOU
100
AcDbLine
 10
161.401074899898
 20
76.5082181562283
 30
0.0
 11
184.0790110075388
 21
76.5082181562283
 31
0.0
  0
LINE
  5
604
330
3E5
100
AcDbEntity
  8
SUNPOU
100
AcDbLine
 10
182.5790110075388
 20
54.5082181562283
 30
0.0
 11
182.5790110075388
 21
73.50821815622829
 31
0.0
  0
INSERT
  5
605
330
3E5
100
AcDbEntity
  8
SUNPOU
100
AcDbBlockReference
  2
_OPEN
 10
182.5790110075388
 20
51.5082181562283
 30
0.0
 41
3.0
 42
3.0
 43
3.0
 50
270.0
  0
INSERT
  5
606
330
3E5
100
AcDbEntity
  8
SUNPOU
100
AcDbBlockReference
  2
_OPEN
 10
182.5790110075388
 20
76.5082181562283
 30
0.0
 41
3.0
 42
3.0
 43
3.0
 50
90.0
  0
MTEXT
  5
607
330
3E5
100
AcDbEntity
  8
SUNPOU
100
AcDbMText
 10
180.0790110075388
 20
64.00821815622832
 30
0.0
 40
3.0
 41
0.0
 71
     5
 72
     1
  1
\A1;25
 11
0.0000000000000001
 21
1.0
 31
0.0
1001
ACAD
1000
MTEXTBEGIN
1070
    73
1070
     1
1070
    44
1040
1.0
1070
    74
1070
     0
1000
MTEXTEND
1000
MTEXTBEGIN
1070
    73
1070
     1
1070
    44
1040
1.0
1070
    74
1070
     0
1000
MTEXTEND
1000
MTEXTBEGIN
1070
    73
1070
     1
1070
    44
1040
1.0
1070
    74
1070
     0
1000
MTEXTEND
1000
MTEXTBEGIN
1070
    73
1070
     1
1070
    44
1040
1.0
1070
    74
1070
     0
1000
MTEXTEND
1000
MTEXTBEGIN
1070
    73
1070
     1
1070
    44
1040
1.0
1070
    74
1070
     0
1000
MTEXTEND
  0
POINT
  5
608
330
3E5
100
AcDbEntity
  8
DEFPOINTS
 62
     0
100
AcDbPoint
 10
158.401074899898
 20
51.5082181562283
 30
0.0
  0
POINT
  5
609
330
3E5
100
AcDbEntity
  8
DEFPOINTS
 62
     0
100
AcDbPoint
 10
158.401074899898
 20
76.50821815622831
 30
0.0
  0
POINT
  5
60A
330
3E5
100
AcDbEntity
  8
DEFPOINTS
 62
     0
100
AcDbPoint
 10
182.5790110075388
 20
76.5082181562283
 30
0.0
  0
ENDBLK
  5
3F0
330
3E5
100
AcDbEntity
  8
0
100
AcDbBlockEnd
  0
BLOCK
  5
3FC
330
3F2
100
AcDbEntity
  8
0
100
AcDbBlockBegin
  2
*D5
 70
     1
 10
0.0
 20
0.0
 30
0.0
  3
*D5
  1

  0
LINE
  5
60B
330
3F2
100
AcDbEntity
  8
SUNPOU
100
AcDbLine
 10
91.50107489989808
 20
51.5082181562283
 30
0.0
 11
70.25218042052121
 21
51.50821815622831
 31
0.0
  0
LINE
  5
60C
330
3F2
100
AcDbEntity
  8
SUNPOU
100
AcDbLine
 10
91.50107489989808
 20
91.5082181562283
 30
0.0
 11
70.25218042052121
 21
91.5082181562283
 31
0.0
  0
LINE
  5
60D
330
3F2
100
AcDbEntity
  8
SUNPOU
100
AcDbLine
 10
71.75218042052121
 20
54.5082181562283
 30
0.0
 11
71.75218042052121
 21
88.50821815622829
 31
0.0
  0
INSERT
  5
60E
330
3F2
100
AcDbEntity
  8
SUNPOU
100
AcDbBlockReference
  2
_OPEN
 10
71.75218042052121
 20
51.50821815622831
 30
0.0
 41
3.0
 42
3.0
 43
3.0
 50
270.0
  0
INSERT
  5
60F
330
3F2
100
AcDbEntity
  8
SUNPOU
100
AcDbBlockReference
  2
_OPEN
 10
71.75218042052121
 20
91.5082181562283
 30
0.0
 41
3.0
 42
3.0
 43
3.0
 50
90.0
  0
MTEXT
  5
610
330
3F2
100
AcDbEntity
  8
SUNPOU
100
AcDbMText
 10
69.2521804205212
 20
71.50821815622831
 30
0.0
 40
3.0
 41
0.0
 71
     5
 72
     1
  1
\A1;40
 11
0.0000000000000001
 21
1.0
 31
0.0
1001
ACAD
1000
MTEXTBEGIN
1070
    73
1070
     1
1070
    44
1040
1.0
1070
    74
1070
     0
1000
MTEXTEND
1000
MTEXTBEGIN
1070
    73
1070
     1
1070
    44
1040
1.0
1070
    74
1070
     0
1000
MTEXTEND
1000
MTEXTBEGIN
1070
    73
1070
     1
1070
    44
1040
1.0
1070
    74
1070
     0
1000
MTEXTEND
1000
MTEXTBEGIN
1070
    73
1070
     1
1070
    44
1040
1.0
1070
    74
1070
     0
1000
MTEXTEND
1000
MTEXTBEGIN
1070
    73
1070
     1
1070
    44
1040
1.0
1070
    74
1070
     0
1000
MTEXTEND
  0
POINT
  5
611
330
3F2
100
AcDbEntity
  8
DEFPOINTS
 62
     0
100
AcDbPoint
 10
94.50107489989809
 20
51.5082181562283
 30
0.0
  0
POINT
  5
612
330
3F2
100
AcDbEntity
  8
DEFPOINTS
 62
     0
100
AcDbPoint
 10
94.50107489989809
 20
91.5082181562283
 30
0.0
  0
POINT
  5
613
330
3F2
100
AcDbEntity
  8
DEFPOINTS
 62
     0
100
AcDbPoint
 10
71.75218042052121
 20
91.5082181562283
 30
0.0
  0
ENDBLK
  5
3FD
330
3F2
100
AcDbEntity
  8
0
100
AcDbBlockEnd
  0
BLOCK
  5
409
330
3FF
100
AcDbEntity
  8
0
100
AcDbBlockBegin
  2
*D6
 70
     1
 10
0.0
 20
0.0
 30
0.0
  3
*D6
  1

  0
LINE
  5
614
330
3FF
100
AcDbEntity
  8
SUNPOU
100
AcDbLine
 10
91.50107489989808
 20
51.5082181562283
 30
0.0
 11
59.69724330039797
 21
51.50821815622831
 31
0.0
  0
LINE
  5
615
330
3FF
100
AcDbEntity
  8
SUNPOU
100
AcDbLine
 10
123.451074899898
 20
118.0243154124313
 30
0.0
 11
59.69724330039799
 21
118.0243154124313
 31
0.0
  0
LINE
  5
616
330
3FF
100
AcDbEntity
  8
SUNPOU
100
AcDbLine
 10
61.19724330039797
 20
54.5082181562283
 30
0.0
 11
61.19724330039798
 21
115.0243154124313
 31
0.0
  0
INSERT
  5
617
330
3FF
100
AcDbEntity
  8
SUNPOU
100
AcDbBlockReference
  2
_OPEN
 10
61.19724330039797
 20
51.50821815622831
 30
0.0
 41
3.0
 42
3.0
 43
3.0
 50
270.0
  0
INSERT
  5
618
330
3FF
100
AcDbEntity
  8
SUNPOU
100
AcDbBlockReference
  2
_OPEN
 10
61.19724330039798
 20
118.0243154124313
 30
0.0
 41
3.0
 42
3.0
 43
3.0
 50
90.0
  0
MTEXT
  5
619
330
3FF
100
AcDbEntity
  8
SUNPOU
100
AcDbMText
 10
58.69724330039796
 20
84.76626678432984
 30
0.0
 40
3.0
 41
0.0
 71
     5
 72
     1
  1
\A1;67
 11
0.0000000000000001
 21
1.0
 31
0.0
1001
ACAD
1000
MTEXTBEGIN
1070
    73
1070
     1
1070
    44
1040
1.0
1070
    74
1070
     0
1000
MTEXTEND
1000
MTEXTBEGIN
1070
    73
1070
     1
1070
    44
1040
1.0
1070
    74
1070
     0
1000
MTEXTEND
1000
MTEXTBEGIN
1070
    73
1070
     1
1070
    44
1040
1.0
1070
    74
1070
     0
1000
MTEXTEND
1000
MTEXTBEGIN
1070
    73
1070
     1
1070
    44
1040
1.0
1070
    74
1070
     0
1000
MTEXTEND
1000
MTEXTBEGIN
1070
    73
1070
     1
1070
    44
1040
1.0
1070
    74
1070
     0
1000
MTEXTEND
  0
POINT
  5
61A
330
3FF
100
AcDbEntity
  8
DEFPOINTS
 62
     0
100
AcDbPoint
 10
94.50107489989809
 20
51.5082181562283
 30
0.0
  0
POINT
  5
61B
330
3FF
100
AcDbEntity
  8
DEFPOINTS
 62
     0
100
AcDbPoint
 10
126.451074899898
 20
118.0243154124313
 30
0.0
  0
POINT
  5
61C
330
3FF
100
AcDbEntity
  8
DEFPOINTS
 62
     0
100
AcDbPoint
 10
61.19724330039798
 20
118.0243154124313
 30
0.0
  0
ENDBLK
  5
40A
330
3FF
100
AcDbEntity
  8
0
100
AcDbBlockEnd
  0
BLOCK
  5
416
330
40C
100
AcDbEntity
  8
0
100
AcDbBlockBegin
  2
*D7
 70
     1
 10
0.0
 20
0.0
 30
0.0
  3
*D7
  1

  0
LINE
  5
61D
330
40C
100
AcDbEntity
  8
SUNPOU
100
AcDbLine
 10
165.2413981698066
 20
164.6010537244233
 30
0.0
 11
161.9575889140626
 21
176.856396682626
 31
0.0
  0
LINE
  5
61E
330
40C
100
AcDbEntity
  8
SUNPOU
100
AcDbLine
 10
141.0932525160907
 20
158.1305775837577
 30
0.0
 11
137.8094432603468
 21
170.3859205419605
 31
0.0
  0
LINE
  5
61F
330
40C
100
AcDbEntity
  8
SUNPOU
100
AcDbLine
 10
159.4480400040567
 20
174.6310508065232
 30
0.0
 11
141.0954493072326
 21
169.7134889396174
 31
0.0
  0
INSERT
  5
620
330
40C
100
AcDbEntity
  8
SUNPOU
100
AcDbBlockReference
  2
_OPEN
 10
162.3458174825026
 20
175.4075079434031
 30
0.0
 41
3.0
 42
3.0
 43
3.0
 50
15.00000003108811
  0
INSERT
  5
621
330
40C
100
AcDbEntity
  8
SUNPOU
100
AcDbBlockReference
  2
_OPEN
 10
138.1976718287867
 20
168.9370318027375
 30
0.0
 41
3.0
 42
3.0
 43
3.0
 50
195.000000031088
  0
MTEXT
  5
622
330
40C
100
AcDbEntity
  8
SUNPOU
100
AcDbMText
 10
149.6246970415781
 20
174.5870844384418
 30
0.0
 40
3.0
 41
0.0
 71
     5
 72
     1
  1
\A1;25
 11
0.9659258261486357
 21
0.2588190456266221
 31
0.0
1001
ACAD
1000
MTEXTBEGIN
1070
    73
1070
     1
1070
    44
1040
1.0
1070
    74
1070
     0
1000
MTEXTEND
1000
MTEXTBEGIN
1070
    73
1070
     1
1070
    44
1040
1.0
1070
    74
1070
     0
1000
MTEXTEND
1000
MTEXTBEGIN
1070
    73
1070
     1
1070
    44
1040
1.0
1070
    74
1070
     0
1000
MTEXTEND
1000
MTEXTBEGIN
1070
    73
1070
     1
1070
    44
1040
1.0
1070
    74
1070
     0
1000
MTEXTEND
1000
MTEXTBEGIN
1070
    73
1070
     1
1070
    44
1040
1.0
1070
    74
1070
     0
1000
MTEXTEND
  0
POINT
  5
623
330
40C
100
AcDbEntity
  8
DEFPOINTS
 62
     0
100
AcDbPoint
 10
166.0178553066864
 20
161.7032762459774
 30
0.0
  0
POINT
  5
624
330
40C
100
AcDbEntity
  8
DEFPOINTS
 62
     0
100
AcDbPoint
 10
141.8697096529705
 20
155.2328001053118
 30
0.0
  0
POINT
  5
625
330
40C
100
AcDbEntity
  8
DEFPOINTS
 62
     0
100
AcDbPoint
 10
138.1976718287867
 20
168.9370318027375
 30
0.0
  0
ENDBLK
  5
417
330
40C
100
AcDbEntity
  8
0
100
AcDbBlockEnd
  0
BLOCK
  5
423
330
419
100
AcDbEntity
  8
0
100
AcDbBlockBegin
  2
*D8
 70
     1
 10
0.0
 20
0.0
 30
0.0
  3
*D8
  1

  0
LINE
  5
626
330
419
100
AcDbEntity
  8
SUNPOU
100
AcDbLine
 10
173.5106666698987
 20
133.7397235835387
 30
0.0
 11
159.5138643827795
 21
185.9765007852655
 31
0.0
  0
LINE
  5
627
330
419
100
AcDbEntity
  8
SUNPOU
100
AcDbLine
 10
125.6746177635185
 20
120.9220928910113
 30
0.0
 11
111.6778154763992
 21
173.158870092738
 31
0.0
  0
LINE
  5
628
330
419
100
AcDbEntity
  8
SUNPOU
100
AcDbLine
 10
157.0043154723893
 20
183.7511549095959
 30
0.0
 11
114.963821523169
 21
172.4864384898276
 31
0.0
  0
INSERT
  5
629
330
419
100
AcDbEntity
  8
SUNPOU
100
AcDbBlockReference
  2
_OPEN
 10
159.9020929509692
 20
184.5276120459755
 30
0.0
 41
3.0
 42
3.0
 43
3.0
 50
15.00000002119619
  0
INSERT
  5
62A
330
419
100
AcDbEntity
  8
SUNPOU
100
AcDbBlockReference
  2
_OPEN
 10
112.066044044589
 20
171.709981353448
 30
0.0
 41
3.0
 42
3.0
 43
3.0
 50
195.0000000211961
  0
MTEXT
  5
62B
330
419
100
AcDbEntity
  8
SUNPOU
100
AcDbMText
 10
135.3370208841295
 20
180.5336112651951
 30
0.0
 40
3.0
 41
0.0
 71
     5
 72
     1
  1
\A1;50
 11
0.9659258261933201
 21
0.2588190454598582
 31
0.0
1001
ACAD
1000
MTEXTBEGIN
1070
    73
1070
     1
1070
    44
1040
1.0
1070
    74
1070
     0
1000
MTEXTEND
1000
MTEXTBEGIN
1070
    73
1070
     1
1070
    44
1040
1.0
1070
    74
1070
     0
1000
MTEXTEND
1000
MTEXTBEGIN
1070
    73
1070
     1
1070
    44
1040
1.0
1070
    74
1070
     0
1000
MTEXTEND
1000
MTEXTBEGIN
1070
    73
1070
     1
1070
    44
1040
1.0
1070
    74
1070
     0
1000
MTEXTEND
1000
MTEXTBEGIN
1070
    73
1070
     1
1070
    44
1040
1.0
1070
    74
1070
     0
1000
MTEXTEND
  0
POINT
  5
62C
330
419
100
AcDbEntity
  8
DEFPOINTS
 62
     0
100
AcDbPoint
 10
174.2871238062783
 20
130.8419461049588
 30
0.0
  0
POINT
  5
62D
330
419
100
AcDbEntity
  8
DEFPOINTS
 62
     0
100
AcDbPoint
 10
126.451074899898
 20
118.0243154124313
 30
0.0
  0
POINT
  5
62E
330
419
100
AcDbEntity
  8
DEFPOINTS
 62
     0
100
AcDbPoint
 10
112.066044044589
 20
171.709981353448
 30
0.0
  0
ENDBLK
  5
424
330
419
100
AcDbEntity
  8
0
100
AcDbBlockEnd
  0
BLOCK
  5
430
330
426
100
AcDbEntity
  8
0
100
AcDbBlockBegin
  2
*D9
 70
     1
 10
0.0
 20
0.0
 30
0.0
  3
*D9
  1

  0
LINE
  5
62F
330
426
100
AcDbEntity
  8
SUNPOU
100
AcDbLine
 10
168.9156327852964
 20
162.4797333822447
 30
0.0
 11
190.4131500560998
 21
168.2399757818621
 31
0.0
  0
LINE
  5
630
330
426
100
AcDbEntity
  8
SUNPOU
100
AcDbLine
 10
185.4541697785081
 20
100.7570731224956
 30
0.0
 11
206.9516870493114
 21
106.517315522113
 31
0.0
  0
LINE
  5
631
330
426
100
AcDbEntity
  8
SUNPOU
100
AcDbLine
 10
189.7407184530621
 20
164.9539697351184
 30
0.0
 11
204.726341173739
 21
109.0268644325893
 31
0.0
  0
INSERT
  5
632
330
426
100
AcDbEntity
  8
SUNPOU
100
AcDbBlockReference
  2
_OPEN
 10
188.9642613167947
 20
167.8517472137284
 30
0.0
 41
3.0
 42
3.0
 43
3.0
 50
105.0000000189772
  0
INSERT
  5
633
330
426
100
AcDbEntity
  8
SUNPOU
100
AcDbBlockReference
  2
_OPEN
 10
205.5027983100063
 20
106.1290869539793
 30
0.0
 41
3.0
 42
3.0
 43
3.0
 50
285.0000000189772
  0
MTEXT
  5
634
330
426
100
AcDbEntity
  8
SUNPOU
100
AcDbMText
 10
199.6483443789089
 20
137.63746469741
 30
0.0
 40
3.0
 41
0.0
 71
     5
 72
     1
  1
\A1;64
 11
0.2588190454224505
 21
-0.9659258262033432
 31
0.0
1001
ACAD
1000
MTEXTBEGIN
1070
    73
1070
     1
1070
    44
1040
1.0
1070
    74
1070
     0
1000
MTEXTEND
1000
MTEXTBEGIN
1070
    73
1070
     1
1070
    44
1040
1.0
1070
    74
1070
     0
1000
MTEXTEND
1000
MTEXTBEGIN
1070
    73
1070
     1
1070
    44
1040
1.0
1070
    74
1070
     0
1000
MTEXTEND
1000
MTEXTBEGIN
1070
    73
1070
     1
1070
    44
1040
1.0
1070
    74
1070
     0
1000
MTEXTEND
1000
MTEXTBEGIN
1070
    73
1070
     1
1070
    44
1040
1.0
1070
    74
1070
     0
1000
MTEXTEND
  0
POINT
  5
635
330
426
100
AcDbEntity
  8
DEFPOINTS
 62
     0
100
AcDbPoint
 10
166.0178553066864
 20
161.7032762459774
 30
0.0
  0
POINT
  5
636
330
426
100
AcDbEntity
  8
DEFPOINTS
 62
     0
100
AcDbPoint
 10
182.5563922998981
 20
99.98061598622829
 30
0.0
  0
POINT
  5
637
330
426
100
AcDbEntity
  8
DEFPOINTS
 62
     0
100
AcDbPoint
 10
205.5027983100063
 20
106.1290869539793
 30
0.0
  0
ENDBLK
  5
431
330
426
100
AcDbEntity
  8
0
100
AcDbBlockEnd
  0
BLOCK
  5
43D
330
433
100
AcDbEntity
  8
0
100
AcDbBlockBegin
  2
*D10
 70
     1
 10
0.0
 20
0.0
 30
0.0
  3
*D10
  1

  0
LINE
  5
638
330
433
100
AcDbEntity
  8
SUNPOU
100
AcDbLine
 10
247.0611860605398
 20
155.0601272862282
 30
0.0
 11
247.0611860605398
 21
182.5844309825877
 31
0.0
  0
LINE
  5
639
330
433
100
AcDbEntity
  8
SUNPOU
100
AcDbLine
 10
310.9611860605399
 20
155.0601272862282
 30
0.0
 11
310.9611860605399
 21
182.5844309825877
 31
0.0
  0
LINE
  5
63A
330
433
100
AcDbEntity
  8
SUNPOU
100
AcDbLine
 10
250.0611860605398
 20
181.0844309825877
 30
0.0
 11
307.9611860605398
 21
181.0844309825877
 31
0.0
  0
INSERT
  5
63B
330
433
100
AcDbEntity
  8
SUNPOU
100
AcDbBlockReference
  2
_OPEN
 10
247.0611860605398
 20
181.0844309825877
 30
0.0
 41
3.0
 42
3.0
 43
3.0
 50
180.0
  0
INSERT
  5
63C
330
433
100
AcDbEntity
  8
SUNPOU
100
AcDbBlockReference
  2
_OPEN
 10
310.9611860605399
 20
181.0844309825877
 30
0.0
 41
3.0
 42
3.0
 43
3.0
  0
MTEXT
  5
63D
330
433
100
AcDbEntity
  8
SUNPOU
100
AcDbMText
 10
279.0111860605398
 20
183.5844309825877
 30
0.0
 40
3.0
 41
0.0
 71
     5
 72
     1
  1
\A1;64
1001
ACAD
1000
MTEXTBEGIN
1070
    73
1070
     1
1070
    44
1040
1.0
1070
    74
1070
     0
1000
MTEXTEND
1000
MTEXTBEGIN
1070
    73
1070
     1
1070
    44
1040
1.0
1070
    74
1070
     0
1000
MTEXTEND
1000
MTEXTBEGIN
1070
    73
1070
     1
1070
    44
1040
1.0
1070
    74
1070
     0
1000
MTEXTEND
1000
MTEXTBEGIN
1070
    73
1070
     1
1070
    44
1040
1.0
1070
    74
1070
     0
1000
MTEXTEND
1000
MTEXTBEGIN
1070
    73
1070
     1
1070
    44
1040
1.0
1070
    74
1070
     0
1000
MTEXTEND
  0
POINT
  5
63E
330
433
100
AcDbEntity
  8
DEFPOINTS
 62
     0
100
AcDbPoint
 10
247.0611860605398
 20
152.0601272862283
 30
0.0
  0
POINT
  5
63F
330
433
100
AcDbEntity
  8
DEFPOINTS
 62
     0
100
AcDbPoint
 10
310.9611860605399
 20
152.0601272862283
 30
0.0
  0
POINT
  5
640
330
433
100
AcDbEntity
  8
DEFPOINTS
 62
     0
100
AcDbPoint
 10
310.9611860605399
 20
181.0844309825877
 30
0.0
  0
ENDBLK
  5
43E
330
433
100
AcDbEntity
  8
0
100
AcDbBlockEnd
  0
ENDSEC
  0
SECTION
  2
ENTITIES
  0
LINE
  5
6C
330
1A
100
AcDbEntity
  8
ZUWAKU
 48
5.0
100
AcDbLine
 10
403.0
 20
7.0
 30
0.0
 11
5.0
 21
7.0
 31
0.0
  0
LINE
  5
6D
330
1A
100
AcDbEntity
  8
ZUWAKU
 48
5.0
100
AcDbLine
 10
5.0
 20
282.0
 30
0.0
 11
5.0
 21
7.0
 31
0.0
  0
LINE
  5
6E
330
1A
100
AcDbEntity
  8
ZUWAKU
 48
5.0
100
AcDbLine
 10
403.0
 20
282.0
 30
0.0
 11
403.0
 21
7.0
 31
0.0
  0
LINE
  5
6F
330
1A
100
AcDbEntity
  8
ZUWAKU
 48
5.0
100
AcDbLine
 10
403.0
 20
282.0
 30
0.0
 11
5.0
 21
282.0
 31
0.0
  0
LINE
  5
8E
330
1A
100
AcDbEntity
  8
ZUWAKU
 48
5.0
100
AcDbLine
 10
5.0
 20
13.0
 30
0.0
 11
403.0
 21
12.99999999999994
 31
0.0
  0
TEXT
  5
92
330
1A
100
AcDbEntity
  8
ZUWAKU
 48
5.0
100
AcDbText
 10
25.15073007242387
 20
8.160237806787449
 30
0.0
 40
4.0
  1
アートフェイス　たてとい
100
AcDbText
  0
TEXT
  5
93
330
1A
100
AcDbEntity
  8
ZUWAKU
 48
5.0
100
AcDbText
 10
8.003143713074223
 20
7.870178177610682
 30
0.0
 40
4.0
  1
品 種
100
AcDbText
  0
TEXT
  5
97
330
1A
100
AcDbEntity
  8
ZUWAKU
 48
5.0
100
AcDbText
 10
107.7028028167073
 20
8.200497435100942
 30
0.0
 40
4.0
  1
品名・ｻ ｲ ｽﾞ
100
AcDbText
  0
TEXT
  5
99
330
1A
100
AcDbEntity
  8
ZUWAKU
 48
5.0
100
AcDbText
 10
141.1313324528735
 20
7.9299153608506
 30
0.0
 40
4.0
  1
ターンエルボ　Ｙ６０H－７５°
100
AcDbText
  0
LINE
  5
9A
330
1A
100
AcDbEntity
  8
ZUWAKU
 48
5.0
100
AcDbLine
 10
324.3551403257206
 20
6.999999999999836
 30
0.0
 11
324.3551403257206
 21
12.99999999999995
 31
0.0
  0
LINE
  5
9B
330
1A
100
AcDbEntity
  8
ZUWAKU
 48
5.0
100
AcDbLine
 10
307.142312366876
 20
6.999999999999836
 30
0.0
 11
307.142312366876
 21
12.99999999999995
 31
0.0
  0
TEXT
  5
9C
330
1A
100
AcDbEntity
  8
ZUWAKU
 48
5.0
100
AcDbText
 10
310.1429253763237
 20
7.934661405801826
 30
0.0
 40
4.0
  1
品 番
100
AcDbText
  0
TEXT
  5
9D
330
1A
100
AcDbEntity
  8
ZUWAKU
 48
5.0
100
AcDbText
 10
327.1013476411085
 20
8.060146781246267
 30
0.0
 40
4.0
  1
PF17
100
AcDbText
  0
TEXT
  5
9E
330
1A
100
AcDbEntity
  8
ZUWAKU
 48
5.0
100
AcDbText
 10
322.9513761015196
 20
2.449000558492457
 30
0.0
 40
4.0
  1
積水化学工業株式会社  建材
100
AcDbText
  0
TEXT
  5
A1
330
1A
100
AcDbEntity
  8
ZUWAKU
 48
5.0
100
AcDbText
 10
389.843492473331
 20
7.886151458996323
 30
0.0
 40
4.0
  1
1/1
100
AcDbText
  0
TEXT
  5
A2
330
1A
100
AcDbEntity
  8
ZUWAKU
 48
5.0
100
AcDbText
 10
369.8225424558458
 20
7.729845637642938
 30
0.0
 40
4.0
  1
尺 度
100
AcDbText
  0
LINE
  5
A3
330
1A
100
AcDbEntity
  8
ZUWAKU
 48
5.0
100
AcDbLine
 10
366.8807110760169
 20
6.999999999999886
 30
0.0
 11
366.8807110760169
 21
12.99999999999994
 31
0.0
  0
TEXT
  5
A6
330
1A
100
AcDbEntity
  8
ZUWAKU
 48
5.0
100
AcDbText
 10
396.1622424237184
 20
2.480970960763784
 30
0.0
 40
4.0
  1
A3
100
AcDbText
  0
LINE
  5
F5
330
1A
100
AcDbEntity
  8
ZUWAKU
 48
5.0
100
AcDbLine
 10
22.25374857290876
 20
7.0
 30
0.0
 11
22.25374857290876
 21
13.0
 31
0.0
  0
LINE
  5
F6
330
1A
100
AcDbEntity
  8
ZUWAKU
 48
5.0
100
AcDbLine
 10
104.7316872784438
 20
7.0
 30
0.0
 11
104.7316872784438
 21
12.99999999999998
 31
0.0
  0
LINE
  5
F8
330
1A
100
AcDbEntity
  8
ZUWAKU
 48
5.0
100
AcDbLine
 10
138.0261803105822
 20
7.0
 30
0.0
 11
138.0261803105822
 21
12.99999999999998
 31
0.0
  0
LINE
  5
100
330
1A
100
AcDbEntity
  8
ZUWAKU
 48
5.0
100
AcDbLine
 10
384.3363149538092
 20
6.999999999999862
 30
0.0
 11
384.3363149538092
 21
12.99999999999994
 31
0.0
  0
LINE
  5
20D
330
1A
100
AcDbEntity
  8
SEIHIN
100
AcDbLine
 10
180.2270208998981
 20
108.6739483862283
 30
0.0
 11
126.451074899898
 21
94.2647270862283
 31
0.0
  0
LINE
  5
210
330
1A
100
AcDbEntity
  8
CENTER_L
100
AcDbLine
 10
185.180653099898
 20
133.7608584862282
 30
0.0
 11
119.6895941165448
 21
116.2125820942123
 31
0.0
  0
LINE
  5
211
330
1A
100
AcDbEntity
  8
CENTER_L
100
AcDbLine
 10
185.180653099898
 20
133.7608584862282
 30
0.0
 11
119.6895941165448
 21
116.2125820942123
 31
0.0
  0
LINE
  5
212
330
1A
100
AcDbEntity
  8
SEIHIN
100
AcDbLine
 10
165.370807699898
 20
164.1180907862282
 30
0.0
 11
182.556392299898
 21
99.98061598622831
 31
0.0
  0
LINE
  5
213
330
1A
100
AcDbEntity
  8
SEIHIN
100
AcDbLine
 10
182.556392299898
 20
99.98061598622831
 30
0.0
 11
158.401074899898
 21
93.50821818622831
 31
0.0
  0
LINE
  5
214
330
1A
100
AcDbEntity
  8
CENTER_L
100
AcDbLine
 10
87.50107058804619
 20
234.7268137864569
 30
0.0
 11
189.556392299898
 21
234.726813786457
 31
0.0
  0
ARC
  5
215
330
1A
100
AcDbEntity
  8
SEIHIN
100
AcDbCircle
 10
133.201800399898
 20
121.8519553862283
 30
0.0
 40
30.00000004699478
100
AcDbArc
 50
104.9999959103381
 51
170.9865297482647
  0
ARC
  5
216
330
1A
100
AcDbEntity
  8
SEIHIN
100
AcDbCircle
 10
136.032898099898
 20
109.1519553862283
 30
0.0
 40
34.00000005909709
100
AcDbArc
 50
105.0000018205568
 51
149.2185524652928
  0
ARC
  5
217
330
1A
100
AcDbEntity
  8
SEIHIN
100
AcDbCircle
 10
124.501074899898
 20
123.5276701862282
 30
0.0
 40
29.99999996942449
100
AcDbArc
 50
134.4270041152827
 51
180.0000024828169
  0
LINE
  5
219
330
1A
100
AcDbEntity
  8
SEIHIN
100
AcDbLine
 10
158.401074899898
 20
91.5082181562283
 30
0.0
 11
94.50107489989809
 21
91.5082181562283
 31
0.0
  0
LINE
  5
21A
330
1A
100
AcDbEntity
  8
SEIHIN
100
AcDbLine
 10
158.401074899898
 20
51.50821815622831
 30
0.0
 11
94.50107489989809
 21
51.50821815622831
 31
0.0
  0
ARC
  5
21B
330
1A
100
AcDbEntity
  8
SEIHIN
100
AcDbCircle
 10
126.451074899898
 20
66.4082181562283
 30
0.0
 40
25.1000000014845
100
AcDbArc
 50
90.0
 51
156.1125435390501
  0
LINE
  5
21C
330
1A
100
AcDbEntity
  8
SEIHIN
100
AcDbLine
 10
94.50107489989809
 20
91.5082181562283
 30
0.0
 11
158.401074899898
 21
91.5082181562283
 31
0.0
  0
LINE
  5
21E
330
1A
100
AcDbEntity
  8
SEIHIN
100
AcDbLine
 10
94.50107489989809
 20
51.50821815622831
 30
0.0
 11
94.50107489989809
 21
91.5082181562283
 31
0.0
  0
LINE
  5
21F
330
1A
100
AcDbEntity
  8
SEIHIN
100
AcDbLine
 10
103.501074899898
 20
51.50821815622831
 30
0.0
 11
103.501074899898
 21
76.5722472462283
 31
0.0
  0
ARC
  5
220
330
1A
100
AcDbEntity
  8
SEIHIN
100
AcDbCircle
 10
99.00107489989807
 20
76.5722478762283
 30
0.0
 40
4.500000000000021
100
AcDbArc
 50
359.9999919785906
 51
179.9999956709855
  0
LINE
  5
221
330
1A
100
AcDbEntity
  8
SEIHIN
100
AcDbLine
 10
94.50107489989809
 20
123.5276688862283
 30
0.0
 11
94.50107489989809
 21
91.5082181562283
 31
0.0
  0
LINE
  5
223
330
1A
100
AcDbEntity
  8
CENTER_L
100
AcDbLine
 10
126.451074899898
 20
125.0243154124313
 30
0.0
 11
126.451074899898
 21
46.50821815622831
 31
0.0
  0
LINE
  5
224
330
1A
100
AcDbEntity
  8
SEIHIN
100
AcDbLine
 10
158.401074899898
 20
51.50821815622831
 30
0.0
 11
158.401074899898
 21
91.5082181562283
 31
0.0
  0
ARC
  5
225
330
1A
100
AcDbEntity
  8
SEIHIN
100
AcDbCircle
 10
126.451074899898
 20
66.4082181562283
 30
0.0
 40
25.10000000148449
100
AcDbArc
 50
23.88745646094986
 51
90.0
  0
LINE
  5
226
330
1A
100
AcDbEntity
  8
SEIHIN
100
AcDbLine
 10
149.401074899898
 20
51.50821815622831
 30
0.0
 11
149.401074899898
 21
76.5722472462283
 31
0.0
  0
ARC
  5
227
330
1A
100
AcDbEntity
  8
SEIHIN
100
AcDbCircle
 10
153.901074899898
 20
76.5722478762283
 30
0.0
 40
4.500000000000028
100
AcDbArc
 50
0.0000043290144032
 51
180.0000080214089
  0
ARC
  5
228
330
1A
100
AcDbEntity
  8
SEIHIN
100
AcDbCircle
 10
136.334892099898
 20
60.6892872962283
 30
0.0
 40
35.00000000116721
100
AcDbArc
 50
69.66613944963865
 51
106.4031846259863
  0
LINE
  5
229
330
1A
100
AcDbEntity
  8
SEIHIN
100
AcDbLine
 10
148.497037299898
 20
93.50821818622831
 30
0.0
 11
158.401074899898
 21
93.50821818622831
 31
0.0
  0
LINE
  5
22A
330
1A
100
AcDbEntity
  8
SEIHIN
100
AcDbLine
 10
158.401074899898
 20
93.50821818622831
 30
0.0
 11
158.401074899898
 21
91.5082181562283
 31
0.0
  0
LINE
  5
22B
330
1A
100
AcDbEntity
  8
SEIHIN
100
AcDbLine
 10
165.370807699898
 20
212.382696554538
 30
0.0
 11
165.370807699898
 21
257.0709310183759
 31
0.0
  0
ARC
  5
22C
330
1A
100
AcDbEntity
  8
SEIHIN
100
AcDbCircle
 10
126.451070599898
 20
234.726815086457
 30
0.0
 40
31.95000001185192
100
AcDbArc
 50
90.01676157115717
 51
270.0292258700849
  0
ELLIPSE
  5
22D
330
1A
100
AcDbEntity
  8
SEIHIN
100
AcDbEllipse
 10
125.669072599898
 20
234.726813786457
 30
0.0
 11
22.16799771310169
 21
0.0
 31
0.0
210
0.0
220
0.0
230
1.0
 40
0.9585890559393211
 41
1.570796326794896
 42
4.712388980384703
  0
LINE
  5
22E
330
1A
100
AcDbEntity
  8
SEIHIN
100
AcDbLine
 10
163.921918999898
 20
255.976813786457
 30
0.0
 11
163.921918999898
 21
213.476813786457
 31
0.0
  0
LINE
  5
22F
330
1A
100
AcDbEntity
  8
SEIHIN
100
AcDbLine
 10
164.5689665998981
 20
161.3150476862283
 30
0.0
 11
103.501074899898
 21
144.9519553862282
 31
0.0
  0
LINE
  5
230
330
1A
100
AcDbEntity
  8
SEIHIN
100
AcDbLine
 10
168.347226699898
 20
153.0099437862283
 30
0.0
 11
127.233049499898
 21
141.9934332862283
 31
0.0
  0
LINE
  5
231
330
1A
100
AcDbEntity
  8
SEIHIN
100
AcDbLine
 10
165.370807699898
 20
164.1180907862282
 30
0.0
 11
163.921918999898
 21
163.7298622862283
 31
0.0
  0
LINE
  5
232
330
1A
100
AcDbEntity
  8
SEIHIN
100
AcDbLine
 10
163.921918999898
 20
163.7298622862283
 30
0.0
 11
164.5689665998981
 21
161.3150476862283
 31
0.0
  0
LINE
  5
234
330
1A
100
AcDbEntity
  8
SEIHIN
100
AcDbLine
 10
125.669072599898
 20
213.476813786457
 30
0.0
 11
165.370807699898
 21
213.476813786457
 31
0.0
  0
LINE
  5
235
330
1A
100
AcDbEntity
  8
SEIHIN
100
AcDbLine
 10
122.841481399898
 20
255.976813786457
 30
0.0
 11
147.837070299898
 21
255.976813786457
 31
0.0
  0
LINE
  5
237
330
1A
100
AcDbEntity
  8
SEIHIN
100
AcDbLine
 10
125.669072599898
 20
255.976813786457
 30
0.0
 11
165.370807699898
 21
255.976813786457
 31
0.0
  0
LINE
  5
238
330
1A
100
AcDbEntity
  8
SEIHIN
100
AcDbLine
 10
309.3611860605398
 20
150.4159927862282
 30
0.0
 11
309.3611860605398
 21
111.2676400862282
 31
0.0
  0
LINE
  5
239
330
1A
100
AcDbEntity
  8
SEIHIN
100
AcDbLine
 10
310.9611860605399
 20
152.0601272862283
 30
0.0
 11
310.9611860605399
 21
109.6137514862282
 31
0.0
  0
LINE
  5
23B
330
1A
100
AcDbEntity
  8
CENTER_L
100
AcDbLine
 10
279.0111860605398
 20
171.5082181862283
 30
0.0
 11
279.0111860605398
 21
46.50821815622831
 31
0.0
  0
LINE
  5
23C
330
1A
100
AcDbEntity
  8
SEIHIN
100
AcDbLine
 10
247.0611860605398
 20
152.0601272862283
 30
0.0
 11
247.0611860605398
 21
109.6137514862282
 31
0.0
  0
LINE
  5
23D
330
1A
100
AcDbEntity
  8
SEIHIN
100
AcDbLine
 10
248.6611860605398
 20
150.4159927862282
 30
0.0
 11
248.6611860605398
 21
111.2676400862282
 31
0.0
  0
LINE
  5
23F
330
1A
100
AcDbEntity
  8
SEIHIN
100
AcDbLine
 10
310.9611860605399
 20
51.50821815622831
 30
0.0
 11
247.0611860605398
 21
51.50821816622829
 31
0.0
  0
LINE
  5
240
330
1A
100
AcDbEntity
  8
SEIHIN
100
AcDbLine
 10
258.7083600605398
 20
101.5260972862283
 30
0.0
 11
300.2611860605398
 21
101.5260972862283
 31
0.0
  0
LINE
  5
242
330
1A
100
AcDbEntity
  8
SEIHIN
100
AcDbLine
 10
256.8420206605398
 20
99.98061598622831
 30
0.0
 11
301.1803515605398
 21
99.98061598622831
 31
0.0
  0
LINE
  5
243
330
1A
100
AcDbEntity
  8
SEIHIN
100
AcDbLine
 10
247.0611860605398
 20
91.5082181562283
 30
0.0
 11
310.9611860605399
 21
91.5082181662283
 31
0.0
  0
LINE
  5
244
330
1A
100
AcDbEntity
  8
SEIHIN
100
AcDbLine
 10
310.9611860605399
 20
91.5082181562283
 30
0.0
 11
247.0611860605398
 21
91.5082181562283
 31
0.0
  0
ARC
  5
245
330
1A
100
AcDbEntity
  8
SEIHIN
100
AcDbCircle
 10
279.0111860605398
 20
66.40821816622829
 30
0.0
 40
25.09999999445978
100
AcDbArc
 50
90.0
 51
156.1125435599216
  0
LINE
  5
246
330
1A
100
AcDbEntity
  8
SEIHIN
100
AcDbLine
 10
247.0611860605398
 20
51.50821816622829
 30
0.0
 11
247.0611860605398
 21
91.5082181562283
 31
0.0
  0
LINE
  5
247
330
1A
100
AcDbEntity
  8
SEIHIN
100
AcDbLine
 10
256.0611860605398
 20
51.50821816622829
 30
0.0
 11
256.0611860605398
 21
76.5722472462283
 31
0.0
  0
ARC
  5
248
330
1A
100
AcDbEntity
  8
SEIHIN
100
AcDbCircle
 10
251.5611860605398
 20
76.5722478762283
 30
0.0
 40
4.500000000000028
100
AcDbArc
 50
359.9999919785906
 51
179.9999956709855
  0
ELLIPSE
  5
249
330
1A
100
AcDbEntity
  8
SEIHIN
100
AcDbEllipse
 10
247.0611860605398
 20
99.9120973862283
 30
0.0
 11
-8.840077777517491
 21
0.0
 31
0.0
210
0.0
220
0.0
230
1.0
 40
0.9900527011670529
 41
-3.031916772299867
 42
-1.672698940149634
  0
ARC
  5
24A
330
1A
100
AcDbEntity
  8
SEIHIN
100
AcDbCircle
 10
249.6611860605398
 20
111.2676400862282
 30
0.0
 40
1.000000003839009
100
AcDbArc
 50
180.0
 51
264.4916336695741
  0
LINE
  5
24B
330
1A
100
AcDbEntity
  8
SEIHIN
100
AcDbLine
 10
247.0611860605398
 20
109.6137514862282
 30
0.0
 11
247.0611860605398
 21
91.5082181562283
 31
0.0
  0
ARC
  5
24C
330
1A
100
AcDbEntity
  8
SEIHIN
100
AcDbCircle
 10
248.0611860605398
 20
109.6137514862282
 30
0.0
 40
1.00000001127528
100
AcDbArc
 50
180.0
 51
264.2187223631015
  0
ARC
  5
24D
330
1A
100
AcDbEntity
  8
SEIHIN
100
AcDbCircle
 10
258.7083600605398
 20
102.5260972862283
 30
0.0
 40
1.000000022227874
100
AcDbArc
 50
186.0466517827079
 51
270.0
  0
ARC
  5
24E
330
1A
100
AcDbEntity
  8
SEIHIN
100
AcDbCircle
 10
256.8420206605398
 20
100.9806159862282
 30
0.0
 40
0.9999999734260075
100
AcDbArc
 50
186.3466126500873
 51
270.0
  0
ELLIPSE
  5
24F
330
1A
100
AcDbEntity
  8
SEIHIN
100
AcDbEllipse
 10
248.6611860605398
 20
101.5260972862283
 30
0.0
 11
-9.100000000625625
 21
0.0
 31
0.0
210
0.0
220
0.0
230
1.0
 40
0.9658944587071273
 41
-3.039630119092988
 42
-1.670302095206418
  0
ARC
  5
250
330
1A
100
AcDbEntity
  8
SEIHIN
100
AcDbCircle
 10
279.0111860605398
 20
66.40821816622829
 30
0.0
 40
25.0999999944598
100
AcDbArc
 50
23.88745644007836
 51
90.0
  0
LINE
  5
251
330
1A
100
AcDbEntity
  8
SEIHIN
100
AcDbLine
 10
310.9611860605399
 20
51.50821815622831
 30
0.0
 11
310.9611860605399
 21
91.5082181562283
 31
0.0
  0
LINE
  5
252
330
1A
100
AcDbEntity
  8
SEIHIN
100
AcDbLine
 10
301.9611860605398
 20
51.50821815622831
 30
0.0
 11
301.9611860605398
 21
76.5722472462283
 31
0.0
  0
ARC
  5
253
330
1A
100
AcDbEntity
  8
SEIHIN
100
AcDbCircle
 10
306.4611860605399
 20
76.5722478762283
 30
0.0
 40
4.500000000000028
100
AcDbArc
 50
0.0000043290144032
 51
180.0000080214089
  0
ELLIPSE
  5
254
330
1A
100
AcDbEntity
  8
SEIHIN
100
AcDbEllipse
 10
310.9611860605399
 20
99.9120973862283
 30
0.0
 11
8.840077777517491
 21
0.0000000000000181
 31
0.0
210
0.0
220
0.0
230
-1.0
 40
0.9900527011670529
 41
-3.031916772299866
 42
-1.672698940149629
  0
ARC
  5
255
330
1A
100
AcDbEntity
  8
SEIHIN
100
AcDbCircle
 10
299.3140120605398
 20
102.5260972862283
 30
0.0
 40
0.9999999725060407
100
AcDbArc
 50
270.0
 51
353.9533476137483
  0
LINE
  5
256
330
1A
100
AcDbEntity
  8
SEIHIN
100
AcDbLine
 10
310.9611860605399
 20
109.6137514862282
 30
0.0
 11
310.9611860605399
 21
91.5082181662283
 31
0.0
  0
ARC
  5
257
330
1A
100
AcDbEntity
  8
SEIHIN
100
AcDbCircle
 10
301.1803513605398
 20
100.9806159862282
 30
0.0
 40
1.000000023119596
100
AcDbArc
 50
270.0000114591552
 51
353.6533879832767
  0
ELLIPSE
  5
258
330
1A
100
AcDbEntity
  8
SEIHIN
100
AcDbEllipse
 10
309.3611860605398
 20
101.5260972862283
 30
0.0
 11
9.100000000625625
 21
0.0000000000000186
 31
0.0
210
0.0
220
0.0
230
-1.0
 40
0.9658944587071273
 41
-3.039630119092988
 42
-1.670302095206412
  0
ARC
  5
259
330
1A
100
AcDbEntity
  8
SEIHIN
100
AcDbCircle
 10
308.3611860605398
 20
111.2676400862282
 30
0.0
 40
0.9999999990394558
100
AcDbArc
 50
275.5083606273041
 51
0.0
  0
ARC
  5
25A
330
1A
100
AcDbEntity
  8
SEIHIN
100
AcDbCircle
 10
309.9611860605398
 20
109.6137514862282
 30
0.0
 40
1.00000001127528
100
AcDbArc
 50
275.7812776368985
 51
0.0
  0
LINE
  5
25B
330
1A
100
AcDbEntity
  8
SEIHIN
100
AcDbLine
 10
258.7078868605398
 20
160.1577948862282
 30
0.0
 11
299.3144849605398
 21
160.1577948862282
 31
0.0
  0
LINE
  5
25D
330
1A
100
AcDbEntity
  8
SEIHIN
100
AcDbLine
 10
256.8961694605398
 20
163.9746537862282
 30
0.0
 11
278.9949595605398
 21
164.1180907862282
 31
0.0
  0
LINE
  5
25E
330
1A
100
AcDbEntity
  8
SEIHIN
100
AcDbLine
 10
258.0392118605398
 20
159.9013496862282
 30
0.0
 11
258.0392118605398
 21
143.2033177862282
 31
0.0
  0
ELLIPSE
  5
25F
330
1A
100
AcDbEntity
  8
SEIHIN
100
AcDbEllipse
 10
248.6611860605398
 20
160.1627916862283
 30
0.0
 11
9.100000000625625
 21
0.0
 31
0.0
210
0.0
220
0.0
230
-1.0
 40
0.9664749249330514
 41
0.1024254251978977
 42
1.47129505247188
  0
ELLIPSE
  5
260
330
1A
100
AcDbEntity
  8
SEIHIN
100
AcDbEllipse
 10
247.0611860605398
 20
161.7032762862282
 30
0.0
 11
8.840077777517491
 21
0.0
 31
0.0
210
0.0
220
0.0
230
-1.0
 40
0.9833999941978554
 41
0.0000000000000033
 42
1.468824804145962
  0
ARC
  5
261
330
1A
100
AcDbEntity
  8
SEIHIN
100
AcDbCircle
 10
249.6611860605398
 20
150.4159927862282
 30
0.0
 40
1.000000016680531
100
AcDbArc
 50
95.51070894968304
 51
180.0
  0
ARC
  5
262
330
1A
100
AcDbEntity
  8
SEIHIN
100
AcDbCircle
 10
248.0611860605398
 20
152.0601272862283
 30
0.0
 40
0.9999999820837794
100
AcDbArc
 50
95.74638605800783
 51
180.0
  0
ARC
  5
263
330
1A
100
AcDbEntity
  8
SEIHIN
100
AcDbCircle
 10
256.9026600605398
 20
162.9746748862283
 30
0.0
 40
0.9999999820833933
100
AcDbArc
 50
90.37188661099783
 51
180.0
  0
LINE
  5
264
330
1A
100
AcDbEntity
  8
SEIHIN
100
AcDbLine
 10
255.9026600605398
 20
162.9746748862283
 30
0.0
 11
255.9012638605398
 21
161.7032762862282
 31
0.0
  0
ARC
  5
265
330
1A
100
AcDbEntity
  8
SEIHIN
100
AcDbCircle
 10
258.7078868605398
 20
159.1577948862282
 30
0.0
 40
0.9999999930513139
100
AcDbArc
 50
90.0
 51
173.9297649839425
  0
LINE
  5
266
330
1A
100
AcDbEntity
  8
SEIHIN
100
AcDbLine
 10
301.1262025605398
 20
163.9746537862282
 30
0.0
 11
279.0274124605398
 21
164.1180907862282
 31
0.0
  0
ELLIPSE
  5
267
330
1A
100
AcDbEntity
  8
SEIHIN
100
AcDbEllipse
 10
310.9611860605399
 20
161.7032762862282
 30
0.0
 11
-8.840077777517491
 21
-0.0000000000000181
 31
0.0
210
0.0
220
0.0
230
1.0
 40
0.9833999941978554
 41
0.0000000000000045
 42
1.46882480414596
  0
ELLIPSE
  5
268
330
1A
100
AcDbEntity
  8
SEIHIN
100
AcDbEllipse
 10
309.3611860605398
 20
160.1627916862283
 30
0.0
 11
-9.100000000625625
 21
-0.0000000000000186
 31
0.0
210
0.0
220
0.0
230
1.0
 40
0.9664749249330514
 41
0.1024254251978985
 42
1.471295052471881
  0
LINE
  5
269
330
1A
100
AcDbEntity
  8
SEIHIN
100
AcDbLine
 10
299.9831602605398
 20
159.9013496862282
 30
0.0
 11
299.9831602605398
 21
143.2033177862282
 31
0.0
  0
ARC
  5
26A
330
1A
100
AcDbEntity
  8
SEIHIN
100
AcDbCircle
 10
309.9611860605398
 20
152.0601272862283
 30
0.0
 40
0.9999999770775156
100
AcDbArc
 50
0.0
 51
84.25361964277948
  0
ARC
  5
26B
330
1A
100
AcDbEntity
  8
SEIHIN
100
AcDbCircle
 10
308.3611860605398
 20
150.4159927862282
 30
0.0
 40
1.000000011878942
100
AcDbArc
 50
0.0
 51
84.48929675341542
  0
ARC
  5
26C
330
1A
100
AcDbEntity
  8
SEIHIN
100
AcDbCircle
 10
301.1197120605398
 20
162.9746748862283
 30
0.0
 40
0.9999999817588655
100
AcDbArc
 50
0.0
 51
89.62811911846108
  0
ARC
  5
26D
330
1A
100
AcDbEntity
  8
SEIHIN
100
AcDbCircle
 10
299.3144851605398
 20
159.1577948862282
 30
0.0
 40
1.000000042770985
100
AcDbArc
 50
6.070234410168518
 51
90.00001145915522
  0
LINE
  5
26E
330
1A
100
AcDbEntity
  8
SEIHIN
100
AcDbLine
 10
302.1197120605398
 20
162.9746748862283
 30
0.0
 11
302.1211082605398
 21
161.7032762862282
 31
0.0
  0
LINE
  5
34A
330
1A
100
AcDbEntity
  8
SEIHIN
100
AcDbLine
 10
182.556392299898
 20
211.4610173044813
 30
0.0
 11
182.556392299898
 21
257.9926102684328
 31
0.0
  0
ARC
  5
382
330
1A
100
AcDbEntity
  8
SEIHIN
100
AcDbCircle
 10
194.3743567924819
 20
203.5013850441679
 30
0.0
 40
14.16587859488748
100
AcDbArc
 50
147.13023124741
 51
180.8773546071023
  0
LINE
  5
383
330
1A
100
AcDbEntity
  8
SEIHIN
100
AcDbLine
 10
182.1422818271518
 20
213.8337654939789
 30
0.0
 11
166.4319657854047
 21
213.8337654939789
 31
0.0
  0
LINE
  5
385
330
1A
100
AcDbEntity
  8
SEIHIN
100
AcDbLine
 10
182.1422818271518
 20
213.9333502987246
 30
0.0
 11
182.1422818271518
 21
255.5202772741893
 31
0.0
  0
LINE
  5
38A
330
1A
100
AcDbEntity
  8
SEIHIN
100
AcDbLine
 10
169.1046851052588
 20
204.376813786457
 30
0.0
 11
179.4718161402375
 21
204.376813786457
 31
0.0
  0
ARC
  5
38C
330
1A
100
AcDbEntity
  8
SEIHIN
100
AcDbCircle
 10
154.1998908200747
 20
203.5013850441679
 30
0.0
 40
14.16587859488748
100
AcDbArc
 50
359.1226453928977
 51
37.27033819795031
  0
LINE
  5
38D
330
1A
100
AcDbEntity
  8
SEIHIN
100
AcDbLine
 10
166.4319657854047
 20
213.9333502987246
 30
0.0
 11
166.4319657854047
 21
255.5202772741893
 31
0.0
  0
ARC
  5
38F
330
1A
100
AcDbEntity
  8
SEIHIN
100
AcDbCircle
 10
179.4718161402375
 20
204.8768137864569
 30
0.0
 40
0.5
100
AcDbArc
 50
270.0
 51
354.7268298697523
  0
ARC
  5
391
330
1A
100
AcDbEntity
  8
SEIHIN
100
AcDbCircle
 10
182.0563922998992
 20
211.4610173044811
 30
0.0
 40
0.5
100
AcDbArc
 50
327.1302312473578
 51
0.0000000000227982
  0
ARC
  5
396
330
1A
100
AcDbEntity
  8
SEIHIN
100
AcDbCircle
 10
165.870807699898
 20
212.382696554538
 30
0.0
 40
0.5
100
AcDbArc
 50
180.0
 51
217.2703381979484
  0
LINE
  5
397
330
1A
100
AcDbEntity
  8
SEIHIN
100
AcDbLine
 10
126.4673678996014
 20
202.7768192311308
 30
0.0
 11
179.7101975886409
 21
202.776819231131
 31
0.0
  0
ARC
  5
398
330
1A
100
AcDbEntity
  8
SEIHIN
100
AcDbCircle
 10
179.7101975886409
 20
203.2768192311309
 30
0.0
 40
0.5
100
AcDbArc
 50
270.0
 51
0.877354607101769
  0
ARC
  5
399
330
1A
100
AcDbEntity
  8
SEIHIN
100
AcDbCircle
 10
168.8640500239156
 20
203.2768192311309
 30
0.0
 40
0.5
100
AcDbArc
 50
179.1226453928982
 51
270.0
  0
ARC
  5
39B
330
1A
100
AcDbEntity
  8
SEIHIN
100
AcDbCircle
 10
209.3345530188164
 20
202.5009098830125
 30
0.0
 40
29.45934875145827
100
AcDbArc
 50
157.5672717771766
 51
175.5423949379545
  0
ARC
  5
39C
330
1A
100
AcDbEntity
  8
SEIHIN
100
AcDbCircle
 10
181.6422818271519
 20
213.9333502987246
 30
0.0
 40
0.5
100
AcDbArc
 50
337.5672717771711
 51
359.9999999999967
  0
ARC
  5
39D
330
1A
100
AcDbEntity
  8
SEIHIN
100
AcDbCircle
 10
139.2396945937401
 20
202.5009098830125
 30
0.0
 40
29.45934875145827
100
AcDbArc
 50
4.548575557600577
 51
22.43272822282338
  0
ARC
  5
39E
330
1A
100
AcDbEntity
  8
SEIHIN
100
AcDbCircle
 10
169.1046851052588
 20
204.8768137864569
 30
0.0
 40
0.5
100
AcDbArc
 50
184.5485755575992
 51
270.0
  0
ARC
  5
39F
330
1A
100
AcDbEntity
  8
SEIHIN
100
AcDbCircle
 10
166.9319657854051
 20
213.9333502987246
 30
0.0
 40
0.5
100
AcDbArc
 50
180.0000000000032
 51
202.4327282228089
  0
LINE
  5
3A0
330
1A
100
AcDbEntity
  8
SEIHIN
100
AcDbLine
 10
182.1422818271518
 20
255.619862078935
 30
0.0
 11
166.4319657854047
 21
255.619862078935
 31
0.0
  0
LINE
  5
3A1
330
1A
100
AcDbEntity
  8
SEIHIN
100
AcDbLine
 10
169.1046851052588
 20
265.076813786457
 30
0.0
 11
179.4718161402375
 21
265.076813786457
 31
0.0
  0
ARC
  5
3A2
330
1A
100
AcDbEntity
  8
SEIHIN
100
AcDbCircle
 10
139.2396945937401
 20
266.9527176899014
 30
0.0
 40
29.45934875145827
100
AcDbArc
 50
337.5672717771766
 51
355.4514244423994
  0
ARC
  5
3A3
330
1A
100
AcDbEntity
  8
SEIHIN
100
AcDbCircle
 10
154.1998908200747
 20
265.952242528746
 30
0.0
 40
14.16587859488748
100
AcDbArc
 50
322.7296618020496
 51
0.877354607102273
  0
ARC
  5
3A4
330
1A
100
AcDbEntity
  8
SEIHIN
100
AcDbCircle
 10
165.870807699898
 20
257.0709310183759
 30
0.0
 40
0.5
100
AcDbArc
 50
142.7296618020515
 51
180.0
  0
ARC
  5
3A5
330
1A
100
AcDbEntity
  8
SEIHIN
100
AcDbCircle
 10
169.1046851052588
 20
264.576813786457
 30
0.0
 40
0.5
100
AcDbArc
 50
90.00000000000003
 51
175.4514244424007
  0
ARC
  5
3A6
330
1A
100
AcDbEntity
  8
SEIHIN
100
AcDbCircle
 10
168.8640500239156
 20
266.176808341783
 30
0.0
 40
0.5
100
AcDbArc
 50
90.00000000000003
 51
180.8773546071018
  0
ARC
  5
3A7
330
1A
100
AcDbEntity
  8
SEIHIN
100
AcDbCircle
 10
166.9319657854051
 20
255.5202772741893
 30
0.0
 40
0.5
100
AcDbArc
 50
157.567271777191
 51
179.9999999999967
  0
ARC
  5
3A8
330
1A
100
AcDbEntity
  8
SEIHIN
100
AcDbCircle
 10
209.3345530188164
 20
266.9527176899014
 30
0.0
 40
29.45934875145827
100
AcDbArc
 50
184.4576050620454
 51
202.4327282228234
  0
ARC
  5
3A9
330
1A
100
AcDbEntity
  8
SEIHIN
100
AcDbCircle
 10
194.3743567924819
 20
265.952242528746
 30
0.0
 40
14.16587859488748
100
AcDbArc
 50
179.1226453928976
 51
212.8697687525899
  0
ARC
  5
3AA
330
1A
100
AcDbEntity
  8
SEIHIN
100
AcDbCircle
 10
179.7101975886409
 20
266.176808341783
 30
0.0
 40
0.5
100
AcDbArc
 50
359.1226453928982
 51
90.00000000000003
  0
ARC
  5
3AB
330
1A
100
AcDbEntity
  8
SEIHIN
100
AcDbCircle
 10
179.4718161402375
 20
264.576813786457
 30
0.0
 40
0.5
100
AcDbArc
 50
5.27317013024769
 51
90.00000000000003
  0
ARC
  5
3AC
330
1A
100
AcDbEntity
  8
SEIHIN
100
AcDbCircle
 10
182.0563922998992
 20
257.9926102684328
 30
0.0
 40
0.5
100
AcDbArc
 50
359.9999999999772
 51
32.86976875264214
  0
ARC
  5
3AD
330
1A
100
AcDbEntity
  8
SEIHIN
100
AcDbCircle
 10
181.6422818271519
 20
255.5202772741893
 30
0.0
 40
0.5
100
AcDbArc
 50
0.0000000000032709
 51
22.43272822282889
  0
LINE
  5
3AE
330
1A
100
AcDbEntity
  8
SEIHIN
100
AcDbLine
 10
126.4417237999141
 20
266.6768137311309
 30
0.0
 11
179.7101975886409
 21
266.676808341783
 31
0.0
  0
DIMENSION
  5
3B1
330
1A
100
AcDbEntity
  8
SUNPOU
100
AcDbDimension
  2
*D1
 10
119.6895941165448
 20
116.2125820942123
 30
0.0
 11
115.7806592750532
 21
104.1183590260463
 31
0.0
 70
    34
  3
STANDARD
100
AcDb2LineAngularDimension
 13
126.451074899898
 23
125.0243154124313
 33
0.0
 14
126.451074899898
 24
46.5082181562283
 34
0.0
 15
185.180653099898
 25
133.7608584862282
 35
0.0
 16
111.1086797926361
 26
105.1505173301037
 36
0.0
1001
ACAD
1000
DSTYLE
1002
{
1070
   271
1070
     0
1070
   271
1070
     0
1070
   271
1070
     0
1070
   271
1070
     0
1070
   271
1070
     0
1070
   271
1070
     0
1070
    41
1040
3.0
1070
    42
1040
3.0
1070
    43
1040
7.0
1070
    44
1040
1.5
1070
    73
1070
     0
1070
    74
1070
     0
1070
    77
1070
     3
1070
   140
1040
3.0
1070
   141
1040
3.0
1070
   147
1040
1.0
1070
   172
1070
     1
1070
   173
1070
     1
1070
   176
1070
   256
1070
   177
1070
   256
1070
   178
1070
   256
1070
   271
1070
     0
1070
   272
1070
     0
1070
   341
1005
B2
1070
     6
1000
OPEN
1070
     7
1000
OPEN
1002
}
  0
DIMENSION
  5
3C1
330
1A
100
AcDbEntity
  8
SUNPOU
100
AcDbDimension
  2
*D2
 10
158.401074899898
 20
29.47212200253295
 30
0.0
 11
126.451074899898
 21
31.97212200253295
 31
0.0
 70
    32
  3
STANDARD
100
AcDbAlignedDimension
 13
94.50107489989809
 23
51.5082181562283
 33
0.0
 14
158.401074899898
 24
51.5082181562283
 34
0.0
100
AcDbRotatedDimension
1001
ACAD
1000
DSTYLE
1002
{
1070
    41
1040
3.0
1070
    42
1040
3.0
1070
    43
1040
7.0
1070
    44
1040
1.5
1070
    73
1070
     0
1070
    74
1070
     0
1070
    77
1070
     3
1070
   140
1040
3.0
1070
   141
1040
3.0
1070
   147
1040
1.0
1070
   172
1070
     1
1070
   173
1070
     1
1070
   176
1070
   256
1070
   177
1070
   256
1070
   178
1070
   256
1070
   271
1070
     0
1070
   272
1070
     0
1070
   341
1005
B2
1070
     6
1000
OPEN
1070
     7
1000
OPEN
1002
}
  0
DIMENSION
  5
3CE
330
1A
100
AcDbEntity
  8
SUNPOU
100
AcDbDimension
  2
*D3
 10
310.9611860605399
 20
28.97212200253295
 30
0.0
 11
279.0111860605398
 21
31.47212200253295
 31
0.0
 70
    32
  3
STANDARD
100
AcDbAlignedDimension
 13
247.0611860605398
 23
51.5082181662283
 33
0.0
 14
310.9611860605399
 24
51.5082181562283
 34
0.0
100
AcDbRotatedDimension
1001
ACAD
1000
DSTYLE
1002
{
1070
    41
1040
3.0
1070
    42
1040
3.0
1070
    43
1040
7.0
1070
    44
1040
1.5
1070
    73
1070
     0
1070
    74
1070
     0
1070
    77
1070
     3
1070
   140
1040
3.0
1070
   141
1040
3.0
1070
   147
1040
1.0
1070
   172
1070
     1
1070
   173
1070
     1
1070
   176
1070
   256
1070
   177
1070
   256
1070
   178
1070
   256
1070
   271
1070
     0
1070
   272
1070
     0
1070
   341
1005
B2
1070
     6
1000
OPEN
1070
     7
1000
OPEN
1002
}
  0
DIMENSION
  5
3E4
330
1A
100
AcDbEntity
  8
SUNPOU
100
AcDbDimension
  2
*D4
 10
182.5790110075388
 20
76.5082181562283
 30
0.0
 11
180.0790110075388
 21
64.00821815622832
 31
0.0
 70
    32
  3
STANDARD
100
AcDbAlignedDimension
 13
158.401074899898
 23
51.5082181562283
 33
0.0
 14
158.401074899898
 24
76.50821815622831
 34
0.0
 50
90.0
100
AcDbRotatedDimension
1001
ACAD
1000
DSTYLE
1002
{
1070
    41
1040
3.0
1070
    42
1040
3.0
1070
    43
1040
7.0
1070
    44
1040
1.5
1070
    73
1070
     0
1070
    74
1070
     0
1070
    77
1070
     3
1070
   140
1040
3.0
1070
   141
1040
3.0
1070
   147
1040
1.0
1070
   172
1070
     1
1070
   173
1070
     1
1070
   176
1070
   256
1070
   177
1070
   256
1070
   178
1070
   256
1070
   271
1070
     0
1070
   272
1070
     0
1070
   341
1005
B2
1070
     6
1000
OPEN
1070
     7
1000
OPEN
1002
}
  0
DIMENSION
  5
3F1
330
1A
100
AcDbEntity
  8
SUNPOU
100
AcDbDimension
  2
*D5
 10
71.75218042052121
 20
91.5082181562283
 30
0.0
 11
69.2521804205212
 21
71.50821815622831
 31
0.0
 70
    32
  3
STANDARD
100
AcDbAlignedDimension
 13
94.50107489989809
 23
51.5082181562283
 33
0.0
 14
94.50107489989809
 24
91.5082181562283
 34
0.0
 50
90.0
100
AcDbRotatedDimension
1001
ACAD
1000
DSTYLE
1002
{
1070
    41
1040
3.0
1070
    42
1040
3.0
1070
    43
1040
7.0
1070
    44
1040
1.5
1070
    73
1070
     0
1070
    74
1070
     0
1070
    77
1070
     3
1070
   140
1040
3.0
1070
   141
1040
3.0
1070
   147
1040
1.0
1070
   172
1070
     1
1070
   173
1070
     1
1070
   176
1070
   256
1070
   177
1070
   256
1070
   178
1070
   256
1070
   271
1070
     0
1070
   272
1070
     0
1070
   341
1005
B2
1070
     6
1000
OPEN
1070
     7
1000
OPEN
1002
}
  0
DIMENSION
  5
3FE
330
1A
100
AcDbEntity
  8
SUNPOU
100
AcDbDimension
  2
*D6
 10
61.19724330039798
 20
118.0243154124313
 30
0.0
 11
58.69724330039796
 21
84.76626678432984
 31
0.0
 70
    32
  3
STANDARD
100
AcDbAlignedDimension
 13
94.50107489989809
 23
51.5082181562283
 33
0.0
 14
126.451074899898
 24
118.0243154124313
 34
0.0
 50
90.0
100
AcDbRotatedDimension
1001
ACAD
1000
DSTYLE
1002
{
1070
    41
1040
3.0
1070
    42
1040
3.0
1070
    43
1040
7.0
1070
    44
1040
1.5
1070
    73
1070
     0
1070
    74
1070
     0
1070
    77
1070
     3
1070
   140
1040
3.0
1070
   141
1040
3.0
1070
   147
1040
1.0
1070
   172
1070
     1
1070
   173
1070
     1
1070
   176
1070
   256
1070
   177
1070
   256
1070
   178
1070
   256
1070
   271
1070
     0
1070
   272
1070
     0
1070
   341
1005
B2
1070
     6
1000
OPEN
1070
     7
1000
OPEN
1002
}
  0
DIMENSION
  5
40B
330
1A
100
AcDbEntity
  8
SUNPOU
100
AcDbDimension
  2
*D7
 10
138.1976718287867
 20
168.9370318027375
 30
0.0
 11
149.6246970415781
 21
174.5870844384418
 31
0.0
 70
    33
  3
STANDARD
100
AcDbAlignedDimension
 13
166.0178553066864
 23
161.7032762459774
 33
0.0
 14
141.8697096529705
 24
155.2328001053118
 34
0.0
1001
ACAD
1000
DSTYLE
1002
{
1070
    41
1040
3.0
1070
    42
1040
3.0
1070
    43
1040
7.0
1070
    44
1040
1.5
1070
    73
1070
     0
1070
    74
1070
     0
1070
    77
1070
     3
1070
   140
1040
3.0
1070
   141
1040
3.0
1070
   147
1040
1.0
1070
   172
1070
     1
1070
   173
1070
     1
1070
   176
1070
   256
1070
   177
1070
   256
1070
   178
1070
   256
1070
   271
1070
     0
1070
   272
1070
     0
1070
   341
1005
B2
1070
     6
1000
OPEN
1070
     7
1000
OPEN
1002
}
  0
DIMENSION
  5
418
330
1A
100
AcDbEntity
  8
SUNPOU
100
AcDbDimension
  2
*D8
 10
112.066044044589
 20
171.709981353448
 30
0.0
 11
135.3370208841295
 21
180.5336112651951
 31
0.0
 70
    33
  3
STANDARD
100
AcDbAlignedDimension
 13
174.2871238062783
 23
130.8419461049588
 33
0.0
 14
126.451074899898
 24
118.0243154124313
 34
0.0
1001
ACAD
1000
DSTYLE
1002
{
1070
    41
1040
3.0
1070
    42
1040
3.0
1070
    43
1040
7.0
1070
    44
1040
1.5
1070
    73
1070
     0
1070
    74
1070
     0
1070
    77
1070
     3
1070
   140
1040
3.0
1070
   141
1040
3.0
1070
   147
1040
1.0
1070
   172
1070
     1
1070
   173
1070
     1
1070
   176
1070
   256
1070
   177
1070
   256
1070
   178
1070
   256
1070
   271
1070
     0
1070
   272
1070
     0
1070
   341
1005
B2
1070
     6
1000
OPEN
1070
     7
1000
OPEN
1002
}
  0
DIMENSION
  5
425
330
1A
100
AcDbEntity
  8
SUNPOU
100
AcDbDimension
  2
*D9
 10
205.5027983100063
 20
106.1290869539793
 30
0.0
 11
199.6483443789089
 21
137.63746469741
 31
0.0
 70
    33
  3
STANDARD
100
AcDbAlignedDimension
 13
166.0178553066864
 23
161.7032762459774
 33
0.0
 14
182.556392299898
 24
99.98061598622831
 34
0.0
1001
ACAD
1000
DSTYLE
1002
{
1070
    41
1040
3.0
1070
    42
1040
3.0
1070
    43
1040
7.0
1070
    44
1040
1.5
1070
    73
1070
     0
1070
    74
1070
     0
1070
    77
1070
     3
1070
   140
1040
3.0
1070
   141
1040
3.0
1070
   147
1040
1.0
1070
   172
1070
     1
1070
   173
1070
     1
1070
   176
1070
   256
1070
   177
1070
   256
1070
   178
1070
   256
1070
   271
1070
     0
1070
   272
1070
     0
1070
   341
1005
B2
1070
     6
1000
OPEN
1070
     7
1000
OPEN
1002
}
  0
DIMENSION
  5
432
330
1A
100
AcDbEntity
  8
SUNPOU
100
AcDbDimension
  2
*D10
 10
310.9611860605399
 20
181.0844309825877
 30
0.0
 11
279.0111860605398
 21
183.5844309825877
 31
0.0
 70
    32
  3
STANDARD
100
AcDbAlignedDimension
 13
247.0611860605398
 23
152.0601272862283
 33
0.0
 14
310.9611860605399
 24
152.0601272862283
 34
0.0
100
AcDbRotatedDimension
1001
ACAD
1000
DSTYLE
1002
{
1070
    41
1040
3.0
1070
    42
1040
3.0
1070
    43
1040
7.0
1070
    44
1040
1.5
1070
    73
1070
     0
1070
    74
1070
     0
1070
    77
1070
     3
1070
   140
1040
3.0
1070
   141
1040
3.0
1070
   147
1040
1.0
1070
   172
1070
     1
1070
   173
1070
     1
1070
   176
1070
   256
1070
   177
1070
   256
1070
   178
1070
   256
1070
   271
1070
     0
1070
   272
1070
     0
1070
   341
1005
B2
1070
     6
1000
OPEN
1070
     7
1000
OPEN
1002
}
  0
LINE
  5
441
330
1A
100
AcDbEntity
  8
CENTER_L
100
AcDbLine
 10
126.451074899898
 20
272.0846238895154
 30
0.0
 11
126.451074899898
 21
193.5685266333123
 31
0.0
  0
TEXT
  5
528
330
1A
100
AcDbEntity
  8
SUNPOU
 48
5.0
100
AcDbText
 10
310.1202948933157
 20
19.1764448133261
 30
0.0
 40
4.0
  1
※　たてといの差込み寸法を示す
100
AcDbText
  0
TEXT
  5
529
330
1A
100
AcDbEntity
  8
SUNPOU
 48
5.0
100
AcDbText
 10
152.104266203355
 20
176.9891291809893
 30
0.0
 40
4.0
  1
※
 50
15.0
100
AcDbText
  0
TEXT
  5
52A
330
1A
100
AcDbEntity
  8
SUNPOU
 48
5.0
100
AcDbText
 10
178.0276334679632
 20
67.28241826973536
 30
0.0
 40
4.0
  1
※
 50
90.0
100
AcDbText
  0
LINE
  5
645
330
1A
100
AcDbEntity
  8
CENTER_L
100
AcDbLine
 10
240.0611860605398
 20
130.8419461049588
 30
0.0
 11
317.9611860605398
 21
130.8419461049588
 31
0.0
  0
ARC
  5
75E
330
1A
100
AcDbEntity
  8
SEIHIN
  6
CONTINUOUS
 62
     3
 48
5.0
100
AcDbCircle
 10
94.45145301622792
 20
266.6541917422007
 30
0.0
 40
9.000072755827357
100
AcDbArc
 50
275.7379843006774
 51
354.6812287872167
  0
LINE
  5
762
330
1A
100
AcDbEntity
  8
SEIHIN
  6
CONTINUOUS
 62
     3
 48
5.0
100
AcDbLine
 10
126.4506748998978
 20
202.7267137864571
 30
0.0
 11
104.4078748998979
 21
202.7270137864571
 31
0.0
  0
ARC
  5
764
330
1A
100
AcDbEntity
  8
SEIHIN
  6
CONTINUOUS
 62
     3
 48
5.0
100
AcDbCircle
 10
94.45095851696832
 20
202.8001302894264
 30
0.0
 40
8.999968223005245
100
AcDbArc
 50
5.318868596914674
 51
84.26262385290394
  0
ARC
  5
765
330
1A
100
AcDbEntity
  8
SEIHIN
  6
CONTINUOUS
 62
     3
 48
5.0
100
AcDbCircle
 10
95.45078114985896
 20
212.750006876874
 30
0.0
 40
1.000006249984775
100
AcDbArc
 50
179.9996041125315
 51
264.2605056144403
  0
ARC
  5
767
330
1A
100
AcDbEntity
  8
SEIHIN
  6
CONTINUOUS
 62
     3
 48
5.0
100
AcDbCircle
 10
104.4078767516202
 20
203.7269120989541
 30
0.0
 40
0.9999983124988613
100
AcDbArc
 50
185.3131128373838
 51
269.9998939039472
  0
LINE
  5
76C
330
1A
100
AcDbEntity
  8
SEIHIN
  6
CONTINUOUS
 62
     3
 48
5.0
100
AcDbLine
 10
94.45077489991787
 20
212.7500159773126
 30
0.0
 11
94.45117489989796
 21
256.7042137864571
 31
0.0
  0
ARC
  5
770
330
1A
100
AcDbEntity
  8
SEIHIN
  6
CONTINUOUS
 62
     3
 48
5.0
100
AcDbCircle
 10
95.45118114985895
 20
256.7042206960401
 30
0.0
 40
1.000006249984867
100
AcDbArc
 50
95.73949438555805
 51
180.00039588747
  0
LINE
  5
774
330
1A
100
AcDbEntity
  8
SEIHIN
  6
CONTINUOUS
 62
     3
 48
5.0
100
AcDbLine
 10
126.451274899898
 20
266.726913786457
 30
0.0
 11
104.4084748998981
 21
266.7271137864571
 31
0.0
  0
ARC
  5
775
330
1A
100
AcDbEntity
  8
SEIHIN
  6
CONTINUOUS
 62
     3
 48
5.0
100
AcDbCircle
 10
104.4084716679915
 20
265.7271108414657
 30
0.0
 40
1.000002944996545
100
AcDbArc
 50
89.99981482593979
 51
174.6808909660761
  0
LINE
  5
7AC
330
1A
100
AcDbEntity
  8
CENTER_L
100
AcDbLine
 10
174.2976017227321
 20
270.4846239448414
 30
0.0
 11
174.2976017227321
 21
196.664397376342
 31
0.0
  0
LINE
  5
7AE
330
1A
100
AcDbEntity
  8
SEIHIN
100
AcDbLine
 10
256.165858440514
 20
99.98061601280229
 30
0.0
 11
256.165858440514
 21
93.50821818622829
 31
0.0
  0
LINE
  5
7AF
330
1A
100
AcDbEntity
  8
SEIHIN
100
AcDbLine
 10
301.8565136805656
 20
99.98061601280229
 30
0.0
 11
301.8565136805656
 21
93.50821818622829
 31
0.0
  0
VIEWPORT
  5
22
330
17
100
AcDbEntity
 67
     1
  8
0
100
AcDbViewport
 10
313.6808219178082
 20
148.5
 30
0.0
 40
627.3616438356165
 41
297.0
 68
     2
 69
     1
1001
ACAD
1000
MVIEW
1002
{
1070
    16
1010
0.0
1020
0.0
1030
0.0
1010
0.0
1020
0.0
1030
1.0
1040
0.0
1040
297.0
1040
313.6808219178082
1040
148.5
1040
50.0
1040
0.0
1040
0.0
1070
     0
1070
   100
1070
     1
1070
     0
1070
     0
1070
     0
1070
     0
1070
     0
1040
0.0
1040
0.0
1040
0.0
1040
1.0
1040
1.0
1040
10.0
1040
10.0
1070
     0
1002
{
1002
}
1002
}
  0
VIEWPORT
  5
64
330
17
100
AcDbEntity
 67
     1
  8
VIEWPORT
100
AcDbViewport
 10
210.0
 20
148.5
 30
0.0
 40
420.0
 41
297.0
 68
     1
 69
     2
1001
ACAD
1000
MVIEW
1002
{
1070
    16
1010
0.0
1020
0.0
1030
0.0
1010
0.0
1020
0.0
1030
1.0
1040
0.0
1040
302.9399999999998
1040
210.0
1040
148.5
1040
50.0
1040
0.0
1040
0.0
1070
     0
1070
   100
1070
     1
1070
     0
1070
     0
1070
     0
1070
     0
1070
     0
1040
0.0
1040
0.0
1040
0.0
1040
5.0
1040
5.0
1040
0.0
1040
0.0
1070
     0
1002
{
1002
}
1002
}
  0
ENDSEC
  0
SECTION
  2
OBJECTS
  0
DICTIONARY
  5
C
330
0
100
AcDbDictionary
  3
ACAD_GROUP
350
D
  3
ACAD_LAYOUT
350
141
  3
ACAD_MLINESTYLE
350
E
  3
ACAD_PLOTSETTINGS
350
142
1001
ACAD
1000
TREAT_AS_HARD
1070
     0
  0
DICTIONARY
  5
5DE
330
1A
100
AcDbDictionary
  3
ACAD_LAYOUTSELFREF
350
837
1001
ACAD
1000
TREAT_AS_HARD
1070
     1
  0
DICTIONARY
  5
5DC
330
17
100
AcDbDictionary
  3
ACAD_LAYOUTSELFREF
350
836
1001
ACAD
1000
TREAT_AS_HARD
1070
     1
  0
DICTIONARY
  5
D
102
{ACAD_REACTORS
330
C
102
}
330
C
100
AcDbDictionary
1001
ACAD
1000
TREAT_AS_HARD
1070
     0
  0
DICTIONARY
  5
141
102
{ACAD_REACTORS
330
C
102
}
330
C
100
AcDbDictionary
1001
ACAD
1000
TREAT_AS_HARD
1070
     0
  0
DICTIONARY
  5
E
102
{ACAD_REACTORS
330
C
102
}
330
C
100
AcDbDictionary
  3
STANDARD
350
13
1001
ACAD
1000
TREAT_AS_HARD
1070
     0
  0
DICTIONARY
  5
142
102
{ACAD_REACTORS
330
C
102
}
330
C
100
AcDbDictionary
1001
ACAD
1000
TREAT_AS_HARD
1070
     0
  0
XRECORD
  5
837
102
{ACAD_REACTORS
330
5DE
102
}
330
5DE
100
AcDbXrecord
340
1A
  0
XRECORD
  5
836
102
{ACAD_REACTORS
330
5DC
102
}
330
5DC
100
AcDbXrecord
340
17
  0
MLINESTYLE
  5
13
102
{ACAD_REACTORS
330
E
102
}
330
E
100
AcDbMlineStyle
  2
STANDARD
 70
     0
  3

 62
     0
 51
90.0
 52
90.0
 71
     2
 49
0.5
 62
   256
  6
BYLAYER
 49
-0.5
 62
   256
  6
BYLAYER
  0
ENDSEC
  0
EOF
