  0
SECTION
  2
HEADER
  9
$ACADVER
  1
AC1015
  9
$ACADMAINTVER
 70
    20
  9
$DWGCODEPAGE
  3
ANSI_932
  9
$INSBASE
 10
0.0
 20
0.0
 30
0.0
  9
$EXTMIN
 10
931.2350528628467
 20
13.84409676726432
 30
0.0
  9
$EXTMAX
 10
1728.835052862847
 20
565.4440967672655
 30
0.0
  9
$LIMMIN
 10
0.0
 20
0.0
  9
$LIMMAX
 10
840.0
 20
594.0
  9
$ORTHOMODE
 70
     1
  9
$REGENMODE
 70
     1
  9
$FILLMODE
 70
     1
  9
$QTEXTMODE
 70
     0
  9
$MIRRTEXT
 70
     1
  9
$LTSCALE
 40
2.0
  9
$ATTMODE
 70
     1
  9
$TEXTSIZE
 40
5.0
  9
$TRACEWID
 40
1.0
  9
$TEXTSTYLE
  7
STANDARD
  9
$CLAYER
  8
NOKITOI
  9
$CELTYPE
  6
BYLAYER
  9
$CECOLOR
 62
   256
  9
$CELTSCALE
 40
1.0
  9
$DISPSILH
 70
     0
  9
$DIMSCALE
 40
1.0
  9
$DIMASZ
 40
7.0
  9
$DIMEXO
 40
6.0
  9
$DIMDLI
 40
14.0
  9
$DIMRND
 40
0.0
  9
$DIMDLE
 40
0.0
  9
$DIMEXE
 40
3.0
  9
$DIMTP
 40
0.0
  9
$DIMTM
 40
0.0
  9
$DIMTXT
 40
6.0
  9
$DIMCEN
 40
150.0
  9
$DIMTSZ
 40
0.0
  9
$DIMTOL
 70
     0
  9
$DIMLIM
 70
     0
  9
$DIMTIH
 70
     0
  9
$DIMTOH
 70
     0
  9
$DIMSE1
 70
     0
  9
$DIMSE2
 70
     0
  9
$DIMTAD
 70
     3
  9
$DIMZIN
 70
     0
  9
$DIMBLK
  1

  9
$DIMASO
 70
     1
  9
$DIMSHO
 70
     1
  9
$DIMPOST
  1

  9
$DIMAPOST
  1

  9
$DIMALT
 70
     0
  9
$DIMALTD
 70
     2
  9
$DIMALTF
 40
25.4
  9
$DIMLFAC
 40
1.0
  9
$DIMTOFL
 70
     1
  9
$DIMTVP
 40
0.0
  9
$DIMTIX
 70
     0
  9
$DIMSOXD
 70
     0
  9
$DIMSAH
 70
     1
  9
$DIMBLK1
  1
OPEN
  9
$DIMBLK2
  1
OPEN
  9
$DIMSTYLE
  2
DIM-2
  9
$DIMCLRD
 70
   256
  9
$DIMCLRE
 70
   256
  9
$DIMCLRT
 70
   256
  9
$DIMTFAC
 40
1.0
  9
$DIMGAP
 40
2.0
  9
$DIMJUST
 70
     0
  9
$DIMSD1
 70
     0
  9
$DIMSD2
 70
     0
  9
$DIMTOLJ
 70
     1
  9
$DIMTZIN
 70
     0
  9
$DIMALTZ
 70
     0
  9
$DIMALTTZ
 70
     0
  9
$DIMUPT
 70
     0
  9
$DIMDEC
 70
     0
  9
$DIMTDEC
 70
     0
  9
$DIMALTU
 70
     2
  9
$DIMALTTD
 70
     2
  9
$DIMTXSTY
  7
STANDARD
  9
$DIMAUNIT
 70
     0
  9
$DIMADEC
 70
     0
  9
$DIMALTRND
 40
0.0
  9
$DIMAZIN
 70
     0
  9
$DIMDSEP
 70
    46
  9
$DIMATFIT
 70
     3
  9
$DIMFRAC
 70
     0
  9
$DIMLDRBLK
  1
OPEN
  9
$DIMLUNIT
 70
     2
  9
$DIMLWD
 70
    -1
  9
$DIMLWE
 70
    -1
  9
$DIMTMOVE
 70
     0
  9
$LUNITS
 70
     2
  9
$LUPREC
 70
     4
  9
$SKETCHINC
 40
1.0
  9
$FILLETRAD
 40
20.0
  9
$AUNITS
 70
     0
  9
$AUPREC
 70
     0
  9
$MENU
  1
.
  9
$ELEVATION
 40
0.0
  9
$PELEVATION
 40
0.0
  9
$THICKNESS
 40
0.0
  9
$LIMCHECK
 70
     0
  9
$CHAMFERA
 40
0.0
  9
$CHAMFERB
 40
0.0
  9
$CHAMFERC
 40
40.0
  9
$CHAMFERD
 40
0.0
  9
$SKPOLY
 70
     0
  9
$TDCREATE
 40
2450994.354346065
  9
$TDUCREATE
 40
2450993.979346065
  9
$TDUPDATE
 40
2456346.366777882
  9
$TDUUPDATE
 40
2456345.991777882
  9
$TDINDWG
 40
0.0394963657
  9
$TDUSRTIMER
 40
0.0394963657
  9
$USRTIMER
 70
     1
  9
$ANGBASE
 50
0.0
  9
$ANGDIR
 70
     0
  9
$PDMODE
 70
     1
  9
$PDSIZE
 40
0.0
  9
$PLINEWID
 40
0.0
  9
$SPLFRAME
 70
     0
  9
$SPLINETYPE
 70
     6
  9
$SPLINESEGS
 70
     8
  9
$HANDSEED
  5
426C
  9
$SURFTAB1
 70
     6
  9
$SURFTAB2
 70
     6
  9
$SURFTYPE
 70
     6
  9
$SURFU
 70
     6
  9
$SURFV
 70
     6
  9
$UCSBASE
  2

  9
$UCSNAME
  2

  9
$UCSORG
 10
0.0
 20
0.0
 30
0.0
  9
$UCSXDIR
 10
1.0
 20
0.0
 30
0.0
  9
$UCSYDIR
 10
0.0
 20
1.0
 30
0.0
  9
$UCSORTHOREF
  2

  9
$UCSORTHOVIEW
 70
     0
  9
$UCSORGTOP
 10
0.0
 20
0.0
 30
0.0
  9
$UCSORGBOTTOM
 10
0.0
 20
0.0
 30
0.0
  9
$UCSORGLEFT
 10
0.0
 20
0.0
 30
0.0
  9
$UCSORGRIGHT
 10
0.0
 20
0.0
 30
0.0
  9
$UCSORGFRONT
 10
0.0
 20
0.0
 30
0.0
  9
$UCSORGBACK
 10
0.0
 20
0.0
 30
0.0
  9
$PUCSBASE
  2

  9
$PUCSNAME
  2

  9
$PUCSORG
 10
0.0
 20
0.0
 30
0.0
  9
$PUCSXDIR
 10
1.0
 20
0.0
 30
0.0
  9
$PUCSYDIR
 10
0.0
 20
1.0
 30
0.0
  9
$PUCSORTHOREF
  2

  9
$PUCSORTHOVIEW
 70
     0
  9
$PUCSORGTOP
 10
0.0
 20
0.0
 30
0.0
  9
$PUCSORGBOTTOM
 10
0.0
 20
0.0
 30
0.0
  9
$PUCSORGLEFT
 10
0.0
 20
0.0
 30
0.0
  9
$PUCSORGRIGHT
 10
0.0
 20
0.0
 30
0.0
  9
$PUCSORGFRONT
 10
0.0
 20
0.0
 30
0.0
  9
$PUCSORGBACK
 10
0.0
 20
0.0
 30
0.0
  9
$USERI1
 70
     0
  9
$USERI2
 70
     0
  9
$USERI3
 70
     0
  9
$USERI4
 70
     0
  9
$USERI5
 70
     0
  9
$USERR1
 40
0.0
  9
$USERR2
 40
0.0
  9
$USERR3
 40
0.0
  9
$USERR4
 40
0.0
  9
$USERR5
 40
0.0
  9
$WORLDVIEW
 70
     1
  9
$SHADEDGE
 70
     3
  9
$SHADEDIF
 70
    70
  9
$TILEMODE
 70
     1
  9
$MAXACTVP
 70
    16
  9
$PINSBASE
 10
0.0
 20
0.0
 30
0.0
  9
$PLIMCHECK
 70
     0
  9
$PEXTMIN
 10
-6.094679861120994
 20
-0.0090630292066862
 30
-0.0015258207003583
  9
$PEXTMAX
 10
426.3334264162613
 20
336.6913888801773
 30
0.0000000349246037
  9
$PLIMMIN
 10
-10.01343682308299
 20
-10.00967368473416
  9
$PLIMMAX
 10
430.0134290162437
 20
330.0110840973768
  9
$UNITMODE
 70
     0
  9
$VISRETAIN
 70
     0
  9
$PLINEGEN
 70
     0
  9
$PSLTSCALE
 70
     1
  9
$TREEDEPTH
 70
  3020
  9
$CMLSTYLE
  2
STANDARD
  9
$CMLJUST
 70
     0
  9
$CMLSCALE
 40
1.0
  9
$PROXYGRAPHICS
 70
     1
  9
$MEASUREMENT
 70
     1
  9
$CELWEIGHT
370
    -1
  9
$ENDCAPS
280
     0
  9
$JOINSTYLE
280
     0
  9
$LWDISPLAY
290
     0
  9
$INSUNITS
 70
     0
  9
$HYPERLINKBASE
  1

  9
$STYLESHEET
  1
print.ctb
  9
$XEDIT
290
     1
  9
$CEPSNTYPE
380
     0
  9
$PSTYLEMODE
290
     1
  9
$FINGERPRINTGUID
  2
{C56778C1-A286-4FAB-9BA7-CCD46472B6EF}
  9
$VERSIONGUID
  2
{FA970B1D-16D0-4155-878B-93F84F2E2E72}
  9
$EXTNAMES
290
     1
  9
$PSVPSCALE
 40
0.0
  9
$OLESTARTUP
290
     0
  0
ENDSEC
  0
SECTION
  2
CLASSES
  0
CLASS
  1
ACDBDICTIONARYWDFLT
  2
AcDbDictionaryWithDefault
  3
ObjectDBX Classes
 90
        0
280
     0
281
     0
  0
CLASS
  1
ACDBPLACEHOLDER
  2
AcDbPlaceHolder
  3
ObjectDBX Classes
 90
        0
280
     0
281
     0
  0
CLASS
  1
LAYOUT
  2
AcDbLayout
  3
ObjectDBX Classes
 90
        0
280
     0
281
     0
  0
CLASS
  1
DIMASSOC
  2
AcDbDimAssoc
  3
"AcDbDimAssoc|Product Desc:     AcDim ARX App For Dimension|Company:          Autodesk, Inc.|WEB Address:      www.autodesk.com"
 90
        0
280
     0
281
     0
  0
CLASS
  1
DICTIONARYVAR
  2
AcDbDictionaryVar
  3
ObjectDBX Classes
 90
        0
280
     0
281
     0
  0
ENDSEC
  0
SECTION
  2
TABLES
  0
TABLE
  2
VPORT
  5
8
330
0
100
AcDbSymbolTable
 70
     2
  0
VPORT
  5
4260
330
8
100
AcDbSymbolTableRecord
100
AcDbViewportTableRecord
  2
*Active
 70
     0
 10
0.0
 20
0.0
 11
1.0
 21
1.0
 12
1544.237807175726
 22
293.8779601101053
 13
0.0
 23
0.0
 14
5.0
 24
5.0
 15
0.0
 25
0.0
 16
0.0
 26
0.0
 36
1.0
 17
0.0
 27
0.0
 37
0.0
 40
828.2949859954934
 41
2.028189910979228
 42
50.0
 43
0.0
 44
0.0
 50
0.0
 51
0.0
 71
     0
 72
   100
 73
     1
 74
     0
 75
     0
 76
     0
 77
     0
 78
     0
281
     0
 65
     1
110
0.0
120
0.0
130
0.0
111
1.0
121
0.0
131
0.0
112
0.0
122
1.0
132
0.0
 79
     0
146
0.0
  0
ENDTAB
  0
TABLE
  2
LTYPE
  5
5
330
0
100
AcDbSymbolTable
 70
     4
  0
LTYPE
  5
14
330
5
100
AcDbSymbolTableRecord
100
AcDbLinetypeTableRecord
  2
BYBLOCK
 70
     0
  3

 72
    65
 73
     0
 40
0.0
  0
LTYPE
  5
15
330
5
100
AcDbSymbolTableRecord
100
AcDbLinetypeTableRecord
  2
BYLAYER
 70
     0
  3

 72
    65
 73
     0
 40
0.0
  0
LTYPE
  5
16
330
5
100
AcDbSymbolTableRecord
100
AcDbLinetypeTableRecord
  2
CONTINUOUS
 70
     0
  3
Solid line
 72
    65
 73
     0
 40
0.0
  0
LTYPE
  5
115
330
5
100
AcDbSymbolTableRecord
100
AcDbLinetypeTableRecord
  2
PHANTOM
 70
     0
  3
______  __  __  ______  __  __  ______  __  __ 
 72
    65
 73
     6
 40
2.5
 49
1.25
 74
     0
 49
-0.25
 74
     0
 49
0.25
 74
     0
 49
-0.25
 74
     0
 49
0.25
 74
     0
 49
-0.25
 74
     0
  0
LTYPE
  5
135
330
5
100
AcDbSymbolTableRecord
100
AcDbLinetypeTableRecord
  2
CENTER
 70
     0
  3
____ _ ____ _ ____ _ ____ _ ____ _ ____ _ ____ 
 72
    65
 73
     4
 40
2.0
 49
1.25
 74
     0
 49
-0.25
 74
     0
 49
0.25
 74
     0
 49
-0.25
 74
     0
  0
LTYPE
  5
32B1
330
5
100
AcDbSymbolTableRecord
100
AcDbLinetypeTableRecord
  2
SLD-実線
 70
     0
  3
SolidWorks Line Style
 72
    65
 73
     0
 40
0.0
  0
ENDTAB
  0
TABLE
  2
LAYER
  5
2
102
{ACAD_XDICTIONARY
360
32B7
102
}
330
0
100
AcDbSymbolTable
 70
    11
  0
LAYER
  5
F
330
2
100
AcDbSymbolTableRecord
100
AcDbLayerTableRecord
  2
0
 70
     0
 62
     7
  6
CONTINUOUS
370
    -3
390
673
  0
LAYER
  5
62
330
2
100
AcDbSymbolTableRecord
100
AcDbLayerTableRecord
  2
VIEWPORT
 70
     0
 62
     7
  6
CONTINUOUS
370
    -3
390
673
  0
LAYER
  5
65
330
2
100
AcDbSymbolTableRecord
100
AcDbLayerTableRecord
  2
ZUWAKU
 70
     0
 62
     7
  6
CONTINUOUS
370
    -3
390
673
  0
LAYER
  5
1EA
330
2
100
AcDbSymbolTableRecord
100
AcDbLayerTableRecord
  2
SEIHIN
 70
     0
 62
     3
  6
CONTINUOUS
370
    -3
390
673
  0
LAYER
  5
1EB
330
2
100
AcDbSymbolTableRecord
100
AcDbLayerTableRecord
  2
SUNPOU
 70
     0
 62
     4
  6
CONTINUOUS
370
    -3
390
673
  0
LAYER
  5
1ED
330
2
100
AcDbSymbolTableRecord
100
AcDbLayerTableRecord
  2
NOKITOI
 70
     0
 62
     8
  6
PHANTOM
370
    -3
390
673
  0
LAYER
  5
1EE
330
2
100
AcDbSymbolTableRecord
100
AcDbLayerTableRecord
  2
DEFPOINTS
 70
     0
 62
     7
  6
CONTINUOUS
290
     0
370
    -3
390
673
  0
LAYER
  5
6B1
330
2
100
AcDbSymbolTableRecord
100
AcDbLayerTableRecord
  2
moji
 70
     0
 62
     2
  6
CONTINUOUS
370
    -3
390
673
  0
LAYER
  5
28BC
330
2
100
AcDbSymbolTableRecord
100
AcDbLayerTableRecord
  2
CENTER_L
 70
     0
 62
     1
  6
CENTER
370
    -3
390
673
  0
LAYER
  5
28BD
330
2
100
AcDbSymbolTableRecord
100
AcDbLayerTableRecord
  2
LAYER0
 70
     0
 62
     7
  6
CONTINUOUS
370
    -3
390
673
  0
LAYER
  5
32B2
102
{ACAD_XDICTIONARY
360
32B3
102
}
330
2
100
AcDbSymbolTableRecord
100
AcDbLayerTableRecord
  2
0_______
 70
     0
 62
     7
  6
SLD-実線
370
    -3
390
673
  0
ENDTAB
  0
TABLE
  2
STYLE
  5
3
330
0
100
AcDbSymbolTable
 70
     3
  0
STYLE
  5
10
330
3
100
AcDbSymbolTableRecord
100
AcDbTextStyleTableRecord
  2
STANDARD
 70
     0
 40
0.0
 41
1.0
 50
0.0
 71
     0
 42
5.0
  3
TXT
  4
bigfont.shx
  0
STYLE
  5
6B2
330
3
100
AcDbSymbolTableRecord
100
AcDbTextStyleTableRecord
  2
ｽﾀｲﾙ1
 70
     0
 40
0.0
 41
1.0
 50
0.0
 71
     0
 42
2.5
  3
MS PGothic.ttf
  4

1001
ACAD
1000
MS PGothic
1071
    32818
  0
STYLE
  5
32B5
330
3
100
AcDbSymbolTableRecord
100
AcDbTextStyleTableRecord
  2
MS
 70
     0
 40
0.0
 41
1.0
 50
0.0
 71
     0
 42
3.5
  3
MS Gothic.ttf
  4

1001
ACAD
1000
MS Gothic
1071
    32817
  0
ENDTAB
  0
TABLE
  2
VIEW
  5
6
330
0
100
AcDbSymbolTable
 70
     0
  0
ENDTAB
  0
TABLE
  2
UCS
  5
7
330
0
100
AcDbSymbolTable
 70
     0
  0
ENDTAB
  0
TABLE
  2
APPID
  5
9
330
0
100
AcDbSymbolTable
 70
     1
  0
APPID
  5
11
330
9
100
AcDbSymbolTableRecord
100
AcDbRegAppTableRecord
  2
ACAD
 70
     0
  0
ENDTAB
  0
TABLE
  2
DIMSTYLE
  5
A
330
0
100
AcDbSymbolTable
 70
     3
100
AcDbDimStyleTable
 71
     2
340
1D
340
CD1
  0
DIMSTYLE
105
1D
102
{ACAD_REACTORS
330
3DC6
330
4070
330
4074
330
4073
330
4071
330
3DC3
330
4072
330
4079
330
4075
330
4077
330
4076
330
41A3
330
420D
102
}
330
A
100
AcDbSymbolTableRecord
100
AcDbDimStyleTableRecord
  2
STANDARD
 70
     0
340
10
  0
DIMSTYLE
105
CD1
330
A
100
AcDbSymbolTableRecord
100
AcDbDimStyleTableRecord
  2
DIM-2
 70
     0
 41
7.0
 42
6.0
 43
14.0
 44
3.0
 73
     0
 74
     0
 77
     3
140
6.0
141
150.0
147
2.0
172
     1
173
     1
176
   256
177
   256
178
   256
271
     0
272
     0
340
10
341
6D
343
6D
344
6D
371
    -1
372
    -1
  0
DIMSTYLE
105
32B6
330
A
100
AcDbSymbolTableRecord
100
AcDbDimStyleTableRecord
  2
ISO-25
 70
     0
 41
2.5
 42
0.625
 43
3.75
 44
1.25
 73
     0
 74
     0
 77
     1
 78
     8
140
2.5
141
2.5
143
0.03937007874016
147
0.625
171
     3
172
     1
271
     2
272
     2
274
     3
279
     2
340
10
  0
ENDTAB
  0
TABLE
  2
BLOCK_RECORD
  5
1
330
0
100
AcDbSymbolTable
 70
    27
  0
BLOCK_RECORD
  5
1A
102
{ACAD_XDICTIONARY
360
6A3
102
}
330
1
100
AcDbSymbolTableRecord
100
AcDbBlockTableRecord
  2
*MODEL_SPACE
340
676
  0
BLOCK_RECORD
  5
17
102
{ACAD_XDICTIONARY
360
6A1
102
}
330
1
100
AcDbSymbolTableRecord
100
AcDbBlockTableRecord
  2
*PAPER_SPACE
340
677
  0
BLOCK_RECORD
  5
6D
330
1
100
AcDbSymbolTableRecord
100
AcDbBlockTableRecord
  2
_OPEN
340
0
102
{BLKREFS
331
4174
331
4175
331
4186
331
4187
331
418F
331
4190
331
4197
331
419D
331
419E
331
41CE
331
41CF
331
41D7
331
41D8
331
41E2
331
41E3
331
41EB
331
41EC
331
41F4
331
41F5
331
4205
331
4206
331
4226
331
4227
331
422D
331
422E
102
}
  0
BLOCK_RECORD
  5
27EA
330
1
100
AcDbSymbolTableRecord
100
AcDbBlockTableRecord
  2
CLUMP222
340
0
  0
BLOCK_RECORD
  5
27F1
330
1
100
AcDbSymbolTableRecord
100
AcDbBlockTableRecord
  2
CLUMP223
340
0
  0
BLOCK_RECORD
  5
27F6
330
1
100
AcDbSymbolTableRecord
100
AcDbBlockTableRecord
  2
CLUMP227
340
0
  0
BLOCK_RECORD
  5
27FB
330
1
100
AcDbSymbolTableRecord
100
AcDbBlockTableRecord
  2
CLUMP228
340
0
  0
BLOCK_RECORD
  5
2802
330
1
100
AcDbSymbolTableRecord
100
AcDbBlockTableRecord
  2
CLUMP229
340
0
  0
BLOCK_RECORD
  5
2807
330
1
100
AcDbSymbolTableRecord
100
AcDbBlockTableRecord
  2
CLUMP237
340
0
  0
BLOCK_RECORD
  5
280E
330
1
100
AcDbSymbolTableRecord
100
AcDbBlockTableRecord
  2
CLUMP238
340
0
  0
BLOCK_RECORD
  5
2813
330
1
100
AcDbSymbolTableRecord
100
AcDbBlockTableRecord
  2
CLUMP239
340
0
  0
BLOCK_RECORD
  5
281A
330
1
100
AcDbSymbolTableRecord
100
AcDbBlockTableRecord
  2
CLUMP244
340
0
  0
BLOCK_RECORD
  5
281F
330
1
100
AcDbSymbolTableRecord
100
AcDbBlockTableRecord
  2
CLUMP245
340
0
  0
BLOCK_RECORD
  5
3088
330
1
100
AcDbSymbolTableRecord
100
AcDbBlockTableRecord
  2
SW_CENTERMARKSYMBOL_4
340
0
102
{BLKREFS
331
3EDD
102
}
  0
BLOCK_RECORD
  5
3093
330
1
100
AcDbSymbolTableRecord
100
AcDbBlockTableRecord
  2
SW_CENTERMARKSYMBOL_5
340
0
102
{BLKREFS
331
3EDE
102
}
  0
BLOCK_RECORD
  5
38F5
330
1
100
AcDbSymbolTableRecord
100
AcDbBlockTableRecord
  2
*X13
340
0
102
{BLKREFS
331
4004
102
}
  0
BLOCK_RECORD
  5
407A
330
1
100
AcDbSymbolTableRecord
100
AcDbBlockTableRecord
  2
*D14
340
0
  0
BLOCK_RECORD
  5
4085
330
1
100
AcDbSymbolTableRecord
100
AcDbBlockTableRecord
  2
*D15
340
0
  0
BLOCK_RECORD
  5
4091
330
1
100
AcDbSymbolTableRecord
100
AcDbBlockTableRecord
  2
*D16
340
0
  0
BLOCK_RECORD
  5
409D
330
1
100
AcDbSymbolTableRecord
100
AcDbBlockTableRecord
  2
*D17
340
0
  0
BLOCK_RECORD
  5
40A9
330
1
100
AcDbSymbolTableRecord
100
AcDbBlockTableRecord
  2
*D18
340
0
  0
BLOCK_RECORD
  5
40B5
330
1
100
AcDbSymbolTableRecord
100
AcDbBlockTableRecord
  2
*D19
340
0
  0
BLOCK_RECORD
  5
40BF
330
1
100
AcDbSymbolTableRecord
100
AcDbBlockTableRecord
  2
*D20
340
0
  0
BLOCK_RECORD
  5
40CB
330
1
100
AcDbSymbolTableRecord
100
AcDbBlockTableRecord
  2
*D21
340
0
  0
BLOCK_RECORD
  5
40D3
330
1
100
AcDbSymbolTableRecord
100
AcDbBlockTableRecord
  2
*D22
340
0
  0
BLOCK_RECORD
  5
40DF
330
1
100
AcDbSymbolTableRecord
100
AcDbBlockTableRecord
  2
*D23
340
0
  0
BLOCK_RECORD
  5
40EB
330
1
100
AcDbSymbolTableRecord
100
AcDbBlockTableRecord
  2
*D24
340
0
  0
BLOCK_RECORD
  5
41A4
330
1
100
AcDbSymbolTableRecord
100
AcDbBlockTableRecord
  2
*D25
340
0
  0
BLOCK_RECORD
  5
420E
330
1
100
AcDbSymbolTableRecord
100
AcDbBlockTableRecord
  2
*D26
340
0
  0
ENDTAB
  0
ENDSEC
  0
SECTION
  2
BLOCKS
  0
BLOCK
  5
1B
330
1A
100
AcDbEntity
  8
0
100
AcDbBlockBegin
  2
*MODEL_SPACE
 70
     0
 10
0.0
 20
0.0
 30
0.0
  3
*MODEL_SPACE
  1

  0
ENDBLK
  5
1C
330
1A
100
AcDbEntity
  8
0
100
AcDbBlockEnd
  0
BLOCK
  5
18
330
17
100
AcDbEntity
 67
     1
  8
0
100
AcDbBlockBegin
  2
*PAPER_SPACE
 70
     0
 10
0.0
 20
0.0
 30
0.0
  3
*PAPER_SPACE
  1

  0
ENDBLK
  5
19
330
17
100
AcDbEntity
 67
     1
  8
0
100
AcDbBlockEnd
  0
BLOCK
  5
6E
330
6D
100
AcDbEntity
  8
0
100
AcDbBlockBegin
  2
_OPEN
 70
     0
 10
0.0
 20
0.0
 30
0.0
  3
_OPEN
  1

  0
LINE
  5
6F
330
6D
100
AcDbEntity
  8
0
  6
ByBlock
 62
     0
100
AcDbLine
 10
-1.0
 20
0.1666666666666666
 30
0.0
 11
0.0
 21
0.0
 31
0.0
  0
LINE
  5
70
330
6D
100
AcDbEntity
  8
0
  6
ByBlock
 62
     0
100
AcDbLine
 10
0.0
 20
0.0
 30
0.0
 11
-1.0
 21
-0.1666666666666666
 31
0.0
  0
LINE
  5
71
330
6D
100
AcDbEntity
  8
0
  6
ByBlock
 62
     0
100
AcDbLine
 10
0.0
 20
0.0
 30
0.0
 11
-1.0
 21
0.0
 31
0.0
  0
ENDBLK
  5
72
330
6D
100
AcDbEntity
  8
0
100
AcDbBlockEnd
  0
BLOCK
  5
27EF
330
27EA
100
AcDbEntity
  8
0
100
AcDbBlockBegin
  2
CLUMP222
 70
     0
 10
0.0
 20
0.0
 30
0.0
  3
CLUMP222
  1

  0
LINE
  5
27EB
330
27EA
100
AcDbEntity
  8
LAYER0
100
AcDbLine
 10
-156.3225718248999
 20
-89.6106105438
 30
0.0
 11
-156.3591346885
 21
-89.62252276500001
 31
0.0
  0
LINE
  5
27EC
330
27EA
100
AcDbEntity
  8
LAYER0
100
AcDbLine
 10
-156.3591346885
 20
-89.62252276500001
 30
0.0
 11
-156.5015613998999
 21
-89.62849515459998
 31
0.0
  0
LINE
  5
27ED
330
27EA
100
AcDbEntity
  8
LAYER0
100
AcDbLine
 10
-156.5015613998999
 20
-89.62849515459998
 30
0.0
 11
-156.7362069275
 21
-89.62418348440001
 31
0.0
  0
LINE
  5
27EE
330
27EA
100
AcDbEntity
  8
LAYER0
100
AcDbLine
 10
-156.7362069275
 20
-89.62418348440001
 30
0.0
 11
-157.0365421124999
 21
-89.61058816059997
 31
0.0
  0
ENDBLK
  5
27F0
330
27EA
100
AcDbEntity
  8
0
100
AcDbBlockEnd
  0
BLOCK
  5
27F4
330
27F1
100
AcDbEntity
  8
0
100
AcDbBlockBegin
  2
CLUMP223
 70
     0
 10
0.0
 20
0.0
 30
0.0
  3
CLUMP223
  1

  0
LINE
  5
27F2
330
27F1
100
AcDbEntity
  8
LAYER0
100
AcDbLine
 10
-157.0415216679
 20
-89.61045261219998
 30
0.0
 11
-157.0390307904999
 21
-89.61048647959998
 31
0.0
  0
LINE
  5
27F3
330
27F1
100
AcDbEntity
  8
LAYER0
100
AcDbLine
 10
-157.0390307904999
 20
-89.61048647959998
 30
0.0
 11
-157.0365421124999
 21
-89.61058816059997
 31
0.0
  0
ENDBLK
  5
27F5
330
27F1
100
AcDbEntity
  8
0
100
AcDbBlockEnd
  0
BLOCK
  5
27F9
330
27F6
100
AcDbEntity
  8
0
100
AcDbBlockBegin
  2
CLUMP227
 70
     0
 10
0.0
 20
0.0
 30
0.0
  3
CLUMP227
  1

  0
LINE
  5
27F7
330
27F6
100
AcDbEntity
  8
LAYER0
100
AcDbLine
 10
-165.1874662886999
 20
-89.61058816059997
 30
0.0
 11
-165.1867258869
 21
-89.6104865264
 31
0.0
  0
LINE
  5
27F8
330
27F6
100
AcDbEntity
  8
LAYER0
100
AcDbLine
 10
-165.1867258869
 20
-89.6104865264
 30
0.0
 11
-165.1859919789
 21
-89.61045261219998
 31
0.0
  0
ENDBLK
  5
27FA
330
27F6
100
AcDbEntity
  8
0
100
AcDbBlockEnd
  0
BLOCK
  5
2800
330
27FB
100
AcDbEntity
  8
0
100
AcDbBlockBegin
  2
CLUMP228
 70
     0
 10
0.0
 20
0.0
 30
0.0
  3
CLUMP228
  1

  0
LINE
  5
27FC
330
27FB
100
AcDbEntity
  8
LAYER0
100
AcDbLine
 10
-165.1874662886999
 20
-89.61058816059997
 30
0.0
 11
-165.2955265171
 21
-89.62197922700001
 31
0.0
  0
LINE
  5
27FD
330
27FB
100
AcDbEntity
  8
LAYER0
100
AcDbLine
 10
-165.2955265171
 20
-89.62197922700001
 30
0.0
 11
-165.5172907360999
 21
-89.628419147
 31
0.0
  0
LINE
  5
27FE
330
27FB
100
AcDbEntity
  8
LAYER0
100
AcDbLine
 10
-165.5172907360999
 20
-89.628419147
 30
0.0
 11
-165.8098518877
 21
-89.6246842102
 31
0.0
  0
LINE
  5
27FF
330
27FB
100
AcDbEntity
  8
LAYER0
100
AcDbLine
 10
-165.8098518877
 20
-89.6246842102
 30
0.0
 11
-166.1399196577
 21
-89.6106105438
 31
0.0
  0
ENDBLK
  5
2801
330
27FB
100
AcDbEntity
  8
0
100
AcDbBlockEnd
  0
BLOCK
  5
2805
330
2802
100
AcDbEntity
  8
0
100
AcDbBlockBegin
  2
CLUMP229
 70
     0
 10
0.0
 20
0.0
 30
0.0
  3
CLUMP229
  1

  0
LINE
  5
2803
330
2802
100
AcDbEntity
  8
LAYER0
100
AcDbLine
 10
-166.1454833375
 20
-89.61045261219998
 30
0.0
 11
-166.1427014975
 21
-89.6104920852
 31
0.0
  0
LINE
  5
2804
330
2802
100
AcDbEntity
  8
LAYER0
100
AcDbLine
 10
-166.1427014975
 20
-89.6104920852
 30
0.0
 11
-166.1399196577
 21
-89.6106105438
 31
0.0
  0
ENDBLK
  5
2806
330
2802
100
AcDbEntity
  8
0
100
AcDbBlockEnd
  0
BLOCK
  5
280C
330
2807
100
AcDbEntity
  8
0
100
AcDbBlockBegin
  2
CLUMP237
 70
     0
 10
0.0
 20
0.0
 30
0.0
  3
CLUMP237
  1

  0
LINE
  5
2808
330
2807
100
AcDbEntity
  8
LAYER0
100
AcDbLine
 10
-212.3085620543
 20
-89.61058816059997
 30
0.0
 11
-212.5486356470999
 21
-89.62197922700001
 31
0.0
  0
LINE
  5
2809
330
2807
100
AcDbEntity
  8
LAYER0
100
AcDbLine
 10
-212.5486356470999
 20
-89.62197922700001
 30
0.0
 11
-212.7998978007
 21
-89.628419147
 31
0.0
  0
LINE
  5
280A
330
2807
100
AcDbEntity
  8
LAYER0
100
AcDbLine
 10
-212.7998978007
 20
-89.628419147
 30
0.0
 11
-212.9640971565
 21
-89.6246842102
 31
0.0
  0
LINE
  5
280B
330
2807
100
AcDbEntity
  8
LAYER0
100
AcDbLine
 10
-212.9640971565
 20
-89.6246842102
 30
0.0
 11
-213.0225323418999
 21
-89.6106105438
 31
0.0
  0
ENDBLK
  5
280D
330
2807
100
AcDbEntity
  8
0
100
AcDbBlockEnd
  0
BLOCK
  5
2811
330
280E
100
AcDbEntity
  8
0
100
AcDbBlockBegin
  2
CLUMP238
 70
     0
 10
0.0
 20
0.0
 30
0.0
  3
CLUMP238
  1

  0
LINE
  5
280F
330
280E
100
AcDbEntity
  8
LAYER0
100
AcDbLine
 10
-203.2051845090999
 20
-89.6106105438
 30
0.0
 11
-203.2024049431
 21
-89.61049214979999
 31
0.0
  0
LINE
  5
2810
330
280E
100
AcDbEntity
  8
LAYER0
100
AcDbLine
 10
-203.2024049431
 20
-89.61049214979999
 30
0.0
 11
-203.1996208293
 21
-89.61045261219998
 31
0.0
  0
ENDBLK
  5
2812
330
280E
100
AcDbEntity
  8
0
100
AcDbBlockEnd
  0
BLOCK
  5
2818
330
2813
100
AcDbEntity
  8
0
100
AcDbBlockBegin
  2
CLUMP239
 70
     0
 10
0.0
 20
0.0
 30
0.0
  3
CLUMP239
  1

  0
LINE
  5
2814
330
2813
100
AcDbEntity
  8
LAYER0
100
AcDbLine
 10
-203.2051845090999
 20
-89.6106105438
 30
0.0
 11
-203.4663052736999
 21
-89.62252276500001
 31
0.0
  0
LINE
  5
2815
330
2813
100
AcDbEntity
  8
LAYER0
100
AcDbLine
 10
-203.4663052736999
 20
-89.62252276500001
 30
0.0
 11
-203.7695942001
 21
-89.62849515459998
 31
0.0
  0
LINE
  5
2816
330
2813
100
AcDbEntity
  8
LAYER0
100
AcDbLine
 10
-203.7695942001
 20
-89.62849515459998
 30
0.0
 11
-204.0091216681
 21
-89.62418348440001
 31
0.0
  0
LINE
  5
2817
330
2813
100
AcDbEntity
  8
LAYER0
100
AcDbLine
 10
-204.0091216681
 20
-89.62418348440001
 30
0.0
 11
-204.1576378781
 21
-89.61058816059997
 31
0.0
  0
ENDBLK
  5
2819
330
2813
100
AcDbEntity
  8
0
100
AcDbBlockEnd
  0
BLOCK
  5
281D
330
281A
100
AcDbEntity
  8
0
100
AcDbBlockBegin
  2
CLUMP244
 70
     0
 10
0.0
 20
0.0
 30
0.0
  3
CLUMP244
  1

  0
LINE
  5
281B
330
281A
100
AcDbEntity
  8
LAYER0
100
AcDbLine
 10
-204.1591121879
 20
-89.61045261219998
 30
0.0
 11
-204.1583787885
 21
-89.61048647959998
 31
0.0
  0
LINE
  5
281C
330
281A
100
AcDbEntity
  8
LAYER0
100
AcDbLine
 10
-204.1583787885
 20
-89.61048647959998
 30
0.0
 11
-204.1576378781
 21
-89.61058816059997
 31
0.0
  0
ENDBLK
  5
281E
330
281A
100
AcDbEntity
  8
0
100
AcDbBlockEnd
  0
BLOCK
  5
2822
330
281F
100
AcDbEntity
  8
0
100
AcDbBlockBegin
  2
CLUMP245
 70
     0
 10
0.0
 20
0.0
 30
0.0
  3
CLUMP245
  1

  0
LINE
  5
2820
330
281F
100
AcDbEntity
  8
LAYER0
100
AcDbLine
 10
-212.3085620543
 20
-89.61058816059997
 30
0.0
 11
-212.3060750945
 21
-89.6104865264
 31
0.0
  0
LINE
  5
2821
330
281F
100
AcDbEntity
  8
LAYER0
100
AcDbLine
 10
-212.3060750945
 20
-89.6104865264
 30
0.0
 11
-212.3035824986999
 21
-89.61045261219998
 31
0.0
  0
ENDBLK
  5
2823
330
281F
100
AcDbEntity
  8
0
100
AcDbBlockEnd
  0
BLOCK
  5
3089
330
3088
100
AcDbEntity
  8
0
100
AcDbBlockBegin
  2
SW_CENTERMARKSYMBOL_4
 70
     0
 10
0.0
 20
0.0
 30
0.0
  3
SW_CENTERMARKSYMBOL_4
  1

  0
LINE
  5
308A
330
3088
100
AcDbEntity
  8
0
  6
SLD-実線
 62
     0
100
AcDbLine
 10
0.0
 20
0.0
 30
0.0
 11
0.0
 21
2.500000000000002
 31
0.0
  0
LINE
  5
308B
330
3088
100
AcDbEntity
  8
0
  6
SLD-実線
 62
     0
100
AcDbLine
 10
0.0
 20
0.0
 30
0.0
 11
-2.499999999999946
 21
0.0
 31
0.0
  0
LINE
  5
308C
330
3088
100
AcDbEntity
  8
0
  6
SLD-実線
 62
     0
100
AcDbLine
 10
0.0
 20
0.0
 30
0.0
 11
0.0
 21
-2.500000000000002
 31
0.0
  0
LINE
  5
308D
330
3088
100
AcDbEntity
  8
0
  6
SLD-実線
 62
     0
100
AcDbLine
 10
0.0
 20
0.0
 30
0.0
 11
2.500000000000057
 21
0.0
 31
0.0
  0
LINE
  5
308E
330
3088
100
AcDbEntity
  8
0
  6
SLD-実線
 62
     0
100
AcDbLine
 10
0.0
 20
5.000000000000004
 30
0.0
 11
0.0
 21
5.061245043692541
 31
0.0
  0
LINE
  5
308F
330
3088
100
AcDbEntity
  8
0
  6
SLD-実線
 62
     0
100
AcDbLine
 10
-5.000000000000004
 20
0.0
 30
0.0
 11
-5.061245043692541
 21
0.0
 31
0.0
  0
LINE
  5
3090
330
3088
100
AcDbEntity
  8
0
  6
SLD-実線
 62
     0
100
AcDbLine
 10
0.0
 20
-5.000000000000004
 30
0.0
 11
0.0
 21
-5.061245043692541
 31
0.0
  0
LINE
  5
3091
330
3088
100
AcDbEntity
  8
0
  6
SLD-実線
 62
     0
100
AcDbLine
 10
5.000000000000004
 20
0.0
 30
0.0
 11
5.061245043692541
 21
0.0
 31
0.0
  0
ENDBLK
  5
3092
330
3088
100
AcDbEntity
  8
0
100
AcDbBlockEnd
  0
BLOCK
  5
3094
330
3093
100
AcDbEntity
  8
0
100
AcDbBlockBegin
  2
SW_CENTERMARKSYMBOL_5
 70
     0
 10
0.0
 20
0.0
 30
0.0
  3
SW_CENTERMARKSYMBOL_5
  1

  0
LINE
  5
3095
330
3093
100
AcDbEntity
  8
0
  6
SLD-実線
 62
     0
100
AcDbLine
 10
0.0
 20
0.0
 30
0.0
 11
0.0
 21
2.500000000000002
 31
0.0
  0
LINE
  5
3096
330
3093
100
AcDbEntity
  8
0
  6
SLD-実線
 62
     0
100
AcDbLine
 10
0.0
 20
0.0
 30
0.0
 11
-2.500000000000057
 21
0.0
 31
0.0
  0
LINE
  5
3097
330
3093
100
AcDbEntity
  8
0
  6
SLD-実線
 62
     0
100
AcDbLine
 10
0.0
 20
0.0
 30
0.0
 11
0.0
 21
-2.500000000000002
 31
0.0
  0
LINE
  5
3098
330
3093
100
AcDbEntity
  8
0
  6
SLD-実線
 62
     0
100
AcDbLine
 10
0.0
 20
0.0
 30
0.0
 11
2.499999999999946
 21
0.0
 31
0.0
  0
LINE
  5
3099
330
3093
100
AcDbEntity
  8
0
  6
SLD-実線
 62
     0
100
AcDbLine
 10
0.0
 20
5.000000000000004
 30
0.0
 11
0.0
 21
5.061245043692541
 31
0.0
  0
LINE
  5
309A
330
3093
100
AcDbEntity
  8
0
  6
SLD-実線
 62
     0
100
AcDbLine
 10
-5.000000000000004
 20
0.0
 30
0.0
 11
-5.061245043692541
 21
0.0
 31
0.0
  0
LINE
  5
309B
330
3093
100
AcDbEntity
  8
0
  6
SLD-実線
 62
     0
100
AcDbLine
 10
0.0
 20
-5.000000000000004
 30
0.0
 11
0.0
 21
-5.061245043692541
 31
0.0
  0
LINE
  5
309C
330
3093
100
AcDbEntity
  8
0
  6
SLD-実線
 62
     0
100
AcDbLine
 10
5.000000000000004
 20
0.0
 30
0.0
 11
5.061245043692541
 21
0.0
 31
0.0
  0
ENDBLK
  5
309D
330
3093
100
AcDbEntity
  8
0
100
AcDbBlockEnd
  0
BLOCK
  5
38F6
330
38F5
100
AcDbEntity
  8
0
100
AcDbBlockBegin
  2
*X13
 70
     1
 10
0.0
 20
0.0
 30
0.0
  3
*X13
  1

  0
LINE
  5
38F7
330
38F5
100
AcDbEntity
  8
0
 62
     0
100
AcDbLine
 10
84.04221133955109
 20
37.60416944448309
 30
0.0
 11
83.39638040983647
 21
38.25000037419773
 31
0.0
  0
LINE
  5
38F8
330
38F5
100
AcDbEntity
  8
0
 62
     0
100
AcDbLine
 10
84.04221133955109
 20
36.7061438323762
 30
0.0
 11
82.49835479772945
 21
38.25000037419778
 31
0.0
  0
LINE
  5
38F9
330
38F5
100
AcDbEntity
  8
0
 62
     0
100
AcDbLine
 10
84.04221133955109
 20
35.80811822026925
 30
0.0
 11
81.62107739353627
 21
38.22925216628403
 31
0.0
  0
LINE
  5
38FA
330
38F5
100
AcDbEntity
  8
0
 62
     0
100
AcDbLine
 10
84.04221133955122
 20
34.9100926081623
 30
0.0
 11
81.24221133955121
 21
37.71009260816226
 31
0.0
  0
LINE
  5
38FB
330
38F5
100
AcDbEntity
  8
0
 62
     0
100
AcDbLine
 10
84.04221133955116
 20
34.01206699605535
 30
0.0
 11
81.24221133955121
 21
36.81206699605537
 31
0.0
  0
LINE
  5
38FC
330
38F5
100
AcDbEntity
  8
0
 62
     0
100
AcDbLine
 10
84.04221133955116
 20
33.11404138394846
 30
0.0
 11
81.24221133955115
 21
35.91404138394842
 31
0.0
  0
LINE
  5
38FD
330
38F5
100
AcDbEntity
  8
0
 62
     0
100
AcDbLine
 10
79.14221133955118
 20
37.11601577184155
 30
0.0
 11
78.00822673719494
 21
38.25000037419778
 31
0.0
  0
LINE
  5
38FE
330
38F5
100
AcDbEntity
  8
0
 62
     0
100
AcDbLine
 10
84.04221133955116
 20
32.21601577184157
 30
0.0
 11
81.24221133955121
 21
35.01601577184158
 31
0.0
  0
LINE
  5
38FF
330
38F5
100
AcDbEntity
  8
0
 62
     0
100
AcDbLine
 10
79.14221133955118
 20
36.21799015973465
 30
0.0
 11
77.11020112508805
 21
38.25000037419778
 31
0.0
  0
LINE
  5
3900
330
38F5
100
AcDbEntity
  8
0
 62
     0
100
AcDbLine
 10
84.04221133955116
 20
31.31799015973468
 30
0.0
 11
81.24221133955121
 21
34.11799015973463
 31
0.0
  0
LINE
  5
3901
330
38F5
100
AcDbEntity
  8
0
 62
     0
100
AcDbLine
 10
79.14221133955118
 20
35.31996454762771
 30
0.0
 11
76.4367003744141
 21
38.02547551276479
 31
0.0
  0
LINE
  5
3902
330
38F5
100
AcDbEntity
  8
0
 62
     0
100
AcDbLine
 10
84.04221133955116
 20
30.41996454762773
 30
0.0
 11
81.24221133955115
 21
33.21996454762768
 31
0.0
  0
LINE
  5
3903
330
38F5
100
AcDbEntity
  8
0
 62
     0
100
AcDbLine
 10
79.14221133955118
 20
34.42193893552076
 30
0.0
 11
76.34221133955112
 21
37.22193893552083
 31
0.0
  0
LINE
  5
3904
330
38F5
100
AcDbEntity
  8
0
 62
     0
100
AcDbLine
 10
84.04221133955116
 20
29.52193893552084
 30
0.0
 11
81.24221133955121
 21
32.32193893552079
 31
0.0
  0
LINE
  5
3905
330
38F5
100
AcDbEntity
  8
0
 62
     0
100
AcDbLine
 10
79.14221133955118
 20
33.52391332341392
 30
0.0
 11
76.34221133955112
 21
36.32391332341399
 31
0.0
  0
LINE
  5
3906
330
38F5
100
AcDbEntity
  8
0
 62
     0
100
AcDbLine
 10
84.04221133955122
 20
28.62391332341383
 30
0.0
 11
81.24221133955115
 21
31.4239133234139
 31
0.0
  0
LINE
  5
3907
330
38F5
100
AcDbEntity
  8
0
 62
     0
100
AcDbLine
 10
79.14221133955113
 20
32.62588771130698
 30
0.0
 11
76.34221133955112
 21
35.42588771130704
 31
0.0
  0
LINE
  5
3908
330
38F5
100
AcDbEntity
  8
0
 62
     0
100
AcDbLine
 10
84.04221133955122
 20
27.72588771130694
 30
0.0
 11
81.24221133955115
 21
30.52588771130701
 31
0.0
  0
LINE
  5
3909
330
38F5
100
AcDbEntity
  8
0
 62
     0
100
AcDbLine
 10
79.14221133955113
 20
31.72786209920008
 30
0.0
 11
76.34221133955105
 21
34.52786209920009
 31
0.0
  0
LINE
  5
390A
330
38F5
100
AcDbEntity
  8
0
 62
     0
100
AcDbLine
 10
84.04221133955116
 20
26.82786209919999
 30
0.0
 11
81.24221133955115
 21
29.62786209920006
 31
0.0
  0
LINE
  5
390B
330
38F5
100
AcDbEntity
  8
0
 62
     0
100
AcDbLine
 10
79.14221133955118
 20
30.82983648709319
 30
0.0
 11
76.34221133955112
 21
33.62983648709326
 31
0.0
  0
LINE
  5
390C
330
38F5
100
AcDbEntity
  8
0
 62
     0
100
AcDbLine
 10
72.84221133955117
 20
37.1298364870932
 30
0.0
 11
71.72204745244653
 21
38.25000037419784
 31
0.0
  0
LINE
  5
390D
330
38F5
100
AcDbEntity
  8
0
 62
     0
100
AcDbLine
 10
84.04221133955122
 20
25.92983648709316
 30
0.0
 11
81.24221133955115
 21
28.72983648709317
 31
0.0
  0
LINE
  5
390E
330
38F5
100
AcDbEntity
  8
0
 62
     0
100
AcDbLine
 10
79.14221133955113
 20
29.9318108749863
 30
0.0
 11
76.34221133955105
 21
32.73181087498631
 31
0.0
  0
LINE
  5
390F
330
38F5
100
AcDbEntity
  8
0
 62
     0
100
AcDbLine
 10
72.84221133955111
 20
36.23181087498625
 30
0.0
 11
70.82402184033958
 21
38.25000037419784
 31
0.0
  0
LINE
  5
3910
330
38F5
100
AcDbEntity
  8
0
 62
     0
100
AcDbLine
 10
84.04221133955122
 20
25.03181087498621
 30
0.0
 11
81.24221133955115
 21
27.83181087498628
 31
0.0
  0
LINE
  5
3911
330
38F5
100
AcDbEntity
  8
0
 62
     0
100
AcDbLine
 10
79.14221133955113
 20
29.03378526287935
 30
0.0
 11
76.34221133955112
 21
31.8337852628793
 31
0.0
  0
LINE
  5
3912
330
38F5
100
AcDbEntity
  8
0
 62
     0
100
AcDbLine
 10
72.84221133955111
 20
35.33378526287936
 30
0.0
 11
70.14244861622711
 21
38.03354798620336
 31
0.0
  0
LINE
  5
3913
330
38F5
100
AcDbEntity
  8
0
 62
     0
100
AcDbLine
 10
84.04221133955116
 20
24.13378526287932
 30
0.0
 11
81.24221133955108
 21
26.93378526287933
 31
0.0
  0
LINE
  5
3914
330
38F5
100
AcDbEntity
  8
0
 62
     0
100
AcDbLine
 10
79.14221133955113
 20
28.1357596507724
 30
0.0
 11
76.34221133955117
 21
30.93575965077241
 31
0.0
  0
LINE
  5
3915
330
38F5
100
AcDbEntity
  8
0
 62
     0
100
AcDbLine
 10
72.84221133955117
 20
34.43575965077241
 30
0.0
 11
70.0422113395511
 21
37.23575965077248
 31
0.0
  0
LINE
  5
3916
330
38F5
100
AcDbEntity
  8
0
 62
     0
100
AcDbLine
 10
84.04221133955122
 20
23.23575965077237
 30
0.0
 11
81.24221133955115
 21
26.03575965077244
 31
0.0
  0
LINE
  5
3917
330
38F5
100
AcDbEntity
  8
0
 62
     0
100
AcDbLine
 10
79.14221133955113
 20
27.23773403866557
 30
0.0
 11
76.34221133955117
 21
30.03773403866552
 31
0.0
  0
LINE
  5
3918
330
38F5
100
AcDbEntity
  8
0
 62
     0
100
AcDbLine
 10
72.84221133955123
 20
33.53773403866546
 30
0.0
 11
70.04221133955105
 21
36.33773403866559
 31
0.0
  0
LINE
  5
3919
330
38F5
100
AcDbEntity
  8
0
 62
     0
100
AcDbLine
 10
83.9702459846614
 20
22.40969939355529
 30
0.0
 11
81.24221133955115
 21
25.13773403866554
 31
0.0
  0
LINE
  5
391A
330
38F5
100
AcDbEntity
  8
0
 62
     0
100
AcDbLine
 10
79.14221133955113
 20
26.33970842655862
 30
0.0
 11
76.34221133955112
 21
29.13970842655857
 31
0.0
  0
LINE
  5
391B
330
38F5
100
AcDbEntity
  8
0
 62
     0
100
AcDbLine
 10
72.84221133955117
 20
32.63970842655857
 30
0.0
 11
70.04221133955105
 21
35.4397084265587
 31
0.0
  0
LINE
  5
391C
330
38F5
100
AcDbEntity
  8
0
 62
     0
100
AcDbLine
 10
83.33191939191204
 20
22.15000037419764
 30
0.0
 11
81.24221133955108
 21
24.23970842655865
 31
0.0
  0
LINE
  5
391D
330
38F5
100
AcDbEntity
  8
0
 62
     0
100
AcDbLine
 10
72.84221133955117
 20
31.74168281445162
 30
0.0
 11
70.0422113395511
 21
34.54168281445169
 31
0.0
  0
LINE
  5
391E
330
38F5
100
AcDbEntity
  8
0
 62
     0
100
AcDbLine
 10
79.14221133955106
 20
25.44168281445172
 30
0.0
 11
76.34221133955112
 21
28.24168281445168
 31
0.0
  0
LINE
  5
391F
330
38F5
100
AcDbEntity
  8
0
 62
     0
100
AcDbLine
 10
67.41721133955116
 20
37.16668281445163
 30
0.0
 11
66.33389377980501
 21
38.25000037419773
 31
0.0
  0
LINE
  5
3920
330
38F5
100
AcDbEntity
  8
0
 62
     0
100
AcDbLine
 10
82.43389377980504
 20
22.1500003741977
 30
0.0
 11
81.24221133955108
 21
23.3416828144517
 31
0.0
  0
LINE
  5
3921
330
38F5
100
AcDbEntity
  8
0
 62
     0
100
AcDbLine
 10
72.84221133955117
 20
30.84365720234473
 30
0.0
 11
70.04221133955116
 21
33.6436572023448
 31
0.0
  0
LINE
  5
3922
330
38F5
100
AcDbEntity
  8
0
 62
     0
100
AcDbLine
 10
67.41721133955116
 20
36.26865720234474
 30
0.0
 11
65.43586816769817
 21
38.25000037419778
 31
0.0
  0
LINE
  5
3923
330
38F5
100
AcDbEntity
  8
0
 62
     0
100
AcDbLine
 10
79.11625303890565
 20
24.5696155029903
 30
0.0
 11
76.34221133955112
 21
27.34365720234479
 31
0.0
  0
LINE
  5
3924
330
38F5
100
AcDbEntity
  8
0
 62
     0
100
AcDbLine
 10
72.84221133955117
 20
29.94563159023784
 30
0.0
 11
70.0422113395511
 21
32.74563159023791
 31
0.0
  0
LINE
  5
3925
330
38F5
100
AcDbEntity
  8
0
 62
     0
100
AcDbLine
 10
67.22163079343733
 20
35.56621213635168
 30
0.0
 11
64.53784255559117
 21
38.25000037419784
 31
0.0
  0
LINE
  5
3926
330
38F5
100
AcDbEntity
  8
0
 62
     0
100
AcDbLine
 10
78.92326774364841
 20
23.86457518614054
 30
0.0
 11
76.34221133955112
 21
26.44563159023789
 31
0.0
  0
LINE
  5
3927
330
38F5
100
AcDbEntity
  8
0
 62
     0
100
AcDbLine
 10
72.84221133955117
 20
29.04760597813089
 30
0.0
 11
70.0422113395511
 21
31.84760597813096
 31
0.0
  0
LINE
  5
3928
330
38F5
100
AcDbEntity
  8
0
 62
     0
100
AcDbLine
 10
66.43981694348434
 20
35.45000037419766
 30
0.0
 11
63.63981694348428
 21
38.25000037419773
 31
0.0
  0
LINE
  5
3929
330
38F5
100
AcDbEntity
  8
0
 62
     0
100
AcDbLine
 10
78.59823586772484
 20
23.29158144995716
 30
0.0
 11
76.2706956003916
 21
25.61912171729046
 31
0.0
  0
LINE
  5
392A
330
38F5
100
AcDbEntity
  8
0
 62
     0
100
AcDbLine
 10
72.84221133955117
 20
28.14958036602405
 30
0.0
 11
70.0422113395511
 21
30.94958036602406
 31
0.0
  0
LINE
  5
392B
330
38F5
100
AcDbEntity
  8
0
 62
     0
100
AcDbLine
 10
65.54179133137751
 20
35.45000037419772
 30
0.0
 11
62.80422460219995
 21
38.18756710337527
 31
0.0
  0
LINE
  5
392C
330
38F5
100
AcDbEntity
  8
0
 62
     0
100
AcDbLine
 10
78.16619407039979
 20
22.82559763517537
 30
0.0
 11
75.86910996192409
 21
25.12268174365107
 31
0.0
  0
LINE
  5
392D
330
38F5
100
AcDbEntity
  8
0
 62
     0
100
AcDbLine
 10
72.84221133955117
 20
27.25155475391711
 30
0.0
 11
70.0422113395511
 21
30.05155475391717
 31
0.0
  0
LINE
  5
392E
330
38F5
100
AcDbEntity
  8
0
 62
     0
100
AcDbLine
 10
64.64376571927051
 20
35.45000037419777
 30
0.0
 11
62.13958417766656
 21
37.95418191580166
 31
0.0
  0
LINE
  5
392F
330
38F5
100
AcDbEntity
  8
0
 62
     0
100
AcDbLine
 10
77.63003172547377
 20
22.46373436799451
 30
0.0
 11
75.1437657192705
 21
24.95000037419777
 31
0.0
  0
LINE
  5
3930
330
38F5
100
AcDbEntity
  8
0
 62
     0
100
AcDbLine
 10
72.84221133955111
 20
26.35352914181016
 30
0.0
 11
70.0422113395511
 21
29.15352914181023
 31
0.0
  0
LINE
  5
3931
330
38F5
100
AcDbEntity
  8
0
 62
     0
100
AcDbLine
 10
63.76752993518159
 20
35.42821054617969
 30
0.0
 11
61.59698324045638
 21
37.59875724090489
 31
0.0
  0
LINE
  5
3932
330
38F5
100
AcDbEntity
  8
0
 62
     0
100
AcDbLine
 10
76.97361916556246
 20
22.22212131579886
 30
0.0
 11
74.24574010716367
 21
24.95000037419766
 31
0.0
  0
LINE
  5
3933
330
38F5
100
AcDbEntity
  8
0
 62
     0
100
AcDbLine
 10
63.39221133955118
 20
34.9055035297032
 30
0.0
 11
61.15887118141182
 21
37.13884368784249
 31
0.0
  0
LINE
  5
3934
330
38F5
100
AcDbEntity
  8
0
 62
     0
100
AcDbLine
 10
76.14771449505667
 20
22.15000037419764
 30
0.0
 11
70.04221133955105
 21
28.25550352970333
 31
0.0
  0
LINE
  5
3935
330
38F5
100
AcDbEntity
  8
0
 62
     0
100
AcDbLine
 10
63.39221133955124
 20
34.00747791759631
 30
0.0
 11
60.8271002690588
 21
36.57258898808874
 31
0.0
  0
LINE
  5
3936
330
38F5
100
AcDbEntity
  8
0
 62
     0
100
AcDbLine
 10
75.24968888294973
 20
22.15000037419776
 30
0.0
 11
70.0422113395511
 21
27.35747791759644
 31
0.0
  0
LINE
  5
3937
330
38F5
100
AcDbEntity
  8
0
 62
     0
100
AcDbLine
 10
63.59875562065503
 20
32.90290802438557
 30
0.0
 11
60.62492174969469
 21
35.87674189534585
 31
0.0
  0
LINE
  5
3938
330
38F5
100
AcDbEntity
  8
0
 62
     0
100
AcDbLine
 10
74.35166327084283
 20
22.15000037419776
 30
0.0
 11
70.04221133955116
 21
26.45945230548944
 31
0.0
  0
LINE
  5
3939
330
38F5
100
AcDbEntity
  8
0
 62
     0
100
AcDbLine
 10
67.81581504224255
 20
27.7878229906911
 30
0.0
 11
60.59221133955111
 21
35.01142669338253
 31
0.0
  0
LINE
  5
393A
330
38F5
100
AcDbEntity
  8
0
 62
     0
100
AcDbLine
 10
58.49221133955109
 20
37.1114266933825
 30
0.0
 11
57.35363765873586
 21
38.25000037419778
 31
0.0
  0
LINE
  5
393B
330
38F5
100
AcDbEntity
  8
0
 62
     0
100
AcDbLine
 10
73.45363765873589
 20
22.15000037419776
 30
0.0
 11
70.0422113395511
 21
25.56142669338249
 31
0.0
  0
LINE
  5
393C
330
38F5
100
AcDbEntity
  8
0
 62
     0
100
AcDbLine
 10
67.94221133955108
 20
26.76340108127573
 30
0.0
 11
60.59221133955117
 21
34.11340108127564
 31
0.0
  0
LINE
  5
393D
330
38F5
100
AcDbEntity
  8
0
 62
     0
100
AcDbLine
 10
58.4922113395512
 20
36.21340108127555
 30
0.0
 11
56.45561204662897
 21
38.25000037419778
 31
0.0
  0
LINE
  5
393E
330
38F5
100
AcDbEntity
  8
0
 62
     0
100
AcDbLine
 10
72.53916416788411
 20
22.1664482529427
 30
0.0
 11
70.05865921829609
 21
24.64695320253071
 31
0.0
  0
LINE
  5
393F
330
38F5
100
AcDbEntity
  8
0
 62
     0
100
AcDbLine
 10
58.4922113395512
 20
35.31537546916866
 30
0.0
 11
55.78482145177588
 21
38.02276535694392
 31
0.0
  0
LINE
  5
3940
330
38F5
100
AcDbEntity
  8
0
 62
     0
100
AcDbLine
 10
67.94221133955113
 20
25.86537546916872
 30
0.0
 11
60.61562200743356
 21
33.1919648012863
 31
0.0
  0
LINE
  5
3941
330
38F5
100
AcDbEntity
  8
0
 62
     0
100
AcDbLine
 10
58.4922113395512
 20
34.41734985706171
 30
0.0
 11
55.69221133955114
 21
37.21734985706178
 31
0.0
  0
LINE
  5
3942
330
38F5
100
AcDbEntity
  8
0
 62
     0
100
AcDbLine
 10
67.94221133955108
 20
24.96734985706178
 30
0.0
 11
60.93374142527358
 21
31.97581977133933
 31
0.0
  0
LINE
  5
3943
330
38F5
100
AcDbEntity
  8
0
 62
     0
100
AcDbLine
 10
58.4922113395512
 20
33.51932424495482
 30
0.0
 11
55.69221133955114
 21
36.31932424495483
 31
0.0
  0
LINE
  5
3944
330
38F5
100
AcDbEntity
  8
0
 62
     0
100
AcDbLine
 10
67.83364952196212
 20
24.1778860625439
 30
0.0
 11
65.13801473292381
 21
26.87352085158221
 31
0.0
  0
LINE
  5
3945
330
38F5
100
AcDbEntity
  8
0
 62
     0
100
AcDbLine
 10
58.4922113395512
 20
32.62129863284793
 30
0.0
 11
55.69221133955114
 21
35.42129863284799
 31
0.0
  0
LINE
  5
3946
330
38F5
100
AcDbEntity
  8
0
 62
     0
100
AcDbLine
 10
53.40072443897418
 20
37.71278553342489
 30
0.0
 11
52.86350959820129
 21
38.25000037419784
 31
0.0
  0
LINE
  5
3947
330
38F5
100
AcDbEntity
  8
0
 62
     0
100
AcDbLine
 10
67.56577381420055
 20
23.54773615819858
 30
0.0
 11
65.14221133955124
 21
25.97129863284789
 31
0.0
  0
LINE
  5
3948
330
38F5
100
AcDbEntity
  8
0
 62
     0
100
AcDbLine
 10
58.49221133955115
 20
31.72327302074098
 30
0.0
 11
55.69221133955114
 21
34.52327302074105
 31
0.0
  0
LINE
  5
3949
330
38F5
100
AcDbEntity
  8
0
 62
     0
100
AcDbLine
 10
53.20179677472157
 20
37.01368758557055
 30
0.0
 11
51.96548398609434
 21
38.25000037419784
 31
0.0
  0
LINE
  5
394A
330
38F5
100
AcDbEntity
  8
0
 62
     0
100
AcDbLine
 10
67.18278701602526
 20
23.03269734426692
 30
0.0
 11
65.04492615666475
 21
25.17055820362742
 31
0.0
  0
LINE
  5
394B
330
38F5
100
AcDbEntity
  8
0
 62
     0
100
AcDbLine
 10
58.49221133955115
 20
30.82524740863409
 30
0.0
 11
55.69221133955108
 21
33.6252474086341
 31
0.0
  0
LINE
  5
394C
330
38F5
100
AcDbEntity
  8
0
 62
     0
100
AcDbLine
 10
52.98627062781588
 20
36.33118812036929
 30
0.0
 11
51.0770550643453
 21
38.24040368383993
 31
0.0
  0
LINE
  5
394D
330
38F5
100
AcDbEntity
  8
0
 62
     0
100
AcDbLine
 10
66.69646805090962
 20
22.62099069727554
 30
0.0
 11
64.36745837398746
 21
24.95000037419777
 31
0.0
  0
LINE
  5
394E
330
38F5
100
AcDbEntity
  8
0
 62
     0
100
AcDbLine
 10
58.4922113395512
 20
29.92722179652719
 30
0.0
 11
55.69221133955114
 21
32.72722179652726
 31
0.0
  0
LINE
  5
394F
330
38F5
100
AcDbEntity
  8
0
 62
     0
100
AcDbLine
 10
52.77074448091036
 20
35.64868865516803
 30
0.0
 11
50.64274448091032
 21
37.77668865516807
 31
0.0
  0
LINE
  5
3950
330
38F5
100
AcDbEntity
  8
0
 62
     0
100
AcDbLine
 10
66.10038410244925
 20
22.31904903362909
 30
0.0
 11
63.46943276188063
 21
24.95000037419777
 31
0.0
  0
LINE
  5
3951
330
38F5
100
AcDbEntity
  8
0
 62
     0
100
AcDbLine
 10
58.49221133955115
 20
29.0291961844203
 30
0.0
 11
55.69221133955108
 21
31.82919618442031
 31
0.0
  0
LINE
  5
3952
330
38F5
100
AcDbEntity
  8
0
 62
     0
100
AcDbLine
 10
52.55521833400462
 20
34.96618918996683
 30
0.0
 11
50.42721833400452
 21
37.09418918996693
 31
0.0
  0
LINE
  5
3953
330
38F5
100
AcDbEntity
  8
0
 62
     0
100
AcDbLine
 10
65.36271145080178
 20
22.15869607316967
 30
0.0
 11
62.57140714977362
 21
24.95000037419783
 31
0.0
  0
LINE
  5
3954
330
38F5
100
AcDbEntity
  8
0
 62
     0
100
AcDbLine
 10
58.49221133955115
 20
28.13117057231335
 30
0.0
 11
55.69221133955114
 21
30.93117057231331
 31
0.0
  0
LINE
  5
3955
330
38F5
100
AcDbEntity
  8
0
 62
     0
100
AcDbLine
 10
52.33969218709893
 20
34.28368972476557
 30
0.0
 11
50.21169218709883
 21
36.41168972476561
 31
0.0
  0
LINE
  5
3956
330
38F5
100
AcDbEntity
  8
0
 62
     0
100
AcDbLine
 10
64.47338153766674
 20
22.15000037419776
 30
0.0
 11
61.67338153766667
 21
24.95000037419783
 31
0.0
  0
LINE
  5
3957
330
38F5
100
AcDbEntity
  8
0
 62
     0
100
AcDbLine
 10
58.49221133955115
 20
27.23314496020646
 30
0.0
 11
55.69221133955119
 21
30.03314496020647
 31
0.0
  0
LINE
  5
3958
330
38F5
100
AcDbEntity
  8
0
 62
     0
100
AcDbLine
 10
52.1241660401933
 20
33.60119025956436
 30
0.0
 11
49.9961660401932
 21
35.72919025956441
 31
0.0
  0
LINE
  5
3959
330
38F5
100
AcDbEntity
  8
0
 62
     0
100
AcDbLine
 10
63.57535592555996
 20
22.1500003741977
 30
0.0
 11
61.14174422826346
 21
24.5836120714942
 31
0.0
  0
LINE
  5
395A
330
38F5
100
AcDbEntity
  8
0
 62
     0
100
AcDbLine
 10
51.90863989328767
 20
32.91869079436299
 30
0.0
 11
49.78063989328757
 21
35.04669079436315
 31
0.0
  0
LINE
  5
395B
330
38F5
100
AcDbEntity
  8
0
 62
     0
100
AcDbLine
 10
58.49221133955115
 20
26.33511934809957
 30
0.0
 11
55.69221133955119
 21
29.13511934809952
 31
0.0
  0
LINE
  5
395C
330
38F5
100
AcDbEntity
  8
0
 62
     0
100
AcDbLine
 10
47.64221133955118
 20
37.18511934809953
 30
0.0
 11
46.57733031345287
 21
38.25000037419778
 31
0.0
  0
LINE
  5
395D
330
38F5
100
AcDbEntity
  8
0
 62
     0
100
AcDbLine
 10
62.67733031345295
 20
22.15000037419776
 30
0.0
 11
61.1172113395512
 21
23.71011934809951
 31
0.0
  0
LINE
  5
395E
330
38F5
100
AcDbEntity
  8
0
 62
     0
100
AcDbLine
 10
51.69311374638187
 20
32.2361913291619
 30
0.0
 11
49.56511374638194
 21
34.36419132916183
 31
0.0
  0
LINE
  5
395F
330
38F5
100
AcDbEntity
  8
0
 62
     0
100
AcDbLine
 10
58.49221133955115
 20
25.43709373599262
 30
0.0
 11
55.69221133955114
 21
28.23709373599263
 31
0.0
  0
LINE
  5
3960
330
38F5
100
AcDbEntity
  8
0
 62
     0
100
AcDbLine
 10
47.64221133955118
 20
36.28709373599259
 30
0.0
 11
45.67930470134598
 21
38.25000037419778
 31
0.0
  0
LINE
  5
3961
330
38F5
100
AcDbEntity
  8
0
 62
     0
100
AcDbLine
 10
61.77930470134606
 20
22.15000037419764
 30
0.0
 11
61.11721133955114
 21
22.81209373599256
 31
0.0
  0
LINE
  5
3962
330
38F5
100
AcDbEntity
  8
0
 62
     0
100
AcDbLine
 10
51.47758759947624
 20
31.55369186396058
 30
0.0
 11
49.34958759947619
 21
33.68169186396062
 31
0.0
  0
LINE
  5
3963
330
38F5
100
AcDbEntity
  8
0
 62
     0
100
AcDbLine
 10
47.64221133955112
 20
35.38906812388564
 30
0.0
 11
44.96676641065351
 21
38.0645130527833
 31
0.0
  0
LINE
  5
3964
330
38F5
100
AcDbEntity
  8
0
 62
     0
100
AcDbLine
 10
58.49221133955109
 20
24.53906812388573
 30
0.0
 11
55.69221133955114
 21
27.33906812388568
 31
0.0
  0
LINE
  5
3965
330
38F5
100
AcDbEntity
  8
0
 62
     0
100
AcDbLine
 10
51.26206145257061
 20
30.87119239875938
 30
0.0
 11
49.13406145257062
 21
32.99919239875936
 31
0.0
  0
LINE
  5
3966
330
38F5
100
AcDbEntity
  8
0
 62
     0
100
AcDbLine
 10
47.64221133955118
 20
34.4910425117788
 30
0.0
 11
44.84221133955111
 21
37.29104251177882
 31
0.0
  0
LINE
  5
3967
330
38F5
100
AcDbEntity
  8
0
 62
     0
100
AcDbLine
 10
58.49221133955115
 20
23.64104251177884
 30
0.0
 11
55.69221133955114
 21
26.44104251177879
 31
0.0
  0
LINE
  5
3968
330
38F5
100
AcDbEntity
  8
0
 62
     0
100
AcDbLine
 10
51.05697294317855
 20
30.17825529604448
 30
0.0
 11
48.91853530566487
 21
32.31669293355816
 31
0.0
  0
LINE
  5
3969
330
38F5
100
AcDbEntity
  8
0
 62
     0
100
AcDbLine
 10
47.64221133955118
 20
33.59301689967185
 30
0.0
 11
44.84221133955111
 21
36.39301689967192
 31
0.0
  0
LINE
  5
396A
330
38F5
100
AcDbEntity
  8
0
 62
     0
100
AcDbLine
 10
58.49221133955109
 20
22.74301689967189
 30
0.0
 11
55.69221133955114
 21
25.5430168996719
 31
0.0
  0
LINE
  5
396B
330
38F5
100
AcDbEntity
  8
0
 62
     0
100
AcDbLine
 10
51.47144630261255
 20
28.86575632450354
 30
0.0
 11
48.62798780998025
 21
31.70921481713583
 31
0.0
  0
LINE
  5
396C
330
38F5
100
AcDbEntity
  8
0
 62
     0
100
AcDbLine
 10
47.64221133955124
 20
32.69499128756485
 30
0.0
 11
44.84221133955105
 21
35.49499128756497
 31
0.0
  0
LINE
  5
396D
330
38F5
100
AcDbEntity
  8
0
 62
     0
100
AcDbLine
 10
58.15316634221876
 20
22.18403628489728
 30
0.0
 11
55.69221133955114
 21
24.64499128756495
 31
0.0
  0
LINE
  5
396E
330
38F5
100
AcDbEntity
  8
0
 62
     0
100
AcDbLine
 10
51.88591966204654
 20
27.55325735296271
 30
0.0
 11
44.84221133955111
 21
34.59696567545814
 31
0.0
  0
LINE
  5
396F
330
38F5
100
AcDbEntity
  8
0
 62
     0
100
AcDbLine
 10
42.39221133955124
 20
37.04696567545801
 30
0.0
 11
41.18917664081147
 21
38.25000037419778
 31
0.0
  0
LINE
  5
3970
330
38F5
100
AcDbEntity
  8
0
 62
     0
100
AcDbLine
 10
57.28917664081149
 20
22.15000037419776
 30
0.0
 11
55.69221133955124
 21
23.746965675458
 31
0.0
  0
LINE
  5
3971
330
38F5
100
AcDbEntity
  8
0
 62
     0
100
AcDbLine
 10
52.30039302148043
 20
26.24075838142187
 30
0.0
 11
44.84221133955111
 21
33.69894006335119
 31
0.0
  0
LINE
  5
3972
330
38F5
100
AcDbEntity
  8
0
 62
     0
100
AcDbLine
 10
42.39221133955124
 20
36.14894006335106
 30
0.0
 11
40.29115102870446
 21
38.25000037419784
 31
0.0
  0
LINE
  5
3973
330
38F5
100
AcDbEntity
  8
0
 62
     0
100
AcDbLine
 10
56.39115102870454
 20
22.1500003741977
 30
0.0
 11
55.69221133955119
 21
22.84894006335111
 31
0.0
  0
LINE
  5
3974
330
38F5
100
AcDbEntity
  8
0
 62
     0
100
AcDbLine
 10
42.12530464416113
 20
35.51782114663422
 30
0.0
 11
39.42508292594971
 21
38.21804286484559
 31
0.0
  0
LINE
  5
3975
330
38F5
100
AcDbEntity
  8
0
 62
     0
100
AcDbLine
 10
52.71486638091443
 20
24.92825940988093
 30
0.0
 11
44.84221133955105
 21
32.8009144512443
 31
0.0
  0
LINE
  5
3976
330
38F5
100
AcDbEntity
  8
0
 62
     0
100
AcDbLine
 10
47.97972026189279
 20
28.76537991679567
 30
0.0
 11
44.84221133955111
 21
31.90288883913735
 31
0.0
  0
LINE
  5
3977
330
38F5
100
AcDbEntity
  8
0
 62
     0
100
AcDbLine
 10
41.29509980449069
 20
35.45000037419772
 30
0.0
 11
38.68703985636244
 21
38.05806032232601
 31
0.0
  0
LINE
  5
3978
330
38F5
100
AcDbEntity
  8
0
 62
     0
100
AcDbLine
 10
53.12933974034843
 20
23.61576043834003
 30
0.0
 11
49.03703204804049
 21
27.70806813064798
 31
0.0
  0
LINE
  5
3979
330
38F5
100
AcDbEntity
  8
0
 62
     0
100
AcDbLine
 10
47.64221133955124
 20
28.20486322703033
 30
0.0
 11
44.84221133955105
 21
31.00486322703046
 31
0.0
  0
LINE
  5
397A
330
38F5
100
AcDbEntity
  8
0
 62
     0
100
AcDbLine
 10
40.39707419238368
 20
35.45000037419783
 30
0.0
 11
38.04831844053172
 21
37.7987561260498
 31
0.0
  0
LINE
  5
397B
330
38F5
100
AcDbEntity
  8
0
 62
     0
100
AcDbLine
 10
53.3643785980592
 20
22.48269596852231
 30
0.0
 11
49.45150540747443
 21
26.39556915910714
 31
0.0
  0
LINE
  5
397C
330
38F5
100
AcDbEntity
  8
0
 62
     0
100
AcDbLine
 10
47.64221133955118
 20
27.30683761492344
 30
0.0
 11
44.84221133955105
 21
30.10683761492356
 31
0.0
  0
LINE
  5
397D
330
38F5
100
AcDbEntity
  8
0
 62
     0
100
AcDbLine
 10
39.55396068984015
 20
35.39508826463447
 30
0.0
 11
37.48956946519718
 21
37.45947948927744
 31
0.0
  0
LINE
  5
397E
330
38F5
100
AcDbEntity
  8
0
 62
     0
100
AcDbLine
 10
52.79904858027686
 20
22.15000037419776
 30
0.0
 11
49.86597876690848
 21
25.08307018756608
 31
0.0
  0
LINE
  5
397F
330
38F5
100
AcDbEntity
  8
0
 62
     0
100
AcDbLine
 10
47.64221133955118
 20
26.40881200281649
 30
0.0
 11
44.84221133955105
 21
29.20881200281661
 31
0.0
  0
LINE
  5
3980
330
38F5
100
AcDbEntity
  8
0
 62
     0
100
AcDbLine
 10
38.98210449700116
 20
35.06891884536651
 30
0.0
 11
37.0019142565854
 21
37.04910908578228
 31
0.0
  0
LINE
  5
3981
330
38F5
100
AcDbEntity
  8
0
 62
     0
100
AcDbLine
 10
51.90102296816991
 20
22.15000037419776
 30
0.0
 11
50.28045212634243
 21
23.77057121602525
 31
0.0
  0
LINE
  5
3982
330
38F5
100
AcDbEntity
  8
0
 62
     0
100
AcDbLine
 10
42.72764047234892
 20
30.42535725791192
 30
0.0
 11
41.21756822326517
 21
31.93542950699566
 31
0.0
  0
LINE
  5
3983
330
38F5
100
AcDbEntity
  8
0
 62
     0
100
AcDbLine
 10
47.64221133955118
 20
25.5107863907096
 30
0.0
 11
44.84221133955105
 21
28.31078639070978
 31
0.0
  0
LINE
  5
3984
330
38F5
100
AcDbEntity
  8
0
 62
     0
100
AcDbLine
 10
38.62598292687221
 20
34.52701480338863
 30
0.0
 11
36.58254823057416
 21
36.57044949968668
 31
0.0
  0
LINE
  5
3985
330
38F5
100
AcDbEntity
  8
0
 62
     0
100
AcDbLine
 10
50.9526643518584
 20
22.20033337840243
 30
0.0
 11
50.70231018026709
 21
22.45068754999374
 31
0.0
  0
LINE
  5
3986
330
38F5
100
AcDbEntity
  8
0
 62
     0
100
AcDbLine
 10
42.64112681220701
 20
29.61384530594688
 30
0.0
 11
40.40605627130014
 21
31.84891584685374
 31
0.0
  0
LINE
  5
3987
330
38F5
100
AcDbEntity
  8
0
 62
     0
100
AcDbLine
 10
38.54221133955127
 20
33.71276077860262
 30
0.0
 11
36.2336092096125
 21
36.02136290854139
 31
0.0
  0
LINE
  5
3988
330
38F5
100
AcDbEntity
  8
0
 62
     0
100
AcDbLine
 10
47.64221133955118
 20
24.61276077860271
 30
0.0
 11
44.84221133955105
 21
27.41276077860283
 31
0.0
  0
LINE
  5
3989
330
38F5
100
AcDbEntity
  8
0
 62
     0
100
AcDbLine
 10
42.30927125290896
 20
29.04767525313793
 30
0.0
 11
39.83988621849119
 21
31.51706028755569
 31
0.0
  0
LINE
  5
398A
330
38F5
100
AcDbEntity
  8
0
 62
     0
100
AcDbLine
 10
38.54221133955127
 20
32.81473516649567
 30
0.0
 11
35.96302950240232
 21
35.39391700364462
 31
0.0
  0
LINE
  5
398B
330
38F5
100
AcDbEntity
  8
0
 62
     0
100
AcDbLine
 10
47.64221133955118
 20
23.71473516649576
 30
0.0
 11
44.84221133955111
 21
26.51473516649583
 31
0.0
  0
LINE
  5
398C
330
38F5
100
AcDbEntity
  8
0
 62
     0
100
AcDbLine
 10
38.54221133955127
 20
31.91670955438878
 30
0.0
 11
35.78831562947647
 21
34.67060526446363
 31
0.0
  0
LINE
  5
398D
330
38F5
100
AcDbEntity
  8
0
 62
     0
100
AcDbLine
 10
41.80743781077251
 20
28.65148308316759
 30
0.0
 11
39.44369404852086
 21
31.01522684541925
 31
0.0
  0
LINE
  5
398E
330
38F5
100
AcDbEntity
  8
0
 62
     0
100
AcDbLine
 10
33.11721133955109
 20
37.34170955438896
 30
0.0
 11
32.20892051974221
 21
38.2500003741979
 31
0.0
  0
LINE
  5
398F
330
38F5
100
AcDbEntity
  8
0
 62
     0
100
AcDbLine
 10
47.64221133955118
 20
22.81670955438892
 30
0.0
 11
44.84221133955111
 21
25.61670955438894
 31
0.0
  0
LINE
  5
3990
330
38F5
100
AcDbEntity
  8
0
 62
     0
100
AcDbLine
 10
38.54221133955127
 20
31.01868394228188
 30
0.0
 11
35.74221133955115
 21
33.81868394228201
 31
0.0
  0
LINE
  5
3991
330
38F5
100
AcDbEntity
  8
0
 62
     0
100
AcDbLine
 10
41.10711836834508
 20
28.45377691348807
 30
0.0
 11
39.24598787884134
 21
30.31490740299182
 31
0.0
  0
LINE
  5
3992
330
38F5
100
AcDbEntity
  8
0
 62
     0
100
AcDbLine
 10
33.11721133955109
 20
36.44368394228207
 30
0.0
 11
31.31089490763526
 21
38.25000037419784
 31
0.0
  0
LINE
  5
3993
330
38F5
100
AcDbEntity
  8
0
 62
     0
100
AcDbLine
 10
47.35430753828057
 20
22.20658774355257
 30
0.0
 11
44.84221133955111
 21
24.71868394228204
 31
0.0
  0
LINE
  5
3994
330
38F5
100
AcDbEntity
  8
0
 62
     0
100
AcDbLine
 10
38.54221133955127
 20
30.12065833017493
 30
0.0
 11
35.74221133955109
 21
32.92065833017506
 31
0.0
  0
LINE
  5
3995
330
38F5
100
AcDbEntity
  8
0
 62
     0
100
AcDbLine
 10
33.00817736928082
 20
35.65469230044539
 30
0.0
 11
30.41286929552837
 21
38.25000037419784
 31
0.0
  0
LINE
  5
3996
330
38F5
100
AcDbEntity
  8
0
 62
     0
100
AcDbLine
 10
46.51286929552845
 20
22.1500003741977
 30
0.0
 11
44.84221133955111
 21
23.82065833017509
 31
0.0
  0
LINE
  5
3997
330
38F5
100
AcDbEntity
  8
0
 62
     0
100
AcDbLine
 10
38.54221133955121
 20
29.22263271806804
 30
0.0
 11
35.74221133955109
 21
32.02263271806817
 31
0.0
  0
LINE
  5
3998
330
38F5
100
AcDbEntity
  8
0
 62
     0
100
AcDbLine
 10
32.31484368342149
 20
35.45000037419777
 30
0.0
 11
29.51484368342153
 21
38.25000037419773
 31
0.0
  0
LINE
  5
3999
330
38F5
100
AcDbEntity
  8
0
 62
     0
100
AcDbLine
 10
45.61484368342155
 20
22.1500003741977
 30
0.0
 11
44.84221133955105
 21
22.9226327180682
 31
0.0
  0
LINE
  5
399A
330
38F5
100
AcDbEntity
  8
0
 62
     0
100
AcDbLine
 10
38.54221133955127
 20
28.32460710596115
 30
0.0
 11
35.74221133955115
 21
31.12460710596128
 31
0.0
  0
LINE
  5
399B
330
38F5
100
AcDbEntity
  8
0
 62
     0
100
AcDbLine
 10
31.4168180713146
 20
35.45000037419777
 30
0.0
 11
28.6516887992097
 21
38.21512964630273
 31
0.0
  0
LINE
  5
399C
330
38F5
100
AcDbEntity
  8
0
 62
     0
100
AcDbLine
 10
42.38960889071427
 20
24.47720955479809
 30
0.0
 11
41.91942052015156
 21
24.94739792536086
 31
0.0
  0
LINE
  5
399D
330
38F5
100
AcDbEntity
  8
0
 62
     0
100
AcDbLine
 10
38.54221133955121
 20
27.4265814938542
 30
0.0
 11
35.74221133955109
 21
30.22658149385438
 31
0.0
  0
LINE
  5
399E
330
38F5
100
AcDbEntity
  8
0
 62
     0
100
AcDbLine
 10
30.5187924592077
 20
35.45000037419777
 30
0.0
 11
27.95855399073122
 21
38.01023884267426
 31
0.0
  0
LINE
  5
399F
330
38F5
100
AcDbEntity
  8
0
 62
     0
100
AcDbLine
 10
42.39221133955118
 20
23.57658149385423
 30
0.0
 11
41.0187924592077
 21
24.95000037419777
 31
0.0
  0
LINE
  5
39A0
330
38F5
100
AcDbEntity
  8
0
 62
     0
100
AcDbLine
 10
38.54221133955121
 20
26.52855588174731
 30
0.0
 11
35.74221133955109
 21
29.32855588174744
 31
0.0
  0
LINE
  5
39A1
330
38F5
100
AcDbEntity
  8
0
 62
     0
100
AcDbLine
 10
29.62076684710075
 20
35.45000037419772
 30
0.0
 11
27.39430733088398
 21
37.67645989041449
 31
0.0
  0
LINE
  5
39A2
330
38F5
100
AcDbEntity
  8
0
 62
     0
100
AcDbLine
 10
42.39221133955118
 20
22.67855588174734
 30
0.0
 11
40.12076684710075
 21
24.95000037419771
 31
0.0
  0
LINE
  5
39A3
330
38F5
100
AcDbEntity
  8
0
 62
     0
100
AcDbLine
 10
29.11047401948616
 20
35.06226758970553
 30
0.0
 11
26.93621451864323
 21
37.23652709054846
 31
0.0
  0
LINE
  5
39A4
330
38F5
100
AcDbEntity
  8
0
 62
     0
100
AcDbLine
 10
42.00447855505887
 20
22.16826305413281
 30
0.0
 11
35.74221133955109
 21
28.43053026964054
 31
0.0
  0
LINE
  5
39A5
330
38F5
100
AcDbEntity
  8
0
 62
     0
100
AcDbLine
 10
29.09221133955112
 20
34.18250465753357
 30
0.0
 11
26.58273331617414
 21
36.6919826809106
 31
0.0
  0
LINE
  5
39A6
330
38F5
100
AcDbEntity
  8
0
 62
     0
100
AcDbLine
 10
41.12471562288703
 20
22.1500003741977
 30
0.0
 11
35.74221133955109
 21
27.53250465753365
 31
0.0
  0
LINE
  5
39A7
330
38F5
100
AcDbEntity
  8
0
 62
     0
100
AcDbLine
 10
29.15434704768666
 20
33.22234333729108
 30
0.0
 11
26.35185321388042
 21
36.02483717109738
 31
0.0
  0
LINE
  5
39A8
330
38F5
100
AcDbEntity
  8
0
 62
     0
100
AcDbLine
 10
40.22669001078009
 20
22.15000037419764
 30
0.0
 11
35.74221133955109
 21
26.6344790454267
 31
0.0
  0
LINE
  5
39A9
330
38F5
100
AcDbEntity
  8
0
 62
     0
100
AcDbLine
 10
33.44658743077389
 20
28.03207734209701
 30
0.0
 11
26.2922113395511
 21
35.1864534333198
 31
0.0
  0
LINE
  5
39AA
330
38F5
100
AcDbEntity
  8
0
 62
     0
100
AcDbLine
 10
39.27539231161643
 20
22.20327246125447
 30
0.0
 11
35.79548342660786
 21
25.68318134626304
 31
0.0
  0
LINE
  5
39AB
330
38F5
100
AcDbEntity
  8
0
 62
     0
100
AcDbLine
 10
33.63848194485911
 20
26.9421572159049
 30
0.0
 11
26.29221133955116
 21
34.28842782121285
 31
0.0
  0
LINE
  5
39AC
330
38F5
100
AcDbEntity
  8
0
 62
     0
100
AcDbLine
 10
37.90158439901484
 20
22.67905476174911
 30
0.0
 11
36.27126572710245
 21
24.30937343366156
 31
0.0
  0
LINE
  5
39AD
330
38F5
100
AcDbEntity
  8
0
 62
     0
100
AcDbLine
 10
33.64221133955124
 20
26.04040220910582
 30
0.0
 11
26.29977578697356
 21
33.38283776168345
 31
0.0
  0
LINE
  5
39AE
330
38F5
100
AcDbEntity
  8
0
 62
     0
100
AcDbLine
 10
33.64221133955118
 20
25.14237659699893
 30
0.0
 11
26.52306654529741
 21
32.26152139125264
 31
0.0
  0
LINE
  5
39AF
330
38F5
100
AcDbEntity
  8
0
 62
     0
100
AcDbLine
 10
33.56969134341927
 20
24.31687098102401
 30
0.0
 11
30.80629969980021
 21
27.08026262464307
 31
0.0
  0
LINE
  5
39B0
330
38F5
100
AcDbEntity
  8
0
 62
     0
100
AcDbLine
 10
33.32775340439042
 20
23.66078330794591
 30
0.0
 11
30.84221133955117
 21
26.14632537278516
 31
0.0
  0
LINE
  5
39B1
330
38F5
100
AcDbEntity
  8
0
 62
     0
100
AcDbLine
 10
32.96563415700865
 20
23.12487694322073
 30
0.0
 11
30.8063123072505
 21
25.28419879297889
 31
0.0
  0
LINE
  5
39B2
330
38F5
100
AcDbEntity
  8
0
 62
     0
100
AcDbLine
 10
32.49940778474178
 20
22.69307770338071
 30
0.0
 11
30.24248511392466
 21
24.95000037419789
 31
0.0
  0
LINE
  5
39B3
330
38F5
100
AcDbEntity
  8
0
 62
     0
100
AcDbLine
 10
31.92614333700897
 20
22.36831653900663
 30
0.0
 11
29.34445950181771
 21
24.95000037419783
 31
0.0
  0
LINE
  5
39B4
330
38F5
100
AcDbEntity
  8
0
 62
     0
100
AcDbLine
 10
31.22073074792303
 20
22.17570351598562
 30
0.0
 11
28.44643388971088
 21
24.95000037419777
 31
0.0
  0
LINE
  5
39B5
330
38F5
100
AcDbEntity
  8
0
 62
     0
100
AcDbLine
 10
30.348408277604
 20
22.15000037419764
 30
0.0
 11
27.54840827760399
 21
24.95000037419771
 31
0.0
  0
LINE
  5
39B6
330
38F5
100
AcDbEntity
  8
0
 62
     0
100
AcDbLine
 10
29.45038266549705
 20
22.15000037419776
 30
0.0
 11
26.89705877067917
 21
24.7033242690157
 31
0.0
  0
LINE
  5
39B7
330
38F5
100
AcDbEntity
  8
0
 62
     0
100
AcDbLine
 10
28.55235705339016
 20
22.15000037419776
 30
0.0
 11
26.81721133955119
 21
23.88514608803672
 31
0.0
  0
LINE
  5
39B8
330
38F5
100
AcDbEntity
  8
0
 62
     0
100
AcDbLine
 10
27.65433144128321
 20
22.15000037419776
 30
0.0
 11
26.81721133955119
 21
22.98712047592977
 31
0.0
  0
LINE
  5
39B9
330
38F5
100
AcDbEntity
  8
0
 62
     0
100
AcDbLine
 10
83.63389862421815
 20
22.16313215131533
 30
0.0
 11
84.02907956243394
 21
22.55831308953111
 31
0.0
  0
LINE
  5
39BA
330
38F5
100
AcDbEntity
  8
0
 62
     0
100
AcDbLine
 10
82.7227412349937
 20
22.1500003741977
 30
0.0
 11
84.04221133955138
 21
23.4694704787554
 31
0.0
  0
LINE
  5
39BB
330
38F5
100
AcDbEntity
  8
0
 62
     0
100
AcDbLine
 10
81.8247156228868
 20
22.1500003741977
 30
0.0
 11
84.04221133955138
 21
24.36749609086229
 31
0.0
  0
LINE
  5
39BC
330
38F5
100
AcDbEntity
  8
0
 62
     0
100
AcDbLine
 10
81.27340890280306
 20
22.49671926622091
 30
0.0
 11
84.04221133955132
 21
25.26552170296924
 31
0.0
  0
LINE
  5
39BD
330
38F5
100
AcDbEntity
  8
0
 62
     0
100
AcDbLine
 10
81.24221133955126
 20
23.36354731507606
 30
0.0
 11
84.04221133955132
 21
26.16354731507608
 31
0.0
  0
LINE
  5
39BE
330
38F5
100
AcDbEntity
  8
0
 62
     0
100
AcDbLine
 10
81.24221133955131
 20
24.26157292718296
 30
0.0
 11
84.04221133955132
 21
27.06157292718302
 31
0.0
  0
LINE
  5
39BF
330
38F5
100
AcDbEntity
  8
0
 62
     0
100
AcDbLine
 10
81.24221133955126
 20
25.1595985392899
 30
0.0
 11
84.04221133955132
 21
27.95959853928997
 31
0.0
  0
LINE
  5
39C0
330
38F5
100
AcDbEntity
  8
0
 62
     0
100
AcDbLine
 10
81.24221133955126
 20
26.05762415139679
 30
0.0
 11
84.04221133955132
 21
28.85762415139686
 31
0.0
  0
LINE
  5
39C1
330
38F5
100
AcDbEntity
  8
0
 62
     0
100
AcDbLine
 10
77.66877620161654
 20
22.48418901346207
 30
0.0
 11
78.80802270028709
 21
23.62343551213269
 31
0.0
  0
LINE
  5
39C2
330
38F5
100
AcDbEntity
  8
0
 62
     0
100
AcDbLine
 10
81.24221133955126
 20
26.95564976350369
 30
0.0
 11
84.04221133955132
 21
29.75564976350375
 31
0.0
  0
LINE
  5
39C3
330
38F5
100
AcDbEntity
  8
0
 62
     0
100
AcDbLine
 10
76.43820803509374
 20
22.15164645904616
 30
0.0
 11
79.14056525470306
 21
24.85400367865543
 31
0.0
  0
LINE
  5
39C4
330
38F5
100
AcDbEntity
  8
0
 62
     0
100
AcDbLine
 10
81.24221133955126
 20
27.85367537561064
 30
0.0
 11
84.04221133955132
 21
30.65367537561065
 31
0.0
  0
LINE
  5
39C5
330
38F5
100
AcDbEntity
  8
0
 62
     0
100
AcDbLine
 10
75.53853633813833
 20
22.1500003741977
 30
0.0
 11
79.14221133955135
 21
25.75367537561067
 31
0.0
  0
LINE
  5
39C6
330
38F5
100
AcDbEntity
  8
0
 62
     0
100
AcDbLine
 10
81.24221133955126
 20
28.75170098771753
 30
0.0
 11
84.04221133955127
 21
31.5517009877176
 31
0.0
  0
LINE
  5
39C7
330
38F5
100
AcDbEntity
  8
0
 62
     0
100
AcDbLine
 10
74.64051072603144
 20
22.1500003741977
 30
0.0
 11
79.1422113395513
 21
26.65170098771762
 31
0.0
  0
LINE
  5
39C8
330
38F5
100
AcDbEntity
  8
0
 62
     0
100
AcDbLine
 10
81.24221133955126
 20
29.64972659982442
 30
0.0
 11
84.04221133955132
 21
32.44972659982449
 31
0.0
  0
LINE
  5
39C9
330
38F5
100
AcDbEntity
  8
0
 62
     0
100
AcDbLine
 10
73.7424851139246
 20
22.15000037419776
 30
0.0
 11
79.14221133955135
 21
27.54972659982451
 31
0.0
  0
LINE
  5
39CA
330
38F5
100
AcDbEntity
  8
0
 62
     0
100
AcDbLine
 10
76.23762013747023
 20
25.54316100985034
 30
0.0
 11
79.14221133955135
 21
28.4477522119314
 31
0.0
  0
LINE
  5
39CB
330
38F5
100
AcDbEntity
  8
0
 62
     0
100
AcDbLine
 10
81.24221133955126
 20
30.54775221193131
 30
0.0
 11
84.04221133955132
 21
33.34775221193138
 31
0.0
  0
LINE
  5
39CC
330
38F5
100
AcDbEntity
  8
0
 62
     0
100
AcDbLine
 10
72.84445950181759
 20
22.1500003741977
 30
0.0
 11
75.74905070389871
 21
25.05459157627877
 31
0.0
  0
LINE
  5
39CD
330
38F5
100
AcDbEntity
  8
0
 62
     0
100
AcDbLine
 10
76.34221133955122
 20
26.54577782403829
 30
0.0
 11
79.1422113395513
 21
29.34577782403835
 31
0.0
  0
LINE
  5
39CE
330
38F5
100
AcDbEntity
  8
0
 62
     0
100
AcDbLine
 10
81.24221133955121
 20
31.44577782403826
 30
0.0
 11
84.04221133955127
 21
34.24577782403833
 31
0.0
  0
LINE
  5
39CF
330
38F5
100
AcDbEntity
  8
0
 62
     0
100
AcDbLine
 10
72.05838364108791
 20
22.26195012557491
 30
0.0
 11
74.74643388971077
 21
24.95000037419777
 31
0.0
  0
LINE
  5
39D0
330
38F5
100
AcDbEntity
  8
0
 62
     0
100
AcDbLine
 10
76.34221133955128
 20
27.44380343614529
 30
0.0
 11
79.1422113395513
 21
30.24380343614524
 31
0.0
  0
LINE
  5
39D1
330
38F5
100
AcDbEntity
  8
0
 62
     0
100
AcDbLine
 10
81.24221133955121
 20
32.34380343614521
 30
0.0
 11
84.04221133955127
 21
35.14380343614522
 31
0.0
  0
LINE
  5
39D2
330
38F5
100
AcDbEntity
  8
0
 62
     0
100
AcDbLine
 10
71.43039677387776
 20
22.53198887047176
 30
0.0
 11
73.8492860632482
 21
24.9508781598422
 31
0.0
  0
LINE
  5
39D3
330
38F5
100
AcDbEntity
  8
0
 62
     0
100
AcDbLine
 10
76.34221133955134
 20
28.34182904825218
 30
0.0
 11
79.1422113395513
 21
31.14182904825213
 31
0.0
  0
LINE
  5
39D4
330
38F5
100
AcDbEntity
  8
0
 62
     0
100
AcDbLine
 10
81.24221133955126
 20
33.24182904825204
 30
0.0
 11
84.04221133955127
 21
36.04182904825211
 31
0.0
  0
LINE
  5
39D5
330
38F5
100
AcDbEntity
  8
0
 62
     0
100
AcDbLine
 10
70.91713689251259
 20
22.91675460121343
 30
0.0
 11
73.20580747453551
 21
25.20542518323634
 31
0.0
  0
LINE
  5
39D6
330
38F5
100
AcDbEntity
  8
0
 62
     0
100
AcDbLine
 10
76.34221133955134
 20
29.23985466035907
 30
0.0
 11
79.1422113395513
 21
32.03985466035908
 31
0.0
  0
LINE
  5
39D7
330
38F5
100
AcDbEntity
  8
0
 62
     0
100
AcDbLine
 10
81.24221133955121
 20
34.13985466035899
 30
0.0
 11
84.04221133955127
 21
36.93985466035906
 31
0.0
  0
LINE
  5
39D8
330
38F5
100
AcDbEntity
  8
0
 62
     0
100
AcDbLine
 10
70.50717271728757
 20
23.4048160380953
 30
0.0
 11
72.86856919612609
 21
25.76621251693388
 31
0.0
  0
LINE
  5
39D9
330
38F5
100
AcDbEntity
  8
0
 62
     0
100
AcDbLine
 10
76.34221133955128
 20
30.13788027246602
 30
0.0
 11
79.14221133955135
 21
32.93788027246609
 31
0.0
  0
LINE
  5
39DA
330
38F5
100
AcDbEntity
  8
0
 62
     0
100
AcDbLine
 10
81.24221133955121
 20
35.03788027246589
 30
0.0
 11
84.03206218600081
 21
37.82773111891555
 31
0.0
  0
LINE
  5
39DB
330
38F5
100
AcDbEntity
  8
0
 62
     0
100
AcDbLine
 10
70.20724783885356
 20
24.0029167717683
 30
0.0
 11
72.84221133955128
 21
26.63788027246596
 31
0.0
  0
LINE
  5
39DC
330
38F5
100
AcDbEntity
  8
0
 62
     0
100
AcDbLine
 10
76.34221133955134
 20
31.03590588457286
 30
0.0
 11
79.14221133955141
 21
33.83590588457292
 31
0.0
  0
LINE
  5
39DD
330
38F5
100
AcDbEntity
  8
0
 62
     0
100
AcDbLine
 10
81.24221133955121
 20
35.93590588457278
 30
0.0
 11
83.55494784092133
 21
38.2486423859429
 31
0.0
  0
LINE
  5
39DE
330
38F5
100
AcDbEntity
  8
0
 62
     0
100
AcDbLine
 10
70.04983430389711
 20
24.74352884891869
 30
0.0
 11
72.84221133955128
 21
27.53590588457285
 31
0.0
  0
LINE
  5
39DF
330
38F5
100
AcDbEntity
  8
0
 62
     0
100
AcDbLine
 10
76.34221133955128
 20
31.93393149667981
 30
0.0
 11
79.14221133955135
 21
34.73393149667987
 31
0.0
  0
LINE
  5
39E0
330
38F5
100
AcDbEntity
  8
0
 62
     0
100
AcDbLine
 10
81.24221133955121
 20
36.83393149667973
 30
0.0
 11
82.65828021706926
 21
38.25000037419778
 31
0.0
  0
LINE
  5
39E1
330
38F5
100
AcDbEntity
  8
0
 62
     0
100
AcDbLine
 10
70.04221133955133
 20
25.63393149667979
 30
0.0
 11
72.84221133955134
 21
28.43393149667986
 31
0.0
  0
LINE
  5
39E2
330
38F5
100
AcDbEntity
  8
0
 62
     0
100
AcDbLine
 10
76.34221133955128
 20
32.83195710878676
 30
0.0
 11
79.14221133955135
 21
35.63195710878677
 31
0.0
  0
LINE
  5
39E3
330
38F5
100
AcDbEntity
  8
0
 62
     0
100
AcDbLine
 10
70.04221133955127
 20
26.53195710878674
 30
0.0
 11
72.84221133955134
 21
29.33195710878681
 31
0.0
  0
LINE
  5
39E4
330
38F5
100
AcDbEntity
  8
0
 62
     0
100
AcDbLine
 10
81.24225805429871
 20
37.73200382353417
 30
0.0
 11
81.76020789021498
 21
38.2499536594504
 31
0.0
  0
LINE
  5
39E5
330
38F5
100
AcDbEntity
  8
0
 62
     0
100
AcDbLine
 10
65.72065570883927
 20
22.21040147807469
 30
0.0
 11
67.88181023567443
 21
24.37155600490991
 31
0.0
  0
LINE
  5
39E6
330
38F5
100
AcDbEntity
  8
0
 62
     0
100
AcDbLine
 10
70.04221133955127
 20
27.42998272089363
 30
0.0
 11
72.84221133955134
 21
30.2299827208937
 31
0.0
  0
LINE
  5
39E7
330
38F5
100
AcDbEntity
  8
0
 62
     0
100
AcDbLine
 10
76.34221133955128
 20
33.72998272089365
 30
0.0
 11
79.1422113395513
 21
36.52998272089372
 31
0.0
  0
LINE
  5
39E8
330
38F5
100
AcDbEntity
  8
0
 62
     0
100
AcDbLine
 10
64.7622289928554
 20
22.15000037419782
 30
0.0
 11
67.94221133955125
 21
25.32998272089367
 31
0.0
  0
LINE
  5
39E9
330
38F5
100
AcDbEntity
  8
0
 62
     0
100
AcDbLine
 10
70.04221133955127
 20
28.32800833300053
 30
0.0
 11
72.84221133955134
 21
31.1280083330006
 31
0.0
  0
LINE
  5
39EA
330
38F5
100
AcDbEntity
  8
0
 62
     0
100
AcDbLine
 10
76.34221133955128
 20
34.62800833300054
 30
0.0
 11
79.14221133955135
 21
37.42800833300061
 31
0.0
  0
LINE
  5
39EB
330
38F5
100
AcDbEntity
  8
0
 62
     0
100
AcDbLine
 10
63.8642033807485
 20
22.15000037419776
 30
0.0
 11
67.9422113395513
 21
26.2280083330005
 31
0.0
  0
LINE
  5
39EC
330
38F5
100
AcDbEntity
  8
0
 62
     0
100
AcDbLine
 10
70.04221133955127
 20
29.22603394510748
 30
0.0
 11
72.84221133955134
 21
32.02603394510749
 31
0.0
  0
LINE
  5
39ED
330
38F5
100
AcDbEntity
  8
0
 62
     0
100
AcDbLine
 10
76.34221133955128
 20
35.52603394510743
 30
0.0
 11
78.9484738847172
 21
38.1322964902734
 31
0.0
  0
LINE
  5
39EE
330
38F5
100
AcDbEntity
  8
0
 62
     0
100
AcDbLine
 10
62.96617776864161
 20
22.15000037419782
 30
0.0
 11
67.92789273913832
 21
27.11171534469452
 31
0.0
  0
LINE
  5
39EF
330
38F5
100
AcDbEntity
  8
0
 62
     0
100
AcDbLine
 10
70.04221133955127
 20
30.12405955721437
 30
0.0
 11
72.84221133955128
 21
32.92405955721444
 31
0.0
  0
LINE
  5
39F0
330
38F5
100
AcDbEntity
  8
0
 62
     0
100
AcDbLine
 10
76.34221133955122
 20
36.42405955721438
 30
0.0
 11
78.16815215653469
 21
38.25000037419784
 31
0.0
  0
LINE
  5
39F1
330
38F5
100
AcDbEntity
  8
0
 62
     0
100
AcDbLine
 10
62.06815215653467
 20
22.15000037419782
 30
0.0
 11
67.79298036850957
 21
27.87482858617267
 31
0.0
  0
LINE
  5
39F2
330
38F5
100
AcDbEntity
  8
0
 62
     0
100
AcDbLine
 10
70.04221133955127
 20
31.02208516932126
 30
0.0
 11
72.84221133955134
 21
33.82208516932133
 31
0.0
  0
LINE
  5
39F3
330
38F5
100
AcDbEntity
  8
0
 62
     0
100
AcDbLine
 10
65.14221133955141
 20
26.12208516932134
 30
0.0
 11
67.55239291159103
 21
28.53226674136096
 31
0.0
  0
LINE
  5
39F4
330
38F5
100
AcDbEntity
  8
0
 62
     0
100
AcDbLine
 10
76.34221133955128
 20
37.32208516932127
 30
0.0
 11
77.27012654442785
 21
38.25000037419784
 31
0.0
  0
LINE
  5
39F5
330
38F5
100
AcDbEntity
  8
0
 62
     0
100
AcDbLine
 10
61.2983818975589
 20
22.27825572732888
 30
0.0
 11
63.97012654442779
 21
24.95000037419777
 31
0.0
  0
LINE
  5
39F6
330
38F5
100
AcDbEntity
  8
0
 62
     0
100
AcDbLine
 10
65.122340764424
 20
27.00024020630087
 30
0.0
 11
67.22889360673048
 21
29.10679304860736
 31
0.0
  0
LINE
  5
39F7
330
38F5
100
AcDbEntity
  8
0
 62
     0
100
AcDbLine
 10
70.04221133955127
 20
31.92011078142815
 30
0.0
 11
72.84221133955128
 21
34.72011078142822
 31
0.0
  0
LINE
  5
39F8
330
38F5
100
AcDbEntity
  8
0
 62
     0
100
AcDbLine
 10
61.11721133955132
 20
22.9951107814282
 30
0.0
 11
63.07210093232083
 21
24.95000037419777
 31
0.0
  0
LINE
  5
39F9
330
38F5
100
AcDbEntity
  8
0
 62
     0
100
AcDbLine
 10
64.84795592728511
 20
27.623880981269
 30
0.0
 11
66.83302248880266
 21
29.60894754278655
 31
0.0
  0
LINE
  5
39FA
330
38F5
100
AcDbEntity
  8
0
 62
     0
100
AcDbLine
 10
70.04221133955121
 20
32.8181363935351
 30
0.0
 11
72.84221133955128
 21
35.61813639353517
 31
0.0
  0
LINE
  5
39FB
330
38F5
100
AcDbEntity
  8
0
 62
     0
100
AcDbLine
 10
61.11721133955126
 20
23.89313639353515
 30
0.0
 11
62.17407532021394
 21
24.95000037419783
 31
0.0
  0
LINE
  5
39FC
330
38F5
100
AcDbEntity
  8
0
 62
     0
100
AcDbLine
 10
70.04221133955127
 20
33.71616200564199
 30
0.0
 11
72.84221133955134
 21
36.516162005642
 31
0.0
  0
LINE
  5
39FD
330
38F5
100
AcDbEntity
  8
0
 62
     0
100
AcDbLine
 10
64.40668103016804
 20
28.08063169625871
 30
0.0
 11
66.38658001749035
 21
30.06053068358102
 31
0.0
  0
LINE
  5
39FE
330
38F5
100
AcDbEntity
  8
0
 62
     0
100
AcDbLine
 10
63.95766822411457
 20
28.52964450231218
 30
0.0
 11
65.93756721143688
 21
30.5095434896345
 31
0.0
  0
LINE
  5
39FF
330
38F5
100
AcDbEntity
  8
0
 62
     0
100
AcDbLine
 10
70.04221133955121
 20
34.61418761774889
 30
0.0
 11
72.84221133955128
 21
37.41418761774895
 31
0.0
  0
LINE
  5
3A00
330
38F5
100
AcDbEntity
  8
0
 62
     0
100
AcDbLine
 10
57.57802409600009
 20
22.15000037419776
 30
0.0
 11
58.49221133955126
 21
23.06418761774887
 31
0.0
  0
LINE
  5
3A01
330
38F5
100
AcDbEntity
  8
0
 62
     0
100
AcDbLine
 10
63.50865541806109
 20
28.97865730836566
 30
0.0
 11
65.48855440538341
 21
30.95855629568797
 31
0.0
  0
LINE
  5
3A02
330
38F5
100
AcDbEntity
  8
0
 62
     0
100
AcDbLine
 10
70.04221133955121
 20
35.51221322985583
 30
0.0
 11
72.65603043145262
 21
38.12603232175718
 31
0.0
  0
LINE
  5
3A03
330
38F5
100
AcDbEntity
  8
0
 62
     0
100
AcDbLine
 10
56.67999848389314
 20
22.15000037419776
 30
0.0
 11
58.49221133955132
 21
23.96221322985588
 31
0.0
  0
LINE
  5
3A04
330
38F5
100
AcDbEntity
  8
0
 62
     0
100
AcDbLine
 10
63.05964261200762
 20
29.42767011441913
 30
0.0
 11
65.03954159932994
 21
31.40756910174145
 31
0.0
  0
LINE
  5
3A05
330
38F5
100
AcDbEntity
  8
0
 62
     0
100
AcDbLine
 10
70.04221133955121
 20
36.41023884196272
 30
0.0
 11
71.88197287178628
 21
38.25000037419784
 31
0.0
  0
LINE
  5
3A06
330
38F5
100
AcDbEntity
  8
0
 62
     0
100
AcDbLine
 10
55.89358400964823
 20
22.26161151205975
 30
0.0
 11
58.49221133955126
 21
24.86023884196283
 31
0.0
  0
LINE
  5
3A07
330
38F5
100
AcDbEntity
  8
0
 62
     0
100
AcDbLine
 10
62.6106298059542
 20
29.87668292047255
 30
0.0
 11
64.59052879327652
 21
31.85658190779486
 31
0.0
  0
LINE
  5
3A08
330
38F5
100
AcDbEntity
  8
0
 62
     0
100
AcDbLine
 10
70.04221133955121
 20
37.30826445406961
 30
0.0
 11
70.98394725967949
 21
38.25000037419784
 31
0.0
  0
LINE
  5
3A09
330
38F5
100
AcDbEntity
  8
0
 62
     0
100
AcDbLine
 10
55.69221133955131
 20
22.95826445406971
 30
0.0
 11
58.49221133955132
 21
25.75826445406966
 31
0.0
  0
LINE
  5
3A0A
330
38F5
100
AcDbEntity
  8
0
 62
     0
100
AcDbLine
 10
62.16161699990073
 20
30.32569572652602
 30
0.0
 11
64.14151598722305
 21
32.30559471384834
 31
0.0
  0
LINE
  5
3A0B
330
38F5
100
AcDbEntity
  8
0
 62
     0
100
AcDbLine
 10
55.69221133955131
 20
23.85629006617666
 30
0.0
 11
58.49221133955126
 21
26.65629006617661
 31
0.0
  0
LINE
  5
3A0C
330
38F5
100
AcDbEntity
  8
0
 62
     0
100
AcDbLine
 10
61.7146330988594
 20
30.77673743759169
 30
0.0
 11
63.69860663224142
 21
32.76071097097366
 31
0.0
  0
LINE
  5
3A0D
330
38F5
100
AcDbEntity
  8
0
 62
     0
100
AcDbLine
 10
55.69221133955131
 20
24.75431567828355
 30
0.0
 11
58.49221133955126
 21
27.55431567828356
 31
0.0
  0
LINE
  5
3A0E
330
38F5
100
AcDbEntity
  8
0
 62
     0
100
AcDbLine
 10
66.38789603546547
 20
35.45000037419777
 30
0.0
 11
67.41721133955133
 21
36.47931567828357
 31
0.0
  0
LINE
  5
3A0F
330
38F5
100
AcDbEntity
  8
0
 62
     0
100
AcDbLine
 10
53.19955511484107
 20
22.26165945357331
 30
0.0
 11
53.28920747629609
 21
22.3513118150284
 31
0.0
  0
LINE
  5
3A10
330
38F5
100
AcDbEntity
  8
0
 62
     0
100
AcDbLine
 10
61.31663092003742
 20
31.27676087087656
 30
0.0
 11
63.41626519745602
 21
33.37639514829516
 31
0.0
  0
LINE
  5
3A11
330
38F5
100
AcDbEntity
  8
0
 62
     0
100
AcDbLine
 10
55.69221133955131
 20
25.65234129039044
 30
0.0
 11
58.49221133955132
 21
28.4523412903904
 31
0.0
  0
LINE
  5
3A12
330
38F5
100
AcDbEntity
  8
0
 62
     0
100
AcDbLine
 10
65.4898704233587
 20
35.45000037419783
 30
0.0
 11
67.41721133955133
 21
37.37734129039046
 31
0.0
  0
LINE
  5
3A13
330
38F5
100
AcDbEntity
  8
0
 62
     0
100
AcDbLine
 10
52.18987042335863
 20
22.15000037419776
 30
0.0
 11
53.25564951966516
 21
23.21577947050429
 31
0.0
  0
LINE
  5
3A14
330
38F5
100
AcDbEntity
  8
0
 62
     0
100
AcDbLine
 10
60.99079665564073
 20
31.84895221858682
 30
0.0
 11
63.39221133955141
 21
34.25036690249749
 31
0.0
  0
LINE
  5
3A15
330
38F5
100
AcDbEntity
  8
0
 62
     0
100
AcDbLine
 10
55.69221133955131
 20
26.55036690249733
 30
0.0
 11
58.49221133955126
 21
29.35036690249734
 31
0.0
  0
LINE
  5
3A16
330
38F5
100
AcDbEntity
  8
0
 62
     0
100
AcDbLine
 10
64.59184481125169
 20
35.45000037419777
 30
0.0
 11
67.25054240775341
 21
38.1086979706995
 31
0.0
  0
LINE
  5
3A17
330
38F5
100
AcDbEntity
  8
0
 62
     0
100
AcDbLine
 10
51.29184481125162
 20
22.1500003741977
 30
0.0
 11
53.04012337275946
 21
23.89827893570555
 31
0.0
  0
LINE
  5
3A18
330
38F5
100
AcDbEntity
  8
0
 62
     0
100
AcDbLine
 10
55.69221133955124
 20
27.44839251460428
 30
0.0
 11
58.49221133955126
 21
30.24839251460424
 31
0.0
  0
LINE
  5
3A19
330
38F5
100
AcDbEntity
  8
0
 62
     0
100
AcDbLine
 10
60.74741459297064
 20
32.50359576802367
 30
0.0
 11
66.49381919914481
 21
38.25000037419784
 31
0.0
  0
LINE
  5
3A1A
330
38F5
100
AcDbEntity
  8
0
 62
     0
100
AcDbLine
 10
50.69983050059665
 20
22.45601167564968
 30
0.0
 11
52.82459722585378
 21
24.58077840090681
 31
0.0
  0
LINE
  5
3A1B
330
38F5
100
AcDbEntity
  8
0
 62
     0
100
AcDbLine
 10
55.69221133955124
 20
28.34641812671123
 30
0.0
 11
58.4922113395512
 21
31.14641812671119
 31
0.0
  0
LINE
  5
3A1C
330
38F5
100
AcDbEntity
  8
0
 62
     0
100
AcDbLine
 10
60.60870773388495
 20
33.26291452104494
 30
0.0
 11
65.59579358703792
 21
38.25000037419784
 31
0.0
  0
LINE
  5
3A1D
330
38F5
100
AcDbEntity
  8
0
 62
     0
100
AcDbLine
 10
50.48107107894804
 20
23.13527786610803
 30
0.0
 11
52.60907107894809
 21
25.26327786610807
 31
0.0
  0
LINE
  5
3A1E
330
38F5
100
AcDbEntity
  8
0
 62
     0
100
AcDbLine
 10
55.69221133955131
 20
29.24444373881807
 30
0.0
 11
58.49221133955126
 21
32.04444373881808
 31
0.0
  0
LINE
  5
3A1F
330
38F5
100
AcDbEntity
  8
0
 62
     0
100
AcDbLine
 10
60.59221133955128
 20
34.14444373881804
 30
0.0
 11
64.69776797493103
 21
38.25000037419784
 31
0.0
  0
LINE
  5
3A20
330
38F5
100
AcDbEntity
  8
0
 62
     0
100
AcDbLine
 10
50.26554493204241
 20
23.81777733130923
 30
0.0
 11
52.39354493204252
 21
25.94577733130928
 31
0.0
  0
LINE
  5
3A21
330
38F5
100
AcDbEntity
  8
0
 62
     0
100
AcDbLine
 10
55.69221133955124
 20
30.14246935092501
 30
0.0
 11
58.49221133955126
 21
32.94246935092497
 31
0.0
  0
LINE
  5
3A22
330
38F5
100
AcDbEntity
  8
0
 62
     0
100
AcDbLine
 10
60.59221133955134
 20
35.04246935092505
 30
0.0
 11
63.79974236282413
 21
38.25000037419784
 31
0.0
  0
LINE
  5
3A23
330
38F5
100
AcDbEntity
  8
0
 62
     0
100
AcDbLine
 10
50.05001878513667
 20
24.50027679651043
 30
0.0
 11
52.17801878513689
 21
26.62827679651065
 31
0.0
  0
LINE
  5
3A24
330
38F5
100
AcDbEntity
  8
0
 62
     0
100
AcDbLine
 10
55.69221133955124
 20
31.0404949630319
 30
0.0
 11
58.49221133955132
 21
33.84049496303197
 31
0.0
  0
LINE
  5
3A25
330
38F5
100
AcDbEntity
  8
0
 62
     0
100
AcDbLine
 10
49.83449263823104
 20
25.18277626171175
 30
0.0
 11
51.96249263823114
 21
27.3107762617118
 31
0.0
  0
LINE
  5
3A26
330
38F5
100
AcDbEntity
  8
0
 62
     0
100
AcDbLine
 10
60.64552800967248
 20
35.9938116331532
 30
0.0
 11
62.84840008059581
 21
38.19668370407652
 31
0.0
  0
LINE
  5
3A27
330
38F5
100
AcDbEntity
  8
0
 62
     0
100
AcDbLine
 10
46.80171675071704
 20
22.15000037419776
 30
0.0
 11
47.64221133955124
 21
22.99049496303195
 31
0.0
  0
LINE
  5
3A28
330
38F5
100
AcDbEntity
  8
0
 62
     0
100
AcDbLine
 10
49.61896649132547
 20
25.86527572691295
 30
0.0
 11
51.74696649132551
 21
27.99327572691306
 31
0.0
  0
LINE
  5
3A29
330
38F5
100
AcDbEntity
  8
0
 62
     0
100
AcDbLine
 10
55.69221133955124
 20
31.9385205751388
 30
0.0
 11
58.49221133955132
 21
34.73852057513886
 31
0.0
  0
LINE
  5
3A2A
330
38F5
100
AcDbEntity
  8
0
 62
     0
100
AcDbLine
 10
45.90369113861021
 20
22.1500003741977
 30
0.0
 11
47.64221133955129
 21
23.88852057513884
 31
0.0
  0
LINE
  5
3A2B
330
38F5
100
AcDbEntity
  8
0
 62
     0
100
AcDbLine
 10
49.40344034441977
 20
26.54777519211422
 30
0.0
 11
51.53144034441982
 21
28.67577519211432
 31
0.0
  0
LINE
  5
3A2C
330
38F5
100
AcDbEntity
  8
0
 62
     0
100
AcDbLine
 10
55.69221133955124
 20
32.83654618724574
 30
0.0
 11
58.49221133955132
 21
35.63654618724576
 31
0.0
  0
LINE
  5
3A2D
330
38F5
100
AcDbEntity
  8
0
 62
     0
100
AcDbLine
 10
45.08681527415456
 20
22.23115012184905
 30
0.0
 11
47.64221133955129
 21
24.78654618724573
 31
0.0
  0
LINE
  5
3A2E
330
38F5
100
AcDbEntity
  8
0
 62
     0
100
AcDbLine
 10
49.18791419751409
 20
27.23027465731548
 30
0.0
 11
51.31591419751413
 21
29.35827465731558
 31
0.0
  0
LINE
  5
3A2F
330
38F5
100
AcDbEntity
  8
0
 62
     0
100
AcDbLine
 10
55.69221133955124
 20
33.73457179935264
 30
0.0
 11
58.49221133955126
 21
36.53457179935271
 31
0.0
  0
LINE
  5
3A30
330
38F5
100
AcDbEntity
  8
0
 62
     0
100
AcDbLine
 10
44.84221133955128
 20
22.88457179935267
 30
0.0
 11
47.64221133955135
 21
25.68457179935274
 31
0.0
  0
LINE
  5
3A31
330
38F5
100
AcDbEntity
  8
0
 62
     0
100
AcDbLine
 10
48.97238805060846
 20
27.91277412251668
 30
0.0
 11
51.10038805060861
 21
30.04077412251684
 31
0.0
  0
LINE
  5
3A32
330
38F5
100
AcDbEntity
  8
0
 62
     0
100
AcDbLine
 10
55.69221133955124
 20
34.63259741145953
 30
0.0
 11
58.49221133955132
 21
37.4325974114596
 31
0.0
  0
LINE
  5
3A33
330
38F5
100
AcDbEntity
  8
0
 62
     0
100
AcDbLine
 10
44.84221133955128
 20
23.78259741145956
 30
0.0
 11
47.64221133955135
 21
26.58259741145963
 31
0.0
  0
LINE
  5
3A34
330
38F5
100
AcDbEntity
  8
0
 62
     0
100
AcDbLine
 10
48.73758926363672
 20
28.57600094765195
 30
0.0
 11
51.36788333156761
 21
31.20629501558284
 31
0.0
  0
LINE
  5
3A35
330
38F5
100
AcDbEntity
  8
0
 62
     0
100
AcDbLine
 10
55.69221133955131
 20
35.53062302356654
 30
0.0
 11
58.29593591705287
 21
38.13434760106805
 31
0.0
  0
LINE
  5
3A36
330
38F5
100
AcDbEntity
  8
0
 62
     0
100
AcDbLine
 10
44.84221133955128
 20
24.68062302356651
 30
0.0
 11
47.64221133955135
 21
27.48062302356653
 31
0.0
  0
LINE
  5
3A37
330
38F5
100
AcDbEntity
  8
0
 62
     0
100
AcDbLine
 10
48.05040389376933
 20
28.78684118989151
 30
0.0
 11
51.7823566910016
 21
32.51879398712379
 31
0.0
  0
LINE
  5
3A38
330
38F5
100
AcDbEntity
  8
0
 62
     0
100
AcDbLine
 10
44.84221133955128
 20
25.57864863567341
 30
0.0
 11
47.65537052385758
 21
28.39180781997971
 31
0.0
  0
LINE
  5
3A39
330
38F5
100
AcDbEntity
  8
0
 62
     0
100
AcDbLine
 10
55.69221133955131
 20
36.42864863567343
 30
0.0
 11
57.51356307807566
 21
38.25000037419784
 31
0.0
  0
LINE
  5
3A3A
330
38F5
100
AcDbEntity
  8
0
 62
     0
100
AcDbLine
 10
41.41356307807564
 20
22.15000037419776
 30
0.0
 11
42.39221133955129
 21
23.12864863567347
 31
0.0
  0
LINE
  5
3A3B
330
38F5
100
AcDbEntity
  8
0
 62
     0
100
AcDbLine
 10
44.84221133955123
 20
26.47667424778035
 30
0.0
 11
52.19683005043555
 21
33.83129295866468
 31
0.0
  0
LINE
  5
3A3C
330
38F5
100
AcDbEntity
  8
0
 62
     0
100
AcDbLine
 10
55.69221133955124
 20
37.32667424778038
 30
0.0
 11
56.61553746596871
 21
38.25000037419784
 31
0.0
  0
LINE
  5
3A3D
330
38F5
100
AcDbEntity
  8
0
 62
     0
100
AcDbLine
 10
40.51553746596868
 20
22.15000037419782
 30
0.0
 11
42.39221133955135
 21
24.02667424778048
 31
0.0
  0
LINE
  5
3A3E
330
38F5
100
AcDbEntity
  8
0
 62
     0
100
AcDbLine
 10
44.84221133955128
 20
27.37469985988719
 30
0.0
 11
52.61130340986966
 21
35.14379193020563
 31
0.0
  0
LINE
  5
3A3F
330
38F5
100
AcDbEntity
  8
0
 62
     0
100
AcDbLine
 10
39.6291924782119
 20
22.16168099854787
 30
0.0
 11
42.25087705594512
 21
24.78336557628103
 31
0.0
  0
LINE
  5
3A40
330
38F5
100
AcDbEntity
  8
0
 62
     0
100
AcDbLine
 10
44.84221133955123
 20
28.27272547199413
 30
0.0
 11
48.16948624175489
 21
31.60000037419781
 31
0.0
  0
LINE
  5
3A41
330
38F5
100
AcDbEntity
  8
0
 62
     0
100
AcDbLine
 10
48.93346907699561
 20
32.36398320943852
 30
0.0
 11
53.0257767693036
 21
36.45629090174651
 31
0.0
  0
LINE
  5
3A42
330
38F5
100
AcDbEntity
  8
0
 62
     0
100
AcDbLine
 10
38.86103196076494
 20
22.29154609320779
 30
0.0
 11
41.51948624175486
 21
24.95000037419777
 31
0.0
  0
LINE
  5
3A43
330
38F5
100
AcDbEntity
  8
0
 62
     0
100
AcDbLine
 10
44.84221133955123
 20
29.17075108410108
 30
0.0
 11
47.66020191025956
 21
31.98874165480936
 31
0.0
  0
LINE
  5
3A44
330
38F5
100
AcDbEntity
  8
0
 62
     0
100
AcDbLine
 10
49.34794243642954
 20
33.67648218097935
 30
0.0
 11
53.40084822110492
 21
37.72938796565478
 31
0.0
  0
LINE
  5
3A45
330
38F5
100
AcDbEntity
  8
0
 62
     0
100
AcDbLine
 10
38.19989770393852
 20
22.52843744848838
 30
0.0
 11
40.62146062964797
 21
24.95000037419777
 31
0.0
  0
LINE
  5
3A46
330
38F5
100
AcDbEntity
  8
0
 62
     0
100
AcDbLine
 10
44.84221133955128
 20
30.06877669620792
 30
0.0
 11
47.64221133955129
 21
32.86877669620799
 31
0.0
  0
LINE
  5
3A47
330
38F5
100
AcDbEntity
  8
0
 62
     0
100
AcDbLine
 10
49.76241579586366
 20
34.98898115252035
 30
0.0
 11
53.00683634853573
 21
38.23340170519242
 31
0.0
  0
LINE
  5
3A48
330
38F5
100
AcDbEntity
  8
0
 62
     0
100
AcDbLine
 10
37.62229441977422
 20
22.84885977643086
 30
0.0
 11
39.73835627826708
 21
24.96492163492377
 31
0.0
  0
LINE
  5
3A49
330
38F5
100
AcDbEntity
  8
0
 62
     0
100
AcDbLine
 10
44.84221133955123
 20
30.96680230831487
 30
0.0
 11
47.64221133955129
 21
33.76680230831494
 31
0.0
  0
LINE
  5
3A4A
330
38F5
100
AcDbEntity
  8
0
 62
     0
100
AcDbLine
 10
50.1768891552976
 20
36.30148012406119
 30
0.0
 11
52.12540940543414
 21
38.25000037419778
 31
0.0
  0
LINE
  5
3A4B
330
38F5
100
AcDbEntity
  8
0
 62
     0
100
AcDbLine
 10
37.11733945339216
 20
23.24193042215575
 30
0.0
 11
39.10404013724877
 21
25.22863110601236
 31
0.0
  0
LINE
  5
3A4C
330
38F5
100
AcDbEntity
  8
0
 62
     0
100
AcDbLine
 10
44.84221133955123
 20
31.86482792042176
 30
0.0
 11
47.64221133955129
 21
34.66482792042183
 31
0.0
  0
LINE
  5
3A4D
330
38F5
100
AcDbEntity
  8
0
 62
     0
100
AcDbLine
 10
41.50384547132773
 20
28.52646205219833
 30
0.0
 11
42.66574966155082
 21
29.68836624242141
 31
0.0
  0
LINE
  5
3A4E
330
38F5
100
AcDbEntity
  8
0
 62
     0
100
AcDbLine
 10
50.59136251473148
 20
37.61397909560208
 30
0.0
 11
51.2273837933273
 21
38.2500003741979
 31
0.0
  0
LINE
  5
3A4F
330
38F5
100
AcDbEntity
  8
0
 62
     0
100
AcDbLine
 10
36.68090238006232
 20
23.70351896093291
 30
0.0
 11
38.69378918597659
 21
25.71640576684718
 31
0.0
  0
LINE
  5
3A50
330
38F5
100
AcDbEntity
  8
0
 62
     0
100
AcDbLine
 10
40.57887262969791
 20
28.49951482267545
 30
0.0
 11
42.69269689107369
 21
30.61333908405118
 31
0.0
  0
LINE
  5
3A51
330
38F5
100
AcDbEntity
  8
0
 62
     0
100
AcDbLine
 10
44.84221133955128
 20
32.76285353252877
 30
0.0
 11
47.64221133955135
 21
35.56285353252884
 31
0.0
  0
LINE
  5
3A52
330
38F5
100
AcDbEntity
  8
0
 62
     0
100
AcDbLine
 10
36.31388315511936
 20
24.23452534809684
 30
0.0
 11
38.54221133955127
 21
26.46285353252881
 31
0.0
  0
LINE
  5
3A53
330
38F5
100
AcDbEntity
  8
0
 62
     0
100
AcDbLine
 10
39.96472606027771
 20
28.78339386536203
 30
0.0
 11
42.40881784838705
 21
31.22748565347143
 31
0.0
  0
LINE
  5
3A54
330
38F5
100
AcDbEntity
  8
0
 62
     0
100
AcDbLine
 10
44.84221133955128
 20
33.66087914463566
 30
0.0
 11
47.64221133955135
 21
36.46087914463573
 31
0.0
  0
LINE
  5
3A55
330
38F5
100
AcDbEntity
  8
0
 62
     0
100
AcDbLine
 10
36.02256564519462
 20
24.84123345027899
 30
0.0
 11
38.54221133955127
 21
27.36087914463565
 31
0.0
  0
LINE
  5
3A56
330
38F5
100
AcDbEntity
  8
0
 62
     0
100
AcDbLine
 10
39.52676613328799
 20
29.24345955047932
 30
0.0
 11
41.94875216326983
 21
31.6654455804611
 31
0.0
  0
LINE
  5
3A57
330
38F5
100
AcDbEntity
  8
0
 62
     0
100
AcDbLine
 10
44.84221133955128
 20
34.55890475674261
 30
0.0
 11
47.64221133955135
 21
37.35890475674262
 31
0.0
  0
LINE
  5
3A58
330
38F5
100
AcDbEntity
  8
0
 62
     0
100
AcDbLine
 10
35.82142828101996
 20
25.53812169821128
 30
0.0
 11
38.54221133955127
 21
28.2589047567426
 31
0.0
  0
LINE
  5
3A59
330
38F5
100
AcDbEntity
  8
0
 62
     0
100
AcDbLine
 10
39.27071540087963
 20
29.88543443017784
 30
0.0
 11
41.30677728357125
 21
31.92149631286952
 31
0.0
  0
LINE
  5
3A5A
330
38F5
100
AcDbEntity
  8
0
 62
     0
100
AcDbLine
 10
35.7422113395512
 20
26.35693036884948
 30
0.0
 11
38.54221133955127
 21
29.15693036884949
 31
0.0
  0
LINE
  5
3A5B
330
38F5
100
AcDbEntity
  8
0
 62
     0
100
AcDbLine
 10
44.84221133955128
 20
35.4569303688495
 30
0.0
 11
47.48496123119616
 21
38.09968026049444
 31
0.0
  0
LINE
  5
3A5C
330
38F5
100
AcDbEntity
  8
0
 62
     0
100
AcDbLine
 10
31.65621458167561
 20
22.27093361097388
 30
0.0
 11
33.52127810277534
 21
24.13599713207361
 31
0.0
  0
LINE
  5
3A5D
330
38F5
100
AcDbEntity
  8
0
 62
     0
100
AcDbLine
 10
39.38912848436041
 20
30.90187312576552
 30
0.0
 11
40.29033858798363
 21
31.80308322938873
 31
0.0
  0
LINE
  5
3A5E
330
38F5
100
AcDbEntity
  8
0
 62
     0
100
AcDbLine
 10
35.7422113395512
 20
27.25495598095631
 30
0.0
 11
38.54221133955127
 21
30.05495598095638
 31
0.0
  0
LINE
  5
3A5F
330
38F5
100
AcDbEntity
  8
0
 62
     0
100
AcDbLine
 10
44.84221133955128
 20
36.35495598095639
 30
0.0
 11
46.73725573279267
 21
38.25000037419778
 31
0.0
  0
LINE
  5
3A60
330
38F5
100
AcDbEntity
  8
0
 62
     0
100
AcDbLine
 10
30.63725573279266
 20
22.15000037419776
 30
0.0
 11
33.64221133955141
 21
25.15495598095646
 31
0.0
  0
LINE
  5
3A61
330
38F5
100
AcDbEntity
  8
0
 62
     0
100
AcDbLine
 10
35.7422113395512
 20
28.15298159306326
 30
0.0
 11
38.54221133955127
 21
30.95298159306333
 31
0.0
  0
LINE
  5
3A62
330
38F5
100
AcDbEntity
  8
0
 62
     0
100
AcDbLine
 10
44.84221133955128
 20
37.25298159306329
 30
0.0
 11
45.83923012068578
 21
38.25000037419784
 31
0.0
  0
LINE
  5
3A63
330
38F5
100
AcDbEntity
  8
0
 62
     0
100
AcDbLine
 10
29.73923012068565
 20
22.1500003741977
 30
0.0
 11
33.64221133955136
 21
26.05298159306341
 31
0.0
  0
LINE
  5
3A64
330
38F5
100
AcDbEntity
  8
0
 62
     0
100
AcDbLine
 10
35.7422113395512
 20
29.05100720517015
 30
0.0
 11
38.54221133955121
 21
31.85100720517022
 31
0.0
  0
LINE
  5
3A65
330
38F5
100
AcDbEntity
  8
0
 62
     0
100
AcDbLine
 10
28.84120450857881
 20
22.15000037419782
 30
0.0
 11
33.63827198699011
 21
26.94706785260911
 31
0.0
  0
LINE
  5
3A66
330
38F5
100
AcDbEntity
  8
0
 62
     0
100
AcDbLine
 10
35.7422113395512
 20
29.9490328172771
 30
0.0
 11
38.54221133955127
 21
32.74903281727717
 31
0.0
  0
LINE
  5
3A67
330
38F5
100
AcDbEntity
  8
0
 62
     0
100
AcDbLine
 10
41.24317889647199
 20
35.45000037419788
 30
0.0
 11
42.3922113395514
 21
36.59903281727731
 31
0.0
  0
LINE
  5
3A68
330
38F5
100
AcDbEntity
  8
0
 62
     0
100
AcDbLine
 10
27.94317889647186
 20
22.15000037419776
 30
0.0
 11
33.52861015066878
 21
27.73543162839468
 31
0.0
  0
LINE
  5
3A69
330
38F5
100
AcDbEntity
  8
0
 62
     0
100
AcDbLine
 10
35.7422113395512
 20
30.847058429384
 30
0.0
 11
38.54221133955127
 21
33.64705842938401
 31
0.0
  0
LINE
  5
3A6A
330
38F5
100
AcDbEntity
  8
0
 62
     0
100
AcDbLine
 10
30.84221133955129
 20
25.94705842938407
 30
0.0
 11
33.30627140662466
 21
28.41111849645745
 31
0.0
  0
LINE
  5
3A6B
330
38F5
100
AcDbEntity
  8
0
 62
     0
100
AcDbLine
 10
40.34515328436498
 20
35.45000037419777
 30
0.0
 11
42.3922113395514
 21
37.49705842938414
 31
0.0
  0
LINE
  5
3A6C
330
38F5
100
AcDbEntity
  8
0
 62
     0
100
AcDbLine
 10
27.10287915962493
 20
22.20772624945772
 30
0.0
 11
29.84515328436499
 21
24.95000037419777
 31
0.0
  0
LINE
  5
3A6D
330
38F5
100
AcDbEntity
  8
0
 62
     0
100
AcDbLine
 10
35.74221133955115
 20
31.74508404149089
 30
0.0
 11
38.70802604533094
 21
34.71089874727068
 31
0.0
  0
LINE
  5
3A6E
330
38F5
100
AcDbEntity
  8
0
 62
     0
100
AcDbLine
 10
30.84005224794203
 20
26.84292494988171
 30
0.0
 11
32.99783987195264
 21
29.00071257389237
 31
0.0
  0
LINE
  5
3A6F
330
38F5
100
AcDbEntity
  8
0
 62
     0
100
AcDbLine
 10
39.28131296647848
 20
35.28418566841822
 30
0.0
 11
42.15874392463149
 21
38.16161662657118
 31
0.0
  0
LINE
  5
3A70
330
38F5
100
AcDbEntity
  8
0
 62
     0
100
AcDbLine
 10
26.81721133955131
 20
22.82008404149099
 30
0.0
 11
28.94712767225809
 21
24.95000037419777
 31
0.0
  0
LINE
  5
3A71
330
38F5
100
AcDbEntity
  8
0
 62
     0
100
AcDbLine
 10
30.62044922844132
 20
27.521347542488
 30
0.0
 11
32.61559790711374
 21
29.51649622116042
 31
0.0
  0
LINE
  5
3A72
330
38F5
100
AcDbEntity
  8
0
 62
     0
100
AcDbLine
 10
35.74221133955115
 20
32.64310965359783
 30
0.0
 11
41.34910206015121
 21
38.2500003741979
 31
0.0
  0
LINE
  5
3A73
330
38F5
100
AcDbEntity
  8
0
 62
     0
100
AcDbLine
 10
26.81721133955125
 20
23.71810965359793
 30
0.0
 11
28.04910206015114
 21
24.95000037419783
 31
0.0
  0
LINE
  5
3A74
330
38F5
100
AcDbEntity
  8
0
 62
     0
100
AcDbLine
 10
30.19419440013661
 20
27.99311832629013
 30
0.0
 11
32.17409338745898
 21
29.9730173136125
 31
0.0
  0
LINE
  5
3A75
330
38F5
100
AcDbEntity
  8
0
 62
     0
100
AcDbLine
 10
35.7422113395512
 20
33.54113526570467
 30
0.0
 11
40.45107644804426
 21
38.25000037419778
 31
0.0
  0
LINE
  5
3A76
330
38F5
100
AcDbEntity
  8
0
 62
     0
100
AcDbLine
 10
26.88616326157103
 20
24.68508718772455
 30
0.0
 11
27.08212452602464
 21
24.88104845217816
 31
0.0
  0
LINE
  5
3A77
330
38F5
100
AcDbEntity
  8
0
 62
     0
100
AcDbLine
 10
35.76218645370778
 20
34.4591359919682
 30
0.0
 11
39.53307572178079
 21
38.23002526004126
 31
0.0
  0
LINE
  5
3A78
330
38F5
100
AcDbEntity
  8
0
 62
     0
100
AcDbLine
 10
29.74518159408314
 20
28.4421311323436
 30
0.0
 11
31.72508058140551
 21
30.42203011966598
 31
0.0
  0
LINE
  5
3A79
330
38F5
100
AcDbEntity
  8
0
 62
     0
100
AcDbLine
 10
36.06164988597357
 20
35.65662503634098
 30
0.0
 11
38.33558667740806
 21
37.93056182777548
 31
0.0
  0
LINE
  5
3A7A
330
38F5
100
AcDbEntity
  8
0
 62
     0
100
AcDbLine
 10
29.29616878802966
 20
28.89114393839708
 30
0.0
 11
31.27606777535203
 21
30.87104292571945
 31
0.0
  0
LINE
  5
3A7B
330
38F5
100
AcDbEntity
  8
0
 62
     0
100
AcDbLine
 10
28.84715598197625
 20
29.34015674445049
 30
0.0
 11
30.82705496929856
 21
31.32005573177276
 31
0.0
  0
LINE
  5
3A7C
330
38F5
100
AcDbEntity
  8
0
 62
     0
100
AcDbLine
 10
28.39814317592277
 20
29.78916955050397
 30
0.0
 11
30.37804216324508
 21
31.76906853782623
 31
0.0
  0
LINE
  5
3A7D
330
38F5
100
AcDbEntity
  8
0
 62
     0
100
AcDbLine
 10
27.9491303698693
 20
30.23818235655745
 30
0.0
 11
29.92902935719161
 21
32.2180813438797
 31
0.0
  0
LINE
  5
3A7E
330
38F5
100
AcDbEntity
  8
0
 62
     0
100
AcDbLine
 10
32.26292277540279
 20
35.45000037419788
 30
0.0
 11
33.11721133955115
 21
36.30428893834625
 31
0.0
  0
LINE
  5
3A7F
330
38F5
100
AcDbEntity
  8
0
 62
     0
100
AcDbLine
 10
27.50020087784395
 20
30.68727847663905
 30
0.0
 11
29.48026652127641
 21
32.66734412007151
 31
0.0
  0
LINE
  5
3A80
330
38F5
100
AcDbEntity
  8
0
 62
     0
100
AcDbLine
 10
31.36489716329584
 20
35.45000037419777
 30
0.0
 11
33.11721133955126
 21
37.2023145504532
 31
0.0
  0
LINE
  5
3A81
330
38F5
100
AcDbEntity
  8
0
 62
     0
100
AcDbLine
 10
27.08873295329238
 20
31.17383616419426
 30
0.0
 11
29.15036963998847
 21
33.2354728508904
 31
0.0
  0
LINE
  5
3A82
330
38F5
100
AcDbEntity
  8
0
 62
     0
100
AcDbLine
 10
30.46687155118889
 20
35.45000037419777
 30
0.0
 11
33.03065243979012
 21
38.013781262799
 31
0.0
  0
LINE
  5
3A83
330
38F5
100
AcDbEntity
  8
0
 62
     0
100
AcDbLine
 10
26.74827234702991
 20
31.73140117003874
 30
0.0
 11
29.09221133955134
 21
34.07534016256017
 31
0.0
  0
LINE
  5
3A84
330
38F5
100
AcDbEntity
  8
0
 62
     0
100
AcDbLine
 10
29.56637928991188
 20
35.44753372502766
 30
0.0
 11
32.36884593908206
 21
38.25000037419784
 31
0.0
  0
LINE
  5
3A85
330
38F5
100
AcDbEntity
  8
0
 62
     0
100
AcDbLine
 10
26.48757905129782
 20
32.36873348641359
 30
0.0
 11
29.0946779887214
 21
34.97583242383723
 31
0.0
  0
LINE
  5
3A86
330
38F5
100
AcDbEntity
  8
0
 62
     0
100
AcDbLine
 10
26.32576708904975
 20
33.10494713627242
 30
0.0
 11
31.47082032697517
 21
38.25000037419784
 31
0.0
  0
LINE
  5
3A87
330
38F5
100
AcDbEntity
  8
0
 62
     0
100
AcDbLine
 10
26.29221133955133
 20
33.96941699888095
 30
0.0
 11
30.57279471486822
 21
38.25000037419784
 31
0.0
  0
LINE
  5
3A88
330
38F5
100
AcDbEntity
  8
0
 62
     0
100
AcDbLine
 10
26.29221133955133
 20
34.86744261098784
 30
0.0
 11
29.67476910276133
 21
38.25000037419784
 31
0.0
  0
LINE
  5
3A89
330
38F5
100
AcDbEntity
  8
0
 62
     0
100
AcDbLine
 10
26.31240334998955
 20
35.78566023353301
 30
0.0
 11
28.75655148021616
 21
38.22980836375961
 31
0.0
  0
ENDBLK
  5
3A8A
330
38F5
100
AcDbEntity
  8
0
100
AcDbBlockEnd
  0
BLOCK
  5
4083
330
407A
100
AcDbEntity
  8
0
100
AcDbBlockBegin
  2
*D14
 70
     1
 10
0.0
 20
0.0
 30
0.0
  3
*D14
  1

  0
LINE
  5
4222
330
407A
100
AcDbEntity
  8
SUNPOU
100
AcDbLine
 10
1104.042665079528
 20
309.2022377884118
 30
0.0
 11
1117.288848251138
 21
292.9068816590069
 31
0.0
  0
LINE
  5
4223
330
407A
100
AcDbEntity
  8
SUNPOU
100
AcDbLine
 10
1129.27452787689
 20
278.1621876272069
 30
0.0
 11
1133.689922267427
 21
272.7304022507386
 31
0.0
  0
MTEXT
  5
4224
330
407A
100
AcDbEntity
  8
SUNPOU
100
AcDbMText
 10
1112.337906167542
 20
306.9243055480415
 30
0.0
 40
6.0
 41
0.0
 71
     5
 72
     1
  1
\A1;\U+22055
 11
0.6307706272195645
 21
-0.7759693394954709
 31
0.0
 73
     1
 44
1.0
1001
ACAD
1000
MTEXTBEGIN
1070
    73
1070
     1
1070
    44
1040
1.0
1070
    74
1070
     0
1000
MTEXTEND
  0
LINE
  5
4225
330
407A
100
AcDbEntity
  8
SUNPOU
100
AcDbLine
 10
1124.859133486353
 20
283.5939730036752
 30
0.0
 11
1121.704242641675
 21
287.4750962825386
 31
0.0
  0
INSERT
  5
4226
330
407A
100
AcDbEntity
  8
SUNPOU
100
AcDbBlockReference
  2
_OPEN
 10
1124.859133486353
 20
283.5939730036752
 30
0.0
 41
7.0
 42
7.0
 43
7.0
 50
129.1070009259738
  0
INSERT
  5
4227
330
407A
100
AcDbEntity
  8
SUNPOU
100
AcDbBlockReference
  2
_OPEN
 10
1121.704242641675
 20
287.4750962825386
 30
0.0
 41
7.0
 42
7.0
 43
7.0
 50
309.1070009259738
  0
POINT
  5
4228
330
407A
100
AcDbEntity
  8
DEFPOINTS
 62
     0
100
AcDbPoint
 10
1121.704242641675
 20
287.4750962825386
 30
0.0
  0
POINT
  5
4229
330
407A
100
AcDbEntity
  8
DEFPOINTS
 62
     0
100
AcDbPoint
 10
1124.859133486353
 20
283.5939730036752
 30
0.0
  0
ENDBLK
  5
4084
330
407A
100
AcDbEntity
  8
0
100
AcDbBlockEnd
  0
BLOCK
  5
408F
330
4085
100
AcDbEntity
  8
0
100
AcDbBlockBegin
  2
*D15
 70
     1
 10
0.0
 20
0.0
 30
0.0
  3
*D15
  1

  0
LINE
  5
41F1
330
4085
100
AcDbEntity
  8
SUNPOU
100
AcDbLine
 10
1145.031688065224
 20
293.5343060726621
 30
0.0
 11
1190.779432247721
 21
293.534306072662
 31
0.0
  0
LINE
  5
41F2
330
4085
100
AcDbEntity
  8
SUNPOU
100
AcDbLine
 10
1124.481688065224
 20
86.83430607266222
 30
0.0
 11
1190.779432247721
 21
86.8343060726622
 31
0.0
  0
LINE
  5
41F3
330
4085
100
AcDbEntity
  8
SUNPOU
100
AcDbLine
 10
1187.779432247721
 20
286.534306072662
 30
0.0
 11
1187.779432247721
 21
93.8343060726622
 31
0.0
  0
INSERT
  5
41F4
330
4085
100
AcDbEntity
  8
SUNPOU
100
AcDbBlockReference
  2
_OPEN
 10
1187.779432247721
 20
293.534306072662
 30
0.0
 41
7.0
 42
7.0
 43
7.0
 50
90.0
  0
INSERT
  5
41F5
330
4085
100
AcDbEntity
  8
SUNPOU
100
AcDbBlockReference
  2
_OPEN
 10
1187.779432247721
 20
86.8343060726622
 30
0.0
 41
7.0
 42
7.0
 43
7.0
 50
270.0
  0
MTEXT
  5
41F6
330
4085
100
AcDbEntity
  8
SUNPOU
100
AcDbMText
 10
1182.779432247721
 20
190.1843060726623
 30
0.0
 40
6.0
 41
0.0
 71
     5
 72
     1
  1
\A1;207
 11
0.0000000000000001
 21
1.0
 31
0.0
 73
     1
 44
1.0
1001
ACAD
1000
MTEXTBEGIN
1070
    73
1070
     1
1070
    44
1040
1.0
1070
    74
1070
     0
1000
MTEXTEND
  0
POINT
  5
41F7
330
4085
100
AcDbEntity
  8
DEFPOINTS
 62
     0
100
AcDbPoint
 10
1139.031688065224
 20
293.5343060726621
 30
0.0
  0
POINT
  5
41F8
330
4085
100
AcDbEntity
  8
DEFPOINTS
 62
     0
100
AcDbPoint
 10
1118.481688065224
 20
86.83430607266222
 30
0.0
  0
POINT
  5
41F9
330
4085
100
AcDbEntity
  8
DEFPOINTS
 62
     0
100
AcDbPoint
 10
1187.779432247721
 20
86.8343060726622
 30
0.0
  0
ENDBLK
  5
4090
330
4085
100
AcDbEntity
  8
0
100
AcDbBlockEnd
  0
BLOCK
  5
409B
330
4091
100
AcDbEntity
  8
0
100
AcDbBlockBegin
  2
*D16
 70
     1
 10
0.0
 20
0.0
 30
0.0
  3
*D16
  1

  0
LINE
  5
41E8
330
4091
100
AcDbEntity
  8
SUNPOU
100
AcDbLine
 10
1146.206989824292
 20
130.534306072662
 30
0.0
 11
1171.934573766577
 21
130.534306072662
 31
0.0
  0
LINE
  5
41E9
330
4091
100
AcDbEntity
  8
SUNPOU
100
AcDbLine
 10
1125.481688065224
 20
86.83430607266222
 30
0.0
 11
1171.934573766577
 21
86.83430607266222
 31
0.0
  0
LINE
  5
41EA
330
4091
100
AcDbEntity
  8
SUNPOU
100
AcDbLine
 10
1168.934573766577
 20
123.534306072662
 30
0.0
 11
1168.934573766577
 21
93.83430607266221
 31
0.0
  0
INSERT
  5
41EB
330
4091
100
AcDbEntity
  8
SUNPOU
100
AcDbBlockReference
  2
_OPEN
 10
1168.934573766577
 20
130.534306072662
 30
0.0
 41
7.0
 42
7.0
 43
7.0
 50
90.0
  0
INSERT
  5
41EC
330
4091
100
AcDbEntity
  8
SUNPOU
100
AcDbBlockReference
  2
_OPEN
 10
1168.934573766577
 20
86.83430607266222
 30
0.0
 41
7.0
 42
7.0
 43
7.0
 50
270.0
  0
MTEXT
  5
41ED
330
4091
100
AcDbEntity
  8
SUNPOU
100
AcDbMText
 10
1163.934573766577
 20
108.6843060726623
 30
0.0
 40
6.0
 41
0.0
 71
     5
 72
     1
  1
\A1;44
 11
0.0000000000000001
 21
1.0
 31
0.0
 73
     1
 44
1.0
1001
ACAD
1000
MTEXTBEGIN
1070
    73
1070
     1
1070
    44
1040
1.0
1070
    74
1070
     0
1000
MTEXTEND
  0
POINT
  5
41EE
330
4091
100
AcDbEntity
  8
DEFPOINTS
 62
     0
100
AcDbPoint
 10
1140.206989824292
 20
130.534306072662
 30
0.0
  0
POINT
  5
41EF
330
4091
100
AcDbEntity
  8
DEFPOINTS
 62
     0
100
AcDbPoint
 10
1119.481688065224
 20
86.83430607266222
 30
0.0
  0
POINT
  5
41F0
330
4091
100
AcDbEntity
  8
DEFPOINTS
 62
     0
100
AcDbPoint
 10
1168.934573766577
 20
86.83430607266222
 30
0.0
  0
ENDBLK
  5
409C
330
4091
100
AcDbEntity
  8
0
100
AcDbBlockEnd
  0
BLOCK
  5
40A7
330
409D
100
AcDbEntity
  8
0
100
AcDbBlockBegin
  2
*D17
 70
     1
 10
0.0
 20
0.0
 30
0.0
  3
*D17
  1

  0
LINE
  5
41DD
330
409D
100
AcDbEntity
  8
SUNPOU
100
AcDbLine
 10
1145.031688065224
 20
293.5343060726621
 30
0.0
 11
1172.213451583816
 21
293.534306072662
 31
0.0
  0
LINE
  5
41DE
330
409D
100
AcDbEntity
  8
SUNPOU
100
AcDbLine
 10
1149.281688065224
 20
278.5343060726621
 30
0.0
 11
1172.213451583816
 21
278.534306072662
 31
0.0
  0
LINE
  5
41DF
330
409D
100
AcDbEntity
  8
SUNPOU
100
AcDbLine
 10
1169.213451583816
 20
300.534306072662
 30
0.0
 11
1169.213451583816
 21
307.534306072662
 31
0.0
  0
LINE
  5
41E0
330
409D
100
AcDbEntity
  8
SUNPOU
100
AcDbLine
 10
1169.213451583816
 20
271.534306072662
 30
0.0
 11
1169.213451583816
 21
264.534306072662
 31
0.0
  0
LINE
  5
41E1
330
409D
100
AcDbEntity
  8
SUNPOU
100
AcDbLine
 10
1169.213451583816
 20
293.534306072662
 30
0.0
 11
1169.213451583816
 21
278.534306072662
 31
0.0
  0
INSERT
  5
41E2
330
409D
100
AcDbEntity
  8
SUNPOU
100
AcDbBlockReference
  2
_OPEN
 10
1169.213451583816
 20
293.534306072662
 30
0.0
 41
7.0
 42
7.0
 43
7.0
 50
270.0
  0
INSERT
  5
41E3
330
409D
100
AcDbEntity
  8
SUNPOU
100
AcDbBlockReference
  2
_OPEN
 10
1169.213451583816
 20
278.534306072662
 30
0.0
 41
7.0
 42
7.0
 43
7.0
 50
90.0
  0
MTEXT
  5
41E4
330
409D
100
AcDbEntity
  8
SUNPOU
100
AcDbMText
 10
1164.213451583816
 20
286.0343060726622
 30
0.0
 40
6.0
 41
0.0
 71
     5
 72
     1
  1
\A1;15
 11
0.0000000000000001
 21
1.0
 31
0.0
 73
     1
 44
1.0
1001
ACAD
1000
MTEXTBEGIN
1070
    73
1070
     1
1070
    44
1040
1.0
1070
    74
1070
     0
1000
MTEXTEND
  0
POINT
  5
41E5
330
409D
100
AcDbEntity
  8
DEFPOINTS
 62
     0
100
AcDbPoint
 10
1139.031688065224
 20
293.5343060726621
 30
0.0
  0
POINT
  5
41E6
330
409D
100
AcDbEntity
  8
DEFPOINTS
 62
     0
100
AcDbPoint
 10
1143.281688065224
 20
278.5343060726621
 30
0.0
  0
POINT
  5
41E7
330
409D
100
AcDbEntity
  8
DEFPOINTS
 62
     0
100
AcDbPoint
 10
1169.213451583816
 20
278.534306072662
 30
0.0
  0
ENDBLK
  5
40A8
330
409D
100
AcDbEntity
  8
0
100
AcDbBlockEnd
  0
BLOCK
  5
40B3
330
40A9
100
AcDbEntity
  8
0
100
AcDbBlockBegin
  2
*D18
 70
     1
 10
0.0
 20
0.0
 30
0.0
  3
*D18
  1

  0
LINE
  5
41D4
330
40A9
100
AcDbEntity
  8
SUNPOU
100
AcDbLine
 10
1150.281688065224
 20
278.5343060726621
 30
0.0
 11
1172.213451583816
 21
278.534306072662
 31
0.0
  0
LINE
  5
41D5
330
40A9
100
AcDbEntity
  8
SUNPOU
100
AcDbLine
 10
1146.20698982429
 20
130.5343060726611
 30
0.0
 11
1172.213451583816
 21
130.5343060726611
 31
0.0
  0
LINE
  5
41D6
330
40A9
100
AcDbEntity
  8
SUNPOU
100
AcDbLine
 10
1169.213451583816
 20
271.534306072662
 30
0.0
 11
1169.213451583816
 21
137.5343060726611
 31
0.0
  0
INSERT
  5
41D7
330
40A9
100
AcDbEntity
  8
SUNPOU
100
AcDbBlockReference
  2
_OPEN
 10
1169.213451583816
 20
278.534306072662
 30
0.0
 41
7.0
 42
7.0
 43
7.0
 50
90.0
  0
INSERT
  5
41D8
330
40A9
100
AcDbEntity
  8
SUNPOU
100
AcDbBlockReference
  2
_OPEN
 10
1169.213451583816
 20
130.5343060726611
 30
0.0
 41
7.0
 42
7.0
 43
7.0
 50
270.0
  0
MTEXT
  5
41D9
330
40A9
100
AcDbEntity
  8
SUNPOU
100
AcDbMText
 10
1164.213451583816
 20
204.5343060726617
 30
0.0
 40
6.0
 41
0.0
 71
     5
 72
     1
  1
\A1;148
 11
0.0000000000000001
 21
1.0
 31
0.0
 73
     1
 44
1.0
1001
ACAD
1000
MTEXTBEGIN
1070
    73
1070
     1
1070
    44
1040
1.0
1070
    74
1070
     0
1000
MTEXTEND
  0
POINT
  5
41DA
330
40A9
100
AcDbEntity
  8
DEFPOINTS
 62
     0
100
AcDbPoint
 10
1144.281688065224
 20
278.5343060726621
 30
0.0
  0
POINT
  5
41DB
330
40A9
100
AcDbEntity
  8
DEFPOINTS
 62
     0
100
AcDbPoint
 10
1140.20698982429
 20
130.5343060726611
 30
0.0
  0
POINT
  5
41DC
330
40A9
100
AcDbEntity
  8
DEFPOINTS
 62
     0
100
AcDbPoint
 10
1169.213451583816
 20
130.5343060726611
 30
0.0
  0
ENDBLK
  5
40B4
330
40A9
100
AcDbEntity
  8
0
100
AcDbBlockEnd
  0
BLOCK
  5
40BD
330
40B5
100
AcDbEntity
  8
0
100
AcDbBlockBegin
  2
*D19
 70
     1
 10
0.0
 20
0.0
 30
0.0
  3
*D19
  1

  0
LINE
  5
418C
330
40B5
100
AcDbEntity
  8
SUNPOU
100
AcDbLine
 10
1438.86485598052
 20
256.718434929204
 30
0.0
 11
1438.86485598052
 21
253.718434929204
 31
0.0
  0
LINE
  5
418D
330
40B5
100
AcDbEntity
  8
SUNPOU
100
AcDbLine
 10
1510.864855379096
 20
256.718434929204
 30
0.0
 11
1510.864855379096
 21
253.718434929204
 31
0.0
  0
LINE
  5
418E
330
40B5
100
AcDbEntity
  8
SUNPOU
100
AcDbLine
 10
1445.86485598052
 20
250.718434929204
 30
0.0
 11
1503.864855379096
 21
250.718434929204
 31
0.0
  0
INSERT
  5
418F
330
40B5
100
AcDbEntity
  8
SUNPOU
100
AcDbBlockReference
  2
_OPEN
 10
1438.86485598052
 20
250.718434929204
 30
0.0
 41
7.0
 42
7.0
 43
7.0
 50
180.0
  0
INSERT
  5
4190
330
40B5
100
AcDbEntity
  8
SUNPOU
100
AcDbBlockReference
  2
_OPEN
 10
1510.864855379096
 20
250.718434929204
 30
0.0
 41
7.0
 42
7.0
 43
7.0
  0
MTEXT
  5
4191
330
40B5
100
AcDbEntity
  8
SUNPOU
100
AcDbMText
 10
1474.864855679808
 20
255.718434929204
 30
0.0
 40
6.0
 41
0.0
 71
     5
 72
     1
  1
\A1;72
 73
     1
 44
1.0
1001
ACAD
1000
MTEXTBEGIN
1070
    73
1070
     1
1070
    44
1040
1.0
1070
    74
1070
     0
1000
MTEXTEND
  0
POINT
  5
4192
330
40B5
100
AcDbEntity
  8
DEFPOINTS
 62
     0
100
AcDbPoint
 10
1438.86485598052
 20
250.718434929204
 30
0.0
  0
POINT
  5
4193
330
40B5
100
AcDbEntity
  8
DEFPOINTS
 62
     0
100
AcDbPoint
 10
1510.864855379096
 20
250.718434929204
 30
0.0
  0
POINT
  5
4194
330
40B5
100
AcDbEntity
  8
DEFPOINTS
 62
     0
100
AcDbPoint
 10
1510.864855379096
 20
250.718434929204
 30
0.0
  0
ENDBLK
  5
40BE
330
40B5
100
AcDbEntity
  8
0
100
AcDbBlockEnd
  0
BLOCK
  5
40C9
330
40BF
100
AcDbEntity
  8
0
100
AcDbBlockBegin
  2
*D20
 70
     1
 10
0.0
 20
0.0
 30
0.0
  3
*D20
  1

  0
LINE
  5
419A
330
40BF
100
AcDbEntity
  8
SUNPOU
100
AcDbLine
 10
1521.976557466482
 20
276.6390364622314
 30
0.0
 11
1554.272843496047
 21
276.6390364622314
 31
0.0
  0
LINE
  5
419B
330
40BF
100
AcDbEntity
  8
SUNPOU
100
AcDbLine
 10
1480.864855980524
 20
195.499395942805
 30
0.0
 11
1554.272843496047
 21
195.499395942805
 31
0.0
  0
LINE
  5
419C
330
40BF
100
AcDbEntity
  8
SUNPOU
100
AcDbLine
 10
1551.272843496047
 20
269.6390364622314
 30
0.0
 11
1551.272843496047
 21
202.499395942805
 31
0.0
  0
INSERT
  5
419D
330
40BF
100
AcDbEntity
  8
SUNPOU
100
AcDbBlockReference
  2
_OPEN
 10
1551.272843496047
 20
276.6390364622314
 30
0.0
 41
7.0
 42
7.0
 43
7.0
 50
90.0
  0
INSERT
  5
419E
330
40BF
100
AcDbEntity
  8
SUNPOU
100
AcDbBlockReference
  2
_OPEN
 10
1551.272843496047
 20
195.499395942805
 30
0.0
 41
7.0
 42
7.0
 43
7.0
 50
270.0
  0
MTEXT
  5
419F
330
40BF
100
AcDbEntity
  8
SUNPOU
100
AcDbMText
 10
1546.272843496047
 20
236.0692162025185
 30
0.0
 40
6.0
 41
0.0
 71
     5
 72
     1
  1
\A1;81
 11
0.0000000000000001
 21
1.0
 31
0.0
 73
     1
 44
1.0
1001
ACAD
1000
MTEXTBEGIN
1070
    73
1070
     1
1070
    44
1040
1.0
1070
    74
1070
     0
1000
MTEXTEND
  0
POINT
  5
41A0
330
40BF
100
AcDbEntity
  8
DEFPOINTS
 62
     0
100
AcDbPoint
 10
1515.976557466482
 20
276.6390364622314
 30
0.0
  0
POINT
  5
41A1
330
40BF
100
AcDbEntity
  8
DEFPOINTS
 62
     0
100
AcDbPoint
 10
1474.864855980524
 20
195.499395942805
 30
0.0
  0
POINT
  5
41A2
330
40BF
100
AcDbEntity
  8
DEFPOINTS
 62
     0
100
AcDbPoint
 10
1551.272843496047
 20
195.499395942805
 30
0.0
  0
ENDBLK
  5
40CA
330
40BF
100
AcDbEntity
  8
0
100
AcDbBlockEnd
  0
BLOCK
  5
40D1
330
40CB
100
AcDbEntity
  8
0
100
AcDbBlockBegin
  2
*D21
 70
     1
 10
0.0
 20
0.0
 30
0.0
  3
*D21
  1

  0
LINE
  5
4195
330
40CB
100
AcDbEntity
  8
SUNPOU
100
AcDbLine
 10
1473.696458800985
 20
229.8682606748857
 30
0.0
 11
1458.193698563789
 21
207.7625052019774
 31
0.0
  0
MTEXT
  5
4196
330
40CB
100
AcDbEntity
  8
SUNPOU
100
AcDbMText
 10
1463.861037329263
 20
224.5518253584746
 30
0.0
 40
6.0
 41
0.0
 71
     5
 72
     1
  1
\A1;R36
 11
0.5741763050813312
 21
0.8187316841817899
 31
0.0
 73
     1
 44
1.0
1001
ACAD
1000
MTEXTBEGIN
1070
    73
1070
     1
1070
    44
1040
1.0
1070
    74
1070
     0
1000
MTEXTEND
  0
INSERT
  5
4197
330
40CB
100
AcDbEntity
  8
SUNPOU
100
AcDbBlockReference
  2
_OPEN
 10
1454.17446442822
 20
202.0313834127049
 30
0.0
 41
7.0
 42
7.0
 43
7.0
 50
234.9580312761242
  0
POINT
  5
4198
330
40CB
100
AcDbEntity
  8
DEFPOINTS
 62
     0
100
AcDbPoint
 10
1454.17446442822
 20
202.0313834127049
 30
0.0
  0
POINT
  5
4199
330
40CB
100
AcDbEntity
  8
DEFPOINTS
 62
     0
100
AcDbPoint
 10
1474.86485598052
 20
231.5343060726639
 30
0.0
  0
ENDBLK
  5
40D2
330
40CB
100
AcDbEntity
  8
0
100
AcDbBlockEnd
  0
BLOCK
  5
40DD
330
40D3
100
AcDbEntity
  8
0
100
AcDbBlockBegin
  2
*D22
 70
     1
 10
0.0
 20
0.0
 30
0.0
  3
*D22
  1

  0
LINE
  5
4183
330
40D3
100
AcDbEntity
  8
SUNPOU
100
AcDbLine
 10
1442.364855980519
 20
291.5343060726621
 30
0.0
 11
1442.364855980519
 21
316.0573226689724
 31
0.0
  0
LINE
  5
4184
330
40D3
100
AcDbEntity
  8
SUNPOU
100
AcDbLine
 10
1507.364855980519
 20
291.5343060726621
 30
0.0
 11
1507.364855980519
 21
316.0573226689724
 31
0.0
  0
LINE
  5
4185
330
40D3
100
AcDbEntity
  8
SUNPOU
100
AcDbLine
 10
1449.364855980519
 20
313.0573226689723
 30
0.0
 11
1500.36485598052
 21
313.0573226689723
 31
0.0
  0
INSERT
  5
4186
330
40D3
100
AcDbEntity
  8
SUNPOU
100
AcDbBlockReference
  2
_OPEN
 10
1442.364855980519
 20
313.0573226689723
 30
0.0
 41
7.0
 42
7.0
 43
7.0
 50
180.0
  0
INSERT
  5
4187
330
40D3
100
AcDbEntity
  8
SUNPOU
100
AcDbBlockReference
  2
_OPEN
 10
1507.364855980519
 20
313.0573226689723
 30
0.0
 41
7.0
 42
7.0
 43
7.0
  0
MTEXT
  5
4188
330
40D3
100
AcDbEntity
  8
SUNPOU
100
AcDbMText
 10
1474.864855980519
 20
318.0573226689724
 30
0.0
 40
6.0
 41
0.0
 71
     5
 72
     1
  1
\A1;65
 73
     1
 44
1.0
1001
ACAD
1000
MTEXTBEGIN
1070
    73
1070
     1
1070
    44
1040
1.0
1070
    74
1070
     0
1000
MTEXTEND
  0
POINT
  5
4189
330
40D3
100
AcDbEntity
  8
DEFPOINTS
 62
     0
100
AcDbPoint
 10
1442.364855980519
 20
285.5343060726621
 30
0.0
  0
POINT
  5
418A
330
40D3
100
AcDbEntity
  8
DEFPOINTS
 62
     0
100
AcDbPoint
 10
1507.364855980519
 20
285.5343060726621
 30
0.0
  0
POINT
  5
418B
330
40D3
100
AcDbEntity
  8
DEFPOINTS
 62
     0
100
AcDbPoint
 10
1507.364855980519
 20
313.0573226689723
 30
0.0
  0
ENDBLK
  5
40DE
330
40D3
100
AcDbEntity
  8
0
100
AcDbBlockEnd
  0
BLOCK
  5
40E9
330
40DF
100
AcDbEntity
  8
0
100
AcDbBlockBegin
  2
*D23
 70
     1
 10
0.0
 20
0.0
 30
0.0
  3
*D23
  1

  0
LINE
  5
4171
330
40DF
100
AcDbEntity
  8
SUNPOU
100
AcDbLine
 10
1255.498864651099
 20
284.534306072662
 30
0.0
 11
1255.498864651099
 21
316.0573226689724
 31
0.0
  0
LINE
  5
4172
330
40DF
100
AcDbEntity
  8
SUNPOU
100
AcDbLine
 10
1360.4988646511
 20
299.2843060726621
 30
0.0
 11
1360.4988646511
 21
316.0573226689724
 31
0.0
  0
LINE
  5
4173
330
40DF
100
AcDbEntity
  8
SUNPOU
100
AcDbLine
 10
1262.498864651099
 20
313.0573226689723
 30
0.0
 11
1353.4988646511
 21
313.0573226689723
 31
0.0
  0
INSERT
  5
4174
330
40DF
100
AcDbEntity
  8
SUNPOU
100
AcDbBlockReference
  2
_OPEN
 10
1255.498864651099
 20
313.0573226689723
 30
0.0
 41
7.0
 42
7.0
 43
7.0
 50
180.0
  0
INSERT
  5
4175
330
40DF
100
AcDbEntity
  8
SUNPOU
100
AcDbBlockReference
  2
_OPEN
 10
1360.4988646511
 20
313.0573226689723
 30
0.0
 41
7.0
 42
7.0
 43
7.0
  0
MTEXT
  5
4176
330
40DF
100
AcDbEntity
  8
SUNPOU
100
AcDbMText
 10
1307.9988646511
 20
318.0573226689724
 30
0.0
 40
6.0
 41
0.0
 71
     5
 72
     1
  1
\A1;105
 73
     1
 44
1.0
1001
ACAD
1000
MTEXTBEGIN
1070
    73
1070
     1
1070
    44
1040
1.0
1070
    74
1070
     0
1000
MTEXTEND
  0
POINT
  5
4177
330
40DF
100
AcDbEntity
  8
DEFPOINTS
 62
     0
100
AcDbPoint
 10
1255.498864651099
 20
278.5343060726621
 30
0.0
  0
POINT
  5
4178
330
40DF
100
AcDbEntity
  8
DEFPOINTS
 62
     0
100
AcDbPoint
 10
1360.4988646511
 20
293.2843060726621
 30
0.0
  0
POINT
  5
4179
330
40DF
100
AcDbEntity
  8
DEFPOINTS
 62
     0
100
AcDbPoint
 10
1360.4988646511
 20
313.0573226689723
 30
0.0
  0
ENDBLK
  5
40EA
330
40DF
100
AcDbEntity
  8
0
100
AcDbBlockEnd
  0
BLOCK
  5
40F5
330
40EB
100
AcDbEntity
  8
0
100
AcDbBlockBegin
  2
*D24
 70
     1
 10
0.0
 20
0.0
 30
0.0
  3
*D24
  1

  0
LINE
  5
4202
330
40EB
100
AcDbEntity
  8
SUNPOU
100
AcDbLine
 10
1038.281688065223
 20
481.1933488451431
 30
0.0
 11
1038.281688065223
 21
511.8535174737335
 31
0.0
  0
LINE
  5
4203
330
40EB
100
AcDbEntity
  8
SUNPOU
100
AcDbLine
 10
1143.281688065224
 20
481.1933488451414
 30
0.0
 11
1143.281688065224
 21
511.8535174737335
 31
0.0
  0
LINE
  5
4204
330
40EB
100
AcDbEntity
  8
SUNPOU
100
AcDbLine
 10
1045.281688065223
 20
508.8535174737335
 30
0.0
 11
1136.281688065224
 21
508.8535174737335
 31
0.0
  0
INSERT
  5
4205
330
40EB
100
AcDbEntity
  8
SUNPOU
100
AcDbBlockReference
  2
_OPEN
 10
1038.281688065223
 20
508.8535174737335
 30
0.0
 41
7.0
 42
7.0
 43
7.0
 50
180.0
  0
INSERT
  5
4206
330
40EB
100
AcDbEntity
  8
SUNPOU
100
AcDbBlockReference
  2
_OPEN
 10
1143.281688065224
 20
508.8535174737335
 30
0.0
 41
7.0
 42
7.0
 43
7.0
  0
MTEXT
  5
4207
330
40EB
100
AcDbEntity
  8
SUNPOU
100
AcDbMText
 10
1090.781688065224
 20
513.8535174737334
 30
0.0
 40
6.0
 41
0.0
 71
     5
 72
     1
  1
\A1;105
 73
     1
 44
1.0
1001
ACAD
1000
MTEXTBEGIN
1070
    73
1070
     1
1070
    44
1040
1.0
1070
    74
1070
     0
1000
MTEXTEND
  0
POINT
  5
4208
330
40EB
100
AcDbEntity
  8
DEFPOINTS
 62
     0
100
AcDbPoint
 10
1038.281688065223
 20
475.1933488451432
 30
0.0
  0
POINT
  5
4209
330
40EB
100
AcDbEntity
  8
DEFPOINTS
 62
     0
100
AcDbPoint
 10
1143.281688065224
 20
475.1933488451413
 30
0.0
  0
POINT
  5
420A
330
40EB
100
AcDbEntity
  8
DEFPOINTS
 62
     0
100
AcDbPoint
 10
1143.281688065224
 20
508.8535174737335
 30
0.0
  0
ENDBLK
  5
40F6
330
40EB
100
AcDbEntity
  8
0
100
AcDbBlockEnd
  0
BLOCK
  5
41AE
330
41A4
100
AcDbEntity
  8
0
100
AcDbBlockBegin
  2
*D25
 70
     1
 10
0.0
 20
0.0
 30
0.0
  3
*D25
  1

  0
LINE
  5
41CB
330
41A4
100
AcDbEntity
  8
SUNPOU
100
AcDbLine
 10
1145.031688065223
 20
482.1933488451431
 30
0.0
 11
1178.564683099129
 21
482.1933488451431
 31
0.0
  0
LINE
  5
41CC
330
41A4
100
AcDbEntity
  8
SUNPOU
100
AcDbLine
 10
1096.781688065223
 20
377.1933488451432
 30
0.0
 11
1178.564683099129
 21
377.1933488451431
 31
0.0
  0
LINE
  5
41CD
330
41A4
100
AcDbEntity
  8
SUNPOU
100
AcDbLine
 10
1175.564683099129
 20
475.1933488451431
 30
0.0
 11
1175.564683099129
 21
384.1933488451431
 31
0.0
  0
INSERT
  5
41CE
330
41A4
100
AcDbEntity
  8
SUNPOU
100
AcDbBlockReference
  2
_OPEN
 10
1175.564683099129
 20
482.1933488451431
 30
0.0
 41
7.0
 42
7.0
 43
7.0
 50
90.0
  0
INSERT
  5
41CF
330
41A4
100
AcDbEntity
  8
SUNPOU
100
AcDbBlockReference
  2
_OPEN
 10
1175.564683099129
 20
377.1933488451431
 30
0.0
 41
7.0
 42
7.0
 43
7.0
 50
270.0
  0
MTEXT
  5
41D0
330
41A4
100
AcDbEntity
  8
SUNPOU
100
AcDbMText
 10
1170.564683099129
 20
429.6933488451434
 30
0.0
 40
6.0
 41
0.0
 71
     5
 72
     1
  1
\A1;105
 11
0.0000000000000001
 21
1.0
 31
0.0
 73
     1
 44
1.0
1001
ACAD
1000
MTEXTBEGIN
1070
    73
1070
     1
1070
    44
1040
1.0
1070
    74
1070
     0
1000
MTEXTEND
  0
POINT
  5
41D1
330
41A4
100
AcDbEntity
  8
DEFPOINTS
 62
     0
100
AcDbPoint
 10
1139.031688065223
 20
482.1933488451431
 30
0.0
  0
POINT
  5
41D2
330
41A4
100
AcDbEntity
  8
DEFPOINTS
 62
     0
100
AcDbPoint
 10
1090.781688065223
 20
377.1933488451432
 30
0.0
  0
POINT
  5
41D3
330
41A4
100
AcDbEntity
  8
DEFPOINTS
 62
     0
100
AcDbPoint
 10
1175.564683099129
 20
377.1933488451431
 30
0.0
  0
ENDBLK
  5
41AF
330
41A4
100
AcDbEntity
  8
0
100
AcDbBlockEnd
  0
BLOCK
  5
4218
330
420E
100
AcDbEntity
  8
0
100
AcDbBlockBegin
  2
*D26
 70
     1
 10
0.0
 20
0.0
 30
0.0
  3
*D26
  1

  0
LINE
  5
422A
330
420E
100
AcDbEntity
  8
SUNPOU
100
AcDbLine
 10
1038.281688065224
 20
284.534306072662
 30
0.0
 11
1038.281688065224
 21
327.651301147014
 31
0.0
  0
LINE
  5
422B
330
420E
100
AcDbEntity
  8
SUNPOU
100
AcDbLine
 10
1143.155808097647
 20
284.534306072662
 30
0.0
 11
1143.155808097647
 21
327.651301147014
 31
0.0
  0
LINE
  5
422C
330
420E
100
AcDbEntity
  8
SUNPOU
100
AcDbLine
 10
1045.281688065224
 20
324.651301147014
 30
0.0
 11
1136.155808097647
 21
324.651301147014
 31
0.0
  0
INSERT
  5
422D
330
420E
100
AcDbEntity
  8
SUNPOU
100
AcDbBlockReference
  2
_OPEN
 10
1038.281688065224
 20
324.651301147014
 30
0.0
 41
7.0
 42
7.0
 43
7.0
 50
180.0
  0
INSERT
  5
422E
330
420E
100
AcDbEntity
  8
SUNPOU
100
AcDbBlockReference
  2
_OPEN
 10
1143.155808097647
 20
324.651301147014
 30
0.0
 41
7.0
 42
7.0
 43
7.0
  0
MTEXT
  5
422F
330
420E
100
AcDbEntity
  8
SUNPOU
100
AcDbMText
 10
1090.718748081436
 20
329.651301147014
 30
0.0
 40
6.0
 41
0.0
 71
     5
 72
     1
  1
\A1;105
 73
     1
 44
1.0
1001
ACAD
1000
MTEXTBEGIN
1070
    73
1070
     1
1070
    44
1040
1.0
1070
    74
1070
     0
1000
MTEXTEND
  0
POINT
  5
4230
330
420E
100
AcDbEntity
  8
DEFPOINTS
 62
     0
100
AcDbPoint
 10
1038.281688065224
 20
278.5343060726621
 30
0.0
  0
POINT
  5
4231
330
420E
100
AcDbEntity
  8
DEFPOINTS
 62
     0
100
AcDbPoint
 10
1143.155808097647
 20
278.5343060726621
 30
0.0
  0
POINT
  5
4232
330
420E
100
AcDbEntity
  8
DEFPOINTS
 62
     0
100
AcDbPoint
 10
1143.155808097647
 20
324.651301147014
 30
0.0
  0
ENDBLK
  5
4219
330
420E
100
AcDbEntity
  8
0
100
AcDbBlockEnd
  0
ENDSEC
  0
SECTION
  2
ENTITIES
  0
POINT
  5
3712
330
1A
100
AcDbEntity
  8
0_______
100
AcDbPoint
 10
1514.535104092279
 20
201.5943441090285
 30
0.0
  0
DIMENSION
  5
3DC3
102
{ACAD_XDICTIONARY
360
3DC4
102
}
102
{ACAD_REACTORS
330
3DC5
102
}
330
1A
100
AcDbEntity
  8
SUNPOU
100
AcDbDimension
  2
*D23
 10
1360.4988646511
 20
313.0573226689723
 30
0.0
 11
1307.9988646511
 21
318.0573226689724
 31
0.0
 70
    32
 71
     5
 42
105.0000000000009
  3
STANDARD
100
AcDbAlignedDimension
 13
1255.498864651099
 23
278.5343060726621
 33
0.0
 14
1360.4988646511
 24
293.2843060726621
 34
0.0
100
AcDbRotatedDimension
1001
ACAD
1000
DSTYLE
1002
{
1070
    41
1040
7.0
1070
    42
1040
6.0
1070
    43
1040
14.0
1070
    44
1040
3.0
1070
    73
1070
     0
1070
    74
1070
     0
1070
    77
1070
     3
1070
   140
1040
6.0
1070
   141
1040
150.0
1070
   147
1040
2.0
1070
   172
1070
     1
1070
   173
1070
     1
1070
   176
1070
   256
1070
   177
1070
   256
1070
   178
1070
   256
1070
   271
1070
     0
1070
   272
1070
     0
1070
   341
1005
6D
1070
   343
1005
6D
1070
   344
1005
6D
1070
   371
1070
    -1
1070
   372
1070
    -1
1002
}
  0
DIMENSION
  5
3DC6
102
{ACAD_XDICTIONARY
360
3DC7
102
}
102
{ACAD_REACTORS
330
3DC8
102
}
330
1A
100
AcDbEntity
  8
SUNPOU
100
AcDbDimension
  2
*D24
 10
1143.281688065224
 20
508.8535174737335
 30
0.0
 11
1090.781688065224
 21
513.8535174737334
 31
0.0
 70
    32
 71
     5
 42
105.0000000000009
  3
STANDARD
100
AcDbAlignedDimension
 13
1038.281688065223
 23
475.1933488451432
 33
0.0
 14
1143.281688065224
 24
475.1933488451413
 34
0.0
100
AcDbRotatedDimension
1001
ACAD
1000
DSTYLE
1002
{
1070
    41
1040
7.0
1070
    42
1040
6.0
1070
    43
1040
14.0
1070
    44
1040
3.0
1070
    73
1070
     0
1070
    74
1070
     0
1070
    77
1070
     3
1070
   140
1040
6.0
1070
   141
1040
150.0
1070
   147
1040
2.0
1070
   172
1070
     1
1070
   173
1070
     1
1070
   176
1070
   256
1070
   177
1070
   256
1070
   178
1070
   256
1070
   271
1070
     0
1070
   272
1070
     0
1070
   341
1005
6D
1070
   343
1005
6D
1070
   344
1005
6D
1070
   371
1070
    -1
1070
   372
1070
    -1
1002
}
  0
LINE
  5
3DC9
330
1A
100
AcDbEntity
  8
SEIHIN
100
AcDbLine
 10
1447.290735948095
 20
86.83430607266222
 30
0.0
 11
1474.990735948096
 21
86.83430607266222
 31
0.0
  0
LINE
  5
3DCA
330
1A
100
AcDbEntity
  8
SEIHIN
100
AcDbLine
 10
1474.990735948096
 20
86.83430607266222
 30
0.0
 11
1502.690735948095
 21
86.83430607266222
 31
0.0
  0
LINE
  5
3DCB
330
1A
100
AcDbEntity
  8
SEIHIN
100
AcDbLine
 10
1511.796390026819
 20
106.8489398141739
 30
0.0
 11
1511.796701711241
 21
106.8543616734434
 31
0.0
  0
LINE
  5
3DCC
330
1A
100
AcDbEntity
  8
SEIHIN
100
AcDbLine
 10
1438.185081869372
 20
106.8489398141739
 30
0.0
 11
1438.184770184949
 21
106.8543616734434
 31
0.0
  0
LINE
  5
3DCD
330
1A
100
AcDbEntity
  8
SEIHIN
100
AcDbLine
 10
1509.091290803494
 20
92.83430607266131
 30
0.0
 11
1509.990735948096
 21
92.83430607266224
 31
0.0
  0
ARC
  5
3DCE
330
1A
100
AcDbEntity
  8
SEIHIN
100
AcDbCircle
 10
1411.96121724655
 20
112.5881275542108
 30
0.0
 40
99.99999999990752
100
AcDbArc
 50
348.6069626737866
 51
356.7098797766628
  0
LINE
  5
3DCF
330
1A
100
AcDbEntity
  8
SEIHIN
100
AcDbLine
 10
1440.890181092697
 20
92.83430607266131
 30
0.0
 11
1439.990735948096
 21
92.83430607266224
 31
0.0
  0
ARC
  5
3DD0
330
1A
100
AcDbEntity
  8
SEIHIN
100
AcDbCircle
 10
1538.020254649437
 20
112.5881275541844
 30
0.0
 40
99.99999999970309
100
AcDbArc
 50
183.2901202233372
 51
191.3930373262133
  0
LINE
  5
3DD1
330
1A
100
AcDbEntity
  8
SEIHIN
100
AcDbLine
 10
1511.796701711241
 20
106.8543616734434
 30
0.0
 11
1513.140735948095
 21
130.2343060726618
 31
0.0
  0
LINE
  5
3DD2
330
1A
100
AcDbEntity
  8
SEIHIN
100
AcDbLine
 10
1438.184770184949
 20
106.8543616734434
 30
0.0
 11
1436.840735948095
 21
130.2343060726618
 31
0.0
  0
LINE
  5
3DD3
330
1A
100
AcDbEntity
  8
SEIHIN
100
AcDbLine
 10
1440.890181092697
 20
92.83430607266131
 30
0.0
 11
1449.050612882457
 21
92.83430607266131
 31
0.0
  0
LINE
  5
3DD4
330
1A
100
AcDbEntity
  8
SEIHIN
100
AcDbLine
 10
1509.091290803494
 20
92.83430607266131
 30
0.0
 11
1500.930859013733
 21
92.83430607266131
 31
0.0
  0
LINE
  5
3DD5
330
1A
100
AcDbEntity
  8
SEIHIN
100
AcDbLine
 10
1502.841028174634
 20
106.8434574889709
 30
0.0
 11
1502.841343780715
 21
106.8489398141739
 31
0.0
  0
LINE
  5
3DD6
330
1A
100
AcDbEntity
  8
SEIHIN
100
AcDbLine
 10
1447.140443721557
 20
106.8434574889709
 30
0.0
 11
1447.140128115476
 21
106.8489398141739
 31
0.0
  0
LINE
  5
3DD7
330
1A
100
AcDbEntity
  8
SEIHIN
100
AcDbLine
 10
1499.95378776304
 20
92.83430607266224
 30
0.0
 11
1500.930859013734
 21
92.83430607266224
 31
0.0
  0
ARC
  5
3DD8
330
1A
100
AcDbEntity
  8
SEIHIN
100
AcDbCircle
 10
1404.020385373217
 20
113.1829998985233
 30
0.0
 40
99.0237811924379
100
AcDbArc
 50
348.1416397095736
 51
356.3293907689569
  0
LINE
  5
3DD9
330
1A
100
AcDbEntity
  8
SEIHIN
100
AcDbLine
 10
1450.02768413315
 20
92.83430607266224
 30
0.0
 11
1499.95378776304
 21
92.83430607266224
 31
0.0
  0
LINE
  5
3DDA
330
1A
100
AcDbEntity
  8
SEIHIN
100
AcDbLine
 10
1450.02768413315
 20
92.83430607266224
 30
0.0
 11
1449.050612882457
 21
92.83430607266224
 31
0.0
  0
ARC
  5
3DDB
330
1A
100
AcDbEntity
  8
SEIHIN
100
AcDbCircle
 10
1545.96108652282
 20
113.1829998984988
 30
0.0
 40
99.02378119228297
100
AcDbArc
 50
183.670609231043
 51
191.8583602904264
  0
LINE
  5
3DDC
330
1A
100
AcDbEntity
  8
SEIHIN
100
AcDbLine
 10
1447.140128115476
 20
106.8489398141739
 30
0.0
 11
1445.795782194199
 21
130.2343060726618
 31
0.0
  0
LINE
  5
3DDD
330
1A
100
AcDbEntity
  8
SEIHIN
100
AcDbLine
 10
1502.841343780715
 20
106.8489398141739
 30
0.0
 11
1504.185689701991
 21
130.2343060726618
 31
0.0
  0
LINE
  5
3DDE
330
1A
100
AcDbEntity
  8
SEIHIN
100
AcDbLine
 10
1502.690735948095
 20
86.83430607266222
 30
0.0
 11
1503.590735948095
 21
92.83430607266131
 31
0.0
  0
LINE
  5
3DDF
330
1A
100
AcDbEntity
  8
SEIHIN
100
AcDbLine
 10
1446.390735948095
 20
92.83430607266131
 30
0.0
 11
1447.290735948095
 21
86.83430607266222
 31
0.0
  0
LINE
  5
3DE0
330
1A
100
AcDbEntity
  8
SEIHIN
100
AcDbLine
 10
1278.798864651099
 20
86.83430607266222
 30
0.0
 11
1334.1988646511
 21
86.83430607266222
 31
0.0
  0
LINE
  5
3DE1
330
1A
100
AcDbEntity
  8
SEIHIN
100
AcDbLine
 10
1269.692898887953
 20
106.8543616734425
 30
0.0
 11
1269.693210572376
 21
106.848939814173
 31
0.0
  0
LINE
  5
3DE2
330
1A
100
AcDbEntity
  8
SEIHIN
100
AcDbLine
 10
1343.304830414246
 20
106.8543616734425
 30
0.0
 11
1343.304518729823
 21
106.8489398141739
 31
0.0
  0
LINE
  5
3DE3
330
1A
100
AcDbEntity
  8
SEIHIN
100
AcDbLine
 10
1271.498864651099
 20
92.83430607266224
 30
0.0
 11
1272.398309795702
 21
92.83430607266224
 31
0.0
  0
ARC
  5
3DE4
330
1A
100
AcDbEntity
  8
SEIHIN
100
AcDbCircle
 10
1369.528383352846
 20
112.5881275542344
 30
0.0
 40
100.0000000001102
100
AcDbArc
 50
183.2901202233372
 51
191.3930373262108
  0
LINE
  5
3DE5
330
1A
100
AcDbEntity
  8
SEIHIN
100
AcDbLine
 10
1341.4988646511
 20
92.83430607266224
 30
0.0
 11
1340.599419506498
 21
92.83430607266224
 31
0.0
  0
ARC
  5
3DE6
330
1A
100
AcDbEntity
  8
SEIHIN
100
AcDbCircle
 10
1243.469345949137
 20
112.5881275542599
 30
0.0
 40
100.0000000003264
100
AcDbArc
 50
348.6069626738394
 51
356.7098797766628
  0
LINE
  5
3DE7
330
1A
100
AcDbEntity
  8
SEIHIN
100
AcDbLine
 10
1268.348864651099
 20
130.2343060726618
 30
0.0
 11
1269.692898887953
 21
106.8543616734425
 31
0.0
  0
LINE
  5
3DE8
330
1A
100
AcDbEntity
  8
SEIHIN
100
AcDbLine
 10
1344.6488646511
 20
130.2343060726618
 30
0.0
 11
1343.304830414246
 21
106.8543616734425
 31
0.0
  0
LINE
  5
3DE9
330
1A
100
AcDbEntity
  8
SEIHIN
100
AcDbLine
 10
1280.558741585461
 20
92.83430607266131
 30
0.0
 11
1272.398309795702
 21
92.83430607266131
 31
0.0
  0
LINE
  5
3DEA
330
1A
100
AcDbEntity
  8
SEIHIN
100
AcDbLine
 10
1332.438987716737
 20
92.83430607266131
 30
0.0
 11
1340.599419506498
 21
92.83430607266131
 31
0.0
  0
LINE
  5
3DEB
330
1A
100
AcDbEntity
  8
SEIHIN
100
AcDbLine
 10
1278.64825681848
 20
106.848939814173
 30
0.0
 11
1278.648572412817
 21
106.8434576698685
 31
0.0
  0
LINE
  5
3DEC
330
1A
100
AcDbEntity
  8
SEIHIN
100
AcDbLine
 10
1334.349472483719
 20
106.8489398141739
 30
0.0
 11
1334.349156889382
 21
106.8434576698685
 31
0.0
  0
LINE
  5
3DED
330
1A
100
AcDbEntity
  8
SEIHIN
100
AcDbLine
 10
1280.558741585461
 20
92.83430607266131
 30
0.0
 11
1281.535812836154
 21
92.83430607266224
 31
0.0
  0
ARC
  5
3DEE
330
1A
100
AcDbEntity
  8
SEIHIN
100
AcDbCircle
 10
1377.062529574195
 20
113.1275476910198
 30
0.0
 40
98.61438410067622
100
AcDbArc
 50
183.6535842606099
 51
191.8753851571157
  0
LINE
  5
3DEF
330
1A
100
AcDbEntity
  8
SEIHIN
100
AcDbLine
 10
1332.438987716737
 20
92.83430607266131
 30
0.0
 11
1331.461916466045
 21
92.83430607266224
 31
0.0
  0
ARC
  5
3DF0
330
1A
100
AcDbEntity
  8
SEIHIN
100
AcDbCircle
 10
1235.935201485877
 20
113.1275474513343
 30
0.0
 40
98.61438233110209
100
AcDbArc
 50
348.1246147689746
 51
356.3464158133285
  0
LINE
  5
3DF1
330
1A
100
AcDbEntity
  8
SEIHIN
100
AcDbLine
 10
1331.461916466045
 20
92.83430607266224
 30
0.0
 11
1281.535812836154
 21
92.83430607266224
 31
0.0
  0
LINE
  5
3DF2
330
1A
100
AcDbEntity
  8
SEIHIN
100
AcDbLine
 10
1277.303910897203
 20
130.2343060726618
 30
0.0
 11
1278.64825681848
 21
106.848939814173
 31
0.0
  0
LINE
  5
3DF3
330
1A
100
AcDbEntity
  8
SEIHIN
100
AcDbLine
 10
1335.693818404996
 20
130.2343060726618
 30
0.0
 11
1334.349472483719
 21
106.8489398141739
 31
0.0
  0
LINE
  5
3DF4
330
1A
100
AcDbEntity
  8
SEIHIN
100
AcDbLine
 10
1334.1988646511
 20
86.83430607266222
 30
0.0
 11
1335.098864651099
 21
92.83430607266131
 31
0.0
  0
LINE
  5
3DF5
330
1A
100
AcDbEntity
  8
SEIHIN
100
AcDbLine
 10
1277.8988646511
 20
92.83430607266131
 30
0.0
 11
1278.798864651099
 21
86.83430607266222
 31
0.0
  0
LINE
  5
3DF6
330
1A
100
AcDbEntity
  8
SEIHIN
100
AcDbLine
 10
1063.2075680328
 20
86.83430607266222
 30
0.0
 11
1090.9075680328
 21
86.83430607266222
 31
0.0
  0
LINE
  5
3DF7
330
1A
100
AcDbEntity
  8
SEIHIN
100
AcDbLine
 10
1090.9075680328
 20
86.83430607266222
 30
0.0
 11
1118.6075680328
 21
86.83430607266222
 31
0.0
  0
LINE
  5
3DF8
330
1A
100
AcDbEntity
  8
SEIHIN
100
AcDbLine
 10
1127.713222111523
 20
106.8489398141739
 30
0.0
 11
1127.713533795946
 21
106.8543616734425
 31
0.0
  0
LINE
  5
3DF9
330
1A
100
AcDbEntity
  8
SEIHIN
100
AcDbLine
 10
1054.101913954077
 20
106.8489398141739
 30
0.0
 11
1054.101602269654
 21
106.8543616734425
 31
0.0
  0
LINE
  5
3DFA
330
1A
100
AcDbEntity
  8
SEIHIN
100
AcDbLine
 10
1125.008122888199
 20
92.83430607266131
 30
0.0
 11
1125.907568032801
 21
92.83430607266224
 31
0.0
  0
ARC
  5
3DFB
330
1A
100
AcDbEntity
  8
SEIHIN
100
AcDbCircle
 10
1027.878049331255
 20
112.5881275542099
 30
0.0
 40
99.99999999990752
100
AcDbArc
 50
348.6069626737866
 51
356.7098797766628
  0
LINE
  5
3DFC
330
1A
100
AcDbEntity
  8
SEIHIN
100
AcDbLine
 10
1056.807013177402
 20
92.83430607266131
 30
0.0
 11
1055.9075680328
 21
92.83430607266224
 31
0.0
  0
ARC
  5
3DFD
330
1A
100
AcDbEntity
  8
SEIHIN
100
AcDbCircle
 10
1153.937086734142
 20
112.5881275541835
 30
0.0
 40
99.99999999970309
100
AcDbArc
 50
183.2901202233371
 51
191.3930373262133
  0
LINE
  5
3DFE
330
1A
100
AcDbEntity
  8
SEIHIN
100
AcDbLine
 10
1127.713533795946
 20
106.8543616734425
 30
0.0
 11
1129.0575680328
 21
130.2343060726618
 31
0.0
  0
LINE
  5
3DFF
330
1A
100
AcDbEntity
  8
SEIHIN
100
AcDbLine
 10
1054.101602269654
 20
106.8543616734425
 30
0.0
 11
1052.7575680328
 21
130.2343060726618
 31
0.0
  0
LINE
  5
3E00
330
1A
100
AcDbEntity
  8
SEIHIN
100
AcDbLine
 10
1056.807013177402
 20
92.83430607266131
 30
0.0
 11
1064.967444967162
 21
92.83430607266131
 31
0.0
  0
LINE
  5
3E01
330
1A
100
AcDbEntity
  8
SEIHIN
100
AcDbLine
 10
1125.008122888199
 20
92.83430607266131
 30
0.0
 11
1116.847691098438
 21
92.83430607266131
 31
0.0
  0
LINE
  5
3E02
330
1A
100
AcDbEntity
  8
SEIHIN
100
AcDbLine
 10
1118.757860259339
 20
106.8434574889709
 30
0.0
 11
1118.758175865419
 21
106.8489398141739
 31
0.0
  0
LINE
  5
3E03
330
1A
100
AcDbEntity
  8
SEIHIN
100
AcDbLine
 10
1063.057275806261
 20
106.8434574889709
 30
0.0
 11
1063.056960200181
 21
106.8489398141739
 31
0.0
  0
LINE
  5
3E04
330
1A
100
AcDbEntity
  8
SEIHIN
100
AcDbLine
 10
1115.870619847745
 20
92.83430607266224
 30
0.0
 11
1116.847691098439
 21
92.83430607266224
 31
0.0
  0
ARC
  5
3E05
330
1A
100
AcDbEntity
  8
SEIHIN
100
AcDbCircle
 10
1019.937217457922
 20
113.1829998985224
 30
0.0
 40
99.0237811924379
100
AcDbArc
 50
348.1416397095736
 51
356.3293907689569
  0
LINE
  5
3E06
330
1A
100
AcDbEntity
  8
SEIHIN
100
AcDbLine
 10
1065.944516217854
 20
92.83430607266224
 30
0.0
 11
1115.870619847745
 21
92.83430607266224
 31
0.0
  0
LINE
  5
3E07
330
1A
100
AcDbEntity
  8
SEIHIN
100
AcDbLine
 10
1065.944516217854
 20
92.83430607266224
 30
0.0
 11
1064.967444967162
 21
92.83430607266224
 31
0.0
  0
ARC
  5
3E08
330
1A
100
AcDbEntity
  8
SEIHIN
100
AcDbCircle
 10
1161.877918607525
 20
113.1829998984988
 30
0.0
 40
99.02378119228297
100
AcDbArc
 50
183.670609231043
 51
191.8583602904264
  0
LINE
  5
3E09
330
1A
100
AcDbEntity
  8
SEIHIN
100
AcDbLine
 10
1063.056960200181
 20
106.8489398141739
 30
0.0
 11
1061.712614278904
 21
130.2343060726618
 31
0.0
  0
LINE
  5
3E0A
330
1A
100
AcDbEntity
  8
SEIHIN
100
AcDbLine
 10
1118.758175865419
 20
106.8489398141739
 30
0.0
 11
1120.102521786696
 21
130.2343060726618
 31
0.0
  0
LINE
  5
3E0B
330
1A
100
AcDbEntity
  8
SEIHIN
100
AcDbLine
 10
1118.6075680328
 20
86.83430607266222
 30
0.0
 11
1119.5075680328
 21
92.83430607266131
 31
0.0
  0
LINE
  5
3E0C
330
1A
100
AcDbEntity
  8
SEIHIN
100
AcDbLine
 10
1062.3075680328
 20
92.83430607266131
 30
0.0
 11
1063.2075680328
 21
86.83430607266222
 31
0.0
  0
LINE
  5
3E0D
330
1A
100
AcDbEntity
  8
SEIHIN
100
AcDbLine
 10
1046.781688065223
 20
482.1933488451431
 30
0.0
 11
1042.531688065223
 21
482.1933488451431
 31
0.0
  0
LINE
  5
3E0E
330
1A
100
AcDbEntity
  8
SEIHIN
100
AcDbLine
 10
1139.031688065223
 20
482.1933488451431
 30
0.0
 11
1134.781688065223
 21
482.1933488451431
 31
0.0
  0
LINE
  5
3E0F
330
1A
100
AcDbEntity
  8
SEIHIN
100
AcDbLine
 10
1065.781688065223
 20
482.1933488451431
 30
0.0
 11
1046.781688065223
 21
482.1933488451431
 31
0.0
  0
LINE
  5
3E10
330
1A
100
AcDbEntity
  8
SEIHIN
100
AcDbLine
 10
1134.781688065223
 20
482.1933488451431
 30
0.0
 11
1115.781688065223
 21
482.1933488451431
 31
0.0
  0
LINE
  5
3E11
330
1A
100
AcDbEntity
  8
SEIHIN
100
AcDbLine
 10
1065.781688065223
 20
482.1933488451431
 30
0.0
 11
1115.781688065223
 21
482.1933488451431
 31
0.0
  0
LINE
  5
3E12
102
{ACAD_REACTORS
330
3DC8
102
}
330
1A
100
AcDbEntity
  8
SEIHIN
100
AcDbLine
 10
1143.281688065224
 20
475.1933488451432
 30
0.0
 11
1143.281688065224
 21
400.8927009015123
 31
0.0
  0
LINE
  5
3E13
330
1A
100
AcDbEntity
  8
SEIHIN
100
AcDbLine
 10
1143.281688065223
 20
400.8927009015123
 30
0.0
 11
1143.281688065223
 21
475.1933488451432
 31
0.0
  0
LINE
  5
3E14
102
{ACAD_REACTORS
330
3DC8
102
}
330
1A
100
AcDbEntity
  8
SEIHIN
100
AcDbLine
 10
1143.281688065223
 20
475.1933488451432
 30
0.0
 11
1139.031688065223
 21
482.1933488451431
 31
0.0
  0
LINE
  5
3E15
330
1A
100
AcDbEntity
  8
SEIHIN
100
AcDbLine
 10
1142.281688065223
 20
401.2722208102177
 30
0.0
 11
1142.281688065223
 21
472.9866807618109
 31
0.0
  0
LINE
  5
3E16
102
{ACAD_REACTORS
330
3DC8
102
}
330
1A
100
AcDbEntity
  8
SEIHIN
100
AcDbLine
 10
1042.531688065223
 20
482.1933488451431
 30
0.0
 11
1038.281688065223
 21
475.1933488451432
 31
0.0
  0
LINE
  5
3E17
330
1A
100
AcDbEntity
  8
SEIHIN
100
AcDbLine
 10
1137.90621101463
 20
480.1933488451432
 30
0.0
 11
1142.281688065223
 21
472.9866807618109
 31
0.0
  0
LINE
  5
3E18
330
1A
100
AcDbEntity
  8
SEIHIN
100
AcDbLine
 10
1038.281688065223
 20
475.1933488451432
 30
0.0
 11
1038.281688065223
 21
400.8927009015123
 31
0.0
  0
ARC
  5
3E19
330
1A
100
AcDbEntity
  8
SEIHIN
100
AcDbCircle
 10
1090.781688065223
 20
447.1933488451432
 30
0.0
 40
70.0
100
AcDbArc
 50
221.40962210928
 51
318.5903778907199
  0
ARC
  5
3E1A
330
1A
100
AcDbEntity
  8
SEIHIN
100
AcDbCircle
 10
1090.781688065223
 20
447.1933488451432
 30
0.0
 40
68.99999999999995
100
AcDbArc
 50
221.7225066960045
 51
318.2774933039955
  0
LINE
  5
3E1B
330
1A
100
AcDbEntity
  8
SEIHIN
100
AcDbLine
 10
1039.281688065223
 20
472.9866807618109
 30
0.0
 11
1043.657165115818
 21
480.1933488451432
 31
0.0
  0
LINE
  5
3E1C
330
1A
100
AcDbEntity
  8
SEIHIN
100
AcDbLine
 10
1039.281688065223
 20
472.9866807618109
 30
0.0
 11
1039.281688065223
 21
401.2722208102177
 31
0.0
  0
LINE
  5
3E1D
330
1A
100
AcDbEntity
  8
SEIHIN
100
AcDbLine
 10
1065.781688065223
 20
482.1933488451431
 30
0.0
 11
1115.781688065223
 21
482.1933488451431
 31
0.0
  0
LINE
  5
3E1E
330
1A
100
AcDbEntity
  8
SEIHIN
100
AcDbLine
 10
1065.781688065223
 20
478.1933488451431
 30
0.0
 11
1115.781688065223
 21
478.1933488451431
 31
0.0
  0
LINE
  5
3E1F
330
1A
100
AcDbEntity
  8
SEIHIN
100
AcDbLine
 10
1134.781688065223
 20
480.1933488451432
 30
0.0
 11
1131.781688065223
 21
478.1933488451431
 31
0.0
  0
LINE
  5
3E20
330
1A
100
AcDbEntity
  8
SEIHIN
100
AcDbLine
 10
1134.781688065223
 20
482.1933488451431
 30
0.0
 11
1115.781688065223
 21
482.1933488451431
 31
0.0
  0
LINE
  5
3E21
330
1A
100
AcDbEntity
  8
SEIHIN
100
AcDbLine
 10
1115.781688065223
 20
482.1933488451431
 30
0.0
 11
1115.781688065223
 21
478.1933488451431
 31
0.0
  0
LINE
  5
3E22
330
1A
100
AcDbEntity
  8
SEIHIN
100
AcDbLine
 10
1115.781688065223
 20
478.1933488451431
 30
0.0
 11
1131.781688065223
 21
478.1933488451431
 31
0.0
  0
LINE
  5
3E23
330
1A
100
AcDbEntity
  8
SEIHIN
100
AcDbLine
 10
1065.781688065223
 20
482.1933488451431
 30
0.0
 11
1065.781688065223
 21
478.1933488451431
 31
0.0
  0
LINE
  5
3E24
330
1A
100
AcDbEntity
  8
SEIHIN
100
AcDbLine
 10
1065.781688065223
 20
482.1933488451431
 30
0.0
 11
1046.781688065223
 21
482.1933488451431
 31
0.0
  0
LINE
  5
3E25
330
1A
100
AcDbEntity
  8
SEIHIN
100
AcDbLine
 10
1049.781688065223
 20
478.1933488451431
 30
0.0
 11
1046.781688065223
 21
480.1933488451432
 31
0.0
  0
LINE
  5
3E26
330
1A
100
AcDbEntity
  8
SEIHIN
100
AcDbLine
 10
1049.781688065223
 20
478.1933488451431
 30
0.0
 11
1065.781688065223
 21
478.1933488451431
 31
0.0
  0
LINE
  5
3E27
330
1A
100
AcDbEntity
  8
SEIHIN
100
AcDbLine
 10
1134.781688065223
 20
482.1933488451431
 30
0.0
 11
1134.781688065223
 21
480.1933488451432
 31
0.0
  0
LINE
  5
3E28
330
1A
100
AcDbEntity
  8
SEIHIN
100
AcDbLine
 10
1139.031688065223
 20
480.1933488451432
 30
0.0
 11
1134.781688065223
 21
480.1933488451432
 31
0.0
  0
LINE
  5
3E29
330
1A
100
AcDbEntity
  8
SEIHIN
100
AcDbLine
 10
1139.031688065223
 20
482.1933488451431
 30
0.0
 11
1139.031688065223
 21
480.1933488451432
 31
0.0
  0
LINE
  5
3E2A
330
1A
100
AcDbEntity
  8
SEIHIN
100
AcDbLine
 10
1139.031688065223
 20
482.1933488451431
 30
0.0
 11
1134.781688065223
 21
482.1933488451431
 31
0.0
  0
LINE
  5
3E2B
330
1A
100
AcDbEntity
  8
SEIHIN
100
AcDbLine
 10
1046.781688065223
 20
482.1933488451431
 30
0.0
 11
1046.781688065223
 21
480.1933488451432
 31
0.0
  0
LINE
  5
3E2C
330
1A
100
AcDbEntity
  8
SEIHIN
100
AcDbLine
 10
1046.781688065223
 20
482.1933488451431
 30
0.0
 11
1042.531688065223
 21
482.1933488451431
 31
0.0
  0
LINE
  5
3E2D
330
1A
100
AcDbEntity
  8
SEIHIN
100
AcDbLine
 10
1042.531688065223
 20
480.1933488451432
 30
0.0
 11
1042.531688065223
 21
482.1933488451431
 31
0.0
  0
LINE
  5
3E2E
330
1A
100
AcDbEntity
  8
SEIHIN
100
AcDbLine
 10
1046.781688065223
 20
480.1933488451432
 30
0.0
 11
1042.531688065223
 21
480.1933488451432
 31
0.0
  0
LINE
  5
3E2F
330
1A
100
AcDbEntity
  8
SEIHIN
100
AcDbLine
 10
1141.031688065223
 20
428.2433488451424
 30
0.0
 11
1142.281688065223
 21
428.2433488451424
 31
0.0
  0
LINE
  5
3E30
330
1A
100
AcDbEntity
  8
SEIHIN
100
AcDbLine
 10
1141.031688065223
 20
436.2433488451424
 30
0.0
 11
1142.281688065223
 21
436.2433488451424
 31
0.0
  0
LINE
  5
3E31
330
1A
100
AcDbEntity
  8
SEIHIN
100
AcDbLine
 10
1039.281688065223
 20
436.2433488451424
 30
0.0
 11
1040.531688065223
 21
436.2433488451424
 31
0.0
  0
LINE
  5
3E32
330
1A
100
AcDbEntity
  8
SEIHIN
100
AcDbLine
 10
1039.281688065223
 20
428.2433488451424
 30
0.0
 11
1040.531688065223
 21
428.2433488451424
 31
0.0
  0
SPLINE
  5
3E33
330
1A
100
AcDbEntity
  8
SEIHIN
100
AcDbSpline
210
0.0
220
0.0
230
1.0
 70
    11
 71
     3
 72
    92
 73
    88
 74
     0
 42
0.0000000001
 43
0.0000000001
 40
0.0
 40
0.0
 40
0.0
 40
0.0
 40
0.0312499999999996
 40
0.0312499999999996
 40
0.0468749999999993
 40
0.0468749999999993
 40
0.0624999999999991
 40
0.0624999999999991
 40
0.0937499999999985
 40
0.0937499999999985
 40
0.1249999999999979
 40
0.1249999999999979
 40
0.1406249999999976
 40
0.1406249999999976
 40
0.1562499999999973
 40
0.1562499999999973
 40
0.1874999999999987
 40
0.1874999999999987
 40
0.2187500000000001
 40
0.2187500000000001
 40
0.2343750000000005
 40
0.2343750000000005
 40
0.2500000000000008
 40
0.2500000000000008
 40
0.2812500000000015
 40
0.2812500000000015
 40
0.3125000000000022
 40
0.3125000000000022
 40
0.3437500000000028
 40
0.3437500000000028
 40
0.3593750000000022
 40
0.3593750000000022
 40
0.3750000000000015
 40
0.3750000000000015
 40
0.3906250000000009
 40
0.3906250000000009
 40
0.4062500000000003
 40
0.4062500000000003
 40
0.4375000000000019
 40
0.4375000000000019
 40
0.4687500000000035
 40
0.4687500000000035
 40
0.5000000000000052
 40
0.5000000000000052
 40
0.5156250000000059
 40
0.5156250000000059
 40
0.5312500000000067
 40
0.5312500000000067
 40
0.5625000000000049
 40
0.5625000000000049
 40
0.5937500000000031
 40
0.5937500000000031
 40
0.6093750000000039
 40
0.6093750000000039
 40
0.6250000000000047
 40
0.6250000000000047
 40
0.6562500000000038
 40
0.6562500000000038
 40
0.6875000000000031
 40
0.6875000000000031
 40
0.7187500000000022
 40
0.7187500000000022
 40
0.7343750000000023
 40
0.7343750000000023
 40
0.7500000000000023
 40
0.7500000000000023
 40
0.7656250000000023
 40
0.7656250000000023
 40
0.7812500000000023
 40
0.7812500000000023
 40
0.8125000000000021
 40
0.8125000000000021
 40
0.8281250000000021
 40
0.8281250000000021
 40
0.8437500000000021
 40
0.8437500000000021
 40
0.8749999999999996
 40
0.8749999999999996
 40
0.8906249999999984
 40
0.8906249999999984
 40
0.9062499999999973
 40
0.9062499999999973
 40
0.9374999999999982
 40
0.9374999999999982
 40
0.9687499999999989
 40
0.9687499999999989
 40
1.0
 40
1.0
 40
1.0
 40
1.0
 10
1090.703097232976
 20
399.7437606243748
 30
0.0
 10
1090.207620986431
 20
399.7489528948599
 30
0.0
 10
1089.72098971117
 20
399.8026756752952
 30
0.0
 10
1089.003730821353
 20
399.9530441468696
 30
0.0
 10
1088.766774838171
 20
400.0148845267058
 30
0.0
 10
1088.297214420333
 20
400.1625323369061
 30
0.0
 10
1088.063992811697
 20
400.2487430122109
 30
0.0
 10
1087.385986603428
 20
400.538072968724
 30
0.0
 10
1086.957746308301
 20
400.7728312290137
 30
0.0
 10
1086.148318557655
 20
401.3254086809211
 30
0.0
 10
1085.766002031966
 20
401.6454173731545
 30
0.0
 10
1085.247906283356
 20
402.1749916183889
 30
0.0
 10
1085.083135554711
 20
402.3610271658299
 30
0.0
 10
1084.775326728938
 20
402.7451059444829
 30
0.0
 10
1084.631792106776
 20
402.9435278913506
 30
0.0
 10
1084.23161994882
 20
403.5575206060475
 30
0.0
 10
1084.005031273846
 20
403.9918407956338
 30
0.0
 10
1083.636252732288
 20
404.9113677631066
 30
0.0
 10
1083.500019754556
 20
405.3816056403757
 30
0.0
 10
1083.365009825382
 20
406.1020429381114
 30
0.0
 10
1083.33164886306
 20
406.3447207297013
 30
0.0
 10
1083.288752854135
 20
406.8352575244116
 30
0.0
 10
1083.279359533685
 20
407.0837765418072
 30
0.0
 10
1083.287830193433
 20
407.8210001741426
 30
0.0
 10
1083.341268224924
 20
408.3065642149704
 30
0.0
 10
1083.542948127125
 20
409.2659507414964
 30
0.0
 10
1083.693275399745
 20
409.7420994010771
 30
0.0
 10
1084.077954144747
 20
410.6417749485545
 30
0.0
 10
1084.312829286073
 20
411.0705073245116
 30
0.0
 10
1084.730522557253
 20
411.6811653102359
 30
0.0
 10
1084.88068958298
 20
411.8789130917812
 30
0.0
 10
1085.196386618031
 20
412.2548004029395
 30
0.0
 10
1085.362667789121
 20
412.4340969095873
 30
0.0
 10
1085.711847108668
 20
412.7756502556385
 30
0.0
 10
1085.894745292397
 20
412.9379070577251
 30
0.0
 10
1086.277391881859
 20
413.2451418100735
 30
0.0
 10
1086.478275182188
 20
413.3908287767881
 30
0.0
 10
1087.098263744842
 20
413.7951328070458
 30
0.0
 10
1087.532141533017
 20
414.0204954291066
 30
0.0
 10
1088.439937431055
 20
414.3851604117471
 30
0.0
 10
1088.919191344731
 20
414.5249356646163
 30
0.0
 10
1089.883048042594
 20
414.7054428376559
 30
0.0
 10
1090.369658319071
 20
414.7481243858164
 30
0.0
 10
1091.106641525107
 20
414.7403323289053
 30
0.0
 10
1091.354830004741
 20
414.7254724532949
 30
0.0
 10
1091.844498322972
 20
414.6717470390012
 30
0.0
 10
1092.086439778203
 20
414.6330261005114
 30
0.0
 10
1092.803790874585
 20
414.4821283080418
 30
0.0
 10
1093.270810118479
 20
414.3355561690222
 30
0.0
 10
1094.181524749495
 20
413.9467989897466
 30
0.0
 10
1094.611306102956
 20
413.710398942967
 30
0.0
 10
1095.216296139236
 20
413.2967717653254
 30
0.0
 10
1095.411466413553
 20
413.1489124133413
 30
0.0
 10
1095.788542117424
 20
412.8327979336181
 30
0.0
 10
1095.971055012533
 20
412.6637685117357
 30
0.0
 10
1096.486966648878
 20
412.1363756165974
 30
0.0
 10
1096.792693131966
 20
411.7553178789694
 30
0.0
 10
1097.328600542713
 20
410.9349587225133
 30
0.0
 10
1097.55929017773
 20
410.4919830959734
 30
0.0
 10
1097.923989305028
 20
409.5836582031124
 30
0.0
 10
1098.061208458196
 20
409.1145690794482
 30
0.0
 10
1098.197908789708
 20
408.3880718443742
 30
0.0
 10
1098.231722225223
 20
408.1418488580993
 30
0.0
 10
1098.274542266975
 20
407.652551936213
 30
0.0
 10
1098.283854353464
 20
407.4081207519557
 30
0.0
 10
1098.278680209988
 20
406.9196860900829
 30
0.0
 10
1098.264193734391
 20
406.6756825731881
 30
0.0
 10
1098.211129748814
 20
406.188108419662
 30
0.0
 10
1098.172293153663
 20
405.943374879851
 30
0.0
 10
1098.020021058454
 20
405.218394768146
 30
0.0
 10
1097.872713694864
 20
404.7520700742307
 30
0.0
 10
1097.585077613662
 20
404.0773309597143
 30
0.0
 10
1097.478006071743
 20
403.8565726176539
 30
0.0
 10
1097.240828897777
 20
403.4236069998405
 30
0.0
 10
1097.111068790617
 20
403.2123321905019
 30
0.0
 10
1096.695737128121
 20
402.6049605227281
 30
0.0
 10
1096.382019318757
 20
402.2306309108844
 30
0.0
 10
1095.856055630609
 20
401.715143293537
 30
0.0
 10
1095.670322041837
 20
401.5501956960324
 30
0.0
 10
1095.286034325172
 20
401.2415491394704
 30
0.0
 10
1095.087600014155
 20
401.0977144190428
 30
0.0
 10
1094.473900735061
 20
400.696871437749
 30
0.0
 10
1094.040420678234
 20
400.4702261410803
 30
0.0
 10
1093.122928957348
 20
400.1010018574625
 30
0.0
 10
1092.651053555177
 20
399.96364744108
 30
0.0
 10
1091.691069374707
 20
399.7826782652755
 30
0.0
 10
1091.198573479521
 20
399.7385683538887
 30
0.0
 10
1090.703097232976
 20
399.7437606243748
 30
0.0
  0
SPLINE
  5
3E34
330
1A
100
AcDbEntity
  8
SEIHIN
100
AcDbSpline
210
0.0
220
0.0
230
1.0
 70
    11
 71
     3
 72
   126
 73
   122
 74
     0
 42
0.0000000001
 43
0.0000000001
 40
0.0
 40
0.0
 40
0.0
 40
0.0
 40
0.0312499999999996
 40
0.0312499999999996
 40
0.0468749999999994
 40
0.0468749999999994
 40
0.0624999999999992
 40
0.0624999999999992
 40
0.0937499999999988
 40
0.0937499999999988
 40
0.1015624999999989
 40
0.1015624999999989
 40
0.109374999999999
 40
0.109374999999999
 40
0.1249999999999988
 40
0.1249999999999988
 40
0.156249999999998
 40
0.156249999999998
 40
0.1640624999999975
 40
0.1640624999999975
 40
0.171874999999997
 40
0.171874999999997
 40
0.1874999999999962
 40
0.1874999999999962
 40
0.2031249999999954
 40
0.2031249999999954
 40
0.2109374999999951
 40
0.2109374999999951
 40
0.2187499999999948
 40
0.2187499999999948
 40
0.249999999999994
 40
0.249999999999994
 40
0.2656249999999935
 40
0.2656249999999935
 40
0.2734374999999933
 40
0.2734374999999933
 40
0.2812499999999931
 40
0.2812499999999931
 40
0.3124999999999925
 40
0.3124999999999925
 40
0.3281249999999923
 40
0.3281249999999923
 40
0.343749999999992
 40
0.343749999999992
 40
0.3749999999999912
 40
0.3749999999999912
 40
0.4062499999999904
 40
0.4062499999999904
 40
0.4218749999999899
 40
0.4218749999999899
 40
0.4374999999999895
 40
0.4374999999999895
 40
0.4687499999999894
 40
0.4687499999999894
 40
0.4765624999999899
 40
0.4765624999999899
 40
0.4843749999999904
 40
0.4843749999999904
 40
0.4999999999999924
 40
0.4999999999999924
 40
0.531249999999997
 40
0.531249999999997
 40
0.5390624999999982
 40
0.5390624999999982
 40
0.5468749999999992
 40
0.5468749999999992
 40
0.5625000000000016
 40
0.5625000000000016
 40
0.578125000000004
 40
0.578125000000004
 40
0.5859375000000048
 40
0.5859375000000048
 40
0.5937500000000055
 40
0.5937500000000055
 40
0.6250000000000067
 40
0.6250000000000067
 40
0.640625000000007
 40
0.640625000000007
 40
0.6484375000000071
 40
0.6484375000000071
 40
0.6562500000000071
 40
0.6562500000000071
 40
0.6875000000000075
 40
0.6875000000000075
 40
0.6953125000000075
 40
0.6953125000000075
 40
0.7031250000000073
 40
0.7031250000000073
 40
0.718750000000007
 40
0.718750000000007
 40
0.7500000000000062
 40
0.7500000000000062
 40
0.7578125000000059
 40
0.7578125000000059
 40
0.7656250000000057
 40
0.7656250000000057
 40
0.7812500000000053
 40
0.7812500000000053
 40
0.7968750000000048
 40
0.7968750000000048
 40
0.8125000000000042
 40
0.8125000000000042
 40
0.8437500000000035
 40
0.8437500000000035
 40
0.8593750000000033
 40
0.8593750000000033
 40
0.8750000000000031
 40
0.8750000000000031
 40
0.8906250000000028
 40
0.8906250000000028
 40
0.9062500000000026
 40
0.9062500000000026
 40
0.9375000000000015
 40
0.9375000000000015
 40
0.9531250000000014
 40
0.9531250000000014
 40
0.9687500000000008
 40
0.9687500000000008
 40
0.9843750000000003
 40
0.9843750000000003
 40
1.0
 40
1.0
 40
1.0
 40
1.0
 10
1090.651878378238
 20
393.0225220370294
 30
0.0
 10
1088.508296878836
 20
393.0309131126878
 30
0.0
 10
1086.399905676105
 20
393.2446971397348
 30
0.0
 10
1083.288430668713
 20
393.8636941315499
 30
0.0
 10
1082.259891220646
 20
394.120331772312
 30
0.0
 10
1080.220384017078
 20
394.7361666267643
 30
0.0
 10
1079.206619741951
 20
395.0972645172488
 30
0.0
 10
1076.25728393832
 20
396.3146606760684
 30
0.0
 10
1074.391831552247
 20
397.3083523817222
 30
0.0
 10
1072.185867870296
 20
398.7778814631183
 30
0.0
 10
1071.751025104187
 20
399.0832616880862
 30
0.0
 10
1070.89425811055
 20
399.717365962445
 30
0.0
 10
1070.471278714166
 20
400.0470133044236
 30
0.0
 10
1069.230398384298
 20
401.065082828597
 30
0.0
 10
1068.44341803093
 20
401.7795317168411
 30
0.0
 10
1066.199403731833
 20
404.0266317409423
 30
0.0
 10
1064.859156841589
 20
405.6629122703843
 30
0.0
 10
1063.381500473669
 20
407.883646943651
 30
0.0
 10
1063.095195319887
 20
408.3379332474378
 30
0.0
 10
1062.54805374083
 20
409.2561014402281
 30
0.0
 10
1062.286925842395
 20
409.7202674877717
 30
0.0
 10
1061.540447411128
 20
411.127838554179
 30
0.0
 10
1061.09163829818
 20
412.0861678948386
 30
0.0
 10
1060.289718718427
 20
414.0419120138649
 30
0.0
 10
1059.936813695451
 20
415.0394107000229
 30
0.0
 10
1059.480182776179
 20
416.5653618828801
 30
0.0
 10
1059.340120234837
 20
417.0789736923425
 30
0.0
 10
1059.084865344018
 20
418.1163548461345
 30
0.0
 10
1058.969580134037
 20
418.6409225799406
 30
0.0
 10
1058.461433262821
 20
421.2606068516688
 30
0.0
 10
1058.265854408113
 20
423.3672162403563
 30
0.0
 10
1058.281206691507
 20
426.5430274292339
 30
0.0
 10
1058.338211566354
 20
427.6043030256869
 30
0.0
 10
1058.50359191955
 20
429.2003293636817
 30
0.0
 10
1058.572124870842
 20
429.7323425052791
 30
0.0
 10
1058.734399098252
 20
430.7860368496303
 30
0.0
 10
1058.828246597021
 20
431.3091627236953
 30
0.0
 10
1059.359923328015
 20
433.9065113720734
 30
0.0
 10
1059.983810906686
 20
435.9262606926277
 30
0.0
 10
1061.21972797157
 20
438.8680267265017
 30
0.0
 10
1061.684831421927
 20
439.8385540421904
 30
0.0
 10
1062.699392404512
 20
441.7116877788203
 30
0.0
 10
1063.24978172722
 20
442.6173747753746
 30
0.0
 10
1065.025853547875
 20
445.2449641922412
 30
0.0
 10
1066.375595212229
 20
446.8782063560119
 30
0.0
 10
1069.422385343837
 20
449.8950809132574
 30
0.0
 10
1071.067934550531
 20
451.2295917987394
 30
0.0
 10
1073.712707306451
 20
452.9801253115574
 30
0.0
 10
1074.623875007683
 20
453.5215242538024
 30
0.0
 10
1076.506666278504
 20
454.5182434261824
 30
0.0
 10
1077.481476423522
 20
454.9742743313681
 30
0.0
 10
1080.434580608357
 20
456.1825696372671
 30
0.0
 10
1082.459844615866
 20
456.7878584726277
 30
0.0
 10
1085.061434227194
 20
457.2964712292077
 30
0.0
 10
1085.585295616204
 20
457.3856415925283
 30
0.0
 10
1086.640185438112
 20
457.5385941643762
 30
0.0
 10
1087.17257729613
 20
457.6025404674219
 30
0.0
 10
1088.770228964767
 20
457.7544265983251
 30
0.0
 10
1089.831996855514
 20
457.802191466455
 30
0.0
 10
1093.007708072787
 20
457.7915434439237
 30
0.0
 10
1095.112108285203
 20
457.5799797635345
 30
0.0
 10
1097.726280961135
 20
457.0534950529854
 30
0.0
 10
1098.249741191294
 20
456.9345518500631
 30
0.0
 10
1099.285998476013
 20
456.6719650361692
 30
0.0
 10
1099.798948298595
 20
456.5284079547946
 30
0.0
 10
1101.32261210687
 20
456.0617763970013
 30
0.0
 10
1102.318104462014
 20
455.7026564257939
 30
0.0
 10
1104.269019330956
 20
454.8895293257592
 30
0.0
 10
1105.224479939076
 20
454.4356124059731
 30
0.0
 10
1106.627306946037
 20
453.6828339549547
 30
0.0
 10
1107.089845124256
 20
453.4198998687324
 30
0.0
 10
1108.004602792381
 20
452.8695965857004
 30
0.0
 10
1108.45786532644
 20
452.581469791864
 30
0.0
 10
1110.675341448513
 20
451.0937440966181
 30
0.0
 10
1112.307438688997
 20
449.7472446109459
 30
0.0
 10
1114.549507632918
 20
447.500452157964
 30
0.0
 10
1115.262249305101
 20
446.7133849970432
 30
0.0
 10
1116.277419535729
 20
445.4733538796545
 30
0.0
 10
1116.607227085994
 20
445.0494837139831
 30
0.0
 10
1117.24178273006
 20
444.1912488533198
 30
0.0
 10
1117.547437520687
 20
443.7558379839674
 30
0.0
 10
1119.018609120626
 20
441.5478648377066
 30
0.0
 10
1120.013647270168
 20
439.6829947099559
 30
0.0
 10
1121.028819346403
 20
437.2281147891235
 30
0.0
 10
1121.220318789373
 20
436.7308930466806
 30
0.0
 10
1121.579784937256
 20
435.723707459776
 30
0.0
 10
1121.747613940925
 20
435.2139275880626
 30
0.0
 10
1122.210327586278
 20
433.682546696511
 30
0.0
 10
1122.466488536988
 20
432.6532652835294
 30
0.0
 10
1123.081894788837
 20
429.5409567366887
 30
0.0
 10
1123.289934290941
 20
427.4337642815735
 30
0.0
 10
1123.28707293513
 20
424.7577559965838
 30
0.0
 10
1123.27311367009
 20
424.2219747063845
 30
0.0
 10
1123.219145705901
 20
423.1576465443922
 30
0.0
 10
1123.179143806877
 20
422.6278476795259
 30
0.0
 10
1123.020637398366
 20
421.0454462519883
 30
0.0
 10
1122.863557014224
 20
419.9998525127303
 30
0.0
 10
1122.447825803666
 20
417.9271192961141
 30
0.0
 10
1122.189073751092
 20
416.8999982104642
 30
0.0
 10
1121.567478792661
 20
414.8646682327599
 30
0.0
 10
1121.20250982983
 20
413.8518566219008
 30
0.0
 10
1119.971329934528
 20
410.9042263992432
 30
0.0
 10
1118.967639866015
 20
409.0434343957376
 30
0.0
 10
1117.191194114774
 20
406.4067244590951
 30
0.0
 10
1116.553129096654
 20
405.5527124553409
 30
0.0
 10
1115.185500451155
 20
403.9022118679577
 30
0.0
 10
1114.462970619184
 20
403.1145793342493
 30
0.0
 10
1112.941792099847
 20
401.613274829152
 30
0.0
 10
1112.139598455716
 20
400.8969326433725
 30
0.0
 10
1110.480653833531
 20
399.5574791941026
 30
0.0
 10
1109.623339437531
 20
398.9333631385398
 30
0.0
 10
1106.97025373407
 20
397.1939419574801
 30
0.0
 10
1105.094103918774
 20
396.2103122267527
 30
0.0
 10
1102.113775250925
 20
395.0069777146527
 30
0.0
 10
1101.10664045672
 20
394.6575022643574
 30
0.0
 10
1099.072736777858
 20
394.0598412149366
 30
0.0
 10
1098.044898332854
 20
393.8110668994623
 30
0.0
 10
1095.967534844266
 20
393.4132324456341
 30
0.0
 10
1094.918044818133
 20
393.2640112983272
 30
0.0
 10
1092.79717851925
 20
393.0662011551012
 30
0.0
 10
1091.72366912794
 20
393.018326499201
 30
0.0
 10
1090.651878378238
 20
393.0225220370294
 30
0.0
  0
LINE
  5
3E35
330
1A
100
AcDbEntity
  8
SEIHIN
100
AcDbLine
 10
1107.3221868223
 20
464.2433488451424
 30
0.0
 11
1074.241189308149
 21
464.2433488451424
 31
0.0
  0
SPLINE
  5
3E36
330
1A
100
AcDbEntity
  8
SEIHIN
100
AcDbSpline
210
0.0
220
0.0
230
1.0
 70
     8
 71
     3
 72
    14
 73
    10
 74
     0
 42
0.0000000001
 43
0.0000000001
 40
0.0
 40
0.0
 40
0.0
 40
0.0
 40
0.4999999999999872
 40
0.4999999999999872
 40
0.6249999999999939
 40
0.6249999999999939
 40
0.7500000000000006
 40
0.7500000000000006
 40
1.0
 40
1.0
 40
1.0
 40
1.0
 10
1056.634193016144
 20
469.1240640162332
 30
0.0
 10
1058.04894336207
 20
470.3993878905339
 30
0.0
 10
1059.594976579227
 20
471.4707103057153
 30
0.0
 10
1061.720084896301
 20
472.5106323060717
 30
0.0
 10
1062.156726343775
 20
472.7042954768048
 30
0.0
 10
1063.040061382014
 20
473.0560921718661
 30
0.0
 10
1063.485786939986
 20
473.2140442467571
 30
0.0
 10
1064.834762965801
 20
473.635719012911
 30
0.0
 10
1065.749808835612
 20
473.8472777138158
 30
0.0
 10
1066.679662855676
 20
473.9933488451406
 30
0.0
  0
SPLINE
  5
3E37
330
1A
100
AcDbEntity
  8
SEIHIN
100
AcDbSpline
210
0.0
220
0.0
230
1.0
 70
     8
 71
     3
 72
    16
 73
    12
 74
     0
 42
0.0000000001
 43
0.0000000001
 40
0.0
 40
0.0
 40
0.0
 40
0.0
 40
0.25
 40
0.25
 40
0.375
 40
0.375
 40
0.5
 40
0.5
 40
0.75
 40
0.75
 40
1.0
 40
1.0
 40
1.0
 40
1.0
 10
1074.241189308149
 20
464.2433488451424
 30
0.0
 10
1072.732752248489
 20
464.2433488451424
 30
0.0
 10
1071.246096147503
 20
464.1043801328724
 30
0.0
 10
1069.055904115793
 20
463.6420420208251
 30
0.0
 10
1068.332262584413
 20
463.4454931744976
 30
0.0
 10
1066.900513401032
 20
462.9591510016025
 30
0.0
 10
1066.20787158738
 20
462.6745965808604
 30
0.0
 10
1064.197535579015
 20
461.7005397919156
 30
0.0
 10
1062.947222789892
 20
460.8910144446245
 30
0.0
 10
1060.618655767179
 20
458.9654848300461
 30
0.0
 10
1059.577753148039
 20
457.8815680003763
 30
0.0
 10
1058.640249393321
 20
456.6977771455449
 30
0.0
  0
SPLINE
  5
3E38
330
1A
100
AcDbEntity
  8
SEIHIN
100
AcDbSpline
210
0.0
220
0.0
230
1.0
 70
     8
 71
     3
 72
    16
 73
    12
 74
     0
 42
0.0000000001
 43
0.0000000001
 40
0.0
 40
0.0
 40
0.0
 40
0.0
 40
0.2499999999999985
 40
0.2499999999999985
 40
0.3750000000000015
 40
0.3750000000000015
 40
0.5000000000000046
 40
0.5000000000000046
 40
0.7500000000000023
 40
0.7500000000000023
 40
1.0
 40
1.0
 40
1.0
 40
1.0
 10
1122.923126737128
 20
456.697777145544
 30
0.0
 10
1121.98638722608
 20
457.8806029859269
 30
0.0
 10
1120.951578001822
 20
458.9569209936762
 30
0.0
 10
1119.228618810168
 20
460.3859613691965
 30
0.0
 10
1118.625692763657
 20
460.8312404989346
 30
0.0
 10
1117.356589295569
 20
461.6531051052024
 30
0.0
 10
1116.703936287859
 20
462.0208184464408
 30
0.0
 10
1114.694214982025
 20
462.9958596232918
 30
0.0
 10
1113.284709990942
 20
463.4755026716984
 30
0.0
 10
1110.330411423613
 20
464.1040267593544
 30
0.0
 10
1108.832321187875
 20
464.2433488451424
 30
0.0
 10
1107.3221868223
 20
464.2433488451424
 30
0.0
  0
SPLINE
  5
3E39
330
1A
100
AcDbEntity
  8
SEIHIN
100
AcDbSpline
210
0.0
220
0.0
230
1.0
 70
     8
 71
     3
 72
    16
 73
    12
 74
     0
 42
0.0000000001
 43
0.0000000001
 40
0.0
 40
0.0
 40
0.0
 40
0.0
 40
0.2499999999999933
 40
0.2499999999999933
 40
0.37499999999999
 40
0.37499999999999
 40
0.4999999999999866
 40
0.4999999999999866
 40
0.7499999999999934
 40
0.7499999999999934
 40
1.0
 40
1.0
 40
1.0
 40
1.0
 10
1114.883713274758
 20
473.9933488451424
 30
0.0
 10
1115.810997464802
 20
473.8476814094201
 30
0.0
 10
1116.727558544811
 20
473.6362974630037
 30
0.0
 10
1118.084847485873
 20
473.2116500635948
 30
0.0
 10
1118.535140818768
 20
473.0516616974391
 30
0.0
 10
1119.414042045226
 20
472.7010658907657
 30
0.0
 10
1119.844608897127
 20
472.5099341510704
 30
0.0
 10
1121.110540537515
 20
471.8906100992517
 30
0.0
 10
1121.920166522876
 20
471.4165426243862
 30
0.0
 10
1123.474780104506
 20
470.3532004288308
 30
0.0
 10
1124.222452934565
 20
469.7611445255261
 30
0.0
 10
1124.929183114304
 20
469.1240640162305
 30
0.0
  0
ARC
  5
3E3A
330
1A
100
AcDbEntity
  8
SEIHIN
100
AcDbCircle
 10
1090.781688065223
 20
447.2433488451424
 30
0.0
 40
66.74999999999994
100
AcDbArc
 50
222.4533024588011
 51
317.5466975411989
  0
LINE
  5
3E3B
330
1A
100
AcDbEntity
  8
SEIHIN
100
AcDbLine
 10
1141.031688065223
 20
436.4933488451424
 30
0.0
 11
1142.031688065223
 21
436.4933488451424
 31
0.0
  0
LINE
  5
3E3C
330
1A
100
AcDbEntity
  8
SEIHIN
100
AcDbLine
 10
1141.031688065223
 20
427.9933488451424
 30
0.0
 11
1141.031688065223
 21
436.4933488451424
 31
0.0
  0
LINE
  5
3E3D
330
1A
100
AcDbEntity
  8
SEIHIN
100
AcDbLine
 10
1039.531688065223
 20
427.9933488451424
 30
0.0
 11
1039.531688065223
 21
401.4175918955843
 31
0.0
  0
LINE
  5
3E3E
330
1A
100
AcDbEntity
  8
SEIHIN
100
AcDbLine
 10
1142.031688065223
 20
472.9667296043353
 30
0.0
 11
1137.765526383306
 21
479.9933488451424
 31
0.0
  0
LINE
  5
3E3F
330
1A
100
AcDbEntity
  8
SEIHIN
100
AcDbLine
 10
1142.031688065223
 20
401.4175918955843
 30
0.0
 11
1142.031688065223
 21
427.9933488451424
 31
0.0
  0
LINE
  5
3E40
330
1A
100
AcDbEntity
  8
SEIHIN
100
AcDbLine
 10
1049.705994155792
 20
477.9933488451424
 30
0.0
 11
1046.705994155792
 21
479.9933488451424
 31
0.0
  0
LINE
  5
3E41
330
1A
100
AcDbEntity
  8
SEIHIN
100
AcDbLine
 10
1046.705994155792
 20
479.9933488451424
 30
0.0
 11
1043.797849747142
 21
479.9933488451424
 31
0.0
  0
LINE
  5
3E42
330
1A
100
AcDbEntity
  8
SEIHIN
100
AcDbLine
 10
1043.797849747142
 20
479.9933488451424
 30
0.0
 11
1039.531688065223
 21
472.9667296043353
 31
0.0
  0
LINE
  5
3E43
330
1A
100
AcDbEntity
  8
SEIHIN
100
AcDbLine
 10
1040.531688065223
 20
436.4933488451424
 30
0.0
 11
1040.531688065223
 21
427.9933488451424
 31
0.0
  0
LINE
  5
3E44
330
1A
100
AcDbEntity
  8
SEIHIN
100
AcDbLine
 10
1142.031688065223
 20
436.4933488451424
 30
0.0
 11
1142.031688065223
 21
472.9667296043353
 31
0.0
  0
LINE
  5
3E45
330
1A
100
AcDbEntity
  8
SEIHIN
100
AcDbLine
 10
1140.031688065223
 20
402.1878275408671
 30
0.0
 11
1140.031688065223
 21
472.4071203445337
 31
0.0
  0
LINE
  5
3E46
330
1A
100
AcDbEntity
  8
SEIHIN
100
AcDbLine
 10
1039.531688065223
 20
436.4933488451424
 30
0.0
 11
1040.531688065223
 21
436.4933488451424
 31
0.0
  0
LINE
  5
3E47
330
1A
100
AcDbEntity
  8
SEIHIN
100
AcDbLine
 10
1040.531688065223
 20
427.9933488451424
 30
0.0
 11
1039.531688065223
 21
427.9933488451424
 31
0.0
  0
ARC
  5
3E48
330
1A
100
AcDbEntity
  8
SEIHIN
100
AcDbCircle
 10
1090.781688065223
 20
447.2433488451424
 30
0.0
 40
68.74999999999994
100
AcDbArc
 50
221.8018441931395
 51
318.1981558068605
  0
LINE
  5
3E49
330
1A
100
AcDbEntity
  8
SEIHIN
100
AcDbLine
 10
1142.031688065223
 20
427.9933488451424
 30
0.0
 11
1141.031688065223
 21
427.9933488451424
 31
0.0
  0
LINE
  5
3E4A
330
1A
100
AcDbEntity
  8
SEIHIN
100
AcDbLine
 10
1137.765526383306
 20
479.9933488451424
 30
0.0
 11
1134.857381974657
 21
479.9933488451424
 31
0.0
  0
LINE
  5
3E4B
330
1A
100
AcDbEntity
  8
SEIHIN
100
AcDbLine
 10
1134.857381974657
 20
479.9933488451424
 30
0.0
 11
1131.857381974657
 21
477.9933488451424
 31
0.0
  0
LINE
  5
3E4C
330
1A
100
AcDbEntity
  8
SEIHIN
100
AcDbLine
 10
1131.857381974657
 20
477.9933488451424
 30
0.0
 11
1049.705994155792
 21
477.9933488451424
 31
0.0
  0
LINE
  5
3E4D
330
1A
100
AcDbEntity
  8
SEIHIN
100
AcDbLine
 10
1039.531688065223
 20
472.9667296043353
 30
0.0
 11
1039.531688065223
 21
436.4933488451424
 31
0.0
  0
LINE
  5
3E4E
330
1A
100
AcDbEntity
  8
SEIHIN
100
AcDbLine
 10
1044.923326797737
 20
477.9933488451424
 30
0.0
 11
1041.531688065223
 21
472.4071203445337
 31
0.0
  0
LINE
  5
3E4F
330
1A
100
AcDbEntity
  8
SEIHIN
100
AcDbLine
 10
1046.100442880327
 20
477.9933488451424
 30
0.0
 11
1044.923326797737
 21
477.9933488451424
 31
0.0
  0
LINE
  5
3E50
330
1A
100
AcDbEntity
  8
SEIHIN
100
AcDbLine
 10
1052.100442880327
 20
473.9933488451424
 30
0.0
 11
1046.100442880327
 21
477.9933488451424
 31
0.0
  0
LINE
  5
3E51
330
1A
100
AcDbEntity
  8
SEIHIN
100
AcDbLine
 10
1129.462933250122
 20
473.9933488451424
 30
0.0
 11
1052.100442880327
 21
473.9933488451424
 31
0.0
  0
LINE
  5
3E52
330
1A
100
AcDbEntity
  8
SEIHIN
100
AcDbLine
 10
1135.462933250122
 20
477.9933488451424
 30
0.0
 11
1129.462933250122
 21
473.9933488451424
 31
0.0
  0
LINE
  5
3E53
330
1A
100
AcDbEntity
  8
SEIHIN
100
AcDbLine
 10
1136.640049332712
 20
477.9933488451424
 30
0.0
 11
1135.462933250122
 21
477.9933488451424
 31
0.0
  0
LINE
  5
3E54
330
1A
100
AcDbEntity
  8
SEIHIN
100
AcDbLine
 10
1140.031688065223
 20
472.4071203445337
 30
0.0
 11
1136.640049332712
 21
477.9933488451424
 31
0.0
  0
LINE
  5
3E55
330
1A
100
AcDbEntity
  8
SEIHIN
100
AcDbLine
 10
1041.531688065223
 20
472.4071203445337
 30
0.0
 11
1041.531688065223
 21
402.1878275408671
 31
0.0
  0
ARC
  5
3E56
330
1A
100
AcDbEntity
  8
SEIHIN
100
AcDbCircle
 10
1090.781688065223
 20
431.2433488451424
 30
0.0
 40
50.99999999999999
100
AcDbArc
 50
195.0529392427004
 51
258.3818022733327
  0
ARC
  5
3E57
330
1A
100
AcDbEntity
  8
SEIHIN
100
AcDbCircle
 10
1090.781688065223
 20
431.2433488451424
 30
0.0
 40
50.99999999999999
100
AcDbArc
 50
281.6181977266674
 51
344.9470607572994
  0
ARC
  5
3E58
330
1A
100
AcDbEntity
  8
SEIHIN
100
AcDbCircle
 10
1090.781688065223
 20
431.2433488451424
 30
0.0
 40
50.99999999999997
100
AcDbArc
 50
15.05293924270047
 51
47.96698376920701
  0
ARC
  5
3E59
330
1A
100
AcDbEntity
  8
SEIHIN
100
AcDbCircle
 10
1090.781688065223
 20
431.2433488451424
 30
0.0
 40
41.00000000000032
100
AcDbArc
 50
141.6225191522751
 51
38.3774808477249
  0
ARC
  5
3E5A
330
1A
100
AcDbEntity
  8
SEIHIN
100
AcDbCircle
 10
1090.781688065223
 20
431.2433488451424
 30
0.0
 40
50.99999999999996
100
AcDbArc
 50
132.0330162307929
 51
164.9470607572995
  0
LINE
  5
3E5B
330
1A
100
AcDbEntity
  8
SEIHIN
100
AcDbLine
 10
1358.330842605942
 20
278.5343060726621
 30
0.0
 11
1358.592659497455
 21
293.5337857417374
 31
0.0
  0
LINE
  5
3E5C
330
1A
100
AcDbEntity
  8
SEIHIN
100
AcDbLine
 10
1359.9988646511
 20
130.534306072662
 30
0.0
 11
1355.9988646511
 21
130.534306072662
 31
0.0
  0
LINE
  5
3E5D
330
1A
100
AcDbEntity
  8
SEIHIN
100
AcDbLine
 10
1360.4988646511
 20
276.1462220441647
 30
0.0
 11
1360.4988646511
 21
131.034306072662
 31
0.0
  0
LINE
  5
3E5E
102
{ACAD_REACTORS
330
3DC5
102
}
330
1A
100
AcDbEntity
  8
SEIHIN
100
AcDbLine
 10
1360.4988646511
 20
293.034306072662
 30
0.0
 11
1360.4988646511
 21
293.5343060726621
 31
0.0
  0
LINE
  5
3E5F
330
1A
100
AcDbEntity
  8
SEIHIN
100
AcDbLine
 10
1356.587418471729
 20
293.4466854561654
 30
0.0
 11
1356.585259238594
 21
293.034306072662
 31
0.0
  0
LINE
  5
3E60
330
1A
100
AcDbEntity
  8
SEIHIN
100
AcDbLine
 10
1360.4988646511
 20
293.034306072662
 30
0.0
 11
1360.498864651099
 21
291.0343060726621
 31
0.0
  0
ARC
  5
3E61
330
1A
100
AcDbEntity
  8
SEIHIN
100
AcDbCircle
 10
1356.733842588236
 20
292.7355450206244
 30
0.0
 40
0.7260583591942142
100
AcDbArc
 50
88.29524016154222
 51
101.6346272338815
  0
LINE
  5
3E62
330
1A
100
AcDbEntity
  8
SEIHIN
100
AcDbLine
 10
1356.509336722311
 20
278.5343060726621
 30
0.0
 11
1356.587418471728
 21
293.4466854561654
 31
0.0
  0
LINE
  5
3E63
330
1A
100
AcDbEntity
  8
SEIHIN
100
AcDbLine
 10
1358.592659497455
 20
293.5337857417374
 30
0.0
 11
1356.755442303309
 21
293.4612820206906
 31
0.0
  0
LINE
  5
3E64
330
1A
100
AcDbEntity
  8
SEIHIN
100
AcDbLine
 10
1358.592659497455
 20
293.5337857417374
 30
0.0
 11
1358.60551083482
 21
293.5343060726621
 31
0.0
  0
LINE
  5
3E65
330
1A
100
AcDbEntity
  8
SEIHIN
100
AcDbLine
 10
1360.498864651099
 20
293.5343060726621
 30
0.0
 11
1360.498864651099
 21
278.5343060726621
 31
0.0
  0
LINE
  5
3E66
330
1A
100
AcDbEntity
  8
SEIHIN
100
AcDbLine
 10
1360.498864651099
 20
293.5343060726621
 30
0.0
 11
1358.760690625023
 21
293.5343060726621
 31
0.0
  0
LINE
  5
3E67
330
1A
100
AcDbEntity
  8
SEIHIN
100
AcDbLine
 10
1280.375305820181
 20
130.534306072662
 30
0.0
 11
1258.573562892033
 21
130.534306072662
 31
0.0
  0
ARC
  5
3E68
330
1A
100
AcDbEntity
  8
SEIHIN
100
AcDbCircle
 10
1359.9988646511
 20
131.034306072662
 30
0.0
 40
0.5000000000001066
100
AcDbArc
 50
270.0
 51
358.9999999999721
  0
LINE
  5
3E69
330
1A
100
AcDbEntity
  8
SEIHIN
100
AcDbLine
 10
1359.9988646511
 20
130.534306072662
 30
0.0
 11
1352.638549847737
 21
130.534306072662
 31
0.0
  0
LWPOLYLINE
  5
3E6A
330
1A
100
AcDbEntity
  8
SEIHIN
100
AcDbPolyline
 90
        9
 70
     0
 43
0.0
 10
1352.638549847737
 20
130.534306072662
 10
1352.665544015899
 20
130.5437017891484
 10
1352.691523665858
 20
130.5715358206528
 10
1352.715512407911
 20
130.6167620845028
 10
1352.736608676383
 20
130.6776808480847
 10
1352.754019613043
 20
130.7520026096747
 10
1352.767090864993
 20
130.8369341444697
 10
1352.775331177124
 20
130.9292834819828
 10
1352.778430854888
 20
131.0255798694436
  0
LINE
  5
3E6B
330
1A
100
AcDbEntity
  8
SEIHIN
100
AcDbLine
 10
1352.638549847737
 20
130.534306072662
 30
0.0
 11
1280.375305820181
 21
130.534306072662
 31
0.0
  0
LINE
  5
3E6C
102
{ACAD_REACTORS
330
3DC5
102
}
330
1A
100
AcDbEntity
  8
SEIHIN
100
AcDbLine
 10
1255.498864651099
 20
278.5343060726621
 30
0.0
 11
1279.055872167525
 21
278.5343060726621
 31
0.0
  0
LINE
  5
3E6D
330
1A
100
AcDbEntity
  8
SEIHIN
100
AcDbLine
 10
1279.387557303174
 20
278.5343060726621
 30
0.0
 11
1353.4988646511
 21
278.5343060726621
 31
0.0
  0
LINE
  5
3E6E
330
1A
100
AcDbEntity
  8
SEIHIN
100
AcDbLine
 10
1305.466229649519
 20
271.0670172266639
 30
0.0
 11
1305.467163335741
 21
268.0025286048824
 31
0.0
  0
ARC
  5
3E6F
330
1A
100
AcDbEntity
  8
SEIHIN
100
AcDbCircle
 10
1305.966025181764
 20
271.0672978266723
 30
0.0
 40
0.4997956110139192
100
AcDbArc
 50
90.00275677113952
 51
180.0321675435019
  0
LINE
  5
3E70
330
1A
100
AcDbEntity
  8
SEIHIN
100
AcDbLine
 10
1315.031728167967
 20
271.5670934371076
 30
0.0
 11
1305.966001134231
 21
271.5670934371076
 31
0.0
  0
ARC
  5
3E71
330
1A
100
AcDbEntity
  8
SEIHIN
100
AcDbCircle
 10
1315.031704120434
 20
271.0672978266732
 30
0.0
 40
0.4997956110135213
100
AcDbArc
 50
359.967832456446
 51
89.99724322886049
  0
LINE
  5
3E72
330
1A
100
AcDbEntity
  8
SEIHIN
100
AcDbLine
 10
1315.530565966456
 20
268.0025286048824
 30
0.0
 11
1315.531499652679
 21
271.0670172266639
 31
0.0
  0
ARC
  5
3E73
330
1A
100
AcDbEntity
  8
SEIHIN
100
AcDbCircle
 10
1315.030565952726
 20
268.0027570874975
 30
0.0
 40
0.5000000659342714
100
AcDbArc
 50
269.991279136769
 51
359.9738178235104
  0
LINE
  5
3E74
330
1A
100
AcDbEntity
  8
SEIHIN
100
AcDbLine
 10
1305.96723945337
 20
267.5027570273544
 30
0.0
 11
1315.030489848828
 21
267.5027570273544
 31
0.0
  0
ARC
  5
3E75
330
1A
100
AcDbEntity
  8
SEIHIN
100
AcDbCircle
 10
1305.967163349472
 20
268.0027570874975
 30
0.0
 40
0.5000000659343851
100
AcDbArc
 50
180.0261821764896
 51
270.0087208632571
  0
LINE
  5
3E76
330
1A
100
AcDbEntity
  8
SEIHIN
100
AcDbLine
 10
1353.4988646511
 20
278.5343060726621
 30
0.0
 11
1360.498864651099
 21
278.5343060726621
 31
0.0
  0
LINE
  5
3E77
330
1A
100
AcDbEntity
  8
SEIHIN
100
AcDbLine
 10
1360.498788498677
 20
131.0255798694436
 30
0.0
 11
1360.498864651099
 21
131.034306072662
 31
0.0
  0
LINE
  5
3E78
330
1A
100
AcDbEntity
  8
SEIHIN
100
AcDbLine
 10
1360.498864651099
 20
131.034306072662
 30
0.0
 11
1360.498864651099
 21
278.5343060726621
 31
0.0
  0
LINE
  5
3E79
330
1A
100
AcDbEntity
  8
SEIHIN
100
AcDbLine
 10
1353.4988646511
 20
278.5343060726621
 30
0.0
 11
1352.778430854888
 21
131.0255798694436
 31
0.0
  0
LINE
  5
3E7A
330
1A
100
AcDbEntity
  8
SEIHIN
100
AcDbLine
 10
1279.055872167525
 20
278.5343060726621
 30
0.0
 11
1279.387557303174
 21
278.5343060726621
 31
0.0
  0
LWPOLYLINE
  5
3E7B
330
1A
100
AcDbEntity
  8
SEIHIN
100
AcDbPolyline
 90
        6
 70
     0
 43
0.0
 10
1280.038238335176
 20
131.0255798694609
 10
1280.034814826292
 20
131.5341305227005
 10
1280.007901019023
 20
135.5334283934292
 10
1279.900405702439
 20
151.5306210012516
 10
1279.472951371949
 20
215.519409160793
 10
1279.055872167525
 20
278.5343060726621
  0
ARC
  5
3E7C
330
1A
100
AcDbEntity
  8
SEIHIN
100
AcDbCircle
 10
1306.737574154589
 20
268.0845406004485
 30
0.0
 40
0.3002345278440418
100
AcDbArc
 50
180.0447565235609
 51
269.9988789217531
  0
LINE
  5
3E7D
330
1A
100
AcDbEntity
  8
SEIHIN
100
AcDbLine
 10
1306.769274811295
 20
267.784306072662
 30
0.0
 11
1306.737568280048
 21
267.784306072662
 31
0.0
  0
LINE
  5
3E7E
330
1A
100
AcDbEntity
  8
SEIHIN
100
AcDbLine
 10
1314.260161022149
 20
267.784306072662
 30
0.0
 11
1314.228454490903
 21
267.784306072662
 31
0.0
  0
ARC
  5
3E7F
330
1A
100
AcDbEntity
  8
SEIHIN
100
AcDbCircle
 10
1314.260152531308
 20
268.0845432187427
 30
0.0
 40
0.300237146200809
100
AcDbArc
 50
270.0016203503699
 51
359.9547442042664
  0
LINE
  5
3E80
330
1A
100
AcDbEntity
  8
SEIHIN
100
AcDbLine
 10
1314.228454490903
 20
267.784306072662
 30
0.0
 11
1306.769274811295
 21
267.784306072662
 31
0.0
  0
LINE
  5
3E81
330
1A
100
AcDbEntity
  8
SEIHIN
100
AcDbLine
 10
1306.437339718346
 20
268.0843060726622
 30
0.0
 11
1306.435237310677
 21
271.5334527106436
 31
0.0
  0
LINE
  5
3E82
330
1A
100
AcDbEntity
  8
SEIHIN
100
AcDbLine
 10
1314.562491991521
 20
271.5334527106436
 30
0.0
 11
1314.560389583853
 21
268.0843060726622
 31
0.0
  0
ARC
  5
3E83
330
1A
100
AcDbEntity
  8
SEIHIN
100
AcDbCircle
 10
1258.573562892033
 20
131.034306072662
 30
0.0
 40
0.5
100
AcDbArc
 50
180.9999999999757
 51
270.0
  0
LINE
  5
3E84
330
1A
100
AcDbEntity
  8
SEIHIN
100
AcDbLine
 10
1255.498864651099
 20
278.5343060726621
 30
0.0
 11
1258.073639044455
 21
131.0255798694436
 31
0.0
  0
LINE
  5
3E85
330
1A
100
AcDbEntity
  8
SEIHIN
100
AcDbLine
 10
1046.497702792942
 20
278.5343060726621
 30
0.0
 11
1046.246554793482
 21
293.5343060726621
 31
0.0
  0
LINE
  5
3E86
330
1A
100
AcDbEntity
  8
SEIHIN
100
AcDbLine
 10
1135.316821336967
 20
293.5343060726621
 30
0.0
 11
1135.065673337506
 21
278.5343060726621
 31
0.0
  0
LINE
  5
3E87
330
1A
100
AcDbEntity
  8
SEIHIN
100
AcDbLine
 10
1132.006774090307
 20
293.4612820206906
 30
0.0
 11
1132.030438482358
 21
278.5343060726621
 31
0.0
  0
LINE
  5
3E88
330
1A
100
AcDbEntity
  8
SEIHIN
100
AcDbLine
 10
1049.532937648089
 20
278.5343060726621
 30
0.0
 11
1049.556602040141
 21
293.4612820206906
 31
0.0
  0
LINE
  5
3E89
330
1A
100
AcDbEntity
  8
SEIHIN
100
AcDbLine
 10
1131.45210463835
 20
293.4466854561654
 30
0.0
 11
1132.006774090307
 21
293.4612820206906
 31
0.0
  0
LINE
  5
3E8A
330
1A
100
AcDbEntity
  8
SEIHIN
100
AcDbLine
 10
1049.556602040141
 20
293.4612820206906
 30
0.0
 11
1050.111271492097
 21
293.4466854561654
 31
0.0
  0
LINE
  5
3E8B
330
1A
100
AcDbEntity
  8
SEIHIN
100
AcDbLine
 10
1115.781688065223
 20
293.034306072662
 30
0.0
 11
1131.45210463835
 21
293.4466854561654
 31
0.0
  0
ARC
  5
3E8C
330
1A
100
AcDbEntity
  8
SEIHIN
100
AcDbCircle
 10
1090.781688065223
 20
448.2843060726574
 30
0.0
 40
157.2499999999955
100
AcDbArc
 50
260.8521574802052
 51
279.1478425197948
  0
LINE
  5
3E8D
330
1A
100
AcDbEntity
  8
SEIHIN
100
AcDbLine
 10
1050.111271492097
 20
293.4466854561654
 30
0.0
 11
1065.781688065223
 21
293.034306072662
 31
0.0
  0
CIRCLE
  5
3E8E
330
1A
100
AcDbEntity
  8
SEIHIN
100
AcDbCircle
 10
1123.281688064015
 20
285.5345346431061
 30
0.0
 40
2.500822572052385
  0
CIRCLE
  5
3E8F
330
1A
100
AcDbEntity
  8
SEIHIN
100
AcDbCircle
 10
1058.281688064015
 20
285.5345346431061
 30
0.0
 40
2.500822572052385
  0
LINE
  5
3E90
330
1A
100
AcDbEntity
  8
SEIHIN
100
AcDbLine
 10
1139.031688065223
 20
293.5343060726621
 30
0.0
 11
1139.031688065223
 21
278.5343060726621
 31
0.0
  0
LINE
  5
3E91
330
1A
100
AcDbEntity
  8
SEIHIN
100
AcDbLine
 10
1139.031688065223
 20
293.5343060726621
 30
0.0
 11
1135.316821336967
 21
293.5343060726621
 31
0.0
  0
LINE
  5
3E92
330
1A
100
AcDbEntity
  8
SEIHIN
100
AcDbLine
 10
1046.246554793482
 20
293.5343060726621
 30
0.0
 11
1042.531688065223
 21
293.5343060726621
 31
0.0
  0
LINE
  5
3E93
330
1A
100
AcDbEntity
  8
SEIHIN
100
AcDbLine
 10
1042.531688065223
 20
293.5343060726621
 30
0.0
 11
1042.531688065223
 21
278.5343060726621
 31
0.0
  0
LINE
  5
3E94
330
1A
100
AcDbEntity
  8
SEIHIN
100
AcDbLine
 10
1046.781688065224
 20
293.5343060726621
 30
0.0
 11
1046.801460640359
 21
293.5337857417374
 31
0.0
  0
LINE
  5
3E95
330
1A
100
AcDbEntity
  8
SEIHIN
100
AcDbLine
 10
1046.246554793482
 20
293.5343060726621
 30
0.0
 11
1046.781688065224
 21
293.5343060726621
 31
0.0
  0
LINE
  5
3E96
330
1A
100
AcDbEntity
  8
SEIHIN
100
AcDbLine
 10
1134.781688065224
 20
293.5343060726621
 30
0.0
 11
1135.316821336967
 21
293.5343060726621
 31
0.0
  0
LINE
  5
3E97
330
1A
100
AcDbEntity
  8
SEIHIN
100
AcDbLine
 10
1134.761915490088
 20
293.5337857417374
 30
0.0
 11
1134.781688065224
 21
293.5343060726621
 31
0.0
  0
LINE
  5
3E98
330
1A
100
AcDbEntity
  8
SEIHIN
100
AcDbLine
 10
1134.761915490088
 20
293.5337857417374
 30
0.0
 11
1132.006774090307
 21
293.4612820206906
 31
0.0
  0
LINE
  5
3E99
330
1A
100
AcDbEntity
  8
SEIHIN
100
AcDbLine
 10
1049.556602040141
 20
293.4612820206906
 30
0.0
 11
1046.801460640359
 21
293.5337857417374
 31
0.0
  0
LINE
  5
3E9A
330
1A
100
AcDbEntity
  8
SEIHIN
100
AcDbLine
 10
1142.136497697011
 20
278.5343060726621
 30
0.0
 11
1142.281688065223
 21
278.5343060726621
 31
0.0
  0
LINE
  5
3E9B
330
1A
100
AcDbEntity
  8
SEIHIN
100
AcDbLine
 10
1039.281688065223
 20
278.5343060726621
 30
0.0
 11
1039.426878433437
 21
278.5343060726621
 31
0.0
  0
ARC
  5
3E9C
330
1A
100
AcDbEntity
  8
SEIHIN
100
AcDbCircle
 10
1041.356386306158
 20
131.0343060726711
 30
0.0
 40
0.500000000008825
100
AcDbArc
 50
180.9999999989855
 51
270.000000000026
  0
ARC
  5
3E9D
330
1A
100
AcDbEntity
  8
SEIHIN
100
AcDbCircle
 10
1140.20698982429
 20
131.034306072662
 30
0.0
 40
0.5000000000001649
100
AcDbArc
 50
270.0
 51
359.0000000019527
  0
LINE
  5
3E9E
330
1A
100
AcDbEntity
  8
SEIHIN
100
AcDbLine
 10
1143.155808097647
 20
278.5343060726621
 30
0.0
 11
1143.281688065224
 21
278.5343060726621
 31
0.0
  0
ARC
  5
3E9F
330
1A
100
AcDbEntity
  8
SEIHIN
100
AcDbCircle
 10
1140.641552238294
 20
133.7266631240984
 30
0.0
 40
2.70187395440325
100
AcDbArc
 50
268.6138140746168
 51
271.3861859247838
  0
LINE
  5
3EA0
330
1A
100
AcDbEntity
  8
SEIHIN
100
AcDbLine
 10
1038.281688065224
 20
278.5343060726621
 30
0.0
 11
1038.4075680328
 21
278.5343060726621
 31
0.0
  0
ARC
  5
3EA1
330
1A
100
AcDbEntity
  8
SEIHIN
100
AcDbCircle
 10
1040.921823892533
 20
133.7266631553941
 30
0.0
 40
2.701873985698439
100
AcDbArc
 50
268.6138140832175
 51
271.3861859013012
  0
ARC
  5
3EA2
330
1A
100
AcDbEntity
  8
SEIHIN
100
AcDbCircle
 10
1140.131846148978
 20
130.9751453229585
 30
0.0
 40
0.4471977376301735
100
AcDbArc
 50
279.6734339006019
 51
6.475541920474282
  0
ARC
  5
3EA3
330
1A
100
AcDbEntity
  8
SEIHIN
100
AcDbCircle
 10
1041.431529981475
 20
130.9751453229603
 30
0.0
 40
0.4471977376331564
100
AcDbArc
 50
173.5244580820954
 51
260.3265660987702
  0
LINE
  5
3EA4
330
1A
100
AcDbEntity
  8
SEIHIN
100
AcDbLine
 10
1140.20698982429
 20
130.534306072662
 30
0.0
 11
1041.356386306158
 21
130.534306072662
 31
0.0
  0
LWPOLYLINE
  5
3EA5
330
1A
100
AcDbEntity
  8
SEIHIN
100
AcDbPolyline
 90
        6
 70
     0
 43
0.0
 10
1038.4075680328
 20
278.5343060726621
 10
1038.425051668238
 20
277.534480628525
 10
1038.494986367844
 20
273.5351789167491
 10
1038.774727705356
 20
257.5379731098476
 10
1039.893734558362
 20
193.5491667728868
 10
1040.987185325756
 20
131.0255798694436
  0
LWPOLYLINE
  5
3EA6
330
1A
100
AcDbEntity
  8
SEIHIN
100
AcDbPolyline
 90
        6
 70
     0
 43
0.0
 10
1140.576190804691
 20
131.0255798694609
 10
1140.585084925779
 20
131.5341305227005
 10
1140.655029105143
 20
135.5334283934292
 10
1140.934803016567
 20
151.5306210012516
 10
1142.053854729963
 20
215.519409160793
 10
1143.155808097647
 20
278.5343060726621
  0
LINE
  5
3EA7
330
1A
100
AcDbEntity
  8
SEIHIN
100
AcDbLine
 10
1038.4075680328
 20
278.5343060726621
 30
0.0
 11
1143.155808097647
 21
278.5343060726621
 31
0.0
  0
LINE
  5
3EA8
330
1A
100
AcDbEntity
  8
SEIHIN
100
AcDbLine
 10
1520.102853545922
 20
131.034306072662
 30
0.0
 11
1523.11485598052
 21
278.5343060726621
 31
0.0
  0
LINE
  5
3EA9
330
1A
100
AcDbEntity
  8
SEIHIN
100
AcDbLine
 10
1524.790081587164
 20
131.0255798694436
 30
0.0
 11
1527.364855980519
 21
278.5343060726621
 31
0.0
  0
LINE
  5
3EAA
330
1A
100
AcDbEntity
  8
SEIHIN
100
AcDbLine
 10
1520.102853545922
 20
131.034306072662
 30
0.0
 11
1520.102721589149
 21
131.0255798694436
 31
0.0
  0
LINE
  5
3EAB
330
1A
100
AcDbEntity
  8
SEIHIN
100
AcDbLine
 10
1523.11485598052
 20
278.5343060726621
 30
0.0
 11
1527.364855980519
 21
278.5343060726621
 31
0.0
  0
LWPOLYLINE
  5
3EAC
330
1A
100
AcDbEntity
  8
SEIHIN
100
AcDbPolyline
 90
        9
 70
     0
 43
0.0
 10
1515.976557466482
 20
276.6390364622314
 10
1516.150539170785
 20
276.6296039240808
 10
1516.317463732366
 20
276.6016621465281
 10
1516.471034021274
 20
276.5562652165365
 10
1516.605456689561
 20
276.4951257063315
 10
1516.715660721897
 20
276.4205500676237
 10
1516.797488736612
 20
276.3353516220961
 10
1516.847853820444
 20
276.2427444305088
 10
1516.86485598052
 20
276.1462220441647
  0
LINE
  5
3EAD
330
1A
100
AcDbEntity
  8
SEIHIN
100
AcDbLine
 10
1433.753154494558
 20
276.6390364622314
 30
0.0
 11
1515.976557466482
 21
276.6390364622314
 31
0.0
  0
LWPOLYLINE
  5
3EAE
330
1A
100
AcDbEntity
  8
SEIHIN
100
AcDbPolyline
 90
        9
 70
     0
 43
0.0
 10
1432.864855980519
 20
276.1462220441647
 10
1432.881858140595
 20
276.2427444305088
 10
1432.932223224427
 20
276.3353516220961
 10
1433.014051239142
 20
276.4205500676237
 10
1433.124255271478
 20
276.4951257063315
 10
1433.258677939765
 20
276.5562652165365
 10
1433.412248228673
 20
276.6016621465281
 10
1433.579172790255
 20
276.6296039240808
 10
1433.753154494558
 20
276.6390364622314
  0
LINE
  5
3EAF
330
1A
100
AcDbEntity
  8
SEIHIN
100
AcDbLine
 10
1432.864855980519
 20
131.034306072662
 30
0.0
 11
1432.864855980519
 21
276.1462220441647
 31
0.0
  0
LINE
  5
3EB0
330
1A
100
AcDbEntity
  8
SEIHIN
100
AcDbLine
 10
1429.626858415117
 20
131.034306072662
 30
0.0
 11
1426.61485598052
 21
278.5343060726621
 31
0.0
  0
LINE
  5
3EB1
330
1A
100
AcDbEntity
  8
SEIHIN
100
AcDbLine
 10
1426.61485598052
 20
293.5343060726621
 30
0.0
 11
1426.61485598052
 21
278.5343060726621
 31
0.0
  0
LINE
  5
3EB2
330
1A
100
AcDbEntity
  8
SEIHIN
100
AcDbLine
 10
1426.61485598052
 20
293.5343060726621
 30
0.0
 11
1430.86485598052
 21
293.5343060726621
 31
0.0
  0
LINE
  5
3EB3
330
1A
100
AcDbEntity
  8
SEIHIN
100
AcDbLine
 10
1430.86485598052
 20
293.5343060726621
 30
0.0
 11
1449.86485598052
 21
293.034306072662
 31
0.0
  0
ARC
  5
3EB4
330
1A
100
AcDbEntity
  8
SEIHIN
100
AcDbCircle
 10
1474.864855980519
 20
448.2843060726629
 30
0.0
 40
157.2500000000004
100
AcDbArc
 50
260.8521574802052
 51
279.1478425197948
  0
LINE
  5
3EB5
330
1A
100
AcDbEntity
  8
SEIHIN
100
AcDbLine
 10
1499.86485598052
 20
293.034306072662
 30
0.0
 11
1518.86485598052
 21
293.5343060726621
 31
0.0
  0
LINE
  5
3EB6
330
1A
100
AcDbEntity
  8
SEIHIN
100
AcDbLine
 10
1523.11485598052
 20
293.5343060726621
 30
0.0
 11
1523.11485598052
 21
278.5343060726621
 31
0.0
  0
LINE
  5
3EB7
330
1A
100
AcDbEntity
  8
SEIHIN
100
AcDbLine
 10
1516.86485598052
 20
276.1462220441647
 30
0.0
 11
1516.86485598052
 21
131.034306072662
 31
0.0
  0
LINE
  5
3EB8
330
1A
100
AcDbEntity
  8
SEIHIN
100
AcDbLine
 10
1518.86485598052
 20
293.5343060726621
 30
0.0
 11
1523.11485598052
 21
293.5343060726621
 31
0.0
  0
LWPOLYLINE
  5
3EB9
330
1A
100
AcDbEntity
  8
SEIHIN
100
AcDbPolyline
 90
        9
 70
     0
 43
0.0
 10
1520.102721589149
 20
131.0255798694436
 10
1520.096487567593
 20
130.9292834819837
 10
1520.079914785729
 20
130.8369341444706
 10
1520.053626096193
 20
130.7520026096756
 10
1520.018609503281
 20
130.6776808480847
 10
1519.97618103091
 20
130.6167620845028
 10
1519.927935262669
 20
130.5715358206537
 10
1519.875685412798
 20
130.5437017891484
 10
1519.821395180402
 20
130.534306072662
  0
LINE
  5
3EBA
330
1A
100
AcDbEntity
  8
SEIHIN
100
AcDbLine
 10
1519.821395180402
 20
130.534306072662
 30
0.0
 11
1517.016243799386
 21
130.534306072662
 31
0.0
  0
LWPOLYLINE
  5
3EBB
330
1A
100
AcDbEntity
  8
SEIHIN
100
AcDbPolyline
 90
       10
 70
     0
 43
0.0
 10
1516.86485598052
 20
131.034306072662
 10
1516.867155901655
 20
130.947481983829
 10
1516.87398578312
 20
130.8632960009993
 10
1516.885138102424
 20
130.784306072662
 10
1516.900274001988
 20
130.7129122678191
 10
1516.918933585161
 20
130.6512838511028
 10
1516.940549889953
 20
130.60129337077
 10
1516.964466115879
 20
130.5644597622688
 10
1516.989955580519
 20
130.5419021961563
 10
1517.016243799386
 20
130.534306072662
  0
LINE
  5
3EBC
330
1A
100
AcDbEntity
  8
SEIHIN
100
AcDbLine
 10
1517.016243799386
 20
130.534306072662
 30
0.0
 11
1511.016243799386
 21
130.534306072662
 31
0.0
  0
LWPOLYLINE
  5
3EBD
330
1A
100
AcDbEntity
  8
SEIHIN
100
AcDbPolyline
 90
        3
 70
     0
 43
0.0
 10
1510.86485598052
 20
229.9485103522677
 10
1510.891345749639
 20
230.7412115824448
 10
1510.900177132375
 20
231.534306072662
  0
LINE
  5
3EBE
330
1A
100
AcDbEntity
  8
SEIHIN
100
AcDbLine
 10
1510.86485598052
 20
131.034306072662
 30
0.0
 11
1510.86485598052
 21
229.9485103522677
 31
0.0
  0
CIRCLE
  5
3EBF
330
1A
100
AcDbEntity
  8
SEIHIN
100
AcDbCircle
 10
1507.364855980519
 20
285.5343060726621
 30
0.0
 40
2.561245043692565
  0
LINE
  5
3EC0
330
1A
100
AcDbEntity
  8
SEIHIN
100
AcDbLine
 10
1477.226659379395
 20
281.5669298647874
 30
0.0
 11
1477.226659379395
 21
287.0016822805376
 31
0.0
  0
ARC
  5
3EC1
330
1A
100
AcDbEntity
  8
SEIHIN
100
AcDbCircle
 10
1476.440060675612
 20
287.1095107677559
 30
0.0
 40
0.7939549757050598
100
AcDbArc
 50
352.1944326493437
 51
97.80556735065703
  0
ARC
  5
3EC2
330
1A
100
AcDbEntity
  8
SEIHIN
100
AcDbCircle
 10
1476.440060675612
 20
281.4591013775682
 30
0.0
 40
0.7939549757049704
100
AcDbArc
 50
262.194432649343
 51
7.805567350656261
  0
LINE
  5
3EC3
330
1A
100
AcDbEntity
  8
SEIHIN
100
AcDbLine
 10
1476.332232188394
 20
287.8961094715371
 30
0.0
 11
1473.397479772645
 21
287.8961094715371
 31
0.0
  0
LINE
  5
3EC4
330
1A
100
AcDbEntity
  8
SEIHIN
100
AcDbLine
 10
1473.397479772645
 20
280.6725026737879
 30
0.0
 11
1476.332232188394
 21
280.6725026737879
 31
0.0
  0
ARC
  5
3EC5
330
1A
100
AcDbEntity
  8
SEIHIN
100
AcDbCircle
 10
1473.289651285426
 20
281.4591013775691
 30
0.0
 40
0.7939549757050521
100
AcDbArc
 50
172.1944326493437
 51
277.805567350657
  0
LINE
  5
3EC6
330
1A
100
AcDbEntity
  8
SEIHIN
100
AcDbLine
 10
1472.503052581644
 20
287.0016822805376
 30
0.0
 11
1472.503052581644
 21
281.5669298647874
 31
0.0
  0
ARC
  5
3EC7
330
1A
100
AcDbEntity
  8
SEIHIN
100
AcDbCircle
 10
1473.289651285426
 20
287.1095107677559
 30
0.0
 40
0.7939549757049549
100
AcDbArc
 50
82.19443264934298
 51
187.8055673506562
  0
CIRCLE
  5
3EC8
330
1A
100
AcDbEntity
  8
SEIHIN
100
AcDbCircle
 10
1442.364855980519
 20
285.5343060726621
 30
0.0
 40
2.561245043692679
  0
LWPOLYLINE
  5
3EC9
330
1A
100
AcDbEntity
  8
SEIHIN
100
AcDbPolyline
 90
        3
 70
     0
 43
0.0
 10
1438.86485598052
 20
229.948510352265
 10
1438.8383662114
 20
230.7412115824438
 10
1438.829534828664
 20
231.534306072662
  0
LINE
  5
3ECA
330
1A
100
AcDbEntity
  8
SEIHIN
100
AcDbLine
 10
1438.86485598052
 20
131.034306072662
 30
0.0
 11
1438.86485598052
 21
229.948510352265
 31
0.0
  0
LINE
  5
3ECB
330
1A
100
AcDbEntity
  8
SEIHIN
100
AcDbLine
 10
1511.016243799386
 20
130.534306072662
 30
0.0
 11
1432.713468161654
 21
130.534306072662
 31
0.0
  0
LWPOLYLINE
  5
3ECC
330
1A
100
AcDbEntity
  8
SEIHIN
100
AcDbPolyline
 90
       10
 70
     0
 43
0.0
 10
1432.864855980519
 20
131.034306072662
 10
1432.862556059384
 20
130.947481983829
 10
1432.85572617792
 20
130.8632960009993
 10
1432.844573858615
 20
130.784306072662
 10
1432.829437959052
 20
130.7129122678191
 10
1432.810778375878
 20
130.6512838511028
 10
1432.789162071087
 20
130.60129337077
 10
1432.76524584516
 20
130.5644597622688
 10
1432.73975638052
 20
130.5419021961563
 10
1432.713468161654
 20
130.534306072662
  0
LINE
  5
3ECD
330
1A
100
AcDbEntity
  8
SEIHIN
100
AcDbLine
 10
1429.62699037189
 20
131.0255798694436
 30
0.0
 11
1429.626858415117
 21
131.034306072662
 31
0.0
  0
LINE
  5
3ECE
330
1A
100
AcDbEntity
  8
SEIHIN
100
AcDbLine
 10
1432.713468161654
 20
130.534306072662
 30
0.0
 11
1429.908316780637
 21
130.534306072662
 31
0.0
  0
LWPOLYLINE
  5
3ECF
330
1A
100
AcDbEntity
  8
SEIHIN
100
AcDbPolyline
 90
        9
 70
     0
 43
0.0
 10
1429.908316780637
 20
130.534306072662
 10
1429.854026548241
 20
130.5437017891484
 10
1429.80177669837
 20
130.5715358206537
 10
1429.753530930129
 20
130.6167620845028
 10
1429.711102457758
 20
130.6776808480847
 10
1429.676085864846
 20
130.7520026096756
 10
1429.64979717531
 20
130.8369341444706
 10
1429.633224393446
 20
130.9292834819837
 10
1429.62699037189
 20
131.0255798694436
  0
LINE
  5
3ED0
330
1A
100
AcDbEntity
  8
SEIHIN
100
AcDbLine
 10
1422.36485598052
 20
278.5343060726621
 30
0.0
 11
1424.939630373875
 21
131.0255798694436
 31
0.0
  0
LINE
  5
3ED1
330
1A
100
AcDbEntity
  8
SEIHIN
100
AcDbLine
 10
1422.36485598052
 20
278.5343060726621
 30
0.0
 11
1426.61485598052
 21
278.5343060726621
 31
0.0
  0
ARC
  5
3ED2
330
1A
100
AcDbEntity
  8
SEIHIN
100
AcDbCircle
 10
1524.290157739586
 20
131.034306072662
 30
0.0
 40
0.4999999999998902
100
AcDbArc
 50
269.9999999999739
 51
359.0000000000243
  0
LINE
  5
3ED3
330
1A
100
AcDbEntity
  8
SEIHIN
100
AcDbLine
 10
1524.290157739585
 20
130.534306072662
 30
0.0
 11
1519.821395180402
 21
130.534306072662
 31
0.0
  0
LINE
  5
3ED4
330
1A
100
AcDbEntity
  8
SEIHIN
100
AcDbLine
 10
1429.908316780637
 20
130.534306072662
 30
0.0
 11
1425.439554221454
 21
130.534306072662
 31
0.0
  0
ARC
  5
3ED5
330
1A
100
AcDbEntity
  8
SEIHIN
100
AcDbCircle
 10
1425.439554221454
 20
131.0343060726629
 30
0.0
 40
0.5000000000000853
100
AcDbArc
 50
180.9999999999757
 51
270.0
  0
LINE
  5
3ED6
330
1A
100
AcDbEntity
  8
SEIHIN
100
AcDbLine
 10
1510.860743190154
 20
231.534306072662
 30
0.0
 11
1510.86485598052
 21
276.5343060726621
 31
0.0
  0
LINE
  5
3ED7
330
1A
100
AcDbEntity
  8
SEIHIN
100
AcDbLine
 10
1438.86485598052
 20
276.5343060726621
 30
0.0
 11
1438.868968770885
 21
231.534306072662
 31
0.0
  0
LINE
  5
3ED8
330
1A
100
AcDbEntity
  8
SEIHIN
100
AcDbLine
 10
1438.868968770885
 20
231.534306072662
 30
0.0
 11
1438.829534828664
 21
231.534306072662
 31
0.0
  0
ARC
  5
3ED9
330
1A
100
AcDbEntity
  8
SEIHIN
100
AcDbCircle
 10
1474.864855980519
 20
231.534306072662
 30
0.0
 40
36.03491012985644
100
AcDbArc
 50
182.5222417403666
 51
357.4777582596333
  0
LINE
  5
3EDA
330
1A
100
AcDbEntity
  8
SEIHIN
100
AcDbLine
 10
1526.107542811767
 20
278.5343060726621
 30
0.0
 11
1526.36485598052
 21
278.5343060726621
 31
0.0
  0
LINE
  5
3EDB
330
1A
100
AcDbEntity
  8
SEIHIN
100
AcDbLine
 10
1423.364855980519
 20
278.5343060726621
 30
0.0
 11
1423.622169149273
 21
278.5343060726621
 31
0.0
  0
POINT
  5
3EDC
330
1A
100
AcDbEntity
  8
0_______
100
AcDbPoint
 10
1474.864855980519
 20
195.4993959428059
 30
0.0
  0
INSERT
  5
3EDD
330
1A
100
AcDbEntity
  8
SEIHIN
100
AcDbBlockReference
  2
SW_CENTERMARKSYMBOL_4
 10
1507.364855980519
 20
285.5343060726621
 30
0.0
  0
INSERT
  5
3EDE
330
1A
100
AcDbEntity
  8
SEIHIN
100
AcDbBlockReference
  2
SW_CENTERMARKSYMBOL_5
 10
1442.364855980519
 20
285.5343060726621
 30
0.0
  0
LINE
  5
3EDF
330
1A
100
AcDbEntity
  8
SEIHIN
100
AcDbLine
 10
1438.865123221109
 20
273.6102993912748
 30
0.0
 11
1444.202350043862
 21
273.6102993912748
 31
0.0
  0
LINE
  5
3EE0
330
1A
100
AcDbEntity
  8
SEIHIN
100
AcDbLine
 10
1505.527361917178
 20
273.6102993912757
 30
0.0
 11
1510.864588739931
 21
273.6102993912748
 31
0.0
  0
LINE
  5
3EE1
330
1A
100
AcDbEntity
  8
SEIHIN
100
AcDbLine
 10
1450.586137502504
 20
272.5343060726621
 30
0.0
 11
1438.865221561886
 21
272.5343060726621
 31
0.0
  0
LINE
  5
3EE2
330
1A
100
AcDbEntity
  8
SEIHIN
100
AcDbLine
 10
1510.864490399154
 20
272.5343060726621
 30
0.0
 11
1499.140075076694
 21
272.5343060726621
 31
0.0
  0
LINE
  5
3EE3
330
1A
100
AcDbEntity
  8
SEIHIN
100
AcDbLine
 10
1483.900545500618
 20
269.534306072662
 30
0.0
 11
1482.745096187219
 21
269.534306072662
 31
0.0
  0
LINE
  5
3EE4
330
1A
100
AcDbEntity
  8
SEIHIN
100
AcDbLine
 10
1466.984607786868
 20
269.534306072662
 30
0.0
 11
1465.82916646042
 21
269.534306072662
 31
0.0
  0
LINE
  5
3EE5
330
1A
100
AcDbEntity
  8
SEIHIN
100
AcDbLine
 10
1482.745096187219
 20
269.534306072662
 30
0.0
 11
1466.984607786868
 21
269.534306072662
 31
0.0
  0
ARC
  5
3EE6
330
1A
100
AcDbEntity
  8
SEIHIN
100
AcDbCircle
 10
1473.026726755776
 20
531.0753843225049
 30
0.0
 40
260.3640108006463
100
AcDbArc
 50
268.1965779032709
 51
270.6265942942329
  0
ARC
  5
3EE7
330
1A
100
AcDbEntity
  8
SEIHIN
100
AcDbCircle
 10
1478.039856759269
 20
456.8902515963102
 30
0.0
 40
186.1759066130247
100
AcDbArc
 50
269.3334548975264
 51
272.1093463434607
  0
LINE
  5
3EE8
330
1A
100
AcDbEntity
  8
SEIHIN
100
AcDbLine
 10
1443.562798068288
 20
273.3794048875991
 30
0.0
 11
1443.569976397056
 21
273.3785928686168
 31
0.0
  0
LINE
  5
3EE9
330
1A
100
AcDbEntity
  8
SEIHIN
100
AcDbLine
 10
1456.474974896445
 20
273.6102993912757
 30
0.0
 11
1493.25473706459
 21
273.6102993912748
 31
0.0
  0
LINE
  5
3EEA
330
1A
100
AcDbEntity
  8
SEIHIN
100
AcDbLine
 10
1510.864673189836
 20
274.5343060726621
 30
0.0
 11
1503.920273888322
 21
274.5343060726621
 31
0.0
  0
LINE
  5
3EEB
330
1A
100
AcDbEntity
  8
SEIHIN
100
AcDbLine
 10
1445.809438072716
 20
274.5343060726621
 30
0.0
 11
1438.865038771203
 21
274.5343060726621
 31
0.0
  0
LINE
  5
3EEC
330
1A
100
AcDbEntity
  8
SEIHIN
100
AcDbLine
 10
1449.906160181322
 20
274.5102376344132
 30
0.0
 11
1499.823551779714
 21
274.5102376344132
 31
0.0
  0
LWPOLYLINE
  5
3EED
330
1A
100
AcDbEntity
  8
SEIHIN
100
AcDbPolyline
 90
        6
 70
     0
 43
0.0
 10
1493.254737064598
 20
273.6102993912748
 10
1495.624529996082
 20
273.6036241013755
 10
1498.35433669067
 20
273.5993716000669
 10
1501.010650915224
 20
273.5992575021703
 10
1503.36926180988
 20
273.6030354590087
 10
1505.527361917168
 20
273.6102993912748
  0
LINE
  5
3EEE
330
1A
100
AcDbEntity
  8
SEIHIN
100
AcDbLine
 10
1499.823551779714
 20
274.5102376344132
 30
0.0
 11
1503.920273888322
 21
274.5343060726621
 31
0.0
  0
LWPOLYLINE
  5
3EEF
330
1A
100
AcDbEntity
  8
SEIHIN
100
AcDbPolyline
 90
        3
 70
     0
 43
0.0
 10
1445.809438072716
 20
274.5343060726621
 10
1449.261838521842
 20
274.5147209465224
 10
1449.906160181322
 20
274.5102376344132
  0
LWPOLYLINE
  5
3EF0
330
1A
100
AcDbEntity
  8
SEIHIN
100
AcDbPolyline
 90
        6
 70
     0
 43
0.0
 10
1444.20235004386
 20
273.6102993912748
 10
1446.005854631831
 20
273.6039603455413
 10
1448.34225453798
 20
273.5995996649201
 10
1450.964097110954
 20
273.5990793228632
 10
1453.648814278906
 20
273.6026457366072
 10
1456.474974896439
 20
273.6102993912748
  0
ARC
  5
3EF1
330
1A
100
AcDbEntity
  8
SEIHIN
100
AcDbCircle
 10
1465.82916646042
 20
269.8343060726622
 30
0.0
 40
0.3000000000000114
100
AcDbArc
 50
182.0000000000035
 51
270.0
  0
ARC
  5
3EF2
330
1A
100
AcDbEntity
  8
SEIHIN
100
AcDbCircle
 10
1483.900545500618
 20
269.8343060726622
 30
0.0
 40
0.3000000000004083
100
AcDbArc
 50
270.0
 51
357.9999999999964
  0
LINE
  5
3EF3
330
1A
100
AcDbEntity
  8
SEIHIN
100
AcDbLine
 10
1484.200362748724
 20
269.8238362236518
 30
0.0
 11
1484.203939576661
 21
269.9262631744252
 31
0.0
  0
LINE
  5
3EF4
330
1A
100
AcDbEntity
  8
SEIHIN
100
AcDbLine
 10
1465.525774686573
 20
269.9261972481493
 30
0.0
 11
1465.529349212314
 21
269.8238362236518
 31
0.0
  0
ARC
  5
3EF5
330
1A
100
AcDbEntity
  8
SEIHIN
100
AcDbCircle
 10
1464.640189212092
 20
269.977191008524
 30
0.0
 40
0.8726704861635258
100
AcDbArc
 50
356.8379823075326
 51
73.86670421681531
  0
ARC
  5
3EF6
330
1A
100
AcDbEntity
  8
SEIHIN
100
AcDbCircle
 10
1485.115903141181
 20
269.9605171716651
 30
0.0
 40
0.895833768346131
100
AcDbArc
 50
107.3928642441526
 51
182.2607655871005
  0
LWPOLYLINE
  5
3EF7
330
1A
100
AcDbEntity
  8
SEIHIN
100
AcDbPolyline
 90
        3
 70
     0
 43
0.0
 10
1484.892884012256
 20
270.8361656816762
 10
1495.50888141447
 20
272.1037543003915
 10
1506.186878517033
 20
273.3787327784478
  0
LWPOLYLINE
  5
3EF8
330
1A
100
AcDbEntity
  8
SEIHIN
100
AcDbPolyline
 90
        3
 70
     0
 43
0.0
 10
1443.569610485621
 20
273.3755355647192
 10
1454.220834115593
 20
272.1037543003915
 10
1464.832531912847
 20
270.8366786143836
  0
ARC
  5
3EF9
330
1A
100
AcDbEntity
  8
SEIHIN
100
AcDbCircle
 10
1508.798550840825
 20
251.5343544633235
 30
0.0
 40
21.99995160934799
100
AcDbArc
 50
90.06088706770729
 51
96.83236897620576
  0
ARC
  5
3EFA
330
1A
100
AcDbEntity
  8
SEIHIN
100
AcDbCircle
 10
1440.931280392499
 20
251.5345028710492
 30
0.0
 40
21.99980320165997
100
AcDbArc
 50
83.13200725155798
 51
89.92224664003106
  0
LINE
  5
3EFB
330
1A
100
AcDbEntity
  8
SEIHIN
100
AcDbLine
 10
1657.711261636977
 20
336.1461458272463
 30
0.0
 11
1659.272164638704
 21
354.6916155783513
 31
0.0
  0
LINE
  5
3EFC
330
1A
100
AcDbEntity
  8
SEIHIN
100
AcDbLine
 10
1565.362711203089
 20
356.7440324570973
 30
0.0
 11
1567.096358476588
 21
336.1461458272463
 31
0.0
  0
ARC
  5
3EFD
330
1A
100
AcDbEntity
  8
SEIHIN
100
AcDbCircle
 10
1595.147703839257
 20
341.2383477996193
 30
0.0
 40
62.77006104669407
100
AcDbArc
 50
342.7211027954533
 51
355.3423094516269
  0
ARC
  5
3EFE
330
1A
100
AcDbEntity
  8
SEIHIN
100
AcDbCircle
 10
1630.265062012916
 20
341.3269917491855
 30
0.0
 40
63.37667811220482
100
AcDbArc
 50
184.692812907551
 51
197.1916806258735
  0
LINE
  5
3EFF
330
1A
100
AcDbEntity
  8
SEIHIN
100
AcDbLine
 10
1584.655540639785
 20
318.6411091166958
 30
0.0
 11
1584.726192768212
 21
318.1865119762899
 31
0.0
  0
LINE
  5
3F00
330
1A
100
AcDbEntity
  8
SEIHIN
100
AcDbLine
 10
1640.081427345352
 20
318.1865119762899
 30
0.0
 11
1640.152079473778
 21
318.6411091166958
 31
0.0
  0
LINE
  5
3F01
330
1A
100
AcDbEntity
  8
SEIHIN
100
AcDbLine
 10
1605.369230227648
 20
326.1613162001415
 30
0.0
 11
1605.369230110437
 21
326.1561932010002
 31
0.0
  0
ARC
  5
3F02
330
1A
100
AcDbEntity
  8
SEIHIN
100
AcDbCircle
 10
1612.403810056782
 20
284.4016991575065
 30
0.0
 40
29.45112448841132
100
AcDbArc
 50
78.70106661083176
 51
101.2989333891682
  0
LWPOLYLINE
  5
3F03
330
1A
100
AcDbEntity
  8
SEIHIN
100
AcDbPolyline
 90
        6
 70
     0
 43
0.0
 10
1619.501004180852
 20
313.2962175290406
 10
1619.497507658861
 20
314.8346667275884
 10
1619.466376063688
 20
318.2522572773726
 10
1619.441867098775
 20
321.7671173256769
 10
1619.438111501921
 20
325.3748220158761
 10
1619.438390002777
 20
326.1561932009101
  0
ARC
  5
3F04
330
1A
100
AcDbEntity
  8
SEIHIN
100
AcDbCircle
 10
1618.805135149737
 20
316.3171801366827
 30
0.0
 40
3.100072383870423
100
AcDbArc
 50
258.255205121338
 51
282.971634245388
  0
LWPOLYLINE
  5
3F05
330
1A
100
AcDbEntity
  8
SEIHIN
100
AcDbPolyline
 90
        6
 70
     0
 43
0.0
 10
1605.369230110437
 20
326.1561932010002
 10
1605.369604383752
 20
324.7309487713394
 10
1605.363277021073
 20
321.1349424631501
 10
1605.33495804736
 20
317.6377658021913
 10
1605.307493861209
 20
314.2361899859273
 10
1605.306615932712
 20
313.2962175290406
  0
ARC
  5
3F06
330
1A
100
AcDbEntity
  8
SEIHIN
100
AcDbCircle
 10
1606.002877116506
 20
316.3538073197863
 30
0.0
 40
3.135862714554416
100
AcDbArc
 50
257.17160264345
 51
281.6015579899073
  0
LINE
  5
3F07
330
1A
100
AcDbEntity
  8
SEIHIN
100
AcDbLine
 10
1654.80409061577
 20
322.4333286492986
 30
0.0
 11
1619.501004180852
 21
313.2962175290406
 31
0.0
  0
LINE
  5
3F08
330
1A
100
AcDbEntity
  8
SEIHIN
100
AcDbLine
 10
1570.003529497794
 20
322.4333286492977
 30
0.0
 11
1605.306615932712
 21
313.2962175290406
 31
0.0
  0
LWPOLYLINE
  5
3F09
330
1A
100
AcDbEntity
  8
SEIHIN
100
AcDbPolyline
 90
        4
 70
     0
 43
0.0
 10
1655.080767101755
 20
322.5955125303128
 10
1655.048105937645
 20
322.5363564786087
 10
1654.899527626418
 20
322.4618744827897
 10
1654.80409061577
 20
322.4333286492986
  0
LWPOLYLINE
  5
3F0A
330
1A
100
AcDbEntity
  8
SEIHIN
100
AcDbPolyline
 90
        4
 70
     0
 43
0.0
 10
1570.003529497794
 20
322.4333286492977
 10
1569.810448780216
 20
322.503445455781
 10
1569.718653275337
 20
322.5862899864371
 10
1569.720807570154
 20
322.5950108474174
  0
LWPOLYLINE
  5
3F0B
330
1A
100
AcDbEntity
  8
SEIHIN
100
AcDbPolyline
 90
       22
 70
     0
 43
0.0
 10
1592.816952217915
 20
313.405210855248
 10
1595.177358081377
 20
312.8603809211056
 10
1597.762337090801
 20
312.3887417358585
 10
1600.538190091584
 20
311.9964418375641
 10
1603.468729594741
 20
311.6885954553438
 10
1606.515751536164
 20
311.4692158375785
 10
1609.63953332503
 20
311.341162933086
 10
1612.799351688509
 20
311.306106107306
 10
1615.954013561916
 20
311.3645023795755
 10
1619.062393103297
 20
311.5155904651804
 10
1622.083967831677
 20
311.7574006998641
 10
1624.979346899567
 20
312.0867807174184
 10
1627.710784612907
 20
312.4994365455916
 10
1630.242672503907
 20
312.9899885845864
 10
1632.542003541885
 20
313.5520417383743
 10
1634.578802430387
 20
314.1782687845455
 10
1636.326516381019
 20
314.8605058958612
 10
1637.76236126965
 20
315.5898590682284
 10
1638.867618662315
 20
316.3568200676448
 10
1639.627879838628
 20
317.1513903845655
 10
1640.033233631486
 20
317.9632115797724
 10
1640.081427345352
 20
318.1865119762899
  0
LWPOLYLINE
  5
3F0C
330
1A
100
AcDbEntity
  8
SEIHIN
100
AcDbPolyline
 90
        8
 70
     0
 43
0.0
 10
1584.726192768212
 20
318.1865119762899
 10
1584.842083439056
 20
317.7592152335512
 10
1585.336841869381
 20
316.9507210138484
 10
1586.184459623622
 20
316.162093704563
 10
1587.373886708088
 20
315.4036142687203
 10
1588.889617121739
 20
314.685170645713
 10
1590.711891000621
 20
314.0161288468837
 10
1592.816952217915
 20
313.405210855248
  0
LINE
  5
3F0D
330
1A
100
AcDbEntity
  8
SEIHIN
100
AcDbLine
 10
1619.438389885916
 20
326.1613162001415
 30
0.0
 11
1619.438389885916
 21
346.9207149638144
 31
0.0
  0
LINE
  5
3F0E
330
1A
100
AcDbEntity
  8
SEIHIN
100
AcDbLine
 10
1605.369230227648
 20
347.6714152660954
 30
0.0
 11
1605.369230227648
 21
326.1613162001415
 31
0.0
  0
ARC
  5
3F0F
330
1A
100
AcDbEntity
  8
SEIHIN
100
AcDbCircle
 10
1606.422107644007
 20
575.5491191647227
 30
0.0
 40
83.63412390009441
100
AcDbArc
 50
265.485581927049
 51
269.2095486719763
  0
ARC
  5
3F10
330
1A
100
AcDbEntity
  8
SEIHIN
100
AcDbCircle
 10
1602.271186476688
 20
545.726268785331
 30
0.0
 40
53.5983228647742
100
AcDbArc
 50
255.46607274713
 51
267.4022150515548
  0
LINE
  5
3F11
330
1A
100
AcDbEntity
  8
SEIHIN
100
AcDbLine
 10
1648.673802202797
 20
484.2143220463369
 30
0.0
 11
1653.513637691906
 21
485.4669636460805
 31
0.0
  0
LINE
  5
3F12
330
1A
100
AcDbEntity
  8
SEIHIN
100
AcDbLine
 10
1654.709623324038
 20
488.6062281245433
 30
0.0
 11
1654.709623324038
 21
488.6905629707219
 31
0.0
  0
LINE
  5
3F13
330
1A
100
AcDbEntity
  8
SEIHIN
100
AcDbLine
 10
1653.722843694123
 20
485.6618377562884
 30
0.0
 11
1654.707160512685
 21
488.5911667458933
 31
0.0
  0
ARC
  5
3F14
330
1A
100
AcDbEntity
  8
SEIHIN
100
AcDbCircle
 10
1653.43846884978
 20
485.7573937498475
 30
0.0
 40
0.2999999999999863
100
AcDbArc
 50
284.5108186990454
 51
341.42655694831
  0
LWPOLYLINE
  5
3F15
330
1A
100
AcDbEntity
  8
SEIHIN
100
AcDbPolyline
 90
        3
 70
     0
 43
0.0
 10
1605.155334979327
 20
493.2906408446599
 10
1605.131549418615
 20
493.2706172237033
 10
1604.860284910254
 20
493.0934290909438
  0
LINE
  5
3F16
330
1A
100
AcDbEntity
  8
SEIHIN
100
AcDbLine
 10
1682.044468428746
 20
504.0574348173889
 30
0.0
 11
1682.037004945309
 21
504.4306540981089
 31
0.0
  0
LINE
  5
3F17
330
1A
100
AcDbEntity
  8
SEIHIN
100
AcDbLine
 10
1582.698523649916
 20
514.6556920290151
 30
0.0
 11
1582.694883273911
 21
514.3717400652351
 31
0.0
  0
LINE
  5
3F18
330
1A
100
AcDbEntity
  8
SEIHIN
100
AcDbLine
 10
1555.839604528126
 20
507.0351488878507
 30
0.0
 11
1558.414350759747
 21
364.5557774480133
 31
0.0
  0
LINE
  5
3F19
330
1A
100
AcDbEntity
  8
SEIHIN
100
AcDbLine
 10
1561.090282686222
 20
359.6044793195417
 30
0.0
 11
1561.800782759755
 21
358.9864768922236
 31
0.0
  0
ARC
  5
3F1A
330
1A
100
AcDbEntity
  8
SEIHIN
100
AcDbCircle
 10
1628.88063049474
 20
347.3421831182043
 30
0.0
 40
0.5000000000082558
100
AcDbArc
 50
270.6746630793014
 51
284.510818699099
  0
LINE
  5
3F1B
330
1A
100
AcDbEntity
  8
SEIHIN
100
AcDbLine
 10
1629.005911898283
 20
346.8581329452447
 30
0.0
 11
1680.138796097458
 21
360.0922972070132
 31
0.0
  0
ARC
  5
3F1C
330
1A
100
AcDbEntity
  8
SEIHIN
100
AcDbCircle
 10
1674.828230698121
 20
514.6587871569029
 30
0.0
 40
3.288179980390759
100
AcDbArc
 50
165.3160726414004
 51
222.2096587951585
  0
LINE
  5
3F1D
330
1A
100
AcDbEntity
  8
SEIHIN
100
AcDbLine
 10
1680.317101541639
 20
360.1976352617305
 30
0.0
 11
1682.436603124671
 21
362.441774526422
 31
0.0
  0
ARC
  5
3F1E
330
1A
100
AcDbEntity
  8
SEIHIN
100
AcDbCircle
 10
1628.866289920997
 20
526.5546127798972
 30
0.0
 40
3.28817998039098
100
AcDbArc
 50
165.3160726414004
 51
222.2096587951585
  0
ARC
  5
3F1F
330
1A
100
AcDbEntity
  8
SEIHIN
100
AcDbCircle
 10
1618.367401696428
 20
520.5189356944822
 30
0.0
 40
1.60259081718078
100
AcDbArc
 50
227.68286592528
 51
260.6995874234859
  0
LINE
  5
3F20
330
1A
100
AcDbEntity
  8
SEIHIN
100
AcDbLine
 10
1617.288483603642
 20
519.3339322867362
 30
0.0
 11
1616.126477857947
 21
520.837678374258
 31
0.0
  0
ARC
  5
3F21
330
1A
100
AcDbEntity
  8
SEIHIN
100
AcDbCircle
 10
1615.67692865262
 20
520.3439269543662
 30
0.0
 40
0.6677461738229084
100
AcDbArc
 50
47.68286592518977
 51
80.69958742348594
  0
LINE
  5
3F22
330
1A
100
AcDbEntity
  8
SEIHIN
100
AcDbLine
 10
1615.784843730951
 20
521.0028953060521
 30
0.0
 11
1615.674300822917
 21
521.0315059159523
 31
0.0
  0
ARC
  5
3F23
330
1A
100
AcDbEntity
  8
SEIHIN
100
AcDbCircle
 10
1614.800814091315
 20
517.1595503837263
 30
0.0
 40
3.96925921474289
100
AcDbArc
 50
77.28727199886491
 51
94.42861033258763
  0
LINE
  5
3F24
330
1A
100
AcDbEntity
  8
SEIHIN
100
AcDbLine
 10
1614.494320233779
 20
521.1169586554508
 30
0.0
 11
1609.111281694685
 21
520.7763906145885
 31
0.0
  0
ARC
  5
3F25
330
1A
100
AcDbEntity
  8
SEIHIN
100
AcDbCircle
 10
1609.280386672925
 20
517.5584646149438
 30
0.0
 40
3.222366247472231
100
AcDbArc
 50
93.00817894859168
 51
103.5652531005105
  0
LINE
  5
3F26
330
1A
100
AcDbEntity
  8
SEIHIN
100
AcDbLine
 10
1608.524572206722
 20
520.6909378750899
 30
0.0
 11
1559.430961460744
 21
507.9845764211807
 31
0.0
  0
ARC
  5
3F27
330
1A
100
AcDbEntity
  8
SEIHIN
100
AcDbCircle
 10
1559.525283137584
 20
507.4096097115982
 30
0.0
 40
0.5826519508673107
100
AcDbArc
 50
99.31623222861345
 51
142.0321866054331
  0
LWPOLYLINE
  5
3F28
330
1A
100
AcDbEntity
  8
SEIHIN
100
AcDbPolyline
 90
       23
 70
     0
 43
0.0
 10
1559.065945693841
 20
507.7680680894139
 10
1559.065523211635
 20
506.4746238073933
 10
1559.43860455273
 20
505.1847888638497
 10
1560.183102845958
 20
503.9057780912028
 10
1561.294853658924
 20
502.6447457756924
 10
1562.767638292214
 20
501.4087456390991
 10
1564.593218564365
 20
500.2046913829793
 10
1566.761382893037
 20
499.0393180161229
 10
1569.260003414605
 20
497.9191441815485
 10
1572.075103822695
 20
496.8504356937603
 10
1575.19093754617
 20
495.8391704902344
 10
1578.5900758293
 20
494.8910051931691
 10
1582.253505221404
 20
494.0112434685581
 10
1586.160733930658
 20
493.2048063595504
 10
1590.289906447173
 20
492.4762047600609
 10
1594.617925794168
 20
491.8295141825949
 10
1599.120582723432
 20
491.2683519614222
 10
1603.77269113239
 20
490.7958570186267
 10
1608.548228945319
 20
490.4146723061969
 10
1613.420483670663
 20
490.1269300223923
 10
1618.362201820269
 20
489.9342396850591
 10
1623.345741354746
 20
489.8376791286112
 10
1628.343226302225
 20
489.8377884750527
  0
ARC
  5
3F29
330
1A
100
AcDbEntity
  8
SEIHIN
100
AcDbCircle
 10
1628.332207411858
 20
493.6861492127593
 30
0.0
 40
3.848376512696039
100
AcDbArc
 50
270.1640527566533
 51
282.7227695916979
  0
LINE
  5
3F2A
330
1A
100
AcDbEntity
  8
SEIHIN
100
AcDbLine
 10
1629.179750259266
 20
489.9322615072899
 30
0.0
 11
1678.273361005244
 21
502.6386229611983
 31
0.0
  0
ARC
  5
3F2B
330
1A
100
AcDbEntity
  8
SEIHIN
100
AcDbCircle
 10
1678.141611867024
 20
503.3599352881558
 30
0.0
 40
0.7332457353731923
100
AcDbArc
 50
280.3510850883975
 51
309.0469387293305
  0
LINE
  5
3F2C
330
1A
100
AcDbEntity
  8
SEIHIN
100
AcDbLine
 10
1678.603525037279
 20
502.7904745506259
 30
0.0
 11
1679.919378902391
 21
504.1837074450643
 31
0.0
  0
LWPOLYLINE
  5
3F2D
330
1A
100
AcDbEntity
  8
SEIHIN
100
AcDbPolyline
 90
        6
 70
     0
 43
0.0
 10
1679.589214870356
 20
504.4891088943843
 10
1679.750572978863
 20
504.4377703807806
 10
1679.868156841629
 20
504.3790101497336
 10
1679.937047487768
 20
504.3152863605439
 10
1679.954362964988
 20
504.2492648166337
 10
1679.919378902391
 20
504.1837074450643
  0
LINE
  5
3F2E
330
1A
100
AcDbEntity
  8
SEIHIN
100
AcDbLine
 10
1679.589214870356
 20
504.4891088943843
 30
0.0
 11
1679.478671962322
 21
504.5177195042845
 31
0.0
  0
ARC
  5
3F2F
330
1A
100
AcDbEntity
  8
SEIHIN
100
AcDbCircle
 10
1678.70672351961
 20
501.2931767166012
 30
0.0
 40
3.31565688632071
100
AcDbArc
 50
76.53689564216907
 51
87.69073051748403
  0
LINE
  5
3F30
330
1A
100
AcDbEntity
  8
SEIHIN
100
AcDbLine
 10
1678.840322756881
 20
504.6061409228079
 30
0.0
 11
1673.030294028408
 21
504.9068901403127
 31
0.0
  0
ARC
  5
3F31
330
1A
100
AcDbEntity
  8
SEIHIN
100
AcDbCircle
 10
1673.350932197856
 20
512.8580042351825
 30
0.0
 40
7.957576527143269
100
AcDbArc
 50
256.5368956421424
 51
267.6907305175102
  0
LINE
  5
3F32
330
1A
100
AcDbEntity
  8
SEIHIN
100
AcDbLine
 10
1671.498255935349
 20
505.1191015447695
 30
0.0
 11
1618.108405508432
 21
518.9374116504297
 31
0.0
  0
LINE
  5
3F33
330
1A
100
AcDbEntity
  8
SEIHIN
100
AcDbLine
 10
1576.12583459296
 20
512.6715451583988
 30
0.0
 11
1583.175667502634
 21
514.4961761802135
 31
0.0
  0
LINE
  5
3F34
330
1A
100
AcDbEntity
  8
SEIHIN
100
AcDbLine
 10
1582.7827423443
 20
514.6014854434545
 30
0.0
 11
1583.175667502634
 21
514.4961761802135
 31
0.0
  0
LINE
  5
3F35
330
1A
100
AcDbEntity
  8
SEIHIN
100
AcDbLine
 10
1617.680262032906
 20
521.1932559923782
 30
0.0
 11
1616.150263160227
 21
521.5892488396132
 31
0.0
  0
ARC
  5
3F36
330
1A
100
AcDbEntity
  8
SEIHIN
100
AcDbCircle
 10
1617.593553207894
 20
520.6638772708904
 30
0.0
 40
0.5364328952429027
100
AcDbArc
 50
47.68453349630529
 51
80.69791985242053
  0
LINE
  5
3F37
330
1A
100
AcDbEntity
  8
SEIHIN
100
AcDbLine
 10
1618.518152243868
 20
520.3313637253252
 30
0.0
 11
1617.954686348511
 21
521.0605422502451
 31
0.0
  0
ARC
  5
3F38
330
1A
100
AcDbEntity
  8
SEIHIN
100
AcDbCircle
 10
1618.87796080955
 20
520.7265553466315
 30
0.0
 40
0.5344517017362845
100
AcDbArc
 50
227.6832013268738
 51
260.6992520218505
  0
LINE
  5
3F39
330
1A
100
AcDbEntity
  8
SEIHIN
100
AcDbLine
 10
1676.373160354652
 20
505.2959212756288
 30
0.0
 11
1618.791584486973
 21
520.1991297572005
 31
0.0
  0
ARC
  5
3F3A
330
1A
100
AcDbEntity
  8
SEIHIN
100
AcDbCircle
 10
1676.991008421758
 20
507.8767852984549
 30
0.0
 40
2.653788864688227
100
AcDbArc
 50
256.5370026574813
 51
267.6906235021708
  0
LINE
  5
3F3B
330
1A
100
AcDbEntity
  8
SEIHIN
100
AcDbLine
 10
1679.701402651132
 20
505.0793160985842
 30
0.0
 11
1676.88407317435
 21
505.2251518035684
 31
0.0
  0
ARC
  5
3F3C
330
1A
100
AcDbEntity
  8
SEIHIN
100
AcDbCircle
 10
1679.594051520051
 20
502.4178604784558
 30
0.0
 40
2.663619770773656
100
AcDbArc
 50
76.53742771145967
 51
87.69019844818982
  0
LINE
  5
3F3D
330
1A
100
AcDbEntity
  8
SEIHIN
100
AcDbLine
 10
1681.744168047931
 20
504.6122970120316
 30
0.0
 11
1680.214169175251
 21
505.0082898592665
 31
0.0
  0
LWPOLYLINE
  5
3F3E
330
1A
100
AcDbEntity
  8
SEIHIN
100
AcDbPolyline
 90
        6
 70
     0
 43
0.0
 10
1682.008420020255
 20
504.3678641619838
 10
1682.036415703842
 20
504.4203313773689
 10
1682.022553257293
 20
504.473173648362
 10
1681.967413178554
 20
504.5241781743818
 10
1681.873304490229
 20
504.5712091114785
 10
1681.744168047931
 20
504.6122970120316
  0
LINE
  5
3F3F
330
1A
100
AcDbEntity
  8
SEIHIN
100
AcDbLine
 10
1654.338639770097
 20
496.0778436512921
 30
0.0
 11
1654.745523518545
 21
495.976147137015
 31
0.0
  0
LINE
  5
3F40
330
1A
100
AcDbEntity
  8
SEIHIN
100
AcDbLine
 10
1654.338639770097
 20
496.0778436512921
 30
0.0
 11
1647.288806860422
 21
494.2532126294775
 31
0.0
  0
LINE
  5
3F41
330
1A
100
AcDbEntity
  8
SEIHIN
100
AcDbLine
 10
1647.681732018757
 20
494.1479033662365
 30
0.0
 11
1647.288806860422
 21
494.2532126294775
 31
0.0
  0
LINE
  5
3F42
330
1A
100
AcDbEntity
  8
SEIHIN
100
AcDbLine
 10
1576.12583459296
 20
512.6715451583988
 30
0.0
 11
1575.718950844512
 21
512.773241672676
 31
0.0
  0
LINE
  5
3F43
330
1A
100
AcDbEntity
  8
SEIHIN
100
AcDbLine
 10
1559.067909585532
 20
506.4582884883249
 30
0.0
 11
1559.101519750164
 21
506.7643439136757
 31
0.0
  0
LWPOLYLINE
  5
3F44
330
1A
100
AcDbEntity
  8
SEIHIN
100
AcDbPolyline
 90
       19
 70
     0
 43
0.0
 10
1605.17750000216
 20
491.2271381524335
 10
1608.915699865563
 20
491.0427967074722
 10
1612.704663756905
 20
490.9512253761861
 10
1616.5101024435
 20
490.953252857603
 10
1620.297577599639
 20
491.0488608034922
 10
1624.032813465339
 20
491.2371839844129
 10
1627.682007033922
 20
491.516518119841
 10
1631.212133961271
 20
491.8843353015038
 10
1634.591247428391
 20
492.3373068703569
 10
1637.788767252608
 20
492.8713335401646
 10
1640.775756631036
 20
493.4815824950785
 10
1643.52518401184
 20
494.1625311254868
 10
1646.012167723432
 20
494.9080170063282
 10
1648.214201147744
 20
495.7112936655969
 10
1650.111356399838
 20
496.5650916383221
 10
1651.686464670575
 20
497.4616842535199
 10
1652.925271600308
 20
498.3929575587537
 10
1653.816566277484
 20
499.3504837494904
 10
1654.35228269476
 20
500.3255974387541
  0
LWPOLYLINE
  5
3F45
330
1A
100
AcDbEntity
  8
SEIHIN
100
AcDbPolyline
 90
       19
 70
     0
 43
0.0
 10
1610.783880273437
 20
511.601929750079
 10
1607.016337331127
 20
511.463276486814
 10
1603.31674694553
 20
511.2325931410762
 10
1599.718589414103
 20
510.9119673350689
 10
1596.254427094268
 20
510.5043006460602
 10
1592.955609722837
 20
510.0132823478855
 10
1589.851990709333
 20
509.4433560240116
 10
1586.971656970666
 20
508.7996793543082
 10
1584.340674752096
 20
508.0880774394265
 10
1581.98285373472
 20
507.3149900852097
 10
1579.919531564274
 20
506.4874135241809
 10
1578.169380751174
 20
505.6128371015222
 10
1576.748239689328
 20
504.6991754985176
 10
1575.668969322923
 20
503.7546971068125
 10
1574.941336758354
 20
502.7879492017011
 10
1574.571926874529
 20
501.8076805915791
 10
1574.56408273149
 20
500.8227624435842
 10
1574.917875316622
 20
499.8421080019236
 10
1575.630102902235
 20
498.8745919254045
  0
ARC
  5
3F46
330
1A
100
AcDbEntity
  8
SEIHIN
100
AcDbCircle
 10
1613.055344103109
 20
458.4118697049563
 30
0.0
 40
53.23853900637519
100
AcDbArc
 50
76.89799924809041
 51
92.44531144116001
  0
LINE
  5
3F47
330
1A
100
AcDbEntity
  8
SEIHIN
100
AcDbLine
 10
1649.184873501359
 20
504.0370260488727
 30
0.0
 11
1625.123739261233
 21
510.2645058369865
 31
0.0
  0
LWPOLYLINE
  5
3F48
330
1A
100
AcDbEntity
  8
SEIHIN
100
AcDbPolyline
 90
        6
 70
     0
 43
0.0
 10
1654.35228269476
 20
500.3255974387541
 10
1654.410721669051
 20
501.0999526703092
 10
1653.967183405962
 20
501.8865123387124
 10
1653.008528138309
 20
502.6213437605695
 10
1651.494203108595
 20
503.3218086535855
 10
1649.184873501359
 20
504.0370260488727
  0
LINE
  5
3F49
330
1A
100
AcDbEntity
  8
SEIHIN
100
AcDbLine
 10
1604.736979956013
 20
491.9460334539119
 30
0.0
 11
1605.268493510524
 21
491.9322964449786
 31
0.0
  0
LWPOLYLINE
  5
3F4A
330
1A
100
AcDbEntity
  8
SEIHIN
100
AcDbPolyline
 90
        3
 70
     0
 43
0.0
 10
1575.630102902233
 20
498.8745919254036
 10
1576.338565899947
 20
498.0079230501762
 10
1577.402147624016
 20
497.1512632647593
  0
LWPOLYLINE
  5
3F4B
330
1A
100
AcDbEntity
  8
SEIHIN
100
AcDbPolyline
 90
        3
 70
     0
 43
0.0
 10
1598.551859294859
 20
491.6773141463474
 10
1601.800003257071
 20
491.4110770952231
 10
1605.17750000216
 20
491.2271381524335
  0
ARC
  5
3F4C
330
1A
100
AcDbEntity
  8
SEIHIN
100
AcDbCircle
 10
1600.629090439546
 20
502.2570347429748
 30
0.0
 40
10.11766607151622
100
AcDbArc
 50
267.7178187800719
 51
296.5314626208002
  0
LWPOLYLINE
  5
3F4D
330
1A
100
AcDbEntity
  8
SEIHIN
100
AcDbPolyline
 90
        6
 70
     0
 43
0.0
 10
1577.402147624017
 20
497.1512632647593
 10
1580.116824826032
 20
495.6750394917674
 10
1583.86435193484
 20
494.3123837901469
 10
1588.303827553257
 20
493.1928051982252
 10
1593.611942135423
 20
492.2641148068607
 10
1598.551859294859
 20
491.6773141463474
  0
ARC
  5
3F4E
330
1A
100
AcDbEntity
  8
SEIHIN
100
AcDbCircle
 10
1597.504241492428
 20
468.3160228151002
 30
0.0
 40
24.74860352139725
100
AcDbArc
 50
77.50699808578066
 51
98.11053014752749
  0
LINE
  5
3F4F
330
1A
100
AcDbEntity
  8
SEIHIN
100
AcDbLine
 10
1673.012476825061
 20
503.898637450153
 30
0.0
 11
1678.822505553534
 21
503.5978882326483
 31
0.0
  0
ARC
  5
3F50
330
1A
100
AcDbEntity
  8
SEIHIN
100
AcDbCircle
 10
1673.290761242897
 20
511.5439830542993
 30
0.0
 40
7.650408591967797
100
AcDbArc
 50
256.31222604879
 51
267.9154001108474
  0
LINE
  5
3F51
330
1A
100
AcDbEntity
  8
SEIHIN
100
AcDbLine
 10
1671.480438732002
 20
504.110848854609
 30
0.0
 11
1671.498255935349
 21
505.1191015447695
 31
0.0
  0
LINE
  5
3F52
330
1A
100
AcDbEntity
  8
SEIHIN
100
AcDbLine
 10
1666.08645971438
 20
505.5069133532526
 30
0.0
 11
1671.480438732002
 21
504.110848854609
 31
0.0
  0
LINE
  5
3F53
330
1A
100
AcDbEntity
  8
SEIHIN
100
AcDbLine
 10
1659.191263072262
 20
507.1770226923092
 30
0.0
 11
1661.398881758651
 21
506.6266546808531
 31
0.0
  0
LINE
  5
3F54
330
1A
100
AcDbEntity
  8
SEIHIN
100
AcDbLine
 10
1630.358511825485
 20
514.639487837678
 30
0.0
 11
1659.191263072262
 21
507.1770226923092
 31
0.0
  0
LINE
  5
3F55
330
1A
100
AcDbEntity
  8
SEIHIN
100
AcDbLine
 10
1628.151953085603
 20
515.2315930126035
 30
0.0
 11
1630.358511825485
 21
514.639487837678
 31
0.0
  0
LWPOLYLINE
  5
3F56
330
1A
100
AcDbEntity
  8
SEIHIN
100
AcDbPolyline
 90
        3
 70
     0
 43
0.0
 10
1623.469092777072
 20
516.537099568751
 10
1626.246546213053
 20
515.7702613298081
 10
1628.151953085603
 20
515.2315930126044
  0
LINE
  5
3F57
330
1A
100
AcDbEntity
  8
SEIHIN
100
AcDbLine
 10
1618.07511375945
 20
517.9331640673947
 30
0.0
 11
1623.469092777072
 21
516.537099568751
 31
0.0
  0
LINE
  5
3F58
330
1A
100
AcDbEntity
  8
SEIHIN
100
AcDbLine
 10
1661.398881758651
 20
506.6266546808531
 30
0.0
 11
1666.08645971438
 21
505.5069133532526
 31
0.0
  0
ARC
  5
3F59
330
1A
100
AcDbEntity
  8
SEIHIN
100
AcDbCircle
 10
1559.575375596825
 20
506.3815971037095
 30
0.0
 40
0.6091260000638319
100
AcDbArc
 50
100.2920554827718
 51
141.0712060188201
  0
LINE
  5
3F5A
330
1A
100
AcDbEntity
  8
SEIHIN
100
AcDbLine
 10
1570.740781435594
 20
509.7969091608104
 30
0.0
 11
1588.616946418867
 21
514.4236011118766
 31
0.0
  0
LINE
  5
3F5B
330
1A
100
AcDbEntity
  8
SEIHIN
100
AcDbLine
 10
1566.031390557712
 20
508.6800290556077
 30
0.0
 11
1570.740781435594
 21
509.7969091608104
 31
0.0
  0
LINE
  5
3F5C
330
1A
100
AcDbEntity
  8
SEIHIN
100
AcDbLine
 10
1559.466545618885
 20
506.9809221572952
 30
0.0
 11
1566.031390557712
 21
508.6800290556077
 31
0.0
  0
LINE
  5
3F5D
330
1A
100
AcDbEntity
  8
SEIHIN
100
AcDbLine
 10
1608.542976422141
 20
519.6828371148333
 30
0.0
 11
1608.524572206722
 21
520.6909378750899
 31
0.0
  0
LINE
  5
3F5E
330
1A
100
AcDbEntity
  8
SEIHIN
100
AcDbLine
 10
1593.321190396779
 20
515.7431489909943
 30
0.0
 11
1608.542976422141
 21
519.6828371148333
 31
0.0
  0
LINE
  5
3F5F
330
1A
100
AcDbEntity
  8
SEIHIN
100
AcDbLine
 10
1588.616946418867
 20
514.4236011118766
 30
0.0
 11
1593.321190396779
 21
515.7431489909943
 31
0.0
  0
ARC
  5
3F60
330
1A
100
AcDbEntity
  8
SEIHIN
100
AcDbCircle
 10
1618.319634498166
 20
519.4847559039929
 30
0.0
 40
1.5707411050396
100
AcDbArc
 50
227.3382376316165
 51
261.0442157171361
  0
LINE
  5
3F61
330
1A
100
AcDbEntity
  8
SEIHIN
100
AcDbLine
 10
1617.255191854659
 20
518.3296847037011
 30
0.0
 11
1617.288483603642
 21
519.3339322867362
 31
0.0
  0
LINE
  5
3F62
330
1A
100
AcDbEntity
  8
SEIHIN
100
AcDbLine
 10
1616.093186108965
 20
519.8334307912229
 30
0.0
 11
1617.255191854659
 21
518.3296847037011
 31
0.0
  0
LINE
  5
3F63
330
1A
100
AcDbEntity
  8
SEIHIN
100
AcDbLine
 10
1609.129685910105
 20
519.7682898543319
 30
0.0
 11
1614.483146245846
 21
520.1069865746214
 31
0.0
  0
ARC
  5
3F64
330
1A
100
AcDbEntity
  8
SEIHIN
100
AcDbCircle
 10
1609.347632027571
 20
516.2150257490268
 30
0.0
 40
3.559941897302295
100
AcDbArc
 50
93.50994677107538
 51
103.0634852780103
  0
ARC
  5
3F65
330
1A
100
AcDbEntity
  8
SEIHIN
100
AcDbCircle
 10
1615.628052672734
 20
519.3074544349276
 30
0.0
 40
0.7021397587949516
100
AcDbArc
 50
48.51290371952981
 51
79.86954962920609
  0
LINE
  5
3F66
330
1A
100
AcDbEntity
  8
SEIHIN
100
AcDbLine
 10
1615.751551981969
 20
519.998647723017
 30
0.0
 11
1615.784843730951
 21
521.0028953060521
 31
0.0
  0
LINE
  5
3F67
330
1A
100
AcDbEntity
  8
SEIHIN
100
AcDbLine
 10
1615.663126834984
 20
520.0215338351228
 30
0.0
 11
1615.751551981969
 21
519.998647723017
 31
0.0
  0
ARC
  5
3F68
330
1A
100
AcDbEntity
  8
SEIHIN
100
AcDbCircle
 10
1614.752082443158
 20
515.6309605230847
 30
0.0
 40
4.484098113585168
100
AcDbArc
 50
78.27747365543075
 51
93.43840867600077
  0
LINE
  5
3F69
330
1A
100
AcDbEntity
  8
SEIHIN
100
AcDbLine
 10
1615.058985464778
 20
522.266442503662
 30
0.0
 11
1608.514722760256
 21
521.852407435553
 31
0.0
  0
LINE
  5
3F6A
330
1A
100
AcDbEntity
  8
SEIHIN
100
AcDbLine
 10
1616.24914856348
 20
521.6807177536686
 30
0.0
 11
1615.055460486231
 21
521.9896669619722
 31
0.0
  0
ARC
  5
3F6B
330
1A
100
AcDbEntity
  8
SEIHIN
100
AcDbCircle
 10
1615.550026252702
 20
518.5815511983903
 30
0.0
 40
3.177043490854579
100
AcDbArc
 50
77.28777344682242
 51
94.42810888463075
  0
LINE
  5
3F6C
330
1A
100
AcDbEntity
  8
SEIHIN
100
AcDbLine
 10
1607.933240118638
 20
521.2827398865704
 30
0.0
 11
1615.30473255286
 21
521.7491111968122
 31
0.0
  0
ARC
  5
3F6D
330
1A
100
AcDbEntity
  8
SEIHIN
100
AcDbCircle
 10
1608.068592024892
 20
518.7071804975732
 30
0.0
 40
2.579113472645162
100
AcDbArc
 50
93.00826515101775
 51
103.5651668981239
  0
LINE
  5
3F6E
330
1A
100
AcDbEntity
  8
SEIHIN
100
AcDbLine
 10
1607.46365795846
 20
521.2143464434269
 30
0.0
 11
1557.222254808084
 21
508.2109144554354
 31
0.0
  0
LWPOLYLINE
  5
3F6F
330
1A
100
AcDbEntity
  8
SEIHIN
100
AcDbPolyline
 90
        3
 70
     0
 43
0.0
 10
1556.930737864537
 20
508.0412811619837
 10
1557.013788798066
 20
508.1319802334357
 10
1557.222254808084
 20
508.2109144554354
  0
LWPOLYLINE
  5
3F70
330
1A
100
AcDbEntity
  8
SEIHIN
100
AcDbPolyline
 90
       24
 70
     0
 43
0.0
 10
1556.930737864537
 20
508.0412811619837
 10
1556.854295468227
 20
506.7419056491437
 10
1557.143137520993
 20
505.4445315984814
 10
1557.79573455689
 20
504.1560288179546
 10
1558.808630967792
 20
502.8832201406914
 10
1560.17646330141
 20
501.6328452969749
 10
1561.891988661646
 20
500.4115252262684
 10
1563.946123060915
 20
499.2257270182565
 10
1566.327989521345
 20
498.0817296685456
 10
1569.024975670157
 20
496.9855908303546
 10
1572.022800524243
 20
495.9431147382522
 10
1575.305590110304
 20
494.9598214737818
 10
1578.855961520148
 20
494.0409177357271
 10
1582.655114956021
 20
493.1912692697899
 10
1586.682933278624
 20
492.4153751036704
 10
1590.918088530651
 20
491.71734372398
 10
1595.338154871821
 20
491.1008713211296
 10
1599.919727327366
 20
490.5692222173986
 10
1604.638545721206
 20
490.1252115818135
 10
1609.469623137557
 20
489.7711905233665
 10
1614.387378230731
 20
489.5090336415089
 10
1619.365770682558
 20
489.3401290998411
 10
1624.378439090125
 20
489.2653712755584
 10
1629.398840553724
 20
489.285156023577
  0
LWPOLYLINE
  5
3F71
330
1A
100
AcDbEntity
  8
SEIHIN
100
AcDbPolyline
 90
        3
 70
     0
 43
0.0
 10
1630.054253270298
 20
489.3606061605371
 10
1629.757924962512
 20
489.3076470168782
 10
1629.398840553724
 20
489.285156023577
  0
LINE
  5
3F72
330
1A
100
AcDbEntity
  8
SEIHIN
100
AcDbLine
 10
1630.054253270298
 20
489.3606061605371
 30
0.0
 11
1680.295656420674
 21
502.3640381485277
 31
0.0
  0
ARC
  5
3F73
330
1A
100
AcDbEntity
  8
SEIHIN
100
AcDbCircle
 10
1680.190204688834
 20
502.9413610216891
 30
0.0
 40
0.5868745757166138
100
AcDbArc
 50
280.3513304844896
 51
309.0466933330491
  0
LINE
  5
3F74
330
1A
100
AcDbEntity
  8
SEIHIN
100
AcDbLine
 10
1682.361828765808
 20
504.3934575876285
 30
0.0
 11
1680.559908392998
 21
502.4855749548225
 31
0.0
  0
LWPOLYLINE
  5
3F75
330
1A
100
AcDbEntity
  8
SEIHIN
100
AcDbPolyline
 90
        6
 70
     0
 43
0.0
 10
1682.097576793484
 20
504.6378904376763
 10
1682.226713235783
 20
504.5968025371232
 10
1682.320821924107
 20
504.5497716000266
 10
1682.375962002846
 20
504.4987670740067
 10
1682.389824449395
 20
504.4459248030145
 10
1682.361828765808
 20
504.3934575876285
  0
LINE
  5
3F76
330
1A
100
AcDbEntity
  8
SEIHIN
100
AcDbLine
 10
1683.291264870733
 20
504.3289412293727
 30
0.0
 11
1682.097576793484
 21
504.6378904376763
 31
0.0
  0
LINE
  5
3F77
330
1A
100
AcDbEntity
  8
SEIHIN
100
AcDbLine
 10
1684.705478433106
 20
504.6949666331568
 30
0.0
 11
1683.291264870733
 21
504.3289412293727
 31
0.0
  0
LINE
  5
3F78
330
1A
100
AcDbEntity
  8
SEIHIN
100
AcDbLine
 10
1682.760934784843
 20
502.6360737368698
 30
0.0
 11
1684.705478433106
 21
504.6949666331568
 31
0.0
  0
LINE
  5
3F79
330
1A
100
AcDbEntity
  8
SEIHIN
100
AcDbLine
 10
1630.356326796525
 20
489.0727631383618
 30
0.0
 11
1682.760934784843
 21
502.6360737368698
 31
0.0
  0
LWPOLYLINE
  5
3F7A
330
1A
100
AcDbEntity
  8
SEIHIN
100
AcDbPolyline
 90
        3
 70
     0
 43
0.0
 10
1630.0327794092
 20
489.0350981784888
 10
1630.207896222179
 20
489.0462525328041
 10
1630.356326796525
 20
489.0727631383618
  0
LWPOLYLINE
  5
3F7B
330
1A
100
AcDbEntity
  8
SEIHIN
100
AcDbPolyline
 90
       24
 70
     0
 43
0.0
 10
1555.96458854199
 20
508.205356611212
 10
1555.845273560567
 20
506.8742370016137
 10
1556.103998283304
 20
505.5444441521396
 10
1556.739365321496
 20
504.2231603586608
 10
1557.747943017304
 20
502.9175219590972
 10
1559.124283978359
 20
501.6345807895979
 10
1560.860954499474
 20
500.3812660971273
 10
1562.948574712558
 20
499.1643471141608
 10
1565.375869247884
 20
497.9903964976294
 10
1568.129728133076
 20
496.8657548295798
 10
1571.195277600908
 20
495.7964963712868
 10
1574.555960423463
 20
494.7883962557828
 10
1578.193625338782
 20
493.8468992959972
 10
1582.08862508698
 20
492.9770905769712
 10
1586.219922526352
 20
492.1836679909922
 10
1590.565204256312
 20
491.4709168639803
 10
1595.101001133495
 20
490.8426868101644
 10
1599.802815030089
 20
490.302370940077
 10
1604.645251149789
 20
489.8528875341447
 10
1609.602155186706
 20
489.4966642808688
 10
1614.646754586441
 20
489.2356251647282
 10
1619.751803146353
 20
489.0711800746141
 10
1624.889728174039
 20
489.0042171889311
 10
1630.0327794092
 20
489.0350981784888
  0
LWPOLYLINE
  5
3F7C
330
1A
100
AcDbEntity
  8
SEIHIN
100
AcDbPolyline
 90
        3
 70
     0
 43
0.0
 10
1556.110114771938
 20
508.289096837045
 10
1556.007685772435
 20
508.2506802435939
 10
1555.96458854199
 20
508.205356611212
  0
LINE
  5
3F7D
330
1A
100
AcDbEntity
  8
SEIHIN
100
AcDbLine
 10
1608.514722760256
 20
521.852407435553
 30
0.0
 11
1556.110114771938
 21
508.289096837045
 31
0.0
  0
LWPOLYLINE
  5
3F7E
330
1A
100
AcDbEntity
  8
SEIHIN
100
AcDbPolyline
 90
        6
 70
     0
 43
0.0
 10
1628.903352307238
 20
347.2044981530346
 10
1628.907220614225
 20
347.6934660802328
 10
1628.93764768213
 20
351.5387649387597
 10
1629.059467044795
 20
366.9199912389979
 10
1629.548500244099
 20
428.4453840656554
 10
1630.0327794092
 20
489.0350981784888
  0
ARC
  5
3F7F
330
1A
100
AcDbEntity
  8
SEIHIN
100
AcDbCircle
 10
1565.208431361438
 20
365.2370438749333
 30
0.0
 40
6.828151665474152
100
AcDbArc
 50
185.7261095107709
 51
231.0946670139978
  0
LINE
  5
3F80
330
1A
100
AcDbEntity
  8
SEIHIN
100
AcDbLine
 10
1682.760934784843
 20
502.6360737368698
 30
0.0
 11
1680.430870728579
 21
360.4929533770894
 31
0.0
  0
LWPOLYLINE
  5
3F81
330
1A
100
AcDbEntity
  8
SEIHIN
100
AcDbPolyline
 90
        9
 70
     0
 43
0.0
 10
1649.014842347085
 20
483.316764725185
 10
1648.945988718883
 20
483.3081577436899
 10
1648.880017105966
 20
483.3183700417596
 10
1648.819461780477
 20
483.3470093182007
 10
1648.766648950121
 20
483.3929754070888
 10
1648.723607397869
 20
483.4545025401878
 10
1648.691990547093
 20
483.5292271782057
 10
1648.673012946
 20
483.6142788051732
 10
1648.667403611263
 20
483.7063901981239
  0
LINE
  5
3F82
330
1A
100
AcDbEntity
  8
SEIHIN
100
AcDbLine
 10
1649.014842347085
 20
483.316764725185
 30
0.0
 11
1655.423528161305
 21
484.9754546679835
 31
0.0
  0
ARC
  5
3F83
330
1A
100
AcDbEntity
  8
SEIHIN
100
AcDbCircle
 10
1655.190427270326
 20
485.5212466014038
 30
0.0
 40
0.5934853494081973
100
AcDbArc
 50
293.1267203947615
 51
2.59534516923692
  0
LINE
  5
3F84
330
1A
100
AcDbEntity
  8
SEIHIN
100
AcDbLine
 10
1655.783303853252
 20
485.5481207038003
 30
0.0
 11
1655.821787810368
 21
488.4985707797925
 31
0.0
  0
LWPOLYLINE
  5
3F85
330
1A
100
AcDbEntity
  8
SEIHIN
100
AcDbPolyline
 90
        9
 70
     0
 43
0.0
 10
1655.474568242507
 20
488.8885452840752
 10
1655.543417659804
 20
488.8971455595804
 10
1655.609376801763
 20
488.8869134011494
 10
1655.669911875311
 20
488.858241872904
 10
1655.72269745071
 20
488.8122323797063
 10
1655.765705791979
 20
488.7506523571512
 10
1655.797284751531
 20
488.6758673762581
 10
1655.816221236735
 20
488.5907502710436
 10
1655.821787810368
 20
488.4985707797925
  0
LINE
  5
3F86
330
1A
100
AcDbEntity
  8
SEIHIN
100
AcDbLine
 10
1655.474568242507
 20
488.8885452840752
 30
0.0
 11
1649.064131180567
 21
487.2294020850143
 31
0.0
  0
ARC
  5
3F87
330
1A
100
AcDbEntity
  8
SEIHIN
100
AcDbCircle
 10
1649.297327999243
 20
486.6837577419803
 30
0.0
 40
0.5933873147667059
100
AcDbArc
 50
113.1408358206804
 51
182.6329989149811
  0
LINE
  5
3F88
330
1A
100
AcDbEntity
  8
SEIHIN
100
AcDbLine
 10
1648.70456713666
 20
486.6564985212392
 30
0.0
 11
1648.667403611263
 21
483.7063901981239
 31
0.0
  0
LINE
  5
3F89
330
1A
100
AcDbEntity
  8
SEIHIN
100
AcDbLine
 10
1648.670663442541
 20
483.9651615413352
 30
0.0
 11
1654.03779536286
 21
485.3542774998916
 31
0.0
  0
LWPOLYLINE
  5
3F8A
330
1A
100
AcDbEntity
  8
SEIHIN
100
AcDbPolyline
 90
       19
 70
     0
 43
0.0
 10
1628.88063049474
 20
346.8592202050434
 10
1623.826904729335
 20
346.8491488631209
 10
1618.784652100973
 20
346.9378096834664
 10
1613.782626261879
 20
347.1246970741179
 10
1608.849351469361
 20
347.4087453020731
 10
1604.012959925067
 20
347.7883345706716
 10
1599.301031349954
 20
348.261300256557
 10
1594.740435709795
 20
348.824945253524
 10
1590.357179988101
 20
349.4760553528834
 10
1586.176259880232
 20
350.2109175726112
 10
1582.22151725442
 20
351.0253413307912
 10
1578.515504192534
 20
351.9146823425683
 10
1575.079354385918
 20
352.8738691043829
 10
1571.932662619643
 20
353.8974318144221
 10
1569.093373032443
 20
354.9795335643905
 10
1566.577676789531
 20
356.11400362472
 10
1564.399919751814
 20
357.2943726334045
 10
1562.572520668034
 20
358.5139094878061
 10
1562.099279204801
 20
358.8822909688072
  0
LWPOLYLINE
  5
3F8B
330
1A
100
AcDbEntity
  8
SEIHIN
100
AcDbPolyline
 90
        3
 70
     0
 43
0.0
 10
1628.88063049474
 20
346.8592202050434
 10
1628.885015338974
 20
346.8433519914399
 10
1628.886517904725
 20
346.8422177809982
  0
LINE
  5
3F8C
330
1A
100
AcDbEntity
  8
SEIHIN
100
AcDbLine
 10
1654.397571054807
 20
485.9269435357076
 30
0.0
 11
1654.42122230168
 21
487.7402140089928
 31
0.0
  0
ARC
  5
3F8D
330
1A
100
AcDbEntity
  8
SEIHIN
100
AcDbCircle
 10
1653.804694471881
 20
485.900069433311
 30
0.0
 40
0.5934853494075391
100
AcDbArc
 50
293.126720394691
 51
2.59534516923692
  0
ARC
  5
3F8E
330
1A
100
AcDbEntity
  8
SEIHIN
100
AcDbCircle
 10
1680.025367052669
 20
360.4817738616896
 30
0.0
 40
0.4056577532112345
100
AcDbArc
 50
286.2373828342029
 51
1.579213396930612
  0
LINE
  5
3F8F
330
1A
100
AcDbEntity
  8
SEIHIN
100
AcDbLine
 10
1682.575671086651
 20
362.7721419591819
 30
0.0
 11
1684.705478433106
 21
504.6949666331568
 31
0.0
  0
LINE
  5
3F90
330
1A
100
AcDbEntity
  8
SEIHIN
100
AcDbLine
 10
1682.575523931229
 20
362.763723307032
 30
0.0
 11
1682.575671086651
 21
362.7721419591819
 31
0.0
  0
LINE
  5
3F91
330
1A
100
AcDbEntity
  8
SEIHIN
100
AcDbLine
 10
1683.476403792385
 20
518.8657461026216
 30
0.0
 11
1680.84959633763
 21
519.5456138997299
 31
0.0
  0
LINE
  5
3F92
330
1A
100
AcDbEntity
  8
SEIHIN
100
AcDbLine
 10
1683.476403792385
 20
518.8657461026216
 30
0.0
 11
1683.291264870733
 21
504.3289412293727
 31
0.0
  0
LINE
  5
3F93
330
1A
100
AcDbEntity
  8
SEIHIN
100
AcDbLine
 10
1680.338402700629
 20
519.6159142863264
 30
0.0
 11
1677.091114797222
 21
519.7138728586708
 31
0.0
  0
LINE
  5
3F94
330
1A
100
AcDbEntity
  8
SEIHIN
100
AcDbLine
 10
1684.705478433106
 20
519.1838540274932
 30
0.0
 11
1683.476403792385
 21
518.8657461026216
 31
0.0
  0
LINE
  5
3F95
330
1A
100
AcDbEntity
  8
SEIHIN
100
AcDbLine
 10
1684.705478433106
 20
519.1838540274932
 30
0.0
 11
1684.705478433106
 21
504.6949666331568
 31
0.0
  0
LINE
  5
3F96
330
1A
100
AcDbEntity
  8
SEIHIN
100
AcDbLine
 10
1684.705478433106
 20
519.1838540274932
 30
0.0
 11
1681.700274613063
 21
519.9616580105351
 31
0.0
  0
ARC
  5
3F97
330
1A
100
AcDbEntity
  8
SEIHIN
100
AcDbCircle
 10
1680.238524375765
 20
517.0040806821837
 30
0.0
 40
2.613962516653277
100
AcDbArc
 50
76.48073641341366
 51
87.30411619260975
  0
LINE
  5
3F98
330
1A
100
AcDbEntity
  8
SEIHIN
100
AcDbLine
 10
1681.700274613063
 20
519.9616580105351
 30
0.0
 11
1680.361471290387
 21
519.6151502129798
 31
0.0
  0
LINE
  5
3F99
330
1A
100
AcDbEntity
  8
SEIHIN
100
AcDbLine
 10
1680.338402700629
 20
519.6159142863264
 30
0.0
 11
1680.361471290387
 21
519.6151502129798
 31
0.0
  0
LINE
  5
3F9A
330
1A
100
AcDbEntity
  8
SEIHIN
100
AcDbLine
 10
1668.265245770519
 20
522.9559364333429
 30
0.0
 11
1665.497908844447
 21
522.2396969326602
 31
0.0
  0
ARC
  5
3F9B
330
1A
100
AcDbEntity
  8
SEIHIN
100
AcDbCircle
 10
1677.145371608205
 20
522.5359309973084
 30
0.0
 40
2.822579660414512
100
AcDbArc
 50
258.4472495100222
 51
268.8985686396713
  0
LINE
  5
3F9C
330
1A
100
AcDbEntity
  8
SEIHIN
100
AcDbLine
 10
1665.497908844447
 20
522.2396969326602
 30
0.0
 11
1676.580093475716
 21
519.7705347196809
 31
0.0
  0
LINE
  5
3F9D
330
1A
100
AcDbEntity
  8
SEIHIN
100
AcDbLine
 10
1681.700274613063
 20
519.9616580105351
 30
0.0
 11
1668.265245770519
 21
522.9559364333429
 31
0.0
  0
LWPOLYLINE
  5
3F9E
330
1A
100
AcDbEntity
  8
SEIHIN
100
AcDbPolyline
 90
       37
 70
     0
 43
0.0
 10
1624.820760636592
 20
527.9295231878534
 10
1624.513549458203
 20
527.972263946732
 10
1624.215391401843
 20
527.9402361740069
 10
1623.93534584918
 20
527.8344130173447
 10
1623.681921842621
 20
527.6580098598117
 10
1623.462819542367
 20
527.4163866220862
 10
1623.284696260938
 20
527.1168849039788
 10
1623.15296418411
 20
526.7686049136393
 10
1623.071625924374
 20
526.382128962334
 10
1623.043152903595
 20
525.9691999262797
 10
1623.0684102601
 20
525.5423644452841
 10
1623.146630561892
 20
525.1145916994467
 10
1623.275437124685
 20
524.6988793471884
 10
1623.450916226245
 20
524.3078585979694
 10
1623.667736022869
 20
523.953410419391
 10
1623.919308554753
 20
523.646304539998
 10
1624.197989917817
 20
523.3958722165346
 10
1624.495312519864
 20
523.2097227084234
 10
1624.802242364084
 20
523.0935120742717
 10
1625.109453542473
 20
523.0507713153931
 10
1625.407611598833
 20
523.0827990881191
 10
1625.687657151496
 20
523.1886222447813
 10
1625.941081158056
 20
523.3650254023134
 10
1626.16018345831
 20
523.6066486400388
 10
1626.338306739737
 20
523.9061503581463
 10
1626.470038816566
 20
524.2544303484867
 10
1626.551377076302
 20
524.6409062997902
 10
1626.579850097082
 20
525.0538353358454
 10
1626.554592740577
 20
525.4806708168419
 10
1626.476372438784
 20
525.9084435626784
 10
1626.347565875992
 20
526.3241559149376
 10
1626.172086774431
 20
526.7151766641557
 10
1625.955266977807
 20
527.069624842734
 10
1625.703694445923
 20
527.3767307221262
 10
1625.425013082859
 20
527.6271630455905
 10
1625.127690480812
 20
527.8133125537026
 10
1624.820760636592
 20
527.9295231878534
  0
LWPOLYLINE
  5
3F9F
330
1A
100
AcDbEntity
  8
SEIHIN
100
AcDbPolyline
 90
       37
 70
     0
 43
0.0
 10
1670.782701413718
 20
516.033697564859
 10
1670.475490235329
 20
516.0764383237376
 10
1670.177332178969
 20
516.0444105510126
 10
1669.897286626305
 20
515.9385873943504
 10
1669.643862619746
 20
515.7621842368173
 10
1669.424760319492
 20
515.5205609990919
 10
1669.246637038065
 20
515.2210592809844
 10
1669.114904961235
 20
514.8727792906449
 10
1669.0335667015
 20
514.4863033393405
 10
1669.00509368072
 20
514.0733743032853
 10
1669.030351037225
 20
513.6465388222898
 10
1669.108571339018
 20
513.2187660764523
 10
1669.23737790181
 20
512.8030537241941
 10
1669.41285700337
 20
512.412032974975
 10
1669.629676799995
 20
512.0575847963967
 10
1669.881249331879
 20
511.7504789170046
 10
1670.159930694942
 20
511.5000465935411
 10
1670.45725329699
 20
511.313897085429
 10
1670.764183141209
 20
511.1976864512773
 10
1671.071394319598
 20
511.1549456923987
 10
1671.369552375958
 20
511.1869734651247
 10
1671.649597928622
 20
511.2927966217869
 10
1671.903021935181
 20
511.469199779319
 10
1672.122124235435
 20
511.7108230170445
 10
1672.300247516863
 20
512.0103247351528
 10
1672.431979593692
 20
512.3586047254923
 10
1672.513317853427
 20
512.7450806767967
 10
1672.541790874207
 20
513.158009712851
 10
1672.516533517702
 20
513.5848451938475
 10
1672.438313215909
 20
514.012617939684
 10
1672.309506653117
 20
514.4283302919432
 10
1672.134027551557
 20
514.8193510411613
 10
1671.917207754933
 20
515.1737992197397
 10
1671.665635223049
 20
515.4809050991327
 10
1671.386953859984
 20
515.7313374225962
 10
1671.089631257937
 20
515.9174869307082
 10
1670.782701413718
 20
516.033697564859
  0
LINE
  5
3FA0
330
1A
100
AcDbEntity
  8
SEIHIN
100
AcDbLine
 10
1619.063438770636
 20
534.6569403679406
 30
0.0
 11
1630.14256978512
 21
531.3903320272713
 31
0.0
  0
ARC
  5
3FA1
330
1A
100
AcDbEntity
  8
SEIHIN
100
AcDbCircle
 10
1669.893658688496
 20
612.1001578702783
 30
0.0
 40
89.96791126069686
100
AcDbArc
 50
243.7788969749044
 51
267.1994656269597
  0
LINE
  5
3FA2
330
1A
100
AcDbEntity
  8
SEIHIN
100
AcDbLine
 10
1632.909906711191
 20
532.1065715279539
 30
0.0
 11
1630.14256978512
 21
531.3903320272713
 31
0.0
  0
ARC
  5
3FA3
330
1A
100
AcDbEntity
  8
SEIHIN
100
AcDbCircle
 10
1672.691257815376
 20
612.9333215362469
 30
0.0
 40
90.08617769989752
100
AcDbArc
 50
243.7944876663811
 51
267.1838749354818
  0
ARC
  5
3FA4
330
1A
100
AcDbEntity
  8
SEIHIN
100
AcDbCircle
 10
1682.086837260001
 20
362.7836449311901
 30
0.0
 40
0.4890925615307403
100
AcDbArc
 50
315.6540386913131
 51
357.6655935292377
  0
LINE
  5
3FA5
330
1A
100
AcDbEntity
  8
SEIHIN
100
AcDbLine
 10
1618.136074545971
 20
535.7202679794957
 30
0.0
 11
1618.140968600133
 21
535.7137947880439
 31
0.0
  0
LINE
  5
3FA6
330
1A
100
AcDbEntity
  8
SEIHIN
100
AcDbLine
 10
1619.474877868647
 20
536.0667757770499
 30
0.0
 11
1618.136074545971
 21
535.7202679794957
 31
0.0
  0
ARC
  5
3FA7
330
1A
100
AcDbEntity
  8
SEIHIN
100
AcDbCircle
 10
1619.167994621654
 20
535.1807816136154
 30
0.0
 40
0.5341737326488996
100
AcDbArc
 50
224.9639286835832
 51
258.7124070598248
  0
LINE
  5
3FA8
330
1A
100
AcDbEntity
  8
SEIHIN
100
AcDbLine
 10
1618.790039030552
 20
534.8033016170504
 30
0.0
 11
1618.140968600133
 21
535.7137947880439
 31
0.0
  0
LINE
  5
3FA9
330
1A
100
AcDbEntity
  8
SEIHIN
100
AcDbLine
 10
1632.909906711191
 20
532.1065715279539
 30
0.0
 11
1619.474877868647
 21
536.0667757770499
 31
0.0
  0
ARC
  5
3FAA
330
1A
100
AcDbEntity
  8
SEIHIN
100
AcDbCircle
 10
1617.77044344392
 20
535.2915566531503
 30
0.0
 40
0.5634531960362273
100
AcDbArc
 50
49.54043709867327
 51
80.09076982715582
  0
LINE
  5
3FAB
330
1A
100
AcDbEntity
  8
SEIHIN
100
AcDbLine
 10
1615.240599407883
 20
536.5264718352212
 30
0.0
 11
1615.055460486231
 21
521.9896669619722
 31
0.0
  0
LINE
  5
3FAC
330
1A
100
AcDbEntity
  8
SEIHIN
100
AcDbLine
 10
1617.867406862638
 20
535.8466040381138
 30
0.0
 11
1615.240599407883
 21
536.5264718352212
 31
0.0
  0
LINE
  5
3FAD
330
1A
100
AcDbEntity
  8
SEIHIN
100
AcDbLine
 10
1615.240599407883
 20
536.5264718352212
 30
0.0
 11
1616.469674048605
 21
536.8445797600927
 31
0.0
  0
LINE
  5
3FAE
330
1A
100
AcDbEntity
  8
SEIHIN
100
AcDbLine
 10
1619.474877868647
 20
536.0667757770499
 30
0.0
 11
1616.469674048605
 21
536.8445797600927
 31
0.0
  0
LWPOLYLINE
  5
3FAF
330
1A
100
AcDbEntity
  8
SEIHIN
100
AcDbPolyline
 90
       33
 70
     0
 43
0.0
 10
1605.268493510524
 20
491.9322964449786
 10
1607.448273059441
 20
491.8759598739109
 10
1612.530163476474
 20
491.9253011604252
 10
1617.770222400535
 20
492.1774350293365
 10
1623.097605566272
 20
492.6702181399516
 10
1628.21091258551
 20
493.4203416490793
 10
1632.534801808425
 20
494.3464493783851
 10
1636.279064466706
 20
495.4914907062813
 10
1639.039437583071
 20
496.7237936526491
 10
1640.980659552612
 20
498.1028770103787
 10
1641.920412071305
 20
499.4853355797206
 10
1641.919822981573
 20
500.9305560850182
 10
1640.988412805007
 20
502.3031487830396
 10
1639.102369377204
 20
503.6522880664708
 10
1637.361485680279
 20
504.4900537711657
 10
1634.188942557268
 20
505.6007570132753
 10
1630.213792061026
 20
506.5823410965769
 10
1625.785034978093
 20
507.3488785840675
 10
1620.767724153599
 20
507.9237206049031
 10
1615.610297110643
 20
508.2556913905976
 10
1610.146712346996
 20
508.3552554351647
 10
1604.865255038322
 20
508.2127685418829
 10
1599.596104536399
 20
507.8225464870249
 10
1594.81969394602
 20
507.2181194802344
 10
1590.378312739525
 20
506.3763351601449
 10
1586.68236001963
 20
505.3700162930283
 10
1583.61753786127
 20
504.1597662148762
 10
1581.481670937633
 20
502.8511795682682
 10
1580.216978008541
 20
501.3887421621696
 10
1579.95755375245
 20
499.9058432661379
 10
1580.710902153304
 20
498.3290355829406
 10
1582.66146103125
 20
496.6331008256259
 10
1582.66146103125
 20
496.6331008256259
  0
ARC
  5
3FB0
330
1A
100
AcDbEntity
  8
SEIHIN
100
AcDbCircle
 10
1593.997453675618
 20
513.7257904394066
 30
0.0
 40
20.51011378481913
100
AcDbArc
 50
236.4473810002584
 51
255.6773119854282
  0
LWPOLYLINE
  5
3FB1
330
1A
100
AcDbEntity
  8
SEIHIN
100
AcDbPolyline
 90
        5
 70
     0
 43
0.0
 10
1603.976658200606
 20
495.5186503894148
 10
1605.307455413007
 20
494.9810185595809
 10
1606.019051852948
 20
494.2723756312082
 10
1605.771976098275
 20
493.5494631276917
 10
1605.148542378572
 20
493.2048681014714
  0
LWPOLYLINE
  5
3FB2
330
1A
100
AcDbEntity
  8
SEIHIN
100
AcDbPolyline
 90
       10
 70
     0
 43
0.0
 10
1589.637763729101
 20
493.8062824087139
 10
1589.238875498083
 20
494.3170195387522
 10
1589.699542393994
 20
494.9535891382867
 10
1591.076238882167
 20
495.5413012585616
 10
1593.213431373258
 20
495.9937309500512
 10
1595.859705415133
 20
496.2458976802547
 10
1598.708062765505
 20
496.2618387764861
 10
1601.431151547964
 20
496.0359987163876
 10
1603.717859832431
 20
495.5923553893701
 10
1603.976658200606
 20
495.5186503894148
  0
LINE
  5
3FB3
330
1A
100
AcDbEntity
  8
SEIHIN
100
AcDbLine
 10
1648.702461467622
 20
486.4893466784708
 30
0.0
 11
1648.936592668144
 21
487.164293615435
 31
0.0
  0
LWPOLYLINE
  5
3FB4
330
1A
100
AcDbEntity
  8
SEIHIN
100
AcDbPolyline
 90
       10
 70
     0
 43
0.0
 10
1603.274517379353
 20
494.4309663288406
 10
1603.043880709853
 20
494.4966191942433
 10
1601.006706641698
 20
494.8925123256088
 10
1598.580134355875
 20
495.0959337614706
 10
1596.037164527013
 20
495.0858762074587
 10
1593.664372741713
 20
494.8674244782981
 10
1591.729266704567
 20
494.4726472622062
 10
1590.4505053722
 20
493.9596776262153
 10
1589.973842814186
 20
493.4062034499204
 10
1589.998756683717
 20
493.3714211688805
  0
LWPOLYLINE
  5
3FB5
330
1A
100
AcDbEntity
  8
SEIHIN
100
AcDbPolyline
 90
        4
 70
     0
 43
0.0
 10
1605.044700485654
 20
493.1502893774506
 10
1605.101133767291
 20
493.321936250297
 10
1604.46189660601
 20
493.9524114825364
 10
1603.274517379353
 20
494.4309663288406
  0
ARC
  5
3FB6
330
1A
100
AcDbEntity
  8
SEIHIN
100
AcDbCircle
 10
1678.608870699225
 20
499.6126296616842
 30
0.0
 40
3.990980547235831
100
AcDbArc
 50
79.84595120863336
 51
86.93152384331586
  0
LINE
  5
3FB7
330
1A
100
AcDbEntity
  8
SEIHIN
100
AcDbLine
 10
1648.77121389002
 20
483.3879730895589
 30
0.0
 11
1649.014842347085
 21
483.316764725185
 31
0.0
  0
ARC
  5
3FB8
330
1A
100
AcDbEntity
  8
SEIHIN
100
AcDbCircle
 10
1626.849396936719
 20
347.118409798569
 30
0.0
 40
2.055758708812644
100
AcDbArc
 50
352.2789412854018
 51
2.40005898818206
  0
LINE
  5
3FB9
330
1A
100
AcDbEntity
  8
SEIHIN
100
AcDbLine
 10
1679.973901426923
 20
505.0542060121899
 30
0.0
 11
1680.338402700629
 21
519.6159142863264
 31
0.0
  0
LINE
  5
3FBA
330
1A
100
AcDbEntity
  8
SEIHIN
100
AcDbLine
 10
1676.54136668567
 20
505.260913727587
 30
0.0
 11
1676.580093475716
 21
519.7705347196809
 31
0.0
  0
LINE
  5
3FBB
330
1A
100
AcDbEntity
  8
SEIHIN
100
AcDbLine
 10
1618.140968600133
 20
535.7137947880439
 30
0.0
 11
1618.133261984871
 21
520.8294483718402
 31
0.0
  0
LINE
  5
3FBC
330
1A
100
AcDbEntity
  8
SEIHIN
100
AcDbLine
 10
1618.717269431753
 20
520.2206389082378
 30
0.0
 11
1618.790039030552
 21
534.8033016170504
 31
0.0
  0
LINE
  5
3FBD
330
1A
100
AcDbEntity
  8
SEIHIN
100
AcDbLine
 10
1616.24914856348
 20
521.6807177536686
 30
0.0
 11
1616.248498795989
 21
521.56382358617
 31
0.0
  0
LWPOLYLINE
  5
3FBE
330
1A
100
AcDbEntity
  8
ZUWAKU
100
AcDbPolyline
 90
        4
 70
     1
 43
0.0
 10
931.4350528628464
 20
565.2440967672649
 10
931.4350528628464
 20
14.04409676726504
 10
1728.635052862846
 20
14.04409676726504
 10
1728.635052862847
 20
565.2440967672649
  0
LWPOLYLINE
  5
3FBF
330
1A
100
AcDbEntity
  8
ZUWAKU
100
AcDbPolyline
 90
        4
 70
     1
 43
0.0
 10
931.8350528628466
 20
564.8440967672652
 10
931.8350528628466
 20
14.44409676726468
 10
1728.235052862846
 20
14.44409676726468
 10
1728.235052862846
 20
564.8440967672652
  0
LWPOLYLINE
  5
3FC0
330
1A
100
AcDbEntity
  8
ZUWAKU
100
AcDbPolyline
 90
        4
 70
     1
 43
0.0
 10
931.2350528628467
 20
565.4440967672647
 10
931.2350528628467
 20
13.84409676726432
 10
1728.835052862847
 20
13.84409676726432
 10
1728.835052862847
 20
565.4440967672655
  0
LWPOLYLINE
  5
3FC1
330
1A
100
AcDbEntity
  8
ZUWAKU
100
AcDbPolyline
 90
        4
 70
     1
 43
0.0
 10
931.6350528628468
 20
565.044096767265
 10
931.6350528628468
 20
14.24409676726486
 10
1728.435052862846
 20
14.24409676726486
 10
1728.435052862846
 20
565.044096767265
  0
LWPOLYLINE
  5
3FC2
330
1A
100
AcDbEntity
  8
ZUWAKU
100
AcDbPolyline
 90
        4
 70
     1
 43
0.0
 10
932.0350528628468
 20
564.6440967672645
 10
932.0350528628468
 20
14.64409676726541
 10
1728.035052862847
 20
14.64409676726541
 10
1728.035052862847
 20
564.6440967672645
  0
ARC
  5
3FC3
330
1A
100
AcDbEntity
  8
ZUWAKU
100
AcDbCircle
 10
972.4522650176277
 20
36.56909676726468
 30
0.0
 40
0.525
100
AcDbArc
 50
90.0
 51
180.0
  0
LINE
  5
3FC4
330
1A
100
AcDbEntity
  8
ZUWAKU
100
AcDbLine
 10
967.4120308541391
 20
37.09409676726432
 30
0.0
 11
969.1109202337484
 21
37.09409676726432
 31
0.0
  0
ARC
  5
3FC5
330
1A
100
AcDbEntity
  8
ZUWAKU
100
AcDbCircle
 10
969.1109202337484
 20
36.56909676726468
 30
0.0
 40
0.525
100
AcDbArc
 50
342.4744316262725
 51
90.0
  0
LINE
  5
3FC6
330
1A
100
AcDbEntity
  8
ZUWAKU
100
AcDbLine
 10
969.6115511329436
 20
36.41100279909847
 30
0.0
 11
968.5499114998055
 21
33.04914396082791
 31
0.0
  0
ARC
  5
3FC7
330
1A
100
AcDbEntity
  8
ZUWAKU
100
AcDbCircle
 10
967.4120308541391
 20
36.56909676726468
 30
0.0
 40
0.525
100
AcDbArc
 50
90.0
 51
162.4744316262725
  0
ARC
  5
3FC8
330
1A
100
AcDbEntity
  8
ZUWAKU
100
AcDbCircle
 10
963.3522650176278
 20
36.56909676726468
 30
0.0
 40
0.525
100
AcDbArc
 50
0.0
 51
90.0
  0
LINE
  5
3FC9
330
1A
100
AcDbEntity
  8
ZUWAKU
100
AcDbLine
 10
963.3522650176278
 20
37.09409676726432
 30
0.0
 11
961.6022650176278
 21
37.09409676726432
 31
0.0
  0
ARC
  5
3FCA
330
1A
100
AcDbEntity
  8
ZUWAKU
100
AcDbCircle
 10
958.1022650176278
 20
36.56909676726468
 30
0.0
 40
0.525
100
AcDbArc
 50
0.0
 51
90.0
  0
ARC
  5
3FCB
330
1A
100
AcDbEntity
  8
ZUWAKU
100
AcDbCircle
 10
961.6022650176278
 20
36.56909676726468
 30
0.0
 40
0.525
100
AcDbArc
 50
90.0
 51
180.0
  0
ARC
  5
3FCC
330
1A
100
AcDbEntity
  8
ZUWAKU
100
AcDbCircle
 10
958.1022650176278
 20
34.81909676726469
 30
0.0
 40
0.525
100
AcDbArc
 50
270.0
 51
0.0
  0
LINE
  5
3FCD
330
1A
100
AcDbEntity
  8
ZUWAKU
100
AcDbLine
 10
958.627265017628
 20
36.56909676726468
 30
0.0
 11
958.627265017628
 21
34.81909676726469
 31
0.0
  0
ARC
  5
3FCE
330
1A
100
AcDbEntity
  8
ZUWAKU
100
AcDbCircle
 10
972.4522650176277
 20
21.51909676726541
 30
0.0
 40
0.525
100
AcDbArc
 50
180.0
 51
270.0
  0
LINE
  5
3FCF
330
1A
100
AcDbEntity
  8
ZUWAKU
100
AcDbLine
 10
967.4120308541391
 20
20.99409676726486
 30
0.0
 11
969.1109202337484
 21
20.99409676726486
 31
0.0
  0
ARC
  5
3FD0
330
1A
100
AcDbEntity
  8
ZUWAKU
100
AcDbCircle
 10
969.1109202337484
 20
21.51909676726541
 30
0.0
 40
0.525
100
AcDbArc
 50
270.0
 51
17.5255683737275
  0
LINE
  5
3FD1
330
1A
100
AcDbEntity
  8
ZUWAKU
100
AcDbLine
 10
969.6115511329436
 20
21.67719073543162
 30
0.0
 11
967.2851597544699
 21
29.04409676726505
 31
0.0
  0
ARC
  5
3FD2
330
1A
100
AcDbEntity
  8
ZUWAKU
100
AcDbCircle
 10
967.4120308541391
 20
21.51909676726541
 30
0.0
 40
0.525
100
AcDbArc
 50
197.5255683737275
 51
270.0
  0
ARC
  5
3FD3
330
1A
100
AcDbEntity
  8
ZUWAKU
100
AcDbCircle
 10
964.5424991811164
 20
30.96909676726432
 30
0.0
 40
0.525
100
AcDbArc
 50
270.0
 51
342.4744316262725
  0
LINE
  5
3FD4
330
1A
100
AcDbEntity
  8
ZUWAKU
100
AcDbLine
 10
964.5424991811164
 20
30.44409676726469
 30
0.0
 11
964.402265017628
 21
30.44409676726469
 31
0.0
  0
LINE
  5
3FD5
330
1A
100
AcDbEntity
  8
ZUWAKU
100
AcDbLine
 10
964.402265017628
 20
27.64409676726541
 30
0.0
 11
964.5424991811164
 21
27.64409676726541
 31
0.0
  0
ARC
  5
3FD6
330
1A
100
AcDbEntity
  8
ZUWAKU
100
AcDbCircle
 10
964.402265017628
 20
30.96909676726432
 30
0.0
 40
0.525
100
AcDbArc
 50
180.0
 51
270.0
  0
LINE
  5
3FD7
330
1A
100
AcDbEntity
  8
ZUWAKU
100
AcDbLine
 10
961.6022650176278
 20
20.99409676726486
 30
0.0
 11
963.3522650176278
 21
20.99409676726486
 31
0.0
  0
ARC
  5
3FD8
330
1A
100
AcDbEntity
  8
ZUWAKU
100
AcDbCircle
 10
963.3522650176278
 20
21.51909676726541
 30
0.0
 40
0.525
100
AcDbArc
 50
270.0
 51
0.0
  0
LINE
  5
3FD9
330
1A
100
AcDbEntity
  8
ZUWAKU
100
AcDbLine
 10
963.8772650176278
 20
21.51909676726541
 30
0.0
 11
963.8772650176278
 21
27.11909676726487
 31
0.0
  0
LINE
  5
3FDA
330
1A
100
AcDbEntity
  8
ZUWAKU
100
AcDbLine
 10
958.627265017628
 20
23.26909676726541
 30
0.0
 11
958.627265017628
 21
21.51909676726541
 31
0.0
  0
ARC
  5
3FDB
330
1A
100
AcDbEntity
  8
ZUWAKU
100
AcDbCircle
 10
958.1022650176278
 20
21.51909676726541
 30
0.0
 40
0.525
100
AcDbArc
 50
270.0
 51
0.0
  0
ARC
  5
3FDC
330
1A
100
AcDbEntity
  8
ZUWAKU
100
AcDbCircle
 10
958.1022650176278
 20
23.26909676726541
 30
0.0
 40
0.525
100
AcDbArc
 50
0.0
 51
90.0
  0
ARC
  5
3FDD
330
1A
100
AcDbEntity
  8
ZUWAKU
100
AcDbCircle
 10
961.6022650176278
 20
21.51909676726541
 30
0.0
 40
0.525
100
AcDbArc
 50
180.0
 51
270.0
  0
ARC
  5
3FDE
330
1A
100
AcDbEntity
  8
ZUWAKU
100
AcDbCircle
 10
964.5424991811164
 20
27.11909676726487
 30
0.0
 40
0.525
100
AcDbArc
 50
17.5255683737275
 51
90.0
  0
ARC
  5
3FDF
330
1A
100
AcDbEntity
  8
ZUWAKU
100
AcDbCircle
 10
964.402265017628
 20
27.11909676726487
 30
0.0
 40
0.525
100
AcDbArc
 50
90.0
 51
180.0
  0
LINE
  5
3FE0
330
1A
100
AcDbEntity
  8
ZUWAKU
100
AcDbLine
 10
966.9113999549436
 20
21.36100279909738
 30
0.0
 11
965.043130080312
 21
27.27719073543199
 31
0.0
  0
LINE
  5
3FE1
330
1A
100
AcDbEntity
  8
ZUWAKU
100
AcDbLine
 10
968.5499114998055
 20
33.04914396082791
 30
0.0
 11
967.2851597544699
 21
29.04409676726505
 31
0.0
  0
LINE
  5
3FE2
330
1A
100
AcDbEntity
  8
ZUWAKU
100
AcDbLine
 10
971.927265017628
 20
36.56909676726468
 30
0.0
 11
971.927265017628
 21
21.51909676726541
 31
0.0
  0
LINE
  5
3FE3
330
1A
100
AcDbEntity
  8
ZUWAKU
100
AcDbLine
 10
963.8772650176278
 20
30.96909676726432
 30
0.0
 11
963.8772650176278
 21
36.56909676726468
 31
0.0
  0
LINE
  5
3FE4
330
1A
100
AcDbEntity
  8
ZUWAKU
100
AcDbLine
 10
961.0772650176278
 20
36.56909676726468
 30
0.0
 11
961.0772650176278
 21
21.51909676726541
 31
0.0
  0
LINE
  5
3FE5
330
1A
100
AcDbEntity
  8
ZUWAKU
100
AcDbLine
 10
966.9113999549436
 20
36.72719073543181
 30
0.0
 11
965.043130080312
 21
30.81100279909811
 31
0.0
  0
LINE
  5
3FE6
330
1A
100
AcDbEntity
  8
ZUWAKU
100
AcDbLine
 10
949.3522650176277
 20
36.56909676726468
 30
0.0
 11
949.3522650176277
 21
34.81909676726469
 31
0.0
  0
ARC
  5
3FE7
330
1A
100
AcDbEntity
  8
ZUWAKU
100
AcDbCircle
 10
956.177265017628
 20
32.89409676726541
 30
0.0
 40
1.399999999999999
100
AcDbArc
 50
90.0
 51
180.0
  0
ARC
  5
3FE8
330
1A
100
AcDbEntity
  8
ZUWAKU
100
AcDbCircle
 10
956.177265017628
 20
32.89409676726541
 30
0.0
 40
4.199999999999999
100
AcDbArc
 50
90.0
 51
180.0
  0
LINE
  5
3FE9
330
1A
100
AcDbEntity
  8
ZUWAKU
100
AcDbLine
 10
945.3272650176277
 20
37.09409676726432
 30
0.0
 11
948.8272650176277
 21
37.09409676726432
 31
0.0
  0
ARC
  5
3FEA
330
1A
100
AcDbEntity
  8
ZUWAKU
100
AcDbCircle
 10
945.8522650176277
 20
33.76909676726541
 30
0.0
 40
0.525
100
AcDbArc
 50
90.0
 51
180.0
  0
LINE
  5
3FEB
330
1A
100
AcDbEntity
  8
ZUWAKU
100
AcDbLine
 10
945.3272650176277
 20
33.76909676726541
 30
0.0
 11
945.3272650176277
 21
32.47889474190947
 31
0.0
  0
LINE
  5
3FEC
330
1A
100
AcDbEntity
  8
ZUWAKU
100
AcDbLine
 10
948.8272650176277
 20
34.29409676726505
 30
0.0
 11
945.8522650176277
 21
34.29409676726505
 31
0.0
  0
LINE
  5
3FED
330
1A
100
AcDbEntity
  8
ZUWAKU
100
AcDbLine
 10
942.527265017628
 20
34.29409676726505
 30
0.0
 11
942.527265017628
 21
32.47889474190947
 31
0.0
  0
ARC
  5
3FEE
330
1A
100
AcDbEntity
  8
ZUWAKU
100
AcDbCircle
 10
945.3272650176277
 20
34.29409676726505
 30
0.0
 40
2.799999999999999
100
AcDbArc
 50
90.0
 51
180.0
  0
ARC
  5
3FEF
330
1A
100
AcDbEntity
  8
ZUWAKU
100
AcDbCircle
 10
948.8272650176277
 20
36.56909676726468
 30
0.0
 40
0.525
100
AcDbArc
 50
0.0
 51
90.0
  0
ARC
  5
3FF0
330
1A
100
AcDbEntity
  8
ZUWAKU
100
AcDbCircle
 10
948.8272650176277
 20
34.81909676726469
 30
0.0
 40
0.525
100
AcDbArc
 50
270.0
 51
0.0
  0
LINE
  5
3FF1
330
1A
100
AcDbEntity
  8
ZUWAKU
100
AcDbLine
 10
949.8772650176279
 20
23.79409676726504
 30
0.0
 11
949.8772650176279
 21
25.60929879261971
 31
0.0
  0
ARC
  5
3FF2
330
1A
100
AcDbEntity
  8
ZUWAKU
100
AcDbCircle
 10
956.177265017628
 20
25.19409676726468
 30
0.0
 40
1.399999999999999
100
AcDbArc
 50
180.0
 51
270.0
  0
LINE
  5
3FF3
330
1A
100
AcDbEntity
  8
ZUWAKU
100
AcDbLine
 10
948.6471134986114
 20
28.5791472736039
 30
0.0
 11
945.7373155239665
 21
31.48894524824868
 31
0.0
  0
LINE
  5
3FF4
330
1A
100
AcDbEntity
  8
ZUWAKU
100
AcDbLine
 10
947.0772650176277
 20
24.31909676726468
 30
0.0
 11
947.0772650176277
 21
25.60929879261971
 31
0.0
  0
ARC
  5
3FF5
330
1A
100
AcDbEntity
  8
ZUWAKU
100
AcDbCircle
 10
946.552265017628
 20
24.31909676726468
 30
0.0
 40
0.525
100
AcDbArc
 50
270.0
 51
0.0
  0
ARC
  5
3FF6
330
1A
100
AcDbEntity
  8
ZUWAKU
100
AcDbCircle
 10
945.6772650176281
 20
25.60929879261971
 30
0.0
 40
1.399999999999999
100
AcDbArc
 50
0.0
 51
45.00000000000899
  0
LINE
  5
3FF7
330
1A
100
AcDbEntity
  8
ZUWAKU
100
AcDbLine
 10
943.052265017628
 20
21.51909676726541
 30
0.0
 11
943.052265017628
 21
23.26909676726541
 31
0.0
  0
ARC
  5
3FF8
330
1A
100
AcDbEntity
  8
ZUWAKU
100
AcDbCircle
 10
943.5772650176277
 20
21.51909676726541
 30
0.0
 40
0.525
100
AcDbArc
 50
180.0
 51
270.0
  0
ARC
  5
3FF9
330
1A
100
AcDbEntity
  8
ZUWAKU
100
AcDbCircle
 10
943.5772650176277
 20
23.26909676726541
 30
0.0
 40
0.525
100
AcDbArc
 50
90.0
 51
180.0
  0
LINE
  5
3FFA
330
1A
100
AcDbEntity
  8
ZUWAKU
100
AcDbLine
 10
943.5772650176277
 20
20.99409676726486
 30
0.0
 11
947.0772650176277
 21
20.99409676726486
 31
0.0
  0
LINE
  5
3FFB
330
1A
100
AcDbEntity
  8
ZUWAKU
100
AcDbLine
 10
943.5772650176277
 20
23.79409676726504
 30
0.0
 11
946.552265017628
 21
23.79409676726504
 31
0.0
  0
LINE
  5
3FFC
330
1A
100
AcDbEntity
  8
ZUWAKU
100
AcDbLine
 10
943.757416536644
 20
29.5090462609262
 30
0.0
 11
946.6672145112889
 21
26.59924828628141
 31
0.0
  0
ARC
  5
3FFD
330
1A
100
AcDbEntity
  8
ZUWAKU
100
AcDbCircle
 10
945.6772650176281
 20
25.60929879261971
 30
0.0
 40
4.199999999999999
100
AcDbArc
 50
0.0
 51
45.00000000000899
  0
ARC
  5
3FFE
330
1A
100
AcDbEntity
  8
ZUWAKU
100
AcDbCircle
 10
947.0772650176277
 20
23.79409676726504
 30
0.0
 40
2.799999999999999
100
AcDbArc
 50
270.0
 51
0.0
  0
ARC
  5
3FFF
330
1A
100
AcDbEntity
  8
ZUWAKU
100
AcDbCircle
 10
956.177265017628
 20
25.19409676726468
 30
0.0
 40
4.199999999999999
100
AcDbArc
 50
180.0
 51
270.0
  0
ARC
  5
4000
330
1A
100
AcDbEntity
  8
ZUWAKU
100
AcDbCircle
 10
946.7272650176278
 20
32.47889474190947
 30
0.0
 40
1.399999999999999
100
AcDbArc
 50
180.0
 51
225.000000000009
  0
LINE
  5
4001
330
1A
100
AcDbEntity
  8
ZUWAKU
100
AcDbLine
 10
954.777265017628
 20
32.89409676726541
 30
0.0
 11
954.777265017628
 21
25.19409676726468
 31
0.0
  0
LINE
  5
4002
330
1A
100
AcDbEntity
  8
ZUWAKU
100
AcDbLine
 10
951.9772650176278
 20
25.19409676726468
 30
0.0
 11
951.9772650176278
 21
32.89409676726541
 31
0.0
  0
ARC
  5
4003
330
1A
100
AcDbEntity
  8
ZUWAKU
100
AcDbCircle
 10
946.7272650176278
 20
32.47889474190947
 30
0.0
 40
4.199999999999999
100
AcDbArc
 50
180.0
 51
225.000000000009
  0
INSERT
  5
4004
330
1A
100
AcDbEntity
  8
ZUWAKU
  6
Continuous
100
AcDbBlockReference
  2
*X13
 10
916.2350536780769
 20
-1.155903606932724
 30
0.0
1001
ACAD
1000
HATCH
1002
{
1070
    19
1000
ANSI37
1040
0.2
1040
0.0
1000
R14_HATCH_DATA
1000
780
1011
917.2350536780768
1021
-1.155903606932724
1031
0.0
1011
916.2350536780769
1021
-0.1559036069327249
1031
0.0
1011
916.2350536780769
1021
-1.155903606932724
1031
1.0
1040
0.0
1010
0.0
1020
0.0
1030
1.0
1000
ANSI37
1070
     0
1070
     0
1071
        8
1071
        7
1070
     1
1070
     1
1071
       24
1040
29.50226184588996
1040
32.64484885518142
1040
-0.1989123673796348
1040
29.09221133955123
1040
33.63479834884247
1040
0.0
1040
29.09221133955123
1040
34.92500037419785
1040
-0.4142135623730912
1040
29.61721133955121
1040
35.45000037419784
1040
0.0
1040
32.59221133955112
1040
35.45000037419784
1040
0.4142135623731546
1040
33.11721133955121
1040
35.97500037419783
1040
0.0
1040
33.11721133955121
1040
37.72500037419785
1040
0.4142135623731586
1040
32.59221133955112
1040
38.25000037419785
1040
0.0
1040
29.09221133955123
1040
38.25000037419785
1040
0.4142135623730928
1040
26.29221133955127
1040
35.45000037419787
1040
0.0
1040
26.29221133955127
1040
33.6347983488426
1040
0.1989123673796619
1040
27.52236285856771
1040
30.664949867859
1040
0.0
1040
30.43216083321238
1040
27.75515189321434
1040
-0.1989123673796613
1040
30.84221133955123
1040
26.76520239955315
1040
0.0
1040
30.84221133955123
1040
25.47500037419784
1040
-0.4142135623730911
1040
30.31721133955125
1040
24.95000037419784
1040
0.0
1040
27.34221133955134
1040
24.95000037419784
1040
0.4142135623731526
1040
26.81721133955125
1040
24.42500037419785
1040
0.0
1040
26.81721133955125
1040
22.67500037419783
1040
0.4142135623731526
1040
27.34221133955134
1040
22.15000037419784
1040
0.0
1040
30.84221133955123
1040
22.15000037419784
1040
0.4142135623731044
1040
33.6422113395513
1040
24.95000037419782
1040
0.0
1040
33.6422113395513
1040
26.76520239955309
1040
0.1989123673796604
1040
32.41205982053475
1040
29.73505088053663
1040
0.0
1071
        0
1071
        7
1070
     1
1070
     1
1071
       16
1040
38.54221133955127
1040
34.05000037419785
1040
-0.4142135623730935
1040
39.94221133955125
1040
35.45000037419784
1040
0.0
1040
41.8672113395512
1040
35.45000037419784
1040
0.4142135623731546
1040
42.39221133955129
1040
35.97500037419783
1040
0.0
1040
42.39221133955129
1040
37.72500037419785
1040
0.4142135623730951
1040
41.86721133955131
1040
38.25000037419785
1040
0.0
1040
39.94221133955114
1040
38.2500003741978
1040
0.4142135623730892
1040
35.7422113395512
1040
34.05000037419778
1040
0.0
1040
35.7422113395512
1040
26.35000037419787
1040
0.4142135623730969
1040
39.94221133955125
1040
22.15000037419784
1040
0.0
1040
41.8672113395512
1040
22.15000037419784
1040
0.4142135623731526
1040
42.39221133955129
1040
22.67500037419783
1040
0.0
1040
42.39221133955129
1040
24.42500037419785
1040
0.4142135623730891
1040
41.86721133955131
1040
24.95000037419784
1040
0.0
1040
39.94221133955125
1040
24.95000037419784
1040
-0.4142135623730928
1040
38.54221133955127
1040
26.35000037419783
1040
0.0
1071
        0
1071
        7
1070
     1
1070
     1
1071
        2
1040
39.2422113395512
1040
30.20000037419784
1040
1.0
1040
42.7422113395512
1040
30.20000037419784
1040
1.0
1071
        0
1071
        7
1070
     1
1070
     1
1071
       26
1040
52.31485782172922
1040
34.20504756776127
1040
0.0
1040
53.37649745486704
1040
37.56690640603086
1040
0.5069206636600134
1040
52.87586655567167
1040
38.25000037419785
1040
0.0
1040
51.17697717606245
1040
38.25000037419785
1040
0.3272098845218764
1040
50.67634627686709
1040
37.88309434236481
1040
0.0
1040
48.80807640223531
1040
31.96690640603093
1040
-0.3272098845219541
1040
48.30744550303984
1040
31.60000037419784
1040
0.0
1040
48.16721133955138
1040
31.60000037419784
1040
-0.4142135623731526
1040
47.64221133955129
1040
32.12500037419783
1040
0.0
1040
47.64221133955129
1040
37.72500037419785
1040
0.4142135623730951
1040
47.11721133955132
1040
38.25000037419785
1040
0.0
1040
45.3672113395512
1040
38.25000037419785
1040
0.4142135623730871
1040
44.84221133955123
1040
37.72500037419786
1040
0.0
1040
44.84221133955123
1040
22.67500037419783
1040
0.4142135623730891
1040
45.3672113395512
1040
22.15000037419784
1040
0.0
1040
47.1172113395512
1040
22.15000037419784
1040
0.4142135623731526
1040
47.64221133955129
1040
22.67500037419783
1040
0.0
1040
47.64221133955129
1040
28.27500037419786
1040
-0.4142135623731526
1040
48.16721133955138
1040
28.80000037419785
1040
0.0
1040
48.30744550303996
1040
28.80000037419785
1040
-0.3272098845218915
1040
48.80807640223531
1040
28.43309434236477
1040
0.0
1040
50.67634627686709
1040
22.51690640603092
1040
0.3272098845218902
1040
51.17697717606245
1040
22.15000037419784
1040
0.0
1040
52.87586655567167
1040
22.15000037419784
1040
0.5069206636600335
1040
53.37649745486704
1040
22.83309434236485
1040
0.0
1040
51.05010607639338
1040
30.20000037419798
1040
0.0
1071
        0
1071
        7
1070
     1
1070
     1
1071
        8
1040
58.4922113395512
1040
37.72500037419785
1040
0.4142135623731546
1040
57.96721133955111
1040
38.25000037419785
1040
0.0
1040
56.21721133955134
1040
38.25000037419785
1040
0.4142135623731507
1040
55.69221133955124
1040
37.72500037419786
1040
0.0
1040
55.69221133955124
1040
22.67500037419783
1040
0.4142135623731526
1040
56.21721133955134
1040
22.15000037419784
1040
0.0
1040
57.96721133955111
1040
22.15000037419784
1040
0.4142135623731526
1040
58.4922113395512
1040
22.67500037419783
1040
0.0
1071
        0
1071
        7
1070
     1
1070
     1
1071
       24
1040
63.39221133955129
1040
34.92500037419785
1040
-0.4142135623731546
1040
63.91721133955138
1040
35.45000037419784
1040
0.0
1040
66.89221133955129
1040
35.45000037419784
1040
0.4142135623730911
1040
67.41721133955127
1040
35.97500037419783
1040
0.0
1040
67.41721133955127
1040
37.72500037419785
1040
0.4142135623730952
1040
66.89221133955129
1040
38.25000037419785
1040
0.0
1040
63.39221133955129
1040
38.25000037419785
1040
0.4142135623731048
1040
60.59221133955123
1040
35.45000037419787
1040
0.0
1040
60.59221133955123
1040
33.6347983488426
1040
0.1989123673796613
1040
61.82236285856777
1040
30.66494986785905
1040
0.0
1040
64.73216083321244
1040
27.75515189321438
1040
-0.1989123673796402
1040
65.14221133955129
1040
26.76520239955331
1040
0.0
1040
65.14221133955129
1040
25.47500037419784
1040
-0.4142135623730911
1040
64.61721133955132
1040
24.95000037419784
1040
0.0
1040
61.6422113395513
1040
24.95000037419784
1040
0.4142135623731526
1040
61.1172113395512
1040
24.42500037419785
1040
0.0
1040
61.1172113395512
1040
22.67500037419783
1040
0.4142135623730891
1040
61.64221133955118
1040
22.15000037419784
1040
0.0
1040
65.14221133955129
1040
22.15000037419784
1040
0.4142135623730925
1040
67.94221133955125
1040
24.95000037419782
1040
0.0
1040
67.94221133955125
1040
26.76520239955309
1040
0.1989123673796675
1040
66.71205982053471
1040
29.73505088053675
1040
0.0
1040
63.80226184589014
1040
32.64484885518127
1040
-0.1989123673796652
1040
63.39221133955129
1040
33.63479834884243
1040
0.0
1071
        0
1071
        7
1070
     1
1070
     1
1071
       16
1040
72.84221133955123
1040
37.72500037419784
1040
0.414213562373103
1040
72.31721133955125
1040
38.25000037419785
1040
0.0
1040
70.56721133955125
1040
38.25000037419785
1040
0.4142135623730871
1040
70.04221133955127
1040
37.72500037419786
1040
0.0
1040
70.04221133955127
1040
24.95000037419782
1040
0.4142135623730926
1040
72.84221133955123
1040
22.15000037419784
1040
0.0
1040
76.34221133955122
1040
22.15000037419784
1040
0.4142135623731044
1040
79.1422113395513
1040
24.95000037419782
1040
0.0
1040
79.1422113395513
1040
37.72500037419785
1040
0.4142135623730951
1040
78.61721133955132
1040
38.25000037419785
1040
0.0
1040
76.86721133955121
1040
38.25000037419785
1040
0.4142135623730871
1040
76.34221133955122
1040
37.72500037419786
1040
0.0
1040
76.34221133955122
1040
26.00000037419782
1040
-0.414213562373088
1040
75.29221133955127
1040
24.95000037419784
1040
0.0
1040
73.89221133955129
1040
24.95000037419784
1040
-0.4142135623731197
1040
72.84221133955123
1040
26.00000037419782
1040
0.0
1071
        0
1071
        7
1070
     1
1070
     1
1071
        8
1040
84.04221133955127
1040
37.72500037419786
1040
0.4142135623730871
1040
83.51721133955129
1040
38.25000037419785
1040
0.0
1040
81.7672113395513
1040
38.25000037419785
1040
0.4142135623731507
1040
81.24221133955121
1040
37.72500037419786
1040
0.0
1040
81.24221133955121
1040
22.67500037419783
1040
0.4142135623730891
1040
81.76721133955117
1040
22.15000037419784
1040
0.0
1040
83.51721133955129
1040
22.15000037419784
1040
0.4142135623730891
1040
84.04221133955127
1040
22.67500037419783
1040
0.0
1071
        0
1070
     0
1070
     1
1040
0.0
1040
0.2
1070
     0
1070
     2
1040
0.7853981633974483
1040
-885.9423051499089
1040
1.800000374197907
1040
-0.4490128060534576
1040
0.4490128060534577
1070
     0
1040
2.356194490192344
1040
-885.9423051499089
1040
1.800000374197907
1040
-0.4490128060534577
1040
-0.4490128060534576
1070
     0
1040
0.057451373970553
1071
        8
1040
31.07985414779341
1040
30.16717402008339
1040
0.0
1040
37.40451419120927
1040
33.84406255664885
1040
0.0
1040
40.16436707042976
1040
30.51188202026856
1040
0.0
1040
45.91405916640724
1040
31.20129802063934
1040
0.0
1040
56.83847120372684
1040
31.66091028818096
1040
0.0
1040
61.89820007989965
1040
34.41857669060505
1040
0.0
1040
71.55768515717046
1040
33.72915828929285
1040
0.0
1040
82.82707880439284
1040
34.18877055683447
1040
0.0
1002
}
  0
LINE
  5
4005
330
1A
100
AcDbEntity
  8
ZUWAKU
100
AcDbLine
 10
956.177265017628
 20
37.09409676726432
 30
0.0
 11
958.1022650176278
 21
37.09409676726432
 31
0.0
  0
LINE
  5
4006
330
1A
100
AcDbEntity
  8
ZUWAKU
100
AcDbLine
 10
958.1022650176278
 20
34.29409676726505
 30
0.0
 11
956.177265017628
 21
34.29409676726505
 31
0.0
  0
LINE
  5
4007
330
1A
100
AcDbEntity
  8
ZUWAKU
100
AcDbLine
 10
956.177265017628
 20
23.79409676726504
 30
0.0
 11
958.1022650176278
 21
23.79409676726504
 31
0.0
  0
LINE
  5
4008
330
1A
100
AcDbEntity
  8
ZUWAKU
100
AcDbLine
 10
958.1022650176278
 20
20.99409676726486
 30
0.0
 11
956.177265017628
 21
20.99409676726486
 31
0.0
  0
CIRCLE
  5
4009
330
1A
100
AcDbEntity
  8
ZUWAKU
100
AcDbCircle
 10
957.2272650176278
 20
29.04409676726505
 30
0.0
 40
1.75
  0
LINE
  5
400A
330
1A
100
AcDbEntity
  8
ZUWAKU
100
AcDbLine
 10
931.2350528628467
 20
44.64409676726541
 30
0.0
 11
1728.635052862846
 21
44.64409676726541
 31
0.0
  0
LINE
  5
400B
330
1A
100
AcDbEntity
  8
ZUWAKU
100
AcDbLine
 10
931.2350528628467
 20
44.44409676726468
 30
0.0
 11
1728.635052862846
 21
44.44409676726468
 31
0.0
  0
LINE
  5
400C
330
1A
100
AcDbEntity
  8
ZUWAKU
100
AcDbLine
 10
931.2350528628467
 20
44.24409676726486
 30
0.0
 11
1728.635052862846
 21
44.24409676726486
 31
0.0
  0
LINE
  5
400D
330
1A
100
AcDbEntity
  8
ZUWAKU
100
AcDbLine
 10
931.2350528628467
 20
44.04409676726504
 30
0.0
 11
1728.635052862846
 21
44.04409676726504
 31
0.0
  0
LINE
  5
400E
330
1A
100
AcDbEntity
  8
ZUWAKU
100
AcDbLine
 10
931.2350528628467
 20
43.84409676726432
 30
0.0
 11
1728.635052862846
 21
43.84409676726432
 31
0.0
  0
TEXT
  5
400F
330
1A
100
AcDbEntity
  8
moji
100
AcDbText
 10
1171.379696431254
 20
17.5929437705729
 30
0.0
 40
5.599999999999999
  1
Ｙ６０Ｈ
 41
0.9
  7
ｽﾀｲﾙ1
100
AcDbText
  0
LINE
  5
4010
330
1A
100
AcDbEntity
  8
ZUWAKU
100
AcDbLine
 10
1628.484063411388
 20
43.84409676726432
 30
0.0
 11
1628.484063411388
 21
14.64409676726541
 31
0.0
  0
LINE
  5
4011
330
1A
100
AcDbEntity
  8
ZUWAKU
100
AcDbLine
 10
1628.684063411388
 20
43.84409676726432
 30
0.0
 11
1628.684063411388
 21
14.64409676726541
 31
0.0
  0
LINE
  5
4012
330
1A
100
AcDbEntity
  8
ZUWAKU
100
AcDbLine
 10
1628.884063411387
 20
43.84409676726432
 30
0.0
 11
1628.884063411388
 21
14.64409676726541
 31
0.0
  0
LINE
  5
4013
330
1A
100
AcDbEntity
  8
ZUWAKU
100
AcDbLine
 10
1629.084063411388
 20
43.84409676726432
 30
0.0
 11
1629.084063411388
 21
14.64409676726541
 31
0.0
  0
TEXT
  5
4014
330
1A
100
AcDbEntity
  8
ZUWAKU
100
AcDbText
 10
1638.272498196932
 20
26.18301902455846
 30
0.0
 40
6.0
  1
積水化学工業株式会社
 41
0.9
  7
ｽﾀｲﾙ1
100
AcDbText
  0
TEXT
  5
4015
330
1A
100
AcDbEntity
  8
ZUWAKU
100
AcDbText
 10
1581.529700395261
 20
37.89945330565047
 30
0.0
 40
4.0
  1
DATE
 41
0.9
  7
ｽﾀｲﾙ1
100
AcDbText
  0
LINE
  5
4016
330
1A
100
AcDbEntity
  8
ZUWAKU
100
AcDbLine
 10
1579.852255373051
 20
43.84409676726432
 30
0.0
 11
1579.852255373051
 21
14.64409676726541
 31
0.0
  0
LINE
  5
4017
330
1A
100
AcDbEntity
  8
ZUWAKU
100
AcDbLine
 10
1580.052255373051
 20
43.84409676726432
 30
0.0
 11
1580.052255373052
 21
14.64409676726541
 31
0.0
  0
LINE
  5
4018
330
1A
100
AcDbEntity
  8
ZUWAKU
100
AcDbLine
 10
1579.652255373051
 20
43.84409676726432
 30
0.0
 11
1579.652255373051
 21
14.64409676726541
 31
0.0
  0
LINE
  5
4019
330
1A
100
AcDbEntity
  8
ZUWAKU
100
AcDbLine
 10
1483.962008628959
 20
43.84409676726432
 30
0.0
 11
1483.962008628959
 21
14.64409676726541
 31
0.0
  0
LINE
  5
401A
330
1A
100
AcDbEntity
  8
ZUWAKU
100
AcDbLine
 10
1484.162008628959
 20
43.84409676726432
 30
0.0
 11
1484.162008628959
 21
14.64409676726541
 31
0.0
  0
LINE
  5
401B
330
1A
100
AcDbEntity
  8
ZUWAKU
100
AcDbLine
 10
1483.762008628959
 20
43.84409676726432
 30
0.0
 11
1483.762008628959
 21
14.64409676726541
 31
0.0
  0
TEXT
  5
401C
330
1A
100
AcDbEntity
  8
ZUWAKU
100
AcDbText
 10
1437.911677383197
 20
37.89945330565047
 30
0.0
 40
4.0
  1
用紙
 41
0.9
  7
ｽﾀｲﾙ1
100
AcDbText
  0
TEXT
  5
401D
330
1A
100
AcDbEntity
  8
ZUWAKU
100
AcDbText
 10
1380.536861856048
 20
37.89945330565047
 30
0.0
 40
4.0
  1
品番
 41
0.9
  7
ｽﾀｲﾙ1
100
AcDbText
  0
TEXT
  5
401E
330
1A
100
AcDbEntity
  8
ZUWAKU
100
AcDbText
 10
1437.911677383197
 20
23.49945330564992
 30
0.0
 40
4.0
  1
縮尺
 41
0.9
  7
ｽﾀｲﾙ1
100
AcDbText
  0
TEXT
  5
401F
330
1A
100
AcDbEntity
  8
ZUWAKU
100
AcDbText
 10
1393.928814518354
 20
16.45816767840483
 30
0.0
 40
3.0
  1
□には色品番が入ります
 41
0.9
  7
ｽﾀｲﾙ1
100
AcDbText
  0
TEXT
  5
4020
330
1A
100
AcDbEntity
  8
moji
100
AcDbText
 10
1395.829678866085
 20
25.78671448892533
 30
0.0
 40
5.599999999999999
  1
PF６８□
 41
0.9
  7
ｽﾀｲﾙ1
100
AcDbText
  0
LINE
  5
4021
330
1A
100
AcDbEntity
  8
ZUWAKU
100
AcDbLine
 10
1378.859416833838
 20
43.84409676726432
 30
0.0
 11
1378.859416833838
 21
14.64409676726541
 31
0.0
  0
LINE
  5
4022
330
1A
100
AcDbEntity
  8
ZUWAKU
100
AcDbLine
 10
1379.059416833838
 20
43.84409676726432
 30
0.0
 11
1379.059416833838
 21
14.64409676726541
 31
0.0
  0
LINE
  5
4023
330
1A
100
AcDbEntity
  8
ZUWAKU
100
AcDbLine
 10
1378.659416833838
 20
43.84409676726432
 30
0.0
 11
1378.659416833838
 21
14.64409676726541
 31
0.0
  0
LINE
  5
4024
330
1A
100
AcDbEntity
  8
ZUWAKU
100
AcDbLine
 10
1436.234232360987
 20
43.84409676726432
 30
0.0
 11
1436.234232360988
 21
14.64409676726541
 31
0.0
  0
LINE
  5
4025
330
1A
100
AcDbEntity
  8
ZUWAKU
100
AcDbLine
 10
1436.434232360987
 20
43.84409676726432
 30
0.0
 11
1436.434232360988
 21
14.64409676726541
 31
0.0
  0
LINE
  5
4026
330
1A
100
AcDbEntity
  8
ZUWAKU
100
AcDbLine
 10
1436.034232360987
 20
43.84409676726432
 30
0.0
 11
1436.034232360987
 21
14.64409676726541
 31
0.0
  0
LINE
  5
4027
330
1A
100
AcDbEntity
  8
ZUWAKU
100
AcDbLine
 10
1436.434232360987
 20
29.04409676726505
 30
0.0
 11
1483.762008628959
 21
29.04409676726505
 31
0.0
  0
LINE
  5
4028
330
1A
100
AcDbEntity
  8
ZUWAKU
100
AcDbLine
 10
1436.434232360987
 20
29.24409676726487
 30
0.0
 11
1483.762008628959
 21
29.24409676726487
 31
0.0
  0
LINE
  5
4029
330
1A
100
AcDbEntity
  8
ZUWAKU
100
AcDbLine
 10
1436.434232360987
 20
29.44409676726468
 30
0.0
 11
1483.762008628959
 21
29.44409676726468
 31
0.0
  0
LINE
  5
402A
330
1A
100
AcDbEntity
  8
ZUWAKU
100
AcDbLine
 10
1580.052255373051
 20
29.04409676726505
 30
0.0
 11
1628.484063411388
 21
29.04409676726505
 31
0.0
  0
LINE
  5
402B
330
1A
100
AcDbEntity
  8
ZUWAKU
100
AcDbLine
 10
1580.052255373051
 20
29.24409676726487
 30
0.0
 11
1628.484063411388
 21
29.24409676726487
 31
0.0
  0
LINE
  5
402C
330
1A
100
AcDbEntity
  8
ZUWAKU
100
AcDbLine
 10
1580.052255373051
 20
29.44409676726468
 30
0.0
 11
1628.484063411388
 21
29.44409676726468
 31
0.0
  0
TEXT
  5
402D
330
1A
100
AcDbEntity
  8
ZUWAKU
100
AcDbText
 10
1589.438990550149
 20
31.84901782467227
 30
0.0
 40
5.599999999999999
  1
　　．　　．　　
 41
0.9
  7
ｽﾀｲﾙ1
100
AcDbText
  0
TEXT
  5
402E
330
1A
100
AcDbEntity
  8
ZUWAKU
100
AcDbText
 10
1140.959099175124
 20
37.89945330565047
 30
0.0
 40
4.0
  1
品名
 41
0.9
  7
ｽﾀｲﾙ1
100
AcDbText
  0
TEXT
  5
402F
330
1A
100
AcDbEntity
  8
ZUWAKU
100
AcDbText
 10
1140.959099175124
 20
23.49945330564992
 30
0.0
 40
4.0
  1
サイズ
 41
0.9
  7
ｽﾀｲﾙ1
100
AcDbText
  0
LINE
  5
4030
330
1A
100
AcDbEntity
  8
ZUWAKU
100
AcDbLine
 10
1139.481654152914
 20
43.84409676726432
 30
0.0
 11
1139.481654152914
 21
14.64409676726541
 31
0.0
  0
LINE
  5
4031
330
1A
100
AcDbEntity
  8
ZUWAKU
100
AcDbLine
 10
1139.881654152914
 20
43.84409676726432
 30
0.0
 11
1139.881654152915
 21
14.64409676726541
 31
0.0
  0
LINE
  5
4032
330
1A
100
AcDbEntity
  8
ZUWAKU
100
AcDbLine
 10
1139.681654152914
 20
43.84409676726432
 30
0.0
 11
1139.681654152914
 21
14.64409676726541
 31
0.0
  0
TEXT
  5
4033
330
1A
100
AcDbEntity
  8
moji
100
AcDbText
 10
1171.062255543697
 20
31.84901782467227
 30
0.0
 40
5.599999999999999
  1
角マスR  Ｙ６０Ｈ
 41
0.9
  7
ｽﾀｲﾙ1
100
AcDbText
  0
ARC
  5
4034
330
1A
100
AcDbEntity
  8
ZUWAKU
100
AcDbCircle
 10
999.7522650176279
 20
36.56909676726468
 30
0.0
 40
0.525
100
AcDbArc
 50
0.0
 51
90.0
  0
ARC
  5
4035
330
1A
100
AcDbEntity
  8
ZUWAKU
100
AcDbCircle
 10
998.0022650176278
 20
36.56909676726468
 30
0.0
 40
0.525
100
AcDbArc
 50
90.0
 51
180.0
  0
ARC
  5
4036
330
1A
100
AcDbEntity
  8
ZUWAKU
100
AcDbCircle
 10
994.8522650176277
 20
36.56909676726468
 30
0.0
 40
0.525
100
AcDbArc
 50
0.0
 51
90.0
  0
LINE
  5
4037
330
1A
100
AcDbEntity
  8
ZUWAKU
100
AcDbLine
 10
994.8522650176277
 20
37.09409676726432
 30
0.0
 11
993.1022650176277
 21
37.09409676726432
 31
0.0
  0
ARC
  5
4038
330
1A
100
AcDbEntity
  8
ZUWAKU
100
AcDbCircle
 10
993.1022650176277
 20
36.56909676726468
 30
0.0
 40
0.525
100
AcDbArc
 50
90.0
 51
180.0
  0
LINE
  5
4039
330
1A
100
AcDbEntity
  8
ZUWAKU
100
AcDbLine
 10
999.7522650176279
 20
37.09409676726432
 30
0.0
 11
998.0022650176278
 21
37.09409676726432
 31
0.0
  0
ARC
  5
403A
330
1A
100
AcDbEntity
  8
ZUWAKU
100
AcDbCircle
 10
988.552265017628
 20
36.56909676726468
 30
0.0
 40
0.525
100
AcDbArc
 50
0.0
 51
90.0
  0
ARC
  5
403B
330
1A
100
AcDbEntity
  8
ZUWAKU
100
AcDbCircle
 10
986.802265017628
 20
36.56909676726468
 30
0.0
 40
0.525
100
AcDbArc
 50
90.0
 51
180.0
  0
LINE
  5
403C
330
1A
100
AcDbEntity
  8
ZUWAKU
100
AcDbLine
 10
988.552265017628
 20
37.09409676726432
 30
0.0
 11
986.802265017628
 21
37.09409676726432
 31
0.0
  0
ARC
  5
403D
330
1A
100
AcDbEntity
  8
ZUWAKU
100
AcDbCircle
 10
983.1272650176279
 20
36.56909676726468
 30
0.0
 40
0.525
100
AcDbArc
 50
0.0
 51
90.0
  0
ARC
  5
403E
330
1A
100
AcDbEntity
  8
ZUWAKU
100
AcDbCircle
 10
983.1272650176279
 20
34.81909676726469
 30
0.0
 40
0.525
100
AcDbArc
 50
270.0
 51
0.0
  0
LINE
  5
403F
330
1A
100
AcDbEntity
  8
ZUWAKU
100
AcDbLine
 10
983.6522650176279
 20
36.56909676726468
 30
0.0
 11
983.6522650176279
 21
34.81909676726469
 31
0.0
  0
ARC
  5
4040
330
1A
100
AcDbEntity
  8
ZUWAKU
100
AcDbCircle
 10
980.1522650176279
 20
33.76909676726541
 30
0.0
 40
0.525
100
AcDbArc
 50
90.0
 51
180.0
  0
LINE
  5
4041
330
1A
100
AcDbEntity
  8
ZUWAKU
100
AcDbLine
 10
979.6272650176279
 20
33.76909676726541
 30
0.0
 11
979.6272650176279
 21
32.47889474190947
 31
0.0
  0
ARC
  5
4042
330
1A
100
AcDbEntity
  8
ZUWAKU
100
AcDbCircle
 10
974.2022650176277
 20
36.56909676726468
 30
0.0
 40
0.525
100
AcDbArc
 50
0.0
 51
90.0
  0
LINE
  5
4043
330
1A
100
AcDbEntity
  8
ZUWAKU
100
AcDbLine
 10
976.8272650176276
 20
34.29409676726505
 30
0.0
 11
976.8272650176276
 21
32.47889474190947
 31
0.0
  0
ARC
  5
4044
330
1A
100
AcDbEntity
  8
ZUWAKU
100
AcDbCircle
 10
979.6272650176279
 20
34.29409676726505
 30
0.0
 40
2.799999999999999
100
AcDbArc
 50
90.0
 51
180.0
  0
LINE
  5
4045
330
1A
100
AcDbEntity
  8
ZUWAKU
100
AcDbLine
 10
979.6272650176279
 20
37.09409676726432
 30
0.0
 11
983.1272650176279
 21
37.09409676726432
 31
0.0
  0
LINE
  5
4046
330
1A
100
AcDbEntity
  8
ZUWAKU
100
AcDbLine
 10
983.1272650176279
 20
34.29409676726505
 30
0.0
 11
980.1522650176279
 21
34.29409676726505
 31
0.0
  0
LINE
  5
4047
330
1A
100
AcDbEntity
  8
ZUWAKU
100
AcDbLine
 10
974.2022650176277
 20
37.09409676726432
 30
0.0
 11
972.4522650176277
 21
37.09409676726432
 31
0.0
  0
ARC
  5
4048
330
1A
100
AcDbEntity
  8
ZUWAKU
100
AcDbCircle
 10
999.7522650176279
 20
21.51909676726541
 30
0.0
 40
0.525
100
AcDbArc
 50
270.0
 51
0.0
  0
ARC
  5
4049
330
1A
100
AcDbEntity
  8
ZUWAKU
100
AcDbCircle
 10
998.0022650176278
 20
21.51909676726541
 30
0.0
 40
0.525
100
AcDbArc
 50
180.0
 51
270.0
  0
ARC
  5
404A
330
1A
100
AcDbEntity
  8
ZUWAKU
100
AcDbCircle
 10
991.527265017628
 20
24.84409676726432
 30
0.0
 40
1.049999999999999
100
AcDbArc
 50
270.0
 51
0.0
  0
LINE
  5
404B
330
1A
100
AcDbEntity
  8
ZUWAKU
100
AcDbLine
 10
998.0022650176278
 20
20.99409676726486
 30
0.0
 11
999.7522650176279
 21
20.99409676726486
 31
0.0
  0
ARC
  5
404C
330
1A
100
AcDbEntity
  8
ZUWAKU
100
AcDbCircle
 10
992.5772650176277
 20
23.79409676726504
 30
0.0
 40
2.799999999999999
100
AcDbArc
 50
270.0
 51
0.0
  0
LINE
  5
404D
330
1A
100
AcDbEntity
  8
ZUWAKU
100
AcDbLine
 10
984.1772650176281
 20
23.79409676726504
 30
0.0
 11
984.1772650176281
 21
25.60929879261971
 31
0.0
  0
ARC
  5
404E
330
1A
100
AcDbEntity
  8
ZUWAKU
100
AcDbCircle
 10
979.9772650176278
 20
25.60929879261971
 30
0.0
 40
4.199999999999999
100
AcDbArc
 50
0.0
 51
45.00000000000899
  0
ARC
  5
404F
330
1A
100
AcDbEntity
  8
ZUWAKU
100
AcDbCircle
 10
990.1272650176279
 20
24.84409676726432
 30
0.0
 40
1.049999999999999
100
AcDbArc
 50
180.0
 51
270.0
  0
LINE
  5
4050
330
1A
100
AcDbEntity
  8
ZUWAKU
100
AcDbLine
 10
981.3772650176279
 20
24.31909676726468
 30
0.0
 11
981.3772650176279
 21
25.60929879261971
 31
0.0
  0
ARC
  5
4051
330
1A
100
AcDbEntity
  8
ZUWAKU
100
AcDbCircle
 10
979.9772650176278
 20
25.60929879261971
 30
0.0
 40
1.399999999999999
100
AcDbArc
 50
0.0
 51
45.00000000000899
  0
ARC
  5
4052
330
1A
100
AcDbEntity
  8
ZUWAKU
100
AcDbCircle
 10
980.8522650176279
 20
24.31909676726468
 30
0.0
 40
0.525
100
AcDbArc
 50
270.0
 51
0.0
  0
LINE
  5
4053
330
1A
100
AcDbEntity
  8
ZUWAKU
100
AcDbLine
 10
977.3522650176278
 20
21.51909676726541
 30
0.0
 11
977.3522650176278
 21
23.26909676726541
 31
0.0
  0
ARC
  5
4054
330
1A
100
AcDbEntity
  8
ZUWAKU
100
AcDbCircle
 10
977.8772650176279
 20
21.51909676726541
 30
0.0
 40
0.525
100
AcDbArc
 50
180.0
 51
270.0
  0
ARC
  5
4055
330
1A
100
AcDbEntity
  8
ZUWAKU
100
AcDbCircle
 10
974.2022650176277
 20
21.51909676726541
 30
0.0
 40
0.525
100
AcDbArc
 50
270.0
 51
0.0
  0
ARC
  5
4056
330
1A
100
AcDbEntity
  8
ZUWAKU
100
AcDbCircle
 10
977.8772650176279
 20
23.26909676726541
 30
0.0
 40
0.525
100
AcDbArc
 50
90.0
 51
180.0
  0
LINE
  5
4057
330
1A
100
AcDbEntity
  8
ZUWAKU
100
AcDbLine
 10
977.8772650176279
 20
23.79409676726504
 30
0.0
 11
980.8522650176279
 21
23.79409676726504
 31
0.0
  0
LINE
  5
4058
330
1A
100
AcDbEntity
  8
ZUWAKU
100
AcDbLine
 10
977.8772650176279
 20
20.99409676726486
 30
0.0
 11
981.3772650176279
 21
20.99409676726486
 31
0.0
  0
LINE
  5
4059
330
1A
100
AcDbEntity
  8
ZUWAKU
100
AcDbLine
 10
978.0574165366443
 20
29.5090462609262
 30
0.0
 11
980.9672145112891
 21
26.59924828628141
 31
0.0
  0
LINE
  5
405A
330
1A
100
AcDbEntity
  8
ZUWAKU
100
AcDbLine
 10
982.9471134986116
 20
28.5791472736039
 30
0.0
 11
980.0373155239666
 21
31.48894524824868
 31
0.0
  0
ARC
  5
405B
330
1A
100
AcDbEntity
  8
ZUWAKU
100
AcDbCircle
 10
989.0772650176277
 20
23.79409676726504
 30
0.0
 40
2.799999999999999
100
AcDbArc
 50
180.0
 51
270.0
  0
ARC
  5
405C
330
1A
100
AcDbEntity
  8
ZUWAKU
100
AcDbCircle
 10
981.3772650176279
 20
23.79409676726504
 30
0.0
 40
2.799999999999999
100
AcDbArc
 50
270.0
 51
0.0
  0
LINE
  5
405D
330
1A
100
AcDbEntity
  8
ZUWAKU
100
AcDbLine
 10
972.4522650176277
 20
20.99409676726486
 30
0.0
 11
974.2022650176277
 21
20.99409676726486
 31
0.0
  0
LINE
  5
405E
330
1A
100
AcDbEntity
  8
ZUWAKU
100
AcDbLine
 10
991.527265017628
 20
23.79409676726504
 30
0.0
 11
990.1272650176279
 21
23.79409676726504
 31
0.0
  0
LINE
  5
405F
330
1A
100
AcDbEntity
  8
ZUWAKU
100
AcDbLine
 10
989.0772650176277
 20
20.99409676726486
 30
0.0
 11
992.5772650176277
 21
20.99409676726486
 31
0.0
  0
LINE
  5
4060
330
1A
100
AcDbEntity
  8
ZUWAKU
100
AcDbLine
 10
1010.561682410834
 20
43.84409676726432
 30
0.0
 11
1010.561682410835
 21
14.64409676726541
 31
0.0
  0
LINE
  5
4061
330
1A
100
AcDbEntity
  8
ZUWAKU
100
AcDbLine
 10
1010.761682410835
 20
43.84409676726432
 30
0.0
 11
1010.761682410835
 21
14.64409676726541
 31
0.0
  0
LINE
  5
4062
330
1A
100
AcDbEntity
  8
ZUWAKU
100
AcDbLine
 10
1010.361682410835
 20
43.84409676726432
 30
0.0
 11
1010.361682410835
 21
14.64409676726541
 31
0.0
  0
LINE
  5
4063
330
1A
100
AcDbEntity
  8
ZUWAKU
100
AcDbLine
 10
995.3772650176279
 20
23.79409676726504
 30
0.0
 11
995.3772650176279
 21
36.56909676726468
 31
0.0
  0
LINE
  5
4064
330
1A
100
AcDbEntity
  8
ZUWAKU
100
AcDbLine
 10
992.5772650176277
 20
36.56909676726468
 30
0.0
 11
992.5772650176277
 21
24.84409676726432
 31
0.0
  0
LINE
  5
4065
330
1A
100
AcDbEntity
  8
ZUWAKU
100
AcDbLine
 10
1000.277265017628
 20
21.51909676726541
 30
0.0
 11
1000.277265017628
 21
36.56909676726468
 31
0.0
  0
LINE
  5
4066
330
1A
100
AcDbEntity
  8
ZUWAKU
100
AcDbLine
 10
997.4772650176278
 20
36.56909676726468
 30
0.0
 11
997.4772650176278
 21
21.51909676726541
 31
0.0
  0
ARC
  5
4067
330
1A
100
AcDbEntity
  8
ZUWAKU
100
AcDbCircle
 10
981.027265017628
 20
32.47889474190947
 30
0.0
 40
1.399999999999999
100
AcDbArc
 50
180.0
 51
225.000000000009
  0
ARC
  5
4068
330
1A
100
AcDbEntity
  8
ZUWAKU
100
AcDbCircle
 10
981.027265017628
 20
32.47889474190947
 30
0.0
 40
4.199999999999999
100
AcDbArc
 50
180.0
 51
225.000000000009
  0
LINE
  5
4069
330
1A
100
AcDbEntity
  8
ZUWAKU
100
AcDbLine
 10
974.7272650176277
 20
21.51909676726541
 30
0.0
 11
974.7272650176277
 21
36.56909676726468
 31
0.0
  0
LINE
  5
406A
330
1A
100
AcDbEntity
  8
ZUWAKU
100
AcDbLine
 10
986.277265017628
 20
36.56909676726468
 30
0.0
 11
986.277265017628
 21
23.79409676726504
 31
0.0
  0
LINE
  5
406B
330
1A
100
AcDbEntity
  8
ZUWAKU
100
AcDbLine
 10
989.0772650176277
 20
24.84409676726432
 30
0.0
 11
989.0772650176277
 21
36.56909676726468
 31
0.0
  0
TEXT
  5
406C
330
1A
100
AcDbEntity
  8
moji
100
AcDbText
 10
1024.192842451016
 20
26.58527489753965
 30
0.0
 40
6.0
  1
たてとい アートフェイスＹ６０Ｈ
 41
0.9
  7
ｽﾀｲﾙ1
100
AcDbText
  0
LINE
  5
406D
330
1A
100
AcDbEntity
  8
ZUWAKU
100
AcDbLine
 10
1139.881654152915
 20
29.04409676726505
 30
0.0
 11
1378.659416833838
 21
29.04409676726505
 31
0.0
  0
LINE
  5
406E
330
1A
100
AcDbEntity
  8
ZUWAKU
100
AcDbLine
 10
1139.881654152915
 20
29.44409676726468
 30
0.0
 11
1378.659416833838
 21
29.44409676726468
 31
0.0
  0
LINE
  5
406F
330
1A
100
AcDbEntity
  8
ZUWAKU
100
AcDbLine
 10
1139.881654152915
 20
29.24409676726487
 30
0.0
 11
1378.659416833838
 21
29.24409676726487
 31
0.0
  0
DIMENSION
  5
4070
330
1A
100
AcDbEntity
  8
SUNPOU
100
AcDbDimension
  2
*D14
 10
1124.859133486353
 20
283.5939730036752
 30
0.0
 11
1112.337906167542
 21
306.9243055480415
 31
0.0
 70
    35
 71
     5
 42
5.00164514410693
  3
STANDARD
100
AcDbDiametricDimension
 15
1121.704242641675
 25
287.4750962825386
 35
0.0
 40
0.0
1001
ACAD
1000
DSTYLE
1002
{
1070
    41
1040
7.0
1070
    42
1040
6.0
1070
    43
1040
14.0
1070
    44
1040
3.0
1070
    73
1070
     0
1070
    74
1070
     0
1070
    77
1070
     3
1070
   140
1040
6.0
1070
   141
1040
150.0
1070
   147
1040
2.0
1070
   172
1070
     1
1070
   173
1070
     1
1070
   176
1070
   256
1070
   177
1070
   256
1070
   178
1070
   256
1070
   271
1070
     0
1070
   272
1070
     0
1070
   341
1005
6D
1070
   343
1005
6D
1070
   344
1005
6D
1070
   371
1070
    -1
1070
   372
1070
    -1
1002
}
  0
DIMENSION
  5
4071
330
1A
100
AcDbEntity
  8
SUNPOU
100
AcDbDimension
  2
*D15
 10
1187.779432247721
 20
86.8343060726622
 30
0.0
 11
1182.779432247721
 21
190.1843060726623
 31
0.0
 70
    32
 71
     5
 42
206.6999999999998
  3
STANDARD
100
AcDbAlignedDimension
 13
1139.031688065224
 23
293.5343060726621
 33
0.0
 14
1118.481688065224
 24
86.83430607266222
 34
0.0
 50
90.0
100
AcDbRotatedDimension
1001
ACAD
1000
DSTYLE
1002
{
1070
    41
1040
7.0
1070
    42
1040
6.0
1070
    43
1040
14.0
1070
    44
1040
3.0
1070
    73
1070
     0
1070
    74
1070
     0
1070
    77
1070
     3
1070
   140
1040
6.0
1070
   141
1040
150.0
1070
   147
1040
2.0
1070
   172
1070
     1
1070
   173
1070
     1
1070
   176
1070
   256
1070
   177
1070
   256
1070
   178
1070
   256
1070
   271
1070
     0
1070
   272
1070
     0
1070
   341
1005
6D
1070
   343
1005
6D
1070
   344
1005
6D
1070
   371
1070
    -1
1070
   372
1070
    -1
1002
}
  0
DIMENSION
  5
4072
330
1A
100
AcDbEntity
  8
SUNPOU
100
AcDbDimension
  2
*D16
 10
1168.934573766577
 20
86.83430607266222
 30
0.0
 11
1163.934573766577
 21
108.6843060726623
 31
0.0
 70
    32
 71
     5
 42
43.69999999999983
  3
STANDARD
100
AcDbAlignedDimension
 13
1140.206989824292
 23
130.534306072662
 33
0.0
 14
1119.481688065224
 24
86.83430607266222
 34
0.0
 50
90.0
100
AcDbRotatedDimension
1001
ACAD
1000
DSTYLE
1002
{
1070
    41
1040
7.0
1070
    42
1040
6.0
1070
    43
1040
14.0
1070
    44
1040
3.0
1070
    73
1070
     0
1070
    74
1070
     0
1070
    77
1070
     3
1070
   140
1040
6.0
1070
   141
1040
150.0
1070
   147
1040
2.0
1070
   172
1070
     1
1070
   173
1070
     1
1070
   176
1070
   256
1070
   177
1070
   256
1070
   178
1070
   256
1070
   271
1070
     0
1070
   272
1070
     0
1070
   341
1005
6D
1070
   343
1005
6D
1070
   344
1005
6D
1070
   371
1070
    -1
1070
   372
1070
    -1
1002
}
  0
DIMENSION
  5
4073
330
1A
100
AcDbEntity
  8
SUNPOU
100
AcDbDimension
  2
*D17
 10
1169.213451583816
 20
278.534306072662
 30
0.0
 11
1164.213451583816
 21
286.0343060726622
 31
0.0
 70
    32
 71
     5
 42
15.0
  3
STANDARD
100
AcDbAlignedDimension
 13
1139.031688065224
 23
293.5343060726621
 33
0.0
 14
1143.281688065224
 24
278.5343060726621
 34
0.0
 50
90.0
100
AcDbRotatedDimension
1001
ACAD
1000
DSTYLE
1002
{
1070
    41
1040
7.0
1070
    42
1040
6.0
1070
    43
1040
14.0
1070
    44
1040
3.0
1070
    73
1070
     0
1070
    74
1070
     0
1070
    77
1070
     3
1070
   140
1040
6.0
1070
   141
1040
150.0
1070
   147
1040
2.0
1070
   172
1070
     1
1070
   173
1070
     1
1070
   176
1070
   256
1070
   177
1070
   256
1070
   178
1070
   256
1070
   271
1070
     0
1070
   272
1070
     0
1070
   341
1005
6D
1070
   343
1005
6D
1070
   344
1005
6D
1070
   371
1070
    -1
1070
   372
1070
    -1
1002
}
  0
DIMENSION
  5
4074
330
1A
100
AcDbEntity
  8
SUNPOU
100
AcDbDimension
  2
*D18
 10
1169.213451583816
 20
130.5343060726611
 30
0.0
 11
1164.213451583816
 21
204.5343060726617
 31
0.0
 70
    32
 71
     5
 42
148.0000000000009
  3
STANDARD
100
AcDbAlignedDimension
 13
1144.281688065224
 23
278.5343060726621
 33
0.0
 14
1140.20698982429
 24
130.5343060726611
 34
0.0
 50
90.0
100
AcDbRotatedDimension
1001
ACAD
1000
DSTYLE
1002
{
1070
    41
1040
7.0
1070
    42
1040
6.0
1070
    43
1040
14.0
1070
    44
1040
3.0
1070
    73
1070
     0
1070
    74
1070
     0
1070
    77
1070
     3
1070
   140
1040
6.0
1070
   141
1040
150.0
1070
   147
1040
2.0
1070
   172
1070
     1
1070
   173
1070
     1
1070
   176
1070
   256
1070
   177
1070
   256
1070
   178
1070
   256
1070
   271
1070
     0
1070
   272
1070
     0
1070
   341
1005
6D
1070
   343
1005
6D
1070
   344
1005
6D
1070
   371
1070
    -1
1070
   372
1070
    -1
1002
}
  0
DIMENSION
  5
4075
330
1A
100
AcDbEntity
  8
SUNPOU
100
AcDbDimension
  2
*D19
 10
1510.864855379096
 20
250.718434929204
 30
0.0
 11
1474.864855679808
 21
255.718434929204
 31
0.0
 70
    32
 71
     5
 42
71.99999939857616
  3
STANDARD
100
AcDbAlignedDimension
 13
1438.86485598052
 23
250.718434929204
 33
0.0
 14
1510.864855379096
 24
250.718434929204
 34
0.0
100
AcDbRotatedDimension
1001
ACAD
1000
DSTYLE
1002
{
1070
    41
1040
7.0
1070
    42
1040
6.0
1070
    43
1040
14.0
1070
    44
1040
3.0
1070
    73
1070
     0
1070
    74
1070
     0
1070
    77
1070
     3
1070
   140
1040
6.0
1070
   141
1040
150.0
1070
   147
1040
2.0
1070
   172
1070
     1
1070
   173
1070
     1
1070
   176
1070
   256
1070
   177
1070
   256
1070
   178
1070
   256
1070
   271
1070
     0
1070
   272
1070
     0
1070
   341
1005
6D
1070
   343
1005
6D
1070
   344
1005
6D
1070
   371
1070
    -1
1070
   372
1070
    -1
1002
}
  0
DIMENSION
  5
4076
330
1A
100
AcDbEntity
  8
SUNPOU
100
AcDbDimension
  2
*D20
 10
1551.272843496047
 20
195.499395942805
 30
0.0
 11
1546.272843496047
 21
236.0692162025185
 31
0.0
 70
    32
 71
     5
 42
81.13964051942639
  3
STANDARD
100
AcDbAlignedDimension
 13
1515.976557466482
 23
276.6390364622314
 33
0.0
 14
1474.864855980524
 24
195.499395942805
 34
0.0
 50
90.0
100
AcDbRotatedDimension
1001
ACAD
1000
DSTYLE
1002
{
1070
    41
1040
7.0
1070
    42
1040
6.0
1070
    43
1040
14.0
1070
    44
1040
3.0
1070
    73
1070
     0
1070
    74
1070
     0
1070
    77
1070
     3
1070
   140
1040
6.0
1070
   141
1040
150.0
1070
   147
1040
2.0
1070
   172
1070
     1
1070
   173
1070
     1
1070
   176
1070
   256
1070
   177
1070
   256
1070
   178
1070
   256
1070
   271
1070
     0
1070
   272
1070
     0
1070
   341
1005
6D
1070
   343
1005
6D
1070
   344
1005
6D
1070
   371
1070
    -1
1070
   372
1070
    -1
1002
}
  0
DIMENSION
  5
4077
330
1A
100
AcDbEntity
  8
SUNPOU
100
AcDbDimension
  2
*D21
 10
1474.86485598052
 20
231.5343060726639
 30
0.0
 11
1467.954695750172
 21
221.6809438330679
 31
0.0
 70
   164
 71
     5
 42
36.03491012985887
  3
STANDARD
100
AcDbRadialDimension
 15
1454.17446442822
 25
202.0313834127049
 35
0.0
 40
0.0
1001
ACAD
1000
DSTYLE
1002
{
1070
    41
1040
7.0
1070
    42
1040
6.0
1070
    43
1040
14.0
1070
    44
1040
3.0
1070
    73
1070
     0
1070
    74
1070
     0
1070
    77
1070
     3
1070
   140
1040
6.0
1070
   141
1040
150.0
1070
   147
1040
2.0
1070
   172
1070
     1
1070
   173
1070
     1
1070
   176
1070
   256
1070
   177
1070
   256
1070
   178
1070
   256
1070
   271
1070
     0
1070
   272
1070
     0
1070
   341
1005
6D
1070
   343
1005
6D
1070
   344
1005
6D
1070
   371
1070
    -1
1070
   372
1070
    -1
1002
}
  0
DIMENSION
  5
4079
330
1A
100
AcDbEntity
  8
SUNPOU
100
AcDbDimension
  2
*D22
 10
1507.364855980519
 20
313.0573226689723
 30
0.0
 11
1474.864855980519
 21
318.0573226689724
 31
0.0
 70
    32
 71
     5
 42
65.0
  3
STANDARD
100
AcDbAlignedDimension
 13
1442.364855980519
 23
285.5343060726621
 33
0.0
 14
1507.364855980519
 24
285.5343060726621
 34
0.0
100
AcDbRotatedDimension
1001
ACAD
1000
DSTYLE
1002
{
1070
    41
1040
7.0
1070
    42
1040
6.0
1070
    43
1040
14.0
1070
    44
1040
3.0
1070
    73
1070
     0
1070
    74
1070
     0
1070
    77
1070
     3
1070
   140
1040
6.0
1070
   141
1040
150.0
1070
   147
1040
2.0
1070
   172
1070
     1
1070
   173
1070
     1
1070
   176
1070
   256
1070
   177
1070
   256
1070
   178
1070
   256
1070
   271
1070
     0
1070
   272
1070
     0
1070
   341
1005
6D
1070
   343
1005
6D
1070
   344
1005
6D
1070
   371
1070
    -1
1070
   372
1070
    -1
1002
}
  0
TEXT
  5
4141
330
1A
100
AcDbEntity
  8
moji
100
AcDbText
 10
1459.275960835159
 20
31.84901782467273
 30
0.0
 40
5.599999999999999
  1
Ａ３
 41
0.9
  7
ｽﾀｲﾙ1
100
AcDbText
  0
TEXT
  5
4142
330
1A
100
AcDbEntity
  8
moji
100
AcDbText
 10
1459.275960835159
 20
17.04901782467276
 30
0.0
 40
5.599999999999999
  1
１/２
 41
0.9
  7
ｽﾀｲﾙ1
100
AcDbText
  0
DIMENSION
  5
41A3
330
1A
100
AcDbEntity
  8
SUNPOU
100
AcDbDimension
  2
*D25
 10
1175.564683099129
 20
377.1933488451431
 30
0.0
 11
1170.564683099129
 21
429.6933488451434
 31
0.0
 70
    32
 71
     5
 42
105.0
  3
STANDARD
100
AcDbAlignedDimension
 13
1139.031688065223
 23
482.1933488451431
 33
0.0
 14
1090.781688065223
 24
377.1933488451432
 34
0.0
 50
90.0
100
AcDbRotatedDimension
1001
ACAD
1000
DSTYLE
1002
{
1070
    41
1040
7.0
1070
    42
1040
6.0
1070
    43
1040
14.0
1070
    44
1040
3.0
1070
    73
1070
     0
1070
    74
1070
     0
1070
    77
1070
     3
1070
   140
1040
6.0
1070
   141
1040
150.0
1070
   147
1040
2.0
1070
   172
1070
     1
1070
   173
1070
     1
1070
   176
1070
   256
1070
   177
1070
   256
1070
   178
1070
   256
1070
   271
1070
     0
1070
   272
1070
     0
1070
   341
1005
6D
1070
   343
1005
6D
1070
   344
1005
6D
1070
   371
1070
    -1
1070
   372
1070
    -1
1002
}
  0
LINE
  5
420B
330
1A
100
AcDbEntity
  8
CENTER_L
  6
CENTER
 62
     1
 48
5.0
100
AcDbLine
 10
1090.781688065223
 20
368.8092392264641
 30
0.0
 11
1090.781688065223
 21
491.0799104068295
 31
0.0
  0
LINE
  5
420C
330
1A
100
AcDbEntity
  8
CENTER_L
  6
CENTER
 62
     1
 48
5.0
100
AcDbLine
 10
1090.781688065223
 20
307.702375619287
 30
0.0
 11
1090.781688065223
 21
71.36697736951737
 31
0.0
  0
DIMENSION
  5
420D
330
1A
100
AcDbEntity
  8
SUNPOU
100
AcDbDimension
  2
*D26
 10
1143.155808097647
 20
324.651301147014
 30
0.0
 11
1090.718748081436
 21
329.651301147014
 31
0.0
 70
    32
 71
     5
 42
104.874120032423
  3
STANDARD
100
AcDbAlignedDimension
 13
1038.281688065224
 23
278.5343060726621
 33
0.0
 14
1143.155808097647
 24
278.5343060726621
 34
0.0
100
AcDbRotatedDimension
1001
ACAD
1000
DSTYLE
1002
{
1070
    41
1040
7.0
1070
    42
1040
6.0
1070
    43
1040
14.0
1070
    44
1040
3.0
1070
    73
1070
     0
1070
    74
1070
     0
1070
    77
1070
     3
1070
   140
1040
6.0
1070
   141
1040
150.0
1070
   147
1040
2.0
1070
   172
1070
     1
1070
   173
1070
     1
1070
   176
1070
   256
1070
   177
1070
   256
1070
   178
1070
   256
1070
   271
1070
     0
1070
   272
1070
     0
1070
   341
1005
6D
1070
   343
1005
6D
1070
   344
1005
6D
1070
   371
1070
    -1
1070
   372
1070
    -1
1002
}
  0
LINE
  5
4233
330
1A
100
AcDbEntity
  8
CENTER_L
  6
CENTER
 62
     1
 48
5.0
100
AcDbLine
 10
1306.498864651099
 20
142.9159908413535
 30
0.0
 11
1306.498864651099
 21
77.8822574220043
 31
0.0
  0
LINE
  5
4234
330
1A
100
AcDbEntity
  8
CENTER_L
  6
CENTER
 62
     1
 48
5.0
100
AcDbLine
 10
1474.990735948096
 20
307.702375619287
 30
0.0
 11
1474.990735948096
 21
71.36697736951737
 31
0.0
  0
VIEWPORT
  5
22
102
{ACAD_XDICTIONARY
360
4264
102
}
330
17
100
AcDbEntity
 67
     1
  8
0
100
AcDbViewport
 10
262.8089912316417
 20
189.7975432183186
 30
0.0
 40
767.8616624080452
 41
501.7205555369317
 68
     1
 69
     1
 12
262.8089912316417
 22
189.7975432183186
 13
0.0
 23
0.0
 14
1.0
 24
1.0
 15
10.0
 25
10.0
 16
0.0
 26
0.0
 36
1.0
 17
0.0
 27
0.0
 37
0.0
 42
50.0
 43
0.0
 44
0.0
 45
501.7205555369317
 50
0.0
 51
0.0
 72
   100
 90
    32768
  1

281
     0
 71
     1
 74
     0
110
0.0
120
0.0
130
0.0
111
1.0
121
0.0
131
0.0
112
0.0
122
1.0
132
0.0
 79
     0
146
0.0
  0
VIEWPORT
  5
64
102
{ACAD_XDICTIONARY
360
4266
102
}
330
17
100
AcDbEntity
 67
     1
  8
VIEWPORT
100
AcDbViewport
 10
210.1193732775702
 20
162.2719511221669
 30
0.0
 40
432.4281062773823
 41
324.5439022443338
 68
     2
 69
     2
 12
1330.277572470336
 22
290.4176929230871
 13
0.0
 23
0.0
 14
10.0
 24
10.0
 15
0.0
 25
0.0
 16
0.0
 26
0.0
 36
1.0
 17
0.0
 27
0.0
 37
0.0
 42
50.0
 43
0.0
 44
0.0
 45
621.4971238888353
 50
0.0
 51
0.0
 72
   100
 90
    32768
  1

281
     0
 71
     1
 74
     0
110
0.0
120
0.0
130
0.0
111
1.0
121
0.0
131
0.0
112
0.0
122
1.0
132
0.0
 79
     0
146
0.0
  0
ENDSEC
  0
SECTION
  2
OBJECTS
  0
DICTIONARY
  5
C
330
0
100
AcDbDictionary
281
     1
  3
ACAD_COLOR
350
3083
  3
ACAD_GROUP
350
D
  3
ACAD_LAYOUT
350
674
  3
ACAD_MATERIAL
350
3082
  3
ACAD_MLINESTYLE
350
E
  3
ACAD_PLOTSETTINGS
350
675
  3
ACAD_PLOTSTYLENAME
350
672
  3
ACDBHEADERROUNDTRIPXREC
350
4261
  3
AcDbVariableDictionary
350
4244
  0
DICTIONARY
  5
32B7
330
2
100
AcDbDictionary
280
     1
281
     1
  3
ACAD_LAYERSTATES
360
32B8
  0
DICTIONARY
  5
32B3
330
32B2
100
AcDbDictionary
280
     1
281
     1
  3
ADSK_XREC_LAYER_RECONCILED
360
32B4
  0
DICTIONARY
  5
6A3
330
1A
100
AcDbDictionary
280
     1
281
     1
  3
ACAD_LAYOUTSELFREF
360
3054
  0
DICTIONARY
  5
6A1
330
17
100
AcDbDictionary
280
     1
281
     1
  3
ACAD_LAYOUTSELFREF
360
3053
  0
DICTIONARY
  5
3DC4
330
3DC3
100
AcDbDictionary
280
     1
281
     1
  3
ACAD_DIMASSOC
360
3DC5
  0
DICTIONARY
  5
3DC7
330
3DC6
100
AcDbDictionary
280
     1
281
     1
  3
ACAD_DIMASSOC
360
3DC8
  0
DICTIONARY
  5
4264
330
22
100
AcDbDictionary
280
     1
281
     1
  3
ACAD_XREC_ROUNDTRIP
360
4265
  0
DICTIONARY
  5
4266
330
64
100
AcDbDictionary
280
     1
281
     1
  3
ACAD_XREC_ROUNDTRIP
360
4267
  0
DICTIONARY
  5
3083
102
{ACAD_REACTORS
330
C
102
}
330
C
100
AcDbDictionary
281
     1
  0
DICTIONARY
  5
D
102
{ACAD_REACTORS
330
C
102
}
330
C
100
AcDbDictionary
281
     1
  0
DICTIONARY
  5
674
102
{ACAD_REACTORS
330
C
102
}
330
C
100
AcDbDictionary
281
     1
  3
Model
350
676
  3
ﾚｲｱｳﾄ1
350
677
  0
DICTIONARY
  5
3082
102
{ACAD_REACTORS
330
C
102
}
330
C
100
AcDbDictionary
281
     1
  0
DICTIONARY
  5
E
102
{ACAD_REACTORS
330
C
102
}
330
C
100
AcDbDictionary
281
     1
  3
STANDARD
350
13
  0
DICTIONARY
  5
675
102
{ACAD_REACTORS
330
C
102
}
330
C
100
AcDbDictionary
281
     1
  0
ACDBDICTIONARYWDFLT
  5
672
102
{ACAD_REACTORS
330
C
102
}
330
C
100
AcDbDictionary
281
     1
  3
Normal
350
673
100
AcDbDictionaryWithDefault
340
673
1001
ACAD
1000
TREAT_AS_HARD
1070
     0
1000
TREAT_AS_HARD
1070
     0
1000
TREAT_AS_HARD
1070
     0
1000
TREAT_AS_HARD
1070
     0
1000
TREAT_AS_HARD
1070
     0
  0
DICTIONARY
  5
4261
102
{ACAD_REACTORS
330
C
102
}
330
C
100
AcDbDictionary
281
     1
  3
COLORDICT
350
4263
  3
MATERIALDICT
350
4262
  0
DICTIONARY
  5
4244
102
{ACAD_REACTORS
330
C
102
}
330
C
100
AcDbDictionary
281
     1
  3
DIMASSOC
350
4245
  3
PROJECTNAME
350
4246
  0
DICTIONARY
  5
32B8
102
{ACAD_REACTORS
330
32B7
102
}
330
32B7
100
AcDbDictionary
281
     1
  0
XRECORD
  5
32B4
102
{ACAD_REACTORS
330
32B3
102
}
330
32B3
100
AcDbXrecord
280
     1
290
     1
  0
XRECORD
  5
3054
102
{ACAD_REACTORS
330
6A3
102
}
330
6A3
100
AcDbXrecord
280
     1
340
1A
  0
XRECORD
  5
3053
102
{ACAD_REACTORS
330
6A1
102
}
330
6A1
100
AcDbXrecord
280
     1
340
17
  0
DIMASSOC
  5
3DC5
102
{ACAD_REACTORS
330
3DC4
102
}
330
3DC4
100
AcDbDimAssoc
330
3DC3
 90
        3
 70
     0
 71
     0
  1
AcDbOsnapPointRef
 72
    13
331
3E6C
 73
     2
 91
        0
 40
0.0
 10
0.0
 20
0.0
 30
2.000000000000000E+50
 75
     0
  1
AcDbOsnapPointRef
 72
     2
331
3E5E
 73
     2
 91
        0
 40
0.5
 10
0.0
 20
0.0
 30
0.0
 75
     0
  0
DIMASSOC
  5
3DC8
102
{ACAD_REACTORS
330
3DC7
102
}
330
3DC7
100
AcDbDimAssoc
330
3DC6
 90
        3
 70
     0
 71
     0
  1
AcDbOsnapPointRef
 72
     1
331
3E16
 73
     2
 91
        0
 40
1.0
 10
0.0
 20
0.0
 30
2.000000000000000E+50
 75
     0
  1
AcDbOsnapPointRef
 72
    11
331
3E12
 73
     2
 91
        0
 40
0.0000000000000214
 10
0.0
 20
0.0
 30
0.0
332
3E14
 74
     2
 92
        0
 75
     0
  0
XRECORD
  5
4265
102
{ACAD_REACTORS
330
4264
102
}
330
4264
100
AcDbXrecord
280
     1
102
SHADEPLOT
 70
     0
  0
XRECORD
  5
4267
102
{ACAD_REACTORS
330
4266
102
}
330
4266
100
AcDbXrecord
280
     1
102
SHADEPLOT
 70
     0
  0
LAYOUT
  5
676
102
{ACAD_XDICTIONARY
360
4268
102
}
102
{ACAD_REACTORS
330
674
102
}
330
674
100
AcDbPlotSettings
  1

  2
Acrobat Distiller
  4
A3
  6

 40
3.174999952316284
 41
3.174999952316284
 42
3.17498779296875
 43
3.17498779296875
 44
297.0318298339844
 45
420.1583251953125
 46
0.0
 47
0.0
 48
-33.76845281574833
 49
-14.97380759834459
140
814.9805907970753
141
567.90316502265
142
1.0
143
2.0
 70
 11952
 72
     1
 73
     1
 74
     2
  7
print.ctb
 75
    17
147
0.5
148
0.0
149
0.0
100
AcDbLayout
  1
Model
 70
     1
 71
     0
 10
0.0
 20
0.0
 11
12.0
 21
9.0
 12
0.0
 22
0.0
 32
0.0
 14
0.0
 24
0.0
 34
0.0
 15
0.0
 25
0.0
 35
0.0
146
0.0
 13
0.0
 23
0.0
 33
0.0
 16
1.0
 26
0.0
 36
0.0
 17
0.0
 27
1.0
 37
0.0
 76
     0
330
1A
  0
LAYOUT
  5
677
102
{ACAD_XDICTIONARY
360
426A
102
}
102
{ACAD_REACTORS
330
674
102
}
330
674
100
AcDbPlotSettings
  1

  2
none_device
  4
Letter_(8.50_x_11.00_Inches)
  6

 40
6.349999904632568
 41
6.349999904632568
 42
6.350006103515625
 43
6.350006103515625
 44
215.8999938964844
 45
279.3999938964844
 46
0.0
 47
0.0
 48
0.0
 49
0.0
140
0.0
141
0.0
142
1.0
143
1.574899339483712
 70
   688
 72
     1
 73
     1
 74
     1
  7
print.ctb
 75
     0
147
0.6349612162056162
148
0.0128164049386896
149
0.0090630292066862
100
AcDbLayout
  1
ﾚｲｱｳﾄ1
 70
     1
 71
     1
 10
-10.01343682308299
 20
-10.00967368473416
 11
430.0134290162437
 21
330.0110840973768
 12
0.0
 22
0.0
 32
0.0
 14
-6.094679861120994
 24
-0.0090630292066862
 34
-0.0015258207003583
 15
426.3334264162613
 25
336.6913888801773
 35
0.0000000349246037
146
0.0
 13
0.0
 23
0.0
 33
0.0
 16
1.0
 26
0.0
 36
0.0
 17
0.0
 27
1.0
 37
0.0
 76
     0
330
17
331
22
  0
MLINESTYLE
  5
13
102
{ACAD_REACTORS
330
E
102
}
330
E
100
AcDbMlineStyle
  2
STANDARD
 70
     0
  3

 62
     0
 51
90.0
 52
90.0
 71
     2
 49
0.5
 62
   256
  6
BYLAYER
 49
-0.5
 62
   256
  6
BYLAYER
  0
ACDBPLACEHOLDER
  5
673
102
{ACAD_REACTORS
330
672
102
}
330
672
  0
XRECORD
  5
4263
102
{ACAD_REACTORS
330
4261
102
}
330
4261
100
AcDbXrecord
280
     1
340
3083
  0
XRECORD
  5
4262
102
{ACAD_REACTORS
330
4261
102
}
330
4261
100
AcDbXrecord
280
     1
340
3082
  0
DICTIONARYVAR
  5
4245
102
{ACAD_REACTORS
330
4244
102
}
330
4244
100
DictionaryVariables
280
     0
  1
1
  0
DICTIONARYVAR
  5
4246
102
{ACAD_REACTORS
330
4244
102
}
330
4244
100
DictionaryVariables
280
     0
  1

  0
DICTIONARY
  5
4268
330
676
100
AcDbDictionary
280
     1
281
     1
  3
ACAD_XREC_ROUNDTRIP
360
4269
  0
DICTIONARY
  5
426A
330
677
100
AcDbDictionary
280
     1
281
     1
  3
ACAD_XREC_ROUNDTRIP
360
426B
  0
XRECORD
  5
4269
102
{ACAD_REACTORS
330
4268
102
}
330
4268
100
AcDbXrecord
280
     1
102
SHADEPLOT
 70
     0
102
SHADEPLOTRESLEVEL
 70
     2
102
SHADEPLOTCUSTOMDPI
 70
   300
  0
XRECORD
  5
426B
102
{ACAD_REACTORS
330
426A
102
}
330
426A
100
AcDbXrecord
280
     1
102
SHADEPLOT
 70
     0
102
SHADEPLOTRESLEVEL
 70
     2
102
SHADEPLOTCUSTOMDPI
 70
   300
  0
ENDSEC
  0
EOF
