  0
SECTION
  2
HEADER
  9
$ACADVER
  1
AC1015
  9
$ACADMAINTVER
 70
    20
  9
$DWGCODEPAGE
  3
ANSI_932
  9
$INSBASE
 10
0.0
 20
0.0
 30
0.0
  9
$EXTMIN
 10
5.828893922609438
 20
7.162499999999996
 30
0.0
  9
$EXTMAX
 10
404.6288939226093
 20
282.9625
 30
0.0
  9
$LIMMIN
 10
0.0
 20
0.0
  9
$LIMMAX
 10
420.0
 20
297.0
  9
$ORTHOMODE
 70
     1
  9
$REGENMODE
 70
     1
  9
$FILLMODE
 70
     1
  9
$QTEXTMODE
 70
     0
  9
$MIRRTEXT
 70
     1
  9
$LTSCALE
 40
1.0
  9
$ATTMODE
 70
     1
  9
$TEXTSIZE
 40
2.5
  9
$TRACEWID
 40
1.0
  9
$TEXTSTYLE
  7
STANDARD
  9
$CLAYER
  8
0
  9
$CELTYPE
  6
BYLAYER
  9
$CECOLOR
 62
   256
  9
$CELTSCALE
 40
5.0
  9
$DISPSILH
 70
     0
  9
$DIMSCALE
 40
1.0
  9
$DIMASZ
 40
3.0
  9
$DIMEXO
 40
3.0
  9
$DIMDLI
 40
7.0
  9
$DIMRND
 40
0.0
  9
$DIMDLE
 40
0.0
  9
$DIMEXE
 40
1.5
  9
$DIMTP
 40
0.0
  9
$DIMTM
 40
0.0
  9
$DIMTXT
 40
3.0
  9
$DIMCEN
 40
150.0
  9
$DIMTSZ
 40
0.0
  9
$DIMTOL
 70
     0
  9
$DIMLIM
 70
     0
  9
$DIMTIH
 70
     0
  9
$DIMTOH
 70
     0
  9
$DIMSE1
 70
     0
  9
$DIMSE2
 70
     0
  9
$DIMTAD
 70
     3
  9
$DIMZIN
 70
     0
  9
$DIMBLK
  1

  9
$DIMASO
 70
     1
  9
$DIMSHO
 70
     1
  9
$DIMPOST
  1

  9
$DIMAPOST
  1

  9
$DIMALT
 70
     0
  9
$DIMALTD
 70
     2
  9
$DIMALTF
 40
25.4
  9
$DIMLFAC
 40
1.0
  9
$DIMTOFL
 70
     1
  9
$DIMTVP
 40
0.0
  9
$DIMTIX
 70
     0
  9
$DIMSOXD
 70
     0
  9
$DIMSAH
 70
     1
  9
$DIMBLK1
  1
OPEN
  9
$DIMBLK2
  1
OPEN
  9
$DIMSTYLE
  2
STANDARD
  9
$DIMCLRD
 70
   256
  9
$DIMCLRE
 70
   256
  9
$DIMCLRT
 70
   256
  9
$DIMTFAC
 40
1.0
  9
$DIMGAP
 40
1.0
  9
$DIMJUST
 70
     0
  9
$DIMSD1
 70
     0
  9
$DIMSD2
 70
     0
  9
$DIMTOLJ
 70
     1
  9
$DIMTZIN
 70
     0
  9
$DIMALTZ
 70
     0
  9
$DIMALTTZ
 70
     0
  9
$DIMUPT
 70
     0
  9
$DIMDEC
 70
     0
  9
$DIMTDEC
 70
     0
  9
$DIMALTU
 70
     2
  9
$DIMALTTD
 70
     2
  9
$DIMTXSTY
  7
STANDARD
  9
$DIMAUNIT
 70
     0
  9
$DIMADEC
 70
     0
  9
$DIMALTRND
 40
0.0
  9
$DIMAZIN
 70
     0
  9
$DIMDSEP
 70
    46
  9
$DIMATFIT
 70
     3
  9
$DIMFRAC
 70
     0
  9
$DIMLDRBLK
  1
OPEN
  9
$DIMLUNIT
 70
     2
  9
$DIMLWD
 70
    -2
  9
$DIMLWE
 70
    -2
  9
$DIMTMOVE
 70
     0
  9
$LUNITS
 70
     2
  9
$LUPREC
 70
     4
  9
$SKETCHINC
 40
1.0
  9
$FILLETRAD
 40
0.8
  9
$AUNITS
 70
     0
  9
$AUPREC
 70
     0
  9
$MENU
  1
.
  9
$ELEVATION
 40
0.0
  9
$PELEVATION
 40
0.0
  9
$THICKNESS
 40
0.0
  9
$LIMCHECK
 70
     0
  9
$CHAMFERA
 40
10.0
  9
$CHAMFERB
 40
10.0
  9
$CHAMFERC
 40
20.0
  9
$CHAMFERD
 40
0.0
  9
$SKPOLY
 70
     0
  9
$TDCREATE
 40
2451278.675375000
  9
$TDUCREATE
 40
2451278.300375000
  9
$TDUPDATE
 40
2456912.605668750
  9
$TDUUPDATE
 40
2456912.230668750
  9
$TDINDWG
 40
0.1437401505
  9
$TDUSRTIMER
 40
0.1437401505
  9
$USRTIMER
 70
     1
  9
$ANGBASE
 50
0.0
  9
$ANGDIR
 70
     0
  9
$PDMODE
 70
     0
  9
$PDSIZE
 40
0.0
  9
$PLINEWID
 40
0.0
  9
$SPLFRAME
 70
     0
  9
$SPLINETYPE
 70
     6
  9
$SPLINESEGS
 70
     8
  9
$HANDSEED
  5
3FFB
  9
$SURFTAB1
 70
     6
  9
$SURFTAB2
 70
     6
  9
$SURFTYPE
 70
     6
  9
$SURFU
 70
     6
  9
$SURFV
 70
     6
  9
$UCSBASE
  2

  9
$UCSNAME
  2

  9
$UCSORG
 10
0.0
 20
0.0
 30
0.0
  9
$UCSXDIR
 10
1.0
 20
0.0
 30
0.0
  9
$UCSYDIR
 10
0.0
 20
1.0
 30
0.0
  9
$UCSORTHOREF
  2

  9
$UCSORTHOVIEW
 70
     0
  9
$UCSORGTOP
 10
0.0
 20
0.0
 30
0.0
  9
$UCSORGBOTTOM
 10
0.0
 20
0.0
 30
0.0
  9
$UCSORGLEFT
 10
0.0
 20
0.0
 30
0.0
  9
$UCSORGRIGHT
 10
0.0
 20
0.0
 30
0.0
  9
$UCSORGFRONT
 10
0.0
 20
0.0
 30
0.0
  9
$UCSORGBACK
 10
0.0
 20
0.0
 30
0.0
  9
$PUCSBASE
  2

  9
$PUCSNAME
  2

  9
$PUCSORG
 10
0.0
 20
0.0
 30
0.0
  9
$PUCSXDIR
 10
1.0
 20
0.0
 30
0.0
  9
$PUCSYDIR
 10
0.0
 20
1.0
 30
0.0
  9
$PUCSORTHOREF
  2

  9
$PUCSORTHOVIEW
 70
     0
  9
$PUCSORGTOP
 10
0.0
 20
0.0
 30
0.0
  9
$PUCSORGBOTTOM
 10
0.0
 20
0.0
 30
0.0
  9
$PUCSORGLEFT
 10
0.0
 20
0.0
 30
0.0
  9
$PUCSORGRIGHT
 10
0.0
 20
0.0
 30
0.0
  9
$PUCSORGFRONT
 10
0.0
 20
0.0
 30
0.0
  9
$PUCSORGBACK
 10
0.0
 20
0.0
 30
0.0
  9
$USERI1
 70
     0
  9
$USERI2
 70
     0
  9
$USERI3
 70
     0
  9
$USERI4
 70
     0
  9
$USERI5
 70
     0
  9
$USERR1
 40
0.0
  9
$USERR2
 40
0.0
  9
$USERR3
 40
0.0
  9
$USERR4
 40
0.0
  9
$USERR5
 40
0.0
  9
$WORLDVIEW
 70
     1
  9
$SHADEDGE
 70
     3
  9
$SHADEDIF
 70
    70
  9
$TILEMODE
 70
     1
  9
$MAXACTVP
 70
    16
  9
$PINSBASE
 10
0.0
 20
0.0
 30
0.0
  9
$PLIMCHECK
 70
     0
  9
$PEXTMIN
 10
0.0
 20
0.0
 30
0.0
  9
$PEXTMAX
 10
420.0
 20
297.0
 30
0.0
  9
$PLIMMIN
 10
0.0
 20
0.0
  9
$PLIMMAX
 10
420.0
 20
297.0
  9
$UNITMODE
 70
     0
  9
$VISRETAIN
 70
     0
  9
$PLINEGEN
 70
     0
  9
$PSLTSCALE
 70
     1
  9
$TREEDEPTH
 70
  3020
  9
$CMLSTYLE
  2
STANDARD
  9
$CMLJUST
 70
     0
  9
$CMLSCALE
 40
1.0
  9
$PROXYGRAPHICS
 70
     1
  9
$MEASUREMENT
 70
     0
  9
$CELWEIGHT
370
    -1
  9
$ENDCAPS
280
     0
  9
$JOINSTYLE
280
     0
  9
$LWDISPLAY
290
     0
  9
$INSUNITS
 70
     0
  9
$HYPERLINKBASE
  1

  9
$STYLESHEET
  1
print.ctb
  9
$XEDIT
290
     1
  9
$CEPSNTYPE
380
     0
  9
$PSTYLEMODE
290
     1
  9
$FINGERPRINTGUID
  2
{171CFB16-CA74-48AB-967C-8BA73B8CA228}
  9
$VERSIONGUID
  2
{7B5897CA-8B46-444C-A7B0-CF232E4C000C}
  9
$EXTNAMES
290
     1
  9
$PSVPSCALE
 40
0.0
  9
$OLESTARTUP
290
     0
  0
ENDSEC
  0
SECTION
  2
CLASSES
  0
CLASS
  1
ACDBDICTIONARYWDFLT
  2
AcDbDictionaryWithDefault
  3
ObjectDBX Classes
 90
        0
280
     0
281
     0
  0
CLASS
  1
ACDBPLACEHOLDER
  2
AcDbPlaceHolder
  3
ObjectDBX Classes
 90
        0
280
     0
281
     0
  0
CLASS
  1
LAYOUT
  2
AcDbLayout
  3
ObjectDBX Classes
 90
        0
280
     0
281
     0
  0
CLASS
  1
DICTIONARYVAR
  2
AcDbDictionaryVar
  3
ObjectDBX Classes
 90
        0
280
     0
281
     0
  0
ENDSEC
  0
SECTION
  2
TABLES
  0
TABLE
  2
VPORT
  5
8
330
0
100
AcDbSymbolTable
 70
     2
  0
VPORT
  5
3FEF
330
8
100
AcDbSymbolTableRecord
100
AcDbViewportTableRecord
  2
*Active
 70
     0
 10
0.0
 20
0.0
 11
1.0
 21
1.0
 12
266.4647191273388
 22
145.6472994434081
 13
0.0
 23
0.0
 14
5.0
 24
5.0
 15
0.0
 25
0.0
 16
0.0
 26
0.0
 36
1.0
 17
0.0
 27
0.0
 37
0.0
 40
296.4362291207912
 41
2.011264080100125
 42
50.0
 43
0.0
 44
0.0
 50
0.0
 51
0.0
 71
     0
 72
   100
 73
     1
 74
     0
 75
     0
 76
     0
 77
     0
 78
     0
281
     0
 65
     1
110
0.0
120
0.0
130
0.0
111
1.0
121
0.0
131
0.0
112
0.0
122
1.0
132
0.0
 79
     0
146
0.0
  0
ENDTAB
  0
TABLE
  2
LTYPE
  5
5
330
0
100
AcDbSymbolTable
 70
     2
  0
LTYPE
  5
14
330
5
100
AcDbSymbolTableRecord
100
AcDbLinetypeTableRecord
  2
BYBLOCK
 70
     0
  3

 72
    65
 73
     0
 40
0.0
  0
LTYPE
  5
15
330
5
100
AcDbSymbolTableRecord
100
AcDbLinetypeTableRecord
  2
BYLAYER
 70
     0
  3

 72
    65
 73
     0
 40
0.0
  0
LTYPE
  5
16
330
5
100
AcDbSymbolTableRecord
100
AcDbLinetypeTableRecord
  2
CONTINUOUS
 70
     0
  3
Solid line
 72
    65
 73
     0
 40
0.0
  0
LTYPE
  5
120
330
5
100
AcDbSymbolTableRecord
100
AcDbLinetypeTableRecord
  2
CENTER
 70
     0
  3
____ _ ____ _ ____ _ ____ _ ____ _ ____ _ ____ 
 72
    65
 73
     4
 40
2.0
 49
1.25
 74
     0
 49
-0.25
 74
     0
 49
0.25
 74
     0
 49
-0.25
 74
     0
  0
ENDTAB
  0
TABLE
  2
LAYER
  5
2
330
0
100
AcDbSymbolTable
 70
     8
  0
LAYER
  5
F
330
2
100
AcDbSymbolTableRecord
100
AcDbLayerTableRecord
  2
0
 70
     0
 62
     7
  6
CONTINUOUS
370
    -3
390
153A
  0
LAYER
  5
62
330
2
100
AcDbSymbolTableRecord
100
AcDbLayerTableRecord
  2
VIEWPORT
 70
     0
 62
     7
  6
CONTINUOUS
370
    -3
390
153A
  0
LAYER
  5
6B
330
2
100
AcDbSymbolTableRecord
100
AcDbLayerTableRecord
  2
ZUWAKU
 70
     0
 62
     7
  6
CONTINUOUS
370
    -3
390
153A
  0
LAYER
  5
134
330
2
100
AcDbSymbolTableRecord
100
AcDbLayerTableRecord
  2
SEIHIN
 70
     0
 62
     3
  6
CONTINUOUS
370
    -3
390
153A
  0
LAYER
  5
135
330
2
100
AcDbSymbolTableRecord
100
AcDbLayerTableRecord
  2
SUNPOU
 70
     0
 62
     4
  6
CONTINUOUS
370
    -3
390
153A
  0
LAYER
  5
64D
330
2
100
AcDbSymbolTableRecord
100
AcDbLayerTableRecord
  2
DEFPOINTS
 70
     0
 62
     7
  6
CONTINUOUS
290
     0
370
    -3
390
153A
  0
LAYER
  5
C46
330
2
100
AcDbSymbolTableRecord
100
AcDbLayerTableRecord
  2
MOJI
 70
     0
 62
     2
  6
CONTINUOUS
370
    -3
390
153A
  0
LAYER
  5
1F20
330
2
100
AcDbSymbolTableRecord
100
AcDbLayerTableRecord
  2
CENTER L
 70
     0
 62
     1
  6
CENTER
370
    -3
390
153A
  0
ENDTAB
  0
TABLE
  2
STYLE
  5
3
330
0
100
AcDbSymbolTable
 70
     2
  0
STYLE
  5
10
330
3
100
AcDbSymbolTableRecord
100
AcDbTextStyleTableRecord
  2
STANDARD
 70
     0
 40
0.0
 41
1.0
 50
0.0
 71
     0
 42
2.5
  3
TXT
  4
bigfont.shx
  0
STYLE
  5
C47
330
3
100
AcDbSymbolTableRecord
100
AcDbTextStyleTableRecord
  2
ｽﾀｲﾙ1
 70
     0
 40
0.0
 41
1.0
 50
0.0
 71
     0
 42
2.5
  3

  4

1001
ACAD
1000
MS PGothic
1071
    32818
  0
ENDTAB
  0
TABLE
  2
VIEW
  5
6
330
0
100
AcDbSymbolTable
 70
     0
  0
ENDTAB
  0
TABLE
  2
UCS
  5
7
330
0
100
AcDbSymbolTable
 70
     0
  0
ENDTAB
  0
TABLE
  2
APPID
  5
9
330
0
100
AcDbSymbolTable
 70
     1
  0
APPID
  5
11
330
9
100
AcDbSymbolTableRecord
100
AcDbRegAppTableRecord
  2
ACAD
 70
     0
  0
ENDTAB
  0
TABLE
  2
DIMSTYLE
  5
A
330
0
100
AcDbSymbolTable
 70
     1
100
AcDbDimStyleTable
 71
     0
  0
DIMSTYLE
105
1D
102
{ACAD_REACTORS
330
3DB2
330
3DB3
330
3DBD
102
}
330
A
100
AcDbSymbolTableRecord
100
AcDbDimStyleTableRecord
  2
STANDARD
 70
     0
340
10
  0
ENDTAB
  0
TABLE
  2
BLOCK_RECORD
  5
1
330
0
100
AcDbSymbolTable
 70
     7
  0
BLOCK_RECORD
  5
1A
102
{ACAD_XDICTIONARY
360
73E
102
}
330
1
100
AcDbSymbolTableRecord
100
AcDbBlockTableRecord
  2
*MODEL_SPACE
340
153B
  0
BLOCK_RECORD
  5
17
102
{ACAD_XDICTIONARY
360
73C
102
}
330
1
100
AcDbSymbolTableRecord
100
AcDbBlockTableRecord
  2
*PAPER_SPACE
340
153C
  0
BLOCK_RECORD
  5
B2
330
1
100
AcDbSymbolTableRecord
100
AcDbBlockTableRecord
  2
_OPEN
340
0
102
{BLKREFS
331
3EDA
331
3EDB
331
3EEC
331
3EED
331
3EE3
331
3EE4
102
}
  0
BLOCK_RECORD
  5
A4F
330
1
100
AcDbSymbolTableRecord
100
AcDbBlockTableRecord
  2
*X1
340
0
102
{BLKREFS
331
F1A
102
}
  0
BLOCK_RECORD
  5
3E7D
330
1
100
AcDbSymbolTableRecord
100
AcDbBlockTableRecord
  2
*D2
340
0
  0
BLOCK_RECORD
  5
3E89
330
1
100
AcDbSymbolTableRecord
100
AcDbBlockTableRecord
  2
*D3
340
0
  0
BLOCK_RECORD
  5
3E95
330
1
100
AcDbSymbolTableRecord
100
AcDbBlockTableRecord
  2
*D4
340
0
  0
BLOCK_RECORD
  5
3F3F
330
1
100
AcDbSymbolTableRecord
100
AcDbBlockTableRecord
  2
*X5
340
0
102
{BLKREFS
331
3E54
102
}
  0
BLOCK_RECORD
  5
3F67
330
1
100
AcDbSymbolTableRecord
100
AcDbBlockTableRecord
  2
*X6
340
0
102
{BLKREFS
331
3E65
102
}
  0
ENDTAB
  0
ENDSEC
  0
SECTION
  2
BLOCKS
  0
BLOCK
  5
1B
330
1A
100
AcDbEntity
  8
0
100
AcDbBlockBegin
  2
*MODEL_SPACE
 70
     0
 10
0.0
 20
0.0
 30
0.0
  3
*MODEL_SPACE
  1

  0
ENDBLK
  5
1C
330
1A
100
AcDbEntity
  8
0
100
AcDbBlockEnd
  0
BLOCK
  5
18
330
17
100
AcDbEntity
 67
     1
  8
0
100
AcDbBlockBegin
  2
*PAPER_SPACE
 70
     0
 10
0.0
 20
0.0
 30
0.0
  3
*PAPER_SPACE
  1

  0
ENDBLK
  5
19
330
17
100
AcDbEntity
 67
     1
  8
0
100
AcDbBlockEnd
  0
BLOCK
  5
B3
330
B2
100
AcDbEntity
  8
0
100
AcDbBlockBegin
  2
_OPEN
 70
     0
 10
0.0
 20
0.0
 30
0.0
  3
_OPEN
  1

  0
LINE
  5
B4
330
B2
100
AcDbEntity
  8
0
  6
ByBlock
 62
     0
100
AcDbLine
 10
-1.0
 20
0.1666666666666666
 30
0.0
 11
0.0
 21
0.0
 31
0.0
  0
LINE
  5
B5
330
B2
100
AcDbEntity
  8
0
  6
ByBlock
 62
     0
100
AcDbLine
 10
0.0
 20
0.0
 30
0.0
 11
-1.0
 21
-0.1666666666666666
 31
0.0
  0
LINE
  5
B6
330
B2
100
AcDbEntity
  8
0
  6
ByBlock
 62
     0
100
AcDbLine
 10
0.0
 20
0.0
 30
0.0
 11
-1.0
 21
0.0
 31
0.0
  0
ENDBLK
  5
B7
330
B2
100
AcDbEntity
  8
0
100
AcDbBlockEnd
  0
BLOCK
  5
BE3
330
A4F
100
AcDbEntity
  8
0
100
AcDbBlockBegin
  2
*X1
 70
     1
 10
0.0
 20
0.0
 30
0.0
  3
*X1
  1

  0
LINE
  5
A50
330
A4F
100
AcDbEntity
  8
0
 62
     0
100
AcDbLine
 10
34.52110609094657
 20
11.30208440343128
 30
0.0
 11
34.19819062608914
 21
11.62499986828871
 31
0.0
  0
LINE
  5
A51
330
A4F
100
AcDbEntity
  8
0
 62
     0
100
AcDbLine
 10
34.5211060909466
 20
10.85307159737777
 30
0.0
 11
33.74917782003567
 21
11.62499986828871
 31
0.0
  0
LINE
  5
A52
330
A4F
100
AcDbEntity
  8
0
 62
     0
100
AcDbLine
 10
34.52110609094657
 20
10.4040587913243
 30
0.0
 11
33.3105391179391
 21
11.61462576433177
 31
0.0
  0
LINE
  5
A53
330
A4F
100
AcDbEntity
  8
0
 62
     0
100
AcDbLine
 10
34.5211060909466
 20
9.955045985270883
 30
0.0
 11
33.12110609094657
 21
11.35504598527089
 31
0.0
  0
LINE
  5
A54
330
A4F
100
AcDbEntity
  8
0
 62
     0
100
AcDbLine
 10
34.5211060909466
 20
9.506033179217412
 30
0.0
 11
33.12110609094657
 21
10.90603317921744
 31
0.0
  0
LINE
  5
A55
330
A4F
100
AcDbEntity
  8
0
 62
     0
100
AcDbLine
 10
34.52110609094657
 20
9.057020373163936
 30
0.0
 11
33.12110609094654
 21
10.45702037316397
 31
0.0
  0
LINE
  5
A56
330
A4F
100
AcDbEntity
  8
0
 62
     0
100
AcDbLine
 10
32.07110609094661
 20
11.0580075671105
 30
0.0
 11
31.50411378976838
 21
11.62499986828873
 31
0.0
  0
LINE
  5
A57
330
A4F
100
AcDbEntity
  8
0
 62
     0
100
AcDbLine
 10
34.5211060909466
 20
8.608007567110517
 30
0.0
 11
33.12110609094657
 21
10.00800756711055
 31
0.0
  0
LINE
  5
A58
330
A4F
100
AcDbEntity
  8
0
 62
     0
100
AcDbLine
 10
32.07110609094658
 20
10.60899476105703
 30
0.0
 11
31.05510098371493
 21
11.62499986828868
 31
0.0
  0
LINE
  5
A59
330
A4F
100
AcDbEntity
  8
0
 62
     0
100
AcDbLine
 10
34.52110609094657
 20
8.158994761057044
 30
0.0
 11
33.12110609094657
 21
9.558994761057077
 31
0.0
  0
LINE
  5
A5A
330
A4F
100
AcDbEntity
  8
0
 62
     0
100
AcDbLine
 10
32.07110609094658
 20
10.15998195500358
 30
0.0
 11
30.71835060837802
 21
11.51273743757215
 31
0.0
  0
LINE
  5
A5B
330
A4F
100
AcDbEntity
  8
0
 62
     0
100
AcDbLine
 10
34.5211060909466
 20
7.70998195500354
 30
0.0
 11
33.12110609094654
 21
9.109981955003604
 31
0.0
  0
LINE
  5
A5C
330
A4F
100
AcDbEntity
  8
0
 62
     0
100
AcDbLine
 10
32.07110609094661
 20
9.710969148950113
 30
0.0
 11
30.67110609094658
 21
11.11096914895014
 31
0.0
  0
LINE
  5
A5D
330
A4F
100
AcDbEntity
  8
0
 62
     0
100
AcDbLine
 10
34.52110609094662
 20
7.260969148950096
 30
0.0
 11
33.12110609094657
 21
8.660969148950156
 31
0.0
  0
LINE
  5
A5E
330
A4F
100
AcDbEntity
  8
0
 62
     0
100
AcDbLine
 10
32.07110609094658
 20
9.261956342896667
 30
0.0
 11
30.67110609094655
 21
10.6619563428967
 31
0.0
  0
LINE
  5
A5F
330
A4F
100
AcDbEntity
  8
0
 62
     0
100
AcDbLine
 10
34.52110609094662
 20
6.81195634289665
 30
0.0
 11
33.12110609094659
 21
8.211956342896682
 31
0.0
  0
LINE
  5
A60
330
A4F
100
AcDbEntity
  8
0
 62
     0
100
AcDbLine
 10
32.07110609094658
 20
8.812943536843221
 30
0.0
 11
30.67110609094658
 21
10.21294353684319
 31
0.0
  0
LINE
  5
A61
330
A4F
100
AcDbEntity
  8
0
 62
     0
100
AcDbLine
 10
34.5211060909466
 20
6.362943536843174
 30
0.0
 11
33.12110609094657
 21
7.762943536843208
 31
0.0
  0
LINE
  5
A62
330
A4F
100
AcDbEntity
  8
0
 62
     0
100
AcDbLine
 10
32.07110609094661
 20
8.363930730789716
 30
0.0
 11
30.67110609094658
 21
9.763930730789752
 31
0.0
  0
LINE
  5
A63
330
A4F
100
AcDbEntity
  8
0
 62
     0
100
AcDbLine
 10
34.5211060909466
 20
5.913930730789727
 30
0.0
 11
33.12110609094657
 21
7.313930730789762
 31
0.0
  0
LINE
  5
A64
330
A4F
100
AcDbEntity
  8
0
 62
     0
100
AcDbLine
 10
32.07110609094661
 20
7.914917924736272
 30
0.0
 11
30.6711060909466
 21
9.314917924736306
 31
0.0
  0
LINE
  5
A65
330
A4F
100
AcDbEntity
  8
0
 62
     0
100
AcDbLine
 10
28.92110609094663
 20
11.06491792473627
 30
0.0
 11
28.36102414739417
 21
11.62499986828871
 31
0.0
  0
LINE
  5
A66
330
A4F
100
AcDbEntity
  8
0
 62
     0
100
AcDbLine
 10
34.5211060909466
 20
5.464917924736282
 30
0.0
 11
33.12110609094659
 21
6.864917924736317
 31
0.0
  0
LINE
  5
A67
330
A4F
100
AcDbEntity
  8
0
 62
     0
100
AcDbLine
 10
32.07110609094661
 20
7.465905118682826
 30
0.0
 11
30.67110609094658
 21
8.865905118682832
 31
0.0
  0
LINE
  5
A68
330
A4F
100
AcDbEntity
  8
0
 62
     0
100
AcDbLine
 10
28.92110609094661
 20
10.61590511868283
 30
0.0
 11
27.91201134134074
 21
11.62499986828871
 31
0.0
  0
LINE
  5
A69
330
A4F
100
AcDbEntity
  8
0
 62
     0
100
AcDbLine
 10
34.5211060909466
 20
5.015905118682836
 30
0.0
 11
33.12110609094657
 21
6.415905118682842
 31
0.0
  0
LINE
  5
A6A
330
A4F
100
AcDbEntity
  8
0
 62
     0
100
AcDbLine
 10
32.07110609094661
 20
7.016892312629352
 30
0.0
 11
30.67110609094658
 21
8.416892312629386
 31
0.0
  0
LINE
  5
A6B
330
A4F
100
AcDbEntity
  8
0
 62
     0
100
AcDbLine
 10
28.92110609094661
 20
10.16689231262935
 30
0.0
 11
27.57122472928452
 21
11.51677367429144
 31
0.0
  0
LINE
  5
A6C
330
A4F
100
AcDbEntity
  8
0
 62
     0
100
AcDbLine
 10
34.52110609094662
 20
4.566892312629335
 30
0.0
 11
33.12110609094657
 21
5.966892312629396
 31
0.0
  0
LINE
  5
A6D
330
A4F
100
AcDbEntity
  8
0
 62
     0
100
AcDbLine
 10
32.07110609094661
 20
6.567879506575877
 30
0.0
 11
30.67110609094658
 21
7.96787950657591
 31
0.0
  0
LINE
  5
A6E
330
A4F
100
AcDbEntity
  8
0
 62
     0
100
AcDbLine
 10
28.92110609094661
 20
9.717879506575881
 30
0.0
 11
27.52110609094654
 21
11.11787950657597
 31
0.0
  0
LINE
  5
A6F
330
A4F
100
AcDbEntity
  8
0
 62
     0
100
AcDbLine
 10
34.52110609094666
 20
4.117879506575859
 30
0.0
 11
33.12110609094657
 21
5.517879506575923
 31
0.0
  0
LINE
  5
A70
330
A4F
100
AcDbEntity
  8
0
 62
     0
100
AcDbLine
 10
32.07110609094661
 20
6.11886670052246
 30
0.0
 11
30.67110609094658
 21
7.518866700522494
 31
0.0
  0
LINE
  5
A71
330
A4F
100
AcDbEntity
  8
0
 62
     0
100
AcDbLine
 10
28.92110609094661
 20
9.268866700522464
 30
0.0
 11
27.52110609094657
 21
10.6688667005225
 31
0.0
  0
LINE
  5
A72
330
A4F
100
AcDbEntity
  8
0
 62
     0
100
AcDbLine
 10
34.48512341350166
 20
3.704849377967406
 30
0.0
 11
33.12110609094657
 21
5.068866700522504
 31
0.0
  0
LINE
  5
A73
330
A4F
100
AcDbEntity
  8
0
 62
     0
100
AcDbLine
 10
32.07110609094658
 20
5.669853894468985
 30
0.0
 11
30.67110609094658
 21
7.069853894469018
 31
0.0
  0
LINE
  5
A74
330
A4F
100
AcDbEntity
  8
0
 62
     0
100
AcDbLine
 10
28.92110609094661
 20
8.819853894468991
 30
0.0
 11
27.52110609094657
 21
10.21985389446902
 31
0.0
  0
LINE
  5
A75
330
A4F
100
AcDbEntity
  8
0
 62
     0
100
AcDbLine
 10
34.16596011712693
 20
3.574999868288671
 30
0.0
 11
33.12110609094659
 21
4.619853894469001
 31
0.0
  0
LINE
  5
A76
330
A4F
100
AcDbEntity
  8
0
 62
     0
100
AcDbLine
 10
28.92110609094658
 20
8.370841088415545
 30
0.0
 11
27.52110609094654
 21
9.770841088415552
 31
0.0
  0
LINE
  5
A77
330
A4F
100
AcDbEntity
  8
0
 62
     0
100
AcDbLine
 10
32.07110609094658
 20
5.220841088415538
 30
0.0
 11
30.67110609094655
 21
6.620841088415545
 31
0.0
  0
LINE
  5
A78
330
A4F
100
AcDbEntity
  8
0
 62
     0
100
AcDbLine
 10
26.20860609094657
 20
11.08334108841555
 30
0.0
 11
25.66694731107338
 21
11.62499986828871
 31
0.0
  0
LINE
  5
A79
330
A4F
100
AcDbEntity
  8
0
 62
     0
100
AcDbLine
 10
33.71694731107345
 20
3.574999868288671
 30
0.0
 11
33.12110609094659
 21
4.170841088415528
 31
0.0
  0
LINE
  5
A7A
330
A4F
100
AcDbEntity
  8
0
 62
     0
100
AcDbLine
 10
28.92110609094661
 20
7.921828282362098
 30
0.0
 11
27.52110609094657
 21
9.321828282362133
 31
0.0
  0
LINE
  5
A7B
330
A4F
100
AcDbEntity
  8
0
 62
     0
100
AcDbLine
 10
26.2086060909466
 20
10.6343282823621
 30
0.0
 11
25.21793450501997
 21
11.62499986828873
 31
0.0
  0
LINE
  5
A7C
330
A4F
100
AcDbEntity
  8
0
 62
     0
100
AcDbLine
 10
32.05812694062379
 20
4.784807432684913
 30
0.0
 11
30.67110609094658
 21
6.171828282362128
 31
0.0
  0
LINE
  5
A7D
330
A4F
100
AcDbEntity
  8
0
 62
     0
100
AcDbLine
 10
28.92110609094658
 20
7.472815476308624
 30
0.0
 11
27.52110609094657
 21
8.872815476308657
 31
0.0
  0
LINE
  5
A7E
330
A4F
100
AcDbEntity
  8
0
 62
     0
100
AcDbLine
 10
26.11081581788963
 20
10.2831057493656
 30
0.0
 11
24.76892169896655
 21
11.62499986828868
 31
0.0
  0
LINE
  5
A7F
330
A4F
100
AcDbEntity
  8
0
 62
     0
100
AcDbLine
 10
31.96163429299517
 20
4.432287274260032
 30
0.0
 11
30.67110609094655
 21
5.722815476308651
 31
0.0
  0
LINE
  5
A80
330
A4F
100
AcDbEntity
  8
0
 62
     0
100
AcDbLine
 10
28.92110609094658
 20
7.023802670255178
 30
0.0
 11
27.52110609094654
 21
8.423802670255213
 31
0.0
  0
LINE
  5
A81
330
A4F
100
AcDbEntity
  8
0
 62
     0
100
AcDbLine
 10
25.71990889291305
 20
10.22499986828867
 30
0.0
 11
24.31990889291304
 21
11.62499986828871
 31
0.0
  0
LINE
  5
A82
330
A4F
100
AcDbEntity
  8
0
 62
     0
100
AcDbLine
 10
31.79911835503338
 20
4.145790406168345
 30
0.0
 11
30.63534822136677
 21
5.30956053983499
 31
0.0
  0
LINE
  5
A83
330
A4F
100
AcDbEntity
  8
0
 62
     0
100
AcDbLine
 10
28.92110609094661
 20
6.574789864201733
 30
0.0
 11
27.52110609094657
 21
7.974789864201767
 31
0.0
  0
LINE
  5
A84
330
A4F
100
AcDbEntity
  8
0
 62
     0
100
AcDbLine
 10
25.27089608685963
 20
10.2249998682887
 30
0.0
 11
23.90211272227094
 21
11.59378323287739
 31
0.0
  0
LINE
  5
A85
330
A4F
100
AcDbEntity
  8
0
 62
     0
100
AcDbLine
 10
31.58309745637086
 20
3.912798498777448
 30
0.0
 11
30.43455540213301
 21
5.061340553015297
 31
0.0
  0
LINE
  5
A86
330
A4F
100
AcDbEntity
  8
0
 62
     0
100
AcDbLine
 10
28.92110609094658
 20
6.125777058148287
 30
0.0
 11
27.52110609094654
 21
7.525777058148293
 31
0.0
  0
LINE
  5
A87
330
A4F
100
AcDbEntity
  8
0
 62
     0
100
AcDbLine
 10
24.82188328080616
 20
10.2249998682887
 30
0.0
 11
23.56979251000424
 21
11.47709063909059
 31
0.0
  0
LINE
  5
A88
330
A4F
100
AcDbEntity
  8
0
 62
     0
100
AcDbLine
 10
31.31501628390785
 20
3.731866865187015
 30
0.0
 11
30.07188328080616
 21
4.974999868288675
 31
0.0
  0
LINE
  5
A89
330
A4F
100
AcDbEntity
  8
0
 62
     0
100
AcDbLine
 10
28.92110609094658
 20
5.676764252094812
 30
0.0
 11
27.52110609094657
 21
7.076764252094789
 31
0.0
  0
LINE
  5
A8A
330
A4F
100
AcDbEntity
  8
0
 62
     0
100
AcDbLine
 10
24.38376538876176
 20
10.2141049542796
 30
0.0
 11
23.29849204139915
 21
11.2993783016422
 31
0.0
  0
LINE
  5
A8B
330
A4F
100
AcDbEntity
  8
0
 62
     0
100
AcDbLine
 10
30.9868100039522
 20
3.611060339089191
 30
0.0
 11
29.62287047475271
 21
4.974999868288675
 31
0.0
  0
LINE
  5
A8C
330
A4F
100
AcDbEntity
  8
0
 62
     0
100
AcDbLine
 10
24.19610609094658
 20
9.952751446041304
 30
0.0
 11
23.07943601187687
 21
11.06942152511101
 31
0.0
  0
LINE
  5
A8D
330
A4F
100
AcDbEntity
  8
0
 62
     0
100
AcDbLine
 10
30.57385766869922
 20
3.574999868288671
 30
0.0
 11
27.52110609094657
 21
6.627751446041343
 31
0.0
  0
LINE
  5
A8E
330
A4F
100
AcDbEntity
  8
0
 62
     0
100
AcDbLine
 10
24.19610609094661
 20
9.503738639987886
 30
0.0
 11
22.91355055570036
 21
10.78629417523413
 31
0.0
  0
LINE
  5
A8F
330
A4F
100
AcDbEntity
  8
0
 62
     0
100
AcDbLine
 10
30.1248448626458
 20
3.574999868288698
 30
0.0
 11
27.5211060909466
 21
6.178738639987898
 31
0.0
  0
LINE
  5
A90
330
A4F
100
AcDbEntity
  8
0
 62
     0
100
AcDbLine
 10
24.29937823149848
 20
8.951453693382546
 30
0.0
 11
22.81246129601831
 21
10.43837062886268
 31
0.0
  0
LINE
  5
A91
330
A4F
100
AcDbEntity
  8
0
 62
     0
100
AcDbLine
 10
29.67583205659233
 20
3.574999868288671
 30
0.0
 11
27.52110609094657
 21
5.729725833934452
 31
0.0
  0
LINE
  5
A92
330
A4F
100
AcDbEntity
  8
0
 62
     0
100
AcDbLine
 10
26.40790794229224
 20
6.393911176535311
 30
0.0
 11
22.7961060909466
 21
10.00571302788094
 31
0.0
  0
LINE
  5
A93
330
A4F
100
AcDbEntity
  8
0
 62
     0
100
AcDbLine
 10
21.74610609094651
 20
11.05571302788101
 30
0.0
 11
21.17681925053886
 21
11.62499986828868
 31
0.0
  0
LINE
  5
A94
330
A4F
100
AcDbEntity
  8
0
 62
     0
100
AcDbLine
 10
29.22681925053888
 20
3.574999868288671
 30
0.0
 11
27.52110609094657
 21
5.280713027880977
 31
0.0
  0
LINE
  5
A95
330
A4F
100
AcDbEntity
  8
0
 62
     0
100
AcDbLine
 10
26.47110609094659
 20
5.881700221827542
 30
0.0
 11
22.79610609094658
 21
9.556700221827554
 31
0.0
  0
LINE
  5
A96
330
A4F
100
AcDbEntity
  8
0
 62
     0
100
AcDbLine
 10
21.74610609094656
 20
10.60670022182753
 30
0.0
 11
20.72780644448539
 21
11.62499986828873
 31
0.0
  0
LINE
  5
A97
330
A4F
100
AcDbEntity
  8
0
 62
     0
100
AcDbLine
 10
28.76958250511302
 20
3.583223807661112
 30
0.0
 11
27.52933003031901
 21
4.823476282455118
 31
0.0
  0
LINE
  5
A98
330
A4F
100
AcDbEntity
  8
0
 62
     0
100
AcDbLine
 10
21.74610609094656
 20
10.15768741577409
 30
0.0
 11
20.39241114705891
 21
11.51138235966172
 31
0.0
  0
LINE
  5
A99
330
A4F
100
AcDbEntity
  8
0
 62
     0
100
AcDbLine
 10
26.47110609094656
 20
5.432687415774068
 30
0.0
 11
22.80781142488774
 21
9.095982081832914
 31
0.0
  0
LINE
  5
A9A
330
A4F
100
AcDbEntity
  8
0
 62
     0
100
AcDbLine
 10
21.74610609094656
 20
9.708674609720617
 30
0.0
 11
20.34610609094656
 21
11.10867460972059
 31
0.0
  0
LINE
  5
A9B
330
A4F
100
AcDbEntity
  8
0
 62
     0
100
AcDbLine
 10
26.47110609094659
 20
4.983674609720566
 30
0.0
 11
22.96687113380775
 21
8.487909566859427
 31
0.0
  0
LINE
  5
A9C
330
A4F
100
AcDbEntity
  8
0
 62
     0
100
AcDbLine
 10
21.74610609094656
 20
9.259661803667171
 30
0.0
 11
20.34610609094659
 21
10.65966180366714
 31
0.0
  0
LINE
  5
A9D
330
A4F
100
AcDbEntity
  8
0
 62
     0
100
AcDbLine
 10
26.41682518215202
 20
4.588942712461714
 30
0.0
 11
25.06900778763287
 21
5.936760106980868
 31
0.0
  0
LINE
  5
A9E
330
A4F
100
AcDbEntity
  8
0
 62
     0
100
AcDbLine
 10
21.74610609094656
 20
8.810648997613723
 30
0.0
 11
20.34610609094656
 21
10.2106489976137
 31
0.0
  0
LINE
  5
A9F
330
A4F
100
AcDbEntity
  8
0
 62
     0
100
AcDbLine
 10
19.20036264065805
 20
11.35639244790221
 30
0.0
 11
18.93175522027155
 21
11.62499986828873
 31
0.0
  0
LINE
  5
AA0
330
A4F
100
AcDbEntity
  8
0
 62
     0
100
AcDbLine
 10
26.28288732827124
 20
4.273867760289049
 30
0.0
 11
25.07110609094661
 21
5.485648997613679
 31
0.0
  0
LINE
  5
AA1
330
A4F
100
AcDbEntity
  8
0
 62
     0
100
AcDbLine
 10
21.74610609094654
 20
8.361636191560251
 30
0.0
 11
20.34610609094656
 21
9.761636191560254
 31
0.0
  0
LINE
  5
AA2
330
A4F
100
AcDbEntity
  8
0
 62
     0
100
AcDbLine
 10
19.10089880853175
 20
11.00684347397503
 30
0.0
 11
18.4827424142181
 21
11.62499986828871
 31
0.0
  0
LINE
  5
AA3
330
A4F
100
AcDbEntity
  8
0
 62
     0
100
AcDbLine
 10
26.09139392918359
 20
4.016348353323222
 30
0.0
 11
25.02246349950334
 21
5.085278783003474
 31
0.0
  0
LINE
  5
AA4
330
A4F
100
AcDbEntity
  8
0
 62
     0
100
AcDbLine
 10
21.74610609094654
 20
7.912623385506805
 30
0.0
 11
20.34610609094656
 21
9.312623385506784
 31
0.0
  0
LINE
  5
AA5
330
A4F
100
AcDbEntity
  8
0
 62
     0
100
AcDbLine
 10
18.99313573507896
 20
10.66559374137437
 30
0.0
 11
18.03852795334361
 21
11.62020152310972
 31
0.0
  0
LINE
  5
AA6
330
A4F
100
AcDbEntity
  8
0
 62
     0
100
AcDbLine
 10
25.84823444662578
 20
3.810495029827535
 30
0.0
 11
24.68372960816466
 21
4.974999868288675
 31
0.0
  0
LINE
  5
AA7
330
A4F
100
AcDbEntity
  8
0
 62
     0
100
AcDbLine
 10
21.74610609094659
 20
7.463610579453329
 30
0.0
 11
20.34610609094656
 21
8.863610579453336
 31
0.0
  0
LINE
  5
AA8
330
A4F
100
AcDbEntity
  8
0
 62
     0
100
AcDbLine
 10
18.88537266162609
 20
10.3243440087738
 30
0.0
 11
17.82137266162612
 21
11.3883440087738
 31
0.0
  0
LINE
  5
AA9
330
A4F
100
AcDbEntity
  8
0
 62
     0
100
AcDbLine
 10
25.55019247239559
 20
3.659524198004305
 30
0.0
 11
24.23471680211122
 21
4.974999868288705
 31
0.0
  0
LINE
  5
AAA
330
A4F
100
AcDbEntity
  8
0
 62
     0
100
AcDbLine
 10
21.74610609094659
 20
7.014597773399856
 30
0.0
 11
20.34610609094656
 21
8.414597773399888
 31
0.0
  0
LINE
  5
AAB
330
A4F
100
AcDbEntity
  8
0
 62
     0
100
AcDbLine
 10
18.77760958817327
 20
9.983094276173176
 30
0.0
 11
17.71360958817328
 21
11.04709427617317
 31
0.0
  0
LINE
  5
AAC
330
A4F
100
AcDbEntity
  8
0
 62
     0
100
AcDbLine
 10
25.18135614657186
 20
3.579347717774595
 30
0.0
 11
23.78570399605777
 21
4.974999868288675
 31
0.0
  0
LINE
  5
AAD
330
A4F
100
AcDbEntity
  8
0
 62
     0
100
AcDbLine
 10
21.74610609094656
 20
6.56558496734641
 30
0.0
 11
20.34610609094653
 21
7.965584967346415
 31
0.0
  0
LINE
  5
AAE
330
A4F
100
AcDbEntity
  8
0
 62
     0
100
AcDbLine
 10
18.66984651472046
 20
9.641844543572515
 30
0.0
 11
17.60584651472044
 21
10.70584454357254
 31
0.0
  0
LINE
  5
AAF
330
A4F
100
AcDbEntity
  8
0
 62
     0
100
AcDbLine
 10
24.73669119000428
 20
3.574999868288671
 30
0.0
 11
23.3366911900043
 21
4.974999868288675
 31
0.0
  0
LINE
  5
AB0
330
A4F
100
AcDbEntity
  8
0
 62
     0
100
AcDbLine
 10
21.74610609094659
 20
6.116572161292964
 30
0.0
 11
20.34610609094656
 21
7.516572161292997
 31
0.0
  0
LINE
  5
AB1
330
A4F
100
AcDbEntity
  8
0
 62
     0
100
AcDbLine
 10
18.56208344126761
 20
9.300594810971942
 30
0.0
 11
17.49808344126756
 21
10.36459481097196
 31
0.0
  0
LINE
  5
AB2
330
A4F
100
AcDbEntity
  8
0
 62
     0
100
AcDbLine
 10
24.28767838395086
 20
3.574999868288698
 30
0.0
 11
23.07087253530269
 21
4.791805716936862
 31
0.0
  0
LINE
  5
AB3
330
A4F
100
AcDbEntity
  8
0
 62
     0
100
AcDbLine
 10
18.4543203678148
 20
8.959345078371255
 30
0.0
 11
17.39032036781478
 21
10.0233450783713
 31
0.0
  0
LINE
  5
AB4
330
A4F
100
AcDbEntity
  8
0
 62
     0
100
AcDbLine
 10
21.74610609094656
 20
5.66755935523949
 30
0.0
 11
20.34610609094656
 21
7.067559355239523
 31
0.0
  0
LINE
  5
AB5
330
A4F
100
AcDbEntity
  8
0
 62
     0
100
AcDbLine
 10
16.32110609094661
 20
11.09255935523947
 30
0.0
 11
15.78866557789737
 21
11.62499986828871
 31
0.0
  0
LINE
  5
AB6
330
A4F
100
AcDbEntity
  8
0
 62
     0
100
AcDbLine
 10
23.83866557789744
 20
3.574999868288642
 30
0.0
 11
23.05860609094656
 21
4.355059355239518
 31
0.0
  0
LINE
  5
AB7
330
A4F
100
AcDbEntity
  8
0
 62
     0
100
AcDbLine
 10
18.34655729436192
 20
8.618095345770681
 30
0.0
 11
17.28255729436193
 21
9.682095345770676
 31
0.0
  0
LINE
  5
AB8
330
A4F
100
AcDbEntity
  8
0
 62
     0
100
AcDbLine
 10
21.74610609094656
 20
5.218546549186044
 30
0.0
 11
20.34610609094653
 21
6.618546549186077
 31
0.0
  0
LINE
  5
AB9
330
A4F
100
AcDbEntity
  8
0
 62
     0
100
AcDbLine
 10
16.32110609094658
 20
10.64354654918602
 30
0.0
 11
15.3396527718439
 21
11.62499986828868
 31
0.0
  0
LINE
  5
ABA
330
A4F
100
AcDbEntity
  8
0
 62
     0
100
AcDbLine
 10
23.38965277184394
 20
3.574999868288671
 30
0.0
 11
23.05860609094654
 21
3.906046549186043
 31
0.0
  0
LINE
  5
ABB
330
A4F
100
AcDbEntity
  8
0
 62
     0
100
AcDbLine
 10
18.23879422090911
 20
8.276845613169996
 30
0.0
 11
17.17479422090906
 21
9.340845613170074
 31
0.0
  0
LINE
  5
ABC
330
A4F
100
AcDbEntity
  8
0
 62
     0
100
AcDbLine
 10
16.32110609094658
 20
10.19453374313255
 30
0.0
 11
14.98338362649772
 21
11.53225620758141
 31
0.0
  0
LINE
  5
ABD
330
A4F
100
AcDbEntity
  8
0
 62
     0
100
AcDbLine
 10
21.74610609094656
 20
4.769533743132568
 30
0.0
 11
20.34610609094653
 21
6.169533743132602
 31
0.0
  0
LINE
  5
ABE
330
A4F
100
AcDbEntity
  8
0
 62
     0
100
AcDbLine
 10
18.13103114745627
 20
7.93559588056945
 30
0.0
 11
17.06703114745624
 21
8.999595880569472
 31
0.0
  0
LINE
  5
ABF
330
A4F
100
AcDbEntity
  8
0
 62
     0
100
AcDbLine
 10
16.32110609094658
 20
9.745520937079104
 30
0.0
 11
14.92110609094658
 21
11.14552093707914
 31
0.0
  0
LINE
  5
AC0
330
A4F
100
AcDbEntity
  8
0
 62
     0
100
AcDbLine
 10
21.74610609094656
 20
4.320520937079152
 30
0.0
 11
20.34610609094653
 21
5.720520937079156
 31
0.0
  0
LINE
  5
AC1
330
A4F
100
AcDbEntity
  8
0
 62
     0
100
AcDbLine
 10
18.02848689276032
 20
7.589127329211919
 30
0.0
 11
16.9592680740034
 21
8.658346147968842
 31
0.0
  0
LINE
  5
AC2
330
A4F
100
AcDbEntity
  8
0
 62
     0
100
AcDbLine
 10
16.32110609094658
 20
9.29650813102566
 30
0.0
 11
14.92110609094655
 21
10.69650813102566
 31
0.0
  0
LINE
  5
AC3
330
A4F
100
AcDbEntity
  8
0
 62
     0
100
AcDbLine
 10
21.74610609094659
 20
3.871508131025648
 30
0.0
 11
20.34610609094653
 21
5.271508131025711
 31
0.0
  0
LINE
  5
AC4
330
A4F
100
AcDbEntity
  8
0
 62
     0
100
AcDbLine
 10
18.23572357247732
 20
6.932877843441445
 30
0.0
 11
16.81399432616109
 21
8.354607089757676
 31
0.0
  0
LINE
  5
AC5
330
A4F
100
AcDbEntity
  8
0
 62
     0
100
AcDbLine
 10
16.32110609094658
 20
8.847495324972186
 30
0.0
 11
14.92110609094655
 21
10.24749532497222
 31
0.0
  0
LINE
  5
AC6
330
A4F
100
AcDbEntity
  8
0
 62
     0
100
AcDbLine
 10
21.57658359228034
 20
3.592017823638399
 30
0.0
 11
20.34610609094656
 21
4.822495324972209
 31
0.0
  0
LINE
  5
AC7
330
A4F
100
AcDbEntity
  8
0
 62
     0
100
AcDbLine
 10
18.44296025219435
 20
6.276628357671
 30
0.0
 11
14.92110609094655
 21
9.798482518918772
 31
0.0
  0
LINE
  5
AC8
330
A4F
100
AcDbEntity
  8
0
 62
     0
100
AcDbLine
 10
13.69610609094664
 20
11.02348251891871
 30
0.0
 11
13.09458874157661
 21
11.62499986828873
 31
0.0
  0
LINE
  5
AC9
330
A4F
100
AcDbEntity
  8
0
 62
     0
100
AcDbLine
 10
21.14458874157668
 20
3.574999868288671
 30
0.0
 11
20.34610609094659
 21
4.373482518918763
 31
0.0
  0
LINE
  5
ACA
330
A4F
100
AcDbEntity
  8
0
 62
     0
100
AcDbLine
 10
18.65019693191129
 20
5.620378871900554
 30
0.0
 11
14.92110609094655
 21
9.349469712865326
 31
0.0
  0
LINE
  5
ACB
330
A4F
100
AcDbEntity
  8
0
 62
     0
100
AcDbLine
 10
13.69610609094661
 20
10.57446971286526
 30
0.0
 11
12.64557593552314
 21
11.62499986828871
 31
0.0
  0
LINE
  5
ACC
330
A4F
100
AcDbEntity
  8
0
 62
     0
100
AcDbLine
 10
20.69557593552318
 20
3.574999868288698
 30
0.0
 11
20.34610609094656
 21
3.924469712865316
 31
0.0
  0
LINE
  5
ACD
330
A4F
100
AcDbEntity
  8
0
 62
     0
100
AcDbLine
 10
13.56265274325153
 20
10.25891025450687
 30
0.0
 11
12.21254188414582
 21
11.60902111361255
 31
0.0
  0
LINE
  5
ACE
330
A4F
100
AcDbEntity
  8
0
 62
     0
100
AcDbLine
 10
18.85743361162826
 20
4.964129386130138
 30
0.0
 11
14.92110609094655
 21
8.900456906811854
 31
0.0
  0
LINE
  5
ACF
330
A4F
100
AcDbEntity
  8
0
 62
     0
100
AcDbLine
 10
16.48986055211736
 20
6.882689639587596
 30
0.0
 11
14.92110609094661
 21
8.451444100758351
 31
0.0
  0
LINE
  5
AD0
330
A4F
100
AcDbEntity
  8
0
 62
     0
100
AcDbLine
 10
13.14755032341625
 20
10.2249998682887
 30
0.0
 11
11.84352034935219
 21
11.52902984235277
 31
0.0
  0
LINE
  5
AD1
330
A4F
100
AcDbEntity
  8
0
 62
     0
100
AcDbLine
 10
19.06467029134526
 20
4.307879900359694
 30
0.0
 11
17.01851644519132
 21
6.354033746513607
 31
0.0
  0
LINE
  5
AD2
330
A4F
100
AcDbEntity
  8
0
 62
     0
100
AcDbLine
 10
16.32110609094658
 20
6.602431294704927
 30
0.0
 11
14.92110609094658
 21
8.002431294704933
 31
0.0
  0
LINE
  5
AD3
330
A4F
100
AcDbEntity
  8
0
 62
     0
100
AcDbLine
 10
12.6985375173628
 20
10.22499986828867
 30
0.0
 11
11.52415964143682
 21
11.39937774421466
 31
0.0
  0
LINE
  5
AD4
330
A4F
100
AcDbEntity
  8
0
 62
     0
100
AcDbLine
 10
19.18218972020056
 20
3.741347665450916
 30
0.0
 11
17.22575312490829
 21
5.697784260743218
 31
0.0
  0
LINE
  5
AD5
330
A4F
100
AcDbEntity
  8
0
 62
     0
100
AcDbLine
 10
16.32110609094655
 20
6.153418488651482
 30
0.0
 11
14.92110609094658
 21
7.553418488651459
 31
0.0
  0
LINE
  5
AD6
330
A4F
100
AcDbEntity
  8
0
 62
     0
100
AcDbLine
 10
12.27698076609104
 20
10.19754381350699
 30
0.0
 11
11.24478515376955
 21
11.22973942582848
 31
0.0
  0
LINE
  5
AD7
330
A4F
100
AcDbEntity
  8
0
 62
     0
100
AcDbLine
 10
18.89952471130934
 20
3.574999868288698
 30
0.0
 11
17.43298980462526
 21
5.041534774972773
 31
0.0
  0
LINE
  5
AD8
330
A4F
100
AcDbEntity
  8
0
 62
     0
100
AcDbLine
 10
16.32110609094655
 20
5.704405682598007
 30
0.0
 11
14.92110609094655
 21
7.104405682597985
 31
0.0
  0
LINE
  5
AD9
330
A4F
100
AcDbEntity
  8
0
 62
     0
100
AcDbLine
 10
11.99105266967154
 20
10.03445910387301
 30
0.0
 11
11.00095754946366
 21
11.0245542240809
 31
0.0
  0
LINE
  5
ADA
330
A4F
100
AcDbEntity
  8
0
 62
     0
100
AcDbLine
 10
18.45051190525589
 20
3.574999868288671
 30
0.0
 11
17.64022648434229
 21
4.385285289202271
 31
0.0
  0
LINE
  5
ADB
330
A4F
100
AcDbEntity
  8
0
 62
     0
100
AcDbLine
 10
13.86382065734542
 20
7.712678310145719
 30
0.0
 11
13.10878453280355
 21
8.467714434687593
 31
0.0
  0
LINE
  5
ADC
330
A4F
100
AcDbEntity
  8
0
 62
     0
100
AcDbLine
 10
16.32110609094661
 20
5.255392876544533
 30
0.0
 11
14.92110609094658
 21
6.655392876544567
 31
0.0
  0
LINE
  5
ADD
330
A4F
100
AcDbEntity
  8
0
 62
     0
100
AcDbLine
 10
11.81299188460707
 20
9.763507082884075
 30
0.0
 11
10.79127453645804
 21
10.7852244310331
 31
0.0
  0
LINE
  5
ADE
330
A4F
100
AcDbEntity
  8
0
 62
     0
100
AcDbLine
 10
17.97633259710016
 20
3.600166370390978
 30
0.0
 11
17.85115551130451
 21
3.725343456186634
 31
0.0
  0
LINE
  5
ADF
330
A4F
100
AcDbEntity
  8
0
 62
     0
100
AcDbLine
 10
13.82056382727447
 20
7.306922334163202
 30
0.0
 11
12.70302855682103
 21
8.424457604616634
 31
0.0
  0
LINE
  5
AE0
330
A4F
100
AcDbEntity
  8
0
 62
     0
100
AcDbLine
 10
11.7711060909466
 20
9.35638007049107
 30
0.0
 11
10.61680502597721
 21
10.51068113546046
 31
0.0
  0
LINE
  5
AE1
330
A4F
100
AcDbEntity
  8
0
 62
     0
100
AcDbLine
 10
16.32110609094658
 20
4.806380070491059
 30
0.0
 11
14.92110609094658
 21
6.206380070491092
 31
0.0
  0
LINE
  5
AE2
330
A4F
100
AcDbEntity
  8
0
 62
     0
100
AcDbLine
 10
13.65463604762544
 20
7.023837307758724
 30
0.0
 11
12.41994353041656
 21
8.25852982496761
 31
0.0
  0
LINE
  5
AE3
330
A4F
100
AcDbEntity
  8
0
 62
     0
100
AcDbLine
 10
11.7711060909466
 20
8.907367264437596
 30
0.0
 11
10.48151517237212
 21
10.19695818301207
 31
0.0
  0
LINE
  5
AE4
330
A4F
100
AcDbEntity
  8
0
 62
     0
100
AcDbLine
 10
16.32110609094658
 20
4.357367264437613
 30
0.0
 11
14.92110609094655
 21
5.757367264437647
 31
0.0
  0
LINE
  5
AE5
330
A4F
100
AcDbEntity
  8
0
 62
     0
100
AcDbLine
 10
11.7711060909466
 20
8.45835445838415
 30
0.0
 11
10.3941582359092
 21
9.835302313421578
 31
0.0
  0
LINE
  5
AE6
330
A4F
100
AcDbEntity
  8
0
 62
     0
100
AcDbLine
 10
13.40371932655722
 20
6.825741222773557
 30
0.0
 11
12.22184744543139
 21
8.007613103899387
 31
0.0
  0
LINE
  5
AE7
330
A4F
100
AcDbEntity
  8
0
 62
     0
100
AcDbLine
 10
9.058606090946568
 20
11.17085445838421
 30
0.0
 11
8.60446068104204
 21
11.62499986828873
 31
0.0
  0
LINE
  5
AE8
330
A4F
100
AcDbEntity
  8
0
 62
     0
100
AcDbLine
 10
16.32110609094661
 20
3.908354458384167
 30
0.0
 11
14.92110609094658
 21
5.308354458384201
 31
0.0
  0
LINE
  5
AE9
330
A4F
100
AcDbEntity
  8
0
 62
     0
100
AcDbLine
 10
11.7711060909466
 20
8.009341652330704
 30
0.0
 11
10.37110609094656
 21
9.409341652330738
 31
0.0
  0
LINE
  5
AEA
330
A4F
100
AcDbEntity
  8
0
 62
     0
100
AcDbLine
 10
13.0535596053435
 20
6.726888137933797
 30
0.0
 11
12.12299436059163
 21
7.657453382685673
 31
0.0
  0
LINE
  5
AEB
330
A4F
100
AcDbEntity
  8
0
 62
     0
100
AcDbLine
 10
9.05860609094654
 20
10.72184165233073
 30
0.0
 11
8.155447874988567
 21
11.62499986828873
 31
0.0
  0
LINE
  5
AEC
330
A4F
100
AcDbEntity
  8
0
 62
     0
100
AcDbLine
 10
16.17715419031125
 20
3.603293552966049
 30
0.0
 11
14.92110609094655
 21
4.859341652330726
 31
0.0
  0
LINE
  5
AED
330
A4F
100
AcDbEntity
  8
0
 62
     0
100
AcDbLine
 10
11.7711060909466
 20
7.560328846277228
 30
0.0
 11
10.37110609094656
 21
8.960328846277262
 31
0.0
  0
LINE
  5
AEE
330
A4F
100
AcDbEntity
  8
0
 62
     0
100
AcDbLine
 10
9.004089105811372
 20
10.32734583141245
 30
0.0
 11
7.706435068935093
 21
11.62499986828871
 31
0.0
  0
LINE
  5
AEF
330
A4F
100
AcDbEntity
  8
0
 62
     0
100
AcDbLine
 10
15.75643506893516
 20
3.574999868288671
 30
0.0
 11
14.92110609094655
 21
4.41032884627728
 31
0.0
  0
LINE
  5
AF0
330
A4F
100
AcDbEntity
  8
0
 62
     0
100
AcDbLine
 10
11.77110609094657
 20
7.111316040223782
 30
0.0
 11
10.37110609094654
 21
8.511316040223789
 31
0.0
  0
LINE
  5
AF1
330
A4F
100
AcDbEntity
  8
0
 62
     0
100
AcDbLine
 10
8.657422262881681
 20
10.22499986828867
 30
0.0
 11
7.257422262881647
 21
11.62499986828871
 31
0.0
  0
LINE
  5
AF2
330
A4F
100
AcDbEntity
  8
0
 62
     0
100
AcDbLine
 10
15.30742226288168
 20
3.574999868288642
 30
0.0
 11
14.92110609094655
 21
3.961316040223806
 31
0.0
  0
LINE
  5
AF3
330
A4F
100
AcDbEntity
  8
0
 62
     0
100
AcDbLine
 10
11.77110609094663
 20
6.662303234170307
 30
0.0
 11
10.37110609094656
 21
8.062303234170371
 31
0.0
  0
LINE
  5
AF4
330
A4F
100
AcDbEntity
  8
0
 62
     0
100
AcDbLine
 10
8.208409456828235
 20
10.2249998682887
 30
0.0
 11
6.825844820775812
 21
11.60756450434112
 31
0.0
  0
LINE
  5
AF5
330
A4F
100
AcDbEntity
  8
0
 62
     0
100
AcDbLine
 10
13.6948048665281
 20
4.738604458588809
 30
0.0
 11
13.45971068124674
 21
4.973698643870193
 31
0.0
  0
LINE
  5
AF6
330
A4F
100
AcDbEntity
  8
0
 62
     0
100
AcDbLine
 10
11.77110609094663
 20
6.213290428116835
 30
0.0
 11
10.37110609094656
 21
7.613290428116897
 31
0.0
  0
LINE
  5
AF7
330
A4F
100
AcDbEntity
  8
0
 62
     0
100
AcDbLine
 10
7.75939665077476
 20
10.22499986828867
 30
0.0
 11
6.479277416536575
 21
11.50511910252689
 31
0.0
  0
LINE
  5
AF8
330
A4F
100
AcDbEntity
  8
0
 62
     0
100
AcDbLine
 10
13.69610609094661
 20
4.288290428116852
 30
0.0
 11
13.00939665077478
 21
4.974999868288675
 31
0.0
  0
LINE
  5
AF9
330
A4F
100
AcDbEntity
  8
0
 62
     0
100
AcDbLine
 10
11.7711060909466
 20
5.764277622063359
 30
0.0
 11
10.37110609094659
 21
7.164277622063393
 31
0.0
  0
LINE
  5
AFA
330
A4F
100
AcDbEntity
  8
0
 62
     0
100
AcDbLine
 10
7.310383844721258
 20
10.2249998682887
 30
0.0
 11
6.197154086612954
 21
11.338229626397
 31
0.0
  0
LINE
  5
AFB
330
A4F
100
AcDbEntity
  8
0
 62
     0
100
AcDbLine
 10
13.69610609094658
 20
3.839277622063376
 30
0.0
 11
12.56038384472128
 21
4.974999868288705
 31
0.0
  0
LINE
  5
AFC
330
A4F
100
AcDbEntity
  8
0
 62
     0
100
AcDbLine
 10
7.055237430914047
 20
10.03113347604252
 30
0.0
 11
5.968107680492578
 21
11.11826322646399
 31
0.0
  0
LINE
  5
AFD
330
A4F
100
AcDbEntity
  8
0
 62
     0
100
AcDbLine
 10
13.5022396987004
 20
3.584131208256167
 30
0.0
 11
10.37110609094659
 21
6.715264816009978
 31
0.0
  0
LINE
  5
AFE
330
A4F
100
AcDbEntity
  8
0
 62
     0
100
AcDbLine
 10
7.04610609094658
 20
9.591252009956519
 30
0.0
 11
5.791367079258036
 21
10.84599102164506
 31
0.0
  0
LINE
  5
AFF
330
A4F
100
AcDbEntity
  8
0
 62
     0
100
AcDbLine
 10
13.06235823261445
 20
3.574999868288642
 30
0.0
 11
10.37110609094659
 21
6.266252009956502
 31
0.0
  0
LINE
  5
B00
330
A4F
100
AcDbEntity
  8
0
 62
     0
100
AcDbLine
 10
7.077173945014294
 20
9.111171349835302
 30
0.0
 11
5.675927028111175
 21
10.51241826673845
 31
0.0
  0
LINE
  5
B01
330
A4F
100
AcDbEntity
  8
0
 62
     0
100
AcDbLine
 10
12.61334542656095
 20
3.574999868288671
 30
0.0
 11
10.37110609094656
 21
5.817239203903027
 31
0.0
  0
LINE
  5
B02
330
A4F
100
AcDbEntity
  8
0
 62
     0
100
AcDbLine
 10
9.22329413655791
 20
6.516038352238267
 30
0.0
 11
5.646106090946602
 21
10.09322639784957
 31
0.0
  0
LINE
  5
B03
330
A4F
100
AcDbEntity
  8
0
 62
     0
100
AcDbLine
 10
12.13769657697918
 20
3.601635911816998
 30
0.0
 11
10.39774213447489
 21
5.341590354321283
 31
0.0
  0
LINE
  5
B04
330
A4F
100
AcDbEntity
  8
0
 62
     0
100
AcDbLine
 10
9.319241393600519
 20
5.971078289142212
 30
0.0
 11
5.646106090946574
 21
9.64421359179613
 31
0.0
  0
LINE
  5
B05
330
A4F
100
AcDbEntity
  8
0
 62
     0
100
AcDbLine
 10
11.45079262067838
 20
3.839527062064319
 30
0.0
 11
10.63563328472219
 21
4.654686398020544
 31
0.0
  0
LINE
  5
B06
330
A4F
100
AcDbEntity
  8
0
 62
     0
100
AcDbLine
 10
9.321106090946614
 20
5.520200785742644
 30
0.0
 11
5.649888314657744
 21
9.191418562031486
 31
0.0
  0
LINE
  5
B07
330
A4F
100
AcDbEntity
  8
0
 62
     0
100
AcDbLine
 10
9.321106090946555
 20
5.071187979689226
 30
0.0
 11
5.761533693819671
 21
8.630760376816084
 31
0.0
  0
LINE
  5
B08
330
A4F
100
AcDbEntity
  8
0
 62
     0
100
AcDbLine
 10
9.284846092880599
 20
4.658435171701768
 30
0.0
 11
7.903150271071067
 21
6.040130993511297
 31
0.0
  0
LINE
  5
B09
330
A4F
100
AcDbEntity
  8
0
 62
     0
100
AcDbLine
 10
9.163877123366175
 20
4.330391335162715
 30
0.0
 11
7.92110609094658
 21
5.573162367582311
 31
0.0
  0
LINE
  5
B0A
330
A4F
100
AcDbEntity
  8
0
 62
     0
100
AcDbLine
 10
8.982817499675292
 20
4.062438152800126
 30
0.0
 11
7.903156574796212
 21
5.142099077679205
 31
0.0
  0
LINE
  5
B0B
330
A4F
100
AcDbEntity
  8
0
 62
     0
100
AcDbLine
 10
8.749704313541855
 20
3.846538532880116
 30
0.0
 11
7.621242978133294
 21
4.974999868288705
 31
0.0
  0
LINE
  5
B0C
330
A4F
100
AcDbEntity
  8
0
 62
     0
100
AcDbLine
 10
8.463072089675449
 20
3.684157950693077
 30
0.0
 11
7.172230172079821
 21
4.974999868288675
 31
0.0
  0
LINE
  5
B0D
330
A4F
100
AcDbEntity
  8
0
 62
     0
100
AcDbLine
 10
8.11036579513248
 20
3.587851439182571
 30
0.0
 11
6.723217366026375
 21
4.974999868288675
 31
0.0
  0
LINE
  5
B0E
330
A4F
100
AcDbEntity
  8
0
 62
     0
100
AcDbLine
 10
7.674204559972905
 20
3.574999868288671
 30
0.0
 11
6.274204559972901
 21
4.974999868288675
 31
0.0
  0
LINE
  5
B0F
330
A4F
100
AcDbEntity
  8
0
 62
     0
100
AcDbLine
 10
7.225191753919459
 20
3.574999868288698
 30
0.0
 11
5.948529806510548
 21
4.85166181569761
 31
0.0
  0
LINE
  5
B10
330
A4F
100
AcDbEntity
  8
0
 62
     0
100
AcDbLine
 10
6.776178947865986
 20
3.574999868288671
 30
0.0
 11
5.90860609094659
 21
4.442572725208067
 31
0.0
  0
LINE
  5
B11
330
A4F
100
AcDbEntity
  8
0
 62
     0
100
AcDbLine
 10
6.327166141812481
 20
3.574999868288698
 30
0.0
 11
5.90860609094659
 21
3.99355991915462
 31
0.0
  0
LINE
  5
B12
330
A4F
100
AcDbEntity
  8
0
 62
     0
100
AcDbLine
 10
34.31694973328004
 20
3.581565756847424
 30
0.0
 11
34.51454020238793
 21
3.779156225955318
 31
0.0
  0
LINE
  5
B13
330
A4F
100
AcDbEntity
  8
0
 62
     0
100
AcDbLine
 10
33.86137103866786
 20
3.574999868288642
 30
0.0
 11
34.52110609094666
 21
4.23473492056746
 31
0.0
  0
LINE
  5
B14
330
A4F
100
AcDbEntity
  8
0
 62
     0
100
AcDbLine
 10
33.41235823261439
 20
3.574999868288671
 30
0.0
 11
34.52110609094666
 21
4.683747726620906
 31
0.0
  0
LINE
  5
B15
330
A4F
100
AcDbEntity
  8
0
 62
     0
100
AcDbLine
 10
33.13670487257249
 20
3.748359314300216
 30
0.0
 11
34.52110609094662
 21
5.132760532674382
 31
0.0
  0
LINE
  5
B16
330
A4F
100
AcDbEntity
  8
0
 62
     0
100
AcDbLine
 10
33.12110609094659
 20
4.181773338727793
 30
0.0
 11
34.52110609094662
 21
5.581773338727798
 31
0.0
  0
LINE
  5
B17
330
A4F
100
AcDbEntity
  8
0
 62
     0
100
AcDbLine
 10
33.12110609094662
 20
4.630786144781238
 30
0.0
 11
34.52110609094662
 21
6.030786144781273
 31
0.0
  0
LINE
  5
B18
330
A4F
100
AcDbEntity
  8
0
 62
     0
100
AcDbLine
 10
33.12110609094659
 20
5.079798950834713
 30
0.0
 11
34.52110609094662
 21
6.479798950834747
 31
0.0
  0
LINE
  5
B19
330
A4F
100
AcDbEntity
  8
0
 62
     0
100
AcDbLine
 10
33.12110609094659
 20
5.52881175688816
 30
0.0
 11
34.52110609094662
 21
6.928811756888192
 31
0.0
  0
LINE
  5
B1A
330
A4F
100
AcDbEntity
  8
0
 62
     0
100
AcDbLine
 10
31.33438852197923
 20
3.742094187920797
 30
0.0
 11
31.90401177131451
 21
4.311717437256106
 31
0.0
  0
LINE
  5
B1B
330
A4F
100
AcDbEntity
  8
0
 62
     0
100
AcDbLine
 10
33.12110609094659
 20
5.977824562941606
 30
0.0
 11
34.52110609094662
 21
7.377824562941639
 31
0.0
  0
LINE
  5
B1C
330
A4F
100
AcDbEntity
  8
0
 62
     0
100
AcDbLine
 10
30.71910443871783
 20
3.575822910712843
 30
0.0
 11
32.07028304852248
 21
4.927001520517478
 31
0.0
  0
LINE
  5
B1D
330
A4F
100
AcDbEntity
  8
0
 62
     0
100
AcDbLine
 10
33.12110609094659
 20
6.426837368995079
 30
0.0
 11
34.52110609094662
 21
7.826837368995086
 31
0.0
  0
LINE
  5
B1E
330
A4F
100
AcDbEntity
  8
0
 62
     0
100
AcDbLine
 10
30.26926859024013
 20
3.574999868288613
 30
0.0
 11
32.07110609094665
 21
5.376837368995096
 31
0.0
  0
LINE
  5
B1F
330
A4F
100
AcDbEntity
  8
0
 62
     0
100
AcDbLine
 10
33.12110609094659
 20
6.875850175048526
 30
0.0
 11
34.5211060909466
 21
8.27585017504856
 31
0.0
  0
LINE
  5
B20
330
A4F
100
AcDbEntity
  8
0
 62
     0
100
AcDbLine
 10
29.82025578418668
 20
3.574999868288613
 30
0.0
 11
32.07110609094661
 21
5.825850175048572
 31
0.0
  0
LINE
  5
B21
330
A4F
100
AcDbEntity
  8
0
 62
     0
100
AcDbLine
 10
33.12110609094659
 20
7.324862981101973
 30
0.0
 11
34.52110609094662
 21
8.724862981102006
 31
0.0
  0
LINE
  5
B22
330
A4F
100
AcDbEntity
  8
0
 62
     0
100
AcDbLine
 10
29.37124297813327
 20
3.574999868288642
 30
0.0
 11
32.07110609094665
 21
6.274862981102017
 31
0.0
  0
LINE
  5
B23
330
A4F
100
AcDbEntity
  8
0
 62
     0
100
AcDbLine
 10
30.61881048990608
 20
5.271580186114931
 30
0.0
 11
32.07110609094665
 21
6.723875787155462
 31
0.0
  0
LINE
  5
B24
330
A4F
100
AcDbEntity
  8
0
 62
     0
100
AcDbLine
 10
33.12110609094659
 20
7.773875787155418
 30
0.0
 11
34.52110609094662
 21
9.173875787155452
 31
0.0
  0
LINE
  5
B25
330
A4F
100
AcDbEntity
  8
0
 62
     0
100
AcDbLine
 10
28.92223017207977
 20
3.574999868288613
 30
0.0
 11
30.37452577312032
 21
5.027295469329146
 31
0.0
  0
LINE
  5
B26
330
A4F
100
AcDbEntity
  8
0
 62
     0
100
AcDbLine
 10
30.67110609094658
 20
5.772888593208903
 30
0.0
 11
32.07110609094661
 21
7.172888593208937
 31
0.0
  0
LINE
  5
B27
330
A4F
100
AcDbEntity
  8
0
 62
     0
100
AcDbLine
 10
33.12110609094657
 20
8.222888593208892
 30
0.0
 11
34.5211060909466
 21
9.622888593208925
 31
0.0
  0
LINE
  5
B28
330
A4F
100
AcDbEntity
  8
0
 62
     0
100
AcDbLine
 10
28.52919224171492
 20
3.630974743977219
 30
0.0
 11
29.87321736602635
 21
4.974999868288648
 31
0.0
  0
LINE
  5
B29
330
A4F
100
AcDbEntity
  8
0
 62
     0
100
AcDbLine
 10
30.6711060909466
 20
6.221901399262407
 30
0.0
 11
32.07110609094661
 21
7.621901399262384
 31
0.0
  0
LINE
  5
B2A
330
A4F
100
AcDbEntity
  8
0
 62
     0
100
AcDbLine
 10
33.12110609094657
 20
8.671901399262367
 30
0.0
 11
34.5211060909466
 21
10.07190139926237
 31
0.0
  0
LINE
  5
B2B
330
A4F
100
AcDbEntity
  8
0
 62
     0
100
AcDbLine
 10
28.21519880810985
 20
3.765994116425644
 30
0.0
 11
29.42464345279507
 21
4.975438761110865
 31
0.0
  0
LINE
  5
B2C
330
A4F
100
AcDbEntity
  8
0
 62
     0
100
AcDbLine
 10
30.67110609094664
 20
6.670914205315852
 30
0.0
 11
32.07110609094661
 21
8.07091420531583
 31
0.0
  0
LINE
  5
B2D
330
A4F
100
AcDbEntity
  8
0
 62
     0
100
AcDbLine
 10
33.12110609094659
 20
9.120914205315783
 30
0.0
 11
34.5211060909466
 21
10.52091420531581
 31
0.0
  0
LINE
  5
B2E
330
A4F
100
AcDbEntity
  8
0
 62
     0
100
AcDbLine
 10
27.95856886742731
 20
3.958376981796503
 30
0.0
 11
29.10290415843872
 21
5.102712272807933
 31
0.0
  0
LINE
  5
B2F
330
A4F
100
AcDbEntity
  8
0
 62
     0
100
AcDbLine
 10
30.67110609094664
 20
7.119927011369297
 30
0.0
 11
32.07110609094661
 21
8.519927011369302
 31
0.0
  0
LINE
  5
B30
330
A4F
100
AcDbEntity
  8
0
 62
     0
100
AcDbLine
 10
33.12110609094657
 20
9.569927011369259
 30
0.0
 11
34.5211060909466
 21
10.96992701136929
 31
0.0
  0
LINE
  5
B31
330
A4F
100
AcDbEntity
  8
0
 62
     0
100
AcDbLine
 10
27.75358677981475
 20
4.202407700237414
 30
0.0
 11
28.93428501923402
 21
5.383105939656701
 31
0.0
  0
LINE
  5
B32
330
A4F
100
AcDbEntity
  8
0
 62
     0
100
AcDbLine
 10
30.6711060909466
 20
7.568939817422772
 30
0.0
 11
32.07110609094665
 21
8.968939817422807
 31
0.0
  0
LINE
  5
B33
330
A4F
100
AcDbEntity
  8
0
 62
     0
100
AcDbLine
 10
33.12110609094657
 20
10.0189398174227
 30
0.0
 11
34.51603151417137
 21
11.41386524064753
 31
0.0
  0
LINE
  5
B34
330
A4F
100
AcDbEntity
  8
0
 62
     0
100
AcDbLine
 10
27.60362434059774
 20
4.501458067073912
 30
0.0
 11
28.92110609094661
 21
5.818939817422744
 31
0.0
  0
LINE
  5
B35
330
A4F
100
AcDbEntity
  8
0
 62
     0
100
AcDbLine
 10
30.67110609094664
 20
8.01795262347619
 30
0.0
 11
32.07110609094667
 21
9.417952623476224
 31
0.0
  0
LINE
  5
B36
330
A4F
100
AcDbEntity
  8
0
 62
     0
100
AcDbLine
 10
33.12110609094657
 20
10.46795262347615
 30
0.0
 11
34.27747434163162
 21
11.62432087416121
 31
0.0
  0
LINE
  5
B37
330
A4F
100
AcDbEntity
  8
0
 62
     0
100
AcDbLine
 10
27.52491757311952
 20
4.871764105649106
 30
0.0
 11
28.92110609094661
 21
6.26795262347619
 31
0.0
  0
LINE
  5
B38
330
A4F
100
AcDbEntity
  8
0
 62
     0
100
AcDbLine
 10
30.6711060909466
 20
8.466965429529665
 30
0.0
 11
32.07110609094665
 21
9.866965429529699
 31
0.0
  0
LINE
  5
B39
330
A4F
100
AcDbEntity
  8
0
 62
     0
100
AcDbLine
 10
33.12110609094659
 20
10.91696542952965
 30
0.0
 11
33.82914052970559
 21
11.62499986828865
 31
0.0
  0
LINE
  5
B3A
330
A4F
100
AcDbEntity
  8
0
 62
     0
100
AcDbLine
 10
27.52110609094663
 20
5.316965429529659
 30
0.0
 11
28.92110609094663
 21
6.716965429529691
 31
0.0
  0
LINE
  5
B3B
330
A4F
100
AcDbEntity
  8
0
 62
     0
100
AcDbLine
 10
30.6711060909466
 20
8.915978235583137
 30
0.0
 11
32.07110609094665
 21
10.31597823558314
 31
0.0
  0
LINE
  5
B3C
330
A4F
100
AcDbEntity
  8
0
 62
     0
100
AcDbLine
 10
27.5211060909466
 20
5.765978235583132
 30
0.0
 11
28.92110609094663
 21
7.165978235583168
 31
0.0
  0
LINE
  5
B3D
330
A4F
100
AcDbEntity
  8
0
 62
     0
100
AcDbLine
 10
33.12112944832033
 20
11.36600159295684
 30
0.0
 11
33.38010436627846
 21
11.62497651091496
 31
0.0
  0
LINE
  5
B3E
330
A4F
100
AcDbEntity
  8
0
 62
     0
100
AcDbLine
 10
25.3603282755906
 20
3.605200420227106
 30
0.0
 11
26.44090553900818
 21
4.685777683644714
 31
0.0
  0
LINE
  5
B3F
330
A4F
100
AcDbEntity
  8
0
 62
     0
100
AcDbLine
 10
27.5211060909466
 20
6.214991041636579
 30
0.0
 11
28.92110609094663
 21
7.614991041636612
 31
0.0
  0
LINE
  5
B40
330
A4F
100
AcDbEntity
  8
0
 62
     0
100
AcDbLine
 10
30.6711060909466
 20
9.364991041636583
 30
0.0
 11
32.07110609094661
 21
10.76499104163662
 31
0.0
  0
LINE
  5
B41
330
A4F
100
AcDbEntity
  8
0
 62
     0
100
AcDbLine
 10
24.88111491759867
 20
3.574999868288671
 30
0.0
 11
26.47110609094656
 21
5.16499104163654
 31
0.0
  0
LINE
  5
B42
330
A4F
100
AcDbEntity
  8
0
 62
     0
100
AcDbLine
 10
27.5211060909466
 20
6.664003847690025
 30
0.0
 11
28.92110609094663
 21
8.064003847690058
 31
0.0
  0
LINE
  5
B43
330
A4F
100
AcDbEntity
  8
0
 62
     0
100
AcDbLine
 10
30.6711060909466
 20
9.814003847690033
 30
0.0
 11
32.07110609094665
 21
11.21400384769006
 31
0.0
  0
LINE
  5
B44
330
A4F
100
AcDbEntity
  8
0
 62
     0
100
AcDbLine
 10
24.43210211154521
 20
3.574999868288642
 30
0.0
 11
26.47110609094662
 21
5.614003847690013
 31
0.0
  0
LINE
  5
B45
330
A4F
100
AcDbEntity
  8
0
 62
     0
100
AcDbLine
 10
27.5211060909466
 20
7.113016653743499
 30
0.0
 11
28.92110609094663
 21
8.513016653743505
 31
0.0
  0
LINE
  5
B46
330
A4F
100
AcDbEntity
  8
0
 62
     0
100
AcDbLine
 10
30.6711060909466
 20
10.26301665374347
 30
0.0
 11
31.97423736352956
 21
11.56614792632646
 31
0.0
  0
LINE
  5
B47
330
A4F
100
AcDbEntity
  8
0
 62
     0
100
AcDbLine
 10
23.98308930549177
 20
3.574999868288671
 30
0.0
 11
26.46394679074012
 21
6.055857353537021
 31
0.0
  0
LINE
  5
B48
330
A4F
100
AcDbEntity
  8
0
 62
     0
100
AcDbLine
 10
27.5211060909466
 20
7.562029459796946
 30
0.0
 11
28.92110609094661
 21
8.96202945979698
 31
0.0
  0
LINE
  5
B49
330
A4F
100
AcDbEntity
  8
0
 62
     0
100
AcDbLine
 10
30.67110609094658
 20
10.71202945979695
 30
0.0
 11
31.58407649943831
 21
11.62499986828868
 31
0.0
  0
LINE
  5
B4A
330
A4F
100
AcDbEntity
  8
0
 62
     0
100
AcDbLine
 10
23.5340764994383
 20
3.574999868288671
 30
0.0
 11
26.39649060542575
 21
6.437413974276098
 31
0.0
  0
LINE
  5
B4B
330
A4F
100
AcDbEntity
  8
0
 62
     0
100
AcDbLine
 10
27.5211060909466
 20
8.011042265850392
 30
0.0
 11
28.92110609094663
 21
9.411042265850426
 31
0.0
  0
LINE
  5
B4C
330
A4F
100
AcDbEntity
  8
0
 62
     0
100
AcDbLine
 10
25.07110609094661
 20
5.561042265850403
 30
0.0
 11
26.27619687696648
 21
6.766133051870241
 31
0.0
  0
LINE
  5
B4D
330
A4F
100
AcDbEntity
  8
0
 62
     0
100
AcDbLine
 10
30.6711060909466
 20
11.16104226585039
 30
0.0
 11
31.13506369338489
 21
11.62499986828868
 31
0.0
  0
LINE
  5
B4E
330
A4F
100
AcDbEntity
  8
0
 62
     0
100
AcDbLine
 10
23.14919136995041
 20
3.639127544854203
 30
0.0
 11
24.48506369338486
 21
4.974999868288648
 31
0.0
  0
LINE
  5
B4F
330
A4F
100
AcDbEntity
  8
0
 62
     0
100
AcDbLine
 10
25.06117080338296
 20
6.000119784340199
 30
0.0
 11
26.11444722453621
 21
7.053396205493442
 31
0.0
  0
LINE
  5
B50
330
A4F
100
AcDbEntity
  8
0
 62
     0
100
AcDbLine
 10
27.5211060909466
 20
8.460055071903838
 30
0.0
 11
28.92110609094661
 21
9.860055071903872
 31
0.0
  0
LINE
  5
B51
330
A4F
100
AcDbEntity
  8
0
 62
     0
100
AcDbLine
 10
23.05860609094662
 20
3.997555071903859
 30
0.0
 11
24.03605088733138
 21
4.974999868288648
 31
0.0
  0
LINE
  5
B52
330
A4F
100
AcDbEntity
  8
0
 62
     0
100
AcDbLine
 10
24.92397838481352
 20
6.311940171824262
 30
0.0
 11
25.9165116655723
 21
7.304473452583038
 31
0.0
  0
LINE
  5
B53
330
A4F
100
AcDbEntity
  8
0
 62
     0
100
AcDbLine
 10
27.52110609094657
 20
8.909067877957312
 30
0.0
 11
28.92110609094661
 21
10.30906787795734
 31
0.0
  0
LINE
  5
B54
330
A4F
100
AcDbEntity
  8
0
 62
     0
100
AcDbLine
 10
23.05860609094659
 20
4.446567877957335
 30
0.0
 11
23.58703808127793
 21
4.974999868288675
 31
0.0
  0
LINE
  5
B55
330
A4F
100
AcDbEntity
  8
0
 62
     0
100
AcDbLine
 10
27.5211060909466
 20
9.358080684010758
 30
0.0
 11
28.92110609094663
 21
10.75808068401076
 31
0.0
  0
LINE
  5
B56
330
A4F
100
AcDbEntity
  8
0
 62
     0
100
AcDbLine
 10
24.70334093625499
 20
6.540315529319116
 30
0.0
 11
25.69329042991614
 21
7.530265022980272
 31
0.0
  0
LINE
  5
B57
330
A4F
100
AcDbEntity
  8
0
 62
     0
100
AcDbLine
 10
24.47883453322825
 20
6.764821932345852
 30
0.0
 11
25.46878402688941
 21
7.754771426007009
 31
0.0
  0
LINE
  5
B58
330
A4F
100
AcDbEntity
  8
0
 62
     0
100
AcDbLine
 10
27.52110609094657
 20
9.807093490064202
 30
0.0
 11
28.92110609094661
 21
11.20709349006423
 31
0.0
  0
LINE
  5
B59
330
A4F
100
AcDbEntity
  8
0
 62
     0
100
AcDbLine
 10
21.28901246917101
 20
3.574999868288642
 30
0.0
 11
21.74610609094659
 21
4.032093490064198
 31
0.0
  0
LINE
  5
B5A
330
A4F
100
AcDbEntity
  8
0
 62
     0
100
AcDbLine
 10
24.25432813020151
 20
6.989328335372589
 30
0.0
 11
25.24427762386267
 21
7.979277829033747
 31
0.0
  0
LINE
  5
B5B
330
A4F
100
AcDbEntity
  8
0
 62
     0
100
AcDbLine
 10
27.52110609094657
 20
10.25610629611767
 30
0.0
 11
28.82801563689728
 21
11.56301584206835
 31
0.0
  0
LINE
  5
B5C
330
A4F
100
AcDbEntity
  8
0
 62
     0
100
AcDbLine
 10
20.83999966311754
 20
3.574999868288642
 30
0.0
 11
21.74610609094662
 21
4.4811062961177
 31
0.0
  0
LINE
  5
B5D
330
A4F
100
AcDbEntity
  8
0
 62
     0
100
AcDbLine
 10
24.02982172717477
 20
7.213834738399326
 30
0.0
 11
25.01977122083593
 21
8.203784232060485
 31
0.0
  0
LINE
  5
B5E
330
A4F
100
AcDbEntity
  8
0
 62
     0
100
AcDbLine
 10
27.52110609094657
 20
10.70511910217112
 30
0.0
 11
28.44098685706413
 21
11.62499986828871
 31
0.0
  0
LINE
  5
B5F
330
A4F
100
AcDbEntity
  8
0
 62
     0
100
AcDbLine
 10
20.44679242599508
 20
3.630805437219634
 30
0.0
 11
21.74610609094659
 21
4.930119102171174
 31
0.0
  0
LINE
  5
B60
330
A4F
100
AcDbEntity
  8
0
 62
     0
100
AcDbLine
 10
23.80531532414806
 20
7.438341141426036
 30
0.0
 11
24.79526481780922
 21
8.428290635087194
 31
0.0
  0
LINE
  5
B61
330
A4F
100
AcDbEntity
  8
0
 62
     0
100
AcDbLine
 10
27.52110609094657
 20
11.15413190822457
 30
0.0
 11
27.99197405101071
 21
11.62499986828868
 31
0.0
  0
LINE
  5
B62
330
A4F
100
AcDbEntity
  8
0
 62
     0
100
AcDbLine
 10
20.34610609094662
 20
3.979131908224616
 30
0.0
 11
21.74610609094662
 21
5.379131908224592
 31
0.0
  0
LINE
  5
B63
330
A4F
100
AcDbEntity
  8
0
 62
     0
100
AcDbLine
 10
23.58080892112133
 20
7.662847544452771
 30
0.0
 11
24.57075841478248
 21
8.652797038113931
 31
0.0
  0
LINE
  5
B64
330
A4F
100
AcDbEntity
  8
0
 62
     0
100
AcDbLine
 10
20.34610609094662
 20
4.428144714278089
 30
0.0
 11
21.74610609094659
 21
5.828144714278066
 31
0.0
  0
LINE
  5
B65
330
A4F
100
AcDbEntity
  8
0
 62
     0
100
AcDbLine
 10
23.35731697060067
 20
7.888368399985608
 30
0.0
 11
24.34930373729168
 21
8.880355166676594
 31
0.0
  0
LINE
  5
B66
330
A4F
100
AcDbEntity
  8
0
 62
     0
100
AcDbLine
 10
20.34610609094662
 20
4.877157520331535
 30
0.0
 11
21.74610609094659
 21
6.277157520331542
 31
0.0
  0
LINE
  5
B67
330
A4F
100
AcDbEntity
  8
0
 62
     0
100
AcDbLine
 10
25.6939484389037
 20
10.22499986828864
 30
0.0
 11
26.20860609094663
 21
10.73965752033154
 31
0.0
  0
LINE
  5
B68
330
A4F
100
AcDbEntity
  8
0
 62
     0
100
AcDbLine
 10
19.0997779785915
 20
3.63082940797642
 30
0.0
 11
19.14460415931901
 21
3.675655588703961
 31
0.0
  0
LINE
  5
B69
330
A4F
100
AcDbEntity
  8
0
 62
     0
100
AcDbLine
 10
23.15831588118967
 20
8.138380116628042
 30
0.0
 11
24.20813301989898
 21
9.188197255337341
 31
0.0
  0
LINE
  5
B6A
330
A4F
100
AcDbEntity
  8
0
 62
     0
100
AcDbLine
 10
20.34610609094662
 20
5.326170326384981
 30
0.0
 11
21.74610609094662
 21
6.726170326384958
 31
0.0
  0
LINE
  5
B6B
330
A4F
100
AcDbEntity
  8
0
 62
     0
100
AcDbLine
 10
25.24493563285031
 20
10.22499986828867
 30
0.0
 11
26.20860609094663
 21
11.18867032638499
 31
0.0
  0
LINE
  5
B6C
330
A4F
100
AcDbEntity
  8
0
 62
     0
100
AcDbLine
 10
18.59493563285028
 20
3.574999868288642
 30
0.0
 11
19.12782518100354
 21
4.107889416441905
 31
0.0
  0
LINE
  5
B6D
330
A4F
100
AcDbEntity
  8
0
 62
     0
100
AcDbLine
 10
22.99539874899133
 20
8.424475790483171
 30
0.0
 11
24.19610609094667
 21
9.625183132438507
 31
0.0
  0
LINE
  5
B6E
330
A4F
100
AcDbEntity
  8
0
 62
     0
100
AcDbLine
 10
20.34610609094662
 20
5.775183132438427
 30
0.0
 11
21.74610609094659
 21
7.175183132438433
 31
0.0
  0
LINE
  5
B6F
330
A4F
100
AcDbEntity
  8
0
 62
     0
100
AcDbLine
 10
24.79592282679681
 20
10.22499986828864
 30
0.0
 11
26.12527162504767
 21
11.55434866653951
 31
0.0
  0
LINE
  5
B70
330
A4F
100
AcDbEntity
  8
0
 62
     0
100
AcDbLine
 10
18.14592282679677
 20
3.574999868288613
 30
0.0
 11
19.0200621075507
 21
4.449139149042537
 31
0.0
  0
LINE
  5
B71
330
A4F
100
AcDbEntity
  8
0
 62
     0
100
AcDbLine
 10
20.34610609094659
 20
6.224195938491902
 30
0.0
 11
21.74610609094659
 21
7.62419593849188
 31
0.0
  0
LINE
  5
B72
330
A4F
100
AcDbEntity
  8
0
 62
     0
100
AcDbLine
 10
22.87370771765628
 20
8.751797565201599
 30
0.0
 11
25.74691002074337
 21
11.62499986828868
 31
0.0
  0
LINE
  5
B73
330
A4F
100
AcDbEntity
  8
0
 62
     0
100
AcDbLine
 10
17.84991567146929
 20
3.728005519014601
 30
0.0
 11
18.91229903409785
 21
4.790388881643167
 31
0.0
  0
LINE
  5
B74
330
A4F
100
AcDbEntity
  8
0
 62
     0
100
AcDbLine
 10
20.34610609094659
 20
6.673208744545377
 30
0.0
 11
21.74610609094656
 21
8.073208744545354
 31
0.0
  0
LINE
  5
B75
330
A4F
100
AcDbEntity
  8
0
 62
     0
100
AcDbLine
 10
22.80435428811344
 20
9.131456941712226
 30
0.0
 11
25.29789721468992
 21
11.62499986828868
 31
0.0
  0
LINE
  5
B76
330
A4F
100
AcDbEntity
  8
0
 62
     0
100
AcDbLine
 10
17.74053596064499
 20
4.067638614243776
 30
0.0
 11
18.80453596064501
 21
5.131638614243796
 31
0.0
  0
LINE
  5
B77
330
A4F
100
AcDbEntity
  8
0
 62
     0
100
AcDbLine
 10
20.34610609094662
 20
7.122221550598793
 30
0.0
 11
21.74610609094659
 21
8.5222215505988
 31
0.0
  0
LINE
  5
B78
330
A4F
100
AcDbEntity
  8
0
 62
     0
100
AcDbLine
 10
22.7961060909466
 20
9.572221550598783
 30
0.0
 11
24.84888440863648
 21
11.62499986828868
 31
0.0
  0
LINE
  5
B79
330
A4F
100
AcDbEntity
  8
0
 62
     0
100
AcDbLine
 10
17.63277288719217
 20
4.408888346844378
 30
0.0
 11
18.69677288719222
 21
5.472888346844398
 31
0.0
  0
LINE
  5
B7A
330
A4F
100
AcDbEntity
  8
0
 62
     0
100
AcDbLine
 10
20.34610609094659
 20
7.571234356652268
 30
0.0
 11
21.74610609094659
 21
8.971234356652246
 31
0.0
  0
LINE
  5
B7B
330
A4F
100
AcDbEntity
  8
0
 62
     0
100
AcDbLine
 10
22.79610609094663
 20
10.02123435665228
 30
0.0
 11
24.39987160258303
 21
11.62499986828868
 31
0.0
  0
LINE
  5
B7C
330
A4F
100
AcDbEntity
  8
0
 62
     0
100
AcDbLine
 10
17.5250098137393
 20
4.750138079444981
 30
0.0
 11
18.5890098137394
 21
5.814138079445085
 31
0.0
  0
LINE
  5
B7D
330
A4F
100
AcDbEntity
  8
0
 62
     0
100
AcDbLine
 10
20.34610609094659
 20
8.020247162705715
 30
0.0
 11
21.74610609094662
 21
9.420247162705747
 31
0.0
  0
LINE
  5
B7E
330
A4F
100
AcDbEntity
  8
0
 62
     0
100
AcDbLine
 10
17.41724674028648
 20
5.091387812045637
 30
0.0
 11
18.48124674028653
 21
6.15538781204566
 31
0.0
  0
LINE
  5
B7F
330
A4F
100
AcDbEntity
  8
0
 62
     0
100
AcDbLine
 10
22.82276442600721
 20
10.49690549776636
 30
0.0
 11
23.92420046146888
 21
11.59834153322802
 31
0.0
  0
LINE
  5
B80
330
A4F
100
AcDbEntity
  8
0
 62
     0
100
AcDbLine
 10
15.90085879652949
 20
3.574999868288642
 30
0.0
 11
16.32110609094658
 21
3.995247162705736
 31
0.0
  0
LINE
  5
B81
330
A4F
100
AcDbEntity
  8
0
 62
     0
100
AcDbLine
 10
17.3094836668337
 20
5.43263754464624
 30
0.0
 11
18.37348366683372
 21
6.49663754464629
 31
0.0
  0
LINE
  5
B82
330
A4F
100
AcDbEntity
  8
0
 62
     0
100
AcDbLine
 10
20.34610609094659
 20
8.469259968759159
 30
0.0
 11
21.74610609094662
 21
9.869259968759195
 31
0.0
  0
LINE
  5
B83
330
A4F
100
AcDbEntity
  8
0
 62
     0
100
AcDbLine
 10
15.45184599047607
 20
3.574999868288613
 30
0.0
 11
16.32110609094661
 21
4.444259968759183
 31
0.0
  0
LINE
  5
B84
330
A4F
100
AcDbEntity
  8
0
 62
     0
100
AcDbLine
 10
17.20172059338085
 20
5.773887277246871
 30
0.0
 11
18.26572059338087
 21
6.837887277246919
 31
0.0
  0
LINE
  5
B85
330
A4F
100
AcDbEntity
  8
0
 62
     0
100
AcDbLine
 10
20.34610609094659
 20
8.918272774812635
 30
0.0
 11
21.74610609094662
 21
10.31827277481264
 31
0.0
  0
LINE
  5
B86
330
A4F
100
AcDbEntity
  8
0
 62
     0
100
AcDbLine
 10
15.04340805824824
 20
3.61557474211429
 30
0.0
 11
16.32110609094661
 21
4.893272774812628
 31
0.0
  0
LINE
  5
B87
330
A4F
100
AcDbEntity
  8
0
 62
     0
100
AcDbLine
 10
17.09395751992801
 20
6.115137009847501
 30
0.0
 11
18.15795751992803
 21
7.17913700984755
 31
0.0
  0
LINE
  5
B88
330
A4F
100
AcDbEntity
  8
0
 62
     0
100
AcDbLine
 10
20.34610609094659
 20
9.367285580866081
 30
0.0
 11
21.74610609094659
 21
10.76728558086611
 31
0.0
  0
LINE
  5
B89
330
A4F
100
AcDbEntity
  8
0
 62
     0
100
AcDbLine
 10
14.92110609094661
 20
3.942285580866098
 30
0.0
 11
16.32110609094664
 21
5.342285580866131
 31
0.0
  0
LINE
  5
B8A
330
A4F
100
AcDbEntity
  8
0
 62
     0
100
AcDbLine
 10
16.98619444647519
 20
6.456386742448102
 30
0.0
 11
18.05019444647527
 21
7.520386742448182
 31
0.0
  0
LINE
  5
B8B
330
A4F
100
AcDbEntity
  8
0
 62
     0
100
AcDbLine
 10
20.34610609094659
 20
9.816298386919527
 30
0.0
 11
21.74610609094662
 21
11.21629838691956
 31
0.0
  0
LINE
  5
B8C
330
A4F
100
AcDbEntity
  8
0
 62
     0
100
AcDbLine
 10
14.92110609094661
 20
4.391298386919543
 30
0.0
 11
16.32110609094664
 21
5.791298386919577
 31
0.0
  0
LINE
  5
B8D
330
A4F
100
AcDbEntity
  8
0
 62
     0
100
AcDbLine
 10
16.86879505298932
 20
6.788000155015736
 30
0.0
 11
18.18394208695477
 21
8.103147188981182
 31
0.0
  0
LINE
  5
B8E
330
A4F
100
AcDbEntity
  8
0
 62
     0
100
AcDbLine
 10
20.34610609094662
 20
10.26531119297303
 30
0.0
 11
21.6479683796974
 21
11.56717348172378
 31
0.0
  0
LINE
  5
B8F
330
A4F
100
AcDbEntity
  8
0
 62
     0
100
AcDbLine
 10
14.92110609094661
 20
4.840311192973018
 30
0.0
 11
16.32110609094664
 21
6.240311192973023
 31
0.0
  0
LINE
  5
B90
330
A4F
100
AcDbEntity
  8
0
 62
     0
100
AcDbLine
 10
16.52520236805563
 20
6.893420276135515
 30
0.0
 11
18.39117876667177
 21
8.759396674751656
 31
0.0
  0
LINE
  5
B91
330
A4F
100
AcDbEntity
  8
0
 62
     0
100
AcDbLine
 10
14.92110609094661
 20
5.289323999026463
 30
0.0
 11
16.32768568309975
 21
6.695903591179613
 31
0.0
  0
LINE
  5
B92
330
A4F
100
AcDbEntity
  8
0
 62
     0
100
AcDbLine
 10
20.34610609094662
 20
10.71432399902647
 30
0.0
 11
21.25678196020879
 21
11.62499986828868
 31
0.0
  0
LINE
  5
B93
330
A4F
100
AcDbEntity
  8
0
 62
     0
100
AcDbLine
 10
13.20678196020877
 20
3.574999868288642
 30
0.0
 11
13.69610609094661
 21
4.064323999026497
 31
0.0
  0
LINE
  5
B94
330
A4F
100
AcDbEntity
  8
0
 62
     0
100
AcDbLine
 10
14.92110609094658
 20
5.738336805079938
 30
0.0
 11
18.59841544638874
 21
9.415646160522099
 31
0.0
  0
LINE
  5
B95
330
A4F
100
AcDbEntity
  8
0
 62
     0
100
AcDbLine
 10
20.34610609094659
 20
11.16333680507995
 30
0.0
 11
20.80776915415532
 21
11.62499986828868
 31
0.0
  0
LINE
  5
B96
330
A4F
100
AcDbEntity
  8
0
 62
     0
100
AcDbLine
 10
12.75776915415531
 20
3.574999868288671
 30
0.0
 11
13.69610609094664
 21
4.51333680508
 31
0.0
  0
LINE
  5
B97
330
A4F
100
AcDbEntity
  8
0
 62
     0
100
AcDbLine
 10
14.92110609094661
 20
6.187349611133355
 30
0.0
 11
18.80565212610579
 21
10.07189564629257
 31
0.0
  0
LINE
  5
B98
330
A4F
100
AcDbEntity
  8
0
 62
     0
100
AcDbLine
 10
12.31459666027691
 20
3.580840180463694
 30
0.0
 11
13.62543894914352
 21
4.891682469330277
 31
0.0
  0
LINE
  5
B99
330
A4F
100
AcDbEntity
  8
0
 62
     0
100
AcDbLine
 10
14.92110609094658
 20
6.63636241718683
 30
0.0
 11
16.58474354204841
 21
8.299999868288665
 31
0.0
  0
LINE
  5
B9A
330
A4F
100
AcDbEntity
  8
0
 62
     0
100
AcDbLine
 10
16.96673495966876
 20
8.681991285909019
 30
0.0
 11
19.01288880582276
 21
10.72814513206302
 31
0.0
  0
LINE
  5
B9B
330
A4F
100
AcDbEntity
  8
0
 62
     0
100
AcDbLine
 10
11.93051640155343
 20
3.645772727793654
 30
0.0
 11
13.25974354204839
 21
4.974999868288648
 31
0.0
  0
LINE
  5
B9C
330
A4F
100
AcDbEntity
  8
0
 62
     0
100
AcDbLine
 10
14.92110609094658
 20
7.085375223240305
 30
0.0
 11
16.33010137630074
 21
8.494370508594442
 31
0.0
  0
LINE
  5
B9D
330
A4F
100
AcDbEntity
  8
0
 62
     0
100
AcDbLine
 10
17.17397163938574
 20
9.338240771679435
 30
0.0
 11
19.20042453172342
 21
11.36469366401715
 31
0.0
  0
LINE
  5
B9E
330
A4F
100
AcDbEntity
  8
0
 62
     0
100
AcDbLine
 10
11.59994927314022
 20
3.76421840543395
 30
0.0
 11
12.81073073599495
 21
4.974999868288648
 31
0.0
  0
LINE
  5
B9F
330
A4F
100
AcDbEntity
  8
0
 62
     0
100
AcDbLine
 10
14.92110609094661
 20
7.534388029293722
 30
0.0
 11
16.32110609094661
 21
8.934388029293755
 31
0.0
  0
LINE
  5
BA0
330
A4F
100
AcDbEntity
  8
0
 62
     0
100
AcDbLine
 10
17.38120831910279
 20
9.994490257449939
 30
0.0
 11
19.00341859543883
 21
11.61670053378597
 31
0.0
  0
LINE
  5
BA1
330
A4F
100
AcDbEntity
  8
0
 62
     0
100
AcDbLine
 10
11.31114763105807
 20
3.924429569405191
 30
0.0
 11
12.3691785603045
 21
4.982460498651646
 31
0.0
  0
LINE
  5
BA2
330
A4F
100
AcDbEntity
  8
0
 62
     0
100
AcDbLine
 10
14.92110609094658
 20
7.983400835347197
 30
0.0
 11
16.32110609094661
 21
9.383400835347233
 31
0.0
  0
LINE
  5
BA3
330
A4F
100
AcDbEntity
  8
0
 62
     0
100
AcDbLine
 10
17.58844499881976
 20
10.65073974322035
 30
0.0
 11
18.56270512388803
 21
11.62499986828865
 31
0.0
  0
LINE
  5
BA4
330
A4F
100
AcDbEntity
  8
0
 62
     0
100
AcDbLine
 10
11.05867014786704
 20
4.120964892267635
 30
0.0
 11
12.05202048979535
 21
5.114315234195941
 31
0.0
  0
LINE
  5
BA5
330
A4F
100
AcDbEntity
  8
0
 62
     0
100
AcDbLine
 10
14.92110609094658
 20
8.432413641400643
 30
0.0
 11
16.32110609094661
 21
9.832413641400675
 31
0.0
  0
LINE
  5
BA6
330
A4F
100
AcDbEntity
  8
0
 62
     0
100
AcDbLine
 10
13.25192315683483
 20
6.763230707288925
 30
0.0
 11
13.83287525194637
 21
7.344182802400467
 31
0.0
  0
LINE
  5
BA7
330
A4F
100
AcDbEntity
  8
0
 62
     0
100
AcDbLine
 10
17.7956816785367
 20
11.3069892289908
 30
0.0
 11
18.11369231783461
 21
11.62499986828871
 31
0.0
  0
LINE
  5
BA8
330
A4F
100
AcDbEntity
  8
0
 62
     0
100
AcDbLine
 10
10.84045161120211
 20
4.351759161656218
 30
0.0
 11
11.84689501415926
 21
5.358202564613349
 31
0.0
  0
LINE
  5
BA9
330
A4F
100
AcDbEntity
  8
0
 62
     0
100
AcDbLine
 10
12.78943673601992
 20
6.749757092527487
 30
0.0
 11
13.84634886670781
 21
7.806669223215351
 31
0.0
  0
LINE
  5
BAA
330
A4F
100
AcDbEntity
  8
0
 62
     0
100
AcDbLine
 10
14.92110609094661
 20
8.881426447454146
 30
0.0
 11
16.32110609094664
 21
10.28142644745418
 31
0.0
  0
LINE
  5
BAB
330
A4F
100
AcDbEntity
  8
0
 62
     0
100
AcDbLine
 10
10.65694199873064
 20
4.617262355238181
 30
0.0
 11
11.7711060909466
 21
5.731426447454167
 31
0.0
  0
LINE
  5
BAC
330
A4F
100
AcDbEntity
  8
0
 62
     0
100
AcDbLine
 10
12.48236345130982
 20
6.891696613870776
 30
0.0
 11
13.70440934536449
 21
8.113742507925477
 31
0.0
  0
LINE
  5
BAD
330
A4F
100
AcDbEntity
  8
0
 62
     0
100
AcDbLine
 10
14.92110609094661
 20
9.330439253507591
 30
0.0
 11
16.32110609094664
 21
10.73043925350762
 31
0.0
  0
LINE
  5
BAE
330
A4F
100
AcDbEntity
  8
0
 62
     0
100
AcDbLine
 10
10.51128324376827
 20
4.920616406329259
 30
0.0
 11
11.7711060909466
 21
6.180439253507585
 31
0.0
  0
LINE
  5
BAF
330
A4F
100
AcDbEntity
  8
0
 62
     0
100
AcDbLine
 10
12.26338348781496
 20
7.121729456429419
 30
0.0
 11
13.47437650280588
 21
8.332722471420311
 31
0.0
  0
LINE
  5
BB0
330
A4F
100
AcDbEntity
  8
0
 62
     0
100
AcDbLine
 10
14.92110609094661
 20
9.779452059561066
 30
0.0
 11
16.32110609094664
 21
11.17945205956107
 31
0.0
  0
LINE
  5
BB1
330
A4F
100
AcDbEntity
  8
0
 62
     0
100
AcDbLine
 10
10.41071456168094
 20
5.269060530295405
 30
0.0
 11
11.7711060909466
 21
6.629452059561059
 31
0.0
  0
LINE
  5
BB2
330
A4F
100
AcDbEntity
  8
0
 62
     0
100
AcDbLine
 10
12.13535812161077
 20
7.442716896278683
 30
0.0
 11
13.15338906295659
 21
8.460747837624522
 31
0.0
  0
LINE
  5
BB3
330
A4F
100
AcDbEntity
  8
0
 62
     0
100
AcDbLine
 10
10.37110609094656
 20
5.6784648656145
 30
0.0
 11
11.7711060909466
 21
7.078464865614505
 31
0.0
  0
LINE
  5
BB4
330
A4F
100
AcDbEntity
  8
0
 62
     0
100
AcDbLine
 10
14.92110609094661
 20
10.22846486561451
 30
0.0
 11
16.24248103676904
 21
11.54983981143698
 31
0.0
  0
LINE
  5
BB5
330
A4F
100
AcDbEntity
  8
0
 62
     0
100
AcDbLine
 10
8.328107712008771
 20
3.635466486676704
 30
0.0
 11
9.260639472558636
 21
4.567998247226568
 31
0.0
  0
LINE
  5
BB6
330
A4F
100
AcDbEntity
  8
0
 62
     0
100
AcDbLine
 10
12.19456466335117
 20
7.950936244072521
 30
0.0
 11
12.64516971516278
 21
8.401541295884129
 31
0.0
  0
LINE
  5
BB7
330
A4F
100
AcDbEntity
  8
0
 62
     0
100
AcDbLine
 10
10.37110609094656
 20
6.127477671667917
 30
0.0
 11
11.7711060909466
 21
7.527477671667952
 31
0.0
  0
LINE
  5
BB8
330
A4F
100
AcDbEntity
  8
0
 62
     0
100
AcDbLine
 10
14.92110609094661
 20
10.67747767166795
 30
0.0
 11
15.8686282875673
 21
11.62499986828865
 31
0.0
  0
LINE
  5
BB9
330
A4F
100
AcDbEntity
  8
0
 62
     0
100
AcDbLine
 10
7.818628287567292
 20
3.574999868288642
 30
0.0
 11
9.321106090946614
 21
5.077477671667963
 31
0.0
  0
LINE
  5
BBA
330
A4F
100
AcDbEntity
  8
0
 62
     0
100
AcDbLine
 10
10.37110609094656
 20
6.576490477721392
 30
0.0
 11
11.7711060909466
 21
7.976490477721425
 31
0.0
  0
LINE
  5
BBB
330
A4F
100
AcDbEntity
  8
0
 62
     0
100
AcDbLine
 10
14.92110609094661
 20
11.1264904777214
 30
0.0
 11
15.41961548151386
 21
11.62499986828868
 31
0.0
  0
LINE
  5
BBC
330
A4F
100
AcDbEntity
  8
0
 62
     0
100
AcDbLine
 10
7.36961548151379
 20
3.574999868288613
 30
0.0
 11
9.321106090946614
 21
5.526490477721438
 31
0.0
  0
LINE
  5
BBD
330
A4F
100
AcDbEntity
  8
0
 62
     0
100
AcDbLine
 10
10.37110609094656
 20
7.025503283774838
 30
0.0
 11
11.77110609094657
 21
8.425503283774871
 31
0.0
  0
LINE
  5
BBE
330
A4F
100
AcDbEntity
  8
0
 62
     0
100
AcDbLine
 10
6.920602675460371
 20
3.574999868288671
 30
0.0
 11
9.319136414666019
 21
5.973533607494317
 31
0.0
  0
LINE
  5
BBF
330
A4F
100
AcDbEntity
  8
0
 62
     0
100
AcDbLine
 10
10.37110609094656
 20
7.474516089828312
 30
0.0
 11
11.7711060909466
 21
8.874516089828347
 31
0.0
  0
LINE
  5
BC0
330
A4F
100
AcDbEntity
  8
0
 62
     0
100
AcDbLine
 10
13.12158986940696
 20
10.2249998682887
 30
0.0
 11
13.69610609094667
 21
10.79951608982841
 31
0.0
  0
LINE
  5
BC1
330
A4F
100
AcDbEntity
  8
0
 62
     0
100
AcDbLine
 10
6.471589869406898
 20
3.574999868288642
 30
0.0
 11
9.264305496505356
 21
6.367715495387102
 31
0.0
  0
LINE
  5
BC2
330
A4F
100
AcDbEntity
  8
0
 62
     0
100
AcDbLine
 10
10.37110609094656
 20
7.923528895881759
 30
0.0
 11
11.7711060909466
 21
9.323528895881763
 31
0.0
  0
LINE
  5
BC3
330
A4F
100
AcDbEntity
  8
0
 62
     0
100
AcDbLine
 10
7.921106090946607
 20
5.473528895881798
 30
0.0
 11
9.153136124483296
 21
6.705558929418486
 31
0.0
  0
LINE
  5
BC4
330
A4F
100
AcDbEntity
  8
0
 62
     0
100
AcDbLine
 10
12.67257706335345
 20
10.22499986828864
 30
0.0
 11
13.69610609094667
 21
11.24852889588183
 31
0.0
  0
LINE
  5
BC5
330
A4F
100
AcDbEntity
  8
0
 62
     0
100
AcDbLine
 10
6.051440000983432
 20
3.603862805918623
 30
0.0
 11
7.422577063353457
 21
4.974999868288648
 31
0.0
  0
LINE
  5
BC6
330
A4F
100
AcDbEntity
  8
0
 62
     0
100
AcDbLine
 10
10.37110609094654
 20
8.372541701935205
 30
0.0
 11
11.85401344383643
 21
9.855449054825099
 31
0.0
  0
LINE
  5
BC7
330
A4F
100
AcDbEntity
  8
0
 62
     0
100
AcDbLine
 10
7.920026545141978
 20
5.921462156130615
 30
0.0
 11
8.998920357147284
 21
7.000355968135949
 31
0.0
  0
LINE
  5
BC8
330
A4F
100
AcDbEntity
  8
0
 62
     0
100
AcDbLine
 10
12.1406569044102
 20
10.14209251539887
 30
0.0
 11
13.57937238348671
 21
11.58080799447535
 31
0.0
  0
LINE
  5
BC9
330
A4F
100
AcDbEntity
  8
0
 62
     0
100
AcDbLine
 10
5.908606090946619
 20
3.910041701935256
 30
0.0
 11
6.973564257300012
 21
4.974999868288648
 31
0.0
  0
LINE
  5
BCA
330
A4F
100
AcDbEntity
  8
0
 62
     0
100
AcDbLine
 10
7.810225035391623
 20
6.260673452433762
 30
0.0
 11
8.807799374727835
 21
7.258247791769973
 31
0.0
  0
LINE
  5
BCB
330
A4F
100
AcDbEntity
  8
0
 62
     0
100
AcDbLine
 10
10.37110609094654
 20
8.821554507988679
 30
0.0
 11
13.17455145124657
 21
11.62499986828871
 31
0.0
  0
LINE
  5
BCC
330
A4F
100
AcDbEntity
  8
0
 62
     0
100
AcDbLine
 10
5.90860609094659
 20
4.359054507988729
 30
0.0
 11
6.524551451246536
 21
4.974999868288675
 31
0.0
  0
LINE
  5
BCD
330
A4F
100
AcDbEntity
  8
0
 62
     0
100
AcDbLine
 10
7.597097621239271
 20
6.496558844334827
 30
0.0
 11
8.587047114900457
 21
7.486508337996013
 31
0.0
  0
LINE
  5
BCE
330
A4F
100
AcDbEntity
  8
0
 62
     0
100
AcDbLine
 10
10.37110609094656
 20
9.270567314042096
 30
0.0
 11
12.72553864519304
 21
11.62499986828859
 31
0.0
  0
LINE
  5
BCF
330
A4F
100
AcDbEntity
  8
0
 62
     0
100
AcDbLine
 10
5.94308205195648
 20
4.842543275052037
 30
0.0
 11
6.041062684183287
 21
4.940523907278843
 31
0.0
  0
LINE
  5
BD0
330
A4F
100
AcDbEntity
  8
0
 62
     0
100
AcDbLine
 10
10.38109364802485
 20
9.729567677173859
 30
0.0
 11
12.26653828206136
 21
11.61501231121039
 31
0.0
  0
LINE
  5
BD1
330
A4F
100
AcDbEntity
  8
0
 62
     0
100
AcDbLine
 10
7.372591218212534
 20
6.721065247361566
 30
0.0
 11
8.36254071187372
 21
7.711014741022751
 31
0.0
  0
LINE
  5
BD2
330
A4F
100
AcDbEntity
  8
0
 62
     0
100
AcDbLine
 10
10.53082536415774
 20
10.32831219936025
 30
0.0
 11
11.66779375987499
 21
11.4652805950775
 31
0.0
  0
LINE
  5
BD3
330
A4F
100
AcDbEntity
  8
0
 62
     0
100
AcDbLine
 10
7.148084815185796
 20
6.945571650388302
 30
0.0
 11
8.138034308846982
 21
7.935521144049487
 31
0.0
  0
LINE
  5
BD4
330
A4F
100
AcDbEntity
  8
0
 62
     0
100
AcDbLine
 10
6.923578412159087
 20
7.170078053415011
 30
0.0
 11
7.913527905820244
 21
8.16002754707614
 31
0.0
  0
LINE
  5
BD5
330
A4F
100
AcDbEntity
  8
0
 62
     0
100
AcDbLine
 10
6.699072009132351
 20
7.394584456441746
 30
0.0
 11
7.689021502793507
 21
8.384533950102877
 31
0.0
  0
LINE
  5
BD6
330
A4F
100
AcDbEntity
  8
0
 62
     0
100
AcDbLine
 10
6.474565606105612
 20
7.619090859468484
 30
0.0
 11
7.464515099766772
 21
8.609040353129612
 31
0.0
  0
LINE
  5
BD7
330
A4F
100
AcDbEntity
  8
0
 62
     0
100
AcDbLine
 10
8.631461808872359
 20
10.2249998682887
 30
0.0
 11
9.05860609094654
 21
10.65214415036288
 31
0.0
  0
LINE
  5
BD8
330
A4F
100
AcDbEntity
  8
0
 62
     0
100
AcDbLine
 10
6.250100860092942
 20
7.843638919509286
 30
0.0
 11
7.240133681809169
 21
8.833671741225515
 31
0.0
  0
LINE
  5
BD9
330
A4F
100
AcDbEntity
  8
0
 62
     0
100
AcDbLine
 10
8.182449002818882
 20
10.22499986828864
 30
0.0
 11
9.058606090946595
 21
11.10115695641636
 31
0.0
  0
LINE
  5
BDA
330
A4F
100
AcDbEntity
  8
0
 62
     0
100
AcDbLine
 10
6.044366897817154
 20
8.086917763286892
 30
0.0
 11
7.0751852411652
 21
9.117736106634962
 31
0.0
  0
LINE
  5
BDB
330
A4F
100
AcDbEntity
  8
0
 62
     0
100
AcDbLine
 10
7.733436196765409
 20
10.22499986828864
 30
0.0
 11
9.015326641066023
 21
11.50689031258926
 31
0.0
  0
LINE
  5
BDC
330
A4F
100
AcDbEntity
  8
0
 62
     0
100
AcDbLine
 10
5.87413659468592
 20
8.365700266209129
 30
0.0
 11
7.046106090946635
 21
9.537669762469846
 31
0.0
  0
LINE
  5
BDD
330
A4F
100
AcDbEntity
  8
0
 62
     0
100
AcDbLine
 10
7.283190066126906
 20
10.22376654370358
 30
0.0
 11
8.684423390711996
 21
11.62499986828868
 31
0.0
  0
LINE
  5
BDE
330
A4F
100
AcDbEntity
  8
0
 62
     0
100
AcDbLine
 10
5.743789946819871
 20
8.684366424396557
 30
0.0
 11
7.047339415531665
 21
9.987915893108381
 31
0.0
  0
LINE
  5
BDF
330
A4F
100
AcDbEntity
  8
0
 62
     0
100
AcDbLine
 10
5.66288396569584
 20
9.05247324932597
 30
0.0
 11
8.235410584658552
 21
11.62499986828868
 31
0.0
  0
LINE
  5
BE0
330
A4F
100
AcDbEntity
  8
0
 62
     0
100
AcDbLine
 10
5.646106090946631
 20
9.484708180630237
 30
0.0
 11
7.786397778605077
 21
11.62499986828868
 31
0.0
  0
LINE
  5
BE1
330
A4F
100
AcDbEntity
  8
0
 62
     0
100
AcDbLine
 10
5.646106090946631
 20
9.933720986683679
 30
0.0
 11
7.337384972551633
 21
11.62499986828868
 31
0.0
  0
LINE
  5
BE2
330
A4F
100
AcDbEntity
  8
0
 62
     0
100
AcDbLine
 10
5.656202096165741
 20
10.39282979795626
 30
0.0
 11
6.878276161279045
 21
11.61490386306957
 31
0.0
  0
ENDBLK
  5
BE4
330
A4F
100
AcDbEntity
  8
0
100
AcDbBlockEnd
  0
BLOCK
  5
3E87
330
3E7D
100
AcDbEntity
  8
0
 48
5.0
100
AcDbBlockBegin
  2
*D2
 70
     1
 10
0.0
 20
0.0
 30
0.0
  3
*D2
  1

  0
LINE
  5
3ED7
330
3E7D
100
AcDbEntity
  8
SUNPOU
 62
     4
 48
5.0
370
    -2
100
AcDbLine
 10
186.4305429343408
 20
128.8442121161007
 30
0.0
 11
211.7093226183995
 21
128.8442121161007
 31
0.0
  0
LINE
  5
3ED8
330
3E7D
100
AcDbEntity
  8
SUNPOU
 62
     4
 48
5.0
370
    -2
100
AcDbLine
 10
171.4804429343407
 20
79.84431211610072
 30
0.0
 11
211.7093226183995
 21
79.84431211610072
 31
0.0
  0
LINE
  5
3ED9
330
3E7D
100
AcDbEntity
  8
SUNPOU
 62
     4
 48
5.0
370
    -2
100
AcDbLine
 10
210.2093226183995
 20
125.8442121161007
 30
0.0
 11
210.2093226183995
 21
82.84431211610073
 31
0.0
  0
INSERT
  5
3EDA
330
3E7D
100
AcDbEntity
  8
SUNPOU
 62
     4
 48
5.0
370
    -2
100
AcDbBlockReference
  2
_OPEN
 10
210.2093226183995
 20
128.8442121161007
 30
0.0
 41
3.0
 42
3.0
 43
3.0
 50
90.0
  0
INSERT
  5
3EDB
330
3E7D
100
AcDbEntity
  8
SUNPOU
 62
     4
 48
5.0
370
    -2
100
AcDbBlockReference
  2
_OPEN
 10
210.2093226183995
 20
79.84431211610072
 30
0.0
 41
3.0
 42
3.0
 43
3.0
 50
270.0
  0
MTEXT
  5
3EDC
330
3E7D
100
AcDbEntity
  8
SUNPOU
 62
     4
 48
5.0
100
AcDbMText
 10
207.7093226183995
 20
104.3442621161007
 30
0.0
 40
3.0
 41
0.0
 71
     5
 72
     5
  1
\A1;49
 11
0.0000000000000001
 21
1.0
 31
0.0
 73
     1
 44
1.0
1001
ACAD
1000
MTEXTBEGIN
1070
    73
1070
     1
1070
    44
1040
1.0
1070
    74
1070
     0
1000
MTEXTEND
  0
POINT
  5
3EDD
330
3E7D
100
AcDbEntity
  8
DEFPOINTS
 62
     0
 48
5.0
100
AcDbPoint
 10
183.4305429343408
 20
128.8442121161007
 30
0.0
  0
POINT
  5
3EDE
330
3E7D
100
AcDbEntity
  8
DEFPOINTS
 62
     0
 48
5.0
100
AcDbPoint
 10
168.4804429343407
 20
79.84431211610072
 30
0.0
  0
POINT
  5
3EDF
330
3E7D
100
AcDbEntity
  8
DEFPOINTS
 62
     0
 48
5.0
100
AcDbPoint
 10
210.2093226183995
 20
79.84431211610072
 30
0.0
  0
ENDBLK
  5
3E88
330
3E7D
100
AcDbEntity
  8
0
 48
5.0
100
AcDbBlockEnd
  0
BLOCK
  5
3E93
330
3E89
100
AcDbEntity
  8
0
 48
5.0
100
AcDbBlockBegin
  2
*D3
 70
     1
 10
0.0
 20
0.0
 30
0.0
  3
*D3
  1

  0
LINE
  5
3EE9
330
3E89
100
AcDbEntity
  8
SUNPOU
 62
     4
 48
5.0
370
    -2
100
AcDbLine
 10
176.4576429343407
 20
240.8443121161008
 30
0.0
 11
211.7093226183995
 21
240.8443121161008
 31
0.0
  0
LINE
  5
3EEA
330
3E89
100
AcDbEntity
  8
SUNPOU
 62
     4
 48
5.0
370
    -2
100
AcDbLine
 10
176.4576429343407
 20
176.8443121161006
 30
0.0
 11
211.7093226183995
 21
176.8443121161006
 31
0.0
  0
LINE
  5
3EEB
330
3E89
100
AcDbEntity
  8
SUNPOU
 62
     4
 48
5.0
370
    -2
100
AcDbLine
 10
210.2093226183995
 20
237.8443121161008
 30
0.0
 11
210.2093226183995
 21
179.8443121161006
 31
0.0
  0
INSERT
  5
3EEC
330
3E89
100
AcDbEntity
  8
SUNPOU
 62
     4
 48
5.0
370
    -2
100
AcDbBlockReference
  2
_OPEN
 10
210.2093226183995
 20
240.8443121161008
 30
0.0
 41
3.0
 42
3.0
 43
3.0
 50
90.0
  0
INSERT
  5
3EED
330
3E89
100
AcDbEntity
  8
SUNPOU
 62
     4
 48
5.0
370
    -2
100
AcDbBlockReference
  2
_OPEN
 10
210.2093226183995
 20
176.8443121161006
 30
0.0
 41
3.0
 42
3.0
 43
3.0
 50
270.0
  0
MTEXT
  5
3EEE
330
3E89
100
AcDbEntity
  8
SUNPOU
 62
     4
 48
5.0
100
AcDbMText
 10
207.7093226183995
 20
208.8443121161008
 30
0.0
 40
3.0
 41
0.0
 71
     5
 72
     5
  1
\A1;64
 11
0.0000000000000001
 21
1.0
 31
0.0
 73
     1
 44
1.0
1001
ACAD
1000
MTEXTBEGIN
1070
    73
1070
     1
1070
    44
1040
1.0
1070
    74
1070
     0
1000
MTEXTEND
  0
POINT
  5
3EEF
330
3E89
100
AcDbEntity
  8
DEFPOINTS
 62
     0
 48
5.0
100
AcDbPoint
 10
173.4576429343407
 20
240.8443121161008
 30
0.0
  0
POINT
  5
3EF0
330
3E89
100
AcDbEntity
  8
DEFPOINTS
 62
     0
 48
5.0
100
AcDbPoint
 10
173.4576429343407
 20
176.8443121161006
 30
0.0
  0
POINT
  5
3EF1
330
3E89
100
AcDbEntity
  8
DEFPOINTS
 62
     0
 48
5.0
100
AcDbPoint
 10
210.2093226183995
 20
176.8443121161006
 30
0.0
  0
ENDBLK
  5
3E94
330
3E89
100
AcDbEntity
  8
0
 48
5.0
100
AcDbBlockEnd
  0
BLOCK
  5
3E9F
330
3E95
100
AcDbEntity
  8
0
 48
5.0
100
AcDbBlockBegin
  2
*D4
 70
     1
 10
0.0
 20
0.0
 30
0.0
  3
*D4
  1

  0
LINE
  5
3EE0
330
3E95
100
AcDbEntity
  8
SUNPOU
 62
     4
 48
5.0
370
    -2
100
AcDbLine
 10
119.5280429343406
 20
131.8443121161007
 30
0.0
 11
119.5280429343406
 21
147.592331141596
 31
0.0
  0
LINE
  5
3EE1
330
3E95
100
AcDbEntity
  8
SUNPOU
 62
     4
 48
5.0
370
    -2
100
AcDbLine
 10
183.4291429343405
 20
131.8442121161008
 30
0.0
 11
183.4291429343405
 21
147.592331141596
 31
0.0
  0
LINE
  5
3EE2
330
3E95
100
AcDbEntity
  8
SUNPOU
 62
     4
 48
5.0
370
    -2
100
AcDbLine
 10
122.5280429343406
 20
146.092331141596
 30
0.0
 11
180.4291429343406
 21
146.092331141596
 31
0.0
  0
INSERT
  5
3EE3
330
3E95
100
AcDbEntity
  8
SUNPOU
 62
     4
 48
5.0
370
    -2
100
AcDbBlockReference
  2
_OPEN
 10
119.5280429343406
 20
146.092331141596
 30
0.0
 41
3.0
 42
3.0
 43
3.0
 50
180.0
  0
INSERT
  5
3EE4
330
3E95
100
AcDbEntity
  8
SUNPOU
 62
     4
 48
5.0
370
    -2
100
AcDbBlockReference
  2
_OPEN
 10
183.4291429343405
 20
146.092331141596
 30
0.0
 41
3.0
 42
3.0
 43
3.0
  0
MTEXT
  5
3EE5
330
3E95
100
AcDbEntity
  8
SUNPOU
 62
     4
 48
5.0
100
AcDbMText
 10
151.4785929343406
 20
148.592331141596
 30
0.0
 40
3.0
 41
0.0
 71
     5
 72
     5
  1
\A1;64
 73
     1
 44
1.0
1001
ACAD
1000
MTEXTBEGIN
1070
    73
1070
     1
1070
    44
1040
1.0
1070
    74
1070
     0
1000
MTEXTEND
  0
POINT
  5
3EE6
330
3E95
100
AcDbEntity
  8
DEFPOINTS
 62
     0
 48
5.0
100
AcDbPoint
 10
119.5280429343406
 20
128.8443121161007
 30
0.0
  0
POINT
  5
3EE7
330
3E95
100
AcDbEntity
  8
DEFPOINTS
 62
     0
 48
5.0
100
AcDbPoint
 10
183.4291429343405
 20
128.8442121161007
 30
0.0
  0
POINT
  5
3EE8
330
3E95
100
AcDbEntity
  8
DEFPOINTS
 62
     0
 48
5.0
100
AcDbPoint
 10
183.4291429343405
 20
146.092331141596
 30
0.0
  0
ENDBLK
  5
3EA0
330
3E95
100
AcDbEntity
  8
0
 48
5.0
100
AcDbBlockEnd
  0
BLOCK
  5
3F65
330
3F3F
100
AcDbEntity
  8
0
 48
5.0
100
AcDbBlockBegin
  2
*X5
 70
     1
 10
0.0
 20
0.0
 30
0.0
  3
*X5
  1

  0
LINE
  5
3F40
330
3F3F
100
AcDbEntity
  8
0
 62
     0
100
AcDbLine
 10
265.4598421775694
 20
79.84431211610069
 30
0.0
 11
265.5409707068068
 21
79.92544064533802
 31
0.0
  0
LINE
  5
3F41
330
3F3F
100
AcDbEntity
  8
0
 62
     0
100
AcDbLine
 10
264.1627558504457
 20
80.31499274194326
 30
0.0
 11
265.3304837879
 21
81.48272067939762
 31
0.0
  0
LINE
  5
3F42
330
3F3F
100
AcDbEntity
  8
0
 62
     0
100
AcDbLine
 10
263.4704768814775
 20
81.39048072594144
 30
0.0
 11
265.0357370879889
 21
82.95574093245287
 31
0.0
  0
LINE
  5
3F43
330
3F3F
100
AcDbEntity
  8
0
 62
     0
100
AcDbLine
 10
263.2110164249118
 20
82.89878722234218
 30
0.0
 11
264.6665790622904
 21
84.35434985972085
 31
0.0
  0
LINE
  5
3F44
330
3F3F
100
AcDbEntity
  8
0
 62
     0
100
AcDbLine
 10
262.857348088162
 20
84.31288583855872
 30
0.0
 11
264.2303894413418
 21
85.6859271917385
 31
0.0
  0
LINE
  5
3F45
330
3F3F
100
AcDbEntity
  8
0
 62
     0
100
AcDbLine
 10
262.4211549661386
 20
85.64445966950172
 30
0.0
 11
263.7328100465169
 21
86.95611474987998
 31
0.0
  0
LINE
  5
3F46
330
3F3F
100
AcDbEntity
  8
0
 62
     0
100
AcDbLine
 10
261.9108327929528
 20
86.90190444928225
 30
0.0
 11
263.1782090173675
 21
88.16928067369696
 31
0.0
  0
LINE
  5
3F47
330
3F3F
100
AcDbEntity
  8
0
 62
     0
100
AcDbLine
 10
261.332531531924
 20
88.09137014121983
 30
0.0
 11
262.5699871285135
 21
89.32882573780927
 31
0.0
  0
LINE
  5
3F48
330
3F3F
100
AcDbEntity
  8
0
 62
     0
100
AcDbLine
 10
260.6907831244738
 20
89.21738868673605
 30
0.0
 11
261.910785683097
 21
90.43739124535917
 31
0.0
  0
LINE
  5
3F49
330
3F3F
100
AcDbEntity
  8
0
 62
     0
100
AcDbLine
 10
259.9888952350868
 20
90.28326775031533
 30
0.0
 11
261.2026302291241
 21
91.49700274435264
 31
0.0
  0
LINE
  5
3F4A
330
3F3F
100
AcDbEntity
  8
0
 62
     0
100
AcDbLine
 10
259.2292034907087
 20
91.29134295890361
 30
0.0
 11
260.4470306004325
 21
92.50917006862749
 31
0.0
  0
LINE
  5
3F4B
330
3F3F
100
AcDbEntity
  8
0
 62
     0
100
AcDbLine
 10
258.4132323900371
 20
92.24313881119851
 30
0.0
 11
259.6450498945781
 21
93.47495631573936
 31
0.0
  0
LINE
  5
3F4C
330
3F3F
100
AcDbEntity
  8
0
 62
     0
100
AcDbLine
 10
257.5417928610166
 20
93.13946623514423
 30
0.0
 11
258.7973502344876
 21
94.3950236086153
 31
0.0
  0
LINE
  5
3F4D
330
3F3F
100
AcDbEntity
  8
0
 62
     0
100
AcDbLine
 10
256.6150317952591
 20
93.9804721223532
 30
0.0
 11
257.9042201153167
 21
95.26966044241072
 31
0.0
  0
LINE
  5
3F4E
330
3F3F
100
AcDbEntity
  8
0
 62
     0
100
AcDbLine
 10
255.6324408472183
 20
94.76564812727875
 30
0.0
 11
256.9655860452599
 21
96.09879332532038
 31
0.0
  0
LINE
  5
3F4F
330
3F3F
100
AcDbEntity
  8
0
 62
     0
100
AcDbLine
 10
254.5928257568647
 20
95.49379998989145
 30
0.0
 11
255.9810095959008
 21
96.8819838289276
 31
0.0
  0
LINE
  5
3F50
330
3F3F
100
AcDbEntity
  8
0
 62
     0
100
AcDbLine
 10
253.4942317602719
 20
96.16297294626505
 30
0.0
 11
254.9496695815642
 21
97.61841076755736
 31
0.0
  0
LINE
  5
3F51
330
3F3F
100
AcDbEntity
  8
0
 62
     0
100
AcDbLine
 10
252.3338137616835
 20
96.77032190064299
 30
0.0
 11
253.8703276419636
 21
98.30683578092314
 31
0.0
  0
LINE
  5
3F52
330
3F3F
100
AcDbEntity
  8
0
 62
     0
100
AcDbLine
 10
251.1076297909387
 20
97.31190488286465
 30
0.0
 11
252.7412737482416
 21
98.94554884016754
 31
0.0
  0
LINE
  5
3F53
330
3F3F
100
AcDbEntity
  8
0
 62
     0
100
AcDbLine
 10
250.8796392843312
 20
98.85168132922347
 30
0.0
 11
252.5722678495438
 21
100.544309894436
 31
0.0
  0
LINE
  5
3F54
330
3F3F
100
AcDbEntity
  8
0
 62
     0
100
AcDbLine
 10
249.7770288780572
 20
99.51683787591584
 30
0.0
 11
251.2281429343405
 21
100.967951932199
 31
0.0
  0
LINE
  5
3F55
330
3F3F
100
AcDbEntity
  8
0
 62
     0
100
AcDbLine
 10
249.5281405083605
 20
101.0357164591855
 30
0.0
 11
251.2281429343405
 21
102.7357188851654
 31
0.0
  0
LINE
  5
3F56
330
3F3F
100
AcDbEntity
  8
0
 62
     0
100
AcDbLine
 10
249.5281343056912
 20
102.8034772094825
 30
0.0
 11
251.2281429343405
 21
104.5034858381318
 31
0.0
  0
LINE
  5
3F57
330
3F3F
100
AcDbEntity
  8
0
 62
     0
100
AcDbLine
 10
249.5281281030219
 20
104.5712379597796
 30
0.0
 11
251.2281429343405
 21
106.2712527910981
 31
0.0
  0
LINE
  5
3F58
330
3F3F
100
AcDbEntity
  8
0
 62
     0
100
AcDbLine
 10
249.5281219003526
 20
106.3389987100767
 30
0.0
 11
251.2281429343405
 21
108.0390197440645
 31
0.0
  0
LINE
  5
3F59
330
3F3F
100
AcDbEntity
  8
0
 62
     0
100
AcDbLine
 10
249.5281156976833
 20
108.1067594603738
 30
0.0
 11
251.2281429343405
 21
109.8067866970309
 31
0.0
  0
LINE
  5
3F5A
330
3F3F
100
AcDbEntity
  8
0
 62
     0
100
AcDbLine
 10
249.528109495014
 20
109.8745202106708
 30
0.0
 11
251.2281429343405
 21
111.5745536499973
 31
0.0
  0
LINE
  5
3F5B
330
3F3F
100
AcDbEntity
  8
0
 62
     0
100
AcDbLine
 10
249.5281032923447
 20
111.6422809609679
 30
0.0
 11
251.2281429343405
 21
113.3423206029636
 31
0.0
  0
LINE
  5
3F5C
330
3F3F
100
AcDbEntity
  8
0
 62
     0
100
AcDbLine
 10
249.5280970896754
 20
113.410041711265
 30
0.0
 11
251.2281429343405
 21
115.11008755593
 31
0.0
  0
LINE
  5
3F5D
330
3F3F
100
AcDbEntity
  8
0
 62
     0
100
AcDbLine
 10
249.5280908870061
 20
115.177802461562
 30
0.0
 11
251.2281429343405
 21
116.8778545088964
 31
0.0
  0
LINE
  5
3F5E
330
3F3F
100
AcDbEntity
  8
0
 62
     0
100
AcDbLine
 10
249.5280846843368
 20
116.9455632118591
 30
0.0
 11
251.2281429343405
 21
118.6456214618628
 31
0.0
  0
LINE
  5
3F5F
330
3F3F
100
AcDbEntity
  8
0
 62
     0
100
AcDbLine
 10
249.5280784816675
 20
118.7133239621562
 30
0.0
 11
251.2281429343405
 21
120.4133884148291
 31
0.0
  0
LINE
  5
3F60
330
3F3F
100
AcDbEntity
  8
0
 62
     0
100
AcDbLine
 10
249.5280722789982
 20
120.4810847124532
 30
0.0
 11
251.2281429343405
 21
122.1811553677955
 31
0.0
  0
LINE
  5
3F61
330
3F3F
100
AcDbEntity
  8
0
 62
     0
100
AcDbLine
 10
249.528066076329
 20
122.2488454627503
 30
0.0
 11
251.2281429343405
 21
123.9489223207619
 31
0.0
  0
LINE
  5
3F62
330
3F3F
100
AcDbEntity
  8
0
 62
     0
100
AcDbLine
 10
249.5280598736596
 20
124.0166062130474
 30
0.0
 11
251.2281429343405
 21
125.7166892737282
 31
0.0
  0
LINE
  5
3F63
330
3F3F
100
AcDbEntity
  8
0
 62
     0
100
AcDbLine
 10
249.5280536709903
 20
125.7843669633444
 30
0.0
 11
251.2281429343405
 21
127.4844562266946
 31
0.0
  0
LINE
  5
3F64
330
3F3F
100
AcDbEntity
  8
0
 62
     0
100
AcDbLine
 10
249.528047468321
 20
127.5521277136415
 30
0.0
 11
250.8202278222419
 21
128.8443080675624
 31
0.0
  0
ENDBLK
  5
3F66
330
3F3F
100
AcDbEntity
  8
0
 48
5.0
100
AcDbBlockEnd
  0
BLOCK
  5
3F7F
330
3F67
100
AcDbEntity
  8
0
 48
5.0
100
AcDbBlockBegin
  2
*X6
 70
     1
 10
0.0
 20
0.0
 30
0.0
  3
*X6
  1

  0
LINE
  5
3F68
330
3F67
100
AcDbEntity
  8
0
 62
     0
100
AcDbLine
 10
297.4225544153608
 20
79.98721920049743
 30
0.0
 11
299.6058676425841
 21
82.1705324277207
 31
0.0
  0
LINE
  5
3F69
330
3F67
100
AcDbEntity
  8
0
 62
     0
100
AcDbLine
 10
297.7317025470266
 20
82.06413428512961
 30
0.0
 11
300.1493150197724
 21
84.48174675787539
 31
0.0
  0
LINE
  5
3F6A
330
3F67
100
AcDbEntity
  8
0
 62
     0
100
AcDbLine
 10
310.7131413194001
 20
96.81334001046941
 30
0.0
 11
311.9304429343406
 21
98.03064162540994
 31
0.0
  0
LINE
  5
3F6B
330
3F67
100
AcDbEntity
  8
0
 62
     0
100
AcDbLine
 10
298.3059588106594
 20
84.40615750172879
 30
0.0
 11
301.2553206370551
 21
87.3555193281245
 31
0.0
  0
LINE
  5
3F6C
330
3F67
100
AcDbEntity
  8
0
 62
     0
100
AcDbLine
 10
299.3274099471856
 20
87.19537559122128
 30
0.0
 11
313.4289496199768
 21
101.2969152640125
 31
0.0
  0
LINE
  5
3F6D
330
3F67
100
AcDbEntity
  8
0
 62
     0
100
AcDbLine
 10
310.2305284261697
 20
99.86626102317181
 30
0.0
 11
310.9084808752164
 21
100.5442134722184
 31
0.0
  0
LINE
  5
3F6E
330
3F67
100
AcDbEntity
  8
0
 62
     0
100
AcDbLine
 10
311.7289429343405
 20
101.3646755313425
 30
0.0
 11
313.428962025446
 21
103.0646946224481
 31
0.0
  0
LINE
  5
3F6F
330
3F67
100
AcDbEntity
  8
0
 62
     0
100
AcDbLine
 10
301.5126648774822
 20
91.14839747448428
 30
0.0
 11
307.9301217930255
 21
97.56585439002755
 31
0.0
  0
LINE
  5
3F70
330
3F67
100
AcDbEntity
  8
0
 62
     0
100
AcDbLine
 10
311.7289429343405
 20
103.1324424843089
 30
0.0
 11
313.4289744309152
 21
104.8324739808836
 31
0.0
  0
LINE
  5
3F71
330
3F67
100
AcDbEntity
  8
0
 62
     0
100
AcDbLine
 10
311.7289429343405
 20
104.9002094372752
 30
0.0
 11
313.4289868363844
 21
106.6002533393191
 31
0.0
  0
LINE
  5
3F72
330
3F67
100
AcDbEntity
  8
0
 62
     0
100
AcDbLine
 10
311.7289429343405
 20
106.6679763902416
 30
0.0
 11
313.4289992418535
 21
108.3680326977547
 31
0.0
  0
LINE
  5
3F73
330
3F67
100
AcDbEntity
  8
0
 62
     0
100
AcDbLine
 10
311.7289429343405
 20
108.435743343208
 30
0.0
 11
313.4290116473227
 21
110.1358120561902
 31
0.0
  0
LINE
  5
3F74
330
3F67
100
AcDbEntity
  8
0
 62
     0
100
AcDbLine
 10
311.7289429343405
 20
110.2035102961743
 30
0.0
 11
313.4290240527919
 21
111.9035914146258
 31
0.0
  0
LINE
  5
3F75
330
3F67
100
AcDbEntity
  8
0
 62
     0
100
AcDbLine
 10
311.7289429343405
 20
111.9712772491407
 30
0.0
 11
313.429036458261
 21
113.6713707730613
 31
0.0
  0
LINE
  5
3F76
330
3F67
100
AcDbEntity
  8
0
 62
     0
100
AcDbLine
 10
311.7289429343405
 20
113.7390442021071
 30
0.0
 11
313.4290488637302
 21
115.4391501314968
 31
0.0
  0
LINE
  5
3F77
330
3F67
100
AcDbEntity
  8
0
 62
     0
100
AcDbLine
 10
311.7289429343405
 20
115.5068111550735
 30
0.0
 11
313.4290612691994
 21
117.2069294899324
 31
0.0
  0
LINE
  5
3F78
330
3F67
100
AcDbEntity
  8
0
 62
     0
100
AcDbLine
 10
311.7289429343405
 20
117.2745781080398
 30
0.0
 11
313.4290736746685
 21
118.9747088483679
 31
0.0
  0
LINE
  5
3F79
330
3F67
100
AcDbEntity
  8
0
 62
     0
100
AcDbLine
 10
311.7289429343405
 20
119.0423450610062
 30
0.0
 11
313.4290860801377
 21
120.7424882068034
 31
0.0
  0
LINE
  5
3F7A
330
3F67
100
AcDbEntity
  8
0
 62
     0
100
AcDbLine
 10
311.7289429343405
 20
120.8101120139726
 30
0.0
 11
313.4290984856069
 21
122.510267565239
 31
0.0
  0
LINE
  5
3F7B
330
3F67
100
AcDbEntity
  8
0
 62
     0
100
AcDbLine
 10
311.7289429343405
 20
122.577878966939
 30
0.0
 11
313.429110891076
 21
124.2780469236745
 31
0.0
  0
LINE
  5
3F7C
330
3F67
100
AcDbEntity
  8
0
 62
     0
100
AcDbLine
 10
311.7289429343405
 20
124.3456459199053
 30
0.0
 11
313.4291232965452
 21
126.04582628211
 31
0.0
  0
LINE
  5
3F7D
330
3F67
100
AcDbEntity
  8
0
 62
     0
100
AcDbLine
 10
311.7289429343405
 20
126.1134128728717
 30
0.0
 11
313.4291357020143
 21
127.8136056405456
 31
0.0
  0
LINE
  5
3F7E
330
3F67
100
AcDbEntity
  8
0
 62
     0
100
AcDbLine
 10
311.7289429343405
 20
127.8811798258381
 30
0.0
 11
312.6919775360873
 21
128.8442144275848
 31
0.0
  0
ENDBLK
  5
3F80
330
3F67
100
AcDbEntity
  8
0
 48
5.0
100
AcDbBlockEnd
  0
ENDSEC
  0
SECTION
  2
ENTITIES
  0
LWPOLYLINE
  5
EF3
330
1A
100
AcDbEntity
  8
ZUWAKU
100
AcDbPolyline
 90
        4
 70
     1
 43
0.0
 10
6.228893922609415
 20
282.5625
 10
6.228893922609415
 20
7.562500000000031
 10
404.2288939226094
 20
7.562500000000031
 10
404.2288939226094
 20
282.5625
  0
LWPOLYLINE
  5
EF4
330
1A
100
AcDbEntity
  8
ZUWAKU
100
AcDbPolyline
 90
        4
 70
     1
 43
0.0
 10
6.028893922609427
 20
282.7625
 10
6.028893922609427
 20
7.362500000000043
 10
404.4288939226094
 20
7.362500000000031
 10
404.4288939226094
 20
282.7625
  0
LWPOLYLINE
  5
EF5
330
1A
100
AcDbEntity
  8
ZUWAKU
100
AcDbPolyline
 90
        4
 70
     1
 43
0.0
 10
5.828893922609438
 20
282.9625
 10
5.828893922609438
 20
7.162499999999996
 10
404.6288939226093
 20
7.162500000000031
 10
404.6288939226093
 20
282.9625
  0
LWPOLYLINE
  5
EF6
330
1A
100
AcDbEntity
  8
ZUWAKU
100
AcDbPolyline
 90
        4
 70
     1
 43
0.0
 10
6.128893922609393
 20
282.6625
 10
6.128893922609393
 20
7.462500000000009
 10
404.3288939226094
 20
7.462500000000031
 10
404.3288939226093
 20
282.6625
  0
LWPOLYLINE
  5
EF7
330
1A
100
AcDbEntity
  8
ZUWAKU
100
AcDbPolyline
 90
        4
 70
     1
 43
0.0
 10
5.928893922609405
 20
282.8625
 10
5.928893922609405
 20
7.26250000000002
 10
404.5288939226093
 20
7.262500000000031
 10
404.5288939226095
 20
282.8625
  0
LINE
  5
EF8
330
1A
100
AcDbEntity
  8
ZUWAKU
100
AcDbLine
 10
5.828893922609438
 20
22.16249999999999
 30
0.0
 11
404.5288939226093
 21
22.16249999999999
 31
0.0
  0
LINE
  5
EF9
330
1A
100
AcDbEntity
  8
ZUWAKU
100
AcDbLine
 10
5.828893922609438
 20
22.26249999999999
 30
0.0
 11
404.5288939226093
 21
22.26249999999999
 31
0.0
  0
LINE
  5
EFA
330
1A
100
AcDbEntity
  8
ZUWAKU
100
AcDbLine
 10
5.828893922609438
 20
22.3625
 30
0.0
 11
404.5288939226093
 21
22.3625
 31
0.0
  0
LINE
  5
EFB
330
1A
100
AcDbEntity
  8
ZUWAKU
100
AcDbLine
 10
5.828893922609438
 20
22.4625
 30
0.0
 11
404.5288939226093
 21
22.4625
 31
0.0
  0
LINE
  5
EFC
330
1A
100
AcDbEntity
  8
ZUWAKU
100
AcDbLine
 10
5.828893922609438
 20
22.5625
 30
0.0
 11
404.5288939226093
 21
22.5625
 31
0.0
  0
LINE
  5
EFD
330
1A
100
AcDbEntity
  8
ZUWAKU
100
AcDbLine
 10
110.1521945676434
 20
14.86250000000001
 30
0.0
 11
229.5410759081051
 21
14.86250000000001
 31
0.0
  0
LINE
  5
EFE
330
1A
100
AcDbEntity
  8
ZUWAKU
100
AcDbLine
 10
110.1521945676434
 20
14.96250000000001
 30
0.0
 11
229.5410759081051
 21
14.96250000000001
 31
0.0
  0
LINE
  5
EFF
330
1A
100
AcDbEntity
  8
ZUWAKU
100
AcDbLine
 10
110.1521945676434
 20
14.76250000000001
 30
0.0
 11
229.5410759081051
 21
14.76250000000001
 31
0.0
  0
ARC
  5
F15
330
1A
100
AcDbEntity
  8
ZUWAKU
100
AcDbCircle
 10
12.875
 20
17.3875
 30
0.0
 40
1.399999999999999
100
AcDbArc
 50
90.0
 51
180.0
  0
ARC
  5
F16
330
1A
100
AcDbEntity
  8
ZUWAKU
100
AcDbCircle
 10
13.57499999999999
 20
16.47989898732235
 30
0.0
 40
2.099999999999999
100
AcDbArc
 50
180.0
 51
224.9999999999996
  0
LINE
  5
F17
330
1A
100
AcDbEntity
  8
ZUWAKU
100
AcDbLine
 10
45.39220869660363
 20
22.16249999999999
 30
0.0
 11
45.39220869660363
 21
7.562500000000031
 31
0.0
  0
LINE
  5
F18
330
1A
100
AcDbEntity
  8
ZUWAKU
100
AcDbLine
 10
45.59220869660356
 20
22.16249999999999
 30
0.0
 11
45.59220869660367
 21
7.562500000000031
 31
0.0
  0
LINE
  5
F19
330
1A
100
AcDbEntity
  8
ZUWAKU
100
AcDbLine
 10
45.49220869660354
 20
22.16249999999999
 30
0.0
 11
45.49220869660365
 21
7.562500000000031
 31
0.0
  0
INSERT
  5
F1A
330
1A
100
AcDbEntity
  8
ZUWAKU
  6
Continuous
100
AcDbBlockReference
  2
*X1
 10
5.828893909053419
 20
7.162500131711315
 30
0.0
1001
ACAD
1000
HATCH
1002
{
1070
    19
1000
ANSI37
1040
0.1
1040
0.0
1000
R14_HATCH_DATA
1000
D28
1011
6.828893909053419
1021
7.162500131711315
1031
0.0
1011
5.828893909053419
1021
8.162500131711315
1031
0.0
1011
5.828893909053419
1021
7.162500131711315
1031
1.0
1040
0.0
1010
0.0
1020
0.0
1030
1.0
1000
ANSI37
1070
     0
1070
     0
1071
        8
1071
        7
1070
     1
1070
     1
1071
       24
1040
7.251131344115947
1040
8.822424108780474
1040
-0.1989123673796348
1040
7.04610609094658
1040
9.317398855610999
1040
0.0
1040
7.04610609094658
1040
9.962499868288688
1040
-0.4142135623730912
1040
7.308606090946566
1040
10.22499986828868
1040
0.0
1040
8.796106090946523
1040
10.22499986828868
1040
0.4142135623731546
1040
9.058606090946568
1040
10.48749986828868
1040
0.0
1040
9.058606090946568
1040
11.36249986828868
1040
0.4142135623731586
1040
8.796106090946523
1040
11.62499986828868
1040
0.0
1040
7.04610609094658
1040
11.62499986828868
1040
0.4142135623730928
1040
5.646106090946602
1040
10.22499986828869
1040
0.0
1040
5.646106090946602
1040
9.317398855611063
1040
0.1989123673796619
1040
6.261181850454816
1040
7.832474615119259
1040
0.0
1040
7.716080837777155
1040
6.377575627796931
1040
-0.1989123673796613
1040
7.92110609094658
1040
5.882600880966338
1040
0.0
1040
7.92110609094658
1040
5.237499868288678
1040
-0.4142135623730911
1040
7.65860609094659
1040
4.974999868288684
1040
0.0
1040
6.171106090946635
1040
4.974999868288684
1040
0.4142135623731526
1040
5.90860609094659
1040
4.71249986828869
1040
0.0
1040
5.90860609094659
1040
3.837499868288678
1040
0.4142135623731526
1040
6.171106090946635
1040
3.574999868288684
1040
0.0
1040
7.92110609094658
1040
3.574999868288684
1040
0.4142135623731045
1040
9.321106090946614
1040
4.974999868288672
1040
0.0
1040
9.321106090946614
1040
5.882600880966307
1040
0.1989123673796604
1040
8.706030331438341
1040
7.367525121458078
1040
0.0
1071
        0
1071
        7
1070
     1
1070
     1
1071
       16
1040
11.7711060909466
1040
9.524999868288688
1040
-0.4142135623730935
1040
12.47110609094659
1040
10.22499986828868
1040
0.0
1040
13.43360609094657
1040
10.22499986828868
1040
0.4142135623731546
1040
13.69610609094661
1040
10.48749986828868
1040
0.0
1040
13.69610609094661
1040
11.36249986828868
1040
0.4142135623730951
1040
13.43360609094662
1040
11.62499986828868
1040
0.0
1040
12.47110609094653
1040
11.62499986828866
1040
0.4142135623730893
1040
10.37110609094656
1040
9.524999868288652
1040
0.0
1040
10.37110609094656
1040
5.674999868288696
1040
0.4142135623730969
1040
12.47110609094659
1040
3.574999868288684
1040
0.0
1040
13.43360609094657
1040
3.574999868288684
1040
0.4142135623731526
1040
13.69610609094661
1040
3.837499868288678
1040
0.0
1040
13.69610609094661
1040
4.71249986828869
1040
0.4142135623730891
1040
13.43360609094662
1040
4.974999868288684
1040
0.0
1040
12.47110609094659
1040
4.974999868288684
1040
-0.4142135623730928
1040
11.7711060909466
1040
5.674999868288677
1040
0.0
1071
        0
1071
        7
1070
     1
1070
     1
1071
        2
1040
12.12110609094656
1040
7.599999868288684
1040
1.0
1040
13.87110609094657
1040
7.599999868288684
1040
1.0
1071
        0
1071
        7
1070
     1
1070
     1
1071
       26
1040
18.65742933203557
1040
9.602523465070396
1040
0.0
1040
19.18824914860448
1040
11.28345288420519
1040
0.5069206636600134
1040
18.9379336990068
1040
11.62499986828868
1040
0.0
1040
18.08848900920219
1040
11.62499986828868
1040
0.3272098845218764
1040
17.83817355960451
1040
11.44154685237217
1040
0.0
1040
16.90403862228861
1040
8.483452884205222
1040
-0.3272098845219541
1040
16.65372317269088
1040
8.299999868288683
1040
0.0
1040
16.58360609094666
1040
8.299999868288683
1040
-0.4142135623731526
1040
16.32110609094661
1040
8.562499868288677
1040
0.0
1040
16.32110609094661
1040
11.36249986828868
1040
0.4142135623730951
1040
16.05860609094662
1040
11.62499986828868
1040
0.0
1040
15.18360609094656
1040
11.62499986828868
1040
0.4142135623730871
1040
14.92110609094658
1040
11.36249986828869
1040
0.0
1040
14.92110609094658
1040
3.837499868288678
1040
0.4142135623730891
1040
15.18360609094656
1040
3.574999868288684
1040
0.0
1040
16.05860609094657
1040
3.574999868288684
1040
0.4142135623731526
1040
16.32110609094661
1040
3.837499868288678
1040
0.0
1040
16.32110609094661
1040
6.637499868288689
1040
-0.4142135623731526
1040
16.58360609094666
1040
6.899999868288683
1040
0.0
1040
16.65372317269094
1040
6.899999868288683
1040
-0.3272098845218915
1040
16.90403862228861
1040
6.716546852372148
1040
0.0
1040
17.83817355960451
1040
3.75845288420522
1040
0.3272098845218902
1040
18.08848900920219
1040
3.574999868288684
1040
0.0
1040
18.9379336990068
1040
3.574999868288684
1040
0.5069206636600336
1040
19.18824914860448
1040
3.916546852372189
1040
0.0
1040
18.02505345936765
1040
7.599999868288753
1040
0.0
1071
        0
1071
        7
1070
     1
1070
     1
1071
        8
1040
21.74610609094656
1040
11.36249986828869
1040
0.4142135623731546
1040
21.48360609094652
1040
11.62499986828868
1040
0.0
1040
20.60860609094663
1040
11.62499986828868
1040
0.4142135623731507
1040
20.34610609094659
1040
11.36249986828869
1040
0.0
1040
20.34610609094659
1040
3.837499868288678
1040
0.4142135623731526
1040
20.60860609094663
1040
3.574999868288684
1040
0.0
1040
21.48360609094652
1040
3.574999868288684
1040
0.4142135623731526
1040
21.74610609094656
1040
3.837499868288678
1040
0.0
1071
        0
1071
        7
1070
     1
1070
     1
1071
       24
1040
24.19610609094661
1040
9.962499868288688
1040
-0.4142135623731546
1040
24.45860609094665
1040
10.22499986828868
1040
0.0
1040
25.94610609094661
1040
10.22499986828868
1040
0.4142135623730911
1040
26.2086060909466
1040
10.48749986828868
1040
0.0
1040
26.2086060909466
1040
11.36249986828868
1040
0.4142135623730952
1040
25.94610609094661
1040
11.62499986828868
1040
0.0
1040
24.19610609094661
1040
11.62499986828868
1040
0.4142135623731048
1040
22.79610609094658
1040
10.22499986828869
1040
0.0
1040
22.79610609094658
1040
9.317398855611063
1040
0.1989123673796613
1040
23.41118185045485
1040
7.832474615119286
1040
0.0
1040
24.86608083777719
1040
6.377575627796954
1040
-0.1989123673796402
1040
25.07110609094661
1040
5.882600880966418
1040
0.0
1040
25.07110609094661
1040
5.237499868288678
1040
-0.4142135623730911
1040
24.80860609094662
1040
4.974999868288684
1040
0.0
1040
23.32110609094661
1040
4.974999868288684
1040
0.4142135623731526
1040
23.05860609094656
1040
4.71249986828869
1040
0.0
1040
23.05860609094656
1040
3.837499868288678
1040
0.4142135623730891
1040
23.32110609094655
1040
3.574999868288684
1040
0.0
1040
25.07110609094661
1040
3.574999868288684
1040
0.4142135623730925
1040
26.47110609094659
1040
4.974999868288672
1040
0.0
1040
26.47110609094659
1040
5.882600880966307
1040
0.1989123673796675
1040
25.85603033143831
1040
7.367525121458137
1040
0.0
1040
24.40113134411603
1040
8.822424108780394
1040
-0.1989123673796652
1040
24.19610609094661
1040
9.317398855610976
1040
0.0
1071
        0
1071
        7
1070
     1
1070
     1
1071
       16
1040
28.92110609094658
1040
11.36249986828868
1040
0.414213562373103
1040
28.65860609094659
1040
11.62499986828868
1040
0.0
1040
27.78360609094659
1040
11.62499986828868
1040
0.4142135623730871
1040
27.5211060909466
1040
11.36249986828869
1040
0.0
1040
27.5211060909466
1040
4.974999868288672
1040
0.4142135623730927
1040
28.92110609094658
1040
3.574999868288684
1040
0.0
1040
30.67110609094658
1040
3.574999868288684
1040
0.4142135623731045
1040
32.07110609094661
1040
4.974999868288672
1040
0.0
1040
32.07110609094661
1040
11.36249986828868
1040
0.4142135623730951
1040
31.80860609094662
1040
11.62499986828868
1040
0.0
1040
30.93360609094657
1040
11.62499986828868
1040
0.4142135623730871
1040
30.67110609094658
1040
11.36249986828869
1040
0.0
1040
30.67110609094658
1040
5.499999868288671
1040
-0.4142135623730879
1040
30.1461060909466
1040
4.974999868288684
1040
0.0
1040
29.44610609094661
1040
4.974999868288684
1040
-0.4142135623731197
1040
28.92110609094658
1040
5.499999868288671
1040
0.0
1071
        0
1071
        7
1070
     1
1070
     1
1071
        8
1040
34.5211060909466
1040
11.36249986828869
1040
0.4142135623730871
1040
34.25860609094661
1040
11.62499986828868
1040
0.0
1040
33.38360609094661
1040
11.62499986828868
1040
0.4142135623731507
1040
33.12110609094657
1040
11.36249986828869
1040
0.0
1040
33.12110609094657
1040
3.837499868288678
1040
0.4142135623730891
1040
33.38360609094655
1040
3.574999868288684
1040
0.0
1040
34.25860609094661
1040
3.574999868288684
1040
0.4142135623730891
1040
34.5211060909466
1040
3.837499868288678
1040
0.0
1071
        0
1070
     0
1070
     1
1040
0.0
1040
0.1
1070
     0
1070
     2
1040
0.7853981633974483
1040
-450.4711521537833
1040
-6.600000131711282
1040
-0.2245064030267288
1040
0.2245064030267288
1070
     0
1040
2.356194490192344
1040
-450.4711521537833
1040
-6.600000131711282
1040
-0.2245064030267288
1040
-0.2245064030267288
1070
     0
1040
0.057451373970553
1071
        8
1040
8.039927495067672
1040
7.583586691231459
1040
0.0
1040
11.20225751677559
1040
9.422030959514188
1040
0.0
1040
12.58218395638584
1040
7.755940691324043
1040
0.0
1040
15.45703000437458
1040
8.100648691509434
1040
0.0
1040
20.91923602303438
1040
8.33045482528024
1040
0.0
1040
23.44910046112079
1040
9.709288026492286
1040
0.0
1040
28.2788429997562
1040
9.36457882583619
1040
0.0
1040
33.91353982336738
1040
9.594384959606998
1040
0.0
1002
}
  0
CIRCLE
  5
F1B
330
1A
100
AcDbEntity
  8
ZUWAKU
100
AcDbCircle
 10
18.82499999999999
 20
14.76249999999999
 30
0.0
 40
0.875
  0
LINE
  5
F1C
330
1A
100
AcDbEntity
  8
ZUWAKU
100
AcDbLine
 10
12.09007575950824
 20
14.99497474683059
 30
0.0
 11
13.54497474683057
 21
13.54007575950826
 31
0.0
  0
LINE
  5
F1D
330
1A
100
AcDbEntity
  8
ZUWAKU
100
AcDbLine
 10
14.53492424049176
 20
14.53002525316941
 30
0.0
 11
13.08002525316942
 21
15.98492424049175
 31
0.0
  0
LINE
  5
F1E
330
1A
100
AcDbEntity
  8
ZUWAKU
100
AcDbLine
 10
16.19999999999999
 20
12.8375
 30
0.0
 11
16.19999999999999
 21
16.68749999999998
 31
0.0
  0
LINE
  5
F1F
330
1A
100
AcDbEntity
  8
ZUWAKU
100
AcDbLine
 10
17.60000000000002
 20
16.6875
 30
0.0
 11
17.60000000000002
 21
12.8375
 31
0.0
  0
LINE
  5
F20
330
1A
100
AcDbEntity
  8
ZUWAKU
100
AcDbLine
 10
15.15000000000003
 20
12.1375
 30
0.0
 11
15.15000000000003
 21
13.04510101267767
 31
0.0
  0
LINE
  5
F21
330
1A
100
AcDbEntity
  8
ZUWAKU
100
AcDbLine
 10
12.0
 20
12.1375
 30
0.0
 11
13.48750000000001
 21
12.1375
 31
0.0
  0
LINE
  5
F22
330
1A
100
AcDbEntity
  8
ZUWAKU
100
AcDbLine
 10
12.0
 20
10.7375
 30
0.0
 11
13.75
 21
10.7375
 31
0.0
  0
ARC
  5
F23
330
1A
100
AcDbEntity
  8
ZUWAKU
100
AcDbCircle
 10
12.0
 20
11.875
 30
0.0
 40
0.2625
100
AcDbArc
 50
90.0
 51
180.0
  0
ARC
  5
F24
330
1A
100
AcDbEntity
  8
ZUWAKU
100
AcDbCircle
 10
12.0
 20
11.0
 30
0.0
 40
0.2625
100
AcDbArc
 50
180.0
 51
270.0
  0
LINE
  5
F25
330
1A
100
AcDbEntity
  8
ZUWAKU
100
AcDbLine
 10
11.73750000000001
 20
11.0
 30
0.0
 11
11.73750000000001
 21
11.875
 31
0.0
  0
ARC
  5
F26
330
1A
100
AcDbEntity
  8
ZUWAKU
100
AcDbCircle
 10
13.05000000000001
 20
13.04510101267767
 30
0.0
 40
0.7
100
AcDbArc
 50
0.0
 51
44.99999999999976
  0
ARC
  5
F27
330
1A
100
AcDbEntity
  8
ZUWAKU
100
AcDbCircle
 10
13.48750000000001
 20
12.4
 30
0.0
 40
0.2625
100
AcDbArc
 50
270.0
 51
0.0
  0
LINE
  5
F28
330
1A
100
AcDbEntity
  8
ZUWAKU
100
AcDbLine
 10
13.75
 20
12.4
 30
0.0
 11
13.75
 21
13.04510101267767
 31
0.0
  0
ARC
  5
F29
330
1A
100
AcDbEntity
  8
ZUWAKU
100
AcDbCircle
 10
13.05000000000001
 20
13.04510101267765
 30
0.0
 40
2.099999999999999
100
AcDbArc
 50
0.0
 51
44.99999999999976
  0
ARC
  5
F2A
330
1A
100
AcDbEntity
  8
ZUWAKU
100
AcDbCircle
 10
13.75
 20
12.1375
 30
0.0
 40
1.399999999999999
100
AcDbArc
 50
270.0
 51
0.0
  0
ARC
  5
F2B
330
1A
100
AcDbEntity
  8
ZUWAKU
100
AcDbCircle
 10
19.26249999999998
 20
11.875
 30
0.0
 40
0.2625
100
AcDbArc
 50
0.0
 51
90.0
  0
ARC
  5
F2C
330
1A
100
AcDbEntity
  8
ZUWAKU
100
AcDbCircle
 10
19.26249999999998
 20
11.0
 30
0.0
 40
0.2625
100
AcDbArc
 50
270.0
 51
0.0
  0
LINE
  5
F2D
330
1A
100
AcDbEntity
  8
ZUWAKU
100
AcDbLine
 10
19.52500000000003
 20
11.875
 30
0.0
 11
19.52500000000003
 21
11.0
 31
0.0
  0
ARC
  5
F2E
330
1A
100
AcDbEntity
  8
ZUWAKU
100
AcDbCircle
 10
18.30000000000001
 20
12.8375
 30
0.0
 40
0.7
100
AcDbArc
 50
180.0
 51
270.0
  0
ARC
  5
F2F
330
1A
100
AcDbEntity
  8
ZUWAKU
100
AcDbCircle
 10
18.30000000000001
 20
12.8375
 30
0.0
 40
2.099999999999999
100
AcDbArc
 50
180.0
 51
270.0
  0
LINE
  5
F30
330
1A
100
AcDbEntity
  8
ZUWAKU
100
AcDbLine
 10
19.26249999999998
 20
10.7375
 30
0.0
 11
18.30000000000001
 21
10.7375
 31
0.0
  0
LINE
  5
F31
330
1A
100
AcDbEntity
  8
ZUWAKU
100
AcDbLine
 10
18.30000000000001
 20
12.1375
 30
0.0
 11
19.26249999999998
 21
12.1375
 31
0.0
  0
LINE
  5
F32
330
1A
100
AcDbEntity
  8
ZUWAKU
100
AcDbLine
 10
14.88749999999998
 20
18.52499999999999
 30
0.0
 11
14.88749999999998
 21
17.64999999999999
 31
0.0
  0
LINE
  5
F33
330
1A
100
AcDbEntity
  8
ZUWAKU
100
AcDbLine
 10
11.47500000000002
 20
17.3875
 30
0.0
 11
11.47500000000002
 21
16.47989898732233
 31
0.0
  0
LINE
  5
F34
330
1A
100
AcDbEntity
  8
ZUWAKU
100
AcDbLine
 10
14.625
 20
17.3875
 30
0.0
 11
13.13749999999999
 21
17.3875
 31
0.0
  0
LINE
  5
F35
330
1A
100
AcDbEntity
  8
ZUWAKU
100
AcDbLine
 10
12.875
 20
17.125
 30
0.0
 11
12.875
 21
16.47989898732233
 31
0.0
  0
ARC
  5
F36
330
1A
100
AcDbEntity
  8
ZUWAKU
100
AcDbCircle
 10
13.13749999999999
 20
17.125
 30
0.0
 40
0.2625
100
AcDbArc
 50
90.0
 51
180.0
  0
LINE
  5
F37
330
1A
100
AcDbEntity
  8
ZUWAKU
100
AcDbLine
 10
12.875
 20
18.7875
 30
0.0
 11
14.625
 21
18.7875
 31
0.0
  0
ARC
  5
F38
330
1A
100
AcDbEntity
  8
ZUWAKU
100
AcDbCircle
 10
14.625
 20
17.64999999999999
 30
0.0
 40
0.2625
100
AcDbArc
 50
270.0
 51
0.0
  0
ARC
  5
F39
330
1A
100
AcDbEntity
  8
ZUWAKU
100
AcDbCircle
 10
14.625
 20
18.52499999999999
 30
0.0
 40
0.2625
100
AcDbArc
 50
0.0
 51
90.0
  0
ARC
  5
F3A
330
1A
100
AcDbEntity
  8
ZUWAKU
100
AcDbCircle
 10
13.57499999999999
 20
16.47989898732235
 30
0.0
 40
0.7
100
AcDbArc
 50
180.0000000000016
 51
224.9999999999992
  0
LINE
  5
F3B
330
1A
100
AcDbEntity
  8
ZUWAKU
100
AcDbLine
 10
19.52500000000003
 20
18.52499999999999
 30
0.0
 11
19.52500000000003
 21
17.64999999999999
 31
0.0
  0
ARC
  5
F3C
330
1A
100
AcDbEntity
  8
ZUWAKU
100
AcDbCircle
 10
19.26249999999998
 20
17.64999999999999
 30
0.0
 40
0.2625
100
AcDbArc
 50
270.0
 51
0.0
  0
ARC
  5
F3D
330
1A
100
AcDbEntity
  8
ZUWAKU
100
AcDbCircle
 10
19.26249999999998
 20
18.52499999999999
 30
0.0
 40
0.2625
100
AcDbArc
 50
0.0
 51
90.0
  0
ARC
  5
F3E
330
1A
100
AcDbEntity
  8
ZUWAKU
100
AcDbCircle
 10
18.30000000000001
 20
16.68749999999998
 30
0.0
 40
2.099999999999999
100
AcDbArc
 50
90.0
 51
180.0
  0
ARC
  5
F3F
330
1A
100
AcDbEntity
  8
ZUWAKU
100
AcDbCircle
 10
18.30000000000001
 20
16.6875
 30
0.0
 40
0.7
100
AcDbArc
 50
90.0
 51
180.0
  0
LINE
  5
F40
330
1A
100
AcDbEntity
  8
ZUWAKU
100
AcDbLine
 10
19.26249999999998
 20
17.3875
 30
0.0
 11
18.30000000000001
 21
17.3875
 31
0.0
  0
LINE
  5
F41
330
1A
100
AcDbEntity
  8
ZUWAKU
100
AcDbLine
 10
18.30000000000001
 20
18.78749999999998
 30
0.0
 11
19.26249999999998
 21
18.7875
 31
0.0
  0
LINE
  5
F42
330
1A
100
AcDbEntity
  8
ZUWAKU
100
AcDbLine
 10
25.0171430576579
 20
11.07904698408348
 30
0.0
 11
23.85394736842107
 21
14.76250000000001
 31
0.0
  0
LINE
  5
F43
330
1A
100
AcDbEntity
  8
ZUWAKU
100
AcDbLine
 10
20.75
 20
18.52499999999999
 30
0.0
 11
20.75
 21
11.0
 31
0.0
  0
LINE
  5
F44
330
1A
100
AcDbEntity
  8
ZUWAKU
100
AcDbLine
 10
27.57499999999998
 20
11.0
 30
0.0
 11
27.57499999999998
 21
18.52499999999999
 31
0.0
  0
LINE
  5
F45
330
1A
100
AcDbEntity
  8
ZUWAKU
100
AcDbLine
 10
26.17500000000001
 20
18.52499999999999
 30
0.0
 11
26.17500000000001
 21
11.0
 31
0.0
  0
ARC
  5
F46
330
1A
100
AcDbEntity
  8
ZUWAKU
100
AcDbCircle
 10
23.91738291825567
 20
11.0
 30
0.0
 40
0.2625
100
AcDbArc
 50
197.5255683737229
 51
270.0
  0
ARC
  5
F47
330
1A
100
AcDbEntity
  8
ZUWAKU
100
AcDbCircle
 10
22.41250000000002
 20
13.8
 30
0.0
 40
0.2625
100
AcDbArc
 50
90.0
 51
180.0
  0
ARC
  5
F48
330
1A
100
AcDbEntity
  8
ZUWAKU
100
AcDbCircle
 10
22.48261708174436
 20
13.8
 30
0.0
 40
0.2625
100
AcDbArc
 50
17.52556837372288
 51
90.0
  0
ARC
  5
F49
330
1A
100
AcDbEntity
  8
ZUWAKU
100
AcDbCircle
 10
21.01249999999999
 20
11.0
 30
0.0
 40
0.2625
100
AcDbArc
 50
180.0
 51
270.0
  0
LINE
  5
F4A
330
1A
100
AcDbEntity
  8
ZUWAKU
100
AcDbLine
 10
22.15000000000003
 20
11.0
 30
0.0
 11
22.15000000000003
 21
13.8
 31
0.0
  0
ARC
  5
F4B
330
1A
100
AcDbEntity
  8
ZUWAKU
100
AcDbCircle
 10
21.88749999999998
 20
11.0
 30
0.0
 40
0.2625
100
AcDbArc
 50
270.0
 51
0.0
  0
LINE
  5
F4C
330
1A
100
AcDbEntity
  8
ZUWAKU
100
AcDbLine
 10
21.01249999999999
 20
10.7375
 30
0.0
 11
21.88749999999998
 21
10.7375
 31
0.0
  0
LINE
  5
F4D
330
1A
100
AcDbEntity
  8
ZUWAKU
100
AcDbLine
 10
22.41250000000002
 20
14.0625
 30
0.0
 11
22.48261708174436
 21
14.0625
 31
0.0
  0
LINE
  5
F4E
330
1A
100
AcDbEntity
  8
ZUWAKU
100
AcDbLine
 10
23.66706746865793
 20
10.92095301591651
 30
0.0
 11
22.73293253134204
 21
13.87904698408348
 31
0.0
  0
ARC
  5
F4F
330
1A
100
AcDbEntity
  8
ZUWAKU
100
AcDbCircle
 10
27.3125
 20
11.0
 30
0.0
 40
0.2625
100
AcDbArc
 50
270.0
 51
0.0
  0
ARC
  5
F50
330
1A
100
AcDbEntity
  8
ZUWAKU
100
AcDbCircle
 10
24.76682760806016
 20
11.0
 30
0.0
 40
0.2625
100
AcDbArc
 50
270.0
 51
17.52556837372288
  0
LINE
  5
F51
330
1A
100
AcDbEntity
  8
ZUWAKU
100
AcDbLine
 10
23.91738291825567
 20
10.7375
 30
0.0
 11
24.76682760806016
 21
10.7375
 31
0.0
  0
ARC
  5
F52
330
1A
100
AcDbEntity
  8
ZUWAKU
100
AcDbCircle
 10
26.4375
 20
11.0
 30
0.0
 40
0.2625
100
AcDbArc
 50
180.0
 51
270.0
  0
LINE
  5
F53
330
1A
100
AcDbEntity
  8
ZUWAKU
100
AcDbLine
 10
26.4375
 20
10.7375
 30
0.0
 11
27.3125
 21
10.7375
 31
0.0
  0
ARC
  5
F54
330
1A
100
AcDbEntity
  8
ZUWAKU
100
AcDbCircle
 10
23.91738291825567
 20
18.52499999999999
 30
0.0
 40
0.2625
100
AcDbArc
 50
90.0
 51
162.474431626277
  0
ARC
  5
F55
330
1A
100
AcDbEntity
  8
ZUWAKU
100
AcDbCircle
 10
21.01249999999999
 20
18.52499999999999
 30
0.0
 40
0.2625
100
AcDbArc
 50
90.0
 51
180.0
  0
LINE
  5
F56
330
1A
100
AcDbEntity
  8
ZUWAKU
100
AcDbLine
 10
21.88749999999998
 20
18.7875
 30
0.0
 11
21.01249999999999
 21
18.7875
 31
0.0
  0
ARC
  5
F57
330
1A
100
AcDbEntity
  8
ZUWAKU
100
AcDbCircle
 10
21.88749999999998
 20
18.52499999999999
 30
0.0
 40
0.2625
100
AcDbArc
 50
0.0
 51
90.0
  0
ARC
  5
F58
330
1A
100
AcDbEntity
  8
ZUWAKU
100
AcDbCircle
 10
22.41250000000002
 20
15.725
 30
0.0
 40
0.2625
100
AcDbArc
 50
180.0
 51
270.0
  0
LINE
  5
F59
330
1A
100
AcDbEntity
  8
ZUWAKU
100
AcDbLine
 10
22.48261708174436
 20
15.46249999999999
 30
0.0
 11
22.41250000000002
 21
15.46249999999999
 31
0.0
  0
ARC
  5
F5A
330
1A
100
AcDbEntity
  8
ZUWAKU
100
AcDbCircle
 10
22.48261708174436
 20
15.725
 30
0.0
 40
0.2625
100
AcDbArc
 50
270.0
 51
342.4744316262771
  0
LINE
  5
F5B
330
1A
100
AcDbEntity
  8
ZUWAKU
100
AcDbLine
 10
23.66706746865793
 20
18.60404698408348
 30
0.0
 11
22.73293253134204
 21
15.64595301591651
 31
0.0
  0
LINE
  5
F5C
330
1A
100
AcDbEntity
  8
ZUWAKU
100
AcDbLine
 10
22.15000000000003
 20
15.725
 30
0.0
 11
22.15000000000003
 21
18.52499999999999
 31
0.0
  0
ARC
  5
F5D
330
1A
100
AcDbEntity
  8
ZUWAKU
100
AcDbCircle
 10
27.3125
 20
18.52499999999999
 30
0.0
 40
0.2625
100
AcDbArc
 50
0.0
 51
90.0
  0
LINE
  5
F5E
330
1A
100
AcDbEntity
  8
ZUWAKU
100
AcDbLine
 10
25.0171430576579
 20
18.44595301591651
 30
0.0
 11
24.486323241089
 21
16.76502359678171
 31
0.0
  0
ARC
  5
F5F
330
1A
100
AcDbEntity
  8
ZUWAKU
100
AcDbCircle
 10
24.76682760806016
 20
18.52499999999999
 30
0.0
 40
0.2625
100
AcDbArc
 50
342.4744316262771
 51
90.0
  0
LINE
  5
F60
330
1A
100
AcDbEntity
  8
ZUWAKU
100
AcDbLine
 10
23.91738291825567
 20
18.7875
 30
0.0
 11
24.76682760806016
 21
18.7875
 31
0.0
  0
ARC
  5
F61
330
1A
100
AcDbEntity
  8
ZUWAKU
100
AcDbCircle
 10
26.4375
 20
18.52499999999999
 30
0.0
 40
0.2625
100
AcDbArc
 50
90.0
 51
180.0
  0
LINE
  5
F62
330
1A
100
AcDbEntity
  8
ZUWAKU
100
AcDbLine
 10
27.3125
 20
18.7875
 30
0.0
 11
26.4375
 21
18.7875
 31
0.0
  0
LINE
  5
F63
330
1A
100
AcDbEntity
  8
ZUWAKU
100
AcDbLine
 10
24.486323241089
 20
16.76502359678171
 30
0.0
 11
23.85394736842107
 21
14.76250000000001
 31
0.0
  0
ARC
  5
F64
330
1A
100
AcDbEntity
  8
ZUWAKU
100
AcDbCircle
 10
35.97500000000002
 20
12.6625
 30
0.0
 40
0.525
100
AcDbArc
 50
270.0
 51
0.0
  0
LINE
  5
F65
330
1A
100
AcDbEntity
  8
ZUWAKU
100
AcDbLine
 10
34.75
 20
10.7375
 30
0.0
 11
36.5
 21
10.7375
 31
0.0
  0
LINE
  5
F66
330
1A
100
AcDbEntity
  8
ZUWAKU
100
AcDbLine
 10
29.24007575950827
 20
14.99497474683059
 30
0.0
 11
30.69497474683061
 21
13.54007575950826
 31
0.0
  0
LINE
  5
F67
330
1A
100
AcDbEntity
  8
ZUWAKU
100
AcDbLine
 10
31.68492424049179
 20
14.53002525316941
 30
0.0
 11
30.2300252531694
 21
15.98492424049175
 31
0.0
  0
LINE
  5
F68
330
1A
100
AcDbEntity
  8
ZUWAKU
100
AcDbLine
 10
34.75
 20
12.6625
 30
0.0
 11
34.75
 21
18.52499999999999
 31
0.0
  0
LINE
  5
F69
330
1A
100
AcDbEntity
  8
ZUWAKU
100
AcDbLine
 10
33.35000000000003
 20
18.52499999999999
 30
0.0
 11
33.35000000000003
 21
12.1375
 31
0.0
  0
ARC
  5
F6A
330
1A
100
AcDbEntity
  8
ZUWAKU
100
AcDbCircle
 10
30.19999999999998
 20
13.04510101267765
 30
0.0
 40
2.099999999999999
100
AcDbArc
 50
0.0
 51
44.99999999999976
  0
ARC
  5
F6B
330
1A
100
AcDbEntity
  8
ZUWAKU
100
AcDbCircle
 10
30.90000000000003
 20
12.1375
 30
0.0
 40
1.399999999999999
100
AcDbArc
 50
270.0
 51
0.0
  0
LINE
  5
F6C
330
1A
100
AcDbEntity
  8
ZUWAKU
100
AcDbLine
 10
29.15000000000004
 20
10.7375
 30
0.0
 11
30.90000000000003
 21
10.7375
 31
0.0
  0
LINE
  5
F6D
330
1A
100
AcDbEntity
  8
ZUWAKU
100
AcDbLine
 10
29.15000000000004
 20
12.1375
 30
0.0
 11
30.63749999999999
 21
12.1375
 31
0.0
  0
ARC
  5
F6E
330
1A
100
AcDbEntity
  8
ZUWAKU
100
AcDbCircle
 10
29.15000000000004
 20
11.875
 30
0.0
 40
0.2625
100
AcDbArc
 50
90.0
 51
180.0
  0
ARC
  5
F6F
330
1A
100
AcDbEntity
  8
ZUWAKU
100
AcDbCircle
 10
29.15000000000004
 20
11.0
 30
0.0
 40
0.2625
100
AcDbArc
 50
180.0
 51
270.0
  0
LINE
  5
F70
330
1A
100
AcDbEntity
  8
ZUWAKU
100
AcDbLine
 10
28.88749999999998
 20
11.0
 30
0.0
 11
28.88749999999998
 21
11.875
 31
0.0
  0
ARC
  5
F71
330
1A
100
AcDbEntity
  8
ZUWAKU
100
AcDbCircle
 10
30.63749999999999
 20
12.4
 30
0.0
 40
0.2625
100
AcDbArc
 50
270.0
 51
0.0
  0
ARC
  5
F72
330
1A
100
AcDbEntity
  8
ZUWAKU
100
AcDbCircle
 10
30.19999999999998
 20
13.04510101267767
 30
0.0
 40
0.7
100
AcDbArc
 50
0.0
 51
44.99999999999976
  0
LINE
  5
F73
330
1A
100
AcDbEntity
  8
ZUWAKU
100
AcDbLine
 10
30.90000000000003
 20
12.4
 30
0.0
 11
30.90000000000003
 21
13.04510101267767
 31
0.0
  0
ARC
  5
F74
330
1A
100
AcDbEntity
  8
ZUWAKU
100
AcDbCircle
 10
35.27500000000003
 20
12.6625
 30
0.0
 40
0.525
100
AcDbArc
 50
180.0
 51
270.0
  0
LINE
  5
F75
330
1A
100
AcDbEntity
  8
ZUWAKU
100
AcDbLine
 10
32.30000000000001
 20
12.1375
 30
0.0
 11
32.30000000000001
 21
13.04510101267767
 31
0.0
  0
ARC
  5
F76
330
1A
100
AcDbEntity
  8
ZUWAKU
100
AcDbCircle
 10
34.75
 20
12.1375
 30
0.0
 40
1.399999999999999
100
AcDbArc
 50
180.0
 51
270.0
  0
LINE
  5
F77
330
1A
100
AcDbEntity
  8
ZUWAKU
100
AcDbLine
 10
35.97500000000002
 20
12.1375
 30
0.0
 11
35.27500000000003
 21
12.1375
 31
0.0
  0
ARC
  5
F78
330
1A
100
AcDbEntity
  8
ZUWAKU
100
AcDbCircle
 10
31.77500000000004
 20
17.64999999999999
 30
0.0
 40
0.2625
100
AcDbArc
 50
270.0
 51
0.0
  0
ARC
  5
F79
330
1A
100
AcDbEntity
  8
ZUWAKU
100
AcDbCircle
 10
31.77500000000004
 20
18.52499999999999
 30
0.0
 40
0.2625
100
AcDbArc
 50
0.0
 51
90.0
  0
ARC
  5
F7A
330
1A
100
AcDbEntity
  8
ZUWAKU
100
AcDbCircle
 10
30.02500000000003
 20
17.3875
 30
0.0
 40
1.399999999999999
100
AcDbArc
 50
90.0
 51
180.0
  0
LINE
  5
F7B
330
1A
100
AcDbEntity
  8
ZUWAKU
100
AcDbLine
 10
28.625
 20
17.3875
 30
0.0
 11
28.625
 21
16.47989898732233
 31
0.0
  0
LINE
  5
F7C
330
1A
100
AcDbEntity
  8
ZUWAKU
100
AcDbLine
 10
30.02500000000003
 20
17.125
 30
0.0
 11
30.02500000000003
 21
16.47989898732233
 31
0.0
  0
ARC
  5
F7D
330
1A
100
AcDbEntity
  8
ZUWAKU
100
AcDbCircle
 10
30.28750000000002
 20
17.125
 30
0.0
 40
0.2625
100
AcDbArc
 50
90.0
 51
180.0
  0
LINE
  5
F7E
330
1A
100
AcDbEntity
  8
ZUWAKU
100
AcDbLine
 10
31.77500000000004
 20
17.3875
 30
0.0
 11
30.28750000000002
 21
17.3875
 31
0.0
  0
LINE
  5
F7F
330
1A
100
AcDbEntity
  8
ZUWAKU
100
AcDbLine
 10
30.02500000000003
 20
18.7875
 30
0.0
 11
31.77500000000004
 21
18.7875
 31
0.0
  0
ARC
  5
F80
330
1A
100
AcDbEntity
  8
ZUWAKU
100
AcDbCircle
 10
30.72500000000002
 20
16.47989898732235
 30
0.0
 40
2.099999999999999
100
AcDbArc
 50
180.0
 51
224.9999999999996
  0
ARC
  5
F81
330
1A
100
AcDbEntity
  8
ZUWAKU
100
AcDbCircle
 10
30.72500000000002
 20
16.47989898732235
 30
0.0
 40
0.7
100
AcDbArc
 50
180.0000000000016
 51
224.9999999999992
  0
LINE
  5
F82
330
1A
100
AcDbEntity
  8
ZUWAKU
100
AcDbLine
 10
32.03750000000002
 20
18.52499999999999
 30
0.0
 11
32.03750000000002
 21
17.64999999999999
 31
0.0
  0
LINE
  5
F83
330
1A
100
AcDbEntity
  8
ZUWAKU
100
AcDbLine
 10
34.48750000000001
 20
18.7875
 30
0.0
 11
33.61250000000001
 21
18.7875
 31
0.0
  0
ARC
  5
F84
330
1A
100
AcDbEntity
  8
ZUWAKU
100
AcDbCircle
 10
33.61250000000001
 20
18.52499999999999
 30
0.0
 40
0.2625
100
AcDbArc
 50
90.0
 51
180.0
  0
ARC
  5
F85
330
1A
100
AcDbEntity
  8
ZUWAKU
100
AcDbCircle
 10
34.48750000000001
 20
18.52499999999999
 30
0.0
 40
0.2625
100
AcDbArc
 50
0.0
 51
90.0
  0
LINE
  5
F86
330
1A
100
AcDbEntity
  8
ZUWAKU
100
AcDbLine
 10
38.94999999999998
 20
18.52499999999999
 30
0.0
 11
38.94999999999998
 21
11.0
 31
0.0
  0
LINE
  5
F87
330
1A
100
AcDbEntity
  8
ZUWAKU
100
AcDbLine
 10
40.35000000000001
 20
11.0
 30
0.0
 11
40.35000000000001
 21
18.52499999999999
 31
0.0
  0
LINE
  5
F88
330
1A
100
AcDbEntity
  8
ZUWAKU
100
AcDbLine
 10
36.5
 20
18.52499999999999
 30
0.0
 11
36.5
 21
12.6625
 31
0.0
  0
LINE
  5
F89
330
1A
100
AcDbEntity
  8
ZUWAKU
100
AcDbLine
 10
37.90000000000004
 20
12.1375
 30
0.0
 11
37.90000000000004
 21
18.52499999999999
 31
0.0
  0
ARC
  5
F8A
330
1A
100
AcDbEntity
  8
ZUWAKU
100
AcDbCircle
 10
40.08750000000003
 20
11.0
 30
0.0
 40
0.2625
100
AcDbArc
 50
270.0
 51
0.0
  0
ARC
  5
F8B
330
1A
100
AcDbEntity
  8
ZUWAKU
100
AcDbCircle
 10
39.21250000000004
 20
11.0
 30
0.0
 40
0.2625
100
AcDbArc
 50
180.0
 51
270.0
  0
LINE
  5
F8C
330
1A
100
AcDbEntity
  8
ZUWAKU
100
AcDbLine
 10
39.21250000000004
 20
10.7375
 30
0.0
 11
40.08750000000003
 21
10.7375
 31
0.0
  0
ARC
  5
F8D
330
1A
100
AcDbEntity
  8
ZUWAKU
100
AcDbCircle
 10
36.5
 20
12.1375
 30
0.0
 40
1.399999999999999
100
AcDbArc
 50
270.0
 51
0.0
  0
ARC
  5
F8E
330
1A
100
AcDbEntity
  8
ZUWAKU
100
AcDbCircle
 10
40.08750000000003
 20
18.52499999999999
 30
0.0
 40
0.2625
100
AcDbArc
 50
0.0
 51
90.0
  0
ARC
  5
F8F
330
1A
100
AcDbEntity
  8
ZUWAKU
100
AcDbCircle
 10
36.76249999999998
 20
18.52499999999999
 30
0.0
 40
0.2625
100
AcDbArc
 50
90.0
 51
180.0
  0
LINE
  5
F90
330
1A
100
AcDbEntity
  8
ZUWAKU
100
AcDbLine
 10
37.63749999999998
 20
18.7875
 30
0.0
 11
36.76249999999998
 21
18.7875
 31
0.0
  0
ARC
  5
F91
330
1A
100
AcDbEntity
  8
ZUWAKU
100
AcDbCircle
 10
37.63749999999998
 20
18.52499999999999
 30
0.0
 40
0.2625
100
AcDbArc
 50
0.0
 51
90.0
  0
ARC
  5
F92
330
1A
100
AcDbEntity
  8
ZUWAKU
100
AcDbCircle
 10
39.21250000000004
 20
18.52499999999999
 30
0.0
 40
0.2625
100
AcDbArc
 50
90.0
 51
180.0
  0
LINE
  5
F93
330
1A
100
AcDbEntity
  8
ZUWAKU
100
AcDbLine
 10
40.08750000000003
 20
18.7875
 30
0.0
 11
39.21250000000004
 21
18.7875
 31
0.0
  0
LINE
  5
F99
330
1A
100
AcDbEntity
  8
ZUWAKU
100
AcDbLine
 10
110.0521945676433
 20
22.16249999999999
 30
0.0
 11
110.0521945676434
 21
7.562500000000031
 31
0.0
  0
LINE
  5
F9A
330
1A
100
AcDbEntity
  8
ZUWAKU
100
AcDbLine
 10
110.1521945676433
 20
22.16249999999999
 30
0.0
 11
110.1521945676434
 21
7.562500000000031
 31
0.0
  0
LINE
  5
F9B
330
1A
100
AcDbEntity
  8
ZUWAKU
100
AcDbLine
 10
109.9521945676433
 20
22.16249999999999
 30
0.0
 11
109.9521945676433
 21
7.562500000000031
 31
0.0
  0
TEXT
  5
F9D
330
1A
100
AcDbEntity
  8
ZUWAKU
100
AcDbText
 10
110.6909170787481
 20
19.19017826919278
 30
0.0
 40
2.0
  1
品名
 41
0.9
  7
ｽﾀｲﾙ1
100
AcDbText
  0
TEXT
  5
F9E
330
1A
100
AcDbEntity
  8
ZUWAKU
100
AcDbText
 10
110.6909170787482
 20
11.99017826919281
 30
0.0
 40
2.0
  1
サイズ
 41
0.9
  7
ｽﾀｲﾙ1
100
AcDbText
  0
TEXT
  5
FD3
330
1A
100
AcDbEntity
  8
ZUWAKU
100
AcDbText
 10
334.9308627662606
 20
16.16496052870369
 30
0.0
 40
2.799999999999998
  1
　　．　　．　　
 41
0.9
  7
ｽﾀｲﾙ1
100
AcDbText
  0
LINE
  5
FD4
330
1A
100
AcDbEntity
  8
ZUWAKU
100
AcDbLine
 10
330.2374951777115
 20
14.96250000000001
 30
0.0
 11
354.4533991968799
 21
14.96250000000001
 31
0.0
  0
LINE
  5
FD5
330
1A
100
AcDbEntity
  8
ZUWAKU
100
AcDbLine
 10
330.2374951777117
 20
14.86250000000001
 30
0.0
 11
354.4533991968799
 21
14.86250000000001
 31
0.0
  0
LINE
  5
FD6
330
1A
100
AcDbEntity
  8
ZUWAKU
100
AcDbLine
 10
330.2374951777115
 20
14.76250000000001
 30
0.0
 11
354.4533991968799
 21
14.76250000000001
 31
0.0
  0
TEXT
  5
FD7
330
1A
100
AcDbEntity
  8
MOJI
100
AcDbText
 10
269.8493479087658
 20
8.764960528703706
 30
0.0
 40
2.799999999999998
  1
１/１
 41
0.9
  7
ｽﾀｲﾙ1
100
AcDbText
  0
TEXT
  5
FD8
330
1A
100
AcDbEntity
  8
MOJI
100
AcDbText
 10
269.8493479087658
 20
16.16496052870369
 30
0.0
 40
2.799999999999998
  1
Ａ３
 41
0.9
  7
ｽﾀｲﾙ1
100
AcDbText
  0
LINE
  5
FD9
330
1A
100
AcDbEntity
  8
ZUWAKU
100
AcDbLine
 10
258.4284836716798
 20
14.96250000000001
 30
0.0
 11
282.0923718056656
 21
14.96250000000001
 31
0.0
  0
LINE
  5
FDA
330
1A
100
AcDbEntity
  8
ZUWAKU
100
AcDbLine
 10
258.4284836716798
 20
14.86250000000001
 30
0.0
 11
282.0923718056656
 21
14.86250000000001
 31
0.0
  0
LINE
  5
FDB
330
1A
100
AcDbEntity
  8
ZUWAKU
100
AcDbLine
 10
258.4284836716798
 20
14.76250000000001
 30
0.0
 11
282.0923718056656
 21
14.76250000000001
 31
0.0
  0
LINE
  5
FDC
330
1A
100
AcDbEntity
  8
ZUWAKU
100
AcDbLine
 10
258.2284836716799
 20
22.16249999999999
 30
0.0
 11
258.2284836716799
 21
7.562500000000031
 31
0.0
  0
LINE
  5
FDD
330
1A
100
AcDbEntity
  8
ZUWAKU
100
AcDbLine
 10
258.4284836716798
 20
22.16249999999999
 30
0.0
 11
258.42848367168
 21
7.562500000000031
 31
0.0
  0
LINE
  5
FDE
330
1A
100
AcDbEntity
  8
ZUWAKU
100
AcDbLine
 10
258.3284836716798
 20
22.16249999999999
 30
0.0
 11
258.3284836716799
 21
7.562500000000031
 31
0.0
  0
LINE
  5
FDF
330
1A
100
AcDbEntity
  8
ZUWAKU
100
AcDbLine
 10
229.5410759081051
 20
22.16249999999999
 30
0.0
 11
229.5410759081051
 21
7.562500000000031
 31
0.0
  0
LINE
  5
FE0
330
1A
100
AcDbEntity
  8
ZUWAKU
100
AcDbLine
 10
229.741075908105
 20
22.16249999999999
 30
0.0
 11
229.7410759081052
 21
7.562500000000031
 31
0.0
  0
LINE
  5
FE1
330
1A
100
AcDbEntity
  8
ZUWAKU
100
AcDbLine
 10
229.641075908105
 20
22.16249999999999
 30
0.0
 11
229.6410759081051
 21
7.562500000000031
 31
0.0
  0
TEXT
  5
FE3
330
1A
100
AcDbEntity
  8
ZUWAKU
100
AcDbText
 10
230.4797984192098
 20
19.19017826919278
 30
0.0
 40
2.0
  1
品番
 41
0.9
  7
ｽﾀｲﾙ1
100
AcDbText
  0
TEXT
  5
FE4
330
1A
100
AcDbEntity
  8
ZUWAKU
100
AcDbText
 10
259.1672061827846
 20
19.19017826919278
 30
0.0
 40
2.0
  1
用紙
 41
0.9
  7
ｽﾀｲﾙ1
100
AcDbText
  0
TEXT
  5
FE5
330
1A
100
AcDbEntity
  8
ZUWAKU
100
AcDbText
 10
259.1672061827848
 20
11.99017826919281
 30
0.0
 40
2.0
  1
縮尺
 41
0.9
  7
ｽﾀｲﾙ1
100
AcDbText
  0
LINE
  5
FE6
330
1A
100
AcDbEntity
  8
ZUWAKU
100
AcDbLine
 10
282.0923718056656
 20
22.16249999999999
 30
0.0
 11
282.0923718056656
 21
7.562500000000031
 31
0.0
  0
LINE
  5
FE7
330
1A
100
AcDbEntity
  8
ZUWAKU
100
AcDbLine
 10
282.2923718056655
 20
22.16249999999999
 30
0.0
 11
282.2923718056657
 21
7.562500000000031
 31
0.0
  0
LINE
  5
FE8
330
1A
100
AcDbEntity
  8
ZUWAKU
100
AcDbLine
 10
282.1923718056655
 20
22.16249999999999
 30
0.0
 11
282.1923718056656
 21
7.562500000000031
 31
0.0
  0
LINE
  5
FE9
330
1A
100
AcDbEntity
  8
ZUWAKU
100
AcDbLine
 10
330.0374951777117
 20
22.16249999999999
 30
0.0
 11
330.0374951777117
 21
7.562500000000031
 31
0.0
  0
LINE
  5
FEA
330
1A
100
AcDbEntity
  8
ZUWAKU
100
AcDbLine
 10
330.2374951777117
 20
22.16249999999999
 30
0.0
 11
330.2374951777117
 21
7.562500000000031
 31
0.0
  0
LINE
  5
FEB
330
1A
100
AcDbEntity
  8
ZUWAKU
100
AcDbLine
 10
330.1374951777116
 20
22.16249999999999
 30
0.0
 11
330.1374951777117
 21
7.562500000000031
 31
0.0
  0
TEXT
  5
FEC
330
1A
100
AcDbEntity
  8
ZUWAKU
100
AcDbText
 10
330.9762176888164
 20
19.19017826919278
 30
0.0
 40
2.0
  1
DATE
 41
0.9
  7
ｽﾀｲﾙ1
100
AcDbText
  0
LINE
  5
107E
330
1A
100
AcDbEntity
  8
ZUWAKU
100
AcDbLine
 10
354.75339919688
 20
22.16249999999999
 30
0.0
 11
354.7533991968801
 21
7.562500000000031
 31
0.0
  0
LINE
  5
107F
330
1A
100
AcDbEntity
  8
ZUWAKU
100
AcDbLine
 10
354.65339919688
 20
22.16249999999999
 30
0.0
 11
354.6533991968801
 21
7.562500000000031
 31
0.0
  0
LINE
  5
1080
330
1A
100
AcDbEntity
  8
ZUWAKU
100
AcDbLine
 10
354.55339919688
 20
22.16249999999999
 30
0.0
 11
354.55339919688
 21
7.562500000000031
 31
0.0
  0
LINE
  5
1081
330
1A
100
AcDbEntity
  8
ZUWAKU
100
AcDbLine
 10
354.4533991968799
 20
22.16249999999999
 30
0.0
 11
354.4533991968799
 21
7.562500000000031
 31
0.0
  0
TEXT
  5
1083
330
1A
100
AcDbEntity
  8
ZUWAKU
100
AcDbText
 10
360.0929360187314
 20
13.17440550963912
 30
0.0
 40
3.0
  1
積水化学工業株式会社
 41
0.9
  7
ｽﾀｲﾙ1
100
AcDbText
  0
TEXT
  5
1403
330
1A
100
AcDbEntity
  8
MOJI
100
AcDbText
 10
53.26244245331515
 20
13.1675260221858
 30
0.0
 40
2.799999999999998
  1
くさりとい
 41
0.9
  7
ｽﾀｲﾙ1
100
AcDbText
  0
TEXT
  5
3C1D
330
1A
100
AcDbEntity
  8
MOJI
100
AcDbText
 10
125.7343856238608
 20
16.85842113723302
 30
0.0
 40
2.799999999999998
  1
くさりといアダプター
 41
0.9
  7
ｽﾀｲﾙ1
100
AcDbText
  0
TEXT
  5
3C1E
330
1A
100
AcDbEntity
  8
MOJI
100
AcDbText
 10
125.7343856238608
 20
9.657285836593615
 30
0.0
 40
2.799999999999998
  1
Ｙ６０Ｈ
 41
0.9
  7
ｽﾀｲﾙ1
100
AcDbText
  0
TEXT
  5
3C1F
330
1A
100
AcDbEntity
  8
MOJI
100
AcDbText
 10
236.1005704910376
 20
12.79040865761942
 30
0.0
 40
2.799999999999998
  1
ＰＦ７５
 41
0.9
  7
ｽﾀｲﾙ1
100
AcDbText
  0
DIMENSION
  5
3DB2
330
1A
100
AcDbEntity
  8
SUNPOU
 48
5.0
100
AcDbDimension
  2
*D2
 10
210.2093226183995
 20
79.84431211610072
 30
0.0
 11
207.7093226183995
 21
104.3442621161007
 31
0.0
 70
    32
 71
     5
 42
-1.0
  3
STANDARD
100
AcDbAlignedDimension
 13
183.4305429343408
 23
128.8442121161007
 33
0.0
 14
168.4804429343407
 24
79.84431211610072
 34
0.0
 50
90.0
100
AcDbRotatedDimension
1001
ACAD
1000
DSTYLE
1002
{
1070
   140
1040
3.0
1070
    74
1070
     0
1070
   172
1070
     1
1070
    73
1070
     0
1070
   272
1070
     2
1070
    77
1070
     3
1070
   173
1070
     1
1070
   147
1040
1.0
1070
    42
1040
3.0
1070
    44
1040
1.5
1070
    43
1040
7.0
1070
   271
1070
     0
1070
   178
1070
     4
1070
   177
1070
     4
1070
   176
1070
     4
1070
   141
1040
150.0
1070
     7
1000
_OPEN
1070
     6
1000
_OPEN
1070
    41
1040
3.0
1002
}
  0
DIMENSION
  5
3DB3
330
1A
100
AcDbEntity
  8
SUNPOU
 48
5.0
100
AcDbDimension
  2
*D3
 10
210.2093226183995
 20
176.8443121161006
 30
0.0
 11
207.7093226183995
 21
208.8443121161008
 31
0.0
 70
    32
 71
     5
 42
-1.0
  3
STANDARD
100
AcDbAlignedDimension
 13
173.4576429343407
 23
240.8443121161008
 33
0.0
 14
173.4576429343407
 24
176.8443121161006
 34
0.0
 50
90.0
100
AcDbRotatedDimension
1001
ACAD
1000
DSTYLE
1002
{
1070
   140
1040
3.0
1070
    74
1070
     0
1070
   172
1070
     1
1070
    73
1070
     0
1070
   272
1070
     2
1070
    77
1070
     3
1070
   173
1070
     1
1070
   147
1040
1.0
1070
    42
1040
3.0
1070
    44
1040
1.5
1070
    43
1040
7.0
1070
   271
1070
     0
1070
   178
1070
     4
1070
   177
1070
     4
1070
   176
1070
     4
1070
   141
1040
150.0
1070
     7
1000
_OPEN
1070
     6
1000
_OPEN
1070
    41
1040
3.0
1002
}
  0
DIMENSION
  5
3DBD
330
1A
100
AcDbEntity
  8
SUNPOU
 48
5.0
100
AcDbDimension
  2
*D4
 10
183.4291429343405
 20
146.092331141596
 30
0.0
 11
151.4785929343406
 21
148.592331141596
 31
0.0
 70
    32
 71
     5
 42
-1.0
  3
STANDARD
100
AcDbAlignedDimension
 13
119.5280429343406
 23
128.8443121161007
 33
0.0
 14
183.4291429343405
 24
128.8442121161007
 34
0.0
100
AcDbRotatedDimension
1001
ACAD
1000
DSTYLE
1002
{
1070
   140
1040
3.0
1070
    74
1070
     0
1070
   172
1070
     1
1070
    73
1070
     0
1070
   272
1070
     2
1070
    77
1070
     3
1070
   173
1070
     1
1070
   147
1040
1.0
1070
    42
1040
3.0
1070
    44
1040
1.5
1070
    43
1040
7.0
1070
   271
1070
     0
1070
   178
1070
     4
1070
   177
1070
     4
1070
   176
1070
     4
1070
   141
1040
150.0
1070
     7
1000
_OPEN
1070
     6
1000
_OPEN
1070
    41
1040
3.0
1002
}
  0
LINE
  5
3DBE
330
1A
100
AcDbEntity
  8
SEIHIN
 48
5.0
100
AcDbLine
 10
151.4785429343408
 20
81.34431211610081
 30
0.0
 11
133.4765429343407
 21
81.34431211610081
 31
0.0
  0
LINE
  5
3DBF
330
1A
100
AcDbEntity
  8
SEIHIN
 48
5.0
100
AcDbLine
 10
151.4785429343408
 20
98.8443121161007
 30
0.0
 11
121.0280429343406
 21
98.8443121161007
 31
0.0
  0
LINE
  5
3DC0
330
1A
100
AcDbEntity
  8
SEIHIN
 48
5.0
100
AcDbLine
 10
119.5266429343406
 20
128.8443121161007
 30
0.0
 11
151.4785429343408
 21
128.8442121161007
 31
0.0
  0
LINE
  5
3DC1
330
1A
100
AcDbEntity
  8
SEIHIN
 48
5.0
100
AcDbLine
 10
151.4785429343408
 20
97.34431211610079
 30
0.0
 11
121.0265429343406
 21
97.34431211610079
 31
0.0
  0
LINE
  5
3DC2
330
1A
100
AcDbEntity
  8
SEIHIN
 48
5.0
100
AcDbLine
 10
151.4785429343408
 20
79.84431211610072
 30
0.0
 11
134.4765429343407
 21
79.84431211610072
 31
0.0
  0
LINE
  5
3DC3
330
1A
100
AcDbEntity
  8
SEIHIN
 48
5.0
100
AcDbLine
 10
119.5280429343406
 20
100.3443121161008
 30
0.0
 11
119.5280429343406
 21
128.8443121161007
 31
0.0
  0
LINE
  5
3DC4
330
1A
100
AcDbEntity
  8
SEIHIN
 48
5.0
100
AcDbLine
 10
128.5280429343406
 20
100.3443121161008
 30
0.0
 11
128.5280429343406
 21
128.8442121161007
 31
0.0
  0
ARC
  5
3DC5
330
1A
100
AcDbEntity
  8
SEIHIN
 48
5.0
100
AcDbCircle
 10
113.6447465325774
 20
78.75650749188733
 30
0.0
 40
19.99993497151973
100
AcDbArc
 50
7.434670759500584
 51
68.34043093408995
  0
ARC
  5
3DC6
330
1A
100
AcDbEntity
  8
SEIHIN
 48
5.0
100
AcDbCircle
 10
122.6461902263814
 20
78.75647985272014
 30
0.0
 40
19.99998144133087
100
AcDbArc
 50
7.434444331310277
 51
68.34031024262244
  0
LINE
  5
3DC7
330
1A
100
AcDbEntity
  8
SEIHIN
 48
5.0
100
AcDbLine
 10
133.4765429343407
 20
81.34431211610081
 30
0.0
 11
134.4765429343407
 21
79.84431211610072
 31
0.0
  0
LINE
  5
3DC8
330
1A
100
AcDbEntity
  8
SEIHIN
 48
5.0
100
AcDbLine
 10
142.4780429343406
 20
81.34431211610081
 30
0.0
 11
143.4780429343406
 21
79.84431211610072
 31
0.0
  0
ARC
  5
3DC9
330
1A
100
AcDbEntity
  8
SEIHIN
 48
5.0
100
AcDbCircle
 10
130.0280429343406
 20
100.3443121161007
 30
0.0
 40
1.5
100
AcDbArc
 50
179.9999999999973
 51
269.9999999999968
  0
ARC
  5
3DCA
330
1A
100
AcDbEntity
  8
SEIHIN
 48
5.0
100
AcDbCircle
 10
121.0280429343406
 20
100.3443121161007
 30
0.0
 40
1.500000000000056
100
AcDbArc
 50
179.9999999999984
 51
269.9999999999968
  0
LINE
  5
3DCB
330
1A
100
AcDbEntity
  8
SEIHIN
 48
5.0
100
AcDbLine
 10
121.0265429343406
 20
97.34431211610079
 30
0.0
 11
121.0265429343406
 21
98.8443121161007
 31
0.0
  0
LINE
  5
3DCC
330
1A
100
AcDbEntity
  8
SEIHIN
 48
5.0
100
AcDbLine
 10
130.0280429343406
 20
97.34431211610079
 30
0.0
 11
130.0281429343407
 21
98.8443121161007
 31
0.0
  0
LINE
  5
3DCD
330
1A
100
AcDbEntity
  8
SEIHIN
 48
5.0
100
AcDbLine
 10
119.5266429343406
 20
128.8443121161007
 30
0.0
 11
123.5266429343406
 21
128.8443121161007
 31
0.0
  0
LINE
  5
3DCE
330
1A
100
AcDbEntity
  8
SEIHIN
 48
5.0
100
AcDbLine
 10
183.4289429343407
 20
100.3442121161007
 30
0.0
 11
183.4291429343405
 21
128.8442121161007
 31
0.0
  0
LINE
  5
3DCF
330
1A
100
AcDbEntity
  8
SEIHIN
 48
5.0
100
AcDbLine
 10
174.4289429343407
 20
100.3442121161007
 30
0.0
 11
174.4290429343407
 21
128.8442121161007
 31
0.0
  0
LINE
  5
3DD0
330
1A
100
AcDbEntity
  8
CENTER L
 48
5.0
100
AcDbLine
 10
151.4785429343408
 20
72.93951211610073
 30
0.0
 11
151.4785365537238
 21
136.8055837990794
 31
0.0
  0
LINE
  5
3DD1
330
1A
100
AcDbEntity
  8
SEIHIN
 48
5.0
100
AcDbLine
 10
151.4785429343408
 20
97.34431211610079
 30
0.0
 11
181.9304429343407
 21
97.34421211610079
 31
0.0
  0
LINE
  5
3DD2
330
1A
100
AcDbEntity
  8
SEIHIN
 48
5.0
100
AcDbLine
 10
151.4785429343408
 20
98.8443121161007
 30
0.0
 11
181.9290429343406
 21
98.8442121161008
 31
0.0
  0
ARC
  5
3DD3
330
1A
100
AcDbEntity
  8
SEIHIN
 48
5.0
100
AcDbCircle
 10
189.3123016226889
 20
78.75635902483546
 30
0.0
 40
20.00000300592986
100
AcDbArc
 50
111.6596836573914
 51
172.5652146490201
  0
ARC
  5
3DD4
330
1A
100
AcDbEntity
  8
SEIHIN
 48
5.0
100
AcDbCircle
 10
180.3108016226888
 20
78.75635902483543
 30
0.0
 40
20.00000300592985
100
AcDbArc
 50
111.6596836573914
 51
172.5652146490201
  0
LINE
  5
3DD5
330
1A
100
AcDbEntity
  8
SEIHIN
 48
5.0
100
AcDbLine
 10
151.4785429343408
 20
79.84431211610072
 30
0.0
 11
168.4804429343407
 21
79.84431211610072
 31
0.0
  0
LINE
  5
3DD6
330
1A
100
AcDbEntity
  8
SEIHIN
 48
5.0
100
AcDbLine
 10
151.4785429343408
 20
81.34431211610081
 30
0.0
 11
169.4804429343405
 21
81.34431211610081
 31
0.0
  0
LINE
  5
3DD7
330
1A
100
AcDbEntity
  8
SEIHIN
 48
5.0
100
AcDbLine
 10
160.4789429343405
 20
81.34431211610081
 30
0.0
 11
159.4789429343405
 21
79.84431211610072
 31
0.0
  0
LINE
  5
3DD8
330
1A
100
AcDbEntity
  8
SEIHIN
 48
5.0
100
AcDbLine
 10
169.4804429343405
 20
81.34431211610081
 30
0.0
 11
168.4804429343407
 21
79.84431211610072
 31
0.0
  0
ARC
  5
3DD9
330
1A
100
AcDbEntity
  8
SEIHIN
 48
5.0
100
AcDbCircle
 10
172.9289429343407
 20
100.3442121161007
 30
0.0
 40
1.499999999999957
100
AcDbArc
 50
269.9999999999968
 51
359.9999999999984
  0
LINE
  5
3DDA
330
1A
100
AcDbEntity
  8
SEIHIN
 48
5.0
100
AcDbLine
 10
172.9289429343407
 20
97.34421211610079
 30
0.0
 11
172.9289429343407
 21
98.8443121161007
 31
0.0
  0
ARC
  5
3DDB
330
1A
100
AcDbEntity
  8
SEIHIN
 48
5.0
100
AcDbCircle
 10
181.9289929343407
 20
100.3441621161008
 30
0.0
 40
1.499950000833387
100
AcDbArc
 50
270.001909922975
 51
0.0019099229762455
  0
LINE
  5
3DDC
330
1A
100
AcDbEntity
  8
SEIHIN
 48
5.0
100
AcDbLine
 10
181.9304429343407
 20
97.34421211610079
 30
0.0
 11
181.9304429343407
 21
98.8443121161007
 31
0.0
  0
LINE
  5
3DDD
330
1A
100
AcDbEntity
  8
SEIHIN
 48
5.0
100
AcDbLine
 10
183.4305429343408
 20
128.8442121161007
 30
0.0
 11
151.4785429343408
 21
128.8443121161007
 31
0.0
  0
LINE
  5
3DDE
330
1A
100
AcDbEntity
  8
SEIHIN
 48
5.0
100
AcDbLine
 10
154.9805429343407
 20
128.3443121161007
 30
0.0
 11
151.4805429343405
 21
128.3443121161007
 31
0.0
  0
LINE
  5
3DDF
330
1A
100
AcDbEntity
  8
SEIHIN
 48
5.0
100
AcDbLine
 10
154.9805429343407
 20
124.3443121161007
 30
0.0
 11
151.4805429343405
 21
124.3443121161007
 31
0.0
  0
LINE
  5
3DE0
330
1A
100
AcDbEntity
  8
SEIHIN
 48
5.0
100
AcDbLine
 10
154.9805429343407
 20
123.8443121161007
 30
0.0
 11
151.4805429343405
 21
123.8443121161007
 31
0.0
  0
LINE
  5
3DE1
330
1A
100
AcDbEntity
  8
SEIHIN
 48
5.0
100
AcDbLine
 10
147.9766429343407
 20
128.3443121161007
 30
0.0
 11
151.4766429343406
 21
128.3443121161007
 31
0.0
  0
LINE
  5
3DE2
330
1A
100
AcDbEntity
  8
SEIHIN
 48
5.0
100
AcDbLine
 10
147.9765429343407
 20
124.3443121161007
 30
0.0
 11
151.4765429343407
 21
124.3443121161007
 31
0.0
  0
LINE
  5
3DE3
330
1A
100
AcDbEntity
  8
SEIHIN
 48
5.0
100
AcDbLine
 10
147.9765429343407
 20
123.8443121161007
 30
0.0
 11
151.4765429343407
 21
123.8443121161007
 31
0.0
  0
LINE
  5
3DE4
330
1A
100
AcDbEntity
  8
SEIHIN
 48
5.0
100
AcDbLine
 10
147.9766429343407
 20
128.3443121161007
 30
0.0
 11
147.9765429343407
 21
123.8443121161007
 31
0.0
  0
LINE
  5
3DE5
330
1A
100
AcDbEntity
  8
SEIHIN
 48
5.0
100
AcDbLine
 10
154.9805429343407
 20
128.3443121161007
 30
0.0
 11
154.9805429343407
 21
123.8443121161007
 31
0.0
  0
LINE
  5
3DE6
330
1A
100
AcDbEntity
  8
SEIHIN
 48
5.0
100
AcDbLine
 10
151.4805429343405
 20
238.1943121161006
 30
0.0
 11
131.9576429343406
 21
238.1943121161006
 31
0.0
  0
LINE
  5
3DE7
330
1A
100
AcDbEntity
  8
SEIHIN
 48
5.0
100
AcDbLine
 10
151.4805429343405
 20
239.1943121161006
 30
0.0
 11
131.1843429343407
 21
239.1943121161006
 31
0.0
  0
LINE
  5
3DE8
330
1A
100
AcDbEntity
  8
SEIHIN
 48
5.0
100
AcDbLine
 10
151.4805429343405
 20
240.8443121161008
 30
0.0
 11
129.5034429343407
 21
240.8443121161008
 31
0.0
  0
LINE
  5
3DE9
330
1A
100
AcDbEntity
  8
SEIHIN
 48
5.0
100
AcDbLine
 10
151.4805429343405
 20
225.1442121161008
 30
0.0
 11
141.1805429343408
 21
225.1442121161008
 31
0.0
  0
LINE
  5
3DEA
330
1A
100
AcDbEntity
  8
SEIHIN
 48
5.0
100
AcDbLine
 10
151.4804429343407
 20
179.4943121161008
 30
0.0
 11
131.9575429343407
 21
179.4943121161008
 31
0.0
  0
LINE
  5
3DEB
330
1A
100
AcDbEntity
  8
CENTER L
 48
5.0
100
AcDbLine
 10
151.4805429343405
 20
208.8443121161007
 30
0.0
 11
111.4805429343406
 21
208.8443121161007
 31
0.0
  0
LINE
  5
3DEC
330
1A
100
AcDbEntity
  8
SEIHIN
 48
5.0
100
AcDbLine
 10
151.4805429343405
 20
192.5443121161008
 30
0.0
 11
141.1805429343408
 21
192.5443121161008
 31
0.0
  0
LINE
  5
3DED
330
1A
100
AcDbEntity
  8
SEIHIN
 48
5.0
100
AcDbLine
 10
151.4804429343407
 20
176.8443121161006
 30
0.0
 11
129.5034429343407
 21
176.8443121161006
 31
0.0
  0
LINE
  5
3DEE
330
1A
100
AcDbEntity
  8
SEIHIN
 48
5.0
100
AcDbLine
 10
151.4804429343407
 20
178.4943121161008
 30
0.0
 11
131.1842429343406
 21
178.4943121161008
 31
0.0
  0
LINE
  5
3DEF
330
1A
100
AcDbEntity
  8
SEIHIN
 48
5.0
100
AcDbLine
 10
141.4805429343405
 20
205.8443121161007
 30
0.0
 11
177.8305429343406
 21
205.8443121161007
 31
0.0
  0
LINE
  5
3DF0
330
1A
100
AcDbEntity
  8
SEIHIN
 48
5.0
100
AcDbLine
 10
141.4805429343405
 20
211.8443121161007
 30
0.0
 11
177.8305429343406
 21
211.8443121161007
 31
0.0
  0
LINE
  5
3DF1
330
1A
100
AcDbEntity
  8
SEIHIN
 48
5.0
100
AcDbLine
 10
119.4805429343406
 20
208.8443121161007
 30
0.0
 11
119.4805429343406
 21
186.8015121161007
 31
0.0
  0
LINE
  5
3DF2
330
1A
100
AcDbEntity
  8
SEIHIN
 48
5.0
100
AcDbLine
 10
121.1305429343407
 20
208.8443121161007
 30
0.0
 11
121.1305429343407
 21
188.5480121161007
 31
0.0
  0
LINE
  5
3DF3
330
1A
100
AcDbEntity
  8
SEIHIN
 48
5.0
100
AcDbLine
 10
122.1305429343407
 20
208.8443121161007
 30
0.0
 11
122.1305429343407
 21
189.3213121161008
 31
0.0
  0
LINE
  5
3DF4
330
1A
100
AcDbEntity
  8
SEIHIN
 48
5.0
100
AcDbLine
 10
135.1805429343408
 20
208.8443121161007
 30
0.0
 11
135.1805429343408
 21
198.5443121161008
 31
0.0
  0
LINE
  5
3DF5
330
1A
100
AcDbEntity
  8
SEIHIN
 48
5.0
100
AcDbLine
 10
132.2029429343407
 20
180.3103121161008
 30
0.0
 11
141.1805429343408
 21
192.5443121161008
 31
0.0
  0
ARC
  5
3DF6
330
1A
100
AcDbEntity
  8
SEIHIN
 48
5.0
100
AcDbCircle
 10
119.5535149766945
 20
176.8445405976912
 30
0.0
 40
9.000017972869555
100
AcDbArc
 50
5.73769709580659
 51
84.6815159920899
  0
ARC
  5
3DF7
330
1A
100
AcDbEntity
  8
SEIHIN
 48
5.0
100
AcDbCircle
 10
119.4804429343405
 20
176.8443121161008
 30
0.0
 40
12.0000159074895
100
AcDbArc
 50
16.30644234610338
 51
73.69355765389525
  0
ARC
  5
3DF8
330
1A
100
AcDbEntity
  8
SEIHIN
 48
5.0
100
AcDbCircle
 10
119.4805222039486
 20
176.8442328470366
 30
0.0
 40
11.00001859704844
100
AcDbArc
 50
12.75856280033828
 51
77.24281793730433
  0
ARC
  5
3DF9
330
1A
100
AcDbEntity
  8
SEIHIN
 48
5.0
100
AcDbCircle
 10
129.5034360247576
 20
177.8443183660616
 30
0.0
 40
1.000006249984854
100
AcDbArc
 50
185.7394943855579
 51
270.0003958874701
  0
ARC
  5
3DFA
330
1A
100
AcDbEntity
  8
SEIHIN
 48
5.0
100
AcDbCircle
 10
131.9575400888561
 20
180.4943142485962
 30
0.0
 40
1.000002132499495
100
AcDbArc
 50
196.3020788954969
 51
270.0001630339114
  0
ARC
  5
3DFB
330
1A
100
AcDbEntity
  8
SEIHIN
 48
5.0
100
AcDbCircle
 10
131.1842545971483
 20
179.494302798514
 30
0.0
 40
0.9999906824812033
100
AcDbArc
 50
192.7555986636228
 51
269.9993317641139
  0
LINE
  5
3DFC
330
1A
100
AcDbEntity
  8
SEIHIN
 48
5.0
100
AcDbLine
 10
122.8444429343407
 20
189.4014121161008
 30
0.0
 11
135.1805429343408
 21
198.5443121161008
 31
0.0
  0
ARC
  5
3DFD
330
1A
100
AcDbEntity
  8
SEIHIN
 48
5.0
100
AcDbCircle
 10
122.1305336167539
 20
188.5480237789084
 30
0.0
 40
0.9999906824812379
100
AcDbArc
 50
180.0006682358833
 51
257.2444013363735
  0
ARC
  5
3DFE
330
1A
100
AcDbEntity
  8
SEIHIN
 48
5.0
100
AcDbCircle
 10
120.4805458793319
 20
186.8015088841941
 30
0.0
 40
1.000002944996531
100
AcDbArc
 50
179.9998148259392
 51
264.6808909660777
  0
ARC
  5
3DFF
330
1A
100
AcDbEntity
  8
SEIHIN
 48
5.0
100
AcDbCircle
 10
123.1305111158283
 20
189.3213545784597
 30
0.0
 40
0.999968182389143
100
AcDbArc
 50
180.0024329913678
 51
253.6934091662997
  0
ARC
  5
3E00
330
1A
100
AcDbEntity
  8
SEIHIN
 48
5.0
100
AcDbCircle
 10
135.1805429347573
 20
192.5443121156841
 30
0.0
 40
6.00000000041672
100
AcDbArc
 50
359.9990450743194
 51
90.00000000397992
  0
TEXT
  5
3E01
330
1A
100
AcDbEntity
  8
SUNPOU
 48
5.0
100
AcDbText
 10
100.8013716774517
 20
209.7176215387386
 30
0.0
 40
6.0
  1
A
100
AcDbText
  0
LINE
  5
3E02
330
1A
100
AcDbEntity
  8
SEIHIN
 48
5.0
100
AcDbLine
 10
132.2030429343407
 20
237.3783121161008
 30
0.0
 11
141.1805429343408
 21
225.1442121161008
 31
0.0
  0
LINE
  5
3E03
330
1A
100
AcDbEntity
  8
SEIHIN
 48
5.0
100
AcDbLine
 10
122.1305429343407
 20
208.8443121161007
 30
0.0
 11
122.1306429343406
 21
228.3672121161008
 31
0.0
  0
LINE
  5
3E04
330
1A
100
AcDbEntity
  8
SEIHIN
 48
5.0
100
AcDbLine
 10
121.1305429343407
 20
208.8443121161007
 30
0.0
 11
121.1306429343406
 21
229.1406121161008
 31
0.0
  0
LINE
  5
3E05
330
1A
100
AcDbEntity
  8
SEIHIN
 48
5.0
100
AcDbLine
 10
119.4805429343406
 20
208.8443121161007
 30
0.0
 11
119.4805429343406
 21
230.8871121161007
 31
0.0
  0
LINE
  5
3E06
330
1A
100
AcDbEntity
  8
SEIHIN
 48
5.0
100
AcDbLine
 10
122.8445429343406
 20
228.2872121161007
 30
0.0
 11
135.1805429343408
 21
219.1443121161007
 31
0.0
  0
LINE
  5
3E07
330
1A
100
AcDbEntity
  8
SEIHIN
 48
5.0
100
AcDbLine
 10
135.1805429343408
 20
208.8443121161007
 30
0.0
 11
135.1805429343408
 21
219.1443121161007
 31
0.0
  0
LINE
  5
3E08
330
1A
100
AcDbEntity
  8
SEIHIN
 48
5.0
100
AcDbLine
 10
141.4805429343405
 20
211.8443121161007
 30
0.0
 11
141.4805429343405
 21
205.8443121161007
 31
0.0
  0
ARC
  5
3E09
330
1A
100
AcDbEntity
  8
SEIHIN
 48
5.0
100
AcDbCircle
 10
135.1805429343408
 20
225.1443121161007
 30
0.0
 40
6.0
100
AcDbArc
 50
270.0
 51
0.0
  0
ARC
  5
3E0A
330
1A
100
AcDbEntity
  8
SEIHIN
 48
5.0
100
AcDbCircle
 10
129.5034910251509
 20
239.8443556154929
 30
0.0
 40
0.9999565017642645
100
AcDbArc
 50
90.0027555203154
 51
174.2630840217395
  0
ARC
  5
3E0B
330
1A
100
AcDbEntity
  8
SEIHIN
 48
5.0
100
AcDbCircle
 10
119.5536149766942
 20
240.8440836345103
 30
0.0
 40
9.000017972869692
100
AcDbArc
 50
275.3184840079101
 51
354.2623029041944
  0
ARC
  5
3E0C
330
1A
100
AcDbEntity
  8
SEIHIN
 48
5.0
100
AcDbCircle
 10
119.4805429343405
 20
240.8444121161008
 30
0.0
 40
12.00001590748958
100
AcDbArc
 50
286.3064423461048
 51
343.6935576538965
  0
ARC
  5
3E0D
330
1A
100
AcDbEntity
  8
SEIHIN
 48
5.0
100
AcDbCircle
 10
119.480607569333
 20
240.844476751223
 30
0.0
 40
11.00002963853282
100
AcDbArc
 50
282.7577812513991
 51
347.2415283756247
  0
ARC
  5
3E0E
330
1A
100
AcDbEntity
  8
SEIHIN
 48
5.0
100
AcDbCircle
 10
122.1306446593377
 20
229.1406142754926
 30
0.0
 40
1.000001724999385
100
AcDbArc
 50
102.7619787655685
 51
180.0001237238203
  0
ARC
  5
3E0F
330
1A
100
AcDbEntity
  8
SEIHIN
 48
5.0
100
AcDbCircle
 10
120.4805458793319
 20
230.8871153480072
 30
0.0
 40
1.000002944996551
100
AcDbArc
 50
95.31910903392224
 51
180.0001851740604
  0
ARC
  5
3E10
330
1A
100
AcDbEntity
  8
SEIHIN
 48
5.0
100
AcDbCircle
 10
123.1306591040791
 20
228.367233694267
 30
0.0
 40
1.000016169971251
100
AcDbArc
 50
106.3086512270816
 51
180.0012363178609
  0
ARC
  5
3E11
330
1A
100
AcDbEntity
  8
SEIHIN
 48
5.0
100
AcDbCircle
 10
131.1843545971483
 20
238.1943214336875
 30
0.0
 40
0.9999906824811526
100
AcDbArc
 50
90.00066823587635
 51
167.2444013363685
  0
ARC
  5
3E12
330
1A
100
AcDbEntity
  8
SEIHIN
 48
5.0
100
AcDbCircle
 10
131.9576213561743
 20
237.1942959463622
 30
0.0
 40
1.000016169971206
100
AcDbArc
 50
89.99876368212571
 51
163.6913487729066
  0
LINE
  5
3E13
330
1A
100
AcDbEntity
  8
SEIHIN
 48
5.0
100
AcDbLine
 10
180.8305429343406
 20
208.8443121161007
 30
0.0
 11
180.8305429343406
 21
189.3213121161008
 31
0.0
  0
LINE
  5
3E14
330
1A
100
AcDbEntity
  8
SEIHIN
 48
5.0
100
AcDbLine
 10
181.8305429343406
 20
208.8443121161007
 30
0.0
 11
181.8305429343406
 21
188.5480121161007
 31
0.0
  0
LINE
  5
3E15
330
1A
100
AcDbEntity
  8
SEIHIN
 48
5.0
100
AcDbLine
 10
183.4805429343405
 20
208.8443121161007
 30
0.0
 11
183.4806429343407
 21
186.8015121161007
 31
0.0
  0
LINE
  5
3E16
330
1A
100
AcDbEntity
  8
SEIHIN
 48
5.0
100
AcDbLine
 10
167.7805429343407
 20
205.8443121161007
 30
0.0
 11
167.7805429343407
 21
198.5443121161008
 31
0.0
  0
LINE
  5
3E17
330
1A
100
AcDbEntity
  8
CENTER L
 48
5.0
100
AcDbLine
 10
151.4805429343405
 20
208.8443121161007
 30
0.0
 11
151.4805429343405
 21
168.8443121161006
 31
0.0
  0
LINE
  5
3E18
330
1A
100
AcDbEntity
  8
SEIHIN
 48
5.0
100
AcDbLine
 10
180.1166429343405
 20
189.4014121161008
 30
0.0
 11
167.7805429343407
 21
198.5443121161008
 31
0.0
  0
ARC
  5
3E19
330
1A
100
AcDbEntity
  8
SEIHIN
 48
5.0
100
AcDbCircle
 10
183.4806429343407
 20
176.8443121161007
 30
0.0
 40
12.00001590748957
100
AcDbArc
 50
106.3064423461047
 51
163.6935576538964
  0
ARC
  5
3E1A
330
1A
100
AcDbEntity
  8
SEIHIN
 48
5.0
100
AcDbCircle
 10
183.4075708919868
 20
176.8445405976912
 30
0.0
 40
9.00001797286956
100
AcDbArc
 50
95.31848400791011
 51
174.2623029041932
  0
ARC
  5
3E1B
330
1A
100
AcDbEntity
  8
SEIHIN
 48
5.0
100
AcDbCircle
 10
183.480578299348
 20
176.8442474809784
 30
0.0
 40
11.0000296385327
100
AcDbArc
 50
102.7577812513958
 51
167.2415283756233
  0
LINE
  5
3E1C
330
1A
100
AcDbEntity
  8
SEIHIN
 48
5.0
100
AcDbLine
 10
170.7581429343406
 20
180.3103121161008
 30
0.0
 11
161.7805429343407
 21
192.5443121161008
 31
0.0
  0
LINE
  5
3E1D
330
1A
100
AcDbEntity
  8
SEIHIN
 48
5.0
100
AcDbLine
 10
151.4806429343406
 20
179.4943121161008
 30
0.0
 11
171.0035429343406
 21
179.4943121161008
 31
0.0
  0
LINE
  5
3E1E
330
1A
100
AcDbEntity
  8
SEIHIN
 48
5.0
100
AcDbLine
 10
151.4806429343406
 20
178.4943121161008
 30
0.0
 11
171.7768429343407
 21
178.4943121161008
 31
0.0
  0
LINE
  5
3E1F
330
1A
100
AcDbEntity
  8
SEIHIN
 48
5.0
100
AcDbLine
 10
151.4806429343406
 20
176.8443121161006
 30
0.0
 11
173.4576429343407
 21
176.8443121161006
 31
0.0
  0
LINE
  5
3E20
330
1A
100
AcDbEntity
  8
SEIHIN
 48
5.0
100
AcDbLine
 10
147.9805429343405
 20
174.8443121161006
 30
0.0
 11
154.9805429343407
 21
174.8443121161006
 31
0.0
  0
LINE
  5
3E21
330
1A
100
AcDbEntity
  8
SEIHIN
 48
5.0
100
AcDbLine
 10
147.9805429343405
 20
174.8443121161006
 30
0.0
 11
154.9805429343407
 21
174.8442121161008
 31
0.0
  0
LINE
  5
3E22
330
1A
100
AcDbEntity
  8
SEIHIN
 48
5.0
100
AcDbLine
 10
147.9805429343405
 20
174.8443121161006
 30
0.0
 11
147.9805429343405
 21
176.8443121161006
 31
0.0
  0
LINE
  5
3E23
330
1A
100
AcDbEntity
  8
SEIHIN
 48
5.0
100
AcDbLine
 10
147.9805429343405
 20
174.8443121161006
 30
0.0
 11
147.9805429343405
 21
176.8443121161006
 31
0.0
  0
LINE
  5
3E24
330
1A
100
AcDbEntity
  8
SEIHIN
 48
5.0
100
AcDbLine
 10
154.9805429343407
 20
174.8443121161006
 30
0.0
 11
154.9805429343407
 21
176.8443121161006
 31
0.0
  0
LINE
  5
3E25
330
1A
100
AcDbEntity
  8
SEIHIN
 48
5.0
100
AcDbLine
 10
154.9805429343407
 20
174.8442121161008
 30
0.0
 11
154.9805429343407
 21
176.8442121161008
 31
0.0
  0
ARC
  5
3E26
330
1A
100
AcDbEntity
  8
SEIHIN
 48
5.0
100
AcDbCircle
 10
173.4576498439237
 20
177.8443183660616
 30
0.0
 40
1.000006249984803
100
AcDbArc
 50
269.9996041125332
 51
354.2605056144453
  0
ARC
  5
3E27
330
1A
100
AcDbEntity
  8
SEIHIN
 48
5.0
100
AcDbCircle
 10
171.0035457798251
 20
180.4943142485962
 30
0.0
 40
1.000002132499433
100
AcDbArc
 50
269.9998369660918
 51
343.6979211045058
  0
ARC
  5
3E28
330
1A
100
AcDbEntity
  8
SEIHIN
 48
5.0
100
AcDbCircle
 10
171.7768312715329
 20
179.494302798514
 30
0.0
 40
0.9999906824811953
100
AcDbArc
 50
270.0006682358861
 51
347.244401336377
  0
ARC
  5
3E29
330
1A
100
AcDbEntity
  8
SEIHIN
 48
5.0
100
AcDbCircle
 10
167.7805429343407
 20
192.5443121161008
 30
0.0
 40
6.0
100
AcDbArc
 50
90.0
 51
180.0
  0
LINE
  5
3E2A
330
1A
100
AcDbEntity
  8
SEIHIN
 48
5.0
100
AcDbLine
 10
151.4805429343405
 20
192.5443121161008
 30
0.0
 11
161.7805429343407
 21
192.5443121161008
 31
0.0
  0
ARC
  5
3E2B
330
1A
100
AcDbEntity
  8
SEIHIN
 48
5.0
100
AcDbCircle
 10
182.4806399893493
 20
186.8015088841941
 30
0.0
 40
1.000002944996604
100
AcDbArc
 50
275.319109033919
 51
0.0001851740571465
  0
ARC
  5
3E2C
330
1A
100
AcDbEntity
  8
SEIHIN
 48
5.0
100
AcDbCircle
 10
180.8305412093437
 20
188.5480099567088
 30
0.0
 40
1.000001724999336
100
AcDbArc
 50
282.7619787655817
 51
0.0001237238289072
  0
ARC
  5
3E2D
330
1A
100
AcDbEntity
  8
SEIHIN
 48
5.0
100
AcDbCircle
 10
179.830574752853
 20
189.3213545784598
 30
0.0
 40
0.9999681823891952
100
AcDbArc
 50
286.3065908336968
 51
359.9975670086278
  0
ARC
  5
3E2E
330
1A
100
AcDbEntity
  8
SEIHIN
 48
5.0
100
AcDbCircle
 10
183.4806636094503
 20
240.8442914408258
 30
0.0
 40
12.00000186897752
100
AcDbArc
 50
196.3058616247983
 51
253.693435191255
  0
LINE
  5
3E2F
330
1A
100
AcDbEntity
  8
SEIHIN
 48
5.0
100
AcDbLine
 10
180.1166429343405
 20
228.2872121161007
 30
0.0
 11
167.7805429343407
 21
219.1443121161007
 31
0.0
  0
ARC
  5
3E30
330
1A
100
AcDbEntity
  8
SEIHIN
 48
5.0
100
AcDbCircle
 10
183.407570891987
 20
240.8440836345103
 30
0.0
 40
9.000017972869711
100
AcDbArc
 50
185.7376970958057
 51
264.6815159920899
  0
ARC
  5
3E31
330
1A
100
AcDbEntity
  8
SEIHIN
 48
5.0
100
AcDbCircle
 10
183.4805782993481
 20
240.8443767512231
 30
0.0
 40
11.00002963853274
100
AcDbArc
 50
192.758471624376
 51
257.2422187486041
  0
ARC
  5
3E32
330
1A
100
AcDbEntity
  8
SEIHIN
 48
5.0
100
AcDbCircle
 10
177.8305429343406
 20
208.8443121161007
 30
0.0
 40
3.0
100
AcDbArc
 50
270.0
 51
90.0
  0
LINE
  5
3E33
330
1A
100
AcDbEntity
  8
CENTER L
 48
5.0
100
AcDbLine
 10
151.4805429343405
 20
208.8443121161007
 30
0.0
 11
191.4805429343405
 21
208.8443121161007
 31
0.0
  0
LINE
  5
3E34
330
1A
100
AcDbEntity
  8
SEIHIN
 48
5.0
100
AcDbLine
 10
170.7581429343406
 20
237.3783121161008
 30
0.0
 11
161.7805429343407
 21
225.1443121161007
 31
0.0
  0
LINE
  5
3E35
330
1A
100
AcDbEntity
  8
CENTER L
 48
5.0
100
AcDbLine
 10
151.4805429343405
 20
208.8443121161007
 30
0.0
 11
151.4806429343406
 21
248.8443121161008
 31
0.0
  0
ARC
  5
3E36
330
1A
100
AcDbEntity
  8
SEIHIN
 48
5.0
100
AcDbCircle
 10
167.7805429343407
 20
225.1443121161007
 30
0.0
 40
6.0
100
AcDbArc
 50
180.0
 51
270.0
  0
LINE
  5
3E37
330
1A
100
AcDbEntity
  8
SEIHIN
 48
5.0
100
AcDbLine
 10
151.4805429343405
 20
225.1443121161007
 30
0.0
 11
161.7805429343407
 21
225.1443121161007
 31
0.0
  0
LINE
  5
3E38
330
1A
100
AcDbEntity
  8
SEIHIN
 48
5.0
100
AcDbLine
 10
167.7805429343407
 20
211.8443121161007
 30
0.0
 11
167.7805429343407
 21
219.1443121161007
 31
0.0
  0
LINE
  5
3E39
330
1A
100
AcDbEntity
  8
SEIHIN
 48
5.0
100
AcDbLine
 10
151.4806429343406
 20
239.1943121161006
 30
0.0
 11
171.7768429343407
 21
239.1943121161006
 31
0.0
  0
LINE
  5
3E3A
330
1A
100
AcDbEntity
  8
SEIHIN
 48
5.0
100
AcDbLine
 10
151.4806429343406
 20
238.1943121161006
 30
0.0
 11
171.0035429343406
 21
238.1943121161006
 31
0.0
  0
LINE
  5
3E3B
330
1A
100
AcDbEntity
  8
SEIHIN
 48
5.0
100
AcDbLine
 10
151.4806429343406
 20
240.8443121161008
 30
0.0
 11
173.4576429343407
 21
240.8443121161008
 31
0.0
  0
LINE
  5
3E3C
330
1A
100
AcDbEntity
  8
SEIHIN
 48
5.0
100
AcDbLine
 10
147.9805429343405
 20
242.8443121161007
 30
0.0
 11
154.9805429343407
 21
242.8443121161007
 31
0.0
  0
LINE
  5
3E3D
330
1A
100
AcDbEntity
  8
SEIHIN
 48
5.0
100
AcDbLine
 10
147.9805429343405
 20
242.8443121161007
 30
0.0
 11
147.9805429343405
 21
240.8443121161008
 31
0.0
  0
LINE
  5
3E3E
330
1A
100
AcDbEntity
  8
SEIHIN
 48
5.0
100
AcDbLine
 10
154.9805429343407
 20
242.8443121161007
 30
0.0
 11
154.9805429343407
 21
240.8443121161008
 31
0.0
  0
ARC
  5
3E3F
330
1A
100
AcDbEntity
  8
SEIHIN
 48
5.0
100
AcDbCircle
 10
171.7768312715332
 20
238.1943214336875
 30
0.0
 40
0.9999906824811112
100
AcDbArc
 50
12.75559866362876
 51
89.99933176412039
  0
ARC
  5
3E40
330
1A
100
AcDbEntity
  8
SEIHIN
 48
5.0
100
AcDbCircle
 10
171.0035457798251
 20
237.1943099836053
 30
0.0
 40
1.000002132499402
100
AcDbArc
 50
16.30207889549617
 51
90.00016303391149
  0
ARC
  5
3E41
330
1A
100
AcDbEntity
  8
SEIHIN
 48
5.0
100
AcDbCircle
 10
173.4576498439237
 20
239.8443058661399
 30
0.0
 40
1.000006249984745
100
AcDbArc
 50
5.739494385561537
 51
90.00039588747007
  0
LINE
  5
3E42
330
1A
100
AcDbEntity
  8
SEIHIN
 48
5.0
100
AcDbLine
 10
183.4805429343405
 20
208.8443121161007
 30
0.0
 11
183.4806429343407
 21
230.8871121161007
 31
0.0
  0
LINE
  5
3E43
330
1A
100
AcDbEntity
  8
SEIHIN
 48
5.0
100
AcDbLine
 10
181.8305429343406
 20
208.8443121161007
 30
0.0
 11
181.8305429343406
 21
229.1406121161008
 31
0.0
  0
LINE
  5
3E44
330
1A
100
AcDbEntity
  8
SEIHIN
 48
5.0
100
AcDbLine
 10
180.8305429343406
 20
208.8443121161007
 30
0.0
 11
180.8305429343406
 21
228.3672121161008
 31
0.0
  0
TEXT
  5
3E45
330
1A
100
AcDbEntity
  8
SUNPOU
 48
5.0
100
AcDbText
 10
193.2237716517702
 20
209.7176215387386
 30
0.0
 40
6.0
  1
A
100
AcDbText
  0
ARC
  5
3E46
330
1A
100
AcDbEntity
  8
SEIHIN
 48
5.0
100
AcDbCircle
 10
182.4806399893493
 20
230.8871153480072
 30
0.0
 40
1.000002944996602
100
AcDbArc
 50
359.9998148259428
 51
84.68089096608101
  0
ARC
  5
3E47
330
1A
100
AcDbEntity
  8
SEIHIN
 48
5.0
100
AcDbCircle
 10
180.8305412093437
 20
229.1406142754927
 30
0.0
 40
1.000001724999294
100
AcDbArc
 50
359.9998762761729
 51
77.23802123442154
  0
ARC
  5
3E48
330
1A
100
AcDbEntity
  8
SEIHIN
 48
5.0
100
AcDbCircle
 10
179.8305267646021
 20
228.367233694267
 30
0.0
 40
1.000016169971277
100
AcDbArc
 50
359.9987636821408
 51
73.69134877292165
  0
TEXT
  5
3E4B
330
1A
100
AcDbEntity
  8
SUNPOU
 48
5.0
100
AcDbText
 10
273.910978203586
 20
60.95301022511154
 30
0.0
 40
6.0
  1
A-A
100
AcDbText
  0
LINE
  5
3E4F
330
1A
100
AcDbEntity
  8
SEIHIN
 48
5.0
100
AcDbLine
 10
251.2281429343405
 20
128.8443067909087
 30
0.0
 11
281.4785429343408
 21
128.8442121161007
 31
0.0
  0
LINE
  5
3E50
330
1A
100
AcDbEntity
  8
SEIHIN
 48
5.0
100
AcDbLine
 10
310.2305304178369
 20
100.5442145927829
 30
0.0
 11
252.7266429343406
 21
100.544309639274
 31
0.0
  0
ARC
  5
3E51
330
1A
100
AcDbEntity
  8
SEIHIN
 48
5.0
100
AcDbCircle
 10
280.4804832239349
 20
89.8442854729474
 30
0.0
 40
4.000040289682885
100
AcDbArc
 50
179.9996183687832
 51
293.0469933341286
  0
LINE
  5
3E52
330
1A
100
AcDbEntity
  8
SEIHIN
 48
5.0
100
AcDbLine
 10
281.4785429343408
 20
79.84431211610072
 30
0.0
 11
265.5491429343406
 21
79.84431211610072
 31
0.0
  0
LINE
  5
3E53
330
1A
100
AcDbEntity
  8
SEIHIN
 48
5.0
100
AcDbLine
 10
252.7266429343406
 20
99.04431211610079
 30
0.0
 11
308.6424429343406
 21
99.04421211610078
 31
0.0
  0
INSERT
  5
3E54
330
1A
100
AcDbEntity
  8
SEIHIN
  6
Continuous
 48
5.0
100
AcDbBlockReference
  2
*X5
 10
0.0
 20
0.0
 30
0.0
1001
ACAD
1000
HATCH
1002
{
1070
    19
1000
ANSI31
1040
10.0
1040
0.0
1000
ASC_BOUNDS
1070
     1
1070
     2
1070
    11
1005
3E5A
1005
3E59
1005
3E5D
1005
3E5C
1005
3E57
1005
3E56
1005
3E5F
1005
3E5E
1005
3E60
1005
3E64
1005
3E61
1000
ASC_SEEDPOINT
1011
0.0
1021
0.0
1031
0.0
1000
R14_HATCH_DATA
1000
3E54
1011
1.0
1021
0.0
1031
0.0
1011
0.0
1021
1.0
1031
0.0
1011
0.0
1021
0.0
1031
1.0
1040
0.0
1010
0.0
1020
0.0
1030
1.0
1000
ANSI31
1070
     0
1070
     1
1071
        1
1071
       33
1071
       11
1070
     1
1040
252.7266429343406
1040
100.544309639274
1040
251.2281429343405
1040
100.5443121161007
1070
     1
1040
249.5266429343408
1040
128.8443121161007
1040
251.2281429343405
1040
128.8443067909087
1070
     1
1040
251.0265429343408
1040
97.34431211610079
1040
251.0265429343408
1040
98.8443121161007
1070
     1
1040
252.7266429343406
1040
100.5442121161008
1040
252.7266429343406
1040
98.95341211610078
1070
     2
1040
251.0281429343408
1040
100.3443121161007
1040
1.500000000000042
1040
3.141592653589764
1040
4.712388980384632
1070
     1
1070
     1
1040
249.5281429343406
1040
100.3443121161008
1040
249.5280429343406
1040
128.8443121161007
1070
     1
1040
251.2281429343405
1040
100.5442121161008
1040
251.2281429343405
1040
128.8443121161007
1070
     1
1040
265.5491429343406
1040
79.84431211610072
1040
264.4766429343406
1040
79.84431211610072
1070
     1
1040
263.4765429343406
1040
81.34431211610081
1040
264.4765429343406
1040
79.84431211610072
1070
     2
1040
243.6447465325773
1040
78.7565074918875
1040
19.9999349715196
1040
0.1297594835550256
1040
1.192765532031599
1070
     1
1070
     2
1040
241.3234579687901
1040
77.44498971064939
1040
24.34420999037345
1040
0.098718499306285
1040
1.083300766699962
1070
     1
1071
       11
1005
3E61
1005
3E64
1005
3E60
1005
3E5E
1005
3E5F
1005
3E56
1005
3E57
1005
3E5C
1005
3E5D
1005
3E59
1005
3E5A
1070
     0
1070
     1
1040
0.0
1040
10.0
1070
     0
1070
     1
1040
0.7853981633974483
1040
0.0
1040
0.0
1040
-0.8838834764831842
1040
0.8838834764831844
1070
     0
1071
        1
1040
0.0
1040
0.0
1040
0.0
1002
}
  0
LINE
  5
3E55
330
1A
100
AcDbEntity
  8
SEIHIN
 48
5.0
100
AcDbLine
 10
260.2281429343404
 20
100.5442121161008
 30
0.0
 11
260.2281429343404
 21
128.8442121161007
 31
0.0
  0
LINE
  5
3E56
330
1A
100
AcDbEntity
  8
SEIHIN
 48
5.0
100
AcDbLine
 10
249.5281429343406
 20
100.3443121161008
 30
0.0
 11
249.5280429343406
 21
128.8443121161007
 31
0.0
1001
ACAD
1000
ASC_BOUNDS
1002
{
1070
    19
1005
3E54
1002
}
  0
LINE
  5
3E57
330
1A
100
AcDbEntity
  8
SEIHIN
 48
5.0
100
AcDbLine
 10
251.2281429343405
 20
100.5442121161008
 30
0.0
 11
251.2281429343405
 21
128.8443121161007
 31
0.0
1001
ACAD
1000
ASC_BOUNDS
1002
{
1070
    19
1005
3E54
1002
}
  0
LINE
  5
3E58
330
1A
100
AcDbEntity
  8
SEIHIN
 48
5.0
100
AcDbLine
 10
271.4785429343408
 20
79.84431211610072
 30
0.0
 11
271.4785429343408
 21
89.84431211610081
 31
0.0
  0
ARC
  5
3E59
330
1A
100
AcDbEntity
  8
SEIHIN
 48
5.0
100
AcDbCircle
 10
243.6447465325773
 20
78.7565074918875
 30
0.0
 40
19.9999349715196
100
AcDbArc
 50
7.43467075950018
 51
68.34043093408688
1001
ACAD
1000
ASC_BOUNDS
1002
{
1070
    19
1005
3E54
1002
}
  0
ARC
  5
3E5A
330
1A
100
AcDbEntity
  8
SEIHIN
 48
5.0
100
AcDbCircle
 10
241.3234579687901
 20
77.44498971064939
 30
0.0
 40
24.34420999037345
100
AcDbArc
 50
5.656153370115274
 51
62.06856187519406
1001
ACAD
1000
ASC_BOUNDS
1002
{
1070
    19
1005
3E54
1002
}
  0
ARC
  5
3E5B
330
1A
100
AcDbEntity
  8
SEIHIN
 48
5.0
100
AcDbCircle
 10
251.1310664857306
 20
81.71186508354947
 30
0.0
 40
20.27258119261639
100
AcDbArc
 50
354.7142976347766
 51
58.48447958172425
  0
LINE
  5
3E5C
330
1A
100
AcDbEntity
  8
SEIHIN
 48
5.0
100
AcDbLine
 10
265.5491429343406
 20
79.84431211610072
 30
0.0
 11
264.4766429343406
 21
79.84431211610072
 31
0.0
1001
ACAD
1000
ASC_BOUNDS
1002
{
1070
    19
1005
3E54
1002
}
  0
LINE
  5
3E5D
330
1A
100
AcDbEntity
  8
SEIHIN
 48
5.0
100
AcDbLine
 10
263.4765429343406
 20
81.34431211610081
 30
0.0
 11
264.4765429343406
 21
79.84431211610072
 31
0.0
1001
ACAD
1000
ASC_BOUNDS
1002
{
1070
    19
1005
3E54
1002
}
  0
LINE
  5
3E5E
330
1A
100
AcDbEntity
  8
SEIHIN
 48
5.0
100
AcDbLine
 10
252.7266429343406
 20
100.5442121161008
 30
0.0
 11
252.7266429343406
 21
98.95341211610078
 31
0.0
1001
ACAD
1000
ASC_BOUNDS
1002
{
1070
    19
1005
3E54
1002
}
  0
ARC
  5
3E5F
330
1A
100
AcDbEntity
  8
SEIHIN
 48
5.0
100
AcDbCircle
 10
251.0281429343408
 20
100.3443121161007
 30
0.0
 40
1.500000000000042
100
AcDbArc
 50
179.9999999999984
 51
269.9999999999968
1001
ACAD
1000
ASC_BOUNDS
1002
{
1070
    19
1005
3E54
1002
}
  0
LINE
  5
3E60
330
1A
100
AcDbEntity
  8
SEIHIN
 48
5.0
100
AcDbLine
 10
251.0265429343408
 20
97.34431211610079
 30
0.0
 11
251.0265429343408
 21
98.8443121161007
 31
0.0
1001
ACAD
1000
ASC_BOUNDS
1002
{
1070
    19
1005
3E54
1002
}
  0
LINE
  5
3E61
330
1A
100
AcDbEntity
  8
SEIHIN
 48
5.0
100
AcDbLine
 10
252.7266429343406
 20
100.544309639274
 30
0.0
 11
251.2281429343405
 21
100.5443121161007
 31
0.0
1001
ACAD
1000
ASC_BOUNDS
1002
{
1070
    19
1005
3E54
1002
}
  0
LINE
  5
3E62
330
1A
100
AcDbEntity
  8
SEIHIN
 48
5.0
100
AcDbLine
 10
261.7281429343407
 20
99.04431211610079
 30
0.0
 11
261.7281429343407
 21
100.5447121161007
 31
0.0
  0
LINE
  5
3E63
330
1A
100
AcDbEntity
  8
SEIHIN
 48
5.0
100
AcDbLine
 10
276.4804429343408
 20
89.84431211610081
 30
0.0
 11
271.4785429343408
 21
89.84431211610081
 31
0.0
  0
LINE
  5
3E64
330
1A
100
AcDbEntity
  8
SEIHIN
 48
5.0
100
AcDbLine
 10
249.5266429343408
 20
128.8443121161007
 30
0.0
 11
251.2281429343405
 21
128.8443067909087
 31
0.0
1001
ACAD
1000
ASC_BOUNDS
1002
{
1070
    19
1005
3E54
1002
}
  0
INSERT
  5
3E65
330
1A
100
AcDbEntity
  8
SEIHIN
  6
Continuous
 48
5.0
100
AcDbBlockReference
  2
*X6
 10
0.0
 20
0.0
 30
0.0
1001
ACAD
1000
HATCH
1002
{
1070
    19
1000
ANSI31
1040
10.0
1040
0.0
1000
ASC_BOUNDS
1070
     1
1070
     2
1070
    11
1005
3E73
1005
3E74
1005
3E6B
1005
3E6F
1005
3E6E
1005
3E6A
1005
3E72
1005
3E75
1005
3E68
1005
3E77
1005
3E67
1000
ASC_SEEDPOINT
1011
0.0
1021
0.0
1031
0.0
1000
R14_HATCH_DATA
1000
3E65
1011
1.0
1021
0.0
1031
0.0
1011
0.0
1021
1.0
1031
0.0
1011
0.0
1021
0.0
1031
1.0
1040
0.0
1010
0.0
1020
0.0
1030
1.0
1000
ANSI31
1070
     0
1070
     1
1071
        1
1071
       33
1071
       11
1070
     1
1040
313.4289429343407
1040
100.3442121161007
1040
313.4291429343404
1040
128.8442121161007
1070
     1
1040
313.4305429343408
1040
128.8442121161007
1040
311.7289429343406
1040
128.844217441589
1070
     1
1040
311.7289429343405
1040
100.5442121161008
1040
311.7289429343405
1040
128.8442121161007
1070
     1
1040
311.7289429343405
1040
100.5442121161008
1040
310.2305304178368
1040
100.5442145927829
1070
     1
1040
310.2305304178369
1040
100.5442145927829
1040
310.2305257441874
1040
98.95332764969758
1070
     2
1040
321.633647523031
1040
77.44487174447875
1040
24.34420999037345
1040
2.058288949126316
1040
3.042871216520035
1070
     1
1070
     1
1040
297.4079742411916
1040
79.84431211610072
1040
298.4804429343405
1040
79.84431211610072
1070
     1
1040
299.4804429343408
1040
81.34431211610081
1040
298.4804429343405
1040
79.84431211610072
1070
     2
1040
319.3123016226889
1040
78.75635902483566
1040
20.00000300592972
1040
1.948829121556785
1040
3.011831170036161
1070
     1
1070
     1
1040
311.9304429343406
1040
97.34421211610079
1040
311.9304429343406
1040
98.8443121161007
1070
     2
1040
311.9289929343409
1040
100.3441621161007
1040
1.499950000833331
1040
4.71242231482912
1040
6.283218641624016
1070
     1
1071
       11
1005
3E67
1005
3E77
1005
3E68
1005
3E75
1005
3E72
1005
3E6A
1005
3E6E
1005
3E6F
1005
3E6B
1005
3E74
1005
3E73
1070
     0
1070
     1
1040
0.0
1040
10.0
1070
     0
1070
     1
1040
0.7853981633974483
1040
0.0
1040
0.0
1040
-0.8838834764831842
1040
0.8838834764831844
1070
     0
1071
        1
1040
0.0
1040
0.0
1040
0.0
1002
}
  0
LINE
  5
3E66
330
1A
100
AcDbEntity
  8
SEIHIN
 48
5.0
100
AcDbLine
 10
302.7289429343405
 20
100.5443121161007
 30
0.0
 11
302.7290429343405
 21
128.8442121161007
 31
0.0
  0
LINE
  5
3E67
330
1A
100
AcDbEntity
  8
SEIHIN
 48
5.0
100
AcDbLine
 10
313.4289429343407
 20
100.3442121161007
 30
0.0
 11
313.4291429343404
 21
128.8442121161007
 31
0.0
1001
ACAD
1000
ASC_BOUNDS
1002
{
1070
    19
1005
3E65
1002
}
  0
LINE
  5
3E68
330
1A
100
AcDbEntity
  8
SEIHIN
 48
5.0
100
AcDbLine
 10
311.7289429343405
 20
100.5442121161008
 30
0.0
 11
311.7289429343405
 21
128.8442121161007
 31
0.0
1001
ACAD
1000
ASC_BOUNDS
1002
{
1070
    19
1005
3E65
1002
}
  0
LINE
  5
3E69
330
1A
100
AcDbEntity
  8
CENTER L
 48
5.0
100
AcDbLine
 10
281.4785429343408
 20
70.76531211610071
 30
0.0
 11
281.4786429343405
 21
135.8443121161007
 31
0.0
  0
ARC
  5
3E6A
330
1A
100
AcDbEntity
  8
SEIHIN
 48
5.0
100
AcDbCircle
 10
321.633647523031
 20
77.44487174447875
 30
0.0
 40
24.34420999037345
100
AcDbArc
 50
117.9312698033553
 51
174.3436783084365
1001
ACAD
1000
ASC_BOUNDS
1002
{
1070
    19
1005
3E65
1002
}
  0
ARC
  5
3E6B
330
1A
100
AcDbEntity
  8
SEIHIN
 48
5.0
100
AcDbCircle
 10
319.3123016226889
 20
78.75635902483566
 30
0.0
 40
20.00000300592972
100
AcDbArc
 50
111.6596836573915
 51
172.5652146490207
1001
ACAD
1000
ASC_BOUNDS
1002
{
1070
    19
1005
3E65
1002
}
  0
LINE
  5
3E6C
330
1A
100
AcDbEntity
  8
SEIHIN
 48
5.0
100
AcDbLine
 10
311.7289429343405
 20
100.5442121161008
 30
0.0
 11
282.2250429343405
 21
86.24481211610072
 31
0.0
  0
LINE
  5
3E6D
330
1A
100
AcDbEntity
  8
SEIHIN
 48
5.0
100
AcDbLine
 10
281.4785429343408
 20
79.84431211610072
 30
0.0
 11
297.4079742411916
 21
79.84431211610072
 31
0.0
  0
LINE
  5
3E6E
330
1A
100
AcDbEntity
  8
SEIHIN
 48
5.0
100
AcDbLine
 10
297.4079742411916
 20
79.84431211610072
 30
0.0
 11
298.4804429343405
 21
79.84431211610072
 31
0.0
1001
ACAD
1000
ASC_BOUNDS
1002
{
1070
    19
1005
3E65
1002
}
  0
LINE
  5
3E6F
330
1A
100
AcDbEntity
  8
SEIHIN
 48
5.0
100
AcDbLine
 10
299.4804429343408
 20
81.34431211610081
 30
0.0
 11
298.4804429343405
 21
79.84431211610072
 31
0.0
1001
ACAD
1000
ASC_BOUNDS
1002
{
1070
    19
1005
3E65
1002
}
  0
LINE
  5
3E70
330
1A
100
AcDbEntity
  8
SEIHIN
 48
5.0
100
AcDbLine
 10
301.2290429343407
 20
99.04521211610079
 30
0.0
 11
301.2290429343407
 21
100.5447121161007
 31
0.0
  0
ARC
  5
3E71
330
1A
100
AcDbEntity
  8
SEIHIN
 48
5.0
100
AcDbCircle
 10
311.8260824687056
 20
81.71185195468106
 30
0.0
 40
20.27254011212702
100
AcDbArc
 50
121.5158007582806
 51
148.9237041667123
  0
LINE
  5
3E72
330
1A
100
AcDbEntity
  8
SEIHIN
 48
5.0
100
AcDbLine
 10
310.2305304178369
 20
100.5442145927829
 30
0.0
 11
310.2305257441874
 21
98.95332764969758
 31
0.0
1001
ACAD
1000
ASC_BOUNDS
1002
{
1070
    19
1005
3E65
1002
}
  0
ARC
  5
3E73
330
1A
100
AcDbEntity
  8
SEIHIN
 48
5.0
100
AcDbCircle
 10
311.9289929343409
 20
100.3441621161007
 30
0.0
 40
1.499950000833331
100
AcDbArc
 50
270.0019099229783
 51
0.001909922978281
1001
ACAD
1000
ASC_BOUNDS
1002
{
1070
    19
1005
3E65
1002
}
  0
LINE
  5
3E74
330
1A
100
AcDbEntity
  8
SEIHIN
 48
5.0
100
AcDbLine
 10
311.9304429343406
 20
97.34421211610079
 30
0.0
 11
311.9304429343406
 21
98.8443121161007
 31
0.0
1001
ACAD
1000
ASC_BOUNDS
1002
{
1070
    19
1005
3E65
1002
}
  0
LINE
  5
3E75
330
1A
100
AcDbEntity
  8
SEIHIN
 48
5.0
100
AcDbLine
 10
311.7289429343405
 20
100.5442121161008
 30
0.0
 11
310.2305304178368
 21
100.5442145927829
 31
0.0
1001
ACAD
1000
ASC_BOUNDS
1002
{
1070
    19
1005
3E65
1002
}
  0
LINE
  5
3E76
330
1A
100
AcDbEntity
  8
SEIHIN
 48
5.0
100
AcDbLine
 10
311.7289429343406
 20
128.844217441589
 30
0.0
 11
281.4785429343408
 21
128.8443121161007
 31
0.0
  0
LINE
  5
3E77
330
1A
100
AcDbEntity
  8
SEIHIN
 48
5.0
100
AcDbLine
 10
313.4305429343408
 20
128.8442121161007
 30
0.0
 11
311.7289429343406
 21
128.844217441589
 31
0.0
1001
ACAD
1000
ASC_BOUNDS
1002
{
1070
    19
1005
3E65
1002
}
  0
LINE
  5
3EF3
330
1A
100
AcDbEntity
  8
SEIHIN
 48
5.0
100
AcDbLine
 10
146.4824429343405
 20
205.8443121161007
 30
0.0
 11
146.4824429343405
 21
211.8443121161007
 31
0.0
  0
VIEWPORT
  5
22
102
{ACAD_XDICTIONARY
360
3FF3
102
}
330
17
100
AcDbEntity
 67
     1
  8
0
100
AcDbViewport
 10
313.6808219178082
 20
148.5
 30
0.0
 40
627.3616438356165
 41
297.0
 68
     2
 69
     1
 12
313.6808219178082
 22
148.5
 13
0.0
 23
0.0
 14
1.0
 24
1.0
 15
10.0
 25
10.0
 16
0.0
 26
0.0
 36
1.0
 17
0.0
 27
0.0
 37
0.0
 42
50.0
 43
0.0
 44
0.0
 45
297.0
 50
0.0
 51
0.0
 72
   100
 90
    32768
  1

281
     0
 71
     1
 74
     0
110
0.0
120
0.0
130
0.0
111
1.0
121
0.0
131
0.0
112
0.0
122
1.0
132
0.0
 79
     0
146
0.0
  0
VIEWPORT
  5
64
102
{ACAD_XDICTIONARY
360
3FF5
102
}
330
17
100
AcDbEntity
 67
     1
  8
VIEWPORT
100
AcDbViewport
 10
210.0
 20
148.5
 30
0.0
 40
420.0
 41
297.0
 68
     1
 69
     2
 12
210.0
 22
148.5
 13
0.0
 23
0.0
 14
5.0
 24
5.0
 15
0.0
 25
0.0
 16
0.0
 26
0.0
 36
1.0
 17
0.0
 27
0.0
 37
0.0
 42
50.0
 43
0.0
 44
0.0
 45
302.9399999999998
 50
0.0
 51
0.0
 72
   100
 90
    32768
  1

281
     0
 71
     1
 74
     0
110
0.0
120
0.0
130
0.0
111
1.0
121
0.0
131
0.0
112
0.0
122
1.0
132
0.0
 79
     0
146
0.0
  0
ENDSEC
  0
SECTION
  2
OBJECTS
  0
DICTIONARY
  5
C
330
0
100
AcDbDictionary
281
     1
  3
ACAD_COLOR
350
3FD3
  3
ACAD_GROUP
350
D
  3
ACAD_LAYOUT
350
711
  3
ACAD_MATERIAL
350
3FD2
  3
ACAD_MLINESTYLE
350
E
  3
ACAD_PLOTSETTINGS
350
712
  3
ACAD_PLOTSTYLENAME
350
1539
  3
ACDBHEADERROUNDTRIPXREC
350
3FF0
  3
AcDbVariableDictionary
350
3157
1001
ACAD
1000
TREAT_AS_HARD
1070
     0
  0
DICTIONARY
  5
73E
330
1A
100
AcDbDictionary
280
     1
281
     1
  3
ACAD_LAYOUTSELFREF
360
3FAF
1001
ACAD
1000
TREAT_AS_HARD
1070
     1
  0
DICTIONARY
  5
73C
330
17
100
AcDbDictionary
280
     1
281
     1
  3
ACAD_LAYOUTSELFREF
360
3FAE
1001
ACAD
1000
TREAT_AS_HARD
1070
     1
  0
DICTIONARY
  5
3FF3
330
22
100
AcDbDictionary
280
     1
281
     1
  3
ACAD_XREC_ROUNDTRIP
360
3FF4
  0
DICTIONARY
  5
3FF5
330
64
100
AcDbDictionary
280
     1
281
     1
  3
ACAD_XREC_ROUNDTRIP
360
3FF6
  0
DICTIONARY
  5
3FD3
102
{ACAD_REACTORS
330
C
102
}
330
C
100
AcDbDictionary
281
     1
  0
DICTIONARY
  5
D
102
{ACAD_REACTORS
330
C
102
}
330
C
100
AcDbDictionary
281
     1
  3
*A1
350
A2C
1001
ACAD
1000
TREAT_AS_HARD
1070
     0
  0
DICTIONARY
  5
711
102
{ACAD_REACTORS
330
C
102
}
330
C
100
AcDbDictionary
281
     1
  3
Model
350
153B
  3
ﾚｲｱｳﾄ1
350
153C
1001
ACAD
1000
TREAT_AS_HARD
1070
     0
  0
DICTIONARY
  5
3FD2
102
{ACAD_REACTORS
330
C
102
}
330
C
100
AcDbDictionary
281
     1
  0
DICTIONARY
  5
E
102
{ACAD_REACTORS
330
C
102
}
330
C
100
AcDbDictionary
281
     1
  3
STANDARD
350
13
1001
ACAD
1000
TREAT_AS_HARD
1070
     0
  0
DICTIONARY
  5
712
102
{ACAD_REACTORS
330
C
102
}
330
C
100
AcDbDictionary
281
     1
1001
ACAD
1000
TREAT_AS_HARD
1070
     0
  0
ACDBDICTIONARYWDFLT
  5
1539
102
{ACAD_REACTORS
330
C
102
}
330
C
100
AcDbDictionary
281
     1
  3
Normal
350
153A
100
AcDbDictionaryWithDefault
340
153A
1001
ACAD
1000
TREAT_AS_HARD
1070
     0
1000
TREAT_AS_HARD
1070
     0
1000
TREAT_AS_HARD
1070
     0
1000
TREAT_AS_HARD
1070
     0
1000
TREAT_AS_HARD
1070
     0
  0
DICTIONARY
  5
3FF0
102
{ACAD_REACTORS
330
C
102
}
330
C
100
AcDbDictionary
281
     1
  3
COLORDICT
350
3FF2
  3
MATERIALDICT
350
3FF1
  0
DICTIONARY
  5
3157
102
{ACAD_REACTORS
330
C
102
}
330
C
100
AcDbDictionary
281
     1
  3
DIMASSOC
350
3FED
  3
PROJECTNAME
350
3FEE
  3
SORTENTS
350
3158
  0
XRECORD
  5
3FAF
102
{ACAD_REACTORS
330
73E
102
}
330
73E
100
AcDbXrecord
280
     1
340
1A
  0
XRECORD
  5
3FAE
102
{ACAD_REACTORS
330
73C
102
}
330
73C
100
AcDbXrecord
280
     1
340
17
  0
XRECORD
  5
3FF4
102
{ACAD_REACTORS
330
3FF3
102
}
330
3FF3
100
AcDbXrecord
280
     1
102
SHADEPLOT
 70
     0
  0
XRECORD
  5
3FF6
102
{ACAD_REACTORS
330
3FF5
102
}
330
3FF5
100
AcDbXrecord
280
     1
102
SHADEPLOT
 70
     0
  0
GROUP
  5
A2C
102
{ACAD_REACTORS
330
D
102
}
330
D
100
AcDbGroup
300

 70
     1
 71
     1
  0
LAYOUT
  5
153B
102
{ACAD_XDICTIONARY
360
3FF7
102
}
102
{ACAD_REACTORS
330
711
102
}
330
711
100
AcDbPlotSettings
  1

  2
Acrobat Distiller
  4
A3
  6

 40
3.174999952316284
 41
3.174999952316284
 42
3.17498779296875
 43
3.17498779296875
 44
297.0318298339844
 45
420.1583251953125
 46
0.0
 47
0.0
 48
0.0
 49
0.0
140
0.0
141
0.0
142
1.0
143
1.0
 70
 11952
 72
     1
 73
     1
 74
     2
  7
print.ctb
 75
    16
147
1.0
148
0.0
149
0.0
100
AcDbLayout
  1
Model
 70
     1
 71
     0
 10
0.0
 20
0.0
 11
12.0
 21
9.0
 12
0.0
 22
0.0
 32
0.0
 14
0.0
 24
0.0
 34
0.0
 15
0.0
 25
0.0
 35
0.0
146
0.0
 13
0.0
 23
0.0
 33
0.0
 16
1.0
 26
0.0
 36
0.0
 17
0.0
 27
1.0
 37
0.0
 76
     0
330
1A
  0
LAYOUT
  5
153C
102
{ACAD_XDICTIONARY
360
3FF9
102
}
102
{ACAD_REACTORS
330
711
102
}
330
711
100
AcDbPlotSettings
  1

  2
LP-9200C(CC9E34)
  4

  6

 40
0.0
 41
0.0
 42
0.0
 43
0.0
 44
0.0
 45
0.0
 46
0.0
 47
0.0
 48
0.0
 49
0.0
140
0.0
141
0.0
142
1.0
143
1.0
 70
   688
 72
     0
 73
     0
 74
     5
  7
print.ctb
 75
    16
147
1.0
148
0.0
149
0.0
100
AcDbLayout
  1
ﾚｲｱｳﾄ1
 70
     1
 71
     1
 10
0.0
 20
0.0
 11
420.0
 21
297.0
 12
0.0
 22
0.0
 32
0.0
 14
0.0
 24
0.0
 34
0.0
 15
420.0
 25
297.0
 35
0.0
146
0.0
 13
0.0
 23
0.0
 33
0.0
 16
1.0
 26
0.0
 36
0.0
 17
0.0
 27
1.0
 37
0.0
 76
     0
330
17
331
64
  0
MLINESTYLE
  5
13
102
{ACAD_REACTORS
330
E
102
}
330
E
100
AcDbMlineStyle
  2
STANDARD
 70
     0
  3

 62
     0
 51
90.0
 52
90.0
 71
     2
 49
0.5
 62
   256
  6
BYLAYER
 49
-0.5
 62
   256
  6
BYLAYER
  0
ACDBPLACEHOLDER
  5
153A
102
{ACAD_REACTORS
330
1539
102
}
330
1539
  0
XRECORD
  5
3FF2
102
{ACAD_REACTORS
330
3FF0
102
}
330
3FF0
100
AcDbXrecord
280
     1
340
3FD3
  0
XRECORD
  5
3FF1
102
{ACAD_REACTORS
330
3FF0
102
}
330
3FF0
100
AcDbXrecord
280
     1
340
3FD2
  0
DICTIONARYVAR
  5
3FED
102
{ACAD_REACTORS
330
3157
102
}
330
3157
100
DictionaryVariables
280
     0
  1
1
  0
DICTIONARYVAR
  5
3FEE
102
{ACAD_REACTORS
330
3157
102
}
330
3157
100
DictionaryVariables
280
     0
  1

  0
DICTIONARYVAR
  5
3158
102
{ACAD_REACTORS
330
3157
102
}
330
3157
100
DictionaryVariables
280
     0
  1
96
  0
DICTIONARY
  5
3FF7
330
153B
100
AcDbDictionary
280
     1
281
     1
  3
ACAD_XREC_ROUNDTRIP
360
3FF8
  0
DICTIONARY
  5
3FF9
330
153C
100
AcDbDictionary
280
     1
281
     1
  3
ACAD_XREC_ROUNDTRIP
360
3FFA
  0
XRECORD
  5
3FF8
102
{ACAD_REACTORS
330
3FF7
102
}
330
3FF7
100
AcDbXrecord
280
     1
102
SHADEPLOT
 70
     0
102
SHADEPLOTRESLEVEL
 70
     2
102
SHADEPLOTCUSTOMDPI
 70
   300
  0
XRECORD
  5
3FFA
102
{ACAD_REACTORS
330
3FF9
102
}
330
3FF9
100
AcDbXrecord
280
     1
102
SHADEPLOT
 70
     0
102
SHADEPLOTRESLEVEL
 70
     2
102
SHADEPLOTCUSTOMDPI
 70
   300
  0
ENDSEC
  0
EOF
