  0
SECTION
  2
HEADER
  9
$ACADVER
  1
AC1015
  9
$ACADMAINTVER
 70
    20
  9
$DWGCODEPAGE
  3
ANSI_932
  9
$INSBASE
 10
0.0
 20
0.0
 30
0.0
  9
$EXTMIN
 10
14.9999991847701
 20
15.00000037419784
 30
0.0
  9
$EXTMAX
 10
812.5999991847702
 20
566.6000003741979
 30
0.0
  9
$LIMMIN
 10
0.0
 20
0.0
  9
$LIMMAX
 10
840.0
 20
594.0
  9
$ORTHOMODE
 70
     0
  9
$REGENMODE
 70
     1
  9
$FILLMODE
 70
     1
  9
$QTEXTMODE
 70
     0
  9
$MIRRTEXT
 70
     1
  9
$LTSCALE
 40
1.0
  9
$ATTMODE
 70
     1
  9
$TEXTSIZE
 40
2.5
  9
$TRACEWID
 40
1.0
  9
$TEXTSTYLE
  7
MSPｺﾞｼｯｸ
  9
$CLAYER
  8
0
  9
$CELTYPE
  6
BYLAYER
  9
$CECOLOR
 62
   256
  9
$CELTSCALE
 40
1.0
  9
$DISPSILH
 70
     0
  9
$DIMSCALE
 40
1.0
  9
$DIMASZ
 40
4.0
  9
$DIMEXO
 40
2.0
  9
$DIMDLI
 40
9.0
  9
$DIMRND
 40
0.0
  9
$DIMDLE
 40
0.0
  9
$DIMEXE
 40
2.0
  9
$DIMTP
 40
0.0
  9
$DIMTM
 40
0.0
  9
$DIMTXT
 40
6.0
  9
$DIMCEN
 40
0.0
  9
$DIMTSZ
 40
0.0
  9
$DIMTOL
 70
     0
  9
$DIMLIM
 70
     0
  9
$DIMTIH
 70
     0
  9
$DIMTOH
 70
     0
  9
$DIMSE1
 70
     0
  9
$DIMSE2
 70
     0
  9
$DIMTAD
 70
     3
  9
$DIMZIN
 70
     0
  9
$DIMBLK
  1
Open
  9
$DIMASO
 70
     1
  9
$DIMSHO
 70
     1
  9
$DIMPOST
  1

  9
$DIMAPOST
  1

  9
$DIMALT
 70
     0
  9
$DIMALTD
 70
     2
  9
$DIMALTF
 40
25.4
  9
$DIMLFAC
 40
1.0
  9
$DIMTOFL
 70
     0
  9
$DIMTVP
 40
0.0
  9
$DIMTIX
 70
     0
  9
$DIMSOXD
 70
     0
  9
$DIMSAH
 70
     0
  9
$DIMBLK1
  1

  9
$DIMBLK2
  1

  9
$DIMSTYLE
  2
STANDARD
  9
$DIMCLRD
 70
   256
  9
$DIMCLRE
 70
   256
  9
$DIMCLRT
 70
   256
  9
$DIMTFAC
 40
1.0
  9
$DIMGAP
 40
2.0
  9
$DIMJUST
 70
     0
  9
$DIMSD1
 70
     0
  9
$DIMSD2
 70
     0
  9
$DIMTOLJ
 70
     1
  9
$DIMTZIN
 70
     0
  9
$DIMALTZ
 70
     0
  9
$DIMALTTZ
 70
     0
  9
$DIMUPT
 70
     0
  9
$DIMDEC
 70
     0
  9
$DIMTDEC
 70
     0
  9
$DIMALTU
 70
     2
  9
$DIMALTTD
 70
     2
  9
$DIMTXSTY
  7
STANDARD
  9
$DIMAUNIT
 70
     0
  9
$DIMADEC
 70
     0
  9
$DIMALTRND
 40
0.0
  9
$DIMAZIN
 70
     0
  9
$DIMDSEP
 70
    46
  9
$DIMATFIT
 70
     3
  9
$DIMFRAC
 70
     0
  9
$DIMLDRBLK
  1
Open
  9
$DIMLUNIT
 70
     2
  9
$DIMLWD
 70
    -1
  9
$DIMLWE
 70
    -1
  9
$DIMTMOVE
 70
     0
  9
$LUNITS
 70
     2
  9
$LUPREC
 70
     4
  9
$SKETCHINC
 40
1.0
  9
$FILLETRAD
 40
20.0
  9
$AUNITS
 70
     0
  9
$AUPREC
 70
     0
  9
$MENU
  1
.
  9
$ELEVATION
 40
0.0
  9
$PELEVATION
 40
0.0
  9
$THICKNESS
 40
0.0
  9
$LIMCHECK
 70
     0
  9
$CHAMFERA
 40
0.0
  9
$CHAMFERB
 40
0.0
  9
$CHAMFERC
 40
40.0
  9
$CHAMFERD
 40
0.0
  9
$SKPOLY
 70
     0
  9
$TDCREATE
 40
2450994.354346065
  9
$TDUCREATE
 40
2450993.979346065
  9
$TDUPDATE
 40
2459167.574205012
  9
$TDUUPDATE
 40
2459167.199205012
  9
$TDINDWG
 40
0.1455841782
  9
$TDUSRTIMER
 40
0.1455841782
  9
$USRTIMER
 70
     1
  9
$ANGBASE
 50
0.0
  9
$ANGDIR
 70
     0
  9
$PDMODE
 70
     1
  9
$PDSIZE
 40
0.0
  9
$PLINEWID
 40
0.0
  9
$SPLFRAME
 70
     0
  9
$SPLINETYPE
 70
     6
  9
$SPLINESEGS
 70
     8
  9
$HANDSEED
  5
8273
  9
$SURFTAB1
 70
     6
  9
$SURFTAB2
 70
     6
  9
$SURFTYPE
 70
     6
  9
$SURFU
 70
     6
  9
$SURFV
 70
     6
  9
$UCSBASE
  2

  9
$UCSNAME
  2

  9
$UCSORG
 10
0.0
 20
0.0
 30
0.0
  9
$UCSXDIR
 10
1.0
 20
0.0
 30
0.0
  9
$UCSYDIR
 10
0.0
 20
1.0
 30
0.0
  9
$UCSORTHOREF
  2

  9
$UCSORTHOVIEW
 70
     0
  9
$UCSORGTOP
 10
0.0
 20
0.0
 30
0.0
  9
$UCSORGBOTTOM
 10
0.0
 20
0.0
 30
0.0
  9
$UCSORGLEFT
 10
0.0
 20
0.0
 30
0.0
  9
$UCSORGRIGHT
 10
0.0
 20
0.0
 30
0.0
  9
$UCSORGFRONT
 10
0.0
 20
0.0
 30
0.0
  9
$UCSORGBACK
 10
0.0
 20
0.0
 30
0.0
  9
$PUCSBASE
  2

  9
$PUCSNAME
  2

  9
$PUCSORG
 10
0.0
 20
0.0
 30
0.0
  9
$PUCSXDIR
 10
1.0
 20
0.0
 30
0.0
  9
$PUCSYDIR
 10
0.0
 20
1.0
 30
0.0
  9
$PUCSORTHOREF
  2

  9
$PUCSORTHOVIEW
 70
     0
  9
$PUCSORGTOP
 10
0.0
 20
0.0
 30
0.0
  9
$PUCSORGBOTTOM
 10
0.0
 20
0.0
 30
0.0
  9
$PUCSORGLEFT
 10
0.0
 20
0.0
 30
0.0
  9
$PUCSORGRIGHT
 10
0.0
 20
0.0
 30
0.0
  9
$PUCSORGFRONT
 10
0.0
 20
0.0
 30
0.0
  9
$PUCSORGBACK
 10
0.0
 20
0.0
 30
0.0
  9
$USERI1
 70
     0
  9
$USERI2
 70
     0
  9
$USERI3
 70
     0
  9
$USERI4
 70
     0
  9
$USERI5
 70
     0
  9
$USERR1
 40
0.0
  9
$USERR2
 40
0.0
  9
$USERR3
 40
0.0
  9
$USERR4
 40
0.0
  9
$USERR5
 40
0.0
  9
$WORLDVIEW
 70
     1
  9
$SHADEDGE
 70
     3
  9
$SHADEDIF
 70
    70
  9
$TILEMODE
 70
     0
  9
$MAXACTVP
 70
    16
  9
$PINSBASE
 10
0.0
 20
0.0
 30
0.0
  9
$PLIMCHECK
 70
     0
  9
$PEXTMIN
 10
-13.04384754124112
 20
-14.04935126914074
 30
0.0
  9
$PEXTMAX
 10
448.0990740064969
 20
309.0047054526973
 30
0.0
  9
$PLIMMIN
 10
-17.45856514154854
 20
-18.06226567015909
  9
$PLIMMAX
 10
453.0083240575942
 20
314.6317388082161
  9
$UNITMODE
 70
     0
  9
$VISRETAIN
 70
     0
  9
$PLINEGEN
 70
     0
  9
$PSLTSCALE
 70
     1
  9
$TREEDEPTH
 70
  3020
  9
$CMLSTYLE
  2
STANDARD
  9
$CMLJUST
 70
     0
  9
$CMLSCALE
 40
1.0
  9
$PROXYGRAPHICS
 70
     1
  9
$MEASUREMENT
 70
     1
  9
$CELWEIGHT
370
    -1
  9
$ENDCAPS
280
     0
  9
$JOINSTYLE
280
     0
  9
$LWDISPLAY
290
     0
  9
$INSUNITS
 70
     0
  9
$HYPERLINKBASE
  1

  9
$STYLESHEET
  1
print.ctb
  9
$XEDIT
290
     1
  9
$CEPSNTYPE
380
     0
  9
$PSTYLEMODE
290
     1
  9
$FINGERPRINTGUID
  2
{C56778C1-A286-4FAB-9BA7-CCD46472B6EF}
  9
$VERSIONGUID
  2
{9CB4B9D3-B26E-42FA-A867-5F51DD0A66AB}
  9
$EXTNAMES
290
     1
  9
$PSVPSCALE
 40
0.0
  9
$OLESTARTUP
290
     0
  0
ENDSEC
  0
SECTION
  2
CLASSES
  0
CLASS
  1
ACDBDICTIONARYWDFLT
  2
AcDbDictionaryWithDefault
  3
ObjectDBX Classes
 90
        0
280
     0
281
     0
  0
CLASS
  1
ACDBPLACEHOLDER
  2
AcDbPlaceHolder
  3
ObjectDBX Classes
 90
        0
280
     0
281
     0
  0
CLASS
  1
LAYOUT
  2
AcDbLayout
  3
ObjectDBX Classes
 90
        0
280
     0
281
     0
  0
CLASS
  1
LONG_TRANSACTION
  2
AcDbLongTransaction
  3
ObjectDBX Classes
 90
    32768
280
     0
281
     0
  0
CLASS
  1
LWPOLYLINE
  2
AcDbPolyline
  3
ObjectDBX Classes
 90
        0
280
     0
281
     1
  0
CLASS
  1
HATCH
  2
AcDbHatch
  3
ObjectDBX Classes
 90
    32768
280
     0
281
     1
  0
CLASS
  1
XRECORD
  2
AcDbXrecord
  3
ObjectDBX Classes
 90
        0
280
     0
281
     0
  0
CLASS
  1
LONG_TRANSACTION
  2
AcDbLongTransaction
  3
ObjectDBX Classes
 90
    32768
280
     0
281
     0
  0
CLASS
  1
LWPOLYLINE
  2
AcDbPolyline
  3
ObjectDBX Classes
 90
        0
280
     0
281
     1
  0
CLASS
  1
HATCH
  2
AcDbHatch
  3
ObjectDBX Classes
 90
    32768
280
     0
281
     1
  0
CLASS
  1
XRECORD
  2
AcDbXrecord
  3
ObjectDBX Classes
 90
        0
280
     0
281
     0
  0
CLASS
  1
LONG_TRANSACTION
  2
AcDbLongTransaction
  3
ObjectDBX Classes
 90
    32768
280
     0
281
     0
  0
CLASS
  1
LWPOLYLINE
  2
AcDbPolyline
  3
ObjectDBX Classes
 90
        0
280
     0
281
     1
  0
CLASS
  1
HATCH
  2
AcDbHatch
  3
ObjectDBX Classes
 90
    32768
280
     0
281
     1
  0
CLASS
  1
XRECORD
  2
AcDbXrecord
  3
ObjectDBX Classes
 90
        0
280
     0
281
     0
  0
CLASS
  1
LONG_TRANSACTION
  2
AcDbLongTransaction
  3
ObjectDBX Classes
 90
    32768
280
     0
281
     0
  0
CLASS
  1
LWPOLYLINE
  2
AcDbPolyline
  3
ObjectDBX Classes
 90
        0
280
     0
281
     1
  0
CLASS
  1
HATCH
  2
AcDbHatch
  3
ObjectDBX Classes
 90
    32768
280
     0
281
     1
  0
CLASS
  1
XRECORD
  2
AcDbXrecord
  3
ObjectDBX Classes
 90
        0
280
     0
281
     0
  0
CLASS
  1
LONG_TRANSACTION
  2
AcDbLongTransaction
  3
ObjectDBX Classes
 90
    32768
280
     0
281
     0
  0
CLASS
  1
LWPOLYLINE
  2
AcDbPolyline
  3
ObjectDBX Classes
 90
        0
280
     0
281
     1
  0
CLASS
  1
HATCH
  2
AcDbHatch
  3
ObjectDBX Classes
 90
    32768
280
     0
281
     1
  0
CLASS
  1
XRECORD
  2
AcDbXrecord
  3
ObjectDBX Classes
 90
        0
280
     0
281
     0
  0
CLASS
  1
LONG_TRANSACTION
  2
AcDbLongTransaction
  3
ObjectDBX Classes
 90
    32768
280
     0
281
     0
  0
CLASS
  1
LWPOLYLINE
  2
AcDbPolyline
  3
ObjectDBX Classes
 90
        0
280
     0
281
     1
  0
CLASS
  1
HATCH
  2
AcDbHatch
  3
ObjectDBX Classes
 90
    32768
280
     0
281
     1
  0
CLASS
  1
XRECORD
  2
AcDbXrecord
  3
ObjectDBX Classes
 90
        0
280
     0
281
     0
  0
CLASS
  1
LONG_TRANSACTION
  2
AcDbLongTransaction
  3
ObjectDBX Classes
 90
    32768
280
     0
281
     0
  0
CLASS
  1
LWPOLYLINE
  2
AcDbPolyline
  3
ObjectDBX Classes
 90
        0
280
     0
281
     1
  0
CLASS
  1
HATCH
  2
AcDbHatch
  3
ObjectDBX Classes
 90
    32768
280
     0
281
     1
  0
CLASS
  1
XRECORD
  2
AcDbXrecord
  3
ObjectDBX Classes
 90
        0
280
     0
281
     0
  0
CLASS
  1
LONG_TRANSACTION
  2
AcDbLongTransaction
  3
ObjectDBX Classes
 90
    32768
280
     0
281
     0
  0
CLASS
  1
LWPOLYLINE
  2
AcDbPolyline
  3
ObjectDBX Classes
 90
        0
280
     0
281
     1
  0
CLASS
  1
HATCH
  2
AcDbHatch
  3
ObjectDBX Classes
 90
    32768
280
     0
281
     1
  0
CLASS
  1
XRECORD
  2
AcDbXrecord
  3
ObjectDBX Classes
 90
        0
280
     0
281
     0
  0
CLASS
  1
LONG_TRANSACTION
  2
AcDbLongTransaction
  3
ObjectDBX Classes
 90
    32768
280
     0
281
     0
  0
CLASS
  1
LWPOLYLINE
  2
AcDbPolyline
  3
ObjectDBX Classes
 90
        0
280
     0
281
     1
  0
CLASS
  1
HATCH
  2
AcDbHatch
  3
ObjectDBX Classes
 90
    32768
280
     0
281
     1
  0
CLASS
  1
XRECORD
  2
AcDbXrecord
  3
ObjectDBX Classes
 90
        0
280
     0
281
     0
  0
CLASS
  1
LONG_TRANSACTION
  2
AcDbLongTransaction
  3
ObjectDBX Classes
 90
    32768
280
     0
281
     0
  0
CLASS
  1
LWPOLYLINE
  2
AcDbPolyline
  3
ObjectDBX Classes
 90
        0
280
     0
281
     1
  0
CLASS
  1
HATCH
  2
AcDbHatch
  3
ObjectDBX Classes
 90
    32768
280
     0
281
     1
  0
CLASS
  1
XRECORD
  2
AcDbXrecord
  3
ObjectDBX Classes
 90
        0
280
     0
281
     0
  0
CLASS
  1
LONG_TRANSACTION
  2
AcDbLongTransaction
  3
ObjectDBX Classes
 90
    32768
280
     0
281
     0
  0
CLASS
  1
LWPOLYLINE
  2
AcDbPolyline
  3
ObjectDBX Classes
 90
        0
280
     0
281
     1
  0
CLASS
  1
HATCH
  2
AcDbHatch
  3
ObjectDBX Classes
 90
    32768
280
     0
281
     1
  0
CLASS
  1
XRECORD
  2
AcDbXrecord
  3
ObjectDBX Classes
 90
        0
280
     0
281
     0
  0
CLASS
  1
LONG_TRANSACTION
  2
AcDbLongTransaction
  3
ObjectDBX Classes
 90
    32768
280
     0
281
     0
  0
CLASS
  1
LWPOLYLINE
  2
AcDbPolyline
  3
ObjectDBX Classes
 90
        0
280
     0
281
     1
  0
CLASS
  1
HATCH
  2
AcDbHatch
  3
ObjectDBX Classes
 90
    32768
280
     0
281
     1
  0
CLASS
  1
XRECORD
  2
AcDbXrecord
  3
ObjectDBX Classes
 90
        0
280
     0
281
     0
  0
CLASS
  1
LONG_TRANSACTION
  2
AcDbLongTransaction
  3
ObjectDBX Classes
 90
    32768
280
     0
281
     0
  0
CLASS
  1
LWPOLYLINE
  2
AcDbPolyline
  3
ObjectDBX Classes
 90
        0
280
     0
281
     1
  0
CLASS
  1
HATCH
  2
AcDbHatch
  3
ObjectDBX Classes
 90
    32768
280
     0
281
     1
  0
CLASS
  1
XRECORD
  2
AcDbXrecord
  3
ObjectDBX Classes
 90
        0
280
     0
281
     0
  0
CLASS
  1
LONG_TRANSACTION
  2
AcDbLongTransaction
  3
ObjectDBX Classes
 90
    32768
280
     0
281
     0
  0
CLASS
  1
LWPOLYLINE
  2
AcDbPolyline
  3
ObjectDBX Classes
 90
        0
280
     0
281
     1
  0
CLASS
  1
HATCH
  2
AcDbHatch
  3
ObjectDBX Classes
 90
    32768
280
     0
281
     1
  0
CLASS
  1
XRECORD
  2
AcDbXrecord
  3
ObjectDBX Classes
 90
        0
280
     0
281
     0
  0
CLASS
  1
LONG_TRANSACTION
  2
AcDbLongTransaction
  3
ObjectDBX Classes
 90
    32768
280
     0
281
     0
  0
CLASS
  1
LWPOLYLINE
  2
AcDbPolyline
  3
ObjectDBX Classes
 90
        0
280
     0
281
     1
  0
CLASS
  1
HATCH
  2
AcDbHatch
  3
ObjectDBX Classes
 90
    32768
280
     0
281
     1
  0
CLASS
  1
XRECORD
  2
AcDbXrecord
  3
ObjectDBX Classes
 90
        0
280
     0
281
     0
  0
CLASS
  1
MATERIAL
  2
AcDbMaterial
  3
ObjectDBX Classes
 90
        0
280
     0
281
     0
  0
CLASS
  1
VISUALSTYLE
  2
AcDbVisualStyle
  3
ObjectDBX Classes
 90
     4095
280
     0
281
     0
  0
CLASS
  1
TABLESTYLE
  2
AcDbTableStyle
  3
ObjectDBX Classes
 90
     4095
280
     0
281
     0
  0
CLASS
  1
SCALE
  2
AcDbScale
  3
ObjectDBX Classes
 90
     1153
280
     0
281
     0
  0
CLASS
  1
MLEADERSTYLE
  2
AcDbMLeaderStyle
  3
ACDB_MLEADERSTYLE_CLASS
 90
     4095
280
     0
281
     0
  0
CLASS
  1
CELLSTYLEMAP
  2
AcDbCellStyleMap
  3
ObjectDBX Classes
 90
     1152
280
     0
281
     0
  0
CLASS
  1
DICTIONARYVAR
  2
AcDbDictionaryVar
  3
ObjectDBX Classes
 90
        0
280
     0
281
     0
  0
ENDSEC
  0
SECTION
  2
TABLES
  0
TABLE
  2
VPORT
  5
8
102
{ACAD_XDICTIONARY
360
8211
102
}
330
0
100
AcDbSymbolTable
 70
     2
  0
VPORT
  5
8269
330
8
100
AcDbSymbolTableRecord
100
AcDbViewportTableRecord
  2
*Active
 70
     0
 10
0.0
 20
0.0
 11
1.0
 21
1.0
 12
486.9909777566906
 22
284.4880897961175
 13
0.0
 23
0.0
 14
5.0
 24
5.0
 15
0.0
 25
0.0
 16
0.0
 26
0.0
 36
1.0
 17
0.0
 27
0.0
 37
0.0
 40
776.1187560638659
 41
1.922916666666666
 42
50.0
 43
0.0
 44
0.0
 50
0.0
 51
0.0
 71
     0
 72
   100
 73
     1
 74
     0
 75
     0
 76
     0
 77
     0
 78
     0
281
     0
 65
     1
110
0.0
120
0.0
130
0.0
111
1.0
121
0.0
131
0.0
112
0.0
122
1.0
132
0.0
 79
     0
146
0.0
  0
ENDTAB
  0
TABLE
  2
LTYPE
  5
5
330
0
100
AcDbSymbolTable
 70
     3
  0
LTYPE
  5
14
330
5
100
AcDbSymbolTableRecord
100
AcDbLinetypeTableRecord
  2
BYBLOCK
 70
     0
  3

 72
    65
 73
     0
 40
0.0
  0
LTYPE
  5
15
330
5
100
AcDbSymbolTableRecord
100
AcDbLinetypeTableRecord
  2
BYLAYER
 70
     0
  3

 72
    65
 73
     0
 40
0.0
  0
LTYPE
  5
16
330
5
100
AcDbSymbolTableRecord
100
AcDbLinetypeTableRecord
  2
CONTINUOUS
 70
     0
  3
Solid line
 72
    65
 73
     0
 40
0.0
  0
LTYPE
  5
135
330
5
100
AcDbSymbolTableRecord
100
AcDbLinetypeTableRecord
  2
CENTER
 70
     0
  3
____ _ ____ _ ____ _ ____ _ ____ _ ____ _ ____ 
 72
    65
 73
     4
 40
2.0
 49
1.25
 74
     0
 49
-0.25
 74
     0
 49
0.25
 74
     0
 49
-0.25
 74
     0
  0
LTYPE
  5
755A
330
5
100
AcDbSymbolTableRecord
100
AcDbLinetypeTableRecord
  2
PHANTOM
 70
     0
  3
Phantom ______  __  __  ______  __  __  ______
 72
    65
 73
     6
 40
63.5
 49
31.75
 74
     0
 49
-6.349999999999999
 74
     0
 49
6.349999999999999
 74
     0
 49
-6.349999999999999
 74
     0
 49
6.349999999999999
 74
     0
 49
-6.349999999999999
 74
     0
  0
ENDTAB
  0
TABLE
  2
LAYER
  5
2
330
0
100
AcDbSymbolTable
 70
     9
  0
LAYER
  5
F
102
{ACAD_XDICTIONARY
360
81FD
102
}
330
2
100
AcDbSymbolTableRecord
100
AcDbLayerTableRecord
  2
0
 70
     0
 62
     7
  6
CONTINUOUS
370
    -3
390
673
  0
LAYER
  5
62
102
{ACAD_XDICTIONARY
360
81FF
102
}
330
2
100
AcDbSymbolTableRecord
100
AcDbLayerTableRecord
  2
VIEWPORT
 70
     0
 62
     7
  6
CONTINUOUS
370
    -3
390
673
  0
LAYER
  5
65
102
{ACAD_XDICTIONARY
360
8201
102
}
330
2
100
AcDbSymbolTableRecord
100
AcDbLayerTableRecord
  2
ZUWAKU
 70
     0
 62
     7
  6
CONTINUOUS
370
    -3
390
673
  0
LAYER
  5
1EA
102
{ACAD_XDICTIONARY
360
8203
102
}
330
2
100
AcDbSymbolTableRecord
100
AcDbLayerTableRecord
  2
SEIHIN
 70
     0
 62
     3
  6
CONTINUOUS
370
    -3
390
673
  0
LAYER
  5
1EB
102
{ACAD_XDICTIONARY
360
8205
102
}
330
2
100
AcDbSymbolTableRecord
100
AcDbLayerTableRecord
  2
SUNPOU
 70
     0
 62
     4
  6
CONTINUOUS
370
    -3
390
673
  0
LAYER
  5
1EE
330
2
100
AcDbSymbolTableRecord
100
AcDbLayerTableRecord
  2
DEFPOINTS
 70
     0
 62
     7
  6
CONTINUOUS
290
     0
370
    -3
390
673
  0
LAYER
  5
6B1
102
{ACAD_XDICTIONARY
360
8207
102
}
330
2
100
AcDbSymbolTableRecord
100
AcDbLayerTableRecord
  2
moji
 70
     0
 62
     2
  6
CONTINUOUS
370
    -3
390
673
  0
LAYER
  5
30BD
102
{ACAD_XDICTIONARY
360
8209
102
}
330
2
100
AcDbSymbolTableRecord
100
AcDbLayerTableRecord
  2
CENTER L
 70
     0
 62
     1
  6
CENTER
370
    -3
390
673
  0
LAYER
  5
755B
102
{ACAD_XDICTIONARY
360
820B
102
}
330
2
100
AcDbSymbolTableRecord
100
AcDbLayerTableRecord
  2
NOKITOI
 70
     0
 62
     9
  6
PHANTOM
370
    -3
390
673
  0
ENDTAB
  0
TABLE
  2
STYLE
  5
3
330
0
100
AcDbSymbolTable
 70
     2
  0
STYLE
  5
10
330
3
100
AcDbSymbolTableRecord
100
AcDbTextStyleTableRecord
  2
STANDARD
 70
     0
 40
0.0
 41
1.0
 50
0.0
 71
     0
 42
5.0
  3
TXT
  4
bigfont.shx
  0
STYLE
  5
6B2
330
3
100
AcDbSymbolTableRecord
100
AcDbTextStyleTableRecord
  2
MSPｺﾞｼｯｸ
 70
     0
 40
0.0
 41
1.0
 50
0.0
 71
     0
 42
2.5
  3

  4

1001
ACAD
1000
MS PGothic
1071
    32818
  0
ENDTAB
  0
TABLE
  2
VIEW
  5
6
330
0
100
AcDbSymbolTable
 70
     0
  0
ENDTAB
  0
TABLE
  2
UCS
  5
7
330
0
100
AcDbSymbolTable
 70
     0
  0
ENDTAB
  0
TABLE
  2
APPID
  5
9
330
0
100
AcDbSymbolTable
 70
     2
  0
APPID
  5
11
330
9
100
AcDbSymbolTableRecord
100
AcDbRegAppTableRecord
  2
ACAD
 70
     0
  0
APPID
  5
8251
330
9
100
AcDbSymbolTableRecord
100
AcDbRegAppTableRecord
  2
ACAD_MLEADERVER
 70
     0
  0
ENDTAB
  0
TABLE
  2
DIMSTYLE
  5
A
330
0
100
AcDbSymbolTable
 70
     1
100
AcDbDimStyleTable
 71
     1
340
1D
  0
DIMSTYLE
105
1D
102
{ACAD_REACTORS
330
67DB
330
67E8
330
67F5
330
6834
330
684E
330
685B
330
73CC
330
73D9
330
7401
330
7449
330
75A6
330
7792
330
800D
330
8023
102
}
330
A
100
AcDbSymbolTableRecord
100
AcDbDimStyleTableRecord
  2
STANDARD
 70
     0
 41
4.0
 42
2.0
 43
9.0
 44
2.0
 73
     0
 74
     0
 77
     3
140
6.0
141
0.0
147
2.0
176
   256
177
   256
178
   256
271
     0
272
     0
340
10
341
401A
342
401A
371
    -1
372
    -1
  0
ENDTAB
  0
TABLE
  2
BLOCK_RECORD
  5
1
330
0
100
AcDbSymbolTable
 70
    16
  0
BLOCK_RECORD
  5
1A
102
{ACAD_XDICTIONARY
360
6A3
102
}
330
1
100
AcDbSymbolTableRecord
100
AcDbBlockTableRecord
  2
*MODEL_SPACE
340
676
  0
BLOCK_RECORD
  5
17
102
{ACAD_XDICTIONARY
360
6A1
102
}
330
1
100
AcDbSymbolTableRecord
100
AcDbBlockTableRecord
  2
*PAPER_SPACE
340
677
  0
BLOCK_RECORD
  5
228D
330
1
100
AcDbSymbolTableRecord
100
AcDbBlockTableRecord
  2
*X0
340
0
102
{BLKREFS
331
780
102
}
  0
BLOCK_RECORD
  5
401A
330
1
100
AcDbSymbolTableRecord
100
AcDbBlockTableRecord
  2
_Open
340
0
102
{BLKREFS
331
7465
331
7466
331
7498
331
7499
331
747D
331
747E
331
748F
331
7490
331
8168
331
8169
331
7486
331
7487
331
74B3
331
74B4
331
7EDB
331
7EDC
331
7EF6
331
7EF7
331
8176
331
8177
331
817F
331
8180
331
8188
331
8189
331
8191
331
8192
331
819A
331
819B
102
}
  0
BLOCK_RECORD
  5
67DC
330
1
100
AcDbSymbolTableRecord
100
AcDbBlockTableRecord
  2
*D2
340
0
  0
BLOCK_RECORD
  5
67E9
330
1
100
AcDbSymbolTableRecord
100
AcDbBlockTableRecord
  2
*D3
340
0
  0
BLOCK_RECORD
  5
67F6
330
1
100
AcDbSymbolTableRecord
100
AcDbBlockTableRecord
  2
*D4
340
0
  0
BLOCK_RECORD
  5
6835
330
1
100
AcDbSymbolTableRecord
100
AcDbBlockTableRecord
  2
*D5
340
0
  0
BLOCK_RECORD
  5
684F
330
1
100
AcDbSymbolTableRecord
100
AcDbBlockTableRecord
  2
*D6
340
0
  0
BLOCK_RECORD
  5
685C
330
1
100
AcDbSymbolTableRecord
100
AcDbBlockTableRecord
  2
*D7
340
0
  0
BLOCK_RECORD
  5
73CD
330
1
100
AcDbSymbolTableRecord
100
AcDbBlockTableRecord
  2
*D8
340
0
  0
BLOCK_RECORD
  5
73DA
330
1
100
AcDbSymbolTableRecord
100
AcDbBlockTableRecord
  2
*D9
340
0
  0
BLOCK_RECORD
  5
7402
330
1
100
AcDbSymbolTableRecord
100
AcDbBlockTableRecord
  2
*D10
340
0
  0
BLOCK_RECORD
  5
744A
330
1
100
AcDbSymbolTableRecord
100
AcDbBlockTableRecord
  2
*D11
340
0
  0
BLOCK_RECORD
  5
75A7
330
1
100
AcDbSymbolTableRecord
100
AcDbBlockTableRecord
  2
*D12
340
0
  0
BLOCK_RECORD
  5
7793
330
1
100
AcDbSymbolTableRecord
100
AcDbBlockTableRecord
  2
*D13
340
0
  0
BLOCK_RECORD
  5
800E
330
1
100
AcDbSymbolTableRecord
100
AcDbBlockTableRecord
  2
*D14
340
0
  0
BLOCK_RECORD
  5
8024
330
1
100
AcDbSymbolTableRecord
100
AcDbBlockTableRecord
  2
*D15
340
0
  0
ENDTAB
  0
ENDSEC
  0
SECTION
  2
BLOCKS
  0
BLOCK
  5
1B
330
1A
100
AcDbEntity
  8
0
100
AcDbBlockBegin
  2
*MODEL_SPACE
 70
     0
 10
0.0
 20
0.0
 30
0.0
  3
*MODEL_SPACE
  1

  0
ENDBLK
  5
1C
330
1A
100
AcDbEntity
  8
0
100
AcDbBlockEnd
  0
BLOCK
  5
18
330
17
100
AcDbEntity
 67
     1
  8
0
100
AcDbBlockBegin
  2
*PAPER_SPACE
 70
     0
 10
0.0
 20
0.0
 30
0.0
  3
*PAPER_SPACE
  1

  0
ENDBLK
  5
19
330
17
100
AcDbEntity
 67
     1
  8
0
100
AcDbBlockEnd
  0
BLOCK
  5
2421
330
228D
100
AcDbEntity
  8
0
100
AcDbBlockBegin
  2
*X0
 70
     1
 10
0.0
 20
0.0
 30
0.0
  3
*X0
  1

  0
LINE
  5
228E
330
228D
100
AcDbEntity
  8
0
 62
     0
100
AcDbLine
 10
84.04221133955109
 20
37.60416944448309
 30
0.0
 11
83.39638040983647
 21
38.25000037419773
 31
0.0
  0
LINE
  5
228F
330
228D
100
AcDbEntity
  8
0
 62
     0
100
AcDbLine
 10
84.04221133955109
 20
36.7061438323762
 30
0.0
 11
82.49835479772945
 21
38.25000037419778
 31
0.0
  0
LINE
  5
2290
330
228D
100
AcDbEntity
  8
0
 62
     0
100
AcDbLine
 10
84.04221133955109
 20
35.80811822026925
 30
0.0
 11
81.62107739353627
 21
38.22925216628403
 31
0.0
  0
LINE
  5
2291
330
228D
100
AcDbEntity
  8
0
 62
     0
100
AcDbLine
 10
84.04221133955122
 20
34.9100926081623
 30
0.0
 11
81.24221133955121
 21
37.71009260816226
 31
0.0
  0
LINE
  5
2292
330
228D
100
AcDbEntity
  8
0
 62
     0
100
AcDbLine
 10
84.04221133955116
 20
34.01206699605535
 30
0.0
 11
81.24221133955121
 21
36.81206699605537
 31
0.0
  0
LINE
  5
2293
330
228D
100
AcDbEntity
  8
0
 62
     0
100
AcDbLine
 10
84.04221133955116
 20
33.11404138394846
 30
0.0
 11
81.24221133955115
 21
35.91404138394842
 31
0.0
  0
LINE
  5
2294
330
228D
100
AcDbEntity
  8
0
 62
     0
100
AcDbLine
 10
79.14221133955118
 20
37.11601577184155
 30
0.0
 11
78.00822673719494
 21
38.25000037419778
 31
0.0
  0
LINE
  5
2295
330
228D
100
AcDbEntity
  8
0
 62
     0
100
AcDbLine
 10
84.04221133955116
 20
32.21601577184157
 30
0.0
 11
81.24221133955121
 21
35.01601577184158
 31
0.0
  0
LINE
  5
2296
330
228D
100
AcDbEntity
  8
0
 62
     0
100
AcDbLine
 10
79.14221133955118
 20
36.21799015973465
 30
0.0
 11
77.11020112508805
 21
38.25000037419778
 31
0.0
  0
LINE
  5
2297
330
228D
100
AcDbEntity
  8
0
 62
     0
100
AcDbLine
 10
84.04221133955116
 20
31.31799015973468
 30
0.0
 11
81.24221133955121
 21
34.11799015973463
 31
0.0
  0
LINE
  5
2298
330
228D
100
AcDbEntity
  8
0
 62
     0
100
AcDbLine
 10
79.14221133955118
 20
35.31996454762771
 30
0.0
 11
76.4367003744141
 21
38.02547551276479
 31
0.0
  0
LINE
  5
2299
330
228D
100
AcDbEntity
  8
0
 62
     0
100
AcDbLine
 10
84.04221133955116
 20
30.41996454762773
 30
0.0
 11
81.24221133955115
 21
33.21996454762768
 31
0.0
  0
LINE
  5
229A
330
228D
100
AcDbEntity
  8
0
 62
     0
100
AcDbLine
 10
79.14221133955118
 20
34.42193893552076
 30
0.0
 11
76.34221133955112
 21
37.22193893552083
 31
0.0
  0
LINE
  5
229B
330
228D
100
AcDbEntity
  8
0
 62
     0
100
AcDbLine
 10
84.04221133955116
 20
29.52193893552084
 30
0.0
 11
81.24221133955121
 21
32.32193893552079
 31
0.0
  0
LINE
  5
229C
330
228D
100
AcDbEntity
  8
0
 62
     0
100
AcDbLine
 10
79.14221133955118
 20
33.52391332341392
 30
0.0
 11
76.34221133955112
 21
36.32391332341399
 31
0.0
  0
LINE
  5
229D
330
228D
100
AcDbEntity
  8
0
 62
     0
100
AcDbLine
 10
84.04221133955122
 20
28.62391332341383
 30
0.0
 11
81.24221133955115
 21
31.4239133234139
 31
0.0
  0
LINE
  5
229E
330
228D
100
AcDbEntity
  8
0
 62
     0
100
AcDbLine
 10
79.14221133955113
 20
32.62588771130698
 30
0.0
 11
76.34221133955112
 21
35.42588771130704
 31
0.0
  0
LINE
  5
229F
330
228D
100
AcDbEntity
  8
0
 62
     0
100
AcDbLine
 10
84.04221133955122
 20
27.72588771130694
 30
0.0
 11
81.24221133955115
 21
30.52588771130701
 31
0.0
  0
LINE
  5
22A0
330
228D
100
AcDbEntity
  8
0
 62
     0
100
AcDbLine
 10
79.14221133955113
 20
31.72786209920008
 30
0.0
 11
76.34221133955105
 21
34.52786209920009
 31
0.0
  0
LINE
  5
22A1
330
228D
100
AcDbEntity
  8
0
 62
     0
100
AcDbLine
 10
84.04221133955116
 20
26.82786209919999
 30
0.0
 11
81.24221133955115
 21
29.62786209920006
 31
0.0
  0
LINE
  5
22A2
330
228D
100
AcDbEntity
  8
0
 62
     0
100
AcDbLine
 10
79.14221133955118
 20
30.82983648709319
 30
0.0
 11
76.34221133955112
 21
33.62983648709326
 31
0.0
  0
LINE
  5
22A3
330
228D
100
AcDbEntity
  8
0
 62
     0
100
AcDbLine
 10
72.84221133955117
 20
37.1298364870932
 30
0.0
 11
71.72204745244653
 21
38.25000037419784
 31
0.0
  0
LINE
  5
22A4
330
228D
100
AcDbEntity
  8
0
 62
     0
100
AcDbLine
 10
84.04221133955122
 20
25.92983648709316
 30
0.0
 11
81.24221133955115
 21
28.72983648709317
 31
0.0
  0
LINE
  5
22A5
330
228D
100
AcDbEntity
  8
0
 62
     0
100
AcDbLine
 10
79.14221133955113
 20
29.9318108749863
 30
0.0
 11
76.34221133955105
 21
32.73181087498631
 31
0.0
  0
LINE
  5
22A6
330
228D
100
AcDbEntity
  8
0
 62
     0
100
AcDbLine
 10
72.84221133955111
 20
36.23181087498625
 30
0.0
 11
70.82402184033958
 21
38.25000037419784
 31
0.0
  0
LINE
  5
22A7
330
228D
100
AcDbEntity
  8
0
 62
     0
100
AcDbLine
 10
84.04221133955122
 20
25.03181087498621
 30
0.0
 11
81.24221133955115
 21
27.83181087498628
 31
0.0
  0
LINE
  5
22A8
330
228D
100
AcDbEntity
  8
0
 62
     0
100
AcDbLine
 10
79.14221133955113
 20
29.03378526287935
 30
0.0
 11
76.34221133955112
 21
31.8337852628793
 31
0.0
  0
LINE
  5
22A9
330
228D
100
AcDbEntity
  8
0
 62
     0
100
AcDbLine
 10
72.84221133955111
 20
35.33378526287936
 30
0.0
 11
70.14244861622711
 21
38.03354798620336
 31
0.0
  0
LINE
  5
22AA
330
228D
100
AcDbEntity
  8
0
 62
     0
100
AcDbLine
 10
84.04221133955116
 20
24.13378526287932
 30
0.0
 11
81.24221133955108
 21
26.93378526287933
 31
0.0
  0
LINE
  5
22AB
330
228D
100
AcDbEntity
  8
0
 62
     0
100
AcDbLine
 10
79.14221133955113
 20
28.1357596507724
 30
0.0
 11
76.34221133955117
 21
30.93575965077241
 31
0.0
  0
LINE
  5
22AC
330
228D
100
AcDbEntity
  8
0
 62
     0
100
AcDbLine
 10
72.84221133955117
 20
34.43575965077241
 30
0.0
 11
70.0422113395511
 21
37.23575965077248
 31
0.0
  0
LINE
  5
22AD
330
228D
100
AcDbEntity
  8
0
 62
     0
100
AcDbLine
 10
84.04221133955122
 20
23.23575965077237
 30
0.0
 11
81.24221133955115
 21
26.03575965077244
 31
0.0
  0
LINE
  5
22AE
330
228D
100
AcDbEntity
  8
0
 62
     0
100
AcDbLine
 10
79.14221133955113
 20
27.23773403866557
 30
0.0
 11
76.34221133955117
 21
30.03773403866552
 31
0.0
  0
LINE
  5
22AF
330
228D
100
AcDbEntity
  8
0
 62
     0
100
AcDbLine
 10
72.84221133955123
 20
33.53773403866546
 30
0.0
 11
70.04221133955105
 21
36.33773403866559
 31
0.0
  0
LINE
  5
22B0
330
228D
100
AcDbEntity
  8
0
 62
     0
100
AcDbLine
 10
83.9702459846614
 20
22.40969939355529
 30
0.0
 11
81.24221133955115
 21
25.13773403866554
 31
0.0
  0
LINE
  5
22B1
330
228D
100
AcDbEntity
  8
0
 62
     0
100
AcDbLine
 10
79.14221133955113
 20
26.33970842655862
 30
0.0
 11
76.34221133955112
 21
29.13970842655857
 31
0.0
  0
LINE
  5
22B2
330
228D
100
AcDbEntity
  8
0
 62
     0
100
AcDbLine
 10
72.84221133955117
 20
32.63970842655857
 30
0.0
 11
70.04221133955105
 21
35.4397084265587
 31
0.0
  0
LINE
  5
22B3
330
228D
100
AcDbEntity
  8
0
 62
     0
100
AcDbLine
 10
83.33191939191204
 20
22.15000037419764
 30
0.0
 11
81.24221133955108
 21
24.23970842655865
 31
0.0
  0
LINE
  5
22B4
330
228D
100
AcDbEntity
  8
0
 62
     0
100
AcDbLine
 10
72.84221133955117
 20
31.74168281445162
 30
0.0
 11
70.0422113395511
 21
34.54168281445169
 31
0.0
  0
LINE
  5
22B5
330
228D
100
AcDbEntity
  8
0
 62
     0
100
AcDbLine
 10
79.14221133955106
 20
25.44168281445172
 30
0.0
 11
76.34221133955112
 21
28.24168281445168
 31
0.0
  0
LINE
  5
22B6
330
228D
100
AcDbEntity
  8
0
 62
     0
100
AcDbLine
 10
67.41721133955116
 20
37.16668281445163
 30
0.0
 11
66.33389377980501
 21
38.25000037419773
 31
0.0
  0
LINE
  5
22B7
330
228D
100
AcDbEntity
  8
0
 62
     0
100
AcDbLine
 10
82.43389377980504
 20
22.1500003741977
 30
0.0
 11
81.24221133955108
 21
23.3416828144517
 31
0.0
  0
LINE
  5
22B8
330
228D
100
AcDbEntity
  8
0
 62
     0
100
AcDbLine
 10
72.84221133955117
 20
30.84365720234473
 30
0.0
 11
70.04221133955116
 21
33.6436572023448
 31
0.0
  0
LINE
  5
22B9
330
228D
100
AcDbEntity
  8
0
 62
     0
100
AcDbLine
 10
67.41721133955116
 20
36.26865720234474
 30
0.0
 11
65.43586816769817
 21
38.25000037419778
 31
0.0
  0
LINE
  5
22BA
330
228D
100
AcDbEntity
  8
0
 62
     0
100
AcDbLine
 10
79.11625303890565
 20
24.5696155029903
 30
0.0
 11
76.34221133955112
 21
27.34365720234479
 31
0.0
  0
LINE
  5
22BB
330
228D
100
AcDbEntity
  8
0
 62
     0
100
AcDbLine
 10
72.84221133955117
 20
29.94563159023784
 30
0.0
 11
70.0422113395511
 21
32.74563159023791
 31
0.0
  0
LINE
  5
22BC
330
228D
100
AcDbEntity
  8
0
 62
     0
100
AcDbLine
 10
67.22163079343733
 20
35.56621213635168
 30
0.0
 11
64.53784255559117
 21
38.25000037419784
 31
0.0
  0
LINE
  5
22BD
330
228D
100
AcDbEntity
  8
0
 62
     0
100
AcDbLine
 10
78.92326774364841
 20
23.86457518614054
 30
0.0
 11
76.34221133955112
 21
26.44563159023789
 31
0.0
  0
LINE
  5
22BE
330
228D
100
AcDbEntity
  8
0
 62
     0
100
AcDbLine
 10
72.84221133955117
 20
29.04760597813089
 30
0.0
 11
70.0422113395511
 21
31.84760597813096
 31
0.0
  0
LINE
  5
22BF
330
228D
100
AcDbEntity
  8
0
 62
     0
100
AcDbLine
 10
66.43981694348434
 20
35.45000037419766
 30
0.0
 11
63.63981694348428
 21
38.25000037419773
 31
0.0
  0
LINE
  5
22C0
330
228D
100
AcDbEntity
  8
0
 62
     0
100
AcDbLine
 10
78.59823586772484
 20
23.29158144995716
 30
0.0
 11
76.2706956003916
 21
25.61912171729046
 31
0.0
  0
LINE
  5
22C1
330
228D
100
AcDbEntity
  8
0
 62
     0
100
AcDbLine
 10
72.84221133955117
 20
28.14958036602405
 30
0.0
 11
70.0422113395511
 21
30.94958036602406
 31
0.0
  0
LINE
  5
22C2
330
228D
100
AcDbEntity
  8
0
 62
     0
100
AcDbLine
 10
65.54179133137751
 20
35.45000037419772
 30
0.0
 11
62.80422460219995
 21
38.18756710337527
 31
0.0
  0
LINE
  5
22C3
330
228D
100
AcDbEntity
  8
0
 62
     0
100
AcDbLine
 10
78.16619407039979
 20
22.82559763517537
 30
0.0
 11
75.86910996192409
 21
25.12268174365107
 31
0.0
  0
LINE
  5
22C4
330
228D
100
AcDbEntity
  8
0
 62
     0
100
AcDbLine
 10
72.84221133955117
 20
27.25155475391711
 30
0.0
 11
70.0422113395511
 21
30.05155475391717
 31
0.0
  0
LINE
  5
22C5
330
228D
100
AcDbEntity
  8
0
 62
     0
100
AcDbLine
 10
64.64376571927051
 20
35.45000037419777
 30
0.0
 11
62.13958417766656
 21
37.95418191580166
 31
0.0
  0
LINE
  5
22C6
330
228D
100
AcDbEntity
  8
0
 62
     0
100
AcDbLine
 10
77.63003172547377
 20
22.46373436799451
 30
0.0
 11
75.1437657192705
 21
24.95000037419777
 31
0.0
  0
LINE
  5
22C7
330
228D
100
AcDbEntity
  8
0
 62
     0
100
AcDbLine
 10
72.84221133955111
 20
26.35352914181016
 30
0.0
 11
70.0422113395511
 21
29.15352914181023
 31
0.0
  0
LINE
  5
22C8
330
228D
100
AcDbEntity
  8
0
 62
     0
100
AcDbLine
 10
63.76752993518159
 20
35.42821054617969
 30
0.0
 11
61.59698324045638
 21
37.59875724090489
 31
0.0
  0
LINE
  5
22C9
330
228D
100
AcDbEntity
  8
0
 62
     0
100
AcDbLine
 10
76.97361916556246
 20
22.22212131579886
 30
0.0
 11
74.24574010716367
 21
24.95000037419766
 31
0.0
  0
LINE
  5
22CA
330
228D
100
AcDbEntity
  8
0
 62
     0
100
AcDbLine
 10
63.39221133955118
 20
34.9055035297032
 30
0.0
 11
61.15887118141182
 21
37.13884368784249
 31
0.0
  0
LINE
  5
22CB
330
228D
100
AcDbEntity
  8
0
 62
     0
100
AcDbLine
 10
76.14771449505667
 20
22.15000037419764
 30
0.0
 11
70.04221133955105
 21
28.25550352970333
 31
0.0
  0
LINE
  5
22CC
330
228D
100
AcDbEntity
  8
0
 62
     0
100
AcDbLine
 10
63.39221133955124
 20
34.00747791759631
 30
0.0
 11
60.8271002690588
 21
36.57258898808874
 31
0.0
  0
LINE
  5
22CD
330
228D
100
AcDbEntity
  8
0
 62
     0
100
AcDbLine
 10
75.24968888294973
 20
22.15000037419776
 30
0.0
 11
70.0422113395511
 21
27.35747791759644
 31
0.0
  0
LINE
  5
22CE
330
228D
100
AcDbEntity
  8
0
 62
     0
100
AcDbLine
 10
63.59875562065503
 20
32.90290802438557
 30
0.0
 11
60.62492174969469
 21
35.87674189534585
 31
0.0
  0
LINE
  5
22CF
330
228D
100
AcDbEntity
  8
0
 62
     0
100
AcDbLine
 10
74.35166327084283
 20
22.15000037419776
 30
0.0
 11
70.04221133955116
 21
26.45945230548944
 31
0.0
  0
LINE
  5
22D0
330
228D
100
AcDbEntity
  8
0
 62
     0
100
AcDbLine
 10
67.81581504224255
 20
27.7878229906911
 30
0.0
 11
60.59221133955111
 21
35.01142669338253
 31
0.0
  0
LINE
  5
22D1
330
228D
100
AcDbEntity
  8
0
 62
     0
100
AcDbLine
 10
58.49221133955109
 20
37.1114266933825
 30
0.0
 11
57.35363765873586
 21
38.25000037419778
 31
0.0
  0
LINE
  5
22D2
330
228D
100
AcDbEntity
  8
0
 62
     0
100
AcDbLine
 10
73.45363765873589
 20
22.15000037419776
 30
0.0
 11
70.0422113395511
 21
25.56142669338249
 31
0.0
  0
LINE
  5
22D3
330
228D
100
AcDbEntity
  8
0
 62
     0
100
AcDbLine
 10
67.94221133955108
 20
26.76340108127573
 30
0.0
 11
60.59221133955117
 21
34.11340108127564
 31
0.0
  0
LINE
  5
22D4
330
228D
100
AcDbEntity
  8
0
 62
     0
100
AcDbLine
 10
58.4922113395512
 20
36.21340108127555
 30
0.0
 11
56.45561204662897
 21
38.25000037419778
 31
0.0
  0
LINE
  5
22D5
330
228D
100
AcDbEntity
  8
0
 62
     0
100
AcDbLine
 10
72.53916416788411
 20
22.1664482529427
 30
0.0
 11
70.05865921829609
 21
24.64695320253071
 31
0.0
  0
LINE
  5
22D6
330
228D
100
AcDbEntity
  8
0
 62
     0
100
AcDbLine
 10
58.4922113395512
 20
35.31537546916866
 30
0.0
 11
55.78482145177588
 21
38.02276535694392
 31
0.0
  0
LINE
  5
22D7
330
228D
100
AcDbEntity
  8
0
 62
     0
100
AcDbLine
 10
67.94221133955113
 20
25.86537546916872
 30
0.0
 11
60.61562200743356
 21
33.1919648012863
 31
0.0
  0
LINE
  5
22D8
330
228D
100
AcDbEntity
  8
0
 62
     0
100
AcDbLine
 10
58.4922113395512
 20
34.41734985706171
 30
0.0
 11
55.69221133955114
 21
37.21734985706178
 31
0.0
  0
LINE
  5
22D9
330
228D
100
AcDbEntity
  8
0
 62
     0
100
AcDbLine
 10
67.94221133955108
 20
24.96734985706178
 30
0.0
 11
60.93374142527358
 21
31.97581977133933
 31
0.0
  0
LINE
  5
22DA
330
228D
100
AcDbEntity
  8
0
 62
     0
100
AcDbLine
 10
58.4922113395512
 20
33.51932424495482
 30
0.0
 11
55.69221133955114
 21
36.31932424495483
 31
0.0
  0
LINE
  5
22DB
330
228D
100
AcDbEntity
  8
0
 62
     0
100
AcDbLine
 10
67.83364952196212
 20
24.1778860625439
 30
0.0
 11
65.13801473292381
 21
26.87352085158221
 31
0.0
  0
LINE
  5
22DC
330
228D
100
AcDbEntity
  8
0
 62
     0
100
AcDbLine
 10
58.4922113395512
 20
32.62129863284793
 30
0.0
 11
55.69221133955114
 21
35.42129863284799
 31
0.0
  0
LINE
  5
22DD
330
228D
100
AcDbEntity
  8
0
 62
     0
100
AcDbLine
 10
53.40072443897418
 20
37.71278553342489
 30
0.0
 11
52.86350959820129
 21
38.25000037419784
 31
0.0
  0
LINE
  5
22DE
330
228D
100
AcDbEntity
  8
0
 62
     0
100
AcDbLine
 10
67.56577381420055
 20
23.54773615819858
 30
0.0
 11
65.14221133955124
 21
25.97129863284789
 31
0.0
  0
LINE
  5
22DF
330
228D
100
AcDbEntity
  8
0
 62
     0
100
AcDbLine
 10
58.49221133955115
 20
31.72327302074098
 30
0.0
 11
55.69221133955114
 21
34.52327302074105
 31
0.0
  0
LINE
  5
22E0
330
228D
100
AcDbEntity
  8
0
 62
     0
100
AcDbLine
 10
53.20179677472157
 20
37.01368758557055
 30
0.0
 11
51.96548398609434
 21
38.25000037419784
 31
0.0
  0
LINE
  5
22E1
330
228D
100
AcDbEntity
  8
0
 62
     0
100
AcDbLine
 10
67.18278701602526
 20
23.03269734426692
 30
0.0
 11
65.04492615666475
 21
25.17055820362742
 31
0.0
  0
LINE
  5
22E2
330
228D
100
AcDbEntity
  8
0
 62
     0
100
AcDbLine
 10
58.49221133955115
 20
30.82524740863409
 30
0.0
 11
55.69221133955108
 21
33.6252474086341
 31
0.0
  0
LINE
  5
22E3
330
228D
100
AcDbEntity
  8
0
 62
     0
100
AcDbLine
 10
52.98627062781588
 20
36.33118812036929
 30
0.0
 11
51.0770550643453
 21
38.24040368383993
 31
0.0
  0
LINE
  5
22E4
330
228D
100
AcDbEntity
  8
0
 62
     0
100
AcDbLine
 10
66.69646805090962
 20
22.62099069727554
 30
0.0
 11
64.36745837398746
 21
24.95000037419777
 31
0.0
  0
LINE
  5
22E5
330
228D
100
AcDbEntity
  8
0
 62
     0
100
AcDbLine
 10
58.4922113395512
 20
29.92722179652719
 30
0.0
 11
55.69221133955114
 21
32.72722179652726
 31
0.0
  0
LINE
  5
22E6
330
228D
100
AcDbEntity
  8
0
 62
     0
100
AcDbLine
 10
52.77074448091036
 20
35.64868865516803
 30
0.0
 11
50.64274448091032
 21
37.77668865516807
 31
0.0
  0
LINE
  5
22E7
330
228D
100
AcDbEntity
  8
0
 62
     0
100
AcDbLine
 10
66.10038410244925
 20
22.31904903362909
 30
0.0
 11
63.46943276188063
 21
24.95000037419777
 31
0.0
  0
LINE
  5
22E8
330
228D
100
AcDbEntity
  8
0
 62
     0
100
AcDbLine
 10
58.49221133955115
 20
29.0291961844203
 30
0.0
 11
55.69221133955108
 21
31.82919618442031
 31
0.0
  0
LINE
  5
22E9
330
228D
100
AcDbEntity
  8
0
 62
     0
100
AcDbLine
 10
52.55521833400462
 20
34.96618918996683
 30
0.0
 11
50.42721833400452
 21
37.09418918996693
 31
0.0
  0
LINE
  5
22EA
330
228D
100
AcDbEntity
  8
0
 62
     0
100
AcDbLine
 10
65.36271145080178
 20
22.15869607316967
 30
0.0
 11
62.57140714977362
 21
24.95000037419783
 31
0.0
  0
LINE
  5
22EB
330
228D
100
AcDbEntity
  8
0
 62
     0
100
AcDbLine
 10
58.49221133955115
 20
28.13117057231335
 30
0.0
 11
55.69221133955114
 21
30.93117057231331
 31
0.0
  0
LINE
  5
22EC
330
228D
100
AcDbEntity
  8
0
 62
     0
100
AcDbLine
 10
52.33969218709893
 20
34.28368972476557
 30
0.0
 11
50.21169218709883
 21
36.41168972476561
 31
0.0
  0
LINE
  5
22ED
330
228D
100
AcDbEntity
  8
0
 62
     0
100
AcDbLine
 10
64.47338153766674
 20
22.15000037419776
 30
0.0
 11
61.67338153766667
 21
24.95000037419783
 31
0.0
  0
LINE
  5
22EE
330
228D
100
AcDbEntity
  8
0
 62
     0
100
AcDbLine
 10
58.49221133955115
 20
27.23314496020646
 30
0.0
 11
55.69221133955119
 21
30.03314496020647
 31
0.0
  0
LINE
  5
22EF
330
228D
100
AcDbEntity
  8
0
 62
     0
100
AcDbLine
 10
52.1241660401933
 20
33.60119025956436
 30
0.0
 11
49.9961660401932
 21
35.72919025956441
 31
0.0
  0
LINE
  5
22F0
330
228D
100
AcDbEntity
  8
0
 62
     0
100
AcDbLine
 10
63.57535592555996
 20
22.1500003741977
 30
0.0
 11
61.14174422826346
 21
24.5836120714942
 31
0.0
  0
LINE
  5
22F1
330
228D
100
AcDbEntity
  8
0
 62
     0
100
AcDbLine
 10
51.90863989328767
 20
32.91869079436299
 30
0.0
 11
49.78063989328757
 21
35.04669079436315
 31
0.0
  0
LINE
  5
22F2
330
228D
100
AcDbEntity
  8
0
 62
     0
100
AcDbLine
 10
58.49221133955115
 20
26.33511934809957
 30
0.0
 11
55.69221133955119
 21
29.13511934809952
 31
0.0
  0
LINE
  5
22F3
330
228D
100
AcDbEntity
  8
0
 62
     0
100
AcDbLine
 10
47.64221133955118
 20
37.18511934809953
 30
0.0
 11
46.57733031345287
 21
38.25000037419778
 31
0.0
  0
LINE
  5
22F4
330
228D
100
AcDbEntity
  8
0
 62
     0
100
AcDbLine
 10
62.67733031345295
 20
22.15000037419776
 30
0.0
 11
61.1172113395512
 21
23.71011934809951
 31
0.0
  0
LINE
  5
22F5
330
228D
100
AcDbEntity
  8
0
 62
     0
100
AcDbLine
 10
51.69311374638187
 20
32.2361913291619
 30
0.0
 11
49.56511374638194
 21
34.36419132916183
 31
0.0
  0
LINE
  5
22F6
330
228D
100
AcDbEntity
  8
0
 62
     0
100
AcDbLine
 10
58.49221133955115
 20
25.43709373599262
 30
0.0
 11
55.69221133955114
 21
28.23709373599263
 31
0.0
  0
LINE
  5
22F7
330
228D
100
AcDbEntity
  8
0
 62
     0
100
AcDbLine
 10
47.64221133955118
 20
36.28709373599259
 30
0.0
 11
45.67930470134598
 21
38.25000037419778
 31
0.0
  0
LINE
  5
22F8
330
228D
100
AcDbEntity
  8
0
 62
     0
100
AcDbLine
 10
61.77930470134606
 20
22.15000037419764
 30
0.0
 11
61.11721133955114
 21
22.81209373599256
 31
0.0
  0
LINE
  5
22F9
330
228D
100
AcDbEntity
  8
0
 62
     0
100
AcDbLine
 10
51.47758759947624
 20
31.55369186396058
 30
0.0
 11
49.34958759947619
 21
33.68169186396062
 31
0.0
  0
LINE
  5
22FA
330
228D
100
AcDbEntity
  8
0
 62
     0
100
AcDbLine
 10
47.64221133955112
 20
35.38906812388564
 30
0.0
 11
44.96676641065351
 21
38.0645130527833
 31
0.0
  0
LINE
  5
22FB
330
228D
100
AcDbEntity
  8
0
 62
     0
100
AcDbLine
 10
58.49221133955109
 20
24.53906812388573
 30
0.0
 11
55.69221133955114
 21
27.33906812388568
 31
0.0
  0
LINE
  5
22FC
330
228D
100
AcDbEntity
  8
0
 62
     0
100
AcDbLine
 10
51.26206145257061
 20
30.87119239875938
 30
0.0
 11
49.13406145257062
 21
32.99919239875936
 31
0.0
  0
LINE
  5
22FD
330
228D
100
AcDbEntity
  8
0
 62
     0
100
AcDbLine
 10
47.64221133955118
 20
34.4910425117788
 30
0.0
 11
44.84221133955111
 21
37.29104251177882
 31
0.0
  0
LINE
  5
22FE
330
228D
100
AcDbEntity
  8
0
 62
     0
100
AcDbLine
 10
58.49221133955115
 20
23.64104251177884
 30
0.0
 11
55.69221133955114
 21
26.44104251177879
 31
0.0
  0
LINE
  5
22FF
330
228D
100
AcDbEntity
  8
0
 62
     0
100
AcDbLine
 10
51.05697294317855
 20
30.17825529604448
 30
0.0
 11
48.91853530566487
 21
32.31669293355816
 31
0.0
  0
LINE
  5
2300
330
228D
100
AcDbEntity
  8
0
 62
     0
100
AcDbLine
 10
47.64221133955118
 20
33.59301689967185
 30
0.0
 11
44.84221133955111
 21
36.39301689967192
 31
0.0
  0
LINE
  5
2301
330
228D
100
AcDbEntity
  8
0
 62
     0
100
AcDbLine
 10
58.49221133955109
 20
22.74301689967189
 30
0.0
 11
55.69221133955114
 21
25.5430168996719
 31
0.0
  0
LINE
  5
2302
330
228D
100
AcDbEntity
  8
0
 62
     0
100
AcDbLine
 10
51.47144630261255
 20
28.86575632450354
 30
0.0
 11
48.62798780998025
 21
31.70921481713583
 31
0.0
  0
LINE
  5
2303
330
228D
100
AcDbEntity
  8
0
 62
     0
100
AcDbLine
 10
47.64221133955124
 20
32.69499128756485
 30
0.0
 11
44.84221133955105
 21
35.49499128756497
 31
0.0
  0
LINE
  5
2304
330
228D
100
AcDbEntity
  8
0
 62
     0
100
AcDbLine
 10
58.15316634221876
 20
22.18403628489728
 30
0.0
 11
55.69221133955114
 21
24.64499128756495
 31
0.0
  0
LINE
  5
2305
330
228D
100
AcDbEntity
  8
0
 62
     0
100
AcDbLine
 10
51.88591966204654
 20
27.55325735296271
 30
0.0
 11
44.84221133955111
 21
34.59696567545814
 31
0.0
  0
LINE
  5
2306
330
228D
100
AcDbEntity
  8
0
 62
     0
100
AcDbLine
 10
42.39221133955124
 20
37.04696567545801
 30
0.0
 11
41.18917664081147
 21
38.25000037419778
 31
0.0
  0
LINE
  5
2307
330
228D
100
AcDbEntity
  8
0
 62
     0
100
AcDbLine
 10
57.28917664081149
 20
22.15000037419776
 30
0.0
 11
55.69221133955124
 21
23.746965675458
 31
0.0
  0
LINE
  5
2308
330
228D
100
AcDbEntity
  8
0
 62
     0
100
AcDbLine
 10
52.30039302148043
 20
26.24075838142187
 30
0.0
 11
44.84221133955111
 21
33.69894006335119
 31
0.0
  0
LINE
  5
2309
330
228D
100
AcDbEntity
  8
0
 62
     0
100
AcDbLine
 10
42.39221133955124
 20
36.14894006335106
 30
0.0
 11
40.29115102870446
 21
38.25000037419784
 31
0.0
  0
LINE
  5
230A
330
228D
100
AcDbEntity
  8
0
 62
     0
100
AcDbLine
 10
56.39115102870454
 20
22.1500003741977
 30
0.0
 11
55.69221133955119
 21
22.84894006335111
 31
0.0
  0
LINE
  5
230B
330
228D
100
AcDbEntity
  8
0
 62
     0
100
AcDbLine
 10
42.12530464416113
 20
35.51782114663422
 30
0.0
 11
39.42508292594971
 21
38.21804286484559
 31
0.0
  0
LINE
  5
230C
330
228D
100
AcDbEntity
  8
0
 62
     0
100
AcDbLine
 10
52.71486638091443
 20
24.92825940988093
 30
0.0
 11
44.84221133955105
 21
32.8009144512443
 31
0.0
  0
LINE
  5
230D
330
228D
100
AcDbEntity
  8
0
 62
     0
100
AcDbLine
 10
47.97972026189279
 20
28.76537991679567
 30
0.0
 11
44.84221133955111
 21
31.90288883913735
 31
0.0
  0
LINE
  5
230E
330
228D
100
AcDbEntity
  8
0
 62
     0
100
AcDbLine
 10
41.29509980449069
 20
35.45000037419772
 30
0.0
 11
38.68703985636244
 21
38.05806032232601
 31
0.0
  0
LINE
  5
230F
330
228D
100
AcDbEntity
  8
0
 62
     0
100
AcDbLine
 10
53.12933974034843
 20
23.61576043834003
 30
0.0
 11
49.03703204804049
 21
27.70806813064798
 31
0.0
  0
LINE
  5
2310
330
228D
100
AcDbEntity
  8
0
 62
     0
100
AcDbLine
 10
47.64221133955124
 20
28.20486322703033
 30
0.0
 11
44.84221133955105
 21
31.00486322703046
 31
0.0
  0
LINE
  5
2311
330
228D
100
AcDbEntity
  8
0
 62
     0
100
AcDbLine
 10
40.39707419238368
 20
35.45000037419783
 30
0.0
 11
38.04831844053172
 21
37.7987561260498
 31
0.0
  0
LINE
  5
2312
330
228D
100
AcDbEntity
  8
0
 62
     0
100
AcDbLine
 10
53.3643785980592
 20
22.48269596852231
 30
0.0
 11
49.45150540747443
 21
26.39556915910714
 31
0.0
  0
LINE
  5
2313
330
228D
100
AcDbEntity
  8
0
 62
     0
100
AcDbLine
 10
47.64221133955118
 20
27.30683761492344
 30
0.0
 11
44.84221133955105
 21
30.10683761492356
 31
0.0
  0
LINE
  5
2314
330
228D
100
AcDbEntity
  8
0
 62
     0
100
AcDbLine
 10
39.55396068984015
 20
35.39508826463447
 30
0.0
 11
37.48956946519718
 21
37.45947948927744
 31
0.0
  0
LINE
  5
2315
330
228D
100
AcDbEntity
  8
0
 62
     0
100
AcDbLine
 10
52.79904858027686
 20
22.15000037419776
 30
0.0
 11
49.86597876690848
 21
25.08307018756608
 31
0.0
  0
LINE
  5
2316
330
228D
100
AcDbEntity
  8
0
 62
     0
100
AcDbLine
 10
47.64221133955118
 20
26.40881200281649
 30
0.0
 11
44.84221133955105
 21
29.20881200281661
 31
0.0
  0
LINE
  5
2317
330
228D
100
AcDbEntity
  8
0
 62
     0
100
AcDbLine
 10
38.98210449700116
 20
35.06891884536651
 30
0.0
 11
37.0019142565854
 21
37.04910908578228
 31
0.0
  0
LINE
  5
2318
330
228D
100
AcDbEntity
  8
0
 62
     0
100
AcDbLine
 10
51.90102296816991
 20
22.15000037419776
 30
0.0
 11
50.28045212634243
 21
23.77057121602525
 31
0.0
  0
LINE
  5
2319
330
228D
100
AcDbEntity
  8
0
 62
     0
100
AcDbLine
 10
42.72764047234892
 20
30.42535725791192
 30
0.0
 11
41.21756822326517
 21
31.93542950699566
 31
0.0
  0
LINE
  5
231A
330
228D
100
AcDbEntity
  8
0
 62
     0
100
AcDbLine
 10
47.64221133955118
 20
25.5107863907096
 30
0.0
 11
44.84221133955105
 21
28.31078639070978
 31
0.0
  0
LINE
  5
231B
330
228D
100
AcDbEntity
  8
0
 62
     0
100
AcDbLine
 10
38.62598292687221
 20
34.52701480338863
 30
0.0
 11
36.58254823057416
 21
36.57044949968668
 31
0.0
  0
LINE
  5
231C
330
228D
100
AcDbEntity
  8
0
 62
     0
100
AcDbLine
 10
50.9526643518584
 20
22.20033337840243
 30
0.0
 11
50.70231018026709
 21
22.45068754999374
 31
0.0
  0
LINE
  5
231D
330
228D
100
AcDbEntity
  8
0
 62
     0
100
AcDbLine
 10
42.64112681220701
 20
29.61384530594688
 30
0.0
 11
40.40605627130014
 21
31.84891584685374
 31
0.0
  0
LINE
  5
231E
330
228D
100
AcDbEntity
  8
0
 62
     0
100
AcDbLine
 10
38.54221133955127
 20
33.71276077860262
 30
0.0
 11
36.2336092096125
 21
36.02136290854139
 31
0.0
  0
LINE
  5
231F
330
228D
100
AcDbEntity
  8
0
 62
     0
100
AcDbLine
 10
47.64221133955118
 20
24.61276077860271
 30
0.0
 11
44.84221133955105
 21
27.41276077860283
 31
0.0
  0
LINE
  5
2320
330
228D
100
AcDbEntity
  8
0
 62
     0
100
AcDbLine
 10
42.30927125290896
 20
29.04767525313793
 30
0.0
 11
39.83988621849119
 21
31.51706028755569
 31
0.0
  0
LINE
  5
2321
330
228D
100
AcDbEntity
  8
0
 62
     0
100
AcDbLine
 10
38.54221133955127
 20
32.81473516649567
 30
0.0
 11
35.96302950240232
 21
35.39391700364462
 31
0.0
  0
LINE
  5
2322
330
228D
100
AcDbEntity
  8
0
 62
     0
100
AcDbLine
 10
47.64221133955118
 20
23.71473516649576
 30
0.0
 11
44.84221133955111
 21
26.51473516649583
 31
0.0
  0
LINE
  5
2323
330
228D
100
AcDbEntity
  8
0
 62
     0
100
AcDbLine
 10
38.54221133955127
 20
31.91670955438878
 30
0.0
 11
35.78831562947647
 21
34.67060526446363
 31
0.0
  0
LINE
  5
2324
330
228D
100
AcDbEntity
  8
0
 62
     0
100
AcDbLine
 10
41.80743781077251
 20
28.65148308316759
 30
0.0
 11
39.44369404852086
 21
31.01522684541925
 31
0.0
  0
LINE
  5
2325
330
228D
100
AcDbEntity
  8
0
 62
     0
100
AcDbLine
 10
33.11721133955109
 20
37.34170955438896
 30
0.0
 11
32.20892051974221
 21
38.2500003741979
 31
0.0
  0
LINE
  5
2326
330
228D
100
AcDbEntity
  8
0
 62
     0
100
AcDbLine
 10
47.64221133955118
 20
22.81670955438892
 30
0.0
 11
44.84221133955111
 21
25.61670955438894
 31
0.0
  0
LINE
  5
2327
330
228D
100
AcDbEntity
  8
0
 62
     0
100
AcDbLine
 10
38.54221133955127
 20
31.01868394228188
 30
0.0
 11
35.74221133955115
 21
33.81868394228201
 31
0.0
  0
LINE
  5
2328
330
228D
100
AcDbEntity
  8
0
 62
     0
100
AcDbLine
 10
41.10711836834508
 20
28.45377691348807
 30
0.0
 11
39.24598787884134
 21
30.31490740299182
 31
0.0
  0
LINE
  5
2329
330
228D
100
AcDbEntity
  8
0
 62
     0
100
AcDbLine
 10
33.11721133955109
 20
36.44368394228207
 30
0.0
 11
31.31089490763526
 21
38.25000037419784
 31
0.0
  0
LINE
  5
232A
330
228D
100
AcDbEntity
  8
0
 62
     0
100
AcDbLine
 10
47.35430753828057
 20
22.20658774355257
 30
0.0
 11
44.84221133955111
 21
24.71868394228204
 31
0.0
  0
LINE
  5
232B
330
228D
100
AcDbEntity
  8
0
 62
     0
100
AcDbLine
 10
38.54221133955127
 20
30.12065833017493
 30
0.0
 11
35.74221133955109
 21
32.92065833017506
 31
0.0
  0
LINE
  5
232C
330
228D
100
AcDbEntity
  8
0
 62
     0
100
AcDbLine
 10
33.00817736928082
 20
35.65469230044539
 30
0.0
 11
30.41286929552837
 21
38.25000037419784
 31
0.0
  0
LINE
  5
232D
330
228D
100
AcDbEntity
  8
0
 62
     0
100
AcDbLine
 10
46.51286929552845
 20
22.1500003741977
 30
0.0
 11
44.84221133955111
 21
23.82065833017509
 31
0.0
  0
LINE
  5
232E
330
228D
100
AcDbEntity
  8
0
 62
     0
100
AcDbLine
 10
38.54221133955121
 20
29.22263271806804
 30
0.0
 11
35.74221133955109
 21
32.02263271806817
 31
0.0
  0
LINE
  5
232F
330
228D
100
AcDbEntity
  8
0
 62
     0
100
AcDbLine
 10
32.31484368342149
 20
35.45000037419777
 30
0.0
 11
29.51484368342153
 21
38.25000037419773
 31
0.0
  0
LINE
  5
2330
330
228D
100
AcDbEntity
  8
0
 62
     0
100
AcDbLine
 10
45.61484368342155
 20
22.1500003741977
 30
0.0
 11
44.84221133955105
 21
22.9226327180682
 31
0.0
  0
LINE
  5
2331
330
228D
100
AcDbEntity
  8
0
 62
     0
100
AcDbLine
 10
38.54221133955127
 20
28.32460710596115
 30
0.0
 11
35.74221133955115
 21
31.12460710596128
 31
0.0
  0
LINE
  5
2332
330
228D
100
AcDbEntity
  8
0
 62
     0
100
AcDbLine
 10
31.4168180713146
 20
35.45000037419777
 30
0.0
 11
28.6516887992097
 21
38.21512964630273
 31
0.0
  0
LINE
  5
2333
330
228D
100
AcDbEntity
  8
0
 62
     0
100
AcDbLine
 10
42.38960889071427
 20
24.47720955479809
 30
0.0
 11
41.91942052015156
 21
24.94739792536086
 31
0.0
  0
LINE
  5
2334
330
228D
100
AcDbEntity
  8
0
 62
     0
100
AcDbLine
 10
38.54221133955121
 20
27.4265814938542
 30
0.0
 11
35.74221133955109
 21
30.22658149385438
 31
0.0
  0
LINE
  5
2335
330
228D
100
AcDbEntity
  8
0
 62
     0
100
AcDbLine
 10
30.5187924592077
 20
35.45000037419777
 30
0.0
 11
27.95855399073122
 21
38.01023884267426
 31
0.0
  0
LINE
  5
2336
330
228D
100
AcDbEntity
  8
0
 62
     0
100
AcDbLine
 10
42.39221133955118
 20
23.57658149385423
 30
0.0
 11
41.0187924592077
 21
24.95000037419777
 31
0.0
  0
LINE
  5
2337
330
228D
100
AcDbEntity
  8
0
 62
     0
100
AcDbLine
 10
38.54221133955121
 20
26.52855588174731
 30
0.0
 11
35.74221133955109
 21
29.32855588174744
 31
0.0
  0
LINE
  5
2338
330
228D
100
AcDbEntity
  8
0
 62
     0
100
AcDbLine
 10
29.62076684710075
 20
35.45000037419772
 30
0.0
 11
27.39430733088398
 21
37.67645989041449
 31
0.0
  0
LINE
  5
2339
330
228D
100
AcDbEntity
  8
0
 62
     0
100
AcDbLine
 10
42.39221133955118
 20
22.67855588174734
 30
0.0
 11
40.12076684710075
 21
24.95000037419771
 31
0.0
  0
LINE
  5
233A
330
228D
100
AcDbEntity
  8
0
 62
     0
100
AcDbLine
 10
29.11047401948616
 20
35.06226758970553
 30
0.0
 11
26.93621451864323
 21
37.23652709054846
 31
0.0
  0
LINE
  5
233B
330
228D
100
AcDbEntity
  8
0
 62
     0
100
AcDbLine
 10
42.00447855505887
 20
22.16826305413281
 30
0.0
 11
35.74221133955109
 21
28.43053026964054
 31
0.0
  0
LINE
  5
233C
330
228D
100
AcDbEntity
  8
0
 62
     0
100
AcDbLine
 10
29.09221133955112
 20
34.18250465753357
 30
0.0
 11
26.58273331617414
 21
36.6919826809106
 31
0.0
  0
LINE
  5
233D
330
228D
100
AcDbEntity
  8
0
 62
     0
100
AcDbLine
 10
41.12471562288703
 20
22.1500003741977
 30
0.0
 11
35.74221133955109
 21
27.53250465753365
 31
0.0
  0
LINE
  5
233E
330
228D
100
AcDbEntity
  8
0
 62
     0
100
AcDbLine
 10
29.15434704768666
 20
33.22234333729108
 30
0.0
 11
26.35185321388042
 21
36.02483717109738
 31
0.0
  0
LINE
  5
233F
330
228D
100
AcDbEntity
  8
0
 62
     0
100
AcDbLine
 10
40.22669001078009
 20
22.15000037419764
 30
0.0
 11
35.74221133955109
 21
26.6344790454267
 31
0.0
  0
LINE
  5
2340
330
228D
100
AcDbEntity
  8
0
 62
     0
100
AcDbLine
 10
33.44658743077389
 20
28.03207734209701
 30
0.0
 11
26.2922113395511
 21
35.1864534333198
 31
0.0
  0
LINE
  5
2341
330
228D
100
AcDbEntity
  8
0
 62
     0
100
AcDbLine
 10
39.27539231161643
 20
22.20327246125447
 30
0.0
 11
35.79548342660786
 21
25.68318134626304
 31
0.0
  0
LINE
  5
2342
330
228D
100
AcDbEntity
  8
0
 62
     0
100
AcDbLine
 10
33.63848194485911
 20
26.9421572159049
 30
0.0
 11
26.29221133955116
 21
34.28842782121285
 31
0.0
  0
LINE
  5
2343
330
228D
100
AcDbEntity
  8
0
 62
     0
100
AcDbLine
 10
37.90158439901484
 20
22.67905476174911
 30
0.0
 11
36.27126572710245
 21
24.30937343366156
 31
0.0
  0
LINE
  5
2344
330
228D
100
AcDbEntity
  8
0
 62
     0
100
AcDbLine
 10
33.64221133955124
 20
26.04040220910582
 30
0.0
 11
26.29977578697356
 21
33.38283776168345
 31
0.0
  0
LINE
  5
2345
330
228D
100
AcDbEntity
  8
0
 62
     0
100
AcDbLine
 10
33.64221133955118
 20
25.14237659699893
 30
0.0
 11
26.52306654529741
 21
32.26152139125264
 31
0.0
  0
LINE
  5
2346
330
228D
100
AcDbEntity
  8
0
 62
     0
100
AcDbLine
 10
33.56969134341927
 20
24.31687098102401
 30
0.0
 11
30.80629969980021
 21
27.08026262464307
 31
0.0
  0
LINE
  5
2347
330
228D
100
AcDbEntity
  8
0
 62
     0
100
AcDbLine
 10
33.32775340439042
 20
23.66078330794591
 30
0.0
 11
30.84221133955117
 21
26.14632537278516
 31
0.0
  0
LINE
  5
2348
330
228D
100
AcDbEntity
  8
0
 62
     0
100
AcDbLine
 10
32.96563415700865
 20
23.12487694322073
 30
0.0
 11
30.8063123072505
 21
25.28419879297889
 31
0.0
  0
LINE
  5
2349
330
228D
100
AcDbEntity
  8
0
 62
     0
100
AcDbLine
 10
32.49940778474178
 20
22.69307770338071
 30
0.0
 11
30.24248511392466
 21
24.95000037419789
 31
0.0
  0
LINE
  5
234A
330
228D
100
AcDbEntity
  8
0
 62
     0
100
AcDbLine
 10
31.92614333700897
 20
22.36831653900663
 30
0.0
 11
29.34445950181771
 21
24.95000037419783
 31
0.0
  0
LINE
  5
234B
330
228D
100
AcDbEntity
  8
0
 62
     0
100
AcDbLine
 10
31.22073074792303
 20
22.17570351598562
 30
0.0
 11
28.44643388971088
 21
24.95000037419777
 31
0.0
  0
LINE
  5
234C
330
228D
100
AcDbEntity
  8
0
 62
     0
100
AcDbLine
 10
30.348408277604
 20
22.15000037419764
 30
0.0
 11
27.54840827760399
 21
24.95000037419771
 31
0.0
  0
LINE
  5
234D
330
228D
100
AcDbEntity
  8
0
 62
     0
100
AcDbLine
 10
29.45038266549705
 20
22.15000037419776
 30
0.0
 11
26.89705877067917
 21
24.7033242690157
 31
0.0
  0
LINE
  5
234E
330
228D
100
AcDbEntity
  8
0
 62
     0
100
AcDbLine
 10
28.55235705339016
 20
22.15000037419776
 30
0.0
 11
26.81721133955119
 21
23.88514608803672
 31
0.0
  0
LINE
  5
234F
330
228D
100
AcDbEntity
  8
0
 62
     0
100
AcDbLine
 10
27.65433144128321
 20
22.15000037419776
 30
0.0
 11
26.81721133955119
 21
22.98712047592977
 31
0.0
  0
LINE
  5
2350
330
228D
100
AcDbEntity
  8
0
 62
     0
100
AcDbLine
 10
83.63389862421815
 20
22.16313215131533
 30
0.0
 11
84.02907956243394
 21
22.55831308953111
 31
0.0
  0
LINE
  5
2351
330
228D
100
AcDbEntity
  8
0
 62
     0
100
AcDbLine
 10
82.7227412349937
 20
22.1500003741977
 30
0.0
 11
84.04221133955138
 21
23.4694704787554
 31
0.0
  0
LINE
  5
2352
330
228D
100
AcDbEntity
  8
0
 62
     0
100
AcDbLine
 10
81.8247156228868
 20
22.1500003741977
 30
0.0
 11
84.04221133955138
 21
24.36749609086229
 31
0.0
  0
LINE
  5
2353
330
228D
100
AcDbEntity
  8
0
 62
     0
100
AcDbLine
 10
81.27340890280306
 20
22.49671926622091
 30
0.0
 11
84.04221133955132
 21
25.26552170296924
 31
0.0
  0
LINE
  5
2354
330
228D
100
AcDbEntity
  8
0
 62
     0
100
AcDbLine
 10
81.24221133955126
 20
23.36354731507606
 30
0.0
 11
84.04221133955132
 21
26.16354731507608
 31
0.0
  0
LINE
  5
2355
330
228D
100
AcDbEntity
  8
0
 62
     0
100
AcDbLine
 10
81.24221133955131
 20
24.26157292718296
 30
0.0
 11
84.04221133955132
 21
27.06157292718302
 31
0.0
  0
LINE
  5
2356
330
228D
100
AcDbEntity
  8
0
 62
     0
100
AcDbLine
 10
81.24221133955126
 20
25.1595985392899
 30
0.0
 11
84.04221133955132
 21
27.95959853928997
 31
0.0
  0
LINE
  5
2357
330
228D
100
AcDbEntity
  8
0
 62
     0
100
AcDbLine
 10
81.24221133955126
 20
26.05762415139679
 30
0.0
 11
84.04221133955132
 21
28.85762415139686
 31
0.0
  0
LINE
  5
2358
330
228D
100
AcDbEntity
  8
0
 62
     0
100
AcDbLine
 10
77.66877620161654
 20
22.48418901346207
 30
0.0
 11
78.80802270028709
 21
23.62343551213269
 31
0.0
  0
LINE
  5
2359
330
228D
100
AcDbEntity
  8
0
 62
     0
100
AcDbLine
 10
81.24221133955126
 20
26.95564976350369
 30
0.0
 11
84.04221133955132
 21
29.75564976350375
 31
0.0
  0
LINE
  5
235A
330
228D
100
AcDbEntity
  8
0
 62
     0
100
AcDbLine
 10
76.43820803509374
 20
22.15164645904616
 30
0.0
 11
79.14056525470306
 21
24.85400367865543
 31
0.0
  0
LINE
  5
235B
330
228D
100
AcDbEntity
  8
0
 62
     0
100
AcDbLine
 10
81.24221133955126
 20
27.85367537561064
 30
0.0
 11
84.04221133955132
 21
30.65367537561065
 31
0.0
  0
LINE
  5
235C
330
228D
100
AcDbEntity
  8
0
 62
     0
100
AcDbLine
 10
75.53853633813833
 20
22.1500003741977
 30
0.0
 11
79.14221133955135
 21
25.75367537561067
 31
0.0
  0
LINE
  5
235D
330
228D
100
AcDbEntity
  8
0
 62
     0
100
AcDbLine
 10
81.24221133955126
 20
28.75170098771753
 30
0.0
 11
84.04221133955127
 21
31.5517009877176
 31
0.0
  0
LINE
  5
235E
330
228D
100
AcDbEntity
  8
0
 62
     0
100
AcDbLine
 10
74.64051072603144
 20
22.1500003741977
 30
0.0
 11
79.1422113395513
 21
26.65170098771762
 31
0.0
  0
LINE
  5
235F
330
228D
100
AcDbEntity
  8
0
 62
     0
100
AcDbLine
 10
81.24221133955126
 20
29.64972659982442
 30
0.0
 11
84.04221133955132
 21
32.44972659982449
 31
0.0
  0
LINE
  5
2360
330
228D
100
AcDbEntity
  8
0
 62
     0
100
AcDbLine
 10
73.7424851139246
 20
22.15000037419776
 30
0.0
 11
79.14221133955135
 21
27.54972659982451
 31
0.0
  0
LINE
  5
2361
330
228D
100
AcDbEntity
  8
0
 62
     0
100
AcDbLine
 10
76.23762013747023
 20
25.54316100985034
 30
0.0
 11
79.14221133955135
 21
28.4477522119314
 31
0.0
  0
LINE
  5
2362
330
228D
100
AcDbEntity
  8
0
 62
     0
100
AcDbLine
 10
81.24221133955126
 20
30.54775221193131
 30
0.0
 11
84.04221133955132
 21
33.34775221193138
 31
0.0
  0
LINE
  5
2363
330
228D
100
AcDbEntity
  8
0
 62
     0
100
AcDbLine
 10
72.84445950181759
 20
22.1500003741977
 30
0.0
 11
75.74905070389871
 21
25.05459157627877
 31
0.0
  0
LINE
  5
2364
330
228D
100
AcDbEntity
  8
0
 62
     0
100
AcDbLine
 10
76.34221133955122
 20
26.54577782403829
 30
0.0
 11
79.1422113395513
 21
29.34577782403835
 31
0.0
  0
LINE
  5
2365
330
228D
100
AcDbEntity
  8
0
 62
     0
100
AcDbLine
 10
81.24221133955121
 20
31.44577782403826
 30
0.0
 11
84.04221133955127
 21
34.24577782403833
 31
0.0
  0
LINE
  5
2366
330
228D
100
AcDbEntity
  8
0
 62
     0
100
AcDbLine
 10
72.05838364108791
 20
22.26195012557491
 30
0.0
 11
74.74643388971077
 21
24.95000037419777
 31
0.0
  0
LINE
  5
2367
330
228D
100
AcDbEntity
  8
0
 62
     0
100
AcDbLine
 10
76.34221133955128
 20
27.44380343614529
 30
0.0
 11
79.1422113395513
 21
30.24380343614524
 31
0.0
  0
LINE
  5
2368
330
228D
100
AcDbEntity
  8
0
 62
     0
100
AcDbLine
 10
81.24221133955121
 20
32.34380343614521
 30
0.0
 11
84.04221133955127
 21
35.14380343614522
 31
0.0
  0
LINE
  5
2369
330
228D
100
AcDbEntity
  8
0
 62
     0
100
AcDbLine
 10
71.43039677387776
 20
22.53198887047176
 30
0.0
 11
73.8492860632482
 21
24.9508781598422
 31
0.0
  0
LINE
  5
236A
330
228D
100
AcDbEntity
  8
0
 62
     0
100
AcDbLine
 10
76.34221133955134
 20
28.34182904825218
 30
0.0
 11
79.1422113395513
 21
31.14182904825213
 31
0.0
  0
LINE
  5
236B
330
228D
100
AcDbEntity
  8
0
 62
     0
100
AcDbLine
 10
81.24221133955126
 20
33.24182904825204
 30
0.0
 11
84.04221133955127
 21
36.04182904825211
 31
0.0
  0
LINE
  5
236C
330
228D
100
AcDbEntity
  8
0
 62
     0
100
AcDbLine
 10
70.91713689251259
 20
22.91675460121343
 30
0.0
 11
73.20580747453551
 21
25.20542518323634
 31
0.0
  0
LINE
  5
236D
330
228D
100
AcDbEntity
  8
0
 62
     0
100
AcDbLine
 10
76.34221133955134
 20
29.23985466035907
 30
0.0
 11
79.1422113395513
 21
32.03985466035908
 31
0.0
  0
LINE
  5
236E
330
228D
100
AcDbEntity
  8
0
 62
     0
100
AcDbLine
 10
81.24221133955121
 20
34.13985466035899
 30
0.0
 11
84.04221133955127
 21
36.93985466035906
 31
0.0
  0
LINE
  5
236F
330
228D
100
AcDbEntity
  8
0
 62
     0
100
AcDbLine
 10
70.50717271728757
 20
23.4048160380953
 30
0.0
 11
72.86856919612609
 21
25.76621251693388
 31
0.0
  0
LINE
  5
2370
330
228D
100
AcDbEntity
  8
0
 62
     0
100
AcDbLine
 10
76.34221133955128
 20
30.13788027246602
 30
0.0
 11
79.14221133955135
 21
32.93788027246609
 31
0.0
  0
LINE
  5
2371
330
228D
100
AcDbEntity
  8
0
 62
     0
100
AcDbLine
 10
81.24221133955121
 20
35.03788027246589
 30
0.0
 11
84.03206218600081
 21
37.82773111891555
 31
0.0
  0
LINE
  5
2372
330
228D
100
AcDbEntity
  8
0
 62
     0
100
AcDbLine
 10
70.20724783885356
 20
24.0029167717683
 30
0.0
 11
72.84221133955128
 21
26.63788027246596
 31
0.0
  0
LINE
  5
2373
330
228D
100
AcDbEntity
  8
0
 62
     0
100
AcDbLine
 10
76.34221133955134
 20
31.03590588457286
 30
0.0
 11
79.14221133955141
 21
33.83590588457292
 31
0.0
  0
LINE
  5
2374
330
228D
100
AcDbEntity
  8
0
 62
     0
100
AcDbLine
 10
81.24221133955121
 20
35.93590588457278
 30
0.0
 11
83.55494784092133
 21
38.2486423859429
 31
0.0
  0
LINE
  5
2375
330
228D
100
AcDbEntity
  8
0
 62
     0
100
AcDbLine
 10
70.04983430389711
 20
24.74352884891869
 30
0.0
 11
72.84221133955128
 21
27.53590588457285
 31
0.0
  0
LINE
  5
2376
330
228D
100
AcDbEntity
  8
0
 62
     0
100
AcDbLine
 10
76.34221133955128
 20
31.93393149667981
 30
0.0
 11
79.14221133955135
 21
34.73393149667987
 31
0.0
  0
LINE
  5
2377
330
228D
100
AcDbEntity
  8
0
 62
     0
100
AcDbLine
 10
81.24221133955121
 20
36.83393149667973
 30
0.0
 11
82.65828021706926
 21
38.25000037419778
 31
0.0
  0
LINE
  5
2378
330
228D
100
AcDbEntity
  8
0
 62
     0
100
AcDbLine
 10
70.04221133955133
 20
25.63393149667979
 30
0.0
 11
72.84221133955134
 21
28.43393149667986
 31
0.0
  0
LINE
  5
2379
330
228D
100
AcDbEntity
  8
0
 62
     0
100
AcDbLine
 10
76.34221133955128
 20
32.83195710878676
 30
0.0
 11
79.14221133955135
 21
35.63195710878677
 31
0.0
  0
LINE
  5
237A
330
228D
100
AcDbEntity
  8
0
 62
     0
100
AcDbLine
 10
70.04221133955127
 20
26.53195710878674
 30
0.0
 11
72.84221133955134
 21
29.33195710878681
 31
0.0
  0
LINE
  5
237B
330
228D
100
AcDbEntity
  8
0
 62
     0
100
AcDbLine
 10
81.24225805429871
 20
37.73200382353417
 30
0.0
 11
81.76020789021498
 21
38.2499536594504
 31
0.0
  0
LINE
  5
237C
330
228D
100
AcDbEntity
  8
0
 62
     0
100
AcDbLine
 10
65.72065570883927
 20
22.21040147807469
 30
0.0
 11
67.88181023567443
 21
24.37155600490991
 31
0.0
  0
LINE
  5
237D
330
228D
100
AcDbEntity
  8
0
 62
     0
100
AcDbLine
 10
70.04221133955127
 20
27.42998272089363
 30
0.0
 11
72.84221133955134
 21
30.2299827208937
 31
0.0
  0
LINE
  5
237E
330
228D
100
AcDbEntity
  8
0
 62
     0
100
AcDbLine
 10
76.34221133955128
 20
33.72998272089365
 30
0.0
 11
79.1422113395513
 21
36.52998272089372
 31
0.0
  0
LINE
  5
237F
330
228D
100
AcDbEntity
  8
0
 62
     0
100
AcDbLine
 10
64.7622289928554
 20
22.15000037419782
 30
0.0
 11
67.94221133955125
 21
25.32998272089367
 31
0.0
  0
LINE
  5
2380
330
228D
100
AcDbEntity
  8
0
 62
     0
100
AcDbLine
 10
70.04221133955127
 20
28.32800833300053
 30
0.0
 11
72.84221133955134
 21
31.1280083330006
 31
0.0
  0
LINE
  5
2381
330
228D
100
AcDbEntity
  8
0
 62
     0
100
AcDbLine
 10
76.34221133955128
 20
34.62800833300054
 30
0.0
 11
79.14221133955135
 21
37.42800833300061
 31
0.0
  0
LINE
  5
2382
330
228D
100
AcDbEntity
  8
0
 62
     0
100
AcDbLine
 10
63.8642033807485
 20
22.15000037419776
 30
0.0
 11
67.9422113395513
 21
26.2280083330005
 31
0.0
  0
LINE
  5
2383
330
228D
100
AcDbEntity
  8
0
 62
     0
100
AcDbLine
 10
70.04221133955127
 20
29.22603394510748
 30
0.0
 11
72.84221133955134
 21
32.02603394510749
 31
0.0
  0
LINE
  5
2384
330
228D
100
AcDbEntity
  8
0
 62
     0
100
AcDbLine
 10
76.34221133955128
 20
35.52603394510743
 30
0.0
 11
78.9484738847172
 21
38.1322964902734
 31
0.0
  0
LINE
  5
2385
330
228D
100
AcDbEntity
  8
0
 62
     0
100
AcDbLine
 10
62.96617776864161
 20
22.15000037419782
 30
0.0
 11
67.92789273913832
 21
27.11171534469452
 31
0.0
  0
LINE
  5
2386
330
228D
100
AcDbEntity
  8
0
 62
     0
100
AcDbLine
 10
70.04221133955127
 20
30.12405955721437
 30
0.0
 11
72.84221133955128
 21
32.92405955721444
 31
0.0
  0
LINE
  5
2387
330
228D
100
AcDbEntity
  8
0
 62
     0
100
AcDbLine
 10
76.34221133955122
 20
36.42405955721438
 30
0.0
 11
78.16815215653469
 21
38.25000037419784
 31
0.0
  0
LINE
  5
2388
330
228D
100
AcDbEntity
  8
0
 62
     0
100
AcDbLine
 10
62.06815215653467
 20
22.15000037419782
 30
0.0
 11
67.79298036850957
 21
27.87482858617267
 31
0.0
  0
LINE
  5
2389
330
228D
100
AcDbEntity
  8
0
 62
     0
100
AcDbLine
 10
70.04221133955127
 20
31.02208516932126
 30
0.0
 11
72.84221133955134
 21
33.82208516932133
 31
0.0
  0
LINE
  5
238A
330
228D
100
AcDbEntity
  8
0
 62
     0
100
AcDbLine
 10
65.14221133955141
 20
26.12208516932134
 30
0.0
 11
67.55239291159103
 21
28.53226674136096
 31
0.0
  0
LINE
  5
238B
330
228D
100
AcDbEntity
  8
0
 62
     0
100
AcDbLine
 10
76.34221133955128
 20
37.32208516932127
 30
0.0
 11
77.27012654442785
 21
38.25000037419784
 31
0.0
  0
LINE
  5
238C
330
228D
100
AcDbEntity
  8
0
 62
     0
100
AcDbLine
 10
61.2983818975589
 20
22.27825572732888
 30
0.0
 11
63.97012654442779
 21
24.95000037419777
 31
0.0
  0
LINE
  5
238D
330
228D
100
AcDbEntity
  8
0
 62
     0
100
AcDbLine
 10
65.122340764424
 20
27.00024020630087
 30
0.0
 11
67.22889360673048
 21
29.10679304860736
 31
0.0
  0
LINE
  5
238E
330
228D
100
AcDbEntity
  8
0
 62
     0
100
AcDbLine
 10
70.04221133955127
 20
31.92011078142815
 30
0.0
 11
72.84221133955128
 21
34.72011078142822
 31
0.0
  0
LINE
  5
238F
330
228D
100
AcDbEntity
  8
0
 62
     0
100
AcDbLine
 10
61.11721133955132
 20
22.9951107814282
 30
0.0
 11
63.07210093232083
 21
24.95000037419777
 31
0.0
  0
LINE
  5
2390
330
228D
100
AcDbEntity
  8
0
 62
     0
100
AcDbLine
 10
64.84795592728511
 20
27.623880981269
 30
0.0
 11
66.83302248880266
 21
29.60894754278655
 31
0.0
  0
LINE
  5
2391
330
228D
100
AcDbEntity
  8
0
 62
     0
100
AcDbLine
 10
70.04221133955121
 20
32.8181363935351
 30
0.0
 11
72.84221133955128
 21
35.61813639353517
 31
0.0
  0
LINE
  5
2392
330
228D
100
AcDbEntity
  8
0
 62
     0
100
AcDbLine
 10
61.11721133955126
 20
23.89313639353515
 30
0.0
 11
62.17407532021394
 21
24.95000037419783
 31
0.0
  0
LINE
  5
2393
330
228D
100
AcDbEntity
  8
0
 62
     0
100
AcDbLine
 10
70.04221133955127
 20
33.71616200564199
 30
0.0
 11
72.84221133955134
 21
36.516162005642
 31
0.0
  0
LINE
  5
2394
330
228D
100
AcDbEntity
  8
0
 62
     0
100
AcDbLine
 10
64.40668103016804
 20
28.08063169625871
 30
0.0
 11
66.38658001749035
 21
30.06053068358102
 31
0.0
  0
LINE
  5
2395
330
228D
100
AcDbEntity
  8
0
 62
     0
100
AcDbLine
 10
63.95766822411457
 20
28.52964450231218
 30
0.0
 11
65.93756721143688
 21
30.5095434896345
 31
0.0
  0
LINE
  5
2396
330
228D
100
AcDbEntity
  8
0
 62
     0
100
AcDbLine
 10
70.04221133955121
 20
34.61418761774889
 30
0.0
 11
72.84221133955128
 21
37.41418761774895
 31
0.0
  0
LINE
  5
2397
330
228D
100
AcDbEntity
  8
0
 62
     0
100
AcDbLine
 10
57.57802409600009
 20
22.15000037419776
 30
0.0
 11
58.49221133955126
 21
23.06418761774887
 31
0.0
  0
LINE
  5
2398
330
228D
100
AcDbEntity
  8
0
 62
     0
100
AcDbLine
 10
63.50865541806109
 20
28.97865730836566
 30
0.0
 11
65.48855440538341
 21
30.95855629568797
 31
0.0
  0
LINE
  5
2399
330
228D
100
AcDbEntity
  8
0
 62
     0
100
AcDbLine
 10
70.04221133955121
 20
35.51221322985583
 30
0.0
 11
72.65603043145262
 21
38.12603232175718
 31
0.0
  0
LINE
  5
239A
330
228D
100
AcDbEntity
  8
0
 62
     0
100
AcDbLine
 10
56.67999848389314
 20
22.15000037419776
 30
0.0
 11
58.49221133955132
 21
23.96221322985588
 31
0.0
  0
LINE
  5
239B
330
228D
100
AcDbEntity
  8
0
 62
     0
100
AcDbLine
 10
63.05964261200762
 20
29.42767011441913
 30
0.0
 11
65.03954159932994
 21
31.40756910174145
 31
0.0
  0
LINE
  5
239C
330
228D
100
AcDbEntity
  8
0
 62
     0
100
AcDbLine
 10
70.04221133955121
 20
36.41023884196272
 30
0.0
 11
71.88197287178628
 21
38.25000037419784
 31
0.0
  0
LINE
  5
239D
330
228D
100
AcDbEntity
  8
0
 62
     0
100
AcDbLine
 10
55.89358400964823
 20
22.26161151205975
 30
0.0
 11
58.49221133955126
 21
24.86023884196283
 31
0.0
  0
LINE
  5
239E
330
228D
100
AcDbEntity
  8
0
 62
     0
100
AcDbLine
 10
62.6106298059542
 20
29.87668292047255
 30
0.0
 11
64.59052879327652
 21
31.85658190779486
 31
0.0
  0
LINE
  5
239F
330
228D
100
AcDbEntity
  8
0
 62
     0
100
AcDbLine
 10
70.04221133955121
 20
37.30826445406961
 30
0.0
 11
70.98394725967949
 21
38.25000037419784
 31
0.0
  0
LINE
  5
23A0
330
228D
100
AcDbEntity
  8
0
 62
     0
100
AcDbLine
 10
55.69221133955131
 20
22.95826445406971
 30
0.0
 11
58.49221133955132
 21
25.75826445406966
 31
0.0
  0
LINE
  5
23A1
330
228D
100
AcDbEntity
  8
0
 62
     0
100
AcDbLine
 10
62.16161699990073
 20
30.32569572652602
 30
0.0
 11
64.14151598722305
 21
32.30559471384834
 31
0.0
  0
LINE
  5
23A2
330
228D
100
AcDbEntity
  8
0
 62
     0
100
AcDbLine
 10
55.69221133955131
 20
23.85629006617666
 30
0.0
 11
58.49221133955126
 21
26.65629006617661
 31
0.0
  0
LINE
  5
23A3
330
228D
100
AcDbEntity
  8
0
 62
     0
100
AcDbLine
 10
61.7146330988594
 20
30.77673743759169
 30
0.0
 11
63.69860663224142
 21
32.76071097097366
 31
0.0
  0
LINE
  5
23A4
330
228D
100
AcDbEntity
  8
0
 62
     0
100
AcDbLine
 10
55.69221133955131
 20
24.75431567828355
 30
0.0
 11
58.49221133955126
 21
27.55431567828356
 31
0.0
  0
LINE
  5
23A5
330
228D
100
AcDbEntity
  8
0
 62
     0
100
AcDbLine
 10
66.38789603546547
 20
35.45000037419777
 30
0.0
 11
67.41721133955133
 21
36.47931567828357
 31
0.0
  0
LINE
  5
23A6
330
228D
100
AcDbEntity
  8
0
 62
     0
100
AcDbLine
 10
53.19955511484107
 20
22.26165945357331
 30
0.0
 11
53.28920747629609
 21
22.3513118150284
 31
0.0
  0
LINE
  5
23A7
330
228D
100
AcDbEntity
  8
0
 62
     0
100
AcDbLine
 10
61.31663092003742
 20
31.27676087087656
 30
0.0
 11
63.41626519745602
 21
33.37639514829516
 31
0.0
  0
LINE
  5
23A8
330
228D
100
AcDbEntity
  8
0
 62
     0
100
AcDbLine
 10
55.69221133955131
 20
25.65234129039044
 30
0.0
 11
58.49221133955132
 21
28.4523412903904
 31
0.0
  0
LINE
  5
23A9
330
228D
100
AcDbEntity
  8
0
 62
     0
100
AcDbLine
 10
65.4898704233587
 20
35.45000037419783
 30
0.0
 11
67.41721133955133
 21
37.37734129039046
 31
0.0
  0
LINE
  5
23AA
330
228D
100
AcDbEntity
  8
0
 62
     0
100
AcDbLine
 10
52.18987042335863
 20
22.15000037419776
 30
0.0
 11
53.25564951966516
 21
23.21577947050429
 31
0.0
  0
LINE
  5
23AB
330
228D
100
AcDbEntity
  8
0
 62
     0
100
AcDbLine
 10
60.99079665564073
 20
31.84895221858682
 30
0.0
 11
63.39221133955141
 21
34.25036690249749
 31
0.0
  0
LINE
  5
23AC
330
228D
100
AcDbEntity
  8
0
 62
     0
100
AcDbLine
 10
55.69221133955131
 20
26.55036690249733
 30
0.0
 11
58.49221133955126
 21
29.35036690249734
 31
0.0
  0
LINE
  5
23AD
330
228D
100
AcDbEntity
  8
0
 62
     0
100
AcDbLine
 10
64.59184481125169
 20
35.45000037419777
 30
0.0
 11
67.25054240775341
 21
38.1086979706995
 31
0.0
  0
LINE
  5
23AE
330
228D
100
AcDbEntity
  8
0
 62
     0
100
AcDbLine
 10
51.29184481125162
 20
22.1500003741977
 30
0.0
 11
53.04012337275946
 21
23.89827893570555
 31
0.0
  0
LINE
  5
23AF
330
228D
100
AcDbEntity
  8
0
 62
     0
100
AcDbLine
 10
55.69221133955124
 20
27.44839251460428
 30
0.0
 11
58.49221133955126
 21
30.24839251460424
 31
0.0
  0
LINE
  5
23B0
330
228D
100
AcDbEntity
  8
0
 62
     0
100
AcDbLine
 10
60.74741459297064
 20
32.50359576802367
 30
0.0
 11
66.49381919914481
 21
38.25000037419784
 31
0.0
  0
LINE
  5
23B1
330
228D
100
AcDbEntity
  8
0
 62
     0
100
AcDbLine
 10
50.69983050059665
 20
22.45601167564968
 30
0.0
 11
52.82459722585378
 21
24.58077840090681
 31
0.0
  0
LINE
  5
23B2
330
228D
100
AcDbEntity
  8
0
 62
     0
100
AcDbLine
 10
55.69221133955124
 20
28.34641812671123
 30
0.0
 11
58.4922113395512
 21
31.14641812671119
 31
0.0
  0
LINE
  5
23B3
330
228D
100
AcDbEntity
  8
0
 62
     0
100
AcDbLine
 10
60.60870773388495
 20
33.26291452104494
 30
0.0
 11
65.59579358703792
 21
38.25000037419784
 31
0.0
  0
LINE
  5
23B4
330
228D
100
AcDbEntity
  8
0
 62
     0
100
AcDbLine
 10
50.48107107894804
 20
23.13527786610803
 30
0.0
 11
52.60907107894809
 21
25.26327786610807
 31
0.0
  0
LINE
  5
23B5
330
228D
100
AcDbEntity
  8
0
 62
     0
100
AcDbLine
 10
55.69221133955131
 20
29.24444373881807
 30
0.0
 11
58.49221133955126
 21
32.04444373881808
 31
0.0
  0
LINE
  5
23B6
330
228D
100
AcDbEntity
  8
0
 62
     0
100
AcDbLine
 10
60.59221133955128
 20
34.14444373881804
 30
0.0
 11
64.69776797493103
 21
38.25000037419784
 31
0.0
  0
LINE
  5
23B7
330
228D
100
AcDbEntity
  8
0
 62
     0
100
AcDbLine
 10
50.26554493204241
 20
23.81777733130923
 30
0.0
 11
52.39354493204252
 21
25.94577733130928
 31
0.0
  0
LINE
  5
23B8
330
228D
100
AcDbEntity
  8
0
 62
     0
100
AcDbLine
 10
55.69221133955124
 20
30.14246935092501
 30
0.0
 11
58.49221133955126
 21
32.94246935092497
 31
0.0
  0
LINE
  5
23B9
330
228D
100
AcDbEntity
  8
0
 62
     0
100
AcDbLine
 10
60.59221133955134
 20
35.04246935092505
 30
0.0
 11
63.79974236282413
 21
38.25000037419784
 31
0.0
  0
LINE
  5
23BA
330
228D
100
AcDbEntity
  8
0
 62
     0
100
AcDbLine
 10
50.05001878513667
 20
24.50027679651043
 30
0.0
 11
52.17801878513689
 21
26.62827679651065
 31
0.0
  0
LINE
  5
23BB
330
228D
100
AcDbEntity
  8
0
 62
     0
100
AcDbLine
 10
55.69221133955124
 20
31.0404949630319
 30
0.0
 11
58.49221133955132
 21
33.84049496303197
 31
0.0
  0
LINE
  5
23BC
330
228D
100
AcDbEntity
  8
0
 62
     0
100
AcDbLine
 10
49.83449263823104
 20
25.18277626171175
 30
0.0
 11
51.96249263823114
 21
27.3107762617118
 31
0.0
  0
LINE
  5
23BD
330
228D
100
AcDbEntity
  8
0
 62
     0
100
AcDbLine
 10
60.64552800967248
 20
35.9938116331532
 30
0.0
 11
62.84840008059581
 21
38.19668370407652
 31
0.0
  0
LINE
  5
23BE
330
228D
100
AcDbEntity
  8
0
 62
     0
100
AcDbLine
 10
46.80171675071704
 20
22.15000037419776
 30
0.0
 11
47.64221133955124
 21
22.99049496303195
 31
0.0
  0
LINE
  5
23BF
330
228D
100
AcDbEntity
  8
0
 62
     0
100
AcDbLine
 10
49.61896649132547
 20
25.86527572691295
 30
0.0
 11
51.74696649132551
 21
27.99327572691306
 31
0.0
  0
LINE
  5
23C0
330
228D
100
AcDbEntity
  8
0
 62
     0
100
AcDbLine
 10
55.69221133955124
 20
31.9385205751388
 30
0.0
 11
58.49221133955132
 21
34.73852057513886
 31
0.0
  0
LINE
  5
23C1
330
228D
100
AcDbEntity
  8
0
 62
     0
100
AcDbLine
 10
45.90369113861021
 20
22.1500003741977
 30
0.0
 11
47.64221133955129
 21
23.88852057513884
 31
0.0
  0
LINE
  5
23C2
330
228D
100
AcDbEntity
  8
0
 62
     0
100
AcDbLine
 10
49.40344034441977
 20
26.54777519211422
 30
0.0
 11
51.53144034441982
 21
28.67577519211432
 31
0.0
  0
LINE
  5
23C3
330
228D
100
AcDbEntity
  8
0
 62
     0
100
AcDbLine
 10
55.69221133955124
 20
32.83654618724574
 30
0.0
 11
58.49221133955132
 21
35.63654618724576
 31
0.0
  0
LINE
  5
23C4
330
228D
100
AcDbEntity
  8
0
 62
     0
100
AcDbLine
 10
45.08681527415456
 20
22.23115012184905
 30
0.0
 11
47.64221133955129
 21
24.78654618724573
 31
0.0
  0
LINE
  5
23C5
330
228D
100
AcDbEntity
  8
0
 62
     0
100
AcDbLine
 10
49.18791419751409
 20
27.23027465731548
 30
0.0
 11
51.31591419751413
 21
29.35827465731558
 31
0.0
  0
LINE
  5
23C6
330
228D
100
AcDbEntity
  8
0
 62
     0
100
AcDbLine
 10
55.69221133955124
 20
33.73457179935264
 30
0.0
 11
58.49221133955126
 21
36.53457179935271
 31
0.0
  0
LINE
  5
23C7
330
228D
100
AcDbEntity
  8
0
 62
     0
100
AcDbLine
 10
44.84221133955128
 20
22.88457179935267
 30
0.0
 11
47.64221133955135
 21
25.68457179935274
 31
0.0
  0
LINE
  5
23C8
330
228D
100
AcDbEntity
  8
0
 62
     0
100
AcDbLine
 10
48.97238805060846
 20
27.91277412251668
 30
0.0
 11
51.10038805060861
 21
30.04077412251684
 31
0.0
  0
LINE
  5
23C9
330
228D
100
AcDbEntity
  8
0
 62
     0
100
AcDbLine
 10
55.69221133955124
 20
34.63259741145953
 30
0.0
 11
58.49221133955132
 21
37.4325974114596
 31
0.0
  0
LINE
  5
23CA
330
228D
100
AcDbEntity
  8
0
 62
     0
100
AcDbLine
 10
44.84221133955128
 20
23.78259741145956
 30
0.0
 11
47.64221133955135
 21
26.58259741145963
 31
0.0
  0
LINE
  5
23CB
330
228D
100
AcDbEntity
  8
0
 62
     0
100
AcDbLine
 10
48.73758926363672
 20
28.57600094765195
 30
0.0
 11
51.36788333156761
 21
31.20629501558284
 31
0.0
  0
LINE
  5
23CC
330
228D
100
AcDbEntity
  8
0
 62
     0
100
AcDbLine
 10
55.69221133955131
 20
35.53062302356654
 30
0.0
 11
58.29593591705287
 21
38.13434760106805
 31
0.0
  0
LINE
  5
23CD
330
228D
100
AcDbEntity
  8
0
 62
     0
100
AcDbLine
 10
44.84221133955128
 20
24.68062302356651
 30
0.0
 11
47.64221133955135
 21
27.48062302356653
 31
0.0
  0
LINE
  5
23CE
330
228D
100
AcDbEntity
  8
0
 62
     0
100
AcDbLine
 10
48.05040389376933
 20
28.78684118989151
 30
0.0
 11
51.7823566910016
 21
32.51879398712379
 31
0.0
  0
LINE
  5
23CF
330
228D
100
AcDbEntity
  8
0
 62
     0
100
AcDbLine
 10
44.84221133955128
 20
25.57864863567341
 30
0.0
 11
47.65537052385758
 21
28.39180781997971
 31
0.0
  0
LINE
  5
23D0
330
228D
100
AcDbEntity
  8
0
 62
     0
100
AcDbLine
 10
55.69221133955131
 20
36.42864863567343
 30
0.0
 11
57.51356307807566
 21
38.25000037419784
 31
0.0
  0
LINE
  5
23D1
330
228D
100
AcDbEntity
  8
0
 62
     0
100
AcDbLine
 10
41.41356307807564
 20
22.15000037419776
 30
0.0
 11
42.39221133955129
 21
23.12864863567347
 31
0.0
  0
LINE
  5
23D2
330
228D
100
AcDbEntity
  8
0
 62
     0
100
AcDbLine
 10
44.84221133955123
 20
26.47667424778035
 30
0.0
 11
52.19683005043555
 21
33.83129295866468
 31
0.0
  0
LINE
  5
23D3
330
228D
100
AcDbEntity
  8
0
 62
     0
100
AcDbLine
 10
55.69221133955124
 20
37.32667424778038
 30
0.0
 11
56.61553746596871
 21
38.25000037419784
 31
0.0
  0
LINE
  5
23D4
330
228D
100
AcDbEntity
  8
0
 62
     0
100
AcDbLine
 10
40.51553746596868
 20
22.15000037419782
 30
0.0
 11
42.39221133955135
 21
24.02667424778048
 31
0.0
  0
LINE
  5
23D5
330
228D
100
AcDbEntity
  8
0
 62
     0
100
AcDbLine
 10
44.84221133955128
 20
27.37469985988719
 30
0.0
 11
52.61130340986966
 21
35.14379193020563
 31
0.0
  0
LINE
  5
23D6
330
228D
100
AcDbEntity
  8
0
 62
     0
100
AcDbLine
 10
39.6291924782119
 20
22.16168099854787
 30
0.0
 11
42.25087705594512
 21
24.78336557628103
 31
0.0
  0
LINE
  5
23D7
330
228D
100
AcDbEntity
  8
0
 62
     0
100
AcDbLine
 10
44.84221133955123
 20
28.27272547199413
 30
0.0
 11
48.16948624175489
 21
31.60000037419781
 31
0.0
  0
LINE
  5
23D8
330
228D
100
AcDbEntity
  8
0
 62
     0
100
AcDbLine
 10
48.93346907699561
 20
32.36398320943852
 30
0.0
 11
53.0257767693036
 21
36.45629090174651
 31
0.0
  0
LINE
  5
23D9
330
228D
100
AcDbEntity
  8
0
 62
     0
100
AcDbLine
 10
38.86103196076494
 20
22.29154609320779
 30
0.0
 11
41.51948624175486
 21
24.95000037419777
 31
0.0
  0
LINE
  5
23DA
330
228D
100
AcDbEntity
  8
0
 62
     0
100
AcDbLine
 10
44.84221133955123
 20
29.17075108410108
 30
0.0
 11
47.66020191025956
 21
31.98874165480936
 31
0.0
  0
LINE
  5
23DB
330
228D
100
AcDbEntity
  8
0
 62
     0
100
AcDbLine
 10
49.34794243642954
 20
33.67648218097935
 30
0.0
 11
53.40084822110492
 21
37.72938796565478
 31
0.0
  0
LINE
  5
23DC
330
228D
100
AcDbEntity
  8
0
 62
     0
100
AcDbLine
 10
38.19989770393852
 20
22.52843744848838
 30
0.0
 11
40.62146062964797
 21
24.95000037419777
 31
0.0
  0
LINE
  5
23DD
330
228D
100
AcDbEntity
  8
0
 62
     0
100
AcDbLine
 10
44.84221133955128
 20
30.06877669620792
 30
0.0
 11
47.64221133955129
 21
32.86877669620799
 31
0.0
  0
LINE
  5
23DE
330
228D
100
AcDbEntity
  8
0
 62
     0
100
AcDbLine
 10
49.76241579586366
 20
34.98898115252035
 30
0.0
 11
53.00683634853573
 21
38.23340170519242
 31
0.0
  0
LINE
  5
23DF
330
228D
100
AcDbEntity
  8
0
 62
     0
100
AcDbLine
 10
37.62229441977422
 20
22.84885977643086
 30
0.0
 11
39.73835627826708
 21
24.96492163492377
 31
0.0
  0
LINE
  5
23E0
330
228D
100
AcDbEntity
  8
0
 62
     0
100
AcDbLine
 10
44.84221133955123
 20
30.96680230831487
 30
0.0
 11
47.64221133955129
 21
33.76680230831494
 31
0.0
  0
LINE
  5
23E1
330
228D
100
AcDbEntity
  8
0
 62
     0
100
AcDbLine
 10
50.1768891552976
 20
36.30148012406119
 30
0.0
 11
52.12540940543414
 21
38.25000037419778
 31
0.0
  0
LINE
  5
23E2
330
228D
100
AcDbEntity
  8
0
 62
     0
100
AcDbLine
 10
37.11733945339216
 20
23.24193042215575
 30
0.0
 11
39.10404013724877
 21
25.22863110601236
 31
0.0
  0
LINE
  5
23E3
330
228D
100
AcDbEntity
  8
0
 62
     0
100
AcDbLine
 10
44.84221133955123
 20
31.86482792042176
 30
0.0
 11
47.64221133955129
 21
34.66482792042183
 31
0.0
  0
LINE
  5
23E4
330
228D
100
AcDbEntity
  8
0
 62
     0
100
AcDbLine
 10
41.50384547132773
 20
28.52646205219833
 30
0.0
 11
42.66574966155082
 21
29.68836624242141
 31
0.0
  0
LINE
  5
23E5
330
228D
100
AcDbEntity
  8
0
 62
     0
100
AcDbLine
 10
50.59136251473148
 20
37.61397909560208
 30
0.0
 11
51.2273837933273
 21
38.2500003741979
 31
0.0
  0
LINE
  5
23E6
330
228D
100
AcDbEntity
  8
0
 62
     0
100
AcDbLine
 10
36.68090238006232
 20
23.70351896093291
 30
0.0
 11
38.69378918597659
 21
25.71640576684718
 31
0.0
  0
LINE
  5
23E7
330
228D
100
AcDbEntity
  8
0
 62
     0
100
AcDbLine
 10
40.57887262969791
 20
28.49951482267545
 30
0.0
 11
42.69269689107369
 21
30.61333908405118
 31
0.0
  0
LINE
  5
23E8
330
228D
100
AcDbEntity
  8
0
 62
     0
100
AcDbLine
 10
44.84221133955128
 20
32.76285353252877
 30
0.0
 11
47.64221133955135
 21
35.56285353252884
 31
0.0
  0
LINE
  5
23E9
330
228D
100
AcDbEntity
  8
0
 62
     0
100
AcDbLine
 10
36.31388315511936
 20
24.23452534809684
 30
0.0
 11
38.54221133955127
 21
26.46285353252881
 31
0.0
  0
LINE
  5
23EA
330
228D
100
AcDbEntity
  8
0
 62
     0
100
AcDbLine
 10
39.96472606027771
 20
28.78339386536203
 30
0.0
 11
42.40881784838705
 21
31.22748565347143
 31
0.0
  0
LINE
  5
23EB
330
228D
100
AcDbEntity
  8
0
 62
     0
100
AcDbLine
 10
44.84221133955128
 20
33.66087914463566
 30
0.0
 11
47.64221133955135
 21
36.46087914463573
 31
0.0
  0
LINE
  5
23EC
330
228D
100
AcDbEntity
  8
0
 62
     0
100
AcDbLine
 10
36.02256564519462
 20
24.84123345027899
 30
0.0
 11
38.54221133955127
 21
27.36087914463565
 31
0.0
  0
LINE
  5
23ED
330
228D
100
AcDbEntity
  8
0
 62
     0
100
AcDbLine
 10
39.52676613328799
 20
29.24345955047932
 30
0.0
 11
41.94875216326983
 21
31.6654455804611
 31
0.0
  0
LINE
  5
23EE
330
228D
100
AcDbEntity
  8
0
 62
     0
100
AcDbLine
 10
44.84221133955128
 20
34.55890475674261
 30
0.0
 11
47.64221133955135
 21
37.35890475674262
 31
0.0
  0
LINE
  5
23EF
330
228D
100
AcDbEntity
  8
0
 62
     0
100
AcDbLine
 10
35.82142828101996
 20
25.53812169821128
 30
0.0
 11
38.54221133955127
 21
28.2589047567426
 31
0.0
  0
LINE
  5
23F0
330
228D
100
AcDbEntity
  8
0
 62
     0
100
AcDbLine
 10
39.27071540087963
 20
29.88543443017784
 30
0.0
 11
41.30677728357125
 21
31.92149631286952
 31
0.0
  0
LINE
  5
23F1
330
228D
100
AcDbEntity
  8
0
 62
     0
100
AcDbLine
 10
35.7422113395512
 20
26.35693036884948
 30
0.0
 11
38.54221133955127
 21
29.15693036884949
 31
0.0
  0
LINE
  5
23F2
330
228D
100
AcDbEntity
  8
0
 62
     0
100
AcDbLine
 10
44.84221133955128
 20
35.4569303688495
 30
0.0
 11
47.48496123119616
 21
38.09968026049444
 31
0.0
  0
LINE
  5
23F3
330
228D
100
AcDbEntity
  8
0
 62
     0
100
AcDbLine
 10
31.65621458167561
 20
22.27093361097388
 30
0.0
 11
33.52127810277534
 21
24.13599713207361
 31
0.0
  0
LINE
  5
23F4
330
228D
100
AcDbEntity
  8
0
 62
     0
100
AcDbLine
 10
39.38912848436041
 20
30.90187312576552
 30
0.0
 11
40.29033858798363
 21
31.80308322938873
 31
0.0
  0
LINE
  5
23F5
330
228D
100
AcDbEntity
  8
0
 62
     0
100
AcDbLine
 10
35.7422113395512
 20
27.25495598095631
 30
0.0
 11
38.54221133955127
 21
30.05495598095638
 31
0.0
  0
LINE
  5
23F6
330
228D
100
AcDbEntity
  8
0
 62
     0
100
AcDbLine
 10
44.84221133955128
 20
36.35495598095639
 30
0.0
 11
46.73725573279267
 21
38.25000037419778
 31
0.0
  0
LINE
  5
23F7
330
228D
100
AcDbEntity
  8
0
 62
     0
100
AcDbLine
 10
30.63725573279266
 20
22.15000037419776
 30
0.0
 11
33.64221133955141
 21
25.15495598095646
 31
0.0
  0
LINE
  5
23F8
330
228D
100
AcDbEntity
  8
0
 62
     0
100
AcDbLine
 10
35.7422113395512
 20
28.15298159306326
 30
0.0
 11
38.54221133955127
 21
30.95298159306333
 31
0.0
  0
LINE
  5
23F9
330
228D
100
AcDbEntity
  8
0
 62
     0
100
AcDbLine
 10
44.84221133955128
 20
37.25298159306329
 30
0.0
 11
45.83923012068578
 21
38.25000037419784
 31
0.0
  0
LINE
  5
23FA
330
228D
100
AcDbEntity
  8
0
 62
     0
100
AcDbLine
 10
29.73923012068565
 20
22.1500003741977
 30
0.0
 11
33.64221133955136
 21
26.05298159306341
 31
0.0
  0
LINE
  5
23FB
330
228D
100
AcDbEntity
  8
0
 62
     0
100
AcDbLine
 10
35.7422113395512
 20
29.05100720517015
 30
0.0
 11
38.54221133955121
 21
31.85100720517022
 31
0.0
  0
LINE
  5
23FC
330
228D
100
AcDbEntity
  8
0
 62
     0
100
AcDbLine
 10
28.84120450857881
 20
22.15000037419782
 30
0.0
 11
33.63827198699011
 21
26.94706785260911
 31
0.0
  0
LINE
  5
23FD
330
228D
100
AcDbEntity
  8
0
 62
     0
100
AcDbLine
 10
35.7422113395512
 20
29.9490328172771
 30
0.0
 11
38.54221133955127
 21
32.74903281727717
 31
0.0
  0
LINE
  5
23FE
330
228D
100
AcDbEntity
  8
0
 62
     0
100
AcDbLine
 10
41.24317889647199
 20
35.45000037419788
 30
0.0
 11
42.3922113395514
 21
36.59903281727731
 31
0.0
  0
LINE
  5
23FF
330
228D
100
AcDbEntity
  8
0
 62
     0
100
AcDbLine
 10
27.94317889647186
 20
22.15000037419776
 30
0.0
 11
33.52861015066878
 21
27.73543162839468
 31
0.0
  0
LINE
  5
2400
330
228D
100
AcDbEntity
  8
0
 62
     0
100
AcDbLine
 10
35.7422113395512
 20
30.847058429384
 30
0.0
 11
38.54221133955127
 21
33.64705842938401
 31
0.0
  0
LINE
  5
2401
330
228D
100
AcDbEntity
  8
0
 62
     0
100
AcDbLine
 10
30.84221133955129
 20
25.94705842938407
 30
0.0
 11
33.30627140662466
 21
28.41111849645745
 31
0.0
  0
LINE
  5
2402
330
228D
100
AcDbEntity
  8
0
 62
     0
100
AcDbLine
 10
40.34515328436498
 20
35.45000037419777
 30
0.0
 11
42.3922113395514
 21
37.49705842938414
 31
0.0
  0
LINE
  5
2403
330
228D
100
AcDbEntity
  8
0
 62
     0
100
AcDbLine
 10
27.10287915962493
 20
22.20772624945772
 30
0.0
 11
29.84515328436499
 21
24.95000037419777
 31
0.0
  0
LINE
  5
2404
330
228D
100
AcDbEntity
  8
0
 62
     0
100
AcDbLine
 10
35.74221133955115
 20
31.74508404149089
 30
0.0
 11
38.70802604533094
 21
34.71089874727068
 31
0.0
  0
LINE
  5
2405
330
228D
100
AcDbEntity
  8
0
 62
     0
100
AcDbLine
 10
30.84005224794203
 20
26.84292494988171
 30
0.0
 11
32.99783987195264
 21
29.00071257389237
 31
0.0
  0
LINE
  5
2406
330
228D
100
AcDbEntity
  8
0
 62
     0
100
AcDbLine
 10
39.28131296647848
 20
35.28418566841822
 30
0.0
 11
42.15874392463149
 21
38.16161662657118
 31
0.0
  0
LINE
  5
2407
330
228D
100
AcDbEntity
  8
0
 62
     0
100
AcDbLine
 10
26.81721133955131
 20
22.82008404149099
 30
0.0
 11
28.94712767225809
 21
24.95000037419777
 31
0.0
  0
LINE
  5
2408
330
228D
100
AcDbEntity
  8
0
 62
     0
100
AcDbLine
 10
30.62044922844132
 20
27.521347542488
 30
0.0
 11
32.61559790711374
 21
29.51649622116042
 31
0.0
  0
LINE
  5
2409
330
228D
100
AcDbEntity
  8
0
 62
     0
100
AcDbLine
 10
35.74221133955115
 20
32.64310965359783
 30
0.0
 11
41.34910206015121
 21
38.2500003741979
 31
0.0
  0
LINE
  5
240A
330
228D
100
AcDbEntity
  8
0
 62
     0
100
AcDbLine
 10
26.81721133955125
 20
23.71810965359793
 30
0.0
 11
28.04910206015114
 21
24.95000037419783
 31
0.0
  0
LINE
  5
240B
330
228D
100
AcDbEntity
  8
0
 62
     0
100
AcDbLine
 10
30.19419440013661
 20
27.99311832629013
 30
0.0
 11
32.17409338745898
 21
29.9730173136125
 31
0.0
  0
LINE
  5
240C
330
228D
100
AcDbEntity
  8
0
 62
     0
100
AcDbLine
 10
35.7422113395512
 20
33.54113526570467
 30
0.0
 11
40.45107644804426
 21
38.25000037419778
 31
0.0
  0
LINE
  5
240D
330
228D
100
AcDbEntity
  8
0
 62
     0
100
AcDbLine
 10
26.88616326157103
 20
24.68508718772455
 30
0.0
 11
27.08212452602464
 21
24.88104845217816
 31
0.0
  0
LINE
  5
240E
330
228D
100
AcDbEntity
  8
0
 62
     0
100
AcDbLine
 10
35.76218645370778
 20
34.4591359919682
 30
0.0
 11
39.53307572178079
 21
38.23002526004126
 31
0.0
  0
LINE
  5
240F
330
228D
100
AcDbEntity
  8
0
 62
     0
100
AcDbLine
 10
29.74518159408314
 20
28.4421311323436
 30
0.0
 11
31.72508058140551
 21
30.42203011966598
 31
0.0
  0
LINE
  5
2410
330
228D
100
AcDbEntity
  8
0
 62
     0
100
AcDbLine
 10
36.06164988597357
 20
35.65662503634098
 30
0.0
 11
38.33558667740806
 21
37.93056182777548
 31
0.0
  0
LINE
  5
2411
330
228D
100
AcDbEntity
  8
0
 62
     0
100
AcDbLine
 10
29.29616878802966
 20
28.89114393839708
 30
0.0
 11
31.27606777535203
 21
30.87104292571945
 31
0.0
  0
LINE
  5
2412
330
228D
100
AcDbEntity
  8
0
 62
     0
100
AcDbLine
 10
28.84715598197625
 20
29.34015674445049
 30
0.0
 11
30.82705496929856
 21
31.32005573177276
 31
0.0
  0
LINE
  5
2413
330
228D
100
AcDbEntity
  8
0
 62
     0
100
AcDbLine
 10
28.39814317592277
 20
29.78916955050397
 30
0.0
 11
30.37804216324508
 21
31.76906853782623
 31
0.0
  0
LINE
  5
2414
330
228D
100
AcDbEntity
  8
0
 62
     0
100
AcDbLine
 10
27.9491303698693
 20
30.23818235655745
 30
0.0
 11
29.92902935719161
 21
32.2180813438797
 31
0.0
  0
LINE
  5
2415
330
228D
100
AcDbEntity
  8
0
 62
     0
100
AcDbLine
 10
32.26292277540279
 20
35.45000037419788
 30
0.0
 11
33.11721133955115
 21
36.30428893834625
 31
0.0
  0
LINE
  5
2416
330
228D
100
AcDbEntity
  8
0
 62
     0
100
AcDbLine
 10
27.50020087784395
 20
30.68727847663905
 30
0.0
 11
29.48026652127641
 21
32.66734412007151
 31
0.0
  0
LINE
  5
2417
330
228D
100
AcDbEntity
  8
0
 62
     0
100
AcDbLine
 10
31.36489716329584
 20
35.45000037419777
 30
0.0
 11
33.11721133955126
 21
37.2023145504532
 31
0.0
  0
LINE
  5
2418
330
228D
100
AcDbEntity
  8
0
 62
     0
100
AcDbLine
 10
27.08873295329238
 20
31.17383616419426
 30
0.0
 11
29.15036963998847
 21
33.2354728508904
 31
0.0
  0
LINE
  5
2419
330
228D
100
AcDbEntity
  8
0
 62
     0
100
AcDbLine
 10
30.46687155118889
 20
35.45000037419777
 30
0.0
 11
33.03065243979012
 21
38.013781262799
 31
0.0
  0
LINE
  5
241A
330
228D
100
AcDbEntity
  8
0
 62
     0
100
AcDbLine
 10
26.74827234702991
 20
31.73140117003874
 30
0.0
 11
29.09221133955134
 21
34.07534016256017
 31
0.0
  0
LINE
  5
241B
330
228D
100
AcDbEntity
  8
0
 62
     0
100
AcDbLine
 10
29.56637928991188
 20
35.44753372502766
 30
0.0
 11
32.36884593908206
 21
38.25000037419784
 31
0.0
  0
LINE
  5
241C
330
228D
100
AcDbEntity
  8
0
 62
     0
100
AcDbLine
 10
26.48757905129782
 20
32.36873348641359
 30
0.0
 11
29.0946779887214
 21
34.97583242383723
 31
0.0
  0
LINE
  5
241D
330
228D
100
AcDbEntity
  8
0
 62
     0
100
AcDbLine
 10
26.32576708904975
 20
33.10494713627242
 30
0.0
 11
31.47082032697517
 21
38.25000037419784
 31
0.0
  0
LINE
  5
241E
330
228D
100
AcDbEntity
  8
0
 62
     0
100
AcDbLine
 10
26.29221133955133
 20
33.96941699888095
 30
0.0
 11
30.57279471486822
 21
38.25000037419784
 31
0.0
  0
LINE
  5
241F
330
228D
100
AcDbEntity
  8
0
 62
     0
100
AcDbLine
 10
26.29221133955133
 20
34.86744261098784
 30
0.0
 11
29.67476910276133
 21
38.25000037419784
 31
0.0
  0
LINE
  5
2420
330
228D
100
AcDbEntity
  8
0
 62
     0
100
AcDbLine
 10
26.31240334998955
 20
35.78566023353301
 30
0.0
 11
28.75655148021616
 21
38.22980836375961
 31
0.0
  0
ENDBLK
  5
2422
330
228D
100
AcDbEntity
  8
0
100
AcDbBlockEnd
  0
BLOCK
  5
401E
330
401A
100
AcDbEntity
  8
0
100
AcDbBlockBegin
  2
_Open
 70
     0
 10
0.0
 20
0.0
 30
0.0
  3
_Open
  1

  0
LINE
  5
401B
330
401A
100
AcDbEntity
  8
0
 62
     0
370
    -2
100
AcDbLine
 10
-1.0
 20
0.1666666666666666
 30
0.0
 11
0.0
 21
0.0
 31
0.0
  0
LINE
  5
401C
330
401A
100
AcDbEntity
  8
0
 62
     0
370
    -2
100
AcDbLine
 10
-1.0
 20
-0.1666666666666666
 30
0.0
 11
0.0
 21
0.0
 31
0.0
  0
LINE
  5
401D
330
401A
100
AcDbEntity
  8
0
 62
     0
370
    -2
100
AcDbLine
 10
0.0
 20
0.0
 30
0.0
 11
-1.0
 21
0.0
 31
0.0
  0
ENDBLK
  5
401F
330
401A
100
AcDbEntity
  8
0
100
AcDbBlockEnd
  0
BLOCK
  5
67E6
330
67DC
100
AcDbEntity
  8
0
100
AcDbBlockBegin
  2
*D2
 70
     1
 10
0.0
 20
0.0
 30
0.0
  3
*D2
  1

  0
LINE
  5
7462
330
67DC
100
AcDbEntity
  8
SUNPOU
100
AcDbLine
 10
124.5145969404701
 20
283.7010416519323
 30
0.0
 11
124.5145969404701
 21
320.3530739702876
 31
0.0
  0
LINE
  5
7463
330
67DC
100
AcDbEntity
  8
SUNPOU
100
AcDbLine
 10
404.5145969404702
 20
283.7010416519323
 30
0.0
 11
404.5145969404702
 21
320.3530739702876
 31
0.0
  0
LINE
  5
7464
330
67DC
100
AcDbEntity
  8
SUNPOU
100
AcDbLine
 10
128.5145969404701
 20
318.3530739702876
 30
0.0
 11
400.5145969404702
 21
318.3530739702876
 31
0.0
  0
INSERT
  5
7465
330
67DC
100
AcDbEntity
  8
SUNPOU
100
AcDbBlockReference
  2
_Open
 10
124.5145969404701
 20
318.3530739702876
 30
0.0
 41
4.0
 42
4.0
 43
4.0
 50
180.0
  0
INSERT
  5
7466
330
67DC
100
AcDbEntity
  8
SUNPOU
100
AcDbBlockReference
  2
_Open
 10
404.5145969404702
 20
318.3530739702876
 30
0.0
 41
4.0
 42
4.0
 43
4.0
  0
MTEXT
  5
7467
330
67DC
100
AcDbEntity
  8
SUNPOU
100
AcDbMText
 10
264.5145969404702
 20
323.3530739702876
 30
0.0
 40
6.0
 41
0.0
 71
     5
 72
     5
  1
\A1;280
 73
     1
 44
1.0
1001
ACAD
1000
MTEXTBEGIN
1070
    73
1070
     1
1070
    44
1040
1.0
1070
    74
1070
     0
1000
MTEXTEND
  0
POINT
  5
7468
330
67DC
100
AcDbEntity
  8
DEFPOINTS
 62
     0
100
AcDbPoint
 10
124.5145969404701
 20
281.7010416519323
 30
0.0
  0
POINT
  5
7469
330
67DC
100
AcDbEntity
  8
DEFPOINTS
 62
     0
100
AcDbPoint
 10
404.5145969404702
 20
281.7010416519323
 30
0.0
  0
POINT
  5
746A
330
67DC
100
AcDbEntity
  8
DEFPOINTS
 62
     0
100
AcDbPoint
 10
404.5145969404702
 20
318.3530739702876
 30
0.0
  0
ENDBLK
  5
67E7
330
67DC
100
AcDbEntity
  8
0
100
AcDbBlockEnd
  0
BLOCK
  5
67F3
330
67E9
100
AcDbEntity
  8
0
100
AcDbBlockBegin
  2
*D3
 70
     1
 10
0.0
 20
0.0
 30
0.0
  3
*D3
  1

  0
LINE
  5
7495
330
67E9
100
AcDbEntity
  8
SUNPOU
100
AcDbLine
 10
531.9635801556708
 20
190.6330641362253
 30
0.0
 11
531.9635801556708
 21
314.0294179148412
 31
0.0
  0
LINE
  5
7496
330
67E9
100
AcDbEntity
  8
SUNPOU
100
AcDbLine
 10
686.5867638213513
 20
234.7619636465289
 30
0.0
 11
686.5867638213513
 21
314.0294179148412
 31
0.0
  0
LINE
  5
7497
330
67E9
100
AcDbEntity
  8
SUNPOU
100
AcDbLine
 10
535.9635801556708
 20
312.0294179148412
 30
0.0
 11
682.5867638213513
 21
312.0294179148412
 31
0.0
  0
INSERT
  5
7498
330
67E9
100
AcDbEntity
  8
SUNPOU
100
AcDbBlockReference
  2
_Open
 10
531.9635801556708
 20
312.0294179148412
 30
0.0
 41
4.0
 42
4.0
 43
4.0
 50
180.0
  0
INSERT
  5
7499
330
67E9
100
AcDbEntity
  8
SUNPOU
100
AcDbBlockReference
  2
_Open
 10
686.5867638213513
 20
312.0294179148412
 30
0.0
 41
4.0
 42
4.0
 43
4.0
  0
MTEXT
  5
749A
330
67E9
100
AcDbEntity
  8
SUNPOU
100
AcDbMText
 10
609.2751719885111
 20
317.0294179148411
 30
0.0
 40
6.0
 41
0.0
 71
     5
 72
     5
  1
\A1;155
 73
     1
 44
1.0
1001
ACAD
1000
MTEXTBEGIN
1070
    73
1070
     1
1070
    44
1040
1.0
1070
    74
1070
     0
1000
MTEXTEND
  0
POINT
  5
749B
330
67E9
100
AcDbEntity
  8
DEFPOINTS
 62
     0
100
AcDbPoint
 10
531.9635801556708
 20
188.6330641362253
 30
0.0
  0
POINT
  5
749C
330
67E9
100
AcDbEntity
  8
DEFPOINTS
 62
     0
100
AcDbPoint
 10
686.5867638213513
 20
232.7619636465289
 30
0.0
  0
POINT
  5
749D
330
67E9
100
AcDbEntity
  8
DEFPOINTS
 62
     0
100
AcDbPoint
 10
686.5867638213513
 20
312.0294179148412
 30
0.0
  0
ENDBLK
  5
67F4
330
67E9
100
AcDbEntity
  8
0
100
AcDbBlockEnd
  0
BLOCK
  5
6800
330
67F6
100
AcDbEntity
  8
0
100
AcDbBlockBegin
  2
*D4
 70
     1
 10
0.0
 20
0.0
 30
0.0
  3
*D4
  1

  0
LINE
  5
747A
330
67F6
100
AcDbEntity
  8
SUNPOU
100
AcDbLine
 10
550.1742935767858
 20
281.7010416519324
 30
0.0
 11
495.4703642662134
 21
281.7010416519324
 31
0.0
  0
LINE
  5
747B
330
67F6
100
AcDbEntity
  8
SUNPOU
100
AcDbLine
 10
530.5489735174387
 20
188.1404101260255
 30
0.0
 11
495.4703642662134
 21
188.1404101260255
 31
0.0
  0
LINE
  5
747C
330
67F6
100
AcDbEntity
  8
SUNPOU
100
AcDbLine
 10
497.4703642662134
 20
277.7010416519324
 30
0.0
 11
497.4703642662134
 21
192.1404101260255
 31
0.0
  0
INSERT
  5
747D
330
67F6
100
AcDbEntity
  8
SUNPOU
100
AcDbBlockReference
  2
_Open
 10
497.4703642662134
 20
281.7010416519324
 30
0.0
 41
4.0
 42
4.0
 43
4.0
 50
90.0
  0
INSERT
  5
747E
330
67F6
100
AcDbEntity
  8
SUNPOU
100
AcDbBlockReference
  2
_Open
 10
497.4703642662134
 20
188.1404101260255
 30
0.0
 41
4.0
 42
4.0
 43
4.0
 50
270.0
  0
MTEXT
  5
747F
330
67F6
100
AcDbEntity
  8
SUNPOU
100
AcDbMText
 10
492.4703642662134
 20
234.920725888979
 30
0.0
 40
6.0
 41
0.0
 71
     5
 72
     5
  1
\A1;94
 11
0.0000000000000001
 21
1.0
 31
0.0
 73
     1
 44
1.0
1001
ACAD
1000
MTEXTBEGIN
1070
    73
1070
     1
1070
    44
1040
1.0
1070
    74
1070
     0
1000
MTEXTEND
  0
POINT
  5
7480
330
67F6
100
AcDbEntity
  8
DEFPOINTS
 62
     0
100
AcDbPoint
 10
552.1742935767859
 20
281.7010416519324
 30
0.0
  0
POINT
  5
7481
330
67F6
100
AcDbEntity
  8
DEFPOINTS
 62
     0
100
AcDbPoint
 10
532.5489735174387
 20
188.1404101260255
 30
0.0
  0
POINT
  5
7482
330
67F6
100
AcDbEntity
  8
DEFPOINTS
 62
     0
100
AcDbPoint
 10
497.4703642662134
 20
188.1404101260255
 30
0.0
  0
ENDBLK
  5
6801
330
67F6
100
AcDbEntity
  8
0
100
AcDbBlockEnd
  0
BLOCK
  5
683F
330
6835
100
AcDbEntity
  8
0
100
AcDbBlockBegin
  2
*D5
 70
     1
 10
0.0
 20
0.0
 30
0.0
  3
*D5
  1

  0
LINE
  5
748C
330
6835
100
AcDbEntity
  8
SUNPOU
100
AcDbLine
 10
550.1742935767861
 20
281.7010416519324
 30
0.0
 11
465.592901315813
 21
281.7010416519324
 31
0.0
  0
LINE
  5
748D
330
6835
100
AcDbEntity
  8
SUNPOU
100
AcDbLine
 10
601.7733230438039
 20
115.7610416519324
 30
0.0
 11
465.5929013158129
 21
115.7610416519325
 31
0.0
  0
LINE
  5
748E
330
6835
100
AcDbEntity
  8
SUNPOU
100
AcDbLine
 10
467.5929013158129
 20
277.7010416519324
 30
0.0
 11
467.5929013158129
 21
119.7610416519324
 31
0.0
  0
INSERT
  5
748F
330
6835
100
AcDbEntity
  8
SUNPOU
100
AcDbBlockReference
  2
_Open
 10
467.5929013158129
 20
281.7010416519324
 30
0.0
 41
4.0
 42
4.0
 43
4.0
 50
90.0
  0
INSERT
  5
7490
330
6835
100
AcDbEntity
  8
SUNPOU
100
AcDbBlockReference
  2
_Open
 10
467.5929013158129
 20
115.7610416519325
 30
0.0
 41
4.0
 42
4.0
 43
4.0
 50
270.0
  0
MTEXT
  5
7491
330
6835
100
AcDbEntity
  8
SUNPOU
100
AcDbMText
 10
462.5929013158128
 20
198.7310416519325
 30
0.0
 40
6.0
 41
0.0
 71
     5
 72
     5
  1
\A1;166
 11
0.0000000000000001
 21
1.0
 31
0.0
 73
     1
 44
1.0
1001
ACAD
1000
MTEXTBEGIN
1070
    73
1070
     1
1070
    44
1040
1.0
1070
    74
1070
     0
1000
MTEXTEND
  0
POINT
  5
7492
330
6835
100
AcDbEntity
  8
DEFPOINTS
 62
     0
100
AcDbPoint
 10
552.1742935767861
 20
281.7010416519324
 30
0.0
  0
POINT
  5
7493
330
6835
100
AcDbEntity
  8
DEFPOINTS
 62
     0
100
AcDbPoint
 10
603.7733230438038
 20
115.7610416519324
 30
0.0
  0
POINT
  5
7494
330
6835
100
AcDbEntity
  8
DEFPOINTS
 62
     0
100
AcDbPoint
 10
467.5929013158129
 20
115.7610416519325
 30
0.0
  0
ENDBLK
  5
6840
330
6835
100
AcDbEntity
  8
0
100
AcDbBlockEnd
  0
BLOCK
  5
6859
330
684F
100
AcDbEntity
  8
0
100
AcDbBlockBegin
  2
*D6
 70
     1
 10
0.0
 20
0.0
 30
0.0
  3
*D6
  1

  0
LINE
  5
8185
330
684F
100
AcDbEntity
  8
SUNPOU
100
AcDbLine
 10
664.0021230438037
 20
119.9610416519324
 30
0.0
 11
664.0021230438037
 21
92.50998762573045
 31
0.0
  0
LINE
  5
8186
330
684F
100
AcDbEntity
  8
SUNPOU
100
AcDbLine
 10
602.7445230438038
 20
119.9610416519324
 30
0.0
 11
602.7445230438038
 21
92.50998762573045
 31
0.0
  0
LINE
  5
8187
330
684F
100
AcDbEntity
  8
SUNPOU
100
AcDbLine
 10
660.0021230438037
 20
94.50998762573044
 30
0.0
 11
606.7445230438038
 21
94.50998762573044
 31
0.0
  0
INSERT
  5
8188
330
684F
100
AcDbEntity
  8
SUNPOU
100
AcDbBlockReference
  2
_Open
 10
664.0021230438037
 20
94.50998762573044
 30
0.0
 41
4.0
 42
4.0
 43
4.0
  0
INSERT
  5
8189
330
684F
100
AcDbEntity
  8
SUNPOU
100
AcDbBlockReference
  2
_Open
 10
602.7445230438038
 20
94.50998762573044
 30
0.0
 41
4.0
 42
4.0
 43
4.0
 50
180.0
  0
MTEXT
  5
818A
330
684F
100
AcDbEntity
  8
SUNPOU
100
AcDbMText
 10
633.3733230438038
 20
99.50998762573044
 30
0.0
 40
6.0
 41
0.0
 71
     5
 72
     1
  1
\A1;61
 73
     1
 44
1.0
1001
ACAD
1000
MTEXTBEGIN
1070
    73
1070
     1
1070
    44
1040
1.0
1070
    74
1070
     0
1000
MTEXTEND
  0
POINT
  5
818B
330
684F
100
AcDbEntity
  8
DEFPOINTS
 62
     0
100
AcDbPoint
 10
664.0021230438037
 20
121.9610416519324
 30
0.0
  0
POINT
  5
818C
330
684F
100
AcDbEntity
  8
DEFPOINTS
 62
     0
100
AcDbPoint
 10
602.7445230438038
 20
121.9610416519324
 30
0.0
  0
POINT
  5
818D
330
684F
100
AcDbEntity
  8
DEFPOINTS
 62
     0
100
AcDbPoint
 10
602.7445230438038
 20
94.50998762573044
 30
0.0
  0
ENDBLK
  5
685A
330
684F
100
AcDbEntity
  8
0
100
AcDbBlockEnd
  0
BLOCK
  5
6862
330
685C
100
AcDbEntity
  8
0
100
AcDbBlockBegin
  2
*D7
 70
     1
 10
0.0
 20
0.0
 30
0.0
  3
*D7
  1

  0
LINE
  5
8166
330
685C
100
AcDbEntity
  8
SUNPOU
100
AcDbLine
 10
242.557718140907
 20
460.5143688510636
 30
0.0
 11
286.4714757400329
 21
482.2537225178884
 31
0.0
  0
MTEXT
  5
8167
330
685C
100
AcDbEntity
  8
SUNPOU
100
AcDbMText
 10
274.4394007026076
 20
482.6470720493961
 30
0.0
 40
6.0
 41
0.0
 71
     5
 72
     1
  1
\A1;\U+220557
 11
0.8961958491918579
 21
0.4436586524472218
 31
0.0
 73
     1
 44
1.0
1001
ACAD
1000
MTEXTBEGIN
1070
    73
1070
     1
1070
    44
1040
1.0
1070
    74
1070
     0
1000
MTEXTEND
  0
INSERT
  5
8168
330
685C
100
AcDbEntity
  8
SUNPOU
100
AcDbBlockReference
  2
_Open
 10
238.9729347441395
 20
458.7397342412747
 30
0.0
 41
4.0
 42
4.0
 43
4.0
 50
206.3375516295384
  0
INSERT
  5
8169
330
685C
100
AcDbEntity
  8
SUNPOU
100
AcDbBlockReference
  2
_Open
 10
290.0562591368004
 20
484.0283571276773
 30
0.0
 41
4.0
 42
4.0
 43
4.0
 50
26.33755162953844
  0
POINT
  5
816A
330
685C
100
AcDbEntity
  8
DEFPOINTS
 62
     0
100
AcDbPoint
 10
290.0562591368004
 20
484.0283571276773
 30
0.0
  0
POINT
  5
816B
330
685C
100
AcDbEntity
  8
DEFPOINTS
 62
     0
100
AcDbPoint
 10
238.9729347441395
 20
458.7397342412747
 30
0.0
  0
ENDBLK
  5
6863
330
685C
100
AcDbEntity
  8
0
100
AcDbBlockEnd
  0
BLOCK
  5
73D7
330
73CD
100
AcDbEntity
  8
0
100
AcDbBlockBegin
  2
*D8
 70
     1
 10
0.0
 20
0.0
 30
0.0
  3
*D8
  1

  0
LINE
  5
7483
330
73CD
100
AcDbEntity
  8
SUNPOU
100
AcDbLine
 10
550.1742935767861
 20
281.7010416519324
 30
0.0
 11
480.4225193646398
 21
281.7010416519324
 31
0.0
  0
LINE
  5
7484
330
73CD
100
AcDbEntity
  8
SUNPOU
100
AcDbLine
 10
622.8511139580905
 20
164.0508869052291
 30
0.0
 11
480.4225193646398
 21
164.0508869052291
 31
0.0
  0
LINE
  5
7485
330
73CD
100
AcDbEntity
  8
SUNPOU
100
AcDbLine
 10
482.4225193646397
 20
277.7010416519324
 30
0.0
 11
482.4225193646397
 21
168.0508869052291
 31
0.0
  0
INSERT
  5
7486
330
73CD
100
AcDbEntity
  8
SUNPOU
100
AcDbBlockReference
  2
_Open
 10
482.4225193646397
 20
281.7010416519324
 30
0.0
 41
4.0
 42
4.0
 43
4.0
 50
90.0
  0
INSERT
  5
7487
330
73CD
100
AcDbEntity
  8
SUNPOU
100
AcDbBlockReference
  2
_Open
 10
482.4225193646397
 20
164.0508869052291
 30
0.0
 41
4.0
 42
4.0
 43
4.0
 50
270.0
  0
MTEXT
  5
7488
330
73CD
100
AcDbEntity
  8
SUNPOU
100
AcDbMText
 10
477.4225193646397
 20
222.8759642785808
 30
0.0
 40
6.0
 41
0.0
 71
     5
 72
     5
  1
\A1;118
 11
0.0000000000000001
 21
1.0
 31
0.0
 73
     1
 44
1.0
1001
ACAD
1000
MTEXTBEGIN
1070
    73
1070
     1
1070
    44
1040
1.0
1070
    74
1070
     0
1000
MTEXTEND
  0
POINT
  5
7489
330
73CD
100
AcDbEntity
  8
DEFPOINTS
 62
     0
100
AcDbPoint
 10
552.1742935767861
 20
281.7010416519324
 30
0.0
  0
POINT
  5
748A
330
73CD
100
AcDbEntity
  8
DEFPOINTS
 62
     0
100
AcDbPoint
 10
624.8511139580905
 20
164.0508869052291
 30
0.0
  0
POINT
  5
748B
330
73CD
100
AcDbEntity
  8
DEFPOINTS
 62
     0
100
AcDbPoint
 10
482.4225193646397
 20
164.0508869052291
 30
0.0
  0
ENDBLK
  5
73D8
330
73CD
100
AcDbEntity
  8
0
100
AcDbBlockEnd
  0
BLOCK
  5
73E4
330
73DA
100
AcDbEntity
  8
0
100
AcDbBlockBegin
  2
*D9
 70
     1
 10
0.0
 20
0.0
 30
0.0
  3
*D9
  1

  0
LINE
  5
74B0
330
73DA
100
AcDbEntity
  8
SUNPOU
100
AcDbLine
 10
622.8511139580905
 20
164.0508869052291
 30
0.0
 11
480.4225193646398
 21
164.0508869052291
 31
0.0
  0
LINE
  5
74B1
330
73DA
100
AcDbEntity
  8
SUNPOU
100
AcDbLine
 10
579.8104301277753
 20
145.7610416519324
 30
0.0
 11
480.4225193646398
 21
145.7610416519324
 31
0.0
  0
LINE
  5
74B2
330
73DA
100
AcDbEntity
  8
SUNPOU
100
AcDbLine
 10
482.4225193646397
 20
160.0508869052291
 30
0.0
 11
482.4225193646397
 21
149.7610416519324
 31
0.0
  0
INSERT
  5
74B3
330
73DA
100
AcDbEntity
  8
SUNPOU
100
AcDbBlockReference
  2
_Open
 10
482.4225193646397
 20
164.0508869052291
 30
0.0
 41
4.0
 42
4.0
 43
4.0
 50
90.0
  0
INSERT
  5
74B4
330
73DA
100
AcDbEntity
  8
SUNPOU
100
AcDbBlockReference
  2
_Open
 10
482.4225193646397
 20
145.7610416519324
 30
0.0
 41
4.0
 42
4.0
 43
4.0
 50
270.0
  0
MTEXT
  5
74B5
330
73DA
100
AcDbEntity
  8
SUNPOU
100
AcDbMText
 10
477.4225193646397
 20
154.9059642785809
 30
0.0
 40
6.0
 41
0.0
 71
     5
 72
     5
  1
\A1;18
 11
0.0000000000000001
 21
1.0
 31
0.0
 73
     1
 44
1.0
1001
ACAD
1000
MTEXTBEGIN
1070
    73
1070
     1
1070
    44
1040
1.0
1070
    74
1070
     0
1000
MTEXTEND
  0
POINT
  5
74B6
330
73DA
100
AcDbEntity
  8
DEFPOINTS
 62
     0
100
AcDbPoint
 10
624.8511139580905
 20
164.0508869052291
 30
0.0
  0
POINT
  5
74B7
330
73DA
100
AcDbEntity
  8
DEFPOINTS
 62
     0
100
AcDbPoint
 10
581.8104301277753
 20
145.7610416519324
 30
0.0
  0
POINT
  5
74B8
330
73DA
100
AcDbEntity
  8
DEFPOINTS
 62
     0
100
AcDbPoint
 10
482.4225193646397
 20
145.7610416519324
 30
0.0
  0
ENDBLK
  5
73E5
330
73DA
100
AcDbEntity
  8
0
100
AcDbBlockEnd
  0
BLOCK
  5
740C
330
7402
100
AcDbEntity
  8
0
100
AcDbBlockBegin
  2
*D10
 70
     1
 10
0.0
 20
0.0
 30
0.0
  3
*D10
  1

  0
LINE
  5
818E
330
7402
100
AcDbEntity
  8
SUNPOU
100
AcDbLine
 10
680.1455734474091
 20
240.2610416519324
 30
0.0
 11
712.1330226711902
 21
240.2610416519324
 31
0.0
  0
LINE
  5
818F
330
7402
100
AcDbEntity
  8
SUNPOU
100
AcDbLine
 10
626.8511139580905
 20
164.0508869052291
 30
0.0
 11
712.1330226711902
 21
164.0508869052291
 31
0.0
  0
LINE
  5
8190
330
7402
100
AcDbEntity
  8
SUNPOU
100
AcDbLine
 10
710.1330226711902
 20
236.2610416519324
 30
0.0
 11
710.1330226711902
 21
168.0508869052291
 31
0.0
  0
INSERT
  5
8191
330
7402
100
AcDbEntity
  8
SUNPOU
100
AcDbBlockReference
  2
_Open
 10
710.1330226711902
 20
240.2610416519324
 30
0.0
 41
4.0
 42
4.0
 43
4.0
 50
90.0
  0
INSERT
  5
8192
330
7402
100
AcDbEntity
  8
SUNPOU
100
AcDbBlockReference
  2
_Open
 10
710.1330226711902
 20
164.0508869052291
 30
0.0
 41
4.0
 42
4.0
 43
4.0
 50
270.0
  0
MTEXT
  5
8193
330
7402
100
AcDbEntity
  8
SUNPOU
100
AcDbMText
 10
705.1330226711902
 20
202.1559642785808
 30
0.0
 40
6.0
 41
0.0
 71
     5
 72
     1
  1
\A1;76
 11
0.0000000000000001
 21
1.0
 31
0.0
 73
     1
 44
1.0
1001
ACAD
1000
MTEXTBEGIN
1070
    73
1070
     1
1070
    44
1040
1.0
1070
    74
1070
     0
1000
MTEXTEND
  0
POINT
  5
8194
330
7402
100
AcDbEntity
  8
DEFPOINTS
 62
     0
100
AcDbPoint
 10
678.1455734474091
 20
240.2610416519324
 30
0.0
  0
POINT
  5
8195
330
7402
100
AcDbEntity
  8
DEFPOINTS
 62
     0
100
AcDbPoint
 10
624.8511139580905
 20
164.0508869052291
 30
0.0
  0
POINT
  5
8196
330
7402
100
AcDbEntity
  8
DEFPOINTS
 62
     0
100
AcDbPoint
 10
710.1330226711902
 20
164.0508869052291
 30
0.0
  0
ENDBLK
  5
740D
330
7402
100
AcDbEntity
  8
0
100
AcDbBlockEnd
  0
BLOCK
  5
7454
330
744A
100
AcDbEntity
  8
0
100
AcDbBlockBegin
  2
*D11
 70
     1
 10
0.0
 20
0.0
 30
0.0
  3
*D11
  1

  0
LINE
  5
7ED8
330
744A
100
AcDbEntity
  8
SUNPOU
100
AcDbLine
 10
217.0145969404698
 20
283.7010416519324
 30
0.0
 11
217.0145969404698
 21
304.444617414043
 31
0.0
  0
LINE
  5
7ED9
330
744A
100
AcDbEntity
  8
SUNPOU
100
AcDbLine
 10
312.0145969404698
 20
283.7010416519324
 30
0.0
 11
312.0145969404698
 21
304.444617414043
 31
0.0
  0
LINE
  5
7EDA
330
744A
100
AcDbEntity
  8
SUNPOU
100
AcDbLine
 10
221.0145969404698
 20
302.444617414043
 30
0.0
 11
308.0145969404698
 21
302.444617414043
 31
0.0
  0
INSERT
  5
7EDB
330
744A
100
AcDbEntity
  8
SUNPOU
100
AcDbBlockReference
  2
_Open
 10
217.0145969404698
 20
302.444617414043
 30
0.0
 41
4.0
 42
4.0
 43
4.0
 50
180.0
  0
INSERT
  5
7EDC
330
744A
100
AcDbEntity
  8
SUNPOU
100
AcDbBlockReference
  2
_Open
 10
312.0145969404698
 20
302.444617414043
 30
0.0
 41
4.0
 42
4.0
 43
4.0
  0
MTEXT
  5
7EDD
330
744A
100
AcDbEntity
  8
SUNPOU
100
AcDbMText
 10
264.5145969404698
 20
307.444617414043
 30
0.0
 40
6.0
 41
0.0
 71
     5
 72
     5
  1
\A1;※95
 73
     1
 44
1.0
1001
ACAD
1000
MTEXTBEGIN
1070
    73
1070
     1
1070
    44
1040
1.0
1070
    74
1070
     0
1000
MTEXTEND
  0
POINT
  5
7EDE
330
744A
100
AcDbEntity
  8
DEFPOINTS
 62
     0
100
AcDbPoint
 10
217.0145969404698
 20
281.7010416519324
 30
0.0
  0
POINT
  5
7EDF
330
744A
100
AcDbEntity
  8
DEFPOINTS
 62
     0
100
AcDbPoint
 10
312.0145969404698
 20
281.7010416519324
 30
0.0
  0
POINT
  5
7EE0
330
744A
100
AcDbEntity
  8
DEFPOINTS
 62
     0
100
AcDbPoint
 10
312.0145969404698
 20
302.444617414043
 30
0.0
  0
ENDBLK
  5
7455
330
744A
100
AcDbEntity
  8
0
100
AcDbBlockEnd
  0
BLOCK
  5
75B1
330
75A7
100
AcDbEntity
  8
0
100
AcDbBlockBegin
  2
*D12
 70
     1
 10
0.0
 20
0.0
 30
0.0
  3
*D12
  1

  0
LINE
  5
7EF3
330
75A7
100
AcDbEntity
  8
SUNPOU
100
AcDbLine
 10
217.0145969404698
 20
372.6733288636457
 30
0.0
 11
217.0145969404698
 21
339.8902749740553
 31
0.0
  0
LINE
  5
7EF4
330
75A7
100
AcDbEntity
  8
SUNPOU
100
AcDbLine
 10
312.0145969404698
 20
372.6733288636458
 30
0.0
 11
312.0145969404698
 21
339.8902749740553
 31
0.0
  0
LINE
  5
7EF5
330
75A7
100
AcDbEntity
  8
SUNPOU
100
AcDbLine
 10
221.0145969404698
 20
341.8902749740553
 30
0.0
 11
308.0145969404698
 21
341.8902749740553
 31
0.0
  0
INSERT
  5
7EF6
330
75A7
100
AcDbEntity
  8
SUNPOU
100
AcDbBlockReference
  2
_Open
 10
217.0145969404698
 20
341.8902749740553
 30
0.0
 41
4.0
 42
4.0
 43
4.0
 50
180.0
  0
INSERT
  5
7EF7
330
75A7
100
AcDbEntity
  8
SUNPOU
100
AcDbBlockReference
  2
_Open
 10
312.0145969404698
 20
341.8902749740553
 30
0.0
 41
4.0
 42
4.0
 43
4.0
  0
MTEXT
  5
7EF8
330
75A7
100
AcDbEntity
  8
SUNPOU
100
AcDbMText
 10
264.5145969404698
 20
346.8902749740553
 30
0.0
 40
6.0
 41
0.0
 71
     5
 72
     5
  1
\A1;※95
 73
     1
 44
1.0
1001
ACAD
1000
MTEXTBEGIN
1070
    73
1070
     1
1070
    44
1040
1.0
1070
    74
1070
     0
1000
MTEXTEND
  0
POINT
  5
7EF9
330
75A7
100
AcDbEntity
  8
DEFPOINTS
 62
     0
100
AcDbPoint
 10
217.0145969404698
 20
374.6733288636457
 30
0.0
  0
POINT
  5
7EFA
330
75A7
100
AcDbEntity
  8
DEFPOINTS
 62
     0
100
AcDbPoint
 10
312.0145969404698
 20
374.6733288636458
 30
0.0
  0
POINT
  5
7EFB
330
75A7
100
AcDbEntity
  8
DEFPOINTS
 62
     0
100
AcDbPoint
 10
312.0145969404698
 20
341.8902749740553
 30
0.0
  0
ENDBLK
  5
75B2
330
75A7
100
AcDbEntity
  8
0
100
AcDbBlockEnd
  0
BLOCK
  5
779D
330
7793
100
AcDbEntity
  8
0
100
AcDbBlockBegin
  2
*D13
 70
     1
 10
0.0
 20
0.0
 30
0.0
  3
*D13
  1

  0
LINE
  5
8197
330
7793
100
AcDbEntity
  8
SUNPOU
100
AcDbLine
 10
686.5766104272193
 20
234.3718572336112
 30
0.0
 11
686.5766104272193
 21
258.0840473053036
 31
0.0
  0
LINE
  5
8198
330
7793
100
AcDbEntity
  8
SUNPOU
100
AcDbLine
 10
633.3733230438038
 20
156.3559097225268
 30
0.0
 11
633.3733230438038
 21
258.0840473053036
 31
0.0
  0
LINE
  5
8199
330
7793
100
AcDbEntity
  8
SUNPOU
100
AcDbLine
 10
682.5766104272193
 20
256.0840473053036
 30
0.0
 11
637.3733230438038
 21
256.0840473053036
 31
0.0
  0
INSERT
  5
819A
330
7793
100
AcDbEntity
  8
SUNPOU
100
AcDbBlockReference
  2
_Open
 10
686.5766104272193
 20
256.0840473053036
 30
0.0
 41
4.0
 42
4.0
 43
4.0
  0
INSERT
  5
819B
330
7793
100
AcDbEntity
  8
SUNPOU
100
AcDbBlockReference
  2
_Open
 10
633.3733230438038
 20
256.0840473053036
 30
0.0
 41
4.0
 42
4.0
 43
4.0
 50
180.0
  0
MTEXT
  5
819C
330
7793
100
AcDbEntity
  8
SUNPOU
100
AcDbMText
 10
659.9749667355115
 20
261.0840473053035
 30
0.0
 40
6.0
 41
0.0
 71
     5
 72
     1
  1
\A1;53
 73
     1
 44
1.0
1001
ACAD
1000
MTEXTBEGIN
1070
    73
1070
     1
1070
    44
1040
1.0
1070
    74
1070
     0
1000
MTEXTEND
  0
POINT
  5
819D
330
7793
100
AcDbEntity
  8
DEFPOINTS
 62
     0
100
AcDbPoint
 10
686.5766104272193
 20
232.3718572336112
 30
0.0
  0
POINT
  5
819E
330
7793
100
AcDbEntity
  8
DEFPOINTS
 62
     0
100
AcDbPoint
 10
633.3733230438038
 20
154.3559097225268
 30
0.0
  0
POINT
  5
819F
330
7793
100
AcDbEntity
  8
DEFPOINTS
 62
     0
100
AcDbPoint
 10
633.3733230438038
 20
256.0840473053036
 30
0.0
  0
ENDBLK
  5
779E
330
7793
100
AcDbEntity
  8
0
100
AcDbBlockEnd
  0
BLOCK
  5
8018
330
800E
100
AcDbEntity
  8
0
100
AcDbBlockBegin
  2
*D14
 70
     1
 10
0.0
 20
0.0
 30
0.0
  3
*D14
  1

  0
LINE
  5
8173
330
800E
100
AcDbEntity
  8
SUNPOU
100
AcDbLine
 10
686.5867638213513
 20
230.7619636465289
 30
0.0
 11
686.5867638213513
 21
229.1367564046345
 31
0.0
  0
LINE
  5
8174
330
800E
100
AcDbEntity
  8
SUNPOU
100
AcDbLine
 10
617.8490512404972
 20
179.0419762436329
 30
0.0
 11
617.8490512404972
 21
233.1367564046345
 31
0.0
  0
LINE
  5
8175
330
800E
100
AcDbEntity
  8
SUNPOU
100
AcDbLine
 10
682.5867638213513
 20
231.1367564046345
 30
0.0
 11
621.8490512404972
 21
231.1367564046345
 31
0.0
  0
INSERT
  5
8176
330
800E
100
AcDbEntity
  8
SUNPOU
100
AcDbBlockReference
  2
_Open
 10
686.5867638213513
 20
231.1367564046345
 30
0.0
 41
4.0
 42
4.0
 43
4.0
  0
INSERT
  5
8177
330
800E
100
AcDbEntity
  8
SUNPOU
100
AcDbBlockReference
  2
_Open
 10
617.8490512404972
 20
231.1367564046345
 30
0.0
 41
4.0
 42
4.0
 43
4.0
 50
180.0
  0
MTEXT
  5
8178
330
800E
100
AcDbEntity
  8
SUNPOU
100
AcDbMText
 10
652.2179075309243
 20
236.1367564046345
 30
0.0
 40
6.0
 41
0.0
 71
     5
 72
     1
  1
\A1;69
 73
     1
 44
1.0
1001
ACAD
1000
MTEXTBEGIN
1070
    73
1070
     1
1070
    44
1040
1.0
1070
    74
1070
     0
1000
MTEXTEND
  0
POINT
  5
8179
330
800E
100
AcDbEntity
  8
DEFPOINTS
 62
     0
100
AcDbPoint
 10
686.5867638213513
 20
232.7619636465289
 30
0.0
  0
POINT
  5
817A
330
800E
100
AcDbEntity
  8
DEFPOINTS
 62
     0
100
AcDbPoint
 10
617.8490512404972
 20
177.0419762436329
 30
0.0
  0
POINT
  5
817B
330
800E
100
AcDbEntity
  8
DEFPOINTS
 62
     0
100
AcDbPoint
 10
617.8490512404972
 20
231.1367564046345
 30
0.0
  0
ENDBLK
  5
8019
330
800E
100
AcDbEntity
  8
0
100
AcDbBlockEnd
  0
BLOCK
  5
802E
330
8024
100
AcDbEntity
  8
0
100
AcDbBlockBegin
  2
*D15
 70
     1
 10
0.0
 20
0.0
 30
0.0
  3
*D15
  1

  0
LINE
  5
817C
330
8024
100
AcDbEntity
  8
SUNPOU
100
AcDbLine
 10
617.8490512404972
 20
179.0419762436329
 30
0.0
 11
617.8490512404972
 21
193.3634407430945
 31
0.0
  0
LINE
  5
817D
330
8024
100
AcDbEntity
  8
SUNPOU
100
AcDbLine
 10
633.3733230438038
 20
156.3559097225268
 30
0.0
 11
633.3733230438038
 21
193.3634407430945
 31
0.0
  0
LINE
  5
817E
330
8024
100
AcDbEntity
  8
SUNPOU
100
AcDbLine
 10
621.8490512404972
 20
191.3634407430945
 30
0.0
 11
629.3733230438038
 21
191.3634407430945
 31
0.0
  0
INSERT
  5
817F
330
8024
100
AcDbEntity
  8
SUNPOU
100
AcDbBlockReference
  2
_Open
 10
617.8490512404972
 20
191.3634407430945
 30
0.0
 41
4.0
 42
4.0
 43
4.0
 50
180.0
  0
INSERT
  5
8180
330
8024
100
AcDbEntity
  8
SUNPOU
100
AcDbBlockReference
  2
_Open
 10
633.3733230438038
 20
191.3634407430945
 30
0.0
 41
4.0
 42
4.0
 43
4.0
  0
MTEXT
  5
8181
330
8024
100
AcDbEntity
  8
SUNPOU
100
AcDbMText
 10
625.6111871421506
 20
196.3634407430945
 30
0.0
 40
6.0
 41
0.0
 71
     5
 72
     1
  1
\A1;16
 73
     1
 44
1.0
1001
ACAD
1000
MTEXTBEGIN
1070
    73
1070
     1
1070
    44
1040
1.0
1070
    74
1070
     0
1000
MTEXTEND
  0
POINT
  5
8182
330
8024
100
AcDbEntity
  8
DEFPOINTS
 62
     0
100
AcDbPoint
 10
617.8490512404972
 20
177.0419762436329
 30
0.0
  0
POINT
  5
8183
330
8024
100
AcDbEntity
  8
DEFPOINTS
 62
     0
100
AcDbPoint
 10
633.3733230438038
 20
154.3559097225268
 30
0.0
  0
POINT
  5
8184
330
8024
100
AcDbEntity
  8
DEFPOINTS
 62
     0
100
AcDbPoint
 10
633.3733230438038
 20
191.3634407430945
 30
0.0
  0
ENDBLK
  5
802F
330
8024
100
AcDbEntity
  8
0
100
AcDbBlockEnd
  0
ENDSEC
  0
SECTION
  2
ENTITIES
  0
LWPOLYLINE
  5
76D
330
1A
100
AcDbEntity
  8
ZUWAKU
100
AcDbPolyline
 90
        4
 70
     1
 43
0.0
 10
15.79999918477006
 20
565.8000003741979
 10
15.79999918477006
 20
15.80000037419791
 10
811.79999918477
 20
15.80000037419791
 10
811.79999918477
 20
565.8000003741979
  0
LWPOLYLINE
  5
76E
330
1A
100
AcDbEntity
  8
ZUWAKU
100
AcDbPolyline
 90
        4
 70
     1
 43
0.0
 10
15.39999918477008
 20
566.2000003741979
 10
15.39999918477008
 20
15.40000037419793
 10
812.1999991847701
 20
15.40000037419791
 10
812.1999991847701
 20
566.2000003741979
  0
LWPOLYLINE
  5
76F
330
1A
100
AcDbEntity
  8
ZUWAKU
100
AcDbPolyline
 90
        4
 70
     1
 43
0.0
 10
14.9999991847701
 20
566.6000003741978
 10
14.9999991847701
 20
15.00000037419784
 10
812.5999991847702
 20
15.0000003741979
 10
812.5999991847702
 20
566.6000003741979
  0
LWPOLYLINE
  5
770
330
1A
100
AcDbEntity
  8
ZUWAKU
100
AcDbPolyline
 90
        4
 70
     1
 43
0.0
 10
15.59999918477001
 20
566.0000003741979
 10
15.59999918477001
 20
15.60000037419786
 10
811.9999991847702
 20
15.60000037419791
 10
811.99999918477
 20
566.0000003741979
  0
LWPOLYLINE
  5
771
330
1A
100
AcDbEntity
  8
ZUWAKU
100
AcDbPolyline
 90
        4
 70
     1
 43
0.0
 10
15.19999918477003
 20
566.4000003741979
 10
15.19999918477003
 20
15.20000037419788
 10
812.39999918477
 20
15.20000037419791
 10
812.3999991847702
 20
566.4000003741979
  0
LINE
  5
772
330
1A
100
AcDbEntity
  8
ZUWAKU
100
AcDbLine
 10
14.9999991847701
 20
45.00000037419783
 30
0.0
 11
812.39999918477
 21
45.00000037419783
 31
0.0
  0
LINE
  5
773
330
1A
100
AcDbEntity
  8
ZUWAKU
100
AcDbLine
 10
14.9999991847701
 20
45.20000037419784
 30
0.0
 11
812.39999918477
 21
45.20000037419784
 31
0.0
  0
LINE
  5
774
330
1A
100
AcDbEntity
  8
ZUWAKU
100
AcDbLine
 10
14.9999991847701
 20
45.40000037419784
 30
0.0
 11
812.39999918477
 21
45.40000037419784
 31
0.0
  0
LINE
  5
775
330
1A
100
AcDbEntity
  8
ZUWAKU
100
AcDbLine
 10
14.9999991847701
 20
45.60000037419785
 30
0.0
 11
812.39999918477
 21
45.60000037419785
 31
0.0
  0
LINE
  5
776
330
1A
100
AcDbEntity
  8
ZUWAKU
100
AcDbLine
 10
14.9999991847701
 20
45.80000037419785
 30
0.0
 11
812.39999918477
 21
45.80000037419785
 31
0.0
  0
LINE
  5
777
330
1A
100
AcDbEntity
  8
ZUWAKU
100
AcDbLine
 10
223.6466004748381
 20
30.40000037419787
 30
0.0
 11
462.4243631557614
 21
30.40000037419787
 31
0.0
  0
LINE
  5
778
330
1A
100
AcDbEntity
  8
ZUWAKU
100
AcDbLine
 10
223.6466004748381
 20
30.60000037419787
 30
0.0
 11
462.4243631557614
 21
30.60000037419788
 31
0.0
  0
LINE
  5
779
330
1A
100
AcDbEntity
  8
ZUWAKU
100
AcDbLine
 10
223.6466004748381
 20
30.20000037419788
 30
0.0
 11
462.4243631557614
 21
30.20000037419787
 31
0.0
  0
TEXT
  5
77A
330
1A
100
AcDbEntity
  8
moji
100
AcDbText
 10
107.9577887729392
 20
27.7411785044726
 30
0.0
 40
6.0
  1
 アートフェイス
 41
0.9
  7
MSPｺﾞｼｯｸ
100
AcDbText
  0
CIRCLE
  5
77B
330
1A
100
AcDbEntity
  8
ZUWAKU
100
AcDbCircle
 10
40.9922113395512
 20
30.20000037419784
 30
0.0
 40
1.75
  0
LINE
  5
77C
330
1A
100
AcDbEntity
  8
ZUWAKU
100
AcDbLine
 10
41.8672113395512
 20
22.15000037419784
 30
0.0
 11
39.94221133955125
 21
22.15000037419784
 31
0.0
  0
LINE
  5
77D
330
1A
100
AcDbEntity
  8
ZUWAKU
100
AcDbLine
 10
39.94221133955125
 20
24.95000037419784
 30
0.0
 11
41.8672113395512
 21
24.95000037419784
 31
0.0
  0
LINE
  5
77E
330
1A
100
AcDbEntity
  8
ZUWAKU
100
AcDbLine
 10
41.8672113395512
 20
35.45000037419784
 30
0.0
 11
39.94221133955125
 21
35.45000037419784
 31
0.0
  0
LINE
  5
77F
330
1A
100
AcDbEntity
  8
ZUWAKU
100
AcDbLine
 10
39.94221133955125
 20
38.2500003741978
 30
0.0
 11
41.8672113395512
 21
38.25000037419785
 31
0.0
  0
INSERT
  5
780
330
1A
100
AcDbEntity
  8
ZUWAKU
  6
Continuous
100
AcDbBlockReference
  2
*X0
 10
0.0
 20
0.0
 30
0.0
1001
ACAD
1000
HATCH
1002
{
1070
    19
1000
ANSI37
1040
0.2
1040
0.0
1000
R14_HATCH_DATA
1000
780
1011
1.0
1021
0.0
1031
0.0
1011
0.0
1021
1.0
1031
0.0
1011
0.0
1021
0.0
1031
1.0
1040
0.0
1010
0.0
1020
0.0
1030
1.0
1000
ANSI37
1070
     0
1070
     0
1071
        8
1071
        7
1070
     1
1070
     1
1071
       24
1040
29.50226184588996
1040
32.64484885518142
1040
-0.1989123673796348
1040
29.09221133955123
1040
33.63479834884247
1040
0.0
1040
29.09221133955123
1040
34.92500037419785
1040
-0.4142135623730912
1040
29.61721133955121
1040
35.45000037419784
1040
0.0
1040
32.59221133955112
1040
35.45000037419784
1040
0.4142135623731546
1040
33.11721133955121
1040
35.97500037419783
1040
0.0
1040
33.11721133955121
1040
37.72500037419785
1040
0.4142135623731586
1040
32.59221133955112
1040
38.25000037419785
1040
0.0
1040
29.09221133955123
1040
38.25000037419785
1040
0.4142135623730928
1040
26.29221133955127
1040
35.45000037419787
1040
0.0
1040
26.29221133955127
1040
33.6347983488426
1040
0.1989123673796619
1040
27.52236285856771
1040
30.664949867859
1040
0.0
1040
30.43216083321238
1040
27.75515189321434
1040
-0.1989123673796613
1040
30.84221133955123
1040
26.76520239955315
1040
0.0
1040
30.84221133955123
1040
25.47500037419784
1040
-0.4142135623730911
1040
30.31721133955125
1040
24.95000037419784
1040
0.0
1040
27.34221133955134
1040
24.95000037419784
1040
0.4142135623731526
1040
26.81721133955125
1040
24.42500037419785
1040
0.0
1040
26.81721133955125
1040
22.67500037419783
1040
0.4142135623731526
1040
27.34221133955134
1040
22.15000037419784
1040
0.0
1040
30.84221133955123
1040
22.15000037419784
1040
0.4142135623731044
1040
33.6422113395513
1040
24.95000037419782
1040
0.0
1040
33.6422113395513
1040
26.76520239955309
1040
0.1989123673796604
1040
32.41205982053475
1040
29.73505088053663
1040
0.0
1071
        0
1071
        7
1070
     1
1070
     1
1071
       16
1040
38.54221133955127
1040
34.05000037419785
1040
-0.4142135623730935
1040
39.94221133955125
1040
35.45000037419784
1040
0.0
1040
41.8672113395512
1040
35.45000037419784
1040
0.4142135623731546
1040
42.39221133955129
1040
35.97500037419783
1040
0.0
1040
42.39221133955129
1040
37.72500037419785
1040
0.4142135623730951
1040
41.86721133955131
1040
38.25000037419785
1040
0.0
1040
39.94221133955114
1040
38.2500003741978
1040
0.4142135623730892
1040
35.7422113395512
1040
34.05000037419778
1040
0.0
1040
35.7422113395512
1040
26.35000037419787
1040
0.4142135623730969
1040
39.94221133955125
1040
22.15000037419784
1040
0.0
1040
41.8672113395512
1040
22.15000037419784
1040
0.4142135623731526
1040
42.39221133955129
1040
22.67500037419783
1040
0.0
1040
42.39221133955129
1040
24.42500037419785
1040
0.4142135623730891
1040
41.86721133955131
1040
24.95000037419784
1040
0.0
1040
39.94221133955125
1040
24.95000037419784
1040
-0.4142135623730928
1040
38.54221133955127
1040
26.35000037419783
1040
0.0
1071
        0
1071
        7
1070
     1
1070
     1
1071
        2
1040
39.2422113395512
1040
30.20000037419784
1040
1.0
1040
42.7422113395512
1040
30.20000037419784
1040
1.0
1071
        0
1071
        7
1070
     1
1070
     1
1071
       26
1040
52.31485782172922
1040
34.20504756776127
1040
0.0
1040
53.37649745486704
1040
37.56690640603086
1040
0.5069206636600134
1040
52.87586655567167
1040
38.25000037419785
1040
0.0
1040
51.17697717606245
1040
38.25000037419785
1040
0.3272098845218764
1040
50.67634627686709
1040
37.88309434236481
1040
0.0
1040
48.80807640223531
1040
31.96690640603093
1040
-0.3272098845219541
1040
48.30744550303984
1040
31.60000037419784
1040
0.0
1040
48.16721133955138
1040
31.60000037419784
1040
-0.4142135623731526
1040
47.64221133955129
1040
32.12500037419783
1040
0.0
1040
47.64221133955129
1040
37.72500037419785
1040
0.4142135623730951
1040
47.11721133955132
1040
38.25000037419785
1040
0.0
1040
45.3672113395512
1040
38.25000037419785
1040
0.4142135623730871
1040
44.84221133955123
1040
37.72500037419786
1040
0.0
1040
44.84221133955123
1040
22.67500037419783
1040
0.4142135623730891
1040
45.3672113395512
1040
22.15000037419784
1040
0.0
1040
47.1172113395512
1040
22.15000037419784
1040
0.4142135623731526
1040
47.64221133955129
1040
22.67500037419783
1040
0.0
1040
47.64221133955129
1040
28.27500037419786
1040
-0.4142135623731526
1040
48.16721133955138
1040
28.80000037419785
1040
0.0
1040
48.30744550303996
1040
28.80000037419785
1040
-0.3272098845218915
1040
48.80807640223531
1040
28.43309434236477
1040
0.0
1040
50.67634627686709
1040
22.51690640603092
1040
0.3272098845218902
1040
51.17697717606245
1040
22.15000037419784
1040
0.0
1040
52.87586655567167
1040
22.15000037419784
1040
0.5069206636600335
1040
53.37649745486704
1040
22.83309434236485
1040
0.0
1040
51.05010607639338
1040
30.20000037419798
1040
0.0
1071
        0
1071
        7
1070
     1
1070
     1
1071
        8
1040
58.4922113395512
1040
37.72500037419785
1040
0.4142135623731546
1040
57.96721133955111
1040
38.25000037419785
1040
0.0
1040
56.21721133955134
1040
38.25000037419785
1040
0.4142135623731507
1040
55.69221133955124
1040
37.72500037419786
1040
0.0
1040
55.69221133955124
1040
22.67500037419783
1040
0.4142135623731526
1040
56.21721133955134
1040
22.15000037419784
1040
0.0
1040
57.96721133955111
1040
22.15000037419784
1040
0.4142135623731526
1040
58.4922113395512
1040
22.67500037419783
1040
0.0
1071
        0
1071
        7
1070
     1
1070
     1
1071
       24
1040
63.39221133955129
1040
34.92500037419785
1040
-0.4142135623731546
1040
63.91721133955138
1040
35.45000037419784
1040
0.0
1040
66.89221133955129
1040
35.45000037419784
1040
0.4142135623730911
1040
67.41721133955127
1040
35.97500037419783
1040
0.0
1040
67.41721133955127
1040
37.72500037419785
1040
0.4142135623730952
1040
66.89221133955129
1040
38.25000037419785
1040
0.0
1040
63.39221133955129
1040
38.25000037419785
1040
0.4142135623731048
1040
60.59221133955123
1040
35.45000037419787
1040
0.0
1040
60.59221133955123
1040
33.6347983488426
1040
0.1989123673796613
1040
61.82236285856777
1040
30.66494986785905
1040
0.0
1040
64.73216083321244
1040
27.75515189321438
1040
-0.1989123673796402
1040
65.14221133955129
1040
26.76520239955331
1040
0.0
1040
65.14221133955129
1040
25.47500037419784
1040
-0.4142135623730911
1040
64.61721133955132
1040
24.95000037419784
1040
0.0
1040
61.6422113395513
1040
24.95000037419784
1040
0.4142135623731526
1040
61.1172113395512
1040
24.42500037419785
1040
0.0
1040
61.1172113395512
1040
22.67500037419783
1040
0.4142135623730891
1040
61.64221133955118
1040
22.15000037419784
1040
0.0
1040
65.14221133955129
1040
22.15000037419784
1040
0.4142135623730925
1040
67.94221133955125
1040
24.95000037419782
1040
0.0
1040
67.94221133955125
1040
26.76520239955309
1040
0.1989123673796675
1040
66.71205982053471
1040
29.73505088053675
1040
0.0
1040
63.80226184589014
1040
32.64484885518127
1040
-0.1989123673796652
1040
63.39221133955129
1040
33.63479834884243
1040
0.0
1071
        0
1071
        7
1070
     1
1070
     1
1071
       16
1040
72.84221133955123
1040
37.72500037419784
1040
0.414213562373103
1040
72.31721133955125
1040
38.25000037419785
1040
0.0
1040
70.56721133955125
1040
38.25000037419785
1040
0.4142135623730871
1040
70.04221133955127
1040
37.72500037419786
1040
0.0
1040
70.04221133955127
1040
24.95000037419782
1040
0.4142135623730926
1040
72.84221133955123
1040
22.15000037419784
1040
0.0
1040
76.34221133955122
1040
22.15000037419784
1040
0.4142135623731044
1040
79.1422113395513
1040
24.95000037419782
1040
0.0
1040
79.1422113395513
1040
37.72500037419785
1040
0.4142135623730951
1040
78.61721133955132
1040
38.25000037419785
1040
0.0
1040
76.86721133955121
1040
38.25000037419785
1040
0.4142135623730871
1040
76.34221133955122
1040
37.72500037419786
1040
0.0
1040
76.34221133955122
1040
26.00000037419782
1040
-0.414213562373088
1040
75.29221133955127
1040
24.95000037419784
1040
0.0
1040
73.89221133955129
1040
24.95000037419784
1040
-0.4142135623731197
1040
72.84221133955123
1040
26.00000037419782
1040
0.0
1071
        0
1071
        7
1070
     1
1070
     1
1071
        8
1040
84.04221133955127
1040
37.72500037419786
1040
0.4142135623730871
1040
83.51721133955129
1040
38.25000037419785
1040
0.0
1040
81.7672113395513
1040
38.25000037419785
1040
0.4142135623731507
1040
81.24221133955121
1040
37.72500037419786
1040
0.0
1040
81.24221133955121
1040
22.67500037419783
1040
0.4142135623730891
1040
81.76721133955117
1040
22.15000037419784
1040
0.0
1040
83.51721133955129
1040
22.15000037419784
1040
0.4142135623730891
1040
84.04221133955127
1040
22.67500037419783
1040
0.0
1071
        0
1070
     0
1070
     1
1040
0.0
1040
0.2
1070
     0
1070
     2
1040
0.7853981633974483
1040
-885.9423051499089
1040
1.800000374197907
1040
-0.4490128060534576
1040
0.4490128060534577
1070
     0
1040
2.356194490192344
1040
-885.9423051499089
1040
1.800000374197907
1040
-0.4490128060534577
1040
-0.4490128060534576
1070
     0
1040
0.057451373970553
1071
        8
1040
31.07985414779341
1040
30.16717402008339
1040
0.0
1040
37.40451419120927
1040
33.84406255664885
1040
0.0
1040
40.16436707042976
1040
30.51188202026856
1040
0.0
1040
45.91405916640724
1040
31.20129802063934
1040
0.0
1040
56.83847120372684
1040
31.66091028818096
1040
0.0
1040
61.89820007989965
1040
34.41857669060505
1040
0.0
1040
71.55768515717046
1040
33.72915828929285
1040
0.0
1040
82.82707880439284
1040
34.18877055683447
1040
0.0
1002
}
  0
ARC
  5
781
330
1A
100
AcDbEntity
  8
ZUWAKU
100
AcDbCircle
 10
30.4922113395512
 20
33.63479834884254
 30
0.0
 40
4.199999999999999
100
AcDbArc
 50
180.0
 51
225.0
  0
LINE
  5
782
330
1A
100
AcDbEntity
  8
ZUWAKU
100
AcDbLine
 10
35.7422113395512
 20
26.35000037419785
 30
0.0
 11
35.7422113395512
 21
34.0500003741978
 31
0.0
  0
LINE
  5
783
330
1A
100
AcDbEntity
  8
ZUWAKU
100
AcDbLine
 10
38.54221133955127
 20
34.05000037419784
 30
0.0
 11
38.54221133955127
 21
26.35000037419785
 31
0.0
  0
ARC
  5
784
330
1A
100
AcDbEntity
  8
ZUWAKU
100
AcDbCircle
 10
30.4922113395512
 20
33.63479834884254
 30
0.0
 40
1.399999999999999
100
AcDbArc
 50
180.0000000000016
 51
224.9999999999988
  0
ARC
  5
785
330
1A
100
AcDbEntity
  8
ZUWAKU
100
AcDbCircle
 10
39.94221133955125
 20
26.35000037419785
 30
0.0
 40
4.199999999999999
100
AcDbArc
 50
180.0
 51
270.0
  0
ARC
  5
786
330
1A
100
AcDbEntity
  8
ZUWAKU
100
AcDbCircle
 10
30.84221133955123
 20
24.95000037419784
 30
0.0
 40
2.799999999999999
100
AcDbArc
 50
270.0
 51
0.0
  0
ARC
  5
787
330
1A
100
AcDbEntity
  8
ZUWAKU
100
AcDbCircle
 10
29.44221133955125
 20
26.76520239955315
 30
0.0
 40
4.199999999999999
100
AcDbArc
 50
0.0
 51
45.0
  0
LINE
  5
788
330
1A
100
AcDbEntity
  8
ZUWAKU
100
AcDbLine
 10
27.52236285856771
 20
30.66494986785902
 30
0.0
 11
30.43216083321238
 21
27.75515189321436
 31
0.0
  0
LINE
  5
789
330
1A
100
AcDbEntity
  8
ZUWAKU
100
AcDbLine
 10
27.34221133955123
 20
24.95000037419784
 30
0.0
 11
30.31721133955125
 21
24.95000037419784
 31
0.0
  0
LINE
  5
78A
330
1A
100
AcDbEntity
  8
ZUWAKU
100
AcDbLine
 10
27.34221133955123
 20
22.15000037419784
 30
0.0
 11
30.84221133955123
 21
22.15000037419784
 31
0.0
  0
ARC
  5
78B
330
1A
100
AcDbEntity
  8
ZUWAKU
100
AcDbCircle
 10
27.34221133955123
 20
24.42500037419784
 30
0.0
 40
0.525
100
AcDbArc
 50
90.0
 51
180.0
  0
ARC
  5
78C
330
1A
100
AcDbEntity
  8
ZUWAKU
100
AcDbCircle
 10
27.34221133955123
 20
22.67500037419784
 30
0.0
 40
0.525
100
AcDbArc
 50
180.0
 51
270.0
  0
LINE
  5
78D
330
1A
100
AcDbEntity
  8
ZUWAKU
100
AcDbLine
 10
26.81721133955125
 20
22.67500037419784
 30
0.0
 11
26.81721133955125
 21
24.42500037419784
 31
0.0
  0
ARC
  5
78E
330
1A
100
AcDbEntity
  8
ZUWAKU
100
AcDbCircle
 10
29.44221133955125
 20
26.76520239955319
 30
0.0
 40
1.399999999999999
100
AcDbArc
 50
0.0
 51
45.0
  0
ARC
  5
78F
330
1A
100
AcDbEntity
  8
ZUWAKU
100
AcDbCircle
 10
30.31721133955125
 20
25.47500037419785
 30
0.0
 40
0.525
100
AcDbArc
 50
270.0
 51
0.0
  0
LINE
  5
790
330
1A
100
AcDbEntity
  8
ZUWAKU
100
AcDbLine
 10
30.84221133955123
 20
25.47500037419785
 30
0.0
 11
30.84221133955123
 21
26.76520239955319
 31
0.0
  0
LINE
  5
791
330
1A
100
AcDbEntity
  8
ZUWAKU
100
AcDbLine
 10
32.41205982053475
 20
29.73505088053667
 30
0.0
 11
29.50226184589008
 21
32.64484885518135
 31
0.0
  0
ARC
  5
792
330
1A
100
AcDbEntity
  8
ZUWAKU
100
AcDbCircle
 10
39.94221133955125
 20
26.35000037419785
 30
0.0
 40
1.399999999999999
100
AcDbArc
 50
180.0
 51
270.0
  0
LINE
  5
793
330
1A
100
AcDbEntity
  8
ZUWAKU
100
AcDbLine
 10
33.6422113395513
 20
24.95000037419784
 30
0.0
 11
33.6422113395513
 21
26.76520239955319
 31
0.0
  0
ARC
  5
794
330
1A
100
AcDbEntity
  8
ZUWAKU
100
AcDbCircle
 10
32.59221133955123
 20
35.97500037419784
 30
0.0
 40
0.525
100
AcDbArc
 50
270.0
 51
0.0
  0
ARC
  5
795
330
1A
100
AcDbEntity
  8
ZUWAKU
100
AcDbCircle
 10
32.59221133955123
 20
37.72500037419784
 30
0.0
 40
0.525
100
AcDbArc
 50
0.0
 51
90.0
  0
ARC
  5
796
330
1A
100
AcDbEntity
  8
ZUWAKU
100
AcDbCircle
 10
29.09221133955123
 20
35.45000037419784
 30
0.0
 40
2.799999999999999
100
AcDbArc
 50
90.0
 51
180.0
  0
LINE
  5
797
330
1A
100
AcDbEntity
  8
ZUWAKU
100
AcDbLine
 10
26.29221133955127
 20
35.45000037419784
 30
0.0
 11
26.29221133955127
 21
33.6347983488425
 31
0.0
  0
LINE
  5
798
330
1A
100
AcDbEntity
  8
ZUWAKU
100
AcDbLine
 10
32.59221133955123
 20
35.45000037419784
 30
0.0
 11
29.61721133955121
 21
35.45000037419784
 31
0.0
  0
LINE
  5
799
330
1A
100
AcDbEntity
  8
ZUWAKU
100
AcDbLine
 10
29.09221133955123
 20
34.92500037419784
 30
0.0
 11
29.09221133955123
 21
33.6347983488425
 31
0.0
  0
ARC
  5
79A
330
1A
100
AcDbEntity
  8
ZUWAKU
100
AcDbCircle
 10
29.61721133955121
 20
34.92500037419784
 30
0.0
 40
0.525
100
AcDbArc
 50
90.0
 51
180.0
  0
LINE
  5
79B
330
1A
100
AcDbEntity
  8
ZUWAKU
100
AcDbLine
 10
29.09221133955123
 20
38.25000037419785
 30
0.0
 11
32.59221133955123
 21
38.25000037419785
 31
0.0
  0
ARC
  5
79C
330
1A
100
AcDbEntity
  8
ZUWAKU
100
AcDbCircle
 10
39.94221133955125
 20
34.0500003741978
 30
0.0
 40
4.199999999999999
100
AcDbArc
 50
90.0
 51
180.0
  0
ARC
  5
79D
330
1A
100
AcDbEntity
  8
ZUWAKU
100
AcDbCircle
 10
39.94221133955125
 20
34.05000037419784
 30
0.0
 40
1.399999999999999
100
AcDbArc
 50
90.0
 51
180.0
  0
LINE
  5
79E
330
1A
100
AcDbEntity
  8
ZUWAKU
100
AcDbLine
 10
33.11721133955121
 20
37.72500037419784
 30
0.0
 11
33.11721133955121
 21
35.97500037419784
 31
0.0
  0
LINE
  5
79F
330
1A
100
AcDbEntity
  8
ZUWAKU
100
AcDbLine
 10
50.67634627686709
 20
37.88309434236481
 30
0.0
 11
48.80807640223531
 21
31.96690640603087
 31
0.0
  0
LINE
  5
7A0
330
1A
100
AcDbEntity
  8
ZUWAKU
100
AcDbLine
 10
44.84221133955123
 20
37.72500037419784
 30
0.0
 11
44.84221133955123
 21
22.67500037419784
 31
0.0
  0
LINE
  5
7A1
330
1A
100
AcDbEntity
  8
ZUWAKU
100
AcDbLine
 10
47.64221133955129
 20
32.12500037419785
 30
0.0
 11
47.64221133955129
 21
37.72500037419784
 31
0.0
  0
LINE
  5
7A2
330
1A
100
AcDbEntity
  8
ZUWAKU
100
AcDbLine
 10
72.84221133955123
 20
26.00000037419784
 30
0.0
 11
72.84221133955123
 21
37.72500037419784
 31
0.0
  0
LINE
  5
7A3
330
1A
100
AcDbEntity
  8
ZUWAKU
100
AcDbLine
 10
70.04221133955127
 20
37.72500037419784
 30
0.0
 11
70.04221133955127
 21
24.95000037419784
 31
0.0
  0
LINE
  5
7A4
330
1A
100
AcDbEntity
  8
ZUWAKU
100
AcDbLine
 10
58.4922113395512
 20
22.67500037419784
 30
0.0
 11
58.4922113395512
 21
37.72500037419784
 31
0.0
  0
LINE
  5
7A5
330
1A
100
AcDbEntity
  8
ZUWAKU
100
AcDbLine
 10
55.69221133955124
 20
37.72500037419784
 30
0.0
 11
55.69221133955124
 21
22.67500037419784
 31
0.0
  0
LINE
  5
7A6
330
1A
100
AcDbEntity
  8
ZUWAKU
100
AcDbLine
 10
52.31485782172922
 20
34.20504756776127
 30
0.0
 11
51.05010607639338
 21
30.20000037419786
 31
0.0
  0
ARC
  5
7A7
330
1A
100
AcDbEntity
  8
ZUWAKU
100
AcDbCircle
 10
64.79221133955127
 20
33.63479834884254
 30
0.0
 40
4.199999999999999
100
AcDbArc
 50
180.0
 51
225.0
  0
ARC
  5
7A8
330
1A
100
AcDbEntity
  8
ZUWAKU
100
AcDbCircle
 10
64.79221133955127
 20
33.63479834884254
 30
0.0
 40
1.399999999999999
100
AcDbArc
 50
180.0000000000016
 51
224.9999999999988
  0
LINE
  5
7A9
330
1A
100
AcDbEntity
  8
ZUWAKU
100
AcDbLine
 10
81.24221133955121
 20
37.72500037419784
 30
0.0
 11
81.24221133955121
 21
22.67500037419784
 31
0.0
  0
LINE
  5
7AA
330
1A
100
AcDbEntity
  8
ZUWAKU
100
AcDbLine
 10
84.04221133955127
 20
22.67500037419784
 30
0.0
 11
84.04221133955127
 21
37.72500037419784
 31
0.0
  0
LINE
  5
7AB
330
1A
100
AcDbEntity
  8
ZUWAKU
100
AcDbLine
 10
76.34221133955122
 20
37.72500037419784
 30
0.0
 11
76.34221133955122
 21
26.00000037419784
 31
0.0
  0
LINE
  5
7AC
330
1A
100
AcDbEntity
  8
ZUWAKU
100
AcDbLine
 10
79.1422113395513
 20
24.95000037419784
 30
0.0
 11
79.1422113395513
 21
37.72500037419784
 31
0.0
  0
LINE
  5
7AD
330
1A
100
AcDbEntity
  8
ZUWAKU
100
AcDbLine
 10
94.12662873275849
 20
45.00000037419783
 30
0.0
 11
94.12662873275849
 21
15.80000037419791
 31
0.0
  0
LINE
  5
7AE
330
1A
100
AcDbEntity
  8
ZUWAKU
100
AcDbLine
 10
94.52662873275835
 20
45.00000037419783
 30
0.0
 11
94.52662873275858
 21
15.80000037419791
 31
0.0
  0
LINE
  5
7AF
330
1A
100
AcDbEntity
  8
ZUWAKU
100
AcDbLine
 10
94.3266287327583
 20
45.00000037419783
 30
0.0
 11
94.32662873275853
 21
15.80000037419791
 31
0.0
  0
LINE
  5
7B0
330
1A
100
AcDbEntity
  8
ZUWAKU
100
AcDbLine
 10
72.84221133955123
 20
22.15000037419784
 30
0.0
 11
76.34221133955122
 21
22.15000037419784
 31
0.0
  0
LINE
  5
7B1
330
1A
100
AcDbEntity
  8
ZUWAKU
100
AcDbLine
 10
75.29221133955127
 20
24.95000037419784
 30
0.0
 11
73.89221133955129
 21
24.95000037419784
 31
0.0
  0
LINE
  5
7B2
330
1A
100
AcDbEntity
  8
ZUWAKU
100
AcDbLine
 10
56.21721133955123
 20
22.15000037419784
 30
0.0
 11
57.96721133955123
 21
22.15000037419784
 31
0.0
  0
LINE
  5
7B3
330
1A
100
AcDbEntity
  8
ZUWAKU
100
AcDbLine
 10
50.67634627686709
 20
22.51690640603087
 30
0.0
 11
48.80807640223531
 21
28.43309434236481
 31
0.0
  0
ARC
  5
7B4
330
1A
100
AcDbEntity
  8
ZUWAKU
100
AcDbCircle
 10
48.16721133955127
 20
28.27500037419785
 30
0.0
 40
0.525
100
AcDbArc
 50
90.0
 51
180.0
  0
ARC
  5
7B5
330
1A
100
AcDbEntity
  8
ZUWAKU
100
AcDbCircle
 10
48.30744550303996
 20
28.27500037419785
 30
0.0
 40
0.525
100
AcDbArc
 50
17.52556837372303
 51
90.0
  0
ARC
  5
7B6
330
1A
100
AcDbEntity
  8
ZUWAKU
100
AcDbCircle
 10
45.3672113395512
 20
22.67500037419784
 30
0.0
 40
0.525
100
AcDbArc
 50
180.0
 51
270.0
  0
ARC
  5
7B7
330
1A
100
AcDbEntity
  8
ZUWAKU
100
AcDbCircle
 10
41.8672113395512
 20
24.42500037419784
 30
0.0
 40
0.525
100
AcDbArc
 50
0.0
 51
90.0
  0
ARC
  5
7B8
330
1A
100
AcDbEntity
  8
ZUWAKU
100
AcDbCircle
 10
41.8672113395512
 20
22.67500037419784
 30
0.0
 40
0.525
100
AcDbArc
 50
270.0
 51
0.0
  0
LINE
  5
7B9
330
1A
100
AcDbEntity
  8
ZUWAKU
100
AcDbLine
 10
42.39221133955129
 20
24.42500037419784
 30
0.0
 11
42.39221133955129
 21
22.67500037419784
 31
0.0
  0
LINE
  5
7BA
330
1A
100
AcDbEntity
  8
ZUWAKU
100
AcDbLine
 10
47.64221133955129
 20
22.67500037419784
 30
0.0
 11
47.64221133955129
 21
28.27500037419785
 31
0.0
  0
ARC
  5
7BB
330
1A
100
AcDbEntity
  8
ZUWAKU
100
AcDbCircle
 10
47.1172113395512
 20
22.67500037419784
 30
0.0
 40
0.525
100
AcDbArc
 50
270.0
 51
0.0
  0
LINE
  5
7BC
330
1A
100
AcDbEntity
  8
ZUWAKU
100
AcDbLine
 10
45.3672113395512
 20
22.15000037419784
 30
0.0
 11
47.1172113395512
 21
22.15000037419784
 31
0.0
  0
ARC
  5
7BD
330
1A
100
AcDbEntity
  8
ZUWAKU
100
AcDbCircle
 10
48.16721133955127
 20
32.12500037419785
 30
0.0
 40
0.525
100
AcDbArc
 50
180.0
 51
270.0
  0
LINE
  5
7BE
330
1A
100
AcDbEntity
  8
ZUWAKU
100
AcDbLine
 10
48.16721133955127
 20
28.80000037419785
 30
0.0
 11
48.30744550303996
 21
28.80000037419785
 31
0.0
  0
LINE
  5
7BF
330
1A
100
AcDbEntity
  8
ZUWAKU
100
AcDbLine
 10
48.30744550303996
 20
31.60000037419784
 30
0.0
 11
48.16721133955127
 21
31.60000037419784
 31
0.0
  0
ARC
  5
7C0
330
1A
100
AcDbEntity
  8
ZUWAKU
100
AcDbCircle
 10
48.30744550303996
 20
32.12500037419785
 30
0.0
 40
0.525
100
AcDbArc
 50
270.0
 51
342.474431626277
  0
ARC
  5
7C1
330
1A
100
AcDbEntity
  8
ZUWAKU
100
AcDbCircle
 10
51.17697717606256
 20
22.67500037419784
 30
0.0
 40
0.525
100
AcDbArc
 50
197.525568373723
 51
270.0
  0
LINE
  5
7C2
330
1A
100
AcDbEntity
  8
ZUWAKU
100
AcDbLine
 10
53.37649745486704
 20
22.83309434236482
 30
0.0
 11
51.05010607639338
 21
30.20000037419786
 31
0.0
  0
ARC
  5
7C3
330
1A
100
AcDbEntity
  8
ZUWAKU
100
AcDbCircle
 10
52.87586655567157
 20
22.67500037419784
 30
0.0
 40
0.525
100
AcDbArc
 50
270.0
 51
17.52556837372303
  0
LINE
  5
7C4
330
1A
100
AcDbEntity
  8
ZUWAKU
100
AcDbLine
 10
51.17697717606256
 20
22.15000037419784
 30
0.0
 11
52.87586655567157
 21
22.15000037419784
 31
0.0
  0
ARC
  5
7C5
330
1A
100
AcDbEntity
  8
ZUWAKU
100
AcDbCircle
 10
56.21721133955123
 20
22.67500037419784
 30
0.0
 40
0.525
100
AcDbArc
 50
180.0
 51
270.0
  0
ARC
  5
7C6
330
1A
100
AcDbEntity
  8
ZUWAKU
100
AcDbCircle
 10
65.14221133955129
 20
24.95000037419784
 30
0.0
 40
2.799999999999999
100
AcDbArc
 50
270.0
 51
0.0
  0
ARC
  5
7C7
330
1A
100
AcDbEntity
  8
ZUWAKU
100
AcDbCircle
 10
72.84221133955123
 20
24.95000037419784
 30
0.0
 40
2.799999999999999
100
AcDbArc
 50
180.0
 51
270.0
  0
LINE
  5
7C8
330
1A
100
AcDbEntity
  8
ZUWAKU
100
AcDbLine
 10
66.71205982053482
 20
29.73505088053667
 30
0.0
 11
63.80226184589003
 21
32.64484885518135
 31
0.0
  0
LINE
  5
7C9
330
1A
100
AcDbEntity
  8
ZUWAKU
100
AcDbLine
 10
61.82236285856777
 20
30.66494986785902
 30
0.0
 11
64.73216083321244
 21
27.75515189321436
 31
0.0
  0
LINE
  5
7CA
330
1A
100
AcDbEntity
  8
ZUWAKU
100
AcDbLine
 10
61.6422113395513
 20
22.15000037419784
 30
0.0
 11
65.14221133955129
 21
22.15000037419784
 31
0.0
  0
LINE
  5
7CB
330
1A
100
AcDbEntity
  8
ZUWAKU
100
AcDbLine
 10
61.6422113395513
 20
24.95000037419784
 30
0.0
 11
64.6172113395512
 21
24.95000037419784
 31
0.0
  0
ARC
  5
7CC
330
1A
100
AcDbEntity
  8
ZUWAKU
100
AcDbCircle
 10
61.6422113395513
 20
24.42500037419784
 30
0.0
 40
0.525
100
AcDbArc
 50
90.0
 51
180.0
  0
ARC
  5
7CD
330
1A
100
AcDbEntity
  8
ZUWAKU
100
AcDbCircle
 10
57.96721133955123
 20
22.67500037419784
 30
0.0
 40
0.525
100
AcDbArc
 50
270.0
 51
0.0
  0
ARC
  5
7CE
330
1A
100
AcDbEntity
  8
ZUWAKU
100
AcDbCircle
 10
61.6422113395513
 20
22.67500037419784
 30
0.0
 40
0.525
100
AcDbArc
 50
180.0
 51
270.0
  0
LINE
  5
7CF
330
1A
100
AcDbEntity
  8
ZUWAKU
100
AcDbLine
 10
61.1172113395512
 20
22.67500037419784
 30
0.0
 11
61.1172113395512
 21
24.42500037419784
 31
0.0
  0
ARC
  5
7D0
330
1A
100
AcDbEntity
  8
ZUWAKU
100
AcDbCircle
 10
64.6172113395512
 20
25.47500037419785
 30
0.0
 40
0.525
100
AcDbArc
 50
270.0
 51
0.0
  0
ARC
  5
7D1
330
1A
100
AcDbEntity
  8
ZUWAKU
100
AcDbCircle
 10
63.74221133955121
 20
26.76520239955319
 30
0.0
 40
1.399999999999999
100
AcDbArc
 50
0.0
 51
45.0
  0
LINE
  5
7D2
330
1A
100
AcDbEntity
  8
ZUWAKU
100
AcDbLine
 10
65.14221133955129
 20
25.47500037419785
 30
0.0
 11
65.14221133955129
 21
26.76520239955319
 31
0.0
  0
ARC
  5
7D3
330
1A
100
AcDbEntity
  8
ZUWAKU
100
AcDbCircle
 10
73.89221133955129
 20
26.00000037419784
 30
0.0
 40
1.049999999999999
100
AcDbArc
 50
180.0
 51
270.0
  0
ARC
  5
7D4
330
1A
100
AcDbEntity
  8
ZUWAKU
100
AcDbCircle
 10
63.74221133955121
 20
26.76520239955315
 30
0.0
 40
4.199999999999999
100
AcDbArc
 50
0.0
 51
45.0
  0
LINE
  5
7D5
330
1A
100
AcDbEntity
  8
ZUWAKU
100
AcDbLine
 10
67.94221133955125
 20
24.95000037419784
 30
0.0
 11
67.94221133955125
 21
26.76520239955319
 31
0.0
  0
ARC
  5
7D6
330
1A
100
AcDbEntity
  8
ZUWAKU
100
AcDbCircle
 10
76.34221133955122
 20
24.95000037419784
 30
0.0
 40
2.799999999999999
100
AcDbArc
 50
270.0
 51
0.0
  0
LINE
  5
7D7
330
1A
100
AcDbEntity
  8
ZUWAKU
100
AcDbLine
 10
81.7672113395513
 20
22.15000037419784
 30
0.0
 11
83.51721133955129
 21
22.15000037419784
 31
0.0
  0
ARC
  5
7D8
330
1A
100
AcDbEntity
  8
ZUWAKU
100
AcDbCircle
 10
75.29221133955127
 20
26.00000037419784
 30
0.0
 40
1.049999999999999
100
AcDbArc
 50
270.0
 51
0.0
  0
ARC
  5
7D9
330
1A
100
AcDbEntity
  8
ZUWAKU
100
AcDbCircle
 10
81.7672113395513
 20
22.67500037419784
 30
0.0
 40
0.525
100
AcDbArc
 50
180.0
 51
270.0
  0
ARC
  5
7DA
330
1A
100
AcDbEntity
  8
ZUWAKU
100
AcDbCircle
 10
83.51721133955129
 20
22.67500037419784
 30
0.0
 40
0.525
100
AcDbArc
 50
270.0
 51
0.0
  0
LINE
  5
7DB
330
1A
100
AcDbEntity
  8
ZUWAKU
100
AcDbLine
 10
57.96721133955123
 20
38.25000037419785
 30
0.0
 11
56.21721133955123
 21
38.25000037419785
 31
0.0
  0
LINE
  5
7DC
330
1A
100
AcDbEntity
  8
ZUWAKU
100
AcDbLine
 10
42.39221133955129
 20
37.72500037419784
 30
0.0
 11
42.39221133955129
 21
35.97500037419784
 31
0.0
  0
ARC
  5
7DD
330
1A
100
AcDbEntity
  8
ZUWAKU
100
AcDbCircle
 10
41.8672113395512
 20
35.97500037419784
 30
0.0
 40
0.525
100
AcDbArc
 50
270.0
 51
0.0
  0
ARC
  5
7DE
330
1A
100
AcDbEntity
  8
ZUWAKU
100
AcDbCircle
 10
45.3672113395512
 20
37.72500037419784
 30
0.0
 40
0.525
100
AcDbArc
 50
90.0
 51
180.0
  0
ARC
  5
7DF
330
1A
100
AcDbEntity
  8
ZUWAKU
100
AcDbCircle
 10
41.8672113395512
 20
37.72500037419784
 30
0.0
 40
0.525
100
AcDbArc
 50
0.0
 51
90.0
  0
LINE
  5
7E0
330
1A
100
AcDbEntity
  8
ZUWAKU
100
AcDbLine
 10
47.1172113395512
 20
38.25000037419785
 30
0.0
 11
45.3672113395512
 21
38.25000037419785
 31
0.0
  0
ARC
  5
7E1
330
1A
100
AcDbEntity
  8
ZUWAKU
100
AcDbCircle
 10
47.1172113395512
 20
37.72500037419784
 30
0.0
 40
0.525
100
AcDbArc
 50
0.0
 51
90.0
  0
ARC
  5
7E2
330
1A
100
AcDbEntity
  8
ZUWAKU
100
AcDbCircle
 10
51.17697717606256
 20
37.72500037419784
 30
0.0
 40
0.525
100
AcDbArc
 50
90.0
 51
162.474431626277
  0
LINE
  5
7E3
330
1A
100
AcDbEntity
  8
ZUWAKU
100
AcDbLine
 10
53.37649745486704
 20
37.56690640603088
 30
0.0
 11
52.31485782172922
 21
34.20504756776127
 31
0.0
  0
ARC
  5
7E4
330
1A
100
AcDbEntity
  8
ZUWAKU
100
AcDbCircle
 10
52.87586655567157
 20
37.72500037419784
 30
0.0
 40
0.525
100
AcDbArc
 50
342.474431626277
 51
90.0
  0
LINE
  5
7E5
330
1A
100
AcDbEntity
  8
ZUWAKU
100
AcDbLine
 10
51.17697717606256
 20
38.25000037419785
 30
0.0
 11
52.87586655567157
 21
38.25000037419785
 31
0.0
  0
ARC
  5
7E6
330
1A
100
AcDbEntity
  8
ZUWAKU
100
AcDbCircle
 10
56.21721133955123
 20
37.72500037419784
 30
0.0
 40
0.525
100
AcDbArc
 50
90.0
 51
180.0
  0
LINE
  5
7E7
330
1A
100
AcDbEntity
  8
ZUWAKU
100
AcDbLine
 10
66.89221133955129
 20
35.45000037419784
 30
0.0
 11
63.91721133955127
 21
35.45000037419784
 31
0.0
  0
LINE
  5
7E8
330
1A
100
AcDbEntity
  8
ZUWAKU
100
AcDbLine
 10
63.39221133955129
 20
38.25000037419785
 30
0.0
 11
66.89221133955129
 21
38.25000037419785
 31
0.0
  0
ARC
  5
7E9
330
1A
100
AcDbEntity
  8
ZUWAKU
100
AcDbCircle
 10
63.39221133955129
 20
35.45000037419784
 30
0.0
 40
2.799999999999999
100
AcDbArc
 50
90.0
 51
180.0
  0
LINE
  5
7EA
330
1A
100
AcDbEntity
  8
ZUWAKU
100
AcDbLine
 10
60.59221133955123
 20
35.45000037419784
 30
0.0
 11
60.59221133955123
 21
33.6347983488425
 31
0.0
  0
ARC
  5
7EB
330
1A
100
AcDbEntity
  8
ZUWAKU
100
AcDbCircle
 10
57.96721133955123
 20
37.72500037419784
 30
0.0
 40
0.525
100
AcDbArc
 50
0.0
 51
90.0
  0
LINE
  5
7EC
330
1A
100
AcDbEntity
  8
ZUWAKU
100
AcDbLine
 10
63.39221133955129
 20
34.92500037419784
 30
0.0
 11
63.39221133955129
 21
33.6347983488425
 31
0.0
  0
ARC
  5
7ED
330
1A
100
AcDbEntity
  8
ZUWAKU
100
AcDbCircle
 10
63.91721133955127
 20
34.92500037419784
 30
0.0
 40
0.525
100
AcDbArc
 50
90.0
 51
180.0
  0
LINE
  5
7EE
330
1A
100
AcDbEntity
  8
ZUWAKU
100
AcDbLine
 10
67.41721133955127
 20
37.72500037419784
 30
0.0
 11
67.41721133955127
 21
35.97500037419784
 31
0.0
  0
ARC
  5
7EF
330
1A
100
AcDbEntity
  8
ZUWAKU
100
AcDbCircle
 10
66.89221133955129
 20
35.97500037419784
 30
0.0
 40
0.525
100
AcDbArc
 50
270.0
 51
0.0
  0
ARC
  5
7F0
330
1A
100
AcDbEntity
  8
ZUWAKU
100
AcDbCircle
 10
66.89221133955129
 20
37.72500037419784
 30
0.0
 40
0.525
100
AcDbArc
 50
0.0
 51
90.0
  0
LINE
  5
7F1
330
1A
100
AcDbEntity
  8
ZUWAKU
100
AcDbLine
 10
72.31721133955125
 20
38.25000037419785
 30
0.0
 11
70.56721133955125
 21
38.25000037419785
 31
0.0
  0
ARC
  5
7F2
330
1A
100
AcDbEntity
  8
ZUWAKU
100
AcDbCircle
 10
70.56721133955125
 20
37.72500037419784
 30
0.0
 40
0.525
100
AcDbArc
 50
90.0
 51
180.0
  0
ARC
  5
7F3
330
1A
100
AcDbEntity
  8
ZUWAKU
100
AcDbCircle
 10
72.31721133955125
 20
37.72500037419784
 30
0.0
 40
0.525
100
AcDbArc
 50
0.0
 51
90.0
  0
LINE
  5
7F4
330
1A
100
AcDbEntity
  8
ZUWAKU
100
AcDbLine
 10
83.51721133955129
 20
38.25000037419785
 30
0.0
 11
81.7672113395513
 21
38.25000037419785
 31
0.0
  0
ARC
  5
7F5
330
1A
100
AcDbEntity
  8
ZUWAKU
100
AcDbCircle
 10
76.86721133955121
 20
37.72500037419784
 30
0.0
 40
0.525
100
AcDbArc
 50
90.0
 51
180.0
  0
LINE
  5
7F6
330
1A
100
AcDbEntity
  8
ZUWAKU
100
AcDbLine
 10
78.6172113395512
 20
38.25000037419785
 30
0.0
 11
76.86721133955121
 21
38.25000037419785
 31
0.0
  0
ARC
  5
7F7
330
1A
100
AcDbEntity
  8
ZUWAKU
100
AcDbCircle
 10
78.6172113395512
 20
37.72500037419784
 30
0.0
 40
0.525
100
AcDbArc
 50
0.0
 51
90.0
  0
ARC
  5
7F8
330
1A
100
AcDbEntity
  8
ZUWAKU
100
AcDbCircle
 10
81.7672113395513
 20
37.72500037419784
 30
0.0
 40
0.525
100
AcDbArc
 50
90.0
 51
180.0
  0
ARC
  5
7F9
330
1A
100
AcDbEntity
  8
ZUWAKU
100
AcDbCircle
 10
83.51721133955129
 20
37.72500037419784
 30
0.0
 40
0.525
100
AcDbArc
 50
0.0
 51
90.0
  0
TEXT
  5
7FA
330
1A
100
AcDbEntity
  8
moji
100
AcDbText
 10
254.8272018656212
 20
33.00492143160523
 30
0.0
 40
5.599999999999999
  1
洋風じょうご（高排水用）
 41
0.9
  7
MSPｺﾞｼｯｸ
100
AcDbText
  0
LINE
  5
7FB
330
1A
100
AcDbEntity
  8
ZUWAKU
100
AcDbLine
 10
223.4466004748378
 20
45.00000037419783
 30
0.0
 11
223.4466004748381
 21
15.80000037419791
 31
0.0
  0
LINE
  5
7FC
330
1A
100
AcDbEntity
  8
ZUWAKU
100
AcDbLine
 10
223.6466004748379
 20
45.00000037419783
 30
0.0
 11
223.6466004748381
 21
15.80000037419791
 31
0.0
  0
LINE
  5
7FD
330
1A
100
AcDbEntity
  8
ZUWAKU
100
AcDbLine
 10
223.246600474838
 20
45.00000037419783
 30
0.0
 11
223.246600474838
 21
15.80000037419791
 31
0.0
  0
TEXT
  5
7FE
330
1A
100
AcDbEntity
  8
ZUWAKU
100
AcDbText
 10
224.7240454970476
 20
24.65535691258346
 30
0.0
 40
4.0
  1
サイズ
 41
0.9
  7
MSPｺﾞｼｯｸ
100
AcDbText
  0
TEXT
  5
800
330
1A
100
AcDbEntity
  8
ZUWAKU
100
AcDbText
 10
224.7240454970474
 20
39.05535691258342
 30
0.0
 40
4.0
  1
品名
 41
0.9
  7
MSPｺﾞｼｯｸ
100
AcDbText
  0
TEXT
  5
801
330
1A
100
AcDbEntity
  8
ZUWAKU
100
AcDbText
 10
673.2039368720725
 20
33.00492143160523
 30
0.0
 40
5.599999999999999
  1
　　．　　．　　
 41
0.9
  7
MSPｺﾞｼｯｸ
100
AcDbText
  0
LINE
  5
802
330
1A
100
AcDbEntity
  8
ZUWAKU
100
AcDbLine
 10
663.8172016949742
 20
30.60000037419787
 30
0.0
 11
712.2490097333114
 21
30.60000037419787
 31
0.0
  0
LINE
  5
803
330
1A
100
AcDbEntity
  8
ZUWAKU
100
AcDbLine
 10
663.8172016949745
 20
30.40000037419788
 30
0.0
 11
712.2490097333114
 21
30.40000037419787
 31
0.0
  0
LINE
  5
804
330
1A
100
AcDbEntity
  8
ZUWAKU
100
AcDbLine
 10
663.8172016949742
 20
30.20000037419787
 30
0.0
 11
712.2490097333114
 21
30.20000037419788
 31
0.0
  0
LINE
  5
805
330
1A
100
AcDbEntity
  8
ZUWAKU
100
AcDbLine
 10
520.1991786829109
 20
30.60000037419787
 30
0.0
 11
567.5269549508825
 21
30.60000037419787
 31
0.0
  0
LINE
  5
806
330
1A
100
AcDbEntity
  8
ZUWAKU
100
AcDbLine
 10
520.1991786829109
 20
30.40000037419787
 30
0.0
 11
567.5269549508825
 21
30.40000037419787
 31
0.0
  0
LINE
  5
807
330
1A
100
AcDbEntity
  8
ZUWAKU
100
AcDbLine
 10
520.1991786829109
 20
30.20000037419788
 30
0.0
 11
567.5269549508825
 21
30.20000037419788
 31
0.0
  0
LINE
  5
808
330
1A
100
AcDbEntity
  8
ZUWAKU
100
AcDbLine
 10
519.7991786829111
 20
45.00000037419783
 30
0.0
 11
519.7991786829111
 21
15.80000037419791
 31
0.0
  0
LINE
  5
809
330
1A
100
AcDbEntity
  8
ZUWAKU
100
AcDbLine
 10
520.1991786829109
 20
45.00000037419783
 30
0.0
 11
520.1991786829112
 21
15.80000037419791
 31
0.0
  0
LINE
  5
80A
330
1A
100
AcDbEntity
  8
ZUWAKU
100
AcDbLine
 10
519.9991786829109
 20
45.00000037419783
 30
0.0
 11
519.9991786829111
 21
15.80000037419791
 31
0.0
  0
TEXT
  5
80B
330
1A
100
AcDbEntity
  8
moji
100
AcDbText
 10
472.4869517551483
 20
27.66508898317284
 30
0.0
 40
5.599999999999999
  1
ＰＦ９５□
 41
0.9
  7
MSPｺﾞｼｯｸ
100
AcDbText
  0
LINE
  5
80C
330
1A
100
AcDbEntity
  8
ZUWAKU
100
AcDbLine
 10
462.4243631557614
 20
45.00000037419783
 30
0.0
 11
462.4243631557614
 21
15.80000037419791
 31
0.0
  0
LINE
  5
80D
330
1A
100
AcDbEntity
  8
ZUWAKU
100
AcDbLine
 10
462.8243631557613
 20
45.00000037419783
 30
0.0
 11
462.8243631557616
 21
15.80000037419791
 31
0.0
  0
LINE
  5
80E
330
1A
100
AcDbEntity
  8
ZUWAKU
100
AcDbLine
 10
462.6243631557612
 20
45.00000037419783
 30
0.0
 11
462.6243631557615
 21
15.80000037419791
 31
0.0
  0
TEXT
  5
80F
330
1A
100
AcDbEntity
  8
SUNPOU
100
AcDbText
 10
702.8813784479816
 20
62.21272109993924
 30
0.0
 40
5.599999999999999
  1
※　のきといの縁切り長さ
 41
0.9
  7
MSPｺﾞｼｯｸ
100
AcDbText
  0
TEXT
  5
810
330
1A
100
AcDbEntity
  8
ZUWAKU
100
AcDbText
 10
477.6937608402772
 20
17.61407128533733
 30
0.0
 40
3.0
  1
□には色品番が入ります
 41
0.9
  7
MSPｺﾞｼｯｸ
100
AcDbText
  0
TEXT
  5
811
330
1A
100
AcDbEntity
  8
ZUWAKU
100
AcDbText
 10
521.6766237051208
 20
24.65535691258346
 30
0.0
 40
4.0
  1
縮尺
 41
0.9
  7
MSPｺﾞｼｯｸ
100
AcDbText
  0
TEXT
  5
812
330
1A
100
AcDbEntity
  8
moji
100
AcDbText
 10
543.040907157083
 20
18.20492143160526
 30
0.0
 40
5.599999999999999
  1
１/２
 41
0.9
  7
MSPｺﾞｼｯｸ
100
AcDbText
  0
TEXT
  5
813
330
1A
100
AcDbEntity
  8
ZUWAKU
100
AcDbText
 10
464.3018081779709
 20
39.05535691258342
 30
0.0
 40
4.0
  1
品番
 41
0.9
  7
MSPｺﾞｼｯｸ
100
AcDbText
  0
TEXT
  5
814
330
1A
100
AcDbEntity
  8
ZUWAKU
100
AcDbText
 10
521.6766237051206
 20
39.05535691258342
 30
0.0
 40
4.0
  1
用紙
 41
0.9
  7
MSPｺﾞｼｯｸ
100
AcDbText
  0
LINE
  5
815
330
1A
100
AcDbEntity
  8
ZUWAKU
100
AcDbLine
 10
567.5269549508825
 20
45.00000037419783
 30
0.0
 11
567.5269549508825
 21
15.80000037419791
 31
0.0
  0
LINE
  5
816
330
1A
100
AcDbEntity
  8
ZUWAKU
100
AcDbLine
 10
567.9269549508823
 20
45.00000037419783
 30
0.0
 11
567.9269549508826
 21
15.80000037419791
 31
0.0
  0
LINE
  5
817
330
1A
100
AcDbEntity
  8
ZUWAKU
100
AcDbLine
 10
567.7269549508824
 20
45.00000037419783
 30
0.0
 11
567.7269549508825
 21
15.80000037419791
 31
0.0
  0
LINE
  5
818
330
1A
100
AcDbEntity
  8
ZUWAKU
100
AcDbLine
 10
663.4172016949746
 20
45.00000037419783
 30
0.0
 11
663.4172016949746
 21
15.80000037419791
 31
0.0
  0
LINE
  5
819
330
1A
100
AcDbEntity
  8
ZUWAKU
100
AcDbLine
 10
663.8172016949745
 20
45.00000037419783
 30
0.0
 11
663.8172016949747
 21
15.80000037419791
 31
0.0
  0
LINE
  5
81A
330
1A
100
AcDbEntity
  8
ZUWAKU
100
AcDbLine
 10
663.6172016949744
 20
45.00000037419783
 30
0.0
 11
663.6172016949747
 21
15.80000037419791
 31
0.0
  0
TEXT
  5
81B
330
1A
100
AcDbEntity
  8
ZUWAKU
100
AcDbText
 10
665.2946467171841
 20
39.05535691258342
 30
0.0
 40
4.0
  1
DATE
 41
0.9
  7
MSPｺﾞｼｯｸ
100
AcDbText
  0
TEXT
  5
81C
330
1A
100
AcDbEntity
  8
ZUWAKU
100
AcDbText
 10
723.5280833770139
 20
26.42161264036849
 30
0.0
 40
6.0
  1
積水化学工業株式会社
 41
0.9
  7
MSPｺﾞｼｯｸ
100
AcDbText
  0
LINE
  5
81D
330
1A
100
AcDbEntity
  8
ZUWAKU
100
AcDbLine
 10
712.8490097333113
 20
45.00000037419783
 30
0.0
 11
712.8490097333115
 21
15.80000037419791
 31
0.0
  0
LINE
  5
81E
330
1A
100
AcDbEntity
  8
ZUWAKU
100
AcDbLine
 10
712.6490097333112
 20
45.00000037419783
 30
0.0
 11
712.6490097333114
 21
15.80000037419791
 31
0.0
  0
LINE
  5
81F
330
1A
100
AcDbEntity
  8
ZUWAKU
100
AcDbLine
 10
712.4490097333114
 20
45.00000037419783
 30
0.0
 11
712.4490097333114
 21
15.80000037419791
 31
0.0
  0
LINE
  5
820
330
1A
100
AcDbEntity
  8
ZUWAKU
100
AcDbLine
 10
712.2490097333114
 20
45.00000037419783
 30
0.0
 11
712.2490097333114
 21
15.80000037419791
 31
0.0
  0
TEXT
  5
256A
330
1A
100
AcDbEntity
  8
moji
100
AcDbText
 10
255.1446427531778
 20
18.74884737750585
 30
0.0
 40
5.599999999999999
  1
Ｔ１２０
 41
0.9
  7
MSPｺﾞｼｯｸ
100
AcDbText
  0
POINT
  5
317C
330
1A
100
AcDbEntity
  8
SEIHIN
 62
     3
 48
5.0
100
AcDbPoint
 10
1175.591099117038
 20
81.83747118836647
 30
0.0
  0
POINT
  5
3188
330
1A
100
AcDbEntity
  8
SEIHIN
 62
     3
 48
5.0
100
AcDbPoint
 10
1226.024299117038
 20
81.83737118836637
 30
0.0
  0
POINT
  5
3189
330
1A
100
AcDbEntity
  8
SEIHIN
 62
     3
 48
5.0
100
AcDbPoint
 10
1231.231899117038
 20
97.83757118836639
 30
0.0
  0
POINT
  5
318B
330
1A
100
AcDbEntity
  8
SEIHIN
 62
     3
 48
5.0
100
AcDbPoint
 10
1231.231899117038
 20
107.8375711883664
 30
0.0
  0
POINT
  5
318D
330
1A
100
AcDbEntity
  8
SEIHIN
 62
     3
 48
5.0
100
AcDbPoint
 10
1253.231899117038
 20
132.8461711883664
 30
0.0
  0
POINT
  5
3190
330
1A
100
AcDbEntity
  8
SEIHIN
 62
     3
 48
5.0
100
AcDbPoint
 10
1224.872299117038
 20
163.5040711883665
 30
0.0
  0
POINT
  5
3192
330
1A
100
AcDbEntity
  8
SEIHIN
 62
     3
 48
5.0
100
AcDbPoint
 10
1249.871999117038
 20
196.9582711883664
 30
0.0
  0
POINT
  5
31AB
330
1A
100
AcDbEntity
  8
SEIHIN
 62
     3
 48
5.0
100
AcDbPoint
 10
1200.807999117038
 20
262.8374711883664
 30
0.0
  0
POINT
  5
31B5
330
1A
100
AcDbEntity
  8
SEIHIN
 62
     3
 48
5.0
100
AcDbPoint
 10
1170.383799117038
 20
384.1692711883665
 30
0.0
  0
POINT
  5
31C2
330
1A
100
AcDbEntity
  8
SEIHIN
 62
     3
 48
5.0
100
AcDbPoint
 10
1231.232199117038
 20
384.1692711883665
 30
0.0
  0
POINT
  5
31DA
330
1A
100
AcDbEntity
  8
SEIHIN
 62
     3
 48
5.0
100
AcDbPoint
 10
1391.481799117038
 20
81.83687118836648
 30
0.0
  0
POINT
  5
31E2
330
1A
100
AcDbEntity
  8
SEIHIN
 62
     3
 48
5.0
100
AcDbPoint
 10
1462.875099117038
 20
81.83687118836648
 30
0.0
  0
POINT
  5
3C8A
330
1A
100
AcDbEntity
  8
SEIHIN
  6
Continuous
 62
     3
100
AcDbPoint
 10
982.4664069714188
 20
166.2994957310181
 30
0.0
  0
POINT
  5
3C8B
330
1A
100
AcDbEntity
  8
SEIHIN
  6
Continuous
 62
     3
100
AcDbPoint
 10
982.4664069714188
 20
176.2994957310182
 30
0.0
  0
POINT
  5
3C8C
330
1A
100
AcDbEntity
  8
SEIHIN
  6
Continuous
 62
     3
100
AcDbPoint
 10
982.4665069714187
 20
177.8994957310182
 30
0.0
  0
POINT
  5
3C90
330
1A
100
AcDbEntity
  8
SEIHIN
  6
Continuous
 62
     3
100
AcDbPoint
 10
982.4665069714187
 20
202.8994957310182
 30
0.0
  0
POINT
  5
3CA5
330
1A
100
AcDbEntity
  8
SEIHIN
  6
Continuous
 62
     3
100
AcDbPoint
 10
943.1787069714188
 20
258.1052957310181
 30
0.0
  0
POINT
  5
3CB1
330
1A
100
AcDbEntity
  8
SEIHIN
  6
Continuous
 62
     3
100
AcDbPoint
 10
903.8908069714189
 20
287.7079957310182
 30
0.0
  0
POINT
  5
3CCF
330
1A
100
AcDbEntity
  8
SEIHIN
  6
Continuous
 62
     3
100
AcDbPoint
 10
982.4666069714188
 20
287.7079957310182
 30
0.0
  0
POINT
  5
3CDB
330
1A
100
AcDbEntity
  8
SEIHIN
  6
Continuous
 62
     3
100
AcDbPoint
 10
943.1787069714188
 20
317.3105957310181
 30
0.0
  0
POINT
  5
3D03
330
1A
100
AcDbEntity
  8
SEIHIN
  6
Continuous
 62
     3
100
AcDbPoint
 10
1108.030106971419
 20
202.8995957310182
 30
0.0
  0
LINE
  5
5A4E
330
1A
100
AcDbEntity
  8
SEIHIN
 48
10.0
100
AcDbLine
 10
139.51459694047
 20
402.2287173409424
 30
0.0
 11
139.5145969404698
 21
510.6242000056846
 31
0.0
  0
LINE
  5
5A4F
330
1A
100
AcDbEntity
  8
SEIHIN
 48
10.0
100
AcDbLine
 10
136.5145969404698
 20
510.6242000056846
 30
0.0
 11
136.51459694047
 21
402.2287173409424
 31
0.0
  0
LINE
  5
5A50
330
1A
100
AcDbEntity
  8
SEIHIN
 48
10.0
100
AcDbLine
 10
134.5145969404698
 20
510.6242000056846
 30
0.0
 11
134.51459694047
 21
402.2287173409424
 31
0.0
  0
LINE
  5
5A51
330
1A
100
AcDbEntity
  8
SEIHIN
 48
10.0
100
AcDbLine
 10
135.5145969404698
 20
510.6242000056846
 30
0.0
 11
135.51459694047
 21
402.2287173409424
 31
0.0
  0
LINE
  5
5A52
330
1A
100
AcDbEntity
  8
SEIHIN
 48
10.0
100
AcDbLine
 10
129.5145969404698
 20
510.6242000056846
 30
0.0
 11
129.51459694047
 21
402.2287173409424
 31
0.0
  0
LINE
  5
5A53
330
1A
100
AcDbEntity
  8
SEIHIN
 48
10.0
100
AcDbLine
 10
128.5145969404698
 20
510.6242000056846
 30
0.0
 11
128.51459694047
 21
402.2287173409424
 31
0.0
  0
LINE
  5
5A54
330
1A
100
AcDbEntity
  8
SEIHIN
 48
10.0
100
AcDbLine
 10
127.5145969404698
 20
510.6242000056846
 30
0.0
 11
127.51459694047
 21
402.2287173409424
 31
0.0
  0
LINE
  5
5A55
330
1A
100
AcDbEntity
  8
SEIHIN
 48
10.0
100
AcDbLine
 10
124.5145969404699
 20
523.6586458020302
 30
0.0
 11
124.51459694047
 21
371.0385211744867
 31
0.0
  0
LWPOLYLINE
  5
5A56
330
1A
100
AcDbEntity
  8
SEIHIN
 48
10.0
100
AcDbPolyline
 90
        5
 70
     0
 43
0.0
 10
178.226814929505
 20
515.4975239624859
 10
178.1787779892863
 20
497.0179654554694
 10
178.1384688683256
 20
471.525227907792
 10
178.1328229944247
 20
446.0324582988407
 10
178.1626084870445
 20
420.5397063104332
  0
LINE
  5
5A57
330
1A
100
AcDbEntity
  8
SEIHIN
 48
10.0
100
AcDbLine
 10
167.5145969404697
 20
516.4184411334137
 30
0.0
 11
167.51459694047
 21
397.5030721320854
 31
0.0
  0
LINE
  5
5A58
330
1A
100
AcDbEntity
  8
SEIHIN
 48
10.0
100
AcDbLine
 10
265.5141744193968
 20
439.0838185516526
 30
0.0
 11
265.5141744193975
 21
390.3235143431381
 31
0.0
  0
LWPOLYLINE
  5
5A59
330
1A
100
AcDbEntity
  8
SEIHIN
 48
10.0
100
AcDbPolyline
 90
        5
 70
     0
 43
0.0
 10
350.8023789514346
 20
515.4975239624859
 10
350.8504158916533
 20
497.0179654554694
 10
350.890725012614
 20
471.525227907792
 10
350.8963708865149
 20
446.0324582988407
 10
350.8665853938951
 20
420.5397063104332
  0
LINE
  5
5A5A
330
1A
100
AcDbEntity
  8
SEIHIN
 48
10.0
100
AcDbLine
 10
401.5145969404698
 20
510.6242000056846
 30
0.0
 11
401.5145969404695
 21
402.2287173409424
 31
0.0
  0
LINE
  5
5A5B
330
1A
100
AcDbEntity
  8
SEIHIN
 48
10.0
100
AcDbLine
 10
400.5145969404698
 20
510.6242000056846
 30
0.0
 11
400.5145969404695
 21
402.2287173409424
 31
0.0
  0
LINE
  5
5A5C
330
1A
100
AcDbEntity
  8
SEIHIN
 48
10.0
100
AcDbLine
 10
399.5145969404698
 20
510.6242000056846
 30
0.0
 11
399.5145969404696
 21
402.2287173409424
 31
0.0
  0
LINE
  5
5A5D
330
1A
100
AcDbEntity
  8
SEIHIN
 48
10.0
100
AcDbLine
 10
393.5145969404698
 20
510.6242000056846
 30
0.0
 11
393.5145969404696
 21
402.2287173409424
 31
0.0
  0
LINE
  5
5A5E
330
1A
100
AcDbEntity
  8
SEIHIN
 48
10.0
100
AcDbLine
 10
394.5145969404698
 20
510.6242000056846
 30
0.0
 11
394.5145969404696
 21
402.2287173409424
 31
0.0
  0
LINE
  5
5A5F
330
1A
100
AcDbEntity
  8
SEIHIN
 48
10.0
100
AcDbLine
 10
392.5145969404698
 20
510.6242000056846
 30
0.0
 11
392.5145969404696
 21
402.2287173409424
 31
0.0
  0
LINE
  5
5A60
330
1A
100
AcDbEntity
  8
SEIHIN
 48
10.0
100
AcDbLine
 10
389.5145969404696
 20
402.2287173409424
 30
0.0
 11
389.5145969404698
 21
510.6242000056846
 31
0.0
  0
LWPOLYLINE
  5
5A61
330
1A
100
AcDbEntity
  8
SEIHIN
 48
10.0
100
AcDbPolyline
 90
        5
 70
     0
 43
0.0
 10
350.8023789514346
 20
515.4975239624859
 10
350.8504158916533
 20
497.0179654554694
 10
350.890725012614
 20
471.525227907792
 10
350.8963708865149
 20
446.0324582988407
 10
350.8665853938951
 20
420.5397063104332
  0
LINE
  5
5A62
330
1A
100
AcDbEntity
  8
SEIHIN
 48
10.0
100
AcDbLine
 10
404.5145969404698
 20
523.6586458020302
 30
0.0
 11
404.5145969404695
 21
371.0385211744867
 31
0.0
  0
LINE
  5
5A63
330
1A
100
AcDbEntity
  8
SEIHIN
 48
10.0
100
AcDbLine
 10
361.5145969404698
 20
516.4184411334137
 30
0.0
 11
361.5145969404696
 21
397.5030721320854
 31
0.0
  0
LINE
  5
5A64
330
1A
100
AcDbEntity
  8
SEIHIN
 48
10.0
100
AcDbLine
 10
263.5150194615432
 20
439.0838185516526
 30
0.0
 11
263.5150194615432
 21
390.3235143431381
 31
0.0
  0
LWPOLYLINE
  5
5A65
330
1A
100
AcDbEntity
  8
SEIHIN
 48
10.0
100
AcDbPolyline
 90
        5
 70
     0
 43
0.0
 10
178.226814929505
 20
515.4975239624859
 10
178.1787779892863
 20
497.0179654554694
 10
178.1384688683256
 20
471.525227907792
 10
178.1328229944247
 20
446.0324582988407
 10
178.1626084870445
 20
420.5397063104332
  0
LINE
  5
5A66
330
1A
100
AcDbEntity
  8
SEIHIN
 48
10.0
100
AcDbLine
 10
164.5389561060008
 20
387.4996113988514
 30
0.0
 11
364.490237774967
 21
387.499611398852
 31
0.0
  0
LINE
  5
5A67
330
1A
100
AcDbEntity
  8
SEIHIN
 48
10.0
100
AcDbLine
 10
164.5141957093017
 20
369.9743027963425
 30
0.0
 11
364.5149981716622
 21
369.9743027963432
 31
0.0
  0
LINE
  5
5A68
330
1A
100
AcDbEntity
  8
SEIHIN
 48
10.0
100
AcDbLine
 10
404.5145969404695
 20
281.7010416519324
 30
0.0
 11
124.5145969404701
 21
281.7010416519323
 31
0.0
  0
LWPOLYLINE
  5
5A69
330
1A
100
AcDbEntity
  8
SEIHIN
 48
10.0
100
AcDbPolyline
 90
       11
 70
     0
 43
0.0
 10
364.2491068250042
 20
163.5963558362221
 10
363.0402109971117
 20
161.760561180246
 10
361.5695604674209
 20
159.5245422121978
 10
360.7871941923666
 20
158.3337582585228
 10
360.163281846437
 20
157.3832789030424
 10
359.6406621568531
 20
156.5868066007098
 10
359.1633360645719
 20
155.8605903533944
 10
358.5965113299878
 20
154.9990237016364
 10
357.1943659339115
 20
152.8692941385735
 10
355.4342259686241
 20
150.1965347042396
 10
353.4056079453769
 20
147.1151340673315
  0
LINE
  5
5A6A
330
1A
100
AcDbEntity
  8
SEIHIN
 48
10.0
100
AcDbLine
 10
167.0142064374756
 20
168.5097002979427
 30
0.0
 11
362.0149874434644
 21
168.5097002979427
 31
0.0
  0
LINE
  5
5A6B
330
1A
100
AcDbEntity
  8
SEIHIN
 48
10.0
100
AcDbLine
 10
167.014206437479
 20
188.1330641362253
 30
0.0
 11
362.0149874434615
 21
188.1330641362253
 31
0.0
  0
LINE
  5
5A6E
330
1A
100
AcDbEntity
  8
SEIHIN
 48
10.0
100
AcDbLine
 10
350.8665853938951
 20
420.06582617659
 30
0.0
 11
361.5145969404696
 21
414.4246783382571
 31
0.0
  0
LINE
  5
5A6F
330
1A
100
AcDbEntity
  8
SEIHIN
 48
10.0
100
AcDbLine
 10
357.5160913153634
 20
399.3042050311262
 30
0.0
 11
265.8904132694106
 21
399.3042050311265
 31
0.0
  0
LINE
  5
5A70
330
1A
100
AcDbEntity
  8
SEIHIN
 48
10.0
100
AcDbLine
 10
266.4260873035218
 20
410.7979459235332
 30
0.0
 11
357.5160913153634
 21
410.7979459235329
 31
0.0
  0
LINE
  5
5A71
330
1A
100
AcDbEntity
  8
SEIHIN
 48
10.0
100
AcDbLine
 10
361.5145969404696
 20
413.9730555112719
 30
0.0
 11
266.4390342283791
 21
413.9730555112723
 31
0.0
  0
LINE
  5
5A72
330
1A
100
AcDbEntity
  8
SEIHIN
 48
10.0
100
AcDbLine
 10
265.6578464001845
 20
397.5030721320854
 30
0.0
 11
364.5145969404696
 21
397.5030721320856
 31
0.0
  0
LINE
  5
5A73
330
1A
100
AcDbEntity
  8
SEIHIN
 48
10.0
100
AcDbLine
 10
166.5145969404702
 20
390.3235143431377
 30
0.0
 11
362.5145969404703
 21
390.3235143431384
 31
0.0
  0
LINE
  5
5A74
330
1A
100
AcDbEntity
  8
SEIHIN
 48
10.0
100
AcDbLine
 10
124.5145969404702
 20
164.9610416519321
 30
0.0
 11
124.5145969404701
 21
281.7010416519323
 31
0.0
  0
LINE
  5
5A75
330
1A
100
AcDbEntity
  8
SEIHIN
 48
10.0
100
AcDbLine
 10
350.865260913635
 20
145.7610416519325
 30
0.0
 11
178.1639329673051
 21
145.7610416519325
 31
0.0
  0
LINE
  5
5A76
330
1A
100
AcDbEntity
  8
SEIHIN
 48
10.0
100
AcDbLine
 10
124.5145969404698
 20
164.9610416519321
 30
0.0
 11
162.0157682054473
 21
164.0235123703078
 31
0.0
  0
LWPOLYLINE
  5
5A77
330
1A
100
AcDbEntity
  8
SEIHIN
 48
10.0
100
AcDbPolyline
 90
       15
 70
     0
 43
0.0
 10
124.5145969392031
 20
168.8147138712306
 10
127.0316901128435
 20
168.7636684361921
 10
129.6325304690076
 20
168.725293841788
 10
132.3171180076958
 20
168.6995923120228
 10
134.6854778962088
 20
168.6877127633943
 10
136.892831761118
 20
168.6841040985784
 10
139.5878980076763
 20
168.6848656183945
 10
142.7706766358844
 20
168.6899999034033
 10
146.0884089857238
 20
168.6963282060811
 10
149.0476559451585
 20
168.6984078177556
 10
151.4663900222422
 20
168.6957302623385
 10
153.8765636093424
 20
168.6854091279199
 10
156.7690251339772
 20
168.6600537594893
 10
159.4820933326789
 20
168.6212661896786
 10
162.0157682054475
 20
168.5690439309688
  0
ARC
  5
5A78
330
1A
100
AcDbEntity
  8
SEIHIN
 48
10.0
100
AcDbCircle
 10
178.1307035072986
 20
148.7610416519324
 30
0.0
 40
2.999999999999997
100
AcDbArc
 50
213.2966354804566
 51
270.0002471996291
  0
LWPOLYLINE
  5
5A79
330
1A
100
AcDbEntity
  8
SEIHIN
 48
10.0
100
AcDbPolyline
 90
       11
 70
     0
 43
0.0
 10
164.7800870559354
 20
163.5963558362221
 10
165.9889828838279
 20
161.760561180246
 10
167.4596334135187
 20
159.5245422121978
 10
168.241999688573
 20
158.3337582585228
 10
168.8659120345026
 20
157.3832789030424
 10
169.3885317240865
 20
156.5868066007098
 10
169.8658578163677
 20
155.8605903533944
 10
170.4326825509517
 20
154.9990237016364
 10
171.8348279470281
 20
152.8692941385735
 10
173.5949679123155
 20
150.1965347042396
 10
175.6235859355627
 20
147.1151340673315
  0
ARC
  5
5A7A
330
1A
100
AcDbEntity
  8
SEIHIN
 48
10.0
100
AcDbCircle
 10
163.9709780486496
 20
162.9850269756899
 30
0.0
 40
0.9990500254174392
100
AcDbArc
 50
33.3467822926325
 51
89.16176517648166
  0
ARC
  5
5A7B
330
1A
100
AcDbEntity
  8
SEIHIN
 48
10.0
100
AcDbCircle
 10
167.0142064374845
 20
363.9610416519324
 30
0.0
 40
200.0000000000001
100
AcDbArc
 50
268.5679038158351
 51
269.1320773289488
  0
ARC
  5
5A7C
330
1A
100
AcDbEntity
  8
SEIHIN
 48
10.0
100
AcDbCircle
 10
167.0141497470165
 20
379.0406235383211
 30
0.0
 40
210.5309232403861
100
AcDbArc
 50
268.6395676519841
 51
270.0000154282497
  0
LINE
  5
5A7D
330
1A
100
AcDbEntity
  8
SEIHIN
 48
10.0
100
AcDbLine
 10
124.5145969404702
 20
189.332404215277
 30
0.0
 11
162.0132788182029
 21
188.2080274055866
 31
0.0
  0
LINE
  5
5A7E
330
1A
100
AcDbEntity
  8
SEIHIN
 48
10.0
100
AcDbLine
 10
167.014206437479
 20
188.1404101260256
 30
0.0
 11
162.0157682054396
 21
188.2153026624894
 31
0.0
  0
LINE
  5
5A7F
330
1A
100
AcDbEntity
  8
SEIHIN
 48
10.0
100
AcDbLine
 10
234.9145969404699
 20
115.7610416519325
 30
0.0
 11
294.1145969404697
 21
115.7610416519325
 31
0.0
  0
LINE
  5
5A80
330
1A
100
AcDbEntity
  8
SEIHIN
 48
10.0
100
AcDbLine
 10
295.1145969404697
 20
120.7610416519323
 30
0.0
 11
233.9145969404699
 21
120.7610416519323
 31
0.0
  0
LINE
  5
5A81
330
1A
100
AcDbEntity
  8
SEIHIN
 48
10.0
100
AcDbLine
 10
295.1433969404698
 20
121.9610416519324
 30
0.0
 11
233.8857969404699
 21
121.9610416519324
 31
0.0
  0
LINE
  5
5A82
330
1A
100
AcDbEntity
  8
SEIHIN
 48
10.0
100
AcDbLine
 10
300.2145969404698
 20
141.7610416519323
 30
0.0
 11
228.81459694047
 21
141.7610416519323
 31
0.0
  0
LINE
  5
5A83
330
1A
100
AcDbEntity
  8
SEIHIN
 48
10.0
100
AcDbLine
 10
233.4105969404697
 20
141.7610416519323
 30
0.0
 11
233.8857969404699
 21
121.9610416519324
 31
0.0
  0
LINE
  5
5A84
330
1A
100
AcDbEntity
  8
SEIHIN
 48
10.0
100
AcDbLine
 10
233.9145969404699
 20
120.7610416519323
 30
0.0
 11
234.9145969404699
 21
115.7610416519325
 31
0.0
  0
LINE
  5
5A85
330
1A
100
AcDbEntity
  8
SEIHIN
 48
10.0
100
AcDbLine
 10
234.9145969404699
 20
121.9610416519324
 30
0.0
 11
234.9145969404699
 21
120.7610416519323
 31
0.0
  0
LINE
  5
5A86
330
1A
100
AcDbEntity
  8
SEIHIN
 48
10.0
100
AcDbLine
 10
228.81459694047
 20
145.7610416519323
 30
0.0
 11
228.81459694047
 21
141.7610416519323
 31
0.0
  0
LINE
  5
5A87
330
1A
100
AcDbEntity
  8
SEIHIN
 48
10.0
100
AcDbLine
 10
295.1433969404698
 20
121.9610416519324
 30
0.0
 11
295.6185969404698
 21
141.7610416519323
 31
0.0
  0
LINE
  5
5A88
330
1A
100
AcDbEntity
  8
SEIHIN
 48
10.0
100
AcDbLine
 10
294.1145969404697
 20
115.7610416519325
 30
0.0
 11
295.1145969404697
 21
120.7610416519323
 31
0.0
  0
LINE
  5
5A89
330
1A
100
AcDbEntity
  8
SEIHIN
 48
10.0
100
AcDbLine
 10
294.1145969404697
 20
120.7610416519323
 30
0.0
 11
294.1145969404697
 21
121.9610416519324
 31
0.0
  0
LINE
  5
5A8A
330
1A
100
AcDbEntity
  8
SEIHIN
 48
10.0
100
AcDbLine
 10
300.2145969404698
 20
141.7610416519323
 30
0.0
 11
300.2145969404698
 21
145.7610416519323
 31
0.0
  0
ARC
  5
5A8B
330
1A
100
AcDbEntity
  8
SEIHIN
 48
10.0
100
AcDbCircle
 10
350.8984903736409
 20
148.7610416519324
 30
0.0
 40
2.999999999999997
100
AcDbArc
 50
269.9997528003709
 51
326.7033645195434
  0
LINE
  5
5A8C
330
1A
100
AcDbEntity
  8
SEIHIN
 48
10.0
100
AcDbLine
 10
262.513588117328
 20
420.0658261765902
 30
0.0
 11
178.1626084870445
 21
420.06582617659
 31
0.0
  0
LINE
  5
5A8D
330
1A
100
AcDbEntity
  8
SEIHIN
 48
10.0
100
AcDbLine
 10
167.51459694047
 20
413.9730555112719
 30
0.0
 11
262.5901596525605
 21
413.9730555112723
 31
0.0
  0
LINE
  5
5A8E
330
1A
100
AcDbEntity
  8
SEIHIN
 48
10.0
100
AcDbLine
 10
262.6031065774177
 20
410.7979459235332
 30
0.0
 11
171.5131025655762
 21
410.7979459235329
 31
0.0
  0
LINE
  5
5A8F
330
1A
100
AcDbEntity
  8
SEIHIN
 48
10.0
100
AcDbLine
 10
171.5131025655762
 20
399.3042050311262
 30
0.0
 11
263.138780611529
 21
399.3042050311265
 31
0.0
  0
LINE
  5
5A90
330
1A
100
AcDbEntity
  8
SEIHIN
 48
10.0
100
AcDbLine
 10
263.371347480755
 20
397.5030721320854
 30
0.0
 11
164.51459694047
 21
397.5030721320856
 31
0.0
  0
LINE
  5
5A91
330
1A
100
AcDbEntity
  8
SEIHIN
 48
10.0
100
AcDbLine
 10
124.51459694047
 20
388.5632129167163
 30
0.0
 11
164.5389561060008
 21
387.4996113988514
 31
0.0
  0
LINE
  5
5A92
330
1A
100
AcDbEntity
  8
SEIHIN
 48
10.0
100
AcDbLine
 10
124.5145969404702
 20
371.0385211744866
 30
0.0
 11
164.5141957093017
 21
369.9743027963425
 31
0.0
  0
LINE
  5
5A94
330
1A
100
AcDbEntity
  8
SEIHIN
 48
10.0
100
AcDbLine
 10
164.51459694047
 20
402.2287173409425
 30
0.0
 11
124.51459694047
 21
402.2287173409424
 31
0.0
  0
LINE
  5
5A95
330
1A
100
AcDbEntity
  8
SEIHIN
 48
10.0
100
AcDbLine
 10
124.51459694047
 20
390.6843305549102
 30
0.0
 11
165.3687014354555
 21
390.6843305549104
 31
0.0
  0
LINE
  5
5A96
330
1A
100
AcDbEntity
  8
SEIHIN
 48
10.0
100
AcDbLine
 10
164.51459694047
 20
402.2287173409424
 30
0.0
 11
164.51459694047
 21
392.3242000056848
 31
0.0
  0
LINE
  5
5A98
330
1A
100
AcDbEntity
  8
SEIHIN
 48
10.0
100
AcDbLine
 10
171.513102565576
 20
412.4365389640912
 30
0.0
 11
171.513102565576
 21
397.5030721320855
 31
0.0
  0
LINE
  5
5A99
330
1A
100
AcDbEntity
  8
SEIHIN
 48
10.0
100
AcDbLine
 10
164.51459694047
 20
399.3042050311261
 30
0.0
 11
167.51459694047
 21
399.3042050311262
 31
0.0
  0
ARC
  5
5A9A
330
1A
100
AcDbEntity
  8
SEIHIN
 48
10.0
100
AcDbCircle
 10
166.5145969404734
 20
392.324200005688
 30
0.0
 40
2.000000000004722
100
AcDbArc
 50
220.4379489879497
 51
235.0439616321565
  0
ARC
  5
5A9B
330
1A
100
AcDbEntity
  8
SEIHIN
 48
10.0
100
AcDbCircle
 10
166.5145969404695
 20
392.3242000056846
 30
0.0
 40
1.999999999999602
100
AcDbArc
 50
179.9999999999967
 51
220.4379489879497
  0
ARC
  5
5A9C
330
1A
100
AcDbEntity
  8
SEIHIN
 48
10.0
100
AcDbCircle
 10
166.5145969404702
 20
392.3235143431378
 30
0.0
 40
2.000000000000131
100
AcDbArc
 50
235.04396163218
 51
270.0
  0
LINE
  5
5AA0
330
1A
100
AcDbEntity
  8
SEIHIN
 48
10.0
100
AcDbLine
 10
178.1626084870445
 20
420.06582617659
 30
0.0
 11
167.51459694047
 21
414.4246783382571
 31
0.0
  0
LINE
  5
5AA4
330
1A
100
AcDbEntity
  8
SEIHIN
 48
10.0
100
AcDbLine
 10
266.5156057636116
 20
420.0658261765902
 30
0.0
 11
350.8665853938951
 21
420.06582617659
 31
0.0
  0
LINE
  5
5AA5
330
1A
100
AcDbEntity
  8
SEIHIN
 48
10.0
100
AcDbLine
 10
263.5150194615432
 20
392.324200005685
 30
0.0
 11
249.51459694047
 21
392.324200005685
 31
0.0
  0
LINE
  5
5AA6
330
1A
100
AcDbEntity
  8
SEIHIN
 48
10.0
100
AcDbLine
 10
249.51459694047
 20
393.324200005685
 30
0.0
 11
263.5150194615432
 21
393.324200005685
 31
0.0
  0
LINE
  5
5AA7
330
1A
100
AcDbEntity
  8
SEIHIN
 48
10.0
100
AcDbLine
 10
249.51459694047
 20
393.324200005685
 30
0.0
 11
249.51459694047
 21
390.3242000056851
 31
0.0
  0
ARC
  5
5AA8
330
1A
100
AcDbEntity
  8
SEIHIN
 48
10.0
100
AcDbCircle
 10
264.7034407940241
 20
396.4970207470138
 30
0.0
 40
1.218364136403729
100
AcDbArc
 50
261.4974421262551
 51
297.8864268802871
  0
ARC
  5
5AA9
330
1A
100
AcDbEntity
  8
SEIHIN
 48
10.0
100
AcDbCircle
 10
264.5399951567692
 20
396.8209295464869
 30
0.0
 40
0.7372314180273678
100
AcDbArc
 50
1.201448324230518
 51
91.00446850588584
  0
ARC
  5
5AAA
330
1A
100
AcDbEntity
  8
SEIHIN
 48
10.0
100
AcDbCircle
 10
264.4891987241713
 20
396.8209295464869
 30
0.0
 40
0.7372314180273678
100
AcDbArc
 50
88.99553149411479
 51
178.7985516757701
  0
ARC
  5
5AAB
330
1A
100
AcDbEntity
  8
SEIHIN
 48
10.0
100
AcDbCircle
 10
264.3257530869164
 20
396.4970207470138
 30
0.0
 40
1.218364136403729
100
AcDbArc
 50
242.1135731197136
 51
278.5025578737456
  0
ARC
  5
5AAC
330
1A
100
AcDbEntity
  8
SEIHIN
 48
10.0
100
AcDbCircle
 10
264.581747126415
 20
403.6754399588445
 30
0.0
 40
0.811622041913958
100
AcDbArc
 50
349.407501543842
 51
86.77876473824763
  0
ARC
  5
5AAD
330
1A
100
AcDbEntity
  8
SEIHIN
 48
10.0
100
AcDbCircle
 10
264.7085067450528
 20
406.5586180119342
 30
0.0
 40
0.6896462659876615
100
AcDbArc
 50
264.5206564189386
 51
352.7556695500742
  0
ARC
  5
5AAE
330
1A
100
AcDbEntity
  8
SEIHIN
 48
10.0
100
AcDbCircle
 10
264.3206871358877
 20
406.5586180119342
 30
0.0
 40
0.6896462659876615
100
AcDbArc
 50
187.2443304499264
 51
275.479343581062
  0
ARC
  5
5AAF
330
1A
100
AcDbEntity
  8
SEIHIN
 48
10.0
100
AcDbCircle
 10
264.4474467545256
 20
403.6754399588445
 30
0.0
 40
0.811622041913958
100
AcDbArc
 50
93.22123526175301
 51
190.5924984561586
  0
ARC
  5
5AB0
330
1A
100
AcDbEntity
  8
SEIHIN
 48
10.0
100
AcDbCircle
 10
596.6949789519544
 20
419.3474567978678
 30
0.0
 40
332.0526562192286
100
AcDbArc
 50
179.7294618860586
 51
180.0452765114244
  0
ARC
  5
5AB1
330
1A
100
AcDbEntity
  8
SEIHIN
 48
10.0
100
AcDbCircle
 10
264.6639733138534
 20
420.183196301735
 30
0.0
 40
0.7323545257972991
100
AcDbArc
 50
1.667763522698484
 51
91.40438084584664
  0
ARC
  5
5AB2
330
1A
100
AcDbEntity
  8
SEIHIN
 48
10.0
100
AcDbCircle
 10
264.8278604838247
 20
413.2625735731993
 30
0.0
 40
5.825439303873438
100
AcDbArc
 50
84.43858087167209
 51
91.82413452495113
  0
ARC
  5
5AB3
330
1A
100
AcDbEntity
  8
SEIHIN
 48
10.0
100
AcDbCircle
 10
264.2013333971158
 20
413.2625735731993
 30
0.0
 40
5.825439303873438
100
AcDbArc
 50
88.1758654750495
 51
95.56141912832856
  0
ARC
  5
5AB4
330
1A
100
AcDbEntity
  8
SEIHIN
 48
10.0
100
AcDbCircle
 10
264.3652205670869
 20
420.183196301735
 30
0.0
 40
0.7323545257972991
100
AcDbArc
 50
88.59561915415401
 51
178.3322364773021
  0
ARC
  5
5AB5
330
1A
100
AcDbEntity
  8
SEIHIN
 48
10.0
100
AcDbCircle
 10
-67.66578507101417
 20
419.3474567978641
 30
0.0
 40
332.0526562192286
100
AcDbArc
 50
359.9547234885763
 51
0.2705381139420127
  0
LINE
  5
5AB6
330
1A
100
AcDbEntity
  8
SEIHIN
 48
10.0
100
AcDbLine
 10
404.5145969404702
 20
164.9610416519321
 30
0.0
 11
404.5145969404702
 21
281.7010416519323
 31
0.0
  0
LWPOLYLINE
  5
5AB7
330
1A
100
AcDbEntity
  8
SEIHIN
 48
10.0
100
AcDbPolyline
 90
       15
 70
     0
 43
0.0
 10
404.5145969417364
 20
168.8147138712306
 10
401.9975037680961
 20
168.7636684361921
 10
399.396663411932
 20
168.725293841788
 10
396.7120758732438
 20
168.6995923120228
 10
394.3437159847308
 20
168.6877127633943
 10
392.1363621198216
 20
168.6841040985784
 10
389.4412958732632
 20
168.6848656183945
 10
386.2585172450551
 20
168.6899999034033
 10
382.9407848952158
 20
168.6963282060811
 10
379.981537935781
 20
168.6984078177556
 10
377.5628038586974
 20
168.6957302623385
 10
375.1526302715972
 20
168.6854091279199
 10
372.2601687469623
 20
168.6600537594893
 10
369.5471005482607
 20
168.6212661896786
 10
367.013425675492
 20
168.5690439309688
  0
LINE
  5
5AB8
330
1A
100
AcDbEntity
  8
SEIHIN
 48
10.0
100
AcDbLine
 10
404.5145969404698
 20
164.9610416519321
 30
0.0
 11
367.0134256754923
 21
164.0235123703078
 31
0.0
  0
ARC
  5
5AB9
330
1A
100
AcDbEntity
  8
SEIHIN
 48
10.0
100
AcDbCircle
 10
362.0149874434551
 20
363.9610416519324
 30
0.0
 40
200.0000000000001
100
AcDbArc
 50
270.8679226710512
 51
271.432096184165
  0
ARC
  5
5ABA
330
1A
100
AcDbEntity
  8
SEIHIN
 48
10.0
100
AcDbCircle
 10
365.05821583229
 20
162.9850269756899
 30
0.0
 40
0.9990500254174392
100
AcDbArc
 50
90.83823482351833
 51
146.6532177073674
  0
ARC
  5
5ABB
330
1A
100
AcDbEntity
  8
SEIHIN
 48
10.0
100
AcDbCircle
 10
362.0150441339231
 20
379.0406235383211
 30
0.0
 40
210.5309232403861
100
AcDbArc
 50
269.9999845717503
 51
271.3604323480159
  0
LINE
  5
5ABC
330
1A
100
AcDbEntity
  8
SEIHIN
 48
10.0
100
AcDbLine
 10
404.5145969404693
 20
189.332404215277
 30
0.0
 11
367.0159150627366
 21
188.2080274055866
 31
0.0
  0
LINE
  5
5ABD
330
1A
100
AcDbEntity
  8
SEIHIN
 48
10.0
100
AcDbLine
 10
362.0149874434606
 20
188.1404101260256
 30
0.0
 11
367.0134256755
 21
188.2153026624894
 31
0.0
  0
LINE
  5
5ABE
330
1A
100
AcDbEntity
  8
SEIHIN
 48
10.0
100
AcDbLine
 10
404.5145969404693
 20
371.0385211744866
 30
0.0
 11
364.5149981716379
 21
369.9743027963425
 31
0.0
  0
LINE
  5
5ABF
330
1A
100
AcDbEntity
  8
SEIHIN
 48
10.0
100
AcDbLine
 10
364.5145969404696
 20
402.2287173409425
 30
0.0
 11
404.5145969404695
 21
402.2287173409424
 31
0.0
  0
LINE
  5
5AC1
330
1A
100
AcDbEntity
  8
SEIHIN
 48
10.0
100
AcDbLine
 10
404.5145969404695
 20
390.6843305549102
 30
0.0
 11
363.6604924454841
 21
390.6843305549104
 31
0.0
  0
LINE
  5
5AC2
330
1A
100
AcDbEntity
  8
SEIHIN
 48
10.0
100
AcDbLine
 10
404.5145969404695
 20
388.5632129167163
 30
0.0
 11
364.4902377749388
 21
387.4996113988514
 31
0.0
  0
LINE
  5
5AC3
330
1A
100
AcDbEntity
  8
SEIHIN
 48
10.0
100
AcDbLine
 10
364.5145969404696
 20
402.2287173409424
 30
0.0
 11
364.5145969404696
 21
392.3242000056848
 31
0.0
  0
LINE
  5
5AC4
330
1A
100
AcDbEntity
  8
SEIHIN
 48
10.0
100
AcDbLine
 10
357.5160913153636
 20
412.4365389640912
 30
0.0
 11
357.5160913153636
 21
397.5030721320855
 31
0.0
  0
ARC
  5
5AC6
330
1A
100
AcDbEntity
  8
SEIHIN
 48
10.0
100
AcDbCircle
 10
362.51459694047
 20
392.3242000056846
 30
0.0
 40
1.999999999999602
100
AcDbArc
 50
319.5620510120503
 51
0.0000000000032639
  0
LINE
  5
5AC7
330
1A
100
AcDbEntity
  8
SEIHIN
 48
10.0
100
AcDbLine
 10
364.5145969404696
 20
399.3042050311261
 30
0.0
 11
361.5145969404696
 21
399.3042050311262
 31
0.0
  0
ARC
  5
5ACB
330
1A
100
AcDbEntity
  8
SEIHIN
 48
10.0
100
AcDbCircle
 10
362.5145969404694
 20
392.3235143431378
 30
0.0
 40
2.000000000000131
100
AcDbArc
 50
270.0
 51
304.95603836782
  0
ARC
  5
5ACC
330
1A
100
AcDbEntity
  8
SEIHIN
 48
10.0
100
AcDbCircle
 10
362.5145969404662
 20
392.324200005688
 30
0.0
 40
2.000000000004722
100
AcDbArc
 50
304.9560383678435
 51
319.5620510120503
  0
LINE
  5
5ACF
330
1A
100
AcDbEntity
  8
SEIHIN
 48
10.0
100
AcDbLine
 10
364.51459694047
 20
520.1044246031464
 30
0.0
 11
164.5145969404695
 21
520.1044246031456
 31
0.0
  0
LINE
  5
5AD0
330
1A
100
AcDbEntity
  8
SEIHIN
 48
10.0
100
AcDbLine
 10
364.51459694047
 20
522.607799406151
 30
0.0
 11
164.5145969404695
 21
522.60779940615
 31
0.0
  0
LINE
  5
5AD1
330
1A
100
AcDbEntity
  8
SEIHIN
 48
10.0
100
AcDbLine
 10
351.2328606688734
 20
515.4988006984159
 30
0.0
 11
364.51459694047
 21
516.6867733714826
 31
0.0
  0
LINE
  5
5AD2
330
1A
100
AcDbEntity
  8
SEIHIN
 48
10.0
100
AcDbLine
 10
262.5130232750839
 20
515.497523962486
 30
0.0
 11
178.226814929505
 21
515.497523962486
 31
0.0
  0
LINE
  5
5AD3
330
1A
100
AcDbEntity
  8
SEIHIN
 48
10.0
100
AcDbLine
 10
164.5145969404695
 20
524.659995723232
 30
0.0
 11
164.5145969404695
 21
510.6242000056846
 31
0.0
  0
LINE
  5
5AD5
330
1A
100
AcDbEntity
  8
SEIHIN
 48
10.0
100
AcDbLine
 10
143.5145969404698
 20
516.2242000056847
 30
0.0
 11
143.5145969404695
 21
518.2242000056848
 31
0.0
  0
LINE
  5
5AD6
330
1A
100
AcDbEntity
  8
SEIHIN
 48
10.0
100
AcDbLine
 10
145.5145969404695
 20
518.2242000056848
 30
0.0
 11
145.5145969404698
 21
516.2242000056847
 31
0.0
  0
LINE
  5
5AD7
330
1A
100
AcDbEntity
  8
SEIHIN
 48
10.0
100
AcDbLine
 10
178.2267181809745
 20
515.4603053111032
 30
0.0
 11
164.5145969404695
 21
516.6867733714826
 31
0.0
  0
LINE
  5
5AD8
330
1A
100
AcDbEntity
  8
SEIHIN
 48
10.0
100
AcDbLine
 10
124.5145969404699
 20
510.6242000056848
 30
0.0
 11
164.5145969404698
 21
510.6242000056846
 31
0.0
  0
LINE
  5
5AD9
330
1A
100
AcDbEntity
  8
SEIHIN
 48
10.0
100
AcDbLine
 10
145.5145969404698
 20
516.1242000056846
 30
0.0
 11
145.5145969404698
 21
510.6242000056846
 31
0.0
  0
LINE
  5
5ADA
330
1A
100
AcDbEntity
  8
SEIHIN
 48
10.0
100
AcDbLine
 10
143.5145969404698
 20
510.6242000056846
 30
0.0
 11
143.5145969404698
 21
516.1242000056846
 31
0.0
  0
LINE
  5
5ADB
330
1A
100
AcDbEntity
  8
SEIHIN
 48
10.0
100
AcDbLine
 10
167.5145969404699
 20
512.6685331328082
 30
0.0
 11
164.5145969404699
 21
512.6685331328082
 31
0.0
  0
LINE
  5
5ADD
330
1A
100
AcDbEntity
  8
SEIHIN
 48
10.0
100
AcDbLine
 10
164.5145969404697
 20
524.6599957232316
 30
0.0
 11
124.5145969404698
 21
523.6586458020302
 31
0.0
  0
LINE
  5
5ADE
330
1A
100
AcDbEntity
  8
SEIHIN
 48
10.0
100
AcDbLine
 10
143.5145969404695
 20
518.2242000056848
 30
0.0
 11
145.5145969404695
 21
518.2242000056848
 31
0.0
  0
LINE
  5
5ADF
330
1A
100
AcDbEntity
  8
SEIHIN
 48
10.0
100
AcDbLine
 10
265.2677558896749
 20
509.8150417228267
 30
0.0
 11
265.2677558896749
 21
518.0509142360498
 31
0.0
  0
LINE
  5
5AE0
330
1A
100
AcDbEntity
  8
SEIHIN
 48
10.0
100
AcDbLine
 10
263.7614379912648
 20
509.8150417228267
 30
0.0
 11
263.7614379912648
 21
518.0509142360498
 31
0.0
  0
CIRCLE
  5
5AE1
330
1A
100
AcDbEntity
  8
SEIHIN
 48
10.0
100
AcDbCircle
 10
264.5145969404698
 20
471.3840456844759
 30
0.0
 40
28.5000898178256
  0
LINE
  5
5AE2
330
1A
100
AcDbEntity
  8
SEIHIN
 48
10.0
100
AcDbLine
 10
266.5161706058557
 20
515.497523962486
 30
0.0
 11
350.8023789514346
 21
515.497523962486
 31
0.0
  0
LINE
  5
5AE3
330
1A
100
AcDbEntity
  8
SEIHIN
 48
10.0
100
AcDbLine
 10
264.7292537748626
 20
428.8030720432708
 30
0.0
 11
265.479247065675
 21
428.8030720432708
 31
0.0
  0
ARC
  5
5AE4
330
1A
100
AcDbEntity
  8
SEIHIN
 48
10.0
100
AcDbCircle
 10
264.739281176408
 20
426.1754169676541
 30
0.0
 40
0.7323545257972423
100
AcDbArc
 50
1.667763522688713
 51
91.40438084584664
  0
ARC
  5
5AE5
330
1A
100
AcDbEntity
  8
SEIHIN
 48
10.0
100
AcDbCircle
 10
264.2899127045332
 20
426.175416967654
 30
0.0
 40
0.7323545257974127
100
AcDbArc
 50
88.59561915415467
 51
178.3322364772995
  0
LINE
  5
5AE6
330
1A
100
AcDbEntity
  8
SEIHIN
 48
10.0
100
AcDbLine
 10
264.3078616999724
 20
426.9075515078981
 30
0.0
 11
264.7213321809686
 21
426.9075515078981
 31
0.0
  0
LINE
  5
5AE7
330
1A
100
AcDbEntity
  8
SEIHIN
 48
10.0
100
AcDbLine
 10
264.2999401060783
 20
428.8030720432708
 30
0.0
 11
263.5499468152661
 21
428.8030720432708
 31
0.0
  0
LINE
  5
5AE8
330
1A
100
AcDbEntity
  8
SEIHIN
 48
10.0
100
AcDbLine
 10
264.7292537748626
 20
428.8030720432708
 30
0.0
 11
264.2999401060783
 21
428.8030720432708
 31
0.0
  0
LINE
  5
5AE9
330
1A
100
AcDbEntity
  8
SEIHIN
 48
10.0
100
AcDbLine
 10
264.2999401060777
 20
428.8030720432708
 30
0.0
 11
264.729253774862
 21
428.8030720432708
 31
0.0
  0
LINE
  5
5AEA
330
1A
100
AcDbEntity
  8
SEIHIN
 48
10.0
100
AcDbLine
 10
264.729253774862
 20
428.8030720432708
 30
0.0
 11
265.4792470656742
 21
428.8030720432708
 31
0.0
  0
LINE
  5
5AEB
330
1A
100
AcDbEntity
  8
SEIHIN
 48
10.0
100
AcDbLine
 10
264.7213321809679
 20
426.9075515078981
 30
0.0
 11
264.3078616999717
 21
426.9075515078981
 31
0.0
  0
ARC
  5
5AEC
330
1A
100
AcDbEntity
  8
SEIHIN
 48
10.0
100
AcDbCircle
 10
264.7392811764071
 20
426.175416967654
 30
0.0
 40
0.7323545257974127
100
AcDbArc
 50
1.667763522701096
 51
91.40438084584598
  0
ARC
  5
5AED
330
1A
100
AcDbEntity
  8
SEIHIN
 48
10.0
100
AcDbCircle
 10
264.2899127045323
 20
426.1754169676541
 30
0.0
 40
0.7323545257972423
100
AcDbArc
 50
88.59561915415401
 51
178.3322364773119
  0
LINE
  5
5AEE
330
1A
100
AcDbEntity
  8
SEIHIN
 48
10.0
100
AcDbLine
 10
264.2999401060777
 20
428.8030720432708
 30
0.0
 11
263.5499468152652
 21
428.8030720432708
 31
0.0
  0
LINE
  5
5AEF
330
1A
100
AcDbEntity
  8
SEIHIN
 48
10.0
100
AcDbLine
 10
265.5141744193968
 20
439.0838185516526
 30
0.0
 11
265.4198982752334
 21
439.4496601406088
 31
0.0
  0
LINE
  5
5AF0
330
1A
100
AcDbEntity
  8
SEIHIN
 48
10.0
100
AcDbLine
 10
263.5150194615432
 20
439.0838185516526
 30
0.0
 11
263.6092956057066
 21
439.4496601406088
 31
0.0
  0
ARC
  5
5AF1
330
1A
100
AcDbEntity
  8
SEIHIN
 48
10.0
100
AcDbCircle
 10
264.7584620140372
 20
439.089636844537
 30
0.0
 40
0.7530701835417847
100
AcDbArc
 50
28.55968912911448
 51
89.50181790123959
  0
LWPOLYLINE
  5
5AF2
330
1A
100
AcDbEntity
  8
SEIHIN
 48
10.0
100
AcDbPolyline
 90
        4
 70
     0
 43
0.0
 10
264.2641840659912
 20
439.8426785616038
 10
264.5145969404705
 20
439.8426913598454
 10
264.6407053758378
 20
439.8426881125638
 10
264.7650098149495
 20
439.8426785616038
  0
LWPOLYLINE
  5
5AF3
330
1A
100
AcDbEntity
  8
SEIHIN
 48
10.0
100
AcDbPolyline
 90
        4
 70
     0
 43
0.0
 10
264.7650098149488
 20
439.8426785616038
 10
264.5145969404696
 20
439.8426913598454
 10
264.3884885051023
 20
439.8426881125638
 10
264.2641840659905
 20
439.8426785616038
  0
ARC
  5
5AF4
330
1A
100
AcDbEntity
  8
SEIHIN
 48
10.0
100
AcDbCircle
 10
264.2707318669029
 20
439.089636844537
 30
0.0
 40
0.7530701835417847
100
AcDbArc
 50
90.49818209876105
 51
151.4403108708862
  0
LWPOLYLINE
  5
5AF5
330
1A
100
AcDbEntity
  8
SEIHIN
 48
10.0
100
AcDbPolyline
 90
        9
 70
     0
 43
0.0
 10
265.5141744193965
 20
515.0228377720123
 10
265.5341089529116
 20
515.1151983282306
 10
265.5915045940623
 20
515.2040285485305
 10
265.6841674854086
 20
515.2859330384903
 10
265.8085557347499
 20
515.3577811287568
 10
265.9599147983458
 20
515.4168265399215
 10
266.1324592158148
 20
515.4608123546982
 10
266.3195937501919
 20
515.4880572850117
 10
266.5141654804099
 20
515.4975199365696
  0
ARC
  5
5AF6
330
1A
100
AcDbEntity
  8
SEIHIN
 48
10.0
100
AcDbCircle
 10
264.5230846410448
 20
509.7284886583196
 30
0.0
 40
0.7496844012729165
100
AcDbArc
 50
269.9763679924935
 51
359.9468519471576
  0
ARC
  5
5AF7
330
1A
100
AcDbEntity
  8
SEIHIN
 48
10.0
100
AcDbCircle
 10
264.76301020511
 20
506.7591562326644
 30
0.0
 40
0.7511673197016454
100
AcDbArc
 50
270.116232187938
 51
0.1647514613931488
  0
LINE
  5
5AF8
330
1A
100
AcDbEntity
  8
SEIHIN
 48
10.0
100
AcDbLine
 10
264.7645340479121
 20
506.0079904586233
 30
0.0
 11
264.264659833028
 21
506.0079904586233
 31
0.0
  0
LINE
  5
5AF9
330
1A
100
AcDbEntity
  8
SEIHIN
 48
10.0
100
AcDbLine
 10
265.5141744193965
 20
506.7613161778504
 30
0.0
 11
265.5141744193965
 21
514.9971886910733
 31
0.0
  0
LWPOLYLINE
  5
5AFA
330
1A
100
AcDbEntity
  8
SEIHIN
 48
10.0
100
AcDbPolyline
 90
        9
 70
     0
 43
0.0
 10
263.515019461543
 20
515.0228377720123
 10
263.4950849280281
 20
515.1151983282306
 10
263.4376892868772
 20
515.2040285485305
 10
263.345026395531
 20
515.2859330384903
 10
263.2206381461897
 20
515.3577811287568
 10
263.0692790825938
 20
515.4168265399215
 10
262.8967346651247
 20
515.4608123546982
 10
262.7096001307478
 20
515.4880572850117
 10
262.5150284005297
 20
515.4975199365696
  0
LINE
  5
5AFB
330
1A
100
AcDbEntity
  8
SEIHIN
 48
10.0
100
AcDbLine
 10
263.515019461543
 20
506.7613161778504
 30
0.0
 11
263.515019461543
 21
514.9971886910733
 31
0.0
  0
LINE
  5
5AFC
330
1A
100
AcDbEntity
  8
SEIHIN
 48
10.0
100
AcDbLine
 10
264.2646598330275
 20
506.0079904586233
 30
0.0
 11
264.7645340479116
 21
506.0079904586233
 31
0.0
  0
ARC
  5
5AFD
330
1A
100
AcDbEntity
  8
SEIHIN
 48
10.0
100
AcDbCircle
 10
264.2661836758295
 20
506.7591562326644
 30
0.0
 40
0.7511673197016454
100
AcDbArc
 50
179.8352485386068
 51
269.8837678120621
  0
ARC
  5
5AFE
330
1A
100
AcDbEntity
  8
SEIHIN
 48
10.0
100
AcDbCircle
 10
264.5061092398949
 20
509.7284886583196
 30
0.0
 40
0.7496844012729165
100
AcDbArc
 50
180.0531480528423
 51
270.0236320075065
  0
ARC
  5
5AFF
330
1A
100
AcDbEntity
  8
SEIHIN
 48
10.0
100
AcDbCircle
 10
264.949760491196
 20
510.5510656392777
 30
0.0
 40
8.600092962308542
100
AcDbArc
 50
81.18453421287153
 51
92.90039729550306
  0
ARC
  5
5B00
330
1A
100
AcDbEntity
  8
SEIHIN
 48
10.0
100
AcDbCircle
 10
266.2673346613244
 20
518.0499870180057
 30
0.0
 40
0.999579201697387
100
AcDbArc
 50
89.97636799252614
 51
179.9468519471543
  0
ARC
  5
5B01
330
1A
100
AcDbEntity
  8
SEIHIN
 48
10.0
100
AcDbCircle
 10
264.701455907071
 20
516.5121590135162
 30
0.0
 40
1.639653410075287
100
AcDbArc
 50
69.79513667689857
 51
96.43245270950673
  0
ARC
  5
5B02
330
1A
100
AcDbEntity
  8
SEIHIN
 48
10.0
100
AcDbCircle
 10
264.3277379738686
 20
516.5121590135162
 30
0.0
 40
1.639653410075287
100
AcDbArc
 50
83.56754729049326
 51
110.2048633231014
  0
ARC
  5
5B03
330
1A
100
AcDbEntity
  8
SEIHIN
 48
10.0
100
AcDbCircle
 10
262.7618592196152
 20
518.0499870180057
 30
0.0
 40
0.999579201697387
100
AcDbArc
 50
0.0531480528456379
 51
90.02363200747387
  0
ARC
  5
5B04
330
1A
100
AcDbEntity
  8
SEIHIN
 48
10.0
100
AcDbCircle
 10
264.0794333897436
 20
510.5510656392777
 30
0.0
 40
8.600092962308542
100
AcDbArc
 50
87.09960270449693
 51
98.8154657871285
  0
LINE
  5
5B06
330
1A
100
AcDbEntity
  8
SEIHIN
 48
10.0
100
AcDbLine
 10
383.51459694047
 20
518.2242000056848
 30
0.0
 11
383.5145969404698
 21
516.2242000056847
 31
0.0
  0
LINE
  5
5B07
330
1A
100
AcDbEntity
  8
SEIHIN
 48
10.0
100
AcDbLine
 10
385.5145969404698
 20
516.2242000056847
 30
0.0
 11
385.51459694047
 21
518.2242000056848
 31
0.0
  0
LINE
  5
5B08
330
1A
100
AcDbEntity
  8
SEIHIN
 48
10.0
100
AcDbLine
 10
364.51459694047
 20
524.659995723232
 30
0.0
 11
364.51459694047
 21
510.6242000056846
 31
0.0
  0
LINE
  5
5B09
330
1A
100
AcDbEntity
  8
SEIHIN
 48
10.0
100
AcDbLine
 10
404.5145969404698
 20
510.6242000056848
 30
0.0
 11
364.5145969404698
 21
510.6242000056846
 31
0.0
  0
LINE
  5
5B0A
330
1A
100
AcDbEntity
  8
SEIHIN
 48
10.0
100
AcDbLine
 10
361.5145969404698
 20
512.6685331328082
 30
0.0
 11
364.5145969404698
 21
512.6685331328082
 31
0.0
  0
LINE
  5
5B0B
330
1A
100
AcDbEntity
  8
SEIHIN
 48
10.0
100
AcDbLine
 10
385.5145969404698
 20
510.6242000056846
 30
0.0
 11
385.5145969404698
 21
516.1242000056846
 31
0.0
  0
LINE
  5
5B0C
330
1A
100
AcDbEntity
  8
SEIHIN
 48
10.0
100
AcDbLine
 10
383.5145969404698
 20
516.1242000056846
 30
0.0
 11
383.5145969404698
 21
510.6242000056846
 31
0.0
  0
LINE
  5
5B0D
330
1A
100
AcDbEntity
  8
SEIHIN
 48
10.0
100
AcDbLine
 10
364.5145969404698
 20
524.6599957232316
 30
0.0
 11
404.5145969404698
 21
523.6586458020302
 31
0.0
  0
LINE
  5
5B0F
330
1A
100
AcDbEntity
  8
SEIHIN
 48
10.0
100
AcDbLine
 10
385.51459694047
 20
518.2242000056848
 30
0.0
 11
383.51459694047
 21
518.2242000056848
 31
0.0
  0
LINE
  5
5C04
330
1A
100
AcDbEntity
  8
SEIHIN
 48
10.0
100
AcDbLine
 10
603.7733230438038
 20
115.7610416519324
 30
0.0
 11
662.9733230438037
 21
115.7610416519324
 31
0.0
  0
LINE
  5
5C05
330
1A
100
AcDbEntity
  8
SEIHIN
 48
10.0
100
AcDbLine
 10
602.7733230438038
 20
120.7610416519323
 30
0.0
 11
603.7733230438038
 21
115.7610416519324
 31
0.0
  0
LINE
  5
5C06
330
1A
100
AcDbEntity
  8
SEIHIN
 48
10.0
100
AcDbLine
 10
602.2693230438035
 20
141.7610416519323
 30
0.0
 11
602.7445230438038
 21
121.9610416519324
 31
0.0
  0
LINE
  5
5C07
330
1A
100
AcDbEntity
  8
SEIHIN
 48
10.0
100
AcDbLine
 10
664.0021230438037
 20
121.9610416519323
 30
0.0
 11
602.7445230438038
 21
121.9610416519324
 31
0.0
  0
LINE
  5
5C08
330
1A
100
AcDbEntity
  8
SEIHIN
 48
10.0
100
AcDbLine
 10
663.9733230438037
 20
120.7610416519323
 30
0.0
 11
602.7733230438038
 21
120.7610416519323
 31
0.0
  0
LINE
  5
5C09
330
1A
100
AcDbEntity
  8
SEIHIN
 48
10.0
100
AcDbLine
 10
669.0733230438036
 20
141.7610416519323
 30
0.0
 11
597.6733230438035
 21
141.7610416519323
 31
0.0
  0
LINE
  5
5C0A
330
1A
100
AcDbEntity
  8
SEIHIN
 48
10.0
100
AcDbLine
 10
597.6733230438035
 20
145.7610416519323
 30
0.0
 11
597.6733230438035
 21
141.7610416519323
 31
0.0
  0
LINE
  5
5C0B
330
1A
100
AcDbEntity
  8
SEIHIN
 48
10.0
100
AcDbLine
 10
581.8104301277753
 20
145.7610416519324
 30
0.0
 11
678.436173702762
 21
145.7610416519323
 31
0.0
  0
LINE
  5
5C0C
330
1A
100
AcDbEntity
  8
SEIHIN
 48
10.0
100
AcDbLine
 10
574.2075530683036
 20
164.080709449797
 30
0.0
 11
579.9149095924028
 21
147.1230746465315
 31
0.0
  0
ARC
  5
5C0D
330
1A
100
AcDbEntity
  8
SEIHIN
 48
10.0
100
AcDbCircle
 10
581.8104301277753
 20
147.7610416519324
 30
0.0
 40
2.000000000000008
100
AcDbArc
 50
198.6014625786129
 51
270.0
  0
ARC
  5
5C11
330
1A
100
AcDbEntity
  8
SEIHIN
 48
10.0
100
AcDbCircle
 10
573.1470613926813
 20
163.7617260586212
 30
0.0
 40
0.9999995288414531
100
AcDbArc
 50
18.60146492223519
 51
67.5261990028165
  0
ARC
  5
5C12
330
1A
100
AcDbEntity
  8
SEIHIN
 48
10.0
100
AcDbCircle
 10
613.2605911762748
 20
1168.261041651932
 30
0.0
 40
1004.3
100
AcDbArc
 50
266.9434158250606
 51
267.7131750220784
  0
ARC
  5
5C13
330
1A
100
AcDbEntity
  8
SEIHIN
 48
10.0
100
AcDbCircle
 10
570.6351522765958
 20
35.50554938558179
 30
0.0
 40
129.2805668348988
100
AcDbArc
 50
87.72333849091102
 51
88.86899104568424
  0
LWPOLYLINE
  5
5C14
330
1A
100
AcDbEntity
  8
SEIHIN
 48
10.0
100
AcDbPolyline
 90
        5
 70
     0
 43
0.0
 10
676.4029676995833
 20
165.9713617838765
 10
650.3265935214288
 20
164.6683944303362
 10
624.8511139580905
 20
164.0508869052291
 10
599.9941102276975
 20
164.0716073948914
 10
575.7707948508323
 20
164.6840698001708
  0
ARC
  5
5C15
330
1A
100
AcDbEntity
  8
SEIHIN
 48
10.0
100
AcDbCircle
 10
559.9490983342161
 20
169.8833953021401
 30
0.0
 40
4.50000000000012
100
AcDbArc
 50
197.7741411293018
 51
266.9434158250672
  0
ARC
  5
5C16
330
1A
100
AcDbEntity
  8
SEIHIN
 48
10.0
100
AcDbCircle
 10
1512.025907797814
 20
475.087898679164
 30
0.0
 40
1004.3
100
AcDbArc
 50
196.4589309831464
 51
197.7741411293018
  0
LINE
  5
5C17
330
1A
100
AcDbEntity
  8
SEIHIN
 48
10.0
100
AcDbLine
 10
680.4334775000195
 20
147.6572267134115
 30
0.0
 11
681.50836193234
 21
168.3370131571252
 31
0.0
  0
ARC
  5
5C18
330
1A
100
AcDbEntity
  8
SEIHIN
 48
10.0
100
AcDbCircle
 10
678.436173702769
 20
147.7610416519324
 30
0.0
 40
2.000000000000014
100
AcDbArc
 50
269.9999999997981
 51
357.0245839117768
  0
LINE
  5
5C19
330
1A
100
AcDbEntity
  8
SEIHIN
 48
10.0
100
AcDbLine
 10
669.0733230438036
 20
141.7610416519323
 30
0.0
 11
669.0733230438036
 21
145.7610416519323
 31
0.0
  0
LINE
  5
5C1A
330
1A
100
AcDbEntity
  8
SEIHIN
 48
10.0
100
AcDbLine
 10
686.5766104272193
 20
232.3718572336112
 30
0.0
 11
683.4959049565659
 21
173.1019214959075
 31
0.0
  0
LWPOLYLINE
  5
5C1B
330
1A
100
AcDbEntity
  8
SEIHIN
 48
10.0
100
AcDbPolyline
 90
        3
 70
     0
 43
0.0
 10
679.4143225324241
 20
166.755949466164
 10
677.9919835545565
 20
166.2120939204372
 10
676.5156995671127
 20
165.9713617838764
  0
ARC
  5
5C1C
330
1A
100
AcDbEntity
  8
SEIHIN
 48
10.0
100
AcDbCircle
 10
679.0874929947008
 20
232.7619636465289
 30
0.0
 40
7.499270826650517
100
AcDbArc
 50
357.0181709202718
 51
81.36462130144183
  0
ARC
  5
5C1D
330
1A
100
AcDbEntity
  8
SEIHIN
 48
10.0
100
AcDbCircle
 10
678.2134773650132
 20
241.2610416519324
 30
0.0
 40
2.0
100
AcDbArc
 50
0.0
 51
90.0
  0
ARC
  5
5C1E
330
1A
100
AcDbEntity
  8
SEIHIN
 48
10.0
100
AcDbCircle
 10
678.1134773650133
 20
237.7610416519324
 30
0.0
 40
5.500000000000113
100
AcDbArc
 50
90.0
 51
180.0
  0
ARC
  5
5C1F
330
1A
100
AcDbEntity
  8
SEIHIN
 48
10.0
100
AcDbCircle
 10
675.1134773650132
 20
237.7610416519324
 30
0.0
 40
2.500000000000113
100
AcDbArc
 50
180.0
 51
270.0
  0
LINE
  5
5C20
330
1A
100
AcDbEntity
  8
SEIHIN
 48
10.0
100
AcDbLine
 10
675.1134773650132
 20
237.7610416519324
 30
0.0
 11
675.1134773650132
 21
235.2610416519324
 31
0.0
  0
LINE
  5
5C21
330
1A
100
AcDbEntity
  8
SEIHIN
 48
10.0
100
AcDbLine
 10
677.3468400577349
 20
237.7610416519324
 30
0.0
 11
675.1134773650132
 21
237.7610416519324
 31
0.0
  0
ARC
  5
5C22
330
1A
100
AcDbEntity
  8
SEIHIN
 48
10.0
100
AcDbCircle
 10
677.3468400577349
 20
232.7610416519324
 30
0.0
 40
5.000000000000028
100
AcDbArc
 50
357.0245839117882
 51
90.0
  0
LINE
  5
5C23
330
1A
100
AcDbEntity
  8
SEIHIN
 48
10.0
100
AcDbLine
 10
682.0937019624741
 20
227.7610416519324
 30
0.0
 11
682.3400995508786
 21
232.5015043056293
 31
0.0
  0
ARC
  5
5C24
330
1A
100
AcDbEntity
  8
SEIHIN
 48
10.0
100
AcDbCircle
 10
675.1134773650132
 20
237.7610416519324
 30
0.0
 40
2.500000000000113
100
AcDbArc
 50
90.0
 51
180.0
  0
LINE
  5
5C25
330
1A
100
AcDbEntity
  8
SEIHIN
 48
10.0
100
AcDbLine
 10
678.1455734474091
 20
240.2610416519324
 30
0.0
 11
675.1134773650132
 21
240.2610416519324
 31
0.0
  0
ARC
  5
5C26
330
1A
100
AcDbEntity
  8
SEIHIN
 48
10.0
100
AcDbCircle
 10
678.6212190956612
 20
232.7564363624985
 30
0.0
 40
7.504605289435094
100
AcDbArc
 50
77.75040165826261
 51
90.00003386531677
  0
LINE
  5
5C27
330
1A
100
AcDbEntity
  8
SEIHIN
 48
10.0
100
AcDbLine
 10
682.0937019624741
 20
227.7610416519324
 30
0.0
 11
683.8961318206375
 21
227.7610416519324
 31
0.0
  0
LINE
  5
5C28
330
1A
100
AcDbEntity
  8
SEIHIN
 48
10.0
100
AcDbLine
 10
683.8961318206375
 20
227.7610416519324
 30
0.0
 11
681.0820166562148
 21
173.6200578601751
 31
0.0
  0
LINE
  5
5C29
330
1A
100
AcDbEntity
  8
SEIHIN
 48
10.0
100
AcDbLine
 10
682.0937019624741
 20
227.7610416519323
 30
0.0
 11
679.3446475480388
 21
174.8717667650079
 31
0.0
  0
LINE
  5
5C2A
330
1A
100
AcDbEntity
  8
SEIHIN
 48
10.0
100
AcDbLine
 10
678.3446475480387
 20
174.8717667650079
 30
0.0
 11
680.9897468819663
 21
225.7610416519323
 31
0.0
  0
LINE
  5
5C2B
330
1A
100
AcDbEntity
  8
SEIHIN
 48
10.0
100
AcDbLine
 10
681.9897468819663
 20
225.7610416519323
 30
0.0
 11
680.9897468819663
 21
225.7610416519323
 31
0.0
  0
ARC
  5
5C2C
330
1A
100
AcDbEntity
  8
SEIHIN
 48
10.0
100
AcDbCircle
 10
674.3513880548946
 20
175.131304111311
 30
0.0
 40
4.001684771906933
100
AcDbArc
 50
272.770316641855
 51
356.2813563735302
  0
ARC
  5
5C2D
330
1A
100
AcDbEntity
  8
SEIHIN
 48
10.0
100
AcDbCircle
 10
674.3513880548946
 20
175.131304111311
 30
0.0
 40
5.000000000000262
100
AcDbArc
 50
273.51354418011
 51
357.0245839117882
  0
ARC
  5
5C2E
330
1A
100
AcDbEntity
  8
SEIHIN
 48
10.0
100
AcDbCircle
 10
613.3733230438037
 20
1168.261041651932
 30
0.0
 40
999.0013494499109
100
AcDbArc
 50
267.0117173300857
 51
273.510567128157
  0
ARC
  5
5C2F
330
1A
100
AcDbEntity
  8
SEIHIN
 48
10.0
100
AcDbCircle
 10
613.3733230438037
 20
1168.261041651932
 30
0.0
 40
1000.0
100
AcDbArc
 50
267.0146943820395
 51
273.51354418011
  0
LINE
  5
5C30
330
1A
100
AcDbEntity
  8
SEIHIN
 48
10.0
100
AcDbLine
 10
670.9680816801428
 20
206.3648565904537
 30
0.0
 11
669.1203564042061
 21
170.8163241491243
 31
0.0
  0
ARC
  5
5C31
330
1A
100
AcDbEntity
  8
SEIHIN
 48
10.0
100
AcDbCircle
 10
672.9653854774006
 20
206.2610416519323
 30
0.0
 40
2.000000000000085
100
AcDbArc
 50
90.0
 51
177.024583911785
  0
LINE
  5
5C32
330
1A
100
AcDbEntity
  8
SEIHIN
 48
10.0
100
AcDbLine
 10
680.0801399275228
 20
208.2610416519324
 30
0.0
 11
672.9653854774006
 21
208.2610416519324
 31
0.0
  0
ARC
  5
5C33
330
1A
100
AcDbEntity
  8
SEIHIN
 48
10.0
100
AcDbCircle
 10
678.1468800042919
 20
232.7600543364183
 30
0.0
 40
7.500987429305147
100
AcDbArc
 50
357.033457730416
 51
90.00998004544628
  0
LINE
  5
5C34
330
1A
100
AcDbEntity
  8
SEIHIN
 48
10.0
100
AcDbLine
 10
685.63781555494
 20
232.3718572336112
 30
0.0
 11
682.556788055559
 21
173.0957259597911
 31
0.0
  0
ARC
  5
5C35
330
1A
100
AcDbEntity
  8
SEIHIN
 48
10.0
100
AcDbCircle
 10
676.0675451103861
 20
173.4325623732082
 30
0.0
 40
6.497979129766317
100
AcDbArc
 50
273.6019547930612
 51
357.0286210368307
  0
ARC
  5
5C36
330
1A
100
AcDbEntity
  8
SEIHIN
 48
10.0
100
AcDbCircle
 10
613.3733230438037
 20
1168.261041651932
 30
0.0
 40
1003.300000000001
100
AcDbArc
 50
266.9434007136513
 51
273.6059924989076
  0
ARC
  5
5C38
330
1A
100
AcDbEntity
  8
SEIHIN
 48
10.0
100
AcDbCircle
 10
675.7532655134018
 20
173.9325797513261
 30
0.0
 40
8.056510457166828
100
AcDbArc
 50
297.0277622274172
 51
312.6764790617004
  0
LINE
  5
5C39
330
1A
100
AcDbEntity
  8
SEIHIN
 48
10.0
100
AcDbLine
 10
681.2144349117779
 20
168.0094902240033
 30
0.0
 11
682.0153246013124
 21
168.9019217524885
 31
0.0
  0
ARC
  5
5C3A
330
1A
100
AcDbEntity
  8
SEIHIN
 48
10.0
100
AcDbCircle
 10
676.0512230422754
 20
173.4485487170188
 30
0.0
 40
7.499488259948108
100
AcDbArc
 50
322.6805577197084
 51
357.0252228116097
  0
ARC
  5
5C3C
330
1A
100
AcDbEntity
  8
SEIHIN
 48
10.0
100
AcDbCircle
 10
675.5894312137561
 20
173.9055489411086
 30
0.0
 40
5.499999999999911
100
AcDbArc
 50
273.5802884174076
 51
357.0245839117882
  0
ARC
  5
5C3D
330
1A
100
AcDbEntity
  8
SEIHIN
 48
10.0
100
AcDbCircle
 10
613.3733230438037
 20
1168.261041651932
 30
0.0
 40
1001.8
100
AcDbArc
 50
266.9434158250606
 51
273.5802884174141
  0
LINE
  5
5C3E
330
1A
100
AcDbEntity
  8
SEIHIN
 48
10.0
100
AcDbLine
 10
603.7733230438038
 20
121.9610416519324
 30
0.0
 11
603.7733230438038
 21
120.7610416519323
 31
0.0
  0
LINE
  5
5C3F
330
1A
100
AcDbEntity
  8
CENTER L
 48
10.0
100
AcDbLine
 10
633.3733230438038
 20
108.2327362959209
 30
0.0
 11
633.3733230438038
 21
154.3559097225268
 31
0.0
  0
LINE
  5
5C40
330
1A
100
AcDbEntity
  8
SEIHIN
 48
10.0
100
AcDbLine
 10
664.477323043804
 20
141.7610416519323
 30
0.0
 11
664.0021230438037
 21
121.9610416519324
 31
0.0
  0
LINE
  5
5C41
330
1A
100
AcDbEntity
  8
SEIHIN
 48
10.0
100
AcDbLine
 10
662.9733230438037
 20
121.9610416519324
 30
0.0
 11
662.9733230438037
 21
120.7610416519323
 31
0.0
  0
LINE
  5
5C42
330
1A
100
AcDbEntity
  8
SEIHIN
 48
10.0
100
AcDbLine
 10
663.9733230438037
 20
120.7610416519323
 30
0.0
 11
662.9733230438037
 21
115.7610416519324
 31
0.0
  0
LINE
  5
5C43
330
1A
100
AcDbEntity
  8
SEIHIN
 48
10.0
100
AcDbLine
 10
561.3426900722209
 20
275.2891061680614
 30
0.0
 11
551.9879929029336
 21
278.4062568523104
 31
0.0
  0
LINE
  5
5C44
330
1A
100
AcDbEntity
  8
SEIHIN
 48
10.0
100
AcDbLine
 10
560.8686610772442
 20
272.2848930411476
 30
0.0
 11
561.6589836578891
 21
274.6566835501349
 31
0.0
  0
ARC
  5
5C45
330
1A
100
AcDbEntity
  8
SEIHIN
 48
10.0
100
AcDbCircle
 10
561.3294252637428
 20
275.2492979332701
 30
0.0
 40
2.999999999999992
100
AcDbArc
 50
261.1650823312675
 51
341.5710141044036
  0
ARC
  5
5C46
330
1A
100
AcDbEntity
  8
SEIHIN
 48
10.0
100
AcDbCircle
 10
561.217994700271
 20
274.8036288767563
 30
0.0
 40
3.000000000000029
100
AcDbArc
 50
350.3532805720489
 51
71.5710141044007
  0
LINE
  5
5C47
330
1A
100
AcDbEntity
  8
SEIHIN
 48
10.0
100
AcDbLine
 10
562.1663817970452
 20
277.6497774875411
 30
0.0
 11
553.0162290606567
 21
280.6987703461084
 31
0.0
  0
LINE
  5
5C48
330
1A
100
AcDbEntity
  8
SEIHIN
 48
10.0
100
AcDbLine
 10
550.5524902760453
 20
281.7010416519324
 30
0.0
 11
549.5546113099164
 21
281.7010416519324
 31
0.0
  0
ARC
  5
5C49
330
1A
100
AcDbEntity
  8
SEIHIN
 48
10.0
100
AcDbCircle
 10
786.9111353648029
 20
194.3431667002686
 30
0.0
 40
254.2375292816246
100
AcDbArc
 50
160.22045988022
 51
177.0000000000011
  0
ARC
  5
5C4A
330
1A
100
AcDbEntity
  8
SEIHIN
 48
10.0
100
AcDbCircle
 10
549.5548102660868
 20
279.7017027483617
 30
0.0
 40
1.999338913469807
100
AcDbArc
 50
90.00570155905608
 51
160.2402168391063
  0
ARC
  5
5C4B
330
1A
100
AcDbEntity
  8
SEIHIN
 48
10.0
100
AcDbCircle
 10
786.9111353648029
 20
194.3431667002686
 30
0.0
 40
253.3000000000002
100
AcDbArc
 50
160.1435714024487
 51
177.0000000000011
  0
ARC
  5
5C4C
330
1A
100
AcDbEntity
  8
SEIHIN
 48
10.0
100
AcDbCircle
 10
786.9111353648029
 20
194.3431667002686
 30
0.0
 40
250.0
100
AcDbArc
 50
160.4259431400503
 51
161.6376782914161
  0
ARC
  5
5C4D
330
1A
100
AcDbEntity
  8
SEIHIN
 48
10.0
100
AcDbCircle
 10
786.9111353648029
 20
194.3431667002686
 30
0.0
 40
251.8000000000001
100
AcDbArc
 50
161.7735751817645
 51
180.5984753248281
  0
LINE
  5
5C4E
330
1A
100
AcDbEntity
  8
SEIHIN
 48
10.0
100
AcDbLine
 10
549.6402902403706
 20
273.0994112395916
 30
0.0
 11
547.7444697400501
 21
273.0994112395916
 31
0.0
  0
ARC
  5
5C4F
330
1A
100
AcDbEntity
  8
SEIHIN
 48
10.0
100
AcDbCircle
 10
786.9111353648029
 20
194.3431667002685
 30
0.0
 40
250.0
100
AcDbArc
 50
161.6372845816343
 51
180.1121404206053
  0
LINE
  5
5C50
330
1A
100
AcDbEntity
  8
SEIHIN
 48
10.0
100
AcDbLine
 10
548.3131171681523
 20
266.5610416519324
 30
0.0
 11
554.3134773650133
 21
266.5610416519324
 31
0.0
  0
LINE
  5
5C51
330
1A
100
AcDbEntity
  8
SEIHIN
 48
10.0
100
AcDbLine
 10
554.3134773650133
 20
268.5610416519324
 30
0.0
 11
548.861793499072
 21
268.5610416519324
 31
0.0
  0
LINE
  5
5C52
330
1A
100
AcDbEntity
  8
SEIHIN
 48
10.0
100
AcDbLine
 10
554.655497508339
 20
268.8005267345086
 30
0.0
 11
548.9179383695073
 21
270.8888274783852
 31
0.0
  0
ARC
  5
5C53
330
1A
100
AcDbEntity
  8
SEIHIN
 48
10.0
100
AcDbCircle
 10
554.3134773650133
 20
267.5610416519324
 30
0.0
 40
1.0
100
AcDbArc
 50
0.0
 51
90.0
  0
ARC
  5
5C54
330
1A
100
AcDbEntity
  8
SEIHIN
 48
10.0
100
AcDbCircle
 10
548.3131171681523
 20
265.5610416519324
 30
0.0
 40
1.0
100
AcDbArc
 50
90.0
 51
163.3804368304195
  0
ARC
  5
5C55
330
1A
100
AcDbEntity
  8
SEIHIN
 48
10.0
100
AcDbCircle
 10
786.467327981069
 20
194.3272302722459
 30
0.0
 40
248.6075005257206
100
AcDbArc
 50
170.4061122269394
 51
179.6896206436992
  0
LINE
  5
5C56
330
1A
100
AcDbEntity
  8
SEIHIN
 48
10.0
100
AcDbLine
 10
541.3368961856702
 20
235.7610416519324
 30
0.0
 11
540.3660527527381
 21
235.7610416519323
 31
0.0
  0
LINE
  5
5C57
330
1A
100
AcDbEntity
  8
SEIHIN
 48
10.0
100
AcDbLine
 10
532.0307382966397
 20
188.7339625948984
 30
0.0
 11
533.0220297811417
 21
207.6489309080649
 31
0.0
  0
LINE
  5
5C58
330
1A
100
AcDbEntity
  8
SEIHIN
 48
10.0
100
AcDbLine
 10
533.0284841963621
 20
189.8584140474605
 30
0.0
 11
533.9582742114694
 21
207.5998644166053
 31
0.0
  0
ARC
  5
5C59
330
1A
100
AcDbEntity
  8
SEIHIN
 48
10.0
100
AcDbCircle
 10
552.1742935767859
 20
281.2010416519324
 30
0.0
 40
0.5
100
AcDbArc
 50
359.999999999987
 51
90.0
  0
ARC
  5
5C5A
330
1A
100
AcDbEntity
  8
SEIHIN
 48
10.0
100
AcDbCircle
 10
553.1742935767859
 20
281.1731284479059
 30
0.0
 40
0.5000000000001137
100
AcDbArc
 50
179.999999999987
 51
251.5710141043938
  0
LINE
  5
5C5B
330
1A
100
AcDbEntity
  8
SEIHIN
 48
10.0
100
AcDbLine
 10
550.5524902760455
 20
281.7010416519324
 30
0.0
 11
552.1742935767861
 21
281.7010416519324
 31
0.0
  0
ARC
  5
5C5C
330
1A
100
AcDbEntity
  8
SEIHIN
 48
10.0
100
AcDbCircle
 10
550.5523134395227
 20
279.7003471730859
 30
0.0
 40
2.000694486661764
100
AcDbArc
 50
89.99493576531481
 51
160.1360689228008
  0
ARC
  5
5C65
330
1A
100
AcDbEntity
  8
SEIHIN
 48
10.0
100
AcDbCircle
 10
532.4635801556707
 20
188.6330641362253
 30
0.0
 40
0.5000000000000277
100
AcDbArc
 50
176.9999999999978
 51
279.8335639642056
  0
LINE
  5
5C66
330
1A
100
AcDbEntity
  8
SEIHIN
 48
10.0
100
AcDbLine
 10
532.5489735174387
 20
188.1404101260255
 30
0.0
 11
548.4268678069045
 21
190.8925784695333
 31
0.0
  0
ARC
  5
5C67
330
1A
100
AcDbEntity
  8
SEIHIN
 48
10.0
100
AcDbCircle
 10
548.5122611686724
 20
190.3999244593334
 30
0.0
 40
0.5000000000000057
100
AcDbArc
 50
16.45893098314465
 51
99.83356396420559
  0
LINE
  5
5C6A
330
1A
100
AcDbEntity
  8
SEIHIN
 48
10.0
100
AcDbLine
 10
552.0183605711292
 20
197.4015879863779
 30
0.0
 11
538.4100474016322
 21
195.0428137036647
 31
0.0
  0
LINE
  5
5C6B
330
1A
100
AcDbEntity
  8
SEIHIN
 48
10.0
100
AcDbLine
 10
551.4729420818532
 20
195.7846822028516
 30
0.0
 11
537.4970066072942
 21
193.3621867205943
 31
0.0
  0
ARC
  5
5C6C
330
1A
100
AcDbEntity
  8
SEIHIN
 48
10.0
100
AcDbCircle
 10
537.411613245526
 20
193.8548407307942
 30
0.0
 40
0.5000000000000251
100
AcDbArc
 50
180.1121404206053
 51
279.8335639642188
  0
LWPOLYLINE
  5
5C6D
330
1A
100
AcDbEntity
  8
SEIHIN
 48
10.0
100
AcDbPolyline
 90
        7
 70
     0
 43
0.0
 10
537.8634751780964
 20
195.6739542215519
 10
537.8709910831676
 20
195.5313814013151
 10
537.9320300633426
 20
195.2919279311839
 10
538.0176365484444
 20
195.1585322357158
 10
538.1234400068167
 20
195.0773416829539
 10
538.2645062816059
 20
195.0364939219743
 10
538.4100485366984
 20
195.0428139004095
  0
ARC
  5
5C6E
330
1A
100
AcDbEntity
  8
SEIHIN
 48
10.0
100
AcDbCircle
 10
552.0743676964452
 20
196.879041363695
 30
0.0
 40
0.5255395319020915
100
AcDbArc
 50
6.576495581294762
 51
96.11762450057334
  0
LWPOLYLINE
  5
5C6F
330
1A
100
AcDbEntity
  8
SEIHIN
 48
10.0
100
AcDbPolyline
 90
        3
 70
     0
 43
0.0
 10
552.8630923355003
 20
196.0256415801486
 10
552.7133973770912
 20
196.5377406694743
 10
552.5964495292351
 20
196.9392297024135
  0
LWPOLYLINE
  5
5C70
330
1A
100
AcDbEntity
  8
SEIHIN
 48
10.0
100
AcDbPolyline
 90
        5
 70
     0
 43
0.0
 10
560.4279274604732
 20
171.3603620986906
 10
558.3631488736621
 20
177.9204715497036
 10
556.2947892660949
 20
184.6341860133447
 10
554.5828523227067
 20
190.2552198278328
 10
552.8630923355003
 20
196.0256415801487
  0
ARC
  5
5C71
330
1A
100
AcDbEntity
  8
SEIHIN
 48
10.0
100
AcDbCircle
 10
551.5583354436212
 20
195.2920281926516
 30
0.0
 40
0.5000000000001784
100
AcDbArc
 50
16.23967732721297
 51
99.83356396419907
  0
ARC
  5
5C72
330
1A
100
AcDbEntity
  8
SEIHIN
 48
10.0
100
AcDbCircle
 10
1512.138639665343
 20
475.0878986791639
 30
0.0
 40
1000.0
100
AcDbArc
 50
196.2396773271846
 51
197.7028625723292
  0
ARC
  5
5C73
330
1A
100
AcDbEntity
  8
SEIHIN
 48
10.0
100
AcDbCircle
 10
561.3976420717611
 20
171.6154032289809
 30
0.0
 40
1.999999999999928
100
AcDbArc
 50
197.7028625723102
 51
267.0146943820264
  0
ARC
  5
5C74
330
1A
100
AcDbEntity
  8
SEIHIN
 48
10.0
100
AcDbCircle
 10
1512.138639665343
 20
475.087898679164
 30
0.0
 40
1001.8
100
AcDbArc
 50
196.331675194125
 51
197.7741411293018
  0
LINE
  5
5C75
330
1A
100
AcDbEntity
  8
SEIHIN
 48
10.0
100
AcDbLine
 10
550.1960688134079
 20
193.7365176085251
 30
0.0
 11
535.7102377266108
 21
191.2256402201467
 31
0.0
  0
ARC
  5
5C77
330
1A
100
AcDbEntity
  8
SEIHIN
 48
10.0
100
AcDbCircle
 10
533.5275679245421
 20
189.8321696324728
 30
0.0
 40
0.4997732856529444
100
AcDbArc
 50
176.9898627858435
 51
279.8437011783993
  0
LINE
  5
5C78
330
1A
100
AcDbEntity
  8
SEIHIN
 48
10.0
100
AcDbLine
 10
549.1340963161121
 20
192.0300757969412
 30
0.0
 11
533.6130096898232
 21
189.3397541150507
 31
0.0
  0
ARC
  5
5C79
330
1A
100
AcDbEntity
  8
SEIHIN
 48
10.0
100
AcDbCircle
 10
549.219485591919
 20
191.5376119858845
 30
0.0
 40
0.4998118982411033
100
AcDbArc
 50
16.40483066069877
 51
99.83682618743008
  0
ARC
  5
5C7A
330
1A
100
AcDbEntity
  8
SEIHIN
 48
10.0
100
AcDbCircle
 10
1512.138639665343
 20
475.087898679164
 30
0.0
 40
1003.3
100
AcDbArc
 50
196.4080928839506
 51
197.7741562406982
  0
ARC
  5
5C7B
330
1A
100
AcDbEntity
  8
SEIHIN
 48
10.0
100
AcDbCircle
 10
560.0614179784368
 20
169.882860815171
 30
0.0
 40
3.49944424404089
100
AcDbArc
 50
197.7722005749685
 51
266.9453563751487
  0
ARC
  5
5C7C
330
1A
100
AcDbEntity
  8
SEIHIN
 48
10.0
100
AcDbCircle
 10
535.6248443648428
 20
191.7182942303465
 30
0.0
 40
0.5000000000000251
100
AcDbArc
 50
180.5984753248281
 51
279.8335639642188
  0
ARC
  5
5C7D
330
1A
100
AcDbEntity
  8
SEIHIN
 48
10.0
100
AcDbCircle
 10
560.061830201745
 20
169.88339530214
 30
0.0
 40
2.000000000000097
100
AcDbArc
 50
197.7741411293021
 51
266.9434158250672
  0
ARC
  5
5C7F
330
1A
100
AcDbEntity
  8
SEIHIN
 48
10.0
100
AcDbCircle
 10
550.2814621751759
 20
193.2438635983253
 30
0.0
 40
0.5000000000000057
100
AcDbArc
 50
16.33167519412478
 51
99.83356396420559
  0
ARC
  5
5C80
330
1A
100
AcDbEntity
  8
SEIHIN
 48
10.0
100
AcDbCircle
 10
561.3976420717611
 20
171.6154032289809
 30
0.0
 40
1.002692577754986
100
AcDbArc
 50
194.7354436708009
 51
264.0472754804965
  0
ARC
  5
5C81
330
1A
100
AcDbEntity
  8
SEIHIN
 48
10.0
100
AcDbCircle
 10
554.313477365013
 20
267.5610416519323
 30
0.0
 40
1.0
100
AcDbArc
 50
270.0
 51
0.0
  0
LINE
  5
5C82
330
1A
100
AcDbEntity
  8
SEIHIN
 48
10.0
100
AcDbLine
 10
585.5227901006919
 20
169.6479814441623
 30
0.0
 11
582.9046082013069
 21
177.4270946484666
 31
0.0
  0
ARC
  5
5C83
330
1A
100
AcDbEntity
  8
SEIHIN
 48
10.0
100
AcDbCircle
 10
581.0090876659339
 20
176.7891276430655
 30
0.0
 40
2.000000000000372
100
AcDbArc
 50
18.60146257861279
 51
88.13037982585166
  0
LINE
  5
5C84
330
1A
100
AcDbEntity
  8
SEIHIN
 48
10.0
100
AcDbLine
 10
581.0743381404863
 20
178.7880629535674
 30
0.0
 11
569.5486818927254
 21
179.231516901544
 31
0.0
  0
ARC
  5
5C85
330
1A
100
AcDbEntity
  8
SEIHIN
 48
10.0
100
AcDbCircle
 10
569.460147264137
 20
177.2334774576042
 30
0.0
 40
1.999999999999572
100
AcDbArc
 50
87.46284062584742
 51
143.0703152070917
  0
LINE
  5
5C86
330
1A
100
AcDbEntity
  8
SEIHIN
 48
10.0
100
AcDbLine
 10
567.8614003140749
 20
178.435146376094
 30
0.0
 11
561.9598994452567
 21
170.5835606608963
 31
0.0
  0
LINE
  5
5C87
330
1A
100
AcDbEntity
  8
SEIHIN
 48
10.0
100
AcDbLine
 10
560.1813992469024
 20
172.1436189932153
 30
0.0
 11
566.1258079703293
 21
180.6525663001481
 31
0.0
  0
ARC
  5
5C88
330
1A
100
AcDbEntity
  8
SEIHIN
 48
10.0
100
AcDbCircle
 10
564.4862717562748
 20
181.7979575009203
 30
0.0
 40
2.000000000000762
100
AcDbArc
 50
325.0615871106917
 51
17.19682914075554
  0
LINE
  5
5C89
330
1A
100
AcDbEntity
  8
SEIHIN
 48
10.0
100
AcDbLine
 10
566.396861207705
 20
182.3892678661991
 30
0.0
 11
559.547325034227
 21
205.5145556176462
 31
0.0
  0
ARC
  5
5C8A
330
1A
100
AcDbEntity
  8
SEIHIN
 48
10.0
100
AcDbCircle
 10
557.6228981359827
 20
204.9699630054007
 30
0.0
 40
2.000000000000013
100
AcDbArc
 50
15.80095624880322
 51
99.83356396421212
  0
LINE
  5
5C8B
330
1A
100
AcDbEntity
  8
SEIHIN
 48
10.0
100
AcDbLine
 10
557.2813246889109
 20
206.9405790462001
 30
0.0
 11
543.1559112751831
 21
204.4921740544872
 31
0.0
  0
ARC
  5
5C8C
330
1A
100
AcDbEntity
  8
SEIHIN
 48
10.0
100
AcDbCircle
 10
543.4974847222552
 20
202.5215580136875
 30
0.0
 40
2.000000000000453
100
AcDbArc
 50
99.83356396421216
 51
164.2947828152251
  0
LINE
  5
5C8D
330
1A
100
AcDbEntity
  8
SEIHIN
 48
10.0
100
AcDbLine
 10
541.5721505175415
 20
203.0629342231403
 30
0.0
 11
539.3634773650131
 21
195.2080748973174
 31
0.0
  0
LINE
  5
5C8F
330
1A
100
AcDbEntity
  8
CENTER L
 48
10.0
100
AcDbLine
 10
264.5145969404698
 20
360.2240084550193
 30
0.0
 11
264.5145969404698
 21
530.2526168808944
 31
0.0
  0
LINE
  5
5C90
330
1A
100
AcDbEntity
  8
CENTER L
 48
10.0
100
AcDbLine
 10
300.273454831301
 20
471.3840456844759
 30
0.0
 11
228.7557390496386
 21
471.3840456844759
 31
0.0
  0
DIMENSION
  5
67DB
330
1A
100
AcDbEntity
  8
SUNPOU
100
AcDbDimension
  2
*D2
 10
404.5145969404702
 20
318.3530739702876
 30
0.0
 11
264.5145969404702
 21
323.3530739702876
 31
0.0
 70
    32
 71
     5
 42
-1.0
  3
STANDARD
100
AcDbAlignedDimension
 13
124.5145969404701
 23
281.7010416519323
 33
0.0
 14
404.5145969404702
 24
281.7010416519323
 34
0.0
100
AcDbRotatedDimension
  0
DIMENSION
  5
67E8
330
1A
100
AcDbEntity
  8
SUNPOU
100
AcDbDimension
  2
*D3
 10
686.5867638213513
 20
312.0294179148412
 30
0.0
 11
609.2751719885111
 21
317.0294179148411
 31
0.0
 70
    32
 71
     5
 42
-1.0
  3
STANDARD
100
AcDbAlignedDimension
 13
531.9635801556708
 23
188.6330641362253
 33
0.0
 14
686.5867638213513
 24
232.7619636465289
 34
0.0
100
AcDbRotatedDimension
  0
DIMENSION
  5
67F5
330
1A
100
AcDbEntity
  8
SUNPOU
100
AcDbDimension
  2
*D4
 10
497.4703642662134
 20
188.1404101260255
 30
0.0
 11
492.4703642662134
 21
234.920725888979
 31
0.0
 70
    32
 71
     5
 42
-1.0
  3
STANDARD
100
AcDbAlignedDimension
 13
552.1742935767859
 23
281.7010416519324
 33
0.0
 14
532.5489735174387
 24
188.1404101260255
 34
0.0
 50
90.0
100
AcDbRotatedDimension
  0
DIMENSION
  5
6834
330
1A
100
AcDbEntity
  8
SUNPOU
100
AcDbDimension
  2
*D5
 10
467.5929013158129
 20
115.7610416519325
 30
0.0
 11
462.5929013158128
 21
198.7310416519325
 31
0.0
 70
    32
 71
     5
 42
-1.0
  3
STANDARD
100
AcDbAlignedDimension
 13
552.1742935767861
 23
281.7010416519324
 33
0.0
 14
603.7733230438038
 24
115.7610416519324
 34
0.0
 50
90.0
100
AcDbRotatedDimension
  0
DIMENSION
  5
684E
330
1A
100
AcDbEntity
  8
SUNPOU
100
AcDbDimension
  2
*D6
 10
602.7445230438038
 20
94.50998762573044
 30
0.0
 11
633.3733230438038
 21
99.50998762573044
 31
0.0
 70
    32
 71
     5
 42
61.25759999999991
  3
STANDARD
100
AcDbAlignedDimension
 13
664.0021230438037
 23
121.9610416519324
 33
0.0
 14
602.7445230438038
 24
121.9610416519324
 34
0.0
100
AcDbRotatedDimension
  0
DIMENSION
  5
685B
330
1A
100
AcDbEntity
  8
SUNPOU
100
AcDbDimension
  2
*D7
 10
238.9729347441395
 20
458.7397342412747
 30
0.0
 11
274.4394007026076
 21
482.6470720493961
 31
0.0
 70
   163
 71
     5
 42
-1.0
  3
STANDARD
100
AcDbDiametricDimension
 15
290.0562591368004
 25
484.0283571276773
 35
0.0
 40
0.0
1001
ACAD
1000
DSTYLE
1002
{
1070
   287
1070
     5
1070
   287
1070
     5
1070
   287
1070
     5
1070
   287
1070
     5
1070
   287
1070
     5
1070
   287
1070
     5
1070
   287
1070
     5
1070
   287
1070
     5
1070
   279
1070
     2
1070
   288
1070
     1
1002
}
  0
LINE
  5
6871
330
1A
100
AcDbEntity
  8
SEIHIN
100
AcDbLine
 10
163.9855935867497
 20
163.9839700868492
 30
0.0
 11
365.04360029419
 21
163.9839700868492
 31
0.0
  0
DIMENSION
  5
73CC
330
1A
100
AcDbEntity
  8
SUNPOU
100
AcDbDimension
  2
*D8
 10
482.4225193646397
 20
164.0508869052291
 30
0.0
 11
477.4225193646397
 21
222.8759642785808
 31
0.0
 70
    32
 71
     5
 42
-1.0
  3
STANDARD
100
AcDbAlignedDimension
 13
552.1742935767861
 23
281.7010416519324
 33
0.0
 14
624.8511139580905
 24
164.0508869052291
 34
0.0
 50
90.0
100
AcDbRotatedDimension
  0
DIMENSION
  5
73D9
330
1A
100
AcDbEntity
  8
SUNPOU
100
AcDbDimension
  2
*D9
 10
482.4225193646397
 20
145.7610416519324
 30
0.0
 11
477.4225193646397
 21
154.9059642785809
 31
0.0
 70
    32
 71
     5
 42
-1.0
  3
STANDARD
100
AcDbAlignedDimension
 13
624.8511139580905
 23
164.0508869052291
 33
0.0
 14
581.8104301277753
 24
145.7610416519324
 34
0.0
 50
90.0
100
AcDbRotatedDimension
  0
DIMENSION
  5
7401
330
1A
100
AcDbEntity
  8
SUNPOU
100
AcDbDimension
  2
*D10
 10
710.1330226711902
 20
164.0508869052291
 30
0.0
 11
705.1330226711902
 21
202.1559642785808
 31
0.0
 70
    32
 71
     5
 42
76.21015474670326
  3
STANDARD
100
AcDbAlignedDimension
 13
678.1455734474091
 23
240.2610416519324
 33
0.0
 14
624.8511139580905
 24
164.0508869052291
 34
0.0
 50
90.0
100
AcDbRotatedDimension
  0
LINE
  5
7440
330
1A
100
AcDbEntity
  8
SEIHIN
 48
10.0
100
AcDbLine
 10
680.2134773650132
 20
241.2610416519324
 30
0.0
 11
680.2134773650132
 21
240.0901812553822
 31
0.0
  0
DIMENSION
  5
7449
330
1A
100
AcDbEntity
  8
SUNPOU
100
AcDbDimension
  2
*D11
 10
312.0145969404698
 20
302.444617414043
 30
0.0
 11
264.5145969404698
 21
307.444617414043
 31
0.0
 70
    32
  1
※<>
 71
     5
 42
-1.0
  3
STANDARD
100
AcDbAlignedDimension
 13
217.0145969404698
 23
281.7010416519324
 33
0.0
 14
312.0145969404698
 24
281.7010416519324
 34
0.0
100
AcDbRotatedDimension
  0
LINE
  5
745F
330
1A
100
AcDbEntity
  8
SEIHIN
 48
10.0
100
AcDbLine
 10
265.5141744194324
 20
392.3242000056834
 30
0.0
 11
279.5145969405055
 21
392.3242000056609
 31
0.0
  0
LINE
  5
7460
330
1A
100
AcDbEntity
  8
SEIHIN
 48
10.0
100
AcDbLine
 10
279.5145969405071
 20
393.3242000056609
 30
0.0
 11
265.514174419434
 21
393.3242000056834
 31
0.0
  0
LINE
  5
7461
330
1A
100
AcDbEntity
  8
SEIHIN
 48
10.0
100
AcDbLine
 10
279.5145969405071
 20
393.3242000056609
 30
0.0
 11
279.5145969405023
 21
390.3242000056609
 31
0.0
  0
LINE
  5
74C2
330
1A
100
AcDbEntity
  8
NOKITOI
 48
0.5
100
AcDbLine
 10
312.0145969404698
 20
374.6733288636458
 30
0.0
 11
312.0145969404698
 21
520.1044246031464
 31
0.0
  0
ARC
  5
7511
102
{ACAD_REACTORS
330
755C
102
}
330
1A
100
AcDbEntity
  8
NOKITOI
 48
0.5
100
AcDbCircle
 10
786.7911597626223
 20
194.3456898965978
 30
0.0
 40
250.0
100
AcDbArc
 50
160.4971001221383
 51
180.1139751640763
  0
ARC
  5
7512
102
{ACAD_REACTORS
330
755C
102
}
330
1A
100
AcDbEntity
  8
NOKITOI
 48
0.5
100
AcDbCircle
 10
786.791159762623
 20
194.3456898965978
 30
0.0
 40
248.6000000000006
100
AcDbArc
 50
169.123291167009
 51
178.0328534539724
  0
LINE
  5
7513
102
{ACAD_REACTORS
330
755C
102
}
330
1A
100
AcDbEntity
  8
NOKITOI
 48
0.5
100
AcDbLine
 10
682.222255502123
 20
232.9979341466868
 30
0.0
 11
679.2230945200551
 21
174.8717678295119
 31
0.0
  0
LINE
  5
7514
102
{ACAD_REACTORS
330
755C
102
}
330
1A
100
AcDbEntity
  8
NOKITOI
 48
0.5
100
AcDbLine
 10
677.9248215642144
 20
174.9387553815892
 30
0.0
 11
680.4343744395302
 21
223.5759204702571
 31
0.0
  0
ARC
  5
7515
102
{ACAD_REACTORS
330
755C
102
}
330
1A
100
AcDbEntity
  8
NOKITOI
 48
0.5
100
AcDbCircle
 10
613.1935364592944
 20
1168.255578577753
 30
0.0
 40
998.6999999999989
100
AcDbArc
 50
267.0172809126749
 51
273.5168981490931
  0
ARC
  5
7516
102
{ACAD_REACTORS
330
755C
102
}
330
1A
100
AcDbEntity
  8
NOKITOI
 48
0.5
100
AcDbCircle
 10
613.1935364592944
 20
1168.255578577753
 30
0.0
 40
999.9999999999989
100
AcDbArc
 50
267.0148646779925
 51
273.5168981490931
  0
ARC
  5
7518
102
{ACAD_REACTORS
330
755C
102
}
330
1A
100
AcDbEntity
  8
NOKITOI
 48
0.5
100
AcDbCircle
 10
794.5162778092174
 20
255.7360497814676
 30
0.0
 40
250.0000000000005
100
AcDbArc
 50
193.9649292639535
 51
199.8292867194334
  0
ARC
  5
7519
102
{ACAD_REACTORS
330
755C
102
}
330
1A
100
AcDbEntity
  8
NOKITOI
 48
0.5
100
AcDbCircle
 10
794.5162778092196
 20
255.7360497814675
 30
0.0
 40
248.6000000000026
100
AcDbArc
 50
193.4348295112283
 51
199.8543528090396
  0
ARC
  5
751A
102
{ACAD_REACTORS
330
755C
102
}
330
1A
100
AcDbEntity
  8
NOKITOI
 48
0.5
100
AcDbCircle
 10
561.2576441127084
 20
171.5077302800189
 30
0.0
 40
0.6
100
AcDbArc
 50
199.8543528090267
 51
267.0172809126423
  0
ARC
  5
751B
102
{ACAD_REACTORS
330
755C
102
}
330
1A
100
AcDbEntity
  8
NOKITOI
 48
0.5
100
AcDbCircle
 10
561.2208177427609
 20
171.6097856757759
 30
0.0
 40
2.000000000000127
100
AcDbArc
 50
199.8292867194319
 51
267.0148646780057
  0
ARC
  5
751C
102
{ACAD_REACTORS
330
755C
102
}
330
1A
100
AcDbEntity
  8
NOKITOI
 48
0.5
100
AcDbCircle
 10
537.2916534085951
 20
193.8493743752053
 30
0.0
 40
0.4999999999999863
100
AcDbArc
 50
180.1139751640747
 51
279.8335639641924
  0
LWPOLYLINE
  5
751D
102
{ACAD_REACTORS
330
755C
102
}
330
1A
100
AcDbEntity
  8
NOKITOI
 48
0.5
100
AcDbPolyline
 90
        3
 70
     1
 43
0.0
 10
538.1915159769309
 20
194.7665338430762
 42
-0.0068456564800853
 10
538.2962304605441
 20
201.5727301728881
 10
551.4964948027678
 20
197.072730172888
  0
LINE
  5
751E
102
{ACAD_REACTORS
330
755C
102
}
330
1A
100
AcDbEntity
  8
NOKITOI
 48
0.5
100
AcDbLine
 10
551.33475642357
 20
195.7760567048945
 30
0.0
 11
537.377046770363
 21
193.3567203650055
 31
0.0
  0
ARC
  5
751F
102
{ACAD_REACTORS
330
755C
102
}
330
1A
100
AcDbEntity
  8
NOKITOI
 48
0.5
100
AcDbCircle
 10
551.420149785338
 20
195.2834026946947
 30
0.0
 40
0.4999999999999687
100
AcDbArc
 50
13.96492926395351
 51
99.83356396420548
  0
LINE
  5
7520
102
{ACAD_REACTORS
330
755C
102
}
330
1A
100
AcDbEntity
  8
NOKITOI
 48
0.5
100
AcDbLine
 10
538.3376661743698
 20
202.8792427201374
 30
0.0
 11
552.7192612261318
 21
197.9765244066929
 31
0.0
  0
ARC
  5
7521
102
{ACAD_REACTORS
330
755C
102
}
330
1A
100
AcDbEntity
  8
NOKITOI
 48
0.5
100
AcDbCircle
 10
674.2297369975915
 20
175.1294122605787
 30
0.0
 40
3.7
100
AcDbArc
 50
273.5168981490996
 51
357.0463041905463
  0
ARC
  5
7522
102
{ACAD_REACTORS
330
755C
102
}
330
1A
100
AcDbEntity
  8
NOKITOI
 48
0.5
100
AcDbCircle
 10
674.2297369975918
 20
175.1294122605788
 30
0.0
 40
5.00000000000003
100
AcDbArc
 50
273.5168981490931
 51
357.0463041905463
  0
ARC
  5
7523
102
{ACAD_REACTORS
330
755C
102
}
330
1A
100
AcDbEntity
  8
NOKITOI
 48
0.5
100
AcDbCircle
 10
786.7911597626227
 20
194.3456898965976
 30
0.0
 40
248.6000000000005
100
AcDbArc
 50
164.6645082414585
 51
168.6812840818882
  0
ARC
  5
7524
102
{ACAD_REACTORS
330
755C
102
}
330
1A
100
AcDbEntity
  8
NOKITOI
 48
0.5
100
AcDbCircle
 10
555.7486166108695
 20
262.3755785777537
 30
0.0
 40
7.75
100
AcDbArc
 50
90.0
 51
270.0
  0
ARC
  5
7525
102
{ACAD_REACTORS
330
755C
102
}
330
1A
100
AcDbEntity
  8
NOKITOI
 48
0.5
100
AcDbCircle
 10
555.7486166108695
 20
262.3755785777537
 30
0.0
 40
9.000000000000003
100
AcDbArc
 50
194.6914620997654
 51
270.0
  0
ARC
  5
7526
102
{ACAD_REACTORS
330
755C
102
}
330
1A
100
AcDbEntity
  8
NOKITOI
 48
0.5
100
AcDbCircle
 10
567.970655238987
 20
210.2842101497617
 30
0.0
 40
41.25
100
AcDbArc
 50
105.9368510911666
 51
127.2081283563538
  0
ARC
  5
7527
102
{ACAD_REACTORS
330
755C
102
}
330
1A
100
AcDbEntity
  8
NOKITOI
 48
0.5
100
AcDbCircle
 10
567.970655238987
 20
210.2842101497617
 30
0.0
 40
40.0
100
AcDbArc
 50
106.0024207833246
 51
129.2598183521839
  0
ARC
  5
7528
102
{ACAD_REACTORS
330
755C
102
}
330
1A
100
AcDbEntity
  8
NOKITOI
 48
0.5
100
AcDbCircle
 10
556.1435364592944
 20
251.6255785777537
 30
0.0
 40
3.0
100
AcDbArc
 50
285.4660099533724
 51
90.0
  0
LINE
  5
7529
102
{ACAD_REACTORS
330
755C
102
}
330
1A
100
AcDbEntity
  8
NOKITOI
 48
0.5
100
AcDbLine
 10
555.7486166108711
 20
253.3755785777537
 30
0.0
 11
556.1435364592942
 21
253.3755785777538
 31
0.0
  0
LINE
  5
752A
102
{ACAD_REACTORS
330
755C
102
}
330
1A
100
AcDbEntity
  8
NOKITOI
 48
0.5
100
AcDbLine
 10
555.748616610874
 20
254.6255785777536
 30
0.0
 11
556.1435364592942
 21
254.6255785777538
 31
0.0
  0
ARC
  5
752B
102
{ACAD_REACTORS
330
755C
102
}
330
1A
100
AcDbEntity
  8
NOKITOI
 48
0.5
100
AcDbCircle
 10
556.1435364592944
 20
251.6255785777537
 30
0.0
 40
1.75
100
AcDbArc
 50
285.4660099533724
 51
90.0
  0
LINE
  5
752C
102
{ACAD_REACTORS
330
755C
102
}
330
1A
100
AcDbEntity
  8
NOKITOI
 48
0.5
100
AcDbLine
 10
557.2781614491491
 20
265.8755785777537
 30
0.0
 11
558.18037167026
 21
268.3566566858087
 31
0.0
  0
LINE
  5
752D
102
{ACAD_REACTORS
330
755C
102
}
330
1A
100
AcDbEntity
  8
NOKITOI
 48
0.5
100
AcDbLine
 10
555.7374897434923
 20
265.296450109297
 30
0.0
 11
557.0056298908995
 21
268.783835514667
 31
0.0
  0
LINE
  5
752E
102
{ACAD_REACTORS
330
755C
102
}
330
1A
100
AcDbEntity
  8
NOKITOI
 48
0.5
100
AcDbLine
 10
561.1032441667727
 20
270.1970477271796
 30
0.0
 11
559.6040919731559
 21
265.8755785777535
 31
0.0
  0
LINE
  5
752F
102
{ACAD_REACTORS
330
755C
102
}
330
1A
100
AcDbEntity
  8
NOKITOI
 48
0.5
100
AcDbLine
 10
562.6095984786315
 20
270.7253573552339
 30
0.0
 11
560.6101414733628
 21
264.9617052052639
 31
0.0
  0
LINE
  5
7530
102
{ACAD_REACTORS
330
755C
102
}
330
1A
100
AcDbEntity
  8
NOKITOI
 48
0.5
100
AcDbLine
 10
559.6040919731559
 20
265.8755785777535
 30
0.0
 11
557.2781614491491
 21
265.8755785777537
 31
0.0
  0
ARC
  5
7531
102
{ACAD_REACTORS
330
755C
102
}
330
1A
100
AcDbEntity
  8
NOKITOI
 48
0.5
100
AcDbCircle
 10
560.1377586648389
 20
265.1255785777534
 30
0.0
 40
0.5
100
AcDbArc
 50
269.9999999999935
 51
340.8679309837102
  0
ARC
  5
7532
102
{ACAD_REACTORS
330
755C
102
}
330
1A
100
AcDbEntity
  8
NOKITOI
 48
0.5
100
AcDbCircle
 10
556.2073864552366
 20
265.1255785777537
 30
0.0
 40
0.5
100
AcDbArc
 50
160.0168934781067
 51
270.0
  0
LINE
  5
7533
102
{ACAD_REACTORS
330
755C
102
}
330
1A
100
AcDbEntity
  8
NOKITOI
 48
0.5
100
AcDbLine
 10
560.1377586648389
 20
264.6255785777533
 30
0.0
 11
556.2073864552366
 21
264.6255785777537
 31
0.0
  0
LINE
  5
7534
102
{ACAD_REACTORS
330
755C
102
}
330
1A
100
AcDbEntity
  8
NOKITOI
 48
0.5
100
AcDbLine
 10
552.1715189745057
 20
276.5380505906129
 30
0.0
 11
557.8854798209695
 21
274.857473871065
 31
0.0
  0
LINE
  5
7535
102
{ACAD_REACTORS
330
755C
102
}
330
1A
100
AcDbEntity
  8
NOKITOI
 48
0.5
100
AcDbLine
 10
551.747406443917
 20
278.1220874058059
 30
0.0
 11
559.2531708218884
 21
275.9145096475791
 31
0.0
  0
ARC
  5
7536
102
{ACAD_REACTORS
330
755C
102
}
330
1A
100
AcDbEntity
  8
NOKITOI
 48
0.5
100
AcDbCircle
 10
555.7486166108695
 20
262.3755785777537
 30
0.0
 40
9.0
100
AcDbArc
 50
90.0
 51
132.4946762124441
  0
ARC
  5
7537
102
{ACAD_REACTORS
330
755C
102
}
330
1A
100
AcDbEntity
  8
NOKITOI
 48
0.5
100
AcDbCircle
 10
786.7911597626239
 20
194.3456898965987
 30
0.0
 40
248.6000000000012
100
AcDbArc
 50
160.6935328731912
 51
162.5216300707535
  0
ARC
  5
753B
102
{ACAD_REACTORS
330
755C
102
}
330
1A
100
AcDbEntity
  8
NOKITOI
 48
0.5
100
AcDbCircle
 10
551.6063232819211
 20
277.6424046550203
 30
0.0
 40
0.5
100
AcDbArc
 50
73.61045966595253
 51
160.4971001221513
  0
ARC
  5
753C
102
{ACAD_REACTORS
330
755C
102
}
330
1A
100
AcDbEntity
  8
NOKITOI
 48
0.5
100
AcDbCircle
 10
559.6877479277678
 20
272.9701476355697
 30
0.0
 40
2.399999999999999
100
AcDbArc
 50
156.8014094863535
 51
205.0228084313891
  0
LINE
  5
753D
102
{ACAD_REACTORS
330
755C
102
}
330
1A
100
AcDbEntity
  8
NOKITOI
 48
0.5
100
AcDbLine
 10
559.5716601749018
 20
275.237867247504
 30
0.0
 11
558.7686028977497
 21
273.3640669341488
 31
0.0
  0
LINE
  5
753E
102
{ACAD_REACTORS
330
755C
102
}
330
1A
100
AcDbEntity
  8
NOKITOI
 48
0.5
100
AcDbLine
 10
559.4708174699491
 20
271.9939605753857
 30
0.0
 11
562.2456808990168
 21
271.3773242578153
 31
0.0
  0
ARC
  5
7542
102
{ACAD_REACTORS
330
755C
102
}
330
1A
100
AcDbEntity
  8
NOKITOI
 48
0.5
100
AcDbCircle
 10
559.6877479277678
 20
272.9701476355697
 30
0.0
 40
1.0
100
AcDbArc
 50
156.8014094863535
 51
257.4711922908488
  0
LINE
  5
7543
102
{ACAD_REACTORS
330
755C
102
}
330
1A
100
AcDbEntity
  8
NOKITOI
 48
0.5
100
AcDbLine
 10
557.1837114147812
 20
271.078232054959
 30
0.0
 11
557.5130131795897
 21
271.9549980037616
 31
0.0
  0
ARC
  5
7544
102
{ACAD_REACTORS
330
755C
102
}
330
1A
100
AcDbEntity
  8
NOKITOI
 48
0.5
100
AcDbCircle
 10
559.6877479277678
 20
272.9701476355697
 30
0.0
 40
2.399999999999999
100
AcDbArc
 50
239.1189102988576
 51
257.4711922908488
  0
LINE
  5
7545
102
{ACAD_REACTORS
330
755C
102
}
330
1A
100
AcDbEntity
  8
NOKITOI
 48
0.5
100
AcDbLine
 10
559.1671148290032
 20
270.6272986911282
 30
0.0
 11
561.1032441667727
 21
270.1970477271796
 31
0.0
  0
LINE
  5
7546
102
{ACAD_REACTORS
330
755C
102
}
330
1A
100
AcDbEntity
  8
NOKITOI
 48
0.5
100
AcDbLine
 10
558.1256329170606
 20
270.0309727383331
 30
0.0
 11
558.4559286741012
 21
270.910385191454
 31
0.0
  0
ARC
  5
7547
102
{ACAD_REACTORS
330
755C
102
}
330
1A
100
AcDbEntity
  8
NOKITOI
 48
0.5
100
AcDbCircle
 10
556.065836467411
 20
269.1255785777537
 30
0.0
 40
2.25
100
AcDbArc
 50
340.0168934781052
 51
23.728137621549
  0
LINE
  5
7548
102
{ACAD_REACTORS
330
755C
102
}
330
1A
100
AcDbEntity
  8
NOKITOI
 48
0.5
100
AcDbLine
 10
556.065836467411
 20
271.3755785777537
 30
0.0
 11
555.7486166108695
 21
271.3755785777537
 31
0.0
  0
LINE
  5
7549
102
{ACAD_REACTORS
330
755C
102
}
330
1A
100
AcDbEntity
  8
NOKITOI
 48
0.5
100
AcDbLine
 10
556.065836467411
 20
270.1255785777537
 30
0.0
 11
555.7486166108695
 21
270.1255785777537
 31
0.0
  0
ARC
  5
754A
102
{ACAD_REACTORS
330
755C
102
}
330
1A
100
AcDbEntity
  8
NOKITOI
 48
0.5
100
AcDbCircle
 10
556.065836467411
 20
269.1255785777537
 30
0.0
 40
2.25
100
AcDbArc
 50
60.20928631069193
 51
90.0
  0
ARC
  5
754B
102
{ACAD_REACTORS
330
755C
102
}
330
1A
100
AcDbEntity
  8
NOKITOI
 48
0.5
100
AcDbCircle
 10
556.065836467411
 20
269.1255785777537
 30
0.0
 40
1.0
100
AcDbArc
 50
340.0168934781052
 51
90.0
  0
ARC
  5
754C
102
{ACAD_REACTORS
330
755C
102
}
330
1A
100
AcDbEntity
  8
NOKITOI
 48
0.5
100
AcDbCircle
 10
562.1372156701076
 20
270.8892307277233
 30
0.0
 40
0.5
100
AcDbArc
 50
340.8679309837102
 51
77.47119229085555
  0
ARC
  5
754D
102
{ACAD_REACTORS
330
755C
102
}
330
1A
100
AcDbEntity
  8
NOKITOI
 48
0.5
100
AcDbCircle
 10
559.1120876598927
 20
275.4348268967935
 30
0.0
 40
0.5
100
AcDbArc
 50
336.801409486355
 51
73.61045966596641
  0
LINE
  5
754E
102
{ACAD_REACTORS
330
755C
102
}
330
1A
100
AcDbEntity
  8
NOKITOI
 48
0.5
100
AcDbLine
 10
557.8854798209695
 20
274.857473871065
 30
0.0
 11
557.4817998557243
 21
273.9155539521595
 31
0.0
  0
LINE
  5
754F
102
{ACAD_REACTORS
330
755C
102
}
330
1A
100
AcDbEntity
  8
NOKITOI
 48
0.5
100
AcDbLine
 10
670.3842991028174
 20
223.8550416040041
 30
0.0
 11
673.4935364592949
 21
235.2555785777538
 31
0.0
  0
LWPOLYLINE
  5
7550
102
{ACAD_REACTORS
330
755C
102
}
330
1A
100
AcDbEntity
  8
NOKITOI
 48
0.5
100
AcDbPolyline
 90
        7
 70
     1
 43
0.0
 10
674.4864710525937
 20
233.9555785777536
 10
671.943712300063
 20
224.6321298184745
 10
680.5320174352855
 20
225.4683207265034
 10
680.9239825462825
 20
233.0649216987642
 42
0.4293945929516073
 10
677.2288979796599
 20
236.9555785777537
 10
676.7935364592947
 20
236.9555785777536
 10
676.7935364592947
 20
233.9555785777536
  0
LINE
  5
7551
102
{ACAD_REACTORS
330
755C
102
}
330
1A
100
AcDbEntity
  8
NOKITOI
 48
0.5
100
AcDbLine
 10
670.9151338467656
 20
223.225836115785
 30
0.0
 11
679.8865858539548
 21
224.0993316986868
 31
0.0
  0
ARC
  5
7552
102
{ACAD_REACTORS
330
755C
102
}
330
1A
100
AcDbEntity
  8
NOKITOI
 48
0.5
100
AcDbCircle
 10
670.8666810134366
 20
223.723482901108
 30
0.0
 40
0.5
100
AcDbArc
 50
164.7448812969419
 51
275.5610126218239
  0
ARC
  5
7553
102
{ACAD_REACTORS
330
755C
102
}
330
1A
100
AcDbEntity
  8
NOKITOI
 48
0.5
100
AcDbCircle
 10
679.935038687284
 20
223.6016849133638
 30
0.0
 40
0.5
100
AcDbArc
 50
357.0463041905463
 51
95.56101262182391
  0
LINE
  5
7554
102
{ACAD_REACTORS
330
755C
102
}
330
1A
100
AcDbEntity
  8
NOKITOI
 48
0.5
100
AcDbLine
 10
675.4935364592947
 20
235.2555785777537
 30
0.0
 11
675.4935364592947
 21
238.2555785777537
 31
0.0
  0
ARC
  5
7555
102
{ACAD_REACTORS
330
755C
102
}
330
1A
100
AcDbEntity
  8
NOKITOI
 48
0.5
100
AcDbCircle
 10
677.2288979796599
 20
233.2555785777538
 30
0.0
 40
4.999999999999886
100
AcDbArc
 50
357.0463041905463
 51
90.0
  0
LINE
  5
7556
102
{ACAD_REACTORS
330
755C
102
}
330
1A
100
AcDbEntity
  8
NOKITOI
 48
0.5
100
AcDbLine
 10
673.4935364592949
 20
235.2555785777537
 30
0.0
 11
675.4935364592947
 21
235.2555785777537
 31
0.0
  0
LINE
  5
7557
102
{ACAD_REACTORS
330
755C
102
}
330
1A
100
AcDbEntity
  8
NOKITOI
 48
0.5
100
AcDbLine
 10
675.4935364592947
 20
238.2555785777537
 30
0.0
 11
677.2288979796599
 21
238.2555785777537
 31
0.0
  0
LINE
  5
759F
330
1A
100
AcDbEntity
  8
NOKITOI
 48
0.5
100
AcDbLine
 10
312.0145969404699
 20
520.1044246031464
 30
0.0
 11
464.5145969404698
 21
520.1044246031464
 31
0.0
  0
LINE
  5
75A1
330
1A
100
AcDbEntity
  8
NOKITOI
 48
0.5
100
AcDbLine
 10
312.0145969404698
 20
374.6733288636459
 30
0.0
 11
464.5145969404698
 21
374.6733288636458
 31
0.0
  0
LINE
  5
75A3
330
1A
100
AcDbEntity
  8
NOKITOI
 48
0.5
100
AcDbLine
 10
217.0145969404698
 20
520.1044246031464
 30
0.0
 11
64.5145969404698
 21
520.1044246031464
 31
0.0
  0
LINE
  5
75A4
330
1A
100
AcDbEntity
  8
NOKITOI
 48
0.5
100
AcDbLine
 10
217.0145969404698
 20
374.6733288636458
 30
0.0
 11
64.5145969404698
 21
374.6733288636457
 31
0.0
  0
LINE
  5
75A5
330
1A
100
AcDbEntity
  8
NOKITOI
 48
0.5
100
AcDbLine
 10
217.0145969404698
 20
374.6733288636457
 30
0.0
 11
217.0145969404698
 21
520.1044246031464
 31
0.0
  0
DIMENSION
  5
75A6
330
1A
100
AcDbEntity
  8
SUNPOU
100
AcDbDimension
  2
*D12
 10
312.0145969404698
 20
341.8902749740553
 30
0.0
 11
264.5145969404698
 21
346.8902749740553
 31
0.0
 70
    32
  1
※<>
 71
     5
 42
-1.0
  3
STANDARD
100
AcDbAlignedDimension
 13
217.0145969404698
 23
374.6733288636457
 33
0.0
 14
312.0145969404698
 24
374.6733288636458
 34
0.0
100
AcDbRotatedDimension
  0
LINE
  5
76E4
330
1A
100
AcDbEntity
  8
SEIHIN
 48
10.0
100
AcDbLine
 10
312.0145969404698
 20
387.8029132281392
 30
0.0
 11
312.0145969404698
 21
389.8029132281393
 31
0.0
  0
LINE
  5
76E5
330
1A
100
AcDbEntity
  8
SEIHIN
 48
10.0
100
AcDbLine
 10
314.0145969404697
 20
387.8029132281392
 30
0.0
 11
314.0145969404697
 21
389.8029132281393
 31
0.0
  0
LINE
  5
76E7
330
1A
100
AcDbEntity
  8
SEIHIN
 48
10.0
100
AcDbLine
 10
312.0145969404698
 20
389.8029132281393
 30
0.0
 11
322.0145969404698
 21
389.8029132281393
 31
0.0
  0
LINE
  5
76E8
330
1A
100
AcDbEntity
  8
SEIHIN
 48
10.0
100
AcDbLine
 10
314.0145969404697
 20
388.8029132281393
 30
0.0
 11
322.0145969404698
 21
388.8029132281394
 31
0.0
  0
LINE
  5
76E9
330
1A
100
AcDbEntity
  8
SEIHIN
 48
10.0
100
AcDbLine
 10
312.0145969404698
 20
387.8029132281393
 30
0.0
 11
314.0145969404697
 21
387.8029132281393
 31
0.0
  0
LINE
  5
76EA
330
1A
100
AcDbEntity
  8
SEIHIN
 48
10.0
100
AcDbLine
 10
322.0145969404698
 20
388.8029132281394
 30
0.0
 11
322.0145969404697
 21
389.8029132281393
 31
0.0
  0
LINE
  5
76EB
330
1A
100
AcDbEntity
  8
SEIHIN
 48
10.0
100
AcDbLine
 10
326.5145969404697
 20
388.8029132281394
 30
0.0
 11
326.5145969404697
 21
389.8029132281393
 31
0.0
  0
LINE
  5
76EC
330
1A
100
AcDbEntity
  8
SEIHIN
 48
10.0
100
AcDbLine
 10
326.5145969404698
 20
389.8029132281393
 30
0.0
 11
334.5145969404697
 21
389.8029132281392
 31
0.0
  0
LINE
  5
76ED
330
1A
100
AcDbEntity
  8
SEIHIN
 48
10.0
100
AcDbLine
 10
326.5145969404697
 20
388.8029132281393
 30
0.0
 11
334.5145969404698
 21
388.8029132281392
 31
0.0
  0
LINE
  5
76EE
330
1A
100
AcDbEntity
  8
SEIHIN
 48
10.0
100
AcDbLine
 10
334.5145969404698
 20
388.8029132281395
 30
0.0
 11
334.5145969404697
 21
389.8029132281394
 31
0.0
  0
LINE
  5
76EF
330
1A
100
AcDbEntity
  8
SEIHIN
 48
10.0
100
AcDbLine
 10
339.0145969404697
 20
388.8029132281393
 30
0.0
 11
339.0145969404697
 21
389.8029132281392
 31
0.0
  0
LINE
  5
76F0
330
1A
100
AcDbEntity
  8
SEIHIN
 48
10.0
100
AcDbLine
 10
347.0145969404698
 20
388.8029132281395
 30
0.0
 11
347.0145969404697
 21
389.8029132281394
 31
0.0
  0
LINE
  5
76F1
330
1A
100
AcDbEntity
  8
SEIHIN
 48
10.0
100
AcDbLine
 10
351.5145969404697
 20
388.8029132281393
 30
0.0
 11
351.5145969404697
 21
389.8029132281392
 31
0.0
  0
LINE
  5
76F2
330
1A
100
AcDbEntity
  8
SEIHIN
 48
10.0
100
AcDbLine
 10
359.5145969404698
 20
388.8029132281395
 30
0.0
 11
359.5145969404697
 21
389.8029132281394
 31
0.0
  0
LINE
  5
76F3
330
1A
100
AcDbEntity
  8
SEIHIN
 48
10.0
100
AcDbLine
 10
364.0145969404697
 20
388.8029132281393
 30
0.0
 11
364.0145969404697
 21
389.8029132281392
 31
0.0
  0
LINE
  5
76F4
330
1A
100
AcDbEntity
  8
SEIHIN
 48
10.0
100
AcDbLine
 10
372.0145969404698
 20
388.8029132281395
 30
0.0
 11
372.0145969404697
 21
389.8029132281394
 31
0.0
  0
LINE
  5
76F5
330
1A
100
AcDbEntity
  8
SEIHIN
 48
10.0
100
AcDbLine
 10
376.5145969404697
 20
388.8029132281393
 30
0.0
 11
376.5145969404697
 21
389.8029132281392
 31
0.0
  0
LINE
  5
76F6
330
1A
100
AcDbEntity
  8
SEIHIN
 48
10.0
100
AcDbLine
 10
384.5145969404698
 20
388.8029132281393
 30
0.0
 11
384.5145969404697
 21
389.8029132281392
 31
0.0
  0
LINE
  5
76F7
330
1A
100
AcDbEntity
  8
SEIHIN
 48
10.0
100
AcDbLine
 10
389.0145969404697
 20
388.8029132281392
 30
0.0
 11
389.0145969404697
 21
389.8029132281391
 31
0.0
  0
LINE
  5
76F8
330
1A
100
AcDbEntity
  8
SEIHIN
 48
10.0
100
AcDbLine
 10
397.0145969404698
 20
388.8029132281393
 30
0.0
 11
397.0145969404697
 21
389.8029132281392
 31
0.0
  0
LINE
  5
76FC
330
1A
100
AcDbEntity
  8
SEIHIN
 48
10.0
100
AcDbLine
 10
339.0145969404697
 20
388.8029132281392
 30
0.0
 11
347.0145969404698
 21
388.8029132281392
 31
0.0
  0
LINE
  5
76FD
330
1A
100
AcDbEntity
  8
SEIHIN
 48
10.0
100
AcDbLine
 10
339.0145969404697
 20
389.8029132281392
 30
0.0
 11
347.0145969404697
 21
389.8029132281392
 31
0.0
  0
LINE
  5
76FE
330
1A
100
AcDbEntity
  8
SEIHIN
 48
10.0
100
AcDbLine
 10
351.5145969404697
 20
389.8029132281392
 30
0.0
 11
359.5145969404698
 21
389.8029132281392
 31
0.0
  0
LINE
  5
76FF
330
1A
100
AcDbEntity
  8
SEIHIN
 48
10.0
100
AcDbLine
 10
351.5145969404697
 20
388.8029132281392
 30
0.0
 11
359.5145969404698
 21
388.8029132281392
 31
0.0
  0
LINE
  5
7700
330
1A
100
AcDbEntity
  8
SEIHIN
 48
10.0
100
AcDbLine
 10
364.0145969404697
 20
388.8029132281392
 30
0.0
 11
372.0145969404699
 21
388.8029132281392
 31
0.0
  0
LINE
  5
7701
330
1A
100
AcDbEntity
  8
SEIHIN
 48
10.0
100
AcDbLine
 10
364.0145969404697
 20
389.8029132281392
 30
0.0
 11
372.0145969404698
 21
389.8029132281393
 31
0.0
  0
LINE
  5
7702
330
1A
100
AcDbEntity
  8
SEIHIN
 48
10.0
100
AcDbLine
 10
376.5145969404698
 20
389.8029132281393
 30
0.0
 11
384.5145969404697
 21
389.8029132281393
 31
0.0
  0
LINE
  5
7703
330
1A
100
AcDbEntity
  8
SEIHIN
 48
10.0
100
AcDbLine
 10
376.5145969404698
 20
388.8029132281392
 30
0.0
 11
384.5145969404698
 21
388.8029132281392
 31
0.0
  0
LINE
  5
7706
330
1A
100
AcDbEntity
  8
SEIHIN
 48
10.0
100
AcDbLine
 10
389.0145969404697
 20
389.8029132281393
 30
0.0
 11
397.0145969404698
 21
389.8029132281393
 31
0.0
  0
LINE
  5
7707
330
1A
100
AcDbEntity
  8
SEIHIN
 48
10.0
100
AcDbLine
 10
389.0145969404697
 20
388.8029132281392
 30
0.0
 11
397.0145969404699
 21
388.8029132281392
 31
0.0
  0
TEXT
  5
7709
330
1A
100
AcDbEntity
  8
SEIHIN
 48
10.0
100
AcDbText
 10
365.8958253042069
 20
395.5801393455526
 30
0.0
 40
3.799999999999999
  1
のきとい挿入位置
 41
0.9
  7
MSPｺﾞｼｯｸ
100
AcDbText
  0
LINE
  5
770A
330
1A
100
AcDbEntity
  8
SEIHIN
 48
10.0
100
AcDbLine
 10
401.7869027717881
 20
393.4356038075399
 30
0.0
 11
401.7869027717881
 21
391.9356038075401
 31
0.0
  0
LINE
  5
770E
330
1A
100
AcDbEntity
  8
SEIHIN
 48
10.0
100
AcDbLine
 10
401.7869027717881
 20
393.43560380754
 30
0.0
 11
399.5369027717881
 21
393.43560380754
 31
0.0
  0
LINE
  5
7712
330
1A
100
AcDbEntity
  8
SEIHIN
 48
10.0
100
AcDbLine
 10
399.5369027717882
 20
394.18560380754
 30
0.0
 11
399.5369027717882
 21
393.4356038075401
 31
0.0
  0
LINE
  5
7713
330
1A
100
AcDbEntity
  8
SEIHIN
 48
10.0
100
AcDbLine
 10
397.2869027717882
 20
392.68560380754
 30
0.0
 11
399.5369027717882
 21
394.18560380754
 31
0.0
  0
LINE
  5
7715
330
1A
100
AcDbEntity
  8
SEIHIN
 48
10.0
100
AcDbLine
 10
399.5369027717882
 20
391.1856038075401
 30
0.0
 11
399.5369027717882
 21
391.93560380754
 31
0.0
  0
LINE
  5
7716
330
1A
100
AcDbEntity
  8
SEIHIN
 48
10.0
100
AcDbLine
 10
397.2869027717882
 20
392.68560380754
 30
0.0
 11
399.5369027717882
 21
391.18560380754
 31
0.0
  0
LINE
  5
7717
330
1A
100
AcDbEntity
  8
SEIHIN
 48
10.0
100
AcDbLine
 10
401.7869027717881
 20
391.9356038075401
 30
0.0
 11
399.5369027717881
 21
391.93560380754
 31
0.0
  0
TEXT
  5
7718
330
1A
100
AcDbEntity
  8
SEIHIN
 48
10.0
100
AcDbText
 10
125.8958253042073
 20
395.5801393455528
 30
0.0
 40
3.799999999999999
  1
のきとい挿入位置
 41
0.9
  7
MSPｺﾞｼｯｸ
100
AcDbText
  0
LINE
  5
7719
330
1A
100
AcDbEntity
  8
SEIHIN
 48
10.0
100
AcDbLine
 10
177.5145969404681
 20
388.8029132282923
 30
0.0
 11
169.514596940468
 21
388.8029132283064
 31
0.0
  0
LINE
  5
771A
330
1A
100
AcDbEntity
  8
SEIHIN
 48
10.0
100
AcDbLine
 10
177.5145969404698
 20
389.8029132282923
 30
0.0
 11
169.5145969404698
 21
389.8029132283064
 31
0.0
  0
LINE
  5
771B
330
1A
100
AcDbEntity
  8
SEIHIN
 48
10.0
100
AcDbLine
 10
202.5145969404681
 20
388.8029132282484
 30
0.0
 11
194.514596940468
 21
388.8029132282623
 31
0.0
  0
LINE
  5
771C
330
1A
100
AcDbEntity
  8
SEIHIN
 48
10.0
100
AcDbLine
 10
202.5145969404698
 20
389.8029132282484
 30
0.0
 11
194.5145969404699
 21
389.8029132282624
 31
0.0
  0
LINE
  5
771D
330
1A
100
AcDbEntity
  8
SEIHIN
 48
10.0
100
AcDbLine
 10
215.0145969404681
 20
388.8029132282264
 30
0.0
 11
207.014596940468
 21
388.8029132282406
 31
0.0
  0
LINE
  5
771E
330
1A
100
AcDbEntity
  8
SEIHIN
 48
10.0
100
AcDbLine
 10
217.0145969404698
 20
389.8029132282228
 30
0.0
 11
207.0145969404698
 21
389.8029132282405
 31
0.0
  0
LINE
  5
771F
330
1A
100
AcDbEntity
  8
SEIHIN
 48
10.0
100
AcDbLine
 10
217.0145969404663
 20
387.8029132282228
 30
0.0
 11
215.0145969404663
 21
387.8029132282264
 31
0.0
  0
LINE
  5
7720
330
1A
100
AcDbEntity
  8
SEIHIN
 48
10.0
100
AcDbLine
 10
215.0145969404663
 20
387.8029132282263
 30
0.0
 11
215.0145969404698
 21
389.8029132282264
 31
0.0
  0
LINE
  5
7721
330
1A
100
AcDbEntity
  8
SEIHIN
 48
10.0
100
AcDbLine
 10
217.0145969404663
 20
387.8029132282228
 30
0.0
 11
217.0145969404698
 21
389.8029132282228
 31
0.0
  0
LINE
  5
7722
330
1A
100
AcDbEntity
  8
SEIHIN
 48
10.0
100
AcDbLine
 10
202.5145969404681
 20
388.8029132282485
 30
0.0
 11
202.5145969404698
 21
389.8029132282484
 31
0.0
  0
LINE
  5
7723
330
1A
100
AcDbEntity
  8
SEIHIN
 48
10.0
100
AcDbLine
 10
207.014596940468
 20
388.8029132282406
 30
0.0
 11
207.0145969404698
 21
389.8029132282405
 31
0.0
  0
LINE
  5
7724
330
1A
100
AcDbEntity
  8
SEIHIN
 48
10.0
100
AcDbLine
 10
190.0145969404698
 20
389.8029132282703
 30
0.0
 11
182.0145969404698
 21
389.8029132282843
 31
0.0
  0
LINE
  5
7725
330
1A
100
AcDbEntity
  8
SEIHIN
 48
10.0
100
AcDbLine
 10
190.0145969404681
 20
388.8029132282703
 30
0.0
 11
182.014596940468
 21
388.8029132282844
 31
0.0
  0
LINE
  5
7726
330
1A
100
AcDbEntity
  8
SEIHIN
 48
10.0
100
AcDbLine
 10
194.514596940468
 20
388.8029132282626
 30
0.0
 11
194.5145969404698
 21
389.8029132282625
 31
0.0
  0
LINE
  5
7727
330
1A
100
AcDbEntity
  8
SEIHIN
 48
10.0
100
AcDbLine
 10
190.0145969404681
 20
388.8029132282704
 30
0.0
 11
190.0145969404698
 21
389.8029132282703
 31
0.0
  0
LINE
  5
7728
330
1A
100
AcDbEntity
  8
SEIHIN
 48
10.0
100
AcDbLine
 10
182.014596940468
 20
388.8029132282846
 30
0.0
 11
182.0145969404698
 21
389.8029132282845
 31
0.0
  0
LINE
  5
7729
330
1A
100
AcDbEntity
  8
SEIHIN
 48
10.0
100
AcDbLine
 10
177.5145969404681
 20
388.8029132282923
 30
0.0
 11
177.5145969404698
 21
389.8029132282922
 31
0.0
  0
LINE
  5
772A
330
1A
100
AcDbEntity
  8
SEIHIN
 48
10.0
100
AcDbLine
 10
169.514596940468
 20
388.8029132283066
 30
0.0
 11
169.5145969404698
 21
389.8029132283065
 31
0.0
  0
LINE
  5
772B
330
1A
100
AcDbEntity
  8
SEIHIN
 48
10.0
100
AcDbLine
 10
124.514596940527
 20
388.5632129169626
 30
0.0
 11
164.538956106056
 21
387.4996113990272
 31
0.0
  0
LINE
  5
772C
330
1A
100
AcDbEntity
  8
SEIHIN
 48
10.0
100
AcDbLine
 10
140.0145969404681
 20
388.8029132283583
 30
0.0
 11
132.0145969404679
 21
388.8029132283723
 31
0.0
  0
LINE
  5
772D
330
1A
100
AcDbEntity
  8
SEIHIN
 48
10.0
100
AcDbLine
 10
140.0145969404698
 20
389.8029132283583
 30
0.0
 11
132.0145969404698
 21
389.8029132283724
 31
0.0
  0
LINE
  5
772E
330
1A
100
AcDbEntity
  8
SEIHIN
 48
10.0
100
AcDbLine
 10
165.0145969404698
 20
389.8029132283142
 30
0.0
 11
157.0145969404698
 21
389.8029132283284
 31
0.0
  0
LINE
  5
772F
330
1A
100
AcDbEntity
  8
SEIHIN
 48
10.0
100
AcDbLine
 10
165.0145969404681
 20
388.8029132283143
 30
0.0
 11
157.014596940468
 21
388.8029132283283
 31
0.0
  0
LINE
  5
7730
330
1A
100
AcDbEntity
  8
SEIHIN
 48
10.0
100
AcDbLine
 10
165.0145969404681
 20
388.8029132283143
 30
0.0
 11
165.0145969404698
 21
389.8029132283142
 31
0.0
  0
LINE
  5
7731
330
1A
100
AcDbEntity
  8
SEIHIN
 48
10.0
100
AcDbLine
 10
157.014596940468
 20
388.8029132283286
 30
0.0
 11
157.0145969404698
 21
389.8029132283284
 31
0.0
  0
LINE
  5
7732
330
1A
100
AcDbEntity
  8
SEIHIN
 48
10.0
100
AcDbLine
 10
152.514596940468
 20
388.8029132283362
 30
0.0
 11
144.514596940468
 21
388.8029132283503
 31
0.0
  0
LINE
  5
7733
330
1A
100
AcDbEntity
  8
SEIHIN
 48
10.0
100
AcDbLine
 10
152.5145969404698
 20
389.8029132283363
 30
0.0
 11
144.5145969404698
 21
389.8029132283503
 31
0.0
  0
LINE
  5
7734
330
1A
100
AcDbEntity
  8
SEIHIN
 48
10.0
100
AcDbLine
 10
152.5145969404681
 20
388.8029132283363
 30
0.0
 11
152.5145969404698
 21
389.8029132283362
 31
0.0
  0
LINE
  5
7735
330
1A
100
AcDbEntity
  8
SEIHIN
 48
10.0
100
AcDbLine
 10
140.0145969404681
 20
388.8029132283582
 30
0.0
 11
140.0145969404698
 21
389.8029132283581
 31
0.0
  0
LINE
  5
7736
330
1A
100
AcDbEntity
  8
SEIHIN
 48
10.0
100
AcDbLine
 10
144.514596940468
 20
388.8029132283504
 30
0.0
 11
144.5145969404698
 21
389.8029132283503
 31
0.0
  0
LINE
  5
7739
330
1A
100
AcDbEntity
  8
SEIHIN
 48
10.0
100
AcDbLine
 10
132.014596940468
 20
388.8029132283724
 30
0.0
 11
132.0145969404698
 21
389.8029132283723
 31
0.0
  0
LINE
  5
773B
330
1A
100
AcDbEntity
  8
SEIHIN
 48
10.0
100
AcDbLine
 10
127.2422911092171
 20
393.4356038077814
 30
0.0
 11
127.2422911092145
 21
391.9356038077816
 31
0.0
  0
LINE
  5
773C
330
1A
100
AcDbEntity
  8
SEIHIN
 48
10.0
100
AcDbLine
 10
127.242291109217
 20
393.4356038077814
 30
0.0
 11
129.4922911092171
 21
393.4356038077775
 31
0.0
  0
LINE
  5
773D
330
1A
100
AcDbEntity
  8
SEIHIN
 48
10.0
100
AcDbLine
 10
127.2422911092144
 20
391.9356038077816
 30
0.0
 11
129.4922911092144
 21
391.9356038077775
 31
0.0
  0
LINE
  5
773E
330
1A
100
AcDbEntity
  8
SEIHIN
 48
10.0
100
AcDbLine
 10
129.4922911092183
 20
394.1856038077775
 30
0.0
 11
129.492291109217
 21
393.4356038077776
 31
0.0
  0
LINE
  5
773F
330
1A
100
AcDbEntity
  8
SEIHIN
 48
10.0
100
AcDbLine
 10
131.7422911092157
 20
392.6856038077735
 30
0.0
 11
129.4922911092183
 21
394.1856038077775
 31
0.0
  0
LINE
  5
7740
330
1A
100
AcDbEntity
  8
SEIHIN
 48
10.0
100
AcDbLine
 10
129.4922911092131
 20
391.1856038077776
 30
0.0
 11
129.4922911092144
 21
391.9356038077775
 31
0.0
  0
LINE
  5
7741
330
1A
100
AcDbEntity
  8
SEIHIN
 48
10.0
100
AcDbLine
 10
131.7422911092157
 20
392.6856038077735
 30
0.0
 11
129.4922911092131
 21
391.1856038077775
 31
0.0
  0
ARC
  5
778B
330
1A
100
AcDbEntity
  8
SEIHIN
 48
10.0
100
AcDbCircle
 10
551.8299283868036
 20
277.9318987505102
 30
0.0
 40
0.5000000000000781
100
AcDbArc
 50
71.57101410439349
 51
160.4259431400487
  0
ARC
  5
778C
330
1A
100
AcDbEntity
  8
SEIHIN
 48
10.0
100
AcDbCircle
 10
561.1846255560916
 20
274.814748066264
 30
0.0
 40
0.5000000000000511
100
AcDbArc
 50
341.5710141044006
 51
71.57101410439349
  0
ARC
  5
778E
330
1A
100
AcDbEntity
  8
SEIHIN
 48
10.0
100
AcDbCircle
 10
554.3134773650132
 20
267.8608341137227
 30
0.0
 40
0.9999999999999779
100
AcDbArc
 50
0.0
 51
70.00000000000354
  0
LINE
  5
778F
330
1A
100
AcDbEntity
  8
SEIHIN
 48
10.0
100
AcDbLine
 10
555.3134773650131
 20
267.5610416519324
 30
0.0
 11
555.3134773650131
 21
267.8608341137227
 31
0.0
  0
ARC
  5
7790
330
1A
100
AcDbEntity
  8
SEIHIN
 48
10.0
100
AcDbCircle
 10
548.861793499072
 20
269.0610416519324
 30
0.0
 40
0.5
100
AcDbArc
 50
162.5742006506016
 51
270.0
  0
LINE
  5
7791
330
1A
100
AcDbEntity
  8
SEIHIN
 48
10.0
100
AcDbLine
 10
678.1134773650133
 20
243.2610416519325
 30
0.0
 11
678.2134773650132
 21
243.2610416519324
 31
0.0
  0
DIMENSION
  5
7792
330
1A
100
AcDbEntity
  8
SUNPOU
100
AcDbDimension
  2
*D13
 10
633.3733230438038
 20
256.0840473053036
 30
0.0
 11
659.9749667355115
 21
261.0840473053035
 31
0.0
 70
    32
 71
     5
 42
53.2032873834155
  3
STANDARD
100
AcDbAlignedDimension
 13
686.5766104272193
 23
232.3718572336112
 33
0.0
 14
633.3733230438038
 24
154.3559097225268
 34
0.0
100
AcDbRotatedDimension
  0
LINE
  5
793A
330
1A
100
AcDbEntity
  8
SEIHIN
 48
10.0
100
AcDbLine
 10
561.832813974338
 20
277.7609281905494
 30
0.0
 11
561.8328139743379
 21
277.9717393891374
 31
0.0
  0
LINE
  5
793C
330
1A
100
AcDbEntity
  8
SEIHIN
 48
10.0
100
AcDbLine
 10
556.1260951421571
 20
279.6625079200303
 30
0.0
 11
556.1260951421571
 21
279.8733191186185
 31
0.0
  0
LINE
  5
793E
330
1A
100
AcDbEntity
  8
SEIHIN
 48
10.0
100
AcDbLine
 10
551.7709672074273
 20
281.7010416519324
 30
0.0
 11
551.7709672074273
 21
281.9010416519324
 31
0.0
  0
LINE
  5
793F
330
1A
100
AcDbEntity
  8
SEIHIN
 48
10.0
100
AcDbLine
 10
550.7197293542835
 20
281.7010416519324
 30
0.0
 11
550.7197293542835
 21
281.9010416519324
 31
0.0
  0
LINE
  5
7940
330
1A
100
AcDbEntity
  8
SEIHIN
 48
10.0
100
AcDbLine
 10
561.8328139743379
 20
277.9717393891378
 30
0.0
 11
557.117261946826
 21
279.5430447946648
 31
0.0
  0
LINE
  5
7941
330
1A
100
AcDbEntity
  8
SEIHIN
 48
10.0
100
AcDbLine
 10
550.7197293542835
 20
281.9010416519324
 30
0.0
 11
551.7709672074273
 21
281.9010416519324
 31
0.0
  0
LINE
  5
7942
330
1A
100
AcDbEntity
  8
SEIHIN
 48
10.0
100
AcDbLine
 10
556.126095142157
 20
279.8733191186185
 30
0.0
 11
553.152592530081
 21
280.8641428229155
 31
0.0
  0
LINE
  5
7944
330
1A
100
AcDbEntity
  8
SEIHIN
 48
10.0
100
AcDbLine
 10
557.117261946826
 20
279.5430447946648
 30
0.0
 11
557.0540361403746
 21
279.353301553946
 31
0.0
  0
LINE
  5
7946
330
1A
100
AcDbEntity
  8
SEIHIN
 48
10.0
100
AcDbLine
 10
553.152592530081
 20
280.8641428229155
 30
0.0
 11
553.0893667236295
 21
280.6743995821967
 31
0.0
  0
LINE
  5
7947
330
1A
100
AcDbEntity
  8
SEIHIN
 48
10.0
100
AcDbLine
 10
552.6742935767859
 20
281.2010416519322
 30
0.0
 11
552.6742935767857
 21
281.173128447906
 31
0.0
  0
TEXT
  5
7CD2
330
1A
100
AcDbEntity
  8
SEIHIN
 48
10.0
100
AcDbText
 10
351.8089894582514
 20
510.3851741299222
 30
0.0
 40
2.5
  1
のきといは接着しないでください
 50
270.0
 41
1.8
  7
MSPｺﾞｼｯｸ
100
AcDbText
  0
LINE
  5
7CD3
330
1A
100
AcDbEntity
  8
SEIHIN
 48
10.0
100
AcDbLine
 10
357.0208152569742
 20
472.5405372177267
 30
0.0
 11
358.7083152569742
 21
472.5405372177267
 31
0.0
  0
LINE
  5
7CD4
330
1A
100
AcDbEntity
  8
SEIHIN
 48
10.0
100
AcDbLine
 10
360.8860035947649
 20
471.3840456844759
 30
0.0
 11
358.7083152569741
 21
474.7905372177266
 31
0.0
  0
LINE
  5
7CD5
330
1A
100
AcDbEntity
  8
SEIHIN
 48
10.0
100
AcDbLine
 10
358.7083152569741
 20
474.7905372177265
 30
0.0
 11
358.7083152569741
 21
472.5405372177268
 31
0.0
  0
LINE
  5
7CD6
330
1A
100
AcDbEntity
  8
SEIHIN
 48
10.0
100
AcDbLine
 10
360.8860035947649
 20
471.3840456844759
 30
0.0
 11
358.7083152569741
 21
468.0405372177269
 31
0.0
  0
LINE
  5
7CD7
330
1A
100
AcDbEntity
  8
SEIHIN
 48
10.0
100
AcDbLine
 10
358.7083152569741
 20
468.040537217727
 30
0.0
 11
358.7083152569741
 21
470.2905372177267
 31
0.0
  0
LINE
  5
7CD8
330
1A
100
AcDbEntity
  8
SEIHIN
 48
10.0
100
AcDbLine
 10
357.0208152569742
 20
470.2905372177268
 30
0.0
 11
358.7083152569742
 21
470.2905372177268
 31
0.0
  0
LINE
  5
7CD9
330
1A
100
AcDbEntity
  8
SEIHIN
 48
10.0
100
AcDbLine
 10
357.0208152569742
 20
470.2905372177269
 30
0.0
 11
357.0208152569742
 21
472.5405372177267
 31
0.0
  0
ELLIPSE
  5
7CDE
330
1A
100
AcDbEntity
  8
SEIHIN
 48
10.0
100
AcDbEllipse
 10
358.51571772164
 20
412.4365389640912
 30
0.0
 11
0.0
 21
-1.536516547180667
 31
0.0
210
0.0
220
0.0
230
1.0
 40
0.6505796557223118
 41
2.480559418465161
 42
4.712388980384689
  0
LINE
  5
7CE0
330
1A
100
AcDbEntity
  8
SEIHIN
 48
10.0
100
AcDbLine
 10
361.5145969404696
 20
410.7979459235329
 30
0.0
 11
359.1294211324856
 21
413.6494010783648
 31
0.0
  0
ELLIPSE
  5
7CE1
330
1A
100
AcDbEntity
  8
SEIHIN
 48
10.0
100
AcDbEllipse
 10
170.5134761592995
 20
412.4365389640912
 30
0.0
 11
0.0
 21
-1.536516547180667
 31
0.0
210
0.0
220
0.0
230
-1.0
 40
0.6505796557223118
 41
2.480559418465161
 42
4.712388980384689
  0
LINE
  5
7CE2
330
1A
100
AcDbEntity
  8
SEIHIN
 48
10.0
100
AcDbLine
 10
167.51459694047
 20
410.7979459235329
 30
0.0
 11
169.899772748454
 21
413.6494010783648
 31
0.0
  0
TEXT
  5
7CE3
330
1A
100
AcDbEntity
  8
SEIHIN
 48
10.0
100
AcDbText
 10
177.2202044226881
 20
425.4625519464893
 30
0.0
 40
2.5
  1
のきといは接着しないでください
 50
90.0
 41
1.8
  7
MSPｺﾞｼｯｸ
100
AcDbText
  0
LINE
  5
7CE4
330
1A
100
AcDbEntity
  8
SEIHIN
 48
10.0
100
AcDbLine
 10
172.0083786239653
 20
472.4775541512249
 30
0.0
 11
172.0083786239653
 21
470.2275541512252
 31
0.0
  0
LINE
  5
7CE5
330
1A
100
AcDbEntity
  8
SEIHIN
 48
10.0
100
AcDbLine
 10
168.1431902861746
 20
471.3840456844759
 30
0.0
 11
170.3208786239654
 21
474.7275541512249
 31
0.0
  0
LINE
  5
7CE6
330
1A
100
AcDbEntity
  8
SEIHIN
 48
10.0
100
AcDbLine
 10
170.3208786239654
 20
474.7275541512248
 30
0.0
 11
170.3208786239654
 21
472.4775541512252
 31
0.0
  0
LINE
  5
7CE7
330
1A
100
AcDbEntity
  8
SEIHIN
 48
10.0
100
AcDbLine
 10
172.0083786239653
 20
472.477554151225
 30
0.0
 11
170.3208786239653
 21
472.4775541512251
 31
0.0
  0
LINE
  5
7CE8
330
1A
100
AcDbEntity
  8
SEIHIN
 48
10.0
100
AcDbLine
 10
168.1431902861746
 20
471.3840456844759
 30
0.0
 11
170.3208786239654
 21
467.9775541512253
 31
0.0
  0
LINE
  5
7CE9
330
1A
100
AcDbEntity
  8
SEIHIN
 48
10.0
100
AcDbLine
 10
170.3208786239654
 20
467.9775541512253
 30
0.0
 11
170.3208786239654
 21
470.227554151225
 31
0.0
  0
LINE
  5
7CEA
330
1A
100
AcDbEntity
  8
SEIHIN
 48
10.0
100
AcDbLine
 10
172.0083786239653
 20
470.2275541512252
 30
0.0
 11
170.3208786239653
 21
470.2275541512251
 31
0.0
  0
TEXT
  5
7F16
330
1A
100
AcDbEntity
  8
moji
100
AcDbText
 10
543.0409071570831
 20
33.40492143160521
 30
0.0
 40
5.599999999999999
  1
Ａ３
 41
0.9
  7
MSPｺﾞｼｯｸ
100
AcDbText
  0
LINE
  5
800B
330
1A
100
AcDbEntity
  8
CENTER L
 48
10.0
100
AcDbLine
 10
264.5145969404698
 20
102.7695689683561
 30
0.0
 11
264.5145969404698
 21
295.0693218600838
 31
0.0
  0
LINE
  5
800C
330
1A
100
AcDbEntity
  8
CENTER L
 48
10.0
100
AcDbLine
 10
617.8490512404972
 20
177.0419762436329
 30
0.0
 11
617.8490512404972
 21
157.4180462891347
 31
0.0
  0
DIMENSION
  5
800D
330
1A
100
AcDbEntity
  8
SUNPOU
100
AcDbDimension
  2
*D14
 10
617.8490512404972
 20
231.1367564046345
 30
0.0
 11
652.2179075309243
 21
236.1367564046345
 31
0.0
 70
    32
 71
     5
 42
68.73771258085412
  3
STANDARD
100
AcDbAlignedDimension
 13
686.5867638213513
 23
232.7619636465289
 33
0.0
 14
617.8490512404972
 24
177.0419762436329
 34
0.0
100
AcDbRotatedDimension
  0
DIMENSION
  5
8023
330
1A
100
AcDbEntity
  8
SUNPOU
100
AcDbDimension
  2
*D15
 10
633.3733230438038
 20
191.3634407430945
 30
0.0
 11
625.6111871421506
 21
196.3634407430945
 31
0.0
 70
    32
 71
     5
 42
15.52427180330653
  3
STANDARD
100
AcDbAlignedDimension
 13
617.8490512404972
 23
177.0419762436329
 33
0.0
 14
633.3733230438038
 24
154.3559097225268
 34
0.0
100
AcDbRotatedDimension
  0
LINE
  5
803A
330
1A
100
AcDbEntity
  8
CENTER L
 48
10.0
100
AcDbLine
 10
410.5239194420082
 20
455.8597736844759
 30
0.0
 11
356.1142761709684
 21
455.8597736844759
 31
0.0
  0
LINE
  5
803B
330
1A
100
AcDbEntity
  8
CENTER L
 48
10.0
100
AcDbLine
 10
118.5052744389313
 20
455.8597736844759
 30
0.0
 11
172.9149177099712
 21
455.8597736844759
 31
0.0
  0
VIEWPORT
  5
22
102
{ACAD_XDICTIONARY
360
8213
102
}
330
17
100
AcDbEntity
 67
     1
  8
0
100
AcDbViewport
 10
213.640428565777
 20
153.0425678662074
 30
0.0
 40
657.5480689144638
 41
341.9534919598512
 68
     1
 69
     1
 12
213.640428565777
 22
153.0425678662074
 13
0.0
 23
0.0
 14
1.0
 24
1.0
 15
10.0
 25
10.0
 16
0.0
 26
0.0
 36
1.0
 17
0.0
 27
0.0
 37
0.0
 42
50.0
 43
0.0
 44
0.0
 45
341.9534919598512
 50
0.0
 51
0.0
 72
   100
 90
    32768
  1

281
     0
 71
     1
 74
     0
110
0.0
120
0.0
130
0.0
111
1.0
121
0.0
131
0.0
112
0.0
122
1.0
132
0.0
 79
     0
146
0.0
  0
VIEWPORT
  5
64
102
{ACAD_XDICTIONARY
360
8215
102
}
330
17
100
AcDbEntity
 67
     1
  8
VIEWPORT
100
AcDbViewport
 10
217.5276132326279
 20
147.4776770917783
 30
0.0
 40
461.1429215477381
 41
323.054056721838
 68
     2
 69
     2
 12
422.4051316060323
 22
288.6032757598368
 13
0.0
 23
0.0
 14
10.0
 24
10.0
 15
0.0
 25
0.0
 16
0.0
 26
0.0
 36
1.0
 17
0.0
 27
0.0
 37
0.0
 42
50.0
 43
0.0
 44
0.0
 45
612.4787437940423
 50
0.0
 51
0.0
 72
   100
 90
    32768
  1

281
     0
 71
     1
 74
     0
110
0.0
120
0.0
130
0.0
111
1.0
121
0.0
131
0.0
112
0.0
122
1.0
132
0.0
 79
     0
146
0.0
  0
ENDSEC
  0
SECTION
  2
OBJECTS
  0
DICTIONARY
  5
C
330
0
100
AcDbDictionary
281
     1
  3
ACAD_COLOR
350
816E
  3
ACAD_GROUP
350
D
  3
ACAD_LAYOUT
350
674
  3
ACAD_MATERIAL
350
816D
  3
ACAD_MLEADERSTYLE
350
81F2
  3
ACAD_MLINESTYLE
350
E
  3
ACAD_PLOTSETTINGS
350
675
  3
ACAD_PLOTSTYLENAME
350
672
  3
ACAD_SCALELIST
350
81E0
  3
ACAD_TABLESTYLE
350
81DE
  3
ACAD_VISUALSTYLE
350
81C5
  3
ACDB_RECOMPOSE_DATA
350
820F
  3
ACDBHEADERROUNDTRIPXREC
350
826C
  3
AcDbVariableDictionary
350
8252
  3
DWGPROPS
350
826B
  0
DICTIONARY
  5
8211
330
8
100
AcDbDictionary
280
     1
281
     1
  3
ACAD_XREC_ROUNDTRIP
360
8212
  0
DICTIONARY
  5
81FD
330
F
100
AcDbDictionary
280
     1
281
     1
  3
ADSK_XREC_LAYER_RECONCILED
360
81FE
  0
DICTIONARY
  5
81FF
330
62
100
AcDbDictionary
280
     1
281
     1
  3
ADSK_XREC_LAYER_RECONCILED
360
8200
  0
DICTIONARY
  5
8201
330
65
100
AcDbDictionary
280
     1
281
     1
  3
ADSK_XREC_LAYER_RECONCILED
360
8202
  0
DICTIONARY
  5
8203
330
1EA
100
AcDbDictionary
280
     1
281
     1
  3
ADSK_XREC_LAYER_RECONCILED
360
8204
  0
DICTIONARY
  5
8205
330
1EB
100
AcDbDictionary
280
     1
281
     1
  3
ADSK_XREC_LAYER_RECONCILED
360
8206
  0
DICTIONARY
  5
8207
330
6B1
100
AcDbDictionary
280
     1
281
     1
  3
ADSK_XREC_LAYER_RECONCILED
360
8208
  0
DICTIONARY
  5
8209
330
30BD
100
AcDbDictionary
280
     1
281
     1
  3
ADSK_XREC_LAYER_RECONCILED
360
820A
  0
DICTIONARY
  5
820B
330
755B
100
AcDbDictionary
280
     1
281
     1
  3
ADSK_XREC_LAYER_RECONCILED
360
820C
  0
DICTIONARY
  5
6A3
330
1A
100
AcDbDictionary
280
     1
281
     1
  3
ACAD_LAYOUTSELFREF
360
815B
  0
DICTIONARY
  5
6A1
330
17
100
AcDbDictionary
280
     1
281
     1
  3
ACAD_LAYOUTSELFREF
360
815A
  0
DICTIONARY
  5
8213
330
22
100
AcDbDictionary
280
     1
281
     1
  3
ACAD_XREC_ROUNDTRIP
360
8214
  0
DICTIONARY
  5
8215
330
64
100
AcDbDictionary
280
     1
281
     1
  3
ACAD_XREC_ROUNDTRIP
360
8216
  0
DICTIONARY
  5
816E
102
{ACAD_REACTORS
330
C
102
}
330
C
100
AcDbDictionary
281
     1
  0
DICTIONARY
  5
D
102
{ACAD_REACTORS
330
C
102
}
330
C
100
AcDbDictionary
281
     1
  3
*A1
350
755C
  3
*A2
350
759E
  0
DICTIONARY
  5
674
102
{ACAD_REACTORS
330
C
102
}
330
C
100
AcDbDictionary
281
     1
  3
Model
350
676
  3
ﾚｲｱｳﾄ1
350
677
  0
DICTIONARY
  5
816D
102
{ACAD_REACTORS
330
C
102
}
330
C
100
AcDbDictionary
281
     1
  3
ByBlock
350
81B5
  3
ByLayer
350
81AD
  3
Global
350
81BD
  0
DICTIONARY
  5
81F2
102
{ACAD_REACTORS
330
C
102
}
330
C
100
AcDbDictionary
281
     1
  3
Standard
350
81F3
  0
DICTIONARY
  5
E
102
{ACAD_REACTORS
330
C
102
}
330
C
100
AcDbDictionary
281
     1
  3
STANDARD
350
13
  0
DICTIONARY
  5
675
102
{ACAD_REACTORS
330
C
102
}
330
C
100
AcDbDictionary
281
     1
  0
ACDBDICTIONARYWDFLT
  5
672
102
{ACAD_REACTORS
330
C
102
}
330
C
100
AcDbDictionary
281
     1
  3
Normal
350
673
100
AcDbDictionaryWithDefault
340
673
  0
DICTIONARY
  5
81E0
102
{ACAD_REACTORS
330
C
102
}
330
C
100
AcDbDictionary
281
     1
  3
A0
350
81E1
  3
A1
350
81E2
  3
A2
350
81E3
  3
A3
350
81E4
  3
A4
350
81E5
  3
A5
350
81E6
  3
A6
350
81E7
  3
A7
350
81E8
  3
A8
350
81E9
  3
A9
350
81EA
  3
B0
350
81EB
  3
B1
350
81EC
  3
B2
350
81ED
  3
B3
350
81EE
  3
B4
350
81EF
  3
B5
350
81F0
  3
B6
350
81F1
  0
DICTIONARY
  5
81DE
102
{ACAD_REACTORS
330
C
102
}
330
C
100
AcDbDictionary
281
     1
  3
Standard
350
81DF
  0
DICTIONARY
  5
81C5
102
{ACAD_REACTORS
330
C
102
}
330
C
100
AcDbDictionary
281
     1
  3
2dWireframe
350
81CB
  3
Basic
350
81CA
  3
Brighten
350
81D1
  3
ColorChange
350
81D5
  3
Conceptual
350
81CE
  3
Dim
350
81D0
  3
EdgeColorOff
350
81DD
  3
Facepattern
350
81D4
  3
Flat
350
81C6
  3
FlatWithEdges
350
81C7
  3
Gouraud
350
81C8
  3
GouraudWithEdges
350
81C9
  3
Hidden
350
81CD
  3
JitterOff
350
81DB
  3
Linepattern
350
81D3
  3
OverhangOff
350
81DC
  3
Realistic
350
81CF
  3
Shaded
350
81DA
  3
Shaded with edges
350
81D9
  3
Shades of Gray
350
81D6
  3
Sketchy
350
81D7
  3
Thicken
350
81D2
  3
Wireframe
350
81CC
  3
X-Ray
350
81D8
  0
XRECORD
  5
820F
102
{ACAD_REACTORS
330
C
102
}
330
C
100
AcDbXrecord
280
     1
 90
        1
330
685B
330
81DF
  0
DICTIONARY
  5
826C
102
{ACAD_REACTORS
330
C
102
}
330
C
100
AcDbDictionary
281
     1
  3
COLORDICT
350
826E
  3
MATERIALDICT
350
826D
  0
DICTIONARY
  5
8252
102
{ACAD_REACTORS
330
C
102
}
330
C
100
AcDbDictionary
281
     1
  3
CANNOSCALE
350
8255
  3
CMLEADERSTYLE
350
8254
  3
CTABLESTYLE
350
8253
  3
DIMASSOC
350
8259
  3
INDEXCTL
350
8257
  3
PROJECTNAME
350
826A
  3
SORTENTS
350
8256
  3
XCLIPFRAME
350
8258
  0
XRECORD
  5
826B
102
{ACAD_REACTORS
330
C
102
}
330
C
100
AcDbXrecord
280
     1
  1
DWGPROPS COOKIE
  2

  3

  4

  6

  7

  8
tomomi-takahashi
  9

300
=
301
=
302
=
303
=
304
=
305
=
306
=
307
=
308
=
309
=
 40
0.1455841782407407
 41
2450994.354346065
 42
2459167.574205012
  1

 90
        0
  0
XRECORD
  5
8212
102
{ACAD_REACTORS
330
8211
102
}
330
8211
100
AcDbXrecord
280
     1
102
VTR_0.000_0.000_1.000_1.000_VISUALSTYLE
340
81CB
102
VTR_0.000_0.000_1.000_1.000_GRIDDISPLAY
 70
     3
102
VTR_0.000_0.000_1.000_1.000_GRIDMAJOR
 70
     5
102
VTR_0.000_0.000_1.000_1.000_DEFAULTLIGHTING
280
     1
102
VTR_0.000_0.000_1.000_1.000_DEFAULTLIGHTINGTYPE
 70
     1
102
VTR_0.000_0.000_1.000_1.000_BRIGHTNESS
141
0.0
102
VTR_0.000_0.000_1.000_1.000_CONTRAST
142
0.0
  0
XRECORD
  5
81FE
102
{ACAD_REACTORS
330
81FD
102
}
330
81FD
100
AcDbXrecord
280
     1
290
     1
  0
XRECORD
  5
8200
102
{ACAD_REACTORS
330
81FF
102
}
330
81FF
100
AcDbXrecord
280
     1
290
     1
  0
XRECORD
  5
8202
102
{ACAD_REACTORS
330
8201
102
}
330
8201
100
AcDbXrecord
280
     1
290
     1
  0
XRECORD
  5
8204
102
{ACAD_REACTORS
330
8203
102
}
330
8203
100
AcDbXrecord
280
     1
290
     1
  0
XRECORD
  5
8206
102
{ACAD_REACTORS
330
8205
102
}
330
8205
100
AcDbXrecord
280
     1
290
     1
  0
XRECORD
  5
8208
102
{ACAD_REACTORS
330
8207
102
}
330
8207
100
AcDbXrecord
280
     1
290
     1
  0
XRECORD
  5
820A
102
{ACAD_REACTORS
330
8209
102
}
330
8209
100
AcDbXrecord
280
     1
290
     1
  0
XRECORD
  5
820C
102
{ACAD_REACTORS
330
820B
102
}
330
820B
100
AcDbXrecord
280
     1
290
     1
  0
XRECORD
  5
815B
102
{ACAD_REACTORS
330
6A3
102
}
330
6A3
100
AcDbXrecord
280
     1
340
1A
  0
XRECORD
  5
815A
102
{ACAD_REACTORS
330
6A1
102
}
330
6A1
100
AcDbXrecord
280
     1
340
17
  0
XRECORD
  5
8214
102
{ACAD_REACTORS
330
8213
102
}
330
8213
100
AcDbXrecord
280
     1
102
VISUALSTYLE
340
81CB
102
GRIDDISPLAY
 70
     0
102
GRIDMAJOR
 70
     5
102
DEFAULTLIGHTING
280
     1
102
DEFAULTLIGHTINGTYPE
 70
     1
102
BRIGHTNESS
141
0.0
102
CONTRAST
142
0.0
102
SHADEPLOT
 70
     0
  0
XRECORD
  5
8216
102
{ACAD_REACTORS
330
8215
102
}
330
8215
100
AcDbXrecord
280
     1
102
VISUALSTYLE
340
81CB
102
GRIDDISPLAY
 70
     0
102
GRIDMAJOR
 70
     5
102
DEFAULTLIGHTING
280
     1
102
DEFAULTLIGHTINGTYPE
 70
     1
102
BRIGHTNESS
141
0.0
102
CONTRAST
142
0.0
102
SHADEPLOT
 70
     0
  0
GROUP
  5
755C
102
{ACAD_REACTORS
330
D
102
}
330
D
100
AcDbGroup
300

 70
     1
 71
     1
340
7512
340
7511
340
7516
340
7515
340
751E
340
751C
340
7519
340
7518
340
751B
340
751A
340
7520
340
751D
340
751F
340
7514
340
7513
340
7522
340
7521
340
7551
340
754F
340
7552
340
7550
340
7553
340
7555
340
7557
340
7556
340
7554
340
754B
340
754A
340
7535
340
7534
340
7533
340
752D
340
752B
340
7528
340
7527
340
7524
340
7523
340
7526
340
7525
340
752A
340
7529
340
7537
340
7549
340
7548
340
7536
340
7532
340
753B
340
754E
340
753D
340
754C
340
7547
340
7546
340
7545
340
7544
340
7543
340
7542
340
753E
340
753C
340
7531
340
7530
340
752F
340
752E
340
752C
340
754D
  0
GROUP
  5
759E
102
{ACAD_REACTORS
330
D
102
}
330
D
100
AcDbGroup
300

 70
     1
 71
     1
  0
LAYOUT
  5
676
102
{ACAD_XDICTIONARY
360
826F
102
}
102
{ACAD_REACTORS
330
674
102
}
330
674
100
AcDbPlotSettings
  1

  2
Acrobat Distiller
  4
A3
  6

 40
3.174999952316284
 41
3.174999952316284
 42
3.17498779296875
 43
3.17498779296875
 44
297.0318298339844
 45
420.1583251953125
 46
0.0
 47
0.0
 48
-33.76845281574833
 49
-14.97380759834459
140
814.9805907970753
141
567.90316502265
142
1.0
143
2.0
 70
 11952
 72
     1
 73
     1
 74
     2
  7
print.ctb
 75
    17
147
0.5
148
0.0
149
0.0
100
AcDbLayout
  1
Model
 70
     1
 71
     0
 10
0.0
 20
0.0
 11
12.0
 21
9.0
 12
0.0
 22
0.0
 32
0.0
 14
0.0
 24
0.0
 34
0.0
 15
0.0
 25
0.0
 35
0.0
146
0.0
 13
0.0
 23
0.0
 33
0.0
 16
1.0
 26
0.0
 36
0.0
 17
0.0
 27
1.0
 37
0.0
 76
     0
330
1A
  0
LAYOUT
  5
677
102
{ACAD_XDICTIONARY
360
8271
102
}
102
{ACAD_REACTORS
330
674
102
}
330
674
100
AcDbPlotSettings
  1

  2
LBP3980
  4
A4
  6

 40
5.873749732971191
 41
5.873747825622558
 42
5.873748779296875
 43
5.873748779296875
 44
209.9733276367187
 45
296.9259948730469
 46
0.0
 47
0.0
 48
0.0
 49
0.0
140
0.0
141
0.0
142
1.0
143
1.584458408231636
 70
   688
 72
     1
 73
     1
 74
     1
  7
monochrome.ctb
 75
     0
147
0.6311304826966511
148
8.151854500351305
149
8.755553517904559
100
AcDbLayout
  1
ﾚｲｱｳﾄ1
 70
     1
 71
     1
 10
-17.45856514154854
 20
-18.06226567015909
 11
453.0083240575942
 21
314.6317388082161
 12
0.0
 22
0.0
 32
0.0
 14
-13.04384754124112
 24
-14.04935126914074
 34
0.0
 15
448.0990740064969
 25
309.0047054526973
 35
0.0
146
0.0
 13
0.0
 23
0.0
 33
0.0
 16
1.0
 26
0.0
 36
0.0
 17
0.0
 27
1.0
 37
0.0
 76
     0
330
17
331
22
  0
MATERIAL
  5
81B5
102
{ACAD_XDICTIONARY
360
81B6
102
}
102
{ACAD_REACTORS
330
816D
102
}
330
816D
100
AcDbMaterial
  1
ByBlock
 72
     0
 73
     2
 43
0.0208333333333333
 43
0.0
 43
0.0
 43
0.0
 43
0.0
 43
0.0208333333333333
 43
0.0
 43
0.0
 43
0.0
 43
0.0
 43
1.0
 43
0.0
 43
0.0
 43
0.0
 43
0.0
 43
1.0
 77
     0
 78
     2
 47
0.0208333333333333
 47
0.0
 47
0.0
 47
0.0
 47
0.0
 47
0.0208333333333333
 47
0.0
 47
0.0
 47
0.0
 47
0.0
 47
1.0
 47
0.0
 47
0.0
 47
0.0
 47
0.0
 47
1.0
171
     0
172
     2
 49
0.0208333333333333
 49
0.0
 49
0.0
 49
0.0
 49
0.0
 49
0.0208333333333333
 49
0.0
 49
0.0
 49
0.0
 49
0.0
 49
1.0
 49
0.0
 49
0.0
 49
0.0
 49
0.0
 49
1.0
175
     0
176
     2
142
0.0208333333333333
142
0.0
142
0.0
142
0.0
142
0.0
142
0.0208333333333333
142
0.0
142
0.0
142
0.0
142
0.0
142
1.0
142
0.0
142
0.0
142
0.0
142
0.0
142
1.0
179
     0
270
     2
144
0.0208333333333333
144
0.0
144
0.0
144
0.0
144
0.0
144
0.0208333333333333
144
0.0
144
0.0
144
0.0
144
0.0
144
1.0
144
0.0
144
0.0
144
0.0
144
0.0
144
1.0
274
     2
147
0.0208333333333333
147
0.0
147
0.0
147
0.0
147
0.0
147
0.0208333333333333
147
0.0
147
0.0
147
0.0
147
0.0
147
1.0
147
0.0
147
0.0
147
0.0
147
0.0
147
1.0
  0
MATERIAL
  5
81AD
102
{ACAD_XDICTIONARY
360
81AE
102
}
102
{ACAD_REACTORS
330
816D
102
}
330
816D
100
AcDbMaterial
  1
ByLayer
 72
     0
 73
     2
 43
0.0208333333333333
 43
0.0
 43
0.0
 43
0.0
 43
0.0
 43
0.0208333333333333
 43
0.0
 43
0.0
 43
0.0
 43
0.0
 43
1.0
 43
0.0
 43
0.0
 43
0.0
 43
0.0
 43
1.0
 77
     0
 78
     2
 47
0.0208333333333333
 47
0.0
 47
0.0
 47
0.0
 47
0.0
 47
0.0208333333333333
 47
0.0
 47
0.0
 47
0.0
 47
0.0
 47
1.0
 47
0.0
 47
0.0
 47
0.0
 47
0.0
 47
1.0
171
     0
172
     2
 49
0.0208333333333333
 49
0.0
 49
0.0
 49
0.0
 49
0.0
 49
0.0208333333333333
 49
0.0
 49
0.0
 49
0.0
 49
0.0
 49
1.0
 49
0.0
 49
0.0
 49
0.0
 49
0.0
 49
1.0
175
     0
176
     2
142
0.0208333333333333
142
0.0
142
0.0
142
0.0
142
0.0
142
0.0208333333333333
142
0.0
142
0.0
142
0.0
142
0.0
142
1.0
142
0.0
142
0.0
142
0.0
142
0.0
142
1.0
179
     0
270
     2
144
0.0208333333333333
144
0.0
144
0.0
144
0.0
144
0.0
144
0.0208333333333333
144
0.0
144
0.0
144
0.0
144
0.0
144
1.0
144
0.0
144
0.0
144
0.0
144
0.0
144
1.0
274
     2
147
0.0208333333333333
147
0.0
147
0.0
147
0.0
147
0.0
147
0.0208333333333333
147
0.0
147
0.0
147
0.0
147
0.0
147
1.0
147
0.0
147
0.0
147
0.0
147
0.0
147
1.0
  0
MATERIAL
  5
81BD
102
{ACAD_XDICTIONARY
360
81BE
102
}
102
{ACAD_REACTORS
330
816D
102
}
330
816D
100
AcDbMaterial
  1
Global
 72
     0
 73
     2
 43
0.0208333333333333
 43
0.0
 43
0.0
 43
0.0
 43
0.0
 43
0.0208333333333333
 43
0.0
 43
0.0
 43
0.0
 43
0.0
 43
1.0
 43
0.0
 43
0.0
 43
0.0
 43
0.0
 43
1.0
 77
     0
 78
     2
 47
0.0208333333333333
 47
0.0
 47
0.0
 47
0.0
 47
0.0
 47
0.0208333333333333
 47
0.0
 47
0.0
 47
0.0
 47
0.0
 47
1.0
 47
0.0
 47
0.0
 47
0.0
 47
0.0
 47
1.0
171
     0
172
     2
 49
0.0208333333333333
 49
0.0
 49
0.0
 49
0.0
 49
0.0
 49
0.0208333333333333
 49
0.0
 49
0.0
 49
0.0
 49
0.0
 49
1.0
 49
0.0
 49
0.0
 49
0.0
 49
0.0
 49
1.0
175
     0
176
     2
142
0.0208333333333333
142
0.0
142
0.0
142
0.0
142
0.0
142
0.0208333333333333
142
0.0
142
0.0
142
0.0
142
0.0
142
1.0
142
0.0
142
0.0
142
0.0
142
0.0
142
1.0
179
     0
270
     2
144
0.0208333333333333
144
0.0
144
0.0
144
0.0
144
0.0
144
0.0208333333333333
144
0.0
144
0.0
144
0.0
144
0.0
144
1.0
144
0.0
144
0.0
144
0.0
144
0.0
144
1.0
274
     2
147
0.0208333333333333
147
0.0
147
0.0
147
0.0
147
0.0
147
0.0208333333333333
147
0.0
147
0.0
147
0.0
147
0.0
147
1.0
147
0.0
147
0.0
147
0.0
147
0.0
147
1.0
  0
ACAD_PROXY_OBJECT
  5
81F3
102
{ACAD_REACTORS
330
81F2
102
}
330
81F2
100
AcDbProxyObject
 90
      499
 91
      567
 95
   983063
 70
     0
 93
      618
310
40901902A4063FBFFFFFE000000000000002040AD7A3703D0AD73F4254DD185B99185C99000000000000000104090141901A00000000000004100000000000000041025764000000000000300FC0
340
14
340
0
340
10
340
0
 94
        0
1001
ACAD_MLEADERVER
1070
     2
1001
ACAD
1000
AcRTDxfName
1000
MLEADERSTYLE
  0
MLINESTYLE
  5
13
102
{ACAD_REACTORS
330
E
102
}
330
E
100
AcDbMlineStyle
  2
STANDARD
 70
     0
  3

 62
     0
 51
90.0
 52
90.0
 71
     2
 49
0.5
 62
   256
  6
BYLAYER
 49
-0.5
 62
   256
  6
BYLAYER
  0
ACDBPLACEHOLDER
  5
673
102
{ACAD_REACTORS
330
672
102
}
330
672
  0
ACAD_PROXY_OBJECT
  5
81E1
102
{ACAD_REACTORS
330
81E0
102
}
330
81E0
100
AcDbProxyObject
 90
      499
 91
      566
 95
   983063
 70
     0
 93
       49
310
904313A3100580
 94
        0
1001
ACAD
1000
AcRTDxfName
1000
SCALE
  0
ACAD_PROXY_OBJECT
  5
81E2
102
{ACAD_REACTORS
330
81E0
102
}
330
81E0
100
AcDbProxyObject
 90
      499
 91
      566
 95
   983063
 70
     0
 93
      113
310
904313A32004000000000000004013
 94
        0
1001
ACAD
1000
AcRTDxfName
1000
SCALE
  0
ACAD_PROXY_OBJECT
  5
81E3
102
{ACAD_REACTORS
330
81E0
102
}
330
81E0
100
AcDbProxyObject
 90
      499
 91
      566
 95
   983063
 70
     0
 93
      113
310
904313A3400400000000000010400C
 94
        0
1001
ACAD
1000
AcRTDxfName
1000
SCALE
  0
ACAD_PROXY_OBJECT
  5
81E4
102
{ACAD_REACTORS
330
81E0
102
}
330
81E0
100
AcDbProxyObject
 90
      499
 91
      566
 95
   983063
 70
     0
 93
      113
310
904313A35004000000000000144013
 94
        0
1001
ACAD
1000
AcRTDxfName
1000
SCALE
  0
ACAD_PROXY_OBJECT
  5
81E5
102
{ACAD_REACTORS
330
81E0
102
}
330
81E0
100
AcDbProxyObject
 90
      499
 91
      566
 95
   983063
 70
     0
 93
      113
310
904313A3800400000000000020400C
 94
        0
1001
ACAD
1000
AcRTDxfName
1000
SCALE
  0
ACAD_PROXY_OBJECT
  5
81E6
102
{ACAD_REACTORS
330
81E0
102
}
330
81E0
100
AcDbProxyObject
 90
      499
 91
      566
 95
   983063
 70
     0
 93
      121
310
905313A3130004000000000000244023
 94
        0
1001
ACAD
1000
AcRTDxfName
1000
SCALE
  0
ACAD_PROXY_OBJECT
  5
81E7
102
{ACAD_REACTORS
330
81E0
102
}
330
81E0
100
AcDbProxyObject
 90
      499
 91
      566
 95
   983063
 70
     0
 93
      121
310
905313A3136004000000000000304023
 94
        0
1001
ACAD
1000
AcRTDxfName
1000
SCALE
  0
ACAD_PROXY_OBJECT
  5
81E8
102
{ACAD_REACTORS
330
81E0
102
}
330
81E0
100
AcDbProxyObject
 90
      499
 91
      566
 95
   983063
 70
     0
 93
      121
310
905313A3230004000000000000344000
 94
        0
1001
ACAD
1000
AcRTDxfName
1000
SCALE
  0
ACAD_PROXY_OBJECT
  5
81E9
102
{ACAD_REACTORS
330
81E0
102
}
330
81E0
100
AcDbProxyObject
 90
      499
 91
      566
 95
   983063
 70
     0
 93
      121
310
905313A33300040000000000003E4023
 94
        0
1001
ACAD
1000
AcRTDxfName
1000
SCALE
  0
ACAD_PROXY_OBJECT
  5
81EA
102
{ACAD_REACTORS
330
81E0
102
}
330
81E0
100
AcDbProxyObject
 90
      499
 91
      566
 95
   983063
 70
     0
 93
      121
310
905313A3430004000000000000444000
 94
        0
1001
ACAD
1000
AcRTDxfName
1000
SCALE
  0
ACAD_PROXY_OBJECT
  5
81EB
102
{ACAD_REACTORS
330
81E0
102
}
330
81E0
100
AcDbProxyObject
 90
      499
 91
      566
 95
   983063
 70
     0
 93
      121
310
905313A3530004000000000000494023
 94
        0
1001
ACAD
1000
AcRTDxfName
1000
SCALE
  0
ACAD_PROXY_OBJECT
  5
81EC
102
{ACAD_REACTORS
330
81E0
102
}
330
81E0
100
AcDbProxyObject
 90
      499
 91
      566
 95
   983063
 70
     0
 93
      129
310
906313A313030004000000000000594000
 94
        0
1001
ACAD
1000
AcRTDxfName
1000
SCALE
  0
ACAD_PROXY_OBJECT
  5
81ED
102
{ACAD_REACTORS
330
81E0
102
}
330
81E0
100
AcDbProxyObject
 90
      499
 91
      566
 95
   983063
 70
     0
 93
      113
310
904323A31000000000000000010140
 94
        0
1001
ACAD
1000
AcRTDxfName
1000
SCALE
  0
ACAD_PROXY_OBJECT
  5
81EE
102
{ACAD_REACTORS
330
81E0
102
}
330
81E0
100
AcDbProxyObject
 90
      499
 91
      566
 95
   983063
 70
     0
 93
      113
310
904343A31000000000000000410159
 94
        0
1001
ACAD
1000
AcRTDxfName
1000
SCALE
  0
ACAD_PROXY_OBJECT
  5
81EF
102
{ACAD_REACTORS
330
81E0
102
}
330
81E0
100
AcDbProxyObject
 90
      499
 91
      566
 95
   983063
 70
     0
 93
      113
310
904383A31000000000000000810140
 94
        0
1001
ACAD
1000
AcRTDxfName
1000
SCALE
  0
ACAD_PROXY_OBJECT
  5
81F0
102
{ACAD_REACTORS
330
81E0
102
}
330
81E0
100
AcDbProxyObject
 90
      499
 91
      566
 95
   983063
 70
     0
 93
      121
310
90531303A31000000000000000910140
 94
        0
1001
ACAD
1000
AcRTDxfName
1000
SCALE
  0
ACAD_PROXY_OBJECT
  5
81F1
102
{ACAD_REACTORS
330
81E0
102
}
330
81E0
100
AcDbProxyObject
 90
      499
 91
      566
 95
   983063
 70
     0
 93
      129
310
9063130303A31000000000000001650110
 94
        0
1001
ACAD
1000
AcRTDxfName
1000
SCALE
  0
ACAD_PROXY_OBJECT
  5
81DF
102
{ACAD_XDICTIONARY
360
820D
102
}
102
{ACAD_REACTORS
330
81DE
102
}
330
81DE
100
AcDbProxyObject
 90
      499
 91
      565
 95
   983063
 70
     0
 93
     1849
310
4254DD185B99185C990028000000000000F83F0000000000003E0FC00000000000004901028000000C1008070000C3001FDFF8000000C1003FBFF000000182007F7FE00000030400FEFFC00000060801FDFF8000000C1003FBFF000000182000000000000000C2020B0000001820100E000186003FBFF000000182007F7FE0
310
0000030400FEFFC00000060801FDFF8000000C1003FBFF000000182007F7FE0000003040000000000000012404160000003040201C00030C007F7FE00000030400FEFFC00000060801FDFF8000000C1003FBFF000000182007F7FE00000030400FEFFC000000608000
340
10
340
10
340
10
 94
        0
1001
ACAD
1000
AcRTDxfName
1000
TABLESTYLE
  0
ACAD_PROXY_OBJECT
  5
81CB
102
{ACAD_XDICTIONARY
360
822A
102
}
102
{ACAD_REACTORS
330
81C5
102
}
330
81C5
100
AcDbProxyObject
 90
      499
 91
      564
 95
   983063
 70
     0
 93
      444
310
430C9915DA5C99599C985B59401049028333333333333E3BF0000000000000FB0107901411070040501600405405064090741402480A0340
 94
        0
1001
ACAD
1000
AcDbSavedByObjectVersion
1070
     0
1000
AcRTDxfName
1000
VISUALSTYLE
  0
ACAD_PROXY_OBJECT
  5
81CA
102
{ACAD_XDICTIONARY
360
8228
102
}
102
{ACAD_REACTORS
330
81C5
102
}
330
81C5
100
AcDbProxyObject
 90
      499
 91
      564
 95
   983063
 70
     0
 93
      396
310
4190985CDA58C0107406404333333333333E3BF0000000000000FB0107A41107004050150841D405064090741402480A035A
 94
        0
1001
ACAD
1000
AcDbSavedByObjectVersion
1070
     0
1000
AcRTDxfName
1000
VISUALSTYLE
  0
ACAD_PROXY_OBJECT
  5
81D1
102
{ACAD_XDICTIONARY
360
8236
102
}
102
{ACAD_REACTORS
330
81C5
102
}
330
81C5
100
AcDbProxyObject
 90
      499
 91
      564
 95
   983063
 70
     0
 93
      436
310
42509C9A59DA1D195B8010C409028333333333333E3BF0000000000000FB010790141107004050150841D405064090741402480A029954
 94
        0
1001
ACAD
1000
AcDbSavedByObjectVersion
1070
     0
1000
AcRTDxfName
1000
VISUALSTYLE
  0
ACAD_PROXY_OBJECT
  5
81D5
102
{ACAD_XDICTIONARY
360
823E
102
}
102
{ACAD_REACTORS
330
81C5
102
}
330
81C5
100
AcDbProxyObject
 90
      499
 91
      564
 95
   983063
 70
     0
 93
      460
310
4310DBDB1BDC90DA185B99D9401104090240C333333333333E3BF0000000000000FB0108901411070040501508421405064090741402480A0358
 94
        0
1001
ACAD
1000
AcDbSavedByObjectVersion
1070
     0
1000
AcRTDxfName
1000
VISUALSTYLE
  0
ACAD_PROXY_OBJECT
  5
81CE
102
{ACAD_XDICTIONARY
360
8230
102
}
102
{ACAD_REACTORS
330
81C5
102
}
330
81C5
100
AcDbProxyObject
 90
      499
 91
      564
 95
   983063
 70
     0
 93
      508
310
42D0DBDB98D95C1D1D585B0010940D028333333333333E3BF0000000000000FB0107902409070040501000000000018199010841D405064090740C02480A0340
 94
        0
1001
ACAD
1000
AcDbSavedByObjectVersion
1070
     0
1000
AcRTDxfName
1000
VISUALSTYLE
  0
ACAD_PROXY_OBJECT
  5
81D0
102
{ACAD_XDICTIONARY
360
8234
102
}
102
{ACAD_REACTORS
330
81C5
102
}
330
81C5
100
AcDbProxyObject
 90
      499
 91
      564
 95
   983063
 70
     0
 93
      420
310
41111A5B4010B409028333333333333E3BF0000000000000FB010790141107004050150841D405064090741402480A02677FFFFFD4
 94
        0
1001
ACAD
1000
AcDbSavedByObjectVersion
1070
     0
1000
AcRTDxfName
1000
VISUALSTYLE
  0
ACAD_PROXY_OBJECT
  5
81DD
102
{ACAD_XDICTIONARY
360
824E
102
}
102
{ACAD_REACTORS
330
81C5
102
}
330
81C5
100
AcDbProxyObject
 90
      499
 91
      564
 95
   983063
 70
     0
 93
      460
310
43515919D950DBDB1BDC93D99980116409028333333333333E3BF0000000000000FB010790141107004050150841D405064090741402480A0350
 94
        0
1001
ACAD
1000
AcDbSavedByObjectVersion
1070
     0
1000
AcRTDxfName
1000
VISUALSTYLE
  0
ACAD_PROXY_OBJECT
  5
81D4
102
{ACAD_XDICTIONARY
360
823C
102
}
102
{ACAD_REACTORS
330
81C5
102
}
330
81C5
100
AcDbProxyObject
 90
      499
 91
      564
 95
   983063
 70
     0
 93
      452
310
43119858D95C185D1D195C9B8010F409028333333333333E3BF0000000000000FB010790141107004050150841D405064090741402480A0350
 94
        0
1001
ACAD
1000
AcDbSavedByObjectVersion
1070
     0
1000
AcRTDxfName
1000
VISUALSTYLE
  0
ACAD_PROXY_OBJECT
  5
81C6
102
{ACAD_XDICTIONARY
360
8220
102
}
102
{ACAD_REACTORS
330
81C5
102
}
330
81C5
100
AcDbProxyObject
 90
      499
 91
      564
 95
   983063
 70
     0
 93
      388
310
41519B185D00240901404333333333333E3BF0000000000000F9010740A907004050150841D405064090741402480A1B50
 94
        0
1001
ACAD
1000
AcDbSavedByObjectVersion
1070
     0
1000
AcRTDxfName
1000
VISUALSTYLE
  0
ACAD_PROXY_OBJECT
  5
81C7
102
{ACAD_XDICTIONARY
360
8222
102
}
102
{ACAD_REACTORS
330
81C5
102
}
330
81C5
100
AcDbProxyObject
 90
      499
 91
      564
 95
   983063
 70
     0
 93
      476
310
43919B185D15DA5D1A115919D95CC010140901404333333333333E3BF0000000000000F90107409019070040501600405405064090741402480A1B5C
 94
        0
1001
ACAD
1000
AcDbSavedByObjectVersion
1070
     0
1000
AcRTDxfName
1000
VISUALSTYLE
  0
ACAD_PROXY_OBJECT
  5
81C8
102
{ACAD_XDICTIONARY
360
8224
102
}
102
{ACAD_REACTORS
330
81C5
102
}
330
81C5
100
AcDbProxyObject
 90
      499
 91
      564
 95
   983063
 70
     0
 93
      412
310
4211DBDD5C985D590010240902404333333333333E3BF0000000000000F9010740A9070040501641D405064090741402480A1B54
 94
        0
1001
ACAD
1000
AcDbSavedByObjectVersion
1070
     0
1000
AcRTDxfName
1000
VISUALSTYLE
  0
ACAD_PROXY_OBJECT
  5
81C9
102
{ACAD_XDICTIONARY
360
8226
102
}
102
{ACAD_REACTORS
330
81C5
102
}
330
81C5
100
AcDbProxyObject
 90
      499
 91
      564
 95
   983063
 70
     0
 93
      500
310
4451DBDD5C985D5915DA5D1A115919D95CC010340902404333333333333E3BF0000000000000F90107409019070040501600405405064090741402480A1B5F
 94
        0
1001
ACAD
1000
AcDbSavedByObjectVersion
1070
     0
1000
AcRTDxfName
1000
VISUALSTYLE
  0
ACAD_PROXY_OBJECT
  5
81CD
102
{ACAD_XDICTIONARY
360
822E
102
}
102
{ACAD_REACTORS
330
81C5
102
}
330
81C5
100
AcDbProxyObject
 90
      499
 91
      564
 95
   983063
 70
     0
 93
      484
310
41D21A5919195B8010640502408333333333333E3BF0000000000000FB01079024090700405020000000000001110200405405064090740C02480A034A
 94
        0
1001
ACAD
1000
AcDbSavedByObjectVersion
1070
     0
1000
AcRTDxfName
1000
VISUALSTYLE
  0
ACAD_PROXY_OBJECT
  5
81DB
102
{ACAD_XDICTIONARY
360
824A
102
}
102
{ACAD_REACTORS
330
81C5
102
}
330
81C5
100
AcDbProxyObject
 90
      499
 91
      564
 95
   983063
 70
     0
 93
      436
310
42929A5D1D195C93D99980114409028333333333333E3BF0000000000000FB010790141107004050150A41D405064090741402480A0354
 94
        0
1001
ACAD
1000
AcDbSavedByObjectVersion
1070
     0
1000
AcRTDxfName
1000
VISUALSTYLE
  0
ACAD_PROXY_OBJECT
  5
81D3
102
{ACAD_XDICTIONARY
360
823A
102
}
102
{ACAD_REACTORS
330
81C5
102
}
330
81C5
100
AcDbProxyObject
 90
      499
 91
      564
 95
   983063
 70
     0
 93
      452
310
43131A5B995C185D1D195C9B8010E409028333333333333E3BF0000000000000FB010790141107004050750841D405064090741402483A0352
 94
        0
1001
ACAD
1000
AcDbSavedByObjectVersion
1070
     0
1000
AcRTDxfName
1000
VISUALSTYLE
  0
ACAD_PROXY_OBJECT
  5
81DC
102
{ACAD_XDICTIONARY
360
824C
102
}
102
{ACAD_REACTORS
330
81C5
102
}
330
81C5
100
AcDbProxyObject
 90
      499
 91
      564
 95
   983063
 70
     0
 93
      452
310
4313DD995C9A185B99D3D99980115409028333333333333E3BF0000000000000FB010790141107004050150941D405064090741402480A0352
 94
        0
1001
ACAD
1000
AcDbSavedByObjectVersion
1070
     0
1000
AcRTDxfName
1000
VISUALSTYLE
  0
ACAD_PROXY_OBJECT
  5
81CF
102
{ACAD_XDICTIONARY
360
8232
102
}
102
{ACAD_REACTORS
330
81C5
102
}
330
81C5
100
AcDbProxyObject
 90
      499
 91
      564
 95
   983063
 70
     0
 93
      436
310
429499585B1A5CDD1A58C0108409028333333333333E3BF0000000000000F9010740A907004050150800405405064090740C02480A1B44
 94
        0
1001
ACAD
1000
AcDbSavedByObjectVersion
1070
     0
1000
AcRTDxfName
1000
VISUALSTYLE
  0
ACAD_PROXY_OBJECT
  5
81DA
102
{ACAD_XDICTIONARY
360
8248
102
}
102
{ACAD_REACTORS
330
81C5
102
}
330
81C5
100
AcDbProxyObject
 90
      499
 91
      564
 95
   983063
 70
     0
 93
      428
310
41D4DA185919590011B40902404333333333333E3BF0000000000000F9010740A41107004050150800405405064090840C02480A0B40
 94
        0
1001
ACAD
1000
AcDbSavedByObjectVersion
1070
     0
1000
AcRTDxfName
1000
VISUALSTYLE
  0
ACAD_PROXY_OBJECT
  5
81D9
102
{ACAD_XDICTIONARY
360
8246
102
}
102
{ACAD_REACTORS
330
81C5
102
}
330
81C5
100
AcDbProxyObject
 90
      499
 91
      564
 95
   983063
 70
     0
 93
      524
310
4494DA18591959081DDA5D1A08195919D95CC011A40902404333333333333E3BF0000000000000F901074090142907004050250800405405064090740C02480A0B40
 94
        0
1001
ACAD
1000
AcDbSavedByObjectVersion
1070
     0
1000
AcRTDxfName
1000
VISUALSTYLE
  0
ACAD_PROXY_OBJECT
  5
81D6
102
{ACAD_XDICTIONARY
360
8240
102
}
102
{ACAD_REACTORS
330
81C5
102
}
330
81C5
100
AcDbProxyObject
 90
      499
 91
      564
 95
   983063
 70
     0
 93
      540
310
43D4DA1859195CC81BD98811DC985E401174090240C333333333333E3BF0000000000000FB01079024090741D01000000000000111010841D405064090740C02480A0340
 94
        0
1001
ACAD
1000
AcDbSavedByObjectVersion
1070
     0
1000
AcRTDxfName
1000
VISUALSTYLE
  0
ACAD_PROXY_OBJECT
  5
81D7
102
{ACAD_XDICTIONARY
360
8242
102
}
102
{ACAD_REACTORS
330
81C5
102
}
330
81C5
100
AcDbProxyObject
 90
      499
 91
      564
 95
   983063
 70
     0
 93
      484
310
4214DAD95D18DA1E4011840502408333333333333E3BF0000000000000FB01079024090741D01000000000000111010B41D405064090741802480A034A
 94
        0
1001
ACAD
1000
AcDbSavedByObjectVersion
1070
     0
1000
AcRTDxfName
1000
VISUALSTYLE
  0
ACAD_PROXY_OBJECT
  5
81D2
102
{ACAD_XDICTIONARY
360
8238
102
}
102
{ACAD_REACTORS
330
81C5
102
}
330
81C5
100
AcDbProxyObject
 90
      499
 91
      564
 95
   983063
 70
     0
 93
      420
310
42151A1A58DAD95B8010D409028333333333333E3BF0000000000000FB010790141107004050150C41D405064090741402480A0354
 94
        0
1001
ACAD
1000
AcDbSavedByObjectVersion
1070
     0
1000
AcRTDxfName
1000
VISUALSTYLE
  0
ACAD_PROXY_OBJECT
  5
81CC
102
{ACAD_XDICTIONARY
360
822C
102
}
102
{ACAD_REACTORS
330
81C5
102
}
330
81C5
100
AcDbProxyObject
 90
      499
 91
      564
 95
   983063
 70
     0
 93
      428
310
4295DA5C99599C985B59401059028333333333333E3BF0000000000000FB0107901411070040501600405405064090740C02480A0341
 94
        0
1001
ACAD
1000
AcDbSavedByObjectVersion
1070
     0
1000
AcRTDxfName
1000
VISUALSTYLE
  0
ACAD_PROXY_OBJECT
  5
81D8
102
{ACAD_XDICTIONARY
360
8244
102
}
102
{ACAD_REACTORS
330
81C5
102
}
330
81C5
100
AcDbProxyObject
 90
      499
 91
      564
 95
   983063
 70
     0
 93
      412
310
41960B54985E4011940902404000000000000E03F0000000000000FB010740501907004050150841D405064090740C02480A1B46
 94
        0
1001
ACAD
1000
AcDbSavedByObjectVersion
1070
     0
1000
AcRTDxfName
1000
VISUALSTYLE
  0
XRECORD
  5
826E
102
{ACAD_REACTORS
330
826C
102
}
330
826C
100
AcDbXrecord
280
     1
340
816E
  0
XRECORD
  5
826D
102
{ACAD_REACTORS
330
826C
102
}
330
826C
100
AcDbXrecord
280
     1
340
816D
  0
DICTIONARYVAR
  5
8255
102
{ACAD_REACTORS
330
8252
102
}
330
8252
100
DictionaryVariables
280
     0
  1
1:1
  0
DICTIONARYVAR
  5
8254
102
{ACAD_REACTORS
330
8252
102
}
330
8252
100
DictionaryVariables
280
     0
  1
STANDARD
  0
DICTIONARYVAR
  5
8253
102
{ACAD_REACTORS
330
8252
102
}
330
8252
100
DictionaryVariables
280
     0
  1
STANDARD
  0
DICTIONARYVAR
  5
8259
102
{ACAD_REACTORS
330
8252
102
}
330
8252
100
DictionaryVariables
280
     0
  1
1
  0
DICTIONARYVAR
  5
8257
102
{ACAD_REACTORS
330
8252
102
}
330
8252
100
DictionaryVariables
280
     0
  1
0
  0
DICTIONARYVAR
  5
826A
102
{ACAD_REACTORS
330
8252
102
}
330
8252
100
DictionaryVariables
280
     0
  1

  0
DICTIONARYVAR
  5
8256
102
{ACAD_REACTORS
330
8252
102
}
330
8252
100
DictionaryVariables
280
     0
  1
127
  0
DICTIONARYVAR
  5
8258
102
{ACAD_REACTORS
330
8252
102
}
330
8252
100
DictionaryVariables
280
     0
  1
0
  0
DICTIONARY
  5
826F
330
676
100
AcDbDictionary
280
     1
281
     1
  3
ACAD_XREC_ROUNDTRIP
360
8270
  0
DICTIONARY
  5
8271
330
677
100
AcDbDictionary
280
     1
281
     1
  3
ACAD_XREC_ROUNDTRIP
360
8272
  0
DICTIONARY
  5
81B6
330
81B5
100
AcDbDictionary
280
     1
281
     1
  3
ACAD_XREC_ROUNDTRIP
360
821E
  3
BUMPTILE
360
81B8
  3
DIFFUSETILE
360
81B7
  3
OPACITYTILE
360
81BB
  3
REFLECTIONTILE
360
81BA
  3
REFRACTIONTILE
360
81BC
  3
SPECULARTILE
360
81B9
  0
DICTIONARY
  5
81AE
330
81AD
100
AcDbDictionary
280
     1
281
     1
  3
ACAD_XREC_ROUNDTRIP
360
821D
  3
BUMPTILE
360
81B0
  3
DIFFUSETILE
360
81AF
  3
OPACITYTILE
360
81B3
  3
REFLECTIONTILE
360
81B2
  3
REFRACTIONTILE
360
81B4
  3
SPECULARTILE
360
81B1
  0
DICTIONARY
  5
81BE
330
81BD
100
AcDbDictionary
280
     1
281
     1
  3
ACAD_XREC_ROUNDTRIP
360
821F
  3
BUMPTILE
360
81C0
  3
DIFFUSETILE
360
81BF
  3
OPACITYTILE
360
81C3
  3
REFLECTIONTILE
360
81C2
  3
REFRACTIONTILE
360
81C4
  3
SPECULARTILE
360
81C1
  0
DICTIONARY
  5
820D
330
81DF
100
AcDbDictionary
280
     1
281
     1
  3
ACAD_ROUNDTRIP_2008_TABLESTYLE_CELLSTYLEMAP
360
820E
  3
ACAD_XREC_ROUNDTRIP
360
8250
  0
DICTIONARY
  5
822A
330
81CB
100
AcDbDictionary
280
     1
281
     1
  3
ACAD_XREC_ROUNDTRIP
360
822B
  0
DICTIONARY
  5
8228
330
81CA
100
AcDbDictionary
280
     1
281
     1
  3
ACAD_XREC_ROUNDTRIP
360
8229
  0
DICTIONARY
  5
8236
330
81D1
100
AcDbDictionary
280
     1
281
     1
  3
ACAD_XREC_ROUNDTRIP
360
8237
  0
DICTIONARY
  5
823E
330
81D5
100
AcDbDictionary
280
     1
281
     1
  3
ACAD_XREC_ROUNDTRIP
360
823F
  0
DICTIONARY
  5
8230
330
81CE
100
AcDbDictionary
280
     1
281
     1
  3
ACAD_XREC_ROUNDTRIP
360
8231
  0
DICTIONARY
  5
8234
330
81D0
100
AcDbDictionary
280
     1
281
     1
  3
ACAD_XREC_ROUNDTRIP
360
8235
  0
DICTIONARY
  5
824E
330
81DD
100
AcDbDictionary
280
     1
281
     1
  3
ACAD_XREC_ROUNDTRIP
360
824F
  0
DICTIONARY
  5
823C
330
81D4
100
AcDbDictionary
280
     1
281
     1
  3
ACAD_XREC_ROUNDTRIP
360
823D
  0
DICTIONARY
  5
8220
330
81C6
100
AcDbDictionary
280
     1
281
     1
  3
ACAD_XREC_ROUNDTRIP
360
8221
  0
DICTIONARY
  5
8222
330
81C7
100
AcDbDictionary
280
     1
281
     1
  3
ACAD_XREC_ROUNDTRIP
360
8223
  0
DICTIONARY
  5
8224
330
81C8
100
AcDbDictionary
280
     1
281
     1
  3
ACAD_XREC_ROUNDTRIP
360
8225
  0
DICTIONARY
  5
8226
330
81C9
100
AcDbDictionary
280
     1
281
     1
  3
ACAD_XREC_ROUNDTRIP
360
8227
  0
DICTIONARY
  5
822E
330
81CD
100
AcDbDictionary
280
     1
281
     1
  3
ACAD_XREC_ROUNDTRIP
360
822F
  0
DICTIONARY
  5
824A
330
81DB
100
AcDbDictionary
280
     1
281
     1
  3
ACAD_XREC_ROUNDTRIP
360
824B
  0
DICTIONARY
  5
823A
330
81D3
100
AcDbDictionary
280
     1
281
     1
  3
ACAD_XREC_ROUNDTRIP
360
823B
  0
DICTIONARY
  5
824C
330
81DC
100
AcDbDictionary
280
     1
281
     1
  3
ACAD_XREC_ROUNDTRIP
360
824D
  0
DICTIONARY
  5
8232
330
81CF
100
AcDbDictionary
280
     1
281
     1
  3
ACAD_XREC_ROUNDTRIP
360
8233
  0
DICTIONARY
  5
8248
330
81DA
100
AcDbDictionary
280
     1
281
     1
  3
ACAD_XREC_ROUNDTRIP
360
8249
  0
DICTIONARY
  5
8246
330
81D9
100
AcDbDictionary
280
     1
281
     1
  3
ACAD_XREC_ROUNDTRIP
360
8247
  0
DICTIONARY
  5
8240
330
81D6
100
AcDbDictionary
280
     1
281
     1
  3
ACAD_XREC_ROUNDTRIP
360
8241
  0
DICTIONARY
  5
8242
330
81D7
100
AcDbDictionary
280
     1
281
     1
  3
ACAD_XREC_ROUNDTRIP
360
8243
  0
DICTIONARY
  5
8238
330
81D2
100
AcDbDictionary
280
     1
281
     1
  3
ACAD_XREC_ROUNDTRIP
360
8239
  0
DICTIONARY
  5
822C
330
81CC
100
AcDbDictionary
280
     1
281
     1
  3
ACAD_XREC_ROUNDTRIP
360
822D
  0
DICTIONARY
  5
8244
330
81D8
100
AcDbDictionary
280
     1
281
     1
  3
ACAD_XREC_ROUNDTRIP
360
8245
  0
XRECORD
  5
8270
102
{ACAD_REACTORS
330
826F
102
}
330
826F
100
AcDbXrecord
280
     1
102
SHADEPLOT
 70
     0
102
SHADEPLOTRESLEVEL
 70
     2
102
SHADEPLOTCUSTOMDPI
 70
   300
  0
XRECORD
  5
8272
102
{ACAD_REACTORS
330
8271
102
}
330
8271
100
AcDbXrecord
280
     1
102
SHADEPLOT
 70
     1
102
SHADEPLOTRESLEVEL
 70
     2
102
SHADEPLOTCUSTOMDPI
 70
   300
  0
XRECORD
  5
821E
102
{ACAD_REACTORS
330
81B6
102
}
330
81B6
100
AcDbXrecord
280
     1
102
MATERIAL
148
0.0
149
0.0
149
0.0
 93
        0
 94
      127
282
     0
 72
     0
 77
     0
171
     0
175
     0
179
     0
273
     0
  0
XRECORD
  5
81B8
102
{ACAD_REACTORS
330
81B6
102
}
330
81B6
100
AcDbXrecord
280
     1
270
     1
271
     1
  0
XRECORD
  5
81B7
102
{ACAD_REACTORS
330
81B6
102
}
330
81B6
100
AcDbXrecord
280
     1
270
     1
271
     1
  0
XRECORD
  5
81BB
102
{ACAD_REACTORS
330
81B6
102
}
330
81B6
100
AcDbXrecord
280
     1
270
     1
271
     1
  0
XRECORD
  5
81BA
102
{ACAD_REACTORS
330
81B6
102
}
330
81B6
100
AcDbXrecord
280
     1
270
     1
271
     1
  0
XRECORD
  5
81BC
102
{ACAD_REACTORS
330
81B6
102
}
330
81B6
100
AcDbXrecord
280
     1
270
     1
271
     1
  0
XRECORD
  5
81B9
102
{ACAD_REACTORS
330
81B6
102
}
330
81B6
100
AcDbXrecord
280
     1
270
     1
271
     1
  0
XRECORD
  5
821D
102
{ACAD_REACTORS
330
81AE
102
}
330
81AE
100
AcDbXrecord
280
     1
102
MATERIAL
148
0.0
149
0.0
149
0.0
 93
        0
 94
      127
282
     0
 72
     0
 77
     0
171
     0
175
     0
179
     0
273
     0
  0
XRECORD
  5
81B0
102
{ACAD_REACTORS
330
81AE
102
}
330
81AE
100
AcDbXrecord
280
     1
270
     1
271
     1
  0
XRECORD
  5
81AF
102
{ACAD_REACTORS
330
81AE
102
}
330
81AE
100
AcDbXrecord
280
     1
270
     1
271
     1
  0
XRECORD
  5
81B3
102
{ACAD_REACTORS
330
81AE
102
}
330
81AE
100
AcDbXrecord
280
     1
270
     1
271
     1
  0
XRECORD
  5
81B2
102
{ACAD_REACTORS
330
81AE
102
}
330
81AE
100
AcDbXrecord
280
     1
270
     1
271
     1
  0
XRECORD
  5
81B4
102
{ACAD_REACTORS
330
81AE
102
}
330
81AE
100
AcDbXrecord
280
     1
270
     1
271
     1
  0
XRECORD
  5
81B1
102
{ACAD_REACTORS
330
81AE
102
}
330
81AE
100
AcDbXrecord
280
     1
270
     1
271
     1
  0
XRECORD
  5
821F
102
{ACAD_REACTORS
330
81BE
102
}
330
81BE
100
AcDbXrecord
280
     1
102
MATERIAL
148
0.0
149
0.0
149
0.0
 93
        0
 94
      127
282
     0
 72
     0
 77
     0
171
     0
175
     0
179
     0
273
     0
  0
XRECORD
  5
81C0
102
{ACAD_REACTORS
330
81BE
102
}
330
81BE
100
AcDbXrecord
280
     1
270
     1
271
     1
  0
XRECORD
  5
81BF
102
{ACAD_REACTORS
330
81BE
102
}
330
81BE
100
AcDbXrecord
280
     1
270
     1
271
     1
  0
XRECORD
  5
81C3
102
{ACAD_REACTORS
330
81BE
102
}
330
81BE
100
AcDbXrecord
280
     1
270
     1
271
     1
  0
XRECORD
  5
81C2
102
{ACAD_REACTORS
330
81BE
102
}
330
81BE
100
AcDbXrecord
280
     1
270
     1
271
     1
  0
XRECORD
  5
81C4
102
{ACAD_REACTORS
330
81BE
102
}
330
81BE
100
AcDbXrecord
280
     1
270
     1
271
     1
  0
XRECORD
  5
81C1
102
{ACAD_REACTORS
330
81BE
102
}
330
81BE
100
AcDbXrecord
280
     1
270
     1
271
     1
  0
ACAD_PROXY_OBJECT
  5
820E
102
{ACAD_REACTORS
330
820D
102
}
330
820D
100
AcDbProxyObject
 90
      499
 91
      568
 95
   983063
 70
     0
 93
     5304
310
40D054060020000020000003200101A000080002A5058000000C10000000000000006101010000000000003E0FC000000000000F83F0000000000003E0FC000000000000F83F000000000000049000000000000001240419019018000000C1003FBFFFFFE0000000000003C8FD029018000000C1003FBFFFFFE00000000000
310
03C8FD049018000000C1003FBFFFFFE0000000000003C8FD089018000000C1003FBFFFFFE0000000000003C8FD109018000000C1003FBFFFFFE0000000000003C8FD209018000000C1003FBFFFFFE0000000000003C8FD01405075F5449544C450041501A8000000C800406800020000A94160000003040000000000000012
310
40404000000000000F83F0000000000003E0FC000000000000F83F0000000000003E0FC0000000000001240000000000000049010640640600000030400FEFFFFFF8000000000000F23F40A40600000030400FEFFFFFF8000000000000F23F41240600000030400FEFFFFFF8000000000000F23F42240600000030400FEFFF
310
FFF8000000000000F23F44240600000030400FEFFFFFF8000000000000F23F48240600000030400FEFFFFFF8000000000000F23F409014217D2115051115480105406A0000003200101A000080002A5028000000C10000000000000004901010000000000003E0FC000000000000F83F0000000000003E0FC000000000000F
310
83F000000000000049000000000000001240419019018000000C1003FBFFFFFE0000000000003C8FD029018000000C1003FBFFFFFE0000000000003C8FD049018000000C1003FBFFFFFE0000000000003C8FD089018000000C1003FBFFFFFE0000000000003C8FD109018000000C1003FBFFFFFE0000000000003C8FD20901
310
8000000C1003FBFFFFFE0000000000003C8FD03409065F444154410000
340
10
340
0
340
0
340
0
340
0
340
0
340
0
340
10
340
0
340
0
340
0
340
0
340
0
340
0
340
10
340
0
340
0
340
0
340
0
340
0
340
0
 94
        0
1001
ACAD
1000
AcRTDxfName
1000
CELLSTYLEMAP
  0
XRECORD
  5
8250
102
{ACAD_REACTORS
330
820D
102
}
330
820D
100
AcDbXrecord
280
     1
102
ACAD_ROUNDTRIP_PRE2007_TABLESTYLE
 90
      512
 91
        0
  1

 92
      512
 93
        0
  2

 94
      512
 95
        0
  3

  0
XRECORD
  5
822B
102
{ACAD_REACTORS
330
822A
102
}
330
822A
100
AcDbXrecord
280
     1
102
RTVSPropertyOp0
 70
     1
102
RTVSPropertyOp1
 70
     1
102
RTVSPropertyOp2
 70
     1
102
RTVSPropertyOp3
 70
     1
102
RTVSPropertyOp4
 70
     1
102
RTVSPropertyOp5
 70
     1
102
RTVSPropertyOp6
 70
     1
102
RTVSPropertyOp7
 70
     1
102
RTVSPropertyOp8
 70
     1
102
RTVSPropertyOp9
 70
     1
102
RTVSPropertyOp10
 70
     1
102
RTVSPropertyOp11
 70
     1
102
RTVSPropertyOp12
 70
     1
102
RTVSPropertyOp13
 70
     1
102
RTVSPropertyOp14
 70
     1
102
RTVSPropertyOp15
 70
     1
102
RTVSPropertyOp16
 70
     1
102
RTVSPropertyOp17
 70
     1
102
RTVSPropertyOp18
 70
     1
102
RTVSPropertyOp19
 70
     1
102
RTVSPropertyOp20
 70
     1
102
RTVSPropertyOp21
 70
     1
102
RTVSPropertyOp22
 70
     1
102
RTVSPropertyOp23
 70
     1
102
RTVSPropertyOp24
 70
     1
102
RTVSPropertyOp25
 70
     1
102
RTVSPropertyOp26
 70
     1
102
RTVSPropertyOp27
 70
     1
102
RTVSPropertyOp28
 70
     1
102
RTVSPropertyOp29
 70
     1
102
RTVSPropertyOp30
 70
     1
102
RTVSPropertyOp31
 70
     1
102
RTVSPropertyOp32
 70
     1
  0
XRECORD
  5
8229
102
{ACAD_REACTORS
330
8228
102
}
330
8228
100
AcDbXrecord
280
     1
102
RTVSPropertyOp0
 70
     1
102
RTVSPropertyOp1
 70
     1
102
RTVSPropertyOp2
 70
     1
102
RTVSPropertyOp3
 70
     1
102
RTVSPropertyOp4
 70
     1
102
RTVSPropertyOp5
 70
     1
102
RTVSPropertyOp6
 70
     1
102
RTVSPropertyOp7
 70
     1
102
RTVSPropertyOp8
 70
     1
102
RTVSPropertyOp9
 70
     1
102
RTVSPropertyOp10
 70
     1
102
RTVSPropertyOp11
 70
     1
102
RTVSPropertyOp12
 70
     1
102
RTVSPropertyOp13
 70
     1
102
RTVSPropertyOp14
 70
     1
102
RTVSPropertyOp15
 70
     1
102
RTVSPropertyOp16
 70
     1
102
RTVSPropertyOp17
 70
     1
102
RTVSPropertyOp18
 70
     1
102
RTVSPropertyOp19
 70
     1
102
RTVSPropertyOp20
 70
     1
102
RTVSPropertyOp21
 70
     1
102
RTVSPropertyOp22
 70
     1
102
RTVSPropertyOp23
 70
     1
102
RTVSPropertyOp24
 70
     1
102
RTVSPropertyOp25
 70
     1
102
RTVSPropertyOp26
 70
     1
102
RTVSPropertyOp27
 70
     1
102
RTVSPropertyOp28
 70
     1
102
RTVSPropertyOp29
 70
     1
102
RTVSPropertyOp30
 70
     1
102
RTVSPropertyOp31
 70
     1
102
RTVSPropertyOp32
 70
     1
  0
XRECORD
  5
8237
102
{ACAD_REACTORS
330
8236
102
}
330
8236
100
AcDbXrecord
280
     1
102
RTVSPropertyOp0
 70
     1
102
RTVSPropertyOp1
 70
     1
102
RTVSPropertyOp2
 70
     1
102
RTVSPropertyOp3
 70
     1
102
RTVSPropertyOp4
 70
     1
102
RTVSPropertyOp5
 70
     1
102
RTVSPropertyOp6
 70
     1
102
RTVSPropertyOp7
 70
     1
102
RTVSPropertyOp8
 70
     1
102
RTVSPropertyOp9
 70
     1
102
RTVSPropertyOp10
 70
     1
102
RTVSPropertyOp11
 70
     1
102
RTVSPropertyOp12
 70
     1
102
RTVSPropertyOp13
 70
     1
102
RTVSPropertyOp14
 70
     1
102
RTVSPropertyOp15
 70
     1
102
RTVSPropertyOp16
 70
     1
102
RTVSPropertyOp17
 70
     1
102
RTVSPropertyOp18
 70
     1
102
RTVSPropertyOp19
 70
     1
102
RTVSPropertyOp20
 70
     1
102
RTVSPropertyOp21
 70
     1
102
RTVSPropertyOp22
 70
     1
102
RTVSPropertyOp23
 70
     1
102
RTVSPropertyOp24
 70
     1
102
RTVSPropertyOp25
 70
     1
102
RTVSPropertyOp26
 70
     1
102
RTVSPropertyOp27
 70
     1
102
RTVSPropertyOp28
 70
     1
102
RTVSPropertyOp29
 70
     1
102
RTVSPropertyOp30
 70
     1
102
RTVSPropertyOp31
 70
     1
102
RTVSPropertyOp32
 70
     1
  0
XRECORD
  5
823F
102
{ACAD_REACTORS
330
823E
102
}
330
823E
100
AcDbXrecord
280
     1
102
RTVSPropertyOp0
 70
     1
102
RTVSPropertyOp1
 70
     1
102
RTVSPropertyOp2
 70
     1
102
RTVSPropertyOp3
 70
     1
102
RTVSPropertyOp4
 70
     1
102
RTVSPropertyOp5
 70
     1
102
RTVSPropertyOp6
 70
     1
102
RTVSPropertyOp7
 70
     1
102
RTVSPropertyOp8
 70
     1
102
RTVSPropertyOp9
 70
     1
102
RTVSPropertyOp10
 70
     1
102
RTVSPropertyOp11
 70
     1
102
RTVSPropertyOp12
 70
     1
102
RTVSPropertyOp13
 70
     1
102
RTVSPropertyOp14
 70
     1
102
RTVSPropertyOp15
 70
     1
102
RTVSPropertyOp16
 70
     1
102
RTVSPropertyOp17
 70
     1
102
RTVSPropertyOp18
 70
     1
102
RTVSPropertyOp19
 70
     1
102
RTVSPropertyOp20
 70
     1
102
RTVSPropertyOp21
 70
     1
102
RTVSPropertyOp22
 70
     1
102
RTVSPropertyOp23
 70
     1
102
RTVSPropertyOp24
 70
     1
102
RTVSPropertyOp25
 70
     1
102
RTVSPropertyOp26
 70
     1
102
RTVSPropertyOp27
 70
     1
102
RTVSPropertyOp28
 70
     1
102
RTVSPropertyOp29
 70
     1
102
RTVSPropertyOp30
 70
     1
102
RTVSPropertyOp31
 70
     1
102
RTVSPropertyOp32
 70
     1
  0
XRECORD
  5
8231
102
{ACAD_REACTORS
330
8230
102
}
330
8230
100
AcDbXrecord
280
     1
102
RTVSPropertyOp0
 70
     1
102
RTVSPropertyOp1
 70
     1
102
RTVSPropertyOp2
 70
     1
102
RTVSPropertyOp3
 70
     1
102
RTVSPropertyOp4
 70
     1
102
RTVSPropertyOp5
 70
     1
102
RTVSPropertyOp6
 70
     1
102
RTVSPropertyOp7
 70
     1
102
RTVSPropertyOp8
 70
     1
102
RTVSPropertyOp9
 70
     1
102
RTVSPropertyOp10
 70
     1
102
RTVSPropertyOp11
 70
     1
102
RTVSPropertyOp12
 70
     1
102
RTVSPropertyOp13
 70
     1
102
RTVSPropertyOp14
 70
     1
102
RTVSPropertyOp15
 70
     1
102
RTVSPropertyOp16
 70
     1
102
RTVSPropertyOp17
 70
     1
102
RTVSPropertyOp18
 70
     1
102
RTVSPropertyOp19
 70
     1
102
RTVSPropertyOp20
 70
     1
102
RTVSPropertyOp21
 70
     1
102
RTVSPropertyOp22
 70
     1
102
RTVSPropertyOp23
 70
     1
102
RTVSPropertyOp24
 70
     1
102
RTVSPropertyOp25
 70
     1
102
RTVSPropertyOp26
 70
     1
102
RTVSPropertyOp27
 70
     1
102
RTVSPropertyOp28
 70
     1
102
RTVSPropertyOp29
 70
     1
102
RTVSPropertyOp30
 70
     1
102
RTVSPropertyOp31
 70
     1
102
RTVSPropertyOp32
 70
     1
  0
XRECORD
  5
8235
102
{ACAD_REACTORS
330
8234
102
}
330
8234
100
AcDbXrecord
280
     1
102
RTVSPropertyOp0
 70
     1
102
RTVSPropertyOp1
 70
     1
102
RTVSPropertyOp2
 70
     1
102
RTVSPropertyOp3
 70
     1
102
RTVSPropertyOp4
 70
     1
102
RTVSPropertyOp5
 70
     1
102
RTVSPropertyOp6
 70
     1
102
RTVSPropertyOp7
 70
     1
102
RTVSPropertyOp8
 70
     1
102
RTVSPropertyOp9
 70
     1
102
RTVSPropertyOp10
 70
     1
102
RTVSPropertyOp11
 70
     1
102
RTVSPropertyOp12
 70
     1
102
RTVSPropertyOp13
 70
     1
102
RTVSPropertyOp14
 70
     1
102
RTVSPropertyOp15
 70
     1
102
RTVSPropertyOp16
 70
     1
102
RTVSPropertyOp17
 70
     1
102
RTVSPropertyOp18
 70
     1
102
RTVSPropertyOp19
 70
     1
102
RTVSPropertyOp20
 70
     1
102
RTVSPropertyOp21
 70
     1
102
RTVSPropertyOp22
 70
     1
102
RTVSPropertyOp23
 70
     1
102
RTVSPropertyOp24
 70
     1
102
RTVSPropertyOp25
 70
     1
102
RTVSPropertyOp26
 70
     1
102
RTVSPropertyOp27
 70
     1
102
RTVSPropertyOp28
 70
     1
102
RTVSPropertyOp29
 70
     1
102
RTVSPropertyOp30
 70
     1
102
RTVSPropertyOp31
 70
     1
102
RTVSPropertyOp32
 70
     1
  0
XRECORD
  5
824F
102
{ACAD_REACTORS
330
824E
102
}
330
824E
100
AcDbXrecord
280
     1
102
RTVSPropertyOp0
 70
     0
102
RTVSPropertyOp1
 70
     0
102
RTVSPropertyOp2
 70
     0
102
RTVSPropertyOp3
 70
     0
102
RTVSPropertyOp4
 70
     0
102
RTVSPropertyOp5
 70
     0
102
RTVSPropertyOp6
 70
     0
102
RTVSPropertyOp7
 70
     0
102
RTVSPropertyOp8
 70
     0
102
RTVSPropertyOp9
 70
     0
102
RTVSPropertyOp10
 70
     0
102
RTVSPropertyOp11
 70
     0
102
RTVSPropertyOp12
 70
     0
102
RTVSPropertyOp13
 70
     0
102
RTVSPropertyOp14
 70
     2
102
RTVSPropertyOp15
 70
     0
102
RTVSPropertyOp16
 70
     0
102
RTVSPropertyOp17
 70
     0
102
RTVSPropertyOp18
 70
     0
102
RTVSPropertyOp19
 70
     0
102
RTVSPropertyOp20
 70
     0
102
RTVSPropertyOp21
 70
     0
102
RTVSPropertyOp22
 70
     0
102
RTVSPropertyOp23
 70
     0
102
RTVSPropertyOp24
 70
     0
102
RTVSPropertyOp25
 70
     0
102
RTVSPropertyOp26
 70
     0
102
RTVSPropertyOp27
 70
     0
102
RTVSPropertyOp28
 70
     0
102
RTVSPropertyOp29
 70
     0
102
RTVSPropertyOp30
 70
     0
102
RTVSPropertyOp31
 70
     0
102
RTVSPropertyOp32
 70
     0
  0
XRECORD
  5
823D
102
{ACAD_REACTORS
330
823C
102
}
330
823C
100
AcDbXrecord
280
     1
102
RTVSPropertyOp0
 70
     1
102
RTVSPropertyOp1
 70
     1
102
RTVSPropertyOp2
 70
     1
102
RTVSPropertyOp3
 70
     1
102
RTVSPropertyOp4
 70
     1
102
RTVSPropertyOp5
 70
     1
102
RTVSPropertyOp6
 70
     1
102
RTVSPropertyOp7
 70
     1
102
RTVSPropertyOp8
 70
     1
102
RTVSPropertyOp9
 70
     1
102
RTVSPropertyOp10
 70
     1
102
RTVSPropertyOp11
 70
     1
102
RTVSPropertyOp12
 70
     1
102
RTVSPropertyOp13
 70
     1
102
RTVSPropertyOp14
 70
     1
102
RTVSPropertyOp15
 70
     1
102
RTVSPropertyOp16
 70
     1
102
RTVSPropertyOp17
 70
     1
102
RTVSPropertyOp18
 70
     1
102
RTVSPropertyOp19
 70
     1
102
RTVSPropertyOp20
 70
     1
102
RTVSPropertyOp21
 70
     1
102
RTVSPropertyOp22
 70
     1
102
RTVSPropertyOp23
 70
     1
102
RTVSPropertyOp24
 70
     1
102
RTVSPropertyOp25
 70
     1
102
RTVSPropertyOp26
 70
     1
102
RTVSPropertyOp27
 70
     1
102
RTVSPropertyOp28
 70
     1
102
RTVSPropertyOp29
 70
     1
102
RTVSPropertyOp30
 70
     1
102
RTVSPropertyOp31
 70
     1
102
RTVSPropertyOp32
 70
     1
  0
XRECORD
  5
8221
102
{ACAD_REACTORS
330
8220
102
}
330
8220
100
AcDbXrecord
280
     1
102
RTVSPropertyOp0
 70
     1
102
RTVSPropertyOp1
 70
     1
102
RTVSPropertyOp2
 70
     1
102
RTVSPropertyOp3
 70
     1
102
RTVSPropertyOp4
 70
     1
102
RTVSPropertyOp5
 70
     1
102
RTVSPropertyOp6
 70
     1
102
RTVSPropertyOp7
 70
     1
102
RTVSPropertyOp8
 70
     1
102
RTVSPropertyOp9
 70
     1
102
RTVSPropertyOp10
 70
     1
102
RTVSPropertyOp11
 70
     1
102
RTVSPropertyOp12
 70
     1
102
RTVSPropertyOp13
 70
     1
102
RTVSPropertyOp14
 70
     1
102
RTVSPropertyOp15
 70
     1
102
RTVSPropertyOp16
 70
     1
102
RTVSPropertyOp17
 70
     1
102
RTVSPropertyOp18
 70
     1
102
RTVSPropertyOp19
 70
     1
102
RTVSPropertyOp20
 70
     1
102
RTVSPropertyOp21
 70
     1
102
RTVSPropertyOp22
 70
     1
102
RTVSPropertyOp23
 70
     1
102
RTVSPropertyOp24
 70
     1
102
RTVSPropertyOp25
 70
     1
102
RTVSPropertyOp26
 70
     1
102
RTVSPropertyOp27
 70
     1
102
RTVSPropertyOp28
 70
     1
102
RTVSPropertyOp29
 70
     1
102
RTVSPropertyOp30
 70
     1
102
RTVSPropertyOp31
 70
     1
102
RTVSPropertyOp32
 70
     1
  0
XRECORD
  5
8223
102
{ACAD_REACTORS
330
8222
102
}
330
8222
100
AcDbXrecord
280
     1
102
RTVSPropertyOp0
 70
     1
102
RTVSPropertyOp1
 70
     1
102
RTVSPropertyOp2
 70
     1
102
RTVSPropertyOp3
 70
     1
102
RTVSPropertyOp4
 70
     1
102
RTVSPropertyOp5
 70
     1
102
RTVSPropertyOp6
 70
     1
102
RTVSPropertyOp7
 70
     1
102
RTVSPropertyOp8
 70
     1
102
RTVSPropertyOp9
 70
     1
102
RTVSPropertyOp10
 70
     1
102
RTVSPropertyOp11
 70
     1
102
RTVSPropertyOp12
 70
     1
102
RTVSPropertyOp13
 70
     1
102
RTVSPropertyOp14
 70
     1
102
RTVSPropertyOp15
 70
     1
102
RTVSPropertyOp16
 70
     1
102
RTVSPropertyOp17
 70
     1
102
RTVSPropertyOp18
 70
     1
102
RTVSPropertyOp19
 70
     1
102
RTVSPropertyOp20
 70
     1
102
RTVSPropertyOp21
 70
     1
102
RTVSPropertyOp22
 70
     1
102
RTVSPropertyOp23
 70
     1
102
RTVSPropertyOp24
 70
     1
102
RTVSPropertyOp25
 70
     1
102
RTVSPropertyOp26
 70
     1
102
RTVSPropertyOp27
 70
     1
102
RTVSPropertyOp28
 70
     1
102
RTVSPropertyOp29
 70
     1
102
RTVSPropertyOp30
 70
     1
102
RTVSPropertyOp31
 70
     1
102
RTVSPropertyOp32
 70
     1
  0
XRECORD
  5
8225
102
{ACAD_REACTORS
330
8224
102
}
330
8224
100
AcDbXrecord
280
     1
102
RTVSPropertyOp0
 70
     1
102
RTVSPropertyOp1
 70
     1
102
RTVSPropertyOp2
 70
     1
102
RTVSPropertyOp3
 70
     1
102
RTVSPropertyOp4
 70
     1
102
RTVSPropertyOp5
 70
     1
102
RTVSPropertyOp6
 70
     1
102
RTVSPropertyOp7
 70
     1
102
RTVSPropertyOp8
 70
     1
102
RTVSPropertyOp9
 70
     1
102
RTVSPropertyOp10
 70
     1
102
RTVSPropertyOp11
 70
     1
102
RTVSPropertyOp12
 70
     1
102
RTVSPropertyOp13
 70
     1
102
RTVSPropertyOp14
 70
     1
102
RTVSPropertyOp15
 70
     1
102
RTVSPropertyOp16
 70
     1
102
RTVSPropertyOp17
 70
     1
102
RTVSPropertyOp18
 70
     1
102
RTVSPropertyOp19
 70
     1
102
RTVSPropertyOp20
 70
     1
102
RTVSPropertyOp21
 70
     1
102
RTVSPropertyOp22
 70
     1
102
RTVSPropertyOp23
 70
     1
102
RTVSPropertyOp24
 70
     1
102
RTVSPropertyOp25
 70
     1
102
RTVSPropertyOp26
 70
     1
102
RTVSPropertyOp27
 70
     1
102
RTVSPropertyOp28
 70
     1
102
RTVSPropertyOp29
 70
     1
102
RTVSPropertyOp30
 70
     1
102
RTVSPropertyOp31
 70
     1
102
RTVSPropertyOp32
 70
     1
  0
XRECORD
  5
8227
102
{ACAD_REACTORS
330
8226
102
}
330
8226
100
AcDbXrecord
280
     1
102
RTVSPropertyOp0
 70
     1
102
RTVSPropertyOp1
 70
     1
102
RTVSPropertyOp2
 70
     1
102
RTVSPropertyOp3
 70
     1
102
RTVSPropertyOp4
 70
     1
102
RTVSPropertyOp5
 70
     1
102
RTVSPropertyOp6
 70
     1
102
RTVSPropertyOp7
 70
     1
102
RTVSPropertyOp8
 70
     1
102
RTVSPropertyOp9
 70
     1
102
RTVSPropertyOp10
 70
     1
102
RTVSPropertyOp11
 70
     1
102
RTVSPropertyOp12
 70
     1
102
RTVSPropertyOp13
 70
     1
102
RTVSPropertyOp14
 70
     1
102
RTVSPropertyOp15
 70
     1
102
RTVSPropertyOp16
 70
     1
102
RTVSPropertyOp17
 70
     1
102
RTVSPropertyOp18
 70
     1
102
RTVSPropertyOp19
 70
     1
102
RTVSPropertyOp20
 70
     1
102
RTVSPropertyOp21
 70
     1
102
RTVSPropertyOp22
 70
     1
102
RTVSPropertyOp23
 70
     1
102
RTVSPropertyOp24
 70
     1
102
RTVSPropertyOp25
 70
     1
102
RTVSPropertyOp26
 70
     1
102
RTVSPropertyOp27
 70
     1
102
RTVSPropertyOp28
 70
     1
102
RTVSPropertyOp29
 70
     1
102
RTVSPropertyOp30
 70
     1
102
RTVSPropertyOp31
 70
     1
102
RTVSPropertyOp32
 70
     1
  0
XRECORD
  5
822F
102
{ACAD_REACTORS
330
822E
102
}
330
822E
100
AcDbXrecord
280
     1
102
RTVSPropertyOp0
 70
     1
102
RTVSPropertyOp1
 70
     1
102
RTVSPropertyOp2
 70
     1
102
RTVSPropertyOp3
 70
     1
102
RTVSPropertyOp4
 70
     1
102
RTVSPropertyOp5
 70
     1
102
RTVSPropertyOp6
 70
     1
102
RTVSPropertyOp7
 70
     1
102
RTVSPropertyOp8
 70
     1
102
RTVSPropertyOp9
 70
     1
102
RTVSPropertyOp10
 70
     1
102
RTVSPropertyOp11
 70
     1
102
RTVSPropertyOp12
 70
     1
102
RTVSPropertyOp13
 70
     1
102
RTVSPropertyOp14
 70
     1
102
RTVSPropertyOp15
 70
     1
102
RTVSPropertyOp16
 70
     1
102
RTVSPropertyOp17
 70
     1
102
RTVSPropertyOp18
 70
     1
102
RTVSPropertyOp19
 70
     1
102
RTVSPropertyOp20
 70
     1
102
RTVSPropertyOp21
 70
     1
102
RTVSPropertyOp22
 70
     1
102
RTVSPropertyOp23
 70
     1
102
RTVSPropertyOp24
 70
     1
102
RTVSPropertyOp25
 70
     1
102
RTVSPropertyOp26
 70
     1
102
RTVSPropertyOp27
 70
     1
102
RTVSPropertyOp28
 70
     1
102
RTVSPropertyOp29
 70
     1
102
RTVSPropertyOp30
 70
     1
102
RTVSPropertyOp31
 70
     1
102
RTVSPropertyOp32
 70
     1
  0
XRECORD
  5
824B
102
{ACAD_REACTORS
330
824A
102
}
330
824A
100
AcDbXrecord
280
     1
102
RTVSPropertyOp0
 70
     0
102
RTVSPropertyOp1
 70
     0
102
RTVSPropertyOp2
 70
     0
102
RTVSPropertyOp3
 70
     0
102
RTVSPropertyOp4
 70
     0
102
RTVSPropertyOp5
 70
     0
102
RTVSPropertyOp6
 70
     0
102
RTVSPropertyOp7
 70
     0
102
RTVSPropertyOp8
 70
     0
102
RTVSPropertyOp9
 70
     0
102
RTVSPropertyOp10
 70
     0
102
RTVSPropertyOp11
 70
     0
102
RTVSPropertyOp12
 70
     0
102
RTVSPropertyOp13
 70
     0
102
RTVSPropertyOp14
 70
     2
102
RTVSPropertyOp15
 70
     0
102
RTVSPropertyOp16
 70
     0
102
RTVSPropertyOp17
 70
     0
102
RTVSPropertyOp18
 70
     0
102
RTVSPropertyOp19
 70
     0
102
RTVSPropertyOp20
 70
     0
102
RTVSPropertyOp21
 70
     0
102
RTVSPropertyOp22
 70
     0
102
RTVSPropertyOp23
 70
     0
102
RTVSPropertyOp24
 70
     0
102
RTVSPropertyOp25
 70
     0
102
RTVSPropertyOp26
 70
     0
102
RTVSPropertyOp27
 70
     0
102
RTVSPropertyOp28
 70
     0
102
RTVSPropertyOp29
 70
     0
102
RTVSPropertyOp30
 70
     0
102
RTVSPropertyOp31
 70
     0
102
RTVSPropertyOp32
 70
     0
  0
XRECORD
  5
823B
102
{ACAD_REACTORS
330
823A
102
}
330
823A
100
AcDbXrecord
280
     1
102
RTVSPropertyOp0
 70
     1
102
RTVSPropertyOp1
 70
     1
102
RTVSPropertyOp2
 70
     1
102
RTVSPropertyOp3
 70
     1
102
RTVSPropertyOp4
 70
     1
102
RTVSPropertyOp5
 70
     1
102
RTVSPropertyOp6
 70
     1
102
RTVSPropertyOp7
 70
     1
102
RTVSPropertyOp8
 70
     1
102
RTVSPropertyOp9
 70
     1
102
RTVSPropertyOp10
 70
     1
102
RTVSPropertyOp11
 70
     1
102
RTVSPropertyOp12
 70
     1
102
RTVSPropertyOp13
 70
     1
102
RTVSPropertyOp14
 70
     1
102
RTVSPropertyOp15
 70
     1
102
RTVSPropertyOp16
 70
     1
102
RTVSPropertyOp17
 70
     1
102
RTVSPropertyOp18
 70
     1
102
RTVSPropertyOp19
 70
     1
102
RTVSPropertyOp20
 70
     1
102
RTVSPropertyOp21
 70
     1
102
RTVSPropertyOp22
 70
     1
102
RTVSPropertyOp23
 70
     1
102
RTVSPropertyOp24
 70
     1
102
RTVSPropertyOp25
 70
     1
102
RTVSPropertyOp26
 70
     1
102
RTVSPropertyOp27
 70
     1
102
RTVSPropertyOp28
 70
     1
102
RTVSPropertyOp29
 70
     1
102
RTVSPropertyOp30
 70
     1
102
RTVSPropertyOp31
 70
     1
102
RTVSPropertyOp32
 70
     1
  0
XRECORD
  5
824D
102
{ACAD_REACTORS
330
824C
102
}
330
824C
100
AcDbXrecord
280
     1
102
RTVSPropertyOp0
 70
     0
102
RTVSPropertyOp1
 70
     0
102
RTVSPropertyOp2
 70
     0
102
RTVSPropertyOp3
 70
     0
102
RTVSPropertyOp4
 70
     0
102
RTVSPropertyOp5
 70
     0
102
RTVSPropertyOp6
 70
     0
102
RTVSPropertyOp7
 70
     0
102
RTVSPropertyOp8
 70
     0
102
RTVSPropertyOp9
 70
     0
102
RTVSPropertyOp10
 70
     0
102
RTVSPropertyOp11
 70
     0
102
RTVSPropertyOp12
 70
     0
102
RTVSPropertyOp13
 70
     0
102
RTVSPropertyOp14
 70
     2
102
RTVSPropertyOp15
 70
     0
102
RTVSPropertyOp16
 70
     0
102
RTVSPropertyOp17
 70
     0
102
RTVSPropertyOp18
 70
     0
102
RTVSPropertyOp19
 70
     0
102
RTVSPropertyOp20
 70
     0
102
RTVSPropertyOp21
 70
     0
102
RTVSPropertyOp22
 70
     0
102
RTVSPropertyOp23
 70
     0
102
RTVSPropertyOp24
 70
     0
102
RTVSPropertyOp25
 70
     0
102
RTVSPropertyOp26
 70
     0
102
RTVSPropertyOp27
 70
     0
102
RTVSPropertyOp28
 70
     0
102
RTVSPropertyOp29
 70
     0
102
RTVSPropertyOp30
 70
     0
102
RTVSPropertyOp31
 70
     0
102
RTVSPropertyOp32
 70
     0
  0
XRECORD
  5
8233
102
{ACAD_REACTORS
330
8232
102
}
330
8232
100
AcDbXrecord
280
     1
102
RTVSPropertyOp0
 70
     1
102
RTVSPropertyOp1
 70
     1
102
RTVSPropertyOp2
 70
     1
102
RTVSPropertyOp3
 70
     1
102
RTVSPropertyOp4
 70
     1
102
RTVSPropertyOp5
 70
     1
102
RTVSPropertyOp6
 70
     1
102
RTVSPropertyOp7
 70
     1
102
RTVSPropertyOp8
 70
     1
102
RTVSPropertyOp9
 70
     1
102
RTVSPropertyOp10
 70
     1
102
RTVSPropertyOp11
 70
     1
102
RTVSPropertyOp12
 70
     1
102
RTVSPropertyOp13
 70
     1
102
RTVSPropertyOp14
 70
     1
102
RTVSPropertyOp15
 70
     1
102
RTVSPropertyOp16
 70
     1
102
RTVSPropertyOp17
 70
     1
102
RTVSPropertyOp18
 70
     1
102
RTVSPropertyOp19
 70
     1
102
RTVSPropertyOp20
 70
     1
102
RTVSPropertyOp21
 70
     1
102
RTVSPropertyOp22
 70
     1
102
RTVSPropertyOp23
 70
     1
102
RTVSPropertyOp24
 70
     1
102
RTVSPropertyOp25
 70
     1
102
RTVSPropertyOp26
 70
     1
102
RTVSPropertyOp27
 70
     1
102
RTVSPropertyOp28
 70
     1
102
RTVSPropertyOp29
 70
     1
102
RTVSPropertyOp30
 70
     1
102
RTVSPropertyOp31
 70
     1
102
RTVSPropertyOp32
 70
     1
  0
XRECORD
  5
8249
102
{ACAD_REACTORS
330
8248
102
}
330
8248
100
AcDbXrecord
280
     1
102
RTVSPropertyOp0
 70
     1
102
RTVSPropertyOp1
 70
     1
102
RTVSPropertyOp2
 70
     1
102
RTVSPropertyOp3
 70
     1
102
RTVSPropertyOp4
 70
     1
102
RTVSPropertyOp5
 70
     1
102
RTVSPropertyOp6
 70
     1
102
RTVSPropertyOp7
 70
     1
102
RTVSPropertyOp8
 70
     1
102
RTVSPropertyOp9
 70
     1
102
RTVSPropertyOp10
 70
     1
102
RTVSPropertyOp11
 70
     1
102
RTVSPropertyOp12
 70
     1
102
RTVSPropertyOp13
 70
     1
102
RTVSPropertyOp14
 70
     1
102
RTVSPropertyOp15
 70
     1
102
RTVSPropertyOp16
 70
     1
102
RTVSPropertyOp17
 70
     1
102
RTVSPropertyOp18
 70
     1
102
RTVSPropertyOp19
 70
     1
102
RTVSPropertyOp20
 70
     1
102
RTVSPropertyOp21
 70
     1
102
RTVSPropertyOp22
 70
     1
102
RTVSPropertyOp23
 70
     1
102
RTVSPropertyOp24
 70
     1
102
RTVSPropertyOp25
 70
     1
102
RTVSPropertyOp26
 70
     1
102
RTVSPropertyOp27
 70
     1
102
RTVSPropertyOp28
 70
     1
102
RTVSPropertyOp29
 70
     1
102
RTVSPropertyOp30
 70
     1
102
RTVSPropertyOp31
 70
     1
102
RTVSPropertyOp32
 70
     1
  0
XRECORD
  5
8247
102
{ACAD_REACTORS
330
8246
102
}
330
8246
100
AcDbXrecord
280
     1
102
RTVSPropertyOp0
 70
     1
102
RTVSPropertyOp1
 70
     1
102
RTVSPropertyOp2
 70
     1
102
RTVSPropertyOp3
 70
     1
102
RTVSPropertyOp4
 70
     1
102
RTVSPropertyOp5
 70
     1
102
RTVSPropertyOp6
 70
     1
102
RTVSPropertyOp7
 70
     1
102
RTVSPropertyOp8
 70
     1
102
RTVSPropertyOp9
 70
     1
102
RTVSPropertyOp10
 70
     1
102
RTVSPropertyOp11
 70
     1
102
RTVSPropertyOp12
 70
     1
102
RTVSPropertyOp13
 70
     1
102
RTVSPropertyOp14
 70
     1
102
RTVSPropertyOp15
 70
     1
102
RTVSPropertyOp16
 70
     1
102
RTVSPropertyOp17
 70
     1
102
RTVSPropertyOp18
 70
     1
102
RTVSPropertyOp19
 70
     1
102
RTVSPropertyOp20
 70
     1
102
RTVSPropertyOp21
 70
     1
102
RTVSPropertyOp22
 70
     1
102
RTVSPropertyOp23
 70
     1
102
RTVSPropertyOp24
 70
     1
102
RTVSPropertyOp25
 70
     1
102
RTVSPropertyOp26
 70
     1
102
RTVSPropertyOp27
 70
     1
102
RTVSPropertyOp28
 70
     1
102
RTVSPropertyOp29
 70
     1
102
RTVSPropertyOp30
 70
     1
102
RTVSPropertyOp31
 70
     1
102
RTVSPropertyOp32
 70
     1
  0
XRECORD
  5
8241
102
{ACAD_REACTORS
330
8240
102
}
330
8240
100
AcDbXrecord
280
     1
102
RTVSPropertyOp0
 70
     1
102
RTVSPropertyOp1
 70
     1
102
RTVSPropertyOp2
 70
     1
102
RTVSPropertyOp3
 70
     1
102
RTVSPropertyOp4
 70
     1
102
RTVSPropertyOp5
 70
     1
102
RTVSPropertyOp6
 70
     1
102
RTVSPropertyOp7
 70
     1
102
RTVSPropertyOp8
 70
     1
102
RTVSPropertyOp9
 70
     1
102
RTVSPropertyOp10
 70
     1
102
RTVSPropertyOp11
 70
     1
102
RTVSPropertyOp12
 70
     1
102
RTVSPropertyOp13
 70
     1
102
RTVSPropertyOp14
 70
     1
102
RTVSPropertyOp15
 70
     1
102
RTVSPropertyOp16
 70
     1
102
RTVSPropertyOp17
 70
     1
102
RTVSPropertyOp18
 70
     1
102
RTVSPropertyOp19
 70
     1
102
RTVSPropertyOp20
 70
     1
102
RTVSPropertyOp21
 70
     1
102
RTVSPropertyOp22
 70
     1
102
RTVSPropertyOp23
 70
     1
102
RTVSPropertyOp24
 70
     1
102
RTVSPropertyOp25
 70
     1
102
RTVSPropertyOp26
 70
     1
102
RTVSPropertyOp27
 70
     1
102
RTVSPropertyOp28
 70
     1
102
RTVSPropertyOp29
 70
     1
102
RTVSPropertyOp30
 70
     1
102
RTVSPropertyOp31
 70
     1
102
RTVSPropertyOp32
 70
     1
  0
XRECORD
  5
8243
102
{ACAD_REACTORS
330
8242
102
}
330
8242
100
AcDbXrecord
280
     1
102
RTVSPropertyOp0
 70
     1
102
RTVSPropertyOp1
 70
     1
102
RTVSPropertyOp2
 70
     1
102
RTVSPropertyOp3
 70
     1
102
RTVSPropertyOp4
 70
     1
102
RTVSPropertyOp5
 70
     1
102
RTVSPropertyOp6
 70
     1
102
RTVSPropertyOp7
 70
     1
102
RTVSPropertyOp8
 70
     1
102
RTVSPropertyOp9
 70
     1
102
RTVSPropertyOp10
 70
     1
102
RTVSPropertyOp11
 70
     1
102
RTVSPropertyOp12
 70
     1
102
RTVSPropertyOp13
 70
     1
102
RTVSPropertyOp14
 70
     1
102
RTVSPropertyOp15
 70
     1
102
RTVSPropertyOp16
 70
     1
102
RTVSPropertyOp17
 70
     1
102
RTVSPropertyOp18
 70
     1
102
RTVSPropertyOp19
 70
     1
102
RTVSPropertyOp20
 70
     1
102
RTVSPropertyOp21
 70
     1
102
RTVSPropertyOp22
 70
     1
102
RTVSPropertyOp23
 70
     1
102
RTVSPropertyOp24
 70
     1
102
RTVSPropertyOp25
 70
     1
102
RTVSPropertyOp26
 70
     1
102
RTVSPropertyOp27
 70
     1
102
RTVSPropertyOp28
 70
     1
102
RTVSPropertyOp29
 70
     1
102
RTVSPropertyOp30
 70
     1
102
RTVSPropertyOp31
 70
     1
102
RTVSPropertyOp32
 70
     1
  0
XRECORD
  5
8239
102
{ACAD_REACTORS
330
8238
102
}
330
8238
100
AcDbXrecord
280
     1
102
RTVSPropertyOp0
 70
     1
102
RTVSPropertyOp1
 70
     1
102
RTVSPropertyOp2
 70
     1
102
RTVSPropertyOp3
 70
     1
102
RTVSPropertyOp4
 70
     1
102
RTVSPropertyOp5
 70
     1
102
RTVSPropertyOp6
 70
     1
102
RTVSPropertyOp7
 70
     1
102
RTVSPropertyOp8
 70
     1
102
RTVSPropertyOp9
 70
     1
102
RTVSPropertyOp10
 70
     1
102
RTVSPropertyOp11
 70
     1
102
RTVSPropertyOp12
 70
     1
102
RTVSPropertyOp13
 70
     1
102
RTVSPropertyOp14
 70
     1
102
RTVSPropertyOp15
 70
     1
102
RTVSPropertyOp16
 70
     1
102
RTVSPropertyOp17
 70
     1
102
RTVSPropertyOp18
 70
     1
102
RTVSPropertyOp19
 70
     1
102
RTVSPropertyOp20
 70
     1
102
RTVSPropertyOp21
 70
     1
102
RTVSPropertyOp22
 70
     1
102
RTVSPropertyOp23
 70
     1
102
RTVSPropertyOp24
 70
     1
102
RTVSPropertyOp25
 70
     1
102
RTVSPropertyOp26
 70
     1
102
RTVSPropertyOp27
 70
     1
102
RTVSPropertyOp28
 70
     1
102
RTVSPropertyOp29
 70
     1
102
RTVSPropertyOp30
 70
     1
102
RTVSPropertyOp31
 70
     1
102
RTVSPropertyOp32
 70
     1
  0
XRECORD
  5
822D
102
{ACAD_REACTORS
330
822C
102
}
330
822C
100
AcDbXrecord
280
     1
102
RTVSPropertyOp0
 70
     1
102
RTVSPropertyOp1
 70
     1
102
RTVSPropertyOp2
 70
     1
102
RTVSPropertyOp3
 70
     1
102
RTVSPropertyOp4
 70
     1
102
RTVSPropertyOp5
 70
     1
102
RTVSPropertyOp6
 70
     1
102
RTVSPropertyOp7
 70
     1
102
RTVSPropertyOp8
 70
     1
102
RTVSPropertyOp9
 70
     1
102
RTVSPropertyOp10
 70
     1
102
RTVSPropertyOp11
 70
     1
102
RTVSPropertyOp12
 70
     1
102
RTVSPropertyOp13
 70
     1
102
RTVSPropertyOp14
 70
     1
102
RTVSPropertyOp15
 70
     1
102
RTVSPropertyOp16
 70
     1
102
RTVSPropertyOp17
 70
     1
102
RTVSPropertyOp18
 70
     1
102
RTVSPropertyOp19
 70
     1
102
RTVSPropertyOp20
 70
     1
102
RTVSPropertyOp21
 70
     1
102
RTVSPropertyOp22
 70
     1
102
RTVSPropertyOp23
 70
     1
102
RTVSPropertyOp24
 70
     1
102
RTVSPropertyOp25
 70
     1
102
RTVSPropertyOp26
 70
     1
102
RTVSPropertyOp27
 70
     1
102
RTVSPropertyOp28
 70
     1
102
RTVSPropertyOp29
 70
     1
102
RTVSPropertyOp30
 70
     1
102
RTVSPropertyOp31
 70
     1
102
RTVSPropertyOp32
 70
     1
  0
XRECORD
  5
8245
102
{ACAD_REACTORS
330
8244
102
}
330
8244
100
AcDbXrecord
280
     1
102
RTVSPropertyOp0
 70
     1
102
RTVSPropertyOp1
 70
     1
102
RTVSPropertyOp2
 70
     1
102
RTVSPropertyOp3
 70
     1
102
RTVSPropertyOp4
 70
     1
102
RTVSPropertyOp5
 70
     1
102
RTVSPropertyOp6
 70
     1
102
RTVSPropertyOp7
 70
     1
102
RTVSPropertyOp8
 70
     1
102
RTVSPropertyOp9
 70
     1
102
RTVSPropertyOp10
 70
     1
102
RTVSPropertyOp11
 70
     1
102
RTVSPropertyOp12
 70
     1
102
RTVSPropertyOp13
 70
     1
102
RTVSPropertyOp14
 70
     1
102
RTVSPropertyOp15
 70
     1
102
RTVSPropertyOp16
 70
     1
102
RTVSPropertyOp17
 70
     1
102
RTVSPropertyOp18
 70
     1
102
RTVSPropertyOp19
 70
     1
102
RTVSPropertyOp20
 70
     1
102
RTVSPropertyOp21
 70
     1
102
RTVSPropertyOp22
 70
     1
102
RTVSPropertyOp23
 70
     1
102
RTVSPropertyOp24
 70
     1
102
RTVSPropertyOp25
 70
     1
102
RTVSPropertyOp26
 70
     1
102
RTVSPropertyOp27
 70
     1
102
RTVSPropertyOp28
 70
     1
102
RTVSPropertyOp29
 70
     1
102
RTVSPropertyOp30
 70
     1
102
RTVSPropertyOp31
 70
     1
102
RTVSPropertyOp32
 70
     1
  0
ENDSEC
  0
EOF
