  0
SECTION
  2
HEADER
  9
$ACADVER
  1
AC1015
  9
$ACADMAINTVER
 70
    20
  9
$DWGCODEPAGE
  3
ANSI_932
  9
$INSBASE
 10
0.0
 20
0.0
 30
0.0
  9
$EXTMIN
 10
6.999999743487023
 20
7.000000339449684
 30
0.0
  9
$EXTMAX
 10
405.7999997434871
 20
282.8000003394497
 30
0.0
  9
$LIMMIN
 10
0.0
 20
0.0
  9
$LIMMAX
 10
420.0
 20
297.0
  9
$ORTHOMODE
 70
     0
  9
$REGENMODE
 70
     1
  9
$FILLMODE
 70
     1
  9
$QTEXTMODE
 70
     0
  9
$MIRRTEXT
 70
     1
  9
$LTSCALE
 40
1.0
  9
$ATTMODE
 70
     1
  9
$TEXTSIZE
 40
2.5
  9
$TRACEWID
 40
1.0
  9
$TEXTSTYLE
  7
MSPｺﾞｼｯｸ
  9
$CLAYER
  8
SUNPOU
  9
$CELTYPE
  6
BYLAYER
  9
$CECOLOR
 62
   256
  9
$CELTSCALE
 40
1.0
  9
$DISPSILH
 70
     0
  9
$DIMSCALE
 40
1.0
  9
$DIMASZ
 40
3.0
  9
$DIMEXO
 40
1.5
  9
$DIMDLI
 40
9.0
  9
$DIMRND
 40
0.0
  9
$DIMDLE
 40
0.0
  9
$DIMEXE
 40
1.5
  9
$DIMTP
 40
0.0
  9
$DIMTM
 40
0.0
  9
$DIMTXT
 40
3.5
  9
$DIMCEN
 40
0.0
  9
$DIMTSZ
 40
0.0
  9
$DIMTOL
 70
     0
  9
$DIMLIM
 70
     0
  9
$DIMTIH
 70
     0
  9
$DIMTOH
 70
     0
  9
$DIMSE1
 70
     0
  9
$DIMSE2
 70
     0
  9
$DIMTAD
 70
     3
  9
$DIMZIN
 70
     0
  9
$DIMBLK
  1
OPEN
  9
$DIMASO
 70
     1
  9
$DIMSHO
 70
     1
  9
$DIMPOST
  1

  9
$DIMAPOST
  1

  9
$DIMALT
 70
     0
  9
$DIMALTD
 70
     2
  9
$DIMALTF
 40
25.4
  9
$DIMLFAC
 40
1.0
  9
$DIMTOFL
 70
     0
  9
$DIMTVP
 40
0.0
  9
$DIMTIX
 70
     0
  9
$DIMSOXD
 70
     0
  9
$DIMSAH
 70
     0
  9
$DIMBLK1
  1

  9
$DIMBLK2
  1

  9
$DIMSTYLE
  2
STANDARD
  9
$DIMCLRD
 70
   256
  9
$DIMCLRE
 70
   256
  9
$DIMCLRT
 70
   256
  9
$DIMTFAC
 40
1.0
  9
$DIMGAP
 40
1.5
  9
$DIMJUST
 70
     0
  9
$DIMSD1
 70
     0
  9
$DIMSD2
 70
     0
  9
$DIMTOLJ
 70
     1
  9
$DIMTZIN
 70
     0
  9
$DIMALTZ
 70
     0
  9
$DIMALTTZ
 70
     0
  9
$DIMUPT
 70
     0
  9
$DIMDEC
 70
     0
  9
$DIMTDEC
 70
     0
  9
$DIMALTU
 70
     2
  9
$DIMALTTD
 70
     2
  9
$DIMTXSTY
  7
STANDARD
  9
$DIMAUNIT
 70
     0
  9
$DIMADEC
 70
     0
  9
$DIMALTRND
 40
0.0
  9
$DIMAZIN
 70
     0
  9
$DIMDSEP
 70
    46
  9
$DIMATFIT
 70
     3
  9
$DIMFRAC
 70
     0
  9
$DIMLDRBLK
  1
OPEN
  9
$DIMLUNIT
 70
     2
  9
$DIMLWD
 70
    -1
  9
$DIMLWE
 70
    -1
  9
$DIMTMOVE
 70
     0
  9
$LUNITS
 70
     2
  9
$LUPREC
 70
     4
  9
$SKETCHINC
 40
1.0
  9
$FILLETRAD
 40
1.0
  9
$AUNITS
 70
     0
  9
$AUPREC
 70
     0
  9
$MENU
  1
.
  9
$ELEVATION
 40
0.0
  9
$PELEVATION
 40
0.0
  9
$THICKNESS
 40
0.0
  9
$LIMCHECK
 70
     0
  9
$CHAMFERA
 40
10.0
  9
$CHAMFERB
 40
10.0
  9
$CHAMFERC
 40
20.0
  9
$CHAMFERD
 40
0.0
  9
$SKPOLY
 70
     0
  9
$TDCREATE
 40
2451204.541313195
  9
$TDUCREATE
 40
2451204.166313195
  9
$TDUPDATE
 40
2459167.575280915
  9
$TDUUPDATE
 40
2459167.200280915
  9
$TDINDWG
 40
0.2895801157
  9
$TDUSRTIMER
 40
0.2895801157
  9
$USRTIMER
 70
     1
  9
$ANGBASE
 50
0.0
  9
$ANGDIR
 70
     0
  9
$PDMODE
 70
     0
  9
$PDSIZE
 40
0.0
  9
$PLINEWID
 40
0.0
  9
$SPLFRAME
 70
     0
  9
$SPLINETYPE
 70
     6
  9
$SPLINESEGS
 70
     8
  9
$HANDSEED
  5
5AB9
  9
$SURFTAB1
 70
     6
  9
$SURFTAB2
 70
     6
  9
$SURFTYPE
 70
     6
  9
$SURFU
 70
     6
  9
$SURFV
 70
     6
  9
$UCSBASE
  2

  9
$UCSNAME
  2

  9
$UCSORG
 10
0.0
 20
0.0
 30
0.0
  9
$UCSXDIR
 10
1.0
 20
0.0
 30
0.0
  9
$UCSYDIR
 10
0.0
 20
1.0
 30
0.0
  9
$UCSORTHOREF
  2

  9
$UCSORTHOVIEW
 70
     0
  9
$UCSORGTOP
 10
0.0
 20
0.0
 30
0.0
  9
$UCSORGBOTTOM
 10
0.0
 20
0.0
 30
0.0
  9
$UCSORGLEFT
 10
0.0
 20
0.0
 30
0.0
  9
$UCSORGRIGHT
 10
0.0
 20
0.0
 30
0.0
  9
$UCSORGFRONT
 10
0.0
 20
0.0
 30
0.0
  9
$UCSORGBACK
 10
0.0
 20
0.0
 30
0.0
  9
$PUCSBASE
  2

  9
$PUCSNAME
  2

  9
$PUCSORG
 10
0.0
 20
0.0
 30
0.0
  9
$PUCSXDIR
 10
1.0
 20
0.0
 30
0.0
  9
$PUCSYDIR
 10
0.0
 20
1.0
 30
0.0
  9
$PUCSORTHOREF
  2

  9
$PUCSORTHOVIEW
 70
     0
  9
$PUCSORGTOP
 10
0.0
 20
0.0
 30
0.0
  9
$PUCSORGBOTTOM
 10
0.0
 20
0.0
 30
0.0
  9
$PUCSORGLEFT
 10
0.0
 20
0.0
 30
0.0
  9
$PUCSORGRIGHT
 10
0.0
 20
0.0
 30
0.0
  9
$PUCSORGFRONT
 10
0.0
 20
0.0
 30
0.0
  9
$PUCSORGBACK
 10
0.0
 20
0.0
 30
0.0
  9
$USERI1
 70
     0
  9
$USERI2
 70
     0
  9
$USERI3
 70
     0
  9
$USERI4
 70
     0
  9
$USERI5
 70
     0
  9
$USERR1
 40
0.0
  9
$USERR2
 40
0.0
  9
$USERR3
 40
0.0
  9
$USERR4
 40
0.0
  9
$USERR5
 40
0.0
  9
$WORLDVIEW
 70
     1
  9
$SHADEDGE
 70
     3
  9
$SHADEDIF
 70
    70
  9
$TILEMODE
 70
     0
  9
$MAXACTVP
 70
    16
  9
$PINSBASE
 10
0.0
 20
0.0
 30
0.0
  9
$PLIMCHECK
 70
     0
  9
$PEXTMIN
 10
0.0
 20
-7.174892058061232
 30
0.0
  9
$PEXTMAX
 10
429.6741674467334
 20
297.0
 30
0.0
  9
$PLIMMIN
 10
-4.758032637803543
 20
-11.93729586240353
  9
$PLIMMAX
 10
439.2060895346737
 20
301.7543030635148
  9
$UNITMODE
 70
     0
  9
$VISRETAIN
 70
     0
  9
$PLINEGEN
 70
     0
  9
$PSLTSCALE
 70
     1
  9
$TREEDEPTH
 70
  3020
  9
$CMLSTYLE
  2
STANDARD
  9
$CMLJUST
 70
     0
  9
$CMLSCALE
 40
1.0
  9
$PROXYGRAPHICS
 70
     1
  9
$MEASUREMENT
 70
     1
  9
$CELWEIGHT
370
    -1
  9
$ENDCAPS
280
     0
  9
$JOINSTYLE
280
     0
  9
$LWDISPLAY
290
     0
  9
$INSUNITS
 70
     0
  9
$HYPERLINKBASE
  1

  9
$STYLESHEET
  1
print.ctb
  9
$XEDIT
290
     1
  9
$CEPSNTYPE
380
     0
  9
$PSTYLEMODE
290
     1
  9
$FINGERPRINTGUID
  2
{9394C761-BB80-44D4-BF2A-30FF33226E18}
  9
$VERSIONGUID
  2
{E6F34D70-CEFE-4283-A1AD-679BC20EFCBD}
  9
$EXTNAMES
290
     1
  9
$PSVPSCALE
 40
0.0
  9
$OLESTARTUP
290
     0
  0
ENDSEC
  0
SECTION
  2
CLASSES
  0
CLASS
  1
ACDBDICTIONARYWDFLT
  2
AcDbDictionaryWithDefault
  3
ObjectDBX Classes
 90
        0
280
     0
281
     0
  0
CLASS
  1
ACDBPLACEHOLDER
  2
AcDbPlaceHolder
  3
ObjectDBX Classes
 90
        0
280
     0
281
     0
  0
CLASS
  1
LAYOUT
  2
AcDbLayout
  3
ObjectDBX Classes
 90
        0
280
     0
281
     0
  0
CLASS
  1
DICTIONARYVAR
  2
AcDbDictionaryVar
  3
ObjectDBX Classes
 90
        0
280
     0
281
     0
  0
ENDSEC
  0
SECTION
  2
TABLES
  0
TABLE
  2
VPORT
  5
8
330
0
100
AcDbSymbolTable
 70
     2
  0
VPORT
  5
5AAD
330
8
100
AcDbSymbolTableRecord
100
AcDbViewportTableRecord
  2
*Active
 70
     0
 10
0.0
 20
0.0
 11
1.0
 21
1.0
 12
248.5214385059353
 22
160.1192300909114
 13
0.0
 23
0.0
 14
5.0
 24
5.0
 15
0.0
 25
0.0
 16
0.0
 26
0.0
 36
1.0
 17
0.0
 27
0.0
 37
0.0
 40
319.6586924549507
 41
1.922916666666666
 42
50.0
 43
0.0
 44
0.0
 50
0.0
 51
0.0
 71
     0
 72
   100
 73
     1
 74
     0
 75
     0
 76
     0
 77
     0
 78
     0
281
     0
 65
     1
110
0.0
120
0.0
130
0.0
111
1.0
121
0.0
131
0.0
112
0.0
122
1.0
132
0.0
 79
     0
146
0.0
  0
ENDTAB
  0
TABLE
  2
LTYPE
  5
5
330
0
100
AcDbSymbolTable
 70
     2
  0
LTYPE
  5
14
330
5
100
AcDbSymbolTableRecord
100
AcDbLinetypeTableRecord
  2
BYBLOCK
 70
     0
  3

 72
    65
 73
     0
 40
0.0
  0
LTYPE
  5
15
330
5
100
AcDbSymbolTableRecord
100
AcDbLinetypeTableRecord
  2
BYLAYER
 70
     0
  3

 72
    65
 73
     0
 40
0.0
  0
LTYPE
  5
16
330
5
100
AcDbSymbolTableRecord
100
AcDbLinetypeTableRecord
  2
CONTINUOUS
 70
     0
  3
Solid line
 72
    65
 73
     0
 40
0.0
  0
LTYPE
  5
120
330
5
100
AcDbSymbolTableRecord
100
AcDbLinetypeTableRecord
  2
CENTER
 70
     0
  3
Center ____ _ ____ _ ____ _ ____ _ ____ _ ____
 72
    65
 73
     4
 40
50.8
 49
31.75
 74
     0
 49
-6.349999999999999
 74
     0
 49
6.349999999999999
 74
     0
 49
-6.349999999999999
 74
     0
  0
ENDTAB
  0
TABLE
  2
LAYER
  5
2
330
0
100
AcDbSymbolTable
 70
     9
  0
LAYER
  5
F
330
2
100
AcDbSymbolTableRecord
100
AcDbLayerTableRecord
  2
0
 70
     0
 62
     7
  6
CONTINUOUS
370
    -3
390
414
  0
LAYER
  5
62
330
2
100
AcDbSymbolTableRecord
100
AcDbLayerTableRecord
  2
VIEWPORT
 70
     0
 62
     7
  6
CONTINUOUS
370
    -3
390
414
  0
LAYER
  5
6B
330
2
100
AcDbSymbolTableRecord
100
AcDbLayerTableRecord
  2
ZUWAKU
 70
     0
 62
     7
  6
CONTINUOUS
370
    -3
390
414
  0
LAYER
  5
13D
330
2
100
AcDbSymbolTableRecord
100
AcDbLayerTableRecord
  2
SEIHIN
 70
     0
 62
     3
  6
CONTINUOUS
370
    -3
390
414
  0
LAYER
  5
13E
330
2
100
AcDbSymbolTableRecord
100
AcDbLayerTableRecord
  2
SUNPOU
 70
     0
 62
     4
  6
CONTINUOUS
370
    -3
390
414
  0
LAYER
  5
13F
330
2
100
AcDbSymbolTableRecord
100
AcDbLayerTableRecord
  2
CENTER L
 70
     0
 62
     1
  6
CENTER
370
    -3
390
414
  0
LAYER
  5
140
330
2
100
AcDbSymbolTableRecord
100
AcDbLayerTableRecord
  2
DEFPOINTS
 70
     0
 62
     7
  6
CONTINUOUS
290
     0
370
    -3
390
414
  0
LAYER
  5
4BA
330
2
100
AcDbSymbolTableRecord
100
AcDbLayerTableRecord
  2
moji
 70
     0
 62
     2
  6
CONTINUOUS
370
    -3
390
414
  0
LAYER
  5
400D
330
2
100
AcDbSymbolTableRecord
100
AcDbLayerTableRecord
  2
ﾊｯﾁﾝｸﾞ
 70
     0
 62
     7
  6
CONTINUOUS
370
    -3
390
414
  0
ENDTAB
  0
TABLE
  2
STYLE
  5
3
330
0
100
AcDbSymbolTable
 70
     3
  0
STYLE
  5
10
330
3
100
AcDbSymbolTableRecord
100
AcDbTextStyleTableRecord
  2
STANDARD
 70
     0
 40
0.0
 41
1.0
 50
0.0
 71
     0
 42
2.5
  3
TXT
  4
bigfont.shx
  0
STYLE
  5
4BB
330
3
100
AcDbSymbolTableRecord
100
AcDbTextStyleTableRecord
  2
MSPｺﾞｼｯｸ
 70
     0
 40
0.0
 41
1.0
 50
0.0
 71
     0
 42
2.5
  3

  4

1001
ACAD
1000
MS PGothic
1071
    32818
  0
STYLE
  5
5A33
330
3
100
AcDbSymbolTableRecord
100
AcDbTextStyleTableRecord
  2
MSPｺ_ｼｯｸ
 70
     0
 40
0.0
 41
1.0
 50
0.0
 71
     0
 42
2.5
  3

  4

1001
ACAD
1000
MS PGothic
1071
    32818
  0
ENDTAB
  0
TABLE
  2
VIEW
  5
6
330
0
100
AcDbSymbolTable
 70
     0
  0
ENDTAB
  0
TABLE
  2
UCS
  5
7
330
0
100
AcDbSymbolTable
 70
     0
  0
ENDTAB
  0
TABLE
  2
APPID
  5
9
330
0
100
AcDbSymbolTable
 70
     1
  0
APPID
  5
11
330
9
100
AcDbSymbolTableRecord
100
AcDbRegAppTableRecord
  2
ACAD
 70
     0
  0
ENDTAB
  0
TABLE
  2
DIMSTYLE
  5
A
330
0
100
AcDbSymbolTable
 70
     1
100
AcDbDimStyleTable
 71
     0
  0
DIMSTYLE
105
1D
102
{ACAD_REACTORS
330
51AD
330
50B4
330
50A7
330
50C1
330
51C3
330
5196
102
}
330
A
100
AcDbSymbolTableRecord
100
AcDbDimStyleTableRecord
  2
STANDARD
 70
     0
 41
3.0
 42
1.5
 43
9.0
 44
1.5
 73
     0
 74
     0
 77
     3
140
3.5
141
0.0
147
1.5
176
   256
177
   256
178
   256
271
     0
272
     0
340
10
341
B2
342
B2
371
    -1
372
    -1
  0
ENDTAB
  0
TABLE
  2
BLOCK_RECORD
  5
1
330
0
100
AcDbSymbolTable
 70
     9
  0
BLOCK_RECORD
  5
1A
102
{ACAD_XDICTIONARY
360
444
102
}
330
1
100
AcDbSymbolTableRecord
100
AcDbBlockTableRecord
  2
*MODEL_SPACE
340
417
  0
BLOCK_RECORD
  5
17
102
{ACAD_XDICTIONARY
360
442
102
}
330
1
100
AcDbSymbolTableRecord
100
AcDbBlockTableRecord
  2
*PAPER_SPACE
340
418
  0
BLOCK_RECORD
  5
B2
330
1
100
AcDbSymbolTableRecord
100
AcDbBlockTableRecord
  2
_OPEN
340
0
102
{BLKREFS
331
52DB
331
52DC
331
52ED
331
52EE
331
5A49
331
5A4A
331
5A52
331
5A53
331
5A5B
331
5A5C
331
5A64
331
5A65
102
}
  0
BLOCK_RECORD
  5
9E0
330
1
100
AcDbSymbolTableRecord
100
AcDbBlockTableRecord
  2
*X1
340
0
102
{BLKREFS
331
585
102
}
  0
BLOCK_RECORD
  5
5071
330
1
100
AcDbSymbolTableRecord
100
AcDbBlockTableRecord
  2
*X2
340
0
102
{BLKREFS
331
4958
102
}
  0
BLOCK_RECORD
  5
50A8
330
1
100
AcDbSymbolTableRecord
100
AcDbBlockTableRecord
  2
*D3
340
0
  0
BLOCK_RECORD
  5
50B5
330
1
100
AcDbSymbolTableRecord
100
AcDbBlockTableRecord
  2
*D4
340
0
  0
BLOCK_RECORD
  5
50C2
330
1
100
AcDbSymbolTableRecord
100
AcDbBlockTableRecord
  2
*D5
340
0
  0
BLOCK_RECORD
  5
5197
330
1
100
AcDbSymbolTableRecord
100
AcDbBlockTableRecord
  2
*D6
340
0
  0
BLOCK_RECORD
  5
51AE
330
1
100
AcDbSymbolTableRecord
100
AcDbBlockTableRecord
  2
*D7
340
0
  0
BLOCK_RECORD
  5
51C4
330
1
100
AcDbSymbolTableRecord
100
AcDbBlockTableRecord
  2
*D8
340
0
  0
ENDTAB
  0
ENDSEC
  0
SECTION
  2
BLOCKS
  0
BLOCK
  5
1B
330
1A
100
AcDbEntity
  8
0
100
AcDbBlockBegin
  2
*MODEL_SPACE
 70
     0
 10
0.0
 20
0.0
 30
0.0
  3
*MODEL_SPACE
  1

  0
ENDBLK
  5
1C
330
1A
100
AcDbEntity
  8
0
100
AcDbBlockEnd
  0
BLOCK
  5
18
330
17
100
AcDbEntity
 67
     1
  8
0
100
AcDbBlockBegin
  2
*PAPER_SPACE
 70
     0
 10
0.0
 20
0.0
 30
0.0
  3
*PAPER_SPACE
  1

  0
ENDBLK
  5
19
330
17
100
AcDbEntity
 67
     1
  8
0
100
AcDbBlockEnd
  0
BLOCK
  5
B3
330
B2
100
AcDbEntity
  8
0
100
AcDbBlockBegin
  2
_OPEN
 70
     0
 10
0.0
 20
0.0
 30
0.0
  3
_OPEN
  1

  0
LINE
  5
B4
330
B2
100
AcDbEntity
  8
0
  6
ByBlock
 62
     0
100
AcDbLine
 10
-1.0
 20
0.1666666666666666
 30
0.0
 11
0.0
 21
0.0
 31
0.0
  0
LINE
  5
B5
330
B2
100
AcDbEntity
  8
0
  6
ByBlock
 62
     0
100
AcDbLine
 10
0.0
 20
0.0
 30
0.0
 11
-1.0
 21
-0.1666666666666666
 31
0.0
  0
LINE
  5
B6
330
B2
100
AcDbEntity
  8
0
  6
ByBlock
 62
     0
100
AcDbLine
 10
0.0
 20
0.0
 30
0.0
 11
-1.0
 21
0.0
 31
0.0
  0
ENDBLK
  5
B7
330
B2
100
AcDbEntity
  8
0
100
AcDbBlockEnd
  0
BLOCK
  5
B74
330
9E0
100
AcDbEntity
  8
0
100
AcDbBlockBegin
  2
*X1
 70
     1
 10
0.0
 20
0.0
 30
0.0
  3
*X1
  1

  0
LINE
  5
9E1
330
9E0
100
AcDbEntity
  8
0
 62
     0
100
AcDbLine
 10
34.52110582087761
 20
11.30208487459222
 30
0.0
 11
34.19819035602015
 21
11.62500033944971
 31
0.0
  0
LINE
  5
9E2
330
9E0
100
AcDbEntity
  8
0
 62
     0
100
AcDbLine
 10
34.52110582087761
 20
10.85307206853878
 30
0.0
 11
33.74917754996668
 21
11.62500033944971
 31
0.0
  0
LINE
  5
9E3
330
9E0
100
AcDbEntity
  8
0
 62
     0
100
AcDbLine
 10
34.52110582087758
 20
10.4040592624853
 30
0.0
 11
33.31053884787011
 21
11.61462623549278
 31
0.0
  0
LINE
  5
9E4
330
9E0
100
AcDbEntity
  8
0
 62
     0
100
AcDbLine
 10
34.52110582087761
 20
9.955046456431887
 30
0.0
 11
33.12110582087758
 21
11.35504645643189
 31
0.0
  0
LINE
  5
9E5
330
9E0
100
AcDbEntity
  8
0
 62
     0
100
AcDbLine
 10
34.52110582087761
 20
9.506033650378412
 30
0.0
 11
33.12110582087758
 21
10.90603365037845
 31
0.0
  0
LINE
  5
9E6
330
9E0
100
AcDbEntity
  8
0
 62
     0
100
AcDbLine
 10
34.52110582087758
 20
9.057020844324938
 30
0.0
 11
33.12110582087754
 21
10.45702084432497
 31
0.0
  0
LINE
  5
9E7
330
9E0
100
AcDbEntity
  8
0
 62
     0
100
AcDbLine
 10
32.07110582087756
 20
11.05800803827154
 30
0.0
 11
31.50411351969942
 21
11.62500033944971
 31
0.0
  0
LINE
  5
9E8
330
9E0
100
AcDbEntity
  8
0
 62
     0
100
AcDbLine
 10
34.52110582087761
 20
8.60800803827152
 30
0.0
 11
33.12110582087758
 21
10.00800803827155
 31
0.0
  0
LINE
  5
9E9
330
9E0
100
AcDbEntity
  8
0
 62
     0
100
AcDbLine
 10
32.07110582087756
 20
10.60899523221809
 30
0.0
 11
31.05510071364594
 21
11.62500033944968
 31
0.0
  0
LINE
  5
9EA
330
9E0
100
AcDbEntity
  8
0
 62
     0
100
AcDbLine
 10
34.52110582087758
 20
8.158995232218046
 30
0.0
 11
33.12110582087758
 21
9.55899523221808
 31
0.0
  0
LINE
  5
9EB
330
9E0
100
AcDbEntity
  8
0
 62
     0
100
AcDbLine
 10
32.07110582087756
 20
10.15998242616461
 30
0.0
 11
30.71835033830903
 21
11.51273790873315
 31
0.0
  0
LINE
  5
9EC
330
9E0
100
AcDbEntity
  8
0
 62
     0
100
AcDbLine
 10
34.52110582087758
 20
7.7099824261646
 30
0.0
 11
33.12110582087754
 21
9.109982426164606
 31
0.0
  0
LINE
  5
9ED
330
9E0
100
AcDbEntity
  8
0
 62
     0
100
AcDbLine
 10
32.07110582087762
 20
9.710969620111114
 30
0.0
 11
30.67110582087753
 21
11.11096962011117
 31
0.0
  0
LINE
  5
9EE
330
9E0
100
AcDbEntity
  8
0
 62
     0
100
AcDbLine
 10
34.52110582087761
 20
7.260969620111126
 30
0.0
 11
33.12110582087758
 21
8.66096962011116
 31
0.0
  0
LINE
  5
9EF
330
9E0
100
AcDbEntity
  8
0
 62
     0
100
AcDbLine
 10
32.07110582087759
 20
9.261956814057668
 30
0.0
 11
30.67110582087753
 21
10.66195681405776
 31
0.0
  0
LINE
  5
9F0
330
9E0
100
AcDbEntity
  8
0
 62
     0
100
AcDbLine
 10
34.52110582087758
 20
6.81195681405768
 30
0.0
 11
33.12110582087754
 21
8.211956814057714
 31
0.0
  0
LINE
  5
9F1
330
9E0
100
AcDbEntity
  8
0
 62
     0
100
AcDbLine
 10
32.07110582087759
 20
8.812944008004222
 30
0.0
 11
30.67110582087753
 21
10.21294400800428
 31
0.0
  0
LINE
  5
9F2
330
9E0
100
AcDbEntity
  8
0
 62
     0
100
AcDbLine
 10
34.52110582087758
 20
6.362944008004234
 30
0.0
 11
33.12110582087754
 21
7.762944008004268
 31
0.0
  0
LINE
  5
9F3
330
9E0
100
AcDbEntity
  8
0
 62
     0
100
AcDbLine
 10
32.07110582087756
 20
8.363931201950748
 30
0.0
 11
30.6711058208775
 21
9.763931201950811
 31
0.0
  0
LINE
  5
9F4
330
9E0
100
AcDbEntity
  8
0
 62
     0
100
AcDbLine
 10
34.52110582087755
 20
5.913931201950759
 30
0.0
 11
33.12110582087754
 21
7.313931201950794
 31
0.0
  0
LINE
  5
9F5
330
9E0
100
AcDbEntity
  8
0
 62
     0
100
AcDbLine
 10
32.07110582087759
 20
7.914918395897331
 30
0.0
 11
30.67110582087753
 21
9.314918395897393
 31
0.0
  0
LINE
  5
9F6
330
9E0
100
AcDbEntity
  8
0
 62
     0
100
AcDbLine
 10
28.92110582087756
 20
11.06491839589736
 30
0.0
 11
28.36102387732524
 21
11.62500033944968
 31
0.0
  0
LINE
  5
9F7
330
9E0
100
AcDbEntity
  8
0
 62
     0
100
AcDbLine
 10
34.52110582087758
 20
5.464918395897342
 30
0.0
 11
33.12110582087754
 21
6.864918395897348
 31
0.0
  0
LINE
  5
9F8
330
9E0
100
AcDbEntity
  8
0
 62
     0
100
AcDbLine
 10
32.07110582087759
 20
7.465905589843856
 30
0.0
 11
30.6711058208775
 21
8.865905589843919
 31
0.0
  0
LINE
  5
9F9
330
9E0
100
AcDbEntity
  8
0
 62
     0
100
AcDbLine
 10
28.92110582087753
 20
10.61590558984389
 30
0.0
 11
27.91201107127176
 21
11.62500033944968
 31
0.0
  0
LINE
  5
9FA
330
9E0
100
AcDbEntity
  8
0
 62
     0
100
AcDbLine
 10
34.52110582087758
 20
5.015905589843868
 30
0.0
 11
33.12110582087754
 21
6.415905589843902
 31
0.0
  0
LINE
  5
9FB
330
9E0
100
AcDbEntity
  8
0
 62
     0
100
AcDbLine
 10
32.07110582087756
 20
7.01689278379041
 30
0.0
 11
30.67110582087753
 21
8.416892783790416
 31
0.0
  0
LINE
  5
9FC
330
9E0
100
AcDbEntity
  8
0
 62
     0
100
AcDbLine
 10
28.92110582087753
 20
10.16689278379044
 30
0.0
 11
27.57122445921553
 21
11.51677414545244
 31
0.0
  0
LINE
  5
9FD
330
9E0
100
AcDbEntity
  8
0
 62
     0
100
AcDbLine
 10
34.52110582087755
 20
4.566892783790422
 30
0.0
 11
33.12110582087752
 21
5.966892783790427
 31
0.0
  0
LINE
  5
9FE
330
9E0
100
AcDbEntity
  8
0
 62
     0
100
AcDbLine
 10
32.07110582087759
 20
6.567879977736936
 30
0.0
 11
30.67110582087756
 21
7.96787997773697
 31
0.0
  0
LINE
  5
9FF
330
9E0
100
AcDbEntity
  8
0
 62
     0
100
AcDbLine
 10
28.92110582087756
 20
9.71787997773697
 30
0.0
 11
27.52110582087755
 21
11.11787997773697
 31
0.0
  0
LINE
  5
A00
330
9E0
100
AcDbEntity
  8
0
 62
     0
100
AcDbLine
 10
34.52110582087758
 20
4.117879977736947
 30
0.0
 11
33.12110582087754
 21
5.517879977736981
 31
0.0
  0
LINE
  5
A01
330
9E0
100
AcDbEntity
  8
0
 62
     0
100
AcDbLine
 10
32.07110582087756
 20
6.11886717168349
 30
0.0
 11
30.67110582087756
 21
7.518867171683524
 31
0.0
  0
LINE
  5
A02
330
9E0
100
AcDbEntity
  8
0
 62
     0
100
AcDbLine
 10
28.92110582087759
 20
9.268867171683496
 30
0.0
 11
27.52110582087755
 21
10.66886717168353
 31
0.0
  0
LINE
  5
A03
330
9E0
100
AcDbEntity
  8
0
 62
     0
100
AcDbLine
 10
34.48512314343267
 20
3.704849849128407
 30
0.0
 11
33.12110582087754
 21
5.068867171683535
 31
0.0
  0
LINE
  5
A04
330
9E0
100
AcDbEntity
  8
0
 62
     0
100
AcDbLine
 10
32.07110582087759
 20
5.669854365629987
 30
0.0
 11
30.67110582087753
 21
7.06985436563005
 31
0.0
  0
LINE
  5
A05
330
9E0
100
AcDbEntity
  8
0
 62
     0
100
AcDbLine
 10
28.92110582087756
 20
8.81985436563005
 30
0.0
 11
27.52110582087752
 21
10.21985436563005
 31
0.0
  0
LINE
  5
A06
330
9E0
100
AcDbEntity
  8
0
 62
     0
100
AcDbLine
 10
34.16595984705793
 20
3.575000339449672
 30
0.0
 11
33.12110582087752
 21
4.619854365630089
 31
0.0
  0
LINE
  5
A07
330
9E0
100
AcDbEntity
  8
0
 62
     0
100
AcDbLine
 10
28.92110582087756
 20
8.370841559576575
 30
0.0
 11
27.52110582087752
 21
9.770841559576609
 31
0.0
  0
LINE
  5
A08
330
9E0
100
AcDbEntity
  8
0
 62
     0
100
AcDbLine
 10
32.07110582087759
 20
5.220841559576541
 30
0.0
 11
30.67110582087753
 21
6.620841559576604
 31
0.0
  0
LINE
  5
A09
330
9E0
100
AcDbEntity
  8
0
 62
     0
100
AcDbLine
 10
26.20860582087755
 20
11.08334155957658
 30
0.0
 11
25.66694704100448
 21
11.62500033944962
 31
0.0
  0
LINE
  5
A0A
330
9E0
100
AcDbEntity
  8
0
 62
     0
100
AcDbLine
 10
33.71694704100449
 20
3.575000339449616
 30
0.0
 11
33.12110582087752
 21
4.170841559576615
 31
0.0
  0
LINE
  5
A0B
330
9E0
100
AcDbEntity
  8
0
 62
     0
100
AcDbLine
 10
28.92110582087756
 20
7.921828753523129
 30
0.0
 11
27.52110582087758
 21
9.321828753523135
 31
0.0
  0
LINE
  5
A0C
330
9E0
100
AcDbEntity
  8
0
 62
     0
100
AcDbLine
 10
26.20860582087755
 20
10.63432875352313
 30
0.0
 11
25.21793423495106
 21
11.62500033944965
 31
0.0
  0
LINE
  5
A0D
330
9E0
100
AcDbEntity
  8
0
 62
     0
100
AcDbLine
 10
32.0581266705548
 20
4.784807903845916
 30
0.0
 11
30.67110582087753
 21
6.171828753523158
 31
0.0
  0
LINE
  5
A0E
330
9E0
100
AcDbEntity
  8
0
 62
     0
100
AcDbLine
 10
28.92110582087756
 20
7.472815947469683
 30
0.0
 11
27.52110582087758
 21
8.872815947469661
 31
0.0
  0
LINE
  5
A0F
330
9E0
100
AcDbEntity
  8
0
 62
     0
100
AcDbLine
 10
26.11081554782064
 20
10.2831062205266
 30
0.0
 11
24.76892142889756
 21
11.62500033944968
 31
0.0
  0
LINE
  5
A10
330
9E0
100
AcDbEntity
  8
0
 62
     0
100
AcDbLine
 10
31.96163402292618
 20
4.432287745421035
 30
0.0
 11
30.67110582087753
 21
5.722815947469712
 31
0.0
  0
LINE
  5
A11
330
9E0
100
AcDbEntity
  8
0
 62
     0
100
AcDbLine
 10
28.92110582087756
 20
7.023803141416209
 30
0.0
 11
27.52110582087755
 21
8.423803141416215
 31
0.0
  0
LINE
  5
A12
330
9E0
100
AcDbEntity
  8
0
 62
     0
100
AcDbLine
 10
25.71990862284406
 20
10.22500033944968
 30
0.0
 11
24.31990862284411
 21
11.62500033944962
 31
0.0
  0
LINE
  5
A13
330
9E0
100
AcDbEntity
  8
0
 62
     0
100
AcDbLine
 10
31.79911808496439
 20
4.145790877329346
 30
0.0
 11
30.63534795129778
 21
5.309561010995992
 31
0.0
  0
LINE
  5
A14
330
9E0
100
AcDbEntity
  8
0
 62
     0
100
AcDbLine
 10
28.92110582087756
 20
6.574790335362791
 30
0.0
 11
27.52110582087758
 21
7.974790335362769
 31
0.0
  0
LINE
  5
A15
330
9E0
100
AcDbEntity
  8
0
 62
     0
100
AcDbLine
 10
25.27089581679064
 20
10.22500033944971
 30
0.0
 11
23.90211245220195
 21
11.5937837040384
 31
0.0
  0
LINE
  5
A16
330
9E0
100
AcDbEntity
  8
0
 62
     0
100
AcDbLine
 10
31.58309718630187
 20
3.912798969938449
 30
0.0
 11
30.43455513206402
 21
5.0613410241763
 31
0.0
  0
LINE
  5
A17
330
9E0
100
AcDbEntity
  8
0
 62
     0
100
AcDbLine
 10
28.92110582087756
 20
6.125777529309317
 30
0.0
 11
27.52110582087755
 21
7.525777529309294
 31
0.0
  0
LINE
  5
A18
330
9E0
100
AcDbEntity
  8
0
 62
     0
100
AcDbLine
 10
24.82188301073717
 20
10.22500033944971
 30
0.0
 11
23.56979223993525
 21
11.47709111025159
 31
0.0
  0
LINE
  5
A19
330
9E0
100
AcDbEntity
  8
0
 62
     0
100
AcDbLine
 10
31.31501601383886
 20
3.731867336348017
 30
0.0
 11
30.07188301073717
 21
4.975000339449678
 31
0.0
  0
LINE
  5
A1A
330
9E0
100
AcDbEntity
  8
0
 62
     0
100
AcDbLine
 10
28.92110582087753
 20
5.676764723255843
 30
0.0
 11
27.52110582087755
 21
7.076764723255848
 31
0.0
  0
LINE
  5
A1B
330
9E0
100
AcDbEntity
  8
0
 62
     0
100
AcDbLine
 10
24.38376511869277
 20
10.2141054254406
 30
0.0
 11
23.29849177133016
 21
11.29937877280321
 31
0.0
  0
LINE
  5
A1C
330
9E0
100
AcDbEntity
  8
0
 62
     0
100
AcDbLine
 10
30.98680973388321
 20
3.611060810250194
 30
0.0
 11
29.62287020468372
 21
4.975000339449678
 31
0.0
  0
LINE
  5
A1D
330
9E0
100
AcDbEntity
  8
0
 62
     0
100
AcDbLine
 10
24.19610582087759
 20
9.952751917202306
 30
0.0
 11
23.07943574180788
 21
11.06942199627201
 31
0.0
  0
LINE
  5
A1E
330
9E0
100
AcDbEntity
  8
0
 62
     0
100
AcDbLine
 10
30.57385739863028
 20
3.575000339449644
 30
0.0
 11
27.52110582087755
 21
6.627751917202374
 31
0.0
  0
LINE
  5
A1F
330
9E0
100
AcDbEntity
  8
0
 62
     0
100
AcDbLine
 10
24.19610582087762
 20
9.503739111148888
 30
0.0
 11
22.91355028563137
 21
10.78629464639513
 31
0.0
  0
LINE
  5
A20
330
9E0
100
AcDbEntity
  8
0
 62
     0
100
AcDbLine
 10
30.12484459257684
 20
3.575000339449644
 30
0.0
 11
27.52110582087755
 21
6.178739111148956
 31
0.0
  0
LINE
  5
A21
330
9E0
100
AcDbEntity
  8
0
 62
     0
100
AcDbLine
 10
24.29937796142949
 20
8.951454164543548
 30
0.0
 11
22.81246102594932
 21
10.43837110002368
 31
0.0
  0
LINE
  5
A22
330
9E0
100
AcDbEntity
  8
0
 62
     0
100
AcDbLine
 10
29.67583178652339
 20
3.575000339449644
 30
0.0
 11
27.52110582087755
 21
5.729726305095482
 31
0.0
  0
LINE
  5
A23
330
9E0
100
AcDbEntity
  8
0
 62
     0
100
AcDbLine
 10
26.40790767222325
 20
6.393911647696313
 30
0.0
 11
22.79610582087756
 21
10.00571349904197
 31
0.0
  0
LINE
  5
A24
330
9E0
100
AcDbEntity
  8
0
 62
     0
100
AcDbLine
 10
21.74610582087752
 20
11.05571349904201
 30
0.0
 11
21.17681898046988
 21
11.62500033944968
 31
0.0
  0
LINE
  5
A25
330
9E0
100
AcDbEntity
  8
0
 62
     0
100
AcDbLine
 10
29.22681898046992
 20
3.575000339449644
 30
0.0
 11
27.52110582087752
 21
5.280713499042008
 31
0.0
  0
LINE
  5
A26
330
9E0
100
AcDbEntity
  8
0
 62
     0
100
AcDbLine
 10
26.4711058208776
 20
5.881700692988545
 30
0.0
 11
22.79610582087759
 21
9.556700692988556
 31
0.0
  0
LINE
  5
A27
330
9E0
100
AcDbEntity
  8
0
 62
     0
100
AcDbLine
 10
21.74610582087757
 20
10.60670069298854
 30
0.0
 11
20.7278061744164
 21
11.62500033944974
 31
0.0
  0
LINE
  5
A28
330
9E0
100
AcDbEntity
  8
0
 62
     0
100
AcDbLine
 10
28.76958223504403
 20
3.583224278822115
 30
0.0
 11
27.52932976025002
 21
4.82347675361612
 31
0.0
  0
LINE
  5
A29
330
9E0
100
AcDbEntity
  8
0
 62
     0
100
AcDbLine
 10
21.74610582087757
 20
10.15768788693509
 30
0.0
 11
20.39241087698991
 21
11.51138283082272
 31
0.0
  0
LINE
  5
A2A
330
9E0
100
AcDbEntity
  8
0
 62
     0
100
AcDbLine
 10
26.47110582087757
 20
5.43268788693507
 30
0.0
 11
22.80781115481875
 21
9.095982552993916
 31
0.0
  0
LINE
  5
A2B
330
9E0
100
AcDbEntity
  8
0
 62
     0
100
AcDbLine
 10
21.74610582087757
 20
9.708675080881619
 30
0.0
 11
20.34610582087757
 21
11.10867508088159
 31
0.0
  0
LINE
  5
A2C
330
9E0
100
AcDbEntity
  8
0
 62
     0
100
AcDbLine
 10
26.47110582087751
 20
4.983675080881653
 30
0.0
 11
22.96687086373876
 21
8.48791003802043
 31
0.0
  0
LINE
  5
A2D
330
9E0
100
AcDbEntity
  8
0
 62
     0
100
AcDbLine
 10
21.74610582087757
 20
9.259662274828173
 30
0.0
 11
20.3461058208776
 21
10.65966227482815
 31
0.0
  0
LINE
  5
A2E
330
9E0
100
AcDbEntity
  8
0
 62
     0
100
AcDbLine
 10
26.41682491208303
 20
4.588943183622717
 30
0.0
 11
25.06900751756388
 21
5.936760578141871
 31
0.0
  0
LINE
  5
A2F
330
9E0
100
AcDbEntity
  8
0
 62
     0
100
AcDbLine
 10
21.74610582087757
 20
8.810649468774727
 30
0.0
 11
20.34610582087757
 21
10.2106494687747
 31
0.0
  0
LINE
  5
A30
330
9E0
100
AcDbEntity
  8
0
 62
     0
100
AcDbLine
 10
19.20036237058906
 20
11.35639291906321
 30
0.0
 11
18.93175495020262
 21
11.62500033944968
 31
0.0
  0
LINE
  5
A31
330
9E0
100
AcDbEntity
  8
0
 62
     0
100
AcDbLine
 10
26.28288705820225
 20
4.273868231450052
 30
0.0
 11
25.07110582087759
 21
5.48564946877471
 31
0.0
  0
LINE
  5
A32
330
9E0
100
AcDbEntity
  8
0
 62
     0
100
AcDbLine
 10
21.74610582087755
 20
8.361636662721252
 30
0.0
 11
20.34610582087757
 21
9.761636662721258
 31
0.0
  0
LINE
  5
A33
330
9E0
100
AcDbEntity
  8
0
 62
     0
100
AcDbLine
 10
19.10089853846276
 20
11.00684394513604
 30
0.0
 11
18.48274214414914
 21
11.62500033944968
 31
0.0
  0
LINE
  5
A34
330
9E0
100
AcDbEntity
  8
0
 62
     0
100
AcDbLine
 10
26.0913936591146
 20
4.016348824484225
 30
0.0
 11
25.02246322943435
 21
5.085279254164476
 31
0.0
  0
LINE
  5
A35
330
9E0
100
AcDbEntity
  8
0
 62
     0
100
AcDbLine
 10
21.74610582087755
 20
7.912623856667806
 30
0.0
 11
20.34610582087757
 21
9.312623856667784
 31
0.0
  0
LINE
  5
A36
330
9E0
100
AcDbEntity
  8
0
 62
     0
100
AcDbLine
 10
18.99313546500991
 20
10.66559421253541
 30
0.0
 11
18.03852768327462
 21
11.62020199427073
 31
0.0
  0
LINE
  5
A37
330
9E0
100
AcDbEntity
  8
0
 62
     0
100
AcDbLine
 10
25.84823417655679
 20
3.810495500988537
 30
0.0
 11
24.68372933809567
 21
4.975000339449678
 31
0.0
  0
LINE
  5
A38
330
9E0
100
AcDbEntity
  8
0
 62
     0
100
AcDbLine
 10
21.74610582087757
 20
7.46361105061436
 30
0.0
 11
20.34610582087757
 21
8.863611050614338
 31
0.0
  0
LINE
  5
A39
330
9E0
100
AcDbEntity
  8
0
 62
     0
100
AcDbLine
 10
18.88537239155715
 20
10.32434447993478
 30
0.0
 11
17.82137239155713
 21
11.3883444799348
 31
0.0
  0
LINE
  5
A3A
330
9E0
100
AcDbEntity
  8
0
 62
     0
100
AcDbLine
 10
25.5501922023266
 20
3.659524669165307
 30
0.0
 11
24.23471653204223
 21
4.975000339449707
 31
0.0
  0
LINE
  5
A3B
330
9E0
100
AcDbEntity
  8
0
 62
     0
100
AcDbLine
 10
21.74610582087755
 20
7.014598244560914
 30
0.0
 11
20.34610582087757
 21
8.414598244560892
 31
0.0
  0
LINE
  5
A3C
330
9E0
100
AcDbEntity
  8
0
 62
     0
100
AcDbLine
 10
18.77760931810422
 20
9.983094747334234
 30
0.0
 11
17.71360931810423
 21
11.04709474733422
 31
0.0
  0
LINE
  5
A3D
330
9E0
100
AcDbEntity
  8
0
 62
     0
100
AcDbLine
 10
25.18135587650287
 20
3.579348188935597
 30
0.0
 11
23.78570372598878
 21
4.975000339449678
 31
0.0
  0
LINE
  5
A3E
330
9E0
100
AcDbEntity
  8
0
 62
     0
100
AcDbLine
 10
21.74610582087755
 20
6.56558543850744
 30
0.0
 11
20.34610582087754
 21
7.965585438507417
 31
0.0
  0
LINE
  5
A3F
330
9E0
100
AcDbEntity
  8
0
 62
     0
100
AcDbLine
 10
18.66984624465144
 20
9.641845014733547
 30
0.0
 11
17.60584624465139
 21
10.70584501473357
 31
0.0
  0
LINE
  5
A40
330
9E0
100
AcDbEntity
  8
0
 62
     0
100
AcDbLine
 10
24.73669091993534
 20
3.575000339449644
 30
0.0
 11
23.33669091993531
 21
4.975000339449678
 31
0.0
  0
LINE
  5
A41
330
9E0
100
AcDbEntity
  8
0
 62
     0
100
AcDbLine
 10
21.74610582087755
 20
6.116572632453994
 30
0.0
 11
20.34610582087757
 21
7.516572632454
 31
0.0
  0
LINE
  5
A42
330
9E0
100
AcDbEntity
  8
0
 62
     0
100
AcDbLine
 10
18.56208317119862
 20
9.300595282132945
 30
0.0
 11
17.49808317119857
 21
10.36459528213296
 31
0.0
  0
LINE
  5
A43
330
9E0
100
AcDbEntity
  8
0
 62
     0
100
AcDbLine
 10
24.2876781138819
 20
3.575000339449672
 30
0.0
 11
23.0708722652337
 21
4.791806188097865
 31
0.0
  0
LINE
  5
A44
330
9E0
100
AcDbEntity
  8
0
 62
     0
100
AcDbLine
 10
18.45432009774581
 20
8.959345549532258
 30
0.0
 11
17.39032009774575
 21
10.02334554953233
 31
0.0
  0
LINE
  5
A45
330
9E0
100
AcDbEntity
  8
0
 62
     0
100
AcDbLine
 10
21.74610582087755
 20
5.667559826400548
 30
0.0
 11
20.34610582087757
 21
7.067559826400525
 31
0.0
  0
LINE
  5
A46
330
9E0
100
AcDbEntity
  8
0
 62
     0
100
AcDbLine
 10
16.32110582087756
 20
11.09255982640053
 30
0.0
 11
15.78866530782841
 21
11.62500033944965
 31
0.0
  0
LINE
  5
A47
330
9E0
100
AcDbEntity
  8
0
 62
     0
100
AcDbLine
 10
23.83866530782845
 20
3.575000339449644
 30
0.0
 11
23.05860582087758
 21
4.35505982640052
 31
0.0
  0
LINE
  5
A48
330
9E0
100
AcDbEntity
  8
0
 62
     0
100
AcDbLine
 10
18.3465570242929
 20
8.618095816931713
 30
0.0
 11
17.28255702429294
 21
9.682095816931678
 31
0.0
  0
LINE
  5
A49
330
9E0
100
AcDbEntity
  8
0
 62
     0
100
AcDbLine
 10
21.74610582087755
 20
5.218547020347074
 30
0.0
 11
20.34610582087754
 21
6.618547020347079
 31
0.0
  0
LINE
  5
A4A
330
9E0
100
AcDbEntity
  8
0
 62
     0
100
AcDbLine
 10
16.32110582087756
 20
10.64354702034705
 30
0.0
 11
15.33965250177496
 21
11.62500033944965
 31
0.0
  0
LINE
  5
A4B
330
9E0
100
AcDbEntity
  8
0
 62
     0
100
AcDbLine
 10
23.38965250177495
 20
3.575000339449672
 30
0.0
 11
23.05860582087754
 21
3.906047020347045
 31
0.0
  0
LINE
  5
A4C
330
9E0
100
AcDbEntity
  8
0
 62
     0
100
AcDbLine
 10
18.23879395084009
 20
8.276846084331054
 30
0.0
 11
17.17479395084007
 21
9.340846084331076
 31
0.0
  0
LINE
  5
A4D
330
9E0
100
AcDbEntity
  8
0
 62
     0
100
AcDbLine
 10
16.32110582087753
 20
10.19453421429358
 30
0.0
 11
14.98338335642873
 21
11.53225667874241
 31
0.0
  0
LINE
  5
A4E
330
9E0
100
AcDbEntity
  8
0
 62
     0
100
AcDbLine
 10
21.74610582087752
 20
4.769534214293628
 30
0.0
 11
20.34610582087754
 21
6.169534214293605
 31
0.0
  0
LINE
  5
A4F
330
9E0
100
AcDbEntity
  8
0
 62
     0
100
AcDbLine
 10
18.13103087738727
 20
7.935596351730453
 30
0.0
 11
17.06703087738728
 21
8.999596351730446
 31
0.0
  0
LINE
  5
A50
330
9E0
100
AcDbEntity
  8
0
 62
     0
100
AcDbLine
 10
16.32110582087756
 20
9.745521408240165
 30
0.0
 11
14.92110582087753
 21
11.14552140824017
 31
0.0
  0
LINE
  5
A51
330
9E0
100
AcDbEntity
  8
0
 62
     0
100
AcDbLine
 10
21.74610582087755
 20
4.320521408240182
 30
0.0
 11
20.34610582087754
 21
5.720521408240159
 31
0.0
  0
LINE
  5
A52
330
9E0
100
AcDbEntity
  8
0
 62
     0
100
AcDbLine
 10
18.02848662269125
 20
7.589127800373006
 30
0.0
 11
16.95926780393441
 21
8.658346619129844
 31
0.0
  0
LINE
  5
A53
330
9E0
100
AcDbEntity
  8
0
 62
     0
100
AcDbLine
 10
16.32110582087756
 20
9.29650860218669
 30
0.0
 11
14.92110582087753
 21
10.69650860218672
 31
0.0
  0
LINE
  5
A54
330
9E0
100
AcDbEntity
  8
0
 62
     0
100
AcDbLine
 10
21.74610582087752
 20
3.871508602186708
 30
0.0
 11
20.34610582087754
 21
5.271508602186713
 31
0.0
  0
LINE
  5
A55
330
9E0
100
AcDbEntity
  8
0
 62
     0
100
AcDbLine
 10
18.23572330240824
 20
6.932878314602533
 30
0.0
 11
16.8139940560921
 21
8.35460756091868
 31
0.0
  0
LINE
  5
A56
330
9E0
100
AcDbEntity
  8
0
 62
     0
100
AcDbLine
 10
16.32110582087759
 20
8.847495796133188
 30
0.0
 11
14.9211058208775
 21
10.24749579613325
 31
0.0
  0
LINE
  5
A57
330
9E0
100
AcDbEntity
  8
0
 62
     0
100
AcDbLine
 10
21.57658332221135
 20
3.592018294799402
 30
0.0
 11
20.34610582087757
 21
4.82249579613321
 31
0.0
  0
LINE
  5
A58
330
9E0
100
AcDbEntity
  8
0
 62
     0
100
AcDbLine
 10
18.44295998212524
 20
6.276628828832116
 30
0.0
 11
14.92110582087753
 21
9.798482990079833
 31
0.0
  0
LINE
  5
A59
330
9E0
100
AcDbEntity
  8
0
 62
     0
100
AcDbLine
 10
13.69610582087759
 20
11.02348299007977
 30
0.0
 11
13.0945884715077
 21
11.62500033944965
 31
0.0
  0
LINE
  5
A5A
330
9E0
100
AcDbEntity
  8
0
 62
     0
100
AcDbLine
 10
21.14458847150772
 20
3.575000339449644
 30
0.0
 11
20.3461058208776
 21
4.373482990079764
 31
0.0
  0
LINE
  5
A5B
330
9E0
100
AcDbEntity
  8
0
 62
     0
100
AcDbLine
 10
18.65019666184227
 20
5.620379343061614
 30
0.0
 11
14.92110582087753
 21
9.349470184026358
 31
0.0
  0
LINE
  5
A5C
330
9E0
100
AcDbEntity
  8
0
 62
     0
100
AcDbLine
 10
13.69610582087759
 20
10.57447018402629
 30
0.0
 11
12.6455756654542
 21
11.62500033944968
 31
0.0
  0
LINE
  5
A5D
330
9E0
100
AcDbEntity
  8
0
 62
     0
100
AcDbLine
 10
20.69557566545424
 20
3.575000339449616
 30
0.0
 11
20.34610582087757
 21
3.924470184026318
 31
0.0
  0
LINE
  5
A5E
330
9E0
100
AcDbEntity
  8
0
 62
     0
100
AcDbLine
 10
13.56265247318254
 20
10.25891072566787
 30
0.0
 11
12.21254161407683
 21
11.60902158477356
 31
0.0
  0
LINE
  5
A5F
330
9E0
100
AcDbEntity
  8
0
 62
     0
100
AcDbLine
 10
18.85743334155924
 20
4.964129857291169
 30
0.0
 11
14.92110582087756
 21
8.900457377972855
 31
0.0
  0
LINE
  5
A60
330
9E0
100
AcDbEntity
  8
0
 62
     0
100
AcDbLine
 10
16.48986028204837
 20
6.882690110748598
 30
0.0
 11
14.92110582087756
 21
8.45144457191941
 31
0.0
  0
LINE
  5
A61
330
9E0
100
AcDbEntity
  8
0
 62
     0
100
AcDbLine
 10
13.14755005334731
 20
10.22500033944962
 30
0.0
 11
11.84352007928319
 21
11.52903031351377
 31
0.0
  0
LINE
  5
A62
330
9E0
100
AcDbEntity
  8
0
 62
     0
100
AcDbLine
 10
19.06467002127627
 20
4.307880371520695
 30
0.0
 11
17.01851617512221
 21
6.354034217674751
 31
0.0
  0
LINE
  5
A63
330
9E0
100
AcDbEntity
  8
0
 62
     0
100
AcDbLine
 10
16.32110582087759
 20
6.602431765865929
 30
0.0
 11
14.92110582087756
 21
8.002431765865964
 31
0.0
  0
LINE
  5
A64
330
9E0
100
AcDbEntity
  8
0
 62
     0
100
AcDbLine
 10
12.69853724729381
 20
10.22500033944968
 30
0.0
 11
11.52415937136783
 21
11.39937821537566
 31
0.0
  0
LINE
  5
A65
330
9E0
100
AcDbEntity
  8
0
 62
     0
100
AcDbLine
 10
19.18218945013157
 20
3.741348136611918
 30
0.0
 11
17.22575285483927
 21
5.697784731904249
 31
0.0
  0
LINE
  5
A66
330
9E0
100
AcDbEntity
  8
0
 62
     0
100
AcDbLine
 10
16.32110582087756
 20
6.153418959812483
 30
0.0
 11
14.92110582087753
 21
7.553418959812489
 31
0.0
  0
LINE
  5
A67
330
9E0
100
AcDbEntity
  8
0
 62
     0
100
AcDbLine
 10
12.27698049602205
 20
10.197544284668
 30
0.0
 11
11.24478488370056
 21
11.22973989698948
 31
0.0
  0
LINE
  5
A68
330
9E0
100
AcDbEntity
  8
0
 62
     0
100
AcDbLine
 10
18.8995244412404
 20
3.575000339449644
 30
0.0
 11
17.43298953455627
 21
5.041535246133776
 31
0.0
  0
LINE
  5
A69
330
9E0
100
AcDbEntity
  8
0
 62
     0
100
AcDbLine
 10
16.32110582087756
 20
5.704406153759009
 30
0.0
 11
14.92110582087753
 21
7.104406153759043
 31
0.0
  0
LINE
  5
A6A
330
9E0
100
AcDbEntity
  8
0
 62
     0
100
AcDbLine
 10
11.99105239960255
 20
10.03445957503402
 30
0.0
 11
11.00095727939467
 21
11.0245546952419
 31
0.0
  0
LINE
  5
A6B
330
9E0
100
AcDbEntity
  8
0
 62
     0
100
AcDbLine
 10
18.45051163518693
 20
3.575000339449644
 30
0.0
 11
17.64022621427327
 21
4.385285760363302
 31
0.0
  0
LINE
  5
A6C
330
9E0
100
AcDbEntity
  8
0
 62
     0
100
AcDbLine
 10
13.86382038727643
 20
7.712678781306721
 30
0.0
 11
13.10878426273456
 21
8.467714905848595
 31
0.0
  0
LINE
  5
A6D
330
9E0
100
AcDbEntity
  8
0
 62
     0
100
AcDbLine
 10
16.32110582087762
 20
5.255393347705535
 30
0.0
 11
14.92110582087756
 21
6.655393347705597
 31
0.0
  0
LINE
  5
A6E
330
9E0
100
AcDbEntity
  8
0
 62
     0
100
AcDbLine
 10
11.81299161453807
 20
9.763507554045077
 30
0.0
 11
10.79127426638905
 21
10.7852249021941
 31
0.0
  0
LINE
  5
A6F
330
9E0
100
AcDbEntity
  8
0
 62
     0
100
AcDbLine
 10
17.97633232703117
 20
3.600166841551981
 30
0.0
 11
17.85115524123552
 21
3.725343927347637
 31
0.0
  0
LINE
  5
A70
330
9E0
100
AcDbEntity
  8
0
 62
     0
100
AcDbLine
 10
13.82056355720547
 20
7.306922805324205
 30
0.0
 11
12.70302828675204
 21
8.424458075777636
 31
0.0
  0
LINE
  5
A71
330
9E0
100
AcDbEntity
  8
0
 62
     0
100
AcDbLine
 10
11.7711058208776
 20
9.356380541652072
 30
0.0
 11
10.61680475590822
 21
10.51068160662146
 31
0.0
  0
LINE
  5
A72
330
9E0
100
AcDbEntity
  8
0
 62
     0
100
AcDbLine
 10
16.32110582087759
 20
4.80638054165206
 30
0.0
 11
14.92110582087753
 21
6.206380541652151
 31
0.0
  0
LINE
  5
A73
330
9E0
100
AcDbEntity
  8
0
 62
     0
100
AcDbLine
 10
13.65463577755645
 20
7.023837778919727
 30
0.0
 11
12.41994326034756
 21
8.258530296128611
 31
0.0
  0
LINE
  5
A74
330
9E0
100
AcDbEntity
  8
0
 62
     0
100
AcDbLine
 10
11.7711058208776
 20
8.907367735598597
 30
0.0
 11
10.48151490230313
 21
10.19695865417307
 31
0.0
  0
LINE
  5
A75
330
9E0
100
AcDbEntity
  8
0
 62
     0
100
AcDbLine
 10
16.32110582087759
 20
4.357367735598614
 30
0.0
 11
14.92110582087756
 21
5.757367735598649
 31
0.0
  0
LINE
  5
A76
330
9E0
100
AcDbEntity
  8
0
 62
     0
100
AcDbLine
 10
11.7711058208776
 20
8.458354929545151
 30
0.0
 11
10.3941579658402
 21
9.83530278458258
 31
0.0
  0
LINE
  5
A77
330
9E0
100
AcDbEntity
  8
0
 62
     0
100
AcDbLine
 10
13.40371905648823
 20
6.82574169393456
 30
0.0
 11
12.2218471753624
 21
8.007613575060389
 31
0.0
  0
LINE
  5
A78
330
9E0
100
AcDbEntity
  8
0
 62
     0
100
AcDbLine
 10
9.058605820877573
 20
11.17085492954521
 30
0.0
 11
8.604460410973075
 21
11.62500033944971
 31
0.0
  0
LINE
  5
A79
330
9E0
100
AcDbEntity
  8
0
 62
     0
100
AcDbLine
 10
16.32110582087762
 20
3.908354929545168
 30
0.0
 11
14.92110582087758
 21
5.308354929545203
 31
0.0
  0
LINE
  5
A7A
330
9E0
100
AcDbEntity
  8
0
 62
     0
100
AcDbLine
 10
11.7711058208776
 20
8.009342123491705
 30
0.0
 11
10.37110582087757
 21
9.40934212349174
 31
0.0
  0
LINE
  5
A7B
330
9E0
100
AcDbEntity
  8
0
 62
     0
100
AcDbLine
 10
13.05355933527451
 20
6.7268886090948
 30
0.0
 11
12.12299409052264
 21
7.657453853846675
 31
0.0
  0
LINE
  5
A7C
330
9E0
100
AcDbEntity
  8
0
 62
     0
100
AcDbLine
 10
9.058605820877545
 20
10.72184212349174
 30
0.0
 11
8.155447604919601
 21
11.62500033944968
 31
0.0
  0
LINE
  5
A7D
330
9E0
100
AcDbEntity
  8
0
 62
     0
100
AcDbLine
 10
16.17715392024226
 20
3.603294024127052
 30
0.0
 11
14.92110582087756
 21
4.859342123491728
 31
0.0
  0
LINE
  5
A7E
330
9E0
100
AcDbEntity
  8
0
 62
     0
100
AcDbLine
 10
11.7711058208776
 20
7.560329317438231
 30
0.0
 11
10.37110582087757
 21
8.960329317438265
 31
0.0
  0
LINE
  5
A7F
330
9E0
100
AcDbEntity
  8
0
 62
     0
100
AcDbLine
 10
9.004088835742379
 20
10.32734630257346
 30
0.0
 11
7.706434798866098
 21
11.62500033944971
 31
0.0
  0
LINE
  5
A80
330
9E0
100
AcDbEntity
  8
0
 62
     0
100
AcDbLine
 10
15.75643479886617
 20
3.575000339449672
 30
0.0
 11
14.92110582087756
 21
4.410329317438282
 31
0.0
  0
LINE
  5
A81
330
9E0
100
AcDbEntity
  8
0
 62
     0
100
AcDbLine
 10
11.77110582087758
 20
7.111316511384785
 30
0.0
 11
10.37110582087754
 21
8.511316511384791
 31
0.0
  0
LINE
  5
A82
330
9E0
100
AcDbEntity
  8
0
 62
     0
100
AcDbLine
 10
8.657421992812714
 20
10.22500033944965
 30
0.0
 11
7.257421992812652
 21
11.62500033944971
 31
0.0
  0
LINE
  5
A83
330
9E0
100
AcDbEntity
  8
0
 62
     0
100
AcDbLine
 10
15.30742199281269
 20
3.575000339449644
 30
0.0
 11
14.92110582087756
 21
3.961316511384808
 31
0.0
  0
LINE
  5
A84
330
9E0
100
AcDbEntity
  8
0
 62
     0
100
AcDbLine
 10
11.7711058208776
 20
6.662303705331339
 30
0.0
 11
10.37110582087757
 21
8.062303705331373
 31
0.0
  0
LINE
  5
A85
330
9E0
100
AcDbEntity
  8
0
 62
     0
100
AcDbLine
 10
8.208409186759269
 20
10.22500033944965
 30
0.0
 11
6.825844550706818
 21
11.60756497550213
 31
0.0
  0
LINE
  5
A86
330
9E0
100
AcDbEntity
  8
0
 62
     0
100
AcDbLine
 10
13.69480459645911
 20
4.738604929749811
 30
0.0
 11
13.45971041117775
 21
4.973699115031195
 31
0.0
  0
LINE
  5
A87
330
9E0
100
AcDbEntity
  8
0
 62
     0
100
AcDbLine
 10
11.77110582087758
 20
6.213290899277865
 30
0.0
 11
10.37110582087757
 21
7.613290899277899
 31
0.0
  0
LINE
  5
A88
330
9E0
100
AcDbEntity
  8
0
 62
     0
100
AcDbLine
 10
7.759396380705823
 20
10.22500033944965
 30
0.0
 11
6.47927714646758
 21
11.50511957368789
 31
0.0
  0
LINE
  5
A89
330
9E0
100
AcDbEntity
  8
0
 62
     0
100
AcDbLine
 10
13.69610582087762
 20
4.288290899277853
 30
0.0
 11
13.00939638070579
 21
4.975000339449678
 31
0.0
  0
LINE
  5
A8A
330
9E0
100
AcDbEntity
  8
0
 62
     0
100
AcDbLine
 10
11.77110582087758
 20
5.764278093224419
 30
0.0
 11
10.3711058208776
 21
7.164278093224396
 31
0.0
  0
LINE
  5
A8B
330
9E0
100
AcDbEntity
  8
0
 62
     0
100
AcDbLine
 10
7.310383574652348
 20
10.22500033944962
 30
0.0
 11
6.197153816543959
 21
11.33823009755801
 31
0.0
  0
LINE
  5
A8C
330
9E0
100
AcDbEntity
  8
0
 62
     0
100
AcDbLine
 10
13.69610582087759
 20
3.839278093224379
 30
0.0
 11
12.56038357465235
 21
4.975000339449621
 31
0.0
  0
LINE
  5
A8D
330
9E0
100
AcDbEntity
  8
0
 62
     0
100
AcDbLine
 10
7.055237160845052
 20
10.03113394720353
 30
0.0
 11
5.968107410423584
 21
11.11826369762499
 31
0.0
  0
LINE
  5
A8E
330
9E0
100
AcDbEntity
  8
0
 62
     0
100
AcDbLine
 10
13.50223942863141
 20
3.584131679417168
 30
0.0
 11
10.3711058208776
 21
6.715265287170979
 31
0.0
  0
LINE
  5
A8F
330
9E0
100
AcDbEntity
  8
0
 62
     0
100
AcDbLine
 10
7.046105820877585
 20
9.591252481117521
 30
0.0
 11
5.791366809189042
 21
10.84599149280606
 31
0.0
  0
LINE
  5
A90
330
9E0
100
AcDbEntity
  8
0
 62
     0
100
AcDbLine
 10
13.06235796254546
 20
3.575000339449644
 30
0.0
 11
10.3711058208776
 21
6.266252481117504
 31
0.0
  0
LINE
  5
A91
330
9E0
100
AcDbEntity
  8
0
 62
     0
100
AcDbLine
 10
7.077173674945299
 20
9.111171820996304
 30
0.0
 11
5.67592675804218
 21
10.51241873789945
 31
0.0
  0
LINE
  5
A92
330
9E0
100
AcDbEntity
  8
0
 62
     0
100
AcDbLine
 10
12.61334515649196
 20
3.575000339449672
 30
0.0
 11
10.37110582087757
 21
5.81723967506403
 31
0.0
  0
LINE
  5
A93
330
9E0
100
AcDbEntity
  8
0
 62
     0
100
AcDbLine
 10
9.223293866488916
 20
6.51603882339927
 30
0.0
 11
5.646105820877608
 21
10.09322686901058
 31
0.0
  0
LINE
  5
A94
330
9E0
100
AcDbEntity
  8
0
 62
     0
100
AcDbLine
 10
12.13769630691018
 20
3.601636382978
 30
0.0
 11
10.3977418644059
 21
5.341590825482285
 31
0.0
  0
LINE
  5
A95
330
9E0
100
AcDbEntity
  8
0
 62
     0
100
AcDbLine
 10
9.319241123531526
 20
5.971078760303214
 30
0.0
 11
5.646105820877551
 21
9.644214062957189
 31
0.0
  0
LINE
  5
A96
330
9E0
100
AcDbEntity
  8
0
 62
     0
100
AcDbLine
 10
11.45079235060939
 20
3.839527533225322
 30
0.0
 11
10.63563301465319
 21
4.654686869181546
 31
0.0
  0
LINE
  5
A97
330
9E0
100
AcDbEntity
  8
0
 62
     0
100
AcDbLine
 10
9.321105820877619
 20
5.520201256903646
 30
0.0
 11
5.649888044588749
 21
9.191419033192488
 31
0.0
  0
LINE
  5
A98
330
9E0
100
AcDbEntity
  8
0
 62
     0
100
AcDbLine
 10
9.321105820877562
 20
5.071188450850229
 30
0.0
 11
5.761533423750677
 21
8.630760847977086
 31
0.0
  0
LINE
  5
A99
330
9E0
100
AcDbEntity
  8
0
 62
     0
100
AcDbLine
 10
9.284845822811604
 20
4.65843564286277
 30
0.0
 11
7.903150001002074
 21
6.040131464672299
 31
0.0
  0
LINE
  5
A9A
330
9E0
100
AcDbEntity
  8
0
 62
     0
100
AcDbLine
 10
9.163876853297182
 20
4.330391806323717
 30
0.0
 11
7.921105820877556
 21
5.573162838743343
 31
0.0
  0
LINE
  5
A9B
330
9E0
100
AcDbEntity
  8
0
 62
     0
100
AcDbLine
 10
8.982817229606297
 20
4.062438623961128
 30
0.0
 11
7.903156304727218
 21
5.142099548840207
 31
0.0
  0
LINE
  5
A9C
330
9E0
100
AcDbEntity
  8
0
 62
     0
100
AcDbLine
 10
8.74970404347286
 20
3.846539004041119
 30
0.0
 11
7.621242708064301
 21
4.975000339449707
 31
0.0
  0
LINE
  5
A9D
330
9E0
100
AcDbEntity
  8
0
 62
     0
100
AcDbLine
 10
8.463071819606454
 20
3.684158421854078
 30
0.0
 11
7.172229902010826
 21
4.975000339449678
 31
0.0
  0
LINE
  5
A9E
330
9E0
100
AcDbEntity
  8
0
 62
     0
100
AcDbLine
 10
8.110365525063485
 20
3.587851910343573
 30
0.0
 11
6.72321709595738
 21
4.975000339449678
 31
0.0
  0
LINE
  5
A9F
330
9E0
100
AcDbEntity
  8
0
 62
     0
100
AcDbLine
 10
7.674204289903912
 20
3.575000339449672
 30
0.0
 11
6.274204289903906
 21
4.975000339449678
 31
0.0
  0
LINE
  5
AA0
330
9E0
100
AcDbEntity
  8
0
 62
     0
100
AcDbLine
 10
7.225191483850494
 20
3.575000339449644
 30
0.0
 11
5.948529536441554
 21
4.851662286858612
 31
0.0
  0
LINE
  5
AA1
330
9E0
100
AcDbEntity
  8
0
 62
     0
100
AcDbLine
 10
6.776178677796991
 20
3.575000339449672
 30
0.0
 11
5.908605820877596
 21
4.442573196369068
 31
0.0
  0
LINE
  5
AA2
330
9E0
100
AcDbEntity
  8
0
 62
     0
100
AcDbLine
 10
6.327165871743574
 20
3.575000339449644
 30
0.0
 11
5.908605820877596
 21
3.993560390315622
 31
0.0
  0
LINE
  5
AA3
330
9E0
100
AcDbEntity
  8
0
 62
     0
100
AcDbLine
 10
34.31694946321105
 20
3.581566228008426
 30
0.0
 11
34.51453993231894
 21
3.77915669711632
 31
0.0
  0
LINE
  5
AA4
330
9E0
100
AcDbEntity
  8
0
 62
     0
100
AcDbLine
 10
33.86137076859887
 20
3.575000339449644
 30
0.0
 11
34.52110582087767
 21
4.234735391728463
 31
0.0
  0
LINE
  5
AA5
330
9E0
100
AcDbEntity
  8
0
 62
     0
100
AcDbLine
 10
33.4123579625454
 20
3.575000339449672
 30
0.0
 11
34.52110582087767
 21
4.683748197781909
 31
0.0
  0
LINE
  5
AA6
330
9E0
100
AcDbEntity
  8
0
 62
     0
100
AcDbLine
 10
33.1367046025035
 20
3.748359785461218
 30
0.0
 11
34.52110582087764
 21
5.132761003835383
 31
0.0
  0
LINE
  5
AA7
330
9E0
100
AcDbEntity
  8
0
 62
     0
100
AcDbLine
 10
33.1211058208776
 20
4.181773809888795
 30
0.0
 11
34.52110582087764
 21
5.581773809888801
 31
0.0
  0
LINE
  5
AA8
330
9E0
100
AcDbEntity
  8
0
 62
     0
100
AcDbLine
 10
33.12110582087763
 20
4.630786615942241
 30
0.0
 11
34.52110582087764
 21
6.030786615942275
 31
0.0
  0
LINE
  5
AA9
330
9E0
100
AcDbEntity
  8
0
 62
     0
100
AcDbLine
 10
33.1211058208776
 20
5.079799421995716
 30
0.0
 11
34.52110582087764
 21
6.47979942199575
 31
0.0
  0
LINE
  5
AAA
330
9E0
100
AcDbEntity
  8
0
 62
     0
100
AcDbLine
 10
33.1211058208776
 20
5.528812228049162
 30
0.0
 11
34.52110582087764
 21
6.928812228049196
 31
0.0
  0
LINE
  5
AAB
330
9E0
100
AcDbEntity
  8
0
 62
     0
100
AcDbLine
 10
31.33438825191024
 20
3.7420946590818
 30
0.0
 11
31.90401150124552
 21
4.311717908417108
 31
0.0
  0
LINE
  5
AAC
330
9E0
100
AcDbEntity
  8
0
 62
     0
100
AcDbLine
 10
33.1211058208776
 20
5.977825034102608
 30
0.0
 11
34.52110582087764
 21
7.377825034102642
 31
0.0
  0
LINE
  5
AAD
330
9E0
100
AcDbEntity
  8
0
 62
     0
100
AcDbLine
 10
30.71910416864884
 20
3.575823381873846
 30
0.0
 11
32.0702827784535
 21
4.92700199167848
 31
0.0
  0
LINE
  5
AAE
330
9E0
100
AcDbEntity
  8
0
 62
     0
100
AcDbLine
 10
33.1211058208776
 20
6.426837840156082
 30
0.0
 11
34.52110582087764
 21
7.826837840156088
 31
0.0
  0
LINE
  5
AAF
330
9E0
100
AcDbEntity
  8
0
 62
     0
100
AcDbLine
 10
30.26926832017122
 20
3.575000339449701
 30
0.0
 11
32.07110582087765
 21
5.376837840156099
 31
0.0
  0
LINE
  5
AB0
330
9E0
100
AcDbEntity
  8
0
 62
     0
100
AcDbLine
 10
33.1211058208776
 20
6.875850646209528
 30
0.0
 11
34.52110582087761
 21
8.275850646209562
 31
0.0
  0
LINE
  5
AB1
330
9E0
100
AcDbEntity
  8
0
 62
     0
100
AcDbLine
 10
29.82025551411775
 20
3.575000339449701
 30
0.0
 11
32.07110582087762
 21
5.825850646209573
 31
0.0
  0
LINE
  5
AB2
330
9E0
100
AcDbEntity
  8
0
 62
     0
100
AcDbLine
 10
33.1211058208776
 20
7.324863452262974
 30
0.0
 11
34.52110582087764
 21
8.724863452263008
 31
0.0
  0
LINE
  5
AB3
330
9E0
100
AcDbEntity
  8
0
 62
     0
100
AcDbLine
 10
29.37124270806427
 20
3.575000339449644
 30
0.0
 11
32.07110582087765
 21
6.274863452263019
 31
0.0
  0
LINE
  5
AB4
330
9E0
100
AcDbEntity
  8
0
 62
     0
100
AcDbLine
 10
30.61881021983709
 20
5.271580657275933
 30
0.0
 11
32.07110582087765
 21
6.723876258316465
 31
0.0
  0
LINE
  5
AB5
330
9E0
100
AcDbEntity
  8
0
 62
     0
100
AcDbLine
 10
33.1211058208776
 20
7.77387625831642
 30
0.0
 11
34.52110582087764
 21
9.173876258316454
 31
0.0
  0
LINE
  5
AB6
330
9E0
100
AcDbEntity
  8
0
 62
     0
100
AcDbLine
 10
28.92222990201086
 20
3.575000339449701
 30
0.0
 11
30.37452550305133
 21
5.027295940490148
 31
0.0
  0
LINE
  5
AB7
330
9E0
100
AcDbEntity
  8
0
 62
     0
100
AcDbLine
 10
30.67110582087756
 20
5.772889064369877
 30
0.0
 11
32.07110582087762
 21
7.17288906436994
 31
0.0
  0
LINE
  5
AB8
330
9E0
100
AcDbEntity
  8
0
 62
     0
100
AcDbLine
 10
33.12110582087758
 20
8.222889064369894
 30
0.0
 11
34.52110582087761
 21
9.622889064369928
 31
0.0
  0
LINE
  5
AB9
330
9E0
100
AcDbEntity
  8
0
 62
     0
100
AcDbLine
 10
28.52919197164593
 20
3.630975215138221
 30
0.0
 11
29.87321709595739
 21
4.975000339449707
 31
0.0
  0
LINE
  5
ABA
330
9E0
100
AcDbEntity
  8
0
 62
     0
100
AcDbLine
 10
30.67110582087756
 20
6.221901870423323
 30
0.0
 11
32.07110582087762
 21
7.621901870423386
 31
0.0
  0
LINE
  5
ABB
330
9E0
100
AcDbEntity
  8
0
 62
     0
100
AcDbLine
 10
33.12110582087758
 20
8.671901870423369
 30
0.0
 11
34.52110582087761
 21
10.07190187042337
 31
0.0
  0
LINE
  5
ABC
330
9E0
100
AcDbEntity
  8
0
 62
     0
100
AcDbLine
 10
28.21519853804085
 20
3.765994587586646
 30
0.0
 11
29.42464318272607
 21
4.975439232271867
 31
0.0
  0
LINE
  5
ABD
330
9E0
100
AcDbEntity
  8
0
 62
     0
100
AcDbLine
 10
30.67110582087756
 20
6.670914676476769
 30
0.0
 11
32.07110582087762
 21
8.070914676476832
 31
0.0
  0
LINE
  5
ABE
330
9E0
100
AcDbEntity
  8
0
 62
     0
100
AcDbLine
 10
33.1211058208776
 20
9.120914676476786
 30
0.0
 11
34.52110582087761
 21
10.52091467647682
 31
0.0
  0
LINE
  5
ABF
330
9E0
100
AcDbEntity
  8
0
 62
     0
100
AcDbLine
 10
27.95856859735832
 20
3.958377452957506
 30
0.0
 11
29.10290388836973
 21
5.102712743968936
 31
0.0
  0
LINE
  5
AC0
330
9E0
100
AcDbEntity
  8
0
 62
     0
100
AcDbLine
 10
30.67110582087756
 20
7.119927482530215
 30
0.0
 11
32.07110582087762
 21
8.519927482530306
 31
0.0
  0
LINE
  5
AC1
330
9E0
100
AcDbEntity
  8
0
 62
     0
100
AcDbLine
 10
33.12110582087758
 20
9.56992748253026
 30
0.0
 11
34.52110582087761
 21
10.96992748253029
 31
0.0
  0
LINE
  5
AC2
330
9E0
100
AcDbEntity
  8
0
 62
     0
100
AcDbLine
 10
27.75358650974576
 20
4.202408171398417
 30
0.0
 11
28.93428474916502
 21
5.383106410817703
 31
0.0
  0
LINE
  5
AC3
330
9E0
100
AcDbEntity
  8
0
 62
     0
100
AcDbLine
 10
30.67110582087753
 20
7.568940288583689
 30
0.0
 11
32.07110582087762
 21
8.968940288583752
 31
0.0
  0
LINE
  5
AC4
330
9E0
100
AcDbEntity
  8
0
 62
     0
100
AcDbLine
 10
33.12110582087758
 20
10.0189402885837
 30
0.0
 11
34.51603124410238
 21
11.41386571180854
 31
0.0
  0
LINE
  5
AC5
330
9E0
100
AcDbEntity
  8
0
 62
     0
100
AcDbLine
 10
27.60362407052876
 20
4.501458538234913
 30
0.0
 11
28.92110582087756
 21
5.818940288583718
 31
0.0
  0
LINE
  5
AC6
330
9E0
100
AcDbEntity
  8
0
 62
     0
100
AcDbLine
 10
30.67110582087759
 20
8.017953094637164
 30
0.0
 11
32.07110582087762
 21
9.417953094637198
 31
0.0
  0
LINE
  5
AC7
330
9E0
100
AcDbEntity
  8
0
 62
     0
100
AcDbLine
 10
33.12110582087758
 20
10.46795309463715
 30
0.0
 11
34.27747407156264
 21
11.62432134532221
 31
0.0
  0
LINE
  5
AC8
330
9E0
100
AcDbEntity
  8
0
 62
     0
100
AcDbLine
 10
27.52491730305053
 20
4.871764576810107
 30
0.0
 11
28.92110582087759
 21
6.267953094637164
 31
0.0
  0
LINE
  5
AC9
330
9E0
100
AcDbEntity
  8
0
 62
     0
100
AcDbLine
 10
30.67110582087759
 20
8.466965900690638
 30
0.0
 11
32.07110582087762
 21
9.866965900690644
 31
0.0
  0
LINE
  5
ACA
330
9E0
100
AcDbEntity
  8
0
 62
     0
100
AcDbLine
 10
33.1211058208776
 20
10.91696590069065
 30
0.0
 11
33.8291402596366
 21
11.62500033944965
 31
0.0
  0
LINE
  5
ACB
330
9E0
100
AcDbEntity
  8
0
 62
     0
100
AcDbLine
 10
27.52110582087758
 20
5.316965900690632
 30
0.0
 11
28.92110582087762
 21
6.716965900690667
 31
0.0
  0
LINE
  5
ACC
330
9E0
100
AcDbEntity
  8
0
 62
     0
100
AcDbLine
 10
30.67110582087759
 20
8.915978706744084
 30
0.0
 11
32.07110582087759
 21
10.31597870674412
 31
0.0
  0
LINE
  5
ACD
330
9E0
100
AcDbEntity
  8
0
 62
     0
100
AcDbLine
 10
27.52110582087758
 20
5.765978706744078
 30
0.0
 11
28.92110582087759
 21
7.165978706744112
 31
0.0
  0
LINE
  5
ACE
330
9E0
100
AcDbEntity
  8
0
 62
     0
100
AcDbLine
 10
33.12112917825132
 20
11.36600206411785
 30
0.0
 11
33.38010409620947
 21
11.62497698207596
 31
0.0
  0
LINE
  5
ACF
330
9E0
100
AcDbEntity
  8
0
 62
     0
100
AcDbLine
 10
25.36032800552161
 20
3.605200891388108
 30
0.0
 11
26.44090526893919
 21
4.685778154805717
 31
0.0
  0
LINE
  5
AD0
330
9E0
100
AcDbEntity
  8
0
 62
     0
100
AcDbLine
 10
27.52110582087755
 20
6.214991512797553
 30
0.0
 11
28.92110582087759
 21
7.614991512797587
 31
0.0
  0
LINE
  5
AD1
330
9E0
100
AcDbEntity
  8
0
 62
     0
100
AcDbLine
 10
30.67110582087756
 20
9.364991512797558
 30
0.0
 11
32.07110582087759
 21
10.76499151279759
 31
0.0
  0
LINE
  5
AD2
330
9E0
100
AcDbEntity
  8
0
 62
     0
100
AcDbLine
 10
24.8811146475297
 20
3.575000339449701
 30
0.0
 11
26.47110582087757
 21
5.164991512797541
 31
0.0
  0
LINE
  5
AD3
330
9E0
100
AcDbEntity
  8
0
 62
     0
100
AcDbLine
 10
27.52110582087758
 20
6.664004318850999
 30
0.0
 11
28.92110582087762
 21
8.064004318851004
 31
0.0
  0
LINE
  5
AD4
330
9E0
100
AcDbEntity
  8
0
 62
     0
100
AcDbLine
 10
30.67110582087759
 20
9.814004318850976
 30
0.0
 11
32.07110582087762
 21
11.21400431885101
 31
0.0
  0
LINE
  5
AD5
330
9E0
100
AcDbEntity
  8
0
 62
     0
100
AcDbLine
 10
24.43210184147623
 20
3.575000339449644
 30
0.0
 11
26.47110582087762
 21
5.614004318851016
 31
0.0
  0
LINE
  5
AD6
330
9E0
100
AcDbEntity
  8
0
 62
     0
100
AcDbLine
 10
27.52110582087758
 20
7.113017124904445
 30
0.0
 11
28.92110582087759
 21
8.513017124904479
 31
0.0
  0
LINE
  5
AD7
330
9E0
100
AcDbEntity
  8
0
 62
     0
100
AcDbLine
 10
30.67110582087756
 20
10.26301712490445
 30
0.0
 11
31.97423709346058
 21
11.56614839748747
 31
0.0
  0
LINE
  5
AD8
330
9E0
100
AcDbEntity
  8
0
 62
     0
100
AcDbLine
 10
23.98308903542278
 20
3.575000339449672
 30
0.0
 11
26.46394652067113
 21
6.055857824698023
 31
0.0
  0
LINE
  5
AD9
330
9E0
100
AcDbEntity
  8
0
 62
     0
100
AcDbLine
 10
27.52110582087755
 20
7.562029930957919
 30
0.0
 11
28.92110582087759
 21
8.962029930957953
 31
0.0
  0
LINE
  5
ADA
330
9E0
100
AcDbEntity
  8
0
 62
     0
100
AcDbLine
 10
30.67110582087756
 20
10.71202993095792
 30
0.0
 11
31.58407622936932
 21
11.62500033944968
 31
0.0
  0
LINE
  5
ADB
330
9E0
100
AcDbEntity
  8
0
 62
     0
100
AcDbLine
 10
23.53407622936931
 20
3.575000339449672
 30
0.0
 11
26.39649033535676
 21
6.437414445437099
 31
0.0
  0
LINE
  5
ADC
330
9E0
100
AcDbEntity
  8
0
 62
     0
100
AcDbLine
 10
27.52110582087758
 20
8.011042737011337
 30
0.0
 11
28.92110582087759
 21
9.411042737011371
 31
0.0
  0
LINE
  5
ADD
330
9E0
100
AcDbEntity
  8
0
 62
     0
100
AcDbLine
 10
25.07110582087762
 20
5.561042737011405
 30
0.0
 11
26.27619660689749
 21
6.766133523031243
 31
0.0
  0
LINE
  5
ADE
330
9E0
100
AcDbEntity
  8
0
 62
     0
100
AcDbLine
 10
30.67110582087759
 20
11.16104273701134
 30
0.0
 11
31.13506342331593
 21
11.62500033944971
 31
0.0
  0
LINE
  5
ADF
330
9E0
100
AcDbEntity
  8
0
 62
     0
100
AcDbLine
 10
23.14919109988142
 20
3.639128016015206
 30
0.0
 11
24.48506342331587
 21
4.97500033944965
 31
0.0
  0
LINE
  5
AE0
330
9E0
100
AcDbEntity
  8
0
 62
     0
100
AcDbLine
 10
25.06117053331397
 20
6.000120255501201
 30
0.0
 11
26.11444695446721
 21
7.053396676654443
 31
0.0
  0
LINE
  5
AE1
330
9E0
100
AcDbEntity
  8
0
 62
     0
100
AcDbLine
 10
27.52110582087761
 20
8.460055543064839
 30
0.0
 11
28.92110582087762
 21
9.860055543064873
 31
0.0
  0
LINE
  5
AE2
330
9E0
100
AcDbEntity
  8
0
 62
     0
100
AcDbLine
 10
23.05860582087758
 20
3.997555543064834
 30
0.0
 11
24.03605061726239
 21
4.97500033944965
 31
0.0
  0
LINE
  5
AE3
330
9E0
100
AcDbEntity
  8
0
 62
     0
100
AcDbLine
 10
24.92397811474453
 20
6.311940642985263
 30
0.0
 11
25.91651139550331
 21
7.304473923744041
 31
0.0
  0
LINE
  5
AE4
330
9E0
100
AcDbEntity
  8
0
 62
     0
100
AcDbLine
 10
27.52110582087758
 20
8.909068349118314
 30
0.0
 11
28.92110582087762
 21
10.30906834911835
 31
0.0
  0
LINE
  5
AE5
330
9E0
100
AcDbEntity
  8
0
 62
     0
100
AcDbLine
 10
23.05860582087758
 20
4.44656834911828
 30
0.0
 11
23.58703781120894
 21
4.975000339449678
 31
0.0
  0
LINE
  5
AE6
330
9E0
100
AcDbEntity
  8
0
 62
     0
100
AcDbLine
 10
27.52110582087761
 20
9.35808115517176
 30
0.0
 11
28.92110582087764
 21
10.75808115517176
 31
0.0
  0
LINE
  5
AE7
330
9E0
100
AcDbEntity
  8
0
 62
     0
100
AcDbLine
 10
24.703340666186
 20
6.540316000480117
 30
0.0
 11
25.69329015984718
 21
7.530265494141332
 31
0.0
  0
LINE
  5
AE8
330
9E0
100
AcDbEntity
  8
0
 62
     0
100
AcDbLine
 10
24.47883426315926
 20
6.764822403506855
 30
0.0
 11
25.46878375682041
 21
7.754771897168012
 31
0.0
  0
LINE
  5
AE9
330
9E0
100
AcDbEntity
  8
0
 62
     0
100
AcDbLine
 10
27.52110582087758
 20
9.807093961225206
 30
0.0
 11
28.92110582087762
 21
11.20709396122524
 31
0.0
  0
LINE
  5
AEA
330
9E0
100
AcDbEntity
  8
0
 62
     0
100
AcDbLine
 10
21.28901219910205
 20
3.575000339449672
 30
0.0
 11
21.7461058208776
 21
4.0320939612252
 31
0.0
  0
LINE
  5
AEB
330
9E0
100
AcDbEntity
  8
0
 62
     0
100
AcDbLine
 10
24.25432786013255
 20
6.989328806533649
 30
0.0
 11
25.24427735379368
 21
7.979278300194749
 31
0.0
  0
LINE
  5
AEC
330
9E0
100
AcDbEntity
  8
0
 62
     0
100
AcDbLine
 10
27.52110582087758
 20
10.25610676727868
 30
0.0
 11
28.82801536682828
 21
11.56301631322935
 31
0.0
  0
LINE
  5
AED
330
9E0
100
AcDbEntity
  8
0
 62
     0
100
AcDbLine
 10
20.8399993930486
 20
3.575000339449672
 30
0.0
 11
21.74610582087757
 21
4.481106767278674
 31
0.0
  0
LINE
  5
AEE
330
9E0
100
AcDbEntity
  8
0
 62
     0
100
AcDbLine
 10
24.02982145710578
 20
7.213835209560329
 30
0.0
 11
25.01977095076694
 21
8.203784703221487
 31
0.0
  0
LINE
  5
AEF
330
9E0
100
AcDbEntity
  8
0
 62
     0
100
AcDbLine
 10
27.52110582087758
 20
10.70511957333212
 30
0.0
 11
28.44098658699514
 21
11.62500033944971
 31
0.0
  0
LINE
  5
AF0
330
9E0
100
AcDbEntity
  8
0
 62
     0
100
AcDbLine
 10
20.44679215592609
 20
3.630805908380636
 30
0.0
 11
21.7461058208776
 21
4.930119573332177
 31
0.0
  0
LINE
  5
AF1
330
9E0
100
AcDbEntity
  8
0
 62
     0
100
AcDbLine
 10
23.80531505407907
 20
7.438341612587038
 30
0.0
 11
24.79526454774023
 21
8.428291106248195
 31
0.0
  0
LINE
  5
AF2
330
9E0
100
AcDbEntity
  8
0
 62
     0
100
AcDbLine
 10
27.52110582087758
 20
11.15413237938557
 30
0.0
 11
27.99197378094172
 21
11.62500033944968
 31
0.0
  0
LINE
  5
AF3
330
9E0
100
AcDbEntity
  8
0
 62
     0
100
AcDbLine
 10
20.34610582087757
 20
3.979132379385532
 30
0.0
 11
21.74610582087763
 21
5.379132379385595
 31
0.0
  0
LINE
  5
AF4
330
9E0
100
AcDbEntity
  8
0
 62
     0
100
AcDbLine
 10
23.58080865105234
 20
7.662848015613775
 30
0.0
 11
24.5707581447135
 21
8.652797509274932
 31
0.0
  0
LINE
  5
AF5
330
9E0
100
AcDbEntity
  8
0
 62
     0
100
AcDbLine
 10
20.3461058208776
 20
4.428145185439035
 30
0.0
 11
21.7461058208776
 21
5.828145185439069
 31
0.0
  0
LINE
  5
AF6
330
9E0
100
AcDbEntity
  8
0
 62
     0
100
AcDbLine
 10
23.35731670053167
 20
7.88836887114661
 30
0.0
 11
24.34930346722268
 21
8.880355637837595
 31
0.0
  0
LINE
  5
AF7
330
9E0
100
AcDbEntity
  8
0
 62
     0
100
AcDbLine
 10
20.34610582087757
 20
4.877157991492509
 30
0.0
 11
21.7461058208776
 21
6.277157991492543
 31
0.0
  0
LINE
  5
AF8
330
9E0
100
AcDbEntity
  8
0
 62
     0
100
AcDbLine
 10
25.69394816883477
 20
10.22500033944968
 30
0.0
 11
26.20860582087758
 21
10.73965799149252
 31
0.0
  0
LINE
  5
AF9
330
9E0
100
AcDbEntity
  8
0
 62
     0
100
AcDbLine
 10
19.09977770852251
 20
3.630829879137422
 30
0.0
 11
19.14460388925002
 21
3.675656059864962
 31
0.0
  0
LINE
  5
AFA
330
9E0
100
AcDbEntity
  8
0
 62
     0
100
AcDbLine
 10
23.15831561112069
 20
8.138380587789043
 30
0.0
 11
24.20813274982999
 21
9.188197726498344
 31
0.0
  0
LINE
  5
AFB
330
9E0
100
AcDbEntity
  8
0
 62
     0
100
AcDbLine
 10
20.3461058208776
 20
5.326170797545927
 30
0.0
 11
21.74610582087763
 21
6.726170797545961
 31
0.0
  0
LINE
  5
AFC
330
9E0
100
AcDbEntity
  8
0
 62
     0
100
AcDbLine
 10
25.24493536278132
 20
10.22500033944968
 30
0.0
 11
26.20860582087761
 21
11.18867079754594
 31
0.0
  0
LINE
  5
AFD
330
9E0
100
AcDbEntity
  8
0
 62
     0
100
AcDbLine
 10
18.59493536278128
 20
3.575000339449644
 30
0.0
 11
19.12782491093452
 21
4.107889887602851
 31
0.0
  0
LINE
  5
AFE
330
9E0
100
AcDbEntity
  8
0
 62
     0
100
AcDbLine
 10
22.99539847892234
 20
8.424476261644173
 30
0.0
 11
24.19610582087765
 21
9.625183603599452
 31
0.0
  0
LINE
  5
AFF
330
9E0
100
AcDbEntity
  8
0
 62
     0
100
AcDbLine
 10
20.34610582087757
 20
5.775183603599401
 30
0.0
 11
21.7461058208776
 21
7.175183603599435
 31
0.0
  0
LINE
  5
B00
330
9E0
100
AcDbEntity
  8
0
 62
     0
100
AcDbLine
 10
24.79592255672788
 20
10.22500033944968
 30
0.0
 11
26.12527135497868
 21
11.55434913770051
 31
0.0
  0
LINE
  5
B01
330
9E0
100
AcDbEntity
  8
0
 62
     0
100
AcDbLine
 10
18.14592255672784
 20
3.575000339449644
 30
0.0
 11
19.0200618374817
 21
4.449139620203538
 31
0.0
  0
LINE
  5
B02
330
9E0
100
AcDbEntity
  8
0
 62
     0
100
AcDbLine
 10
20.34610582087757
 20
6.224196409652876
 30
0.0
 11
21.7461058208776
 21
7.624196409652881
 31
0.0
  0
LINE
  5
B03
330
9E0
100
AcDbEntity
  8
0
 62
     0
100
AcDbLine
 10
22.87370744758729
 20
8.7517980363626
 30
0.0
 11
25.74690975067444
 21
11.62500033944971
 31
0.0
  0
LINE
  5
B04
330
9E0
100
AcDbEntity
  8
0
 62
     0
100
AcDbLine
 10
17.84991540140029
 20
3.728005990175603
 30
0.0
 11
18.91229876402886
 21
4.790389352804169
 31
0.0
  0
LINE
  5
B05
330
9E0
100
AcDbEntity
  8
0
 62
     0
100
AcDbLine
 10
20.34610582087757
 20
6.673209215706322
 30
0.0
 11
21.74610582087757
 21
8.073209215706356
 31
0.0
  0
LINE
  5
B06
330
9E0
100
AcDbEntity
  8
0
 62
     0
100
AcDbLine
 10
22.80435401804445
 20
9.131457412873231
 30
0.0
 11
25.29789694462096
 21
11.62500033944974
 31
0.0
  0
LINE
  5
B07
330
9E0
100
AcDbEntity
  8
0
 62
     0
100
AcDbLine
 10
17.74053569057599
 20
4.067639085404778
 30
0.0
 11
18.80453569057599
 21
5.131639085404771
 31
0.0
  0
LINE
  5
B08
330
9E0
100
AcDbEntity
  8
0
 62
     0
100
AcDbLine
 10
20.34610582087757
 20
7.122222021759768
 30
0.0
 11
21.7461058208776
 21
8.522222021759802
 31
0.0
  0
LINE
  5
B09
330
9E0
100
AcDbEntity
  8
0
 62
     0
100
AcDbLine
 10
22.79610582087761
 20
9.572222021759785
 30
0.0
 11
24.84888413856749
 21
11.62500033944968
 31
0.0
  0
LINE
  5
B0A
330
9E0
100
AcDbEntity
  8
0
 62
     0
100
AcDbLine
 10
17.63277261712318
 20
4.40888881800538
 30
0.0
 11
18.69677261712323
 21
5.472888818005401
 31
0.0
  0
LINE
  5
B0B
330
9E0
100
AcDbEntity
  8
0
 62
     0
100
AcDbLine
 10
20.3461058208776
 20
7.57123482781327
 30
0.0
 11
21.7461058208776
 21
8.971234827813248
 31
0.0
  0
LINE
  5
B0C
330
9E0
100
AcDbEntity
  8
0
 62
     0
100
AcDbLine
 10
22.79610582087759
 20
10.02123482781326
 30
0.0
 11
24.39987133251404
 21
11.62500033944968
 31
0.0
  0
LINE
  5
B0D
330
9E0
100
AcDbEntity
  8
0
 62
     0
100
AcDbLine
 10
17.52500954367031
 20
4.750138550605981
 30
0.0
 11
18.58900954367038
 21
5.814138550606031
 31
0.0
  0
LINE
  5
B0E
330
9E0
100
AcDbEntity
  8
0
 62
     0
100
AcDbLine
 10
20.3461058208776
 20
8.020247633866716
 30
0.0
 11
21.74610582087757
 21
9.420247633866722
 31
0.0
  0
LINE
  5
B0F
330
9E0
100
AcDbEntity
  8
0
 62
     0
100
AcDbLine
 10
17.41724647021749
 20
5.09138828320664
 30
0.0
 11
18.48124647021754
 21
6.155388283206661
 31
0.0
  0
LINE
  5
B10
330
9E0
100
AcDbEntity
  8
0
 62
     0
100
AcDbLine
 10
22.82276415593821
 20
10.49690596892736
 30
0.0
 11
23.92420019139988
 21
11.59834200438902
 31
0.0
  0
LINE
  5
B11
330
9E0
100
AcDbEntity
  8
0
 62
     0
100
AcDbLine
 10
15.90085852646055
 20
3.575000339449672
 30
0.0
 11
16.32110582087759
 21
3.995247633866739
 31
0.0
  0
LINE
  5
B12
330
9E0
100
AcDbEntity
  8
0
 62
     0
100
AcDbLine
 10
17.3094833967647
 20
5.432638015807242
 30
0.0
 11
18.37348339676467
 21
6.496638015807235
 31
0.0
  0
LINE
  5
B13
330
9E0
100
AcDbEntity
  8
0
 62
     0
100
AcDbLine
 10
20.3461058208776
 20
8.469260439920162
 30
0.0
 11
21.7461058208776
 21
9.86926043992014
 31
0.0
  0
LINE
  5
B14
330
9E0
100
AcDbEntity
  8
0
 62
     0
100
AcDbLine
 10
15.4518457204071
 20
3.575000339449672
 30
0.0
 11
16.32110582087762
 21
4.444260439920185
 31
0.0
  0
LINE
  5
B15
330
9E0
100
AcDbEntity
  8
0
 62
     0
100
AcDbLine
 10
17.20172032331186
 20
5.773887748407872
 30
0.0
 11
18.26572032331188
 21
6.837887748407922
 31
0.0
  0
LINE
  5
B16
330
9E0
100
AcDbEntity
  8
0
 62
     0
100
AcDbLine
 10
20.3461058208776
 20
8.918273245973637
 30
0.0
 11
21.74610582087757
 21
10.31827324597361
 31
0.0
  0
LINE
  5
B17
330
9E0
100
AcDbEntity
  8
0
 62
     0
100
AcDbLine
 10
15.04340778817925
 20
3.615575213275292
 30
0.0
 11
16.32110582087762
 21
4.893273245973631
 31
0.0
  0
LINE
  5
B18
330
9E0
100
AcDbEntity
  8
0
 62
     0
100
AcDbLine
 10
17.09395724985896
 20
6.115137481008474
 30
0.0
 11
18.15795724985903
 21
7.179137481008552
 31
0.0
  0
LINE
  5
B19
330
9E0
100
AcDbEntity
  8
0
 62
     0
100
AcDbLine
 10
20.3461058208776
 20
9.367286052027083
 30
0.0
 11
21.74610582087757
 21
10.76728605202709
 31
0.0
  0
LINE
  5
B1A
330
9E0
100
AcDbEntity
  8
0
 62
     0
100
AcDbLine
 10
14.92110582087756
 20
3.942286052027071
 30
0.0
 11
16.32110582087759
 21
5.342286052027105
 31
0.0
  0
LINE
  5
B1B
330
9E0
100
AcDbEntity
  8
0
 62
     0
100
AcDbLine
 10
16.9861941764062
 20
6.456387213609104
 30
0.0
 11
18.05019417640622
 21
7.520387213609154
 31
0.0
  0
LINE
  5
B1C
330
9E0
100
AcDbEntity
  8
0
 62
     0
100
AcDbLine
 10
20.3461058208776
 20
9.816298858080529
 30
0.0
 11
21.74610582087757
 21
11.2162988580805
 31
0.0
  0
LINE
  5
B1D
330
9E0
100
AcDbEntity
  8
0
 62
     0
100
AcDbLine
 10
14.92110582087758
 20
4.391298858080517
 30
0.0
 11
16.32110582087762
 21
5.791298858080523
 31
0.0
  0
LINE
  5
B1E
330
9E0
100
AcDbEntity
  8
0
 62
     0
100
AcDbLine
 10
16.86879478292033
 20
6.788000626176739
 30
0.0
 11
18.18394181688578
 21
8.103147660142184
 31
0.0
  0
LINE
  5
B1F
330
9E0
100
AcDbEntity
  8
0
 62
     0
100
AcDbLine
 10
20.3461058208776
 20
10.26531166413397
 30
0.0
 11
21.64796810962841
 21
11.56717395288478
 31
0.0
  0
LINE
  5
B20
330
9E0
100
AcDbEntity
  8
0
 62
     0
100
AcDbLine
 10
14.92110582087758
 20
4.840311664133963
 30
0.0
 11
16.32110582087759
 21
6.240311664133997
 31
0.0
  0
LINE
  5
B21
330
9E0
100
AcDbEntity
  8
0
 62
     0
100
AcDbLine
 10
16.52520209798663
 20
6.893420747296516
 30
0.0
 11
18.39117849660275
 21
8.759397145912629
 31
0.0
  0
LINE
  5
B22
330
9E0
100
AcDbEntity
  8
0
 62
     0
100
AcDbLine
 10
14.92110582087756
 20
5.289324470187438
 30
0.0
 11
16.32768541303076
 21
6.695904062340616
 31
0.0
  0
LINE
  5
B23
330
9E0
100
AcDbEntity
  8
0
 62
     0
100
AcDbLine
 10
20.34610582087757
 20
10.71432447018745
 30
0.0
 11
21.2567816901398
 21
11.62500033944968
 31
0.0
  0
LINE
  5
B24
330
9E0
100
AcDbEntity
  8
0
 62
     0
100
AcDbLine
 10
13.20678169013979
 20
3.575000339449644
 30
0.0
 11
13.69610582087762
 21
4.0643244701875
 31
0.0
  0
LINE
  5
B25
330
9E0
100
AcDbEntity
  8
0
 62
     0
100
AcDbLine
 10
14.92110582087756
 20
5.738337276240883
 30
0.0
 11
18.59841517631972
 21
9.415646631683046
 31
0.0
  0
LINE
  5
B26
330
9E0
100
AcDbEntity
  8
0
 62
     0
100
AcDbLine
 10
20.3461058208776
 20
11.16333727624095
 30
0.0
 11
20.80776888408633
 21
11.62500033944968
 31
0.0
  0
LINE
  5
B27
330
9E0
100
AcDbEntity
  8
0
 62
     0
100
AcDbLine
 10
12.75776888408632
 20
3.575000339449672
 30
0.0
 11
13.69610582087762
 21
4.513337276240974
 31
0.0
  0
LINE
  5
B28
330
9E0
100
AcDbEntity
  8
0
 62
     0
100
AcDbLine
 10
14.92110582087756
 20
6.187350082294329
 30
0.0
 11
18.80565185603675
 21
10.07189611745349
 31
0.0
  0
LINE
  5
B29
330
9E0
100
AcDbEntity
  8
0
 62
     0
100
AcDbLine
 10
12.31459639020792
 20
3.580840651624697
 30
0.0
 11
13.62543867907453
 21
4.891682940491278
 31
0.0
  0
LINE
  5
B2A
330
9E0
100
AcDbEntity
  8
0
 62
     0
100
AcDbLine
 10
14.92110582087756
 20
6.636362888347804
 30
0.0
 11
16.58474327197942
 21
8.300000339449667
 31
0.0
  0
LINE
  5
B2B
330
9E0
100
AcDbEntity
  8
0
 62
     0
100
AcDbLine
 10
16.96673468959977
 20
8.681991757070022
 30
0.0
 11
19.01288853575374
 21
10.72814560322396
 31
0.0
  0
LINE
  5
B2C
330
9E0
100
AcDbEntity
  8
0
 62
     0
100
AcDbLine
 10
11.93051613148444
 20
3.645773198954657
 30
0.0
 11
13.25974327197946
 21
4.975000339449678
 31
0.0
  0
LINE
  5
B2D
330
9E0
100
AcDbEntity
  8
0
 62
     0
100
AcDbLine
 10
14.92110582087758
 20
7.085375694401307
 30
0.0
 11
16.33010110623175
 21
8.494370979755444
 31
0.0
  0
LINE
  5
B2E
330
9E0
100
AcDbEntity
  8
0
 62
     0
100
AcDbLine
 10
17.17397136931674
 20
9.338241242840439
 30
0.0
 11
19.20042426165443
 21
11.36469413517815
 31
0.0
  0
LINE
  5
B2F
330
9E0
100
AcDbEntity
  8
0
 62
     0
100
AcDbLine
 10
11.59994900307123
 20
3.764218876594952
 30
0.0
 11
12.81073046592598
 21
4.975000339449707
 31
0.0
  0
LINE
  5
B30
330
9E0
100
AcDbEntity
  8
0
 62
     0
100
AcDbLine
 10
14.92110582087761
 20
7.534388500454724
 30
0.0
 11
16.32110582087762
 21
8.934388500454758
 31
0.0
  0
LINE
  5
B31
330
9E0
100
AcDbEntity
  8
0
 62
     0
100
AcDbLine
 10
17.38120804903372
 20
9.994490728610855
 30
0.0
 11
19.00341832536983
 21
11.61670100494697
 31
0.0
  0
LINE
  5
B32
330
9E0
100
AcDbEntity
  8
0
 62
     0
100
AcDbLine
 10
11.31114736098908
 20
3.924430040566193
 30
0.0
 11
12.36917829023551
 21
4.982460969812649
 31
0.0
  0
LINE
  5
B33
330
9E0
100
AcDbEntity
  8
0
 62
     0
100
AcDbLine
 10
14.92110582087758
 20
7.983401306508199
 30
0.0
 11
16.32110582087762
 21
9.383401306508233
 31
0.0
  0
LINE
  5
B34
330
9E0
100
AcDbEntity
  8
0
 62
     0
100
AcDbLine
 10
17.58844472875071
 20
10.65074021438133
 30
0.0
 11
18.56270485381907
 21
11.62500033944968
 31
0.0
  0
LINE
  5
B35
330
9E0
100
AcDbEntity
  8
0
 62
     0
100
AcDbLine
 10
11.05866987779805
 20
4.120965363428638
 30
0.0
 11
12.05202021972636
 21
5.114315705356943
 31
0.0
  0
LINE
  5
B36
330
9E0
100
AcDbEntity
  8
0
 62
     0
100
AcDbLine
 10
14.92110582087758
 20
8.432414112561644
 30
0.0
 11
16.32110582087762
 21
9.832414112561679
 31
0.0
  0
LINE
  5
B37
330
9E0
100
AcDbEntity
  8
0
 62
     0
100
AcDbLine
 10
13.25192288676584
 20
6.763231178449927
 30
0.0
 11
13.83287498187738
 21
7.344183273561469
 31
0.0
  0
LINE
  5
B38
330
9E0
100
AcDbEntity
  8
0
 62
     0
100
AcDbLine
 10
17.79568140846768
 20
11.30698970015177
 30
0.0
 11
18.11369204776562
 21
11.62500033944971
 31
0.0
  0
LINE
  5
B39
330
9E0
100
AcDbEntity
  8
0
 62
     0
100
AcDbLine
 10
10.84045134113313
 20
4.35175963281722
 30
0.0
 11
11.84689474409026
 21
5.358203035774351
 31
0.0
  0
LINE
  5
B3A
330
9E0
100
AcDbEntity
  8
0
 62
     0
100
AcDbLine
 10
12.78943646595093
 20
6.74975756368849
 30
0.0
 11
13.84634859663882
 21
7.806669694376353
 31
0.0
  0
LINE
  5
B3B
330
9E0
100
AcDbEntity
  8
0
 62
     0
100
AcDbLine
 10
14.92110582087756
 20
8.881426918615119
 30
0.0
 11
16.32110582087759
 21
10.28142691861515
 31
0.0
  0
LINE
  5
B3C
330
9E0
100
AcDbEntity
  8
0
 62
     0
100
AcDbLine
 10
10.65694172866165
 20
4.617262826399183
 30
0.0
 11
11.7711058208776
 21
5.73142691861517
 31
0.0
  0
LINE
  5
B3D
330
9E0
100
AcDbEntity
  8
0
 62
     0
100
AcDbLine
 10
12.48236318124083
 20
6.891697085031779
 30
0.0
 11
13.7044090752955
 21
8.113742979086481
 31
0.0
  0
LINE
  5
B3E
330
9E0
100
AcDbEntity
  8
0
 62
     0
100
AcDbLine
 10
14.92110582087758
 20
9.330439724668565
 30
0.0
 11
16.32110582087762
 21
10.73043972466857
 31
0.0
  0
LINE
  5
B3F
330
9E0
100
AcDbEntity
  8
0
 62
     0
100
AcDbLine
 10
10.51128297369928
 20
4.92061687749026
 30
0.0
 11
11.7711058208776
 21
6.180439724668588
 31
0.0
  0
LINE
  5
B40
330
9E0
100
AcDbEntity
  8
0
 62
     0
100
AcDbLine
 10
12.26338321774597
 20
7.121729927590422
 30
0.0
 11
13.47437623273689
 21
8.332722942581312
 31
0.0
  0
LINE
  5
B41
330
9E0
100
AcDbEntity
  8
0
 62
     0
100
AcDbLine
 10
14.92110582087758
 20
9.779452530722011
 30
0.0
 11
16.32110582087759
 21
11.17945253072204
 31
0.0
  0
LINE
  5
B42
330
9E0
100
AcDbEntity
  8
0
 62
     0
100
AcDbLine
 10
10.41071429161195
 20
5.269061001456407
 30
0.0
 11
11.7711058208776
 21
6.629452530722062
 31
0.0
  0
LINE
  5
B43
330
9E0
100
AcDbEntity
  8
0
 62
     0
100
AcDbLine
 10
12.13535785154178
 20
7.442717367439684
 30
0.0
 11
13.15338879288759
 21
8.460748308785525
 31
0.0
  0
LINE
  5
B44
330
9E0
100
AcDbEntity
  8
0
 62
     0
100
AcDbLine
 10
10.37110582087751
 20
5.678465336775445
 30
0.0
 11
11.7711058208776
 21
7.078465336775508
 31
0.0
  0
LINE
  5
B45
330
9E0
100
AcDbEntity
  8
0
 62
     0
100
AcDbLine
 10
14.92110582087756
 20
10.22846533677548
 30
0.0
 11
16.24248076670005
 21
11.54984028259798
 31
0.0
  0
LINE
  5
B46
330
9E0
100
AcDbEntity
  8
0
 62
     0
100
AcDbLine
 10
8.328107441939778
 20
3.635466957837707
 30
0.0
 11
9.260639202489642
 21
4.56799871838757
 31
0.0
  0
LINE
  5
B47
330
9E0
100
AcDbEntity
  8
0
 62
     0
100
AcDbLine
 10
12.19456439328218
 20
7.950936715233524
 30
0.0
 11
12.64516944509378
 21
8.401541767045131
 31
0.0
  0
LINE
  5
B48
330
9E0
100
AcDbEntity
  8
0
 62
     0
100
AcDbLine
 10
10.37110582087754
 20
6.127478142828891
 30
0.0
 11
11.7711058208776
 21
7.527478142828954
 31
0.0
  0
LINE
  5
B49
330
9E0
100
AcDbEntity
  8
0
 62
     0
100
AcDbLine
 10
14.92110582087758
 20
10.6774781428289
 30
0.0
 11
15.86862801749837
 21
11.62500033944971
 31
0.0
  0
LINE
  5
B4A
330
9E0
100
AcDbEntity
  8
0
 62
     0
100
AcDbLine
 10
7.818628017498298
 20
3.575000339449644
 30
0.0
 11
9.321105820877619
 21
5.077478142828965
 31
0.0
  0
LINE
  5
B4B
330
9E0
100
AcDbEntity
  8
0
 62
     0
100
AcDbLine
 10
10.37110582087754
 20
6.576490948882337
 30
0.0
 11
11.7711058208776
 21
7.976490948882428
 31
0.0
  0
LINE
  5
B4C
330
9E0
100
AcDbEntity
  8
0
 62
     0
100
AcDbLine
 10
14.92110582087756
 20
11.12649094888237
 30
0.0
 11
15.41961521144486
 21
11.62500033944968
 31
0.0
  0
LINE
  5
B4D
330
9E0
100
AcDbEntity
  8
0
 62
     0
100
AcDbLine
 10
7.369615211444852
 20
3.575000339449644
 30
0.0
 11
9.321105820877619
 21
5.52649094888244
 31
0.0
  0
LINE
  5
B4E
330
9E0
100
AcDbEntity
  8
0
 62
     0
100
AcDbLine
 10
10.37110582087751
 20
7.025503754935812
 30
0.0
 11
11.77110582087758
 21
8.425503754935874
 31
0.0
  0
LINE
  5
B4F
330
9E0
100
AcDbEntity
  8
0
 62
     0
100
AcDbLine
 10
6.920602405391377
 20
3.575000339449672
 30
0.0
 11
9.319136144597024
 21
5.973534078655319
 31
0.0
  0
LINE
  5
B50
330
9E0
100
AcDbEntity
  8
0
 62
     0
100
AcDbLine
 10
10.37110582087757
 20
7.474516560989314
 30
0.0
 11
11.7711058208776
 21
8.874516560989349
 31
0.0
  0
LINE
  5
B51
330
9E0
100
AcDbEntity
  8
0
 62
     0
100
AcDbLine
 10
13.12158959933796
 20
10.22500033944971
 30
0.0
 11
13.69610582087765
 21
10.79951656098936
 31
0.0
  0
LINE
  5
B52
330
9E0
100
AcDbEntity
  8
0
 62
     0
100
AcDbLine
 10
6.471589599337931
 20
3.575000339449672
 30
0.0
 11
9.264305226436363
 21
6.367715966548104
 31
0.0
  0
LINE
  5
B53
330
9E0
100
AcDbEntity
  8
0
 62
     0
100
AcDbLine
 10
10.37110582087757
 20
7.92352936704276
 30
0.0
 11
11.7711058208776
 21
9.323529367042766
 31
0.0
  0
LINE
  5
B54
330
9E0
100
AcDbEntity
  8
0
 62
     0
100
AcDbLine
 10
7.921105820877585
 20
5.473529367042772
 30
0.0
 11
9.153135854414301
 21
6.705559400579488
 31
0.0
  0
LINE
  5
B55
330
9E0
100
AcDbEntity
  8
0
 62
     0
100
AcDbLine
 10
12.67257679328452
 20
10.22500033944968
 30
0.0
 11
13.69610582087762
 21
11.2485293670428
 31
0.0
  0
LINE
  5
B56
330
9E0
100
AcDbEntity
  8
0
 62
     0
100
AcDbLine
 10
6.051439730914438
 20
3.603863277079625
 30
0.0
 11
7.42257679328452
 21
4.975000339449678
 31
0.0
  0
LINE
  5
B57
330
9E0
100
AcDbEntity
  8
0
 62
     0
100
AcDbLine
 10
10.37110582087754
 20
8.372542173096206
 30
0.0
 11
11.85401317376744
 21
9.855449525986102
 31
0.0
  0
LINE
  5
B58
330
9E0
100
AcDbEntity
  8
0
 62
     0
100
AcDbLine
 10
7.920026275072984
 20
5.921462627291617
 30
0.0
 11
8.998920087078289
 21
7.00035643929695
 31
0.0
  0
LINE
  5
B59
330
9E0
100
AcDbEntity
  8
0
 62
     0
100
AcDbLine
 10
12.14065663434121
 20
10.14209298655987
 30
0.0
 11
13.57937211341772
 21
11.58080846563635
 31
0.0
  0
LINE
  5
B5A
330
9E0
100
AcDbEntity
  8
0
 62
     0
100
AcDbLine
 10
5.908605820877568
 20
3.910042173096229
 30
0.0
 11
6.973563987231045
 21
4.975000339449707
 31
0.0
  0
LINE
  5
B5B
330
9E0
100
AcDbEntity
  8
0
 62
     0
100
AcDbLine
 10
7.810224765322629
 20
6.260673923594765
 30
0.0
 11
8.80779910465884
 21
7.258248262930976
 31
0.0
  0
LINE
  5
B5C
330
9E0
100
AcDbEntity
  8
0
 62
     0
100
AcDbLine
 10
10.37110582087754
 20
8.821554979149681
 30
0.0
 11
13.17455118117758
 21
11.62500033944971
 31
0.0
  0
LINE
  5
B5D
330
9E0
100
AcDbEntity
  8
0
 62
     0
100
AcDbLine
 10
5.908605820877568
 20
4.359054979149703
 30
0.0
 11
6.524551181177542
 21
4.975000339449678
 31
0.0
  0
LINE
  5
B5E
330
9E0
100
AcDbEntity
  8
0
 62
     0
100
AcDbLine
 10
7.597097351170219
 20
6.496559315495773
 30
0.0
 11
8.587046844831462
 21
7.486508809157015
 31
0.0
  0
LINE
  5
B5F
330
9E0
100
AcDbEntity
  8
0
 62
     0
100
AcDbLine
 10
10.37110582087757
 20
9.270567785203098
 30
0.0
 11
12.72553837512413
 21
11.62500033944968
 31
0.0
  0
LINE
  5
B60
330
9E0
100
AcDbEntity
  8
0
 62
     0
100
AcDbLine
 10
5.943081781887485
 20
4.842543746213038
 30
0.0
 11
6.041062414114293
 21
4.940524378439846
 31
0.0
  0
LINE
  5
B61
330
9E0
100
AcDbEntity
  8
0
 62
     0
100
AcDbLine
 10
10.38109337795586
 20
9.729568148334863
 30
0.0
 11
12.26653801199236
 21
11.61501278237139
 31
0.0
  0
LINE
  5
B62
330
9E0
100
AcDbEntity
  8
0
 62
     0
100
AcDbLine
 10
7.372590948143539
 20
6.721065718522567
 30
0.0
 11
8.362540441804725
 21
7.711015212183752
 31
0.0
  0
LINE
  5
B63
330
9E0
100
AcDbEntity
  8
0
 62
     0
100
AcDbLine
 10
10.53082509408875
 20
10.32831267052126
 30
0.0
 11
11.667793489806
 21
11.4652810662385
 31
0.0
  0
LINE
  5
B64
330
9E0
100
AcDbEntity
  8
0
 62
     0
100
AcDbLine
 10
7.148084545116802
 20
6.945572121549304
 30
0.0
 11
8.138034038777988
 21
7.93552161521049
 31
0.0
  0
LINE
  5
B65
330
9E0
100
AcDbEntity
  8
0
 62
     0
100
AcDbLine
 10
6.923578142090093
 20
7.170078524576013
 30
0.0
 11
7.913527635751279
 21
8.160028018237198
 31
0.0
  0
LINE
  5
B66
330
9E0
100
AcDbEntity
  8
0
 62
     0
100
AcDbLine
 10
6.699071739063356
 20
7.39458492760275
 30
0.0
 11
7.689021232724542
 21
8.384534421263936
 31
0.0
  0
LINE
  5
B67
330
9E0
100
AcDbEntity
  8
0
 62
     0
100
AcDbLine
 10
6.474565336036562
 20
7.61909133062943
 30
0.0
 11
7.464514829697804
 21
8.609040824290673
 31
0.0
  0
LINE
  5
B68
330
9E0
100
AcDbEntity
  8
0
 62
     0
100
AcDbLine
 10
8.631461538803364
 20
10.22500033944971
 30
0.0
 11
9.058605820877545
 21
10.65214462152389
 31
0.0
  0
LINE
  5
B69
330
9E0
100
AcDbEntity
  8
0
 62
     0
100
AcDbLine
 10
6.250100590023947
 20
7.84363939067029
 30
0.0
 11
7.240133411740174
 21
8.833672212386517
 31
0.0
  0
LINE
  5
B6A
330
9E0
100
AcDbEntity
  8
0
 62
     0
100
AcDbLine
 10
8.18244873274989
 20
10.22500033944965
 30
0.0
 11
9.058605820877602
 21
11.10115742757736
 31
0.0
  0
LINE
  5
B6B
330
9E0
100
AcDbEntity
  8
0
 62
     0
100
AcDbLine
 10
6.044366627748161
 20
8.086918234447892
 30
0.0
 11
7.075184971096206
 21
9.117736577795966
 31
0.0
  0
LINE
  5
B6C
330
9E0
100
AcDbEntity
  8
0
 62
     0
100
AcDbLine
 10
7.733435926696472
 20
10.22500033944968
 30
0.0
 11
9.01532637099703
 21
11.50689078375026
 31
0.0
  0
LINE
  5
B6D
330
9E0
100
AcDbEntity
  8
0
 62
     0
100
AcDbLine
 10
5.874136324616927
 20
8.365700737370133
 30
0.0
 11
7.046105820877585
 21
9.537670233630819
 31
0.0
  0
LINE
  5
B6E
330
9E0
100
AcDbEntity
  8
0
 62
     0
100
AcDbLine
 10
7.283189796057911
 20
10.22376701486459
 30
0.0
 11
8.684423120643003
 21
11.62500033944968
 31
0.0
  0
LINE
  5
B6F
330
9E0
100
AcDbEntity
  8
0
 62
     0
100
AcDbLine
 10
5.743789676750878
 20
8.684366895557559
 30
0.0
 11
7.047339145462672
 21
9.987916364269381
 31
0.0
  0
LINE
  5
B70
330
9E0
100
AcDbEntity
  8
0
 62
     0
100
AcDbLine
 10
5.662883695626845
 20
9.052473720486972
 30
0.0
 11
8.235410314589557
 21
11.62500033944968
 31
0.0
  0
LINE
  5
B71
330
9E0
100
AcDbEntity
  8
0
 62
     0
100
AcDbLine
 10
5.646105820877608
 20
9.48470865179118
 30
0.0
 11
7.786397508536083
 21
11.62500033944968
 31
0.0
  0
LINE
  5
B72
330
9E0
100
AcDbEntity
  8
0
 62
     0
100
AcDbLine
 10
5.646105820877579
 20
9.933721457844654
 30
0.0
 11
7.337384702482637
 21
11.62500033944968
 31
0.0
  0
LINE
  5
B73
330
9E0
100
AcDbEntity
  8
0
 62
     0
100
AcDbLine
 10
5.656201826096747
 20
10.39283026911727
 30
0.0
 11
6.878275891210051
 21
11.61490433423057
 31
0.0
  0
ENDBLK
  5
B75
330
9E0
100
AcDbEntity
  8
0
100
AcDbBlockEnd
  0
BLOCK
  5
50A0
330
5071
100
AcDbEntity
  8
0
100
AcDbBlockBegin
  2
*X2
 70
     1
 10
0.0
 20
0.0
 30
0.0
  3
*X2
  1

  0
LINE
  5
5072
330
5071
100
AcDbEntity
  8
0
 62
     0
100
AcDbLine
 10
639.3126459048218
 20
133.2410062283267
 30
0.0
 11
640.3438387581193
 21
134.2721990816242
 31
0.0
  0
LINE
  5
5073
330
5071
100
AcDbEntity
  8
0
 62
     0
100
AcDbLine
 10
638.7748178715022
 20
134.8244985385667
 30
0.0
 11
640.3625142185737
 21
136.4121948856382
 31
0.0
  0
LINE
  5
5074
330
5071
100
AcDbEntity
  8
0
 62
     0
100
AcDbLine
 10
638.7564655476263
 20
136.9274665582504
 30
0.0
 11
640.3811896790282
 21
138.5521906896523
 31
0.0
  0
LINE
  5
5075
330
5071
100
AcDbEntity
  8
0
 62
     0
100
AcDbLine
 10
638.7381132237504
 20
139.0304345779341
 30
0.0
 11
640.3998651394827
 21
140.6921864936664
 31
0.0
  0
LINE
  5
5076
330
5071
100
AcDbEntity
  8
0
 62
     0
100
AcDbLine
 10
638.7197608998743
 20
141.1334025976177
 30
0.0
 11
640.4185405999369
 21
142.8321822976804
 31
0.0
  0
LINE
  5
5077
330
5071
100
AcDbEntity
  8
0
 62
     0
100
AcDbLine
 10
638.7014085759983
 20
143.2363706173014
 30
0.0
 11
640.4372160603913
 21
144.9721781016945
 31
0.0
  0
LINE
  5
5078
330
5071
100
AcDbEntity
  8
0
 62
     0
100
AcDbLine
 10
638.6830562521224
 20
145.3393386369851
 30
0.0
 11
640.4558915208458
 21
147.1121739057085
 31
0.0
  0
LINE
  5
5079
330
5071
100
AcDbEntity
  8
0
 62
     0
100
AcDbLine
 10
638.6647039282463
 20
147.4423066566688
 30
0.0
 11
640.4745669813003
 21
149.2521697097226
 31
0.0
  0
LINE
  5
507A
330
5071
100
AcDbEntity
  8
0
 62
     0
100
AcDbLine
 10
638.6463516043704
 20
149.5452746763524
 30
0.0
 11
640.4932424417546
 21
151.3921655137366
 31
0.0
  0
LINE
  5
507B
330
5071
100
AcDbEntity
  8
0
 62
     0
100
AcDbLine
 10
638.6279992804945
 20
151.6482426960361
 30
0.0
 11
640.511917902209
 21
153.5321613177506
 31
0.0
  0
LINE
  5
507C
330
5071
100
AcDbEntity
  8
0
 62
     0
100
AcDbLine
 10
638.6096469566184
 20
153.7512107157198
 30
0.0
 11
640.5305933626634
 21
155.6721571217647
 31
0.0
  0
LINE
  5
507D
330
5071
100
AcDbEntity
  8
0
 62
     0
100
AcDbLine
 10
638.5912946327425
 20
155.8541787354034
 30
0.0
 11
640.5492688231179
 21
157.8121529257787
 31
0.0
  0
LINE
  5
507E
330
5071
100
AcDbEntity
  8
0
 62
     0
100
AcDbLine
 10
638.5729423088664
 20
157.957146755087
 30
0.0
 11
640.5679442835723
 21
159.9521487297929
 31
0.0
  0
LINE
  5
507F
330
5071
100
AcDbEntity
  8
0
 62
     0
100
AcDbLine
 10
636.7354814385464
 20
158.2410062283267
 30
0.0
 11
638.7354814385465
 21
160.2410062283266
 31
0.0
  0
LINE
  5
5080
330
5071
100
AcDbEntity
  8
0
 62
     0
100
AcDbLine
 10
634.6141610949869
 20
158.2410062283267
 30
0.0
 11
637.6039683177268
 21
161.2308134510667
 31
0.0
  0
LINE
  5
5081
330
5071
100
AcDbEntity
  8
0
 62
     0
100
AcDbLine
 10
634.8618796245049
 20
160.6100451014043
 30
0.0
 11
637.5691925743899
 21
163.3173580512893
 31
0.0
  0
LINE
  5
5082
330
5071
100
AcDbEntity
  8
0
 62
     0
100
AcDbLine
 10
633.2066529280999
 20
158.9548184049994
 30
0.0
 11
634.6208664904729
 21
160.3690319673724
 31
0.0
  0
LINE
  5
5083
330
5071
100
AcDbEntity
  8
0
 62
     0
100
AcDbLine
 10
634.8805550849593
 20
162.7500409054184
 30
0.0
 11
637.5344168310528
 21
165.4039026515119
 31
0.0
  0
LINE
  5
5084
330
5071
100
AcDbEntity
  8
0
 62
     0
100
AcDbLine
 10
632.1459927563202
 20
160.0154785767793
 30
0.0
 11
633.5602063186931
 21
161.4296921391523
 31
0.0
  0
LINE
  5
5085
330
5071
100
AcDbEntity
  8
0
 62
     0
100
AcDbLine
 10
634.8992305454137
 20
164.8900367094324
 30
0.0
 11
637.4996410877159
 21
167.4904472517346
 31
0.0
  0
LINE
  5
5086
330
5071
100
AcDbEntity
  8
0
 62
     0
100
AcDbLine
 10
631.0853325845404
 20
161.0761387485591
 30
0.0
 11
632.6612303955552
 21
162.6520365595739
 31
0.0
  0
LINE
  5
5087
330
5071
100
AcDbEntity
  8
0
 62
     0
100
AcDbLine
 10
634.9179060058681
 20
167.0300325134465
 30
0.0
 11
637.4648653443788
 21
169.5769918519572
 31
0.0
  0
LINE
  5
5088
330
5071
100
AcDbEntity
  8
0
 62
     0
100
AcDbLine
 10
630.6601808085633
 20
162.7723073161417
 30
0.0
 11
632.6428780716792
 21
164.7550045792575
 31
0.0
  0
LINE
  5
5089
330
5071
100
AcDbEntity
  8
0
 62
     0
100
AcDbLine
 10
634.9365814663226
 20
169.1700283174607
 30
0.0
 11
637.4300896010417
 21
171.6635364521798
 31
0.0
  0
LINE
  5
508A
330
5071
100
AcDbEntity
  8
0
 62
     0
100
AcDbLine
 10
630.6418284846873
 20
164.8752753358254
 30
0.0
 11
632.6245257478031
 21
166.8579725989412
 31
0.0
  0
LINE
  5
508B
330
5071
100
AcDbEntity
  8
0
 62
     0
100
AcDbLine
 10
634.9552569267769
 20
171.3100241214747
 30
0.0
 11
637.3953138577047
 21
173.7500810524025
 31
0.0
  0
LINE
  5
508C
330
5071
100
AcDbEntity
  8
0
 62
     0
100
AcDbLine
 10
630.6234761608114
 20
166.978243355509
 30
0.0
 11
632.6061734239272
 21
168.9609406186248
 31
0.0
  0
LINE
  5
508D
330
5071
100
AcDbEntity
  8
0
 62
     0
100
AcDbLine
 10
634.9739323872314
 20
173.4500199254887
 30
0.0
 11
637.3605381143677
 21
175.836625652625
 31
0.0
  0
LINE
  5
508E
330
5071
100
AcDbEntity
  8
0
 62
     0
100
AcDbLine
 10
630.6051238369355
 20
169.0812113751927
 30
0.0
 11
632.5878211000512
 21
171.0639086383084
 31
0.0
  0
LINE
  5
508F
330
5071
100
AcDbEntity
  8
0
 62
     0
100
AcDbLine
 10
634.9926078476857
 20
175.5900157295027
 30
0.0
 11
637.3257623710307
 21
177.9231702528476
 31
0.0
  0
LINE
  5
5090
330
5071
100
AcDbEntity
  8
0
 62
     0
100
AcDbLine
 10
630.5867715130593
 20
171.1841793948764
 30
0.0
 11
632.5694687761751
 21
173.1668766579922
 31
0.0
  0
LINE
  5
5091
330
5071
100
AcDbEntity
  8
0
 62
     0
100
AcDbLine
 10
635.0112833081403
 20
177.7300115335168
 30
0.0
 11
637.2909866276936
 21
180.0097148530702
 31
0.0
  0
LINE
  5
5092
330
5071
100
AcDbEntity
  8
0
 62
     0
100
AcDbLine
 10
630.5684191891835
 20
173.2871474145601
 30
0.0
 11
632.5511164522993
 21
175.2698446776758
 31
0.0
  0
LINE
  5
5093
330
5071
100
AcDbEntity
  8
0
 62
     0
100
AcDbLine
 10
635.0299587685947
 20
179.8700073375309
 30
0.0
 11
637.2562108843565
 21
182.0962594532928
 31
0.0
  0
LINE
  5
5094
330
5071
100
AcDbEntity
  8
0
 62
     0
100
AcDbLine
 10
630.5500668653074
 20
175.3901154342437
 30
0.0
 11
632.5327641284232
 21
177.3728126973595
 31
0.0
  0
LINE
  5
5095
330
5071
100
AcDbEntity
  8
0
 62
     0
100
AcDbLine
 10
635.0486342290491
 20
182.010003141545
 30
0.0
 11
637.2214351410195
 21
184.1828040535154
 31
0.0
  0
LINE
  5
5096
330
5071
100
AcDbEntity
  8
0
 62
     0
100
AcDbLine
 10
630.5317145414314
 20
177.4930834539274
 30
0.0
 11
632.5144118045472
 21
179.4757807170431
 31
0.0
  0
LINE
  5
5097
330
5071
100
AcDbEntity
  8
0
 62
     0
100
AcDbLine
 10
635.0673096895034
 20
184.149998945559
 30
0.0
 11
637.1866593976824
 21
186.269348653738
 31
0.0
  0
LINE
  5
5098
330
5071
100
AcDbEntity
  8
0
 62
     0
100
AcDbLine
 10
630.5133622175556
 20
179.5960514736111
 30
0.0
 11
632.4960594806712
 21
181.5787487367268
 31
0.0
  0
LINE
  5
5099
330
5071
100
AcDbEntity
  8
0
 62
     0
100
AcDbLine
 10
635.0859851499579
 20
186.289994749573
 30
0.0
 11
637.1518836543453
 21
188.3558932539606
 31
0.0
  0
LINE
  5
509A
330
5071
100
AcDbEntity
  8
0
 62
     0
100
AcDbLine
 10
630.4950098936794
 20
181.6990194932947
 30
0.0
 11
632.4777071567953
 21
183.6817167564104
 31
0.0
  0
LINE
  5
509B
330
5071
100
AcDbEntity
  8
0
 62
     0
100
AcDbLine
 10
635.1046606104123
 20
188.429990553587
 30
0.0
 11
636.9049449081646
 21
190.2302748513394
 31
0.0
  0
LINE
  5
509C
330
5071
100
AcDbEntity
  8
0
 62
     0
100
AcDbLine
 10
630.4766575698035
 20
183.8019875129783
 30
0.0
 11
632.4593548329192
 21
185.7846847760941
 31
0.0
  0
LINE
  5
509D
330
5071
100
AcDbEntity
  8
0
 62
     0
100
AcDbLine
 10
630.4583052459276
 20
185.904955532662
 30
0.0
 11
632.4410025090433
 21
187.8876527957777
 31
0.0
  0
LINE
  5
509E
330
5071
100
AcDbEntity
  8
0
 62
     0
100
AcDbLine
 10
630.4399529220516
 20
188.0079235523457
 30
0.0
 11
632.4226501851673
 21
189.9906208154614
 31
0.0
  0
LINE
  5
509F
330
5071
100
AcDbEntity
  8
0
 62
     0
100
AcDbLine
 10
630.4216005981757
 20
190.1108915720294
 30
0.0
 11
630.551715254473
 21
190.2410062283268
 31
0.0
  0
ENDBLK
  5
50A1
330
5071
100
AcDbEntity
  8
0
100
AcDbBlockEnd
  0
BLOCK
  5
50B2
330
50A8
100
AcDbEntity
  8
0
100
AcDbBlockBegin
  2
*D3
 70
     1
 10
0.0
 20
0.0
 30
0.0
  3
*D3
  1

  0
LINE
  5
5A4F
330
50A8
100
AcDbEntity
  8
SUNPOU
100
AcDbLine
 10
161.6637290730509
 20
175.2255093474365
 30
0.0
 11
175.400035314465
 21
175.2255093474365
 31
0.0
  0
LINE
  5
5A50
330
50A8
100
AcDbEntity
  8
SUNPOU
100
AcDbLine
 10
158.1637290730509
 20
143.2255093474368
 30
0.0
 11
175.400035314465
 21
143.2255093474368
 31
0.0
  0
LINE
  5
5A51
330
50A8
100
AcDbEntity
  8
SUNPOU
100
AcDbLine
 10
173.900035314465
 20
172.2255093474365
 30
0.0
 11
173.900035314465
 21
146.2255093474368
 31
0.0
  0
INSERT
  5
5A52
330
50A8
100
AcDbEntity
  8
SUNPOU
100
AcDbBlockReference
  2
_OPEN
 10
173.900035314465
 20
175.2255093474365
 30
0.0
 41
3.0
 42
3.0
 43
3.0
 50
90.0
  0
INSERT
  5
5A53
330
50A8
100
AcDbEntity
  8
SUNPOU
100
AcDbBlockReference
  2
_OPEN
 10
173.900035314465
 20
143.2255093474368
 30
0.0
 41
3.0
 42
3.0
 43
3.0
 50
270.0
  0
MTEXT
  5
5A54
330
50A8
100
AcDbEntity
  8
SUNPOU
100
AcDbMText
 10
170.6500353144649
 20
159.2255093474367
 30
0.0
 40
3.5
 41
0.0
 71
     5
 72
     1
  1
\A1;32
 11
0.0000000000000001
 21
1.0
 31
0.0
 73
     1
 44
1.0
1001
ACAD
1000
MTEXTBEGIN
1070
    73
1070
     1
1070
    44
1040
1.0
1070
    74
1070
     0
1000
MTEXTEND
  0
POINT
  5
5A55
330
50A8
100
AcDbEntity
  8
DEFPOINTS
 62
     0
100
AcDbPoint
 10
160.1637290730509
 20
175.2255093474365
 30
0.0
  0
POINT
  5
5A56
330
50A8
100
AcDbEntity
  8
DEFPOINTS
 62
     0
100
AcDbPoint
 10
156.6637290730509
 20
143.2255093474368
 30
0.0
  0
POINT
  5
5A57
330
50A8
100
AcDbEntity
  8
DEFPOINTS
 62
     0
100
AcDbPoint
 10
173.900035314465
 20
143.2255093474368
 30
0.0
  0
ENDBLK
  5
50B3
330
50A8
100
AcDbEntity
  8
0
100
AcDbBlockEnd
  0
BLOCK
  5
50BF
330
50B5
100
AcDbEntity
  8
0
100
AcDbBlockBegin
  2
*D4
 70
     1
 10
0.0
 20
0.0
 30
0.0
  3
*D4
  1

  0
LINE
  5
5A61
330
50B5
100
AcDbEntity
  8
SUNPOU
100
AcDbLine
 10
161.663729073051
 20
175.2255093474365
 30
0.0
 11
187.9548664413578
 21
175.2255093474365
 31
0.0
  0
LINE
  5
5A62
330
50B5
100
AcDbEntity
  8
SUNPOU
100
AcDbLine
 10
153.2955573782817
 20
118.2255093474369
 30
0.0
 11
187.9548664413578
 21
118.2255093474368
 31
0.0
  0
LINE
  5
5A63
330
50B5
100
AcDbEntity
  8
SUNPOU
100
AcDbLine
 10
186.4548664413578
 20
172.2255093474365
 30
0.0
 11
186.4548664413578
 21
121.2255093474368
 31
0.0
  0
INSERT
  5
5A64
330
50B5
100
AcDbEntity
  8
SUNPOU
100
AcDbBlockReference
  2
_OPEN
 10
186.4548664413578
 20
175.2255093474365
 30
0.0
 41
3.0
 42
3.0
 43
3.0
 50
90.0
  0
INSERT
  5
5A65
330
50B5
100
AcDbEntity
  8
SUNPOU
100
AcDbBlockReference
  2
_OPEN
 10
186.4548664413578
 20
118.2255093474368
 30
0.0
 41
3.0
 42
3.0
 43
3.0
 50
270.0
  0
MTEXT
  5
5A66
330
50B5
100
AcDbEntity
  8
SUNPOU
100
AcDbMText
 10
183.2048664413578
 20
146.7255093474367
 30
0.0
 40
3.5
 41
0.0
 71
     5
 72
     1
  1
\A1;57
 11
0.0000000000000001
 21
1.0
 31
0.0
 73
     1
 44
1.0
1001
ACAD
1000
MTEXTBEGIN
1070
    73
1070
     1
1070
    44
1040
1.0
1070
    74
1070
     0
1000
MTEXTEND
  0
POINT
  5
5A67
330
50B5
100
AcDbEntity
  8
DEFPOINTS
 62
     0
100
AcDbPoint
 10
160.163729073051
 20
175.2255093474365
 30
0.0
  0
POINT
  5
5A68
330
50B5
100
AcDbEntity
  8
DEFPOINTS
 62
     0
100
AcDbPoint
 10
151.7955573782817
 20
118.2255093474369
 30
0.0
  0
POINT
  5
5A69
330
50B5
100
AcDbEntity
  8
DEFPOINTS
 62
     0
100
AcDbPoint
 10
186.4548664413578
 20
118.2255093474368
 30
0.0
  0
ENDBLK
  5
50C0
330
50B5
100
AcDbEntity
  8
0
100
AcDbBlockEnd
  0
BLOCK
  5
50CC
330
50C2
100
AcDbEntity
  8
0
100
AcDbBlockBegin
  2
*D5
 70
     1
 10
0.0
 20
0.0
 30
0.0
  3
*D5
  1

  0
LINE
  5
52D8
330
50C2
100
AcDbEntity
  8
SUNPOU
100
AcDbLine
 10
160.1637290730509
 20
176.7255093474366
 30
0.0
 11
160.1637290730509
 21
187.508824701847
 31
0.0
  0
LINE
  5
52D9
330
50C2
100
AcDbEntity
  8
SUNPOU
100
AcDbLine
 10
83.86372907305077
 20
176.7255093474367
 30
0.0
 11
83.86372907305077
 21
187.508824701847
 31
0.0
  0
LINE
  5
52DA
330
50C2
100
AcDbEntity
  8
SUNPOU
100
AcDbLine
 10
157.1637290730509
 20
186.008824701847
 30
0.0
 11
86.86372907305075
 21
186.008824701847
 31
0.0
  0
INSERT
  5
52DB
330
50C2
100
AcDbEntity
  8
SUNPOU
100
AcDbBlockReference
  2
_OPEN
 10
160.1637290730509
 20
186.008824701847
 30
0.0
 41
3.0
 42
3.0
 43
3.0
  0
INSERT
  5
52DC
330
50C2
100
AcDbEntity
  8
SUNPOU
100
AcDbBlockReference
  2
_OPEN
 10
83.86372907305077
 20
186.008824701847
 30
0.0
 41
3.0
 42
3.0
 43
3.0
 50
180.0
  0
MTEXT
  5
52DD
330
50C2
100
AcDbEntity
  8
SUNPOU
100
AcDbMText
 10
122.0137290730508
 20
189.2588247018471
 30
0.0
 40
3.5
 41
0.0
 71
     5
 72
     5
  1
\A1;76
 73
     1
 44
1.0
1001
ACAD
1000
MTEXTBEGIN
1070
    73
1070
     1
1070
    44
1040
1.0
1070
    74
1070
     0
1000
MTEXTEND
  0
POINT
  5
52DE
330
50C2
100
AcDbEntity
  8
DEFPOINTS
 62
     0
100
AcDbPoint
 10
160.1637290730509
 20
175.2255093474365
 30
0.0
  0
POINT
  5
52DF
330
50C2
100
AcDbEntity
  8
DEFPOINTS
 62
     0
100
AcDbPoint
 10
83.86372907305077
 20
175.2255093474367
 30
0.0
  0
POINT
  5
52E0
330
50C2
100
AcDbEntity
  8
DEFPOINTS
 62
     0
100
AcDbPoint
 10
83.86372907305077
 20
186.008824701847
 30
0.0
  0
ENDBLK
  5
50CD
330
50C2
100
AcDbEntity
  8
0
100
AcDbBlockEnd
  0
BLOCK
  5
51A1
330
5197
100
AcDbEntity
  8
0
100
AcDbBlockBegin
  2
*D6
 70
     1
 10
0.0
 20
0.0
 30
0.0
  3
*D6
  1

  0
LINE
  5
52EA
330
5197
100
AcDbEntity
  8
SUNPOU
100
AcDbLine
 10
92.23190076781964
 20
116.725509347437
 30
0.0
 11
92.23190076781964
 21
108.2564488175112
 31
0.0
  0
LINE
  5
52EB
330
5197
100
AcDbEntity
  8
SUNPOU
100
AcDbLine
 10
151.7955573782817
 20
116.7255093474366
 30
0.0
 11
151.7955573782817
 21
108.2564488175112
 31
0.0
  0
LINE
  5
52EC
330
5197
100
AcDbEntity
  8
SUNPOU
100
AcDbLine
 10
95.23190076781963
 20
109.7564488175112
 30
0.0
 11
148.7955573782817
 21
109.7564488175112
 31
0.0
  0
INSERT
  5
52ED
330
5197
100
AcDbEntity
  8
SUNPOU
100
AcDbBlockReference
  2
_OPEN
 10
92.23190076781964
 20
109.7564488175112
 30
0.0
 41
3.0
 42
3.0
 43
3.0
 50
180.0
  0
INSERT
  5
52EE
330
5197
100
AcDbEntity
  8
SUNPOU
100
AcDbBlockReference
  2
_OPEN
 10
151.7955573782817
 20
109.7564488175112
 30
0.0
 41
3.0
 42
3.0
 43
3.0
  0
MTEXT
  5
52EF
330
5197
100
AcDbEntity
  8
SUNPOU
100
AcDbMText
 10
122.0137290730507
 20
113.0064488175112
 30
0.0
 40
3.5
 41
0.0
 71
     5
 72
     5
  1
\A1;60
 73
     1
 44
1.0
1001
ACAD
1000
MTEXTBEGIN
1070
    73
1070
     1
1070
    44
1040
1.0
1070
    74
1070
     0
1000
MTEXTEND
  0
POINT
  5
52F0
330
5197
100
AcDbEntity
  8
DEFPOINTS
 62
     0
100
AcDbPoint
 10
92.23190076781964
 20
118.225509347437
 30
0.0
  0
POINT
  5
52F1
330
5197
100
AcDbEntity
  8
DEFPOINTS
 62
     0
100
AcDbPoint
 10
151.7955573782817
 20
118.2255093474366
 30
0.0
  0
POINT
  5
52F2
330
5197
100
AcDbEntity
  8
DEFPOINTS
 62
     0
100
AcDbPoint
 10
151.7955573782817
 20
109.7564488175112
 30
0.0
  0
ENDBLK
  5
51A2
330
5197
100
AcDbEntity
  8
0
100
AcDbBlockEnd
  0
BLOCK
  5
51B8
330
51AE
100
AcDbEntity
  8
0
100
AcDbBlockBegin
  2
*D7
 70
     1
 10
0.0
 20
0.0
 30
0.0
  3
*D7
  1

  0
LINE
  5
5A58
330
51AE
100
AcDbEntity
  8
SUNPOU
100
AcDbLine
 10
151.7138891439284
 20
276.0880360729073
 30
0.0
 11
175.400035314465
 21
276.0880360729073
 31
0.0
  0
LINE
  5
5A59
330
51AE
100
AcDbEntity
  8
SUNPOU
100
AcDbLine
 10
151.7138965150639
 20
199.7880360728799
 30
0.0
 11
175.400035314465
 21
199.7880360728799
 31
0.0
  0
LINE
  5
5A5A
330
51AE
100
AcDbEntity
  8
SUNPOU
100
AcDbLine
 10
173.900035314465
 20
273.0880360729074
 30
0.0
 11
173.900035314465
 21
202.7880360728799
 31
0.0
  0
INSERT
  5
5A5B
330
51AE
100
AcDbEntity
  8
SUNPOU
100
AcDbBlockReference
  2
_OPEN
 10
173.900035314465
 20
276.0880360729073
 30
0.0
 41
3.0
 42
3.0
 43
3.0
 50
90.0
  0
INSERT
  5
5A5C
330
51AE
100
AcDbEntity
  8
SUNPOU
100
AcDbBlockReference
  2
_OPEN
 10
173.900035314465
 20
199.7880360728799
 30
0.0
 41
3.0
 42
3.0
 43
3.0
 50
270.0
  0
MTEXT
  5
5A5D
330
51AE
100
AcDbEntity
  8
SUNPOU
100
AcDbMText
 10
170.650035314465
 20
237.9380360728937
 30
0.0
 40
3.5
 41
0.0
 71
     5
 72
     1
  1
\A1;76
 11
0.0000000000000001
 21
1.0
 31
0.0
 73
     1
 44
1.0
1001
ACAD
1000
MTEXTBEGIN
1070
    73
1070
     1
1070
    44
1040
1.0
1070
    74
1070
     0
1000
MTEXTEND
  0
POINT
  5
5A5E
330
51AE
100
AcDbEntity
  8
DEFPOINTS
 62
     0
100
AcDbPoint
 10
150.2138891439284
 20
276.0880360729073
 30
0.0
  0
POINT
  5
5A5F
330
51AE
100
AcDbEntity
  8
DEFPOINTS
 62
     0
100
AcDbPoint
 10
150.2138965150639
 20
199.7880360728799
 30
0.0
  0
POINT
  5
5A60
330
51AE
100
AcDbEntity
  8
DEFPOINTS
 62
     0
100
AcDbPoint
 10
173.900035314465
 20
199.7880360728799
 30
0.0
  0
ENDBLK
  5
51B9
330
51AE
100
AcDbEntity
  8
0
100
AcDbBlockEnd
  0
BLOCK
  5
51CE
330
51C4
100
AcDbEntity
  8
0
100
AcDbBlockBegin
  2
*D8
 70
     1
 10
0.0
 20
0.0
 30
0.0
  3
*D8
  1

  0
LINE
  5
5A46
330
51C4
100
AcDbEntity
  8
SUNPOU
100
AcDbLine
 10
143.7000023968664
 20
96.34222946143001
 30
0.0
 11
175.400035314465
 21
96.34222946142999
 31
0.0
  0
LINE
  5
5A47
330
51C4
100
AcDbEntity
  8
SUNPOU
100
AcDbLine
 10
143.7000023968661
 20
36.34222946142969
 30
0.0
 11
175.4000353144649
 21
36.34222946142968
 31
0.0
  0
LINE
  5
5A48
330
51C4
100
AcDbEntity
  8
SUNPOU
100
AcDbLine
 10
173.900035314465
 20
93.34222946142999
 30
0.0
 11
173.9000353144649
 21
39.34222946142968
 31
0.0
  0
INSERT
  5
5A49
330
51C4
100
AcDbEntity
  8
SUNPOU
100
AcDbBlockReference
  2
_OPEN
 10
173.900035314465
 20
96.34222946142999
 30
0.0
 41
3.0
 42
3.0
 43
3.0
 50
90.0
  0
INSERT
  5
5A4A
330
51C4
100
AcDbEntity
  8
SUNPOU
100
AcDbBlockReference
  2
_OPEN
 10
173.9000353144649
 20
36.34222946142968
 30
0.0
 41
3.0
 42
3.0
 43
3.0
 50
270.0
  0
MTEXT
  5
5A4B
330
51C4
100
AcDbEntity
  8
SUNPOU
100
AcDbMText
 10
170.6500353144649
 20
66.34222946142987
 30
0.0
 40
3.5
 41
0.0
 71
     5
 72
     1
  1
\A1;60
 11
0.0000000000000001
 21
1.0
 31
0.0
 73
     1
 44
1.0
1001
ACAD
1000
MTEXTBEGIN
1070
    73
1070
     1
1070
    44
1040
1.0
1070
    74
1070
     0
1000
MTEXTEND
  0
POINT
  5
5A4C
330
51C4
100
AcDbEntity
  8
DEFPOINTS
 62
     0
100
AcDbPoint
 10
142.2000023968664
 20
96.34222946143001
 30
0.0
  0
POINT
  5
5A4D
330
51C4
100
AcDbEntity
  8
DEFPOINTS
 62
     0
100
AcDbPoint
 10
142.2000023968661
 20
36.34222946142969
 30
0.0
  0
POINT
  5
5A4E
330
51C4
100
AcDbEntity
  8
DEFPOINTS
 62
     0
100
AcDbPoint
 10
173.9000353144649
 20
36.34222946142968
 30
0.0
  0
ENDBLK
  5
51CF
330
51C4
100
AcDbEntity
  8
0
100
AcDbBlockEnd
  0
ENDSEC
  0
SECTION
  2
ENTITIES
  0
LINE
  5
577
330
1A
100
AcDbEntity
  8
ZUWAKU
100
AcDbLine
 10
111.323300388521
 20
14.6000003394497
 30
0.0
 11
230.7121817289827
 21
14.6000003394497
 31
0.0
  0
LINE
  5
578
330
1A
100
AcDbEntity
  8
ZUWAKU
100
AcDbLine
 10
111.323300388521
 20
14.8000003394497
 30
0.0
 11
230.7121817289827
 21
14.8000003394497
 31
0.0
  0
LINE
  5
579
330
1A
100
AcDbEntity
  8
ZUWAKU
100
AcDbLine
 10
111.323300388521
 20
14.7000003394497
 30
0.0
 11
230.7121817289827
 21
14.7000003394497
 31
0.0
  0
LINE
  5
57A
330
1A
100
AcDbEntity
  8
ZUWAKU
100
AcDbLine
 10
6.999999743487023
 20
22.40000033944969
 30
0.0
 11
405.699999743487
 21
22.40000033944969
 31
0.0
  0
LINE
  5
57B
330
1A
100
AcDbEntity
  8
ZUWAKU
100
AcDbLine
 10
6.999999743487023
 20
22.30000033944969
 30
0.0
 11
405.699999743487
 21
22.30000033944969
 31
0.0
  0
LINE
  5
57C
330
1A
100
AcDbEntity
  8
ZUWAKU
100
AcDbLine
 10
6.999999743487023
 20
22.20000033944969
 30
0.0
 11
405.699999743487
 21
22.20000033944969
 31
0.0
  0
LINE
  5
57D
330
1A
100
AcDbEntity
  8
ZUWAKU
100
AcDbLine
 10
6.999999743487023
 20
22.10000033944969
 30
0.0
 11
405.699999743487
 21
22.10000033944969
 31
0.0
  0
LINE
  5
57E
330
1A
100
AcDbEntity
  8
ZUWAKU
100
AcDbLine
 10
6.999999743487023
 20
22.00000033944968
 30
0.0
 11
405.699999743487
 21
22.00000033944968
 31
0.0
  0
LWPOLYLINE
  5
57F
330
1A
100
AcDbEntity
  8
ZUWAKU
100
AcDbPolyline
 90
        4
 70
     1
 43
0.0
 10
7.099999743486989
 20
282.7000003394497
 10
7.099999743486989
 20
7.100000339449707
 10
405.699999743487
 20
7.100000339449718
 10
405.699999743487
 20
282.7000003394497
  0
LWPOLYLINE
  5
580
330
1A
100
AcDbEntity
  8
ZUWAKU
100
AcDbPolyline
 90
        4
 70
     1
 43
0.0
 10
7.299999743486978
 20
282.5000003394497
 10
7.299999743486978
 20
7.300000339449695
 10
405.4999997434871
 20
7.300000339449718
 10
405.499999743487
 20
282.5000003394497
  0
LWPOLYLINE
  5
581
330
1A
100
AcDbEntity
  8
ZUWAKU
100
AcDbPolyline
 90
        4
 70
     1
 43
0.0
 10
6.999999743487023
 20
282.8000003394497
 10
6.999999743487023
 20
7.000000339449684
 10
405.7999997434871
 20
7.000000339449718
 10
405.7999997434871
 20
282.8000003394497
  0
LWPOLYLINE
  5
582
330
1A
100
AcDbEntity
  8
ZUWAKU
100
AcDbPolyline
 90
        4
 70
     1
 43
0.0
 10
7.199999743487012
 20
282.6000003394497
 10
7.199999743487012
 20
7.200000339449729
 10
405.599999743487
 20
7.200000339449718
 10
405.599999743487
 20
282.6000003394497
  0
LWPOLYLINE
  5
583
330
1A
100
AcDbEntity
  8
ZUWAKU
100
AcDbPolyline
 90
        4
 70
     1
 43
0.0
 10
7.399999743487001
 20
282.4000003394497
 10
7.399999743487001
 20
7.400000339449718
 10
405.3999997434869
 20
7.400000339449718
 10
405.3999997434869
 20
282.4000003394497
  0
TEXT
  5
584
330
1A
100
AcDbEntity
  8
moji
100
AcDbText
 10
53.47889453757159
 20
13.37058940458706
 30
0.0
 40
3.0
  1
アートフェイス
 41
0.9
  7
MSPｺﾞｼｯｸ
100
AcDbText
  0
INSERT
  5
585
330
1A
100
AcDbEntity
  8
ZUWAKU
  6
Continuous
100
AcDbBlockReference
  2
*X1
 10
7.0
 20
7.0
 30
0.0
1001
ACAD
1000
HATCH
1002
{
1070
    19
1000
ANSI37
1040
0.1
1040
0.0
1000
R14_HATCH_DATA
1000
585
1011
8.0
1021
7.0
1031
0.0
1011
7.0
1021
8.0
1031
0.0
1011
7.0
1021
7.0
1031
1.0
1040
0.0
1010
0.0
1020
0.0
1030
1.0
1000
ANSI37
1070
     0
1070
     0
1071
        8
1071
        7
1070
     1
1070
     1
1071
       24
1040
7.251131074046952
1040
8.822424579941475
1040
-0.1989123673796348
1040
7.046105820877585
1040
9.317399326772001
1040
0.0
1040
7.046105820877585
1040
9.96250033944969
1040
-0.4142135623730912
1040
7.308605820877573
1040
10.22500033944968
1040
0.0
1040
8.796105820877528
1040
10.22500033944968
1040
0.4142135623731546
1040
9.058605820877573
1040
10.48750033944968
1040
0.0
1040
9.058605820877573
1040
11.36250033944969
1040
0.4142135623731586
1040
8.796105820877528
1040
11.62500033944969
1040
0.0
1040
7.046105820877585
1040
11.62500033944969
1040
0.4142135623730928
1040
5.646105820877608
1040
10.2250003394497
1040
0.0
1040
5.646105820877608
1040
9.317399326772065
1040
0.1989123673796619
1040
6.261181580385823
1040
7.832475086280261
1040
0.0
1040
7.716080567708161
1040
6.377576098957932
1040
-0.1989123673796613
1040
7.921105820877585
1040
5.882601352127339
1040
0.0
1040
7.921105820877585
1040
5.237500339449681
1040
-0.4142135623730911
1040
7.658605820877596
1040
4.975000339449685
1040
0.0
1040
6.171105820877642
1040
4.975000339449685
1040
0.4142135623731526
1040
5.908605820877596
1040
4.712500339449691
1040
0.0
1040
5.908605820877596
1040
3.837500339449681
1040
0.4142135623731526
1040
6.171105820877642
1040
3.575000339449687
1040
0.0
1040
7.921105820877585
1040
3.575000339449687
1040
0.4142135623731044
1040
9.321105820877619
1040
4.975000339449675
1040
0.0
1040
9.321105820877619
1040
5.882601352127311
1040
0.1989123673796604
1040
8.706030061369347
1040
7.367525592619081
1040
0.0
1071
        0
1071
        7
1070
     1
1070
     1
1071
       16
1040
11.7711058208776
1040
9.52500033944969
1040
-0.4142135623730935
1040
12.47110582087759
1040
10.22500033944968
1040
0.0
1040
13.43360582087757
1040
10.22500033944968
1040
0.4142135623731546
1040
13.69610582087762
1040
10.48750033944968
1040
0.0
1040
13.69610582087762
1040
11.36250033944969
1040
0.4142135623730951
1040
13.43360582087763
1040
11.62500033944969
1040
0.0
1040
12.47110582087754
1040
11.62500033944966
1040
0.4142135623730892
1040
10.37110582087757
1040
9.525000339449654
1040
0.0
1040
10.37110582087757
1040
5.675000339449699
1040
0.4142135623730969
1040
12.47110582087759
1040
3.575000339449687
1040
0.0
1040
13.43360582087757
1040
3.575000339449687
1040
0.4142135623731526
1040
13.69610582087762
1040
3.837500339449681
1040
0.0
1040
13.69610582087762
1040
4.712500339449691
1040
0.4142135623730891
1040
13.43360582087763
1040
4.975000339449685
1040
0.0
1040
12.47110582087759
1040
4.975000339449685
1040
-0.4142135623730928
1040
11.7711058208776
1040
5.675000339449679
1040
0.0
1071
        0
1071
        7
1070
     1
1070
     1
1071
        2
1040
12.12110582087757
1040
7.600000339449685
1040
1.0
1040
13.87110582087757
1040
7.600000339449685
1040
1.0
1071
        0
1071
        7
1070
     1
1070
     1
1071
       26
1040
18.65742906196658
1040
9.602523936231399
1040
0.0
1040
19.18824887853549
1040
11.28345335536619
1040
0.5069206636600134
1040
18.93793342893781
1040
11.62500033944969
1040
0.0
1040
18.08848873913319
1040
11.62500033944969
1040
0.3272098845218764
1040
17.83817328953552
1040
11.44154732353317
1040
0.0
1040
16.90403835221963
1040
8.483453355366226
1040
-0.3272098845219541
1040
16.65372290262189
1040
8.300000339449685
1040
0.0
1040
16.58360582087766
1040
8.300000339449685
1040
-0.4142135623731526
1040
16.32110582087762
1040
8.562500339449679
1040
0.0
1040
16.32110582087762
1040
11.36250033944969
1040
0.4142135623730951
1040
16.05860582087763
1040
11.62500033944969
1040
0.0
1040
15.18360582087757
1040
11.62500033944969
1040
0.4142135623730871
1040
14.92110582087758
1040
11.36250033944969
1040
0.0
1040
14.92110582087758
1040
3.837500339449681
1040
0.4142135623730891
1040
15.18360582087757
1040
3.575000339449687
1040
0.0
1040
16.05860582087757
1040
3.575000339449687
1040
0.4142135623731526
1040
16.32110582087762
1040
3.837500339449681
1040
0.0
1040
16.32110582087762
1040
6.637500339449692
1040
-0.4142135623731526
1040
16.58360582087766
1040
6.900000339449686
1040
0.0
1040
16.65372290262195
1040
6.900000339449686
1040
-0.3272098845218915
1040
16.90403835221963
1040
6.716547323533148
1040
0.0
1040
17.83817328953552
1040
3.758453355366222
1040
0.3272098845218902
1040
18.08848873913319
1040
3.575000339449687
1040
0.0
1040
18.93793342893781
1040
3.575000339449687
1040
0.5069206636600335
1040
19.18824887853549
1040
3.91654732353319
1040
0.0
1040
18.02505318929866
1040
7.600000339449755
1040
0.0
1071
        0
1071
        7
1070
     1
1070
     1
1071
        8
1040
21.74610582087757
1040
11.36250033944969
1040
0.4142135623731546
1040
21.48360582087753
1040
11.62500033944969
1040
0.0
1040
20.60860582087764
1040
11.62500033944969
1040
0.4142135623731507
1040
20.3461058208776
1040
11.36250033944969
1040
0.0
1040
20.3461058208776
1040
3.837500339449681
1040
0.4142135623731526
1040
20.60860582087764
1040
3.575000339449687
1040
0.0
1040
21.48360582087753
1040
3.575000339449687
1040
0.4142135623731526
1040
21.74610582087757
1040
3.837500339449681
1040
0.0
1071
        0
1071
        7
1070
     1
1070
     1
1071
       24
1040
24.19610582087762
1040
9.96250033944969
1040
-0.4142135623731546
1040
24.45860582087767
1040
10.22500033944968
1040
0.0
1040
25.94610582087762
1040
10.22500033944968
1040
0.4142135623730911
1040
26.20860582087761
1040
10.48750033944968
1040
0.0
1040
26.20860582087761
1040
11.36250033944969
1040
0.4142135623730952
1040
25.94610582087762
1040
11.62500033944969
1040
0.0
1040
24.19610582087762
1040
11.62500033944969
1040
0.4142135623731048
1040
22.79610582087759
1040
10.2250003394497
1040
0.0
1040
22.79610582087759
1040
9.317399326772065
1040
0.1989123673796613
1040
23.41118158038586
1040
7.83247508628029
1040
0.0
1040
24.86608056770819
1040
6.377576098957955
1040
-0.1989123673796402
1040
25.07110582087762
1040
5.882601352127419
1040
0.0
1040
25.07110582087762
1040
5.237500339449681
1040
-0.4142135623730911
1040
24.80860582087763
1040
4.975000339449685
1040
0.0
1040
23.32110582087762
1040
4.975000339449685
1040
0.4142135623731526
1040
23.05860582087758
1040
4.712500339449691
1040
0.0
1040
23.05860582087758
1040
3.837500339449681
1040
0.4142135623730891
1040
23.32110582087756
1040
3.575000339449687
1040
0.0
1040
25.07110582087762
1040
3.575000339449687
1040
0.4142135623730925
1040
26.4711058208776
1040
4.975000339449675
1040
0.0
1040
26.4711058208776
1040
5.882601352127311
1040
0.1989123673796675
1040
25.85603006136933
1040
7.367525592619138
1040
0.0
1040
24.40113107404704
1040
8.822424579941396
1040
-0.1989123673796652
1040
24.19610582087762
1040
9.31739932677198
1040
0.0
1071
        0
1071
        7
1070
     1
1070
     1
1071
       16
1040
28.92110582087759
1040
11.36250033944968
1040
0.414213562373103
1040
28.6586058208776
1040
11.62500033944969
1040
0.0
1040
27.7836058208776
1040
11.62500033944969
1040
0.4142135623730871
1040
27.52110582087761
1040
11.36250033944969
1040
0.0
1040
27.52110582087761
1040
4.975000339449675
1040
0.4142135623730926
1040
28.92110582087759
1040
3.575000339449687
1040
0.0
1040
30.67110582087759
1040
3.575000339449687
1040
0.4142135623731044
1040
32.07110582087762
1040
4.975000339449675
1040
0.0
1040
32.07110582087762
1040
11.36250033944969
1040
0.4142135623730951
1040
31.80860582087763
1040
11.62500033944969
1040
0.0
1040
30.93360582087758
1040
11.62500033944969
1040
0.4142135623730871
1040
30.67110582087759
1040
11.36250033944969
1040
0.0
1040
30.67110582087759
1040
5.500000339449673
1040
-0.414213562373088
1040
30.14610582087761
1040
4.975000339449685
1040
0.0
1040
29.44610582087762
1040
4.975000339449685
1040
-0.4142135623731197
1040
28.92110582087759
1040
5.500000339449673
1040
0.0
1071
        0
1071
        7
1070
     1
1070
     1
1071
        8
1040
34.52110582087761
1040
11.36250033944969
1040
0.4142135623730871
1040
34.25860582087762
1040
11.62500033944969
1040
0.0
1040
33.38360582087762
1040
11.62500033944969
1040
0.4142135623731507
1040
33.12110582087758
1040
11.36250033944969
1040
0.0
1040
33.12110582087758
1040
3.837500339449681
1040
0.4142135623730891
1040
33.38360582087756
1040
3.575000339449687
1040
0.0
1040
34.25860582087762
1040
3.575000339449687
1040
0.4142135623730891
1040
34.52110582087761
1040
3.837500339449681
1040
0.0
1071
        0
1070
     0
1070
     1
1040
0.0
1040
0.1
1070
     0
1070
     2
1040
0.7853981633974483
1040
-450.4711524238524
1040
-6.599999660550281
1040
-0.2245064030267288
1040
0.2245064030267288
1070
     0
1040
2.356194490192344
1040
-450.4711524238524
1040
-6.599999660550281
1040
-0.2245064030267288
1040
-0.2245064030267288
1070
     0
1040
0.057451373970553
1071
        8
1040
8.039927224998677
1040
7.583587162392461
1040
0.0
1040
11.20225724670661
1040
9.42203143067519
1040
0.0
1040
12.58218368631685
1040
7.755941162485044
1040
0.0
1040
15.45702973430559
1040
8.100649162670435
1040
0.0
1040
20.91923575296539
1040
8.330455296441243
1040
0.0
1040
23.4491001910518
1040
9.70928849765329
1040
0.0
1040
28.2788427296872
1040
9.364579296997192
1040
0.0
1040
33.91353955329839
1040
9.594385430767999
1040
0.0
1002
}
  0
LINE
  5
586
330
1A
100
AcDbEntity
  8
ZUWAKU
100
AcDbLine
 10
19.47110582087759
 20
18.62500033944966
 30
0.0
 11
20.43360582087757
 21
18.62500033944969
 31
0.0
  0
LINE
  5
587
330
1A
100
AcDbEntity
  8
ZUWAKU
100
AcDbLine
 10
20.43360582087757
 20
17.22500033944968
 30
0.0
 11
19.47110582087759
 21
17.22500033944968
 31
0.0
  0
LINE
  5
588
330
1A
100
AcDbEntity
  8
ZUWAKU
100
AcDbLine
 10
19.47110582087759
 20
11.97500033944968
 30
0.0
 11
20.43360582087757
 21
11.97500033944968
 31
0.0
  0
LINE
  5
589
330
1A
100
AcDbEntity
  8
ZUWAKU
100
AcDbLine
 10
20.43360582087757
 20
10.57500033944968
 30
0.0
 11
19.47110582087759
 21
10.57500033944968
 31
0.0
  0
CIRCLE
  5
58A
330
1A
100
AcDbEntity
  8
ZUWAKU
100
AcDbCircle
 10
19.99610582087757
 20
14.60000033944968
 30
0.0
 40
0.875
  0
ARC
  5
58B
330
1A
100
AcDbEntity
  8
ZUWAKU
100
AcDbCircle
 10
14.74610582087757
 20
16.31739932677203
 30
0.0
 40
0.7
100
AcDbArc
 50
180.0000000000016
 51
224.9999999999988
  0
LINE
  5
58C
330
1A
100
AcDbEntity
  8
ZUWAKU
100
AcDbLine
 10
18.77110582087761
 20
16.52500033944968
 30
0.0
 11
18.77110582087761
 21
12.67500033944969
 31
0.0
  0
LINE
  5
58D
330
1A
100
AcDbEntity
  8
ZUWAKU
100
AcDbLine
 10
17.37110582087757
 20
12.67500033944969
 30
0.0
 11
17.37110582087757
 21
16.52500033944966
 31
0.0
  0
ARC
  5
58E
330
1A
100
AcDbEntity
  8
ZUWAKU
100
AcDbCircle
 10
14.74610582087757
 20
16.31739932677203
 30
0.0
 40
2.099999999999999
100
AcDbArc
 50
180.0
 51
225.0
  0
ARC
  5
58F
330
1A
100
AcDbEntity
  8
ZUWAKU
100
AcDbCircle
 10
14.92110582087758
 20
11.97500033944968
 30
0.0
 40
1.399999999999999
100
AcDbArc
 50
270.0
 51
0.0
  0
ARC
  5
590
330
1A
100
AcDbEntity
  8
ZUWAKU
100
AcDbCircle
 10
19.47110582087759
 20
12.67500033944969
 30
0.0
 40
2.099999999999999
100
AcDbArc
 50
180.0
 51
270.0
  0
ARC
  5
591
330
1A
100
AcDbEntity
  8
ZUWAKU
100
AcDbCircle
 10
14.2211058208776
 20
12.88260135212734
 30
0.0
 40
2.099999999999999
100
AcDbArc
 50
0.0
 51
45.0
  0
LINE
  5
592
330
1A
100
AcDbEntity
  8
ZUWAKU
100
AcDbLine
 10
15.70603006136934
 20
14.3675255926191
 30
0.0
 11
14.25113107404701
 21
15.82242457994144
 31
0.0
  0
LINE
  5
593
330
1A
100
AcDbEntity
  8
ZUWAKU
100
AcDbLine
 10
14.92110582087758
 20
12.23750033944969
 30
0.0
 11
14.92110582087758
 21
12.88260135212736
 31
0.0
  0
ARC
  5
594
330
1A
100
AcDbEntity
  8
ZUWAKU
100
AcDbCircle
 10
14.65860582087759
 20
12.23750033944969
 30
0.0
 40
0.2625
100
AcDbArc
 50
270.0
 51
0.0
  0
ARC
  5
595
330
1A
100
AcDbEntity
  8
ZUWAKU
100
AcDbCircle
 10
14.2211058208776
 20
12.88260135212736
 30
0.0
 40
0.7
100
AcDbArc
 50
0.0
 51
45.0
  0
LINE
  5
596
330
1A
100
AcDbEntity
  8
ZUWAKU
100
AcDbLine
 10
12.90860582087759
 20
10.83750033944968
 30
0.0
 11
12.90860582087759
 21
11.71250033944968
 31
0.0
  0
ARC
  5
597
330
1A
100
AcDbEntity
  8
ZUWAKU
100
AcDbCircle
 10
13.17110582087758
 20
10.83750033944968
 30
0.0
 40
0.2625
100
AcDbArc
 50
180.0
 51
270.0
  0
ARC
  5
598
330
1A
100
AcDbEntity
  8
ZUWAKU
100
AcDbCircle
 10
13.17110582087758
 20
11.71250033944968
 30
0.0
 40
0.2625
100
AcDbArc
 50
90.0
 51
180.0
  0
LINE
  5
599
330
1A
100
AcDbEntity
  8
ZUWAKU
100
AcDbLine
 10
13.17110582087758
 20
10.57500033944968
 30
0.0
 11
14.92110582087758
 21
10.57500033944968
 31
0.0
  0
LINE
  5
59A
330
1A
100
AcDbEntity
  8
ZUWAKU
100
AcDbLine
 10
13.17110582087758
 20
11.97500033944968
 30
0.0
 11
14.65860582087759
 21
11.97500033944968
 31
0.0
  0
LINE
  5
59B
330
1A
100
AcDbEntity
  8
ZUWAKU
100
AcDbLine
 10
13.26118158038582
 20
14.83247508628027
 30
0.0
 11
14.71608056770816
 21
13.37757609895794
 31
0.0
  0
LINE
  5
59C
330
1A
100
AcDbEntity
  8
ZUWAKU
100
AcDbLine
 10
16.32110582087762
 20
11.97500033944968
 30
0.0
 11
16.32110582087762
 21
12.88260135212736
 31
0.0
  0
ARC
  5
59D
330
1A
100
AcDbEntity
  8
ZUWAKU
100
AcDbCircle
 10
19.47110582087759
 20
12.67500033944969
 30
0.0
 40
0.7
100
AcDbArc
 50
180.0
 51
270.0
  0
ARC
  5
59E
330
1A
100
AcDbEntity
  8
ZUWAKU
100
AcDbCircle
 10
15.79610582087758
 20
18.36250033944968
 30
0.0
 40
0.2625
100
AcDbArc
 50
0.0
 51
90.0
  0
ARC
  5
59F
330
1A
100
AcDbEntity
  8
ZUWAKU
100
AcDbCircle
 10
15.79610582087758
 20
17.48750033944968
 30
0.0
 40
0.2625
100
AcDbArc
 50
270.0
 51
0.0
  0
LINE
  5
5A0
330
1A
100
AcDbEntity
  8
ZUWAKU
100
AcDbLine
 10
14.04610582087758
 20
18.62500033944969
 30
0.0
 11
15.79610582087758
 21
18.62500033944969
 31
0.0
  0
ARC
  5
5A1
330
1A
100
AcDbEntity
  8
ZUWAKU
100
AcDbCircle
 10
14.30860582087757
 20
16.96250033944968
 30
0.0
 40
0.2625
100
AcDbArc
 50
90.0
 51
180.0
  0
LINE
  5
5A2
330
1A
100
AcDbEntity
  8
ZUWAKU
100
AcDbLine
 10
14.04610582087758
 20
16.96250033944968
 30
0.0
 11
14.04610582087758
 21
16.31739932677201
 31
0.0
  0
LINE
  5
5A3
330
1A
100
AcDbEntity
  8
ZUWAKU
100
AcDbLine
 10
15.79610582087758
 20
17.22500033944968
 30
0.0
 11
14.30860582087757
 21
17.22500033944968
 31
0.0
  0
LINE
  5
5A4
330
1A
100
AcDbEntity
  8
ZUWAKU
100
AcDbLine
 10
12.64610582087761
 20
17.22500033944968
 30
0.0
 11
12.64610582087761
 21
16.31739932677201
 31
0.0
  0
ARC
  5
5A5
330
1A
100
AcDbEntity
  8
ZUWAKU
100
AcDbCircle
 10
14.04610582087758
 20
17.22500033944968
 30
0.0
 40
1.399999999999999
100
AcDbArc
 50
90.0
 51
180.0
  0
LINE
  5
5A6
330
1A
100
AcDbEntity
  8
ZUWAKU
100
AcDbLine
 10
16.05860582087757
 20
18.36250033944968
 30
0.0
 11
16.05860582087757
 21
17.48750033944968
 31
0.0
  0
ARC
  5
5A7
330
1A
100
AcDbEntity
  8
ZUWAKU
100
AcDbCircle
 10
19.47110582087759
 20
16.52500033944968
 30
0.0
 40
0.7
100
AcDbArc
 50
90.0
 51
180.0
  0
ARC
  5
5A8
330
1A
100
AcDbEntity
  8
ZUWAKU
100
AcDbCircle
 10
19.47110582087759
 20
16.52500033944966
 30
0.0
 40
2.099999999999999
100
AcDbArc
 50
90.0
 51
180.0
  0
LINE
  5
5A9
330
1A
100
AcDbEntity
  8
ZUWAKU
100
AcDbLine
 10
46.66331451748113
 20
22.00000033944968
 30
0.0
 11
46.66331451748123
 21
7.400000339449718
 31
0.0
  0
LINE
  5
5AA
330
1A
100
AcDbEntity
  8
ZUWAKU
100
AcDbLine
 10
46.76331451748114
 20
22.00000033944968
 30
0.0
 11
46.76331451748126
 21
7.400000339449718
 31
0.0
  0
LINE
  5
5AB
330
1A
100
AcDbEntity
  8
ZUWAKU
100
AcDbLine
 10
46.56331451748122
 20
22.00000033944968
 30
0.0
 11
46.56331451748122
 21
7.400000339449718
 31
0.0
  0
LINE
  5
5AC
330
1A
100
AcDbEntity
  8
ZUWAKU
100
AcDbLine
 10
39.07110582087762
 20
11.97500033944968
 30
0.0
 11
39.07110582087762
 21
18.36250033944968
 31
0.0
  0
LINE
  5
5AD
330
1A
100
AcDbEntity
  8
ZUWAKU
100
AcDbLine
 10
37.67110582087759
 20
18.36250033944968
 30
0.0
 11
37.67110582087759
 21
12.50000033944968
 31
0.0
  0
LINE
  5
5AE
330
1A
100
AcDbEntity
  8
ZUWAKU
100
AcDbLine
 10
41.5211058208776
 20
10.83750033944968
 30
0.0
 11
41.5211058208776
 21
18.36250033944968
 31
0.0
  0
LINE
  5
5AF
330
1A
100
AcDbEntity
  8
ZUWAKU
100
AcDbLine
 10
40.12110582087757
 20
18.36250033944968
 30
0.0
 11
40.12110582087757
 21
10.83750033944968
 31
0.0
  0
ARC
  5
5B0
330
1A
100
AcDbEntity
  8
ZUWAKU
100
AcDbCircle
 10
31.89610582087761
 20
16.31739932677203
 30
0.0
 40
0.7
100
AcDbArc
 50
180.0000000000016
 51
224.9999999999988
  0
ARC
  5
5B1
330
1A
100
AcDbEntity
  8
ZUWAKU
100
AcDbCircle
 10
31.89610582087761
 20
16.31739932677203
 30
0.0
 40
2.099999999999999
100
AcDbArc
 50
180.0
 51
225.0
  0
LINE
  5
5B2
330
1A
100
AcDbEntity
  8
ZUWAKU
100
AcDbLine
 10
25.65742906196658
 20
16.6025239362314
 30
0.0
 11
25.02505318929866
 21
14.60000033944969
 31
0.0
  0
LINE
  5
5B3
330
1A
100
AcDbEntity
  8
ZUWAKU
100
AcDbLine
 10
27.3461058208776
 20
18.36250033944968
 30
0.0
 11
27.3461058208776
 21
10.83750033944968
 31
0.0
  0
LINE
  5
5B4
330
1A
100
AcDbEntity
  8
ZUWAKU
100
AcDbLine
 10
28.74610582087758
 20
10.83750033944968
 30
0.0
 11
28.74610582087758
 21
18.36250033944968
 31
0.0
  0
LINE
  5
5B5
330
1A
100
AcDbEntity
  8
ZUWAKU
100
AcDbLine
 10
34.52110582087761
 20
18.36250033944968
 30
0.0
 11
34.52110582087761
 21
11.97500033944968
 31
0.0
  0
LINE
  5
5B6
330
1A
100
AcDbEntity
  8
ZUWAKU
100
AcDbLine
 10
35.92110582087759
 20
12.50000033944968
 30
0.0
 11
35.92110582087759
 21
18.36250033944968
 31
0.0
  0
LINE
  5
5B7
330
1A
100
AcDbEntity
  8
ZUWAKU
100
AcDbLine
 10
23.32110582087762
 20
15.56250033944969
 30
0.0
 11
23.32110582087762
 21
18.36250033944968
 31
0.0
  0
LINE
  5
5B8
330
1A
100
AcDbEntity
  8
ZUWAKU
100
AcDbLine
 10
21.92110582087758
 20
18.36250033944968
 30
0.0
 11
21.92110582087758
 21
10.83750033944968
 31
0.0
  0
LINE
  5
5B9
330
1A
100
AcDbEntity
  8
ZUWAKU
100
AcDbLine
 10
24.83817328953552
 20
18.44154732353317
 30
0.0
 11
23.90403835221963
 21
15.4834533553662
 31
0.0
  0
LINE
  5
5BA
330
1A
100
AcDbEntity
  8
ZUWAKU
100
AcDbLine
 10
37.14610582087761
 20
11.97500033944968
 30
0.0
 11
36.44610582087762
 21
11.97500033944968
 31
0.0
  0
LINE
  5
5BB
330
1A
100
AcDbEntity
  8
ZUWAKU
100
AcDbLine
 10
35.92110582087759
 20
10.57500033944968
 30
0.0
 11
37.67110582087759
 21
10.57500033944968
 31
0.0
  0
LINE
  5
5BC
330
1A
100
AcDbEntity
  8
ZUWAKU
100
AcDbLine
 10
27.60860582087758
 20
10.57500033944968
 30
0.0
 11
28.48360582087759
 21
10.57500033944968
 31
0.0
  0
LINE
  5
5BD
330
1A
100
AcDbEntity
  8
ZUWAKU
100
AcDbLine
 10
24.83817328953552
 20
10.7584533553662
 30
0.0
 11
23.90403835221963
 21
13.71654732353317
 31
0.0
  0
ARC
  5
5BE
330
1A
100
AcDbEntity
  8
ZUWAKU
100
AcDbCircle
 10
23.65372290262195
 20
15.56250033944969
 30
0.0
 40
0.2625
100
AcDbArc
 50
270.0
 51
342.474431626277
  0
LINE
  5
5BF
330
1A
100
AcDbEntity
  8
ZUWAKU
100
AcDbLine
 10
23.65372290262195
 20
15.30000033944968
 30
0.0
 11
23.58360582087761
 21
15.30000033944968
 31
0.0
  0
LINE
  5
5C0
330
1A
100
AcDbEntity
  8
ZUWAKU
100
AcDbLine
 10
23.58360582087761
 20
13.90000033944968
 30
0.0
 11
23.65372290262195
 21
13.90000033944968
 31
0.0
  0
ARC
  5
5C1
330
1A
100
AcDbEntity
  8
ZUWAKU
100
AcDbCircle
 10
23.58360582087761
 20
15.56250033944969
 30
0.0
 40
0.2625
100
AcDbArc
 50
180.0
 51
270.0
  0
LINE
  5
5C2
330
1A
100
AcDbEntity
  8
ZUWAKU
100
AcDbLine
 10
22.18360582087758
 20
10.57500033944968
 30
0.0
 11
23.05860582087758
 21
10.57500033944968
 31
0.0
  0
ARC
  5
5C3
330
1A
100
AcDbEntity
  8
ZUWAKU
100
AcDbCircle
 10
23.05860582087758
 20
10.83750033944968
 30
0.0
 40
0.2625
100
AcDbArc
 50
270.0
 51
0.0
  0
LINE
  5
5C4
330
1A
100
AcDbEntity
  8
ZUWAKU
100
AcDbLine
 10
23.32110582087762
 20
10.83750033944968
 30
0.0
 11
23.32110582087762
 21
13.63750033944969
 31
0.0
  0
LINE
  5
5C5
330
1A
100
AcDbEntity
  8
ZUWAKU
100
AcDbLine
 10
20.69610582087762
 20
11.71250033944968
 30
0.0
 11
20.69610582087762
 21
10.83750033944968
 31
0.0
  0
ARC
  5
5C6
330
1A
100
AcDbEntity
  8
ZUWAKU
100
AcDbCircle
 10
20.43360582087757
 20
10.83750033944968
 30
0.0
 40
0.2625
100
AcDbArc
 50
270.0
 51
0.0
  0
ARC
  5
5C7
330
1A
100
AcDbEntity
  8
ZUWAKU
100
AcDbCircle
 10
20.43360582087757
 20
11.71250033944968
 30
0.0
 40
0.2625
100
AcDbArc
 50
0.0
 51
90.0
  0
ARC
  5
5C8
330
1A
100
AcDbEntity
  8
ZUWAKU
100
AcDbCircle
 10
22.18360582087758
 20
10.83750033944968
 30
0.0
 40
0.2625
100
AcDbArc
 50
180.0
 51
270.0
  0
ARC
  5
5C9
330
1A
100
AcDbEntity
  8
ZUWAKU
100
AcDbCircle
 10
23.65372290262195
 20
13.63750033944969
 30
0.0
 40
0.2625
100
AcDbArc
 50
17.52556837372303
 51
90.0
  0
ARC
  5
5CA
330
1A
100
AcDbEntity
  8
ZUWAKU
100
AcDbCircle
 10
23.58360582087761
 20
13.63750033944969
 30
0.0
 40
0.2625
100
AcDbArc
 50
90.0
 51
180.0
  0
ARC
  5
5CB
330
1A
100
AcDbEntity
  8
ZUWAKU
100
AcDbCircle
 10
27.60860582087758
 20
10.83750033944968
 30
0.0
 40
0.2625
100
AcDbArc
 50
180.0
 51
270.0
  0
LINE
  5
5CC
330
1A
100
AcDbEntity
  8
ZUWAKU
100
AcDbLine
 10
25.08848873913326
 20
10.57500033944968
 30
0.0
 11
25.93793342893775
 21
10.57500033944968
 31
0.0
  0
ARC
  5
5CD
330
1A
100
AcDbEntity
  8
ZUWAKU
100
AcDbCircle
 10
25.93793342893775
 20
10.83750033944968
 30
0.0
 40
0.2625
100
AcDbArc
 50
270.0
 51
17.52556837372303
  0
LINE
  5
5CE
330
1A
100
AcDbEntity
  8
ZUWAKU
100
AcDbLine
 10
26.18824887853549
 20
10.91654732353317
 30
0.0
 11
25.02505318929866
 21
14.60000033944969
 31
0.0
  0
ARC
  5
5CF
330
1A
100
AcDbEntity
  8
ZUWAKU
100
AcDbCircle
 10
25.08848873913326
 20
10.83750033944968
 30
0.0
 40
0.2625
100
AcDbArc
 50
197.525568373723
 51
270.0
  0
ARC
  5
5D0
330
1A
100
AcDbEntity
  8
ZUWAKU
100
AcDbCircle
 10
35.92110582087759
 20
11.97500033944968
 30
0.0
 40
1.399999999999999
100
AcDbArc
 50
180.0
 51
270.0
  0
ARC
  5
5D1
330
1A
100
AcDbEntity
  8
ZUWAKU
100
AcDbCircle
 10
32.07110582087762
 20
11.97500033944968
 30
0.0
 40
1.399999999999999
100
AcDbArc
 50
270.0
 51
0.0
  0
LINE
  5
5D2
330
1A
100
AcDbEntity
  8
ZUWAKU
100
AcDbLine
 10
32.85603006136938
 20
14.3675255926191
 30
0.0
 11
31.40113107404699
 21
15.82242457994144
 31
0.0
  0
LINE
  5
5D3
330
1A
100
AcDbEntity
  8
ZUWAKU
100
AcDbLine
 10
32.07110582087762
 20
12.23750033944969
 30
0.0
 11
32.07110582087762
 21
12.88260135212736
 31
0.0
  0
ARC
  5
5D4
330
1A
100
AcDbEntity
  8
ZUWAKU
100
AcDbCircle
 10
31.37110582087757
 20
12.88260135212736
 30
0.0
 40
0.7
100
AcDbArc
 50
0.0
 51
45.0
  0
ARC
  5
5D5
330
1A
100
AcDbEntity
  8
ZUWAKU
100
AcDbCircle
 10
31.80860582087758
 20
12.23750033944969
 30
0.0
 40
0.2625
100
AcDbArc
 50
270.0
 51
0.0
  0
LINE
  5
5D6
330
1A
100
AcDbEntity
  8
ZUWAKU
100
AcDbLine
 10
30.05860582087758
 20
10.83750033944968
 30
0.0
 11
30.05860582087758
 21
11.71250033944968
 31
0.0
  0
ARC
  5
5D7
330
1A
100
AcDbEntity
  8
ZUWAKU
100
AcDbCircle
 10
30.32110582087762
 20
10.83750033944968
 30
0.0
 40
0.2625
100
AcDbArc
 50
180.0
 51
270.0
  0
ARC
  5
5D8
330
1A
100
AcDbEntity
  8
ZUWAKU
100
AcDbCircle
 10
28.48360582087759
 20
10.83750033944968
 30
0.0
 40
0.2625
100
AcDbArc
 50
270.0
 51
0.0
  0
ARC
  5
5D9
330
1A
100
AcDbEntity
  8
ZUWAKU
100
AcDbCircle
 10
30.32110582087762
 20
11.71250033944968
 30
0.0
 40
0.2625
100
AcDbArc
 50
90.0
 51
180.0
  0
LINE
  5
5DA
330
1A
100
AcDbEntity
  8
ZUWAKU
100
AcDbLine
 10
30.32110582087762
 20
11.97500033944968
 30
0.0
 11
31.80860582087758
 21
11.97500033944968
 31
0.0
  0
LINE
  5
5DB
330
1A
100
AcDbEntity
  8
ZUWAKU
100
AcDbLine
 10
30.32110582087762
 20
10.57500033944968
 30
0.0
 11
32.07110582087762
 21
10.57500033944968
 31
0.0
  0
LINE
  5
5DC
330
1A
100
AcDbEntity
  8
ZUWAKU
100
AcDbLine
 10
30.41118158038586
 20
14.83247508628027
 30
0.0
 11
31.8660805677082
 21
13.37757609895794
 31
0.0
  0
LINE
  5
5DD
330
1A
100
AcDbEntity
  8
ZUWAKU
100
AcDbLine
 10
33.4711058208776
 20
11.97500033944968
 30
0.0
 11
33.4711058208776
 21
12.88260135212736
 31
0.0
  0
ARC
  5
5DE
330
1A
100
AcDbEntity
  8
ZUWAKU
100
AcDbCircle
 10
31.37110582087757
 20
12.88260135212734
 30
0.0
 40
2.099999999999999
100
AcDbArc
 50
0.0
 51
45.0
  0
ARC
  5
5DF
330
1A
100
AcDbEntity
  8
ZUWAKU
100
AcDbCircle
 10
36.44610582087762
 20
12.50000033944968
 30
0.0
 40
0.525
100
AcDbArc
 50
180.0
 51
270.0
  0
ARC
  5
5E0
330
1A
100
AcDbEntity
  8
ZUWAKU
100
AcDbCircle
 10
37.67110582087759
 20
11.97500033944968
 30
0.0
 40
1.399999999999999
100
AcDbArc
 50
270.0
 51
0.0
  0
LINE
  5
5E1
330
1A
100
AcDbEntity
  8
ZUWAKU
100
AcDbLine
 10
40.38360582087761
 20
10.57500033944968
 30
0.0
 11
41.25860582087762
 21
10.57500033944968
 31
0.0
  0
ARC
  5
5E2
330
1A
100
AcDbEntity
  8
ZUWAKU
100
AcDbCircle
 10
40.38360582087761
 20
10.83750033944968
 30
0.0
 40
0.2625
100
AcDbArc
 50
180.0
 51
270.0
  0
ARC
  5
5E3
330
1A
100
AcDbEntity
  8
ZUWAKU
100
AcDbCircle
 10
37.14610582087761
 20
12.50000033944968
 30
0.0
 40
0.525
100
AcDbArc
 50
270.0
 51
0.0
  0
ARC
  5
5E4
330
1A
100
AcDbEntity
  8
ZUWAKU
100
AcDbCircle
 10
41.25860582087762
 20
10.83750033944968
 30
0.0
 40
0.2625
100
AcDbArc
 50
270.0
 51
0.0
  0
LINE
  5
5E5
330
1A
100
AcDbEntity
  8
ZUWAKU
100
AcDbLine
 10
28.48360582087759
 20
18.62500033944969
 30
0.0
 11
27.60860582087758
 21
18.62500033944969
 31
0.0
  0
ARC
  5
5E6
330
1A
100
AcDbEntity
  8
ZUWAKU
100
AcDbCircle
 10
23.05860582087758
 20
18.36250033944968
 30
0.0
 40
0.2625
100
AcDbArc
 50
0.0
 51
90.0
  0
LINE
  5
5E7
330
1A
100
AcDbEntity
  8
ZUWAKU
100
AcDbLine
 10
23.05860582087758
 20
18.62500033944969
 30
0.0
 11
22.18360582087758
 21
18.62500033944969
 31
0.0
  0
ARC
  5
5E8
330
1A
100
AcDbEntity
  8
ZUWAKU
100
AcDbCircle
 10
20.43360582087757
 20
18.36250033944968
 30
0.0
 40
0.2625
100
AcDbArc
 50
0.0
 51
90.0
  0
ARC
  5
5E9
330
1A
100
AcDbEntity
  8
ZUWAKU
100
AcDbCircle
 10
22.18360582087758
 20
18.36250033944968
 30
0.0
 40
0.2625
100
AcDbArc
 50
90.0
 51
180.0
  0
ARC
  5
5EA
330
1A
100
AcDbEntity
  8
ZUWAKU
100
AcDbCircle
 10
20.43360582087757
 20
17.48750033944968
 30
0.0
 40
0.2625
100
AcDbArc
 50
270.0
 51
0.0
  0
LINE
  5
5EB
330
1A
100
AcDbEntity
  8
ZUWAKU
100
AcDbLine
 10
20.69610582087762
 20
18.36250033944968
 30
0.0
 11
20.69610582087762
 21
17.48750033944968
 31
0.0
  0
ARC
  5
5EC
330
1A
100
AcDbEntity
  8
ZUWAKU
100
AcDbCircle
 10
27.60860582087758
 20
18.36250033944968
 30
0.0
 40
0.2625
100
AcDbArc
 50
90.0
 51
180.0
  0
LINE
  5
5ED
330
1A
100
AcDbEntity
  8
ZUWAKU
100
AcDbLine
 10
25.08848873913326
 20
18.62500033944969
 30
0.0
 11
25.93793342893775
 21
18.62500033944969
 31
0.0
  0
ARC
  5
5EE
330
1A
100
AcDbEntity
  8
ZUWAKU
100
AcDbCircle
 10
25.93793342893775
 20
18.36250033944968
 30
0.0
 40
0.2625
100
AcDbArc
 50
342.474431626277
 51
90.0
  0
LINE
  5
5EF
330
1A
100
AcDbEntity
  8
ZUWAKU
100
AcDbLine
 10
26.18824887853549
 20
18.2834533553662
 30
0.0
 11
25.65742906196658
 21
16.6025239362314
 31
0.0
  0
ARC
  5
5F0
330
1A
100
AcDbEntity
  8
ZUWAKU
100
AcDbCircle
 10
25.08848873913326
 20
18.36250033944968
 30
0.0
 40
0.2625
100
AcDbArc
 50
90.0
 51
162.474431626277
  0
LINE
  5
5F1
330
1A
100
AcDbEntity
  8
ZUWAKU
100
AcDbLine
 10
31.19610582087762
 20
18.62500033944969
 30
0.0
 11
32.94610582087762
 21
18.62500033944969
 31
0.0
  0
LINE
  5
5F2
330
1A
100
AcDbEntity
  8
ZUWAKU
100
AcDbLine
 10
32.94610582087762
 20
17.22500033944968
 30
0.0
 11
31.45860582087761
 21
17.22500033944968
 31
0.0
  0
ARC
  5
5F3
330
1A
100
AcDbEntity
  8
ZUWAKU
100
AcDbCircle
 10
31.45860582087761
 20
16.96250033944968
 30
0.0
 40
0.2625
100
AcDbArc
 50
90.0
 51
180.0
  0
LINE
  5
5F4
330
1A
100
AcDbEntity
  8
ZUWAKU
100
AcDbLine
 10
31.19610582087762
 20
16.96250033944968
 30
0.0
 11
31.19610582087762
 21
16.31739932677201
 31
0.0
  0
ARC
  5
5F5
330
1A
100
AcDbEntity
  8
ZUWAKU
100
AcDbCircle
 10
28.48360582087759
 20
18.36250033944968
 30
0.0
 40
0.2625
100
AcDbArc
 50
0.0
 51
90.0
  0
LINE
  5
5F6
330
1A
100
AcDbEntity
  8
ZUWAKU
100
AcDbLine
 10
29.79610582087758
 20
17.22500033944968
 30
0.0
 11
29.79610582087758
 21
16.31739932677201
 31
0.0
  0
ARC
  5
5F7
330
1A
100
AcDbEntity
  8
ZUWAKU
100
AcDbCircle
 10
31.19610582087762
 20
17.22500033944968
 30
0.0
 40
1.399999999999999
100
AcDbArc
 50
90.0
 51
180.0
  0
ARC
  5
5F8
330
1A
100
AcDbEntity
  8
ZUWAKU
100
AcDbCircle
 10
35.6586058208776
 20
18.36250033944968
 30
0.0
 40
0.2625
100
AcDbArc
 50
0.0
 51
90.0
  0
ARC
  5
5F9
330
1A
100
AcDbEntity
  8
ZUWAKU
100
AcDbCircle
 10
34.7836058208776
 20
18.36250033944968
 30
0.0
 40
0.2625
100
AcDbArc
 50
90.0
 51
180.0
  0
LINE
  5
5FA
330
1A
100
AcDbEntity
  8
ZUWAKU
100
AcDbLine
 10
35.6586058208776
 20
18.62500033944969
 30
0.0
 11
34.7836058208776
 21
18.62500033944969
 31
0.0
  0
ARC
  5
5FB
330
1A
100
AcDbEntity
  8
ZUWAKU
100
AcDbCircle
 10
32.94610582087762
 20
18.36250033944968
 30
0.0
 40
0.2625
100
AcDbArc
 50
0.0
 51
90.0
  0
ARC
  5
5FC
330
1A
100
AcDbEntity
  8
ZUWAKU
100
AcDbCircle
 10
32.94610582087762
 20
17.48750033944968
 30
0.0
 40
0.2625
100
AcDbArc
 50
270.0
 51
0.0
  0
LINE
  5
5FD
330
1A
100
AcDbEntity
  8
ZUWAKU
100
AcDbLine
 10
33.20860582087761
 20
18.36250033944968
 30
0.0
 11
33.20860582087761
 21
17.48750033944968
 31
0.0
  0
LINE
  5
5FE
330
1A
100
AcDbEntity
  8
ZUWAKU
100
AcDbLine
 10
41.25860582087762
 20
18.62500033944969
 30
0.0
 11
40.38360582087761
 21
18.62500033944969
 31
0.0
  0
ARC
  5
5FF
330
1A
100
AcDbEntity
  8
ZUWAKU
100
AcDbCircle
 10
40.38360582087761
 20
18.36250033944968
 30
0.0
 40
0.2625
100
AcDbArc
 50
90.0
 51
180.0
  0
ARC
  5
600
330
1A
100
AcDbEntity
  8
ZUWAKU
100
AcDbCircle
 10
38.80860582087758
 20
18.36250033944968
 30
0.0
 40
0.2625
100
AcDbArc
 50
0.0
 51
90.0
  0
LINE
  5
601
330
1A
100
AcDbEntity
  8
ZUWAKU
100
AcDbLine
 10
38.80860582087758
 20
18.62500033944969
 30
0.0
 11
37.93360582087757
 21
18.62500033944969
 31
0.0
  0
ARC
  5
602
330
1A
100
AcDbEntity
  8
ZUWAKU
100
AcDbCircle
 10
37.93360582087757
 20
18.36250033944968
 30
0.0
 40
0.2625
100
AcDbArc
 50
90.0
 51
180.0
  0
ARC
  5
603
330
1A
100
AcDbEntity
  8
ZUWAKU
100
AcDbCircle
 10
41.25860582087762
 20
18.36250033944968
 30
0.0
 40
0.2625
100
AcDbArc
 50
0.0
 51
90.0
  0
LINE
  5
606
330
1A
100
AcDbEntity
  8
ZUWAKU
100
AcDbLine
 10
111.123300388521
 20
22.00000033944968
 30
0.0
 11
111.123300388521
 21
7.400000339449718
 31
0.0
  0
LINE
  5
607
330
1A
100
AcDbEntity
  8
ZUWAKU
100
AcDbLine
 10
111.3233003885209
 20
22.00000033944968
 30
0.0
 11
111.323300388521
 21
7.400000339449718
 31
0.0
  0
LINE
  5
608
330
1A
100
AcDbEntity
  8
ZUWAKU
100
AcDbLine
 10
111.2233003885209
 20
22.00000033944968
 30
0.0
 11
111.223300388521
 21
7.400000339449718
 31
0.0
  0
TEXT
  5
609
330
1A
100
AcDbEntity
  8
ZUWAKU
100
AcDbText
 10
111.8620228996258
 20
11.82767860864249
 30
0.0
 40
2.0
  1
サイズ
 41
0.9
  7
MSPｺﾞｼｯｸ
100
AcDbText
  0
TEXT
  5
60A
330
1A
100
AcDbEntity
  8
ZUWAKU
100
AcDbText
 10
111.8620228996257
 20
19.02767860864247
 30
0.0
 40
2.0
  1
品名
 41
0.9
  7
MSPｺﾞｼｯｸ
100
AcDbText
  0
LINE
  5
60C
330
1A
100
AcDbEntity
  8
ZUWAKU
100
AcDbLine
 10
331.4086009985891
 20
14.6000003394497
 30
0.0
 11
355.6245050177576
 21
14.6000003394497
 31
0.0
  0
LINE
  5
60D
330
1A
100
AcDbEntity
  8
ZUWAKU
100
AcDbLine
 10
331.4086009985893
 20
14.7000003394497
 30
0.0
 11
355.6245050177576
 21
14.7000003394497
 31
0.0
  0
LINE
  5
60E
330
1A
100
AcDbEntity
  8
ZUWAKU
100
AcDbLine
 10
331.4086009985891
 20
14.8000003394497
 30
0.0
 11
355.6245050177576
 21
14.8000003394497
 31
0.0
  0
LINE
  5
610
330
1A
100
AcDbEntity
  8
ZUWAKU
100
AcDbLine
 10
259.5995894925575
 20
14.6000003394497
 30
0.0
 11
283.2634776265432
 21
14.6000003394497
 31
0.0
  0
LINE
  5
611
330
1A
100
AcDbEntity
  8
ZUWAKU
100
AcDbLine
 10
259.5995894925575
 20
14.7000003394497
 30
0.0
 11
283.2634776265432
 21
14.7000003394497
 31
0.0
  0
LINE
  5
612
330
1A
100
AcDbEntity
  8
ZUWAKU
100
AcDbLine
 10
259.5995894925575
 20
14.8000003394497
 30
0.0
 11
283.2634776265432
 21
14.8000003394497
 31
0.0
  0
TEXT
  5
613
330
1A
100
AcDbEntity
  8
moji
100
AcDbText
 10
238.7841524247673
 20
12.97130920027967
 30
0.0
 40
2.799999999999999
  1
ＰＦ９６□
 41
0.9
  7
MSPｺﾞｼｯｸ
100
AcDbText
  0
LINE
  5
614
330
1A
100
AcDbEntity
  8
ZUWAKU
100
AcDbLine
 10
230.8121817289826
 20
22.00000033944968
 30
0.0
 11
230.8121817289828
 21
7.400000339449718
 31
0.0
  0
LINE
  5
615
330
1A
100
AcDbEntity
  8
ZUWAKU
100
AcDbLine
 10
230.9121817289827
 20
22.00000033944968
 30
0.0
 11
230.9121817289828
 21
7.400000339449718
 31
0.0
  0
LINE
  5
616
330
1A
100
AcDbEntity
  8
ZUWAKU
100
AcDbLine
 10
230.7121817289827
 20
22.00000033944968
 30
0.0
 11
230.7121817289827
 21
7.400000339449718
 31
0.0
  0
TEXT
  5
617
330
1A
100
AcDbEntity
  8
moji
100
AcDbText
 10
271.0204537296434
 20
16.00246086815338
 30
0.0
 40
2.799999999999999
  1
Ａ３
 41
0.9
  7
MSPｺﾞｼｯｸ
100
AcDbText
  0
LINE
  5
618
330
1A
100
AcDbEntity
  8
ZUWAKU
100
AcDbLine
 10
259.4995894925574
 20
22.00000033944968
 30
0.0
 11
259.4995894925576
 21
7.400000339449718
 31
0.0
  0
LINE
  5
619
330
1A
100
AcDbEntity
  8
ZUWAKU
100
AcDbLine
 10
259.5995894925575
 20
22.00000033944968
 30
0.0
 11
259.5995894925576
 21
7.400000339449718
 31
0.0
  0
LINE
  5
61A
330
1A
100
AcDbEntity
  8
ZUWAKU
100
AcDbLine
 10
259.3995894925575
 20
22.00000033944968
 30
0.0
 11
259.3995894925575
 21
7.400000339449718
 31
0.0
  0
TEXT
  5
61B
330
1A
100
AcDbEntity
  8
ZUWAKU
100
AcDbText
 10
238.3468805712406
 20
8.30703579501943
 30
0.0
 40
1.5
  1
□には色品番が入ります
 41
0.9
  7
MSPｺﾞｼｯｸ
100
AcDbText
  0
TEXT
  5
61C
330
1A
100
AcDbEntity
  8
ZUWAKU
100
AcDbText
 10
260.3383120036624
 20
11.82767860864249
 30
0.0
 40
2.0
  1
縮尺
 41
0.9
  7
MSPｺﾞｼｯｸ
100
AcDbText
  0
TEXT
  5
61D
330
1A
100
AcDbEntity
  8
moji
100
AcDbText
 10
334.9357905336045
 20
8.724382817972406
 30
0.0
 40
2.799999999999999
  1
2011/06/22
 41
0.9
  7
MSPｺﾞｼｯｸ
100
AcDbText
  0
TEXT
  5
61E
330
1A
100
AcDbEntity
  8
ZUWAKU
100
AcDbText
 10
231.6509042400875
 20
19.02767860864247
 30
0.0
 40
2.0
  1
品番
 41
0.9
  7
MSPｺﾞｼｯｸ
100
AcDbText
  0
TEXT
  5
61F
330
1A
100
AcDbEntity
  8
ZUWAKU
100
AcDbText
 10
260.3383120036623
 20
19.02767860864247
 30
0.0
 40
2.0
  1
用紙
 41
0.9
  7
MSPｺﾞｼｯｸ
100
AcDbText
  0
LINE
  5
620
330
1A
100
AcDbEntity
  8
ZUWAKU
100
AcDbLine
 10
331.3086009985892
 20
22.00000033944968
 30
0.0
 11
331.3086009985893
 21
7.400000339449718
 31
0.0
  0
LINE
  5
621
330
1A
100
AcDbEntity
  8
ZUWAKU
100
AcDbLine
 10
331.4086009985893
 20
22.00000033944968
 30
0.0
 11
331.4086009985893
 21
7.400000339449718
 31
0.0
  0
LINE
  5
622
330
1A
100
AcDbEntity
  8
ZUWAKU
100
AcDbLine
 10
331.2086009985893
 20
22.00000033944968
 30
0.0
 11
331.2086009985893
 21
7.400000339449718
 31
0.0
  0
LINE
  5
623
330
1A
100
AcDbEntity
  8
ZUWAKU
100
AcDbLine
 10
283.3634776265432
 20
22.00000033944968
 30
0.0
 11
283.3634776265433
 21
7.400000339449718
 31
0.0
  0
LINE
  5
624
330
1A
100
AcDbEntity
  8
ZUWAKU
100
AcDbLine
 10
283.4634776265432
 20
22.00000033944968
 30
0.0
 11
283.4634776265433
 21
7.400000339449718
 31
0.0
  0
LINE
  5
625
330
1A
100
AcDbEntity
  8
ZUWAKU
100
AcDbLine
 10
283.2634776265432
 20
22.00000033944968
 30
0.0
 11
283.2634776265432
 21
7.400000339449718
 31
0.0
  0
TEXT
  5
626
330
1A
100
AcDbEntity
  8
ZUWAKU
100
AcDbText
 10
332.1473235096941
 20
19.02767860864247
 30
0.0
 40
2.0
  1
DATE
 41
0.9
  7
MSPｺﾞｼｯｸ
100
AcDbText
  0
LINE
  5
627
330
1A
100
AcDbEntity
  8
ZUWAKU
100
AcDbLine
 10
355.6245050177576
 20
22.00000033944968
 30
0.0
 11
355.6245050177576
 21
7.400000339449718
 31
0.0
  0
LINE
  5
628
330
1A
100
AcDbEntity
  8
ZUWAKU
100
AcDbLine
 10
355.7245050177577
 20
22.00000033944968
 30
0.0
 11
355.7245050177577
 21
7.400000339449718
 31
0.0
  0
LINE
  5
629
330
1A
100
AcDbEntity
  8
ZUWAKU
100
AcDbLine
 10
355.8245050177576
 20
22.00000033944968
 30
0.0
 11
355.8245050177577
 21
7.400000339449718
 31
0.0
  0
LINE
  5
62A
330
1A
100
AcDbEntity
  8
ZUWAKU
100
AcDbLine
 10
355.9245050177576
 20
22.00000033944968
 30
0.0
 11
355.9245050177577
 21
7.400000339449718
 31
0.0
  0
TEXT
  5
149A
330
1A
100
AcDbEntity
  8
moji
100
AcDbText
 10
126.6730248442844
 20
16.4749905891615
 30
0.0
 40
2.799999999999999
  1
落し口リング　（高排水用）
 41
0.9
  7
MSPｺﾞｼｯｸ
100
AcDbText
  0
TEXT
  5
149B
330
1A
100
AcDbEntity
  8
moji
100
AcDbText
 10
126.3864265374658
 20
9.313206752988428
 30
0.0
 40
2.799999999999999
  1
Ｙ６０Ｈ
 41
0.9
  7
MSPｺﾞｼｯｸ
100
AcDbText
  0
LINE
  5
4747
330
1A
100
AcDbEntity
  8
SEIHIN
  6
Continuous
 48
0.3
100
AcDbLine
 10
93.81356900217298
 20
199.7880360729068
 30
0.0
 11
150.2138891439288
 21
199.7880360729069
 31
0.0
  0
ARC
  5
4748
330
1A
100
AcDbEntity
  8
SEIHIN
  6
Continuous
 48
0.3
100
AcDbCircle
 10
93.81356163104277
 20
200.7879898469081
 30
0.0
 40
0.9999537740285088
100
AcDbArc
 50
185.738550784913
 51
270.0004223541757
  0
ARC
  5
4749
330
1A
100
AcDbEntity
  8
SEIHIN
  6
Continuous
 48
0.3
100
AcDbCircle
 10
83.86372907305077
 20
199.7880360729067
 30
0.0
 40
9.000000000000042
100
AcDbArc
 50
5.738973139089891
 51
84.26102686091299
  0
ARC
  5
474A
330
1A
100
AcDbEntity
  8
SEIHIN
  6
Continuous
 48
0.3
100
AcDbCircle
 10
84.86368284704662
 20
209.7378686308939
 30
0.0
 40
0.9999537740230802
100
AcDbArc
 50
179.9995776455436
 51
264.2614492153642
  0
LINE
  5
474B
330
1A
100
AcDbEntity
  8
SEIHIN
  6
Continuous
 48
0.3
100
AcDbLine
 10
83.86372907305059
 20
266.1381961437848
 30
0.0
 11
83.86372907305071
 21
209.7378760020291
 31
0.0
  0
LINE
  5
474C
330
1A
100
AcDbEntity
  8
SEIHIN
  6
Continuous
 48
0.3
100
AcDbLine
 10
86.10734120193626
 20
211.5941502911877
 30
0.0
 11
86.10734120193615
 21
264.2819218546259
 31
0.0
  0
ARC
  5
474D
330
1A
100
AcDbEntity
  8
SEIHIN
  6
Continuous
 48
0.3
100
AcDbCircle
 10
87.11177280104356
 20
211.5954068873501
 30
0.0
 40
1.004474726793291
100
AcDbArc
 50
182.6152208603438
 51
252.4836286599656
  0
ARC
  5
474E
330
1A
100
AcDbEntity
  8
SEIHIN
  6
Continuous
 48
0.3
100
AcDbCircle
 10
83.85776378730696
 20
199.782070787163
 30
0.0
 40
11.24957640834925
100
AcDbArc
 50
15.21711952938376
 51
74.78856419010314
  0
ARC
  5
474F
330
1A
100
AcDbEntity
  8
SEIHIN
  6
Continuous
 48
0.3
100
AcDbCircle
 10
95.67096762984977
 20
203.035844718446
 30
0.0
 40
1.004233861818789
100
AcDbArc
 50
197.442233453266
 51
269.5058727498188
  0
LINE
  5
4750
330
1A
100
AcDbEntity
  8
SEIHIN
  6
Continuous
 48
0.3
100
AcDbLine
 10
148.3576148547698
 20
202.0316482017926
 30
0.0
 11
95.66984329133163
 21
202.0316482017924
 31
0.0
  0
LINE
  5
4751
330
1A
100
AcDbEntity
  8
SEIHIN
  6
Continuous
 48
0.3
100
AcDbLine
 10
146.318378853544
 20
204.116463197653
 30
0.0
 11
97.70907929255759
 21
204.1164631976529
 31
0.0
  0
ARC
  5
4752
330
1A
100
AcDbEntity
  8
SEIHIN
  6
Continuous
 48
0.3
100
AcDbCircle
 10
97.66200840176157
 20
204.7703789669512
 30
0.0
 40
0.6556077349279224
100
AcDbArc
 50
190.1120721368887
 51
274.1172269717525
  0
ARC
  5
4753
330
1A
100
AcDbEntity
  8
SEIHIN
  6
Continuous
 48
0.3
100
AcDbCircle
 10
86.92904715524031
 20
202.8533541550963
 30
0.0
 40
10.24721032994753
100
AcDbArc
 50
10.12781482123368
 51
79.87218517876975
  0
ARC
  5
4754
330
1A
100
AcDbEntity
  8
SEIHIN
  6
Continuous
 48
0.3
100
AcDbCircle
 10
88.84212255713055
 20
213.5832424912851
 30
0.0
 40
0.6518977443258632
100
AcDbArc
 50
175.5884663152769
 51
260.1822345760616
  0
LINE
  5
4755
330
1A
100
AcDbEntity
  8
SEIHIN
  6
Continuous
 48
0.3
100
AcDbLine
 10
88.19215619779681
 20
213.6333862924137
 30
0.0
 11
88.19215619779669
 21
262.2426858534001
 31
0.0
  0
CIRCLE
  5
4756
330
1A
100
AcDbEntity
  8
SEIHIN
  6
Continuous
 48
0.3
100
AcDbCircle
 10
122.0137290730507
 20
237.938036072907
 30
0.0
 40
33.45259521374086
  0
CIRCLE
  5
4758
330
1A
100
AcDbEntity
  8
SEIHIN
  6
Continuous
 48
0.3
100
AcDbCircle
 10
122.0137290730507
 20
237.938036072907
 30
0.0
 40
31.44508332176182
  0
LINE
  5
475F
330
1A
100
AcDbEntity
  8
CENTER L
 48
0.3
100
AcDbLine
 10
163.5656893247395
 20
237.938036072907
 30
0.0
 11
80.46176882136206
 21
237.938036072907
 31
0.0
  0
LINE
  5
4760
330
1A
100
AcDbEntity
  8
CENTER L
 48
0.3
100
AcDbLine
 10
122.0137290730508
 20
279.4899963245958
 30
0.0
 11
122.0137290730507
 21
196.3860758212183
 31
0.0
  0
LINE
  5
4763
330
1A
100
AcDbEntity
  8
SEIHIN
  6
Continuous
 48
0.3
100
AcDbLine
 10
136.3243288198306
 20
209.9380360729069
 30
0.0
 11
107.7031293262711
 21
209.9380360729068
 31
0.0
  0
ARC
  5
4764
330
1A
100
AcDbEntity
  8
SEIHIN
  6
Continuous
 48
0.3
100
AcDbCircle
 10
122.0137290730507
 20
237.9380360729069
 30
0.0
 40
30.05000000000018
100
AcDbArc
 50
165.5471016022534
 51
194.4528983977466
  0
LINE
  5
4766
330
1A
100
AcDbEntity
  8
SEIHIN
  6
Continuous
 48
0.3
100
AcDbLine
 10
92.91471706233108
 20
230.4380360729068
 30
0.0
 11
92.3986568968765
 21
230.4380360729068
 31
0.0
  0
LINE
  5
4767
330
1A
100
AcDbEntity
  8
SEIHIN
  6
Continuous
 48
0.3
100
AcDbLine
 10
91.87970326979774
 20
230.4380360729068
 30
0.0
 11
92.3986568968765
 21
230.4380360729068
 31
0.0
  0
LINE
  5
4768
330
1A
100
AcDbEntity
  8
SEIHIN
  6
Continuous
 48
0.3
100
AcDbLine
 10
92.39865689687645
 20
245.4380360729069
 30
0.0
 11
92.91471706233137
 21
245.4380360729069
 31
0.0
  0
LINE
  5
4769
330
1A
100
AcDbEntity
  8
SEIHIN
  6
Continuous
 48
0.3
100
AcDbLine
 10
92.39865689687645
 20
245.4380360729069
 30
0.0
 11
91.87970326979769
 21
245.4380360729069
 31
0.0
  0
ARC
  5
476A
330
1A
100
AcDbEntity
  8
SEIHIN
  6
Continuous
 48
0.3
100
AcDbCircle
 10
122.0137290730507
 20
237.9380360729069
 30
0.0
 40
31.05333333333349
100
AcDbArc
 50
166.0237326628282
 51
193.9762673371717
  0
LINE
  5
476B
330
1A
100
AcDbEntity
  8
SEIHIN
  6
Continuous
 48
0.3
100
AcDbLine
 10
160.163729073051
 20
175.2255093474365
 30
0.0
 11
83.86372907305082
 21
175.2255093474367
 31
0.0
  0
LINE
  5
476C
330
1A
100
AcDbEntity
  8
SEIHIN
  6
Continuous
 48
0.3
100
AcDbLine
 10
84.11463442290346
 20
146.4746039975842
 30
0.0
 11
83.86372907305077
 21
175.2255093474367
 31
0.0
  0
LWPOLYLINE
  5
476D
330
1A
100
AcDbEntity
  8
SEIHIN
  6
Continuous
 48
0.3
100
AcDbPolyline
 90
        4
 70
     0
 43
0.0
 10
93.04531471570113
 20
146.4985894749574
 10
93.02968143607722
 20
148.4984647283795
 10
92.966928880188
 20
156.4979644357963
 10
92.8186191067382
 20
175.2255093474367
  0
LINE
  5
476E
330
1A
100
AcDbEntity
  8
SEIHIN
  6
Continuous
 48
0.3
100
AcDbLine
 10
87.36372907305065
 20
143.225509347437
 30
0.0
 11
84.138747916277
 21
146.4504905042107
 31
0.0
  0
LINE
  5
4770
330
1A
100
AcDbEntity
  8
SEIHIN
  6
Continuous
 48
0.3
100
AcDbLine
 10
156.6637290730483
 20
143.2255093474342
 30
0.0
 11
87.36372907305053
 21
143.225509347437
 31
0.0
  0
LINE
  5
4771
330
1A
100
AcDbEntity
  8
SEIHIN
  6
Continuous
 48
0.3
100
AcDbLine
 10
96.34119361850162
 20
143.2255093474367
 30
0.0
 11
93.10270639460066
 21
146.463996571338
 31
0.0
  0
LINE
  5
4772
330
1A
100
AcDbEntity
  8
CENTER L
 48
0.3
100
AcDbLine
 10
122.0137290730508
 20
182.2255093474366
 30
0.0
 11
122.0137290730507
 21
111.2255093474368
 31
0.0
  0
LINE
  5
4773
330
1A
100
AcDbEntity
  8
SEIHIN
  6
Continuous
 48
0.3
100
AcDbLine
 10
92.23190076781964
 20
118.225509347437
 30
0.0
 11
92.01372907305074
 21
143.2255093474369
 31
0.0
  0
LWPOLYLINE
  5
4774
330
1A
100
AcDbEntity
  8
SEIHIN
  6
Continuous
 48
0.3
100
AcDbPolyline
 90
        4
 70
     0
 43
0.0
 10
101.0295155436998
 20
118.2255093474369
 10
101.0157214083019
 20
120.2253946915992
 10
100.9603943471013
 20
128.2249352821388
 10
100.8559883712848
 20
143.2255093474369
  0
LINE
  5
4775
330
1A
100
AcDbEntity
  8
SEIHIN
  6
Continuous
 48
0.3
100
AcDbLine
 10
92.23190076781959
 20
118.225509347437
 30
0.0
 11
151.7955573782817
 21
118.2255093474366
 31
0.0
  0
LINE
  5
4776
330
1A
100
AcDbEntity
  8
SEIHIN
  6
Continuous
 48
0.3
100
AcDbLine
 10
84.11463442290346
 20
146.4746039975842
 30
0.0
 11
159.9128237231979
 21
146.4746039975842
 31
0.0
  0
LWPOLYLINE
  5
4777
330
1A
100
AcDbEntity
  8
SEIHIN
  6
Continuous
 48
0.3
100
AcDbPolyline
 90
        4
 70
     0
 43
0.0
 10
142.9979426024015
 20
118.2255093474368
 10
143.0117367377994
 20
120.2253946915991
 10
143.0670637990001
 20
128.2249352821387
 10
143.1714697748166
 20
143.2255093474368
  0
LINE
  5
4778
330
1A
100
AcDbEntity
  8
SEIHIN
  6
Continuous
 48
0.3
100
AcDbLine
 10
151.7955573782817
 20
118.2255093474368
 30
0.0
 11
152.0137290730508
 21
143.2255093474368
 31
0.0
  0
LWPOLYLINE
  5
4779
330
1A
100
AcDbEntity
  8
SEIHIN
  6
Continuous
 48
0.3
100
AcDbPolyline
 90
        4
 70
     0
 43
0.0
 10
150.9821434304004
 20
146.4985894749572
 10
150.9977767100243
 20
148.4984647283794
 10
151.0605292659136
 20
156.4979644357962
 10
151.2088390393634
 20
175.2255093474365
  0
LINE
  5
477A
330
1A
100
AcDbEntity
  8
SEIHIN
  6
Continuous
 48
0.3
100
AcDbLine
 10
159.912823723198
 20
146.4746039975841
 30
0.0
 11
160.1637290730509
 21
175.2255093474365
 31
0.0
  0
LINE
  5
477B
330
1A
100
AcDbEntity
  8
SEIHIN
  6
Continuous
 48
0.3
100
AcDbLine
 10
147.6862645275999
 20
143.2255093474365
 30
0.0
 11
150.9247517515009
 21
146.4639965713378
 31
0.0
  0
LINE
  5
477C
330
1A
100
AcDbEntity
  8
SEIHIN
  6
Continuous
 48
0.3
100
AcDbLine
 10
156.6637290730509
 20
143.2255093474368
 30
0.0
 11
159.8887102298245
 21
146.4504905042105
 31
0.0
  0
LINE
  5
47FD
330
1A
100
AcDbEntity
  8
SEIHIN
  6
Continuous
 48
0.3
100
AcDbLine
 10
150.2138891439289
 20
104.4922294614298
 30
0.0
 11
93.81356900217316
 21
104.49222946143
 31
0.0
  0
ARC
  5
47FE
330
1A
100
AcDbEntity
  8
SEIHIN
  6
Continuous
 48
0.3
100
AcDbCircle
 10
93.81355979420073
 20
103.4922777181272
 30
0.0
 40
0.9999517433452327
100
AcDbArc
 50
89.99947239657981
 51
174.2615544643306
  0
ARC
  5
47FF
330
1A
100
AcDbEntity
  8
SEIHIN
  6
Continuous
 48
0.3
100
AcDbCircle
 10
83.86372907305087
 20
104.4922294614301
 30
0.0
 40
9.000000000000024
100
AcDbArc
 50
275.7389731390866
 51
354.2610268609124
  0
ARC
  5
4800
330
1A
100
AcDbEntity
  8
SEIHIN
  6
Continuous
 48
0.3
100
AcDbCircle
 10
84.86368284704644
 20
94.54239690344314
 30
0.0
 40
0.9999537740228609
100
AcDbArc
 50
95.73855078461525
 51
180.0004223544671
  0
LINE
  5
4801
330
1A
100
AcDbEntity
  8
SEIHIN
  6
Continuous
 48
0.3
100
AcDbLine
 10
83.86372907305064
 20
38.14206939055202
 30
0.0
 11
83.86372907305077
 21
94.54238953230783
 31
0.0
  0
ARC
  5
4802
330
1A
100
AcDbEntity
  8
SEIHIN
  6
Continuous
 48
0.3
100
AcDbCircle
 10
87.36372907305076
 20
100.9922294614301
 30
0.0
 40
9.000000000000035
100
AcDbArc
 50
274.0514814767807
 51
355.948518456449
  0
ARC
  5
4803
330
1A
100
AcDbEntity
  8
SEIHIN
  6
Continuous
 48
0.3
100
AcDbCircle
 10
88.02281947890071
 20
91.35458554969611
 30
0.0
 40
0.6605875374131827
100
AcDbArc
 50
92.01426194983016
 51
183.8581977370063
  0
LINE
  5
4804
330
1A
100
AcDbEntity
  8
SEIHIN
  6
Continuous
 48
0.3
100
AcDbLine
 10
87.36372907305065
 20
91.31013634833005
 30
0.0
 11
87.36372907305053
 21
41.37432257453002
 31
0.0
  0
ARC
  5
4805
330
1A
100
AcDbEntity
  8
SEIHIN
  6
Continuous
 48
0.3
100
AcDbCircle
 10
96.99986652709823
 20
100.3348084061499
 30
0.0
 40
0.6590253155416134
100
AcDbArc
 50
86.00136158794052
 51
178.126178725244
  0
LINE
  5
4806
330
1A
100
AcDbEntity
  8
SEIHIN
  6
Continuous
 48
0.3
100
AcDbLine
 10
146.9816359599508
 20
100.9922294614299
 30
0.0
 11
97.04582218615087
 21
100.9922294614301
 31
0.0
  0
LINE
  5
4807
330
1A
100
AcDbEntity
  8
SEIHIN
  6
Continuous
 48
0.3
100
AcDbLine
 10
142.2000023968664
 20
96.34222946143001
 30
0.0
 11
101.8274557492352
 21
96.34222946143012
 31
0.0
  0
ARC
  5
4808
330
1A
100
AcDbEntity
  8
SEIHIN
  6
Continuous
 48
0.3
100
AcDbCircle
 10
101.8274490604585
 20
95.34227605522062
 30
0.0
 40
0.9999534062319074
100
AcDbArc
 50
89.99961674346783
 51
166.2895615152622
  0
ARC
  5
4809
330
1A
100
AcDbEntity
  8
SEIHIN
  6
Continuous
 48
0.3
100
AcDbCircle
 10
90.16944030282592
 20
98.18651823165488
 30
0.0
 40
11.00000000000004
100
AcDbArc
 50
283.7108217412683
 51
346.2891782587336
  0
ARC
  5
480A
330
1A
100
AcDbEntity
  8
SEIHIN
  6
Continuous
 48
0.3
100
AcDbCircle
 10
93.01368247925962
 20
86.52850947402276
 30
0.0
 40
0.9999534062313021
100
AcDbArc
 50
103.7104384847075
 51
180.0003832565535
  0
LINE
  5
480B
330
1A
100
AcDbEntity
  8
SEIHIN
  6
Continuous
 48
0.3
100
AcDbLine
 10
92.01372907305074
 20
86.52850278524571
 30
0.0
 11
92.01372907305062
 21
46.15595613761434
 31
0.0
  0
LINE
  5
480C
330
1A
100
AcDbEntity
  8
SEIHIN
  6
Continuous
 48
0.3
100
AcDbLine
 10
93.77810364269999
 20
47.4678108628938
 30
0.0
 11
93.77810364270022
 21
85.21664805996639
 31
0.0
  0
ARC
  5
480D
330
1A
100
AcDbEntity
  8
SEIHIN
  6
Continuous
 48
0.3
100
AcDbCircle
 10
94.77805886719215
 20
85.21665278863309
 30
0.0
 40
0.9999552245031503
100
AcDbArc
 50
109.5615430711523
 51
180.0002709447773
  0
ARC
  5
480F
330
1A
100
AcDbEntity
  8
SEIHIN
  6
Continuous
 48
0.3
100
AcDbCircle
 10
90.16944030282592
 20
98.18651823165495
 30
0.0
 40
12.7643745696496
100
AcDbArc
 50
289.5618140159277
 51
340.4381859840749
  0
ARC
  5
4810
330
1A
100
AcDbEntity
  8
SEIHIN
  6
Continuous
 48
0.3
100
AcDbCircle
 10
103.1393057458483
 20
93.57789966728791
 30
0.0
 40
0.9999552245039819
100
AcDbArc
 50
89.99972905526036
 51
160.4384569288189
  0
LINE
  5
4811
330
1A
100
AcDbEntity
  8
SEIHIN
  6
Continuous
 48
0.3
100
AcDbLine
 10
140.8881476715871
 20
94.57785489178059
 30
0.0
 11
103.1393104745144
 21
94.57785489178069
 31
0.0
  0
ARC
  5
4812
330
1A
100
AcDbEntity
  8
SEIHIN
  6
Continuous
 48
0.3
100
AcDbCircle
 10
122.0137290730507
 20
66.34222946142992
 30
0.0
 40
30.9166666666668
100
AcDbArc
 50
115.0112323820512
 51
154.9887676179481
  0
LINE
  5
4816
330
1A
100
AcDbEntity
  8
SEIHIN
  6
Continuous
 48
0.3
100
AcDbLine
 10
84.86368284704644
 20
94.54239690344314
 30
0.0
 11
87.20587613515675
 21
92.17894409129753
 31
0.0
  0
LINE
  5
4817
330
1A
100
AcDbEntity
  8
SEIHIN
  6
Continuous
 48
0.3
100
AcDbLine
 10
93.81355979420073
 20
103.4922777181272
 30
0.0
 11
96.17659485640565
 21
101.1506291207076
 31
0.0
  0
LINE
  5
481D
330
1A
100
AcDbEntity
  8
CENTER L
 48
0.3
100
AcDbLine
 10
163.5656893247395
 20
66.34222946142992
 30
0.0
 11
80.46176882136201
 21
66.34222946142992
 31
0.0
  0
LINE
  5
481E
330
1A
100
AcDbEntity
  8
CENTER L
 48
0.3
100
AcDbLine
 10
122.0137290730507
 20
24.7902692097412
 30
0.0
 11
122.0137290730507
 21
107.8941897131186
 31
0.0
  0
ARC
  5
481F
330
1A
100
AcDbEntity
  8
SEIHIN
  6
Continuous
 48
0.3
100
AcDbCircle
 10
160.1696943587948
 20
199.7820707871633
 30
0.0
 40
11.24957640834925
100
AcDbArc
 50
105.2171195293837
 51
164.7885641901031
  0
ARC
  5
4820
330
1A
100
AcDbEntity
  8
SEIHIN
  6
Continuous
 48
0.3
100
AcDbCircle
 10
157.0984109908614
 20
202.8533541550967
 30
0.0
 40
10.24721032994753
100
AcDbArc
 50
100.1278148212337
 51
169.8721851787697
  0
ARC
  5
4821
330
1A
100
AcDbEntity
  8
SEIHIN
  6
Continuous
 48
0.3
100
AcDbCircle
 10
160.163729073051
 20
199.7880360729072
 30
0.0
 40
9.000000000000042
100
AcDbArc
 50
95.7389731390899
 51
174.261026860913
  0
ARC
  5
4822
330
1A
100
AcDbEntity
  8
SEIHIN
  6
Continuous
 48
0.3
100
AcDbCircle
 10
159.1637752990497
 20
209.7378686308991
 30
0.0
 40
0.9999537740285088
100
AcDbArc
 50
275.738550784913
 51
0.0004223541756332
  0
ARC
  5
4823
330
1A
100
AcDbEntity
  8
SEIHIN
  6
Continuous
 48
0.3
100
AcDbCircle
 10
156.9159204275117
 20
211.5952746297062
 30
0.0
 40
1.004233861818789
100
AcDbArc
 50
287.4422334532661
 51
359.5058727498188
  0
ARC
  5
4824
330
1A
100
AcDbEntity
  8
SEIHIN
  6
Continuous
 48
0.3
100
AcDbCircle
 10
155.1813861790066
 20
213.586315401618
 30
0.0
 40
0.6556077349279224
100
AcDbArc
 50
280.1120721368887
 51
4.117226971752465
  0
ARC
  5
4825
330
1A
100
AcDbEntity
  8
SEIHIN
  6
Continuous
 48
0.3
100
AcDbCircle
 10
148.3563582586076
 20
203.0360798009
 30
0.0
 40
1.004474726793291
100
AcDbArc
 50
272.6152208603437
 51
342.4836286599656
  0
ARC
  5
4826
330
1A
100
AcDbEntity
  8
SEIHIN
  6
Continuous
 48
0.3
100
AcDbCircle
 10
150.2138965150639
 20
200.787989846903
 30
0.0
 40
0.9999537740230802
100
AcDbArc
 50
269.9995776455436
 51
354.2614492153642
  0
ARC
  5
4827
330
1A
100
AcDbEntity
  8
SEIHIN
  6
Continuous
 48
0.3
100
AcDbCircle
 10
146.3685226546727
 20
204.766429556987
 30
0.0
 40
0.6518977443258632
100
AcDbArc
 50
265.5884663152769
 51
350.1822345760615
  0
LINE
  5
4828
330
1A
100
AcDbEntity
  8
SEIHIN
  6
Continuous
 48
0.3
100
AcDbLine
 10
150.0137290730508
 20
252.2486358196869
 30
0.0
 11
150.0137290730509
 21
223.6274363261274
 31
0.0
  0
ARC
  5
4829
330
1A
100
AcDbEntity
  8
SEIHIN
  6
Continuous
 48
0.3
100
AcDbCircle
 10
160.1696943587944
 20
276.0940013586511
 30
0.0
 40
11.24957640834925
100
AcDbArc
 50
195.2171195293837
 51
254.7885641901031
  0
ARC
  5
482A
330
1A
100
AcDbEntity
  8
SEIHIN
  6
Continuous
 48
0.3
100
AcDbCircle
 10
157.0984109908611
 20
273.0227179907178
 30
0.0
 40
10.24721032994753
100
AcDbArc
 50
190.1278148212336
 51
259.8721851787697
  0
ARC
  5
482B
330
1A
100
AcDbEntity
  8
SEIHIN
  6
Continuous
 48
0.3
100
AcDbCircle
 10
160.1637290730507
 20
276.0880360729073
 30
0.0
 40
9.000000000000042
100
AcDbArc
 50
185.7389731390898
 51
264.2610268609129
  0
ARC
  5
482C
330
1A
100
AcDbEntity
  8
SEIHIN
  6
Continuous
 48
0.3
100
AcDbCircle
 10
150.2138965150586
 20
275.088082298906
 30
0.0
 40
0.9999537740285088
100
AcDbArc
 50
5.738550784913059
 51
90.00042235417563
  0
ARC
  5
482D
330
1A
100
AcDbEntity
  8
SEIHIN
  6
Continuous
 48
0.3
100
AcDbCircle
 10
148.3564905162516
 20
272.8402274273681
 30
0.0
 40
1.004233861818789
100
AcDbArc
 50
17.44223345326595
 51
89.50587274981877
  0
ARC
  5
482E
330
1A
100
AcDbEntity
  8
SEIHIN
  6
Continuous
 48
0.3
100
AcDbCircle
 10
146.3654497443398
 20
271.1056931788629
 30
0.0
 40
0.6556077349279224
100
AcDbArc
 50
10.11207213688868
 51
94.11722697175246
  0
ARC
  5
482F
330
1A
100
AcDbEntity
  8
SEIHIN
  6
Continuous
 48
0.3
100
AcDbCircle
 10
156.9156853450579
 20
264.2806652584639
 30
0.0
 40
1.004474726793291
100
AcDbArc
 50
2.615220860343798
 51
72.48362865996563
  0
ARC
  5
4830
330
1A
100
AcDbEntity
  8
SEIHIN
  6
Continuous
 48
0.3
100
AcDbCircle
 10
159.1637752990548
 20
266.1382035149202
 30
0.0
 40
0.9999537740230802
100
AcDbArc
 50
359.9995776455437
 51
84.26144921536415
  0
ARC
  5
4831
330
1A
100
AcDbEntity
  8
SEIHIN
  6
Continuous
 48
0.3
100
AcDbCircle
 10
155.1853355889709
 20
262.292829654529
 30
0.0
 40
0.6518977443258632
100
AcDbArc
 50
355.5884663152769
 51
80.18223457606156
  0
LINE
  5
4832
330
1A
100
AcDbEntity
  8
SEIHIN
  6
Continuous
 48
0.3
100
AcDbLine
 10
107.7031293262711
 20
265.9380360729073
 30
0.0
 11
136.3243288198302
 21
265.9380360729074
 31
0.0
  0
ARC
  5
4833
330
1A
100
AcDbEntity
  8
SEIHIN
  6
Continuous
 48
0.3
100
AcDbCircle
 10
83.85776378730668
 20
276.0940013586509
 30
0.0
 40
11.24957640834925
100
AcDbArc
 50
285.2171195293837
 51
344.7885641901031
  0
ARC
  5
4834
330
1A
100
AcDbEntity
  8
SEIHIN
  6
Continuous
 48
0.3
100
AcDbCircle
 10
86.92904715524003
 20
273.0227179907176
 30
0.0
 40
10.24721032994753
100
AcDbArc
 50
280.1278148212336
 51
349.8721851787697
  0
ARC
  5
4835
330
1A
100
AcDbEntity
  8
SEIHIN
  6
Continuous
 48
0.3
100
AcDbCircle
 10
83.86372907305043
 20
276.0880360729071
 30
0.0
 40
9.000000000000042
100
AcDbArc
 50
275.7389731390898
 51
354.2610268609129
  0
ARC
  5
4836
330
1A
100
AcDbEntity
  8
SEIHIN
  6
Continuous
 48
0.3
100
AcDbCircle
 10
84.86368284705179
 20
266.1382035149151
 30
0.0
 40
0.9999537740285088
100
AcDbArc
 50
95.73855078491304
 51
180.0004223541756
  0
ARC
  5
4837
330
1A
100
AcDbEntity
  8
SEIHIN
  6
Continuous
 48
0.3
100
AcDbCircle
 10
87.11153771858972
 20
264.2807975161081
 30
0.0
 40
1.004233861818789
100
AcDbArc
 50
107.4422334532659
 51
179.5058727498187
  0
ARC
  5
4838
330
1A
100
AcDbEntity
  8
SEIHIN
  6
Continuous
 48
0.3
100
AcDbCircle
 10
88.84607196709486
 20
262.2897567441963
 30
0.0
 40
0.6556077349279224
100
AcDbArc
 50
100.1120721368887
 51
184.1172269717524
  0
ARC
  5
4839
330
1A
100
AcDbEntity
  8
SEIHIN
  6
Continuous
 48
0.3
100
AcDbCircle
 10
95.67109988749383
 20
272.8399923449142
 30
0.0
 40
1.004474726793291
100
AcDbArc
 50
92.61522086034373
 51
162.4836286599655
  0
ARC
  5
483A
330
1A
100
AcDbEntity
  8
SEIHIN
  6
Continuous
 48
0.3
100
AcDbCircle
 10
93.8135616310376
 20
275.0880822989113
 30
0.0
 40
0.9999537740230802
100
AcDbArc
 50
89.99957764554356
 51
174.2614492153641
  0
ARC
  5
483B
330
1A
100
AcDbEntity
  8
SEIHIN
  6
Continuous
 48
0.3
100
AcDbCircle
 10
97.6589354914288
 20
271.1096425888273
 30
0.0
 40
0.6518977443258632
100
AcDbArc
 50
85.58846631527691
 51
170.1822345760615
  0
LINE
  5
483C
330
1A
100
AcDbEntity
  8
SEIHIN
  6
Continuous
 48
0.3
100
AcDbLine
 10
94.01372907305063
 20
223.6274363261272
 30
0.0
 11
94.0137290730505
 21
252.2486358196866
 31
0.0
  0
LINE
  5
483D
330
1A
100
AcDbEntity
  8
SEIHIN
  6
Continuous
 48
0.3
100
AcDbLine
 10
155.8353019483047
 20
213.6333862924137
 30
0.0
 11
155.8353019483048
 21
262.2426858534001
 31
0.0
  0
LINE
  5
483E
330
1A
100
AcDbEntity
  8
SEIHIN
  6
Continuous
 48
0.3
100
AcDbLine
 10
157.9201169441652
 20
211.5941502911877
 30
0.0
 11
157.9201169441654
 21
264.2819218546259
 31
0.0
  0
LINE
  5
483F
330
1A
100
AcDbEntity
  8
SEIHIN
  6
Continuous
 48
0.3
100
AcDbLine
 10
160.1637290730509
 20
266.1381961437848
 30
0.0
 11
160.1637290730508
 21
209.7378760020291
 31
0.0
  0
LINE
  5
4840
330
1A
100
AcDbEntity
  8
SEIHIN
  6
Continuous
 48
0.3
100
AcDbLine
 10
146.318378853544
 20
271.759608948161
 30
0.0
 11
97.70907929255765
 21
271.7596089481611
 31
0.0
  0
LINE
  5
4841
330
1A
100
AcDbEntity
  8
SEIHIN
  6
Continuous
 48
0.3
100
AcDbLine
 10
148.3576148547698
 20
273.8444239440215
 30
0.0
 11
95.66984329133168
 21
273.8444239440216
 31
0.0
  0
LINE
  5
4842
330
1A
100
AcDbEntity
  8
SEIHIN
  6
Continuous
 48
0.3
100
AcDbLine
 10
93.81356900217303
 20
276.0880360729073
 30
0.0
 11
150.2138891439288
 21
276.0880360729071
 31
0.0
  0
ARC
  5
4843
330
1A
100
AcDbEntity
  8
SEIHIN
  6
Continuous
 48
0.3
100
AcDbCircle
 10
122.0137290730508
 20
237.9380360729069
 30
0.0
 40
31.05333333333349
100
AcDbArc
 50
346.0237326628282
 51
13.97626733717179
  0
ARC
  5
4845
330
1A
100
AcDbEntity
  8
SEIHIN
  6
Continuous
 48
0.3
100
AcDbCircle
 10
122.0137290730508
 20
237.9380360729069
 30
0.0
 40
30.05000000000018
100
AcDbArc
 50
345.5471016022534
 51
14.45289839774663
  0
LINE
  5
4846
330
1A
100
AcDbEntity
  8
SEIHIN
  6
Continuous
 48
0.3
100
AcDbLine
 10
152.1477548763038
 20
230.4380360729068
 30
0.0
 11
151.628801249225
 21
230.4380360729068
 31
0.0
  0
LINE
  5
4847
330
1A
100
AcDbEntity
  8
SEIHIN
  6
Continuous
 48
0.3
100
AcDbLine
 10
151.1127410837705
 20
230.4380360729068
 30
0.0
 11
151.628801249225
 21
230.4380360729068
 31
0.0
  0
LINE
  5
4848
330
1A
100
AcDbEntity
  8
SEIHIN
  6
Continuous
 48
0.3
100
AcDbLine
 10
151.6288012492251
 20
245.4380360729069
 30
0.0
 11
152.1477548763039
 21
245.4380360729069
 31
0.0
  0
LINE
  5
4849
330
1A
100
AcDbEntity
  8
SEIHIN
  6
Continuous
 48
0.3
100
AcDbLine
 10
151.6288012492251
 20
245.4380360729069
 30
0.0
 11
151.1127410837701
 21
245.4380360729069
 31
0.0
  0
ARC
  5
484A
330
1A
100
AcDbEntity
  8
SEIHIN
  6
Continuous
 48
0.3
100
AcDbCircle
 10
122.0137290730507
 20
66.34222946142998
 30
0.0
 40
30.9166666666668
100
AcDbArc
 50
205.0112323820512
 51
244.9887676179481
  0
ARC
  5
484B
330
1A
100
AcDbEntity
  8
SEIHIN
  6
Continuous
 48
0.3
100
AcDbCircle
 10
90.16944030282571
 20
34.4979406912052
 30
0.0
 40
12.7643745696496
100
AcDbArc
 50
19.56181401592771
 51
70.43818598407492
  0
ARC
  5
484C
330
1A
100
AcDbEntity
  8
SEIHIN
  6
Continuous
 48
0.3
100
AcDbCircle
 10
90.16944030282582
 20
34.4979406912052
 30
0.0
 40
11.00000000000004
100
AcDbArc
 50
13.71082174126828
 51
76.28917825873364
  0
ARC
  5
484D
330
1A
100
AcDbEntity
  8
SEIHIN
  6
Continuous
 48
0.3
100
AcDbCircle
 10
103.1393057458476
 20
39.10655925557143
 30
0.0
 40
0.9999552245031503
100
AcDbArc
 50
199.5615430711523
 51
270.0002709447773
  0
ARC
  5
484E
330
1A
100
AcDbEntity
  8
SEIHIN
  6
Continuous
 48
0.3
100
AcDbCircle
 10
101.8274490604579
 20
37.34218286763888
 30
0.0
 40
0.9999534062313021
100
AcDbArc
 50
193.7104384847074
 51
270.0003832565535
  0
LINE
  5
484F
330
1A
100
AcDbEntity
  8
SEIHIN
  6
Continuous
 48
0.3
100
AcDbLine
 10
84.86368081635351
 20
38.14206018257994
 30
0.0
 11
87.20532941377314
 21
40.50509524478485
 31
0.0
  0
ARC
  5
4850
330
1A
100
AcDbEntity
  8
SEIHIN
  6
Continuous
 48
0.3
100
AcDbCircle
 10
87.36372907305053
 20
31.69222946143003
 30
0.0
 40
9.000000000000035
100
AcDbArc
 50
4.051481476780685
 51
85.94851845644896
  0
ARC
  5
4851
330
1A
100
AcDbEntity
  8
SEIHIN
  6
Continuous
 48
0.3
100
AcDbCircle
 10
83.86372907305059
 20
28.19222946143014
 30
0.0
 40
9.000000000000024
100
AcDbArc
 50
5.738973139086613
 51
84.26102686091242
  0
ARC
  5
4852
330
1A
100
AcDbEntity
  8
SEIHIN
  6
Continuous
 48
0.3
100
AcDbCircle
 10
97.00137298478455
 20
32.35131986727998
 30
0.0
 40
0.6605875374131827
100
AcDbArc
 50
182.0142619498301
 51
273.8581977370063
  0
LINE
  5
4853
330
1A
100
AcDbEntity
  8
SEIHIN
  6
Continuous
 48
0.3
100
AcDbLine
 10
93.81356163103754
 20
29.19218323542566
 30
0.0
 11
96.17701444318317
 21
31.53437652353597
 31
0.0
  0
ARC
  5
4854
330
1A
100
AcDbEntity
  8
SEIHIN
  6
Continuous
 48
0.3
100
AcDbCircle
 10
93.81356163103754
 20
29.19218323542572
 30
0.0
 40
0.9999537740228609
100
AcDbArc
 50
185.7385507846152
 51
270.0004223544671
  0
ARC
  5
4855
330
1A
100
AcDbEntity
  8
SEIHIN
  6
Continuous
 48
0.3
100
AcDbCircle
 10
84.86368081635351
 20
38.14206018258
 30
0.0
 40
0.9999517433452327
100
AcDbArc
 50
179.9994723965798
 51
264.2615544643305
  0
ARC
  5
4856
330
1A
100
AcDbEntity
  8
SEIHIN
  6
Continuous
 48
0.3
100
AcDbCircle
 10
94.77805886719279
 20
47.46780613422759
 30
0.0
 40
0.9999552245039819
100
AcDbArc
 50
179.9997290552603
 51
250.4384569288189
  0
ARC
  5
4857
330
1A
100
AcDbEntity
  8
SEIHIN
  6
Continuous
 48
0.3
100
AcDbCircle
 10
93.01368247926006
 20
46.15594944883781
 30
0.0
 40
0.9999534062319074
100
AcDbArc
 50
179.9996167434678
 51
256.2895615152622
  0
ARC
  5
4858
330
1A
100
AcDbEntity
  8
SEIHIN
  6
Continuous
 48
0.3
100
AcDbCircle
 10
88.02115012833075
 20
41.32836691547749
 30
0.0
 40
0.6590253155416134
100
AcDbArc
 50
176.0013615879405
 51
268.126178725244
  0
ARC
  5
4859
330
1A
100
AcDbEntity
  8
SEIHIN
  6
Continuous
 48
0.3
100
AcDbCircle
 10
122.0137290730507
 20
66.34222946142992
 30
0.0
 40
30.9166666666668
100
AcDbArc
 50
295.0112323820512
 51
334.9887676179481
  0
ARC
  5
485A
330
1A
100
AcDbEntity
  8
SEIHIN
  6
Continuous
 48
0.3
100
AcDbCircle
 10
153.8580178432754
 20
34.49794069120486
 30
0.0
 40
12.7643745696496
100
AcDbArc
 50
109.5618140159277
 51
160.4381859840748
  0
ARC
  5
485B
330
1A
100
AcDbEntity
  8
SEIHIN
  6
Continuous
 48
0.3
100
AcDbCircle
 10
153.8580178432754
 20
34.49794069120495
 30
0.0
 40
11.00000000000004
100
AcDbArc
 50
103.7108217412683
 51
166.2891782587336
  0
ARC
  5
485C
330
1A
100
AcDbEntity
  8
SEIHIN
  6
Continuous
 48
0.3
100
AcDbCircle
 10
149.2493992789092
 20
47.46780613422671
 30
0.0
 40
0.9999552245031503
100
AcDbArc
 50
289.5615430711523
 51
0.0002709447773341
  0
ARC
  5
485D
330
1A
100
AcDbEntity
  8
SEIHIN
  6
Continuous
 48
0.3
100
AcDbCircle
 10
151.0137756668417
 20
46.15594944883705
 30
0.0
 40
0.9999534062313021
100
AcDbArc
 50
283.7104384847074
 51
0.0003832565535333
  0
LINE
  5
485E
330
1A
100
AcDbEntity
  8
SEIHIN
  6
Continuous
 48
0.3
100
AcDbLine
 10
150.2138983519007
 20
29.1921812047326
 30
0.0
 11
147.8508632896958
 21
31.53382980215224
 31
0.0
  0
ARC
  5
485F
330
1A
100
AcDbEntity
  8
SEIHIN
  6
Continuous
 48
0.3
100
AcDbCircle
 10
156.6637290730506
 20
31.69222946142969
 30
0.0
 40
9.000000000000035
100
AcDbArc
 50
94.05148147678067
 51
175.9485184564489
  0
ARC
  5
4860
330
1A
100
AcDbEntity
  8
SEIHIN
  6
Continuous
 48
0.3
100
AcDbCircle
 10
160.1637290730505
 20
28.19222946142972
 30
0.0
 40
9.000000000000024
100
AcDbArc
 50
95.73897313908652
 51
174.2610268609124
  0
ARC
  5
4861
330
1A
100
AcDbEntity
  8
SEIHIN
  6
Continuous
 48
0.3
100
AcDbCircle
 10
156.0046386672006
 20
41.32987337316371
 30
0.0
 40
0.6605875374131827
100
AcDbArc
 50
272.0142619498302
 51
3.858197737006303
  0
LINE
  5
4862
330
1A
100
AcDbEntity
  8
SEIHIN
  6
Continuous
 48
0.3
100
AcDbLine
 10
159.163775299055
 20
38.1420620194167
 30
0.0
 11
156.8215820109446
 21
40.50551483156229
 31
0.0
  0
ARC
  5
4863
330
1A
100
AcDbEntity
  8
SEIHIN
  6
Continuous
 48
0.3
100
AcDbCircle
 10
159.1637752990549
 20
38.14206201941667
 30
0.0
 40
0.9999537740228609
100
AcDbArc
 50
275.7385507846152
 51
0.00042235446716
  0
ARC
  5
4864
330
1A
100
AcDbEntity
  8
SEIHIN
  6
Continuous
 48
0.3
100
AcDbCircle
 10
150.2138983519006
 20
29.1921812047326
 30
0.0
 40
0.9999517433452327
100
AcDbArc
 50
269.9994723965798
 51
354.2615544643305
  0
ARC
  5
4865
330
1A
100
AcDbEntity
  8
SEIHIN
  6
Continuous
 48
0.3
100
AcDbCircle
 10
140.888152400253
 20
39.10655925557194
 30
0.0
 40
0.9999552245039819
100
AcDbArc
 50
269.9997290552603
 51
340.4384569288189
  0
ARC
  5
4866
330
1A
100
AcDbEntity
  8
SEIHIN
  6
Continuous
 48
0.3
100
AcDbCircle
 10
142.2000090856428
 20
37.34218286763923
 30
0.0
 40
0.9999534062319074
100
AcDbArc
 50
269.9996167434679
 51
346.2895615152621
  0
ARC
  5
4867
330
1A
100
AcDbEntity
  8
SEIHIN
  6
Continuous
 48
0.3
100
AcDbCircle
 10
147.0275916190031
 20
32.34965051670992
 30
0.0
 40
0.6590253155416134
100
AcDbArc
 50
266.0013615879405
 51
358.126178725244
  0
ARC
  5
4868
330
1A
100
AcDbEntity
  8
SEIHIN
  6
Continuous
 48
0.3
100
AcDbCircle
 10
122.0137290730508
 20
66.3422294614299
 30
0.0
 40
30.9166666666668
100
AcDbArc
 50
25.01123238205118
 51
64.98876761794804
  0
ARC
  5
4869
330
1A
100
AcDbEntity
  8
SEIHIN
  6
Continuous
 48
0.3
100
AcDbCircle
 10
153.8580178432759
 20
98.18651823165465
 30
0.0
 40
12.7643745696496
100
AcDbArc
 50
199.5618140159277
 51
250.4381859840748
  0
ARC
  5
486A
330
1A
100
AcDbEntity
  8
SEIHIN
  6
Continuous
 48
0.3
100
AcDbCircle
 10
153.8580178432757
 20
98.18651823165465
 30
0.0
 40
11.00000000000004
100
AcDbArc
 50
193.7108217412682
 51
256.2891782587336
  0
ARC
  5
486B
330
1A
100
AcDbEntity
  8
SEIHIN
  6
Continuous
 48
0.3
100
AcDbCircle
 10
140.888152400254
 20
93.57789966728844
 30
0.0
 40
0.9999552245031503
100
AcDbArc
 50
19.56154307115224
 51
90.00027094477724
  0
ARC
  5
486C
330
1A
100
AcDbEntity
  8
SEIHIN
  6
Continuous
 48
0.3
100
AcDbCircle
 10
142.2000090856436
 20
95.34227605522099
 30
0.0
 40
0.9999534062313021
100
AcDbArc
 50
13.71043848470742
 51
90.00038325655348
  0
LINE
  5
486D
330
1A
100
AcDbEntity
  8
SEIHIN
  6
Continuous
 48
0.3
100
AcDbLine
 10
159.1637773297481
 20
94.54239874027985
 30
0.0
 11
156.8221287323284
 21
92.17936367807494
 31
0.0
  0
ARC
  5
486E
330
1A
100
AcDbEntity
  8
SEIHIN
  6
Continuous
 48
0.3
100
AcDbCircle
 10
156.663729073051
 20
100.9922294614298
 30
0.0
 40
9.000000000000035
100
AcDbArc
 50
184.0514814767806
 51
265.948518456449
  0
ARC
  5
486F
330
1A
100
AcDbEntity
  8
SEIHIN
  6
Continuous
 48
0.3
100
AcDbCircle
 10
160.163729073051
 20
104.4922294614297
 30
0.0
 40
9.000000000000024
100
AcDbArc
 50
185.7389731390865
 51
264.2610268609124
  0
ARC
  5
4870
330
1A
100
AcDbEntity
  8
SEIHIN
  6
Continuous
 48
0.3
100
AcDbCircle
 10
147.026085161317
 20
100.3331390555799
 30
0.0
 40
0.6605875374131827
100
AcDbArc
 50
2.014261949830093
 51
93.85819773700626
  0
LINE
  5
4871
330
1A
100
AcDbEntity
  8
SEIHIN
  6
Continuous
 48
0.3
100
AcDbLine
 10
150.213896515064
 20
103.4922756874341
 30
0.0
 11
147.8504437029184
 21
101.1500823993238
 31
0.0
  0
ARC
  5
4872
330
1A
100
AcDbEntity
  8
SEIHIN
  6
Continuous
 48
0.3
100
AcDbCircle
 10
150.213896515064
 20
103.4922756874341
 30
0.0
 40
0.9999537740228609
100
AcDbArc
 50
5.738550784615197
 51
90.00042235446709
  0
ARC
  5
4873
330
1A
100
AcDbEntity
  8
SEIHIN
  6
Continuous
 48
0.3
100
AcDbCircle
 10
159.1637773297481
 20
94.54239874027985
 30
0.0
 40
0.9999517433452327
100
AcDbArc
 50
359.9994723965797
 51
84.2615544643305
  0
ARC
  5
4874
330
1A
100
AcDbEntity
  8
SEIHIN
  6
Continuous
 48
0.3
100
AcDbCircle
 10
149.2493992789087
 20
85.21665278863228
 30
0.0
 40
0.9999552245039819
100
AcDbArc
 50
359.9997290552603
 51
70.43845692881884
  0
ARC
  5
4875
330
1A
100
AcDbEntity
  8
SEIHIN
  6
Continuous
 48
0.3
100
AcDbCircle
 10
151.0137756668414
 20
86.52850947402203
 30
0.0
 40
0.9999534062319074
100
AcDbArc
 50
359.9996167434678
 51
76.28956151526212
  0
ARC
  5
4876
330
1A
100
AcDbEntity
  8
SEIHIN
  6
Continuous
 48
0.3
100
AcDbCircle
 10
156.0063080177708
 20
91.35609200738235
 30
0.0
 40
0.6590253155416134
100
AcDbArc
 50
356.0013615879404
 51
88.126178725244
  0
LINE
  5
4877
330
1A
100
AcDbEntity
  8
SEIHIN
  6
Continuous
 48
0.3
100
AcDbLine
 10
140.8881476715871
 20
38.10660403107926
 30
0.0
 11
103.1393104745144
 21
38.10660403107915
 31
0.0
  0
LINE
  5
4878
330
1A
100
AcDbEntity
  8
SEIHIN
  6
Continuous
 48
0.3
100
AcDbLine
 10
142.2000023968664
 20
36.34222946142984
 30
0.0
 11
101.8274557492352
 21
36.34222946142973
 31
0.0
  0
LINE
  5
4879
330
1A
100
AcDbEntity
  8
SEIHIN
  6
Continuous
 48
0.3
100
AcDbLine
 10
146.9816359599508
 20
31.69222946142992
 30
0.0
 11
97.04582218615087
 21
31.69222946142975
 31
0.0
  0
LINE
  5
487A
330
1A
100
AcDbEntity
  8
SEIHIN
  6
Continuous
 48
0.3
100
AcDbLine
 10
150.2138891439289
 20
28.19222946143
 30
0.0
 11
93.81356900217316
 21
28.19222946142981
 31
0.0
  0
LINE
  5
487B
330
1A
100
AcDbEntity
  8
SEIHIN
  6
Continuous
 48
0.3
100
AcDbLine
 10
150.2493545034015
 20
47.4678108628938
 30
0.0
 11
150.2493545034012
 21
85.21664805996639
 31
0.0
  0
LINE
  5
487C
330
1A
100
AcDbEntity
  8
SEIHIN
  6
Continuous
 48
0.3
100
AcDbLine
 10
152.0137290730507
 20
86.52850278524571
 30
0.0
 11
152.0137290730508
 21
46.15595613761434
 31
0.0
  0
LINE
  5
487D
330
1A
100
AcDbEntity
  8
SEIHIN
  6
Continuous
 48
0.3
100
AcDbLine
 10
156.6637290730508
 20
91.31013634833005
 30
0.0
 11
156.6637290730509
 21
41.37432257453002
 31
0.0
  0
LINE
  5
487E
330
1A
100
AcDbEntity
  8
SEIHIN
  6
Continuous
 48
0.3
100
AcDbLine
 10
160.1637290730508
 20
38.14206939055202
 30
0.0
 11
160.1637290730507
 21
94.54238953230783
 31
0.0
  0
LINE
  5
4912
330
1A
100
AcDbEntity
  8
SEIHIN
  6
Continuous
 48
0.3
100
AcDbLine
 10
318.4026351934375
 20
178.3189412582467
 30
0.0
 11
280.2526351934375
 21
178.3189412582467
 31
0.0
  0
LINE
  5
4913
330
1A
100
AcDbEntity
  8
SEIHIN
  6
Continuous
 48
0.3
100
AcDbLine
 10
242.3535405432901
 20
149.5680359083937
 30
0.0
 11
242.1026351934374
 21
178.3189412582467
 31
0.0
  0
LINE
  5
4914
330
1A
100
AcDbEntity
  8
SEIHIN
  6
Continuous
 48
0.3
100
AcDbLine
 10
244.3462473223233
 20
150.4037562541072
 30
0.0
 11
244.1026351934374
 21
178.3189412582467
 31
0.0
  0
LINE
  5
4915
330
1A
100
AcDbEntity
  8
SEIHIN
  6
Continuous
 48
0.3
100
AcDbLine
 10
246.5408291597148
 20
148.3189412582466
 30
0.0
 11
246.8000399796969
 21
178.0215592188959
 31
0.0
  0
LINE
  5
4916
330
1A
100
AcDbEntity
  8
SEIHIN
  6
Continuous
 48
0.3
100
AcDbLine
 10
245.6026351934375
 20
146.3189412582467
 30
0.0
 11
242.3535405432904
 21
149.5680359083939
 31
0.0
  0
LINE
  5
4917
330
1A
100
AcDbEntity
  8
SEIHIN
  6
Continuous
 48
0.3
100
AcDbLine
 10
246.4310623181837
 20
148.3189412582465
 30
0.0
 11
244.3462473223233
 21
150.4037562541072
 31
0.0
  0
LINE
  5
4918
330
1A
100
AcDbEntity
  8
SEIHIN
  6
Continuous
 48
0.3
100
AcDbLine
 10
248.8075518716759
 20
178.0239405639466
 30
0.0
 11
249.1993018601042
 21
154.5189412582465
 31
0.0
  0
LINE
  5
4919
330
1A
100
AcDbEntity
  8
SEIHIN
  6
Continuous
 48
0.3
100
AcDbLine
 10
250.2026351934376
 20
153.5189412582465
 30
0.0
 11
250.2026351934376
 21
154.0189412582465
 31
0.0
  0
LINE
  5
491A
330
1A
100
AcDbEntity
  8
SEIHIN
  6
Continuous
 48
0.3
100
AcDbLine
 10
251.1536231827179
 20
153.5189412582465
 30
0.0
 11
251.1536231827179
 21
154.0189412582465
 31
0.0
  0
LINE
  5
491B
330
1A
100
AcDbEntity
  8
SEIHIN
  6
Continuous
 48
0.3
100
AcDbLine
 10
250.2026351934376
 20
153.5189412582465
 30
0.0
 11
251.1536231827179
 21
153.5189412582465
 31
0.0
  0
LINE
  5
491C
330
1A
100
AcDbEntity
  8
SEIHIN
  6
Continuous
 48
0.3
100
AcDbLine
 10
249.2159685267708
 20
153.5189412582465
 30
0.0
 11
250.2026351934376
 21
153.5189412582465
 31
0.0
  0
ARC
  5
491D
330
1A
100
AcDbEntity
  8
SEIHIN
  6
Continuous
 48
0.3
100
AcDbCircle
 10
250.6468578630018
 20
154.0122165631364
 30
0.0
 40
0.5068099355693123
100
AcDbArc
 50
0.7602612496661353
 51
91.05085803084937
  0
LINE
  5
491F
330
1A
100
AcDbEntity
  8
SEIHIN
  6
Continuous
 48
0.3
100
AcDbLine
 10
249.7026351934376
 20
154.5189412582465
 30
0.0
 11
250.6375630172633
 21
154.5189412582465
 31
0.0
  0
ARC
  5
4920
330
1A
100
AcDbEntity
  8
SEIHIN
  6
Continuous
 48
0.3
100
AcDbCircle
 10
249.7026351934376
 20
154.0189412582465
 30
0.0
 40
0.5
100
AcDbArc
 50
0.0000000000004071
 51
90.0
  0
LINE
  5
4921
330
1A
100
AcDbEntity
  8
SEIHIN
  6
Continuous
 48
0.3
100
AcDbLine
 10
249.1993018601042
 20
154.5189412582465
 30
0.0
 11
249.7026351934376
 21
154.5189412582465
 31
0.0
  0
LINE
  5
4922
330
1A
100
AcDbEntity
  8
SEIHIN
  6
Continuous
 48
0.3
100
AcDbLine
 10
249.2159685267708
 20
153.5189412582465
 30
0.0
 11
249.3026351934375
 21
148.3189412582465
 31
0.0
  0
LINE
  5
4923
330
1A
100
AcDbEntity
  8
SEIHIN
  6
Continuous
 48
0.3
100
AcDbLine
 10
252.2526351934373
 20
148.3189412582465
 30
0.0
 11
249.3026351934375
 21
148.3189412582465
 31
0.0
  0
LINE
  5
4924
330
1A
100
AcDbEntity
  8
SEIHIN
  6
Continuous
 48
0.3
100
AcDbLine
 10
252.2526351934373
 20
148.3189412582465
 30
0.0
 11
252.0170097630868
 21
121.3189412582466
 31
0.0
  0
LINE
  5
4925
330
1A
100
AcDbEntity
  8
SEIHIN
  6
Continuous
 48
0.3
100
AcDbLine
 10
250.2526351934373
 20
146.3189412582466
 30
0.0
 11
245.6026351934373
 21
146.3189412582466
 31
0.0
  0
LINE
  5
4926
330
1A
100
AcDbEntity
  8
SEIHIN
  6
Continuous
 48
0.3
100
AcDbLine
 10
250.2526351934373
 20
146.3189412582463
 30
0.0
 11
250.4708068882063
 21
121.3189412582466
 31
0.0
  0
LINE
  5
4927
330
1A
100
AcDbEntity
  8
SEIHIN
  6
Continuous
 48
0.3
100
AcDbLine
 10
267.1811944177491
 20
146.3189412582465
 30
0.0
 11
252.2351814578558
 21
146.3189412582466
 31
0.0
  0
LINE
  5
4928
330
1A
100
AcDbEntity
  8
SEIHIN
  6
Continuous
 48
0.3
100
AcDbLine
 10
267.1811944177491
 20
146.3189412582465
 30
0.0
 11
267.0654254809926
 21
148.3189412582466
 31
0.0
  0
LINE
  5
4929
330
1A
100
AcDbEntity
  8
SEIHIN
  6
Continuous
 48
0.3
100
AcDbLine
 10
267.0654254809926
 20
148.3189412582466
 30
0.0
 11
280.2526351934374
 21
148.3189412582464
 31
0.0
  0
LINE
  5
492A
330
1A
100
AcDbEntity
  8
SEIHIN
  6
Continuous
 48
0.3
100
AcDbLine
 10
260.4363290953595
 20
121.3189412582466
 30
0.0
 11
260.592832498631
 21
146.3189412582466
 31
0.0
  0
LINE
  5
492B
330
1A
100
AcDbEntity
  8
SEIHIN
  6
Continuous
 48
0.3
100
AcDbLine
 10
280.2526351934373
 20
121.3189412582467
 30
0.0
 11
250.4708068882063
 21
121.3189412582466
 31
0.0
  0
LINE
  5
492C
330
1A
100
AcDbEntity
  8
CENTER L
 48
0.3
100
AcDbLine
 10
280.2526351934375
 20
185.3189412582466
 30
0.0
 11
280.2526351934373
 21
114.3189412582468
 31
0.0
  0
ARC
  5
492D
330
1A
100
AcDbEntity
  8
SEIHIN
  6
Continuous
 48
0.3
100
AcDbCircle
 10
247.1000285566162
 20
178.0189412582464
 30
0.0
 40
0.3000000000001089
100
AcDbArc
 50
90.00000000003257
 51
179.5000000000184
  0
ARC
  5
492E
330
1A
100
AcDbEntity
  8
SEIHIN
  6
Continuous
 48
0.3
100
AcDbCircle
 10
248.5075935296641
 20
178.0189412582464
 30
0.0
 40
0.3000000000000114
100
AcDbArc
 50
0.9548412538583354
 51
90.0
  0
LINE
  5
4930
330
1A
100
AcDbEntity
  8
SEIHIN
  6
Continuous
 48
0.3
100
AcDbLine
 10
246.5408291597148
 20
148.3189412582466
 30
0.0
 11
246.4310623181837
 21
148.3189412582465
 31
0.0
  0
LINE
  5
4931
330
1A
100
AcDbEntity
  8
SEIHIN
  6
Continuous
 48
0.3
100
AcDbLine
 10
310.0344634986684
 20
121.3189412582469
 30
0.0
 11
310.2526351934375
 21
146.3189412582469
 31
0.0
  0
LWPOLYLINE
  5
4932
330
1A
100
AcDbEntity
  8
SEIHIN
  6
Continuous
 48
0.3
100
AcDbPolyline
 90
        4
 70
     0
 43
0.0
 10
301.2368487227882
 20
121.3189412582469
 10
301.2506428581862
 20
123.3188266024092
 10
301.3059699193868
 20
131.3183671929487
 10
301.4103758952033
 20
146.3189412582469
  0
LINE
  5
4933
330
1A
100
AcDbEntity
  8
SEIHIN
  6
Continuous
 48
0.3
100
AcDbLine
 10
318.1517298435847
 20
149.5680359083941
 30
0.0
 11
318.4026351934376
 21
178.3189412582466
 31
0.0
  0
LWPOLYLINE
  5
4934
330
1A
100
AcDbEntity
  8
SEIHIN
  6
Continuous
 48
0.3
100
AcDbPolyline
 90
        4
 70
     0
 43
0.0
 10
309.221049550787
 20
149.5920213857673
 10
309.2366828304109
 20
151.5918966391894
 10
309.2994353863003
 20
159.5913963466063
 10
309.4477451597502
 20
178.3189412582466
  0
LINE
  5
4935
330
1A
100
AcDbEntity
  8
SEIHIN
  6
Continuous
 48
0.3
100
AcDbLine
 10
314.9026351934376
 20
146.3189412582469
 30
0.0
 11
318.1276163502112
 21
149.5439224150206
 31
0.0
  0
LINE
  5
4936
330
1A
100
AcDbEntity
  8
SEIHIN
  6
Continuous
 48
0.3
100
AcDbLine
 10
305.9251706479865
 20
146.3189412582466
 30
0.0
 11
309.1636578718876
 21
149.5574284821478
 31
0.0
  0
LINE
  5
4937
330
1A
100
AcDbEntity
  8
SEIHIN
  6
Continuous
 48
0.3
100
AcDbLine
 10
280.2526351934375
 20
178.3189412582467
 30
0.0
 11
242.1026351934374
 21
178.3189412582467
 31
0.0
  0
LINE
  5
4938
330
1A
100
AcDbEntity
  8
SEIHIN
  6
Continuous
 48
0.3
100
AcDbLine
 10
318.1276163502112
 20
149.5439224150206
 30
0.0
 11
280.2526351934374
 21
149.5439224150206
 31
0.0
  0
LINE
  5
4939
330
1A
100
AcDbEntity
  8
SEIHIN
  6
Continuous
 48
0.3
100
AcDbLine
 10
314.9026351934376
 20
146.3189412582469
 30
0.0
 11
280.2526351934374
 21
146.3189412582469
 31
0.0
  0
LINE
  5
493A
330
1A
100
AcDbEntity
  8
SEIHIN
  6
Continuous
 48
0.3
100
AcDbLine
 10
310.0344634986684
 20
121.3189412582469
 30
0.0
 11
280.2526351934373
 21
121.3189412582469
 31
0.0
  0
INSERT
  5
4958
330
1A
100
AcDbEntity
  8
ﾊｯﾁﾝｸﾞ
  6
Continuous
100
AcDbBlockReference
  2
*X2
 10
-388.3178299113351
 20
-11.9220649700801
 30
0.0
1001
ACAD
1000
HATCH
1002
{
1070
    19
1000
_USER
1040
1.5
1040
0.7853981633974483
1000
R14_HATCH_DATA
1000
4958
1011
-387.3178299113352
1021
-11.9220649700801
1031
0.0
1011
-388.3178299113351
1021
-10.9220649700801
1031
0.0
1011
-388.3178299113351
1021
-11.9220649700801
1031
1.0
1040
0.0
1010
0.0
1020
0.0
1030
1.0
1000
_USER
1070
     0
1070
     0
1071
        5
1071
        0
1071
        4
1070
     2
1040
638.9646877743368
1040
165.9342815332165
1040
0.5068099355693123
1040
0.0132690619820007
1040
1.589137259404242
1070
     1
1070
     1
1040
638.9553929285985
1040
166.4410062283266
1040
638.0204651047726
1040
166.4410062283266
1070
     2
1040
638.0204651047726
1040
165.9410062283266
1040
0.5
1040
4.712388980384689
1040
6.283185307179579
1070
     0
1070
     1
1040
638.5204651047727
1040
165.9410062283266
1040
639.471453094053
1040
165.9410062283266
1071
        0
1071
       16
1071
        6
1070
     1
1040
638.0204651047726
1040
166.4410062283266
1040
638.9553929285985
1040
166.4410062283266
1070
     2
1040
638.9646877743368
1040
165.9342815332165
1040
0.5068099355693123
1040
4.694048047775344
1040
6.269916245197585
1070
     0
1070
     1
1040
639.471453094053
1040
165.9410062283266
1040
639.471453094053
1040
165.4410062283266
1070
     1
1040
639.471453094053
1040
165.4410062283266
1040
638.5204651047727
1040
165.4410062283266
1070
     1
1040
638.5204651047727
1040
165.4410062283266
1040
638.5204651047727
1040
165.9410062283266
1070
     2
1040
638.0204651047726
1040
165.9410062283266
1040
0.5
1040
0.0000000000000071
1040
1.570796326794896
1070
     1
1071
        0
1071
        0
1071
        4
1070
     1
1040
639.471453094053
1040
165.9410062283266
1040
638.5204651047727
1040
165.9410062283266
1070
     1
1040
638.5204651047727
1040
165.9410062283266
1040
638.5204651047727
1040
165.4410062283266
1070
     1
1040
638.5204651047727
1040
165.4410062283266
1040
639.471453094053
1040
165.4410062283266
1070
     1
1040
639.471453094053
1040
165.4410062283266
1040
639.471453094053
1040
165.9410062283266
1071
        0
1071
        0
1071
        4
1070
     1
1040
639.471453094053
1040
165.9410062283266
1040
638.5204651047727
1040
165.9410062283266
1070
     1
1040
638.5204651047727
1040
165.9410062283266
1040
638.5204651047727
1040
165.4410062283266
1070
     1
1040
638.5204651047727
1040
165.4410062283266
1040
639.471453094053
1040
165.4410062283266
1070
     1
1040
639.471453094053
1040
165.4410062283266
1040
639.471453094053
1040
165.9410062283266
1071
        0
1071
       33
1071
       19
1070
     1
1040
632.4204651047725
1040
190.2410062283268
1040
630.4204651047726
1040
190.2410062283268
1070
     1
1040
636.8254234409992
1040
190.2410062283268
1040
635.4178584679512
1040
190.2410062283268
1070
     1
1040
640.3348396744219
1040
133.2410062283267
1040
638.7886367995414
1040
133.2410062283267
1070
     2
1040
636.8254234409992
1040
189.9410062283265
1040
0.3000000000000114
1040
0.016665123713699
1040
1.570796326794896
1070
     1
1070
     1
1040
637.5171317714394
1040
166.4410062283266
1040
638.0204651047726
1040
166.4410062283266
1070
     1
1040
640.5704651047724
1040
160.2410062283266
1040
637.6204651047726
1040
160.2410062283266
1070
     1
1040
637.5337984381059
1040
165.4410062283266
1040
638.5204651047727
1040
165.4410062283266
1070
     1
1040
637.5337984381059
1040
165.4410062283266
1040
637.6204651047726
1040
160.2410062283266
1070
     1
1040
637.1253817830109
1040
189.9460055340267
1040
637.5171317714394
1040
166.4410062283266
1070
     2
1040
635.4178584679512
1040
189.9410062283265
1040
0.3000000000001089
1040
1.570796326795464
1040
3.132866007330143
1070
     1
1070
     1
1040
634.7488922295188
1040
160.2410062283266
1040
632.6640772336584
1040
162.3258212241873
1070
     1
1040
634.8586590710499
1040
160.2410062283267
1040
634.7488922295188
1040
160.2410062283266
1070
     1
1040
633.9204651047725
1040
158.2410062283268
1040
630.6713704546255
1040
161.490100878474
1070
     1
1040
632.6640772336584
1040
162.3258212241873
1040
632.4204651047725
1040
190.2410062283268
1070
     1
1040
630.6713704546252
1040
161.4901008784738
1040
630.4204651047726
1040
190.2410062283268
1070
     1
1040
634.8586590710499
1040
160.2410062283267
1040
635.1178698910319
1040
189.943624188976
1070
     1
1040
638.5704651047724
1040
158.2410062283267
1040
633.9204651047724
1040
158.2410062283267
1070
     1
1040
638.5704651047724
1040
158.2410062283264
1040
638.7886367995414
1040
133.2410062283267
1070
     1
1040
640.5704651047724
1040
160.2410062283266
1040
640.3348396744219
1040
133.2410062283267
1071
        0
1070
     0
1070
     0
1040
0.7853981633974483
1040
1.5
1070
     0
1070
     1
1040
0.7853981633974483
1040
0.0
1040
87.89805652020481
1040
-1.060660171779821
1040
1.060660171779821
1070
     0
1071
        1
1040
0.0
1040
87.89805652020481
1040
0.0
1002
}
  0
DIMENSION
  5
50A7
330
1A
100
AcDbEntity
  8
SUNPOU
100
AcDbDimension
  2
*D3
 10
173.900035314465
 20
143.2255093474368
 30
0.0
 11
170.6500353144649
 21
159.2255093474367
 31
0.0
 70
    32
 71
     5
 42
31.99999999999972
  3
STANDARD
100
AcDbAlignedDimension
 13
160.1637290730509
 23
175.2255093474365
 33
0.0
 14
156.6637290730509
 24
143.2255093474368
 34
0.0
 50
90.0
100
AcDbRotatedDimension
  0
DIMENSION
  5
50B4
330
1A
100
AcDbEntity
  8
SUNPOU
100
AcDbDimension
  2
*D4
 10
186.4548664413578
 20
118.2255093474368
 30
0.0
 11
183.2048664413578
 21
146.7255093474367
 31
0.0
 70
    32
 71
     5
 42
56.99999999999963
  3
STANDARD
100
AcDbAlignedDimension
 13
160.163729073051
 23
175.2255093474365
 33
0.0
 14
151.7955573782817
 24
118.2255093474369
 34
0.0
 50
90.0
100
AcDbRotatedDimension
  0
DIMENSION
  5
50C1
330
1A
100
AcDbEntity
  8
SUNPOU
100
AcDbDimension
  2
*D5
 10
83.86372907305077
 20
186.008824701847
 30
0.0
 11
122.0137290730508
 21
189.2588247018471
 31
0.0
 70
    32
 71
     5
 42
-1.0
  3
STANDARD
100
AcDbAlignedDimension
 13
160.1637290730509
 23
175.2255093474365
 33
0.0
 14
83.86372907305077
 24
175.2255093474367
 34
0.0
100
AcDbRotatedDimension
  0
DIMENSION
  5
5196
330
1A
100
AcDbEntity
  8
SUNPOU
100
AcDbDimension
  2
*D6
 10
151.7955573782817
 20
109.7564488175112
 30
0.0
 11
122.0137290730507
 21
113.0064488175112
 31
0.0
 70
    32
 71
     5
 42
-1.0
  3
STANDARD
100
AcDbAlignedDimension
 13
92.23190076781964
 23
118.225509347437
 33
0.0
 14
151.7955573782817
 24
118.2255093474366
 34
0.0
100
AcDbRotatedDimension
  0
DIMENSION
  5
51AD
330
1A
100
AcDbEntity
  8
SUNPOU
100
AcDbDimension
  2
*D7
 10
173.900035314465
 20
199.7880360728799
 30
0.0
 11
170.650035314465
 21
237.9380360728937
 31
0.0
 70
    32
 71
     5
 42
76.30000000002749
  3
STANDARD
100
AcDbAlignedDimension
 13
150.2138891439284
 23
276.0880360729073
 33
0.0
 14
150.2138965150639
 24
199.7880360728799
 34
0.0
 50
90.0
100
AcDbRotatedDimension
  0
DIMENSION
  5
51C3
330
1A
100
AcDbEntity
  8
SUNPOU
100
AcDbDimension
  2
*D8
 10
173.9000353144649
 20
36.34222946142968
 30
0.0
 11
170.6500353144649
 21
66.34222946142987
 31
0.0
 70
    32
 71
     5
 42
60.00000000000031
  3
STANDARD
100
AcDbAlignedDimension
 13
142.2000023968664
 23
96.34222946143001
 33
0.0
 14
142.2000023968661
 24
36.34222946142969
 34
0.0
 50
90.0
100
AcDbRotatedDimension
  0
LINE
  5
57D5
330
1A
100
AcDbEntity
  8
SUNPOU
100
AcDbLine
 10
63.27291994995618
 20
237.938036072907
 30
0.0
 11
63.27291994995618
 21
249.196773675688
 31
0.0
  0
LINE
  5
57D6
330
1A
100
AcDbEntity
  8
SUNPOU
100
AcDbLine
 10
76.59107890199265
 20
237.938036072907
 30
0.0
 11
63.27291994995618
 21
237.938036072907
 31
0.0
  0
LINE
  5
57D7
330
1A
100
AcDbEntity
  8
SUNPOU
100
AcDbLine
 10
63.27291994995618
 20
249.196773675688
 30
0.0
 11
60.97982773305584
 21
242.3703541174558
 31
0.0
  0
TEXT
  5
57D8
330
1A
100
AcDbEntity
  8
SUNPOU
 48
5.0
100
AcDbText
 10
55.05515391102271
 20
242.8259897574378
 30
0.0
 40
4.199999999999999
  1
A
 41
0.9
100
AcDbText
  0
LINE
  5
57D9
330
1A
100
AcDbEntity
  8
SUNPOU
100
AcDbLine
 10
122.0137290730507
 20
237.938036072907
 30
0.0
 11
122.0137290730508
 21
249.196773675688
 31
0.0
  0
LINE
  5
57DA
330
1A
100
AcDbEntity
  8
SUNPOU
100
AcDbLine
 10
122.0137290730508
 20
249.196773675688
 30
0.0
 11
124.3068212899512
 21
242.3703541174558
 31
0.0
  0
TEXT
  5
57DB
330
1A
100
AcDbEntity
  8
SUNPOU
 48
5.0
100
AcDbText
 10
126.1038767764818
 20
243.3307019374239
 30
0.0
 40
4.199999999999999
  1
A
 41
0.9
100
AcDbText
  0
TEXT
  5
57DC
330
1A
100
AcDbEntity
  8
SUNPOU
 48
5.0
100
AcDbText
 10
263.5725287296531
 20
104.5974992860934
 30
0.0
 40
4.199999999999999
  1
A-Asection
 41
0.9
100
AcDbText
  0
LINE
  5
57DD
330
1A
100
AcDbEntity
  8
SUNPOU
100
AcDbLine
 10
262.6291996200728
 20
102.3791415748148
 30
0.0
 11
298.5442796088265
 21
102.3791415748148
 31
0.0
  0
TEXT
  5
5A3C
330
1A
100
AcDbEntity
  8
ZUWAKU
100
AcDbText
 10
361.2640418396092
 20
13.02872080923508
 30
0.0
 40
3.0
  1
積水化学工業株式会社
 41
0.9
  7
MSPｺ_ｼｯｸ
100
AcDbText
  0
TEXT
  5
5A3D
330
1A
100
AcDbEntity
  8
moji
100
AcDbText
 10
271.0204537296436
 20
8.40246086815339
 30
0.0
 40
2.799999999999999
  1
１/１
 41
0.9
  7
MSPｺﾞｼｯｸ
100
AcDbText
  0
VIEWPORT
  5
22
102
{ACAD_XDICTIONARY
360
5AB1
102
}
330
17
100
AcDbEntity
 67
     1
  8
0
100
AcDbViewport
 10
206.3044793797936
 20
143.9637241425963
 30
0.0
 40
712.5570160294894
 41
370.5605283793661
 68
     2
 69
     1
 12
206.3044793797936
 22
143.9637241425963
 13
0.0
 23
0.0
 14
1.0
 24
1.0
 15
10.0
 25
10.0
 16
0.0
 26
0.0
 36
1.0
 17
0.0
 27
0.0
 37
0.0
 42
50.0
 43
0.0
 44
0.0
 45
370.5605283793661
 50
0.0
 51
0.0
 72
   100
341
62
 90
    32768
  1

281
     0
 71
     1
 74
     0
110
0.0
120
0.0
130
0.0
111
1.0
121
0.0
131
0.0
112
0.0
122
1.0
132
0.0
 79
     0
146
0.0
  0
VIEWPORT
  5
64
102
{ACAD_XDICTIONARY
360
5AB3
102
}
330
17
100
AcDbEntity
 67
     1
  8
VIEWPORT
100
AcDbViewport
 10
214.8370837233667
 20
144.9125539709694
 30
0.0
 40
429.6741674467334
 41
304.1748920580612
 68
     1
 69
     2
 12
204.1392469564975
 22
143.9613040317459
 13
0.0
 23
0.0
 14
5.0
 24
5.0
 15
0.0
 25
0.0
 16
0.0
 26
0.0
 36
1.0
 17
0.0
 27
0.0
 37
0.0
 42
50.0
 43
0.0
 44
0.0
 45
291.8523122230969
 50
0.0
 51
0.0
 72
   100
 90
    32768
  1

281
     0
 71
     1
 74
     0
110
0.0
120
0.0
130
0.0
111
1.0
121
0.0
131
0.0
112
0.0
122
1.0
132
0.0
 79
     0
146
0.0
  0
ENDSEC
  0
SECTION
  2
OBJECTS
  0
DICTIONARY
  5
C
330
0
100
AcDbDictionary
281
     1
  3
ACAD_COLOR
350
5A41
  3
ACAD_GROUP
350
D
  3
ACAD_LAYOUT
350
415
  3
ACAD_MATERIAL
350
5A40
  3
ACAD_MLINESTYLE
350
E
  3
ACAD_PLOTSETTINGS
350
416
  3
ACAD_PLOTSTYLENAME
350
413
  3
ACDBHEADERROUNDTRIPXREC
350
5AAE
  3
AcDbVariableDictionary
350
2AB8
  0
DICTIONARY
  5
444
330
1A
100
AcDbDictionary
280
     1
281
     1
  3
ACAD_LAYOUTSELFREF
360
5931
  0
DICTIONARY
  5
442
330
17
100
AcDbDictionary
280
     1
281
     1
  3
ACAD_LAYOUTSELFREF
360
5930
  0
DICTIONARY
  5
5AB1
330
22
100
AcDbDictionary
280
     1
281
     1
  3
ACAD_XREC_ROUNDTRIP
360
5AB2
  0
DICTIONARY
  5
5AB3
330
64
100
AcDbDictionary
280
     1
281
     1
  3
ACAD_XREC_ROUNDTRIP
360
5AB4
  0
DICTIONARY
  5
5A41
102
{ACAD_REACTORS
330
C
102
}
330
C
100
AcDbDictionary
281
     1
  0
DICTIONARY
  5
D
102
{ACAD_REACTORS
330
C
102
}
330
C
100
AcDbDictionary
281
     1
  0
DICTIONARY
  5
415
102
{ACAD_REACTORS
330
C
102
}
330
C
100
AcDbDictionary
281
     1
  3
Model
350
417
  3
ﾚｲｱｳﾄ1
350
418
  0
DICTIONARY
  5
5A40
102
{ACAD_REACTORS
330
C
102
}
330
C
100
AcDbDictionary
281
     1
  0
DICTIONARY
  5
E
102
{ACAD_REACTORS
330
C
102
}
330
C
100
AcDbDictionary
281
     1
  3
STANDARD
350
13
  0
DICTIONARY
  5
416
102
{ACAD_REACTORS
330
C
102
}
330
C
100
AcDbDictionary
281
     1
  0
ACDBDICTIONARYWDFLT
  5
413
102
{ACAD_REACTORS
330
C
102
}
330
C
100
AcDbDictionary
281
     1
  3
Normal
350
414
100
AcDbDictionaryWithDefault
340
414
1001
ACAD
1000
TREAT_AS_HARD
1070
     0
1000
TREAT_AS_HARD
1070
     0
1000
TREAT_AS_HARD
1070
     0
1000
TREAT_AS_HARD
1070
     0
1000
TREAT_AS_HARD
1070
     0
1000
TREAT_AS_HARD
1070
     0
1000
TREAT_AS_HARD
1070
     0
1000
TREAT_AS_HARD
1070
     0
1000
TREAT_AS_HARD
1070
     0
1000
TREAT_AS_HARD
1070
     0
1000
TREAT_AS_HARD
1070
     0
1000
TREAT_AS_HARD
1070
     0
1000
TREAT_AS_HARD
1070
     0
1000
TREAT_AS_HARD
1070
     0
1000
TREAT_AS_HARD
1070
     0
1000
TREAT_AS_HARD
1070
     0
1000
TREAT_AS_HARD
1070
     0
1000
TREAT_AS_HARD
1070
     0
  0
DICTIONARY
  5
5AAE
102
{ACAD_REACTORS
330
C
102
}
330
C
100
AcDbDictionary
281
     1
  3
COLORDICT
350
5AB0
  3
MATERIALDICT
350
5AAF
  0
DICTIONARY
  5
2AB8
102
{ACAD_REACTORS
330
C
102
}
330
C
100
AcDbDictionary
281
     1
  3
DIMASSOC
350
5A80
  3
PROJECTNAME
350
5A81
  3
SORTENTS
350
2AB9
  0
XRECORD
  5
5931
102
{ACAD_REACTORS
330
444
102
}
330
444
100
AcDbXrecord
280
     1
340
1A
  0
XRECORD
  5
5930
102
{ACAD_REACTORS
330
442
102
}
330
442
100
AcDbXrecord
280
     1
340
17
  0
XRECORD
  5
5AB2
102
{ACAD_REACTORS
330
5AB1
102
}
330
5AB1
100
AcDbXrecord
280
     1
102
SHADEPLOT
 70
     0
  0
XRECORD
  5
5AB4
102
{ACAD_REACTORS
330
5AB3
102
}
330
5AB3
100
AcDbXrecord
280
     1
102
SHADEPLOT
 70
     0
  0
LAYOUT
  5
417
102
{ACAD_XDICTIONARY
360
5AB5
102
}
102
{ACAD_REACTORS
330
415
102
}
330
415
100
AcDbPlotSettings
  1

  2
Acrobat Distiller
  4
A3
  6

 40
3.174999952316284
 41
3.174999952316284
 42
3.17498779296875
 43
3.17498779296875
 44
297.0318298339844
 45
420.1583251953125
 46
0.0
 47
0.0
 48
0.0
 49
0.0
140
0.0
141
0.0
142
1.0
143
1.0
 70
 28336
 72
     1
 73
     1
 74
     2
  7
print.ctb
 75
    16
147
1.0
148
0.0
149
0.0
100
AcDbLayout
  1
Model
 70
     1
 71
     0
 10
0.0
 20
0.0
 11
12.0
 21
9.0
 12
0.0
 22
0.0
 32
0.0
 14
0.0
 24
0.0
 34
0.0
 15
0.0
 25
0.0
 35
0.0
146
0.0
 13
0.0
 23
0.0
 33
0.0
 16
1.0
 26
0.0
 36
0.0
 17
0.0
 27
1.0
 37
0.0
 76
     0
330
1A
  0
LAYOUT
  5
418
102
{ACAD_XDICTIONARY
360
5AB7
102
}
102
{ACAD_REACTORS
330
415
102
}
330
415
100
AcDbPlotSettings
  1

  2
CubePDF
  4
A4
  6

 40
3.174999999999999
 41
3.174999999999999
 42
3.175002999999999
 43
3.174987999999999
 44
209.888657
 45
297.053009
 46
0.0
 47
0.0
 48
0.0
 49
0.0
140
0.0
141
0.0
142
1.0
143
1.494561942553752
 70
   688
 72
     1
 73
     1
 74
     1
  7
monochrome.ctb
 75
     0
147
0.6690923751820575
148
0.0128164049386896
149
7.19206169479537
100
AcDbLayout
  1
ﾚｲｱｳﾄ1
 70
     1
 71
     1
 10
-4.758032637803543
 20
-11.93729586240353
 11
439.2060895346737
 21
301.7543030635148
 12
0.0
 22
0.0
 32
0.0
 14
0.0
 24
-7.174892058061232
 34
0.0
 15
429.6741674467334
 25
297.0
 35
0.0
146
0.0
 13
0.0
 23
0.0
 33
0.0
 16
1.0
 26
0.0
 36
0.0
 17
0.0
 27
1.0
 37
0.0
 76
     0
330
17
331
64
  0
MLINESTYLE
  5
13
102
{ACAD_REACTORS
330
E
102
}
330
E
100
AcDbMlineStyle
  2
STANDARD
 70
     0
  3

 62
     0
 51
90.0
 52
90.0
 71
     2
 49
0.5
 62
   256
  6
BYLAYER
 49
-0.5
 62
   256
  6
BYLAYER
  0
ACDBPLACEHOLDER
  5
414
102
{ACAD_REACTORS
330
413
102
}
330
413
  0
XRECORD
  5
5AB0
102
{ACAD_REACTORS
330
5AAE
102
}
330
5AAE
100
AcDbXrecord
280
     1
340
5A41
  0
XRECORD
  5
5AAF
102
{ACAD_REACTORS
330
5AAE
102
}
330
5AAE
100
AcDbXrecord
280
     1
340
5A40
  0
DICTIONARYVAR
  5
5A80
102
{ACAD_REACTORS
330
2AB8
102
}
330
2AB8
100
DictionaryVariables
280
     0
  1
1
  0
DICTIONARYVAR
  5
5A81
102
{ACAD_REACTORS
330
2AB8
102
}
330
2AB8
100
DictionaryVariables
280
     0
  1

  0
DICTIONARYVAR
  5
2AB9
102
{ACAD_REACTORS
330
2AB8
102
}
330
2AB8
100
DictionaryVariables
280
     0
  1
96
  0
DICTIONARY
  5
5AB5
330
417
100
AcDbDictionary
280
     1
281
     1
  3
ACAD_XREC_ROUNDTRIP
360
5AB6
  0
DICTIONARY
  5
5AB7
330
418
100
AcDbDictionary
280
     1
281
     1
  3
ACAD_XREC_ROUNDTRIP
360
5AB8
  0
XRECORD
  5
5AB6
102
{ACAD_REACTORS
330
5AB5
102
}
330
5AB5
100
AcDbXrecord
280
     1
102
SHADEPLOT
 70
     0
102
SHADEPLOTRESLEVEL
 70
     2
102
SHADEPLOTCUSTOMDPI
 70
   300
  0
XRECORD
  5
5AB8
102
{ACAD_REACTORS
330
5AB7
102
}
330
5AB7
100
AcDbXrecord
280
     1
102
SHADEPLOT
 70
     1
102
SHADEPLOTRESLEVEL
 70
     2
102
SHADEPLOTCUSTOMDPI
 70
   300
  0
ENDSEC
  0
EOF
