  0
SECTION
  2
HEADER
  9
$ACADVER
  1
AC1014
  9
$ACADMAINTVER
 70
     9
  9
$DWGCODEPAGE
  3
ANSI_932
  9
$INSBASE
 10
0.0
 20
0.0
 30
0.0
  9
$EXTMIN
 10
-0.03844315155402
 20
-0.0271848000274986
 30
-0.0000000000000053
  9
$EXTMAX
 10
797.6635408581289
 20
551.6445885803111
 30
0.0000000000000099
  9
$LIMMIN
 10
0.0
 20
0.0
  9
$LIMMAX
 10
840.0
 20
594.0
  9
$ORTHOMODE
 70
     0
  9
$REGENMODE
 70
     1
  9
$FILLMODE
 70
     1
  9
$QTEXTMODE
 70
     0
  9
$MIRRTEXT
 70
     1
  9
$DRAGMODE
 70
     2
  9
$LTSCALE
 40
2.0
  9
$OSMODE
 70
    35
  9
$ATTMODE
 70
     1
  9
$TEXTSIZE
 40
5.0
  9
$TRACEWID
 40
1.0
  9
$TEXTSTYLE
  7
STANDARD
  9
$CLAYER
  8
SUNPOU
  9
$CELTYPE
  6
BYLAYER
  9
$CECOLOR
 62
   256
  9
$CELTSCALE
 40
1.0
  9
$DELOBJ
 70
     1
  9
$DISPSILH
 70
     0
  9
$DIMSCALE
 40
1.0
  9
$DIMASZ
 40
7.0
  9
$DIMEXO
 40
6.0
  9
$DIMDLI
 40
14.0
  9
$DIMRND
 40
0.0
  9
$DIMDLE
 40
0.0
  9
$DIMEXE
 40
3.0
  9
$DIMTP
 40
0.0
  9
$DIMTM
 40
0.0
  9
$DIMTXT
 40
6.0
  9
$DIMCEN
 40
150.0
  9
$DIMTSZ
 40
0.0
  9
$DIMTOL
 70
     0
  9
$DIMLIM
 70
     0
  9
$DIMTIH
 70
     0
  9
$DIMTOH
 70
     0
  9
$DIMSE1
 70
     0
  9
$DIMSE2
 70
     0
  9
$DIMTAD
 70
     3
  9
$DIMZIN
 70
     0
  9
$DIMBLK
  1

  9
$DIMASO
 70
     1
  9
$DIMSHO
 70
     1
  9
$DIMPOST
  1

  9
$DIMAPOST
  1

  9
$DIMALT
 70
     0
  9
$DIMALTD
 70
     2
  9
$DIMALTF
 40
25.4
  9
$DIMLFAC
 40
1.0
  9
$DIMTOFL
 70
     1
  9
$DIMTVP
 40
0.0
  9
$DIMTIX
 70
     0
  9
$DIMSOXD
 70
     0
  9
$DIMSAH
 70
     1
  9
$DIMBLK1
  1
OPEN
  9
$DIMBLK2
  1
OPEN
  9
$DIMSTYLE
  2
STANDARD
  9
$DIMCLRD
 70
   256
  9
$DIMCLRE
 70
   256
  9
$DIMCLRT
 70
   256
  9
$DIMTFAC
 40
1.0
  9
$DIMGAP
 40
2.0
  9
$DIMJUST
 70
     0
  9
$DIMSD1
 70
     0
  9
$DIMSD2
 70
     0
  9
$DIMTOLJ
 70
     1
  9
$DIMTZIN
 70
     0
  9
$DIMALTZ
 70
     0
  9
$DIMALTTZ
 70
     0
  9
$DIMFIT
 70
     3
  9
$DIMUPT
 70
     0
  9
$DIMUNIT
 70
     2
  9
$DIMDEC
 70
     0
  9
$DIMTDEC
 70
     0
  9
$DIMALTU
 70
     2
  9
$DIMALTTD
 70
     2
  9
$DIMTXSTY
  7
STANDARD
  9
$DIMAUNIT
 70
     0
  9
$LUNITS
 70
     2
  9
$LUPREC
 70
     4
  9
$SKETCHINC
 40
1.0
  9
$FILLETRAD
 40
20.0
  9
$AUNITS
 70
     0
  9
$AUPREC
 70
     0
  9
$MENU
  1
.
  9
$ELEVATION
 40
0.0
  9
$PELEVATION
 40
0.0
  9
$THICKNESS
 40
0.0
  9
$LIMCHECK
 70
     0
  9
$BLIPMODE
 70
     0
  9
$CHAMFERA
 40
0.0
  9
$CHAMFERB
 40
0.0
  9
$CHAMFERC
 40
40.0
  9
$CHAMFERD
 40
0.0
  9
$SKPOLY
 70
     0
  9
$TDCREATE
 40
2451029.942521990
  9
$TDUPDATE
 40
2453481.436349456
  9
$TDINDWG
 40
0.1553767477
  9
$TDUSRTIMER
 40
0.1553762037
  9
$USRTIMER
 70
     1
  9
$ANGBASE
 50
0.0
  9
$ANGDIR
 70
     0
  9
$PDMODE
 70
     0
  9
$PDSIZE
 40
0.0
  9
$PLINEWID
 40
0.0
  9
$COORDS
 70
     1
  9
$SPLFRAME
 70
     0
  9
$SPLINETYPE
 70
     6
  9
$SPLINESEGS
 70
     8
  9
$ATTDIA
 70
     0
  9
$ATTREQ
 70
     1
  9
$HANDLING
 70
 10241
  9
$HANDSEED
  5
5D97
  9
$SURFTAB1
 70
     6
  9
$SURFTAB2
 70
     6
  9
$SURFTYPE
 70
     6
  9
$SURFU
 70
     6
  9
$SURFV
 70
     6
  9
$UCSNAME
  2

  9
$UCSORG
 10
0.0
 20
0.0
 30
0.0
  9
$UCSXDIR
 10
1.0
 20
0.0
 30
0.0
  9
$UCSYDIR
 10
0.0
 20
1.0
 30
0.0
  9
$PUCSNAME
  2

  9
$PUCSORG
 10
0.0
 20
0.0
 30
0.0
  9
$PUCSXDIR
 10
1.0
 20
0.0
 30
0.0
  9
$PUCSYDIR
 10
0.0
 20
1.0
 30
0.0
  9
$USERI1
 70
     0
  9
$USERI2
 70
     0
  9
$USERI3
 70
     0
  9
$USERI4
 70
     0
  9
$USERI5
 70
     0
  9
$USERR1
 40
0.0
  9
$USERR2
 40
0.0
  9
$USERR3
 40
0.0
  9
$USERR4
 40
0.0
  9
$USERR5
 40
0.0
  9
$WORLDVIEW
 70
     1
  9
$SHADEDGE
 70
     3
  9
$SHADEDIF
 70
    70
  9
$TILEMODE
 70
     1
  9
$MAXACTVP
 70
    16
  9
$PINSBASE
 10
0.0
 20
0.0
 30
0.0
  9
$PLIMCHECK
 70
     0
  9
$PEXTMIN
 10
0.0
 20
0.0
 30
0.0
  9
$PEXTMAX
 10
420.0
 20
297.0
 30
0.0
  9
$PLIMMIN
 10
0.0
 20
0.0
  9
$PLIMMAX
 10
420.0
 20
297.0
  9
$UNITMODE
 70
     0
  9
$VISRETAIN
 70
     0
  9
$PLINEGEN
 70
     0
  9
$PSLTSCALE
 70
     1
  9
$TREEDEPTH
 70
  3020
  9
$PICKSTYLE
 70
     1
  9
$CMLSTYLE
  2
STANDARD
  9
$CMLJUST
 70
     0
  9
$CMLSCALE
 40
1.0
  9
$PROXYGRAPHICS
 70
     1
  9
$MEASUREMENT
 70
     1
  0
ENDSEC
  0
SECTION
  2
CLASSES
  0
CLASS
  1
ACDBDICTIONARYWDFLT
  2
AcDbDictionaryWithDefault
  3
AutoCAD 2000
 90
        0
280
     0
281
     0
  0
CLASS
  1
ACDBPLACEHOLDER
  2
AcDbPlaceHolder
  3
AutoCAD 2000
 90
        0
280
     0
281
     0
  0
CLASS
  1
LAYOUT
  2
AcDbLayout
  3
AutoCAD 2000
 90
        0
280
     0
281
     0
  0
CLASS
  1
LONG_TRANSACTION
  2
AcDbLongTransaction
  3
AutoCAD 2000
 90
        0
280
     0
281
     0
  0
CLASS
  1
LWPOLYLINE
  2
AcDbPolyline
  3
AutoCAD 2000
 90
        0
280
     0
281
     1
  0
CLASS
  1
HATCH
  2
AcDbHatch
  3
AutoCAD 2000
 90
        0
280
     0
281
     1
  0
CLASS
  1
XRECORD
  2
AcDbXrecord
  3
AutoCAD 2000
 90
        0
280
     0
281
     0
  0
CLASS
  1
LONG_TRANSACTION
  2
AcDbLongTransaction
  3
AutoCAD 2000
 90
        0
280
     0
281
     0
  0
CLASS
  1
LWPOLYLINE
  2
AcDbPolyline
  3
AutoCAD 2000
 90
        0
280
     0
281
     1
  0
CLASS
  1
HATCH
  2
AcDbHatch
  3
AutoCAD 2000
 90
        0
280
     0
281
     1
  0
CLASS
  1
XRECORD
  2
AcDbXrecord
  3
AutoCAD 2000
 90
        0
280
     0
281
     0
  0
CLASS
  1
LONG_TRANSACTION
  2
AcDbLongTransaction
  3
AutoCAD 2000
 90
        0
280
     0
281
     0
  0
CLASS
  1
LWPOLYLINE
  2
AcDbPolyline
  3
AutoCAD 2000
 90
        0
280
     0
281
     1
  0
CLASS
  1
HATCH
  2
AcDbHatch
  3
AutoCAD 2000
 90
        0
280
     0
281
     1
  0
CLASS
  1
XRECORD
  2
AcDbXrecord
  3
AutoCAD 2000
 90
        0
280
     0
281
     0
  0
CLASS
  1
LONG_TRANSACTION
  2
AcDbLongTransaction
  3
AutoCAD 2000
 90
        0
280
     0
281
     0
  0
CLASS
  1
LWPOLYLINE
  2
AcDbPolyline
  3
AutoCAD 2000
 90
        0
280
     0
281
     1
  0
CLASS
  1
HATCH
  2
AcDbHatch
  3
AutoCAD 2000
 90
        0
280
     0
281
     1
  0
CLASS
  1
XRECORD
  2
AcDbXrecord
  3
AutoCAD 2000
 90
        0
280
     0
281
     0
  0
CLASS
  1
LONG_TRANSACTION
  2
AcDbLongTransaction
  3
AutoCAD 2000
 90
        0
280
     0
281
     0
  0
CLASS
  1
LWPOLYLINE
  2
AcDbPolyline
  3
AutoCAD 2000
 90
        0
280
     0
281
     1
  0
CLASS
  1
HATCH
  2
AcDbHatch
  3
AutoCAD 2000
 90
        0
280
     0
281
     1
  0
CLASS
  1
XRECORD
  2
AcDbXrecord
  3
AutoCAD 2000
 90
        0
280
     0
281
     0
  0
CLASS
  1
LONG_TRANSACTION
  2
AcDbLongTransaction
  3
AutoCAD 2000
 90
        0
280
     0
281
     0
  0
CLASS
  1
LWPOLYLINE
  2
AcDbPolyline
  3
AutoCAD 2000
 90
        0
280
     0
281
     1
  0
CLASS
  1
HATCH
  2
AcDbHatch
  3
AutoCAD 2000
 90
        0
280
     0
281
     1
  0
CLASS
  1
XRECORD
  2
AcDbXrecord
  3
AutoCAD 2000
 90
        0
280
     0
281
     0
  0
CLASS
  1
LONG_TRANSACTION
  2
AcDbLongTransaction
  3
AutoCAD 2000
 90
        0
280
     0
281
     0
  0
CLASS
  1
LWPOLYLINE
  2
AcDbPolyline
  3
AutoCAD 2000
 90
        0
280
     0
281
     1
  0
CLASS
  1
HATCH
  2
AcDbHatch
  3
AutoCAD 2000
 90
        0
280
     0
281
     1
  0
CLASS
  1
XRECORD
  2
AcDbXrecord
  3
AutoCAD 2000
 90
        0
280
     0
281
     0
  0
CLASS
  1
LONG_TRANSACTION
  2
AcDbLongTransaction
  3
AutoCAD 2000
 90
        0
280
     0
281
     0
  0
CLASS
  1
LWPOLYLINE
  2
AcDbPolyline
  3
AutoCAD 2000
 90
        0
280
     0
281
     1
  0
CLASS
  1
HATCH
  2
AcDbHatch
  3
AutoCAD 2000
 90
        0
280
     0
281
     1
  0
CLASS
  1
XRECORD
  2
AcDbXrecord
  3
AutoCAD 2000
 90
        0
280
     0
281
     0
  0
CLASS
  1
LONG_TRANSACTION
  2
AcDbLongTransaction
  3
AutoCAD 2000
 90
        0
280
     0
281
     0
  0
CLASS
  1
LWPOLYLINE
  2
AcDbPolyline
  3
AutoCAD 2000
 90
        0
280
     0
281
     1
  0
CLASS
  1
HATCH
  2
AcDbHatch
  3
AutoCAD 2000
 90
        0
280
     0
281
     1
  0
CLASS
  1
XRECORD
  2
AcDbXrecord
  3
AutoCAD 2000
 90
        0
280
     0
281
     0
  0
CLASS
  1
LONG_TRANSACTION
  2
AcDbLongTransaction
  3
AutoCAD 2000
 90
        0
280
     0
281
     0
  0
CLASS
  1
LWPOLYLINE
  2
AcDbPolyline
  3
AutoCAD 2000
 90
        0
280
     0
281
     1
  0
CLASS
  1
HATCH
  2
AcDbHatch
  3
AutoCAD 2000
 90
        0
280
     0
281
     1
  0
CLASS
  1
XRECORD
  2
AcDbXrecord
  3
AutoCAD 2000
 90
        0
280
     0
281
     0
  0
CLASS
  1
LONG_TRANSACTION
  2
AcDbLongTransaction
  3
AutoCAD 2000
 90
        0
280
     0
281
     0
  0
CLASS
  1
LWPOLYLINE
  2
AcDbPolyline
  3
AutoCAD 2000
 90
        0
280
     0
281
     1
  0
CLASS
  1
HATCH
  2
AcDbHatch
  3
AutoCAD 2000
 90
        0
280
     0
281
     1
  0
CLASS
  1
XRECORD
  2
AcDbXrecord
  3
AutoCAD 2000
 90
        0
280
     0
281
     0
  0
CLASS
  1
LONG_TRANSACTION
  2
AcDbLongTransaction
  3
AutoCAD 2000
 90
        0
280
     0
281
     0
  0
CLASS
  1
LWPOLYLINE
  2
AcDbPolyline
  3
AutoCAD 2000
 90
        0
280
     0
281
     1
  0
CLASS
  1
HATCH
  2
AcDbHatch
  3
AutoCAD 2000
 90
        0
280
     0
281
     1
  0
CLASS
  1
XRECORD
  2
AcDbXrecord
  3
AutoCAD 2000
 90
        0
280
     0
281
     0
  0
CLASS
  1
LONG_TRANSACTION
  2
AcDbLongTransaction
  3
AutoCAD 2000
 90
        0
280
     0
281
     0
  0
CLASS
  1
LWPOLYLINE
  2
AcDbPolyline
  3
AutoCAD 2000
 90
        0
280
     0
281
     1
  0
CLASS
  1
HATCH
  2
AcDbHatch
  3
AutoCAD 2000
 90
        0
280
     0
281
     1
  0
CLASS
  1
XRECORD
  2
AcDbXrecord
  3
AutoCAD 2000
 90
        0
280
     0
281
     0
  0
CLASS
  1
LONG_TRANSACTION
  2
AcDbLongTransaction
  3
AutoCAD 2000
 90
        0
280
     0
281
     0
  0
CLASS
  1
LWPOLYLINE
  2
AcDbPolyline
  3
AutoCAD 2000
 90
        0
280
     0
281
     1
  0
CLASS
  1
HATCH
  2
AcDbHatch
  3
AutoCAD 2000
 90
        0
280
     0
281
     1
  0
CLASS
  1
XRECORD
  2
AcDbXrecord
  3
AutoCAD 2000
 90
        0
280
     0
281
     0
  0
CLASS
  1
LONG_TRANSACTION
  2
AcDbLongTransaction
  3
AutoCAD 2000
 90
        0
280
     0
281
     0
  0
CLASS
  1
LWPOLYLINE
  2
AcDbPolyline
  3
AutoCAD 2000
 90
        0
280
     0
281
     1
  0
CLASS
  1
HATCH
  2
AcDbHatch
  3
AutoCAD 2000
 90
        0
280
     0
281
     1
  0
CLASS
  1
XRECORD
  2
AcDbXrecord
  3
AutoCAD 2000
 90
        0
280
     0
281
     0
  0
ENDSEC
  0
SECTION
  2
TABLES
  0
TABLE
  2
VPORT
  5
8
330
0
100
AcDbSymbolTable
 70
     2
  0
VPORT
  5
5D68
330
8
100
AcDbSymbolTableRecord
100
AcDbViewportTableRecord
  2
*ACTIVE
 70
     0
 10
0.0
 20
0.0
 11
1.0
 21
1.0
 12
403.3415209281044
 22
265.9115999608606
 13
0.0
 23
0.0
 14
5.0
 24
5.0
 15
0.0
 25
0.0
 16
0.0
 26
0.0
 36
1.0
 17
0.0
 27
0.0
 37
0.0
 40
600.5848048313098
 41
1.752310536044362
 42
50.0
 43
0.0
 44
0.0
 50
0.0
 51
0.0
 71
     0
 72
   100
 73
     1
 74
     0
 75
     0
 76
     0
 77
     0
 78
     0
  0
ENDTAB
  0
TABLE
  2
LTYPE
  5
5
330
0
100
AcDbSymbolTable
 70
     2
  0
LTYPE
  5
14
330
5
100
AcDbSymbolTableRecord
100
AcDbLinetypeTableRecord
  2
BYBLOCK
 70
     0
  3

 72
    65
 73
     0
 40
0.0
  0
LTYPE
  5
15
330
5
100
AcDbSymbolTableRecord
100
AcDbLinetypeTableRecord
  2
BYLAYER
 70
     0
  3

 72
    65
 73
     0
 40
0.0
  0
LTYPE
  5
16
330
5
100
AcDbSymbolTableRecord
100
AcDbLinetypeTableRecord
  2
CONTINUOUS
 70
     0
  3
Solid line
 72
    65
 73
     0
 40
0.0
  0
LTYPE
  5
135
330
5
100
AcDbSymbolTableRecord
100
AcDbLinetypeTableRecord
  2
CENTER
 70
     0
  3
____ _ ____ _ ____ _ ____ _ ____ _ ____ _ ____ 
 72
    65
 73
     4
 40
2.0
 49
1.25
 74
     0
 49
-0.25
 74
     0
 49
0.25
 74
     0
 49
-0.25
 74
     0
  0
ENDTAB
  0
TABLE
  2
LAYER
  5
2
330
0
100
AcDbSymbolTable
 70
     8
  0
LAYER
  5
F
330
2
100
AcDbSymbolTableRecord
100
AcDbLayerTableRecord
  2
0
 70
     0
 62
     7
  6
CONTINUOUS
  0
LAYER
  5
62
330
2
100
AcDbSymbolTableRecord
100
AcDbLayerTableRecord
  2
VIEWPORT
 70
     0
 62
     7
  6
CONTINUOUS
  0
LAYER
  5
65
330
2
100
AcDbSymbolTableRecord
100
AcDbLayerTableRecord
  2
ZUWAKU
 70
     0
 62
     7
  6
CONTINUOUS
  0
LAYER
  5
145
330
2
100
AcDbSymbolTableRecord
100
AcDbLayerTableRecord
  2
SEIHIN
 70
     0
 62
     3
  6
CONTINUOUS
  0
LAYER
  5
146
330
2
100
AcDbSymbolTableRecord
100
AcDbLayerTableRecord
  2
SUNPOU
 70
     0
 62
     4
  6
CONTINUOUS
  0
LAYER
  5
147
330
2
100
AcDbSymbolTableRecord
100
AcDbLayerTableRecord
  2
CENTER_L
 70
     0
 62
     1
  6
CENTER
  0
LAYER
  5
381
330
2
100
AcDbSymbolTableRecord
100
AcDbLayerTableRecord
  2
DEFPOINTS
 70
     0
 62
     7
  6
CONTINUOUS
  0
LAYER
  5
5B99
330
2
100
AcDbSymbolTableRecord
100
AcDbLayerTableRecord
  2
MOJI
 70
     0
 62
     2
  6
CONTINUOUS
  0
ENDTAB
  0
TABLE
  2
STYLE
  5
3
330
0
100
AcDbSymbolTable
 70
     2
  0
STYLE
  5
10
330
3
100
AcDbSymbolTableRecord
100
AcDbTextStyleTableRecord
  2
STANDARD
 70
     0
 40
0.0
 41
1.0
 50
0.0
 71
     0
 42
5.0
  3
TXT
  4
bigfont.shx
  0
STYLE
  5
5B9A
330
3
100
AcDbSymbolTableRecord
100
AcDbTextStyleTableRecord
  2
ｽﾀｲﾙ1
 70
     0
 40
0.0
 41
1.0
 50
0.0
 71
     0
 42
2.5
  3
MS PGothic.ttf
  4

1001
ACAD
1000
MS PGothic
1071
    32818
  0
ENDTAB
  0
TABLE
  2
VIEW
  5
6
330
0
100
AcDbSymbolTable
 70
     0
  0
ENDTAB
  0
TABLE
  2
UCS
  5
7
330
0
100
AcDbSymbolTable
 70
     0
  0
ENDTAB
  0
TABLE
  2
APPID
  5
9
330
0
100
AcDbSymbolTable
 70
     1
  0
APPID
  5
11
330
9
100
AcDbSymbolTableRecord
100
AcDbRegAppTableRecord
  2
ACAD
 70
     0
  0
ENDTAB
  0
TABLE
  2
DIMSTYLE
  5
A
330
0
100
AcDbSymbolTable
 70
     1
  0
DIMSTYLE
105
1D
102
{ACAD_REACTORS
330
2CDC
330
2CDD
330
2C9C
330
2CA3
330
2CA4
330
2CD9
330
5698
330
56BD
102
}
330
A
100
AcDbSymbolTableRecord
100
AcDbDimStyleTableRecord
  2
STANDARD
 70
     0
  3

  4

  5

  6

  7

 40
1.0
 41
0.18
 42
0.0625
 43
0.38
 44
0.18
 45
0.0
 46
0.0
 47
0.0
 48
0.0
140
0.18
141
0.09
142
0.0
143
25.4
144
1.0
145
0.0
146
1.0
147
0.09
 71
     0
 72
     0
 73
     1
 74
     1
 75
     0
 76
     0
 77
     0
 78
     0
170
     0
171
     2
172
     0
173
     0
174
     0
175
     0
176
     0
177
     0
178
     0
270
     2
271
     4
272
     4
273
     2
274
     2
340
10
275
     0
280
     0
281
     0
282
     0
283
     1
284
     0
285
     0
286
     0
287
     3
288
     0
  0
ENDTAB
  0
TABLE
  2
BLOCK_RECORD
  5
1
330
0
100
AcDbSymbolTable
 70
     9
  0
BLOCK_RECORD
  5
1A
102
{ACAD_XDICTIONARY
360
88E
102
}
330
1
100
AcDbSymbolTableRecord
100
AcDbBlockTableRecord
  2
*MODEL_SPACE
  0
BLOCK_RECORD
  5
17
102
{ACAD_XDICTIONARY
360
88C
102
}
330
1
100
AcDbSymbolTableRecord
100
AcDbBlockTableRecord
  2
*PAPER_SPACE
  0
BLOCK_RECORD
  5
6D
330
1
100
AcDbSymbolTableRecord
100
AcDbBlockTableRecord
  2
_OPEN
  0
BLOCK_RECORD
  5
2DB3
330
1
100
AcDbSymbolTableRecord
100
AcDbBlockTableRecord
  2
*D1
  0
BLOCK_RECORD
  5
2DBF
330
1
100
AcDbSymbolTableRecord
100
AcDbBlockTableRecord
  2
*D2
  0
BLOCK_RECORD
  5
2DD8
330
1
100
AcDbSymbolTableRecord
100
AcDbBlockTableRecord
  2
*D3
  0
BLOCK_RECORD
  5
2DF0
330
1
100
AcDbSymbolTableRecord
100
AcDbBlockTableRecord
  2
*D4
  0
BLOCK_RECORD
  5
2DFC
330
1
100
AcDbSymbolTableRecord
100
AcDbBlockTableRecord
  2
*D5
  0
BLOCK_RECORD
  5
2E08
330
1
100
AcDbSymbolTableRecord
100
AcDbBlockTableRecord
  2
*D6
  0
BLOCK_RECORD
  5
5699
330
1
100
AcDbSymbolTableRecord
100
AcDbBlockTableRecord
  2
*D7
  0
BLOCK_RECORD
  5
56BE
330
1
100
AcDbSymbolTableRecord
100
AcDbBlockTableRecord
  2
*D8
  0
ENDTAB
  0
ENDSEC
  0
SECTION
  2
BLOCKS
  0
BLOCK
  5
1B
330
1A
100
AcDbEntity
  8
0
100
AcDbBlockBegin
  2
*MODEL_SPACE
 70
     0
 10
0.0
 20
0.0
 30
0.0
  3
*MODEL_SPACE
  1

  0
ENDBLK
  5
1C
330
1A
100
AcDbEntity
  8
0
100
AcDbBlockEnd
  0
BLOCK
  5
18
330
17
100
AcDbEntity
 67
     1
  8
0
100
AcDbBlockBegin
  2
*PAPER_SPACE
 70
     0
 10
0.0
 20
0.0
 30
0.0
  3
*PAPER_SPACE
  1

  0
ENDBLK
  5
19
330
17
100
AcDbEntity
 67
     1
  8
0
100
AcDbBlockEnd
  0
BLOCK
  5
6E
330
6D
100
AcDbEntity
  8
0
100
AcDbBlockBegin
  2
_OPEN
 70
     0
 10
0.0
 20
0.0
 30
0.0
  3
_OPEN
  1

  0
LINE
  5
6F
330
6D
100
AcDbEntity
  8
0
  6
BYBLOCK
 62
     0
100
AcDbLine
 10
-1.0
 20
0.1666666666666666
 30
0.0
 11
0.0
 21
0.0
 31
0.0
  0
LINE
  5
70
330
6D
100
AcDbEntity
  8
0
  6
BYBLOCK
 62
     0
100
AcDbLine
 10
0.0
 20
0.0
 30
0.0
 11
-1.0
 21
-0.1666666666666666
 31
0.0
  0
LINE
  5
71
330
6D
100
AcDbEntity
  8
0
  6
BYBLOCK
 62
     0
100
AcDbLine
 10
0.0
 20
0.0
 30
0.0
 11
-1.0
 21
0.0
 31
0.0
  0
ENDBLK
  5
72
330
6D
100
AcDbEntity
  8
0
100
AcDbBlockEnd
  0
BLOCK
  5
2DBD
330
2DB3
100
AcDbEntity
  8
0
100
AcDbBlockBegin
  2
*D1
 70
     1
 10
0.0
 20
0.0
 30
0.0
  3
*D1
  1

  0
LINE
  5
5C67
330
2DB3
100
AcDbEntity
  8
SUNPOU
100
AcDbLine
 10
385.1996518641102
 20
179.710304930453
 30
0.0
 11
381.3866183716212
 21
132.0644926313239
 31
0.0
  0
LINE
  5
5C68
330
2DB3
100
AcDbEntity
  8
SUNPOU
100
AcDbLine
 10
445.7442703048246
 20
174.8649964602136
 30
0.0
 11
441.9312368123357
 21
127.2191841610845
 31
0.0
  0
LINE
  5
5C69
330
2DB3
100
AcDbEntity
  8
SUNPOU
100
AcDbLine
 10
388.6036304006588
 20
134.4965159397502
 30
0.0
 11
435.192866810346
 21
130.7680388659556
 31
0.0
  0
INSERT
  5
5C6A
330
2DB3
100
AcDbEntity
  8
SUNPOU
100
AcDbBlockReference
  2
_OPEN
 10
381.6259393851452
 20
135.0549316379726
 30
0.0
 41
7.0
 42
7.0
 43
7.0
 50
175.424443529118
  0
INSERT
  5
5C6B
330
2DB3
100
AcDbEntity
  8
SUNPOU
100
AcDbBlockReference
  2
_OPEN
 10
442.1705578258596
 20
130.2096231677332
 30
0.0
 41
7.0
 42
7.0
 43
7.0
 50
355.4244435291179
  0
MTEXT
  5
5C6C
330
2DB3
100
AcDbEntity
  8
SUNPOU
100
AcDbMText
 10
412.2971169613755
 20
137.616342413934
 30
0.0
 40
6.0
 41
0.0
 71
     5
 72
     1
  1
\A1;61
 11
0.996813002216224
 21
-0.0797736711746313
 31
0.0
1001
ACAD
1000
MTEXTBEGIN
1070
    73
1070
     1
1070
    44
1040
1.0
1070
    74
1070
     0
1000
MTEXTEND
  0
POINT
  5
5C6D
330
2DB3
100
AcDbEntity
  8
DEFPOINTS
 62
     0
100
AcDbPoint
 10
385.678293891158
 20
185.6911829437504
 30
0.0
  0
POINT
  5
5C6E
330
2DB3
100
AcDbEntity
  8
DEFPOINTS
 62
     0
100
AcDbPoint
 10
446.2229123318724
 20
180.845874473511
 30
0.0
  0
POINT
  5
5C6F
330
2DB3
100
AcDbEntity
  8
DEFPOINTS
 62
     0
100
AcDbPoint
 10
442.1705578258596
 20
130.2096231677332
 30
0.0
  0
ENDBLK
  5
2DBE
330
2DB3
100
AcDbEntity
  8
0
100
AcDbBlockEnd
  0
BLOCK
  5
2DC9
330
2DBF
100
AcDbEntity
  8
0
100
AcDbBlockBegin
  2
*D2
 70
     1
 10
0.0
 20
0.0
 30
0.0
  3
*D2
  1

  0
LINE
  5
5C70
330
2DBF
100
AcDbEntity
  8
SUNPOU
100
AcDbLine
 10
385.2214059573789
 20
179.7086037828895
 30
0.0
 11
382.6477967229024
 21
146.009265638799
 31
0.0
  0
LINE
  5
5C71
330
2DBF
100
AcDbEntity
  8
SUNPOU
100
AcDbLine
 10
425.8421304362585
 20
176.6064101676033
 30
0.0
 11
423.2685212017821
 21
142.9070720235128
 31
0.0
  0
LINE
  5
5C72
330
2DBF
100
AcDbEntity
  8
SUNPOU
100
AcDbLine
 10
389.855916377463
 20
148.4675192964871
 30
0.0
 11
416.5172894810005
 21
146.4313975266856
 31
0.0
  0
INSERT
  5
5C73
330
2DBF
100
AcDbEntity
  8
SUNPOU
100
AcDbBlockReference
  2
_OPEN
 10
382.876240689792
 20
149.0005552192295
 30
0.0
 41
7.0
 42
7.0
 43
7.0
 50
175.6328141262665
  0
INSERT
  5
5C74
330
2DBF
100
AcDbEntity
  8
SUNPOU
100
AcDbBlockReference
  2
_OPEN
 10
423.4969651686716
 20
145.8983616039433
 30
0.0
 41
7.0
 42
7.0
 43
7.0
 50
355.6328141262665
  0
MTEXT
  5
5C75
330
2DBF
100
AcDbEntity
  8
SUNPOU
100
AcDbMText
 10
403.5673428740478
 20
152.4349410456371
 30
0.0
 40
6.0
 41
0.0
 71
     5
 72
     1
  1
\A1;41
 11
0.9970965268101489
 21
-0.0761479889631895
 31
0.0
1001
ACAD
1000
MTEXTBEGIN
1070
    73
1070
     1
1070
    44
1040
1.0
1070
    74
1070
     0
1000
MTEXTEND
  0
POINT
  5
5C76
330
2DBF
100
AcDbEntity
  8
DEFPOINTS
 62
     0
100
AcDbPoint
 10
385.678293891158
 20
185.6911829437504
 30
0.0
  0
POINT
  5
5C77
330
2DBF
100
AcDbEntity
  8
DEFPOINTS
 62
     0
100
AcDbPoint
 10
426.2990183700376
 20
182.5889893284642
 30
0.0
  0
POINT
  5
5C78
330
2DBF
100
AcDbEntity
  8
DEFPOINTS
 62
     0
100
AcDbPoint
 10
423.4969651686716
 20
145.8983616039433
 30
0.0
  0
ENDBLK
  5
2DCA
330
2DBF
100
AcDbEntity
  8
0
100
AcDbBlockEnd
  0
BLOCK
  5
2DE2
330
2DD8
100
AcDbEntity
  8
0
100
AcDbBlockBegin
  2
*D3
 70
     1
 10
0.0
 20
0.0
 30
0.0
  3
*D3
  1

  0
LINE
  5
5C5E
330
2DD8
100
AcDbEntity
  8
SUNPOU
100
AcDbLine
 10
345.6716901577562
 20
288.8645339875722
 30
0.0
 11
345.6716901577562
 21
317.4935601251759
 31
0.0
  0
LINE
  5
5C5F
330
2DD8
100
AcDbEntity
  8
SUNPOU
100
AcDbLine
 10
421.9716901577561
 20
288.8645339875722
 30
0.0
 11
421.9716901577561
 21
317.4935601251759
 31
0.0
  0
LINE
  5
5C60
330
2DD8
100
AcDbEntity
  8
SUNPOU
100
AcDbLine
 10
352.6716901577562
 20
314.4935601251759
 30
0.0
 11
414.9716901577561
 21
314.4935601251759
 31
0.0
  0
INSERT
  5
5C61
330
2DD8
100
AcDbEntity
  8
SUNPOU
100
AcDbBlockReference
  2
_OPEN
 10
345.6716901577562
 20
314.4935601251759
 30
0.0
 41
7.0
 42
7.0
 43
7.0
 50
180.0
  0
INSERT
  5
5C62
330
2DD8
100
AcDbEntity
  8
SUNPOU
100
AcDbBlockReference
  2
_OPEN
 10
421.9716901577561
 20
314.4935601251759
 30
0.0
 41
7.0
 42
7.0
 43
7.0
  0
MTEXT
  5
5C63
330
2DD8
100
AcDbEntity
  8
SUNPOU
100
AcDbMText
 10
383.8216901577562
 20
319.4935601251759
 30
0.0
 40
6.0
 41
0.0
 71
     5
 72
     1
  1
\A1;76
1001
ACAD
1000
MTEXTBEGIN
1070
    73
1070
     1
1070
    44
1040
1.0
1070
    74
1070
     0
1000
MTEXTEND
  0
POINT
  5
5C64
330
2DD8
100
AcDbEntity
  8
DEFPOINTS
 62
     0
100
AcDbPoint
 10
345.6716901577562
 20
282.8645339875722
 30
0.0
  0
POINT
  5
5C65
330
2DD8
100
AcDbEntity
  8
DEFPOINTS
 62
     0
100
AcDbPoint
 10
421.9716901577561
 20
282.8645339875722
 30
0.0
  0
POINT
  5
5C66
330
2DD8
100
AcDbEntity
  8
DEFPOINTS
 62
     0
100
AcDbPoint
 10
421.9716901577561
 20
314.4935601251759
 30
0.0
  0
ENDBLK
  5
2DE3
330
2DD8
100
AcDbEntity
  8
0
100
AcDbBlockEnd
  0
BLOCK
  5
2DFA
330
2DF0
100
AcDbEntity
  8
0
100
AcDbBlockBegin
  2
*D4
 70
     1
 10
0.0
 20
0.0
 30
0.0
  3
*D4
  1

  0
LINE
  5
5C79
330
2DF0
100
AcDbEntity
  8
SUNPOU
100
AcDbLine
 10
382.5152081388789
 20
218.1172611736466
 30
0.0
 11
314.0685466536896
 21
218.1172611736466
 31
0.0
  0
LINE
  5
5C7A
330
2DF0
100
AcDbEntity
  8
SUNPOU
100
AcDbLine
 10
339.6716901577562
 20
282.8645339875722
 30
0.0
 11
314.0685466536896
 21
282.8645339875722
 31
0.0
  0
LINE
  5
5C7B
330
2DF0
100
AcDbEntity
  8
SUNPOU
100
AcDbLine
 10
317.0685466536896
 20
225.1172611736466
 30
0.0
 11
317.0685466536896
 21
275.8645339875722
 31
0.0
  0
INSERT
  5
5C7C
330
2DF0
100
AcDbEntity
  8
SUNPOU
100
AcDbBlockReference
  2
_OPEN
 10
317.0685466536896
 20
218.1172611736466
 30
0.0
 41
7.0
 42
7.0
 43
7.0
 50
270.0
  0
INSERT
  5
5C7D
330
2DF0
100
AcDbEntity
  8
SUNPOU
100
AcDbBlockReference
  2
_OPEN
 10
317.0685466536896
 20
282.8645339875722
 30
0.0
 41
7.0
 42
7.0
 43
7.0
 50
90.0
  0
MTEXT
  5
5C7E
330
2DF0
100
AcDbEntity
  8
SUNPOU
100
AcDbMText
 10
312.0685466536895
 20
250.4908975806094
 30
0.0
 40
6.0
 41
0.0
 71
     5
 72
     1
  1
\A1;65
 11
0.0000000000000001
 21
1.0
 31
0.0
1001
ACAD
1000
MTEXTBEGIN
1070
    73
1070
     1
1070
    44
1040
1.0
1070
    74
1070
     0
1000
MTEXTEND
  0
POINT
  5
5C7F
330
2DF0
100
AcDbEntity
  8
DEFPOINTS
 62
     0
100
AcDbPoint
 10
388.5152081388789
 20
218.1172611736466
 30
0.0
  0
POINT
  5
5C80
330
2DF0
100
AcDbEntity
  8
DEFPOINTS
 62
     0
100
AcDbPoint
 10
345.6716901577562
 20
282.8645339875722
 30
0.0
  0
POINT
  5
5C81
330
2DF0
100
AcDbEntity
  8
DEFPOINTS
 62
     0
100
AcDbPoint
 10
317.0685466536896
 20
282.8645339875722
 30
0.0
  0
ENDBLK
  5
2DFB
330
2DF0
100
AcDbEntity
  8
0
100
AcDbBlockEnd
  0
BLOCK
  5
2E06
330
2DFC
100
AcDbEntity
  8
0
100
AcDbBlockBegin
  2
*D5
 70
     1
 10
0.0
 20
0.0
 30
0.0
  3
*D5
  1

  0
LINE
  5
5C8B
330
2DFC
100
AcDbEntity
  8
SUNPOU
100
AcDbLine
 10
432.276186558588
 20
182.0660548719781
 30
0.0
 11
473.2414310891609
 21
178.4820603769857
 31
0.0
  0
LINE
  5
5C8C
330
2DFC
100
AcDbEntity
  8
SUNPOU
100
AcDbLine
 10
437.8715852429876
 20
246.0217544894681
 30
0.0
 11
478.8368297735606
 21
242.4377599944756
 31
0.0
  0
LINE
  5
5C8D
330
2DFC
100
AcDbEntity
  8
SUNPOU
100
AcDbLine
 10
470.8629371941192
 20
185.7168904918709
 30
0.0
 11
475.2381554800517
 21
235.7258643360764
 31
0.0
  0
INSERT
  5
5C8E
330
2DFC
100
AcDbEntity
  8
SUNPOU
100
AcDbBlockReference
  2
_OPEN
 10
470.2528469948857
 20
178.7435276052286
 30
0.0
 41
7.0
 42
7.0
 43
7.0
 50
265.0
  0
INSERT
  5
5C8F
330
2DFC
100
AcDbEntity
  8
SUNPOU
100
AcDbBlockReference
  2
_OPEN
 10
475.8482456792854
 20
242.6992272227186
 30
0.0
 41
7.0
 42
7.0
 43
7.0
 50
85.0
  0
MTEXT
  5
5C90
330
2DFC
100
AcDbEntity
  8
SUNPOU
100
AcDbMText
 10
468.0695728466268
 20
211.1571561277119
 30
0.0
 40
6.0
 41
0.0
 71
     5
 72
     1
  1
\A1;64
 11
0.0871557427476582
 21
0.9961946980917455
 31
0.0
1001
ACAD
1000
MTEXTBEGIN
1070
    73
1070
     1
1070
    44
1040
1.0
1070
    74
1070
     0
1000
MTEXTEND
  0
POINT
  5
5C91
330
2DFC
100
AcDbEntity
  8
DEFPOINTS
 62
     0
100
AcDbPoint
 10
426.2990183700375
 20
182.5889893284641
 30
0.0
  0
POINT
  5
5C92
330
2DFC
100
AcDbEntity
  8
DEFPOINTS
 62
     0
100
AcDbPoint
 10
431.8944170544371
 20
246.5446889459541
 30
0.0
  0
POINT
  5
5C93
330
2DFC
100
AcDbEntity
  8
DEFPOINTS
 62
     0
100
AcDbPoint
 10
475.8482456792854
 20
242.6992272227186
 30
0.0
  0
ENDBLK
  5
2E07
330
2DFC
100
AcDbEntity
  8
0
100
AcDbBlockEnd
  0
BLOCK
  5
2E12
330
2E08
100
AcDbEntity
  8
0
100
AcDbBlockBegin
  2
*D6
 70
     1
 10
0.0
 20
0.0
 30
0.0
  3
*D6
  1

  0
LINE
  5
5C82
330
2E08
100
AcDbEntity
  8
SUNPOU
100
AcDbLine
 10
537.9784211889183
 20
288.8645339875722
 30
0.0
 11
537.9784211889183
 21
317.4935601251759
 31
0.0
  0
LINE
  5
5C83
330
2E08
100
AcDbEntity
  8
SUNPOU
100
AcDbLine
 10
613.9784211889181
 20
288.8645339875722
 30
0.0
 11
613.9784211889181
 21
317.4935601251759
 31
0.0
  0
LINE
  5
5C84
330
2E08
100
AcDbEntity
  8
SUNPOU
100
AcDbLine
 10
544.9784211889183
 20
314.4935601251759
 30
0.0
 11
606.9784211889181
 21
314.4935601251759
 31
0.0
  0
INSERT
  5
5C85
330
2E08
100
AcDbEntity
  8
SUNPOU
100
AcDbBlockReference
  2
_OPEN
 10
537.9784211889183
 20
314.4935601251759
 30
0.0
 41
7.0
 42
7.0
 43
7.0
 50
180.0
  0
INSERT
  5
5C86
330
2E08
100
AcDbEntity
  8
SUNPOU
100
AcDbBlockReference
  2
_OPEN
 10
613.9784211889181
 20
314.4935601251759
 30
0.0
 41
7.0
 42
7.0
 43
7.0
  0
MTEXT
  5
5C87
330
2E08
100
AcDbEntity
  8
SUNPOU
100
AcDbMText
 10
575.9784211889182
 20
319.4935601251759
 30
0.0
 40
6.0
 41
0.0
 71
     5
 72
     1
  1
\A1;76
1001
ACAD
1000
MTEXTBEGIN
1070
    73
1070
     1
1070
    44
1040
1.0
1070
    74
1070
     0
1000
MTEXTEND
  0
POINT
  5
5C88
330
2E08
100
AcDbEntity
  8
DEFPOINTS
 62
     0
100
AcDbPoint
 10
537.9784211889183
 20
282.8645339875722
 30
0.0
  0
POINT
  5
5C89
330
2E08
100
AcDbEntity
  8
DEFPOINTS
 62
     0
100
AcDbPoint
 10
613.9784211889181
 20
282.8645339875722
 30
0.0
  0
POINT
  5
5C8A
330
2E08
100
AcDbEntity
  8
DEFPOINTS
 62
     0
100
AcDbPoint
 10
613.9784211889181
 20
314.4935601251759
 30
0.0
  0
ENDBLK
  5
2E13
330
2E08
100
AcDbEntity
  8
0
100
AcDbBlockEnd
  0
BLOCK
  5
56A5
330
5699
100
AcDbEntity
  8
0
100
AcDbBlockBegin
  2
*D7
 70
     1
 10
0.0
 20
0.0
 30
0.0
  3
*D7
  1

  0
LINE
  5
5D8C
330
5699
100
AcDbEntity
  8
SUNPOU
100
AcDbLine
 10
425.8203763429896
 20
176.6081113151668
 30
0.0
 11
424.2559949384366
 21
157.0603620199127
 31
0.0
  0
LINE
  5
5D8D
330
5699
100
AcDbEntity
  8
SUNPOU
100
AcDbLine
 10
415.8519728013877
 20
177.4058699163245
 30
0.0
 11
414.2875913968348
 21
157.8581206210704
 31
0.0
  0
LINE
  5
5D8E
330
5699
100
AcDbEntity
  8
SUNPOU
100
AcDbLine
 10
431.473006967474
 20
159.492385328339
 30
0.0
 11
438.4506979829875
 21
158.9339696301165
 31
0.0
  0
LINE
  5
5D8F
330
5699
100
AcDbEntity
  8
SUNPOU
100
AcDbLine
 10
407.5492213948451
 20
161.4069753259414
 30
0.0
 11
400.5715303793315
 21
161.9653910241639
 31
0.0
  0
MTEXT
  5
5D90
330
5699
100
AcDbEntity
  8
SUNPOU
100
AcDbMText
 10
402.8262748924282
 20
167.81085943677
 30
0.0
 40
6.0
 41
0.0
 71
     5
 72
     1
  1
\A1;\U+203B10
 11
0.996813002216224
 21
-0.0797736711746313
 31
0.0
  0
LINE
  5
5D91
330
5699
100
AcDbEntity
  8
SUNPOU
100
AcDbLine
 10
424.4953159519605
 20
160.0508010265614
 30
0.0
 11
414.5269124103586
 21
160.848559627719
 31
0.0
  0
INSERT
  5
5D92
330
5699
100
AcDbEntity
  8
SUNPOU
100
AcDbBlockReference
  2
_OPEN
 10
424.4953159519605
 20
160.0508010265614
 30
0.0
 41
7.0
 42
7.0
 43
7.0
 50
175.424443529118
  0
INSERT
  5
5D93
330
5699
100
AcDbEntity
  8
SUNPOU
100
AcDbBlockReference
  2
_OPEN
 10
414.5269124103586
 20
160.848559627719
 30
0.0
 41
7.0
 42
7.0
 43
7.0
 50
355.4244435291179
  0
POINT
  5
5D94
330
5699
100
AcDbEntity
  8
DEFPOINTS
 62
     0
100
AcDbPoint
 10
426.2990183700374
 20
182.5889893284641
 30
0.0
  0
POINT
  5
5D95
330
5699
100
AcDbEntity
  8
DEFPOINTS
 62
     0
100
AcDbPoint
 10
416.3306148284355
 20
183.3867479296218
 30
0.0
  0
POINT
  5
5D96
330
5699
100
AcDbEntity
  8
DEFPOINTS
 62
     0
100
AcDbPoint
 10
414.5269124103586
 20
160.848559627719
 30
0.0
  0
ENDBLK
  5
56A6
330
5699
100
AcDbEntity
  8
0
100
AcDbBlockEnd
  0
BLOCK
  5
56C8
330
56BE
100
AcDbEntity
  8
0
100
AcDbBlockBegin
  2
*D8
 70
     1
 10
0.0
 20
0.0
 30
0.0
  3
*D8
  1

  0
LINE
  5
5C55
330
56BE
100
AcDbEntity
  8
SUNPOU
100
AcDbLine
 10
339.6716901577562
 20
282.8645339875722
 30
0.0
 11
297.5942628515508
 21
282.8645339875722
 31
0.0
  0
LINE
  5
5C56
330
56BE
100
AcDbEntity
  8
SUNPOU
100
AcDbLine
 10
420.2990183700373
 20
182.5889893284641
 30
0.0
 11
297.5942628515508
 21
182.5889893284642
 31
0.0
  0
LINE
  5
5C57
330
56BE
100
AcDbEntity
  8
SUNPOU
100
AcDbLine
 10
300.5942628515508
 20
275.8645339875722
 30
0.0
 11
300.5942628515508
 21
189.5889893284642
 31
0.0
  0
INSERT
  5
5C58
330
56BE
100
AcDbEntity
  8
SUNPOU
100
AcDbBlockReference
  2
_OPEN
 10
300.5942628515508
 20
282.8645339875722
 30
0.0
 41
7.0
 42
7.0
 43
7.0
 50
90.0
  0
INSERT
  5
5C59
330
56BE
100
AcDbEntity
  8
SUNPOU
100
AcDbBlockReference
  2
_OPEN
 10
300.5942628515508
 20
182.5889893284642
 30
0.0
 41
7.0
 42
7.0
 43
7.0
 50
270.0
  0
MTEXT
  5
5C5A
330
56BE
100
AcDbEntity
  8
SUNPOU
100
AcDbMText
 10
295.5942628515508
 20
232.7267616580182
 30
0.0
 40
6.0
 41
0.0
 71
     5
 72
     1
  1
\A1;100
 11
0.0000000000000001
 21
1.0
 31
0.0
1001
ACAD
1000
MTEXTBEGIN
1070
    73
1070
     1
1070
    44
1040
1.0
1070
    74
1070
     0
1000
MTEXTEND
  0
POINT
  5
5C5B
330
56BE
100
AcDbEntity
  8
DEFPOINTS
 62
     0
100
AcDbPoint
 10
345.6716901577562
 20
282.8645339875722
 30
0.0
  0
POINT
  5
5C5C
330
56BE
100
AcDbEntity
  8
DEFPOINTS
 62
     0
100
AcDbPoint
 10
426.2990183700374
 20
182.5889893284641
 30
0.0
  0
POINT
  5
5C5D
330
56BE
100
AcDbEntity
  8
DEFPOINTS
 62
     0
100
AcDbPoint
 10
300.5942628515508
 20
182.5889893284642
 30
0.0
  0
ENDBLK
  5
56C9
330
56BE
100
AcDbEntity
  8
0
100
AcDbBlockEnd
  0
ENDSEC
  0
SECTION
  2
ENTITIES
  0
LWPOLYLINE
  5
2C91
330
1A
100
AcDbEntity
  8
SEIHIN
 62
     3
 48
10.0
100
AcDbPolyline
 90
        5
 70
   128
 43
0.0
 10
595.086056143899
 20
185.7644995945284
 10
594.9319292325566
 20
185.4698390196051
 10
594.6883923009472
 20
185.2427080706666
 10
594.3843740095744
 20
185.1095313078365
 10
594.141771717424
 20
185.0797019404009
  0
LWPOLYLINE
  5
2C92
330
1A
100
AcDbEntity
  8
SEIHIN
 62
     3
 48
10.0
100
AcDbPolyline
 90
        5
 70
   128
 43
0.0
 10
595.463475462403
 20
185.6413835058761
 10
595.3554521107293
 20
185.4013410550378
 10
595.1336927260294
 20
185.1504725106316
 10
594.8411274839218
 20
184.9872197864429
 10
594.5110542591287
 20
184.9302334653962
  0
LWPOLYLINE
  5
2C93
330
1A
100
AcDbEntity
  8
SEIHIN
 62
     3
 48
10.0
100
AcDbPolyline
 90
       10
 70
   128
 43
0.0
 10
607.222546622818
 20
191.0115731116363
 10
605.9739508250951
 20
190.7377338932254
 10
604.7769033992126
 20
190.2904093927942
 10
603.6555603685455
 20
189.6786264716472
 10
602.6325500666711
 20
188.9147307079332
 10
601.7285165050386
 20
188.0141372669377
 10
600.961702783607
 20
186.995019828117
 10
600.3475829510894
 20
185.8779438462244
 10
599.8985497437375
 20
184.6854515471959
 10
599.6236645039994
 20
183.4416070334449
  0
LWPOLYLINE
  5
2C94
330
1A
100
AcDbEntity
  8
SEIHIN
 62
     3
 48
10.0
100
AcDbPolyline
 90
        5
 70
   128
 43
0.0
 10
556.4933669154334
 20
185.6413835058761
 10
556.6013902671071
 20
185.4013410550378
 10
556.8231496518071
 20
185.1504725106316
 10
557.1157148939147
 20
184.9872197864429
 10
557.4457881187081
 20
184.9302334653962
  0
LWPOLYLINE
  5
2C95
330
1A
100
AcDbEntity
  8
SEIHIN
 62
     3
 48
10.0
100
AcDbPolyline
 90
        5
 70
   128
 43
0.0
 10
556.8707862339373
 20
185.7644995945284
 10
557.0249131452796
 20
185.4698390196051
 10
557.2684500768896
 20
185.2427080706666
 10
557.5724683682621
 20
185.1095313078365
 10
557.8150706604124
 20
185.0797019404009
  0
LWPOLYLINE
  5
2C96
330
1A
100
AcDbEntity
  8
SEIHIN
 62
     3
 48
10.0
100
AcDbPolyline
 90
       10
 70
   128
 43
0.0
 10
544.7342957550184
 20
191.0115731116363
 10
545.9828915527414
 20
190.7377338932254
 10
547.179938978624
 20
190.2904093927942
 10
548.3012820092907
 20
189.6786264716472
 10
549.3242923111655
 20
188.9147307079332
 10
550.2283258727985
 20
188.0141372669377
 10
550.9951395942298
 20
186.995019828117
 10
551.609259426747
 20
185.8779438462244
 10
552.0582926340994
 20
184.6854515471959
 10
552.3331778738373
 20
183.4416070334449
  0
LINE
  5
2C97
330
1A
100
AcDbEntity
  8
SEIHIN
 62
     3
 48
10.0
100
AcDbLine
 10
446.6532362700954
 20
185.7644995945284
 30
0.0
 11
446.5933242385504
 21
185.0797019404009
 31
0.0
  0
LWPOLYLINE
  5
2C98
330
1A
100
AcDbEntity
  8
SEIHIN
 62
     3
 48
10.0
100
AcDbPolyline
 90
        5
 70
   128
 43
0.0
 10
442.6273258583226
 20
185.6413835058761
 10
442.6178321955558
 20
185.4013410550378
 10
442.6023541233679
 20
185.1504725106316
 10
442.584275910807
 20
184.9872197864429
 10
442.5651266629007
 20
184.9302334653962
  0
LINE
  5
2C99
330
1A
100
AcDbEntity
  8
SEIHIN
 62
     3
 48
10.0
100
AcDbLine
 10
442.5649675748092
 20
184.9302275623456
 30
0.0
 11
426.5883083930806
 21
185.8955894225148
 31
0.0
  0
LINE
  5
2C9B
330
1A
100
AcDbEntity
  8
SEIHIN
 62
     3
 48
10.0
100
AcDbLine
 10
427.0358989686624
 20
191.0115731116363
 30
0.0
 11
426.3736127535447
 21
183.4416070334449
 31
0.0
  0
DIMENSION
  5
2C9C
330
1A
100
AcDbEntity
  8
SUNPOU
100
AcDbDimension
  2
*D5
 10
475.8482456792854
 20
242.6992272227186
 30
0.0
 11
468.0695728466268
 21
211.1571561277119
 31
0.0
 70
    33
  3
STANDARD
100
AcDbAlignedDimension
 13
426.2990183700376
 23
182.5889893284641
 33
0.0
 14
431.8944170544372
 24
246.5446889459541
 34
0.0
1001
ACAD
1000
DSTYLE
1002
{
1070
    41
1040
7.0
1070
    42
1040
6.0
1070
    43
1040
14.0
1070
    44
1040
3.0
1070
    73
1070
     0
1070
    74
1070
     0
1070
    77
1070
     3
1070
   140
1040
6.0
1070
   141
1040
150.0
1070
   147
1040
2.0
1070
   172
1070
     1
1070
   173
1070
     1
1070
   176
1070
   256
1070
   177
1070
   256
1070
   178
1070
   256
1070
   271
1070
     0
1070
   272
1070
     0
1070
   341
1005
6D
1070
     6
1000
OPEN
1070
     7
1000
OPEN
1070
   371
1070
    -1
1070
   372
1070
    -1
1002
}
  0
LINE
  5
2C9D
330
1A
100
AcDbEntity
  8
CENTER_L
  6
CENTER
 48
5.0
100
AcDbLine
 10
575.9784211889185
 20
175.2080698778836
 30
0.0
 11
575.9784211889185
 21
293.6951017036993
 31
0.0
  0
LWPOLYLINE
  5
2C9E
330
1A
100
AcDbEntity
  8
SEIHIN
 62
     3
 48
10.0
100
AcDbPolyline
 90
       10
 70
   128
 43
0.0
 10
248.647074525293
 20
191.0115731116363
 10
247.3984787275702
 20
190.7377338932254
 10
246.2014313016877
 20
190.2904093927942
 10
245.0800882710207
 20
189.6786264716472
 10
244.0570779691461
 20
188.9147307079332
 10
243.1530444075133
 20
188.0141372669377
 10
242.3862306860819
 20
186.995019828117
 10
241.7721108535644
 20
185.8779438462244
 10
241.3230776462122
 20
184.6854515471959
 10
241.0481924064741
 20
183.4416070334449
  0
LINE
  5
2C9F
330
1A
100
AcDbEntity
  8
SEIHIN
 62
     3
 48
10.0
100
AcDbLine
 10
240.0032018891288
 20
183.0142191542567
 30
0.0
 11
240.2194416843772
 21
185.8585272205082
 31
0.0
  0
LWPOLYLINE
  5
2CA0
330
1A
100
AcDbEntity
  8
SEIHIN
 62
     3
 48
10.0
100
AcDbPolyline
 90
       10
 70
   128
 43
0.0
 10
186.1588236574935
 20
191.0115731116363
 10
187.4074194552163
 20
190.7377338932254
 10
188.6044668810988
 20
190.2904093927942
 10
189.7258099117658
 20
189.6786264716472
 10
190.7488202136403
 20
188.9147307079332
 10
191.6528537752732
 20
188.0141372669377
 10
192.4196674967046
 20
186.995019828117
 10
193.033787329222
 20
185.8779438462244
 10
193.4828205365742
 20
184.6854515471959
 10
193.7577057763125
 20
183.4416070334449
  0
LINE
  5
2CA1
330
1A
100
AcDbEntity
  8
SEIHIN
 62
     3
 48
10.0
100
AcDbLine
 10
194.8026962936576
 20
183.0142191542567
 30
0.0
 11
194.5864564984092
 21
185.8585272205082
 31
0.0
  0
LINE
  5
2CA2
330
1A
100
AcDbEntity
  8
SEIHIN
 62
     3
 48
10.0
100
AcDbLine
 10
416.3203198124879
 20
183.0113082286753
 30
0.0
 11
383.7648582975622
 21
185.8585272205082
 31
0.0
  0
DIMENSION
  5
2CA3
330
1A
100
AcDbEntity
  8
SUNPOU
100
AcDbDimension
  2
*D2
 10
423.4969651686716
 20
145.8983616039433
 30
0.0
 11
403.5673428740478
 21
152.4349410456371
 31
0.0
 70
    33
  3
STANDARD
100
AcDbAlignedDimension
 13
385.678293891158
 23
185.6911829437503
 33
0.0
 14
426.2990183700376
 24
182.5889893284641
 34
0.0
1001
ACAD
1000
DSTYLE
1002
{
1070
    41
1040
7.0
1070
    42
1040
6.0
1070
    43
1040
14.0
1070
    44
1040
3.0
1070
    73
1070
     0
1070
    74
1070
     0
1070
    77
1070
     3
1070
   140
1040
6.0
1070
   141
1040
150.0
1070
   147
1040
2.0
1070
   172
1070
     1
1070
   173
1070
     1
1070
   176
1070
   256
1070
   177
1070
   256
1070
   178
1070
   256
1070
   271
1070
     0
1070
   272
1070
     0
1070
   341
1005
6D
1070
     6
1000
OPEN
1070
     7
1000
OPEN
1070
   371
1070
    -1
1070
   372
1070
    -1
1002
}
  0
DIMENSION
  5
2CA4
330
1A
100
AcDbEntity
  8
SUNPOU
100
AcDbDimension
  2
*D1
 10
442.1705578258596
 20
130.2096231677332
 30
0.0
 11
412.2971169613755
 21
137.616342413934
 31
0.0
 70
    33
  3
STANDARD
100
AcDbAlignedDimension
 13
385.678293891158
 23
185.6911829437503
 33
0.0
 14
446.2229123318724
 24
180.8458744735109
 34
0.0
1001
ACAD
1000
DSTYLE
1002
{
1070
    41
1040
7.0
1070
    42
1040
6.0
1070
    43
1040
14.0
1070
    44
1040
3.0
1070
    73
1070
     0
1070
    74
1070
     0
1070
    77
1070
     3
1070
   140
1040
6.0
1070
   141
1040
150.0
1070
   147
1040
2.0
1070
   172
1070
     1
1070
   173
1070
     1
1070
   176
1070
   256
1070
   177
1070
   256
1070
   178
1070
   256
1070
   271
1070
     0
1070
   272
1070
     0
1070
   341
1005
6D
1070
     6
1000
OPEN
1070
     7
1000
OPEN
1070
   371
1070
    -1
1070
   372
1070
    -1
1002
}
  0
LINE
  5
2CA5
330
1A
100
AcDbEntity
  8
SEIHIN
 62
     3
 48
10.0
100
AcDbLine
 10
240.05852455204
 20
182.5889893284641
 30
0.0
 11
194.7473736307464
 21
182.5889893284641
 31
0.0
  0
LWPOLYLINE
  5
2CA6
330
1A
100
AcDbEntity
  8
SEIHIN
 62
     3
 48
10.0
100
AcDbPolyline
 90
        6
 70
   128
 43
0.0
 10
193.7577057763125
 20
183.4416070334449
 10
193.8616796540901
 20
183.1229334624282
 10
194.065694058788
 20
182.8565138421489
 10
194.3466416298054
 20
182.6725474145984
 10
194.6725839935557
 20
182.591782017271
 10
194.7473736307464
 20
182.5889893284641
  0
LWPOLYLINE
  5
2CA7
330
1A
100
AcDbEntity
  8
SEIHIN
 62
     3
 48
10.0
100
AcDbPolyline
 90
        3
 70
   128
 43
0.0
 10
194.8027454266608
 20
183.0103183757852
 10
194.8027297343469
 20
183.010634765629
 10
194.8026962936576
 20
183.0113082286753
  0
LINE
  5
2CA8
330
1A
100
AcDbEntity
  8
SEIHIN
 62
     3
 48
10.0
100
AcDbLine
 10
194.7473736307464
 20
182.5889893284641
 30
0.0
 11
194.802717235412
 21
183.0103183777684
 31
0.0
  0
LINE
  5
2CA9
330
1A
100
AcDbEntity
  8
SEIHIN
 62
     3
 48
10.0
100
AcDbLine
 10
194.8026962936576
 20
183.0142191542567
 30
0.0
 11
194.8026962936576
 21
183.0113082286753
 31
0.0
  0
TEXT
  5
2CAA
330
1A
100
AcDbEntity
  8
SUNPOU
 62
     4
100
AcDbText
 10
683.8646928319503
 20
35.83524151585026
 30
0.0
 40
6.0
  1
※　たてといの差込み寸法を示す
100
AcDbText
  0
LWPOLYLINE
  5
2CAB
330
1A
100
AcDbEntity
  8
SEIHIN
 62
     3
 48
10.0
100
AcDbPolyline
 90
        3
 70
   128
 43
0.0
 10
240.0031527561258
 20
183.0103183757852
 10
240.0031684484395
 20
183.010634765629
 10
240.0032018891288
 20
183.0113082286753
  0
LINE
  5
2CAC
330
1A
100
AcDbEntity
  8
SEIHIN
 62
     3
 48
10.0
100
AcDbLine
 10
240.05852455204
 20
182.5889893284641
 30
0.0
 11
240.0031809473744
 21
183.0103183777684
 31
0.0
  0
LINE
  5
2CAD
330
1A
100
AcDbEntity
  8
SEIHIN
 62
     3
 48
10.0
100
AcDbLine
 10
240.0032018891288
 20
183.0142191542567
 30
0.0
 11
240.0032018891288
 21
183.0113082286753
 31
0.0
  0
LWPOLYLINE
  5
2CAE
330
1A
100
AcDbEntity
  8
SEIHIN
 62
     3
 48
10.0
100
AcDbPolyline
 90
        6
 70
   128
 43
0.0
 10
241.0481924064741
 20
183.4416070334449
 10
240.9442185286963
 20
183.1229334624282
 10
240.7402041239985
 20
182.8565138421489
 10
240.4592565529811
 20
182.6725474145984
 10
240.1333141892308
 20
182.591782017271
 10
240.05852455204
 20
182.5889893284641
  0
LINE
  5
2CAF
330
1A
100
AcDbEntity
  8
SEIHIN
 62
     3
 48
10.0
100
AcDbLine
 10
446.5933242385501
 20
185.0797019404009
 30
0.0
 11
442.5651266629007
 21
184.9302334653962
 31
0.0
  0
LINE
  5
2CB0
330
1A
100
AcDbEntity
  8
SEIHIN
 62
     3
 48
10.0
100
AcDbLine
 10
426.2990183700376
 20
182.5889893284641
 30
0.0
 11
416.3437083556297
 21
183.0103183777684
 31
0.0
  0
LINE
  5
2CB1
330
1A
100
AcDbEntity
  8
SEIHIN
 62
     3
 48
10.0
100
AcDbLine
 10
416.3437084024868
 20
183.0103183757852
 30
0.0
 11
416.3203198124879
 21
183.0113082286753
 31
0.0
  0
LINE
  5
2CB3
330
1A
100
AcDbEntity
  8
SEIHIN
 62
     3
 48
10.0
100
AcDbLine
 10
426.3736127535447
 20
183.4416070334449
 30
0.0
 11
426.2990183700376
 21
182.5889893284641
 31
0.0
  0
LINE
  5
2CB4
330
1A
100
AcDbEntity
  8
SEIHIN
 62
     3
 48
10.0
100
AcDbLine
 10
442.5651266629007
 20
184.9302334653962
 30
0.0
 11
442.5649675748094
 21
184.9302275623456
 31
0.0
  0
LINE
  5
2CB5
330
1A
100
AcDbEntity
  8
SEIHIN
 62
     3
 48
10.0
100
AcDbLine
 10
553.3228457282715
 20
182.5889893284641
 30
0.0
 11
598.6339966495652
 21
182.5889893284641
 31
0.0
  0
LINE
  5
2CB6
330
1A
100
AcDbEntity
  8
SEIHIN
 62
     3
 48
10.0
100
AcDbLine
 10
557.4513524430679
 20
184.9302275623456
 30
0.0
 11
594.5054899347685
 21
184.9302275623456
 31
0.0
  0
LINE
  5
2CB7
330
1A
100
AcDbEntity
  8
SEIHIN
 62
     3
 48
10.0
100
AcDbLine
 10
557.8150706604124
 20
185.0797019404009
 30
0.0
 11
594.141771717424
 21
185.0797019404009
 31
0.0
  0
LWPOLYLINE
  5
2CB8
330
1A
100
AcDbEntity
  8
SEIHIN
 62
     3
 48
10.0
100
AcDbPolyline
 90
        6
 70
   128
 43
0.0
 10
552.3331778738373
 20
183.4416070334449
 10
552.4371517516151
 20
183.1229334624282
 10
552.6411661563129
 20
182.8565138421489
 10
552.9221137273305
 20
182.6725474145984
 10
553.2480560910808
 20
182.591782017271
 10
553.3228457282715
 20
182.5889893284641
  0
LINE
  5
2CB9
330
1A
100
AcDbEntity
  8
SEIHIN
 62
     3
 48
10.0
100
AcDbLine
 10
557.4457881187081
 20
184.9302334653962
 30
0.0
 11
557.4513524430679
 21
184.9302275623456
 31
0.0
  0
LINE
  5
2CBA
330
1A
100
AcDbEntity
  8
SEIHIN
 62
     3
 48
10.0
100
AcDbLine
 10
594.5110542591287
 20
184.9302334653962
 30
0.0
 11
594.5054899347685
 21
184.9302275623456
 31
0.0
  0
LWPOLYLINE
  5
2CBB
330
1A
100
AcDbEntity
  8
SEIHIN
 62
     3
 48
10.0
100
AcDbPolyline
 90
        6
 70
   128
 43
0.0
 10
599.6236645039994
 20
183.4416070334449
 10
599.5196906262211
 20
183.1229334624282
 10
599.3156762215235
 20
182.8565138421489
 10
599.0347286505062
 20
182.6725474145984
 10
598.7087862867557
 20
182.591782017271
 10
598.6339966495652
 20
182.5889893284641
  0
LINE
  5
2CBC
330
1A
100
AcDbEntity
  8
SEIHIN
 62
     3
 48
10.0
100
AcDbLine
 10
255.4029490913935
 20
282.8645339875722
 30
0.0
 11
179.4029490913934
 21
282.8645339875722
 31
0.0
  0
LINE
  5
2CBE
330
1A
100
AcDbEntity
  8
SEIHIN
 62
     3
 48
10.0
100
AcDbLine
 10
179.4029490913934
 20
282.8645339875722
 30
0.0
 11
179.4029490913934
 21
263.6692001424326
 31
0.0
  0
LINE
  5
2CBF
330
1A
100
AcDbEntity
  8
SEIHIN
 62
     3
 48
10.0
100
AcDbLine
 10
188.721967340554
 20
263.664533987572
 30
0.0
 11
188.721967340554
 21
282.8645339875722
 31
0.0
  0
LINE
  5
2CC0
330
1A
100
AcDbEntity
  8
SEIHIN
 62
     3
 48
10.0
100
AcDbLine
 10
179.4029490913934
 20
263.664533987572
 30
0.0
 11
184.0418714330028
 21
202.646513600501
 31
0.0
  0
LINE
  5
2CC1
330
1A
100
AcDbEntity
  8
SEIHIN
 62
     3
 48
10.0
100
AcDbLine
 10
193.525614277008
 20
200.1863930232693
 30
0.0
 11
188.6997180873593
 21
263.66377212156
 31
0.0
  0
LWPOLYLINE
  5
2CC2
330
1A
100
AcDbEntity
  8
SEIHIN
 62
     3
 48
10.0
100
AcDbPolyline
 90
        8
 70
   128
 43
0.0
 10
194.5864126998834
 20
185.8591332529981
 10
194.5492127221072
 20
186.3681256982145
 10
194.4697920226957
 20
187.4534199991036
 10
194.3522595327151
 20
189.0556950012318
 10
194.1987304006992
 20
191.1421757268285
 10
194.0141743084311
 20
193.6425701486016
 10
193.8026204248562
 20
196.4913637978052
 10
193.5707412113137
 20
199.6020812948442
  0
LINE
  5
2CC3
330
1A
100
AcDbEntity
  8
SEIHIN
 62
     3
 48
10.0
100
AcDbLine
 10
184.0418714330028
 20
202.646513600501
 30
0.0
 11
184.5698686752866
 21
195.7015069542324
 31
0.0
  0
LWPOLYLINE
  5
2CC4
330
1A
100
AcDbEntity
  8
SEIHIN
 62
     3
 48
10.0
100
AcDbPolyline
 90
        6
 70
   128
 43
0.0
 10
184.7862177881161
 20
192.8557609802276
 10
184.8146594340878
 20
192.6837152717882
 10
184.8727781361896
 20
192.5192449256564
 10
184.9587934174232
 20
192.3673885207676
 10
185.0700701840201
 20
192.2327982056761
 10
185.0833899445282
 20
192.221472292258
  0
LWPOLYLINE
  5
2CC5
330
1A
100
AcDbEntity
  8
SEIHIN
 62
     3
 48
10.0
100
AcDbPolyline
 90
        5
 70
   128
 43
0.0
 10
185.4134540376835
 20
191.5705741656275
 10
185.5219701019667
 20
191.3755043974522
 10
185.772707130693
 20
191.1530176846058
 10
186.0835065785359
 20
191.0255247183416
 10
186.1588236574935
 20
191.0115731116363
  0
LWPOLYLINE
  5
2CC6
330
1A
100
AcDbEntity
  8
SEIHIN
 62
     3
 48
10.0
100
AcDbPolyline
 90
        3
 70
   128
 43
0.0
 10
185.4024297883653
 20
191.564447832439
 10
185.3567882854671
 20
191.6586251918684
 10
185.0501287605521
 20
192.2899473272281
  0
LINE
  5
2CC7
330
1A
100
AcDbEntity
  8
SEIHIN
 62
     3
 48
10.0
100
AcDbLine
 10
184.5698686752863
 20
195.7015069542324
 30
0.0
 11
184.7862177881161
 21
192.8557609802276
 31
0.0
  0
LINE
  5
2CC8
330
1A
100
AcDbEntity
  8
SEIHIN
 62
     3
 48
10.0
100
AcDbLine
 10
194.5864564984092
 20
185.8585272205082
 30
0.0
 11
194.5864126998832
 21
185.8591332529981
 31
0.0
  0
LINE
  5
2CC9
330
1A
100
AcDbEntity
  8
SEIHIN
 62
     3
 48
10.0
100
AcDbLine
 10
193.5707412113138
 20
199.6020812948442
 30
0.0
 11
193.525614277008
 21
200.1863930232693
 31
0.0
  0
LWPOLYLINE
  5
2CD4
330
1A
100
AcDbEntity
  8
SEIHIN
 62
     3
 48
10.0
100
AcDbPolyline
 90
        5
 70
   128
 43
0.0
 10
548.342305851896
 20
232.5832428397452
 10
548.102349407824
 20
232.4746314360569
 10
547.8510864910905
 20
232.2531541538374
 10
547.6868793727617
 20
231.9620317472832
 10
547.6284409349468
 20
231.6344442916316
  0
LWPOLYLINE
  5
2CD5
330
1A
100
AcDbEntity
  8
SEIHIN
 62
     3
 48
10.0
100
AcDbPolyline
 90
       10
 70
   128
 43
0.0
 10
552.3362155944701
 20
246.7876340649372
 10
552.2961451404567
 20
246.338023293423
 10
551.921080324836
 20
244.8968198547732
 10
551.2996066771036
 20
243.5190096338046
 10
550.4562565664481
 20
242.2636929780821
 10
549.4120111658708
 20
241.1684800410673
 10
548.1990976807128
 20
240.2620184385781
 10
546.8498112748106
 20
239.5728797361436
 10
545.4040812097319
 20
239.1174698563687
 10
544.3293683549382
 20
238.9438179838815
  0
LWPOLYLINE
  5
2CD6
330
1A
100
AcDbEntity
  8
SEIHIN
 62
     3
 48
10.0
100
AcDbPolyline
 90
       10
 70
   128
 43
0.0
 10
552.3331778738373
 20
245.6920712409734
 10
552.0582926340994
 20
244.4482267272224
 10
551.609259426747
 20
243.2557344281939
 10
550.9951395942298
 20
242.1386584463012
 10
550.2283258727985
 20
241.1195410074806
 10
549.3242923111655
 20
240.218947566485
 10
548.3012820092907
 20
239.4550518027712
 10
547.1799389786236
 20
238.8432688816242
 10
545.9828915527414
 20
238.3959443811928
 10
544.7342957550184
 20
238.1221051627821
  0
LWPOLYLINE
  5
2CD7
330
1A
100
AcDbEntity
  8
SEIHIN
 62
     3
 48
10.0
100
AcDbPolyline
 90
        8
 70
   128
 43
0.0
 10
556.2587254321726
 20
243.6331123330925
 10
555.737004990703
 20
242.0847170066596
 10
555.0092183019492
 20
240.6211587737984
 10
553.8451368555135
 20
238.9744996476397
 10
552.4217810363559
 20
237.5442108620751
 10
550.7761848737209
 20
236.3742271163864
 10
548.957823316157
 20
235.4939113451407
 10
547.6760061866919
 20
235.0830529255374
  0
LINE
  5
2CD8
330
1A
100
AcDbEntity
  8
SEIHIN
 62
     3
 48
10.0
100
AcDbLine
 10
538.9784211889183
 20
282.8645339875722
 30
0.0
 11
612.978421188918
 21
282.8645339875722
 31
0.0
  0
DIMENSION
  5
2CD9
330
1A
100
AcDbEntity
  8
SUNPOU
100
AcDbDimension
  2
*D6
 10
613.9784211889181
 20
314.4935601251759
 30
0.0
 11
575.9784211889182
 21
319.4935601251759
 31
0.0
 70
    32
  3
STANDARD
100
AcDbAlignedDimension
 13
537.9784211889183
 23
282.8645339875722
 33
0.0
 14
613.9784211889181
 24
282.8645339875722
 34
0.0
100
AcDbRotatedDimension
1001
ACAD
1000
DSTYLE
1002
{
1070
    41
1040
7.0
1070
    42
1040
6.0
1070
    43
1040
14.0
1070
    44
1040
3.0
1070
    73
1070
     0
1070
    74
1070
     0
1070
    77
1070
     3
1070
   140
1040
6.0
1070
   141
1040
150.0
1070
   147
1040
2.0
1070
   172
1070
     1
1070
   173
1070
     1
1070
   176
1070
   256
1070
   177
1070
   256
1070
   178
1070
   256
1070
   271
1070
     0
1070
   272
1070
     0
1070
   341
1005
6D
1070
     6
1000
OPEN
1070
     7
1000
OPEN
1070
   371
1070
    -1
1070
   372
1070
    -1
1002
}
  0
LWPOLYLINE
  5
2CDA
330
1A
100
AcDbEntity
  8
SEIHIN
 62
     3
 48
10.0
100
AcDbPolyline
 90
        5
 70
   128
 43
0.0
 10
547.6284409349468
 20
194.7102226791852
 10
547.664988205356
 20
194.4491144846035
 10
547.8073899649364
 20
194.1464578313091
 10
548.042004284307
 20
193.9082090188273
 10
548.342305851896
 20
193.7614273211943
  0
LINE
  5
2CDB
330
1A
100
AcDbEntity
  8
CENTER_L
  6
CENTER
 48
5.0
100
AcDbLine
 10
614.1765903154211
 20
212.8237242822559
 30
0.0
 11
537.4265678115553
 21
212.8237242822559
 31
0.0
  0
DIMENSION
  5
2CDC
330
1A
100
AcDbEntity
  8
SUNPOU
100
AcDbDimension
  2
*D3
 10
421.9716901577561
 20
314.4935601251759
 30
0.0
 11
383.8216901577562
 21
319.4935601251759
 31
0.0
 70
    32
  3
STANDARD
100
AcDbAlignedDimension
 13
345.6716901577562
 23
282.8645339875722
 33
0.0
 14
421.9716901577561
 24
282.8645339875722
 34
0.0
100
AcDbRotatedDimension
1001
ACAD
1000
DSTYLE
1002
{
1070
    41
1040
7.0
1070
    42
1040
6.0
1070
    43
1040
14.0
1070
    44
1040
3.0
1070
    73
1070
     0
1070
    74
1070
     0
1070
    77
1070
     3
1070
   140
1040
6.0
1070
   141
1040
150.0
1070
   147
1040
2.0
1070
   172
1070
     1
1070
   173
1070
     1
1070
   176
1070
   256
1070
   177
1070
   256
1070
   178
1070
   256
1070
   271
1070
     0
1070
   272
1070
     0
1070
   341
1005
6D
1070
     6
1000
OPEN
1070
     7
1000
OPEN
1070
   371
1070
    -1
1070
   372
1070
    -1
1002
}
  0
DIMENSION
  5
2CDD
330
1A
100
AcDbEntity
  8
SUNPOU
100
AcDbDimension
  2
*D4
 10
317.0685466536896
 20
282.8645339875722
 30
0.0
 11
312.0685466536895
 21
250.4908975806094
 31
0.0
 70
    32
  3
STANDARD
100
AcDbAlignedDimension
 13
388.5152081388789
 23
218.1172611736466
 33
0.0
 14
345.6716901577562
 24
282.8645339875722
 34
0.0
 50
90.0
100
AcDbRotatedDimension
1001
ACAD
1000
DSTYLE
1002
{
1070
    41
1040
7.0
1070
    42
1040
6.0
1070
    43
1040
14.0
1070
    44
1040
3.0
1070
    73
1070
     0
1070
    74
1070
     0
1070
    77
1070
     3
1070
   140
1040
6.0
1070
   141
1040
150.0
1070
   147
1040
2.0
1070
   172
1070
     1
1070
   173
1070
     1
1070
   176
1070
   256
1070
   177
1070
   256
1070
   178
1070
   256
1070
   271
1070
     0
1070
   272
1070
     0
1070
   341
1005
6D
1070
     6
1000
OPEN
1070
     7
1000
OPEN
1070
   371
1070
    -1
1070
   372
1070
    -1
1002
}
  0
LWPOLYLINE
  5
2CDE
330
1A
100
AcDbEntity
  8
SEIHIN
 62
     3
 48
10.0
100
AcDbPolyline
 90
        8
 70
   128
 43
0.0
 10
375.9141467851479
 20
202.646513600501
 10
376.5438870344428
 20
201.1328719908669
 10
377.4473463659313
 20
199.6965092163916
 10
378.5757931525667
 20
198.4285098994685
 10
379.8950936169822
 20
197.3740899534307
 10
381.3714524548911
 20
196.552307065957
 10
382.9659055940269
 20
195.9904938906175
 10
384.6320208018969
 20
195.7015069542324
  0
LWPOLYLINE
  5
2CDF
330
1A
100
AcDbEntity
  8
SEIHIN
 62
     3
 48
10.0
100
AcDbPolyline
 90
        8
 70
   128
 43
0.0
 10
383.7579451286214
 20
185.8591332529981
 10
380.7032743216891
 20
186.3681256982145
 10
377.5100796426559
 20
187.4534199991036
 10
374.5436386418336
 20
189.0556950012318
 10
371.8851368587081
 20
191.1421757268285
 10
369.6138227543796
 20
193.6425701486016
 10
367.7993436518139
 20
196.4913637978052
 10
366.4868428266125
 20
199.6020812948442
  0
LINE
  5
2CE0
330
1A
100
AcDbEntity
  8
SEIHIN
 62
     3
 48
10.0
100
AcDbLine
 10
420.9716901577563
 20
282.8645339875722
 30
0.0
 11
345.6716901577562
 21
282.8645339875722
 31
0.0
  0
LINE
  5
2CE2
330
1A
100
AcDbEntity
  8
SEIHIN
 62
     3
 48
10.0
100
AcDbLine
 10
345.6716901577562
 20
263.664533987572
 30
0.0
 11
345.6716901577562
 21
282.8645339875722
 31
0.0
  0
LINE
  5
2CE3
330
1A
100
AcDbEntity
  8
SEIHIN
 62
     3
 48
10.0
100
AcDbLine
 10
356.0587261200016
 20
282.8645339875722
 30
0.0
 11
356.0587261200016
 21
263.6692001424326
 31
0.0
  0
LINE
  5
2CE4
330
1A
100
AcDbEntity
  8
SEIHIN
 62
     3
 48
10.0
100
AcDbLine
 10
246.0839308422332
 20
263.664533987572
 30
0.0
 11
246.0839308422332
 21
282.8645339875722
 31
0.0
  0
LINE
  5
2CE5
330
1A
100
AcDbEntity
  8
SEIHIN
 62
     3
 48
10.0
100
AcDbLine
 10
255.4029490913935
 20
282.8645339875722
 30
0.0
 11
255.4029490913935
 21
263.6692001424326
 31
0.0
  0
LINE
  5
2CE6
330
1A
100
AcDbEntity
  8
SEIHIN
 62
     3
 48
10.0
100
AcDbLine
 10
255.4029490913935
 20
263.664533987572
 30
0.0
 11
250.764026749784
 21
202.646513600501
 31
0.0
  0
LINE
  5
2CE7
330
1A
100
AcDbEntity
  8
SEIHIN
 62
     3
 48
10.0
100
AcDbLine
 10
241.2802839057791
 20
200.1863930232693
 30
0.0
 11
246.1061800954277
 21
263.66377212156
 31
0.0
  0
LWPOLYLINE
  5
2CE8
330
1A
100
AcDbEntity
  8
SEIHIN
 62
     3
 48
10.0
100
AcDbPolyline
 90
        8
 70
   128
 43
0.0
 10
240.2194854829033
 20
185.8591332529981
 10
240.2566854606797
 20
186.3681256982145
 10
240.3361061600912
 20
187.4534199991036
 10
240.4536386500719
 20
189.0556950012318
 10
240.6071677820877
 20
191.1421757268285
 10
240.7917238743557
 20
193.6425701486016
 10
241.0032777579307
 20
196.4913637978052
 10
241.2351569714732
 20
199.6020812948442
  0
LINE
  5
2CE9
330
1A
100
AcDbEntity
  8
SEIHIN
 62
     3
 48
10.0
100
AcDbLine
 10
240.2194416843772
 20
185.8585272205082
 30
0.0
 11
240.2194854829033
 21
185.8591332529981
 31
0.0
  0
LINE
  5
2CEA
330
1A
100
AcDbEntity
  8
SEIHIN
 62
     3
 48
10.0
100
AcDbLine
 10
241.2351569714732
 20
199.6020812948442
 30
0.0
 11
241.2802839057791
 21
200.1863930232693
 31
0.0
  0
LINE
  5
2CEB
330
1A
100
AcDbEntity
  8
SEIHIN
 62
     3
 48
10.0
100
AcDbLine
 10
250.764026749784
 20
202.646513600501
 30
0.0
 11
250.2360295075001
 21
195.7015069542324
 31
0.0
  0
LWPOLYLINE
  5
2CEC
330
1A
100
AcDbEntity
  8
SEIHIN
 62
     3
 48
10.0
100
AcDbPolyline
 90
        6
 70
   128
 43
0.0
 10
250.0196803946705
 20
192.8557609802276
 10
249.9912387486986
 20
192.6837152717882
 10
249.9331200465968
 20
192.5192449256564
 10
249.8471047653633
 20
192.3673885207676
 10
249.7358279987663
 20
192.2327982056761
 10
249.7225082382582
 20
192.221472292258
  0
LWPOLYLINE
  5
2CED
330
1A
100
AcDbEntity
  8
SEIHIN
 62
     3
 48
10.0
100
AcDbPolyline
 90
        5
 70
   128
 43
0.0
 10
249.3924441451031
 20
191.5705741656275
 10
249.2839280808197
 20
191.3755043974522
 10
249.0331910520934
 20
191.1530176846058
 10
248.7223916042506
 20
191.0255247183416
 10
248.647074525293
 20
191.0115731116363
  0
LWPOLYLINE
  5
2CEE
330
1A
100
AcDbEntity
  8
SEIHIN
 62
     3
 48
10.0
100
AcDbPolyline
 90
        3
 70
   128
 43
0.0
 10
249.4034683944211
 20
191.564447832439
 10
249.4491098973193
 20
191.6586251918684
 10
249.7557694222346
 20
192.2899473272281
  0
LINE
  5
2CEF
330
1A
100
AcDbEntity
  8
SEIHIN
 62
     3
 48
10.0
100
AcDbLine
 10
250.2360295075001
 20
195.7015069542324
 30
0.0
 11
250.0196803946705
 21
192.8557609802276
 31
0.0
  0
LINE
  5
2CF7
330
1A
100
AcDbEntity
  8
SEIHIN
 62
     3
 48
10.0
100
AcDbLine
 10
366.2969884373074
 20
200.1863930232693
 30
0.0
 11
345.6719377030294
 21
263.66377212156
 31
0.0
  0
LINE
  5
2CF8
330
1A
100
AcDbEntity
  8
SEIHIN
 62
     3
 48
10.0
100
AcDbLine
 10
356.0881901362474
 20
263.664533987572
 30
0.0
 11
375.9141467851479
 21
202.646513600501
 31
0.0
  0
LINE
  5
2CF9
330
1A
100
AcDbEntity
  8
SEIHIN
 62
     3
 48
10.0
100
AcDbLine
 10
366.4868428266125
 20
199.6020812948442
 30
0.0
 11
366.2969884373074
 21
200.1863930232693
 31
0.0
  0
LINE
  5
2CFB
330
1A
100
AcDbEntity
  8
SEIHIN
 62
     3
 48
10.0
100
AcDbLine
 10
345.6719377030294
 20
263.66377212156
 30
0.0
 11
345.6716901577562
 21
263.664533987572
 31
0.0
  0
LWPOLYLINE
  5
2CFF
330
1A
100
AcDbEntity
  8
SEIHIN
 62
     3
 48
10.0
100
AcDbPolyline
 90
        3
 70
   128
 43
0.0
 10
356.0587261200016
 20
263.6692001424326
 10
356.0738337284175
 20
263.6657005778713
 10
356.0881901362474
 20
263.6645339875723
  0
LINE
  5
2D07
330
1A
100
AcDbEntity
  8
SEIHIN
 62
     3
 48
10.0
100
AcDbLine
 10
537.9784211889183
 20
263.6645339875721
 30
0.0
 11
537.9784211889183
 21
282.8645339875722
 31
0.0
  0
LINE
  5
2D08
330
1A
100
AcDbEntity
  8
SEIHIN
 62
     3
 48
10.0
100
AcDbLine
 10
421.9716901577561
 20
282.8645339875722
 30
0.0
 11
421.9716901577561
 21
263.7024919426437
 31
0.0
  0
LINE
  5
2D09
330
1A
100
AcDbEntity
  8
CENTER_L
  6
CENTER
 48
5.0
100
AcDbLine
 10
388.5152081388789
 20
293.6951017036993
 30
0.0
 11
388.5152081388789
 21
213.7503582655941
 31
0.0
  0
LINE
  5
2D0B
330
1A
100
AcDbEntity
  8
SEIHIN
 62
     3
 48
10.0
100
AcDbLine
 10
446.6505733191867
 20
231.628914909044
 30
0.0
 11
430.7235375040574
 21
233.1614744448796
 31
0.0
  0
LINE
  5
2D0C
330
1A
100
AcDbEntity
  8
SEIHIN
 62
     3
 48
10.0
100
AcDbLine
 10
431.6051270313941
 20
243.2380888519035
 30
0.0
 11
447.5066981886016
 21
241.4144669441475
 31
0.0
  0
LWPOLYLINE
  5
2D0E
330
1A
100
AcDbEntity
  8
SEIHIN
 62
     3
 48
10.0
100
AcDbPolyline
 90
        3
 70
   128
 43
0.0
 10
443.4207648485128
 20
194.7102226791852
 10
445.3568054859641
 20
194.7208498043817
 10
447.4375713679741
 20
194.7294907861765
  0
LINE
  5
2D0F
330
1A
100
AcDbEntity
  8
SEIHIN
 62
     3
 48
10.0
100
AcDbLine
 10
446.6505733191867
 20
231.628914909044
 30
0.0
 11
443.4210924442238
 21
194.7157795974492
 31
0.0
  0
LINE
  5
2D10
330
1A
100
AcDbEntity
  8
CENTER_L
  6
CENTER
 48
5.0
100
AcDbLine
 10
383.3760244444828
 20
218.5668814866835
 30
0.0
 11
454.3827397034204
 21
212.3545988673135
 31
0.0
  0
LINE
  5
2D11
330
1A
100
AcDbEntity
  8
SEIHIN
 62
     3
 48
10.0
100
AcDbLine
 10
421.967884855848
 20
247.8210391877329
 30
0.0
 11
417.1590461251428
 21
192.8557609802276
 31
0.0
  0
LINE
  5
2D12
330
1A
100
AcDbEntity
  8
SEIHIN
 62
     3
 48
10.0
100
AcDbLine
 10
431.0712812188858
 20
237.1362032933229
 30
0.0
 11
427.122154205589
 21
191.9974749810954
 31
0.0
  0
LINE
  5
2D13
330
1A
100
AcDbEntity
  8
SEIHIN
 62
     3
 48
10.0
100
AcDbLine
 10
384.6320208018969
 20
195.7015069542324
 30
0.0
 11
417.1590461251428
 21
192.8557609802276
 31
0.0
  0
LINE
  5
2D14
330
1A
100
AcDbEntity
  8
SEIHIN
 62
     3
 48
10.0
100
AcDbLine
 10
383.7648582975622
 20
185.8585272205082
 30
0.0
 11
383.7579451286214
 21
185.8591332529981
 31
0.0
  0
LINE
  5
2D15
330
1A
100
AcDbEntity
  8
SEIHIN
 62
     3
 48
10.0
100
AcDbLine
 10
427.4698979204173
 20
195.9722038295385
 30
0.0
 11
443.4210924442238
 21
194.7157795974492
 31
0.0
  0
LINE
  5
2D16
330
1A
100
AcDbEntity
  8
SEIHIN
 62
     3
 48
10.0
100
AcDbLine
 10
417.1650524320936
 20
192.9244133828225
 30
0.0
 11
427.122154205589
 21
191.9974749810954
 31
0.0
  0
LINE
  5
2D19
330
1A
100
AcDbEntity
  8
SEIHIN
 62
     3
 48
10.0
100
AcDbLine
 10
427.122154205589
 20
191.9974749810954
 30
0.0
 11
427.0358989686624
 21
191.0115731116363
 31
0.0
  0
LINE
  5
2D1A
330
1A
100
AcDbEntity
  8
SEIHIN
 62
     3
 48
10.0
100
AcDbLine
 10
443.3377376394966
 20
193.7614273211943
 30
0.0
 11
443.3374672622043
 21
193.759939393138
 31
0.0
  0
LWPOLYLINE
  5
2D1B
330
1A
100
AcDbEntity
  8
SEIHIN
 62
     3
 48
10.0
100
AcDbPolyline
 90
        5
 70
   128
 43
0.0
 10
443.4207648485124
 20
194.7102226791852
 10
443.4099013401773
 20
194.4491144846035
 10
443.3894694883441
 20
194.1464578313091
 10
443.3643105689766
 20
193.9082090188273
 10
443.3377376394966
 20
193.7614273211943
  0
LINE
  5
2D1C
330
1A
100
AcDbEntity
  8
SEIHIN
 62
     3
 48
10.0
100
AcDbLine
 10
443.4210924442238
 20
194.7157795974492
 30
0.0
 11
443.4207648485128
 21
194.7102226791852
 31
0.0
  0
LINE
  5
2D1D
330
1A
100
AcDbEntity
  8
SEIHIN
 62
     3
 48
10.0
100
AcDbLine
 10
442.6276299029677
 20
185.6464612506096
 30
0.0
 11
442.6273258583226
 21
185.6413835058761
 31
0.0
  0
LINE
  5
2D1E
330
1A
100
AcDbEntity
  8
SEIHIN
 62
     3
 48
10.0
100
AcDbLine
 10
443.3374672622043
 20
193.759939393138
 30
0.0
 11
442.6276299029677
 21
185.6464612506096
 31
0.0
  0
LINE
  5
2D1F
330
1A
100
AcDbEntity
  8
SEIHIN
 62
     3
 48
10.0
100
AcDbLine
 10
421.9716901577561
 20
263.7024919426437
 30
0.0
 11
421.9716901577561
 21
247.9081949304805
 31
0.0
  0
LINE
  5
2D20
330
1A
100
AcDbEntity
  8
SEIHIN
 62
     3
 48
10.0
100
AcDbLine
 10
421.9716901577561
 20
247.8645339875721
 30
0.0
 11
431.8944170544372
 21
246.5446889459542
 31
0.0
  0
LINE
  5
2D21
330
1A
100
AcDbEntity
  8
SEIHIN
 62
     3
 48
10.0
100
AcDbLine
 10
431.0712812188858
 20
237.1362032933229
 30
0.0
 11
421.1044890305462
 21
237.9523797465489
 31
0.0
  0
LINE
  5
2D22
330
1A
100
AcDbEntity
  8
SEIHIN
 62
     3
 48
10.0
100
AcDbLine
 10
421.9716901577561
 20
247.9081949304805
 30
0.0
 11
421.9716901577561
 21
247.864533987572
 31
0.0
  0
ARC
  5
2D23
330
1A
100
AcDbEntity
  8
SEIHIN
 62
     3
 48
10.0
100
AcDbCircle
 10
420.9716901577563
 20
247.9081949304805
 30
0.0
 40
1.000000000000021
100
AcDbArc
 50
355.0000000000015
 51
0.0
  0
LINE
  5
2D24
330
1A
100
AcDbEntity
  8
SEIHIN
 62
     3
 48
10.0
100
AcDbLine
 10
431.8198226709299
 20
245.6920712409734
 30
0.0
 11
431.1575364558124
 21
238.1221051627821
 31
0.0
  0
LINE
  5
2D25
330
1A
100
AcDbEntity
  8
SEIHIN
 62
     3
 48
10.0
100
AcDbLine
 10
431.1575364558124
 20
238.1221051627821
 30
0.0
 11
431.0712812188858
 21
237.1362032933229
 31
0.0
  0
LINE
  5
2D26
330
1A
100
AcDbEntity
  8
SEIHIN
 62
     3
 48
10.0
100
AcDbLine
 10
431.8944170544372
 20
246.5446889459542
 30
0.0
 11
431.8198226709299
 21
245.6920712409734
 31
0.0
  0
LINE
  5
2D28
330
1A
100
AcDbEntity
  8
SEIHIN
 62
     3
 48
10.0
100
AcDbLine
 10
450.6859517907249
 20
231.8586489174805
 30
0.0
 11
450.6036519801701
 21
230.9179577783353
 31
0.0
  0
LWPOLYLINE
  5
2D29
330
1A
100
AcDbEntity
  8
SEIHIN
 62
     3
 48
10.0
100
AcDbPolyline
 90
        3
 70
   128
 43
0.0
 10
450.6036519801701
 20
230.9179577783353
 10
448.5559980981054
 20
231.287788687763
 10
446.6512156491208
 20
231.6344442916316
  0
LINE
  5
2D2A
330
1A
100
AcDbEntity
  8
SEIHIN
 62
     3
 48
10.0
100
AcDbLine
 10
543.8784211889183
 20
237.1362032933229
 30
0.0
 11
543.8784211889183
 21
191.9974749810954
 31
0.0
  0
LINE
  5
2D2B
330
1A
100
AcDbEntity
  8
SEIHIN
 62
     3
 48
10.0
100
AcDbLine
 10
543.3616898856411
 20
192.8557609802276
 30
0.0
 11
539.1820671633988
 21
247.832388243094
 31
0.0
  0
LINE
  5
2D2C
330
1A
100
AcDbEntity
  8
SEIHIN
 62
     3
 48
10.0
100
AcDbLine
 10
543.4284211889185
 20
237.9523797465489
 30
0.0
 11
543.4284211889185
 21
192.9244133828225
 31
0.0
  0
LINE
  5
2D2D
330
1A
100
AcDbEntity
  8
SEIHIN
 62
     3
 48
10.0
100
AcDbLine
 10
546.9284211889185
 20
234.1193241547769
 30
0.0
 11
546.9284211889185
 21
196.7574689745945
 31
0.0
  0
LINE
  5
2D2E
330
1A
100
AcDbEntity
  8
SEIHIN
 62
     3
 48
10.0
100
AcDbLine
 10
547.6284211889183
 20
231.628914909044
 30
0.0
 11
547.6284211889183
 21
194.7157795974492
 31
0.0
  0
LINE
  5
2D2F
330
1A
100
AcDbEntity
  8
SEIHIN
 62
     3
 48
10.0
100
AcDbLine
 10
450.6036519801701
 20
230.9179577783353
 30
0.0
 11
447.4375713679741
 21
194.7294907861765
 31
0.0
  0
LINE
  5
2D30
330
1A
100
AcDbEntity
  8
SEIHIN
 62
     3
 48
10.0
100
AcDbLine
 10
447.4375713679741
 20
194.7294907861765
 30
0.0
 11
447.3552715574198
 21
193.7887996470314
 31
0.0
  0
LINE
  5
2D31
330
1A
100
AcDbEntity
  8
SEIHIN
 62
     3
 48
10.0
100
AcDbLine
 10
447.3552715574198
 20
193.7887996470314
 30
0.0
 11
446.6532362700954
 21
185.7644995945284
 31
0.0
  0
LWPOLYLINE
  5
2D32
330
1A
100
AcDbEntity
  8
SEIHIN
 62
     3
 48
10.0
100
AcDbPolyline
 90
        3
 70
   128
 43
0.0
 10
546.9856984388742
 20
196.4372799418982
 10
546.974073991645
 20
196.4599580967483
 10
546.9284211889185
 20
196.7574689745945
  0
LINE
  5
2D33
330
1A
100
AcDbEntity
  8
SEIHIN
 62
     3
 48
10.0
100
AcDbLine
 10
547.6284211889183
 20
194.7157795974492
 30
0.0
 11
547.6284409349468
 21
194.7102226791852
 31
0.0
  0
ARC
  5
2D34
330
1A
100
AcDbEntity
  8
SEIHIN
 62
     3
 48
10.0
100
AcDbCircle
 10
544.3531322392226
 20
192.931393986302
 30
0.0
 40
0.9943230320590663
100
AcDbArc
 50
184.3624069915041
 51
221.5475878778686
  0
LWPOLYLINE
  5
2D35
330
1A
100
AcDbEntity
  8
SEIHIN
 62
     3
 48
10.0
100
AcDbPolyline
 90
        3
 70
   128
 43
0.0
 10
543.5294719831254
 20
192.4907637946319
 10
543.435638257269
 20
192.8050012245891
 10
543.4284211889185
 20
192.9244133828225
  0
LWPOLYLINE
  5
2D36
330
1A
100
AcDbEntity
  8
SEIHIN
 62
     3
 48
10.0
100
AcDbPolyline
 90
        6
 70
   128
 43
0.0
 10
543.8784211889183
 20
191.9974749810954
 10
543.9347785236646
 20
191.6679105563352
 10
544.0974421994918
 20
191.3755043974522
 10
544.3481792282181
 20
191.1530176846058
 10
544.6589786760609
 20
191.0255247183416
 10
544.7342957550184
 20
191.0115731116363
  0
LWPOLYLINE
  5
2D37
330
1A
100
AcDbEntity
  8
SEIHIN
 62
     3
 48
10.0
100
AcDbPolyline
 90
        3
 70
   128
 43
0.0
 10
543.5283672384412
 20
192.4904322388576
 10
543.5734825527235
 20
192.397656964366
 10
543.9778996536688
 20
191.5641353838454
  0
LWPOLYLINE
  5
2D38
330
1A
100
AcDbEntity
  8
SEIHIN
 62
     3
 48
10.0
100
AcDbPolyline
 90
        3
 70
   128
 43
0.0
 10
546.9821195153049
 20
196.4354495952372
 10
547.0361003604547
 20
196.2780860052255
 10
547.6823919602178
 20
194.3927045050742
  0
LINE
  5
2D39
330
1A
100
AcDbEntity
  8
SEIHIN
 62
     3
 48
10.0
100
AcDbLine
 10
451.4478991095946
 20
240.567746624111
 30
0.0
 11
450.6859517907249
 21
231.8586489174805
 31
0.0
  0
LWPOLYLINE
  5
2D3A
330
1A
100
AcDbEntity
  8
SEIHIN
 62
     3
 48
10.0
100
AcDbPolyline
 90
        5
 70
   128
 43
0.0
 10
447.5068538347328
 20
241.4144335054205
 10
447.5155580235322
 20
241.3769851125304
 10
447.5091481315955
 20
241.2346001942414
 10
447.484418073282
 20
241.0012532860363
 10
447.4446181760391
 20
240.7032866550633
  0
LINE
  5
2D3B
330
1A
100
AcDbEntity
  8
SEIHIN
 62
     3
 48
10.0
100
AcDbLine
 10
447.5066981886016
 20
241.4144669441475
 30
0.0
 11
447.5068538347328
 21
241.4144335054205
 31
0.0
  0
LINE
  5
2D3C
330
1A
100
AcDbEntity
  8
SEIHIN
 62
     3
 48
10.0
100
AcDbLine
 10
447.4446181760391
 20
240.7032866550633
 30
0.0
 11
447.4440358604431
 21
240.6982332558835
 31
0.0
  0
LINE
  5
2D3D
330
1A
100
AcDbEntity
  8
SEIHIN
 62
     3
 48
10.0
100
AcDbLine
 10
446.6512156491208
 20
231.6344442916316
 30
0.0
 11
446.650573319187
 21
231.6289149090438
 31
0.0
  0
LWPOLYLINE
  5
2D3E
330
1A
100
AcDbEntity
  8
SEIHIN
 62
     3
 48
10.0
100
AcDbPolyline
 90
        5
 70
   128
 43
0.0
 10
446.7342063948646
 20
232.5832428397452
 10
446.7362114587589
 20
232.4746314360569
 10
446.7233047888188
 20
232.2531541538374
 10
446.6940394286424
 20
231.9620317472832
 10
446.6512156491208
 20
231.6344442916316
  0
LINE
  5
2D3F
330
1A
100
AcDbEntity
  8
SEIHIN
 62
     3
 48
10.0
100
AcDbLine
 10
446.7341985012065
 20
232.584755113355
 30
0.0
 11
446.7342063948646
 21
232.5832428397452
 31
0.0
  0
LINE
  5
2D40
330
1A
100
AcDbEntity
  8
SEIHIN
 62
     3
 48
10.0
100
AcDbLine
 10
447.4440358604431
 20
240.6982332558835
 30
0.0
 11
446.7341985012065
 21
232.584755113355
 31
0.0
  0
LINE
  5
2D41
330
1A
100
AcDbEntity
  8
SEIHIN
 62
     3
 48
10.0
100
AcDbLine
 10
447.5068538347332
 20
241.4144335054203
 30
0.0
 11
451.4478991095946
 21
240.567746624111
 31
0.0
  0
LINE
  5
2D42
330
1A
100
AcDbEntity
  8
SEIHIN
 62
     3
 48
10.0
100
AcDbLine
 10
539.1820671633988
 20
247.832388243094
 30
0.0
 11
537.9784211889183
 21
263.6645339875721
 31
0.0
  0
LWPOLYLINE
  5
2D43
330
1A
100
AcDbEntity
  8
SEIHIN
 62
     3
 48
10.0
100
AcDbPolyline
 90
        5
 70
   128
 43
0.0
 10
546.9284211889185
 20
234.1193241547769
 10
546.9847701476823
 20
234.448948313248
 10
547.1474676620212
 20
234.7414101499257
 10
547.3981646861784
 20
234.9637515462497
 10
547.6760061866903
 20
235.0830529255369
  0
LINE
  5
2D44
330
1A
100
AcDbEntity
  8
SEIHIN
 62
     3
 48
10.0
100
AcDbLine
 10
547.6284409349468
 20
231.6344442916316
 30
0.0
 11
547.6284211889183
 21
231.6289149090438
 31
0.0
  0
LWPOLYLINE
  5
2D45
330
1A
100
AcDbEntity
  8
SEIHIN
 62
     3
 48
10.0
100
AcDbPolyline
 90
        6
 70
   128
 43
0.0
 10
543.4284211889185
 20
237.9523797465489
 10
543.4847776637781
 20
238.2819405787139
 10
543.6474396013062
 20
238.5743435876328
 10
543.8981727870123
 20
238.7968262258345
 10
544.2089667283455
 20
238.9243166528811
 10
544.3293683549382
 20
238.9438179838815
  0
LWPOLYLINE
  5
2D46
330
1A
100
AcDbEntity
  8
SEIHIN
 62
     3
 48
10.0
100
AcDbPolyline
 90
        6
 70
   128
 43
0.0
 10
544.7342957550184
 20
238.1221051627821
 10
544.4144049027313
 20
238.0185269369997
 10
544.1469676027844
 20
237.8152888687055
 10
543.9622984533669
 20
237.5354103880161
 10
543.8812245453426
 20
237.2107083333646
 10
543.8784211889183
 20
237.1362032933229
  0
LINE
  5
2D49
330
1A
100
AcDbEntity
  8
SEIHIN
 62
     3
 48
10.0
100
AcDbLine
 10
613.9784211889181
 20
263.6645339875721
 30
0.0
 11
613.9784211889181
 21
282.8645339875722
 31
0.0
  0
LINE
  5
2D4A
330
1A
100
AcDbEntity
  8
SEIHIN
 62
     3
 48
10.0
100
AcDbLine
 10
612.7747752144378
 20
247.832388243094
 30
0.0
 11
613.9784211889181
 21
263.6645339875721
 31
0.0
  0
LWPOLYLINE
  5
2D4B
330
1A
100
AcDbEntity
  8
SEIHIN
 62
     3
 48
10.0
100
AcDbPolyline
 90
        9
 70
   128
 43
0.0
 10
594.3625979855496
 20
238.9297517455334
 10
594.9380934745045
 20
237.6322457508907
 10
595.6475762603304
 20
236.402343774734
 10
596.4831530677654
 20
235.253728960667
 10
597.435527775923
 20
234.1991801006197
 10
598.4941048412975
 20
233.2504294657563
 10
599.6471071773538
 20
232.4180322803411
 10
600.881707179254
 20
231.7112492907138
 10
602.1841694360075
 20
231.1379437358414
  0
LWPOLYLINE
  5
2D4C
330
1A
100
AcDbEntity
  8
SEIHIN
 62
     3
 48
10.0
100
AcDbPolyline
 90
        5
 70
   128
 43
0.0
 10
603.1410077190018
 20
231.8586489174805
 10
603.4367938494518
 20
231.705108505568
 10
603.6647924017163
 20
231.4624983055087
 10
603.798477878145
 20
231.1596368955203
 10
603.8284211889179
 20
230.9179577783353
  0
LWPOLYLINE
  5
2D4D
330
1A
100
AcDbEntity
  8
SEIHIN
 62
     3
 48
10.0
100
AcDbPolyline
 90
        5
 70
   128
 43
0.0
 10
548.8158346588346
 20
231.8586489174805
 10
548.5200485283849
 20
231.705108505568
 10
548.2920499761203
 20
231.4624983055087
 10
548.1583644996913
 20
231.1596368955203
 10
548.1284211889183
 20
230.9179577783353
  0
LWPOLYLINE
  5
2D4E
330
1A
100
AcDbEntity
  8
SEIHIN
 62
     3
 48
10.0
100
AcDbPolyline
 90
        9
 70
   128
 43
0.0
 10
557.5942443922866
 20
238.9297517455334
 10
557.0187489033319
 20
237.6322457508907
 10
556.309266117506
 20
236.402343774734
 10
555.4736893100712
 20
235.253728960667
 10
554.5213146019131
 20
234.1991801006197
 10
553.4627375365389
 20
233.2504294657563
 10
552.3097352004826
 20
232.4180322803411
 10
551.0751351985826
 20
231.7112492907138
 10
549.7726729418291
 20
231.1379437358414
  0
LINE
  5
2D4F
330
1A
100
AcDbEntity
  8
SEIHIN
 62
     3
 48
10.0
100
AcDbLine
 10
608.0784211889182
 20
237.1362032933229
 30
0.0
 11
608.0784211889182
 21
191.9974749810954
 31
0.0
  0
LWPOLYLINE
  5
2D50
330
1A
100
AcDbEntity
  8
SEIHIN
 62
     3
 48
10.0
100
AcDbPolyline
 90
       13
 70
   128
 43
0.0
 10
609.8508010089449
 20
209.682733760132
 10
610.0032133732433
 20
211.9588483802413
 10
610.1339929986542
 20
213.9377089702983
 10
610.2804805053142
 20
216.0307585860812
 10
610.4638276362363
 20
218.4735045453086
 10
610.6861988709256
 20
221.2662450670523
 10
610.8882626618191
 20
223.7225849299052
 10
611.1194213239232
 20
226.5899237303195
 10
611.381974875444
 20
229.9173491159959
 10
611.6765763882099
 20
233.7044298549824
 10
612.0037326789229
 20
237.9506413827729
 10
612.363812830574
 20
242.6553704616386
 10
612.7570530753635
 20
247.817932414748
  0
LINE
  5
2D51
330
1A
100
AcDbEntity
  8
SEIHIN
 62
     3
 48
10.0
100
AcDbLine
 10
608.5284211889184
 20
237.9523797465489
 30
0.0
 11
608.5284211889184
 21
192.9244133828225
 31
0.0
  0
LINE
  5
2D52
330
1A
100
AcDbEntity
  8
SEIHIN
 62
     3
 48
10.0
100
AcDbLine
 10
605.0284211889183
 20
234.1193241547769
 30
0.0
 11
605.0284211889183
 21
196.7574689745945
 31
0.0
  0
LINE
  5
2D53
330
1A
100
AcDbEntity
  8
SEIHIN
 62
     3
 48
10.0
100
AcDbLine
 10
604.3284211889183
 20
231.628914909044
 30
0.0
 11
604.3284211889183
 21
194.7157795974492
 31
0.0
  0
LINE
  5
2D54
330
1A
100
AcDbEntity
  8
SEIHIN
 62
     3
 48
10.0
100
AcDbLine
 10
559.2783267095954
 20
189.9780927398884
 30
0.0
 11
592.6785156682412
 21
189.9780927398884
 31
0.0
  0
LINE
  5
2D55
330
1A
100
AcDbEntity
  8
SEIHIN
 62
     3
 48
10.0
100
AcDbLine
 10
558.5284061893925
 20
186.0758966384926
 30
0.0
 11
593.428436188444
 21
186.0758966384926
 31
0.0
  0
LINE
  5
2D56
330
1A
100
AcDbEntity
  8
SEIHIN
 62
     3
 48
10.0
100
AcDbLine
 10
598.1288881678795
 20
200.2201152835941
 30
0.0
 11
553.8279542099575
 21
200.2201152835941
 31
0.0
  0
LINE
  5
2D57
330
1A
100
AcDbEntity
  8
SEIHIN
 62
     3
 48
10.0
100
AcDbLine
 10
549.1284211889182
 20
230.207336706405
 30
0.0
 11
549.1284211889182
 21
195.440111858107
 31
0.0
  0
LINE
  5
2D58
330
1A
100
AcDbEntity
  8
SEIHIN
 62
     3
 48
10.0
100
AcDbLine
 10
552.8047893468079
 20
201.0874389608285
 30
0.0
 11
550.497471075102
 21
231.4367276479007
 31
0.0
  0
LINE
  5
2D59
330
1A
100
AcDbEntity
  8
SEIHIN
 62
     3
 48
10.0
100
AcDbLine
 10
550.2458858126543
 20
231.3274270171617
 30
0.0
 11
550.2458858126543
 21
198.9761624722482
 31
0.0
  0
LINE
  5
2D5A
330
1A
100
AcDbEntity
  8
SEIHIN
 62
     3
 48
10.0
100
AcDbLine
 10
548.1284211889183
 20
230.9179577783353
 30
0.0
 11
548.1284211889183
 21
194.7294907861765
 31
0.0
  0
LWPOLYLINE
  5
2D5B
330
1A
100
AcDbEntity
  8
SEIHIN
 62
     3
 48
10.0
100
AcDbPolyline
 90
        3
 70
   128
 43
0.0
 10
553.1740652653876
 20
196.7376339635331
 10
553.1048982251904
 20
197.5457753878833
 10
552.8618253645134
 20
200.3781903039921
  0
LWPOLYLINE
  5
2D5C
330
1A
100
AcDbEntity
  8
SEIHIN
 62
     3
 48
10.0
100
AcDbPolyline
 90
        3
 70
   128
 43
0.0
 10
549.1284211889182
 20
195.440111858107
 10
549.6865618129826
 20
197.2112920943954
 10
550.2458858126543
 20
198.9761624722482
  0
LWPOLYLINE
  5
2D5D
330
1A
100
AcDbEntity
  8
SEIHIN
 62
     3
 48
10.0
100
AcDbPolyline
 90
        9
 70
   128
 43
0.0
 10
550.8440381094405
 20
198.0643369882799
 10
552.062773524076
 20
197.4633150327627
 10
553.2201677487677
 20
196.7520662433355
 10
554.3062035791405
 20
195.9367464520676
 10
555.3114814150929
 20
195.0244122217149
 10
556.227300613991
 20
194.0229597714298
 10
557.0457347944075
 20
192.941056635275
 10
557.7597004386631
 20
191.7880666450351
 10
558.3630182004103
 20
190.5739688865981
  0
LWPOLYLINE
  5
2D5E
330
1A
100
AcDbEntity
  8
SEIHIN
 62
     3
 48
10.0
100
AcDbPolyline
 90
        9
 70
   128
 43
0.0
 10
548.3473907735145
 20
193.759939393138
 10
549.7584389686871
 20
193.2509524119656
 10
551.094681749183
 20
192.5704974969889
 10
552.3352207629564
 20
191.7292167160806
 10
553.4606544301335
 20
190.7402673952786
 10
554.4533813766792
 20
189.6191163429828
 10
555.2978757134991
 20
188.3832979546859
 10
555.9809298557065
 20
187.0521399813926
 10
556.4918610844586
 20
185.6464612506096
  0
LWPOLYLINE
  5
2D5F
330
1A
100
AcDbEntity
  8
SEIHIN
 62
     3
 48
10.0
100
AcDbPolyline
 90
        9
 70
   128
 43
0.0
 10
548.8158346588346
 20
193.7887996470314
 10
550.1926843377914
 20
193.2545496738597
 10
551.4966311396141
 20
192.5621796565949
 10
552.7094546690944
 20
191.7213642654978
 10
553.8142078207265
 20
190.7438524374894
 10
554.7954535851148
 20
189.6433032051334
 10
555.6394807544097
 20
188.4350948353439
 10
556.3344955126604
 20
187.1361099447742
 10
556.8707862339373
 20
185.7644995945284
  0
LWPOLYLINE
  5
2D60
330
1A
100
AcDbEntity
  8
SEIHIN
 62
     3
 48
10.0
100
AcDbPolyline
 90
        9
 70
   128
 43
0.0
 10
549.7726729418291
 20
194.5095048286705
 10
551.0751351985826
 20
193.936199273798
 10
552.3097352004826
 20
193.2294162841708
 10
553.4627375365389
 20
192.3970190987557
 10
554.5213146019131
 20
191.4482684638921
 10
555.4736893100712
 20
190.3937196038449
 10
556.309266117506
 20
189.245104789778
 10
557.0187489033322
 20
188.0152028136211
 10
557.5942443922866
 20
186.7176968189786
  0
LINE
  5
2D61
330
1A
100
AcDbEntity
  8
SEIHIN
 62
     3
 48
10.0
100
AcDbLine
 10
548.342305851896
 20
193.7614273211943
 30
0.0
 11
548.3473907735145
 21
193.759939393138
 31
0.0
  0
LWPOLYLINE
  5
2D62
330
1A
100
AcDbEntity
  8
SEIHIN
 62
     3
 48
10.0
100
AcDbPolyline
 90
        5
 70
   128
 43
0.0
 10
548.1284211889183
 20
194.7294907861765
 10
548.1842171777129
 20
194.4019085668095
 10
548.3459255000934
 20
194.1112242843377
 10
548.5941667130522
 20
193.8914384850178
 10
548.8158346588346
 20
193.7887996470314
  0
LWPOLYLINE
  5
2D63
330
1A
100
AcDbEntity
  8
SEIHIN
 62
     3
 48
10.0
100
AcDbPolyline
 90
        5
 70
   128
 43
0.0
 10
549.7726729418291
 20
194.5095048286705
 10
549.4834542177478
 20
194.679068010327
 10
549.2668877646259
 20
194.9344550083297
 10
549.1474404028679
 20
195.2467638952407
 10
549.1284211889182
 20
195.440111858107
  0
LWPOLYLINE
  5
2D64
330
1A
100
AcDbEntity
  8
SEIHIN
 62
     3
 48
10.0
100
AcDbPolyline
 90
        3
 70
   128
 43
0.0
 10
559.2783267095954
 20
189.9780927398884
 10
558.9080158136042
 20
188.0249285102792
 10
558.5284061893925
 20
186.0758966384926
  0
LINE
  5
2D65
330
1A
100
AcDbEntity
  8
SEIHIN
 62
     3
 48
10.0
100
AcDbLine
 10
556.4918610844586
 20
185.6464612506096
 30
0.0
 11
556.4933669154334
 21
185.6413835058761
 31
0.0
  0
LWPOLYLINE
  5
2D66
330
1A
100
AcDbEntity
  8
SEIHIN
 62
     3
 48
10.0
100
AcDbPolyline
 90
        5
 70
   128
 43
0.0
 10
558.5284061893925
 20
186.0758966384926
 10
558.1975790381639
 20
186.1320082509499
 10
557.904047765777
 20
186.2940612074845
 10
557.6809919645911
 20
186.5437013116606
 10
557.5942443922866
 20
186.7176968189786
  0
LWPOLYLINE
  5
2D67
330
1A
100
AcDbEntity
  8
SEIHIN
 62
     3
 48
10.0
100
AcDbPolyline
 90
        5
 70
   128
 43
0.0
 10
558.3630182004103
 20
190.5739688865981
 10
558.5474241142237
 20
190.2946626041719
 10
558.8142518672388
 20
190.0919159896218
 10
559.1333189215276
 20
189.9886241462877
 10
559.2783267095954
 20
189.9780927398884
  0
LWPOLYLINE
  5
2D68
330
1A
100
AcDbEntity
  8
SEIHIN
 62
     3
 48
10.0
100
AcDbPolyline
 90
        5
 70
   128
 43
0.0
 10
550.2458858126543
 20
198.9761624722482
 10
550.302211902051
 20
198.6466010940051
 10
550.4648802119373
 20
198.3541930910276
 10
550.7154746791525
 20
198.1319789872951
 10
550.8440381094405
 20
198.0643369882799
  0
LWPOLYLINE
  5
2D69
330
1A
100
AcDbEntity
  8
SEIHIN
 62
     3
 48
10.0
100
AcDbPolyline
 90
        9
 70
   128
 43
0.0
 10
553.8279542099575
 20
200.2201152835941
 10
553.6639340202754
 20
200.2115933958261
 10
553.5043863016158
 20
200.2117300972934
 10
553.3536615705192
 20
200.2205216604469
 10
553.2158697599976
 20
200.2377283586312
 10
553.0947681506693
 20
200.2628810029059
 10
552.9936589179518
 20
200.2952937357991
 10
552.9152990889793
 20
200.334082733137
 10
552.8618253645134
 20
200.3781903039921
  0
LWPOLYLINE
  5
2D6A
330
1A
100
AcDbEntity
  8
SEIHIN
 62
     3
 48
10.0
100
AcDbPolyline
 90
        3
 70
   128
 43
0.0
 10
552.8618253645134
 20
200.3781903039921
 10
552.8047936735533
 20
201.0873820463046
 10
552.8047893468079
 20
201.0874389608285
  0
LWPOLYLINE
  5
2D6B
330
1A
100
AcDbEntity
  8
SEIHIN
 62
     3
 48
10.0
100
AcDbPolyline
 90
        5
 70
   128
 43
0.0
 10
552.8047893468079
 20
201.0874389608285
 10
552.5711101143318
 20
201.3177942793359
 10
551.6565162403607
 20
201.8846398232351
 10
550.3243367566405
 20
202.366218094236
 10
550.2458858126543
 20
202.3831839513825
  0
LWPOLYLINE
  5
2D6C
330
1A
100
AcDbEntity
  8
SEIHIN
 62
     3
 48
10.0
100
AcDbPolyline
 90
        5
 70
   128
 43
0.0
 10
549.1284211889182
 20
230.207336706405
 10
549.1847471386194
 20
230.5369049604439
 10
549.3474191111213
 20
230.8293192577197
 10
549.5980127999398
 20
231.0515262642396
 10
549.7726729418291
 20
231.1379437358414
  0
LINE
  5
2D6D
330
1A
100
AcDbEntity
  8
SEIHIN
 62
     3
 48
10.0
100
AcDbLine
 10
608.5951524921957
 20
192.8557609802276
 30
0.0
 11
609.8748134664941
 21
209.6877692934375
 31
0.0
  0
LINE
  5
2D6E
330
1A
100
AcDbEntity
  8
SEIHIN
 62
     3
 48
10.0
100
AcDbLine
 10
602.828421188918
 20
230.207336706405
 30
0.0
 11
602.828421188918
 21
195.440111858107
 31
0.0
  0
LINE
  5
2D6F
330
1A
100
AcDbEntity
  8
SEIHIN
 62
     3
 48
10.0
100
AcDbLine
 10
599.1520530310294
 20
201.0874389608285
 30
0.0
 11
601.4593713027351
 21
231.4367276479004
 31
0.0
  0
LINE
  5
2D70
330
1A
100
AcDbEntity
  8
SEIHIN
 62
     3
 48
10.0
100
AcDbLine
 10
601.7109565651824
 20
231.3274270171616
 30
0.0
 11
601.7109565651824
 21
198.9761624722482
 31
0.0
  0
LINE
  5
2D71
330
1A
100
AcDbEntity
  8
SEIHIN
 62
     3
 48
10.0
100
AcDbLine
 10
603.8284211889179
 20
230.9179577783353
 30
0.0
 11
603.8284211889179
 21
194.7294907861765
 31
0.0
  0
LWPOLYLINE
  5
2D72
330
1A
100
AcDbEntity
  8
SEIHIN
 62
     3
 48
10.0
100
AcDbPolyline
 90
        9
 70
   128
 43
0.0
 10
603.1410077190018
 20
193.7887996470314
 10
601.7641580400455
 20
193.2545496738597
 10
600.4602112382224
 20
192.5621796565949
 10
599.2473877087417
 20
191.7213642654978
 10
598.1426345571097
 20
190.7438524374894
 10
597.1613887927219
 20
189.6433032051334
 10
596.3173616234266
 20
188.4350948353439
 10
595.622346865176
 20
187.1361099447742
 10
595.086056143899
 20
185.7644995945284
  0
LWPOLYLINE
  5
2D73
330
1A
100
AcDbEntity
  8
SEIHIN
 62
     3
 48
10.0
100
AcDbPolyline
 90
        9
 70
   128
 43
0.0
 10
602.1841694360075
 20
194.5095048286705
 10
600.881707179254
 20
193.936199273798
 10
599.6471071773538
 20
193.2294162841708
 10
598.4941048412975
 20
192.3970190987557
 10
597.435527775923
 20
191.4482684638921
 10
596.4831530677654
 20
190.3937196038449
 10
595.6475762603304
 20
189.245104789778
 10
594.9380934745045
 20
188.0152028136211
 10
594.3625979855496
 20
186.7176968189786
  0
LWPOLYLINE
  5
2D74
330
1A
100
AcDbEntity
  8
SEIHIN
 62
     3
 48
10.0
100
AcDbPolyline
 90
        9
 70
   128
 43
0.0
 10
601.1128042683963
 20
198.0643369882799
 10
599.8940688537603
 20
197.4633150327627
 10
598.7366746290687
 20
196.7520662433355
 10
597.650638798696
 20
195.9367464520676
 10
596.6453609627436
 20
195.0244122217149
 10
595.7295417638455
 20
194.0229597714298
 10
594.9111075834292
 20
192.941056635275
 10
594.1971419391734
 20
191.7880666450351
 10
593.5938241774262
 20
190.5739688865981
  0
LWPOLYLINE
  5
2D75
330
1A
100
AcDbEntity
  8
SEIHIN
 62
     3
 48
10.0
100
AcDbPolyline
 90
        9
 70
   128
 43
0.0
 10
603.609451604322
 20
193.759939393138
 10
602.1984034091491
 20
193.2509524119656
 10
600.8621606286535
 20
192.5704974969889
 10
599.62162161488
 20
191.7292167160806
 10
598.496187947703
 20
190.7402673952786
 10
597.503461001157
 20
189.6191163429828
 10
596.6589666643371
 20
188.3832979546859
 10
595.9759125221299
 20
187.0521399813926
 10
595.4649812933775
 20
185.6464612506096
  0
LINE
  5
2D76
330
1A
100
AcDbEntity
  8
SEIHIN
 62
     3
 48
10.0
100
AcDbLine
 10
595.4649812933775
 20
185.6464612506096
 30
0.0
 11
595.463475462403
 21
185.6413835058761
 31
0.0
  0
LWPOLYLINE
  5
2D77
330
1A
100
AcDbEntity
  8
SEIHIN
 62
     3
 48
10.0
100
AcDbPolyline
 90
        3
 70
   128
 43
0.0
 10
592.6785156682412
 20
189.9780927398884
 10
593.0488265642321
 20
188.0249285102792
 10
593.428436188444
 20
186.0758966384926
  0
LWPOLYLINE
  5
2D78
330
1A
100
AcDbEntity
  8
SEIHIN
 62
     3
 48
10.0
100
AcDbPolyline
 90
        5
 70
   128
 43
0.0
 10
593.428436188444
 20
186.0758966384926
 10
593.759263339673
 20
186.1320082509499
 10
594.0527946120595
 20
186.2940612074845
 10
594.2758504132452
 20
186.5437013116606
 10
594.3625979855496
 20
186.7176968189786
  0
LWPOLYLINE
  5
2D79
330
1A
100
AcDbEntity
  8
SEIHIN
 62
     3
 48
10.0
100
AcDbPolyline
 90
        5
 70
   128
 43
0.0
 10
593.5938241774262
 20
190.5739688865981
 10
593.409418263613
 20
190.2946626041719
 10
593.1425905105981
 20
190.0919159896218
 10
592.823523456309
 20
189.9886241462877
 10
592.6785156682412
 20
189.9780927398884
  0
LWPOLYLINE
  5
2D7A
330
1A
100
AcDbEntity
  8
SEIHIN
 62
     3
 48
10.0
100
AcDbPolyline
 90
        3
 70
   128
 43
0.0
 10
598.7827771124493
 20
196.7376339635334
 10
598.8519441526464
 20
197.5457753878833
 10
599.0950170133235
 20
200.3781903039921
  0
LWPOLYLINE
  5
2D7B
330
1A
100
AcDbEntity
  8
SEIHIN
 62
     3
 48
10.0
100
AcDbPolyline
 90
        3
 70
   128
 43
0.0
 10
602.828421188918
 20
195.440111858107
 10
602.2702805648535
 20
197.2112920943954
 10
601.7109565651824
 20
198.9761624722482
  0
LWPOLYLINE
  5
2D7C
330
1A
100
AcDbEntity
  8
SEIHIN
 62
     3
 48
10.0
100
AcDbPolyline
 90
        3
 70
   128
 43
0.0
 10
604.97104576191
 20
196.4370884081118
 10
604.9827683861916
 20
196.4599580967483
 10
605.0284211889183
 20
196.7574689745945
  0
LINE
  5
2D7D
330
1A
100
AcDbEntity
  8
SEIHIN
 62
     3
 48
10.0
100
AcDbLine
 10
603.6145365259406
 20
193.7614273211943
 30
0.0
 11
603.609451604322
 21
193.759939393138
 31
0.0
  0
LWPOLYLINE
  5
2D7E
330
1A
100
AcDbEntity
  8
SEIHIN
 62
     3
 48
10.0
100
AcDbPolyline
 90
        5
 70
   128
 43
0.0
 10
604.32840144289
 20
194.7102226791852
 10
604.2918541724804
 20
194.4491144846035
 10
604.1494524129001
 20
194.1464578313091
 10
603.9148380935293
 20
193.9082090188273
 10
603.6145365259406
 20
193.7614273211943
  0
LINE
  5
2D7F
330
1A
100
AcDbEntity
  8
SEIHIN
 62
     3
 48
10.0
100
AcDbLine
 10
604.3284211889183
 20
194.7157795974492
 30
0.0
 11
604.3284014428896
 21
194.7102226791852
 31
0.0
  0
LWPOLYLINE
  5
2D80
330
1A
100
AcDbEntity
  8
SEIHIN
 62
     3
 48
10.0
100
AcDbPolyline
 90
        3
 70
   128
 43
0.0
 10
604.2744494624894
 20
194.3929596248612
 10
604.3291222988259
 20
194.5525113602842
 10
604.9747238768523
 20
196.4352073370891
  0
LWPOLYLINE
  5
2D81
330
1A
100
AcDbEntity
  8
SEIHIN
 62
     3
 48
10.0
100
AcDbPolyline
 90
        5
 70
   128
 43
0.0
 10
602.1841694360075
 20
194.5095048286705
 10
602.4733881600885
 20
194.679068010327
 10
602.6899546132106
 20
194.9344550083297
 10
602.8094019749686
 20
195.2467638952407
 10
602.828421188918
 20
195.440111858107
  0
LWPOLYLINE
  5
2D82
330
1A
100
AcDbEntity
  8
SEIHIN
 62
     3
 48
10.0
100
AcDbPolyline
 90
        5
 70
   128
 43
0.0
 10
603.8284211889179
 20
194.7294907861765
 10
603.7726252001235
 20
194.4019085668095
 10
603.6109168777429
 20
194.1112242843377
 10
603.362675664784
 20
193.8914384850178
 10
603.1410077190018
 20
193.7887996470314
  0
ARC
  5
2D83
330
1A
100
AcDbEntity
  8
SEIHIN
 62
     3
 48
10.0
100
AcDbCircle
 10
607.6037111256532
 20
192.9313937324113
 30
0.0
 40
0.9943220285674691
100
AcDbArc
 50
314.1459797364586
 51
355.6376032697737
  0
LWPOLYLINE
  5
2D84
330
1A
100
AcDbEntity
  8
SEIHIN
 62
     3
 48
10.0
100
AcDbPolyline
 90
        3
 70
   128
 43
0.0
 10
608.4272873368623
 20
192.4904856442685
 10
608.5212041205676
 20
192.8050012245891
 10
608.5284211889184
 20
192.9244133828225
  0
LWPOLYLINE
  5
2D85
330
1A
100
AcDbEntity
  8
SEIHIN
 62
     3
 48
10.0
100
AcDbPolyline
 90
        3
 70
   128
 43
0.0
 10
607.9789404919459
 20
191.564447832439
 10
608.0245819948445
 20
191.6586251918684
 10
608.4284778085032
 20
192.4901283633825
  0
LWPOLYLINE
  5
2D86
330
1A
100
AcDbEntity
  8
SEIHIN
 62
     3
 48
10.0
100
AcDbPolyline
 90
        6
 70
   128
 43
0.0
 10
608.0784211889182
 20
191.9974749810954
 10
608.022063854172
 20
191.6679105563352
 10
607.8594001783449
 20
191.3755043974522
 10
607.6086631496186
 20
191.1530176846058
 10
607.2978637017754
 20
191.0255247183416
 10
607.222546622818
 20
191.0115731116363
  0
LWPOLYLINE
  5
2D87
330
1A
100
AcDbEntity
  8
SEIHIN
 62
     3
 48
10.0
100
AcDbPolyline
 90
        5
 70
   128
 43
0.0
 10
601.7109565651824
 20
198.9761624722482
 10
601.6546304757858
 20
198.6466010940051
 10
601.4919621658995
 20
198.3541930910276
 10
601.2413676986843
 20
198.1319789872951
 10
601.1128042683963
 20
198.0643369882799
  0
LWPOLYLINE
  5
2D88
330
1A
100
AcDbEntity
  8
SEIHIN
 62
     3
 48
10.0
100
AcDbPolyline
 90
        9
 70
   128
 43
0.0
 10
598.1288881678795
 20
200.2201152835941
 10
598.2929083575613
 20
200.2115933958261
 10
598.4524560762215
 20
200.2117300972934
 10
598.603180807318
 20
200.2205216604469
 10
598.7409726178395
 20
200.2377283586312
 10
598.8620742271677
 20
200.2628810029059
 10
598.963183459885
 20
200.2952937357991
 10
599.041543288858
 20
200.334082733137
 10
599.0950170133235
 20
200.3781903039921
  0
LWPOLYLINE
  5
2D89
330
1A
100
AcDbEntity
  8
SEIHIN
 62
     3
 48
10.0
100
AcDbPolyline
 90
        3
 70
   128
 43
0.0
 10
599.0950170133235
 20
200.3781903039921
 10
599.1520487042836
 20
201.0873820463046
 10
599.1520530310294
 20
201.0874389608285
  0
LWPOLYLINE
  5
2D8A
330
1A
100
AcDbEntity
  8
SEIHIN
 62
     3
 48
10.0
100
AcDbPolyline
 90
        5
 70
   128
 43
0.0
 10
599.1520530310294
 20
201.0874389608285
 10
599.385732263505
 20
201.3177942793359
 10
600.3003261374765
 20
201.8846398232351
 10
601.6325056211966
 20
202.366218094236
 10
601.7109565651824
 20
202.3831839513824
  0
LWPOLYLINE
  5
2D8B
330
1A
100
AcDbEntity
  8
SEIHIN
 62
     3
 48
10.0
100
AcDbPolyline
 90
        5
 70
   128
 43
0.0
 10
602.828421188918
 20
230.207336706405
 10
602.7720952392169
 20
230.5369049604439
 10
602.609423266715
 20
230.8293192577197
 10
602.3588295778968
 20
231.0515262642396
 10
602.1841694360075
 20
231.1379437358414
  0
LINE
  5
2D8C
330
1A
100
AcDbEntity
  8
SEIHIN
 62
     3
 48
10.0
100
AcDbLine
 10
598.57840412899
 20
247.8645339875721
 30
0.0
 11
553.3784382488464
 21
247.8645339875721
 31
0.0
  0
LINE
  5
2D8D
330
1A
100
AcDbEntity
  8
SEIHIN
 62
     3
 48
10.0
100
AcDbLine
 10
598.6339966495652
 20
246.5446889459541
 30
0.0
 11
553.3228457282715
 21
246.5446889459541
 31
0.0
  0
LINE
  5
2D8E
330
1A
100
AcDbEntity
  8
SEIHIN
 62
     3
 48
10.0
100
AcDbLine
 10
594.7307068875629
 20
244.3778525442509
 30
0.0
 11
557.2261354902739
 21
244.3778525442509
 31
0.0
  0
LINE
  5
2D8F
330
1A
100
AcDbEntity
  8
SEIHIN
 62
     3
 48
10.0
100
AcDbLine
 10
594.5054899347685
 20
241.4144669441475
 30
0.0
 11
557.4513524430679
 21
241.4144669441475
 31
0.0
  0
LINE
  5
2D90
330
1A
100
AcDbEntity
  8
SEIHIN
 62
     3
 48
10.0
100
AcDbLine
 10
594.141771717424
 20
240.567746624111
 30
0.0
 11
557.8150706604124
 21
240.567746624111
 31
0.0
  0
LINE
  5
2D91
330
1A
100
AcDbEntity
  8
SEIHIN
 62
     3
 48
10.0
100
AcDbLine
 10
593.428436188444
 20
239.5715519260193
 30
0.0
 11
558.5284061893924
 21
239.5715519260193
 31
0.0
  0
LWPOLYLINE
  5
2D92
330
1A
100
AcDbEntity
  8
SEIHIN
 62
     3
 48
10.0
100
AcDbPolyline
 90
        9
 70
   128
 43
0.0
 10
556.4918610844586
 20
240.6982332558835
 10
555.9809298557065
 20
239.2925545251006
 10
555.2978757134991
 20
237.9613965518072
 10
554.4533813766792
 20
236.7255781635103
 10
553.4606544301335
 20
235.6044271112145
 10
552.3352207629564
 20
234.6154777904126
 10
551.094681749183
 20
233.7741970095042
 10
549.7584389686871
 20
233.0937420945276
 10
548.3473907735145
 20
232.584755113355
  0
LWPOLYLINE
  5
2D93
330
1A
100
AcDbEntity
  8
SEIHIN
 62
     3
 48
10.0
100
AcDbPolyline
 90
        9
 70
   128
 43
0.0
 10
556.8707862339373
 20
239.8829489699835
 10
556.3344955126604
 20
238.5113386197376
 10
555.6394807544097
 20
237.212353729168
 10
554.7954535851148
 20
236.0041453593784
 10
553.8142078207265
 20
234.9035961270224
 10
552.7094546690944
 20
233.9260842990142
 10
551.496631139614
 20
233.085268907917
 10
550.192684337791
 20
232.3928988906521
 10
548.8158346588346
 20
231.8586489174805
  0
LINE
  5
2D94
330
1A
100
AcDbEntity
  8
SEIHIN
 62
     3
 48
10.0
100
AcDbLine
 10
548.3473907735145
 20
232.584755113355
 30
0.0
 11
548.342305851896
 21
232.5832428397452
 31
0.0
  0
LINE
  5
2D95
330
1A
100
AcDbEntity
  8
SEIHIN
 62
     3
 48
10.0
100
AcDbLine
 10
557.3533514054069
 20
238.3408272338915
 30
0.0
 11
557.6574840799292
 21
239.0367983798444
 31
0.0
  0
LINE
  5
2D96
330
1A
100
AcDbEntity
  8
SEIHIN
 62
     3
 48
10.0
100
AcDbLine
 10
556.4933669154334
 20
240.7032866550633
 30
0.0
 11
556.4918610844586
 21
240.6982332558835
 31
0.0
  0
LINE
  5
2D97
330
1A
100
AcDbEntity
  8
SEIHIN
 62
     3
 48
10.0
100
AcDbLine
 10
557.4513524430679
 20
241.4144669441475
 30
0.0
 11
557.4457881187081
 21
241.4144335054205
 31
0.0
  0
LWPOLYLINE
  5
2D98
330
1A
100
AcDbEntity
  8
SEIHIN
 62
     3
 48
10.0
100
AcDbPolyline
 90
        5
 70
   128
 43
0.0
 10
557.4457881187081
 20
241.4144335054205
 10
557.1847267024995
 20
241.3769851125304
 10
556.8814409959234
 20
241.2346001942414
 10
556.6419060477979
 20
241.0012532860363
 10
556.4933669154334
 20
240.7032866550633
  0
LWPOLYLINE
  5
2D99
330
1A
100
AcDbEntity
  8
SEIHIN
 62
     3
 48
10.0
100
AcDbPolyline
 90
        5
 70
   128
 43
0.0
 10
557.8150706604124
 20
240.567746624111
 10
557.4862371301852
 20
240.5121629558991
 10
557.1944424809779
 20
240.3510699825061
 10
556.9738171356105
 20
240.1037734023086
 10
556.8707862339373
 20
239.8829489699835
  0
LWPOLYLINE
  5
2D9A
330
1A
100
AcDbEntity
  8
SEIHIN
 62
     3
 48
10.0
100
AcDbPolyline
 90
        5
 70
   128
 43
0.0
 10
557.5942443922866
 20
238.9297517455334
 10
557.7644552777505
 20
239.2178699050517
 10
558.0208178125963
 20
239.4336122574364
 10
558.3343196687186
 20
239.5526050859209
 10
558.5284061893924
 20
239.5715519260193
  0
LWPOLYLINE
  5
2D9B
330
1A
100
AcDbEntity
  8
SEIHIN
 62
     3
 48
10.0
100
AcDbPolyline
 90
        6
 70
   128
 43
0.0
 10
552.3362155944701
 20
246.7876340649371
 10
552.4732459739222
 20
247.2853893237041
 10
552.6674678860405
 20
247.565370897636
 10
552.9426071067769
 20
247.7637202937017
 10
553.2653782142179
 20
247.8580663962393
 10
553.3784382488464
 20
247.864533987572
  0
LWPOLYLINE
  5
2D9C
330
1A
100
AcDbEntity
  8
SEIHIN
 62
     3
 48
10.0
100
AcDbPolyline
 90
        6
 70
   128
 43
0.0
 10
553.3228457282715
 20
246.5446889459541
 10
552.9920224209485
 20
246.4885460678813
 10
552.6984993180421
 20
246.3265013764501
 10
552.4751627420971
 20
246.0767184778177
 10
552.3471827734137
 20
245.7671017157069
 10
552.3331778738373
 20
245.6920712409734
  0
LWPOLYLINE
  5
2D9D
330
1A
100
AcDbEntity
  8
SEIHIN
 62
     3
 48
10.0
100
AcDbPolyline
 90
        5
 70
   128
 43
0.0
 10
556.2587254321737
 20
243.6331123330977
 10
556.396828424586
 20
243.9380589386487
 10
556.6284815008343
 20
244.1802718161179
 10
556.9274881692071
 20
244.3323734642216
 10
557.2261354902739
 20
244.3778525442509
  0
LWPOLYLINE
  5
2D9E
330
1A
100
AcDbEntity
  8
SEIHIN
 62
     3
 48
10.0
100
AcDbPolyline
 90
        9
 70
   128
 43
0.0
 10
595.086056143899
 20
239.8829489699835
 10
595.622346865176
 20
238.5113386197376
 10
596.3173616234266
 20
237.212353729168
 10
597.1613887927219
 20
236.0041453593784
 10
598.1426345571097
 20
234.9035961270224
 10
599.2473877087417
 20
233.9260842990142
 10
600.4602112382224
 20
233.085268907917
 10
601.7641580400455
 20
232.3928988906521
 10
603.1410077190018
 20
231.8586489174805
  0
LWPOLYLINE
  5
2D9F
330
1A
100
AcDbEntity
  8
SEIHIN
 62
     3
 48
10.0
100
AcDbPolyline
 90
        8
 70
   128
 43
0.0
 10
595.6981169456644
 20
243.6331123330925
 10
596.2198373871338
 20
242.0847170066596
 10
596.9476240758876
 20
240.6211587737984
 10
598.111705522323
 20
238.9744996476397
 10
599.5350613414807
 20
237.5442108620751
 10
601.1806575041155
 20
236.3742271163864
 10
602.9990190616794
 20
235.4939113451407
 10
604.2808361911447
 20
235.0830529255374
  0
LWPOLYLINE
  5
2DA0
330
1A
100
AcDbEntity
  8
SEIHIN
 62
     3
 48
10.0
100
AcDbPolyline
 90
        9
 70
   128
 43
0.0
 10
595.4649812933775
 20
240.6982332558835
 10
595.9759125221299
 20
239.2925545251006
 10
596.6589666643371
 20
237.9613965518072
 10
597.503461001157
 20
236.7255781635103
 10
598.496187947703
 20
235.6044271112145
 10
599.62162161488
 20
234.6154777904126
 10
600.8621606286531
 20
233.7741970095042
 10
602.1984034091491
 20
233.0937420945276
 10
603.609451604322
 20
232.584755113355
  0
LINE
  5
2DA1
330
1A
100
AcDbEntity
  8
SEIHIN
 62
     3
 48
10.0
100
AcDbLine
 10
595.463475462403
 20
240.7032866550633
 30
0.0
 11
595.4649812933775
 21
240.6982332558835
 31
0.0
  0
LWPOLYLINE
  5
2DA2
330
1A
100
AcDbEntity
  8
SEIHIN
 62
     3
 48
10.0
100
AcDbPolyline
 90
        5
 70
   128
 43
0.0
 10
594.3625979855496
 20
238.9297517455334
 10
594.1923871000859
 20
239.2178699050517
 10
593.93602456524
 20
239.4336122574364
 10
593.6225227091177
 20
239.5526050859209
 10
593.428436188444
 20
239.5715519260193
  0
LINE
  5
2DA3
330
1A
100
AcDbEntity
  8
SEIHIN
 62
     3
 48
10.0
100
AcDbLine
 10
594.2993582979076
 20
239.0367983798439
 30
0.0
 11
594.6034909724288
 21
238.3408272338925
 31
0.0
  0
LINE
  5
2DA4
330
1A
100
AcDbEntity
  8
SEIHIN
 62
     3
 48
10.0
100
AcDbLine
 10
594.5054899347685
 20
241.4144669441475
 30
0.0
 11
594.5110542591287
 21
241.4144335054205
 31
0.0
  0
LWPOLYLINE
  5
2DA5
330
1A
100
AcDbEntity
  8
SEIHIN
 62
     3
 48
10.0
100
AcDbPolyline
 90
        5
 70
   128
 43
0.0
 10
594.141771717424
 20
240.567746624111
 10
594.4706052476511
 20
240.5121629558991
 10
594.7623998968585
 20
240.3510699825061
 10
594.9830252422262
 20
240.1037734023086
 10
595.086056143899
 20
239.8829489699835
  0
LWPOLYLINE
  5
2DA6
330
1A
100
AcDbEntity
  8
SEIHIN
 62
     3
 48
10.0
100
AcDbPolyline
 90
        5
 70
   128
 43
0.0
 10
594.5110542591287
 20
241.4144335054205
 10
594.7721156753367
 20
241.3769851125304
 10
595.0754013819132
 20
241.2346001942414
 10
595.3149363300386
 20
241.0012532860363
 10
595.463475462403
 20
240.7032866550633
  0
LWPOLYLINE
  5
2DA7
330
1A
100
AcDbEntity
  8
SEIHIN
 62
     3
 48
10.0
100
AcDbPolyline
 90
        5
 70
   128
 43
0.0
 10
595.698116945663
 20
243.6331123330977
 10
595.5600139532505
 20
243.9380589386487
 10
595.3283608770025
 20
244.1802718161179
 10
595.0293542086297
 20
244.3323734642216
 10
594.7307068875629
 20
244.3778525442509
  0
LWPOLYLINE
  5
2DA8
330
1A
100
AcDbEntity
  8
SEIHIN
 62
     3
 48
10.0
100
AcDbPolyline
 90
       10
 70
   128
 43
0.0
 10
599.5740248196325
 20
246.9569131154122
 10
599.66069723738
 20
246.338023293423
 10
600.0357620530007
 20
244.8968198547732
 10
600.657235700733
 20
243.5190096338046
 10
601.5005858113884
 20
242.2636929780821
 10
602.5448312119659
 20
241.1684800410673
 10
603.7577446971241
 20
240.2620184385781
 10
605.1070311030262
 20
239.5728797361436
 10
606.5527611681045
 20
239.1174698563687
 10
607.6274740228981
 20
238.9438179838815
  0
LWPOLYLINE
  5
2DA9
330
1A
100
AcDbEntity
  8
SEIHIN
 62
     3
 48
10.0
100
AcDbPolyline
 90
       10
 70
   128
 43
0.0
 10
599.6236645039994
 20
245.6920712409734
 10
599.8985497437375
 20
244.4482267272224
 10
600.3475829510894
 20
243.2557344281939
 10
600.961702783607
 20
242.1386584463012
 10
601.7285165050386
 20
241.1195410074806
 10
602.6325500666711
 20
240.218947566485
 10
603.6555603685455
 20
239.4550518027712
 10
604.7769033992126
 20
238.8432688816242
 10
605.9739508250951
 20
238.3959443811928
 10
607.222546622818
 20
238.1221051627821
  0
LWPOLYLINE
  5
2DAA
330
1A
100
AcDbEntity
  8
SEIHIN
 62
     3
 48
10.0
100
AcDbPolyline
 90
        5
 70
   128
 43
0.0
 10
605.0284211889183
 20
234.1193241547769
 10
604.9720722301546
 20
234.448948313248
 10
604.8093747158154
 20
234.7414101499257
 10
604.5586776916581
 20
234.9637515462497
 10
604.2808361911466
 20
235.0830529255369
  0
LINE
  5
2DAB
330
1A
100
AcDbEntity
  8
SEIHIN
 62
     3
 48
10.0
100
AcDbLine
 10
604.3284014428896
 20
231.6344442916316
 30
0.0
 11
604.3284211889183
 21
231.6289149090438
 31
0.0
  0
LWPOLYLINE
  5
2DAC
330
1A
100
AcDbEntity
  8
SEIHIN
 62
     3
 48
10.0
100
AcDbPolyline
 90
        5
 70
   128
 43
0.0
 10
603.6145365259406
 20
232.5832428397452
 10
603.8544929700123
 20
232.4746314360569
 10
604.105755886746
 20
232.2531541538374
 10
604.269963005075
 20
231.9620317472832
 10
604.3284014428896
 20
231.6344442916316
  0
LINE
  5
2DAD
330
1A
100
AcDbEntity
  8
SEIHIN
 62
     3
 48
10.0
100
AcDbLine
 10
603.609451604322
 20
232.584755113355
 30
0.0
 11
603.6145365259406
 21
232.5832428397452
 31
0.0
  0
LWPOLYLINE
  5
2DAE
330
1A
100
AcDbEntity
  8
SEIHIN
 62
     3
 48
10.0
100
AcDbPolyline
 90
        6
 70
   128
 43
0.0
 10
608.5284211889184
 20
237.9523797465489
 10
608.4720647140589
 20
238.2819405787139
 10
608.3094027765305
 20
238.5743435876328
 10
608.0586695908245
 20
238.7968262258345
 10
607.747875649491
 20
238.9243166528811
 10
607.6274740228986
 20
238.9438179838815
  0
LWPOLYLINE
  5
2DAF
330
1A
100
AcDbEntity
  8
SEIHIN
 62
     3
 48
10.0
100
AcDbPolyline
 90
        6
 70
   128
 43
0.0
 10
607.222546622818
 20
238.1221051627821
 10
607.5424374751051
 20
238.0185269369997
 10
607.8098747750522
 20
237.8152888687055
 10
607.9945439244696
 20
237.5354103880161
 10
608.0756178324937
 20
237.2107083333646
 10
608.0784211889182
 20
237.1362032933229
  0
LWPOLYLINE
  5
2DB0
330
1A
100
AcDbEntity
  8
SEIHIN
 62
     3
 48
10.0
100
AcDbPolyline
 90
        6
 70
   128
 43
0.0
 10
598.6339966495652
 20
246.5446889459541
 10
598.9648199568878
 20
246.4885460678813
 10
599.2583430597947
 20
246.3265013764501
 10
599.4816796357395
 20
246.0767184778177
 10
599.6096596044227
 20
245.7671017157069
 10
599.6236645039994
 20
245.6920712409734
  0
LWPOLYLINE
  5
2DB1
330
1A
100
AcDbEntity
  8
SEIHIN
 62
     3
 48
10.0
100
AcDbPolyline
 90
        6
 70
   128
 43
0.0
 10
599.5740248196351
 20
246.9569131153837
 10
599.4835964039142
 20
247.2853893237041
 10
599.289374491796
 20
247.565370897636
 10
599.0142352710599
 20
247.7637202937017
 10
598.6914641636188
 20
247.8580663962393
 10
598.57840412899
 20
247.864533987572
  0
LINE
  5
2DB2
330
1A
100
AcDbEntity
  8
SEIHIN
 62
     3
 48
10.0
100
AcDbLine
 10
613.9784211889181
 20
282.8645339875722
 30
0.0
 11
612.978421188918
 21
282.8645339875722
 31
0.0
  0
LINE
  5
3004
330
1A
100
AcDbEntity
  8
SEIHIN
 62
     3
 48
10.0
100
AcDbLine
 10
240.2194416843772
 20
185.8585272205082
 30
0.0
 11
240.2194854829033
 21
185.8591332529981
 31
0.0
  0
LINE
  5
3005
330
1A
100
AcDbEntity
  8
SEIHIN
 62
     3
 48
10.0
100
AcDbLine
 10
241.2144512635413
 20
186.7551054227257
 30
0.0
 11
241.2144074765099
 21
186.7545298057943
 31
0.0
  0
LWPOLYLINE
  5
3006
330
1A
100
AcDbEntity
  8
SEIHIN
 62
     3
 48
10.0
100
AcDbPolyline
 90
       11
 70
   128
 43
0.0
 10
241.2144512635413
 20
186.7551054227257
 10
241.4228500260922
 20
187.9715287199725
 10
241.7969398350328
 20
189.1479239014065
 10
242.3296340365204
 20
190.262005662178
 10
243.0108414189798
 20
191.2926691456378
 10
243.8276573782236
 20
192.2203897479039
 10
244.7646083787041
 20
193.0275929865544
 10
245.8039450798898
 20
193.6989874267611
 10
246.9259785748608
 20
194.2218543579999
 10
248.1094533715161
 20
194.5862887337842
 10
249.3319500507336
 20
194.7853868101255
  0
LINE
  5
300A
330
1A
100
AcDbEntity
  8
SEIHIN
 62
     3
 48
10.0
100
AcDbLine
 10
194.5864564984096
 20
185.8585272205082
 30
0.0
 11
194.5864126998834
 21
185.8591332529981
 31
0.0
  0
LINE
  5
300B
330
1A
100
AcDbEntity
  8
SEIHIN
 62
     3
 48
10.0
100
AcDbLine
 10
193.5914469192455
 20
186.7551054227257
 30
0.0
 11
193.5914907062768
 21
186.7545298057943
 31
0.0
  0
LWPOLYLINE
  5
300C
330
1A
100
AcDbEntity
  8
SEIHIN
 62
     3
 48
10.0
100
AcDbPolyline
 90
       11
 70
   128
 43
0.0
 10
193.5914469192454
 20
186.7551054227257
 10
193.3830481566948
 20
187.9715287199725
 10
193.0089583477539
 20
189.1479239014065
 10
192.4762641462663
 20
190.262005662178
 10
191.7950567638069
 20
191.2926691456378
 10
190.9782408045632
 20
192.2203897479039
 10
190.0412898040826
 20
193.0275929865544
 10
189.0019531028971
 20
193.6989874267611
 10
187.8799196079259
 20
194.2218543579999
 10
186.6964448112707
 20
194.5862887337842
 10
185.4739481320533
 20
194.7853868101255
  0
LINE
  5
307E
330
1A
100
AcDbEntity
  8
SUNPOU
100
AcDbLine
 10
388.5152081388787
 20
213.7830906403636
 30
0.0
 11
388.5152081388789
 21
198.415917140259
 31
0.0
  0
ARC
  5
307F
330
1A
100
AcDbEntity
  8
SUNPOU
100
AcDbCircle
 10
388.5152081388789
 20
218.1172611736466
 30
0.0
 40
16.70134403338758
100
AcDbArc
 50
294.1936022896948
 51
330.8063977103052
  0
INSERT
  5
3080
330
1A
100
AcDbEntity
  8
SUNPOU
100
AcDbBlockReference
  2
_OPEN
 10
388.5152081388789
 20
201.4159171402591
 30
0.0
 41
7.0
 42
7.0
 43
7.0
 50
192.0968011448474
  0
INSERT
  5
3081
330
1A
100
AcDbEntity
  8
SUNPOU
100
AcDbBlockReference
  2
_OPEN
 10
405.1529985159458
 20
216.6616431295325
 30
0.0
 41
7.0
 42
7.0
 43
7.0
 50
72.90319885515265
  0
MTEXT
  5
3082
330
1A
100
AcDbEntity
  8
SUNPOU
100
AcDbMText
 10
398.6348819992999
 20
214.384420053692
 30
0.0
 40
6.0
 41
0.0
 71
     5
 72
     5
  1
\A1;85°
 11
0.6229465373719505
 21
0.7822644128274641
 31
0.0
1001
ACAD
1000
MTEXTBEGIN
1070
    73
1070
     1
1070
    44
1040
1.0
1070
    74
1070
     0
1000
MTEXTEND
1000
MTEXTBEGIN
1070
    73
1070
     1
1070
    44
1040
1.0
1070
    74
1070
     0
1000
MTEXTEND
1000
MTEXTBEGIN
1070
    73
1070
     1
1070
    44
1040
1.0
1070
    74
1070
     0
1000
MTEXTEND
1000
MTEXTBEGIN
1070
    73
1070
     1
1070
    44
1040
1.0
1070
    74
1070
     0
1000
MTEXTEND
1000
MTEXTBEGIN
1070
    73
1070
     1
1070
    44
1040
1.0
1070
    74
1070
     0
1000
MTEXTEND
1000
MTEXTBEGIN
1070
    73
1070
     1
1070
    44
1040
1.0
1070
    74
1070
     0
1000
MTEXTEND
1000
MTEXTBEGIN
1070
    73
1070
     1
1070
    44
1040
1.0
1070
    74
1070
     0
1000
MTEXTEND
1000
MTEXTBEGIN
1070
    73
1070
     1
1070
    44
1040
1.0
1070
    74
1070
     0
1000
MTEXTEND
1000
MTEXTBEGIN
1070
    73
1070
     1
1070
    44
1040
1.0
1070
    74
1070
     0
1000
MTEXTEND
1000
MTEXTBEGIN
1070
    73
1070
     1
1070
    44
1040
1.0
1070
    74
1070
     0
1000
MTEXTEND
1000
MTEXTBEGIN
1070
    73
1070
     1
1070
    44
1040
1.0
1070
    74
1070
     0
1000
MTEXTEND
  0
LINE
  5
30A3
330
1A
100
AcDbEntity
  8
CENTER_L
  6
CENTER
 48
5.0
100
AcDbLine
 10
217.4029490913935
 20
173.5709713856731
 30
0.0
 11
217.4029490913935
 21
293.6951017036993
 31
0.0
  0
LINE
  5
4B3B
330
1A
100
AcDbEntity
  8
SEIHIN
 62
     3
 48
10.0
100
AcDbLine
 10
431.0712812188856
 20
383.4641762504077
 30
0.0
 11
422.1083917931177
 21
383.0595023929239
 31
0.0
  0
LINE
  5
4B3C
330
1A
100
AcDbEntity
  8
SEIHIN
 62
     3
 48
10.0
100
AcDbLine
 10
430.0698560093069
 20
447.7093905315721
 30
0.0
 11
421.9716901577562
 21
448.0750221775756
 31
0.0
  0
LINE
  5
4B3D
330
1A
100
AcDbEntity
  8
SEIHIN
 62
     3
 48
10.0
100
AcDbLine
 10
421.9716901577562
 20
392.964193310336
 30
0.0
 11
431.8944170544372
 21
392.9086007897608
 31
0.0
  0
LINE
  5
4B3E
330
1A
100
AcDbEntity
  8
SEIHIN
 62
     3
 48
10.0
100
AcDbLine
 10
421.9716901577562
 20
438.1641591904792
 30
0.0
 11
431.8944170544372
 21
438.2197517110544
 31
0.0
  0
LWPOLYLINE
  5
4B47
330
1A
100
AcDbEntity
  8
SEIHIN
 62
     3
 48
10.0
100
AcDbPolyline
 90
        8
 70
   128
 43
0.0
 10
368.3889558592026
 20
393.4137092714468
 10
369.6605071257326
 20
393.6571271105314
 10
371.4392275710839
 20
393.8776474342319
 10
373.532051310445
 20
394.0557474868444
 10
375.9658392632978
 20
394.2031819924534
 10
378.6660502192138
 20
394.3143547005634
 10
381.5604404544836
 20
394.3873262025208
 10
383.918869644663
 20
394.4166709062301
  0
LWPOLYLINE
  5
4B48
330
1A
100
AcDbEntity
  8
SEIHIN
 62
     3
 48
10.0
100
AcDbPolyline
 90
        8
 70
   128
 43
0.0
 10
414.5669291369432
 20
394.613311890839
 10
414.6370500340001
 20
394.3752841300578
 10
414.7988223270241
 20
393.5739468175557
 10
414.9466873793226
 20
392.4743849841306
 10
415.0762228212277
 20
391.1038235497074
 10
415.1840314257135
 20
389.5046665994681
 10
415.2667252811483
 20
387.7194070214864
 10
415.3223224411275
 20
385.8009545069958
  0
LWPOLYLINE
  5
4B49
330
1A
100
AcDbEntity
  8
SEIHIN
 62
     3
 48
10.0
100
AcDbPolyline
 90
        9
 70
   128
 43
0.0
 10
419.3329871609326
 20
397.9487732618997
 10
419.2267673706571
 20
397.3454555001524
 10
419.1258938173523
 20
396.6314898558968
 10
419.0312395579055
 20
395.8130556754802
 10
418.9436238214454
 20
394.8972364765825
 10
418.8638049189429
 20
393.8919586406299
 10
418.7924736800586
 20
392.8059228102573
 10
418.7302474740373
 20
391.6485285855656
 10
418.6776648663991
 20
390.4297931709296
  0
LWPOLYLINE
  5
4B4A
330
1A
100
AcDbEntity
  8
SEIHIN
 62
     3
 48
10.0
100
AcDbPolyline
 90
        9
 70
   128
 43
0.0
 10
415.6070978038736
 20
390.4297931709298
 10
415.5545151962358
 20
391.6485285855657
 10
415.4922889902143
 20
392.8059228102573
 10
415.4209577513299
 20
393.8919586406301
 10
415.3411388488276
 20
394.8972364765825
 10
415.2535231123674
 20
395.8130556754804
 10
415.1588688529207
 20
396.631489855897
 10
415.0579952996158
 20
397.3454555001527
 10
414.9517755093404
 20
397.9487732618999
  0
LINE
  5
4B4C
330
1A
100
AcDbEntity
  8
SEIHIN
 62
     3
 48
10.0
100
AcDbLine
 10
419.9716901577564
 20
380.5641762504076
 30
0.0
 11
419.9716901577564
 21
450.5641762504074
 31
0.0
  0
LINE
  5
4B4D
330
1A
100
AcDbEntity
  8
SEIHIN
 62
     3
 48
10.0
100
AcDbLine
 10
347.6716901577562
 20
388.6126860660442
 30
0.0
 11
347.6716901577562
 21
442.5156664347707
 31
0.0
  0
LINE
  5
4B4E
330
1A
100
AcDbEntity
  8
SEIHIN
 62
     3
 48
10.0
100
AcDbLine
 10
421.9716901577562
 20
378.5641762504076
 30
0.0
 11
421.9716901577562
 21
452.5641762504076
 31
0.0
  0
LINE
  5
4B4F
330
1A
100
AcDbEntity
  8
SEIHIN
 62
     3
 48
10.0
100
AcDbLine
 10
345.6716901577562
 20
386.883194499568
 30
0.0
 11
345.6716901577562
 21
444.2451580012471
 31
0.0
  0
LINE
  5
4B53
330
1A
100
AcDbEntity
  8
SEIHIN
 62
     3
 48
10.0
100
AcDbLine
 10
347.6729180872007
 20
388.5631446583307
 30
0.0
 11
368.1611530266591
 21
393.3570283777358
 31
0.0
  0
LINE
  5
4B55
330
1A
100
AcDbEntity
  8
SEIHIN
 62
     3
 48
10.0
100
AcDbLine
 10
356.6930763027534
 20
380.2407504404425
 30
0.0
 11
376.4990859270919
 21
384.8750055319776
 31
0.0
  0
LINE
  5
4B56
330
1A
100
AcDbEntity
  8
SEIHIN
 62
     3
 48
10.0
100
AcDbLine
 10
418.9716901577564
 20
379.5641762504074
 30
0.0
 11
357.6393298340274
 21
379.5641762504074
 31
0.0
  0
LINE
  5
4B57
330
1A
100
AcDbEntity
  8
SEIHIN
 62
     3
 48
10.0
100
AcDbLine
 10
420.9716901577563
 20
377.5641762504074
 30
0.0
 11
356.0587261200016
 21
377.5641762504074
 31
0.0
  0
LWPOLYLINE
  5
4B58
330
1A
100
AcDbEntity
  8
SEIHIN
 62
     3
 48
10.0
100
AcDbPolyline
 90
        7
 70
   128
 43
0.0
 10
355.0705996371878
 20
378.4105336327452
 10
354.4251335358671
 20
380.5914279913465
 10
353.2297301344134
 20
382.5274098122498
 10
351.5817083718336
 20
384.0893107646768
 10
350.0486769191197
 20
384.9981946298759
 10
348.3628374217557
 20
385.60307257433
 10
346.6036259357113
 20
385.8855135577445
  0
LWPOLYLINE
  5
4B59
330
1A
100
AcDbEntity
  8
SEIHIN
 62
     3
 48
10.0
100
AcDbPolyline
 90
        7
 70
   128
 43
0.0
 10
356.685452543589
 20
380.2639794569767
 10
355.6152570375046
 20
382.6126989694273
 10
354.5624859399426
 20
384.0475381058643
 10
353.2901949290944
 20
385.2921674029729
 10
351.7962161424244
 20
386.3358156620865
 10
350.1539869610814
 20
387.1265884601079
 10
348.4578380350634
 20
387.6358200211744
  0
ARC
  5
4B5A
330
1A
100
AcDbEntity
  8
SEIHIN
 62
     3
 48
10.0
100
AcDbCircle
 10
356.0587261200016
 20
378.5641762504076
 30
0.0
 40
1.00000000000018
100
AcDbArc
 50
188.8380810150989
 51
270.0
  0
ARC
  5
4B5B
330
1A
100
AcDbEntity
  8
SEIHIN
 62
     3
 48
10.0
100
AcDbCircle
 10
357.6393298340274
 20
380.5641762504074
 30
0.0
 40
1.000000000000007
100
AcDbArc
 50
197.4694233726976
 51
270.0
  0
ARC
  5
4B5E
330
1A
100
AcDbEntity
  8
SEIHIN
 62
     3
 48
10.0
100
AcDbCircle
 10
348.6716901577562
 20
388.6126860660442
 30
0.0
 40
1.000000000000019
100
AcDbArc
 50
180.0
 51
257.6518074150524
  0
ARC
  5
4B5F
330
1A
100
AcDbEntity
  8
SEIHIN
 62
     3
 48
10.0
100
AcDbCircle
 10
346.6716901577562
 20
386.883194499568
 30
0.0
 40
1.000000000000059
100
AcDbArc
 50
180.0
 51
266.097189926433
  0
LINE
  5
4B62
330
1A
100
AcDbEntity
  8
SEIHIN
 62
     3
 48
10.0
100
AcDbLine
 10
384.6938928501625
 20
385.3705278010199
 30
0.0
 11
414.242933280873
 21
385.5670692498187
 31
0.0
  0
ARC
  5
4B65
330
1A
100
AcDbEntity
  8
SEIHIN
 62
     3
 48
10.0
100
AcDbCircle
 10
383.9391697830576
 20
415.5641762504076
 30
0.0
 40
33.05000000000005
100
AcDbArc
 50
256.6744610130704
 51
282.9072991269336
  0
ARC
  5
4B66
330
1A
100
AcDbEntity
  8
SEIHIN
 62
     3
 48
10.0
100
AcDbCircle
 10
392.3216901577562
 20
380.5641762504076
 30
0.0
 40
1.00000000000009
100
AcDbArc
 50
180.0
 51
269.9999999999918
  0
LINE
  5
4B6F
330
1A
100
AcDbEntity
  8
SEIHIN
 62
     3
 48
10.0
100
AcDbLine
 10
376.3216901577561
 20
382.3771832537812
 30
0.0
 11
376.3216901577561
 21
383.4040067210328
 31
0.0
  0
LINE
  5
4B70
330
1A
100
AcDbEntity
  8
SEIHIN
 62
     3
 48
10.0
100
AcDbLine
 10
376.3216901577561
 20
382.3771832537812
 30
0.0
 11
376.3216901577561
 21
380.5641762504076
 31
0.0
  0
ARC
  5
4B71
330
1A
100
AcDbEntity
  8
SEIHIN
 62
     3
 48
10.0
100
AcDbCircle
 10
375.3216901577561
 20
380.5641762504076
 30
0.0
 40
1.00000000000009
100
AcDbArc
 50
270.000000000008
 51
0.0
  0
LWPOLYLINE
  5
4B72
330
1A
100
AcDbEntity
  8
SEIHIN
 62
     3
 48
10.0
100
AcDbPolyline
 90
       11
 70
   128
 43
0.0
 10
376.4990859270919
 20
384.8750055319776
 10
376.4991044266913
 20
384.8750098369376
 10
376.8971479780524
 20
384.9517738359496
 10
377.6799265339353
 20
385.0573254116154
 10
378.6795345259658
 20
385.1515183213669
 10
379.9617970654999
 20
385.2361734328657
 10
381.4228605691741
 20
385.302511396718
 10
382.7122964731141
 20
385.3406650217703
 10
384.0621319021713
 20
385.3645018981852
 10
384.6938330792159
 20
385.3705274249784
 10
384.6938928501625
 20
385.3705278010199
  0
LINE
  5
4B78
330
1A
100
AcDbEntity
  8
SEIHIN
 62
     3
 48
10.0
100
AcDbLine
 10
391.3216901577563
 20
383.3492590082794
 30
0.0
 11
391.3216901577563
 21
382.3241267179962
 31
0.0
  0
LINE
  5
4B79
330
1A
100
AcDbEntity
  8
SEIHIN
 62
     3
 48
10.0
100
AcDbLine
 10
391.3216901577563
 20
382.3241267179962
 30
0.0
 11
391.3216901577563
 21
380.5641762504076
 31
0.0
  0
LINE
  5
4B7B
330
1A
100
AcDbEntity
  8
SEIHIN
 62
     3
 48
10.0
100
AcDbLine
 10
415.3223224411275
 20
385.8009545069957
 30
0.0
 11
419.9716683313718
 21
381.7607898685744
 31
0.0
  0
ARC
  5
4B80
330
1A
100
AcDbEntity
  8
SEIHIN
 62
     3
 48
10.0
100
AcDbCircle
 10
418.9716901577564
 20
380.5641762504076
 30
0.0
 40
1.0
100
AcDbArc
 50
270.0
 51
0.0
  0
ARC
  5
4B81
330
1A
100
AcDbEntity
  8
SEIHIN
 62
     3
 48
10.0
100
AcDbCircle
 10
420.9716901577563
 20
378.5641762504076
 30
0.0
 40
1.0
100
AcDbArc
 50
270.0
 51
0.0
  0
LINE
  5
4B83
330
1A
100
AcDbEntity
  8
SEIHIN
 62
     3
 48
10.0
100
AcDbLine
 10
418.5978904734379
 20
389.8316408741436
 30
0.0
 11
415.6868721968351
 21
389.8316408741438
 31
0.0
  0
LWPOLYLINE
  5
4B84
330
1A
100
AcDbEntity
  8
SEIHIN
 62
     3
 48
10.0
100
AcDbPolyline
 90
        9
 70
   128
 43
0.0
 10
414.242933280873
 20
385.5670692498187
 10
414.4387127270094
 20
385.5716250984412
 10
414.6301741009054
 20
385.5849766222768
 10
414.8099741138344
 20
385.6066117384313
 10
414.9712167356403
 20
385.6357006560108
 10
415.1077176843296
 20
385.6711277018319
 10
415.2142416173506
 20
385.7115341108293
 10
415.2867029273529
 20
385.7553701399834
 10
415.3223224411275
 20
385.8009545069957
  0
LWPOLYLINE
  5
4B88
330
1A
100
AcDbEntity
  8
SEIHIN
 62
     3
 48
10.0
100
AcDbPolyline
 90
        5
 70
   128
 43
0.0
 10
415.6868721968351
 20
389.8316408741438
 10
415.6580393123027
 20
389.8879669635404
 10
415.6324569269179
 20
390.0506352734265
 10
415.6130157119657
 20
390.3012297406418
 10
415.6070978038736
 20
390.4297931709298
  0
LWPOLYLINE
  5
4B89
330
1A
100
AcDbEntity
  8
SEIHIN
 62
     3
 48
10.0
100
AcDbPolyline
 90
        5
 70
   128
 43
0.0
 10
418.6776648663991
 20
390.4297931709296
 10
418.6615928320136
 20
390.1494199838797
 10
418.6383372610141
 20
389.9458989101995
 10
418.6105287349112
 20
389.8422125088043
 10
418.5978904734379
 20
389.8316408741436
  0
LINE
  5
4B8A
330
1A
100
AcDbEntity
  8
SEIHIN
 62
     3
 48
10.0
100
AcDbLine
 10
421.9716901577562
 20
383.0533229714897
 30
0.0
 11
422.1119587657104
 21
383.0596561763048
 31
0.0
  0
LINE
  5
4B8E
330
1A
100
AcDbEntity
  8
SEIHIN
 62
     3
 48
10.0
100
AcDbLine
 10
347.6729180872007
 20
442.5652078424847
 30
0.0
 11
368.1611530266591
 21
437.7713241230797
 31
0.0
  0
LINE
  5
4B8F
330
1A
100
AcDbEntity
  8
SEIHIN
 62
     3
 48
10.0
100
AcDbLine
 10
356.6930763027534
 20
450.8876020603725
 30
0.0
 11
376.4990859270919
 21
446.253346968838
 31
0.0
  0
LINE
  5
4B91
330
1A
100
AcDbEntity
  8
SEIHIN
 62
     3
 48
10.0
100
AcDbLine
 10
420.9716901577563
 20
453.5641762504076
 30
0.0
 11
356.0587261200016
 21
453.5641762504076
 31
0.0
  0
LINE
  5
4B92
330
1A
100
AcDbEntity
  8
SEIHIN
 62
     3
 48
10.0
100
AcDbLine
 10
418.9716901577564
 20
451.5641762504074
 30
0.0
 11
357.6393298340274
 21
451.5641762504074
 31
0.0
  0
ARC
  5
4B94
330
1A
100
AcDbEntity
  8
SEIHIN
 62
     3
 48
10.0
100
AcDbCircle
 10
383.9391697830576
 20
415.5641762504076
 30
0.0
 40
33.04999999999999
100
AcDbArc
 50
166.8836698654557
 51
193.1163301345441
  0
LINE
  5
4B98
330
1A
100
AcDbEntity
  8
SEIHIN
 62
     3
 48
10.0
100
AcDbLine
 10
348.6716901577562
 20
408.0641762504076
 30
0.0
 11
350.7254301562104
 21
408.0641762504076
 31
0.0
  0
ARC
  5
4B99
330
1A
100
AcDbEntity
  8
SEIHIN
 62
     3
 48
10.0
100
AcDbCircle
 10
348.6716901577564
 20
407.0641762504074
 30
0.0
 40
1.000000000000272
100
AcDbArc
 50
90.00000000001628
 51
180.0
  0
LINE
  5
4B9A
330
1A
100
AcDbEntity
  8
SEIHIN
 62
     3
 48
10.0
100
AcDbLine
 10
351.7514003667094
 20
408.0641762504076
 30
0.0
 11
350.7254301562104
 21
408.0641762504076
 31
0.0
  0
LINE
  5
4B9C
330
1A
100
AcDbEntity
  8
SEIHIN
 62
     3
 48
10.0
100
AcDbLine
 10
348.6716901577562
 20
423.0641762504076
 30
0.0
 11
350.7254301562104
 21
423.0641762504076
 31
0.0
  0
ARC
  5
4B9D
330
1A
100
AcDbEntity
  8
SEIHIN
 62
     3
 48
10.0
100
AcDbCircle
 10
348.6716901577564
 20
424.0641762504077
 30
0.0
 40
1.000000000000272
100
AcDbArc
 50
180.0
 51
269.9999999999918
  0
LINE
  5
4B9E
330
1A
100
AcDbEntity
  8
SEIHIN
 62
     3
 48
10.0
100
AcDbLine
 10
351.7514003667094
 20
423.0641762504076
 30
0.0
 11
350.7254301562104
 21
423.0641762504076
 31
0.0
  0
LWPOLYLINE
  5
4B9F
330
1A
100
AcDbEntity
  8
SEIHIN
 62
     3
 48
10.0
100
AcDbPolyline
 90
        7
 70
   128
 43
0.0
 10
355.0705996371878
 20
452.7178188680697
 10
354.4251335358671
 20
450.5369245094684
 10
353.2297301344134
 20
448.6009426885651
 10
351.5817083718336
 20
447.0390417361381
 10
350.0486769191197
 20
446.1301578709393
 10
348.3628374217557
 20
445.5252799264849
 10
346.6036259357113
 20
445.2428389430703
  0
LWPOLYLINE
  5
4BA0
330
1A
100
AcDbEntity
  8
SEIHIN
 62
     3
 48
10.0
100
AcDbPolyline
 90
        7
 70
   128
 43
0.0
 10
356.685452543589
 20
450.8643730438381
 10
355.6152570375046
 20
448.5156535313876
 10
354.5624859399426
 20
447.0808143949506
 10
353.2901949290944
 20
445.8361850978421
 10
351.7962161424244
 20
444.7925368387284
 10
350.1539869610814
 20
444.001764040707
 10
348.4578380350634
 20
443.4925324796407
  0
ARC
  5
4BA2
330
1A
100
AcDbEntity
  8
SEIHIN
 62
     3
 48
10.0
100
AcDbCircle
 10
348.6716901577562
 20
442.5156664347707
 30
0.0
 40
1.000000000000019
100
AcDbArc
 50
102.3481925849474
 51
180.0
  0
ARC
  5
4BA3
330
1A
100
AcDbEntity
  8
SEIHIN
 62
     3
 48
10.0
100
AcDbCircle
 10
346.6716901577562
 20
444.2451580012471
 30
0.0
 40
1.0
100
AcDbArc
 50
93.90281007356687
 51
180.0
  0
ARC
  5
4BA4
330
1A
100
AcDbEntity
  8
SEIHIN
 62
     3
 48
10.0
100
AcDbCircle
 10
357.6393298340274
 20
450.5641762504076
 30
0.0
 40
1.000000000000007
100
AcDbArc
 50
90.0
 51
162.5305766273021
  0
ARC
  5
4BA5
330
1A
100
AcDbEntity
  8
SEIHIN
 62
     3
 48
10.0
100
AcDbCircle
 10
356.0587261200016
 20
452.5641762504074
 30
0.0
 40
1.00000000000009
100
AcDbArc
 50
90.0
 51
171.1619189849423
  0
LWPOLYLINE
  5
4BA9
330
1A
100
AcDbEntity
  8
SEIHIN
 62
     3
 48
10.0
100
AcDbPolyline
 90
        8
 70
   128
 43
0.0
 10
414.5669291369432
 20
436.5150406099767
 10
414.6370500340001
 20
436.7530683707579
 10
414.7988223270241
 20
437.5544056832599
 10
414.9466873793226
 20
438.653967516685
 10
415.0762228212277
 20
440.0245289511083
 10
415.1840314257135
 20
441.6236859013475
 10
415.2667252811483
 20
443.4089454793293
 10
415.3223224411275
 20
445.3273979938199
  0
LWPOLYLINE
  5
4BAA
330
1A
100
AcDbEntity
  8
SEIHIN
 62
     3
 48
10.0
100
AcDbPolyline
 90
        5
 70
   128
 43
0.0
 10
415.6868721968351
 20
441.2967116266719
 10
415.6580393123027
 20
441.240385537275
 10
415.6324569269179
 20
441.0777172273889
 10
415.6130157119657
 20
440.8271227601736
 10
415.6070978038736
 20
440.6985593298857
  0
LWPOLYLINE
  5
4BAB
330
1A
100
AcDbEntity
  8
SEIHIN
 62
     3
 48
10.0
100
AcDbPolyline
 90
        5
 70
   128
 43
0.0
 10
418.6776648663991
 20
440.6985593298856
 10
418.6615928320136
 20
440.9789325169358
 10
418.6383372610141
 20
441.1824535906157
 10
418.6105287349112
 20
441.2861399920109
 10
418.5978904734379
 20
441.2967116266718
  0
LINE
  5
4BAD
330
1A
100
AcDbEntity
  8
SEIHIN
 62
     3
 48
10.0
100
AcDbLine
 10
383.9391697830576
 20
394.4168012479542
 30
0.0
 11
413.4835786961038
 21
394.6133118908392
 31
0.0
  0
LINE
  5
4BAE
330
1A
100
AcDbEntity
  8
SEIHIN
 62
     3
 48
10.0
100
AcDbLine
 10
383.9391697830576
 20
436.7115512528616
 30
0.0
 11
413.4835786961038
 21
436.5150406099766
 31
0.0
  0
LWPOLYLINE
  5
4BB3
330
1A
100
AcDbEntity
  8
SEIHIN
 62
     3
 48
10.0
100
AcDbPolyline
 90
        8
 70
   128
 43
0.0
 10
368.3889558592026
 20
437.7146432293687
 10
369.6605071257326
 20
437.4712253902843
 10
371.4392275710839
 20
437.2507050665839
 10
373.532051310445
 20
437.0726050139713
 10
375.9658392632978
 20
436.9251705083621
 10
378.6660502192138
 20
436.8139978002522
 10
381.5604404544836
 20
436.7410262982949
 10
383.918869644663
 20
436.7116815945856
  0
ARC
  5
4BBF
330
1A
100
AcDbEntity
  8
SEIHIN
 62
     3
 48
10.0
100
AcDbCircle
 10
384.5716901577562
 20
415.5641762504076
 30
0.0
 40
29.99999999999996
100
AcDbArc
 50
3.344152204460712
 51
12.1034488707516
  0
ARC
  5
4BC1
330
1A
100
AcDbEntity
  8
SEIHIN
 62
     3
 48
10.0
100
AcDbCircle
 10
383.9391697830576
 20
415.5641762504076
 30
0.0
 40
33.04999999999994
100
AcDbArc
 50
346.8836698654557
 51
13.11633013454423
  0
LINE
  5
4BC4
330
1A
100
AcDbEntity
  8
SEIHIN
 62
     3
 48
10.0
100
AcDbLine
 10
414.5669291369432
 20
408.1153006101145
 30
0.0
 11
414.5669291369432
 21
394.613311890839
 31
0.0
  0
LINE
  5
4BC5
330
1A
100
AcDbEntity
  8
SEIHIN
 62
     3
 48
10.0
100
AcDbLine
 10
414.8996431016376
 20
398.8640817710848
 30
0.0
 11
414.8996431016376
 21
408.0641762504076
 31
0.0
  0
LINE
  5
4BC6
330
1A
100
AcDbEntity
  8
SEIHIN
 62
     3
 48
10.0
100
AcDbLine
 10
419.3851195686352
 20
407.9747124233411
 30
0.0
 11
419.3851195686352
 21
398.8640817710845
 31
0.0
  0
LINE
  5
4BC8
330
1A
100
AcDbEntity
  8
SEIHIN
 62
     3
 48
10.0
100
AcDbLine
 10
419.3170989854424
 20
397.8445783455383
 30
0.0
 11
414.9517755093404
 21
397.9487732618999
 31
0.0
  0
LINE
  5
4BC9
330
1A
100
AcDbEntity
  8
SEIHIN
 62
     3
 48
10.0
100
AcDbLine
 10
414.5669291369432
 20
394.613311890839
 30
0.0
 11
413.4835786961038
 21
394.6133118908392
 31
0.0
  0
LWPOLYLINE
  5
4BCA
330
1A
100
AcDbEntity
  8
SEIHIN
 62
     3
 48
10.0
100
AcDbPolyline
 90
        5
 70
   128
 43
0.0
 10
414.9517755093404
 20
397.9487732618999
 10
414.9273393759765
 20
398.1331791757129
 10
414.909601345635
 20
398.4000069287283
 10
414.9005644803087
 20
398.7190739830169
 10
414.8996431016376
 20
398.8640817710848
  0
LWPOLYLINE
  5
4BCB
330
1A
100
AcDbEntity
  8
SEIHIN
 62
     3
 48
10.0
100
AcDbPolyline
 90
        5
 70
   128
 43
0.0
 10
419.3851195686352
 20
398.8640817710845
 10
419.3802104264777
 20
398.5332615219162
 10
419.3660329491081
 20
398.2397365678709
 10
419.3441922021895
 20
398.0166736423621
 10
419.3329871609326
 20
397.9487732618997
  0
LINE
  5
4BCD
330
1A
100
AcDbEntity
  8
SEIHIN
 62
     3
 48
10.0
100
AcDbLine
 10
414.8825792902116
 20
408.0641762504076
 30
0.0
 11
416.0668524947406
 21
408.0641762504076
 31
0.0
  0
LINE
  5
4BD0
330
1A
100
AcDbEntity
  8
SEIHIN
 62
     3
 48
10.0
100
AcDbLine
 10
415.562616249114
 20
416.3141762504077
 30
0.0
 11
416.9806588536186
 21
416.3141762504077
 31
0.0
  0
LINE
  5
4BD1
330
1A
100
AcDbEntity
  8
SEIHIN
 62
     3
 48
10.0
100
AcDbLine
 10
415.562616249114
 20
414.8141762504074
 30
0.0
 11
416.9806588536186
 21
414.8141762504074
 31
0.0
  0
LINE
  5
4BD2
330
1A
100
AcDbEntity
  8
SEIHIN
 62
     3
 48
10.0
100
AcDbLine
 10
414.5669291369432
 20
416.0986279147031
 30
0.0
 11
414.5669291369432
 21
415.0297245861122
 31
0.0
  0
ARC
  5
4BD3
330
1A
100
AcDbEntity
  8
SEIHIN
 62
     3
 48
10.0
100
AcDbCircle
 10
384.5716901577562
 20
415.5641762504076
 30
0.0
 40
29.99999999999996
100
AcDbArc
 50
347.8965511292482
 51
356.6558477955391
  0
ARC
  5
4BD4
330
1A
100
AcDbEntity
  8
SEIHIN
 62
     3
 48
10.0
100
AcDbCircle
 10
414.8825792902116
 20
409.0641762504076
 30
0.0
 40
1.0
100
AcDbArc
 50
167.8965511292483
 51
270.0
  0
LWPOLYLINE
  5
4BD5
330
1A
100
AcDbEntity
  8
SEIHIN
 62
     3
 48
10.0
100
AcDbPolyline
 90
        6
 70
   128
 43
0.0
 10
414.5206049961941
 20
413.8141762504076
 10
414.5381133482809
 20
414.1452043809207
 10
414.5505860337759
 20
414.4390975621489
 10
414.5581308759481
 20
414.6623042781398
 10
414.5616950733236
 20
414.7898344884954
 10
414.5623136924544
 20
414.8141762504076
  0
LWPOLYLINE
  5
4BD6
330
1A
100
AcDbEntity
  8
SEIHIN
 62
     3
 48
10.0
100
AcDbPolyline
 90
        6
 70
   128
 43
0.0
 10
414.5206049961941
 20
417.3141762504076
 10
414.5381133482809
 20
416.9831481198945
 10
414.5505860337759
 20
416.6892549386663
 10
414.5581308759481
 20
416.4660482226755
 10
414.5616950733236
 20
416.3385180123199
 10
414.5623136924544
 20
416.3141762504077
  0
LINE
  5
4BD7
330
1A
100
AcDbEntity
  8
SEIHIN
 62
     3
 48
10.0
100
AcDbLine
 10
415.562616249114
 20
416.3141762504077
 30
0.0
 11
414.5623136924544
 21
416.3141762504077
 31
0.0
  0
LINE
  5
4BD8
330
1A
100
AcDbEntity
  8
SEIHIN
 62
     3
 48
10.0
100
AcDbLine
 10
415.562616249114
 20
414.8141762504074
 30
0.0
 11
414.5623136924544
 21
414.8141762504074
 31
0.0
  0
ARC
  5
4BDA
330
1A
100
AcDbEntity
  8
SEIHIN
 62
     3
 48
10.0
100
AcDbCircle
 10
384.5716901577562
 20
415.5641762504076
 30
0.0
 40
29.99999999999996
100
AcDbArc
 50
358.5674562624266
 51
1.432543737573354
  0
LINE
  5
4BDB
330
1A
100
AcDbEntity
  8
SEIHIN
 62
     3
 48
10.0
100
AcDbLine
 10
417.1529094099049
 20
408.0641762504076
 30
0.0
 11
418.9716901577564
 21
408.0641762504076
 31
0.0
  0
LINE
  5
4BDC
330
1A
100
AcDbEntity
  8
SEIHIN
 62
     3
 48
10.0
100
AcDbLine
 10
417.1529094099049
 20
408.0641762504076
 30
0.0
 11
416.1269391994058
 21
408.0641762504076
 31
0.0
  0
ARC
  5
4BDD
330
1A
100
AcDbEntity
  8
SEIHIN
 62
     3
 48
10.0
100
AcDbCircle
 10
418.971690157756
 20
407.0641762504074
 30
0.0
 40
1.00000000000018
100
AcDbArc
 50
0.0
 51
89.99999999998371
  0
LINE
  5
4BDE
330
1A
100
AcDbEntity
  8
SEIHIN
 62
     3
 48
10.0
100
AcDbLine
 10
414.5669291369432
 20
436.5150406099767
 30
0.0
 11
414.5669291369432
 21
423.0130518907007
 31
0.0
  0
LINE
  5
4BDF
330
1A
100
AcDbEntity
  8
SEIHIN
 62
     3
 48
10.0
100
AcDbLine
 10
414.8996431016376
 20
423.0641762504077
 30
0.0
 11
414.8996431016376
 21
432.2642707297308
 31
0.0
  0
LINE
  5
4BE0
330
1A
100
AcDbEntity
  8
SEIHIN
 62
     3
 48
10.0
100
AcDbLine
 10
419.3851195686352
 20
432.2642707297307
 30
0.0
 11
419.3851195686352
 21
423.1536400774741
 31
0.0
  0
LINE
  5
4BE2
330
1A
100
AcDbEntity
  8
SEIHIN
 62
     3
 48
10.0
100
AcDbLine
 10
414.8825792902116
 20
423.0641762504077
 30
0.0
 11
416.0668524947406
 21
423.0641762504077
 31
0.0
  0
ARC
  5
4BE3
330
1A
100
AcDbEntity
  8
SEIHIN
 62
     3
 48
10.0
100
AcDbCircle
 10
414.8825792902116
 20
422.0641762504077
 30
0.0
 40
1.0
100
AcDbArc
 50
90.0
 51
192.1034488707516
  0
LINE
  5
4BE5
330
1A
100
AcDbEntity
  8
SEIHIN
 62
     3
 48
10.0
100
AcDbLine
 10
417.1529094099049
 20
423.0641762504076
 30
0.0
 11
418.9716901577564
 21
423.0641762504076
 31
0.0
  0
LINE
  5
4BE6
330
1A
100
AcDbEntity
  8
SEIHIN
 62
     3
 48
10.0
100
AcDbLine
 10
417.1529094099049
 20
423.0641762504076
 30
0.0
 11
416.1269391994058
 21
423.0641762504076
 31
0.0
  0
ARC
  5
4BE7
330
1A
100
AcDbEntity
  8
SEIHIN
 62
     3
 48
10.0
100
AcDbCircle
 10
418.9716901577559
 20
424.0641762504077
 30
0.0
 40
1.000000000000272
100
AcDbArc
 50
270.0000000000162
 51
0.0
  0
LINE
  5
4BE9
330
1A
100
AcDbEntity
  8
SEIHIN
 62
     3
 48
10.0
100
AcDbLine
 10
419.3170989854422
 20
433.2837741552773
 30
0.0
 11
414.9517755093404
 21
433.1795792389157
 31
0.0
  0
LINE
  5
4BEA
330
1A
100
AcDbEntity
  8
SEIHIN
 62
     3
 48
10.0
100
AcDbLine
 10
414.5669291369432
 20
436.5150406099767
 30
0.0
 11
413.4835786961038
 21
436.5150406099766
 31
0.0
  0
LWPOLYLINE
  5
4BED
330
1A
100
AcDbEntity
  8
SEIHIN
 62
     3
 48
10.0
100
AcDbPolyline
 90
        5
 70
   128
 43
0.0
 10
414.9517755093404
 20
433.1795792389157
 10
414.9273393759765
 20
432.9951733251027
 10
414.909601345635
 20
432.7283455720873
 10
414.9005644803087
 20
432.4092785177987
 10
414.8996431016376
 20
432.2642707297308
  0
LWPOLYLINE
  5
4BEE
330
1A
100
AcDbEntity
  8
SEIHIN
 62
     3
 48
10.0
100
AcDbPolyline
 90
        9
 70
   128
 43
0.0
 10
415.6070978038736
 20
440.6985593298857
 10
415.5545151962358
 20
439.47982391525
 10
415.4922889902143
 20
438.3224296905583
 10
415.4209577513299
 20
437.2363938601855
 10
415.3411388488276
 20
436.2311160242329
 10
415.2535231123674
 20
435.3152968253352
 10
415.1588688529207
 20
434.4968626449188
 10
415.0579952996158
 20
433.7828970006629
 10
414.9517755093404
 20
433.1795792389157
  0
LWPOLYLINE
  5
4BEF
330
1A
100
AcDbEntity
  8
SEIHIN
 62
     3
 48
10.0
100
AcDbPolyline
 90
        9
 70
   128
 43
0.0
 10
419.3329871609326
 20
433.1795792389156
 10
419.2267673706571
 20
433.7828970006627
 10
419.1258938173523
 20
434.4968626449185
 10
419.0312395579055
 20
435.315296825335
 10
418.9436238214454
 20
436.2311160242328
 10
418.8638049189429
 20
437.2363938601854
 10
418.7924736800586
 20
438.3224296905581
 10
418.7302474740373
 20
439.4798239152497
 10
418.6776648663991
 20
440.6985593298856
  0
LWPOLYLINE
  5
4BF0
330
1A
100
AcDbEntity
  8
SEIHIN
 62
     3
 48
10.0
100
AcDbPolyline
 90
        5
 70
   128
 43
0.0
 10
419.3851195686352
 20
432.2642707297307
 10
419.3802104264777
 20
432.5950909788992
 10
419.3660329491081
 20
432.8886159329446
 10
419.3441922021895
 20
433.111678858453
 10
419.3329871609326
 20
433.1795792389156
  0
LINE
  5
4BF2
330
1A
100
AcDbEntity
  8
SEIHIN
 62
     3
 48
10.0
100
AcDbLine
 10
384.6938928501625
 20
445.7578246997958
 30
0.0
 11
414.242933280873
 21
445.5612832509969
 31
0.0
  0
ARC
  5
4BF4
330
1A
100
AcDbEntity
  8
SEIHIN
 62
     3
 48
10.0
100
AcDbCircle
 10
383.9391697830576
 20
415.5641762504076
 30
0.0
 40
33.04999999999996
100
AcDbArc
 50
77.09270087306622
 51
103.3255389869293
  0
ARC
  5
4BF7
330
1A
100
AcDbEntity
  8
SEIHIN
 62
     3
 48
10.0
100
AcDbCircle
 10
392.3216901577562
 20
450.5641762504074
 30
0.0
 40
1.00000000000009
100
AcDbArc
 50
90.00000000000813
 51
180.0
  0
LWPOLYLINE
  5
4BF9
330
1A
100
AcDbEntity
  8
SEIHIN
 62
     3
 48
10.0
100
AcDbPolyline
 90
       11
 70
   128
 43
0.0
 10
376.4990859270919
 20
446.253346968838
 10
376.4991044266913
 20
446.2533426638779
 10
376.8971479780524
 20
446.1765786648659
 10
377.6799265339353
 20
446.0710270892001
 10
378.6795345259658
 20
445.9768341794489
 10
379.9617970654999
 20
445.8921790679498
 10
381.4228605691741
 20
445.8258411040975
 10
382.7122964731141
 20
445.7876874790453
 10
384.0621319021713
 20
445.7638506026304
 10
384.6938330792159
 20
445.7578250758372
 10
384.6938928501625
 20
445.7578246997957
  0
LINE
  5
4BFC
330
1A
100
AcDbEntity
  8
SEIHIN
 62
     3
 48
10.0
100
AcDbLine
 10
376.3216901577561
 20
448.7511692470339
 30
0.0
 11
376.3216901577561
 21
450.5641762504076
 31
0.0
  0
LINE
  5
4BFD
330
1A
100
AcDbEntity
  8
SEIHIN
 62
     3
 48
10.0
100
AcDbLine
 10
376.3216901577561
 20
448.7511692470339
 30
0.0
 11
376.3216901577561
 21
447.7243457797823
 31
0.0
  0
ARC
  5
4BFE
330
1A
100
AcDbEntity
  8
SEIHIN
 62
     3
 48
10.0
100
AcDbCircle
 10
375.3216901577562
 20
450.5641762504076
 30
0.0
 40
1.0
100
AcDbArc
 50
0.0
 51
90.0
  0
LINE
  5
4C00
330
1A
100
AcDbEntity
  8
SEIHIN
 62
     3
 48
10.0
100
AcDbLine
 10
391.3216901577563
 20
448.8042257828189
 30
0.0
 11
391.3216901577563
 21
450.5641762504076
 31
0.0
  0
LINE
  5
4C01
330
1A
100
AcDbEntity
  8
SEIHIN
 62
     3
 48
10.0
100
AcDbLine
 10
391.3216901577563
 20
447.7790934925356
 30
0.0
 11
391.3216901577563
 21
448.8042257828189
 31
0.0
  0
LINE
  5
4C04
330
1A
100
AcDbEntity
  8
SEIHIN
 62
     3
 48
10.0
100
AcDbLine
 10
415.3223224411275
 20
445.3273979938199
 30
0.0
 11
419.9716683313718
 21
449.3675626322408
 31
0.0
  0
LINE
  5
4C05
330
1A
100
AcDbEntity
  8
SEIHIN
 62
     3
 48
10.0
100
AcDbLine
 10
418.5978904734379
 20
441.2967116266718
 30
0.0
 11
415.6868721968351
 21
441.2967116266719
 31
0.0
  0
LWPOLYLINE
  5
4C07
330
1A
100
AcDbEntity
  8
SEIHIN
 62
     3
 48
10.0
100
AcDbPolyline
 90
        9
 70
   128
 43
0.0
 10
414.242933280873
 20
445.5612832509969
 10
414.4387127270094
 20
445.5567274023746
 10
414.6301741009054
 20
445.5433758785389
 10
414.8099741138344
 20
445.5217407623845
 10
414.9712167356403
 20
445.4926518448048
 10
415.1077176843296
 20
445.4572247989838
 10
415.2142416173506
 20
445.4168183899865
 10
415.2867029273529
 20
445.3729823608323
 10
415.3223224411275
 20
445.3273979938199
  0
ARC
  5
4C0C
330
1A
100
AcDbEntity
  8
SEIHIN
 62
     3
 48
10.0
100
AcDbCircle
 10
418.9716901577564
 20
450.5641762504074
 30
0.0
 40
1.0
100
AcDbArc
 50
0.0
 51
90.0
  0
ARC
  5
4C0D
330
1A
100
AcDbEntity
  8
SEIHIN
 62
     3
 48
10.0
100
AcDbCircle
 10
420.9716901577563
 20
452.5641762504076
 30
0.0
 40
1.0
100
AcDbArc
 50
0.0
 51
90.0
  0
LWPOLYLINE
  5
4C0E
330
1A
100
AcDbEntity
  8
SEIHIN
 62
     3
 48
10.0
100
AcDbPolyline
 90
        9
 70
   128
 43
0.0
 10
451.3879870780494
 20
396.4565412954267
 10
451.2679867216281
 20
395.9202505741499
 10
451.1543402696116
 20
395.2252358158994
 10
451.048635734078
 20
394.3812086466042
 10
450.9523501525946
 20
393.3999628822163
 10
450.8668289491814
 20
392.2952097305842
 10
450.7932671343422
 20
391.0823862011035
 10
450.7326926068664
 20
389.7784393992807
 10
450.6859517907249
 20
388.401589720324
  0
LWPOLYLINE
  5
4C0F
330
1A
100
AcDbEntity
  8
SEIHIN
 62
     3
 48
10.0
100
AcDbPolyline
 90
        9
 70
   128
 43
0.0
 10
447.4440358604431
 20
396.0776161459484
 10
447.32105490694
 20
395.5666849171962
 10
447.2045936749147
 20
394.8836307749886
 10
447.0964735757617
 20
394.0391364381689
 10
446.9983855685858
 20
393.0464094916229
 10
446.9118637142139
 20
391.9209758244457
 10
446.8382611830421
 20
390.6804368106723
 10
446.7787290919412
 20
389.3441940301766
 10
446.7341985012065
 20
387.9331458350039
  0
LINE
  5
4C10
330
1A
100
AcDbEntity
  8
SEIHIN
 62
     3
 48
10.0
100
AcDbLine
 10
431.8944170544372
 20
438.2197517110544
 30
0.0
 11
431.8944170544372
 21
392.9086007897608
 31
0.0
  0
LINE
  5
4C11
330
1A
100
AcDbEntity
  8
SEIHIN
 62
     3
 48
10.0
100
AcDbLine
 10
446.6505733191869
 20
387.2141762504076
 30
0.0
 11
431.2290903032381
 21
386.7970804107793
 31
0.0
  0
LWPOLYLINE
  5
4C13
330
1A
100
AcDbEntity
  8
SEIHIN
 62
     3
 48
10.0
100
AcDbPolyline
 90
        6
 70
   128
 43
0.0
 10
431.1575364558123
 20
384.320050816508
 10
431.1484745352682
 20
384.0001599642207
 10
431.1306935082956
 20
383.7327226642735
 10
431.1062073140704
 20
383.5480535148564
 10
431.0777995652649
 20
383.4669796068322
 10
431.0712812188856
 20
383.4641762504077
  0
LWPOLYLINE
  5
4C14
330
1A
100
AcDbEntity
  8
SEIHIN
 62
     3
 48
10.0
100
AcDbPolyline
 90
        6
 70
   128
 43
0.0
 10
431.8944170544372
 20
392.9086007897608
 10
431.8895051890681
 20
392.577777482438
 10
431.8753281155832
 20
392.2842543795312
 10
431.8534749436103
 20
392.0609178035864
 10
431.826386986888
 20
391.932937834903
 10
431.8198226709299
 20
391.9189329353267
  0
LWPOLYLINE
  5
4C15
330
1A
100
AcDbEntity
  8
SEIHIN
 62
     3
 48
10.0
100
AcDbPolyline
 90
       10
 70
   128
 43
0.0
 10
431.8198226709299
 20
391.9189329353267
 10
431.7110003767878
 20
391.6440476955886
 10
431.606670819281
 20
391.1950144882364
 10
431.5089393345681
 20
390.5808946557189
 10
431.4197781118696
 20
389.8140809342876
 10
431.3409863953369
 20
388.9100473726547
 10
431.2741541758963
 20
387.8870370707803
 10
431.2206301057572
 20
386.7656940401132
 10
431.1814942830523
 20
385.5686466142309
 10
431.1575364558123
 20
384.320050816508
  0
LWPOLYLINE
  5
4C16
330
1A
100
AcDbEntity
  8
SEIHIN
 62
     3
 48
10.0
100
AcDbPolyline
 90
        3
 70
   128
 43
0.0
 10
450.6036519801702
 20
387.7141762504076
 10
448.5559980981054
 20
387.4551643968523
 10
446.6512156491208
 20
387.2141959964362
  0
LINE
  5
4C18
330
1A
100
AcDbEntity
  8
SEIHIN
 62
     3
 48
10.0
100
AcDbLine
 10
446.6512156491208
 20
387.2141959964362
 30
0.0
 11
446.650573319187
 21
387.2141762504076
 31
0.0
  0
LWPOLYLINE
  5
4C19
330
1A
100
AcDbEntity
  8
SEIHIN
 62
     3
 48
10.0
100
AcDbPolyline
 90
        5
 70
   128
 43
0.0
 10
446.7342063948646
 20
387.9280609133853
 10
446.7362114587589
 20
387.6881044693135
 10
446.7233047888189
 20
387.43684155258
 10
446.6940394286425
 20
387.272634434251
 10
446.6512156491208
 20
387.2141959964362
  0
LINE
  5
4C1A
330
1A
100
AcDbEntity
  8
SEIHIN
 62
     3
 48
10.0
100
AcDbLine
 10
446.7341985012065
 20
387.9331458350039
 30
0.0
 11
446.7342063948646
 21
387.9280609133853
 31
0.0
  0
LWPOLYLINE
  5
4C1B
330
1A
100
AcDbEntity
  8
SEIHIN
 62
     3
 48
10.0
100
AcDbPolyline
 90
        5
 70
   128
 43
0.0
 10
450.6859517907249
 20
388.401589720324
 10
450.6725187452893
 20
388.1058035898742
 10
450.6512931031285
 20
387.8778050376096
 10
450.6247961631349
 20
387.7441195611809
 10
450.6036519801702
 20
387.7141762504076
  0
LWPOLYLINE
  5
4C1C
330
1A
100
AcDbEntity
  8
SEIHIN
 62
     3
 48
10.0
100
AcDbPolyline
 90
        9
 70
   128
 43
0.0
 10
451.3879870780494
 20
434.6718112053887
 10
451.2679867216281
 20
435.2081019266655
 10
451.1543402696116
 20
435.9031166849161
 10
451.048635734078
 20
436.7471438542112
 10
450.9523501525946
 20
437.7283896185992
 10
450.8668289491814
 20
438.833142770231
 10
450.7932671343422
 20
440.0459662997119
 10
450.7326926068664
 20
441.3499131015347
 10
450.6859517907249
 20
442.7267627804913
  0
LWPOLYLINE
  5
4C1D
330
1A
100
AcDbEntity
  8
SEIHIN
 62
     3
 48
10.0
100
AcDbPolyline
 90
        9
 70
   128
 43
0.0
 10
447.4440358604431
 20
435.0507363548669
 10
447.32105490694
 20
435.5616675836191
 10
447.2045936749147
 20
436.2447217258267
 10
447.0964735757617
 20
437.0892160626463
 10
446.9983855685858
 20
438.0819430091925
 10
446.9118637142139
 20
439.2073766763696
 10
446.8382611830421
 20
440.4479156901429
 10
446.7787290919412
 20
441.7841584706387
 10
446.7341985012065
 20
443.1952066658114
  0
LWPOLYLINE
  5
4C1E
330
1A
100
AcDbEntity
  8
SEIHIN
 62
     3
 48
10.0
100
AcDbPolyline
 90
       10
 70
   128
 43
0.0
 10
431.8198226709299
 20
439.2094195654884
 10
431.7110003767878
 20
439.4843048052267
 10
431.606670819281
 20
439.9333380125789
 10
431.5089393345681
 20
440.5474578450964
 10
431.4197781118696
 20
441.3142715665276
 10
431.3409863953369
 20
442.2183051281606
 10
431.2741541758963
 20
443.2413154300349
 10
431.2206301057572
 20
444.3626584607021
 10
431.1814942830523
 20
445.5597058865846
 10
431.1575364558123
 20
446.8083016843073
  0
LINE
  5
4C1F
330
1A
100
AcDbEntity
  8
SEIHIN
 62
     3
 48
10.0
100
AcDbLine
 10
451.4478991095946
 20
433.7275267789133
 30
0.0
 11
451.4478991095946
 21
397.4008257219018
 31
0.0
  0
LINE
  5
4C20
330
1A
100
AcDbEntity
  8
SEIHIN
 62
     3
 48
10.0
100
AcDbLine
 10
447.5066981886014
 20
434.0912449962581
 30
0.0
 11
447.5066981886014
 21
397.0371075045573
 31
0.0
  0
LINE
  5
4C22
330
1A
100
AcDbEntity
  8
SEIHIN
 62
     3
 48
10.0
100
AcDbLine
 10
431.8944170544372
 20
396.9010338531043
 30
0.0
 11
447.5066981886014
 21
397.0371075045573
 31
0.0
  0
LWPOLYLINE
  5
4C24
330
1A
100
AcDbEntity
  8
SEIHIN
 62
     3
 48
10.0
100
AcDbPolyline
 90
        3
 70
   128
 43
0.0
 10
447.5068538347332
 20
397.0315431801973
 10
449.406263598034
 20
397.2108669257211
 10
451.4478991095946
 20
397.4008257219018
  0
LINE
  5
4C25
330
1A
100
AcDbEntity
  8
SEIHIN
 62
     3
 48
10.0
100
AcDbLine
 10
447.4446181760389
 20
396.0791219769228
 30
0.0
 11
447.4440358604431
 21
396.0776161459484
 31
0.0
  0
LWPOLYLINE
  5
4C26
330
1A
100
AcDbEntity
  8
SEIHIN
 62
     3
 48
10.0
100
AcDbPolyline
 90
        5
 70
   128
 43
0.0
 10
447.5068538347329
 20
397.0315431801973
 10
447.5155580235322
 20
396.7704817639891
 10
447.5091481315955
 20
396.4671960574129
 10
447.4844180732818
 20
396.2276611092874
 10
447.4446181760389
 20
396.0791219769228
  0
LINE
  5
4C27
330
1A
100
AcDbEntity
  8
SEIHIN
 62
     3
 48
10.0
100
AcDbLine
 10
447.5066981886014
 20
397.0371075045573
 30
0.0
 11
447.5068538347329
 21
397.0315431801973
 31
0.0
  0
LWPOLYLINE
  5
4C28
330
1A
100
AcDbEntity
  8
SEIHIN
 62
     3
 48
10.0
100
AcDbPolyline
 90
        5
 70
   128
 43
0.0
 10
451.4478991095946
 20
397.4008257219018
 10
451.4430361687488
 20
397.0719921916749
 10
451.4289423598033
 20
396.7801975424675
 10
451.4073067125074
 20
396.5595721970999
 10
451.3879870780494
 20
396.4565412954267
  0
LINE
  5
4C2A
330
1A
100
AcDbEntity
  8
SEIHIN
 62
     3
 48
10.0
100
AcDbLine
 10
431.8944170544372
 20
434.2273186477109
 30
0.0
 11
447.5066981886014
 21
434.0912449962581
 31
0.0
  0
LWPOLYLINE
  5
4C2B
330
1A
100
AcDbEntity
  8
SEIHIN
 62
     3
 48
10.0
100
AcDbPolyline
 90
        6
 70
   128
 43
0.0
 10
431.8944170544372
 20
438.2197517110544
 10
431.8895051890681
 20
438.5505750183773
 10
431.8753281155832
 20
438.8440981212839
 10
431.8534749436103
 20
439.0674346972287
 10
431.826386986888
 20
439.195414665912
 10
431.8198226709299
 20
439.2094195654884
  0
LWPOLYLINE
  5
4C2C
330
1A
100
AcDbEntity
  8
SEIHIN
 62
     3
 48
10.0
100
AcDbPolyline
 90
        3
 70
   128
 43
0.0
 10
447.5068538347332
 20
434.0968093206178
 10
449.406263598034
 20
433.9174855750942
 10
451.4478991095946
 20
433.7275267789133
  0
LINE
  5
4C2E
330
1A
100
AcDbEntity
  8
SEIHIN
 62
     3
 48
10.0
100
AcDbLine
 10
447.5066981886014
 20
434.0912449962581
 30
0.0
 11
447.5068538347329
 21
434.0968093206178
 31
0.0
  0
LWPOLYLINE
  5
4C2F
330
1A
100
AcDbEntity
  8
SEIHIN
 62
     3
 48
10.0
100
AcDbPolyline
 90
        5
 70
   128
 43
0.0
 10
447.5068538347329
 20
434.0968093206178
 10
447.5155580235322
 20
434.3578707368264
 10
447.5091481315955
 20
434.6611564434025
 10
447.4844180732818
 20
434.9006913915277
 10
447.4446181760389
 20
435.0492305238924
  0
LINE
  5
4C30
330
1A
100
AcDbEntity
  8
SEIHIN
 62
     3
 48
10.0
100
AcDbLine
 10
447.4446181760389
 20
435.0492305238924
 30
0.0
 11
447.4440358604431
 21
435.0507363548669
 31
0.0
  0
LWPOLYLINE
  5
4C31
330
1A
100
AcDbEntity
  8
SEIHIN
 62
     3
 48
10.0
100
AcDbPolyline
 90
        5
 70
   128
 43
0.0
 10
451.4478991095946
 20
433.7275267789133
 10
451.4430361687488
 20
434.0563603091405
 10
451.4289423598033
 20
434.3481549583478
 10
451.4073067125074
 20
434.5687803037153
 10
451.3879870780494
 20
434.6718112053887
  0
LINE
  5
4C32
330
1A
100
AcDbEntity
  8
SEIHIN
 62
     3
 48
10.0
100
AcDbLine
 10
444.643104698702
 20
443.9684710811269
 30
0.0
 11
431.2290903032381
 21
444.3312720900359
 31
0.0
  0
LWPOLYLINE
  5
4C34
330
1A
100
AcDbEntity
  8
SEIHIN
 62
     3
 48
10.0
100
AcDbPolyline
 90
        6
 70
   128
 43
0.0
 10
431.1575364558123
 20
446.8083016843073
 10
431.1484745352682
 20
447.1281925365945
 10
431.1306935082956
 20
447.3956298365417
 10
431.1062073140704
 20
447.5802989859588
 10
431.0777995652649
 20
447.6613728939831
 10
431.0712812188856
 20
447.6641762504076
  0
LINE
  5
4C35
330
1A
100
AcDbEntity
  8
SEIHIN
 62
     3
 48
10.0
100
AcDbLine
 10
431.0716336888993
 20
447.6641682323237
 30
0.0
 11
430.066949365193
 21
447.7095290258543
 31
0.0
  0
LWPOLYLINE
  5
4C36
330
1A
100
AcDbEntity
  8
SEIHIN
 62
     3
 48
10.0
100
AcDbPolyline
 90
        3
 70
   128
 43
0.0
 10
450.6036519801702
 20
443.4141762504077
 10
448.5559980981054
 20
443.6731881039629
 10
446.6512156491208
 20
443.9141565043792
  0
LWPOLYLINE
  5
4C38
330
1A
100
AcDbEntity
  8
SEIHIN
 62
     3
 48
10.0
100
AcDbPolyline
 90
        5
 70
   128
 43
0.0
 10
446.7342063948646
 20
443.20029158743
 10
446.7362114587589
 20
443.4402480315019
 10
446.7233047888189
 20
443.6915109482352
 10
446.6940394286425
 20
443.8557180665643
 10
446.6512156491208
 20
443.9141565043792
  0
LINE
  5
4C39
330
1A
100
AcDbEntity
  8
SEIHIN
 62
     3
 48
10.0
100
AcDbLine
 10
446.7341985012065
 20
443.1952066658114
 30
0.0
 11
446.7342063948646
 21
443.20029158743
 31
0.0
  0
LINE
  5
4C3A
330
1A
100
AcDbEntity
  8
SEIHIN
 62
     3
 48
10.0
100
AcDbLine
 10
446.6507915859065
 20
443.9141731823747
 30
0.0
 11
444.6410643653949
 21
443.9685288942301
 31
0.0
  0
LWPOLYLINE
  5
4C3B
330
1A
100
AcDbEntity
  8
SEIHIN
 62
     3
 48
10.0
100
AcDbPolyline
 90
        5
 70
   128
 43
0.0
 10
450.6859517907249
 20
442.7267627804913
 10
450.6725187452893
 20
443.0225489109412
 10
450.6512931031285
 20
443.2505474632058
 10
450.6247961631349
 20
443.3842329396346
 10
450.6036519801702
 20
443.4141762504077
  0
LINE
  5
5681
330
1A
100
AcDbEntity
  8
CENTER_L
  6
CENTER
 48
5.0
100
AcDbLine
 10
463.7082987911461
 20
415.5641762504076
 30
0.0
 11
337.1115452089158
 21
415.5641762504076
 31
0.0
  0
LINE
  5
5682
330
1A
100
AcDbEntity
  8
CENTER_L
  6
CENTER
 48
5.0
100
AcDbLine
 10
388.5152081388789
 20
461.7004571062927
 30
0.0
 11
388.5152081388789
 21
368.6349123873277
 31
0.0
  0
LINE
  5
5684
330
1A
100
AcDbEntity
  8
SEIHIN
 62
     3
 48
10.0
100
AcDbLine
 10
417.0739519877449
 20
191.8831305391131
 30
0.0
 11
416.3306148284355
 21
183.3867479296218
 31
0.0
  0
DIMENSION
  5
5698
330
1A
100
AcDbEntity
  8
SUNPOU
100
AcDbDimension
  2
*D7
 10
414.5269124103586
 20
160.848559627719
 30
0.0
 11
402.8262748924282
 21
167.81085943677
 31
0.0
 70
   161
  1
\U+203B<>
  3
STANDARD
100
AcDbAlignedDimension
 13
426.2990183700374
 23
182.5889893284641
 33
0.0
 14
416.3306148284355
 24
183.3867479296218
 34
0.0
1001
ACAD
1000
DSTYLE
1002
{
1070
   287
1070
     5
1070
   287
1070
     5
1070
    41
1040
7.0
1070
    42
1040
6.0
1070
    43
1040
14.0
1070
    44
1040
3.0
1070
    73
1070
     0
1070
    74
1070
     0
1070
    77
1070
     3
1070
   140
1040
6.0
1070
   141
1040
150.0
1070
   147
1040
2.0
1070
   172
1070
     1
1070
   173
1070
     1
1070
   176
1070
   256
1070
   177
1070
   256
1070
   178
1070
   256
1070
   271
1070
     0
1070
   272
1070
     0
1070
   279
1070
     2
1070
   341
1005
6D
1070
     6
1000
OPEN
1070
     7
1000
OPEN
1070
   371
1070
    -1
1070
   372
1070
    -1
1002
}
  0
DIMENSION
  5
56BD
330
1A
100
AcDbEntity
  8
SUNPOU
100
AcDbDimension
  2
*D8
 10
300.5942628515508
 20
182.5889893284642
 30
0.0
 11
295.5942628515508
 21
232.7267616580182
 31
0.0
 70
    32
  3
STANDARD
100
AcDbAlignedDimension
 13
345.6716901577562
 23
282.8645339875722
 33
0.0
 14
426.2990183700374
 24
182.5889893284641
 34
0.0
 50
90.0
100
AcDbRotatedDimension
1001
ACAD
1000
DSTYLE
1002
{
1070
    41
1040
7.0
1070
    42
1040
6.0
1070
    43
1040
14.0
1070
    44
1040
3.0
1070
    73
1070
     0
1070
    74
1070
     0
1070
    77
1070
     3
1070
   140
1040
6.0
1070
   141
1040
150.0
1070
   147
1040
2.0
1070
   172
1070
     1
1070
   173
1070
     1
1070
   176
1070
   256
1070
   177
1070
   256
1070
   178
1070
   256
1070
   271
1070
     0
1070
   272
1070
     0
1070
   341
1005
6D
1070
     6
1000
OPEN
1070
     7
1000
OPEN
1070
   371
1070
    -1
1070
   372
1070
    -1
1002
}
  0
LINE
  5
56CA
330
1A
100
AcDbEntity
  8
SEIHIN
 62
     3
 48
10.0
100
AcDbLine
 10
239.497959779529
 20
185.8585272205082
 30
0.0
 11
195.4091346626491
 21
185.8585272205082
 31
0.0
  0
LWPOLYLINE
  5
5C9F
330
1A
100
AcDbEntity
  8
ZUWAKU
100
AcDbPolyline
 90
        4
 70
     1
 43
0.0
 10
0.8000004691136837
 20
550.7999997642577
 10
0.8000004691136837
 20
0.7999997642576773
 10
796.8000004691137
 20
0.7999997642576773
 10
796.8000004691137
 20
550.7999997642577
  0
LWPOLYLINE
  5
5CA0
330
1A
100
AcDbEntity
  8
ZUWAKU
100
AcDbPolyline
 90
        4
 70
     1
 43
0.0
 10
0.4000004691137065
 20
551.1999997642576
 10
0.4000004691137065
 20
0.3999997642577
 10
797.2000004691137
 20
0.3999997642576769
 10
797.2000004691137
 20
551.1999997642576
  0
LWPOLYLINE
  5
5CA1
330
1A
100
AcDbEntity
  8
ZUWAKU
100
AcDbPolyline
 90
        4
 70
     1
 43
0.0
 10
0.0000004691137292
 20
551.5999997642576
 10
0.0000004691137292
 20
-0.0000002357423909
 10
797.6000004691139
 20
-0.0000002357423234
 10
797.6000004691139
 20
551.5999997642577
  0
LWPOLYLINE
  5
5CA2
330
1A
100
AcDbEntity
  8
ZUWAKU
100
AcDbPolyline
 90
        4
 70
     1
 43
0.0
 10
0.6000004691136383
 20
550.9999997642577
 10
0.6000004691136383
 20
0.5999997642576318
 10
797.0000004691139
 20
0.599999764257678
 10
797.0000004691137
 20
550.9999997642577
  0
LWPOLYLINE
  5
5CA3
330
1A
100
AcDbEntity
  8
ZUWAKU
100
AcDbPolyline
 90
        4
 70
     1
 43
0.0
 10
0.200000469113661
 20
551.3999997642577
 10
0.200000469113661
 20
0.1999997642576545
 10
797.4000004691135
 20
0.1999997642576776
 10
797.4000004691138
 20
551.3999997642577
  0
LINE
  5
5CA4
330
1A
100
AcDbEntity
  8
ZUWAKU
100
AcDbLine
 10
208.6466017591817
 20
15.19999976425764
 30
0.0
 11
447.4243644401051
 21
15.19999976425764
 31
0.0
  0
LINE
  5
5CA5
330
1A
100
AcDbEntity
  8
ZUWAKU
100
AcDbLine
 10
208.6466017591817
 20
15.59999976425764
 30
0.0
 11
447.4243644401051
 21
15.59999976425765
 31
0.0
  0
LINE
  5
5CA6
330
1A
100
AcDbEntity
  8
ZUWAKU
100
AcDbLine
 10
208.6466017591817
 20
15.39999976425764
 30
0.0
 11
447.4243644401051
 21
15.39999976425764
 31
0.0
  0
TEXT
  5
5CA7
330
1A
100
AcDbEntity
  8
MOJI
100
AcDbText
 10
239.8272031499648
 20
3.20492082166503
 30
0.0
 40
5.599999999999999
  1
ＶＭ１２０－Ｙ６０Ｈ－８５°
 41
0.9
  7
ｽﾀｲﾙ1
100
AcDbText
  0
LINE
  5
5CA8
330
1A
100
AcDbEntity
  8
ZUWAKU
100
AcDbLine
 10
0.0000004691137292
 20
29.9999997642576
 30
0.0
 11
797.4000004691135
 21
29.9999997642576
 31
0.0
  0
LINE
  5
5CA9
330
1A
100
AcDbEntity
  8
ZUWAKU
100
AcDbLine
 10
0.0000004691137292
 20
30.19999976425761
 30
0.0
 11
797.4000004691135
 21
30.19999976425761
 31
0.0
  0
LINE
  5
5CAA
330
1A
100
AcDbEntity
  8
ZUWAKU
100
AcDbLine
 10
0.0000004691137292
 20
30.39999976425761
 30
0.0
 11
797.4000004691135
 21
30.39999976425761
 31
0.0
  0
LINE
  5
5CAB
330
1A
100
AcDbEntity
  8
ZUWAKU
100
AcDbLine
 10
0.0000004691137292
 20
30.59999976425761
 30
0.0
 11
797.4000004691135
 21
30.59999976425761
 31
0.0
  0
LINE
  5
5CAC
330
1A
100
AcDbEntity
  8
ZUWAKU
100
AcDbLine
 10
0.0000004691137292
 20
30.79999976425762
 30
0.0
 11
797.4000004691135
 21
30.79999976425762
 31
0.0
  0
ARC
  5
5CAD
330
1A
100
AcDbEntity
  8
ZUWAKU
100
AcDbCircle
 10
48.74221262389482
 20
11.76520178961291
 30
0.0
 40
4.199999999999999
100
AcDbArc
 50
0.0
 51
45.0
  0
ARC
  5
5CAE
330
1A
100
AcDbEntity
  8
ZUWAKU
100
AcDbCircle
 10
50.14221262389492
 20
9.949999764257611
 30
0.0
 40
2.799999999999999
100
AcDbArc
 50
270.0
 51
0.0
  0
HATCH
  5
5CAF
330
1A
100
AcDbEntity
  8
ZUWAKU
100
AcDbHatch
 10
0.0
 20
0.0
 30
0.0
210
0.0
220
0.0
230
1.0
  2
ANSI37
 70
     0
 71
     0
 91
        8
 92
        7
 72
     1
 73
     1
 93
       24
 10
14.50226313023358
 20
17.64484824524119
 42
-0.1989123673796348
 10
14.09221262389485
 20
18.63479773890224
 42
0.0
 10
14.09221262389485
 20
19.92499976425762
 42
-0.4142135623730912
 10
14.61721262389483
 20
20.44999976425761
 42
0.0
 10
17.59221262389473
 20
20.44999976425761
 42
0.4142135623731546
 10
18.11721262389482
 20
20.9749997642576
 42
0.0
 10
18.11721262389482
 20
22.72499976425761
 42
0.4142135623731586
 10
17.59221262389473
 20
23.24999976425761
 42
0.0
 10
14.09221262389485
 20
23.24999976425761
 42
0.4142135623730928
 10
11.29221262389489
 20
20.44999976425764
 42
0.0
 10
11.29221262389489
 20
18.63479773890237
 42
0.1989123673796619
 10
12.52236414291132
 20
15.66494925791876
 42
0.0
 10
15.432162117556
 20
12.7551512832741
 42
-0.1989123673796613
 10
15.84221262389485
 20
11.76520178961292
 42
0.0
 10
15.84221262389485
 20
10.4749997642576
 42
-0.4142135623730911
 10
15.31721262389487
 20
9.949999764257611
 42
0.0
 10
12.34221262389496
 20
9.949999764257611
 42
0.4142135623731526
 10
11.81721262389487
 20
9.424999764257623
 42
0.0
 10
11.81721262389487
 20
7.674999764257602
 42
0.4142135623731526
 10
12.34221262389496
 20
7.149999764257614
 42
0.0
 10
15.84221262389485
 20
7.149999764257614
 42
0.4142135623731044
 10
18.64221262389492
 20
9.94999976425759
 42
0.0
 10
18.64221262389492
 20
11.76520178961286
 42
0.1989123673796604
 10
17.41206110487837
 20
14.7350502705964
 42
0.0
 97
        0
 92
        7
 72
     1
 73
     1
 93
       16
 10
23.5422126238949
 20
19.04999976425762
 42
-0.4142135623730935
 10
24.94221262389487
 20
20.44999976425761
 42
0.0
 10
26.86721262389482
 20
20.44999976425761
 42
0.4142135623731546
 10
27.39221262389492
 20
20.9749997642576
 42
0.0
 10
27.39221262389492
 20
22.72499976425761
 42
0.4142135623730951
 10
26.86721262389494
 20
23.24999976425761
 42
0.0
 10
24.94221262389476
 20
23.24999976425757
 42
0.4142135623730892
 10
20.74221262389483
 20
19.04999976425754
 42
0.0
 10
20.74221262389483
 20
11.34999976425763
 42
0.4142135623730969
 10
24.94221262389487
 20
7.149999764257614
 42
0.0
 10
26.86721262389482
 20
7.149999764257614
 42
0.4142135623731526
 10
27.39221262389492
 20
7.674999764257602
 42
0.0
 10
27.39221262389492
 20
9.424999764257623
 42
0.4142135623730891
 10
26.86721262389494
 20
9.949999764257611
 42
0.0
 10
24.94221262389487
 20
9.949999764257611
 42
-0.4142135623730928
 10
23.5422126238949
 20
11.3499997642576
 42
0.0
 97
        0
 92
        7
 72
     1
 73
     1
 93
        2
 10
24.24221262389483
 20
15.19999976425761
 42
1.0
 10
27.74221262389483
 20
15.19999976425761
 42
1.0
 97
        0
 92
        7
 72
     1
 73
     1
 93
       26
 10
37.31485910607284
 20
19.20504695782104
 42
0.0
 10
38.37649873921066
 20
22.56690579609063
 42
0.5069206636600134
 10
37.8758678400153
 20
23.24999976425761
 42
0.0
 10
36.17697846040607
 20
23.24999976425761
 42
0.3272098845218764
 10
35.67634756121071
 20
22.88309373242458
 42
0.0
 10
33.80807768657894
 20
16.96690579609069
 42
-0.3272098845219541
 10
33.30744678738347
 20
16.59999976425761
 42
0.0
 10
33.16721262389501
 20
16.59999976425761
 42
-0.4142135623731526
 10
32.64221262389492
 20
17.1249997642576
 42
0.0
 10
32.64221262389492
 20
22.72499976425761
 42
0.4142135623730951
 10
32.11721262389494
 20
23.24999976425761
 42
0.0
 10
30.36721262389483
 20
23.24999976425761
 42
0.4142135623730871
 10
29.84221262389485
 20
22.72499976425763
 42
0.0
 10
29.84221262389485
 20
7.674999764257602
 42
0.4142135623730891
 10
30.36721262389483
 20
7.149999764257614
 42
0.0
 10
32.11721262389483
 20
7.149999764257614
 42
0.4142135623731526
 10
32.64221262389492
 20
7.674999764257602
 42
0.0
 10
32.64221262389492
 20
13.27499976425762
 42
-0.4142135623731526
 10
33.16721262389501
 20
13.79999976425761
 42
0.0
 10
33.30744678738358
 20
13.79999976425761
 42
-0.3272098845218915
 10
33.80807768657894
 20
13.43309373242453
 42
0.0
 10
35.67634756121071
 20
7.516905796090686
 42
0.3272098845218902
 10
36.17697846040607
 20
7.149999764257614
 42
0.0
 10
37.8758678400153
 20
7.149999764257614
 42
0.5069206636600335
 10
38.37649873921066
 20
7.833093732424622
 42
0.0
 10
36.050107360737
 20
15.19999976425775
 42
0.0
 97
        0
 92
        7
 72
     1
 73
     1
 93
        8
 10
43.49221262389483
 20
22.72499976425762
 42
0.4142135623731546
 10
42.96721262389474
 20
23.24999976425761
 42
0.0
 10
41.21721262389496
 20
23.24999976425761
 42
0.4142135623731507
 10
40.69221262389487
 20
22.72499976425763
 42
0.0
 10
40.69221262389487
 20
7.674999764257602
 42
0.4142135623731526
 10
41.21721262389496
 20
7.149999764257614
 42
0.0
 10
42.96721262389474
 20
7.149999764257614
 42
0.4142135623731526
 10
43.49221262389483
 20
7.674999764257602
 42
0.0
 97
        0
 92
        7
 72
     1
 73
     1
 93
       24
 10
48.39221262389492
 20
19.92499976425762
 42
-0.4142135623731546
 10
48.91721262389501
 20
20.44999976425761
 42
0.0
 10
51.89221262389492
 20
20.44999976425761
 42
0.4142135623730911
 10
52.41721262389489
 20
20.9749997642576
 42
0.0
 10
52.41721262389489
 20
22.72499976425761
 42
0.4142135623730952
 10
51.89221262389492
 20
23.24999976425761
 42
0.0
 10
48.39221262389492
 20
23.24999976425761
 42
0.4142135623731048
 10
45.59221262389485
 20
20.44999976425764
 42
0.0
 10
45.59221262389485
 20
18.63479773890237
 42
0.1989123673796613
 10
46.82236414291139
 20
15.66494925791882
 42
0.0
 10
49.73216211755607
 20
12.75515128327415
 42
-0.1989123673796402
 10
50.14221262389492
 20
11.76520178961308
 42
0.0
 10
50.14221262389492
 20
10.4749997642576
 42
-0.4142135623730911
 10
49.61721262389494
 20
9.949999764257611
 42
0.0
 10
46.64221262389491
 20
9.949999764257611
 42
0.4142135623731526
 10
46.11721262389482
 20
9.424999764257623
 42
0.0
 10
46.11721262389482
 20
7.674999764257602
 42
0.4142135623730891
 10
46.64221262389481
 20
7.149999764257614
 42
0.0
 10
50.14221262389492
 20
7.149999764257614
 42
0.4142135623730925
 10
52.94221262389488
 20
9.94999976425759
 42
0.0
 10
52.94221262389488
 20
11.76520178961286
 42
0.1989123673796675
 10
51.71206110487833
 20
14.73505027059651
 42
0.0
 10
48.80226313023377
 20
17.64484824524103
 42
-0.1989123673796652
 10
48.39221262389492
 20
18.6347977389022
 42
0.0
 97
        0
 92
        7
 72
     1
 73
     1
 93
       16
 10
57.84221262389485
 20
22.7249997642576
 42
0.414213562373103
 10
57.31721262389488
 20
23.24999976425761
 42
0.0
 10
55.56721262389487
 20
23.24999976425761
 42
0.4142135623730871
 10
55.04221262389489
 20
22.72499976425763
 42
0.0
 10
55.04221262389489
 20
9.94999976425759
 42
0.4142135623730926
 10
57.84221262389485
 20
7.149999764257614
 42
0.0
 10
61.34221262389485
 20
7.149999764257614
 42
0.4142135623731044
 10
64.14221262389492
 20
9.94999976425759
 42
0.0
 10
64.14221262389492
 20
22.72499976425761
 42
0.4142135623730951
 10
63.61721262389494
 20
23.24999976425761
 42
0.0
 10
61.86721262389482
 20
23.24999976425761
 42
0.4142135623730871
 10
61.34221262389485
 20
22.72499976425763
 42
0.0
 10
61.34221262389485
 20
10.99999976425758
 42
-0.414213562373088
 10
60.2922126238949
 20
9.949999764257611
 42
0.0
 10
58.89221262389492
 20
9.949999764257611
 42
-0.4142135623731197
 10
57.84221262389485
 20
10.99999976425758
 42
0.0
 97
        0
 92
        7
 72
     1
 73
     1
 93
        8
 10
69.0422126238949
 20
22.72499976425763
 42
0.4142135623730871
 10
68.51721262389492
 20
23.24999976425761
 42
0.0
 10
66.76721262389492
 20
23.24999976425761
 42
0.4142135623731507
 10
66.24221262389482
 20
22.72499976425763
 42
0.0
 10
66.24221262389482
 20
7.674999764257602
 42
0.4142135623730891
 10
66.76721262389481
 20
7.149999764257614
 42
0.0
 10
68.51721262389492
 20
7.149999764257614
 42
0.4142135623730891
 10
69.0422126238949
 20
7.674999764257602
 42
0.0
 97
        0
 75
     0
 76
     1
 52
0.0
 41
0.2
 77
     0
 78
     2
 53
45.0
 43
-900.9423038655652
 44
-13.20000023574232
 45
-0.4490128060534576
 46
0.4490128060534577
 79
     0
 53
135.0
 43
-900.9423038655652
 44
-13.20000023574232
 45
-0.4490128060534577
 46
-0.4490128060534576
 79
     0
 47
0.057451373970553
 98
        8
 10
16.07985543213703
 20
15.16717341014316
 10
22.40451547555289
 20
18.84406194670862
 10
25.16436835477338
 20
15.51188141032833
 10
30.91406045075086
 20
16.20129741069911
 10
41.83847248807047
 20
16.66090967824072
 10
46.89820136424327
 20
19.41857608066482
 10
56.55768644151407
 20
18.72915767935262
 10
67.82708008873647
 20
19.18876994689424
  0
LINE
  5
5CB0
330
1A
100
AcDbEntity
  8
ZUWAKU
100
AcDbLine
 10
35.67634756121071
 20
22.88309373242458
 30
0.0
 11
33.80807768657894
 21
16.96690579609064
 31
0.0
  0
LINE
  5
5CB1
330
1A
100
AcDbEntity
  8
ZUWAKU
100
AcDbLine
 10
32.64221262389492
 20
17.12499976425761
 30
0.0
 11
32.64221262389492
 21
22.7249997642576
 31
0.0
  0
LINE
  5
5CB2
330
1A
100
AcDbEntity
  8
ZUWAKU
100
AcDbLine
 10
29.84221262389485
 20
22.7249997642576
 30
0.0
 11
29.84221262389485
 21
7.674999764257613
 31
0.0
  0
LINE
  5
5CB3
330
1A
100
AcDbEntity
  8
ZUWAKU
100
AcDbLine
 10
20.74221262389483
 20
11.34999976425761
 30
0.0
 11
20.74221262389483
 21
19.04999976425757
 31
0.0
  0
LINE
  5
5CB4
330
1A
100
AcDbEntity
  8
ZUWAKU
100
AcDbLine
 10
23.5422126238949
 20
19.04999976425761
 30
0.0
 11
23.5422126238949
 21
11.34999976425761
 31
0.0
  0
LINE
  5
5CB5
330
1A
100
AcDbEntity
  8
ZUWAKU
100
AcDbLine
 10
43.49221262389483
 20
7.674999764257613
 30
0.0
 11
43.49221262389483
 21
22.7249997642576
 31
0.0
  0
LINE
  5
5CB6
330
1A
100
AcDbEntity
  8
ZUWAKU
100
AcDbLine
 10
40.69221262389487
 20
22.7249997642576
 30
0.0
 11
40.69221262389487
 21
7.674999764257613
 31
0.0
  0
LINE
  5
5CB7
330
1A
100
AcDbEntity
  8
ZUWAKU
100
AcDbLine
 10
37.31485910607284
 20
19.20504695782104
 30
0.0
 11
36.050107360737
 21
15.19999976425763
 31
0.0
  0
ARC
  5
5CB8
330
1A
100
AcDbEntity
  8
ZUWAKU
100
AcDbCircle
 10
49.7922126238949
 20
18.63479773890231
 30
0.0
 40
4.199999999999999
100
AcDbArc
 50
180.0
 51
225.0
  0
ARC
  5
5CB9
330
1A
100
AcDbEntity
  8
ZUWAKU
100
AcDbCircle
 10
49.7922126238949
 20
18.63479773890231
 30
0.0
 40
1.399999999999999
100
AcDbArc
 50
180.0000000000016
 51
224.9999999999988
  0
ARC
  5
5CBA
330
1A
100
AcDbEntity
  8
ZUWAKU
100
AcDbCircle
 10
15.49221262389482
 20
18.63479773890231
 30
0.0
 40
1.399999999999999
100
AcDbArc
 50
180.0000000000016
 51
224.9999999999988
  0
ARC
  5
5CBB
330
1A
100
AcDbEntity
  8
ZUWAKU
100
AcDbCircle
 10
15.49221262389482
 20
18.63479773890231
 30
0.0
 40
4.199999999999999
100
AcDbArc
 50
180.0
 51
225.0
  0
ARC
  5
5CBC
330
1A
100
AcDbEntity
  8
ZUWAKU
100
AcDbCircle
 10
24.94221262389487
 20
11.34999976425761
 30
0.0
 40
4.199999999999999
100
AcDbArc
 50
180.0
 51
270.0
  0
ARC
  5
5CBD
330
1A
100
AcDbEntity
  8
ZUWAKU
100
AcDbCircle
 10
15.84221262389485
 20
9.949999764257611
 30
0.0
 40
2.799999999999999
100
AcDbArc
 50
270.0
 51
0.0
  0
ARC
  5
5CBE
330
1A
100
AcDbEntity
  8
ZUWAKU
100
AcDbCircle
 10
14.44221262389487
 20
11.76520178961291
 30
0.0
 40
4.199999999999999
100
AcDbArc
 50
0.0
 51
45.0
  0
ARC
  5
5CBF
330
1A
100
AcDbEntity
  8
ZUWAKU
100
AcDbCircle
 10
14.44221262389487
 20
11.76520178961296
 30
0.0
 40
1.399999999999999
100
AcDbArc
 50
0.0
 51
45.0
  0
LINE
  5
5CC0
330
1A
100
AcDbEntity
  8
ZUWAKU
100
AcDbLine
 10
15.84221262389485
 20
10.47499976425761
 30
0.0
 11
15.84221262389485
 21
11.76520178961296
 31
0.0
  0
LINE
  5
5CC1
330
1A
100
AcDbEntity
  8
ZUWAKU
100
AcDbLine
 10
18.64221262389492
 20
9.949999764257611
 30
0.0
 11
18.64221262389492
 21
11.76520178961296
 31
0.0
  0
LINE
  5
5CC2
330
1A
100
AcDbEntity
  8
ZUWAKU
100
AcDbLine
 10
12.34221262389485
 20
9.949999764257611
 30
0.0
 11
15.31721262389487
 21
9.949999764257611
 31
0.0
  0
ARC
  5
5CC3
330
1A
100
AcDbEntity
  8
ZUWAKU
100
AcDbCircle
 10
12.34221262389485
 20
9.424999764257613
 30
0.0
 40
0.525
100
AcDbArc
 50
90.0
 51
180.0
  0
ARC
  5
5CC4
330
1A
100
AcDbEntity
  8
ZUWAKU
100
AcDbCircle
 10
12.34221262389485
 20
7.674999764257613
 30
0.0
 40
0.525
100
AcDbArc
 50
180.0
 51
270.0
  0
LINE
  5
5CC5
330
1A
100
AcDbEntity
  8
ZUWAKU
100
AcDbLine
 10
11.81721262389487
 20
7.674999764257613
 30
0.0
 11
11.81721262389487
 21
9.424999764257613
 31
0.0
  0
LINE
  5
5CC6
330
1A
100
AcDbEntity
  8
ZUWAKU
100
AcDbLine
 10
12.52236414291132
 20
15.66494925791879
 30
0.0
 11
15.432162117556
 21
12.75515128327413
 31
0.0
  0
LINE
  5
5CC7
330
1A
100
AcDbEntity
  8
ZUWAKU
100
AcDbLine
 10
12.34221262389485
 20
7.149999764257614
 30
0.0
 11
15.84221262389485
 21
7.149999764257614
 31
0.0
  0
ARC
  5
5CC8
330
1A
100
AcDbEntity
  8
ZUWAKU
100
AcDbCircle
 10
15.31721262389487
 20
10.47499976425761
 30
0.0
 40
0.525
100
AcDbArc
 50
270.0
 51
0.0
  0
LINE
  5
5CC9
330
1A
100
AcDbEntity
  8
ZUWAKU
100
AcDbLine
 10
17.41206110487837
 20
14.73505027059643
 30
0.0
 11
14.5022631302337
 21
17.64484824524111
 31
0.0
  0
LINE
  5
5CCA
330
1A
100
AcDbEntity
  8
ZUWAKU
100
AcDbLine
 10
38.37649873921066
 20
7.833093732424586
 30
0.0
 11
36.050107360737
 21
15.19999976425763
 31
0.0
  0
LINE
  5
5CCB
330
1A
100
AcDbEntity
  8
ZUWAKU
100
AcDbLine
 10
36.17697846040619
 20
7.149999764257614
 30
0.0
 11
37.87586784001518
 21
7.149999764257614
 31
0.0
  0
LINE
  5
5CCC
330
1A
100
AcDbEntity
  8
ZUWAKU
100
AcDbLine
 10
35.67634756121071
 20
7.51690579609064
 30
0.0
 11
33.80807768657894
 21
13.43309373242458
 31
0.0
  0
ARC
  5
5CCD
330
1A
100
AcDbEntity
  8
ZUWAKU
100
AcDbCircle
 10
36.17697846040619
 20
7.674999764257613
 30
0.0
 40
0.525
100
AcDbArc
 50
197.525568373723
 51
270.0
  0
ARC
  5
5CCE
330
1A
100
AcDbEntity
  8
ZUWAKU
100
AcDbCircle
 10
33.16721262389489
 20
13.27499976425761
 30
0.0
 40
0.525
100
AcDbArc
 50
90.0
 51
180.0
  0
ARC
  5
5CCF
330
1A
100
AcDbEntity
  8
ZUWAKU
100
AcDbCircle
 10
33.30744678738358
 20
13.27499976425761
 30
0.0
 40
0.525
100
AcDbArc
 50
17.52556837372303
 51
90.0
  0
LINE
  5
5CD0
330
1A
100
AcDbEntity
  8
ZUWAKU
100
AcDbLine
 10
32.64221262389492
 20
7.674999764257613
 30
0.0
 11
32.64221262389492
 21
13.27499976425761
 31
0.0
  0
ARC
  5
5CD1
330
1A
100
AcDbEntity
  8
ZUWAKU
100
AcDbCircle
 10
32.11721262389483
 20
7.674999764257613
 30
0.0
 40
0.525
100
AcDbArc
 50
270.0
 51
0.0
  0
LINE
  5
5CD2
330
1A
100
AcDbEntity
  8
ZUWAKU
100
AcDbLine
 10
33.16721262389489
 20
13.79999976425761
 30
0.0
 11
33.30744678738358
 21
13.79999976425761
 31
0.0
  0
LINE
  5
5CD3
330
1A
100
AcDbEntity
  8
ZUWAKU
100
AcDbLine
 10
33.30744678738358
 20
16.59999976425761
 30
0.0
 11
33.16721262389489
 21
16.59999976425761
 31
0.0
  0
CIRCLE
  5
5CD4
330
1A
100
AcDbEntity
  8
ZUWAKU
100
AcDbCircle
 10
25.99221262389483
 20
15.19999976425761
 30
0.0
 40
1.75
  0
ARC
  5
5CD5
330
1A
100
AcDbEntity
  8
ZUWAKU
100
AcDbCircle
 10
24.94221262389487
 20
11.34999976425761
 30
0.0
 40
1.399999999999999
100
AcDbArc
 50
180.0
 51
270.0
  0
ARC
  5
5CD6
330
1A
100
AcDbEntity
  8
ZUWAKU
100
AcDbCircle
 10
30.36721262389483
 20
7.674999764257613
 30
0.0
 40
0.525
100
AcDbArc
 50
180.0
 51
270.0
  0
ARC
  5
5CD7
330
1A
100
AcDbEntity
  8
ZUWAKU
100
AcDbCircle
 10
26.86721262389482
 20
9.424999764257613
 30
0.0
 40
0.525
100
AcDbArc
 50
0.0
 51
90.0
  0
ARC
  5
5CD8
330
1A
100
AcDbEntity
  8
ZUWAKU
100
AcDbCircle
 10
26.86721262389482
 20
7.674999764257613
 30
0.0
 40
0.525
100
AcDbArc
 50
270.0
 51
0.0
  0
LINE
  5
5CD9
330
1A
100
AcDbEntity
  8
ZUWAKU
100
AcDbLine
 10
26.86721262389482
 20
7.149999764257614
 30
0.0
 11
24.94221262389487
 21
7.149999764257614
 31
0.0
  0
LINE
  5
5CDA
330
1A
100
AcDbEntity
  8
ZUWAKU
100
AcDbLine
 10
27.39221262389492
 20
9.424999764257613
 30
0.0
 11
27.39221262389492
 21
7.674999764257613
 31
0.0
  0
LINE
  5
5CDB
330
1A
100
AcDbEntity
  8
ZUWAKU
100
AcDbLine
 10
24.94221262389487
 20
9.949999764257611
 30
0.0
 11
26.86721262389482
 21
9.949999764257611
 31
0.0
  0
LINE
  5
5CDC
330
1A
100
AcDbEntity
  8
ZUWAKU
100
AcDbLine
 10
30.36721262389483
 20
7.149999764257614
 30
0.0
 11
32.11721262389483
 21
7.149999764257614
 31
0.0
  0
ARC
  5
5CDD
330
1A
100
AcDbEntity
  8
ZUWAKU
100
AcDbCircle
 10
33.16721262389489
 20
17.12499976425761
 30
0.0
 40
0.525
100
AcDbArc
 50
180.0
 51
270.0
  0
ARC
  5
5CDE
330
1A
100
AcDbEntity
  8
ZUWAKU
100
AcDbCircle
 10
33.30744678738358
 20
17.12499976425761
 30
0.0
 40
0.525
100
AcDbArc
 50
270.0
 51
342.4744316262769
  0
ARC
  5
5CDF
330
1A
100
AcDbEntity
  8
ZUWAKU
100
AcDbCircle
 10
49.61721262389483
 20
10.47499976425761
 30
0.0
 40
0.525
100
AcDbArc
 50
270.0
 51
0.0
  0
ARC
  5
5CE0
330
1A
100
AcDbEntity
  8
ZUWAKU
100
AcDbCircle
 10
48.74221262389482
 20
11.76520178961296
 30
0.0
 40
1.399999999999999
100
AcDbArc
 50
0.0
 51
45.0
  0
LINE
  5
5CE1
330
1A
100
AcDbEntity
  8
ZUWAKU
100
AcDbLine
 10
50.14221262389492
 20
10.47499976425761
 30
0.0
 11
50.14221262389492
 21
11.76520178961296
 31
0.0
  0
LINE
  5
5CE2
330
1A
100
AcDbEntity
  8
ZUWAKU
100
AcDbLine
 10
52.94221262389488
 20
9.949999764257611
 30
0.0
 11
52.94221262389488
 21
11.76520178961296
 31
0.0
  0
LINE
  5
5CE3
330
1A
100
AcDbEntity
  8
ZUWAKU
100
AcDbLine
 10
51.71206110487844
 20
14.73505027059643
 30
0.0
 11
48.80226313023365
 21
17.64484824524111
 31
0.0
  0
LINE
  5
5CE4
330
1A
100
AcDbEntity
  8
ZUWAKU
100
AcDbLine
 10
41.21721262389485
 20
7.149999764257614
 30
0.0
 11
42.96721262389485
 21
7.149999764257614
 31
0.0
  0
ARC
  5
5CE5
330
1A
100
AcDbEntity
  8
ZUWAKU
100
AcDbCircle
 10
37.87586784001518
 20
7.674999764257613
 30
0.0
 40
0.525
100
AcDbArc
 50
270.0
 51
17.52556837372303
  0
ARC
  5
5CE6
330
1A
100
AcDbEntity
  8
ZUWAKU
100
AcDbCircle
 10
41.21721262389485
 20
7.674999764257613
 30
0.0
 40
0.525
100
AcDbArc
 50
180.0
 51
270.0
  0
ARC
  5
5CE7
330
1A
100
AcDbEntity
  8
ZUWAKU
100
AcDbCircle
 10
46.64221262389491
 20
9.424999764257613
 30
0.0
 40
0.525
100
AcDbArc
 50
90.0
 51
180.0
  0
ARC
  5
5CE8
330
1A
100
AcDbEntity
  8
ZUWAKU
100
AcDbCircle
 10
42.96721262389485
 20
7.674999764257613
 30
0.0
 40
0.525
100
AcDbArc
 50
270.0
 51
0.0
  0
ARC
  5
5CE9
330
1A
100
AcDbEntity
  8
ZUWAKU
100
AcDbCircle
 10
46.64221262389491
 20
7.674999764257613
 30
0.0
 40
0.525
100
AcDbArc
 50
180.0
 51
270.0
  0
LINE
  5
5CEA
330
1A
100
AcDbEntity
  8
ZUWAKU
100
AcDbLine
 10
46.11721262389482
 20
7.674999764257613
 30
0.0
 11
46.11721262389482
 21
9.424999764257613
 31
0.0
  0
LINE
  5
5CEB
330
1A
100
AcDbEntity
  8
ZUWAKU
100
AcDbLine
 10
46.82236414291139
 20
15.66494925791879
 30
0.0
 11
49.73216211755607
 21
12.75515128327413
 31
0.0
  0
LINE
  5
5CEC
330
1A
100
AcDbEntity
  8
ZUWAKU
100
AcDbLine
 10
46.64221262389491
 20
7.149999764257614
 30
0.0
 11
50.14221262389492
 21
7.149999764257614
 31
0.0
  0
LINE
  5
5CED
330
1A
100
AcDbEntity
  8
ZUWAKU
100
AcDbLine
 10
46.64221262389491
 20
9.949999764257611
 30
0.0
 11
49.61721262389483
 21
9.949999764257611
 31
0.0
  0
ARC
  5
5CEE
330
1A
100
AcDbEntity
  8
ZUWAKU
100
AcDbCircle
 10
24.94221262389487
 20
19.04999976425757
 30
0.0
 40
4.199999999999999
100
AcDbArc
 50
90.0
 51
180.0
  0
LINE
  5
5CEF
330
1A
100
AcDbEntity
  8
ZUWAKU
100
AcDbLine
 10
18.11721262389482
 20
22.7249997642576
 30
0.0
 11
18.11721262389482
 21
20.97499976425761
 31
0.0
  0
ARC
  5
5CF0
330
1A
100
AcDbEntity
  8
ZUWAKU
100
AcDbCircle
 10
17.59221262389485
 20
20.97499976425761
 30
0.0
 40
0.525
100
AcDbArc
 50
270.0
 51
0.0
  0
ARC
  5
5CF1
330
1A
100
AcDbEntity
  8
ZUWAKU
100
AcDbCircle
 10
17.59221262389485
 20
22.7249997642576
 30
0.0
 40
0.525
100
AcDbArc
 50
0.0
 51
90.0
  0
ARC
  5
5CF2
330
1A
100
AcDbEntity
  8
ZUWAKU
100
AcDbCircle
 10
14.09221262389485
 20
20.44999976425761
 30
0.0
 40
2.799999999999999
100
AcDbArc
 50
90.0
 51
180.0
  0
LINE
  5
5CF3
330
1A
100
AcDbEntity
  8
ZUWAKU
100
AcDbLine
 10
11.29221262389489
 20
20.44999976425761
 30
0.0
 11
11.29221262389489
 21
18.63479773890227
 31
0.0
  0
LINE
  5
5CF4
330
1A
100
AcDbEntity
  8
ZUWAKU
100
AcDbLine
 10
14.09221262389485
 20
19.92499976425761
 30
0.0
 11
14.09221262389485
 21
18.63479773890227
 31
0.0
  0
ARC
  5
5CF5
330
1A
100
AcDbEntity
  8
ZUWAKU
100
AcDbCircle
 10
14.61721262389483
 20
19.92499976425761
 30
0.0
 40
0.525
100
AcDbArc
 50
90.0
 51
180.0
  0
LINE
  5
5CF6
330
1A
100
AcDbEntity
  8
ZUWAKU
100
AcDbLine
 10
17.59221262389485
 20
20.44999976425761
 30
0.0
 11
14.61721262389483
 21
20.44999976425761
 31
0.0
  0
LINE
  5
5CF7
330
1A
100
AcDbEntity
  8
ZUWAKU
100
AcDbLine
 10
14.09221262389485
 20
23.24999976425761
 30
0.0
 11
17.59221262389485
 21
23.24999976425761
 31
0.0
  0
LINE
  5
5CF8
330
1A
100
AcDbEntity
  8
ZUWAKU
100
AcDbLine
 10
36.17697846040619
 20
23.24999976425761
 30
0.0
 11
37.87586784001518
 21
23.24999976425761
 31
0.0
  0
ARC
  5
5CF9
330
1A
100
AcDbEntity
  8
ZUWAKU
100
AcDbCircle
 10
36.17697846040619
 20
22.7249997642576
 30
0.0
 40
0.525
100
AcDbArc
 50
90.0
 51
162.4744316262769
  0
ARC
  5
5CFA
330
1A
100
AcDbEntity
  8
ZUWAKU
100
AcDbCircle
 10
32.11721262389483
 20
22.7249997642576
 30
0.0
 40
0.525
100
AcDbArc
 50
0.0
 51
90.0
  0
ARC
  5
5CFB
330
1A
100
AcDbEntity
  8
ZUWAKU
100
AcDbCircle
 10
24.94221262389487
 20
19.04999976425761
 30
0.0
 40
1.399999999999999
100
AcDbArc
 50
90.0
 51
180.0
  0
LINE
  5
5CFC
330
1A
100
AcDbEntity
  8
ZUWAKU
100
AcDbLine
 10
27.39221262389492
 20
22.7249997642576
 30
0.0
 11
27.39221262389492
 21
20.97499976425761
 31
0.0
  0
ARC
  5
5CFD
330
1A
100
AcDbEntity
  8
ZUWAKU
100
AcDbCircle
 10
26.86721262389482
 20
20.97499976425761
 30
0.0
 40
0.525
100
AcDbArc
 50
270.0
 51
0.0
  0
LINE
  5
5CFE
330
1A
100
AcDbEntity
  8
ZUWAKU
100
AcDbLine
 10
26.86721262389482
 20
20.44999976425761
 30
0.0
 11
24.94221262389487
 21
20.44999976425761
 31
0.0
  0
ARC
  5
5CFF
330
1A
100
AcDbEntity
  8
ZUWAKU
100
AcDbCircle
 10
30.36721262389483
 20
22.7249997642576
 30
0.0
 40
0.525
100
AcDbArc
 50
90.0
 51
180.0
  0
ARC
  5
5D00
330
1A
100
AcDbEntity
  8
ZUWAKU
100
AcDbCircle
 10
26.86721262389482
 20
22.7249997642576
 30
0.0
 40
0.525
100
AcDbArc
 50
0.0
 51
90.0
  0
LINE
  5
5D01
330
1A
100
AcDbEntity
  8
ZUWAKU
100
AcDbLine
 10
24.94221262389487
 20
23.24999976425757
 30
0.0
 11
26.86721262389482
 21
23.24999976425761
 31
0.0
  0
LINE
  5
5D02
330
1A
100
AcDbEntity
  8
ZUWAKU
100
AcDbLine
 10
32.11721262389483
 20
23.24999976425761
 30
0.0
 11
30.36721262389483
 21
23.24999976425761
 31
0.0
  0
LINE
  5
5D03
330
1A
100
AcDbEntity
  8
ZUWAKU
100
AcDbLine
 10
52.41721262389489
 20
22.7249997642576
 30
0.0
 11
52.41721262389489
 21
20.97499976425761
 31
0.0
  0
LINE
  5
5D04
330
1A
100
AcDbEntity
  8
ZUWAKU
100
AcDbLine
 10
51.89221262389492
 20
20.44999976425761
 30
0.0
 11
48.9172126238949
 21
20.44999976425761
 31
0.0
  0
ARC
  5
5D05
330
1A
100
AcDbEntity
  8
ZUWAKU
100
AcDbCircle
 10
51.89221262389492
 20
20.97499976425761
 30
0.0
 40
0.525
100
AcDbArc
 50
270.0
 51
0.0
  0
ARC
  5
5D06
330
1A
100
AcDbEntity
  8
ZUWAKU
100
AcDbCircle
 10
51.89221262389492
 20
22.7249997642576
 30
0.0
 40
0.525
100
AcDbArc
 50
0.0
 51
90.0
  0
ARC
  5
5D07
330
1A
100
AcDbEntity
  8
ZUWAKU
100
AcDbCircle
 10
48.39221262389492
 20
20.44999976425761
 30
0.0
 40
2.799999999999999
100
AcDbArc
 50
90.0
 51
180.0
  0
LINE
  5
5D08
330
1A
100
AcDbEntity
  8
ZUWAKU
100
AcDbLine
 10
38.37649873921066
 20
22.56690579609064
 30
0.0
 11
37.31485910607284
 21
19.20504695782104
 31
0.0
  0
LINE
  5
5D09
330
1A
100
AcDbEntity
  8
ZUWAKU
100
AcDbLine
 10
45.59221262389485
 20
20.44999976425761
 30
0.0
 11
45.59221262389485
 21
18.63479773890227
 31
0.0
  0
LINE
  5
5D0A
330
1A
100
AcDbEntity
  8
ZUWAKU
100
AcDbLine
 10
42.96721262389485
 20
23.24999976425761
 30
0.0
 11
41.21721262389485
 21
23.24999976425761
 31
0.0
  0
ARC
  5
5D0B
330
1A
100
AcDbEntity
  8
ZUWAKU
100
AcDbCircle
 10
37.87586784001518
 20
22.7249997642576
 30
0.0
 40
0.525
100
AcDbArc
 50
342.4744316262769
 51
90.0
  0
ARC
  5
5D0C
330
1A
100
AcDbEntity
  8
ZUWAKU
100
AcDbCircle
 10
41.21721262389485
 20
22.7249997642576
 30
0.0
 40
0.525
100
AcDbArc
 50
90.0
 51
180.0
  0
ARC
  5
5D0D
330
1A
100
AcDbEntity
  8
ZUWAKU
100
AcDbCircle
 10
42.96721262389485
 20
22.7249997642576
 30
0.0
 40
0.525
100
AcDbArc
 50
0.0
 51
90.0
  0
LINE
  5
5D0E
330
1A
100
AcDbEntity
  8
ZUWAKU
100
AcDbLine
 10
48.39221262389492
 20
19.92499976425761
 30
0.0
 11
48.39221262389492
 21
18.63479773890227
 31
0.0
  0
ARC
  5
5D0F
330
1A
100
AcDbEntity
  8
ZUWAKU
100
AcDbCircle
 10
48.9172126238949
 20
19.92499976425761
 30
0.0
 40
0.525
100
AcDbArc
 50
90.0
 51
180.0
  0
LINE
  5
5D10
330
1A
100
AcDbEntity
  8
ZUWAKU
100
AcDbLine
 10
48.39221262389492
 20
23.24999976425761
 30
0.0
 11
51.89221262389492
 21
23.24999976425761
 31
0.0
  0
TEXT
  5
5D11
330
1A
100
AcDbEntity
  8
MOJI
100
AcDbText
 10
239.8272031499648
 20
18.00492082166499
 30
0.0
 40
5.599999999999999
  1
落し口エルボ
 41
0.9
  7
ｽﾀｲﾙ1
100
AcDbText
  0
TEXT
  5
5D12
330
1A
100
AcDbEntity
  8
MOJI
100
AcDbText
 10
92.95779005728286
 20
12.74117789453237
 30
0.0
 40
6.0
  1
アートフェイスＶＭ１２０
 41
0.9
  7
ｽﾀｲﾙ1
100
AcDbText
  0
LINE
  5
5D13
330
1A
100
AcDbEntity
  8
ZUWAKU
100
AcDbLine
 10
57.84221262389485
 20
10.9999997642576
 30
0.0
 11
57.84221262389485
 21
22.7249997642576
 31
0.0
  0
LINE
  5
5D14
330
1A
100
AcDbEntity
  8
ZUWAKU
100
AcDbLine
 10
55.04221262389489
 20
22.7249997642576
 30
0.0
 11
55.04221262389489
 21
9.949999764257611
 31
0.0
  0
LINE
  5
5D15
330
1A
100
AcDbEntity
  8
ZUWAKU
100
AcDbLine
 10
66.24221262389482
 20
22.7249997642576
 30
0.0
 11
66.24221262389482
 21
7.674999764257613
 31
0.0
  0
LINE
  5
5D16
330
1A
100
AcDbEntity
  8
ZUWAKU
100
AcDbLine
 10
69.0422126238949
 20
7.674999764257613
 30
0.0
 11
69.0422126238949
 21
22.7249997642576
 31
0.0
  0
LINE
  5
5D17
330
1A
100
AcDbEntity
  8
ZUWAKU
100
AcDbLine
 10
61.34221262389485
 20
22.7249997642576
 30
0.0
 11
61.34221262389485
 21
10.9999997642576
 31
0.0
  0
LINE
  5
5D18
330
1A
100
AcDbEntity
  8
ZUWAKU
100
AcDbLine
 10
64.14221262389492
 20
9.949999764257611
 30
0.0
 11
64.14221262389492
 21
22.7249997642576
 31
0.0
  0
LINE
  5
5D19
330
1A
100
AcDbEntity
  8
ZUWAKU
100
AcDbLine
 10
79.12663001710211
 20
29.9999997642576
 30
0.0
 11
79.12663001710211
 21
0.7999997642576773
 31
0.0
  0
LINE
  5
5D1A
330
1A
100
AcDbEntity
  8
ZUWAKU
100
AcDbLine
 10
79.52663001710198
 20
29.9999997642576
 30
0.0
 11
79.5266300171022
 21
0.7999997642576773
 31
0.0
  0
LINE
  5
5D1B
330
1A
100
AcDbEntity
  8
ZUWAKU
100
AcDbLine
 10
79.32663001710193
 20
29.9999997642576
 30
0.0
 11
79.32663001710216
 21
0.7999997642576773
 31
0.0
  0
LINE
  5
5D1C
330
1A
100
AcDbEntity
  8
ZUWAKU
100
AcDbLine
 10
208.4466017591814
 20
29.9999997642576
 30
0.0
 11
208.4466017591817
 21
0.7999997642576773
 31
0.0
  0
LINE
  5
5D1D
330
1A
100
AcDbEntity
  8
ZUWAKU
100
AcDbLine
 10
208.6466017591815
 20
29.9999997642576
 30
0.0
 11
208.6466017591817
 21
0.7999997642576773
 31
0.0
  0
LINE
  5
5D1E
330
1A
100
AcDbEntity
  8
ZUWAKU
100
AcDbLine
 10
208.2466017591816
 20
29.9999997642576
 30
0.0
 11
208.2466017591816
 21
0.7999997642576773
 31
0.0
  0
ARC
  5
5D1F
330
1A
100
AcDbEntity
  8
ZUWAKU
100
AcDbCircle
 10
57.84221262389485
 20
9.949999764257611
 30
0.0
 40
2.799999999999999
100
AcDbArc
 50
180.0
 51
270.0
  0
ARC
  5
5D20
330
1A
100
AcDbEntity
  8
ZUWAKU
100
AcDbCircle
 10
61.34221262389485
 20
9.949999764257611
 30
0.0
 40
2.799999999999999
100
AcDbArc
 50
270.0
 51
0.0
  0
LINE
  5
5D21
330
1A
100
AcDbEntity
  8
ZUWAKU
100
AcDbLine
 10
66.76721262389492
 20
7.149999764257614
 30
0.0
 11
68.51721262389492
 21
7.149999764257614
 31
0.0
  0
ARC
  5
5D22
330
1A
100
AcDbEntity
  8
ZUWAKU
100
AcDbCircle
 10
66.76721262389492
 20
7.674999764257613
 30
0.0
 40
0.525
100
AcDbArc
 50
180.0
 51
270.0
  0
ARC
  5
5D23
330
1A
100
AcDbEntity
  8
ZUWAKU
100
AcDbCircle
 10
68.51721262389492
 20
7.674999764257613
 30
0.0
 40
0.525
100
AcDbArc
 50
270.0
 51
0.0
  0
ARC
  5
5D24
330
1A
100
AcDbEntity
  8
ZUWAKU
100
AcDbCircle
 10
58.89221262389492
 20
10.9999997642576
 30
0.0
 40
1.049999999999999
100
AcDbArc
 50
180.0
 51
270.0
  0
LINE
  5
5D25
330
1A
100
AcDbEntity
  8
ZUWAKU
100
AcDbLine
 10
57.84221262389485
 20
7.149999764257614
 30
0.0
 11
61.34221262389485
 21
7.149999764257614
 31
0.0
  0
ARC
  5
5D26
330
1A
100
AcDbEntity
  8
ZUWAKU
100
AcDbCircle
 10
60.2922126238949
 20
10.9999997642576
 30
0.0
 40
1.049999999999999
100
AcDbArc
 50
270.0
 51
0.0
  0
LINE
  5
5D27
330
1A
100
AcDbEntity
  8
ZUWAKU
100
AcDbLine
 10
60.2922126238949
 20
9.949999764257611
 30
0.0
 11
58.89221262389492
 21
9.949999764257611
 31
0.0
  0
TEXT
  5
5D28
330
1A
100
AcDbEntity
  8
ZUWAKU
100
AcDbText
 10
209.7240467813912
 20
9.655356302643227
 30
0.0
 40
4.0
  1
サイズ
 41
0.9
  7
ｽﾀｲﾙ1
100
AcDbText
  0
LINE
  5
5D29
330
1A
100
AcDbEntity
  8
ZUWAKU
100
AcDbLine
 10
68.51721262389492
 20
23.24999976425761
 30
0.0
 11
66.76721262389492
 21
23.24999976425761
 31
0.0
  0
ARC
  5
5D2A
330
1A
100
AcDbEntity
  8
ZUWAKU
100
AcDbCircle
 10
66.76721262389492
 20
22.7249997642576
 30
0.0
 40
0.525
100
AcDbArc
 50
90.0
 51
180.0
  0
ARC
  5
5D2B
330
1A
100
AcDbEntity
  8
ZUWAKU
100
AcDbCircle
 10
68.51721262389492
 20
22.7249997642576
 30
0.0
 40
0.525
100
AcDbArc
 50
0.0
 51
90.0
  0
LINE
  5
5D2C
330
1A
100
AcDbEntity
  8
ZUWAKU
100
AcDbLine
 10
57.31721262389488
 20
23.24999976425761
 30
0.0
 11
55.56721262389487
 21
23.24999976425761
 31
0.0
  0
ARC
  5
5D2D
330
1A
100
AcDbEntity
  8
ZUWAKU
100
AcDbCircle
 10
55.56721262389487
 20
22.7249997642576
 30
0.0
 40
0.525
100
AcDbArc
 50
90.0
 51
180.0
  0
ARC
  5
5D2E
330
1A
100
AcDbEntity
  8
ZUWAKU
100
AcDbCircle
 10
57.31721262389488
 20
22.7249997642576
 30
0.0
 40
0.525
100
AcDbArc
 50
0.0
 51
90.0
  0
ARC
  5
5D2F
330
1A
100
AcDbEntity
  8
ZUWAKU
100
AcDbCircle
 10
61.86721262389482
 20
22.7249997642576
 30
0.0
 40
0.525
100
AcDbArc
 50
90.0
 51
180.0
  0
LINE
  5
5D30
330
1A
100
AcDbEntity
  8
ZUWAKU
100
AcDbLine
 10
63.61721262389483
 20
23.24999976425761
 30
0.0
 11
61.86721262389482
 21
23.24999976425761
 31
0.0
  0
ARC
  5
5D31
330
1A
100
AcDbEntity
  8
ZUWAKU
100
AcDbCircle
 10
63.61721262389483
 20
22.7249997642576
 30
0.0
 40
0.525
100
AcDbArc
 50
0.0
 51
90.0
  0
TEXT
  5
5D32
330
1A
100
AcDbEntity
  8
ZUWAKU
100
AcDbText
 10
209.724046781391
 20
24.05535630264319
 30
0.0
 40
4.0
  1
品名
 41
0.9
  7
ｽﾀｲﾙ1
100
AcDbText
  0
TEXT
  5
5D33
330
1A
100
AcDbEntity
  8
MOJI
100
AcDbText
 10
528.0409084414266
 20
18.00492082166499
 30
0.0
 40
5.599999999999999
  1
Ａ３
 41
0.9
  7
ｽﾀｲﾙ1
100
AcDbText
  0
LINE
  5
5D34
330
1A
100
AcDbEntity
  8
ZUWAKU
100
AcDbLine
 10
504.9991799672546
 20
29.9999997642576
 30
0.0
 11
504.9991799672548
 21
0.7999997642576773
 31
0.0
  0
LINE
  5
5D35
330
1A
100
AcDbEntity
  8
ZUWAKU
100
AcDbLine
 10
505.1991799672546
 20
29.9999997642576
 30
0.0
 11
505.1991799672548
 21
0.7999997642576773
 31
0.0
  0
LINE
  5
5D36
330
1A
100
AcDbEntity
  8
ZUWAKU
100
AcDbLine
 10
504.7991799672547
 20
29.9999997642576
 30
0.0
 11
504.7991799672547
 21
0.7999997642576773
 31
0.0
  0
LINE
  5
5D37
330
1A
100
AcDbEntity
  8
ZUWAKU
100
AcDbLine
 10
552.5269562352262
 20
29.9999997642576
 30
0.0
 11
552.5269562352262
 21
0.7999997642576773
 31
0.0
  0
LINE
  5
5D38
330
1A
100
AcDbEntity
  8
ZUWAKU
100
AcDbLine
 10
552.926956235226
 20
29.9999997642576
 30
0.0
 11
552.9269562352262
 21
0.7999997642576773
 31
0.0
  0
LINE
  5
5D39
330
1A
100
AcDbEntity
  8
ZUWAKU
100
AcDbLine
 10
552.726956235226
 20
29.9999997642576
 30
0.0
 11
552.7269562352262
 21
0.7999997642576773
 31
0.0
  0
LINE
  5
5D3A
330
1A
100
AcDbEntity
  8
ZUWAKU
100
AcDbLine
 10
447.624364440105
 20
29.9999997642576
 30
0.0
 11
447.6243644401051
 21
0.7999997642576773
 31
0.0
  0
LINE
  5
5D3B
330
1A
100
AcDbEntity
  8
ZUWAKU
100
AcDbLine
 10
447.8243644401049
 20
29.9999997642576
 30
0.0
 11
447.8243644401052
 21
0.7999997642576773
 31
0.0
  0
LINE
  5
5D3C
330
1A
100
AcDbEntity
  8
ZUWAKU
100
AcDbLine
 10
447.4243644401051
 20
29.9999997642576
 30
0.0
 11
447.4243644401051
 21
0.7999997642576773
 31
0.0
  0
TEXT
  5
5D3D
330
1A
100
AcDbEntity
  8
MOJI
100
AcDbText
 10
463.2464324601158
 20
11.94261748591759
 30
0.0
 40
5.599999999999999
  1
ＰＧ０２□
 41
0.9
  7
ｽﾀｲﾙ1
100
AcDbText
  0
LINE
  5
5D3E
330
1A
100
AcDbEntity
  8
ZUWAKU
100
AcDbLine
 10
505.1991799672546
 20
15.19999976425764
 30
0.0
 11
552.5269562352262
 21
15.19999976425764
 31
0.0
  0
LINE
  5
5D3F
330
1A
100
AcDbEntity
  8
ZUWAKU
100
AcDbLine
 10
505.1991799672546
 20
15.39999976425764
 30
0.0
 11
552.5269562352262
 21
15.39999976425764
 31
0.0
  0
LINE
  5
5D40
330
1A
100
AcDbEntity
  8
ZUWAKU
100
AcDbLine
 10
505.1991799672546
 20
15.59999976425764
 30
0.0
 11
552.5269562352262
 21
15.59999976425764
 31
0.0
  0
TEXT
  5
5D41
330
1A
100
AcDbEntity
  8
ZUWAKU
100
AcDbText
 10
506.6766249894644
 20
9.655356302643227
 30
0.0
 40
4.0
  1
縮尺
 41
0.9
  7
ｽﾀｲﾙ1
100
AcDbText
  0
TEXT
  5
5D42
330
1A
100
AcDbEntity
  8
ZUWAKU
100
AcDbText
 10
461.9836200953379
 20
2.614070675397101
 30
0.0
 40
3.0
  1
□には色品番が入ります
 41
0.9
  7
ｽﾀｲﾙ1
100
AcDbText
  0
TEXT
  5
5D43
330
1A
100
AcDbEntity
  8
MOJI
100
AcDbText
 10
528.0409084414266
 20
3.20492082166503
 30
0.0
 40
5.599999999999999
  1
１/２
 41
0.9
  7
ｽﾀｲﾙ1
100
AcDbText
  0
TEXT
  5
5D44
330
1A
100
AcDbEntity
  8
ZUWAKU
100
AcDbText
 10
449.3018094623145
 20
24.05535630264319
 30
0.0
 40
4.0
  1
品番
 41
0.9
  7
ｽﾀｲﾙ1
100
AcDbText
  0
TEXT
  5
5D45
330
1A
100
AcDbEntity
  8
ZUWAKU
100
AcDbText
 10
506.6766249894642
 20
24.05535630264319
 30
0.0
 40
4.0
  1
用紙
 41
0.9
  7
ｽﾀｲﾙ1
100
AcDbText
  0
TEXT
  5
5D46
330
1A
100
AcDbEntity
  8
ZUWAKU
100
AcDbText
 10
708.5280846613575
 20
17.55383909994441
 30
0.0
 40
6.0
  1
積水化学工業株式会社
 41
0.9
  7
ｽﾀｲﾙ1
100
AcDbText
  0
TEXT
  5
5D47
330
1A
100
AcDbEntity
  8
ZUWAKU
100
AcDbText
 10
658.2039381564161
 20
18.00492082166499
 30
0.0
 40
5.599999999999999
  1
　　．　　．　　
 41
0.9
  7
ｽﾀｲﾙ1
100
AcDbText
  0
LINE
  5
5D48
330
1A
100
AcDbEntity
  8
ZUWAKU
100
AcDbLine
 10
697.8490110176549
 20
29.9999997642576
 30
0.0
 11
697.8490110176551
 21
0.7999997642576773
 31
0.0
  0
LINE
  5
5D49
330
1A
100
AcDbEntity
  8
ZUWAKU
100
AcDbLine
 10
697.6490110176548
 20
29.9999997642576
 30
0.0
 11
697.649011017655
 21
0.7999997642576773
 31
0.0
  0
LINE
  5
5D4A
330
1A
100
AcDbEntity
  8
ZUWAKU
100
AcDbLine
 10
697.449011017655
 20
29.9999997642576
 30
0.0
 11
697.449011017655
 21
0.7999997642576773
 31
0.0
  0
LINE
  5
5D4B
330
1A
100
AcDbEntity
  8
ZUWAKU
100
AcDbLine
 10
697.249011017655
 20
29.9999997642576
 30
0.0
 11
697.249011017655
 21
0.7999997642576773
 31
0.0
  0
LINE
  5
5D4C
330
1A
100
AcDbEntity
  8
ZUWAKU
100
AcDbLine
 10
648.4172029793183
 20
29.9999997642576
 30
0.0
 11
648.4172029793183
 21
0.7999997642576773
 31
0.0
  0
LINE
  5
5D4D
330
1A
100
AcDbEntity
  8
ZUWAKU
100
AcDbLine
 10
648.8172029793181
 20
29.9999997642576
 30
0.0
 11
648.8172029793183
 21
0.7999997642576773
 31
0.0
  0
LINE
  5
5D4E
330
1A
100
AcDbEntity
  8
ZUWAKU
100
AcDbLine
 10
648.6172029793181
 20
29.9999997642576
 30
0.0
 11
648.6172029793183
 21
0.7999997642576773
 31
0.0
  0
TEXT
  5
5D4F
330
1A
100
AcDbEntity
  8
ZUWAKU
100
AcDbText
 10
708.5280846613575
 20
6.648840078111675
 30
0.0
 40
6.0
  1
建材事業部
 41
0.9
  7
ｽﾀｲﾙ1
100
AcDbText
  0
LINE
  5
5D50
330
1A
100
AcDbEntity
  8
ZUWAKU
100
AcDbLine
 10
648.8172029793179
 20
15.19999976425764
 30
0.0
 11
697.249011017655
 21
15.19999976425764
 31
0.0
  0
LINE
  5
5D51
330
1A
100
AcDbEntity
  8
ZUWAKU
100
AcDbLine
 10
648.8172029793181
 20
15.39999976425764
 30
0.0
 11
697.249011017655
 21
15.39999976425764
 31
0.0
  0
LINE
  5
5D52
330
1A
100
AcDbEntity
  8
ZUWAKU
100
AcDbLine
 10
648.8172029793179
 20
15.59999976425764
 30
0.0
 11
697.249011017655
 21
15.59999976425764
 31
0.0
  0
TEXT
  5
5D53
330
1A
100
AcDbEntity
  8
ZUWAKU
100
AcDbText
 10
650.2946480015277
 20
24.05535630264319
 30
0.0
 40
4.0
  1
DATE
 41
0.9
  7
ｽﾀｲﾙ1
100
AcDbText
  0
VIEWPORT
  5
22
330
17
100
AcDbEntity
 67
     1
  8
0
100
AcDbViewport
 10
313.6808219178082
 20
148.5
 30
0.0
 40
627.3616438356165
 41
297.0
 68
     2
 69
     1
1001
ACAD
1000
MVIEW
1002
{
1070
    16
1010
0.0
1020
0.0
1030
0.0
1010
0.0
1020
0.0
1030
1.0
1040
0.0
1040
297.0
1040
313.6808219178082
1040
148.5
1040
50.0
1040
0.0
1040
0.0
1070
     0
1070
   100
1070
     1
1070
     0
1070
     0
1070
     0
1070
     0
1070
     0
1040
0.0
1040
0.0
1040
0.0
1040
1.0
1040
1.0
1040
10.0
1040
10.0
1070
     0
1002
{
1002
}
1002
}
  0
VIEWPORT
  5
64
330
17
100
AcDbEntity
 67
     1
  8
VIEWPORT
100
AcDbViewport
 10
210.0
 20
148.5
 30
0.0
 40
420.0
 41
297.0
 68
     1
 69
     2
1001
ACAD
1000
MVIEW
1002
{
1070
    16
1010
0.0
1020
0.0
1030
0.0
1010
0.0
1020
0.0
1030
1.0
1040
0.0
1040
605.8799999999997
1040
420.0
1040
297.0
1040
50.0
1040
0.0
1040
0.0
1070
     0
1070
   100
1070
     1
1070
     0
1070
     0
1070
     0
1070
     0
1070
     0
1040
0.0
1040
0.0
1040
0.0
1040
10.0
1040
10.0
1040
0.0
1040
0.0
1070
     0
1002
{
1002
}
1002
}
  0
ENDSEC
  0
SECTION
  2
OBJECTS
  0
DICTIONARY
  5
C
330
0
100
AcDbDictionary
  3
ACAD_GROUP
350
D
  3
ACAD_LAYOUT
350
85F
  3
ACAD_MLINESTYLE
350
E
  3
ACAD_PLOTSETTINGS
350
860
  3
ACAD_PLOTSTYLENAME
350
85D
  3
ACDBHEADERROUNDTRIPXREC
350
5D69
  0
DICTIONARY
  5
88E
330
1A
100
AcDbDictionary
280
     1
  3
ACAD_LAYOUTSELFREF
360
5D8B
  0
DICTIONARY
  5
88C
330
17
100
AcDbDictionary
280
     1
  3
ACAD_LAYOUTSELFREF
360
5D8A
  0
DICTIONARY
  5
D
102
{ACAD_REACTORS
330
C
102
}
330
C
100
AcDbDictionary
  3
*A1
350
2006
  0
DICTIONARY
  5
85F
102
{ACAD_REACTORS
330
C
102
}
330
C
100
AcDbDictionary
  0
DICTIONARY
  5
E
102
{ACAD_REACTORS
330
C
102
}
330
C
100
AcDbDictionary
  3
STANDARD
350
13
  0
DICTIONARY
  5
860
102
{ACAD_REACTORS
330
C
102
}
330
C
100
AcDbDictionary
  0
ACDBDICTIONARYWDFLT
  5
85D
102
{ACAD_REACTORS
330
C
102
}
330
C
100
AcDbDictionary
281
     1
  3
Normal
350
85E
100
AcDbDictionaryWithDefault
340
85E
1001
ACAD
1000
TREAT_AS_HARD
1070
     0
1000
TREAT_AS_HARD
1070
     0
1000
TREAT_AS_HARD
1070
     0
1000
TREAT_AS_HARD
1070
     0
1000
TREAT_AS_HARD
1070
     0
1000
TREAT_AS_HARD
1070
     0
1000
TREAT_AS_HARD
1070
     0
1000
TREAT_AS_HARD
1070
     0
1000
TREAT_AS_HARD
1070
     0
1000
TREAT_AS_HARD
1070
     0
1000
TREAT_AS_HARD
1070
     0
1000
TREAT_AS_HARD
1070
     0
1000
TREAT_AS_HARD
1070
     0
  0
DICTIONARY
  5
5D69
102
{ACAD_REACTORS
330
C
102
}
330
C
100
AcDbDictionary
  3
TSTACKALIGN
350
5D6A
  3
TSTACKSIZE
350
5D6B
  3
HYPERLINKBASE
350
5D6C
  3
STYLESHEET
350
5D6D
  3
LAYOUTDICT
350
5D6E
  3
PLOTSETDICT
350
5D6F
  3
PLOTSTYLNAMDICT
350
5D70
  3
LWETCUNION
350
5D71
  3
INSUNITS
350
5D72
  3
CEPSNTYPE
350
5D73
  3
FINGERPRINTGUID
350
5D74
  3
VERSIONGUID
350
5D75
  3
PSVPSCALE
350
5D76
  3
DIMSTYLEDATA
350
5D77
  3
PUCSORTHOREF
350
5D78
  3
PUCSORTHOVIEW
350
5D79
  3
PUCSBASE
350
5D7A
  3
PUCSORGTOP
350
5D7B
  3
PUCSORGBOTTOM
350
5D7C
  3
PUCSORGLEFT
350
5D7D
  3
PUCSORGRIGHT
350
5D7E
  3
PUCSORGFRONT
350
5D7F
  3
PUCSORGBACK
350
5D80
  3
UCSORTHOREF
350
5D81
  3
UCSORTHOVIEW
350
5D82
  3
UCSBASE
350
5D83
  3
UCSORGTOP
350
5D84
  3
UCSORGBOTTOM
350
5D85
  3
UCSORGLEFT
350
5D86
  3
UCSORGRIGHT
350
5D87
  3
UCSORGFRONT
350
5D88
  3
UCSORGBACK
350
5D89
  0
XRECORD
  5
5D8B
102
{ACAD_REACTORS
330
88E
102
}
330
88E
100
AcDbXrecord
340
1A
  0
XRECORD
  5
5D8A
102
{ACAD_REACTORS
330
88C
102
}
330
88C
100
AcDbXrecord
340
17
  0
GROUP
  5
2006
102
{ACAD_REACTORS
330
D
102
}
330
D
100
AcDbGroup
300

 70
     1
 71
     1
  0
MLINESTYLE
  5
13
102
{ACAD_REACTORS
330
E
102
}
330
E
100
AcDbMlineStyle
  2
STANDARD
 70
     0
  3

 62
     0
 51
90.0
 52
90.0
 71
     2
 49
0.5
 62
   256
  6
BYLAYER
 49
-0.5
 62
   256
  6
BYLAYER
  0
ACDBPLACEHOLDER
  5
85E
102
{ACAD_REACTORS
330
85D
102
}
330
85D
100
AcDbPlaceHolder
280
     0
  0
XRECORD
  5
5D6A
102
{ACAD_REACTORS
330
5D69
102
}
330
5D69
100
AcDbXrecord
 90
        1
  0
XRECORD
  5
5D6B
102
{ACAD_REACTORS
330
5D69
102
}
330
5D69
100
AcDbXrecord
 90
       70
  0
XRECORD
  5
5D6C
102
{ACAD_REACTORS
330
5D69
102
}
330
5D69
100
AcDbXrecord
  1

  0
XRECORD
  5
5D6D
102
{ACAD_REACTORS
330
5D69
102
}
330
5D69
100
AcDbXrecord
  1
systemprinter.ctb
  0
XRECORD
  5
5D6E
102
{ACAD_REACTORS
330
5D69
102
}
330
5D69
100
AcDbXrecord
340
85F
  0
XRECORD
  5
5D6F
102
{ACAD_REACTORS
330
5D69
102
}
330
5D69
100
AcDbXrecord
340
860
  0
XRECORD
  5
5D70
102
{ACAD_REACTORS
330
5D69
102
}
330
5D69
100
AcDbXrecord
340
85D
  0
XRECORD
  5
5D71
102
{ACAD_REACTORS
330
5D69
102
}
330
5D69
100
AcDbXrecord
 90
    10781
  0
XRECORD
  5
5D72
102
{ACAD_REACTORS
330
5D69
102
}
330
5D69
100
AcDbXrecord
 90
        0
  0
XRECORD
  5
5D73
102
{ACAD_REACTORS
330
5D69
102
}
330
5D69
100
AcDbXrecord
 90
        0
  0
XRECORD
  5
5D74
102
{ACAD_REACTORS
330
5D69
102
}
330
5D69
100
AcDbXrecord
  1
{FF3C30AF-89FB-45B1-9067-596B98B489D4}
  0
XRECORD
  5
5D75
102
{ACAD_REACTORS
330
5D69
102
}
330
5D69
100
AcDbXrecord
  1
{B24D162F-57B0-499E-A6E0-D535F42F595C}
  0
XRECORD
  5
5D76
102
{ACAD_REACTORS
330
5D69
102
}
330
5D69
100
AcDbXrecord
 40
0.0
  0
XRECORD
  5
5D77
102
{ACAD_REACTORS
330
5D69
102
}
330
5D69
100
AcDbXrecord
1000
DSTYLE
1002
{
1070
   341
340
6D
1070
   343
340
6D
1070
   344
340
6D
1070
   371
 70
    -1
1070
   372
 70
    -1
1002
}
  0
XRECORD
  5
5D78
102
{ACAD_REACTORS
330
5D69
102
}
330
5D69
100
AcDbXrecord
340
0
  0
XRECORD
  5
5D79
102
{ACAD_REACTORS
330
5D69
102
}
330
5D69
100
AcDbXrecord
 70
     0
  0
XRECORD
  5
5D7A
102
{ACAD_REACTORS
330
5D69
102
}
330
5D69
100
AcDbXrecord
340
0
  0
XRECORD
  5
5D7B
102
{ACAD_REACTORS
330
5D69
102
}
330
5D69
100
AcDbXrecord
 10
0.0
 20
0.0
 30
0.0
  0
XRECORD
  5
5D7C
102
{ACAD_REACTORS
330
5D69
102
}
330
5D69
100
AcDbXrecord
 10
0.0
 20
0.0
 30
0.0
  0
XRECORD
  5
5D7D
102
{ACAD_REACTORS
330
5D69
102
}
330
5D69
100
AcDbXrecord
 10
0.0
 20
0.0
 30
0.0
  0
XRECORD
  5
5D7E
102
{ACAD_REACTORS
330
5D69
102
}
330
5D69
100
AcDbXrecord
 10
0.0
 20
0.0
 30
0.0
  0
XRECORD
  5
5D7F
102
{ACAD_REACTORS
330
5D69
102
}
330
5D69
100
AcDbXrecord
 10
0.0
 20
0.0
 30
0.0
  0
XRECORD
  5
5D80
102
{ACAD_REACTORS
330
5D69
102
}
330
5D69
100
AcDbXrecord
 10
0.0
 20
0.0
 30
0.0
  0
XRECORD
  5
5D81
102
{ACAD_REACTORS
330
5D69
102
}
330
5D69
100
AcDbXrecord
340
0
  0
XRECORD
  5
5D82
102
{ACAD_REACTORS
330
5D69
102
}
330
5D69
100
AcDbXrecord
 70
     0
  0
XRECORD
  5
5D83
102
{ACAD_REACTORS
330
5D69
102
}
330
5D69
100
AcDbXrecord
340
0
  0
XRECORD
  5
5D84
102
{ACAD_REACTORS
330
5D69
102
}
330
5D69
100
AcDbXrecord
 10
0.0
 20
0.0
 30
0.0
  0
XRECORD
  5
5D85
102
{ACAD_REACTORS
330
5D69
102
}
330
5D69
100
AcDbXrecord
 10
0.0
 20
0.0
 30
0.0
  0
XRECORD
  5
5D86
102
{ACAD_REACTORS
330
5D69
102
}
330
5D69
100
AcDbXrecord
 10
0.0
 20
0.0
 30
0.0
  0
XRECORD
  5
5D87
102
{ACAD_REACTORS
330
5D69
102
}
330
5D69
100
AcDbXrecord
 10
0.0
 20
0.0
 30
0.0
  0
XRECORD
  5
5D88
102
{ACAD_REACTORS
330
5D69
102
}
330
5D69
100
AcDbXrecord
 10
0.0
 20
0.0
 30
0.0
  0
XRECORD
  5
5D89
102
{ACAD_REACTORS
330
5D69
102
}
330
5D69
100
AcDbXrecord
 10
0.0
 20
0.0
 30
0.0
  0
ENDSEC
  0
EOF
