  0
SECTION
  2
HEADER
  9
$ACADVER
  1
AC1014
  9
$ACADMAINTVER
 70
     9
  9
$DWGCODEPAGE
  3
ANSI_932
  9
$INSBASE
 10
0.0
 20
0.0
 30
0.0
  9
$EXTMIN
 10
-0.0256328098773793
 20
-0.0181262941630394
 30
-0.0015258207003583
  9
$EXTMAX
 10
797.6000995626677
 20
551.6452344711938
 30
0.0000000349246037
  9
$LIMMIN
 10
0.0
 20
0.0
  9
$LIMMAX
 10
840.0
 20
594.0
  9
$ORTHOMODE
 70
     1
  9
$REGENMODE
 70
     1
  9
$FILLMODE
 70
     1
  9
$QTEXTMODE
 70
     0
  9
$MIRRTEXT
 70
     1
  9
$DRAGMODE
 70
     2
  9
$LTSCALE
 40
2.0
  9
$OSMODE
 70
    35
  9
$ATTMODE
 70
     1
  9
$TEXTSIZE
 40
5.0
  9
$TRACEWID
 40
1.0
  9
$TEXTSTYLE
  7
STANDARD
  9
$CLAYER
  8
0
  9
$CELTYPE
  6
BYLAYER
  9
$CECOLOR
 62
   256
  9
$CELTSCALE
 40
1.0
  9
$DELOBJ
 70
     1
  9
$DISPSILH
 70
     0
  9
$DIMSCALE
 40
1.0
  9
$DIMASZ
 40
7.0
  9
$DIMEXO
 40
6.0
  9
$DIMDLI
 40
14.0
  9
$DIMRND
 40
0.0
  9
$DIMDLE
 40
0.0
  9
$DIMEXE
 40
3.0
  9
$DIMTP
 40
0.0
  9
$DIMTM
 40
0.0
  9
$DIMTXT
 40
6.0
  9
$DIMCEN
 40
150.0
  9
$DIMTSZ
 40
0.0
  9
$DIMTOL
 70
     0
  9
$DIMLIM
 70
     0
  9
$DIMTIH
 70
     0
  9
$DIMTOH
 70
     0
  9
$DIMSE1
 70
     0
  9
$DIMSE2
 70
     0
  9
$DIMTAD
 70
     3
  9
$DIMZIN
 70
     0
  9
$DIMBLK
  1

  9
$DIMASO
 70
     1
  9
$DIMSHO
 70
     1
  9
$DIMPOST
  1

  9
$DIMAPOST
  1

  9
$DIMALT
 70
     0
  9
$DIMALTD
 70
     2
  9
$DIMALTF
 40
25.4
  9
$DIMLFAC
 40
1.0
  9
$DIMTOFL
 70
     1
  9
$DIMTVP
 40
0.0
  9
$DIMTIX
 70
     0
  9
$DIMSOXD
 70
     0
  9
$DIMSAH
 70
     1
  9
$DIMBLK1
  1
OPEN
  9
$DIMBLK2
  1
OPEN
  9
$DIMSTYLE
  2
STANDARD
  9
$DIMCLRD
 70
   256
  9
$DIMCLRE
 70
   256
  9
$DIMCLRT
 70
   256
  9
$DIMTFAC
 40
1.0
  9
$DIMGAP
 40
2.0
  9
$DIMJUST
 70
     0
  9
$DIMSD1
 70
     0
  9
$DIMSD2
 70
     0
  9
$DIMTOLJ
 70
     1
  9
$DIMTZIN
 70
     0
  9
$DIMALTZ
 70
     0
  9
$DIMALTTZ
 70
     0
  9
$DIMFIT
 70
     3
  9
$DIMUPT
 70
     0
  9
$DIMUNIT
 70
     2
  9
$DIMDEC
 70
     0
  9
$DIMTDEC
 70
     0
  9
$DIMALTU
 70
     2
  9
$DIMALTTD
 70
     2
  9
$DIMTXSTY
  7
STANDARD
  9
$DIMAUNIT
 70
     0
  9
$LUNITS
 70
     2
  9
$LUPREC
 70
     4
  9
$SKETCHINC
 40
1.0
  9
$FILLETRAD
 40
3.2
  9
$AUNITS
 70
     0
  9
$AUPREC
 70
     0
  9
$MENU
  1
.
  9
$ELEVATION
 40
0.0
  9
$PELEVATION
 40
0.0
  9
$THICKNESS
 40
0.0
  9
$LIMCHECK
 70
     0
  9
$BLIPMODE
 70
     0
  9
$CHAMFERA
 40
0.0
  9
$CHAMFERB
 40
0.0
  9
$CHAMFERC
 40
40.0
  9
$CHAMFERD
 40
0.0
  9
$SKPOLY
 70
     0
  9
$TDCREATE
 40
2451159.670660069
  9
$TDUPDATE
 40
2453481.399619861
  9
$TDINDWG
 40
0.1961135532
  9
$TDUSRTIMER
 40
0.1961131944
  9
$USRTIMER
 70
     1
  9
$ANGBASE
 50
0.0
  9
$ANGDIR
 70
     0
  9
$PDMODE
 70
     0
  9
$PDSIZE
 40
0.0
  9
$PLINEWID
 40
0.0
  9
$COORDS
 70
     1
  9
$SPLFRAME
 70
     0
  9
$SPLINETYPE
 70
     6
  9
$SPLINESEGS
 70
     8
  9
$ATTDIA
 70
     0
  9
$ATTREQ
 70
     1
  9
$HANDLING
 70
 10241
  9
$HANDSEED
  5
320A
  9
$SURFTAB1
 70
     6
  9
$SURFTAB2
 70
     6
  9
$SURFTYPE
 70
     6
  9
$SURFU
 70
     6
  9
$SURFV
 70
     6
  9
$UCSNAME
  2

  9
$UCSORG
 10
0.0
 20
0.0
 30
0.0
  9
$UCSXDIR
 10
1.0
 20
0.0
 30
0.0
  9
$UCSYDIR
 10
0.0
 20
1.0
 30
0.0
  9
$PUCSNAME
  2

  9
$PUCSORG
 10
0.0
 20
0.0
 30
0.0
  9
$PUCSXDIR
 10
1.0
 20
0.0
 30
0.0
  9
$PUCSYDIR
 10
0.0
 20
1.0
 30
0.0
  9
$USERI1
 70
     0
  9
$USERI2
 70
     0
  9
$USERI3
 70
     0
  9
$USERI4
 70
     0
  9
$USERI5
 70
     0
  9
$USERR1
 40
0.0
  9
$USERR2
 40
0.0
  9
$USERR3
 40
0.0
  9
$USERR4
 40
0.0
  9
$USERR5
 40
0.0
  9
$WORLDVIEW
 70
     1
  9
$SHADEDGE
 70
     3
  9
$SHADEDIF
 70
    70
  9
$TILEMODE
 70
     1
  9
$MAXACTVP
 70
    16
  9
$PINSBASE
 10
0.0
 20
0.0
 30
0.0
  9
$PLIMCHECK
 70
     0
  9
$PEXTMIN
 10
0.0
 20
0.0
 30
0.0
  9
$PEXTMAX
 10
420.0
 20
297.0
 30
0.0
  9
$PLIMMIN
 10
0.0
 20
0.0
  9
$PLIMMAX
 10
420.0
 20
297.0
  9
$UNITMODE
 70
     0
  9
$VISRETAIN
 70
     0
  9
$PLINEGEN
 70
     0
  9
$PSLTSCALE
 70
     1
  9
$TREEDEPTH
 70
  3020
  9
$PICKSTYLE
 70
     1
  9
$CMLSTYLE
  2
STANDARD
  9
$CMLJUST
 70
     0
  9
$CMLSCALE
 40
1.0
  9
$PROXYGRAPHICS
 70
     1
  9
$MEASUREMENT
 70
     1
  0
ENDSEC
  0
SECTION
  2
CLASSES
  0
CLASS
  1
ACDBDICTIONARYWDFLT
  2
AcDbDictionaryWithDefault
  3
AutoCAD 2000
 90
        0
280
     0
281
     0
  0
CLASS
  1
ACDBPLACEHOLDER
  2
AcDbPlaceHolder
  3
AutoCAD 2000
 90
        0
280
     0
281
     0
  0
CLASS
  1
LAYOUT
  2
AcDbLayout
  3
AutoCAD 2000
 90
        0
280
     0
281
     0
  0
CLASS
  1
LONG_TRANSACTION
  2
AcDbLongTransaction
  3
AutoCAD 2000
 90
        0
280
     0
281
     0
  0
CLASS
  1
LWPOLYLINE
  2
AcDbPolyline
  3
AutoCAD 2000
 90
        0
280
     0
281
     1
  0
CLASS
  1
HATCH
  2
AcDbHatch
  3
AutoCAD 2000
 90
        0
280
     0
281
     1
  0
CLASS
  1
XRECORD
  2
AcDbXrecord
  3
AutoCAD 2000
 90
        0
280
     0
281
     0
  0
CLASS
  1
LONG_TRANSACTION
  2
AcDbLongTransaction
  3
AutoCAD 2000
 90
        0
280
     0
281
     0
  0
CLASS
  1
LWPOLYLINE
  2
AcDbPolyline
  3
AutoCAD 2000
 90
        0
280
     0
281
     1
  0
CLASS
  1
HATCH
  2
AcDbHatch
  3
AutoCAD 2000
 90
        0
280
     0
281
     1
  0
CLASS
  1
XRECORD
  2
AcDbXrecord
  3
AutoCAD 2000
 90
        0
280
     0
281
     0
  0
CLASS
  1
LONG_TRANSACTION
  2
AcDbLongTransaction
  3
AutoCAD 2000
 90
        0
280
     0
281
     0
  0
CLASS
  1
LWPOLYLINE
  2
AcDbPolyline
  3
AutoCAD 2000
 90
        0
280
     0
281
     1
  0
CLASS
  1
HATCH
  2
AcDbHatch
  3
AutoCAD 2000
 90
        0
280
     0
281
     1
  0
CLASS
  1
XRECORD
  2
AcDbXrecord
  3
AutoCAD 2000
 90
        0
280
     0
281
     0
  0
CLASS
  1
LONG_TRANSACTION
  2
AcDbLongTransaction
  3
AutoCAD 2000
 90
        0
280
     0
281
     0
  0
CLASS
  1
LWPOLYLINE
  2
AcDbPolyline
  3
AutoCAD 2000
 90
        0
280
     0
281
     1
  0
CLASS
  1
HATCH
  2
AcDbHatch
  3
AutoCAD 2000
 90
        0
280
     0
281
     1
  0
CLASS
  1
XRECORD
  2
AcDbXrecord
  3
AutoCAD 2000
 90
        0
280
     0
281
     0
  0
CLASS
  1
LONG_TRANSACTION
  2
AcDbLongTransaction
  3
AutoCAD 2000
 90
        0
280
     0
281
     0
  0
CLASS
  1
LWPOLYLINE
  2
AcDbPolyline
  3
AutoCAD 2000
 90
        0
280
     0
281
     1
  0
CLASS
  1
HATCH
  2
AcDbHatch
  3
AutoCAD 2000
 90
        0
280
     0
281
     1
  0
CLASS
  1
XRECORD
  2
AcDbXrecord
  3
AutoCAD 2000
 90
        0
280
     0
281
     0
  0
CLASS
  1
LONG_TRANSACTION
  2
AcDbLongTransaction
  3
AutoCAD 2000
 90
        0
280
     0
281
     0
  0
CLASS
  1
LWPOLYLINE
  2
AcDbPolyline
  3
AutoCAD 2000
 90
        0
280
     0
281
     1
  0
CLASS
  1
HATCH
  2
AcDbHatch
  3
AutoCAD 2000
 90
        0
280
     0
281
     1
  0
CLASS
  1
XRECORD
  2
AcDbXrecord
  3
AutoCAD 2000
 90
        0
280
     0
281
     0
  0
CLASS
  1
LONG_TRANSACTION
  2
AcDbLongTransaction
  3
AutoCAD 2000
 90
        0
280
     0
281
     0
  0
CLASS
  1
LWPOLYLINE
  2
AcDbPolyline
  3
AutoCAD 2000
 90
        0
280
     0
281
     1
  0
CLASS
  1
HATCH
  2
AcDbHatch
  3
AutoCAD 2000
 90
        0
280
     0
281
     1
  0
CLASS
  1
XRECORD
  2
AcDbXrecord
  3
AutoCAD 2000
 90
        0
280
     0
281
     0
  0
CLASS
  1
LONG_TRANSACTION
  2
AcDbLongTransaction
  3
AutoCAD 2000
 90
        0
280
     0
281
     0
  0
CLASS
  1
LWPOLYLINE
  2
AcDbPolyline
  3
AutoCAD 2000
 90
        0
280
     0
281
     1
  0
CLASS
  1
HATCH
  2
AcDbHatch
  3
AutoCAD 2000
 90
        0
280
     0
281
     1
  0
CLASS
  1
XRECORD
  2
AcDbXrecord
  3
AutoCAD 2000
 90
        0
280
     0
281
     0
  0
CLASS
  1
LONG_TRANSACTION
  2
AcDbLongTransaction
  3
AutoCAD 2000
 90
        0
280
     0
281
     0
  0
CLASS
  1
LWPOLYLINE
  2
AcDbPolyline
  3
AutoCAD 2000
 90
        0
280
     0
281
     1
  0
CLASS
  1
HATCH
  2
AcDbHatch
  3
AutoCAD 2000
 90
        0
280
     0
281
     1
  0
CLASS
  1
XRECORD
  2
AcDbXrecord
  3
AutoCAD 2000
 90
        0
280
     0
281
     0
  0
CLASS
  1
LONG_TRANSACTION
  2
AcDbLongTransaction
  3
AutoCAD 2000
 90
        0
280
     0
281
     0
  0
CLASS
  1
LWPOLYLINE
  2
AcDbPolyline
  3
AutoCAD 2000
 90
        0
280
     0
281
     1
  0
CLASS
  1
HATCH
  2
AcDbHatch
  3
AutoCAD 2000
 90
        0
280
     0
281
     1
  0
CLASS
  1
XRECORD
  2
AcDbXrecord
  3
AutoCAD 2000
 90
        0
280
     0
281
     0
  0
CLASS
  1
LONG_TRANSACTION
  2
AcDbLongTransaction
  3
AutoCAD 2000
 90
        0
280
     0
281
     0
  0
CLASS
  1
LWPOLYLINE
  2
AcDbPolyline
  3
AutoCAD 2000
 90
        0
280
     0
281
     1
  0
CLASS
  1
HATCH
  2
AcDbHatch
  3
AutoCAD 2000
 90
        0
280
     0
281
     1
  0
CLASS
  1
XRECORD
  2
AcDbXrecord
  3
AutoCAD 2000
 90
        0
280
     0
281
     0
  0
CLASS
  1
LONG_TRANSACTION
  2
AcDbLongTransaction
  3
AutoCAD 2000
 90
        0
280
     0
281
     0
  0
CLASS
  1
LWPOLYLINE
  2
AcDbPolyline
  3
AutoCAD 2000
 90
        0
280
     0
281
     1
  0
CLASS
  1
HATCH
  2
AcDbHatch
  3
AutoCAD 2000
 90
        0
280
     0
281
     1
  0
CLASS
  1
XRECORD
  2
AcDbXrecord
  3
AutoCAD 2000
 90
        0
280
     0
281
     0
  0
CLASS
  1
LONG_TRANSACTION
  2
AcDbLongTransaction
  3
AutoCAD 2000
 90
        0
280
     0
281
     0
  0
CLASS
  1
LWPOLYLINE
  2
AcDbPolyline
  3
AutoCAD 2000
 90
        0
280
     0
281
     1
  0
CLASS
  1
HATCH
  2
AcDbHatch
  3
AutoCAD 2000
 90
        0
280
     0
281
     1
  0
CLASS
  1
XRECORD
  2
AcDbXrecord
  3
AutoCAD 2000
 90
        0
280
     0
281
     0
  0
ENDSEC
  0
SECTION
  2
TABLES
  0
TABLE
  2
VPORT
  5
8
330
0
100
AcDbSymbolTable
 70
     2
  0
VPORT
  5
31E6
330
8
100
AcDbSymbolTableRecord
100
AcDbViewportTableRecord
  2
*ACTIVE
 70
     0
 10
0.0
 20
0.0
 11
1.0
 21
1.0
 12
352.4891445294097
 22
272.1521676303683
 13
0.0
 23
0.0
 14
5.0
 24
5.0
 15
0.0
 25
0.0
 16
0.0
 26
0.0
 36
1.0
 17
0.0
 27
0.0
 37
0.0
 40
610.655831127289
 41
1.752310536044362
 42
50.0
 43
0.0
 44
0.0
 50
0.0
 51
0.0
 71
     0
 72
   100
 73
     1
 74
     0
 75
     0
 76
     0
 77
     0
 78
     0
  0
ENDTAB
  0
TABLE
  2
LTYPE
  5
5
330
0
100
AcDbSymbolTable
 70
     3
  0
LTYPE
  5
14
330
5
100
AcDbSymbolTableRecord
100
AcDbLinetypeTableRecord
  2
BYBLOCK
 70
     0
  3

 72
    65
 73
     0
 40
0.0
  0
LTYPE
  5
15
330
5
100
AcDbSymbolTableRecord
100
AcDbLinetypeTableRecord
  2
BYLAYER
 70
     0
  3

 72
    65
 73
     0
 40
0.0
  0
LTYPE
  5
16
330
5
100
AcDbSymbolTableRecord
100
AcDbLinetypeTableRecord
  2
CONTINUOUS
 70
     0
  3
Solid line
 72
    65
 73
     0
 40
0.0
  0
LTYPE
  5
135
330
5
100
AcDbSymbolTableRecord
100
AcDbLinetypeTableRecord
  2
CENTER
 70
     0
  3
____ _ ____ _ ____ _ ____ _ ____ _ ____ _ ____ 
 72
    65
 73
     4
 40
2.0
 49
1.25
 74
     0
 49
-0.25
 74
     0
 49
0.25
 74
     0
 49
-0.25
 74
     0
  0
LTYPE
  5
2763
330
5
100
AcDbSymbolTableRecord
100
AcDbLinetypeTableRecord
  2
PHANTOM
 70
     0
  3
______  __  __  ______  __  __  ______  __  __ 
 72
    65
 73
     6
 40
2.5
 49
1.25
 74
     0
 49
-0.25
 74
     0
 49
0.25
 74
     0
 49
-0.25
 74
     0
 49
0.25
 74
     0
 49
-0.25
 74
     0
  0
ENDTAB
  0
TABLE
  2
LAYER
  5
2
330
0
100
AcDbSymbolTable
 70
     9
  0
LAYER
  5
F
330
2
100
AcDbSymbolTableRecord
100
AcDbLayerTableRecord
  2
0
 70
     0
 62
     7
  6
CONTINUOUS
  0
LAYER
  5
62
330
2
100
AcDbSymbolTableRecord
100
AcDbLayerTableRecord
  2
VIEWPORT
 70
     0
 62
     7
  6
CONTINUOUS
  0
LAYER
  5
65
330
2
100
AcDbSymbolTableRecord
100
AcDbLayerTableRecord
  2
ZUWAKU
 70
     0
 62
     7
  6
CONTINUOUS
  0
LAYER
  5
2CF
330
2
100
AcDbSymbolTableRecord
100
AcDbLayerTableRecord
  2
SUNPOU
 70
     0
 62
     4
  6
CONTINUOUS
  0
LAYER
  5
2D1
330
2
100
AcDbSymbolTableRecord
100
AcDbLayerTableRecord
  2
SEIHIN
 70
     0
 62
     3
  6
CONTINUOUS
  0
LAYER
  5
532
330
2
100
AcDbSymbolTableRecord
100
AcDbLayerTableRecord
  2
DEFPOINTS
 70
     0
 62
     7
  6
CONTINUOUS
  0
LAYER
  5
809
330
2
100
AcDbSymbolTableRecord
100
AcDbLayerTableRecord
  2
CENTER_L
 70
     0
 62
     1
  6
CENTER
  0
LAYER
  5
2764
330
2
100
AcDbSymbolTableRecord
100
AcDbLayerTableRecord
  2
NOKITOI
 70
     0
 62
     9
  6
PHANTOM
  0
LAYER
  5
3067
330
2
100
AcDbSymbolTableRecord
100
AcDbLayerTableRecord
  2
MOJI
 70
     0
 62
     2
  6
CONTINUOUS
  0
ENDTAB
  0
TABLE
  2
STYLE
  5
3
330
0
100
AcDbSymbolTable
 70
     2
  0
STYLE
  5
10
330
3
100
AcDbSymbolTableRecord
100
AcDbTextStyleTableRecord
  2
STANDARD
 70
     0
 40
0.0
 41
1.0
 50
0.0
 71
     0
 42
5.0
  3
TXT
  4
bigfont.shx
  0
STYLE
  5
3068
330
3
100
AcDbSymbolTableRecord
100
AcDbTextStyleTableRecord
  2
ｽﾀｲﾙ1
 70
     0
 40
0.0
 41
1.0
 50
0.0
 71
     0
 42
2.5
  3
MS PGothic.ttf
  4

1001
ACAD
1000
MS PGothic
1071
    32818
  0
ENDTAB
  0
TABLE
  2
VIEW
  5
6
330
0
100
AcDbSymbolTable
 70
     0
  0
ENDTAB
  0
TABLE
  2
UCS
  5
7
330
0
100
AcDbSymbolTable
 70
     0
  0
ENDTAB
  0
TABLE
  2
APPID
  5
9
330
0
100
AcDbSymbolTable
 70
     1
  0
APPID
  5
11
330
9
100
AcDbSymbolTableRecord
100
AcDbRegAppTableRecord
  2
ACAD
 70
     0
  0
ENDTAB
  0
TABLE
  2
DIMSTYLE
  5
A
330
0
100
AcDbSymbolTable
 70
     1
  0
DIMSTYLE
105
1D
102
{ACAD_REACTORS
330
264F
330
265D
330
266A
330
2680
330
2726
330
273C
330
2755
102
}
330
A
100
AcDbSymbolTableRecord
100
AcDbDimStyleTableRecord
  2
STANDARD
 70
     0
  3

  4

  5

  6

  7

 40
1.0
 41
0.18
 42
0.0625
 43
0.38
 44
0.18
 45
0.0
 46
0.0
 47
0.0
 48
0.0
140
0.18
141
0.09
142
0.0
143
25.4
144
1.0
145
0.0
146
1.0
147
0.09
 71
     0
 72
     0
 73
     1
 74
     1
 75
     0
 76
     0
 77
     0
 78
     0
170
     0
171
     2
172
     0
173
     0
174
     0
175
     0
176
     0
177
     0
178
     0
270
     2
271
     4
272
     4
273
     2
274
     2
340
10
275
     0
280
     0
281
     0
282
     0
283
     1
284
     0
285
     0
286
     0
287
     3
288
     0
  0
ENDTAB
  0
TABLE
  2
BLOCK_RECORD
  5
1
330
0
100
AcDbSymbolTable
 70
     9
  0
BLOCK_RECORD
  5
1A
102
{ACAD_XDICTIONARY
360
9DE
102
}
330
1
100
AcDbSymbolTableRecord
100
AcDbBlockTableRecord
  2
*MODEL_SPACE
  0
BLOCK_RECORD
  5
17
102
{ACAD_XDICTIONARY
360
9DC
102
}
330
1
100
AcDbSymbolTableRecord
100
AcDbBlockTableRecord
  2
*PAPER_SPACE
  0
BLOCK_RECORD
  5
6D
330
1
100
AcDbSymbolTableRecord
100
AcDbBlockTableRecord
  2
_OPEN
  0
BLOCK_RECORD
  5
2650
330
1
100
AcDbSymbolTableRecord
100
AcDbBlockTableRecord
  2
*D1
  0
BLOCK_RECORD
  5
265E
330
1
100
AcDbSymbolTableRecord
100
AcDbBlockTableRecord
  2
*D2
  0
BLOCK_RECORD
  5
266B
330
1
100
AcDbSymbolTableRecord
100
AcDbBlockTableRecord
  2
*D3
  0
BLOCK_RECORD
  5
2681
330
1
100
AcDbSymbolTableRecord
100
AcDbBlockTableRecord
  2
*D4
  0
BLOCK_RECORD
  5
2727
330
1
100
AcDbSymbolTableRecord
100
AcDbBlockTableRecord
  2
*D5
  0
BLOCK_RECORD
  5
273D
330
1
100
AcDbSymbolTableRecord
100
AcDbBlockTableRecord
  2
*D6
  0
BLOCK_RECORD
  5
2756
330
1
100
AcDbSymbolTableRecord
100
AcDbBlockTableRecord
  2
*D7
  0
BLOCK_RECORD
  5
2765
330
1
100
AcDbSymbolTableRecord
100
AcDbBlockTableRecord
  2
A$C235C2D49
  0
ENDTAB
  0
ENDSEC
  0
SECTION
  2
BLOCKS
  0
BLOCK
  5
1B
330
1A
100
AcDbEntity
  8
0
100
AcDbBlockBegin
  2
*MODEL_SPACE
 70
     0
 10
0.0
 20
0.0
 30
0.0
  3
*MODEL_SPACE
  1

  0
ENDBLK
  5
1C
330
1A
100
AcDbEntity
  8
0
100
AcDbBlockEnd
  0
BLOCK
  5
18
330
17
100
AcDbEntity
 67
     1
  8
0
100
AcDbBlockBegin
  2
*PAPER_SPACE
 70
     0
 10
0.0
 20
0.0
 30
0.0
  3
*PAPER_SPACE
  1

  0
ENDBLK
  5
19
330
17
100
AcDbEntity
 67
     1
  8
0
100
AcDbBlockEnd
  0
BLOCK
  5
6E
330
6D
100
AcDbEntity
  8
0
100
AcDbBlockBegin
  2
_OPEN
 70
     0
 10
0.0
 20
0.0
 30
0.0
  3
_OPEN
  1

  0
LINE
  5
6F
330
6D
100
AcDbEntity
  8
0
  6
BYBLOCK
 62
     0
100
AcDbLine
 10
-1.0
 20
0.1666666666666666
 30
0.0
 11
0.0
 21
0.0
 31
0.0
  0
LINE
  5
70
330
6D
100
AcDbEntity
  8
0
  6
BYBLOCK
 62
     0
100
AcDbLine
 10
0.0
 20
0.0
 30
0.0
 11
-1.0
 21
-0.1666666666666666
 31
0.0
  0
LINE
  5
71
330
6D
100
AcDbEntity
  8
0
  6
BYBLOCK
 62
     0
100
AcDbLine
 10
0.0
 20
0.0
 30
0.0
 11
-1.0
 21
0.0
 31
0.0
  0
ENDBLK
  5
72
330
6D
100
AcDbEntity
  8
0
100
AcDbBlockEnd
  0
BLOCK
  5
265A
330
2650
100
AcDbEntity
  8
0
100
AcDbBlockBegin
  2
*D1
 70
     1
 10
0.0
 20
0.0
 30
0.0
  3
*D1
  1

  0
LINE
  5
2A9C
330
2650
100
AcDbEntity
  8
SUNPOU
100
AcDbLine
 10
502.6432780534596
 20
167.2727718429884
 30
0.0
 11
588.4341293272599
 21
167.2727718429884
 31
0.0
  0
LINE
  5
2A9D
330
2650
100
AcDbEntity
  8
SUNPOU
100
AcDbLine
 10
550.0769879188028
 20
259.7727512754453
 30
0.0
 11
588.4341293272599
 21
259.7727512754453
 31
0.0
  0
LINE
  5
2A9E
330
2650
100
AcDbEntity
  8
SUNPOU
100
AcDbLine
 10
585.4341293272599
 20
174.2727718429883
 30
0.0
 11
585.4341293272599
 21
252.7727512754454
 31
0.0
  0
INSERT
  5
2A9F
330
2650
100
AcDbEntity
  8
SUNPOU
100
AcDbBlockReference
  2
_OPEN
 10
585.4341293272599
 20
167.2727718429884
 30
0.0
 41
7.0
 42
7.0
 43
7.0
 50
270.0
  0
INSERT
  5
2AA0
330
2650
100
AcDbEntity
  8
SUNPOU
100
AcDbBlockReference
  2
_OPEN
 10
585.4341293272599
 20
259.7727512754453
 30
0.0
 41
7.0
 42
7.0
 43
7.0
 50
90.0
  0
MTEXT
  5
2AA1
330
2650
100
AcDbEntity
  8
SUNPOU
100
AcDbMText
 10
580.4341293272599
 20
213.522761559217
 30
0.0
 40
6.0
 41
0.0
 71
     5
 72
     5
  1
\A1;92
 11
0.0000000000000001
 21
1.0
 31
0.0
1001
ACAD
1000
MTEXTBEGIN
1070
    73
1070
     1
1070
    44
1040
1.0
1070
    74
1070
     0
1000
MTEXTEND
1000
MTEXTBEGIN
1070
    73
1070
     1
1070
    44
1040
1.0
1070
    74
1070
     0
1000
MTEXTEND
1000
MTEXTBEGIN
1070
    73
1070
     1
1070
    44
1040
1.0
1070
    74
1070
     0
1000
MTEXTEND
1000
MTEXTBEGIN
1070
    73
1070
     1
1070
    44
1040
1.0
1070
    74
1070
     0
1000
MTEXTEND
1000
MTEXTBEGIN
1070
    73
1070
     1
1070
    44
1040
1.0
1070
    74
1070
     0
1000
MTEXTEND
1000
MTEXTBEGIN
1070
    73
1070
     1
1070
    44
1040
1.0
1070
    74
1070
     0
1000
MTEXTEND
1000
MTEXTBEGIN
1070
    73
1070
     1
1070
    44
1040
1.0
1070
    74
1070
     0
1000
MTEXTEND
  0
POINT
  5
2AA2
330
2650
100
AcDbEntity
  8
DEFPOINTS
 62
     0
100
AcDbPoint
 10
496.6432780534596
 20
167.2727718429884
 30
0.0
  0
POINT
  5
2AA3
330
2650
100
AcDbEntity
  8
DEFPOINTS
 62
     0
100
AcDbPoint
 10
544.0769879188028
 20
259.7727512754453
 30
0.0
  0
POINT
  5
2AA4
330
2650
100
AcDbEntity
  8
DEFPOINTS
 62
     0
100
AcDbPoint
 10
585.4341293272599
 20
259.7727512754453
 30
0.0
  0
ENDBLK
  5
265B
330
2650
100
AcDbEntity
  8
0
100
AcDbBlockEnd
  0
BLOCK
  5
2668
330
265E
100
AcDbEntity
  8
0
100
AcDbBlockBegin
  2
*D2
 70
     1
 10
0.0
 20
0.0
 30
0.0
  3
*D2
  1

  0
LINE
  5
2AAE
330
265E
100
AcDbEntity
  8
SUNPOU
100
AcDbLine
 10
402.475278438573
 20
283.455468911954
 30
0.0
 11
370.8558235079293
 21
283.4554689119541
 31
0.0
  0
LINE
  5
2AAF
330
265E
100
AcDbEntity
  8
SUNPOU
100
AcDbLine
 10
490.6432780534596
 20
167.2727718429884
 30
0.0
 11
370.8558235079293
 21
167.2727718429884
 31
0.0
  0
LINE
  5
2AB0
330
265E
100
AcDbEntity
  8
SUNPOU
100
AcDbLine
 10
373.8558235079293
 20
276.455468911954
 30
0.0
 11
373.8558235079293
 21
174.2727718429885
 31
0.0
  0
INSERT
  5
2AB1
330
265E
100
AcDbEntity
  8
SUNPOU
100
AcDbBlockReference
  2
_OPEN
 10
373.8558235079293
 20
283.4554689119541
 30
0.0
 41
7.0
 42
7.0
 43
7.0
 50
90.0
  0
INSERT
  5
2AB2
330
265E
100
AcDbEntity
  8
SUNPOU
100
AcDbBlockReference
  2
_OPEN
 10
373.8558235079293
 20
167.2727718429884
 30
0.0
 41
7.0
 42
7.0
 43
7.0
 50
270.0
  0
MTEXT
  5
2AB3
330
265E
100
AcDbEntity
  8
SUNPOU
100
AcDbMText
 10
368.8558235079293
 20
225.3641203774713
 30
0.0
 40
6.0
 41
0.0
 71
     5
 72
     5
  1
\A1;116
 11
0.0000000000000001
 21
1.0
 31
0.0
1001
ACAD
1000
MTEXTBEGIN
1070
    73
1070
     1
1070
    44
1040
1.0
1070
    74
1070
     0
1000
MTEXTEND
1000
MTEXTBEGIN
1070
    73
1070
     1
1070
    44
1040
1.0
1070
    74
1070
     0
1000
MTEXTEND
1000
MTEXTBEGIN
1070
    73
1070
     1
1070
    44
1040
1.0
1070
    74
1070
     0
1000
MTEXTEND
1000
MTEXTBEGIN
1070
    73
1070
     1
1070
    44
1040
1.0
1070
    74
1070
     0
1000
MTEXTEND
1000
MTEXTBEGIN
1070
    73
1070
     1
1070
    44
1040
1.0
1070
    74
1070
     0
1000
MTEXTEND
1000
MTEXTBEGIN
1070
    73
1070
     1
1070
    44
1040
1.0
1070
    74
1070
     0
1000
MTEXTEND
1000
MTEXTBEGIN
1070
    73
1070
     1
1070
    44
1040
1.0
1070
    74
1070
     0
1000
MTEXTEND
  0
POINT
  5
2AB4
330
265E
100
AcDbEntity
  8
DEFPOINTS
 62
     0
100
AcDbPoint
 10
408.475278438573
 20
283.455468911954
 30
0.0
  0
POINT
  5
2AB5
330
265E
100
AcDbEntity
  8
DEFPOINTS
 62
     0
100
AcDbPoint
 10
496.6432780534596
 20
167.2727718429884
 30
0.0
  0
POINT
  5
2AB6
330
265E
100
AcDbEntity
  8
DEFPOINTS
 62
     0
100
AcDbPoint
 10
373.8558235079293
 20
167.2727718429884
 30
0.0
  0
ENDBLK
  5
2669
330
265E
100
AcDbEntity
  8
0
100
AcDbBlockEnd
  0
BLOCK
  5
2675
330
266B
100
AcDbEntity
  8
0
100
AcDbBlockBegin
  2
*D3
 70
     1
 10
0.0
 20
0.0
 30
0.0
  3
*D3
  1

  0
LINE
  5
2AA5
330
266B
100
AcDbEntity
  8
SUNPOU
100
AcDbLine
 10
408.475278438573
 20
289.455468911954
 30
0.0
 11
408.475278438573
 21
314.1985794005744
 31
0.0
  0
LINE
  5
2AA6
330
266B
100
AcDbEntity
  8
SUNPOU
100
AcDbLine
 10
545.9686888413342
 20
263.8313308766833
 30
0.0
 11
545.9686888413342
 21
314.1985794005744
 31
0.0
  0
LINE
  5
2AA7
330
266B
100
AcDbEntity
  8
SUNPOU
100
AcDbLine
 10
415.4752784385728
 20
311.1985794005744
 30
0.0
 11
538.9686888413343
 21
311.1985794005744
 31
0.0
  0
INSERT
  5
2AA8
330
266B
100
AcDbEntity
  8
SUNPOU
100
AcDbBlockReference
  2
_OPEN
 10
408.475278438573
 20
311.1985794005744
 30
0.0
 41
7.0
 42
7.0
 43
7.0
 50
180.0
  0
INSERT
  5
2AA9
330
266B
100
AcDbEntity
  8
SUNPOU
100
AcDbBlockReference
  2
_OPEN
 10
545.9686888413342
 20
311.1985794005744
 30
0.0
 41
7.0
 42
7.0
 43
7.0
  0
MTEXT
  5
2AAA
330
266B
100
AcDbEntity
  8
SUNPOU
100
AcDbMText
 10
477.2219836399536
 20
316.1985794005744
 30
0.0
 40
6.0
 41
0.0
 71
     5
 72
     5
  1
\A1;137
1001
ACAD
1000
MTEXTBEGIN
1070
    73
1070
     1
1070
    44
1040
1.0
1070
    74
1070
     0
1000
MTEXTEND
1000
MTEXTBEGIN
1070
    73
1070
     1
1070
    44
1040
1.0
1070
    74
1070
     0
1000
MTEXTEND
1000
MTEXTBEGIN
1070
    73
1070
     1
1070
    44
1040
1.0
1070
    74
1070
     0
1000
MTEXTEND
1000
MTEXTBEGIN
1070
    73
1070
     1
1070
    44
1040
1.0
1070
    74
1070
     0
1000
MTEXTEND
1000
MTEXTBEGIN
1070
    73
1070
     1
1070
    44
1040
1.0
1070
    74
1070
     0
1000
MTEXTEND
1000
MTEXTBEGIN
1070
    73
1070
     1
1070
    44
1040
1.0
1070
    74
1070
     0
1000
MTEXTEND
1000
MTEXTBEGIN
1070
    73
1070
     1
1070
    44
1040
1.0
1070
    74
1070
     0
1000
MTEXTEND
  0
POINT
  5
2AAB
330
266B
100
AcDbEntity
  8
DEFPOINTS
 62
     0
100
AcDbPoint
 10
408.475278438573
 20
283.455468911954
 30
0.0
  0
POINT
  5
2AAC
330
266B
100
AcDbEntity
  8
DEFPOINTS
 62
     0
100
AcDbPoint
 10
545.9686888413342
 20
257.8313308766833
 30
0.0
  0
POINT
  5
2AAD
330
266B
100
AcDbEntity
  8
DEFPOINTS
 62
     0
100
AcDbPoint
 10
545.9686888413342
 20
311.1985794005744
 30
0.0
  0
ENDBLK
  5
2676
330
266B
100
AcDbEntity
  8
0
100
AcDbBlockEnd
  0
BLOCK
  5
268B
330
2681
100
AcDbEntity
  8
0
100
AcDbBlockBegin
  2
*D4
 70
     1
 10
0.0
 20
0.0
 30
0.0
  3
*D4
  1

  0
LINE
  5
2AD2
330
2681
100
AcDbEntity
  8
SUNPOU
100
AcDbLine
 10
403.5513463415429
 20
435.1999627098577
 30
0.0
 11
374.4428438660971
 21
435.1999627098578
 31
0.0
  0
LINE
  5
2AD3
330
2681
100
AcDbEntity
  8
SUNPOU
100
AcDbLine
 10
403.5513463415429
 20
365.1999624118344
 30
0.0
 11
374.442843866097
 21
365.1999624118346
 31
0.0
  0
LINE
  5
2AD4
330
2681
100
AcDbEntity
  8
SUNPOU
100
AcDbLine
 10
377.4428438660971
 20
428.1999627098578
 30
0.0
 11
377.442843866097
 21
372.1999624118346
 31
0.0
  0
INSERT
  5
2AD5
330
2681
100
AcDbEntity
  8
SUNPOU
100
AcDbBlockReference
  2
_OPEN
 10
377.4428438660971
 20
435.1999627098578
 30
0.0
 41
7.0
 42
7.0
 43
7.0
 50
90.0
  0
INSERT
  5
2AD6
330
2681
100
AcDbEntity
  8
SUNPOU
100
AcDbBlockReference
  2
_OPEN
 10
377.442843866097
 20
365.1999624118346
 30
0.0
 41
7.0
 42
7.0
 43
7.0
 50
270.0
  0
MTEXT
  5
2AD7
330
2681
100
AcDbEntity
  8
SUNPOU
100
AcDbMText
 10
372.442843866097
 20
400.1999625608463
 30
0.0
 40
6.0
 41
0.0
 71
     5
 72
     5
  1
\A1;70
 11
0.0000000000000001
 21
1.0
 31
0.0
1001
ACAD
1000
MTEXTBEGIN
1070
    73
1070
     1
1070
    44
1040
1.0
1070
    74
1070
     0
1000
MTEXTEND
1000
MTEXTBEGIN
1070
    73
1070
     1
1070
    44
1040
1.0
1070
    74
1070
     0
1000
MTEXTEND
1000
MTEXTBEGIN
1070
    73
1070
     1
1070
    44
1040
1.0
1070
    74
1070
     0
1000
MTEXTEND
1000
MTEXTBEGIN
1070
    73
1070
     1
1070
    44
1040
1.0
1070
    74
1070
     0
1000
MTEXTEND
1000
MTEXTBEGIN
1070
    73
1070
     1
1070
    44
1040
1.0
1070
    74
1070
     0
1000
MTEXTEND
1000
MTEXTBEGIN
1070
    73
1070
     1
1070
    44
1040
1.0
1070
    74
1070
     0
1000
MTEXTEND
1000
MTEXTBEGIN
1070
    73
1070
     1
1070
    44
1040
1.0
1070
    74
1070
     0
1000
MTEXTEND
  0
POINT
  5
2AD8
330
2681
100
AcDbEntity
  8
DEFPOINTS
 62
     0
100
AcDbPoint
 10
409.5513463415429
 20
435.1999627098577
 30
0.0
  0
POINT
  5
2AD9
330
2681
100
AcDbEntity
  8
DEFPOINTS
 62
     0
100
AcDbPoint
 10
409.5513463415429
 20
365.1999624118344
 30
0.0
  0
POINT
  5
2ADA
330
2681
100
AcDbEntity
  8
DEFPOINTS
 62
     0
100
AcDbPoint
 10
377.442843866097
 20
365.1999624118346
 30
0.0
  0
ENDBLK
  5
268C
330
2681
100
AcDbEntity
  8
0
100
AcDbBlockEnd
  0
BLOCK
  5
2731
330
2727
100
AcDbEntity
  8
0
100
AcDbBlockBegin
  2
*D5
 70
     1
 10
0.0
 20
0.0
 30
0.0
  3
*D5
  1

  0
LINE
  5
2AC9
330
2727
100
AcDbEntity
  8
SUNPOU
100
AcDbLine
 10
550.0769879188028
 20
259.7727512754453
 30
0.0
 11
575.618160108883
 21
259.7727512754453
 31
0.0
  0
LINE
  5
2ACA
330
2727
100
AcDbEntity
  8
SUNPOU
100
AcDbLine
 10
549.7278866202385
 20
235.2727604170759
 30
0.0
 11
575.6181601088829
 21
235.2727604170759
 31
0.0
  0
LINE
  5
2ACB
330
2727
100
AcDbEntity
  8
SUNPOU
100
AcDbLine
 10
572.6181601088828
 20
252.7727512754454
 30
0.0
 11
572.6181601088828
 21
242.272760417076
 31
0.0
  0
INSERT
  5
2ACC
330
2727
100
AcDbEntity
  8
SUNPOU
100
AcDbBlockReference
  2
_OPEN
 10
572.6181601088828
 20
259.7727512754453
 30
0.0
 41
7.0
 42
7.0
 43
7.0
 50
90.0
  0
INSERT
  5
2ACD
330
2727
100
AcDbEntity
  8
SUNPOU
100
AcDbBlockReference
  2
_OPEN
 10
572.6181601088828
 20
235.2727604170759
 30
0.0
 41
7.0
 42
7.0
 43
7.0
 50
270.0
  0
MTEXT
  5
2ACE
330
2727
100
AcDbEntity
  8
SUNPOU
100
AcDbMText
 10
567.6181601088829
 20
247.5227558462608
 30
0.0
 40
6.0
 41
0.0
 71
     5
 72
     5
  1
\A1;24
 11
0.0000000000000001
 21
1.0
 31
0.0
1001
ACAD
1000
MTEXTBEGIN
1070
    73
1070
     1
1070
    44
1040
1.0
1070
    74
1070
     0
1000
MTEXTEND
1000
MTEXTBEGIN
1070
    73
1070
     1
1070
    44
1040
1.0
1070
    74
1070
     0
1000
MTEXTEND
1000
MTEXTBEGIN
1070
    73
1070
     1
1070
    44
1040
1.0
1070
    74
1070
     0
1000
MTEXTEND
1000
MTEXTBEGIN
1070
    73
1070
     1
1070
    44
1040
1.0
1070
    74
1070
     0
1000
MTEXTEND
1000
MTEXTBEGIN
1070
    73
1070
     1
1070
    44
1040
1.0
1070
    74
1070
     0
1000
MTEXTEND
1000
MTEXTBEGIN
1070
    73
1070
     1
1070
    44
1040
1.0
1070
    74
1070
     0
1000
MTEXTEND
1000
MTEXTBEGIN
1070
    73
1070
     1
1070
    44
1040
1.0
1070
    74
1070
     0
1000
MTEXTEND
  0
POINT
  5
2ACF
330
2727
100
AcDbEntity
  8
DEFPOINTS
 62
     0
100
AcDbPoint
 10
544.0769879188028
 20
259.7727512754453
 30
0.0
  0
POINT
  5
2AD0
330
2727
100
AcDbEntity
  8
DEFPOINTS
 62
     0
100
AcDbPoint
 10
543.7278866202383
 20
235.2727604170759
 30
0.0
  0
POINT
  5
2AD1
330
2727
100
AcDbEntity
  8
DEFPOINTS
 62
     0
100
AcDbPoint
 10
572.6181601088828
 20
235.2727604170759
 30
0.0
  0
ENDBLK
  5
2732
330
2727
100
AcDbEntity
  8
0
100
AcDbBlockEnd
  0
BLOCK
  5
2747
330
273D
100
AcDbEntity
  8
0
100
AcDbBlockBegin
  2
*D6
 70
     1
 10
0.0
 20
0.0
 30
0.0
  3
*D6
  1

  0
LINE
  5
2AB7
330
273D
100
AcDbEntity
  8
SUNPOU
100
AcDbLine
 10
396.475278438573
 20
283.455468911954
 30
0.0
 11
386.5146300499549
 21
283.455468911954
 31
0.0
  0
LINE
  5
2AB8
330
273D
100
AcDbEntity
  8
SUNPOU
100
AcDbLine
 10
408.7244632639213
 20
257.2727589269599
 30
0.0
 11
386.5146300499549
 21
257.2727589269599
 31
0.0
  0
LINE
  5
2AB9
330
273D
100
AcDbEntity
  8
SUNPOU
100
AcDbLine
 10
389.5146300499549
 20
276.455468911954
 30
0.0
 11
389.5146300499549
 21
264.2727589269599
 31
0.0
  0
INSERT
  5
2ABA
330
273D
100
AcDbEntity
  8
SUNPOU
100
AcDbBlockReference
  2
_OPEN
 10
389.5146300499549
 20
283.455468911954
 30
0.0
 41
7.0
 42
7.0
 43
7.0
 50
90.0
  0
INSERT
  5
2ABB
330
273D
100
AcDbEntity
  8
SUNPOU
100
AcDbBlockReference
  2
_OPEN
 10
389.5146300499549
 20
257.2727589269599
 30
0.0
 41
7.0
 42
7.0
 43
7.0
 50
270.0
  0
MTEXT
  5
2ABC
330
273D
100
AcDbEntity
  8
SUNPOU
100
AcDbMText
 10
384.5146300499549
 20
270.3641139194571
 30
0.0
 40
6.0
 41
0.0
 71
     5
 72
     5
  1
\A1;26
 11
0.0000000000000001
 21
1.0
 31
0.0
1001
ACAD
1000
MTEXTBEGIN
1070
    73
1070
     1
1070
    44
1040
1.0
1070
    74
1070
     0
1000
MTEXTEND
1000
MTEXTBEGIN
1070
    73
1070
     1
1070
    44
1040
1.0
1070
    74
1070
     0
1000
MTEXTEND
1000
MTEXTBEGIN
1070
    73
1070
     1
1070
    44
1040
1.0
1070
    74
1070
     0
1000
MTEXTEND
1000
MTEXTBEGIN
1070
    73
1070
     1
1070
    44
1040
1.0
1070
    74
1070
     0
1000
MTEXTEND
1000
MTEXTBEGIN
1070
    73
1070
     1
1070
    44
1040
1.0
1070
    74
1070
     0
1000
MTEXTEND
1000
MTEXTBEGIN
1070
    73
1070
     1
1070
    44
1040
1.0
1070
    74
1070
     0
1000
MTEXTEND
1000
MTEXTBEGIN
1070
    73
1070
     1
1070
    44
1040
1.0
1070
    74
1070
     0
1000
MTEXTEND
  0
POINT
  5
2ABD
330
273D
100
AcDbEntity
  8
DEFPOINTS
 62
     0
100
AcDbPoint
 10
402.475278438573
 20
283.455468911954
 30
0.0
  0
POINT
  5
2ABE
330
273D
100
AcDbEntity
  8
DEFPOINTS
 62
     0
100
AcDbPoint
 10
414.7244632639215
 20
257.2727589269599
 30
0.0
  0
POINT
  5
2ABF
330
273D
100
AcDbEntity
  8
DEFPOINTS
 62
     0
100
AcDbPoint
 10
389.5146300499549
 20
257.2727589269599
 30
0.0
  0
ENDBLK
  5
2748
330
273D
100
AcDbEntity
  8
0
100
AcDbBlockEnd
  0
BLOCK
  5
2760
330
2756
100
AcDbEntity
  8
0
100
AcDbBlockBegin
  2
*D7
 70
     1
 10
0.0
 20
0.0
 30
0.0
  3
*D7
  1

  0
LINE
  5
2AC0
330
2756
100
AcDbEntity
  8
SUNPOU
100
AcDbLine
 10
533.0881541824505
 20
161.8816875460644
 30
0.0
 11
533.0881541824505
 21
138.4546775963926
 31
0.0
  0
LINE
  5
2AC1
330
2756
100
AcDbEntity
  8
SUNPOU
100
AcDbLine
 10
461.0084621945151
 20
161.8875232097084
 30
0.0
 11
461.0084621945151
 21
138.4546775963926
 31
0.0
  0
LINE
  5
2AC2
330
2756
100
AcDbEntity
  8
SUNPOU
100
AcDbLine
 10
526.0881541824504
 20
141.4546775963926
 30
0.0
 11
468.0084621945153
 21
141.4546775963926
 31
0.0
  0
INSERT
  5
2AC3
330
2756
100
AcDbEntity
  8
SUNPOU
100
AcDbBlockReference
  2
_OPEN
 10
533.0881541824505
 20
141.4546775963926
 30
0.0
 41
7.0
 42
7.0
 43
7.0
  0
INSERT
  5
2AC4
330
2756
100
AcDbEntity
  8
SUNPOU
100
AcDbBlockReference
  2
_OPEN
 10
461.0084621945151
 20
141.4546775963926
 30
0.0
 41
7.0
 42
7.0
 43
7.0
 50
180.0
  0
MTEXT
  5
2AC5
330
2756
100
AcDbEntity
  8
SUNPOU
100
AcDbMText
 10
497.0483081884829
 20
146.4546775963926
 30
0.0
 40
6.0
 41
0.0
 71
     5
 72
     5
  1
\A1;72
1001
ACAD
1000
MTEXTBEGIN
1070
    73
1070
     1
1070
    44
1040
1.0
1070
    74
1070
     0
1000
MTEXTEND
1000
MTEXTBEGIN
1070
    73
1070
     1
1070
    44
1040
1.0
1070
    74
1070
     0
1000
MTEXTEND
1000
MTEXTBEGIN
1070
    73
1070
     1
1070
    44
1040
1.0
1070
    74
1070
     0
1000
MTEXTEND
1000
MTEXTBEGIN
1070
    73
1070
     1
1070
    44
1040
1.0
1070
    74
1070
     0
1000
MTEXTEND
1000
MTEXTBEGIN
1070
    73
1070
     1
1070
    44
1040
1.0
1070
    74
1070
     0
1000
MTEXTEND
1000
MTEXTBEGIN
1070
    73
1070
     1
1070
    44
1040
1.0
1070
    74
1070
     0
1000
MTEXTEND
1000
MTEXTBEGIN
1070
    73
1070
     1
1070
    44
1040
1.0
1070
    74
1070
     0
1000
MTEXTEND
  0
POINT
  5
2AC6
330
2756
100
AcDbEntity
  8
DEFPOINTS
 62
     0
100
AcDbPoint
 10
533.0881541824505
 20
167.8816875460644
 30
0.0
  0
POINT
  5
2AC7
330
2756
100
AcDbEntity
  8
DEFPOINTS
 62
     0
100
AcDbPoint
 10
461.0084621945151
 20
167.8875232097084
 30
0.0
  0
POINT
  5
2AC8
330
2756
100
AcDbEntity
  8
DEFPOINTS
 62
     0
100
AcDbPoint
 10
461.0084621945151
 20
141.4546775963926
 30
0.0
  0
ENDBLK
  5
2761
330
2756
100
AcDbEntity
  8
0
100
AcDbBlockEnd
  0
BLOCK
  5
27B2
330
2765
100
AcDbEntity
  8
0
100
AcDbBlockBegin
  2
A$C235C2D49
 70
     0
 10
0.0
 20
0.0
 30
0.0
  3
A$C235C2D49
  1

  0
ARC
  5
2766
330
2765
100
AcDbEntity
  8
NOKITOI
  6
PHANTOM
 62
     8
 48
5.0
100
AcDbCircle
 10
12.28825250882243
 20
97.8810472538591
 30
0.0
 40
0.5000000000000746
100
AcDbArc
 50
170.7273982228018
 51
270.0
  0
ARC
  5
2767
330
2765
100
AcDbEntity
  8
NOKITOI
  6
PHANTOM
 62
     8
 48
5.0
100
AcDbCircle
 10
14.39999979097307
 20
99.3810472538591
 30
0.0
 40
2.0
100
AcDbArc
 50
270.0
 51
0.0
  0
LINE
  5
2768
330
2765
100
AcDbEntity
  8
NOKITOI
  6
PHANTOM
 62
     8
 48
5.0
100
AcDbLine
 10
1.399999790973083
 20
104.7235465031084
 30
0.0
 11
4.113161943914633
 21
97.12669247487241
 31
0.0
  0
ARC
  5
2769
330
2765
100
AcDbEntity
  8
NOKITOI
  6
PHANTOM
 62
     8
 48
5.0
100
AcDbCircle
 10
12.20535532507835
 20
95.28104725385921
 30
0.0
 40
6.999999999999959
100
AcDbArc
 50
105.8737907964528
 51
199.6538240580533
  0
ARC
  5
276A
330
2765
100
AcDbEntity
  8
NOKITOI
  6
PHANTOM
 62
     8
 48
5.0
100
AcDbCircle
 10
12.20535532507835
 20
95.28104725385921
 30
0.0
 40
8.299999999999959
100
AcDbArc
 50
100.7153641846337
 51
167.151909786181
  0
LINE
  5
276B
330
2765
100
AcDbEntity
  8
NOKITOI
  6
PHANTOM
 62
     8
 48
5.0
100
AcDbLine
 10
-0.0000002090270073
 20
104.4810472538592
 30
0.0
 11
4.928892976365999
 21
90.68014633475941
 31
0.0
  0
ARC
  5
276C
330
2765
100
AcDbEntity
  8
NOKITOI
  6
PHANTOM
 62
     8
 48
5.0
100
AcDbCircle
 10
979.6664397067043
 20
354.9434151138804
 30
0.0
 40
1000.000000000001
100
AcDbArc
 50
195.8108447710357
 51
200.0478728188271
  0
ARC
  5
276D
330
2765
100
AcDbEntity
  8
NOKITOI
  6
PHANTOM
 62
     8
 48
5.0
100
AcDbCircle
 10
979.6664397067043
 20
354.9434151138804
 30
0.0
 40
998.6000000000013
100
AcDbArc
 50
195.8219949179074
 51
199.9513743718415
  0
ARC
  5
276E
330
2765
100
AcDbEntity
  8
NOKITOI
  6
PHANTOM
 62
     8
 48
5.0
100
AcDbCircle
 10
6.691325861941892
 20
92.8810472538591
 30
0.0
 40
0.999999999999979
100
AcDbArc
 50
199.6538240580533
 51
270.0
  0
LINE
  5
276F
330
2765
100
AcDbEntity
  8
NOKITOI
  6
PHANTOM
 62
     8
 48
5.0
100
AcDbLine
 10
16.49999979097299
 20
90.48104725385924
 30
0.0
 11
5.211415549844217
 21
90.48104725385901
 31
0.0
  0
LINE
  5
2770
330
2765
100
AcDbEntity
  8
NOKITOI
  6
PHANTOM
 62
     8
 48
5.0
100
AcDbLine
 10
5.613161943914632
 20
92.92669247487213
 30
0.0
 11
5.749583950347071
 21
92.54471085686096
 31
0.0
  0
ARC
  5
2771
330
2765
100
AcDbEntity
  8
NOKITOI
  6
PHANTOM
 62
     8
 48
5.0
100
AcDbCircle
 10
5.211415549844217
 20
90.78104725385895
 30
0.0
 40
0.3
100
AcDbArc
 50
199.6538240580533
 51
270.0
  0
LINE
  5
2772
330
2765
100
AcDbEntity
  8
NOKITOI
  6
PHANTOM
 62
     8
 48
5.0
100
AcDbLine
 10
17.49999979097299
 20
89.48104725385922
 30
0.0
 11
17.49999979097299
 21
82.48104725385855
 31
0.0
  0
LINE
  5
2773
330
2765
100
AcDbEntity
  8
NOKITOI
  6
PHANTOM
 62
     8
 48
5.0
100
AcDbLine
 10
18.89999979097353
 20
82.67551775604937
 30
0.0
 11
18.89999979097353
 21
90.8810472538593
 31
0.0
  0
LINE
  5
2774
330
2765
100
AcDbEntity
  8
NOKITOI
  6
PHANTOM
 62
     8
 48
5.0
100
AcDbLine
 10
17.49999979097344
 20
82.48104725385719
 30
0.0
 11
17.49999979097299
 21
89.48104725385922
 31
0.0
  0
LINE
  5
2775
330
2765
100
AcDbEntity
  8
NOKITOI
  6
PHANTOM
 62
     8
 48
5.0
100
AcDbLine
 10
14.39999979097307
 20
97.38104725385909
 30
0.0
 11
12.28825241904393
 21
97.38104725385909
 31
0.0
  0
LINE
  5
2776
330
2765
100
AcDbEntity
  8
NOKITOI
  6
PHANTOM
 62
     8
 48
5.0
100
AcDbLine
 10
17.89999979097354
 20
91.88104725385931
 30
0.0
 11
6.691325861941892
 21
91.8810472538591
 31
0.0
  0
LINE
  5
2777
330
2765
100
AcDbEntity
  8
NOKITOI
  6
PHANTOM
 62
     8
 48
5.0
100
AcDbLine
 10
12.28825241904393
 20
97.38104725385909
 30
0.0
 11
12.28825237754278
 21
97.38104725385909
 31
0.0
  0
ARC
  5
2778
330
2765
100
AcDbEntity
  8
NOKITOI
  6
PHANTOM
 62
     8
 48
5.0
100
AcDbCircle
 10
16.49999979097299
 20
89.48104725385922
 30
0.0
 40
1.0
100
AcDbArc
 50
0.0
 51
90.0
  0
ARC
  5
2779
330
2765
100
AcDbEntity
  8
NOKITOI
  6
PHANTOM
 62
     8
 48
5.0
100
AcDbCircle
 10
17.89999979097354
 20
90.8810472538593
 30
0.0
 40
1.0
100
AcDbArc
 50
0.0
 51
90.0
  0
LINE
  5
277A
330
2765
100
AcDbEntity
  8
NOKITOI
  6
PHANTOM
 62
     8
 48
5.0
100
AcDbLine
 10
124.5999997909729
 20
70.48104725385923
 30
0.0
 11
119.1416427541551
 21
1.840421013764624
 31
0.0
  0
LINE
  5
277B
330
2765
100
AcDbEntity
  8
NOKITOI
  6
PHANTOM
 62
     8
 48
5.0
100
AcDbLine
 10
124.4710647951809
 20
86.52068252993968
 30
0.0
 11
117.8453504619644
 21
3.200156215466846
 31
0.0
  0
LINE
  5
277C
330
2765
100
AcDbEntity
  8
NOKITOI
  6
PHANTOM
 62
     8
 48
5.0
100
AcDbLine
 10
48.22753446411423
 20
12.21157129002512
 30
0.0
 11
51.55159121418261
 21
2.719866134769914
 31
0.0
  0
LINE
  5
277D
330
2765
100
AcDbEntity
  8
NOKITOI
  6
PHANTOM
 62
     8
 48
5.0
100
AcDbLine
 10
47.23445461865583
 20
10.81157129002501
 30
0.0
 11
50.54745354048634
 21
1.351441301255362
 31
0.0
  0
ARC
  5
277E
330
2765
100
AcDbEntity
  8
NOKITOI
  6
PHANTOM
 62
     8
 48
5.0
100
AcDbCircle
 10
84.99999979097299
 20
999.4810472538588
 30
0.0
 40
998.5999999999997
100
AcDbArc
 50
268.185225968898
 51
271.773983013799
  0
ARC
  5
277F
330
2765
100
AcDbEntity
  8
NOKITOI
  6
PHANTOM
 62
     8
 48
5.0
100
AcDbCircle
 10
84.99999979097299
 20
999.4810472538588
 30
0.0
 40
999.9999999999996
100
AcDbArc
 50
268.1300946705856
 51
271.8459516885245
  0
ARC
  5
2780
330
2765
100
AcDbEntity
  8
NOKITOI
  6
PHANTOM
 62
     8
 48
5.0
100
AcDbCircle
 10
53.43918636306022
 20
3.380914207101511
 30
0.0
 40
2.00000000000015
100
AcDbArc
 50
199.3005854307764
 51
268.185225968898
  0
ARC
  5
2781
330
2765
100
AcDbEntity
  8
NOKITOI
  6
PHANTOM
 62
     8
 48
5.0
100
AcDbCircle
 10
52.43504868936396
 20
2.012489373587129
 30
0.0
 40
2.000000000000188
100
AcDbArc
 50
199.3005854307805
 51
268.1300946705856
  0
ARC
  5
2782
330
2765
100
AcDbEntity
  8
NOKITOI
  6
PHANTOM
 62
     8
 48
5.0
100
AcDbCircle
 10
115.8516441851422
 20
3.358697319788631
 30
0.0
 40
1.999999999999996
100
AcDbArc
 50
271.773983013799
 51
355.4533617064201
  0
ARC
  5
2783
330
2765
100
AcDbEntity
  8
NOKITOI
  6
PHANTOM
 62
     8
 48
5.0
100
AcDbCircle
 10
117.1479364773329
 20
1.998962118086353
 30
0.0
 40
1.999999999999998
100
AcDbArc
 50
271.8459516885245
 51
355.4533617064201
  0
LINE
  5
2784
330
2765
100
AcDbEntity
  8
NOKITOI
  6
PHANTOM
 62
     8
 48
5.0
100
AcDbLine
 10
47.28373688967564
 20
12.88104725385909
 30
0.0
 11
42.87983328801863
 21
12.88104725385909
 31
0.0
  0
ARC
  5
2785
330
2765
100
AcDbEntity
  8
NOKITOI
  6
PHANTOM
 62
     8
 48
5.0
100
AcDbCircle
 10
46.29065704421678
 20
10.48104725385923
 30
0.0
 40
1.0
100
AcDbArc
 50
19.30058543077639
 51
90.0
  0
LINE
  5
2786
330
2765
100
AcDbEntity
  8
NOKITOI
  6
PHANTOM
 62
     8
 48
5.0
100
AcDbLine
 10
46.29065704421678
 20
11.48104725385923
 30
0.0
 11
41.19932435331621
 21
11.481047253859
 31
0.0
  0
ARC
  5
2787
330
2765
100
AcDbEntity
  8
NOKITOI
  6
PHANTOM
 62
     8
 48
5.0
100
AcDbCircle
 10
42.87983328801863
 20
14.88104725385909
 30
0.0
 40
2.000000000000107
100
AcDbArc
 50
199.9513743718478
 51
270.0
  0
ARC
  5
2788
330
2765
100
AcDbEntity
  8
NOKITOI
  6
PHANTOM
 62
     8
 48
5.0
100
AcDbCircle
 10
41.199324353316
 20
12.481047253859
 30
0.0
 40
1.0
100
AcDbArc
 50
200.0478728188226
 51
270.0
  0
ARC
  5
2789
330
2765
100
AcDbEntity
  8
NOKITOI
  6
PHANTOM
 62
     8
 48
5.0
100
AcDbCircle
 10
47.28373688967564
 20
11.88104725385909
 30
0.0
 40
1.0
100
AcDbArc
 50
19.30058543078055
 51
90.0
  0
LINE
  5
278A
330
2765
100
AcDbEntity
  8
NOKITOI
  6
PHANTOM
 62
     8
 48
5.0
100
AcDbLine
 10
125.7004480870758
 20
85.58104725385915
 30
0.0
 11
124.6110132217407
 21
71.8810472538593
 31
0.0
  0
LINE
  5
278B
330
2765
100
AcDbEntity
  8
NOKITOI
  6
PHANTOM
 62
     8
 48
5.0
100
AcDbLine
 10
129.1999997909732
 20
83.40114826653682
 30
0.0
 11
129.1999997909732
 21
71.8810472538593
 31
0.0
  0
LINE
  5
278C
330
2765
100
AcDbEntity
  8
NOKITOI
  6
PHANTOM
 62
     8
 48
5.0
100
AcDbLine
 10
130.5999997909728
 20
83.98104725385923
 30
0.0
 11
130.5999997909728
 21
69.86414244334373
 31
0.0
  0
LINE
  5
278D
330
2765
100
AcDbEntity
  8
NOKITOI
  6
PHANTOM
 62
     8
 48
5.0
100
AcDbLine
 10
124.6110132217403
 20
71.8810472538593
 30
0.0
 11
129.1999997909732
 21
71.8810472538593
 31
0.0
  0
LINE
  5
278E
330
2765
100
AcDbEntity
  8
NOKITOI
  6
PHANTOM
 62
     8
 48
5.0
100
AcDbLine
 10
128.0999997909729
 20
70.48104725385923
 30
0.0
 11
129.8427519132592
 21
69.43539598048754
 31
0.0
  0
LINE
  5
278F
330
2765
100
AcDbEntity
  8
NOKITOI
  6
PHANTOM
 62
     8
 48
5.0
100
AcDbLine
 10
124.5999997909732
 20
70.48104725385923
 30
0.0
 11
128.0999997909729
 21
70.48104725385923
 31
0.0
  0
ARC
  5
2790
330
2765
100
AcDbEntity
  8
NOKITOI
  6
PHANTOM
 62
     8
 48
5.0
100
AcDbCircle
 10
130.0999997909729
 20
69.86414244334373
 30
0.0
 40
0.5000000000000169
100
AcDbArc
 50
239.0362434679245
 51
0.0
  0
LINE
  5
2791
330
2765
100
AcDbEntity
  8
NOKITOI
  6
PHANTOM
 62
     8
 48
5.0
100
AcDbLine
 10
127.5999997909732
 20
86.98104725385922
 30
0.0
 11
130.5999997909728
 21
83.98104725385923
 31
0.0
  0
LINE
  5
2792
330
2765
100
AcDbEntity
  8
NOKITOI
  6
PHANTOM
 62
     8
 48
5.0
100
AcDbLine
 10
127.0201008036509
 20
85.58104725385915
 30
0.0
 11
129.1999997909732
 21
83.40114826653682
 31
0.0
  0
LINE
  5
2793
330
2765
100
AcDbEntity
  8
NOKITOI
  6
PHANTOM
 62
     8
 48
5.0
100
AcDbLine
 10
125.7004480870754
 20
85.58104725385915
 30
0.0
 11
127.0201008036509
 21
85.58104725385915
 31
0.0
  0
LINE
  5
2794
330
2765
100
AcDbEntity
  8
NOKITOI
  6
PHANTOM
 62
     8
 48
5.0
100
AcDbLine
 10
124.9694913643865
 20
86.98104725385922
 30
0.0
 11
127.5999997909732
 21
86.98104725385922
 31
0.0
  0
ARC
  5
2795
330
2765
100
AcDbEntity
  8
NOKITOI
  6
PHANTOM
 62
     8
 48
5.0
100
AcDbCircle
 10
124.9694913643865
 20
86.48104725385923
 30
0.0
 40
0.5
100
AcDbArc
 50
90.0
 51
175.4533617064201
  0
LINE
  5
2796
330
2765
100
AcDbEntity
  8
NOKITOI
  6
PHANTOM
 62
     8
 48
5.0
100
AcDbLine
 10
4.166752922715544
 20
106.4075428236635
 30
0.0
 11
14.71112607466181
 21
104.7470116186325
 31
0.0
  0
LINE
  5
2797
330
2765
100
AcDbEntity
  8
NOKITOI
  6
PHANTOM
 62
     8
 48
5.0
100
AcDbLine
 10
3.948964571684768
 20
105.0245864851786
 30
0.0
 11
10.74666806157153
 21
103.9540819985824
 31
0.0
  0
ARC
  5
2798
330
2765
100
AcDbEntity
  8
NOKITOI
  6
PHANTOM
 62
     8
 48
5.0
100
AcDbCircle
 10
1.999999790972991
 20
107.9194944410502
 30
0.0
 40
2.0
100
AcDbArc
 50
75.96375653207984
 51
180.0
  0
ARC
  5
2799
330
2765
100
AcDbEntity
  8
NOKITOI
  6
PHANTOM
 62
     8
 48
5.0
100
AcDbCircle
 10
3.675688024313671
 20
109.2528922736027
 30
0.0
 40
0.3000000000000382
100
AcDbArc
 50
354.2894068625091
 51
75.96375653206639
  0
ARC
  5
279A
330
2765
100
AcDbEntity
  8
NOKITOI
  6
PHANTOM
 62
     8
 48
5.0
100
AcDbCircle
 10
4.244534427585107
 20
106.9014558094211
 30
0.0
 40
0.499999999999911
100
AcDbArc
 50
174.2894068625026
 51
261.0505419158041
  0
LINE
  5
279B
330
2765
100
AcDbEntity
  8
NOKITOI
  6
PHANTOM
 62
     8
 48
5.0
100
AcDbLine
 10
1.399999790973083
 20
104.7235465031084
 30
0.0
 11
1.399999790973538
 21
107.9194944410504
 31
0.0
  0
ARC
  5
279C
330
2765
100
AcDbEntity
  8
NOKITOI
  6
PHANTOM
 62
     8
 48
5.0
100
AcDbCircle
 10
4.244534427585107
 20
106.9014558094211
 30
0.0
 40
1.899999999999974
100
AcDbArc
 50
174.2894162891095
 51
261.0505453838139
  0
LINE
  5
279D
330
2765
100
AcDbEntity
  8
NOKITOI
  6
PHANTOM
 62
     8
 48
5.0
100
AcDbLine
 10
-0.0000002090270073
 20
104.4810472538592
 30
0.0
 11
-0.0000002090270073
 21
107.9194944410502
 31
0.0
  0
LINE
  5
279E
330
2765
100
AcDbEntity
  8
NOKITOI
  6
PHANTOM
 62
     8
 48
5.0
100
AcDbLine
 10
3.747015834026001
 20
106.9512076843884
 30
0.0
 11
3.747015825281208
 21
106.951207596942
 31
0.0
  0
LINE
  5
279F
330
2765
100
AcDbEntity
  8
NOKITOI
  6
PHANTOM
 62
     8
 48
5.0
100
AcDbLine
 10
3.974199176526667
 20
109.223041109395
 30
0.0
 11
3.747015834026001
 21
106.9512076843884
 31
0.0
  0
LINE
  5
27A0
330
2765
100
AcDbEntity
  8
NOKITOI
  6
PHANTOM
 62
     8
 48
5.0
100
AcDbLine
 10
2.486544879896313
 20
108.416324012662
 30
0.0
 11
2.35396373508172
 21
107.0905125645144
 31
0.0
  0
LINE
  5
27A1
330
2765
100
AcDbEntity
  8
NOKITOI
  6
PHANTOM
 62
     8
 48
5.0
100
AcDbLine
 10
2.145521165995319
 20
108.5015799411375
 30
0.0
 11
2.486544879896313
 21
108.416324012662
 31
0.0
  0
LINE
  5
27A2
330
2765
100
AcDbEntity
  8
NOKITOI
  6
PHANTOM
 62
     8
 48
5.0
100
AcDbLine
 10
3.747015834026001
 20
106.9512076843884
 30
0.0
 11
3.747015825281208
 21
106.951207596942
 31
0.0
  0
ARC
  5
27A3
330
2765
100
AcDbEntity
  8
NOKITOI
  6
PHANTOM
 62
     8
 48
5.0
100
AcDbCircle
 10
1.999999790973446
 20
107.9194944410504
 30
0.0
 40
0.6
100
AcDbArc
 50
75.96375653206639
 51
180.0
  0
LINE
  5
27A4
330
2765
100
AcDbEntity
  8
NOKITOI
  6
PHANTOM
 62
     8
 48
5.0
100
AcDbLine
 10
2.48507104104567
 20
109.8597794413409
 30
0.0
 11
3.748448711824834
 21
109.5439350236462
 31
0.0
  0
LINE
  5
27A5
330
2765
100
AcDbEntity
  8
NOKITOI
  6
PHANTOM
 62
     8
 48
5.0
100
AcDbLine
 10
12.12964638789014
 20
103.7362901361699
 30
0.0
 11
14.59333767607984
 21
103.3483072561401
 31
0.0
  0
LINE
  5
27A6
330
2765
100
AcDbEntity
  8
NOKITOI
  6
PHANTOM
 62
     8
 48
5.0
100
AcDbLine
 10
14.39999979097307
 20
98.68104725385904
 30
0.0
 11
13.22945685738102
 21
98.68104725385904
 31
0.0
  0
LINE
  5
27A7
330
2765
100
AcDbEntity
  8
NOKITOI
  6
PHANTOM
 62
     8
 48
5.0
100
AcDbLine
 10
10.74666806157153
 20
103.9540819985824
 30
0.0
 11
10.66213547981702
 21
103.4363199353327
 31
0.0
  0
ARC
  5
27A8
330
2765
100
AcDbEntity
  8
NOKITOI
  6
PHANTOM
 62
     8
 48
5.0
100
AcDbCircle
 10
10.70099933155858
 20
100.5713131304254
 30
0.0
 40
1.499999999999993
100
AcDbArc
 50
350.7273982228016
 51
105.8737918367157
  0
LINE
  5
27A9
330
2765
100
AcDbEntity
  8
NOKITOI
  6
PHANTOM
 62
     8
 48
5.0
100
AcDbLine
 10
13.46441142426817
 20
100.1201439760422
 30
0.0
 11
13.22945685738102
 21
98.68104725385904
 31
0.0
  0
ARC
  5
27AA
330
2765
100
AcDbEntity
  8
NOKITOI
  6
PHANTOM
 62
     8
 48
5.0
100
AcDbCircle
 10
10.70099933155858
 20
100.5713131304254
 30
0.0
 40
2.799999999999993
100
AcDbArc
 50
350.7273982228016
 51
61.9780573757826
  0
LINE
  5
27AB
330
2765
100
AcDbEntity
  8
NOKITOI
  6
PHANTOM
 62
     8
 48
5.0
100
AcDbLine
 10
12.12964638789014
 20
103.7362901361699
 30
0.0
 11
12.01646641233798
 21
103.0430627859097
 31
0.0
  0
LINE
  5
27AC
330
2765
100
AcDbEntity
  8
NOKITOI
  6
PHANTOM
 62
     8
 48
5.0
100
AcDbLine
 10
12.18139867925981
 20
100.329615444615
 30
0.0
 11
11.7947860679436
 21
97.96161320030542
 31
0.0
  0
LINE
  5
27AD
330
2765
100
AcDbEntity
  8
NOKITOI
  6
PHANTOM
 62
     8
 48
5.0
100
AcDbLine
 10
16.39999979097308
 20
99.38104718928476
 30
0.0
 11
16.39999979097308
 21
102.771359717209
 31
0.0
  0
LINE
  5
27AE
330
2765
100
AcDbEntity
  8
NOKITOI
  6
PHANTOM
 62
     8
 48
5.0
100
AcDbLine
 10
15.09999979097335
 20
99.38104718928476
 30
0.0
 11
15.09999979097335
 21
102.755611685713
 31
0.0
  0
ARC
  5
27AF
330
2765
100
AcDbEntity
  8
NOKITOI
  6
PHANTOM
 62
     8
 48
5.0
100
AcDbCircle
 10
14.39999979097307
 20
99.3810472538591
 30
0.0
 40
0.7
100
AcDbArc
 50
270.0
 51
0.0
  0
ARC
  5
27B0
330
2765
100
AcDbEntity
  8
NOKITOI
  6
PHANTOM
 62
     8
 48
5.0
100
AcDbCircle
 10
14.39999979097307
 20
102.771359717209
 30
0.0
 40
2.000000000000039
100
AcDbArc
 50
0.0
 51
81.05054191579087
  0
ARC
  5
27B1
330
2765
100
AcDbEntity
  8
NOKITOI
  6
PHANTOM
 62
     8
 48
5.0
100
AcDbCircle
 10
14.49999979097343
 20
102.755611685713
 30
0.0
 40
0.6
100
AcDbArc
 50
0.0
 51
81.05054191579087
  0
ENDBLK
  5
27B3
330
2765
100
AcDbEntity
  8
0
100
AcDbBlockEnd
  0
ENDSEC
  0
SECTION
  2
ENTITIES
  0
ARC
  5
12AF
330
1A
100
AcDbEntity
  8
SEIHIN
  6
CONTINUOUS
 62
     3
100
AcDbCircle
 10
496.7946350969598
 20
1169.772760417076
 30
0.0
 40
1002.5
100
AcDbArc
 50
268.0319788418373
 51
271.9230515139932
  0
ARC
  5
12B1
330
1A
100
AcDbEntity
  8
SEIHIN
  6
CONTINUOUS
 62
     3
100
AcDbCircle
 10
496.7946350969598
 20
1169.772760417076
 30
0.0
 40
1000.0
100
AcDbArc
 50
268.1104374228915
 51
271.8722183374838
  0
ARC
  5
12B3
330
1A
100
AcDbEntity
  8
SEIHIN
  6
CONTINUOUS
 62
     3
100
AcDbCircle
 10
1391.082435021769
 20
526.2687207886547
 30
0.0
 40
1002.5
100
AcDbArc
 50
195.8703206174841
 51
200.2109617426317
  0
ARC
  5
12B5
330
1A
100
AcDbEntity
  8
SEIHIN
  6
CONTINUOUS
 62
     3
100
AcDbCircle
 10
1391.082435021769
 20
526.2687207886547
 30
0.0
 40
999.9999999999996
100
AcDbArc
 50
195.8902741136714
 51
200.1310183832321
  0
LINE
  5
12B9
330
1A
100
AcDbEntity
  8
SEIHIN
  6
CONTINUOUS
 62
     3
100
AcDbLine
 10
460.5481738843528
 20
169.2018572463885
 30
0.0
 11
457.2557330577523
 21
178.6032844532419
 31
0.0
  0
ARC
  5
12BD
330
1A
100
AcDbEntity
  8
SEIHIN
  6
CONTINUOUS
 62
     3
100
AcDbCircle
 10
462.4357690332305
 20
169.8629053187204
 30
0.0
 40
2.000000000000011
100
AcDbArc
 50
199.3005854307757
 51
268.0319788418373
  0
LINE
  5
12C2
330
1A
100
AcDbEntity
  8
SEIHIN
  6
CONTINUOUS
 62
     3
100
AcDbLine
 10
462.455287804185
 20
171.3199195707054
 30
0.0
 11
459.1463173384839
 21
180.7685464713248
 31
0.0
  0
LINE
  5
12C4
330
1A
100
AcDbEntity
  8
SEIHIN
  6
CONTINUOUS
 62
     3
100
AcDbLine
 10
456.3119354833136
 20
179.272760417076
 30
0.0
 11
451.2478509557486
 21
179.272760417076
 31
0.0
  0
LINE
  5
12C5
330
1A
100
AcDbEntity
  8
SEIHIN
  6
CONTINUOUS
 62
     3
100
AcDbLine
 10
457.7306209768257
 20
181.772760417076
 30
0.0
 11
452.6438226192126
 21
181.772760417076
 31
0.0
  0
ARC
  5
12C8
330
1A
100
AcDbEntity
  8
SEIHIN
  6
CONTINUOUS
 62
     3
100
AcDbCircle
 10
451.2478509557488
 20
180.2727604170761
 30
0.0
 40
1.00000000000009
100
AcDbArc
 50
200.2109617426356
 51
270.0
  0
ARC
  5
12CD
330
1A
100
AcDbEntity
  8
SEIHIN
  6
CONTINUOUS
 62
     3
100
AcDbCircle
 10
452.6438226192126
 20
182.272760417076
 30
0.0
 40
0.5
100
AcDbArc
 50
200.1310183832416
 51
270.0
  0
ARC
  5
12D0
330
1A
100
AcDbEntity
  8
SEIHIN
  6
CONTINUOUS
 62
     3
100
AcDbCircle
 10
456.3119354833136
 20
178.272760417076
 30
0.0
 40
1.000000000000015
100
AcDbArc
 50
19.30058543077393
 51
90.0
  0
ARC
  5
12D4
330
1A
100
AcDbEntity
  8
SEIHIN
  6
CONTINUOUS
 62
     3
100
AcDbCircle
 10
457.7306209768257
 20
180.272760417076
 30
0.0
 40
1.499999999999982
100
AcDbArc
 50
19.30058543077393
 51
90.0
  0
ARC
  5
12D8
330
1A
100
AcDbEntity
  8
SEIHIN
  6
CONTINUOUS
 62
     3
100
AcDbCircle
 10
463.8709841658431
 20
171.8157056249541
 30
0.0
 40
1.500000000000039
100
AcDbArc
 50
199.3005854307796
 51
268.1104374228915
  0
LINE
  5
12DF
330
1A
100
AcDbEntity
  8
SEIHIN
  6
CONTINUOUS
 62
     3
100
AcDbLine
 10
425.5758391604308
 20
257.2727604170759
 30
0.0
 11
414.7244632639215
 21
257.2727589269599
 31
0.0
  0
LINE
  5
12E1
330
1A
100
AcDbEntity
  8
SEIHIN
  6
CONTINUOUS
 62
     3
100
AcDbLine
 10
428.2946350969598
 20
259.7727604170759
 30
0.0
 11
416.8486691608062
 21
259.7727604170759
 31
0.0
  0
LINE
  5
12E4
330
1A
100
AcDbEntity
  8
SEIHIN
  6
CONTINUOUS
 62
     3
100
AcDbLine
 10
414.7244632639215
 20
257.2727589269599
 30
0.0
 11
408.9042938153339
 21
273.8020341065098
 31
0.0
  0
LINE
  5
12E5
330
1A
100
AcDbEntity
  8
SEIHIN
  6
CONTINUOUS
 62
     3
100
AcDbLine
 10
416.3770514912246
 20
260.106697857364
 30
0.0
 11
411.3866422025196
 21
274.2794625664955
 31
0.0
  0
ARC
  5
12E9
330
1A
100
AcDbEntity
  8
SEIHIN
  6
CONTINUOUS
 62
     3
100
AcDbCircle
 10
416.8486691608062
 20
260.2727604170759
 30
0.0
 40
0.5
100
AcDbArc
 50
199.3978124485595
 51
270.0
  0
ARC
  5
12EC
330
1A
100
AcDbEntity
  8
SEIHIN
  6
CONTINUOUS
 62
     3
100
AcDbCircle
 10
412.633480905283
 20
279.0742709646863
 30
0.0
 40
4.000000000000023
100
AcDbArc
 50
78.2317110679743
 51
183.0000000000096
  0
ARC
  5
12ED
330
1A
100
AcDbEntity
  8
SEIHIN
  6
CONTINUOUS
 62
     3
100
AcDbCircle
 10
412.8866406291786
 20
279.0215293555414
 30
0.0
 40
1.500000000000028
100
AcDbArc
 50
78.2317110679743
 51
180.0
  0
LINE
  5
12F0
330
1A
100
AcDbEntity
  8
SEIHIN
  6
CONTINUOUS
 62
     3
100
AcDbLine
 10
408.9042938153339
 20
273.8020341065098
 30
0.0
 11
408.6389626041481
 21
278.8649302331291
 31
0.0
  0
LINE
  5
12F1
330
1A
100
AcDbEntity
  8
SEIHIN
  6
CONTINUOUS
 62
     3
100
AcDbLine
 10
411.3866422025196
 20
274.2794625664955
 30
0.0
 11
411.3866406291784
 21
279.0215293555414
 31
0.0
  0
LINE
  5
12F8
330
1A
100
AcDbEntity
  8
SEIHIN
  6
CONTINUOUS
 62
     3
100
AcDbLine
 10
418.3912586246671
 20
278.8346967543744
 30
0.0
 11
420.5740250551052
 21
279.8525374568514
 31
0.0
  0
ARC
  5
12F9
330
1A
100
AcDbEntity
  8
SEIHIN
  6
CONTINUOUS
 62
     3
100
AcDbCircle
 10
418.6931404977581
 20
283.9406672189862
 30
0.0
 40
1.999999999999953
100
AcDbArc
 50
258.2317110679742
 51
295.0000000000004
  0
LWPOLYLINE
  5
12FA
330
1A
100
AcDbEntity
  8
SEIHIN
  6
CONTINUOUS
 62
     3
100
AcDbPolyline
 90
        4
 70
   128
 43
0.0
 10
413.4492980927291
 20
282.9901954692971
 10
413.4805979818167
 20
282.9836687606941
 10
413.574475297338
 20
282.9641109866273
 10
413.7309151381316
 20
282.9315221470963
  0
LINE
  5
12FB
330
1A
100
AcDbEntity
  8
SEIHIN
  6
CONTINUOUS
 62
     3
100
AcDbLine
 10
418.2852319895341
 20
281.9827063795111
 30
0.0
 11
413.4470616187532
 21
282.9906578739011
 31
0.0
  0
ARC
  5
12FC
330
1A
100
AcDbEntity
  8
SEIHIN
  6
CONTINUOUS
 62
     3
100
AcDbCircle
 10
416.2781673159638
 20
283.3662356895578
 30
0.0
 40
5.0
100
AcDbArc
 50
270.0
 51
294.9999999999993
  0
LINE
  5
12FD
330
1A
100
AcDbEntity
  8
SEIHIN
  6
CONTINUOUS
 62
     3
100
AcDbLine
 10
413.1925720103465
 20
280.4899999851478
 30
0.0
 11
416.1866414040388
 21
279.8662340802323
 31
0.0
  0
LINE
  5
12FE
330
1A
100
AcDbEntity
  8
SEIHIN
  6
CONTINUOUS
 62
     3
100
AcDbLine
 10
416.1866414040388
 20
279.8662340802323
 30
0.0
 11
415.8866437763037
 21
278.3662384909761
 31
0.0
  0
LINE
  5
12FF
330
1A
100
AcDbEntity
  8
SEIHIN
  6
CONTINUOUS
 62
     3
100
AcDbLine
 10
415.8866437763037
 20
278.3662384909761
 30
0.0
 11
416.2781673159638
 21
278.3662356895578
 31
0.0
  0
LINE
  5
1300
330
1A
100
AcDbEntity
  8
SEIHIN
  6
CONTINUOUS
 62
     3
100
AcDbLine
 10
413.7309167348987
 20
282.9315220575601
 30
0.0
 11
414.2649951070608
 21
282.8202551764618
 31
0.0
  0
LINE
  5
1301
330
1A
100
AcDbEntity
  8
SEIHIN
  6
CONTINUOUS
 62
     3
100
AcDbLine
 10
420.8769410813083
 20
282.752234317054
 30
0.0
 11
419.5383770212396
 21
282.128051644913
 31
0.0
  0
ARC
  5
1302
330
1A
100
AcDbEntity
  8
SEIHIN
  6
CONTINUOUS
 62
     3
100
AcDbCircle
 10
419.7287885316238
 20
281.6651530309247
 30
0.0
 40
2.000000000000005
100
AcDbArc
 50
294.9999999999993
 51
25.0000000000021
  0
ARC
  5
1303
330
1A
100
AcDbEntity
  8
SEIHIN
  6
CONTINUOUS
 62
     3
100
AcDbCircle
 10
421.0882502121786
 20
282.2990804235357
 30
0.0
 40
0.5000000000000419
100
AcDbArc
 50
25.00000000001317
 51
115.0000000000003
  0
ARC
  5
1305
330
1A
100
AcDbEntity
  8
SEIHIN
  6
CONTINUOUS
 62
     3
100
AcDbCircle
 10
428.2946350969598
 20
258.7727604170759
 30
0.0
 40
1.0
100
AcDbArc
 50
0.0
 51
90.0
  0
LINE
  5
1306
330
1A
100
AcDbEntity
  8
SEIHIN
  6
CONTINUOUS
 62
     3
100
AcDbLine
 10
426.7946350969595
 20
252.1240711670156
 30
0.0
 11
426.5744686951851
 21
256.3250963733188
 31
0.0
  0
ARC
  5
1308
330
1A
100
AcDbEntity
  8
SEIHIN
  6
CONTINUOUS
 62
     3
100
AcDbCircle
 10
425.5758391604308
 20
256.2727604170759
 30
0.0
 40
1.000000000000005
100
AcDbArc
 50
2.999999999997633
 51
90.0
  0
LINE
  5
1310
330
1A
100
AcDbEntity
  8
SEIHIN
  6
CONTINUOUS
 62
     3
100
AcDbLine
 10
429.2946350969598
 20
252.4727604170755
 30
0.0
 11
429.2946350969598
 21
258.7727604170759
 31
0.0
  0
LINE
  5
1314
330
1A
100
AcDbEntity
  8
SEIHIN
  6
CONTINUOUS
 62
     3
100
AcDbLine
 10
538.8243820333648
 20
233.4470719025714
 30
0.0
 11
533.3237198707327
 21
170.5742156838641
 31
0.0
  0
LINE
  5
1315
330
1A
100
AcDbEntity
  8
SEIHIN
  6
CONTINUOUS
 62
     3
100
AcDbLine
 10
536.5335540983211
 20
235.9470719025713
 30
0.0
 11
530.910480912147
 21
171.6750512823424
 31
0.0
  0
ARC
  5
131F
330
1A
100
AcDbEntity
  8
SEIHIN
  6
CONTINUOUS
 62
     3
100
AcDbCircle
 10
530.3351357764575
 20
170.835682912107
 30
0.0
 40
3.000000000000069
100
AcDbArc
 50
271.9230515139932
 51
354.999999999989
  0
ARC
  5
1325
330
1A
100
AcDbEntity
  8
SEIHIN
  6
CONTINUOUS
 62
     3
100
AcDbCircle
 10
529.4161888650092
 20
171.8057848964638
 30
0.0
 40
1.500000000000274
100
AcDbArc
 50
271.8722183374838
 51
354.9999999998957
  0
ARC
  5
132B
330
1A
100
AcDbEntity
  8
SEIHIN
  6
CONTINUOUS
 62
     3
100
AcDbCircle
 10
540.9468513610955
 20
254.7727512754454
 30
0.0
 40
8.000000000000023
100
AcDbArc
 50
90.0
 51
149.4562112647464
  0
ARC
  5
132C
330
1A
100
AcDbEntity
  8
SEIHIN
  6
CONTINUOUS
 62
     3
100
AcDbCircle
 10
540.8167714295482
 20
233.2727604170759
 30
0.0
 40
2.0
100
AcDbArc
 50
90.0
 51
174.999999999999
  0
LINE
  5
132D
330
1A
100
AcDbEntity
  8
SEIHIN
  6
CONTINUOUS
 62
     3
100
AcDbLine
 10
540.8146967352084
 20
235.2727593409865
 30
0.0
 11
543.7278866202383
 21
235.2727604170759
 31
0.0
  0
LINE
  5
132E
330
1A
100
AcDbEntity
  8
SEIHIN
  6
CONTINUOUS
 62
     3
100
AcDbLine
 10
536.2932809092327
 20
257.2727487720504
 30
0.0
 11
541.1932811464699
 21
257.2727512754453
 31
0.0
  0
LINE
  5
132F
330
1A
100
AcDbEntity
  8
SEIHIN
  6
CONTINUOUS
 62
     3
100
AcDbLine
 10
541.1932811464699
 20
237.7727604170761
 30
0.0
 11
538.5259434945046
 21
237.7727604170761
 31
0.0
  0
LINE
  5
1330
330
1A
100
AcDbEntity
  8
SEIHIN
  6
CONTINUOUS
 62
     3
100
AcDbLine
 10
544.0769879188028
 20
259.7727512754453
 30
0.0
 11
535.6932811464697
 21
259.7727512754453
 31
0.0
  0
ARC
  5
1337
330
1A
100
AcDbEntity
  8
SEIHIN
  6
CONTINUOUS
 62
     3
100
AcDbCircle
 10
538.5259434945046
 20
235.7727604170761
 30
0.0
 40
2.0
100
AcDbArc
 50
90.0
 51
174.999999999999
  0
ARC
  5
1338
330
1A
100
AcDbEntity
  8
SEIHIN
  6
CONTINUOUS
 62
     3
100
AcDbCircle
 10
535.6932811464697
 20
257.8727512754454
 30
0.0
 40
1.9
100
AcDbArc
 50
90.0
 51
270.0
  0
LINE
  5
1339
330
1A
100
AcDbEntity
  8
SEIHIN
  6
CONTINUOUS
 62
     3
100
AcDbLine
 10
535.6932811464697
 20
255.9727512754454
 30
0.0
 11
536.2932809092327
 21
255.9727491177572
 31
0.0
  0
LINE
  5
133A
330
1A
100
AcDbEntity
  8
SEIHIN
  6
CONTINUOUS
 62
     3
100
AcDbLine
 10
536.2932809092327
 20
255.9727491177572
 30
0.0
 11
536.2932809092327
 21
257.2727487720504
 31
0.0
  0
LINE
  5
133C
330
1A
100
AcDbEntity
  8
SEIHIN
  6
CONTINUOUS
 62
     3
100
AcDbLine
 10
545.7275820105512
 20
237.2378556042014
 30
0.0
 11
546.0766833091156
 21
257.7378464625709
 31
0.0
  0
LINE
  5
133D
330
1A
100
AcDbEntity
  8
SEIHIN
  6
CONTINUOUS
 62
     3
100
AcDbLine
 10
543.1932811464697
 20
255.2727512754454
 30
0.0
 11
543.1932811464697
 21
239.772760417076
 31
0.0
  0
ARC
  5
1340
330
1A
100
AcDbEntity
  8
SEIHIN
  6
CONTINUOUS
 62
     3
100
AcDbCircle
 10
543.7278866202383
 20
237.2727604170759
 30
0.0
 40
2.000000000000025
100
AcDbArc
 50
270.0
 51
358.9999999999997
  0
LINE
  5
1344
330
1A
100
AcDbEntity
  8
SEIHIN
  6
CONTINUOUS
 62
     3
100
AcDbLine
 10
541.1932811464699
 20
237.7727604170761
 30
0.0
 11
541.833593570213
 21
237.7727604170761
 31
0.0
  0
LINE
  5
1345
330
1A
100
AcDbEntity
  8
SEIHIN
  6
CONTINUOUS
 62
     3
100
AcDbLine
 10
543.1932811464697
 20
239.772760417076
 30
0.0
 11
543.1932811464697
 21
239.1324479933326
 31
0.0
  0
LINE
  5
1348
330
1A
100
AcDbEntity
  8
SEIHIN
  6
CONTINUOUS
 62
     3
100
AcDbLine
 10
542.7932811464698
 20
261.7727512754455
 30
0.0
 11
542.7932829059883
 21
259.7727538384452
 31
0.0
  0
ARC
  5
1349
330
1A
100
AcDbEntity
  8
SEIHIN
  6
CONTINUOUS
 62
     3
100
AcDbCircle
 10
544.0769879188028
 20
257.7727512754453
 30
0.0
 40
2.000000000000025
100
AcDbArc
 50
358.9999999999997
 51
90.0
  0
ARC
  5
134A
330
1A
100
AcDbEntity
  8
SEIHIN
  6
CONTINUOUS
 62
     3
100
AcDbCircle
 10
541.1932811464699
 20
255.2727512754454
 30
0.0
 40
2.0
100
AcDbArc
 50
0.0
 51
90.0
  0
ARC
  5
134B
330
1A
100
AcDbEntity
  8
SEIHIN
  6
CONTINUOUS
 62
     3
100
AcDbCircle
 10
541.7932811464696
 20
261.7727512754455
 30
0.0
 40
1.0
100
AcDbArc
 50
0.0
 51
90.0
  0
LINE
  5
134C
330
1A
100
AcDbEntity
  8
SEIHIN
  6
CONTINUOUS
 62
     3
100
AcDbLine
 10
540.9468513610955
 20
262.7727512754455
 30
0.0
 11
541.7932811464696
 21
262.7727512754455
 31
0.0
  0
LINE
  5
136E
330
1A
100
AcDbEntity
  8
SEIHIN
  6
CONTINUOUS
 62
     3
100
AcDbLine
 10
463.8215244999476
 20
435.1999625608464
 30
0.0
 11
463.8215244999476
 21
365.1999625608466
 31
0.0
  0
LINE
  5
136F
330
1A
100
AcDbEntity
  8
SEIHIN
  6
CONTINUOUS
 62
     3
100
AcDbLine
 10
529.4651947044204
 20
365.1999625608466
 30
0.0
 11
529.4651947044204
 21
435.1999625608464
 31
0.0
  0
LINE
  5
1371
330
1A
100
AcDbEntity
  8
SEIHIN
  6
CONTINUOUS
 62
     3
100
AcDbLine
 10
459.1463173384839
 20
435.1999625608464
 30
0.0
 11
459.1463173384839
 21
365.1999625608464
 31
0.0
  0
LINE
  5
1375
330
1A
100
AcDbEntity
  8
SEIHIN
  6
CONTINUOUS
 62
     3
100
AcDbLine
 10
452.1743685859949
 20
365.1999625608464
 30
0.0
 11
452.1743685859949
 21
435.1999625608464
 31
0.0
  0
LINE
  5
1376
330
1A
100
AcDbEntity
  8
SEIHIN
  6
CONTINUOUS
 62
     3
100
AcDbLine
 10
546.0766833091156
 20
435.1999625608462
 30
0.0
 11
546.0766833091156
 21
365.1999625608463
 31
0.0
  0
LINE
  5
1379
330
1A
100
AcDbEntity
  8
SEIHIN
  6
CONTINUOUS
 62
     3
100
AcDbLine
 10
429.2946350969598
 20
435.1999625608462
 30
0.0
 11
429.2946350969598
 21
365.1999625608463
 31
0.0
  0
LINE
  5
137E
330
1A
100
AcDbEntity
  8
SEIHIN
  6
CONTINUOUS
 62
     3
100
AcDbLine
 10
418.3932264573154
 20
435.1999625608462
 30
0.0
 11
418.3932264573154
 21
410.1999625608462
 31
0.0
  0
LINE
  5
1380
330
1A
100
AcDbEntity
  8
SEIHIN
  6
CONTINUOUS
 62
     3
100
AcDbLine
 10
533.7932811464696
 20
435.1999625608462
 30
0.0
 11
533.7932795681282
 21
425.1999629333751
 31
0.0
  0
LINE
  5
1381
330
1A
100
AcDbEntity
  8
SEIHIN
  6
CONTINUOUS
 62
     3
100
AcDbLine
 10
421.8367829994051
 20
410.1999625608462
 30
0.0
 11
421.8367829994051
 21
435.1999625608462
 31
0.0
  0
LINE
  5
1382
330
1A
100
AcDbEntity
  8
SEIHIN
  6
CONTINUOUS
 62
     3
100
AcDbLine
 10
409.5513463415429
 20
435.1999627098577
 30
0.0
 11
409.0289119309649
 21
425.5245642926296
 31
0.0
  0
LINE
  5
1383
330
1A
100
AcDbEntity
  8
SEIHIN
  6
CONTINUOUS
 62
     3
100
AcDbLine
 10
529.4651947044204
 20
365.1999625608466
 30
0.0
 11
463.8215244999476
 21
365.1999625608466
 31
0.0
  0
LINE
  5
1387
330
1A
100
AcDbEntity
  8
SEIHIN
  6
CONTINUOUS
 62
     3
100
AcDbLine
 10
418.3932264573154
 20
365.1999625608461
 30
0.0
 11
418.3932264573154
 21
390.1999625608461
 31
0.0
  0
LINE
  5
1389
330
1A
100
AcDbEntity
  8
SEIHIN
  6
CONTINUOUS
 62
     3
100
AcDbLine
 10
421.8367829994051
 20
365.1999625608461
 30
0.0
 11
421.8367829994051
 21
390.1999625608461
 31
0.0
  0
LINE
  5
138A
330
1A
100
AcDbEntity
  8
SEIHIN
  6
CONTINUOUS
 62
     3
100
AcDbLine
 10
409.0289119309708
 20
374.8753608286205
 30
0.0
 11
409.5513463415429
 21
365.1999624118344
 31
0.0
  0
LINE
  5
138B
330
1A
100
AcDbEntity
  8
SEIHIN
  6
CONTINUOUS
 62
     3
100
AcDbLine
 10
452.1743685859949
 20
365.1999625608464
 30
0.0
 11
429.2946350969598
 21
365.1999625608463
 31
0.0
  0
LINE
  5
138C
330
1A
100
AcDbEntity
  8
SEIHIN
  6
CONTINUOUS
 62
     3
100
AcDbLine
 10
428.2946350969598
 20
365.1999625608463
 30
0.0
 11
421.8367829994051
 21
365.1999625608461
 31
0.0
  0
LINE
  5
138D
330
1A
100
AcDbEntity
  8
SEIHIN
  6
CONTINUOUS
 62
     3
100
AcDbLine
 10
414.3729895748422
 20
365.1999624118344
 30
0.0
 11
409.5513463415429
 21
365.1999624118344
 31
0.0
  0
LINE
  5
138E
330
1A
100
AcDbEntity
  8
SEIHIN
  6
CONTINUOUS
 62
     3
100
AcDbLine
 10
419.646371489021
 20
365.1999625608461
 30
0.0
 11
418.3932264573154
 21
365.1999625608461
 31
0.0
  0
LINE
  5
138F
330
1A
100
AcDbEntity
  8
SEIHIN
  6
CONTINUOUS
 62
     3
100
AcDbLine
 10
418.3932264573154
 20
365.1999625608461
 30
0.0
 11
414.3729895748422
 21
365.1999624118344
 31
0.0
  0
LINE
  5
1390
330
1A
100
AcDbEntity
  8
SEIHIN
  6
CONTINUOUS
 62
     3
100
AcDbLine
 10
421.8367829994051
 20
365.1999625608461
 30
0.0
 11
421.6493985734781
 21
365.1999625608461
 31
0.0
  0
LINE
  5
1391
330
1A
100
AcDbEntity
  8
SEIHIN
  6
CONTINUOUS
 62
     3
100
AcDbLine
 10
420.9849355490896
 20
365.1999625608461
 30
0.0
 11
419.646371489021
 21
365.1999625608461
 31
0.0
  0
LINE
  5
1392
330
1A
100
AcDbEntity
  8
SEIHIN
  6
CONTINUOUS
 62
     3
100
AcDbLine
 10
421.6493985734781
 20
365.1999625608461
 30
0.0
 11
420.9849355490896
 21
365.1999625608461
 31
0.0
  0
LINE
  5
1393
330
1A
100
AcDbEntity
  8
SEIHIN
  6
CONTINUOUS
 62
     3
100
AcDbLine
 10
429.2946350969598
 20
365.1999625608463
 30
0.0
 11
428.2946350969598
 21
365.1999625608463
 31
0.0
  0
LINE
  5
1394
330
1A
100
AcDbEntity
  8
SEIHIN
  6
CONTINUOUS
 62
     3
100
AcDbLine
 10
462.455287804185
 20
365.1999625608466
 30
0.0
 11
459.1463173384839
 21
365.1999625608464
 31
0.0
  0
LINE
  5
1395
330
1A
100
AcDbEntity
  8
SEIHIN
  6
CONTINUOUS
 62
     3
100
AcDbLine
 10
457.7306209768257
 20
365.1999625608464
 30
0.0
 11
452.6438226192126
 21
365.1999625608464
 31
0.0
  0
LINE
  5
1396
330
1A
100
AcDbEntity
  8
SEIHIN
  6
CONTINUOUS
 62
     3
100
AcDbLine
 10
452.6438226192126
 20
365.1999625608464
 30
0.0
 11
452.1743685859949
 21
365.1999625608464
 31
0.0
  0
LINE
  5
1397
330
1A
100
AcDbEntity
  8
SEIHIN
  6
CONTINUOUS
 62
     3
100
AcDbLine
 10
459.1463173384839
 20
365.1999625608464
 30
0.0
 11
457.7306209768257
 21
365.1999625608464
 31
0.0
  0
LINE
  5
1398
330
1A
100
AcDbEntity
  8
SEIHIN
  6
CONTINUOUS
 62
     3
100
AcDbLine
 10
463.8215244999476
 20
365.1999625608466
 30
0.0
 11
462.455287804185
 21
365.1999625608466
 31
0.0
  0
LINE
  5
1399
330
1A
100
AcDbEntity
  8
SEIHIN
  6
CONTINUOUS
 62
     3
100
AcDbLine
 10
416.8486684955881
 20
410.1999623373287
 30
0.0
 11
416.8486684955881
 21
390.1999627843636
 31
0.0
  0
LINE
  5
139B
330
1A
100
AcDbEntity
  8
SEIHIN
  6
CONTINUOUS
 62
     3
100
AcDbLine
 10
411.494636575155
 20
408.1999629408256
 30
0.0
 11
411.494636575155
 21
392.1999621808664
 31
0.0
  0
LINE
  5
139C
330
1A
100
AcDbEntity
  8
SEIHIN
  6
CONTINUOUS
 62
     3
100
AcDbLine
 10
408.7414757806185
 20
414.8704164357676
 30
0.0
 11
408.7414753730644
 21
385.5295086859248
 31
0.0
  0
LWPOLYLINE
  5
139E
330
1A
100
AcDbEntity
  8
SEIHIN
  6
CONTINUOUS
 62
     3
100
AcDbPolyline
 90
        4
 70
   128
 43
0.0
 10
408.7414756812378
 20
385.5295085951821
 10
408.7594464816376
 20
382.8647823676604
 10
408.9227036036775
 20
377.0685119226711
 10
409.0289116300867
 20
374.8753403917091
  0
ARC
  5
13A1
330
1A
100
AcDbEntity
  8
SEIHIN
  6
CONTINUOUS
 62
     3
100
AcDbCircle
 10
413.494628345132
 20
392.1999545543493
 30
0.0
 40
1.999991769991692
100
AcDbArc
 50
180.0
 51
270.000138443176
  0
LINE
  5
13A2
330
1A
100
AcDbEntity
  8
SEIHIN
  6
CONTINUOUS
 62
     3
100
AcDbLine
 10
418.3932264573154
 20
390.1999625608461
 30
0.0
 11
419.646371489021
 21
390.1999625608461
 31
0.0
  0
LINE
  5
13A3
330
1A
100
AcDbEntity
  8
SEIHIN
  6
CONTINUOUS
 62
     3
100
AcDbLine
 10
413.5572923895123
 20
390.1999625608461
 30
0.0
 11
418.3932264573154
 21
390.1999625608461
 31
0.0
  0
LINE
  5
13A5
330
1A
100
AcDbEntity
  8
SEIHIN
  6
CONTINUOUS
 62
     3
100
AcDbLine
 10
413.4946350969595
 20
390.1999625608461
 30
0.0
 11
413.5572923895123
 21
390.1999625608461
 31
0.0
  0
LINE
  5
13A6
330
1A
100
AcDbEntity
  8
SEIHIN
  6
CONTINUOUS
 62
     3
100
AcDbLine
 10
421.6493985734781
 20
390.1999625608461
 30
0.0
 11
421.8367829994051
 21
390.1999625608461
 31
0.0
  0
LINE
  5
13A7
330
1A
100
AcDbEntity
  8
SEIHIN
  6
CONTINUOUS
 62
     3
100
AcDbLine
 10
420.9849355490896
 20
390.1999625608461
 30
0.0
 11
419.646371489021
 21
390.1999625608461
 31
0.0
  0
LINE
  5
13A8
330
1A
100
AcDbEntity
  8
SEIHIN
  6
CONTINUOUS
 62
     3
100
AcDbLine
 10
420.9849355490896
 20
390.1999625608461
 30
0.0
 11
421.6493985734781
 21
390.1999625608461
 31
0.0
  0
LWPOLYLINE
  5
13AA
330
1A
100
AcDbEntity
  8
SEIHIN
  6
CONTINUOUS
 62
     3
100
AcDbPolyline
 90
        4
 70
   128
 43
0.0
 10
409.0289116300867
 20
425.5245847299831
 10
408.903175631933
 20
422.8626990363138
 10
408.7536722816751
 20
417.0659051880376
 10
408.7414756812378
 20
414.8704165265101
  0
ARC
  5
13AB
330
1A
100
AcDbEntity
  8
SEIHIN
  6
CONTINUOUS
 62
     3
100
AcDbCircle
 10
413.494628345132
 20
408.1999705673429
 30
0.0
 40
1.999991769991692
100
AcDbArc
 50
89.99986155682398
 51
180.0
  0
LINE
  5
13AD
330
1A
100
AcDbEntity
  8
SEIHIN
  6
CONTINUOUS
 62
     3
100
AcDbLine
 10
418.3932264573154
 20
410.1999625608462
 30
0.0
 11
419.646371489021
 21
410.1999625608462
 31
0.0
  0
LINE
  5
13AE
330
1A
100
AcDbEntity
  8
SEIHIN
  6
CONTINUOUS
 62
     3
100
AcDbLine
 10
413.5572923895123
 20
410.1999625608462
 30
0.0
 11
418.3932264573154
 21
410.1999625608462
 31
0.0
  0
LINE
  5
13AF
330
1A
100
AcDbEntity
  8
SEIHIN
  6
CONTINUOUS
 62
     3
100
AcDbLine
 10
413.4946350969595
 20
410.1999625608462
 30
0.0
 11
413.5572923895123
 21
410.1999625608462
 31
0.0
  0
LINE
  5
13B1
330
1A
100
AcDbEntity
  8
SEIHIN
  6
CONTINUOUS
 62
     3
100
AcDbLine
 10
421.6493985734781
 20
410.1999625608462
 30
0.0
 11
421.8367829994051
 21
410.1999625608462
 31
0.0
  0
LINE
  5
13B2
330
1A
100
AcDbEntity
  8
SEIHIN
  6
CONTINUOUS
 62
     3
100
AcDbLine
 10
420.9849355490896
 20
410.1999625608462
 30
0.0
 11
419.646371489021
 21
410.1999625608462
 31
0.0
  0
LINE
  5
13B3
330
1A
100
AcDbEntity
  8
SEIHIN
  6
CONTINUOUS
 62
     3
100
AcDbLine
 10
420.9849355490896
 20
410.1999625608462
 30
0.0
 11
421.6493985734781
 21
410.1999625608462
 31
0.0
  0
LINE
  5
13B8
330
1A
100
AcDbEntity
  8
SEIHIN
  6
CONTINUOUS
 62
     3
100
AcDbLine
 10
533.7932795681282
 20
375.1999621883171
 30
0.0
 11
533.7932811464696
 21
365.1999625608463
 31
0.0
  0
LINE
  5
13B9
330
1A
100
AcDbEntity
  8
SEIHIN
  6
CONTINUOUS
 62
     3
100
AcDbLine
 10
544.0769879188028
 20
365.1999625608463
 30
0.0
 11
535.6932811464697
 21
365.1999625608463
 31
0.0
  0
LINE
  5
13BA
330
1A
100
AcDbEntity
  8
SEIHIN
  6
CONTINUOUS
 62
     3
100
AcDbLine
 10
535.6932811464697
 20
365.1999625608463
 30
0.0
 11
533.7932811464696
 21
365.1999625608463
 31
0.0
  0
LINE
  5
13BB
330
1A
100
AcDbEntity
  8
SEIHIN
  6
CONTINUOUS
 62
     3
100
AcDbLine
 10
530.910480912147
 20
365.1999625608466
 30
0.0
 11
529.4651947044204
 21
365.1999625608466
 31
0.0
  0
LINE
  5
13BC
330
1A
100
AcDbEntity
  8
SEIHIN
  6
CONTINUOUS
 62
     3
100
AcDbLine
 10
533.7932811464696
 20
365.1999625608463
 30
0.0
 11
530.910480912147
 21
365.1999625608466
 31
0.0
  0
LINE
  5
13BD
330
1A
100
AcDbEntity
  8
SEIHIN
  6
CONTINUOUS
 62
     3
100
AcDbLine
 10
546.0766833091156
 20
365.1999625608463
 30
0.0
 11
544.0769879188028
 21
365.1999625608463
 31
0.0
  0
LINE
  5
13BE
330
1A
100
AcDbEntity
  8
SEIHIN
  6
CONTINUOUS
 62
     3
100
AcDbLine
 10
535.6932811464697
 20
410.1999625608462
 30
0.0
 11
541.1932811464699
 21
410.1999625608462
 31
0.0
  0
LINE
  5
13BF
330
1A
100
AcDbEntity
  8
SEIHIN
  6
CONTINUOUS
 62
     3
100
AcDbLine
 10
535.6932811464697
 20
390.1999625608461
 30
0.0
 11
541.1932811464699
 21
390.1999625608461
 31
0.0
  0
LINE
  5
13C0
330
1A
100
AcDbEntity
  8
SEIHIN
  6
CONTINUOUS
 62
     3
100
AcDbLine
 10
534.0569232107668
 20
375.1999625608462
 30
0.0
 11
540.9468513610955
 21
375.1999625608462
 31
0.0
  0
LINE
  5
13C1
330
1A
100
AcDbEntity
  8
SEIHIN
  6
CONTINUOUS
 62
     3
100
AcDbLine
 10
540.9468513610955
 20
378.1999625608463
 30
0.0
 11
534.0569232107668
 21
378.1999625608463
 31
0.0
  0
LINE
  5
13C2
330
1A
100
AcDbEntity
  8
SEIHIN
  6
CONTINUOUS
 62
     3
100
AcDbLine
 10
540.9468513610955
 20
422.1999625608462
 30
0.0
 11
534.0569232107668
 21
422.1999625608463
 31
0.0
  0
LINE
  5
13C3
330
1A
100
AcDbEntity
  8
SEIHIN
  6
CONTINUOUS
 62
     3
100
AcDbLine
 10
534.0569232107668
 20
425.1999625608463
 30
0.0
 11
540.9468513610955
 21
425.1999625608461
 31
0.0
  0
LINE
  5
13C5
330
1A
100
AcDbEntity
  8
SEIHIN
  6
CONTINUOUS
 62
     3
100
AcDbLine
 10
536.5335546829029
 20
390.1999627843638
 30
0.0
 11
536.5335546829029
 21
410.1999623373289
 31
0.0
  0
LINE
  5
13C6
330
1A
100
AcDbEntity
  8
SEIHIN
  6
CONTINUOUS
 62
     3
100
AcDbLine
 10
533.7932795681282
 20
375.1999621883171
 30
0.0
 11
533.7932811464696
 21
390.1999625608461
 31
0.0
  0
LINE
  5
13C8
330
1A
100
AcDbEntity
  8
SEIHIN
  6
CONTINUOUS
 62
     3
100
AcDbLine
 10
534.0569232107668
 20
378.1999625608463
 30
0.0
 11
534.0569232107668
 21
375.1999625608462
 31
0.0
  0
LINE
  5
13C9
330
1A
100
AcDbEntity
  8
SEIHIN
  6
CONTINUOUS
 62
     3
100
AcDbLine
 10
533.7932811464696
 20
390.1999625608461
 30
0.0
 11
535.6932811464697
 21
390.1999625608461
 31
0.0
  0
LINE
  5
13CA
330
1A
100
AcDbEntity
  8
SEIHIN
  6
CONTINUOUS
 62
     3
100
AcDbLine
 10
533.7932795681282
 20
425.1999629333751
 30
0.0
 11
533.7932811464696
 21
410.1999625608462
 31
0.0
  0
LINE
  5
13CC
330
1A
100
AcDbEntity
  8
SEIHIN
  6
CONTINUOUS
 62
     3
100
AcDbLine
 10
533.7932811464696
 20
410.1999625608462
 30
0.0
 11
535.6932811464697
 21
410.1999625608462
 31
0.0
  0
LINE
  5
13CD
330
1A
100
AcDbEntity
  8
SEIHIN
  6
CONTINUOUS
 62
     3
100
AcDbLine
 10
534.0569232107668
 20
422.1999625608463
 30
0.0
 11
534.0569232107668
 21
425.1999625608463
 31
0.0
  0
LINE
  5
13CF
330
1A
100
AcDbEntity
  8
SEIHIN
  6
CONTINUOUS
 62
     3
100
AcDbLine
 10
541.1932811464699
 20
390.1999625608461
 30
0.0
 11
541.1932811464699
 21
410.1999625608462
 31
0.0
  0
LINE
  5
13D0
330
1A
100
AcDbEntity
  8
SEIHIN
  6
CONTINUOUS
 62
     3
100
AcDbLine
 10
543.1932811464697
 20
408.1999625608463
 30
0.0
 11
543.1932811464697
 21
392.1999625608462
 31
0.0
  0
LINE
  5
13D3
330
1A
100
AcDbEntity
  8
SEIHIN
  6
CONTINUOUS
 62
     3
100
AcDbLine
 10
542.7932811464698
 20
378.1999625608463
 30
0.0
 11
542.7932811464698
 21
375.1999625608462
 31
0.0
  0
LINE
  5
13D5
330
1A
100
AcDbEntity
  8
SEIHIN
  6
CONTINUOUS
 62
     3
100
AcDbLine
 10
540.9468513610955
 20
375.1999625608462
 30
0.0
 11
541.7932811464696
 21
375.1999625608462
 31
0.0
  0
LINE
  5
13D6
330
1A
100
AcDbEntity
  8
SEIHIN
  6
CONTINUOUS
 62
     3
100
AcDbLine
 10
542.7932811464698
 20
375.1999625608462
 30
0.0
 11
541.7932811464696
 21
375.1999625608462
 31
0.0
  0
LINE
  5
13D7
330
1A
100
AcDbEntity
  8
SEIHIN
  6
CONTINUOUS
 62
     3
100
AcDbLine
 10
541.7932811464696
 20
378.1999625608463
 30
0.0
 11
540.9468513610955
 21
378.1999625608463
 31
0.0
  0
LINE
  5
13D8
330
1A
100
AcDbEntity
  8
SEIHIN
  6
CONTINUOUS
 62
     3
100
AcDbLine
 10
541.7932811464696
 20
378.1999625608463
 30
0.0
 11
542.7932811464698
 21
378.1999625608463
 31
0.0
  0
ARC
  5
13D9
330
1A
100
AcDbEntity
  8
SEIHIN
  6
CONTINUOUS
 62
     3
100
AcDbCircle
 10
541.1932811464699
 20
392.1999625608462
 30
0.0
 40
2.0
100
AcDbArc
 50
270.0
 51
0.0
  0
ARC
  5
13DA
330
1A
100
AcDbEntity
  8
SEIHIN
  6
CONTINUOUS
 62
     3
100
AcDbCircle
 10
541.1932811464699
 20
408.1999625608463
 30
0.0
 40
2.0
100
AcDbArc
 50
0.0
 51
90.0
  0
LINE
  5
13DB
330
1A
100
AcDbEntity
  8
SEIHIN
  6
CONTINUOUS
 62
     3
100
AcDbLine
 10
541.7932811464696
 20
422.1999625608462
 30
0.0
 11
540.9468513610955
 21
422.1999625608462
 31
0.0
  0
LINE
  5
13DC
330
1A
100
AcDbEntity
  8
SEIHIN
  6
CONTINUOUS
 62
     3
100
AcDbLine
 10
540.9468513610955
 20
425.1999625608461
 30
0.0
 11
541.7932811464696
 21
425.1999625608461
 31
0.0
  0
LINE
  5
13DE
330
1A
100
AcDbEntity
  8
SEIHIN
  6
CONTINUOUS
 62
     3
100
AcDbLine
 10
541.7932811464696
 20
422.1999625608462
 30
0.0
 11
542.7932811464698
 21
422.1999625608462
 31
0.0
  0
LINE
  5
13DF
330
1A
100
AcDbEntity
  8
SEIHIN
  6
CONTINUOUS
 62
     3
100
AcDbLine
 10
542.7932811464698
 20
422.1999625608462
 30
0.0
 11
542.7932811464698
 21
425.1999625608461
 31
0.0
  0
LINE
  5
13E0
330
1A
100
AcDbEntity
  8
SEIHIN
  6
CONTINUOUS
 62
     3
100
AcDbLine
 10
542.7932811464698
 20
425.1999625608461
 30
0.0
 11
541.7932811464696
 21
425.1999625608461
 31
0.0
  0
LINE
  5
13E2
330
1A
100
AcDbEntity
  8
SEIHIN
  6
CONTINUOUS
 62
     3
100
AcDbLine
 10
529.4651947044204
 20
435.1999625608464
 30
0.0
 11
463.8215244999476
 21
435.1999625608464
 31
0.0
  0
LINE
  5
13E3
330
1A
100
AcDbEntity
  8
SEIHIN
  6
CONTINUOUS
 62
     3
100
AcDbLine
 10
452.1743685859949
 20
435.1999625608464
 30
0.0
 11
429.2946350969598
 21
435.1999625608462
 31
0.0
  0
LINE
  5
13E4
330
1A
100
AcDbEntity
  8
SEIHIN
  6
CONTINUOUS
 62
     3
100
AcDbLine
 10
428.2946350969598
 20
435.1999625608462
 30
0.0
 11
421.8367829994051
 21
435.1999625608462
 31
0.0
  0
LINE
  5
13E5
330
1A
100
AcDbEntity
  8
SEIHIN
  6
CONTINUOUS
 62
     3
100
AcDbLine
 10
414.3729895748422
 20
435.1999627098576
 30
0.0
 11
409.5513463415429
 21
435.1999627098577
 31
0.0
  0
LINE
  5
13E6
330
1A
100
AcDbEntity
  8
SEIHIN
  6
CONTINUOUS
 62
     3
100
AcDbLine
 10
419.646371489021
 20
435.1999625608462
 30
0.0
 11
418.3932264573154
 21
435.1999625608462
 31
0.0
  0
LINE
  5
13E7
330
1A
100
AcDbEntity
  8
SEIHIN
  6
CONTINUOUS
 62
     3
100
AcDbLine
 10
418.3932264573154
 20
435.1999625608462
 30
0.0
 11
414.3729895748422
 21
435.1999627098576
 31
0.0
  0
LINE
  5
13E8
330
1A
100
AcDbEntity
  8
SEIHIN
  6
CONTINUOUS
 62
     3
100
AcDbLine
 10
421.8367829994051
 20
435.1999625608462
 30
0.0
 11
421.6493985734781
 21
435.1999625608462
 31
0.0
  0
LINE
  5
13E9
330
1A
100
AcDbEntity
  8
SEIHIN
  6
CONTINUOUS
 62
     3
100
AcDbLine
 10
420.9849355490896
 20
435.1999625608462
 30
0.0
 11
419.646371489021
 21
435.1999625608462
 31
0.0
  0
LINE
  5
13EA
330
1A
100
AcDbEntity
  8
SEIHIN
  6
CONTINUOUS
 62
     3
100
AcDbLine
 10
421.6493985734781
 20
435.1999625608462
 30
0.0
 11
420.9849355490896
 21
435.1999625608462
 31
0.0
  0
LINE
  5
13EB
330
1A
100
AcDbEntity
  8
SEIHIN
  6
CONTINUOUS
 62
     3
100
AcDbLine
 10
429.2946350969598
 20
435.1999625608462
 30
0.0
 11
428.2946350969598
 21
435.1999625608462
 31
0.0
  0
LINE
  5
13EC
330
1A
100
AcDbEntity
  8
SEIHIN
  6
CONTINUOUS
 62
     3
100
AcDbLine
 10
462.455287804185
 20
435.1999625608464
 30
0.0
 11
459.1463173384839
 21
435.1999625608464
 31
0.0
  0
LINE
  5
13ED
330
1A
100
AcDbEntity
  8
SEIHIN
  6
CONTINUOUS
 62
     3
100
AcDbLine
 10
457.7306209768257
 20
435.1999625608464
 30
0.0
 11
452.6438226192126
 21
435.1999625608464
 31
0.0
  0
LINE
  5
13EE
330
1A
100
AcDbEntity
  8
SEIHIN
  6
CONTINUOUS
 62
     3
100
AcDbLine
 10
452.6438226192126
 20
435.1999625608464
 30
0.0
 11
452.1743685859949
 21
435.1999625608464
 31
0.0
  0
LINE
  5
13EF
330
1A
100
AcDbEntity
  8
SEIHIN
  6
CONTINUOUS
 62
     3
100
AcDbLine
 10
459.1463173384839
 20
435.1999625608464
 30
0.0
 11
457.7306209768257
 21
435.1999625608464
 31
0.0
  0
LINE
  5
13F0
330
1A
100
AcDbEntity
  8
SEIHIN
  6
CONTINUOUS
 62
     3
100
AcDbLine
 10
463.8215244999476
 20
435.1999625608464
 30
0.0
 11
462.455287804185
 21
435.1999625608464
 31
0.0
  0
LINE
  5
13F1
330
1A
100
AcDbEntity
  8
SEIHIN
  6
CONTINUOUS
 62
     3
100
AcDbLine
 10
544.0769879188028
 20
435.1999625608462
 30
0.0
 11
535.6932811464697
 21
435.1999625608462
 31
0.0
  0
LINE
  5
13F2
330
1A
100
AcDbEntity
  8
SEIHIN
  6
CONTINUOUS
 62
     3
100
AcDbLine
 10
535.6932811464697
 20
435.1999625608462
 30
0.0
 11
533.7932811464696
 21
435.1999625608462
 31
0.0
  0
LINE
  5
13F3
330
1A
100
AcDbEntity
  8
SEIHIN
  6
CONTINUOUS
 62
     3
100
AcDbLine
 10
530.910480912147
 20
435.1999625608464
 30
0.0
 11
529.4651947044204
 21
435.1999625608464
 31
0.0
  0
LINE
  5
13F4
330
1A
100
AcDbEntity
  8
SEIHIN
  6
CONTINUOUS
 62
     3
100
AcDbLine
 10
533.7932811464696
 20
435.1999625608462
 30
0.0
 11
530.910480912147
 21
435.1999625608464
 31
0.0
  0
LINE
  5
13F5
330
1A
100
AcDbEntity
  8
SEIHIN
  6
CONTINUOUS
 62
     3
100
AcDbLine
 10
544.0769879188028
 20
435.1999625608462
 30
0.0
 11
546.0766833091156
 21
435.1999625608462
 31
0.0
  0
LINE
  5
1435
330
1A
100
AcDbEntity
  8
SEIHIN
  6
CONTINUOUS
 62
     3
100
AcDbLine
 10
193.9565622311877
 20
282.1361533266074
 30
0.0
 11
193.9565622311877
 21
168.3086693144611
 31
0.0
  0
LINE
  5
1436
330
1A
100
AcDbEntity
  8
SEIHIN
  6
CONTINUOUS
 62
     3
100
AcDbLine
 10
263.9565625292108
 20
282.1361533266074
 30
0.0
 11
263.9565625292108
 21
168.3086693144611
 31
0.0
  0
LINE
  5
143D
330
1A
100
AcDbEntity
  8
SEIHIN
  6
CONTINUOUS
 62
     3
100
AcDbLine
 10
214.2861085052782
 20
167.272760417076
 30
0.0
 11
243.6270162551206
 21
167.272760417076
 31
0.0
  0
LINE
  5
1440
330
1A
100
AcDbEntity
  8
SEIHIN
  6
CONTINUOUS
 62
     3
100
AcDbLine
 10
193.9565623801995
 20
168.0727604170759
 30
0.0
 11
203.634579922051
 21
167.5565994815106
 31
0.0
  0
ARC
  5
1446
330
1A
100
AcDbEntity
  8
SEIHIN
  6
CONTINUOUS
 62
     3
100
AcDbCircle
 10
214.2861085052782
 20
367.2727604170761
 30
0.0
 40
200.0
100
AcDbArc
 50
266.947117485201
 51
270.0
  0
ARC
  5
144C
330
1A
100
AcDbEntity
  8
SEIHIN
  6
CONTINUOUS
 62
     3
100
AcDbCircle
 10
243.6270162551206
 20
367.2727604170761
 30
0.0
 40
200.0
100
AcDbArc
 50
270.0
 51
273.0528825147989
  0
LINE
  5
1452
330
1A
100
AcDbEntity
  8
SEIHIN
  6
CONTINUOUS
 62
     3
100
AcDbLine
 10
254.2785448383479
 20
167.5565994815106
 30
0.0
 11
263.9565623801995
 21
168.0727604170759
 31
0.0
  0
ARC
  5
1D68
330
1A
100
AcDbEntity
  8
SEIHIN
  6
CONTINUOUS
 62
     3
100
AcDbCircle
 10
541.1932811464699
 20
239.772760417076
 30
0.0
 40
2.1
100
AcDbArc
 50
287.7527901619483
 51
342.2472098380408
  0
LINE
  5
2643
330
1A
100
AcDbEntity
  8
CENTER_L
  6
CENTER
 62
     1
 48
5.0
100
AcDbLine
 10
496.6432780534596
 20
162.2727717862841
 30
0.0
 11
496.6432780534596
 21
176.1727720122796
 31
0.0
  0
LINE
  5
2644
330
1A
100
AcDbEntity
  8
CENTER_L
  6
CENTER
 62
     1
 48
5.0
100
AcDbLine
 10
403.7414755768414
 20
400.199962560846
 30
0.0
 11
551.0766833091159
 21
400.199962560846
 31
0.0
  0
LINE
  5
2649
330
1A
100
AcDbEntity
  8
CENTER_L
  6
CENTER
 62
     1
 48
5.0
100
AcDbLine
 10
496.6432780534596
 20
360.1999625608466
 30
0.0
 11
496.6432780534596
 21
440.1999625608466
 31
0.0
  0
LINE
  5
264C
330
1A
100
AcDbEntity
  8
CENTER_L
  6
CENTER
 62
     1
 48
5.0
100
AcDbLine
 10
228.9565623801995
 20
162.272760417076
 30
0.0
 11
228.9565623801995
 21
287.2815044184645
 31
0.0
  0
DIMENSION
  5
264F
330
1A
100
AcDbEntity
  8
SUNPOU
100
AcDbDimension
  2
*D1
 10
585.4341293272599
 20
259.7727512754453
 30
0.0
 11
580.4341293272599
 21
213.522761559217
 31
0.0
 70
    32
  3
STANDARD
100
AcDbAlignedDimension
 13
496.6432780534596
 23
167.2727718429884
 33
0.0
 14
544.0769879188028
 24
259.7727512754453
 34
0.0
 50
90.0
100
AcDbRotatedDimension
1001
ACAD
1000
DSTYLE
1002
{
1070
    41
1040
7.0
1070
    42
1040
6.0
1070
    43
1040
14.0
1070
    44
1040
3.0
1070
    73
1070
     0
1070
    74
1070
     0
1070
    77
1070
     3
1070
   140
1040
6.0
1070
   141
1040
150.0
1070
   147
1040
2.0
1070
   172
1070
     1
1070
   173
1070
     1
1070
   176
1070
   256
1070
   177
1070
   256
1070
   178
1070
   256
1070
   271
1070
     0
1070
   272
1070
     0
1070
   341
1005
6D
1070
     6
1000
OPEN
1070
     7
1000
OPEN
1070
   371
1070
    -1
1070
   372
1070
    -1
1002
}
  0
DIMENSION
  5
265D
330
1A
100
AcDbEntity
  8
SUNPOU
100
AcDbDimension
  2
*D2
 10
373.8558235079293
 20
167.2727718429884
 30
0.0
 11
368.8558235079293
 21
225.3641203774713
 31
0.0
 70
    32
  3
STANDARD
100
AcDbAlignedDimension
 13
408.475278438573
 23
283.455468911954
 33
0.0
 14
496.6432780534596
 24
167.2727718429884
 34
0.0
 50
90.0
100
AcDbRotatedDimension
1001
ACAD
1000
DSTYLE
1002
{
1070
    41
1040
7.0
1070
    42
1040
6.0
1070
    43
1040
14.0
1070
    44
1040
3.0
1070
    73
1070
     0
1070
    74
1070
     0
1070
    77
1070
     3
1070
   140
1040
6.0
1070
   141
1040
150.0
1070
   147
1040
2.0
1070
   172
1070
     1
1070
   173
1070
     1
1070
   176
1070
   256
1070
   177
1070
   256
1070
   178
1070
   256
1070
   271
1070
     0
1070
   272
1070
     0
1070
   341
1005
6D
1070
     6
1000
OPEN
1070
     7
1000
OPEN
1070
   371
1070
    -1
1070
   372
1070
    -1
1002
}
  0
DIMENSION
  5
266A
330
1A
100
AcDbEntity
  8
SUNPOU
100
AcDbDimension
  2
*D3
 10
545.9686888413342
 20
311.1985794005744
 30
0.0
 11
477.2219836399536
 21
316.1985794005744
 31
0.0
 70
    32
  3
STANDARD
100
AcDbAlignedDimension
 13
408.475278438573
 23
283.455468911954
 33
0.0
 14
545.9686888413342
 24
257.8313308766833
 34
0.0
100
AcDbRotatedDimension
1001
ACAD
1000
DSTYLE
1002
{
1070
    41
1040
7.0
1070
    42
1040
6.0
1070
    43
1040
14.0
1070
    44
1040
3.0
1070
    73
1070
     0
1070
    74
1070
     0
1070
    77
1070
     3
1070
   140
1040
6.0
1070
   141
1040
150.0
1070
   147
1040
2.0
1070
   172
1070
     1
1070
   173
1070
     1
1070
   176
1070
   256
1070
   177
1070
   256
1070
   178
1070
   256
1070
   271
1070
     0
1070
   272
1070
     0
1070
   341
1005
6D
1070
     6
1000
OPEN
1070
     7
1000
OPEN
1070
   371
1070
    -1
1070
   372
1070
    -1
1002
}
  0
DIMENSION
  5
2680
330
1A
100
AcDbEntity
  8
SUNPOU
100
AcDbDimension
  2
*D4
 10
377.442843866097
 20
365.1999624118346
 30
0.0
 11
372.442843866097
 21
400.1999625608463
 31
0.0
 70
    32
  3
STANDARD
100
AcDbAlignedDimension
 13
409.5513463415429
 23
435.1999627098577
 33
0.0
 14
409.5513463415429
 24
365.1999624118344
 34
0.0
 50
90.0
100
AcDbRotatedDimension
1001
ACAD
1000
DSTYLE
1002
{
1070
    41
1040
7.0
1070
    42
1040
6.0
1070
    43
1040
14.0
1070
    44
1040
3.0
1070
    73
1070
     0
1070
    74
1070
     0
1070
    77
1070
     3
1070
   140
1040
6.0
1070
   141
1040
150.0
1070
   147
1040
2.0
1070
   172
1070
     1
1070
   173
1070
     1
1070
   176
1070
   256
1070
   177
1070
   256
1070
   178
1070
   256
1070
   271
1070
     0
1070
   272
1070
     0
1070
   341
1005
6D
1070
     6
1000
OPEN
1070
     7
1000
OPEN
1070
   371
1070
    -1
1070
   372
1070
    -1
1002
}
  0
DIMENSION
  5
2726
330
1A
100
AcDbEntity
  8
SUNPOU
100
AcDbDimension
  2
*D5
 10
572.6181601088828
 20
235.2727604170759
 30
0.0
 11
567.6181601088829
 21
247.5227558462608
 31
0.0
 70
    32
  3
STANDARD
100
AcDbAlignedDimension
 13
544.0769879188028
 23
259.7727512754453
 33
0.0
 14
543.7278866202383
 24
235.2727604170759
 34
0.0
 50
90.0
100
AcDbRotatedDimension
1001
ACAD
1000
DSTYLE
1002
{
1070
    41
1040
7.0
1070
    42
1040
6.0
1070
    43
1040
14.0
1070
    44
1040
3.0
1070
    73
1070
     0
1070
    74
1070
     0
1070
    77
1070
     3
1070
   140
1040
6.0
1070
   141
1040
150.0
1070
   147
1040
2.0
1070
   172
1070
     1
1070
   173
1070
     1
1070
   176
1070
   256
1070
   177
1070
   256
1070
   178
1070
   256
1070
   271
1070
     0
1070
   272
1070
     0
1070
   341
1005
6D
1070
     6
1000
OPEN
1070
     7
1000
OPEN
1070
   371
1070
    -1
1070
   372
1070
    -1
1002
}
  0
DIMENSION
  5
273C
330
1A
100
AcDbEntity
  8
SUNPOU
100
AcDbDimension
  2
*D6
 10
389.5146300499549
 20
257.2727589269599
 30
0.0
 11
384.5146300499549
 21
270.3641139194571
 31
0.0
 70
    32
  3
STANDARD
100
AcDbAlignedDimension
 13
402.475278438573
 23
283.455468911954
 33
0.0
 14
414.7244632639215
 24
257.2727589269599
 34
0.0
 50
90.0
100
AcDbRotatedDimension
1001
ACAD
1000
DSTYLE
1002
{
1070
    41
1040
7.0
1070
    42
1040
6.0
1070
    43
1040
14.0
1070
    44
1040
3.0
1070
    73
1070
     0
1070
    74
1070
     0
1070
    77
1070
     3
1070
   140
1040
6.0
1070
   141
1040
150.0
1070
   147
1040
2.0
1070
   172
1070
     1
1070
   173
1070
     1
1070
   176
1070
   256
1070
   177
1070
   256
1070
   178
1070
   256
1070
   271
1070
     0
1070
   272
1070
     0
1070
   341
1005
6D
1070
     6
1000
OPEN
1070
     7
1000
OPEN
1070
   371
1070
    -1
1070
   372
1070
    -1
1002
}
  0
DIMENSION
  5
2755
330
1A
100
AcDbEntity
  8
SUNPOU
100
AcDbDimension
  2
*D7
 10
461.0084621945151
 20
141.4546775963926
 30
0.0
 11
497.0483081884829
 21
146.4546775963926
 31
0.0
 70
    32
  3
STANDARD
100
AcDbAlignedDimension
 13
533.0881541824505
 23
167.8816875460644
 33
0.0
 14
461.0084621945151
 24
167.8875232097084
 34
0.0
100
AcDbRotatedDimension
1001
ACAD
1000
DSTYLE
1002
{
1070
    41
1040
7.0
1070
    42
1040
6.0
1070
    43
1040
14.0
1070
    44
1040
3.0
1070
    73
1070
     0
1070
    74
1070
     0
1070
    77
1070
     3
1070
   140
1040
6.0
1070
   141
1040
150.0
1070
   147
1040
2.0
1070
   172
1070
     1
1070
   173
1070
     1
1070
   176
1070
   256
1070
   177
1070
   256
1070
   178
1070
   256
1070
   271
1070
     0
1070
   272
1070
     0
1070
   341
1005
6D
1070
     6
1000
OPEN
1070
     7
1000
OPEN
1070
   371
1070
    -1
1070
   372
1070
    -1
1002
}
  0
INSERT
  5
27B4
330
1A
100
AcDbEntity
  8
SUNPOU
100
AcDbBlockReference
  2
A$C235C2D49
 10
411.8523132116466
 20
170.2917027698886
 30
0.0
  0
LINE
  5
2A77
330
1A
100
AcDbEntity
  8
SEIHIN
100
AcDbLine
 10
220.9565623801983
 20
282.1361533266074
 30
0.0
 11
236.9565623802004
 21
282.1361533266074
 31
0.0
  0
LINE
  5
2A78
330
1A
100
AcDbEntity
  8
SEIHIN
100
AcDbLine
 10
243.6270162551239
 20
179.272760417076
 30
0.0
 11
214.2861085052795
 21
179.272760417076
 31
0.0
  0
LINE
  5
2A79
330
1A
100
AcDbEntity
  8
SEIHIN
100
AcDbLine
 10
263.9565623802003
 20
282.2604499787696
 30
0.0
 11
254.1098844574618
 21
282.3698572858264
 31
0.0
  0
LINE
  5
2A7B
330
1A
100
AcDbEntity
  8
SEIHIN
100
AcDbLine
 10
263.9565623802003
 20
258.072760417076
 30
0.0
 11
254.2785448383499
 21
257.5565994815107
 31
0.0
  0
LINE
  5
2A7D
330
1A
100
AcDbEntity
  8
SEIHIN
100
AcDbLine
 10
263.9565623801999
 20
180.0727604170758
 30
0.0
 11
254.2785448383547
 21
179.5565994815106
 31
0.0
  0
LINE
  5
2A82
330
1A
100
AcDbEntity
  8
SEIHIN
100
AcDbLine
 10
248.9426033411148
 20
179.3434115612084
 30
0.0
 11
243.6270162551239
 21
179.272760417076
 31
0.0
  0
LINE
  5
2A83
330
1A
100
AcDbEntity
  8
SEIHIN
100
AcDbLine
 10
254.2785448383547
 20
179.5565994815106
 30
0.0
 11
248.9426033411148
 21
179.3434115612084
 31
0.0
  0
LINE
  5
2A86
330
1A
100
AcDbEntity
  8
SEIHIN
100
AcDbLine
 10
250.7299024997206
 20
257.3989276950404
 30
0.0
 11
247.1790196048416
 21
257.3043047241753
 31
0.0
  0
LINE
  5
2A87
330
1A
100
AcDbEntity
  8
SEIHIN
100
AcDbLine
 10
254.2785448383499
 20
257.5565994815105
 30
0.0
 11
250.7299024997206
 21
257.3989276950404
 31
0.0
  0
LINE
  5
2A88
330
1A
100
AcDbEntity
  8
SEIHIN
100
AcDbLine
 10
238.5889511616289
 20
282.3739694294593
 30
0.0
 11
238.150248667079
 21
282.2724789853431
 31
0.0
  0
LINE
  5
2A89
330
1A
100
AcDbEntity
  8
SEIHIN
100
AcDbLine
 10
237.5476374621416
 20
282.1710518129732
 30
0.0
 11
236.9565623802004
 21
282.1361533266074
 31
0.0
  0
LINE
  5
2A8A
330
1A
100
AcDbEntity
  8
SEIHIN
100
AcDbLine
 10
238.150248667079
 20
282.2724789853431
 30
0.0
 11
237.5476374621416
 21
282.1710518129732
 31
0.0
  0
LINE
  5
2A8B
330
1A
100
AcDbEntity
  8
SEIHIN
100
AcDbLine
 10
251.4908292302143
 20
282.3953147995683
 30
0.0
 11
244.7533977972066
 21
282.4273826469232
 31
0.0
  0
LINE
  5
2A8C
330
1A
100
AcDbEntity
  8
SEIHIN
100
AcDbLine
 10
238.8620993941829
 20
282.4266121123453
 30
0.0
 11
238.5889511616289
 21
282.3739694294593
 31
0.0
  0
LINE
  5
2A8D
330
1A
100
AcDbEntity
  8
SEIHIN
100
AcDbLine
 10
238.8787501428485
 20
282.4213362405659
 30
0.0
 11
238.8620993941829
 21
282.4266121123453
 31
0.0
  0
LINE
  5
2A8E
330
1A
100
AcDbEntity
  8
SEIHIN
100
AcDbLine
 10
244.7533977972066
 20
282.4273826469232
 30
0.0
 11
243.6270162551197
 21
282.4280540830596
 31
0.0
  0
LINE
  5
2A8F
330
1A
100
AcDbEntity
  8
SEIHIN
100
AcDbLine
 10
243.6270162551197
 20
282.4280540830596
 30
0.0
 11
238.8787501428485
 21
282.4280540830596
 31
0.0
  0
LINE
  5
2A90
330
1A
100
AcDbEntity
  8
SEIHIN
100
AcDbLine
 10
254.1099559678989
 20
282.3698567166839
 30
0.0
 11
251.4908292302143
 21
282.3953147995683
 31
0.0
  0
LINE
  5
2ADD
330
1A
100
AcDbEntity
  8
SEIHIN
100
AcDbLine
 10
193.9565623801991
 20
180.0727604170758
 30
0.0
 11
203.6345799220443
 21
179.5565994815106
 31
0.0
  0
LINE
  5
2ADE
330
1A
100
AcDbEntity
  8
SEIHIN
100
AcDbLine
 10
208.9705214192842
 20
179.3434115612084
 30
0.0
 11
214.286108505275
 21
179.272760417076
 31
0.0
  0
LINE
  5
2ADF
330
1A
100
AcDbEntity
  8
SEIHIN
100
AcDbLine
 10
203.6345799220443
 20
179.5565994815106
 30
0.0
 11
208.9705214192842
 21
179.3434115612084
 31
0.0
  0
LINE
  5
2AE2
330
1A
100
AcDbEntity
  8
SEIHIN
100
AcDbLine
 10
193.9565623801986
 20
282.2604499787696
 30
0.0
 11
203.8032403029371
 21
282.3698572858264
 31
0.0
  0
LINE
  5
2AE4
330
1A
100
AcDbEntity
  8
SEIHIN
100
AcDbLine
 10
193.9565623801986
 20
258.072760417076
 30
0.0
 11
203.634579922049
 21
257.5565994815107
 31
0.0
  0
LINE
  5
2AE6
330
1A
100
AcDbEntity
  8
SEIHIN
100
AcDbLine
 10
207.1832222606783
 20
257.3989276950404
 30
0.0
 11
210.7341051555574
 21
257.3043047241753
 31
0.0
  0
LINE
  5
2AE8
330
1A
100
AcDbEntity
  8
SEIHIN
100
AcDbLine
 10
203.634579922049
 20
257.5565994815105
 30
0.0
 11
207.1832222606783
 21
257.3989276950404
 31
0.0
  0
LINE
  5
2AE9
330
1A
100
AcDbEntity
  8
SEIHIN
100
AcDbLine
 10
214.2861085052793
 20
282.4280540830596
 30
0.0
 11
219.0343746175505
 21
282.4280540830596
 31
0.0
  0
LINE
  5
2AEA
330
1A
100
AcDbEntity
  8
SEIHIN
100
AcDbLine
 10
219.3241735987701
 20
282.3739694294593
 30
0.0
 11
219.76287609332
 21
282.2724789853431
 31
0.0
  0
LINE
  5
2AEB
330
1A
100
AcDbEntity
  8
SEIHIN
100
AcDbLine
 10
220.3654872982574
 20
282.1710518129732
 30
0.0
 11
220.9565623801986
 21
282.1361533266074
 31
0.0
  0
LINE
  5
2AEC
330
1A
100
AcDbEntity
  8
SEIHIN
100
AcDbLine
 10
219.76287609332
 20
282.2724789853431
 30
0.0
 11
220.3654872982574
 21
282.1710518129732
 31
0.0
  0
LINE
  5
2AED
330
1A
100
AcDbEntity
  8
SEIHIN
100
AcDbLine
 10
219.0510253662162
 20
282.4266121123453
 30
0.0
 11
219.3241735987701
 21
282.3739694294593
 31
0.0
  0
LINE
  5
2AEE
330
1A
100
AcDbEntity
  8
SEIHIN
100
AcDbLine
 10
219.0343746175505
 20
282.4213362405659
 30
0.0
 11
219.0510253662162
 21
282.4266121123453
 31
0.0
  0
LINE
  5
2AEF
330
1A
100
AcDbEntity
  8
SEIHIN
100
AcDbLine
 10
206.4222955301846
 20
282.3953147995683
 30
0.0
 11
213.1597269631924
 21
282.4273826469232
 31
0.0
  0
LINE
  5
2AF0
330
1A
100
AcDbEntity
  8
SEIHIN
100
AcDbLine
 10
213.1597269631924
 20
282.4273826469232
 30
0.0
 11
214.2861085052793
 21
282.4280540830596
 31
0.0
  0
LINE
  5
2AF1
330
1A
100
AcDbEntity
  8
SEIHIN
100
AcDbLine
 10
203.8031687925001
 20
282.3698567166839
 30
0.0
 11
206.4222955301846
 21
282.3953147995683
 31
0.0
  0
LINE
  5
2AF8
330
1A
100
AcDbEntity
  8
SEIHIN
100
AcDbLine
 10
210.7341051555574
 20
257.3043047241753
 30
0.0
 11
247.1790196048416
 21
257.3043047241753
 31
0.0
  0
LINE
  5
2BF4
330
1A
100
AcDbEntity
  8
SEIHIN
  6
CONTINUOUS
 62
     3
100
AcDbLine
 10
426.5778272846104
 20
258.0726946481917
 30
0.0
 11
415.5329774888285
 21
258.0726946481917
 31
0.0
  0
LINE
  5
2BFC
330
1A
100
AcDbEntity
  8
SEIHIN
  6
CONTINUOUS
 62
     3
100
AcDbLine
 10
410.0295643683771
 20
273.7023879102737
 30
0.0
 11
409.7603337702611
 21
278.8396137534391
 31
0.0
  0
LINE
  5
2C01
330
1A
100
AcDbEntity
  8
SEIHIN
  6
CONTINUOUS
 62
     3
100
AcDbLine
 10
415.5329774888285
 20
258.0726946481917
 30
0.0
 11
410.0295643683771
 21
273.7023879102737
 31
0.0
  0
LINE
  5
2C2E
330
1A
100
AcDbEntity
  8
SEIHIN
  6
CONTINUOUS
 62
     3
100
AcDbLine
 10
538.2633721866751
 20
233.4468668516149
 30
0.0
 11
532.8304298043328
 21
171.3480512635495
 31
0.0
  0
ARC
  5
2C2F
330
1A
100
AcDbEntity
  8
SEIHIN
  6
CONTINUOUS
 62
     3
100
AcDbCircle
 10
1391.324493230716
 20
526.2686550197703
 30
0.0
 40
1001.699999999998
100
AcDbArc
 50
195.8754807118701
 51
200.179049756695
  0
ARC
  5
2C35
330
1A
100
AcDbEntity
  8
SEIHIN
  6
CONTINUOUS
 62
     3
100
AcDbCircle
 10
497.0366933059073
 20
1169.772694648192
 30
0.0
 40
1001.7
100
AcDbArc
 50
268.0632669402389
 51
271.8825146026822
  0
LINE
  5
2C3A
330
1A
100
AcDbEntity
  8
SEIHIN
  6
CONTINUOUS
 62
     3
100
AcDbLine
 10
457.1220346838011
 20
180.0726946481917
 30
0.0
 11
452.0474912271994
 21
180.0726946481917
 31
0.0
  0
ARC
  5
2C3C
330
1A
100
AcDbEntity
  8
SEIHIN
  6
CONTINUOUS
 62
     3
100
AcDbCircle
 10
452.0473705295104
 20
181.0717226582259
 30
0.0
 40
0.9990280173251878
100
AcDbArc
 50
200.1721275602498
 51
270.0069221964354
  0
LINE
  5
2C42
330
1A
100
AcDbEntity
  8
SEIHIN
  6
CONTINUOUS
 62
     3
100
AcDbLine
 10
461.364909606612
 20
169.9812227099211
 30
0.0
 11
458.0650781250197
 21
179.4037536232875
 31
0.0
  0
ARC
  5
2C45
330
1A
100
AcDbEntity
  8
SEIHIN
  6
CONTINUOUS
 62
     3
100
AcDbCircle
 10
463.2506077061741
 20
170.6418473404657
 30
0.0
 40
1.998069624706379
100
AcDbArc
 50
199.2940653087399
 51
268.0697870622698
  0
ARC
  5
2C4C
330
1A
100
AcDbEntity
  8
SEIHIN
  6
CONTINUOUS
 62
     3
100
AcDbCircle
 10
457.1221598798833
 20
179.073670185364
 30
0.0
 40
0.9990244706724231
100
AcDbArc
 50
19.29340521912425
 51
90.00718021166397
  0
LWPOLYLINE
  5
2C52
330
1A
100
AcDbEntity
  8
SEIHIN
  6
CONTINUOUS
 62
     3
100
AcDbPolyline
 90
        6
 70
   128
 43
0.0
 10
529.9427054668256
 20
168.6133245358876
 10
530.9291459236531
 20
168.8147800927689
 10
531.7932780721061
 20
169.3314912539345
 10
532.4370774208952
 20
170.1046754694218
 10
532.7886768027277
 20
171.047188164511
 10
532.8304298043323
 20
171.3480512635458
  0
LINE
  5
2C5A
330
1A
100
AcDbEntity
  8
SEIHIN
  6
CONTINUOUS
 62
     3
100
AcDbLine
 10
427.8308736263849
 20
252.2560002358288
 30
0.0
 11
427.5756588731453
 21
257.1257878271235
 31
0.0
  0
LWPOLYLINE
  5
2C5F
330
1A
100
AcDbEntity
  8
SEIHIN
  6
CONTINUOUS
 62
     3
100
AcDbPolyline
 90
        9
 70
   128
 43
0.0
 10
426.5778272846104
 20
258.0726946481917
 10
426.7664164810797
 20
258.0547571773361
 10
426.9481910736693
 20
258.0015877563029
 10
427.1166351201349
 20
257.9150923108414
 10
427.2657105286717
 20
257.7983713805755
 10
427.3900735010173
 20
257.6556089762041
 10
427.4852660877221
 20
257.4919225982986
 10
427.5478759890356
 20
257.3131797939637
 10
427.5756588731453
 20
257.1257878271235
  0
LINE
  5
2C82
330
1A
100
AcDbEntity
  8
SEIHIN
  6
CONTINUOUS
 62
     3
100
AcDbLine
 10
540.2573792382696
 20
235.2726946481917
 30
0.0
 11
543.969944829186
 21
235.2726946481917
 31
0.0
  0
LWPOLYLINE
  5
2C83
330
1A
100
AcDbEntity
  8
SEIHIN
  6
CONTINUOUS
 62
     3
100
AcDbPolyline
 90
        9
 70
   128
 43
0.0
 10
538.2633721866751
 20
233.4468668516149
 10
538.3297039505148
 20
233.8112569390668
 10
538.4621419439123
 20
234.1571779811054
 10
538.6561444390937
 20
234.4727672247246
 10
538.9050584621052
 20
234.7472020925349
 10
539.200347944839
 20
234.9710713239954
 10
539.531886454459
 20
235.1366977180236
 10
539.8883044615821
 20
235.2384014090878
 10
540.2573792382696
 20
235.2726946481917
  0
LINE
  5
2E01
330
1A
100
AcDbEntity
  8
SEIHIN
  6
CONTINUOUS
 62
     3
100
AcDbLine
 10
413.6086018946342
 20
282.1398261565768
 30
0.0
 11
417.0718626505039
 21
281.418313499104
 31
0.0
  0
LINE
  5
2E02
330
1A
100
AcDbEntity
  8
SEIHIN
  6
CONTINUOUS
 62
     3
100
AcDbLine
 10
418.3295229806343
 20
281.5643517775382
 30
0.0
 11
420.8781530415408
 21
282.752797492743
 31
0.0
  0
LWPOLYLINE
  5
2E03
330
1A
100
AcDbEntity
  8
SEIHIN
  6
CONTINUOUS
 62
     3
100
AcDbPolyline
 90
        4
 70
   128
 43
0.0
 10
417.0718626505039
 20
281.418313499104
 10
417.4982093637748
 20
281.3762448803375
 10
417.9239193226708
 20
281.4256779013368
 10
418.3295229806343
 20
281.5643517775382
  0
ARC
  5
2E04
330
1A
100
AcDbEntity
  8
SEIHIN
  6
CONTINUOUS
 62
     3
100
AcDbCircle
 10
412.9559482814759
 20
279.0070888134166
 30
0.0
 40
3.2
100
AcDbArc
 50
78.23171106797841
 51
182.9999999999999
  0
LWPOLYLINE
  5
3123
330
1A
100
AcDbEntity
  8
ZUWAKU
100
AcDbPolyline
 90
        4
 70
     1
 43
0.0
 10
0.8000004691136837
 20
550.7999997642577
 10
0.8000004691136837
 20
0.7999997642576773
 10
796.8000004691137
 20
0.7999997642576773
 10
796.8000004691137
 20
550.7999997642577
  0
LWPOLYLINE
  5
3124
330
1A
100
AcDbEntity
  8
ZUWAKU
100
AcDbPolyline
 90
        4
 70
     1
 43
0.0
 10
0.4000004691137065
 20
551.1999997642576
 10
0.4000004691137065
 20
0.3999997642577
 10
797.2000004691137
 20
0.3999997642576769
 10
797.2000004691137
 20
551.1999997642576
  0
LWPOLYLINE
  5
3125
330
1A
100
AcDbEntity
  8
ZUWAKU
100
AcDbPolyline
 90
        4
 70
     1
 43
0.0
 10
0.0000004691137292
 20
551.5999997642576
 10
0.0000004691137292
 20
-0.0000002357423909
 10
797.6000004691139
 20
-0.0000002357423234
 10
797.6000004691139
 20
551.5999997642577
  0
LWPOLYLINE
  5
3126
330
1A
100
AcDbEntity
  8
ZUWAKU
100
AcDbPolyline
 90
        4
 70
     1
 43
0.0
 10
0.6000004691136383
 20
550.9999997642577
 10
0.6000004691136383
 20
0.5999997642576318
 10
797.0000004691139
 20
0.599999764257678
 10
797.0000004691137
 20
550.9999997642577
  0
LWPOLYLINE
  5
3127
330
1A
100
AcDbEntity
  8
ZUWAKU
100
AcDbPolyline
 90
        4
 70
     1
 43
0.0
 10
0.200000469113661
 20
551.3999997642577
 10
0.200000469113661
 20
0.1999997642576545
 10
797.4000004691135
 20
0.1999997642576776
 10
797.4000004691138
 20
551.3999997642577
  0
LINE
  5
3128
330
1A
100
AcDbEntity
  8
ZUWAKU
100
AcDbLine
 10
208.6466017591817
 20
15.19999976425764
 30
0.0
 11
447.4243644401051
 21
15.19999976425764
 31
0.0
  0
LINE
  5
3129
330
1A
100
AcDbEntity
  8
ZUWAKU
100
AcDbLine
 10
208.6466017591817
 20
15.59999976425764
 30
0.0
 11
447.4243644401051
 21
15.59999976425765
 31
0.0
  0
LINE
  5
312A
330
1A
100
AcDbEntity
  8
ZUWAKU
100
AcDbLine
 10
208.6466017591817
 20
15.39999976425764
 30
0.0
 11
447.4243644401051
 21
15.39999976425764
 31
0.0
  0
TEXT
  5
312B
330
1A
100
AcDbEntity
  8
MOJI
100
AcDbText
 10
239.8272031499648
 20
3.20492082166503
 30
0.0
 40
5.599999999999999
  1
ＶＭ１２０
 41
0.9
  7
ｽﾀｲﾙ1
100
AcDbText
  0
LINE
  5
312C
330
1A
100
AcDbEntity
  8
ZUWAKU
100
AcDbLine
 10
0.0000004691137292
 20
29.9999997642576
 30
0.0
 11
797.4000004691135
 21
29.9999997642576
 31
0.0
  0
LINE
  5
312D
330
1A
100
AcDbEntity
  8
ZUWAKU
100
AcDbLine
 10
0.0000004691137292
 20
30.19999976425761
 30
0.0
 11
797.4000004691135
 21
30.19999976425761
 31
0.0
  0
LINE
  5
312E
330
1A
100
AcDbEntity
  8
ZUWAKU
100
AcDbLine
 10
0.0000004691137292
 20
30.39999976425761
 30
0.0
 11
797.4000004691135
 21
30.39999976425761
 31
0.0
  0
LINE
  5
312F
330
1A
100
AcDbEntity
  8
ZUWAKU
100
AcDbLine
 10
0.0000004691137292
 20
30.59999976425761
 30
0.0
 11
797.4000004691135
 21
30.59999976425761
 31
0.0
  0
LINE
  5
3130
330
1A
100
AcDbEntity
  8
ZUWAKU
100
AcDbLine
 10
0.0000004691137292
 20
30.79999976425762
 30
0.0
 11
797.4000004691135
 21
30.79999976425762
 31
0.0
  0
ARC
  5
3131
330
1A
100
AcDbEntity
  8
ZUWAKU
100
AcDbCircle
 10
48.74221262389482
 20
11.76520178961291
 30
0.0
 40
4.199999999999999
100
AcDbArc
 50
0.0
 51
45.0
  0
ARC
  5
3132
330
1A
100
AcDbEntity
  8
ZUWAKU
100
AcDbCircle
 10
50.14221262389492
 20
9.949999764257611
 30
0.0
 40
2.799999999999999
100
AcDbArc
 50
270.0
 51
0.0
  0
HATCH
  5
3133
330
1A
100
AcDbEntity
  8
ZUWAKU
100
AcDbHatch
 10
0.0
 20
0.0
 30
0.0
210
0.0
220
0.0
230
1.0
  2
ANSI37
 70
     0
 71
     0
 91
        8
 92
        7
 72
     1
 73
     1
 93
       24
 10
14.50226313023358
 20
17.64484824524119
 42
-0.1989123673796348
 10
14.09221262389485
 20
18.63479773890224
 42
0.0
 10
14.09221262389485
 20
19.92499976425762
 42
-0.4142135623730912
 10
14.61721262389483
 20
20.44999976425761
 42
0.0
 10
17.59221262389473
 20
20.44999976425761
 42
0.4142135623731546
 10
18.11721262389482
 20
20.9749997642576
 42
0.0
 10
18.11721262389482
 20
22.72499976425761
 42
0.4142135623731586
 10
17.59221262389473
 20
23.24999976425761
 42
0.0
 10
14.09221262389485
 20
23.24999976425761
 42
0.4142135623730928
 10
11.29221262389489
 20
20.44999976425764
 42
0.0
 10
11.29221262389489
 20
18.63479773890237
 42
0.1989123673796619
 10
12.52236414291132
 20
15.66494925791876
 42
0.0
 10
15.432162117556
 20
12.7551512832741
 42
-0.1989123673796613
 10
15.84221262389485
 20
11.76520178961292
 42
0.0
 10
15.84221262389485
 20
10.4749997642576
 42
-0.4142135623730911
 10
15.31721262389487
 20
9.949999764257611
 42
0.0
 10
12.34221262389496
 20
9.949999764257611
 42
0.4142135623731526
 10
11.81721262389487
 20
9.424999764257623
 42
0.0
 10
11.81721262389487
 20
7.674999764257602
 42
0.4142135623731526
 10
12.34221262389496
 20
7.149999764257614
 42
0.0
 10
15.84221262389485
 20
7.149999764257614
 42
0.4142135623731044
 10
18.64221262389492
 20
9.94999976425759
 42
0.0
 10
18.64221262389492
 20
11.76520178961286
 42
0.1989123673796604
 10
17.41206110487837
 20
14.7350502705964
 42
0.0
 97
        0
 92
        7
 72
     1
 73
     1
 93
       16
 10
23.5422126238949
 20
19.04999976425762
 42
-0.4142135623730935
 10
24.94221262389487
 20
20.44999976425761
 42
0.0
 10
26.86721262389482
 20
20.44999976425761
 42
0.4142135623731546
 10
27.39221262389492
 20
20.9749997642576
 42
0.0
 10
27.39221262389492
 20
22.72499976425761
 42
0.4142135623730951
 10
26.86721262389494
 20
23.24999976425761
 42
0.0
 10
24.94221262389476
 20
23.24999976425757
 42
0.4142135623730892
 10
20.74221262389483
 20
19.04999976425754
 42
0.0
 10
20.74221262389483
 20
11.34999976425763
 42
0.4142135623730969
 10
24.94221262389487
 20
7.149999764257614
 42
0.0
 10
26.86721262389482
 20
7.149999764257614
 42
0.4142135623731526
 10
27.39221262389492
 20
7.674999764257602
 42
0.0
 10
27.39221262389492
 20
9.424999764257623
 42
0.4142135623730891
 10
26.86721262389494
 20
9.949999764257611
 42
0.0
 10
24.94221262389487
 20
9.949999764257611
 42
-0.4142135623730928
 10
23.5422126238949
 20
11.3499997642576
 42
0.0
 97
        0
 92
        7
 72
     1
 73
     1
 93
        2
 10
24.24221262389483
 20
15.19999976425761
 42
1.0
 10
27.74221262389483
 20
15.19999976425761
 42
1.0
 97
        0
 92
        7
 72
     1
 73
     1
 93
       26
 10
37.31485910607284
 20
19.20504695782104
 42
0.0
 10
38.37649873921066
 20
22.56690579609063
 42
0.5069206636600134
 10
37.8758678400153
 20
23.24999976425761
 42
0.0
 10
36.17697846040607
 20
23.24999976425761
 42
0.3272098845218764
 10
35.67634756121071
 20
22.88309373242458
 42
0.0
 10
33.80807768657894
 20
16.96690579609069
 42
-0.3272098845219541
 10
33.30744678738347
 20
16.59999976425761
 42
0.0
 10
33.16721262389501
 20
16.59999976425761
 42
-0.4142135623731526
 10
32.64221262389492
 20
17.1249997642576
 42
0.0
 10
32.64221262389492
 20
22.72499976425761
 42
0.4142135623730951
 10
32.11721262389494
 20
23.24999976425761
 42
0.0
 10
30.36721262389483
 20
23.24999976425761
 42
0.4142135623730871
 10
29.84221262389485
 20
22.72499976425763
 42
0.0
 10
29.84221262389485
 20
7.674999764257602
 42
0.4142135623730891
 10
30.36721262389483
 20
7.149999764257614
 42
0.0
 10
32.11721262389483
 20
7.149999764257614
 42
0.4142135623731526
 10
32.64221262389492
 20
7.674999764257602
 42
0.0
 10
32.64221262389492
 20
13.27499976425762
 42
-0.4142135623731526
 10
33.16721262389501
 20
13.79999976425761
 42
0.0
 10
33.30744678738358
 20
13.79999976425761
 42
-0.3272098845218915
 10
33.80807768657894
 20
13.43309373242453
 42
0.0
 10
35.67634756121071
 20
7.516905796090686
 42
0.3272098845218902
 10
36.17697846040607
 20
7.149999764257614
 42
0.0
 10
37.8758678400153
 20
7.149999764257614
 42
0.5069206636600335
 10
38.37649873921066
 20
7.833093732424622
 42
0.0
 10
36.050107360737
 20
15.19999976425775
 42
0.0
 97
        0
 92
        7
 72
     1
 73
     1
 93
        8
 10
43.49221262389483
 20
22.72499976425762
 42
0.4142135623731546
 10
42.96721262389474
 20
23.24999976425761
 42
0.0
 10
41.21721262389496
 20
23.24999976425761
 42
0.4142135623731507
 10
40.69221262389487
 20
22.72499976425763
 42
0.0
 10
40.69221262389487
 20
7.674999764257602
 42
0.4142135623731526
 10
41.21721262389496
 20
7.149999764257614
 42
0.0
 10
42.96721262389474
 20
7.149999764257614
 42
0.4142135623731526
 10
43.49221262389483
 20
7.674999764257602
 42
0.0
 97
        0
 92
        7
 72
     1
 73
     1
 93
       24
 10
48.39221262389492
 20
19.92499976425762
 42
-0.4142135623731546
 10
48.91721262389501
 20
20.44999976425761
 42
0.0
 10
51.89221262389492
 20
20.44999976425761
 42
0.4142135623730911
 10
52.41721262389489
 20
20.9749997642576
 42
0.0
 10
52.41721262389489
 20
22.72499976425761
 42
0.4142135623730952
 10
51.89221262389492
 20
23.24999976425761
 42
0.0
 10
48.39221262389492
 20
23.24999976425761
 42
0.4142135623731048
 10
45.59221262389485
 20
20.44999976425764
 42
0.0
 10
45.59221262389485
 20
18.63479773890237
 42
0.1989123673796613
 10
46.82236414291139
 20
15.66494925791882
 42
0.0
 10
49.73216211755607
 20
12.75515128327415
 42
-0.1989123673796402
 10
50.14221262389492
 20
11.76520178961308
 42
0.0
 10
50.14221262389492
 20
10.4749997642576
 42
-0.4142135623730911
 10
49.61721262389494
 20
9.949999764257611
 42
0.0
 10
46.64221262389491
 20
9.949999764257611
 42
0.4142135623731526
 10
46.11721262389482
 20
9.424999764257623
 42
0.0
 10
46.11721262389482
 20
7.674999764257602
 42
0.4142135623730891
 10
46.64221262389481
 20
7.149999764257614
 42
0.0
 10
50.14221262389492
 20
7.149999764257614
 42
0.4142135623730925
 10
52.94221262389488
 20
9.94999976425759
 42
0.0
 10
52.94221262389488
 20
11.76520178961286
 42
0.1989123673796675
 10
51.71206110487833
 20
14.73505027059651
 42
0.0
 10
48.80226313023377
 20
17.64484824524103
 42
-0.1989123673796652
 10
48.39221262389492
 20
18.6347977389022
 42
0.0
 97
        0
 92
        7
 72
     1
 73
     1
 93
       16
 10
57.84221262389485
 20
22.7249997642576
 42
0.414213562373103
 10
57.31721262389488
 20
23.24999976425761
 42
0.0
 10
55.56721262389487
 20
23.24999976425761
 42
0.4142135623730871
 10
55.04221262389489
 20
22.72499976425763
 42
0.0
 10
55.04221262389489
 20
9.94999976425759
 42
0.4142135623730926
 10
57.84221262389485
 20
7.149999764257614
 42
0.0
 10
61.34221262389485
 20
7.149999764257614
 42
0.4142135623731044
 10
64.14221262389492
 20
9.94999976425759
 42
0.0
 10
64.14221262389492
 20
22.72499976425761
 42
0.4142135623730951
 10
63.61721262389494
 20
23.24999976425761
 42
0.0
 10
61.86721262389482
 20
23.24999976425761
 42
0.4142135623730871
 10
61.34221262389485
 20
22.72499976425763
 42
0.0
 10
61.34221262389485
 20
10.99999976425758
 42
-0.414213562373088
 10
60.2922126238949
 20
9.949999764257611
 42
0.0
 10
58.89221262389492
 20
9.949999764257611
 42
-0.4142135623731197
 10
57.84221262389485
 20
10.99999976425758
 42
0.0
 97
        0
 92
        7
 72
     1
 73
     1
 93
        8
 10
69.0422126238949
 20
22.72499976425763
 42
0.4142135623730871
 10
68.51721262389492
 20
23.24999976425761
 42
0.0
 10
66.76721262389492
 20
23.24999976425761
 42
0.4142135623731507
 10
66.24221262389482
 20
22.72499976425763
 42
0.0
 10
66.24221262389482
 20
7.674999764257602
 42
0.4142135623730891
 10
66.76721262389481
 20
7.149999764257614
 42
0.0
 10
68.51721262389492
 20
7.149999764257614
 42
0.4142135623730891
 10
69.0422126238949
 20
7.674999764257602
 42
0.0
 97
        0
 75
     0
 76
     1
 52
0.0
 41
0.2
 77
     0
 78
     2
 53
45.0
 43
-900.9423038655652
 44
-13.20000023574232
 45
-0.4490128060534576
 46
0.4490128060534577
 79
     0
 53
135.0
 43
-900.9423038655652
 44
-13.20000023574232
 45
-0.4490128060534577
 46
-0.4490128060534576
 79
     0
 47
0.057451373970553
 98
        8
 10
16.07985543213703
 20
15.16717341014316
 10
22.40451547555289
 20
18.84406194670862
 10
25.16436835477338
 20
15.51188141032833
 10
30.91406045075086
 20
16.20129741069911
 10
41.83847248807047
 20
16.66090967824072
 10
46.89820136424327
 20
19.41857608066482
 10
56.55768644151407
 20
18.72915767935262
 10
67.82708008873647
 20
19.18876994689424
  0
LINE
  5
3134
330
1A
100
AcDbEntity
  8
ZUWAKU
100
AcDbLine
 10
35.67634756121071
 20
22.88309373242458
 30
0.0
 11
33.80807768657894
 21
16.96690579609064
 31
0.0
  0
LINE
  5
3135
330
1A
100
AcDbEntity
  8
ZUWAKU
100
AcDbLine
 10
32.64221262389492
 20
17.12499976425761
 30
0.0
 11
32.64221262389492
 21
22.7249997642576
 31
0.0
  0
LINE
  5
3136
330
1A
100
AcDbEntity
  8
ZUWAKU
100
AcDbLine
 10
29.84221262389485
 20
22.7249997642576
 30
0.0
 11
29.84221262389485
 21
7.674999764257613
 31
0.0
  0
LINE
  5
3137
330
1A
100
AcDbEntity
  8
ZUWAKU
100
AcDbLine
 10
20.74221262389483
 20
11.34999976425761
 30
0.0
 11
20.74221262389483
 21
19.04999976425757
 31
0.0
  0
LINE
  5
3138
330
1A
100
AcDbEntity
  8
ZUWAKU
100
AcDbLine
 10
23.5422126238949
 20
19.04999976425761
 30
0.0
 11
23.5422126238949
 21
11.34999976425761
 31
0.0
  0
LINE
  5
3139
330
1A
100
AcDbEntity
  8
ZUWAKU
100
AcDbLine
 10
43.49221262389483
 20
7.674999764257613
 30
0.0
 11
43.49221262389483
 21
22.7249997642576
 31
0.0
  0
LINE
  5
313A
330
1A
100
AcDbEntity
  8
ZUWAKU
100
AcDbLine
 10
40.69221262389487
 20
22.7249997642576
 30
0.0
 11
40.69221262389487
 21
7.674999764257613
 31
0.0
  0
LINE
  5
313B
330
1A
100
AcDbEntity
  8
ZUWAKU
100
AcDbLine
 10
37.31485910607284
 20
19.20504695782104
 30
0.0
 11
36.050107360737
 21
15.19999976425763
 31
0.0
  0
ARC
  5
313C
330
1A
100
AcDbEntity
  8
ZUWAKU
100
AcDbCircle
 10
49.7922126238949
 20
18.63479773890231
 30
0.0
 40
4.199999999999999
100
AcDbArc
 50
180.0
 51
225.0
  0
ARC
  5
313D
330
1A
100
AcDbEntity
  8
ZUWAKU
100
AcDbCircle
 10
49.7922126238949
 20
18.63479773890231
 30
0.0
 40
1.399999999999999
100
AcDbArc
 50
180.0000000000016
 51
224.9999999999988
  0
ARC
  5
313E
330
1A
100
AcDbEntity
  8
ZUWAKU
100
AcDbCircle
 10
15.49221262389482
 20
18.63479773890231
 30
0.0
 40
1.399999999999999
100
AcDbArc
 50
180.0000000000016
 51
224.9999999999988
  0
ARC
  5
313F
330
1A
100
AcDbEntity
  8
ZUWAKU
100
AcDbCircle
 10
15.49221262389482
 20
18.63479773890231
 30
0.0
 40
4.199999999999999
100
AcDbArc
 50
180.0
 51
225.0
  0
ARC
  5
3140
330
1A
100
AcDbEntity
  8
ZUWAKU
100
AcDbCircle
 10
24.94221262389487
 20
11.34999976425761
 30
0.0
 40
4.199999999999999
100
AcDbArc
 50
180.0
 51
270.0
  0
ARC
  5
3141
330
1A
100
AcDbEntity
  8
ZUWAKU
100
AcDbCircle
 10
15.84221262389485
 20
9.949999764257611
 30
0.0
 40
2.799999999999999
100
AcDbArc
 50
270.0
 51
0.0
  0
ARC
  5
3142
330
1A
100
AcDbEntity
  8
ZUWAKU
100
AcDbCircle
 10
14.44221262389487
 20
11.76520178961291
 30
0.0
 40
4.199999999999999
100
AcDbArc
 50
0.0
 51
45.0
  0
ARC
  5
3143
330
1A
100
AcDbEntity
  8
ZUWAKU
100
AcDbCircle
 10
14.44221262389487
 20
11.76520178961296
 30
0.0
 40
1.399999999999999
100
AcDbArc
 50
0.0
 51
45.0
  0
LINE
  5
3144
330
1A
100
AcDbEntity
  8
ZUWAKU
100
AcDbLine
 10
15.84221262389485
 20
10.47499976425761
 30
0.0
 11
15.84221262389485
 21
11.76520178961296
 31
0.0
  0
LINE
  5
3145
330
1A
100
AcDbEntity
  8
ZUWAKU
100
AcDbLine
 10
18.64221262389492
 20
9.949999764257611
 30
0.0
 11
18.64221262389492
 21
11.76520178961296
 31
0.0
  0
LINE
  5
3146
330
1A
100
AcDbEntity
  8
ZUWAKU
100
AcDbLine
 10
12.34221262389485
 20
9.949999764257611
 30
0.0
 11
15.31721262389487
 21
9.949999764257611
 31
0.0
  0
ARC
  5
3147
330
1A
100
AcDbEntity
  8
ZUWAKU
100
AcDbCircle
 10
12.34221262389485
 20
9.424999764257613
 30
0.0
 40
0.525
100
AcDbArc
 50
90.0
 51
180.0
  0
ARC
  5
3148
330
1A
100
AcDbEntity
  8
ZUWAKU
100
AcDbCircle
 10
12.34221262389485
 20
7.674999764257613
 30
0.0
 40
0.525
100
AcDbArc
 50
180.0
 51
270.0
  0
LINE
  5
3149
330
1A
100
AcDbEntity
  8
ZUWAKU
100
AcDbLine
 10
11.81721262389487
 20
7.674999764257613
 30
0.0
 11
11.81721262389487
 21
9.424999764257613
 31
0.0
  0
LINE
  5
314A
330
1A
100
AcDbEntity
  8
ZUWAKU
100
AcDbLine
 10
12.52236414291132
 20
15.66494925791879
 30
0.0
 11
15.432162117556
 21
12.75515128327413
 31
0.0
  0
LINE
  5
314B
330
1A
100
AcDbEntity
  8
ZUWAKU
100
AcDbLine
 10
12.34221262389485
 20
7.149999764257614
 30
0.0
 11
15.84221262389485
 21
7.149999764257614
 31
0.0
  0
ARC
  5
314C
330
1A
100
AcDbEntity
  8
ZUWAKU
100
AcDbCircle
 10
15.31721262389487
 20
10.47499976425761
 30
0.0
 40
0.525
100
AcDbArc
 50
270.0
 51
0.0
  0
LINE
  5
314D
330
1A
100
AcDbEntity
  8
ZUWAKU
100
AcDbLine
 10
17.41206110487837
 20
14.73505027059643
 30
0.0
 11
14.5022631302337
 21
17.64484824524111
 31
0.0
  0
LINE
  5
314E
330
1A
100
AcDbEntity
  8
ZUWAKU
100
AcDbLine
 10
38.37649873921066
 20
7.833093732424586
 30
0.0
 11
36.050107360737
 21
15.19999976425763
 31
0.0
  0
LINE
  5
314F
330
1A
100
AcDbEntity
  8
ZUWAKU
100
AcDbLine
 10
36.17697846040619
 20
7.149999764257614
 30
0.0
 11
37.87586784001518
 21
7.149999764257614
 31
0.0
  0
LINE
  5
3150
330
1A
100
AcDbEntity
  8
ZUWAKU
100
AcDbLine
 10
35.67634756121071
 20
7.51690579609064
 30
0.0
 11
33.80807768657894
 21
13.43309373242458
 31
0.0
  0
ARC
  5
3151
330
1A
100
AcDbEntity
  8
ZUWAKU
100
AcDbCircle
 10
36.17697846040619
 20
7.674999764257613
 30
0.0
 40
0.525
100
AcDbArc
 50
197.525568373723
 51
270.0
  0
ARC
  5
3152
330
1A
100
AcDbEntity
  8
ZUWAKU
100
AcDbCircle
 10
33.16721262389489
 20
13.27499976425761
 30
0.0
 40
0.525
100
AcDbArc
 50
90.0
 51
180.0
  0
ARC
  5
3153
330
1A
100
AcDbEntity
  8
ZUWAKU
100
AcDbCircle
 10
33.30744678738358
 20
13.27499976425761
 30
0.0
 40
0.525
100
AcDbArc
 50
17.52556837372303
 51
90.0
  0
LINE
  5
3154
330
1A
100
AcDbEntity
  8
ZUWAKU
100
AcDbLine
 10
32.64221262389492
 20
7.674999764257613
 30
0.0
 11
32.64221262389492
 21
13.27499976425761
 31
0.0
  0
ARC
  5
3155
330
1A
100
AcDbEntity
  8
ZUWAKU
100
AcDbCircle
 10
32.11721262389483
 20
7.674999764257613
 30
0.0
 40
0.525
100
AcDbArc
 50
270.0
 51
0.0
  0
LINE
  5
3156
330
1A
100
AcDbEntity
  8
ZUWAKU
100
AcDbLine
 10
33.16721262389489
 20
13.79999976425761
 30
0.0
 11
33.30744678738358
 21
13.79999976425761
 31
0.0
  0
LINE
  5
3157
330
1A
100
AcDbEntity
  8
ZUWAKU
100
AcDbLine
 10
33.30744678738358
 20
16.59999976425761
 30
0.0
 11
33.16721262389489
 21
16.59999976425761
 31
0.0
  0
CIRCLE
  5
3158
330
1A
100
AcDbEntity
  8
ZUWAKU
100
AcDbCircle
 10
25.99221262389483
 20
15.19999976425761
 30
0.0
 40
1.75
  0
ARC
  5
3159
330
1A
100
AcDbEntity
  8
ZUWAKU
100
AcDbCircle
 10
24.94221262389487
 20
11.34999976425761
 30
0.0
 40
1.399999999999999
100
AcDbArc
 50
180.0
 51
270.0
  0
ARC
  5
315A
330
1A
100
AcDbEntity
  8
ZUWAKU
100
AcDbCircle
 10
30.36721262389483
 20
7.674999764257613
 30
0.0
 40
0.525
100
AcDbArc
 50
180.0
 51
270.0
  0
ARC
  5
315B
330
1A
100
AcDbEntity
  8
ZUWAKU
100
AcDbCircle
 10
26.86721262389482
 20
9.424999764257613
 30
0.0
 40
0.525
100
AcDbArc
 50
0.0
 51
90.0
  0
ARC
  5
315C
330
1A
100
AcDbEntity
  8
ZUWAKU
100
AcDbCircle
 10
26.86721262389482
 20
7.674999764257613
 30
0.0
 40
0.525
100
AcDbArc
 50
270.0
 51
0.0
  0
LINE
  5
315D
330
1A
100
AcDbEntity
  8
ZUWAKU
100
AcDbLine
 10
26.86721262389482
 20
7.149999764257614
 30
0.0
 11
24.94221262389487
 21
7.149999764257614
 31
0.0
  0
LINE
  5
315E
330
1A
100
AcDbEntity
  8
ZUWAKU
100
AcDbLine
 10
27.39221262389492
 20
9.424999764257613
 30
0.0
 11
27.39221262389492
 21
7.674999764257613
 31
0.0
  0
LINE
  5
315F
330
1A
100
AcDbEntity
  8
ZUWAKU
100
AcDbLine
 10
24.94221262389487
 20
9.949999764257611
 30
0.0
 11
26.86721262389482
 21
9.949999764257611
 31
0.0
  0
LINE
  5
3160
330
1A
100
AcDbEntity
  8
ZUWAKU
100
AcDbLine
 10
30.36721262389483
 20
7.149999764257614
 30
0.0
 11
32.11721262389483
 21
7.149999764257614
 31
0.0
  0
ARC
  5
3161
330
1A
100
AcDbEntity
  8
ZUWAKU
100
AcDbCircle
 10
33.16721262389489
 20
17.12499976425761
 30
0.0
 40
0.525
100
AcDbArc
 50
180.0
 51
270.0
  0
ARC
  5
3162
330
1A
100
AcDbEntity
  8
ZUWAKU
100
AcDbCircle
 10
33.30744678738358
 20
17.12499976425761
 30
0.0
 40
0.525
100
AcDbArc
 50
270.0
 51
342.4744316262769
  0
ARC
  5
3163
330
1A
100
AcDbEntity
  8
ZUWAKU
100
AcDbCircle
 10
49.61721262389483
 20
10.47499976425761
 30
0.0
 40
0.525
100
AcDbArc
 50
270.0
 51
0.0
  0
ARC
  5
3164
330
1A
100
AcDbEntity
  8
ZUWAKU
100
AcDbCircle
 10
48.74221262389482
 20
11.76520178961296
 30
0.0
 40
1.399999999999999
100
AcDbArc
 50
0.0
 51
45.0
  0
LINE
  5
3165
330
1A
100
AcDbEntity
  8
ZUWAKU
100
AcDbLine
 10
50.14221262389492
 20
10.47499976425761
 30
0.0
 11
50.14221262389492
 21
11.76520178961296
 31
0.0
  0
LINE
  5
3166
330
1A
100
AcDbEntity
  8
ZUWAKU
100
AcDbLine
 10
52.94221262389488
 20
9.949999764257611
 30
0.0
 11
52.94221262389488
 21
11.76520178961296
 31
0.0
  0
LINE
  5
3167
330
1A
100
AcDbEntity
  8
ZUWAKU
100
AcDbLine
 10
51.71206110487844
 20
14.73505027059643
 30
0.0
 11
48.80226313023365
 21
17.64484824524111
 31
0.0
  0
LINE
  5
3168
330
1A
100
AcDbEntity
  8
ZUWAKU
100
AcDbLine
 10
41.21721262389485
 20
7.149999764257614
 30
0.0
 11
42.96721262389485
 21
7.149999764257614
 31
0.0
  0
ARC
  5
3169
330
1A
100
AcDbEntity
  8
ZUWAKU
100
AcDbCircle
 10
37.87586784001518
 20
7.674999764257613
 30
0.0
 40
0.525
100
AcDbArc
 50
270.0
 51
17.52556837372303
  0
ARC
  5
316A
330
1A
100
AcDbEntity
  8
ZUWAKU
100
AcDbCircle
 10
41.21721262389485
 20
7.674999764257613
 30
0.0
 40
0.525
100
AcDbArc
 50
180.0
 51
270.0
  0
ARC
  5
316B
330
1A
100
AcDbEntity
  8
ZUWAKU
100
AcDbCircle
 10
46.64221262389491
 20
9.424999764257613
 30
0.0
 40
0.525
100
AcDbArc
 50
90.0
 51
180.0
  0
ARC
  5
316C
330
1A
100
AcDbEntity
  8
ZUWAKU
100
AcDbCircle
 10
42.96721262389485
 20
7.674999764257613
 30
0.0
 40
0.525
100
AcDbArc
 50
270.0
 51
0.0
  0
ARC
  5
316D
330
1A
100
AcDbEntity
  8
ZUWAKU
100
AcDbCircle
 10
46.64221262389491
 20
7.674999764257613
 30
0.0
 40
0.525
100
AcDbArc
 50
180.0
 51
270.0
  0
LINE
  5
316E
330
1A
100
AcDbEntity
  8
ZUWAKU
100
AcDbLine
 10
46.11721262389482
 20
7.674999764257613
 30
0.0
 11
46.11721262389482
 21
9.424999764257613
 31
0.0
  0
LINE
  5
316F
330
1A
100
AcDbEntity
  8
ZUWAKU
100
AcDbLine
 10
46.82236414291139
 20
15.66494925791879
 30
0.0
 11
49.73216211755607
 21
12.75515128327413
 31
0.0
  0
LINE
  5
3170
330
1A
100
AcDbEntity
  8
ZUWAKU
100
AcDbLine
 10
46.64221262389491
 20
7.149999764257614
 30
0.0
 11
50.14221262389492
 21
7.149999764257614
 31
0.0
  0
LINE
  5
3171
330
1A
100
AcDbEntity
  8
ZUWAKU
100
AcDbLine
 10
46.64221262389491
 20
9.949999764257611
 30
0.0
 11
49.61721262389483
 21
9.949999764257611
 31
0.0
  0
ARC
  5
3172
330
1A
100
AcDbEntity
  8
ZUWAKU
100
AcDbCircle
 10
24.94221262389487
 20
19.04999976425757
 30
0.0
 40
4.199999999999999
100
AcDbArc
 50
90.0
 51
180.0
  0
LINE
  5
3173
330
1A
100
AcDbEntity
  8
ZUWAKU
100
AcDbLine
 10
18.11721262389482
 20
22.7249997642576
 30
0.0
 11
18.11721262389482
 21
20.97499976425761
 31
0.0
  0
ARC
  5
3174
330
1A
100
AcDbEntity
  8
ZUWAKU
100
AcDbCircle
 10
17.59221262389485
 20
20.97499976425761
 30
0.0
 40
0.525
100
AcDbArc
 50
270.0
 51
0.0
  0
ARC
  5
3175
330
1A
100
AcDbEntity
  8
ZUWAKU
100
AcDbCircle
 10
17.59221262389485
 20
22.7249997642576
 30
0.0
 40
0.525
100
AcDbArc
 50
0.0
 51
90.0
  0
ARC
  5
3176
330
1A
100
AcDbEntity
  8
ZUWAKU
100
AcDbCircle
 10
14.09221262389485
 20
20.44999976425761
 30
0.0
 40
2.799999999999999
100
AcDbArc
 50
90.0
 51
180.0
  0
LINE
  5
3177
330
1A
100
AcDbEntity
  8
ZUWAKU
100
AcDbLine
 10
11.29221262389489
 20
20.44999976425761
 30
0.0
 11
11.29221262389489
 21
18.63479773890227
 31
0.0
  0
LINE
  5
3178
330
1A
100
AcDbEntity
  8
ZUWAKU
100
AcDbLine
 10
14.09221262389485
 20
19.92499976425761
 30
0.0
 11
14.09221262389485
 21
18.63479773890227
 31
0.0
  0
ARC
  5
3179
330
1A
100
AcDbEntity
  8
ZUWAKU
100
AcDbCircle
 10
14.61721262389483
 20
19.92499976425761
 30
0.0
 40
0.525
100
AcDbArc
 50
90.0
 51
180.0
  0
LINE
  5
317A
330
1A
100
AcDbEntity
  8
ZUWAKU
100
AcDbLine
 10
17.59221262389485
 20
20.44999976425761
 30
0.0
 11
14.61721262389483
 21
20.44999976425761
 31
0.0
  0
LINE
  5
317B
330
1A
100
AcDbEntity
  8
ZUWAKU
100
AcDbLine
 10
14.09221262389485
 20
23.24999976425761
 30
0.0
 11
17.59221262389485
 21
23.24999976425761
 31
0.0
  0
LINE
  5
317C
330
1A
100
AcDbEntity
  8
ZUWAKU
100
AcDbLine
 10
36.17697846040619
 20
23.24999976425761
 30
0.0
 11
37.87586784001518
 21
23.24999976425761
 31
0.0
  0
ARC
  5
317D
330
1A
100
AcDbEntity
  8
ZUWAKU
100
AcDbCircle
 10
36.17697846040619
 20
22.7249997642576
 30
0.0
 40
0.525
100
AcDbArc
 50
90.0
 51
162.4744316262769
  0
ARC
  5
317E
330
1A
100
AcDbEntity
  8
ZUWAKU
100
AcDbCircle
 10
32.11721262389483
 20
22.7249997642576
 30
0.0
 40
0.525
100
AcDbArc
 50
0.0
 51
90.0
  0
ARC
  5
317F
330
1A
100
AcDbEntity
  8
ZUWAKU
100
AcDbCircle
 10
24.94221262389487
 20
19.04999976425761
 30
0.0
 40
1.399999999999999
100
AcDbArc
 50
90.0
 51
180.0
  0
LINE
  5
3180
330
1A
100
AcDbEntity
  8
ZUWAKU
100
AcDbLine
 10
27.39221262389492
 20
22.7249997642576
 30
0.0
 11
27.39221262389492
 21
20.97499976425761
 31
0.0
  0
ARC
  5
3181
330
1A
100
AcDbEntity
  8
ZUWAKU
100
AcDbCircle
 10
26.86721262389482
 20
20.97499976425761
 30
0.0
 40
0.525
100
AcDbArc
 50
270.0
 51
0.0
  0
LINE
  5
3182
330
1A
100
AcDbEntity
  8
ZUWAKU
100
AcDbLine
 10
26.86721262389482
 20
20.44999976425761
 30
0.0
 11
24.94221262389487
 21
20.44999976425761
 31
0.0
  0
ARC
  5
3183
330
1A
100
AcDbEntity
  8
ZUWAKU
100
AcDbCircle
 10
30.36721262389483
 20
22.7249997642576
 30
0.0
 40
0.525
100
AcDbArc
 50
90.0
 51
180.0
  0
ARC
  5
3184
330
1A
100
AcDbEntity
  8
ZUWAKU
100
AcDbCircle
 10
26.86721262389482
 20
22.7249997642576
 30
0.0
 40
0.525
100
AcDbArc
 50
0.0
 51
90.0
  0
LINE
  5
3185
330
1A
100
AcDbEntity
  8
ZUWAKU
100
AcDbLine
 10
24.94221262389487
 20
23.24999976425757
 30
0.0
 11
26.86721262389482
 21
23.24999976425761
 31
0.0
  0
LINE
  5
3186
330
1A
100
AcDbEntity
  8
ZUWAKU
100
AcDbLine
 10
32.11721262389483
 20
23.24999976425761
 30
0.0
 11
30.36721262389483
 21
23.24999976425761
 31
0.0
  0
LINE
  5
3187
330
1A
100
AcDbEntity
  8
ZUWAKU
100
AcDbLine
 10
52.41721262389489
 20
22.7249997642576
 30
0.0
 11
52.41721262389489
 21
20.97499976425761
 31
0.0
  0
LINE
  5
3188
330
1A
100
AcDbEntity
  8
ZUWAKU
100
AcDbLine
 10
51.89221262389492
 20
20.44999976425761
 30
0.0
 11
48.9172126238949
 21
20.44999976425761
 31
0.0
  0
ARC
  5
3189
330
1A
100
AcDbEntity
  8
ZUWAKU
100
AcDbCircle
 10
51.89221262389492
 20
20.97499976425761
 30
0.0
 40
0.525
100
AcDbArc
 50
270.0
 51
0.0
  0
ARC
  5
318A
330
1A
100
AcDbEntity
  8
ZUWAKU
100
AcDbCircle
 10
51.89221262389492
 20
22.7249997642576
 30
0.0
 40
0.525
100
AcDbArc
 50
0.0
 51
90.0
  0
ARC
  5
318B
330
1A
100
AcDbEntity
  8
ZUWAKU
100
AcDbCircle
 10
48.39221262389492
 20
20.44999976425761
 30
0.0
 40
2.799999999999999
100
AcDbArc
 50
90.0
 51
180.0
  0
LINE
  5
318C
330
1A
100
AcDbEntity
  8
ZUWAKU
100
AcDbLine
 10
38.37649873921066
 20
22.56690579609064
 30
0.0
 11
37.31485910607284
 21
19.20504695782104
 31
0.0
  0
LINE
  5
318D
330
1A
100
AcDbEntity
  8
ZUWAKU
100
AcDbLine
 10
45.59221262389485
 20
20.44999976425761
 30
0.0
 11
45.59221262389485
 21
18.63479773890227
 31
0.0
  0
LINE
  5
318E
330
1A
100
AcDbEntity
  8
ZUWAKU
100
AcDbLine
 10
42.96721262389485
 20
23.24999976425761
 30
0.0
 11
41.21721262389485
 21
23.24999976425761
 31
0.0
  0
ARC
  5
318F
330
1A
100
AcDbEntity
  8
ZUWAKU
100
AcDbCircle
 10
37.87586784001518
 20
22.7249997642576
 30
0.0
 40
0.525
100
AcDbArc
 50
342.4744316262769
 51
90.0
  0
ARC
  5
3190
330
1A
100
AcDbEntity
  8
ZUWAKU
100
AcDbCircle
 10
41.21721262389485
 20
22.7249997642576
 30
0.0
 40
0.525
100
AcDbArc
 50
90.0
 51
180.0
  0
ARC
  5
3191
330
1A
100
AcDbEntity
  8
ZUWAKU
100
AcDbCircle
 10
42.96721262389485
 20
22.7249997642576
 30
0.0
 40
0.525
100
AcDbArc
 50
0.0
 51
90.0
  0
LINE
  5
3192
330
1A
100
AcDbEntity
  8
ZUWAKU
100
AcDbLine
 10
48.39221262389492
 20
19.92499976425761
 30
0.0
 11
48.39221262389492
 21
18.63479773890227
 31
0.0
  0
ARC
  5
3193
330
1A
100
AcDbEntity
  8
ZUWAKU
100
AcDbCircle
 10
48.9172126238949
 20
19.92499976425761
 30
0.0
 40
0.525
100
AcDbArc
 50
90.0
 51
180.0
  0
LINE
  5
3194
330
1A
100
AcDbEntity
  8
ZUWAKU
100
AcDbLine
 10
48.39221262389492
 20
23.24999976425761
 30
0.0
 11
51.89221262389492
 21
23.24999976425761
 31
0.0
  0
TEXT
  5
3195
330
1A
100
AcDbEntity
  8
MOJI
100
AcDbText
 10
239.8272031499648
 20
18.00492082166499
 30
0.0
 40
5.599999999999999
  1
ジョイント
 41
0.9
  7
ｽﾀｲﾙ1
100
AcDbText
  0
TEXT
  5
3196
330
1A
100
AcDbEntity
  8
MOJI
100
AcDbText
 10
92.95779005728286
 20
12.74117789453237
 30
0.0
 40
6.0
  1
アートフェイスＶＭ１２０
 41
0.9
  7
ｽﾀｲﾙ1
100
AcDbText
  0
LINE
  5
3197
330
1A
100
AcDbEntity
  8
ZUWAKU
100
AcDbLine
 10
57.84221262389485
 20
10.9999997642576
 30
0.0
 11
57.84221262389485
 21
22.7249997642576
 31
0.0
  0
LINE
  5
3198
330
1A
100
AcDbEntity
  8
ZUWAKU
100
AcDbLine
 10
55.04221262389489
 20
22.7249997642576
 30
0.0
 11
55.04221262389489
 21
9.949999764257611
 31
0.0
  0
LINE
  5
3199
330
1A
100
AcDbEntity
  8
ZUWAKU
100
AcDbLine
 10
66.24221262389482
 20
22.7249997642576
 30
0.0
 11
66.24221262389482
 21
7.674999764257613
 31
0.0
  0
LINE
  5
319A
330
1A
100
AcDbEntity
  8
ZUWAKU
100
AcDbLine
 10
69.0422126238949
 20
7.674999764257613
 30
0.0
 11
69.0422126238949
 21
22.7249997642576
 31
0.0
  0
LINE
  5
319B
330
1A
100
AcDbEntity
  8
ZUWAKU
100
AcDbLine
 10
61.34221262389485
 20
22.7249997642576
 30
0.0
 11
61.34221262389485
 21
10.9999997642576
 31
0.0
  0
LINE
  5
319C
330
1A
100
AcDbEntity
  8
ZUWAKU
100
AcDbLine
 10
64.14221262389492
 20
9.949999764257611
 30
0.0
 11
64.14221262389492
 21
22.7249997642576
 31
0.0
  0
LINE
  5
319D
330
1A
100
AcDbEntity
  8
ZUWAKU
100
AcDbLine
 10
79.12663001710211
 20
29.9999997642576
 30
0.0
 11
79.12663001710211
 21
0.7999997642576773
 31
0.0
  0
LINE
  5
319E
330
1A
100
AcDbEntity
  8
ZUWAKU
100
AcDbLine
 10
79.52663001710198
 20
29.9999997642576
 30
0.0
 11
79.5266300171022
 21
0.7999997642576773
 31
0.0
  0
LINE
  5
319F
330
1A
100
AcDbEntity
  8
ZUWAKU
100
AcDbLine
 10
79.32663001710193
 20
29.9999997642576
 30
0.0
 11
79.32663001710216
 21
0.7999997642576773
 31
0.0
  0
LINE
  5
31A0
330
1A
100
AcDbEntity
  8
ZUWAKU
100
AcDbLine
 10
208.4466017591814
 20
29.9999997642576
 30
0.0
 11
208.4466017591817
 21
0.7999997642576773
 31
0.0
  0
LINE
  5
31A1
330
1A
100
AcDbEntity
  8
ZUWAKU
100
AcDbLine
 10
208.6466017591815
 20
29.9999997642576
 30
0.0
 11
208.6466017591817
 21
0.7999997642576773
 31
0.0
  0
LINE
  5
31A2
330
1A
100
AcDbEntity
  8
ZUWAKU
100
AcDbLine
 10
208.2466017591816
 20
29.9999997642576
 30
0.0
 11
208.2466017591816
 21
0.7999997642576773
 31
0.0
  0
ARC
  5
31A3
330
1A
100
AcDbEntity
  8
ZUWAKU
100
AcDbCircle
 10
57.84221262389485
 20
9.949999764257611
 30
0.0
 40
2.799999999999999
100
AcDbArc
 50
180.0
 51
270.0
  0
ARC
  5
31A4
330
1A
100
AcDbEntity
  8
ZUWAKU
100
AcDbCircle
 10
61.34221262389485
 20
9.949999764257611
 30
0.0
 40
2.799999999999999
100
AcDbArc
 50
270.0
 51
0.0
  0
LINE
  5
31A5
330
1A
100
AcDbEntity
  8
ZUWAKU
100
AcDbLine
 10
66.76721262389492
 20
7.149999764257614
 30
0.0
 11
68.51721262389492
 21
7.149999764257614
 31
0.0
  0
ARC
  5
31A6
330
1A
100
AcDbEntity
  8
ZUWAKU
100
AcDbCircle
 10
66.76721262389492
 20
7.674999764257613
 30
0.0
 40
0.525
100
AcDbArc
 50
180.0
 51
270.0
  0
ARC
  5
31A7
330
1A
100
AcDbEntity
  8
ZUWAKU
100
AcDbCircle
 10
68.51721262389492
 20
7.674999764257613
 30
0.0
 40
0.525
100
AcDbArc
 50
270.0
 51
0.0
  0
ARC
  5
31A8
330
1A
100
AcDbEntity
  8
ZUWAKU
100
AcDbCircle
 10
58.89221262389492
 20
10.9999997642576
 30
0.0
 40
1.049999999999999
100
AcDbArc
 50
180.0
 51
270.0
  0
LINE
  5
31A9
330
1A
100
AcDbEntity
  8
ZUWAKU
100
AcDbLine
 10
57.84221262389485
 20
7.149999764257614
 30
0.0
 11
61.34221262389485
 21
7.149999764257614
 31
0.0
  0
ARC
  5
31AA
330
1A
100
AcDbEntity
  8
ZUWAKU
100
AcDbCircle
 10
60.2922126238949
 20
10.9999997642576
 30
0.0
 40
1.049999999999999
100
AcDbArc
 50
270.0
 51
0.0
  0
LINE
  5
31AB
330
1A
100
AcDbEntity
  8
ZUWAKU
100
AcDbLine
 10
60.2922126238949
 20
9.949999764257611
 30
0.0
 11
58.89221262389492
 21
9.949999764257611
 31
0.0
  0
TEXT
  5
31AC
330
1A
100
AcDbEntity
  8
ZUWAKU
100
AcDbText
 10
209.7240467813912
 20
9.655356302643227
 30
0.0
 40
4.0
  1
サイズ
 41
0.9
  7
ｽﾀｲﾙ1
100
AcDbText
  0
LINE
  5
31AD
330
1A
100
AcDbEntity
  8
ZUWAKU
100
AcDbLine
 10
68.51721262389492
 20
23.24999976425761
 30
0.0
 11
66.76721262389492
 21
23.24999976425761
 31
0.0
  0
ARC
  5
31AE
330
1A
100
AcDbEntity
  8
ZUWAKU
100
AcDbCircle
 10
66.76721262389492
 20
22.7249997642576
 30
0.0
 40
0.525
100
AcDbArc
 50
90.0
 51
180.0
  0
ARC
  5
31AF
330
1A
100
AcDbEntity
  8
ZUWAKU
100
AcDbCircle
 10
68.51721262389492
 20
22.7249997642576
 30
0.0
 40
0.525
100
AcDbArc
 50
0.0
 51
90.0
  0
LINE
  5
31B0
330
1A
100
AcDbEntity
  8
ZUWAKU
100
AcDbLine
 10
57.31721262389488
 20
23.24999976425761
 30
0.0
 11
55.56721262389487
 21
23.24999976425761
 31
0.0
  0
ARC
  5
31B1
330
1A
100
AcDbEntity
  8
ZUWAKU
100
AcDbCircle
 10
55.56721262389487
 20
22.7249997642576
 30
0.0
 40
0.525
100
AcDbArc
 50
90.0
 51
180.0
  0
ARC
  5
31B2
330
1A
100
AcDbEntity
  8
ZUWAKU
100
AcDbCircle
 10
57.31721262389488
 20
22.7249997642576
 30
0.0
 40
0.525
100
AcDbArc
 50
0.0
 51
90.0
  0
ARC
  5
31B3
330
1A
100
AcDbEntity
  8
ZUWAKU
100
AcDbCircle
 10
61.86721262389482
 20
22.7249997642576
 30
0.0
 40
0.525
100
AcDbArc
 50
90.0
 51
180.0
  0
LINE
  5
31B4
330
1A
100
AcDbEntity
  8
ZUWAKU
100
AcDbLine
 10
63.61721262389483
 20
23.24999976425761
 30
0.0
 11
61.86721262389482
 21
23.24999976425761
 31
0.0
  0
ARC
  5
31B5
330
1A
100
AcDbEntity
  8
ZUWAKU
100
AcDbCircle
 10
63.61721262389483
 20
22.7249997642576
 30
0.0
 40
0.525
100
AcDbArc
 50
0.0
 51
90.0
  0
TEXT
  5
31B6
330
1A
100
AcDbEntity
  8
ZUWAKU
100
AcDbText
 10
209.724046781391
 20
24.05535630264319
 30
0.0
 40
4.0
  1
品名
 41
0.9
  7
ｽﾀｲﾙ1
100
AcDbText
  0
TEXT
  5
31B7
330
1A
100
AcDbEntity
  8
MOJI
100
AcDbText
 10
528.0409084414266
 20
18.00492082166499
 30
0.0
 40
5.599999999999999
  1
Ａ３
 41
0.9
  7
ｽﾀｲﾙ1
100
AcDbText
  0
LINE
  5
31B8
330
1A
100
AcDbEntity
  8
ZUWAKU
100
AcDbLine
 10
504.9991799672546
 20
29.9999997642576
 30
0.0
 11
504.9991799672548
 21
0.7999997642576773
 31
0.0
  0
LINE
  5
31B9
330
1A
100
AcDbEntity
  8
ZUWAKU
100
AcDbLine
 10
505.1991799672546
 20
29.9999997642576
 30
0.0
 11
505.1991799672548
 21
0.7999997642576773
 31
0.0
  0
LINE
  5
31BA
330
1A
100
AcDbEntity
  8
ZUWAKU
100
AcDbLine
 10
504.7991799672547
 20
29.9999997642576
 30
0.0
 11
504.7991799672547
 21
0.7999997642576773
 31
0.0
  0
LINE
  5
31BB
330
1A
100
AcDbEntity
  8
ZUWAKU
100
AcDbLine
 10
552.5269562352262
 20
29.9999997642576
 30
0.0
 11
552.5269562352262
 21
0.7999997642576773
 31
0.0
  0
LINE
  5
31BC
330
1A
100
AcDbEntity
  8
ZUWAKU
100
AcDbLine
 10
552.926956235226
 20
29.9999997642576
 30
0.0
 11
552.9269562352262
 21
0.7999997642576773
 31
0.0
  0
LINE
  5
31BD
330
1A
100
AcDbEntity
  8
ZUWAKU
100
AcDbLine
 10
552.726956235226
 20
29.9999997642576
 30
0.0
 11
552.7269562352262
 21
0.7999997642576773
 31
0.0
  0
LINE
  5
31BE
330
1A
100
AcDbEntity
  8
ZUWAKU
100
AcDbLine
 10
447.624364440105
 20
29.9999997642576
 30
0.0
 11
447.6243644401051
 21
0.7999997642576773
 31
0.0
  0
LINE
  5
31BF
330
1A
100
AcDbEntity
  8
ZUWAKU
100
AcDbLine
 10
447.8243644401049
 20
29.9999997642576
 30
0.0
 11
447.8243644401052
 21
0.7999997642576773
 31
0.0
  0
LINE
  5
31C0
330
1A
100
AcDbEntity
  8
ZUWAKU
100
AcDbLine
 10
447.4243644401051
 20
29.9999997642576
 30
0.0
 11
447.4243644401051
 21
0.7999997642576773
 31
0.0
  0
TEXT
  5
31C1
330
1A
100
AcDbEntity
  8
MOJI
100
AcDbText
 10
463.2464324601158
 20
11.94261748591759
 30
0.0
 40
5.599999999999999
  1
ＰＧ０８□
 41
0.9
  7
ｽﾀｲﾙ1
100
AcDbText
  0
LINE
  5
31C2
330
1A
100
AcDbEntity
  8
ZUWAKU
100
AcDbLine
 10
505.1991799672546
 20
15.19999976425764
 30
0.0
 11
552.5269562352262
 21
15.19999976425764
 31
0.0
  0
LINE
  5
31C3
330
1A
100
AcDbEntity
  8
ZUWAKU
100
AcDbLine
 10
505.1991799672546
 20
15.39999976425764
 30
0.0
 11
552.5269562352262
 21
15.39999976425764
 31
0.0
  0
LINE
  5
31C4
330
1A
100
AcDbEntity
  8
ZUWAKU
100
AcDbLine
 10
505.1991799672546
 20
15.59999976425764
 30
0.0
 11
552.5269562352262
 21
15.59999976425764
 31
0.0
  0
TEXT
  5
31C5
330
1A
100
AcDbEntity
  8
ZUWAKU
100
AcDbText
 10
506.6766249894644
 20
9.655356302643227
 30
0.0
 40
4.0
  1
縮尺
 41
0.9
  7
ｽﾀｲﾙ1
100
AcDbText
  0
TEXT
  5
31C6
330
1A
100
AcDbEntity
  8
ZUWAKU
100
AcDbText
 10
460.7178436121728
 20
2.614070675397101
 30
0.0
 40
3.0
  1
□には色品番が入ります
 41
0.9
  7
ｽﾀｲﾙ1
100
AcDbText
  0
TEXT
  5
31C7
330
1A
100
AcDbEntity
  8
MOJI
100
AcDbText
 10
528.0409084414266
 20
3.20492082166503
 30
0.0
 40
5.599999999999999
  1
１/２
 41
0.9
  7
ｽﾀｲﾙ1
100
AcDbText
  0
TEXT
  5
31C8
330
1A
100
AcDbEntity
  8
ZUWAKU
100
AcDbText
 10
449.3018094623145
 20
24.05535630264319
 30
0.0
 40
4.0
  1
品番
 41
0.9
  7
ｽﾀｲﾙ1
100
AcDbText
  0
TEXT
  5
31C9
330
1A
100
AcDbEntity
  8
ZUWAKU
100
AcDbText
 10
506.6766249894642
 20
24.05535630264319
 30
0.0
 40
4.0
  1
用紙
 41
0.9
  7
ｽﾀｲﾙ1
100
AcDbText
  0
TEXT
  5
31CA
330
1A
100
AcDbEntity
  8
ZUWAKU
100
AcDbText
 10
708.5280846613575
 20
17.55383909994441
 30
0.0
 40
6.0
  1
積水化学工業株式会社
 41
0.9
  7
ｽﾀｲﾙ1
100
AcDbText
  0
TEXT
  5
31CB
330
1A
100
AcDbEntity
  8
ZUWAKU
100
AcDbText
 10
658.2039381564161
 20
18.00492082166499
 30
0.0
 40
5.599999999999999
  1
　　．　　．　　
 41
0.9
  7
ｽﾀｲﾙ1
100
AcDbText
  0
LINE
  5
31CC
330
1A
100
AcDbEntity
  8
ZUWAKU
100
AcDbLine
 10
697.8490110176549
 20
29.9999997642576
 30
0.0
 11
697.8490110176551
 21
0.7999997642576773
 31
0.0
  0
LINE
  5
31CD
330
1A
100
AcDbEntity
  8
ZUWAKU
100
AcDbLine
 10
697.6490110176548
 20
29.9999997642576
 30
0.0
 11
697.649011017655
 21
0.7999997642576773
 31
0.0
  0
LINE
  5
31CE
330
1A
100
AcDbEntity
  8
ZUWAKU
100
AcDbLine
 10
697.449011017655
 20
29.9999997642576
 30
0.0
 11
697.449011017655
 21
0.7999997642576773
 31
0.0
  0
LINE
  5
31CF
330
1A
100
AcDbEntity
  8
ZUWAKU
100
AcDbLine
 10
697.249011017655
 20
29.9999997642576
 30
0.0
 11
697.249011017655
 21
0.7999997642576773
 31
0.0
  0
LINE
  5
31D0
330
1A
100
AcDbEntity
  8
ZUWAKU
100
AcDbLine
 10
648.4172029793183
 20
29.9999997642576
 30
0.0
 11
648.4172029793183
 21
0.7999997642576773
 31
0.0
  0
LINE
  5
31D1
330
1A
100
AcDbEntity
  8
ZUWAKU
100
AcDbLine
 10
648.8172029793181
 20
29.9999997642576
 30
0.0
 11
648.8172029793183
 21
0.7999997642576773
 31
0.0
  0
LINE
  5
31D2
330
1A
100
AcDbEntity
  8
ZUWAKU
100
AcDbLine
 10
648.6172029793181
 20
29.9999997642576
 30
0.0
 11
648.6172029793183
 21
0.7999997642576773
 31
0.0
  0
TEXT
  5
31D3
330
1A
100
AcDbEntity
  8
ZUWAKU
100
AcDbText
 10
708.5280846613575
 20
6.648840078111675
 30
0.0
 40
6.0
  1
建材事業部
 41
0.9
  7
ｽﾀｲﾙ1
100
AcDbText
  0
LINE
  5
31D4
330
1A
100
AcDbEntity
  8
ZUWAKU
100
AcDbLine
 10
648.8172029793179
 20
15.19999976425764
 30
0.0
 11
697.249011017655
 21
15.19999976425764
 31
0.0
  0
LINE
  5
31D5
330
1A
100
AcDbEntity
  8
ZUWAKU
100
AcDbLine
 10
648.8172029793181
 20
15.39999976425764
 30
0.0
 11
697.249011017655
 21
15.39999976425764
 31
0.0
  0
LINE
  5
31D6
330
1A
100
AcDbEntity
  8
ZUWAKU
100
AcDbLine
 10
648.8172029793179
 20
15.59999976425764
 30
0.0
 11
697.249011017655
 21
15.59999976425764
 31
0.0
  0
TEXT
  5
31D7
330
1A
100
AcDbEntity
  8
ZUWAKU
100
AcDbText
 10
650.2946480015277
 20
24.05535630264319
 30
0.0
 40
4.0
  1
DATE
 41
0.9
  7
ｽﾀｲﾙ1
100
AcDbText
  0
VIEWPORT
  5
22
330
17
100
AcDbEntity
 67
     1
  8
0
100
AcDbViewport
 10
313.6808219178082
 20
148.5
 30
0.0
 40
627.3616438356165
 41
297.0
 68
     2
 69
     1
1001
ACAD
1000
MVIEW
1002
{
1070
    16
1010
0.0
1020
0.0
1030
0.0
1010
0.0
1020
0.0
1030
1.0
1040
0.0
1040
297.0
1040
313.6808219178082
1040
148.5
1040
50.0
1040
0.0
1040
0.0
1070
     0
1070
   100
1070
     1
1070
     0
1070
     0
1070
     0
1070
     0
1070
     0
1040
0.0
1040
0.0
1040
0.0
1040
1.0
1040
1.0
1040
10.0
1040
10.0
1070
     0
1002
{
1002
}
1002
}
  0
VIEWPORT
  5
64
330
17
100
AcDbEntity
 67
     1
  8
VIEWPORT
100
AcDbViewport
 10
210.0
 20
148.5
 30
0.0
 40
420.0
 41
297.0
 68
     1
 69
     2
1001
ACAD
1000
MVIEW
1002
{
1070
    16
1010
0.0
1020
0.0
1030
0.0
1010
0.0
1020
0.0
1030
1.0
1040
0.0
1040
605.8799999999997
1040
420.0
1040
297.0
1040
50.0
1040
0.0
1040
0.0
1070
     0
1070
   100
1070
     1
1070
     0
1070
     0
1070
     0
1070
     0
1070
     0
1040
0.0
1040
0.0
1040
0.0
1040
10.0
1040
10.0
1040
0.0
1040
0.0
1070
     0
1002
{
1002
}
1002
}
  0
ENDSEC
  0
SECTION
  2
OBJECTS
  0
DICTIONARY
  5
C
330
0
100
AcDbDictionary
  3
ACAD_GROUP
350
D
  3
ACAD_LAYOUT
350
8CD
  3
ACAD_MLINESTYLE
350
E
  3
ACAD_PLOTSETTINGS
350
8CE
  3
ACAD_PLOTSTYLENAME
350
8CB
  3
ACDBHEADERROUNDTRIPXREC
350
31E7
  0
DICTIONARY
  5
9DE
330
1A
100
AcDbDictionary
280
     1
  3
ACAD_LAYOUTSELFREF
360
3209
  0
DICTIONARY
  5
9DC
330
17
100
AcDbDictionary
280
     1
  3
ACAD_LAYOUTSELFREF
360
3208
  0
DICTIONARY
  5
D
102
{ACAD_REACTORS
330
C
102
}
330
C
100
AcDbDictionary
  3
*A1
350
2642
  0
DICTIONARY
  5
8CD
102
{ACAD_REACTORS
330
C
102
}
330
C
100
AcDbDictionary
  0
DICTIONARY
  5
E
102
{ACAD_REACTORS
330
C
102
}
330
C
100
AcDbDictionary
  3
STANDARD
350
13
  0
DICTIONARY
  5
8CE
102
{ACAD_REACTORS
330
C
102
}
330
C
100
AcDbDictionary
  0
ACDBDICTIONARYWDFLT
  5
8CB
102
{ACAD_REACTORS
330
C
102
}
330
C
100
AcDbDictionary
281
     1
  3
Normal
350
8CC
100
AcDbDictionaryWithDefault
340
8CC
1001
ACAD
1000
TREAT_AS_HARD
1070
     0
1000
TREAT_AS_HARD
1070
     0
1000
TREAT_AS_HARD
1070
     0
1000
TREAT_AS_HARD
1070
     0
1000
TREAT_AS_HARD
1070
     0
1000
TREAT_AS_HARD
1070
     0
1000
TREAT_AS_HARD
1070
     0
1000
TREAT_AS_HARD
1070
     0
1000
TREAT_AS_HARD
1070
     0
1000
TREAT_AS_HARD
1070
     0
1000
TREAT_AS_HARD
1070
     0
  0
DICTIONARY
  5
31E7
102
{ACAD_REACTORS
330
C
102
}
330
C
100
AcDbDictionary
  3
TSTACKALIGN
350
31E8
  3
TSTACKSIZE
350
31E9
  3
HYPERLINKBASE
350
31EA
  3
STYLESHEET
350
31EB
  3
LAYOUTDICT
350
31EC
  3
PLOTSETDICT
350
31ED
  3
PLOTSTYLNAMDICT
350
31EE
  3
LWETCUNION
350
31EF
  3
INSUNITS
350
31F0
  3
CEPSNTYPE
350
31F1
  3
FINGERPRINTGUID
350
31F2
  3
VERSIONGUID
350
31F3
  3
PSVPSCALE
350
31F4
  3
DIMSTYLEDATA
350
31F5
  3
PUCSORTHOREF
350
31F6
  3
PUCSORTHOVIEW
350
31F7
  3
PUCSBASE
350
31F8
  3
PUCSORGTOP
350
31F9
  3
PUCSORGBOTTOM
350
31FA
  3
PUCSORGLEFT
350
31FB
  3
PUCSORGRIGHT
350
31FC
  3
PUCSORGFRONT
350
31FD
  3
PUCSORGBACK
350
31FE
  3
UCSORTHOREF
350
31FF
  3
UCSORTHOVIEW
350
3200
  3
UCSBASE
350
3201
  3
UCSORGTOP
350
3202
  3
UCSORGBOTTOM
350
3203
  3
UCSORGLEFT
350
3204
  3
UCSORGRIGHT
350
3205
  3
UCSORGFRONT
350
3206
  3
UCSORGBACK
350
3207
  0
XRECORD
  5
3209
102
{ACAD_REACTORS
330
9DE
102
}
330
9DE
100
AcDbXrecord
340
1A
  0
XRECORD
  5
3208
102
{ACAD_REACTORS
330
9DC
102
}
330
9DC
100
AcDbXrecord
340
17
  0
GROUP
  5
2642
102
{ACAD_REACTORS
330
D
102
}
330
D
100
AcDbGroup
300

 70
     1
 71
     1
  0
MLINESTYLE
  5
13
102
{ACAD_REACTORS
330
E
102
}
330
E
100
AcDbMlineStyle
  2
STANDARD
 70
     0
  3

 62
     0
 51
90.0
 52
90.0
 71
     2
 49
0.5
 62
   256
  6
BYLAYER
 49
-0.5
 62
   256
  6
BYLAYER
  0
ACDBPLACEHOLDER
  5
8CC
102
{ACAD_REACTORS
330
8CB
102
}
330
8CB
100
AcDbPlaceHolder
280
     0
  0
XRECORD
  5
31E8
102
{ACAD_REACTORS
330
31E7
102
}
330
31E7
100
AcDbXrecord
 90
        1
  0
XRECORD
  5
31E9
102
{ACAD_REACTORS
330
31E7
102
}
330
31E7
100
AcDbXrecord
 90
       70
  0
XRECORD
  5
31EA
102
{ACAD_REACTORS
330
31E7
102
}
330
31E7
100
AcDbXrecord
  1

  0
XRECORD
  5
31EB
102
{ACAD_REACTORS
330
31E7
102
}
330
31E7
100
AcDbXrecord
  1
systemprinter.ctb
  0
XRECORD
  5
31EC
102
{ACAD_REACTORS
330
31E7
102
}
330
31E7
100
AcDbXrecord
340
8CD
  0
XRECORD
  5
31ED
102
{ACAD_REACTORS
330
31E7
102
}
330
31E7
100
AcDbXrecord
340
8CE
  0
XRECORD
  5
31EE
102
{ACAD_REACTORS
330
31E7
102
}
330
31E7
100
AcDbXrecord
340
8CB
  0
XRECORD
  5
31EF
102
{ACAD_REACTORS
330
31E7
102
}
330
31E7
100
AcDbXrecord
 90
    10781
  0
XRECORD
  5
31F0
102
{ACAD_REACTORS
330
31E7
102
}
330
31E7
100
AcDbXrecord
 90
        0
  0
XRECORD
  5
31F1
102
{ACAD_REACTORS
330
31E7
102
}
330
31E7
100
AcDbXrecord
 90
        0
  0
XRECORD
  5
31F2
102
{ACAD_REACTORS
330
31E7
102
}
330
31E7
100
AcDbXrecord
  1
{B4B71FC0-A839-11D5-932D-0050DA99388B}
  0
XRECORD
  5
31F3
102
{ACAD_REACTORS
330
31E7
102
}
330
31E7
100
AcDbXrecord
  1
{218A1A62-4D4C-4E85-A79B-774AE85372DB}
  0
XRECORD
  5
31F4
102
{ACAD_REACTORS
330
31E7
102
}
330
31E7
100
AcDbXrecord
 40
0.0
  0
XRECORD
  5
31F5
102
{ACAD_REACTORS
330
31E7
102
}
330
31E7
100
AcDbXrecord
1000
DSTYLE
1002
{
1070
   341
340
6D
1070
   343
340
6D
1070
   344
340
6D
1070
   371
 70
    -1
1070
   372
 70
    -1
1002
}
  0
XRECORD
  5
31F6
102
{ACAD_REACTORS
330
31E7
102
}
330
31E7
100
AcDbXrecord
340
0
  0
XRECORD
  5
31F7
102
{ACAD_REACTORS
330
31E7
102
}
330
31E7
100
AcDbXrecord
 70
     0
  0
XRECORD
  5
31F8
102
{ACAD_REACTORS
330
31E7
102
}
330
31E7
100
AcDbXrecord
340
0
  0
XRECORD
  5
31F9
102
{ACAD_REACTORS
330
31E7
102
}
330
31E7
100
AcDbXrecord
 10
0.0
 20
0.0
 30
0.0
  0
XRECORD
  5
31FA
102
{ACAD_REACTORS
330
31E7
102
}
330
31E7
100
AcDbXrecord
 10
0.0
 20
0.0
 30
0.0
  0
XRECORD
  5
31FB
102
{ACAD_REACTORS
330
31E7
102
}
330
31E7
100
AcDbXrecord
 10
0.0
 20
0.0
 30
0.0
  0
XRECORD
  5
31FC
102
{ACAD_REACTORS
330
31E7
102
}
330
31E7
100
AcDbXrecord
 10
0.0
 20
0.0
 30
0.0
  0
XRECORD
  5
31FD
102
{ACAD_REACTORS
330
31E7
102
}
330
31E7
100
AcDbXrecord
 10
0.0
 20
0.0
 30
0.0
  0
XRECORD
  5
31FE
102
{ACAD_REACTORS
330
31E7
102
}
330
31E7
100
AcDbXrecord
 10
0.0
 20
0.0
 30
0.0
  0
XRECORD
  5
31FF
102
{ACAD_REACTORS
330
31E7
102
}
330
31E7
100
AcDbXrecord
340
0
  0
XRECORD
  5
3200
102
{ACAD_REACTORS
330
31E7
102
}
330
31E7
100
AcDbXrecord
 70
     0
  0
XRECORD
  5
3201
102
{ACAD_REACTORS
330
31E7
102
}
330
31E7
100
AcDbXrecord
340
0
  0
XRECORD
  5
3202
102
{ACAD_REACTORS
330
31E7
102
}
330
31E7
100
AcDbXrecord
 10
0.0
 20
0.0
 30
0.0
  0
XRECORD
  5
3203
102
{ACAD_REACTORS
330
31E7
102
}
330
31E7
100
AcDbXrecord
 10
0.0
 20
0.0
 30
0.0
  0
XRECORD
  5
3204
102
{ACAD_REACTORS
330
31E7
102
}
330
31E7
100
AcDbXrecord
 10
0.0
 20
0.0
 30
0.0
  0
XRECORD
  5
3205
102
{ACAD_REACTORS
330
31E7
102
}
330
31E7
100
AcDbXrecord
 10
0.0
 20
0.0
 30
0.0
  0
XRECORD
  5
3206
102
{ACAD_REACTORS
330
31E7
102
}
330
31E7
100
AcDbXrecord
 10
0.0
 20
0.0
 30
0.0
  0
XRECORD
  5
3207
102
{ACAD_REACTORS
330
31E7
102
}
330
31E7
100
AcDbXrecord
 10
0.0
 20
0.0
 30
0.0
  0
ENDSEC
  0
EOF
