  0
SECTION
  2
HEADER
  9
$ACADVER
  1
AC1014
  9
$ACADMAINTVER
 70
     9
  9
$DWGCODEPAGE
  3
ANSI_932
  9
$INSBASE
 10
0.0
 20
0.0
 30
0.0
  9
$EXTMIN
 10
-0.03844315155402
 20
-0.0271848000274986
 30
-0.000000000000013
  9
$EXTMAX
 10
797.6635408581289
 20
551.6445885803111
 30
0.0000000000000023
  9
$LIMMIN
 10
0.0
 20
0.0
  9
$LIMMAX
 10
840.0
 20
594.0
  9
$ORTHOMODE
 70
     0
  9
$REGENMODE
 70
     1
  9
$FILLMODE
 70
     1
  9
$QTEXTMODE
 70
     0
  9
$MIRRTEXT
 70
     1
  9
$DRAGMODE
 70
     2
  9
$LTSCALE
 40
2.0
  9
$OSMODE
 70
    35
  9
$ATTMODE
 70
     1
  9
$TEXTSIZE
 40
5.0
  9
$TRACEWID
 40
1.0
  9
$TEXTSTYLE
  7
STANDARD
  9
$CLAYER
  8
SUNPOU
  9
$CELTYPE
  6
BYLAYER
  9
$CECOLOR
 62
   256
  9
$CELTSCALE
 40
1.0
  9
$DELOBJ
 70
     1
  9
$DISPSILH
 70
     0
  9
$DIMSCALE
 40
1.0
  9
$DIMASZ
 40
7.0
  9
$DIMEXO
 40
6.0
  9
$DIMDLI
 40
14.0
  9
$DIMRND
 40
0.0
  9
$DIMDLE
 40
0.0
  9
$DIMEXE
 40
3.0
  9
$DIMTP
 40
0.0
  9
$DIMTM
 40
0.0
  9
$DIMTXT
 40
6.0
  9
$DIMCEN
 40
150.0
  9
$DIMTSZ
 40
0.0
  9
$DIMTOL
 70
     0
  9
$DIMLIM
 70
     0
  9
$DIMTIH
 70
     0
  9
$DIMTOH
 70
     0
  9
$DIMSE1
 70
     0
  9
$DIMSE2
 70
     0
  9
$DIMTAD
 70
     3
  9
$DIMZIN
 70
     0
  9
$DIMBLK
  1

  9
$DIMASO
 70
     1
  9
$DIMSHO
 70
     1
  9
$DIMPOST
  1

  9
$DIMAPOST
  1

  9
$DIMALT
 70
     0
  9
$DIMALTD
 70
     2
  9
$DIMALTF
 40
25.4
  9
$DIMLFAC
 40
1.0
  9
$DIMTOFL
 70
     1
  9
$DIMTVP
 40
0.0
  9
$DIMTIX
 70
     0
  9
$DIMSOXD
 70
     0
  9
$DIMSAH
 70
     1
  9
$DIMBLK1
  1
OPEN
  9
$DIMBLK2
  1
OPEN
  9
$DIMSTYLE
  2
STANDARD
  9
$DIMCLRD
 70
   256
  9
$DIMCLRE
 70
   256
  9
$DIMCLRT
 70
   256
  9
$DIMTFAC
 40
1.0
  9
$DIMGAP
 40
2.0
  9
$DIMJUST
 70
     0
  9
$DIMSD1
 70
     0
  9
$DIMSD2
 70
     0
  9
$DIMTOLJ
 70
     1
  9
$DIMTZIN
 70
     0
  9
$DIMALTZ
 70
     0
  9
$DIMALTTZ
 70
     0
  9
$DIMFIT
 70
     3
  9
$DIMUPT
 70
     0
  9
$DIMUNIT
 70
     2
  9
$DIMDEC
 70
     0
  9
$DIMTDEC
 70
     0
  9
$DIMALTU
 70
     2
  9
$DIMALTTD
 70
     2
  9
$DIMTXSTY
  7
STANDARD
  9
$DIMAUNIT
 70
     0
  9
$LUNITS
 70
     2
  9
$LUPREC
 70
     4
  9
$SKETCHINC
 40
1.0
  9
$FILLETRAD
 40
1.0
  9
$AUNITS
 70
     0
  9
$AUPREC
 70
     0
  9
$MENU
  1
.
  9
$ELEVATION
 40
0.0
  9
$PELEVATION
 40
0.0
  9
$THICKNESS
 40
0.0
  9
$LIMCHECK
 70
     0
  9
$BLIPMODE
 70
     0
  9
$CHAMFERA
 40
20.0
  9
$CHAMFERB
 40
20.0
  9
$CHAMFERC
 40
40.0
  9
$CHAMFERD
 40
0.0
  9
$SKPOLY
 70
     0
  9
$TDCREATE
 40
2451212.627488426
  9
$TDUPDATE
 40
2454216.630308692
  9
$TDINDWG
 40
0.0677598264
  9
$TDUSRTIMER
 40
0.0677598264
  9
$USRTIMER
 70
     1
  9
$ANGBASE
 50
0.0
  9
$ANGDIR
 70
     0
  9
$PDMODE
 70
     0
  9
$PDSIZE
 40
0.0
  9
$PLINEWID
 40
0.0
  9
$COORDS
 70
     0
  9
$SPLFRAME
 70
     0
  9
$SPLINETYPE
 70
     6
  9
$SPLINESEGS
 70
     8
  9
$ATTDIA
 70
     0
  9
$ATTREQ
 70
     1
  9
$HANDLING
 70
 10241
  9
$HANDSEED
  5
1759
  9
$SURFTAB1
 70
     6
  9
$SURFTAB2
 70
     6
  9
$SURFTYPE
 70
     6
  9
$SURFU
 70
     6
  9
$SURFV
 70
     6
  9
$UCSNAME
  2

  9
$UCSORG
 10
0.0
 20
0.0
 30
0.0
  9
$UCSXDIR
 10
1.0
 20
0.0
 30
0.0
  9
$UCSYDIR
 10
0.0
 20
1.0
 30
0.0
  9
$PUCSNAME
  2

  9
$PUCSORG
 10
0.0
 20
0.0
 30
0.0
  9
$PUCSXDIR
 10
1.0
 20
0.0
 30
0.0
  9
$PUCSYDIR
 10
0.0
 20
1.0
 30
0.0
  9
$USERI1
 70
     0
  9
$USERI2
 70
     0
  9
$USERI3
 70
     0
  9
$USERI4
 70
     0
  9
$USERI5
 70
     0
  9
$USERR1
 40
0.0
  9
$USERR2
 40
0.0
  9
$USERR3
 40
0.0
  9
$USERR4
 40
0.0
  9
$USERR5
 40
0.0
  9
$WORLDVIEW
 70
     1
  9
$SHADEDGE
 70
     3
  9
$SHADEDIF
 70
    70
  9
$TILEMODE
 70
     1
  9
$MAXACTVP
 70
    16
  9
$PINSBASE
 10
0.0
 20
0.0
 30
0.0
  9
$PLIMCHECK
 70
     0
  9
$PEXTMIN
 10
0.0
 20
0.0
 30
0.0
  9
$PEXTMAX
 10
420.0
 20
297.0
 30
0.0
  9
$PLIMMIN
 10
0.0
 20
0.0
  9
$PLIMMAX
 10
420.0
 20
297.0
  9
$UNITMODE
 70
     0
  9
$VISRETAIN
 70
     0
  9
$PLINEGEN
 70
     0
  9
$PSLTSCALE
 70
     1
  9
$TREEDEPTH
 70
  3020
  9
$PICKSTYLE
 70
     1
  9
$CMLSTYLE
  2
STANDARD
  9
$CMLJUST
 70
     0
  9
$CMLSCALE
 40
1.0
  9
$PROXYGRAPHICS
 70
     1
  9
$MEASUREMENT
 70
     1
  0
ENDSEC
  0
SECTION
  2
CLASSES
  0
CLASS
  1
ACDBDICTIONARYWDFLT
  2
AcDbDictionaryWithDefault
  3
AutoCAD 2000
 90
        0
280
     0
281
     0
  0
CLASS
  1
ACDBPLACEHOLDER
  2
AcDbPlaceHolder
  3
AutoCAD 2000
 90
        0
280
     0
281
     0
  0
CLASS
  1
LAYOUT
  2
AcDbLayout
  3
AutoCAD 2000
 90
        0
280
     0
281
     0
  0
CLASS
  1
LONG_TRANSACTION
  2
AcDbLongTransaction
  3
AutoCAD 2000
 90
        0
280
     0
281
     0
  0
CLASS
  1
LWPOLYLINE
  2
AcDbPolyline
  3
AutoCAD 2000
 90
        0
280
     0
281
     1
  0
CLASS
  1
HATCH
  2
AcDbHatch
  3
AutoCAD 2000
 90
        0
280
     0
281
     1
  0
CLASS
  1
XRECORD
  2
AcDbXrecord
  3
AutoCAD 2000
 90
        0
280
     0
281
     0
  0
CLASS
  1
LONG_TRANSACTION
  2
AcDbLongTransaction
  3
AutoCAD 2000
 90
        0
280
     0
281
     0
  0
CLASS
  1
LWPOLYLINE
  2
AcDbPolyline
  3
AutoCAD 2000
 90
        0
280
     0
281
     1
  0
CLASS
  1
HATCH
  2
AcDbHatch
  3
AutoCAD 2000
 90
        0
280
     0
281
     1
  0
CLASS
  1
XRECORD
  2
AcDbXrecord
  3
AutoCAD 2000
 90
        0
280
     0
281
     0
  0
CLASS
  1
LONG_TRANSACTION
  2
AcDbLongTransaction
  3
AutoCAD 2000
 90
        0
280
     0
281
     0
  0
CLASS
  1
LWPOLYLINE
  2
AcDbPolyline
  3
AutoCAD 2000
 90
        0
280
     0
281
     1
  0
CLASS
  1
HATCH
  2
AcDbHatch
  3
AutoCAD 2000
 90
        0
280
     0
281
     1
  0
CLASS
  1
XRECORD
  2
AcDbXrecord
  3
AutoCAD 2000
 90
        0
280
     0
281
     0
  0
CLASS
  1
LONG_TRANSACTION
  2
AcDbLongTransaction
  3
AutoCAD 2000
 90
        0
280
     0
281
     0
  0
CLASS
  1
LWPOLYLINE
  2
AcDbPolyline
  3
AutoCAD 2000
 90
        0
280
     0
281
     1
  0
CLASS
  1
HATCH
  2
AcDbHatch
  3
AutoCAD 2000
 90
        0
280
     0
281
     1
  0
CLASS
  1
XRECORD
  2
AcDbXrecord
  3
AutoCAD 2000
 90
        0
280
     0
281
     0
  0
CLASS
  1
LONG_TRANSACTION
  2
AcDbLongTransaction
  3
AutoCAD 2000
 90
        0
280
     0
281
     0
  0
CLASS
  1
LWPOLYLINE
  2
AcDbPolyline
  3
AutoCAD 2000
 90
        0
280
     0
281
     1
  0
CLASS
  1
HATCH
  2
AcDbHatch
  3
AutoCAD 2000
 90
        0
280
     0
281
     1
  0
CLASS
  1
XRECORD
  2
AcDbXrecord
  3
AutoCAD 2000
 90
        0
280
     0
281
     0
  0
CLASS
  1
LONG_TRANSACTION
  2
AcDbLongTransaction
  3
AutoCAD 2000
 90
        0
280
     0
281
     0
  0
CLASS
  1
LWPOLYLINE
  2
AcDbPolyline
  3
AutoCAD 2000
 90
        0
280
     0
281
     1
  0
CLASS
  1
HATCH
  2
AcDbHatch
  3
AutoCAD 2000
 90
        0
280
     0
281
     1
  0
CLASS
  1
XRECORD
  2
AcDbXrecord
  3
AutoCAD 2000
 90
        0
280
     0
281
     0
  0
CLASS
  1
LONG_TRANSACTION
  2
AcDbLongTransaction
  3
AutoCAD 2000
 90
        0
280
     0
281
     0
  0
CLASS
  1
LWPOLYLINE
  2
AcDbPolyline
  3
AutoCAD 2000
 90
        0
280
     0
281
     1
  0
CLASS
  1
HATCH
  2
AcDbHatch
  3
AutoCAD 2000
 90
        0
280
     0
281
     1
  0
CLASS
  1
XRECORD
  2
AcDbXrecord
  3
AutoCAD 2000
 90
        0
280
     0
281
     0
  0
ENDSEC
  0
SECTION
  2
TABLES
  0
TABLE
  2
VPORT
  5
8
330
0
100
AcDbSymbolTable
 70
     5
  0
VPORT
  5
1735
330
8
100
AcDbSymbolTableRecord
100
AcDbViewportTableRecord
  2
*ACTIVE
 70
     0
 10
0.0
 20
0.0
 11
1.0
 21
1.0
 12
389.7744583982058
 22
291.3778583188583
 13
0.0
 23
0.0
 14
5.0
 24
5.0
 15
0.0
 25
0.0
 16
0.0
 26
0.0
 36
1.0
 17
0.0
 27
0.0
 37
0.0
 40
632.9854424572424
 41
1.566326530612244
 42
50.0
 43
0.0
 44
0.0
 50
0.0
 51
0.0
 71
     0
 72
   100
 73
     1
 74
     0
 75
     0
 76
     0
 77
     0
 78
     0
  0
ENDTAB
  0
TABLE
  2
LTYPE
  5
5
330
0
100
AcDbSymbolTable
 70
     5
  0
LTYPE
  5
14
330
5
100
AcDbSymbolTableRecord
100
AcDbLinetypeTableRecord
  2
BYBLOCK
 70
     0
  3

 72
    65
 73
     0
 40
0.0
  0
LTYPE
  5
15
330
5
100
AcDbSymbolTableRecord
100
AcDbLinetypeTableRecord
  2
BYLAYER
 70
     0
  3

 72
    65
 73
     0
 40
0.0
  0
LTYPE
  5
16
330
5
100
AcDbSymbolTableRecord
100
AcDbLinetypeTableRecord
  2
CONTINUOUS
 70
     0
  3
Solid line
 72
    65
 73
     0
 40
0.0
  0
LTYPE
  5
115
330
5
100
AcDbSymbolTableRecord
100
AcDbLinetypeTableRecord
  2
PHANTOM
 70
     0
  3
______  __  __  ______  __  __  ______  __  __ 
 72
    65
 73
     6
 40
2.5
 49
1.25
 74
     0
 49
-0.25
 74
     0
 49
0.25
 74
     0
 49
-0.25
 74
     0
 49
0.25
 74
     0
 49
-0.25
 74
     0
  0
LTYPE
  5
135
330
5
100
AcDbSymbolTableRecord
100
AcDbLinetypeTableRecord
  2
CENTER
 70
     0
  3
____ _ ____ _ ____ _ ____ _ ____ _ ____ _ ____ 
 72
    65
 73
     4
 40
2.0
 49
1.25
 74
     0
 49
-0.25
 74
     0
 49
0.25
 74
     0
 49
-0.25
 74
     0
  0
LTYPE
  5
9AB
330
5
100
AcDbSymbolTableRecord
100
AcDbLinetypeTableRecord
  2
HIDDEN
 70
     0
  3
__ __ __ __ __ __ __ __ __ __ __ __ __ __ __ __
 72
    65
 73
     2
 40
0.375
 49
0.25
 74
     0
 49
-0.125
 74
     0
  0
ENDTAB
  0
TABLE
  2
LAYER
  5
2
330
0
100
AcDbSymbolTable
 70
    11
  0
LAYER
  5
F
330
2
100
AcDbSymbolTableRecord
100
AcDbLayerTableRecord
  2
0
 70
     0
 62
     7
  6
CONTINUOUS
  0
LAYER
  5
62
330
2
100
AcDbSymbolTableRecord
100
AcDbLayerTableRecord
  2
VIEWPORT
 70
     0
 62
     7
  6
CONTINUOUS
  0
LAYER
  5
65
330
2
100
AcDbSymbolTableRecord
100
AcDbLayerTableRecord
  2
ZUWAKU
 70
     0
 62
     7
  6
CONTINUOUS
  0
LAYER
  5
143
330
2
100
AcDbSymbolTableRecord
100
AcDbLayerTableRecord
  2
NOKITOI
 70
     0
 62
     8
  6
PHANTOM
  0
LAYER
  5
144
330
2
100
AcDbSymbolTableRecord
100
AcDbLayerTableRecord
  2
SEIHIN
 70
     0
 62
     3
  6
CONTINUOUS
  0
LAYER
  5
145
330
2
100
AcDbSymbolTableRecord
100
AcDbLayerTableRecord
  2
CENTER_L
 70
     0
 62
     1
  6
CENTER
  0
LAYER
  5
3C0
330
2
100
AcDbSymbolTableRecord
100
AcDbLayerTableRecord
  2
SUNPOU
 70
     0
 62
     4
  6
CONTINUOUS
  0
LAYER
  5
3C1
330
2
100
AcDbSymbolTableRecord
100
AcDbLayerTableRecord
  2
DEFPOINTS
 70
     0
 62
     7
  6
CONTINUOUS
  0
LAYER
  5
1274
330
2
100
AcDbSymbolTableRecord
100
AcDbLayerTableRecord
  2
MOJI
 70
     0
 62
     2
  6
CONTINUOUS
  0
ENDTAB
  0
TABLE
  2
STYLE
  5
3
330
0
100
AcDbSymbolTable
 70
     3
  0
STYLE
  5
10
330
3
100
AcDbSymbolTableRecord
100
AcDbTextStyleTableRecord
  2
STANDARD
 70
     0
 40
0.0
 41
1.0
 50
0.0
 71
     0
 42
5.0
  3
TXT
  4
bigfont.shx
  0
STYLE
  5
1275
330
3
100
AcDbSymbolTableRecord
100
AcDbTextStyleTableRecord
  2
ｽﾀｲﾙ1
 70
     0
 40
0.0
 41
1.0
 50
0.0
 71
     0
 42
2.5
  3
MS PGothic.ttf
  4

1001
ACAD
1000
MS PGothic
1071
    32818
  0
ENDTAB
  0
TABLE
  2
VIEW
  5
6
330
0
100
AcDbSymbolTable
 70
     0
  0
ENDTAB
  0
TABLE
  2
UCS
  5
7
330
0
100
AcDbSymbolTable
 70
     0
  0
ENDTAB
  0
TABLE
  2
APPID
  5
9
330
0
100
AcDbSymbolTable
 70
     1
  0
APPID
  5
11
330
9
100
AcDbSymbolTableRecord
100
AcDbRegAppTableRecord
  2
ACAD
 70
     0
  0
ENDTAB
  0
TABLE
  2
DIMSTYLE
  5
A
330
0
100
AcDbSymbolTable
 70
     2
  0
DIMSTYLE
105
1D
102
{ACAD_REACTORS
330
57C
330
589
330
5E0
330
5FA
330
609
330
616
330
626
330
633
330
795
330
798
330
88E
330
8A3
330
9F0
330
9F1
330
9F2
330
A03
330
A05
330
A1B
330
10CF
330
16AB
330
16D2
330
16C5
330
16B8
330
794
330
796
102
}
330
A
100
AcDbSymbolTableRecord
100
AcDbDimStyleTableRecord
  2
STANDARD
 70
     0
  3

  4

  5

  6

  7

 40
1.0
 41
0.18
 42
0.0625
 43
0.38
 44
0.18
 45
0.0
 46
0.0
 47
0.0
 48
0.0
140
0.18
141
0.09
142
0.0
143
25.4
144
1.0
145
0.0
146
1.0
147
0.09
 71
     0
 72
     0
 73
     1
 74
     1
 75
     0
 76
     0
 77
     0
 78
     0
170
     0
171
     2
172
     0
173
     0
174
     0
175
     0
176
     0
177
     0
178
     0
270
     2
271
     4
272
     4
273
     2
274
     2
340
10
275
     0
280
     0
281
     0
282
     0
283
     1
284
     0
285
     0
286
     0
287
     3
288
     0
  0
ENDTAB
  0
TABLE
  2
BLOCK_RECORD
  5
1
330
0
100
AcDbSymbolTable
 70
    39
  0
BLOCK_RECORD
  5
1A
102
{ACAD_XDICTIONARY
360
AD2
102
}
330
1
100
AcDbSymbolTableRecord
100
AcDbBlockTableRecord
  2
*MODEL_SPACE
  0
BLOCK_RECORD
  5
17
102
{ACAD_XDICTIONARY
360
AD0
102
}
330
1
100
AcDbSymbolTableRecord
100
AcDbBlockTableRecord
  2
*PAPER_SPACE
  0
BLOCK_RECORD
  5
6D
330
1
100
AcDbSymbolTableRecord
100
AcDbBlockTableRecord
  2
_OPEN
  0
BLOCK_RECORD
  5
570
330
1
100
AcDbSymbolTableRecord
100
AcDbBlockTableRecord
  2
*D1
  0
BLOCK_RECORD
  5
57D
330
1
100
AcDbSymbolTableRecord
100
AcDbBlockTableRecord
  2
*D2
  0
BLOCK_RECORD
  5
5D4
330
1
100
AcDbSymbolTableRecord
100
AcDbBlockTableRecord
  2
*D3
  0
BLOCK_RECORD
  5
5EE
330
1
100
AcDbSymbolTableRecord
100
AcDbBlockTableRecord
  2
*D4
  0
BLOCK_RECORD
  5
5FB
330
1
100
AcDbSymbolTableRecord
100
AcDbBlockTableRecord
  2
*D5
  0
BLOCK_RECORD
  5
60A
330
1
100
AcDbSymbolTableRecord
100
AcDbBlockTableRecord
  2
*D6
  0
BLOCK_RECORD
  5
618
330
1
100
AcDbSymbolTableRecord
100
AcDbBlockTableRecord
  2
*D7
  0
BLOCK_RECORD
  5
627
330
1
100
AcDbSymbolTableRecord
100
AcDbBlockTableRecord
  2
*D8
  0
BLOCK_RECORD
  5
7D7
330
1
100
AcDbSymbolTableRecord
100
AcDbBlockTableRecord
  2
*D10
  0
BLOCK_RECORD
  5
7EF
330
1
100
AcDbSymbolTableRecord
100
AcDbBlockTableRecord
  2
*D12
  0
BLOCK_RECORD
  5
882
330
1
100
AcDbSymbolTableRecord
100
AcDbBlockTableRecord
  2
*D13
  0
BLOCK_RECORD
  5
897
330
1
100
AcDbSymbolTableRecord
100
AcDbBlockTableRecord
  2
*D14
  0
BLOCK_RECORD
  5
A26
330
1
100
AcDbSymbolTableRecord
100
AcDbBlockTableRecord
  2
*D15
  0
BLOCK_RECORD
  5
A32
330
1
100
AcDbSymbolTableRecord
100
AcDbBlockTableRecord
  2
*D16
  0
BLOCK_RECORD
  5
A3E
330
1
100
AcDbSymbolTableRecord
100
AcDbBlockTableRecord
  2
*D17
  0
BLOCK_RECORD
  5
A4C
330
1
100
AcDbSymbolTableRecord
100
AcDbBlockTableRecord
  2
*D18
  0
BLOCK_RECORD
  5
A58
330
1
100
AcDbSymbolTableRecord
100
AcDbBlockTableRecord
  2
*D19
  0
BLOCK_RECORD
  5
A64
330
1
100
AcDbSymbolTableRecord
100
AcDbBlockTableRecord
  2
*D20
  0
BLOCK_RECORD
  5
10D0
330
1
100
AcDbSymbolTableRecord
100
AcDbBlockTableRecord
  2
*D21
  0
ENDTAB
  0
ENDSEC
  0
SECTION
  2
BLOCKS
  0
BLOCK
  5
1B
330
1A
100
AcDbEntity
  8
0
100
AcDbBlockBegin
  2
*MODEL_SPACE
 70
     0
 10
0.0
 20
0.0
 30
0.0
  3
*MODEL_SPACE
  1

  0
ENDBLK
  5
1C
330
1A
100
AcDbEntity
  8
0
100
AcDbBlockEnd
  0
BLOCK
  5
18
330
17
100
AcDbEntity
 67
     1
  8
0
100
AcDbBlockBegin
  2
*PAPER_SPACE
 70
     0
 10
0.0
 20
0.0
 30
0.0
  3
*PAPER_SPACE
  1

  0
ENDBLK
  5
19
330
17
100
AcDbEntity
 67
     1
  8
0
100
AcDbBlockEnd
  0
BLOCK
  5
6E
330
6D
100
AcDbEntity
  8
0
100
AcDbBlockBegin
  2
_OPEN
 70
     0
 10
0.0
 20
0.0
 30
0.0
  3
_OPEN
  1

  0
LINE
  5
6F
330
6D
100
AcDbEntity
  8
0
  6
BYBLOCK
 62
     0
100
AcDbLine
 10
-1.0
 20
0.1666666666666666
 30
0.0
 11
0.0
 21
0.0
 31
0.0
  0
LINE
  5
70
330
6D
100
AcDbEntity
  8
0
  6
BYBLOCK
 62
     0
100
AcDbLine
 10
0.0
 20
0.0
 30
0.0
 11
-1.0
 21
-0.1666666666666666
 31
0.0
  0
LINE
  5
71
330
6D
100
AcDbEntity
  8
0
  6
BYBLOCK
 62
     0
100
AcDbLine
 10
0.0
 20
0.0
 30
0.0
 11
-1.0
 21
0.0
 31
0.0
  0
ENDBLK
  5
72
330
6D
100
AcDbEntity
  8
0
100
AcDbBlockEnd
  0
BLOCK
  5
8A4
330
570
100
AcDbEntity
  8
0
100
AcDbBlockBegin
  2
*D1
 70
     1
 10
0.0
 20
0.0
 30
0.0
  3
*D1
  1

  0
LINE
  5
1339
330
570
100
AcDbEntity
  8
SUNPOU
100
AcDbLine
 10
173.5460319431487
 20
388.3010732496836
 30
0.0
 11
173.5460319431487
 21
349.4898086232997
 31
0.0
  0
LINE
  5
133A
330
570
100
AcDbEntity
  8
SUNPOU
100
AcDbLine
 10
258.5460319431486
 20
388.3010732496836
 30
0.0
 11
258.5460319431486
 21
349.4898086232997
 31
0.0
  0
LINE
  5
133B
330
570
100
AcDbEntity
  8
SUNPOU
100
AcDbLine
 10
180.5460319431487
 20
352.4898086232997
 30
0.0
 11
251.5460319431487
 21
352.4898086232997
 31
0.0
  0
INSERT
  5
133C
330
570
100
AcDbEntity
  8
SUNPOU
100
AcDbBlockReference
  2
_OPEN
 10
173.5460319431487
 20
352.4898086232997
 30
0.0
 41
7.0
 42
7.0
 43
7.0
 50
180.0
  0
INSERT
  5
133D
330
570
100
AcDbEntity
  8
SUNPOU
100
AcDbBlockReference
  2
_OPEN
 10
258.5460319431486
 20
352.4898086232997
 30
0.0
 41
7.0
 42
7.0
 43
7.0
  0
MTEXT
  5
133E
330
570
100
AcDbEntity
  8
SUNPOU
100
AcDbMText
 10
216.0460319431487
 20
357.4898086232997
 30
0.0
 40
6.0
 41
0.0
 71
     5
 72
     1
  1
\A1;85
1001
ACAD
1000
MTEXTBEGIN
1070
    73
1070
     1
1070
    44
1040
1.0
1070
    74
1070
     0
1000
MTEXTEND
  0
POINT
  5
133F
330
570
100
AcDbEntity
  8
DEFPOINTS
 62
     0
100
AcDbPoint
 10
173.5460319431487
 20
394.3010732496836
 30
0.0
  0
POINT
  5
1340
330
570
100
AcDbEntity
  8
DEFPOINTS
 62
     0
100
AcDbPoint
 10
258.5460319431486
 20
394.3010732496836
 30
0.0
  0
POINT
  5
1341
330
570
100
AcDbEntity
  8
DEFPOINTS
 62
     0
100
AcDbPoint
 10
258.5460319431486
 20
352.4898086232997
 30
0.0
  0
ENDBLK
  5
8AE
330
570
100
AcDbEntity
  8
0
100
AcDbBlockEnd
  0
BLOCK
  5
8AF
330
57D
100
AcDbEntity
  8
0
100
AcDbBlockBegin
  2
*D2
 70
     1
 10
0.0
 20
0.0
 30
0.0
  3
*D2
  1

  0
LINE
  5
1342
330
57D
100
AcDbEntity
  8
SUNPOU
100
AcDbLine
 10
258.5460319431486
 20
388.3010732496836
 30
0.0
 11
258.5460319431486
 21
349.4898086232997
 31
0.0
  0
LINE
  5
1343
330
57D
100
AcDbEntity
  8
SUNPOU
100
AcDbLine
 10
331.0460319431486
 20
371.4035765496837
 30
0.0
 11
331.0460319431486
 21
349.4898086232997
 31
0.0
  0
LINE
  5
1344
330
57D
100
AcDbEntity
  8
SUNPOU
100
AcDbLine
 10
265.5460319431487
 20
352.4898086232997
 30
0.0
 11
324.0460319431487
 21
352.4898086232997
 31
0.0
  0
INSERT
  5
1345
330
57D
100
AcDbEntity
  8
SUNPOU
100
AcDbBlockReference
  2
_OPEN
 10
258.5460319431486
 20
352.4898086232997
 30
0.0
 41
7.0
 42
7.0
 43
7.0
 50
180.0
  0
INSERT
  5
1346
330
57D
100
AcDbEntity
  8
SUNPOU
100
AcDbBlockReference
  2
_OPEN
 10
331.0460319431486
 20
352.4898086232997
 30
0.0
 41
7.0
 42
7.0
 43
7.0
  0
MTEXT
  5
1347
330
57D
100
AcDbEntity
  8
SUNPOU
100
AcDbMText
 10
294.7960319431487
 20
357.4898086232997
 30
0.0
 40
6.0
 41
0.0
 71
     5
 72
     1
  1
\A1;※a73
1001
ACAD
1000
MTEXTBEGIN
1070
    73
1070
     1
1070
    44
1040
1.0
1070
    74
1070
     0
1000
MTEXTEND
  0
POINT
  5
1348
330
57D
100
AcDbEntity
  8
DEFPOINTS
 62
     0
100
AcDbPoint
 10
258.5460319431486
 20
394.3010732496836
 30
0.0
  0
POINT
  5
1349
330
57D
100
AcDbEntity
  8
DEFPOINTS
 62
     0
100
AcDbPoint
 10
331.0460319431486
 20
377.4035765496837
 30
0.0
  0
POINT
  5
134A
330
57D
100
AcDbEntity
  8
DEFPOINTS
 62
     0
100
AcDbPoint
 10
331.0460319431486
 20
352.4898086232997
 30
0.0
  0
ENDBLK
  5
8B9
330
57D
100
AcDbEntity
  8
0
100
AcDbBlockEnd
  0
BLOCK
  5
634
330
5D4
100
AcDbEntity
  8
0
100
AcDbBlockBegin
  2
*D3
 70
     1
 10
0.0
 20
0.0
 30
0.0
  3
*D3
  1

  0
LINE
  5
1330
330
5D4
100
AcDbEntity
  8
SUNPOU
100
AcDbLine
 10
331.0460319431486
 20
293.5920165920346
 30
0.0
 11
331.0460319431486
 21
323.4658028098015
 31
0.0
  0
LINE
  5
1331
330
5D4
100
AcDbEntity
  8
SUNPOU
100
AcDbLine
 10
101.0460319431487
 20
293.5920165920346
 30
0.0
 11
101.0460319431487
 21
323.4658028098015
 31
0.0
  0
LINE
  5
1332
330
5D4
100
AcDbEntity
  8
SUNPOU
100
AcDbLine
 10
324.0460319431487
 20
320.4658028098015
 30
0.0
 11
108.0460319431487
 21
320.4658028098015
 31
0.0
  0
INSERT
  5
1333
330
5D4
100
AcDbEntity
  8
SUNPOU
100
AcDbBlockReference
  2
_OPEN
 10
331.0460319431486
 20
320.4658028098015
 30
0.0
 41
7.0
 42
7.0
 43
7.0
  0
INSERT
  5
1334
330
5D4
100
AcDbEntity
  8
SUNPOU
100
AcDbBlockReference
  2
_OPEN
 10
101.0460319431487
 20
320.4658028098015
 30
0.0
 41
7.0
 42
7.0
 43
7.0
 50
180.0
  0
MTEXT
  5
1335
330
5D4
100
AcDbEntity
  8
SUNPOU
100
AcDbMText
 10
216.0460319431487
 20
325.4658028098015
 30
0.0
 40
6.0
 41
0.0
 71
     5
 72
     1
  1
\A1;230
1001
ACAD
1000
MTEXTBEGIN
1070
    73
1070
     1
1070
    44
1040
1.0
1070
    74
1070
     0
1000
MTEXTEND
  0
POINT
  5
1336
330
5D4
100
AcDbEntity
  8
DEFPOINTS
 62
     0
100
AcDbPoint
 10
331.0460319431486
 20
287.5920165920346
 30
0.0
  0
POINT
  5
1337
330
5D4
100
AcDbEntity
  8
DEFPOINTS
 62
     0
100
AcDbPoint
 10
101.0460319431487
 20
287.5920165920346
 30
0.0
  0
POINT
  5
1338
330
5D4
100
AcDbEntity
  8
DEFPOINTS
 62
     0
100
AcDbPoint
 10
101.0460319431487
 20
320.4658028098015
 30
0.0
  0
ENDBLK
  5
63E
330
5D4
100
AcDbEntity
  8
0
100
AcDbBlockEnd
  0
BLOCK
  5
5EF
330
5EE
100
AcDbEntity
  8
0
100
AcDbBlockBegin
  2
*D4
 70
     1
 10
0.0
 20
0.0
 30
0.0
  3
*D4
  1

  0
LINE
  5
1366
330
5EE
100
AcDbEntity
  8
SUNPOU
100
AcDbLine
 10
478.9009648431488
 20
287.5920165920346
 30
0.0
 11
431.0532895246801
 21
287.5920165920346
 31
0.0
  0
LINE
  5
1367
330
5EE
100
AcDbEntity
  8
SUNPOU
100
AcDbLine
 10
540.0460319431487
 20
171.6499619583781
 30
0.0
 11
431.0532895246801
 21
171.6499619583782
 31
0.0
  0
LINE
  5
1368
330
5EE
100
AcDbEntity
  8
SUNPOU
100
AcDbLine
 10
434.0532895246801
 20
280.5920165920346
 30
0.0
 11
434.0532895246801
 21
178.6499619583782
 31
0.0
  0
INSERT
  5
1369
330
5EE
100
AcDbEntity
  8
SUNPOU
100
AcDbBlockReference
  2
_OPEN
 10
434.0532895246801
 20
287.5920165920346
 30
0.0
 41
7.0
 42
7.0
 43
7.0
 50
90.0
  0
INSERT
  5
136A
330
5EE
100
AcDbEntity
  8
SUNPOU
100
AcDbBlockReference
  2
_OPEN
 10
434.0532895246801
 20
171.6499619583782
 30
0.0
 41
7.0
 42
7.0
 43
7.0
 50
270.0
  0
MTEXT
  5
136B
330
5EE
100
AcDbEntity
  8
SUNPOU
100
AcDbMText
 10
429.05328952468
 20
229.6209892752064
 30
0.0
 40
6.0
 41
0.0
 71
     5
 72
     1
  1
\A1;116
 11
0.0000000000000001
 21
1.0
 31
0.0
1001
ACAD
1000
MTEXTBEGIN
1070
    73
1070
     1
1070
    44
1040
1.0
1070
    74
1070
     0
1000
MTEXTEND
  0
POINT
  5
136C
330
5EE
100
AcDbEntity
  8
DEFPOINTS
 62
     0
100
AcDbPoint
 10
484.9009648431488
 20
287.5920165920346
 30
0.0
  0
POINT
  5
136D
330
5EE
100
AcDbEntity
  8
DEFPOINTS
 62
     0
100
AcDbPoint
 10
546.0460319431486
 20
171.6499619583781
 30
0.0
  0
POINT
  5
136E
330
5EE
100
AcDbEntity
  8
DEFPOINTS
 62
     0
100
AcDbPoint
 10
434.0532895246801
 20
171.6499619583782
 30
0.0
  0
ENDBLK
  5
5F9
330
5EE
100
AcDbEntity
  8
0
100
AcDbBlockEnd
  0
BLOCK
  5
5FC
330
5FB
100
AcDbEntity
  8
0
100
AcDbBlockBegin
  2
*D5
 70
     1
 10
0.0
 20
0.0
 30
0.0
  3
*D5
  1

  0
LINE
  5
139E
330
5FB
100
AcDbEntity
  8
SUNPOU
100
AcDbLine
 10
540.0460319431487
 20
171.6499619583781
 30
0.0
 11
431.0532895246801
 21
171.6499619583782
 31
0.0
  0
LINE
  5
139F
330
5FB
100
AcDbEntity
  8
SUNPOU
100
AcDbLine
 10
508.4831390431487
 20
151.6499619920345
 30
0.0
 11
431.0532895246801
 21
151.6499619920346
 31
0.0
  0
LINE
  5
13A0
330
5FB
100
AcDbEntity
  8
SUNPOU
100
AcDbLine
 10
434.0532895246801
 20
164.6499619583782
 30
0.0
 11
434.0532895246801
 21
158.6499619920346
 31
0.0
  0
INSERT
  5
13A1
330
5FB
100
AcDbEntity
  8
SUNPOU
100
AcDbBlockReference
  2
_OPEN
 10
434.0532895246801
 20
171.6499619583782
 30
0.0
 41
7.0
 42
7.0
 43
7.0
 50
90.0
  0
INSERT
  5
13A2
330
5FB
100
AcDbEntity
  8
SUNPOU
100
AcDbBlockReference
  2
_OPEN
 10
434.0532895246801
 20
151.6499619920346
 30
0.0
 41
7.0
 42
7.0
 43
7.0
 50
270.0
  0
MTEXT
  5
13A3
330
5FB
100
AcDbEntity
  8
SUNPOU
100
AcDbMText
 10
429.05328952468
 20
161.6499619752064
 30
0.0
 40
6.0
 41
0.0
 71
     5
 72
     1
  1
\A1;20
 11
0.0000000000000001
 21
1.0
 31
0.0
1001
ACAD
1000
MTEXTBEGIN
1070
    73
1070
     1
1070
    44
1040
1.0
1070
    74
1070
     0
1000
MTEXTEND
  0
POINT
  5
13A4
330
5FB
100
AcDbEntity
  8
DEFPOINTS
 62
     0
100
AcDbPoint
 10
546.0460319431486
 20
171.6499619583781
 30
0.0
  0
POINT
  5
13A5
330
5FB
100
AcDbEntity
  8
DEFPOINTS
 62
     0
100
AcDbPoint
 10
514.4831390431486
 20
151.6499619920345
 30
0.0
  0
POINT
  5
13A6
330
5FB
100
AcDbEntity
  8
DEFPOINTS
 62
     0
100
AcDbPoint
 10
434.0532895246801
 20
151.6499619920346
 30
0.0
  0
ENDBLK
  5
608
330
5FB
100
AcDbEntity
  8
0
100
AcDbBlockEnd
  0
BLOCK
  5
60B
330
60A
100
AcDbEntity
  8
0
100
AcDbBlockBegin
  2
*D6
 70
     1
 10
0.0
 20
0.0
 30
0.0
  3
*D6
  1

  0
LINE
  5
136F
330
60A
100
AcDbEntity
  8
SUNPOU
100
AcDbLine
 10
616.0793786431486
 20
246.1499619642697
 30
0.0
 11
662.0244150501539
 21
246.1499619642697
 31
0.0
  0
LINE
  5
1370
330
60A
100
AcDbEntity
  8
SUNPOU
100
AcDbLine
 10
552.0460319431487
 20
171.6499619583781
 30
0.0
 11
662.0244150501539
 21
171.6499619583781
 31
0.0
  0
LINE
  5
1371
330
60A
100
AcDbEntity
  8
SUNPOU
100
AcDbLine
 10
659.0244150501539
 20
239.1499619642697
 30
0.0
 11
659.0244150501539
 21
178.6499619583781
 31
0.0
  0
INSERT
  5
1372
330
60A
100
AcDbEntity
  8
SUNPOU
100
AcDbBlockReference
  2
_OPEN
 10
659.0244150501539
 20
246.1499619642697
 30
0.0
 41
7.0
 42
7.0
 43
7.0
 50
90.0
  0
INSERT
  5
1373
330
60A
100
AcDbEntity
  8
SUNPOU
100
AcDbBlockReference
  2
_OPEN
 10
659.0244150501539
 20
171.6499619583781
 30
0.0
 41
7.0
 42
7.0
 43
7.0
 50
270.0
  0
MTEXT
  5
1374
330
60A
100
AcDbEntity
  8
SUNPOU
100
AcDbMText
 10
654.0244150501539
 20
208.899961961324
 30
0.0
 40
6.0
 41
0.0
 71
     5
 72
     1
  1
\A1;75
 11
0.0000000000000001
 21
1.0
 31
0.0
1001
ACAD
1000
MTEXTBEGIN
1070
    73
1070
     1
1070
    44
1040
1.0
1070
    74
1070
     0
1000
MTEXTEND
  0
POINT
  5
1375
330
60A
100
AcDbEntity
  8
DEFPOINTS
 62
     0
100
AcDbPoint
 10
610.0793786431486
 20
246.1499619642697
 30
0.0
  0
POINT
  5
1376
330
60A
100
AcDbEntity
  8
DEFPOINTS
 62
     0
100
AcDbPoint
 10
546.0460319431486
 20
171.6499619583781
 30
0.0
  0
POINT
  5
1377
330
60A
100
AcDbEntity
  8
DEFPOINTS
 62
     0
100
AcDbPoint
 10
659.0244150501539
 20
171.6499619583781
 30
0.0
  0
ENDBLK
  5
615
330
60A
100
AcDbEntity
  8
0
100
AcDbBlockEnd
  0
BLOCK
  5
619
330
618
100
AcDbEntity
  8
0
100
AcDbBlockBegin
  2
*D7
 70
     1
 10
0.0
 20
0.0
 30
0.0
  3
*D7
  1

  0
LINE
  5
16E0
330
618
100
AcDbEntity
  8
SUNPOU
100
AcDbLine
 10
546.0460319431486
 20
188.4499619425263
 30
0.0
 11
546.0460319431486
 21
207.2844109700856
 31
0.0
  0
LINE
  5
16E1
330
618
100
AcDbEntity
  8
SUNPOU
100
AcDbLine
 10
562.8257966931487
 20
167.0847883301814
 30
0.0
 11
562.8257966931487
 21
207.2844109700856
 31
0.0
  0
LINE
  5
16E2
330
618
100
AcDbEntity
  8
SUNPOU
100
AcDbLine
 10
539.0460319431487
 20
204.2844109700856
 30
0.0
 11
532.0460319431487
 21
204.2844109700856
 31
0.0
  0
LINE
  5
16E3
330
618
100
AcDbEntity
  8
SUNPOU
100
AcDbLine
 10
569.8257966931487
 20
204.2844109700856
 30
0.0
 11
576.8257966931487
 21
204.2844109700856
 31
0.0
  0
LINE
  5
16E4
330
618
100
AcDbEntity
  8
SUNPOU
100
AcDbLine
 10
546.0460319431486
 20
204.2844109700856
 30
0.0
 11
562.8257966931487
 21
204.2844109700856
 31
0.0
  0
INSERT
  5
16E5
330
618
100
AcDbEntity
  8
SUNPOU
100
AcDbBlockReference
  2
_OPEN
 10
546.0460319431486
 20
204.2844109700856
 30
0.0
 41
7.0
 42
7.0
 43
7.0
  0
INSERT
  5
16E6
330
618
100
AcDbEntity
  8
SUNPOU
100
AcDbBlockReference
  2
_OPEN
 10
562.8257966931487
 20
204.2844109700856
 30
0.0
 41
7.0
 42
7.0
 43
7.0
 50
180.0
  0
MTEXT
  5
16E7
330
618
100
AcDbEntity
  8
SUNPOU
100
AcDbMText
 10
554.4359143181487
 20
209.2844109700856
 30
0.0
 40
6.0
 41
0.0
 71
     5
 72
     1
  1
\A1;17
1001
ACAD
1000
MTEXTBEGIN
1070
    73
1070
     1
1070
    44
1040
1.0
1070
    74
1070
     0
1000
MTEXTEND
  0
POINT
  5
16E8
330
618
100
AcDbEntity
  8
DEFPOINTS
 62
     0
100
AcDbPoint
 10
546.0460319431486
 20
182.4499619425263
 30
0.0
  0
POINT
  5
16E9
330
618
100
AcDbEntity
  8
DEFPOINTS
 62
     0
100
AcDbPoint
 10
562.8257966931487
 20
161.0847883301814
 30
0.0
  0
POINT
  5
16EA
330
618
100
AcDbEntity
  8
DEFPOINTS
 62
     0
100
AcDbPoint
 10
562.8257966931487
 20
204.2844109700856
 30
0.0
  0
ENDBLK
  5
625
330
618
100
AcDbEntity
  8
0
100
AcDbBlockEnd
  0
BLOCK
  5
63F
330
627
100
AcDbEntity
  8
0
100
AcDbBlockBegin
  2
*D8
 70
     1
 10
0.0
 20
0.0
 30
0.0
  3
*D8
  1

  0
LINE
  5
135D
330
627
100
AcDbEntity
  8
SUNPOU
100
AcDbLine
 10
466.6119748591317
 20
202.7069524911969
 30
0.0
 11
466.6119748591317
 21
323.4658028098015
 31
0.0
  0
LINE
  5
135E
330
627
100
AcDbEntity
  8
SUNPOU
100
AcDbLine
 10
617.5692666431487
 20
244.2606331920345
 30
0.0
 11
617.5692666431487
 21
323.4658028098015
 31
0.0
  0
LINE
  5
135F
330
627
100
AcDbEntity
  8
SUNPOU
100
AcDbLine
 10
473.6119748591317
 20
320.4658028098015
 30
0.0
 11
610.5692666431487
 21
320.4658028098015
 31
0.0
  0
INSERT
  5
1360
330
627
100
AcDbEntity
  8
SUNPOU
100
AcDbBlockReference
  2
_OPEN
 10
466.6119748591317
 20
320.4658028098015
 30
0.0
 41
7.0
 42
7.0
 43
7.0
 50
180.0
  0
INSERT
  5
1361
330
627
100
AcDbEntity
  8
SUNPOU
100
AcDbBlockReference
  2
_OPEN
 10
617.5692666431487
 20
320.4658028098015
 30
0.0
 41
7.0
 42
7.0
 43
7.0
  0
MTEXT
  5
1362
330
627
100
AcDbEntity
  8
SUNPOU
100
AcDbMText
 10
542.0906207511402
 20
325.4658028098015
 30
0.0
 40
6.0
 41
0.0
 71
     5
 72
     1
  1
\A1;151
1001
ACAD
1000
MTEXTBEGIN
1070
    73
1070
     1
1070
    44
1040
1.0
1070
    74
1070
     0
1000
MTEXTEND
  0
POINT
  5
1363
330
627
100
AcDbEntity
  8
DEFPOINTS
 62
     0
100
AcDbPoint
 10
466.6119748591317
 20
196.7069524911969
 30
0.0
  0
POINT
  5
1364
330
627
100
AcDbEntity
  8
DEFPOINTS
 62
     0
100
AcDbPoint
 10
617.5692666431487
 20
238.2606331920345
 30
0.0
  0
POINT
  5
1365
330
627
100
AcDbEntity
  8
DEFPOINTS
 62
     0
100
AcDbPoint
 10
617.5692666431487
 20
320.4658028098015
 30
0.0
  0
ENDBLK
  5
649
330
627
100
AcDbEntity
  8
0
100
AcDbBlockEnd
  0
BLOCK
  5
83A
330
7D7
100
AcDbEntity
  8
0
100
AcDbBlockBegin
  2
*D10
 70
     1
 10
0.0
 20
0.0
 30
0.0
  3
*D10
  1

  0
LINE
  5
172B
330
7D7
100
AcDbEntity
  8
SUNPOU
100
AcDbLine
 10
519.5918293199485
 20
110.6500619920348
 30
0.0
 11
519.5918293199485
 21
87.32530091941638
 31
0.0
  0
LINE
  5
172C
330
7D7
100
AcDbEntity
  8
SUNPOU
100
AcDbLine
 10
608.3919293199487
 20
110.6498619920348
 30
0.0
 11
608.3919293199487
 21
87.32530091941638
 31
0.0
  0
LINE
  5
172D
330
7D7
100
AcDbEntity
  8
SUNPOU
100
AcDbLine
 10
526.5918293199486
 20
90.32530091941637
 30
0.0
 11
601.3919293199487
 21
90.32530091941637
 31
0.0
  0
INSERT
  5
172E
330
7D7
100
AcDbEntity
  8
SUNPOU
100
AcDbBlockReference
  2
_OPEN
 10
519.5918293199485
 20
90.32530091941637
 30
0.0
 41
7.0
 42
7.0
 43
7.0
 50
180.0
  0
INSERT
  5
172F
330
7D7
100
AcDbEntity
  8
SUNPOU
100
AcDbBlockReference
  2
_OPEN
 10
608.3919293199487
 20
90.32530091941637
 30
0.0
 41
7.0
 42
7.0
 43
7.0
  0
MTEXT
  5
1730
330
7D7
100
AcDbEntity
  8
SUNPOU
100
AcDbMText
 10
563.9918793199487
 20
95.32530091941637
 30
0.0
 40
6.0
 41
0.0
 71
     5
 72
     1
  1
\A1;89
1001
ACAD
1000
MTEXTBEGIN
1070
    73
1070
     1
1070
    44
1040
1.0
1070
    74
1070
     0
1000
MTEXTEND
  0
POINT
  5
1731
330
7D7
100
AcDbEntity
  8
DEFPOINTS
 62
     0
100
AcDbPoint
 10
519.5918293199485
 20
116.6500619920348
 30
0.0
  0
POINT
  5
1732
330
7D7
100
AcDbEntity
  8
DEFPOINTS
 62
     0
100
AcDbPoint
 10
608.3919293199487
 20
116.6498619920348
 30
0.0
  0
POINT
  5
1733
330
7D7
100
AcDbEntity
  8
DEFPOINTS
 62
     0
100
AcDbPoint
 10
608.3919293199487
 20
90.32530091941637
 30
0.0
  0
ENDBLK
  5
844
330
7D7
100
AcDbEntity
  8
0
100
AcDbBlockEnd
  0
BLOCK
  5
850
330
7EF
100
AcDbEntity
  8
0
100
AcDbBlockBegin
  2
*D12
 70
     1
 10
0.0
 20
0.0
 30
0.0
  3
*D12
  1

  0
LINE
  5
16FD
330
7EF
100
AcDbEntity
  8
SUNPOU
100
AcDbLine
 10
511.9886319431487
 20
151.6499389920346
 30
0.0
 11
431.0532895246802
 21
151.6499389920346
 31
0.0
  0
LINE
  5
16FE
330
7EF
100
AcDbEntity
  8
SUNPOU
100
AcDbLine
 10
514.0918293199486
 20
115.6500619920345
 30
0.0
 11
431.0532895246801
 21
115.6500619920346
 31
0.0
  0
LINE
  5
16FF
330
7EF
100
AcDbEntity
  8
SUNPOU
100
AcDbLine
 10
434.0532895246802
 20
144.6499389920346
 30
0.0
 11
434.0532895246801
 21
122.6500619920345
 31
0.0
  0
INSERT
  5
1700
330
7EF
100
AcDbEntity
  8
SUNPOU
100
AcDbBlockReference
  2
_OPEN
 10
434.0532895246802
 20
151.6499389920346
 30
0.0
 41
7.0
 42
7.0
 43
7.0
 50
90.0
  0
INSERT
  5
1701
330
7EF
100
AcDbEntity
  8
SUNPOU
100
AcDbBlockReference
  2
_OPEN
 10
434.0532895246801
 20
115.6500619920346
 30
0.0
 41
7.0
 42
7.0
 43
7.0
 50
270.0
  0
MTEXT
  5
1702
330
7EF
100
AcDbEntity
  8
SUNPOU
100
AcDbMText
 10
429.0532895246801
 20
133.6500004920346
 30
0.0
 40
6.0
 41
0.0
 71
     5
 72
     1
  1
\A1;36
 11
0.0000000000000001
 21
1.0
 31
0.0
1001
ACAD
1000
MTEXTBEGIN
1070
    73
1070
     1
1070
    44
1040
1.0
1070
    74
1070
     0
1000
MTEXTEND
  0
POINT
  5
1703
330
7EF
100
AcDbEntity
  8
DEFPOINTS
 62
     0
100
AcDbPoint
 10
517.9886319431487
 20
151.6499389920346
 30
0.0
  0
POINT
  5
1704
330
7EF
100
AcDbEntity
  8
DEFPOINTS
 62
     0
100
AcDbPoint
 10
520.0918293199485
 20
115.6500619920345
 30
0.0
  0
POINT
  5
1705
330
7EF
100
AcDbEntity
  8
DEFPOINTS
 62
     0
100
AcDbPoint
 10
434.0532895246801
 20
115.6500619920346
 30
0.0
  0
ENDBLK
  5
85A
330
7EF
100
AcDbEntity
  8
0
100
AcDbBlockEnd
  0
BLOCK
  5
883
330
882
100
AcDbEntity
  8
0
100
AcDbBlockBegin
  2
*D13
 70
     1
 10
0.0
 20
0.0
 30
0.0
  3
*D13
  1

  0
LINE
  5
1706
330
882
100
AcDbEntity
  8
SUNPOU
100
AcDbLine
 10
478.9009648431488
 20
287.5920165920346
 30
0.0
 11
415.2156589062301
 21
287.5920165920346
 31
0.0
  0
LINE
  5
1707
330
882
100
AcDbEntity
  8
SUNPOU
100
AcDbLine
 10
508.0918293199486
 20
115.6500619920345
 30
0.0
 11
415.2156589062301
 21
115.6500619920346
 31
0.0
  0
LINE
  5
1708
330
882
100
AcDbEntity
  8
SUNPOU
100
AcDbLine
 10
418.2156589062302
 20
280.5920165920346
 30
0.0
 11
418.2156589062301
 21
122.6500619920345
 31
0.0
  0
INSERT
  5
1709
330
882
100
AcDbEntity
  8
SUNPOU
100
AcDbBlockReference
  2
_OPEN
 10
418.2156589062302
 20
287.5920165920346
 30
0.0
 41
7.0
 42
7.0
 43
7.0
 50
90.0
  0
INSERT
  5
170A
330
882
100
AcDbEntity
  8
SUNPOU
100
AcDbBlockReference
  2
_OPEN
 10
418.2156589062301
 20
115.6500619920346
 30
0.0
 41
7.0
 42
7.0
 43
7.0
 50
270.0
  0
MTEXT
  5
170B
330
882
100
AcDbEntity
  8
SUNPOU
100
AcDbMText
 10
413.2156589062301
 20
201.6210392920346
 30
0.0
 40
6.0
 41
0.0
 71
     5
 72
     1
  1
\A1;172
 11
0.0000000000000001
 21
1.0
 31
0.0
1001
ACAD
1000
MTEXTBEGIN
1070
    73
1070
     1
1070
    44
1040
1.0
1070
    74
1070
     0
1000
MTEXTEND
  0
POINT
  5
170C
330
882
100
AcDbEntity
  8
DEFPOINTS
 62
     0
100
AcDbPoint
 10
484.9009648431488
 20
287.5920165920346
 30
0.0
  0
POINT
  5
170D
330
882
100
AcDbEntity
  8
DEFPOINTS
 62
     0
100
AcDbPoint
 10
514.0918293199486
 20
115.6500619920345
 30
0.0
  0
POINT
  5
170E
330
882
100
AcDbEntity
  8
DEFPOINTS
 62
     0
100
AcDbPoint
 10
418.2156589062301
 20
115.6500619920346
 30
0.0
  0
ENDBLK
  5
88D
330
882
100
AcDbEntity
  8
0
100
AcDbBlockEnd
  0
BLOCK
  5
898
330
897
100
AcDbEntity
  8
0
100
AcDbBlockBegin
  2
*D14
 70
     1
 10
0.0
 20
0.0
 30
0.0
  3
*D14
  1

  0
LINE
  5
134B
330
897
100
AcDbEntity
  8
SUNPOU
100
AcDbLine
 10
298.0460319431486
 20
423.1224634496836
 30
0.0
 11
298.0460319431486
 21
427.6203172840121
 31
0.0
  0
LINE
  5
134C
330
897
100
AcDbEntity
  8
SUNPOU
100
AcDbLine
 10
331.0460319431486
 20
423.1224634496836
 30
0.0
 11
331.0460319431486
 21
427.6203172840121
 31
0.0
  0
LINE
  5
134D
330
897
100
AcDbEntity
  8
SUNPOU
100
AcDbLine
 10
305.0460319431487
 20
424.6203172840121
 30
0.0
 11
324.0460319431487
 21
424.6203172840121
 31
0.0
  0
INSERT
  5
134E
330
897
100
AcDbEntity
  8
SUNPOU
100
AcDbBlockReference
  2
_OPEN
 10
298.0460319431486
 20
424.6203172840121
 30
0.0
 41
7.0
 42
7.0
 43
7.0
 50
180.0
  0
INSERT
  5
134F
330
897
100
AcDbEntity
  8
SUNPOU
100
AcDbBlockReference
  2
_OPEN
 10
331.0460319431486
 20
424.6203172840121
 30
0.0
 41
7.0
 42
7.0
 43
7.0
  0
MTEXT
  5
1350
330
897
100
AcDbEntity
  8
SUNPOU
100
AcDbMText
 10
314.5460319431486
 20
429.6203172840121
 30
0.0
 40
6.0
 41
0.0
 71
     5
 72
     1
  1
\A1;33
1001
ACAD
1000
MTEXTBEGIN
1070
    73
1070
     1
1070
    44
1040
1.0
1070
    74
1070
     0
1000
MTEXTEND
  0
POINT
  5
1351
330
897
100
AcDbEntity
  8
DEFPOINTS
 62
     0
100
AcDbPoint
 10
298.0460319431486
 20
417.1224634496836
 30
0.0
  0
POINT
  5
1352
330
897
100
AcDbEntity
  8
DEFPOINTS
 62
     0
100
AcDbPoint
 10
331.0460319431486
 20
417.1224634496836
 30
0.0
  0
POINT
  5
1353
330
897
100
AcDbEntity
  8
DEFPOINTS
 62
     0
100
AcDbPoint
 10
331.0460319431486
 20
424.6203172840121
 30
0.0
  0
ENDBLK
  5
8A2
330
897
100
AcDbEntity
  8
0
100
AcDbBlockEnd
  0
BLOCK
  5
A30
330
A26
100
AcDbEntity
  8
0
100
AcDbBlockBegin
  2
*D15
 70
     1
 10
0.0
 20
0.0
 30
0.0
  3
*D15
  1

  0
LINE
  5
13DF
330
A26
100
AcDbEntity
  8
SUNPOU
100
AcDbLine
 10
604.8839663049236
 20
443.4928522153491
 30
0.0
 11
587.8504754001912
 21
443.4928522153491
 31
0.0
  0
LINE
  5
13E0
330
A26
100
AcDbEntity
  8
SUNPOU
100
AcDbLine
 10
604.7375196955167
 20
430.6392988247559
 30
0.0
 11
587.8504754001912
 21
430.6392988247559
 31
0.0
  0
LINE
  5
13E1
330
A26
100
AcDbEntity
  8
SUNPOU
100
AcDbLine
 10
589.3504754001912
 20
440.4928522153491
 30
0.0
 11
589.3504754001912
 21
433.6392988247559
 31
0.0
  0
INSERT
  5
13E2
330
A26
100
AcDbEntity
  8
SUNPOU
100
AcDbBlockReference
  2
_OPEN
 10
589.3504754001912
 20
443.4928522153491
 30
0.0
 41
3.0
 42
3.0
 43
3.0
 50
90.0
  0
INSERT
  5
13E3
330
A26
100
AcDbEntity
  8
SUNPOU
100
AcDbBlockReference
  2
_OPEN
 10
589.3504754001912
 20
430.6392988247559
 30
0.0
 41
3.0
 42
3.0
 43
3.0
 50
270.0
  0
MTEXT
  5
13E4
330
A26
100
AcDbEntity
  8
SUNPOU
100
AcDbMText
 10
585.3504754001911
 20
437.0660755200525
 30
0.0
 40
6.0
 41
0.0
 71
     5
 72
     1
  1
\A1;13
 11
0.0000000000000001
 21
1.0
 31
0.0
1001
ACAD
1000
MTEXTBEGIN
1070
    73
1070
     1
1070
    44
1040
1.0
1070
    74
1070
     0
1000
MTEXTEND
  0
POINT
  5
13E5
330
A26
100
AcDbEntity
  8
DEFPOINTS
 62
     0
100
AcDbPoint
 10
607.8839663049235
 20
443.4928522153491
 30
0.0
  0
POINT
  5
13E6
330
A26
100
AcDbEntity
  8
DEFPOINTS
 62
     0
100
AcDbPoint
 10
607.7375196955167
 20
430.6392988247559
 30
0.0
  0
POINT
  5
13E7
330
A26
100
AcDbEntity
  8
DEFPOINTS
 62
     0
100
AcDbPoint
 10
589.3504754001912
 20
430.6392988247559
 30
0.0
  0
ENDBLK
  5
A31
330
A26
100
AcDbEntity
  8
0
100
AcDbBlockEnd
  0
BLOCK
  5
A3C
330
A32
100
AcDbEntity
  8
0
100
AcDbBlockBegin
  2
*D16
 70
     1
 10
0.0
 20
0.0
 30
0.0
  3
*D16
  1

  0
LINE
  5
13D6
330
A32
100
AcDbEntity
  8
SUNPOU
100
AcDbLine
 10
603.7375196955167
 20
450.1392988247558
 30
0.0
 11
603.7375196955167
 21
459.5469988247558
 31
0.0
  0
LINE
  5
13D7
330
A32
100
AcDbEntity
  8
SUNPOU
100
AcDbLine
 10
613.1664136955167
 20
450.1392988247558
 30
0.0
 11
613.1664136955167
 21
459.5469988247558
 31
0.0
  0
LINE
  5
13D8
330
A32
100
AcDbEntity
  8
SUNPOU
100
AcDbLine
 10
606.7375196955167
 20
458.0469988247558
 30
0.0
 11
610.1664136955167
 21
458.0469988247558
 31
0.0
  0
INSERT
  5
13D9
330
A32
100
AcDbEntity
  8
SUNPOU
100
AcDbBlockReference
  2
_OPEN
 10
603.7375196955167
 20
458.0469988247558
 30
0.0
 41
3.0
 42
3.0
 43
3.0
 50
180.0
  0
INSERT
  5
13DA
330
A32
100
AcDbEntity
  8
SUNPOU
100
AcDbBlockReference
  2
_OPEN
 10
613.1664136955167
 20
458.0469988247558
 30
0.0
 41
3.0
 42
3.0
 43
3.0
  0
MTEXT
  5
13DB
330
A32
100
AcDbEntity
  8
SUNPOU
100
AcDbMText
 10
608.4519666955168
 20
462.0469988247558
 30
0.0
 40
6.0
 41
0.0
 71
     5
 72
     1
  1
\A1;9
1001
ACAD
1000
MTEXTBEGIN
1070
    73
1070
     1
1070
    44
1040
1.0
1070
    74
1070
     0
1000
MTEXTEND
  0
POINT
  5
13DC
330
A32
100
AcDbEntity
  8
DEFPOINTS
 62
     0
100
AcDbPoint
 10
603.7375196955167
 20
447.1392988247559
 30
0.0
  0
POINT
  5
13DD
330
A32
100
AcDbEntity
  8
DEFPOINTS
 62
     0
100
AcDbPoint
 10
613.1664136955167
 20
447.1392988247559
 30
0.0
  0
POINT
  5
13DE
330
A32
100
AcDbEntity
  8
DEFPOINTS
 62
     0
100
AcDbPoint
 10
613.1664136955167
 20
458.0469988247558
 30
0.0
  0
ENDBLK
  5
A3D
330
A32
100
AcDbEntity
  8
0
100
AcDbBlockEnd
  0
BLOCK
  5
A4A
330
A3E
100
AcDbEntity
  8
0
100
AcDbBlockBegin
  2
*D17
 70
     1
 10
0.0
 20
0.0
 30
0.0
  3
*D17
  1

  0
LINE
  5
13CB
330
A3E
100
AcDbEntity
  8
SUNPOU
100
AcDbLine
 10
607.7375196955167
 20
427.6392988247558
 30
0.0
 11
607.7375196955167
 21
413.643931461036
 31
0.0
  0
LINE
  5
13CC
330
A3E
100
AcDbEntity
  8
SUNPOU
100
AcDbLine
 10
609.4657196955168
 20
440.1691988247558
 30
0.0
 11
609.4657196955168
 21
413.643931461036
 31
0.0
  0
LINE
  5
13CD
330
A3E
100
AcDbEntity
  8
SUNPOU
100
AcDbLine
 10
604.7375196955167
 20
415.1439314610359
 30
0.0
 11
601.7375196955168
 21
415.1439314610359
 31
0.0
  0
LINE
  5
13CE
330
A3E
100
AcDbEntity
  8
SUNPOU
100
AcDbLine
 10
612.4657196955167
 20
415.1439314610359
 30
0.0
 11
621.4657196955167
 21
415.1439314610359
 31
0.0
  0
LINE
  5
13CF
330
A3E
100
AcDbEntity
  8
SUNPOU
100
AcDbLine
 10
607.7375196955167
 20
415.1439314610359
 30
0.0
 11
609.4657196955168
 21
415.1439314610359
 31
0.0
  0
INSERT
  5
13D0
330
A3E
100
AcDbEntity
  8
SUNPOU
100
AcDbBlockReference
  2
_OPEN
 10
607.7375196955167
 20
415.1439314610359
 30
0.0
 41
3.0
 42
3.0
 43
3.0
  0
INSERT
  5
13D1
330
A3E
100
AcDbEntity
  8
SUNPOU
100
AcDbBlockReference
  2
_OPEN
 10
609.4657196955168
 20
415.1439314610359
 30
0.0
 41
3.0
 42
3.0
 43
3.0
 50
180.0
  0
MTEXT
  5
13D2
330
A3E
100
AcDbEntity
  8
SUNPOU
100
AcDbMText
 10
618.4657196955168
 20
419.1439314610359
 30
0.0
 40
6.0
 41
0.0
 71
     5
 72
     1
  1
\A1;2
1001
ACAD
1000
MTEXTBEGIN
1070
    73
1070
     1
1070
    44
1040
1.0
1070
    74
1070
     0
1000
MTEXTEND
  0
POINT
  5
13D3
330
A3E
100
AcDbEntity
  8
DEFPOINTS
 62
     0
100
AcDbPoint
 10
607.7375196955167
 20
430.6392988247559
 30
0.0
  0
POINT
  5
13D4
330
A3E
100
AcDbEntity
  8
DEFPOINTS
 62
     0
100
AcDbPoint
 10
609.4657196955168
 20
443.1691988247559
 30
0.0
  0
POINT
  5
13D5
330
A3E
100
AcDbEntity
  8
DEFPOINTS
 62
     0
100
AcDbPoint
 10
609.4657196955168
 20
415.1439314610359
 30
0.0
  0
ENDBLK
  5
A4B
330
A3E
100
AcDbEntity
  8
0
100
AcDbBlockEnd
  0
BLOCK
  5
A56
330
A4C
100
AcDbEntity
  8
0
100
AcDbBlockBegin
  2
*D18
 70
     1
 10
0.0
 20
0.0
 30
0.0
  3
*D18
  1

  0
LINE
  5
13C2
330
A4C
100
AcDbEntity
  8
SUNPOU
100
AcDbLine
 10
536.9723244025246
 20
445.6392988247558
 30
0.0
 11
556.5277842324035
 21
445.6392988247558
 31
0.0
  0
LINE
  5
13C3
330
A4C
100
AcDbEntity
  8
SUNPOU
100
AcDbLine
 10
538.0435714525126
 20
430.6418401249251
 30
0.0
 11
556.5277842324035
 21
430.6418401249251
 31
0.0
  0
LINE
  5
13C4
330
A4C
100
AcDbEntity
  8
SUNPOU
100
AcDbLine
 10
555.0277842324034
 20
442.6392988247559
 30
0.0
 11
555.0277842324034
 21
433.6418401249251
 31
0.0
  0
INSERT
  5
13C5
330
A4C
100
AcDbEntity
  8
SUNPOU
100
AcDbBlockReference
  2
_OPEN
 10
555.0277842324034
 20
445.6392988247558
 30
0.0
 41
3.0
 42
3.0
 43
3.0
 50
90.0
  0
INSERT
  5
13C6
330
A4C
100
AcDbEntity
  8
SUNPOU
100
AcDbBlockReference
  2
_OPEN
 10
555.0277842324034
 20
430.6418401249251
 30
0.0
 41
3.0
 42
3.0
 43
3.0
 50
270.0
  0
MTEXT
  5
13C7
330
A4C
100
AcDbEntity
  8
SUNPOU
100
AcDbMText
 10
551.0277842324033
 20
438.1405694748405
 30
0.0
 40
6.0
 41
0.0
 71
     5
 72
     1
  1
\A1;15
 11
0.0000000000000001
 21
1.0
 31
0.0
1001
ACAD
1000
MTEXTBEGIN
1070
    73
1070
     1
1070
    44
1040
1.0
1070
    74
1070
     0
1000
MTEXTEND
  0
POINT
  5
13C8
330
A4C
100
AcDbEntity
  8
DEFPOINTS
 62
     0
100
AcDbPoint
 10
533.9723244025247
 20
445.6392988247558
 30
0.0
  0
POINT
  5
13C9
330
A4C
100
AcDbEntity
  8
DEFPOINTS
 62
     0
100
AcDbPoint
 10
535.0435714525126
 20
430.6418401249251
 30
0.0
  0
POINT
  5
13CA
330
A4C
100
AcDbEntity
  8
DEFPOINTS
 62
     0
100
AcDbPoint
 10
555.0277842324034
 20
430.6418401249251
 30
0.0
  0
ENDBLK
  5
A57
330
A4C
100
AcDbEntity
  8
0
100
AcDbBlockEnd
  0
BLOCK
  5
A62
330
A58
100
AcDbEntity
  8
0
100
AcDbBlockBegin
  2
*D19
 70
     1
 10
0.0
 20
0.0
 30
0.0
  3
*D19
  1

  0
LINE
  5
13B9
330
A58
100
AcDbEntity
  8
SUNPOU
100
AcDbLine
 10
537.9723244025247
 20
447.6392988247559
 30
0.0
 11
570.5732681984775
 21
447.6392988247559
 31
0.0
  0
LINE
  5
13BA
330
A58
100
AcDbEntity
  8
SUNPOU
100
AcDbLine
 10
538.0435714525126
 20
430.6418401249251
 30
0.0
 11
570.5732681984775
 21
430.6418401249251
 31
0.0
  0
LINE
  5
13BB
330
A58
100
AcDbEntity
  8
SUNPOU
100
AcDbLine
 10
569.0732681984775
 20
444.6392988247558
 30
0.0
 11
569.0732681984775
 21
433.6418401249251
 31
0.0
  0
INSERT
  5
13BC
330
A58
100
AcDbEntity
  8
SUNPOU
100
AcDbBlockReference
  2
_OPEN
 10
569.0732681984775
 20
447.6392988247559
 30
0.0
 41
3.0
 42
3.0
 43
3.0
 50
90.0
  0
INSERT
  5
13BD
330
A58
100
AcDbEntity
  8
SUNPOU
100
AcDbBlockReference
  2
_OPEN
 10
569.0732681984775
 20
430.6418401249251
 30
0.0
 41
3.0
 42
3.0
 43
3.0
 50
270.0
  0
MTEXT
  5
13BE
330
A58
100
AcDbEntity
  8
SUNPOU
100
AcDbMText
 10
565.0732681984774
 20
439.1405694748406
 30
0.0
 40
6.0
 41
0.0
 71
     5
 72
     1
  1
\A1;17
 11
0.0000000000000001
 21
1.0
 31
0.0
1001
ACAD
1000
MTEXTBEGIN
1070
    73
1070
     1
1070
    44
1040
1.0
1070
    74
1070
     0
1000
MTEXTEND
  0
POINT
  5
13BF
330
A58
100
AcDbEntity
  8
DEFPOINTS
 62
     0
100
AcDbPoint
 10
534.9723244025247
 20
447.6392988247559
 30
0.0
  0
POINT
  5
13C0
330
A58
100
AcDbEntity
  8
DEFPOINTS
 62
     0
100
AcDbPoint
 10
535.0435714525126
 20
430.6418401249251
 30
0.0
  0
POINT
  5
13C1
330
A58
100
AcDbEntity
  8
DEFPOINTS
 62
     0
100
AcDbPoint
 10
569.0732681984775
 20
430.6418401249251
 30
0.0
  0
ENDBLK
  5
A63
330
A58
100
AcDbEntity
  8
0
100
AcDbBlockEnd
  0
BLOCK
  5
A70
330
A64
100
AcDbEntity
  8
0
100
AcDbBlockBegin
  2
*D20
 70
     1
 10
0.0
 20
0.0
 30
0.0
  3
*D20
  1

  0
LINE
  5
13E8
330
A64
100
AcDbEntity
  8
SUNPOU
100
AcDbLine
 10
611.9666196955168
 20
443.6392988247559
 30
0.0
 11
633.8381540956445
 21
443.6392988247559
 31
0.0
  0
LINE
  5
13E9
330
A64
100
AcDbEntity
  8
SUNPOU
100
AcDbLine
 10
615.2375196955167
 20
438.6392988247559
 30
0.0
 11
633.8381540956445
 21
438.6392988247559
 31
0.0
  0
LINE
  5
13EA
330
A64
100
AcDbEntity
  8
SUNPOU
100
AcDbLine
 10
632.3381540956445
 20
446.6392988247559
 30
0.0
 11
632.3381540956445
 21
449.6392988247558
 31
0.0
  0
LINE
  5
13EB
330
A64
100
AcDbEntity
  8
SUNPOU
100
AcDbLine
 10
632.3381540956445
 20
435.6392988247558
 30
0.0
 11
632.3381540956445
 21
419.8392988247558
 31
0.0
  0
LINE
  5
13EC
330
A64
100
AcDbEntity
  8
SUNPOU
100
AcDbLine
 10
632.3381540956445
 20
443.6392988247559
 30
0.0
 11
632.3381540956445
 21
438.6392988247559
 31
0.0
  0
INSERT
  5
13ED
330
A64
100
AcDbEntity
  8
SUNPOU
100
AcDbBlockReference
  2
_OPEN
 10
632.3381540956445
 20
443.6392988247559
 30
0.0
 41
3.0
 42
3.0
 43
3.0
 50
270.0
  0
INSERT
  5
13EE
330
A64
100
AcDbEntity
  8
SUNPOU
100
AcDbBlockReference
  2
_OPEN
 10
632.3381540956445
 20
438.6392988247559
 30
0.0
 41
3.0
 42
3.0
 43
3.0
 50
90.0
  0
MTEXT
  5
13EF
330
A64
100
AcDbEntity
  8
SUNPOU
100
AcDbMText
 10
628.3381540956444
 20
426.2392988247559
 30
0.0
 40
6.0
 41
0.0
 71
     5
 72
     1
  1
\A1;※5
 11
0.0000000000000001
 21
1.0
 31
0.0
1001
ACAD
1000
MTEXTBEGIN
1070
    73
1070
     1
1070
    44
1040
1.0
1070
    74
1070
     0
1000
MTEXTEND
  0
POINT
  5
13F0
330
A64
100
AcDbEntity
  8
DEFPOINTS
 62
     0
100
AcDbPoint
 10
608.9666196955167
 20
443.6392988247559
 30
0.0
  0
POINT
  5
13F1
330
A64
100
AcDbEntity
  8
DEFPOINTS
 62
     0
100
AcDbPoint
 10
612.2375196955167
 20
438.6392988247559
 30
0.0
  0
POINT
  5
13F2
330
A64
100
AcDbEntity
  8
DEFPOINTS
 62
     0
100
AcDbPoint
 10
632.3381540956445
 20
438.6392988247559
 30
0.0
  0
ENDBLK
  5
A71
330
A64
100
AcDbEntity
  8
0
100
AcDbBlockEnd
  0
BLOCK
  5
10DA
330
10D0
100
AcDbEntity
  8
0
100
AcDbBlockBegin
  2
*D21
 70
     1
 10
0.0
 20
0.0
 30
0.0
  3
*D21
  1

  0
LINE
  5
13B0
330
10D0
100
AcDbEntity
  8
SUNPOU
100
AcDbLine
 10
482.9722244025247
 20
452.6391988247559
 30
0.0
 11
482.9722244025247
 21
461.5469988247558
 31
0.0
  0
LINE
  5
13B1
330
10D0
100
AcDbEntity
  8
SUNPOU
100
AcDbLine
 10
535.9723244025246
 20
452.6392988247558
 30
0.0
 11
535.9723244025246
 21
461.5469988247558
 31
0.0
  0
LINE
  5
13B2
330
10D0
100
AcDbEntity
  8
SUNPOU
100
AcDbLine
 10
489.9722244025247
 20
458.5469988247559
 30
0.0
 11
528.9723244025246
 21
458.5469988247559
 31
0.0
  0
INSERT
  5
13B3
330
10D0
100
AcDbEntity
  8
SUNPOU
100
AcDbBlockReference
  2
_OPEN
 10
482.9722244025247
 20
458.5469988247559
 30
0.0
 41
7.0
 42
7.0
 43
7.0
 50
180.0
  0
INSERT
  5
13B4
330
10D0
100
AcDbEntity
  8
SUNPOU
100
AcDbBlockReference
  2
_OPEN
 10
535.9723244025246
 20
458.5469988247559
 30
0.0
 41
7.0
 42
7.0
 43
7.0
  0
MTEXT
  5
13B5
330
10D0
100
AcDbEntity
  8
SUNPOU
100
AcDbMText
 10
509.4722744025246
 20
463.5469988247558
 30
0.0
 40
6.0
 41
0.0
 71
     5
 72
     1
  1
\A1;53
1001
ACAD
1000
MTEXTBEGIN
1070
    73
1070
     1
1070
    44
1040
1.0
1070
    74
1070
     0
1000
MTEXTEND
  0
POINT
  5
13B6
330
10D0
100
AcDbEntity
  8
DEFPOINTS
 62
     0
100
AcDbPoint
 10
482.9722244025247
 20
446.6391988247559
 30
0.0
  0
POINT
  5
13B7
330
10D0
100
AcDbEntity
  8
DEFPOINTS
 62
     0
100
AcDbPoint
 10
535.9723244025246
 20
446.6392988247559
 30
0.0
  0
POINT
  5
13B8
330
10D0
100
AcDbEntity
  8
DEFPOINTS
 62
     0
100
AcDbPoint
 10
535.9723244025246
 20
458.5469988247559
 30
0.0
  0
ENDBLK
  5
10DB
330
10D0
100
AcDbEntity
  8
0
100
AcDbBlockEnd
  0
ENDSEC
  0
SECTION
  2
ENTITIES
  0
LINE
  5
252
330
1A
100
AcDbEntity
  8
SEIHIN
  6
CONTINUOUS
 62
     3
100
AcDbLine
 10
297.0236145431487
 20
195.9466489920346
 30
0.0
 11
135.0684493431486
 21
195.9466489920346
 31
0.0
  0
LINE
  5
254
330
1A
100
AcDbEntity
  8
SEIHIN
  6
CONTINUOUS
 62
     3
100
AcDbLine
 10
287.3474612431487
 20
151.6499619920345
 30
0.0
 11
144.7446007431487
 21
151.6499619920345
 31
0.0
  0
LINE
  5
255
330
1A
100
AcDbEntity
  8
SEIHIN
  6
CONTINUOUS
 62
     3
100
AcDbLine
 10
331.0460319431486
 20
287.5920165920346
 30
0.0
 11
101.0460319431487
 21
287.5920165920346
 31
0.0
  0
LINE
  5
256
330
1A
100
AcDbEntity
  8
SEIHIN
  6
CONTINUOUS
 62
     3
100
AcDbLine
 10
101.0460319431487
 20
287.5920165920346
 30
0.0
 11
101.0460319431487
 21
172.6499619920346
 31
0.0
  0
LINE
  5
257
330
1A
100
AcDbEntity
  8
SEIHIN
  6
CONTINUOUS
 62
     3
100
AcDbLine
 10
101.0460319431487
 20
197.1538624920345
 30
0.0
 11
127.0268673431487
 21
196.1083819920346
 31
0.0
  0
LINE
  5
258
330
1A
100
AcDbEntity
  8
SEIHIN
  6
CONTINUOUS
 62
     3
100
AcDbLine
 10
130.501941550752
 20
171.6680983384478
 30
0.0
 11
101.0460319431487
 21
172.6499619920346
 31
0.0
  0
LINE
  5
25A
330
1A
100
AcDbEntity
  8
SEIHIN
  6
CONTINUOUS
 62
     3
100
AcDbLine
 10
130.8374764055273
 20
171.9975545299164
 30
0.0
 11
131.3261196431487
 21
171.1831491920346
 31
0.0
  0
LINE
  5
25B
330
1A
100
AcDbEntity
  8
SEIHIN
  6
CONTINUOUS
 62
     3
100
AcDbLine
 10
131.3261196462318
 20
171.1831491868961
 30
0.0
 11
142.1721243431487
 21
153.1064746920345
 31
0.0
  0
ARC
  5
25E
330
1A
100
AcDbEntity
  8
SEIHIN
  6
CONTINUOUS
 62
     3
100
AcDbCircle
 10
144.7446030431487
 20
154.6499619920346
 30
0.0
 40
2.9999999756017
100
AcDbArc
 50
210.9637578422268
 51
269.9999560732355
  0
ARC
  5
25F
330
1A
100
AcDbEntity
  8
SEIHIN
  6
CONTINUOUS
 62
     3
100
AcDbCircle
 10
135.0684493431486
 20
395.9466489920346
 30
0.0
 40
199.9999999982825
100
AcDbArc
 50
267.6956352674028
 51
270.0
  0
LINE
  5
262
330
1A
100
AcDbEntity
  8
CENTER_L
  6
CENTER
 62
     1
 48
5.0
100
AcDbLine
 10
216.0460319431487
 20
79.64996199203461
 30
0.0
 11
216.0460319431487
 21
294.5920165920346
 31
0.0
  0
ARC
  5
264
330
1A
100
AcDbEntity
  8
SEIHIN
  6
CONTINUOUS
 62
     3
100
AcDbCircle
 10
297.0236145431487
 20
395.9466489920346
 30
0.0
 40
199.9999999982825
100
AcDbArc
 50
270.0
 51
272.3043647325971
  0
LINE
  5
265
330
1A
100
AcDbEntity
  8
SEIHIN
  6
CONTINUOUS
 62
     3
100
AcDbLine
 10
301.5901223355455
 20
171.6680983384478
 30
0.0
 11
331.0460319431486
 21
172.6499619920346
 31
0.0
  0
ARC
  5
26F
330
1A
100
AcDbEntity
  8
SEIHIN
  6
CONTINUOUS
 62
     3
100
AcDbCircle
 10
287.3474608431487
 20
154.6499619920346
 30
0.0
 40
3.000000018475916
100
AcDbArc
 50
270.0000076394379
 51
329.0362431403877
  0
LINE
  5
271
330
1A
100
AcDbEntity
  8
SEIHIN
  6
CONTINUOUS
 62
     3
100
AcDbLine
 10
301.2547133054775
 20
171.9977643034268
 30
0.0
 11
289.9199396431487
 21
153.1064746920345
 31
0.0
  0
LINE
  5
272
330
1A
100
AcDbEntity
  8
SEIHIN
  6
CONTINUOUS
 62
     3
100
AcDbLine
 10
331.0460319431486
 20
287.5920165920346
 30
0.0
 11
331.0460319431486
 21
172.6499619920346
 31
0.0
  0
LINE
  5
273
330
1A
100
AcDbEntity
  8
SEIHIN
  6
CONTINUOUS
 62
     3
100
AcDbLine
 10
305.0651965431486
 20
196.1083819920346
 30
0.0
 11
331.0460319431486
 21
197.1538624920345
 31
0.0
  0
LINE
  5
275
330
1A
100
AcDbEntity
  8
SEIHIN
  6
CONTINUOUS
 62
     3
100
AcDbLine
 10
134.0460319431487
 20
417.1224634496836
 30
0.0
 11
215.0460319431487
 21
417.1224634496836
 31
0.0
  0
LINE
  5
276
330
1A
100
AcDbEntity
  8
SEIHIN
  6
CONTINUOUS
 62
     3
100
AcDbLine
 10
131.0460319431486
 20
401.9027931496837
 30
0.0
 11
215.0460319431487
 21
401.9027931496837
 31
0.0
  0
LINE
  5
277
330
1A
100
AcDbEntity
  8
SEIHIN
  6
CONTINUOUS
 62
     3
100
AcDbLine
 10
297.7136305431487
 20
526.8361398496836
 30
0.0
 11
134.3784398431487
 21
526.8361398496836
 31
0.0
  0
LINE
  5
278
330
1A
100
AcDbEntity
  8
SEIHIN
  6
CONTINUOUS
 62
     3
100
AcDbLine
 10
146.0460319431487
 20
424.0991770496837
 30
0.0
 11
286.0460319431487
 21
424.0991770496837
 31
0.0
  0
LINE
  5
279
330
1A
100
AcDbEntity
  8
SEIHIN
  6
CONTINUOUS
 62
     3
100
AcDbLine
 10
299.0460319431487
 20
394.3010732496836
 30
0.0
 11
133.0460319431487
 21
394.3010732496836
 31
0.0
  0
LINE
  5
27A
330
1A
100
AcDbEntity
  8
SEIHIN
  6
CONTINUOUS
 62
     3
100
AcDbLine
 10
301.0460319431487
 20
524.7753477496836
 30
0.0
 11
131.0460319431486
 21
524.7753477496836
 31
0.0
  0
LINE
  5
27B
330
1A
100
AcDbEntity
  8
CENTER_L
  6
CENTER
 62
     1
 48
5.0
100
AcDbLine
 10
251.5460319943198
 20
475.3027931496837
 30
0.0
 11
180.5460318919775
 21
475.3027931496837
 31
0.0
  0
LINE
  5
27C
330
1A
100
AcDbEntity
  8
CENTER_L
  6
CENTER
 62
     1
 48
5.0
100
AcDbLine
 10
338.0460319431488
 20
455.3027931496838
 30
0.0
 11
291.0460319431487
 21
455.3027931496838
 31
0.0
  0
LINE
  5
27D
330
1A
100
AcDbEntity
  8
SEIHIN
  6
CONTINUOUS
 62
     3
100
AcDbLine
 10
134.3784398431487
 20
376.4035765496837
 30
0.0
 11
297.7136258431487
 21
376.4035765496837
 31
0.0
  0
LINE
  5
27E
330
1A
100
AcDbEntity
  8
SEIHIN
  6
CONTINUOUS
 62
     3
100
AcDbLine
 10
103.0460319431486
 20
391.1806564496836
 30
0.0
 11
329.0460319431486
 21
391.1806564496836
 31
0.0
  0
LINE
  5
27F
330
1A
100
AcDbEntity
  8
SEIHIN
  6
CONTINUOUS
 62
     3
100
AcDbLine
 10
146.0460319431487
 20
424.0991770496837
 30
0.0
 11
146.0460319431487
 21
524.7753477496836
 31
0.0
  0
LINE
  5
280
330
1A
100
AcDbEntity
  8
SEIHIN
  6
CONTINUOUS
 62
     3
100
AcDbLine
 10
134.0460319431487
 20
417.1224634496836
 30
0.0
 11
134.0460319431487
 21
524.7753477496836
 31
0.0
  0
LINE
  5
281
330
1A
100
AcDbEntity
  8
SEIHIN
  6
CONTINUOUS
 62
     3
100
AcDbLine
 10
101.0460319431487
 20
377.4035765496837
 30
0.0
 11
101.0460319431487
 21
525.8361398496837
 31
0.0
  0
LINE
  5
282
330
1A
100
AcDbEntity
  8
SEIHIN
  6
CONTINUOUS
 62
     3
100
AcDbLine
 10
131.0460319431486
 20
406.4708814496837
 30
0.0
 11
101.0460319431487
 21
406.4708814496837
 31
0.0
  0
LINE
  5
283
330
1A
100
AcDbEntity
  8
SEIHIN
  6
CONTINUOUS
 62
     3
100
AcDbLine
 10
101.0460319431487
 20
377.4035765496837
 30
0.0
 11
127.7154738431487
 21
376.5145951496837
 31
0.0
  0
ARC
  5
284
330
1A
100
AcDbEntity
  8
SEIHIN
  6
CONTINUOUS
 62
     3
100
AcDbCircle
 10
134.3784398431487
 20
576.4035765496836
 30
0.0
 40
200.0000000013083
100
AcDbArc
 50
268.0908475803652
 51
270.0
  0
LINE
  5
285
330
1A
100
AcDbEntity
  8
SEIHIN
  6
CONTINUOUS
 62
     3
100
AcDbLine
 10
134.0460319431487
 20
417.1224634496836
 30
0.0
 11
146.0460319431487
 21
424.0991770496837
 31
0.0
  0
LINE
  5
287
330
1A
100
AcDbEntity
  8
SEIHIN
  6
CONTINUOUS
 62
     3
100
AcDbLine
 10
131.0460319431486
 20
396.3010740496837
 30
0.0
 11
131.0460319431486
 21
406.4708814496837
 31
0.0
  0
ARC
  5
289
330
1A
100
AcDbEntity
  8
SEIHIN
  6
CONTINUOUS
 62
     3
100
AcDbCircle
 10
133.0460319431487
 20
396.3010732496836
 30
0.0
 40
2.000000000000079
100
AcDbArc
 50
179.9999770816862
 51
270.0
  0
LINE
  5
28A
330
1A
100
AcDbEntity
  8
SEIHIN
  6
CONTINUOUS
 62
     3
100
AcDbLine
 10
131.0460319431486
 20
514.6027931496838
 30
0.0
 11
131.0460319431486
 21
524.7753477496836
 31
0.0
  0
LINE
  5
28B
330
1A
100
AcDbEntity
  8
SEIHIN
  6
CONTINUOUS
 62
     3
100
AcDbLine
 10
115.0460319431487
 20
514.6027931496838
 30
0.0
 11
115.0460319431487
 21
522.2027931496836
 31
0.0
  0
LINE
  5
28C
330
1A
100
AcDbEntity
  8
SEIHIN
  6
CONTINUOUS
 62
     3
100
AcDbLine
 10
117.0460319431487
 20
522.2027931496836
 30
0.0
 11
117.0460319431487
 21
514.6027931496838
 31
0.0
  0
LINE
  5
28D
330
1A
100
AcDbEntity
  8
SEIHIN
  6
CONTINUOUS
 62
     3
100
AcDbLine
 10
101.0460319431487
 20
514.6027931496838
 30
0.0
 11
131.0460319431486
 21
514.6027931496838
 31
0.0
  0
LINE
  5
28E
330
1A
100
AcDbEntity
  8
SEIHIN
  6
CONTINUOUS
 62
     3
100
AcDbLine
 10
101.0460319431487
 20
525.8361398496837
 30
0.0
 11
127.7154738431487
 21
526.7251212496837
 31
0.0
  0
LINE
  5
28F
330
1A
100
AcDbEntity
  8
SEIHIN
  6
CONTINUOUS
 62
     3
100
AcDbLine
 10
115.0460319431487
 20
522.2027931496836
 30
0.0
 11
117.0460319431487
 21
522.2027931496836
 31
0.0
  0
ARC
  5
290
330
1A
100
AcDbEntity
  8
SEIHIN
  6
CONTINUOUS
 62
     3
100
AcDbCircle
 10
134.3784398431487
 20
326.8361398496837
 30
0.0
 40
200.0000000013083
100
AcDbArc
 50
90.0
 51
91.90915241963477
  0
LINE
  5
291
330
1A
100
AcDbEntity
  8
SEIHIN
  6
CONTINUOUS
 62
     3
100
AcDbLine
 10
286.0460319431487
 20
424.0991770496837
 30
0.0
 11
286.0460319431487
 21
524.7753477496836
 31
0.0
  0
LINE
  5
292
330
1A
100
AcDbEntity
  8
SEIHIN
  6
CONTINUOUS
 62
     3
100
AcDbLine
 10
298.0460319431487
 20
417.1224634496836
 30
0.0
 11
298.0460319431486
 21
524.7753477496836
 31
0.0
  0
LINE
  5
293
330
1A
100
AcDbEntity
  8
SEIHIN
  6
CONTINUOUS
 62
     3
100
AcDbLine
 10
215.0460319431487
 20
397.3010732496836
 30
0.0
 11
215.0460319431487
 21
444.2874605496837
 31
0.0
  0
LINE
  5
294
330
1A
100
AcDbEntity
  8
SEIHIN
  6
CONTINUOUS
 62
     3
100
AcDbLine
 10
217.0460319431487
 20
444.2874605496837
 30
0.0
 11
217.0460319431487
 21
397.3010732496836
 31
0.0
  0
LINE
  5
295
330
1A
100
AcDbEntity
  8
SEIHIN
  6
CONTINUOUS
 62
     3
100
AcDbLine
 10
331.0460319431486
 20
377.4035765496837
 30
0.0
 11
331.0460319431486
 21
525.8361398496837
 31
0.0
  0
LINE
  5
296
330
1A
100
AcDbEntity
  8
CENTER_L
  6
CENTER
 62
     1
 48
5.0
100
AcDbLine
 10
216.0460319431487
 20
533.8361398496837
 30
0.0
 11
216.0460319431487
 21
369.4035765496837
 31
0.0
  0
LINE
  5
297
330
1A
100
AcDbEntity
  8
SEIHIN
  6
CONTINUOUS
 62
     3
100
AcDbLine
 10
301.0460319431487
 20
406.4708814496837
 30
0.0
 11
331.0460319431486
 21
406.4708814496837
 31
0.0
  0
LINE
  5
298
330
1A
100
AcDbEntity
  8
SEIHIN
  6
CONTINUOUS
 62
     3
100
AcDbLine
 10
331.0460319431486
 20
377.4035765496837
 30
0.0
 11
304.3765900431488
 21
376.5145951496837
 31
0.0
  0
LINE
  5
299
330
1A
100
AcDbEntity
  8
SEIHIN
  6
CONTINUOUS
 62
     3
100
AcDbLine
 10
217.0460319431487
 20
417.1224634496836
 30
0.0
 11
298.0460319431486
 21
417.1224634496836
 31
0.0
  0
LINE
  5
29A
330
1A
100
AcDbEntity
  8
SEIHIN
  6
CONTINUOUS
 62
     3
100
AcDbLine
 10
217.0460319431487
 20
401.9027931496837
 30
0.0
 11
301.0460319431487
 21
401.9027931496836
 31
0.0
  0
LINE
  5
29B
330
1A
100
AcDbEntity
  8
SEIHIN
  6
CONTINUOUS
 62
     3
100
AcDbLine
 10
201.0460319431487
 20
397.3010732496836
 30
0.0
 11
231.0460319431486
 21
397.3010732496836
 31
0.0
  0
LINE
  5
29C
330
1A
100
AcDbEntity
  8
SEIHIN
  6
CONTINUOUS
 62
     3
100
AcDbLine
 10
201.0460319431487
 20
394.3010732496836
 30
0.0
 11
201.0460319431487
 21
397.3010732496836
 31
0.0
  0
LINE
  5
29D
330
1A
100
AcDbEntity
  8
SEIHIN
  6
CONTINUOUS
 62
     3
100
AcDbLine
 10
216.7960319431486
 20
397.3010732496836
 30
0.0
 11
216.7960319431486
 21
394.3010732496836
 31
0.0
  0
LINE
  5
29E
330
1A
100
AcDbEntity
  8
SEIHIN
  6
CONTINUOUS
 62
     3
100
AcDbLine
 10
215.2960319431487
 20
397.3010732496836
 30
0.0
 11
215.2960319431487
 21
394.3010732496836
 31
0.0
  0
LINE
  5
29F
330
1A
100
AcDbEntity
  8
SEIHIN
  6
CONTINUOUS
 62
     3
100
AcDbLine
 10
215.0460319431487
 20
401.1165197496836
 30
0.0
 11
217.0460319431487
 21
401.1165197496836
 31
0.0
  0
LINE
  5
2A0
330
1A
100
AcDbEntity
  8
SEIHIN
  6
CONTINUOUS
 62
     3
100
AcDbLine
 10
231.0460319431486
 20
397.3010732496836
 30
0.0
 11
231.0460319431486
 21
394.3010732496836
 31
0.0
  0
LINE
  5
2A1
330
1A
100
AcDbEntity
  8
SEIHIN
  6
CONTINUOUS
 62
     3
100
AcDbLine
 10
215.0460319431487
 20
424.1319623496837
 30
0.0
 11
217.0460319431487
 21
424.1319623496837
 31
0.0
  0
LINE
  5
2A2
330
1A
100
AcDbEntity
  8
SEIHIN
  6
CONTINUOUS
 62
     3
100
AcDbLine
 10
215.0460319431487
 20
408.6759929496837
 30
0.0
 11
217.0460319431487
 21
408.6759929496837
 31
0.0
  0
LINE
  5
2A3
330
1A
100
AcDbEntity
  8
SEIHIN
  6
CONTINUOUS
 62
     3
100
AcDbLine
 10
215.0460319431487
 20
410.4850315496837
 30
0.0
 11
217.0460319431487
 21
410.4850315496837
 31
0.0
  0
ARC
  5
2A4
330
1A
100
AcDbEntity
  8
SEIHIN
  6
CONTINUOUS
 62
     3
100
AcDbCircle
 10
297.7136240431486
 20
576.4035765496836
 30
0.0
 40
200.0000000013083
100
AcDbArc
 50
270.000000515662
 51
271.9091524196347
  0
LINE
  5
2A5
330
1A
100
AcDbEntity
  8
SEIHIN
  6
CONTINUOUS
 62
     3
100
AcDbLine
 10
301.0460319431487
 20
396.3010723496837
 30
0.0
 11
301.0460319431487
 21
406.4708814496837
 31
0.0
  0
ARC
  5
2A7
330
1A
100
AcDbEntity
  8
SEIHIN
  6
CONTINUOUS
 62
     3
100
AcDbCircle
 10
299.0460319431487
 20
396.3010732496836
 30
0.0
 40
2.000000000000101
100
AcDbArc
 50
270.0
 51
359.9999742169015
  0
LINE
  5
2A9
330
1A
100
AcDbEntity
  8
SEIHIN
  6
CONTINUOUS
 62
     3
100
AcDbLine
 10
298.0460319431486
 20
417.1224634496836
 30
0.0
 11
286.0460319431487
 21
424.0991770496837
 31
0.0
  0
LINE
  5
2AA
330
1A
100
AcDbEntity
  8
SEIHIN
  6
CONTINUOUS
 62
     3
100
AcDbLine
 10
331.0460319431486
 20
514.6027931496838
 30
0.0
 11
301.0460319431487
 21
514.6027931496838
 31
0.0
  0
LINE
  5
2AB
330
1A
100
AcDbEntity
  8
SEIHIN
  6
CONTINUOUS
 62
     3
100
AcDbLine
 10
331.0460319431486
 20
525.8361398496837
 30
0.0
 11
304.3765900431488
 21
526.7251212496837
 31
0.0
  0
LINE
  5
2AC
330
1A
100
AcDbEntity
  8
SEIHIN
  6
CONTINUOUS
 62
     3
100
AcDbLine
 10
301.0460319431487
 20
514.6027931496838
 30
0.0
 11
301.0460319431487
 21
524.7753477496836
 31
0.0
  0
LINE
  5
2AD
330
1A
100
AcDbEntity
  8
SEIHIN
  6
CONTINUOUS
 62
     3
100
AcDbLine
 10
215.0460319431487
 20
524.7753477496836
 30
0.0
 11
215.0460319431487
 21
509.6761695496836
 31
0.0
  0
LINE
  5
2AE
330
1A
100
AcDbEntity
  8
SEIHIN
  6
CONTINUOUS
 62
     3
100
AcDbLine
 10
217.0460319431487
 20
509.6761695496836
 30
0.0
 11
217.0460319431487
 21
524.7753477496836
 31
0.0
  0
CIRCLE
  5
2AF
330
1A
100
AcDbEntity
  8
SEIHIN
  6
CONTINUOUS
 62
     3
100
AcDbCircle
 10
216.0460319431487
 20
475.3027931496837
 30
0.0
 40
28.50000005117111
  0
LINE
  5
2B0
330
1A
100
AcDbEntity
  8
SEIHIN
  6
CONTINUOUS
 62
     3
100
AcDbLine
 10
215.0460319431487
 20
431.5547578496837
 30
0.0
 11
217.0460319431487
 21
431.5547578496837
 31
0.0
  0
LINE
  5
2B1
330
1A
100
AcDbEntity
  8
SEIHIN
  6
CONTINUOUS
 62
     3
100
AcDbLine
 10
215.0460319431487
 20
443.8027925496836
 30
0.0
 11
217.0460319431487
 21
443.8027925496836
 31
0.0
  0
LINE
  5
2B2
330
1A
100
AcDbEntity
  8
SEIHIN
  6
CONTINUOUS
 62
     3
100
AcDbLine
 10
215.0460319431487
 20
444.2874605496837
 30
0.0
 11
217.0460319431487
 21
444.2874605496837
 31
0.0
  0
LINE
  5
2B3
330
1A
100
AcDbEntity
  8
SEIHIN
  6
CONTINUOUS
 62
     3
100
AcDbLine
 10
215.0460319431487
 20
512.9573006496837
 30
0.0
 11
217.0460319431487
 21
512.9573006496837
 31
0.0
  0
LINE
  5
2B4
330
1A
100
AcDbEntity
  8
SEIHIN
  6
CONTINUOUS
 62
     3
100
AcDbLine
 10
215.0460319431487
 20
509.6761695496836
 30
0.0
 11
217.0460319431487
 21
509.6761695496836
 31
0.0
  0
ARC
  5
2B5
330
1A
100
AcDbEntity
  8
SEIHIN
  6
CONTINUOUS
 62
     3
100
AcDbCircle
 10
297.7136240431486
 20
326.8361398496837
 30
0.0
 40
200.0000000013084
100
AcDbArc
 50
88.09084758036522
 51
89.99999813788717
  0
LINE
  5
2B6
330
1A
100
AcDbEntity
  8
SEIHIN
  6
CONTINUOUS
 62
     3
100
AcDbLine
 10
317.0460319431487
 20
522.2027931496836
 30
0.0
 11
317.0460319431487
 21
514.6027931496838
 31
0.0
  0
LINE
  5
2B7
330
1A
100
AcDbEntity
  8
SEIHIN
  6
CONTINUOUS
 62
     3
100
AcDbLine
 10
315.0460319431487
 20
514.6027931496838
 30
0.0
 11
315.0460319431487
 21
522.2027931496836
 31
0.0
  0
LINE
  5
2B8
330
1A
100
AcDbEntity
  8
SEIHIN
  6
CONTINUOUS
 62
     3
100
AcDbLine
 10
315.0460319431487
 20
522.2027931496836
 30
0.0
 11
317.0460319431487
 21
522.2027931496836
 31
0.0
  0
ARC
  5
2BE
330
1A
100
AcDbEntity
  8
SEIHIN
  6
CONTINUOUS
 62
     3
100
AcDbCircle
 10
546.0460319431488
 20
1174.149961992034
 30
0.0
 40
1001.499999998395
100
AcDbArc
 50
267.0148646763529
 51
273.5169967883501
  0
ARC
  5
2BF
330
1A
100
AcDbEntity
  8
SEIHIN
  6
CONTINUOUS
 62
     3
100
AcDbCircle
 10
546.0460319431488
 20
1174.149961992034
 30
0.0
 40
1000.000000042724
100
AcDbArc
 50
267.0148646759086
 51
273.5169967909852
  0
ARC
  5
2C0
330
1A
100
AcDbEntity
  8
NOKITOI
  6
PHANTOM
 62
     8
 48
5.0
100
AcDbCircle
 10
546.0460319130872
 20
1174.149961964333
 30
0.0
 40
998.7000000218072
100
AcDbArc
 50
267.0172809128815
 51
273.5168981476795
  0
LINE
  5
2C1
330
1A
100
AcDbEntity
  8
SEIHIN
  6
CONTINUOUS
 62
     3
100
AcDbLine
 10
514.4831390431486
 20
151.6499619920345
 30
0.0
 11
611.1684543431488
 21
151.6499619920345
 31
0.0
  0
ARC
  5
2C3
330
1A
100
AcDbEntity
  8
NOKITOI
  6
PHANTOM
 62
     8
 48
5.0
100
AcDbCircle
 10
546.0460319141181
 20
1174.149961984098
 30
0.0
 40
1000.000000036715
100
AcDbArc
 50
267.0148646759086
 51
273.5168981481858
  0
ARC
  5
2C4
330
1A
100
AcDbEntity
  8
SEIHIN
  6
CONTINUOUS
 62
     3
100
AcDbCircle
 10
546.0460319431488
 20
1174.149961992034
 30
0.0
 40
1002.500000033656
100
AcDbArc
 50
267.0148646805527
 51
273.5169967862471
  0
ARC
  5
2C5
330
1A
100
AcDbEntity
  8
NOKITOI
  6
PHANTOM
 62
     8
 48
5.0
100
AcDbCircle
 10
719.6436552130871
 20
200.2400732643336
 30
0.0
 40
250.0000000205147
100
AcDbArc
 50
160.4989464255681
 51
180.113975154509
  0
ARC
  5
2C6
330
1A
100
AcDbEntity
  8
NOKITOI
  6
PHANTOM
 62
     8
 48
5.0
100
AcDbCircle
 10
719.6436552130871
 20
200.2400732643336
 30
0.0
 40
248.5999999838139
100
AcDbArc
 50
168.6535361648574
 51
178.0328534594857
  0
ARC
  5
2C7
330
1A
100
AcDbEntity
  8
SEIHIN
  6
CONTINUOUS
 62
     3
100
AcDbCircle
 10
719.6436552431487
 20
200.2400732920345
 30
0.0
 40
250.0000000026334
100
AcDbArc
 50
160.4279311853069
 51
180.113975154509
  0
ARC
  5
2C8
330
1A
100
AcDbEntity
  8
SEIHIN
  6
CONTINUOUS
 62
     3
100
AcDbCircle
 10
719.6436552431487
 20
200.2400732920345
 30
0.0
 40
251.4999999938883
100
AcDbArc
 50
159.6834915092697
 51
176.9999988123975
  0
ARC
  5
2C9
330
1A
100
AcDbEntity
  8
SEIHIN
  6
CONTINUOUS
 62
     3
100
AcDbCircle
 10
719.6436552431487
 20
200.2400732920345
 30
0.0
 40
252.5000000043089
100
AcDbArc
 50
160.0788683960753
 51
176.9999980351349
  0
ARC
  5
2CA
330
1A
100
AcDbEntity
  8
SEIHIN
  6
CONTINUOUS
 62
     3
100
AcDbCircle
 10
502.1930031431486
 20
183.1197344920345
 30
0.0
 40
1.999999965153818
100
AcDbArc
 50
87.46631695701641
 51
143.0710493009238
  0
LINE
  5
2CB
330
1A
100
AcDbEntity
  8
SEIHIN
  6
CONTINUOUS
 62
     3
100
AcDbLine
 10
483.0721933431487
 20
199.9547966920346
 30
0.0
 11
468.2609120431486
 21
197.3875079920345
 31
0.0
  0
LINE
  5
2CC
330
1A
100
AcDbEntity
  8
SEIHIN
  6
CONTINUOUS
 62
     3
100
AcDbLine
 10
482.3330252431487
 20
198.8117631920346
 30
0.0
 11
467.1966830431488
 21
196.1881305920345
 31
0.0
  0
LINE
  5
2CD
330
1A
100
AcDbEntity
  8
SEIHIN
  6
CONTINUOUS
 62
     3
100
AcDbLine
 10
467.6762039431487
 20
197.9063299920345
 30
0.0
 11
468.4883275431486
 21
213.4025714920345
 31
0.0
  0
ARC
  5
2CE
330
1A
100
AcDbEntity
  8
SEIHIN
  6
CONTINUOUS
 62
     3
100
AcDbCircle
 10
467.1112896431487
 20
196.6807845920345
 30
0.0
 40
0.5000000124845063
100
AcDbArc
 50
177.0000091354368
 51
279.833568480531
  0
ARC
  5
2CF
330
1A
100
AcDbEntity
  8
SEIHIN
  6
CONTINUOUS
 62
     3
100
AcDbCircle
 10
468.1755187431487
 20
197.8801619920345
 30
0.0
 40
0.5000000065619582
100
AcDbArc
 50
176.9999976919899
 51
279.8335571897235
  0
LINE
  5
2D0
330
1A
100
AcDbEntity
  8
SEIHIN
  6
CONTINUOUS
 62
     3
100
AcDbLine
 10
466.6119748431488
 20
196.7069524920345
 30
0.0
 11
467.4896981431486
 21
213.4549108920345
 31
0.0
  0
ARC
  5
2D1
330
1A
100
AcDbEntity
  8
NOKITOI
  6
PHANTOM
 62
     8
 48
5.0
100
AcDbCircle
 10
727.3687733130868
 20
261.6304331643336
 30
0.0
 40
248.6000000119225
100
AcDbArc
 50
193.4348295159767
 51
199.8543528104349
  0
ARC
  5
2D2
330
1A
100
AcDbEntity
  8
SEIHIN
  6
CONTINUOUS
 62
     3
100
AcDbCircle
 10
727.3687733431486
 20
261.6304331920346
 30
0.0
 40
250.000000052713
100
AcDbArc
 50
193.9649292544899
 51
199.8292867126761
  0
ARC
  5
2D3
330
1A
100
AcDbEntity
  8
SEIHIN
  6
CONTINUOUS
 62
     3
100
AcDbCircle
 10
727.3687733431486
 20
261.6304331920346
 30
0.0
 40
252.5000000506925
100
AcDbArc
 50
194.4918558755628
 51
199.8292867052757
  0
ARC
  5
2D4
330
1A
100
AcDbEntity
  8
NOKITOI
  6
PHANTOM
 62
     8
 48
5.0
100
AcDbCircle
 10
727.3687733130868
 20
261.6304331643336
 30
0.0
 40
250.000000052713
100
AcDbArc
 50
193.9649292544899
 51
199.8292867126761
  0
ARC
  5
2D5
330
1A
100
AcDbEntity
  8
SEIHIN
  6
CONTINUOUS
 62
     3
100
AcDbCircle
 10
727.3687733431486
 20
261.6304331920346
 30
0.0
 40
251.5000000384062
100
AcDbArc
 50
194.2822950320478
 51
199.8292867066726
  0
ARC
  5
2D6
330
1A
100
AcDbEntity
  8
SEIHIN
  6
CONTINUOUS
 62
     3
100
AcDbCircle
 10
727.3687733431486
 20
261.6304331920346
 30
0.0
 40
239.9999999945459
100
AcDbArc
 50
192.0944660492577
 51
197.9871147449851
  0
ARC
  5
2D7
330
1A
100
AcDbEntity
  8
SEIHIN
  6
CONTINUOUS
 62
     3
100
AcDbCircle
 10
497.1962844431486
 20
186.9000821920345
 30
0.0
 40
1.999999979036221
100
AcDbArc
 50
323.3429131264154
 51
17.98711433479953
  0
ARC
  5
2D8
330
1A
100
AcDbEntity
  8
SEIHIN
  6
CONTINUOUS
 62
     3
100
AcDbCircle
 10
494.0733132431487
 20
177.5041690920345
 30
0.0
 40
3.500000031830415
100
AcDbArc
 50
199.8292860762856
 51
267.0148639395489
  0
ARC
  5
2D9
330
1A
100
AcDbEntity
  8
SEIHIN
  6
CONTINUOUS
 62
     3
100
AcDbCircle
 10
494.0733132431487
 20
177.5041690920345
 30
0.0
 40
2.000000019760399
100
AcDbArc
 50
199.829286353939
 51
267.0148631647752
  0
ARC
  5
2DA
330
1A
100
AcDbEntity
  8
NOKITOI
  6
PHANTOM
 62
     8
 48
5.0
100
AcDbCircle
 10
494.1101396130871
 20
177.4021136643336
 30
0.0
 40
0.6000000182204768
100
AcDbArc
 50
199.8543536299542
 51
267.0172768003492
  0
ARC
  5
2DB
330
1A
100
AcDbEntity
  8
SEIHIN
  6
CONTINUOUS
 62
     3
100
AcDbCircle
 10
494.0733132431487
 20
177.5041690920345
 30
0.0
 40
4.500000039106812
100
AcDbArc
 50
199.8292861379873
 51
267.0148650388884
  0
ARC
  5
2DC
330
1A
100
AcDbEntity
  8
NOKITOI
  6
PHANTOM
 62
     8
 48
5.0
100
AcDbCircle
 10
494.0733132130871
 20
177.5041690643336
 30
0.0
 40
2.000000019760399
100
AcDbArc
 50
199.829286353939
 51
267.0148631647752
  0
LINE
  5
2DD
330
1A
100
AcDbEntity
  8
SEIHIN
  6
CONTINUOUS
 62
     3
100
AcDbLine
 10
492.1918982431487
 20
176.8257314920345
 30
0.0
 11
498.8007304431487
 21
185.7060332920345
 31
0.0
  0
LINE
  5
2DE
330
1A
100
AcDbEntity
  8
SEIHIN
  6
CONTINUOUS
 62
     3
100
AcDbLine
 10
493.9691594431487
 20
175.5068828920345
 30
0.0
 11
500.5942408431487
 21
184.3213828920346
 31
0.0
  0
LINE
  5
2DF
330
1A
100
AcDbEntity
  8
SEIHIN
  6
CONTINUOUS
 62
     3
100
AcDbLine
 10
490.3987580431487
 20
212.8962116920346
 30
0.0
 11
475.8884658431486
 21
210.3810943920346
 31
0.0
  0
LINE
  5
2E0
330
1A
100
AcDbEntity
  8
NOKITOI
  6
PHANTOM
 62
     8
 48
5.0
100
AcDbLine
 10
471.190161613087
 20
208.7736260643337
 30
0.0
 11
485.5717567130869
 21
203.8709077643336
 31
0.0
  0
ARC
  5
2E1
330
1A
100
AcDbEntity
  8
SEIHIN
  6
CONTINUOUS
 62
     3
100
AcDbCircle
 10
483.1575867431488
 20
199.4621426920346
 30
0.0
 40
0.4999999978777711
100
AcDbArc
 50
14.2822970989206
 51
99.83356848053105
  0
ARC
  5
2E2
330
1A
100
AcDbEntity
  8
NOKITOI
  6
PHANTOM
 62
     8
 48
5.0
100
AcDbCircle
 10
484.272645213087
 20
201.1777860643336
 30
0.0
 40
0.4999999877460623
100
AcDbArc
 50
13.96493336165369
 51
99.83355718972356
  0
ARC
  5
2E3
330
1A
100
AcDbEntity
  8
SEIHIN
  6
CONTINUOUS
 62
     3
100
AcDbCircle
 10
484.2726452431486
 20
201.1777860920346
 30
0.0
 40
0.4999999877460623
100
AcDbArc
 50
13.96493336165369
 51
99.83355718972356
  0
ARC
  5
2E4
330
1A
100
AcDbEntity
  8
SEIHIN
  6
CONTINUOUS
 62
     3
100
AcDbCircle
 10
482.4184186431486
 20
198.3191091920346
 30
0.0
 40
0.4999999941797596
100
AcDbArc
 50
14.49185686817848
 51
99.83356848053105
  0
ARC
  5
2E5
330
1A
100
AcDbEntity
  8
SEIHIN
  6
CONTINUOUS
 62
     3
100
AcDbCircle
 10
476.2300393431487
 20
208.4104783920346
 30
0.0
 40
1.999999980871734
100
AcDbArc
 50
99.8335656578266
 51
164.2947830393664
  0
ARC
  5
2E6
330
1A
100
AcDbEntity
  8
NOKITOI
  6
PHANTOM
 62
     8
 48
5.0
100
AcDbCircle
 10
719.6436552130871
 20
200.2400732643336
 30
0.0
 40
248.6000000065055
100
AcDbArc
 50
178.3341220668001
 51
179.9030064499242
  0
LINE
  5
2E7
330
1A
100
AcDbEntity
  8
SEIHIN
  6
CONTINUOUS
 62
     3
100
AcDbLine
 10
474.3047051431488
 20
208.9518545920345
 30
0.0
 11
471.6460319431487
 21
199.4966286920346
 31
0.0
  0
ARC
  5
2E8
330
1A
100
AcDbEntity
  8
NOKITOI
  6
PHANTOM
 62
     8
 48
5.0
100
AcDbCircle
 10
470.1441489130871
 20
199.7437577643336
 30
0.0
 40
0.5000000343154716
100
AcDbArc
 50
180.1139728194328
 51
279.8335571897235
  0
ARC
  5
2E9
330
1A
100
AcDbEntity
  8
SEIHIN
  6
CONTINUOUS
 62
     3
100
AcDbCircle
 10
470.1441489431488
 20
199.7437577920345
 30
0.0
 40
0.5000000343154716
100
AcDbArc
 50
180.1139728194328
 51
279.8335571897235
  0
LINE
  5
2EA
330
1A
100
AcDbEntity
  8
NOKITOI
  6
PHANTOM
 62
     8
 48
5.0
100
AcDbLine
 10
471.1487259130871
 20
207.4671135643336
 30
0.0
 11
484.348990313087
 21
202.9671135643336
 31
0.0
  0
LINE
  5
2EB
330
1A
100
AcDbEntity
  8
NOKITOI
  6
PHANTOM
 62
     8
 48
5.0
100
AcDbLine
 10
484.1872519130872
 20
201.6704400643336
 30
0.0
 11
470.229542213087
 21
199.2511037643336
 31
0.0
  0
LINE
  5
2EC
330
1A
100
AcDbEntity
  8
NOKITOI
  6
PHANTOM
 62
     8
 48
5.0
100
AcDbLine
 10
484.348990313087
 20
202.9671135643336
 30
0.0
 11
471.0440114130871
 21
200.6609172643336
 31
0.0
  0
LINE
  5
2ED
330
1A
100
AcDbEntity
  8
SEIHIN
  6
CONTINUOUS
 62
     3
100
AcDbLine
 10
484.1872519431488
 20
201.6704400920346
 30
0.0
 11
470.2295422431486
 21
199.2511037920345
 31
0.0
  0
ARC
  5
2EE
330
1A
100
AcDbEntity
  8
SEIHIN
  6
CONTINUOUS
 62
     3
100
AcDbCircle
 10
490.7403315431488
 20
210.9255956920345
 30
0.0
 40
2.000000000966346
100
AcDbArc
 50
12.09446455195641
 51
99.83356565782926
  0
LINE
  5
2EF
330
1A
100
AcDbEntity
  8
NOKITOI
  6
CENTER
 62
     1
 48
5.0
100
AcDbLine
 10
546.0460319431486
 20
164.6499619583783
 30
0.0
 11
546.0460319431486
 21
182.4499619425263
 31
0.0
  0
LINE
  5
2F0
330
1A
100
AcDbEntity
  8
SEIHIN
  6
CONTINUOUS
 62
     3
100
AcDbLine
 10
506.0460319431488
 20
172.4482848920346
 30
0.0
 11
512.5876185431486
 21
153.0119949920345
 31
0.0
  0
ARC
  5
2F2
330
1A
100
AcDbEntity
  8
SEIHIN
  6
CONTINUOUS
 62
     3
100
AcDbCircle
 10
514.4831390431486
 20
153.6499619920346
 30
0.0
 40
1.999999982376144
100
AcDbArc
 50
198.601462755211
 51
270.0
  0
LINE
  5
2F4
330
1A
100
AcDbEntity
  8
SEIHIN
  6
CONTINUOUS
 62
     3
100
AcDbLine
 10
515.5773171431487
 20
183.3160149920346
 30
0.0
 11
518.5349042431487
 21
174.5284646920346
 31
0.0
  0
ARC
  5
2F5
330
1A
100
AcDbEntity
  8
SEIHIN
  6
CONTINUOUS
 62
     3
100
AcDbCircle
 10
513.6817965431487
 20
182.6780479920346
 30
0.0
 40
2.000000024931169
100
AcDbArc
 50
18.60146184139103
 51
88.13037908741229
  0
ARC
  5
2F6
330
1A
100
AcDbEntity
  8
SEIHIN
  6
CONTINUOUS
 62
     3
100
AcDbCircle
 10
546.0460319431488
 20
1174.149961992034
 30
0.0
 40
989.9999999950649
100
AcDbArc
 50
267.4663179917548
 51
268.1303798260596
  0
ARC
  5
2F7
330
1A
100
AcDbEntity
  8
NOKITOI
  6
PHANTOM
 62
     8
 48
5.0
100
AcDbCircle
 10
488.6011121130872
 20
268.2699619643336
 30
0.0
 40
7.75
100
AcDbArc
 50
90.0
 51
270.0
  0
ARC
  5
2F8
330
1A
100
AcDbEntity
  8
NOKITOI
  6
PHANTOM
 62
     8
 48
5.0
100
AcDbCircle
 10
719.6436552130871
 20
200.2400732643336
 30
0.0
 40
248.5999999803394
100
AcDbArc
 50
164.6645082243118
 51
168.3595484367841
  0
ARC
  5
2F9
330
1A
100
AcDbEntity
  8
NOKITOI
  6
PHANTOM
 62
     8
 48
5.0
100
AcDbCircle
 10
488.6011121130872
 20
268.2699619643336
 30
0.0
 40
8.999999994057974
100
AcDbArc
 50
194.6914618307766
 51
270.0
  0
ARC
  5
2FA
330
1A
100
AcDbEntity
  8
NOKITOI
  6
PHANTOM
 62
     8
 48
5.0
100
AcDbCircle
 10
500.823150713087
 20
216.1785935643337
 30
0.0
 40
41.24999998166301
100
AcDbArc
 50
105.9368511361181
 51
123.9414132906371
  0
ARC
  5
2FB
330
1A
100
AcDbEntity
  8
NOKITOI
  6
PHANTOM
 62
     8
 48
5.0
100
AcDbCircle
 10
500.823150713087
 20
216.1785935643337
 30
0.0
 40
39.99999996219692
100
AcDbArc
 50
106.0024208385435
 51
124.484011803739
  0
LINE
  5
2FC
330
1A
100
AcDbEntity
  8
NOKITOI
  6
PHANTOM
 62
     8
 48
5.0
100
AcDbLine
 10
477.7914238130871
 20
250.3999619643336
 30
0.0
 11
476.1566010130872
 21
250.3999619643336
 31
0.0
  0
LINE
  5
2FD
330
1A
100
AcDbEntity
  8
NOKITOI
  6
PHANTOM
 62
     8
 48
5.0
100
AcDbLine
 10
478.1761009130869
 20
249.1499619643336
 30
0.0
 11
475.9024343130871
 21
249.1499619643336
 31
0.0
  0
LINE
  5
2FE
330
1A
100
AcDbEntity
  8
NOKITOI
  6
PHANTOM
 62
     8
 48
5.0
100
AcDbLine
 10
488.6011121130872
 20
259.2699619643336
 30
0.0
 11
488.996031913087
 21
259.2699619643336
 31
0.0
  0
LINE
  5
2FF
330
1A
100
AcDbEntity
  8
NOKITOI
  6
PHANTOM
 62
     8
 48
5.0
100
AcDbLine
 10
488.6011121130872
 20
260.5199619643336
 30
0.0
 11
488.996031913087
 21
260.5199619643336
 31
0.0
  0
ARC
  5
300
330
1A
100
AcDbEntity
  8
NOKITOI
  6
PHANTOM
 62
     8
 48
5.0
100
AcDbCircle
 10
488.996031913087
 20
257.5199619643336
 30
0.0
 40
3.000000019776864
100
AcDbArc
 50
285.4660097444077
 51
90.0
  0
ARC
  5
301
330
1A
100
AcDbEntity
  8
NOKITOI
  6
PHANTOM
 62
     8
 48
5.0
100
AcDbCircle
 10
488.996031913087
 20
257.5199619643336
 30
0.0
 40
1.749999987870444
100
AcDbArc
 50
285.466011305532
 51
90.0
  0
ARC
  5
302
330
1A
100
AcDbEntity
  8
SEIHIN
  6
CONTINUOUS
 62
     3
100
AcDbCircle
 10
484.1329426431486
 20
285.5920165920346
 30
0.0
 40
2.000000015967109
100
AcDbArc
 50
90.0
 51
160.0788699721814
  0
ARC
  5
303
330
1A
100
AcDbEntity
  8
SEIHIN
  6
CONTINUOUS
 62
     3
100
AcDbCircle
 10
484.9009648431488
 20
287.0920165920346
 30
0.0
 40
0.5
100
AcDbArc
 50
0.0
 51
90.0
  0
ARC
  5
304
330
1A
100
AcDbEntity
  8
NOKITOI
  6
PHANTOM
 62
     8
 48
5.0
100
AcDbCircle
 10
488.6011121130872
 20
268.2699619643336
 30
0.0
 40
9.000000014904554
100
AcDbArc
 50
90.0
 51
132.4946761440465
  0
LINE
  5
305
330
1A
100
AcDbEntity
  8
SEIHIN
  6
CONTINUOUS
 62
     3
100
AcDbLine
 10
487.0446805431488
 20
274.4508224920346
 30
0.0
 11
481.5437860431486
 21
276.4529843920346
 31
0.0
  0
LINE
  5
306
330
1A
100
AcDbEntity
  8
SEIHIN
  6
CONTINUOUS
 62
     3
100
AcDbLine
 10
481.5920769431486
 20
274.4508224920346
 30
0.0
 11
487.0446805431488
 21
274.4508224920346
 31
0.0
  0
LINE
  5
307
330
1A
100
AcDbEntity
  8
SEIHIN
  6
CONTINUOUS
 62
     3
100
AcDbLine
 10
481.0435102431488
 20
272.4508224920346
 30
0.0
 11
487.0446804431487
 21
272.4508224920346
 31
0.0
  0
LINE
  5
308
330
1A
100
AcDbEntity
  8
NOKITOI
  6
PHANTOM
 62
     8
 48
5.0
100
AcDbLine
 10
484.5999019130871
 20
284.0164707643337
 30
0.0
 11
492.105666313087
 21
281.8088930643336
 31
0.0
  0
LINE
  5
309
330
1A
100
AcDbEntity
  8
NOKITOI
  6
PHANTOM
 62
     8
 48
5.0
100
AcDbLine
 10
485.024014413087
 20
282.4324339643336
 30
0.0
 11
490.7379753130871
 21
280.7518572643337
 31
0.0
  0
LINE
  5
30A
330
1A
100
AcDbEntity
  8
SEIHIN
  6
CONTINUOUS
 62
     3
100
AcDbLine
 10
484.7177824431487
 20
284.2949499920346
 30
0.0
 11
494.0278982431486
 21
281.1889497920345
 31
0.0
  0
ARC
  5
30B
330
1A
100
AcDbEntity
  8
SEIHIN
  6
CONTINUOUS
 62
     3
100
AcDbCircle
 10
484.5595480431486
 20
283.8206485920345
 30
0.0
 40
0.4999999311947296
100
AcDbArc
 50
71.55049113553312
 51
160.4279452306725
  0
ARC
  5
30C
330
1A
100
AcDbEntity
  8
NOKITOI
  6
PHANTOM
 62
     8
 48
5.0
100
AcDbCircle
 10
719.6436552130871
 20
200.2400732643336
 30
0.0
 40
248.5999999949611
100
AcDbArc
 50
160.6935328727965
 51
162.5216300574457
  0
ARC
  5
30D
330
1A
100
AcDbEntity
  8
NOKITOI
  6
PHANTOM
 62
     8
 48
5.0
100
AcDbCircle
 10
484.4588187130869
 20
283.5367880643336
 30
0.0
 40
0.4999999848090738
100
AcDbArc
 50
73.61045384586415
 51
160.4970984965349
  0
ARC
  5
30E
330
1A
100
AcDbEntity
  8
SEIHIN
  6
CONTINUOUS
 62
     3
100
AcDbCircle
 10
481.0435102431488
 20
271.4508224920346
 30
0.0
 40
0.9999999868734692
100
AcDbArc
 50
90.0
 51
163.382150183043
  0
ARC
  5
30F
330
1A
100
AcDbEntity
  8
SEIHIN
  6
CONTINUOUS
 62
     3
100
AcDbCircle
 10
481.5920769431486
 20
274.9508224920345
 30
0.0
 40
0.500000007690034
100
AcDbArc
 50
162.5759211211603
 51
270.0
  0
ARC
  5
310
330
1A
100
AcDbEntity
  8
SEIHIN
  6
CONTINUOUS
 62
     3
100
AcDbCircle
 10
494.4641202431487
 20
280.7798737920345
 30
0.0
 40
2.749999968381273
100
AcDbArc
 50
246.3701643963788
 51
71.55049113720254
  0
ARC
  5
311
330
1A
100
AcDbEntity
  8
NOKITOI
  6
PHANTOM
 62
     8
 48
5.0
100
AcDbCircle
 10
492.540243413087
 20
278.8645310643336
 30
0.0
 40
2.400000047470255
100
AcDbArc
 50
156.8014101132925
 51
205.0228093827384
  0
LINE
  5
312
330
1A
100
AcDbEntity
  8
NOKITOI
  6
PHANTOM
 62
     8
 48
5.0
100
AcDbLine
 10
490.0362069130871
 20
276.9726154643336
 30
0.0
 11
490.3655086130871
 21
277.8493813643336
 31
0.0
  0
LINE
  5
313
330
1A
100
AcDbEntity
  8
NOKITOI
  6
PHANTOM
 62
     8
 48
5.0
100
AcDbLine
 10
490.9781284130871
 20
275.9253561643336
 30
0.0
 11
491.3084241130872
 21
276.8047685643336
 31
0.0
  0
LINE
  5
314
330
1A
100
AcDbEntity
  8
NOKITOI
  6
PHANTOM
 62
     8
 48
5.0
100
AcDbLine
 10
490.7379753130871
 20
280.7518572643337
 30
0.0
 11
490.3342953130872
 21
279.8099373643336
 31
0.0
  0
LINE
  5
315
330
1A
100
AcDbEntity
  8
NOKITOI
  6
PHANTOM
 62
     8
 48
5.0
100
AcDbLine
 10
495.4620939130871
 20
276.6197407643336
 30
0.0
 11
493.462636913087
 21
270.8560885643336
 31
0.0
  0
LINE
  5
316
330
1A
100
AcDbEntity
  8
NOKITOI
  6
PHANTOM
 62
     8
 48
5.0
100
AcDbLine
 10
492.456587413087
 20
271.7699619643336
 30
0.0
 11
490.1306569130871
 21
271.7699619643336
 31
0.0
  0
ARC
  5
317
330
1A
100
AcDbEntity
  8
NOKITOI
  6
PHANTOM
 62
     8
 48
5.0
100
AcDbCircle
 10
492.9902541130871
 20
271.0199619643336
 30
0.0
 40
0.5000000004817052
100
AcDbArc
 50
270.0
 51
340.86792768522
  0
LINE
  5
318
330
1A
100
AcDbEntity
  8
NOKITOI
  6
PHANTOM
 62
     8
 48
5.0
100
AcDbLine
 10
492.424155613087
 20
281.1322506643337
 30
0.0
 11
491.6210983130871
 21
279.2584503643336
 31
0.0
  0
LINE
  5
319
330
1A
100
AcDbEntity
  8
NOKITOI
  6
PHANTOM
 62
     8
 48
5.0
100
AcDbLine
 10
492.3233129130871
 20
277.8883439643336
 30
0.0
 11
495.0981764130871
 21
277.2717076643337
 31
0.0
  0
ARC
  5
31A
330
1A
100
AcDbEntity
  8
NOKITOI
  6
PHANTOM
 62
     8
 48
5.0
100
AcDbCircle
 10
492.540243413087
 20
278.8645310643336
 30
0.0
 40
1.000000056450777
100
AcDbArc
 50
156.8014109910137
 51
257.4711904264685
  0
ARC
  5
31B
330
1A
100
AcDbEntity
  8
NOKITOI
  6
PHANTOM
 62
     8
 48
5.0
100
AcDbCircle
 10
488.9183319130872
 20
275.0199619643336
 30
0.0
 40
2.250000031016012
100
AcDbArc
 50
340.0168932605392
 51
23.7281380245922
  0
LINE
  5
31C
330
1A
100
AcDbEntity
  8
NOKITOI
  6
PHANTOM
 62
     8
 48
5.0
100
AcDbLine
 10
490.1306569130871
 20
271.7699619643336
 30
0.0
 11
491.032867113087
 21
274.2510400643336
 31
0.0
  0
LINE
  5
31D
330
1A
100
AcDbEntity
  8
NOKITOI
  6
PHANTOM
 62
     8
 48
5.0
100
AcDbLine
 10
493.955739613087
 20
276.0914310643336
 30
0.0
 11
492.456587413087
 21
271.7699619643336
 31
0.0
  0
LINE
  5
31E
330
1A
100
AcDbEntity
  8
NOKITOI
  6
PHANTOM
 62
     8
 48
5.0
100
AcDbLine
 10
492.0196103130871
 20
276.5216820643336
 30
0.0
 11
493.955739613087
 21
276.0914310643336
 31
0.0
  0
ARC
  5
31F
330
1A
100
AcDbEntity
  8
NOKITOI
  6
PHANTOM
 62
     8
 48
5.0
100
AcDbCircle
 10
492.540243413087
 20
278.8645310643336
 30
0.0
 40
2.400000063111982
100
AcDbArc
 50
239.118910034195
 51
257.4711925497889
  0
ARC
  5
320
330
1A
100
AcDbEntity
  8
NOKITOI
  6
PHANTOM
 62
     8
 48
5.0
100
AcDbCircle
 10
491.964583113087
 20
281.3292102643337
 30
0.0
 40
0.5000000123631865
100
AcDbArc
 50
336.8014140003298
 51
73.61045707926418
  0
ARC
  5
321
330
1A
100
AcDbEntity
  8
NOKITOI
  6
PHANTOM
 62
     8
 48
5.0
100
AcDbCircle
 10
494.989711113087
 20
276.7836140643336
 30
0.0
 40
0.5000000259269038
100
AcDbArc
 50
340.8679385114455
 51
77.47118607626031
  0
ARC
  5
322
330
1A
100
AcDbEntity
  8
SEIHIN
  6
CONTINUOUS
 62
     3
100
AcDbCircle
 10
493.8696638431488
 20
280.7146482920345
 30
0.0
 40
0.5000000025169598
100
AcDbArc
 50
336.8014140003417
 51
71.55049476199734
  0
LINE
  5
323
330
1A
100
AcDbEntity
  8
SEIHIN
  6
CONTINUOUS
 62
     3
100
AcDbLine
 10
494.3292363431488
 20
280.5176886920346
 30
0.0
 11
493.3614795431488
 21
278.2595894920345
 31
0.0
  0
ARC
  5
324
330
1A
100
AcDbEntity
  8
NOKITOI
  6
PHANTOM
 62
     8
 48
5.0
100
AcDbCircle
 10
489.059881913087
 20
271.0199619643336
 30
0.0
 40
0.4999999890915354
100
AcDbArc
 50
160.0168964151655
 51
270.0
  0
LINE
  5
325
330
1A
100
AcDbEntity
  8
NOKITOI
  6
PHANTOM
 62
     8
 48
5.0
100
AcDbLine
 10
488.9183319130872
 20
276.0199619643336
 30
0.0
 11
488.6011121130872
 21
276.0199619643336
 31
0.0
  0
LINE
  5
326
330
1A
100
AcDbEntity
  8
SEIHIN
  6
CONTINUOUS
 62
     3
100
AcDbLine
 10
485.4009648431488
 20
287.0920165920346
 30
0.0
 11
485.4009648431488
 21
287.0627674920346
 31
0.0
  0
ARC
  5
327
330
1A
100
AcDbEntity
  8
SEIHIN
  6
CONTINUOUS
 62
     3
100
AcDbCircle
 10
485.9009648431488
 20
287.0627674920346
 30
0.0
 40
0.5000000191228109
100
AcDbArc
 50
180.0
 51
251.5504947619973
  0
LINE
  5
328
330
1A
100
AcDbEntity
  8
NOKITOI
  6
PHANTOM
 62
     8
 48
5.0
100
AcDbLine
 10
488.9183319130872
 20
277.2699619643336
 30
0.0
 11
488.6011121130872
 21
277.2699619643336
 31
0.0
  0
ARC
  5
329
330
1A
100
AcDbEntity
  8
SEIHIN
  6
CONTINUOUS
 62
     3
100
AcDbCircle
 10
487.0446807431488
 20
273.4508224920346
 30
0.0
 40
1.000000000000032
100
AcDbArc
 50
269.9999828112655
 51
90.00001145915197
  0
LINE
  5
32A
330
1A
100
AcDbEntity
  8
NOKITOI
  6
PHANTOM
 62
     8
 48
5.0
100
AcDbLine
 10
488.589985213087
 20
271.1908334643336
 30
0.0
 11
489.858125313087
 21
274.6782188643336
 31
0.0
  0
LINE
  5
32B
330
1A
100
AcDbEntity
  8
SEIHIN
  6
CONTINUOUS
 62
     3
100
AcDbLine
 10
485.7427304431487
 20
286.5884659920345
 30
0.0
 11
495.3344095431487
 21
283.3885317920345
 31
0.0
  0
ARC
  5
32C
330
1A
100
AcDbEntity
  8
NOKITOI
  6
PHANTOM
 62
     8
 48
5.0
100
AcDbCircle
 10
488.9183319130872
 20
275.0199619643336
 30
0.0
 40
0.9999999952702907
100
AcDbArc
 50
340.0168910305436
 51
90.0
  0
ARC
  5
32D
330
1A
100
AcDbEntity
  8
NOKITOI
  6
PHANTOM
 62
     8
 48
5.0
100
AcDbCircle
 10
488.9183319130872
 20
275.0199619643336
 30
0.0
 40
2.250000022965255
100
AcDbArc
 50
60.20928543599032
 51
90.0
  0
LINE
  5
32E
330
1A
100
AcDbEntity
  8
NOKITOI
  6
PHANTOM
 62
     8
 48
5.0
100
AcDbLine
 10
492.9902541130871
 20
270.5199619643336
 30
0.0
 11
489.059881913087
 21
270.5199619643336
 31
0.0
  0
LINE
  5
32F
330
1A
100
AcDbEntity
  8
SEIHIN
  6
CONTINUOUS
 62
     3
100
AcDbLine
 10
483.9171047431486
 20
287.5920165920346
 30
0.0
 11
484.9009648431488
 21
287.5920165920346
 31
0.0
  0
LINE
  5
330
330
1A
100
AcDbEntity
  8
NOKITOI
  6
PHANTOM
 62
     8
 48
5.0
100
AcDbLine
 10
615.0747510130871
 20
238.8923175643336
 30
0.0
 11
612.075590013087
 21
180.7661512643336
 31
0.0
  0
LINE
  5
331
330
1A
100
AcDbEntity
  8
SEIHIN
  6
CONTINUOUS
 62
     3
100
AcDbLine
 10
615.0726373431487
 20
238.3904098920346
 30
0.0
 11
612.0772009431487
 21
180.7643482920345
 31
0.0
  0
LINE
  5
332
330
1A
100
AcDbEntity
  8
SEIHIN
  6
CONTINUOUS
 62
     3
100
AcDbLine
 10
616.7648462431486
 20
242.0491563920345
 30
0.0
 11
613.5751785431486
 21
180.6864824920345
 31
0.0
  0
LINE
  5
333
330
1A
100
AcDbEntity
  8
NOKITOI
  6
PHANTOM
 62
     8
 48
5.0
100
AcDbLine
 10
610.7773170130871
 20
180.8331387643336
 30
0.0
 11
613.2868699130871
 21
229.4703038643337
 31
0.0
  0
LINE
  5
334
330
1A
100
AcDbEntity
  8
SEIHIN
  6
CONTINUOUS
 62
     3
100
AcDbLine
 10
617.5692666431487
 20
238.2606331920345
 30
0.0
 11
613.1657577431488
 21
153.5461406920345
 31
0.0
  0
ARC
  5
337
330
1A
100
AcDbEntity
  8
SEIHIN
  6
CONTINUOUS
 62
     3
100
AcDbCircle
 10
611.1684543431488
 20
153.6499619920346
 30
0.0
 40
1.999999966748139
100
AcDbArc
 50
270.0
 51
357.0244013237821
  0
LINE
  5
338
330
1A
100
AcDbEntity
  8
SEIHIN
  6
CONTINUOUS
 62
     3
100
AcDbLine
 10
603.7005394431487
 20
212.2537829920346
 30
0.0
 11
601.8007364431487
 21
175.7054652920345
 31
0.0
  0
ARC
  5
339
330
1A
100
AcDbEntity
  8
SEIHIN
  6
CONTINUOUS
 62
     3
100
AcDbCircle
 10
607.0839422431488
 20
181.0239007920346
 30
0.0
 40
6.499999997716454
100
AcDbArc
 50
273.516996629005
 51
357.0244095808144
  0
ARC
  5
33A
330
1A
100
AcDbEntity
  8
NOKITOI
  6
PHANTOM
 62
     8
 48
5.0
100
AcDbCircle
 10
607.0822324130871
 20
181.0237956643336
 30
0.0
 40
3.70000002999136
100
AcDbArc
 50
273.5168983431853
 51
357.0463038922554
  0
ARC
  5
33B
330
1A
100
AcDbEntity
  8
SEIHIN
  6
CONTINUOUS
 62
     3
100
AcDbCircle
 10
607.0839422457567
 20
181.0239007496009
 30
0.0
 40
5.000000037051943
100
AcDbArc
 50
273.5169971082267
 51
357.024410025533
  0
ARC
  5
33C
330
1A
100
AcDbEntity
  8
NOKITOI
  6
PHANTOM
 62
     8
 48
5.0
100
AcDbCircle
 10
607.0822324130871
 20
181.0237956643336
 30
0.0
 40
5.000000063450202
100
AcDbArc
 50
273.5168983936105
 51
357.0463045918563
  0
ARC
  5
33D
330
1A
100
AcDbEntity
  8
SEIHIN
  6
CONTINUOUS
 62
     3
100
AcDbCircle
 10
607.0839422431488
 20
181.0239007920346
 30
0.0
 40
7.500000053821795
100
AcDbArc
 50
273.5169963691536
 51
357.0244096639046
  0
ARC
  5
33E
330
1A
100
AcDbEntity
  8
SEIHIN
  6
CONTINUOUS
 62
     3
100
AcDbCircle
 10
605.6978428431486
 20
212.1499619920346
 30
0.0
 40
1.999999958961552
100
AcDbArc
 50
90.0
 51
177.0244099065622
  0
LINE
  5
33F
330
1A
100
AcDbEntity
  8
SEIHIN
  6
CONTINUOUS
 62
     3
100
AcDbLine
 10
605.6978428431486
 20
214.1499619920346
 30
0.0
 11
613.8126046431486
 21
214.1499619920346
 31
0.0
  0
LINE
  5
340
330
1A
100
AcDbEntity
  8
NOKITOI
  6
PHANTOM
 62
     8
 48
5.0
100
AcDbLine
 10
609.646031913087
 20
242.8499619643337
 30
0.0
 11
609.646031913087
 21
239.8499619643337
 31
0.0
  0
LINE
  5
341
330
1A
100
AcDbEntity
  8
NOKITOI
  6
PHANTOM
 62
     8
 48
5.0
100
AcDbLine
 10
603.236794613087
 20
229.7494249643337
 30
0.0
 11
606.3460319130871
 21
241.1499619643336
 31
0.0
  0
ARC
  5
342
330
1A
100
AcDbEntity
  8
SEIHIN
  6
CONTINUOUS
 62
     3
100
AcDbCircle
 10
610.0793786431486
 20
238.6499619920346
 30
0.0
 40
7.499999972235148
100
AcDbArc
 50
357.0244096242479
 51
90.0
  0
ARC
  5
343
330
1A
100
AcDbEntity
  8
SEIHIN
  6
CONTINUOUS
 62
     3
100
AcDbCircle
 10
610.0793786431486
 20
238.6499619920346
 30
0.0
 40
4.999999986887038
100
AcDbArc
 50
357.0244146030165
 51
90.0
  0
ARC
  5
344
330
1A
100
AcDbEntity
  8
NOKITOI
  6
PHANTOM
 62
     8
 48
5.0
100
AcDbCircle
 10
610.081393413087
 20
239.1499619643336
 30
0.0
 40
3.700000017207764
100
AcDbArc
 50
357.0463038922554
 51
90.0
  0
ARC
  5
345
330
1A
100
AcDbEntity
  8
NOKITOI
  6
PHANTOM
 62
     8
 48
5.0
100
AcDbCircle
 10
610.081393413087
 20
239.1499619643336
 30
0.0
 40
5.000000037916439
100
AcDbArc
 50
357.0463045918563
 51
90.0
  0
LINE
  5
346
330
1A
100
AcDbEntity
  8
NOKITOI
  6
PHANTOM
 62
     8
 48
5.0
100
AcDbLine
 10
613.3845129130872
 20
231.3627040643337
 30
0.0
 11
613.776478013087
 21
238.9593050643336
 31
0.0
  0
ARC
  5
347
330
1A
100
AcDbEntity
  8
NOKITOI
  6
PHANTOM
 62
     8
 48
5.0
100
AcDbCircle
 10
612.7875341130872
 20
229.4960682643336
 30
0.0
 40
0.500000028423496
100
AcDbArc
 50
357.0463094056244
 51
95.56100865758267
  0
LINE
  5
348
330
1A
100
AcDbEntity
  8
NOKITOI
  6
PHANTOM
 62
     8
 48
5.0
100
AcDbLine
 10
609.646031913087
 20
239.8499619643337
 30
0.0
 11
607.338966513087
 21
239.8499619643337
 31
0.0
  0
LINE
  5
349
330
1A
100
AcDbEntity
  8
NOKITOI
  6
PHANTOM
 62
     8
 48
5.0
100
AcDbLine
 10
607.338966513087
 20
239.8499619643337
 30
0.0
 11
604.7962078130871
 21
230.5265131643336
 31
0.0
  0
ARC
  5
34A
330
1A
100
AcDbEntity
  8
NOKITOI
  6
PHANTOM
 62
     8
 48
5.0
100
AcDbCircle
 10
603.719176513087
 20
229.6178662643336
 30
0.0
 40
0.5000000001857141
100
AcDbArc
 50
164.744881296941
 51
275.5610086575696
  0
LINE
  5
34B
330
1A
100
AcDbEntity
  8
NOKITOI
  6
PHANTOM
 62
     8
 48
5.0
100
AcDbLine
 10
604.7962078130871
 20
230.5265131643336
 30
0.0
 11
613.3845129130872
 21
231.3627040643337
 31
0.0
  0
LINE
  5
34C
330
1A
100
AcDbEntity
  8
NOKITOI
  6
PHANTOM
 62
     8
 48
5.0
100
AcDbLine
 10
603.767629313087
 20
229.1202194643336
 30
0.0
 11
612.739081313087
 21
229.9937150643336
 31
0.0
  0
LINE
  5
34D
330
1A
100
AcDbEntity
  8
SEIHIN
  6
CONTINUOUS
 62
     3
100
AcDbLine
 10
612.9460319431487
 20
245.5893102920346
 30
0.0
 11
612.9460319431487
 21
247.1499619920346
 31
0.0
  0
ARC
  5
34E
330
1A
100
AcDbEntity
  8
SEIHIN
  6
CONTINUOUS
 62
     3
100
AcDbCircle
 10
610.8460319431487
 20
243.6499619920346
 30
0.0
 40
5.500000000000028
100
AcDbArc
 50
90.00000833393107
 51
180.0
  0
LINE
  5
34F
330
1A
100
AcDbEntity
  8
SEIHIN
  6
CONTINUOUS
 62
     3
100
AcDbLine
 10
607.8460319431488
 20
241.1499619920346
 30
0.0
 11
607.8460319431488
 21
243.6499619920346
 31
0.0
  0
LINE
  5
350
330
1A
100
AcDbEntity
  8
SEIHIN
  6
CONTINUOUS
 62
     3
100
AcDbLine
 10
607.8460319431488
 20
241.1499619920346
 30
0.0
 11
607.8460319431488
 21
243.6499619920346
 31
0.0
  0
ARC
  5
351
330
1A
100
AcDbEntity
  8
SEIHIN
  6
CONTINUOUS
 62
     3
100
AcDbCircle
 10
607.8460319431488
 20
243.6499619920346
 30
0.0
 40
2.500000000000015
100
AcDbArc
 50
89.99999083267583
 51
270.0
  0
LINE
  5
352
330
1A
100
AcDbEntity
  8
SEIHIN
  6
CONTINUOUS
 62
     3
100
AcDbLine
 10
607.8460323431486
 20
246.1499619920346
 30
0.0
 11
610.0793786431486
 21
246.1499619920346
 31
0.0
  0
LINE
  5
353
330
1A
100
AcDbEntity
  8
SEIHIN
  6
CONTINUOUS
 62
     3
100
AcDbLine
 10
610.8460311431488
 20
249.1499619920346
 30
0.0
 11
610.9460319431486
 21
249.1499619920346
 31
0.0
  0
LINE
  5
354
330
1A
100
AcDbEntity
  8
SEIHIN
  6
CONTINUOUS
 62
     3
100
AcDbLine
 10
607.8460319431488
 20
243.6499619920346
 30
0.0
 11
610.0793786431486
 21
243.6499619920346
 31
0.0
  0
LINE
  5
355
330
1A
100
AcDbEntity
  8
NOKITOI
  6
PHANTOM
 62
     8
 48
5.0
100
AcDbLine
 10
610.081393413087
 20
242.8499619643337
 30
0.0
 11
609.646031913087
 21
242.8499619643337
 31
0.0
  0
LINE
  5
356
330
1A
100
AcDbEntity
  8
NOKITOI
  6
PHANTOM
 62
     8
 48
5.0
100
AcDbLine
 10
606.3460319130871
 20
241.1499619643336
 30
0.0
 11
608.3460319130871
 21
241.1499619643336
 31
0.0
  0
LINE
  5
357
330
1A
100
AcDbEntity
  8
NOKITOI
  6
PHANTOM
 62
     8
 48
5.0
100
AcDbLine
 10
608.3460319130871
 20
241.1499619643336
 30
0.0
 11
608.3460319130871
 21
244.1499619643336
 31
0.0
  0
LINE
  5
358
330
1A
100
AcDbEntity
  8
NOKITOI
  6
PHANTOM
 62
     8
 48
5.0
100
AcDbLine
 10
608.3460319130871
 20
244.1499619643336
 30
0.0
 11
610.081393413087
 21
244.1499619643336
 31
0.0
  0
ARC
  5
359
330
1A
100
AcDbEntity
  8
SEIHIN
  6
CONTINUOUS
 62
     3
100
AcDbCircle
 10
610.9460319431486
 20
247.1499619920346
 30
0.0
 40
2.0
100
AcDbArc
 50
0.0
 51
90.0
  0
LINE
  5
56C
330
1A
100
AcDbEntity
  8
SUNPOU
  6
PHANTOM
 62
     4
 48
5.0
100
AcDbLine
 10
258.5460319431486
 20
524.7753477496835
 30
0.0
 11
258.5460319431486
 21
394.3010732496836
 31
0.0
  0
LINE
  5
56D
330
1A
100
AcDbEntity
  8
SUNPOU
  6
PHANTOM
 62
     4
 48
5.0
100
AcDbLine
 10
173.5460319431486
 20
524.7753477496835
 30
0.0
 11
173.5460319431487
 21
394.3010732496836
 31
0.0
  0
DIMENSION
  5
57C
330
1A
100
AcDbEntity
  8
SUNPOU
100
AcDbDimension
  2
*D1
 10
258.5460319431486
 20
352.4898086232997
 30
0.0
 11
216.0460319431487
 21
357.4898086232997
 31
0.0
 70
    32
  3
STANDARD
100
AcDbAlignedDimension
 13
173.5460319431487
 23
394.3010732496836
 33
0.0
 14
258.5460319431486
 24
394.3010732496836
 34
0.0
100
AcDbRotatedDimension
1001
ACAD
1000
DSTYLE
1002
{
1070
   372
1070
    -1
1070
   371
1070
    -1
1070
    41
1040
7.0
1070
    42
1040
6.0
1070
    43
1040
14.0
1070
    44
1040
3.0
1070
    73
1070
     0
1070
    74
1070
     0
1070
    77
1070
     3
1070
   140
1040
6.0
1070
   141
1040
150.0
1070
   147
1040
2.0
1070
   172
1070
     1
1070
   173
1070
     1
1070
   176
1070
   256
1070
   177
1070
   256
1070
   178
1070
   256
1070
   271
1070
     0
1070
   272
1070
     2
1070
     6
1000
OPEN
1070
     7
1000
OPEN
1002
}
  0
DIMENSION
  5
589
330
1A
100
AcDbEntity
  8
SUNPOU
100
AcDbDimension
  2
*D2
 10
331.0460319431486
 20
352.4898086232997
 30
0.0
 11
294.7960319431487
 21
357.4898086232997
 31
0.0
 70
    32
  1
※a<>
  3
STANDARD
100
AcDbAlignedDimension
 13
258.5460319431486
 23
394.3010732496836
 33
0.0
 14
331.0460319431486
 24
377.4035765496837
 34
0.0
100
AcDbRotatedDimension
1001
ACAD
1000
DSTYLE
1002
{
1070
   372
1070
    -1
1070
   371
1070
    -1
1070
    41
1040
7.0
1070
    42
1040
6.0
1070
    43
1040
14.0
1070
    44
1040
3.0
1070
    73
1070
     0
1070
    74
1070
     0
1070
    77
1070
     3
1070
   140
1040
6.0
1070
   141
1040
150.0
1070
   147
1040
2.0
1070
   172
1070
     1
1070
   173
1070
     1
1070
   176
1070
   256
1070
   177
1070
   256
1070
   178
1070
   256
1070
   271
1070
     0
1070
   272
1070
     2
1070
     6
1000
OPEN
1070
     7
1000
OPEN
1002
}
  0
DIMENSION
  5
5E0
330
1A
100
AcDbEntity
  8
SUNPOU
100
AcDbDimension
  2
*D3
 10
101.0460319431487
 20
320.4658028098015
 30
0.0
 11
216.0460319431487
 21
325.4658028098015
 31
0.0
 70
    32
  3
STANDARD
100
AcDbAlignedDimension
 13
331.0460319431486
 23
287.5920165920346
 33
0.0
 14
101.0460319431487
 24
287.5920165920346
 34
0.0
100
AcDbRotatedDimension
1001
ACAD
1000
DSTYLE
1002
{
1070
   372
1070
    -1
1070
   371
1070
    -1
1070
    41
1040
7.0
1070
    42
1040
6.0
1070
    43
1040
14.0
1070
    44
1040
3.0
1070
    73
1070
     0
1070
    74
1070
     0
1070
    77
1070
     3
1070
   140
1040
6.0
1070
   141
1040
150.0
1070
   147
1040
2.0
1070
   172
1070
     1
1070
   173
1070
     1
1070
   176
1070
   256
1070
   177
1070
   256
1070
   178
1070
   256
1070
   271
1070
     0
1070
   272
1070
     2
1070
     6
1000
OPEN
1070
     7
1000
OPEN
1002
}
  0
DIMENSION
  5
5FA
330
1A
100
AcDbEntity
  8
SUNPOU
100
AcDbDimension
  2
*D4
 10
434.0532895246801
 20
171.6499619583782
 30
0.0
 11
429.05328952468
 21
229.6209892752064
 31
0.0
 70
    32
  3
STANDARD
100
AcDbAlignedDimension
 13
484.9009648431488
 23
287.5920165920346
 33
0.0
 14
546.0460319431486
 24
171.6499619583781
 34
0.0
 50
90.0
100
AcDbRotatedDimension
1001
ACAD
1000
DSTYLE
1002
{
1070
   372
1070
    -1
1070
   371
1070
    -1
1070
    41
1040
7.0
1070
    42
1040
6.0
1070
    43
1040
14.0
1070
    44
1040
3.0
1070
    73
1070
     0
1070
    74
1070
     0
1070
    77
1070
     3
1070
   140
1040
6.0
1070
   141
1040
150.0
1070
   147
1040
2.0
1070
   172
1070
     1
1070
   173
1070
     1
1070
   176
1070
   256
1070
   177
1070
   256
1070
   178
1070
   256
1070
   271
1070
     0
1070
   272
1070
     2
1070
     6
1000
OPEN
1070
     7
1000
OPEN
1002
}
  0
DIMENSION
  5
609
330
1A
100
AcDbEntity
  8
SUNPOU
100
AcDbDimension
  2
*D5
 10
434.0532895246801
 20
151.6499619920346
 30
0.0
 11
429.05328952468
 21
161.6499619752064
 31
0.0
 70
    32
  3
STANDARD
100
AcDbAlignedDimension
 13
546.0460319431486
 23
171.6499619583781
 33
0.0
 14
514.4831390431486
 24
151.6499619920345
 34
0.0
 50
90.0
100
AcDbRotatedDimension
1001
ACAD
1000
DSTYLE
1002
{
1070
   372
1070
    -1
1070
   371
1070
    -1
1070
    41
1040
7.0
1070
    42
1040
6.0
1070
    43
1040
14.0
1070
    44
1040
3.0
1070
    73
1070
     0
1070
    74
1070
     0
1070
    77
1070
     3
1070
   140
1040
6.0
1070
   141
1040
150.0
1070
   147
1040
2.0
1070
   172
1070
     1
1070
   173
1070
     1
1070
   176
1070
   256
1070
   177
1070
   256
1070
   178
1070
   256
1070
   271
1070
     0
1070
   272
1070
     2
1070
     6
1000
OPEN
1070
     7
1000
OPEN
1002
}
  0
DIMENSION
  5
616
330
1A
100
AcDbEntity
  8
SUNPOU
100
AcDbDimension
  2
*D6
 10
659.0244150501539
 20
171.6499619583781
 30
0.0
 11
654.0244150501539
 21
208.899961961324
 31
0.0
 70
    32
  3
STANDARD
100
AcDbAlignedDimension
 13
610.0793786431486
 23
246.1499619642697
 33
0.0
 14
546.0460319431486
 24
171.6499619583781
 34
0.0
 50
90.0
100
AcDbRotatedDimension
1001
ACAD
1000
DSTYLE
1002
{
1070
   372
1070
    -1
1070
   371
1070
    -1
1070
    41
1040
7.0
1070
    42
1040
6.0
1070
    43
1040
14.0
1070
    44
1040
3.0
1070
    73
1070
     0
1070
    74
1070
     0
1070
    77
1070
     3
1070
   140
1040
6.0
1070
   141
1040
150.0
1070
   147
1040
2.0
1070
   172
1070
     1
1070
   173
1070
     1
1070
   176
1070
   256
1070
   177
1070
   256
1070
   178
1070
   256
1070
   271
1070
     0
1070
   272
1070
     2
1070
     6
1000
OPEN
1070
     7
1000
OPEN
1002
}
  0
DIMENSION
  5
626
330
1A
100
AcDbEntity
  8
SUNPOU
100
AcDbDimension
  2
*D7
 10
562.8257966931487
 20
204.2844109700856
 30
0.0
 11
554.4359143181487
 21
209.2844109700856
 31
0.0
 70
    32
  3
STANDARD
100
AcDbAlignedDimension
 13
546.0460319431486
 23
182.4499619425263
 33
0.0
 14
562.8257966931487
 24
161.0847883301814
 34
0.0
100
AcDbRotatedDimension
1001
ACAD
1000
DSTYLE
1002
{
1070
   372
1070
    -1
1070
   371
1070
    -1
1070
    41
1040
7.0
1070
    42
1040
6.0
1070
    43
1040
14.0
1070
    44
1040
3.0
1070
    73
1070
     0
1070
    74
1070
     0
1070
    77
1070
     3
1070
   140
1040
6.0
1070
   141
1040
150.0
1070
   147
1040
2.0
1070
   172
1070
     1
1070
   173
1070
     1
1070
   176
1070
   256
1070
   177
1070
   256
1070
   178
1070
   256
1070
   271
1070
     0
1070
   272
1070
     2
1070
     6
1000
OPEN
1070
     7
1000
OPEN
1002
}
  0
DIMENSION
  5
633
330
1A
100
AcDbEntity
  8
SUNPOU
100
AcDbDimension
  2
*D8
 10
617.5692666431487
 20
320.4658028098015
 30
0.0
 11
542.0906207511402
 21
325.4658028098015
 31
0.0
 70
    32
  3
STANDARD
100
AcDbAlignedDimension
 13
466.6119748591317
 23
196.7069524911969
 33
0.0
 14
617.5692666431487
 24
238.2606331920345
 34
0.0
100
AcDbRotatedDimension
1001
ACAD
1000
DSTYLE
1002
{
1070
   372
1070
    -1
1070
   371
1070
    -1
1070
    41
1040
7.0
1070
    42
1040
6.0
1070
    43
1040
14.0
1070
    44
1040
3.0
1070
    73
1070
     0
1070
    74
1070
     0
1070
    77
1070
     3
1070
   140
1040
6.0
1070
   141
1040
150.0
1070
   147
1040
2.0
1070
   172
1070
     1
1070
   173
1070
     1
1070
   176
1070
   256
1070
   177
1070
   256
1070
   178
1070
   256
1070
   271
1070
     0
1070
   272
1070
     2
1070
     6
1000
OPEN
1070
     7
1000
OPEN
1002
}
  0
TEXT
  5
6BC
330
1A
100
AcDbEntity
  8
SUNPOU
 62
     4
100
AcDbText
 10
671.6908493288133
 20
48.18982497777994
 30
0.0
 40
6.0
  1
※a　のきといの差込み寸法を示す
100
AcDbText
  0
LINE
  5
6D0
330
1A
100
AcDbEntity
  8
SEIHIN
  6
CONTINUOUS
 62
     3
100
AcDbLine
 10
301.0460319431487
 20
173.169425147807
 30
0.0
 11
331.0460319431486
 21
174.169425147807
 31
0.0
  0
LINE
  5
6D1
330
1A
100
AcDbEntity
  8
SEIHIN
  6
CONTINUOUS
 62
     3
100
AcDbLine
 10
131.0460319431486
 20
173.169425147807
 30
0.0
 11
301.0460319431487
 21
173.169425147807
 31
0.0
  0
LINE
  5
6D2
330
1A
100
AcDbEntity
  8
SEIHIN
  6
CONTINUOUS
 62
     3
100
AcDbLine
 10
131.0460319431486
 20
173.169425147807
 30
0.0
 11
101.0460319431487
 21
174.169425147807
 31
0.0
  0
ARC
  5
6D6
330
1A
100
AcDbEntity
  8
SEIHIN
  6
CONTINUOUS
 62
     3
100
AcDbCircle
 10
129.9798576484162
 20
171.4832685516406
 30
0.0
 40
1.0
100
AcDbArc
 50
30.96375653207326
 51
88.09084756700363
  0
ARC
  5
6D7
330
1A
100
AcDbEntity
  8
SEIHIN
  6
CONTINUOUS
 62
     3
100
AcDbCircle
 10
130.4686267205193
 20
170.6686534314686
 30
0.0
 40
1.0
100
AcDbArc
 50
30.96375653207326
 51
88.09084756700363
  0
ARC
  5
6D9
330
1A
100
AcDbEntity
  8
SEIHIN
  6
CONTINUOUS
 62
     3
100
AcDbCircle
 10
301.6234371657781
 20
170.6686534314686
 30
0.0
 40
1.0
100
AcDbArc
 50
91.90915243299638
 51
149.0362437009851
  0
ARC
  5
6DA
330
1A
100
AcDbEntity
  8
SEIHIN
  6
CONTINUOUS
 62
     3
100
AcDbCircle
 10
302.1122062332828
 20
171.4832685514872
 30
0.0
 40
1.0
100
AcDbArc
 50
91.90915243299638
 51
149.0362437009852
  0
DIMENSION
  5
795
330
1A
100
AcDbEntity
  8
SUNPOU
100
AcDbDimension
  2
*D10
 10
608.3919293199487
 20
90.32530091941637
 30
0.0
 11
563.9918793199487
 21
95.32530091941637
 31
0.0
 70
    32
  3
STANDARD
100
AcDbAlignedDimension
 13
519.5918293199485
 23
116.6500619920348
 33
0.0
 14
608.3919293199487
 24
116.6498619920348
 34
0.0
100
AcDbRotatedDimension
1001
ACAD
1000
DSTYLE
1002
{
1070
   372
1070
    -1
1070
   371
1070
    -1
1070
    41
1040
7.0
1070
    42
1040
6.0
1070
    43
1040
14.0
1070
    44
1040
3.0
1070
    73
1070
     0
1070
    74
1070
     0
1070
    77
1070
     3
1070
   140
1040
6.0
1070
   141
1040
150.0
1070
   147
1040
2.0
1070
   172
1070
     1
1070
   173
1070
     1
1070
   176
1070
   256
1070
   177
1070
   256
1070
   178
1070
   256
1070
   271
1070
     0
1070
   272
1070
     2
1070
     6
1000
OPEN
1070
     7
1000
OPEN
1002
}
  0
DIMENSION
  5
798
330
1A
100
AcDbEntity
  8
SUNPOU
100
AcDbDimension
  2
*D12
 10
434.0532895246801
 20
115.6500619920346
 30
0.0
 11
429.0532895246801
 21
133.6500004920346
 31
0.0
 70
    32
  3
STANDARD
100
AcDbAlignedDimension
 13
517.9886319431487
 23
151.6499389920346
 33
0.0
 14
520.0918293199485
 24
115.6500619920345
 34
0.0
 50
90.0
100
AcDbRotatedDimension
1001
ACAD
1000
DSTYLE
1002
{
1070
   372
1070
    -1
1070
   371
1070
    -1
1070
    41
1040
7.0
1070
    42
1040
6.0
1070
    43
1040
14.0
1070
    44
1040
3.0
1070
    73
1070
     0
1070
    74
1070
     0
1070
    77
1070
     3
1070
   140
1040
6.0
1070
   141
1040
150.0
1070
   147
1040
2.0
1070
   172
1070
     1
1070
   173
1070
     1
1070
   176
1070
   256
1070
   177
1070
   256
1070
   178
1070
   256
1070
   271
1070
     0
1070
   272
1070
     2
1070
     6
1000
OPEN
1070
     7
1000
OPEN
1002
}
  0
DIMENSION
  5
88E
330
1A
100
AcDbEntity
  8
SUNPOU
100
AcDbDimension
  2
*D13
 10
418.2156589062301
 20
115.6500619920346
 30
0.0
 11
413.2156589062301
 21
201.6210392920346
 31
0.0
 70
    32
  3
STANDARD
100
AcDbAlignedDimension
 13
484.9009648431488
 23
287.5920165920346
 33
0.0
 14
514.0918293199486
 24
115.6500619920345
 34
0.0
 50
90.0
100
AcDbRotatedDimension
1001
ACAD
1000
DSTYLE
1002
{
1070
   372
1070
    -1
1070
   371
1070
    -1
1070
    41
1040
7.0
1070
    42
1040
6.0
1070
    43
1040
14.0
1070
    44
1040
3.0
1070
    73
1070
     0
1070
    74
1070
     0
1070
    77
1070
     3
1070
   140
1040
6.0
1070
   141
1040
150.0
1070
   147
1040
2.0
1070
   172
1070
     1
1070
   173
1070
     1
1070
   176
1070
   256
1070
   177
1070
   256
1070
   178
1070
   256
1070
   271
1070
     0
1070
   272
1070
     2
1070
     6
1000
OPEN
1070
     7
1000
OPEN
1002
}
  0
LINE
  5
895
330
1A
100
AcDbEntity
  8
CENTER_L
  6
CENTER
 62
     1
 48
5.0
100
AcDbLine
 10
141.0460319431487
 20
455.3027931496837
 30
0.0
 11
94.04603194314876
 21
455.3027931496837
 31
0.0
  0
DIMENSION
  5
8A3
330
1A
100
AcDbEntity
  8
SUNPOU
100
AcDbDimension
  2
*D14
 10
331.0460319431486
 20
424.6203172840121
 30
0.0
 11
314.5460319431486
 21
429.6203172840121
 31
0.0
 70
    32
  3
STANDARD
100
AcDbAlignedDimension
 13
298.0460319431486
 23
417.1224634496836
 33
0.0
 14
331.0460319431486
 24
417.1224634496836
 34
0.0
100
AcDbRotatedDimension
1001
ACAD
1000
DSTYLE
1002
{
1070
   372
1070
    -1
1070
   371
1070
    -1
1070
    41
1040
7.0
1070
    42
1040
6.0
1070
    43
1040
14.0
1070
    44
1040
3.0
1070
    73
1070
     0
1070
    74
1070
     0
1070
    77
1070
     3
1070
   140
1040
6.0
1070
   141
1040
150.0
1070
   147
1040
2.0
1070
   172
1070
     1
1070
   173
1070
     1
1070
   176
1070
   256
1070
   177
1070
   256
1070
   178
1070
   256
1070
   271
1070
     0
1070
   272
1070
     2
1070
     6
1000
OPEN
1070
     7
1000
OPEN
1002
}
  0
TEXT
  5
9EB
330
1A
100
AcDbEntity
  8
SUNPOU
 62
     4
100
AcDbText
 10
482.0764401463634
 20
367.1195633104797
 30
0.0
 40
8.0
  1
洋風じょうご用ストッパー２個入り
100
AcDbText
  0
LINE
  5
9EC
330
1A
100
AcDbEntity
  8
SEIHIN
  6
CONTINUOUS
 62
     3
 48
5.0
100
AcDbLine
 10
604.2375196955167
 20
447.6392988247559
 30
0.0
 11
612.6664196955168
 21
447.6392988247559
 31
0.0
  0
LINE
  5
9ED
330
1A
100
AcDbEntity
  8
SEIHIN
  6
HIDDEN
 62
     6
 48
5.0
100
AcDbLine
 10
612.9708196955168
 20
445.6392988247558
 30
0.0
 11
606.2375196955168
 21
445.6392988247558
 31
0.0
  0
LINE
  5
9EE
330
1A
100
AcDbEntity
  8
SEIHIN
  6
CONTINUOUS
 62
     3
 48
5.0
100
AcDbLine
 10
605.7375196955168
 20
430.6392988247559
 30
0.0
 11
607.7375196955167
 21
430.6392988247559
 31
0.0
  0
ARC
  5
9EF
330
1A
100
AcDbEntity
  8
SEIHIN
  6
HIDDEN
 62
     6
 48
5.0
100
AcDbCircle
 10
607.2375196955167
 20
432.1392988247558
 30
0.0
 40
1.5
100
AcDbArc
 50
180.0
 51
270.0
  0
DIMENSION
  5
9F0
330
1A
100
AcDbEntity
  8
SUNPOU
 48
5.0
100
AcDbDimension
  2
*D15
 10
589.3504754001912
 20
430.6392988247559
 30
0.0
 11
585.3504754001911
 21
437.0660755200525
 31
0.0
 70
    32
  3
STANDARD
100
AcDbAlignedDimension
 13
607.8839663049235
 23
443.4928522153491
 33
0.0
 14
607.7375196955167
 24
430.6392988247559
 34
0.0
 50
90.0
100
AcDbRotatedDimension
1001
ACAD
1000
DSTYLE
1002
{
1070
   372
1070
    -1
1070
   371
1070
    -1
1070
    41
1040
3.0
1070
    42
1040
3.0
1070
    43
1040
7.0
1070
    44
1040
1.5
1070
    73
1070
     0
1070
    74
1070
     0
1070
    77
1070
     3
1070
   140
1040
6.0
1070
   141
1040
150.0
1070
   147
1040
1.0
1070
   172
1070
     1
1070
   173
1070
     1
1070
   176
1070
   256
1070
   177
1070
   256
1070
   178
1070
   256
1070
   271
1070
     0
1070
   272
1070
     2
1070
     6
1000
OPEN
1070
     7
1000
OPEN
1002
}
  0
DIMENSION
  5
9F1
330
1A
100
AcDbEntity
  8
SUNPOU
100
AcDbDimension
  2
*D16
 10
613.1664136955167
 20
458.0469988247558
 30
0.0
 11
608.4519666955168
 21
462.0469988247558
 31
0.0
 70
    32
  3
STANDARD
100
AcDbAlignedDimension
 13
603.7375196955167
 23
447.1392988247559
 33
0.0
 14
613.1664136955167
 24
447.1392988247559
 34
0.0
100
AcDbRotatedDimension
1001
ACAD
1000
DSTYLE
1002
{
1070
   372
1070
    -1
1070
   371
1070
    -1
1070
    41
1040
3.0
1070
    42
1040
3.0
1070
    43
1040
7.0
1070
    44
1040
1.5
1070
    73
1070
     0
1070
    74
1070
     0
1070
    77
1070
     3
1070
   140
1040
6.0
1070
   141
1040
150.0
1070
   147
1040
1.0
1070
   172
1070
     1
1070
   173
1070
     1
1070
   176
1070
   256
1070
   177
1070
   256
1070
   178
1070
   256
1070
   271
1070
     0
1070
   272
1070
     2
1070
     6
1000
OPEN
1070
     7
1000
OPEN
1002
}
  0
DIMENSION
  5
9F2
330
1A
100
AcDbEntity
  8
SUNPOU
100
AcDbDimension
  2
*D17
 10
609.4657196955168
 20
415.1439314610359
 30
0.0
 11
618.4657196955168
 21
419.1439314610359
 31
0.0
 70
    32
  3
STANDARD
100
AcDbAlignedDimension
 13
607.7375196955167
 23
430.6392988247559
 33
0.0
 14
609.4657196955168
 24
443.1691988247559
 34
0.0
100
AcDbRotatedDimension
1001
ACAD
1000
DSTYLE
1002
{
1070
   372
1070
    -1
1070
   371
1070
    -1
1070
    41
1040
3.0
1070
    42
1040
3.0
1070
    43
1040
7.0
1070
    44
1040
1.5
1070
    73
1070
     0
1070
    74
1070
     0
1070
    77
1070
     3
1070
   140
1040
6.0
1070
   141
1040
150.0
1070
   147
1040
1.0
1070
   172
1070
     1
1070
   173
1070
     1
1070
   176
1070
   256
1070
   177
1070
   256
1070
   178
1070
   256
1070
   271
1070
     0
1070
   272
1070
     2
1070
     6
1000
OPEN
1070
     7
1000
OPEN
1002
}
  0
LINE
  5
9F3
330
1A
100
AcDbEntity
  8
CENTER_L
  6
CENTER
 62
     1
 48
5.0
100
AcDbLine
 10
509.4722244025247
 20
413.9441697408548
 30
0.0
 11
509.4722244025247
 21
390.9441697408105
 31
0.0
  0
ARC
  5
9F4
330
1A
100
AcDbEntity
  8
SEIHIN
  6
CONTINUOUS
 62
     3
 48
5.0
100
AcDbCircle
 10
534.9723244025247
 20
405.9442197409394
 30
0.0
 40
1.0
100
AcDbArc
 50
0.0
 51
180.0
  0
LINE
  5
9F5
330
1A
100
AcDbEntity
  8
SEIHIN
  6
CONTINUOUS
 62
     3
 48
5.0
100
AcDbLine
 10
535.9723244025246
 20
398.4442197409393
 30
0.0
 11
482.9722244025247
 21
398.4442197409393
 31
0.0
  0
LINE
  5
9F6
330
1A
100
AcDbEntity
  8
SEIHIN
  6
CONTINUOUS
 62
     3
 48
5.0
100
AcDbLine
 10
535.9723244025246
 20
400.9442197409393
 30
0.0
 11
482.9722244025247
 21
400.9442197409393
 31
0.0
  0
LINE
  5
9F7
330
1A
100
AcDbEntity
  8
SEIHIN
  6
CONTINUOUS
 62
     3
 48
5.0
100
AcDbLine
 10
535.9723244025246
 20
402.9442197409394
 30
0.0
 11
482.9722244025247
 21
402.9442197409394
 31
0.0
  0
LINE
  5
9F8
330
1A
100
AcDbEntity
  8
SEIHIN
100
AcDbLine
 10
482.9722244025247
 20
397.9441177801416
 30
0.0
 11
535.9723244025246
 21
397.9442217017025
 31
0.0
  0
LINE
  5
9F9
330
1A
100
AcDbEntity
  8
SEIHIN
  6
CONTINUOUS
 62
     3
 48
5.0
100
AcDbLine
 10
533.9723244025247
 20
404.9442197409393
 30
0.0
 11
484.9722244025246
 21
404.9442197409393
 31
0.0
  0
LINE
  5
9FA
330
1A
100
AcDbEntity
  8
SEIHIN
  6
CONTINUOUS
 62
     3
 48
5.0
100
AcDbLine
 10
484.9722244025246
 20
404.9442197409393
 30
0.0
 11
484.9722244025246
 21
405.9441197409394
 31
0.0
  0
ARC
  5
9FB
330
1A
100
AcDbEntity
  8
SEIHIN
  6
CONTINUOUS
 62
     3
 48
5.0
100
AcDbCircle
 10
483.9722244025247
 20
405.9441197409394
 30
0.0
 40
1.0
100
AcDbArc
 50
0.0
 51
180.0
  0
LINE
  5
9FC
330
1A
100
AcDbEntity
  8
SEIHIN
  6
CONTINUOUS
 62
     3
 48
5.0
100
AcDbLine
 10
482.9722244025247
 20
397.9441177801416
 30
0.0
 11
482.9722244025247
 21
405.9441197409394
 31
0.0
  0
LINE
  5
9FD
330
1A
100
AcDbEntity
  8
SEIHIN
  6
CONTINUOUS
 62
     3
 48
5.0
100
AcDbLine
 10
533.9723244025248
 20
404.9442197409393
 30
0.0
 11
533.9723244025247
 21
405.9442197409394
 31
0.0
  0
LINE
  5
9FE
330
1A
100
AcDbEntity
  8
SEIHIN
  6
CONTINUOUS
 62
     3
 48
5.0
100
AcDbLine
 10
535.9723244025246
 20
397.9442217017025
 30
0.0
 11
535.9723244025246
 21
405.9442197409394
 31
0.0
  0
ARC
  5
A01
330
1A
100
AcDbEntity
  8
SEIHIN
  6
CONTINUOUS
 62
     3
 48
5.0
100
AcDbCircle
 10
534.9723244025247
 20
446.6392988247559
 30
0.0
 40
1.0
100
AcDbArc
 50
0.0
 51
180.0
  0
ARC
  5
A02
330
1A
100
AcDbEntity
  8
SEIHIN
  6
CONTINUOUS
 62
     3
 48
5.0
100
AcDbCircle
 10
534.9723244025247
 20
431.6392988247558
 30
0.0
 40
1.0
100
AcDbArc
 50
180.0
 51
0.0
  0
DIMENSION
  5
A03
330
1A
100
AcDbEntity
  8
SUNPOU
 48
5.0
100
AcDbDimension
  2
*D18
 10
555.0277842324034
 20
430.6418401249251
 30
0.0
 11
551.0277842324033
 21
438.1405694748405
 31
0.0
 70
    32
  3
STANDARD
100
AcDbAlignedDimension
 13
533.9723244025247
 23
445.6392988247558
 33
0.0
 14
535.0435714525126
 24
430.6418401249251
 34
0.0
 50
90.0
100
AcDbRotatedDimension
1001
ACAD
1000
DSTYLE
1002
{
1070
   372
1070
    -1
1070
   371
1070
    -1
1070
    41
1040
3.0
1070
    42
1040
3.0
1070
    43
1040
7.0
1070
    44
1040
1.5
1070
    73
1070
     0
1070
    74
1070
     0
1070
    77
1070
     3
1070
   140
1040
6.0
1070
   141
1040
150.0
1070
   147
1040
1.0
1070
   172
1070
     1
1070
   173
1070
     1
1070
   176
1070
   256
1070
   177
1070
   256
1070
   178
1070
   256
1070
   271
1070
     0
1070
   272
1070
     2
1070
     6
1000
OPEN
1070
     7
1000
OPEN
1002
}
  0
DIMENSION
  5
A05
330
1A
100
AcDbEntity
  8
SUNPOU
 48
5.0
100
AcDbDimension
  2
*D19
 10
569.0732681984775
 20
430.6418401249251
 30
0.0
 11
565.0732681984774
 21
439.1405694748406
 31
0.0
 70
    32
  3
STANDARD
100
AcDbAlignedDimension
 13
534.9723244025247
 23
447.6392988247559
 33
0.0
 14
535.0435714525126
 24
430.6418401249251
 34
0.0
 50
90.0
100
AcDbRotatedDimension
1001
ACAD
1000
DSTYLE
1002
{
1070
   372
1070
    -1
1070
   371
1070
    -1
1070
    41
1040
3.0
1070
    42
1040
3.0
1070
    43
1040
7.0
1070
    44
1040
1.5
1070
    73
1070
     0
1070
    74
1070
     0
1070
    77
1070
     3
1070
   140
1040
6.0
1070
   141
1040
150.0
1070
   147
1040
1.0
1070
   172
1070
     1
1070
   173
1070
     1
1070
   176
1070
   256
1070
   177
1070
   256
1070
   178
1070
   256
1070
   271
1070
     0
1070
   272
1070
     2
1070
     6
1000
OPEN
1070
     7
1000
OPEN
1002
}
  0
LINE
  5
A07
330
1A
100
AcDbEntity
  8
SEIHIN
  6
CONTINUOUS
 62
     3
 48
5.0
100
AcDbLine
 10
509.4722244025247
 20
430.6391988247558
 30
0.0
 11
483.9722244025247
 21
430.6391988247558
 31
0.0
  0
LINE
  5
A08
330
1A
100
AcDbEntity
  8
SEIHIN
  6
CONTINUOUS
 62
     3
 48
5.0
100
AcDbLine
 10
484.9722244025246
 20
445.6391988247559
 30
0.0
 11
509.4722244025247
 21
445.6392988247558
 31
0.0
  0
LINE
  5
A09
330
1A
100
AcDbEntity
  8
SEIHIN
  6
CONTINUOUS
 62
     3
 48
5.0
100
AcDbLine
 10
482.9722244025247
 20
431.6391988247558
 30
0.0
 11
482.9722244025247
 21
446.6391988247559
 31
0.0
  0
LINE
  5
A0A
330
1A
100
AcDbEntity
  8
SEIHIN
  6
CONTINUOUS
 62
     3
 48
5.0
100
AcDbLine
 10
484.9722244025246
 20
431.6391988247558
 30
0.0
 11
484.9722244025246
 21
446.6391988247559
 31
0.0
  0
ARC
  5
A0B
330
1A
100
AcDbEntity
  8
SEIHIN
  6
CONTINUOUS
 62
     3
 48
5.0
100
AcDbCircle
 10
483.9722244025247
 20
431.6391988247558
 30
0.0
 40
1.0
100
AcDbArc
 50
180.0
 51
0.0
  0
ARC
  5
A0C
330
1A
100
AcDbEntity
  8
SEIHIN
  6
CONTINUOUS
 62
     3
 48
5.0
100
AcDbCircle
 10
483.9722244025247
 20
446.6391988247559
 30
0.0
 40
1.0
100
AcDbArc
 50
0.0
 51
180.0
  0
LINE
  5
A0D
330
1A
100
AcDbEntity
  8
CENTER_L
  6
CENTER
 62
     1
 48
5.0
100
AcDbLine
 10
509.4722244025247
 20
450.1200988247559
 30
0.0
 11
509.4722244025247
 21
425.3876988247559
 31
0.0
  0
LINE
  5
A0E
330
1A
100
AcDbEntity
  8
SEIHIN
  6
CONTINUOUS
 62
     3
 48
5.0
100
AcDbLine
 10
509.4723244025247
 20
430.6392988247559
 30
0.0
 11
534.9723244025247
 21
430.6392988247559
 31
0.0
  0
LINE
  5
A0F
330
1A
100
AcDbEntity
  8
SEIHIN
  6
CONTINUOUS
 62
     3
 48
5.0
100
AcDbLine
 10
533.9723244025247
 20
445.6392988247558
 30
0.0
 11
509.4723244025247
 21
445.6392988247558
 31
0.0
  0
LINE
  5
A10
330
1A
100
AcDbEntity
  8
SEIHIN
  6
CONTINUOUS
 62
     3
 48
5.0
100
AcDbLine
 10
533.9723244025247
 20
431.6392988247558
 30
0.0
 11
533.9723244025247
 21
446.6392988247559
 31
0.0
  0
LINE
  5
A15
330
1A
100
AcDbEntity
  8
SEIHIN
  6
CONTINUOUS
 62
     3
 48
5.0
100
AcDbLine
 10
535.9723244025246
 20
431.6392988247558
 30
0.0
 11
535.9723244025246
 21
446.6392988247559
 31
0.0
  0
LINE
  5
A16
330
1A
100
AcDbEntity
  8
SEIHIN
  6
CONTINUOUS
 62
     3
 48
5.0
100
AcDbLine
 10
603.7375196955167
 20
447.1392988247559
 30
0.0
 11
603.7375196955167
 21
432.6392988247558
 31
0.0
  0
LINE
  5
A17
330
1A
100
AcDbEntity
  8
SEIHIN
  6
HIDDEN
 62
     6
 48
5.0
100
AcDbLine
 10
605.7375196955168
 20
432.1392988247558
 30
0.0
 11
605.7375196955168
 21
445.1392988247558
 31
0.0
  0
ARC
  5
A18
330
1A
100
AcDbEntity
  8
SEIHIN
  6
CONTINUOUS
 62
     3
 48
5.0
100
AcDbCircle
 10
605.7375196955168
 20
432.6392988247558
 30
0.0
 40
2.0
100
AcDbArc
 50
180.0
 51
270.0
  0
ARC
  5
A19
330
1A
100
AcDbEntity
  8
SEIHIN
  6
CONTINUOUS
 62
     3
 48
5.0
100
AcDbCircle
 10
604.2375196955167
 20
447.1392988247559
 30
0.0
 40
0.5
100
AcDbArc
 50
90.0
 51
180.0
  0
ARC
  5
A1A
330
1A
100
AcDbEntity
  8
SEIHIN
  6
HIDDEN
 62
     6
 48
5.0
100
AcDbCircle
 10
606.2375196955168
 20
445.1392988247558
 30
0.0
 40
0.5
100
AcDbArc
 50
90.0
 51
180.0
  0
DIMENSION
  5
A1B
330
1A
100
AcDbEntity
  8
SUNPOU
 48
5.0
100
AcDbDimension
  2
*D20
 10
632.3381540956445
 20
438.6392988247559
 30
0.0
 11
628.3381540956444
 21
426.2392988247559
 31
0.0
 70
    32
  1
※<>
  3
STANDARD
100
AcDbAlignedDimension
 13
608.9666196955167
 23
443.6392988247559
 33
0.0
 14
612.2375196955167
 24
438.6392988247559
 34
0.0
 50
90.0
100
AcDbRotatedDimension
1001
ACAD
1000
DSTYLE
1002
{
1070
   372
1070
    -1
1070
   371
1070
    -1
1070
    41
1040
3.0
1070
    42
1040
3.0
1070
    43
1040
7.0
1070
    44
1040
1.5
1070
    73
1070
     0
1070
    74
1070
     0
1070
    77
1070
     3
1070
   140
1040
6.0
1070
   141
1040
150.0
1070
   147
1040
1.0
1070
   172
1070
     1
1070
   173
1070
     1
1070
   176
1070
   256
1070
   177
1070
   256
1070
   178
1070
   256
1070
   271
1070
     0
1070
   272
1070
     2
1070
     6
1000
OPEN
1070
     7
1000
OPEN
1002
}
  0
LINE
  5
A1C
330
1A
100
AcDbEntity
  8
SEIHIN
  6
CONTINUOUS
 62
     3
 48
5.0
100
AcDbLine
 10
612.2375196955167
 20
440.1392988247558
 30
0.0
 11
613.1620196955168
 21
447.0731988247559
 31
0.0
  0
LINE
  5
A1D
330
1A
100
AcDbEntity
  8
SEIHIN
  6
CONTINUOUS
 62
     3
 48
5.0
100
AcDbLine
 10
609.4657196955168
 20
443.1691988247559
 30
0.0
 11
609.6811196955168
 21
439.5793988247558
 31
0.0
  0
LINE
  5
A1E
330
1A
100
AcDbEntity
  8
SEIHIN
  6
CONTINUOUS
 62
     3
 48
5.0
100
AcDbLine
 10
607.7375196955167
 20
443.1392988247559
 30
0.0
 11
607.7375196955167
 21
430.6392988247559
 31
0.0
  0
LINE
  5
A1F
330
1A
100
AcDbEntity
  8
SEIHIN
  6
CONTINUOUS
 62
     3
 48
5.0
100
AcDbLine
 10
610.6793196955168
 20
438.6392988247559
 30
0.0
 11
612.2375196955167
 21
438.6392988247559
 31
0.0
  0
LINE
  5
A20
330
1A
100
AcDbEntity
  8
SEIHIN
  6
CONTINUOUS
 62
     3
 48
5.0
100
AcDbLine
 10
612.2375196955167
 20
438.6392988247559
 30
0.0
 11
612.2375196955167
 21
440.1392988247558
 31
0.0
  0
ARC
  5
A21
330
1A
100
AcDbEntity
  8
SEIHIN
  6
CONTINUOUS
 62
     3
 48
5.0
100
AcDbCircle
 10
610.6793196955168
 20
439.6392988247558
 30
0.0
 40
0.9999979999999998
100
AcDbArc
 50
183.434088
 51
270.0
  0
ARC
  5
A22
330
1A
100
AcDbEntity
  8
SEIHIN
  6
CONTINUOUS
 62
     3
 48
5.0
100
AcDbCircle
 10
612.6664196955168
 20
447.1392988247559
 30
0.0
 40
0.499994
100
AcDbArc
 50
352.4030849999995
 51
90.0
  0
ARC
  5
A23
330
1A
100
AcDbEntity
  8
SEIHIN
  6
CONTINUOUS
 62
     3
 48
5.0
100
AcDbCircle
 10
608.2375196955167
 20
443.1392988247559
 30
0.0
 40
0.5
100
AcDbArc
 50
90.0
 51
180.0
  0
LINE
  5
A24
330
1A
100
AcDbEntity
  8
SEIHIN
  6
CONTINUOUS
 62
     3
 48
5.0
100
AcDbLine
 10
608.2375196955167
 20
443.6392988247559
 30
0.0
 11
608.9666196955167
 21
443.6392988247559
 31
0.0
  0
ARC
  5
A25
330
1A
100
AcDbEntity
  8
SEIHIN
  6
CONTINUOUS
 62
     3
 48
5.0
100
AcDbCircle
 10
608.9666196955167
 20
443.1392988247559
 30
0.0
 40
0.4999970000000001
100
AcDbArc
 50
3.428369000000773
 51
90.0
  0
DIMENSION
  5
10CF
330
1A
100
AcDbEntity
  8
SUNPOU
100
AcDbDimension
  2
*D21
 10
535.9723244025246
 20
458.5469988247559
 30
0.0
 11
509.4722744025246
 21
463.5469988247558
 31
0.0
 70
    32
  3
STANDARD
100
AcDbAlignedDimension
 13
482.9722244025247
 23
446.6391988247559
 33
0.0
 14
535.9723244025246
 24
446.6392988247559
 34
0.0
100
AcDbRotatedDimension
1001
ACAD
1000
DSTYLE
1002
{
1070
    41
1040
7.0
1070
    42
1040
6.0
1070
    43
1040
14.0
1070
    44
1040
3.0
1070
    73
1070
     0
1070
    74
1070
     0
1070
    77
1070
     3
1070
   140
1040
6.0
1070
   141
1040
150.0
1070
   147
1040
2.0
1070
   172
1070
     1
1070
   173
1070
     1
1070
   176
1070
   256
1070
   177
1070
   256
1070
   178
1070
   256
1070
   271
1070
     0
1070
   272
1070
     0
1070
   341
1005
6D
1070
     6
1000
OPEN
1070
     7
1000
OPEN
1070
   371
1070
    -1
1070
   372
1070
    -1
1002
}
  0
LINE
  5
13F3
330
1A
100
AcDbEntity
  8
ZUWAKU
100
AcDbLine
 10
208.646601303624
 20
15.19999986828872
 30
0.0
 11
447.4243639845474
 21
15.19999986828871
 31
0.0
  0
LINE
  5
13F4
330
1A
100
AcDbEntity
  8
ZUWAKU
100
AcDbLine
 10
208.646601303624
 20
15.59999986828871
 30
0.0
 11
447.4243639845474
 21
15.59999986828872
 31
0.0
  0
LINE
  5
13F5
330
1A
100
AcDbEntity
  8
ZUWAKU
100
AcDbLine
 10
208.646601303624
 20
15.39999986828871
 30
0.0
 11
447.4243639845474
 21
15.39999986828871
 31
0.0
  0
LINE
  5
13F6
330
1A
100
AcDbEntity
  8
ZUWAKU
100
AcDbLine
 10
0.0000000135560185
 20
30.79999986828869
 30
0.0
 11
797.4000000135559
 21
30.79999986828869
 31
0.0
  0
LINE
  5
13F7
330
1A
100
AcDbEntity
  8
ZUWAKU
100
AcDbLine
 10
0.0000000135560185
 20
30.59999986828869
 30
0.0
 11
797.4000000135559
 21
30.59999986828869
 31
0.0
  0
LINE
  5
13F8
330
1A
100
AcDbEntity
  8
ZUWAKU
100
AcDbLine
 10
0.0000000135560185
 20
30.39999986828869
 30
0.0
 11
797.4000000135559
 21
30.39999986828869
 31
0.0
  0
LINE
  5
13F9
330
1A
100
AcDbEntity
  8
ZUWAKU
100
AcDbLine
 10
0.0000000135560185
 20
30.19999986828868
 30
0.0
 11
797.4000000135559
 21
30.19999986828868
 31
0.0
  0
LINE
  5
13FA
330
1A
100
AcDbEntity
  8
ZUWAKU
100
AcDbLine
 10
0.0000000135560185
 20
29.99999986828868
 30
0.0
 11
797.4000000135559
 21
29.99999986828868
 31
0.0
  0
LWPOLYLINE
  5
13FB
330
1A
100
AcDbEntity
  8
ZUWAKU
100
AcDbPolyline
 90
        4
 70
     1
 43
0.0
 10
0.2000000135559503
 20
551.3999998682887
 10
0.2000000135559503
 20
0.1999998682887281
 10
797.4000000135559
 20
0.1999998682887511
 10
797.4000000135561
 20
551.3999998682887
  0
LWPOLYLINE
  5
13FC
330
1A
100
AcDbEntity
  8
ZUWAKU
100
AcDbPolyline
 90
        4
 70
     1
 43
0.0
 10
0.6000000135559276
 20
550.9999998682888
 10
0.6000000135559276
 20
0.5999998682887054
 10
797.0000000135562
 20
0.5999998682887516
 10
797.000000013556
 20
550.9999998682888
  0
LWPOLYLINE
  5
13FD
330
1A
100
AcDbEntity
  8
ZUWAKU
100
AcDbPolyline
 90
        4
 70
     1
 43
0.0
 10
0.0000000135560185
 20
551.5999998682887
 10
0.0000000135560185
 20
-0.0000001317113174
 10
797.6000000135561
 20
-0.0000001317112499
 10
797.6000000135561
 20
551.5999998682888
  0
LWPOLYLINE
  5
13FE
330
1A
100
AcDbEntity
  8
ZUWAKU
100
AcDbPolyline
 90
        4
 70
     1
 43
0.0
 10
0.4000000135559958
 20
551.1999998682887
 10
0.4000000135559958
 20
0.3999998682887735
 10
797.200000013556
 20
0.3999998682887504
 10
797.200000013556
 20
551.1999998682887
  0
LWPOLYLINE
  5
13FF
330
1A
100
AcDbEntity
  8
ZUWAKU
100
AcDbPolyline
 90
        4
 70
     1
 43
0.0
 10
0.800000013555973
 20
550.7999998682887
 10
0.800000013555973
 20
0.7999998682887508
 10
796.8000000135559
 20
0.7999998682887508
 10
796.8000000135559
 20
550.7999998682887
  0
TEXT
  5
1400
330
1A
100
AcDbEntity
  8
MOJI
100
AcDbText
 10
92.95778960172516
 20
12.74117799856344
 30
0.0
 40
6.0
  1
アートフェイスＴ１２０
 41
0.9
  7
ｽﾀｲﾙ1
100
AcDbText
  0
HATCH
  5
1401
330
1A
100
AcDbEntity
  8
ZUWAKU
100
AcDbHatch
 10
0.0
 20
0.0
 30
0.0
210
0.0
220
0.0
230
1.0
  2
ANSI37
 70
     0
 71
     0
 91
        8
 92
        7
 72
     1
 73
     1
 93
       24
 10
14.50226267467587
 20
17.64484834927226
 42
-0.1989123673796348
 10
14.09221216833714
 20
18.63479784293331
 42
0.0
 10
14.09221216833714
 20
19.92499986828869
 42
-0.4142135623730912
 10
14.61721216833711
 20
20.44999986828868
 42
0.0
 10
17.59221216833702
 20
20.44999986828868
 42
0.4142135623731546
 10
18.11721216833712
 20
20.97499986828867
 42
0.0
 10
18.11721216833712
 20
22.72499986828869
 42
0.4142135623731586
 10
17.59221216833702
 20
23.24999986828868
 42
0.0
 10
14.09221216833714
 20
23.24999986828868
 42
0.4142135623730928
 10
11.29221216833718
 20
20.44999986828871
 42
0.0
 10
11.29221216833718
 20
18.63479784293344
 42
0.1989123673796619
 10
12.52236368735361
 20
15.66494936194983
 42
0.0
 10
15.43216166199829
 20
12.75515138730518
 42
-0.1989123673796613
 10
15.84221216833714
 20
11.76520189364399
 42
0.0
 10
15.84221216833714
 20
10.47499986828867
 42
-0.4142135623730911
 10
15.31721216833716
 20
9.949999868288685
 42
0.0
 10
12.34221216833725
 20
9.949999868288685
 42
0.4142135623731526
 10
11.81721216833716
 20
9.424999868288697
 42
0.0
 10
11.81721216833716
 20
7.674999868288676
 42
0.4142135623731526
 10
12.34221216833725
 20
7.149999868288688
 42
0.0
 10
15.84221216833714
 20
7.149999868288688
 42
0.4142135623731044
 10
18.64221216833721
 20
9.949999868288664
 42
0.0
 10
18.64221216833721
 20
11.76520189364393
 42
0.1989123673796604
 10
17.41206064932066
 20
14.73505037462747
 42
0.0
 97
        0
 92
        7
 72
     1
 73
     1
 93
       16
 10
23.54221216833718
 20
19.04999986828869
 42
-0.4142135623730935
 10
24.94221216833716
 20
20.44999986828868
 42
0.0
 10
26.86721216833712
 20
20.44999986828868
 42
0.4142135623731546
 10
27.39221216833721
 20
20.97499986828867
 42
0.0
 10
27.39221216833721
 20
22.72499986828869
 42
0.4142135623730951
 10
26.86721216833723
 20
23.24999986828868
 42
0.0
 10
24.94221216833705
 20
23.24999986828864
 42
0.4142135623730892
 10
20.74221216833711
 20
19.04999986828862
 42
0.0
 10
20.74221216833711
 20
11.34999986828871
 42
0.4142135623730969
 10
24.94221216833716
 20
7.149999868288688
 42
0.0
 10
26.86721216833712
 20
7.149999868288688
 42
0.4142135623731526
 10
27.39221216833721
 20
7.674999868288676
 42
0.0
 10
27.39221216833721
 20
9.424999868288697
 42
0.4142135623730891
 10
26.86721216833723
 20
9.949999868288685
 42
0.0
 10
24.94221216833716
 20
9.949999868288685
 42
-0.4142135623730928
 10
23.54221216833718
 20
11.34999986828867
 42
0.0
 97
        0
 92
        7
 72
     1
 73
     1
 93
        2
 10
24.24221216833712
 20
15.19999986828868
 42
1.0
 10
27.74221216833712
 20
15.19999986828868
 42
1.0
 97
        0
 92
        7
 72
     1
 73
     1
 93
       26
 10
37.31485865051513
 20
19.20504706185211
 42
0.0
 10
38.37649828365295
 20
22.5669059001217
 42
0.5069206636600134
 10
37.87586738445759
 20
23.24999986828868
 42
0.0
 10
36.17697800484836
 20
23.24999986828868
 42
0.3272098845218764
 10
35.676347105653
 20
22.88309383645565
 42
0.0
 10
33.80807723102122
 20
16.96690590012176
 42
-0.3272098845219541
 10
33.30744633182575
 20
16.59999986828868
 42
0.0
 10
33.1672121683373
 20
16.59999986828868
 42
-0.4142135623731526
 10
32.64221216833721
 20
17.12499986828867
 42
0.0
 10
32.64221216833721
 20
22.72499986828869
 42
0.4142135623730951
 10
32.11721216833723
 20
23.24999986828868
 42
0.0
 10
30.36721216833711
 20
23.24999986828868
 42
0.4142135623730871
 10
29.84221216833714
 20
22.7249998682887
 42
0.0
 10
29.84221216833714
 20
7.674999868288676
 42
0.4142135623730891
 10
30.36721216833711
 20
7.149999868288688
 42
0.0
 10
32.11721216833712
 20
7.149999868288688
 42
0.4142135623731526
 10
32.64221216833721
 20
7.674999868288676
 42
0.0
 10
32.64221216833721
 20
13.27499986828869
 42
-0.4142135623731526
 10
33.1672121683373
 20
13.79999986828868
 42
0.0
 10
33.30744633182587
 20
13.79999986828868
 42
-0.3272098845218915
 10
33.80807723102122
 20
13.43309383645561
 42
0.0
 10
35.676347105653
 20
7.516905900121759
 42
0.3272098845218902
 10
36.17697800484836
 20
7.149999868288688
 42
0.0
 10
37.87586738445759
 20
7.149999868288688
 42
0.5069206636600335
 10
38.37649828365295
 20
7.833093836455695
 42
0.0
 10
36.05010690517929
 20
15.19999986828882
 42
0.0
 97
        0
 92
        7
 72
     1
 73
     1
 93
        8
 10
43.49221216833711
 20
22.7249998682887
 42
0.4142135623731546
 10
42.96721216833702
 20
23.24999986828868
 42
0.0
 10
41.21721216833726
 20
23.24999986828868
 42
0.4142135623731507
 10
40.69221216833716
 20
22.7249998682887
 42
0.0
 10
40.69221216833716
 20
7.674999868288676
 42
0.4142135623731526
 10
41.21721216833726
 20
7.149999868288688
 42
0.0
 10
42.96721216833702
 20
7.149999868288688
 42
0.4142135623731526
 10
43.49221216833711
 20
7.674999868288676
 42
0.0
 97
        0
 92
        7
 72
     1
 73
     1
 93
       24
 10
48.3922121683372
 20
19.92499986828869
 42
-0.4142135623731546
 10
48.9172121683373
 20
20.44999986828868
 42
0.0
 10
51.89221216833721
 20
20.44999986828868
 42
0.4142135623730911
 10
52.41721216833719
 20
20.97499986828867
 42
0.0
 10
52.41721216833719
 20
22.72499986828869
 42
0.4142135623730952
 10
51.89221216833721
 20
23.24999986828868
 42
0.0
 10
48.3922121683372
 20
23.24999986828868
 42
0.4142135623731048
 10
45.59221216833714
 20
20.44999986828871
 42
0.0
 10
45.59221216833714
 20
18.63479784293344
 42
0.1989123673796613
 10
46.82236368735368
 20
15.66494936194989
 42
0.0
 10
49.73216166199836
 20
12.75515138730522
 42
-0.1989123673796402
 10
50.14221216833721
 20
11.76520189364415
 42
0.0
 10
50.14221216833721
 20
10.47499986828867
 42
-0.4142135623730911
 10
49.61721216833723
 20
9.949999868288685
 42
0.0
 10
46.64221216833721
 20
9.949999868288685
 42
0.4142135623731526
 10
46.11721216833712
 20
9.424999868288697
 42
0.0
 10
46.11721216833712
 20
7.674999868288676
 42
0.4142135623730891
 10
46.64221216833709
 20
7.149999868288688
 42
0.0
 10
50.14221216833721
 20
7.149999868288688
 42
0.4142135623730925
 10
52.94221216833716
 20
9.949999868288664
 42
0.0
 10
52.94221216833716
 20
11.76520189364393
 42
0.1989123673796675
 10
51.71206064932062
 20
14.73505037462759
 42
0.0
 10
48.80226267467605
 20
17.6448483492721
 42
-0.1989123673796652
 10
48.3922121683372
 20
18.63479784293327
 42
0.0
 97
        0
 92
        7
 72
     1
 73
     1
 93
       16
 10
57.84221216833714
 20
22.72499986828867
 42
0.414213562373103
 10
57.31721216833716
 20
23.24999986828868
 42
0.0
 10
55.56721216833716
 20
23.24999986828868
 42
0.4142135623730871
 10
55.04221216833719
 20
22.7249998682887
 42
0.0
 10
55.04221216833719
 20
9.949999868288664
 42
0.4142135623730926
 10
57.84221216833714
 20
7.149999868288688
 42
0.0
 10
61.34221216833714
 20
7.149999868288688
 42
0.4142135623731044
 10
64.14221216833721
 20
9.949999868288664
 42
0.0
 10
64.14221216833721
 20
22.72499986828869
 42
0.4142135623730951
 10
63.61721216833723
 20
23.24999986828868
 42
0.0
 10
61.86721216833712
 20
23.24999986828868
 42
0.4142135623730871
 10
61.34221216833714
 20
22.7249998682887
 42
0.0
 10
61.34221216833714
 20
10.99999986828866
 42
-0.414213562373088
 10
60.29221216833718
 20
9.949999868288685
 42
0.0
 10
58.89221216833721
 20
9.949999868288685
 42
-0.4142135623731197
 10
57.84221216833714
 20
10.99999986828866
 42
0.0
 97
        0
 92
        7
 72
     1
 73
     1
 93
        8
 10
69.04221216833718
 20
22.7249998682887
 42
0.4142135623730871
 10
68.51721216833721
 20
23.24999986828868
 42
0.0
 10
66.76721216833721
 20
23.24999986828868
 42
0.4142135623731507
 10
66.24221216833712
 20
22.7249998682887
 42
0.0
 10
66.24221216833712
 20
7.674999868288676
 42
0.4142135623730891
 10
66.76721216833709
 20
7.149999868288688
 42
0.0
 10
68.51721216833721
 20
7.149999868288688
 42
0.4142135623730891
 10
69.04221216833718
 20
7.674999868288676
 42
0.0
 97
        0
 75
     0
 76
     1
 52
0.0
 41
0.2
 77
     0
 78
     2
 53
45.0
 43
-900.942304321123
 44
-13.20000013171124
 45
-0.4490128060534576
 46
0.4490128060534577
 79
     0
 53
135.0
 43
-900.942304321123
 44
-13.20000013171124
 45
-0.4490128060534577
 46
-0.4490128060534576
 79
     0
 47
0.057451373970553
 98
        8
 10
16.07985497657932
 20
15.16717351417423
 10
22.40451501999519
 20
18.84406205073969
 10
25.16436789921567
 20
15.5118815143594
 10
30.91405999519315
 20
16.20129751473018
 10
41.83847203251275
 20
16.6609097822718
 10
46.89820090868557
 20
19.41857618469589
 10
56.55768598595637
 20
18.72915778338369
 10
67.82707963317875
 20
19.18877005092531
  0
LINE
  5
1402
330
1A
100
AcDbEntity
  8
ZUWAKU
100
AcDbLine
 10
24.94221216833716
 20
23.24999986828864
 30
0.0
 11
26.86721216833712
 21
23.24999986828868
 31
0.0
  0
LINE
  5
1403
330
1A
100
AcDbEntity
  8
ZUWAKU
100
AcDbLine
 10
26.86721216833712
 20
20.44999986828868
 30
0.0
 11
24.94221216833716
 21
20.44999986828868
 31
0.0
  0
LINE
  5
1404
330
1A
100
AcDbEntity
  8
ZUWAKU
100
AcDbLine
 10
24.94221216833716
 20
9.949999868288685
 30
0.0
 11
26.86721216833712
 21
9.949999868288685
 31
0.0
  0
LINE
  5
1405
330
1A
100
AcDbEntity
  8
ZUWAKU
100
AcDbLine
 10
26.86721216833712
 20
7.149999868288688
 30
0.0
 11
24.94221216833716
 21
7.149999868288688
 31
0.0
  0
CIRCLE
  5
1406
330
1A
100
AcDbEntity
  8
ZUWAKU
100
AcDbCircle
 10
25.99221216833711
 20
15.19999986828868
 30
0.0
 40
1.75
  0
ARC
  5
1407
330
1A
100
AcDbEntity
  8
ZUWAKU
100
AcDbCircle
 10
15.49221216833712
 20
18.63479784293338
 30
0.0
 40
1.399999999999999
100
AcDbArc
 50
180.0000000000016
 51
224.9999999999988
  0
LINE
  5
1408
330
1A
100
AcDbEntity
  8
ZUWAKU
100
AcDbLine
 10
23.54221216833718
 20
19.04999986828868
 30
0.0
 11
23.54221216833718
 21
11.34999986828869
 31
0.0
  0
LINE
  5
1409
330
1A
100
AcDbEntity
  8
ZUWAKU
100
AcDbLine
 10
20.74221216833711
 20
11.34999986828869
 30
0.0
 11
20.74221216833711
 21
19.04999986828864
 31
0.0
  0
ARC
  5
140A
330
1A
100
AcDbEntity
  8
ZUWAKU
100
AcDbCircle
 10
15.49221216833712
 20
18.63479784293338
 30
0.0
 40
4.199999999999999
100
AcDbArc
 50
180.0
 51
225.0
  0
ARC
  5
140B
330
1A
100
AcDbEntity
  8
ZUWAKU
100
AcDbCircle
 10
15.84221216833714
 20
9.949999868288685
 30
0.0
 40
2.799999999999999
100
AcDbArc
 50
270.0
 51
0.0
  0
ARC
  5
140C
330
1A
100
AcDbEntity
  8
ZUWAKU
100
AcDbCircle
 10
24.94221216833716
 20
11.34999986828869
 30
0.0
 40
4.199999999999999
100
AcDbArc
 50
180.0
 51
270.0
  0
ARC
  5
140D
330
1A
100
AcDbEntity
  8
ZUWAKU
100
AcDbCircle
 10
14.44221216833716
 20
11.76520189364399
 30
0.0
 40
4.199999999999999
100
AcDbArc
 50
0.0
 51
45.0
  0
LINE
  5
140E
330
1A
100
AcDbEntity
  8
ZUWAKU
100
AcDbLine
 10
17.41206064932066
 20
14.73505037462751
 30
0.0
 11
14.50226267467598
 21
17.64484834927218
 31
0.0
  0
LINE
  5
140F
330
1A
100
AcDbEntity
  8
ZUWAKU
100
AcDbLine
 10
15.84221216833714
 20
10.47499986828869
 30
0.0
 11
15.84221216833714
 21
11.76520189364403
 31
0.0
  0
ARC
  5
1410
330
1A
100
AcDbEntity
  8
ZUWAKU
100
AcDbCircle
 10
15.31721216833716
 20
10.47499986828869
 30
0.0
 40
0.525
100
AcDbArc
 50
270.0
 51
0.0
  0
ARC
  5
1411
330
1A
100
AcDbEntity
  8
ZUWAKU
100
AcDbCircle
 10
14.44221216833716
 20
11.76520189364403
 30
0.0
 40
1.399999999999999
100
AcDbArc
 50
0.0
 51
45.0
  0
LINE
  5
1412
330
1A
100
AcDbEntity
  8
ZUWAKU
100
AcDbLine
 10
11.81721216833716
 20
7.674999868288686
 30
0.0
 11
11.81721216833716
 21
9.424999868288686
 31
0.0
  0
ARC
  5
1413
330
1A
100
AcDbEntity
  8
ZUWAKU
100
AcDbCircle
 10
12.34221216833714
 20
7.674999868288686
 30
0.0
 40
0.525
100
AcDbArc
 50
180.0
 51
270.0
  0
ARC
  5
1414
330
1A
100
AcDbEntity
  8
ZUWAKU
100
AcDbCircle
 10
12.34221216833714
 20
9.424999868288686
 30
0.0
 40
0.525
100
AcDbArc
 50
90.0
 51
180.0
  0
LINE
  5
1415
330
1A
100
AcDbEntity
  8
ZUWAKU
100
AcDbLine
 10
12.34221216833714
 20
7.149999868288688
 30
0.0
 11
15.84221216833714
 21
7.149999868288688
 31
0.0
  0
LINE
  5
1416
330
1A
100
AcDbEntity
  8
ZUWAKU
100
AcDbLine
 10
12.34221216833714
 20
9.949999868288685
 30
0.0
 11
15.31721216833716
 21
9.949999868288685
 31
0.0
  0
LINE
  5
1417
330
1A
100
AcDbEntity
  8
ZUWAKU
100
AcDbLine
 10
12.52236368735361
 20
15.66494936194986
 30
0.0
 11
15.43216166199829
 21
12.7551513873052
 31
0.0
  0
LINE
  5
1418
330
1A
100
AcDbEntity
  8
ZUWAKU
100
AcDbLine
 10
18.64221216833721
 20
9.949999868288685
 30
0.0
 11
18.64221216833721
 21
11.76520189364403
 31
0.0
  0
ARC
  5
1419
330
1A
100
AcDbEntity
  8
ZUWAKU
100
AcDbCircle
 10
24.94221216833716
 20
11.34999986828869
 30
0.0
 40
1.399999999999999
100
AcDbArc
 50
180.0
 51
270.0
  0
ARC
  5
141A
330
1A
100
AcDbEntity
  8
ZUWAKU
100
AcDbCircle
 10
17.59221216833714
 20
22.72499986828868
 30
0.0
 40
0.525
100
AcDbArc
 50
0.0
 51
90.0
  0
ARC
  5
141B
330
1A
100
AcDbEntity
  8
ZUWAKU
100
AcDbCircle
 10
17.59221216833714
 20
20.97499986828868
 30
0.0
 40
0.525
100
AcDbArc
 50
270.0
 51
0.0
  0
LINE
  5
141C
330
1A
100
AcDbEntity
  8
ZUWAKU
100
AcDbLine
 10
14.09221216833714
 20
23.24999986828868
 30
0.0
 11
17.59221216833714
 21
23.24999986828868
 31
0.0
  0
ARC
  5
141D
330
1A
100
AcDbEntity
  8
ZUWAKU
100
AcDbCircle
 10
14.61721216833711
 20
19.92499986828868
 30
0.0
 40
0.525
100
AcDbArc
 50
90.0
 51
180.0
  0
LINE
  5
141E
330
1A
100
AcDbEntity
  8
ZUWAKU
100
AcDbLine
 10
14.09221216833714
 20
19.92499986828868
 30
0.0
 11
14.09221216833714
 21
18.63479784293334
 31
0.0
  0
LINE
  5
141F
330
1A
100
AcDbEntity
  8
ZUWAKU
100
AcDbLine
 10
17.59221216833714
 20
20.44999986828868
 30
0.0
 11
14.61721216833711
 21
20.44999986828868
 31
0.0
  0
LINE
  5
1420
330
1A
100
AcDbEntity
  8
ZUWAKU
100
AcDbLine
 10
11.29221216833718
 20
20.44999986828868
 30
0.0
 11
11.29221216833718
 21
18.63479784293334
 31
0.0
  0
ARC
  5
1421
330
1A
100
AcDbEntity
  8
ZUWAKU
100
AcDbCircle
 10
14.09221216833714
 20
20.44999986828868
 30
0.0
 40
2.799999999999999
100
AcDbArc
 50
90.0
 51
180.0
  0
LINE
  5
1422
330
1A
100
AcDbEntity
  8
ZUWAKU
100
AcDbLine
 10
18.11721216833712
 20
22.72499986828868
 30
0.0
 11
18.11721216833712
 21
20.97499986828868
 31
0.0
  0
ARC
  5
1423
330
1A
100
AcDbEntity
  8
ZUWAKU
100
AcDbCircle
 10
24.94221216833716
 20
19.04999986828868
 30
0.0
 40
1.399999999999999
100
AcDbArc
 50
90.0
 51
180.0
  0
ARC
  5
1424
330
1A
100
AcDbEntity
  8
ZUWAKU
100
AcDbCircle
 10
24.94221216833716
 20
19.04999986828864
 30
0.0
 40
4.199999999999999
100
AcDbArc
 50
90.0
 51
180.0
  0
LINE
  5
1425
330
1A
100
AcDbEntity
  8
ZUWAKU
100
AcDbLine
 10
79.32662956154422
 20
29.99999986828868
 30
0.0
 11
79.32662956154445
 21
0.7999998682887508
 31
0.0
  0
LINE
  5
1426
330
1A
100
AcDbEntity
  8
ZUWAKU
100
AcDbLine
 10
79.52662956154426
 20
29.99999986828868
 30
0.0
 11
79.52662956154449
 21
0.7999998682887508
 31
0.0
  0
LINE
  5
1427
330
1A
100
AcDbEntity
  8
ZUWAKU
100
AcDbLine
 10
79.12662956154441
 20
29.99999986828868
 30
0.0
 11
79.12662956154441
 21
0.7999998682887508
 31
0.0
  0
LINE
  5
1428
330
1A
100
AcDbEntity
  8
ZUWAKU
100
AcDbLine
 10
64.14221216833721
 20
9.949999868288685
 30
0.0
 11
64.14221216833721
 21
22.72499986828868
 31
0.0
  0
LINE
  5
1429
330
1A
100
AcDbEntity
  8
ZUWAKU
100
AcDbLine
 10
61.34221216833714
 20
22.72499986828868
 30
0.0
 11
61.34221216833714
 21
10.99999986828868
 31
0.0
  0
LINE
  5
142A
330
1A
100
AcDbEntity
  8
ZUWAKU
100
AcDbLine
 10
69.04221216833718
 20
7.674999868288686
 30
0.0
 11
69.04221216833718
 21
22.72499986828868
 31
0.0
  0
LINE
  5
142B
330
1A
100
AcDbEntity
  8
ZUWAKU
100
AcDbLine
 10
66.24221216833712
 20
22.72499986828868
 30
0.0
 11
66.24221216833712
 21
7.674999868288686
 31
0.0
  0
ARC
  5
142C
330
1A
100
AcDbEntity
  8
ZUWAKU
100
AcDbCircle
 10
49.79221216833718
 20
18.63479784293338
 30
0.0
 40
1.399999999999999
100
AcDbArc
 50
180.0000000000016
 51
224.9999999999988
  0
ARC
  5
142D
330
1A
100
AcDbEntity
  8
ZUWAKU
100
AcDbCircle
 10
49.79221216833718
 20
18.63479784293338
 30
0.0
 40
4.199999999999999
100
AcDbArc
 50
180.0
 51
225.0
  0
LINE
  5
142E
330
1A
100
AcDbEntity
  8
ZUWAKU
100
AcDbLine
 10
37.31485865051513
 20
19.20504706185211
 30
0.0
 11
36.05010690517929
 21
15.1999998682887
 31
0.0
  0
LINE
  5
142F
330
1A
100
AcDbEntity
  8
ZUWAKU
100
AcDbLine
 10
40.69221216833716
 20
22.72499986828868
 30
0.0
 11
40.69221216833716
 21
7.674999868288686
 31
0.0
  0
LINE
  5
1430
330
1A
100
AcDbEntity
  8
ZUWAKU
100
AcDbLine
 10
43.49221216833711
 20
7.674999868288686
 30
0.0
 11
43.49221216833711
 21
22.72499986828868
 31
0.0
  0
LINE
  5
1431
330
1A
100
AcDbEntity
  8
ZUWAKU
100
AcDbLine
 10
55.04221216833719
 20
22.72499986828868
 30
0.0
 11
55.04221216833719
 21
9.949999868288685
 31
0.0
  0
LINE
  5
1432
330
1A
100
AcDbEntity
  8
ZUWAKU
100
AcDbLine
 10
57.84221216833714
 20
10.99999986828868
 30
0.0
 11
57.84221216833714
 21
22.72499986828868
 31
0.0
  0
LINE
  5
1433
330
1A
100
AcDbEntity
  8
ZUWAKU
100
AcDbLine
 10
32.64221216833721
 20
17.12499986828869
 30
0.0
 11
32.64221216833721
 21
22.72499986828868
 31
0.0
  0
LINE
  5
1434
330
1A
100
AcDbEntity
  8
ZUWAKU
100
AcDbLine
 10
29.84221216833714
 20
22.72499986828868
 30
0.0
 11
29.84221216833714
 21
7.674999868288686
 31
0.0
  0
LINE
  5
1435
330
1A
100
AcDbEntity
  8
ZUWAKU
100
AcDbLine
 10
35.676347105653
 20
22.88309383645565
 30
0.0
 11
33.80807723102122
 21
16.96690590012171
 31
0.0
  0
LINE
  5
1436
330
1A
100
AcDbEntity
  8
ZUWAKU
100
AcDbLine
 10
60.29221216833718
 20
9.949999868288685
 30
0.0
 11
58.89221216833721
 21
9.949999868288685
 31
0.0
  0
LINE
  5
1437
330
1A
100
AcDbEntity
  8
ZUWAKU
100
AcDbLine
 10
57.84221216833714
 20
7.149999868288688
 30
0.0
 11
61.34221216833714
 21
7.149999868288688
 31
0.0
  0
LINE
  5
1438
330
1A
100
AcDbEntity
  8
ZUWAKU
100
AcDbLine
 10
41.21721216833714
 20
7.149999868288688
 30
0.0
 11
42.96721216833714
 21
7.149999868288688
 31
0.0
  0
LINE
  5
1439
330
1A
100
AcDbEntity
  8
ZUWAKU
100
AcDbLine
 10
35.676347105653
 20
7.516905900121713
 30
0.0
 11
33.80807723102122
 21
13.43309383645565
 31
0.0
  0
ARC
  5
143A
330
1A
100
AcDbEntity
  8
ZUWAKU
100
AcDbCircle
 10
33.30744633182587
 20
17.12499986828869
 30
0.0
 40
0.525
100
AcDbArc
 50
270.0
 51
342.4744316262769
  0
LINE
  5
143B
330
1A
100
AcDbEntity
  8
ZUWAKU
100
AcDbLine
 10
33.30744633182587
 20
16.59999986828868
 30
0.0
 11
33.16721216833718
 21
16.59999986828868
 31
0.0
  0
LINE
  5
143C
330
1A
100
AcDbEntity
  8
ZUWAKU
100
AcDbLine
 10
33.16721216833718
 20
13.79999986828868
 30
0.0
 11
33.30744633182587
 21
13.79999986828868
 31
0.0
  0
ARC
  5
143D
330
1A
100
AcDbEntity
  8
ZUWAKU
100
AcDbCircle
 10
33.16721216833718
 20
17.12499986828869
 30
0.0
 40
0.525
100
AcDbArc
 50
180.0
 51
270.0
  0
LINE
  5
143E
330
1A
100
AcDbEntity
  8
ZUWAKU
100
AcDbLine
 10
30.36721216833711
 20
7.149999868288688
 30
0.0
 11
32.11721216833712
 21
7.149999868288688
 31
0.0
  0
ARC
  5
143F
330
1A
100
AcDbEntity
  8
ZUWAKU
100
AcDbCircle
 10
32.11721216833712
 20
7.674999868288686
 30
0.0
 40
0.525
100
AcDbArc
 50
270.0
 51
0.0
  0
LINE
  5
1440
330
1A
100
AcDbEntity
  8
ZUWAKU
100
AcDbLine
 10
32.64221216833721
 20
7.674999868288686
 30
0.0
 11
32.64221216833721
 21
13.27499986828868
 31
0.0
  0
LINE
  5
1441
330
1A
100
AcDbEntity
  8
ZUWAKU
100
AcDbLine
 10
27.39221216833721
 20
9.424999868288686
 30
0.0
 11
27.39221216833721
 21
7.674999868288686
 31
0.0
  0
ARC
  5
1442
330
1A
100
AcDbEntity
  8
ZUWAKU
100
AcDbCircle
 10
26.86721216833712
 20
7.674999868288686
 30
0.0
 40
0.525
100
AcDbArc
 50
270.0
 51
0.0
  0
ARC
  5
1443
330
1A
100
AcDbEntity
  8
ZUWAKU
100
AcDbCircle
 10
26.86721216833712
 20
9.424999868288686
 30
0.0
 40
0.525
100
AcDbArc
 50
0.0
 51
90.0
  0
ARC
  5
1444
330
1A
100
AcDbEntity
  8
ZUWAKU
100
AcDbCircle
 10
30.36721216833711
 20
7.674999868288686
 30
0.0
 40
0.525
100
AcDbArc
 50
180.0
 51
270.0
  0
ARC
  5
1445
330
1A
100
AcDbEntity
  8
ZUWAKU
100
AcDbCircle
 10
33.30744633182587
 20
13.27499986828868
 30
0.0
 40
0.525
100
AcDbArc
 50
17.52556837372303
 51
90.0
  0
ARC
  5
1446
330
1A
100
AcDbEntity
  8
ZUWAKU
100
AcDbCircle
 10
33.16721216833718
 20
13.27499986828868
 30
0.0
 40
0.525
100
AcDbArc
 50
90.0
 51
180.0
  0
ARC
  5
1447
330
1A
100
AcDbEntity
  8
ZUWAKU
100
AcDbCircle
 10
41.21721216833714
 20
7.674999868288686
 30
0.0
 40
0.525
100
AcDbArc
 50
180.0
 51
270.0
  0
LINE
  5
1448
330
1A
100
AcDbEntity
  8
ZUWAKU
100
AcDbLine
 10
36.17697800484847
 20
7.149999868288688
 30
0.0
 11
37.87586738445748
 21
7.149999868288688
 31
0.0
  0
ARC
  5
1449
330
1A
100
AcDbEntity
  8
ZUWAKU
100
AcDbCircle
 10
37.87586738445748
 20
7.674999868288686
 30
0.0
 40
0.525
100
AcDbArc
 50
270.0
 51
17.52556837372303
  0
LINE
  5
144A
330
1A
100
AcDbEntity
  8
ZUWAKU
100
AcDbLine
 10
38.37649828365295
 20
7.83309383645566
 30
0.0
 11
36.05010690517929
 21
15.1999998682887
 31
0.0
  0
ARC
  5
144B
330
1A
100
AcDbEntity
  8
ZUWAKU
100
AcDbCircle
 10
36.17697800484847
 20
7.674999868288686
 30
0.0
 40
0.525
100
AcDbArc
 50
197.525568373723
 51
270.0
  0
ARC
  5
144C
330
1A
100
AcDbEntity
  8
ZUWAKU
100
AcDbCircle
 10
57.84221216833714
 20
9.949999868288685
 30
0.0
 40
2.799999999999999
100
AcDbArc
 50
180.0
 51
270.0
  0
ARC
  5
144D
330
1A
100
AcDbEntity
  8
ZUWAKU
100
AcDbCircle
 10
50.14221216833721
 20
9.949999868288685
 30
0.0
 40
2.799999999999999
100
AcDbArc
 50
270.0
 51
0.0
  0
LINE
  5
144E
330
1A
100
AcDbEntity
  8
ZUWAKU
100
AcDbLine
 10
51.71206064932073
 20
14.73505037462751
 30
0.0
 11
48.80226267467595
 21
17.64484834927218
 31
0.0
  0
LINE
  5
144F
330
1A
100
AcDbEntity
  8
ZUWAKU
100
AcDbLine
 10
50.14221216833721
 20
10.47499986828869
 30
0.0
 11
50.14221216833721
 21
11.76520189364403
 31
0.0
  0
ARC
  5
1450
330
1A
100
AcDbEntity
  8
ZUWAKU
100
AcDbCircle
 10
48.74221216833712
 20
11.76520189364403
 30
0.0
 40
1.399999999999999
100
AcDbArc
 50
0.0
 51
45.0
  0
ARC
  5
1451
330
1A
100
AcDbEntity
  8
ZUWAKU
100
AcDbCircle
 10
49.61721216833712
 20
10.47499986828869
 30
0.0
 40
0.525
100
AcDbArc
 50
270.0
 51
0.0
  0
LINE
  5
1452
330
1A
100
AcDbEntity
  8
ZUWAKU
100
AcDbLine
 10
46.11721216833712
 20
7.674999868288686
 30
0.0
 11
46.11721216833712
 21
9.424999868288686
 31
0.0
  0
ARC
  5
1453
330
1A
100
AcDbEntity
  8
ZUWAKU
100
AcDbCircle
 10
46.64221216833721
 20
7.674999868288686
 30
0.0
 40
0.525
100
AcDbArc
 50
180.0
 51
270.0
  0
ARC
  5
1454
330
1A
100
AcDbEntity
  8
ZUWAKU
100
AcDbCircle
 10
42.96721216833714
 20
7.674999868288686
 30
0.0
 40
0.525
100
AcDbArc
 50
270.0
 51
0.0
  0
ARC
  5
1455
330
1A
100
AcDbEntity
  8
ZUWAKU
100
AcDbCircle
 10
46.64221216833721
 20
9.424999868288686
 30
0.0
 40
0.525
100
AcDbArc
 50
90.0
 51
180.0
  0
LINE
  5
1456
330
1A
100
AcDbEntity
  8
ZUWAKU
100
AcDbLine
 10
46.64221216833721
 20
9.949999868288685
 30
0.0
 11
49.61721216833712
 21
9.949999868288685
 31
0.0
  0
LINE
  5
1457
330
1A
100
AcDbEntity
  8
ZUWAKU
100
AcDbLine
 10
46.64221216833721
 20
7.149999868288688
 30
0.0
 11
50.14221216833721
 21
7.149999868288688
 31
0.0
  0
LINE
  5
1458
330
1A
100
AcDbEntity
  8
ZUWAKU
100
AcDbLine
 10
46.82236368735368
 20
15.66494936194986
 30
0.0
 11
49.73216166199836
 21
12.7551513873052
 31
0.0
  0
LINE
  5
1459
330
1A
100
AcDbEntity
  8
ZUWAKU
100
AcDbLine
 10
52.94221216833716
 20
9.949999868288685
 30
0.0
 11
52.94221216833716
 21
11.76520189364403
 31
0.0
  0
ARC
  5
145A
330
1A
100
AcDbEntity
  8
ZUWAKU
100
AcDbCircle
 10
48.74221216833712
 20
11.76520189364399
 30
0.0
 40
4.199999999999999
100
AcDbArc
 50
0.0
 51
45.0
  0
ARC
  5
145B
330
1A
100
AcDbEntity
  8
ZUWAKU
100
AcDbCircle
 10
58.89221216833721
 20
10.99999986828868
 30
0.0
 40
1.049999999999999
100
AcDbArc
 50
180.0
 51
270.0
  0
ARC
  5
145C
330
1A
100
AcDbEntity
  8
ZUWAKU
100
AcDbCircle
 10
61.34221216833714
 20
9.949999868288685
 30
0.0
 40
2.799999999999999
100
AcDbArc
 50
270.0
 51
0.0
  0
LINE
  5
145D
330
1A
100
AcDbEntity
  8
ZUWAKU
100
AcDbLine
 10
66.76721216833721
 20
7.149999868288688
 30
0.0
 11
68.51721216833721
 21
7.149999868288688
 31
0.0
  0
ARC
  5
145E
330
1A
100
AcDbEntity
  8
ZUWAKU
100
AcDbCircle
 10
66.76721216833721
 20
7.674999868288686
 30
0.0
 40
0.525
100
AcDbArc
 50
180.0
 51
270.0
  0
ARC
  5
145F
330
1A
100
AcDbEntity
  8
ZUWAKU
100
AcDbCircle
 10
60.29221216833718
 20
10.99999986828868
 30
0.0
 40
1.049999999999999
100
AcDbArc
 50
270.0
 51
0.0
  0
ARC
  5
1460
330
1A
100
AcDbEntity
  8
ZUWAKU
100
AcDbCircle
 10
68.51721216833721
 20
7.674999868288686
 30
0.0
 40
0.525
100
AcDbArc
 50
270.0
 51
0.0
  0
LINE
  5
1461
330
1A
100
AcDbEntity
  8
ZUWAKU
100
AcDbLine
 10
42.96721216833714
 20
23.24999986828868
 30
0.0
 11
41.21721216833714
 21
23.24999986828868
 31
0.0
  0
ARC
  5
1462
330
1A
100
AcDbEntity
  8
ZUWAKU
100
AcDbCircle
 10
32.11721216833712
 20
22.72499986828868
 30
0.0
 40
0.525
100
AcDbArc
 50
0.0
 51
90.0
  0
LINE
  5
1463
330
1A
100
AcDbEntity
  8
ZUWAKU
100
AcDbLine
 10
32.11721216833712
 20
23.24999986828868
 30
0.0
 11
30.36721216833711
 21
23.24999986828868
 31
0.0
  0
ARC
  5
1464
330
1A
100
AcDbEntity
  8
ZUWAKU
100
AcDbCircle
 10
26.86721216833712
 20
22.72499986828868
 30
0.0
 40
0.525
100
AcDbArc
 50
0.0
 51
90.0
  0
ARC
  5
1465
330
1A
100
AcDbEntity
  8
ZUWAKU
100
AcDbCircle
 10
30.36721216833711
 20
22.72499986828868
 30
0.0
 40
0.525
100
AcDbArc
 50
90.0
 51
180.0
  0
ARC
  5
1466
330
1A
100
AcDbEntity
  8
ZUWAKU
100
AcDbCircle
 10
26.86721216833712
 20
20.97499986828868
 30
0.0
 40
0.525
100
AcDbArc
 50
270.0
 51
0.0
  0
LINE
  5
1467
330
1A
100
AcDbEntity
  8
ZUWAKU
100
AcDbLine
 10
27.39221216833721
 20
22.72499986828868
 30
0.0
 11
27.39221216833721
 21
20.97499986828868
 31
0.0
  0
ARC
  5
1468
330
1A
100
AcDbEntity
  8
ZUWAKU
100
AcDbCircle
 10
41.21721216833714
 20
22.72499986828868
 30
0.0
 40
0.525
100
AcDbArc
 50
90.0
 51
180.0
  0
LINE
  5
1469
330
1A
100
AcDbEntity
  8
ZUWAKU
100
AcDbLine
 10
36.17697800484847
 20
23.24999986828868
 30
0.0
 11
37.87586738445748
 21
23.24999986828868
 31
0.0
  0
ARC
  5
146A
330
1A
100
AcDbEntity
  8
ZUWAKU
100
AcDbCircle
 10
37.87586738445748
 20
22.72499986828868
 30
0.0
 40
0.525
100
AcDbArc
 50
342.4744316262769
 51
90.0
  0
LINE
  5
146B
330
1A
100
AcDbEntity
  8
ZUWAKU
100
AcDbLine
 10
38.37649828365295
 20
22.56690590012171
 30
0.0
 11
37.31485865051513
 21
19.20504706185211
 31
0.0
  0
ARC
  5
146C
330
1A
100
AcDbEntity
  8
ZUWAKU
100
AcDbCircle
 10
36.17697800484847
 20
22.72499986828868
 30
0.0
 40
0.525
100
AcDbArc
 50
90.0
 51
162.4744316262769
  0
LINE
  5
146D
330
1A
100
AcDbEntity
  8
ZUWAKU
100
AcDbLine
 10
48.3922121683372
 20
23.24999986828868
 30
0.0
 11
51.89221216833721
 21
23.24999986828868
 31
0.0
  0
LINE
  5
146E
330
1A
100
AcDbEntity
  8
ZUWAKU
100
AcDbLine
 10
51.89221216833721
 20
20.44999986828868
 30
0.0
 11
48.91721216833719
 21
20.44999986828868
 31
0.0
  0
ARC
  5
146F
330
1A
100
AcDbEntity
  8
ZUWAKU
100
AcDbCircle
 10
48.91721216833719
 20
19.92499986828868
 30
0.0
 40
0.525
100
AcDbArc
 50
90.0
 51
180.0
  0
LINE
  5
1470
330
1A
100
AcDbEntity
  8
ZUWAKU
100
AcDbLine
 10
48.3922121683372
 20
19.92499986828868
 30
0.0
 11
48.3922121683372
 21
18.63479784293334
 31
0.0
  0
ARC
  5
1471
330
1A
100
AcDbEntity
  8
ZUWAKU
100
AcDbCircle
 10
42.96721216833714
 20
22.72499986828868
 30
0.0
 40
0.525
100
AcDbArc
 50
0.0
 51
90.0
  0
LINE
  5
1472
330
1A
100
AcDbEntity
  8
ZUWAKU
100
AcDbLine
 10
45.59221216833714
 20
20.44999986828868
 30
0.0
 11
45.59221216833714
 21
18.63479784293334
 31
0.0
  0
ARC
  5
1473
330
1A
100
AcDbEntity
  8
ZUWAKU
100
AcDbCircle
 10
48.3922121683372
 20
20.44999986828868
 30
0.0
 40
2.799999999999999
100
AcDbArc
 50
90.0
 51
180.0
  0
ARC
  5
1474
330
1A
100
AcDbEntity
  8
ZUWAKU
100
AcDbCircle
 10
57.31721216833716
 20
22.72499986828868
 30
0.0
 40
0.525
100
AcDbArc
 50
0.0
 51
90.0
  0
ARC
  5
1475
330
1A
100
AcDbEntity
  8
ZUWAKU
100
AcDbCircle
 10
55.56721216833716
 20
22.72499986828868
 30
0.0
 40
0.525
100
AcDbArc
 50
90.0
 51
180.0
  0
LINE
  5
1476
330
1A
100
AcDbEntity
  8
ZUWAKU
100
AcDbLine
 10
57.31721216833716
 20
23.24999986828868
 30
0.0
 11
55.56721216833716
 21
23.24999986828868
 31
0.0
  0
ARC
  5
1477
330
1A
100
AcDbEntity
  8
ZUWAKU
100
AcDbCircle
 10
51.89221216833721
 20
22.72499986828868
 30
0.0
 40
0.525
100
AcDbArc
 50
0.0
 51
90.0
  0
ARC
  5
1478
330
1A
100
AcDbEntity
  8
ZUWAKU
100
AcDbCircle
 10
51.89221216833721
 20
20.97499986828868
 30
0.0
 40
0.525
100
AcDbArc
 50
270.0
 51
0.0
  0
LINE
  5
1479
330
1A
100
AcDbEntity
  8
ZUWAKU
100
AcDbLine
 10
52.41721216833719
 20
22.72499986828868
 30
0.0
 11
52.41721216833719
 21
20.97499986828868
 31
0.0
  0
LINE
  5
147A
330
1A
100
AcDbEntity
  8
ZUWAKU
100
AcDbLine
 10
68.51721216833721
 20
23.24999986828868
 30
0.0
 11
66.76721216833721
 21
23.24999986828868
 31
0.0
  0
ARC
  5
147B
330
1A
100
AcDbEntity
  8
ZUWAKU
100
AcDbCircle
 10
66.76721216833721
 20
22.72499986828868
 30
0.0
 40
0.525
100
AcDbArc
 50
90.0
 51
180.0
  0
ARC
  5
147C
330
1A
100
AcDbEntity
  8
ZUWAKU
100
AcDbCircle
 10
63.61721216833712
 20
22.72499986828868
 30
0.0
 40
0.525
100
AcDbArc
 50
0.0
 51
90.0
  0
LINE
  5
147D
330
1A
100
AcDbEntity
  8
ZUWAKU
100
AcDbLine
 10
63.61721216833712
 20
23.24999986828868
 30
0.0
 11
61.86721216833712
 21
23.24999986828868
 31
0.0
  0
ARC
  5
147E
330
1A
100
AcDbEntity
  8
ZUWAKU
100
AcDbCircle
 10
61.86721216833712
 20
22.72499986828868
 30
0.0
 40
0.525
100
AcDbArc
 50
90.0
 51
180.0
  0
ARC
  5
147F
330
1A
100
AcDbEntity
  8
ZUWAKU
100
AcDbCircle
 10
68.51721216833721
 20
22.72499986828868
 30
0.0
 40
0.525
100
AcDbArc
 50
0.0
 51
90.0
  0
TEXT
  5
1480
330
1A
100
AcDbEntity
  8
MOJI
100
AcDbText
 10
239.827202694407
 20
18.00492092569607
 30
0.0
 40
5.599999999999999
  1
洋風じょうご
 41
0.9
  7
ｽﾀｲﾙ1
100
AcDbText
  0
TEXT
  5
1481
330
1A
100
AcDbEntity
  8
MOJI
100
AcDbText
 10
239.827202694407
 20
3.204920925696104
 30
0.0
 40
5.599999999999999
  1
Ｔ１２０－ＶＵ・ＶＰ７５
 41
0.9
  7
ｽﾀｲﾙ1
100
AcDbText
  0
LINE
  5
1482
330
1A
100
AcDbEntity
  8
ZUWAKU
100
AcDbLine
 10
208.2466013036239
 20
29.99999986828868
 30
0.0
 11
208.2466013036239
 21
0.7999998682887508
 31
0.0
  0
LINE
  5
1483
330
1A
100
AcDbEntity
  8
ZUWAKU
100
AcDbLine
 10
208.6466013036238
 20
29.99999986828868
 30
0.0
 11
208.646601303624
 21
0.7999998682887508
 31
0.0
  0
LINE
  5
1484
330
1A
100
AcDbEntity
  8
ZUWAKU
100
AcDbLine
 10
208.4466013036237
 20
29.99999986828868
 30
0.0
 11
208.446601303624
 21
0.7999998682887508
 31
0.0
  0
TEXT
  5
1485
330
1A
100
AcDbEntity
  8
ZUWAKU
100
AcDbText
 10
209.7240463258335
 20
9.6553564066743
 30
0.0
 40
4.0
  1
サイズ
 41
0.9
  7
ｽﾀｲﾙ1
100
AcDbText
  0
TEXT
  5
1486
330
1A
100
AcDbEntity
  8
ZUWAKU
100
AcDbText
 10
209.7240463258333
 20
24.05535640667426
 30
0.0
 40
4.0
  1
品名
 41
0.9
  7
ｽﾀｲﾙ1
100
AcDbText
  0
LINE
  5
1487
330
1A
100
AcDbEntity
  8
ZUWAKU
100
AcDbLine
 10
648.8172025237602
 20
15.19999986828871
 30
0.0
 11
697.2490105620972
 21
15.19999986828871
 31
0.0
  0
LINE
  5
1488
330
1A
100
AcDbEntity
  8
ZUWAKU
100
AcDbLine
 10
648.8172025237604
 20
15.39999986828872
 30
0.0
 11
697.2490105620972
 21
15.39999986828871
 31
0.0
  0
LINE
  5
1489
330
1A
100
AcDbEntity
  8
ZUWAKU
100
AcDbLine
 10
648.8172025237602
 20
15.59999986828871
 30
0.0
 11
697.2490105620972
 21
15.59999986828871
 31
0.0
  0
TEXT
  5
148A
330
1A
100
AcDbEntity
  8
ZUWAKU
100
AcDbText
 10
658.2039377008584
 20
18.00492092569607
 30
0.0
 40
5.599999999999999
  1
　　．　　．　　
 41
0.9
  7
ｽﾀｲﾙ1
100
AcDbText
  0
LINE
  5
148B
330
1A
100
AcDbEntity
  8
ZUWAKU
100
AcDbLine
 10
505.1991795116968
 20
15.19999986828872
 30
0.0
 11
552.5269557796685
 21
15.19999986828872
 31
0.0
  0
LINE
  5
148C
330
1A
100
AcDbEntity
  8
ZUWAKU
100
AcDbLine
 10
505.1991795116968
 20
15.39999986828871
 30
0.0
 11
552.5269557796685
 21
15.39999986828871
 31
0.0
  0
LINE
  5
148D
330
1A
100
AcDbEntity
  8
ZUWAKU
100
AcDbLine
 10
505.1991795116968
 20
15.59999986828871
 30
0.0
 11
552.5269557796685
 21
15.59999986828871
 31
0.0
  0
TEXT
  5
148E
330
1A
100
AcDbEntity
  8
MOJI
100
AcDbText
 10
463.246432004558
 20
11.94261758994866
 30
0.0
 40
5.599999999999999
  1
ＰＧ４０□
 41
0.9
  7
ｽﾀｲﾙ1
100
AcDbText
  0
LINE
  5
148F
330
1A
100
AcDbEntity
  8
ZUWAKU
100
AcDbLine
 10
447.6243639845472
 20
29.99999986828868
 30
0.0
 11
447.6243639845474
 21
0.7999998682887508
 31
0.0
  0
LINE
  5
1490
330
1A
100
AcDbEntity
  8
ZUWAKU
100
AcDbLine
 10
447.8243639845472
 20
29.99999986828868
 30
0.0
 11
447.8243639845475
 21
0.7999998682887508
 31
0.0
  0
LINE
  5
1491
330
1A
100
AcDbEntity
  8
ZUWAKU
100
AcDbLine
 10
447.4243639845474
 20
29.99999986828868
 30
0.0
 11
447.4243639845474
 21
0.7999998682887508
 31
0.0
  0
TEXT
  5
1492
330
1A
100
AcDbEntity
  8
MOJI
100
AcDbText
 10
528.0409079858689
 20
18.00492092569607
 30
0.0
 40
5.599999999999999
  1
Ａ３
 41
0.9
  7
ｽﾀｲﾙ1
100
AcDbText
  0
LINE
  5
1493
330
1A
100
AcDbEntity
  8
ZUWAKU
100
AcDbLine
 10
504.9991795116969
 20
29.99999986828868
 30
0.0
 11
504.999179511697
 21
0.7999998682887508
 31
0.0
  0
LINE
  5
1494
330
1A
100
AcDbEntity
  8
ZUWAKU
100
AcDbLine
 10
505.1991795116968
 20
29.99999986828868
 30
0.0
 11
505.1991795116971
 21
0.7999998682887508
 31
0.0
  0
LINE
  5
1495
330
1A
100
AcDbEntity
  8
ZUWAKU
100
AcDbLine
 10
504.799179511697
 20
29.99999986828868
 30
0.0
 11
504.799179511697
 21
0.7999998682887508
 31
0.0
  0
TEXT
  5
1496
330
1A
100
AcDbEntity
  8
ZUWAKU
100
AcDbText
 10
461.9360310206923
 20
2.614070779428175
 30
0.0
 40
3.0
  1
□には色品番が入ります
 41
0.9
  7
ｽﾀｲﾙ1
100
AcDbText
  0
TEXT
  5
1497
330
1A
100
AcDbEntity
  8
ZUWAKU
100
AcDbText
 10
506.6766245339067
 20
9.6553564066743
 30
0.0
 40
4.0
  1
縮尺
 41
0.9
  7
ｽﾀｲﾙ1
100
AcDbText
  0
TEXT
  5
1498
330
1A
100
AcDbEntity
  8
MOJI
100
AcDbText
 10
528.0409079858689
 20
3.204920925696104
 30
0.0
 40
5.599999999999999
  1
１/２
 41
0.9
  7
ｽﾀｲﾙ1
100
AcDbText
  0
TEXT
  5
1499
330
1A
100
AcDbEntity
  8
ZUWAKU
100
AcDbText
 10
449.3018090067569
 20
24.05535640667426
 30
0.0
 40
4.0
  1
品番
 41
0.9
  7
ｽﾀｲﾙ1
100
AcDbText
  0
TEXT
  5
149A
330
1A
100
AcDbEntity
  8
ZUWAKU
100
AcDbText
 10
506.6766245339065
 20
24.05535640667426
 30
0.0
 40
4.0
  1
用紙
 41
0.9
  7
ｽﾀｲﾙ1
100
AcDbText
  0
LINE
  5
149B
330
1A
100
AcDbEntity
  8
ZUWAKU
100
AcDbLine
 10
648.6172025237603
 20
29.99999986828868
 30
0.0
 11
648.6172025237606
 21
0.7999998682887508
 31
0.0
  0
LINE
  5
149C
330
1A
100
AcDbEntity
  8
ZUWAKU
100
AcDbLine
 10
648.8172025237604
 20
29.99999986828868
 30
0.0
 11
648.8172025237607
 21
0.7999998682887508
 31
0.0
  0
LINE
  5
149D
330
1A
100
AcDbEntity
  8
ZUWAKU
100
AcDbLine
 10
648.4172025237605
 20
29.99999986828868
 30
0.0
 11
648.4172025237605
 21
0.7999998682887508
 31
0.0
  0
LINE
  5
149E
330
1A
100
AcDbEntity
  8
ZUWAKU
100
AcDbLine
 10
552.7269557796683
 20
29.99999986828868
 30
0.0
 11
552.7269557796684
 21
0.7999998682887508
 31
0.0
  0
LINE
  5
149F
330
1A
100
AcDbEntity
  8
ZUWAKU
100
AcDbLine
 10
552.9269557796683
 20
29.99999986828868
 30
0.0
 11
552.9269557796685
 21
0.7999998682887508
 31
0.0
  0
LINE
  5
14A0
330
1A
100
AcDbEntity
  8
ZUWAKU
100
AcDbLine
 10
552.5269557796685
 20
29.99999986828868
 30
0.0
 11
552.5269557796685
 21
0.7999998682887508
 31
0.0
  0
TEXT
  5
14A1
330
1A
100
AcDbEntity
  8
ZUWAKU
100
AcDbText
 10
650.29464754597
 20
24.05535640667426
 30
0.0
 40
4.0
  1
DATE
 41
0.9
  7
ｽﾀｲﾙ1
100
AcDbText
  0
LINE
  5
14A2
330
1A
100
AcDbEntity
  8
ZUWAKU
100
AcDbLine
 10
697.2490105620972
 20
29.99999986828868
 30
0.0
 11
697.2490105620972
 21
0.7999998682887508
 31
0.0
  0
LINE
  5
14A3
330
1A
100
AcDbEntity
  8
ZUWAKU
100
AcDbLine
 10
697.4490105620973
 20
29.99999986828868
 30
0.0
 11
697.4490105620973
 21
0.7999998682887508
 31
0.0
  0
LINE
  5
14A4
330
1A
100
AcDbEntity
  8
ZUWAKU
100
AcDbLine
 10
697.6490105620971
 20
29.99999986828868
 30
0.0
 11
697.6490105620974
 21
0.7999998682887508
 31
0.0
  0
LINE
  5
14A5
330
1A
100
AcDbEntity
  8
ZUWAKU
100
AcDbLine
 10
697.8490105620972
 20
29.99999986828868
 30
0.0
 11
697.8490105620974
 21
0.7999998682887508
 31
0.0
  0
TEXT
  5
14A6
330
1A
100
AcDbEntity
  8
ZUWAKU
100
AcDbText
 10
708.5280842057998
 20
17.55383920397548
 30
0.0
 40
6.0
  1
積水化学工業株式会社
 41
0.9
  7
ｽﾀｲﾙ1
100
AcDbText
  0
TEXT
  5
14A7
330
1A
100
AcDbEntity
  8
ZUWAKU
100
AcDbText
 10
708.5280842057998
 20
6.648840182142748
 30
0.0
 40
6.0
  1
建材事業部
 41
0.9
  7
ｽﾀｲﾙ1
100
AcDbText
  0
LINE
  5
1696
330
1A
100
AcDbEntity
  8
SEIHIN
  6
CONTINUOUS
 62
     3
100
AcDbLine
 10
260.4460309931487
 20
116.6498619920346
 30
0.0
 11
171.6459309931486
 21
116.6500619920345
 31
0.0
  0
LINE
  5
1697
330
1A
100
AcDbEntity
  8
SEIHIN
  6
CONTINUOUS
 62
     3
100
AcDbLine
 10
172.1459309931487
 20
115.6500619920345
 30
0.0
 11
259.9460309931487
 21
115.6498619920346
 31
0.0
  0
LINE
  5
169A
330
1A
100
AcDbEntity
  8
SEIHIN
  6
CONTINUOUS
 62
     3
100
AcDbLine
 10
171.6459309931486
 20
116.6500619920345
 30
0.0
 11
171.6460309931487
 21
151.6500619920345
 31
0.0
  0
LINE
  5
169B
330
1A
100
AcDbEntity
  8
SEIHIN
  6
CONTINUOUS
 62
     3
100
AcDbLine
 10
171.6459309931486
 20
116.6500619920345
 30
0.0
 11
172.1459309931487
 21
115.6500619920345
 31
0.0
  0
LINE
  5
169C
330
1A
100
AcDbEntity
  8
SEIHIN
  6
CONTINUOUS
 62
     3
100
AcDbLine
 10
260.4460309931487
 20
116.6498619920346
 30
0.0
 11
260.4460309931487
 21
151.6498619920346
 31
0.0
  0
LINE
  5
169D
330
1A
100
AcDbEntity
  8
SEIHIN
  6
CONTINUOUS
 62
     3
100
AcDbLine
 10
260.4460309931487
 20
116.6498619920346
 30
0.0
 11
259.9460309931487
 21
115.6498619920346
 31
0.0
  0
LINE
  5
16A4
330
1A
100
AcDbEntity
  8
SEIHIN
  6
CONTINUOUS
 62
     3
100
AcDbLine
 10
519.5918293199485
 20
116.6500619920348
 30
0.0
 11
519.5919293199485
 21
151.6500619920345
 31
0.0
  0
LINE
  5
16A5
330
1A
100
AcDbEntity
  8
SEIHIN
  6
CONTINUOUS
 62
     3
100
AcDbLine
 10
608.3919293199487
 20
116.6498619920348
 30
0.0
 11
519.5918293199485
 21
116.6500619920348
 31
0.0
  0
LINE
  5
16A6
330
1A
100
AcDbEntity
  8
SEIHIN
  6
CONTINUOUS
 62
     3
100
AcDbLine
 10
520.0918293199485
 20
115.6500619920345
 30
0.0
 11
607.8919293199487
 21
115.6498619920348
 31
0.0
  0
LINE
  5
16A7
330
1A
100
AcDbEntity
  8
SEIHIN
  6
CONTINUOUS
 62
     3
100
AcDbLine
 10
519.5918293199485
 20
116.6500619920348
 30
0.0
 11
520.0918293199485
 21
115.6500619920345
 31
0.0
  0
LINE
  5
16A8
330
1A
100
AcDbEntity
  8
SEIHIN
  6
CONTINUOUS
 62
     3
100
AcDbLine
 10
608.3919293199487
 20
116.6498619920348
 30
0.0
 11
607.8919293199487
 21
115.6498619920348
 31
0.0
  0
LINE
  5
16A9
330
1A
100
AcDbEntity
  8
SEIHIN
  6
CONTINUOUS
 62
     3
100
AcDbLine
 10
608.3919293199487
 20
116.6498619920348
 30
0.0
 11
608.3919293199487
 21
151.6498619920348
 31
0.0
  0
LINE
  5
16AA
330
1A
100
AcDbEntity
  8
CENTER_L
  6
CENTER
 62
     1
 48
5.0
100
AcDbLine
 10
562.8257966931487
 20
101.0139883059562
 30
0.0
 11
562.8257966931487
 21
161.0847883301814
 31
0.0
  0
VIEWPORT
  5
22
330
17
100
AcDbEntity
 67
     1
  8
0
100
AcDbViewport
 10
313.6808219178082
 20
148.5
 30
0.0
 40
627.3616438356165
 41
297.0
 68
     2
 69
     1
1001
ACAD
1000
MVIEW
1002
{
1070
    16
1010
0.0
1020
0.0
1030
0.0
1010
0.0
1020
0.0
1030
1.0
1040
0.0
1040
297.0
1040
313.6808219178082
1040
148.5
1040
50.0
1040
0.0
1040
0.0
1070
     0
1070
   100
1070
     1
1070
     0
1070
     0
1070
     0
1070
     0
1070
     0
1040
0.0
1040
0.0
1040
0.0
1040
1.0
1040
1.0
1040
10.0
1040
10.0
1070
     0
1002
{
1002
}
1002
}
  0
VIEWPORT
  5
64
330
17
100
AcDbEntity
 67
     1
  8
VIEWPORT
100
AcDbViewport
 10
210.0
 20
148.5
 30
0.0
 40
420.0
 41
297.0
 68
     1
 69
     2
1001
ACAD
1000
MVIEW
1002
{
1070
    16
1010
0.0
1020
0.0
1030
0.0
1010
0.0
1020
0.0
1030
1.0
1040
0.0
1040
605.8799999999998
1040
420.0
1040
297.0
1040
50.0
1040
0.0
1040
0.0
1070
     0
1070
   100
1070
     1
1070
     0
1070
     0
1070
     0
1070
     0
1070
     0
1040
0.0
1040
0.0
1040
0.0
1040
10.0
1040
10.0
1040
0.0
1040
0.0
1070
     0
1002
{
1002
}
1002
}
  0
ENDSEC
  0
SECTION
  2
OBJECTS
  0
DICTIONARY
  5
C
330
0
100
AcDbDictionary
  3
ACAD_GROUP
350
D
  3
ACAD_LAYOUT
350
8D1
  3
ACAD_MLINESTYLE
350
E
  3
ACAD_PLOTSETTINGS
350
8D2
  3
ACAD_PLOTSTYLENAME
350
8CF
  3
ACDBHEADERROUNDTRIPXREC
350
1736
  0
DICTIONARY
  5
AD2
330
1A
100
AcDbDictionary
280
     1
  3
ACAD_LAYOUTSELFREF
360
1758
  0
DICTIONARY
  5
AD0
330
17
100
AcDbDictionary
280
     1
  3
ACAD_LAYOUTSELFREF
360
1757
  0
DICTIONARY
  5
D
102
{ACAD_REACTORS
330
C
102
}
330
C
100
AcDbDictionary
  0
DICTIONARY
  5
8D1
102
{ACAD_REACTORS
330
C
102
}
330
C
100
AcDbDictionary
  0
DICTIONARY
  5
E
102
{ACAD_REACTORS
330
C
102
}
330
C
100
AcDbDictionary
  3
STANDARD
350
13
  0
DICTIONARY
  5
8D2
102
{ACAD_REACTORS
330
C
102
}
330
C
100
AcDbDictionary
  0
ACDBDICTIONARYWDFLT
  5
8CF
102
{ACAD_REACTORS
330
C
102
}
330
C
100
AcDbDictionary
281
     1
  3
Normal
350
8D0
100
AcDbDictionaryWithDefault
340
8D0
1001
ACAD
1000
TREAT_AS_HARD
1070
     0
1000
TREAT_AS_HARD
1070
     0
1000
TREAT_AS_HARD
1070
     0
1000
TREAT_AS_HARD
1070
     0
1000
TREAT_AS_HARD
1070
     0
1000
TREAT_AS_HARD
1070
     0
  0
DICTIONARY
  5
1736
102
{ACAD_REACTORS
330
C
102
}
330
C
100
AcDbDictionary
  3
TSTACKALIGN
350
1737
  3
TSTACKSIZE
350
1738
  3
HYPERLINKBASE
350
1739
  3
STYLESHEET
350
173A
  3
LAYOUTDICT
350
173B
  3
PLOTSETDICT
350
173C
  3
PLOTSTYLNAMDICT
350
173D
  3
LWETCUNION
350
173E
  3
INSUNITS
350
173F
  3
CEPSNTYPE
350
1740
  3
FINGERPRINTGUID
350
1741
  3
VERSIONGUID
350
1742
  3
PSVPSCALE
350
1743
  3
DIMSTYLEDATA
350
1744
  3
PUCSORTHOREF
350
1745
  3
PUCSORTHOVIEW
350
1746
  3
PUCSBASE
350
1747
  3
PUCSORGTOP
350
1748
  3
PUCSORGBOTTOM
350
1749
  3
PUCSORGLEFT
350
174A
  3
PUCSORGRIGHT
350
174B
  3
PUCSORGFRONT
350
174C
  3
PUCSORGBACK
350
174D
  3
UCSORTHOREF
350
174E
  3
UCSORTHOVIEW
350
174F
  3
UCSBASE
350
1750
  3
UCSORGTOP
350
1751
  3
UCSORGBOTTOM
350
1752
  3
UCSORGLEFT
350
1753
  3
UCSORGRIGHT
350
1754
  3
UCSORGFRONT
350
1755
  3
UCSORGBACK
350
1756
  0
XRECORD
  5
1758
102
{ACAD_REACTORS
330
AD2
102
}
330
AD2
100
AcDbXrecord
340
1A
  0
XRECORD
  5
1757
102
{ACAD_REACTORS
330
AD0
102
}
330
AD0
100
AcDbXrecord
340
17
  0
MLINESTYLE
  5
13
102
{ACAD_REACTORS
330
E
102
}
330
E
100
AcDbMlineStyle
  2
STANDARD
 70
     0
  3

 62
     0
 51
90.0
 52
90.0
 71
     2
 49
0.5
 62
   256
  6
BYLAYER
 49
-0.5
 62
   256
  6
BYLAYER
  0
ACDBPLACEHOLDER
  5
8D0
102
{ACAD_REACTORS
330
8CF
102
}
330
8CF
100
AcDbPlaceHolder
280
     0
  0
XRECORD
  5
1737
102
{ACAD_REACTORS
330
1736
102
}
330
1736
100
AcDbXrecord
 90
        1
  0
XRECORD
  5
1738
102
{ACAD_REACTORS
330
1736
102
}
330
1736
100
AcDbXrecord
 90
       70
  0
XRECORD
  5
1739
102
{ACAD_REACTORS
330
1736
102
}
330
1736
100
AcDbXrecord
  1

  0
XRECORD
  5
173A
102
{ACAD_REACTORS
330
1736
102
}
330
1736
100
AcDbXrecord
  1
systemprinter.ctb
  0
XRECORD
  5
173B
102
{ACAD_REACTORS
330
1736
102
}
330
1736
100
AcDbXrecord
340
8D1
  0
XRECORD
  5
173C
102
{ACAD_REACTORS
330
1736
102
}
330
1736
100
AcDbXrecord
340
8D2
  0
XRECORD
  5
173D
102
{ACAD_REACTORS
330
1736
102
}
330
1736
100
AcDbXrecord
340
8CF
  0
XRECORD
  5
173E
102
{ACAD_REACTORS
330
1736
102
}
330
1736
100
AcDbXrecord
 90
    10781
  0
XRECORD
  5
173F
102
{ACAD_REACTORS
330
1736
102
}
330
1736
100
AcDbXrecord
 90
        0
  0
XRECORD
  5
1740
102
{ACAD_REACTORS
330
1736
102
}
330
1736
100
AcDbXrecord
 90
        0
  0
XRECORD
  5
1741
102
{ACAD_REACTORS
330
1736
102
}
330
1736
100
AcDbXrecord
  1
{E7660B84-245B-4EEF-A5D2-EED1934F6951}
  0
XRECORD
  5
1742
102
{ACAD_REACTORS
330
1736
102
}
330
1736
100
AcDbXrecord
  1
{98423A76-C5BE-48F8-A1D5-FBDFBF758613}
  0
XRECORD
  5
1743
102
{ACAD_REACTORS
330
1736
102
}
330
1736
100
AcDbXrecord
 40
0.0
  0
XRECORD
  5
1744
102
{ACAD_REACTORS
330
1736
102
}
330
1736
100
AcDbXrecord
1000
DSTYLE
1002
{
1070
   341
340
6D
1070
   343
340
6D
1070
   344
340
6D
1070
   371
 70
    -1
1070
   372
 70
    -1
1002
}
  0
XRECORD
  5
1745
102
{ACAD_REACTORS
330
1736
102
}
330
1736
100
AcDbXrecord
340
0
  0
XRECORD
  5
1746
102
{ACAD_REACTORS
330
1736
102
}
330
1736
100
AcDbXrecord
 70
     0
  0
XRECORD
  5
1747
102
{ACAD_REACTORS
330
1736
102
}
330
1736
100
AcDbXrecord
340
0
  0
XRECORD
  5
1748
102
{ACAD_REACTORS
330
1736
102
}
330
1736
100
AcDbXrecord
 10
0.0
 20
0.0
 30
0.0
  0
XRECORD
  5
1749
102
{ACAD_REACTORS
330
1736
102
}
330
1736
100
AcDbXrecord
 10
0.0
 20
0.0
 30
0.0
  0
XRECORD
  5
174A
102
{ACAD_REACTORS
330
1736
102
}
330
1736
100
AcDbXrecord
 10
0.0
 20
0.0
 30
0.0
  0
XRECORD
  5
174B
102
{ACAD_REACTORS
330
1736
102
}
330
1736
100
AcDbXrecord
 10
0.0
 20
0.0
 30
0.0
  0
XRECORD
  5
174C
102
{ACAD_REACTORS
330
1736
102
}
330
1736
100
AcDbXrecord
 10
0.0
 20
0.0
 30
0.0
  0
XRECORD
  5
174D
102
{ACAD_REACTORS
330
1736
102
}
330
1736
100
AcDbXrecord
 10
0.0
 20
0.0
 30
0.0
  0
XRECORD
  5
174E
102
{ACAD_REACTORS
330
1736
102
}
330
1736
100
AcDbXrecord
340
0
  0
XRECORD
  5
174F
102
{ACAD_REACTORS
330
1736
102
}
330
1736
100
AcDbXrecord
 70
     0
  0
XRECORD
  5
1750
102
{ACAD_REACTORS
330
1736
102
}
330
1736
100
AcDbXrecord
340
0
  0
XRECORD
  5
1751
102
{ACAD_REACTORS
330
1736
102
}
330
1736
100
AcDbXrecord
 10
0.0
 20
0.0
 30
0.0
  0
XRECORD
  5
1752
102
{ACAD_REACTORS
330
1736
102
}
330
1736
100
AcDbXrecord
 10
0.0
 20
0.0
 30
0.0
  0
XRECORD
  5
1753
102
{ACAD_REACTORS
330
1736
102
}
330
1736
100
AcDbXrecord
 10
0.0
 20
0.0
 30
0.0
  0
XRECORD
  5
1754
102
{ACAD_REACTORS
330
1736
102
}
330
1736
100
AcDbXrecord
 10
0.0
 20
0.0
 30
0.0
  0
XRECORD
  5
1755
102
{ACAD_REACTORS
330
1736
102
}
330
1736
100
AcDbXrecord
 10
0.0
 20
0.0
 30
0.0
  0
XRECORD
  5
1756
102
{ACAD_REACTORS
330
1736
102
}
330
1736
100
AcDbXrecord
 10
0.0
 20
0.0
 30
0.0
  0
ENDSEC
  0
EOF
