  0
SECTION
  2
HEADER
  9
$ACADVER
  1
AC1014
  9
$ACADMAINTVER
 70
     9
  9
$DWGCODEPAGE
  3
ANSI_932
  9
$INSBASE
 10
0.0
 20
0.0
 30
0.0
  9
$EXTMIN
 10
-0.0445545294446674
 20
-0.0181264030875355
 30
-0.0015258207003583
  9
$EXTMAX
 10
797.6537666962731
 20
551.6452344634274
 30
0.0000000349246037
  9
$LIMMIN
 10
0.0
 20
0.0
  9
$LIMMAX
 10
840.0
 20
594.0
  9
$ORTHOMODE
 70
     1
  9
$REGENMODE
 70
     1
  9
$FILLMODE
 70
     1
  9
$QTEXTMODE
 70
     0
  9
$MIRRTEXT
 70
     1
  9
$DRAGMODE
 70
     2
  9
$LTSCALE
 40
2.0
  9
$OSMODE
 70
    35
  9
$ATTMODE
 70
     1
  9
$TEXTSIZE
 40
5.0
  9
$TRACEWID
 40
1.0
  9
$TEXTSTYLE
  7
STANDARD
  9
$CLAYER
  8
SUNPOU
  9
$CELTYPE
  6
BYLAYER
  9
$CECOLOR
 62
   256
  9
$CELTSCALE
 40
1.0
  9
$DELOBJ
 70
     1
  9
$DISPSILH
 70
     0
  9
$DIMSCALE
 40
1.0
  9
$DIMASZ
 40
7.0
  9
$DIMEXO
 40
6.0
  9
$DIMDLI
 40
14.0
  9
$DIMRND
 40
0.0
  9
$DIMDLE
 40
0.0
  9
$DIMEXE
 40
3.0
  9
$DIMTP
 40
0.0
  9
$DIMTM
 40
0.0
  9
$DIMTXT
 40
6.0
  9
$DIMCEN
 40
150.0
  9
$DIMTSZ
 40
0.0
  9
$DIMTOL
 70
     0
  9
$DIMLIM
 70
     0
  9
$DIMTIH
 70
     0
  9
$DIMTOH
 70
     0
  9
$DIMSE1
 70
     0
  9
$DIMSE2
 70
     0
  9
$DIMTAD
 70
     3
  9
$DIMZIN
 70
     0
  9
$DIMBLK
  1

  9
$DIMASO
 70
     1
  9
$DIMSHO
 70
     1
  9
$DIMPOST
  1

  9
$DIMAPOST
  1

  9
$DIMALT
 70
     0
  9
$DIMALTD
 70
     2
  9
$DIMALTF
 40
25.4
  9
$DIMLFAC
 40
1.0
  9
$DIMTOFL
 70
     1
  9
$DIMTVP
 40
0.0
  9
$DIMTIX
 70
     0
  9
$DIMSOXD
 70
     0
  9
$DIMSAH
 70
     1
  9
$DIMBLK1
  1
OPEN
  9
$DIMBLK2
  1
OPEN
  9
$DIMSTYLE
  2
STANDARD
  9
$DIMCLRD
 70
   256
  9
$DIMCLRE
 70
   256
  9
$DIMCLRT
 70
   256
  9
$DIMTFAC
 40
1.0
  9
$DIMGAP
 40
2.0
  9
$DIMJUST
 70
     0
  9
$DIMSD1
 70
     0
  9
$DIMSD2
 70
     0
  9
$DIMTOLJ
 70
     1
  9
$DIMTZIN
 70
     0
  9
$DIMALTZ
 70
     0
  9
$DIMALTTZ
 70
     0
  9
$DIMFIT
 70
     5
  9
$DIMUPT
 70
     0
  9
$DIMUNIT
 70
     2
  9
$DIMDEC
 70
     0
  9
$DIMTDEC
 70
     0
  9
$DIMALTU
 70
     2
  9
$DIMALTTD
 70
     2
  9
$DIMTXSTY
  7
STANDARD
  9
$DIMAUNIT
 70
     0
  9
$LUNITS
 70
     2
  9
$LUPREC
 70
     4
  9
$SKETCHINC
 40
1.0
  9
$FILLETRAD
 40
0.5
  9
$AUNITS
 70
     0
  9
$AUPREC
 70
     0
  9
$MENU
  1
.
  9
$ELEVATION
 40
0.0
  9
$PELEVATION
 40
0.0
  9
$THICKNESS
 40
0.0
  9
$LIMCHECK
 70
     0
  9
$BLIPMODE
 70
     0
  9
$CHAMFERA
 40
20.0
  9
$CHAMFERB
 40
20.0
  9
$CHAMFERC
 40
40.0
  9
$CHAMFERD
 40
0.0
  9
$SKPOLY
 70
     0
  9
$TDCREATE
 40
2451159.855623147
  9
$TDUPDATE
 40
2454217.499750613
  9
$TDINDWG
 40
0.1424870370
  9
$TDUSRTIMER
 40
0.1424870370
  9
$USRTIMER
 70
     1
  9
$ANGBASE
 50
0.0
  9
$ANGDIR
 70
     0
  9
$PDMODE
 70
     0
  9
$PDSIZE
 40
0.0
  9
$PLINEWID
 40
0.0
  9
$COORDS
 70
     0
  9
$SPLFRAME
 70
     0
  9
$SPLINETYPE
 70
     6
  9
$SPLINESEGS
 70
     8
  9
$ATTDIA
 70
     0
  9
$ATTREQ
 70
     1
  9
$HANDLING
 70
 10241
  9
$HANDSEED
  5
2015
  9
$SURFTAB1
 70
     6
  9
$SURFTAB2
 70
     6
  9
$SURFTYPE
 70
     6
  9
$SURFU
 70
     6
  9
$SURFV
 70
     6
  9
$UCSNAME
  2

  9
$UCSORG
 10
0.0
 20
0.0
 30
0.0
  9
$UCSXDIR
 10
1.0
 20
0.0
 30
0.0
  9
$UCSYDIR
 10
0.0
 20
1.0
 30
0.0
  9
$PUCSNAME
  2

  9
$PUCSORG
 10
0.0
 20
0.0
 30
0.0
  9
$PUCSXDIR
 10
1.0
 20
0.0
 30
0.0
  9
$PUCSYDIR
 10
0.0
 20
1.0
 30
0.0
  9
$USERI1
 70
     0
  9
$USERI2
 70
     0
  9
$USERI3
 70
     0
  9
$USERI4
 70
     0
  9
$USERI5
 70
     0
  9
$USERR1
 40
0.0
  9
$USERR2
 40
0.0
  9
$USERR3
 40
0.0
  9
$USERR4
 40
0.0
  9
$USERR5
 40
0.0
  9
$WORLDVIEW
 70
     1
  9
$SHADEDGE
 70
     3
  9
$SHADEDIF
 70
    70
  9
$TILEMODE
 70
     1
  9
$MAXACTVP
 70
    16
  9
$PINSBASE
 10
0.0
 20
0.0
 30
0.0
  9
$PLIMCHECK
 70
     0
  9
$PEXTMIN
 10
0.0
 20
0.0
 30
0.0
  9
$PEXTMAX
 10
420.0
 20
297.0
 30
0.0
  9
$PLIMMIN
 10
0.0
 20
0.0
  9
$PLIMMAX
 10
420.0
 20
297.0
  9
$UNITMODE
 70
     0
  9
$VISRETAIN
 70
     0
  9
$PLINEGEN
 70
     0
  9
$PSLTSCALE
 70
     1
  9
$TREEDEPTH
 70
  3020
  9
$PICKSTYLE
 70
     1
  9
$CMLSTYLE
  2
STANDARD
  9
$CMLJUST
 70
     0
  9
$CMLSCALE
 40
1.0
  9
$PROXYGRAPHICS
 70
     1
  9
$MEASUREMENT
 70
     1
  0
ENDSEC
  0
SECTION
  2
CLASSES
  0
CLASS
  1
ACDBDICTIONARYWDFLT
  2
AcDbDictionaryWithDefault
  3
AutoCAD 2000
 90
        0
280
     0
281
     0
  0
CLASS
  1
ACDBPLACEHOLDER
  2
AcDbPlaceHolder
  3
AutoCAD 2000
 90
        0
280
     0
281
     0
  0
CLASS
  1
LAYOUT
  2
AcDbLayout
  3
AutoCAD 2000
 90
        0
280
     0
281
     0
  0
CLASS
  1
LONG_TRANSACTION
  2
AcDbLongTransaction
  3
AutoCAD 2000
 90
        0
280
     0
281
     0
  0
CLASS
  1
LWPOLYLINE
  2
AcDbPolyline
  3
AutoCAD 2000
 90
        0
280
     0
281
     1
  0
CLASS
  1
HATCH
  2
AcDbHatch
  3
AutoCAD 2000
 90
        0
280
     0
281
     1
  0
CLASS
  1
XRECORD
  2
AcDbXrecord
  3
AutoCAD 2000
 90
        0
280
     0
281
     0
  0
CLASS
  1
LONG_TRANSACTION
  2
AcDbLongTransaction
  3
AutoCAD 2000
 90
        0
280
     0
281
     0
  0
CLASS
  1
LWPOLYLINE
  2
AcDbPolyline
  3
AutoCAD 2000
 90
        0
280
     0
281
     1
  0
CLASS
  1
HATCH
  2
AcDbHatch
  3
AutoCAD 2000
 90
        0
280
     0
281
     1
  0
CLASS
  1
XRECORD
  2
AcDbXrecord
  3
AutoCAD 2000
 90
        0
280
     0
281
     0
  0
CLASS
  1
LONG_TRANSACTION
  2
AcDbLongTransaction
  3
AutoCAD 2000
 90
        0
280
     0
281
     0
  0
CLASS
  1
LWPOLYLINE
  2
AcDbPolyline
  3
AutoCAD 2000
 90
        0
280
     0
281
     1
  0
CLASS
  1
HATCH
  2
AcDbHatch
  3
AutoCAD 2000
 90
        0
280
     0
281
     1
  0
CLASS
  1
XRECORD
  2
AcDbXrecord
  3
AutoCAD 2000
 90
        0
280
     0
281
     0
  0
CLASS
  1
LONG_TRANSACTION
  2
AcDbLongTransaction
  3
AutoCAD 2000
 90
        0
280
     0
281
     0
  0
CLASS
  1
LWPOLYLINE
  2
AcDbPolyline
  3
AutoCAD 2000
 90
        0
280
     0
281
     1
  0
CLASS
  1
HATCH
  2
AcDbHatch
  3
AutoCAD 2000
 90
        0
280
     0
281
     1
  0
CLASS
  1
XRECORD
  2
AcDbXrecord
  3
AutoCAD 2000
 90
        0
280
     0
281
     0
  0
CLASS
  1
LONG_TRANSACTION
  2
AcDbLongTransaction
  3
AutoCAD 2000
 90
        0
280
     0
281
     0
  0
CLASS
  1
LWPOLYLINE
  2
AcDbPolyline
  3
AutoCAD 2000
 90
        0
280
     0
281
     1
  0
CLASS
  1
HATCH
  2
AcDbHatch
  3
AutoCAD 2000
 90
        0
280
     0
281
     1
  0
CLASS
  1
XRECORD
  2
AcDbXrecord
  3
AutoCAD 2000
 90
        0
280
     0
281
     0
  0
CLASS
  1
LONG_TRANSACTION
  2
AcDbLongTransaction
  3
AutoCAD 2000
 90
        0
280
     0
281
     0
  0
CLASS
  1
LWPOLYLINE
  2
AcDbPolyline
  3
AutoCAD 2000
 90
        0
280
     0
281
     1
  0
CLASS
  1
HATCH
  2
AcDbHatch
  3
AutoCAD 2000
 90
        0
280
     0
281
     1
  0
CLASS
  1
XRECORD
  2
AcDbXrecord
  3
AutoCAD 2000
 90
        0
280
     0
281
     0
  0
CLASS
  1
LONG_TRANSACTION
  2
AcDbLongTransaction
  3
AutoCAD 2000
 90
        0
280
     0
281
     0
  0
CLASS
  1
LWPOLYLINE
  2
AcDbPolyline
  3
AutoCAD 2000
 90
        0
280
     0
281
     1
  0
CLASS
  1
HATCH
  2
AcDbHatch
  3
AutoCAD 2000
 90
        0
280
     0
281
     1
  0
CLASS
  1
XRECORD
  2
AcDbXrecord
  3
AutoCAD 2000
 90
        0
280
     0
281
     0
  0
ENDSEC
  0
SECTION
  2
TABLES
  0
TABLE
  2
VPORT
  5
8
330
0
100
AcDbSymbolTable
 70
     2
  0
VPORT
  5
1FA6
330
8
100
AcDbSymbolTableRecord
100
AcDbViewportTableRecord
  2
*ACTIVE
 70
     0
 10
0.0
 20
0.0
 11
1.0
 21
1.0
 12
385.9704526211942
 22
294.9749494274572
 13
0.0
 23
0.0
 14
5.0
 24
5.0
 15
0.0
 25
0.0
 16
0.0
 26
0.0
 36
1.0
 17
0.0
 27
0.0
 37
0.0
 40
708.9463783969273
 41
1.566326530612244
 42
50.0
 43
0.0
 44
0.0
 50
0.0
 51
0.0
 71
     0
 72
   100
 73
     1
 74
     0
 75
     0
 76
     0
 77
     0
 78
     0
  0
ENDTAB
  0
TABLE
  2
LTYPE
  5
5
330
0
100
AcDbSymbolTable
 70
     4
  0
LTYPE
  5
14
330
5
100
AcDbSymbolTableRecord
100
AcDbLinetypeTableRecord
  2
BYBLOCK
 70
     0
  3

 72
    65
 73
     0
 40
0.0
  0
LTYPE
  5
15
330
5
100
AcDbSymbolTableRecord
100
AcDbLinetypeTableRecord
  2
BYLAYER
 70
     0
  3

 72
    65
 73
     0
 40
0.0
  0
LTYPE
  5
16
330
5
100
AcDbSymbolTableRecord
100
AcDbLinetypeTableRecord
  2
CONTINUOUS
 70
     0
  3
Solid line
 72
    65
 73
     0
 40
0.0
  0
LTYPE
  5
115
330
5
100
AcDbSymbolTableRecord
100
AcDbLinetypeTableRecord
  2
PHANTOM
 70
     0
  3
______  __  __  ______  __  __  ______  __  __ 
 72
    65
 73
     6
 40
2.5
 49
1.25
 74
     0
 49
-0.25
 74
     0
 49
0.25
 74
     0
 49
-0.25
 74
     0
 49
0.25
 74
     0
 49
-0.25
 74
     0
  0
LTYPE
  5
135
330
5
100
AcDbSymbolTableRecord
100
AcDbLinetypeTableRecord
  2
CENTER
 70
     0
  3
____ _ ____ _ ____ _ ____ _ ____ _ ____ _ ____ 
 72
    65
 73
     4
 40
2.0
 49
1.25
 74
     0
 49
-0.25
 74
     0
 49
0.25
 74
     0
 49
-0.25
 74
     0
  0
LTYPE
  5
E9F
330
5
100
AcDbSymbolTableRecord
100
AcDbLinetypeTableRecord
  2
HIDDEN
 70
     0
  3
__ __ __ __ __ __ __ __ __ __ __ __ __ __ __ __
 72
    65
 73
     2
 40
0.375
 49
0.25
 74
     0
 49
-0.125
 74
     0
  0
ENDTAB
  0
TABLE
  2
LAYER
  5
2
330
0
100
AcDbSymbolTable
 70
     9
  0
LAYER
  5
F
330
2
100
AcDbSymbolTableRecord
100
AcDbLayerTableRecord
  2
0
 70
     0
 62
     7
  6
CONTINUOUS
  0
LAYER
  5
62
330
2
100
AcDbSymbolTableRecord
100
AcDbLayerTableRecord
  2
VIEWPORT
 70
     0
 62
     7
  6
CONTINUOUS
  0
LAYER
  5
65
330
2
100
AcDbSymbolTableRecord
100
AcDbLayerTableRecord
  2
ZUWAKU
 70
     0
 62
     7
  6
CONTINUOUS
  0
LAYER
  5
143
330
2
100
AcDbSymbolTableRecord
100
AcDbLayerTableRecord
  2
NOKITOI
 70
     0
 62
     9
  6
PHANTOM
  0
LAYER
  5
144
330
2
100
AcDbSymbolTableRecord
100
AcDbLayerTableRecord
  2
SEIHIN
 70
     0
 62
     3
  6
CONTINUOUS
  0
LAYER
  5
3CD
330
2
100
AcDbSymbolTableRecord
100
AcDbLayerTableRecord
  2
CENTER_L
 70
     0
 62
     1
  6
CENTER
  0
LAYER
  5
3CE
330
2
100
AcDbSymbolTableRecord
100
AcDbLayerTableRecord
  2
SUNPOU
 70
     0
 62
     4
  6
CONTINUOUS
  0
LAYER
  5
6E3
330
2
100
AcDbSymbolTableRecord
100
AcDbLayerTableRecord
  2
DEFPOINTS
 70
     0
 62
     7
  6
CONTINUOUS
  0
LAYER
  5
15FD
330
2
100
AcDbSymbolTableRecord
100
AcDbLayerTableRecord
  2
MOJI
 70
     0
 62
     2
  6
CONTINUOUS
  0
ENDTAB
  0
TABLE
  2
STYLE
  5
3
330
0
100
AcDbSymbolTable
 70
     2
  0
STYLE
  5
10
330
3
100
AcDbSymbolTableRecord
100
AcDbTextStyleTableRecord
  2
STANDARD
 70
     0
 40
0.0
 41
1.0
 50
0.0
 71
     0
 42
5.0
  3
TXT
  4
a:\program files\autocad lt\ms\bigfont.shx
  0
STYLE
  5
15FE
330
3
100
AcDbSymbolTableRecord
100
AcDbTextStyleTableRecord
  2
ｽﾀｲﾙ1
 70
     0
 40
0.0
 41
1.0
 50
0.0
 71
     0
 42
2.5
  3
MS PGothic.ttf
  4

1001
ACAD
1000
MS PGothic
1071
    32818
  0
ENDTAB
  0
TABLE
  2
VIEW
  5
6
330
0
100
AcDbSymbolTable
 70
     0
  0
ENDTAB
  0
TABLE
  2
UCS
  5
7
330
0
100
AcDbSymbolTable
 70
     0
  0
ENDTAB
  0
TABLE
  2
APPID
  5
9
330
0
100
AcDbSymbolTable
 70
     1
  0
APPID
  5
11
330
9
100
AcDbSymbolTableRecord
100
AcDbRegAppTableRecord
  2
ACAD
 70
     0
  0
ENDTAB
  0
TABLE
  2
DIMSTYLE
  5
A
330
0
100
AcDbSymbolTable
 70
     1
  0
DIMSTYLE
105
1D
102
{ACAD_REACTORS
330
91D
330
958
330
965
330
972
330
983
330
9AA
330
A15
330
B16
330
B19
330
C20
330
C32
330
14A2
330
EE4
330
EF7
330
EE5
330
F0F
330
EE6
330
18A5
102
}
330
A
100
AcDbSymbolTableRecord
100
AcDbDimStyleTableRecord
  2
STANDARD
 70
     0
  3

  4

  5

  6

  7

 40
1.0
 41
0.18
 42
0.0625
 43
0.38
 44
0.18
 45
0.0
 46
0.0
 47
0.0
 48
0.0
140
0.18
141
0.09
142
0.0
143
25.4
144
1.0
145
0.0
146
1.0
147
0.09
 71
     0
 72
     0
 73
     1
 74
     1
 75
     0
 76
     0
 77
     0
 78
     0
170
     0
171
     2
172
     0
173
     0
174
     0
175
     0
176
     0
177
     0
178
     0
270
     2
271
     4
272
     4
273
     2
274
     2
340
10
275
     0
280
     0
281
     0
282
     0
283
     1
284
     0
285
     0
286
     0
287
     3
288
     0
  0
ENDTAB
  0
TABLE
  2
BLOCK_RECORD
  5
1
330
0
100
AcDbSymbolTable
 70
    19
  0
BLOCK_RECORD
  5
1A
102
{ACAD_XDICTIONARY
360
DC3
102
}
330
1
100
AcDbSymbolTableRecord
100
AcDbBlockTableRecord
  2
*MODEL_SPACE
  0
BLOCK_RECORD
  5
17
102
{ACAD_XDICTIONARY
360
DC1
102
}
330
1
100
AcDbSymbolTableRecord
100
AcDbBlockTableRecord
  2
*PAPER_SPACE
  0
BLOCK_RECORD
  5
6D
330
1
100
AcDbSymbolTableRecord
100
AcDbBlockTableRecord
  2
_OPEN
  0
BLOCK_RECORD
  5
911
330
1
100
AcDbSymbolTableRecord
100
AcDbBlockTableRecord
  2
*D1
  0
BLOCK_RECORD
  5
94C
330
1
100
AcDbSymbolTableRecord
100
AcDbBlockTableRecord
  2
*D2
  0
BLOCK_RECORD
  5
959
330
1
100
AcDbSymbolTableRecord
100
AcDbBlockTableRecord
  2
*D3
  0
BLOCK_RECORD
  5
966
330
1
100
AcDbSymbolTableRecord
100
AcDbBlockTableRecord
  2
*D4
  0
BLOCK_RECORD
  5
975
330
1
100
AcDbSymbolTableRecord
100
AcDbBlockTableRecord
  2
*D5
  0
BLOCK_RECORD
  5
99E
330
1
100
AcDbSymbolTableRecord
100
AcDbBlockTableRecord
  2
*D6
  0
BLOCK_RECORD
  5
A09
330
1
100
AcDbSymbolTableRecord
100
AcDbBlockTableRecord
  2
*D7
  0
BLOCK_RECORD
  5
B58
330
1
100
AcDbSymbolTableRecord
100
AcDbBlockTableRecord
  2
*D8
  0
BLOCK_RECORD
  5
B70
330
1
100
AcDbSymbolTableRecord
100
AcDbBlockTableRecord
  2
*D9
  0
BLOCK_RECORD
  5
C14
330
1
100
AcDbSymbolTableRecord
100
AcDbBlockTableRecord
  2
*D10
  0
BLOCK_RECORD
  5
C26
330
1
100
AcDbSymbolTableRecord
100
AcDbBlockTableRecord
  2
*D11
  0
BLOCK_RECORD
  5
F1A
330
1
100
AcDbSymbolTableRecord
100
AcDbBlockTableRecord
  2
*D12
  0
BLOCK_RECORD
  5
F26
330
1
100
AcDbSymbolTableRecord
100
AcDbBlockTableRecord
  2
*D13
  0
BLOCK_RECORD
  5
F32
330
1
100
AcDbSymbolTableRecord
100
AcDbBlockTableRecord
  2
*D14
  0
BLOCK_RECORD
  5
F40
330
1
100
AcDbSymbolTableRecord
100
AcDbBlockTableRecord
  2
*D15
  0
BLOCK_RECORD
  5
F58
330
1
100
AcDbSymbolTableRecord
100
AcDbBlockTableRecord
  2
*D16
  0
BLOCK_RECORD
  5
14A3
330
1
100
AcDbSymbolTableRecord
100
AcDbBlockTableRecord
  2
*D17
  0
BLOCK_RECORD
  5
18A6
330
1
100
AcDbSymbolTableRecord
100
AcDbBlockTableRecord
  2
*D18
  0
ENDTAB
  0
ENDSEC
  0
SECTION
  2
BLOCKS
  0
BLOCK
  5
1B
330
1A
100
AcDbEntity
  8
0
100
AcDbBlockBegin
  2
*MODEL_SPACE
 70
     0
 10
0.0
 20
0.0
 30
0.0
  3
*MODEL_SPACE
  1

  0
ENDBLK
  5
1C
330
1A
100
AcDbEntity
  8
0
100
AcDbBlockEnd
  0
BLOCK
  5
18
330
17
100
AcDbEntity
 67
     1
  8
0
100
AcDbBlockBegin
  2
*PAPER_SPACE
 70
     0
 10
0.0
 20
0.0
 30
0.0
  3
*PAPER_SPACE
  1

  0
ENDBLK
  5
19
330
17
100
AcDbEntity
 67
     1
  8
0
100
AcDbBlockEnd
  0
BLOCK
  5
6E
330
6D
100
AcDbEntity
  8
0
100
AcDbBlockBegin
  2
_OPEN
 70
     0
 10
0.0
 20
0.0
 30
0.0
  3
_OPEN
  1

  0
LINE
  5
6F
330
6D
100
AcDbEntity
  8
0
  6
BYBLOCK
 62
     0
100
AcDbLine
 10
-1.0
 20
0.1666666666666666
 30
0.0
 11
0.0
 21
0.0
 31
0.0
  0
LINE
  5
70
330
6D
100
AcDbEntity
  8
0
  6
BYBLOCK
 62
     0
100
AcDbLine
 10
0.0
 20
0.0
 30
0.0
 11
-1.0
 21
-0.1666666666666666
 31
0.0
  0
LINE
  5
71
330
6D
100
AcDbEntity
  8
0
  6
BYBLOCK
 62
     0
100
AcDbLine
 10
0.0
 20
0.0
 30
0.0
 11
-1.0
 21
0.0
 31
0.0
  0
ENDBLK
  5
72
330
6D
100
AcDbEntity
  8
0
100
AcDbBlockEnd
  0
BLOCK
  5
A48
330
911
100
AcDbEntity
  8
0
100
AcDbBlockBegin
  2
*D1
 70
     1
 10
0.0
 20
0.0
 30
0.0
  3
*D1
  1

  0
LINE
  5
1F02
330
911
100
AcDbEntity
  8
SUNPOU
 62
     4
100
AcDbLine
 10
275.5250892924205
 20
350.6518105843924
 30
0.0
 11
275.5250892924205
 21
315.144979320996
 31
0.0
  0
LINE
  5
1F03
330
911
100
AcDbEntity
  8
SUNPOU
 62
     4
100
AcDbLine
 10
350.5250892924205
 20
348.9518105843923
 30
0.0
 11
350.5250892924205
 21
315.144979320996
 31
0.0
  0
LINE
  5
1F04
330
911
100
AcDbEntity
  8
SUNPOU
 62
     4
100
AcDbLine
 10
282.5250892924206
 20
318.144979320996
 30
0.0
 11
343.5250892924206
 21
318.144979320996
 31
0.0
  0
INSERT
  5
1F05
330
911
100
AcDbEntity
  8
SUNPOU
 62
     4
100
AcDbBlockReference
  2
_OPEN
 10
275.5250892924205
 20
318.144979320996
 30
0.0
 41
7.0
 42
7.0
 43
7.0
 50
180.0
  0
INSERT
  5
1F06
330
911
100
AcDbEntity
  8
SUNPOU
 62
     4
100
AcDbBlockReference
  2
_OPEN
 10
350.5250892924205
 20
318.144979320996
 30
0.0
 41
7.0
 42
7.0
 43
7.0
  0
MTEXT
  5
1F07
330
911
100
AcDbEntity
  8
SUNPOU
 62
     4
100
AcDbMText
 10
313.0250892924205
 20
323.144979320996
 30
0.0
 40
6.0
 41
0.0
 71
     5
 72
     1
  1
\A1;※a75
1001
ACAD
1000
MTEXTBEGIN
1070
    73
1070
     1
1070
    44
1040
1.0
1070
    74
1070
     0
1000
MTEXTEND
  0
POINT
  5
1F08
330
911
100
AcDbEntity
  8
DEFPOINTS
 62
     0
100
AcDbPoint
 10
275.5250892924205
 20
356.6518105843924
 30
0.0
  0
POINT
  5
1F09
330
911
100
AcDbEntity
  8
DEFPOINTS
 62
     0
100
AcDbPoint
 10
350.5250892924205
 20
354.9518105843923
 30
0.0
  0
POINT
  5
1F0A
330
911
100
AcDbEntity
  8
DEFPOINTS
 62
     0
100
AcDbPoint
 10
350.5250892924205
 20
318.144979320996
 30
0.0
  0
ENDBLK
  5
A52
330
911
100
AcDbEntity
  8
0
100
AcDbBlockEnd
  0
BLOCK
  5
94D
330
94C
100
AcDbEntity
  8
0
100
AcDbBlockBegin
  2
*D2
 70
     1
 10
0.0
 20
0.0
 30
0.0
  3
*D2
  1

  0
LINE
  5
1F4A
330
94C
100
AcDbEntity
  8
SUNPOU
100
AcDbLine
 10
587.463673791711
 20
148.0482833832841
 30
0.0
 11
675.1996026573506
 21
148.0482833832841
 31
0.0
  0
LINE
  5
1F4B
330
94C
100
AcDbEntity
  8
SUNPOU
100
AcDbLine
 10
632.6447968805109
 20
223.0482837309839
 30
0.0
 11
675.1996026573506
 21
223.0482837309839
 31
0.0
  0
LINE
  5
1F4C
330
94C
100
AcDbEntity
  8
SUNPOU
100
AcDbLine
 10
672.1996026573506
 20
155.0482833832841
 30
0.0
 11
672.1996026573506
 21
216.0482837309839
 31
0.0
  0
INSERT
  5
1F4D
330
94C
100
AcDbEntity
  8
SUNPOU
100
AcDbBlockReference
  2
_OPEN
 10
672.1996026573506
 20
148.0482833832841
 30
0.0
 41
7.0
 42
7.0
 43
7.0
 50
270.0
  0
INSERT
  5
1F4E
330
94C
100
AcDbEntity
  8
SUNPOU
100
AcDbBlockReference
  2
_OPEN
 10
672.1996026573506
 20
223.0482837309839
 30
0.0
 41
7.0
 42
7.0
 43
7.0
 50
90.0
  0
MTEXT
  5
1F4F
330
94C
100
AcDbEntity
  8
SUNPOU
100
AcDbMText
 10
667.1996026573506
 20
185.5482835571341
 30
0.0
 40
6.0
 41
0.0
 71
     5
 72
     1
  1
\A1;75
 11
0.0000000000000001
 21
1.0
 31
0.0
1001
ACAD
1000
MTEXTBEGIN
1070
    73
1070
     1
1070
    44
1040
1.0
1070
    74
1070
     0
1000
MTEXTEND
  0
POINT
  5
1F50
330
94C
100
AcDbEntity
  8
DEFPOINTS
 62
     0
100
AcDbPoint
 10
581.463673791711
 20
148.0482833832841
 30
0.0
  0
POINT
  5
1F51
330
94C
100
AcDbEntity
  8
DEFPOINTS
 62
     0
100
AcDbPoint
 10
626.644796880511
 20
223.0482837309839
 30
0.0
  0
POINT
  5
1F52
330
94C
100
AcDbEntity
  8
DEFPOINTS
 62
     0
100
AcDbPoint
 10
672.1996026573506
 20
223.0482837309839
 30
0.0
  0
ENDBLK
  5
957
330
94C
100
AcDbEntity
  8
0
100
AcDbBlockEnd
  0
BLOCK
  5
95A
330
959
100
AcDbEntity
  8
0
100
AcDbBlockBegin
  2
*D3
 70
     1
 10
0.0
 20
0.0
 30
0.0
  3
*D3
  1

  0
LINE
  5
1F1D
330
959
100
AcDbEntity
  8
SUNPOU
100
AcDbLine
 10
483.7092889856109
 20
251.9402598690839
 30
0.0
 11
483.7092889856109
 21
296.6476563684634
 31
0.0
  0
LINE
  5
1F1E
330
959
100
AcDbEntity
  8
SUNPOU
100
AcDbLine
 10
634.1362064774109
 20
221.1894212888839
 30
0.0
 11
634.1362064774109
 21
296.6476563684634
 31
0.0
  0
LINE
  5
1F1F
330
959
100
AcDbEntity
  8
SUNPOU
100
AcDbLine
 10
490.7092889856109
 20
293.6476563684634
 30
0.0
 11
627.1362064774109
 21
293.6476563684634
 31
0.0
  0
INSERT
  5
1F20
330
959
100
AcDbEntity
  8
SUNPOU
100
AcDbBlockReference
  2
_OPEN
 10
483.7092889856109
 20
293.6476563684634
 30
0.0
 41
7.0
 42
7.0
 43
7.0
 50
180.0
  0
INSERT
  5
1F21
330
959
100
AcDbEntity
  8
SUNPOU
100
AcDbBlockReference
  2
_OPEN
 10
634.1362064774109
 20
293.6476563684634
 30
0.0
 41
7.0
 42
7.0
 43
7.0
  0
MTEXT
  5
1F22
330
959
100
AcDbEntity
  8
SUNPOU
100
AcDbMText
 10
558.922747731511
 20
298.6476563684634
 30
0.0
 40
6.0
 41
0.0
 71
     5
 72
     1
  1
\A1;150
1001
ACAD
1000
MTEXTBEGIN
1070
    73
1070
     1
1070
    44
1040
1.0
1070
    74
1070
     0
1000
MTEXTEND
  0
POINT
  5
1F23
330
959
100
AcDbEntity
  8
DEFPOINTS
 62
     0
100
AcDbPoint
 10
483.7092889856109
 20
245.9402598690839
 30
0.0
  0
POINT
  5
1F24
330
959
100
AcDbEntity
  8
DEFPOINTS
 62
     0
100
AcDbPoint
 10
634.1362064774109
 20
215.1894212888839
 30
0.0
  0
POINT
  5
1F25
330
959
100
AcDbEntity
  8
DEFPOINTS
 62
     0
100
AcDbPoint
 10
634.1362064774109
 20
293.6476563684634
 30
0.0
  0
ENDBLK
  5
964
330
959
100
AcDbEntity
  8
0
100
AcDbBlockEnd
  0
BLOCK
  5
967
330
966
100
AcDbEntity
  8
0
100
AcDbBlockBegin
  2
*D4
 70
     1
 10
0.0
 20
0.0
 30
0.0
  3
*D4
  1

  0
LINE
  5
1F41
330
966
100
AcDbEntity
  8
SUNPOU
100
AcDbLine
 10
490.735211894711
 20
264.224811434484
 30
0.0
 11
442.0500684709695
 21
264.224811434484
 31
0.0
  0
LINE
  5
1F42
330
966
100
AcDbEntity
  8
SUNPOU
100
AcDbLine
 10
575.463673791711
 20
148.0482833832841
 30
0.0
 11
442.0500684709695
 21
148.0482833832841
 31
0.0
  0
LINE
  5
1F43
330
966
100
AcDbEntity
  8
SUNPOU
100
AcDbLine
 10
445.0500684709695
 20
257.224811434484
 30
0.0
 11
445.0500684709695
 21
155.0482833832841
 31
0.0
  0
INSERT
  5
1F44
330
966
100
AcDbEntity
  8
SUNPOU
100
AcDbBlockReference
  2
_OPEN
 10
445.0500684709695
 20
264.224811434484
 30
0.0
 41
7.0
 42
7.0
 43
7.0
 50
90.0
  0
INSERT
  5
1F45
330
966
100
AcDbEntity
  8
SUNPOU
100
AcDbBlockReference
  2
_OPEN
 10
445.0500684709695
 20
148.0482833832841
 30
0.0
 41
7.0
 42
7.0
 43
7.0
 50
270.0
  0
MTEXT
  5
1F46
330
966
100
AcDbEntity
  8
SUNPOU
100
AcDbMText
 10
440.0500684709695
 20
206.1365474088841
 30
0.0
 40
6.0
 41
0.0
 71
     5
 72
     1
  1
\A1;116
 11
0.0000000000000001
 21
1.0
 31
0.0
1001
ACAD
1000
MTEXTBEGIN
1070
    73
1070
     1
1070
    44
1040
1.0
1070
    74
1070
     0
1000
MTEXTEND
  0
POINT
  5
1F47
330
966
100
AcDbEntity
  8
DEFPOINTS
 62
     0
100
AcDbPoint
 10
496.735211894711
 20
264.224811434484
 30
0.0
  0
POINT
  5
1F48
330
966
100
AcDbEntity
  8
DEFPOINTS
 62
     0
100
AcDbPoint
 10
581.463673791711
 20
148.0482833832841
 30
0.0
  0
POINT
  5
1F49
330
966
100
AcDbEntity
  8
DEFPOINTS
 62
     0
100
AcDbPoint
 10
445.0500684709695
 20
148.0482833832841
 30
0.0
  0
ENDBLK
  5
971
330
966
100
AcDbEntity
  8
0
100
AcDbBlockEnd
  0
BLOCK
  5
976
330
975
100
AcDbEntity
  8
0
100
AcDbBlockBegin
  2
*D5
 70
     1
 10
0.0
 20
0.0
 30
0.0
  3
*D5
  1

  0
LINE
  5
1F38
330
975
100
AcDbEntity
  8
SUNPOU
100
AcDbLine
 10
575.463673791711
 20
148.0482833832841
 30
0.0
 11
442.0500684709695
 21
148.0482833832841
 31
0.0
  0
LINE
  5
1F39
330
975
100
AcDbEntity
  8
SUNPOU
100
AcDbLine
 10
527.863105420476
 20
128.048283383284
 30
0.0
 11
442.0500684709695
 21
128.048283383284
 31
0.0
  0
LINE
  5
1F3A
330
975
100
AcDbEntity
  8
SUNPOU
100
AcDbLine
 10
445.0500684709695
 20
141.0482833832841
 30
0.0
 11
445.0500684709695
 21
135.048283383284
 31
0.0
  0
INSERT
  5
1F3B
330
975
100
AcDbEntity
  8
SUNPOU
100
AcDbBlockReference
  2
_OPEN
 10
445.0500684709695
 20
148.0482833832841
 30
0.0
 41
7.0
 42
7.0
 43
7.0
 50
90.0
  0
INSERT
  5
1F3C
330
975
100
AcDbEntity
  8
SUNPOU
100
AcDbBlockReference
  2
_OPEN
 10
445.0500684709695
 20
128.048283383284
 30
0.0
 41
7.0
 42
7.0
 43
7.0
 50
270.0
  0
MTEXT
  5
1F3D
330
975
100
AcDbEntity
  8
SUNPOU
100
AcDbMText
 10
440.0500684709695
 20
138.0482833832841
 30
0.0
 40
6.0
 41
0.0
 71
     5
 72
     1
  1
\A1;20
 11
0.0000000000000001
 21
1.0
 31
0.0
1001
ACAD
1000
MTEXTBEGIN
1070
    73
1070
     1
1070
    44
1040
1.0
1070
    74
1070
     0
1000
MTEXTEND
  0
POINT
  5
1F3E
330
975
100
AcDbEntity
  8
DEFPOINTS
 62
     0
100
AcDbPoint
 10
581.463673791711
 20
148.0482833832841
 30
0.0
  0
POINT
  5
1F3F
330
975
100
AcDbEntity
  8
DEFPOINTS
 62
     0
100
AcDbPoint
 10
533.863105420476
 20
128.048283383284
 30
0.0
  0
POINT
  5
1F40
330
975
100
AcDbEntity
  8
DEFPOINTS
 62
     0
100
AcDbPoint
 10
445.0500684709695
 20
128.048283383284
 30
0.0
  0
ENDBLK
  5
982
330
975
100
AcDbEntity
  8
0
100
AcDbBlockEnd
  0
BLOCK
  5
99F
330
99E
100
AcDbEntity
  8
0
100
AcDbBlockBegin
  2
*D6
 70
     1
 10
0.0
 20
0.0
 30
0.0
  3
*D6
  1

  0
LINE
  5
1EF0
330
99E
100
AcDbEntity
  8
SUNPOU
100
AcDbLine
 10
120.5250892924206
 20
270.224811434484
 30
0.0
 11
120.5250892924206
 21
304.5709796113149
 31
0.0
  0
LINE
  5
1EF1
330
99E
100
AcDbEntity
  8
SUNPOU
100
AcDbLine
 10
350.5250892924205
 20
270.224811434484
 30
0.0
 11
350.5250892924205
 21
304.5709796113149
 31
0.0
  0
LINE
  5
1EF2
330
99E
100
AcDbEntity
  8
SUNPOU
100
AcDbLine
 10
127.5250892924206
 20
301.5709796113148
 30
0.0
 11
343.5250892924206
 21
301.5709796113148
 31
0.0
  0
INSERT
  5
1EF3
330
99E
100
AcDbEntity
  8
SUNPOU
100
AcDbBlockReference
  2
_OPEN
 10
120.5250892924206
 20
301.5709796113148
 30
0.0
 41
7.0
 42
7.0
 43
7.0
 50
180.0
  0
INSERT
  5
1EF4
330
99E
100
AcDbEntity
  8
SUNPOU
100
AcDbBlockReference
  2
_OPEN
 10
350.5250892924205
 20
301.5709796113148
 30
0.0
 41
7.0
 42
7.0
 43
7.0
  0
MTEXT
  5
1EF5
330
99E
100
AcDbEntity
  8
SUNPOU
100
AcDbMText
 10
235.5250892924205
 20
306.5709796113149
 30
0.0
 40
6.0
 41
0.0
 71
     5
 72
     1
  1
\A1;230
1001
ACAD
1000
MTEXTBEGIN
1070
    73
1070
     1
1070
    44
1040
1.0
1070
    74
1070
     0
1000
MTEXTEND
  0
POINT
  5
1EF6
330
99E
100
AcDbEntity
  8
DEFPOINTS
 62
     0
100
AcDbPoint
 10
120.5250892924206
 20
264.224811434484
 30
0.0
  0
POINT
  5
1EF7
330
99E
100
AcDbEntity
  8
DEFPOINTS
 62
     0
100
AcDbPoint
 10
350.5250892924205
 20
264.224811434484
 30
0.0
  0
POINT
  5
1EF8
330
99E
100
AcDbEntity
  8
DEFPOINTS
 62
     0
100
AcDbPoint
 10
350.5250892924205
 20
301.5709796113148
 30
0.0
  0
ENDBLK
  5
9A9
330
99E
100
AcDbEntity
  8
0
100
AcDbBlockEnd
  0
BLOCK
  5
A3D
330
A09
100
AcDbEntity
  8
0
100
AcDbBlockBegin
  2
*D7
 70
     1
 10
0.0
 20
0.0
 30
0.0
  3
*D7
  1

  0
LINE
  5
1F0B
330
A09
100
AcDbEntity
  8
SUNPOU
 62
     4
100
AcDbLine
 10
195.5250892924203
 20
350.6518105843924
 30
0.0
 11
195.5250892924203
 21
315.144979320996
 31
0.0
  0
LINE
  5
1F0C
330
A09
100
AcDbEntity
  8
SUNPOU
 62
     4
100
AcDbLine
 10
275.5250892924205
 20
350.6518105843924
 30
0.0
 11
275.5250892924205
 21
315.144979320996
 31
0.0
  0
LINE
  5
1F0D
330
A09
100
AcDbEntity
  8
SUNPOU
 62
     4
100
AcDbLine
 10
202.5250892924203
 20
318.144979320996
 30
0.0
 11
268.5250892924206
 21
318.144979320996
 31
0.0
  0
INSERT
  5
1F0E
330
A09
100
AcDbEntity
  8
SUNPOU
 62
     4
100
AcDbBlockReference
  2
_OPEN
 10
195.5250892924203
 20
318.144979320996
 30
0.0
 41
7.0
 42
7.0
 43
7.0
 50
180.0
  0
INSERT
  5
1F0F
330
A09
100
AcDbEntity
  8
SUNPOU
 62
     4
100
AcDbBlockReference
  2
_OPEN
 10
275.5250892924205
 20
318.144979320996
 30
0.0
 41
7.0
 42
7.0
 43
7.0
  0
MTEXT
  5
1F10
330
A09
100
AcDbEntity
  8
SUNPOU
 62
     4
100
AcDbMText
 10
235.5250892924205
 20
323.144979320996
 30
0.0
 40
6.0
 41
0.0
 71
     5
 72
     1
  1
\A1;80
1001
ACAD
1000
MTEXTBEGIN
1070
    73
1070
     1
1070
    44
1040
1.0
1070
    74
1070
     0
1000
MTEXTEND
  0
POINT
  5
1F11
330
A09
100
AcDbEntity
  8
DEFPOINTS
 62
     0
100
AcDbPoint
 10
195.5250892924203
 20
356.6518105843924
 30
0.0
  0
POINT
  5
1F12
330
A09
100
AcDbEntity
  8
DEFPOINTS
 62
     0
100
AcDbPoint
 10
275.5250892924205
 20
356.6518105843924
 30
0.0
  0
POINT
  5
1F13
330
A09
100
AcDbEntity
  8
DEFPOINTS
 62
     0
100
AcDbPoint
 10
275.5250892924205
 20
318.144979320996
 30
0.0
  0
ENDBLK
  5
A47
330
A09
100
AcDbEntity
  8
0
100
AcDbBlockEnd
  0
BLOCK
  5
BBB
330
B58
100
AcDbEntity
  8
0
100
AcDbBlockBegin
  2
*D8
 70
     1
 10
0.0
 20
0.0
 30
0.0
  3
*D8
  1

  0
LINE
  5
1F2F
330
B58
100
AcDbEntity
  8
SUNPOU
100
AcDbLine
 10
539.3957890453108
 20
87.0483833832842
 30
0.0
 11
539.3957890453108
 21
56.98485994491079
 31
0.0
  0
LINE
  5
1F30
330
B58
100
AcDbEntity
  8
SUNPOU
100
AcDbLine
 10
628.1958890453109
 20
87.04818338328426
 30
0.0
 11
628.1958890453109
 21
56.98485994491079
 31
0.0
  0
LINE
  5
1F31
330
B58
100
AcDbEntity
  8
SUNPOU
100
AcDbLine
 10
546.3957890453108
 20
59.9848599449108
 30
0.0
 11
621.195889045311
 21
59.9848599449108
 31
0.0
  0
INSERT
  5
1F32
330
B58
100
AcDbEntity
  8
SUNPOU
100
AcDbBlockReference
  2
_OPEN
 10
539.3957890453108
 20
59.9848599449108
 30
0.0
 41
7.0
 42
7.0
 43
7.0
 50
180.0
  0
INSERT
  5
1F33
330
B58
100
AcDbEntity
  8
SUNPOU
100
AcDbBlockReference
  2
_OPEN
 10
628.1958890453109
 20
59.9848599449108
 30
0.0
 41
7.0
 42
7.0
 43
7.0
  0
MTEXT
  5
1F34
330
B58
100
AcDbEntity
  8
SUNPOU
100
AcDbMText
 10
583.7958390453109
 20
64.9848599449108
 30
0.0
 40
6.0
 41
0.0
 71
     5
 72
     1
  1
\A1;89
1001
ACAD
1000
MTEXTBEGIN
1070
    73
1070
     1
1070
    44
1040
1.0
1070
    74
1070
     0
1000
MTEXTEND
  0
POINT
  5
1F35
330
B58
100
AcDbEntity
  8
DEFPOINTS
 62
     0
100
AcDbPoint
 10
539.3957890453108
 20
93.04838338328421
 30
0.0
  0
POINT
  5
1F36
330
B58
100
AcDbEntity
  8
DEFPOINTS
 62
     0
100
AcDbPoint
 10
628.1958890453109
 20
93.04818338328425
 30
0.0
  0
POINT
  5
1F37
330
B58
100
AcDbEntity
  8
DEFPOINTS
 62
     0
100
AcDbPoint
 10
628.1958890453109
 20
59.9848599449108
 30
0.0
  0
ENDBLK
  5
BC5
330
B58
100
AcDbEntity
  8
0
100
AcDbBlockEnd
  0
BLOCK
  5
BF6
330
B70
100
AcDbEntity
  8
0
100
AcDbBlockBegin
  2
*D9
 70
     1
 10
0.0
 20
0.0
 30
0.0
  3
*D9
  1

  0
LINE
  5
1F26
330
B70
100
AcDbEntity
  8
SUNPOU
100
AcDbLine
 10
527.4062737917108
 20
128.048260383284
 30
0.0
 11
442.0899236376452
 21
128.048260383284
 31
0.0
  0
LINE
  5
1F27
330
B70
100
AcDbEntity
  8
SUNPOU
100
AcDbLine
 10
533.8957890453108
 20
92.04838338328398
 30
0.0
 11
442.0899236376451
 21
92.04838338328398
 31
0.0
  0
LINE
  5
1F28
330
B70
100
AcDbEntity
  8
SUNPOU
100
AcDbLine
 10
445.0899236376451
 20
121.048260383284
 30
0.0
 11
445.0899236376451
 21
99.04838338328399
 31
0.0
  0
INSERT
  5
1F29
330
B70
100
AcDbEntity
  8
SUNPOU
100
AcDbBlockReference
  2
_OPEN
 10
445.0899236376452
 20
128.048260383284
 30
0.0
 41
7.0
 42
7.0
 43
7.0
 50
90.0
  0
INSERT
  5
1F2A
330
B70
100
AcDbEntity
  8
SUNPOU
100
AcDbBlockReference
  2
_OPEN
 10
445.0899236376451
 20
92.04838338328398
 30
0.0
 41
7.0
 42
7.0
 43
7.0
 50
270.0
  0
MTEXT
  5
1F2B
330
B70
100
AcDbEntity
  8
SUNPOU
100
AcDbMText
 10
440.0899236376451
 20
110.048321883284
 30
0.0
 40
6.0
 41
0.0
 71
     5
 72
     1
  1
\A1;36
 11
0.0000000000000001
 21
1.0
 31
0.0
1001
ACAD
1000
MTEXTBEGIN
1070
    73
1070
     1
1070
    44
1040
1.0
1070
    74
1070
     0
1000
MTEXTEND
  0
POINT
  5
1F2C
330
B70
100
AcDbEntity
  8
DEFPOINTS
 62
     0
100
AcDbPoint
 10
533.4062737917109
 20
128.048260383284
 30
0.0
  0
POINT
  5
1F2D
330
B70
100
AcDbEntity
  8
DEFPOINTS
 62
     0
100
AcDbPoint
 10
539.8957890453108
 20
92.04838338328398
 30
0.0
  0
POINT
  5
1F2E
330
B70
100
AcDbEntity
  8
DEFPOINTS
 62
     0
100
AcDbPoint
 10
445.0899236376451
 20
92.04838338328398
 30
0.0
  0
ENDBLK
  5
C00
330
B70
100
AcDbEntity
  8
0
100
AcDbBlockEnd
  0
BLOCK
  5
C15
330
C14
100
AcDbEntity
  8
0
100
AcDbBlockBegin
  2
*D10
 70
     1
 10
0.0
 20
0.0
 30
0.0
  3
*D10
  1

  0
LINE
  5
1EF9
330
C14
100
AcDbEntity
  8
SUNPOU
100
AcDbLine
 10
356.5250892924205
 20
264.224811434484
 30
0.0
 11
402.2877971660319
 21
264.2248114344839
 31
0.0
  0
LINE
  5
1EFA
330
C14
100
AcDbEntity
  8
SUNPOU
100
AcDbLine
 10
285.4250892924205
 20
92.04818338328403
 30
0.0
 11
402.2877971660318
 21
92.04818338328399
 31
0.0
  0
LINE
  5
1EFB
330
C14
100
AcDbEntity
  8
SUNPOU
100
AcDbLine
 10
399.2877971660319
 20
257.2248114344839
 30
0.0
 11
399.2877971660318
 21
99.04818338328398
 31
0.0
  0
INSERT
  5
1EFC
330
C14
100
AcDbEntity
  8
SUNPOU
100
AcDbBlockReference
  2
_OPEN
 10
399.2877971660319
 20
264.2248114344839
 30
0.0
 41
7.0
 42
7.0
 43
7.0
 50
90.0
  0
INSERT
  5
1EFD
330
C14
100
AcDbEntity
  8
SUNPOU
100
AcDbBlockReference
  2
_OPEN
 10
399.2877971660318
 20
92.04818338328399
 30
0.0
 41
7.0
 42
7.0
 43
7.0
 50
270.0
  0
MTEXT
  5
1EFE
330
C14
100
AcDbEntity
  8
SUNPOU
100
AcDbMText
 10
394.2877971660318
 20
178.136497408884
 30
0.0
 40
6.0
 41
0.0
 71
     5
 72
     1
  1
\A1;172
 11
0.0000000000000001
 21
1.0
 31
0.0
1001
ACAD
1000
MTEXTBEGIN
1070
    73
1070
     1
1070
    44
1040
1.0
1070
    74
1070
     0
1000
MTEXTEND
  0
POINT
  5
1EFF
330
C14
100
AcDbEntity
  8
DEFPOINTS
 62
     0
100
AcDbPoint
 10
350.5250892924205
 20
264.224811434484
 30
0.0
  0
POINT
  5
1F00
330
C14
100
AcDbEntity
  8
DEFPOINTS
 62
     0
100
AcDbPoint
 10
279.4250892924206
 20
92.04818338328403
 30
0.0
  0
POINT
  5
1F01
330
C14
100
AcDbEntity
  8
DEFPOINTS
 62
     0
100
AcDbPoint
 10
399.2877971660318
 20
92.04818338328399
 30
0.0
  0
ENDBLK
  5
C1F
330
C14
100
AcDbEntity
  8
0
100
AcDbBlockEnd
  0
BLOCK
  5
C27
330
C26
100
AcDbEntity
  8
0
100
AcDbBlockBegin
  2
*D11
 70
     1
 10
0.0
 20
0.0
 30
0.0
  3
*D11
  1

  0
LINE
  5
1F14
330
C26
100
AcDbEntity
  8
SUNPOU
100
AcDbLine
 10
320.5250892924206
 20
406.9518105843923
 30
0.0
 11
320.5250892924206
 21
417.7143449947171
 31
0.0
  0
LINE
  5
1F15
330
C26
100
AcDbEntity
  8
SUNPOU
100
AcDbLine
 10
350.5250892924205
 20
406.9518105843922
 30
0.0
 11
350.5250892924205
 21
417.7143449947171
 31
0.0
  0
LINE
  5
1F16
330
C26
100
AcDbEntity
  8
SUNPOU
100
AcDbLine
 10
327.5250892924205
 20
414.714344994717
 30
0.0
 11
343.5250892924206
 21
414.714344994717
 31
0.0
  0
INSERT
  5
1F17
330
C26
100
AcDbEntity
  8
SUNPOU
100
AcDbBlockReference
  2
_OPEN
 10
320.5250892924206
 20
414.714344994717
 30
0.0
 41
7.0
 42
7.0
 43
7.0
 50
180.0
  0
INSERT
  5
1F18
330
C26
100
AcDbEntity
  8
SUNPOU
100
AcDbBlockReference
  2
_OPEN
 10
350.5250892924205
 20
414.714344994717
 30
0.0
 41
7.0
 42
7.0
 43
7.0
  0
MTEXT
  5
1F19
330
C26
100
AcDbEntity
  8
SUNPOU
100
AcDbMText
 10
335.5250892924205
 20
419.714344994717
 30
0.0
 40
6.0
 41
0.0
 71
     5
 72
     1
  1
\A1;30
1001
ACAD
1000
MTEXTBEGIN
1070
    73
1070
     1
1070
    44
1040
1.0
1070
    74
1070
     0
1000
MTEXTEND
  0
POINT
  5
1F1A
330
C26
100
AcDbEntity
  8
DEFPOINTS
 62
     0
100
AcDbPoint
 10
320.5250892924206
 20
400.9518105843922
 30
0.0
  0
POINT
  5
1F1B
330
C26
100
AcDbEntity
  8
DEFPOINTS
 62
     0
100
AcDbPoint
 10
350.5250892924205
 20
400.9518105843922
 30
0.0
  0
POINT
  5
1F1C
330
C26
100
AcDbEntity
  8
DEFPOINTS
 62
     0
100
AcDbPoint
 10
350.5250892924205
 20
414.714344994717
 30
0.0
  0
ENDBLK
  5
C31
330
C26
100
AcDbEntity
  8
0
100
AcDbBlockEnd
  0
BLOCK
  5
F24
330
F1A
100
AcDbEntity
  8
0
100
AcDbBlockBegin
  2
*D12
 70
     1
 10
0.0
 20
0.0
 30
0.0
  3
*D12
  1

  0
LINE
  5
1FCA
330
F1A
100
AcDbEntity
  8
SUNPOU
  6
CONTINUOUS
100
AcDbLine
 10
648.3489858615144
 20
437.0157209272056
 30
0.0
 11
632.8154949567822
 21
437.0157209272057
 31
0.0
  0
LINE
  5
1FCB
330
F1A
100
AcDbEntity
  8
SUNPOU
  6
CONTINUOUS
100
AcDbLine
 10
648.2025392521077
 20
424.1621675366124
 30
0.0
 11
632.8154949567822
 21
424.1621675366124
 31
0.0
  0
LINE
  5
1FCC
330
F1A
100
AcDbEntity
  8
SUNPOU
  6
CONTINUOUS
100
AcDbLine
 10
635.8154949567822
 20
444.0157209272056
 30
0.0
 11
635.8154949567822
 21
451.0157209272056
 31
0.0
  0
LINE
  5
1FCD
330
F1A
100
AcDbEntity
  8
SUNPOU
  6
CONTINUOUS
100
AcDbLine
 10
635.8154949567822
 20
417.1621675366124
 30
0.0
 11
635.8154949567822
 21
410.1621675366124
 31
0.0
  0
LINE
  5
1FCE
330
F1A
100
AcDbEntity
  8
SUNPOU
  6
CONTINUOUS
100
AcDbLine
 10
635.8154949567822
 20
437.0157209272057
 30
0.0
 11
635.8154949567822
 21
424.1621675366124
 31
0.0
  0
INSERT
  5
1FCF
330
F1A
100
AcDbEntity
  8
SUNPOU
  6
CONTINUOUS
100
AcDbBlockReference
  2
_OPEN
 10
635.8154949567822
 20
437.0157209272057
 30
0.0
 41
7.0
 42
7.0
 43
7.0
 50
270.0
  0
INSERT
  5
1FD0
330
F1A
100
AcDbEntity
  8
SUNPOU
  6
CONTINUOUS
100
AcDbBlockReference
  2
_OPEN
 10
635.8154949567822
 20
424.1621675366124
 30
0.0
 41
7.0
 42
7.0
 43
7.0
 50
90.0
  0
MTEXT
  5
1FD1
330
F1A
100
AcDbEntity
  8
SUNPOU
  6
CONTINUOUS
100
AcDbMText
 10
630.8154949567821
 20
430.5889442319091
 30
0.0
 40
6.0
 41
0.0
 71
     5
 72
     1
  1
\A1;13
 11
0.0000000000000001
 21
1.0
 31
0.0
  0
POINT
  5
1FD2
330
F1A
100
AcDbEntity
  8
DEFPOINTS
  6
CONTINUOUS
 62
     0
100
AcDbPoint
 10
654.3489858615145
 20
437.0157209272056
 30
0.0
  0
POINT
  5
1FD3
330
F1A
100
AcDbEntity
  8
DEFPOINTS
  6
CONTINUOUS
 62
     0
100
AcDbPoint
 10
654.2025392521077
 20
424.1621675366124
 30
0.0
  0
POINT
  5
1FD4
330
F1A
100
AcDbEntity
  8
DEFPOINTS
  6
CONTINUOUS
 62
     0
100
AcDbPoint
 10
635.8154949567822
 20
424.1621675366124
 30
0.0
  0
ENDBLK
  5
F25
330
F1A
100
AcDbEntity
  8
0
100
AcDbBlockEnd
  0
BLOCK
  5
F30
330
F26
100
AcDbEntity
  8
0
100
AcDbBlockBegin
  2
*D13
 70
     1
 10
0.0
 20
0.0
 30
0.0
  3
*D13
  1

  0
LINE
  5
1FD5
330
F26
100
AcDbEntity
  8
SUNPOU
100
AcDbLine
 10
650.2025392521077
 20
446.6621675366123
 30
0.0
 11
650.2025392521077
 21
454.5698675366123
 31
0.0
  0
LINE
  5
1FD6
330
F26
100
AcDbEntity
  8
SUNPOU
100
AcDbLine
 10
659.6314332521077
 20
446.6621675366123
 30
0.0
 11
659.6314332521077
 21
454.5698675366123
 31
0.0
  0
LINE
  5
1FD7
330
F26
100
AcDbEntity
  8
SUNPOU
100
AcDbLine
 10
643.2025392521077
 20
451.5698675366123
 30
0.0
 11
636.2025392521077
 21
451.5698675366123
 31
0.0
  0
LINE
  5
1FD8
330
F26
100
AcDbEntity
  8
SUNPOU
100
AcDbLine
 10
666.6314332521077
 20
451.5698675366123
 30
0.0
 11
673.6314332521077
 21
451.5698675366123
 31
0.0
  0
LINE
  5
1FD9
330
F26
100
AcDbEntity
  8
SUNPOU
100
AcDbLine
 10
650.2025392521077
 20
451.5698675366123
 30
0.0
 11
659.6314332521077
 21
451.5698675366123
 31
0.0
  0
INSERT
  5
1FDA
330
F26
100
AcDbEntity
  8
SUNPOU
100
AcDbBlockReference
  2
_OPEN
 10
650.2025392521077
 20
451.5698675366123
 30
0.0
 41
7.0
 42
7.0
 43
7.0
  0
INSERT
  5
1FDB
330
F26
100
AcDbEntity
  8
SUNPOU
100
AcDbBlockReference
  2
_OPEN
 10
659.6314332521077
 20
451.5698675366123
 30
0.0
 41
7.0
 42
7.0
 43
7.0
 50
180.0
  0
MTEXT
  5
1FDC
330
F26
100
AcDbEntity
  8
SUNPOU
100
AcDbMText
 10
654.9169862521077
 20
456.5698675366124
 30
0.0
 40
6.0
 41
0.0
 71
     5
 72
     1
  1
\A1;9
  0
POINT
  5
1FDD
330
F26
100
AcDbEntity
  8
DEFPOINTS
 62
     0
100
AcDbPoint
 10
650.2025392521077
 20
440.6621675366124
 30
0.0
  0
POINT
  5
1FDE
330
F26
100
AcDbEntity
  8
DEFPOINTS
 62
     0
100
AcDbPoint
 10
659.6314332521077
 20
440.6621675366124
 30
0.0
  0
POINT
  5
1FDF
330
F26
100
AcDbEntity
  8
DEFPOINTS
 62
     0
100
AcDbPoint
 10
659.6314332521077
 20
451.5698675366123
 30
0.0
  0
ENDBLK
  5
F31
330
F26
100
AcDbEntity
  8
0
100
AcDbBlockEnd
  0
BLOCK
  5
F3E
330
F32
100
AcDbEntity
  8
0
100
AcDbBlockBegin
  2
*D14
 70
     1
 10
0.0
 20
0.0
 30
0.0
  3
*D14
  1

  0
LINE
  5
1FE0
330
F32
100
AcDbEntity
  8
SUNPOU
100
AcDbLine
 10
654.2025392521077
 20
418.1621675366123
 30
0.0
 11
654.2025392521077
 21
405.6668001728925
 31
0.0
  0
LINE
  5
1FE1
330
F32
100
AcDbEntity
  8
SUNPOU
100
AcDbLine
 10
655.9307392521077
 20
430.6920675366123
 30
0.0
 11
655.9307392521077
 21
405.6668001728925
 31
0.0
  0
LINE
  5
1FE2
330
F32
100
AcDbEntity
  8
SUNPOU
100
AcDbLine
 10
647.2025392521077
 20
408.6668001728924
 30
0.0
 11
640.2025392521077
 21
408.6668001728924
 31
0.0
  0
LINE
  5
1FE3
330
F32
100
AcDbEntity
  8
SUNPOU
100
AcDbLine
 10
662.9307392521077
 20
408.6668001728924
 30
0.0
 11
669.9307392521077
 21
408.6668001728924
 31
0.0
  0
MTEXT
  5
1FE4
330
F32
100
AcDbEntity
  8
SUNPOU
100
AcDbMText
 10
655.0666392521077
 20
393.6668001728925
 30
0.0
 40
6.0
 41
0.0
 71
     5
 72
     1
  1
\A1;2
  0
LINE
  5
1FE5
330
F32
100
AcDbEntity
  8
SUNPOU
100
AcDbLine
 10
654.2025392521077
 20
408.6668001728924
 30
0.0
 11
655.9307392521077
 21
408.6668001728924
 31
0.0
  0
INSERT
  5
1FE6
330
F32
100
AcDbEntity
  8
SUNPOU
100
AcDbBlockReference
  2
_OPEN
 10
654.2025392521077
 20
408.6668001728924
 30
0.0
 41
7.0
 42
7.0
 43
7.0
  0
INSERT
  5
1FE7
330
F32
100
AcDbEntity
  8
SUNPOU
100
AcDbBlockReference
  2
_OPEN
 10
655.9307392521077
 20
408.6668001728924
 30
0.0
 41
7.0
 42
7.0
 43
7.0
 50
180.0
  0
POINT
  5
1FE8
330
F32
100
AcDbEntity
  8
DEFPOINTS
 62
     0
100
AcDbPoint
 10
654.2025392521077
 20
424.1621675366124
 30
0.0
  0
POINT
  5
1FE9
330
F32
100
AcDbEntity
  8
DEFPOINTS
 62
     0
100
AcDbPoint
 10
655.9307392521077
 20
436.6920675366124
 30
0.0
  0
POINT
  5
1FEA
330
F32
100
AcDbEntity
  8
DEFPOINTS
 62
     0
100
AcDbPoint
 10
655.9307392521077
 20
408.6668001728924
 30
0.0
  0
ENDBLK
  5
F3F
330
F32
100
AcDbEntity
  8
0
100
AcDbBlockEnd
  0
BLOCK
  5
F4A
330
F40
100
AcDbEntity
  8
0
100
AcDbBlockBegin
  2
*D15
 70
     1
 10
0.0
 20
0.0
 30
0.0
  3
*D15
  1

  0
LINE
  5
1FEB
330
F40
100
AcDbEntity
  8
SUNPOU
100
AcDbLine
 10
591.5608558201422
 20
439.1621675366123
 30
0.0
 11
609.616315650021
 21
439.1621675366123
 31
0.0
  0
LINE
  5
1FEC
330
F40
100
AcDbEntity
  8
SUNPOU
100
AcDbLine
 10
592.6321028701302
 20
424.1647088367816
 30
0.0
 11
609.616315650021
 21
424.1647088367816
 31
0.0
  0
LINE
  5
1FED
330
F40
100
AcDbEntity
  8
SUNPOU
100
AcDbLine
 10
606.616315650021
 20
446.1621675366123
 30
0.0
 11
606.616315650021
 21
453.1621675366124
 31
0.0
  0
LINE
  5
1FEE
330
F40
100
AcDbEntity
  8
SUNPOU
100
AcDbLine
 10
606.616315650021
 20
417.1647088367816
 30
0.0
 11
606.616315650021
 21
410.1647088367816
 31
0.0
  0
LINE
  5
1FEF
330
F40
100
AcDbEntity
  8
SUNPOU
100
AcDbLine
 10
606.616315650021
 20
439.1621675366123
 30
0.0
 11
606.616315650021
 21
424.1647088367816
 31
0.0
  0
INSERT
  5
1FF0
330
F40
100
AcDbEntity
  8
SUNPOU
100
AcDbBlockReference
  2
_OPEN
 10
606.616315650021
 20
439.1621675366123
 30
0.0
 41
7.0
 42
7.0
 43
7.0
 50
270.0
  0
INSERT
  5
1FF1
330
F40
100
AcDbEntity
  8
SUNPOU
100
AcDbBlockReference
  2
_OPEN
 10
606.616315650021
 20
424.1647088367816
 30
0.0
 41
7.0
 42
7.0
 43
7.0
 50
90.0
  0
MTEXT
  5
1FF2
330
F40
100
AcDbEntity
  8
SUNPOU
100
AcDbMText
 10
601.6163156500209
 20
431.663438186697
 30
0.0
 40
6.0
 41
0.0
 71
     5
 72
     1
  1
\A1;15
 11
0.0000000000000001
 21
1.0
 31
0.0
  0
POINT
  5
1FF3
330
F40
100
AcDbEntity
  8
DEFPOINTS
 62
     0
100
AcDbPoint
 10
585.5608558201423
 20
439.1621675366123
 30
0.0
  0
POINT
  5
1FF4
330
F40
100
AcDbEntity
  8
DEFPOINTS
 62
     0
100
AcDbPoint
 10
586.6321028701301
 20
424.1647088367816
 30
0.0
  0
POINT
  5
1FF5
330
F40
100
AcDbEntity
  8
DEFPOINTS
 62
     0
100
AcDbPoint
 10
606.616315650021
 20
424.1647088367816
 30
0.0
  0
ENDBLK
  5
F4B
330
F40
100
AcDbEntity
  8
0
100
AcDbBlockEnd
  0
BLOCK
  5
F64
330
F58
100
AcDbEntity
  8
0
100
AcDbBlockBegin
  2
*D16
 70
     1
 10
0.0
 20
0.0
 30
0.0
  3
*D16
  1

  0
LINE
  5
1FF6
330
F58
100
AcDbEntity
  8
SUNPOU
  6
CONTINUOUS
100
AcDbLine
 10
661.4316392521077
 20
437.1621675366124
 30
0.0
 11
681.8031736522355
 21
437.1621675366124
 31
0.0
  0
LINE
  5
1FF7
330
F58
100
AcDbEntity
  8
SUNPOU
  6
CONTINUOUS
100
AcDbLine
 10
664.7025392521077
 20
432.1621675366124
 30
0.0
 11
681.8031736522355
 21
432.1621675366124
 31
0.0
  0
LINE
  5
1FF8
330
F58
100
AcDbEntity
  8
SUNPOU
  6
CONTINUOUS
100
AcDbLine
 10
678.8031736522355
 20
444.1621675366124
 30
0.0
 11
678.8031736522355
 21
451.1621675366123
 31
0.0
  0
LINE
  5
1FF9
330
F58
100
AcDbEntity
  8
SUNPOU
  6
CONTINUOUS
100
AcDbLine
 10
678.8031736522355
 20
425.1621675366124
 30
0.0
 11
678.8031736522355
 21
418.1621675366123
 31
0.0
  0
MTEXT
  5
1FFA
330
F58
100
AcDbEntity
  8
SUNPOU
  6
CONTINUOUS
100
AcDbMText
 10
688.194825950989
 20
431.3772123172919
 30
0.0
 40
6.0
 41
0.0
 71
     5
 72
     1
  1
\A1;差込み寸法5
 11
0.0000000000000001
 21
1.0
 31
0.0
  0
LINE
  5
1FFB
330
F58
100
AcDbEntity
  8
SUNPOU
  6
CONTINUOUS
100
AcDbLine
 10
678.8031736522355
 20
437.1621675366124
 30
0.0
 11
678.8031736522355
 21
432.1621675366124
 31
0.0
  0
INSERT
  5
1FFC
330
F58
100
AcDbEntity
  8
SUNPOU
  6
CONTINUOUS
100
AcDbBlockReference
  2
_OPEN
 10
678.8031736522355
 20
437.1621675366124
 30
0.0
 41
7.0
 42
7.0
 43
7.0
 50
270.0
  0
INSERT
  5
1FFD
330
F58
100
AcDbEntity
  8
SUNPOU
  6
CONTINUOUS
100
AcDbBlockReference
  2
_OPEN
 10
678.8031736522355
 20
432.1621675366124
 30
0.0
 41
7.0
 42
7.0
 43
7.0
 50
90.0
  0
POINT
  5
1FFE
330
F58
100
AcDbEntity
  8
DEFPOINTS
  6
CONTINUOUS
 62
     0
100
AcDbPoint
 10
655.4316392521077
 20
437.1621675366124
 30
0.0
  0
POINT
  5
1FFF
330
F58
100
AcDbEntity
  8
DEFPOINTS
  6
CONTINUOUS
 62
     0
100
AcDbPoint
 10
658.7025392521077
 20
432.1621675366124
 30
0.0
  0
POINT
  5
2000
330
F58
100
AcDbEntity
  8
DEFPOINTS
  6
CONTINUOUS
 62
     0
100
AcDbPoint
 10
678.8031736522355
 20
432.1621675366124
 30
0.0
  0
ENDBLK
  5
F65
330
F58
100
AcDbEntity
  8
0
100
AcDbBlockEnd
  0
BLOCK
  5
14AD
330
14A3
100
AcDbEntity
  8
0
100
AcDbBlockBegin
  2
*D17
 70
     1
 10
0.0
 20
0.0
 30
0.0
  3
*D17
  1

  0
LINE
  5
2001
330
14A3
100
AcDbEntity
  8
SUNPOU
100
AcDbLine
 10
534.5607558201423
 20
446.1620675366124
 30
0.0
 11
534.5607558201423
 21
464.4250705305221
 31
0.0
  0
LINE
  5
2002
330
14A3
100
AcDbEntity
  8
SUNPOU
100
AcDbLine
 10
587.5608558201422
 20
446.1621675366123
 30
0.0
 11
587.5608558201422
 21
464.4250705305221
 31
0.0
  0
LINE
  5
2003
330
14A3
100
AcDbEntity
  8
SUNPOU
100
AcDbLine
 10
541.5607558201422
 20
461.4250705305221
 30
0.0
 11
580.5608558201422
 21
461.4250705305221
 31
0.0
  0
INSERT
  5
2004
330
14A3
100
AcDbEntity
  8
SUNPOU
100
AcDbBlockReference
  2
_OPEN
 10
534.5607558201423
 20
461.4250705305221
 30
0.0
 41
7.0
 42
7.0
 43
7.0
 50
180.0
  0
INSERT
  5
2005
330
14A3
100
AcDbEntity
  8
SUNPOU
100
AcDbBlockReference
  2
_OPEN
 10
587.5608558201422
 20
461.4250705305221
 30
0.0
 41
7.0
 42
7.0
 43
7.0
  0
MTEXT
  5
2006
330
14A3
100
AcDbEntity
  8
SUNPOU
100
AcDbMText
 10
561.0608058201422
 20
466.4250705305221
 30
0.0
 40
6.0
 41
0.0
 71
     5
 72
     1
  1
\A1;53
  0
POINT
  5
2007
330
14A3
100
AcDbEntity
  8
DEFPOINTS
 62
     0
100
AcDbPoint
 10
534.5607558201423
 20
440.1620675366124
 30
0.0
  0
POINT
  5
2008
330
14A3
100
AcDbEntity
  8
DEFPOINTS
 62
     0
100
AcDbPoint
 10
587.5608558201422
 20
440.1621675366124
 30
0.0
  0
POINT
  5
2009
330
14A3
100
AcDbEntity
  8
DEFPOINTS
 62
     0
100
AcDbPoint
 10
587.5608558201422
 20
461.4250705305221
 30
0.0
  0
ENDBLK
  5
14AE
330
14A3
100
AcDbEntity
  8
0
100
AcDbBlockEnd
  0
BLOCK
  5
18B2
330
18A6
100
AcDbEntity
  8
0
100
AcDbBlockBegin
  2
*D18
 70
     1
 10
0.0
 20
0.0
 30
0.0
  3
*D18
  1

  0
LINE
  5
200A
330
18A6
100
AcDbEntity
  8
SUNPOU
100
AcDbLine
 10
529.5607558201423
 20
441.1620675366124
 30
0.0
 11
510.6790496577327
 21
441.1620675366124
 31
0.0
  0
LINE
  5
200B
330
18A6
100
AcDbEntity
  8
SUNPOU
100
AcDbLine
 10
529.5607558201423
 20
424.1620675366124
 30
0.0
 11
510.6790496577327
 21
424.1620675366124
 31
0.0
  0
LINE
  5
200C
330
18A6
100
AcDbEntity
  8
SUNPOU
100
AcDbLine
 10
513.6790496577328
 20
448.1620675366124
 30
0.0
 11
513.6790496577328
 21
455.1620675366124
 31
0.0
  0
LINE
  5
200D
330
18A6
100
AcDbEntity
  8
SUNPOU
100
AcDbLine
 10
513.6790496577328
 20
417.1620675366124
 30
0.0
 11
513.6790496577328
 21
410.1620675366124
 31
0.0
  0
LINE
  5
200E
330
18A6
100
AcDbEntity
  8
SUNPOU
100
AcDbLine
 10
513.6790496577328
 20
441.1620675366124
 30
0.0
 11
513.6790496577328
 21
424.1620675366124
 31
0.0
  0
INSERT
  5
200F
330
18A6
100
AcDbEntity
  8
SUNPOU
100
AcDbBlockReference
  2
_OPEN
 10
513.6790496577328
 20
441.1620675366124
 30
0.0
 41
7.0
 42
7.0
 43
7.0
 50
270.0
  0
INSERT
  5
2010
330
18A6
100
AcDbEntity
  8
SUNPOU
100
AcDbBlockReference
  2
_OPEN
 10
513.6790496577328
 20
424.1620675366124
 30
0.0
 41
7.0
 42
7.0
 43
7.0
 50
90.0
  0
MTEXT
  5
2011
330
18A6
100
AcDbEntity
  8
SUNPOU
100
AcDbMText
 10
508.6790496577326
 20
432.6620675366124
 30
0.0
 40
6.0
 41
0.0
 71
     5
 72
     1
  1
\A1;17
 11
0.0000000000000001
 21
1.0
 31
0.0
  0
POINT
  5
2012
330
18A6
100
AcDbEntity
  8
DEFPOINTS
 62
     0
100
AcDbPoint
 10
535.5607558201422
 20
441.1620675366124
 30
0.0
  0
POINT
  5
2013
330
18A6
100
AcDbEntity
  8
DEFPOINTS
 62
     0
100
AcDbPoint
 10
535.5607558201422
 20
424.1620675366124
 30
0.0
  0
POINT
  5
2014
330
18A6
100
AcDbEntity
  8
DEFPOINTS
 62
     0
100
AcDbPoint
 10
513.6790496577328
 20
424.1620675366124
 30
0.0
  0
ENDBLK
  5
18B3
330
18A6
100
AcDbEntity
  8
0
100
AcDbBlockEnd
  0
ENDSEC
  0
SECTION
  2
ENTITIES
  0
ARC
  5
3D0
330
1A
100
AcDbEntity
  8
NOKITOI
  6
PHANTOM
 62
     9
 48
3.0
100
AcDbCircle
 10
581.463673791711
 20
1150.548283383284
 30
0.0
 40
1000.0
100
AcDbArc
 50
267.2057870799
 51
272.4394137225999
  0
ARC
  5
3D1
330
1A
100
AcDbEntity
  8
NOKITOI
  6
PHANTOM
 62
     9
 48
3.0
100
AcDbCircle
 10
581.463673791711
 20
1150.548283383284
 30
0.0
 40
998.7
100
AcDbArc
 50
267.2027850585
 51
272.4394137225999
  0
LINE
  5
3D2
330
1A
100
AcDbEntity
  8
SEIHIN
  6
CONTINUOUS
 62
     3
100
AcDbLine
 10
534.6155085316109
 20
176.5774912590839
 30
0.0
 11
540.9172241467108
 21
151.370628798684
 31
0.0
  0
ARC
  5
3D3
330
1A
100
AcDbEntity
  8
SEIHIN
  6
CONTINUOUS
 62
     3
100
AcDbCircle
 10
538.1573756557108
 20
133.5482833832839
 30
0.0
 40
5.5
100
AcDbArc
 50
194.0362434679
 51
270.0
  0
ARC
  5
3D4
330
1A
100
AcDbEntity
  8
SEIHIN
  6
CONTINUOUS
 62
     3
100
AcDbCircle
 10
581.463673791711
 20
1150.548283383284
 30
0.0
 40
1002.5
100
AcDbArc
 50
267.2057870799
 51
272.4394137225999
  0
ARC
  5
3D5
330
1A
100
AcDbEntity
  8
SEIHIN
  6
CONTINUOUS
 62
     3
100
AcDbCircle
 10
581.463673791711
 20
1150.548283383284
 30
0.0
 40
1000.0
100
AcDbArc
 50
267.2057870799
 51
272.4381855922
  0
ARC
  5
3D6
330
1A
100
AcDbEntity
  8
SEIHIN
  6
CONTINUOUS
 62
     3
100
AcDbCircle
 10
581.463673791711
 20
1150.548283383284
 30
0.0
 40
1001.5
100
AcDbArc
 50
267.2057870799
 51
272.4394137225999
  0
ARC
  5
3E1
330
1A
100
AcDbEntity
  8
NOKITOI
  6
PHANTOM
 62
     9
 48
3.0
100
AcDbCircle
 10
722.2229668895108
 20
269.766811329984
 30
0.0
 40
228.6
100
AcDbArc
 50
190.8722588022
 51
204.3402516129999
  0
ARC
  5
3E2
330
1A
100
AcDbEntity
  8
NOKITOI
  6
PHANTOM
 62
     9
 48
3.0
100
AcDbCircle
 10
722.2229668895108
 20
269.766811329984
 30
0.0
 40
230.0
100
AcDbArc
 50
184.0482867622
 51
206.8535797088
  0
ARC
  5
3E5
330
1A
100
AcDbEntity
  8
SEIHIN
  6
CONTINUOUS
 62
     3
100
AcDbCircle
 10
722.2229668895108
 20
269.766811329984
 30
0.0
 40
231.4999999999999
100
AcDbArc
 50
185.5892534145
 51
206.8535797088
  0
ARC
  5
3E6
330
1A
100
AcDbEntity
  8
SEIHIN
  6
CONTINUOUS
 62
     3
100
AcDbCircle
 10
722.2229668895108
 20
269.766811329984
 30
0.0
 40
232.5
100
AcDbArc
 50
185.7275442459999
 51
206.8535797088
  0
ARC
  5
3E7
330
1A
100
AcDbEntity
  8
SEIHIN
  6
CONTINUOUS
 62
     3
100
AcDbCircle
 10
722.2229668895108
 20
269.766811329984
 30
0.0
 40
230.0
100
AcDbArc
 50
185.5892534145
 51
206.8535797088
  0
LINE
  5
3E8
330
1A
100
AcDbEntity
  8
SEIHIN
  6
CONTINUOUS
 62
     3
100
AcDbLine
 10
350.5250892924205
 20
264.224811434484
 30
0.0
 11
350.5250892924205
 21
149.048283383284
 31
0.0
  0
LINE
  5
3E9
330
1A
100
AcDbEntity
  8
CENTER_L
  6
CENTER
 62
     1
 48
5.0
100
AcDbLine
 10
235.5250892924205
 20
79.6166153577949
 30
0.0
 11
235.5250892924205
 21
267.2588077976839
 31
0.0
  0
LINE
  5
3EA
330
1A
100
AcDbEntity
  8
SEIHIN
  6
CONTINUOUS
 62
     3
100
AcDbLine
 10
120.5250892924206
 20
264.224811434484
 30
0.0
 11
120.5250892924206
 21
149.048283383284
 31
0.0
  0
LINE
  5
3EE
330
1A
100
AcDbEntity
  8
SEIHIN
  6
CONTINUOUS
 62
     3
100
AcDbLine
 10
280.4068085077206
 20
128.048283383284
 30
0.0
 11
190.6433704246205
 21
128.048283383284
 31
0.0
  0
LINE
  5
3F2
330
1A
100
AcDbEntity
  8
SEIHIN
  6
CONTINUOUS
 62
     3
100
AcDbLine
 10
120.5250892924206
 20
162.7966128984839
 30
0.0
 11
350.5250892924205
 21
162.7966128984839
 31
0.0
  0
ARC
  5
3F6
330
1A
100
AcDbEntity
  8
SEIHIN
  6
CONTINUOUS
 62
     3
100
AcDbCircle
 10
138.9590684936206
 20
124.3328151359839
 30
0.0
 40
24.0
100
AcDbArc
 50
55.0348792265
 51
87.8307424103
  0
LINE
  5
406
330
1A
100
AcDbEntity
  8
SEIHIN
  6
CONTINUOUS
 62
     3
100
AcDbLine
 10
139.8675079207205
 20
148.315616010984
 30
0.0
 11
120.5250892924206
 21
149.048283383284
 31
0.0
  0
ARC
  5
41A
330
1A
100
AcDbEntity
  8
SEIHIN
  6
CONTINUOUS
 62
     3
100
AcDbCircle
 10
190.6433700770205
 20
176.0482833832839
 30
0.0
 40
48.0
100
AcDbArc
 50
235.0348792265
 51
270.0000004148999
  0
LINE
  5
41C
330
1A
100
AcDbEntity
  8
SEIHIN
  6
CONTINUOUS
 62
     3
100
AcDbLine
 10
163.1356421436206
 20
136.712232438384
 30
0.0
 11
152.7129324603205
 21
144.0008406084839
 31
0.0
  0
ARC
  5
438
330
1A
100
AcDbEntity
  8
SEIHIN
  6
CONTINUOUS
 62
     3
100
AcDbCircle
 10
332.0911100912205
 20
124.3328151359839
 30
0.0
 40
24.0
100
AcDbArc
 50
92.16925758969999
 51
124.9651207735
  0
ARC
  5
43A
330
1A
100
AcDbEntity
  8
SEIHIN
  6
CONTINUOUS
 62
     3
100
AcDbCircle
 10
280.4068085077206
 20
176.0482833832839
 30
0.0
 40
48.0
100
AcDbArc
 50
270.0
 51
304.9651207734999
  0
LINE
  5
444
330
1A
100
AcDbEntity
  8
SEIHIN
  6
CONTINUOUS
 62
     3
100
AcDbLine
 10
307.9145364412206
 20
136.712232438384
 30
0.0
 11
320.1374845665487
 21
145.2597486099774
 31
0.0
  0
LINE
  5
44A
330
1A
100
AcDbEntity
  8
SEIHIN
  6
CONTINUOUS
 62
     3
100
AcDbLine
 10
331.1826706641206
 20
148.315616010984
 30
0.0
 11
350.5250892924205
 21
149.048283383284
 31
0.0
  0
LINE
  5
47F
330
1A
100
AcDbEntity
  8
NOKITOI
  6
PHANTOM
 62
     9
 48
3.0
100
AcDbLine
 10
525.9476488749109
 20
168.1965488706839
 30
0.0
 11
518.2545136310109
 21
174.2982837309839
 31
0.0
  0
LINE
  5
480
330
1A
100
AcDbEntity
  8
NOKITOI
  6
PHANTOM
 62
     9
 48
3.0
100
AcDbLine
 10
518.690046349611
 20
175.5482837309839
 30
0.0
 11
527.6252302551108
 21
168.461430141184
 31
0.0
  0
ARC
  5
481
330
1A
100
AcDbEntity
  8
NOKITOI
  6
PHANTOM
 62
     9
 48
3.0
100
AcDbCircle
 10
722.2229668895108
 20
269.766811329984
 30
0.0
 40
228.6
100
AcDbArc
 50
204.6845833638999
 51
206.7288798443999
  0
LINE
  5
48D
330
1A
100
AcDbEntity
  8
SEIHIN
  6
CONTINUOUS
 62
     3
100
AcDbLine
 10
532.8215919049109
 20
132.2143374455839
 30
0.0
 11
524.930676226611
 21
163.778000159084
 31
0.0
  0
LINE
  5
494
330
1A
100
AcDbEntity
  8
NOKITOI
  6
PHANTOM
 62
     9
 48
3.0
100
AcDbLine
 10
526.2379915007109
 20
166.9769066495839
 30
0.0
 11
517.5493575541109
 21
165.605017079084
 31
0.0
  0
LINE
  5
495
330
1A
100
AcDbEntity
  8
NOKITOI
  6
PHANTOM
 62
     9
 48
3.0
100
AcDbLine
 10
518.050066446111
 20
166.949562171384
 30
0.0
 11
525.9476488749109
 21
168.1965488706839
 31
0.0
  0
LINE
  5
496
330
1A
100
AcDbEntity
  8
SEIHIN
  6
CONTINUOUS
 62
     3
100
AcDbLine
 10
524.3676236898108
 20
164.1506138292839
 30
0.0
 11
517.939263987811
 21
163.135609665784
 31
0.0
  0
LINE
  5
497
330
1A
100
AcDbEntity
  8
SEIHIN
  6
CONTINUOUS
 62
     3
100
AcDbLine
 10
526.2379915007109
 20
166.9769066495839
 30
0.0
 11
517.5493577167997
 21
165.6050171047717
 31
0.0
  0
LINE
  5
498
330
1A
100
AcDbEntity
  8
SEIHIN
  6
CONTINUOUS
 62
     3
100
AcDbLine
 10
525.1157708141108
 20
165.281130957384
 30
0.0
 11
517.7833014143109
 21
164.123372631084
 31
0.0
  0
ARC
  5
49A
330
1A
100
AcDbEntity
  8
NOKITOI
  6
PHANTOM
 62
     9
 48
3.0
100
AcDbCircle
 10
517.4713762674109
 20
166.098898561784
 30
0.0
 40
0.5
100
AcDbArc
 50
206.8535797088
 51
278.9726266149
  0
LINE
  5
49B
330
1A
100
AcDbEntity
  8
SEIHIN
  6
CONTINUOUS
 62
     3
100
AcDbLine
 10
517.0254734717669
 20
165.8726894987995
 30
0.0
 11
517.0252943706109
 21
165.8730425426839
 31
0.0
  0
ARC
  5
49D
330
1A
100
AcDbEntity
  8
SEIHIN
  6
CONTINUOUS
 62
     3
100
AcDbCircle
 10
517.4713762674109
 20
166.098898561784
 30
0.0
 40
3.0
100
AcDbArc
 50
206.8535797088
 51
278.9726266149
  0
ARC
  5
49F
330
1A
100
AcDbEntity
  8
SEIHIN
  6
CONTINUOUS
 62
     3
100
AcDbCircle
 10
517.4713762674109
 20
166.098898561784
 30
0.0
 40
2.0
100
AcDbArc
 50
206.8535797088
 51
278.9726266149
  0
ARC
  5
4A0
330
1A
100
AcDbEntity
  8
SEIHIN
  6
CONTINUOUS
 62
     3
100
AcDbCircle
 10
517.7960845991107
 20
166.1501682983839
 30
0.0
 40
0.5
100
AcDbArc
 50
278.9726679149
 51
344.1940443947
  0
LINE
  5
4A8
330
1A
100
AcDbEntity
  8
NOKITOI
  6
PHANTOM
 62
     9
 48
3.0
100
AcDbLine
 10
529.9506064179109
 20
154.0060434577839
 30
0.0
 11
526.801044037511
 21
166.604292979484
 31
0.0
  0
ARC
  5
4A9
330
1A
100
AcDbEntity
  8
NOKITOI
  6
PHANTOM
 62
     9
 48
3.0
100
AcDbCircle
 10
526.315972787411
 20
166.4830251669839
 30
0.0
 40
0.5
100
AcDbArc
 50
14.036243468
 51
98.97262661489998
  0
ARC
  5
4AA
330
1A
100
AcDbEntity
  8
NOKITOI
  6
PHANTOM
 62
     9
 48
3.0
100
AcDbCircle
 10
532.8610339184108
 20
154.7336503328839
 30
0.0
 40
3.0
100
AcDbArc
 50
194.0362434679
 51
267.2057870799
  0
LINE
  5
4AB
330
1A
100
AcDbEntity
  8
NOKITOI
  6
PHANTOM
 62
     9
 48
3.0
100
AcDbLine
 10
527.6252302551108
 20
168.461430141184
 30
0.0
 11
531.1596158703109
 21
154.323887680084
 31
0.0
  0
ARC
  5
4AC
330
1A
100
AcDbEntity
  8
NOKITOI
  6
PHANTOM
 62
     9
 48
3.0
100
AcDbCircle
 10
532.8088581206109
 20
154.736198242684
 30
0.0
 40
1.7
100
AcDbArc
 50
194.0362434679
 51
267.2027850585
  0
LINE
  5
4AD
330
1A
100
AcDbEntity
  8
SEIHIN
  6
CONTINUOUS
 62
     3
100
AcDbLine
 10
526.2379915007109
 20
166.9769066495839
 30
0.0
 11
526.690046349611
 21
167.0482837309839
 31
0.0
  0
LINE
  5
4AE
330
1A
100
AcDbEntity
  8
SEIHIN
  6
CONTINUOUS
 62
     3
100
AcDbLine
 10
526.690046349611
 20
167.0482837309839
 30
0.0
 11
526.801044037511
 21
166.604292979484
 31
0.0
  0
ARC
  5
4B1
330
1A
100
AcDbEntity
  8
SEIHIN
  6
CONTINUOUS
 62
     3
100
AcDbCircle
 10
524.4456049765108
 20
163.656732346584
 30
0.0
 40
0.5
100
AcDbArc
 50
14.0362434679
 51
98.97262661489998
  0
ARC
  5
4B2
330
1A
100
AcDbEntity
  8
SEIHIN
  6
CONTINUOUS
 62
     3
100
AcDbCircle
 10
532.8610339184108
 20
154.7336503328839
 30
0.0
 40
5.5
100
AcDbArc
 50
194.0362434679
 51
267.2057870799
  0
ARC
  5
4B3
330
1A
100
AcDbEntity
  8
SEIHIN
  6
CONTINUOUS
 62
     3
100
AcDbCircle
 10
526.315972787411
 20
166.4830251669839
 30
0.0
 40
0.5
100
AcDbArc
 50
14.036243468
 51
98.97262661489998
  0
ARC
  5
4B4
330
1A
100
AcDbEntity
  8
SEIHIN
  6
CONTINUOUS
 62
     3
100
AcDbCircle
 10
532.8610339184108
 20
154.7336503328839
 30
0.0
 40
4.5
100
AcDbArc
 50
194.0362434679
 51
267.2057870799
  0
LINE
  5
4B5
330
1A
100
AcDbEntity
  8
SEIHIN
  6
CONTINUOUS
 62
     3
100
AcDbLine
 10
528.495392667711
 20
153.642240020184
 30
0.0
 11
525.678823350911
 21
164.9085172872839
 31
0.0
  0
ARC
  5
4B6
330
1A
100
AcDbEntity
  8
SEIHIN
  6
CONTINUOUS
 62
     3
100
AcDbCircle
 10
525.1937521009108
 20
164.787249474684
 30
0.0
 40
0.5
100
AcDbArc
 50
14.0362434679
 51
98.97262661489998
  0
LINE
  5
4B7
330
1A
100
AcDbEntity
  8
SEIHIN
  6
CONTINUOUS
 62
     3
100
AcDbLine
 10
529.9506064179109
 20
154.0060434577839
 30
0.0
 11
526.801044037511
 21
166.604292979484
 31
0.0
  0
ARC
  5
4B8
330
1A
100
AcDbEntity
  8
SEIHIN
  6
CONTINUOUS
 62
     3
100
AcDbCircle
 10
532.8610339184108
 20
154.7336503328839
 30
0.0
 40
3.0
100
AcDbArc
 50
194.0362434679
 51
267.2057870799
  0
LINE
  5
4CA
330
1A
100
AcDbEntity
  8
NOKITOI
  6
PHANTOM
 62
     9
 48
3.0
100
AcDbLine
 10
513.942317147111
 20
175.5482837309839
 30
0.0
 11
518.690046349611
 21
175.5482837309839
 31
0.0
  0
LINE
  5
4CB
330
1A
100
AcDbEntity
  8
NOKITOI
  6
PHANTOM
 62
     9
 48
3.0
100
AcDbLine
 10
518.2545136310109
 20
174.2982837309839
 30
0.0
 11
514.5123021703109
 21
174.298283731084
 31
0.0
  0
ARC
  5
4CD
330
1A
100
AcDbEntity
  8
SEIHIN
  6
CONTINUOUS
 62
     3
100
AcDbCircle
 10
532.6752233445108
 20
176.092420756184
 30
0.0
 40
2.0
100
AcDbArc
 50
14.0362214041
 51
98.97262661489998
  0
ARC
  5
4CE
330
1A
100
AcDbEntity
  8
SEIHIN
  6
CONTINUOUS
 62
     3
100
AcDbCircle
 10
522.7658933516108
 20
174.527789704684
 30
0.0
 40
2.0
100
AcDbArc
 50
98.97262661489998
 51
164.1940443945999
  0
LINE
  5
4CF
330
1A
100
AcDbEntity
  8
SEIHIN
  6
CONTINUOUS
 62
     3
100
AcDbLine
 10
532.3632981976109
 20
178.0679466868839
 30
0.0
 11
522.4539682047109
 21
176.503315635384
 31
0.0
  0
LINE
  5
4D1
330
1A
100
AcDbEntity
  8
SEIHIN
  6
CONTINUOUS
 62
     3
100
AcDbLine
 10
250.5250892924205
 20
356.6518105843923
 30
0.0
 11
318.5250892924206
 21
356.6518105843923
 31
0.0
  0
LINE
  5
4D2
330
1A
100
AcDbEntity
  8
SEIHIN
  6
CONTINUOUS
 62
     3
100
AcDbLine
 10
319.0250892924205
 20
260.2588077976839
 30
0.0
 11
152.0250892924206
 21
260.2588077976839
 31
0.0
  0
LINE
  5
4D3
330
1A
100
AcDbEntity
  8
SEIHIN
  6
CONTINUOUS
 62
     3
100
AcDbLine
 10
120.5250892924206
 20
248.668283730984
 30
0.0
 11
350.5250892924205
 21
248.668283730984
 31
0.0
  0
LINE
  5
4D4
330
1A
100
AcDbEntity
  8
SEIHIN
  6
CONTINUOUS
 62
     3
100
AcDbLine
 10
350.5250892924205
 20
397.1518105843923
 30
0.0
 11
120.5250892924206
 21
397.1518105843923
 31
0.0
  0
LINE
  5
4D5
330
1A
100
AcDbEntity
  8
SEIHIN
  6
CONTINUOUS
 62
     3
100
AcDbLine
 10
350.5250892924205
 20
387.6518105843923
 30
0.0
 11
120.5250892924206
 21
387.6518105843923
 31
0.0
  0
LINE
  5
4D6
330
1A
100
AcDbEntity
  8
SEIHIN
  6
CONTINUOUS
 62
     3
100
AcDbLine
 10
320.5250892924206
 20
504.6065611152922
 30
0.0
 11
150.5250892924206
 21
504.6065611152922
 31
0.0
  0
LINE
  5
4D8
330
1A
100
AcDbEntity
  8
SEIHIN
  6
CONTINUOUS
 62
     3
100
AcDbLine
 10
300.5250892924205
 20
500.4236319376923
 30
0.0
 11
236.5250892924206
 21
500.4236319376923
 31
0.0
  0
LINE
  5
4D9
330
1A
100
AcDbEntity
  8
SEIHIN
  6
CONTINUOUS
 62
     3
100
AcDbLine
 10
150.5250892924206
 20
363.6544882889923
 30
0.0
 11
320.5250892924206
 21
363.6544882889923
 31
0.0
  0
LINE
  5
4DA
330
1A
100
AcDbEntity
  8
SEIHIN
  6
CONTINUOUS
 62
     3
100
AcDbLine
 10
319.0250892924205
 20
353.9518105843923
 30
0.0
 11
152.0250892924206
 21
353.9518105843923
 31
0.0
  0
LINE
  5
4DB
330
1A
100
AcDbEntity
  8
CENTER_L
  6
CENTER
 62
     1
 48
5.0
100
AcDbLine
 10
360.5250892924205
 20
451.9254380264923
 30
0.0
 11
313.5250892924206
 21
451.9254380264923
 31
0.0
  0
LINE
  5
4DC
330
1A
100
AcDbEntity
  8
SEIHIN
  6
CONTINUOUS
 62
     3
100
AcDbLine
 10
320.5250892924206
 20
353.9518105843923
 30
0.0
 11
150.5250892924206
 21
353.9518105843923
 31
0.0
  0
LINE
  5
4DD
330
1A
100
AcDbEntity
  8
CENTER_L
  6
CENTER
 62
     1
 48
5.0
100
AcDbLine
 10
285.5250892924205
 20
455.9254380264923
 30
0.0
 11
185.5250892924205
 21
455.9254380264923
 31
0.0
  0
LINE
  5
4DF
330
1A
100
AcDbEntity
  8
CENTER_L
  6
CENTER
 62
     1
 48
5.0
100
AcDbLine
 10
235.5250892924205
 20
347.9122470267923
 30
0.0
 11
235.5250892924205
 21
511.6065611152922
 31
0.0
  0
LINE
  5
4E2
330
1A
100
AcDbEntity
  8
SEIHIN
  6
CONTINUOUS
 62
     3
100
AcDbLine
 10
120.5250892924206
 20
354.9518105843923
 30
0.0
 11
120.5250892924206
 21
503.6065611152922
 31
0.0
  0
LINE
  5
4E6
330
1A
100
AcDbEntity
  8
SEIHIN
  6
CONTINUOUS
 62
     3
100
AcDbLine
 10
120.5250892924206
 20
370.1969761294924
 30
0.0
 11
150.5250892924206
 21
370.1969761294924
 31
0.0
  0
LINE
  5
4E7
330
1A
100
AcDbEntity
  8
SEIHIN
  6
CONTINUOUS
 62
     3
100
AcDbLine
 10
150.5250892924206
 20
353.9518105843923
 30
0.0
 11
120.5250892924206
 21
354.9518105843923
 31
0.0
  0
LINE
  5
4E8
330
1A
100
AcDbEntity
  8
SEIHIN
  6
CONTINUOUS
 62
     3
100
AcDbLine
 10
150.5250892924206
 20
264.224811434484
 30
0.0
 11
120.5250892924206
 21
264.224811434484
 31
0.0
  0
ARC
  5
4F4
330
1A
100
AcDbEntity
  8
SEIHIN
  6
CONTINUOUS
 62
     3
100
AcDbCircle
 10
152.0250892924206
 20
261.7588077976839
 30
0.0
 40
1.5
100
AcDbArc
 50
180.0
 51
270.0
  0
LINE
  5
4F5
330
1A
100
AcDbEntity
  8
SEIHIN
  6
CONTINUOUS
 62
     3
100
AcDbLine
 10
150.5250892924206
 20
261.7588077976839
 30
0.0
 11
150.5250892924206
 21
264.224811434484
 31
0.0
  0
LINE
  5
4FB
330
1A
100
AcDbEntity
  8
SEIHIN
  6
CONTINUOUS
 62
     3
100
AcDbLine
 10
152.5250892924206
 20
356.6518105843923
 30
0.0
 11
220.5250892924206
 21
356.6518105843923
 31
0.0
  0
LINE
  5
4FC
330
1A
100
AcDbEntity
  8
SEIHIN
  6
CONTINUOUS
 62
     3
100
AcDbLine
 10
150.5250892924206
 20
370.1969761294924
 30
0.0
 11
150.5250892924206
 21
358.6518105843923
 31
0.0
  0
ARC
  5
4FD
330
1A
100
AcDbEntity
  8
SEIHIN
  6
CONTINUOUS
 62
     3
100
AcDbCircle
 10
152.5250892924206
 20
358.6518105843923
 30
0.0
 40
2.0
100
AcDbArc
 50
180.0
 51
270.0
  0
LINE
  5
503
330
1A
100
AcDbEntity
  8
SEIHIN
  6
CONTINUOUS
 62
     3
100
AcDbLine
 10
222.5250892924206
 20
356.6518105843923
 30
0.0
 11
248.5250892924205
 21
356.6518105843923
 31
0.0
  0
LINE
  5
504
330
1A
100
AcDbEntity
  8
SEIHIN
  6
CONTINUOUS
 62
     3
100
AcDbLine
 10
220.5250892924206
 20
363.6544882889923
 30
0.0
 11
220.5250892924206
 21
356.6518105843923
 31
0.0
  0
LINE
  5
506
330
1A
100
AcDbEntity
  8
SEIHIN
  6
CONTINUOUS
 62
     3
100
AcDbLine
 10
222.5250892924206
 20
363.6544882889923
 30
0.0
 11
222.5250892924206
 21
356.6518105843923
 31
0.0
  0
LINE
  5
507
330
1A
100
AcDbEntity
  8
SEIHIN
  6
CONTINUOUS
 62
     3
100
AcDbLine
 10
250.5250892924205
 20
363.6544882889923
 30
0.0
 11
250.5250892924205
 21
356.6518105843923
 31
0.0
  0
LINE
  5
509
330
1A
100
AcDbEntity
  8
SEIHIN
  6
CONTINUOUS
 62
     3
100
AcDbLine
 10
248.5250892924205
 20
356.6518105843923
 30
0.0
 11
248.5250892924205
 21
363.6544882889923
 31
0.0
  0
LINE
  5
50A
330
1A
100
AcDbEntity
  8
SEIHIN
  6
CONTINUOUS
 62
     3
100
AcDbLine
 10
120.5250892924206
 20
503.6065611152922
 30
0.0
 11
150.5250892924206
 21
504.6065611152922
 31
0.0
  0
LINE
  5
50B
330
1A
100
AcDbEntity
  8
SEIHIN
  6
CONTINUOUS
 62
     3
100
AcDbLine
 10
120.5250892924206
 20
492.3518105843923
 30
0.0
 11
150.5250892924206
 21
492.3518105843923
 31
0.0
  0
LINE
  5
50C
330
1A
100
AcDbEntity
  8
SEIHIN
  6
CONTINUOUS
 62
     3
100
AcDbLine
 10
120.5250892924206
 20
492.3518105843923
 30
0.0
 11
150.5250892924206
 21
492.3518105843923
 31
0.0
  0
LINE
  5
513
330
1A
100
AcDbEntity
  8
SEIHIN
  6
CONTINUOUS
 62
     3
100
AcDbLine
 10
134.5250892924205
 20
499.9518105843923
 30
0.0
 11
136.5250892924205
 21
499.9518105843923
 31
0.0
  0
LINE
  5
514
330
1A
100
AcDbEntity
  8
SEIHIN
  6
CONTINUOUS
 62
     3
100
AcDbLine
 10
134.5250892924205
 20
499.9518105843923
 30
0.0
 11
134.5250892924205
 21
492.3518105843923
 31
0.0
  0
LINE
  5
515
330
1A
100
AcDbEntity
  8
SEIHIN
  6
CONTINUOUS
 62
     3
100
AcDbLine
 10
136.5250892924205
 20
499.9518105843923
 30
0.0
 11
136.5250892924205
 21
492.3518105843923
 31
0.0
  0
CIRCLE
  5
516
330
1A
100
AcDbEntity
  8
SEIHIN
  6
CONTINUOUS
 62
     3
100
AcDbCircle
 10
235.5250892924205
 20
455.9254380264923
 30
0.0
 40
28.5
  0
LINE
  5
517
330
1A
100
AcDbEntity
  8
SEIHIN
  6
CONTINUOUS
 62
     3
100
AcDbLine
 10
150.5250892924206
 20
400.9518105843922
 30
0.0
 11
150.5250892924206
 21
504.6065611152922
 31
0.0
  0
LINE
  5
518
330
1A
100
AcDbEntity
  8
SEIHIN
  6
CONTINUOUS
 62
     3
100
AcDbLine
 10
170.5250892924206
 20
500.4236319376923
 30
0.0
 11
170.5250892924206
 21
405.8248696552923
 31
0.0
  0
LINE
  5
519
330
1A
100
AcDbEntity
  8
SEIHIN
  6
CONTINUOUS
 62
     3
100
AcDbLine
 10
169.0459775907183
 20
404.0754130981772
 30
0.0
 11
150.5250892924206
 21
400.9518105843922
 31
0.0
  0
LINE
  5
51C
330
1A
100
AcDbEntity
  8
SEIHIN
  6
CONTINUOUS
 62
     3
100
AcDbLine
 10
233.5250892924205
 20
387.6518105843923
 30
0.0
 11
237.5250892924205
 21
387.6518105843923
 31
0.0
  0
LINE
  5
51D
330
1A
100
AcDbEntity
  8
SEIHIN
  6
CONTINUOUS
 62
     3
100
AcDbLine
 10
234.5250892924206
 20
391.9067294308923
 30
0.0
 11
236.5250892924206
 21
391.9067294308923
 31
0.0
  0
LINE
  5
51E
330
1A
100
AcDbEntity
  8
SEIHIN
  6
CONTINUOUS
 62
     3
100
AcDbLine
 10
234.5250892924206
 20
397.1518105843923
 30
0.0
 11
236.5250892924206
 21
397.1518105843923
 31
0.0
  0
LINE
  5
51F
330
1A
100
AcDbEntity
  8
SEIHIN
  6
CONTINUOUS
 62
     3
100
AcDbLine
 10
234.5250892924206
 20
400.9518105843922
 30
0.0
 11
236.5250892924206
 21
400.9518105843922
 31
0.0
  0
LINE
  5
520
330
1A
100
AcDbEntity
  8
SEIHIN
  6
CONTINUOUS
 62
     3
100
AcDbLine
 10
234.5250892924206
 20
404.3248696552923
 30
0.0
 11
236.5250892924206
 21
404.3248696552923
 31
0.0
  0
LINE
  5
521
330
1A
100
AcDbEntity
  8
SEIHIN
  6
CONTINUOUS
 62
     3
100
AcDbLine
 10
234.5250892924206
 20
405.4595746483924
 30
0.0
 11
236.5250892924206
 21
405.4595746483924
 31
0.0
  0
LINE
  5
522
330
1A
100
AcDbEntity
  8
SEIHIN
  6
CONTINUOUS
 62
     3
100
AcDbLine
 10
234.5250892924206
 20
414.4153031292923
 30
0.0
 11
236.5250892924206
 21
414.4153031292923
 31
0.0
  0
ARC
  5
523
330
1A
100
AcDbEntity
  8
SEIHIN
  6
CONTINUOUS
 62
     3
100
AcDbCircle
 10
235.5250892924205
 20
423.9254380264923
 30
0.0
 40
1.0
100
AcDbArc
 50
359.9999800808999
 51
180.0000147253
  0
LINE
  5
524
330
1A
100
AcDbEntity
  8
SEIHIN
  6
CONTINUOUS
 62
     3
100
AcDbLine
 10
234.5250892924206
 20
388.6518105843923
 30
0.0
 11
234.5250892924206
 21
423.9254377694924
 31
0.0
  0
ARC
  5
525
330
1A
100
AcDbEntity
  8
SEIHIN
  6
CONTINUOUS
 62
     3
100
AcDbCircle
 10
233.5250892924205
 20
388.6518105843923
 30
0.0
 40
1.0
100
AcDbArc
 50
270.0
 51
0.0
  0
LINE
  5
52A
330
1A
100
AcDbEntity
  8
SEIHIN
  6
CONTINUOUS
 62
     3
100
AcDbLine
 10
236.5250892924206
 20
423.9254376787924
 30
0.0
 11
236.5250892924206
 21
388.6518105843923
 31
0.0
  0
ARC
  5
52B
330
1A
100
AcDbEntity
  8
SEIHIN
  6
CONTINUOUS
 62
     3
100
AcDbCircle
 10
237.5250892924205
 20
388.6518105843923
 30
0.0
 40
1.0
100
AcDbArc
 50
180.0
 51
270.0
  0
LINE
  5
530
330
1A
100
AcDbEntity
  8
SEIHIN
  6
CONTINUOUS
 62
     3
100
AcDbLine
 10
150.5250892924206
 20
499.0304974736923
 30
0.0
 11
170.5250892924206
 21
500.4236319376923
 31
0.0
  0
LINE
  5
531
330
1A
100
AcDbEntity
  8
SEIHIN
  6
CONTINUOUS
 62
     3
100
AcDbLine
 10
233.5250892924205
 20
504.6065611152922
 30
0.0
 11
237.5250892924205
 21
504.6065611152922
 31
0.0
  0
LINE
  5
532
330
1A
100
AcDbEntity
  8
SEIHIN
  6
CONTINUOUS
 62
     3
100
AcDbLine
 10
234.5250892924206
 20
488.4868231440923
 30
0.0
 11
236.5250892924206
 21
488.4868231440923
 31
0.0
  0
LINE
  5
533
330
1A
100
AcDbEntity
  8
SEIHIN
  6
CONTINUOUS
 62
     3
100
AcDbLine
 10
234.5250892924206
 20
490.9294729099923
 30
0.0
 11
236.5250892924206
 21
490.9294729099923
 31
0.0
  0
ARC
  5
536
330
1A
100
AcDbEntity
  8
SEIHIN
  6
CONTINUOUS
 62
     3
100
AcDbCircle
 10
235.5250892924205
 20
487.9254392724923
 30
0.0
 40
1.0
100
AcDbArc
 50
179.9999897699
 51
0.0000063705
  0
LINE
  5
543
330
1A
100
AcDbEntity
  8
SEIHIN
  6
CONTINUOUS
 62
     3
100
AcDbLine
 10
350.5250892924205
 20
354.9518105843923
 30
0.0
 11
350.5250892924205
 21
503.6065611152922
 31
0.0
  0
LINE
  5
544
330
1A
100
AcDbEntity
  8
SEIHIN
  6
CONTINUOUS
 62
     3
100
AcDbLine
 10
320.5250892924206
 20
264.224811434484
 30
0.0
 11
350.5250892924205
 21
264.224811434484
 31
0.0
  0
ARC
  5
549
330
1A
100
AcDbEntity
  8
SEIHIN
  6
CONTINUOUS
 62
     3
100
AcDbCircle
 10
319.0250892924205
 20
261.7588077976839
 30
0.0
 40
1.5
100
AcDbArc
 50
270.0
 51
0.0
  0
LINE
  5
54A
330
1A
100
AcDbEntity
  8
SEIHIN
  6
CONTINUOUS
 62
     3
100
AcDbLine
 10
320.5250892924206
 20
261.7588077976839
 30
0.0
 11
320.5250892924206
 21
264.224811434484
 31
0.0
  0
LINE
  5
553
330
1A
100
AcDbEntity
  8
SEIHIN
  6
CONTINUOUS
 62
     3
100
AcDbLine
 10
320.5250892924206
 20
370.1969761294924
 30
0.0
 11
350.5250892924205
 21
370.1969761294924
 31
0.0
  0
LINE
  5
554
330
1A
100
AcDbEntity
  8
SEIHIN
  6
CONTINUOUS
 62
     3
100
AcDbLine
 10
320.5250892924206
 20
353.9518105843923
 30
0.0
 11
350.5250892924205
 21
354.9518105843923
 31
0.0
  0
LINE
  5
556
330
1A
100
AcDbEntity
  8
SEIHIN
  6
CONTINUOUS
 62
     3
100
AcDbLine
 10
320.5250892924206
 20
358.6518105843923
 30
0.0
 11
320.5250892924206
 21
370.1969761294924
 31
0.0
  0
ARC
  5
557
330
1A
100
AcDbEntity
  8
SEIHIN
  6
CONTINUOUS
 62
     3
100
AcDbCircle
 10
318.5250892924206
 20
358.6518105843923
 30
0.0
 40
2.0
100
AcDbArc
 50
270.0
 51
0.0
  0
ARC
  5
563
330
1A
100
AcDbEntity
  8
NOKITOI
  6
PHANTOM
 62
     9
 48
3.0
100
AcDbCircle
 10
505.4623463577108
 20
251.418283730984
 30
0.0
 40
1.0
100
AcDbArc
 50
340.0168934781
 51
90.0
  0
LINE
  5
564
330
1A
100
AcDbEntity
  8
NOKITOI
  6
PHANTOM
 62
     9
 48
3.0
100
AcDbLine
 10
493.990046349611
 20
257.6482837309839
 30
0.0
 11
511.471142085911
 21
256.713465777184
 31
0.0
  0
LINE
  5
565
330
1A
100
AcDbEntity
  8
NOKITOI
  6
PHANTOM
 62
     9
 48
3.0
100
AcDbLine
 10
505.1339996338108
 20
247.5891552625839
 30
0.0
 11
506.4021397812109
 21
251.076540667884
 31
0.0
  0
ARC
  5
566
330
1A
100
AcDbEntity
  8
NOKITOI
  6
PHANTOM
 62
     9
 48
3.0
100
AcDbCircle
 10
505.470046349611
 20
233.9182837309839
 30
0.0
 40
1.75
100
AcDbArc
 50
294.7524724261
 51
90.0
  0
ARC
  5
567
330
1A
100
AcDbEntity
  8
NOKITOI
  6
PHANTOM
 62
     9
 48
3.0
100
AcDbCircle
 10
520.186961501611
 20
193.521786182784
 30
0.0
 40
41.25
100
AcDbArc
 50
109.8166130064999
 51
123.4017199424999
  0
LINE
  5
568
330
1A
100
AcDbEntity
  8
NOKITOI
  6
PHANTOM
 62
     9
 48
3.0
100
AcDbLine
 10
507.5768815606108
 20
250.649361839084
 30
0.0
 11
505.4623463577108
 21
253.668283730984
 31
0.0
  0
ARC
  5
569
330
1A
100
AcDbEntity
  8
NOKITOI
  6
PHANTOM
 62
     9
 48
3.0
100
AcDbCircle
 10
520.0965335203108
 20
193.4884776606839
 30
0.0
 40
40.0
100
AcDbArc
 50
110.1459171419
 51
124.0043462568999
  0
LINE
  5
56A
330
1A
100
AcDbEntity
  8
NOKITOI
  6
PHANTOM
 62
     9
 48
3.0
100
AcDbLine
 10
509.8022745603109
 20
246.918283730984
 30
0.0
 11
505.6038963455109
 21
246.918283730984
 31
0.0
  0
ARC
  5
56B
330
1A
100
AcDbEntity
  8
NOKITOI
  6
PHANTOM
 62
     9
 48
3.0
100
AcDbCircle
 10
505.470046349611
 20
233.9182837309839
 30
0.0
 40
3.0
100
AcDbArc
 50
286.4592496283
 51
90.0
  0
LINE
  5
56C
330
1A
100
AcDbEntity
  8
NOKITOI
  6
PHANTOM
 62
     9
 48
3.0
100
AcDbLine
 10
505.5671006808108
 20
255.6271895725839
 30
0.0
 11
510.8022095715109
 21
255.347237225484
 31
0.0
  0
ARC
  5
56F
330
1A
100
AcDbEntity
  8
NOKITOI
  6
PHANTOM
 62
     9
 48
3.0
100
AcDbCircle
 10
502.8037644199109
 20
244.6682837309839
 30
0.0
 40
7.75
100
AcDbArc
 50
90.0
 51
270.0
  0
LINE
  5
572
330
1A
100
AcDbEntity
  8
NOKITOI
  6
PHANTOM
 62
     9
 48
3.0
100
AcDbLine
 10
502.8037644199109
 20
235.6682837309839
 30
0.0
 11
505.470046349611
 21
235.6682837309839
 31
0.0
  0
ARC
  5
573
330
1A
100
AcDbEntity
  8
NOKITOI
  6
PHANTOM
 62
     9
 48
3.0
100
AcDbCircle
 10
502.8037644199109
 20
244.6682837309839
 30
0.0
 40
9.0
100
AcDbArc
 50
217.6723592547
 51
270.0
  0
LINE
  5
574
330
1A
100
AcDbEntity
  8
NOKITOI
  6
PHANTOM
 62
     9
 48
3.0
100
AcDbLine
 10
502.8037644199109
 20
236.9182837309839
 30
0.0
 11
505.470046349611
 21
236.9182837309839
 31
0.0
  0
ARC
  5
575
330
1A
100
AcDbEntity
  8
NOKITOI
  6
PHANTOM
 62
     9
 48
3.0
100
AcDbCircle
 10
722.2229668895108
 20
269.766811329984
 30
0.0
 40
228.6
100
AcDbArc
 50
187.6923095857
 51
190.5380321243999
  0
LINE
  5
578
330
1A
100
AcDbEntity
  8
NOKITOI
  6
PHANTOM
 62
     9
 48
3.0
100
AcDbLine
 10
492.8099002445109
 20
258.5228575911839
 30
0.0
 11
488.0900463496109
 21
256.368383107384
 31
0.0
  0
LINE
  5
579
330
1A
100
AcDbEntity
  8
NOKITOI
  6
PHANTOM
 62
     9
 48
3.0
100
AcDbLine
 10
492.796838087811
 20
253.529464776184
 30
0.0
 11
488.0900463496109
 21
252.2682837309839
 31
0.0
  0
LINE
  5
57A
330
1A
100
AcDbEntity
  8
NOKITOI
  6
PHANTOM
 62
     9
 48
3.0
100
AcDbLine
 10
492.710425390811
 20
254.800405789384
 30
0.0
 11
488.0900463496109
 21
253.5623789564839
 31
0.0
  0
LINE
  5
57B
330
1A
100
AcDbEntity
  8
NOKITOI
  6
PHANTOM
 62
     9
 48
3.0
100
AcDbLine
 10
486.982419428511
 20
257.4017434422839
 30
0.0
 11
494.132367248111
 21
260.6654843293839
 31
0.0
  0
ARC
  5
57C
330
1A
100
AcDbEntity
  8
SEIHIN
  6
CONTINUOUS
 62
     3
100
AcDbCircle
 10
490.8283450232109
 20
247.122187876184
 30
0.0
 40
1.0
100
AcDbArc
 50
5.5892534145
 51
102.3176619503
  0
LINE
  5
57D
330
1A
100
AcDbEntity
  8
SEIHIN
  6
CONTINUOUS
 62
     3
100
AcDbLine
 10
486.7780714110109
 20
260.4927110998839
 30
0.0
 11
495.6263826366109
 21
264.012372676284
 31
0.0
  0
LINE
  5
57E
330
1A
100
AcDbEntity
  8
SEIHIN
  6
CONTINUOUS
 62
     3
100
AcDbLine
 10
486.820436407511
 20
257.8190388873839
 30
0.0
 11
495.1088635216109
 21
261.115991006084
 31
0.0
  0
ARC
  5
57F
330
1A
100
AcDbEntity
  8
SEIHIN
  6
CONTINUOUS
 62
     3
100
AcDbCircle
 10
490.8283450232109
 20
247.122187876184
 30
0.0
 40
2.5
100
AcDbArc
 50
5.5892534145
 51
102.3176619503
  0
LINE
  5
580
330
1A
100
AcDbEntity
  8
NOKITOI
  6
PHANTOM
 62
     9
 48
3.0
100
AcDbLine
 10
488.0900463496109
 20
256.368383107384
 30
0.0
 11
488.0900463496109
 21
253.5623789564839
 31
0.0
  0
LINE
  5
581
330
1A
100
AcDbEntity
  8
NOKITOI
  6
PHANTOM
 62
     9
 48
3.0
100
AcDbLine
 10
486.6900463496109
 20
249.9682837309839
 30
0.0
 11
486.6900463496109
 21
256.9468906511839
 31
0.0
  0
ARC
  5
582
330
1A
100
AcDbEntity
  8
NOKITOI
  6
PHANTOM
 62
     9
 48
3.0
100
AcDbCircle
 10
487.3900463496109
 20
249.9682837309839
 30
0.0
 40
0.7
100
AcDbArc
 50
180.0
 51
270.0
  0
LINE
  5
583
330
1A
100
AcDbEntity
  8
NOKITOI
  6
PHANTOM
 62
     9
 48
3.0
100
AcDbLine
 10
488.0900463496109
 20
252.2682837309839
 30
0.0
 11
488.0900463496109
 21
249.9682837309839
 31
0.0
  0
ARC
  5
584
330
1A
100
AcDbEntity
  8
NOKITOI
  6
PHANTOM
 62
     9
 48
3.0
100
AcDbCircle
 10
487.3900463496109
 20
249.9682837309839
 30
0.0
 40
0.7
100
AcDbArc
 50
270.0
 51
0.0
  0
ARC
  5
585
330
1A
100
AcDbEntity
  8
NOKITOI
  6
PHANTOM
 62
     9
 48
3.0
100
AcDbCircle
 10
487.190046349611
 20
256.9468906511839
 30
0.0
 40
0.5
100
AcDbArc
 50
114.5353031557999
 51
180.0
  0
ARC
  5
588
330
1A
100
AcDbEntity
  8
SEIHIN
  6
CONTINUOUS
 62
     3
100
AcDbCircle
 10
486.8900463496109
 20
249.537628255784
 30
0.0
 40
0.7
100
AcDbArc
 50
180.0
 51
282.3176619502999
  0
LINE
  5
589
330
1A
100
AcDbEntity
  8
SEIHIN
  6
CONTINUOUS
 62
     3
100
AcDbLine
 10
487.0393784412109
 20
248.853742354184
 30
0.0
 11
490.295016124611
 21
249.564637524784
 31
0.0
  0
ARC
  5
58A
330
1A
100
AcDbEntity
  8
SEIHIN
  6
CONTINUOUS
 62
     3
100
AcDbCircle
 10
485.2862595298109
 20
247.447371917784
 30
0.0
 40
0.5
100
AcDbArc
 50
177.1333686114999
 51
282.3176619502999
  0
LINE
  5
58B
330
1A
100
AcDbEntity
  8
SEIHIN
  6
CONTINUOUS
 62
     3
100
AcDbLine
 10
485.392582644611
 20
259.568437491984
 30
0.0
 11
484.7868852034109
 21
247.472377560384
 31
0.0
  0
ARC
  5
58C
330
1A
100
AcDbEntity
  8
SEIHIN
  6
CONTINUOUS
 62
     3
100
AcDbCircle
 10
488.2565111794108
 20
256.7759630788839
 30
0.0
 40
4.0
100
AcDbArc
 50
111.6915634179
 51
177.1333686114999
  0
LINE
  5
58D
330
1A
100
AcDbEntity
  8
SEIHIN
  6
CONTINUOUS
 62
     3
100
AcDbLine
 10
484.2615165684109
 20
256.9760082197839
 30
0.0
 11
483.7096643898109
 21
245.9552632546839
 31
0.0
  0
ARC
  5
58E
330
1A
100
AcDbEntity
  8
SEIHIN
  6
CONTINUOUS
 62
     3
100
AcDbCircle
 10
484.0092889856109
 20
245.9402598690839
 30
0.0
 40
0.3
100
AcDbArc
 50
177.1333686114999
 51
282.3176619502999
  0
LINE
  5
58F
330
1A
100
AcDbEntity
  8
SEIHIN
  6
CONTINUOUS
 62
     3
100
AcDbLine
 10
484.0732884535109
 20
245.6471659112839
 30
0.0
 11
490.2795050936109
 21
247.0023441793839
 31
0.0
  0
LINE
  5
590
330
1A
100
AcDbEntity
  8
SEIHIN
  6
CONTINUOUS
 62
     3
100
AcDbLine
 10
485.3929253095109
 20
246.958881988084
 30
0.0
 11
490.6150134638109
 21
248.0991677356839
 31
0.0
  0
ARC
  5
591
330
1A
100
AcDbEntity
  8
SEIHIN
  6
CONTINUOUS
 62
     3
100
AcDbCircle
 10
490.3861708733109
 20
246.513854249684
 30
0.0
 40
0.5
100
AcDbArc
 50
5.727544245999999
 51
102.3176619503
  0
LINE
  5
592
330
1A
100
AcDbEntity
  8
SEIHIN
  6
CONTINUOUS
 62
     3
100
AcDbLine
 10
486.1900463496109
 20
257.5682837309839
 30
0.0
 11
486.1900463496109
 21
256.889851882184
 31
0.0
  0
LINE
  5
593
330
1A
100
AcDbEntity
  8
SEIHIN
  6
CONTINUOUS
 62
     3
100
AcDbLine
 10
486.1900463496109
 20
257.5682837309839
 30
0.0
 11
486.820436407511
 21
257.8190388873839
 31
0.0
  0
ARC
  5
594
330
1A
100
AcDbEntity
  8
SEIHIN
  6
CONTINUOUS
 62
     3
100
AcDbCircle
 10
487.190046349611
 20
256.889851882184
 30
0.0
 40
1.0
100
AcDbArc
 50
111.6915634179
 51
180.0
  0
LINE
  5
595
330
1A
100
AcDbEntity
  8
SEIHIN
  6
CONTINUOUS
 62
     3
100
AcDbLine
 10
486.1900463496109
 20
249.537628255784
 30
0.0
 11
486.1900463496109
 21
256.889851882184
 31
0.0
  0
ARC
  5
596
330
1A
100
AcDbEntity
  8
NOKITOI
  6
PHANTOM
 62
     9
 48
3.0
100
AcDbCircle
 10
722.2229668895108
 20
269.766811329984
 30
0.0
 40
230.0
100
AcDbArc
 50
182.9998310043
 51
183.7309486313
  0
LINE
  5
597
330
1A
100
AcDbEntity
  8
NOKITOI
  6
PHANTOM
 62
     9
 48
3.0
100
AcDbLine
 10
492.5381383926109
 20
257.7302188564839
 30
0.0
 11
492.8099002445109
 21
258.5228575911839
 31
0.0
  0
LINE
  5
598
330
1A
100
AcDbEntity
  8
NOKITOI
  6
PHANTOM
 62
     9
 48
3.0
100
AcDbLine
 10
505.4623463577108
 20
253.668283730984
 30
0.0
 11
505.5671006808108
 21
255.6271895725839
 31
0.0
  0
ARC
  5
599
330
1A
100
AcDbEntity
  8
NOKITOI
  6
PHANTOM
 62
     9
 48
3.0
100
AcDbCircle
 10
502.8037644199109
 20
244.6682837309839
 30
0.0
 40
9.0
100
AcDbArc
 50
90.0
 51
155.3786098683
  0
ARC
  5
59A
330
1A
100
AcDbEntity
  8
NOKITOI
  6
PHANTOM
 62
     9
 48
3.0
100
AcDbCircle
 10
722.2229668895108
 20
269.766811329984
 30
0.0
 40
228.6
100
AcDbArc
 50
183.3911788461999
 51
185.3586595372999
  0
ARC
  5
59B
330
1A
100
AcDbEntity
  8
NOKITOI
  6
PHANTOM
 62
     9
 48
3.0
100
AcDbCircle
 10
505.6038963455109
 20
247.418283730984
 30
0.0
 40
0.5
100
AcDbArc
 50
160.0168934781
 51
270.0
  0
ARC
  5
59C
330
1A
100
AcDbEntity
  8
NOKITOI
  6
PHANTOM
 62
     9
 48
3.0
100
AcDbCircle
 10
494.3399941692109
 20
260.2106315381839
 30
0.0
 40
0.5
100
AcDbArc
 50
341.075355584
 51
114.5353031557
  0
LINE
  5
59D
330
1A
100
AcDbEntity
  8
NOKITOI
  6
PHANTOM
 62
     9
 48
3.0
100
AcDbLine
 10
494.8129671422109
 20
260.048469376084
 30
0.0
 11
493.990046349611
 21
257.6482837309839
 31
0.0
  0
LINE
  5
59E
330
1A
100
AcDbEntity
  8
NOKITOI
  6
PHANTOM
 62
     9
 48
3.0
100
AcDbLine
 10
505.4623463577108
 20
252.418283730984
 30
0.0
 11
502.8037644199109
 21
252.418283730984
 31
0.0
  0
LINE
  5
59F
330
1A
100
AcDbEntity
  8
NOKITOI
  6
PHANTOM
 62
     9
 48
3.0
100
AcDbLine
 10
494.0232576523109
 20
256.244507381584
 30
0.0
 11
504.3188841539108
 21
255.693939119484
 31
0.0
  0
LINE
  5
5A0
330
1A
100
AcDbEntity
  8
NOKITOI
  6
PHANTOM
 62
     9
 48
3.0
100
AcDbLine
 10
504.3188841539108
 20
255.693939119484
 30
0.0
 11
504.2105603363109
 21
253.668283730984
 31
0.0
  0
LINE
  5
5A1
330
1A
100
AcDbEntity
  8
NOKITOI
  6
PHANTOM
 62
     9
 48
3.0
100
AcDbLine
 10
504.2105603363109
 20
253.668283730984
 30
0.0
 11
502.8037644199109
 21
253.668283730984
 31
0.0
  0
LINE
  5
5A2
330
1A
100
AcDbEntity
  8
SEIHIN
  6
CONTINUOUS
 62
     3
100
AcDbLine
 10
496.1193386876109
 20
261.5179355721839
 30
0.0
 11
495.766641465611
 21
260.489235341284
 31
0.0
  0
LINE
  5
5A3
330
1A
100
AcDbEntity
  8
SEIHIN
  6
CONTINUOUS
 62
     3
100
AcDbLine
 10
496.1193386876109
 20
261.5179355721839
 30
0.0
 11
495.1088635216109
 21
261.115991006084
 31
0.0
  0
ARC
  5
5A4
330
1A
100
AcDbEntity
  8
SEIHIN
  6
CONTINUOUS
 62
     3
100
AcDbCircle
 10
495.2936684926108
 20
260.6513975034839
 30
0.0
 40
0.5
100
AcDbArc
 50
341.075355584
 51
111.6915634179
  0
LINE
  5
5A5
330
1A
100
AcDbEntity
  8
SEIHIN
  6
CONTINUOUS
 62
     3
100
AcDbLine
 10
495.766641465611
 20
260.489235341284
 30
0.0
 11
495.2854304612109
 21
259.0857032450839
 31
0.0
  0
LINE
  5
5A6
330
1A
100
AcDbEntity
  8
SEIHIN
  6
CONTINUOUS
 62
     3
100
AcDbLine
 10
495.2854304612109
 20
259.0857032450839
 30
0.0
 11
495.1463657146109
 21
258.680097734284
 31
0.0
  0
ARC
  5
5A7
330
1A
100
AcDbEntity
  8
SEIHIN
  6
CONTINUOUS
 62
     3
100
AcDbCircle
 10
495.758403434211
 20
258.923541082884
 30
0.0
 40
0.5
100
AcDbArc
 50
161.0753555839999
 51
247.0004820323
  0
ARC
  5
5A8
330
1A
100
AcDbEntity
  8
SEIHIN
  6
CONTINUOUS
 62
     3
100
AcDbCircle
 10
496.735211894711
 20
261.224811434484
 30
0.0
 40
3.0
100
AcDbArc
 50
247.0004820323
 51
111.6915517406999
  0
ARC
  5
5A9
330
1A
100
AcDbEntity
  8
SEIHIN
  6
CONTINUOUS
 62
     3
100
AcDbCircle
 10
496.735211894711
 20
261.224811434484
 30
0.0
 40
3.0
100
AcDbArc
 50
238.0205278103999
 51
247.0004820323
  0
LINE
  5
5AA
330
1A
100
AcDbEntity
  8
SEIHIN
  6
CONTINUOUS
 62
     3
100
AcDbLine
 10
492.4999975668109
 20
260.0782421040839
 30
0.0
 11
493.3164592368109
 21
247.3656784509839
 31
0.0
  0
LINE
  5
5AB
330
1A
100
AcDbEntity
  8
NOKITOI
  6
PHANTOM
 62
     9
 48
3.0
100
AcDbLine
 10
512.3482108327109
 20
255.3178598990839
 30
0.0
 11
510.286545026511
 21
247.2938565813839
 31
0.0
  0
ARC
  5
5AC
330
1A
100
AcDbEntity
  8
NOKITOI
  6
PHANTOM
 62
     9
 48
3.0
100
AcDbCircle
 10
509.8022745603109
 20
247.418283730984
 30
0.0
 40
0.5
100
AcDbArc
 50
270.0
 51
345.5902741236
  0
ARC
  5
5AD
330
1A
100
AcDbEntity
  8
NOKITOI
  6
PHANTOM
 62
     9
 48
3.0
100
AcDbCircle
 10
511.4177424484109
 20
255.714892555684
 30
0.0
 40
1.0
100
AcDbArc
 50
345.5902741236
 51
86.93897020059999
  0
LINE
  5
5AE
330
1A
100
AcDbEntity
  8
NOKITOI
  6
PHANTOM
 62
     9
 48
3.0
100
AcDbLine
 10
506.6746713394109
 20
248.1682837309839
 30
0.0
 11
507.5768815606108
 21
250.649361839084
 31
0.0
  0
LINE
  5
5AF
330
1A
100
AcDbEntity
  8
NOKITOI
  6
PHANTOM
 62
     9
 48
3.0
100
AcDbLine
 10
510.8022095715109
 20
255.347237225484
 30
0.0
 11
508.9576685914109
 21
248.1682837309839
 31
0.0
  0
LINE
  5
5B0
330
1A
100
AcDbEntity
  8
NOKITOI
  6
PHANTOM
 62
     9
 48
3.0
100
AcDbLine
 10
508.9576685914109
 20
248.1682837309839
 30
0.0
 11
506.6746713394109
 21
248.1682837309839
 31
0.0
  0
LINE
  5
5B1
330
1A
100
AcDbEntity
  8
SEIHIN
  6
CONTINUOUS
 62
     3
100
AcDbLine
 10
300.5250892924205
 20
405.8248696552923
 30
0.0
 11
300.5250892924205
 21
500.4236319376923
 31
0.0
  0
LINE
  5
5B2
330
1A
100
AcDbEntity
  8
SEIHIN
  6
CONTINUOUS
 62
     3
100
AcDbLine
 10
320.5250892924206
 20
400.9518105843922
 30
0.0
 11
320.5250892924206
 21
504.6065611152922
 31
0.0
  0
LINE
  5
5B3
330
1A
100
AcDbEntity
  8
SEIHIN
  6
CONTINUOUS
 62
     3
100
AcDbLine
 10
302.0042009941227
 20
404.0754130981772
 30
0.0
 11
320.5250892924206
 21
400.9518105843922
 31
0.0
  0
LINE
  5
5B6
330
1A
100
AcDbEntity
  8
SEIHIN
  6
CONTINUOUS
 62
     3
100
AcDbLine
 10
320.5250892924206
 20
504.6065611152922
 30
0.0
 11
350.5250892924205
 21
503.6065611152922
 31
0.0
  0
LINE
  5
5B7
330
1A
100
AcDbEntity
  8
SEIHIN
  6
CONTINUOUS
 62
     3
100
AcDbLine
 10
320.5250892924206
 20
492.3518105843923
 30
0.0
 11
350.5250892924205
 21
492.3518105843923
 31
0.0
  0
LINE
  5
5B8
330
1A
100
AcDbEntity
  8
SEIHIN
  6
CONTINUOUS
 62
     3
100
AcDbLine
 10
320.5250892924206
 20
504.6065611152922
 30
0.0
 11
320.5250892924206
 21
492.3518105843923
 31
0.0
  0
LINE
  5
5B9
330
1A
100
AcDbEntity
  8
SEIHIN
  6
CONTINUOUS
 62
     3
100
AcDbLine
 10
300.5250892924205
 20
500.4236319376923
 30
0.0
 11
320.5250892924206
 21
498.4791858497922
 31
0.0
  0
LINE
  5
5BC
330
1A
100
AcDbEntity
  8
SEIHIN
  6
CONTINUOUS
 62
     3
100
AcDbLine
 10
334.5250892924206
 20
492.3518105843923
 30
0.0
 11
334.5250892924206
 21
499.9518105843923
 31
0.0
  0
LINE
  5
5BD
330
1A
100
AcDbEntity
  8
SEIHIN
  6
CONTINUOUS
 62
     3
100
AcDbLine
 10
334.5250892924206
 20
499.9518105843923
 30
0.0
 11
336.5250892924206
 21
499.9518105843923
 31
0.0
  0
LINE
  5
5BE
330
1A
100
AcDbEntity
  8
SEIHIN
  6
CONTINUOUS
 62
     3
100
AcDbLine
 10
336.5250892924206
 20
499.9518105843923
 30
0.0
 11
336.5250892924206
 21
492.3518105843923
 31
0.0
  0
LINE
  5
5C7
330
1A
100
AcDbEntity
  8
NOKITOI
  6
PHANTOM
 62
     9
 48
3.0
100
AcDbLine
 10
626.190046349611
 20
219.2482837309839
 30
0.0
 11
626.190046349611
 21
216.2482837309839
 31
0.0
  0
LINE
  5
5C8
330
1A
100
AcDbEntity
  8
NOKITOI
  6
PHANTOM
 62
     9
 48
3.0
100
AcDbLine
 10
624.8900463496108
 20
217.5482837309839
 30
0.0
 11
624.8900463496108
 21
220.5482837309839
 31
0.0
  0
ARC
  5
5C9
330
1A
100
AcDbEntity
  8
NOKITOI
  6
PHANTOM
 62
     9
 48
3.0
100
AcDbCircle
 10
626.644796880511
 20
215.5482837309839
 30
0.0
 40
3.7
100
AcDbArc
 50
357.2574457102999
 51
90.0
  0
ARC
  5
5CA
330
1A
100
AcDbEntity
  8
NOKITOI
  6
PHANTOM
 62
     9
 48
3.0
100
AcDbCircle
 10
626.644796880511
 20
215.5482837309839
 30
0.0
 40
5.0
100
AcDbArc
 50
357.2574457102999
 51
90.0
  0
LINE
  5
5CB
330
1A
100
AcDbEntity
  8
CENTER_L
  6
CENTER
 62
     1
 48
5.0
100
AcDbLine
 10
581.463673791711
 20
79.6166153577949
 30
0.0
 11
581.463673791711
 21
161.848283383284
 31
0.0
  0
LINE
  5
5CD
330
1A
100
AcDbEntity
  8
SEIHIN
  6
CONTINUOUS
 62
     3
100
AcDbLine
 10
633.3163839054109
 20
218.9746413552839
 30
0.0
 11
630.3063536705108
 21
156.1389507280839
 31
0.0
  0
ARC
  5
5CF
330
1A
100
AcDbEntity
  8
SEIHIN
  6
CONTINUOUS
 62
     3
100
AcDbCircle
 10
626.644796880511
 20
215.5482837309839
 30
0.0
 40
7.5
100
AcDbArc
 50
357.2574457102999
 51
90.0
  0
LINE
  5
5D0
330
1A
100
AcDbEntity
  8
SEIHIN
  6
CONTINUOUS
 62
     3
100
AcDbLine
 10
624.3900463496109
 20
220.5482837309839
 30
0.0
 11
624.3900463496109
 21
218.0482837309839
 31
0.0
  0
ARC
  5
5D1
330
1A
100
AcDbEntity
  8
SEIHIN
  6
CONTINUOUS
 62
     3
100
AcDbCircle
 10
624.3900463496109
 20
220.5482837309839
 30
0.0
 40
2.5
100
AcDbArc
 50
90.00000728249998
 51
270.0
  0
ARC
  5
5D2
330
1A
100
AcDbEntity
  8
SEIHIN
  6
CONTINUOUS
 62
     3
100
AcDbCircle
 10
626.644796880511
 20
215.5482837309839
 30
0.0
 40
5.0
100
AcDbArc
 50
357.2574457102999
 51
90.0
  0
LINE
  5
5F4
330
1A
100
AcDbEntity
  8
SEIHIN
  6
CONTINUOUS
 62
     3
100
AcDbLine
 10
538.1573756557108
 20
128.048283383284
 30
0.0
 11
627.102137181311
 21
128.048283383284
 31
0.0
  0
LINE
  5
60A
330
1A
100
AcDbEntity
  8
NOKITOI
  6
PHANTOM
 62
     9
 48
3.0
100
AcDbLine
 10
627.509560754311
 20
156.272926039884
 30
0.0
 11
629.889272004511
 21
205.950433648784
 31
0.0
  0
LINE
  5
60B
330
1A
100
AcDbEntity
  8
NOKITOI
  6
PHANTOM
 62
     9
 48
3.0
100
AcDbLine
 10
631.6390699451107
 20
215.309042102984
 30
0.0
 11
628.8080717511109
 21
156.210723216584
 31
0.0
  0
LINE
  5
60C
330
1A
100
AcDbEntity
  8
SEIHIN
  6
CONTINUOUS
 62
     3
100
AcDbLine
 10
631.639882352011
 20
215.769916609184
 30
0.0
 11
628.786763323211
 21
156.2098156733839
 31
0.0
  0
LINE
  5
60D
330
1A
100
AcDbEntity
  8
SEIHIN
  6
CONTINUOUS
 62
     3
100
AcDbLine
 10
619.8499644304111
 20
178.643980034484
 30
0.0
 11
618.5370220302108
 21
151.235736253784
 31
0.0
  0
LINE
  5
60E
330
1A
100
AcDbEntity
  8
SEIHIN
  6
CONTINUOUS
 62
     3
100
AcDbLine
 10
634.1362064774109
 20
215.1894212888839
 30
0.0
 11
630.0987010201108
 21
130.9047384063839
 31
0.0
  0
ARC
  5
616
330
1A
100
AcDbEntity
  8
SEIHIN
  6
CONTINUOUS
 62
     3
100
AcDbCircle
 10
627.102137181311
 20
131.048283383284
 30
0.0
 40
3.0
100
AcDbArc
 50
270.0
 51
357.2574457102999
  0
ARC
  5
61B
330
1A
100
AcDbEntity
  8
NOKITOI
  6
PHANTOM
 62
     9
 48
3.0
100
AcDbCircle
 10
623.8137986866108
 20
156.4499648445839
 30
0.0
 40
3.7
100
AcDbArc
 50
272.4394137225999
 51
357.2574457102999
  0
ARC
  5
61C
330
1A
100
AcDbEntity
  8
NOKITOI
  6
PHANTOM
 62
     9
 48
3.0
100
AcDbCircle
 10
623.8137986866108
 20
156.4499648445839
 30
0.0
 40
5.0
100
AcDbArc
 50
272.4394137225999
 51
357.2574457102999
  0
ARC
  5
61D
330
1A
100
AcDbEntity
  8
SEIHIN
  6
CONTINUOUS
 62
     3
100
AcDbCircle
 10
623.8137986865108
 20
156.4499648445839
 30
0.0
 40
6.5
100
AcDbArc
 50
272.4394137225999
 51
357.2574457102999
  0
ARC
  5
61E
330
1A
100
AcDbEntity
  8
SEIHIN
  6
CONTINUOUS
 62
     3
100
AcDbCircle
 10
623.8137986865108
 20
156.4499648445839
 30
0.0
 40
7.5
100
AcDbArc
 50
272.4394137225999
 51
357.2574457102999
  0
ARC
  5
621
330
1A
100
AcDbEntity
  8
SEIHIN
  6
CONTINUOUS
 62
     3
100
AcDbCircle
 10
623.7924902587108
 20
156.4490573013839
 30
0.0
 40
5.0
100
AcDbArc
 50
272.4381855922
 51
357.2574457102999
  0
LINE
  5
62F
330
1A
100
AcDbEntity
  8
NOKITOI
  6
PHANTOM
 62
     9
 48
3.0
100
AcDbLine
 10
629.341186121811
 20
206.4719845220839
 30
0.0
 11
620.4072704604109
 21
205.5984148218839
 31
0.0
  0
LINE
  5
630
330
1A
100
AcDbEntity
  8
NOKITOI
  6
PHANTOM
 62
     9
 48
3.0
100
AcDbLine
 10
623.9050556779109
 20
216.2482837309839
 30
0.0
 11
621.599279760411
 21
207.0251800608839
 31
0.0
  0
LINE
  5
631
330
1A
100
AcDbEntity
  8
NOKITOI
  6
PHANTOM
 62
     9
 48
3.0
100
AcDbLine
 10
619.8754410819108
 20
206.2246726943839
 30
0.0
 11
622.8900463496109
 21
217.5482837309839
 31
0.0
  0
LINE
  5
632
330
1A
100
AcDbEntity
  8
NOKITOI
  6
PHANTOM
 62
     9
 48
3.0
100
AcDbLine
 10
621.599279760411
 20
207.0251800608839
 30
0.0
 11
629.9807943553109
 21
207.8610025359839
 31
0.0
  0
LINE
  5
633
330
1A
100
AcDbEntity
  8
SEIHIN
  6
CONTINUOUS
 62
     3
100
AcDbLine
 10
621.8476736562108
 20
180.548283383284
 30
0.0
 11
628.999410139711
 21
180.548283383284
 31
0.0
  0
ARC
  5
634
330
1A
100
AcDbEntity
  8
SEIHIN
  6
CONTINUOUS
 62
     3
100
AcDbCircle
 10
621.8476736562108
 20
178.548283383284
 30
0.0
 40
2.0
100
AcDbArc
 50
90.0
 51
177.2574457102999
  0
ARC
  5
635
330
1A
100
AcDbEntity
  8
NOKITOI
  6
PHANTOM
 62
     9
 48
3.0
100
AcDbCircle
 10
620.3586118842109
 20
206.0960415323839
 30
0.0
 40
0.5
100
AcDbArc
 50
165.0923200672999
 51
275.5847009843999
  0
ARC
  5
636
330
1A
100
AcDbEntity
  8
SEIHIN
  6
CONTINUOUS
 62
     3
100
AcDbCircle
 10
628.999410139711
 20
181.548283383284
 30
0.0
 40
1.0
100
AcDbArc
 50
270.0
 51
357.2574533454
  0
LINE
  5
637
330
1A
100
AcDbEntity
  8
NOKITOI
  6
PHANTOM
 62
     9
 48
3.0
100
AcDbLine
 10
629.9807943553109
 20
207.8610025359839
 30
0.0
 11
630.3405589483109
 21
215.371244926284
 31
0.0
  0
ARC
  5
638
330
1A
100
AcDbEntity
  8
NOKITOI
  6
PHANTOM
 62
     9
 48
3.0
100
AcDbCircle
 10
629.3898446981109
 20
205.974357811584
 30
0.0
 40
0.5
100
AcDbArc
 50
357.2574457104
 51
95.5847009844
  0
LINE
  5
639
330
1A
100
AcDbEntity
  8
NOKITOI
  6
PHANTOM
 62
     9
 48
3.0
100
AcDbLine
 10
626.190046349611
 20
216.2482837309839
 30
0.0
 11
623.9050556779109
 21
216.2482837309839
 31
0.0
  0
LINE
  5
63A
330
1A
100
AcDbEntity
  8
NOKITOI
  6
PHANTOM
 62
     9
 48
3.0
100
AcDbLine
 10
622.8900463496109
 20
217.5482837309839
 30
0.0
 11
624.8900463496108
 21
217.5482837309839
 31
0.0
  0
ARC
  5
647
330
1A
100
AcDbEntity
  8
SEIHIN
  6
CONTINUOUS
 62
     3
100
AcDbCircle
 10
627.3900463496109
 20
220.5482837309839
 30
0.0
 40
5.5
100
AcDbArc
 50
90.00000844889999
 51
180.0
  0
LINE
  5
648
330
1A
100
AcDbEntity
  8
NOKITOI
  6
PHANTOM
 62
     9
 48
3.0
100
AcDbLine
 10
626.644796880511
 20
219.2482837309839
 30
0.0
 11
626.190046349611
 21
219.2482837309839
 31
0.0
  0
LINE
  5
649
330
1A
100
AcDbEntity
  8
NOKITOI
  6
PHANTOM
 62
     9
 48
3.0
100
AcDbLine
 10
624.8900463496108
 20
220.5482837309839
 30
0.0
 11
626.644796880511
 21
220.5482837309839
 31
0.0
  0
LINE
  5
64A
330
1A
100
AcDbEntity
  8
SEIHIN
  6
CONTINUOUS
 62
     3
100
AcDbLine
 10
624.3900460318108
 20
220.5482837309839
 30
0.0
 11
626.644796880511
 21
220.5482837309839
 31
0.0
  0
LINE
  5
64B
330
1A
100
AcDbEntity
  8
SEIHIN
  6
CONTINUOUS
 62
     3
100
AcDbLine
 10
627.390045538611
 20
226.0482837309839
 30
0.0
 11
627.490046349611
 21
226.0482837309839
 31
0.0
  0
ARC
  5
64C
330
1A
100
AcDbEntity
  8
SEIHIN
  6
CONTINUOUS
 62
     3
100
AcDbCircle
 10
627.490046349611
 20
224.0482837309839
 30
0.0
 40
2.0
100
AcDbArc
 50
0.0
 51
90.0
  0
LINE
  5
64D
330
1A
100
AcDbEntity
  8
SEIHIN
  6
CONTINUOUS
 62
     3
100
AcDbLine
 10
629.490046349611
 20
222.487632076384
 30
0.0
 11
629.490046349611
 21
224.0482837309839
 31
0.0
  0
LINE
  5
64F
330
1A
100
AcDbEntity
  8
SEIHIN
  6
CONTINUOUS
 62
     3
100
AcDbLine
 10
624.3900460318108
 20
223.0482837309839
 30
0.0
 11
626.644796880511
 21
223.0482837309839
 31
0.0
  0
LINE
  5
650
330
1A
100
AcDbEntity
  8
SEIHIN
  6
CONTINUOUS
 62
     3
100
AcDbLine
 10
624.3900463496109
 20
220.5482837309839
 30
0.0
 11
626.644796880511
 21
220.5482837309839
 31
0.0
  0
LINE
  5
903
330
1A
100
AcDbEntity
  8
SEIHIN
  6
CONTINUOUS
 62
     3
100
AcDbLine
 10
320.5250892924206
 20
502.1065611152923
 30
0.0
 11
150.5250892924206
 21
502.1065611152923
 31
0.0
  0
ARC
  5
904
330
1A
100
AcDbEntity
  8
SEIHIN
  6
CONTINUOUS
 62
     3
100
AcDbCircle
 10
237.5250892924205
 20
500.8065611152923
 30
0.0
 40
1.0
100
AcDbArc
 50
90.0
 51
180.0
  0
LINE
  5
905
330
1A
100
AcDbEntity
  8
SEIHIN
  6
CONTINUOUS
 62
     3
100
AcDbLine
 10
236.5250892924206
 20
500.8065611152923
 30
0.0
 11
236.5250892924206
 21
487.9254393836923
 31
0.0
  0
LINE
  5
906
330
1A
100
AcDbEntity
  8
SEIHIN
  6
CONTINUOUS
 62
     3
100
AcDbLine
 10
234.5250892924206
 20
487.9254394510923
 30
0.0
 11
234.5250892924206
 21
500.5852096140037
 31
0.0
  0
ARC
  5
907
330
1A
100
AcDbEntity
  8
SEIHIN
  6
CONTINUOUS
 62
     3
100
AcDbCircle
 10
233.2312108165824
 20
500.5458853646476
 30
0.0
 40
1.294475919754625
100
AcDbArc
 50
358.2591717781203
 51
76.87801227953734
  0
LINE
  5
90A
330
1A
100
AcDbEntity
  8
SEIHIN
  6
CONTINUOUS
 62
     3
100
AcDbLine
 10
234.5250892924206
 20
500.4236319376923
 30
0.0
 11
170.5250892924206
 21
500.4236319376923
 31
0.0
  0
LINE
  5
90F
330
1A
100
AcDbEntity
  8
SUNPOU
  6
PHANTOM
 48
5.0
100
AcDbLine
 10
275.5250892924205
 20
356.6518105843924
 30
0.0
 11
275.5250892924205
 21
502.1065611152923
 31
0.0
  0
LINE
  5
910
330
1A
100
AcDbEntity
  8
SUNPOU
  6
PHANTOM
 48
5.0
100
AcDbLine
 10
195.5250892924203
 20
356.6518105843924
 30
0.0
 11
195.5250892924206
 21
502.1065611152923
 31
0.0
  0
DIMENSION
  5
91D
330
1A
100
AcDbEntity
  8
SUNPOU
100
AcDbDimension
  2
*D1
 10
350.5250892924205
 20
318.144979320996
 30
0.0
 11
313.0250892924205
 21
323.144979320996
 31
0.0
 70
    32
  1
※a<>
  3
STANDARD
100
AcDbAlignedDimension
 13
275.5250892924205
 23
356.6518105843924
 33
0.0
 14
350.5250892924205
 24
354.9518105843923
 34
0.0
100
AcDbRotatedDimension
1001
ACAD
1000
DSTYLE
1002
{
1070
   140
1040
6.0
1070
    74
1070
     0
1070
   172
1070
     1
1070
    73
1070
     0
1070
   272
1070
     2
1070
    77
1070
     3
1070
   173
1070
     1
1070
   147
1040
2.0
1070
    42
1040
6.0
1070
    44
1040
3.0
1070
    43
1040
14.0
1070
   271
1070
     0
1070
   178
1070
     4
1070
   177
1070
     4
1070
   176
1070
     4
1070
   141
1040
150.0
1070
     7
1000
_OPEN
1070
     6
1000
_OPEN
1070
    41
1040
7.0
1002
}
  0
DIMENSION
  5
958
330
1A
100
AcDbEntity
  8
SUNPOU
100
AcDbDimension
  2
*D2
 10
672.1996026573506
 20
223.0482837309839
 30
0.0
 11
667.1996026573506
 21
185.5482835571341
 31
0.0
 70
    32
  3
STANDARD
100
AcDbAlignedDimension
 13
581.463673791711
 23
148.0482833832841
 33
0.0
 14
626.644796880511
 24
223.0482837309839
 34
0.0
 50
90.0
100
AcDbRotatedDimension
1001
ACAD
1000
DSTYLE
1002
{
1070
   372
1070
    -1
1070
   371
1070
    -1
1070
    41
1040
7.0
1070
    42
1040
6.0
1070
    43
1040
14.0
1070
    44
1040
3.0
1070
    73
1070
     0
1070
    74
1070
     0
1070
    77
1070
     3
1070
   140
1040
6.0
1070
   141
1040
150.0
1070
   147
1040
2.0
1070
   172
1070
     1
1070
   173
1070
     1
1070
   176
1070
   256
1070
   177
1070
   256
1070
   178
1070
   256
1070
   271
1070
     0
1070
   272
1070
     2
1070
     6
1000
OPEN
1070
     7
1000
OPEN
1002
}
  0
DIMENSION
  5
965
330
1A
100
AcDbEntity
  8
SUNPOU
100
AcDbDimension
  2
*D3
 10
634.1362064774109
 20
293.6476563684634
 30
0.0
 11
558.922747731511
 21
298.6476563684634
 31
0.0
 70
    32
  3
STANDARD
100
AcDbAlignedDimension
 13
483.7092889856109
 23
245.9402598690839
 33
0.0
 14
634.1362064774109
 24
215.1894212888839
 34
0.0
100
AcDbRotatedDimension
1001
ACAD
1000
DSTYLE
1002
{
1070
   372
1070
    -1
1070
   371
1070
    -1
1070
    41
1040
7.0
1070
    42
1040
6.0
1070
    43
1040
14.0
1070
    44
1040
3.0
1070
    73
1070
     0
1070
    74
1070
     0
1070
    77
1070
     3
1070
   140
1040
6.0
1070
   141
1040
150.0
1070
   147
1040
2.0
1070
   172
1070
     1
1070
   173
1070
     1
1070
   176
1070
   256
1070
   177
1070
   256
1070
   178
1070
   256
1070
   271
1070
     0
1070
   272
1070
     2
1070
     6
1000
OPEN
1070
     7
1000
OPEN
1002
}
  0
DIMENSION
  5
972
330
1A
100
AcDbEntity
  8
SUNPOU
100
AcDbDimension
  2
*D4
 10
445.0500684709695
 20
148.0482833832841
 30
0.0
 11
440.0500684709695
 21
206.1365474088841
 31
0.0
 70
    32
  3
STANDARD
100
AcDbAlignedDimension
 13
496.735211894711
 23
264.224811434484
 33
0.0
 14
581.463673791711
 24
148.0482833832841
 34
0.0
 50
90.0
100
AcDbRotatedDimension
1001
ACAD
1000
DSTYLE
1002
{
1070
   372
1070
    -1
1070
   371
1070
    -1
1070
    41
1040
7.0
1070
    42
1040
6.0
1070
    43
1040
14.0
1070
    44
1040
3.0
1070
    73
1070
     0
1070
    74
1070
     0
1070
    77
1070
     3
1070
   140
1040
6.0
1070
   141
1040
150.0
1070
   147
1040
2.0
1070
   172
1070
     1
1070
   173
1070
     1
1070
   176
1070
   256
1070
   177
1070
   256
1070
   178
1070
   256
1070
   271
1070
     0
1070
   272
1070
     2
1070
     6
1000
OPEN
1070
     7
1000
OPEN
1002
}
  0
DIMENSION
  5
983
330
1A
100
AcDbEntity
  8
SUNPOU
100
AcDbDimension
  2
*D5
 10
445.0500684709695
 20
128.048283383284
 30
0.0
 11
440.0500684709695
 21
138.0482833832841
 31
0.0
 70
    32
  3
STANDARD
100
AcDbAlignedDimension
 13
581.463673791711
 23
148.0482833832841
 33
0.0
 14
533.863105420476
 24
128.048283383284
 34
0.0
 50
90.0
100
AcDbRotatedDimension
1001
ACAD
1000
DSTYLE
1002
{
1070
   372
1070
    -1
1070
   371
1070
    -1
1070
    41
1040
7.0
1070
    42
1040
6.0
1070
    43
1040
14.0
1070
    44
1040
3.0
1070
    73
1070
     0
1070
    74
1070
     0
1070
    77
1070
     3
1070
   140
1040
6.0
1070
   141
1040
150.0
1070
   147
1040
2.0
1070
   172
1070
     1
1070
   173
1070
     1
1070
   176
1070
   256
1070
   177
1070
   256
1070
   178
1070
   256
1070
   271
1070
     0
1070
   272
1070
     2
1070
     6
1000
OPEN
1070
     7
1000
OPEN
1002
}
  0
DIMENSION
  5
9AA
330
1A
100
AcDbEntity
  8
SUNPOU
100
AcDbDimension
  2
*D6
 10
350.5250892924205
 20
301.5709796113148
 30
0.0
 11
235.5250892924205
 21
306.5709796113149
 31
0.0
 70
    32
  3
STANDARD
100
AcDbAlignedDimension
 13
120.5250892924206
 23
264.224811434484
 33
0.0
 14
350.5250892924205
 24
264.224811434484
 34
0.0
100
AcDbRotatedDimension
1001
ACAD
1000
DSTYLE
1002
{
1070
   372
1070
    -1
1070
   371
1070
    -1
1070
    41
1040
7.0
1070
    42
1040
6.0
1070
    43
1040
14.0
1070
    44
1040
3.0
1070
    73
1070
     0
1070
    74
1070
     0
1070
    77
1070
     3
1070
   140
1040
6.0
1070
   141
1040
150.0
1070
   147
1040
2.0
1070
   172
1070
     1
1070
   173
1070
     1
1070
   176
1070
   256
1070
   177
1070
   256
1070
   178
1070
   256
1070
   271
1070
     0
1070
   272
1070
     2
1070
     6
1000
OPEN
1070
     7
1000
OPEN
1002
}
  0
LINE
  5
9DA
330
1A
100
AcDbEntity
  8
SEIHIN
100
AcDbLine
 10
299.0250892924206
 20
404.3248696552923
 30
0.0
 11
172.0250892924205
 21
404.3248696552923
 31
0.0
  0
TEXT
  5
9DF
330
1A
100
AcDbEntity
  8
SUNPOU
100
AcDbText
 10
676.296058680618
 20
37.84040581200054
 30
0.0
 40
6.0
  1
※a　軒樋の差込寸法を示す
100
AcDbText
  0
DIMENSION
  5
A15
330
1A
100
AcDbEntity
  8
SUNPOU
100
AcDbDimension
  2
*D7
 10
275.5250892924205
 20
318.144979320996
 30
0.0
 11
235.5250892924205
 21
323.144979320996
 31
0.0
 70
    32
  3
STANDARD
100
AcDbAlignedDimension
 13
195.5250892924203
 23
356.6518105843924
 33
0.0
 14
275.5250892924205
 24
356.6518105843924
 34
0.0
100
AcDbRotatedDimension
1001
ACAD
1000
DSTYLE
1002
{
1070
   140
1040
6.0
1070
    74
1070
     0
1070
   172
1070
     1
1070
    73
1070
     0
1070
   272
1070
     2
1070
    77
1070
     3
1070
   173
1070
     1
1070
   147
1040
2.0
1070
    42
1040
6.0
1070
    44
1040
3.0
1070
    43
1040
14.0
1070
   271
1070
     0
1070
   178
1070
     4
1070
   177
1070
     4
1070
   176
1070
     4
1070
   141
1040
150.0
1070
     7
1000
_OPEN
1070
     6
1000
_OPEN
1070
    41
1040
7.0
1002
}
  0
LINE
  5
A1C
330
1A
100
AcDbEntity
  8
SEIHIN
100
AcDbLine
 10
347.5250892924206
 20
259.5428077976866
 30
0.0
 11
323.5250892924206
 21
259.5428077976866
 31
0.0
  0
LINE
  5
A21
330
1A
100
AcDbEntity
  8
SEIHIN
100
AcDbLine
 10
147.5250892924206
 20
259.5428077976865
 30
0.0
 11
123.5250892924206
 21
259.5428077976865
 31
0.0
  0
LINE
  5
A24
330
1A
100
AcDbEntity
  8
SEIHIN
  6
CONTINUOUS
 62
     3
100
AcDbLine
 10
331.1826706641206
 20
148.315616010984
 30
0.0
 11
350.5250892924205
 21
149.048283383284
 31
0.0
  0
LINE
  5
A25
330
1A
100
AcDbEntity
  8
SEIHIN
  6
CONTINUOUS
 62
     3
100
AcDbLine
 10
331.1826706641206
 20
149.5063331624314
 30
0.0
 11
350.5250892924205
 21
150.2390005347314
 31
0.0
  0
LINE
  5
A26
330
1A
100
AcDbEntity
  8
SEIHIN
  6
CONTINUOUS
 62
     3
100
AcDbLine
 10
332.9829091062251
 20
149.5745240125126
 30
0.0
 11
350.5250892924205
 21
150.2390005347314
 31
0.0
  0
ARC
  5
A27
330
1A
100
AcDbEntity
  8
SEIHIN
  6
CONTINUOUS
 62
     3
100
AcDbCircle
 10
333.891348533326
 20
125.591723137567
 30
0.0
 40
24.0
100
AcDbArc
 50
92.16925758977557
 51
124.9651207736445
  0
LINE
  5
A28
330
1A
100
AcDbEntity
  8
SEIHIN
  6
CONTINUOUS
 62
     3
100
AcDbLine
 10
138.067269478616
 20
149.5745240125126
 30
0.0
 11
120.5250892924206
 21
150.2390005347314
 31
0.0
  0
ARC
  5
A29
330
1A
100
AcDbEntity
  8
SEIHIN
  6
CONTINUOUS
 62
     3
100
AcDbCircle
 10
137.1588300515151
 20
125.591723137567
 30
0.0
 40
24.0
100
AcDbArc
 50
55.03487922635541
 51
87.83074241022445
  0
LINE
  5
A2C
330
1A
100
AcDbEntity
  8
CENTER_L
  6
CENTER
 62
     1
 48
5.0
100
AcDbLine
 10
157.5250892924206
 20
451.9254380264923
 30
0.0
 11
110.5250892924205
 21
451.9254380264923
 31
0.0
  0
LINE
  5
A3B
330
1A
100
AcDbEntity
  8
SEIHIN
  6
CONTINUOUS
 62
     3
 48
5.0
100
AcDbLine
 10
250.8955154413599
 20
479.9254380264923
 30
0.0
 11
220.1546631434812
 21
479.9254380264923
 31
0.0
  0
LINE
  5
A3C
330
1A
100
AcDbEntity
  8
SEIHIN
  6
CONTINUOUS
 62
     3
 48
5.0
100
AcDbLine
 10
250.8955154413599
 20
431.9254380264923
 30
0.0
 11
220.1546631434812
 21
431.9254380264923
 31
0.0
  0
DIMENSION
  5
B16
330
1A
100
AcDbEntity
  8
SUNPOU
100
AcDbDimension
  2
*D8
 10
628.1958890453109
 20
59.9848599449108
 30
0.0
 11
583.7958390453109
 21
64.9848599449108
 31
0.0
 70
    32
  3
STANDARD
100
AcDbAlignedDimension
 13
539.3957890453108
 23
93.04838338328421
 33
0.0
 14
628.1958890453109
 24
93.04818338328425
 34
0.0
100
AcDbRotatedDimension
1001
ACAD
1000
DSTYLE
1002
{
1070
   372
1070
    -1
1070
   371
1070
    -1
1070
    41
1040
7.0
1070
    42
1040
6.0
1070
    43
1040
14.0
1070
    44
1040
3.0
1070
    73
1070
     0
1070
    74
1070
     0
1070
    77
1070
     3
1070
   140
1040
6.0
1070
   141
1040
150.0
1070
   147
1040
2.0
1070
   172
1070
     1
1070
   173
1070
     1
1070
   176
1070
   256
1070
   177
1070
   256
1070
   178
1070
   256
1070
   271
1070
     0
1070
   272
1070
     2
1070
     6
1000
OPEN
1070
     7
1000
OPEN
1002
}
  0
DIMENSION
  5
B19
330
1A
100
AcDbEntity
  8
SUNPOU
 48
5.0
100
AcDbDimension
  2
*D9
 10
445.0899236376451
 20
92.04838338328398
 30
0.0
 11
445.0899236376451
 21
110.048321883284
 31
0.0
 70
   160
  3
STANDARD
100
AcDbAlignedDimension
 13
533.4062737917109
 23
128.048260383284
 33
0.0
 14
539.8957890453108
 24
92.04838338328398
 34
0.0
 50
90.0
100
AcDbRotatedDimension
1001
ACAD
1000
DSTYLE
1002
{
1070
   372
1070
    -1
1070
   371
1070
    -1
1070
    41
1040
7.0
1070
    42
1040
6.0
1070
    43
1040
14.0
1070
    44
1040
3.0
1070
    73
1070
     0
1070
    74
1070
     0
1070
    77
1070
     3
1070
   140
1040
6.0
1070
   141
1040
150.0
1070
   147
1040
2.0
1070
   172
1070
     1
1070
   173
1070
     1
1070
   176
1070
   256
1070
   177
1070
   256
1070
   178
1070
   256
1070
   271
1070
     0
1070
   272
1070
     2
1070
     6
1000
OPEN
1070
     7
1000
OPEN
1002
}
  0
LINE
  5
C12
330
1A
100
AcDbEntity
  8
SEIHIN
100
AcDbLine
 10
320.5250892924206
 20
400.9518105843922
 30
0.0
 11
350.5250892924205
 21
400.9518105843922
 31
0.0
  0
LINE
  5
C13
330
1A
100
AcDbEntity
  8
SEIHIN
100
AcDbLine
 10
150.5250892924206
 20
400.9518105843922
 30
0.0
 11
120.5250892924206
 21
400.9518105843922
 31
0.0
  0
DIMENSION
  5
C20
330
1A
100
AcDbEntity
  8
SUNPOU
100
AcDbDimension
  2
*D10
 10
399.2877971660318
 20
92.04818338328399
 30
0.0
 11
394.2877971660318
 21
178.136497408884
 31
0.0
 70
    32
  3
STANDARD
100
AcDbAlignedDimension
 13
350.5250892924205
 23
264.224811434484
 33
0.0
 14
279.4250892924206
 24
92.04818338328403
 34
0.0
 50
90.0
100
AcDbRotatedDimension
1001
ACAD
1000
DSTYLE
1002
{
1070
   372
1070
    -1
1070
   371
1070
    -1
1070
    41
1040
7.0
1070
    42
1040
6.0
1070
    43
1040
14.0
1070
    44
1040
3.0
1070
    73
1070
     0
1070
    74
1070
     0
1070
    77
1070
     3
1070
   140
1040
6.0
1070
   141
1040
150.0
1070
   147
1040
2.0
1070
   172
1070
     1
1070
   173
1070
     1
1070
   176
1070
   256
1070
   177
1070
   256
1070
   178
1070
   256
1070
   271
1070
     0
1070
   272
1070
     2
1070
     6
1000
OPEN
1070
     7
1000
OPEN
1002
}
  0
DIMENSION
  5
C32
330
1A
100
AcDbEntity
  8
SUNPOU
100
AcDbDimension
  2
*D11
 10
350.5250892924205
 20
414.714344994717
 30
0.0
 11
335.5250892924205
 21
419.714344994717
 31
0.0
 70
    32
  3
STANDARD
100
AcDbAlignedDimension
 13
320.5250892924206
 23
400.9518105843922
 33
0.0
 14
350.5250892924205
 24
400.9518105843922
 34
0.0
100
AcDbRotatedDimension
1001
ACAD
1000
DSTYLE
1002
{
1070
   372
1070
    -1
1070
   371
1070
    -1
1070
    41
1040
7.0
1070
    42
1040
6.0
1070
    43
1040
14.0
1070
    44
1040
3.0
1070
    73
1070
     0
1070
    74
1070
     0
1070
    77
1070
     3
1070
   140
1040
6.0
1070
   141
1040
150.0
1070
   147
1040
2.0
1070
   172
1070
     1
1070
   173
1070
     1
1070
   176
1070
   256
1070
   177
1070
   256
1070
   178
1070
   256
1070
   271
1070
     0
1070
   272
1070
     2
1070
     6
1000
OPEN
1070
     7
1000
OPEN
1002
}
  0
LINE
  5
C3C
330
1A
100
AcDbEntity
  8
SEIHIN
100
AcDbLine
 10
520.8415139792472
 20
175.0725502311737
 30
0.0
 11
518.2771794422019
 21
166.0139781667623
 31
0.0
  0
ARC
  5
C3D
330
1A
100
AcDbEntity
  8
SEIHIN
  6
CONTINUOUS
 62
     3
100
AcDbCircle
 10
517.4713764300641
 20
166.0988985874364
 30
0.0
 40
0.5
100
AcDbArc
 50
206.8989378625504
 51
278.9726266147945
  0
TEXT
  5
EDF
330
1A
100
AcDbEntity
  8
SUNPOU
 62
     4
100
AcDbText
 10
533.664971563981
 20
360.6424320223362
 30
0.0
 40
8.0
  1
洋風じょうご用ストッパー２個入り
100
AcDbText
  0
LINE
  5
EE0
330
1A
100
AcDbEntity
  8
SEIHIN
  6
CONTINUOUS
 62
     3
 48
5.0
100
AcDbLine
 10
650.7025392521077
 20
441.1621675366124
 30
0.0
 11
659.1314392521078
 21
441.1621675366124
 31
0.0
  0
LINE
  5
EE1
330
1A
100
AcDbEntity
  8
SEIHIN
  6
HIDDEN
 62
     6
 48
5.0
100
AcDbLine
 10
659.4358392521078
 20
439.1621675366123
 30
0.0
 11
652.7025392521077
 21
439.1621675366123
 31
0.0
  0
LINE
  5
EE2
330
1A
100
AcDbEntity
  8
SEIHIN
  6
CONTINUOUS
 62
     3
 48
5.0
100
AcDbLine
 10
652.2025392521077
 20
424.1621675366124
 30
0.0
 11
654.2025392521077
 21
424.1621675366124
 31
0.0
  0
ARC
  5
EE3
330
1A
100
AcDbEntity
  8
SEIHIN
  6
HIDDEN
 62
     6
 48
5.0
100
AcDbCircle
 10
653.7025392521077
 20
425.6621675366123
 30
0.0
 40
1.5
100
AcDbArc
 50
180.0
 51
270.0
  0
DIMENSION
  5
EE4
330
1A
100
AcDbEntity
  8
SUNPOU
  6
CONTINUOUS
 48
5.0
100
AcDbDimension
  2
*D12
 10
635.8154949567822
 20
424.1621675366124
 30
0.0
 11
630.8154949567821
 21
430.5889442319091
 31
0.0
 70
    32
  3
STANDARD
100
AcDbAlignedDimension
 13
654.3489858615145
 23
437.0157209272056
 33
0.0
 14
654.2025392521077
 24
424.1621675366124
 34
0.0
 50
90.0
100
AcDbRotatedDimension
1001
ACAD
1000
DSTYLE
1002
{
1070
   287
1070
     5
1070
    41
1040
7.0
1070
    42
1040
6.0
1070
    43
1040
14.0
1070
    44
1040
3.0
1070
    73
1070
     0
1070
    74
1070
     0
1070
    77
1070
     3
1070
   140
1040
6.0
1070
   141
1040
150.0
1070
   147
1040
2.0
1070
   172
1070
     1
1070
   173
1070
     1
1070
   176
1070
   256
1070
   177
1070
   256
1070
   178
1070
   256
1070
   271
1070
     0
1070
   272
1070
     0
1070
   279
1070
     2
1070
   341
1005
6D
1070
     6
1000
OPEN
1070
     7
1000
OPEN
1070
   371
1070
    -1
1070
   372
1070
    -1
1002
}
  0
DIMENSION
  5
EE5
330
1A
100
AcDbEntity
  8
SUNPOU
100
AcDbDimension
  2
*D13
 10
659.6314332521077
 20
451.5698675366123
 30
0.0
 11
654.9169862521077
 21
456.5698675366124
 31
0.0
 70
    32
  3
STANDARD
100
AcDbAlignedDimension
 13
650.2025392521077
 23
440.6621675366124
 33
0.0
 14
659.6314332521077
 24
440.6621675366124
 34
0.0
100
AcDbRotatedDimension
1001
ACAD
1000
DSTYLE
1002
{
1070
   287
1070
     5
1070
    41
1040
7.0
1070
    42
1040
6.0
1070
    43
1040
14.0
1070
    44
1040
3.0
1070
    73
1070
     0
1070
    74
1070
     0
1070
    77
1070
     3
1070
   140
1040
6.0
1070
   141
1040
150.0
1070
   147
1040
2.0
1070
   172
1070
     1
1070
   173
1070
     1
1070
   176
1070
   256
1070
   177
1070
   256
1070
   178
1070
   256
1070
   271
1070
     0
1070
   272
1070
     0
1070
   279
1070
     2
1070
   341
1005
6D
1070
     6
1000
OPEN
1070
     7
1000
OPEN
1070
   371
1070
    -1
1070
   372
1070
    -1
1002
}
  0
DIMENSION
  5
EE6
330
1A
100
AcDbEntity
  8
SUNPOU
100
AcDbDimension
  2
*D14
 10
655.9307392521077
 20
408.6668001728924
 30
0.0
 11
655.0666392521077
 21
393.6668001728925
 31
0.0
 70
    32
  3
STANDARD
100
AcDbAlignedDimension
 13
654.2025392521077
 23
424.1621675366124
 33
0.0
 14
655.9307392521077
 24
436.6920675366124
 34
0.0
100
AcDbRotatedDimension
1001
ACAD
1000
DSTYLE
1002
{
1070
   287
1070
     5
1070
    41
1040
7.0
1070
    42
1040
6.0
1070
    43
1040
14.0
1070
    44
1040
3.0
1070
    73
1070
     0
1070
    74
1070
     0
1070
    77
1070
     3
1070
   140
1040
6.0
1070
   141
1040
150.0
1070
   147
1040
2.0
1070
   172
1070
     1
1070
   173
1070
     1
1070
   176
1070
   256
1070
   177
1070
   256
1070
   178
1070
   256
1070
   271
1070
     0
1070
   272
1070
     0
1070
   279
1070
     2
1070
   341
1005
6D
1070
     6
1000
OPEN
1070
     7
1000
OPEN
1070
   371
1070
    -1
1070
   372
1070
    -1
1002
}
  0
LINE
  5
EE7
330
1A
100
AcDbEntity
  8
CENTER_L
  6
CENTER
 62
     1
 48
5.0
100
AcDbLine
 10
561.0607558201422
 20
407.4670384527113
 30
0.0
 11
561.0607558201422
 21
384.467038452667
 31
0.0
  0
ARC
  5
EE8
330
1A
100
AcDbEntity
  8
SEIHIN
  6
CONTINUOUS
 62
     3
 48
5.0
100
AcDbCircle
 10
586.5608558201422
 20
399.4670884527959
 30
0.0
 40
1.0
100
AcDbArc
 50
0.0
 51
180.0
  0
LINE
  5
EE9
330
1A
100
AcDbEntity
  8
SEIHIN
  6
CONTINUOUS
 62
     3
 48
5.0
100
AcDbLine
 10
587.5608558201422
 20
391.9670884527959
 30
0.0
 11
534.5607558201423
 21
391.9670884527959
 31
0.0
  0
LINE
  5
EEA
330
1A
100
AcDbEntity
  8
SEIHIN
  6
CONTINUOUS
 62
     3
 48
5.0
100
AcDbLine
 10
587.5608558201422
 20
394.4670884527959
 30
0.0
 11
534.5607558201423
 21
394.4670884527959
 31
0.0
  0
LINE
  5
EEB
330
1A
100
AcDbEntity
  8
SEIHIN
  6
CONTINUOUS
 62
     3
 48
5.0
100
AcDbLine
 10
587.5608558201422
 20
396.4670884527959
 30
0.0
 11
534.5607558201423
 21
396.4670884527959
 31
0.0
  0
LINE
  5
EEC
330
1A
100
AcDbEntity
  8
SEIHIN
100
AcDbLine
 10
534.5607558201423
 20
391.4669864919981
 30
0.0
 11
587.5608558201422
 21
391.467090413559
 31
0.0
  0
LINE
  5
EED
330
1A
100
AcDbEntity
  8
SEIHIN
  6
CONTINUOUS
 62
     3
 48
5.0
100
AcDbLine
 10
585.5608558201423
 20
398.4670884527959
 30
0.0
 11
536.5607558201422
 21
398.4670884527959
 31
0.0
  0
LINE
  5
EEE
330
1A
100
AcDbEntity
  8
SEIHIN
  6
CONTINUOUS
 62
     3
 48
5.0
100
AcDbLine
 10
536.5607558201422
 20
398.4670884527959
 30
0.0
 11
536.5607558201422
 21
399.4669884527959
 31
0.0
  0
ARC
  5
EEF
330
1A
100
AcDbEntity
  8
SEIHIN
  6
CONTINUOUS
 62
     3
 48
5.0
100
AcDbCircle
 10
535.5607558201422
 20
399.4669884527959
 30
0.0
 40
1.0
100
AcDbArc
 50
0.0
 51
180.0
  0
LINE
  5
EF0
330
1A
100
AcDbEntity
  8
SEIHIN
  6
CONTINUOUS
 62
     3
 48
5.0
100
AcDbLine
 10
534.5607558201423
 20
391.4669864919981
 30
0.0
 11
534.5607558201423
 21
399.4669884527959
 31
0.0
  0
LINE
  5
EF1
330
1A
100
AcDbEntity
  8
SEIHIN
  6
CONTINUOUS
 62
     3
 48
5.0
100
AcDbLine
 10
585.5608558201423
 20
398.4670884527959
 30
0.0
 11
585.5608558201423
 21
399.4670884527959
 31
0.0
  0
LINE
  5
EF2
330
1A
100
AcDbEntity
  8
SEIHIN
  6
CONTINUOUS
 62
     3
 48
5.0
100
AcDbLine
 10
587.5608558201422
 20
391.467090413559
 30
0.0
 11
587.5608558201422
 21
399.4670884527959
 31
0.0
  0
ARC
  5
EF5
330
1A
100
AcDbEntity
  8
SEIHIN
  6
CONTINUOUS
 62
     3
 48
5.0
100
AcDbCircle
 10
586.5608558201422
 20
440.1621675366124
 30
0.0
 40
1.0
100
AcDbArc
 50
0.0
 51
180.0
  0
ARC
  5
EF6
330
1A
100
AcDbEntity
  8
SEIHIN
  6
CONTINUOUS
 62
     3
 48
5.0
100
AcDbCircle
 10
586.5608558201422
 20
425.1621675366124
 30
0.0
 40
1.0
100
AcDbArc
 50
180.0
 51
0.0
  0
DIMENSION
  5
EF7
330
1A
100
AcDbEntity
  8
SUNPOU
 48
5.0
100
AcDbDimension
  2
*D15
 10
606.616315650021
 20
424.1647088367816
 30
0.0
 11
601.6163156500209
 21
431.663438186697
 31
0.0
 70
    32
  3
STANDARD
100
AcDbAlignedDimension
 13
585.5608558201423
 23
439.1621675366123
 33
0.0
 14
586.6321028701301
 24
424.1647088367816
 34
0.0
 50
90.0
100
AcDbRotatedDimension
1001
ACAD
1000
DSTYLE
1002
{
1070
   287
1070
     5
1070
    41
1040
7.0
1070
    42
1040
6.0
1070
    43
1040
14.0
1070
    44
1040
3.0
1070
    73
1070
     0
1070
    74
1070
     0
1070
    77
1070
     3
1070
   140
1040
6.0
1070
   141
1040
150.0
1070
   147
1040
2.0
1070
   172
1070
     1
1070
   173
1070
     1
1070
   176
1070
   256
1070
   177
1070
   256
1070
   178
1070
   256
1070
   271
1070
     0
1070
   272
1070
     0
1070
   279
1070
     2
1070
   341
1005
6D
1070
     6
1000
OPEN
1070
     7
1000
OPEN
1070
   371
1070
    -1
1070
   372
1070
    -1
1002
}
  0
LINE
  5
EFB
330
1A
100
AcDbEntity
  8
SEIHIN
  6
CONTINUOUS
 62
     3
 48
5.0
100
AcDbLine
 10
561.0607558201422
 20
424.1620675366124
 30
0.0
 11
535.5607558201422
 21
424.1620675366124
 31
0.0
  0
LINE
  5
EFC
330
1A
100
AcDbEntity
  8
SEIHIN
  6
CONTINUOUS
 62
     3
 48
5.0
100
AcDbLine
 10
536.5607558201422
 20
439.1620675366124
 30
0.0
 11
561.0607558201422
 21
439.1621675366123
 31
0.0
  0
LINE
  5
EFD
330
1A
100
AcDbEntity
  8
SEIHIN
  6
CONTINUOUS
 62
     3
 48
5.0
100
AcDbLine
 10
534.5607558201423
 20
425.1620675366124
 30
0.0
 11
534.5607558201423
 21
440.1620675366124
 31
0.0
  0
LINE
  5
EFE
330
1A
100
AcDbEntity
  8
SEIHIN
  6
CONTINUOUS
 62
     3
 48
5.0
100
AcDbLine
 10
536.5607558201422
 20
425.1620675366124
 30
0.0
 11
536.5607558201422
 21
440.1620675366124
 31
0.0
  0
ARC
  5
EFF
330
1A
100
AcDbEntity
  8
SEIHIN
  6
CONTINUOUS
 62
     3
 48
5.0
100
AcDbCircle
 10
535.5607558201422
 20
425.1620675366124
 30
0.0
 40
1.0
100
AcDbArc
 50
180.0
 51
0.0
  0
ARC
  5
F00
330
1A
100
AcDbEntity
  8
SEIHIN
  6
CONTINUOUS
 62
     3
 48
5.0
100
AcDbCircle
 10
535.5607558201422
 20
440.1620675366124
 30
0.0
 40
1.0
100
AcDbArc
 50
0.0
 51
180.0
  0
LINE
  5
F01
330
1A
100
AcDbEntity
  8
CENTER_L
  6
CENTER
 62
     1
 48
5.0
100
AcDbLine
 10
561.0607558201422
 20
443.6429675366124
 30
0.0
 11
561.0607558201422
 21
418.9105675366124
 31
0.0
  0
LINE
  5
F02
330
1A
100
AcDbEntity
  8
SEIHIN
  6
CONTINUOUS
 62
     3
 48
5.0
100
AcDbLine
 10
561.0608558201422
 20
424.1621675366124
 30
0.0
 11
586.5608558201422
 21
424.1621675366124
 31
0.0
  0
LINE
  5
F03
330
1A
100
AcDbEntity
  8
SEIHIN
  6
CONTINUOUS
 62
     3
 48
5.0
100
AcDbLine
 10
585.5608558201423
 20
439.1621675366123
 30
0.0
 11
561.0608558201422
 21
439.1621675366123
 31
0.0
  0
LINE
  5
F04
330
1A
100
AcDbEntity
  8
SEIHIN
  6
CONTINUOUS
 62
     3
 48
5.0
100
AcDbLine
 10
585.5608558201423
 20
425.1621675366124
 30
0.0
 11
585.5608558201423
 21
440.1621675366124
 31
0.0
  0
LINE
  5
F09
330
1A
100
AcDbEntity
  8
SEIHIN
  6
CONTINUOUS
 62
     3
 48
5.0
100
AcDbLine
 10
587.5608558201422
 20
425.1621675366124
 30
0.0
 11
587.5608558201422
 21
440.1621675366124
 31
0.0
  0
LINE
  5
F0A
330
1A
100
AcDbEntity
  8
SEIHIN
  6
CONTINUOUS
 62
     3
 48
5.0
100
AcDbLine
 10
650.2025392521077
 20
440.6621675366124
 30
0.0
 11
650.2025392521077
 21
426.1621675366123
 31
0.0
  0
LINE
  5
F0B
330
1A
100
AcDbEntity
  8
SEIHIN
  6
HIDDEN
 62
     6
 48
5.0
100
AcDbLine
 10
652.2025392521077
 20
425.6621675366123
 30
0.0
 11
652.2025392521077
 21
438.6621675366123
 31
0.0
  0
ARC
  5
F0C
330
1A
100
AcDbEntity
  8
SEIHIN
  6
CONTINUOUS
 62
     3
 48
5.0
100
AcDbCircle
 10
652.2025392521077
 20
426.1621675366123
 30
0.0
 40
2.0
100
AcDbArc
 50
180.0
 51
270.0
  0
ARC
  5
F0D
330
1A
100
AcDbEntity
  8
SEIHIN
  6
CONTINUOUS
 62
     3
 48
5.0
100
AcDbCircle
 10
650.7025392521077
 20
440.6621675366124
 30
0.0
 40
0.5
100
AcDbArc
 50
90.0
 51
180.0
  0
ARC
  5
F0E
330
1A
100
AcDbEntity
  8
SEIHIN
  6
HIDDEN
 62
     6
 48
5.0
100
AcDbCircle
 10
652.7025392521077
 20
438.6621675366123
 30
0.0
 40
0.5
100
AcDbArc
 50
90.0
 51
180.0
  0
DIMENSION
  5
F0F
330
1A
100
AcDbEntity
  8
SUNPOU
  6
CONTINUOUS
 48
5.0
100
AcDbDimension
  2
*D16
 10
678.8031736522355
 20
432.1621675366124
 30
0.0
 11
688.194825950989
 21
431.3772123172919
 31
0.0
 70
   160
  1
差込み寸法<>
  3
STANDARD
100
AcDbAlignedDimension
 13
655.4316392521077
 23
437.1621675366124
 33
0.0
 14
658.7025392521077
 24
432.1621675366124
 34
0.0
 50
90.0
100
AcDbRotatedDimension
1001
ACAD
1000
DSTYLE
1002
{
1070
   287
1070
     5
1070
    41
1040
7.0
1070
    42
1040
6.0
1070
    43
1040
14.0
1070
    44
1040
3.0
1070
    73
1070
     0
1070
    74
1070
     0
1070
    77
1070
     3
1070
   140
1040
6.0
1070
   141
1040
150.0
1070
   147
1040
2.0
1070
   172
1070
     1
1070
   173
1070
     1
1070
   176
1070
   256
1070
   177
1070
   256
1070
   178
1070
   256
1070
   271
1070
     0
1070
   272
1070
     0
1070
   279
1070
     2
1070
   341
1005
6D
1070
     6
1000
OPEN
1070
     7
1000
OPEN
1070
   371
1070
    -1
1070
   372
1070
    -1
1002
}
  0
LINE
  5
F10
330
1A
100
AcDbEntity
  8
SEIHIN
  6
CONTINUOUS
 62
     3
 48
5.0
100
AcDbLine
 10
658.7025392521077
 20
433.6621675366123
 30
0.0
 11
659.6270392521078
 21
440.5960675366124
 31
0.0
  0
LINE
  5
F11
330
1A
100
AcDbEntity
  8
SEIHIN
  6
CONTINUOUS
 62
     3
 48
5.0
100
AcDbLine
 10
655.9307392521077
 20
436.6920675366124
 30
0.0
 11
656.1461392521078
 21
433.1022675366123
 31
0.0
  0
LINE
  5
F12
330
1A
100
AcDbEntity
  8
SEIHIN
  6
CONTINUOUS
 62
     3
 48
5.0
100
AcDbLine
 10
654.2025392521077
 20
436.6621675366124
 30
0.0
 11
654.2025392521077
 21
424.1621675366124
 31
0.0
  0
LINE
  5
F13
330
1A
100
AcDbEntity
  8
SEIHIN
  6
CONTINUOUS
 62
     3
 48
5.0
100
AcDbLine
 10
657.1443392521078
 20
432.1621675366124
 30
0.0
 11
658.7025392521077
 21
432.1621675366124
 31
0.0
  0
LINE
  5
F14
330
1A
100
AcDbEntity
  8
SEIHIN
  6
CONTINUOUS
 62
     3
 48
5.0
100
AcDbLine
 10
658.7025392521077
 20
432.1621675366124
 30
0.0
 11
658.7025392521077
 21
433.6621675366123
 31
0.0
  0
ARC
  5
F15
330
1A
100
AcDbEntity
  8
SEIHIN
  6
CONTINUOUS
 62
     3
 48
5.0
100
AcDbCircle
 10
657.1443392521078
 20
433.1621675366124
 30
0.0
 40
0.9999979999999998
100
AcDbArc
 50
183.434088
 51
270.0
  0
ARC
  5
F16
330
1A
100
AcDbEntity
  8
SEIHIN
  6
CONTINUOUS
 62
     3
 48
5.0
100
AcDbCircle
 10
659.1314392521078
 20
440.6621675366124
 30
0.0
 40
0.499994
100
AcDbArc
 50
352.4030849999995
 51
90.0
  0
ARC
  5
F17
330
1A
100
AcDbEntity
  8
SEIHIN
  6
CONTINUOUS
 62
     3
 48
5.0
100
AcDbCircle
 10
654.7025392521077
 20
436.6621675366124
 30
0.0
 40
0.5
100
AcDbArc
 50
90.0
 51
180.0
  0
LINE
  5
F18
330
1A
100
AcDbEntity
  8
SEIHIN
  6
CONTINUOUS
 62
     3
 48
5.0
100
AcDbLine
 10
654.7025392521077
 20
437.1621675366124
 30
0.0
 11
655.4316392521077
 21
437.1621675366124
 31
0.0
  0
ARC
  5
F19
330
1A
100
AcDbEntity
  8
SEIHIN
  6
CONTINUOUS
 62
     3
 48
5.0
100
AcDbCircle
 10
655.4316392521077
 20
436.6621675366124
 30
0.0
 40
0.4999970000000001
100
AcDbArc
 50
3.428369000000773
 51
90.0
  0
DIMENSION
  5
14A2
330
1A
100
AcDbEntity
  8
SUNPOU
100
AcDbDimension
  2
*D17
 10
587.5608558201422
 20
461.4250705305221
 30
0.0
 11
561.0608058201422
 21
466.4250705305221
 31
0.0
 70
    32
  3
STANDARD
100
AcDbAlignedDimension
 13
534.5607558201423
 23
440.1620675366124
 33
0.0
 14
587.5608558201422
 24
440.1621675366124
 34
0.0
100
AcDbRotatedDimension
1001
ACAD
1000
DSTYLE
1002
{
1070
   287
1070
     5
1070
    41
1040
7.0
1070
    42
1040
6.0
1070
    43
1040
14.0
1070
    44
1040
3.0
1070
    73
1070
     0
1070
    74
1070
     0
1070
    77
1070
     3
1070
   140
1040
6.0
1070
   141
1040
150.0
1070
   147
1040
2.0
1070
   172
1070
     1
1070
   173
1070
     1
1070
   176
1070
   256
1070
   177
1070
   256
1070
   178
1070
   256
1070
   271
1070
     0
1070
   272
1070
     0
1070
   279
1070
     2
1070
   341
1005
6D
1070
     6
1000
OPEN
1070
     7
1000
OPEN
1070
   371
1070
    -1
1070
   372
1070
    -1
1002
}
  0
DIMENSION
  5
18A5
330
1A
100
AcDbEntity
  8
SUNPOU
100
AcDbDimension
  2
*D18
 10
513.6790496577328
 20
424.1620675366124
 30
0.0
 11
508.6790496577326
 21
432.6620675366124
 31
0.0
 70
    32
  3
STANDARD
100
AcDbAlignedDimension
 13
535.5607558201422
 23
441.1620675366124
 33
0.0
 14
535.5607558201422
 24
424.1620675366124
 34
0.0
 50
90.0
100
AcDbRotatedDimension
1001
ACAD
1000
DSTYLE
1002
{
1070
   287
1070
     5
1070
    41
1040
7.0
1070
    42
1040
6.0
1070
    43
1040
14.0
1070
    44
1040
3.0
1070
    73
1070
     0
1070
    74
1070
     0
1070
    77
1070
     3
1070
   140
1040
6.0
1070
   141
1040
150.0
1070
   147
1040
2.0
1070
   172
1070
     1
1070
   173
1070
     1
1070
   176
1070
   256
1070
   177
1070
   256
1070
   178
1070
   256
1070
   271
1070
     0
1070
   272
1070
     0
1070
   279
1070
     2
1070
   341
1005
6D
1070
     6
1000
OPEN
1070
     7
1000
OPEN
1070
   371
1070
    -1
1070
   372
1070
    -1
1002
}
  0
LINE
  5
18CA
330
1A
100
AcDbEntity
  8
ZUWAKU
100
AcDbLine
 10
208.6466016834092
 20
15.19999965533644
 30
0.0
 11
447.4243643643326
 21
15.19999965533644
 31
0.0
  0
LINE
  5
18CB
330
1A
100
AcDbEntity
  8
ZUWAKU
100
AcDbLine
 10
208.6466016834092
 20
15.59999965533644
 30
0.0
 11
447.4243643643326
 21
15.59999965533645
 31
0.0
  0
LINE
  5
18CC
330
1A
100
AcDbEntity
  8
ZUWAKU
100
AcDbLine
 10
208.6466016834092
 20
15.39999965533644
 30
0.0
 11
447.4243643643326
 21
15.39999965533644
 31
0.0
  0
LINE
  5
18CD
330
1A
100
AcDbEntity
  8
ZUWAKU
100
AcDbLine
 10
0.0000003933412245
 20
30.79999965533642
 30
0.0
 11
797.4000003933411
 21
30.79999965533642
 31
0.0
  0
LINE
  5
18CE
330
1A
100
AcDbEntity
  8
ZUWAKU
100
AcDbLine
 10
0.0000003933412245
 20
30.59999965533641
 30
0.0
 11
797.4000003933411
 21
30.59999965533641
 31
0.0
  0
LINE
  5
18CF
330
1A
100
AcDbEntity
  8
ZUWAKU
100
AcDbLine
 10
0.0000003933412245
 20
30.39999965533641
 30
0.0
 11
797.4000003933411
 21
30.39999965533641
 31
0.0
  0
LINE
  5
18D0
330
1A
100
AcDbEntity
  8
ZUWAKU
100
AcDbLine
 10
0.0000003933412245
 20
30.19999965533641
 30
0.0
 11
797.4000003933411
 21
30.19999965533641
 31
0.0
  0
LINE
  5
18D1
330
1A
100
AcDbEntity
  8
ZUWAKU
100
AcDbLine
 10
0.0000003933412245
 20
29.99999965533641
 30
0.0
 11
797.4000003933411
 21
29.99999965533641
 31
0.0
  0
LWPOLYLINE
  5
18D2
330
1A
100
AcDbEntity
  8
ZUWAKU
100
AcDbPolyline
 90
        4
 70
     1
 43
0.0
 10
0.2000003933411563
 20
551.3999996553365
 10
0.2000003933411563
 20
0.1999996553364553
 10
797.4000003933411
 20
0.1999996553364784
 10
797.4000003933412
 20
551.3999996553365
  0
LWPOLYLINE
  5
18D3
330
1A
100
AcDbEntity
  8
ZUWAKU
100
AcDbPolyline
 90
        4
 70
     1
 43
0.0
 10
0.6000003933411336
 20
550.9999996553365
 10
0.6000003933411336
 20
0.5999996553364327
 10
797.0000003933415
 20
0.5999996553364788
 10
797.0000003933412
 20
550.9999996553365
  0
LWPOLYLINE
  5
18D4
330
1A
100
AcDbEntity
  8
ZUWAKU
100
AcDbPolyline
 90
        4
 70
     1
 43
0.0
 10
0.0000003933412245
 20
551.5999996553364
 10
0.0000003933412245
 20
-0.0000003446635901
 10
797.6000003933413
 20
-0.0000003446635226
 10
797.6000003933413
 20
551.5999996553365
  0
LWPOLYLINE
  5
18D5
330
1A
100
AcDbEntity
  8
ZUWAKU
100
AcDbPolyline
 90
        4
 70
     1
 43
0.0
 10
0.4000003933412018
 20
551.1999996553364
 10
0.4000003933412018
 20
0.3999996553365008
 10
797.2000003933413
 20
0.3999996553364777
 10
797.2000003933413
 20
551.1999996553364
  0
LWPOLYLINE
  5
18D6
330
1A
100
AcDbEntity
  8
ZUWAKU
100
AcDbPolyline
 90
        4
 70
     1
 43
0.0
 10
0.800000393341179
 20
550.7999996553365
 10
0.800000393341179
 20
0.7999996553364781
 10
796.8000003933411
 20
0.7999996553364781
 10
796.8000003933411
 20
550.7999996553365
  0
TEXT
  5
18D7
330
1A
100
AcDbEntity
  8
MOJI
100
AcDbText
 10
92.95778998151035
 20
12.74117778561117
 30
0.0
 40
6.0
  1
アートフェイスＨ１２０
 41
0.9
  7
ｽﾀｲﾙ1
100
AcDbText
  0
HATCH
  5
18D8
330
1A
100
AcDbEntity
  8
ZUWAKU
100
AcDbHatch
 10
0.0
 20
0.0
 30
0.0
210
0.0
220
0.0
230
1.0
  2
ANSI37
 70
     0
 71
     0
 91
        8
 92
        7
 72
     1
 73
     1
 93
       24
 10
14.50226305446108
 20
17.64484813631999
 42
-0.1989123673796348
 10
14.09221254812234
 20
18.63479762998104
 42
0.0
 10
14.09221254812234
 20
19.92499965533642
 42
-0.4142135623730912
 10
14.61721254812232
 20
20.44999965533641
 42
0.0
 10
17.59221254812223
 20
20.44999965533641
 42
0.4142135623731546
 10
18.11721254812232
 20
20.9749996553364
 42
0.0
 10
18.11721254812232
 20
22.72499965533641
 42
0.4142135623731586
 10
17.59221254812223
 20
23.24999965533641
 42
0.0
 10
14.09221254812234
 20
23.24999965533641
 42
0.4142135623730928
 10
11.29221254812239
 20
20.44999965533644
 42
0.0
 10
11.29221254812239
 20
18.63479762998117
 42
0.1989123673796619
 10
12.52236406713882
 20
15.66494914899756
 42
0.0
 10
15.43216204178349
 20
12.7551511743529
 42
-0.1989123673796613
 10
15.84221254812234
 20
11.76520168069172
 42
0.0
 10
15.84221254812234
 20
10.4749996553364
 42
-0.4142135623730911
 10
15.31721254812237
 20
9.949999655336412
 42
0.0
 10
12.34221254812246
 20
9.949999655336412
 42
0.4142135623731526
 10
11.81721254812237
 20
9.424999655336424
 42
0.0
 10
11.81721254812237
 20
7.674999655336403
 42
0.4142135623731526
 10
12.34221254812246
 20
7.149999655336415
 42
0.0
 10
15.84221254812234
 20
7.149999655336415
 42
0.4142135623731044
 10
18.64221254812241
 20
9.949999655336391
 42
0.0
 10
18.64221254812241
 20
11.76520168069166
 42
0.1989123673796604
 10
17.41206102910587
 20
14.7350501616752
 42
0.0
 97
        0
 92
        7
 72
     1
 73
     1
 93
       16
 10
23.54221254812239
 20
19.04999965533642
 42
-0.4142135623730935
 10
24.94221254812237
 20
20.44999965533641
 42
0.0
 10
26.86721254812232
 20
20.44999965533641
 42
0.4142135623731546
 10
27.39221254812241
 20
20.9749996553364
 42
0.0
 10
27.39221254812241
 20
22.72499965533641
 42
0.4142135623730951
 10
26.86721254812244
 20
23.24999965533641
 42
0.0
 10
24.94221254812226
 20
23.24999965533637
 42
0.4142135623730892
 10
20.74221254812232
 20
19.04999965533635
 42
0.0
 10
20.74221254812232
 20
11.34999965533644
 42
0.4142135623730969
 10
24.94221254812237
 20
7.149999655336415
 42
0.0
 10
26.86721254812232
 20
7.149999655336415
 42
0.4142135623731526
 10
27.39221254812241
 20
7.674999655336403
 42
0.0
 10
27.39221254812241
 20
9.424999655336424
 42
0.4142135623730891
 10
26.86721254812244
 20
9.949999655336412
 42
0.0
 10
24.94221254812237
 20
9.949999655336412
 42
-0.4142135623730928
 10
23.54221254812239
 20
11.3499996553364
 42
0.0
 97
        0
 92
        7
 72
     1
 73
     1
 93
        2
 10
24.24221254812232
 20
15.19999965533641
 42
1.0
 10
27.74221254812232
 20
15.19999965533641
 42
1.0
 97
        0
 92
        7
 72
     1
 73
     1
 93
       26
 10
37.31485903030034
 20
19.20504684889984
 42
0.0
 10
38.37649866343815
 20
22.56690568716943
 42
0.5069206636600134
 10
37.8758677642428
 20
23.24999965533641
 42
0.0
 10
36.17697838463357
 20
23.24999965533641
 42
0.3272098845218764
 10
35.67634748543821
 20
22.88309362350338
 42
0.0
 10
33.80807761080643
 20
16.96690568716949
 42
-0.3272098845219541
 10
33.30744671161096
 20
16.59999965533641
 42
0.0
 10
33.1672125481225
 20
16.59999965533641
 42
-0.4142135623731526
 10
32.64221254812241
 20
17.12499965533639
 42
0.0
 10
32.64221254812241
 20
22.72499965533641
 42
0.4142135623730951
 10
32.11721254812244
 20
23.24999965533641
 42
0.0
 10
30.36721254812232
 20
23.24999965533641
 42
0.4142135623730871
 10
29.84221254812235
 20
22.72499965533643
 42
0.0
 10
29.84221254812235
 20
7.674999655336403
 42
0.4142135623730891
 10
30.36721254812232
 20
7.149999655336415
 42
0.0
 10
32.11721254812232
 20
7.149999655336415
 42
0.4142135623731526
 10
32.64221254812241
 20
7.674999655336403
 42
0.0
 10
32.64221254812241
 20
13.27499965533642
 42
-0.4142135623731526
 10
33.1672125481225
 20
13.79999965533641
 42
0.0
 10
33.30744671161108
 20
13.79999965533641
 42
-0.3272098845218915
 10
33.80807761080643
 20
13.43309362350334
 42
0.0
 10
35.67634748543821
 20
7.516905687169487
 42
0.3272098845218902
 10
36.17697838463357
 20
7.149999655336415
 42
0.0
 10
37.8758677642428
 20
7.149999655336415
 42
0.5069206636600335
 10
38.37649866343815
 20
7.833093623503422
 42
0.0
 10
36.05010728496449
 20
15.19999965533655
 42
0.0
 97
        0
 92
        7
 72
     1
 73
     1
 93
        8
 10
43.49221254812232
 20
22.72499965533642
 42
0.4142135623731546
 10
42.96721254812223
 20
23.24999965533641
 42
0.0
 10
41.21721254812245
 20
23.24999965533641
 42
0.4142135623731507
 10
40.69221254812236
 20
22.72499965533643
 42
0.0
 10
40.69221254812236
 20
7.674999655336403
 42
0.4142135623731526
 10
41.21721254812245
 20
7.149999655336415
 42
0.0
 10
42.96721254812223
 20
7.149999655336415
 42
0.4142135623731526
 10
43.49221254812232
 20
7.674999655336403
 42
0.0
 97
        0
 92
        7
 72
     1
 73
     1
 93
       24
 10
48.39221254812241
 20
19.92499965533642
 42
-0.4142135623731546
 10
48.9172125481225
 20
20.44999965533641
 42
0.0
 10
51.89221254812242
 20
20.44999965533641
 42
0.4142135623730911
 10
52.41721254812239
 20
20.9749996553364
 42
0.0
 10
52.41721254812239
 20
22.72499965533641
 42
0.4142135623730952
 10
51.89221254812242
 20
23.24999965533641
 42
0.0
 10
48.39221254812241
 20
23.24999965533641
 42
0.4142135623731048
 10
45.59221254812235
 20
20.44999965533644
 42
0.0
 10
45.59221254812235
 20
18.63479762998117
 42
0.1989123673796613
 10
46.82236406713889
 20
15.66494914899762
 42
0.0
 10
49.73216204178356
 20
12.75515117435295
 42
-0.1989123673796402
 10
50.14221254812241
 20
11.76520168069188
 42
0.0
 10
50.14221254812241
 20
10.4749996553364
 42
-0.4142135623730911
 10
49.61721254812244
 20
9.949999655336412
 42
0.0
 10
46.64221254812241
 20
9.949999655336412
 42
0.4142135623731526
 10
46.11721254812232
 20
9.424999655336424
 42
0.0
 10
46.11721254812232
 20
7.674999655336403
 42
0.4142135623730891
 10
46.6422125481223
 20
7.149999655336415
 42
0.0
 10
50.14221254812241
 20
7.149999655336415
 42
0.4142135623730925
 10
52.94221254812237
 20
9.949999655336391
 42
0.0
 10
52.94221254812237
 20
11.76520168069166
 42
0.1989123673796675
 10
51.71206102910582
 20
14.73505016167531
 42
0.0
 10
48.80226305446126
 20
17.64484813631983
 42
-0.1989123673796652
 10
48.39221254812241
 20
18.634797629981
 42
0.0
 97
        0
 92
        7
 72
     1
 73
     1
 93
       16
 10
57.84221254812234
 20
22.7249996553364
 42
0.414213562373103
 10
57.31721254812237
 20
23.24999965533641
 42
0.0
 10
55.56721254812237
 20
23.24999965533641
 42
0.4142135623730871
 10
55.0422125481224
 20
22.72499965533643
 42
0.0
 10
55.0422125481224
 20
9.949999655336391
 42
0.4142135623730926
 10
57.84221254812234
 20
7.149999655336415
 42
0.0
 10
61.34221254812235
 20
7.149999655336415
 42
0.4142135623731044
 10
64.14221254812241
 20
9.949999655336391
 42
0.0
 10
64.14221254812241
 20
22.72499965533641
 42
0.4142135623730951
 10
63.61721254812244
 20
23.24999965533641
 42
0.0
 10
61.86721254812233
 20
23.24999965533641
 42
0.4142135623730871
 10
61.34221254812235
 20
22.72499965533643
 42
0.0
 10
61.34221254812235
 20
10.99999965533638
 42
-0.414213562373088
 10
60.29221254812239
 20
9.949999655336412
 42
0.0
 10
58.89221254812241
 20
9.949999655336412
 42
-0.4142135623731197
 10
57.84221254812234
 20
10.99999965533638
 42
0.0
 97
        0
 92
        7
 72
     1
 73
     1
 93
        8
 10
69.04221254812239
 20
22.72499965533643
 42
0.4142135623730871
 10
68.51721254812241
 20
23.24999965533641
 42
0.0
 10
66.76721254812242
 20
23.24999965533641
 42
0.4142135623731507
 10
66.24221254812233
 20
22.72499965533643
 42
0.0
 10
66.24221254812233
 20
7.674999655336403
 42
0.4142135623730891
 10
66.7672125481223
 20
7.149999655336415
 42
0.0
 10
68.51721254812241
 20
7.149999655336415
 42
0.4142135623730891
 10
69.04221254812239
 20
7.674999655336403
 42
0.0
 97
        0
 75
     0
 76
     1
 52
0.0
 41
0.2
 77
     0
 78
     2
 53
45.0
 43
-900.9423039413377
 44
-13.20000034466352
 45
-0.4490128060534576
 46
0.4490128060534577
 79
     0
 53
135.0
 43
-900.9423039413377
 44
-13.20000034466352
 45
-0.4490128060534577
 46
-0.4490128060534576
 79
     0
 47
0.057451373970553
 98
        8
 10
16.07985535636453
 20
15.16717330122196
 10
22.40451539978039
 20
18.84406183778742
 10
25.16436827900088
 20
15.51188130140713
 10
30.91406037497836
 20
16.20129730177791
 10
41.83847241229796
 20
16.66090956931952
 10
46.89820128847077
 20
19.41857597174362
 10
56.55768636574157
 20
18.72915757043142
 10
67.82708001296396
 20
19.18876983797304
  0
LINE
  5
18D9
330
1A
100
AcDbEntity
  8
ZUWAKU
100
AcDbLine
 10
24.94221254812237
 20
23.24999965533637
 30
0.0
 11
26.86721254812232
 21
23.24999965533641
 31
0.0
  0
LINE
  5
18DA
330
1A
100
AcDbEntity
  8
ZUWAKU
100
AcDbLine
 10
26.86721254812232
 20
20.44999965533641
 30
0.0
 11
24.94221254812237
 21
20.44999965533641
 31
0.0
  0
LINE
  5
18DB
330
1A
100
AcDbEntity
  8
ZUWAKU
100
AcDbLine
 10
24.94221254812237
 20
9.949999655336412
 30
0.0
 11
26.86721254812232
 21
9.949999655336412
 31
0.0
  0
LINE
  5
18DC
330
1A
100
AcDbEntity
  8
ZUWAKU
100
AcDbLine
 10
26.86721254812232
 20
7.149999655336415
 30
0.0
 11
24.94221254812237
 21
7.149999655336415
 31
0.0
  0
CIRCLE
  5
18DD
330
1A
100
AcDbEntity
  8
ZUWAKU
100
AcDbCircle
 10
25.99221254812232
 20
15.19999965533641
 30
0.0
 40
1.75
  0
ARC
  5
18DE
330
1A
100
AcDbEntity
  8
ZUWAKU
100
AcDbCircle
 10
15.49221254812232
 20
18.63479762998111
 30
0.0
 40
1.399999999999999
100
AcDbArc
 50
180.0000000000016
 51
224.9999999999988
  0
LINE
  5
18DF
330
1A
100
AcDbEntity
  8
ZUWAKU
100
AcDbLine
 10
23.54221254812239
 20
19.04999965533641
 30
0.0
 11
23.54221254812239
 21
11.34999965533641
 31
0.0
  0
LINE
  5
18E0
330
1A
100
AcDbEntity
  8
ZUWAKU
100
AcDbLine
 10
20.74221254812232
 20
11.34999965533641
 30
0.0
 11
20.74221254812232
 21
19.04999965533637
 31
0.0
  0
ARC
  5
18E1
330
1A
100
AcDbEntity
  8
ZUWAKU
100
AcDbCircle
 10
15.49221254812232
 20
18.63479762998111
 30
0.0
 40
4.199999999999999
100
AcDbArc
 50
180.0
 51
225.0
  0
ARC
  5
18E2
330
1A
100
AcDbEntity
  8
ZUWAKU
100
AcDbCircle
 10
15.84221254812234
 20
9.949999655336412
 30
0.0
 40
2.799999999999999
100
AcDbArc
 50
270.0
 51
0.0
  0
ARC
  5
18E3
330
1A
100
AcDbEntity
  8
ZUWAKU
100
AcDbCircle
 10
24.94221254812237
 20
11.34999965533641
 30
0.0
 40
4.199999999999999
100
AcDbArc
 50
180.0
 51
270.0
  0
ARC
  5
18E4
330
1A
100
AcDbEntity
  8
ZUWAKU
100
AcDbCircle
 10
14.44221254812237
 20
11.76520168069171
 30
0.0
 40
4.199999999999999
100
AcDbArc
 50
0.0
 51
45.0
  0
LINE
  5
18E5
330
1A
100
AcDbEntity
  8
ZUWAKU
100
AcDbLine
 10
17.41206102910587
 20
14.73505016167524
 30
0.0
 11
14.50226305446119
 21
17.64484813631991
 31
0.0
  0
LINE
  5
18E6
330
1A
100
AcDbEntity
  8
ZUWAKU
100
AcDbLine
 10
15.84221254812234
 20
10.47499965533641
 30
0.0
 11
15.84221254812234
 21
11.76520168069176
 31
0.0
  0
ARC
  5
18E7
330
1A
100
AcDbEntity
  8
ZUWAKU
100
AcDbCircle
 10
15.31721254812237
 20
10.47499965533641
 30
0.0
 40
0.525
100
AcDbArc
 50
270.0
 51
0.0
  0
ARC
  5
18E8
330
1A
100
AcDbEntity
  8
ZUWAKU
100
AcDbCircle
 10
14.44221254812237
 20
11.76520168069176
 30
0.0
 40
1.399999999999999
100
AcDbArc
 50
0.0
 51
45.0
  0
LINE
  5
18E9
330
1A
100
AcDbEntity
  8
ZUWAKU
100
AcDbLine
 10
11.81721254812237
 20
7.674999655336414
 30
0.0
 11
11.81721254812237
 21
9.424999655336414
 31
0.0
  0
ARC
  5
18EA
330
1A
100
AcDbEntity
  8
ZUWAKU
100
AcDbCircle
 10
12.34221254812234
 20
7.674999655336414
 30
0.0
 40
0.525
100
AcDbArc
 50
180.0
 51
270.0
  0
ARC
  5
18EB
330
1A
100
AcDbEntity
  8
ZUWAKU
100
AcDbCircle
 10
12.34221254812234
 20
9.424999655336414
 30
0.0
 40
0.525
100
AcDbArc
 50
90.0
 51
180.0
  0
LINE
  5
18EC
330
1A
100
AcDbEntity
  8
ZUWAKU
100
AcDbLine
 10
12.34221254812234
 20
7.149999655336415
 30
0.0
 11
15.84221254812234
 21
7.149999655336415
 31
0.0
  0
LINE
  5
18ED
330
1A
100
AcDbEntity
  8
ZUWAKU
100
AcDbLine
 10
12.34221254812234
 20
9.949999655336412
 30
0.0
 11
15.31721254812237
 21
9.949999655336412
 31
0.0
  0
LINE
  5
18EE
330
1A
100
AcDbEntity
  8
ZUWAKU
100
AcDbLine
 10
12.52236406713882
 20
15.66494914899759
 30
0.0
 11
15.43216204178349
 21
12.75515117435293
 31
0.0
  0
LINE
  5
18EF
330
1A
100
AcDbEntity
  8
ZUWAKU
100
AcDbLine
 10
18.64221254812241
 20
9.949999655336412
 30
0.0
 11
18.64221254812241
 21
11.76520168069176
 31
0.0
  0
ARC
  5
18F0
330
1A
100
AcDbEntity
  8
ZUWAKU
100
AcDbCircle
 10
24.94221254812237
 20
11.34999965533641
 30
0.0
 40
1.399999999999999
100
AcDbArc
 50
180.0
 51
270.0
  0
ARC
  5
18F1
330
1A
100
AcDbEntity
  8
ZUWAKU
100
AcDbCircle
 10
17.59221254812234
 20
22.72499965533641
 30
0.0
 40
0.525
100
AcDbArc
 50
0.0
 51
90.0
  0
ARC
  5
18F2
330
1A
100
AcDbEntity
  8
ZUWAKU
100
AcDbCircle
 10
17.59221254812234
 20
20.97499965533641
 30
0.0
 40
0.525
100
AcDbArc
 50
270.0
 51
0.0
  0
LINE
  5
18F3
330
1A
100
AcDbEntity
  8
ZUWAKU
100
AcDbLine
 10
14.09221254812234
 20
23.24999965533641
 30
0.0
 11
17.59221254812234
 21
23.24999965533641
 31
0.0
  0
ARC
  5
18F4
330
1A
100
AcDbEntity
  8
ZUWAKU
100
AcDbCircle
 10
14.61721254812232
 20
19.92499965533641
 30
0.0
 40
0.525
100
AcDbArc
 50
90.0
 51
180.0
  0
LINE
  5
18F5
330
1A
100
AcDbEntity
  8
ZUWAKU
100
AcDbLine
 10
14.09221254812234
 20
19.92499965533641
 30
0.0
 11
14.09221254812234
 21
18.63479762998107
 31
0.0
  0
LINE
  5
18F6
330
1A
100
AcDbEntity
  8
ZUWAKU
100
AcDbLine
 10
17.59221254812234
 20
20.44999965533641
 30
0.0
 11
14.61721254812232
 21
20.44999965533641
 31
0.0
  0
LINE
  5
18F7
330
1A
100
AcDbEntity
  8
ZUWAKU
100
AcDbLine
 10
11.29221254812239
 20
20.44999965533641
 30
0.0
 11
11.29221254812239
 21
18.63479762998107
 31
0.0
  0
ARC
  5
18F8
330
1A
100
AcDbEntity
  8
ZUWAKU
100
AcDbCircle
 10
14.09221254812234
 20
20.44999965533641
 30
0.0
 40
2.799999999999999
100
AcDbArc
 50
90.0
 51
180.0
  0
LINE
  5
18F9
330
1A
100
AcDbEntity
  8
ZUWAKU
100
AcDbLine
 10
18.11721254812232
 20
22.72499965533641
 30
0.0
 11
18.11721254812232
 21
20.97499965533641
 31
0.0
  0
ARC
  5
18FA
330
1A
100
AcDbEntity
  8
ZUWAKU
100
AcDbCircle
 10
24.94221254812237
 20
19.04999965533641
 30
0.0
 40
1.399999999999999
100
AcDbArc
 50
90.0
 51
180.0
  0
ARC
  5
18FB
330
1A
100
AcDbEntity
  8
ZUWAKU
100
AcDbCircle
 10
24.94221254812237
 20
19.04999965533637
 30
0.0
 40
4.199999999999999
100
AcDbArc
 50
90.0
 51
180.0
  0
LINE
  5
18FC
330
1A
100
AcDbEntity
  8
ZUWAKU
100
AcDbLine
 10
79.32662994132943
 20
29.99999965533641
 30
0.0
 11
79.32662994132965
 21
0.7999996553364781
 31
0.0
  0
LINE
  5
18FD
330
1A
100
AcDbEntity
  8
ZUWAKU
100
AcDbLine
 10
79.52662994132947
 20
29.99999965533641
 30
0.0
 11
79.5266299413297
 21
0.7999996553364781
 31
0.0
  0
LINE
  5
18FE
330
1A
100
AcDbEntity
  8
ZUWAKU
100
AcDbLine
 10
79.12662994132961
 20
29.99999965533641
 30
0.0
 11
79.12662994132961
 21
0.7999996553364781
 31
0.0
  0
LINE
  5
18FF
330
1A
100
AcDbEntity
  8
ZUWAKU
100
AcDbLine
 10
64.14221254812241
 20
9.949999655336412
 30
0.0
 11
64.14221254812241
 21
22.72499965533641
 31
0.0
  0
LINE
  5
1900
330
1A
100
AcDbEntity
  8
ZUWAKU
100
AcDbLine
 10
61.34221254812235
 20
22.72499965533641
 30
0.0
 11
61.34221254812235
 21
10.9999996553364
 31
0.0
  0
LINE
  5
1901
330
1A
100
AcDbEntity
  8
ZUWAKU
100
AcDbLine
 10
69.04221254812239
 20
7.674999655336414
 30
0.0
 11
69.04221254812239
 21
22.72499965533641
 31
0.0
  0
LINE
  5
1902
330
1A
100
AcDbEntity
  8
ZUWAKU
100
AcDbLine
 10
66.24221254812233
 20
22.72499965533641
 30
0.0
 11
66.24221254812233
 21
7.674999655336414
 31
0.0
  0
ARC
  5
1903
330
1A
100
AcDbEntity
  8
ZUWAKU
100
AcDbCircle
 10
49.79221254812239
 20
18.63479762998111
 30
0.0
 40
1.399999999999999
100
AcDbArc
 50
180.0000000000016
 51
224.9999999999988
  0
ARC
  5
1904
330
1A
100
AcDbEntity
  8
ZUWAKU
100
AcDbCircle
 10
49.79221254812239
 20
18.63479762998111
 30
0.0
 40
4.199999999999999
100
AcDbArc
 50
180.0
 51
225.0
  0
LINE
  5
1905
330
1A
100
AcDbEntity
  8
ZUWAKU
100
AcDbLine
 10
37.31485903030034
 20
19.20504684889984
 30
0.0
 11
36.05010728496449
 21
15.19999965533643
 31
0.0
  0
LINE
  5
1906
330
1A
100
AcDbEntity
  8
ZUWAKU
100
AcDbLine
 10
40.69221254812236
 20
22.72499965533641
 30
0.0
 11
40.69221254812236
 21
7.674999655336414
 31
0.0
  0
LINE
  5
1907
330
1A
100
AcDbEntity
  8
ZUWAKU
100
AcDbLine
 10
43.49221254812232
 20
7.674999655336414
 30
0.0
 11
43.49221254812232
 21
22.72499965533641
 31
0.0
  0
LINE
  5
1908
330
1A
100
AcDbEntity
  8
ZUWAKU
100
AcDbLine
 10
55.0422125481224
 20
22.72499965533641
 30
0.0
 11
55.0422125481224
 21
9.949999655336412
 31
0.0
  0
LINE
  5
1909
330
1A
100
AcDbEntity
  8
ZUWAKU
100
AcDbLine
 10
57.84221254812234
 20
10.9999996553364
 30
0.0
 11
57.84221254812234
 21
22.72499965533641
 31
0.0
  0
LINE
  5
190A
330
1A
100
AcDbEntity
  8
ZUWAKU
100
AcDbLine
 10
32.64221254812241
 20
17.12499965533641
 30
0.0
 11
32.64221254812241
 21
22.72499965533641
 31
0.0
  0
LINE
  5
190B
330
1A
100
AcDbEntity
  8
ZUWAKU
100
AcDbLine
 10
29.84221254812235
 20
22.72499965533641
 30
0.0
 11
29.84221254812235
 21
7.674999655336414
 31
0.0
  0
LINE
  5
190C
330
1A
100
AcDbEntity
  8
ZUWAKU
100
AcDbLine
 10
35.67634748543821
 20
22.88309362350338
 30
0.0
 11
33.80807761080643
 21
16.96690568716944
 31
0.0
  0
LINE
  5
190D
330
1A
100
AcDbEntity
  8
ZUWAKU
100
AcDbLine
 10
60.29221254812239
 20
9.949999655336412
 30
0.0
 11
58.89221254812241
 21
9.949999655336412
 31
0.0
  0
LINE
  5
190E
330
1A
100
AcDbEntity
  8
ZUWAKU
100
AcDbLine
 10
57.84221254812234
 20
7.149999655336415
 30
0.0
 11
61.34221254812235
 21
7.149999655336415
 31
0.0
  0
LINE
  5
190F
330
1A
100
AcDbEntity
  8
ZUWAKU
100
AcDbLine
 10
41.21721254812235
 20
7.149999655336415
 30
0.0
 11
42.96721254812235
 21
7.149999655336415
 31
0.0
  0
LINE
  5
1910
330
1A
100
AcDbEntity
  8
ZUWAKU
100
AcDbLine
 10
35.67634748543821
 20
7.51690568716944
 30
0.0
 11
33.80807761080643
 21
13.43309362350338
 31
0.0
  0
ARC
  5
1911
330
1A
100
AcDbEntity
  8
ZUWAKU
100
AcDbCircle
 10
33.30744671161108
 20
17.12499965533641
 30
0.0
 40
0.525
100
AcDbArc
 50
270.0
 51
342.4744316262769
  0
LINE
  5
1912
330
1A
100
AcDbEntity
  8
ZUWAKU
100
AcDbLine
 10
33.30744671161108
 20
16.59999965533641
 30
0.0
 11
33.16721254812239
 21
16.59999965533641
 31
0.0
  0
LINE
  5
1913
330
1A
100
AcDbEntity
  8
ZUWAKU
100
AcDbLine
 10
33.16721254812239
 20
13.79999965533641
 30
0.0
 11
33.30744671161108
 21
13.79999965533641
 31
0.0
  0
ARC
  5
1914
330
1A
100
AcDbEntity
  8
ZUWAKU
100
AcDbCircle
 10
33.16721254812239
 20
17.12499965533641
 30
0.0
 40
0.525
100
AcDbArc
 50
180.0
 51
270.0
  0
LINE
  5
1915
330
1A
100
AcDbEntity
  8
ZUWAKU
100
AcDbLine
 10
30.36721254812232
 20
7.149999655336415
 30
0.0
 11
32.11721254812232
 21
7.149999655336415
 31
0.0
  0
ARC
  5
1916
330
1A
100
AcDbEntity
  8
ZUWAKU
100
AcDbCircle
 10
32.11721254812232
 20
7.674999655336414
 30
0.0
 40
0.525
100
AcDbArc
 50
270.0
 51
0.0
  0
LINE
  5
1917
330
1A
100
AcDbEntity
  8
ZUWAKU
100
AcDbLine
 10
32.64221254812241
 20
7.674999655336414
 30
0.0
 11
32.64221254812241
 21
13.27499965533641
 31
0.0
  0
LINE
  5
1918
330
1A
100
AcDbEntity
  8
ZUWAKU
100
AcDbLine
 10
27.39221254812241
 20
9.424999655336414
 30
0.0
 11
27.39221254812241
 21
7.674999655336414
 31
0.0
  0
ARC
  5
1919
330
1A
100
AcDbEntity
  8
ZUWAKU
100
AcDbCircle
 10
26.86721254812232
 20
7.674999655336414
 30
0.0
 40
0.525
100
AcDbArc
 50
270.0
 51
0.0
  0
ARC
  5
191A
330
1A
100
AcDbEntity
  8
ZUWAKU
100
AcDbCircle
 10
26.86721254812232
 20
9.424999655336414
 30
0.0
 40
0.525
100
AcDbArc
 50
0.0
 51
90.0
  0
ARC
  5
191B
330
1A
100
AcDbEntity
  8
ZUWAKU
100
AcDbCircle
 10
30.36721254812232
 20
7.674999655336414
 30
0.0
 40
0.525
100
AcDbArc
 50
180.0
 51
270.0
  0
ARC
  5
191C
330
1A
100
AcDbEntity
  8
ZUWAKU
100
AcDbCircle
 10
33.30744671161108
 20
13.27499965533641
 30
0.0
 40
0.525
100
AcDbArc
 50
17.52556837372303
 51
90.0
  0
ARC
  5
191D
330
1A
100
AcDbEntity
  8
ZUWAKU
100
AcDbCircle
 10
33.16721254812239
 20
13.27499965533641
 30
0.0
 40
0.525
100
AcDbArc
 50
90.0
 51
180.0
  0
ARC
  5
191E
330
1A
100
AcDbEntity
  8
ZUWAKU
100
AcDbCircle
 10
41.21721254812235
 20
7.674999655336414
 30
0.0
 40
0.525
100
AcDbArc
 50
180.0
 51
270.0
  0
LINE
  5
191F
330
1A
100
AcDbEntity
  8
ZUWAKU
100
AcDbLine
 10
36.17697838463368
 20
7.149999655336415
 30
0.0
 11
37.87586776424268
 21
7.149999655336415
 31
0.0
  0
ARC
  5
1920
330
1A
100
AcDbEntity
  8
ZUWAKU
100
AcDbCircle
 10
37.87586776424268
 20
7.674999655336414
 30
0.0
 40
0.525
100
AcDbArc
 50
270.0
 51
17.52556837372303
  0
LINE
  5
1921
330
1A
100
AcDbEntity
  8
ZUWAKU
100
AcDbLine
 10
38.37649866343815
 20
7.833093623503387
 30
0.0
 11
36.05010728496449
 21
15.19999965533643
 31
0.0
  0
ARC
  5
1922
330
1A
100
AcDbEntity
  8
ZUWAKU
100
AcDbCircle
 10
36.17697838463368
 20
7.674999655336414
 30
0.0
 40
0.525
100
AcDbArc
 50
197.525568373723
 51
270.0
  0
ARC
  5
1923
330
1A
100
AcDbEntity
  8
ZUWAKU
100
AcDbCircle
 10
57.84221254812234
 20
9.949999655336412
 30
0.0
 40
2.799999999999999
100
AcDbArc
 50
180.0
 51
270.0
  0
ARC
  5
1924
330
1A
100
AcDbEntity
  8
ZUWAKU
100
AcDbCircle
 10
50.14221254812241
 20
9.949999655336412
 30
0.0
 40
2.799999999999999
100
AcDbArc
 50
270.0
 51
0.0
  0
LINE
  5
1925
330
1A
100
AcDbEntity
  8
ZUWAKU
100
AcDbLine
 10
51.71206102910594
 20
14.73505016167524
 30
0.0
 11
48.80226305446115
 21
17.64484813631991
 31
0.0
  0
LINE
  5
1926
330
1A
100
AcDbEntity
  8
ZUWAKU
100
AcDbLine
 10
50.14221254812241
 20
10.47499965533641
 30
0.0
 11
50.14221254812241
 21
11.76520168069176
 31
0.0
  0
ARC
  5
1927
330
1A
100
AcDbEntity
  8
ZUWAKU
100
AcDbCircle
 10
48.74221254812233
 20
11.76520168069176
 30
0.0
 40
1.399999999999999
100
AcDbArc
 50
0.0
 51
45.0
  0
ARC
  5
1928
330
1A
100
AcDbEntity
  8
ZUWAKU
100
AcDbCircle
 10
49.61721254812232
 20
10.47499965533641
 30
0.0
 40
0.525
100
AcDbArc
 50
270.0
 51
0.0
  0
LINE
  5
1929
330
1A
100
AcDbEntity
  8
ZUWAKU
100
AcDbLine
 10
46.11721254812232
 20
7.674999655336414
 30
0.0
 11
46.11721254812232
 21
9.424999655336414
 31
0.0
  0
ARC
  5
192A
330
1A
100
AcDbEntity
  8
ZUWAKU
100
AcDbCircle
 10
46.64221254812241
 20
7.674999655336414
 30
0.0
 40
0.525
100
AcDbArc
 50
180.0
 51
270.0
  0
ARC
  5
192B
330
1A
100
AcDbEntity
  8
ZUWAKU
100
AcDbCircle
 10
42.96721254812235
 20
7.674999655336414
 30
0.0
 40
0.525
100
AcDbArc
 50
270.0
 51
0.0
  0
ARC
  5
192C
330
1A
100
AcDbEntity
  8
ZUWAKU
100
AcDbCircle
 10
46.64221254812241
 20
9.424999655336414
 30
0.0
 40
0.525
100
AcDbArc
 50
90.0
 51
180.0
  0
LINE
  5
192D
330
1A
100
AcDbEntity
  8
ZUWAKU
100
AcDbLine
 10
46.64221254812241
 20
9.949999655336412
 30
0.0
 11
49.61721254812232
 21
9.949999655336412
 31
0.0
  0
LINE
  5
192E
330
1A
100
AcDbEntity
  8
ZUWAKU
100
AcDbLine
 10
46.64221254812241
 20
7.149999655336415
 30
0.0
 11
50.14221254812241
 21
7.149999655336415
 31
0.0
  0
LINE
  5
192F
330
1A
100
AcDbEntity
  8
ZUWAKU
100
AcDbLine
 10
46.82236406713889
 20
15.66494914899759
 30
0.0
 11
49.73216204178356
 21
12.75515117435293
 31
0.0
  0
LINE
  5
1930
330
1A
100
AcDbEntity
  8
ZUWAKU
100
AcDbLine
 10
52.94221254812237
 20
9.949999655336412
 30
0.0
 11
52.94221254812237
 21
11.76520168069176
 31
0.0
  0
ARC
  5
1931
330
1A
100
AcDbEntity
  8
ZUWAKU
100
AcDbCircle
 10
48.74221254812233
 20
11.76520168069171
 30
0.0
 40
4.199999999999999
100
AcDbArc
 50
0.0
 51
45.0
  0
ARC
  5
1932
330
1A
100
AcDbEntity
  8
ZUWAKU
100
AcDbCircle
 10
58.89221254812241
 20
10.9999996553364
 30
0.0
 40
1.049999999999999
100
AcDbArc
 50
180.0
 51
270.0
  0
ARC
  5
1933
330
1A
100
AcDbEntity
  8
ZUWAKU
100
AcDbCircle
 10
61.34221254812235
 20
9.949999655336412
 30
0.0
 40
2.799999999999999
100
AcDbArc
 50
270.0
 51
0.0
  0
LINE
  5
1934
330
1A
100
AcDbEntity
  8
ZUWAKU
100
AcDbLine
 10
66.76721254812242
 20
7.149999655336415
 30
0.0
 11
68.51721254812241
 21
7.149999655336415
 31
0.0
  0
ARC
  5
1935
330
1A
100
AcDbEntity
  8
ZUWAKU
100
AcDbCircle
 10
66.76721254812242
 20
7.674999655336414
 30
0.0
 40
0.525
100
AcDbArc
 50
180.0
 51
270.0
  0
ARC
  5
1936
330
1A
100
AcDbEntity
  8
ZUWAKU
100
AcDbCircle
 10
60.29221254812239
 20
10.9999996553364
 30
0.0
 40
1.049999999999999
100
AcDbArc
 50
270.0
 51
0.0
  0
ARC
  5
1937
330
1A
100
AcDbEntity
  8
ZUWAKU
100
AcDbCircle
 10
68.51721254812241
 20
7.674999655336414
 30
0.0
 40
0.525
100
AcDbArc
 50
270.0
 51
0.0
  0
LINE
  5
1938
330
1A
100
AcDbEntity
  8
ZUWAKU
100
AcDbLine
 10
42.96721254812235
 20
23.24999965533641
 30
0.0
 11
41.21721254812235
 21
23.24999965533641
 31
0.0
  0
ARC
  5
1939
330
1A
100
AcDbEntity
  8
ZUWAKU
100
AcDbCircle
 10
32.11721254812232
 20
22.72499965533641
 30
0.0
 40
0.525
100
AcDbArc
 50
0.0
 51
90.0
  0
LINE
  5
193A
330
1A
100
AcDbEntity
  8
ZUWAKU
100
AcDbLine
 10
32.11721254812232
 20
23.24999965533641
 30
0.0
 11
30.36721254812232
 21
23.24999965533641
 31
0.0
  0
ARC
  5
193B
330
1A
100
AcDbEntity
  8
ZUWAKU
100
AcDbCircle
 10
26.86721254812232
 20
22.72499965533641
 30
0.0
 40
0.525
100
AcDbArc
 50
0.0
 51
90.0
  0
ARC
  5
193C
330
1A
100
AcDbEntity
  8
ZUWAKU
100
AcDbCircle
 10
30.36721254812232
 20
22.72499965533641
 30
0.0
 40
0.525
100
AcDbArc
 50
90.0
 51
180.0
  0
ARC
  5
193D
330
1A
100
AcDbEntity
  8
ZUWAKU
100
AcDbCircle
 10
26.86721254812232
 20
20.97499965533641
 30
0.0
 40
0.525
100
AcDbArc
 50
270.0
 51
0.0
  0
LINE
  5
193E
330
1A
100
AcDbEntity
  8
ZUWAKU
100
AcDbLine
 10
27.39221254812241
 20
22.72499965533641
 30
0.0
 11
27.39221254812241
 21
20.97499965533641
 31
0.0
  0
ARC
  5
193F
330
1A
100
AcDbEntity
  8
ZUWAKU
100
AcDbCircle
 10
41.21721254812235
 20
22.72499965533641
 30
0.0
 40
0.525
100
AcDbArc
 50
90.0
 51
180.0
  0
LINE
  5
1940
330
1A
100
AcDbEntity
  8
ZUWAKU
100
AcDbLine
 10
36.17697838463368
 20
23.24999965533641
 30
0.0
 11
37.87586776424268
 21
23.24999965533641
 31
0.0
  0
ARC
  5
1941
330
1A
100
AcDbEntity
  8
ZUWAKU
100
AcDbCircle
 10
37.87586776424268
 20
22.72499965533641
 30
0.0
 40
0.525
100
AcDbArc
 50
342.4744316262769
 51
90.0
  0
LINE
  5
1942
330
1A
100
AcDbEntity
  8
ZUWAKU
100
AcDbLine
 10
38.37649866343815
 20
22.56690568716944
 30
0.0
 11
37.31485903030034
 21
19.20504684889984
 31
0.0
  0
ARC
  5
1943
330
1A
100
AcDbEntity
  8
ZUWAKU
100
AcDbCircle
 10
36.17697838463368
 20
22.72499965533641
 30
0.0
 40
0.525
100
AcDbArc
 50
90.0
 51
162.4744316262769
  0
LINE
  5
1944
330
1A
100
AcDbEntity
  8
ZUWAKU
100
AcDbLine
 10
48.39221254812241
 20
23.24999965533641
 30
0.0
 11
51.89221254812242
 21
23.24999965533641
 31
0.0
  0
LINE
  5
1945
330
1A
100
AcDbEntity
  8
ZUWAKU
100
AcDbLine
 10
51.89221254812242
 20
20.44999965533641
 30
0.0
 11
48.91721254812239
 21
20.44999965533641
 31
0.0
  0
ARC
  5
1946
330
1A
100
AcDbEntity
  8
ZUWAKU
100
AcDbCircle
 10
48.91721254812239
 20
19.92499965533641
 30
0.0
 40
0.525
100
AcDbArc
 50
90.0
 51
180.0
  0
LINE
  5
1947
330
1A
100
AcDbEntity
  8
ZUWAKU
100
AcDbLine
 10
48.39221254812241
 20
19.92499965533641
 30
0.0
 11
48.39221254812241
 21
18.63479762998107
 31
0.0
  0
ARC
  5
1948
330
1A
100
AcDbEntity
  8
ZUWAKU
100
AcDbCircle
 10
42.96721254812235
 20
22.72499965533641
 30
0.0
 40
0.525
100
AcDbArc
 50
0.0
 51
90.0
  0
LINE
  5
1949
330
1A
100
AcDbEntity
  8
ZUWAKU
100
AcDbLine
 10
45.59221254812235
 20
20.44999965533641
 30
0.0
 11
45.59221254812235
 21
18.63479762998107
 31
0.0
  0
ARC
  5
194A
330
1A
100
AcDbEntity
  8
ZUWAKU
100
AcDbCircle
 10
48.39221254812241
 20
20.44999965533641
 30
0.0
 40
2.799999999999999
100
AcDbArc
 50
90.0
 51
180.0
  0
ARC
  5
194B
330
1A
100
AcDbEntity
  8
ZUWAKU
100
AcDbCircle
 10
57.31721254812237
 20
22.72499965533641
 30
0.0
 40
0.525
100
AcDbArc
 50
0.0
 51
90.0
  0
ARC
  5
194C
330
1A
100
AcDbEntity
  8
ZUWAKU
100
AcDbCircle
 10
55.56721254812237
 20
22.72499965533641
 30
0.0
 40
0.525
100
AcDbArc
 50
90.0
 51
180.0
  0
LINE
  5
194D
330
1A
100
AcDbEntity
  8
ZUWAKU
100
AcDbLine
 10
57.31721254812237
 20
23.24999965533641
 30
0.0
 11
55.56721254812237
 21
23.24999965533641
 31
0.0
  0
ARC
  5
194E
330
1A
100
AcDbEntity
  8
ZUWAKU
100
AcDbCircle
 10
51.89221254812242
 20
22.72499965533641
 30
0.0
 40
0.525
100
AcDbArc
 50
0.0
 51
90.0
  0
ARC
  5
194F
330
1A
100
AcDbEntity
  8
ZUWAKU
100
AcDbCircle
 10
51.89221254812242
 20
20.97499965533641
 30
0.0
 40
0.525
100
AcDbArc
 50
270.0
 51
0.0
  0
LINE
  5
1950
330
1A
100
AcDbEntity
  8
ZUWAKU
100
AcDbLine
 10
52.41721254812239
 20
22.72499965533641
 30
0.0
 11
52.41721254812239
 21
20.97499965533641
 31
0.0
  0
LINE
  5
1951
330
1A
100
AcDbEntity
  8
ZUWAKU
100
AcDbLine
 10
68.51721254812241
 20
23.24999965533641
 30
0.0
 11
66.76721254812242
 21
23.24999965533641
 31
0.0
  0
ARC
  5
1952
330
1A
100
AcDbEntity
  8
ZUWAKU
100
AcDbCircle
 10
66.76721254812242
 20
22.72499965533641
 30
0.0
 40
0.525
100
AcDbArc
 50
90.0
 51
180.0
  0
ARC
  5
1953
330
1A
100
AcDbEntity
  8
ZUWAKU
100
AcDbCircle
 10
63.61721254812232
 20
22.72499965533641
 30
0.0
 40
0.525
100
AcDbArc
 50
0.0
 51
90.0
  0
LINE
  5
1954
330
1A
100
AcDbEntity
  8
ZUWAKU
100
AcDbLine
 10
63.61721254812232
 20
23.24999965533641
 30
0.0
 11
61.86721254812233
 21
23.24999965533641
 31
0.0
  0
ARC
  5
1955
330
1A
100
AcDbEntity
  8
ZUWAKU
100
AcDbCircle
 10
61.86721254812233
 20
22.72499965533641
 30
0.0
 40
0.525
100
AcDbArc
 50
90.0
 51
180.0
  0
ARC
  5
1956
330
1A
100
AcDbEntity
  8
ZUWAKU
100
AcDbCircle
 10
68.51721254812241
 20
22.72499965533641
 30
0.0
 40
0.525
100
AcDbArc
 50
0.0
 51
90.0
  0
TEXT
  5
1957
330
1A
100
AcDbEntity
  8
MOJI
100
AcDbText
 10
239.8272030741923
 20
3.204920712743831
 30
0.0
 40
5.599999999999999
  1
Ｈ１２０－ＶＵ・ＶＰ７５
 41
0.9
  7
ｽﾀｲﾙ1
100
AcDbText
  0
TEXT
  5
1958
330
1A
100
AcDbEntity
  8
MOJI
100
AcDbText
 10
239.8272030741923
 20
18.00492071274379
 30
0.0
 40
5.599999999999999
  1
洋風じょうご
 41
0.9
  7
ｽﾀｲﾙ1
100
AcDbText
  0
LINE
  5
1959
330
1A
100
AcDbEntity
  8
ZUWAKU
100
AcDbLine
 10
208.2466016834091
 20
29.99999965533641
 30
0.0
 11
208.2466016834091
 21
0.7999996553364781
 31
0.0
  0
LINE
  5
195A
330
1A
100
AcDbEntity
  8
ZUWAKU
100
AcDbLine
 10
208.646601683409
 20
29.99999965533641
 30
0.0
 11
208.6466016834092
 21
0.7999996553364781
 31
0.0
  0
LINE
  5
195B
330
1A
100
AcDbEntity
  8
ZUWAKU
100
AcDbLine
 10
208.4466016834089
 20
29.99999965533641
 30
0.0
 11
208.4466016834091
 21
0.7999996553364781
 31
0.0
  0
TEXT
  5
195C
330
1A
100
AcDbEntity
  8
ZUWAKU
100
AcDbText
 10
209.7240467056187
 20
9.655356193722028
 30
0.0
 40
4.0
  1
サイズ
 41
0.9
  7
ｽﾀｲﾙ1
100
AcDbText
  0
TEXT
  5
195D
330
1A
100
AcDbEntity
  8
ZUWAKU
100
AcDbText
 10
209.7240467056185
 20
24.05535619372199
 30
0.0
 40
4.0
  1
品名
 41
0.9
  7
ｽﾀｲﾙ1
100
AcDbText
  0
LINE
  5
195E
330
1A
100
AcDbEntity
  8
ZUWAKU
100
AcDbLine
 10
648.8172029035454
 20
15.19999965533644
 30
0.0
 11
697.2490109418824
 21
15.19999965533644
 31
0.0
  0
LINE
  5
195F
330
1A
100
AcDbEntity
  8
ZUWAKU
100
AcDbLine
 10
648.8172029035456
 20
15.39999965533644
 30
0.0
 11
697.2490109418824
 21
15.39999965533644
 31
0.0
  0
LINE
  5
1960
330
1A
100
AcDbEntity
  8
ZUWAKU
100
AcDbLine
 10
648.8172029035454
 20
15.59999965533644
 30
0.0
 11
697.2490109418824
 21
15.59999965533644
 31
0.0
  0
TEXT
  5
1961
330
1A
100
AcDbEntity
  8
ZUWAKU
100
AcDbText
 10
658.2039380806436
 20
18.00492071274379
 30
0.0
 40
5.599999999999999
  1
　　．　　．　　
 41
0.9
  7
ｽﾀｲﾙ1
100
AcDbText
  0
LINE
  5
1962
330
1A
100
AcDbEntity
  8
ZUWAKU
100
AcDbLine
 10
505.1991798914821
 20
15.19999965533644
 30
0.0
 11
552.5269561594536
 21
15.19999965533644
 31
0.0
  0
LINE
  5
1963
330
1A
100
AcDbEntity
  8
ZUWAKU
100
AcDbLine
 10
505.1991798914821
 20
15.39999965533644
 30
0.0
 11
552.5269561594536
 21
15.39999965533644
 31
0.0
  0
LINE
  5
1964
330
1A
100
AcDbEntity
  8
ZUWAKU
100
AcDbLine
 10
505.1991798914821
 20
15.59999965533644
 30
0.0
 11
552.5269561594536
 21
15.59999965533644
 31
0.0
  0
TEXT
  5
1965
330
1A
100
AcDbEntity
  8
MOJI
100
AcDbText
 10
464.5946263965802
 20
11.94261737699639
 30
0.0
 40
5.599999999999999
  1
ＰＧ４１□
 41
0.9
  7
ｽﾀｲﾙ1
100
AcDbText
  0
LINE
  5
1966
330
1A
100
AcDbEntity
  8
ZUWAKU
100
AcDbLine
 10
447.6243643643324
 20
29.99999965533641
 30
0.0
 11
447.6243643643327
 21
0.7999996553364781
 31
0.0
  0
LINE
  5
1967
330
1A
100
AcDbEntity
  8
ZUWAKU
100
AcDbLine
 10
447.8243643643325
 20
29.99999965533641
 30
0.0
 11
447.8243643643327
 21
0.7999996553364781
 31
0.0
  0
LINE
  5
1968
330
1A
100
AcDbEntity
  8
ZUWAKU
100
AcDbLine
 10
447.4243643643326
 20
29.99999965533641
 30
0.0
 11
447.4243643643326
 21
0.7999996553364781
 31
0.0
  0
TEXT
  5
1969
330
1A
100
AcDbEntity
  8
MOJI
100
AcDbText
 10
528.040908365654
 20
18.00492071274379
 30
0.0
 40
5.599999999999999
  1
Ａ３
 41
0.9
  7
ｽﾀｲﾙ1
100
AcDbText
  0
LINE
  5
196A
330
1A
100
AcDbEntity
  8
ZUWAKU
100
AcDbLine
 10
504.999179891482
 20
29.99999965533641
 30
0.0
 11
504.9991798914823
 21
0.7999996553364781
 31
0.0
  0
LINE
  5
196B
330
1A
100
AcDbEntity
  8
ZUWAKU
100
AcDbLine
 10
505.1991798914821
 20
29.99999965533641
 30
0.0
 11
505.1991798914823
 21
0.7999996553364781
 31
0.0
  0
LINE
  5
196C
330
1A
100
AcDbEntity
  8
ZUWAKU
100
AcDbLine
 10
504.7991798914822
 20
29.99999965533641
 30
0.0
 11
504.7991798914822
 21
0.7999996553364781
 31
0.0
  0
TEXT
  5
196D
330
1A
100
AcDbEntity
  8
ZUWAKU
100
AcDbText
 10
462.6937620488483
 20
2.614070566475902
 30
0.0
 40
3.0
  1
□には色品番が入ります
 41
0.9
  7
ｽﾀｲﾙ1
100
AcDbText
  0
TEXT
  5
196E
330
1A
100
AcDbEntity
  8
ZUWAKU
100
AcDbText
 10
506.6766249136919
 20
9.655356193722028
 30
0.0
 40
4.0
  1
縮尺
 41
0.9
  7
ｽﾀｲﾙ1
100
AcDbText
  0
TEXT
  5
196F
330
1A
100
AcDbEntity
  8
MOJI
100
AcDbText
 10
528.040908365654
 20
3.204920712743831
 30
0.0
 40
5.599999999999999
  1
１/２
 41
0.9
  7
ｽﾀｲﾙ1
100
AcDbText
  0
TEXT
  5
1970
330
1A
100
AcDbEntity
  8
ZUWAKU
100
AcDbText
 10
449.3018093865421
 20
24.05535619372199
 30
0.0
 40
4.0
  1
品番
 41
0.9
  7
ｽﾀｲﾙ1
100
AcDbText
  0
TEXT
  5
1971
330
1A
100
AcDbEntity
  8
ZUWAKU
100
AcDbText
 10
506.6766249136917
 20
24.05535619372199
 30
0.0
 40
4.0
  1
用紙
 41
0.9
  7
ｽﾀｲﾙ1
100
AcDbText
  0
LINE
  5
1972
330
1A
100
AcDbEntity
  8
ZUWAKU
100
AcDbLine
 10
648.6172029035456
 20
29.99999965533641
 30
0.0
 11
648.6172029035458
 21
0.7999996553364781
 31
0.0
  0
LINE
  5
1973
330
1A
100
AcDbEntity
  8
ZUWAKU
100
AcDbLine
 10
648.8172029035456
 20
29.99999965533641
 30
0.0
 11
648.8172029035458
 21
0.7999996553364781
 31
0.0
  0
LINE
  5
1974
330
1A
100
AcDbEntity
  8
ZUWAKU
100
AcDbLine
 10
648.4172029035457
 20
29.99999965533641
 30
0.0
 11
648.4172029035457
 21
0.7999996553364781
 31
0.0
  0
LINE
  5
1975
330
1A
100
AcDbEntity
  8
ZUWAKU
100
AcDbLine
 10
552.7269561594534
 20
29.99999965533641
 30
0.0
 11
552.7269561594537
 21
0.7999996553364781
 31
0.0
  0
LINE
  5
1976
330
1A
100
AcDbEntity
  8
ZUWAKU
100
AcDbLine
 10
552.9269561594535
 20
29.99999965533641
 30
0.0
 11
552.9269561594538
 21
0.7999996553364781
 31
0.0
  0
LINE
  5
1977
330
1A
100
AcDbEntity
  8
ZUWAKU
100
AcDbLine
 10
552.5269561594536
 20
29.99999965533641
 30
0.0
 11
552.5269561594536
 21
0.7999996553364781
 31
0.0
  0
TEXT
  5
1978
330
1A
100
AcDbEntity
  8
ZUWAKU
100
AcDbText
 10
650.2946479257552
 20
24.05535619372199
 30
0.0
 40
4.0
  1
DATE
 41
0.9
  7
ｽﾀｲﾙ1
100
AcDbText
  0
LINE
  5
1979
330
1A
100
AcDbEntity
  8
ZUWAKU
100
AcDbLine
 10
697.2490109418824
 20
29.99999965533641
 30
0.0
 11
697.2490109418824
 21
0.7999996553364781
 31
0.0
  0
LINE
  5
197A
330
1A
100
AcDbEntity
  8
ZUWAKU
100
AcDbLine
 10
697.4490109418825
 20
29.99999965533641
 30
0.0
 11
697.4490109418825
 21
0.7999996553364781
 31
0.0
  0
LINE
  5
197B
330
1A
100
AcDbEntity
  8
ZUWAKU
100
AcDbLine
 10
697.6490109418823
 20
29.99999965533641
 30
0.0
 11
697.6490109418826
 21
0.7999996553364781
 31
0.0
  0
LINE
  5
197C
330
1A
100
AcDbEntity
  8
ZUWAKU
100
AcDbLine
 10
697.8490109418824
 20
29.99999965533641
 30
0.0
 11
697.8490109418826
 21
0.7999996553364781
 31
0.0
  0
TEXT
  5
197D
330
1A
100
AcDbEntity
  8
ZUWAKU
100
AcDbText
 10
708.528084585585
 20
17.55383899102321
 30
0.0
 40
6.0
  1
積水化学工業株式会社
 41
0.9
  7
ｽﾀｲﾙ1
100
AcDbText
  0
TEXT
  5
197E
330
1A
100
AcDbEntity
  8
ZUWAKU
100
AcDbText
 10
708.528084585585
 20
6.648839969190476
 30
0.0
 40
6.0
  1
建材事業部
 41
0.9
  7
ｽﾀｲﾙ1
100
AcDbText
  0
LINE
  5
1E94
330
1A
100
AcDbEntity
  8
SEIHIN
  6
CONTINUOUS
 62
     3
100
AcDbLine
 10
279.9250892924205
 20
93.04818338328402
 30
0.0
 11
279.9250892924205
 21
128.048183383284
 31
0.0
  0
LINE
  5
1E95
330
1A
100
AcDbEntity
  8
SEIHIN
  6
CONTINUOUS
 62
     3
100
AcDbLine
 10
191.1249892924205
 20
93.04838338328398
 30
0.0
 11
191.1250892924206
 21
128.0483833832839
 31
0.0
  0
LINE
  5
1E96
330
1A
100
AcDbEntity
  8
SEIHIN
  6
CONTINUOUS
 62
     3
100
AcDbLine
 10
279.9250892924205
 20
93.04818338328402
 30
0.0
 11
191.1249892924205
 21
93.04838338328398
 31
0.0
  0
LINE
  5
1E97
330
1A
100
AcDbEntity
  8
SEIHIN
  6
CONTINUOUS
 62
     3
100
AcDbLine
 10
191.6249892924206
 20
92.04838338328398
 30
0.0
 11
279.4250892924206
 21
92.04818338328403
 31
0.0
  0
LINE
  5
1E98
330
1A
100
AcDbEntity
  8
SEIHIN
  6
CONTINUOUS
 62
     3
100
AcDbLine
 10
191.1249892924205
 20
93.04838338328398
 30
0.0
 11
191.6249892924206
 21
92.04838338328398
 31
0.0
  0
LINE
  5
1E99
330
1A
100
AcDbEntity
  8
SEIHIN
  6
CONTINUOUS
 62
     3
100
AcDbLine
 10
279.9250892924205
 20
93.04818338328402
 30
0.0
 11
279.4250892924206
 21
92.04818338328403
 31
0.0
  0
LINE
  5
1EA0
330
1A
100
AcDbEntity
  8
SEIHIN
  6
CONTINUOUS
 62
     3
100
AcDbLine
 10
539.3957890453108
 20
93.04838338328421
 30
0.0
 11
539.3958890453108
 21
128.0483833832839
 31
0.0
  0
LINE
  5
1EA1
330
1A
100
AcDbEntity
  8
SEIHIN
  6
CONTINUOUS
 62
     3
100
AcDbLine
 10
628.1958890453109
 20
93.04818338328425
 30
0.0
 11
539.3957890453108
 21
93.04838338328421
 31
0.0
  0
LINE
  5
1EA2
330
1A
100
AcDbEntity
  8
SEIHIN
  6
CONTINUOUS
 62
     3
100
AcDbLine
 10
539.8957890453108
 20
92.04838338328398
 30
0.0
 11
627.6958890453109
 21
92.04818338328426
 31
0.0
  0
LINE
  5
1EA3
330
1A
100
AcDbEntity
  8
SEIHIN
  6
CONTINUOUS
 62
     3
100
AcDbLine
 10
539.3957890453108
 20
93.04838338328421
 30
0.0
 11
539.8957890453108
 21
92.04838338328398
 31
0.0
  0
LINE
  5
1EA4
330
1A
100
AcDbEntity
  8
SEIHIN
  6
CONTINUOUS
 62
     3
100
AcDbLine
 10
628.1958890453109
 20
93.04818338328425
 30
0.0
 11
627.6958890453109
 21
92.04818338328426
 31
0.0
  0
LINE
  5
1EA5
330
1A
100
AcDbEntity
  8
SEIHIN
  6
CONTINUOUS
 62
     3
100
AcDbLine
 10
628.1958890453109
 20
93.04818338328425
 30
0.0
 11
628.1958890453109
 21
128.0481833832842
 31
0.0
  0
VIEWPORT
  5
22
330
17
100
AcDbEntity
 67
     1
  8
0
100
AcDbViewport
 10
313.6808219178082
 20
148.5
 30
0.0
 40
627.3616438356165
 41
297.0
 68
     2
 69
     1
1001
ACAD
1000
MVIEW
1002
{
1070
    16
1010
0.0
1020
0.0
1030
0.0
1010
0.0
1020
0.0
1030
1.0
1040
0.0
1040
297.0
1040
313.6808219178082
1040
148.5
1040
50.0
1040
0.0
1040
0.0
1070
     0
1070
   100
1070
     1
1070
     0
1070
     0
1070
     0
1070
     0
1070
     0
1040
0.0
1040
0.0
1040
0.0
1040
1.0
1040
1.0
1040
10.0
1040
10.0
1070
     0
1002
{
1002
}
1002
}
  0
VIEWPORT
  5
64
330
17
100
AcDbEntity
 67
     1
  8
VIEWPORT
100
AcDbViewport
 10
210.0
 20
148.5
 30
0.0
 40
420.0
 41
297.0
 68
     1
 69
     2
1001
ACAD
1000
MVIEW
1002
{
1070
    16
1010
0.0
1020
0.0
1030
0.0
1010
0.0
1020
0.0
1030
1.0
1040
0.0
1040
605.8799999999998
1040
420.0
1040
297.0
1040
50.0
1040
0.0
1040
0.0
1070
     0
1070
   100
1070
     1
1070
     0
1070
     0
1070
     0
1070
     0
1070
     0
1040
0.0
1040
0.0
1040
0.0
1040
10.0
1040
10.0
1040
0.0
1040
0.0
1070
     0
1002
{
1002
}
1002
}
  0
ENDSEC
  0
SECTION
  2
OBJECTS
  0
DICTIONARY
  5
C
330
0
100
AcDbDictionary
  3
ACAD_GROUP
350
D
  3
ACAD_LAYOUT
350
C42
  3
ACAD_MLINESTYLE
350
E
  3
ACAD_PLOTSETTINGS
350
C43
  3
ACAD_PLOTSTYLENAME
350
C40
  3
ACDBHEADERROUNDTRIPXREC
350
1FA7
  0
DICTIONARY
  5
DC3
330
1A
100
AcDbDictionary
280
     1
  3
ACAD_LAYOUTSELFREF
360
1FC9
  0
DICTIONARY
  5
DC1
330
17
100
AcDbDictionary
280
     1
  3
ACAD_LAYOUTSELFREF
360
1FC8
  0
DICTIONARY
  5
D
102
{ACAD_REACTORS
330
C
102
}
330
C
100
AcDbDictionary
  0
DICTIONARY
  5
C42
102
{ACAD_REACTORS
330
C
102
}
330
C
100
AcDbDictionary
  0
DICTIONARY
  5
E
102
{ACAD_REACTORS
330
C
102
}
330
C
100
AcDbDictionary
  3
STANDARD
350
13
  0
DICTIONARY
  5
C43
102
{ACAD_REACTORS
330
C
102
}
330
C
100
AcDbDictionary
  0
ACDBDICTIONARYWDFLT
  5
C40
102
{ACAD_REACTORS
330
C
102
}
330
C
100
AcDbDictionary
281
     1
  3
Normal
350
C41
100
AcDbDictionaryWithDefault
340
C41
1001
ACAD
1000
TREAT_AS_HARD
1070
     0
1000
TREAT_AS_HARD
1070
     0
1000
TREAT_AS_HARD
1070
     0
1000
TREAT_AS_HARD
1070
     0
1000
TREAT_AS_HARD
1070
     0
1000
TREAT_AS_HARD
1070
     0
  0
DICTIONARY
  5
1FA7
102
{ACAD_REACTORS
330
C
102
}
330
C
100
AcDbDictionary
  3
TSTACKALIGN
350
1FA8
  3
TSTACKSIZE
350
1FA9
  3
HYPERLINKBASE
350
1FAA
  3
STYLESHEET
350
1FAB
  3
LAYOUTDICT
350
1FAC
  3
PLOTSETDICT
350
1FAD
  3
PLOTSTYLNAMDICT
350
1FAE
  3
LWETCUNION
350
1FAF
  3
INSUNITS
350
1FB0
  3
CEPSNTYPE
350
1FB1
  3
FINGERPRINTGUID
350
1FB2
  3
VERSIONGUID
350
1FB3
  3
PSVPSCALE
350
1FB4
  3
DIMSTYLEDATA
350
1FB5
  3
PUCSORTHOREF
350
1FB6
  3
PUCSORTHOVIEW
350
1FB7
  3
PUCSBASE
350
1FB8
  3
PUCSORGTOP
350
1FB9
  3
PUCSORGBOTTOM
350
1FBA
  3
PUCSORGLEFT
350
1FBB
  3
PUCSORGRIGHT
350
1FBC
  3
PUCSORGFRONT
350
1FBD
  3
PUCSORGBACK
350
1FBE
  3
UCSORTHOREF
350
1FBF
  3
UCSORTHOVIEW
350
1FC0
  3
UCSBASE
350
1FC1
  3
UCSORGTOP
350
1FC2
  3
UCSORGBOTTOM
350
1FC3
  3
UCSORGLEFT
350
1FC4
  3
UCSORGRIGHT
350
1FC5
  3
UCSORGFRONT
350
1FC6
  3
UCSORGBACK
350
1FC7
  0
XRECORD
  5
1FC9
102
{ACAD_REACTORS
330
DC3
102
}
330
DC3
100
AcDbXrecord
340
1A
  0
XRECORD
  5
1FC8
102
{ACAD_REACTORS
330
DC1
102
}
330
DC1
100
AcDbXrecord
340
17
  0
MLINESTYLE
  5
13
102
{ACAD_REACTORS
330
E
102
}
330
E
100
AcDbMlineStyle
  2
STANDARD
 70
     0
  3

 62
     0
 51
90.0
 52
90.0
 71
     2
 49
0.5
 62
   256
  6
BYLAYER
 49
-0.5
 62
   256
  6
BYLAYER
  0
ACDBPLACEHOLDER
  5
C41
102
{ACAD_REACTORS
330
C40
102
}
330
C40
100
AcDbPlaceHolder
280
     0
  0
XRECORD
  5
1FA8
102
{ACAD_REACTORS
330
1FA7
102
}
330
1FA7
100
AcDbXrecord
 90
        1
  0
XRECORD
  5
1FA9
102
{ACAD_REACTORS
330
1FA7
102
}
330
1FA7
100
AcDbXrecord
 90
       70
  0
XRECORD
  5
1FAA
102
{ACAD_REACTORS
330
1FA7
102
}
330
1FA7
100
AcDbXrecord
  1

  0
XRECORD
  5
1FAB
102
{ACAD_REACTORS
330
1FA7
102
}
330
1FA7
100
AcDbXrecord
  1
print.ctb
  0
XRECORD
  5
1FAC
102
{ACAD_REACTORS
330
1FA7
102
}
330
1FA7
100
AcDbXrecord
340
C42
  0
XRECORD
  5
1FAD
102
{ACAD_REACTORS
330
1FA7
102
}
330
1FA7
100
AcDbXrecord
340
C43
  0
XRECORD
  5
1FAE
102
{ACAD_REACTORS
330
1FA7
102
}
330
1FA7
100
AcDbXrecord
340
C40
  0
XRECORD
  5
1FAF
102
{ACAD_REACTORS
330
1FA7
102
}
330
1FA7
100
AcDbXrecord
 90
    14877
  0
XRECORD
  5
1FB0
102
{ACAD_REACTORS
330
1FA7
102
}
330
1FA7
100
AcDbXrecord
 90
        0
  0
XRECORD
  5
1FB1
102
{ACAD_REACTORS
330
1FA7
102
}
330
1FA7
100
AcDbXrecord
 90
        0
  0
XRECORD
  5
1FB2
102
{ACAD_REACTORS
330
1FA7
102
}
330
1FA7
100
AcDbXrecord
  1
{844639E2-177E-11D4-932C-444553540000}
  0
XRECORD
  5
1FB3
102
{ACAD_REACTORS
330
1FA7
102
}
330
1FA7
100
AcDbXrecord
  1
{94DD067B-93E9-41BD-86FA-83F218B083F0}
  0
XRECORD
  5
1FB4
102
{ACAD_REACTORS
330
1FA7
102
}
330
1FA7
100
AcDbXrecord
 40
0.0
  0
XRECORD
  5
1FB5
102
{ACAD_REACTORS
330
1FA7
102
}
330
1FA7
100
AcDbXrecord
1000
DSTYLE
1002
{
1070
   279
 70
     2
1070
   341
340
6D
1070
   343
340
6D
1070
   344
340
6D
1070
   371
 70
    -1
1070
   372
 70
    -1
1002
}
  0
XRECORD
  5
1FB6
102
{ACAD_REACTORS
330
1FA7
102
}
330
1FA7
100
AcDbXrecord
340
0
  0
XRECORD
  5
1FB7
102
{ACAD_REACTORS
330
1FA7
102
}
330
1FA7
100
AcDbXrecord
 70
     0
  0
XRECORD
  5
1FB8
102
{ACAD_REACTORS
330
1FA7
102
}
330
1FA7
100
AcDbXrecord
340
0
  0
XRECORD
  5
1FB9
102
{ACAD_REACTORS
330
1FA7
102
}
330
1FA7
100
AcDbXrecord
 10
0.0
 20
0.0
 30
0.0
  0
XRECORD
  5
1FBA
102
{ACAD_REACTORS
330
1FA7
102
}
330
1FA7
100
AcDbXrecord
 10
0.0
 20
0.0
 30
0.0
  0
XRECORD
  5
1FBB
102
{ACAD_REACTORS
330
1FA7
102
}
330
1FA7
100
AcDbXrecord
 10
0.0
 20
0.0
 30
0.0
  0
XRECORD
  5
1FBC
102
{ACAD_REACTORS
330
1FA7
102
}
330
1FA7
100
AcDbXrecord
 10
0.0
 20
0.0
 30
0.0
  0
XRECORD
  5
1FBD
102
{ACAD_REACTORS
330
1FA7
102
}
330
1FA7
100
AcDbXrecord
 10
0.0
 20
0.0
 30
0.0
  0
XRECORD
  5
1FBE
102
{ACAD_REACTORS
330
1FA7
102
}
330
1FA7
100
AcDbXrecord
 10
0.0
 20
0.0
 30
0.0
  0
XRECORD
  5
1FBF
102
{ACAD_REACTORS
330
1FA7
102
}
330
1FA7
100
AcDbXrecord
340
0
  0
XRECORD
  5
1FC0
102
{ACAD_REACTORS
330
1FA7
102
}
330
1FA7
100
AcDbXrecord
 70
     0
  0
XRECORD
  5
1FC1
102
{ACAD_REACTORS
330
1FA7
102
}
330
1FA7
100
AcDbXrecord
340
0
  0
XRECORD
  5
1FC2
102
{ACAD_REACTORS
330
1FA7
102
}
330
1FA7
100
AcDbXrecord
 10
0.0
 20
0.0
 30
0.0
  0
XRECORD
  5
1FC3
102
{ACAD_REACTORS
330
1FA7
102
}
330
1FA7
100
AcDbXrecord
 10
0.0
 20
0.0
 30
0.0
  0
XRECORD
  5
1FC4
102
{ACAD_REACTORS
330
1FA7
102
}
330
1FA7
100
AcDbXrecord
 10
0.0
 20
0.0
 30
0.0
  0
XRECORD
  5
1FC5
102
{ACAD_REACTORS
330
1FA7
102
}
330
1FA7
100
AcDbXrecord
 10
0.0
 20
0.0
 30
0.0
  0
XRECORD
  5
1FC6
102
{ACAD_REACTORS
330
1FA7
102
}
330
1FA7
100
AcDbXrecord
 10
0.0
 20
0.0
 30
0.0
  0
XRECORD
  5
1FC7
102
{ACAD_REACTORS
330
1FA7
102
}
330
1FA7
100
AcDbXrecord
 10
0.0
 20
0.0
 30
0.0
  0
ENDSEC
  0
EOF
