  0
SECTION
  2
HEADER
  9
$ACADVER
  1
AC1014
  9
$ACADMAINTVER
 70
     9
  9
$DWGCODEPAGE
  3
ANSI_932
  9
$INSBASE
 10
0.0
 20
0.0
 30
0.0
  9
$EXTMIN
 10
-0.0299542270267921
 20
-0.0383139446757923
 30
-0.0000000100021258
  9
$EXTMAX
 10
981.644960159052
 20
1255.601133114898
 30
0.0000000100022031
  9
$LIMMIN
 10
0.0
 20
0.0
  9
$LIMMAX
 10
840.0
 20
594.0
  9
$ORTHOMODE
 70
     0
  9
$REGENMODE
 70
     1
  9
$FILLMODE
 70
     1
  9
$QTEXTMODE
 70
     0
  9
$MIRRTEXT
 70
     1
  9
$DRAGMODE
 70
     2
  9
$LTSCALE
 40
2.0
  9
$OSMODE
 70
    37
  9
$ATTMODE
 70
     1
  9
$TEXTSIZE
 40
5.0
  9
$TRACEWID
 40
1.0
  9
$TEXTSTYLE
  7
STANDARD
  9
$CLAYER
  8
SUNPOU
  9
$CELTYPE
  6
BYLAYER
  9
$CECOLOR
 62
   256
  9
$CELTSCALE
 40
1.0
  9
$DELOBJ
 70
     1
  9
$DISPSILH
 70
     0
  9
$DIMSCALE
 40
1.0
  9
$DIMASZ
 40
7.0
  9
$DIMEXO
 40
6.0
  9
$DIMDLI
 40
14.0
  9
$DIMRND
 40
0.0
  9
$DIMDLE
 40
0.0
  9
$DIMEXE
 40
3.0
  9
$DIMTP
 40
0.0
  9
$DIMTM
 40
0.0
  9
$DIMTXT
 40
6.0
  9
$DIMCEN
 40
150.0
  9
$DIMTSZ
 40
0.0
  9
$DIMTOL
 70
     0
  9
$DIMLIM
 70
     0
  9
$DIMTIH
 70
     0
  9
$DIMTOH
 70
     0
  9
$DIMSE1
 70
     0
  9
$DIMSE2
 70
     0
  9
$DIMTAD
 70
     3
  9
$DIMZIN
 70
     0
  9
$DIMBLK
  1

  9
$DIMASO
 70
     1
  9
$DIMSHO
 70
     1
  9
$DIMPOST
  1

  9
$DIMAPOST
  1

  9
$DIMALT
 70
     0
  9
$DIMALTD
 70
     2
  9
$DIMALTF
 40
25.4
  9
$DIMLFAC
 40
1.0
  9
$DIMTOFL
 70
     1
  9
$DIMTVP
 40
0.0
  9
$DIMTIX
 70
     0
  9
$DIMSOXD
 70
     0
  9
$DIMSAH
 70
     1
  9
$DIMBLK1
  1
OPEN
  9
$DIMBLK2
  1
OPEN
  9
$DIMSTYLE
  2
STANDARD
  9
$DIMCLRD
 70
   256
  9
$DIMCLRE
 70
   256
  9
$DIMCLRT
 70
   256
  9
$DIMTFAC
 40
1.0
  9
$DIMGAP
 40
2.0
  9
$DIMJUST
 70
     0
  9
$DIMSD1
 70
     0
  9
$DIMSD2
 70
     0
  9
$DIMTOLJ
 70
     1
  9
$DIMTZIN
 70
     0
  9
$DIMALTZ
 70
     0
  9
$DIMALTTZ
 70
     0
  9
$DIMFIT
 70
     3
  9
$DIMUPT
 70
     0
  9
$DIMUNIT
 70
     2
  9
$DIMDEC
 70
     0
  9
$DIMTDEC
 70
     0
  9
$DIMALTU
 70
     2
  9
$DIMALTTD
 70
     2
  9
$DIMTXSTY
  7
STANDARD
  9
$DIMAUNIT
 70
     0
  9
$LUNITS
 70
     2
  9
$LUPREC
 70
     4
  9
$SKETCHINC
 40
1.0
  9
$FILLETRAD
 40
20.0
  9
$AUNITS
 70
     0
  9
$AUPREC
 70
     0
  9
$MENU
  1
.
  9
$ELEVATION
 40
0.0
  9
$PELEVATION
 40
0.0
  9
$THICKNESS
 40
0.0
  9
$LIMCHECK
 70
     0
  9
$BLIPMODE
 70
     0
  9
$CHAMFERA
 40
0.0
  9
$CHAMFERB
 40
0.0
  9
$CHAMFERC
 40
40.0
  9
$CHAMFERD
 40
0.0
  9
$SKPOLY
 70
     0
  9
$TDCREATE
 40
2451159.834708796
  9
$TDUPDATE
 40
2454635.389720116
  9
$TDINDWG
 40
0.2852415972
  9
$TDUSRTIMER
 40
0.2852414120
  9
$USRTIMER
 70
     1
  9
$ANGBASE
 50
0.0
  9
$ANGDIR
 70
     0
  9
$PDMODE
 70
     0
  9
$PDSIZE
 40
0.0
  9
$PLINEWID
 40
0.0
  9
$COORDS
 70
     0
  9
$SPLFRAME
 70
     0
  9
$SPLINETYPE
 70
     6
  9
$SPLINESEGS
 70
     8
  9
$ATTDIA
 70
     0
  9
$ATTREQ
 70
     1
  9
$HANDLING
 70
 10241
  9
$HANDSEED
  5
8E39
  9
$SURFTAB1
 70
     6
  9
$SURFTAB2
 70
     6
  9
$SURFTYPE
 70
     6
  9
$SURFU
 70
     6
  9
$SURFV
 70
     6
  9
$UCSNAME
  2

  9
$UCSORG
 10
0.0
 20
0.0
 30
0.0
  9
$UCSXDIR
 10
1.0
 20
0.0
 30
0.0
  9
$UCSYDIR
 10
0.0
 20
1.0
 30
0.0
  9
$PUCSNAME
  2

  9
$PUCSORG
 10
0.0
 20
0.0
 30
0.0
  9
$PUCSXDIR
 10
1.0
 20
0.0
 30
0.0
  9
$PUCSYDIR
 10
0.0
 20
1.0
 30
0.0
  9
$USERI1
 70
     0
  9
$USERI2
 70
     0
  9
$USERI3
 70
     0
  9
$USERI4
 70
     0
  9
$USERI5
 70
     0
  9
$USERR1
 40
0.0
  9
$USERR2
 40
0.0
  9
$USERR3
 40
0.0
  9
$USERR4
 40
0.0
  9
$USERR5
 40
0.0
  9
$WORLDVIEW
 70
     1
  9
$SHADEDGE
 70
     3
  9
$SHADEDIF
 70
    70
  9
$TILEMODE
 70
     1
  9
$MAXACTVP
 70
    16
  9
$PINSBASE
 10
0.0
 20
0.0
 30
0.0
  9
$PLIMCHECK
 70
     0
  9
$PEXTMIN
 10
0.0
 20
0.0
 30
0.0
  9
$PEXTMAX
 10
420.0
 20
297.0
 30
0.0
  9
$PLIMMIN
 10
0.0
 20
0.0
  9
$PLIMMAX
 10
420.0
 20
297.0
  9
$UNITMODE
 70
     0
  9
$VISRETAIN
 70
     0
  9
$PLINEGEN
 70
     0
  9
$PSLTSCALE
 70
     1
  9
$TREEDEPTH
 70
  3020
  9
$PICKSTYLE
 70
     1
  9
$CMLSTYLE
  2
STANDARD
  9
$CMLJUST
 70
     0
  9
$CMLSCALE
 40
1.0
  9
$PROXYGRAPHICS
 70
     1
  9
$MEASUREMENT
 70
     0
  0
ENDSEC
  0
SECTION
  2
CLASSES
  0
CLASS
  1
ACDBDICTIONARYWDFLT
  2
AcDbDictionaryWithDefault
  3
AutoCAD 2000
 90
        0
280
     0
281
     0
  0
CLASS
  1
ACDBPLACEHOLDER
  2
AcDbPlaceHolder
  3
AutoCAD 2000
 90
        0
280
     0
281
     0
  0
CLASS
  1
LAYOUT
  2
AcDbLayout
  3
AutoCAD 2000
 90
        0
280
     0
281
     0
  0
CLASS
  1
LONG_TRANSACTION
  2
AcDbLongTransaction
  3
AutoCAD 2000
 90
        0
280
     0
281
     0
  0
CLASS
  1
LWPOLYLINE
  2
AcDbPolyline
  3
AutoCAD 2000
 90
        0
280
     0
281
     1
  0
CLASS
  1
HATCH
  2
AcDbHatch
  3
AutoCAD 2000
 90
        0
280
     0
281
     1
  0
CLASS
  1
XRECORD
  2
AcDbXrecord
  3
AutoCAD 2000
 90
        0
280
     0
281
     0
  0
CLASS
  1
LONG_TRANSACTION
  2
AcDbLongTransaction
  3
AutoCAD 2000
 90
        0
280
     0
281
     0
  0
CLASS
  1
LWPOLYLINE
  2
AcDbPolyline
  3
AutoCAD 2000
 90
        0
280
     0
281
     1
  0
CLASS
  1
HATCH
  2
AcDbHatch
  3
AutoCAD 2000
 90
        0
280
     0
281
     1
  0
CLASS
  1
XRECORD
  2
AcDbXrecord
  3
AutoCAD 2000
 90
        0
280
     0
281
     0
  0
CLASS
  1
LONG_TRANSACTION
  2
AcDbLongTransaction
  3
AutoCAD 2000
 90
        0
280
     0
281
     0
  0
CLASS
  1
LWPOLYLINE
  2
AcDbPolyline
  3
AutoCAD 2000
 90
        0
280
     0
281
     1
  0
CLASS
  1
HATCH
  2
AcDbHatch
  3
AutoCAD 2000
 90
        0
280
     0
281
     1
  0
CLASS
  1
XRECORD
  2
AcDbXrecord
  3
AutoCAD 2000
 90
        0
280
     0
281
     0
  0
CLASS
  1
LONG_TRANSACTION
  2
AcDbLongTransaction
  3
AutoCAD 2000
 90
        0
280
     0
281
     0
  0
CLASS
  1
LWPOLYLINE
  2
AcDbPolyline
  3
AutoCAD 2000
 90
        0
280
     0
281
     1
  0
CLASS
  1
HATCH
  2
AcDbHatch
  3
AutoCAD 2000
 90
        0
280
     0
281
     1
  0
CLASS
  1
XRECORD
  2
AcDbXrecord
  3
AutoCAD 2000
 90
        0
280
     0
281
     0
  0
CLASS
  1
LONG_TRANSACTION
  2
AcDbLongTransaction
  3
AutoCAD 2000
 90
        0
280
     0
281
     0
  0
CLASS
  1
LWPOLYLINE
  2
AcDbPolyline
  3
AutoCAD 2000
 90
        0
280
     0
281
     1
  0
CLASS
  1
HATCH
  2
AcDbHatch
  3
AutoCAD 2000
 90
        0
280
     0
281
     1
  0
CLASS
  1
XRECORD
  2
AcDbXrecord
  3
AutoCAD 2000
 90
        0
280
     0
281
     0
  0
CLASS
  1
LONG_TRANSACTION
  2
AcDbLongTransaction
  3
AutoCAD 2000
 90
        0
280
     0
281
     0
  0
CLASS
  1
LWPOLYLINE
  2
AcDbPolyline
  3
AutoCAD 2000
 90
        0
280
     0
281
     1
  0
CLASS
  1
HATCH
  2
AcDbHatch
  3
AutoCAD 2000
 90
        0
280
     0
281
     1
  0
CLASS
  1
XRECORD
  2
AcDbXrecord
  3
AutoCAD 2000
 90
        0
280
     0
281
     0
  0
CLASS
  1
LONG_TRANSACTION
  2
AcDbLongTransaction
  3
AutoCAD 2000
 90
        0
280
     0
281
     0
  0
CLASS
  1
LWPOLYLINE
  2
AcDbPolyline
  3
AutoCAD 2000
 90
        0
280
     0
281
     1
  0
CLASS
  1
HATCH
  2
AcDbHatch
  3
AutoCAD 2000
 90
        0
280
     0
281
     1
  0
CLASS
  1
XRECORD
  2
AcDbXrecord
  3
AutoCAD 2000
 90
        0
280
     0
281
     0
  0
CLASS
  1
LONG_TRANSACTION
  2
AcDbLongTransaction
  3
AutoCAD 2000
 90
        0
280
     0
281
     0
  0
CLASS
  1
LWPOLYLINE
  2
AcDbPolyline
  3
AutoCAD 2000
 90
        0
280
     0
281
     1
  0
CLASS
  1
HATCH
  2
AcDbHatch
  3
AutoCAD 2000
 90
        0
280
     0
281
     1
  0
CLASS
  1
XRECORD
  2
AcDbXrecord
  3
AutoCAD 2000
 90
        0
280
     0
281
     0
  0
CLASS
  1
LONG_TRANSACTION
  2
AcDbLongTransaction
  3
AutoCAD 2000
 90
        0
280
     0
281
     0
  0
CLASS
  1
LWPOLYLINE
  2
AcDbPolyline
  3
AutoCAD 2000
 90
        0
280
     0
281
     1
  0
CLASS
  1
HATCH
  2
AcDbHatch
  3
AutoCAD 2000
 90
        0
280
     0
281
     1
  0
CLASS
  1
XRECORD
  2
AcDbXrecord
  3
AutoCAD 2000
 90
        0
280
     0
281
     0
  0
CLASS
  1
LONG_TRANSACTION
  2
AcDbLongTransaction
  3
AutoCAD 2000
 90
        0
280
     0
281
     0
  0
CLASS
  1
LWPOLYLINE
  2
AcDbPolyline
  3
AutoCAD 2000
 90
        0
280
     0
281
     1
  0
CLASS
  1
HATCH
  2
AcDbHatch
  3
AutoCAD 2000
 90
        0
280
     0
281
     1
  0
CLASS
  1
XRECORD
  2
AcDbXrecord
  3
AutoCAD 2000
 90
        0
280
     0
281
     0
  0
CLASS
  1
LONG_TRANSACTION
  2
AcDbLongTransaction
  3
AutoCAD 2000
 90
        0
280
     0
281
     0
  0
CLASS
  1
LWPOLYLINE
  2
AcDbPolyline
  3
AutoCAD 2000
 90
        0
280
     0
281
     1
  0
CLASS
  1
HATCH
  2
AcDbHatch
  3
AutoCAD 2000
 90
        0
280
     0
281
     1
  0
CLASS
  1
XRECORD
  2
AcDbXrecord
  3
AutoCAD 2000
 90
        0
280
     0
281
     0
  0
CLASS
  1
LONG_TRANSACTION
  2
AcDbLongTransaction
  3
AutoCAD 2000
 90
        0
280
     0
281
     0
  0
CLASS
  1
LWPOLYLINE
  2
AcDbPolyline
  3
AutoCAD 2000
 90
        0
280
     0
281
     1
  0
CLASS
  1
HATCH
  2
AcDbHatch
  3
AutoCAD 2000
 90
        0
280
     0
281
     1
  0
CLASS
  1
XRECORD
  2
AcDbXrecord
  3
AutoCAD 2000
 90
        0
280
     0
281
     0
  0
ENDSEC
  0
SECTION
  2
TABLES
  0
TABLE
  2
VPORT
  5
8
330
0
100
AcDbSymbolTable
 70
     3
  0
VPORT
  5
8DBB
330
8
100
AcDbSymbolTableRecord
100
AcDbViewportTableRecord
  2
*ACTIVE
 70
     0
 10
0.0
 20
0.0
 11
1.0
 21
1.0
 12
449.8750201924634
 22
287.6018410846213
 13
0.0
 23
0.0
 14
5.0
 24
5.0
 15
0.0
 25
0.0
 16
0.0
 26
0.0
 36
1.0
 17
0.0
 27
0.0
 37
0.0
 40
780.3757668272737
 41
1.570153061224489
 42
50.0
 43
0.0
 44
0.0
 50
0.0
 51
0.0
 71
     0
 72
   100
 73
     1
 74
     0
 75
     0
 76
     0
 77
     0
 78
     0
  0
ENDTAB
  0
TABLE
  2
LTYPE
  5
5
330
0
100
AcDbSymbolTable
 70
     3
  0
LTYPE
  5
14
330
5
100
AcDbSymbolTableRecord
100
AcDbLinetypeTableRecord
  2
BYBLOCK
 70
     0
  3

 72
    65
 73
     0
 40
0.0
  0
LTYPE
  5
15
330
5
100
AcDbSymbolTableRecord
100
AcDbLinetypeTableRecord
  2
BYLAYER
 70
     0
  3

 72
    65
 73
     0
 40
0.0
  0
LTYPE
  5
16
330
5
100
AcDbSymbolTableRecord
100
AcDbLinetypeTableRecord
  2
CONTINUOUS
 70
     0
  3
Solid line
 72
    65
 73
     0
 40
0.0
  0
LTYPE
  5
135
330
5
100
AcDbSymbolTableRecord
100
AcDbLinetypeTableRecord
  2
CENTER
 70
     0
  3
____ _ ____ _ ____ _ ____ _ ____ _ ____ _ ____ 
 72
    65
 73
     4
 40
2.0
 49
1.25
 74
     0
 49
-0.25
 74
     0
 49
0.25
 74
     0
 49
-0.25
 74
     0
  0
ENDTAB
  0
TABLE
  2
LAYER
  5
2
102
{ACAD_XDICTIONARY
360
86D2
102
}
330
0
100
AcDbSymbolTable
 70
    11
  0
LAYER
  5
F
330
2
100
AcDbSymbolTableRecord
100
AcDbLayerTableRecord
  2
0
 70
     0
 62
     7
  6
CONTINUOUS
  0
LAYER
  5
62
330
2
100
AcDbSymbolTableRecord
100
AcDbLayerTableRecord
  2
VIEWPORT
 70
     0
 62
     7
  6
CONTINUOUS
  0
LAYER
  5
65
330
2
100
AcDbSymbolTableRecord
100
AcDbLayerTableRecord
  2
ZUWAKU
 70
     0
 62
     7
  6
CONTINUOUS
  0
LAYER
  5
144
330
2
100
AcDbSymbolTableRecord
100
AcDbLayerTableRecord
  2
SEIHIN
 70
     0
 62
     3
  6
CONTINUOUS
  0
LAYER
  5
2B4
330
2
100
AcDbSymbolTableRecord
100
AcDbLayerTableRecord
  2
SUNPOU
 70
     0
 62
     4
  6
CONTINUOUS
  0
LAYER
  5
2B5
330
2
100
AcDbSymbolTableRecord
100
AcDbLayerTableRecord
  2
CENTER_L
 70
     0
 62
     1
  6
CENTER
  0
LAYER
  5
43A
330
2
100
AcDbSymbolTableRecord
100
AcDbLayerTableRecord
  2
DEFPOINTS
 70
     0
 62
     7
  6
CONTINUOUS
  0
LAYER
  5
5905
330
2
100
AcDbSymbolTableRecord
100
AcDbLayerTableRecord
  2
CENTER_L0
 70
     0
 62
     1
  6
CENTER
  0
LAYER
  5
6527
330
2
100
AcDbSymbolTableRecord
100
AcDbLayerTableRecord
  2
MOJI
 70
     0
 62
     2
  6
CONTINUOUS
  0
LAYER
  5
8780
330
2
100
AcDbSymbolTableRecord
100
AcDbLayerTableRecord
  2
CENTER_L1
 70
     0
 62
     1
  6
CENTER
  0
ENDTAB
  0
TABLE
  2
STYLE
  5
3
330
0
100
AcDbSymbolTable
 70
     3
  0
STYLE
  5
10
330
3
100
AcDbSymbolTableRecord
100
AcDbTextStyleTableRecord
  2
STANDARD
 70
     0
 40
0.0
 41
1.0
 50
0.0
 71
     0
 42
5.0
  3
TXT
  4
A:\Program Files\AutoCAD LT\ms\bigfont.shx
  0
STYLE
  5
6528
330
3
100
AcDbSymbolTableRecord
100
AcDbTextStyleTableRecord
  2
ｽﾀｲﾙ1
 70
     0
 40
0.0
 41
1.0
 50
0.0
 71
     0
 42
2.5
  3
MS PGothic.ttf
  4

1001
ACAD
1000
MS PGothic
1071
    32818
  0
ENDTAB
  0
TABLE
  2
VIEW
  5
6
330
0
100
AcDbSymbolTable
 70
     0
  0
ENDTAB
  0
TABLE
  2
UCS
  5
7
330
0
100
AcDbSymbolTable
 70
     0
  0
ENDTAB
  0
TABLE
  2
APPID
  5
9
330
0
100
AcDbSymbolTable
 70
     1
  0
APPID
  5
11
330
9
100
AcDbSymbolTableRecord
100
AcDbRegAppTableRecord
  2
ACAD
 70
     0
  0
ENDTAB
  0
TABLE
  2
DIMSTYLE
  5
A
330
0
100
AcDbSymbolTable
 70
     2
  0
DIMSTYLE
105
1D
102
{ACAD_REACTORS
330
5C01
330
5C06
330
5C2E
330
5C35
330
836D
330
837B
330
8388
330
8395
330
83A2
330
83AF
330
83BC
330
868A
330
86B2
330
86BF
330
8C27
330
8A19
330
8C26
330
8A1E
330
8A43
330
8A3F
330
8AF4
330
8A44
330
8AA4
330
8AA3
330
8A4E
330
8B01
330
8A0F
330
8A0E
102
}
330
A
100
AcDbSymbolTableRecord
100
AcDbDimStyleTableRecord
  2
STANDARD
 70
     0
  3

  4

  5

  6

  7

 40
1.0
 41
0.18
 42
0.0625
 43
0.38
 44
0.18
 45
0.0
 46
0.0
 47
0.0
 48
0.0
140
0.18
141
0.09
142
0.0
143
25.4
144
1.0
145
0.0
146
1.0
147
0.09
 71
     0
 72
     0
 73
     1
 74
     1
 75
     0
 76
     0
 77
     0
 78
     0
170
     0
171
     2
172
     0
173
     0
174
     0
175
     0
176
     0
177
     0
178
     0
270
     2
271
     4
272
     4
273
     2
274
     2
340
10
275
     0
280
     0
281
     0
282
     0
283
     1
284
     0
285
     0
286
     0
287
     3
288
     0
  0
ENDTAB
  0
TABLE
  2
BLOCK_RECORD
  5
1
330
0
100
AcDbSymbolTable
 70
    44
  0
BLOCK_RECORD
  5
1A
102
{ACAD_XDICTIONARY
360
6C6
102
}
330
1
100
AcDbSymbolTableRecord
100
AcDbBlockTableRecord
  2
*MODEL_SPACE
  0
BLOCK_RECORD
  5
17
102
{ACAD_XDICTIONARY
360
6C4
102
}
330
1
100
AcDbSymbolTableRecord
100
AcDbBlockTableRecord
  2
*PAPER_SPACE
  0
BLOCK_RECORD
  5
6D
330
1
100
AcDbSymbolTableRecord
100
AcDbBlockTableRecord
  2
_OPEN
  0
BLOCK_RECORD
  5
5C52
330
1
100
AcDbSymbolTableRecord
100
AcDbBlockTableRecord
  2
*D1
  0
BLOCK_RECORD
  5
5C5E
330
1
100
AcDbSymbolTableRecord
100
AcDbBlockTableRecord
  2
*D2
  0
BLOCK_RECORD
  5
5C6A
330
1
100
AcDbSymbolTableRecord
100
AcDbBlockTableRecord
  2
*D3
  0
BLOCK_RECORD
  5
5C78
330
1
100
AcDbSymbolTableRecord
100
AcDbBlockTableRecord
  2
*D4
  0
BLOCK_RECORD
  5
836E
330
1
100
AcDbSymbolTableRecord
100
AcDbBlockTableRecord
  2
*D5
  0
BLOCK_RECORD
  5
837C
330
1
100
AcDbSymbolTableRecord
100
AcDbBlockTableRecord
  2
*D6
  0
BLOCK_RECORD
  5
8389
330
1
100
AcDbSymbolTableRecord
100
AcDbBlockTableRecord
  2
*D7
  0
BLOCK_RECORD
  5
8396
330
1
100
AcDbSymbolTableRecord
100
AcDbBlockTableRecord
  2
*D8
  0
BLOCK_RECORD
  5
83A3
330
1
100
AcDbSymbolTableRecord
100
AcDbBlockTableRecord
  2
*D9
  0
BLOCK_RECORD
  5
83B0
330
1
100
AcDbSymbolTableRecord
100
AcDbBlockTableRecord
  2
*D10
  0
BLOCK_RECORD
  5
83BD
330
1
100
AcDbSymbolTableRecord
100
AcDbBlockTableRecord
  2
*D11
  0
BLOCK_RECORD
  5
868B
330
1
100
AcDbSymbolTableRecord
100
AcDbBlockTableRecord
  2
*D12
  0
BLOCK_RECORD
  5
86B3
330
1
100
AcDbSymbolTableRecord
100
AcDbBlockTableRecord
  2
*D13
  0
BLOCK_RECORD
  5
86C0
330
1
100
AcDbSymbolTableRecord
100
AcDbBlockTableRecord
  2
*D14
  0
ENDTAB
  0
ENDSEC
  0
SECTION
  2
BLOCKS
  0
BLOCK
  5
1B
330
1A
100
AcDbEntity
  8
0
100
AcDbBlockBegin
  2
*MODEL_SPACE
 70
     0
 10
0.0
 20
0.0
 30
0.0
  3
*MODEL_SPACE
  1

  0
ENDBLK
  5
1C
330
1A
100
AcDbEntity
  8
0
100
AcDbBlockEnd
  0
BLOCK
  5
18
330
17
100
AcDbEntity
 67
     1
  8
0
100
AcDbBlockBegin
  2
*PAPER_SPACE
 70
     0
 10
0.0
 20
0.0
 30
0.0
  3
*PAPER_SPACE
  1

  0
ENDBLK
  5
19
330
17
100
AcDbEntity
 67
     1
  8
0
100
AcDbBlockEnd
  0
BLOCK
  5
6E
330
6D
100
AcDbEntity
  8
0
100
AcDbBlockBegin
  2
_OPEN
 70
     0
 10
0.0
 20
0.0
 30
0.0
  3
_OPEN
  1

  0
LINE
  5
6F
330
6D
100
AcDbEntity
  8
0
  6
BYBLOCK
 62
     0
100
AcDbLine
 10
-1.0
 20
0.1666666666666666
 30
0.0
 11
0.0
 21
0.0
 31
0.0
  0
LINE
  5
70
330
6D
100
AcDbEntity
  8
0
  6
BYBLOCK
 62
     0
100
AcDbLine
 10
0.0
 20
0.0
 30
0.0
 11
-1.0
 21
-0.1666666666666666
 31
0.0
  0
LINE
  5
71
330
6D
100
AcDbEntity
  8
0
  6
BYBLOCK
 62
     0
100
AcDbLine
 10
0.0
 20
0.0
 30
0.0
 11
-1.0
 21
0.0
 31
0.0
  0
ENDBLK
  5
72
330
6D
100
AcDbEntity
  8
0
100
AcDbBlockEnd
  0
BLOCK
  5
5C5C
330
5C52
100
AcDbEntity
  8
0
100
AcDbBlockBegin
  2
*D1
 70
     1
 10
0.0
 20
0.0
 30
0.0
  3
*D1
  1

  0
LINE
  5
66B5
330
5C52
100
AcDbEntity
  8
SUNPOU
100
AcDbLine
 10
250.5171853477822
 20
412.3909069120169
 30
0.0
 11
272.2643532410634
 21
412.3909069120169
 31
0.0
  0
LINE
  5
66B6
330
5C52
100
AcDbEntity
  8
SUNPOU
100
AcDbLine
 10
250.5171853477822
 20
385.9227362590169
 30
0.0
 11
272.2643532410634
 21
385.9227362590169
 31
0.0
  0
LINE
  5
66B7
330
5C52
100
AcDbEntity
  8
SUNPOU
100
AcDbLine
 10
269.2643532410634
 20
405.3909069120169
 30
0.0
 11
269.2643532410634
 21
392.922736259017
 31
0.0
  0
INSERT
  5
66B8
330
5C52
100
AcDbEntity
  8
SUNPOU
100
AcDbBlockReference
  2
_OPEN
 10
269.2643532410634
 20
412.3909069120169
 30
0.0
 41
7.0
 42
7.0
 43
7.0
 50
90.0
  0
INSERT
  5
66B9
330
5C52
100
AcDbEntity
  8
SUNPOU
100
AcDbBlockReference
  2
_OPEN
 10
269.2643532410634
 20
385.9227362590169
 30
0.0
 41
7.0
 42
7.0
 43
7.0
 50
270.0
  0
MTEXT
  5
66BA
330
5C52
100
AcDbEntity
  8
SUNPOU
100
AcDbMText
 10
264.2643532410632
 20
399.156821585517
 30
0.0
 40
6.0
 41
0.0
 71
     5
 72
     1
  1
\A1;26
 11
0.0000000000000001
 21
1.0
 31
0.0
1001
ACAD
1000
MTEXTBEGIN
1070
    73
1070
     1
1070
    44
1040
1.0
1070
    74
1070
     0
1000
MTEXTEND
  0
POINT
  5
66BB
330
5C52
100
AcDbEntity
  8
DEFPOINTS
 62
     0
100
AcDbPoint
 10
244.5171853477822
 20
412.3909069120169
 30
0.0
  0
POINT
  5
66BC
330
5C52
100
AcDbEntity
  8
DEFPOINTS
 62
     0
100
AcDbPoint
 10
244.5171853477822
 20
385.9227362590169
 30
0.0
  0
POINT
  5
66BD
330
5C52
100
AcDbEntity
  8
DEFPOINTS
 62
     0
100
AcDbPoint
 10
269.2643532410634
 20
385.9227362590169
 30
0.0
  0
ENDBLK
  5
5C5D
330
5C52
100
AcDbEntity
  8
0
100
AcDbBlockEnd
  0
BLOCK
  5
5C68
330
5C5E
100
AcDbEntity
  8
0
100
AcDbBlockBegin
  2
*D2
 70
     1
 10
0.0
 20
0.0
 30
0.0
  3
*D2
  1

  0
LINE
  5
66A3
330
5C5E
100
AcDbEntity
  8
SUNPOU
100
AcDbLine
 10
158.8219400648663
 20
393.679104467817
 30
0.0
 11
158.8219400648663
 21
444.0705514893172
 31
0.0
  0
LINE
  5
66A4
330
5C5E
100
AcDbEntity
  8
SUNPOU
100
AcDbLine
 10
178.1339011093161
 20
392.422720266517
 30
0.0
 11
178.1339011093161
 21
444.0705514893172
 31
0.0
  0
LINE
  5
66A5
330
5C5E
100
AcDbEntity
  8
SUNPOU
100
AcDbLine
 10
165.8219400648662
 20
441.0705514893172
 30
0.0
 11
171.133901109316
 21
441.0705514893172
 31
0.0
  0
INSERT
  5
66A6
330
5C5E
100
AcDbEntity
  8
SUNPOU
100
AcDbBlockReference
  2
_OPEN
 10
158.8219400648663
 20
441.0705514893172
 30
0.0
 41
7.0
 42
7.0
 43
7.0
 50
180.0
  0
INSERT
  5
66A7
330
5C5E
100
AcDbEntity
  8
SUNPOU
100
AcDbBlockReference
  2
_OPEN
 10
178.1339011093161
 20
441.0705514893172
 30
0.0
 41
7.0
 42
7.0
 43
7.0
  0
MTEXT
  5
66A8
330
5C5E
100
AcDbEntity
  8
SUNPOU
100
AcDbMText
 10
168.4779205870912
 20
446.0705514893172
 30
0.0
 40
6.0
 41
0.0
 71
     5
 72
     1
  1
\A1;19
1001
ACAD
1000
MTEXTBEGIN
1070
    73
1070
     1
1070
    44
1040
1.0
1070
    74
1070
     0
1000
MTEXTEND
  0
POINT
  5
66A9
330
5C5E
100
AcDbEntity
  8
DEFPOINTS
 62
     0
100
AcDbPoint
 10
158.8219400648663
 20
387.679104467817
 30
0.0
  0
POINT
  5
66AA
330
5C5E
100
AcDbEntity
  8
DEFPOINTS
 62
     0
100
AcDbPoint
 10
178.1339011093161
 20
386.4227202665169
 30
0.0
  0
POINT
  5
66AB
330
5C5E
100
AcDbEntity
  8
DEFPOINTS
 62
     0
100
AcDbPoint
 10
178.1339011093161
 20
441.0705514893172
 30
0.0
  0
ENDBLK
  5
5C69
330
5C5E
100
AcDbEntity
  8
0
100
AcDbBlockEnd
  0
BLOCK
  5
5C76
330
5C6A
100
AcDbEntity
  8
0
100
AcDbBlockBegin
  2
*D3
 70
     1
 10
0.0
 20
0.0
 30
0.0
  3
*D3
  1

  0
LINE
  5
6698
330
5C6A
100
AcDbEntity
  8
SUNPOU
100
AcDbLine
 10
166.049145187795
 20
415.3640637665231
 30
0.0
 11
166.049145187795
 21
429.1409072249814
 31
0.0
  0
LINE
  5
6699
330
5C6A
100
AcDbEntity
  8
SUNPOU
100
AcDbLine
 10
177.1339011093161
 20
413.1291008783169
 30
0.0
 11
177.1339011093161
 21
429.1409072249814
 31
0.0
  0
LINE
  5
669A
330
5C6A
100
AcDbEntity
  8
SUNPOU
100
AcDbLine
 10
159.049145187795
 20
426.1409072249815
 30
0.0
 11
152.049145187795
 21
426.1409072249815
 31
0.0
  0
LINE
  5
669B
330
5C6A
100
AcDbEntity
  8
SUNPOU
100
AcDbLine
 10
184.1339011093161
 20
426.1409072249815
 30
0.0
 11
191.133901109316
 21
426.1409072249815
 31
0.0
  0
LINE
  5
669C
330
5C6A
100
AcDbEntity
  8
SUNPOU
100
AcDbLine
 10
166.049145187795
 20
426.1409072249815
 30
0.0
 11
177.1339011093161
 21
426.1409072249815
 31
0.0
  0
INSERT
  5
669D
330
5C6A
100
AcDbEntity
  8
SUNPOU
100
AcDbBlockReference
  2
_OPEN
 10
166.049145187795
 20
426.1409072249815
 30
0.0
 41
7.0
 42
7.0
 43
7.0
  0
INSERT
  5
669E
330
5C6A
100
AcDbEntity
  8
SUNPOU
100
AcDbBlockReference
  2
_OPEN
 10
177.1339011093161
 20
426.1409072249815
 30
0.0
 41
7.0
 42
7.0
 43
7.0
 50
180.0
  0
MTEXT
  5
669F
330
5C6A
100
AcDbEntity
  8
SUNPOU
100
AcDbMText
 10
171.5915231485556
 20
431.1409072249815
 30
0.0
 40
6.0
 41
0.0
 71
     5
 72
     1
  1
\A1;11
1001
ACAD
1000
MTEXTBEGIN
1070
    73
1070
     1
1070
    44
1040
1.0
1070
    74
1070
     0
1000
MTEXTEND
  0
POINT
  5
66A0
330
5C6A
100
AcDbEntity
  8
DEFPOINTS
 62
     0
100
AcDbPoint
 10
166.049145187795
 20
409.3640637665232
 30
0.0
  0
POINT
  5
66A1
330
5C6A
100
AcDbEntity
  8
DEFPOINTS
 62
     0
100
AcDbPoint
 10
177.1339011093161
 20
407.1291008783169
 30
0.0
  0
POINT
  5
66A2
330
5C6A
100
AcDbEntity
  8
DEFPOINTS
 62
     0
100
AcDbPoint
 10
177.1339011093161
 20
426.1409072249815
 30
0.0
  0
ENDBLK
  5
5C77
330
5C6A
100
AcDbEntity
  8
0
100
AcDbBlockEnd
  0
BLOCK
  5
5C82
330
5C78
100
AcDbEntity
  8
0
100
AcDbBlockBegin
  2
*D4
 70
     1
 10
0.0
 20
0.0
 30
0.0
  3
*D4
  1

  0
LINE
  5
66AC
330
5C78
100
AcDbEntity
  8
SUNPOU
100
AcDbLine
 10
214.5171853477822
 20
418.3909069120169
 30
0.0
 11
214.5171853477822
 21
444.0705514893172
 31
0.0
  0
LINE
  5
66AD
330
5C78
100
AcDbEntity
  8
SUNPOU
100
AcDbLine
 10
244.5171853477822
 20
418.3909069120169
 30
0.0
 11
244.5171853477822
 21
444.0705514893172
 31
0.0
  0
LINE
  5
66AE
330
5C78
100
AcDbEntity
  8
SUNPOU
100
AcDbLine
 10
221.5171853477821
 20
441.0705514893172
 30
0.0
 11
237.5171853477823
 21
441.0705514893172
 31
0.0
  0
INSERT
  5
66AF
330
5C78
100
AcDbEntity
  8
SUNPOU
100
AcDbBlockReference
  2
_OPEN
 10
214.5171853477822
 20
441.0705514893172
 30
0.0
 41
7.0
 42
7.0
 43
7.0
 50
180.0
  0
INSERT
  5
66B0
330
5C78
100
AcDbEntity
  8
SUNPOU
100
AcDbBlockReference
  2
_OPEN
 10
244.5171853477822
 20
441.0705514893172
 30
0.0
 41
7.0
 42
7.0
 43
7.0
  0
MTEXT
  5
66B1
330
5C78
100
AcDbEntity
  8
SUNPOU
100
AcDbMText
 10
229.5171853477822
 20
446.0705514893172
 30
0.0
 40
6.0
 41
0.0
 71
     5
 72
     1
  1
\A1;30
1001
ACAD
1000
MTEXTBEGIN
1070
    73
1070
     1
1070
    44
1040
1.0
1070
    74
1070
     0
1000
MTEXTEND
  0
POINT
  5
66B2
330
5C78
100
AcDbEntity
  8
DEFPOINTS
 62
     0
100
AcDbPoint
 10
214.5171853477822
 20
412.3909069120168
 30
0.0
  0
POINT
  5
66B3
330
5C78
100
AcDbEntity
  8
DEFPOINTS
 62
     0
100
AcDbPoint
 10
244.5171853477822
 20
412.3909069120169
 30
0.0
  0
POINT
  5
66B4
330
5C78
100
AcDbEntity
  8
DEFPOINTS
 62
     0
100
AcDbPoint
 10
244.5171853477822
 20
441.0705514893172
 30
0.0
  0
ENDBLK
  5
5C83
330
5C78
100
AcDbEntity
  8
0
100
AcDbBlockEnd
  0
BLOCK
  5
8378
330
836E
100
AcDbEntity
  8
0
100
AcDbBlockBegin
  2
*D5
 70
     1
 10
0.0
 20
0.0
 30
0.0
  3
*D5
  1

  0
LINE
  5
8DDF
330
836E
100
AcDbEntity
  8
SUNPOU
100
AcDbLine
 10
427.2341788277715
 20
214.0582034911007
 30
0.0
 11
407.0043031318363
 21
214.0582034911007
 31
0.0
  0
LINE
  5
8DE0
330
836E
100
AcDbEntity
  8
SUNPOU
100
AcDbLine
 10
426.0783623175715
 20
193.5673457243007
 30
0.0
 11
407.0043031318363
 21
193.5673457243007
 31
0.0
  0
LINE
  5
8DE1
330
836E
100
AcDbEntity
  8
SUNPOU
100
AcDbLine
 10
410.0043031318364
 20
207.0582034911007
 30
0.0
 11
410.0043031318364
 21
200.5673457243007
 31
0.0
  0
INSERT
  5
8DE2
330
836E
100
AcDbEntity
  8
SUNPOU
100
AcDbBlockReference
  2
_OPEN
 10
410.0043031318364
 20
214.0582034911007
 30
0.0
 41
7.0
 42
7.0
 43
7.0
 50
90.0
  0
INSERT
  5
8DE3
330
836E
100
AcDbEntity
  8
SUNPOU
100
AcDbBlockReference
  2
_OPEN
 10
410.0043031318364
 20
193.5673457243007
 30
0.0
 41
7.0
 42
7.0
 43
7.0
 50
270.0
  0
MTEXT
  5
8DE4
330
836E
100
AcDbEntity
  8
SUNPOU
100
AcDbMText
 10
405.0043031318363
 20
203.8127746077008
 30
0.0
 40
6.0
 41
0.0
 71
     5
 72
     1
  1
\A1;20
 11
0.0000000000000001
 21
1.0
 31
0.0
  0
POINT
  5
8DE5
330
836E
100
AcDbEntity
  8
DEFPOINTS
 62
     0
100
AcDbPoint
 10
433.2341788277715
 20
214.0582034911007
 30
0.0
  0
POINT
  5
8DE6
330
836E
100
AcDbEntity
  8
DEFPOINTS
 62
     0
100
AcDbPoint
 10
432.0783623175715
 20
193.5673457243007
 30
0.0
  0
POINT
  5
8DE7
330
836E
100
AcDbEntity
  8
DEFPOINTS
 62
     0
100
AcDbPoint
 10
410.0043031318364
 20
193.5673457243007
 30
0.0
  0
ENDBLK
  5
8379
330
836E
100
AcDbEntity
  8
0
100
AcDbBlockEnd
  0
BLOCK
  5
8386
330
837C
100
AcDbEntity
  8
0
100
AcDbBlockBegin
  2
*D6
 70
     1
 10
0.0
 20
0.0
 30
0.0
  3
*D6
  1

  0
LINE
  5
8DE8
330
837C
100
AcDbEntity
  8
SUNPOU
100
AcDbLine
 10
427.2341788277715
 20
214.0582034911007
 30
0.0
 11
388.4834554091167
 21
214.0582034911007
 31
0.0
  0
LINE
  5
8DE9
330
837C
100
AcDbEntity
  8
SUNPOU
100
AcDbLine
 10
504.4418915096454
 20
102.5686847435681
 30
0.0
 11
388.4834554091166
 21
102.5686847435681
 31
0.0
  0
LINE
  5
8DEA
330
837C
100
AcDbEntity
  8
SUNPOU
100
AcDbLine
 10
391.4834554091167
 20
207.0582034911007
 30
0.0
 11
391.4834554091167
 21
109.5686847435681
 31
0.0
  0
INSERT
  5
8DEB
330
837C
100
AcDbEntity
  8
SUNPOU
100
AcDbBlockReference
  2
_OPEN
 10
391.4834554091167
 20
214.0582034911007
 30
0.0
 41
7.0
 42
7.0
 43
7.0
 50
90.0
  0
INSERT
  5
8DEC
330
837C
100
AcDbEntity
  8
SUNPOU
100
AcDbBlockReference
  2
_OPEN
 10
391.4834554091167
 20
102.5686847435681
 30
0.0
 41
7.0
 42
7.0
 43
7.0
 50
270.0
  0
MTEXT
  5
8DED
330
837C
100
AcDbEntity
  8
SUNPOU
100
AcDbMText
 10
386.4834554091166
 20
158.3134441173345
 30
0.0
 40
6.0
 41
0.0
 71
     5
 72
     1
  1
\A1;111
 11
0.0000000000000001
 21
1.0
 31
0.0
  0
POINT
  5
8DEE
330
837C
100
AcDbEntity
  8
DEFPOINTS
 62
     0
100
AcDbPoint
 10
433.2341788277715
 20
214.0582034911007
 30
0.0
  0
POINT
  5
8DEF
330
837C
100
AcDbEntity
  8
DEFPOINTS
 62
     0
100
AcDbPoint
 10
510.4418915096454
 20
102.5686847435681
 30
0.0
  0
POINT
  5
8DF0
330
837C
100
AcDbEntity
  8
DEFPOINTS
 62
     0
100
AcDbPoint
 10
391.4834554091167
 20
102.5686847435681
 30
0.0
  0
ENDBLK
  5
8387
330
837C
100
AcDbEntity
  8
0
100
AcDbBlockEnd
  0
BLOCK
  5
8393
330
8389
100
AcDbEntity
  8
0
100
AcDbBlockBegin
  2
*D7
 70
     1
 10
0.0
 20
0.0
 30
0.0
  3
*D7
  1

  0
LINE
  5
8DF1
330
8389
100
AcDbEntity
  8
SUNPOU
100
AcDbLine
 10
479.484415996306
 20
98.69820349106698
 30
0.0
 11
479.484415996306
 21
74.36908890352919
 31
0.0
  0
LINE
  5
8DF2
330
8389
100
AcDbEntity
  8
SUNPOU
100
AcDbLine
 10
544.0447921683682
 20
98.68053141553737
 30
0.0
 11
544.0447921683682
 21
74.36908890352919
 31
0.0
  0
LINE
  5
8DF3
330
8389
100
AcDbEntity
  8
SUNPOU
100
AcDbLine
 10
486.484415996306
 20
77.36908890352919
 30
0.0
 11
537.0447921683681
 21
77.36908890352919
 31
0.0
  0
INSERT
  5
8DF4
330
8389
100
AcDbEntity
  8
SUNPOU
100
AcDbBlockReference
  2
_OPEN
 10
479.484415996306
 20
77.36908890352919
 30
0.0
 41
7.0
 42
7.0
 43
7.0
 50
180.0
  0
INSERT
  5
8DF5
330
8389
100
AcDbEntity
  8
SUNPOU
100
AcDbBlockReference
  2
_OPEN
 10
544.0447921683682
 20
77.36908890352919
 30
0.0
 41
7.0
 42
7.0
 43
7.0
  0
MTEXT
  5
8DF6
330
8389
100
AcDbEntity
  8
SUNPOU
100
AcDbMText
 10
511.7646040823371
 20
82.36908890352919
 30
0.0
 40
6.0
 41
0.0
 71
     5
 72
     1
  1
\A1;65
  0
POINT
  5
8DF7
330
8389
100
AcDbEntity
  8
DEFPOINTS
 62
     0
100
AcDbPoint
 10
479.484415996306
 20
104.6982034910669
 30
0.0
  0
POINT
  5
8DF8
330
8389
100
AcDbEntity
  8
DEFPOINTS
 62
     0
100
AcDbPoint
 10
544.0447921683682
 20
104.6805314155373
 30
0.0
  0
POINT
  5
8DF9
330
8389
100
AcDbEntity
  8
DEFPOINTS
 62
     0
100
AcDbPoint
 10
544.0447921683682
 20
77.36908890352919
 30
0.0
  0
ENDBLK
  5
8394
330
8389
100
AcDbEntity
  8
0
100
AcDbBlockEnd
  0
BLOCK
  5
83A0
330
8396
100
AcDbEntity
  8
0
100
AcDbBlockBegin
  2
*D8
 70
     1
 10
0.0
 20
0.0
 30
0.0
  3
*D8
  1

  0
LINE
  5
8DFA
330
8396
100
AcDbEntity
  8
SUNPOU
100
AcDbLine
 10
560.9251028856715
 20
190.1173675721007
 30
0.0
 11
686.9782141286641
 21
190.1173675721007
 31
0.0
  0
LINE
  5
8DFB
330
8396
100
AcDbEntity
  8
SUNPOU
100
AcDbLine
 10
516.4418915096454
 20
102.5686847435681
 30
0.0
 11
686.9782141286641
 21
102.568684743568
 31
0.0
  0
LINE
  5
8DFC
330
8396
100
AcDbEntity
  8
SUNPOU
100
AcDbLine
 10
683.9782141286641
 20
183.1173675721007
 30
0.0
 11
683.9782141286641
 21
109.568684743568
 31
0.0
  0
INSERT
  5
8DFD
330
8396
100
AcDbEntity
  8
SUNPOU
100
AcDbBlockReference
  2
_OPEN
 10
683.9782141286641
 20
190.1173675721007
 30
0.0
 41
7.0
 42
7.0
 43
7.0
 50
90.0
  0
INSERT
  5
8DFE
330
8396
100
AcDbEntity
  8
SUNPOU
100
AcDbBlockReference
  2
_OPEN
 10
683.9782141286641
 20
102.568684743568
 30
0.0
 41
7.0
 42
7.0
 43
7.0
 50
270.0
  0
MTEXT
  5
8DFF
330
8396
100
AcDbEntity
  8
SUNPOU
100
AcDbMText
 10
678.9782141286641
 20
146.3430261578345
 30
0.0
 40
6.0
 41
0.0
 71
     5
 72
     1
  1
\A1;88
 11
0.0000000000000001
 21
1.0
 31
0.0
  0
POINT
  5
8E00
330
8396
100
AcDbEntity
  8
DEFPOINTS
 62
     0
100
AcDbPoint
 10
554.9251028856715
 20
190.1173675721007
 30
0.0
  0
POINT
  5
8E01
330
8396
100
AcDbEntity
  8
DEFPOINTS
 62
     0
100
AcDbPoint
 10
510.4418915096454
 20
102.5686847435681
 30
0.0
  0
POINT
  5
8E02
330
8396
100
AcDbEntity
  8
DEFPOINTS
 62
     0
100
AcDbPoint
 10
683.9782141286641
 20
102.568684743568
 30
0.0
  0
ENDBLK
  5
83A1
330
8396
100
AcDbEntity
  8
0
100
AcDbBlockEnd
  0
BLOCK
  5
83AD
330
83A3
100
AcDbEntity
  8
0
100
AcDbBlockBegin
  2
*D9
 70
     1
 10
0.0
 20
0.0
 30
0.0
  3
*D9
  1

  0
LINE
  5
8E03
330
83A3
100
AcDbEntity
  8
SUNPOU
100
AcDbLine
 10
553.8144316997716
 20
174.5873382084007
 30
0.0
 11
673.3415190598498
 21
174.5873382084007
 31
0.0
  0
LINE
  5
8E04
330
83A3
100
AcDbEntity
  8
SUNPOU
100
AcDbLine
 10
583.6783623176716
 20
102.5673457243007
 30
0.0
 11
673.3415190598498
 21
102.5673457243007
 31
0.0
  0
LINE
  5
8E05
330
83A3
100
AcDbEntity
  8
SUNPOU
100
AcDbLine
 10
670.3415190598498
 20
167.5873382084007
 30
0.0
 11
670.3415190598498
 21
109.5673457243007
 31
0.0
  0
INSERT
  5
8E06
330
83A3
100
AcDbEntity
  8
SUNPOU
100
AcDbBlockReference
  2
_OPEN
 10
670.3415190598498
 20
174.5873382084007
 30
0.0
 41
7.0
 42
7.0
 43
7.0
 50
90.0
  0
INSERT
  5
8E07
330
83A3
100
AcDbEntity
  8
SUNPOU
100
AcDbBlockReference
  2
_OPEN
 10
670.3415190598498
 20
102.5673457243007
 30
0.0
 41
7.0
 42
7.0
 43
7.0
 50
270.0
  0
MTEXT
  5
8E08
330
83A3
100
AcDbEntity
  8
SUNPOU
100
AcDbMText
 10
665.3415190598498
 20
138.5773419663508
 30
0.0
 40
6.0
 41
0.0
 71
     5
 72
     1
  1
\A1;72
 11
0.0000000000000001
 21
1.0
 31
0.0
  0
POINT
  5
8E09
330
83A3
100
AcDbEntity
  8
DEFPOINTS
 62
     0
100
AcDbPoint
 10
547.8144316997716
 20
174.5873382084007
 30
0.0
  0
POINT
  5
8E0A
330
83A3
100
AcDbEntity
  8
DEFPOINTS
 62
     0
100
AcDbPoint
 10
577.6783623176716
 20
102.5673457243007
 30
0.0
  0
POINT
  5
8E0B
330
83A3
100
AcDbEntity
  8
DEFPOINTS
 62
     0
100
AcDbPoint
 10
670.3415190598498
 20
102.5673457243007
 30
0.0
  0
ENDBLK
  5
83AE
330
83A3
100
AcDbEntity
  8
0
100
AcDbBlockEnd
  0
BLOCK
  5
83BA
330
83B0
100
AcDbEntity
  8
0
100
AcDbBlockBegin
  2
*D10
 70
     1
 10
0.0
 20
0.0
 30
0.0
  3
*D10
  1

  0
LINE
  5
8E0C
330
83B0
100
AcDbEntity
  8
SUNPOU
100
AcDbLine
 10
549.6558478710716
 20
178.5936353296007
 30
0.0
 11
549.6558478710716
 21
243.967924775507
 31
0.0
  0
LINE
  5
8E0D
330
83B0
100
AcDbEntity
  8
SUNPOU
100
AcDbLine
 10
426.90129066427
 20
216.9460741449295
 30
0.0
 11
426.90129066427
 21
243.967924775507
 31
0.0
  0
LINE
  5
8E0E
330
83B0
100
AcDbEntity
  8
SUNPOU
100
AcDbLine
 10
542.6558478710716
 20
240.967924775507
 30
0.0
 11
433.90129066427
 21
240.967924775507
 31
0.0
  0
INSERT
  5
8E0F
330
83B0
100
AcDbEntity
  8
SUNPOU
100
AcDbBlockReference
  2
_OPEN
 10
549.6558478710716
 20
240.967924775507
 30
0.0
 41
7.0
 42
7.0
 43
7.0
  0
INSERT
  5
8E10
330
83B0
100
AcDbEntity
  8
SUNPOU
100
AcDbBlockReference
  2
_OPEN
 10
426.90129066427
 20
240.967924775507
 30
0.0
 41
7.0
 42
7.0
 43
7.0
 50
180.0
  0
MTEXT
  5
8E11
330
83B0
100
AcDbEntity
  8
SUNPOU
100
AcDbMText
 10
488.2785692676708
 20
245.967924775507
 30
0.0
 40
6.0
 41
0.0
 71
     5
 72
     1
  1
\A1;123
  0
POINT
  5
8E12
330
83B0
100
AcDbEntity
  8
DEFPOINTS
 62
     0
100
AcDbPoint
 10
549.6558478710716
 20
172.5936353296007
 30
0.0
  0
POINT
  5
8E13
330
83B0
100
AcDbEntity
  8
DEFPOINTS
 62
     0
100
AcDbPoint
 10
426.90129066427
 20
210.9460741449295
 30
0.0
  0
POINT
  5
8E14
330
83B0
100
AcDbEntity
  8
DEFPOINTS
 62
     0
100
AcDbPoint
 10
426.90129066427
 20
240.967924775507
 30
0.0
  0
ENDBLK
  5
83BB
330
83B0
100
AcDbEntity
  8
0
100
AcDbBlockEnd
  0
BLOCK
  5
83C7
330
83BD
100
AcDbEntity
  8
0
100
AcDbBlockBegin
  2
*D11
 70
     1
 10
0.0
 20
0.0
 30
0.0
  3
*D11
  1

  0
LINE
  5
8E15
330
83BD
100
AcDbEntity
  8
SUNPOU
100
AcDbLine
 10
426.90129066427
 20
222.9460741449295
 30
0.0
 11
426.90129066427
 21
261.240640100289
 31
0.0
  0
LINE
  5
8E16
330
83BD
100
AcDbEntity
  8
SUNPOU
100
AcDbLine
 10
632.6783623176716
 20
216.9582034911007
 30
0.0
 11
632.6783623176716
 21
261.240640100289
 31
0.0
  0
LINE
  5
8E17
330
83BD
100
AcDbEntity
  8
SUNPOU
100
AcDbLine
 10
433.90129066427
 20
258.240640100289
 30
0.0
 11
625.6783623176715
 21
258.240640100289
 31
0.0
  0
INSERT
  5
8E18
330
83BD
100
AcDbEntity
  8
SUNPOU
100
AcDbBlockReference
  2
_OPEN
 10
426.90129066427
 20
258.240640100289
 30
0.0
 41
7.0
 42
7.0
 43
7.0
 50
180.0
  0
INSERT
  5
8E19
330
83BD
100
AcDbEntity
  8
SUNPOU
100
AcDbBlockReference
  2
_OPEN
 10
632.6783623176716
 20
258.240640100289
 30
0.0
 41
7.0
 42
7.0
 43
7.0
  0
MTEXT
  5
8E1A
330
83BD
100
AcDbEntity
  8
SUNPOU
100
AcDbMText
 10
529.7898264909709
 20
263.240640100289
 30
0.0
 40
6.0
 41
0.0
 71
     5
 72
     1
  1
\A1;206
  0
POINT
  5
8E1B
330
83BD
100
AcDbEntity
  8
DEFPOINTS
 62
     0
100
AcDbPoint
 10
426.90129066427
 20
216.9460741449295
 30
0.0
  0
POINT
  5
8E1C
330
83BD
100
AcDbEntity
  8
DEFPOINTS
 62
     0
100
AcDbPoint
 10
632.6783623176716
 20
210.9582034911007
 30
0.0
  0
POINT
  5
8E1D
330
83BD
100
AcDbEntity
  8
DEFPOINTS
 62
     0
100
AcDbPoint
 10
632.6783623176716
 20
258.240640100289
 30
0.0
  0
ENDBLK
  5
83C8
330
83BD
100
AcDbEntity
  8
0
100
AcDbBlockEnd
  0
BLOCK
  5
8695
330
868B
100
AcDbEntity
  8
0
100
AcDbBlockBegin
  2
*D12
 70
     1
 10
0.0
 20
0.0
 30
0.0
  3
*D12
  1

  0
LINE
  5
8E1E
330
868B
100
AcDbEntity
  8
SUNPOU
100
AcDbLine
 10
420.8985497337716
 20
347.3801590733271
 30
0.0
 11
376.311136620646
 21
347.3801590733271
 31
0.0
  0
LINE
  5
8E1F
330
868B
100
AcDbEntity
  8
SUNPOU
100
AcDbLine
 10
428.2337133416715
 20
292.380159073327
 30
0.0
 11
376.311136620646
 21
292.3801590733271
 31
0.0
  0
LINE
  5
8E20
330
868B
100
AcDbEntity
  8
SUNPOU
100
AcDbLine
 10
379.311136620646
 20
340.3801590733271
 30
0.0
 11
379.311136620646
 21
299.3801590733271
 31
0.0
  0
INSERT
  5
8E21
330
868B
100
AcDbEntity
  8
SUNPOU
100
AcDbBlockReference
  2
_OPEN
 10
379.311136620646
 20
347.3801590733271
 30
0.0
 41
7.0
 42
7.0
 43
7.0
 50
90.0
  0
INSERT
  5
8E22
330
868B
100
AcDbEntity
  8
SUNPOU
100
AcDbBlockReference
  2
_OPEN
 10
379.311136620646
 20
292.3801590733271
 30
0.0
 41
7.0
 42
7.0
 43
7.0
 50
270.0
  0
MTEXT
  5
8E23
330
868B
100
AcDbEntity
  8
SUNPOU
100
AcDbMText
 10
374.3111366206459
 20
319.8801590733272
 30
0.0
 40
6.0
 41
0.0
 71
     5
 72
     1
  1
\A1;\U+203B55
 11
0.0000000000000001
 21
1.0
 31
0.0
  0
POINT
  5
8E24
330
868B
100
AcDbEntity
  8
DEFPOINTS
 62
     0
100
AcDbPoint
 10
426.8985497337715
 20
347.3801590733271
 30
0.0
  0
POINT
  5
8E25
330
868B
100
AcDbEntity
  8
DEFPOINTS
 62
     0
100
AcDbPoint
 10
434.2337133416715
 20
292.380159073327
 30
0.0
  0
POINT
  5
8E26
330
868B
100
AcDbEntity
  8
DEFPOINTS
 62
     0
100
AcDbPoint
 10
379.311136620646
 20
292.3801590733271
 30
0.0
  0
ENDBLK
  5
8696
330
868B
100
AcDbEntity
  8
0
100
AcDbBlockEnd
  0
BLOCK
  5
86BD
330
86B3
100
AcDbEntity
  8
0
100
AcDbBlockBegin
  2
*D13
 70
     1
 10
0.0
 20
0.0
 30
0.0
  3
*D13
  1

  0
LINE
  5
8E27
330
86B3
100
AcDbEntity
  8
SUNPOU
100
AcDbLine
 10
583.6783141063356
 20
498.1599842446684
 30
0.0
 11
669.3165954530527
 21
498.1599842446684
 31
0.0
  0
LINE
  5
8E28
330
86B3
100
AcDbEntity
  8
SUNPOU
100
AcDbLine
 10
638.6783636056268
 20
375.4027082849704
 30
0.0
 11
669.3165954530527
 21
375.4027082849704
 31
0.0
  0
LINE
  5
8E29
330
86B3
100
AcDbEntity
  8
SUNPOU
100
AcDbLine
 10
666.3165954530527
 20
491.1599842446684
 30
0.0
 11
666.3165954530527
 21
382.4027082849704
 31
0.0
  0
INSERT
  5
8E2A
330
86B3
100
AcDbEntity
  8
SUNPOU
100
AcDbBlockReference
  2
_OPEN
 10
666.3165954530527
 20
498.1599842446684
 30
0.0
 41
7.0
 42
7.0
 43
7.0
 50
90.0
  0
INSERT
  5
8E2B
330
86B3
100
AcDbEntity
  8
SUNPOU
100
AcDbBlockReference
  2
_OPEN
 10
666.3165954530527
 20
375.4027082849704
 30
0.0
 41
7.0
 42
7.0
 43
7.0
 50
270.0
  0
MTEXT
  5
8E2C
330
86B3
100
AcDbEntity
  8
SUNPOU
100
AcDbMText
 10
661.3165954530526
 20
436.7813462648195
 30
0.0
 40
6.0
 41
0.0
 71
     5
 72
     1
  1
\A1;123
 11
0.0000000000000001
 21
1.0
 31
0.0
  0
POINT
  5
8E2D
330
86B3
100
AcDbEntity
  8
DEFPOINTS
 62
     0
100
AcDbPoint
 10
577.6783141063356
 20
498.1599842446684
 30
0.0
  0
POINT
  5
8E2E
330
86B3
100
AcDbEntity
  8
DEFPOINTS
 62
     0
100
AcDbPoint
 10
632.6783636056268
 20
375.4027082849704
 30
0.0
  0
POINT
  5
8E2F
330
86B3
100
AcDbEntity
  8
DEFPOINTS
 62
     0
100
AcDbPoint
 10
666.3165954530527
 20
375.4027082849704
 30
0.0
  0
ENDBLK
  5
86BE
330
86B3
100
AcDbEntity
  8
0
100
AcDbBlockEnd
  0
BLOCK
  5
86CA
330
86C0
100
AcDbEntity
  8
0
100
AcDbBlockBegin
  2
*D14
 70
     1
 10
0.0
 20
0.0
 30
0.0
  3
*D14
  1

  0
LINE
  5
8E30
330
86C0
100
AcDbEntity
  8
SUNPOU
100
AcDbLine
 10
589.6783141063356
 20
498.1599842446684
 30
0.0
 11
686.9782141286642
 21
498.1599842446684
 31
0.0
  0
LINE
  5
8E31
330
86C0
100
AcDbEntity
  8
SUNPOU
100
AcDbLine
 10
555.6558478710716
 20
292.380159073327
 30
0.0
 11
686.9782141286642
 21
292.380159073327
 31
0.0
  0
LINE
  5
8E32
330
86C0
100
AcDbEntity
  8
SUNPOU
100
AcDbLine
 10
683.9782141286642
 20
491.1599842446684
 30
0.0
 11
683.9782141286642
 21
299.380159073327
 31
0.0
  0
INSERT
  5
8E33
330
86C0
100
AcDbEntity
  8
SUNPOU
100
AcDbBlockReference
  2
_OPEN
 10
683.9782141286642
 20
498.1599842446684
 30
0.0
 41
7.0
 42
7.0
 43
7.0
 50
90.0
  0
INSERT
  5
8E34
330
86C0
100
AcDbEntity
  8
SUNPOU
100
AcDbBlockReference
  2
_OPEN
 10
683.9782141286642
 20
292.380159073327
 30
0.0
 41
7.0
 42
7.0
 43
7.0
 50
270.0
  0
MTEXT
  5
8E35
330
86C0
100
AcDbEntity
  8
SUNPOU
100
AcDbMText
 10
678.9782141286641
 20
395.2700716589978
 30
0.0
 40
6.0
 41
0.0
 71
     5
 72
     1
  1
\A1;206
 11
0.0000000000000001
 21
1.0
 31
0.0
  0
POINT
  5
8E36
330
86C0
100
AcDbEntity
  8
DEFPOINTS
 62
     0
100
AcDbPoint
 10
583.6783141063356
 20
498.1599842446684
 30
0.0
  0
POINT
  5
8E37
330
86C0
100
AcDbEntity
  8
DEFPOINTS
 62
     0
100
AcDbPoint
 10
549.6558478710716
 20
292.380159073327
 30
0.0
  0
POINT
  5
8E38
330
86C0
100
AcDbEntity
  8
DEFPOINTS
 62
     0
100
AcDbPoint
 10
683.9782141286642
 20
292.380159073327
 30
0.0
  0
ENDBLK
  5
86CB
330
86C0
100
AcDbEntity
  8
0
100
AcDbBlockEnd
  0
ENDSEC
  0
SECTION
  2
ENTITIES
  0
TEXT
  5
4F7
330
1A
100
AcDbEntity
  8
SUNPOU
 62
     4
100
AcDbText
 10
679.4923702756009
 20
39.07466289138426
 30
0.0
 40
6.0
  1
※　のきといの差込み寸法を示す
100
AcDbText
  0
DIMENSION
  5
5C01
330
1A
100
AcDbEntity
  8
SUNPOU
100
AcDbDimension
  2
*D1
 10
269.2643532410634
 20
385.9227362590169
 30
0.0
 11
264.2643532410632
 21
399.156821585517
 31
0.0
 70
    32
  3
STANDARD
100
AcDbAlignedDimension
 13
244.5171853477822
 23
412.3909069120169
 33
0.0
 14
244.5171853477822
 24
385.9227362590169
 34
0.0
 50
90.0
100
AcDbRotatedDimension
1001
ACAD
1000
DSTYLE
1002
{
1070
    41
1040
7.0
1070
    42
1040
6.0
1070
    43
1040
14.0
1070
    44
1040
3.0
1070
    73
1070
     0
1070
    74
1070
     0
1070
    77
1070
     3
1070
   140
1040
6.0
1070
   141
1040
150.0
1070
   147
1040
2.0
1070
   172
1070
     1
1070
   173
1070
     1
1070
   176
1070
   256
1070
   177
1070
   256
1070
   178
1070
   256
1070
   271
1070
     0
1070
   272
1070
     0
1070
   341
1005
6D
1070
     6
1000
OPEN
1070
     7
1000
OPEN
1070
   371
1070
    -1
1070
   372
1070
    -1
1002
}
  0
DIMENSION
  5
5C06
330
1A
100
AcDbEntity
  8
SUNPOU
100
AcDbDimension
  2
*D2
 10
178.1339011093161
 20
441.0705514893172
 30
0.0
 11
168.4779205870912
 21
446.0705514893172
 31
0.0
 70
    32
  3
STANDARD
100
AcDbAlignedDimension
 13
158.8219400648663
 23
387.679104467817
 33
0.0
 14
178.1339011093161
 24
386.4227202665169
 34
0.0
100
AcDbRotatedDimension
1001
ACAD
1000
DSTYLE
1002
{
1070
    41
1040
7.0
1070
    42
1040
6.0
1070
    43
1040
14.0
1070
    44
1040
3.0
1070
    73
1070
     0
1070
    74
1070
     0
1070
    77
1070
     3
1070
   140
1040
6.0
1070
   141
1040
150.0
1070
   147
1040
2.0
1070
   172
1070
     1
1070
   173
1070
     1
1070
   176
1070
   256
1070
   177
1070
   256
1070
   178
1070
   256
1070
   271
1070
     0
1070
   272
1070
     0
1070
   341
1005
6D
1070
     6
1000
OPEN
1070
     7
1000
OPEN
1070
   371
1070
    -1
1070
   372
1070
    -1
1002
}
  0
LINE
  5
5C07
330
1A
100
AcDbEntity
  8
CENTER_L0
 48
6.0
100
AcDbLine
 10
229.517185347782
 20
381.312743508819
 30
0.0
 11
229.5171853477821
 21
418.3508392207131
 31
0.0
  0
LINE
  5
5C08
330
1A
100
AcDbEntity
  8
SEIHIN
  6
CONTINUOUS
 62
     3
 48
5.0
100
AcDbLine
 10
244.5171853477822
 20
385.9227362590169
 30
0.0
 11
244.5171853477822
 21
412.390906912017
 31
0.0
  0
LINE
  5
5C09
330
1A
100
AcDbEntity
  8
SEIHIN
  6
CONTINUOUS
 62
     3
 48
5.0
100
AcDbLine
 10
214.5171853477821
 20
412.390906912017
 30
0.0
 11
214.5171853477822
 21
385.9227362590169
 31
0.0
  0
LINE
  5
5C0A
330
1A
100
AcDbEntity
  8
SEIHIN
  6
CONTINUOUS
 62
     3
 48
5.0
100
AcDbLine
 10
177.133901109316
 20
407.1291008783169
 30
0.0
 11
177.133901109316
 21
388.7773329358168
 31
0.0
  0
LINE
  5
5C0B
330
1A
100
AcDbEntity
  8
SEIHIN
  6
CONTINUOUS
 62
     3
 48
5.0
100
AcDbLine
 10
174.872095075616
 20
407.1291008783169
 30
0.0
 11
174.872095075616
 21
390.7121960678168
 31
0.0
  0
LINE
  5
5C0C
330
1A
100
AcDbEntity
  8
SEIHIN
  6
CONTINUOUS
 62
     3
 48
5.0
100
AcDbLine
 10
164.983714219816
 20
394.6119426716169
 30
0.0
 11
166.049145187716
 21
409.3640637665169
 31
0.0
  0
LINE
  5
5C0D
330
1A
100
AcDbEntity
  8
SEIHIN
  6
CONTINUOUS
 62
     3
 48
5.0
100
AcDbLine
 10
167.1391147990161
 20
393.057066279817
 30
0.0
 11
168.3050753521159
 21
409.2011354769169
 31
0.0
  0
TEXT
  5
5C0E
330
1A
100
AcDbEntity
  8
SUNPOU
 62
     4
100
AcDbText
 10
171.4209556680111
 20
355.5396308884267
 30
0.0
 40
8.0
  1
クリップ　２個
100
AcDbText
  0
ARC
  5
5C0F
330
1A
100
AcDbEntity
  8
SEIHIN
  6
CONTINUOUS
 62
     3
 48
5.0
100
AcDbCircle
 10
166.1417126652162
 20
393.1291008783169
 30
0.0
 40
1.0
100
AcDbArc
 50
270.0
 51
355.8691437666987
  0
LWPOLYLINE
  5
5C10
330
1A
100
AcDbEntity
  8
SEIHIN
  6
CONTINUOUS
 62
     3
 48
5.0
100
AcDbPolyline
 90
       13
 70
   128
 43
0.0
 10
158.8887414894161
 20
387.8863389608169
 10
158.850334347716
 20
387.8073251108169
 10
158.826350308616
 20
387.7228090194168
 10
158.8175298211162
 20
387.6353999162168
 10
158.8241451965161
 20
387.5477963455169
 10
158.845992201016
 20
387.462702855217
 10
158.882396361416
 20
387.3827465007169
 10
158.932233787316
 20
387.3103957407169
 10
158.9939658691162
 20
387.2478842297169
 10
159.0656867782162
 20
387.1971418590169
 10
159.1451823054162
 20
387.1597351764169
 10
159.229998218816
 20
387.1368190226169
 10
159.3175160328162
 20
387.1291008783169
  0
LINE
  5
5C11
330
1A
100
AcDbEntity
  8
SEIHIN
  6
CONTINUOUS
 62
     3
 48
5.0
100
AcDbLine
 10
161.217746348916
 20
387.3718530006168
 30
0.0
 11
163.9264438022162
 21
391.8863487560169
 31
0.0
  0
ARC
  5
5C12
330
1A
100
AcDbEntity
  8
SEIHIN
  6
CONTINUOUS
 62
     3
 48
5.0
100
AcDbCircle
 10
160.7889998861162
 20
387.6291008783169
 30
0.0
 40
0.5
100
AcDbArc
 50
270.0
 51
329.0362434679021
  0
LINE
  5
5C13
330
1A
100
AcDbEntity
  8
SEIHIN
  6
CONTINUOUS
 62
     3
 48
5.0
100
AcDbLine
 10
159.3175160328162
 20
387.1291008783169
 30
0.0
 11
160.7889998861162
 21
387.1291008783169
 31
0.0
  0
LINE
  5
5C14
330
1A
100
AcDbEntity
  8
SEIHIN
  6
CONTINUOUS
 62
     3
 48
5.0
100
AcDbLine
 10
164.355190265016
 20
394.3909069120168
 30
0.0
 11
164.7461390495161
 21
394.3909069120168
 31
0.0
  0
ARC
  5
5C15
330
1A
100
AcDbEntity
  8
SEIHIN
  6
CONTINUOUS
 62
     3
 48
5.0
100
AcDbCircle
 10
164.7461390495161
 20
394.6291008783169
 30
0.0
 40
0.2381939663
100
AcDbArc
 50
270.0
 51
355.8691437666987
  0
ARC
  5
5C16
330
1A
100
AcDbEntity
  8
SEIHIN
  6
CONTINUOUS
 62
     3
 48
5.0
100
AcDbCircle
 10
164.355190265016
 20
391.6291008783169
 30
0.0
 40
2.7618060337
100
AcDbArc
 50
90.0
 51
149.0362434679021
  0
ARC
  5
5C17
330
1A
100
AcDbEntity
  8
SEIHIN
  6
CONTINUOUS
 62
     3
 48
5.0
100
AcDbCircle
 10
164.355190265016
 20
391.6291008783169
 30
0.0
 40
0.5
100
AcDbArc
 50
90.0
 51
149.0362434679021
  0
LINE
  5
5C18
330
1A
100
AcDbEntity
  8
SEIHIN
  6
CONTINUOUS
 62
     3
 48
5.0
100
AcDbLine
 10
164.355190265016
 20
392.1291008783169
 30
0.0
 11
166.1417126652162
 21
392.1291008783169
 31
0.0
  0
LINE
  5
5C19
330
1A
100
AcDbEntity
  8
SEIHIN
  6
CONTINUOUS
 62
     3
 48
5.0
100
AcDbLine
 10
158.8887414894161
 20
387.8863389608169
 30
0.0
 11
161.9869611289161
 21
393.0500383600169
 31
0.0
  0
LINE
  5
5C1A
330
1A
100
AcDbEntity
  8
SEIHIN
  6
CONTINUOUS
 62
     3
 48
5.0
100
AcDbLine
 10
178.133901109316
 20
387.746005688817
 30
0.0
 11
178.133901109316
 21
386.4227202665169
 31
0.0
  0
LINE
  5
5C1B
330
1A
100
AcDbEntity
  8
SEIHIN
  6
CONTINUOUS
 62
     3
 48
5.0
100
AcDbLine
 10
172.3575993201161
 20
389.0054175736169
 30
0.0
 11
177.3766341924159
 21
385.9939966503168
 31
0.0
  0
LWPOLYLINE
  5
5C1C
330
1A
100
AcDbEntity
  8
SEIHIN
  6
CONTINUOUS
 62
     3
 48
5.0
100
AcDbPolyline
 90
       13
 70
   128
 43
0.0
 10
177.376634192416
 20
385.9939966503168
 10
177.455651051116
 20
385.9555873606169
 10
177.5401703608161
 20
385.9316003729169
 10
177.6275827924161
 20
385.9227762273168
 10
177.7151896989161
 20
385.9293873479169
 10
177.8002864294161
 20
385.9512296324168
 10
177.8802458285163
 20
385.9876287531168
 10
177.9525993435163
 20
386.0374609755168
 10
178.0151132349159
 20
386.0991878503168
 10
178.065857537816
 20
386.1709037099168
 10
178.1032656447161
 20
386.2503945009168
 10
178.1261826711161
 20
386.3352061377168
 10
178.1339011093161
 20
386.4227202665169
  0
ARC
  5
5C1D
330
1A
100
AcDbEntity
  8
SEIHIN
  6
CONTINUOUS
 62
     3
 48
5.0
100
AcDbCircle
 10
174.372095075616
 20
390.7121960678168
 30
0.0
 40
0.5
100
AcDbArc
 50
239.0362434679015
 51
0.0
  0
ARC
  5
5C1E
330
1A
100
AcDbEntity
  8
SEIHIN
  6
CONTINUOUS
 62
     3
 48
5.0
100
AcDbCircle
 10
172.872095075616
 20
389.8629104993169
 30
0.0
 40
1.0
100
AcDbArc
 50
180.0
 51
239.0362434679015
  0
ARC
  5
5C1F
330
1A
100
AcDbEntity
  8
SEIHIN
  6
CONTINUOUS
 62
     3
 48
5.0
100
AcDbCircle
 10
172.372095075616
 20
390.7460056888168
 30
0.0
 40
0.5
100
AcDbArc
 50
59.03624346790153
 51
180.0
  0
LINE
  5
5C20
330
1A
100
AcDbEntity
  8
SEIHIN
  6
CONTINUOUS
 62
     3
 48
5.0
100
AcDbLine
 10
171.8720950756159
 20
390.7460056888168
 30
0.0
 11
171.8720950756159
 21
389.8629104993169
 31
0.0
  0
LINE
  5
5C21
330
1A
100
AcDbEntity
  8
SEIHIN
  6
CONTINUOUS
 62
     3
 48
5.0
100
AcDbLine
 10
174.1148471979163
 20
390.2834496049168
 30
0.0
 11
172.6293429533161
 21
391.1747521517168
 31
0.0
  0
LINE
  5
5C22
330
1A
100
AcDbEntity
  8
SEIHIN
  6
CONTINUOUS
 62
     3
 48
5.0
100
AcDbLine
 10
177.133901109316
 20
388.7773329358168
 30
0.0
 11
177.7640410464161
 21
388.399248973517
 31
0.0
  0
ARC
  5
5C23
330
1A
100
AcDbEntity
  8
SEIHIN
  6
CONTINUOUS
 62
     3
 48
5.0
100
AcDbCircle
 10
177.372095075616
 20
387.746005688817
 30
0.0
 40
0.7618060337000001
100
AcDbArc
 50
0.0
 51
59.03624346790153
  0
DIMENSION
  5
5C2E
330
1A
100
AcDbEntity
  8
SUNPOU
100
AcDbDimension
  2
*D3
 10
177.1339011093161
 20
426.1409072249815
 30
0.0
 11
171.5915231485556
 21
431.1409072249815
 31
0.0
 70
    32
  3
STANDARD
100
AcDbAlignedDimension
 13
166.049145187795
 23
409.3640637665232
 33
0.0
 14
177.1339011093161
 24
407.1291008783169
 34
0.0
100
AcDbRotatedDimension
1001
ACAD
1000
DSTYLE
1002
{
1070
    41
1040
7.0
1070
    42
1040
6.0
1070
    43
1040
14.0
1070
    44
1040
3.0
1070
    73
1070
     0
1070
    74
1070
     0
1070
    77
1070
     3
1070
   140
1040
6.0
1070
   141
1040
150.0
1070
   147
1040
2.0
1070
   172
1070
     1
1070
   173
1070
     1
1070
   176
1070
   256
1070
   177
1070
   256
1070
   178
1070
   256
1070
   271
1070
     0
1070
   272
1070
     0
1070
   341
1005
6D
1070
     6
1000
OPEN
1070
     7
1000
OPEN
1070
   371
1070
    -1
1070
   372
1070
    -1
1002
}
  0
ARC
  5
5C2F
330
1A
100
AcDbEntity
  8
SEIHIN
  6
CONTINUOUS
 62
     3
 48
5.0
100
AcDbCircle
 10
169.3024774860161
 20
409.1291008783169
 30
0.0
 40
3.2618060337
100
AcDbArc
 50
90.0
 51
175.8691437666987
  0
ARC
  5
5C30
330
1A
100
AcDbEntity
  8
SEIHIN
  6
CONTINUOUS
 62
     3
 48
5.0
100
AcDbCircle
 10
171.8720950756159
 20
407.1291008783169
 30
0.0
 40
3.0
100
AcDbArc
 50
0.0
 51
90.0
  0
ARC
  5
5C31
330
1A
100
AcDbEntity
  8
SEIHIN
  6
CONTINUOUS
 62
     3
 48
5.0
100
AcDbCircle
 10
171.8720950756159
 20
407.1291008783169
 30
0.0
 40
5.2618060337
100
AcDbArc
 50
0.0
 51
90.0
  0
ARC
  5
5C32
330
1A
100
AcDbEntity
  8
SEIHIN
  6
CONTINUOUS
 62
     3
 48
5.0
100
AcDbCircle
 10
169.3024774860161
 20
409.1291008783169
 30
0.0
 40
1.0
100
AcDbArc
 50
90.0
 51
175.8691437666987
  0
LINE
  5
5C33
330
1A
100
AcDbEntity
  8
SEIHIN
  6
CONTINUOUS
 62
     3
 48
5.0
100
AcDbLine
 10
169.3024774860161
 20
410.1291008783169
 30
0.0
 11
171.8720950756159
 21
410.1291008783169
 31
0.0
  0
LINE
  5
5C34
330
1A
100
AcDbEntity
  8
SEIHIN
  6
CONTINUOUS
 62
     3
 48
5.0
100
AcDbLine
 10
169.3024774860161
 20
412.3909069120168
 30
0.0
 11
171.8720950756159
 21
412.3909069120168
 31
0.0
  0
DIMENSION
  5
5C35
330
1A
100
AcDbEntity
  8
SUNPOU
100
AcDbDimension
  2
*D4
 10
244.5171853477822
 20
441.0705514893172
 30
0.0
 11
229.5171853477822
 21
446.0705514893172
 31
0.0
 70
    32
  3
STANDARD
100
AcDbAlignedDimension
 13
214.5171853477822
 23
412.3909069120168
 33
0.0
 14
244.5171853477822
 24
412.3909069120169
 34
0.0
100
AcDbRotatedDimension
1001
ACAD
1000
DSTYLE
1002
{
1070
    41
1040
7.0
1070
    42
1040
6.0
1070
    43
1040
14.0
1070
    44
1040
3.0
1070
    73
1070
     0
1070
    74
1070
     0
1070
    77
1070
     3
1070
   140
1040
6.0
1070
   141
1040
150.0
1070
   147
1040
2.0
1070
   172
1070
     1
1070
   173
1070
     1
1070
   176
1070
   256
1070
   177
1070
   256
1070
   178
1070
   256
1070
   271
1070
     0
1070
   272
1070
     0
1070
   341
1005
6D
1070
     6
1000
OPEN
1070
     7
1000
OPEN
1070
   371
1070
    -1
1070
   372
1070
    -1
1002
}
  0
LINE
  5
628C
330
1A
100
AcDbEntity
  8
SEIHIN
100
AcDbLine
 10
214.5171853477821
 20
412.3909069120169
 30
0.0
 11
244.5171853477822
 21
412.3909069120169
 31
0.0
  0
LINE
  5
628D
330
1A
100
AcDbEntity
  8
SEIHIN
100
AcDbLine
 10
214.5171853477822
 20
388.7773329358168
 30
0.0
 11
244.5171853477822
 21
388.7773329358168
 31
0.0
  0
LINE
  5
628E
330
1A
100
AcDbEntity
  8
SEIHIN
100
AcDbLine
 10
214.5171853477821
 20
385.9227362590169
 30
0.0
 11
244.5171853477822
 21
385.9227362590169
 31
0.0
  0
LINE
  5
65E3
330
1A
100
AcDbEntity
  8
ZUWAKU
100
AcDbLine
 10
208.646601303624
 20
15.19999986828872
 30
0.0
 11
447.4243639845474
 21
15.19999986828871
 31
0.0
  0
LINE
  5
65E4
330
1A
100
AcDbEntity
  8
ZUWAKU
100
AcDbLine
 10
208.646601303624
 20
15.59999986828871
 30
0.0
 11
447.4243639845474
 21
15.59999986828872
 31
0.0
  0
LINE
  5
65E5
330
1A
100
AcDbEntity
  8
ZUWAKU
100
AcDbLine
 10
208.646601303624
 20
15.39999986828871
 30
0.0
 11
447.4243639845474
 21
15.39999986828871
 31
0.0
  0
LINE
  5
65E6
330
1A
100
AcDbEntity
  8
ZUWAKU
100
AcDbLine
 10
0.0000000135560185
 20
30.79999986828869
 30
0.0
 11
797.4000000135559
 21
30.79999986828869
 31
0.0
  0
LINE
  5
65E7
330
1A
100
AcDbEntity
  8
ZUWAKU
100
AcDbLine
 10
0.0000000135560185
 20
30.59999986828869
 30
0.0
 11
797.4000000135559
 21
30.59999986828869
 31
0.0
  0
LINE
  5
65E8
330
1A
100
AcDbEntity
  8
ZUWAKU
100
AcDbLine
 10
0.0000000135560185
 20
30.39999986828869
 30
0.0
 11
797.4000000135559
 21
30.39999986828869
 31
0.0
  0
LINE
  5
65E9
330
1A
100
AcDbEntity
  8
ZUWAKU
100
AcDbLine
 10
0.0000000135560185
 20
30.19999986828868
 30
0.0
 11
797.4000000135559
 21
30.19999986828868
 31
0.0
  0
LINE
  5
65EA
330
1A
100
AcDbEntity
  8
ZUWAKU
100
AcDbLine
 10
0.0000000135560185
 20
29.99999986828868
 30
0.0
 11
797.4000000135559
 21
29.99999986828868
 31
0.0
  0
LWPOLYLINE
  5
65EB
330
1A
100
AcDbEntity
  8
ZUWAKU
100
AcDbPolyline
 90
        4
 70
     1
 43
0.0
 10
0.2000000135559503
 20
551.3999998682887
 10
0.2000000135559503
 20
0.1999998682887281
 10
797.4000000135559
 20
0.1999998682887511
 10
797.4000000135561
 20
551.3999998682887
  0
LWPOLYLINE
  5
65EC
330
1A
100
AcDbEntity
  8
ZUWAKU
100
AcDbPolyline
 90
        4
 70
     1
 43
0.0
 10
0.6000000135559276
 20
550.9999998682888
 10
0.6000000135559276
 20
0.5999998682887054
 10
797.0000000135562
 20
0.5999998682887516
 10
797.000000013556
 20
550.9999998682888
  0
LWPOLYLINE
  5
65ED
330
1A
100
AcDbEntity
  8
ZUWAKU
100
AcDbPolyline
 90
        4
 70
     1
 43
0.0
 10
0.0000000135560185
 20
551.5999998682887
 10
0.0000000135560185
 20
-0.0000001317113174
 10
797.6000000135561
 20
-0.0000001317112499
 10
797.6000000135561
 20
551.5999998682888
  0
LWPOLYLINE
  5
65EE
330
1A
100
AcDbEntity
  8
ZUWAKU
100
AcDbPolyline
 90
        4
 70
     1
 43
0.0
 10
0.4000000135559958
 20
551.1999998682887
 10
0.4000000135559958
 20
0.3999998682887735
 10
797.200000013556
 20
0.3999998682887504
 10
797.200000013556
 20
551.1999998682887
  0
LWPOLYLINE
  5
65EF
330
1A
100
AcDbEntity
  8
ZUWAKU
100
AcDbPolyline
 90
        4
 70
     1
 43
0.0
 10
0.800000013555973
 20
550.7999998682887
 10
0.800000013555973
 20
0.7999998682887508
 10
796.8000000135559
 20
0.7999998682887508
 10
796.8000000135559
 20
550.7999998682887
  0
TEXT
  5
65F0
330
1A
100
AcDbEntity
  8
MOJI
100
AcDbText
 10
92.95778960172516
 20
12.74117799856344
 30
0.0
 40
6.0
  1
アートフェイスＶＭ１２０
 41
0.9
  7
ｽﾀｲﾙ1
100
AcDbText
  0
HATCH
  5
65F1
330
1A
100
AcDbEntity
  8
ZUWAKU
100
AcDbHatch
 10
0.0
 20
0.0
 30
0.0
210
0.0
220
0.0
230
1.0
  2
ANSI37
 70
     0
 71
     0
 91
        8
 92
        7
 72
     1
 73
     1
 93
       24
 10
14.50226267467587
 20
17.64484834927226
 42
-0.1989123673796348
 10
14.09221216833714
 20
18.63479784293331
 42
0.0
 10
14.09221216833714
 20
19.92499986828869
 42
-0.4142135623730912
 10
14.61721216833711
 20
20.44999986828868
 42
0.0
 10
17.59221216833702
 20
20.44999986828868
 42
0.4142135623731546
 10
18.11721216833712
 20
20.97499986828867
 42
0.0
 10
18.11721216833712
 20
22.72499986828869
 42
0.4142135623731586
 10
17.59221216833702
 20
23.24999986828868
 42
0.0
 10
14.09221216833714
 20
23.24999986828868
 42
0.4142135623730928
 10
11.29221216833718
 20
20.44999986828871
 42
0.0
 10
11.29221216833718
 20
18.63479784293344
 42
0.1989123673796619
 10
12.52236368735361
 20
15.66494936194983
 42
0.0
 10
15.43216166199829
 20
12.75515138730518
 42
-0.1989123673796613
 10
15.84221216833714
 20
11.76520189364399
 42
0.0
 10
15.84221216833714
 20
10.47499986828867
 42
-0.4142135623730911
 10
15.31721216833716
 20
9.949999868288685
 42
0.0
 10
12.34221216833725
 20
9.949999868288685
 42
0.4142135623731526
 10
11.81721216833716
 20
9.424999868288697
 42
0.0
 10
11.81721216833716
 20
7.674999868288676
 42
0.4142135623731526
 10
12.34221216833725
 20
7.149999868288688
 42
0.0
 10
15.84221216833714
 20
7.149999868288688
 42
0.4142135623731044
 10
18.64221216833721
 20
9.949999868288664
 42
0.0
 10
18.64221216833721
 20
11.76520189364393
 42
0.1989123673796604
 10
17.41206064932066
 20
14.73505037462747
 42
0.0
 97
        0
 92
        7
 72
     1
 73
     1
 93
       16
 10
23.54221216833718
 20
19.04999986828869
 42
-0.4142135623730935
 10
24.94221216833716
 20
20.44999986828868
 42
0.0
 10
26.86721216833712
 20
20.44999986828868
 42
0.4142135623731546
 10
27.39221216833721
 20
20.97499986828867
 42
0.0
 10
27.39221216833721
 20
22.72499986828869
 42
0.4142135623730951
 10
26.86721216833723
 20
23.24999986828868
 42
0.0
 10
24.94221216833705
 20
23.24999986828864
 42
0.4142135623730892
 10
20.74221216833711
 20
19.04999986828862
 42
0.0
 10
20.74221216833711
 20
11.34999986828871
 42
0.4142135623730969
 10
24.94221216833716
 20
7.149999868288688
 42
0.0
 10
26.86721216833712
 20
7.149999868288688
 42
0.4142135623731526
 10
27.39221216833721
 20
7.674999868288676
 42
0.0
 10
27.39221216833721
 20
9.424999868288697
 42
0.4142135623730891
 10
26.86721216833723
 20
9.949999868288685
 42
0.0
 10
24.94221216833716
 20
9.949999868288685
 42
-0.4142135623730928
 10
23.54221216833718
 20
11.34999986828867
 42
0.0
 97
        0
 92
        7
 72
     1
 73
     1
 93
        2
 10
24.24221216833712
 20
15.19999986828868
 42
1.0
 10
27.74221216833712
 20
15.19999986828868
 42
1.0
 97
        0
 92
        7
 72
     1
 73
     1
 93
       26
 10
37.31485865051513
 20
19.20504706185211
 42
0.0
 10
38.37649828365295
 20
22.5669059001217
 42
0.5069206636600134
 10
37.87586738445759
 20
23.24999986828868
 42
0.0
 10
36.17697800484836
 20
23.24999986828868
 42
0.3272098845218764
 10
35.676347105653
 20
22.88309383645565
 42
0.0
 10
33.80807723102122
 20
16.96690590012176
 42
-0.3272098845219541
 10
33.30744633182575
 20
16.59999986828868
 42
0.0
 10
33.1672121683373
 20
16.59999986828868
 42
-0.4142135623731526
 10
32.64221216833721
 20
17.12499986828867
 42
0.0
 10
32.64221216833721
 20
22.72499986828869
 42
0.4142135623730951
 10
32.11721216833723
 20
23.24999986828868
 42
0.0
 10
30.36721216833711
 20
23.24999986828868
 42
0.4142135623730871
 10
29.84221216833714
 20
22.7249998682887
 42
0.0
 10
29.84221216833714
 20
7.674999868288676
 42
0.4142135623730891
 10
30.36721216833711
 20
7.149999868288688
 42
0.0
 10
32.11721216833712
 20
7.149999868288688
 42
0.4142135623731526
 10
32.64221216833721
 20
7.674999868288676
 42
0.0
 10
32.64221216833721
 20
13.27499986828869
 42
-0.4142135623731526
 10
33.1672121683373
 20
13.79999986828868
 42
0.0
 10
33.30744633182587
 20
13.79999986828868
 42
-0.3272098845218915
 10
33.80807723102122
 20
13.43309383645561
 42
0.0
 10
35.676347105653
 20
7.516905900121759
 42
0.3272098845218902
 10
36.17697800484836
 20
7.149999868288688
 42
0.0
 10
37.87586738445759
 20
7.149999868288688
 42
0.5069206636600335
 10
38.37649828365295
 20
7.833093836455695
 42
0.0
 10
36.05010690517929
 20
15.19999986828882
 42
0.0
 97
        0
 92
        7
 72
     1
 73
     1
 93
        8
 10
43.49221216833711
 20
22.7249998682887
 42
0.4142135623731546
 10
42.96721216833702
 20
23.24999986828868
 42
0.0
 10
41.21721216833726
 20
23.24999986828868
 42
0.4142135623731507
 10
40.69221216833716
 20
22.7249998682887
 42
0.0
 10
40.69221216833716
 20
7.674999868288676
 42
0.4142135623731526
 10
41.21721216833726
 20
7.149999868288688
 42
0.0
 10
42.96721216833702
 20
7.149999868288688
 42
0.4142135623731526
 10
43.49221216833711
 20
7.674999868288676
 42
0.0
 97
        0
 92
        7
 72
     1
 73
     1
 93
       24
 10
48.3922121683372
 20
19.92499986828869
 42
-0.4142135623731546
 10
48.9172121683373
 20
20.44999986828868
 42
0.0
 10
51.89221216833721
 20
20.44999986828868
 42
0.4142135623730911
 10
52.41721216833719
 20
20.97499986828867
 42
0.0
 10
52.41721216833719
 20
22.72499986828869
 42
0.4142135623730952
 10
51.89221216833721
 20
23.24999986828868
 42
0.0
 10
48.3922121683372
 20
23.24999986828868
 42
0.4142135623731048
 10
45.59221216833714
 20
20.44999986828871
 42
0.0
 10
45.59221216833714
 20
18.63479784293344
 42
0.1989123673796613
 10
46.82236368735368
 20
15.66494936194989
 42
0.0
 10
49.73216166199836
 20
12.75515138730522
 42
-0.1989123673796402
 10
50.14221216833721
 20
11.76520189364415
 42
0.0
 10
50.14221216833721
 20
10.47499986828867
 42
-0.4142135623730911
 10
49.61721216833723
 20
9.949999868288685
 42
0.0
 10
46.64221216833721
 20
9.949999868288685
 42
0.4142135623731526
 10
46.11721216833712
 20
9.424999868288697
 42
0.0
 10
46.11721216833712
 20
7.674999868288676
 42
0.4142135623730891
 10
46.64221216833709
 20
7.149999868288688
 42
0.0
 10
50.14221216833721
 20
7.149999868288688
 42
0.4142135623730925
 10
52.94221216833716
 20
9.949999868288664
 42
0.0
 10
52.94221216833716
 20
11.76520189364393
 42
0.1989123673796675
 10
51.71206064932062
 20
14.73505037462759
 42
0.0
 10
48.80226267467605
 20
17.6448483492721
 42
-0.1989123673796652
 10
48.3922121683372
 20
18.63479784293327
 42
0.0
 97
        0
 92
        7
 72
     1
 73
     1
 93
       16
 10
57.84221216833714
 20
22.72499986828867
 42
0.414213562373103
 10
57.31721216833716
 20
23.24999986828868
 42
0.0
 10
55.56721216833716
 20
23.24999986828868
 42
0.4142135623730871
 10
55.04221216833719
 20
22.7249998682887
 42
0.0
 10
55.04221216833719
 20
9.949999868288664
 42
0.4142135623730926
 10
57.84221216833714
 20
7.149999868288688
 42
0.0
 10
61.34221216833714
 20
7.149999868288688
 42
0.4142135623731044
 10
64.14221216833721
 20
9.949999868288664
 42
0.0
 10
64.14221216833721
 20
22.72499986828869
 42
0.4142135623730951
 10
63.61721216833723
 20
23.24999986828868
 42
0.0
 10
61.86721216833712
 20
23.24999986828868
 42
0.4142135623730871
 10
61.34221216833714
 20
22.7249998682887
 42
0.0
 10
61.34221216833714
 20
10.99999986828866
 42
-0.414213562373088
 10
60.29221216833718
 20
9.949999868288685
 42
0.0
 10
58.89221216833721
 20
9.949999868288685
 42
-0.4142135623731197
 10
57.84221216833714
 20
10.99999986828866
 42
0.0
 97
        0
 92
        7
 72
     1
 73
     1
 93
        8
 10
69.04221216833718
 20
22.7249998682887
 42
0.4142135623730871
 10
68.51721216833721
 20
23.24999986828868
 42
0.0
 10
66.76721216833721
 20
23.24999986828868
 42
0.4142135623731507
 10
66.24221216833712
 20
22.7249998682887
 42
0.0
 10
66.24221216833712
 20
7.674999868288676
 42
0.4142135623730891
 10
66.76721216833709
 20
7.149999868288688
 42
0.0
 10
68.51721216833721
 20
7.149999868288688
 42
0.4142135623730891
 10
69.04221216833718
 20
7.674999868288676
 42
0.0
 97
        0
 75
     0
 76
     1
 52
0.0
 41
0.2
 77
     0
 78
     2
 53
45.0
 43
-900.942304321123
 44
-13.20000013171124
 45
-0.4490128060534576
 46
0.4490128060534577
 79
     0
 53
135.0
 43
-900.942304321123
 44
-13.20000013171124
 45
-0.4490128060534577
 46
-0.4490128060534576
 79
     0
 47
0.057451373970553
 98
        8
 10
16.07985497657932
 20
15.16717351417423
 10
22.40451501999519
 20
18.84406205073969
 10
25.16436789921567
 20
15.5118815143594
 10
30.91405999519315
 20
16.20129751473018
 10
41.83847203251275
 20
16.6609097822718
 10
46.89820090868557
 20
19.41857618469589
 10
56.55768598595637
 20
18.72915778338369
 10
67.82707963317875
 20
19.18877005092531
  0
LINE
  5
65F2
330
1A
100
AcDbEntity
  8
ZUWAKU
100
AcDbLine
 10
24.94221216833716
 20
23.24999986828864
 30
0.0
 11
26.86721216833712
 21
23.24999986828868
 31
0.0
  0
LINE
  5
65F3
330
1A
100
AcDbEntity
  8
ZUWAKU
100
AcDbLine
 10
26.86721216833712
 20
20.44999986828868
 30
0.0
 11
24.94221216833716
 21
20.44999986828868
 31
0.0
  0
LINE
  5
65F4
330
1A
100
AcDbEntity
  8
ZUWAKU
100
AcDbLine
 10
24.94221216833716
 20
9.949999868288685
 30
0.0
 11
26.86721216833712
 21
9.949999868288685
 31
0.0
  0
LINE
  5
65F5
330
1A
100
AcDbEntity
  8
ZUWAKU
100
AcDbLine
 10
26.86721216833712
 20
7.149999868288688
 30
0.0
 11
24.94221216833716
 21
7.149999868288688
 31
0.0
  0
CIRCLE
  5
65F6
330
1A
100
AcDbEntity
  8
ZUWAKU
100
AcDbCircle
 10
25.99221216833711
 20
15.19999986828868
 30
0.0
 40
1.75
  0
ARC
  5
65F7
330
1A
100
AcDbEntity
  8
ZUWAKU
100
AcDbCircle
 10
15.49221216833712
 20
18.63479784293338
 30
0.0
 40
1.399999999999999
100
AcDbArc
 50
180.0000000000016
 51
224.9999999999988
  0
LINE
  5
65F8
330
1A
100
AcDbEntity
  8
ZUWAKU
100
AcDbLine
 10
23.54221216833718
 20
19.04999986828868
 30
0.0
 11
23.54221216833718
 21
11.34999986828869
 31
0.0
  0
LINE
  5
65F9
330
1A
100
AcDbEntity
  8
ZUWAKU
100
AcDbLine
 10
20.74221216833711
 20
11.34999986828869
 30
0.0
 11
20.74221216833711
 21
19.04999986828864
 31
0.0
  0
ARC
  5
65FA
330
1A
100
AcDbEntity
  8
ZUWAKU
100
AcDbCircle
 10
15.49221216833712
 20
18.63479784293338
 30
0.0
 40
4.199999999999999
100
AcDbArc
 50
180.0
 51
225.0
  0
ARC
  5
65FB
330
1A
100
AcDbEntity
  8
ZUWAKU
100
AcDbCircle
 10
15.84221216833714
 20
9.949999868288685
 30
0.0
 40
2.799999999999999
100
AcDbArc
 50
270.0
 51
0.0
  0
ARC
  5
65FC
330
1A
100
AcDbEntity
  8
ZUWAKU
100
AcDbCircle
 10
24.94221216833716
 20
11.34999986828869
 30
0.0
 40
4.199999999999999
100
AcDbArc
 50
180.0
 51
270.0
  0
ARC
  5
65FD
330
1A
100
AcDbEntity
  8
ZUWAKU
100
AcDbCircle
 10
14.44221216833716
 20
11.76520189364399
 30
0.0
 40
4.199999999999999
100
AcDbArc
 50
0.0
 51
45.0
  0
LINE
  5
65FE
330
1A
100
AcDbEntity
  8
ZUWAKU
100
AcDbLine
 10
17.41206064932066
 20
14.73505037462751
 30
0.0
 11
14.50226267467598
 21
17.64484834927218
 31
0.0
  0
LINE
  5
65FF
330
1A
100
AcDbEntity
  8
ZUWAKU
100
AcDbLine
 10
15.84221216833714
 20
10.47499986828869
 30
0.0
 11
15.84221216833714
 21
11.76520189364403
 31
0.0
  0
ARC
  5
6600
330
1A
100
AcDbEntity
  8
ZUWAKU
100
AcDbCircle
 10
15.31721216833716
 20
10.47499986828869
 30
0.0
 40
0.525
100
AcDbArc
 50
270.0
 51
0.0
  0
ARC
  5
6601
330
1A
100
AcDbEntity
  8
ZUWAKU
100
AcDbCircle
 10
14.44221216833716
 20
11.76520189364403
 30
0.0
 40
1.399999999999999
100
AcDbArc
 50
0.0
 51
45.0
  0
LINE
  5
6602
330
1A
100
AcDbEntity
  8
ZUWAKU
100
AcDbLine
 10
11.81721216833716
 20
7.674999868288686
 30
0.0
 11
11.81721216833716
 21
9.424999868288686
 31
0.0
  0
ARC
  5
6603
330
1A
100
AcDbEntity
  8
ZUWAKU
100
AcDbCircle
 10
12.34221216833714
 20
7.674999868288686
 30
0.0
 40
0.525
100
AcDbArc
 50
180.0
 51
270.0
  0
ARC
  5
6604
330
1A
100
AcDbEntity
  8
ZUWAKU
100
AcDbCircle
 10
12.34221216833714
 20
9.424999868288686
 30
0.0
 40
0.525
100
AcDbArc
 50
90.0
 51
180.0
  0
LINE
  5
6605
330
1A
100
AcDbEntity
  8
ZUWAKU
100
AcDbLine
 10
12.34221216833714
 20
7.149999868288688
 30
0.0
 11
15.84221216833714
 21
7.149999868288688
 31
0.0
  0
LINE
  5
6606
330
1A
100
AcDbEntity
  8
ZUWAKU
100
AcDbLine
 10
12.34221216833714
 20
9.949999868288685
 30
0.0
 11
15.31721216833716
 21
9.949999868288685
 31
0.0
  0
LINE
  5
6607
330
1A
100
AcDbEntity
  8
ZUWAKU
100
AcDbLine
 10
12.52236368735361
 20
15.66494936194986
 30
0.0
 11
15.43216166199829
 21
12.7551513873052
 31
0.0
  0
LINE
  5
6608
330
1A
100
AcDbEntity
  8
ZUWAKU
100
AcDbLine
 10
18.64221216833721
 20
9.949999868288685
 30
0.0
 11
18.64221216833721
 21
11.76520189364403
 31
0.0
  0
ARC
  5
6609
330
1A
100
AcDbEntity
  8
ZUWAKU
100
AcDbCircle
 10
24.94221216833716
 20
11.34999986828869
 30
0.0
 40
1.399999999999999
100
AcDbArc
 50
180.0
 51
270.0
  0
ARC
  5
660A
330
1A
100
AcDbEntity
  8
ZUWAKU
100
AcDbCircle
 10
17.59221216833714
 20
22.72499986828868
 30
0.0
 40
0.525
100
AcDbArc
 50
0.0
 51
90.0
  0
ARC
  5
660B
330
1A
100
AcDbEntity
  8
ZUWAKU
100
AcDbCircle
 10
17.59221216833714
 20
20.97499986828868
 30
0.0
 40
0.525
100
AcDbArc
 50
270.0
 51
0.0
  0
LINE
  5
660C
330
1A
100
AcDbEntity
  8
ZUWAKU
100
AcDbLine
 10
14.09221216833714
 20
23.24999986828868
 30
0.0
 11
17.59221216833714
 21
23.24999986828868
 31
0.0
  0
ARC
  5
660D
330
1A
100
AcDbEntity
  8
ZUWAKU
100
AcDbCircle
 10
14.61721216833711
 20
19.92499986828868
 30
0.0
 40
0.525
100
AcDbArc
 50
90.0
 51
180.0
  0
LINE
  5
660E
330
1A
100
AcDbEntity
  8
ZUWAKU
100
AcDbLine
 10
14.09221216833714
 20
19.92499986828868
 30
0.0
 11
14.09221216833714
 21
18.63479784293334
 31
0.0
  0
LINE
  5
660F
330
1A
100
AcDbEntity
  8
ZUWAKU
100
AcDbLine
 10
17.59221216833714
 20
20.44999986828868
 30
0.0
 11
14.61721216833711
 21
20.44999986828868
 31
0.0
  0
LINE
  5
6610
330
1A
100
AcDbEntity
  8
ZUWAKU
100
AcDbLine
 10
11.29221216833718
 20
20.44999986828868
 30
0.0
 11
11.29221216833718
 21
18.63479784293334
 31
0.0
  0
ARC
  5
6611
330
1A
100
AcDbEntity
  8
ZUWAKU
100
AcDbCircle
 10
14.09221216833714
 20
20.44999986828868
 30
0.0
 40
2.799999999999999
100
AcDbArc
 50
90.0
 51
180.0
  0
LINE
  5
6612
330
1A
100
AcDbEntity
  8
ZUWAKU
100
AcDbLine
 10
18.11721216833712
 20
22.72499986828868
 30
0.0
 11
18.11721216833712
 21
20.97499986828868
 31
0.0
  0
ARC
  5
6613
330
1A
100
AcDbEntity
  8
ZUWAKU
100
AcDbCircle
 10
24.94221216833716
 20
19.04999986828868
 30
0.0
 40
1.399999999999999
100
AcDbArc
 50
90.0
 51
180.0
  0
ARC
  5
6614
330
1A
100
AcDbEntity
  8
ZUWAKU
100
AcDbCircle
 10
24.94221216833716
 20
19.04999986828864
 30
0.0
 40
4.199999999999999
100
AcDbArc
 50
90.0
 51
180.0
  0
LINE
  5
6615
330
1A
100
AcDbEntity
  8
ZUWAKU
100
AcDbLine
 10
79.32662956154422
 20
29.99999986828868
 30
0.0
 11
79.32662956154445
 21
0.7999998682887508
 31
0.0
  0
LINE
  5
6616
330
1A
100
AcDbEntity
  8
ZUWAKU
100
AcDbLine
 10
79.52662956154426
 20
29.99999986828868
 30
0.0
 11
79.52662956154449
 21
0.7999998682887508
 31
0.0
  0
LINE
  5
6617
330
1A
100
AcDbEntity
  8
ZUWAKU
100
AcDbLine
 10
79.12662956154441
 20
29.99999986828868
 30
0.0
 11
79.12662956154441
 21
0.7999998682887508
 31
0.0
  0
LINE
  5
6618
330
1A
100
AcDbEntity
  8
ZUWAKU
100
AcDbLine
 10
64.14221216833721
 20
9.949999868288685
 30
0.0
 11
64.14221216833721
 21
22.72499986828868
 31
0.0
  0
LINE
  5
6619
330
1A
100
AcDbEntity
  8
ZUWAKU
100
AcDbLine
 10
61.34221216833714
 20
22.72499986828868
 30
0.0
 11
61.34221216833714
 21
10.99999986828868
 31
0.0
  0
LINE
  5
661A
330
1A
100
AcDbEntity
  8
ZUWAKU
100
AcDbLine
 10
69.04221216833718
 20
7.674999868288686
 30
0.0
 11
69.04221216833718
 21
22.72499986828868
 31
0.0
  0
LINE
  5
661B
330
1A
100
AcDbEntity
  8
ZUWAKU
100
AcDbLine
 10
66.24221216833712
 20
22.72499986828868
 30
0.0
 11
66.24221216833712
 21
7.674999868288686
 31
0.0
  0
ARC
  5
661C
330
1A
100
AcDbEntity
  8
ZUWAKU
100
AcDbCircle
 10
49.79221216833718
 20
18.63479784293338
 30
0.0
 40
1.399999999999999
100
AcDbArc
 50
180.0000000000016
 51
224.9999999999988
  0
ARC
  5
661D
330
1A
100
AcDbEntity
  8
ZUWAKU
100
AcDbCircle
 10
49.79221216833718
 20
18.63479784293338
 30
0.0
 40
4.199999999999999
100
AcDbArc
 50
180.0
 51
225.0
  0
LINE
  5
661E
330
1A
100
AcDbEntity
  8
ZUWAKU
100
AcDbLine
 10
37.31485865051513
 20
19.20504706185211
 30
0.0
 11
36.05010690517929
 21
15.1999998682887
 31
0.0
  0
LINE
  5
661F
330
1A
100
AcDbEntity
  8
ZUWAKU
100
AcDbLine
 10
40.69221216833716
 20
22.72499986828868
 30
0.0
 11
40.69221216833716
 21
7.674999868288686
 31
0.0
  0
LINE
  5
6620
330
1A
100
AcDbEntity
  8
ZUWAKU
100
AcDbLine
 10
43.49221216833711
 20
7.674999868288686
 30
0.0
 11
43.49221216833711
 21
22.72499986828868
 31
0.0
  0
LINE
  5
6621
330
1A
100
AcDbEntity
  8
ZUWAKU
100
AcDbLine
 10
55.04221216833719
 20
22.72499986828868
 30
0.0
 11
55.04221216833719
 21
9.949999868288685
 31
0.0
  0
LINE
  5
6622
330
1A
100
AcDbEntity
  8
ZUWAKU
100
AcDbLine
 10
57.84221216833714
 20
10.99999986828868
 30
0.0
 11
57.84221216833714
 21
22.72499986828868
 31
0.0
  0
LINE
  5
6623
330
1A
100
AcDbEntity
  8
ZUWAKU
100
AcDbLine
 10
32.64221216833721
 20
17.12499986828869
 30
0.0
 11
32.64221216833721
 21
22.72499986828868
 31
0.0
  0
LINE
  5
6624
330
1A
100
AcDbEntity
  8
ZUWAKU
100
AcDbLine
 10
29.84221216833714
 20
22.72499986828868
 30
0.0
 11
29.84221216833714
 21
7.674999868288686
 31
0.0
  0
LINE
  5
6625
330
1A
100
AcDbEntity
  8
ZUWAKU
100
AcDbLine
 10
35.676347105653
 20
22.88309383645565
 30
0.0
 11
33.80807723102122
 21
16.96690590012171
 31
0.0
  0
LINE
  5
6626
330
1A
100
AcDbEntity
  8
ZUWAKU
100
AcDbLine
 10
60.29221216833718
 20
9.949999868288685
 30
0.0
 11
58.89221216833721
 21
9.949999868288685
 31
0.0
  0
LINE
  5
6627
330
1A
100
AcDbEntity
  8
ZUWAKU
100
AcDbLine
 10
57.84221216833714
 20
7.149999868288688
 30
0.0
 11
61.34221216833714
 21
7.149999868288688
 31
0.0
  0
LINE
  5
6628
330
1A
100
AcDbEntity
  8
ZUWAKU
100
AcDbLine
 10
41.21721216833714
 20
7.149999868288688
 30
0.0
 11
42.96721216833714
 21
7.149999868288688
 31
0.0
  0
LINE
  5
6629
330
1A
100
AcDbEntity
  8
ZUWAKU
100
AcDbLine
 10
35.676347105653
 20
7.516905900121713
 30
0.0
 11
33.80807723102122
 21
13.43309383645565
 31
0.0
  0
ARC
  5
662A
330
1A
100
AcDbEntity
  8
ZUWAKU
100
AcDbCircle
 10
33.30744633182587
 20
17.12499986828869
 30
0.0
 40
0.525
100
AcDbArc
 50
270.0
 51
342.4744316262769
  0
LINE
  5
662B
330
1A
100
AcDbEntity
  8
ZUWAKU
100
AcDbLine
 10
33.30744633182587
 20
16.59999986828868
 30
0.0
 11
33.16721216833718
 21
16.59999986828868
 31
0.0
  0
LINE
  5
662C
330
1A
100
AcDbEntity
  8
ZUWAKU
100
AcDbLine
 10
33.16721216833718
 20
13.79999986828868
 30
0.0
 11
33.30744633182587
 21
13.79999986828868
 31
0.0
  0
ARC
  5
662D
330
1A
100
AcDbEntity
  8
ZUWAKU
100
AcDbCircle
 10
33.16721216833718
 20
17.12499986828869
 30
0.0
 40
0.525
100
AcDbArc
 50
180.0
 51
270.0
  0
LINE
  5
662E
330
1A
100
AcDbEntity
  8
ZUWAKU
100
AcDbLine
 10
30.36721216833711
 20
7.149999868288688
 30
0.0
 11
32.11721216833712
 21
7.149999868288688
 31
0.0
  0
ARC
  5
662F
330
1A
100
AcDbEntity
  8
ZUWAKU
100
AcDbCircle
 10
32.11721216833712
 20
7.674999868288686
 30
0.0
 40
0.525
100
AcDbArc
 50
270.0
 51
0.0
  0
LINE
  5
6630
330
1A
100
AcDbEntity
  8
ZUWAKU
100
AcDbLine
 10
32.64221216833721
 20
7.674999868288686
 30
0.0
 11
32.64221216833721
 21
13.27499986828868
 31
0.0
  0
LINE
  5
6631
330
1A
100
AcDbEntity
  8
ZUWAKU
100
AcDbLine
 10
27.39221216833721
 20
9.424999868288686
 30
0.0
 11
27.39221216833721
 21
7.674999868288686
 31
0.0
  0
ARC
  5
6632
330
1A
100
AcDbEntity
  8
ZUWAKU
100
AcDbCircle
 10
26.86721216833712
 20
7.674999868288686
 30
0.0
 40
0.525
100
AcDbArc
 50
270.0
 51
0.0
  0
ARC
  5
6633
330
1A
100
AcDbEntity
  8
ZUWAKU
100
AcDbCircle
 10
26.86721216833712
 20
9.424999868288686
 30
0.0
 40
0.525
100
AcDbArc
 50
0.0
 51
90.0
  0
ARC
  5
6634
330
1A
100
AcDbEntity
  8
ZUWAKU
100
AcDbCircle
 10
30.36721216833711
 20
7.674999868288686
 30
0.0
 40
0.525
100
AcDbArc
 50
180.0
 51
270.0
  0
ARC
  5
6635
330
1A
100
AcDbEntity
  8
ZUWAKU
100
AcDbCircle
 10
33.30744633182587
 20
13.27499986828868
 30
0.0
 40
0.525
100
AcDbArc
 50
17.52556837372303
 51
90.0
  0
ARC
  5
6636
330
1A
100
AcDbEntity
  8
ZUWAKU
100
AcDbCircle
 10
33.16721216833718
 20
13.27499986828868
 30
0.0
 40
0.525
100
AcDbArc
 50
90.0
 51
180.0
  0
ARC
  5
6637
330
1A
100
AcDbEntity
  8
ZUWAKU
100
AcDbCircle
 10
41.21721216833714
 20
7.674999868288686
 30
0.0
 40
0.525
100
AcDbArc
 50
180.0
 51
270.0
  0
LINE
  5
6638
330
1A
100
AcDbEntity
  8
ZUWAKU
100
AcDbLine
 10
36.17697800484847
 20
7.149999868288688
 30
0.0
 11
37.87586738445748
 21
7.149999868288688
 31
0.0
  0
ARC
  5
6639
330
1A
100
AcDbEntity
  8
ZUWAKU
100
AcDbCircle
 10
37.87586738445748
 20
7.674999868288686
 30
0.0
 40
0.525
100
AcDbArc
 50
270.0
 51
17.52556837372303
  0
LINE
  5
663A
330
1A
100
AcDbEntity
  8
ZUWAKU
100
AcDbLine
 10
38.37649828365295
 20
7.83309383645566
 30
0.0
 11
36.05010690517929
 21
15.1999998682887
 31
0.0
  0
ARC
  5
663B
330
1A
100
AcDbEntity
  8
ZUWAKU
100
AcDbCircle
 10
36.17697800484847
 20
7.674999868288686
 30
0.0
 40
0.525
100
AcDbArc
 50
197.525568373723
 51
270.0
  0
ARC
  5
663C
330
1A
100
AcDbEntity
  8
ZUWAKU
100
AcDbCircle
 10
57.84221216833714
 20
9.949999868288685
 30
0.0
 40
2.799999999999999
100
AcDbArc
 50
180.0
 51
270.0
  0
ARC
  5
663D
330
1A
100
AcDbEntity
  8
ZUWAKU
100
AcDbCircle
 10
50.14221216833721
 20
9.949999868288685
 30
0.0
 40
2.799999999999999
100
AcDbArc
 50
270.0
 51
0.0
  0
LINE
  5
663E
330
1A
100
AcDbEntity
  8
ZUWAKU
100
AcDbLine
 10
51.71206064932073
 20
14.73505037462751
 30
0.0
 11
48.80226267467595
 21
17.64484834927218
 31
0.0
  0
LINE
  5
663F
330
1A
100
AcDbEntity
  8
ZUWAKU
100
AcDbLine
 10
50.14221216833721
 20
10.47499986828869
 30
0.0
 11
50.14221216833721
 21
11.76520189364403
 31
0.0
  0
ARC
  5
6640
330
1A
100
AcDbEntity
  8
ZUWAKU
100
AcDbCircle
 10
48.74221216833712
 20
11.76520189364403
 30
0.0
 40
1.399999999999999
100
AcDbArc
 50
0.0
 51
45.0
  0
ARC
  5
6641
330
1A
100
AcDbEntity
  8
ZUWAKU
100
AcDbCircle
 10
49.61721216833712
 20
10.47499986828869
 30
0.0
 40
0.525
100
AcDbArc
 50
270.0
 51
0.0
  0
LINE
  5
6642
330
1A
100
AcDbEntity
  8
ZUWAKU
100
AcDbLine
 10
46.11721216833712
 20
7.674999868288686
 30
0.0
 11
46.11721216833712
 21
9.424999868288686
 31
0.0
  0
ARC
  5
6643
330
1A
100
AcDbEntity
  8
ZUWAKU
100
AcDbCircle
 10
46.64221216833721
 20
7.674999868288686
 30
0.0
 40
0.525
100
AcDbArc
 50
180.0
 51
270.0
  0
ARC
  5
6644
330
1A
100
AcDbEntity
  8
ZUWAKU
100
AcDbCircle
 10
42.96721216833714
 20
7.674999868288686
 30
0.0
 40
0.525
100
AcDbArc
 50
270.0
 51
0.0
  0
ARC
  5
6645
330
1A
100
AcDbEntity
  8
ZUWAKU
100
AcDbCircle
 10
46.64221216833721
 20
9.424999868288686
 30
0.0
 40
0.525
100
AcDbArc
 50
90.0
 51
180.0
  0
LINE
  5
6646
330
1A
100
AcDbEntity
  8
ZUWAKU
100
AcDbLine
 10
46.64221216833721
 20
9.949999868288685
 30
0.0
 11
49.61721216833712
 21
9.949999868288685
 31
0.0
  0
LINE
  5
6647
330
1A
100
AcDbEntity
  8
ZUWAKU
100
AcDbLine
 10
46.64221216833721
 20
7.149999868288688
 30
0.0
 11
50.14221216833721
 21
7.149999868288688
 31
0.0
  0
LINE
  5
6648
330
1A
100
AcDbEntity
  8
ZUWAKU
100
AcDbLine
 10
46.82236368735368
 20
15.66494936194986
 30
0.0
 11
49.73216166199836
 21
12.7551513873052
 31
0.0
  0
LINE
  5
6649
330
1A
100
AcDbEntity
  8
ZUWAKU
100
AcDbLine
 10
52.94221216833716
 20
9.949999868288685
 30
0.0
 11
52.94221216833716
 21
11.76520189364403
 31
0.0
  0
ARC
  5
664A
330
1A
100
AcDbEntity
  8
ZUWAKU
100
AcDbCircle
 10
48.74221216833712
 20
11.76520189364399
 30
0.0
 40
4.199999999999999
100
AcDbArc
 50
0.0
 51
45.0
  0
ARC
  5
664B
330
1A
100
AcDbEntity
  8
ZUWAKU
100
AcDbCircle
 10
58.89221216833721
 20
10.99999986828868
 30
0.0
 40
1.049999999999999
100
AcDbArc
 50
180.0
 51
270.0
  0
ARC
  5
664C
330
1A
100
AcDbEntity
  8
ZUWAKU
100
AcDbCircle
 10
61.34221216833714
 20
9.949999868288685
 30
0.0
 40
2.799999999999999
100
AcDbArc
 50
270.0
 51
0.0
  0
LINE
  5
664D
330
1A
100
AcDbEntity
  8
ZUWAKU
100
AcDbLine
 10
66.76721216833721
 20
7.149999868288688
 30
0.0
 11
68.51721216833721
 21
7.149999868288688
 31
0.0
  0
ARC
  5
664E
330
1A
100
AcDbEntity
  8
ZUWAKU
100
AcDbCircle
 10
66.76721216833721
 20
7.674999868288686
 30
0.0
 40
0.525
100
AcDbArc
 50
180.0
 51
270.0
  0
ARC
  5
664F
330
1A
100
AcDbEntity
  8
ZUWAKU
100
AcDbCircle
 10
60.29221216833718
 20
10.99999986828868
 30
0.0
 40
1.049999999999999
100
AcDbArc
 50
270.0
 51
0.0
  0
ARC
  5
6650
330
1A
100
AcDbEntity
  8
ZUWAKU
100
AcDbCircle
 10
68.51721216833721
 20
7.674999868288686
 30
0.0
 40
0.525
100
AcDbArc
 50
270.0
 51
0.0
  0
LINE
  5
6651
330
1A
100
AcDbEntity
  8
ZUWAKU
100
AcDbLine
 10
42.96721216833714
 20
23.24999986828868
 30
0.0
 11
41.21721216833714
 21
23.24999986828868
 31
0.0
  0
ARC
  5
6652
330
1A
100
AcDbEntity
  8
ZUWAKU
100
AcDbCircle
 10
32.11721216833712
 20
22.72499986828868
 30
0.0
 40
0.525
100
AcDbArc
 50
0.0
 51
90.0
  0
LINE
  5
6653
330
1A
100
AcDbEntity
  8
ZUWAKU
100
AcDbLine
 10
32.11721216833712
 20
23.24999986828868
 30
0.0
 11
30.36721216833711
 21
23.24999986828868
 31
0.0
  0
ARC
  5
6654
330
1A
100
AcDbEntity
  8
ZUWAKU
100
AcDbCircle
 10
26.86721216833712
 20
22.72499986828868
 30
0.0
 40
0.525
100
AcDbArc
 50
0.0
 51
90.0
  0
ARC
  5
6655
330
1A
100
AcDbEntity
  8
ZUWAKU
100
AcDbCircle
 10
30.36721216833711
 20
22.72499986828868
 30
0.0
 40
0.525
100
AcDbArc
 50
90.0
 51
180.0
  0
ARC
  5
6656
330
1A
100
AcDbEntity
  8
ZUWAKU
100
AcDbCircle
 10
26.86721216833712
 20
20.97499986828868
 30
0.0
 40
0.525
100
AcDbArc
 50
270.0
 51
0.0
  0
LINE
  5
6657
330
1A
100
AcDbEntity
  8
ZUWAKU
100
AcDbLine
 10
27.39221216833721
 20
22.72499986828868
 30
0.0
 11
27.39221216833721
 21
20.97499986828868
 31
0.0
  0
ARC
  5
6658
330
1A
100
AcDbEntity
  8
ZUWAKU
100
AcDbCircle
 10
41.21721216833714
 20
22.72499986828868
 30
0.0
 40
0.525
100
AcDbArc
 50
90.0
 51
180.0
  0
LINE
  5
6659
330
1A
100
AcDbEntity
  8
ZUWAKU
100
AcDbLine
 10
36.17697800484847
 20
23.24999986828868
 30
0.0
 11
37.87586738445748
 21
23.24999986828868
 31
0.0
  0
ARC
  5
665A
330
1A
100
AcDbEntity
  8
ZUWAKU
100
AcDbCircle
 10
37.87586738445748
 20
22.72499986828868
 30
0.0
 40
0.525
100
AcDbArc
 50
342.4744316262769
 51
90.0
  0
LINE
  5
665B
330
1A
100
AcDbEntity
  8
ZUWAKU
100
AcDbLine
 10
38.37649828365295
 20
22.56690590012171
 30
0.0
 11
37.31485865051513
 21
19.20504706185211
 31
0.0
  0
ARC
  5
665C
330
1A
100
AcDbEntity
  8
ZUWAKU
100
AcDbCircle
 10
36.17697800484847
 20
22.72499986828868
 30
0.0
 40
0.525
100
AcDbArc
 50
90.0
 51
162.4744316262769
  0
LINE
  5
665D
330
1A
100
AcDbEntity
  8
ZUWAKU
100
AcDbLine
 10
48.3922121683372
 20
23.24999986828868
 30
0.0
 11
51.89221216833721
 21
23.24999986828868
 31
0.0
  0
LINE
  5
665E
330
1A
100
AcDbEntity
  8
ZUWAKU
100
AcDbLine
 10
51.89221216833721
 20
20.44999986828868
 30
0.0
 11
48.91721216833719
 21
20.44999986828868
 31
0.0
  0
ARC
  5
665F
330
1A
100
AcDbEntity
  8
ZUWAKU
100
AcDbCircle
 10
48.91721216833719
 20
19.92499986828868
 30
0.0
 40
0.525
100
AcDbArc
 50
90.0
 51
180.0
  0
LINE
  5
6660
330
1A
100
AcDbEntity
  8
ZUWAKU
100
AcDbLine
 10
48.3922121683372
 20
19.92499986828868
 30
0.0
 11
48.3922121683372
 21
18.63479784293334
 31
0.0
  0
ARC
  5
6661
330
1A
100
AcDbEntity
  8
ZUWAKU
100
AcDbCircle
 10
42.96721216833714
 20
22.72499986828868
 30
0.0
 40
0.525
100
AcDbArc
 50
0.0
 51
90.0
  0
LINE
  5
6662
330
1A
100
AcDbEntity
  8
ZUWAKU
100
AcDbLine
 10
45.59221216833714
 20
20.44999986828868
 30
0.0
 11
45.59221216833714
 21
18.63479784293334
 31
0.0
  0
ARC
  5
6663
330
1A
100
AcDbEntity
  8
ZUWAKU
100
AcDbCircle
 10
48.3922121683372
 20
20.44999986828868
 30
0.0
 40
2.799999999999999
100
AcDbArc
 50
90.0
 51
180.0
  0
ARC
  5
6664
330
1A
100
AcDbEntity
  8
ZUWAKU
100
AcDbCircle
 10
57.31721216833716
 20
22.72499986828868
 30
0.0
 40
0.525
100
AcDbArc
 50
0.0
 51
90.0
  0
ARC
  5
6665
330
1A
100
AcDbEntity
  8
ZUWAKU
100
AcDbCircle
 10
55.56721216833716
 20
22.72499986828868
 30
0.0
 40
0.525
100
AcDbArc
 50
90.0
 51
180.0
  0
LINE
  5
6666
330
1A
100
AcDbEntity
  8
ZUWAKU
100
AcDbLine
 10
57.31721216833716
 20
23.24999986828868
 30
0.0
 11
55.56721216833716
 21
23.24999986828868
 31
0.0
  0
ARC
  5
6667
330
1A
100
AcDbEntity
  8
ZUWAKU
100
AcDbCircle
 10
51.89221216833721
 20
22.72499986828868
 30
0.0
 40
0.525
100
AcDbArc
 50
0.0
 51
90.0
  0
ARC
  5
6668
330
1A
100
AcDbEntity
  8
ZUWAKU
100
AcDbCircle
 10
51.89221216833721
 20
20.97499986828868
 30
0.0
 40
0.525
100
AcDbArc
 50
270.0
 51
0.0
  0
LINE
  5
6669
330
1A
100
AcDbEntity
  8
ZUWAKU
100
AcDbLine
 10
52.41721216833719
 20
22.72499986828868
 30
0.0
 11
52.41721216833719
 21
20.97499986828868
 31
0.0
  0
LINE
  5
666A
330
1A
100
AcDbEntity
  8
ZUWAKU
100
AcDbLine
 10
68.51721216833721
 20
23.24999986828868
 30
0.0
 11
66.76721216833721
 21
23.24999986828868
 31
0.0
  0
ARC
  5
666B
330
1A
100
AcDbEntity
  8
ZUWAKU
100
AcDbCircle
 10
66.76721216833721
 20
22.72499986828868
 30
0.0
 40
0.525
100
AcDbArc
 50
90.0
 51
180.0
  0
ARC
  5
666C
330
1A
100
AcDbEntity
  8
ZUWAKU
100
AcDbCircle
 10
63.61721216833712
 20
22.72499986828868
 30
0.0
 40
0.525
100
AcDbArc
 50
0.0
 51
90.0
  0
LINE
  5
666D
330
1A
100
AcDbEntity
  8
ZUWAKU
100
AcDbLine
 10
63.61721216833712
 20
23.24999986828868
 30
0.0
 11
61.86721216833712
 21
23.24999986828868
 31
0.0
  0
ARC
  5
666E
330
1A
100
AcDbEntity
  8
ZUWAKU
100
AcDbCircle
 10
61.86721216833712
 20
22.72499986828868
 30
0.0
 40
0.525
100
AcDbArc
 50
90.0
 51
180.0
  0
ARC
  5
666F
330
1A
100
AcDbEntity
  8
ZUWAKU
100
AcDbCircle
 10
68.51721216833721
 20
22.72499986828868
 30
0.0
 40
0.525
100
AcDbArc
 50
0.0
 51
90.0
  0
TEXT
  5
6670
330
1A
100
AcDbEntity
  8
MOJI
100
AcDbText
 10
239.827202694407
 20
18.00492092569607
 30
0.0
 40
5.599999999999999
  1
インサイド曲り（出）Ⅱ
 41
0.9
  7
ｽﾀｲﾙ1
100
AcDbText
  0
TEXT
  5
6671
330
1A
100
AcDbEntity
  8
MOJI
100
AcDbText
 10
239.827202694407
 20
3.204920925696104
 30
0.0
 40
5.599999999999999
  1
ＶＭ１２０
 41
0.9
  7
ｽﾀｲﾙ1
100
AcDbText
  0
LINE
  5
6672
330
1A
100
AcDbEntity
  8
ZUWAKU
100
AcDbLine
 10
208.2466013036239
 20
29.99999986828868
 30
0.0
 11
208.2466013036239
 21
0.7999998682887508
 31
0.0
  0
LINE
  5
6673
330
1A
100
AcDbEntity
  8
ZUWAKU
100
AcDbLine
 10
208.6466013036238
 20
29.99999986828868
 30
0.0
 11
208.646601303624
 21
0.7999998682887508
 31
0.0
  0
LINE
  5
6674
330
1A
100
AcDbEntity
  8
ZUWAKU
100
AcDbLine
 10
208.4466013036237
 20
29.99999986828868
 30
0.0
 11
208.446601303624
 21
0.7999998682887508
 31
0.0
  0
TEXT
  5
6675
330
1A
100
AcDbEntity
  8
ZUWAKU
100
AcDbText
 10
209.7240463258335
 20
9.6553564066743
 30
0.0
 40
4.0
  1
サイズ
 41
0.9
  7
ｽﾀｲﾙ1
100
AcDbText
  0
TEXT
  5
6676
330
1A
100
AcDbEntity
  8
ZUWAKU
100
AcDbText
 10
209.7240463258333
 20
24.05535640667426
 30
0.0
 40
4.0
  1
品名
 41
0.9
  7
ｽﾀｲﾙ1
100
AcDbText
  0
LINE
  5
6677
330
1A
100
AcDbEntity
  8
ZUWAKU
100
AcDbLine
 10
648.8172025237602
 20
15.19999986828871
 30
0.0
 11
697.2490105620972
 21
15.19999986828871
 31
0.0
  0
LINE
  5
6678
330
1A
100
AcDbEntity
  8
ZUWAKU
100
AcDbLine
 10
648.8172025237604
 20
15.39999986828872
 30
0.0
 11
697.2490105620972
 21
15.39999986828871
 31
0.0
  0
LINE
  5
6679
330
1A
100
AcDbEntity
  8
ZUWAKU
100
AcDbLine
 10
648.8172025237602
 20
15.59999986828871
 30
0.0
 11
697.2490105620972
 21
15.59999986828871
 31
0.0
  0
TEXT
  5
667A
330
1A
100
AcDbEntity
  8
ZUWAKU
100
AcDbText
 10
658.2039377008584
 20
18.00492092569607
 30
0.0
 40
5.599999999999999
  1
　　．　　．　　
 41
0.9
  7
ｽﾀｲﾙ1
100
AcDbText
  0
LINE
  5
667B
330
1A
100
AcDbEntity
  8
ZUWAKU
100
AcDbLine
 10
505.1991795116968
 20
15.19999986828872
 30
0.0
 11
552.5269557796685
 21
15.19999986828872
 31
0.0
  0
LINE
  5
667C
330
1A
100
AcDbEntity
  8
ZUWAKU
100
AcDbLine
 10
505.1991795116968
 20
15.39999986828871
 30
0.0
 11
552.5269557796685
 21
15.39999986828871
 31
0.0
  0
LINE
  5
667D
330
1A
100
AcDbEntity
  8
ZUWAKU
100
AcDbLine
 10
505.1991795116968
 20
15.59999986828871
 30
0.0
 11
552.5269557796685
 21
15.59999986828871
 31
0.0
  0
TEXT
  5
667E
330
1A
100
AcDbEntity
  8
MOJI
100
AcDbText
 10
463.246432004558
 20
11.94261758994866
 30
0.0
 40
5.599999999999999
  1
ＰＧ５５□
 41
0.9
  7
ｽﾀｲﾙ1
100
AcDbText
  0
LINE
  5
667F
330
1A
100
AcDbEntity
  8
ZUWAKU
100
AcDbLine
 10
447.6243639845472
 20
29.99999986828868
 30
0.0
 11
447.6243639845474
 21
0.7999998682887508
 31
0.0
  0
LINE
  5
6680
330
1A
100
AcDbEntity
  8
ZUWAKU
100
AcDbLine
 10
447.8243639845472
 20
29.99999986828868
 30
0.0
 11
447.8243639845475
 21
0.7999998682887508
 31
0.0
  0
LINE
  5
6681
330
1A
100
AcDbEntity
  8
ZUWAKU
100
AcDbLine
 10
447.4243639845474
 20
29.99999986828868
 30
0.0
 11
447.4243639845474
 21
0.7999998682887508
 31
0.0
  0
TEXT
  5
6682
330
1A
100
AcDbEntity
  8
MOJI
100
AcDbText
 10
528.0409079858689
 20
18.00492092569607
 30
0.0
 40
5.599999999999999
  1
Ａ３
 41
0.9
  7
ｽﾀｲﾙ1
100
AcDbText
  0
LINE
  5
6683
330
1A
100
AcDbEntity
  8
ZUWAKU
100
AcDbLine
 10
504.9991795116969
 20
29.99999986828868
 30
0.0
 11
504.999179511697
 21
0.7999998682887508
 31
0.0
  0
LINE
  5
6684
330
1A
100
AcDbEntity
  8
ZUWAKU
100
AcDbLine
 10
505.1991795116968
 20
29.99999986828868
 30
0.0
 11
505.1991795116971
 21
0.7999998682887508
 31
0.0
  0
LINE
  5
6685
330
1A
100
AcDbEntity
  8
ZUWAKU
100
AcDbLine
 10
504.799179511697
 20
29.99999986828868
 30
0.0
 11
504.799179511697
 21
0.7999998682887508
 31
0.0
  0
TEXT
  5
6686
330
1A
100
AcDbEntity
  8
ZUWAKU
100
AcDbText
 10
461.8302189910571
 20
2.614070779428175
 30
0.0
 40
3.0
  1
□には色品番が入ります
 41
0.9
  7
ｽﾀｲﾙ1
100
AcDbText
  0
TEXT
  5
6687
330
1A
100
AcDbEntity
  8
ZUWAKU
100
AcDbText
 10
506.6766245339067
 20
9.6553564066743
 30
0.0
 40
4.0
  1
縮尺
 41
0.9
  7
ｽﾀｲﾙ1
100
AcDbText
  0
TEXT
  5
6688
330
1A
100
AcDbEntity
  8
MOJI
100
AcDbText
 10
528.0409079858689
 20
3.204920925696104
 30
0.0
 40
5.599999999999999
  1
１/２
 41
0.9
  7
ｽﾀｲﾙ1
100
AcDbText
  0
TEXT
  5
6689
330
1A
100
AcDbEntity
  8
ZUWAKU
100
AcDbText
 10
449.3018090067569
 20
24.05535640667426
 30
0.0
 40
4.0
  1
品番
 41
0.9
  7
ｽﾀｲﾙ1
100
AcDbText
  0
TEXT
  5
668A
330
1A
100
AcDbEntity
  8
ZUWAKU
100
AcDbText
 10
506.6766245339065
 20
24.05535640667426
 30
0.0
 40
4.0
  1
用紙
 41
0.9
  7
ｽﾀｲﾙ1
100
AcDbText
  0
LINE
  5
668B
330
1A
100
AcDbEntity
  8
ZUWAKU
100
AcDbLine
 10
648.6172025237603
 20
29.99999986828868
 30
0.0
 11
648.6172025237606
 21
0.7999998682887508
 31
0.0
  0
LINE
  5
668C
330
1A
100
AcDbEntity
  8
ZUWAKU
100
AcDbLine
 10
648.8172025237604
 20
29.99999986828868
 30
0.0
 11
648.8172025237607
 21
0.7999998682887508
 31
0.0
  0
LINE
  5
668D
330
1A
100
AcDbEntity
  8
ZUWAKU
100
AcDbLine
 10
648.4172025237605
 20
29.99999986828868
 30
0.0
 11
648.4172025237605
 21
0.7999998682887508
 31
0.0
  0
LINE
  5
668E
330
1A
100
AcDbEntity
  8
ZUWAKU
100
AcDbLine
 10
552.7269557796683
 20
29.99999986828868
 30
0.0
 11
552.7269557796684
 21
0.7999998682887508
 31
0.0
  0
LINE
  5
668F
330
1A
100
AcDbEntity
  8
ZUWAKU
100
AcDbLine
 10
552.9269557796683
 20
29.99999986828868
 30
0.0
 11
552.9269557796685
 21
0.7999998682887508
 31
0.0
  0
LINE
  5
6690
330
1A
100
AcDbEntity
  8
ZUWAKU
100
AcDbLine
 10
552.5269557796685
 20
29.99999986828868
 30
0.0
 11
552.5269557796685
 21
0.7999998682887508
 31
0.0
  0
TEXT
  5
6691
330
1A
100
AcDbEntity
  8
ZUWAKU
100
AcDbText
 10
650.29464754597
 20
24.05535640667426
 30
0.0
 40
4.0
  1
DATE
 41
0.9
  7
ｽﾀｲﾙ1
100
AcDbText
  0
LINE
  5
6692
330
1A
100
AcDbEntity
  8
ZUWAKU
100
AcDbLine
 10
697.2490105620972
 20
29.99999986828868
 30
0.0
 11
697.2490105620972
 21
0.7999998682887508
 31
0.0
  0
LINE
  5
6693
330
1A
100
AcDbEntity
  8
ZUWAKU
100
AcDbLine
 10
697.4490105620973
 20
29.99999986828868
 30
0.0
 11
697.4490105620973
 21
0.7999998682887508
 31
0.0
  0
LINE
  5
6694
330
1A
100
AcDbEntity
  8
ZUWAKU
100
AcDbLine
 10
697.6490105620971
 20
29.99999986828868
 30
0.0
 11
697.6490105620974
 21
0.7999998682887508
 31
0.0
  0
LINE
  5
6695
330
1A
100
AcDbEntity
  8
ZUWAKU
100
AcDbLine
 10
697.8490105620972
 20
29.99999986828868
 30
0.0
 11
697.8490105620974
 21
0.7999998682887508
 31
0.0
  0
TEXT
  5
6696
330
1A
100
AcDbEntity
  8
ZUWAKU
100
AcDbText
 10
708.5280842057998
 20
17.55383920397548
 30
0.0
 40
6.0
  1
積水化学工業株式会社
 41
0.9
  7
ｽﾀｲﾙ1
100
AcDbText
  0
TEXT
  5
6697
330
1A
100
AcDbEntity
  8
ZUWAKU
100
AcDbText
 10
708.5280842057998
 20
6.648840182142748
 30
0.0
 40
6.0
  1
建材事業部
 41
0.9
  7
ｽﾀｲﾙ1
100
AcDbText
  0
DIMENSION
  5
836D
330
1A
100
AcDbEntity
  8
SUNPOU
100
AcDbDimension
  2
*D5
 10
410.0043031318364
 20
193.5673457243007
 30
0.0
 11
405.0043031318363
 21
203.8127746077008
 31
0.0
 70
    32
  3
STANDARD
100
AcDbAlignedDimension
 13
433.2341788277715
 23
214.0582034911007
 33
0.0
 14
432.0783623175715
 24
193.5673457243007
 34
0.0
 50
90.0
100
AcDbRotatedDimension
1001
ACAD
1000
DSTYLE
1002
{
1070
    41
1040
7.0
1070
    42
1040
6.0
1070
    43
1040
14.0
1070
    44
1040
3.0
1070
    73
1070
     0
1070
    74
1070
     0
1070
    77
1070
     3
1070
   140
1040
6.0
1070
   141
1040
150.0
1070
   147
1040
2.0
1070
   172
1070
     1
1070
   173
1070
     1
1070
   176
1070
   256
1070
   177
1070
   256
1070
   178
1070
   256
1070
   271
1070
     0
1070
   272
1070
     0
1070
   341
1005
6D
1070
     6
1000
OPEN
1070
     7
1000
OPEN
1002
}
  0
DIMENSION
  5
837B
330
1A
100
AcDbEntity
  8
SUNPOU
100
AcDbDimension
  2
*D6
 10
391.4834554091167
 20
102.5686847435681
 30
0.0
 11
386.4834554091166
 21
158.3134441173345
 31
0.0
 70
    32
  3
STANDARD
100
AcDbAlignedDimension
 13
433.2341788277715
 23
214.0582034911007
 33
0.0
 14
510.4418915096454
 24
102.5686847435681
 34
0.0
 50
90.0
100
AcDbRotatedDimension
1001
ACAD
1000
DSTYLE
1002
{
1070
    41
1040
7.0
1070
    42
1040
6.0
1070
    43
1040
14.0
1070
    44
1040
3.0
1070
    73
1070
     0
1070
    74
1070
     0
1070
    77
1070
     3
1070
   140
1040
6.0
1070
   141
1040
150.0
1070
   147
1040
2.0
1070
   172
1070
     1
1070
   173
1070
     1
1070
   176
1070
   256
1070
   177
1070
   256
1070
   178
1070
   256
1070
   271
1070
     0
1070
   272
1070
     0
1070
   341
1005
6D
1070
     6
1000
OPEN
1070
     7
1000
OPEN
1002
}
  0
DIMENSION
  5
8388
330
1A
100
AcDbEntity
  8
SUNPOU
100
AcDbDimension
  2
*D7
 10
544.0447921683682
 20
77.36908890352919
 30
0.0
 11
511.7646040823371
 21
82.36908890352919
 31
0.0
 70
    32
  3
STANDARD
100
AcDbAlignedDimension
 13
479.484415996306
 23
104.6982034910669
 33
0.0
 14
544.0447921683682
 24
104.6805314155373
 34
0.0
100
AcDbRotatedDimension
1001
ACAD
1000
DSTYLE
1002
{
1070
    41
1040
7.0
1070
    42
1040
6.0
1070
    43
1040
14.0
1070
    44
1040
3.0
1070
    73
1070
     0
1070
    74
1070
     0
1070
    77
1070
     3
1070
   140
1040
6.0
1070
   141
1040
150.0
1070
   147
1040
2.0
1070
   172
1070
     1
1070
   173
1070
     1
1070
   176
1070
   256
1070
   177
1070
   256
1070
   178
1070
   256
1070
   271
1070
     0
1070
   272
1070
     0
1070
   341
1005
6D
1070
     6
1000
OPEN
1070
     7
1000
OPEN
1002
}
  0
DIMENSION
  5
8395
330
1A
100
AcDbEntity
  8
SUNPOU
100
AcDbDimension
  2
*D8
 10
683.9782141286641
 20
102.568684743568
 30
0.0
 11
678.9782141286641
 21
146.3430261578345
 31
0.0
 70
    32
  3
STANDARD
100
AcDbAlignedDimension
 13
554.9251028856715
 23
190.1173675721007
 33
0.0
 14
510.4418915096454
 24
102.5686847435681
 34
0.0
 50
90.0
100
AcDbRotatedDimension
1001
ACAD
1000
DSTYLE
1002
{
1070
    41
1040
7.0
1070
    42
1040
6.0
1070
    43
1040
14.0
1070
    44
1040
3.0
1070
    73
1070
     0
1070
    74
1070
     0
1070
    77
1070
     3
1070
   140
1040
6.0
1070
   141
1040
150.0
1070
   147
1040
2.0
1070
   172
1070
     1
1070
   173
1070
     1
1070
   176
1070
   256
1070
   177
1070
   256
1070
   178
1070
   256
1070
   271
1070
     0
1070
   272
1070
     0
1070
   341
1005
6D
1070
     6
1000
OPEN
1070
     7
1000
OPEN
1002
}
  0
DIMENSION
  5
83A2
330
1A
100
AcDbEntity
  8
SUNPOU
100
AcDbDimension
  2
*D9
 10
670.3415190598498
 20
102.5673457243007
 30
0.0
 11
665.3415190598498
 21
138.5773419663508
 31
0.0
 70
    32
  3
STANDARD
100
AcDbAlignedDimension
 13
547.8144316997716
 23
174.5873382084007
 33
0.0
 14
577.6783623176716
 24
102.5673457243007
 34
0.0
 50
90.0
100
AcDbRotatedDimension
1001
ACAD
1000
DSTYLE
1002
{
1070
    41
1040
7.0
1070
    42
1040
6.0
1070
    43
1040
14.0
1070
    44
1040
3.0
1070
    73
1070
     0
1070
    74
1070
     0
1070
    77
1070
     3
1070
   140
1040
6.0
1070
   141
1040
150.0
1070
   147
1040
2.0
1070
   172
1070
     1
1070
   173
1070
     1
1070
   176
1070
   256
1070
   177
1070
   256
1070
   178
1070
   256
1070
   271
1070
     0
1070
   272
1070
     0
1070
   341
1005
6D
1070
     6
1000
OPEN
1070
     7
1000
OPEN
1002
}
  0
DIMENSION
  5
83AF
330
1A
100
AcDbEntity
  8
SUNPOU
100
AcDbDimension
  2
*D10
 10
426.90129066427
 20
240.967924775507
 30
0.0
 11
488.2785692676708
 21
245.967924775507
 31
0.0
 70
    32
  3
STANDARD
100
AcDbAlignedDimension
 13
549.6558478710716
 23
172.5936353296007
 33
0.0
 14
426.90129066427
 24
210.9460741449295
 34
0.0
100
AcDbRotatedDimension
1001
ACAD
1000
DSTYLE
1002
{
1070
    41
1040
7.0
1070
    42
1040
6.0
1070
    43
1040
14.0
1070
    44
1040
3.0
1070
    73
1070
     0
1070
    74
1070
     0
1070
    77
1070
     3
1070
   140
1040
6.0
1070
   141
1040
150.0
1070
   147
1040
2.0
1070
   172
1070
     1
1070
   173
1070
     1
1070
   176
1070
   256
1070
   177
1070
   256
1070
   178
1070
   256
1070
   271
1070
     0
1070
   272
1070
     0
1070
   341
1005
6D
1070
     6
1000
OPEN
1070
     7
1000
OPEN
1002
}
  0
DIMENSION
  5
83BC
330
1A
100
AcDbEntity
  8
SUNPOU
100
AcDbDimension
  2
*D11
 10
632.6783623176716
 20
258.240640100289
 30
0.0
 11
529.7898264909709
 21
263.240640100289
 31
0.0
 70
    32
  3
STANDARD
100
AcDbAlignedDimension
 13
426.90129066427
 23
216.9460741449295
 33
0.0
 14
632.6783623176716
 24
210.9582034911007
 34
0.0
100
AcDbRotatedDimension
1001
ACAD
1000
DSTYLE
1002
{
1070
    41
1040
7.0
1070
    42
1040
6.0
1070
    43
1040
14.0
1070
    44
1040
3.0
1070
    73
1070
     0
1070
    74
1070
     0
1070
    77
1070
     3
1070
   140
1040
6.0
1070
   141
1040
150.0
1070
   147
1040
2.0
1070
   172
1070
     1
1070
   173
1070
     1
1070
   176
1070
   256
1070
   177
1070
   256
1070
   178
1070
   256
1070
   271
1070
     0
1070
   272
1070
     0
1070
   341
1005
6D
1070
     6
1000
OPEN
1070
     7
1000
OPEN
1002
}
  0
LINE
  5
8687
330
1A
100
AcDbEntity
  8
CENTER_L
  6
CENTER
 62
     1
 48
5.0
100
AcDbLine
 10
981.6150013610236
 20
1119.290392900336
 30
0.0
 11
981.6150013610236
 21
1255.562813455264
 31
0.0
  0
DIMENSION
  5
868A
330
1A
100
AcDbEntity
  8
SUNPOU
100
AcDbDimension
  2
*D12
 10
379.311136620646
 20
292.3801590733271
 30
0.0
 11
374.3111366206459
 21
319.8801590733272
 31
0.0
 70
    32
  1
\U+203B<>
  3
STANDARD
100
AcDbAlignedDimension
 13
426.8985497337715
 23
347.3801590733271
 33
0.0
 14
434.2337133416715
 24
292.380159073327
 34
0.0
 50
90.0
100
AcDbRotatedDimension
1001
ACAD
1000
DSTYLE
1002
{
1070
    41
1040
7.0
1070
    42
1040
6.0
1070
    43
1040
14.0
1070
    44
1040
3.0
1070
    73
1070
     0
1070
    74
1070
     0
1070
    77
1070
     3
1070
   140
1040
6.0
1070
   141
1040
150.0
1070
   147
1040
2.0
1070
   172
1070
     1
1070
   173
1070
     1
1070
   176
1070
   256
1070
   177
1070
   256
1070
   178
1070
   256
1070
   271
1070
     0
1070
   272
1070
     0
1070
   341
1005
6D
1070
     6
1000
OPEN
1070
     7
1000
OPEN
1002
}
  0
DIMENSION
  5
86B2
330
1A
100
AcDbEntity
  8
SUNPOU
100
AcDbDimension
  2
*D13
 10
666.3165954530527
 20
375.4027082849704
 30
0.0
 11
661.3165954530526
 21
436.7813462648195
 31
0.0
 70
    32
  3
STANDARD
100
AcDbAlignedDimension
 13
577.6783141063356
 23
498.1599842446684
 33
0.0
 14
632.6783636056268
 24
375.4027082849704
 34
0.0
 50
90.0
100
AcDbRotatedDimension
1001
ACAD
1000
DSTYLE
1002
{
1070
    41
1040
7.0
1070
    42
1040
6.0
1070
    43
1040
14.0
1070
    44
1040
3.0
1070
    73
1070
     0
1070
    74
1070
     0
1070
    77
1070
     3
1070
   140
1040
6.0
1070
   141
1040
150.0
1070
   147
1040
2.0
1070
   172
1070
     1
1070
   173
1070
     1
1070
   176
1070
   256
1070
   177
1070
   256
1070
   178
1070
   256
1070
   271
1070
     0
1070
   272
1070
     0
1070
   341
1005
6D
1070
     6
1000
OPEN
1070
     7
1000
OPEN
1002
}
  0
DIMENSION
  5
86BF
330
1A
100
AcDbEntity
  8
SUNPOU
100
AcDbDimension
  2
*D14
 10
683.9782141286642
 20
292.380159073327
 30
0.0
 11
678.9782141286641
 21
395.2700716589978
 31
0.0
 70
    32
  3
STANDARD
100
AcDbAlignedDimension
 13
583.6783141063356
 23
498.1599842446684
 33
0.0
 14
549.6558478710716
 24
292.380159073327
 34
0.0
 50
90.0
100
AcDbRotatedDimension
1001
ACAD
1000
DSTYLE
1002
{
1070
    41
1040
7.0
1070
    42
1040
6.0
1070
    43
1040
14.0
1070
    44
1040
3.0
1070
    73
1070
     0
1070
    74
1070
     0
1070
    77
1070
     3
1070
   140
1040
6.0
1070
   141
1040
150.0
1070
   147
1040
2.0
1070
   172
1070
     1
1070
   173
1070
     1
1070
   176
1070
   256
1070
   177
1070
   256
1070
   178
1070
   256
1070
   271
1070
     0
1070
   272
1070
     0
1070
   341
1005
6D
1070
     6
1000
OPEN
1070
     7
1000
OPEN
1002
}
  0
LINE
  5
8A0B
330
1A
100
AcDbEntity
  8
SEIHIN
  6
CONTINUOUS
 62
     3
100
AcDbLine
 10
467.3690195707714
 20
351.0661289539001
 30
0.0
 11
467.369019570771
 21
457.8754400099524
 31
0.0
  0
LINE
  5
8A0C
330
1A
100
AcDbEntity
  8
CENTER_L1
  6
CENTER
 48
10.0
100
AcDbLine
 10
510.4418915096454
 20
288.3343385013766
 30
0.0
 11
510.4418915096454
 21
424.606759056305
 31
0.0
  0
LINE
  5
8A0D
330
1A
100
AcDbEntity
  8
SEIHIN
  6
CONTINUOUS
 62
     3
100
AcDbLine
 10
632.6783601325984
 20
384.7017220921427
 30
0.0
 11
632.6783363073965
 21
443.787762400838
 31
0.0
  0
LINE
  5
8A10
330
1A
100
AcDbEntity
  8
SEIHIN
  6
CONTINUOUS
 62
     3
100
AcDbLine
 10
479.0719038145717
 20
351.0661289539001
 30
0.0
 11
479.0719038145717
 21
445.7287898826002
 31
0.0
  0
LINE
  5
8A11
330
1A
100
AcDbEntity
  8
SEIHIN
  6
CONTINUOUS
 62
     3
100
AcDbLine
 10
473.3690195707715
 20
351.0661289539001
 30
0.0
 11
473.3690195707709
 21
451.8754424293256
 31
0.0
  0
LINE
  5
8A12
330
1A
100
AcDbEntity
  8
SEIHIN
  6
CONTINUOUS
 62
     3
100
AcDbLine
 10
445.1139020055717
 20
477.6685532758
 30
0.0
 11
445.1139020055717
 21
351.0661289539001
 31
0.0
  0
LINE
  5
8A13
330
1A
100
AcDbEntity
  8
SEIHIN
  6
CONTINUOUS
 62
     3
100
AcDbLine
 10
432.5448795043713
 20
490.699566839283
 30
0.0
 11
432.5448795043718
 21
351.0661289539001
 31
0.0
  0
LINE
  5
8A14
330
1A
100
AcDbEntity
  8
SEIHIN
  6
CONTINUOUS
 62
     3
100
AcDbLine
 10
427.6336017420718
 20
495.1691476179001
 30
0.0
 11
427.6336017420718
 21
351.0661289539001
 31
0.0
  0
LINE
  5
8A15
330
1A
100
AcDbEntity
  8
SEIHIN
  6
CONTINUOUS
 62
     3
100
AcDbLine
 10
424.8985497337717
 20
496.8459415378001
 30
0.0
 11
424.8985497337717
 21
348.0661289539002
 31
0.0
  0
LINE
  5
8A1F
330
1A
100
AcDbEntity
  8
CENTER_L1
  6
CENTER
 48
10.0
100
AcDbLine
 10
415.7647213133115
 20
507.9797180639133
 30
0.0000000000000604
 11
559.8667304318788
 21
365.8777662449776
 31
0.0000000000000604
  0
ELLIPSE
  5
8A20
330
1A
100
AcDbEntity
  8
SEIHIN
  6
CONTINUOUS
 62
     3
100
AcDbEllipse
 10
553.4960115784716
 20
372.2484796931001
 30
0.0
 11
9.961898266926679
 21
-9.961898266927276
 31
-0.0000000000000746
210
0.0000000000000041
220
-0.0000000000000034
230
1.0
 40
0.9937357993
 41
2.359336421089798
 42
3.923848886089849
  0
ELLIPSE
  5
8A21
330
1A
100
AcDbEntity
  8
SEIHIN
  6
CONTINUOUS
 62
     3
100
AcDbEllipse
 10
549.1446873787719
 20
350.4356581815001
 30
0.0
 11
0.0
 21
2.0
 31
0.0
210
0.0
220
0.0
230
1.0
 40
0.0795423583
 41
2.567819325037923
 42
3.09795942229002
  0
ELLIPSE
  5
8A22
330
1A
100
AcDbEntity
  8
SEIHIN
  6
CONTINUOUS
 62
     3
100
AcDbEllipse
 10
546.6367911158714
 20
350.4356581815001
 30
0.0
 11
0.0
 21
2.0
 31
0.0
210
0.0
220
0.0
230
1.0
 40
0.0795423583
 41
3.062217415833579
 42
3.097959422289732
  0
ELLIPSE
  5
8A23
330
1A
100
AcDbEntity
  8
SEIHIN
  6
CONTINUOUS
 62
     3
100
AcDbEllipse
 10
547.0660469833716
 20
346.1515454694001
 30
0.0
 11
0.0
 21
2.0
 31
0.0
210
0.0
220
0.0
230
1.0
 40
0.0524077793
 41
5.415113775347816
 42
6.239552075879961
  0
ELLIPSE
  5
8A24
330
1A
100
AcDbEntity
  8
SEIHIN
  6
CONTINUOUS
 62
     3
100
AcDbEllipse
 10
559.9345670873718
 20
358.5661289539002
 30
0.0
 11
16.57286397099783
 21
7.313428265970964
 31
0.0
210
0.0
220
0.0
230
1.0
 40
0.1956507911
 41
2.662537826848985
 42
2.828939849773143
  0
ELLIPSE
  5
8A25
330
1A
100
AcDbEntity
  8
SEIHIN
  6
CONTINUOUS
 62
     3
100
AcDbEllipse
 10
550.9881195894714
 20
358.5661289539002
 30
0.0
 11
8.025254364701227
 21
0.0
 31
-0.0000000000000355
210
0.0000000000000044
220
0.0
230
1.0
 40
0.9968531384
 41
3.141592653589781
 42
3.525648212642283
  0
SPLINE
  5
8A26
330
1A
100
AcDbEntity
  8
SEIHIN
  6
CONTINUOUS
 62
     3
100
AcDbSpline
210
0.0
220
0.0
230
1.0
 70
    12
 71
     3
 72
    11
 73
     7
 74
     0
 42
0.0000000001
 43
0.0000000001
 40
0.0
 40
0.0
 40
0.0
 40
0.0
 40
0.2559707875642854
 40
0.5079606246452025
 40
0.7559701416911837
 40
1.0
 40
1.0
 40
1.0
 40
1.0
 10
540.3484083104213
 20
353.5705632068106
 30
0.0
 41
1.0
 10
540.2402143276755
 20
353.4881549354849
 30
0.0
 41
1.0
 10
540.0255090342263
 20
353.3246200361439
 30
0.0
 41
1.0
 10
539.7170717015188
 20
353.0812126431473
 30
0.0
 41
1.0
 10
539.4210626296918
 20
352.8416319780686
 30
0.0
 41
1.0
 10
539.2331086476953
 20
352.6831752256275
 30
0.0
 41
1.0
 10
539.1398917510551
 20
352.6045876556421
 30
0.0
 41
1.0
  0
ELLIPSE
  5
8A27
330
1A
100
AcDbEntity
  8
SEIHIN
  6
CONTINUOUS
 62
     3
100
AcDbEllipse
 10
555.0007467718716
 20
370.7437444998001
 30
0.0
 11
8.538769943080012
 21
-8.538769943080522
 31
-0.0000000000000604
210
0.0000000000000035
220
-0.0000000000000035
230
1.0
 40
0.9937357993
 41
2.359336421089798
 42
3.923848886089853
  0
SPLINE
  5
8A28
330
1A
100
AcDbEntity
  8
SEIHIN
  6
CONTINUOUS
 62
     3
100
AcDbSpline
210
0.0
220
0.0
230
1.0
 70
    12
 71
     3
 72
    11
 73
     7
 74
     0
 42
0.0000000001
 43
0.0000000001
 40
0.0
 40
0.0
 40
0.0
 40
0.0
 40
0.2559707875642854
 40
0.5079606246452025
 40
0.7559701416911837
 40
1.0
 40
1.0
 40
1.0
 40
1.0
 10
540.3484083104215
 20
188.2046063468648
 30
0.0
 41
1.0
 10
540.2402143276756
 20
186.3171466211678
 30
0.0
 41
1.0
 10
540.0255090342263
 20
182.5715816276746
 30
0.0
 41
1.0
 10
539.717071701519
 20
176.9966357657262
 30
0.0
 41
1.0
 10
539.4210626296919
 20
171.5093363828243
 30
0.0
 41
1.0
 10
539.2331086476954
 20
167.8800800753491
 30
0.0
 41
1.0
 10
539.1398917510553
 20
166.0801287973829
 30
0.0
 41
1.0
  0
ELLIPSE
  5
8A29
330
1A
100
AcDbEntity
  8
SEIHIN
  6
CONTINUOUS
 62
     3
100
AcDbEllipse
 10
559.9345670873719
 20
302.6218730006007
 30
0.0
 11
14.59834537973097
 21
183.2290227977663
 31
0.0
210
0.0
220
0.0
230
1.0
 40
0.0435230256
 41
2.248685594398164
 42
2.415087617322333
  0
ELLIPSE
  5
8A2A
330
1A
100
AcDbEntity
  8
SEIHIN
  6
CONTINUOUS
 62
     3
100
AcDbEllipse
 10
567.1783677503091
 20
365.8099325377484
 30
0.0
 11
-7.313421583311928
 21
-16.57286691998244
 31
0.0
210
0.0
220
0.0
230
-1.0
 40
0.1956507911
 41
2.662537826848985
 42
2.828939849773143
  0
SPLINE
  5
8A2B
330
1A
100
AcDbEntity
  8
SEIHIN
  6
CONTINUOUS
 62
     3
100
AcDbSpline
210
0.0
220
0.0
230
1.0
 70
    12
 71
     3
 72
    11
 73
     7
 74
     0
 42
0.0000000001
 43
0.0000000001
 40
0.0
 40
0.0
 40
0.0
 40
0.0
 40
0.2559707875642854
 40
0.5079606246452025
 40
0.7559701416911837
 40
1.0
 40
1.0
 40
1.0
 40
1.0
 10
572.1739255996923
 20
385.3960933290536
 30
0.0
 41
1.0
 10
572.2563338273909
 20
385.504287345029
 30
0.0
 41
1.0
 10
572.4198686401565
 20
385.7189927044206
 30
0.0
 41
1.0
 10
572.6632759087825
 20
386.0274301352767
 30
0.0
 41
1.0
 10
572.9028564545016
 20
386.3234393037095
 30
0.0
 41
1.0
 10
573.0613131311539
 20
386.5113933496004
 30
0.0
 41
1.0
 10
573.1399006635516
 20
386.6046102779291
 30
0.0
 41
1.0
  0
ELLIPSE
  5
8A2C
330
1A
100
AcDbEntity
  8
SEIHIN
  6
CONTINUOUS
 62
     3
100
AcDbEllipse
 10
567.1783641428429
 20
374.7563800356477
 30
0.0
 11
0.0000032360148447
 21
-8.025254364700575
 31
-0.0000000000000355
210
0.0
220
0.0000000000000044
230
-1.0
 40
0.9968531384
 41
3.141592653589781
 42
3.525648212642283
  0
ELLIPSE
  5
8A2D
330
1A
100
AcDbEntity
  8
SEIHIN
  6
CONTINUOUS
 62
     3
100
AcDbEllipse
 10
579.5929460458483
 20
378.6784576476668
 30
0.0
 11
-1.999999999999837
 21
-0.0000008064578889
 31
0.0
210
0.0
220
0.0
230
-1.0
 40
0.0524077793
 41
5.415113775347816
 42
6.239552075879961
  0
ELLIPSE
  5
8A2E
330
1A
100
AcDbEntity
  8
SEIHIN
  6
CONTINUOUS
 62
     3
100
AcDbEllipse
 10
575.3088331606606
 20
379.1077117876886
 30
0.0
 11
-1.999999999999837
 21
-0.0000008064578889
 31
0.0
210
0.0
220
0.0
230
-1.0
 40
0.0795423583
 41
3.062217415833579
 42
3.097959422289732
  0
ELLIPSE
  5
8A2F
330
1A
100
AcDbEntity
  8
SEIHIN
  6
CONTINUOUS
 62
     3
100
AcDbEllipse
 10
575.3088341719168
 20
376.5998155247888
 30
0.0
 11
-1.999999999999837
 21
-0.0000008064578889
 31
0.0
210
0.0
220
0.0
230
-1.0
 40
0.0795423583
 41
2.567819325037923
 42
3.09795942229002
  0
ELLIPSE
  5
8A30
330
1A
100
AcDbEntity
  8
SEIHIN
  6
CONTINUOUS
 62
     3
100
AcDbEllipse
 10
445.0239329058714
 20
325.0661289539002
 30
0.0
 11
-0.0000000000002228
 21
3.0
 31
0.0
210
0.0
220
0.0
230
1.0
 40
0.0699268118999801
 41
4.712388980384665
 42
6.283185307178522
  0
ELLIPSE
  5
8A31
330
1A
100
AcDbEntity
  8
SEIHIN
  6
CONTINUOUS
 62
     3
100
AcDbEllipse
 10
446.8484858167718
 20
325.0661289539002
 30
0.0
 11
-0.0000000000000607
 21
1.499999999999943
 31
0.0
210
0.0
220
0.0
230
1.0
 40
0.0174550648998781
 41
-0.0000000000023186
 42
1.570796326794933
  0
ELLIPSE
  5
8A32
330
1A
100
AcDbEntity
  8
SEIHIN
  6
CONTINUOUS
 62
     3
100
AcDbEllipse
 10
441.3434144550716
 20
334.2723258440001
 30
0.0
 11
-1.500000000000039
 21
0.0000000000000967
 31
0.0
210
0.0
220
0.0
230
1.0
 40
0.1763269807000364
 41
3.150319299850021
 42
4.138037851362206
  0
ELLIPSE
  5
8A33
330
1A
100
AcDbEntity
  8
SEIHIN
  6
CONTINUOUS
 62
     3
100
AcDbEllipse
 10
445.9884309574719
 20
332.8898019732001
 30
0.0
 11
0.9999999999868396
 21
0.0000000000004837
 31
0.0
210
0.0
220
0.0
230
1.0
 40
0.1763269807023177
 41
1.350511393221971
 42
1.570796326794811
  0
ELLIPSE
  5
8A34
330
1A
100
AcDbEntity
  8
SEIHIN
  6
CONTINUOUS
 62
     3
100
AcDbEllipse
 10
446.4254463177718
 20
333.2339341323001
 30
0.0
 11
-1.00000000000018
 21
0.0000000000000609
 31
0.0
210
0.0
220
0.0
230
1.0
 40
0.17632698069998
 41
0.0087266462605324
 42
1.350511393225054
  0
ELLIPSE
  5
8A35
330
1A
100
AcDbEntity
  8
SEIHIN
  6
CONTINUOUS
 62
     3
100
AcDbEllipse
 10
441.3739069199715
 20
334.2714444269001
 30
0.0
 11
3.999999999999784
 21
0.0000000000002498
 31
0.0
210
0.0
220
0.0
230
1.0
 40
0.1763269806999149
 41
0.0087266462596578
 42
0.3215938168198242
  0
LINE
  5
8A38
330
1A
100
AcDbEntity
  8
SEIHIN
  6
CONTINUOUS
 62
     3
100
AcDbLine
 10
632.6783623176718
 20
185.5828451036007
 30
0.0
 11
632.6783623176718
 21
209.4843821007007
 31
0.0
  0
ARC
  5
8A39
330
1A
100
AcDbEntity
  8
SEIHIN
  6
CONTINUOUS
 62
     3
100
AcDbCircle
 10
574.6783623176717
 20
196.5673457243007
 30
0.0
 40
0.5
100
AcDbArc
 50
270.0
 51
0.0
  0
LINE
  5
8A3A
330
1A
100
AcDbEntity
  8
SEIHIN
  6
CONTINUOUS
 62
     3
100
AcDbLine
 10
575.1783623176718
 20
199.9756558975008
 30
0.0
 11
575.1783623176718
 21
185.5828451036007
 31
0.0
  0
ARC
  5
8A3B
330
1A
100
AcDbEntity
  8
SEIHIN
  6
CONTINUOUS
 62
     3
100
AcDbCircle
 10
445.6446612118718
 20
195.4582034911007
 30
0.0
 40
1.0
100
AcDbArc
 50
0.5000000000013455
 51
90.0
  0
ARC
  5
8A3C
330
1A
100
AcDbEntity
  8
SEIHIN
  6
CONTINUOUS
 62
     3
100
AcDbCircle
 10
436.2337133416715
 20
198.4582034911007
 30
0.0
 40
2.000000000000027
100
AcDbArc
 50
180.0
 51
270.0
  0
LINE
  5
8A3D
330
1A
100
AcDbEntity
  8
SEIHIN
  6
CONTINUOUS
 62
     3
100
AcDbLine
 10
427.0783623175718
 20
207.5673457243007
 30
0.0
 11
432.0783623175718
 21
193.5673457243007
 31
0.0
  0
LINE
  5
8A3E
330
1A
100
AcDbEntity
  8
SEIHIN
  6
CONTINUOUS
 62
     3
100
AcDbLine
 10
449.2395060995716
 20
185.5828451036007
 30
0.0
 11
448.8223032193721
 21
209.4843821007007
 31
0.0
  0
LINE
  5
8A40
330
1A
100
AcDbEntity
  8
SEIHIN
  6
CONTINUOUS
 62
     3
100
AcDbLine
 10
324.3041440119968
 20
174.5873382084007
 30
0.0
 11
324.304144011997
 21
210.9582034911008
 31
0.0
  0
LINE
  5
8A41
330
1A
100
AcDbEntity
  8
SEIHIN
  6
CONTINUOUS
 62
     3
100
AcDbLine
 10
269.3041440119968
 20
102.9984094454007
 30
0.0
 11
269.3041440119968
 21
214.0582034911007
 31
0.0
  0
LINE
  5
8A42
330
1A
100
AcDbEntity
  8
SEIHIN
  6
CONTINUOUS
 62
     3
100
AcDbLine
 10
118.7041440118969
 20
207.5673457243007
 30
0.0
 11
123.7041440118969
 21
193.5673457243007
 31
0.0
  0
LINE
  5
8A47
330
1A
100
AcDbEntity
  8
SEIHIN
  6
CONTINUOUS
 62
     3
100
AcDbLine
 10
574.6783623176717
 20
196.0673457243007
 30
0.0
 11
449.0564984604718
 21
196.0673457243007
 31
0.0
  0
LINE
  5
8A48
330
1A
100
AcDbEntity
  8
SEIHIN
  6
CONTINUOUS
 62
     3
100
AcDbLine
 10
449.2359005738719
 20
185.7894055323007
 30
0.0
 11
539.1076534663718
 21
185.7894055323007
 31
0.0
  0
LINE
  5
8A49
330
1A
100
AcDbEntity
  8
SEIHIN
  6
CONTINUOUS
 62
     3
100
AcDbLine
 10
449.116524972572
 20
192.6284291468007
 30
0.0
 11
574.6783623176717
 21
192.6284291468007
 31
0.0
  0
ARC
  5
8A4A
330
1A
100
AcDbEntity
  8
SEIHIN
  6
CONTINUOUS
 62
     3
100
AcDbCircle
 10
512.0377526632717
 20
1102.5673533439
 30
0.0
 40
998.3999999780499
100
AcDbArc
 50
268.2300171310208
 51
271.7205692246153
  0
ARC
  5
8A4B
330
1A
100
AcDbEntity
  8
SEIHIN
  6
CONTINUOUS
 62
     3
100
AcDbCircle
 10
512.3575254810718
 20
1102.5965048546
 30
0.0
 40
995.9195441161172
100
AcDbArc
 50
268.2507563214957
 51
271.6505075462032
  0
ARC
  5
8A4C
330
1A
100
AcDbEntity
  8
SEIHIN
  6
CONTINUOUS
 62
     3
100
AcDbCircle
 10
512.0783623176719
 20
1102.567345702401
 30
0.0
 40
999.999999978082
100
AcDbArc
 50
268.1300946704944
 51
271.6823795045955
  0
LINE
  5
8A4D
330
1A
100
AcDbEntity
  8
SEIHIN
  6
CONTINUOUS
 62
     3
100
AcDbLine
 10
533.6428207676719
 20
117.0673457243007
 30
0.0
 11
477.8605182016719
 21
117.0673457243007
 31
0.0
  0
LINE
  5
8A4F
330
1A
100
AcDbEntity
  8
SEIHIN
  6
CONTINUOUS
 62
     3
100
AcDbLine
 10
203.7041440119969
 20
102.5673457243007
 30
0.0
 11
269.3041440119968
 21
102.5673457243007
 31
0.0
  0
LINE
  5
8A50
330
1A
100
AcDbEntity
  8
SEIHIN
  6
CONTINUOUS
 62
     3
100
AcDbLine
 10
159.9034685741967
 20
114.5673457243007
 30
0.0
 11
269.3041440119968
 21
114.5673457243007
 31
0.0
  0
LINE
  5
8A51
330
1A
100
AcDbEntity
  8
SEIHIN
  6
CONTINUOUS
 62
     3
100
AcDbLine
 10
123.7041440118969
 20
193.5673457243007
 30
0.0
 11
269.3041440119968
 21
193.5673457243007
 31
0.0
  0
LINE
  5
8A52
330
1A
100
AcDbEntity
  8
SEIHIN
  6
CONTINUOUS
 62
     3
100
AcDbLine
 10
136.192506350482
 20
185.7894055323007
 30
0.0
 11
269.3041440119968
 21
185.7894055323007
 31
0.0
  0
ARC
  5
8A53
330
1A
100
AcDbEntity
  8
SEIHIN
  6
CONTINUOUS
 62
     3
100
AcDbCircle
 10
1098.370583948296
 20
458.0297135917008
 30
0.0
 40
1000.000000021989
100
AcDbArc
 50
195.8108447711013
 51
200.0478728187975
  0
ARC
  5
8A54
330
1A
100
AcDbEntity
  8
SEIHIN
  6
CONTINUOUS
 62
     3
100
AcDbCircle
 10
203.7041440119969
 20
1102.567345702401
 30
0.0
 40
999.999999978082
100
AcDbArc
 50
268.1300946704944
 51
270.0
  0
LINE
  5
8A55
330
1A
100
AcDbEntity
  8
SEIHIN
  6
CONTINUOUS
 62
     3
100
AcDbLine
 10
165.9385988395968
 20
113.8978697605007
 30
0.0
 11
169.2515977613968
 21
104.4377397717007
 31
0.0
  0
ARC
  5
8A56
330
1A
100
AcDbEntity
  8
SEIHIN
  6
CONTINUOUS
 62
     3
100
AcDbCircle
 10
171.1391929102969
 20
105.0987878440007
 30
0.0
 40
1.999999999999936
100
AcDbArc
 50
199.3005854307965
 51
268.1300946704944
  0
ARC
  5
8A57
330
1A
100
AcDbEntity
  8
SEIHIN
  6
CONTINUOUS
 62
     3
100
AcDbCircle
 10
164.9948012650968
 20
113.5673457243007
 30
0.0
 40
0.9999999999999912
100
AcDbArc
 50
19.30058543079653
 51
90.0
  0
ARC
  5
8A58
330
1A
100
AcDbEntity
  8
SEIHIN
  6
CONTINUOUS
 62
     3
100
AcDbCircle
 10
159.9034685741967
 20
115.5673457243007
 30
0.0
 40
1.000000000000194
100
AcDbArc
 50
200.0478728187975
 51
270.0
  0
ARC
  5
8A59
330
1A
100
AcDbEntity
  8
SEIHIN
  6
CONTINUOUS
 62
     3
100
AcDbCircle
 10
134.8359172108966
 20
192.5673457243007
 30
0.0
 40
1.0
100
AcDbArc
 50
2.999999999998919
 51
90.0
  0
LINE
  5
8A5A
330
1A
100
AcDbEntity
  8
SEIHIN
  6
CONTINUOUS
 62
     3
100
AcDbLine
 10
135.8345467456967
 20
192.6196816805007
 30
0.0
 11
136.2041440118969
 21
185.5673457241007
 31
0.0
  0
ARC
  5
8A5D
330
1A
100
AcDbEntity
  8
SEIHIN
  6
CONTINUOUS
 62
     3
100
AcDbCircle
 10
1407.820973700872
 20
455.653909853305
 30
0.0
 40
995.9000000219289
100
AcDbArc
 50
195.7346692902986
 51
198.8757164402008
  0
ARC
  5
8A5E
330
1A
100
AcDbEntity
  8
SEIHIN
  6
CONTINUOUS
 62
     3
100
AcDbCircle
 10
1407.820973700872
 20
455.6539098533086
 30
0.0
 40
998.40000002193
100
AcDbArc
 50
195.7136050798006
 51
198.9673679039051
  0
ARC
  5
8A5F
330
1A
100
AcDbEntity
  8
SEIHIN
  6
CONTINUOUS
 62
     3
100
AcDbCircle
 10
1406.744802253973
 20
458.0297135917032
 30
0.0
 40
1000.000000021991
100
AcDbArc
 50
195.8108447711013
 51
200.0478728187975
  0
LINE
  5
8A60
330
1A
100
AcDbEntity
  8
SEIHIN
  6
CONTINUOUS
 62
     3
100
AcDbLine
 10
324.3041440119968
 20
104.1673533659008
 30
0.0
 11
324.3041440119968
 21
172.5936353296007
 31
0.0
  0
LINE
  5
8A61
330
1A
100
AcDbEntity
  8
SEIHIN
  6
CONTINUOUS
 62
     3
100
AcDbLine
 10
269.3041440119968
 20
104.1673533659007
 30
0.0
 11
324.3041440119968
 21
104.1673533659007
 31
0.0
  0
LINE
  5
8A62
330
1A
100
AcDbEntity
  8
SEIHIN
  6
CONTINUOUS
 62
     3
100
AcDbLine
 10
269.3041440119968
 20
102.5673457243007
 30
0.0
 11
269.3041440119968
 21
102.9984094454007
 31
0.0
  0
LINE
  5
8A63
330
1A
100
AcDbEntity
  8
SEIHIN
  6
CONTINUOUS
 62
     3
100
AcDbLine
 10
324.3041440119966
 20
128.9882034910944
 30
0.0
 11
269.3041440119971
 21
128.9882034910944
 31
0.0
  0
LINE
  5
8A64
330
1A
100
AcDbEntity
  8
SEIHIN
  6
CONTINUOUS
 62
     3
100
AcDbLine
 10
324.3041440119968
 20
130.6164873092008
 30
0.0
 11
269.3041440119968
 21
130.6164873092008
 31
0.0
  0
LINE
  5
8A68
330
1A
100
AcDbEntity
  8
SEIHIN
  6
CONTINUOUS
 62
     3
100
AcDbLine
 10
473.5580655678716
 20
128.6336801648007
 30
0.0
 11
475.4704097581718
 21
116.1600305803007
 31
0.0
  0
LINE
  5
8A69
330
1A
100
AcDbEntity
  8
SEIHIN
  6
CONTINUOUS
 62
     3
100
AcDbLine
 10
477.9064446659715
 20
116.7677811240007
 30
0.0
 11
476.0291933253718
 21
129.0125305388007
 31
0.0
  0
ARC
  5
8A6C
330
1A
100
AcDbEntity
  8
SEIHIN
  6
CONTINUOUS
 62
     3
100
AcDbCircle
 10
481.9872889548717
 20
108.1405993477007
 30
0.0
 40
1.000000000000025
100
AcDbArc
 50
199.300585430901
 51
268.2507563214957
  0
LINE
  5
8A6D
330
1A
100
AcDbEntity
  8
SEIHIN
  6
CONTINUOUS
 62
     3
100
AcDbLine
 10
474.312817145272
 20
113.8978697605007
 30
0.0
 11
477.6258160670716
 21
104.4377397717007
 31
0.0
  0
LINE
  5
8A6E
330
1A
100
AcDbEntity
  8
SEIHIN
  6
CONTINUOUS
 62
     3
100
AcDbLine
 10
475.4704097581718
 20
116.1600305803007
 30
0.0
 11
478.9177803664744
 21
106.3162078553935
 31
0.0
  0
ARC
  5
8A71
330
1A
100
AcDbEntity
  8
SEIHIN
  6
CONTINUOUS
 62
     3
100
AcDbCircle
 10
479.5134112159719
 20
105.0987878440007
 30
0.0
 40
1.999999999999936
100
AcDbArc
 50
199.3005854307965
 51
268.1300946704944
  0
ARC
  5
8A72
330
1A
100
AcDbEntity
  8
SEIHIN
  6
CONTINUOUS
 62
     3
100
AcDbCircle
 10
481.2772743025719
 20
107.1425179458007
 30
0.0
 40
2.499999999999938
100
AcDbArc
 50
199.3005854307965
 51
268.2300171310078
  0
LINE
  5
8A75
330
1A
100
AcDbEntity
  8
SEIHIN
  6
CONTINUOUS
 62
     3
100
AcDbLine
 10
468.2776868798717
 20
114.5673457243007
 30
0.0
 11
473.3690195707715
 21
114.5673457243007
 31
0.0
  0
ARC
  5
8A78
330
1A
100
AcDbEntity
  8
SEIHIN
  6
CONTINUOUS
 62
     3
100
AcDbCircle
 10
468.2776868798717
 20
115.5673457243007
 30
0.0
 40
1.000000000000194
100
AcDbArc
 50
200.0478728187975
 51
270.0
  0
ARC
  5
8A7B
330
1A
100
AcDbEntity
  8
SEIHIN
  6
CONTINUOUS
 62
     3
100
AcDbCircle
 10
473.3690195707715
 20
113.5673457243007
 30
0.0
 40
0.9999999999999912
100
AcDbArc
 50
19.30058543079653
 51
90.0
  0
LINE
  5
8A7C
330
1A
100
AcDbEntity
  8
SEIHIN
  6
CONTINUOUS
 62
     3
100
AcDbLine
 10
481.0434913803717
 20
107.8100753116007
 30
0.0
 11
477.9064446659715
 21
116.7677811240007
 31
0.0
  0
ARC
  5
8A7D
330
1A
100
AcDbEntity
  8
SEIHIN
  6
CONTINUOUS
 62
     3
100
AcDbCircle
 10
466.4241495860717
 20
133.7874319619007
 30
0.0
 40
0.9999999999999964
100
AcDbArc
 50
198.8757164402008
 51
260.0222873799003
  0
LINE
  5
8A80
330
1A
100
AcDbEntity
  8
SEIHIN
  6
CONTINUOUS
 62
     3
100
AcDbLine
 10
464.2482053229716
 20
130.6164873092008
 30
0.0
 11
473.1504725593715
 21
129.0503477028007
 31
0.0
  0
LINE
  5
8A81
330
1A
100
AcDbEntity
  8
SEIHIN
  6
CONTINUOUS
 62
     3
100
AcDbLine
 10
473.5836352742719
 20
131.5125357667008
 30
0.0
 11
466.2508845000718
 21
132.8025567363007
 31
0.0
  0
ARC
  5
8A85
330
1A
100
AcDbEntity
  8
SEIHIN
  6
CONTINUOUS
 62
     3
100
AcDbCircle
 10
464.3868173916719
 20
131.4043874897007
 30
0.0
 40
0.8000000000000497
100
AcDbArc
 50
198.9673679039006
 51
260.0222873799003
  0
ARC
  5
8A88
330
1A
100
AcDbEntity
  8
SEIHIN
  6
CONTINUOUS
 62
     3
100
AcDbCircle
 10
473.0638400163718
 20
128.5579100900007
 30
0.0
 40
3.0
100
AcDbArc
 50
8.716191035798726
 51
80.02228737979462
  0
ARC
  5
8A89
330
1A
100
AcDbEntity
  8
SEIHIN
  6
CONTINUOUS
 62
     3
100
AcDbCircle
 10
473.0638400163718
 20
128.5579100900007
 30
0.0
 40
0.4999999999999937
100
AcDbArc
 50
8.716191035798726
 51
80.02228737979462
  0
LINE
  5
8A8A
330
1A
100
AcDbEntity
  8
SEIHIN
  6
CONTINUOUS
 62
     3
100
AcDbLine
 10
324.3041440119968
 20
185.5828451036007
 30
0.0
 11
269.3041440119968
 21
185.5828451036007
 31
0.0
  0
LINE
  5
8A8B
330
1A
100
AcDbEntity
  8
SEIHIN
  6
CONTINUOUS
 62
     3
100
AcDbLine
 10
269.3041440119968
 20
195.0577518765282
 30
0.0
 11
324.3041440119968
 21
195.0577518765283
 31
0.0
  0
LINE
  5
8A8C
330
1A
100
AcDbEntity
  8
SEIHIN
  6
CONTINUOUS
 62
     3
100
AcDbLine
 10
324.3041440119968
 20
174.5873382084007
 30
0.0
 11
324.3041440119968
 21
174.4265851844007
 31
0.0
  0
LINE
  5
8A8D
330
1A
100
AcDbEntity
  8
SEIHIN
  6
CONTINUOUS
 62
     3
100
AcDbLine
 10
324.3041440119968
 20
174.4265851844007
 30
0.0
 11
324.3041440119968
 21
172.5936353296007
 31
0.0
  0
LINE
  5
8A90
330
1A
100
AcDbEntity
  8
SEIHIN
  6
CONTINUOUS
 62
     3
100
AcDbLine
 10
432.0783623175718
 20
193.5673457243007
 30
0.0
 11
443.2101355165716
 21
193.5673457243007
 31
0.0
  0
ARC
  5
8A97
330
1A
100
AcDbEntity
  8
SEIHIN
  6
CONTINUOUS
 62
     3
100
AcDbCircle
 10
443.2101355165716
 20
192.5673457243007
 30
0.0
 40
1.0
100
AcDbArc
 50
2.999999999998919
 51
90.0
  0
LINE
  5
8A98
330
1A
100
AcDbEntity
  8
SEIHIN
  6
CONTINUOUS
 62
     3
100
AcDbLine
 10
446.644623134872
 20
195.4669300266007
 30
0.0
 11
446.7337133416715
 21
185.2582034911007
 31
0.0
  0
LINE
  5
8A99
330
1A
100
AcDbEntity
  8
SEIHIN
  6
CONTINUOUS
 62
     3
100
AcDbLine
 10
444.2087650513715
 20
192.6196816805007
 30
0.0
 11
444.5783623175718
 21
185.5673457241007
 31
0.0
  0
LWPOLYLINE
  5
8A9C
330
1A
100
AcDbEntity
  8
SEIHIN
  6
CONTINUOUS
 62
     3
100
AcDbPolyline
 90
        4
 70
   128
 43
0.0
 10
576.988550645072
 20
165.0817576350007
 10
576.9885467595716
 20
164.1673675721007
 10
576.9884620314717
 20
144.2303387834007
 10
576.9883102520719
 20
108.5271899045007
  0
LINE
  5
8A9D
330
1A
100
AcDbEntity
  8
SEIHIN
  6
CONTINUOUS
 62
     3
100
AcDbLine
 10
632.6783623176718
 20
106.9181295716007
 30
0.0
 11
632.6783623176718
 21
172.5936353296007
 31
0.0
  0
LWPOLYLINE
  5
8A9E
330
1A
100
AcDbEntity
  8
SEIHIN
  6
CONTINUOUS
 62
     3
100
AcDbPolyline
 90
        5
 70
   128
 43
0.0
 10
575.0263206651718
 20
108.6550113595007
 10
575.0263342284718
 20
112.6424184766007
 10
575.0263884755716
 20
128.5920469449007
 10
575.0265094365715
 20
164.1673675721007
 10
575.0265094471717
 20
164.1704775292007
  0
LINE
  5
8A9F
330
1A
100
AcDbEntity
  8
SEIHIN
  6
CONTINUOUS
 62
     3
100
AcDbLine
 10
546.9088236454719
 20
169.5873382084007
 30
0.0
 11
542.0108525768717
 21
108.0104479220007
 31
0.0
  0
LINE
  5
8AA0
330
1A
100
AcDbEntity
  8
SEIHIN
  6
CONTINUOUS
 62
     3
100
AcDbLine
 10
544.431863262672
 20
106.9181295716007
 30
0.0
 11
549.6558478710719
 21
172.5936353296007
 31
0.0
  0
LINE
  5
8AA1
330
1A
100
AcDbEntity
  8
SEIHIN
  6
CONTINUOUS
 62
     3
100
AcDbLine
 10
567.1783623176718
 20
109.1661262821007
 30
0.0
 11
567.1783623176718
 21
190.1173675721007
 31
0.0
  0
LINE
  5
8AA2
330
1A
100
AcDbEntity
  8
SEIHIN
  6
CONTINUOUS
 62
     3
100
AcDbLine
 10
533.1927368799718
 20
111.4073935255007
 30
0.0
 11
539.4518164401717
 21
190.1173675721007
 31
0.0
  0
LINE
  5
8AA5
330
1A
100
AcDbEntity
  8
SEIHIN
  6
CONTINUOUS
 62
     3
100
AcDbLine
 10
577.6783623176718
 20
104.1673533659007
 30
0.0
 11
632.6783623176718
 21
104.1673533659007
 31
0.0
  0
LINE
  5
8AA6
330
1A
100
AcDbEntity
  8
SEIHIN
  6
CONTINUOUS
 62
     3
100
AcDbLine
 10
512.0783623176719
 20
102.5673457243007
 30
0.0
 11
577.6783623176718
 21
102.5673457243007
 31
0.0
  0
LINE
  5
8AA7
330
1A
100
AcDbEntity
  8
CENTER_L1
  6
CENTER
 48
10.0
100
AcDbLine
 10
510.4418915096455
 20
109.2175417209248
 30
0.0
 11
510.4418915096455
 21
94.95952008666296
 31
0.0
  0
ARC
  5
8AA8
330
1A
100
AcDbEntity
  8
SEIHIN
  6
CONTINUOUS
 62
     3
100
AcDbCircle
 10
541.0140011374717
 20
108.0897398363007
 30
0.0
 40
0.9999999999999948
100
AcDbArc
 50
271.6505075462032
 51
355.4521338787007
  0
LINE
  5
8AA9
330
1A
100
AcDbEntity
  8
CENTER_L1
  6
CENTER
 48
10.0
100
AcDbLine
 10
510.4418915096455
 20
97.09366441262842
 30
0.0
 11
510.4418915096455
 21
108.0437050745077
 31
0.0
  0
ARC
  5
8AAA
330
1A
100
AcDbEntity
  8
SEIHIN
  6
CONTINUOUS
 62
     3
100
AcDbCircle
 10
528.2084711878717
 20
111.8037462863007
 30
0.0
 40
5.000000000000127
100
AcDbArc
 50
270.9165537517971
 51
355.4533617064006
  0
ARC
  5
8AAD
330
1A
100
AcDbEntity
  8
SEIHIN
  6
CONTINUOUS
 62
     3
100
AcDbCircle
 10
541.9397346640719
 20
107.1163593574007
 30
0.0
 40
2.5
100
AcDbArc
 50
271.7205692246023
 51
355.4521338790994
  0
LINE
  5
8AAE
330
1A
100
AcDbEntity
  8
SEIHIN
  6
CONTINUOUS
 62
     3
100
AcDbLine
 10
544.3396824937719
 20
105.7592405112007
 30
0.0
 11
544.431863262672
 21
106.9181295716007
 31
0.0
  0
ARC
  5
8AAF
330
1A
100
AcDbEntity
  8
SEIHIN
  6
CONTINUOUS
 62
     3
100
AcDbCircle
 10
541.3491281754716
 20
105.9971162542007
 30
0.0
 40
3.00000000000002
100
AcDbArc
 50
271.6823795045955
 51
355.4521338790994
  0
LINE
  5
8AB0
330
1A
100
AcDbEntity
  8
SEIHIN
  6
CONTINUOUS
 62
     3
100
AcDbLine
 10
576.9883102520719
 20
108.5271899045007
 30
0.0
 11
577.041552666072
 21
105.7592405112007
 31
0.0
  0
LINE
  5
8AB1
330
1A
100
AcDbEntity
  8
SEIHIN
  6
CONTINUOUS
 62
     3
100
AcDbLine
 10
575.0689145963717
 20
105.8239102528007
 30
0.0
 11
575.0263206651718
 21
108.6550113595007
 31
0.0
  0
LINE
  5
8AB2
330
1A
100
AcDbEntity
  8
SEIHIN
  6
CONTINUOUS
 62
     3
100
AcDbLine
 10
567.1783623176718
 20
102.7221034514007
 30
0.0
 11
567.1783623176718
 21
109.1661262821007
 31
0.0
  0
LINE
  5
8AB3
330
1A
100
AcDbEntity
  8
SEIHIN
  6
CONTINUOUS
 62
     3
100
AcDbLine
 10
577.6783623176718
 20
102.9984094454007
 30
0.0
 11
577.6783623176718
 21
104.1673533659007
 31
0.0
  0
LINE
  5
8AB4
330
1A
100
AcDbEntity
  8
SEIHIN
  6
CONTINUOUS
 62
     3
100
AcDbLine
 10
577.6783623176718
 20
102.5673457243007
 30
0.0
 11
577.6783623176718
 21
102.9984094454007
 31
0.0
  0
ARC
  5
8AB5
330
1A
100
AcDbEntity
  8
SEIHIN
  6
CONTINUOUS
 62
     3
100
AcDbCircle
 10
576.9532674478717
 20
104.9863667205007
 30
0.0
 40
1.988245797393033
100
AcDbArc
 50
184.5143486260002
 51
269.0238928471
  0
ARC
  5
8AB6
330
1A
100
AcDbEntity
  8
SEIHIN
  6
CONTINUOUS
 62
     3
100
AcDbCircle
 10
572.4939703704714
 20
105.5752340960007
 30
0.0
 40
2.586924350889789
100
AcDbArc
 50
343.2542146930019
 51
5.516253121399267
  0
LINE
  5
8AB7
330
1A
100
AcDbEntity
  8
SEIHIN
  6
CONTINUOUS
 62
     3
100
AcDbLine
 10
632.6783623176718
 20
104.6174864936007
 30
0.0
 11
632.6783623176718
 21
106.9181295716007
 31
0.0
  0
LINE
  5
8AB8
330
1A
100
AcDbEntity
  8
SEIHIN
  6
CONTINUOUS
 62
     3
100
AcDbLine
 10
632.6783623176718
 20
104.1673533659007
 30
0.0
 11
632.6783623176718
 21
104.6174864936007
 31
0.0
  0
LINE
  5
8AB9
330
1A
100
AcDbEntity
  8
SEIHIN
  6
CONTINUOUS
 62
     3
100
AcDbLine
 10
579.5929458021716
 20
174.5873382084007
 30
0.0
 11
632.6783623176718
 21
174.5873382084007
 31
0.0
  0
LINE
  5
8ABA
330
1A
100
AcDbEntity
  8
SEIHIN
  6
CONTINUOUS
 62
     3
100
AcDbLine
 10
632.6783623176718
 20
185.5828451036007
 30
0.0
 11
575.1783623176718
 21
185.5828451036007
 31
0.0
  0
LINE
  5
8ABB
330
1A
100
AcDbEntity
  8
SEIHIN
  6
CONTINUOUS
 62
     3
100
AcDbLine
 10
577.5913153700719
 20
172.5936353296007
 30
0.0
 11
577.3069295332718
 21
166.0801287974007
 31
0.0
  0
LINE
  5
8ABC
330
1A
100
AcDbEntity
  8
SEIHIN
  6
CONTINUOUS
 62
     3
100
AcDbLine
 10
574.6783623176717
 20
185.7894055323007
 30
0.0
 11
574.6783623176717
 21
164.2064188220007
 31
0.0
  0
LINE
  5
8ABD
330
1A
100
AcDbEntity
  8
SEIHIN
  6
CONTINUOUS
 62
     3
100
AcDbLine
 10
572.1739280647718
 20
188.2046063469007
 30
0.0
 11
573.1399036159721
 21
166.0801287974007
 31
0.0
  0
LINE
  5
8ABE
330
1A
100
AcDbEntity
  8
SEIHIN
  6
CONTINUOUS
 62
     3
100
AcDbLine
 10
547.1460300578717
 20
174.1135061866007
 30
0.0
 11
546.9088236454719
 21
169.5873382084007
 31
0.0
  0
ARC
  5
8ABF
330
1A
100
AcDbEntity
  8
SEIHIN
  6
CONTINUOUS
 62
     3
100
AcDbCircle
 10
545.4445936861718
 20
166.0795283182008
 30
0.0
 40
1.719569189430193
100
AcDbArc
 50
179.9799921269003
 51
269.4788830953022
  0
ARC
  5
8AC0
330
1A
100
AcDbEntity
  8
SEIHIN
  6
CONTINUOUS
 62
     3
100
AcDbCircle
 10
544.630474105272
 20
166.1673675721007
 30
0.0
 40
1.999999999999773
100
AcDbArc
 50
270.0
 51
355.4521338787007
  0
LINE
  5
8AC1
330
1A
100
AcDbEntity
  8
SEIHIN
  6
CONTINUOUS
 62
     3
100
AcDbLine
 10
540.6895973954717
 20
164.1673675721007
 30
0.0
 11
544.3801372169716
 21
164.1673675721007
 31
0.0
  0
LINE
  5
8AC2
330
1A
100
AcDbEntity
  8
SEIHIN
  6
CONTINUOUS
 62
     3
100
AcDbLine
 10
544.3801372169716
 20
164.1673675721007
 30
0.0
 11
544.630474105272
 21
164.1673675721007
 31
0.0
  0
LINE
  5
8AC3
330
1A
100
AcDbEntity
  8
SEIHIN
  6
CONTINUOUS
 62
     3
100
AcDbLine
 10
539.1398917510716
 20
166.0801287974007
 30
0.0
 11
543.7250246015716
 21
166.0801287974007
 31
0.0
  0
ARC
  5
8AC4
330
1A
100
AcDbEntity
  8
SEIHIN
  6
CONTINUOUS
 62
     3
100
AcDbCircle
 10
540.7349355317717
 20
165.7882593058008
 30
0.0
 40
1.621525688596356
100
AcDbArc
 50
169.6304284962993
 51
268.3977913721913
  0
ARC
  5
8AC5
330
1A
100
AcDbEntity
  8
SEIHIN
  6
CONTINUOUS
 62
     3
100
AcDbCircle
 10
575.1380000590718
 20
166.1673675721007
 30
0.0
 40
2.0
100
AcDbArc
 50
182.4999999999984
 51
266.8043726913047
  0
LINE
  5
8AC6
330
1A
100
AcDbEntity
  8
SEIHIN
  6
CONTINUOUS
 62
     3
100
AcDbLine
 10
575.1380000590718
 20
164.1673675721007
 30
0.0
 11
575.0265094471717
 21
164.1704775292007
 31
0.0
  0
LINE
  5
8AC7
330
1A
100
AcDbEntity
  8
SEIHIN
  6
CONTINUOUS
 62
     3
100
AcDbLine
 10
575.1380000590718
 20
164.1673675721007
 30
0.0
 11
575.3088330900721
 21
164.1673675721007
 31
0.0
  0
ARC
  5
8AC8
330
1A
100
AcDbEntity
  8
SEIHIN
  6
CONTINUOUS
 62
     3
100
AcDbCircle
 10
575.3088330900721
 20
166.1673675721007
 30
0.0
 40
2.000000000001449
100
AcDbArc
 50
270.0
 51
327.1252098768021
  0
ARC
  5
8AC9
330
1A
100
AcDbEntity
  8
SEIHIN
  6
CONTINUOUS
 62
     3
100
AcDbCircle
 10
575.3088330900721
 20
166.1673675721007
 30
0.0
 40
2.000000000000289
100
AcDbArc
 50
327.1252098768021
 51
357.499999999998
  0
LINE
  5
8ACA
330
1A
100
AcDbEntity
  8
SEIHIN
  6
CONTINUOUS
 62
     3
100
AcDbLine
 10
554.9251028856717
 20
190.1173675721007
 30
0.0
 11
567.1783623176718
 21
190.1173675721007
 31
0.0
  0
LINE
  5
8AD6
330
1A
100
AcDbEntity
  8
SEIHIN
  6
CONTINUOUS
 62
     3
100
AcDbLine
 10
547.8144316997716
 20
174.5873382084007
 30
0.0
 11
547.6453448252716
 21
174.5873382084007
 31
0.0
  0
ARC
  5
8AD7
330
1A
100
AcDbEntity
  8
SEIHIN
  6
CONTINUOUS
 62
     3
100
AcDbCircle
 10
547.6453448252716
 20
174.0873382084007
 30
0.0
 40
0.500000000000134
100
AcDbArc
 50
90.0
 51
177.000000000001
  0
LINE
  5
8AD8
330
1A
100
AcDbEntity
  8
SEIHIN
  6
CONTINUOUS
 62
     3
100
AcDbLine
 10
549.6558478710719
 20
172.5936353296007
 30
0.0
 11
547.8144316997716
 21
174.5873382084007
 31
0.0
  0
LINE
  5
8ADF
330
1A
100
AcDbEntity
  8
SEIHIN
  6
CONTINUOUS
 62
     3
100
AcDbLine
 10
539.7583906876718
 20
190.1173675721007
 30
0.0
 11
543.5474832350717
 21
190.1173675721007
 31
0.0
  0
LINE
  5
8AE0
330
1A
100
AcDbEntity
  8
SEIHIN
  6
CONTINUOUS
 62
     3
100
AcDbLine
 10
544.5677442583717
 20
188.2046063469007
 30
0.0
 11
540.3484083103719
 21
188.2046063469007
 31
0.0
  0
LINE
  5
8AE1
330
1A
100
AcDbEntity
  8
SEIHIN
  6
CONTINUOUS
 62
     3
100
AcDbLine
 10
539.4518164401717
 20
190.1173675721007
 30
0.0
 11
539.7583906876718
 21
190.1173675721007
 31
0.0
  0
LWPOLYLINE
  5
8AE2
330
1A
100
AcDbEntity
  8
SEIHIN
  6
CONTINUOUS
 62
     3
100
AcDbPolyline
 90
        6
 70
   128
 43
0.0
 10
540.3484100821717
 20
188.2046062447007
 10
540.3367970592719
 20
188.8101636405007
 10
540.2425349409716
 20
189.3431807404007
 10
540.088715200972
 20
189.7705213414008
 10
539.8989499218717
 20
190.0495843456008
 10
539.7583906876718
 20
190.1173675721007
  0
ARC
  5
8AE3
330
1A
100
AcDbEntity
  8
SEIHIN
  6
CONTINUOUS
 62
     3
100
AcDbCircle
 10
542.7318447460718
 20
188.4538258045007
 30
0.0
 40
1.85273780049655
100
AcDbArc
 50
352.2694732900988
 51
63.88117690380713
  0
LINE
  5
8AE4
330
1A
100
AcDbEntity
  8
SEIHIN
  6
CONTINUOUS
 62
     3
100
AcDbLine
 10
542.9628652247718
 20
190.1173675721007
 30
0.0
 11
554.9251028856717
 21
190.1173675721007
 31
0.0
  0
LINE
  5
8AE5
330
1A
100
AcDbEntity
  8
SEIHIN
  6
CONTINUOUS
 62
     3
100
AcDbLine
 10
577.5913153700719
 20
172.5936353296007
 30
0.0
 11
577.5948493589715
 21
172.6745769832007
 31
0.0
  0
ARC
  5
8AE6
330
1A
100
AcDbEntity
  8
SEIHIN
  6
CONTINUOUS
 62
     3
100
AcDbCircle
 10
579.5929458021716
 20
172.5873382084007
 30
0.0
 40
2.000000000000002
100
AcDbArc
 50
113.1288996251962
 51
177.499999999998
  0
ARC
  5
8AE7
330
1A
100
AcDbEntity
  8
SEIHIN
  6
CONTINUOUS
 62
     3
100
AcDbCircle
 10
579.5929458021716
 20
172.5873382084007
 30
0.0
 40
2.000000000011795
100
AcDbArc
 50
90.00000000009119
 51
113.128899625097
  0
ARC
  5
8AE8
330
1A
100
AcDbEntity
  8
SEIHIN
  6
CONTINUOUS
 62
     3
100
AcDbCircle
 10
570.1758316215721
 20
188.1173675721007
 30
0.0
 40
2.0
100
AcDbArc
 50
2.499999999998425
 51
90.0
  0
ARC
  5
8AE9
330
1A
100
AcDbEntity
  8
SEIHIN
  6
CONTINUOUS
 62
     3
100
AcDbCircle
 10
574.8033242443718
 20
199.7973098615007
 30
0.0
 40
7.16996974783441
100
AcDbArc
 50
269.0013690757001
 51
272.9983263765008
  0
LINE
  5
8AEA
330
1A
100
AcDbEntity
  8
SEIHIN
  6
CONTINUOUS
 62
     3
100
AcDbLine
 10
574.6783623176717
 20
186.0448757405007
 30
0.0
 11
572.2682239394718
 21
186.0448757405007
 31
0.0
  0
LINE
  5
8AEB
330
1A
100
AcDbEntity
  8
SEIHIN
  6
CONTINUOUS
 62
     3
100
AcDbLine
 10
574.6783623176717
 20
186.0448757405007
 30
0.0
 11
574.6783623176717
 21
185.7894055323007
 31
0.0
  0
ARC
  5
8AEC
330
1A
100
AcDbEntity
  8
SEIHIN
  6
CONTINUOUS
 62
     3
100
AcDbCircle
 10
574.8033242443718
 20
193.2137564552007
 30
0.0
 40
7.169969747824429
100
AcDbArc
 50
269.0013690757001
 51
272.9983263765008
  0
LINE
  5
8AED
330
1A
100
AcDbEntity
  8
SEIHIN
  6
CONTINUOUS
 62
     3
100
AcDbLine
 10
567.1783623176718
 20
190.1173675721007
 30
0.0
 11
570.1758316215721
 21
190.1173675721007
 31
0.0
  0
LINE
  5
8AEE
330
1A
100
AcDbEntity
  8
SEIHIN
  6
CONTINUOUS
 62
     3
100
AcDbLine
 10
632.6783623176718
 20
174.5873382084007
 30
0.0
 11
632.6783623176718
 21
185.5828451036007
 31
0.0
  0
LINE
  5
8AEF
330
1A
100
AcDbEntity
  8
SEIHIN
  6
CONTINUOUS
 62
     3
100
AcDbLine
 10
632.6783623176718
 20
174.4265851844007
 30
0.0
 11
632.6783623176718
 21
172.5936353296007
 31
0.0
  0
LINE
  5
8AF0
330
1A
100
AcDbEntity
  8
SEIHIN
  6
CONTINUOUS
 62
     3
100
AcDbLine
 10
632.6783623176718
 20
174.5873382084007
 30
0.0
 11
632.6783623176718
 21
174.4265851844007
 31
0.0
  0
LINE
  5
8AF1
330
1A
100
AcDbEntity
  8
SEIHIN
  6
CONTINUOUS
 62
     3
100
AcDbLine
 10
541.0428039444715
 20
293.0661289539001
 30
0.0
 11
481.9567636357716
 21
293.0661289539001
 31
0.0
  0
LINE
  5
8AF2
330
1A
100
AcDbEntity
  8
SEIHIN
  6
CONTINUOUS
 62
     3
100
AcDbLine
 10
575.1783623176718
 20
213.0507460574007
 30
0.0
 11
436.0327631474717
 21
213.0507460574007
 31
0.0
  0
LINE
  5
8AF3
330
1A
100
AcDbEntity
  8
SEIHIN
  6
CONTINUOUS
 62
     3
100
AcDbLine
 10
574.6783623176717
 20
208.1645937000007
 30
0.0
 11
448.8453402115717
 21
208.1645937000007
 31
0.0
  0
LINE
  5
8AF5
330
1A
100
AcDbEntity
  8
SEIHIN
  6
CONTINUOUS
 62
     3
100
AcDbLine
 10
432.2337133416714
 20
333.5661289539002
 30
0.0
 11
432.2337133416714
 21
293.0661289539001
 31
0.0
  0
LINE
  5
8AF6
330
1A
100
AcDbEntity
  8
SEIHIN
  6
CONTINUOUS
 62
     3
100
AcDbLine
 10
439.8097166032718
 20
293.0661289539001
 30
0.0
 11
439.8097166032718
 21
331.0661289539002
 31
0.0
  0
LINE
  5
8AF7
330
1A
100
AcDbEntity
  8
SEIHIN
  6
CONTINUOUS
 62
     3
100
AcDbLine
 10
436.7337133416714
 20
333.5661289539002
 30
0.0
 11
436.7337133416714
 21
293.0661289539001
 31
0.0
  0
LINE
  5
8AF8
330
1A
100
AcDbEntity
  8
SEIHIN
  6
CONTINUOUS
 62
     3
100
AcDbLine
 10
446.8223032193719
 20
325.0661289539002
 30
0.0
 11
446.8223032193719
 21
293.0661289539001
 31
0.0
  0
LINE
  5
8AF9
330
1A
100
AcDbEntity
  8
SEIHIN
  6
CONTINUOUS
 62
     3
100
AcDbLine
 10
445.2337133416714
 20
325.0661289539002
 30
0.0
 11
445.2337133416714
 21
293.0661289539001
 31
0.0
  0
LINE
  5
8AFA
330
1A
100
AcDbEntity
  8
SEIHIN
  6
CONTINUOUS
 62
     3
100
AcDbLine
 10
444.5344452222717
 20
293.0661289539001
 30
0.0
 11
444.5344452222717
 21
328.0661289539001
 31
0.0
  0
LINE
  5
8AFB
330
1A
100
AcDbEntity
  8
SEIHIN
  6
CONTINUOUS
 62
     3
100
AcDbLine
 10
481.0434913803716
 20
293.0661289539001
 30
0.0
 11
481.0434913803716
 21
350.5661289539002
 31
0.0
  0
LINE
  5
8AFC
330
1A
100
AcDbEntity
  8
SEIHIN
  6
CONTINUOUS
 62
     3
100
AcDbLine
 10
477.9064446659714
 20
293.0661289539001
 30
0.0
 11
477.9064446659714
 21
350.5661289539002
 31
0.0
  0
LINE
  5
8AFD
330
1A
100
AcDbEntity
  8
SEIHIN
  6
CONTINUOUS
 62
     3
100
AcDbLine
 10
476.0291933253717
 20
350.5661289539002
 30
0.0
 11
476.0291933253717
 21
293.0661289539001
 31
0.0
  0
LINE
  5
8AFE
330
1A
100
AcDbEntity
  8
SEIHIN
  6
CONTINUOUS
 62
     3
100
AcDbLine
 10
473.5836352742718
 20
293.0661289539001
 30
0.0
 11
473.5836352742718
 21
350.5661289539002
 31
0.0
  0
LINE
  5
8AFF
330
1A
100
AcDbEntity
  8
SEIHIN
  6
CONTINUOUS
 62
     3
100
AcDbLine
 10
466.2508845000717
 20
350.5661289539002
 30
0.0
 11
466.2508845000717
 21
293.0661289539001
 31
0.0
  0
LINE
  5
8B00
330
1A
100
AcDbEntity
  8
SEIHIN
  6
CONTINUOUS
 62
     3
100
AcDbLine
 10
447.2395060995714
 20
293.0661289539001
 30
0.0
 11
447.2395060995714
 21
350.5661289539002
 31
0.0
  0
LINE
  5
8B02
330
1A
100
AcDbEntity
  8
SEIHIN
  6
CONTINUOUS
 62
     3
100
AcDbLine
 10
266.8041440119968
 20
213.0507460574007
 30
0.0
 11
120.5243314280969
 21
213.0507460574007
 31
0.0
  0
ARC
  5
8B03
330
1A
100
AcDbEntity
  8
SEIHIN
  6
CONTINUOUS
 62
     3
100
AcDbCircle
 10
120.5243314280969
 20
211.0507460574007
 30
0.0
 40
2.0
100
AcDbArc
 50
90.0
 51
182.9999999999989
  0
LINE
  5
8B04
330
1A
100
AcDbEntity
  8
SEIHIN
  6
CONTINUOUS
 62
     3
100
AcDbLine
 10
118.5270723585968
 20
210.9460741449007
 30
0.0
 11
118.7041440118969
 21
207.5673457243007
 31
0.0
  0
LINE
  5
8B05
330
1A
100
AcDbEntity
  8
SEIHIN
  6
CONTINUOUS
 62
     3
100
AcDbLine
 10
324.3041440119968
 20
210.9582034911007
 30
0.0
 11
292.3041440119968
 21
210.9582034911007
 31
0.0
  0
LINE
  5
8B06
330
1A
100
AcDbEntity
  8
SEIHIN
  6
CONTINUOUS
 62
     3
100
AcDbLine
 10
324.3041440119968
 20
196.4582034911007
 30
0.0
 11
283.9514900505969
 21
196.4582034911007
 31
0.0
  0
LINE
  5
8B07
330
1A
100
AcDbEntity
  8
SEIHIN
  6
CONTINUOUS
 62
     3
100
AcDbLine
 10
324.3041440119968
 20
202.9582034911007
 30
0.0
 11
283.9514900505969
 21
202.9582034911007
 31
0.0
  0
ARC
  5
8B08
330
1A
100
AcDbEntity
  8
SEIHIN
  6
CONTINUOUS
 62
     3
100
AcDbCircle
 10
292.3041440119968
 20
207.9582034911008
 30
0.0
 40
3.0
100
AcDbArc
 50
90.0
 51
180.0
  0
LINE
  5
8B09
330
1A
100
AcDbEntity
  8
SEIHIN
  6
CONTINUOUS
 62
     3
100
AcDbLine
 10
282.8758954681968
 20
209.0582034911007
 30
0.0
 11
282.8758954681968
 21
211.7411978802007
 31
0.0
  0
LINE
  5
8B0A
330
1A
100
AcDbEntity
  8
SEIHIN
  6
CONTINUOUS
 62
     3
100
AcDbLine
 10
269.3041440119968
 20
200.9340387198008
 30
0.0
 11
283.9514900505969
 21
200.9340387198008
 31
0.0
  0
LINE
  5
8B0B
330
1A
100
AcDbEntity
  8
SEIHIN
  6
CONTINUOUS
 62
     3
100
AcDbLine
 10
269.3041440119968
 20
207.8287933618007
 30
0.0
 11
283.0926736443968
 21
207.8287933618007
 31
0.0
  0
LINE
  5
8B0C
330
1A
100
AcDbEntity
  8
SEIHIN
  6
CONTINUOUS
 62
     3
100
AcDbLine
 10
283.9514900505312
 20
202.9582034911007
 30
0.0
 11
283.0926736443968
 21
207.8287933618007
 31
0.0
  0
LINE
  5
8B0D
330
1A
100
AcDbEntity
  8
SEIHIN
  6
CONTINUOUS
 62
     3
100
AcDbLine
 10
289.3041440119968
 20
207.9582034911008
 30
0.0
 11
289.3041440119968
 21
202.9582034911007
 31
0.0
  0
LINE
  5
8B0E
330
1A
100
AcDbEntity
  8
SEIHIN
  6
CONTINUOUS
 62
     3
100
AcDbLine
 10
283.9514900505969
 20
202.9582034911007
 30
0.0
 11
289.3041440119968
 21
202.9582034911007
 31
0.0
  0
LINE
  5
8B0F
330
1A
100
AcDbEntity
  8
SEIHIN
  6
CONTINUOUS
 62
     3
100
AcDbLine
 10
283.0926736443968
 20
207.8287933618007
 30
0.0
 11
282.8758954681968
 21
209.0582034911007
 31
0.0
  0
LINE
  5
8B10
330
1A
100
AcDbEntity
  8
SEIHIN
  6
CONTINUOUS
 62
     3
100
AcDbLine
 10
283.9514900505969
 20
202.9582034911007
 30
0.0
 11
283.9514900505969
 21
196.4582034911007
 31
0.0
  0
LINE
  5
8B11
330
1A
100
AcDbEntity
  8
SEIHIN
  6
CONTINUOUS
 62
     3
100
AcDbLine
 10
282.8758954681968
 20
214.0582034911007
 30
0.0
 11
269.3041440119968
 21
214.0582034911008
 31
0.0
  0
LINE
  5
8B12
330
1A
100
AcDbEntity
  8
SEIHIN
  6
CONTINUOUS
 62
     3
100
AcDbLine
 10
266.8041440119968
 20
213.1130308639007
 30
0.0
 11
282.8758954681968
 21
213.1130308639007
 31
0.0
  0
LINE
  5
8B13
330
1A
100
AcDbEntity
  8
SEIHIN
  6
CONTINUOUS
 62
     3
100
AcDbLine
 10
282.8758954681968
 20
213.5823240937007
 30
0.0
 11
282.8758954681968
 21
214.0582034911007
 31
0.0
  0
LINE
  5
8B14
330
1A
100
AcDbEntity
  8
SEIHIN
  6
CONTINUOUS
 62
     3
100
AcDbLine
 10
282.8758954681968
 20
213.1130308639007
 30
0.0
 11
282.8758954681968
 21
213.5823240937007
 31
0.0
  0
LINE
  5
8B15
330
1A
100
AcDbEntity
  8
SEIHIN
  6
CONTINUOUS
 62
     3
100
AcDbLine
 10
282.8758954681968
 20
213.1130308639007
 30
0.0
 11
282.8758954681968
 21
211.7411978802007
 31
0.0
  0
LINE
  5
8B18
330
1A
100
AcDbEntity
  8
SEIHIN
  6
CONTINUOUS
 62
     3
100
AcDbLine
 10
435.6528258281716
 20
213.1130308639007
 30
0.0
 11
444.0210070282716
 21
211.7411978802007
 31
0.0
  0
LINE
  5
8B19
330
1A
100
AcDbEntity
  8
SEIHIN
  6
CONTINUOUS
 62
     3
100
AcDbLine
 10
438.7337133416715
 20
202.9582034911007
 30
0.0
 11
434.8555077924718
 21
199.5109096696007
 31
0.0
  0
LINE
  5
8B1A
330
1A
100
AcDbEntity
  8
SEIHIN
  6
CONTINUOUS
 62
     3
100
AcDbLine
 10
436.2337133416715
 20
196.4582034911007
 30
0.0
 11
445.6446612118718
 21
196.4582034911007
 31
0.0
  0
LINE
  5
8B1B
330
1A
100
AcDbEntity
  8
SEIHIN
  6
CONTINUOUS
 62
     3
100
AcDbLine
 10
443.5860769956718
 20
209.2791274822007
 30
0.0
 11
435.2483882604717
 21
210.6459617011007
 31
0.0
  0
LINE
  5
8B1E
330
1A
100
AcDbEntity
  8
SEIHIN
  6
CONTINUOUS
 62
     3
100
AcDbLine
 10
426.9012906642717
 20
210.9460741449007
 30
0.0
 11
427.0783623175718
 21
207.5673457243007
 31
0.0
  0
ARC
  5
8B21
330
1A
100
AcDbEntity
  8
SEIHIN
  6
CONTINUOUS
 62
     3
100
AcDbCircle
 10
436.1842354701718
 20
198.0160910322007
 30
0.0
 40
2.000000000000004
100
AcDbArc
 50
131.633539336595
 51
167.228922004296
  0
ARC
  5
8B27
330
1A
100
AcDbEntity
  8
SEIHIN
  6
CONTINUOUS
 62
     3
100
AcDbCircle
 10
435.7337133416715
 20
213.6064446964007
 30
0.0
 40
0.4999999999999951
100
AcDbArc
 50
182.7650906660993
 51
260.690059824994
  0
ARC
  5
8B28
330
1A
100
AcDbEntity
  8
SEIHIN
  6
CONTINUOUS
 62
     3
100
AcDbCircle
 10
434.7348776263718
 20
213.5582034911007
 30
0.0
 40
0.5000000000000049
100
AcDbArc
 50
2.765090666099452
 51
90.0
  0
ARC
  5
8B29
330
1A
100
AcDbEntity
  8
SEIHIN
  6
CONTINUOUS
 62
     3
100
AcDbCircle
 10
433.2341788277719
 20
213.5582034911007
 30
0.0
 40
0.5000000000000048
100
AcDbArc
 50
90.0
 51
181.1056756104998
  0
LINE
  5
8B2A
330
1A
100
AcDbEntity
  8
SEIHIN
  6
CONTINUOUS
 62
     3
100
AcDbLine
 10
433.153489697672
 20
212.0759395684006
 30
0.0
 11
429.3836209838716
 21
212.9910310577007
 31
0.0
  0
LINE
  5
8B2B
330
1A
100
AcDbEntity
  8
SEIHIN
  6
CONTINUOUS
 62
     3
100
AcDbLine
 10
432.7856293837719
 20
213.0507460574007
 30
0.0
 11
428.8985497337718
 21
213.0507460574007
 31
0.0
  0
ARC
  5
8B2C
330
1A
100
AcDbEntity
  8
SEIHIN
  6
CONTINUOUS
 62
     3
100
AcDbCircle
 10
428.8985497337718
 20
211.0507460574007
 30
0.0
 40
2.0
100
AcDbArc
 50
75.96375653209327
 51
182.9999999999989
  0
ARC
  5
8B2D
330
1A
100
AcDbEntity
  8
SEIHIN
  6
CONTINUOUS
 62
     3
100
AcDbCircle
 10
435.7337133416715
 20
213.6064446964007
 30
0.0
 40
3.0
100
AcDbArc
 50
181.1056756104998
 51
260.690059824994
  0
LINE
  5
8B2E
330
1A
100
AcDbEntity
  8
SEIHIN
  6
CONTINUOUS
 62
     3
100
AcDbLine
 10
433.2341788277719
 20
214.0582034911007
 30
0.0
 11
434.7348776263718
 21
214.0582034911007
 31
0.0
  0
ARC
  5
8B2F
330
1A
100
AcDbEntity
  8
SEIHIN
  6
CONTINUOUS
 62
     3
100
AcDbCircle
 10
443.3434144550717
 20
207.7988859846008
 30
0.0
 40
1.500000000000164
100
AcDbArc
 50
0.5000000000013455
 51
57.09210434839498
  0
ARC
  5
8B30
330
1A
100
AcDbEntity
  8
SEIHIN
  6
CONTINUOUS
 62
     3
100
AcDbCircle
 10
443.3434144550717
 20
207.7988859846008
 30
0.0
 40
1.500000000000164
100
AcDbArc
 50
57.09210434839498
 51
80.69005982499408
  0
LINE
  5
8B31
330
1A
100
AcDbEntity
  8
SEIHIN
  6
CONTINUOUS
 62
     3
100
AcDbLine
 10
447.2337133416715
 20
210.9582034911007
 30
0.0
 11
446.5344452222718
 21
200.9582034911007
 31
0.0
  0
ARC
  5
8B39
330
1A
100
AcDbEntity
  8
SEIHIN
  6
CONTINUOUS
 62
     3
100
AcDbCircle
 10
445.3772015171718
 20
199.8082034911007
 30
0.0
 40
1.000000000000001
100
AcDbArc
 50
270.0
 51
356.0000000000002
  0
LINE
  5
8B3A
330
1A
100
AcDbEntity
  8
SEIHIN
  6
CONTINUOUS
 62
     3
100
AcDbLine
 10
443.3097166032719
 20
198.8082034911007
 30
0.0
 11
445.3772015171718
 21
198.8082034911007
 31
0.0
  0
LINE
  5
8B3B
330
1A
100
AcDbEntity
  8
SEIHIN
  6
CONTINUOUS
 62
     3
100
AcDbLine
 10
446.3747655674717
 20
199.7384470173007
 30
0.0
 11
446.4600592489716
 21
200.9582034911007
 31
0.0
  0
LINE
  5
8B3C
330
1A
100
AcDbEntity
  8
SEIHIN
  6
CONTINUOUS
 62
     3
100
AcDbLine
 10
446.5344452222718
 20
200.9582034911007
 30
0.0
 11
446.4600592489716
 21
200.9582034911007
 31
0.0
  0
LINE
  5
8B3D
330
1A
100
AcDbEntity
  8
SEIHIN
  6
CONTINUOUS
 62
     3
100
AcDbLine
 10
444.9031693043719
 20
200.9582034911007
 30
0.0
 11
444.8433573396717
 21
207.8119757878007
 31
0.0
  0
LINE
  5
8B3E
330
1A
100
AcDbEntity
  8
SEIHIN
  6
CONTINUOUS
 62
     3
100
AcDbLine
 10
443.3097166032719
 20
200.9582034911007
 30
0.0
 11
446.4600592489716
 21
200.9582034911007
 31
0.0
  0
ARC
  5
8B3F
330
1A
100
AcDbEntity
  8
SEIHIN
  6
CONTINUOUS
 62
     3
100
AcDbCircle
 10
438.7337133416715
 20
202.4582034911007
 30
0.0
 40
0.5
100
AcDbArc
 50
0.0
 51
90.0
  0
ARC
  5
8B40
330
1A
100
AcDbEntity
  8
SEIHIN
  6
CONTINUOUS
 62
     3
100
AcDbCircle
 10
441.8097166032719
 20
200.4582034911007
 30
0.0
 40
0.5000000000000285
100
AcDbArc
 50
0.0
 51
90.0
  0
LINE
  5
8B41
330
1A
100
AcDbEntity
  8
SEIHIN
  6
CONTINUOUS
 62
     3
100
AcDbLine
 10
439.2337133416715
 20
201.4582034911007
 30
0.0
 11
439.2337133416715
 21
202.4582034911007
 31
0.0
  0
LINE
  5
8B42
330
1A
100
AcDbEntity
  8
SEIHIN
  6
CONTINUOUS
 62
     3
100
AcDbLine
 10
442.3097166032719
 20
200.4582034911007
 30
0.0
 11
442.3097166032719
 21
199.8082034911007
 31
0.0
  0
ARC
  5
8B43
330
1A
100
AcDbEntity
  8
SEIHIN
  6
CONTINUOUS
 62
     3
100
AcDbCircle
 10
439.7337133416715
 20
201.4582034911007
 30
0.0
 40
0.5
100
AcDbArc
 50
180.0
 51
270.0
  0
LINE
  5
8B44
330
1A
100
AcDbEntity
  8
SEIHIN
  6
CONTINUOUS
 62
     3
100
AcDbLine
 10
441.8097166032719
 20
200.9582034911007
 30
0.0
 11
439.7337133416715
 21
200.9582034911007
 31
0.0
  0
LINE
  5
8B45
330
1A
100
AcDbEntity
  8
SEIHIN
  6
CONTINUOUS
 62
     3
100
AcDbLine
 10
441.8097166032719
 20
200.9582034911007
 30
0.0
 11
443.3097166032719
 21
200.9582034911007
 31
0.0
  0
ARC
  5
8B46
330
1A
100
AcDbEntity
  8
SEIHIN
  6
CONTINUOUS
 62
     3
100
AcDbCircle
 10
443.3097166032719
 20
199.8082034911007
 30
0.0
 40
1.0
100
AcDbArc
 50
180.0
 51
270.0
  0
LINE
  5
8B47
330
1A
100
AcDbEntity
  8
SEIHIN
  6
CONTINUOUS
 62
     3
100
AcDbLine
 10
447.3225316766717
 20
210.9582034911007
 30
0.0
 11
447.2337133416715
 21
210.9582034911007
 31
0.0
  0
ARC
  5
8B48
330
1A
100
AcDbEntity
  8
SEIHIN
  6
CONTINUOUS
 62
     3
100
AcDbCircle
 10
447.3225316766717
 20
209.4582034911007
 30
0.0
 40
1.500000000000006
100
AcDbArc
 50
1.000000000001761
 51
90.0
  0
ARC
  5
8B49
330
1A
100
AcDbEntity
  8
SEIHIN
  6
CONTINUOUS
 62
     3
100
AcDbCircle
 10
443.3739069199716
 20
207.7938872198007
 30
0.0
 40
4.000000000000002
100
AcDbArc
 50
20.84903829039497
 51
80.69005982499408
  0
LINE
  5
8B4A
330
1A
100
AcDbEntity
  8
SEIHIN
  6
CONTINUOUS
 62
     3
100
AcDbLine
 10
439.8097166032718
 20
293.0661289539001
 30
0.0
 11
437.7337133416714
 21
293.0661289539001
 31
0.0
  0
LINE
  5
8B4B
330
1A
100
AcDbEntity
  8
SEIHIN
  6
CONTINUOUS
 62
     3
100
AcDbLine
 10
436.7337133416714
 20
293.0661289539001
 30
0.0
 11
432.8555077924717
 21
293.0661289539001
 31
0.0
  0
LINE
  5
8B4C
330
1A
100
AcDbEntity
  8
SEIHIN
  6
CONTINUOUS
 62
     3
100
AcDbLine
 10
432.8555077924717
 20
293.0661289539001
 30
0.0
 11
432.2337133416714
 21
293.0661289539001
 31
0.0
  0
LINE
  5
8B4D
330
1A
100
AcDbEntity
  8
SEIHIN
  6
CONTINUOUS
 62
     3
100
AcDbLine
 10
437.7337133416714
 20
293.0661289539001
 30
0.0
 11
437.2337133416714
 21
293.0661289539001
 31
0.0
  0
LINE
  5
8B4E
330
1A
100
AcDbEntity
  8
SEIHIN
  6
CONTINUOUS
 62
     3
100
AcDbLine
 10
437.2337133416714
 20
293.0661289539001
 30
0.0
 11
436.7337133416714
 21
293.0661289539001
 31
0.0
  0
LINE
  5
8B4F
330
1A
100
AcDbEntity
  8
SEIHIN
  6
CONTINUOUS
 62
     3
100
AcDbLine
 10
473.5836352742718
 20
293.0661289539001
 30
0.0
 11
466.2508845000717
 21
293.0661289539001
 31
0.0
  0
LINE
  5
8B50
330
1A
100
AcDbEntity
  8
SEIHIN
  6
CONTINUOUS
 62
     3
100
AcDbLine
 10
466.2508845000717
 20
293.0661289539001
 30
0.0
 11
465.4779270268719
 21
293.0661289539001
 31
0.0
  0
LINE
  5
8B51
330
1A
100
AcDbEntity
  8
SEIHIN
  6
CONTINUOUS
 62
     3
100
AcDbLine
 10
444.3747655674716
 20
293.0661289539001
 30
0.0
 11
443.3772015171718
 21
293.0661289539001
 31
0.0
  0
LINE
  5
8B52
330
1A
100
AcDbEntity
  8
SEIHIN
  6
CONTINUOUS
 62
     3
100
AcDbLine
 10
441.3097166032717
 20
293.0661289539001
 30
0.0
 11
443.3772015171718
 21
293.0661289539001
 31
0.0
  0
LINE
  5
8B53
330
1A
100
AcDbEntity
  8
SEIHIN
  6
CONTINUOUS
 62
     3
100
AcDbLine
 10
444.3747655674716
 20
293.0661289539001
 30
0.0
 11
444.4600592489715
 21
293.0661289539001
 31
0.0
  0
LINE
  5
8B54
330
1A
100
AcDbEntity
  8
SEIHIN
  6
CONTINUOUS
 62
     3
100
AcDbLine
 10
444.5344452222717
 20
293.0661289539001
 30
0.0
 11
444.4600592489715
 21
293.0661289539001
 31
0.0
  0
LINE
  5
8B55
330
1A
100
AcDbEntity
  8
SEIHIN
  6
CONTINUOUS
 62
     3
100
AcDbLine
 10
447.2395060995714
 20
293.0661289539001
 30
0.0
 11
446.8223032193719
 21
293.0661289539001
 31
0.0
  0
LINE
  5
8B56
330
1A
100
AcDbEntity
  8
SEIHIN
  6
CONTINUOUS
 62
     3
100
AcDbLine
 10
445.3225316766717
 20
293.0661289539001
 30
0.0
 11
445.2337133416714
 21
293.0661289539001
 31
0.0
  0
LINE
  5
8B57
330
1A
100
AcDbEntity
  8
SEIHIN
  6
CONTINUOUS
 62
     3
100
AcDbLine
 10
446.8223032193719
 20
293.0661289539001
 30
0.0
 11
445.3225316766717
 21
293.0661289539001
 31
0.0
  0
LINE
  5
8B58
330
1A
100
AcDbEntity
  8
SEIHIN
  6
CONTINUOUS
 62
     3
100
AcDbLine
 10
445.2337133416714
 20
293.0661289539001
 30
0.0
 11
444.5344452222717
 21
293.0661289539001
 31
0.0
  0
LINE
  5
8B59
330
1A
100
AcDbEntity
  8
SEIHIN
  6
CONTINUOUS
 62
     3
100
AcDbLine
 10
440.3097166032718
 20
293.0661289539001
 30
0.0
 11
439.8097166032718
 21
293.0661289539001
 31
0.0
  0
LINE
  5
8B5A
330
1A
100
AcDbEntity
  8
SEIHIN
  6
CONTINUOUS
 62
     3
100
AcDbLine
 10
441.3097166032717
 20
293.0661289539001
 30
0.0
 11
440.3097166032718
 21
293.0661289539001
 31
0.0
  0
LINE
  5
8B5B
330
1A
100
AcDbEntity
  8
SEIHIN
  6
CONTINUOUS
 62
     3
100
AcDbLine
 10
465.4779270268719
 20
293.0661289539001
 30
0.0
 11
447.2395060995714
 21
293.0661289539001
 31
0.0
  0
LINE
  5
8B5C
330
1A
100
AcDbEntity
  8
SEIHIN
  6
CONTINUOUS
 62
     3
100
AcDbLine
 10
481.0434913803716
 20
293.0661289539001
 30
0.0
 11
477.9064446659714
 21
293.0661289539001
 31
0.0
  0
LINE
  5
8B5D
330
1A
100
AcDbEntity
  8
SEIHIN
  6
CONTINUOUS
 62
     3
100
AcDbLine
 10
477.9064446659714
 20
293.0661289539001
 30
0.0
 11
476.0291933253717
 21
293.0661289539001
 31
0.0
  0
LINE
  5
8B5E
330
1A
100
AcDbEntity
  8
SEIHIN
  6
CONTINUOUS
 62
     3
100
AcDbLine
 10
476.0291933253717
 20
293.0661289539001
 30
0.0
 11
473.5836352742718
 21
293.0661289539001
 31
0.0
  0
LINE
  5
8B5F
330
1A
100
AcDbEntity
  8
SEIHIN
  6
CONTINUOUS
 62
     3
100
AcDbLine
 10
481.9567636357716
 20
293.0661289539001
 30
0.0
 11
481.0434913803716
 21
293.0661289539001
 31
0.0
  0
LINE
  5
8B78
330
1A
100
AcDbEntity
  8
SEIHIN
  6
CONTINUOUS
 62
     3
100
AcDbLine
 10
442.0210070282715
 20
334.4943774977002
 30
0.0
 11
442.0210070282715
 21
350.5661289539002
 31
0.0
  0
LINE
  5
8B79
330
1A
100
AcDbEntity
  8
SEIHIN
  6
CONTINUOUS
 62
     3
100
AcDbLine
 10
433.2342954840716
 20
350.5661289539002
 30
0.0
 11
433.2342954840716
 21
334.4943774977002
 31
0.0
  0
LINE
  5
8B7A
330
1A
100
AcDbEntity
  8
SEIHIN
  6
CONTINUOUS
 62
     3
100
AcDbLine
 10
430.7342719249719
 20
334.4943774977002
 30
0.0
 11
430.7342719249719
 21
350.5661289539002
 31
0.0
  0
LINE
  5
8B7B
330
1A
100
AcDbEntity
  8
SEIHIN
  6
CONTINUOUS
 62
     3
100
AcDbLine
 10
446.2069386376716
 20
350.5661289539002
 30
0.0
 11
446.2069386376716
 21
333.0618680528002
 31
0.0
  0
LINE
  5
8B7C
330
1A
100
AcDbEntity
  8
SEIHIN
  6
CONTINUOUS
 62
     3
100
AcDbLine
 10
445.4254843947715
 20
333.2323954087001
 30
0.0
 11
445.4254843947715
 21
350.5661289539002
 31
0.0
  0
LINE
  5
8B7D
330
1A
100
AcDbEntity
  8
SEIHIN
  6
CONTINUOUS
 62
     3
100
AcDbLine
 10
433.6528258281715
 20
334.4943774977002
 30
0.0
 11
442.0210070282715
 21
334.4943774977002
 31
0.0
  0
LINE
  5
8B7E
330
1A
100
AcDbEntity
  8
SEIHIN
  6
CONTINUOUS
 62
     3
100
AcDbLine
 10
437.7337133416714
 20
333.5661289539002
 30
0.0
 11
442.8784230410716
 21
333.5661289539002
 31
0.0
  0
LINE
  5
8B7F
330
1A
100
AcDbEntity
  8
SEIHIN
  6
CONTINUOUS
 62
     3
100
AcDbLine
 10
433.6528258281715
 20
334.4943774977002
 30
0.0
 11
433.2342954840716
 21
334.4943774977002
 31
0.0
  0
LINE
  5
8B80
330
1A
100
AcDbEntity
  8
SEIHIN
  6
CONTINUOUS
 62
     3
100
AcDbLine
 10
433.2342954840716
 20
334.4943774977002
 30
0.0
 11
432.7348776263717
 21
334.4943774977002
 31
0.0
  0
LINE
  5
8B81
330
1A
100
AcDbEntity
  8
SEIHIN
  6
CONTINUOUS
 62
     3
100
AcDbLine
 10
431.2341788277718
 20
334.4943774977002
 30
0.0
 11
430.7342719249719
 21
334.4943774977002
 31
0.0
  0
LINE
  5
8B82
330
1A
100
AcDbEntity
  8
SEIHIN
  6
CONTINUOUS
 62
     3
100
AcDbLine
 10
431.2341788277718
 20
334.4943774977002
 30
0.0
 11
432.7348776263717
 21
334.4943774977002
 31
0.0
  0
LINE
  5
8B83
330
1A
100
AcDbEntity
  8
SEIHIN
  6
CONTINUOUS
 62
     3
100
AcDbLine
 10
432.8555077924717
 20
333.5661289539002
 30
0.0
 11
436.7337133416714
 21
333.5661289539002
 31
0.0
  0
LINE
  5
8B84
330
1A
100
AcDbEntity
  8
SEIHIN
  6
CONTINUOUS
 62
     3
100
AcDbLine
 10
432.2337133416714
 20
333.5661289539002
 30
0.0
 11
432.8555077924717
 21
333.5661289539002
 31
0.0
  0
LINE
  5
8B85
330
1A
100
AcDbEntity
  8
SEIHIN
  6
CONTINUOUS
 62
     3
100
AcDbLine
 10
437.2337133416714
 20
333.5661289539002
 30
0.0
 11
437.7337133416714
 21
333.5661289539002
 31
0.0
  0
LINE
  5
8B86
330
1A
100
AcDbEntity
  8
SEIHIN
  6
CONTINUOUS
 62
     3
100
AcDbLine
 10
436.7337133416714
 20
333.5661289539002
 30
0.0
 11
437.2337133416714
 21
333.5661289539002
 31
0.0
  0
LINE
  5
8B87
330
1A
100
AcDbEntity
  8
SEIHIN
  6
CONTINUOUS
 62
     3
100
AcDbLine
 10
424.8985497337717
 20
348.0661289539002
 30
0.0
 11
427.3836209838715
 21
348.0661289539002
 31
0.0
  0
LINE
  5
8B88
330
1A
100
AcDbEntity
  8
SEIHIN
  6
CONTINUOUS
 62
     3
100
AcDbLine
 10
430.7342719249719
 20
348.0661289539002
 30
0.0
 11
427.3836209838715
 21
348.0661289539002
 31
0.0
  0
LINE
  5
8B89
330
1A
100
AcDbEntity
  8
SEIHIN
  6
CONTINUOUS
 62
     3
100
AcDbLine
 10
445.1688383246716
 20
334.4943774977002
 30
0.0
 11
442.0210070282715
 21
334.4943774977002
 31
0.0
  0
ARC
  5
8B8A
330
1A
100
AcDbEntity
  8
SEIHIN
  6
CONTINUOUS
 62
     3
100
AcDbCircle
 10
445.3486000366716
 20
326.5662431739
 30
0.0
 40
1.499885784416495
100
AcDbArc
 50
359.9956367876986
 51
89.99563612300045
  0
LINE
  5
8B8B
330
1A
100
AcDbEntity
  8
SEIHIN
  6
CONTINUOUS
 62
     3
100
AcDbLine
 10
445.0432620839716
 20
331.0661289539002
 30
0.0
 11
441.3097166032717
 21
331.0661289539002
 31
0.0
  0
LINE
  5
8B8C
330
1A
100
AcDbEntity
  8
SEIHIN
  6
CONTINUOUS
 62
     3
100
AcDbLine
 10
442.9031693043717
 20
333.0661289539002
 30
0.0
 11
445.9884309574719
 21
333.0661289539002
 31
0.0
  0
LINE
  5
8B8D
330
1A
100
AcDbEntity
  8
SEIHIN
  6
CONTINUOUS
 62
     3
100
AcDbLine
 10
447.0429574742716
 20
331.0661289539002
 30
0.0
 11
445.0432620839716
 21
331.0661289539002
 31
0.0
  0
LINE
  5
8B8E
330
1A
100
AcDbEntity
  8
SEIHIN
  6
CONTINUOUS
 62
     3
100
AcDbLine
 10
445.3487142740715
 20
328.0661289539001
 30
0.0
 11
445.4708997285717
 21
328.0661289539001
 31
0.0
  0
LINE
  5
8B8F
330
1A
100
AcDbEntity
  8
SEIHIN
  6
CONTINUOUS
 62
     3
100
AcDbLine
 10
445.0239329058714
 20
328.0661289539001
 30
0.0
 11
444.5344452222717
 21
328.0661289539001
 31
0.0
  0
LINE
  5
8B90
330
1A
100
AcDbEntity
  8
SEIHIN
  6
CONTINUOUS
 62
     3
100
AcDbLine
 10
445.0239329058714
 20
328.0661289539001
 30
0.0
 11
445.3487142740715
 21
328.0661289539001
 31
0.0
  0
LINE
  5
8B91
330
1A
100
AcDbEntity
  8
SEIHIN
  6
CONTINUOUS
 62
     3
100
AcDbLine
 10
440.3097166032718
 20
331.0661289539002
 30
0.0
 11
439.8097166032718
 21
331.0661289539002
 31
0.0
  0
LINE
  5
8B92
330
1A
100
AcDbEntity
  8
SEIHIN
  6
CONTINUOUS
 62
     3
100
AcDbLine
 10
440.3097166032718
 20
331.0661289539002
 30
0.0
 11
441.3097166032717
 21
331.0661289539002
 31
0.0
  0
LINE
  5
8B93
330
1A
100
AcDbEntity
  8
SEIHIN
  6
CONTINUOUS
 62
     3
100
AcDbLine
 10
442.9031693043717
 20
333.0661289539002
 30
0.0
 11
442.8433573396715
 21
334.2746339295
 31
0.0
  0
LINE
  5
8B94
330
1A
100
AcDbEntity
  8
SEIHIN
  6
CONTINUOUS
 62
     3
100
AcDbLine
 10
445.4254843947715
 20
333.2323954087001
 30
0.0
 11
445.3737546122717
 21
334.2775993215001
 31
0.0
  0
LINE
  5
8B95
330
1A
100
AcDbEntity
  8
SEIHIN
  6
CONTINUOUS
 62
     3
100
AcDbLine
 10
433.6528258281715
 20
350.5661289539002
 30
0.0
 11
442.0210070282715
 21
350.5661289539002
 31
0.0
  0
LINE
  5
8B96
330
1A
100
AcDbEntity
  8
SEIHIN
  6
CONTINUOUS
 62
     3
100
AcDbLine
 10
432.5448795043718
 20
351.0661289539001
 30
0.0
 11
432.5448795043718
 21
350.5661289539002
 31
0.0
  0
LINE
  5
8B97
330
1A
100
AcDbEntity
  8
SEIHIN
  6
CONTINUOUS
 62
     3
100
AcDbLine
 10
433.2342954840716
 20
350.5661289539002
 30
0.0
 11
433.6528258281715
 21
350.5661289539002
 31
0.0
  0
LINE
  5
8B98
330
1A
100
AcDbEntity
  8
SEIHIN
  6
CONTINUOUS
 62
     3
100
AcDbLine
 10
432.7348776263717
 20
350.5661289539002
 30
0.0
 11
433.2342954840716
 21
350.5661289539002
 31
0.0
  0
ARC
  5
8B99
330
1A
100
AcDbEntity
  8
SEIHIN
  6
CONTINUOUS
 62
     3
100
AcDbCircle
 10
428.1194877155718
 20
351.0519886824001
 30
0.0
 40
0.4860916853248752
100
AcDbArc
 50
178.3330466054007
 51
268.2298935820017
  0
LINE
  5
8B9A
330
1A
100
AcDbEntity
  8
SEIHIN
  6
CONTINUOUS
 62
     3
100
AcDbLine
 10
430.7342719249719
 20
350.5661289539002
 30
0.0
 11
428.1044726976244
 21
350.5661289539002
 31
0.0
  0
LINE
  5
8B9B
330
1A
100
AcDbEntity
  8
SEIHIN
  6
CONTINUOUS
 62
     3
100
AcDbLine
 10
430.7342719249719
 20
350.5661289539002
 30
0.0
 11
431.2341788277718
 21
350.5661289539002
 31
0.0
  0
LINE
  5
8B9C
330
1A
100
AcDbEntity
  8
SEIHIN
  6
CONTINUOUS
 62
     3
100
AcDbLine
 10
431.2341788277718
 20
350.5661289539002
 30
0.0
 11
432.7348776263717
 21
350.5661289539002
 31
0.0
  0
LINE
  5
8B9D
330
1A
100
AcDbEntity
  8
SEIHIN
  6
CONTINUOUS
 62
     3
100
AcDbLine
 10
447.2395060995714
 20
350.5661289539002
 30
0.0
 11
481.0434913803716
 21
350.5661289539002
 31
0.0
  0
ARC
  5
8B9E
330
1A
100
AcDbEntity
  8
SEIHIN
  6
CONTINUOUS
 62
     3
100
AcDbCircle
 10
445.6045982708716
 20
351.0568181097001
 30
0.0
 40
0.490784592808399
100
AcDbArc
 50
178.9129567440996
 51
268.8700542220986
  0
LINE
  5
8B9F
330
1A
100
AcDbEntity
  8
SEIHIN
  6
CONTINUOUS
 62
     3
100
AcDbLine
 10
442.0210070282715
 20
350.5661289539002
 30
0.0
 11
445.3737546122717
 21
350.5661289539002
 31
0.0
  0
LINE
  5
8BA0
330
1A
100
AcDbEntity
  8
SEIHIN
  6
CONTINUOUS
 62
     3
100
AcDbLine
 10
446.2069386376716
 20
350.5661289539002
 30
0.0
 11
446.9882786526715
 21
350.5661289539002
 31
0.0
  0
LINE
  5
8BA1
330
1A
100
AcDbEntity
  8
SEIHIN
  6
CONTINUOUS
 62
     3
100
AcDbLine
 10
445.4254843947715
 20
350.5661289539002
 30
0.0
 11
446.2069386376716
 21
350.5661289539002
 31
0.0
  0
LINE
  5
8BA2
330
1A
100
AcDbEntity
  8
SEIHIN
  6
CONTINUOUS
 62
     3
100
AcDbLine
 10
445.3737546122717
 20
350.5661289539002
 30
0.0
 11
445.4254843947715
 21
350.5661289539002
 31
0.0
  0
LINE
  5
8BA3
330
1A
100
AcDbEntity
  8
SEIHIN
  6
CONTINUOUS
 62
     3
100
AcDbLine
 10
446.9882786526715
 20
350.5661289539002
 30
0.0
 11
447.2395060995714
 21
350.5661289539002
 31
0.0
  0
LINE
  5
8BA4
330
1A
100
AcDbEntity
  8
SEIHIN
  6
CONTINUOUS
 62
     3
100
AcDbLine
 10
542.0108525768715
 20
343.2105837064002
 30
0.0
 11
542.0108525768715
 21
293.0661289539001
 31
0.0
  0
LINE
  5
8BA5
330
1A
100
AcDbEntity
  8
SEIHIN
  6
CONTINUOUS
 62
     3
100
AcDbLine
 10
547.6453448252715
 20
346.1515454694001
 30
0.0
 11
547.6453448252715
 21
293.0661289539001
 31
0.0
  0
LINE
  5
8BA6
330
1A
100
AcDbEntity
  8
SEIHIN
  6
CONTINUOUS
 62
     3
100
AcDbLine
 10
549.6558478710718
 20
348.1531759015001
 30
0.0
 11
549.6558478710718
 21
293.0661289539001
 31
0.0
  0
LINE
  5
8BA7
330
1A
100
AcDbEntity
  8
SEIHIN
  6
CONTINUOUS
 62
     3
100
AcDbLine
 10
632.6783623176718
 20
210.9582034911007
 30
0.0
 11
600.6783623176718
 21
210.9582034911007
 31
0.0
  0
ARC
  5
8BA8
330
1A
100
AcDbEntity
  8
SEIHIN
  6
CONTINUOUS
 62
     3
100
AcDbCircle
 10
600.6783623176718
 20
207.9582034911008
 30
0.0
 40
3.0
100
AcDbArc
 50
90.0
 51
180.0
  0
LINE
  5
8BA9
330
1A
100
AcDbEntity
  8
SEIHIN
  6
CONTINUOUS
 62
     3
100
AcDbLine
 10
591.250113773872
 20
209.0582034911007
 30
0.0
 11
591.250113773872
 21
211.7411978802007
 31
0.0
  0
LINE
  5
8BAA
330
1A
100
AcDbEntity
  8
SEIHIN
  6
CONTINUOUS
 62
     3
100
AcDbLine
 10
575.1783623176718
 20
211.7411978802007
 30
0.0
 11
575.1783623176718
 21
207.8287933618007
 31
0.0
  0
ARC
  5
8BAB
330
1A
100
AcDbEntity
  8
SEIHIN
  6
CONTINUOUS
 62
     3
100
AcDbCircle
 10
596.1783623176718
 20
199.8082034911007
 30
0.0
 40
1.0
100
AcDbArc
 50
270.0
 51
0.0
  0
ARC
  5
8BAC
330
1A
100
AcDbEntity
  8
SEIHIN
  6
CONTINUOUS
 62
     3
100
AcDbCircle
 10
592.0607229300714
 20
200.0263576922008
 30
0.0
 40
5.204616296518726
100
AcDbArc
 50
322.2932406907935
 51
349.5105690863994
  0
LINE
  5
8BAD
330
1A
100
AcDbEntity
  8
SEIHIN
  6
CONTINUOUS
 62
     3
100
AcDbLine
 10
597.1783623176718
 20
200.9582034911007
 30
0.0
 11
594.6783623176718
 21
200.9582034911007
 31
0.0
  0
LINE
  5
8BAE
330
1A
100
AcDbEntity
  8
SEIHIN
  6
CONTINUOUS
 62
     3
100
AcDbLine
 10
592.3257083562718
 20
202.9582034911007
 30
0.0
 11
597.6783623176718
 21
202.9582034911007
 31
0.0
  0
LINE
  5
8BAF
330
1A
100
AcDbEntity
  8
SEIHIN
  6
CONTINUOUS
 62
     3
100
AcDbLine
 10
597.6783623176718
 20
201.4582034911007
 30
0.0
 11
592.5901988272719
 21
201.4582034911007
 31
0.0
  0
ARC
  5
8BB0
330
1A
100
AcDbEntity
  8
SEIHIN
  6
CONTINUOUS
 62
     3
100
AcDbCircle
 10
602.7180513926716
 20
201.4360944535007
 30
0.0
 40
9.259164227530449
100
AcDbArc
 50
192.4998853422001
 51
209.7388537058965
  0
ARC
  5
8BB1
330
1A
100
AcDbEntity
  8
SEIHIN
  6
CONTINUOUS
 62
     3
100
AcDbCircle
 10
594.6783623176718
 20
199.8082034911007
 30
0.0
 40
1.0
100
AcDbArc
 50
180.0
 51
270.0
  0
LINE
  5
8BB2
330
1A
100
AcDbEntity
  8
SEIHIN
  6
CONTINUOUS
 62
     3
100
AcDbLine
 10
596.1783623176718
 20
198.8082034911007
 30
0.0
 11
594.6783623176718
 21
198.8082034911007
 31
0.0
  0
LINE
  5
8BB3
330
1A
100
AcDbEntity
  8
SEIHIN
  6
CONTINUOUS
 62
     3
100
AcDbLine
 10
594.6783623176718
 20
196.8431083039007
 30
0.0
 11
596.1783623176718
 21
196.8431083039007
 31
0.0
  0
LINE
  5
8BB4
330
1A
100
AcDbEntity
  8
SEIHIN
  6
CONTINUOUS
 62
     3
100
AcDbLine
 10
593.6783623176718
 20
199.4320626125007
 30
0.0
 11
593.6783623176718
 21
199.9669296943007
 31
0.0
  0
LINE
  5
8BB5
330
1A
100
AcDbEntity
  8
SEIHIN
  6
CONTINUOUS
 62
     3
100
AcDbLine
 10
593.6783623176718
 20
199.9669296943007
 30
0.0
 11
593.6783623176718
 21
200.4582034911007
 31
0.0
  0
LINE
  5
8BB6
330
1A
100
AcDbEntity
  8
SEIHIN
  6
CONTINUOUS
 62
     3
100
AcDbLine
 10
593.1783623176718
 20
200.9582034911007
 30
0.0
 11
592.6783623176718
 21
200.9582034911007
 31
0.0
  0
LINE
  5
8BB7
330
1A
100
AcDbEntity
  8
SEIHIN
  6
CONTINUOUS
 62
     3
100
AcDbLine
 10
592.6826232187716
 20
200.9340387198008
 30
0.0
 11
592.5120958628715
 21
201.9011474131007
 31
0.0
  0
LINE
  5
8BB8
330
1A
100
AcDbEntity
  8
SEIHIN
  6
CONTINUOUS
 62
     3
100
AcDbLine
 10
592.5120958628715
 20
201.9011474131007
 30
0.0
 11
591.466891950072
 21
207.8287933618007
 31
0.0
  0
LINE
  5
8BB9
330
1A
100
AcDbEntity
  8
SEIHIN
  6
CONTINUOUS
 62
     3
100
AcDbLine
 10
591.466891950072
 20
207.8287933618007
 30
0.0
 11
591.250113773872
 21
209.0582034911007
 31
0.0
  0
ARC
  5
8BBA
330
1A
100
AcDbEntity
  8
SEIHIN
  6
CONTINUOUS
 62
     3
100
AcDbCircle
 10
593.1783623176718
 20
200.4582034911007
 30
0.0
 40
0.5
100
AcDbArc
 50
0.0
 51
90.0
  0
LINE
  5
8BBB
330
1A
100
AcDbEntity
  8
SEIHIN
  6
CONTINUOUS
 62
     3
100
AcDbLine
 10
594.6783623176718
 20
200.9582034911007
 30
0.0
 11
593.1783623176718
 21
200.9582034911007
 31
0.0
  0
LINE
  5
8BBC
330
1A
100
AcDbEntity
  8
SEIHIN
  6
CONTINUOUS
 62
     3
100
AcDbLine
 10
575.1783623176718
 20
200.9340387198008
 30
0.0
 11
575.1783623176718
 21
199.9756558975008
 31
0.0
  0
LINE
  5
8BBD
330
1A
100
AcDbEntity
  8
SEIHIN
  6
CONTINUOUS
 62
     3
100
AcDbLine
 10
575.1783623176718
 20
201.9011474131007
 30
0.0
 11
575.1783623176718
 21
200.9340387198008
 31
0.0
  0
LINE
  5
8BBE
330
1A
100
AcDbEntity
  8
SEIHIN
  6
CONTINUOUS
 62
     3
100
AcDbLine
 10
575.1783623176718
 20
207.8287933618007
 30
0.0
 11
575.1783623176718
 21
201.9011474131007
 31
0.0
  0
ARC
  5
8BBF
330
1A
100
AcDbEntity
  8
SEIHIN
  6
CONTINUOUS
 62
     3
100
AcDbCircle
 10
574.8033242443718
 20
215.3334744147007
 30
0.0
 40
7.169969747865451
100
AcDbArc
 50
269.0013690757001
 51
272.9983263765008
  0
LINE
  5
8BC0
330
1A
100
AcDbEntity
  8
SEIHIN
  6
CONTINUOUS
 62
     3
100
AcDbLine
 10
575.1783623176718
 20
200.9340387198008
 30
0.0
 11
592.6826232187716
 21
200.9340387198008
 31
0.0
  0
LINE
  5
8BC1
330
1A
100
AcDbEntity
  8
SEIHIN
  6
CONTINUOUS
 62
     3
100
AcDbLine
 10
575.1783623176718
 20
207.8287933618007
 30
0.0
 11
591.466891950072
 21
207.8287933618007
 31
0.0
  0
LINE
  5
8BC2
330
1A
100
AcDbEntity
  8
SEIHIN
  6
CONTINUOUS
 62
     3
100
AcDbLine
 10
597.1783623176718
 20
199.9756558975008
 30
0.0
 11
597.1783623176718
 21
199.0788357175007
 31
0.0
  0
LINE
  5
8BC3
330
1A
100
AcDbEntity
  8
SEIHIN
  6
CONTINUOUS
 62
     3
100
AcDbLine
 10
597.6783623176718
 20
200.9582034911007
 30
0.0
 11
597.1783623176718
 21
200.9582034911007
 31
0.0
  0
LINE
  5
8BC4
330
1A
100
AcDbEntity
  8
SEIHIN
  6
CONTINUOUS
 62
     3
100
AcDbLine
 10
597.1783623176718
 20
199.9756558975008
 30
0.0
 11
597.1783623176718
 21
200.9582034911007
 31
0.0
  0
LINE
  5
8BC5
330
1A
100
AcDbEntity
  8
SEIHIN
  6
CONTINUOUS
 62
     3
100
AcDbLine
 10
597.6783623176718
 20
207.9582034911008
 30
0.0
 11
597.6783623176718
 21
200.9582034911007
 31
0.0
  0
LINE
  5
8BC6
330
1A
100
AcDbEntity
  8
SEIHIN
  6
CONTINUOUS
 62
     3
100
AcDbLine
 10
591.250113773872
 20
213.1130308639007
 30
0.0
 11
591.250113773872
 21
211.7411978802007
 31
0.0
  0
LINE
  5
8BC7
330
1A
100
AcDbEntity
  8
SEIHIN
  6
CONTINUOUS
 62
     3
100
AcDbLine
 10
591.250113773872
 20
213.1130308639007
 30
0.0
 11
591.250113773872
 21
213.5823240937007
 31
0.0
  0
LINE
  5
8BC8
330
1A
100
AcDbEntity
  8
SEIHIN
  6
CONTINUOUS
 62
     3
100
AcDbLine
 10
591.250113773872
 20
213.5823240937007
 30
0.0
 11
591.250113773872
 21
214.0582034911007
 31
0.0
  0
LINE
  5
8BC9
330
1A
100
AcDbEntity
  8
SEIHIN
  6
CONTINUOUS
 62
     3
100
AcDbLine
 10
575.1783623176718
 20
213.1130308639007
 30
0.0
 11
575.1783623176718
 21
211.7411978802007
 31
0.0
  0
LINE
  5
8BCA
330
1A
100
AcDbEntity
  8
SEIHIN
  6
CONTINUOUS
 62
     3
100
AcDbLine
 10
575.1783623176718
 20
213.5823240937007
 30
0.0
 11
575.1783623176718
 21
213.1130308639007
 31
0.0
  0
LINE
  5
8BCB
330
1A
100
AcDbEntity
  8
SEIHIN
  6
CONTINUOUS
 62
     3
100
AcDbLine
 10
575.1783623176718
 20
214.0582034911007
 30
0.0
 11
575.1783623176718
 21
213.5823240937007
 31
0.0
  0
LINE
  5
8BCC
330
1A
100
AcDbEntity
  8
SEIHIN
  6
CONTINUOUS
 62
     3
100
AcDbLine
 10
575.1783623176718
 20
213.1130308639007
 30
0.0
 11
591.250113773872
 21
213.1130308639007
 31
0.0
  0
LINE
  5
8BCD
330
1A
100
AcDbEntity
  8
SEIHIN
  6
CONTINUOUS
 62
     3
100
AcDbLine
 10
591.250113773872
 20
214.0582034911007
 30
0.0
 11
575.1783623176718
 21
214.0582034911007
 31
0.0
  0
LINE
  5
8BCE
330
1A
100
AcDbEntity
  8
SEIHIN
  6
CONTINUOUS
 62
     3
100
AcDbLine
 10
632.6783623176718
 20
209.4843821007007
 30
0.0
 11
632.6783623176718
 21
210.9582034911007
 31
0.0
  0
LINE
  5
8BCF
330
1A
100
AcDbEntity
  8
SEIHIN
  6
CONTINUOUS
 62
     3
100
AcDbLine
 10
546.9088236454719
 20
293.0661289539001
 30
0.0
 11
542.0108525768715
 21
293.0661289539001
 31
0.0
  0
LINE
  5
8BD0
330
1A
100
AcDbEntity
  8
SEIHIN
  6
CONTINUOUS
 62
     3
100
AcDbLine
 10
542.0108525768715
 20
293.0661289539001
 30
0.0
 11
541.0428039444715
 21
293.0661289539001
 31
0.0
  0
LINE
  5
8BD1
330
1A
100
AcDbEntity
  8
SEIHIN
  6
CONTINUOUS
 62
     3
100
AcDbLine
 10
547.1460300578716
 20
293.0661289539001
 30
0.0
 11
546.9088236454719
 21
293.0661289539001
 31
0.0
  0
LINE
  5
8BD2
330
1A
100
AcDbEntity
  8
SEIHIN
  6
CONTINUOUS
 62
     3
100
AcDbLine
 10
547.6453448252715
 20
293.0661289539001
 30
0.0
 11
547.1460300578716
 21
293.0661289539001
 31
0.0
  0
LINE
  5
8BD3
330
1A
100
AcDbEntity
  8
SEIHIN
  6
CONTINUOUS
 62
     3
100
AcDbLine
 10
547.8144316997714
 20
293.0661289539001
 30
0.0
 11
547.6453448252715
 21
293.0661289539001
 31
0.0
  0
LINE
  5
8BD4
330
1A
100
AcDbEntity
  8
SEIHIN
  6
CONTINUOUS
 62
     3
100
AcDbLine
 10
549.6558478710718
 20
293.0661289539001
 30
0.0
 11
547.8144316997714
 21
293.0661289539001
 31
0.0
  0
ARC
  5
8BD5
330
1A
100
AcDbEntity
  8
SEIHIN
  6
CONTINUOUS
 62
     3
100
AcDbCircle
 10
547.4127639564718
 20
358.0631949743001
 30
0.0
 40
10.04008962102133
100
AcDbArc
 50
227.9613215190062
 51
252.4191216638011
  0
LINE
  5
8BD6
330
1A
100
AcDbEntity
  8
SEIHIN
  6
CONTINUOUS
 62
     3
100
AcDbLine
 10
544.6304741052719
 20
350.4356581815001
 30
0.0
 11
546.6241769841718
 21
348.4419553026
 31
0.0
  0
ARC
  5
8BD7
330
1A
100
AcDbEntity
  8
SEIHIN
  6
CONTINUOUS
 62
     3
100
AcDbCircle
 10
543.2027879287717
 20
358.0486829098
 30
0.0
 40
10.01008708592639
100
AcDbArc
 50
180.1537424691004
 51
252.6848539303977
  0
ARC
  5
8BD8
330
1A
100
AcDbEntity
  8
SEIHIN
  6
CONTINUOUS
 62
     3
100
AcDbCircle
 10
546.7917803403716
 20
348.5516684267001
 30
0.0
 40
2.275741415260279
100
AcDbArc
 50
5.149841941100312
 51
55.87928339449327
  0
LINE
  5
8BD9
330
1A
100
AcDbEntity
  8
SEIHIN
  6
CONTINUOUS
 62
     3
100
AcDbLine
 10
549.6558478710718
 20
348.1531759015001
 30
0.0
 11
549.1377482009717
 21
348.4375617383002
 31
0.0
  0
LINE
  5
8BDA
330
1A
100
AcDbEntity
  8
SEIHIN
  6
CONTINUOUS
 62
     3
100
AcDbLine
 10
546.6241769841718
 20
345.6330924695001
 30
0.0
 11
542.0748397631715
 21
345.6333674147001
 31
0.0
  0
ARC
  5
8BDB
330
1A
100
AcDbEntity
  8
SEIHIN
  6
CONTINUOUS
 62
     3
100
AcDbCircle
 10
539.2840170057716
 20
345.8549702439001
 30
0.0
 40
2.799607021921413
100
AcDbArc
 50
355.4600045523993
 51
70.3921002497992
  0
LWPOLYLINE
  5
8BDC
330
1A
100
AcDbEntity
  8
SEIHIN
  6
CONTINUOUS
 62
     3
100
AcDbPolyline
 90
        3
 70
   128
 43
0.0
 10
542.0748397631715
 20
345.6333674147001
 10
542.0290580800716
 20
344.5565409750001
 10
542.0108525768715
 20
343.2105837064002
  0
LINE
  5
8BDD
330
1A
100
AcDbEntity
  8
SEIHIN
  6
CONTINUOUS
 62
     3
100
AcDbLine
 10
544.3801372169715
 20
348.492062614
 30
0.0
 11
544.6304741052719
 21
348.4003540023001
 31
0.0
  0
ARC
  5
8BDE
330
1A
100
AcDbEntity
  8
SEIHIN
  6
CONTINUOUS
 62
     3
100
AcDbCircle
 10
543.3804319675715
 20
345.3979249618001
 30
0.0
 40
3.252258521242496
100
AcDbArc
 50
4.14661843599913
 51
67.39590863790667
  0
LINE
  5
8BDF
330
1A
100
AcDbEntity
  8
SEIHIN
  6
CONTINUOUS
 62
     3
100
AcDbLine
 10
546.6241769841718
 20
348.4419553026
 30
0.0
 11
546.6241769841718
 21
345.6330924695001
 31
0.0
  0
LINE
  5
8BE0
330
1A
100
AcDbEntity
  8
SEIHIN
  6
CONTINUOUS
 62
     3
100
AcDbLine
 10
546.9088236454719
 20
348.2844336685001
 30
0.0
 11
546.6298519379717
 21
348.4375617383002
 31
0.0
  0
LINE
  5
8BE1
330
1A
100
AcDbEntity
  8
SEIHIN
  6
CONTINUOUS
 62
     3
100
AcDbLine
 10
546.9088236454719
 20
348.2844336685001
 30
0.0
 11
547.0706189737717
 21
348.1496419126
 31
0.0
  0
ARC
  5
8BE2
330
1A
100
AcDbEntity
  8
SEIHIN
  6
CONTINUOUS
 62
     3
100
AcDbCircle
 10
552.2357700519716
 20
348.6675084423001
 30
0.0
 40
5.2346989830307
100
AcDbArc
 50
193.5151752490989
 51
208.7266762239007
  0
LINE
  5
8BE3
330
1A
100
AcDbEntity
  8
SEIHIN
  6
CONTINUOUS
 62
     3
100
AcDbLine
 10
549.1377482009717
 20
348.4375617383002
 30
0.0
 11
546.6298519379717
 21
348.4375617383002
 31
0.0
  0
LINE
  5
8BE4
330
1A
100
AcDbEntity
  8
SEIHIN
  6
CONTINUOUS
 62
     3
100
AcDbLine
 10
582.5339057704479
 20
383.7336532400473
 30
0.0
 11
632.6783605229435
 21
383.7336734597428
 31
0.0
  0
LINE
  5
8BE5
330
1A
100
AcDbEntity
  8
SEIHIN
  6
CONTINUOUS
 62
     3
100
AcDbLine
 10
577.5913166580314
 20
376.0886559528517
 30
0.0
 11
632.6783636056271
 21
376.0886781655435
 31
0.0
  0
LINE
  5
8BE6
330
1A
100
AcDbEntity
  8
SEIHIN
  6
CONTINUOUS
 62
     3
100
AcDbLine
 10
579.5929462794385
 20
378.0991598057668
 30
0.0
 11
632.6783627949335
 21
378.0991812113433
 31
0.0
  0
LINE
  5
8BE7
330
1A
100
AcDbEntity
  8
SEIHIN
  6
CONTINUOUS
 62
     3
100
AcDbLine
 10
533.1927368799717
 20
378.5958104539001
 30
0.0
 11
533.1927368799717
 21
358.0218227524001
 31
0.0
  0
LINE
  5
8BE8
330
1A
100
AcDbEntity
  8
SEIHIN
  6
CONTINUOUS
 62
     3
100
AcDbLine
 10
539.4518164401716
 20
372.3367308936
 30
0.0
 11
539.4518164401716
 21
358.0219824186
 31
0.0
  0
LINE
  5
8BE9
330
1A
100
AcDbEntity
  8
SEIHIN
  6
CONTINUOUS
 62
     3
100
AcDbLine
 10
542.9628652247717
 20
370.8193883859001
 30
0.0
 11
542.9628652247717
 21
358.5661289539002
 31
0.0
  0
ARC
  5
8BEA
330
1A
100
AcDbEntity
  8
SEIHIN
  6
CONTINUOUS
 62
     3
100
AcDbCircle
 10
548.0351876807718
 20
356.4670447861
 30
0.0
 40
5.787579878820177
100
AcDbArc
 50
221.8644025131006
 51
263.3861241053033
  0
ARC
  5
8BEB
330
1A
100
AcDbEntity
  8
SEIHIN
  6
CONTINUOUS
 62
     3
100
AcDbCircle
 10
543.2685119138715
 20
354.2066868167001
 30
0.0
 40
4.428567317104701
100
AcDbArc
 50
201.2086096731976
 51
234.3849818463996
  0
LWPOLYLINE
  5
8BEC
330
1A
100
AcDbEntity
  8
SEIHIN
  6
CONTINUOUS
 62
     3
100
AcDbPolyline
 90
        3
 70
   128
 43
0.0
 10
548.0683310025717
 20
350.4356581815001
 10
548.0475810538715
 20
350.4488477307001
 10
547.7402846674713
 20
350.6064912125002
  0
LINE
  5
8BED
330
1A
100
AcDbEntity
  8
SEIHIN
  6
CONTINUOUS
 62
     3
100
AcDbLine
 10
544.6304741052719
 20
350.4356581815001
 30
0.0
 11
548.0683310025717
 21
350.4356581815001
 31
0.0
  0
LINE
  5
8BEE
330
1A
100
AcDbEntity
  8
SEIHIN
  6
CONTINUOUS
 62
     3
100
AcDbLine
 10
547.3685874133717
 20
350.7179818244
 30
0.0
 11
547.7402846674713
 21
350.6064912125002
 31
0.0
  0
LWPOLYLINE
  5
8BEF
330
1A
100
AcDbEntity
  8
SEIHIN
  6
CONTINUOUS
 62
     3
100
AcDbPolyline
 90
        6
 70
   128
 43
0.0
 10
543.5474832350715
 20
355.5686596500001
 10
543.8699204632718
 20
354.8514029638001
 10
544.2011950435718
 20
354.2332644733001
 10
544.4732895848716
 20
353.7737711690001
 10
544.5649688407717
 20
353.6010964604001
 10
544.5677442583716
 20
353.5705632068001
  0
LINE
  5
8BF0
330
1A
100
AcDbEntity
  8
SEIHIN
  6
CONTINUOUS
 62
     3
100
AcDbLine
 10
544.5677442583716
 20
353.5705632068001
 30
0.0
 11
540.3484083103718
 21
353.5705632068001
 31
0.0
  0
LINE
  5
8BF1
330
1A
100
AcDbEntity
  8
SEIHIN
  6
CONTINUOUS
 62
     3
100
AcDbLine
 10
539.1398917510715
 20
352.6045876556001
 30
0.0
 11
543.7250246015715
 21
352.6045876556001
 31
0.0
  0
ARC
  5
8BF2
330
1A
100
AcDbEntity
  8
SEIHIN
  6
CONTINUOUS
 62
     3
100
AcDbCircle
 10
636.0795752595715
 20
382.9252524278
 30
0.0
 40
100.1306834379241
100
AcDbArc
 50
195.8553040386027
 51
197.0474619408003
  0
LINE
  5
8BF3
330
1A
100
AcDbEntity
  8
SEIHIN
  6
CONTINUOUS
 62
     3
100
AcDbLine
 10
539.4518164401716
 20
358.0219824186
 30
0.0
 11
539.7583906876717
 21
355.5686596500001
 31
0.0
  0
LINE
  5
8BF4
330
1A
100
AcDbEntity
  8
SEIHIN
  6
CONTINUOUS
 62
     3
100
AcDbLine
 10
554.9251014748289
 20
382.7816294594782
 30
0.0
 11
567.178360906828
 21
382.781634400347
 31
0.0
  0
LINE
  5
8BF5
330
1A
100
AcDbEntity
  8
SEIHIN
  6
CONTINUOUS
 62
     3
100
AcDbLine
 10
553.4077575513726
 20
386.2926776322415
 30
0.0
 11
567.7225060263714
 21
386.2926834043625
 31
0.0
  0
LINE
  5
8BF6
330
1A
100
AcDbEntity
  8
SEIHIN
  6
CONTINUOUS
 62
     3
100
AcDbLine
 10
547.148675467231
 20
392.551754668599
 30
0.0
 11
567.7226631687291
 21
392.5517629646263
 31
0.0
  0
ARC
  5
8BF7
330
1A
100
AcDbEntity
  8
SEIHIN
  6
CONTINUOUS
 62
     3
100
AcDbCircle
 10
547.0725488688714
 20
378.6470784930001
 30
0.0
 40
13.87990667336215
100
AcDbArc
 50
134.9274244017065
 51
180.2116331911996
  0
ARC
  5
8BF8
330
1A
100
AcDbEntity
  8
SEIHIN
  6
CONTINUOUS
 62
     3
100
AcDbCircle
 10
547.0973151497715
 20
378.6721789110001
 30
0.0
 40
13.8796705276338
100
AcDbArc
 50
89.78796018990289
 51
135.0729822171943
  0
ARC
  5
8BF9
330
1A
100
AcDbEntity
  8
SEIHIN
  6
CONTINUOUS
 62
     3
100
AcDbCircle
 10
567.6958070476717
 20
382.5417119049962
 30
0.0
 40
10.01008708592639
100
AcDbArc
 50
17.31516917292
 51
89.84628063421927
  0
LWPOLYLINE
  5
8BFA
330
1A
100
AcDbEntity
  8
SEIHIN
  6
CONTINUOUS
 62
     3
100
AcDbPolyline
 90
        3
 70
   128
 43
0.0
 10
580.1111220879493
 20
383.6696650768107
 10
581.1879485091886
 20
383.7154471941184
 10
582.5339057704479
 20
383.7336532400473
  0
LINE
  5
8BFB
330
1A
100
AcDbEntity
  8
SEIHIN
  6
CONTINUOUS
 62
     3
100
AcDbLine
 10
567.7225060263714
 20
386.2926834043625
 30
0.0
 11
570.175828918591
 21
385.9861101461131
 31
0.0
  0
ARC
  5
8BFC
330
1A
100
AcDbEntity
  8
SEIHIN
  6
CONTINUOUS
 62
     3
100
AcDbCircle
 10
542.8192749802825
 20
289.664914543251
 30
0.0
 40
100.1306834379241
100
AcDbArc
 50
72.95256116251323
 51
74.14471906471188
  0
ARC
  5
8BFD
330
1A
100
AcDbEntity
  8
SEIHIN
  6
CONTINUOUS
 62
     3
100
AcDbCircle
 10
571.5378031672732
 20
382.4759894691002
 30
0.0
 40
4.428567317104701
100
AcDbArc
 50
35.6150412569239
 51
68.79141343012001
  0
ARC
  5
8BFE
330
1A
100
AcDbEntity
  8
SEIHIN
  6
CONTINUOUS
 62
     3
100
AcDbCircle
 10
577.0769851575306
 20
373.5087335645582
 30
0.0
 40
5.2346989830307
100
AcDbArc
 50
61.27334687941402
 51
76.48484785422041
  0
LINE
  5
8BFF
330
1A
100
AcDbEntity
  8
SEIHIN
  6
CONTINUOUS
 62
     3
100
AcDbLine
 10
577.4600577833517
 20
378.8356801255245
 30
0.0
 11
577.5948496044922
 21
378.6738848515764
 31
0.0
  0
LINE
  5
8C00
330
1A
100
AcDbEntity
  8
SEIHIN
  6
CONTINUOUS
 62
     3
100
AcDbLine
 10
577.4600577833517
 20
378.8356801255245
 30
0.0
 11
577.3069296010622
 21
379.1146517712789
 31
0.0
  0
LINE
  5
8C01
330
1A
100
AcDbEntity
  8
SEIHIN
  6
CONTINUOUS
 62
     3
100
AcDbLine
 10
577.3069306123185
 20
376.6067555082791
 30
0.0
 11
577.3069296010622
 21
379.1146517712789
 31
0.0
  0
LINE
  5
8C02
330
1A
100
AcDbEntity
  8
SEIHIN
  6
CONTINUOUS
 62
     3
100
AcDbLine
 10
577.5913166580314
 20
376.0886559528517
 30
0.0
 11
577.3069306123185
 21
376.6067555082791
 31
0.0
  0
LINE
  5
8C03
330
1A
100
AcDbEntity
  8
SEIHIN
  6
CONTINUOUS
 62
     3
100
AcDbLine
 10
577.3025360344737
 20
379.1203267233072
 30
0.0
 11
580.1113988675735
 21
379.1203278559222
 31
0.0
  0
LINE
  5
8C04
330
1A
100
AcDbEntity
  8
SEIHIN
  6
CONTINUOUS
 62
     3
100
AcDbLine
 10
577.2524278182118
 20
381.3643664703024
 30
0.0
 11
577.3441365308555
 21
381.1140296189819
 31
0.0
  0
LWPOLYLINE
  5
8C05
330
1A
100
AcDbEntity
  8
SEIHIN
  6
CONTINUOUS
 62
     3
100
AcDbPolyline
 90
        6
 70
   128
 43
0.0
 10
570.1758304464625
 20
382.1970175987135
 10
570.8930872626784
 20
381.8745806597323
 10
571.5112258867576
 20
381.5433063286835
 10
571.9707193007744
 20
381.2712119726644
 10
572.1433940463422
 20
381.179532786392
 10
572.1739273010613
 20
381.1767573811038
  0
ARC
  5
8C06
330
1A
100
AcDbEntity
  8
SEIHIN
  6
CONTINUOUS
 62
     3
100
AcDbCircle
 10
569.2774471199351
 20
377.709312790759
 30
0.0
 40
5.787579878820177
100
AcDbArc
 50
6.613898998012121
 51
48.13562059022346
  0
LINE
  5
8C07
330
1A
100
AcDbEntity
  8
SEIHIN
  6
CONTINUOUS
 62
     3
100
AcDbLine
 10
575.0265098128421
 20
378.3759153763475
 30
0.0
 11
575.138000574621
 21
378.0042181672038
 31
0.0
  0
LINE
  5
8C08
330
1A
100
AcDbEntity
  8
SEIHIN
  6
CONTINUOUS
 62
     3
100
AcDbLine
 10
575.3088323516554
 20
381.1140287982884
 30
0.0
 11
575.3088337378986
 21
377.6761719009887
 31
0.0
  0
ARC
  5
8C09
330
1A
100
AcDbEntity
  8
SEIHIN
  6
CONTINUOUS
 62
     3
100
AcDbCircle
 10
577.1928229779565
 20
378.9527233228678
 30
0.0
 40
2.275741415260279
100
AcDbArc
 50
214.1207397088114
 51
264.8501811622157
  0
LWPOLYLINE
  5
8C0A
330
1A
100
AcDbEntity
  8
SEIHIN
  6
CONTINUOUS
 62
     3
100
AcDbPolyline
 90
        3
 70
   128
 43
0.0
 10
575.3088337378986
 20
377.6761719009887
 10
575.2956441803318
 20
377.6969218443703
 10
575.138000574621
 20
378.0042181672038
  0
ARC
  5
8C0B
330
1A
100
AcDbEntity
  8
SEIHIN
  6
CONTINUOUS
 62
     3
100
AcDbCircle
 10
580.3465650673016
 20
382.3640729673481
 30
0.0
 40
3.252258521242496
100
AcDbArc
 50
202.6041144654159
 51
265.8534046673193
  0
LINE
  5
8C0C
330
1A
100
AcDbEntity
  8
SEIHIN
  6
CONTINUOUS
 62
     3
100
AcDbLine
 10
575.3088323516554
 20
381.1140287982884
 30
0.0
 11
577.3025360344737
 21
379.1203267233072
 31
0.0
  0
LINE
  5
8C0D
330
1A
100
AcDbEntity
  8
SEIHIN
  6
CONTINUOUS
 62
     3
100
AcDbLine
 10
572.1739273010613
 20
381.1767573811038
 30
0.0
 11
572.1739255997028
 21
385.3960933291034
 31
0.0
  0
ARC
  5
8C0E
330
1A
100
AcDbEntity
  8
SEIHIN
  6
CONTINUOUS
 62
     3
100
AcDbCircle
 10
567.6812966807557
 20
378.3317358714449
 30
0.0
 40
10.04008962102133
100
AcDbArc
 50
17.58090143951345
 51
42.03870158431331
  0
LINE
  5
8C0F
330
1A
100
AcDbEntity
  8
SEIHIN
  6
CONTINUOUS
 62
     3
100
AcDbLine
 10
580.1113988675735
 20
379.1203278559222
 30
0.0
 11
580.1111220879493
 21
383.6696650768107
 31
0.0
  0
LINE
  5
8C10
330
1A
100
AcDbEntity
  8
SEIHIN
  6
CONTINUOUS
 62
     3
100
AcDbLine
 10
573.1399006635939
 20
386.6046102779127
 30
0.0
 11
573.139902512452
 21
382.0194774274131
 31
0.0
  0
ARC
  5
8C11
330
1A
100
AcDbEntity
  8
SEIHIN
  6
CONTINUOUS
 62
     3
100
AcDbCircle
 10
579.8895181334088
 20
386.460487744854
 30
0.0
 40
2.799607021921413
100
AcDbArc
 50
199.6079228535168
 51
274.5400185509211
  0
LINE
  5
8C12
330
1A
100
AcDbEntity
  8
SEIHIN
  6
CONTINUOUS
 62
     3
100
AcDbLine
 10
632.6783605229435
 20
383.7336734597428
 30
0.0
 11
632.6783601325984
 21
384.7017220921427
 31
0.0
  0
LINE
  5
8C13
330
1A
100
AcDbEntity
  8
SEIHIN
  6
CONTINUOUS
 62
     3
100
AcDbLine
 10
632.6783636056271
 20
376.0886781655435
 30
0.0
 11
632.6783628631147
 21
377.9300943368434
 31
0.0
  0
LINE
  5
8C14
330
1A
100
AcDbEntity
  8
SEIHIN
  6
CONTINUOUS
 62
     3
100
AcDbLine
 10
632.6783628631147
 20
377.9300943368434
 30
0.0
 11
632.6783627949335
 21
378.0991812113433
 31
0.0
  0
LINE
  5
8C15
330
1A
100
AcDbEntity
  8
SEIHIN
  6
CONTINUOUS
 62
     3
100
AcDbLine
 10
632.6783627949335
 20
378.0991812113433
 30
0.0
 11
632.6783625935956
 21
378.5984959787433
 31
0.0
  0
LINE
  5
8C16
330
1A
100
AcDbEntity
  8
SEIHIN
  6
CONTINUOUS
 62
     3
100
AcDbLine
 10
632.6783625935956
 20
378.5984959787433
 30
0.0
 11
632.6783624979472
 21
378.8357023911433
 31
0.0
  0
LINE
  5
8C17
330
1A
100
AcDbEntity
  8
SEIHIN
  6
CONTINUOUS
 62
     3
100
AcDbLine
 10
632.6783624979472
 20
378.8357023911433
 30
0.0
 11
632.6783605229435
 21
383.7336734597428
 31
0.0
  0
ELLIPSE
  5
8C18
330
1A
100
AcDbEntity
  8
SEIHIN
  6
CONTINUOUS
 62
     3
100
AcDbEllipse
 10
591.4730052766755
 20
482.3706025014591
 30
0.0
 11
-0.0000016129159206
 21
3.999999999999685
 31
0.0
210
0.0
220
0.0
230
-1.0
 40
0.1763269807002038
 41
3.150319299850011
 42
3.463186470409803
  0
ELLIPSE
  5
8C19
330
1A
100
AcDbEntity
  8
SEIHIN
  6
CONTINUOUS
 62
     3
100
AcDbEllipse
 10
592.5105176082021
 20
477.3190635220135
 30
0.0
 11
-0.0000004032287738
 21
0.9999999999999094
 31
0.0
210
0.0
220
0.0
230
-1.0
 40
0.1763269807000557
 41
0.0087266462584144
 42
1.350511393224893
  0
ELLIPSE
  5
8C1A
330
1A
100
AcDbEntity
  8
SEIHIN
  6
CONTINUOUS
 62
     3
100
AcDbEllipse
 10
592.8546495910851
 20
477.7560790210776
 30
0.0
 11
-0.0000004032357384
 21
1.000000000153803
 31
0.0
210
0.0
220
0.0
230
-1.0
 40
0.1763269806730765
 41
4.49210404685022
 42
4.71238898038589
  0
ELLIPSE
  5
8C1B
330
1A
100
AcDbEntity
  8
SEIHIN
  6
CONTINUOUS
 62
     3
100
AcDbEllipse
 10
591.4721238472799
 20
482.4010949660036
 30
0.0
 11
-0.000000604843769
 21
1.499999999999893
 31
0.0
210
0.0
220
0.0
230
-1.0
 40
0.1763269807002825
 41
3.15031929985049
 42
4.138037851362276
  0
ELLIPSE
  5
8C1C
330
1A
100
AcDbEntity
  8
SEIHIN
  6
CONTINUOUS
 62
     3
100
AcDbEllipse
 10
600.6783229571834
 20
476.8960273165091
 30
0.0
 11
1.5
 21
0.0000006048434348
 31
0.0
210
0.0
220
0.0
230
-1.0
 40
0.0174550648999959
 41
3.141592653590596
 42
4.7123889803848
  0
ELLIPSE
  5
8C1D
330
1A
100
AcDbEntity
  8
SEIHIN
  6
CONTINUOUS
 62
     3
100
AcDbEllipse
 10
600.6783222214709
 20
478.7205802274089
 30
0.0
 11
2.999999999999545
 21
0.0000012096868695
 31
0.0
210
0.0
220
0.0
230
-1.0
 40
0.069926811900005
 41
1.570796326794953
 42
3.141592653589942
  0
LINE
  5
8C1E
330
1A
100
AcDbEntity
  8
SEIHIN
  6
CONTINUOUS
 62
     3
100
AcDbLine
 10
574.6783304252009
 20
458.3754830785579
 30
0.0
 11
467.8690193691564
 21
458.3754400099523
 31
0.0
  0
LINE
  5
8C1F
330
1A
100
AcDbEntity
  8
CENTER_L1
  6
CENTER
 48
10.0
100
AcDbLine
 10
637.4101382459476
 20
415.3026364349613
 30
0.0
 11
501.1377176910301
 21
415.3025814859771
 31
0.0
  0
LINE
  5
8C20
330
1A
100
AcDbEntity
  8
SEIHIN
  6
CONTINUOUS
 62
     3
100
AcDbLine
 10
426.8985015224476
 20
498.8458941329148
 30
0.0
 11
577.6783141063357
 21
498.8459541252415
 31
0.0
  0
LINE
  5
8C21
330
1A
100
AcDbEntity
  8
SEIHIN
  6
CONTINUOUS
 62
     3
100
AcDbLine
 10
428.5752965451998
 20
496.1108428007468
 30
0.0
 11
574.6783152091881
 21
496.1109009072549
 31
0.0
  0
LINE
  5
8C22
330
1A
100
AcDbEntity
  8
SEIHIN
  6
CONTINUOUS
 62
     3
100
AcDbLine
 10
433.0448793041852
 20
491.199566839283
 30
0.0
 11
574.6783171895573
 21
491.1996231449553
 31
0.0
  0
LINE
  5
8C23
330
1A
100
AcDbEntity
  8
SEIHIN
  6
CONTINUOUS
 62
     3
100
AcDbLine
 10
446.0758979358612
 20
478.6305495939944
 30
0.0
 11
574.6783222577511
 21
478.6306006437563
 31
0.0
  0
LINE
  5
8C24
330
1A
100
AcDbEntity
  8
SEIHIN
  6
CONTINUOUS
 62
     3
100
AcDbLine
 10
574.6783328445745
 20
452.3754830785584
 30
0.0
 11
473.8690193691565
 21
452.3754424293255
 31
0.0
  0
LINE
  5
8C25
330
1A
100
AcDbEntity
  8
SEIHIN
  6
CONTINUOUS
 62
     3
100
AcDbLine
 10
574.6783351441423
 20
446.672598834759
 30
0.0
 11
480.01567421545
 21
446.6725606640341
 31
0.0
  0
ARC
  5
8C2F
330
1A
100
AcDbEntity
  8
SEIHIN
  6
CONTINUOUS
 62
     3
100
AcDbCircle
 10
480.1478718881718
 20
445.5966193835001
 30
0.0
 40
1.084055504189637
100
AcDbArc
 50
97.00305478769365
 51
172.9969452122996
  0
LINE
  5
8C30
330
1A
100
AcDbEntity
  8
SEIHIN
100
AcDbLine
 10
466.1012557000064
 20
459.6432100451149
 30
0.0
 11
446.1650330860717
 21
477.5794581855001
 31
0.0
  0
ARC
  5
8C31
330
1A
100
AcDbEntity
  8
SEIHIN
  6
CONTINUOUS
 62
     3
100
AcDbCircle
 10
467.869019570771
 20
457.8754400099524
 30
0.0
 40
0.5
100
AcDbArc
 50
90.00002310332121
 51
180.0
  0
ARC
  5
8C32
330
1A
100
AcDbEntity
  8
SEIHIN
  6
CONTINUOUS
 62
     3
100
AcDbCircle
 10
473.869019570771
 20
451.8754424293256
 30
0.0
 40
0.5
100
AcDbArc
 50
90.00002310332121
 51
180.0
  0
ARC
  5
8C33
330
1A
100
AcDbEntity
  8
SEIHIN
  6
CONTINUOUS
 62
     3
100
AcDbCircle
 10
433.0448795043714
 20
490.699566839283
 30
0.0
 40
0.5
100
AcDbArc
 50
90.00002293961701
 51
180.0
  0
LINE
  5
8C34
330
1A
100
AcDbEntity
  8
SEIHIN
  6
CONTINUOUS
 62
     3
100
AcDbLine
 10
432.5448795043718
 20
491.1995665918145
 30
0.0
 11
427.9434165596022
 21
495.8010276941073
 31
0.0
  0
ARC
  5
8C35
330
1A
100
AcDbEntity
  8
SEIHIN
  6
CONTINUOUS
 62
     3
100
AcDbCircle
 10
426.8985497337718
 20
496.8459415378001
 30
0.0
 40
2.0
100
AcDbArc
 50
90.0
 51
180.0
  0
ARC
  5
8C36
330
1A
100
AcDbEntity
  8
SEIHIN
  6
CONTINUOUS
 62
     3
100
AcDbCircle
 10
428.7123866020716
 20
495.0321046695
 30
0.0
 40
1.087454616977993
100
AcDbArc
 50
97.23976514649477
 51
172.7602348535022
  0
ARC
  5
8C37
330
1A
100
AcDbEntity
  8
SEIHIN
  6
CONTINUOUS
 62
     3
100
AcDbCircle
 10
446.1650330860717
 20
477.5794581855001
 30
0.0
 40
1.05490022445352
100
AcDbArc
 50
94.84487631650173
 51
175.155123683498
  0
LINE
  5
8C38
330
1A
100
AcDbEntity
  8
SEIHIN
  6
CONTINUOUS
 62
     3
100
AcDbLine
 10
632.678333917229
 20
449.7153327112375
 30
0.0
 11
632.6783329311089
 21
452.1608907623373
 31
0.0
  0
LINE
  5
8C39
330
1A
100
AcDbEntity
  8
SEIHIN
  6
CONTINUOUS
 62
     3
100
AcDbLine
 10
575.1783329311134
 20
452.1608675766731
 30
0.0
 11
575.1783339172335
 21
449.7153095255732
 31
0.0
  0
LINE
  5
8C3A
330
1A
100
AcDbEntity
  8
SEIHIN
  6
CONTINUOUS
 62
     3
100
AcDbLine
 10
575.1783339172335
 20
449.7153095255732
 30
0.0
 11
632.678333917229
 21
449.7153327112375
 31
0.0
  0
LINE
  5
8C3B
330
1A
100
AcDbEntity
  8
SEIHIN
  6
CONTINUOUS
 62
     3
100
AcDbLine
 10
632.6783346741905
 20
447.8380813706378
 30
0.0
 11
575.1783346741955
 21
447.8380581849735
 31
0.0
  0
LINE
  5
8C3C
330
1A
100
AcDbEntity
  8
SEIHIN
  6
CONTINUOUS
 62
     3
100
AcDbLine
 10
632.6783359391389
 20
444.7010346562379
 30
0.0
 11
575.1783359391435
 21
444.7010114705736
 31
0.0
  0
LINE
  5
8C3D
330
1A
100
AcDbEntity
  8
SEIHIN
  6
CONTINUOUS
 62
     3
100
AcDbLine
 10
575.1783346741955
 20
447.8380581849735
 30
0.0
 11
575.1783359391435
 21
444.7010114705736
 31
0.0
  0
LINE
  5
8C3E
330
1A
100
AcDbEntity
  8
SEIHIN
  6
CONTINUOUS
 62
     3
100
AcDbLine
 10
575.1783339172335
 20
449.7153095255732
 30
0.0
 11
575.1783346741955
 21
447.8380581849735
 31
0.0
  0
ARC
  5
8C3F
330
1A
100
AcDbEntity
  8
SEIHIN
  6
CONTINUOUS
 62
     3
100
AcDbCircle
 10
574.6919911075598
 20
446.1862310952654
 30
0.0
 40
0.4865594140608683
100
AcDbArc
 50
1.704095464916696
 51
91.6082965537204
  0
LINE
  5
8C40
330
1A
100
AcDbEntity
  8
SEIHIN
  6
CONTINUOUS
 62
     3
100
AcDbLine
 10
632.6783359391389
 20
444.7010346562379
 30
0.0
 11
632.6783346741905
 21
447.8380813706378
 31
0.0
  0
LINE
  5
8C41
330
1A
100
AcDbEntity
  8
SEIHIN
  6
CONTINUOUS
 62
     3
100
AcDbLine
 10
632.6783346741905
 20
447.8380813706378
 30
0.0
 11
632.678333917229
 21
449.7153327112375
 31
0.0
  0
LINE
  5
8C42
330
1A
100
AcDbEntity
  8
SEIHIN
  6
CONTINUOUS
 62
     3
100
AcDbLine
 10
632.6783363073965
 20
443.787762400838
 30
0.0
 11
632.6783359391389
 21
444.7010346562379
 31
0.0
  0
LINE
  5
8C43
330
1A
100
AcDbEntity
  8
SEIHIN
  6
CONTINUOUS
 62
     3
100
AcDbLine
 10
592.1783188786149
 20
487.0107963641623
 30
0.0
 11
632.6783188786118
 21
487.0108126949346
 31
0.0
  0
LINE
  5
8C44
330
1A
100
AcDbEntity
  8
SEIHIN
  6
CONTINUOUS
 62
     3
100
AcDbLine
 10
632.6783201189451
 20
483.9348094333348
 30
0.0
 11
594.6783201189483
 21
483.934794110635
 31
0.0
  0
LINE
  5
8C45
330
1A
100
AcDbEntity
  8
SEIHIN
  6
CONTINUOUS
 62
     3
100
AcDbLine
 10
592.1783170640848
 20
491.5107963641618
 30
0.0
 11
632.6783170640811
 21
491.5108126949341
 31
0.0
  0
LINE
  5
8C46
330
1A
100
AcDbEntity
  8
SEIHIN
  6
CONTINUOUS
 62
     3
100
AcDbLine
 10
632.6783231148511
 20
476.5050199370353
 30
0.0
 11
575.1783231148562
 21
476.504996751371
 31
0.0
  0
LINE
  5
8C47
330
1A
100
AcDbEntity
  8
SEIHIN
  6
CONTINUOUS
 62
     3
100
AcDbLine
 10
632.6783220240923
 20
479.210080814335
 30
0.0
 11
597.6783220240955
 21
479.210066701322
 31
0.0
  0
LINE
  5
8C48
330
1A
100
AcDbEntity
  8
SEIHIN
  6
CONTINUOUS
 62
     3
100
AcDbLine
 10
600.6783223060603
 20
478.510799791609
 30
0.0
 11
632.6783223060576
 21
478.5108126949352
 31
0.0
  0
LINE
  5
8C49
330
1A
100
AcDbEntity
  8
SEIHIN
  6
CONTINUOUS
 62
     3
100
AcDbLine
 10
600.6783229466256
 20
476.922209913909
 30
0.0
 11
632.6783229466228
 21
476.9222228172353
 31
0.0
  0
LINE
  5
8C4A
330
1A
100
AcDbEntity
  8
SEIHIN
  6
CONTINUOUS
 62
     3
100
AcDbLine
 10
575.1783299743362
 20
459.4936183508725
 30
0.0
 11
632.6783299743316
 21
459.4936415365368
 31
0.0
  0
LINE
  5
8C4B
330
1A
100
AcDbEntity
  8
SEIHIN
  6
CONTINUOUS
 62
     3
100
AcDbLine
 10
632.6783329311089
 20
452.1608907623373
 30
0.0
 11
575.1783329311134
 21
452.1608675766731
 31
0.0
  0
ARC
  5
8C4C
330
1A
100
AcDbEntity
  8
SEIHIN
  6
CONTINUOUS
 62
     3
100
AcDbCircle
 10
599.178208132386
 20
478.3959124917195
 30
0.0
 40
1.499885784416495
100
AcDbArc
 50
180.0043869803142
 51
270.004386315616
  0
LINE
  5
8C4D
330
1A
100
AcDbEntity
  8
SEIHIN
  6
CONTINUOUS
 62
     3
100
AcDbLine
 10
575.1783230135539
 20
476.756224198271
 30
0.0
 11
575.1783231148562
 21
476.504996751371
 31
0.0
  0
LINE
  5
8C4E
330
1A
100
AcDbEntity
  8
SEIHIN
  6
CONTINUOUS
 62
     3
100
AcDbLine
 10
575.1783231148562
 20
476.504996751371
 30
0.0
 11
575.1783296626573
 21
460.2665758240722
 31
0.0
  0
LINE
  5
8C4F
330
1A
100
AcDbEntity
  8
SEIHIN
  6
CONTINUOUS
 62
     3
100
AcDbLine
 10
575.1783296626573
 20
460.2665758240722
 30
0.0
 11
575.1783299743362
 21
459.4936183508725
 31
0.0
  0
LINE
  5
8C50
330
1A
100
AcDbEntity
  8
SEIHIN
  6
CONTINUOUS
 62
     3
100
AcDbLine
 10
574.6783328445745
 20
452.3754830785584
 30
0.0
 11
575.1783328445745
 21
452.375483280173
 31
0.0
  0
LINE
  5
8C51
330
1A
100
AcDbEntity
  8
SEIHIN
  6
CONTINUOUS
 62
     3
100
AcDbLine
 10
575.1783299743362
 20
459.4936183508725
 30
0.0
 11
575.1783329311134
 21
452.1608675766731
 31
0.0
  0
LINE
  5
8C52
330
1A
100
AcDbEntity
  8
SEIHIN
  6
CONTINUOUS
 62
     3
100
AcDbLine
 10
591.2500690925118
 20
490.0916835033653
 30
0.0
 11
591.2500724668048
 21
481.723502303266
 31
0.0
  0
LINE
  5
8C53
330
1A
100
AcDbEntity
  8
SEIHIN
  6
CONTINUOUS
 62
     3
100
AcDbLine
 10
592.1783173148102
 20
490.8890019133619
 30
0.0
 11
592.1783188786149
 21
487.0107963641623
 31
0.0
  0
LINE
  5
8C54
330
1A
100
AcDbEntity
  8
SEIHIN
  6
CONTINUOUS
 62
     3
100
AcDbLine
 10
575.1783176363134
 20
490.0916770227699
 30
0.0
 11
575.1783210106061
 21
481.7234958226705
 31
0.0
  0
LINE
  5
8C55
330
1A
100
AcDbEntity
  8
SEIHIN
  6
CONTINUOUS
 62
     3
100
AcDbLine
 10
592.1783188786149
 20
487.0107963641623
 30
0.0
 11
592.1783190802294
 21
486.5107963641623
 31
0.0
  0
LINE
  5
8C56
330
1A
100
AcDbEntity
  8
SEIHIN
  6
CONTINUOUS
 62
     3
100
AcDbLine
 10
592.1783190802294
 20
486.5107963641623
 30
0.0
 11
592.1783192818439
 21
486.0107963641623
 31
0.0
  0
LINE
  5
8C57
330
1A
100
AcDbEntity
  8
SEIHIN
  6
CONTINUOUS
 62
     3
100
AcDbLine
 10
594.6783203205629
 20
483.434794110635
 30
0.0
 11
594.6783201189483
 21
483.934794110635
 31
0.0
  0
LINE
  5
8C58
330
1A
100
AcDbEntity
  8
SEIHIN
  6
CONTINUOUS
 62
     3
100
AcDbLine
 10
594.6783203205629
 20
483.434794110635
 30
0.0
 11
594.6783207237914
 21
482.4347941106349
 31
0.0
  0
LINE
  5
8C59
330
1A
100
AcDbEntity
  8
SEIHIN
  6
CONTINUOUS
 62
     3
100
AcDbLine
 10
591.2500724668048
 20
481.723502303266
 30
0.0
 11
575.1783210106061
 21
481.7234958226705
 31
0.0
  0
LINE
  5
8C5A
330
1A
100
AcDbEntity
  8
SEIHIN
  6
CONTINUOUS
 62
     3
100
AcDbLine
 10
594.6783230356005
 20
476.7015532396355
 30
0.0
 11
594.6783222292652
 21
478.7012486299352
 31
0.0
  0
LINE
  5
8C5B
330
1A
100
AcDbEntity
  8
SEIHIN
  6
CONTINUOUS
 62
     3
100
AcDbLine
 10
592.5120559285889
 20
478.3190254456339
 30
0.0
 11
591.4668519949296
 21
478.3707548066775
 31
0.0
  0
LINE
  5
8C5C
330
1A
100
AcDbEntity
  8
SEIHIN
  6
CONTINUOUS
 62
     3
100
AcDbLine
 10
592.678321366318
 20
480.8413406030772
 30
0.0
 11
591.4698163666003
 21
480.901152080473
 31
0.0
  0
LINE
  5
8C5D
330
1A
100
AcDbEntity
  8
SEIHIN
  6
CONTINUOUS
 62
     3
100
AcDbLine
 10
592.678321366318
 20
480.8413406030772
 30
0.0
 11
592.6783226103849
 21
477.7560789499775
 31
0.0
  0
LINE
  5
8C5E
330
1A
100
AcDbEntity
  8
SEIHIN
  6
CONTINUOUS
 62
     3
100
AcDbLine
 10
575.1783226984949
 20
477.537564213271
 30
0.0
 11
575.1783230135539
 21
476.756224198271
 31
0.0
  0
LINE
  5
8C5F
330
1A
100
AcDbEntity
  8
SEIHIN
  6
CONTINUOUS
 62
     3
100
AcDbLine
 10
575.1783223625308
 20
478.3707482386709
 30
0.0
 11
575.1783223833901
 21
478.3190184561709
 31
0.0
  0
LINE
  5
8C60
330
1A
100
AcDbEntity
  8
SEIHIN
  6
CONTINUOUS
 62
     3
100
AcDbLine
 10
575.1783223833901
 20
478.3190184561709
 30
0.0
 11
575.1783226984949
 21
477.537564213271
 31
0.0
  0
ARC
  5
8C61
330
1A
100
AcDbEntity
  8
SEIHIN
  6
CONTINUOUS
 62
     3
100
AcDbCircle
 10
574.6876332998136
 20
478.1399043822109
 30
0.0
 40
0.490784592808399
100
AcDbArc
 50
1.129968881217519
 51
91.08706635922052
  0
LINE
  5
8C62
330
1A
100
AcDbEntity
  8
SEIHIN
  6
CONTINUOUS
 62
     3
100
AcDbLine
 10
592.5120559285889
 20
478.3190254456339
 30
0.0
 11
575.1783223833901
 21
478.3190184561709
 31
0.0
  0
LINE
  5
8C63
330
1A
100
AcDbEntity
  8
SEIHIN
  6
CONTINUOUS
 62
     3
100
AcDbLine
 10
575.1783226984949
 20
477.537564213271
 30
0.0
 11
592.6825835995933
 21
477.5375712714956
 31
0.0
  0
LINE
  5
8C64
330
1A
100
AcDbEntity
  8
SEIHIN
  6
CONTINUOUS
 62
     3
100
AcDbLine
 10
592.1783192818439
 20
486.0107963641623
 30
0.0
 11
592.1783213563395
 21
480.8660866647628
 31
0.0
  0
LINE
  5
8C65
330
1A
100
AcDbEntity
  8
SEIHIN
  6
CONTINUOUS
 62
     3
100
AcDbLine
 10
591.2500737361016
 20
478.5756710068662
 30
0.0
 11
591.2500724668048
 21
481.723502303266
 31
0.0
  0
LINE
  5
8C66
330
1A
100
AcDbEntity
  8
SEIHIN
  6
CONTINUOUS
 62
     3
100
AcDbLine
 10
594.6783222292652
 20
478.7012486299352
 30
0.0
 11
594.6783207237914
 21
482.4347941106349
 31
0.0
  0
LINE
  5
8C67
330
1A
100
AcDbEntity
  8
SEIHIN
  6
CONTINUOUS
 62
     3
100
AcDbLine
 10
575.1783210106061
 20
481.7234958226705
 30
0.0
 11
575.1783223625308
 21
478.3707482386709
 31
0.0
  0
LINE
  5
8C68
330
1A
100
AcDbEntity
  8
SEIHIN
  6
CONTINUOUS
 62
     3
100
AcDbLine
 10
597.6783222214709
 20
478.7205790177221
 30
0.0
 11
597.6783223524322
 21
478.3957976495222
 31
0.0
  0
LINE
  5
8C69
330
1A
100
AcDbEntity
  8
SEIHIN
  6
CONTINUOUS
 62
     3
100
AcDbLine
 10
597.6783222214709
 20
478.7205790177221
 30
0.0
 11
597.6783220240955
 21
479.210066701322
 31
0.0
  0
LINE
  5
8C6A
330
1A
100
AcDbEntity
  8
SEIHIN
  6
CONTINUOUS
 62
     3
100
AcDbLine
 10
597.6783223524322
 20
478.3957976495222
 30
0.0
 11
597.6783224017009
 21
478.2736121950221
 31
0.0
  0
LINE
  5
8C6B
330
1A
100
AcDbEntity
  8
SEIHIN
  6
CONTINUOUS
 62
     3
100
AcDbLine
 10
591.2500681172433
 20
492.5103305037651
 30
0.0
 11
591.2500687223688
 21
491.0096317051651
 31
0.0
  0
LINE
  5
8C6C
330
1A
100
AcDbEntity
  8
SEIHIN
  6
CONTINUOUS
 62
     3
100
AcDbLine
 10
591.2500681172433
 20
492.5103305037651
 30
0.0
 11
591.2500679156665
 21
493.0102374065651
 31
0.0
  0
LINE
  5
8C6D
330
1A
100
AcDbEntity
  8
SEIHIN
  6
CONTINUOUS
 62
     3
100
AcDbLine
 10
591.2500689237487
 20
490.5102138474653
 30
0.0
 11
591.2500687223688
 21
491.0096317051651
 31
0.0
  0
LINE
  5
8C6E
330
1A
100
AcDbEntity
  8
SEIHIN
  6
CONTINUOUS
 62
     3
100
AcDbLine
 10
591.2500690925118
 20
490.0916835033653
 30
0.0
 11
591.2500689237487
 21
490.5102138474653
 31
0.0
  0
LINE
  5
8C6F
330
1A
100
AcDbEntity
  8
SEIHIN
  6
CONTINUOUS
 62
     3
100
AcDbLine
 10
592.1783170640848
 20
491.5107963641618
 30
0.0
 11
592.1783173148102
 21
490.8890019133619
 31
0.0
  0
LINE
  5
8C70
330
1A
100
AcDbEntity
  8
SEIHIN
  6
CONTINUOUS
 62
     3
100
AcDbLine
 10
577.6783141063357
 20
498.8459541252415
 30
0.0
 11
577.6783151083883
 21
496.3608828751418
 31
0.0
  0
LINE
  5
8C71
330
1A
100
AcDbEntity
  8
SEIHIN
  6
CONTINUOUS
 62
     3
100
AcDbLine
 10
577.6783164594677
 20
493.0102319340421
 30
0.0
 11
577.6783151083883
 21
496.3608828751418
 31
0.0
  0
LINE
  5
8C72
330
1A
100
AcDbEntity
  8
SEIHIN
  6
CONTINUOUS
 62
     3
100
AcDbLine
 10
575.1783166610449
 20
492.5103240231698
 30
0.0
 11
575.1783172661699
 21
491.0096252245699
 31
0.0
  0
LINE
  5
8C73
330
1A
100
AcDbEntity
  8
SEIHIN
  6
CONTINUOUS
 62
     3
100
AcDbLine
 10
575.1783164594682
 20
493.0102309259697
 30
0.0
 11
575.1783166610449
 21
492.5103240231698
 31
0.0
  0
LINE
  5
8C74
330
1A
100
AcDbEntity
  8
SEIHIN
  6
CONTINUOUS
 62
     3
100
AcDbLine
 10
575.1783172661699
 20
491.0096252245699
 30
0.0
 11
575.1783174675498
 21
490.5102073668698
 31
0.0
  0
LINE
  5
8C75
330
1A
100
AcDbEntity
  8
SEIHIN
  6
CONTINUOUS
 62
     3
100
AcDbLine
 10
575.1783174675498
 20
490.5102073668698
 30
0.0
 11
575.1783176363134
 21
490.0916770227699
 31
0.0
  0
LINE
  5
8C76
330
1A
100
AcDbEntity
  8
SEIHIN
  6
CONTINUOUS
 62
     3
100
AcDbLine
 10
575.1783164594682
 20
493.0102309259697
 30
0.0
 11
575.1783153990564
 21
495.640030153319
 31
0.0
  0
ARC
  5
8C77
330
1A
100
AcDbEntity
  8
SEIHIN
  6
CONTINUOUS
 62
     3
100
AcDbCircle
 10
574.6924556766113
 20
495.6250149394567
 30
0.0
 40
0.4860916853248752
100
AcDbArc
 50
1.770129521313185
 51
91.66697649792054
  0
LINE
  5
8C78
330
1A
100
AcDbEntity
  8
SEIHIN
  6
CONTINUOUS
 62
     3
100
AcDbLine
 10
574.6783171895573
 20
491.1996231449553
 30
0.0
 11
575.1783171895573
 21
491.1996233465699
 31
0.0
  0
LINE
  5
8C79
330
1A
100
AcDbEntity
  8
SEIHIN
  6
CONTINUOUS
 62
     3
100
AcDbLine
 10
591.2500679156665
 20
493.0102374065651
 30
0.0
 11
575.1783164594682
 21
493.0102309259697
 31
0.0
  0
LINE
  5
8C7A
330
1A
100
AcDbEntity
  8
SEIHIN
  6
CONTINUOUS
 62
     3
100
AcDbLine
 10
575.1783174675498
 20
490.5102073668698
 30
0.0
 11
591.2500689237487
 21
490.5102138474653
 31
0.0
  0
LINE
  5
8C7B
330
1A
100
AcDbEntity
  8
SEIHIN
  6
CONTINUOUS
 62
     3
100
AcDbLine
 10
632.6783231148511
 20
476.5050199370353
 30
0.0
 11
632.6783229466228
 21
476.9222228172353
 31
0.0
  0
LINE
  5
8C7C
330
1A
100
AcDbEntity
  8
SEIHIN
  6
CONTINUOUS
 62
     3
100
AcDbLine
 10
632.6783296626528
 20
460.2665990097365
 30
0.0
 11
632.6783231148511
 21
476.5050199370353
 31
0.0
  0
LINE
  5
8C7D
330
1A
100
AcDbEntity
  8
SEIHIN
  6
CONTINUOUS
 62
     3
100
AcDbLine
 10
632.6783299743316
 20
459.4936415365368
 30
0.0
 11
632.6783296626528
 21
460.2665990097365
 31
0.0
  0
LINE
  5
8C7E
330
1A
100
AcDbEntity
  8
SEIHIN
  6
CONTINUOUS
 62
     3
100
AcDbLine
 10
632.6783329311089
 20
452.1608907623373
 30
0.0
 11
632.6783299743316
 21
459.4936415365368
 31
0.0
  0
LINE
  5
8C7F
330
1A
100
AcDbEntity
  8
SEIHIN
  6
CONTINUOUS
 62
     3
100
AcDbLine
 10
632.6783188786118
 20
487.0108126949346
 30
0.0
 11
632.678317314807
 21
490.8890182441342
 31
0.0
  0
LINE
  5
8C80
330
1A
100
AcDbEntity
  8
SEIHIN
  6
CONTINUOUS
 62
     3
100
AcDbLine
 10
632.6783190802262
 20
486.5108126949346
 30
0.0
 11
632.6783188786118
 21
487.0108126949346
 31
0.0
  0
LINE
  5
8C81
330
1A
100
AcDbEntity
  8
SEIHIN
  6
CONTINUOUS
 62
     3
100
AcDbLine
 10
632.6783192818403
 20
486.0108126949346
 30
0.0
 11
632.6783190802262
 21
486.5108126949346
 31
0.0
  0
LINE
  5
8C82
330
1A
100
AcDbEntity
  8
SEIHIN
  6
CONTINUOUS
 62
     3
100
AcDbLine
 10
632.6783201189451
 20
483.9348094333348
 30
0.0
 11
632.6783192818403
 21
486.0108126949346
 31
0.0
  0
LINE
  5
8C83
330
1A
100
AcDbEntity
  8
SEIHIN
  6
CONTINUOUS
 62
     3
100
AcDbLine
 10
632.6783203205597
 20
483.4348094333348
 30
0.0
 11
632.6783201189451
 21
483.9348094333348
 31
0.0
  0
LINE
  5
8C84
330
1A
100
AcDbEntity
  8
SEIHIN
  6
CONTINUOUS
 62
     3
100
AcDbLine
 10
632.6783207237887
 20
482.4348094333349
 30
0.0
 11
632.6783203205597
 21
483.4348094333348
 31
0.0
  0
LINE
  5
8C85
330
1A
100
AcDbEntity
  8
SEIHIN
  6
CONTINUOUS
 62
     3
100
AcDbLine
 10
632.6783229466228
 20
476.9222228172353
 30
0.0
 11
632.6783223418716
 21
478.4219943599352
 31
0.0
  0
LINE
  5
8C86
330
1A
100
AcDbEntity
  8
SEIHIN
  6
CONTINUOUS
 62
     3
100
AcDbLine
 10
632.6783223060576
 20
478.5108126949352
 30
0.0
 11
632.6783220240923
 21
479.210080814335
 31
0.0
  0
LINE
  5
8C87
330
1A
100
AcDbEntity
  8
SEIHIN
  6
CONTINUOUS
 62
     3
100
AcDbLine
 10
632.6783223418716
 20
478.4219943599352
 30
0.0
 11
632.6783223060576
 21
478.5108126949352
 31
0.0
  0
LINE
  5
8C88
330
1A
100
AcDbEntity
  8
SEIHIN
  6
CONTINUOUS
 62
     3
100
AcDbLine
 10
632.6783220240923
 20
479.210080814335
 30
0.0
 11
632.6783219940981
 21
479.2844667876351
 31
0.0
  0
LINE
  5
8C89
330
1A
100
AcDbEntity
  8
SEIHIN
  6
CONTINUOUS
 62
     3
100
AcDbLine
 10
632.6783219597051
 20
479.3697604691351
 30
0.0
 11
632.6783219940981
 21
479.2844667876351
 31
0.0
  0
LINE
  5
8C8A
330
1A
100
AcDbEntity
  8
SEIHIN
  6
CONTINUOUS
 62
     3
100
AcDbLine
 10
632.6783219597051
 20
479.3697604691351
 30
0.0
 11
632.6783215574583
 21
480.3673245194351
 31
0.0
  0
LINE
  5
8C8B
330
1A
100
AcDbEntity
  8
SEIHIN
  6
CONTINUOUS
 62
     3
100
AcDbLine
 10
632.6783207237887
 20
482.4348094333349
 30
0.0
 11
632.6783215574583
 21
480.3673245194351
 31
0.0
  0
LINE
  5
8C8C
330
1A
100
AcDbEntity
  8
SEIHIN
  6
CONTINUOUS
 62
     3
100
AcDbLine
 10
632.678317314807
 20
490.8890182441342
 30
0.0
 11
632.6783170640811
 21
491.5108126949341
 31
0.0
  0
VIEWPORT
  5
22
330
17
100
AcDbEntity
 67
     1
  8
0
100
AcDbViewport
 10
313.6808219178082
 20
148.5
 30
0.0
 40
627.3616438356165
 41
297.0
 68
     2
 69
     1
1001
ACAD
1000
MVIEW
1002
{
1070
    16
1010
0.0
1020
0.0
1030
0.0
1010
0.0
1020
0.0
1030
1.0
1040
0.0
1040
297.0
1040
313.6808219178082
1040
148.5
1040
50.0
1040
0.0
1040
0.0
1070
     0
1070
   100
1070
     1
1070
     0
1070
     0
1070
     0
1070
     0
1070
     0
1040
0.0
1040
0.0
1040
0.0
1040
1.0
1040
1.0
1040
10.0
1040
10.0
1070
     0
1002
{
1002
}
1002
}
  0
VIEWPORT
  5
64
330
17
100
AcDbEntity
 67
     1
  8
VIEWPORT
100
AcDbViewport
 10
210.0
 20
148.5
 30
0.0
 40
420.0
 41
297.0
 68
     1
 69
     2
1001
ACAD
1000
MVIEW
1002
{
1070
    16
1010
0.0
1020
0.0
1030
0.0
1010
0.0
1020
0.0
1030
1.0
1040
0.0
1040
605.8799999999997
1040
420.0
1040
297.0
1040
50.0
1040
0.0
1040
0.0
1070
     0
1070
   100
1070
     1
1070
     0
1070
     0
1070
     0
1070
     0
1070
     0
1040
0.0
1040
0.0
1040
0.0
1040
10.0
1040
10.0
1040
0.0
1040
0.0
1070
     0
1002
{
1002
}
1002
}
  0
ENDSEC
  0
SECTION
  2
OBJECTS
  0
DICTIONARY
  5
C
330
0
100
AcDbDictionary
  3
ACAD_GROUP
350
D
  3
ACAD_LAYOUT
350
556
  3
ACAD_MLINESTYLE
350
E
  3
ACAD_PLOTSETTINGS
350
557
  3
ACAD_PLOTSTYLENAME
350
4F6A
  3
ACDBHEADERROUNDTRIPXREC
350
8DBC
1001
ACAD
1000
TREAT_AS_HARD
1070
     0
  0
DICTIONARY
  5
86D2
330
2
100
AcDbDictionary
280
     1
  3
ACAD_LAYERFILTERS
360
86D3
  0
DICTIONARY
  5
6C6
330
1A
100
AcDbDictionary
280
     1
  3
ACAD_LAYOUTSELFREF
360
8DDE
1001
ACAD
1000
TREAT_AS_HARD
1070
     1
  0
DICTIONARY
  5
6C4
330
17
100
AcDbDictionary
280
     1
  3
ACAD_LAYOUTSELFREF
360
8DDD
1001
ACAD
1000
TREAT_AS_HARD
1070
     1
  0
DICTIONARY
  5
D
102
{ACAD_REACTORS
330
C
102
}
330
C
100
AcDbDictionary
1001
ACAD
1000
TREAT_AS_HARD
1070
     0
  0
DICTIONARY
  5
556
102
{ACAD_REACTORS
330
C
102
}
330
C
100
AcDbDictionary
1001
ACAD
1000
TREAT_AS_HARD
1070
     0
  0
DICTIONARY
  5
E
102
{ACAD_REACTORS
330
C
102
}
330
C
100
AcDbDictionary
  3
STANDARD
350
13
1001
ACAD
1000
TREAT_AS_HARD
1070
     0
  0
DICTIONARY
  5
557
102
{ACAD_REACTORS
330
C
102
}
330
C
100
AcDbDictionary
1001
ACAD
1000
TREAT_AS_HARD
1070
     0
  0
ACDBDICTIONARYWDFLT
  5
4F6A
102
{ACAD_REACTORS
330
C
102
}
330
C
100
AcDbDictionary
281
     1
  3
Normal
350
4F6B
100
AcDbDictionaryWithDefault
340
4F6B
1001
ACAD
1000
TREAT_AS_HARD
1070
     0
1000
TREAT_AS_HARD
1070
     0
1000
TREAT_AS_HARD
1070
     0
1000
TREAT_AS_HARD
1070
     0
1000
TREAT_AS_HARD
1070
     0
1000
TREAT_AS_HARD
1070
     0
  0
DICTIONARY
  5
8DBC
102
{ACAD_REACTORS
330
C
102
}
330
C
100
AcDbDictionary
  3
TSTACKALIGN
350
8DBD
  3
TSTACKSIZE
350
8DBE
  3
HYPERLINKBASE
350
8DBF
  3
STYLESHEET
350
8DC0
  3
LAYOUTDICT
350
8DC1
  3
PLOTSETDICT
350
8DC2
  3
PLOTSTYLNAMDICT
350
8DC3
  3
LWETCUNION
350
8DC4
  3
INSUNITS
350
8DC5
  3
CEPSNTYPE
350
8DC6
  3
FINGERPRINTGUID
350
8DC7
  3
VERSIONGUID
350
8DC8
  3
PSVPSCALE
350
8DC9
  3
DIMSTYLEDATA
350
8DCA
  3
PUCSORTHOREF
350
8DCB
  3
PUCSORTHOVIEW
350
8DCC
  3
PUCSBASE
350
8DCD
  3
PUCSORGTOP
350
8DCE
  3
PUCSORGBOTTOM
350
8DCF
  3
PUCSORGLEFT
350
8DD0
  3
PUCSORGRIGHT
350
8DD1
  3
PUCSORGFRONT
350
8DD2
  3
PUCSORGBACK
350
8DD3
  3
UCSORTHOREF
350
8DD4
  3
UCSORTHOVIEW
350
8DD5
  3
UCSBASE
350
8DD6
  3
UCSORGTOP
350
8DD7
  3
UCSORGBOTTOM
350
8DD8
  3
UCSORGLEFT
350
8DD9
  3
UCSORGRIGHT
350
8DDA
  3
UCSORGFRONT
350
8DDB
  3
UCSORGBACK
350
8DDC
  0
DICTIONARY
  5
86D3
102
{ACAD_REACTORS
330
86D2
102
}
330
86D2
100
AcDbDictionary
280
     1
  3
50
360
86D4
  0
XRECORD
  5
8DDE
102
{ACAD_REACTORS
330
6C6
102
}
330
6C6
100
AcDbXrecord
340
1A
  0
XRECORD
  5
8DDD
102
{ACAD_REACTORS
330
6C4
102
}
330
6C4
100
AcDbXrecord
340
17
  0
MLINESTYLE
  5
13
102
{ACAD_REACTORS
330
E
102
}
330
E
100
AcDbMlineStyle
  2
STANDARD
 70
     0
  3

 62
     0
 51
90.0
 52
90.0
 71
     2
 49
0.5
 62
   256
  6
BYLAYER
 49
-0.5
 62
   256
  6
BYLAYER
  0
ACDBPLACEHOLDER
  5
4F6B
102
{ACAD_REACTORS
330
4F6A
102
}
330
4F6A
100
AcDbPlaceHolder
280
     0
  0
XRECORD
  5
8DBD
102
{ACAD_REACTORS
330
8DBC
102
}
330
8DBC
100
AcDbXrecord
 90
        1
  0
XRECORD
  5
8DBE
102
{ACAD_REACTORS
330
8DBC
102
}
330
8DBC
100
AcDbXrecord
 90
       70
  0
XRECORD
  5
8DBF
102
{ACAD_REACTORS
330
8DBC
102
}
330
8DBC
100
AcDbXrecord
  1

  0
XRECORD
  5
8DC0
102
{ACAD_REACTORS
330
8DBC
102
}
330
8DBC
100
AcDbXrecord
  1
systemprinter.ctb
  0
XRECORD
  5
8DC1
102
{ACAD_REACTORS
330
8DBC
102
}
330
8DBC
100
AcDbXrecord
340
556
  0
XRECORD
  5
8DC2
102
{ACAD_REACTORS
330
8DBC
102
}
330
8DBC
100
AcDbXrecord
340
557
  0
XRECORD
  5
8DC3
102
{ACAD_REACTORS
330
8DBC
102
}
330
8DBC
100
AcDbXrecord
340
4F6A
  0
XRECORD
  5
8DC4
102
{ACAD_REACTORS
330
8DBC
102
}
330
8DBC
100
AcDbXrecord
 90
    10781
  0
XRECORD
  5
8DC5
102
{ACAD_REACTORS
330
8DBC
102
}
330
8DBC
100
AcDbXrecord
 90
        0
  0
XRECORD
  5
8DC6
102
{ACAD_REACTORS
330
8DBC
102
}
330
8DBC
100
AcDbXrecord
 90
        0
  0
XRECORD
  5
8DC7
102
{ACAD_REACTORS
330
8DBC
102
}
330
8DBC
100
AcDbXrecord
  1
{1A9A696F-033A-47E9-BA1E-100F83A8E52E}
  0
XRECORD
  5
8DC8
102
{ACAD_REACTORS
330
8DBC
102
}
330
8DBC
100
AcDbXrecord
  1
{6BE1598C-E8AD-4FC1-9024-34F0BBDE05C1}
  0
XRECORD
  5
8DC9
102
{ACAD_REACTORS
330
8DBC
102
}
330
8DBC
100
AcDbXrecord
 40
0.0
  0
XRECORD
  5
8DCA
102
{ACAD_REACTORS
330
8DBC
102
}
330
8DBC
100
AcDbXrecord
1000
DSTYLE
1002
{
1070
   341
340
6D
1070
   343
340
6D
1070
   344
340
6D
1002
}
  0
XRECORD
  5
8DCB
102
{ACAD_REACTORS
330
8DBC
102
}
330
8DBC
100
AcDbXrecord
340
0
  0
XRECORD
  5
8DCC
102
{ACAD_REACTORS
330
8DBC
102
}
330
8DBC
100
AcDbXrecord
 70
     0
  0
XRECORD
  5
8DCD
102
{ACAD_REACTORS
330
8DBC
102
}
330
8DBC
100
AcDbXrecord
340
0
  0
XRECORD
  5
8DCE
102
{ACAD_REACTORS
330
8DBC
102
}
330
8DBC
100
AcDbXrecord
 10
0.0
 20
0.0
 30
0.0
  0
XRECORD
  5
8DCF
102
{ACAD_REACTORS
330
8DBC
102
}
330
8DBC
100
AcDbXrecord
 10
0.0
 20
0.0
 30
0.0
  0
XRECORD
  5
8DD0
102
{ACAD_REACTORS
330
8DBC
102
}
330
8DBC
100
AcDbXrecord
 10
0.0
 20
0.0
 30
0.0
  0
XRECORD
  5
8DD1
102
{ACAD_REACTORS
330
8DBC
102
}
330
8DBC
100
AcDbXrecord
 10
0.0
 20
0.0
 30
0.0
  0
XRECORD
  5
8DD2
102
{ACAD_REACTORS
330
8DBC
102
}
330
8DBC
100
AcDbXrecord
 10
0.0
 20
0.0
 30
0.0
  0
XRECORD
  5
8DD3
102
{ACAD_REACTORS
330
8DBC
102
}
330
8DBC
100
AcDbXrecord
 10
0.0
 20
0.0
 30
0.0
  0
XRECORD
  5
8DD4
102
{ACAD_REACTORS
330
8DBC
102
}
330
8DBC
100
AcDbXrecord
340
0
  0
XRECORD
  5
8DD5
102
{ACAD_REACTORS
330
8DBC
102
}
330
8DBC
100
AcDbXrecord
 70
     0
  0
XRECORD
  5
8DD6
102
{ACAD_REACTORS
330
8DBC
102
}
330
8DBC
100
AcDbXrecord
340
0
  0
XRECORD
  5
8DD7
102
{ACAD_REACTORS
330
8DBC
102
}
330
8DBC
100
AcDbXrecord
 10
0.0
 20
0.0
 30
0.0
  0
XRECORD
  5
8DD8
102
{ACAD_REACTORS
330
8DBC
102
}
330
8DBC
100
AcDbXrecord
 10
0.0
 20
0.0
 30
0.0
  0
XRECORD
  5
8DD9
102
{ACAD_REACTORS
330
8DBC
102
}
330
8DBC
100
AcDbXrecord
 10
0.0
 20
0.0
 30
0.0
  0
XRECORD
  5
8DDA
102
{ACAD_REACTORS
330
8DBC
102
}
330
8DBC
100
AcDbXrecord
 10
0.0
 20
0.0
 30
0.0
  0
XRECORD
  5
8DDB
102
{ACAD_REACTORS
330
8DBC
102
}
330
8DBC
100
AcDbXrecord
 10
0.0
 20
0.0
 30
0.0
  0
XRECORD
  5
8DDC
102
{ACAD_REACTORS
330
8DBC
102
}
330
8DBC
100
AcDbXrecord
 10
0.0
 20
0.0
 30
0.0
  0
XRECORD
  5
86D4
102
{ACAD_REACTORS
330
86D3
102
}
330
86D3
100
AcDbXrecord
  1
50
  1
*-50
  1
*
  1
*
 70
     0
  1
*
  1
*
  0
ENDSEC
  0
EOF
